  0
SECTION
  2
HEADER
  9
$ACADVER
  1
AC1027
  9
$ACADMAINTVER
 70
    55
  9
$DWGCODEPAGE
  3
ANSI_932
  9
$LASTSAVEDBY
  1
marketing
  9
$REQUIREDVERSIONS
160
                 0
  9
$INSBASE
 10
0.0
 20
0.0
 30
0.0
  9
$EXTMIN
 10
-0.0501380315408824
 20
-0.0093158948243399
 30
-0.0000000000000058
  9
$EXTMAX
 10
525.0436834305673
 20
742.5509672216598
 30
0.0000000000000104
  9
$LIMMIN
 10
-296.316999476111
 20
-370.7034300441653
  9
$LIMMAX
 10
623.3128432133979
 20
328.6261559379898
  9
$ORTHOMODE
 70
     1
  9
$REGENMODE
 70
     1
  9
$FILLMODE
 70
     1
  9
$QTEXTMODE
 70
     0
  9
$MIRRTEXT
 70
     1
  9
$LTSCALE
 40
10.0
  9
$ATTMODE
 70
     1
  9
$TEXTSIZE
 40
5.0
  9
$TRACEWID
 40
0.05
  9
$TEXTSTYLE
  7
STANDARD1
  9
$CLAYER
  8
10
  9
$CELTYPE
  6
CONTINUOUS
  9
$CECOLOR
 62
   256
  9
$CELTSCALE
 40
1.0
  9
$DISPSILH
 70
     0
  9
$DIMSCALE
 40
1.0
  9
$DIMASZ
 40
2.0
  9
$DIMEXO
 40
3.0
  9
$DIMDLI
 40
0.5
  9
$DIMRND
 40
0.0
  9
$DIMDLE
 40
0.0
  9
$DIMEXE
 40
0.5
  9
$DIMTP
 40
0.0
  9
$DIMTM
 40
0.0
  9
$DIMTXT
 40
6.0
  9
$DIMCEN
 40
0.09
  9
$DIMTSZ
 40
0.0
  9
$DIMTOL
 70
     0
  9
$DIMLIM
 70
     0
  9
$DIMTIH
 70
     0
  9
$DIMTOH
 70
     0
  9
$DIMSE1
 70
     0
  9
$DIMSE2
 70
     0
  9
$DIMTAD
 70
     3
  9
$DIMZIN
 70
    12
  9
$DIMBLK
  1
OPEN
  9
$DIMASO
 70
     1
  9
$DIMSHO
 70
     1
  9
$DIMPOST
  1

  9
$DIMAPOST
  1

  9
$DIMALT
 70
     0
  9
$DIMALTD
 70
     2
  9
$DIMALTF
 40
25.4
  9
$DIMLFAC
 40
1.0
  9
$DIMTOFL
 70
     1
  9
$DIMTVP
 40
0.0
  9
$DIMTIX
 70
     0
  9
$DIMSOXD
 70
     0
  9
$DIMSAH
 70
     0
  9
$DIMBLK1
  1

  9
$DIMBLK2
  1

  9
$DIMSTYLE
  2
STANDARD1
  9
$DIMCLRD
 70
     0
  9
$DIMCLRE
 70
     0
  9
$DIMCLRT
 70
     0
  9
$DIMTFAC
 40
1.0
  9
$DIMGAP
 40
2.0
  9
$DIMJUST
 70
     0
  9
$DIMSD1
 70
     0
  9
$DIMSD2
 70
     0
  9
$DIMTOLJ
 70
     1
  9
$DIMTZIN
 70
     0
  9
$DIMALTZ
 70
     0
  9
$DIMALTTZ
 70
     0
  9
$DIMUPT
 70
     0
  9
$DIMDEC
 70
     8
  9
$DIMTDEC
 70
     8
  9
$DIMALTU
 70
     2
  9
$DIMALTTD
 70
     2
  9
$DIMTXSTY
  7
STANDARD
  9
$DIMAUNIT
 70
     0
  9
$DIMADEC
 70
     0
  9
$DIMALTRND
 40
0.0
  9
$DIMAZIN
 70
     0
  9
$DIMDSEP
 70
    46
  9
$DIMATFIT
 70
     2
  9
$DIMFRAC
 70
     0
  9
$DIMLDRBLK
  1
OPEN
  9
$DIMLUNIT
 70
     2
  9
$DIMLWD
 70
    -2
  9
$DIMLWE
 70
    -2
  9
$DIMTMOVE
 70
     0
  9
$DIMFXL
 40
1.0
  9
$DIMFXLON
 70
     0
  9
$DIMJOGANG
 40
0.7853981633974483
  9
$DIMTFILL
 70
     0
  9
$DIMTFILLCLR
 70
     0
  9
$DIMARCSYM
 70
     0
  9
$DIMLTYPE
  6

  9
$DIMLTEX1
  6

  9
$DIMLTEX2
  6

  9
$DIMTXTDIRECTION
 70
     0
  9
$LUNITS
 70
     2
  9
$LUPREC
 70
     4
  9
$SKETCHINC
 40
0.1
  9
$FILLETRAD
 40
0.0
  9
$AUNITS
 70
     0
  9
$AUPREC
 70
     0
  9
$MENU
  1
.
  9
$ELEVATION
 40
0.0
  9
$PELEVATION
 40
0.0
  9
$THICKNESS
 40
0.0
  9
$LIMCHECK
 70
     0
  9
$CHAMFERA
 40
0.0
  9
$CHAMFERB
 40
0.0
  9
$CHAMFERC
 40
0.0
  9
$CHAMFERD
 40
0.0
  9
$SKPOLY
 70
     0
  9
$TDCREATE
 40
2452286.555658658
  9
$TDUCREATE
 40
2452286.180658658
  9
$TDUPDATE
 40
2459243.601788692
  9
$TDUUPDATE
 40
2459243.226788693
  9
$TDINDWG
 40
1.7783768866
  9
$TDUSRTIMER
 40
1.7783748727
  9
$USRTIMER
 70
     1
  9
$ANGBASE
 50
0.0
  9
$ANGDIR
 70
     0
  9
$PDMODE
 70
     0
  9
$PDSIZE
 40
0.0
  9
$PLINEWID
 40
0.0
  9
$SPLFRAME
 70
     0
  9
$SPLINETYPE
 70
     6
  9
$SPLINESEGS
 70
     8
  9
$HANDSEED
  5
11CD6
  9
$SURFTAB1
 70
     6
  9
$SURFTAB2
 70
     6
  9
$SURFTYPE
 70
     6
  9
$SURFU
 70
     6
  9
$SURFV
 70
     6
  9
$UCSBASE
  2

  9
$UCSNAME
  2

  9
$UCSORG
 10
0.0
 20
0.0
 30
0.0
  9
$UCSXDIR
 10
1.0
 20
0.0
 30
0.0
  9
$UCSYDIR
 10
0.0
 20
1.0
 30
0.0
  9
$UCSORTHOREF
  2

  9
$UCSORTHOVIEW
 70
     0
  9
$UCSORGTOP
 10
0.0
 20
0.0
 30
0.0
  9
$UCSORGBOTTOM
 10
0.0
 20
0.0
 30
0.0
  9
$UCSORGLEFT
 10
0.0
 20
0.0
 30
0.0
  9
$UCSORGRIGHT
 10
0.0
 20
0.0
 30
0.0
  9
$UCSORGFRONT
 10
0.0
 20
0.0
 30
0.0
  9
$UCSORGBACK
 10
0.0
 20
0.0
 30
0.0
  9
$PUCSBASE
  2

  9
$PUCSNAME
  2

  9
$PUCSORG
 10
0.0
 20
0.0
 30
0.0
  9
$PUCSXDIR
 10
1.0
 20
0.0
 30
0.0
  9
$PUCSYDIR
 10
0.0
 20
1.0
 30
0.0
  9
$PUCSORTHOREF
  2

  9
$PUCSORTHOVIEW
 70
     0
  9
$PUCSORGTOP
 10
0.0
 20
0.0
 30
0.0
  9
$PUCSORGBOTTOM
 10
0.0
 20
0.0
 30
0.0
  9
$PUCSORGLEFT
 10
0.0
 20
0.0
 30
0.0
  9
$PUCSORGRIGHT
 10
0.0
 20
0.0
 30
0.0
  9
$PUCSORGFRONT
 10
0.0
 20
0.0
 30
0.0
  9
$PUCSORGBACK
 10
0.0
 20
0.0
 30
0.0
  9
$USERI1
 70
     0
  9
$USERI2
 70
     0
  9
$USERI3
 70
     0
  9
$USERI4
 70
     0
  9
$USERI5
 70
     0
  9
$USERR1
 40
0.0
  9
$USERR2
 40
0.0
  9
$USERR3
 40
0.0
  9
$USERR4
 40
0.0
  9
$USERR5
 40
0.0
  9
$WORLDVIEW
 70
     1
  9
$SHADEDGE
 70
     3
  9
$SHADEDIF
 70
    70
  9
$TILEMODE
 70
     1
  9
$MAXACTVP
 70
    48
  9
$PINSBASE
 10
0.0
 20
0.0
 30
0.0
  9
$PLIMCHECK
 70
     0
  9
$PEXTMIN
 10
1.122749993181602
 20
0.7804166500962629
 30
0.0
  9
$PEXTMAX
 10
10.10474993863443
 20
7.023749850866361
 30
0.0
  9
$PLIMMIN
 10
-0.2312499519408218
 20
-0.2312499894870548
  9
$PLIMMAX
 10
11.45874984621061
 20
8.035416452903447
  9
$UNITMODE
 70
     0
  9
$VISRETAIN
 70
     1
  9
$PLINEGEN
 70
     0
  9
$PSLTSCALE
 70
     1
  9
$TREEDEPTH
 70
  3020
  9
$CMLSTYLE
  2
STANDARD
  9
$CMLJUST
 70
     0
  9
$CMLSCALE
 40
1.0
  9
$PROXYGRAPHICS
 70
     1
  9
$MEASUREMENT
 70
     0
  9
$CELWEIGHT
370
    -1
  9
$ENDCAPS
280
     0
  9
$JOINSTYLE
280
     0
  9
$LWDISPLAY
290
     0
  9
$INSUNITS
 70
     0
  9
$HYPERLINKBASE
  1

  9
$STYLESHEET
  1
MONOCHROME.CTB
  9
$XEDIT
290
     1
  9
$CEPSNTYPE
380
     0
  9
$PSTYLEMODE
290
     1
  9
$FINGERPRINTGUID
  2

  9
$VERSIONGUID
  2
{C3A9C566-DCDE-4F75-A564-E8C2240AE2AE}
  9
$EXTNAMES
290
     1
  9
$PSVPSCALE
 40
0.0
  9
$OLESTARTUP
290
     0
  9
$SORTENTS
280
   127
  9
$INDEXCTL
280
     0
  9
$HIDETEXT
280
     0
  9
$XCLIPFRAME
280
     2
  9
$HALOGAP
280
     0
  9
$OBSCOLOR
 70
   257
  9
$OBSLTYPE
280
     0
  9
$INTERSECTIONDISPLAY
280
     0
  9
$INTERSECTIONCOLOR
 70
   257
  9
$DIMASSOC
280
     1
  9
$PROJECTNAME
  1

  9
$CAMERADISPLAY
290
     0
  9
$LENSLENGTH
 40
50.0
  9
$CAMERAHEIGHT
 40
0.0
  9
$STEPSPERSEC
 40
2.0
  9
$STEPSIZE
 40
6.0
  9
$3DDWFPREC
 40
2.0
  9
$PSOLWIDTH
 40
0.25
  9
$PSOLHEIGHT
 40
4.0
  9
$LOFTANG1
 40
1.570796326794896
  9
$LOFTANG2
 40
1.570796326794896
  9
$LOFTMAG1
 40
0.0
  9
$LOFTMAG2
 40
0.0
  9
$LOFTPARAM
 70
     7
  9
$LOFTNORMALS
280
     1
  9
$LATITUDE
 40
37.795
  9
$LONGITUDE
 40
-122.394
  9
$NORTHDIRECTION
 40
0.0
  9
$TIMEZONE
 70
 -8000
  9
$LIGHTGLYPHDISPLAY
280
     1
  9
$TILEMODELIGHTSYNCH
280
     1
  9
$CMATERIAL
347
627F
  9
$SOLIDHIST
280
     1
  9
$SHOWHIST
280
     1
  9
$DWFFRAME
280
     2
  9
$DGNFRAME
280
     0
  9
$REALWORLDSCALE
290
     1
  9
$INTERFERECOLOR
 62
     1
  9
$INTERFEREOBJVS
345
62A1
  9
$INTERFEREVPVS
346
66D0
  9
$CSHADOW
280
     0
  9
$SHADOWPLANELOCATION
 40
0.0
  0
ENDSEC
  0
SECTION
  2
CLASSES
  0
CLASS
  1
ACDBDICTIONARYWDFLT
  2
AcDbDictionaryWithDefault
  3
ObjectDBX Classes
 90
        0
 91
        1
280
     0
281
     0
  0
CLASS
  1
DICTIONARYVAR
  2
AcDbDictionaryVar
  3
ObjectDBX Classes
 90
        0
 91
       12
280
     0
281
     0
  0
CLASS
  1
MATERIAL
  2
AcDbMaterial
  3
ObjectDBX Classes
 90
     1153
 91
        3
280
     0
281
     0
  0
CLASS
  1
VISUALSTYLE
  2
AcDbVisualStyle
  3
ObjectDBX Classes
 90
     4095
 91
       26
280
     0
281
     0
  0
CLASS
  1
TABLESTYLE
  2
AcDbTableStyle
  3
ObjectDBX Classes
 90
     4095
 91
        1
280
     0
281
     0
  0
CLASS
  1
SCALE
  2
AcDbScale
  3
ObjectDBX Classes
 90
     1153
 91
       17
280
     0
281
     0
  0
CLASS
  1
MLEADERSTYLE
  2
AcDbMLeaderStyle
  3
ACDB_MLEADERSTYLE_CLASS
 90
     4095
 91
        1
280
     0
281
     0
  0
CLASS
  1
ACDBSECTIONVIEWSTYLE
  2
AcDbSectionViewStyle
  3
ObjectDBX Classes
 90
     1025
 91
        2
280
     0
281
     0
  0
CLASS
  1
ACDBDETAILVIEWSTYLE
  2
AcDbDetailViewStyle
  3
ObjectDBX Classes
 90
     1025
 91
        2
280
     0
281
     0
  0
CLASS
  1
CELLSTYLEMAP
  2
AcDbCellStyleMap
  3
ObjectDBX Classes
 90
     1152
 91
        2
280
     0
281
     0
  0
CLASS
  1
SORTENTSTABLE
  2
AcDbSortentsTable
  3
ObjectDBX Classes
 90
        0
 91
        2
280
     0
281
     0
  0
ENDSEC
  0
SECTION
  2
TABLES
  0
TABLE
  2
VPORT
  5
8
330
0
100
AcDbSymbolTable
 70
     1
  0
VPORT
  5
6275
330
8
100
AcDbSymbolTableRecord
100
AcDbViewportTableRecord
  2
*Active
 70
     0
 10
0.0
 20
0.0
 11
1.0
 21
1.0
 12
262.4967726995133
 22
371.2708256634178
 13
0.0
 23
0.0
 14
1.0
 24
1.0
 15
10.0
 25
10.0
 16
0.0
 26
0.0
 36
1.0
 17
0.0
 27
0.0
 37
0.0
 40
749.3108311448159
 41
2.880121396054628
 42
50.0
 43
0.0
 44
0.0
 50
0.0
 51
0.0
 71
     0
 72
   100
 73
     1
 74
     1
 75
     0
 76
     0
 77
     0
 78
     0
281
     0
 65
     1
110
0.0
120
0.0
130
0.0
111
1.0
121
0.0
131
0.0
112
0.0
122
1.0
132
0.0
 79
     0
146
0.0
348
629D
 60
     3
 61
     5
292
     1
282
     1
141
0.0
142
0.0
 63
   250
421
  3355443
1001
ACAD_NAV_VCDISPLAY
1070
     3
  0
ENDTAB
  0
TABLE
  2
LTYPE
  5
5
330
0
100
AcDbSymbolTable
 70
     8
  0
LTYPE
  5
13
330
5
100
AcDbSymbolTableRecord
100
AcDbLinetypeTableRecord
  2
BYBLOCK
 70
     0
  3

 72
    65
 73
     0
 40
0.0
  0
LTYPE
  5
14
330
5
100
AcDbSymbolTableRecord
100
AcDbLinetypeTableRecord
  2
BYLAYER
 70
     0
  3

 72
    65
 73
     0
 40
0.0
  0
LTYPE
  5
15
330
5
100
AcDbSymbolTableRecord
100
AcDbLinetypeTableRecord
  2
CONTINUOUS
 70
     0
  3
Solid line
 72
    65
 73
     0
 40
0.0
  0
LTYPE
  5
22
330
5
100
AcDbSymbolTableRecord
100
AcDbLinetypeTableRecord
  2
CONTINOUS
 70
     0
  3
Solid line
 72
    65
 73
     0
 40
0.0
  0
LTYPE
  5
23
330
5
100
AcDbSymbolTableRecord
100
AcDbLinetypeTableRecord
  2
DASHED
 70
     0
  3
__ __ __ __ __ __ __ __ __ __ __ __ __ __ __
 72
    65
 73
     2
 40
0.75
 49
0.5
 74
     0
 49
-0.25
 74
     0
  0
LTYPE
  5
24
330
5
100
AcDbSymbolTableRecord
100
AcDbLinetypeTableRecord
  2
DASHDOT
 70
     0
  3
__ . __ . __ . __ . __ . __ . __ . __ . __ . __
 72
    65
 73
     4
 40
1.0
 49
0.5
 74
     0
 49
-0.25
 74
     0
 49
0.0
 74
     0
 49
-0.25
 74
     0
  0
LTYPE
  5
4C47
330
5
100
AcDbSymbolTableRecord
100
AcDbLinetypeTableRecord
  2
DIVIDE
 70
     0
  3
Divide ____ . . ____ . . ____ . . ____ . . ____
 72
    65
 73
     6
 40
1.25
 49
0.5
 74
     0
 49
-0.25
 74
     0
 49
0.0
 74
     0
 49
-0.25
 74
     0
 49
0.0
 74
     0
 49
-0.25
 74
     0
  0
LTYPE
  5
6AE6
330
5
100
AcDbSymbolTableRecord
100
AcDbLinetypeTableRecord
  2
SLD-実線
 70
     0
  3
SolidWorks Line Style
 72
    65
 73
     0
 40
0.0
  0
LTYPE
  5
10C37
330
5
100
AcDbSymbolTableRecord
100
AcDbLinetypeTableRecord
  2
DOT
 70
     0
  3
Dot . . . . . . . . . . . . . . . . . . . . . .
 72
    65
 73
     2
 40
0.25
 49
0.0
 74
     0
 49
-0.25
 74
     0
  0
LTYPE
  5
11B85
330
5
100
AcDbSymbolTableRecord
100
AcDbLinetypeTableRecord
  2
HIDDENX2
 70
     0
  3
Hidden (2x) ____ ____ ____ ____ ____ ____ ____
 72
    65
 73
     2
 40
0.75
 49
0.5
 74
     0
 49
-0.25
 74
     0
  0
ENDTAB
  0
TABLE
  2
LAYER
  5
2
102
{ACAD_XDICTIONARY
360
FF70
102
}
330
0
100
AcDbSymbolTable
 70
    15
  0
LAYER
  5
10
102
{ACAD_XDICTIONARY
360
6368
102
}
330
2
100
AcDbSymbolTableRecord
100
AcDbLayerTableRecord
  2
0
 70
     0
 62
     7
  6
CONTINOUS
370
    -3
390
F
347
628F
348
0
  0
LAYER
  5
2F
102
{ACAD_XDICTIONARY
360
636A
102
}
330
2
100
AcDbSymbolTableRecord
100
AcDbLayerTableRecord
  2
10
 70
     0
 62
     4
  6
CONTINOUS
370
    -3
390
F
347
628F
348
0
  0
LAYER
  5
31
102
{ACAD_XDICTIONARY
360
636C
102
}
330
2
100
AcDbSymbolTableRecord
100
AcDbLayerTableRecord
  2
12
 70
     0
 62
     3
  6
CONTINOUS
370
    -3
390
F
347
628F
348
0
  0
LAYER
  5
35
102
{ACAD_XDICTIONARY
360
636E
102
}
330
2
100
AcDbSymbolTableRecord
100
AcDbLayerTableRecord
  2
16
 70
     0
 62
     6
  6
DASHDOT
370
    -3
390
F
347
628F
348
0
  0
LAYER
  5
3C
102
{ACAD_XDICTIONARY
360
6372
102
}
330
2
100
AcDbSymbolTableRecord
100
AcDbLayerTableRecord
  2
11
 70
     0
 62
     1
  6
CONTINOUS
370
    -3
390
F
347
628F
348
0
  0
LAYER
  5
3D
102
{ACAD_XDICTIONARY
360
6374
102
}
330
2
100
AcDbSymbolTableRecord
100
AcDbLayerTableRecord
  2
24
 70
     0
 62
     7
  6
CONTINOUS
370
    -3
390
F
347
628F
348
0
  0
LAYER
  5
3A2
102
{ACAD_XDICTIONARY
360
6376
102
}
330
2
100
AcDbSymbolTableRecord
100
AcDbLayerTableRecord
  2
30
 70
     0
 62
     9
  6
CONTINUOUS
370
    -3
390
F
347
628F
348
0
  0
LAYER
  5
3A4
330
2
100
AcDbSymbolTableRecord
100
AcDbLayerTableRecord
  2
DEFPOINTS
 70
     0
 62
     7
  6
CONTINUOUS
290
     0
370
    -3
390
F
347
628F
348
0
  0
LAYER
  5
3BBA
102
{ACAD_XDICTIONARY
360
6378
102
}
330
2
100
AcDbSymbolTableRecord
100
AcDbLayerTableRecord
  2
18
 70
     0
 62
     5
  6
DIVIDE
370
    -3
390
F
347
628F
348
0
  0
LAYER
  5
5C47
102
{ACAD_XDICTIONARY
360
637E
102
}
330
2
100
AcDbSymbolTableRecord
100
AcDbLayerTableRecord
  2
17
 70
     0
 62
     2
  6
DASHDOT
370
    -3
390
F
347
628F
348
0
  0
LAYER
  5
6AEB
102
{ACAD_XDICTIONARY
360
6AEC
102
}
330
2
100
AcDbSymbolTableRecord
100
AcDbLayerTableRecord
  2
SLD-0
 70
     0
 62
     7
  6
SLD-実線
370
    -3
390
F
347
628F
348
0
  0
LAYER
  5
1095B
102
{ACAD_XDICTIONARY
360
1095C
102
}
330
2
100
AcDbSymbolTableRecord
100
AcDbLayerTableRecord
  2
13
 70
     0
 62
     3
  6
CONTINUOUS
370
    -3
390
F
347
628F
348
0
  0
LAYER
  5
10B82
102
{ACAD_XDICTIONARY
360
10B83
102
}
330
2
100
AcDbSymbolTableRecord
100
AcDbLayerTableRecord
  2
240
 70
     0
 62
     7
  6
CONTINUOUS
370
    -3
390
F
347
628F
348
0
  0
LAYER
  5
11B70
330
2
100
AcDbSymbolTableRecord
100
AcDbLayerTableRecord
  2
19
 70
     0
 62
     7
  6
CONTINOUS
370
    -3
390
F
347
628F
348
0
1001
AcAecLayerStandard
1000

1000

1001
AcCmTransparency
1071
        0
  0
LAYER
  5
11BFB
102
{ACAD_XDICTIONARY
360
11BFC
102
}
330
2
100
AcDbSymbolTableRecord
100
AcDbLayerTableRecord
  2
2
 70
     0
 62
     7
  6
CONTINUOUS
370
    -3
390
F
347
628F
348
0
  0
ENDTAB
  0
TABLE
  2
STYLE
  5
3
330
0
100
AcDbSymbolTable
 70
     5
  0
STYLE
  5
11
330
3
100
AcDbSymbolTableRecord
100
AcDbTextStyleTableRecord
  2
STANDARD
 70
     0
 40
0.0
 41
1.0
 50
0.0
 71
     0
 42
2.0
  3
txt.shx
  4
bigfont.shx
  0
STYLE
  5
42
330
3
100
AcDbSymbolTableRecord
100
AcDbTextStyleTableRecord
  2
STANDARD1
 70
     0
 40
0.0
 41
1.0
 50
0.0
 71
     0
 42
5.0
  3
MONOTXT
  4
BIGFONT
  0
STYLE
  5
10B84
330
3
100
AcDbSymbolTableRecord
100
AcDbTextStyleTableRecord
  2
SLDTEXTSTYLE0
 70
     0
 40
0.0
 41
1.0
 50
0.0
 71
     0
 42
3.0
  3
MS UI Gothic.ttf
  4

1001
ACAD
1000
MS UI Gothic
1071
      306
  0
STYLE
  5
11B84
330
3
100
AcDbSymbolTableRecord
100
AcDbTextStyleTableRecord
  2

 70
     1
 40
0.0
 41
1.0
 50
0.0
 71
     0
 42
5.0
  3
ltypeshp.shx
  4

  0
STYLE
  5
11BFD
330
3
100
AcDbSymbolTableRecord
100
AcDbTextStyleTableRecord
  2
blockfont
 70
     0
 40
0.0
 41
1.0
 50
0.0
 71
     0
 42
0.2
  3
simplex.shx
  4
bigfont
  0
ENDTAB
  0
TABLE
  2
VIEW
  5
6
330
0
100
AcDbSymbolTable
 70
     3
  0
VIEW
  5
230C
330
6
100
AcDbSymbolTableRecord
100
AcDbViewTableRecord
  2
OLE1
 70
     0
 40
148.912488
 10
429.497628
 20
2.560627
 41
103.145806
 11
0.0
 21
0.0
 31
1.0
 12
0.0
 22
0.0
 32
0.0
 42
50.0
 43
0.0
 44
0.0
 50
0.0
 71
     0
281
     0
 72
     0
 73
     0
348
629D
  0
VIEW
  5
230E
330
6
100
AcDbSymbolTableRecord
100
AcDbViewTableRecord
  2
OLE2
 70
     0
 40
170.778692
 10
322.66497
 20
-5.978304
 41
102.467215
 11
0.0
 21
0.0
 31
1.0
 12
0.0
 22
0.0
 32
0.0
 42
50.0
 43
0.0
 44
0.0
 50
0.0
 71
     0
281
     0
 72
     0
 73
     0
348
629D
  0
VIEW
  5
23AA
330
6
100
AcDbSymbolTableRecord
100
AcDbViewTableRecord
  2
OLE3
 70
     0
 40
591.7897389999998
 10
84.79698199999999
 20
-46.09335999999998
 41
388.792096
 11
0.0
 21
0.0
 31
1.0
 12
0.0
 22
0.0
 32
0.0
 42
50.0
 43
0.0
 44
0.0
 50
0.0
 71
     0
281
     0
 72
     0
 73
     0
348
629D
  0
ENDTAB
  0
TABLE
  2
UCS
  5
7
330
0
100
AcDbSymbolTable
 70
     0
  0
ENDTAB
  0
TABLE
  2
APPID
  5
9
330
0
100
AcDbSymbolTable
 70
    10
  0
APPID
  5
12
330
9
100
AcDbSymbolTableRecord
100
AcDbRegAppTableRecord
  2
ACAD
 70
     0
  0
APPID
  5
ECD
330
9
100
AcDbSymbolTableRecord
100
AcDbRegAppTableRecord
  2
CONTENTBLOCKICON
 70
     0
  0
APPID
  5
630E
330
9
100
AcDbSymbolTableRecord
100
AcDbRegAppTableRecord
  2
ACAD_EXEMPT_FROM_CAD_STANDARDS
 70
     0
  0
APPID
  5
6329
330
9
100
AcDbSymbolTableRecord
100
AcDbRegAppTableRecord
  2
ACAD_NAV_VCDISPLAY
 70
     0
  0
APPID
  5
64DC
330
9
100
AcDbSymbolTableRecord
100
AcDbRegAppTableRecord
  2
ACAD_MLEADERVER
 70
     0
  0
APPID
  5
1095E
330
9
100
AcDbSymbolTableRecord
100
AcDbRegAppTableRecord
  2
ACAD_PSEXT
 70
     0
  0
APPID
  5
10B85
330
9
100
AcDbSymbolTableRecord
100
AcDbRegAppTableRecord
  2
ACAD_DSTYLE_DIMJAG
 70
     0
  0
APPID
  5
10B86
330
9
100
AcDbSymbolTableRecord
100
AcDbRegAppTableRecord
  2
ACAD_DSTYLE_DIMTALN
 70
     0
  0
APPID
  5
11B71
330
9
100
AcDbSymbolTableRecord
100
AcDbRegAppTableRecord
  2
AcAecLayerStandard
 70
     0
  0
APPID
  5
11B72
330
9
100
AcDbSymbolTableRecord
100
AcDbRegAppTableRecord
  2
AcCmTransparency
 70
     0
  0
ENDTAB
  0
TABLE
  2
DIMSTYLE
  5
A
330
0
100
AcDbSymbolTable
 70
     2
100
AcDbDimStyleTable
 71
     2
340
1095D
340
175
  0
DIMSTYLE
105
175
102
{ACAD_REACTORS
330
54D8
330
5E68
330
6175
330
6186
330
616E
330
100FB
330
101D5
330
102F4
330
107E0
330
10806
330
10807
330
108FD
330
108FE
330
1097F
330
10981
330
10982
330
10BA5
330
10BBB
330
10BDA
330
117A3
330
117A4
330
117A5
330
117A6
330
117A8
330
117A9
330
117AA
330
117BA
330
117D0
330
117D7
102
}
330
A
100
AcDbSymbolTableRecord
100
AcDbDimStyleTableRecord
  2
STANDARD
 70
     0
 41
2.0
 42
1.0
 43
0.5
 44
0.5
 69
     1
 73
     0
 77
     3
 78
    12
140
6.0
147
2.0
271
     1
272
     1
340
11
341
3B2
342
3B2
1001
ACAD_DSTYLE_DIMJAG
1070
   388
1040
1.5
1001
ACAD_DSTYLE_DIMTALN
1070
   392
1070
     0
  0
DIMSTYLE
105
1095D
102
{ACAD_REACTORS
330
117D6
330
11BB1
102
}
330
A
100
AcDbSymbolTableRecord
100
AcDbDimStyleTableRecord
  2
STANDARD1
 70
     0
 41
2.0
 42
3.0
 43
0.5
 44
0.5
 73
     0
 74
     0
 77
     3
 78
    12
140
6.0
147
2.0
172
     1
271
     8
272
     8
289
     2
340
11
341
3B2
342
3B2
1001
ACAD_DSTYLE_DIMJAG
1070
   388
1040
1.5
1001
ACAD_DSTYLE_DIMTALN
1070
   392
1070
     0
  0
ENDTAB
  0
TABLE
  2
BLOCK_RECORD
  5
1
330
0
100
AcDbSymbolTable
 70
    36
  0
BLOCK_RECORD
  5
1E
102
{ACAD_XDICTIONARY
360
178
102
}
330
1
100
AcDbSymbolTableRecord
100
AcDbBlockTableRecord
  2
*MODEL_SPACE
340
6262
 70
     0
280
     1
281
     0
  0
BLOCK_RECORD
  5
1A
102
{ACAD_XDICTIONARY
360
17A
102
}
330
1
100
AcDbSymbolTableRecord
100
AcDbBlockTableRecord
  2
*PAPER_SPACE
340
6263
 70
     0
280
     1
281
     0
  0
BLOCK_RECORD
  5
3B2
330
1
100
AcDbSymbolTableRecord
100
AcDbBlockTableRecord
  2
_OPEN
340
0
102
{BLKREFS
331
1188B
331
1188C
331
11894
331
11895
331
1189D
331
1189E
331
11ACB
331
11ACC
331
11BD3
331
11BD4
331
118A7
331
118A8
331
118B0
331
118B1
331
118BA
331
118BB
331
118C4
331
118C5
331
118D8
331
118D9
331
11906
331
11907
331
11ADD
331
11ADE
331
11AE6
331
11AE7
331
11AEF
331
11AF0
331
1197B
331
1197C
331
11984
331
11985
331
11996
331
11997
331
1163E
331
1163F
331
11661
331
11662
331
11879
331
1187A
331
11882
331
11883
331
1199F
331
119A0
331
119A8
331
119B0
331
11A1D
331
11A1E
331
11A40
331
11A41
331
11A49
331
11A4A
331
11A52
331
11A53
331
1196A
331
1196B
331
11972
331
11973
331
11636
102
}
 70
     0
280
     1
281
     0
  0
BLOCK_RECORD
  5
54D9
330
1
100
AcDbSymbolTableRecord
100
AcDbBlockTableRecord
  2
*D1
340
0
 70
     0
280
     1
281
     0
  0
BLOCK_RECORD
  5
5E69
330
1
100
AcDbSymbolTableRecord
100
AcDbBlockTableRecord
  2
*D2
340
0
 70
     0
280
     1
281
     0
  0
BLOCK_RECORD
  5
6194
330
1
100
AcDbSymbolTableRecord
100
AcDbBlockTableRecord
  2
*D3
340
0
 70
     0
280
     1
281
     0
  0
BLOCK_RECORD
  5
61A0
330
1
100
AcDbSymbolTableRecord
100
AcDbBlockTableRecord
  2
*D4
340
0
 70
     0
280
     1
281
     0
  0
BLOCK_RECORD
  5
61AB
330
1
100
AcDbSymbolTableRecord
100
AcDbBlockTableRecord
  2
*D5
340
0
 70
     0
280
     1
281
     0
  0
BLOCK_RECORD
  5
68DF
330
1
100
AcDbSymbolTableRecord
100
AcDbBlockTableRecord
  2
SW_CENTERMARKSYMBOL_18
340
0
102
{BLKREFS
331
1014B
102
}
 70
     0
280
     1
281
     0
  0
BLOCK_RECORD
  5
68EA
330
1
100
AcDbSymbolTableRecord
100
AcDbBlockTableRecord
  2
SW_CENTERMARKSYMBOL_19
340
0
102
{BLKREFS
331
1014C
102
}
 70
     0
280
     1
281
     0
  0
BLOCK_RECORD
  5
6ADB
330
1
100
AcDbSymbolTableRecord
100
AcDbBlockTableRecord
  2
SW_CENTERMARKSYMBOL_24
340
0
102
{BLKREFS
331
117D8
102
}
 70
     0
280
     1
281
     0
  0
BLOCK_RECORD
  5
100FC
330
1
100
AcDbSymbolTableRecord
100
AcDbBlockTableRecord
  2
*D9
340
0
 70
     0
280
     1
281
     0
  0
BLOCK_RECORD
  5
101D6
330
1
100
AcDbSymbolTableRecord
100
AcDbBlockTableRecord
  2
*D10
340
0
 70
     0
280
     1
281
     0
  0
BLOCK_RECORD
  5
102F5
330
1
100
AcDbSymbolTableRecord
100
AcDbBlockTableRecord
  2
*D11
340
0
 70
     0
280
     1
281
     0
  0
BLOCK_RECORD
  5
10833
330
1
100
AcDbSymbolTableRecord
100
AcDbBlockTableRecord
  2
*D12
340
0
 70
     0
280
     1
281
     0
  0
BLOCK_RECORD
  5
1083F
330
1
100
AcDbSymbolTableRecord
100
AcDbBlockTableRecord
  2
*D13
340
0
 70
     0
280
     1
281
     0
  0
BLOCK_RECORD
  5
1084B
330
1
100
AcDbSymbolTableRecord
100
AcDbBlockTableRecord
  2
*D14
340
0
 70
     0
280
     1
281
     0
  0
BLOCK_RECORD
  5
10907
330
1
100
AcDbSymbolTableRecord
100
AcDbBlockTableRecord
  2
*D15
340
0
 70
     0
280
     1
281
     0
  0
BLOCK_RECORD
  5
10913
330
1
100
AcDbSymbolTableRecord
100
AcDbBlockTableRecord
  2
*D16
340
0
 70
     0
280
     1
281
     0
  0
BLOCK_RECORD
  5
1098F
330
1
100
AcDbSymbolTableRecord
100
AcDbBlockTableRecord
  2
*D17
340
0
 70
     0
280
     1
281
     0
  0
BLOCK_RECORD
  5
1099B
330
1
100
AcDbSymbolTableRecord
100
AcDbBlockTableRecord
  2
*D18
340
0
 70
     0
280
     1
281
     0
  0
BLOCK_RECORD
  5
109A7
330
1
100
AcDbSymbolTableRecord
100
AcDbBlockTableRecord
  2
*D19
340
0
 70
     0
280
     1
281
     0
  0
BLOCK_RECORD
  5
10BA6
330
1
100
AcDbSymbolTableRecord
100
AcDbBlockTableRecord
  2
*D20
340
0
 70
     0
280
     1
281
     0
  0
BLOCK_RECORD
  5
10BBC
330
1
100
AcDbSymbolTableRecord
100
AcDbBlockTableRecord
  2
*D21
340
0
 70
     0
280
     1
281
     0
  0
BLOCK_RECORD
  5
10BDB
330
1
100
AcDbSymbolTableRecord
100
AcDbBlockTableRecord
  2
*D22
340
0
 70
     0
280
     1
281
     0
  0
BLOCK_RECORD
  5
117DB
330
1
100
AcDbSymbolTableRecord
100
AcDbBlockTableRecord
  2
*D23
340
0
 70
     0
280
     1
281
     0
  0
BLOCK_RECORD
  5
117E7
330
1
100
AcDbSymbolTableRecord
100
AcDbBlockTableRecord
  2
*D24
340
0
 70
     0
280
     1
281
     0
  0
BLOCK_RECORD
  5
117F4
330
1
100
AcDbSymbolTableRecord
100
AcDbBlockTableRecord
  2
*D25
340
0
 70
     0
280
     1
281
     0
  0
BLOCK_RECORD
  5
11800
330
1
100
AcDbSymbolTableRecord
100
AcDbBlockTableRecord
  2
*D26
340
0
 70
     0
280
     1
281
     0
  0
BLOCK_RECORD
  5
1180C
330
1
100
AcDbSymbolTableRecord
100
AcDbBlockTableRecord
  2
*D27
340
0
 70
     0
280
     1
281
     0
  0
BLOCK_RECORD
  5
11818
330
1
100
AcDbSymbolTableRecord
100
AcDbBlockTableRecord
  2
*D28
340
0
 70
     0
280
     1
281
     0
  0
BLOCK_RECORD
  5
11824
330
1
100
AcDbSymbolTableRecord
100
AcDbBlockTableRecord
  2
*D29
340
0
 70
     0
280
     1
281
     0
  0
BLOCK_RECORD
  5
11830
330
1
100
AcDbSymbolTableRecord
100
AcDbBlockTableRecord
  2
*D30
340
0
 70
     0
280
     1
281
     0
  0
BLOCK_RECORD
  5
1183D
330
1
100
AcDbSymbolTableRecord
100
AcDbBlockTableRecord
  2
*D31
340
0
 70
     0
280
     1
281
     0
  0
BLOCK_RECORD
  5
11849
330
1
100
AcDbSymbolTableRecord
100
AcDbBlockTableRecord
  2
*D32
340
0
 70
     0
280
     1
281
     0
  0
BLOCK_RECORD
  5
11856
330
1
100
AcDbSymbolTableRecord
100
AcDbBlockTableRecord
  2
*D33
340
0
 70
     0
280
     1
281
     0
  0
BLOCK_RECORD
  5
11BB2
330
1
100
AcDbSymbolTableRecord
100
AcDbBlockTableRecord
  2
*D34
340
0
 70
     0
280
     1
281
     0
  0
ENDTAB
  0
ENDSEC
  0
SECTION
  2
BLOCKS
  0
BLOCK
  5
1F
330
1E
100
AcDbEntity
  8
0
100
AcDbBlockBegin
  2
*MODEL_SPACE
 70
     0
 10
0.0
 20
0.0
 30
0.0
  3
*MODEL_SPACE
  1

  0
ENDBLK
  5
20
330
1E
100
AcDbEntity
  8
0
100
AcDbBlockEnd
  0
BLOCK
  5
1B
330
1A
100
AcDbEntity
 67
     1
  8
0
100
AcDbBlockBegin
  2
*PAPER_SPACE
 70
     0
 10
0.0
 20
0.0
 30
0.0
  3
*PAPER_SPACE
  1

  0
ENDBLK
  5
1C
330
1A
100
AcDbEntity
 67
     1
  8
0
100
AcDbBlockEnd
  0
BLOCK
  5
3B6
330
3B2
100
AcDbEntity
  8
0
100
AcDbBlockBegin
  2
_OPEN
 70
     0
 10
0.0
 20
0.0
 30
0.0
  3
_OPEN
  1

  0
LINE
  5
3B3
330
3B2
100
AcDbEntity
  8
30
  6
Continuous
 62
     0
100
AcDbLine
 10
-1.0
 20
0.166667
 30
0.0
 11
0.0
 21
0.0
 31
0.0
  0
LINE
  5
3B4
330
3B2
100
AcDbEntity
  8
30
  6
Continuous
 62
     0
100
AcDbLine
 10
-1.0
 20
-0.166667
 30
0.0
 11
0.0
 21
0.0
 31
0.0
  0
LINE
  5
3B5
330
3B2
100
AcDbEntity
  8
30
  6
Continuous
 62
     0
100
AcDbLine
 10
0.0
 20
0.0
 30
0.0
 11
-1.0
 21
0.0
 31
0.0
  0
ENDBLK
  5
3B7
330
3B2
100
AcDbEntity
  8
0
100
AcDbBlockEnd
  0
BLOCK
  5
54E2
330
54D9
100
AcDbEntity
  8
0
100
AcDbBlockBegin
  2
*D1
 70
     1
 10
0.0
 20
0.0
 30
0.0
  3
*D1
  1

  0
LINE
  5
11633
330
54D9
100
AcDbEntity
  8
30
  6
Continuous
 62
     0
440
 16777216
370
    -2
100
AcDbLine
 10
119.6852708835828
 20
233.0202065104782
 30
0.0
 11
87.48527088358263
 21
233.0202065104781
 31
0.0
  0
LINE
  5
11634
330
54D9
100
AcDbEntity
  8
30
  6
Continuous
 62
     0
440
 16777216
370
    -2
100
AcDbLine
 10
87.48527088358263
 20
233.0202065104781
 30
0.0
 11
75.47983910071472
 21
221.2796908338589
 31
0.0
  0
MTEXT
  5
11635
330
54D9
100
AcDbEntity
  8
30
  6
Continuous
 62
     0
440
 16777216
100
AcDbMText
 10
104.5852708835828
 20
238.0202065104781
 30
0.0
 40
6.0
 41
0.0
 46
0.0
 71
     5
 72
     1
  1
\A1;M4×0.7
 73
     1
 44
1.0
 90
        3
 63
     9
421
 13158600
 45
1.25
441
        0
  0
INSERT
  5
11636
330
54D9
100
AcDbEntity
  8
30
  6
Continuous
 62
     0
440
 16777216
370
    -2
100
AcDbBlockReference
  2
_OPEN
 10
74.0499371773126
 20
219.8813416323177
 30
0.0
 41
2.0
 42
2.0
 43
2.0
 50
224.3608195602202
  0
LINE
  5
11637
330
54D9
100
AcDbEntity
  8
30
  6
Continuous
 62
     0
440
 16777216
370
    -2
100
AcDbLine
 10
71.81508410232773
 20
217.7838176443142
 30
0.0
 11
71.9950841023277
 21
217.7838176443142
 31
0.0
  0
LINE
  5
11638
330
54D9
100
AcDbEntity
  8
30
  6
Continuous
 62
     0
440
 16777216
370
    -2
100
AcDbLine
 10
71.90508410232769
 20
217.6938176443142
 30
0.0
 11
71.9050841023277
 21
217.8738176443142
 31
0.0
  0
POINT
  5
11639
330
54D9
100
AcDbEntity
  8
DEFPOINTS
  6
Continuous
 62
     0
440
 16777216
100
AcDbPoint
 10
74.0499371773126
 20
219.8813416323177
 30
0.0
  0
POINT
  5
1163A
330
54D9
100
AcDbEntity
  8
DEFPOINTS
  6
Continuous
 62
     0
440
 16777216
100
AcDbPoint
 10
69.76023102734285
 20
215.6862936563107
 30
0.0
  0
ENDBLK
  5
54E3
330
54D9
100
AcDbEntity
  8
0
100
AcDbBlockEnd
  0
BLOCK
  5
5E73
330
5E69
100
AcDbEntity
  8
0
100
AcDbBlockBegin
  2
*D2
 70
     1
 10
0.0
 20
0.0
 30
0.0
  3
*D2
  1

  0
LINE
  5
1163B
330
5E69
100
AcDbEntity
  8
30
  6
Continuous
 62
     0
440
 16777216
370
    -2
100
AcDbLine
 10
86.99508410232771
 20
628.2661250779621
 30
0.0
 11
86.99508410232771
 21
661.6548470086897
 31
0.0
  0
LINE
  5
1163C
330
5E69
100
AcDbEntity
  8
30
  6
Continuous
 62
     0
440
 16777216
370
    -2
100
AcDbLine
 10
116.9950841023276
 20
628.2661250779621
 30
0.0
 11
116.9950841023276
 21
661.6548470086897
 31
0.0
  0
LINE
  5
1163D
330
5E69
100
AcDbEntity
  8
30
  6
Continuous
 62
     0
440
 16777216
370
    -2
100
AcDbLine
 10
88.99508410232769
 20
661.1548470086896
 30
0.0
 11
114.9950841023276
 21
661.1548470086896
 31
0.0
  0
INSERT
  5
1163E
330
5E69
100
AcDbEntity
  8
30
  6
Continuous
 62
     0
440
 16777216
370
    -2
100
AcDbBlockReference
  2
_OPEN
 10
86.99508410232771
 20
661.1548470086896
 30
0.0
 41
2.0
 42
2.0
 43
2.0
 50
180.0
  0
INSERT
  5
1163F
330
5E69
100
AcDbEntity
  8
30
  6
Continuous
 62
     0
440
 16777216
370
    -2
100
AcDbBlockReference
  2
_OPEN
 10
116.9950841023276
 20
661.1548470086896
 30
0.0
 41
2.0
 42
2.0
 43
2.0
  0
MTEXT
  5
11640
330
5E69
100
AcDbEntity
  8
30
  6
Continuous
 62
     0
440
 16777216
100
AcDbMText
 10
101.9950841023277
 20
666.1548470086897
 30
0.0
 40
6.0
 41
0.0
 46
0.0
 71
     5
 72
     1
  1
\A1;30
 73
     1
 44
1.0
 90
        3
 63
     9
421
 13158600
 45
1.25
441
        0
  0
POINT
  5
11641
330
5E69
100
AcDbEntity
  8
DEFPOINTS
  6
Continuous
 62
     0
440
 16777216
100
AcDbPoint
 10
86.99508410232771
 20
627.2661250779621
 30
0.0
  0
POINT
  5
11642
330
5E69
100
AcDbEntity
  8
DEFPOINTS
  6
Continuous
 62
     0
440
 16777216
100
AcDbPoint
 10
116.9950841023276
 20
627.2661250779621
 30
0.0
  0
POINT
  5
11643
330
5E69
100
AcDbEntity
  8
DEFPOINTS
  6
Continuous
 62
     0
440
 16777216
100
AcDbPoint
 10
116.9950841023276
 20
661.1548470086896
 30
0.0
  0
ENDBLK
  5
5E74
330
5E69
100
AcDbEntity
  8
0
100
AcDbBlockEnd
  0
BLOCK
  5
619E
330
6194
100
AcDbEntity
  8
0
100
AcDbBlockBegin
  2
*D3
 70
     1
 10
0.0
 20
0.0
 30
0.0
  3
*D3
  1

  0
LINE
  5
11A46
330
6194
100
AcDbEntity
  8
30
  6
Continuous
 62
     0
440
 16777216
370
    -2
100
AcDbLine
 10
214.3874697160993
 20
134.2838172718144
 30
0.0
 11
214.3874697160993
 21
65.39430663234407
 31
0.0
  0
LINE
  5
11A47
330
6194
100
AcDbEntity
  8
30
  6
Continuous
 62
     0
440
 16777216
370
    -2
100
AcDbLine
 10
300.3874726368493
 20
134.2838172718144
 30
0.0
 11
300.3874726368493
 21
65.39430663234407
 31
0.0
  0
LINE
  5
11A48
330
6194
100
AcDbEntity
  8
30
  6
Continuous
 62
     0
440
 16777216
370
    -2
100
AcDbLine
 10
216.3874697160993
 20
65.89430663234407
 30
0.0
 11
298.3874726368494
 21
65.89430663234407
 31
0.0
  0
INSERT
  5
11A49
330
6194
100
AcDbEntity
  8
30
  6
Continuous
 62
     0
440
 16777216
370
    -2
100
AcDbBlockReference
  2
_OPEN
 10
214.3874697160993
 20
65.89430663234407
 30
0.0
 41
2.0
 42
2.0
 43
2.0
 50
180.0
  0
INSERT
  5
11A4A
330
6194
100
AcDbEntity
  8
30
  6
Continuous
 62
     0
440
 16777216
370
    -2
100
AcDbBlockReference
  2
_OPEN
 10
300.3874726368493
 20
65.89430663234407
 30
0.0
 41
2.0
 42
2.0
 43
2.0
  0
MTEXT
  5
11A4B
330
6194
100
AcDbEntity
  8
30
  6
Continuous
 62
     0
440
 16777216
100
AcDbMText
 10
257.3874711764744
 20
70.89430663234407
 30
0.0
 40
6.0
 41
0.0
 46
0.0
 71
     5
 72
     1
  1
\A1;86
 73
     1
 44
1.0
 90
        3
 63
     9
421
 13158600
 45
1.25
441
        0
  0
POINT
  5
11A4C
330
6194
100
AcDbEntity
  8
DEFPOINTS
  6
Continuous
 62
     0
440
 16777216
100
AcDbPoint
 10
214.3874697160993
 20
135.2838172718144
 30
0.0
  0
POINT
  5
11A4D
330
6194
100
AcDbEntity
  8
DEFPOINTS
  6
Continuous
 62
     0
440
 16777216
100
AcDbPoint
 10
300.3874726368493
 20
135.2838172718144
 30
0.0
  0
POINT
  5
11A4E
330
6194
100
AcDbEntity
  8
DEFPOINTS
  6
Continuous
 62
     0
440
 16777216
100
AcDbPoint
 10
300.3874726368493
 20
65.89430663234407
 30
0.0
  0
ENDBLK
  5
619F
330
6194
100
AcDbEntity
  8
0
100
AcDbBlockEnd
  0
BLOCK
  5
61A9
330
61A0
100
AcDbEntity
  8
0
100
AcDbBlockBegin
  2
*D4
 70
     1
 10
0.0
 20
0.0
 30
0.0
  3
*D4
  1

  0
LINE
  5
119A5
330
61A0
100
AcDbEntity
  8
30
  6
Continuous
 62
     0
440
 16777216
370
    -2
100
AcDbLine
 10
319.2638377539696
 20
193.3281461702652
 30
0.0
 11
309.2638377539696
 21
193.3281461702652
 31
0.0
  0
LINE
  5
119A6
330
61A0
100
AcDbEntity
  8
30
  6
Continuous
 62
     0
440
 16777216
370
    -2
100
AcDbLine
 10
309.2638377539696
 20
193.3281461702652
 30
0.0
 11
301.6319161940903
 21
187.1680592584154
 31
0.0
  0
MTEXT
  5
119A7
330
61A0
100
AcDbEntity
  8
30
  6
Continuous
 62
     0
440
 16777216
100
AcDbMText
 10
315.2638377539696
 20
198.3281461702652
 30
0.0
 40
6.0
 41
0.0
 46
0.0
 71
     5
 72
     1
  1
\A1;R1
 73
     1
 44
1.0
 90
        3
 63
     9
421
 13158600
 45
1.25
441
        0
  0
INSERT
  5
119A8
330
61A0
100
AcDbEntity
  8
30
  6
Continuous
 62
     0
440
 16777216
370
    -2
100
AcDbBlockReference
  2
_OPEN
 10
300.0756195157629
 20
185.911898182348
 30
0.0
 41
2.0
 42
2.0
 43
2.0
 50
218.9086496620433
  0
LINE
  5
119A9
330
61A0
100
AcDbEntity
  8
30
  6
Continuous
 62
     0
440
 16777216
370
    -2
100
AcDbLine
 10
299.2074711765992
 20
185.2838176443143
 30
0.0
 11
299.3874711765991
 21
185.2838176443143
 31
0.0
  0
LINE
  5
119AA
330
61A0
100
AcDbEntity
  8
30
  6
Continuous
 62
     0
440
 16777216
370
    -2
100
AcDbLine
 10
299.2974711765992
 20
185.193817644314
 30
0.0
 11
299.2974711765992
 21
185.3738176443143
 31
0.0
  0
POINT
  5
119AB
330
61A0
100
AcDbEntity
  8
DEFPOINTS
  6
Continuous
 62
     0
440
 16777216
100
AcDbPoint
 10
300.0756195157629
 20
185.911898182348
 30
0.0
  0
POINT
  5
119AC
330
61A0
100
AcDbEntity
  8
DEFPOINTS
  6
Continuous
 62
     0
440
 16777216
100
AcDbPoint
 10
299.2974711765992
 20
185.2838176443143
 30
0.0
  0
ENDBLK
  5
61AA
330
61A0
100
AcDbEntity
  8
0
100
AcDbBlockEnd
  0
BLOCK
  5
61B5
330
61AB
100
AcDbEntity
  8
0
100
AcDbBlockBegin
  2
*D5
 70
     1
 10
0.0
 20
0.0
 30
0.0
  3
*D5
  1

  0
LINE
  5
11AE3
330
61AB
100
AcDbEntity
  8
30
  6
Continuous
 62
     0
440
 16777216
370
    -2
100
AcDbLine
 10
287.3874711765989
 20
186.2838176443144
 30
0.0
 11
356.5672239613487
 21
186.2838176443144
 31
0.0
  0
LINE
  5
11AE4
330
61AB
100
AcDbEntity
  8
30
  6
Continuous
 62
     0
440
 16777216
370
    -2
100
AcDbLine
 10
287.3874711765989
 20
134.2838176443144
 30
0.0
 11
356.5672239613487
 21
134.2838176443144
 31
0.0
  0
LINE
  5
11AE5
330
61AB
100
AcDbEntity
  8
30
  6
Continuous
 62
     0
440
 16777216
370
    -2
100
AcDbLine
 10
356.0672239613487
 20
184.2838176443144
 30
0.0
 11
356.0672239613487
 21
136.2838176443144
 31
0.0
  0
INSERT
  5
11AE6
330
61AB
100
AcDbEntity
  8
30
  6
Continuous
 62
     0
440
 16777216
370
    -2
100
AcDbBlockReference
  2
_OPEN
 10
356.0672239613487
 20
186.2838176443144
 30
0.0
 41
2.0
 42
2.0
 43
2.0
 50
90.0
  0
INSERT
  5
11AE7
330
61AB
100
AcDbEntity
  8
30
  6
Continuous
 62
     0
440
 16777216
370
    -2
100
AcDbBlockReference
  2
_OPEN
 10
356.0672239613487
 20
134.2838176443144
 30
0.0
 41
2.0
 42
2.0
 43
2.0
 50
270.0
  0
MTEXT
  5
11AE8
330
61AB
100
AcDbEntity
  8
30
  6
Continuous
 62
     0
440
 16777216
100
AcDbMText
 10
351.0672239613485
 20
160.2838176443145
 30
0.0
 40
6.0
 41
0.0
 46
0.0
 71
     5
 72
     1
  1
\A1;52
 11
0.0000000000000001
 21
1.0
 31
0.0
 73
     1
 44
1.0
 90
        3
 63
     9
421
 13158600
 45
1.25
441
        0
  0
POINT
  5
11AE9
330
61AB
100
AcDbEntity
  8
DEFPOINTS
  6
Continuous
 62
     0
440
 16777216
100
AcDbPoint
 10
286.3874711765989
 20
186.2838176443144
 30
0.0
  0
POINT
  5
11AEA
330
61AB
100
AcDbEntity
  8
DEFPOINTS
  6
Continuous
 62
     0
440
 16777216
100
AcDbPoint
 10
286.3874711765989
 20
134.2838176443144
 30
0.0
  0
POINT
  5
11AEB
330
61AB
100
AcDbEntity
  8
DEFPOINTS
  6
Continuous
 62
     0
440
 16777216
100
AcDbPoint
 10
356.0672239613487
 20
134.2838176443144
 30
0.0
  0
ENDBLK
  5
61B6
330
61AB
100
AcDbEntity
  8
0
100
AcDbBlockEnd
  0
BLOCK
  5
68E0
330
68DF
100
AcDbEntity
  8
0
100
AcDbBlockBegin
  2
SW_CENTERMARKSYMBOL_18
 70
     0
 10
0.0
 20
0.0
 30
0.0
  3
SW_CENTERMARKSYMBOL_18
  1
SW_CENTERMARKSYMBOL_18
  0
LINE
  5
68E1
330
68DF
100
AcDbEntity
  8
SLD-0
 62
     0
100
AcDbLine
 10
0.0
 20
0.0
 30
0.0
 11
0.0
 21
1.0
 31
0.0
  0
LINE
  5
68E2
330
68DF
100
AcDbEntity
  8
SLD-0
 62
     0
100
AcDbLine
 10
0.0
 20
0.0
 30
0.0
 11
-1.0
 21
0.0
 31
0.0
  0
LINE
  5
68E3
330
68DF
100
AcDbEntity
  8
SLD-0
 62
     0
100
AcDbLine
 10
0.0
 20
0.0
 30
0.0
 11
0.0
 21
-1.0
 31
0.0
  0
LINE
  5
68E4
330
68DF
100
AcDbEntity
  8
SLD-0
 62
     0
100
AcDbLine
 10
0.0
 20
0.0
 30
0.0
 11
1.0
 21
0.0
 31
0.0
  0
LINE
  5
68E5
330
68DF
100
AcDbEntity
  8
SLD-0
 62
     0
100
AcDbLine
 10
0.0
 20
1.0
 30
0.0
 11
0.0
 21
1.8
 31
0.0
  0
LINE
  5
68E6
330
68DF
100
AcDbEntity
  8
SLD-0
 62
     0
100
AcDbLine
 10
-1.0
 20
0.0
 30
0.0
 11
-1.8
 21
0.0
 31
0.0
  0
LINE
  5
68E7
330
68DF
100
AcDbEntity
  8
SLD-0
 62
     0
100
AcDbLine
 10
0.0
 20
-1.0
 30
0.0
 11
0.0
 21
-1.8
 31
0.0
  0
LINE
  5
68E8
330
68DF
100
AcDbEntity
  8
SLD-0
 62
     0
100
AcDbLine
 10
1.0
 20
0.0
 30
0.0
 11
1.8
 21
0.0
 31
0.0
  0
ENDBLK
  5
68E9
330
68DF
100
AcDbEntity
  8
0
100
AcDbBlockEnd
  0
BLOCK
  5
68EB
330
68EA
100
AcDbEntity
  8
0
100
AcDbBlockBegin
  2
SW_CENTERMARKSYMBOL_19
 70
     0
 10
0.0
 20
0.0
 30
0.0
  3
SW_CENTERMARKSYMBOL_19
  1
SW_CENTERMARKSYMBOL_19
  0
LINE
  5
68EC
330
68EA
100
AcDbEntity
  8
SLD-0
 62
     0
100
AcDbLine
 10
0.0
 20
0.0
 30
0.0
 11
0.0
 21
1.0
 31
0.0
  0
LINE
  5
68ED
330
68EA
100
AcDbEntity
  8
SLD-0
 62
     0
100
AcDbLine
 10
0.0
 20
0.0
 30
0.0
 11
-1.0
 21
0.0
 31
0.0
  0
LINE
  5
68EE
330
68EA
100
AcDbEntity
  8
SLD-0
 62
     0
100
AcDbLine
 10
0.0
 20
0.0
 30
0.0
 11
0.0
 21
-1.0
 31
0.0
  0
LINE
  5
68EF
330
68EA
100
AcDbEntity
  8
SLD-0
 62
     0
100
AcDbLine
 10
0.0
 20
0.0
 30
0.0
 11
1.0
 21
0.0
 31
0.0
  0
LINE
  5
68F0
330
68EA
100
AcDbEntity
  8
SLD-0
 62
     0
100
AcDbLine
 10
0.0
 20
1.0
 30
0.0
 11
0.0
 21
1.8
 31
0.0
  0
LINE
  5
68F1
330
68EA
100
AcDbEntity
  8
SLD-0
 62
     0
100
AcDbLine
 10
-1.0
 20
0.0
 30
0.0
 11
-1.8
 21
0.0
 31
0.0
  0
LINE
  5
68F2
330
68EA
100
AcDbEntity
  8
SLD-0
 62
     0
100
AcDbLine
 10
0.0
 20
-1.0
 30
0.0
 11
0.0
 21
-1.8
 31
0.0
  0
LINE
  5
68F3
330
68EA
100
AcDbEntity
  8
SLD-0
 62
     0
100
AcDbLine
 10
1.0
 20
0.0
 30
0.0
 11
1.8
 21
0.0
 31
0.0
  0
ENDBLK
  5
68F4
330
68EA
100
AcDbEntity
  8
0
100
AcDbBlockEnd
  0
BLOCK
  5
6ADC
330
6ADB
100
AcDbEntity
  8
0
100
AcDbBlockBegin
  2
SW_CENTERMARKSYMBOL_24
 70
     0
 10
0.0
 20
0.0
 30
0.0
  3
SW_CENTERMARKSYMBOL_24
  1
SW_CENTERMARKSYMBOL_24
  0
LINE
  5
6ADD
330
6ADB
100
AcDbEntity
  8
SLD-0
 62
     0
100
AcDbLine
 10
0.0
 20
0.0
 30
0.0
 11
0.0
 21
1.0
 31
0.0
  0
LINE
  5
6ADE
330
6ADB
100
AcDbEntity
  8
SLD-0
 62
     0
100
AcDbLine
 10
0.0
 20
0.0
 30
0.0
 11
-1.0
 21
0.0
 31
0.0
  0
LINE
  5
6ADF
330
6ADB
100
AcDbEntity
  8
SLD-0
 62
     0
100
AcDbLine
 10
0.0
 20
0.0
 30
0.0
 11
0.0
 21
-1.0
 31
0.0
  0
LINE
  5
6AE0
330
6ADB
100
AcDbEntity
  8
SLD-0
 62
     0
100
AcDbLine
 10
0.0
 20
0.0
 30
0.0
 11
1.0
 21
0.0
 31
0.0
  0
LINE
  5
6AE1
330
6ADB
100
AcDbEntity
  8
SLD-0
 62
     0
100
AcDbLine
 10
0.0
 20
2.0
 30
0.0
 11
0.0
 21
2.799999999999998
 31
0.0
  0
LINE
  5
6AE2
330
6ADB
100
AcDbEntity
  8
SLD-0
 62
     0
100
AcDbLine
 10
-2.0
 20
0.0
 30
0.0
 11
-2.799999999999998
 21
0.0
 31
0.0
  0
LINE
  5
6AE3
330
6ADB
100
AcDbEntity
  8
SLD-0
 62
     0
100
AcDbLine
 10
0.0
 20
-2.0
 30
0.0
 11
0.0
 21
-2.799999999999998
 31
0.0
  0
LINE
  5
6AE4
330
6ADB
100
AcDbEntity
  8
SLD-0
 62
     0
100
AcDbLine
 10
2.0
 20
0.0
 30
0.0
 11
2.799999999999998
 21
0.0
 31
0.0
  0
ENDBLK
  5
6AE5
330
6ADB
100
AcDbEntity
  8
0
100
AcDbBlockEnd
  0
BLOCK
  5
100FD
330
100FC
100
AcDbEntity
  8
0
100
AcDbBlockBegin
  2
*D9
 70
     1
 10
0.0
 20
0.0
 30
0.0
  3
*D9
  1

  0
LINE
  5
1165E
330
100FC
100
AcDbEntity
  8
30
  6
Continuous
 62
     0
440
 16777216
370
    -2
100
AcDbLine
 10
56.9950841023277
 20
628.2661250779621
 30
0.0
 11
56.9950841023277
 21
661.6548470086897
 31
0.0
  0
LINE
  5
1165F
330
100FC
100
AcDbEntity
  8
30
  6
Continuous
 62
     0
440
 16777216
370
    -2
100
AcDbLine
 10
86.99508410232764
 20
628.2661250779621
 30
0.0
 11
86.99508410232764
 21
661.6548470086897
 31
0.0
  0
LINE
  5
11660
330
100FC
100
AcDbEntity
  8
30
  6
Continuous
 62
     0
440
 16777216
370
    -2
100
AcDbLine
 10
58.99508410232769
 20
661.1548470086896
 30
0.0
 11
84.99508410232767
 21
661.1548470086896
 31
0.0
  0
INSERT
  5
11661
330
100FC
100
AcDbEntity
  8
30
  6
Continuous
 62
     0
440
 16777216
370
    -2
100
AcDbBlockReference
  2
_OPEN
 10
56.9950841023277
 20
661.1548470086896
 30
0.0
 41
2.0
 42
2.0
 43
2.0
 50
180.0
  0
INSERT
  5
11662
330
100FC
100
AcDbEntity
  8
30
  6
Continuous
 62
     0
440
 16777216
370
    -2
100
AcDbBlockReference
  2
_OPEN
 10
86.99508410232764
 20
661.1548470086896
 30
0.0
 41
2.0
 42
2.0
 43
2.0
  0
MTEXT
  5
11663
330
100FC
100
AcDbEntity
  8
30
  6
Continuous
 62
     0
440
 16777216
100
AcDbMText
 10
71.9950841023277
 20
666.1548470086897
 30
0.0
 40
6.0
 41
0.0
 46
0.0
 71
     5
 72
     1
  1
\A1;30
 73
     1
 44
1.0
 90
        3
 63
     9
421
 13158600
 45
1.25
441
        0
  0
POINT
  5
11664
330
100FC
100
AcDbEntity
  8
DEFPOINTS
  6
Continuous
 62
     0
440
 16777216
100
AcDbPoint
 10
56.9950841023277
 20
627.2661250779621
 30
0.0
  0
POINT
  5
11665
330
100FC
100
AcDbEntity
  8
DEFPOINTS
  6
Continuous
 62
     0
440
 16777216
100
AcDbPoint
 10
86.99508410232764
 20
627.2661250779621
 30
0.0
  0
POINT
  5
11666
330
100FC
100
AcDbEntity
  8
DEFPOINTS
  6
Continuous
 62
     0
440
 16777216
100
AcDbPoint
 10
86.99508410232764
 20
661.1548470086896
 30
0.0
  0
ENDBLK
  5
100FE
330
100FC
100
AcDbEntity
  8
0
100
AcDbBlockEnd
  0
BLOCK
  5
101D7
330
101D6
100
AcDbEntity
  8
0
100
AcDbBlockBegin
  2
*D10
 70
     1
 10
0.0
 20
0.0
 30
0.0
  3
*D10
  1

  0
LINE
  5
11ADA
330
101D6
100
AcDbEntity
  8
30
  6
Continuous
 62
     0
440
 16777216
370
    -2
100
AcDbLine
 10
77.49508410232765
 20
215.7838176443142
 30
0.0
 11
182.8907937651802
 21
215.7838176443142
 31
0.0
  0
LINE
  5
11ADB
330
101D6
100
AcDbEntity
  8
30
  6
Continuous
 62
     0
440
 16777216
370
    -2
100
AcDbLine
 10
107.4950841023276
 20
104.7838176443143
 30
0.0
 11
182.8907937651802
 21
104.7838176443143
 31
0.0
  0
LINE
  5
11ADC
330
101D6
100
AcDbEntity
  8
30
  6
Continuous
 62
     0
440
 16777216
370
    -2
100
AcDbLine
 10
182.3907937651802
 20
213.7838176443142
 30
0.0
 11
182.3907937651802
 21
106.7838176443142
 31
0.0
  0
INSERT
  5
11ADD
330
101D6
100
AcDbEntity
  8
30
  6
Continuous
 62
     0
440
 16777216
370
    -2
100
AcDbBlockReference
  2
_OPEN
 10
182.3907937651802
 20
215.7838176443142
 30
0.0
 41
2.0
 42
2.0
 43
2.0
 50
90.0
  0
INSERT
  5
11ADE
330
101D6
100
AcDbEntity
  8
30
  6
Continuous
 62
     0
440
 16777216
370
    -2
100
AcDbBlockReference
  2
_OPEN
 10
182.3907937651802
 20
104.7838176443143
 30
0.0
 41
2.0
 42
2.0
 43
2.0
 50
270.0
  0
MTEXT
  5
11ADF
330
101D6
100
AcDbEntity
  8
30
  6
Continuous
 62
     0
440
 16777216
100
AcDbMText
 10
177.3907937651802
 20
160.2838176443142
 30
0.0
 40
6.0
 41
0.0
 46
0.0
 71
     5
 72
     1
  1
\A1;111
 11
0.0000000000000001
 21
1.0
 31
0.0
 73
     1
 44
1.0
 90
        3
 63
     9
421
 13158600
 45
1.25
441
        0
  0
POINT
  5
11AE0
330
101D6
100
AcDbEntity
  8
DEFPOINTS
  6
Continuous
 62
     0
440
 16777216
100
AcDbPoint
 10
76.49508410232765
 20
215.7838176443142
 30
0.0
  0
POINT
  5
11AE1
330
101D6
100
AcDbEntity
  8
DEFPOINTS
  6
Continuous
 62
     0
440
 16777216
100
AcDbPoint
 10
106.4950841023276
 20
104.7838176443143
 30
0.0
  0
POINT
  5
11AE2
330
101D6
100
AcDbEntity
  8
DEFPOINTS
  6
Continuous
 62
     0
440
 16777216
100
AcDbPoint
 10
182.3907937651802
 20
104.7838176443143
 30
0.0
  0
ENDBLK
  5
101D8
330
101D6
100
AcDbEntity
  8
0
100
AcDbBlockEnd
  0
BLOCK
  5
102F6
330
102F5
100
AcDbEntity
  8
0
100
AcDbBlockBegin
  2
*D11
 70
     1
 10
0.0
 20
0.0
 30
0.0
  3
*D11
  1

  0
LINE
  5
11AC8
330
102F5
100
AcDbEntity
  8
30
  6
Continuous
 62
     0
440
 16777216
370
    -2
100
AcDbLine
 10
71.99508410232765
 20
210.2838176443142
 30
0.0
 11
71.99508410232763
 21
66.38874544119971
 31
0.0
  0
LINE
  5
11AC9
330
102F5
100
AcDbEntity
  8
30
  6
Continuous
 62
     0
440
 16777216
370
    -2
100
AcDbLine
 10
101.9950841023276
 20
99.28381764431428
 30
0.0
 11
101.9950841023276
 21
66.38874544119971
 31
0.0
  0
LINE
  5
11ACA
330
102F5
100
AcDbEntity
  8
30
  6
Continuous
 62
     0
440
 16777216
370
    -2
100
AcDbLine
 10
73.99508410232764
 20
66.88874544119972
 30
0.0
 11
99.9950841023276
 21
66.88874544119972
 31
0.0
  0
INSERT
  5
11ACB
330
102F5
100
AcDbEntity
  8
30
  6
Continuous
 62
     0
440
 16777216
370
    -2
100
AcDbBlockReference
  2
_OPEN
 10
71.99508410232763
 20
66.88874544119972
 30
0.0
 41
2.0
 42
2.0
 43
2.0
 50
180.0
  0
INSERT
  5
11ACC
330
102F5
100
AcDbEntity
  8
30
  6
Continuous
 62
     0
440
 16777216
370
    -2
100
AcDbBlockReference
  2
_OPEN
 10
101.9950841023276
 20
66.88874544119972
 30
0.0
 41
2.0
 42
2.0
 43
2.0
  0
MTEXT
  5
11ACD
330
102F5
100
AcDbEntity
  8
30
  6
Continuous
 62
     0
440
 16777216
100
AcDbMText
 10
86.99508410232761
 20
71.88874544119972
 30
0.0
 40
6.0
 41
0.0
 46
0.0
 71
     5
 72
     1
  1
\A1;30
 73
     1
 44
1.0
 90
        3
 63
     9
421
 13158600
 45
1.25
441
        0
  0
POINT
  5
11ACE
330
102F5
100
AcDbEntity
  8
DEFPOINTS
  6
Continuous
 62
     0
440
 16777216
100
AcDbPoint
 10
71.99508410232765
 20
211.2838176443142
 30
0.0
  0
POINT
  5
11ACF
330
102F5
100
AcDbEntity
  8
DEFPOINTS
  6
Continuous
 62
     0
440
 16777216
100
AcDbPoint
 10
101.9950841023276
 20
100.2838176443143
 30
0.0
  0
POINT
  5
11AD0
330
102F5
100
AcDbEntity
  8
DEFPOINTS
  6
Continuous
 62
     0
440
 16777216
100
AcDbPoint
 10
101.9950841023276
 20
66.88874544119972
 30
0.0
  0
ENDBLK
  5
102F7
330
102F5
100
AcDbEntity
  8
0
100
AcDbBlockEnd
  0
BLOCK
  5
10834
330
10833
100
AcDbEntity
  8
0
100
AcDbBlockBegin
  2
*D12
 70
     1
 10
0.0
 20
0.0
 30
0.0
  3
*D12
  1

  0
LINE
  5
11993
330
10833
100
AcDbEntity
  8
30
  6
Continuous
 62
     0
440
 16777216
370
    -2
100
AcDbLine
 10
86.99508410232764
 20
353.0822830668493
 30
0.0
 11
86.99508410232764
 21
326.4227369761425
 31
0.0
  0
LINE
  5
11994
330
10833
100
AcDbEntity
  8
30
  6
Continuous
 62
     0
440
 16777216
370
    -2
100
AcDbLine
 10
116.9950841023276
 20
353.0822830668492
 30
0.0
 11
116.9950841023276
 21
326.4227369761425
 31
0.0
  0
LINE
  5
11995
330
10833
100
AcDbEntity
  8
30
  6
Continuous
 62
     0
440
 16777216
370
    -2
100
AcDbLine
 10
88.99508410232767
 20
326.9227369761424
 30
0.0
 11
114.9950841023276
 21
326.9227369761424
 31
0.0
  0
INSERT
  5
11996
330
10833
100
AcDbEntity
  8
30
  6
Continuous
 62
     0
440
 16777216
370
    -2
100
AcDbBlockReference
  2
_OPEN
 10
86.99508410232764
 20
326.9227369761424
 30
0.0
 41
2.0
 42
2.0
 43
2.0
 50
180.0
  0
INSERT
  5
11997
330
10833
100
AcDbEntity
  8
30
  6
Continuous
 62
     0
440
 16777216
370
    -2
100
AcDbBlockReference
  2
_OPEN
 10
116.9950841023276
 20
326.9227369761424
 30
0.0
 41
2.0
 42
2.0
 43
2.0
  0
MTEXT
  5
11998
330
10833
100
AcDbEntity
  8
30
  6
Continuous
 62
     0
440
 16777216
100
AcDbMText
 10
101.9950841023276
 20
331.9227369761425
 30
0.0
 40
6.0
 41
0.0
 46
0.0
 71
     5
 72
     1
  1
\A1;30
 73
     1
 44
1.0
 90
        3
 63
     9
421
 13158600
 45
1.25
441
        0
  0
POINT
  5
11999
330
10833
100
AcDbEntity
  8
DEFPOINTS
  6
Continuous
 62
     0
440
 16777216
100
AcDbPoint
 10
86.99508410232764
 20
354.0822830668493
 30
0.0
  0
POINT
  5
1199A
330
10833
100
AcDbEntity
  8
DEFPOINTS
  6
Continuous
 62
     0
440
 16777216
100
AcDbPoint
 10
116.9950841023276
 20
354.0822830668493
 30
0.0
  0
POINT
  5
1199B
330
10833
100
AcDbEntity
  8
DEFPOINTS
  6
Continuous
 62
     0
440
 16777216
100
AcDbPoint
 10
116.9950841023276
 20
326.9227369761424
 30
0.0
  0
ENDBLK
  5
10835
330
10833
100
AcDbEntity
  8
0
100
AcDbBlockEnd
  0
BLOCK
  5
10840
330
1083F
100
AcDbEntity
  8
0
100
AcDbBlockBegin
  2
*D13
 70
     1
 10
0.0
 20
0.0
 30
0.0
  3
*D13
  1

  0
LINE
  5
1196F
330
1083F
100
AcDbEntity
  8
30
  6
Continuous
 62
     0
440
 16777216
370
    -2
100
AcDbLine
 10
74.49508410232765
 20
526.1312116653487
 30
0.0
 11
191.8523950935805
 21
526.1312116653487
 31
0.0
  0
LINE
  5
11970
330
1083F
100
AcDbEntity
  8
30
  6
Continuous
 62
     0
440
 16777216
370
    -2
100
AcDbLine
 10
162.9950841023276
 20
476.0822830833491
 30
0.0
 11
191.8523950935805
 21
476.0822830833491
 31
0.0
  0
LINE
  5
11971
330
1083F
100
AcDbEntity
  8
30
  6
Continuous
 62
     0
440
 16777216
370
    -2
100
AcDbLine
 10
191.3523950935805
 20
524.1312116653487
 30
0.0
 11
191.3523950935805
 21
478.0822830833491
 31
0.0
  0
INSERT
  5
11972
330
1083F
100
AcDbEntity
  8
30
  6
Continuous
 62
     0
440
 16777216
370
    -2
100
AcDbBlockReference
  2
_OPEN
 10
191.3523950935805
 20
526.1312116653487
 30
0.0
 41
2.0
 42
2.0
 43
2.0
 50
90.0
  0
INSERT
  5
11973
330
1083F
100
AcDbEntity
  8
30
  6
Continuous
 62
     0
440
 16777216
370
    -2
100
AcDbBlockReference
  2
_OPEN
 10
191.3523950935805
 20
476.0822830833491
 30
0.0
 41
2.0
 42
2.0
 43
2.0
 50
270.0
  0
MTEXT
  5
11974
330
1083F
100
AcDbEntity
  8
30
  6
Continuous
 62
     0
440
 16777216
100
AcDbMText
 10
186.3523950935805
 20
501.1067473743489
 30
0.0
 40
6.0
 41
0.0
 46
0.0
 71
     5
 72
     1
  1
\A1;50
 11
0.0000000000000001
 21
1.0
 31
0.0
 73
     1
 44
1.0
 90
        3
 63
     9
421
 13158600
 45
1.25
441
        0
  0
POINT
  5
11975
330
1083F
100
AcDbEntity
  8
DEFPOINTS
  6
Continuous
 62
     0
440
 16777216
100
AcDbPoint
 10
73.49508410232767
 20
526.1312116653487
 30
0.0
  0
POINT
  5
11976
330
1083F
100
AcDbEntity
  8
DEFPOINTS
  6
Continuous
 62
     0
440
 16777216
100
AcDbPoint
 10
161.9950841023277
 20
476.0822830833491
 30
0.0
  0
POINT
  5
11977
330
1083F
100
AcDbEntity
  8
DEFPOINTS
  6
Continuous
 62
     0
440
 16777216
100
AcDbPoint
 10
191.3523950935805
 20
476.0822830833491
 30
0.0
  0
ENDBLK
  5
10841
330
1083F
100
AcDbEntity
  8
0
100
AcDbBlockEnd
  0
BLOCK
  5
1084C
330
1084B
100
AcDbEntity
  8
0
100
AcDbBlockBegin
  2
*D14
 70
     1
 10
0.0
 20
0.0
 30
0.0
  3
*D14
  1

  0
LINE
  5
11966
330
1084B
100
AcDbEntity
  8
30
  6
Continuous
 62
     0
440
 16777216
370
    -2
100
AcDbLine
 10
162.9950841023276
 20
476.0822830833491
 30
0.0
 11
191.8523950935805
 21
476.0822830833491
 31
0.0
  0
LINE
  5
11967
330
1084B
100
AcDbEntity
  8
30
  6
Continuous
 62
     0
440
 16777216
370
    -2
100
AcDbLine
 10
162.9950841023276
 20
346.0822830833491
 30
0.0
 11
191.8523950935805
 21
346.0822830833491
 31
0.0
  0
LINE
  5
11968
330
1084B
100
AcDbEntity
  8
30
  6
Continuous
 62
     0
440
 16777216
370
    -2
100
AcDbLine
 10
191.3523950935805
 20
474.0822830833491
 30
0.0
 11
191.3523950935805
 21
348.0822830833491
 31
0.0
  0
MTEXT
  5
11969
330
1084B
100
AcDbEntity
  8
30
  6
Continuous
 62
     0
440
 16777216
100
AcDbMText
 10
186.3523950935805
 20
411.0817479827241
 30
0.0
 40
6.0
 41
0.0
 46
0.0
 71
     5
 72
     1
  1
\A1;130
 11
0.0000000000000001
 21
1.0
 31
0.0
 73
     1
 44
1.0
 90
        3
 63
     9
421
 13158600
 45
1.25
441
        0
  0
INSERT
  5
1196A
330
1084B
100
AcDbEntity
  8
30
  6
Continuous
 62
     0
440
 16777216
370
    -2
100
AcDbBlockReference
  2
_OPEN
 10
191.3523950935805
 20
476.0822830833491
 30
0.0
 41
2.0
 42
2.0
 43
2.0
 50
90.0
  0
INSERT
  5
1196B
330
1084B
100
AcDbEntity
  8
30
  6
Continuous
 62
     0
440
 16777216
370
    -2
100
AcDbBlockReference
  2
_OPEN
 10
191.3523950935805
 20
346.0822830833491
 30
0.0
 41
2.0
 42
2.0
 43
2.0
 50
270.0
  0
POINT
  5
1196C
330
1084B
100
AcDbEntity
  8
DEFPOINTS
  6
Continuous
 62
     0
440
 16777216
100
AcDbPoint
 10
161.9950841023277
 20
476.0822830833491
 30
0.0
  0
POINT
  5
1196D
330
1084B
100
AcDbEntity
  8
DEFPOINTS
  6
Continuous
 62
     0
440
 16777216
100
AcDbPoint
 10
161.9950841023277
 20
346.0822830833491
 30
0.0
  0
POINT
  5
1196E
330
1084B
100
AcDbEntity
  8
DEFPOINTS
  6
Continuous
 62
     0
440
 16777216
100
AcDbPoint
 10
191.3523950935805
 20
346.0822830833491
 30
0.0
  0
ENDBLK
  5
1084D
330
1084B
100
AcDbEntity
  8
0
100
AcDbBlockEnd
  0
BLOCK
  5
10908
330
10907
100
AcDbEntity
  8
0
100
AcDbBlockBegin
  2
*D15
 70
     1
 10
0.0
 20
0.0
 30
0.0
  3
*D15
  1

  0
LINE
  5
11981
330
10907
100
AcDbEntity
  8
30
  6
Continuous
 62
     0
440
 16777216
370
    -2
100
AcDbLine
 10
41.99508410232764
 20
345.0833532845993
 30
0.0
 11
41.99508410232764
 21
295.5048987698583
 31
0.0
  0
LINE
  5
11982
330
10907
100
AcDbEntity
  8
30
  6
Continuous
 62
     0
440
 16777216
370
    -2
100
AcDbLine
 10
161.9950841023277
 20
345.0822830833491
 30
0.0
 11
161.9950841023277
 21
295.5048987698583
 31
0.0
  0
LINE
  5
11983
330
10907
100
AcDbEntity
  8
30
  6
Continuous
 62
     0
440
 16777216
370
    -2
100
AcDbLine
 10
43.99508410232765
 20
296.0048987698583
 30
0.0
 11
159.9950841023277
 21
296.0048987698583
 31
0.0
  0
INSERT
  5
11984
330
10907
100
AcDbEntity
  8
30
  6
Continuous
 62
     0
440
 16777216
370
    -2
100
AcDbBlockReference
  2
_OPEN
 10
41.99508410232764
 20
296.0048987698583
 30
0.0
 41
2.0
 42
2.0
 43
2.0
 50
180.0
  0
INSERT
  5
11985
330
10907
100
AcDbEntity
  8
30
  6
Continuous
 62
     0
440
 16777216
370
    -2
100
AcDbBlockReference
  2
_OPEN
 10
161.9950841023277
 20
296.0048987698583
 30
0.0
 41
2.0
 42
2.0
 43
2.0
  0
MTEXT
  5
11986
330
10907
100
AcDbEntity
  8
30
  6
Continuous
 62
     0
440
 16777216
100
AcDbMText
 10
101.9950841023276
 20
301.0048987698583
 30
0.0
 40
6.0
 41
0.0
 46
0.0
 71
     5
 72
     1
  1
\A1;120
 73
     1
 44
1.0
 90
        3
 63
     9
421
 13158600
 45
1.25
441
        0
  0
POINT
  5
11987
330
10907
100
AcDbEntity
  8
DEFPOINTS
  6
Continuous
 62
     0
440
 16777216
100
AcDbPoint
 10
41.99508410232764
 20
346.0833532845993
 30
0.0
  0
POINT
  5
11988
330
10907
100
AcDbEntity
  8
DEFPOINTS
  6
Continuous
 62
     0
440
 16777216
100
AcDbPoint
 10
161.9950841023277
 20
346.0822830833491
 30
0.0
  0
POINT
  5
11989
330
10907
100
AcDbEntity
  8
DEFPOINTS
  6
Continuous
 62
     0
440
 16777216
100
AcDbPoint
 10
161.9950841023277
 20
296.0048987698583
 30
0.0
  0
ENDBLK
  5
10909
330
10907
100
AcDbEntity
  8
0
100
AcDbBlockEnd
  0
BLOCK
  5
10914
330
10913
100
AcDbEntity
  8
0
100
AcDbBlockBegin
  2
*D16
 70
     1
 10
0.0
 20
0.0
 30
0.0
  3
*D16
  1

  0
LINE
  5
11A3D
330
10913
100
AcDbEntity
  8
30
  6
Continuous
 62
     0
440
 16777216
370
    -2
100
AcDbLine
 10
56.99508410232765
 20
353.0833532680992
 30
0.0
 11
56.99508410232765
 21
310.1791868172795
 31
0.0
  0
LINE
  5
11A3E
330
10913
100
AcDbEntity
  8
30
  6
Continuous
 62
     0
440
 16777216
370
    -2
100
AcDbLine
 10
146.9950841023275
 20
353.0833532680992
 30
0.0
 11
146.9950841023275
 21
310.1791868172795
 31
0.0
  0
LINE
  5
11A3F
330
10913
100
AcDbEntity
  8
30
  6
Continuous
 62
     0
440
 16777216
370
    -2
100
AcDbLine
 10
58.99508410232765
 20
310.6791868172795
 30
0.0
 11
144.9950841023276
 21
310.6791868172795
 31
0.0
  0
INSERT
  5
11A40
330
10913
100
AcDbEntity
  8
30
  6
Continuous
 62
     0
440
 16777216
370
    -2
100
AcDbBlockReference
  2
_OPEN
 10
56.99508410232765
 20
310.6791868172795
 30
0.0
 41
2.0
 42
2.0
 43
2.0
 50
180.0
  0
INSERT
  5
11A41
330
10913
100
AcDbEntity
  8
30
  6
Continuous
 62
     0
440
 16777216
370
    -2
100
AcDbBlockReference
  2
_OPEN
 10
146.9950841023275
 20
310.6791868172795
 30
0.0
 41
2.0
 42
2.0
 43
2.0
  0
MTEXT
  5
11A42
330
10913
100
AcDbEntity
  8
30
  6
Continuous
 62
     0
440
 16777216
100
AcDbMText
 10
101.9950841023276
 20
315.6791868172795
 30
0.0
 40
6.0
 41
0.0
 46
0.0
 71
     5
 72
     1
  1
\A1;90
 73
     1
 44
1.0
 90
        3
 63
     9
421
 13158600
 45
1.25
441
        0
  0
POINT
  5
11A43
330
10913
100
AcDbEntity
  8
DEFPOINTS
  6
Continuous
 62
     0
440
 16777216
100
AcDbPoint
 10
56.99508410232765
 20
354.0833532680992
 30
0.0
  0
POINT
  5
11A44
330
10913
100
AcDbEntity
  8
DEFPOINTS
  6
Continuous
 62
     0
440
 16777216
100
AcDbPoint
 10
146.9950841023275
 20
354.0833532680992
 30
0.0
  0
POINT
  5
11A45
330
10913
100
AcDbEntity
  8
DEFPOINTS
  6
Continuous
 62
     0
440
 16777216
100
AcDbPoint
 10
146.9950841023275
 20
310.6791868172795
 30
0.0
  0
ENDBLK
  5
10915
330
10913
100
AcDbEntity
  8
0
100
AcDbBlockEnd
  0
BLOCK
  5
10990
330
1098F
100
AcDbEntity
  8
0
100
AcDbBlockBegin
  2
*D17
 70
     1
 10
0.0
 20
0.0
 30
0.0
  3
*D17
  1

  0
LINE
  5
11AEC
330
1098F
100
AcDbEntity
  8
30
  6
Continuous
 62
     0
440
 16777216
370
    -2
100
AcDbLine
 10
419.4009536919958
 20
184.2838176443144
 30
0.0
 11
517.6065257009321
 21
184.2838176443144
 31
0.0
  0
LINE
  5
11AED
330
1098F
100
AcDbEntity
  8
30
  6
Continuous
 62
     0
440
 16777216
370
    -2
100
AcDbLine
 10
419.4009536919958
 20
136.2838176443144
 30
0.0
 11
517.6065257009321
 21
136.2838176443144
 31
0.0
  0
LINE
  5
11AEE
330
1098F
100
AcDbEntity
  8
30
  6
Continuous
 62
     0
440
 16777216
370
    -2
100
AcDbLine
 10
517.1065257009321
 20
182.2838176443143
 30
0.0
 11
517.1065257009321
 21
138.2838176443144
 31
0.0
  0
INSERT
  5
11AEF
330
1098F
100
AcDbEntity
  8
30
  6
Continuous
 62
     0
440
 16777216
370
    -2
100
AcDbBlockReference
  2
_OPEN
 10
517.1065257009321
 20
184.2838176443144
 30
0.0
 41
2.0
 42
2.0
 43
2.0
 50
90.0
  0
INSERT
  5
11AF0
330
1098F
100
AcDbEntity
  8
30
  6
Continuous
 62
     0
440
 16777216
370
    -2
100
AcDbBlockReference
  2
_OPEN
 10
517.1065257009321
 20
136.2838176443144
 30
0.0
 41
2.0
 42
2.0
 43
2.0
 50
270.0
  0
MTEXT
  5
11AF1
330
1098F
100
AcDbEntity
  8
30
  6
Continuous
 62
     0
440
 16777216
100
AcDbMText
 10
512.1065257009321
 20
160.2838176443145
 30
0.0
 40
6.0
 41
0.0
 46
0.0
 71
     5
 72
     1
  1
\A1;48
 11
0.0000000000000001
 21
1.0
 31
0.0
 73
     1
 44
1.0
 90
        3
 63
     9
421
 13158600
 45
1.25
441
        0
  0
POINT
  5
11AF2
330
1098F
100
AcDbEntity
  8
DEFPOINTS
  6
Continuous
 62
     0
440
 16777216
100
AcDbPoint
 10
418.4009536919957
 20
184.2838176443144
 30
0.0
  0
POINT
  5
11AF3
330
1098F
100
AcDbEntity
  8
DEFPOINTS
  6
Continuous
 62
     0
440
 16777216
100
AcDbPoint
 10
418.4009536919957
 20
136.2838176443144
 30
0.0
  0
POINT
  5
11AF4
330
1098F
100
AcDbEntity
  8
DEFPOINTS
  6
Continuous
 62
     0
440
 16777216
100
AcDbPoint
 10
517.1065257009321
 20
136.2838176443144
 30
0.0
  0
ENDBLK
  5
10991
330
1098F
100
AcDbEntity
  8
0
100
AcDbBlockEnd
  0
BLOCK
  5
1099C
330
1099B
100
AcDbEntity
  8
0
100
AcDbBlockBegin
  2
*D18
 70
     1
 10
0.0
 20
0.0
 30
0.0
  3
*D18
  1

  0
LINE
  5
11A4F
330
1099B
100
AcDbEntity
  8
30
  6
Continuous
 62
     0
440
 16777216
370
    -2
100
AcDbLine
 10
408.4009522314961
 20
136.2838172718144
 30
0.0
 11
408.4009522314961
 21
65.39430663234407
 31
0.0
  0
LINE
  5
11A50
330
1099B
100
AcDbEntity
  8
30
  6
Continuous
 62
     0
440
 16777216
370
    -2
100
AcDbLine
 10
432.4009551522464
 20
136.2838172718144
 30
0.0
 11
432.4009551522464
 21
65.39430663234407
 31
0.0
  0
LINE
  5
11A51
330
1099B
100
AcDbEntity
  8
30
  6
Continuous
 62
     0
440
 16777216
370
    -2
100
AcDbLine
 10
410.4009522314962
 20
65.89430663234407
 30
0.0
 11
430.4009551522463
 21
65.89430663234407
 31
0.0
  0
INSERT
  5
11A52
330
1099B
100
AcDbEntity
  8
30
  6
Continuous
 62
     0
440
 16777216
370
    -2
100
AcDbBlockReference
  2
_OPEN
 10
408.4009522314961
 20
65.89430663234407
 30
0.0
 41
2.0
 42
2.0
 43
2.0
 50
180.0
  0
INSERT
  5
11A53
330
1099B
100
AcDbEntity
  8
30
  6
Continuous
 62
     0
440
 16777216
370
    -2
100
AcDbBlockReference
  2
_OPEN
 10
432.4009551522464
 20
65.89430663234407
 30
0.0
 41
2.0
 42
2.0
 43
2.0
  0
MTEXT
  5
11A54
330
1099B
100
AcDbEntity
  8
30
  6
Continuous
 62
     0
440
 16777216
100
AcDbMText
 10
420.4009536918713
 20
70.89430663234407
 30
0.0
 40
6.0
 41
0.0
 46
0.0
 71
     5
 72
     1
  1
\A1;24
 73
     1
 44
1.0
 90
        3
 63
     9
421
 13158600
 45
1.25
441
        0
  0
POINT
  5
11A55
330
1099B
100
AcDbEntity
  8
DEFPOINTS
  6
Continuous
 62
     0
440
 16777216
100
AcDbPoint
 10
408.4009522314961
 20
137.2838172718144
 30
0.0
  0
POINT
  5
11A56
330
1099B
100
AcDbEntity
  8
DEFPOINTS
  6
Continuous
 62
     0
440
 16777216
100
AcDbPoint
 10
432.4009551522464
 20
137.2838172718144
 30
0.0
  0
POINT
  5
11A57
330
1099B
100
AcDbEntity
  8
DEFPOINTS
  6
Continuous
 62
     0
440
 16777216
100
AcDbPoint
 10
432.4009551522464
 20
65.89430663234407
 30
0.0
  0
ENDBLK
  5
1099D
330
1099B
100
AcDbEntity
  8
0
100
AcDbBlockEnd
  0
BLOCK
  5
109A8
330
109A7
100
AcDbEntity
  8
0
100
AcDbBlockBegin
  2
*D19
 70
     1
 10
0.0
 20
0.0
 30
0.0
  3
*D19
  1

  0
LINE
  5
119AD
330
109A7
100
AcDbEntity
  8
30
  6
Continuous
 62
     0
440
 16777216
370
    -2
100
AcDbLine
 10
451.2773202693654
 20
191.3281461702655
 30
0.0
 11
441.2773202693656
 21
191.3281461702655
 31
0.0
  0
LINE
  5
119AE
330
109A7
100
AcDbEntity
  8
30
  6
Continuous
 62
     0
440
 16777216
370
    -2
100
AcDbLine
 10
441.2773202693656
 20
191.3281461702655
 30
0.0
 11
433.6453987094871
 21
185.1680592584155
 31
0.0
  0
MTEXT
  5
119AF
330
109A7
100
AcDbEntity
  8
30
  6
Continuous
 62
     0
440
 16777216
100
AcDbMText
 10
447.2773202693653
 20
196.3281461702655
 30
0.0
 40
6.0
 41
0.0
 46
0.0
 71
     5
 72
     1
  1
\A1;R1
 73
     1
 44
1.0
 90
        3
 63
     9
421
 13158600
 45
1.25
441
        0
  0
INSERT
  5
119B0
330
109A7
100
AcDbEntity
  8
30
  6
Continuous
 62
     0
440
 16777216
370
    -2
100
AcDbBlockReference
  2
_OPEN
 10
432.0891020311596
 20
183.9118981823479
 30
0.0
 41
2.0
 42
2.0
 43
2.0
 50
218.9086496620475
  0
LINE
  5
119B1
330
109A7
100
AcDbEntity
  8
30
  6
Continuous
 62
     0
440
 16777216
370
    -2
100
AcDbLine
 10
431.2209536919962
 20
183.2838176443143
 30
0.0
 11
431.4009536919961
 21
183.2838176443143
 31
0.0
  0
LINE
  5
119B2
330
109A7
100
AcDbEntity
  8
30
  6
Continuous
 62
     0
440
 16777216
370
    -2
100
AcDbLine
 10
431.3109536919961
 20
183.1938176443143
 30
0.0
 11
431.3109536919961
 21
183.3738176443144
 31
0.0
  0
POINT
  5
119B3
330
109A7
100
AcDbEntity
  8
DEFPOINTS
  6
Continuous
 62
     0
440
 16777216
100
AcDbPoint
 10
432.0891020311596
 20
183.9118981823479
 30
0.0
  0
POINT
  5
119B4
330
109A7
100
AcDbEntity
  8
DEFPOINTS
  6
Continuous
 62
     0
440
 16777216
100
AcDbPoint
 10
431.3109536919961
 20
183.2838176443143
 30
0.0
  0
ENDBLK
  5
109A9
330
109A7
100
AcDbEntity
  8
0
100
AcDbBlockEnd
  0
BLOCK
  5
10BA7
330
10BA6
100
AcDbEntity
  8
0
100
AcDbBlockBegin
  2
*D20
 70
     1
 10
0.0
 20
0.0
 30
0.0
  3
*D20
  1

  0
LINE
  5
11A19
330
10BA6
100
AcDbEntity
  8
30
  6
Continuous
 62
     0
440
 16777216
370
    -2
100
AcDbLine
 10
75.99508410232767
 20
434.6312116653492
 30
0.0
 11
75.99508410232767
 21
443.7185146815386
 31
0.0
  0
LINE
  5
11A1A
330
10BA6
100
AcDbEntity
  8
30
  6
Continuous
 62
     0
440
 16777216
370
    -2
100
AcDbLine
 10
97.99508410232769
 20
434.6312116653492
 30
0.0
 11
97.99508410232769
 21
443.7185146815386
 31
0.0
  0
LINE
  5
11A1B
330
10BA6
100
AcDbEntity
  8
30
  6
Continuous
 62
     0
440
 16777216
370
    -2
100
AcDbLine
 10
77.99508410232767
 20
443.2185146815386
 30
0.0
 11
95.9950841023277
 21
443.2185146815386
 31
0.0
  0
MTEXT
  5
11A1C
330
10BA6
100
AcDbEntity
  8
30
  6
Continuous
 62
     0
440
 16777216
100
AcDbMText
 10
86.99508410232764
 20
448.617983011796
 30
0.0
 40
6.0
 41
0.0
 46
0.0
 71
     5
 72
     1
  1
\A1;22
 73
     1
 44
1.0
 90
        3
 63
     9
421
 13158600
 45
1.25
441
        0
  0
INSERT
  5
11A1D
330
10BA6
100
AcDbEntity
  8
30
  6
Continuous
 62
     0
440
 16777216
370
    -2
100
AcDbBlockReference
  2
_OPEN
 10
75.99508410232767
 20
443.2185146815386
 30
0.0
 41
2.0
 42
2.0
 43
2.0
 50
180.0
  0
INSERT
  5
11A1E
330
10BA6
100
AcDbEntity
  8
30
  6
Continuous
 62
     0
440
 16777216
370
    -2
100
AcDbBlockReference
  2
_OPEN
 10
97.99508410232769
 20
443.2185146815386
 30
0.0
 41
2.0
 42
2.0
 43
2.0
  0
POINT
  5
11A1F
330
10BA6
100
AcDbEntity
  8
DEFPOINTS
  6
Continuous
 62
     0
440
 16777216
100
AcDbPoint
 10
75.99508410232767
 20
433.6312116653492
 30
0.0
  0
POINT
  5
11A20
330
10BA6
100
AcDbEntity
  8
DEFPOINTS
  6
Continuous
 62
     0
440
 16777216
100
AcDbPoint
 10
97.99508410232769
 20
433.6312116653492
 30
0.0
  0
POINT
  5
11A21
330
10BA6
100
AcDbEntity
  8
DEFPOINTS
  6
Continuous
 62
     0
440
 16777216
100
AcDbPoint
 10
97.99508410232769
 20
443.2185146815386
 30
0.0
  0
ENDBLK
  5
10BA8
330
10BA6
100
AcDbEntity
  8
0
100
AcDbBlockEnd
  0
BLOCK
  5
10BBD
330
10BBC
100
AcDbEntity
  8
0
100
AcDbBlockBegin
  2
*D21
 70
     1
 10
0.0
 20
0.0
 30
0.0
  3
*D21
  1

  0
LINE
  5
11902
330
10BBC
100
AcDbEntity
  8
30
  6
Continuous
 62
     0
440
 16777216
370
    -2
100
AcDbLine
 10
44.99508410232765
 20
385.1312116653493
 30
0.0
 11
44.99508410232765
 21
370.6312116653493
 31
0.0
  0
LINE
  5
11903
330
10BBC
100
AcDbEntity
  8
30
  6
Continuous
 62
     0
440
 16777216
370
    -2
100
AcDbLine
 10
128.9950841023276
 20
385.1312116653493
 30
0.0
 11
128.9950841023276
 21
370.6312116653493
 31
0.0
  0
LINE
  5
11904
330
10BBC
100
AcDbEntity
  8
30
  6
Continuous
 62
     0
440
 16777216
370
    -2
100
AcDbLine
 10
46.99508410232765
 20
371.1312116653493
 30
0.0
 11
126.9950841023276
 21
371.1312116653493
 31
0.0
  0
MTEXT
  5
11905
330
10BBC
100
AcDbEntity
  8
30
  6
Continuous
 62
     0
440
 16777216
100
AcDbMText
 10
86.99508410232764
 20
376.1312116653493
 30
0.0
 40
6.0
 41
0.0
 46
0.0
 71
     5
 72
     1
  1
\A1;84
 73
     1
 44
1.0
 90
        3
 63
     9
421
 13158600
 45
1.25
441
        0
  0
INSERT
  5
11906
330
10BBC
100
AcDbEntity
  8
30
  6
Continuous
 62
     0
440
 16777216
370
    -2
100
AcDbBlockReference
  2
_OPEN
 10
44.99508410232765
 20
371.1312116653493
 30
0.0
 41
2.0
 42
2.0
 43
2.0
 50
180.0
  0
INSERT
  5
11907
330
10BBC
100
AcDbEntity
  8
30
  6
Continuous
 62
     0
440
 16777216
370
    -2
100
AcDbBlockReference
  2
_OPEN
 10
128.9950841023276
 20
371.1312116653493
 30
0.0
 41
2.0
 42
2.0
 43
2.0
  0
POINT
  5
11908
330
10BBC
100
AcDbEntity
  8
DEFPOINTS
  6
Continuous
 62
     0
440
 16777216
100
AcDbPoint
 10
44.99508410232765
 20
386.1312116653493
 30
0.0
  0
POINT
  5
11909
330
10BBC
100
AcDbEntity
  8
DEFPOINTS
  6
Continuous
 62
     0
440
 16777216
100
AcDbPoint
 10
128.9950841023276
 20
386.1312116653493
 30
0.0
  0
POINT
  5
1190A
330
10BBC
100
AcDbEntity
  8
DEFPOINTS
  6
Continuous
 62
     0
440
 16777216
100
AcDbPoint
 10
128.9950841023276
 20
371.1312116653493
 30
0.0
  0
ENDBLK
  5
10BBE
330
10BBC
100
AcDbEntity
  8
0
100
AcDbBlockEnd
  0
BLOCK
  5
10BDC
330
10BDB
100
AcDbEntity
  8
0
100
AcDbBlockBegin
  2
*D22
 70
     1
 10
0.0
 20
0.0
 30
0.0
  3
*D22
  1

  0
LINE
  5
1199C
330
10BDB
100
AcDbEntity
  8
30
  6
Continuous
 62
     0
440
 16777216
370
    -2
100
AcDbLine
 10
41.99508410232764
 20
345.0822830833491
 30
0.0
 11
41.99508410232764
 21
326.4227369761425
 31
0.0
  0
LINE
  5
1199D
330
10BDB
100
AcDbEntity
  8
30
  6
Continuous
 62
     0
440
 16777216
370
    -2
100
AcDbLine
 10
86.99508410232764
 20
353.0822830668492
 30
0.0
 11
86.99508410232764
 21
326.4227369761425
 31
0.0
  0
LINE
  5
1199E
330
10BDB
100
AcDbEntity
  8
30
  6
Continuous
 62
     0
440
 16777216
370
    -2
100
AcDbLine
 10
43.99508410232765
 20
326.9227369761424
 30
0.0
 11
84.99508410232767
 21
326.9227369761424
 31
0.0
  0
INSERT
  5
1199F
330
10BDB
100
AcDbEntity
  8
30
  6
Continuous
 62
     0
440
 16777216
370
    -2
100
AcDbBlockReference
  2
_OPEN
 10
41.99508410232764
 20
326.9227369761424
 30
0.0
 41
2.0
 42
2.0
 43
2.0
 50
180.0
  0
INSERT
  5
119A0
330
10BDB
100
AcDbEntity
  8
30
  6
Continuous
 62
     0
440
 16777216
370
    -2
100
AcDbBlockReference
  2
_OPEN
 10
86.99508410232764
 20
326.9227369761424
 30
0.0
 41
2.0
 42
2.0
 43
2.0
  0
MTEXT
  5
119A1
330
10BDB
100
AcDbEntity
  8
30
  6
Continuous
 62
     0
440
 16777216
100
AcDbMText
 10
64.49508410232765
 20
331.9227369761425
 30
0.0
 40
6.0
 41
0.0
 46
0.0
 71
     5
 72
     1
  1
\A1;45
 73
     1
 44
1.0
 90
        3
 63
     9
421
 13158600
 45
1.25
441
        0
  0
POINT
  5
119A2
330
10BDB
100
AcDbEntity
  8
DEFPOINTS
  6
Continuous
 62
     0
440
 16777216
100
AcDbPoint
 10
41.99508410232764
 20
346.0822830833491
 30
0.0
  0
POINT
  5
119A3
330
10BDB
100
AcDbEntity
  8
DEFPOINTS
  6
Continuous
 62
     0
440
 16777216
100
AcDbPoint
 10
86.99508410232764
 20
354.0822830668493
 30
0.0
  0
POINT
  5
119A4
330
10BDB
100
AcDbEntity
  8
DEFPOINTS
  6
Continuous
 62
     0
440
 16777216
100
AcDbPoint
 10
86.99508410232764
 20
326.9227369761424
 30
0.0
  0
ENDBLK
  5
10BDD
330
10BDB
100
AcDbEntity
  8
0
100
AcDbBlockEnd
  0
BLOCK
  5
117DC
330
117DB
100
AcDbEntity
  8
0
100
AcDbBlockBegin
  2
*D23
 70
     1
 10
0.0
 20
0.0
 30
0.0
  3
*D23
  1

  0
LINE
  5
11978
330
117DB
100
AcDbEntity
  8
30
  6
Continuous
 62
     0
440
 16777216
370
    -2
100
AcDbLine
 10
258.6346380745291
 20
404.2739106168808
 30
0.0
 11
258.6346380745291
 21
280.61853332188
 31
0.0
  0
LINE
  5
11979
330
117DB
100
AcDbEntity
  8
30
  6
Continuous
 62
     0
440
 16777216
370
    -2
100
AcDbLine
 10
354.1346368377795
 20
339.1132771876447
 30
0.0
 11
354.1346368377795
 21
280.61853332188
 31
0.0
  0
LINE
  5
1197A
330
117DB
100
AcDbEntity
  8
30
  6
Continuous
 62
     0
440
 16777216
370
    -2
100
AcDbLine
 10
260.6346380745292
 20
281.11853332188
 30
0.0
 11
352.1346368377795
 21
281.11853332188
 31
0.0
  0
INSERT
  5
1197B
330
117DB
100
AcDbEntity
  8
30
  6
Continuous
 62
     0
440
 16777216
370
    -2
100
AcDbBlockReference
  2
_OPEN
 10
258.6346380745291
 20
281.11853332188
 30
0.0
 41
2.0
 42
2.0
 43
2.0
 50
180.0
  0
INSERT
  5
1197C
330
117DB
100
AcDbEntity
  8
30
  6
Continuous
 62
     0
440
 16777216
370
    -2
100
AcDbBlockReference
  2
_OPEN
 10
354.1346368377795
 20
281.11853332188
 30
0.0
 41
2.0
 42
2.0
 43
2.0
  0
MTEXT
  5
1197D
330
117DB
100
AcDbEntity
  8
30
  6
Continuous
 62
     0
440
 16777216
100
AcDbMText
 10
306.3846374561543
 20
286.11853332188
 30
0.0
 40
6.0
 41
0.0
 46
0.0
 71
     5
 72
     1
  1
\A1;95.5
 73
     1
 44
1.0
 90
        3
 63
     9
421
 13158600
 45
1.25
441
        0
  0
POINT
  5
1197E
330
117DB
100
AcDbEntity
  8
DEFPOINTS
  6
Continuous
 62
     0
440
 16777216
100
AcDbPoint
 10
258.6346380745291
 20
405.2739106168806
 30
0.0
  0
POINT
  5
1197F
330
117DB
100
AcDbEntity
  8
DEFPOINTS
  6
Continuous
 62
     0
440
 16777216
100
AcDbPoint
 10
354.1346368377795
 20
340.1132771876447
 30
0.0
  0
POINT
  5
11980
330
117DB
100
AcDbEntity
  8
DEFPOINTS
  6
Continuous
 62
     0
440
 16777216
100
AcDbPoint
 10
354.1346368377795
 20
281.11853332188
 30
0.0
  0
ENDBLK
  5
117DD
330
117DB
100
AcDbEntity
  8
0
100
AcDbBlockEnd
  0
BLOCK
  5
117E8
330
117E7
100
AcDbEntity
  8
0
100
AcDbBlockBegin
  2
*D24
 70
     1
 10
0.0
 20
0.0
 30
0.0
  3
*D24
  1

  0
LINE
  5
118D4
330
117E7
100
AcDbEntity
  8
30
  6
Continuous
 62
     0
440
 16777216
370
    -2
100
AcDbLine
 10
275.634638074529
 20
379.2739106168809
 30
0.0
 11
275.634638074529
 21
295.8259209856421
 31
0.0
  0
LINE
  5
118D5
330
117E7
100
AcDbEntity
  8
30
  6
Continuous
 62
     0
440
 16777216
370
    -2
100
AcDbLine
 10
282.134638074529
 20
379.2739106168809
 30
0.0
 11
282.134638074529
 21
295.8259209856421
 31
0.0
  0
LINE
  5
118D6
330
117E7
100
AcDbEntity
  8
30
  6
Continuous
 62
     0
440
 16777216
370
    -2
100
AcDbLine
 10
284.134638074529
 20
296.3259209856421
 30
0.0
 11
286.134638074529
 21
296.3259209856421
 31
0.0
  0
LINE
  5
118D7
330
117E7
100
AcDbEntity
  8
30
  6
Continuous
 62
     0
440
 16777216
370
    -2
100
AcDbLine
 10
273.634638074529
 20
296.3259209856421
 30
0.0
 11
233.8851620292025
 21
296.3259209856421
 31
0.0
  0
INSERT
  5
118D8
330
117E7
100
AcDbEntity
  8
30
  6
Continuous
 62
     0
440
 16777216
370
    -2
100
AcDbBlockReference
  2
_OPEN
 10
282.134638074529
 20
296.3259209856421
 30
0.0
 41
2.0
 42
2.0
 43
2.0
 50
180.0
  0
INSERT
  5
118D9
330
117E7
100
AcDbEntity
  8
30
  6
Continuous
 62
     0
440
 16777216
370
    -2
100
AcDbBlockReference
  2
_OPEN
 10
275.634638074529
 20
296.3259209856421
 30
0.0
 41
2.0
 42
2.0
 43
2.0
  0
MTEXT
  5
118DA
330
117E7
100
AcDbEntity
  8
30
  6
Continuous
 62
     0
440
 16777216
100
AcDbMText
 10
241.8851620292025
 20
301.3259209856422
 30
0.0
 40
6.0
 41
0.0
 46
0.0
 71
     5
 72
     1
  1
\A1;6.5
 73
     1
 44
1.0
 90
        3
 63
     9
421
 13158600
 45
1.25
441
        0
  0
POINT
  5
118DB
330
117E7
100
AcDbEntity
  8
DEFPOINTS
  6
Continuous
 62
     0
440
 16777216
100
AcDbPoint
 10
275.634638074529
 20
380.2739106168809
 30
0.0
  0
POINT
  5
118DC
330
117E7
100
AcDbEntity
  8
DEFPOINTS
  6
Continuous
 62
     0
440
 16777216
100
AcDbPoint
 10
282.134638074529
 20
380.2739106168809
 30
0.0
  0
POINT
  5
118DD
330
117E7
100
AcDbEntity
  8
DEFPOINTS
  6
Continuous
 62
     0
440
 16777216
100
AcDbPoint
 10
282.134638074529
 20
296.3259209856421
 30
0.0
  0
ENDBLK
  5
117E9
330
117E7
100
AcDbEntity
  8
0
100
AcDbBlockEnd
  0
BLOCK
  5
117F5
330
117F4
100
AcDbEntity
  8
0
100
AcDbBlockBegin
  2
*D25
 70
     1
 10
0.0
 20
0.0
 30
0.0
  3
*D25
  1

  0
LINE
  5
11876
330
117F4
100
AcDbEntity
  8
30
  6
Continuous
 62
     0
440
 16777216
370
    -2
100
AcDbLine
 10
282.134638074529
 20
379.2739106168809
 30
0.0
 11
282.134638074529
 21
295.8259209856421
 31
0.0
  0
LINE
  5
11877
330
117F4
100
AcDbEntity
  8
30
  6
Continuous
 62
     0
440
 16777216
370
    -2
100
AcDbLine
 10
354.1346368377795
 20
339.1132771876447
 30
0.0
 11
354.1346368377795
 21
295.8259209856421
 31
0.0
  0
LINE
  5
11878
330
117F4
100
AcDbEntity
  8
30
  6
Continuous
 62
     0
440
 16777216
370
    -2
100
AcDbLine
 10
284.134638074529
 20
296.3259209856421
 30
0.0
 11
352.1346368377795
 21
296.3259209856421
 31
0.0
  0
INSERT
  5
11879
330
117F4
100
AcDbEntity
  8
30
  6
Continuous
 62
     0
440
 16777216
370
    -2
100
AcDbBlockReference
  2
_OPEN
 10
282.134638074529
 20
296.3259209856421
 30
0.0
 41
2.0
 42
2.0
 43
2.0
 50
180.0
  0
INSERT
  5
1187A
330
117F4
100
AcDbEntity
  8
30
  6
Continuous
 62
     0
440
 16777216
370
    -2
100
AcDbBlockReference
  2
_OPEN
 10
354.1346368377795
 20
296.3259209856421
 30
0.0
 41
2.0
 42
2.0
 43
2.0
  0
MTEXT
  5
1187B
330
117F4
100
AcDbEntity
  8
30
  6
Continuous
 62
     0
440
 16777216
100
AcDbMText
 10
318.1346374561542
 20
301.3259209856422
 30
0.0
 40
6.0
 41
0.0
 46
0.0
 71
     5
 72
     1
  1
\A1;72
 73
     1
 44
1.0
 90
        3
 63
     9
421
 13158600
 45
1.25
441
        0
  0
POINT
  5
1187C
330
117F4
100
AcDbEntity
  8
DEFPOINTS
  6
Continuous
 62
     0
440
 16777216
100
AcDbPoint
 10
282.134638074529
 20
380.2739106168809
 30
0.0
  0
POINT
  5
1187D
330
117F4
100
AcDbEntity
  8
DEFPOINTS
  6
Continuous
 62
     0
440
 16777216
100
AcDbPoint
 10
354.1346368377795
 20
340.1132771876447
 30
0.0
  0
POINT
  5
1187E
330
117F4
100
AcDbEntity
  8
DEFPOINTS
  6
Continuous
 62
     0
440
 16777216
100
AcDbPoint
 10
354.1346368377795
 20
296.3259209856421
 30
0.0
  0
ENDBLK
  5
117F6
330
117F4
100
AcDbEntity
  8
0
100
AcDbBlockEnd
  0
BLOCK
  5
11801
330
11800
100
AcDbEntity
  8
0
100
AcDbBlockBegin
  2
*D26
 70
     1
 10
0.0
 20
0.0
 30
0.0
  3
*D26
  1

  0
LINE
  5
1187F
330
11800
100
AcDbEntity
  8
30
  6
Continuous
 62
     0
440
 16777216
370
    -2
100
AcDbLine
 10
330.134638074529
 20
471.2239118336309
 30
0.0
 11
330.134638074529
 21
501.4744936896792
 31
0.0
  0
LINE
  5
11880
330
11800
100
AcDbEntity
  8
30
  6
Continuous
 62
     0
440
 16777216
370
    -2
100
AcDbLine
 10
354.1346380745291
 20
471.2239118336309
 30
0.0
 11
354.1346380745291
 21
501.4744936896792
 31
0.0
  0
LINE
  5
11881
330
11800
100
AcDbEntity
  8
30
  6
Continuous
 62
     0
440
 16777216
370
    -2
100
AcDbLine
 10
332.134638074529
 20
500.9744936896792
 30
0.0
 11
352.1346380745291
 21
500.9744936896792
 31
0.0
  0
INSERT
  5
11882
330
11800
100
AcDbEntity
  8
30
  6
Continuous
 62
     0
440
 16777216
370
    -2
100
AcDbBlockReference
  2
_OPEN
 10
330.134638074529
 20
500.9744936896792
 30
0.0
 41
2.0
 42
2.0
 43
2.0
 50
180.0
  0
INSERT
  5
11883
330
11800
100
AcDbEntity
  8
30
  6
Continuous
 62
     0
440
 16777216
370
    -2
100
AcDbBlockReference
  2
_OPEN
 10
354.1346380745291
 20
500.9744936896792
 30
0.0
 41
2.0
 42
2.0
 43
2.0
  0
MTEXT
  5
11884
330
11800
100
AcDbEntity
  8
30
  6
Continuous
 62
     0
440
 16777216
100
AcDbMText
 10
342.1346380745291
 20
505.9744936896792
 30
0.0
 40
6.0
 41
0.0
 46
0.0
 71
     5
 72
     1
  1
\A1;24
 73
     1
 44
1.0
 90
        3
 63
     9
421
 13158600
 45
1.25
441
        0
  0
POINT
  5
11885
330
11800
100
AcDbEntity
  8
DEFPOINTS
  6
Continuous
 62
     0
440
 16777216
100
AcDbPoint
 10
330.134638074529
 20
470.2239118336309
 30
0.0
  0
POINT
  5
11886
330
11800
100
AcDbEntity
  8
DEFPOINTS
  6
Continuous
 62
     0
440
 16777216
100
AcDbPoint
 10
354.1346380745291
 20
470.223911833631
 30
0.0
  0
POINT
  5
11887
330
11800
100
AcDbEntity
  8
DEFPOINTS
  6
Continuous
 62
     0
440
 16777216
100
AcDbPoint
 10
354.1346380745291
 20
500.9744936896792
 30
0.0
  0
ENDBLK
  5
11802
330
11800
100
AcDbEntity
  8
0
100
AcDbBlockEnd
  0
BLOCK
  5
1180D
330
1180C
100
AcDbEntity
  8
0
100
AcDbBlockBegin
  2
*D27
 70
     1
 10
0.0
 20
0.0
 30
0.0
  3
*D27
  1

  0
LINE
  5
11888
330
1180C
100
AcDbEntity
  8
30
  6
Continuous
 62
     0
440
 16777216
370
    -2
100
AcDbLine
 10
286.134638074529
 20
353.2739106168808
 30
0.0
 11
286.134638074529
 21
306.6803863739723
 31
0.0
  0
LINE
  5
11889
330
1180C
100
AcDbEntity
  8
30
  6
Continuous
 62
     0
440
 16777216
370
    -2
100
AcDbLine
 10
354.1346368377795
 20
339.1132771876447
 30
0.0
 11
354.1346368377795
 21
306.6803863739723
 31
0.0
  0
LINE
  5
1188A
330
1180C
100
AcDbEntity
  8
30
  6
Continuous
 62
     0
440
 16777216
370
    -2
100
AcDbLine
 10
288.134638074529
 20
307.1803863739723
 30
0.0
 11
352.1346368377795
 21
307.1803863739723
 31
0.0
  0
INSERT
  5
1188B
330
1180C
100
AcDbEntity
  8
30
  6
Continuous
 62
     0
440
 16777216
370
    -2
100
AcDbBlockReference
  2
_OPEN
 10
286.134638074529
 20
307.1803863739723
 30
0.0
 41
2.0
 42
2.0
 43
2.0
 50
180.0
  0
INSERT
  5
1188C
330
1180C
100
AcDbEntity
  8
30
  6
Continuous
 62
     0
440
 16777216
370
    -2
100
AcDbBlockReference
  2
_OPEN
 10
354.1346368377795
 20
307.1803863739723
 30
0.0
 41
2.0
 42
2.0
 43
2.0
  0
MTEXT
  5
1188D
330
1180C
100
AcDbEntity
  8
30
  6
Continuous
 62
     0
440
 16777216
100
AcDbMText
 10
320.1346374561542
 20
312.1803863739724
 30
0.0
 40
6.0
 41
0.0
 46
0.0
 71
     5
 72
     1
  1
\A1;68
 73
     1
 44
1.0
 90
        3
 63
     9
421
 13158600
 45
1.25
441
        0
  0
POINT
  5
1188E
330
1180C
100
AcDbEntity
  8
DEFPOINTS
  6
Continuous
 62
     0
440
 16777216
100
AcDbPoint
 10
286.134638074529
 20
354.2739106168808
 30
0.0
  0
POINT
  5
1188F
330
1180C
100
AcDbEntity
  8
DEFPOINTS
  6
Continuous
 62
     0
440
 16777216
100
AcDbPoint
 10
354.1346368377795
 20
340.1132771876447
 30
0.0
  0
POINT
  5
11890
330
1180C
100
AcDbEntity
  8
DEFPOINTS
  6
Continuous
 62
     0
440
 16777216
100
AcDbPoint
 10
354.1346368377795
 20
307.1803863739723
 30
0.0
  0
ENDBLK
  5
1180E
330
1180C
100
AcDbEntity
  8
0
100
AcDbBlockEnd
  0
BLOCK
  5
11819
330
11818
100
AcDbEntity
  8
0
100
AcDbBlockBegin
  2
*D28
 70
     1
 10
0.0
 20
0.0
 30
0.0
  3
*D28
  1

  0
LINE
  5
11891
330
11818
100
AcDbEntity
  8
30
  6
Continuous
 62
     0
440
 16777216
370
    -2
100
AcDbLine
 10
294.1346368377793
 20
339.1132771876447
 30
0.0
 11
294.1346368377793
 21
316.9805760992174
 31
0.0
  0
LINE
  5
11892
330
11818
100
AcDbEntity
  8
30
  6
Continuous
 62
     0
440
 16777216
370
    -2
100
AcDbLine
 10
354.1346368377795
 20
339.1132771876447
 30
0.0
 11
354.1346368377795
 21
316.9805760992174
 31
0.0
  0
LINE
  5
11893
330
11818
100
AcDbEntity
  8
30
  6
Continuous
 62
     0
440
 16777216
370
    -2
100
AcDbLine
 10
296.1346368377793
 20
317.4805760992174
 30
0.0
 11
352.1346368377795
 21
317.4805760992174
 31
0.0
  0
INSERT
  5
11894
330
11818
100
AcDbEntity
  8
30
  6
Continuous
 62
     0
440
 16777216
370
    -2
100
AcDbBlockReference
  2
_OPEN
 10
294.1346368377793
 20
317.4805760992174
 30
0.0
 41
2.0
 42
2.0
 43
2.0
 50
180.0
  0
INSERT
  5
11895
330
11818
100
AcDbEntity
  8
30
  6
Continuous
 62
     0
440
 16777216
370
    -2
100
AcDbBlockReference
  2
_OPEN
 10
354.1346368377795
 20
317.4805760992174
 30
0.0
 41
2.0
 42
2.0
 43
2.0
  0
MTEXT
  5
11896
330
11818
100
AcDbEntity
  8
30
  6
Continuous
 62
     0
440
 16777216
100
AcDbMText
 10
324.1346368377794
 20
322.4805760992174
 30
0.0
 40
6.0
 41
0.0
 46
0.0
 71
     5
 72
     1
  1
\A1;60
 73
     1
 44
1.0
 90
        3
 63
     9
421
 13158600
 45
1.25
441
        0
  0
POINT
  5
11897
330
11818
100
AcDbEntity
  8
DEFPOINTS
  6
Continuous
 62
     0
440
 16777216
100
AcDbPoint
 10
294.1346368377793
 20
340.1132771876447
 30
0.0
  0
POINT
  5
11898
330
11818
100
AcDbEntity
  8
DEFPOINTS
  6
Continuous
 62
     0
440
 16777216
100
AcDbPoint
 10
354.1346368377795
 20
340.1132771876447
 30
0.0
  0
POINT
  5
11899
330
11818
100
AcDbEntity
  8
DEFPOINTS
  6
Continuous
 62
     0
440
 16777216
100
AcDbPoint
 10
354.1346368377795
 20
317.4805760992174
 30
0.0
  0
ENDBLK
  5
1181A
330
11818
100
AcDbEntity
  8
0
100
AcDbBlockEnd
  0
BLOCK
  5
11825
330
11824
100
AcDbEntity
  8
0
100
AcDbBlockBegin
  2
*D29
 70
     1
 10
0.0
 20
0.0
 30
0.0
  3
*D29
  1

  0
LINE
  5
1189A
330
11824
100
AcDbEntity
  8
30
  6
Continuous
 62
     0
440
 16777216
370
    -2
100
AcDbLine
 10
301.1346378827791
 20
346.7239106168809
 30
0.0
 11
301.1346378827791
 21
326.4493554029976
 31
0.0
  0
LINE
  5
1189B
330
11824
100
AcDbEntity
  8
30
  6
Continuous
 62
     0
440
 16777216
370
    -2
100
AcDbLine
 10
354.1346368377795
 20
339.1132771876447
 30
0.0
 11
354.1346368377795
 21
326.4493554029976
 31
0.0
  0
LINE
  5
1189C
330
11824
100
AcDbEntity
  8
30
  6
Continuous
 62
     0
440
 16777216
370
    -2
100
AcDbLine
 10
303.1346378827791
 20
326.9493554029976
 30
0.0
 11
352.1346368377795
 21
326.9493554029976
 31
0.0
  0
INSERT
  5
1189D
330
11824
100
AcDbEntity
  8
30
  6
Continuous
 62
     0
440
 16777216
370
    -2
100
AcDbBlockReference
  2
_OPEN
 10
301.1346378827791
 20
326.9493554029976
 30
0.0
 41
2.0
 42
2.0
 43
2.0
 50
180.0
  0
INSERT
  5
1189E
330
11824
100
AcDbEntity
  8
30
  6
Continuous
 62
     0
440
 16777216
370
    -2
100
AcDbBlockReference
  2
_OPEN
 10
354.1346368377795
 20
326.9493554029976
 30
0.0
 41
2.0
 42
2.0
 43
2.0
  0
MTEXT
  5
1189F
330
11824
100
AcDbEntity
  8
30
  6
Continuous
 62
     0
440
 16777216
100
AcDbMText
 10
327.6346373602793
 20
331.9493554029977
 30
0.0
 40
6.0
 41
0.0
 46
0.0
 71
     5
 72
     1
  1
\A1;53
 73
     1
 44
1.0
 90
        3
 63
     9
421
 13158600
 45
1.25
441
        0
  0
POINT
  5
118A0
330
11824
100
AcDbEntity
  8
DEFPOINTS
  6
Continuous
 62
     0
440
 16777216
100
AcDbPoint
 10
301.1346378827791
 20
347.7239106168809
 30
0.0
  0
POINT
  5
118A1
330
11824
100
AcDbEntity
  8
DEFPOINTS
  6
Continuous
 62
     0
440
 16777216
100
AcDbPoint
 10
354.1346368377795
 20
340.1132771876447
 30
0.0
  0
POINT
  5
118A2
330
11824
100
AcDbEntity
  8
DEFPOINTS
  6
Continuous
 62
     0
440
 16777216
100
AcDbPoint
 10
354.1346368377795
 20
326.9493554029976
 30
0.0
  0
ENDBLK
  5
11826
330
11824
100
AcDbEntity
  8
0
100
AcDbBlockEnd
  0
BLOCK
  5
11831
330
11830
100
AcDbEntity
  8
0
100
AcDbBlockBegin
  2
*D30
 70
     1
 10
0.0
 20
0.0
 30
0.0
  3
*D30
  1

  0
LINE
  5
118A3
330
11830
100
AcDbEntity
  8
30
  6
Continuous
 62
     0
440
 16777216
370
    -2
100
AcDbLine
 10
354.1346368377795
 20
339.1132771876447
 30
0.0
 11
354.1346368377795
 21
326.4493554029976
 31
0.0
  0
LINE
  5
118A4
330
11830
100
AcDbEntity
  8
30
  6
Continuous
 62
     0
440
 16777216
370
    -2
100
AcDbLine
 10
361.1346368377795
 20
348.3632771876447
 30
0.0
 11
361.1346368377795
 21
326.4493554029976
 31
0.0
  0
LINE
  5
118A5
330
11830
100
AcDbEntity
  8
30
  6
Continuous
 62
     0
440
 16777216
370
    -2
100
AcDbLine
 10
352.1346368377795
 20
326.9493554029976
 30
0.0
 11
350.1346368377795
 21
326.9493554029976
 31
0.0
  0
LINE
  5
118A6
330
11830
100
AcDbEntity
  8
30
  6
Continuous
 62
     0
440
 16777216
370
    -2
100
AcDbLine
 10
363.1346368377795
 20
326.9493554029976
 30
0.0
 11
373.1346368377795
 21
326.9493554029976
 31
0.0
  0
INSERT
  5
118A7
330
11830
100
AcDbEntity
  8
30
  6
Continuous
 62
     0
440
 16777216
370
    -2
100
AcDbBlockReference
  2
_OPEN
 10
354.1346368377795
 20
326.9493554029976
 30
0.0
 41
2.0
 42
2.0
 43
2.0
  0
INSERT
  5
118A8
330
11830
100
AcDbEntity
  8
30
  6
Continuous
 62
     0
440
 16777216
370
    -2
100
AcDbBlockReference
  2
_OPEN
 10
361.1346368377795
 20
326.9493554029976
 30
0.0
 41
2.0
 42
2.0
 43
2.0
 50
180.0
  0
MTEXT
  5
118A9
330
11830
100
AcDbEntity
  8
30
  6
Continuous
 62
     0
440
 16777216
100
AcDbMText
 10
369.1346368377795
 20
331.9493554029977
 30
0.0
 40
6.0
 41
0.0
 46
0.0
 71
     5
 72
     1
  1
\A1;7
 73
     1
 44
1.0
 90
        3
 63
     9
421
 13158600
 45
1.25
441
        0
  0
POINT
  5
118AA
330
11830
100
AcDbEntity
  8
DEFPOINTS
  6
Continuous
 62
     0
440
 16777216
100
AcDbPoint
 10
354.1346368377795
 20
340.1132771876447
 30
0.0
  0
POINT
  5
118AB
330
11830
100
AcDbEntity
  8
DEFPOINTS
  6
Continuous
 62
     0
440
 16777216
100
AcDbPoint
 10
361.1346368377795
 20
349.3632771876447
 30
0.0
  0
POINT
  5
118AC
330
11830
100
AcDbEntity
  8
DEFPOINTS
  6
Continuous
 62
     0
440
 16777216
100
AcDbPoint
 10
361.1346368377795
 20
326.9493554029976
 30
0.0
  0
ENDBLK
  5
11832
330
11830
100
AcDbEntity
  8
0
100
AcDbBlockEnd
  0
BLOCK
  5
1183E
330
1183D
100
AcDbEntity
  8
0
100
AcDbBlockBegin
  2
*D31
 70
     1
 10
0.0
 20
0.0
 30
0.0
  3
*D31
  1

  0
LINE
  5
118AD
330
1183D
100
AcDbEntity
  8
30
  6
Continuous
 62
     0
440
 16777216
370
    -2
100
AcDbLine
 10
281.134638074529
 20
430.2739106168806
 30
0.0
 11
242.6984000910952
 21
430.2739106168806
 31
0.0
  0
LINE
  5
118AE
330
1183D
100
AcDbEntity
  8
30
  6
Continuous
 62
     0
440
 16777216
370
    -2
100
AcDbLine
 10
281.134638074529
 20
380.2739106168809
 30
0.0
 11
242.6984000910952
 21
380.2739106168809
 31
0.0
  0
LINE
  5
118AF
330
1183D
100
AcDbEntity
  8
30
  6
Continuous
 62
     0
440
 16777216
370
    -2
100
AcDbLine
 10
243.1984000910952
 20
428.2739106168809
 30
0.0
 11
243.1984000910952
 21
382.2739106168809
 31
0.0
  0
INSERT
  5
118B0
330
1183D
100
AcDbEntity
  8
30
  6
Continuous
 62
     0
440
 16777216
370
    -2
100
AcDbBlockReference
  2
_OPEN
 10
243.1984000910952
 20
430.2739106168806
 30
0.0
 41
2.0
 42
2.0
 43
2.0
 50
90.0
  0
INSERT
  5
118B1
330
1183D
100
AcDbEntity
  8
30
  6
Continuous
 62
     0
440
 16777216
370
    -2
100
AcDbBlockReference
  2
_OPEN
 10
243.1984000910952
 20
380.2739106168809
 30
0.0
 41
2.0
 42
2.0
 43
2.0
 50
270.0
  0
MTEXT
  5
118B2
330
1183D
100
AcDbEntity
  8
30
  6
Continuous
 62
     0
440
 16777216
100
AcDbMText
 10
238.1984000910951
 20
405.2739106168806
 30
0.0
 40
6.0
 41
0.0
 46
0.0
 71
     5
 72
     1
  1
\A1;50
 11
0.0000000000000001
 21
1.0
 31
0.0
 73
     1
 44
1.0
 90
        3
 63
     9
421
 13158600
 45
1.25
441
        0
  0
POINT
  5
118B3
330
1183D
100
AcDbEntity
  8
DEFPOINTS
  6
Continuous
 62
     0
440
 16777216
100
AcDbPoint
 10
282.134638074529
 20
430.2739106168806
 30
0.0
  0
POINT
  5
118B4
330
1183D
100
AcDbEntity
  8
DEFPOINTS
  6
Continuous
 62
     0
440
 16777216
100
AcDbPoint
 10
282.134638074529
 20
380.2739106168809
 30
0.0
  0
POINT
  5
118B5
330
1183D
100
AcDbEntity
  8
DEFPOINTS
  6
Continuous
 62
     0
440
 16777216
100
AcDbPoint
 10
243.1984000910952
 20
380.2739106168809
 30
0.0
  0
ENDBLK
  5
1183F
330
1183D
100
AcDbEntity
  8
0
100
AcDbBlockEnd
  0
BLOCK
  5
1184A
330
11849
100
AcDbEntity
  8
0
100
AcDbBlockBegin
  2
*D32
 70
     1
 10
0.0
 20
0.0
 30
0.0
  3
*D32
  1

  0
LINE
  5
118B6
330
11849
100
AcDbEntity
  8
30
  6
Continuous
 62
     0
440
 16777216
370
    -2
100
AcDbLine
 10
455.201212853207
 20
459.2056308965878
 30
0.0
 11
472.7704695056099
 21
459.2056308965878
 31
0.0
  0
LINE
  5
118B7
330
11849
100
AcDbEntity
  8
30
  6
Continuous
 62
     0
440
 16777216
370
    -2
100
AcDbLine
 10
458.201212853207
 20
450.2056308965878
 30
0.0
 11
472.7704695056099
 21
450.2056308965878
 31
0.0
  0
LINE
  5
118B8
330
11849
100
AcDbEntity
  8
30
  6
Continuous
 62
     0
440
 16777216
370
    -2
100
AcDbLine
 10
472.2704695056099
 20
452.2056308965878
 30
0.0
 11
472.2704695056099
 21
457.2056308965878
 31
0.0
  0
LINE
  5
118B9
330
11849
100
AcDbEntity
  8
30
  6
Continuous
 62
     0
440
 16777216
370
    -2
100
AcDbLine
 10
472.2704695056099
 20
459.2056308965878
 30
0.0
 11
472.2704695056099
 21
500.8056308965878
 31
0.0
  0
INSERT
  5
118BA
330
11849
100
AcDbEntity
  8
30
  6
Continuous
 62
     0
440
 16777216
370
    -2
100
AcDbBlockReference
  2
_OPEN
 10
472.2704695056099
 20
450.2056308965878
 30
0.0
 41
2.0
 42
2.0
 43
2.0
 50
270.0
  0
INSERT
  5
118BB
330
11849
100
AcDbEntity
  8
30
  6
Continuous
 62
     0
440
 16777216
370
    -2
100
AcDbBlockReference
  2
_OPEN
 10
472.2704695056099
 20
459.2056308965878
 30
0.0
 41
2.0
 42
2.0
 43
2.0
 50
90.0
  0
MTEXT
  5
118BC
330
11849
100
AcDbEntity
  8
30
  6
Continuous
 62
     0
440
 16777216
100
AcDbMText
 10
464.2704695056099
 20
481.0056308965878
 30
0.0
 40
6.0
 41
0.0
 46
0.0
 71
     2
 72
     1
  1
\A1;9 (max.)
 11
0.0000000000000001
 21
1.0
 31
0.0
 73
     1
 44
1.0
  0
POINT
  5
118BD
330
11849
100
AcDbEntity
  8
DEFPOINTS
  6
Continuous
 62
     0
440
 16777216
100
AcDbPoint
 10
452.2012128532071
 20
459.2056308965878
 30
0.0
  0
POINT
  5
118BE
330
11849
100
AcDbEntity
  8
DEFPOINTS
  6
Continuous
 62
     0
440
 16777216
100
AcDbPoint
 10
455.201212853207
 20
450.2056308965878
 30
0.0
  0
POINT
  5
118BF
330
11849
100
AcDbEntity
  8
DEFPOINTS
  6
Continuous
 62
     0
440
 16777216
100
AcDbPoint
 10
472.2704695056099
 20
450.2056308965878
 30
0.0
  0
ENDBLK
  5
1184B
330
11849
100
AcDbEntity
  8
0
100
AcDbBlockEnd
  0
BLOCK
  5
11857
330
11856
100
AcDbEntity
  8
0
100
AcDbBlockBegin
  2
*D33
 70
     1
 10
0.0
 20
0.0
 30
0.0
  3
*D33
  1

  0
LINE
  5
118C0
330
11856
100
AcDbEntity
  8
30
  6
Continuous
 62
     0
440
 16777216
370
    -2
100
AcDbLine
 10
435.2012128532071
 20
449.2056308965878
 30
0.0
 11
435.2012128532071
 21
436.4686787924732
 31
0.0
  0
LINE
  5
118C1
330
11856
100
AcDbEntity
  8
30
  6
Continuous
 62
     0
440
 16777216
370
    -2
100
AcDbLine
 10
455.201212853207
 20
449.2056308965878
 30
0.0
 11
455.201212853207
 21
436.4686787924732
 31
0.0
  0
LINE
  5
118C2
330
11856
100
AcDbEntity
  8
30
  6
Continuous
 62
     0
440
 16777216
370
    -2
100
AcDbLine
 10
453.2012128532072
 20
436.9686787924732
 30
0.0
 11
437.201212853207
 21
436.9686787924732
 31
0.0
  0
LINE
  5
118C3
330
11856
100
AcDbEntity
  8
30
  6
Continuous
 62
     0
440
 16777216
370
    -2
100
AcDbLine
 10
435.2012128532071
 20
436.9686787924732
 30
0.0
 11
383.1715122831051
 21
436.9686787924732
 31
0.0
  0
INSERT
  5
118C4
330
11856
100
AcDbEntity
  8
30
  6
Continuous
 62
     0
440
 16777216
370
    -2
100
AcDbBlockReference
  2
_OPEN
 10
455.201212853207
 20
436.9686787924732
 30
0.0
 41
2.0
 42
2.0
 43
2.0
  0
INSERT
  5
118C5
330
11856
100
AcDbEntity
  8
30
  6
Continuous
 62
     0
440
 16777216
370
    -2
100
AcDbBlockReference
  2
_OPEN
 10
435.2012128532071
 20
436.9686787924732
 30
0.0
 41
2.0
 42
2.0
 43
2.0
 50
180.0
  0
MTEXT
  5
118C6
330
11856
100
AcDbEntity
  8
30
  6
Continuous
 62
     0
440
 16777216
100
AcDbMText
 10
405.471512283105
 20
454.9686787924732
 30
0.0
 40
6.0
 41
0.0
 46
0.0
 71
     2
 72
     1
  1
\A1;20 (max.)\Pmax. t6
 73
     1
 44
1.0
 90
        3
 63
     9
421
 13158600
 45
1.25
441
        0
  0
POINT
  5
118C7
330
11856
100
AcDbEntity
  8
DEFPOINTS
  6
Continuous
 62
     0
440
 16777216
100
AcDbPoint
 10
435.2012128532071
 20
450.2056308965878
 30
0.0
  0
POINT
  5
118C8
330
11856
100
AcDbEntity
  8
DEFPOINTS
  6
Continuous
 62
     0
440
 16777216
100
AcDbPoint
 10
455.201212853207
 20
450.2056308965878
 30
0.0
  0
POINT
  5
118C9
330
11856
100
AcDbEntity
  8
DEFPOINTS
  6
Continuous
 62
     0
440
 16777216
100
AcDbPoint
 10
455.201212853207
 20
436.9686787924732
 30
0.0
  0
ENDBLK
  5
11858
330
11856
100
AcDbEntity
  8
0
100
AcDbBlockEnd
  0
BLOCK
  5
11BB3
330
11BB2
100
AcDbEntity
  8
0
100
AcDbBlockBegin
  2
*D34
 70
     1
 10
0.0
 20
0.0
 30
0.0
  3
*D34
  1

  0
LINE
  5
11BD0
330
11BB2
100
AcDbEntity
  8
30
  6
Continuous
 62
     0
440
 16777216
370
    -2
100
AcDbLine
 10
116.9950841023276
 20
631.2661250779621
 30
0.0
 11
116.9950841023276
 21
661.6548470086897
 31
0.0
  0
LINE
  5
11BD1
330
11BB2
100
AcDbEntity
  8
30
  6
Continuous
 62
     0
440
 16777216
370
    -2
100
AcDbLine
 10
146.9950841023275
 20
630.2661250779621
 30
0.0
 11
146.9950841023275
 21
661.6548470086897
 31
0.0
  0
LINE
  5
11BD2
330
11BB2
100
AcDbEntity
  8
30
  6
Continuous
 62
     0
440
 16777216
370
    -2
100
AcDbLine
 10
118.9950841023276
 20
661.1548470086896
 30
0.0
 11
144.9950841023276
 21
661.1548470086896
 31
0.0
  0
INSERT
  5
11BD3
330
11BB2
100
AcDbEntity
  8
30
  6
Continuous
 62
     0
440
 16777216
370
    -2
100
AcDbBlockReference
  2
_OPEN
 10
116.9950841023276
 20
661.1548470086896
 30
0.0
 41
2.0
 42
2.0
 43
2.0
 50
180.0
  0
INSERT
  5
11BD4
330
11BB2
100
AcDbEntity
  8
30
  6
Continuous
 62
     0
440
 16777216
370
    -2
100
AcDbBlockReference
  2
_OPEN
 10
146.9950841023275
 20
661.1548470086896
 30
0.0
 41
2.0
 42
2.0
 43
2.0
  0
MTEXT
  5
11BD5
330
11BB2
100
AcDbEntity
  8
30
  6
Continuous
 62
     0
440
 16777216
100
AcDbMText
 10
131.9950841023276
 20
666.1548470086897
 30
0.0
 40
6.0
 41
0.0
 46
0.0
 71
     5
 72
     1
  1
\A1;30
 73
     1
 44
1.0
  0
POINT
  5
11BD6
330
11BB2
100
AcDbEntity
  8
DEFPOINTS
  6
Continuous
 62
     0
440
 16777216
100
AcDbPoint
 10
116.9950841023276
 20
628.2661250779621
 30
0.0
  0
POINT
  5
11BD7
330
11BB2
100
AcDbEntity
  8
DEFPOINTS
  6
Continuous
 62
     0
440
 16777216
100
AcDbPoint
 10
146.9950841023275
 20
627.2661250779621
 30
0.0
  0
POINT
  5
11BD8
330
11BB2
100
AcDbEntity
  8
DEFPOINTS
  6
Continuous
 62
     0
440
 16777216
100
AcDbPoint
 10
146.9950841023275
 20
661.1548470086896
 30
0.0
  0
ENDBLK
  5
11BB4
330
11BB2
100
AcDbEntity
  8
0
100
AcDbBlockEnd
  0
ENDSEC
  0
SECTION
  2
ENTITIES
  0
LINE
  5
2260
330
1E
100
AcDbEntity
  8
16
100
AcDbLine
 10
165.4581089937867
 20
160.2838176443142
 30
0.0
 11
34.56800626716904
 21
160.2838176443142
 31
0.0
  0
LINE
  5
2261
330
1E
100
AcDbEntity
  8
16
100
AcDbLine
 10
86.99508410232764
 20
86.76457078634348
 30
0.0
 11
86.99508410232764
 21
228.9055263752386
 31
0.0
  0
DIMENSION
  5
54D8
330
1E
100
AcDbEntity
  8
30
  6
Continuous
100
AcDbDimension
280
     0
  2
*D1
 10
69.76023102734285
 20
215.6862936563107
 30
0.0
 11
104.5852708835828
 21
233.0202065104781
 31
0.0
 70
   163
  1
M4×0.7
 71
     5
 42
6.000000531174007
 73
     0
 74
     0
 75
     0
  3
STANDARD
100
AcDbDiametricDimension
 15
74.0499371773126
 25
219.8813416323177
 35
0.0
 40
0.0
1001
ACAD
1000
DSTYLE
1002
{
1070
   288
1070
     1
1002
}
  0
LINE
  5
5CA2
330
1E
100
AcDbEntity
  8
17
  6
DASHDOT
100
AcDbLine
 10
86.99508410232771
 20
610.0661250779617
 30
0.0
 11
86.99508410232771
 21
627.2661250779621
 31
0.0
  0
LINE
  5
5CA3
330
1E
100
AcDbEntity
  8
24
  6
CONTINOUS
100
AcDbLine
 10
76.49508410232769
 20
622.2661250779621
 30
0.0
 11
97.49508410232781
 21
622.2661250779621
 31
0.0
  0
LINE
  5
5CA4
330
1E
100
AcDbEntity
  8
24
  6
CONTINOUS
100
AcDbLine
 10
79.29508410232774
 20
620.266125077962
 30
0.0
 11
94.69508410232773
 21
620.266125077962
 31
0.0
  0
LINE
  5
5CA5
330
1E
100
AcDbEntity
  8
24
  6
CONTINOUS
100
AcDbLine
 10
81.9950841023277
 20
615.0661250779617
 30
0.0
 11
91.99508410232764
 21
615.0661250779617
 31
0.0
  0
LINE
  5
5CA6
330
1E
100
AcDbEntity
  8
24
  6
CONTINOUS
100
AcDbLine
 10
76.49508410232769
 20
624.2661250779621
 30
0.0
 11
97.49508410232781
 21
624.2661250779621
 31
0.0
  0
LINE
  5
5CA7
330
1E
100
AcDbEntity
  8
24
  6
CONTINOUS
100
AcDbLine
 10
94.69508410232773
 20
620.266125077962
 30
0.0
 11
94.69508410232773
 21
622.2661250779621
 31
0.0
  0
ARC
  5
5CA8
330
1E
100
AcDbEntity
  8
24
  6
CONTINOUS
100
AcDbCircle
 10
91.99508410232771
 20
617.0661250779617
 30
0.0
 40
2.0
100
AcDbArc
 50
270.0
 51
0.0
  0
LINE
  5
5CA9
330
1E
100
AcDbEntity
  8
24
  6
CONTINOUS
100
AcDbLine
 10
93.99508410232769
 20
617.0661250779617
 30
0.0
 11
93.99508410232769
 21
620.266125077962
 31
0.0
  0
LINE
  5
5CAA
330
1E
100
AcDbEntity
  8
24
  6
CONTINOUS
100
AcDbLine
 10
97.49508410232781
 20
622.2661250779621
 30
0.0
 11
97.49508410232781
 21
624.2661250779621
 31
0.0
  0
LINE
  5
5CAB
330
1E
100
AcDbEntity
  8
24
  6
CONTINOUS
100
AcDbLine
 10
79.29508410232774
 20
620.266125077962
 30
0.0
 11
79.29508410232774
 21
622.2661250779621
 31
0.0
  0
ARC
  5
5CAC
330
1E
100
AcDbEntity
  8
24
  6
CONTINOUS
100
AcDbCircle
 10
81.9950841023277
 20
617.0661250779617
 30
0.0
 40
2.0
100
AcDbArc
 50
180.0
 51
270.0
  0
LINE
  5
5CAD
330
1E
100
AcDbEntity
  8
24
  6
CONTINOUS
100
AcDbLine
 10
79.9950841023277
 20
617.0661250779617
 30
0.0
 11
79.9950841023277
 21
620.266125077962
 31
0.0
  0
LINE
  5
5D3B
330
1E
100
AcDbEntity
  8
24
  6
CONTINOUS
100
AcDbLine
 10
106.4950841023276
 20
624.2661250779621
 30
0.0
 11
127.4950841023277
 21
624.2661250779621
 31
0.0
  0
LINE
  5
5D3C
330
1E
100
AcDbEntity
  8
24
  6
CONTINOUS
100
AcDbLine
 10
111.9950841023277
 20
615.0661250779617
 30
0.0
 11
121.9950841023276
 21
615.0661250779617
 31
0.0
  0
LINE
  5
5D3D
330
1E
100
AcDbEntity
  8
24
  6
CONTINOUS
100
AcDbLine
 10
109.2950841023277
 20
620.266125077962
 30
0.0
 11
124.6950841023277
 21
620.266125077962
 31
0.0
  0
LINE
  5
5D3E
330
1E
100
AcDbEntity
  8
24
  6
CONTINOUS
100
AcDbLine
 10
106.4950841023276
 20
622.2661250779621
 30
0.0
 11
127.4950841023277
 21
622.2661250779621
 31
0.0
  0
LINE
  5
5D3F
330
1E
100
AcDbEntity
  8
24
  6
CONTINOUS
100
AcDbLine
 10
109.2950841023277
 20
620.266125077962
 30
0.0
 11
109.2950841023277
 21
622.2661250779621
 31
0.0
  0
LINE
  5
5D40
330
1E
100
AcDbEntity
  8
17
  6
DASHDOT
100
AcDbLine
 10
116.9950841023276
 20
610.0661250779617
 30
0.0
 11
116.9950841023276
 21
627.2661250779621
 31
0.0
  0
ARC
  5
5D41
330
1E
100
AcDbEntity
  8
24
  6
CONTINOUS
100
AcDbCircle
 10
111.9950841023277
 20
617.0661250779617
 30
0.0
 40
2.0
100
AcDbArc
 50
180.0
 51
270.0
  0
LINE
  5
5D42
330
1E
100
AcDbEntity
  8
24
  6
CONTINOUS
100
AcDbLine
 10
109.9950841023277
 20
617.0661250779617
 30
0.0
 11
109.9950841023277
 21
620.266125077962
 31
0.0
  0
LINE
  5
5D43
330
1E
100
AcDbEntity
  8
24
  6
CONTINOUS
100
AcDbLine
 10
124.6950841023277
 20
620.266125077962
 30
0.0
 11
124.6950841023277
 21
622.2661250779621
 31
0.0
  0
LINE
  5
5D44
330
1E
100
AcDbEntity
  8
24
  6
CONTINOUS
100
AcDbLine
 10
123.9950841023276
 20
617.0661250779617
 30
0.0
 11
123.9950841023276
 21
620.266125077962
 31
0.0
  0
ARC
  5
5D45
330
1E
100
AcDbEntity
  8
24
  6
CONTINOUS
100
AcDbCircle
 10
121.9950841023277
 20
617.0661250779617
 30
0.0
 40
2.0
100
AcDbArc
 50
270.0
 51
0.0
  0
LINE
  5
5D46
330
1E
100
AcDbEntity
  8
24
  6
CONTINOUS
100
AcDbLine
 10
127.4950841023277
 20
622.2661250779621
 30
0.0
 11
127.4950841023277
 21
624.2661250779621
 31
0.0
  0
DIMENSION
  5
5E68
330
1E
100
AcDbEntity
  8
30
  6
Continuous
100
AcDbDimension
280
     0
  2
*D2
 10
116.9950841023276
 20
661.1548470086896
 30
0.0
 11
101.9950841023277
 21
666.1548470086897
 31
0.0
 70
    32
 71
     5
 42
29.99999999999997
 73
     0
 74
     0
 75
     0
  3
STANDARD
100
AcDbAlignedDimension
 13
86.99508410232771
 23
627.2661250779621
 33
0.0
 14
116.9950841023276
 24
627.2661250779621
 34
0.0
100
AcDbRotatedDimension
1001
ACAD
1000
DSTYLE
1002
{
1070
    79
1070
     3
1002
}
  0
DIMENSION
  5
616E
330
1E
100
AcDbEntity
  8
30
  6
Continuous
100
AcDbDimension
280
     0
  2
*D5
 10
356.0672239613487
 20
134.2838176443144
 30
0.0
 11
356.0672239613485
 21
160.2838176443145
 31
0.0
 70
   160
 71
     5
 42
52.0
 73
     0
 74
     0
 75
     0
  3
STANDARD
100
AcDbAlignedDimension
 13
286.3874711765989
 23
186.2838176443144
 33
0.0
 14
286.3874711765989
 24
134.2838176443144
 34
0.0
 50
90.0
100
AcDbRotatedDimension
1001
ACAD
1000
DSTYLE
1002
{
1070
    79
1070
     3
1002
}
  0
LINE
  5
6173
330
1E
100
AcDbEntity
  8
16
100
AcDbLine
 10
257.3874711765993
 20
81.87075104089355
 30
0.0
 11
257.3874711765993
 21
233.4344432906164
 31
0.0
  0
DIMENSION
  5
6175
330
1E
100
AcDbEntity
  8
30
  6
Continuous
100
AcDbDimension
280
     0
  2
*D3
 10
300.3874726368493
 20
65.89430663234407
 30
0.0
 11
257.3874711764744
 21
70.89430663234407
 31
0.0
 70
    32
 71
     5
 42
86.00000292075018
 73
     0
 74
     0
 75
     0
  3
STANDARD
100
AcDbAlignedDimension
 13
214.3874697160993
 23
135.2838172718144
 33
0.0
 14
300.3874726368493
 24
135.2838172718144
 34
0.0
 50
180.0
100
AcDbRotatedDimension
1001
ACAD
1000
DSTYLE
1002
{
1070
    79
1070
     3
1002
}
  0
LINE
  5
6177
330
1E
100
AcDbEntity
  8
16
100
AcDbLine
 10
340.749890828286
 20
160.2838176443142
 30
0.0
 11
202.3637657895069
 21
160.2838176443142
 31
0.0
  0
DIMENSION
  5
6186
330
1E
100
AcDbEntity
  8
30
  6
Continuous
100
AcDbDimension
280
     0
  2
*D4
 10
299.2974711765992
 20
185.2838176443143
 30
0.0
 11
315.2638377539696
 21
193.3281461702652
 31
0.0
 70
   164
 71
     5
 42
-1.0
 73
     0
 74
     0
 75
     0
  3
STANDARD
100
AcDbRadialDimension
 15
300.0756195157629
 25
185.911898182348
 35
0.0
 40
0.0
1001
ACAD
1000
DSTYLE
1002
{
1070
   288
1070
     1
1002
}
  0
MTEXT
  5
6269
330
1E
100
AcDbEntity
  8
19
  6
Continuous
100
AcDbMText
 10
326.3487103694692
 20
637.7627737558316
 30
0.0
 40
8.0
 41
178.4765202680342
 46
72.50112680066725
 71
     1
 72
     5
  1
PS125-NF 4P FC\PPS50-PF 4P FC\PPS125-PF 4P FC\PPS125-NE 4P FC\PPS125-PE 4P FC
  7
STANDARD1
 73
     1
 44
1.0
  0
LINE
  5
6545
330
1E
100
AcDbEntity
  8
10
  6
CONTINOUS
100
AcDbLine
 10
93.99508410232769
 20
550.7661250779618
 30
0.0
 11
79.9950841023277
 21
550.7661250779618
 31
0.0
  0
LINE
  5
663A
330
1E
100
AcDbEntity
  8
16
100
AcDbLine
 10
86.99508410232761
 20
547.7661250779616
 30
0.0
 11
86.99508410232761
 21
653.9507266061227
 31
0.0
  0
LINE
  5
100EC
330
1E
100
AcDbEntity
  8
24
  6
CONTINOUS
100
AcDbLine
 10
106.4950841023276
 20
622.2661250779621
 30
0.0
 11
106.4950841023276
 21
624.2661250779621
 31
0.0
  0
LINE
  5
100ED
330
1E
100
AcDbEntity
  8
24
  6
CONTINOUS
100
AcDbLine
 10
76.49508410232769
 20
622.2661250779621
 30
0.0
 11
76.49508410232769
 21
624.2661250779621
 31
0.0
  0
LINE
  5
100EE
330
1E
100
AcDbEntity
  8
17
  6
DASHDOT
100
AcDbLine
 10
56.9950841023277
 20
610.0661250779617
 30
0.0
 11
56.9950841023277
 21
627.2661250779621
 31
0.0
  0
LINE
  5
100EF
330
1E
100
AcDbEntity
  8
24
  6
CONTINOUS
100
AcDbLine
 10
46.49508410232768
 20
622.2661250779621
 30
0.0
 11
67.49508410232778
 21
622.2661250779621
 31
0.0
  0
LINE
  5
100F0
330
1E
100
AcDbEntity
  8
24
  6
CONTINOUS
100
AcDbLine
 10
49.29508410232774
 20
620.266125077962
 30
0.0
 11
64.69508410232773
 21
620.266125077962
 31
0.0
  0
LINE
  5
100F1
330
1E
100
AcDbEntity
  8
24
  6
CONTINOUS
100
AcDbLine
 10
51.99508410232768
 20
615.0661250779617
 30
0.0
 11
61.99508410232765
 21
615.0661250779617
 31
0.0
  0
LINE
  5
100F2
330
1E
100
AcDbEntity
  8
24
  6
CONTINOUS
100
AcDbLine
 10
46.49508410232768
 20
624.2661250779621
 30
0.0
 11
67.49508410232778
 21
624.2661250779621
 31
0.0
  0
LINE
  5
100F3
330
1E
100
AcDbEntity
  8
24
  6
CONTINOUS
100
AcDbLine
 10
64.69508410232773
 20
620.266125077962
 30
0.0
 11
64.69508410232773
 21
622.2661250779621
 31
0.0
  0
ARC
  5
100F4
330
1E
100
AcDbEntity
  8
24
  6
CONTINOUS
100
AcDbCircle
 10
61.99508410232771
 20
617.0661250779617
 30
0.0
 40
2.0
100
AcDbArc
 50
270.0
 51
0.0
  0
LINE
  5
100F5
330
1E
100
AcDbEntity
  8
24
  6
CONTINOUS
100
AcDbLine
 10
63.99508410232769
 20
617.0661250779617
 30
0.0
 11
63.99508410232769
 21
620.266125077962
 31
0.0
  0
LINE
  5
100F6
330
1E
100
AcDbEntity
  8
24
  6
CONTINOUS
100
AcDbLine
 10
67.49508410232778
 20
622.2661250779621
 30
0.0
 11
67.49508410232778
 21
624.2661250779621
 31
0.0
  0
LINE
  5
100F7
330
1E
100
AcDbEntity
  8
24
  6
CONTINOUS
100
AcDbLine
 10
49.29508410232774
 20
620.266125077962
 30
0.0
 11
49.29508410232774
 21
622.2661250779621
 31
0.0
  0
ARC
  5
100F8
330
1E
100
AcDbEntity
  8
24
  6
CONTINOUS
100
AcDbCircle
 10
51.99508410232771
 20
617.0661250779617
 30
0.0
 40
2.0
100
AcDbArc
 50
180.0
 51
270.0
  0
LINE
  5
100F9
330
1E
100
AcDbEntity
  8
24
  6
CONTINOUS
100
AcDbLine
 10
49.99508410232768
 20
617.0661250779617
 30
0.0
 11
49.99508410232768
 21
620.266125077962
 31
0.0
  0
DIMENSION
  5
100FB
330
1E
100
AcDbEntity
  8
30
  6
Continuous
100
AcDbDimension
280
     0
  2
*D9
 10
86.99508410232764
 20
661.1548470086896
 30
0.0
 11
71.9950841023277
 21
666.1548470086897
 31
0.0
 70
    32
 71
     5
 42
29.99999999999997
 73
     0
 74
     0
 75
     0
  3
STANDARD
100
AcDbAlignedDimension
 13
56.9950841023277
 23
627.2661250779621
 33
0.0
 14
86.99508410232764
 24
627.2661250779621
 34
0.0
100
AcDbRotatedDimension
1001
ACAD
1000
DSTYLE
1002
{
1070
    79
1070
     3
1002
}
  0
CIRCLE
  5
10145
330
1E
100
AcDbEntity
  8
12
  6
Continuous
 62
     3
100
AcDbCircle
 10
101.9950841023276
 20
104.7838176443143
 30
0.0
 40
2.00000000000017
  0
LINE
  5
10146
330
1E
100
AcDbEntity
  8
18
  6
DIVIDE
100
AcDbLine
 10
161.9950843423274
 20
225.2838161325644
 30
0.0
 11
41.99508449132763
 21
225.2838161325644
 31
0.0
  0
LINE
  5
10147
330
1E
100
AcDbEntity
  8
18
  6
DIVIDE
100
AcDbLine
 10
161.9950843423274
 20
95.28381717556426
 30
0.0
 11
161.9950843423274
 21
225.2838161325644
 31
0.0
  0
LINE
  5
10148
330
1E
100
AcDbEntity
  8
18
  6
DIVIDE
100
AcDbLine
 10
41.99508449132763
 20
95.28381717556426
 30
0.0
 11
161.9950843423274
 21
95.28381717556426
 31
0.0
  0
LINE
  5
10149
330
1E
100
AcDbEntity
  8
18
  6
DIVIDE
100
AcDbLine
 10
41.99508449132763
 20
225.2838161325644
 30
0.0
 11
41.99508449132763
 21
95.28381717556426
 31
0.0
  0
CIRCLE
  5
1014A
330
1E
100
AcDbEntity
  8
12
  6
Continuous
 62
     3
100
AcDbCircle
 10
71.99508410232765
 20
215.7838176443142
 30
0.0
 40
2.000000000000023
  0
INSERT
  5
1014B
330
1E
100
AcDbEntity
  8
12
  6
Continuous
 62
     3
100
AcDbBlockReference
  2
SW_CENTERMARKSYMBOL_18
 10
71.99508410232765
 20
215.7838176443142
 30
0.0
 41
2.5
 42
2.5
 43
2.5
  0
INSERT
  5
1014C
330
1E
100
AcDbEntity
  8
12
  6
Continuous
 62
     3
100
AcDbBlockReference
  2
SW_CENTERMARKSYMBOL_19
 10
101.9950841023276
 20
104.7838176443143
 30
0.0
 41
2.5
 42
2.5
 43
2.5
  0
LINE
  5
10170
330
1E
100
AcDbEntity
  8
18
  6
DIVIDE
100
AcDbLine
 10
212.3874693883494
 20
225.2838152600644
 30
0.0
 11
212.3874693883494
 21
95.28382002831438
 31
0.0
  0
LINE
  5
10171
330
1E
100
AcDbEntity
  8
18
  6
DIVIDE
100
AcDbLine
 10
332.3874729645993
 20
95.28382002831438
 30
0.0
 11
332.3874729645993
 21
225.2838152600644
 31
0.0
  0
LINE
  5
10172
330
1E
100
AcDbEntity
  8
18
  6
DIVIDE
100
AcDbLine
 10
212.3874693883494
 20
95.28382002831438
 30
0.0
 11
332.3874729645993
 21
95.28382002831438
 31
0.0
  0
LINE
  5
10173
330
1E
100
AcDbEntity
  8
18
  6
DIVIDE
100
AcDbLine
 10
332.3874729645993
 20
225.2838152600644
 30
0.0
 11
212.3874693883494
 21
225.2838152600644
 31
0.0
  0
DIMENSION
  5
101D5
330
1E
100
AcDbEntity
  8
30
  6
Continuous
100
AcDbDimension
280
     0
  2
*D10
 10
182.3907937651802
 20
104.7838176443143
 30
0.0
 11
182.3907937651802
 21
160.2838176443142
 31
0.0
 70
   160
 71
     5
 42
110.9999999999999
 73
     0
 74
     0
 75
     0
  3
STANDARD
100
AcDbAlignedDimension
 13
76.49508410232765
 23
215.7838176443142
 33
0.0
 14
106.4950841023276
 24
104.7838176443143
 34
0.0
 50
90.0
100
AcDbRotatedDimension
1001
ACAD
1000
DSTYLE
1002
{
1070
    79
1070
     3
1002
}
  0
LWPOLYLINE
  5
1027E
330
1E
100
AcDbEntity
  8
10
  6
Continuous
100
AcDbPolyline
 90
        4
 70
     1
 43
0.0
 10
41.99508410232756
 20
646.2661250779619
 10
161.9950841023277
 20
646.2661250779619
 10
161.9950841023277
 20
585.2661250779621
 10
41.99508410232756
 20
585.2661250779621
  0
LWPOLYLINE
  5
1027F
330
1E
100
AcDbEntity
  8
10
  6
Continuous
100
AcDbPolyline
 90
        4
 70
     0
 43
0.0
 10
41.99508410232756
 20
585.2661250779621
 10
41.99508410232768
 20
578.2661250779621
 10
131.9950841023276
 20
578.2661250779621
 10
131.9950841023276
 20
585.2661250779621
  0
LWPOLYLINE
  5
10280
330
1E
100
AcDbEntity
  8
10
  6
Continuous
100
AcDbPolyline
 90
        4
 70
     0
 43
0.0
 10
44.49508410232756
 20
578.2661250779617
 10
44.49508410232756
 20
574.2661250779617
 10
129.4950841023275
 20
574.2661250779617
 10
129.4950841023275
 20
578.2661250779617
  0
LWPOLYLINE
  5
10281
330
1E
100
AcDbEntity
  8
10
  6
Continuous
100
AcDbPolyline
 90
        4
 70
     0
 43
0.0
 10
75.97718056715644
 20
574.266125077962
 10
75.97718056715644
 20
567.7661250779618
 10
97.99508410232769
 20
567.7661250779618
 10
97.99508410232769
 20
574.266125077962
  0
LWPOLYLINE
  5
10282
330
1E
100
AcDbEntity
  8
10
  6
Continuous
100
AcDbPolyline
 90
        4
 70
     0
 43
0.0
 10
79.9950841023277
 20
567.7661250779618
 10
79.9950841023277
 20
550.7661250779618
 10
93.99508410232769
 20
550.7661250779618
 10
93.99508410232769
 20
567.7661250779618
  0
LWPOLYLINE
  5
1028F
330
1E
100
AcDbEntity
  8
11
 48
2.0
100
AcDbPolyline
 90
        2
 70
     0
 43
0.0
 10
214.3874697160993
 20
185.2838180168143
 10
214.3874697160993
 20
135.2838172718144
  0
LWPOLYLINE
  5
10290
330
1E
100
AcDbEntity
  8
11
 48
2.0
100
AcDbPolyline
 90
        2
 70
     0
 43
0.0
 10
215.3874711765995
 20
186.2838176443143
 42
0.4142135623730951
 10
214.3874711765995
 20
185.2838176443142
  0
LWPOLYLINE
  5
10291
330
1E
100
AcDbEntity
  8
11
 48
2.0
100
AcDbPolyline
 90
        2
 70
     0
 43
0.0
 10
299.3874706103495
 20
186.2838181808141
 10
215.3874717428493
 20
186.2838181808141
  0
LWPOLYLINE
  5
10292
330
1E
100
AcDbEntity
  8
11
 48
2.0
100
AcDbPolyline
 90
        2
 70
     0
 43
0.0
 10
300.3874711765992
 20
185.2838176443142
 42
0.4142135623730951
 10
299.3874711765991
 20
186.2838176443143
  0
LWPOLYLINE
  5
10293
330
1E
100
AcDbEntity
  8
11
 48
2.0
100
AcDbPolyline
 90
        2
 70
     0
 43
0.0
 10
300.3874726368493
 20
135.2838172718144
 10
300.3874726368493
 20
185.2838180168143
  0
LWPOLYLINE
  5
10294
330
1E
100
AcDbEntity
  8
11
 48
2.0
100
AcDbPolyline
 90
        2
 70
     0
 43
0.0
 10
299.3874711765991
 20
134.2838176443142
 42
0.4142135623730951
 10
300.3874711765992
 20
135.2838176443142
  0
LWPOLYLINE
  5
10295
330
1E
100
AcDbEntity
  8
11
 48
2.0
100
AcDbPolyline
 90
        2
 70
     0
 43
0.0
 10
215.3874717428493
 20
134.2838171078143
 10
299.3874706103495
 20
134.2838171078143
  0
LWPOLYLINE
  5
10296
330
1E
100
AcDbEntity
  8
11
 48
2.0
100
AcDbPolyline
 90
        2
 70
     0
 43
0.0
 10
214.3874711765995
 20
135.2838176443142
 42
0.4142135623730951
 10
215.3874711765995
 20
134.2838176443142
  0
DIMENSION
  5
102F4
330
1E
100
AcDbEntity
  8
30
  6
Continuous
100
AcDbDimension
280
     0
  2
*D11
 10
101.9950841023276
 20
66.88874544119972
 30
0.0
 11
86.99508410232761
 21
71.88874544119972
 31
0.0
 70
    32
 71
     5
 42
29.99999999999995
 73
     0
 74
     0
 75
     0
  3
STANDARD
100
AcDbAlignedDimension
 13
71.99508410232765
 23
211.2838176443142
 33
0.0
 14
101.9950841023276
 24
100.2838176443143
 34
0.0
100
AcDbRotatedDimension
1001
ACAD
1000
DSTYLE
1002
{
1070
    79
1070
     3
1002
}
  0
LINE
  5
104E3
330
1E
100
AcDbEntity
  8
16
100
AcDbLine
 10
172.5557009823806
 20
411.1312116653492
 30
0.0
 11
26.46052895344487
 21
411.1312116653492
 31
0.0
  0
LINE
  5
107D9
330
1E
100
AcDbEntity
  8
18
100
AcDbLine
 10
100.4950841023276
 20
526.1312116653487
 30
0.0
 11
100.4950841023276
 21
476.0812128820993
 31
0.0
  0
LINE
  5
107DA
330
1E
100
AcDbEntity
  8
18
100
AcDbLine
 10
103.4950841023276
 20
526.1312116653487
 30
0.0
 11
103.4950841023276
 21
476.0812128820993
 31
0.0
  0
LINE
  5
107DB
330
1E
100
AcDbEntity
  8
10
  6
CONTINOUS
100
AcDbLine
 10
131.9950841023275
 20
360.1312116653491
 30
0.0
 11
131.9950841023276
 21
462.131211665349
 31
0.0
  0
LINE
  5
107DC
330
1E
100
AcDbEntity
  8
10
  6
CONTINOUS
100
AcDbLine
 10
41.99508410232764
 20
476.0812128820993
 30
0.0
 11
41.99508410232764
 21
346.0822830833491
 31
0.0
  0
LINE
  5
107DE
330
1E
100
AcDbEntity
  8
10
  6
CONTINOUS
100
AcDbLine
 10
41.99508410232764
 20
360.1312116653491
 30
0.0
 11
161.9950841023277
 21
360.1312116653491
 31
0.0
  0
LINE
  5
107DF
330
1E
100
AcDbEntity
  8
10
  6
CONTINOUS
100
AcDbLine
 10
41.99508410232764
 20
346.0822830833491
 30
0.0
 11
161.9950841023277
 21
346.0822830833491
 31
0.0
  0
DIMENSION
  5
107E0
330
1E
100
AcDbEntity
  8
30
  6
Continuous
100
AcDbDimension
280
     0
  2
*D12
 10
116.9950841023276
 20
326.9227369761424
 30
0.0
 11
101.9950841023276
 21
331.9227369761425
 31
0.0
 70
    32
 71
     5
 42
29.99999999999999
 73
     0
 74
     0
 75
     0
  3
STANDARD
100
AcDbAlignedDimension
 13
86.99508410232764
 23
354.0822830668493
 33
0.0
 14
116.9950841023276
 24
354.0822830668493
 34
0.0
 50
180.0
100
AcDbRotatedDimension
1001
ACAD
1000
DSTYLE
1002
{
1070
    79
1070
     3
1002
}
  0
CIRCLE
  5
107E1
330
1E
100
AcDbEntity
  8
24
  6
CONTINOUS
100
AcDbCircle
 10
116.9950841023276
 20
354.0822830668493
 30
0.0
 40
3.5
  0
LINE
  5
107E2
330
1E
100
AcDbEntity
  8
17
  6
DASHDOT
100
AcDbLine
 10
109.9950841023276
 20
354.0822830668493
 30
0.0
 11
123.9950841023276
 21
354.0822830668493
 31
0.0
  0
LINE
  5
107E3
330
1E
100
AcDbEntity
  8
10
  6
CONTINOUS
100
AcDbLine
 10
120.7450841023276
 20
360.0822830668492
 30
0.0
 11
113.2450841023276
 21
360.0822830668492
 31
0.0
  0
ARC
  5
107E4
330
1E
100
AcDbEntity
  8
10
  6
CONTINOUS
100
AcDbCircle
 10
90.74508410232764
 20
355.0822830668492
 30
0.0
 40
5.0
100
AcDbArc
 50
0.0
 51
90.0
  0
CIRCLE
  5
107E5
330
1E
100
AcDbEntity
  8
24
  6
CONTINOUS
100
AcDbCircle
 10
86.99508410232764
 20
354.0822830668492
 30
0.0
 40
3.5
  0
LINE
  5
107E6
330
1E
100
AcDbEntity
  8
24
  6
CONTINOUS
100
AcDbLine
 10
86.99508410232764
 20
349.1473858991342
 30
0.0
 11
86.99508410232764
 21
358.7345392670634
 31
0.0
  0
LINE
  5
107E7
330
1E
100
AcDbEntity
  8
10
  6
CONTINOUS
100
AcDbLine
 10
78.24508410232765
 20
355.0822830668492
 30
0.0
 11
78.24508410232765
 21
346.0822830833491
 31
0.0
  0
LINE
  5
107E8
330
1E
100
AcDbEntity
  8
10
  6
CONTINOUS
100
AcDbLine
 10
83.24508410232764
 20
360.0822830668492
 30
0.0
 11
90.74508410232764
 21
360.0822830668492
 31
0.0
  0
LINE
  5
107E9
330
1E
100
AcDbEntity
  8
17
  6
DASHDOT
100
AcDbLine
 10
93.99508410232769
 20
354.0822830668493
 30
0.0
 11
79.99508410232767
 21
354.0822830668493
 31
0.0
  0
ARC
  5
107EA
330
1E
100
AcDbEntity
  8
10
  6
CONTINOUS
100
AcDbCircle
 10
83.24508410232764
 20
355.0822830668492
 30
0.0
 40
5.0
100
AcDbArc
 50
90.0
 51
180.0
  0
CIRCLE
  5
107EB
330
1E
100
AcDbEntity
  8
12
  6
CONTINOUS
100
AcDbCircle
 10
101.9950841023276
 20
355.0822830668492
 30
0.0
 40
4.0
  0
LINE
  5
107EC
330
1E
100
AcDbEntity
  8
10
  6
CONTINOUS
100
AcDbLine
 10
95.74508410232764
 20
355.0822830668492
 30
0.0
 11
95.74508410232764
 21
346.0822830833491
 31
0.0
  0
LINE
  5
107ED
330
1E
100
AcDbEntity
  8
10
  6
CONTINOUS
100
AcDbLine
 10
108.2450841023276
 20
355.0822830668492
 30
0.0
 11
108.2450841023276
 21
346.0822830833491
 31
0.0
  0
LINE
  5
107EE
330
1E
100
AcDbEntity
  8
12
  6
DASHED
100
AcDbLine
 10
96.49508410232769
 20
355.0822830668492
 30
0.0
 11
107.4950841023276
 21
355.0822830668492
 31
0.0
  0
ARC
  5
107EF
330
1E
100
AcDbEntity
  8
10
  6
CONTINOUS
100
AcDbCircle
 10
-113.2450841023276
 20
355.0822830668492
 30
0.0
 40
5.0
210
0.0
220
0.0
230
-1.0
100
AcDbArc
 50
0.0
 51
90.0
  0
LINE
  5
107F0
330
1E
100
AcDbEntity
  8
17
  6
DASHDOT
100
AcDbLine
 10
116.9950841023276
 20
349.3185865867511
 30
0.0
 11
116.9950841023276
 21
358.648935648692
 31
0.0
  0
LINE
  5
107F1
330
1E
100
AcDbEntity
  8
10
  6
CONTINOUS
100
AcDbLine
 10
125.7450841023276
 20
355.0822830668492
 30
0.0
 11
125.7450841023276
 21
346.0822830833491
 31
0.0
  0
ARC
  5
107F2
330
1E
100
AcDbEntity
  8
10
  6
CONTINOUS
100
AcDbCircle
 10
-120.7450841023276
 20
355.0822830668492
 30
0.0
 40
5.0
210
0.0
220
0.0
230
-1.0
100
AcDbArc
 50
90.0
 51
180.0
  0
LINE
  5
107F3
330
1E
100
AcDbEntity
  8
10
  6
CONTINOUS
100
AcDbLine
 10
41.99508410232764
 20
462.131211665349
 30
0.0
 11
161.9950841023277
 21
462.131211665349
 31
0.0
  0
LINE
  5
107F4
330
1E
100
AcDbEntity
  8
10
  6
CONTINOUS
100
AcDbLine
 10
161.9950841023277
 20
476.0822830833491
 30
0.0
 11
41.99508410232764
 21
476.0812128820993
 31
0.0
  0
LINE
  5
107F5
330
1E
100
AcDbEntity
  8
10
  6
CONTINOUS
100
AcDbLine
 10
120.7450841023276
 20
462.131211665349
 30
0.0
 11
113.2450841023276
 21
462.131211665349
 31
0.0
  0
LINE
  5
107F6
330
1E
100
AcDbEntity
  8
17
  6
DASHDOT
100
AcDbLine
 10
109.9950841023276
 20
468.1312116653491
 30
0.0
 11
123.9950841023276
 21
468.1312116653491
 31
0.0
  0
LINE
  5
107F7
330
1E
100
AcDbEntity
  8
17
  6
DASHDOT
100
AcDbLine
 10
86.99508410232764
 20
475.1312116653489
 30
0.0
 11
86.99508410232764
 21
461.1312116653492
 31
0.0
  0
LINE
  5
107F8
330
1E
100
AcDbEntity
  8
10
  6
CONTINOUS
100
AcDbLine
 10
78.24508410232765
 20
467.1312116653488
 30
0.0
 11
78.24508410232765
 21
476.0812128820993
 31
0.0
  0
LINE
  5
107F9
330
1E
100
AcDbEntity
  8
10
  6
CONTINOUS
100
AcDbLine
 10
95.74508410232764
 20
467.1312116653488
 30
0.0
 11
95.74508410232764
 21
476.0812128820993
 31
0.0
  0
LINE
  5
107FA
330
1E
100
AcDbEntity
  8
10
  6
CONTINOUS
100
AcDbLine
 10
108.2450841023276
 20
467.1312116653488
 30
0.0
 11
108.2450841023276
 21
476.0812128820993
 31
0.0
  0
ARC
  5
107FB
330
1E
100
AcDbEntity
  8
10
  6
CONTINOUS
100
AcDbCircle
 10
-90.74508410232764
 20
467.1312116653488
 30
0.0
 40
5.0
210
0.0
220
0.0
230
-1.0
100
AcDbArc
 50
180.0
 51
270.0
  0
LINE
  5
107FC
330
1E
100
AcDbEntity
  8
10
  6
CONTINOUS
100
AcDbLine
 10
83.24508410232764
 20
462.131211665349
 30
0.0
 11
90.74508410232764
 21
462.131211665349
 31
0.0
  0
LINE
  5
107FD
330
1E
100
AcDbEntity
  8
17
  6
DASHDOT
100
AcDbLine
 10
93.99508410232769
 20
468.1312116653491
 30
0.0
 11
79.99508410232767
 21
468.1312116653491
 31
0.0
  0
ARC
  5
107FE
330
1E
100
AcDbEntity
  8
10
  6
CONTINOUS
100
AcDbCircle
 10
-83.24508410232764
 20
467.1312116653488
 30
0.0
 40
5.0
210
0.0
220
0.0
230
-1.0
100
AcDbArc
 50
270.0
 51
0.0
  0
CIRCLE
  5
107FF
330
1E
100
AcDbEntity
  8
12
  6
CONTINOUS
100
AcDbCircle
 10
71.9950841023277
 20
467.1312116653488
 30
0.0
 40
4.0
  0
LINE
  5
10800
330
1E
100
AcDbEntity
  8
12
  6
DASHED
100
AcDbLine
 10
77.49508410232758
 20
467.1312116653488
 30
0.0
 11
66.49508410232768
 21
467.1312116653488
 31
0.0
  0
ARC
  5
10801
330
1E
100
AcDbEntity
  8
10
  6
CONTINOUS
100
AcDbCircle
 10
113.2450841023276
 20
467.1312116653488
 30
0.0
 40
5.0
100
AcDbArc
 50
180.0
 51
270.0
  0
LINE
  5
10802
330
1E
100
AcDbEntity
  8
10
  6
CONTINOUS
100
AcDbLine
 10
125.7450841023276
 20
467.1312116653488
 30
0.0
 11
125.7450841023276
 21
476.0812128820993
 31
0.0
  0
LINE
  5
10803
330
1E
100
AcDbEntity
  8
17
  6
DASHDOT
100
AcDbLine
 10
116.9950841023276
 20
475.1312116653489
 30
0.0
 11
116.9950841023276
 21
461.1312116653492
 31
0.0
  0
ARC
  5
10804
330
1E
100
AcDbEntity
  8
10
  6
CONTINOUS
100
AcDbCircle
 10
120.7450841023276
 20
467.1312116653488
 30
0.0
 40
5.0
100
AcDbArc
 50
270.0
 51
0.0
  0
LINE
  5
10805
330
1E
100
AcDbEntity
  8
18
100
AcDbLine
 10
103.4950841023276
 20
526.1312116653487
 30
0.0
 11
100.4950841023276
 21
526.1312116653487
 31
0.0
  0
DIMENSION
  5
10806
330
1E
100
AcDbEntity
  8
30
  6
Continuous
100
AcDbDimension
280
     0
  2
*D13
 10
191.3523950935805
 20
476.0822830833491
 30
0.0
 11
186.3523950935805
 21
501.1067473743489
 31
0.0
 70
    32
 71
     5
 42
50.04892858199941
 73
     0
 74
     0
 75
     0
  3
STANDARD
100
AcDbAlignedDimension
 13
73.49508410232767
 23
526.1312116653487
 33
0.0
 14
161.9950841023277
 24
476.0822830833491
 34
0.0
 50
90.0
100
AcDbRotatedDimension
1001
ACAD
1000
DSTYLE
1002
{
1070
    79
1070
     3
1002
}
  0
DIMENSION
  5
10807
330
1E
100
AcDbEntity
  8
30
  6
Continuous
100
AcDbDimension
280
     0
  2
*D14
 10
191.3523950935805
 20
346.0822830833491
 30
0.0
 11
191.3523950935805
 21
411.0817479827241
 31
0.0
 70
   160
 71
     5
 42
130.0
 73
     0
 74
     0
 75
     0
  3
STANDARD
100
AcDbAlignedDimension
 13
161.9950841023277
 23
476.0822830833491
 33
0.0
 14
161.9950841023277
 24
346.0822830833491
 34
0.0
 50
90.0
100
AcDbRotatedDimension
1001
ACAD
1000
DSTYLE
1002
{
1070
   287
1070
     4
1070
   287
1070
     4
1070
   279
1070
     1
1070
    79
1070
     3
1002
}
  0
LINE
  5
10808
330
1E
100
AcDbEntity
  8
12
  6
DASHED
100
AcDbLine
 10
71.9950841023277
 20
474.1312116653491
 30
0.0
 11
71.9950841023277
 21
460.1312116653491
 31
0.0
  0
LINE
  5
10809
330
1E
100
AcDbEntity
  8
12
  6
DASHED
100
AcDbLine
 10
101.9950841023276
 20
350.4171085358787
 30
0.0
 11
101.9950841023276
 21
359.7474575978197
 31
0.0
  0
CIRCLE
  5
1080A
330
1E
100
AcDbEntity
  8
24
  6
CONTINOUS
100
AcDbCircle
 10
116.9950841023276
 20
468.1312116653491
 30
0.0
 40
3.5
  0
CIRCLE
  5
1080B
330
1E
100
AcDbEntity
  8
24
  6
CONTINOUS
100
AcDbCircle
 10
86.99508410232764
 20
468.1312116653486
 30
0.0
 40
3.5
  0
ARC
  5
1080C
330
1E
100
AcDbEntity
  8
10
  6
CONTINOUS
100
AcDbCircle
 10
60.74508410232765
 20
355.0822830668492
 30
0.0
 40
5.0
100
AcDbArc
 50
0.0
 51
90.0
  0
CIRCLE
  5
1080D
330
1E
100
AcDbEntity
  8
24
  6
CONTINOUS
100
AcDbCircle
 10
56.99508410232765
 20
354.0822830668492
 30
0.0
 40
3.5
  0
LINE
  5
1080E
330
1E
100
AcDbEntity
  8
17
  6
DASHDOT
100
AcDbLine
 10
56.99508410232765
 20
349.1473858991342
 30
0.0
 11
56.99508410232765
 21
358.7345392670634
 31
0.0
  0
LINE
  5
1080F
330
1E
100
AcDbEntity
  8
10
  6
CONTINOUS
100
AcDbLine
 10
48.24508410232765
 20
355.0822830668492
 30
0.0
 11
48.24508410232765
 21
346.0822830833491
 31
0.0
  0
LINE
  5
10810
330
1E
100
AcDbEntity
  8
10
  6
CONTINOUS
100
AcDbLine
 10
53.24508410232765
 20
360.0822830668492
 30
0.0
 11
60.74508410232765
 21
360.0822830668492
 31
0.0
  0
LINE
  5
10811
330
1E
100
AcDbEntity
  8
17
  6
DASHDOT
100
AcDbLine
 10
63.99508410232765
 20
354.0822830668493
 30
0.0
 11
49.99508410232767
 21
354.0822830668493
 31
0.0
  0
ARC
  5
10812
330
1E
100
AcDbEntity
  8
10
  6
CONTINOUS
100
AcDbCircle
 10
53.24508410232765
 20
355.0822830668492
 30
0.0
 40
5.0
100
AcDbArc
 50
90.0
 51
180.0
  0
LINE
  5
10813
330
1E
100
AcDbEntity
  8
10
  6
CONTINOUS
100
AcDbLine
 10
65.74508410232765
 20
355.0822830668492
 30
0.0
 11
65.74508410232765
 21
346.0822830833491
 31
0.0
  0
LINE
  5
10814
330
1E
100
AcDbEntity
  8
17
  6
DASHDOT
100
AcDbLine
 10
56.99508410232765
 20
475.1312116653489
 30
0.0
 11
56.99508410232765
 21
461.1312116653492
 31
0.0
  0
LINE
  5
10815
330
1E
100
AcDbEntity
  8
10
  6
CONTINOUS
100
AcDbLine
 10
48.24508410232765
 20
467.1312116653488
 30
0.0
 11
48.24508410232765
 21
476.0812128820993
 31
0.0
  0
LINE
  5
10816
330
1E
100
AcDbEntity
  8
10
  6
CONTINOUS
100
AcDbLine
 10
65.74508410232763
 20
467.1312116653488
 30
0.0
 11
65.74508410232763
 21
476.0812128820993
 31
0.0
  0
ARC
  5
10817
330
1E
100
AcDbEntity
  8
10
  6
CONTINOUS
100
AcDbCircle
 10
-60.74508410232765
 20
467.1312116653488
 30
0.0
 40
5.0
210
0.0
220
0.0
230
-1.0
100
AcDbArc
 50
180.0
 51
270.0
  0
LINE
  5
10818
330
1E
100
AcDbEntity
  8
10
  6
CONTINOUS
100
AcDbLine
 10
53.24508410232765
 20
462.131211665349
 30
0.0
 11
60.74508410232765
 21
462.131211665349
 31
0.0
  0
LINE
  5
10819
330
1E
100
AcDbEntity
  8
17
  6
DASHDOT
100
AcDbLine
 10
63.99508410232765
 20
468.1312116653491
 30
0.0
 11
49.99508410232767
 21
468.1312116653491
 31
0.0
  0
ARC
  5
1081A
330
1E
100
AcDbEntity
  8
10
  6
CONTINOUS
100
AcDbCircle
 10
-53.24508410232765
 20
467.1312116653488
 30
0.0
 40
5.0
210
0.0
220
0.0
230
-1.0
100
AcDbArc
 50
270.0
 51
0.0
  0
CIRCLE
  5
1081B
330
1E
100
AcDbEntity
  8
24
  6
CONTINOUS
100
AcDbCircle
 10
56.99508410232765
 20
468.1312116653486
 30
0.0
 40
3.5
  0
LINE
  5
1081C
330
1E
100
AcDbEntity
  8
18
100
AcDbLine
 10
73.49508410232764
 20
526.1312116653487
 30
0.0
 11
73.49508410232767
 21
476.0812128820993
 31
0.0
  0
LINE
  5
1081D
330
1E
100
AcDbEntity
  8
18
100
AcDbLine
 10
70.49508410232764
 20
526.1312116653487
 30
0.0
 11
70.49508410232767
 21
476.0812128820993
 31
0.0
  0
LINE
  5
1081E
330
1E
100
AcDbEntity
  8
18
100
AcDbLine
 10
70.49508410232764
 20
526.1312116653487
 30
0.0
 11
73.49508410232764
 21
526.1312116653487
 31
0.0
  0
LWPOLYLINE
  5
1081F
330
1E
100
AcDbEntity
  8
10
  6
Continuous
100
AcDbPolyline
 90
        4
 70
     1
 43
0.0
 10
75.99508410232767
 20
433.6312116653492
 10
97.99508410232769
 20
433.6312116653492
 10
97.99508410232769
 20
388.6312116653492
 10
75.99508410232767
 20
388.6312116653492
  0
LWPOLYLINE
  5
10820
330
1E
100
AcDbEntity
  8
10
  6
Continuous
100
AcDbPolyline
 90
        4
 70
     1
 43
0.0
 10
79.55742068550769
 20
424.9812118740991
 10
94.43302638782762
 20
424.9812118740991
 10
94.43302638782762
 20
397.9812125708493
 10
79.55742068550769
 20
397.9812125708493
  0
LWPOLYLINE
  5
10821
330
1E
100
AcDbEntity
  8
10
  6
Continuous
100
AcDbPolyline
 90
        4
 70
     1
 43
0.0
 10
80.4950837043278
 20
422.2357083143491
 10
93.49508769772233
 20
422.2357083143491
 10
93.49508769772233
 20
417.8698356062411
 10
80.4950837043278
 20
417.8698356062411
  0
LINE
  5
10822
330
1E
100
AcDbEntity
  8
10
  6
Continuous
100
AcDbLine
 10
128.9950841023276
 20
436.1312116653492
 30
0.0
 11
44.99508410232765
 21
436.1312116653492
 31
0.0
  0
LINE
  5
10823
330
1E
100
AcDbEntity
  8
10
  6
Continuous
100
AcDbLine
 10
128.9950841023276
 20
386.1312116653492
 30
0.0
 11
44.99508410232765
 21
386.1312116653492
 31
0.0
  0
LINE
  5
10824
330
1E
100
AcDbEntity
  8
10
  6
Continuous
100
AcDbLine
 10
44.99508410232765
 20
386.1312116653492
 30
0.0
 11
44.99508410232765
 21
436.1312116653492
 31
0.0
  0
LINE
  5
10825
330
1E
100
AcDbEntity
  8
10
  6
Continuous
100
AcDbLine
 10
128.9950841023276
 20
436.1312116653492
 30
0.0
 11
128.9950841023276
 21
386.1312116653492
 31
0.0
  0
LINE
  5
10826
330
1E
100
AcDbEntity
  8
16
100
AcDbLine
 10
86.99508410232764
 20
339.2985912729014
 30
0.0
 11
86.99508410232764
 21
491.6785254671085
 31
0.0
  0
DIMENSION
  5
108FD
330
1E
100
AcDbEntity
  8
30
  6
Continuous
100
AcDbDimension
280
     0
  2
*D15
 10
161.9950841023277
 20
296.0048987698583
 30
0.0
 11
101.9950841023276
 21
301.0048987698583
 31
0.0
 70
    32
 71
     5
 42
120.0
 73
     0
 74
     0
 75
     0
  3
STANDARD
100
AcDbAlignedDimension
 13
41.99508410232764
 23
346.0833532845993
 33
0.0
 14
161.9950841023277
 24
346.0822830833491
 34
0.0
 50
180.0
100
AcDbRotatedDimension
1001
ACAD
1000
DSTYLE
1002
{
1070
    79
1070
     3
1002
}
  0
DIMENSION
  5
108FE
330
1E
100
AcDbEntity
  8
30
  6
Continuous
100
AcDbDimension
280
     0
  2
*D16
 10
146.9950841023275
 20
310.6791868172795
 30
0.0
 11
101.9950841023276
 21
315.6791868172795
 31
0.0
 70
    32
 71
     5
 42
90.0
 73
     0
 74
     0
 75
     0
  3
STANDARD
100
AcDbAlignedDimension
 13
56.99508410232765
 23
354.0833532680992
 33
0.0
 14
146.9950841023275
 24
354.0833532680992
 34
0.0
 50
180.0
100
AcDbRotatedDimension
1001
ACAD
1000
DSTYLE
1002
{
1070
    79
1070
     3
1002
}
  0
CIRCLE
  5
10900
330
1E
100
AcDbEntity
  8
24
  6
CONTINOUS
100
AcDbCircle
 10
146.9950841023275
 20
354.0833532680992
 30
0.0
 40
3.5
  0
LINE
  5
10901
330
1E
100
AcDbEntity
  8
17
  6
DASHDOT
100
AcDbLine
 10
139.9950841023276
 20
354.0833532680992
 30
0.0
 11
153.9950841023276
 21
354.0833532680992
 31
0.0
  0
LINE
  5
10902
330
1E
100
AcDbEntity
  8
10
  6
CONTINOUS
100
AcDbLine
 10
150.7450841023277
 20
360.0833532680992
 30
0.0
 11
143.2450841023277
 21
360.0833532680992
 31
0.0
  0
ARC
  5
10903
330
1E
100
AcDbEntity
  8
10
  6
CONTINOUS
100
AcDbCircle
 10
-143.2450841023277
 20
355.0833532680992
 30
0.0
 40
5.0
210
0.0
220
0.0
230
-1.0
100
AcDbArc
 50
0.0
 51
90.0
  0
LINE
  5
10904
330
1E
100
AcDbEntity
  8
17
  6
DASHDOT
100
AcDbLine
 10
146.9950841023275
 20
349.3196567880011
 30
0.0
 11
146.9950841023275
 21
358.650005849942
 31
0.0
  0
LINE
  5
10905
330
1E
100
AcDbEntity
  8
10
  6
CONTINOUS
100
AcDbLine
 10
155.7450841023277
 20
355.0833532680992
 30
0.0
 11
155.7450841023277
 21
346.0833532845993
 31
0.0
  0
ARC
  5
10906
330
1E
100
AcDbEntity
  8
10
  6
CONTINOUS
100
AcDbCircle
 10
-150.7450841023277
 20
355.0833532680992
 30
0.0
 40
5.0
210
0.0
220
0.0
230
-1.0
100
AcDbArc
 50
90.0
 51
180.0
  0
LINE
  5
10931
330
1E
100
AcDbEntity
  8
10
  6
CONTINOUS
100
AcDbLine
 10
138.2450841023276
 20
355.0833532680992
 30
0.0
 11
138.2450841023276
 21
346.0833532845993
 31
0.0
  0
LWPOLYLINE
  5
10966
330
1E
100
AcDbEntity
  8
10
  6
Continuous
100
AcDbPolyline
 90
        4
 70
     1
 43
0.0
 10
0.0
 20
742.4999999999997
 10
525.0
 20
742.4999999999997
 10
525.0
 20
0.0
 10
0.0
 20
0.0
  0
DIMENSION
  5
1097F
330
1E
100
AcDbEntity
  8
30
  6
Continuous
100
AcDbDimension
280
     0
  2
*D17
 10
517.1065257009321
 20
136.2838176443144
 30
0.0
 11
517.1065257009321
 21
160.2838176443145
 31
0.0
 70
   160
 71
     5
 42
48.0
 73
     0
 74
     0
 75
     0
  3
STANDARD
100
AcDbAlignedDimension
 13
418.4009536919957
 23
184.2838176443144
 33
0.0
 14
418.4009536919957
 24
136.2838176443144
 34
0.0
 50
90.0
100
AcDbRotatedDimension
1001
ACAD
1000
DSTYLE
1002
{
1070
    79
1070
     3
1002
}
  0
LINE
  5
10980
330
1E
100
AcDbEntity
  8
16
100
AcDbLine
 10
420.4009536919961
 20
81.87075104089355
 30
0.0
 11
420.4009536919961
 21
234.4625031157507
 31
0.0
  0
DIMENSION
  5
10981
330
1E
100
AcDbEntity
  8
30
  6
Continuous
100
AcDbDimension
280
     0
  2
*D18
 10
432.4009551522464
 20
65.89430663234407
 30
0.0
 11
420.4009536918713
 21
70.89430663234407
 31
0.0
 70
    32
 71
     5
 42
24.00000292075015
 73
     0
 74
     0
 75
     0
  3
STANDARD
100
AcDbAlignedDimension
 13
408.4009522314961
 23
137.2838172718144
 33
0.0
 14
432.4009551522464
 24
137.2838172718144
 34
0.0
 50
180.0
100
AcDbRotatedDimension
1001
ACAD
1000
DSTYLE
1002
{
1070
    79
1070
     3
1002
}
  0
DIMENSION
  5
10982
330
1E
100
AcDbEntity
  8
30
  6
Continuous
100
AcDbDimension
280
     0
  2
*D19
 10
431.3109536919961
 20
183.2838176443143
 30
0.0
 11
447.2773202693653
 21
191.3281461702655
 31
0.0
 70
   164
 71
     5
 42
0.9999999999997156
 73
     0
 74
     0
 75
     0
  3
STANDARD
100
AcDbRadialDimension
 15
432.0891020311596
 25
183.9118981823479
 35
0.0
 40
0.0
1001
ACAD
1000
DSTYLE
1002
{
1070
   288
1070
     1
1002
}
  0
LWPOLYLINE
  5
10983
330
1E
100
AcDbEntity
  8
11
 48
2.0
100
AcDbPolyline
 90
        2
 70
     0
 43
0.0
 10
408.4009536919965
 20
137.2838176443142
 42
0.4142135623730951
 10
409.4009536919966
 20
136.2838176443142
  0
LWPOLYLINE
  5
10984
330
1E
100
AcDbEntity
  8
11
 48
2.0
100
AcDbPolyline
 90
        2
 70
     0
 43
0.0
 10
409.4009542582463
 20
136.2838171078143
 10
431.4009531257465
 20
136.2838171078143
  0
LWPOLYLINE
  5
10985
330
1E
100
AcDbEntity
  8
11
 48
2.0
100
AcDbPolyline
 90
        2
 70
     0
 43
0.0
 10
431.400953691996
 20
136.2838176443142
 42
0.4142135623730951
 10
432.4009536919962
 20
137.2838176443142
  0
LWPOLYLINE
  5
10986
330
1E
100
AcDbEntity
  8
11
 48
2.0
100
AcDbPolyline
 90
        2
 70
     0
 43
0.0
 10
432.4009551522464
 20
137.2838172718144
 10
432.4009551522464
 20
183.2838180168143
  0
LWPOLYLINE
  5
10987
330
1E
100
AcDbEntity
  8
11
 48
2.0
100
AcDbPolyline
 90
        2
 70
     0
 43
0.0
 10
432.4009536919962
 20
183.2838176443143
 42
0.4142135623730951
 10
431.400953691996
 20
184.2838176443143
  0
LWPOLYLINE
  5
10988
330
1E
100
AcDbEntity
  8
11
 48
2.0
100
AcDbPolyline
 90
        2
 70
     0
 43
0.0
 10
431.4009531257465
 20
184.2838181808143
 10
409.4009542582463
 20
184.2838181808143
  0
LWPOLYLINE
  5
10989
330
1E
100
AcDbEntity
  8
11
 48
2.0
100
AcDbPolyline
 90
        2
 70
     0
 43
0.0
 10
409.4009536919966
 20
184.2838176443143
 42
0.4142135623730951
 10
408.4009536919965
 20
183.2838176443143
  0
LWPOLYLINE
  5
1098A
330
1E
100
AcDbEntity
  8
11
 48
2.0
100
AcDbPolyline
 90
        2
 70
     0
 43
0.0
 10
408.4009522314961
 20
183.2838180168143
 10
408.4009522314961
 20
137.2838172718144
  0
LINE
  5
1098B
330
1E
100
AcDbEntity
  8
18
  6
DIVIDE
100
AcDbLine
 10
375.4009519037463
 20
225.2838152600644
 30
0.0
 11
375.4009519037463
 21
95.28382002831438
 31
0.0
  0
LINE
  5
1098C
330
1E
100
AcDbEntity
  8
18
  6
DIVIDE
100
AcDbLine
 10
495.4009554799961
 20
95.28382002831438
 30
0.0
 11
495.4009554799961
 21
225.2838152600644
 31
0.0
  0
LINE
  5
1098D
330
1E
100
AcDbEntity
  8
18
  6
DIVIDE
100
AcDbLine
 10
375.4009519037463
 20
95.28382002831438
 30
0.0
 11
495.4009554799961
 21
95.28382002831438
 31
0.0
  0
LINE
  5
1098E
330
1E
100
AcDbEntity
  8
18
  6
DIVIDE
100
AcDbLine
 10
495.4009554799961
 20
225.2838152600644
 30
0.0
 11
375.4009519037463
 21
225.2838152600644
 31
0.0
  0
LINE
  5
10B18
330
1E
100
AcDbEntity
  8
16
100
AcDbLine
 10
499.6628919956117
 20
160.2838176443142
 30
0.0
 11
364.6570285611197
 21
160.2838176443142
 31
0.0
  0
MTEXT
  5
10B90
330
1E
100
AcDbEntity
  8
240
100
AcDbMText
 10
239.1678863620928
 20
39.97273166827336
 30
0.0
 40
7.826237649998486
 41
0.0
 46
0.0
 71
     1
 72
     1
  1
[Cutout A]
  7
SLDTEXTSTYLE0
 73
     1
 44
1.0
  0
MTEXT
  5
10B91
330
1E
100
AcDbEntity
  8
240
100
AcDbMText
 10
391.7729183245739
 20
39.97273166827336
 30
0.0
 40
7.826237649998486
 41
0.0
 46
0.0
 71
     1
 72
     1
  1
[Cutout B]
  7
SLDTEXTSTYLE0
 73
     1
 44
1.0
  0
DIMENSION
  5
10BA5
330
1E
100
AcDbEntity
  8
30
  6
Continuous
100
AcDbDimension
280
     0
  2
*D20
 10
97.99508410232769
 20
443.2185146815386
 30
0.0
 11
86.99508410232764
 21
443.617983011796
 31
0.0
 70
   160
 71
     5
 42
22.0
 73
     0
 74
     0
 75
     0
  3
STANDARD
100
AcDbAlignedDimension
 13
75.99508410232767
 23
433.6312116653492
 33
0.0
 14
97.99508410232769
 24
433.6312116653492
 34
0.0
100
AcDbRotatedDimension
1001
ACAD
1000
DSTYLE
1002
{
1070
    79
1070
     3
1070
   279
1070
     1
1002
}
  0
DIMENSION
  5
10BBB
330
1E
100
AcDbEntity
  8
30
  6
Continuous
100
AcDbDimension
280
     0
  2
*D21
 10
128.9950841023276
 20
371.1312116653493
 30
0.0
 11
86.99508410232764
 21
371.1312116653493
 31
0.0
 70
   160
 71
     5
 42
84.0
 73
     0
 74
     0
 75
     0
  3
STANDARD
100
AcDbAlignedDimension
 13
44.99508410232765
 23
386.1312116653493
 33
0.0
 14
128.9950841023276
 24
386.1312116653493
 34
0.0
100
AcDbRotatedDimension
1001
ACAD
1000
DSTYLE
1002
{
1070
    79
1070
     3
1070
   279
1070
     1
1002
}
  0
DIMENSION
  5
10BDA
330
1E
100
AcDbEntity
  8
30
  6
Continuous
100
AcDbDimension
280
     0
  2
*D22
 10
86.99508410232764
 20
326.9227369761424
 30
0.0
 11
64.49508410232765
 21
331.9227369761425
 31
0.0
 70
    32
 71
     5
 42
45.0
 73
     0
 74
     0
 75
     0
  3
STANDARD
100
AcDbAlignedDimension
 13
41.99508410232764
 23
346.0822830833491
 33
0.0
 14
86.99508410232764
 24
354.0822830668493
 34
0.0
 50
180.0
100
AcDbRotatedDimension
1001
ACAD
1000
DSTYLE
1002
{
1070
    79
1070
     3
1002
}
  0
LINE
  5
117A2
330
1E
100
AcDbEntity
  8
16
100
AcDbLine
 10
362.0183685376105
 20
405.2739106168806
 30
0.0
 11
256.237536709141
 21
405.2739106168806
 31
0.0
  0
DIMENSION
  5
117A3
330
1E
100
AcDbEntity
  8
30
  6
Continuous
100
AcDbDimension
280
     0
  2
*D23
 10
354.1346368377795
 20
281.11853332188
 30
0.0
 11
306.3846374561543
 21
286.11853332188
 31
0.0
 70
    32
 71
     5
 42
95.49999876325022
 73
     0
 74
     0
 75
     0
  3
STANDARD
100
AcDbAlignedDimension
 13
258.6346380745291
 23
405.2739106168806
 33
0.0
 14
354.1346368377795
 24
340.1132771876447
 34
0.0
 50
180.0
100
AcDbRotatedDimension
1001
ACAD
1000
DSTYLE
1002
{
1070
    79
1070
     3
1002
}
  0
DIMENSION
  5
117A4
330
1E
100
AcDbEntity
  8
30
  6
Continuous
100
AcDbDimension
280
     0
  2
*D24
 10
282.134638074529
 20
296.3259209856421
 30
0.0
 11
241.8851620292025
 21
296.3259209856421
 31
0.0
 70
   160
 71
     5
 42
6.5
 73
     0
 74
     0
 75
     0
  3
STANDARD
100
AcDbAlignedDimension
 13
275.634638074529
 23
380.2739106168809
 33
0.0
 14
282.134638074529
 24
380.2739106168809
 34
0.0
 50
180.0
100
AcDbRotatedDimension
1001
ACAD
1000
DSTYLE
1002
{
1070
    79
1070
     3
1002
}
  0
DIMENSION
  5
117A5
330
1E
100
AcDbEntity
  8
30
  6
Continuous
100
AcDbDimension
280
     0
  2
*D25
 10
354.1346368377795
 20
296.3259209856421
 30
0.0
 11
318.1346374561542
 21
301.3259209856422
 31
0.0
 70
    32
 71
     5
 42
71.99999876325046
 73
     0
 74
     0
 75
     0
  3
STANDARD
100
AcDbAlignedDimension
 13
282.134638074529
 23
380.2739106168809
 33
0.0
 14
354.1346368377795
 24
340.1132771876447
 34
0.0
 50
180.0
100
AcDbRotatedDimension
1001
ACAD
1000
DSTYLE
1002
{
1070
    79
1070
     3
1002
}
  0
DIMENSION
  5
117A6
330
1E
100
AcDbEntity
  8
30
  6
Continuous
100
AcDbDimension
280
     0
  2
*D26
 10
354.1346380745291
 20
500.9744936896792
 30
0.0
 11
342.1346380745291
 21
505.9744936896792
 31
0.0
 70
    32
 71
     5
 42
24.00000000000011
 73
     0
 74
     0
 75
     0
  3
STANDARD
100
AcDbAlignedDimension
 13
330.134638074529
 23
470.2239118336309
 33
0.0
 14
354.1346380745291
 24
470.223911833631
 34
0.0
100
AcDbRotatedDimension
1001
ACAD
1000
DSTYLE
1002
{
1070
    79
1070
     3
1002
}
  0
LINE
  5
117A7
330
1E
100
AcDbEntity
  8
10
  6
CONTINOUS
100
AcDbLine
 10
275.634638074529
 20
417.8460281131957
 30
0.0
 11
275.634638074529
 21
382.8437308518809
 31
0.0
  0
DIMENSION
  5
117A8
330
1E
100
AcDbEntity
  8
30
  6
Continuous
100
AcDbDimension
280
     0
  2
*D27
 10
354.1346368377795
 20
307.1803863739723
 30
0.0
 11
320.1346374561542
 21
312.1803863739724
 31
0.0
 70
    32
 71
     5
 42
67.99999876325045
 73
     0
 74
     0
 75
     0
  3
STANDARD
100
AcDbAlignedDimension
 13
286.134638074529
 23
354.2739106168808
 33
0.0
 14
354.1346368377795
 24
340.1132771876447
 34
0.0
 50
180.0
100
AcDbRotatedDimension
1001
ACAD
1000
DSTYLE
1002
{
1070
    79
1070
     3
1002
}
  0
DIMENSION
  5
117A9
330
1E
100
AcDbEntity
  8
30
  6
Continuous
100
AcDbDimension
280
     0
  2
*D28
 10
354.1346368377795
 20
317.4805760992174
 30
0.0
 11
324.1346368377794
 21
322.4805760992174
 31
0.0
 70
    32
 71
     5
 42
60.0000000000001
 73
     0
 74
     0
 75
     0
  3
STANDARD
100
AcDbAlignedDimension
 13
294.1346368377793
 23
340.1132771876447
 33
0.0
 14
354.1346368377795
 24
340.1132771876447
 34
0.0
 50
180.0
100
AcDbRotatedDimension
1001
ACAD
1000
DSTYLE
1002
{
1070
    79
1070
     3
1002
}
  0
DIMENSION
  5
117AA
330
1E
100
AcDbEntity
  8
30
  6
Continuous
100
AcDbDimension
280
     0
  2
*D29
 10
354.1346368377795
 20
326.9493554029976
 30
0.0
 11
327.6346373602793
 21
331.9493554029977
 31
0.0
 70
    32
 71
     5
 42
52.99999895500032
 73
     0
 74
     0
 75
     0
  3
STANDARD
100
AcDbAlignedDimension
 13
301.1346378827791
 23
347.7239106168809
 33
0.0
 14
354.1346368377795
 24
340.1132771876447
 34
0.0
 50
180.0
100
AcDbRotatedDimension
1001
ACAD
1000
DSTYLE
1002
{
1070
    79
1070
     3
1002
}
  0
LINE
  5
117AB
330
1E
100
AcDbEntity
  8
10
  6
CONTINOUS
100
AcDbLine
 10
294.1346380745292
 20
354.2739106168809
 30
0.0
 11
294.1346368518556
 21
340.2744457175059
 31
0.0
  0
LINE
  5
117AC
330
1E
100
AcDbEntity
  8
10
  6
CONTINOUS
100
AcDbLine
 10
294.1346368377796
 20
470.2239118336309
 30
0.0
 11
354.1346368377795
 21
470.223911833631
 31
0.0
  0
LINE
  5
117AD
330
1E
100
AcDbEntity
  8
24
  6
HIDDENX2
100
AcDbLine
 10
332.134638074529
 20
470.2239118336309
 30
0.0
 11
332.134638074529
 21
449.2239118336308
 31
0.0
  0
LINE
  5
117AE
330
1E
100
AcDbEntity
  8
24
  6
HIDDENX2
100
AcDbLine
 10
322.934638074529
 20
464.7239118336308
 30
0.0
 11
322.934638074529
 21
454.7239118336309
 31
0.0
  0
LINE
  5
117AF
330
1E
100
AcDbEntity
  8
24
  6
HIDDENX2
100
AcDbLine
 10
328.134638074529
 20
467.4239118336308
 30
0.0
 11
328.134638074529
 21
452.0239118336308
 31
0.0
  0
LINE
  5
117B0
330
1E
100
AcDbEntity
  8
24
  6
HIDDENX2
100
AcDbLine
 10
330.134638074529
 20
470.2239118336309
 30
0.0
 11
330.134638074529
 21
449.2239118336308
 31
0.0
  0
LINE
  5
117B1
330
1E
100
AcDbEntity
  8
24
  6
HIDDENX2
100
AcDbLine
 10
324.934638074529
 20
452.7239118336309
 30
0.0
 11
328.134638074529
 21
452.7239118336309
 31
0.0
  0
LINE
  5
117B2
330
1E
100
AcDbEntity
  8
17
  6
DASHDOT
100
AcDbLine
 10
317.934638074529
 20
459.7239118336308
 30
0.0
 11
335.134638074529
 21
459.7239118336308
 31
0.0
  0
ARC
  5
117B3
330
1E
100
AcDbEntity
  8
24
  6
HIDDENX2
100
AcDbCircle
 10
324.934638074529
 20
454.7239118336309
 30
0.0
 40
2.0
100
AcDbArc
 50
180.0
 51
270.0
  0
LINE
  5
117B4
330
1E
100
AcDbEntity
  8
24
  6
HIDDENX2
100
AcDbLine
 10
330.134638074529
 20
449.2239118336308
 30
0.0
 11
332.134638074529
 21
449.2239118336308
 31
0.0
  0
LINE
  5
117B5
330
1E
100
AcDbEntity
  8
24
  6
HIDDENX2
100
AcDbLine
 10
328.134638074529
 20
452.0239118336308
 30
0.0
 11
330.134638074529
 21
452.0239118336308
 31
0.0
  0
LINE
  5
117B6
330
1E
100
AcDbEntity
  8
24
  6
HIDDENX2
100
AcDbLine
 10
324.934638074529
 20
466.7239118336309
 30
0.0
 11
328.134638074529
 21
466.7239118336309
 31
0.0
  0
ARC
  5
117B7
330
1E
100
AcDbEntity
  8
24
  6
HIDDENX2
100
AcDbCircle
 10
324.934638074529
 20
464.7239118336308
 30
0.0
 40
2.0
100
AcDbArc
 50
90.0
 51
180.0
  0
LINE
  5
117B8
330
1E
100
AcDbEntity
  8
24
  6
HIDDENX2
100
AcDbLine
 10
328.134638074529
 20
467.4239118336308
 30
0.0
 11
330.134638074529
 21
467.4239118336308
 31
0.0
  0
TEXT
  5
117B9
330
1E
100
AcDbEntity
  8
30
  6
Continuous
100
AcDbText
 10
301.4663755198645
 20
487.9364397296351
 30
0.0
 40
5.0
  1
M8
  7
STANDARD1
100
AcDbText
  0
DIMENSION
  5
117BA
330
1E
100
AcDbEntity
  8
30
  6
Continuous
100
AcDbDimension
280
     0
  2
*D30
 10
361.1346368377795
 20
326.9493554029976
 30
0.0
 11
369.1346368377795
 21
331.9493554029977
 31
0.0
 70
    32
 71
     5
 42
7.0
 73
     0
 74
     0
 75
     0
  3
STANDARD
100
AcDbAlignedDimension
 13
354.1346368377795
 23
340.1132771876447
 33
0.0
 14
361.1346368377795
 24
349.3632771876447
 34
0.0
100
AcDbRotatedDimension
1001
ACAD
1000
DSTYLE
1002
{
1070
    79
1070
     3
1002
}
  0
LEADER
  5
117BB
330
1E
100
AcDbEntity
  8
30
  6
Continuous
100
AcDbLeader
  3
STANDARD
 76
     3
 10
322.934638074529
 20
464.7239118336308
 30
0.0
 10
315.0390582139096
 20
485.9616515998342
 30
0.0
 10
297.7636446972965
 20
485.9616515998342
 30
0.0
213
0.0
223
2.0
233
0.0
1001
ACAD
1000
DSTYLE
1002
{
1070
     5
1000
OPEN
1070
    77
1070
     0
1070
    79
1070
     3
1070
   147
1040
1.0
1002
}
  0
LINE
  5
117BC
330
1E
100
AcDbEntity
  8
10
  6
CONTINOUS
100
AcDbLine
 10
294.1346368518556
 20
340.2744457175059
 30
0.0
 11
354.1346368377795
 21
340.2744457175059
 31
0.0
  0
LINE
  5
117BD
330
1E
100
AcDbEntity
  8
0
  6
SLD-実線
 62
     7
370
    30
100
AcDbLine
 10
286.1346387302792
 20
450.5686729966306
 30
0.0
 11
286.1332622355289
 21
450.5686506448808
 31
0.0
  0
LINE
  5
117BE
330
1E
100
AcDbEntity
  8
0
  6
SLD-実線
 62
     7
370
    30
100
AcDbLine
 10
286.1346387302792
 20
436.168673243881
 30
0.0
 11
286.1332622355289
 21
436.1686508921308
 31
0.0
  0
LINE
  5
117BF
330
1E
100
AcDbEntity
  8
10
  6
Continuous
100
AcDbLine
 10
282.134638074529
 20
430.1540896116308
 30
0.0
 11
282.134638074529
 21
380.2739106168809
 31
0.0
  0
LINE
  5
117C0
330
1E
100
AcDbEntity
  8
12
  6
DASHED
100
AcDbLine
 10
301.1346378827791
 20
353.723910616881
 30
0.0
 11
295.914637882779
 21
353.723910616881
 31
0.0
  0
LINE
  5
117C1
330
1E
100
AcDbEntity
  8
12
  6
DASHED
100
AcDbLine
 10
301.1346378827791
 20
345.723910616881
 30
0.0
 11
295.8341487640291
 21
345.723910616881
 31
0.0
  0
LINE
  5
117C2
330
1E
100
AcDbEntity
  8
12
  6
DASHED
100
AcDbLine
 10
295.914637882779
 20
353.723910616881
 30
0.0
 11
295.914637882779
 21
345.723910616881
 31
0.0
  0
LINE
  5
117C3
330
1E
100
AcDbEntity
  8
12
  6
DASHED
100
AcDbLine
 10
301.1346378827791
 20
353.723910616881
 30
0.0
 11
301.1346378827791
 21
345.723910616881
 31
0.0
  0
ARC
  5
117C4
330
1E
100
AcDbEntity
  8
30
100
AcDbCircle
 10
463.4449479555292
 20
381.442429606381
 30
0.0
 40
206.1968630727214
100
AcDbArc
 50
170.3476901731971
 51
173.3517321866991
  0
LINE
  5
117C5
330
1E
100
AcDbEntity
  8
12
  6
DASHED
100
AcDbLine
 10
301.1346378827791
 20
347.7239106168809
 30
0.0
 11
361.1346378827793
 21
347.7239106168809
 31
0.0
  0
LINE
  5
117C6
330
1E
100
AcDbEntity
  8
12
  6
DASHED
100
AcDbLine
 10
301.1346378827791
 20
351.7239106168809
 30
0.0
 11
361.1346378827793
 21
351.7239106168809
 31
0.0
  0
LINE
  5
117C7
330
1E
100
AcDbEntity
  8
10
  6
CONTINOUS
100
AcDbLine
 10
354.1346368377795
 20
340.2744457175059
 30
0.0
 11
354.1346368377795
 21
470.2239118336309
 31
0.0
  0
LINE
  5
117C8
330
1E
100
AcDbEntity
  8
12
  6
DASHED
100
AcDbLine
 10
361.1346378827793
 20
347.7239106168809
 30
0.0
 11
361.1346378827793
 21
351.7239106168809
 31
0.0
  0
LINE
  5
117C9
330
1E
100
AcDbEntity
  8
10
  6
Continuous
100
AcDbLine
 10
294.1346380745292
 20
354.2739106168809
 30
0.0
 11
286.134638074529
 21
354.2739106168808
 31
0.0
  0
LINE
  5
117CA
330
1E
100
AcDbEntity
  8
10
  6
Continuous
100
AcDbLine
 10
286.134638074529
 20
354.2739106168808
 30
0.0
 11
286.134638074529
 21
456.255846286131
 31
0.0
  0
LWPOLYLINE
  5
117CB
330
1E
100
AcDbEntity
  8
10
  6
Continuous
100
AcDbPolyline
 90
       11
 70
     0
 43
0.0
 10
275.634638074529
 20
411.6297800365903
 10
260.5008492761086
 20
414.9084416351459
 10
260.3575614280294
 20
416.4129875418807
 10
260.9332342630291
 20
419.7189274993808
 10
261.8388401570172
 20
420.9925308377117
 10
263.3549709802792
 20
421.1137222876308
 10
275.634638074529
 20
417.8460281131957
 10
276.3922220505917
 20
427.4092810153809
 10
282.134638074529
 20
427.4092810153809
 10
282.134638074529
 20
430.2739106168806
 10
286.134638074529
 20
430.2739106168806
  0
LINE
  5
117CC
330
1E
100
AcDbEntity
  8
10
  6
Continuous
100
AcDbLine
 10
294.1346368377796
 20
456.255846286131
 30
0.0
 11
286.134638074529
 21
456.255846286131
 31
0.0
  0
LINE
  5
117CD
330
1E
100
AcDbEntity
  8
10
  6
Continuous
100
AcDbLine
 10
294.1346368377796
 20
456.255846286131
 30
0.0
 11
294.1346368377796
 21
470.2239118336309
 31
0.0
  0
LINE
  5
117CE
330
1E
100
AcDbEntity
  8
10
  6
Continuous
100
AcDbLine
 10
275.634638074529
 20
382.8437308518809
 30
0.0
 11
282.134638074529
 21
382.8437308518809
 31
0.0
  0
LINE
  5
117CF
330
1E
100
AcDbEntity
  8
10
  6
Continuous
100
AcDbLine
 10
282.134638074529
 20
380.2739106168809
 30
0.0
 11
286.134638074529
 21
380.2739106168809
 31
0.0
  0
DIMENSION
  5
117D0
330
1E
100
AcDbEntity
  8
30
  6
Continuous
100
AcDbDimension
280
     0
  2
*D31
 10
243.1984000910952
 20
380.2739106168809
 30
0.0
 11
238.1984000910951
 21
405.2739106168806
 31
0.0
 70
    32
 71
     5
 42
50.0
 73
     0
 74
     0
 75
     0
  3
STANDARD
100
AcDbAlignedDimension
 13
282.134638074529
 23
430.2739106168806
 33
0.0
 14
282.134638074529
 24
380.2739106168809
 34
0.0
 50
90.0
100
AcDbRotatedDimension
1001
ACAD
1000
DSTYLE
1002
{
1070
    79
1070
     3
1002
}
  0
CIRCLE
  5
117D1
330
1E
100
AcDbEntity
  8
17
  6
CONTINOUS
100
AcDbCircle
 10
445.2012128532071
 20
459.2056308965878
 30
0.0
 40
4.5
  0
LINE
  5
117D2
330
1E
100
AcDbEntity
  8
24
  6
Continuous
100
AcDbLine
 10
455.2012130874571
 20
450.2056308618376
 30
0.0
 11
455.2012130874571
 21
474.9543278073377
 31
0.0
  0
LINE
  5
117D3
330
1E
100
AcDbEntity
  8
24
  6
Continuous
100
AcDbLine
 10
435.201212602957
 20
450.2056308618376
 30
0.0
 11
455.2012130874571
 21
450.2056308618376
 31
0.0
  0
LINE
  5
117D4
330
1E
100
AcDbEntity
  8
24
  6
Continuous
100
AcDbLine
 10
435.201212602957
 20
474.9543278073377
 30
0.0
 11
435.201212602957
 21
450.2056308618376
 31
0.0
  0
SPLINE
  5
117D5
330
1E
100
AcDbEntity
  8
24
  6
Continuous
100
AcDbSpline
210
0.0
220
0.0
230
1.0
 70
     8
 71
     3
 72
     9
 73
     5
 74
     0
 42
0.000000001
 43
0.0000000001
 40
0.0
 40
0.0
 40
0.0
 40
0.0
 40
0.4831447904732653
 40
1.0
 40
1.0
 40
1.0
 40
1.0
 10
455.2012128530825
 20
474.9543278770747
 30
0.0
 10
451.7867161631281
 20
470.1580850011539
 30
0.0
 10
444.9860997274738
 20
474.598397362299
 30
0.0
 10
438.1249145064129
 20
481.2047454198575
 30
0.0
 10
435.2012128530828
 20
474.9543278770747
 30
0.0
  0
DIMENSION
  5
117D6
330
1E
100
AcDbEntity
  8
30
  6
Continuous
100
AcDbDimension
280
     0
  2
*D32
 10
472.2704695056099
 20
450.2056308965878
 30
0.0
 11
472.2704695056099
 21
481.0056308965878
 31
0.0
 70
   160
  1
<> (max.)
 71
     2
 42
9.0
 73
     0
 74
     0
 75
     0
  3
STANDARD1
100
AcDbAlignedDimension
 13
452.2012128532071
 23
459.2056308965878
 33
0.0
 14
455.201212853207
 24
450.2056308965878
 34
0.0
 50
90.0
100
AcDbRotatedDimension
  0
DIMENSION
  5
117D7
330
1E
100
AcDbEntity
  8
30
  6
Continuous
100
AcDbDimension
280
     0
  2
*D33
 10
455.201212853207
 20
436.9686787924732
 30
0.0
 11
405.471512283105
 21
436.9686787924732
 31
0.0
 70
   160
  1
<> (max.)\Pmax. t6
 71
     2
 42
20.0
 73
     0
 74
     0
 75
     0
  3
STANDARD
100
AcDbAlignedDimension
 13
435.2012128532071
 23
450.2056308965878
 33
0.0
 14
455.201212853207
 24
450.2056308965878
 34
0.0
100
AcDbRotatedDimension
  0
INSERT
  5
117D8
330
1E
100
AcDbEntity
  8
17
  6
DASHDOT
100
AcDbBlockReference
  2
SW_CENTERMARKSYMBOL_24
 10
445.2012128532071
 20
459.2056308965878
 30
0.0
 41
2.5
 42
2.5
 43
2.5
  0
TEXT
  5
117D9
330
1E
100
AcDbEntity
  8
30
  6
Continuous
100
AcDbText
 10
421.6532818667245
 20
482.0884204495532
 30
0.0
 40
5.0
  1
%%c9
  7
STANDARD1
100
AcDbText
  0
LEADER
  5
117DA
330
1E
100
AcDbEntity
  8
30
  6
Continuous
100
AcDbLeader
  3
STANDARD
 76
     3
 10
442.9529698935202
 20
461.0891319704501
 30
0.0
 10
433.6169722649628
 20
480.1961381062506
 30
0.0
 10
420.2798287396952
 20
480.6404865252916
 30
0.0
213
0.0
223
2.0
233
0.0
1001
ACAD
1000
DSTYLE
1002
{
1070
     5
1000
OPEN
1070
    77
1070
     0
1070
    79
1070
     3
1070
   147
1040
1.0
1070
   342
1005
3B2
1002
}
  0
CIRCLE
  5
11B50
330
1E
100
AcDbEntity
  8
24
  6
CONTINOUS
100
AcDbCircle
 10
146.9950841023275
 20
468.1790700625992
 30
0.0
 40
3.5
  0
LINE
  5
11B51
330
1E
100
AcDbEntity
  8
17
  6
DASHDOT
100
AcDbLine
 10
139.9950841023276
 20
468.1790700625992
 30
0.0
 11
153.9950841023276
 21
468.1790700625992
 31
0.0
  0
LINE
  5
11B52
330
1E
100
AcDbEntity
  8
10
  6
CONTINOUS
100
AcDbLine
 10
150.7450841023277
 20
462.1790700625991
 30
0.0
 11
143.2450841023277
 21
462.1790700625991
 31
0.0
  0
ARC
  5
11B53
330
1E
100
AcDbEntity
  8
10
  6
CONTINOUS
100
AcDbCircle
 10
-143.2450841023277
 20
467.1790700625991
 30
0.0
 40
5.0
210
0.0
220
0.0
230
-1.0
100
AcDbArc
 50
270.0
 51
0.0
  0
LINE
  5
11B55
330
1E
100
AcDbEntity
  8
10
  6
CONTINOUS
100
AcDbLine
 10
155.7450841023277
 20
467.1790700625991
 30
0.0
 11
155.7450841023277
 21
476.179070046099
 31
0.0
  0
ARC
  5
11B56
330
1E
100
AcDbEntity
  8
10
  6
CONTINOUS
100
AcDbCircle
 10
-150.7450841023277
 20
467.1790700625991
 30
0.0
 40
5.0
210
0.0
220
0.0
230
-1.0
100
AcDbArc
 50
180.0
 51
270.0
  0
LINE
  5
11B57
330
1E
100
AcDbEntity
  8
10
  6
CONTINOUS
100
AcDbLine
 10
138.2450841023276
 20
467.1790700625991
 30
0.0
 11
138.2450841023276
 21
476.179070046099
 31
0.0
  0
LINE
  5
11B58
330
1E
100
AcDbEntity
  8
17
  6
DASHDOT
100
AcDbLine
 10
146.9950841023275
 20
475.1312116653489
 30
0.0
 11
146.9950841023275
 21
461.1312116653492
 31
0.0
  0
LINE
  5
11B5A
330
1E
100
AcDbEntity
  8
10
  6
Continuous
100
AcDbLine
 10
161.9950841023277
 20
476.0822830833491
 30
0.0
 11
161.9950841023277
 21
346.0822830833491
 31
0.0
  0
LINE
  5
11BA4
330
1E
100
AcDbEntity
  8
24
  6
CONTINOUS
100
AcDbLine
 10
136.4950841023276
 20
624.2661250779621
 30
0.0
 11
157.4950841023277
 21
624.2661250779621
 31
0.0
  0
LINE
  5
11BA5
330
1E
100
AcDbEntity
  8
24
  6
CONTINOUS
100
AcDbLine
 10
141.9950841023277
 20
615.0661250779617
 30
0.0
 11
151.9950841023276
 21
615.0661250779617
 31
0.0
  0
LINE
  5
11BA6
330
1E
100
AcDbEntity
  8
24
  6
CONTINOUS
100
AcDbLine
 10
139.2950841023277
 20
620.266125077962
 30
0.0
 11
154.6950841023277
 21
620.266125077962
 31
0.0
  0
LINE
  5
11BA7
330
1E
100
AcDbEntity
  8
24
  6
CONTINOUS
100
AcDbLine
 10
136.4950841023276
 20
622.2661250779621
 30
0.0
 11
157.4950841023277
 21
622.2661250779621
 31
0.0
  0
LINE
  5
11BA8
330
1E
100
AcDbEntity
  8
24
  6
CONTINOUS
100
AcDbLine
 10
139.2950841023277
 20
620.266125077962
 30
0.0
 11
139.2950841023277
 21
622.2661250779621
 31
0.0
  0
LINE
  5
11BA9
330
1E
100
AcDbEntity
  8
17
  6
DASHDOT
100
AcDbLine
 10
146.9950841023275
 20
610.0661250779617
 30
0.0
 11
146.9950841023275
 21
627.2661250779621
 31
0.0
  0
ARC
  5
11BAA
330
1E
100
AcDbEntity
  8
24
  6
CONTINOUS
100
AcDbCircle
 10
141.9950841023277
 20
617.0661250779617
 30
0.0
 40
2.0
100
AcDbArc
 50
180.0
 51
270.0
  0
LINE
  5
11BAB
330
1E
100
AcDbEntity
  8
24
  6
CONTINOUS
100
AcDbLine
 10
139.9950841023277
 20
617.0661250779617
 30
0.0
 11
139.9950841023277
 21
620.266125077962
 31
0.0
  0
LINE
  5
11BAC
330
1E
100
AcDbEntity
  8
24
  6
CONTINOUS
100
AcDbLine
 10
154.6950841023277
 20
620.266125077962
 30
0.0
 11
154.6950841023277
 21
622.2661250779621
 31
0.0
  0
LINE
  5
11BAD
330
1E
100
AcDbEntity
  8
24
  6
CONTINOUS
100
AcDbLine
 10
153.9950841023276
 20
617.0661250779617
 30
0.0
 11
153.9950841023276
 21
620.266125077962
 31
0.0
  0
ARC
  5
11BAE
330
1E
100
AcDbEntity
  8
24
  6
CONTINOUS
100
AcDbCircle
 10
151.9950841023277
 20
617.0661250779617
 30
0.0
 40
2.0
100
AcDbArc
 50
270.0
 51
0.0
  0
LINE
  5
11BAF
330
1E
100
AcDbEntity
  8
24
  6
CONTINOUS
100
AcDbLine
 10
157.4950841023277
 20
622.2661250779621
 30
0.0
 11
157.4950841023277
 21
624.2661250779621
 31
0.0
  0
LINE
  5
11BB0
330
1E
100
AcDbEntity
  8
24
  6
CONTINOUS
100
AcDbLine
 10
136.4950841023276
 20
622.2661250779621
 30
0.0
 11
136.4950841023276
 21
624.2661250779621
 31
0.0
  0
DIMENSION
  5
11BB1
330
1E
100
AcDbEntity
  8
30
  6
Continuous
100
AcDbDimension
280
     0
  2
*D34
 10
146.9950841023275
 20
661.1548470086896
 30
0.0
 11
131.9950841023276
 21
666.1548470086897
 31
0.0
 70
    32
 71
     5
 42
30.00000000000002
 73
     0
 74
     0
 75
     0
  3
STANDARD1
100
AcDbAlignedDimension
 13
116.9950841023276
 23
628.2661250779621
 33
0.0
 14
146.9950841023275
 24
627.2661250779621
 34
0.0
100
AcDbRotatedDimension
  0
LINE
  5
11C6A
330
1E
100
AcDbEntity
  8
10
  6
Continuous
100
AcDbLine
 10
150.0329195344356
 20
448.6045571199144
 30
0.0
 11
151.0329195344356
 21
449.6045571199144
 31
0.0
  0
LINE
  5
11C6B
330
1E
100
AcDbEntity
  8
10
  6
Continuous
100
AcDbLine
 10
145.0329195344357
 20
449.9505346199141
 30
0.0
 11
145.0329195344357
 21
442.2510021199143
 31
0.0
  0
LINE
  5
11C6C
330
1E
100
AcDbEntity
  8
10
  6
Continuous
100
AcDbLine
 10
150.0329195344356
 20
450.7258771199141
 30
0.0
 11
151.0329195344356
 21
451.725877119914
 31
0.0
  0
LINE
  5
11C6D
330
1E
100
AcDbEntity
  8
10
  6
Continuous
100
AcDbLine
 10
144.0329195344357
 20
442.604557119914
 30
0.0
 11
145.0329195344357
 21
443.6045571199143
 31
0.0
  0
LINE
  5
11C6E
330
1E
100
AcDbEntity
  8
10
  6
Continuous
100
AcDbLine
 10
145.1710970344359
 20
449.7531396199144
 30
0.0
 11
145.8891295344358
 21
450.4711721199142
 31
0.0
  0
LINE
  5
11C6F
330
1E
100
AcDbEntity
  8
10
  6
Continuous
100
AcDbLine
 10
150.0329195344356
 20
446.4832346199141
 30
0.0
 11
151.0329195344356
 21
447.4832346199144
 31
0.0
  0
LINE
  5
11C70
330
1E
100
AcDbEntity
  8
10
  6
Continuous
100
AcDbLine
 10
150.0329195344356
 20
447.5438946199146
 30
0.0
 11
151.0329195344356
 21
448.5438946199144
 31
0.0
  0
LINE
  5
11C71
330
1E
100
AcDbEntity
  8
10
  6
Continuous
100
AcDbLine
 10
150.0329195344356
 20
445.0690221199144
 30
0.0
 11
151.0329195344356
 21
446.0690221199142
 31
0.0
  0
LINE
  5
11C72
330
1E
100
AcDbEntity
  8
10
  6
Continuous
100
AcDbLine
 10
149.6841020344358
 20
443.305989619914
 30
0.0
 11
151.0329195344356
 21
444.6548096199141
 31
0.0
  0
LINE
  5
11C73
330
1E
100
AcDbEntity
  8
10
  6
Continuous
100
AcDbLine
 10
144.0329195344357
 20
442.9581096199141
 30
0.0
 11
145.0329195344357
 21
443.9581096199141
 31
0.0
  0
LINE
  5
11C74
330
1E
100
AcDbEntity
  8
10
  6
Continuous
100
AcDbLine
 10
144.0329195344357
 20
448.6149646199142
 30
0.0
 11
145.0329195344357
 21
449.6149646199142
 31
0.0
  0
LINE
  5
11C75
330
1E
100
AcDbEntity
  8
10
  6
Continuous
100
AcDbLine
 10
144.0329195344357
 20
449.6756246199144
 30
0.0
 11
145.452387034436
 21
451.0950896199146
 31
0.0
  0
LINE
  5
11C76
330
1E
100
AcDbEntity
  8
10
  6
Continuous
100
AcDbLine
 10
148.6650345344358
 20
444.7617971199145
 30
0.0
 11
149.3830670344359
 21
445.4798296199141
 31
0.0
  0
LINE
  5
11C77
330
1E
100
AcDbEntity
  8
10
  6
Continuous
100
AcDbLine
 10
149.8296820344358
 20
443.0980171199142
 30
0.0
 11
151.0329195344356
 21
444.3012546199143
 31
0.0
  0
LINE
  5
11C78
330
1E
100
AcDbEntity
  8
10
  6
Continuous
100
AcDbLine
 10
150.0329195344356
 20
446.8367896199142
 30
0.0
 11
151.0329195344356
 21
447.836789619914
 31
0.0
  0
LINE
  5
11C79
330
1E
100
AcDbEntity
  8
10
  6
Continuous
100
AcDbLine
 10
144.0329195344357
 20
451.0898371199145
 30
0.0
 11
144.8700620344359
 21
451.9269796199142
 31
0.0
  0
LINE
  5
11C7A
330
1E
100
AcDbEntity
  8
10
  6
Continuous
100
AcDbLine
 10
145.4622570344358
 20
449.3371946199144
 30
0.0
 11
146.1802895344358
 21
450.0552271199142
 31
0.0
  0
LINE
  5
11C7B
330
1E
100
AcDbEntity
  8
10
  6
Continuous
100
AcDbLine
 10
144.0329195344357
 20
445.7865371199145
 30
0.0
 11
145.0329195344357
 21
446.7865371199143
 31
0.0
  0
LINE
  5
11C7C
330
1E
100
AcDbEntity
  8
10
  6
Continuous
100
AcDbLine
 10
144.0329195344357
 20
444.7258771199141
 30
0.0
 11
145.0329195344357
 21
445.7258771199142
 31
0.0
  0
LINE
  5
11C7D
330
1E
100
AcDbEntity
  8
10
  6
Continuous
100
AcDbLine
 10
145.3166770344358
 20
449.5451671199141
 30
0.0
 11
146.0347095344356
 21
450.2631996199144
 31
0.0
  0
LINE
  5
11C7E
330
1E
100
AcDbEntity
  8
10
  6
Continuous
100
AcDbLine
 10
147.7915495344359
 20
446.0096321199142
 30
0.0
 11
148.5095845344358
 21
446.7276671199144
 31
0.0
  0
LINE
  5
11C7F
330
1E
100
AcDbEntity
  8
10
  6
Continuous
100
AcDbLine
 10
150.0329195344356
 20
446.1296821199144
 30
0.0
 11
151.0329195344356
 21
447.1296821199142
 31
0.0
  0
LINE
  5
11C80
330
1E
100
AcDbEntity
  8
10
  6
Continuous
100
AcDbLine
 10
151.0329195344356
 20
442.2510021199143
 30
0.0
 11
151.0329195344356
 21
452.2510021199144
 31
0.0
  0
LINE
  5
11C81
330
1E
100
AcDbEntity
  8
10
  6
Continuous
100
AcDbLine
 10
144.0329195344357
 20
450.3827296199139
 30
0.0
 11
145.1612245344358
 21
451.5110346199143
 31
0.0
  0
LINE
  5
11C82
330
1E
100
AcDbEntity
  8
10
  6
Continuous
100
AcDbLine
 10
144.0329195344357
 20
450.0291771199144
 30
0.0
 11
145.3068045344356
 21
451.3030621199144
 31
0.0
  0
LINE
  5
11C83
330
1E
100
AcDbEntity
  8
10
  6
Continuous
100
AcDbLine
 10
150.0329195344356
 20
447.8974496199139
 30
0.0
 11
151.0329195344356
 21
448.897449619914
 31
0.0
  0
LINE
  5
11C84
330
1E
100
AcDbEntity
  8
10
  6
Continuous
100
AcDbLine
 10
144.0329195344357
 20
446.1400896199141
 30
0.0
 11
145.0329195344357
 21
447.1400896199144
 31
0.0
  0
LINE
  5
11C85
330
1E
100
AcDbEntity
  8
10
  6
Continuous
100
AcDbLine
 10
149.2473595344359
 20
443.9299071199144
 30
0.0
 11
149.9653920344358
 21
444.6479396199142
 31
0.0
  0
LINE
  5
11C86
330
1E
100
AcDbEntity
  8
10
  6
Continuous
100
AcDbLine
 10
146.6269045344358
 20
447.6734146199141
 30
0.0
 11
147.3449370344356
 21
448.3914471199141
 31
0.0
  0
LINE
  5
11C87
330
1E
100
AcDbEntity
  8
10
  6
Continuous
100
AcDbLine
 10
146.9180670344358
 20
447.2574696199142
 30
0.0
 11
147.6360995344356
 21
447.9755021199145
 31
0.0
  0
LINE
  5
11C88
330
1E
100
AcDbEntity
  8
10
  6
Continuous
100
AcDbLine
 10
144.3864745344358
 20
442.2510021199143
 30
0.0
 11
145.0329195344357
 21
442.8974496199142
 31
0.0
  0
LINE
  5
11C89
330
1E
100
AcDbEntity
  8
10
  6
Continuous
100
AcDbLine
 10
144.0329195344357
 20
451.4433896199141
 30
0.0
 11
144.7244820344358
 21
452.1349521199142
 31
0.0
  0
LINE
  5
11C8A
330
1E
100
AcDbEntity
  8
10
  6
Continuous
100
AcDbLine
 10
144.0329195344357
 20
452.2510021199144
 30
0.0
 11
144.6432470344359
 21
452.2510021199144
 31
0.0
  0
LINE
  5
11C8B
330
1E
100
AcDbEntity
  8
10
  6
Continuous
100
AcDbLine
 10
144.0329195344357
 20
445.0794296199141
 30
0.0
 11
145.0329195344357
 21
446.0794296199144
 31
0.0
  0
LINE
  5
11C8C
330
1E
100
AcDbEntity
  8
10
  6
Continuous
100
AcDbLine
 10
144.0329195344357
 20
442.2510021199143
 30
0.0
 11
145.0329195344357
 21
443.2510021199145
 31
0.0
  0
LINE
  5
11C8D
330
1E
100
AcDbEntity
  8
10
  6
Continuous
100
AcDbLine
 10
144.7400270344356
 20
442.2510021199143
 30
0.0
 11
145.0329195344357
 21
442.5438946199145
 31
0.0
  0
LINE
  5
11C8E
330
1E
100
AcDbEntity
  8
10
  6
Continuous
100
AcDbLine
 10
150.0329195344356
 20
444.5514721199144
 30
0.0
 11
150.0329195344356
 21
452.2510021199144
 31
0.0
  0
LINE
  5
11C8F
330
1E
100
AcDbEntity
  8
10
  6
Continuous
100
AcDbLine
 10
150.2664245344358
 20
442.4740996199145
 30
0.0
 11
151.0329195344356
 21
443.2405946199144
 31
0.0
  0
LINE
  5
11C90
330
1E
100
AcDbEntity
  8
10
  6
Continuous
100
AcDbLine
 10
150.0329195344356
 20
445.4225746199144
 30
0.0
 11
151.0329195344356
 21
446.4225746199144
 31
0.0
  0
LINE
  5
11C91
330
1E
100
AcDbEntity
  8
10
  6
Continuous
100
AcDbLine
 10
145.6078395344357
 20
449.1292221199142
 30
0.0
 11
146.3258720344358
 21
449.8472546199144
 31
0.0
  0
LINE
  5
11C92
330
1E
100
AcDbEntity
  8
10
  6
Continuous
100
AcDbLine
 10
146.1901620344356
 20
448.2973321199138
 30
0.0
 11
146.908194534436
 21
449.0153646199145
 31
0.0
  0
LINE
  5
11C93
330
1E
100
AcDbEntity
  8
10
  6
Continuous
100
AcDbLine
 10
150.0329195344356
 20
444.7154696199143
 30
0.0
 11
151.0329195344356
 21
445.7154696199144
 31
0.0
  0
LINE
  5
11C94
330
1E
100
AcDbEntity
  8
10
  6
Continuous
100
AcDbLine
 10
148.8106170344358
 20
444.5538246199141
 30
0.0
 11
149.5286495344356
 21
445.2718571199142
 31
0.0
  0
LINE
  5
11C95
330
1E
100
AcDbEntity
  8
10
  6
Continuous
100
AcDbLine
 10
144.0329195344357
 20
443.3116621199144
 30
0.0
 11
145.0329195344357
 21
444.3116621199142
 31
0.0
  0
LINE
  5
11C96
330
1E
100
AcDbEntity
  8
10
  6
Continuous
100
AcDbLine
 10
144.0329195344357
 20
447.2007496199142
 30
0.0
 11
145.0329195344357
 21
448.2007496199145
 31
0.0
  0
LINE
  5
11C97
330
1E
100
AcDbEntity
  8
10
  6
Continuous
100
AcDbLine
 10
150.1208445344355
 20
442.6820721199142
 30
0.0
 11
151.0329195344356
 21
443.5941496199139
 31
0.0
  0
LINE
  5
11C98
330
1E
100
AcDbEntity
  8
10
  6
Continuous
100
AcDbLine
 10
150.0329195344356
 20
448.9581096199142
 30
0.0
 11
151.0329195344356
 21
449.9581096199141
 31
0.0
  0
LINE
  5
11C99
330
1E
100
AcDbEntity
  8
10
  6
Continuous
100
AcDbLine
 10
150.0329195344356
 20
452.2510021199144
 30
0.0
 11
151.0329195344356
 21
452.2510021199144
 31
0.0
  0
LINE
  5
11C9A
330
1E
100
AcDbEntity
  8
10
  6
Continuous
100
AcDbLine
 10
150.0329195344356
 20
449.6652171199143
 30
0.0
 11
151.0329195344356
 21
450.6652171199144
 31
0.0
  0
LINE
  5
11C9B
330
1E
100
AcDbEntity
  8
10
  6
Continuous
100
AcDbLine
 10
145.8989995344358
 20
448.7132771199144
 30
0.0
 11
146.6170320344358
 21
449.4313096199144
 31
0.0
  0
LINE
  5
11C9C
330
1E
100
AcDbEntity
  8
10
  6
Continuous
100
AcDbLine
 10
150.0329195344356
 20
452.1400896199144
 30
0.0
 11
150.1438320344359
 21
452.2510021199144
 31
0.0
  0
LINE
  5
11C9D
330
1E
100
AcDbEntity
  8
10
  6
Continuous
100
AcDbLine
 10
144.0329195344357
 20
442.2510021199143
 30
0.0
 11
144.0329195344357
 21
452.2510021199144
 31
0.0
  0
LINE
  5
11C9E
330
1E
100
AcDbEntity
  8
10
  6
Continuous
100
AcDbLine
 10
149.5385195344361
 20
443.5139621199144
 30
0.0
 11
151.0329195344356
 21
445.0083621199143
 31
0.0
  0
LINE
  5
11C9F
330
1E
100
AcDbEntity
  8
10
  6
Continuous
100
AcDbLine
 10
148.5194545344359
 20
444.9697696199142
 30
0.0
 11
149.2374870344356
 21
445.6878021199144
 31
0.0
  0
LINE
  5
11CA0
330
1E
100
AcDbEntity
  8
10
  6
Continuous
100
AcDbLine
 10
144.0329195344357
 20
450.7362846199142
 30
0.0
 11
145.015644534436
 21
451.7190071199144
 31
0.0
  0
LINE
  5
11CA1
330
1E
100
AcDbEntity
  8
10
  6
Continuous
100
AcDbLine
 10
150.0329195344356
 20
447.1903421199142
 30
0.0
 11
151.0329195344356
 21
448.1903421199142
 31
0.0
  0
LINE
  5
11CA2
330
1E
100
AcDbEntity
  8
10
  6
Continuous
100
AcDbLine
 10
150.3968820344359
 20
442.2510021199143
 30
0.0
 11
151.0329195344356
 21
442.8870421199141
 31
0.0
  0
LINE
  5
11CA3
330
1E
100
AcDbEntity
  8
10
  6
Continuous
100
AcDbLine
 10
147.2092270344358
 20
446.8415246199142
 30
0.0
 11
147.9272595344357
 21
447.5595571199144
 31
0.0
  0
LINE
  5
11CA4
330
1E
100
AcDbEntity
  8
10
  6
Continuous
100
AcDbLine
 10
144.0329195344357
 20
452.1504971199141
 30
0.0
 11
144.1334245344358
 21
452.2510021199144
 31
0.0
  0
LINE
  5
11CA5
330
1E
100
AcDbEntity
  8
10
  6
Continuous
100
AcDbLine
 10
149.3929395344356
 20
443.7219346199142
 30
0.0
 11
151.0329195344356
 21
445.3619146199144
 31
0.0
  0
LINE
  5
11CA6
330
1E
100
AcDbEntity
  8
10
  6
Continuous
100
AcDbLine
 10
144.0329195344357
 20
447.9078571199144
 30
0.0
 11
145.0329195344357
 21
448.9078571199142
 31
0.0
  0
LINE
  5
11CA7
330
1E
100
AcDbEntity
  8
10
  6
Continuous
100
AcDbLine
 10
147.645969534436
 20
446.2176071199144
 30
0.0
 11
148.3640020344358
 21
446.9356396199141
 31
0.0
  0
LINE
  5
11CA8
330
1E
100
AcDbEntity
  8
10
  6
Continuous
100
AcDbLine
 10
144.0329195344357
 20
444.0187696199144
 30
0.0
 11
145.0329195344357
 21
445.0187696199144
 31
0.0
  0
LINE
  5
11CA9
330
1E
100
AcDbEntity
  8
10
  6
Continuous
100
AcDbLine
 10
144.0329195344357
 20
446.8471971199144
 30
0.0
 11
145.0329195344357
 21
447.8471971199144
 31
0.0
  0
LINE
  5
11CAA
330
1E
100
AcDbEntity
  8
10
  6
Continuous
100
AcDbLine
 10
144.0329195344357
 20
446.4936421199143
 30
0.0
 11
145.0329195344357
 21
447.4936421199144
 31
0.0
  0
LINE
  5
11CAB
330
1E
100
AcDbEntity
  8
10
  6
Continuous
100
AcDbLine
 10
149.1017770344358
 20
444.1378796199142
 30
0.0
 11
149.8198095344358
 21
444.8559121199145
 31
0.0
  0
LINE
  5
11CAC
330
1E
100
AcDbEntity
  8
10
  6
Continuous
100
AcDbLine
 10
144.0329195344357
 20
451.7969446199144
 30
0.0
 11
144.4869795344359
 21
452.2510021199144
 31
0.0
  0
LINE
  5
11CAD
330
1E
100
AcDbEntity
  8
10
  6
Continuous
100
AcDbLine
 10
145.753419534436
 20
448.9212496199144
 30
0.0
 11
146.4714520344356
 21
449.6392821199144
 31
0.0
  0
LINE
  5
11CAE
330
1E
100
AcDbEntity
  8
10
  6
Continuous
100
AcDbLine
 10
149.9752620344357
 20
442.8900446199143
 30
0.0
 11
151.0329195344356
 21
443.9477021199144
 31
0.0
  0
LINE
  5
11CAF
330
1E
100
AcDbEntity
  8
10
  6
Continuous
100
AcDbLine
 10
144.0329195344357
 20
442.2510021199143
 30
0.0
 11
145.0329195344357
 21
442.2510021199143
 31
0.0
  0
LINE
  5
11CB0
330
1E
100
AcDbEntity
  8
10
  6
Continuous
100
AcDbLine
 10
144.6432470344359
 20
452.2510021199144
 30
0.0
 11
150.0329195344356
 21
444.5514721199144
 31
0.0
  0
LINE
  5
11CB1
330
1E
100
AcDbEntity
  8
10
  6
Continuous
100
AcDbLine
 10
147.5003895344356
 20
446.4255796199144
 30
0.0
 11
148.2184220344359
 21
447.1436121199141
 31
0.0
  0
LINE
  5
11CB2
330
1E
100
AcDbEntity
  8
10
  6
Continuous
100
AcDbLine
 10
150.7504345344356
 20
442.2510021199143
 30
0.0
 11
151.0329195344356
 21
442.5334871199144
 31
0.0
  0
LINE
  5
11CB3
330
1E
100
AcDbEntity
  8
10
  6
Continuous
100
AcDbLine
 10
144.0329195344357
 20
448.2614096199144
 30
0.0
 11
145.0329195344357
 21
449.2614096199145
 31
0.0
  0
LINE
  5
11CB4
330
1E
100
AcDbEntity
  8
10
  6
Continuous
100
AcDbLine
 10
144.0329195344357
 20
449.3220696199141
 30
0.0
 11
145.5979670344359
 21
450.8871171199141
 31
0.0
  0
LINE
  5
11CB5
330
1E
100
AcDbEntity
  8
10
  6
Continuous
100
AcDbLine
 10
148.228292034436
 20
445.3857146199144
 30
0.0
 11
148.9463270344358
 21
446.103747119914
 31
0.0
  0
LINE
  5
11CB6
330
1E
100
AcDbEntity
  8
10
  6
Continuous
100
AcDbLine
 10
150.0329195344356
 20
451.0794296199144
 30
0.0
 11
151.0329195344356
 21
452.079429619914
 31
0.0
  0
LINE
  5
11CB7
330
1E
100
AcDbEntity
  8
10
  6
Continuous
100
AcDbLine
 10
151.0329195344356
 20
442.2510021199143
 30
0.0
 11
150.4225920344358
 21
442.2510021199143
 31
0.0
  0
LINE
  5
11CB8
330
1E
100
AcDbEntity
  8
10
  6
Continuous
100
AcDbLine
 10
150.0329195344356
 20
450.3723221199144
 30
0.0
 11
151.0329195344356
 21
451.3723221199141
 31
0.0
  0
LINE
  5
11CB9
330
1E
100
AcDbEntity
  8
10
  6
Continuous
100
AcDbLine
 10
150.0329195344356
 20
451.7865371199142
 30
0.0
 11
150.4973870344356
 21
452.2510021199144
 31
0.0
  0
LINE
  5
11CBA
330
1E
100
AcDbEntity
  8
10
  6
Continuous
100
AcDbLine
 10
145.0329195344357
 20
449.9505346199141
 30
0.0
 11
150.4225920344358
 21
442.2510021199143
 31
0.0
  0
LINE
  5
11CBB
330
1E
100
AcDbEntity
  8
10
  6
Continuous
100
AcDbLine
 10
144.0329195344357
 20
447.5543046199142
 30
0.0
 11
145.0329195344357
 21
448.5543046199142
 31
0.0
  0
LINE
  5
11CBC
330
1E
100
AcDbEntity
  8
10
  6
Continuous
100
AcDbLine
 10
147.9371320344356
 20
445.8016596199143
 30
0.0
 11
148.6551645344357
 21
446.519694619914
 31
0.0
  0
LINE
  5
11CBD
330
1E
100
AcDbEntity
  8
10
  6
Continuous
100
AcDbLine
 10
144.0329195344357
 20
448.9685171199145
 30
0.0
 11
145.7435470344358
 21
450.6791446199143
 31
0.0
  0
LINE
  5
11CBE
330
1E
100
AcDbEntity
  8
10
  6
Continuous
100
AcDbLine
 10
150.0329195344356
 20
451.4329821199141
 30
0.0
 11
150.8509395344358
 21
452.2510021199144
 31
0.0
  0
LINE
  5
11CBF
330
1E
100
AcDbEntity
  8
10
  6
Continuous
100
AcDbLine
 10
147.3548070344359
 20
446.6335521199144
 30
0.0
 11
148.0728420344358
 21
447.351584619914
 31
0.0
  0
LINE
  5
11CC0
330
1E
100
AcDbEntity
  8
10
  6
Continuous
100
AcDbLine
 10
148.3738745344358
 20
445.1777421199141
 30
0.0
 11
149.0919070344357
 21
445.8957746199143
 31
0.0
  0
LINE
  5
11CC1
330
1E
100
AcDbEntity
  8
10
  6
Continuous
100
AcDbLine
 10
150.0329195344356
 20
449.3116621199142
 30
0.0
 11
151.0329195344356
 21
450.3116621199142
 31
0.0
  0
LINE
  5
11CC2
330
1E
100
AcDbEntity
  8
10
  6
Continuous
100
AcDbLine
 10
150.0329195344356
 20
448.2510021199144
 30
0.0
 11
151.0329195344356
 21
449.2510021199143
 31
0.0
  0
LINE
  5
11CC3
330
1E
100
AcDbEntity
  8
10
  6
Continuous
100
AcDbLine
 10
150.0329195344356
 20
445.7761296199142
 30
0.0
 11
151.0329195344356
 21
446.7761296199141
 31
0.0
  0
LINE
  5
11CC4
330
1E
100
AcDbEntity
  8
10
  6
Continuous
100
AcDbLine
 10
146.4813245344356
 20
447.8813871199143
 30
0.0
 11
147.1993570344356
 21
448.5994196199141
 31
0.0
  0
LINE
  5
11CC5
330
1E
100
AcDbEntity
  8
10
  6
Continuous
100
AcDbLine
 10
144.0329195344357
 20
445.4329821199142
 30
0.0
 11
145.0329195344357
 21
446.4329821199141
 31
0.0
  0
LINE
  5
11CC6
330
1E
100
AcDbEntity
  8
10
  6
Continuous
100
AcDbLine
 10
147.0636470344359
 20
447.0494971199143
 30
0.0
 11
147.7816795344358
 21
447.7675296199142
 31
0.0
  0
LINE
  5
11CC7
330
1E
100
AcDbEntity
  8
10
  6
Continuous
100
AcDbLine
 10
148.0827120344356
 20
445.5936871199145
 30
0.0
 11
148.800744534436
 21
446.3117196199144
 31
0.0
  0
LINE
  5
11CC8
330
1E
100
AcDbEntity
  8
10
  6
Continuous
100
AcDbLine
 10
146.7724845344358
 20
447.4654421199144
 30
0.0
 11
147.4905170344359
 21
448.1834746199144
 31
0.0
  0
LINE
  5
11CC9
330
1E
100
AcDbEntity
  8
10
  6
Continuous
100
AcDbLine
 10
144.0329195344357
 20
444.3723221199141
 30
0.0
 11
145.0329195344357
 21
445.3723221199144
 31
0.0
  0
LINE
  5
11CCA
330
1E
100
AcDbEntity
  8
10
  6
Continuous
100
AcDbLine
 10
150.0329195344356
 20
450.0187696199143
 30
0.0
 11
151.0329195344356
 21
451.0187696199143
 31
0.0
  0
LINE
  5
11CCB
330
1E
100
AcDbEntity
  8
10
  6
Continuous
100
AcDbLine
 10
146.0445820344357
 20
448.5053046199143
 30
0.0
 11
146.7626145344356
 21
449.2233371199141
 31
0.0
  0
LINE
  5
11CCC
330
1E
100
AcDbEntity
  8
10
  6
Continuous
100
AcDbLine
 10
144.0329195344357
 20
443.6652171199141
 30
0.0
 11
145.0329195344357
 21
444.6652171199144
 31
0.0
  0
LINE
  5
11CCD
330
1E
100
AcDbEntity
  8
10
  6
Continuous
100
AcDbLine
 10
148.9561970344359
 20
444.3458521199143
 30
0.0
 11
149.6742295344358
 21
445.0638846199141
 31
0.0
  0
LINE
  5
11CCE
330
1E
100
AcDbEntity
  8
10
  6
Continuous
100
AcDbLine
 10
146.3357420344359
 20
448.0893596199142
 30
0.0
 11
147.0537745344359
 21
448.8073921199144
 31
0.0
  0
CIRCLE
  5
11CCF
330
1E
100
AcDbEntity
  8
10
  6
Continuous
100
AcDbCircle
 10
147.5329195344357
 20
447.2510021199145
 30
0.0
 40
8.0
  0
VIEWPORT
  5
9AC
330
1A
100
AcDbEntity
 67
     1
  8
0
  6
Continuous
348
629D
100
AcDbViewport
 10
5.613749947134903
 20
3.902083231708196
 30
0.0
 40
14.87469589274309
 41
8.746133096049151
 68
     1
 69
     1
 12
5.613749947134903
 22
3.902083231708196
 13
0.0
 23
0.0
 14
10.0
 24
10.0
 15
10.0
 25
10.0
 16
0.0
 26
0.0
 36
1.0
 17
0.0
 27
0.0
 37
0.0
 42
50.0
 43
0.0
 44
0.0
 45
8.746133096049151
 50
0.0
 51
0.0
 72
   100
 90
    32800
  1

281
     0
 71
     1
 74
     0
110
0.0
120
0.0
130
0.0
111
1.0
121
0.0
131
0.0
112
0.0
122
1.0
132
0.0
 79
     0
146
0.0
170
     0
 61
     5
292
     1
282
     1
141
0.0
142
0.0
 63
   250
421
  3355443
  0
VIEWPORT
  5
6267
330
1A
100
AcDbEntity
 67
     1
  8
30
  6
Continuous
348
629D
100
AcDbViewport
 10
5.613749965908018
 20
3.902083250481312
 30
0.0
 40
8.981999945452834
 41
6.243333200770099
 68
     2
 69
     2
 12
107.0904203558153
 22
-39.95474566704796
 13
0.0
 23
0.0
 14
1.0
 24
1.0
 15
10.0
 25
10.0
 16
0.0
 26
0.0
 36
1.0
 17
0.0
 27
0.0
 37
0.0
 42
50.0
 43
0.0
 44
0.0
 45
650.0648328262407
 50
0.0
 51
0.0
 72
   100
 90
    33312
  1

281
     0
 71
     1
 74
     0
110
0.0
120
0.0
130
0.0
111
1.0
121
0.0
131
0.0
112
0.0
122
1.0
132
0.0
 79
     0
146
0.0
170
     0
 61
     5
292
     1
282
     1
141
0.0
142
0.0
 63
   250
421
  3355443
  0
ENDSEC
  0
SECTION
  2
OBJECTS
  0
DICTIONARY
  5
C
330
0
100
AcDbDictionary
281
     1
  3
ACAD_CIP_PREVIOUS_PRODUCT_INFO
350
62CC
  3
ACAD_COLOR
350
62B0
  3
ACAD_DETAILVIEWSTYLE
350
62C9
  3
ACAD_GROUP
350
D
  3
ACAD_LAYOUT
350
19
  3
ACAD_MATERIAL
350
627E
  3
ACAD_MLEADERSTYLE
350
62C5
  3
ACAD_MLINESTYLE
350
16
  3
ACAD_PLOTSETTINGS
350
18
  3
ACAD_PLOTSTYLENAME
350
E
  3
ACAD_SCALELIST
350
62B3
  3
ACAD_SECTIONVIEWSTYLE
350
62C7
  3
ACAD_TABLESTYLE
350
62B1
  3
ACAD_VISUALSTYLE
350
6297
  3
ACADDIM
350
5C76
  3
ACDB_RECOMPOSE_DATA
350
11CD5
  3
ACDBVARIABLEDICTIONARY
350
5697
  0
DICTIONARY
  5
FF70
330
2
100
AcDbDictionary
280
     1
281
     1
  3
ACAD_LAYERSTATES
360
FF71
  0
DICTIONARY
  5
6368
330
10
100
AcDbDictionary
280
     1
281
     1
  3
ADSK_XREC_LAYER_RECONCILED
360
6369
  0
DICTIONARY
  5
636A
330
2F
100
AcDbDictionary
280
     1
281
     1
  3
ADSK_XREC_LAYER_RECONCILED
360
636B
  0
DICTIONARY
  5
636C
330
31
100
AcDbDictionary
280
     1
281
     1
  3
ADSK_XREC_LAYER_RECONCILED
360
636D
  0
DICTIONARY
  5
636E
330
35
100
AcDbDictionary
280
     1
281
     1
  3
ADSK_XREC_LAYER_RECONCILED
360
636F
  0
DICTIONARY
  5
6372
330
3C
100
AcDbDictionary
280
     1
281
     1
  3
ADSK_XREC_LAYER_RECONCILED
360
6373
  0
DICTIONARY
  5
6374
330
3D
100
AcDbDictionary
280
     1
281
     1
  3
ADSK_XREC_LAYER_RECONCILED
360
6375
  0
DICTIONARY
  5
6376
330
3A2
100
AcDbDictionary
280
     1
281
     1
  3
ADSK_XREC_LAYER_RECONCILED
360
6377
  0
DICTIONARY
  5
6378
330
3BBA
100
AcDbDictionary
280
     1
281
     1
  3
ADSK_XREC_LAYER_RECONCILED
360
6379
  0
DICTIONARY
  5
637E
330
5C47
100
AcDbDictionary
280
     1
281
     1
  3
ADSK_XREC_LAYER_RECONCILED
360
637F
  0
DICTIONARY
  5
6AEC
330
6AEB
100
AcDbDictionary
280
     1
281
     1
  0
DICTIONARY
  5
1095C
330
1095B
100
AcDbDictionary
280
     1
281
     1
  0
DICTIONARY
  5
10B83
330
10B82
100
AcDbDictionary
280
     1
281
     1
  0
DICTIONARY
  5
11BFC
330
11BFB
100
AcDbDictionary
280
     1
281
     1
  0
DICTIONARY
  5
178
330
1E
100
AcDbDictionary
280
     1
281
     1
  3
ACAD_LAYOUTSELFREF
360
6251
  3
ACAD_SORTENTS
360
F9D9
  0
DICTIONARY
  5
17A
330
1A
100
AcDbDictionary
280
     1
281
     1
  3
ACAD_LAYOUTSELFREF
360
6250
  0
XRECORD
  5
62CC
102
{ACAD_REACTORS
330
C
102
}
330
C
100
AcDbXrecord
280
     1
300
ACDLT
300
2014
300
ACDLT_F_S
  0
DICTIONARY
  5
62B0
102
{ACAD_REACTORS
330
C
102
}
330
C
100
AcDbDictionary
281
     1
  0
DICTIONARY
  5
62C9
102
{ACAD_REACTORS
330
C
102
}
330
C
100
AcDbDictionary
281
     1
  3
Imperial24
350
62CA
  3
Metric50
350
6AFE
  0
DICTIONARY
  5
D
102
{ACAD_REACTORS
330
C
102
}
330
C
100
AcDbDictionary
281
     1
  0
DICTIONARY
  5
19
102
{ACAD_REACTORS
330
C
102
}
330
C
100
AcDbDictionary
281
     1
  3
Model
350
6262
  3
ﾚｲｱｳﾄ1
350
6263
  0
DICTIONARY
  5
627E
102
{ACAD_REACTORS
330
C
102
}
330
C
100
AcDbDictionary
281
     1
  3
ByBlock
350
6287
  3
ByLayer
350
627F
  3
Global
350
628F
  0
DICTIONARY
  5
62C5
102
{ACAD_REACTORS
330
C
102
}
330
C
100
AcDbDictionary
281
     1
  3
Standard
350
62C6
  0
DICTIONARY
  5
16
102
{ACAD_REACTORS
330
C
102
}
330
C
100
AcDbDictionary
281
     1
  3
STANDARD
350
17
  0
DICTIONARY
  5
18
102
{ACAD_REACTORS
330
C
102
}
330
C
100
AcDbDictionary
281
     1
  0
ACDBDICTIONARYWDFLT
  5
E
102
{ACAD_REACTORS
330
C
102
}
330
C
100
AcDbDictionary
281
     1
  3
Normal
350
F
100
AcDbDictionaryWithDefault
340
F
  0
DICTIONARY
  5
62B3
102
{ACAD_REACTORS
330
C
102
}
330
C
100
AcDbDictionary
281
     1
  3
A0
350
62B4
  3
A1
350
62B5
  3
A2
350
62B6
  3
A3
350
62B7
  3
A4
350
62B8
  3
A5
350
62B9
  3
A6
350
62BA
  3
A7
350
62BB
  3
A8
350
62BC
  3
A9
350
62BD
  3
B0
350
62BE
  3
B1
350
62BF
  3
B2
350
62C0
  3
B3
350
62C1
  3
B4
350
62C2
  3
B5
350
62C3
  3
B6
350
62C4
  0
DICTIONARY
  5
62C7
102
{ACAD_REACTORS
330
C
102
}
330
C
100
AcDbDictionary
281
     1
  3
Imperial24
350
62C8
  3
Metric50
350
6AFD
  0
DICTIONARY
  5
62B1
102
{ACAD_REACTORS
330
C
102
}
330
C
100
AcDbDictionary
281
     1
  3
Standard
350
62B2
  0
DICTIONARY
  5
6297
102
{ACAD_REACTORS
330
C
102
}
330
C
100
AcDbDictionary
281
     1
  3
2dWireframe
350
629D
  3
3D Hidden
350
66D1
  3
3dWireframe
350
66D0
  3
Basic
350
629C
  3
Brighten
350
62A3
  3
ColorChange
350
62A7
  3
Conceptual
350
62A0
  3
Dim
350
62A2
  3
EdgeColorOff
350
62AF
  3
Facepattern
350
62A6
  3
Flat
350
6298
  3
FlatWithEdges
350
6299
  3
Gouraud
350
629A
  3
GouraudWithEdges
350
629B
  3
Hidden
350
629F
  3
JitterOff
350
62AD
  3
Linepattern
350
62A5
  3
OverhangOff
350
62AE
  3
Realistic
350
62A1
  3
Shaded
350
62AC
  3
Shaded with edges
350
62AB
  3
Shades of Gray
350
62A8
  3
Sketchy
350
62A9
  3
Thicken
350
62A4
  3
Wireframe
350
629E
  3
X-Ray
350
62AA
  0
XRECORD
  5
5C76
102
{ACAD_REACTORS
330
C
102
}
330
C
100
AcDbXrecord
280
     1
 90
   990106
  3

 60
     0
 61
     0
 62
     1
 63
     3
 64
     0
 65
     0
 66
     0
 67
     3
 68
     1
 69
     0
 70
     0
 71
     0
 72
     0
 40
0.0
170
     0
340
0
  0
XRECORD
  5
11CD5
102
{ACAD_REACTORS
330
C
102
}
330
C
100
AcDbXrecord
280
     1
 90
        1
330
62B2
330
62C8
330
62CA
330
6AFD
330
6AFE
  0
DICTIONARY
  5
5697
102
{ACAD_REACTORS
330
C
102
}
330
C
100
AcDbDictionary
281
     1
  3
CANNOSCALE
350
6384
  3
CMLEADERSTYLE
350
6381
  3
CTABLESTYLE
350
6380
  3
CVIEWDETAILSTYLE
350
6382
  3
CVIEWSECTIONSTYLE
350
6383
  3
DIMASSOC
350
5698
  3
INDEXCTL
350
6386
  3
LAYEREVAL
350
66D5
  3
LAYERNOTIFY
350
66D6
  3
LIGHTINGUNITS
350
66D4
  3
MSLTSCALE
350
66D3
  3
SORTENTS
350
6385
  0
DICTIONARY
  5
FF71
102
{ACAD_REACTORS
330
FF70
102
}
330
FF70
100
AcDbDictionary
281
     1
  0
XRECORD
  5
6369
102
{ACAD_REACTORS
330
6368
102
}
330
6368
100
AcDbXrecord
280
     1
290
     1
  0
XRECORD
  5
636B
102
{ACAD_REACTORS
330
636A
102
}
330
636A
100
AcDbXrecord
280
     1
290
     1
  0
XRECORD
  5
636D
102
{ACAD_REACTORS
330
636C
102
}
330
636C
100
AcDbXrecord
280
     1
290
     1
  0
XRECORD
  5
636F
102
{ACAD_REACTORS
330
636E
102
}
330
636E
100
AcDbXrecord
280
     1
290
     1
  0
XRECORD
  5
6373
102
{ACAD_REACTORS
330
6372
102
}
330
6372
100
AcDbXrecord
280
     1
290
     1
  0
XRECORD
  5
6375
102
{ACAD_REACTORS
330
6374
102
}
330
6374
100
AcDbXrecord
280
     1
290
     1
  0
XRECORD
  5
6377
102
{ACAD_REACTORS
330
6376
102
}
330
6376
100
AcDbXrecord
280
     1
290
     1
  0
XRECORD
  5
6379
102
{ACAD_REACTORS
330
6378
102
}
330
6378
100
AcDbXrecord
280
     1
290
     1
  0
XRECORD
  5
637F
102
{ACAD_REACTORS
330
637E
102
}
330
637E
100
AcDbXrecord
280
     1
290
     1
  0
XRECORD
  5
6251
102
{ACAD_REACTORS
330
178
102
}
330
178
100
AcDbXrecord
280
     1
340
1E
  0
SORTENTSTABLE
  5
F9D9
102
{ACAD_REACTORS
330
178
102
}
330
178
100
AcDbSortentsTable
330
1E
331
2261
  5
2261
331
6186
  5
6545
331
5D42
  5
606B
331
100EF
  5
10111
331
100F7
  5
10119
331
10147
  5
10281
331
5CAD
  5
5D42
331
10296
  5
10287
331
10281
  5
1029B
331
101D5
  5
10293
331
663A
  5
A4D7
331
5D3D
  5
5D45
331
5CA4
  5
5CAC
331
100F2
  5
10114
331
5D45
  5
6175
331
54D8
  5
54D8
331
10148
  5
10282
331
5E68
  5
6186
331
6545
  5
A4D6
331
5CA8
  5
5D3D
331
10291
  5
1028C
331
100F8
  5
1011A
331
10172
  5
10291
331
5D40
  5
5EB9
331
5CA7
  5
5D3C
331
100ED
  5
100F9
331
100F5
  5
10117
331
10145
  5
10171
331
1014B
  5
10285
331
5CAB
  5
5D40
331
10294
  5
10289
331
1027F
  5
10299
331
100FB
  5
1011C
331
6177
  5
634B
331
5D3B
  5
5D43
331
5CA2
  5
5CAA
331
100F0
  5
10112
331
5D43
  5
616E
331
1028F
  5
1028E
331
616E
  5
62F4
331
10282
  5
1029C
331
10170
  5
1028F
331
5D3E
  5
5D46
331
5CA5
  5
5CAD
331
5D46
  5
6177
331
100F3
  5
10115
331
10149
  5
10283
331
5CA9
  5
5D3E
331
10292
  5
1028B
331
100F9
  5
1011B
331
6175
  5
633E
331
10173
  5
10292
331
2260
  5
2260
331
100EE
  5
100FB
331
5D41
  5
5EC6
331
100F6
  5
10118
331
6269
  5
A4D1
331
1014C
  5
10286
331
10146
  5
10172
331
5CAC
  5
5D41
331
10295
  5
10288
331
10280
  5
1029A
331
5CA3
  5
5CAB
331
5D3C
  5
5D44
331
5D44
  5
6173
331
100F1
  5
10113
331
10290
  5
1028D
331
6173
  5
631C
331
10171
  5
10290
331
100EC
  5
100F8
331
5D3F
  5
5E68
331
5CA6
  5
5D3B
331
100F4
  5
10116
331
1014A
  5
10284
331
5CAA
  5
5D3F
331
10293
  5
1028A
331
1027E
  5
10298
  0
XRECORD
  5
6250
102
{ACAD_REACTORS
330
17A
102
}
330
17A
100
AcDbXrecord
280
     1
340
1A
  0
ACDBDETAILVIEWSTYLE
  5
62CA
102
{ACAD_XDICTIONARY
360
11B39
102
}
102
{ACAD_REACTORS
330
62C9
102
}
330
62C9
100
AcDbModelDocViewStyle
 70
     0
  3
Imperial24
290
     0
100
AcDbDetailViewStyle
 70
     0
 71
     0
 90
        3
 71
     1
340
11
 62
   256
 40
0.24
340
0
 62
   256
 40
0.24
300

 40
0.36
280
     3
 71
     2
340
15
 90
       25
 62
   256
 71
     3
340
11
 62
   256
 40
0.24
 90
        1
 40
0.75
 90
        1
300
%<\AcVar ViewType \f "%tc1">% %<\AcVar ViewDetailId>%\PSCALE %<\AcVar ViewScale \f "%sn">%
 71
     4
340
15
 90
       25
 62
   256
340
15
 90
       25
 62
   256
280
     0
  0
ACDBDETAILVIEWSTYLE
  5
6AFE
102
{ACAD_XDICTIONARY
360
11B3D
102
}
102
{ACAD_REACTORS
330
62C9
102
}
330
62C9
100
AcDbModelDocViewStyle
 70
     0
  3
Metric50
290
     0
100
AcDbDetailViewStyle
 70
     0
 71
     0
 90
        3
 71
     1
340
11
 62
   256
 40
5.0
340
0
 62
   256
 40
5.0
300

 40
0.0
280
     1
 71
     2
340
15
 90
       25
 62
   256
 71
     3
340
11
 62
   256
 40
5.0
 90
        0
 40
15.0
 90
        1
300
%<\AcVar ViewDetailId>% (%<\AcVar ViewScale \f "%sn">%)
 71
     4
340
15
 90
       25
 62
   256
340
15
 90
       25
 62
   256
280
     0
  0
LAYOUT
  5
6262
102
{ACAD_XDICTIONARY
360
FF76
102
}
102
{ACAD_REACTORS
330
19
102
}
330
19
100
AcDbPlotSettings
  1

  2
Canon LBP3800 LIPSLX
  4
A4
  6
OLE1
 40
5.873749732971191
 41
5.873747825622557
 42
5.873748779296875
 43
5.873748779296875
 44
209.9733276367186
 45
296.9259948730469
 46
13.97
 47
0.0
 48
0.0
 49
0.0
140
0.0
141
0.0
142
1.0
143
57.03989542820892
 70
 11956
 72
     0
 73
     0
 74
     1
  7
monochrome.ctb
 75
     0
147
0.0175315889430164
 76
     0
 77
     2
 78
   300
148
2132.688548548884
149
9148.078143675617
100
AcDbLayout
  1
Model
 70
     1
 71
     0
 10
0.0
 20
0.0
 11
12.0
 21
9.0
 12
0.0
 22
0.0
 32
0.0
 14
0.0
 24
0.0
 34
0.0
 15
0.0
 25
0.0
 35
0.0
146
0.0
 13
0.0
 23
0.0
 33
0.0
 16
1.0
 26
0.0
 36
0.0
 17
0.0
 27
1.0
 37
0.0
 76
     0
330
1E
331
6275
  0
LAYOUT
  5
6263
102
{ACAD_REACTORS
330
19
102
}
330
19
100
AcDbPlotSettings
  1

  2
Canon LBP3800 LIPSLX
  4
A4
  6

 40
5.873749732971191
 41
5.873747825622557
 42
5.873748779296875
 43
5.873748779296875
 44
209.9733276367186
 45
296.9259948730469
 46
0.0
 47
0.0
 48
0.0
 49
0.0
140
0.0
141
0.0
142
1.0
143
1.0
 70
   688
 72
     0
 73
     1
 74
     5
  7
monochrome.ctb
 75
    16
147
1.0
 76
     0
 77
     2
 78
   300
148
0.0
149
0.0
100
AcDbLayout
  1
ﾚｲｱｳﾄ1
 70
     1
 71
     1
 10
-0.2312499519408218
 20
-0.2312499894870548
 11
11.45874984621061
 21
8.035416452903447
 12
0.0
 22
0.0
 32
0.0
 14
1.122749993181602
 24
0.7804166500962629
 34
0.0
 15
10.10474993863443
 25
7.023749850866361
 35
0.0
146
0.0
 13
0.0
 23
0.0
 33
0.0
 16
1.0
 26
0.0
 36
0.0
 17
0.0
 27
1.0
 37
0.0
 76
     0
330
1A
331
9AC
  0
MATERIAL
  5
6287
102
{ACAD_XDICTIONARY
360
6288
102
}
102
{ACAD_REACTORS
330
627E
102
}
330
627E
100
AcDbMaterial
  1
ByBlock
 72
     0
 43
0.0208333333333333
 43
0.0
 43
0.0
 43
0.0
 43
0.0
 43
0.0208333333333333
 43
0.0
 43
0.0
 43
0.0
 43
0.0
 43
1.0
 43
0.0
 43
0.0
 43
0.0
 43
0.0
 43
1.0
 77
     0
 47
0.0208333333333333
 47
0.0
 47
0.0
 47
0.0
 47
0.0
 47
0.0208333333333333
 47
0.0
 47
0.0
 47
0.0
 47
0.0
 47
1.0
 47
0.0
 47
0.0
 47
0.0
 47
0.0
 47
1.0
171
     0
 49
0.0208333333333333
 49
0.0
 49
0.0
 49
0.0
 49
0.0
 49
0.0208333333333333
 49
0.0
 49
0.0
 49
0.0
 49
0.0
 49
1.0
 49
0.0
 49
0.0
 49
0.0
 49
0.0
 49
1.0
175
     0
142
0.0208333333333333
142
0.0
142
0.0
142
0.0
142
0.0
142
0.0208333333333333
142
0.0
142
0.0
142
0.0
142
0.0
142
1.0
142
0.0
142
0.0
142
0.0
142
0.0
142
1.0
179
     0
144
0.0208333333333333
144
0.0
144
0.0
144
0.0
144
0.0
144
0.0208333333333333
144
0.0
144
0.0
144
0.0
144
0.0
144
1.0
144
0.0
144
0.0
144
0.0
144
0.0
144
1.0
147
0.0208333333333333
147
0.0
147
0.0
147
0.0
147
0.0
147
0.0208333333333333
147
0.0
147
0.0
147
0.0
147
0.0
147
1.0
147
0.0
147
0.0
147
0.0
147
0.0
147
1.0
  0
MATERIAL
  5
627F
102
{ACAD_XDICTIONARY
360
6280
102
}
102
{ACAD_REACTORS
330
627E
102
}
330
627E
100
AcDbMaterial
  1
ByLayer
 72
     0
 43
0.0208333333333333
 43
0.0
 43
0.0
 43
0.0
 43
0.0
 43
0.0208333333333333
 43
0.0
 43
0.0
 43
0.0
 43
0.0
 43
1.0
 43
0.0
 43
0.0
 43
0.0
 43
0.0
 43
1.0
 77
     0
 47
0.0208333333333333
 47
0.0
 47
0.0
 47
0.0
 47
0.0
 47
0.0208333333333333
 47
0.0
 47
0.0
 47
0.0
 47
0.0
 47
1.0
 47
0.0
 47
0.0
 47
0.0
 47
0.0
 47
1.0
171
     0
 49
0.0208333333333333
 49
0.0
 49
0.0
 49
0.0
 49
0.0
 49
0.0208333333333333
 49
0.0
 49
0.0
 49
0.0
 49
0.0
 49
1.0
 49
0.0
 49
0.0
 49
0.0
 49
0.0
 49
1.0
175
     0
142
0.0208333333333333
142
0.0
142
0.0
142
0.0
142
0.0
142
0.0208333333333333
142
0.0
142
0.0
142
0.0
142
0.0
142
1.0
142
0.0
142
0.0
142
0.0
142
0.0
142
1.0
179
     0
144
0.0208333333333333
144
0.0
144
0.0
144
0.0
144
0.0
144
0.0208333333333333
144
0.0
144
0.0
144
0.0
144
0.0
144
1.0
144
0.0
144
0.0
144
0.0
144
0.0
144
1.0
147
0.0208333333333333
147
0.0
147
0.0
147
0.0
147
0.0
147
0.0208333333333333
147
0.0
147
0.0
147
0.0
147
0.0
147
1.0
147
0.0
147
0.0
147
0.0
147
0.0
147
1.0
  0
MATERIAL
  5
628F
102
{ACAD_XDICTIONARY
360
6290
102
}
102
{ACAD_REACTORS
330
627E
102
}
330
627E
100
AcDbMaterial
  1
Global
 72
     0
 43
0.0208333333333333
 43
0.0
 43
0.0
 43
0.0
 43
0.0
 43
0.0208333333333333
 43
0.0
 43
0.0
 43
0.0
 43
0.0
 43
1.0
 43
0.0
 43
0.0
 43
0.0
 43
0.0
 43
1.0
 77
     0
 47
0.0208333333333333
 47
0.0
 47
0.0
 47
0.0
 47
0.0
 47
0.0208333333333333
 47
0.0
 47
0.0
 47
0.0
 47
0.0
 47
1.0
 47
0.0
 47
0.0
 47
0.0
 47
0.0
 47
1.0
171
     0
 49
0.0208333333333333
 49
0.0
 49
0.0
 49
0.0
 49
0.0
 49
0.0208333333333333
 49
0.0
 49
0.0
 49
0.0
 49
0.0
 49
1.0
 49
0.0
 49
0.0
 49
0.0
 49
0.0
 49
1.0
175
     0
142
0.0208333333333333
142
0.0
142
0.0
142
0.0
142
0.0
142
0.0208333333333333
142
0.0
142
0.0
142
0.0
142
0.0
142
1.0
142
0.0
142
0.0
142
0.0
142
0.0
142
1.0
179
     0
144
0.0208333333333333
144
0.0
144
0.0
144
0.0
144
0.0
144
0.0208333333333333
144
0.0
144
0.0
144
0.0
144
0.0
144
1.0
144
0.0
144
0.0
144
0.0
144
0.0
144
1.0
147
0.0208333333333333
147
0.0
147
0.0
147
0.0
147
0.0
147
0.0208333333333333
147
0.0
147
0.0
147
0.0
147
0.0
147
1.0
147
0.0
147
0.0
147
0.0
147
0.0
147
1.0
  0
MLEADERSTYLE
  5
62C6
102
{ACAD_REACTORS
330
62C5
102
}
330
62C5
100
AcDbMLeaderStyle
179
     2
170
     2
171
     1
172
     0
 90
        2
 40
0.0
 41
0.0
173
     1
 91
-1056964608
340
13
 92
       -2
290
     1
 42
0.09
291
     1
 43
0.36
  3
Standard
 44
0.18
300

342
11
174
     1
178
     6
175
     1
176
     0
 93
-1056964608
 45
0.18
292
     0
297
     0
 46
0.18
 94
-1056964608
 47
1.0
 49
1.0
140
1.0
293
     1
141
0.0
294
     1
177
     0
142
1.0
295
     0
296
     0
143
0.125
271
     0
272
     9
273
     9
298
     0
1001
ACAD_MLEADERVER
1070
     2
  0
MLINESTYLE
  5
17
102
{ACAD_REACTORS
330
16
102
}
330
16
100
AcDbMlineStyle
  2
STANDARD
 70
     0
  3

 62
   256
 51
90.0
 52
90.0
 71
     2
 49
0.5
 62
   256
  6
BYLAYER
 49
-0.5
 62
   256
  6
BYLAYER
  0
ACDBPLACEHOLDER
  5
F
102
{ACAD_REACTORS
330
E
102
}
330
E
  0
SCALE
  5
62B4
102
{ACAD_REACTORS
330
62B3
102
}
330
62B3
100
AcDbScale
 70
     0
300
1:1
140
1.0
141
1.0
290
     1
  0
SCALE
  5
62B5
102
{ACAD_REACTORS
330
62B3
102
}
330
62B3
100
AcDbScale
 70
     0
300
1/128" = 1'-0"
140
0.0078125
141
12.0
290
     0
  0
SCALE
  5
62B6
102
{ACAD_REACTORS
330
62B3
102
}
330
62B3
100
AcDbScale
 70
     0
300
1/64" = 1'-0"
140
0.015625
141
12.0
290
     0
  0
SCALE
  5
62B7
102
{ACAD_REACTORS
330
62B3
102
}
330
62B3
100
AcDbScale
 70
     0
300
1/32" = 1'-0"
140
0.03125
141
12.0
290
     0
  0
SCALE
  5
62B8
102
{ACAD_REACTORS
330
62B3
102
}
330
62B3
100
AcDbScale
 70
     0
300
1/16" = 1'-0"
140
0.0625
141
12.0
290
     0
  0
SCALE
  5
62B9
102
{ACAD_REACTORS
330
62B3
102
}
330
62B3
100
AcDbScale
 70
     0
300
3/32" = 1'-0"
140
0.09375
141
12.0
290
     0
  0
SCALE
  5
62BA
102
{ACAD_REACTORS
330
62B3
102
}
330
62B3
100
AcDbScale
 70
     0
300
1/8" = 1'-0"
140
0.125
141
12.0
290
     0
  0
SCALE
  5
62BB
102
{ACAD_REACTORS
330
62B3
102
}
330
62B3
100
AcDbScale
 70
     0
300
3/16" = 1'-0"
140
0.1875
141
12.0
290
     0
  0
SCALE
  5
62BC
102
{ACAD_REACTORS
330
62B3
102
}
330
62B3
100
AcDbScale
 70
     0
300
1/4" = 1'-0"
140
0.25
141
12.0
290
     0
  0
SCALE
  5
62BD
102
{ACAD_REACTORS
330
62B3
102
}
330
62B3
100
AcDbScale
 70
     0
300
3/8" = 1'-0"
140
0.375
141
12.0
290
     0
  0
SCALE
  5
62BE
102
{ACAD_REACTORS
330
62B3
102
}
330
62B3
100
AcDbScale
 70
     0
300
1/2" = 1'-0"
140
0.5
141
12.0
290
     0
  0
SCALE
  5
62BF
102
{ACAD_REACTORS
330
62B3
102
}
330
62B3
100
AcDbScale
 70
     0
300
3/4" = 1'-0"
140
0.75
141
12.0
290
     0
  0
SCALE
  5
62C0
102
{ACAD_REACTORS
330
62B3
102
}
330
62B3
100
AcDbScale
 70
     0
300
1" = 1'-0"
140
1.0
141
12.0
290
     0
  0
SCALE
  5
62C1
102
{ACAD_REACTORS
330
62B3
102
}
330
62B3
100
AcDbScale
 70
     0
300
1-1/2" = 1'-0"
140
1.5
141
12.0
290
     0
  0
SCALE
  5
62C2
102
{ACAD_REACTORS
330
62B3
102
}
330
62B3
100
AcDbScale
 70
     0
300
3" = 1'-0"
140
3.0
141
12.0
290
     0
  0
SCALE
  5
62C3
102
{ACAD_REACTORS
330
62B3
102
}
330
62B3
100
AcDbScale
 70
     0
300
6" = 1'-0"
140
6.0
141
12.0
290
     0
  0
SCALE
  5
62C4
102
{ACAD_REACTORS
330
62B3
102
}
330
62B3
100
AcDbScale
 70
     0
300
1'-0" = 1'-0"
140
12.0
141
12.0
290
     0
  0
ACDBSECTIONVIEWSTYLE
  5
62C8
102
{ACAD_XDICTIONARY
360
11B37
102
}
102
{ACAD_REACTORS
330
62C7
102
}
330
62C7
100
AcDbModelDocViewStyle
 70
     0
  3
Imperial24
290
     0
100
AcDbSectionViewStyle
 70
     0
 71
     0
 90
       78
 71
     1
340
11
 62
   256
 40
0.24
340
0
340
0
 62
   256
 40
0.24
300
I, O, Q, S, X, Z
 40
0.48
 90
        3
 40
0.18
 90
        1
 71
     2
340
15
 90
       25
 62
   256
340
15
 90
       50
 62
   256
 40
0.24
 40
0.0
 40
0.24
 71
     3
340
11
 62
   256
 40
0.24
 90
        1
 40
0.75
 90
        1
300
%<\AcVar ViewType \f "%tc1">% %<\AcVar ViewSectionStartId>%-%<\AcVar ViewSectionEndId>%\PSCALE %<\AcVar ViewScale \f "%sn">%
 71
     4
 62
   256
 62
   257
300
ANSI31
 40
1.0
 90
        0
290
     0
290
     0
 90
        6
 40
0.0
 40
1.570796326794896
 40
0.2617993877991494
 40
1.308996938995747
 40
-0.2617993877991494
 40
1.832595714594044
  0
ACDBSECTIONVIEWSTYLE
  5
6AFD
102
{ACAD_XDICTIONARY
360
11B3B
102
}
102
{ACAD_REACTORS
330
62C7
102
}
330
62C7
100
AcDbModelDocViewStyle
 70
     0
  3
Metric50
290
     0
100
AcDbSectionViewStyle
 70
     0
 71
     0
 90
      102
 71
     1
340
11
 62
   256
 40
5.0
340
0
340
0
 62
   256
 40
5.0
300
I, O, Q, S, X, Z
 40
10.0
 90
        0
 40
2.5
 90
        0
 71
     2
340
15
 90
       25
 62
   256
340
15
 90
       50
 62
   256
 40
5.0
 40
2.5
 40
5.0
 71
     3
340
11
 62
   256
 40
5.0
 90
        0
 40
15.0
 90
        1
300
%<\AcVar ViewSectionStartId>%-%<\AcVar ViewSectionEndId>% (%<\AcVar ViewScale \f "%sn">%)
 71
     4
 62
   256
 62
   257
300
ANSI31
 40
1.0
 90
        0
290
     0
290
     0
 90
        6
 40
0.0
 40
1.570796326794896
 40
0.2617993877991494
 40
1.308996938995747
 40
-0.2617993877991494
 40
1.832595714594044
  0
TABLESTYLE
  5
62B2
102
{ACAD_XDICTIONARY
360
649A
102
}
102
{ACAD_REACTORS
330
62B1
102
}
330
62B1
100
AcDbTableStyle
280
     0
  3
Standard
 70
     0
 71
     0
 40
0.06
 41
0.06
280
     0
281
     0
  7
STANDARD
140
0.18
170
     2
 62
     0
 63
     7
283
     0
 90
      512
 91
        0
  1

274
    -2
284
     1
 64
     0
275
    -2
285
     1
 65
     0
276
    -2
286
     1
 66
     0
277
    -2
287
     1
 67
     0
278
    -2
288
     1
 68
     0
279
    -2
289
     1
 69
     0
  7
STANDARD
140
0.25
170
     5
 62
     0
 63
     7
283
     0
 90
      512
 91
        0
  1

274
    -2
284
     1
 64
     0
275
    -2
285
     1
 65
     0
276
    -2
286
     1
 66
     0
277
    -2
287
     1
 67
     0
278
    -2
288
     1
 68
     0
279
    -2
289
     1
 69
     0
  7
STANDARD
140
0.18
170
     5
 62
     0
 63
     7
283
     0
 90
      512
 91
        0
  1

274
    -2
284
     1
 64
     0
275
    -2
285
     1
 65
     0
276
    -2
286
     1
 66
     0
277
    -2
287
     1
 67
     0
278
    -2
288
     1
 68
     0
279
    -2
289
     1
 69
     0
  0
VISUALSTYLE
  5
629D
102
{ACAD_XDICTIONARY
360
669D
102
}
102
{ACAD_REACTORS
330
6297
102
}
330
6297
100
AcDbVisualStyle
  2

 70
     4
177
     3
291
     0
 70
    58
 90
        0
176
     1
 90
        2
176
     1
 90
        0
176
     1
 90
        0
176
     1
 40
0.6
176
     1
 40
30.0
176
     1
 62
     7
176
     1
 90
        1
176
     1
 90
        4
176
     1
 62
     7
176
     1
 62
   257
176
     1
 90
        1
176
     1
 90
        1
176
     1
 40
1.0
176
     1
 90
        0
176
     1
 62
   257
176
     1
 40
1.0
176
     1
 90
        1
176
     1
 90
        6
176
     1
 90
        2
176
     1
 62
     7
176
     1
 90
        5
176
     1
 90
        0
176
     1
 90
        0
176
     1
290
     0
176
     1
 90
        1
176
     1
 40
0.0
176
     1
 90
        0
176
     1
290
     1
176
     1
290
     1
176
     1
290
     0
176
     1
290
     0
176
     1
290
     0
176
     1
290
     0
176
     1
290
     0
176
     1
290
     0
176
     1
290
     0
176
     1
 90
       50
176
     1
 40
0.0
176
     1
 40
1.0
176
     1
 90
        0
176
     1
 62
    18
176
     1
 90
       50
176
     1
 90
        3
176
     1
 62
     5
420
      255
176
     1
290
     0
176
     1
 90
       50
176
     1
 90
       50
176
     1
 90
       50
176
     1
290
     0
176
     1
 90
       50
176
     1
 62
   256
176
     0
 40
1.0
176
     0
 90
        2
176
     1
  1
strokes_ogs.tif
176
     1
290
     0
176
     1
 40
1.0
176
     1
 40
1.0
176
     1
1001
ACAD
1000
AcDbSavedByObjectVersion
1070
     0
  0
VISUALSTYLE
  5
66D1
102
{ACAD_REACTORS
330
6297
102
}
330
6297
100
AcDbVisualStyle
  2
3D Hidden
 70
     6
177
     3
291
     0
 70
    58
 90
        1
176
     1
 90
        2
176
     1
 90
        2
176
     1
 90
        0
176
     1
 40
0.6
176
     1
 40
30.0
176
     1
 62
     7
420
 16777215
176
     1
 90
        2
176
     1
 90
        2
176
     1
 62
     7
176
     1
 62
   257
176
     1
 90
        2
176
     1
 90
        1
176
     1
 40
179.0
176
     1
 90
        0
176
     1
 62
   257
176
     1
 40
1.0
176
     1
 90
        1
176
     1
 90
        6
176
     1
 90
        2
176
     1
 62
     7
176
     1
 90
        3
176
     1
 90
        0
176
     1
 90
        0
176
     1
290
     0
176
     1
 90
        1
176
     1
 40
0.0
176
     1
 90
        0
176
     1
290
     0
176
     1
290
     1
176
     1
290
     1
176
     1
290
     0
176
     1
290
     0
176
     1
290
     0
176
     1
290
     0
176
     1
290
     0
176
     1
290
     0
176
     1
 90
       50
176
     1
 40
0.0
176
     1
 40
1.0
176
     1
 90
        0
176
     1
 62
    18
176
     1
 90
       50
176
     1
 90
        3
176
     1
 62
     5
420
      255
176
     1
290
     0
176
     1
 90
       50
176
     1
 90
       50
176
     1
 90
       50
176
     1
290
     0
176
     1
 90
       50
176
     1
 62
   256
176
     0
 40
1.0
176
     0
 90
        2
176
     1
  1
strokes_ogs.tif
176
     1
290
     0
176
     1
 40
1.0
176
     1
 40
1.0
176
     1
1001
ACAD
1000
AcDbSavedByObjectVersion
1070
     0
  0
VISUALSTYLE
  5
66D0
102
{ACAD_REACTORS
330
6297
102
}
330
6297
100
AcDbVisualStyle
  2
3dWireframe
 70
     5
177
     3
291
     0
 70
    58
 90
        0
176
     1
 90
        2
176
     1
 90
        0
176
     1
 90
        0
176
     1
 40
0.6
176
     1
 40
30.0
176
     1
 62
     7
420
 16777215
176
     1
 90
        1
176
     1
 90
        4
176
     1
 62
     7
176
     1
 62
   257
176
     1
 90
        1
176
     1
 90
        1
176
     1
 40
1.0
176
     1
 90
        0
176
     1
 62
   257
176
     1
 40
1.0
176
     1
 90
        1
176
     1
 90
        6
176
     1
 90
        2
176
     1
 62
     7
176
     1
 90
        5
176
     1
 90
        0
176
     1
 90
        0
176
     1
290
     0
176
     1
 90
        1
176
     1
 40
0.0
176
     1
 90
        0
176
     1
290
     0
176
     1
290
     1
176
     1
290
     1
176
     1
290
     0
176
     1
290
     0
176
     1
290
     0
176
     1
290
     0
176
     1
290
     0
176
     1
290
     0
176
     1
 90
       50
176
     1
 40
0.0
176
     1
 40
1.0
176
     1
 90
        0
176
     1
 62
    18
176
     1
 90
       50
176
     1
 90
        3
176
     1
 62
     5
420
      255
176
     1
290
     0
176
     1
 90
       50
176
     1
 90
       50
176
     1
 90
       50
176
     1
290
     0
176
     1
 90
       50
176
     1
 62
   256
176
     0
 40
1.0
176
     0
 90
        2
176
     1
  1
strokes_ogs.tif
176
     1
290
     0
176
     1
 40
1.0
176
     1
 40
1.0
176
     1
1001
ACAD
1000
AcDbSavedByObjectVersion
1070
     0
  0
VISUALSTYLE
  5
629C
102
{ACAD_XDICTIONARY
360
669B
102
}
102
{ACAD_REACTORS
330
6297
102
}
330
6297
100
AcDbVisualStyle
  2

 70
     7
177
     3
291
     1
 70
    58
 90
        1
176
     1
 90
        0
176
     1
 90
        1
176
     1
 90
        0
176
     1
 40
0.6
176
     1
 40
30.0
176
     1
 62
     7
176
     1
 90
        0
176
     1
 90
        4
176
     1
 62
     7
176
     1
 62
   257
176
     1
 90
        1
176
     1
 90
        1
176
     1
 40
1.0
176
     1
 90
        8
176
     1
 62
     7
176
     1
 40
1.0
176
     1
 90
        1
176
     1
 90
        6
176
     1
 90
        2
176
     1
 62
     7
176
     1
 90
        5
176
     1
 90
        0
176
     1
 90
        0
176
     1
290
     0
176
     1
 90
        1
176
     1
 40
0.0
176
     1
 90
        0
176
     1
290
     0
176
     1
290
     1
176
     1
290
     1
176
     1
290
     0
176
     1
290
     0
176
     1
290
     0
176
     1
290
     0
176
     1
290
     0
176
     1
290
     0
176
     1
 90
       50
176
     1
 40
0.0
176
     1
 40
1.0
176
     1
 90
        0
176
     1
 62
    18
176
     1
 90
       50
176
     1
 90
        3
176
     1
 62
     5
420
      255
176
     1
290
     0
176
     1
 90
       50
176
     1
 90
       50
176
     1
 90
       50
176
     1
290
     0
176
     1
 90
       50
176
     1
 62
   256
176
     0
 40
1.0
176
     0
 90
        2
176
     1
  1
strokes_ogs.tif
176
     1
290
     0
176
     1
 40
1.0
176
     1
 40
1.0
176
     1
1001
ACAD
1000
AcDbSavedByObjectVersion
1070
     0
  0
VISUALSTYLE
  5
62A3
102
{ACAD_XDICTIONARY
360
66A9
102
}
102
{ACAD_REACTORS
330
6297
102
}
330
6297
100
AcDbVisualStyle
  2

 70
    12
177
     3
291
     1
 70
    58
 90
        2
176
     1
 90
        2
176
     1
 90
        0
176
     1
 90
        0
176
     1
 40
0.6
176
     1
 40
30.0
176
     1
 62
     7
176
     1
 90
        1
176
     1
 90
        4
176
     1
 62
     7
176
     1
 62
   257
176
     1
 90
        1
176
     1
 90
        1
176
     1
 40
1.0
176
     1
 90
        8
176
     1
 62
     7
176
     1
 40
1.0
176
     1
 90
        1
176
     1
 90
        6
176
     1
 90
        2
176
     1
 62
     7
176
     1
 90
        5
176
     1
 90
        0
176
     1
 90
        0
176
     1
290
     0
176
     1
 90
        1
176
     1
 40
50.0
176
     1
 90
        0
176
     1
290
     0
176
     1
290
     1
176
     1
290
     1
176
     1
290
     0
176
     1
290
     0
176
     1
290
     0
176
     1
290
     0
176
     1
290
     0
176
     1
290
     0
176
     1
 90
       50
176
     1
 40
0.0
176
     1
 40
1.0
176
     1
 90
        0
176
     1
 62
    18
176
     1
 90
       50
176
     1
 90
        3
176
     1
 62
     5
420
      255
176
     1
290
     0
176
     1
 90
       50
176
     1
 90
       50
176
     1
 90
       50
176
     1
290
     0
176
     1
 90
       50
176
     1
 62
   256
176
     0
 40
1.0
176
     0
 90
        2
176
     1
  1
strokes_ogs.tif
176
     1
290
     0
176
     1
 40
1.0
176
     1
 40
1.0
176
     1
1001
ACAD
1000
AcDbSavedByObjectVersion
1070
     0
  0
VISUALSTYLE
  5
62A7
102
{ACAD_XDICTIONARY
360
66B1
102
}
102
{ACAD_REACTORS
330
6297
102
}
330
6297
100
AcDbVisualStyle
  2

 70
    16
177
     3
291
     1
 70
    58
 90
        2
176
     1
 90
        2
176
     1
 90
        3
176
     1
 90
        0
176
     1
 40
0.6
176
     1
 40
30.0
176
     1
 62
     8
176
     1
 90
        1
176
     1
 90
        4
176
     1
 62
     7
176
     1
 62
   257
176
     1
 90
        1
176
     1
 90
        1
176
     1
 40
1.0
176
     1
 90
        8
176
     1
 62
     8
176
     1
 40
1.0
176
     1
 90
        1
176
     1
 90
        6
176
     1
 90
        2
176
     1
 62
     7
176
     1
 90
        5
176
     1
 90
        0
176
     1
 90
        0
176
     1
290
     0
176
     1
 90
        1
176
     1
 40
0.0
176
     1
 90
        0
176
     1
290
     0
176
     1
290
     1
176
     1
290
     1
176
     1
290
     0
176
     1
290
     0
176
     1
290
     0
176
     1
290
     0
176
     1
290
     0
176
     1
290
     0
176
     1
 90
       50
176
     1
 40
0.0
176
     1
 40
1.0
176
     1
 90
        0
176
     1
 62
    18
176
     1
 90
       50
176
     1
 90
        3
176
     1
 62
     5
420
      255
176
     1
290
     0
176
     1
 90
       50
176
     1
 90
       50
176
     1
 90
       50
176
     1
290
     0
176
     1
 90
       50
176
     1
 62
   256
176
     0
 40
1.0
176
     0
 90
        2
176
     1
  1
strokes_ogs.tif
176
     1
290
     0
176
     1
 40
1.0
176
     1
 40
1.0
176
     1
1001
ACAD
1000
AcDbSavedByObjectVersion
1070
     0
  0
VISUALSTYLE
  5
62A0
102
{ACAD_XDICTIONARY
360
66A3
102
}
102
{ACAD_REACTORS
330
6297
102
}
330
6297
100
AcDbVisualStyle
  2

 70
     9
177
     3
291
     0
 70
    58
 90
        3
176
     1
 90
        2
176
     1
 90
        0
176
     1
 90
        0
176
     1
 40
0.6
176
     1
 40
30.0
176
     1
 62
     7
176
     1
 90
        2
176
     1
 90
        2
176
     1
 62
     7
176
     1
 62
   257
176
     1
 90
        1
176
     1
 90
        1
176
     1
 40
179.0
176
     1
 90
        8
176
     1
 62
     7
176
     1
 40
1.0
176
     1
 90
        1
176
     1
 90
        6
176
     1
 90
        2
176
     1
 62
     7
176
     1
 90
        3
176
     1
 90
        0
176
     1
 90
        0
176
     1
290
     0
176
     1
 90
        1
176
     1
 40
0.0
176
     1
 90
        0
176
     1
290
     0
176
     1
290
     1
176
     1
290
     1
176
     1
290
     0
176
     1
290
     0
176
     1
290
     0
176
     1
290
     0
176
     1
290
     0
176
     1
290
     0
176
     1
 90
       50
176
     1
 40
0.0
176
     1
 40
1.0
176
     1
 90
        0
176
     1
 62
    18
176
     1
 90
       50
176
     1
 90
        3
176
     1
 62
     5
420
      255
176
     1
290
     0
176
     1
 90
       50
176
     1
 90
       50
176
     1
 90
       50
176
     1
290
     0
176
     1
 90
       50
176
     1
 62
   256
176
     0
 40
1.0
176
     0
 90
        2
176
     1
  1
strokes_ogs.tif
176
     1
290
     0
176
     1
 40
1.0
176
     1
 40
1.0
176
     1
1001
ACAD
1000
AcDbSavedByObjectVersion
1070
     0
  0
VISUALSTYLE
  5
62A2
102
{ACAD_XDICTIONARY
360
66A7
102
}
102
{ACAD_REACTORS
330
6297
102
}
330
6297
100
AcDbVisualStyle
  2

 70
    11
177
     3
291
     1
 70
    58
 90
        2
176
     1
 90
        2
176
     1
 90
        0
176
     1
 90
        0
176
     1
 40
0.6
176
     1
 40
30.0
176
     1
 62
     7
176
     1
 90
        1
176
     1
 90
        4
176
     1
 62
     7
176
     1
 62
   257
176
     1
 90
        1
176
     1
 90
        1
176
     1
 40
1.0
176
     1
 90
        8
176
     1
 62
     7
176
     1
 40
1.0
176
     1
 90
        1
176
     1
 90
        6
176
     1
 90
        2
176
     1
 62
     7
176
     1
 90
        5
176
     1
 90
        0
176
     1
 90
        0
176
     1
290
     0
176
     1
 90
        1
176
     1
 40
-50.0
176
     1
 90
        0
176
     1
290
     0
176
     1
290
     1
176
     1
290
     1
176
     1
290
     0
176
     1
290
     0
176
     1
290
     0
176
     1
290
     0
176
     1
290
     0
176
     1
290
     0
176
     1
 90
       50
176
     1
 40
0.0
176
     1
 40
1.0
176
     1
 90
        0
176
     1
 62
    18
176
     1
 90
       50
176
     1
 90
        3
176
     1
 62
     5
420
      255
176
     1
290
     0
176
     1
 90
       50
176
     1
 90
       50
176
     1
 90
       50
176
     1
290
     0
176
     1
 90
       50
176
     1
 62
   256
176
     0
 40
1.0
176
     0
 90
        2
176
     1
  1
strokes_ogs.tif
176
     1
290
     0
176
     1
 40
1.0
176
     1
 40
1.0
176
     1
1001
ACAD
1000
AcDbSavedByObjectVersion
1070
     0
  0
VISUALSTYLE
  5
62AF
102
{ACAD_XDICTIONARY
360
66C1
102
}
102
{ACAD_REACTORS
330
6297
102
}
330
6297
100
AcDbVisualStyle
  2

 70
    22
177
     3
291
     1
 70
    58
 90
        2
176
     0
 90
        2
176
     0
 90
        0
176
     0
 90
        0
176
     0
 40
0.6
176
     0
 40
30.0
176
     0
 62
     7
176
     0
 90
        1
176
     0
 90
        4
176
     0
 62
     7
176
     0
 62
   257
176
     0
 90
        1
176
     0
 90
        1
176
     0
 40
1.0
176
     0
 90
        8
176
     2
 62
     7
176
     0
 40
1.0
176
     0
 90
        1
176
     0
 90
        6
176
     0
 90
        2
176
     0
 62
     7
176
     0
 90
        5
176
     0
 90
        0
176
     0
 90
        0
176
     0
290
     0
176
     0
 90
        1
176
     0
 40
0.0
176
     0
 90
        0
176
     0
290
     0
176
     1
290
     1
176
     1
290
     1
176
     1
290
     0
176
     1
290
     0
176
     1
290
     0
176
     1
290
     0
176
     1
290
     0
176
     1
290
     0
176
     1
 90
       50
176
     0
 40
0.0
176
     0
 40
1.0
176
     0
 90
        0
176
     0
 62
    18
176
     0
 90
       50
176
     0
 90
        3
176
     0
 62
     5
420
      255
176
     0
290
     0
176
     1
 90
       50
176
     0
 90
       50
176
     0
 90
       50
176
     0
290
     0
176
     1
 90
       50
176
     0
 62
   256
176
     0
 40
1.0
176
     0
 90
        2
176
     0
  1
strokes_ogs.tif
176
     0
290
     0
176
     1
 40
1.0
176
     0
 40
1.0
176
     0
1001
ACAD
1000
AcDbSavedByObjectVersion
1070
     0
  0
VISUALSTYLE
  5
62A6
102
{ACAD_XDICTIONARY
360
66AF
102
}
102
{ACAD_REACTORS
330
6297
102
}
330
6297
100
AcDbVisualStyle
  2

 70
    15
177
     3
291
     1
 70
    58
 90
        2
176
     1
 90
        2
176
     1
 90
        0
176
     1
 90
        0
176
     1
 40
0.6
176
     1
 40
30.0
176
     1
 62
     7
176
     1
 90
        1
176
     1
 90
        4
176
     1
 62
     7
176
     1
 62
   257
176
     1
 90
        1
176
     1
 90
        1
176
     1
 40
1.0
176
     1
 90
        8
176
     1
 62
     7
176
     1
 40
1.0
176
     1
 90
        1
176
     1
 90
        6
176
     1
 90
        2
176
     1
 62
     7
176
     1
 90
        5
176
     1
 90
        0
176
     1
 90
        0
176
     1
290
     0
176
     1
 90
        1
176
     1
 40
0.0
176
     1
 90
        0
176
     1
290
     0
176
     1
290
     1
176
     1
290
     1
176
     1
290
     0
176
     1
290
     0
176
     1
290
     0
176
     1
290
     0
176
     1
290
     0
176
     1
290
     0
176
     1
 90
       50
176
     1
 40
0.0
176
     1
 40
1.0
176
     1
 90
        0
176
     1
 62
    18
176
     1
 90
       50
176
     1
 90
        3
176
     1
 62
     5
420
      255
176
     1
290
     0
176
     1
 90
       50
176
     1
 90
       50
176
     1
 90
       50
176
     1
290
     0
176
     1
 90
       50
176
     1
 62
   256
176
     0
 40
1.0
176
     0
 90
        2
176
     1
  1
strokes_ogs.tif
176
     1
290
     0
176
     1
 40
1.0
176
     1
 40
1.0
176
     1
1001
ACAD
1000
AcDbSavedByObjectVersion
1070
     0
  0
VISUALSTYLE
  5
6298
102
{ACAD_XDICTIONARY
360
6693
102
}
102
{ACAD_REACTORS
330
6297
102
}
330
6297
100
AcDbVisualStyle
  2

 70
     0
177
     3
291
     1
 70
    58
 90
        2
176
     1
 90
        1
176
     1
 90
        1
176
     1
 90
        2
176
     1
 40
0.6
176
     1
 40
30.0
176
     1
 62
     7
176
     1
 90
        0
176
     1
 90
        0
176
     1
 62
     7
176
     1
 62
   257
176
     1
 90
        1
176
     1
 90
        1
176
     1
 40
1.0
176
     1
 90
        8
176
     1
 62
     7
176
     1
 40
1.0
176
     1
 90
        1
176
     1
 90
        6
176
     1
 90
        2
176
     1
 62
     7
176
     1
 90
        5
176
     1
 90
        0
176
     1
 90
        0
176
     1
290
     0
176
     1
 90
       13
176
     1
 40
0.0
176
     1
 90
        0
176
     1
290
     0
176
     1
290
     1
176
     1
290
     1
176
     1
290
     0
176
     1
290
     0
176
     1
290
     0
176
     1
290
     0
176
     1
290
     0
176
     1
290
     0
176
     1
 90
       50
176
     1
 40
0.0
176
     1
 40
1.0
176
     1
 90
        0
176
     1
 62
    18
176
     1
 90
       50
176
     1
 90
        3
176
     1
 62
     5
420
      255
176
     1
290
     0
176
     1
 90
       50
176
     1
 90
       50
176
     1
 90
       50
176
     1
290
     0
176
     1
 90
       50
176
     1
 62
   256
176
     0
 40
1.0
176
     0
 90
        2
176
     1
  1
strokes_ogs.tif
176
     1
290
     0
176
     1
 40
1.0
176
     1
 40
1.0
176
     1
1001
ACAD
1000
AcDbSavedByObjectVersion
1070
     0
  0
VISUALSTYLE
  5
6299
102
{ACAD_XDICTIONARY
360
6695
102
}
102
{ACAD_REACTORS
330
6297
102
}
330
6297
100
AcDbVisualStyle
  2

 70
     1
177
     3
291
     1
 70
    58
 90
        2
176
     1
 90
        1
176
     1
 90
        1
176
     1
 90
        2
176
     1
 40
0.6
176
     1
 40
30.0
176
     1
 62
     7
176
     1
 90
        1
176
     1
 90
        0
176
     1
 62
     7
176
     1
 62
   257
176
     1
 90
        1
176
     1
 90
        1
176
     1
 40
1.0
176
     1
 90
        0
176
     1
 62
   257
176
     1
 40
1.0
176
     1
 90
        1
176
     1
 90
        6
176
     1
 90
        2
176
     1
 62
     7
176
     1
 90
        5
176
     1
 90
        0
176
     1
 90
        0
176
     1
290
     0
176
     1
 90
       13
176
     1
 40
0.0
176
     1
 90
        0
176
     1
290
     0
176
     1
290
     1
176
     1
290
     1
176
     1
290
     0
176
     1
290
     0
176
     1
290
     0
176
     1
290
     0
176
     1
290
     0
176
     1
290
     0
176
     1
 90
       50
176
     1
 40
0.0
176
     1
 40
1.0
176
     1
 90
        0
176
     1
 62
    18
176
     1
 90
       50
176
     1
 90
        3
176
     1
 62
     5
420
      255
176
     1
290
     0
176
     1
 90
       50
176
     1
 90
       50
176
     1
 90
       50
176
     1
290
     0
176
     1
 90
       50
176
     1
 62
   256
176
     0
 40
1.0
176
     0
 90
        2
176
     1
  1
strokes_ogs.tif
176
     1
290
     0
176
     1
 40
1.0
176
     1
 40
1.0
176
     1
1001
ACAD
1000
AcDbSavedByObjectVersion
1070
     0
  0
VISUALSTYLE
  5
629A
102
{ACAD_XDICTIONARY
360
6697
102
}
102
{ACAD_REACTORS
330
6297
102
}
330
6297
100
AcDbVisualStyle
  2

 70
     2
177
     3
291
     1
 70
    58
 90
        2
176
     1
 90
        2
176
     1
 90
        1
176
     1
 90
        2
176
     1
 40
0.6
176
     1
 40
30.0
176
     1
 62
     7
176
     1
 90
        0
176
     1
 90
        0
176
     1
 62
     7
176
     1
 62
   257
176
     1
 90
        1
176
     1
 90
        1
176
     1
 40
1.0
176
     1
 90
        0
176
     1
 62
     7
176
     1
 40
1.0
176
     1
 90
        1
176
     1
 90
        6
176
     1
 90
        2
176
     1
 62
     7
176
     1
 90
        5
176
     1
 90
        0
176
     1
 90
        0
176
     1
290
     0
176
     1
 90
       13
176
     1
 40
0.0
176
     1
 90
        0
176
     1
290
     0
176
     1
290
     1
176
     1
290
     1
176
     1
290
     0
176
     1
290
     0
176
     1
290
     0
176
     1
290
     0
176
     1
290
     0
176
     1
290
     0
176
     1
 90
       50
176
     1
 40
0.0
176
     1
 40
1.0
176
     1
 90
        0
176
     1
 62
    18
176
     1
 90
       50
176
     1
 90
        3
176
     1
 62
     5
420
      255
176
     1
290
     0
176
     1
 90
       50
176
     1
 90
       50
176
     1
 90
       50
176
     1
290
     0
176
     1
 90
       50
176
     1
 62
   256
176
     0
 40
1.0
176
     0
 90
        2
176
     1
  1
strokes_ogs.tif
176
     1
290
     0
176
     1
 40
1.0
176
     1
 40
1.0
176
     1
1001
ACAD
1000
AcDbSavedByObjectVersion
1070
     0
  0
VISUALSTYLE
  5
629B
102
{ACAD_XDICTIONARY
360
6699
102
}
102
{ACAD_REACTORS
330
6297
102
}
330
6297
100
AcDbVisualStyle
  2

 70
     3
177
     3
291
     1
 70
    58
 90
        2
176
     1
 90
        2
176
     1
 90
        1
176
     1
 90
        2
176
     1
 40
0.6
176
     1
 40
30.0
176
     1
 62
     7
176
     1
 90
        1
176
     1
 90
        0
176
     1
 62
     7
176
     1
 62
   257
176
     1
 90
        1
176
     1
 90
        1
176
     1
 40
1.0
176
     1
 90
        0
176
     1
 62
   257
176
     1
 40
1.0
176
     1
 90
        1
176
     1
 90
        6
176
     1
 90
        2
176
     1
 62
     7
176
     1
 90
        5
176
     1
 90
        0
176
     1
 90
        0
176
     1
290
     0
176
     1
 90
       13
176
     1
 40
0.0
176
     1
 90
        0
176
     1
290
     0
176
     1
290
     1
176
     1
290
     1
176
     1
290
     0
176
     1
290
     0
176
     1
290
     0
176
     1
290
     0
176
     1
290
     0
176
     1
290
     0
176
     1
 90
       50
176
     1
 40
0.0
176
     1
 40
1.0
176
     1
 90
        0
176
     1
 62
    18
176
     1
 90
       50
176
     1
 90
        3
176
     1
 62
     5
420
      255
176
     1
290
     0
176
     1
 90
       50
176
     1
 90
       50
176
     1
 90
       50
176
     1
290
     0
176
     1
 90
       50
176
     1
 62
   256
176
     0
 40
1.0
176
     0
 90
        2
176
     1
  1
strokes_ogs.tif
176
     1
290
     0
176
     1
 40
1.0
176
     1
 40
1.0
176
     1
1001
ACAD
1000
AcDbSavedByObjectVersion
1070
     0
  0
VISUALSTYLE
  5
629F
102
{ACAD_XDICTIONARY
360
66A1
102
}
102
{ACAD_REACTORS
330
6297
102
}
330
6297
100
AcDbVisualStyle
  2

 70
     6
177
     3
291
     0
 70
    58
 90
        1
176
     1
 90
        2
176
     1
 90
        2
176
     1
 90
        0
176
     1
 40
0.6
176
     1
 40
30.0
176
     1
 62
     7
176
     1
 90
        2
176
     1
 90
        2
176
     1
 62
     7
176
     1
 62
   257
176
     1
 90
        2
176
     1
 90
        1
176
     1
 40
40.0
176
     1
 90
        0
176
     1
 62
   257
176
     1
 40
1.0
176
     1
 90
        1
176
     1
 90
        6
176
     1
 90
        2
176
     1
 62
     7
176
     1
 90
        3
176
     1
 90
        0
176
     1
 90
        0
176
     1
290
     0
176
     1
 90
        1
176
     1
 40
0.0
176
     1
 90
        0
176
     1
290
     0
176
     1
290
     1
176
     1
290
     1
176
     1
290
     0
176
     1
290
     0
176
     1
290
     0
176
     1
290
     0
176
     1
290
     0
176
     1
290
     0
176
     1
 90
       50
176
     1
 40
0.0
176
     1
 40
1.0
176
     1
 90
        0
176
     1
 62
    18
176
     1
 90
       50
176
     1
 90
        3
176
     1
 62
     5
420
      255
176
     1
290
     0
176
     1
 90
       50
176
     1
 90
       50
176
     1
 90
       50
176
     1
290
     0
176
     1
 90
       50
176
     1
 62
   256
176
     0
 40
1.0
176
     0
 90
        2
176
     1
  1
strokes_ogs.tif
176
     1
290
     0
176
     1
 40
1.0
176
     1
 40
1.0
176
     1
1001
ACAD
1000
AcDbSavedByObjectVersion
1070
     0
  0
VISUALSTYLE
  5
62AD
102
{ACAD_XDICTIONARY
360
66BD
102
}
102
{ACAD_REACTORS
330
6297
102
}
330
6297
100
AcDbVisualStyle
  2

 70
    20
177
     3
291
     1
 70
    58
 90
        2
176
     0
 90
        2
176
     0
 90
        0
176
     0
 90
        0
176
     0
 40
0.6
176
     0
 40
30.0
176
     0
 62
     7
176
     0
 90
        1
176
     0
 90
        4
176
     0
 62
     7
176
     0
 62
   257
176
     0
 90
        1
176
     0
 90
        1
176
     0
 40
1.0
176
     0
 90
       10
176
     2
 62
     7
176
     0
 40
1.0
176
     0
 90
        1
176
     0
 90
        6
176
     0
 90
        2
176
     0
 62
     7
176
     0
 90
        5
176
     0
 90
        0
176
     0
 90
        0
176
     0
290
     0
176
     0
 90
        1
176
     0
 40
0.0
176
     0
 90
        0
176
     0
290
     0
176
     1
290
     1
176
     1
290
     1
176
     1
290
     0
176
     1
290
     0
176
     1
290
     0
176
     1
290
     0
176
     1
290
     0
176
     1
290
     0
176
     1
 90
       50
176
     0
 40
0.0
176
     0
 40
1.0
176
     0
 90
        0
176
     0
 62
    18
176
     0
 90
       50
176
     0
 90
        3
176
     0
 62
     5
420
      255
176
     0
290
     0
176
     1
 90
       50
176
     0
 90
       50
176
     0
 90
       50
176
     0
290
     0
176
     1
 90
       50
176
     0
 62
   256
176
     0
 40
1.0
176
     0
 90
        2
176
     0
  1
strokes_ogs.tif
176
     0
290
     0
176
     1
 40
1.0
176
     0
 40
1.0
176
     0
1001
ACAD
1000
AcDbSavedByObjectVersion
1070
     0
  0
VISUALSTYLE
  5
62A5
102
{ACAD_XDICTIONARY
360
66AD
102
}
102
{ACAD_REACTORS
330
6297
102
}
330
6297
100
AcDbVisualStyle
  2

 70
    14
177
     3
291
     1
 70
    58
 90
        2
176
     1
 90
        2
176
     1
 90
        0
176
     1
 90
        0
176
     1
 40
0.6
176
     1
 40
30.0
176
     1
 62
     7
176
     1
 90
        1
176
     1
 90
        4
176
     1
 62
     7
176
     1
 62
   257
176
     1
 90
        7
176
     1
 90
        7
176
     1
 40
1.0
176
     1
 90
        8
176
     1
 62
     7
176
     1
 40
1.0
176
     1
 90
        1
176
     1
 90
        6
176
     1
 90
        2
176
     1
 62
     7
176
     1
 90
        5
176
     1
 90
        0
176
     1
 90
        0
176
     1
290
     0
176
     1
 90
        1
176
     1
 40
0.0
176
     1
 90
        0
176
     1
290
     0
176
     1
290
     1
176
     1
290
     1
176
     1
290
     0
176
     1
290
     0
176
     1
290
     0
176
     1
290
     0
176
     1
290
     0
176
     1
290
     0
176
     1
 90
       50
176
     1
 40
0.0
176
     1
 40
1.0
176
     1
 90
        0
176
     1
 62
    18
176
     1
 90
       50
176
     1
 90
        3
176
     1
 62
     5
420
      255
176
     1
290
     0
176
     1
 90
       50
176
     1
 90
       50
176
     1
 90
       50
176
     1
290
     0
176
     1
 90
       50
176
     1
 62
   256
176
     0
 40
1.0
176
     0
 90
        2
176
     1
  1
strokes_ogs.tif
176
     1
290
     0
176
     1
 40
1.0
176
     1
 40
1.0
176
     1
1001
ACAD
1000
AcDbSavedByObjectVersion
1070
     0
  0
VISUALSTYLE
  5
62AE
102
{ACAD_XDICTIONARY
360
66BF
102
}
102
{ACAD_REACTORS
330
6297
102
}
330
6297
100
AcDbVisualStyle
  2

 70
    21
177
     3
291
     1
 70
    58
 90
        2
176
     0
 90
        2
176
     0
 90
        0
176
     0
 90
        0
176
     0
 40
0.6
176
     0
 40
30.0
176
     0
 62
     7
176
     0
 90
        1
176
     0
 90
        4
176
     0
 62
     7
176
     0
 62
   257
176
     0
 90
        1
176
     0
 90
        1
176
     0
 40
1.0
176
     0
 90
        9
176
     2
 62
     7
176
     0
 40
1.0
176
     0
 90
        1
176
     0
 90
        6
176
     0
 90
        2
176
     0
 62
     7
176
     0
 90
        5
176
     0
 90
        0
176
     0
 90
        0
176
     0
290
     0
176
     0
 90
        1
176
     0
 40
0.0
176
     0
 90
        0
176
     0
290
     0
176
     1
290
     1
176
     1
290
     1
176
     1
290
     0
176
     1
290
     0
176
     1
290
     0
176
     1
290
     0
176
     1
290
     0
176
     1
290
     0
176
     1
 90
       50
176
     0
 40
0.0
176
     0
 40
1.0
176
     0
 90
        0
176
     0
 62
    18
176
     0
 90
       50
176
     0
 90
        3
176
     0
 62
     5
420
      255
176
     0
290
     0
176
     1
 90
       50
176
     0
 90
       50
176
     0
 90
       50
176
     0
290
     0
176
     1
 90
       50
176
     0
 62
   256
176
     0
 40
1.0
176
     0
 90
        2
176
     0
  1
strokes_ogs.tif
176
     0
290
     0
176
     1
 40
1.0
176
     0
 40
1.0
176
     0
1001
ACAD
1000
AcDbSavedByObjectVersion
1070
     0
  0
VISUALSTYLE
  5
62A1
102
{ACAD_XDICTIONARY
360
66A5
102
}
102
{ACAD_REACTORS
330
6297
102
}
330
6297
100
AcDbVisualStyle
  2

 70
     8
177
     3
291
     0
 70
    58
 90
        2
176
     1
 90
        3
176
     1
 90
        0
176
     1
 90
        2
176
     1
 40
0.6
176
     1
 40
30.0
176
     1
 62
     7
176
     1
 90
        0
176
     1
 90
        0
176
     1
 62
     7
176
     1
 62
   257
176
     1
 90
        1
176
     1
 90
        1
176
     1
 40
1.0
176
     1
 90
        8
176
     1
 62
   257
176
     1
 40
1.0
176
     1
 90
        1
176
     1
 90
        6
176
     1
 90
        2
176
     1
 62
     7
176
     1
 90
        3
176
     1
 90
        0
176
     1
 90
        0
176
     1
290
     0
176
     1
 90
       13
176
     1
 40
0.0
176
     1
 90
        0
176
     1
290
     0
176
     1
290
     1
176
     1
290
     1
176
     1
290
     0
176
     1
290
     0
176
     1
290
     0
176
     1
290
     0
176
     1
290
     0
176
     1
290
     0
176
     1
 90
       50
176
     1
 40
0.0
176
     1
 40
1.0
176
     1
 90
        0
176
     1
 62
    18
176
     1
 90
       50
176
     1
 90
        3
176
     1
 62
     5
420
      255
176
     1
290
     0
176
     1
 90
       50
176
     1
 90
       50
176
     1
 90
       50
176
     1
290
     0
176
     1
 90
       50
176
     1
 62
   256
176
     0
 40
1.0
176
     0
 90
        2
176
     1
  1
strokes_ogs.tif
176
     1
290
     0
176
     1
 40
1.0
176
     1
 40
1.0
176
     1
1001
ACAD
1000
AcDbSavedByObjectVersion
1070
     0
  0
VISUALSTYLE
  5
62AC
102
{ACAD_XDICTIONARY
360
66BB
102
}
102
{ACAD_REACTORS
330
6297
102
}
330
6297
100
AcDbVisualStyle
  2

 70
    27
177
     3
291
     0
 70
    58
 90
        2
176
     1
 90
        2
176
     1
 90
        1
176
     1
 90
        2
176
     1
 40
0.6
176
     1
 40
30.0
176
     1
 62
     7
176
     1
 90
        0
176
     1
 90
        4
176
     1
 62
     7
176
     1
 62
   257
176
     1
 90
        1
176
     1
 90
        1
176
     1
 40
1.0
176
     1
 90
        8
176
     1
 62
   257
176
     1
 40
1.0
176
     1
 90
        1
176
     1
 90
        6
176
     1
 90
        2
176
     1
 62
     8
176
     1
 90
        3
176
     1
 90
        0
176
     1
 90
        0
176
     1
290
     0
176
     1
 90
        5
176
     1
 40
0.0
176
     1
 90
        0
176
     1
290
     0
176
     1
290
     1
176
     1
290
     1
176
     1
290
     0
176
     1
290
     0
176
     1
290
     0
176
     1
290
     0
176
     1
290
     0
176
     1
290
     0
176
     1
 90
       50
176
     1
 40
0.0
176
     1
 40
1.0
176
     1
 90
        0
176
     1
 62
    18
176
     1
 90
       50
176
     1
 90
        3
176
     1
 62
     5
420
      255
176
     1
290
     0
176
     1
 90
       50
176
     1
 90
       50
176
     1
 90
       50
176
     1
290
     0
176
     1
 90
       50
176
     1
 62
   256
176
     0
 40
1.0
176
     0
 90
        2
176
     1
  1
strokes_ogs.tif
176
     1
290
     0
176
     1
 40
1.0
176
     1
 40
1.0
176
     1
1001
ACAD
1000
AcDbSavedByObjectVersion
1070
     0
  0
VISUALSTYLE
  5
62AB
102
{ACAD_XDICTIONARY
360
66B9
102
}
102
{ACAD_REACTORS
330
6297
102
}
330
6297
100
AcDbVisualStyle
  2

 70
    26
177
     3
291
     0
 70
    58
 90
        2
176
     1
 90
        2
176
     1
 90
        1
176
     1
 90
        2
176
     1
 40
0.6
176
     1
 40
30.0
176
     1
 62
     7
176
     1
 90
        1
176
     1
 90
        2
176
     1
 62
     7
176
     1
 62
   257
176
     1
 90
        2
176
     1
 90
        1
176
     1
 40
1.0
176
     1
 90
        8
176
     1
 62
   257
176
     1
 40
1.0
176
     1
 90
        1
176
     1
 90
        6
176
     1
 90
        2
176
     1
 62
     7
176
     1
 90
        3
176
     1
 90
        0
176
     1
 90
        0
176
     1
290
     0
176
     1
 90
        5
176
     1
 40
0.0
176
     1
 90
        0
176
     1
290
     0
176
     1
290
     1
176
     1
290
     1
176
     1
290
     0
176
     1
290
     0
176
     1
290
     0
176
     1
290
     0
176
     1
290
     0
176
     1
290
     0
176
     1
 90
       50
176
     1
 40
0.0
176
     1
 40
1.0
176
     1
 90
        0
176
     1
 62
    18
176
     1
 90
       50
176
     1
 90
        3
176
     1
 62
     5
420
      255
176
     1
290
     0
176
     1
 90
       50
176
     1
 90
       50
176
     1
 90
       50
176
     1
290
     0
176
     1
 90
       50
176
     1
 62
   256
176
     0
 40
1.0
176
     0
 90
        2
176
     1
  1
strokes_ogs.tif
176
     1
290
     0
176
     1
 40
1.0
176
     1
 40
1.0
176
     1
1001
ACAD
1000
AcDbSavedByObjectVersion
1070
     0
  0
VISUALSTYLE
  5
62A8
102
{ACAD_XDICTIONARY
360
66B3
102
}
102
{ACAD_REACTORS
330
6297
102
}
330
6297
100
AcDbVisualStyle
  2

 70
    23
177
     3
291
     0
 70
    58
 90
        2
176
     1
 90
        2
176
     1
 90
        3
176
     1
 90
        0
176
     1
 40
0.6
176
     1
 40
30.0
176
     1
 62
     7
176
     1
 90
        2
176
     1
 90
        2
176
     1
 62
     7
176
     1
 62
     7
176
     1
 90
        1
176
     1
 90
        1
176
     1
 40
40.0
176
     1
 90
        8
176
     1
 62
     7
176
     1
 40
1.0
176
     1
 90
        1
176
     1
 90
        6
176
     1
 90
        2
176
     1
 62
     7
176
     1
 90
        3
176
     1
 90
        0
176
     1
 90
        0
176
     1
290
     0
176
     1
 90
        1
176
     1
 40
0.0
176
     1
 90
        0
176
     1
290
     0
176
     1
290
     1
176
     1
290
     1
176
     1
290
     0
176
     1
290
     0
176
     1
290
     0
176
     1
290
     0
176
     1
290
     0
176
     1
290
     0
176
     1
 90
       50
176
     1
 40
0.0
176
     1
 40
1.0
176
     1
 90
        0
176
     1
 62
    18
176
     1
 90
       50
176
     1
 90
        3
176
     1
 62
     5
420
      255
176
     1
290
     0
176
     1
 90
       50
176
     1
 90
       50
176
     1
 90
       50
176
     1
290
     0
176
     1
 90
       50
176
     1
 62
   256
176
     0
 40
1.0
176
     0
 90
        2
176
     1
  1
strokes_ogs.tif
176
     1
290
     0
176
     1
 40
1.0
176
     1
 40
1.0
176
     1
1001
ACAD
1000
AcDbSavedByObjectVersion
1070
     0
  0
VISUALSTYLE
  5
62A9
102
{ACAD_XDICTIONARY
360
66B5
102
}
102
{ACAD_REACTORS
330
6297
102
}
330
6297
100
AcDbVisualStyle
  2

 70
    24
177
     3
291
     0
 70
    58
 90
        1
176
     1
 90
        2
176
     1
 90
        2
176
     1
 90
        0
176
     1
 40
0.6
176
     1
 40
30.0
176
     1
 62
     7
176
     1
 90
        2
176
     1
 90
        2
176
     1
 62
     7
176
     1
 62
     7
176
     1
 90
        1
176
     1
 90
        1
176
     1
 40
40.0
176
     1
 90
       11
176
     1
 62
     7
176
     1
 40
1.0
176
     1
 90
        1
176
     1
 90
        6
176
     1
 90
        2
176
     1
 62
     7
176
     1
 90
        6
176
     1
 90
        0
176
     1
 90
        0
176
     1
290
     0
176
     1
 90
        1
176
     1
 40
0.0
176
     1
 90
        0
176
     1
290
     0
176
     1
290
     1
176
     1
290
     1
176
     1
290
     0
176
     1
290
     0
176
     1
290
     0
176
     1
290
     0
176
     1
290
     0
176
     1
290
     0
176
     1
 90
       50
176
     1
 40
0.0
176
     1
 40
1.0
176
     1
 90
        0
176
     1
 62
    18
176
     1
 90
       50
176
     1
 90
        3
176
     1
 62
     5
420
      255
176
     1
290
     0
176
     1
 90
       50
176
     1
 90
       50
176
     1
 90
       50
176
     1
290
     0
176
     1
 90
       50
176
     1
 62
   256
176
     0
 40
1.0
176
     0
 90
        2
176
     1
  1
strokes_ogs.tif
176
     1
290
     0
176
     1
 40
1.0
176
     1
 40
1.0
176
     1
1001
ACAD
1000
AcDbSavedByObjectVersion
1070
     0
  0
VISUALSTYLE
  5
62A4
102
{ACAD_XDICTIONARY
360
66AB
102
}
102
{ACAD_REACTORS
330
6297
102
}
330
6297
100
AcDbVisualStyle
  2

 70
    13
177
     3
291
     1
 70
    58
 90
        2
176
     1
 90
        2
176
     1
 90
        0
176
     1
 90
        0
176
     1
 40
0.6
176
     1
 40
30.0
176
     1
 62
     7
176
     1
 90
        1
176
     1
 90
        4
176
     1
 62
     7
176
     1
 62
   257
176
     1
 90
        1
176
     1
 90
        1
176
     1
 40
1.0
176
     1
 90
       12
176
     1
 62
     7
176
     1
 40
1.0
176
     1
 90
        1
176
     1
 90
        6
176
     1
 90
        2
176
     1
 62
     7
176
     1
 90
        5
176
     1
 90
        0
176
     1
 90
        0
176
     1
290
     0
176
     1
 90
        1
176
     1
 40
0.0
176
     1
 90
        0
176
     1
290
     0
176
     1
290
     1
176
     1
290
     1
176
     1
290
     0
176
     1
290
     0
176
     1
290
     0
176
     1
290
     0
176
     1
290
     0
176
     1
290
     0
176
     1
 90
       50
176
     1
 40
0.0
176
     1
 40
1.0
176
     1
 90
        0
176
     1
 62
    18
176
     1
 90
       50
176
     1
 90
        3
176
     1
 62
     5
420
      255
176
     1
290
     0
176
     1
 90
       50
176
     1
 90
       50
176
     1
 90
       50
176
     1
290
     0
176
     1
 90
       50
176
     1
 62
   256
176
     0
 40
1.0
176
     0
 90
        2
176
     1
  1
strokes_ogs.tif
176
     1
290
     0
176
     1
 40
1.0
176
     1
 40
1.0
176
     1
1001
ACAD
1000
AcDbSavedByObjectVersion
1070
     0
  0
VISUALSTYLE
  5
629E
102
{ACAD_XDICTIONARY
360
669F
102
}
102
{ACAD_REACTORS
330
6297
102
}
330
6297
100
AcDbVisualStyle
  2

 70
     5
177
     3
291
     0
 70
    58
 90
        0
176
     1
 90
        2
176
     1
 90
        0
176
     1
 90
        0
176
     1
 40
0.6
176
     1
 40
30.0
176
     1
 62
     7
176
     1
 90
        1
176
     1
 90
        4
176
     1
 62
     7
176
     1
 62
   257
176
     1
 90
        1
176
     1
 90
        1
176
     1
 40
1.0
176
     1
 90
        0
176
     1
 62
   257
176
     1
 40
1.0
176
     1
 90
        1
176
     1
 90
        6
176
     1
 90
        2
176
     1
 62
     7
176
     1
 90
        3
176
     1
 90
        0
176
     1
 90
        0
176
     1
290
     0
176
     1
 90
        1
176
     1
 40
0.0
176
     1
 90
        0
176
     1
290
     0
176
     1
290
     1
176
     1
290
     1
176
     1
290
     0
176
     1
290
     0
176
     1
290
     0
176
     1
290
     0
176
     1
290
     0
176
     1
290
     0
176
     1
 90
       50
176
     1
 40
0.0
176
     1
 40
1.0
176
     1
 90
        0
176
     1
 62
    18
176
     1
 90
       50
176
     1
 90
        3
176
     1
 62
     5
420
      255
176
     1
290
     0
176
     1
 90
       50
176
     1
 90
       50
176
     1
 90
       50
176
     1
290
     0
176
     1
 90
       50
176
     1
 62
   256
176
     0
 40
1.0
176
     0
 90
        2
176
     1
  1
strokes_ogs.tif
176
     1
290
     0
176
     1
 40
1.0
176
     1
 40
1.0
176
     1
1001
ACAD
1000
AcDbSavedByObjectVersion
1070
     0
  0
VISUALSTYLE
  5
62AA
102
{ACAD_XDICTIONARY
360
66B7
102
}
102
{ACAD_REACTORS
330
6297
102
}
330
6297
100
AcDbVisualStyle
  2

 70
    25
177
     3
291
     0
 70
    58
 90
        2
176
     1
 90
        2
176
     1
 90
        1
176
     1
 90
        1
176
     1
 40
0.5
176
     1
 40
30.0
176
     1
 62
     7
176
     1
 90
        1
176
     1
 90
        0
176
     1
 62
     7
176
     1
 62
   257
176
     1
 90
        1
176
     1
 90
        1
176
     1
 40
1.0
176
     1
 90
        8
176
     1
 62
     7
176
     1
 40
1.0
176
     1
 90
        1
176
     1
 90
        6
176
     1
 90
        2
176
     1
 62
     7
176
     1
 90
        3
176
     1
 90
        0
176
     1
 90
        0
176
     1
290
     0
176
     1
 90
       13
176
     1
 40
0.0
176
     1
 90
        0
176
     1
290
     0
176
     1
290
     1
176
     1
290
     1
176
     1
290
     0
176
     1
290
     0
176
     1
290
     0
176
     1
290
     0
176
     1
290
     0
176
     1
290
     0
176
     1
 90
       50
176
     1
 40
0.0
176
     1
 40
1.0
176
     1
 90
        0
176
     1
 62
    18
176
     1
 90
       50
176
     1
 90
        3
176
     1
 62
     5
420
      255
176
     1
290
     0
176
     1
 90
       50
176
     1
 90
       50
176
     1
 90
       50
176
     1
290
     0
176
     1
 90
       50
176
     1
 62
   256
176
     0
 40
1.0
176
     0
 90
        2
176
     1
  1
strokes_ogs.tif
176
     1
290
     0
176
     1
 40
1.0
176
     1
 40
1.0
176
     1
1001
ACAD
1000
AcDbSavedByObjectVersion
1070
     0
  0
DICTIONARYVAR
  5
6384
102
{ACAD_REACTORS
330
5697
102
}
330
5697
100
DictionaryVariables
280
     0
  1
1:1
  0
DICTIONARYVAR
  5
6381
102
{ACAD_REACTORS
330
5697
102
}
330
5697
100
DictionaryVariables
280
     0
  1
STANDARD
  0
DICTIONARYVAR
  5
6380
102
{ACAD_REACTORS
330
5697
102
}
330
5697
100
DictionaryVariables
280
     0
  1
STANDARD
  0
DICTIONARYVAR
  5
6382
102
{ACAD_REACTORS
330
5697
102
}
330
5697
100
DictionaryVariables
280
     0
  1
Imperial24
  0
DICTIONARYVAR
  5
6383
102
{ACAD_REACTORS
330
5697
102
}
330
5697
100
DictionaryVariables
280
     0
  1
Imperial24
  0
DICTIONARYVAR
  5
5698
102
{ACAD_REACTORS
330
5697
102
}
330
5697
100
DictionaryVariables
280
     0
  1
1
  0
DICTIONARYVAR
  5
6386
102
{ACAD_REACTORS
330
5697
102
}
330
5697
100
DictionaryVariables
280
     0
  1
0
  0
DICTIONARYVAR
  5
66D5
102
{ACAD_REACTORS
330
5697
102
}
330
5697
100
DictionaryVariables
280
     0
  1
1
  0
DICTIONARYVAR
  5
66D6
102
{ACAD_REACTORS
330
5697
102
}
330
5697
100
DictionaryVariables
280
     0
  1
15
  0
DICTIONARYVAR
  5
66D4
102
{ACAD_REACTORS
330
5697
102
}
330
5697
100
DictionaryVariables
280
     0
  1
0
  0
DICTIONARYVAR
  5
66D3
102
{ACAD_REACTORS
330
5697
102
}
330
5697
100
DictionaryVariables
280
     0
  1
0
  0
DICTIONARYVAR
  5
6385
102
{ACAD_REACTORS
330
5697
102
}
330
5697
100
DictionaryVariables
280
     0
  1
127
  0
DICTIONARY
  5
11B39
330
62CA
100
AcDbDictionary
280
     1
281
     1
  3
ACAD_XREC_ROUNDTRIP
360
11CD2
  0
DICTIONARY
  5
11B3D
330
6AFE
100
AcDbDictionary
280
     1
281
     1
  3
ACAD_XREC_ROUNDTRIP
360
11CD4
  0
DICTIONARY
  5
FF76
330
6262
100
AcDbDictionary
280
     1
281
     1
  0
DICTIONARY
  5
6288
330
6287
100
AcDbDictionary
280
     1
281
     1
  3
ACAD_XREC_ROUNDTRIP
360
64A9
  3
BUMPTILE
360
628A
  3
DIFFUSETILE
360
6289
  3
OPACITYTILE
360
628D
  3
REFLECTIONTILE
360
628C
  3
REFRACTIONTILE
360
628E
  3
SPECULARTILE
360
628B
  0
DICTIONARY
  5
6280
330
627F
100
AcDbDictionary
280
     1
281
     1
  3
ACAD_XREC_ROUNDTRIP
360
64A8
  3
BUMPTILE
360
6282
  3
DIFFUSETILE
360
6281
  3
OPACITYTILE
360
6285
  3
REFLECTIONTILE
360
6284
  3
REFRACTIONTILE
360
6286
  3
SPECULARTILE
360
6283
  0
DICTIONARY
  5
6290
330
628F
100
AcDbDictionary
280
     1
281
     1
  3
ACAD_XREC_ROUNDTRIP
360
64AA
  3
BUMPTILE
360
6292
  3
DIFFUSETILE
360
6291
  3
FBXASSET
360
63D7
  3
OPACITYTILE
360
6295
  3
REFLECTIONTILE
360
6294
  3
REFRACTIONTILE
360
6296
  3
SPECULARTILE
360
6293
  0
DICTIONARY
  5
11B37
330
62C8
100
AcDbDictionary
280
     1
281
     1
  3
ACAD_XREC_ROUNDTRIP
360
11CD1
  0
DICTIONARY
  5
11B3B
330
6AFD
100
AcDbDictionary
280
     1
281
     1
  3
ACAD_XREC_ROUNDTRIP
360
11CD3
  0
DICTIONARY
  5
649A
330
62B2
100
AcDbDictionary
280
     1
281
     1
  3
ACAD_ROUNDTRIP_2008_TABLESTYLE_CELLSTYLEMAP
360
11CD0
  0
DICTIONARY
  5
669D
330
629D
100
AcDbDictionary
280
     1
281
     1
  3
ACAD_XREC_ROUNDTRIP
360
669E
  0
DICTIONARY
  5
669B
330
629C
100
AcDbDictionary
280
     1
281
     1
  3
ACAD_XREC_ROUNDTRIP
360
669C
  0
DICTIONARY
  5
66A9
330
62A3
100
AcDbDictionary
280
     1
281
     1
  3
ACAD_XREC_ROUNDTRIP
360
66AA
  0
DICTIONARY
  5
66B1
330
62A7
100
AcDbDictionary
280
     1
281
     1
  3
ACAD_XREC_ROUNDTRIP
360
66B2
  0
DICTIONARY
  5
66A3
330
62A0
100
AcDbDictionary
280
     1
281
     1
  3
ACAD_XREC_ROUNDTRIP
360
66A4
  0
DICTIONARY
  5
66A7
330
62A2
100
AcDbDictionary
280
     1
281
     1
  3
ACAD_XREC_ROUNDTRIP
360
66A8
  0
DICTIONARY
  5
66C1
330
62AF
100
AcDbDictionary
280
     1
281
     1
  3
ACAD_XREC_ROUNDTRIP
360
66C2
  0
DICTIONARY
  5
66AF
330
62A6
100
AcDbDictionary
280
     1
281
     1
  3
ACAD_XREC_ROUNDTRIP
360
66B0
  0
DICTIONARY
  5
6693
330
6298
100
AcDbDictionary
280
     1
281
     1
  3
ACAD_XREC_ROUNDTRIP
360
6694
  0
DICTIONARY
  5
6695
330
6299
100
AcDbDictionary
280
     1
281
     1
  3
ACAD_XREC_ROUNDTRIP
360
6696
  0
DICTIONARY
  5
6697
330
629A
100
AcDbDictionary
280
     1
281
     1
  3
ACAD_XREC_ROUNDTRIP
360
6698
  0
DICTIONARY
  5
6699
330
629B
100
AcDbDictionary
280
     1
281
     1
  3
ACAD_XREC_ROUNDTRIP
360
669A
  0
DICTIONARY
  5
66A1
330
629F
100
AcDbDictionary
280
     1
281
     1
  3
ACAD_XREC_ROUNDTRIP
360
66A2
  0
DICTIONARY
  5
66BD
330
62AD
100
AcDbDictionary
280
     1
281
     1
  3
ACAD_XREC_ROUNDTRIP
360
66BE
  0
DICTIONARY
  5
66AD
330
62A5
100
AcDbDictionary
280
     1
281
     1
  3
ACAD_XREC_ROUNDTRIP
360
66AE
  0
DICTIONARY
  5
66BF
330
62AE
100
AcDbDictionary
280
     1
281
     1
  3
ACAD_XREC_ROUNDTRIP
360
66C0
  0
DICTIONARY
  5
66A5
330
62A1
100
AcDbDictionary
280
     1
281
     1
  3
ACAD_XREC_ROUNDTRIP
360
66A6
  0
DICTIONARY
  5
66BB
330
62AC
100
AcDbDictionary
280
     1
281
     1
  3
ACAD_XREC_ROUNDTRIP
360
66BC
  0
DICTIONARY
  5
66B9
330
62AB
100
AcDbDictionary
280
     1
281
     1
  3
ACAD_XREC_ROUNDTRIP
360
66BA
  0
DICTIONARY
  5
66B3
330
62A8
100
AcDbDictionary
280
     1
281
     1
  3
ACAD_XREC_ROUNDTRIP
360
66B4
  0
DICTIONARY
  5
66B5
330
62A9
100
AcDbDictionary
280
     1
281
     1
  3
ACAD_XREC_ROUNDTRIP
360
66B6
  0
DICTIONARY
  5
66AB
330
62A4
100
AcDbDictionary
280
     1
281
     1
  3
ACAD_XREC_ROUNDTRIP
360
66AC
  0
DICTIONARY
  5
669F
330
629E
100
AcDbDictionary
280
     1
281
     1
  3
ACAD_XREC_ROUNDTRIP
360
66A0
  0
DICTIONARY
  5
66B7
330
62AA
100
AcDbDictionary
280
     1
281
     1
  3
ACAD_XREC_ROUNDTRIP
360
66B8
  0
XRECORD
  5
11CD2
102
{ACAD_REACTORS
330
11B39
102
}
330
11B39
100
AcDbXrecord
280
     1
102
DISPLAYNAME
  1

102
FLAGS
 90
        0
  0
XRECORD
  5
11CD4
102
{ACAD_REACTORS
330
11B3D
102
}
330
11B3D
100
AcDbXrecord
280
     1
102
DISPLAYNAME
  1
Metric50
102
FLAGS
 90
        0
  0
XRECORD
  5
64A9
102
{ACAD_REACTORS
330
6288
102
}
330
6288
100
AcDbXrecord
280
     1
102
MATERIAL
148
0.0
149
0.0
149
0.0
 93
        0
 94
      127
282
     0
 72
     0
 77
     0
171
     0
175
     0
179
     0
273
     0
  0
XRECORD
  5
628A
102
{ACAD_REACTORS
330
6288
102
}
330
6288
100
AcDbXrecord
280
     1
270
     1
271
     1
  0
XRECORD
  5
6289
102
{ACAD_REACTORS
330
6288
102
}
330
6288
100
AcDbXrecord
280
     1
270
     1
271
     1
  0
XRECORD
  5
628D
102
{ACAD_REACTORS
330
6288
102
}
330
6288
100
AcDbXrecord
280
     1
270
     1
271
     1
  0
XRECORD
  5
628C
102
{ACAD_REACTORS
330
6288
102
}
330
6288
100
AcDbXrecord
280
     1
270
     1
271
     1
  0
XRECORD
  5
628E
102
{ACAD_REACTORS
330
6288
102
}
330
6288
100
AcDbXrecord
280
     1
270
     1
271
     1
  0
XRECORD
  5
628B
102
{ACAD_REACTORS
330
6288
102
}
330
6288
100
AcDbXrecord
280
     1
270
     1
271
     1
  0
XRECORD
  5
64A8
102
{ACAD_REACTORS
330
6280
102
}
330
6280
100
AcDbXrecord
280
     1
102
MATERIAL
148
0.0
149
0.0
149
0.0
 93
        0
 94
      127
282
     0
 72
     0
 77
     0
171
     0
175
     0
179
     0
273
     0
  0
XRECORD
  5
6282
102
{ACAD_REACTORS
330
6280
102
}
330
6280
100
AcDbXrecord
280
     1
270
     1
271
     1
  0
XRECORD
  5
6281
102
{ACAD_REACTORS
330
6280
102
}
330
6280
100
AcDbXrecord
280
     1
270
     1
271
     1
  0
XRECORD
  5
6285
102
{ACAD_REACTORS
330
6280
102
}
330
6280
100
AcDbXrecord
280
     1
270
     1
271
     1
  0
XRECORD
  5
6284
102
{ACAD_REACTORS
330
6280
102
}
330
6280
100
AcDbXrecord
280
     1
270
     1
271
     1
  0
XRECORD
  5
6286
102
{ACAD_REACTORS
330
6280
102
}
330
6280
100
AcDbXrecord
280
     1
270
     1
271
     1
  0
XRECORD
  5
6283
102
{ACAD_REACTORS
330
6280
102
}
330
6280
100
AcDbXrecord
280
     1
270
     1
271
     1
  0
XRECORD
  5
64AA
102
{ACAD_REACTORS
330
6290
102
}
330
6290
100
AcDbXrecord
280
     1
102
MATERIAL
148
0.0
149
0.0
149
0.0
 93
        0
 94
      127
282
     0
 72
     0
 77
     0
171
     0
175
     0
179
     0
273
     0
  0
XRECORD
  5
6292
102
{ACAD_REACTORS
330
6290
102
}
330
6290
100
AcDbXrecord
280
     1
270
     1
271
     1
  0
XRECORD
  5
6291
102
{ACAD_REACTORS
330
6290
102
}
330
6290
100
AcDbXrecord
280
     1
270
     1
271
     1
  0
XRECORD
  5
63D7
102
{ACAD_REACTORS
330
6290
102
}
330
6290
100
AcDbXrecord
280
     1
 70
     1
 90
652598616
 71
     1
  1
E9D7140A-5182-4D1A-8DAF-B29BB4741B8E
311
504B030414000608080054756A488F956FB8DA000000200100004F00000046353733343737332D383136372D343130432D424146432D4533333435423933463535312F4173736574446174612F446566696E6974696F6E4974657261746F7250726F706572746965732E62696E454E3D6FC23010753B5075E8C03F40ECAE3F
311
B00244404580742A0B9DBAA0C31C6924C741B62375ECD87FDDDA828A93DEBDFB7C773F8490DFABC590DC457C47FF14F9152DBA5AEFF42736407AA962DA0398875BEF3E86295DE3093A13D2D65BED351A0316DBCEF76FA38306429403F39C961E23FE0B3E29549763E9FE3622BD94188EE7FC05BCC73067A7C317DB2C0BB91E
311
97059D8A72495526059D64AB0D559372C5A75C48A10AE6D0B79DD3E899647C7F55DE9F6D85F3A17618FF380E17928B8CF21115FC5DA85CC95C898F190B75838B990FAEB6D5C042F307504B030414000608080054756A4803B7991C25010000300200004500000046353733343737332D383136372D343130432D424146432D
311
4533333435423933463535312F4173736574446174612F496E7374616E636550726F706572746965732E62696EEB606060F80F0540260323103700495E20ED9E9A975A94991C9C9C919A9BA8021470B5743137343170D43535B430D235713174D4B5707174D37532B274723231373174B270654768046931363471713532B5
311
D435353131D635313332D475727372D13534373670367376B67474B5042A03DBCBA019D37FE8ABC6157B20CD04146B0062181F4C03F940F0C11EA29A8141C08141002C0426541C106CAC2CA046088033B02A030AC2157C6006F21A8018AAF50194E6010A610250382264E08660284CD9E98021862280A91564B406929A0FF6
311
2C401E28B6F88038B83CB1243943D7A928312F25350524B3C02C4569470543830283ACF88FBF3DB61C40311088E1284984B018181CCA2FD882D8E5AC3011042D9DFC8661F2C4979ED316F5CD64ADB3B90D930100504B030414000608080054756A4828BB58AF800100009E0500003D00000046353733343737332D38313637
311
2D343130432D424146432D4533333435423933463535312F536368656D61732F436F6D6D6F6E536368656D612E786D6CBD544D4FC23018BEFB2B96DE15493C78601010A34B880709DEDFB52FD0D8B54BD70DF6EFED3AC0B12E6442E2716BFB3CEFF3D18E26FB440405EA8C2B1992E1C323095052C5B8DC842437EBFB673219
311
DF8DA659866649B798C078B48AE6410122242F2A4994AC7F93815DF85C049C8564CA0A901499DD886B2EB9B1E02448F358701A9235880C49A0119892A20C89D1B9FD768815CAD268CB5E0355B40B1E47F3E37A2020464BED06AA57CE8FCC20C3C3446D46761A2632A8C1283D07031EFF2AE7CCB1BFEEE916E406DFAC8E36FF
311
D99A9D60A6944090EEDC3B670C7DC13DE86B6B2C5C240D6E503BB85ACD579D513F1B9F9A69DC9CC22AFA80C426D40AF0B21EA168559156B6276F0F726A6BFF04DCD513A87A62CAD41FB24FCB2858B3952E3D852084DA25B9303C15687973CC8E8AAE11DF2836C38C6A9E765E8C1BA1BFB1DC29CDFE518C8B5A7655A4ED7E77
311
291ABEB80DBD82EC866ADE1B8D05AF9E35CF09D7A061F38A986D9EC412B8F0F65E5D81534D9B231D1E5A8FE577A241F3A5FD01504B030414000608080054756A482CCEBD668A040000E01200003E00000046353733343737332D383136372D343130432D424146432D4533333435423933463535312F536368656D61732F47
311
656E65726963536368656D612E786D6CD5586D6FDB380CFE7EBF42F0F7A649B70E1B90744856B4970F450FCD7A5F05459613EDE4174872DADCAF3F522F8ED3B88D2F1D06AC4050DBA2493EE4438AF2F8EB73AEC8466823CB62928C06C384888297A92C5693A4B6D9D9E7E4EBD51FE3A931C22EF85AE4EC6AFC38BF261BA626
311
C9AD288496DC3F4FCEAFC63366845F7A10452AF41DB320C0D44EC26EAB20918735565582695670811A6A49643A49A6E9069FA4604A64B29016DC4B48552F95E4932463CA888468C1D2B250DB4962750DF7CE273069CE8363F1FF4EDB00E0A21999574AE4A2B00C353B93F3BD4777B8A61ED8F604ABFEDD79CE56A2B7BDFBDB
311
C50996E0ADDE16FED26223C5D30956C29BDF4A55EA686E5E58B112DA45CE67F76F4FA27EFA3FB672FD7372FC388FAECDCA5209E693CAD167BADCD272F943701B3812F8A3D852008B1D2E32DB927B2F833C6EA95879925356D254582695095A3CE982924720BE5774A3CB9CDCDB350427D2DF20DA1B5532EBE2D5D6288D75D4
311
F7E4FD9890A0EF8E3D93EBB8F8BA4758158EF6FB90A6F9520281C93DE7AAC6D24607DA296BB96018123F821A7D6A5C5884050C475DA4865442732C8B95684A50165CBB3A32F25F783A4A480ED59AD7F924B968AEA50131F46303223E6A397B0E52976030DC1DCA81D7E7C1EDEEA42C19FF27635C505E2BD5198A599020DF50
311
A2330FCB3AAF28CB0124108429553EF1B228802E2265D8F7CC2401042B155BCC7070F1E5C55F13B4A9577362CCCE46C32174E010C3C378C44841A4BDA00FE3A12006CE11EE6AEC59894D3526DDE1CD59D503ECC324017F8061B7F162162FA62EDD81AE3308617770796DCBDAD2B2625C5AE8A63DE20B2C8AA5E95E76E57308
311
23955956E33E705425A2187C185D36489A1B44D3DCEC2172F6BA2105C3546287A7194B2331768EBBE64F6E70A9930ABE0ADEA89E9E2C38523B810287AD67A54A039C1606EAFE68F8304610BB9093DBDDABC0B2AE4E290DCDA15376D7E39F72B556F0B32EAB5D3D498B4C41ABADEC3A1434C422D87E8025A84BDCB2B1417ED7
311
50FAE4DA8976863974C577C7F902D3F156AD354DEA3540DE6BEAE2BEA52F7A2EB4CA43802ECE5BF2CE2EDC9347179FFB023CE412E60BE16DA0BE29B374988A553F561DC04615DD35F7D2C8979F60E5955CE93DF29DED8AFA1EE6642D53418086C03C47C377910F75F7E8F5EF665F70B60FFB22AEDF897D119E8423C773E819
311
A3C1E55E550599EE6EDCA34D0C86FD72057DF2CD46F16A470682471C164E4346D5306BF12D7D12D82CFF673D41636C347443FEB51B50D72EA171A8E4A58623A4A16E0FA2B8B10A0D23268D87C33896EE8FB73305A74BF224EDBADFA0BD674AB354D63DB7BD5D83426761C077DE767728235446A552754EB93B755891C3C4CC
311
6CADE37CF0E912A7BB38DBA010F9DE1282EDF470CA69A9CDA482E334C4A6EA4107987980B17E72F31730EBF88BBD39E7C629F56797A3C0009C2C5AE7951D9A05A02773440F02EEB4DE396A3B6A570C72CCFBCD823B0B8ED3F1D5CEDDFED772FA70236C83FB7D86C385D570B87107535572A60A96035F8F7C6A7192F1300724
311
6BBE0521855E6AC46F3E27689CEE7D186A6FD679D98CDCAD13333E04EBE7ED6F55FF01504B030414000608080054756A486180134D5F0100006B0300004500000046353733343737332D383136372D343130432D424146432D4533333435423933463535312F536368656D61732F52656E6465724D6174657269616C536368
311
656D612E786D6CA5934D6FC2300C86EFFB1551EEE343DBA41D1A103009551ADAD40EAE28A4A68D9426284961FCFBE5A340113B2071746D3F765EBF4DC6BFB5407BD0862B49F0B037C0082453059725C18DDD3EBFE3F1E829991803366715D474942CD30FB4A782E00C64017A412D684E454CE3FE28995203B162A6EA5AC94B
311
66997D225E109CD63B0135484BAD1B3C07E9080CA35DB3119C11BCA5C200461A68A1A438126C75E3E230D40FF81FB3F03C91D1E3A3A0AF79FE28E25BC39EC3E17E4C2A2D94A0833A51AF55BCCA7D88572FCBAC529C4140B020FC3AAFA886621DCED7EAD7664CC86024E806DC297DA1BB393E4156543457A4537DB8817349A7
311
0F8ACBF09B3EEE2CB2F33E91B65D60786E4E3B39B77E3FEEEF5650424525DA657FB8B46BE6BF064646F0A0F7327C0BC1BC1B4CBBC1C419FA3CCB23500007872A2580CAAE5461865565294E4EDB4617B62FF579DF9A5B2F54E834076A597573A020912FED777F9B3F504B030414000608080054756A4801B3D6125100000057
311
0000004700000046353733343737332D383136372D343130432D424146432D4533333435423933463535312F4173736574446174612F41737365745461626C654F66436F6E74656E74732E62696E5361606070B5743137343170D43535B430D235713174D4B5707174D37532B274723231373174B2701502AACB4D2C492DCA
311
4CCC492C28484D2C4ACC4B4E050A82012F90744FCD03CA26072767A4E6260200504B030414000608080054756A48F865834058000000680000004500000046353733343737332D383136372D343130432D424146432D4533333435423933463535312F4173736574446174612F53747265616D56657273696F6E5461626C65
311
2E696E66558CBD0A80300C06F73E4B117FB66E451741D041DC5BF98480A492E4FDD18EAEC7DD4555D89EF28DF51A0B1BD8340C4DE7DD848B988C0ACF0649566493F2408C508DDEBB99D5129FF8F1AF8CF5B9503E20FAE5A16B5AF702504B030414000608080054756A48204BF1A8340100009A040000360000004635373334
311
3737332D383136372D343130432D424146432D4533333435423933463535312F4173736574446174612F636E782E786D6CCD94314FC3301085FF4AE43D76522A842AC71582A51348540C6C57E752AC3A76645F10FC7BEC3603A8882943D6F3BBF3F327BF93DBCFDE161F18A2F1AE6135AF58814EFBD6B863C346EACA3B566C
311
950CDED30F192B1CF4D8B05C664A1E831F87A9D46207A3CD556BDC692ADEC788B48783C5A7EEC13B42479115DA428C0D8BFA1D7BE030926F319E780B04BCE601A31F83C634894C8FD3241D10085BA656557D5B5637655DEDEBF566BDDAACEB3729B252C983F776D29B7459F043A12FB7325549918F951C839934F92D4CFDE5
311
911F8C932229958C141293A983BE86D401C3608D064AE884D784542611422FC545ACA4C80C7E9178C4CE38935B76C918900FCFC91E0632B83822FF799D9FCCCE4502A771B93CAE1DCE4FE1E5FC835E2F813C27666939B976C88DEB66488938AF91149ABC55D437504B030414000608080054756A48EB7DE2A2080100004F03
311
00003400000046353733343737332D383136372D343130432D424146432D4533333435423933463535312F536368656D61732F636E782E786D6CCD93BD4E042114855F85D0EF30AC1363360C5B5858D9A8951DC2DD952C7027FC187D7B61A4D84DECB4D80E0E5FC839878BD87F7A473E20268B61A67C182981A0D1D8709C69
311
C987CD1D257B2922623EC32809CAC34C9B4CA538462C4B970C1C54714D75369CBA788FDE6378D6EFE01525DAA994669AD6EDA04A4603E9341895D5C08708094BD4506FC8D643BF414750190C95DB91DF6EC69B0D1F5FF8B49BB6BB89BF0AD64829DE105DE76DC81071211AEB22543BA360ED588A126D675A062ACFBD0DB50D
311
C12A2145CAB176D0C9FCB554522D8BB35AE55A155BC11F460AD6A25E047E8000D1EAEB4C7C61EEDF223F4130101FEB2B45ABDC7526FFCDE3DF0A60EBECD711685F417E03504B030414000608080054756A48410A3D5871000000A40000002C00000046353733343737332D383136372D343130432D424146432D4533333435
311
423933463535312F636E782E786D6C55CC4D0E82301086E1AB34B31774E7A22D31F1069E60020334B633A63FC6E34B0909B07DDE2F9FEE7EC1AB2FC5E4840DDC9A2B28E25E06C7938192C7CB1D54677514C9871928C640062A83D55394F2D968A0118BAFEA1DBF377CA444F98919176EAB9FEAAB9F2960DA5BBB1E2ED3FA6F
311
FF504B030414000608080054756A486F2552EE7E000000A300000007000000636E782E786D6C4D8CD10AC22018465F45FE7B6BA2E60275B491EF319A1B92D361337AFC3476D1D50787EF1CD97D568FDE36BD5C0C0AC8A90164C3234E2E2C0AF23EE31650A7658A71FFBB010AE36A15540C5A2E29E6ED40939DC7EC2BF52E3C
311
0F68B8A04C088A5B7211989166C0FDCD0CF84E29E3FD951ACE4931CE5529F3EB95AD79FD05504B030414000608080054756A4816E99B5DA600000035010000130000005B436F6E74656E745F54797065735D2E786D6C9590410E82301045AFD2740F4517C6180A0BF5065E60AC53688469D30E066F6F91AD9AB89CF9FFFD3F
311
99BA9DC7413C3026E749CB4D59498164FCCD51A7E5C4B6D84BD136F5E5193089ECA5A465CF1C0E4A25D3E308A9F401292BD6C711388FB15301CC1D3A54DBAADA29E38991B8E0254336F5092D4C038BF39CD76B6FC6A538AEBEA54A4B08617006389FA516557DE4AE8E7E70DE30729138228C5F021CD93F02D4FB0DCD0B504B
311
030414000608080054756A483DEE336E64000000790000001B0000006175746F6465736B2D64657369676E2D7061636B6167652E786D6C35CBC10E83200C00D05F21DCA56CA76D41FC96062B120735B69A7DBE268BB7777961F8D5AF396893C2ADB70FE7ADA196782C2DF776D7A97B5933C430F15651E5469C55D70F80A499
311
2A3ADC954792C525AE70A1E4D6AD9816CC044FEFDF01FE3FDE907802504B030414000608080054756A48B1D018FAF8000000960100003700000046353733343737332D383136372D343130432D424146432D4533333435423933463535312F4173736574446174612F636F72652E786D6C8550CB6E833010FC15B47703C66E
311
4191714403F9829E7AB38C43AC041BF951F5F36B27546A4F3DED6A76667677D8F16BBD179FCA796D4D0FB8ACA15046DA599BA587182EA883E2C899B336FCA24161C4AA7AC83070B6381BB71D92D60465326AECAC765078AF0214F29E9A1EBCBCAA55942286C4F0B77213F2261655E2F2C9E32C463DEF523D27377DD1CA016F
311
68DB4E5D8BD1899033A20399D05B3B4E88BC8C434771DD9DA633ABB298B3A0D79FEDD22911D49CF4357E453541B87EC7F4409B03C51FACCA4CCE7C70E9E77D69FE0EF890AF1E4510AC7A4EFFB8C66DFEDF356A1348B3BB3E151E384E473E069C5539A5541E11A69A13E5DF504B030414000608080054756A485F72CBB6F700
311
0000940100003500000046353733343737332D383136372D343130432D424146432D4533333435423933463535312F536368656D61732F636F72652E786D6C8550CB6E833010FC15B47703C66E4191719426E407DA536F9671A89560233FAA7E7E6DA0527BEA6957B333B3BBC38E5FF3A3F854CE6B6B7AC0650D8532D28EDA
311
4C3DC470431D1447CE9CB5E1170D0A2366D5438681B3C9D9B8EC90B4262893516347B583C27B15A0908FD4F4E0E5879A452962480C7F2F1721EF6252252E371E6731EA7197EA31B9E99B560E7843DB76E85A8CCE845C113D9101BDB4970191A7CBA9A3B8EECEC3955559CC59D0F3CF76E994086A4CFA1A3FA39A205CBF617A
311
A0CD81E277566526673EB8F4F3BE347F07FC75BDD3B36A9BFDF18CCBF8BF67D4269066F7DC141E384E27AE03CEAA9C512A6B80A9E63CF937504B030414000608080054756A487484BDB102010000D70100002D00000046353733343737332D383136372D343130432D424146432D4533333435423933463535312F636F7265
311
2E786D6C9551416E833010FC8AB57703C610D2C8386AA2F2829E7A73F186580936C2A6EAF36B072AB5B7F6B4D678667767561C3FC73BF9C0D91B675B605901046DEFB4B1430B4BB8D03D90A314B373E1070D885523B69060906298DD326D50EF6C409B50EB346EA0F21E0390FE1E1F2DF8FE8AA3CAD41222C3DFB249F53735
311
60C6B295274530E3B7B49F5105D420CB82ED68C1292B5E5975A8CA43C5DE449E98522CC6065E6EC3707C474DDC14A22590B5C8D7DFC85A8CDE3846C71DCDC5E00CB2AB1B5E350DA77BB66B68C58A333D3D7767FAC279559F9E7857D72C368962297C9863325B9394C15FE5ABF097B365D2FF74B62A3CC8B4CFC3B214798A39
311
96C70D624D27915F504B030414000608080054756A48ED4D471007010000B201000008000000636F72652E786D6C8D50CB6EC32010FC15B4776C63DCDA8A30519A385FD0536FD41017C506CB40D4FE7D21A1527BEB69D13C768665FBCF654637B5396D4D0FA4A80029335AA9CDD443F017DC01DA73B659EB7FC90019B1A81E
311
120C9C4D9B0D6B86466BBC32093556AA0C0AE7940734CEF1D1831B3FD4220A117C54B86BB18AF12A265590E2A1E3CCEBE5C73A6E4A782581D71579C615C5A47A25CDAEA9770D7963655272168296394ACB98AE2F5A6DD1D2B4EDD0B5041F293DE3E64007FCD29E064C9F4E87AE2155771CCEAC4C66CE9CDFE29FF392D8D323
311
276E2997950F8AB3776BE72C88A524B266FE025EB132117F4A8755FEA3B4369ED679E1C3E1809358E84EC4E074C138EEE78D335D9B7F03504B0102140014000608080054756A488F956FB8DA000000200100004F000000000000000000000000000000000046353733343737332D383136372D343130432D424146432D4533
311
333435423933463535312F4173736574446174612F446566696E6974696F6E4974657261746F7250726F706572746965732E62696E504B0102140014000608080054756A4803B7991C250100003002000045000000000000000000000000004701000046353733343737332D383136372D343130432D424146432D45333334
311
35423933463535312F4173736574446174612F496E7374616E636550726F706572746965732E62696E504B0102140014000608080054756A4828BB58AF800100009E0500003D00000000000000000000000000CF02000046353733343737332D383136372D343130432D424146432D4533333435423933463535312F536368
311
656D61732F436F6D6D6F6E536368656D612E786D6C504B0102140014000608080054756A482CCEBD668A040000E01200003E00000000000000000000000000AA04000046353733343737332D383136372D343130432D424146432D4533333435423933463535312F536368656D61732F47656E65726963536368656D612E78
311
6D6C504B0102140014000608080054756A486180134D5F0100006B03000045000000000000000000000000009009000046353733343737332D383136372D343130432D424146432D4533333435423933463535312F536368656D61732F52656E6465724D6174657269616C536368656D612E786D6C504B0102140014000608
311
080054756A4801B3D61251000000570000004700000000000000000000000000520B000046353733343737332D383136372D343130432D424146432D4533333435423933463535312F4173736574446174612F41737365745461626C654F66436F6E74656E74732E62696E504B0102140014000608080054756A48F8658340
311
58000000680000004500000000000000000000000000080C000046353733343737332D383136372D343130432D424146432D4533333435423933463535312F4173736574446174612F53747265616D56657273696F6E5461626C652E696E66504B0102140014000608080054756A48204BF1A8340100009A04000036000000
311
00000000000000000000C30C000046353733343737332D383136372D343130432D424146432D4533333435423933463535312F4173736574446174612F636E782E786D6C504B0102140014000608080054756A48EB7DE2A2080100004F03000034000000000000000000000000004B0E000046353733343737332D38313637
311
2D343130432D424146432D4533333435423933463535312F536368656D61732F636E782E786D6C504B0102140014000608080054756A48410A3D5871000000A40000002C00000000000000000000000000A50F000046353733343737332D383136372D343130432D424146432D4533333435423933463535312F636E782E78
311
6D6C504B0102140014000608080054756A486F2552EE7E000000A3000000070000000000000000000000000060100000636E782E786D6C504B0102140014000608080054756A4816E99B5DA6000000350100001300000000000000000000000000031100005B436F6E74656E745F54797065735D2E786D6C504B0102140014
311
000608080054756A483DEE336E64000000790000001B00000000000000000000000000DA1100006175746F6465736B2D64657369676E2D7061636B6167652E786D6C504B0102140014000608080054756A48B1D018FAF80000009601000037000000000000000000000000007712000046353733343737332D383136372D34
311
3130432D424146432D4533333435423933463535312F4173736574446174612F636F72652E786D6C504B0102140014000608080054756A485F72CBB6F7000000940100003500000000000000000000000000C413000046353733343737332D383136372D343130432D424146432D4533333435423933463535312F53636865
311
6D61732F636F72652E786D6C504B0102140014000608080054756A487484BDB102010000D70100002D000000000000000000000000000E15000046353733343737332D383136372D343130432D424146432D4533333435423933463535312F636F72652E786D6C504B0102140014000608080054756A48ED4D471007010000
311
B201000008000000000000000000000000005B160000636F72652E786D6C504B050600000000110011005A060000881700000000
310
504B030414000608080054756A48000000000000000000000000370000006662782F43363831343245362D363635422D343444322D414445432D3430463439343138333745452F617474726962757465732E62696E504B030414000608080054756A48000000000000000000000000350000006662782F4336383134324536
310
2D363635422D343444322D414445432D3430463439343138333745452F76657274696365732E62696E504B030414000608080054756A48F270F1330600000004000000360000006662782F43363831343245362D363635422D343444322D414445432D3430463439343138333745452F747269616E676C65732E62696E6366
310
60600000504B030414000608080054756A4851464CB48900000043010000360000006662782F43363831343245362D363635422D343444322D414445432D3430463439343138333745452F6469726563746F72792E786D6C9D8F310EC2300C45AF127987122606C71DD918B841D4B851A43646695A717C52A85029031293A5
310
A76FBF6FACEF7DA7264E43906840EF0FA03836E242F406C6DCEE4EA06AC22492573150D1F66C60C640E8938CB705396EEDD86DE9B5042FE27813D640EA63BB001C722AF6E55CB61E4863F58284D5D3F53DD715CE1C3985E63FD7F1B7EBDD617E9F1E504B030414000608080054756A48F8B497E8320700001A1C0000340000
310
006662782F43363831343245362D363635422D343444322D414445432D3430463439343138333745452F6F626A656374732E786D6CDD59596FDB3810FE2B84F6D93A7C2476E1B8F01107C6226D51A38B7D13688976B8A10E50528EFDF53BA4485954645BE90114EB00B14C51C3996FEED1F4E34BC4D013E1194DE21BCBB35D
310
0B913848421A1F6EAC22DFF7C616FA3843539E24796D9F85621C911B4B2C5BB3E9812745AA9642B2C7056BAEAE177FA32C2031B150C07096DD5859F040226CE3224F42923DDA21CEB17DD8BFD89E5D6E34C91E384E1F1A47A59893380756613D062A8A03CFFC092239B3A9233618DB06DDB6F5CF6C73A4E026A334CE721C07
310
6FB86A1CD73FC155E3B881375CDDF64793DE68381CF486577DAFB7582F563DEF7AE02EAF96CBC9FC7662A1D9749724AC52404AE210B4F86ACDBCA923EE54E22B14DAF80E9238268142B36D4348145D4AB2262606B09E14ADA69052D6DAC2A0A3F027B67502C560C9405B0BA7BFEBD69BECFE0110B22E56CA3322AC3CCB39E8
310
5A615FFA833B75CA55432F344311CE09A7982146771C7350106C2D15649011DE2248218199D4A2A657E7150CFBB22FB571B92F1813FE6BCDA4A7F9E08F24CF2467F45FC28FDCD74F039E40DA82C6F958099BBFA640623275E462796FD057374B20D19EE103580B8829360DFA0DBC9622166C56D6ECCFF5EE652BE243FBE129
310
4F52C2736179D29995DF690DD64C0B8CAF032825AEA6EE8EA87C05E83F01F2152F680A9AE3F465F832D4B2731C67FB8447A01DE4A29E0BFF5C242EDF5C4D9DEAE1194246AC3C8529B8ED4FC2D410C338BB06E96CFA04469FF081126E1B6006367D4F63E1E760288825B004F17EBF7BB1661B08A6B0084F6106D2C3DFD41197
310
08BE4A3A106F1A1A6A0BBF1D14A51DA6E967475DDD81CD701A54AA32643C85EFE8A7E03B5F6DFFDC167C8F0372AF1C7B45F634A63924D376860CD00D97FFB6F9243DF28E253BCC8E4F1B9B0238E69088B8D1A296AD520B927A014E441A2E352357EE29783B6338264991A9F5B63815242CE1FEEED52F5DB8F5ACBFB40D9487
310
2903688D6590DC034E5381893553DAAA02A15D13142C0C7365818752ABFEAE88521F4749118B50FBD6149B7C409C1196085425356DD8DA6B35D990EEF74506C1AB95E4D20052F9B3265C5AF810E2581BBF9CEC3986249AC43E851C0CCED27A82714005DE799E33C2F63E65AC88FC3D659047FC08A727E87794A09EB91EC9EB
310
73C2C35682A665699FD436240057C06A9074B62A63BED229274F549499329FE96C60EC5075A8351B9E48172253B400AA8D519AF9ED6475ED0DDD796FE48DFBBDE1CA9BF7C6ABF9BAB7E84F168BE1F5D05B8C6F9B7CEA6855CF77A04A51E618FE973F14D12EC694C10D21360ED30F1F65F6BC7120343AB7F3457F75BD5EF426
310
DE7A5E566BE3ABE56D6F385E2FDD89EBF5BDE1C2E1244B0A1E90CCE93BAEAF4D328D0FA7B8D2DCBD8DA150D65C4E765A5F4D61FEC731B499130C25FEAE41B48A5D2D0561D7202A1E6D86501C3C8A14E50750F5B5BA4F238836F9688B73EF8CCBAE3D70E5C7F3267D77D21F4FAE2A633F1BA8E5393F1CE7DA2408A0EF2C723F
310
497140F3F684DAC0A5639C7E576EB107DE08013AD5FFEA90F379461DE2D3081F88BFC7A24B68098C972468CD61079664198D4926BBBC37D55F83A66B433165E6DC1623A4991F911C7F8FFDC9B6A161D3109B990FFD682E260217AB82CAA05507728AA2E87E21714BF95FFD0C47292B3BDD4B18787D0D81EE71DA2C4E302D8E
310
78027BF371EEBB2191838B4BD42BF6757DD0AAB526F5C977933F018FAE6B7E213CFA88EEA5933DF226E23386A07235F206D75A1197B0D247E5A28F6305749EC1ABFF4CE8E1A153A1D94D27B592AD2CAA7312411B8BF38277F2D7AB91FBE62015171A0E513BE99DC5A1ECDF740707E8C906EE54795B3B06EA501AC39CAB9320
310
6FA4683561A90B39D313A3AB77F8F55965D7A9FE70BCFCE51573DDF92239FCB98C0354CB650056D1C7A8A95BAB6EA31ECA9E711E4020DDCAEFDE023C2224E1B13133C8B595E8BA3EBD543D6F44408D60628B459CBD1717EC2B065543F79C397765D1E694EB1B91D86C184E1FF9309836697DBEDB36A8C04AE7A7BF088CC873
310
83825A5D8A6EF80CA96F9B63CFDFA0A024FAB639F3F86FD1516805D6C668300DCE124661284F42742009646F183B74E8367844329995C1785590D26F043A3CFD54CE5473BC63FAE9E001C3609AA95EAC0860280A19F3C652EBE80F18838A49A41C4ED98FD086A91866A182D31B0B2C36A7D06DD93B1867C9E1A1A4DE185782
310
63E3F820F27DF954F5FBF8984007A2D251AE6A4F175C9464863341619BCAF70450F5953766D3EF175DB383700E97BB22AF84392E1CA55120E81702A57030F57B54F0BE4041715E2ECF967B0C483A4DE6CFDA4149B597637E90E3F51ADEF3D517474CC6379F51CA8A8350E7B9EED7A0D4135D372BCA29D4140C438999625143
310
2E3F385F7802AF9822B4A66004CE3289A224563FE6EA1515DA3EC00BA7D0D1C33E68E05D6FE4C8FE5F0DF4FD1DCE888DC3EC111640A99C8AA96809AEA1FA2A8ED654AF7521B4008F19FB372BA4AAA2DA6CA41E700530729A8FC085C45B1CE130F50DB5D123780170256F1E2FF4C2D4E130FE9EFD07504B0304140006080800
310
54756A48FEC0F66F3E01000046050000300000006662782F43363831343245362D363635422D343444322D414445432D3430463439343138333745452F636E782E786D6CCD94C14A033110865F65C97D379B5A444A36050F3E8107F196CD4ED7D86CB22413B16F6F52D3AA48C543A1BD85C93FF07F333FC3D7EF93A9DEC007
310
ED6C4758D3920AAC7283B66347226EEA3B52AD05F7CEE13719A9AC9CA023B94C041FBD8B73290DB091D1E4AAD1765B8A12D1EB3E220452292343E848502F30C946467403846D3348940D6B3C0417BD82D48F7A82D2AF3C4884818845CB6EEBF6A666ED235BAE968BD5923D739A9582F7CE99A2D716C1BBB9522E3D6C32D372
310
9ABF058F5E174D2620E2CB59D36BCB69FA173C24B7762C3ADCCD5937CF462B89694CD42904AC9308E4C4E9A758709A797F503FDC3F1D1C5483F6A0D0F9DD8506C04E0DE068AC4949F81FFF5EF837B6EB5F13EEA5B67D12B6D83A1BEA21AD21C5F5F7FE538AA41DCDF585FE68ECFC994FA704B5BA3EE483AF3311D3FDC94B4B
310
CF17507C00504B030414000608080054756A4856BE3CF97F000000A30000000B0000006662782F636E782E786D6C4D8C410EC2201405AF42FE1E6DEB1731011A6DF11E8DA50D9182C1623CBE60BA70F592C99B11ED6771E46DE2CB062FA1DE55408CBF87D1FA59425A27CA81B44AC410D6BF1B103F2C4642C1A0C41C437A6E
310
6834D3905CA1CEFAC7063BC66B6C34A38C1DAF14B16FE8A5D71DC5EA8667ACF9E1A47536F645C9F3EBE52D79F505504B030414000608080054756A48A6D797065F0000008200000007000000636E782E786D6C4DCB3B0E80201045D1AD90E9FD7516806B51190811670C8A61F982B1B0BAC9C97B72CA7B1037C6D3332918DA
310
1E04D2CAC69353902EDB8C20262D23F3F59B81A079470595414B17391D1F19B4730A5583A7ED43BBE4025D9592775E5ADFFA01504B030414000608080054756A484FEB6A7CA0000000F4000000130000005B436F6E74656E745F54797065735D2E786D6C7D8F4B0EC2300C44AF1279DFA6B0400835ED02B8011730C16D239A
310
8F121795DB93D02D6269CFBC19BBED573B8B17C564BC53B0AB1B10E4B47F18372A5878A88E20FAAEBDBD032591BD2E299898C349CAA427B2986A1FC86565F0D122E7318E32A07EE24872DF3407A9BD63725C71C980AEBDD080CBCCE2BAE6F5D69B7110E7CD57AA146008B3D1C8F92C5954F993BB1BF787F39A89ABC491D096
310
00F9FDA2FB00504B030414000608080054756A483DEE336E64000000790000001B0000006175746F6465736B2D64657369676E2D7061636B6167652E786D6C35CBC10E83200C00D05F21DCA56CA76D41FC96062B120735B69A7DBE268BB7777961F8D5AF396893C2ADB70FE7ADA196782C2DF776D7A97B5933C430F15651E5
310
469C55D70F80A4992A3ADC954792C525AE70A1E4D6AD9816CC044FEFDF01FE3FDE907802504B030414000608080054756A482C338BCDF8000000960100003B0000006662782F43363831343245362D363635422D343444322D414445432D3430463439343138333745452F7265736F75726365732F636F72652E786D6C8550
310
CB6E833010FC15B47703063740649C43D27E414FBD596643AC041BF951F5F36B072AB5A79E76353B33BB3BFCF4B53C8A4F745E5B33022D6B28D0283B69338F10C395F4509C0477D6865F34288C5C70840C83E0B3B371DD21654D4093516327DC41E93D0628D42335237875C345963286C4F0F77295EA2E672C69B9F1048F51
310
4FBB544FC94D5F353A1097BE6E3B7A6EC8850E03612D7B257D7FEE4877606C78A1ACAFDF065E65B1E0412F3FDB9543197002D1D4F440EA96D0FA9DB2236B8E8C7EF02A3305F7C1A59FF7A5F93B100EBD8D4EA1E7D536FDE31AD7E97FD7A84D689BDD75537810341DF91C085EE594527946986A4E547C03504B030414000608
310
080054756A482EDAC884F2000000B1010000310000006662782F43363831343245362D363635422D343444322D414445432D3430463439343138333745452F636F72652E786D6C8D50CB6EC32010FC156BEFD8C6A6AE1B61A23CDC2FE8A93704C44189C1E251F5F30BB12BB5B79C16CDCE30B343F7DFF3BDF852CE6B6B06C0
310
650D8532C24A6DA60162B8A01E8A3DA3CEDAF0870685E1B31A20C3C0E8E46C5C3648581394C9A8B1526D20F75E0528C43D3D06F0E2AA665EF21812C3DFCA858B1B9F5489CB95C768D0F3AF5438C58392C09A1A77A86E11AE3F30D9916647F027AD3293D118B5DCACB44CEEFAA2950376EA7A4C9AB1435DF77244849C1B7438
310
8F2744EA77F24670DFBE8E23ADB298511F5CBA79FB245FF7AC7C15FECB1C17F944666D42DB6C86ABC203C329CF63C168950B4CE3D16E9AB96CF603504B030414000608080054756A485AAC720052010000DD0200000C0000006662782F636F72652E786D6C8D52CB8E832014FD15C31E15655A6D902EDA992F98D5EC285287
310
54C120987EFE808F382EE6111324E7DE7BCE3D2790F3B36BA35198416A550114A720128AEB5AAAA602CEDE6101A23325466BFBAD0D448A75A2020106943446BB7E81B85656A8802A5D8B0564C3202C8878EB2F1518F8A7E858CC9CF51DC323EE197FB046C4289EFB28714ED6CBA8AC3D9BBC4B6100BD16697E44970C5E5159
310
429CE357581497233C1E302E5F102ED2B792246198122BBB559D1BC1ACA801CD527480690E51FA8EF00967278C3E48123A2919ACF19E17D1E00ED0FBED499219DFF1B9BEFE9BCF4965F36CE19B270640915F6F2A5092847CFC6F0A6F9FA117F6F959766B570B0F0F8D825B6DB0AFD4DA6DA591B54E78EA349A3E92CC55CF3C
310
11FCC493FDC2F33B870F8AA9C6AFC6ACBFDE9C0DEAFB9D7A61E0689F91D2A663EDB6DCBCE2766E423B4BEB38D7AD36FF995EADAE6126E161D22F504B030414000608080054756A48B811851D06010000B201000008000000636F72652E786D6C8D50C172832014FC15E6DD51501A3583E490B45FD0536F548865A2E00866DA
310
BF2F443AD3DE7A7ACCEEBEB7CBF2D3E73CA1BB5EBD71B6075A1040DA0E4E193BF6B0852B6E019D045F9D0BBF6480AC9C750F0906C1C7D56D4B86066783B609B54EE90C4AEF7500344CF1D1831F3EF42C0BB985A8F0B76291C34D8EBAA0C5AE133C98F9677558B50C5A81A8083D6052634A5E293BB2EAC8E81B2F9352F06D33
310
2A5B1915DDCDD5E815C4A5257543CF15BED0AEC3AC66CFB86DCF0D6E0E8C754F94B5E4A5E3655A16DC8735FE391F893903F2F29E7C79B95382BF3B3765410CA590B3D31708C2CB44FC09BD2DEA1FA18D0D75950FEE1B1E048D811E44344E0DC6F1A837CED4B6F806504B0102140014000608080054756A4800000000000000
310
00000000003700000000000000000000000000000000006662782F43363831343245362D363635422D343444322D414445432D3430463439343138333745452F617474726962757465732E62696E504B0102140014000608080054756A48000000000000000000000000350000000000000000000000000055000000666278
310
2F43363831343245362D363635422D343444322D414445432D3430463439343138333745452F76657274696365732E62696E504B0102140014000608080054756A48F270F13306000000040000003600000000000000000000000000A80000006662782F43363831343245362D363635422D343444322D414445432D343046
310
3439343138333745452F747269616E676C65732E62696E504B0102140014000608080054756A4851464CB489000000430100003600000000000000000000000000020100006662782F43363831343245362D363635422D343444322D414445432D3430463439343138333745452F6469726563746F72792E786D6C504B0102
310
140014000608080054756A48F8B497E8320700001A1C00003400000000000000000000000000DF0100006662782F43363831343245362D363635422D343444322D414445432D3430463439343138333745452F6F626A656374732E786D6C504B0102140014000608080054756A48FEC0F66F3E010000460500003000000000
310
000000000000000000630900006662782F43363831343245362D363635422D343444322D414445432D3430463439343138333745452F636E782E786D6C504B0102140014000608080054756A4856BE3CF97F000000A30000000B00000000000000000000000000EF0A00006662782F636E782E786D6C504B01021400140006
310
08080054756A48A6D797065F000000820000000700000000000000000000000000970B0000636E782E786D6C504B0102140014000608080054756A484FEB6A7CA0000000F400000013000000000000000000000000001B0C00005B436F6E74656E745F54797065735D2E786D6C504B0102140014000608080054756A483DEE
310
336E64000000790000001B00000000000000000000000000EC0C00006175746F6465736B2D64657369676E2D7061636B6167652E786D6C504B0102140014000608080054756A482C338BCDF8000000960100003B00000000000000000000000000890D00006662782F43363831343245362D363635422D343444322D414445
310
432D3430463439343138333745452F7265736F75726365732F636F72652E786D6C504B0102140014000608080054756A482EDAC884F2000000B10100003100000000000000000000000000DA0E00006662782F43363831343245362D363635422D343444322D414445432D3430463439343138333745452F636F72652E786D
310
6C504B0102140014000608080054756A485AAC720052010000DD0200000C000000000000000000000000001B1000006662782F636F72652E786D6C504B0102140014000608080054756A48B811851D06010000B2010000080000000000000000000000000097110000636F72652E786D6C504B0506000000000E000E008004
310
0000C31200000000
  0
XRECORD
  5
6295
102
{ACAD_REACTORS
330
6290
102
}
330
6290
100
AcDbXrecord
280
     1
270
     1
271
     1
  0
XRECORD
  5
6294
102
{ACAD_REACTORS
330
6290
102
}
330
6290
100
AcDbXrecord
280
     1
270
     1
271
     1
  0
XRECORD
  5
6296
102
{ACAD_REACTORS
330
6290
102
}
330
6290
100
AcDbXrecord
280
     1
270
     1
271
     1
  0
XRECORD
  5
6293
102
{ACAD_REACTORS
330
6290
102
}
330
6290
100
AcDbXrecord
280
     1
270
     1
271
     1
  0
XRECORD
  5
11CD1
102
{ACAD_REACTORS
330
11B37
102
}
330
11B37
100
AcDbXrecord
280
     1
102
DISPLAYNAME
  1

102
FLAGS
 90
        0
  0
XRECORD
  5
11CD3
102
{ACAD_REACTORS
330
11B3B
102
}
330
11B3B
100
AcDbXrecord
280
     1
102
DISPLAYNAME
  1
Metric50
102
FLAGS
 90
        0
  0
CELLSTYLEMAP
  5
11CD0
102
{ACAD_REACTORS
330
649A
102
}
330
649A
100
AcDbCellStyleMap
 90
        3
300
CELLSTYLE
  1
TABLEFORMAT_BEGIN
 90
        5
170
     1
 91
        0
 92
    32768
 62
   257
 93
        1
300
CONTENTFORMAT
  1
CONTENTFORMAT_BEGIN
 90
        0
 91
        0
 92
      512
 93
        0
300

 40
0.0
140
1.0
 94
        5
 62
     0
340
11
144
0.25
309
CONTENTFORMAT_END
171
     1
301
MARGIN
  1
CELLMARGIN_BEGIN
 40
0.06
 40
0.06
 40
0.06
 40
0.06
 40
0.18
 40
0.18
309
CELLMARGIN_END
 94
        6
 95
        1
302
GRIDFORMAT
  1
GRIDFORMAT_BEGIN
 90
        0
 91
        1
 62
     0
 92
       -2
340
0
 93
        0
 40
0.045
309
GRIDFORMAT_END
 95
        2
302
GRIDFORMAT
  1
GRIDFORMAT_BEGIN
 90
        0
 91
        1
 62
     0
 92
       -2
340
0
 93
        0
 40
0.045
309
GRIDFORMAT_END
 95
        4
302
GRIDFORMAT
  1
GRIDFORMAT_BEGIN
 90
        0
 91
        1
 62
     0
 92
       -2
340
0
 93
        0
 40
0.045
309
GRIDFORMAT_END
 95
        8
302
GRIDFORMAT
  1
GRIDFORMAT_BEGIN
 90
        0
 91
        1
 62
     0
 92
       -2
340
0
 93
        0
 40
0.045
309
GRIDFORMAT_END
 95
       16
302
GRIDFORMAT
  1
GRIDFORMAT_BEGIN
 90
        0
 91
        1
 62
     0
 92
       -2
340
0
 93
        0
 40
0.045
309
GRIDFORMAT_END
 95
       32
302
GRIDFORMAT
  1
GRIDFORMAT_BEGIN
 90
        0
 91
        1
 62
     0
 92
       -2
340
0
 93
        0
 40
0.045
309
GRIDFORMAT_END
309
TABLEFORMAT_END
  1
CELLSTYLE_BEGIN
 90
        1
 91
        1
300
_TITLE
309
CELLSTYLE_END
300
CELLSTYLE
  1
TABLEFORMAT_BEGIN
 90
        5
170
     1
 91
        0
 92
        0
 62
   257
 93
        1
300
CONTENTFORMAT
  1
CONTENTFORMAT_BEGIN
 90
        0
 91
        0
 92
      512
 93
        0
300

 40
0.0
140
1.0
 94
        5
 62
     0
340
11
144
0.18
309
CONTENTFORMAT_END
171
     1
301
MARGIN
  1
CELLMARGIN_BEGIN
 40
0.06
 40
0.06
 40
0.06
 40
0.06
 40
0.18
 40
0.18
309
CELLMARGIN_END
 94
        6
 95
        1
302
GRIDFORMAT
  1
GRIDFORMAT_BEGIN
 90
        0
 91
        1
 62
     0
 92
       -2
340
0
 93
        0
 40
0.045
309
GRIDFORMAT_END
 95
        2
302
GRIDFORMAT
  1
GRIDFORMAT_BEGIN
 90
        0
 91
        1
 62
     0
 92
       -2
340
0
 93
        0
 40
0.045
309
GRIDFORMAT_END
 95
        4
302
GRIDFORMAT
  1
GRIDFORMAT_BEGIN
 90
        0
 91
        1
 62
     0
 92
       -2
340
0
 93
        0
 40
0.045
309
GRIDFORMAT_END
 95
        8
302
GRIDFORMAT
  1
GRIDFORMAT_BEGIN
 90
        0
 91
        1
 62
     0
 92
       -2
340
0
 93
        0
 40
0.045
309
GRIDFORMAT_END
 95
       16
302
GRIDFORMAT
  1
GRIDFORMAT_BEGIN
 90
        0
 91
        1
 62
     0
 92
       -2
340
0
 93
        0
 40
0.045
309
GRIDFORMAT_END
 95
       32
302
GRIDFORMAT
  1
GRIDFORMAT_BEGIN
 90
        0
 91
        1
 62
     0
 92
       -2
340
0
 93
        0
 40
0.045
309
GRIDFORMAT_END
309
TABLEFORMAT_END
  1
CELLSTYLE_BEGIN
 90
        2
 91
        1
300
_HEADER
309
CELLSTYLE_END
300
CELLSTYLE
  1
TABLEFORMAT_BEGIN
 90
        5
170
     1
 91
        0
 92
        0
 62
   257
 93
        1
300
CONTENTFORMAT
  1
CONTENTFORMAT_BEGIN
 90
        0
 91
        0
 92
      512
 93
        0
300

 40
0.0
140
1.0
 94
        2
 62
     0
340
11
144
0.18
309
CONTENTFORMAT_END
171
     1
301
MARGIN
  1
CELLMARGIN_BEGIN
 40
0.06
 40
0.06
 40
0.06
 40
0.06
 40
0.18
 40
0.18
309
CELLMARGIN_END
 94
        6
 95
        1
302
GRIDFORMAT
  1
GRIDFORMAT_BEGIN
 90
        0
 91
        1
 62
     0
 92
       -2
340
0
 93
        0
 40
0.045
309
GRIDFORMAT_END
 95
        2
302
GRIDFORMAT
  1
GRIDFORMAT_BEGIN
 90
        0
 91
        1
 62
     0
 92
       -2
340
0
 93
        0
 40
0.045
309
GRIDFORMAT_END
 95
        4
302
GRIDFORMAT
  1
GRIDFORMAT_BEGIN
 90
        0
 91
        1
 62
     0
 92
       -2
340
0
 93
        0
 40
0.045
309
GRIDFORMAT_END
 95
        8
302
GRIDFORMAT
  1
GRIDFORMAT_BEGIN
 90
        0
 91
        1
 62
     0
 92
       -2
340
0
 93
        0
 40
0.045
309
GRIDFORMAT_END
 95
       16
302
GRIDFORMAT
  1
GRIDFORMAT_BEGIN
 90
        0
 91
        1
 62
     0
 92
       -2
340
0
 93
        0
 40
0.045
309
GRIDFORMAT_END
 95
       32
302
GRIDFORMAT
  1
GRIDFORMAT_BEGIN
 90
        0
 91
        1
 62
     0
 92
       -2
340
0
 93
        0
 40
0.045
309
GRIDFORMAT_END
309
TABLEFORMAT_END
  1
CELLSTYLE_BEGIN
 90
        3
 91
        2
300
_DATA
309
CELLSTYLE_END
  0
XRECORD
  5
669E
102
{ACAD_REACTORS
330
669D
102
}
330
669D
100
AcDbXrecord
280
     1
102
RTVSPropertyOp28
 70
     1
102
RTVSPropertyOp29
 70
     1
102
RTVSPropertyOp30
 70
     1
102
RTVSPropertyOp31
 70
     1
102
RTVSPropertyOp32
 70
     1
102
RTVSPropertyOp33
 70
     1
102
RTVSPropertyOp34
 70
     1
102
RTVSPropertyOp35
 70
     1
102
RTVSPropertyOp36
 70
     1
102
RTVSPropertyOp37
 70
     1
102
RTVSPropertyOp38
 70
     1
102
RTVSPropertyOp39
 70
     1
102
RTVSPropertyOp40
 70
     1
102
RTVSPropertyOp41
 70
     1
102
RTVSPropertyOp42
 70
     1
102
RTVSPropertyOp43
 70
     1
102
RTVSPropertyOp44
 70
     1
102
RTVSPropertyOp45
 70
     1
102
RTVSPropertyOp46
 70
     1
102
RTVSPropertyOp47
 70
     1
102
RTVSPropertyOp48
 70
     1
102
RTVSPropertyOp49
 70
     1
102
RTVSPropertyOp50
 70
     1
102
RTVSPropertyOp51
 70
     0
102
RTVSPropertyOp52
 70
     0
102
RTVSPropertyOp53
 70
     1
102
RTVSPropertyOp54
 70
     1
102
RTVSPropertyOp55
 70
     1
102
RTVSPropertyOp56
 70
     1
102
RTVSPropertyOp57
 70
     1
102
RTVSPropertyOp58
 70
     1
102
RTVSPropertyOp59
 70
     1
102
RTVSPropertyOp60
 70
     1
102
RTVSPropertyOp61
 70
     1
102
RTVSPropertyOp62
 70
     1
  0
XRECORD
  5
669C
102
{ACAD_REACTORS
330
669B
102
}
330
669B
100
AcDbXrecord
280
     1
102
RTVSPropertyOp28
 70
     1
102
RTVSPropertyOp29
 70
     1
102
RTVSPropertyOp30
 70
     1
102
RTVSPropertyOp31
 70
     1
102
RTVSPropertyOp32
 70
     1
102
RTVSPropertyOp33
 70
     1
102
RTVSPropertyOp34
 70
     1
102
RTVSPropertyOp35
 70
     1
102
RTVSPropertyOp36
 70
     1
102
RTVSPropertyOp37
 70
     1
102
RTVSPropertyOp38
 70
     1
102
RTVSPropertyOp39
 70
     1
102
RTVSPropertyOp40
 70
     1
102
RTVSPropertyOp41
 70
     1
102
RTVSPropertyOp42
 70
     1
102
RTVSPropertyOp43
 70
     1
102
RTVSPropertyOp44
 70
     1
102
RTVSPropertyOp45
 70
     1
102
RTVSPropertyOp46
 70
     1
102
RTVSPropertyOp47
 70
     1
102
RTVSPropertyOp48
 70
     1
102
RTVSPropertyOp49
 70
     1
102
RTVSPropertyOp50
 70
     1
102
RTVSPropertyOp51
 70
     0
102
RTVSPropertyOp52
 70
     0
102
RTVSPropertyOp53
 70
     1
102
RTVSPropertyOp54
 70
     1
102
RTVSPropertyOp55
 70
     1
102
RTVSPropertyOp56
 70
     1
102
RTVSPropertyOp57
 70
     1
102
RTVSPropertyOp58
 70
     1
102
RTVSPropertyOp59
 70
     1
102
RTVSPropertyOp60
 70
     1
102
RTVSPropertyOp61
 70
     1
102
RTVSPropertyOp62
 70
     1
  0
XRECORD
  5
66AA
102
{ACAD_REACTORS
330
66A9
102
}
330
66A9
100
AcDbXrecord
280
     1
102
RTVSPropertyOp28
 70
     1
102
RTVSPropertyOp29
 70
     1
102
RTVSPropertyOp30
 70
     1
102
RTVSPropertyOp31
 70
     1
102
RTVSPropertyOp32
 70
     1
102
RTVSPropertyOp33
 70
     1
102
RTVSPropertyOp34
 70
     1
102
RTVSPropertyOp35
 70
     1
102
RTVSPropertyOp36
 70
     1
102
RTVSPropertyOp37
 70
     1
102
RTVSPropertyOp38
 70
     1
102
RTVSPropertyOp39
 70
     1
102
RTVSPropertyOp40
 70
     1
102
RTVSPropertyOp41
 70
     1
102
RTVSPropertyOp42
 70
     1
102
RTVSPropertyOp43
 70
     1
102
RTVSPropertyOp44
 70
     1
102
RTVSPropertyOp45
 70
     1
102
RTVSPropertyOp46
 70
     1
102
RTVSPropertyOp47
 70
     1
102
RTVSPropertyOp48
 70
     1
102
RTVSPropertyOp49
 70
     1
102
RTVSPropertyOp50
 70
     1
102
RTVSPropertyOp51
 70
     0
102
RTVSPropertyOp52
 70
     0
102
RTVSPropertyOp53
 70
     1
102
RTVSPropertyOp54
 70
     1
102
RTVSPropertyOp55
 70
     1
102
RTVSPropertyOp56
 70
     1
102
RTVSPropertyOp57
 70
     1
102
RTVSPropertyOp58
 70
     1
102
RTVSPropertyOp59
 70
     1
102
RTVSPropertyOp60
 70
     1
102
RTVSPropertyOp61
 70
     1
102
RTVSPropertyOp62
 70
     1
  0
XRECORD
  5
66B2
102
{ACAD_REACTORS
330
66B1
102
}
330
66B1
100
AcDbXrecord
280
     1
102
RTVSPropertyOp28
 70
     1
102
RTVSPropertyOp29
 70
     1
102
RTVSPropertyOp30
 70
     1
102
RTVSPropertyOp31
 70
     1
102
RTVSPropertyOp32
 70
     1
102
RTVSPropertyOp33
 70
     1
102
RTVSPropertyOp34
 70
     1
102
RTVSPropertyOp35
 70
     1
102
RTVSPropertyOp36
 70
     1
102
RTVSPropertyOp37
 70
     1
102
RTVSPropertyOp38
 70
     1
102
RTVSPropertyOp39
 70
     1
102
RTVSPropertyOp40
 70
     1
102
RTVSPropertyOp41
 70
     1
102
RTVSPropertyOp42
 70
     1
102
RTVSPropertyOp43
 70
     1
102
RTVSPropertyOp44
 70
     1
102
RTVSPropertyOp45
 70
     1
102
RTVSPropertyOp46
 70
     1
102
RTVSPropertyOp47
 70
     1
102
RTVSPropertyOp48
 70
     1
102
RTVSPropertyOp49
 70
     1
102
RTVSPropertyOp50
 70
     1
102
RTVSPropertyOp51
 70
     0
102
RTVSPropertyOp52
 70
     0
102
RTVSPropertyOp53
 70
     1
102
RTVSPropertyOp54
 70
     1
102
RTVSPropertyOp55
 70
     1
102
RTVSPropertyOp56
 70
     1
102
RTVSPropertyOp57
 70
     1
102
RTVSPropertyOp58
 70
     1
102
RTVSPropertyOp59
 70
     1
102
RTVSPropertyOp60
 70
     1
102
RTVSPropertyOp61
 70
     1
102
RTVSPropertyOp62
 70
     1
  0
XRECORD
  5
66A4
102
{ACAD_REACTORS
330
66A3
102
}
330
66A3
100
AcDbXrecord
280
     1
102
RTVSPropertyOp28
 70
     1
102
RTVSPropertyOp29
 70
     1
102
RTVSPropertyOp30
 70
     1
102
RTVSPropertyOp31
 70
     1
102
RTVSPropertyOp32
 70
     1
102
RTVSPropertyOp33
 70
     1
102
RTVSPropertyOp34
 70
     1
102
RTVSPropertyOp35
 70
     1
102
RTVSPropertyOp36
 70
     1
102
RTVSPropertyOp37
 70
     1
102
RTVSPropertyOp38
 70
     1
102
RTVSPropertyOp39
 70
     1
102
RTVSPropertyOp40
 70
     1
102
RTVSPropertyOp41
 70
     1
102
RTVSPropertyOp42
 70
     1
102
RTVSPropertyOp43
 70
     1
102
RTVSPropertyOp44
 70
     1
102
RTVSPropertyOp45
 70
     1
102
RTVSPropertyOp46
 70
     1
102
RTVSPropertyOp47
 70
     1
102
RTVSPropertyOp48
 70
     1
102
RTVSPropertyOp49
 70
     1
102
RTVSPropertyOp50
 70
     1
102
RTVSPropertyOp51
 70
     0
102
RTVSPropertyOp52
 70
     0
102
RTVSPropertyOp53
 70
     1
102
RTVSPropertyOp54
 70
     1
102
RTVSPropertyOp55
 70
     1
102
RTVSPropertyOp56
 70
     1
102
RTVSPropertyOp57
 70
     1
102
RTVSPropertyOp58
 70
     1
102
RTVSPropertyOp59
 70
     1
102
RTVSPropertyOp60
 70
     1
102
RTVSPropertyOp61
 70
     1
102
RTVSPropertyOp62
 70
     1
  0
XRECORD
  5
66A8
102
{ACAD_REACTORS
330
66A7
102
}
330
66A7
100
AcDbXrecord
280
     1
102
RTVSPropertyOp28
 70
     1
102
RTVSPropertyOp29
 70
     1
102
RTVSPropertyOp30
 70
     1
102
RTVSPropertyOp31
 70
     1
102
RTVSPropertyOp32
 70
     1
102
RTVSPropertyOp33
 70
     1
102
RTVSPropertyOp34
 70
     1
102
RTVSPropertyOp35
 70
     1
102
RTVSPropertyOp36
 70
     1
102
RTVSPropertyOp37
 70
     1
102
RTVSPropertyOp38
 70
     1
102
RTVSPropertyOp39
 70
     1
102
RTVSPropertyOp40
 70
     1
102
RTVSPropertyOp41
 70
     1
102
RTVSPropertyOp42
 70
     1
102
RTVSPropertyOp43
 70
     1
102
RTVSPropertyOp44
 70
     1
102
RTVSPropertyOp45
 70
     1
102
RTVSPropertyOp46
 70
     1
102
RTVSPropertyOp47
 70
     1
102
RTVSPropertyOp48
 70
     1
102
RTVSPropertyOp49
 70
     1
102
RTVSPropertyOp50
 70
     1
102
RTVSPropertyOp51
 70
     0
102
RTVSPropertyOp52
 70
     0
102
RTVSPropertyOp53
 70
     1
102
RTVSPropertyOp54
 70
     1
102
RTVSPropertyOp55
 70
     1
102
RTVSPropertyOp56
 70
     1
102
RTVSPropertyOp57
 70
     1
102
RTVSPropertyOp58
 70
     1
102
RTVSPropertyOp59
 70
     1
102
RTVSPropertyOp60
 70
     1
102
RTVSPropertyOp61
 70
     1
102
RTVSPropertyOp62
 70
     1
  0
XRECORD
  5
66C2
102
{ACAD_REACTORS
330
66C1
102
}
330
66C1
100
AcDbXrecord
280
     1
102
RTVSPropertyOp28
 70
     1
102
RTVSPropertyOp29
 70
     1
102
RTVSPropertyOp30
 70
     1
102
RTVSPropertyOp31
 70
     1
102
RTVSPropertyOp32
 70
     1
102
RTVSPropertyOp33
 70
     1
102
RTVSPropertyOp34
 70
     1
102
RTVSPropertyOp35
 70
     1
102
RTVSPropertyOp36
 70
     1
102
RTVSPropertyOp37
 70
     0
102
RTVSPropertyOp38
 70
     0
102
RTVSPropertyOp39
 70
     0
102
RTVSPropertyOp40
 70
     0
102
RTVSPropertyOp41
 70
     0
102
RTVSPropertyOp42
 70
     0
102
RTVSPropertyOp43
 70
     0
102
RTVSPropertyOp44
 70
     0
102
RTVSPropertyOp45
 70
     1
102
RTVSPropertyOp46
 70
     0
102
RTVSPropertyOp47
 70
     0
102
RTVSPropertyOp48
 70
     0
102
RTVSPropertyOp49
 70
     1
102
RTVSPropertyOp50
 70
     0
102
RTVSPropertyOp51
 70
     0
102
RTVSPropertyOp52
 70
     0
102
RTVSPropertyOp53
 70
     0
102
RTVSPropertyOp54
 70
     0
102
RTVSPropertyOp55
 70
     1
102
RTVSPropertyOp56
 70
     0
102
RTVSPropertyOp57
 70
     0
102
RTVSPropertyOp58
 70
     0
102
RTVSPropertyOp59
 70
     0
102
RTVSPropertyOp60
 70
     0
102
RTVSPropertyOp61
 70
     0
102
RTVSPropertyOp62
 70
     0
  0
XRECORD
  5
66B0
102
{ACAD_REACTORS
330
66AF
102
}
330
66AF
100
AcDbXrecord
280
     1
102
RTVSPropertyOp28
 70
     1
102
RTVSPropertyOp29
 70
     1
102
RTVSPropertyOp30
 70
     1
102
RTVSPropertyOp31
 70
     1
102
RTVSPropertyOp32
 70
     1
102
RTVSPropertyOp33
 70
     1
102
RTVSPropertyOp34
 70
     1
102
RTVSPropertyOp35
 70
     1
102
RTVSPropertyOp36
 70
     1
102
RTVSPropertyOp37
 70
     1
102
RTVSPropertyOp38
 70
     1
102
RTVSPropertyOp39
 70
     1
102
RTVSPropertyOp40
 70
     1
102
RTVSPropertyOp41
 70
     1
102
RTVSPropertyOp42
 70
     1
102
RTVSPropertyOp43
 70
     1
102
RTVSPropertyOp44
 70
     1
102
RTVSPropertyOp45
 70
     1
102
RTVSPropertyOp46
 70
     1
102
RTVSPropertyOp47
 70
     1
102
RTVSPropertyOp48
 70
     1
102
RTVSPropertyOp49
 70
     1
102
RTVSPropertyOp50
 70
     1
102
RTVSPropertyOp51
 70
     0
102
RTVSPropertyOp52
 70
     0
102
RTVSPropertyOp53
 70
     1
102
RTVSPropertyOp54
 70
     1
102
RTVSPropertyOp55
 70
     1
102
RTVSPropertyOp56
 70
     1
102
RTVSPropertyOp57
 70
     1
102
RTVSPropertyOp58
 70
     1
102
RTVSPropertyOp59
 70
     1
102
RTVSPropertyOp60
 70
     1
102
RTVSPropertyOp61
 70
     1
102
RTVSPropertyOp62
 70
     1
  0
XRECORD
  5
6694
102
{ACAD_REACTORS
330
6693
102
}
330
6693
100
AcDbXrecord
280
     1
102
RTVSPropertyOp28
 70
     1
102
RTVSPropertyOp29
 70
     1
102
RTVSPropertyOp30
 70
     1
102
RTVSPropertyOp31
 70
     1
102
RTVSPropertyOp32
 70
     1
102
RTVSPropertyOp33
 70
     1
102
RTVSPropertyOp34
 70
     1
102
RTVSPropertyOp35
 70
     1
102
RTVSPropertyOp36
 70
     1
102
RTVSPropertyOp37
 70
     1
102
RTVSPropertyOp38
 70
     1
102
RTVSPropertyOp39
 70
     1
102
RTVSPropertyOp40
 70
     1
102
RTVSPropertyOp41
 70
     1
102
RTVSPropertyOp42
 70
     1
102
RTVSPropertyOp43
 70
     1
102
RTVSPropertyOp44
 70
     1
102
RTVSPropertyOp45
 70
     1
102
RTVSPropertyOp46
 70
     1
102
RTVSPropertyOp47
 70
     1
102
RTVSPropertyOp48
 70
     1
102
RTVSPropertyOp49
 70
     1
102
RTVSPropertyOp50
 70
     1
102
RTVSPropertyOp51
 70
     0
102
RTVSPropertyOp52
 70
     0
102
RTVSPropertyOp53
 70
     1
102
RTVSPropertyOp54
 70
     1
102
RTVSPropertyOp55
 70
     1
102
RTVSPropertyOp56
 70
     1
102
RTVSPropertyOp57
 70
     1
102
RTVSPropertyOp58
 70
     1
102
RTVSPropertyOp59
 70
     1
102
RTVSPropertyOp60
 70
     1
102
RTVSPropertyOp61
 70
     1
102
RTVSPropertyOp62
 70
     1
  0
XRECORD
  5
6696
102
{ACAD_REACTORS
330
6695
102
}
330
6695
100
AcDbXrecord
280
     1
102
RTVSPropertyOp28
 70
     1
102
RTVSPropertyOp29
 70
     1
102
RTVSPropertyOp30
 70
     1
102
RTVSPropertyOp31
 70
     1
102
RTVSPropertyOp32
 70
     1
102
RTVSPropertyOp33
 70
     1
102
RTVSPropertyOp34
 70
     1
102
RTVSPropertyOp35
 70
     1
102
RTVSPropertyOp36
 70
     1
102
RTVSPropertyOp37
 70
     1
102
RTVSPropertyOp38
 70
     1
102
RTVSPropertyOp39
 70
     1
102
RTVSPropertyOp40
 70
     1
102
RTVSPropertyOp41
 70
     1
102
RTVSPropertyOp42
 70
     1
102
RTVSPropertyOp43
 70
     1
102
RTVSPropertyOp44
 70
     1
102
RTVSPropertyOp45
 70
     1
102
RTVSPropertyOp46
 70
     1
102
RTVSPropertyOp47
 70
     1
102
RTVSPropertyOp48
 70
     1
102
RTVSPropertyOp49
 70
     1
102
RTVSPropertyOp50
 70
     1
102
RTVSPropertyOp51
 70
     0
102
RTVSPropertyOp52
 70
     0
102
RTVSPropertyOp53
 70
     1
102
RTVSPropertyOp54
 70
     1
102
RTVSPropertyOp55
 70
     1
102
RTVSPropertyOp56
 70
     1
102
RTVSPropertyOp57
 70
     1
102
RTVSPropertyOp58
 70
     1
102
RTVSPropertyOp59
 70
     1
102
RTVSPropertyOp60
 70
     1
102
RTVSPropertyOp61
 70
     1
102
RTVSPropertyOp62
 70
     1
  0
XRECORD
  5
6698
102
{ACAD_REACTORS
330
6697
102
}
330
6697
100
AcDbXrecord
280
     1
102
RTVSPropertyOp28
 70
     1
102
RTVSPropertyOp29
 70
     1
102
RTVSPropertyOp30
 70
     1
102
RTVSPropertyOp31
 70
     1
102
RTVSPropertyOp32
 70
     1
102
RTVSPropertyOp33
 70
     1
102
RTVSPropertyOp34
 70
     1
102
RTVSPropertyOp35
 70
     1
102
RTVSPropertyOp36
 70
     1
102
RTVSPropertyOp37
 70
     1
102
RTVSPropertyOp38
 70
     1
102
RTVSPropertyOp39
 70
     1
102
RTVSPropertyOp40
 70
     1
102
RTVSPropertyOp41
 70
     1
102
RTVSPropertyOp42
 70
     1
102
RTVSPropertyOp43
 70
     1
102
RTVSPropertyOp44
 70
     1
102
RTVSPropertyOp45
 70
     1
102
RTVSPropertyOp46
 70
     1
102
RTVSPropertyOp47
 70
     1
102
RTVSPropertyOp48
 70
     1
102
RTVSPropertyOp49
 70
     1
102
RTVSPropertyOp50
 70
     1
102
RTVSPropertyOp51
 70
     0
102
RTVSPropertyOp52
 70
     0
102
RTVSPropertyOp53
 70
     1
102
RTVSPropertyOp54
 70
     1
102
RTVSPropertyOp55
 70
     1
102
RTVSPropertyOp56
 70
     1
102
RTVSPropertyOp57
 70
     1
102
RTVSPropertyOp58
 70
     1
102
RTVSPropertyOp59
 70
     1
102
RTVSPropertyOp60
 70
     1
102
RTVSPropertyOp61
 70
     1
102
RTVSPropertyOp62
 70
     1
  0
XRECORD
  5
669A
102
{ACAD_REACTORS
330
6699
102
}
330
6699
100
AcDbXrecord
280
     1
102
RTVSPropertyOp28
 70
     1
102
RTVSPropertyOp29
 70
     1
102
RTVSPropertyOp30
 70
     1
102
RTVSPropertyOp31
 70
     1
102
RTVSPropertyOp32
 70
     1
102
RTVSPropertyOp33
 70
     1
102
RTVSPropertyOp34
 70
     1
102
RTVSPropertyOp35
 70
     1
102
RTVSPropertyOp36
 70
     1
102
RTVSPropertyOp37
 70
     1
102
RTVSPropertyOp38
 70
     1
102
RTVSPropertyOp39
 70
     1
102
RTVSPropertyOp40
 70
     1
102
RTVSPropertyOp41
 70
     1
102
RTVSPropertyOp42
 70
     1
102
RTVSPropertyOp43
 70
     1
102
RTVSPropertyOp44
 70
     1
102
RTVSPropertyOp45
 70
     1
102
RTVSPropertyOp46
 70
     1
102
RTVSPropertyOp47
 70
     1
102
RTVSPropertyOp48
 70
     1
102
RTVSPropertyOp49
 70
     1
102
RTVSPropertyOp50
 70
     1
102
RTVSPropertyOp51
 70
     0
102
RTVSPropertyOp52
 70
     0
102
RTVSPropertyOp53
 70
     1
102
RTVSPropertyOp54
 70
     1
102
RTVSPropertyOp55
 70
     1
102
RTVSPropertyOp56
 70
     1
102
RTVSPropertyOp57
 70
     1
102
RTVSPropertyOp58
 70
     1
102
RTVSPropertyOp59
 70
     1
102
RTVSPropertyOp60
 70
     1
102
RTVSPropertyOp61
 70
     1
102
RTVSPropertyOp62
 70
     1
  0
XRECORD
  5
66A2
102
{ACAD_REACTORS
330
66A1
102
}
330
66A1
100
AcDbXrecord
280
     1
102
RTVSPropertyOp28
 70
     1
102
RTVSPropertyOp29
 70
     1
102
RTVSPropertyOp30
 70
     1
102
RTVSPropertyOp31
 70
     1
102
RTVSPropertyOp32
 70
     1
102
RTVSPropertyOp33
 70
     1
102
RTVSPropertyOp34
 70
     1
102
RTVSPropertyOp35
 70
     1
102
RTVSPropertyOp36
 70
     1
102
RTVSPropertyOp37
 70
     1
102
RTVSPropertyOp38
 70
     1
102
RTVSPropertyOp39
 70
     1
102
RTVSPropertyOp40
 70
     1
102
RTVSPropertyOp41
 70
     1
102
RTVSPropertyOp42
 70
     1
102
RTVSPropertyOp43
 70
     1
102
RTVSPropertyOp44
 70
     1
102
RTVSPropertyOp45
 70
     1
102
RTVSPropertyOp46
 70
     1
102
RTVSPropertyOp47
 70
     1
102
RTVSPropertyOp48
 70
     1
102
RTVSPropertyOp49
 70
     1
102
RTVSPropertyOp50
 70
     1
102
RTVSPropertyOp51
 70
     0
102
RTVSPropertyOp52
 70
     0
102
RTVSPropertyOp53
 70
     1
102
RTVSPropertyOp54
 70
     1
102
RTVSPropertyOp55
 70
     1
102
RTVSPropertyOp56
 70
     1
102
RTVSPropertyOp57
 70
     1
102
RTVSPropertyOp58
 70
     1
102
RTVSPropertyOp59
 70
     1
102
RTVSPropertyOp60
 70
     1
102
RTVSPropertyOp61
 70
     1
102
RTVSPropertyOp62
 70
     1
  0
XRECORD
  5
66BE
102
{ACAD_REACTORS
330
66BD
102
}
330
66BD
100
AcDbXrecord
280
     1
102
RTVSPropertyOp28
 70
     1
102
RTVSPropertyOp29
 70
     1
102
RTVSPropertyOp30
 70
     1
102
RTVSPropertyOp31
 70
     1
102
RTVSPropertyOp32
 70
     1
102
RTVSPropertyOp33
 70
     1
102
RTVSPropertyOp34
 70
     1
102
RTVSPropertyOp35
 70
     1
102
RTVSPropertyOp36
 70
     1
102
RTVSPropertyOp37
 70
     0
102
RTVSPropertyOp38
 70
     0
102
RTVSPropertyOp39
 70
     0
102
RTVSPropertyOp40
 70
     0
102
RTVSPropertyOp41
 70
     0
102
RTVSPropertyOp42
 70
     0
102
RTVSPropertyOp43
 70
     0
102
RTVSPropertyOp44
 70
     0
102
RTVSPropertyOp45
 70
     1
102
RTVSPropertyOp46
 70
     0
102
RTVSPropertyOp47
 70
     0
102
RTVSPropertyOp48
 70
     0
102
RTVSPropertyOp49
 70
     1
102
RTVSPropertyOp50
 70
     0
102
RTVSPropertyOp51
 70
     0
102
RTVSPropertyOp52
 70
     0
102
RTVSPropertyOp53
 70
     0
102
RTVSPropertyOp54
 70
     0
102
RTVSPropertyOp55
 70
     1
102
RTVSPropertyOp56
 70
     0
102
RTVSPropertyOp57
 70
     0
102
RTVSPropertyOp58
 70
     0
102
RTVSPropertyOp59
 70
     0
102
RTVSPropertyOp60
 70
     0
102
RTVSPropertyOp61
 70
     0
102
RTVSPropertyOp62
 70
     0
  0
XRECORD
  5
66AE
102
{ACAD_REACTORS
330
66AD
102
}
330
66AD
100
AcDbXrecord
280
     1
102
RTVSPropertyOp28
 70
     1
102
RTVSPropertyOp29
 70
     1
102
RTVSPropertyOp30
 70
     1
102
RTVSPropertyOp31
 70
     1
102
RTVSPropertyOp32
 70
     1
102
RTVSPropertyOp33
 70
     1
102
RTVSPropertyOp34
 70
     1
102
RTVSPropertyOp35
 70
     1
102
RTVSPropertyOp36
 70
     1
102
RTVSPropertyOp37
 70
     1
102
RTVSPropertyOp38
 70
     1
102
RTVSPropertyOp39
 70
     1
102
RTVSPropertyOp40
 70
     1
102
RTVSPropertyOp41
 70
     1
102
RTVSPropertyOp42
 70
     1
102
RTVSPropertyOp43
 70
     1
102
RTVSPropertyOp44
 70
     1
102
RTVSPropertyOp45
 70
     1
102
RTVSPropertyOp46
 70
     1
102
RTVSPropertyOp47
 70
     1
102
RTVSPropertyOp48
 70
     1
102
RTVSPropertyOp49
 70
     1
102
RTVSPropertyOp50
 70
     1
102
RTVSPropertyOp51
 70
     0
102
RTVSPropertyOp52
 70
     0
102
RTVSPropertyOp53
 70
     1
102
RTVSPropertyOp54
 70
     1
102
RTVSPropertyOp55
 70
     1
102
RTVSPropertyOp56
 70
     1
102
RTVSPropertyOp57
 70
     1
102
RTVSPropertyOp58
 70
     1
102
RTVSPropertyOp59
 70
     1
102
RTVSPropertyOp60
 70
     1
102
RTVSPropertyOp61
 70
     1
102
RTVSPropertyOp62
 70
     1
  0
XRECORD
  5
66C0
102
{ACAD_REACTORS
330
66BF
102
}
330
66BF
100
AcDbXrecord
280
     1
102
RTVSPropertyOp28
 70
     1
102
RTVSPropertyOp29
 70
     1
102
RTVSPropertyOp30
 70
     1
102
RTVSPropertyOp31
 70
     1
102
RTVSPropertyOp32
 70
     1
102
RTVSPropertyOp33
 70
     1
102
RTVSPropertyOp34
 70
     1
102
RTVSPropertyOp35
 70
     1
102
RTVSPropertyOp36
 70
     1
102
RTVSPropertyOp37
 70
     0
102
RTVSPropertyOp38
 70
     0
102
RTVSPropertyOp39
 70
     0
102
RTVSPropertyOp40
 70
     0
102
RTVSPropertyOp41
 70
     0
102
RTVSPropertyOp42
 70
     0
102
RTVSPropertyOp43
 70
     0
102
RTVSPropertyOp44
 70
     0
102
RTVSPropertyOp45
 70
     1
102
RTVSPropertyOp46
 70
     0
102
RTVSPropertyOp47
 70
     0
102
RTVSPropertyOp48
 70
     0
102
RTVSPropertyOp49
 70
     1
102
RTVSPropertyOp50
 70
     0
102
RTVSPropertyOp51
 70
     0
102
RTVSPropertyOp52
 70
     0
102
RTVSPropertyOp53
 70
     0
102
RTVSPropertyOp54
 70
     0
102
RTVSPropertyOp55
 70
     1
102
RTVSPropertyOp56
 70
     0
102
RTVSPropertyOp57
 70
     0
102
RTVSPropertyOp58
 70
     0
102
RTVSPropertyOp59
 70
     0
102
RTVSPropertyOp60
 70
     0
102
RTVSPropertyOp61
 70
     0
102
RTVSPropertyOp62
 70
     0
  0
XRECORD
  5
66A6
102
{ACAD_REACTORS
330
66A5
102
}
330
66A5
100
AcDbXrecord
280
     1
102
RTVSPropertyOp28
 70
     1
102
RTVSPropertyOp29
 70
     1
102
RTVSPropertyOp30
 70
     1
102
RTVSPropertyOp31
 70
     1
102
RTVSPropertyOp32
 70
     1
102
RTVSPropertyOp33
 70
     1
102
RTVSPropertyOp34
 70
     1
102
RTVSPropertyOp35
 70
     1
102
RTVSPropertyOp36
 70
     1
102
RTVSPropertyOp37
 70
     1
102
RTVSPropertyOp38
 70
     1
102
RTVSPropertyOp39
 70
     1
102
RTVSPropertyOp40
 70
     1
102
RTVSPropertyOp41
 70
     1
102
RTVSPropertyOp42
 70
     1
102
RTVSPropertyOp43
 70
     1
102
RTVSPropertyOp44
 70
     1
102
RTVSPropertyOp45
 70
     1
102
RTVSPropertyOp46
 70
     1
102
RTVSPropertyOp47
 70
     1
102
RTVSPropertyOp48
 70
     1
102
RTVSPropertyOp49
 70
     1
102
RTVSPropertyOp50
 70
     1
102
RTVSPropertyOp51
 70
     0
102
RTVSPropertyOp52
 70
     0
102
RTVSPropertyOp53
 70
     1
102
RTVSPropertyOp54
 70
     1
102
RTVSPropertyOp55
 70
     1
102
RTVSPropertyOp56
 70
     1
102
RTVSPropertyOp57
 70
     1
102
RTVSPropertyOp58
 70
     1
102
RTVSPropertyOp59
 70
     1
102
RTVSPropertyOp60
 70
     1
102
RTVSPropertyOp61
 70
     1
102
RTVSPropertyOp62
 70
     1
  0
XRECORD
  5
66BC
102
{ACAD_REACTORS
330
66BB
102
}
330
66BB
100
AcDbXrecord
280
     1
102
RTVSPropertyOp28
 70
     1
102
RTVSPropertyOp29
 70
     1
102
RTVSPropertyOp30
 70
     1
102
RTVSPropertyOp31
 70
     1
102
RTVSPropertyOp32
 70
     1
102
RTVSPropertyOp33
 70
     1
102
RTVSPropertyOp34
 70
     1
102
RTVSPropertyOp35
 70
     1
102
RTVSPropertyOp36
 70
     1
102
RTVSPropertyOp37
 70
     1
102
RTVSPropertyOp38
 70
     1
102
RTVSPropertyOp39
 70
     1
102
RTVSPropertyOp40
 70
     1
102
RTVSPropertyOp41
 70
     1
102
RTVSPropertyOp42
 70
     1
102
RTVSPropertyOp43
 70
     1
102
RTVSPropertyOp44
 70
     1
102
RTVSPropertyOp45
 70
     1
102
RTVSPropertyOp46
 70
     1
102
RTVSPropertyOp47
 70
     1
102
RTVSPropertyOp48
 70
     1
102
RTVSPropertyOp49
 70
     1
102
RTVSPropertyOp50
 70
     1
102
RTVSPropertyOp51
 70
     0
102
RTVSPropertyOp52
 70
     0
102
RTVSPropertyOp53
 70
     1
102
RTVSPropertyOp54
 70
     1
102
RTVSPropertyOp55
 70
     1
102
RTVSPropertyOp56
 70
     1
102
RTVSPropertyOp57
 70
     1
102
RTVSPropertyOp58
 70
     1
102
RTVSPropertyOp59
 70
     1
102
RTVSPropertyOp60
 70
     1
102
RTVSPropertyOp61
 70
     1
102
RTVSPropertyOp62
 70
     1
  0
XRECORD
  5
66BA
102
{ACAD_REACTORS
330
66B9
102
}
330
66B9
100
AcDbXrecord
280
     1
102
RTVSPropertyOp28
 70
     1
102
RTVSPropertyOp29
 70
     1
102
RTVSPropertyOp30
 70
     1
102
RTVSPropertyOp31
 70
     1
102
RTVSPropertyOp32
 70
     1
102
RTVSPropertyOp33
 70
     1
102
RTVSPropertyOp34
 70
     1
102
RTVSPropertyOp35
 70
     1
102
RTVSPropertyOp36
 70
     1
102
RTVSPropertyOp37
 70
     1
102
RTVSPropertyOp38
 70
     1
102
RTVSPropertyOp39
 70
     1
102
RTVSPropertyOp40
 70
     1
102
RTVSPropertyOp41
 70
     1
102
RTVSPropertyOp42
 70
     1
102
RTVSPropertyOp43
 70
     1
102
RTVSPropertyOp44
 70
     1
102
RTVSPropertyOp45
 70
     1
102
RTVSPropertyOp46
 70
     1
102
RTVSPropertyOp47
 70
     1
102
RTVSPropertyOp48
 70
     1
102
RTVSPropertyOp49
 70
     1
102
RTVSPropertyOp50
 70
     1
102
RTVSPropertyOp51
 70
     0
102
RTVSPropertyOp52
 70
     0
102
RTVSPropertyOp53
 70
     1
102
RTVSPropertyOp54
 70
     1
102
RTVSPropertyOp55
 70
     1
102
RTVSPropertyOp56
 70
     1
102
RTVSPropertyOp57
 70
     1
102
RTVSPropertyOp58
 70
     1
102
RTVSPropertyOp59
 70
     1
102
RTVSPropertyOp60
 70
     1
102
RTVSPropertyOp61
 70
     1
102
RTVSPropertyOp62
 70
     1
  0
XRECORD
  5
66B4
102
{ACAD_REACTORS
330
66B3
102
}
330
66B3
100
AcDbXrecord
280
     1
102
RTVSPropertyOp28
 70
     1
102
RTVSPropertyOp29
 70
     1
102
RTVSPropertyOp30
 70
     1
102
RTVSPropertyOp31
 70
     1
102
RTVSPropertyOp32
 70
     1
102
RTVSPropertyOp33
 70
     1
102
RTVSPropertyOp34
 70
     1
102
RTVSPropertyOp35
 70
     1
102
RTVSPropertyOp36
 70
     1
102
RTVSPropertyOp37
 70
     1
102
RTVSPropertyOp38
 70
     1
102
RTVSPropertyOp39
 70
     1
102
RTVSPropertyOp40
 70
     1
102
RTVSPropertyOp41
 70
     1
102
RTVSPropertyOp42
 70
     1
102
RTVSPropertyOp43
 70
     1
102
RTVSPropertyOp44
 70
     1
102
RTVSPropertyOp45
 70
     1
102
RTVSPropertyOp46
 70
     1
102
RTVSPropertyOp47
 70
     1
102
RTVSPropertyOp48
 70
     1
102
RTVSPropertyOp49
 70
     1
102
RTVSPropertyOp50
 70
     1
102
RTVSPropertyOp51
 70
     0
102
RTVSPropertyOp52
 70
     0
102
RTVSPropertyOp53
 70
     1
102
RTVSPropertyOp54
 70
     1
102
RTVSPropertyOp55
 70
     1
102
RTVSPropertyOp56
 70
     1
102
RTVSPropertyOp57
 70
     1
102
RTVSPropertyOp58
 70
     1
102
RTVSPropertyOp59
 70
     1
102
RTVSPropertyOp60
 70
     1
102
RTVSPropertyOp61
 70
     1
102
RTVSPropertyOp62
 70
     1
  0
XRECORD
  5
66B6
102
{ACAD_REACTORS
330
66B5
102
}
330
66B5
100
AcDbXrecord
280
     1
102
RTVSPropertyOp28
 70
     1
102
RTVSPropertyOp29
 70
     1
102
RTVSPropertyOp30
 70
     1
102
RTVSPropertyOp31
 70
     1
102
RTVSPropertyOp32
 70
     1
102
RTVSPropertyOp33
 70
     1
102
RTVSPropertyOp34
 70
     1
102
RTVSPropertyOp35
 70
     1
102
RTVSPropertyOp36
 70
     1
102
RTVSPropertyOp37
 70
     1
102
RTVSPropertyOp38
 70
     1
102
RTVSPropertyOp39
 70
     1
102
RTVSPropertyOp40
 70
     1
102
RTVSPropertyOp41
 70
     1
102
RTVSPropertyOp42
 70
     1
102
RTVSPropertyOp43
 70
     1
102
RTVSPropertyOp44
 70
     1
102
RTVSPropertyOp45
 70
     1
102
RTVSPropertyOp46
 70
     1
102
RTVSPropertyOp47
 70
     1
102
RTVSPropertyOp48
 70
     1
102
RTVSPropertyOp49
 70
     1
102
RTVSPropertyOp50
 70
     1
102
RTVSPropertyOp51
 70
     0
102
RTVSPropertyOp52
 70
     0
102
RTVSPropertyOp53
 70
     1
102
RTVSPropertyOp54
 70
     1
102
RTVSPropertyOp55
 70
     1
102
RTVSPropertyOp56
 70
     1
102
RTVSPropertyOp57
 70
     1
102
RTVSPropertyOp58
 70
     1
102
RTVSPropertyOp59
 70
     1
102
RTVSPropertyOp60
 70
     1
102
RTVSPropertyOp61
 70
     1
102
RTVSPropertyOp62
 70
     1
  0
XRECORD
  5
66AC
102
{ACAD_REACTORS
330
66AB
102
}
330
66AB
100
AcDbXrecord
280
     1
102
RTVSPropertyOp28
 70
     1
102
RTVSPropertyOp29
 70
     1
102
RTVSPropertyOp30
 70
     1
102
RTVSPropertyOp31
 70
     1
102
RTVSPropertyOp32
 70
     1
102
RTVSPropertyOp33
 70
     1
102
RTVSPropertyOp34
 70
     1
102
RTVSPropertyOp35
 70
     1
102
RTVSPropertyOp36
 70
     1
102
RTVSPropertyOp37
 70
     1
102
RTVSPropertyOp38
 70
     1
102
RTVSPropertyOp39
 70
     1
102
RTVSPropertyOp40
 70
     1
102
RTVSPropertyOp41
 70
     1
102
RTVSPropertyOp42
 70
     1
102
RTVSPropertyOp43
 70
     1
102
RTVSPropertyOp44
 70
     1
102
RTVSPropertyOp45
 70
     1
102
RTVSPropertyOp46
 70
     1
102
RTVSPropertyOp47
 70
     1
102
RTVSPropertyOp48
 70
     1
102
RTVSPropertyOp49
 70
     1
102
RTVSPropertyOp50
 70
     1
102
RTVSPropertyOp51
 70
     0
102
RTVSPropertyOp52
 70
     0
102
RTVSPropertyOp53
 70
     1
102
RTVSPropertyOp54
 70
     1
102
RTVSPropertyOp55
 70
     1
102
RTVSPropertyOp56
 70
     1
102
RTVSPropertyOp57
 70
     1
102
RTVSPropertyOp58
 70
     1
102
RTVSPropertyOp59
 70
     1
102
RTVSPropertyOp60
 70
     1
102
RTVSPropertyOp61
 70
     1
102
RTVSPropertyOp62
 70
     1
  0
XRECORD
  5
66A0
102
{ACAD_REACTORS
330
669F
102
}
330
669F
100
AcDbXrecord
280
     1
102
RTVSPropertyOp28
 70
     1
102
RTVSPropertyOp29
 70
     1
102
RTVSPropertyOp30
 70
     1
102
RTVSPropertyOp31
 70
     1
102
RTVSPropertyOp32
 70
     1
102
RTVSPropertyOp33
 70
     1
102
RTVSPropertyOp34
 70
     1
102
RTVSPropertyOp35
 70
     1
102
RTVSPropertyOp36
 70
     1
102
RTVSPropertyOp37
 70
     1
102
RTVSPropertyOp38
 70
     1
102
RTVSPropertyOp39
 70
     1
102
RTVSPropertyOp40
 70
     1
102
RTVSPropertyOp41
 70
     1
102
RTVSPropertyOp42
 70
     1
102
RTVSPropertyOp43
 70
     1
102
RTVSPropertyOp44
 70
     1
102
RTVSPropertyOp45
 70
     1
102
RTVSPropertyOp46
 70
     1
102
RTVSPropertyOp47
 70
     1
102
RTVSPropertyOp48
 70
     1
102
RTVSPropertyOp49
 70
     1
102
RTVSPropertyOp50
 70
     1
102
RTVSPropertyOp51
 70
     0
102
RTVSPropertyOp52
 70
     0
102
RTVSPropertyOp53
 70
     1
102
RTVSPropertyOp54
 70
     1
102
RTVSPropertyOp55
 70
     1
102
RTVSPropertyOp56
 70
     1
102
RTVSPropertyOp57
 70
     1
102
RTVSPropertyOp58
 70
     1
102
RTVSPropertyOp59
 70
     1
102
RTVSPropertyOp60
 70
     1
102
RTVSPropertyOp61
 70
     1
102
RTVSPropertyOp62
 70
     1
  0
XRECORD
  5
66B8
102
{ACAD_REACTORS
330
66B7
102
}
330
66B7
100
AcDbXrecord
280
     1
102
RTVSPropertyOp28
 70
     1
102
RTVSPropertyOp29
 70
     1
102
RTVSPropertyOp30
 70
     1
102
RTVSPropertyOp31
 70
     1
102
RTVSPropertyOp32
 70
     1
102
RTVSPropertyOp33
 70
     1
102
RTVSPropertyOp34
 70
     1
102
RTVSPropertyOp35
 70
     1
102
RTVSPropertyOp36
 70
     1
102
RTVSPropertyOp37
 70
     1
102
RTVSPropertyOp38
 70
     1
102
RTVSPropertyOp39
 70
     1
102
RTVSPropertyOp40
 70
     1
102
RTVSPropertyOp41
 70
     1
102
RTVSPropertyOp42
 70
     1
102
RTVSPropertyOp43
 70
     1
102
RTVSPropertyOp44
 70
     1
102
RTVSPropertyOp45
 70
     1
102
RTVSPropertyOp46
 70
     1
102
RTVSPropertyOp47
 70
     1
102
RTVSPropertyOp48
 70
     1
102
RTVSPropertyOp49
 70
     1
102
RTVSPropertyOp50
 70
     1
102
RTVSPropertyOp51
 70
     0
102
RTVSPropertyOp52
 70
     0
102
RTVSPropertyOp53
 70
     1
102
RTVSPropertyOp54
 70
     1
102
RTVSPropertyOp55
 70
     1
102
RTVSPropertyOp56
 70
     1
102
RTVSPropertyOp57
 70
     1
102
RTVSPropertyOp58
 70
     1
102
RTVSPropertyOp59
 70
     1
102
RTVSPropertyOp60
 70
     1
102
RTVSPropertyOp61
 70
     1
102
RTVSPropertyOp62
 70
     1
  0
ENDSEC
  0
SECTION
  2
ACDSDATA
 70
     2
 71
     6
  0
ACDSSCHEMA
 90
        0
  1
AcDb_Thumbnail_Schema
  2
AcDbDs::ID
280
    10
 91
        8
  2
Thumbnail_Data
280
    15
 91
        0
101
ACDSRECORD
 95
        0
 90
        1
  2
AcDbDs::TreatedAsObjectData
280
     1
291
     1
101
ACDSRECORD
 95
        0
 90
        2
  2
AcDbDs::Legacy
280
     1
291
     1
101
ACDSRECORD
  1
AcDbDs::ID
 90
        3
  2
AcDs:Indexable
280
     1
291
     1
101
ACDSRECORD
  1
AcDbDs::ID
 90
        4
  2
AcDbDs::HandleAttribute
280
     7
282
     1
  0
ACDSSCHEMA
 90
        1
  1
AcDbDs::TreatedAsObjectDataSchema
  2
AcDbDs::TreatedAsObjectData
280
     1
 91
        0
  0
ACDSSCHEMA
 90
        2
  1
AcDbDs::LegacySchema
  2
AcDbDs::Legacy
280
     1
 91
        0
  0
ACDSSCHEMA
 90
        3
  1
AcDbDs::IndexedPropertySchema
  2
AcDs:Indexable
280
     1
 91
        0
  0
ACDSSCHEMA
 90
        4
  1
AcDbDs::HandleAttributeSchema
  2
AcDbDs::HandleAttribute
280
     7
 91
        1
284
     1
  0
ACDSRECORD
 90
        0
  2
AcDbDs::ID
280
    10
320
6262
  2
Thumbnail_Data
280
    15
 94
     1708
310
89504E470D0A1A0A0000000D4948445200000100000000670803000000D82A6C0200000300504C5445000000000000C8C8C80000000000000000000000000000000000000000000000000000330000660000990000CC0000FF0033000033330033660033990033CC0033FF0066000066330066660066990066CC0066FF0099
310
000099330099660099990099CC0099FF00CC0000CC3300CC6600CC9900CCCC00CCFF00FF0000FF3300FF6600FF9900FFCC00FFFF3300003300333300663300993300CC3300FF3333003333333333663333993333CC3333FF3366003366333366663366993366CC3366FF3399003399333399663399993399CC3399FF33CC00
310
33CC3333CC6633CC9933CCCC33CCFF33FF0033FF3333FF6633FF9933FFCC33FFFF6600006600336600666600996600CC6600FF6633006633336633666633996633CC6633FF6666006666336666666666996666CC6666FF6699006699336699666699996699CC6699FF66CC0066CC3366CC6666CC9966CCCC66CCFF66FF0066
310
FF3366FF6666FF9966FFCC66FFFF9900009900339900669900999900CC9900FF9933009933339933669933999933CC9933FF9966009966339966669966999966CC9966FF9999009999339999669999999999CC9999FF99CC0099CC3399CC6699CC9999CCCC99CCFF99FF0099FF3399FF6699FF9999FFCC99FFFFCC0000CC00
310
33CC0066CC0099CC00CCCC00FFCC3300CC3333CC3366CC3399CC33CCCC33FFCC6600CC6633CC6666CC6699CC66CCCC66FFCC9900CC9933CC9966CC9999CC99CCCC99FFCCCC00CCCC33CCCC66CCCC99CCCCCCCCCCFFCCFF00CCFF33CCFF66CCFF99CCFFCCCCFFFFFF0000FF0033FF0066FF0099FF00CCFF00FFFF3300FF3333
310
FF3366FF3399FF33CCFF33FFFF6600FF6633FF6666FF6699FF66CCFF66FFFF9900FF9933FF9966FF9999FF99CCFF99FFFFCC00FFCC33FFCC66FFCC99FFCCCCFFCCFFFFFF00FFFF33FFFF66FFFF99FFFFCCFFFFFF0000000D0D0D1A1A1A2828283535354343435050505D5D5D6B6B6B787878868686939393A1A1A1AEAEAEBB
310
BBBBC9C9C9D6D6D6E4E4E4F1F1F1FFFFFF00000000000000000000000000000000000000000000000000000000000008F1915C000003214944415478DAED9D4D92AC200C80B981D77093FBEF7A936BB8E204D9B01F4040FEB47B6AE6BDD124A9C672D0B62A9F4908417B8CF97702BF26E69902B7BB900250000A4001280005
310
A00014C0FF0660898C094D2800F200A2880540D201544D20805F98DB3D1C406F0173755C27420198FCE104206A86BE6DBB5A9F58002B178837168FDBFA910BB08A0141F09D3A87EAFC62C03700189641F07B16C00FC0677900630BF82C076AEE3E2B008582E87A00201805201A00080770930B2980BF02B0502FD20084B654
310
8714C0E4F473B36007C0929DE93F10203100E2BAC16017C409005EB940BCF93580640C6200C48E0E80630300C0C102E85670CEEF6F00D361905A17203F232436009C2900608B49710B20CC15C935E9B2A38D0F8020086BD07D0A20F46C5EE217EC2E1EC0560C854149CCEEBA40DED0705E288180391612DD469C0024652E00
310
E49D7D25D9361181810B1002E5AAD02700DAF902070BF0002616B02B0AEF146500C007413800F8209707BBA6542A0700C901800888610380653F03080930423C82FB11612E106700525CC0C02C084A004029138CA3A148005526481287C194D91DB94D9308791B109107A4E57110092026C1946783002300587907C1026052
310
100900684D9241700B82CD6372D44E842280F2F800310510139E52E81C01E487C9CF968C9E3E0AD87A7E3B0750C472758152E5BF0460D8BA40ADE40820E3E10A20E74345E7A27D287D25D3B77C2DE07C69FC080F96B10B5C0B654686AD0BBC0140EC83E09D2EA40014800250007F04C0FEE4CD49360026339DF94A007202B0
310
0C62E6FDE7673F1C806FEB241B5EBA7BBD54DBCA027800A05625320AA053D5C7870E408E188201107700AF4ABCBA4B543902483D51967AE988AD05BCF6BF0B008C3DF9EB0A801B003A0140530096ECA301E082888495440018FBB3BC4237FA7E1CE5E9002616B03F1F325A40E89F5880B51A037418E46E01D4A6C284478158
310
4626A8002400582FA6C32200503BEF1504C00BA526B222647A0B287DAD05D487F0E48582E702B027AF85A6B24777AC3F5B0130708171ED3B3D17315B3008BDBC00DCE5420A4001DC0BC0F4C703D9FD9496025017500062013CE1BFCC7C013CC52F054FBC9AD90000000049454E44AE4260820001D40268FF6F76EE1C042000
310
0108400002108000042000010840000210800004200001084000021080000420000174C43F6DE958855AC6FD850000000049454E44AE426082
  0
ENDSEC
  0
EOF
