  0
SECTION
  2
HEADER
  9
$ACADVER
  1
AC1027
  9
$ACADMAINTVER
 70
    55
  9
$DWGCODEPAGE
  3
ANSI_932
  9
$LASTSAVEDBY
  1
marketing
  9
$REQUIREDVERSIONS
160
                 0
  9
$INSBASE
 10
0.0
 20
0.0
 30
0.0
  9
$EXTMIN
 10
-0.0384503881930414
 20
-0.0543798347300708
 30
-0.0000000349181948
  9
$EXTMAX
 10
630.0384562557042
 20
891.054388133068
 30
0.0000000814935747
  9
$LIMMIN
 10
0.0
 20
0.0
  9
$LIMMAX
 10
420.0
 20
297.0
  9
$ORTHOMODE
 70
     1
  9
$REGENMODE
 70
     1
  9
$FILLMODE
 70
     1
  9
$QTEXTMODE
 70
     0
  9
$MIRRTEXT
 70
     1
  9
$LTSCALE
 40
1.0
  9
$ATTMODE
 70
     1
  9
$TEXTSIZE
 40
3.0
  9
$TRACEWID
 40
1.0
  9
$TEXTSTYLE
  7
STANDARD
  9
$CLAYER
  8
0
  9
$CELTYPE
  6
ByLayer
  9
$CECOLOR
 62
   256
  9
$CELTSCALE
 40
1.0
  9
$DISPSILH
 70
     0
  9
$DIMSCALE
 40
1.0
  9
$DIMASZ
 40
2.0
  9
$DIMEXO
 40
1.0
  9
$DIMDLI
 40
0.5
  9
$DIMRND
 40
0.0
  9
$DIMDLE
 40
0.0
  9
$DIMEXE
 40
0.5
  9
$DIMTP
 40
0.0
  9
$DIMTM
 40
0.0
  9
$DIMTXT
 40
7.0
  9
$DIMCEN
 40
0.09
  9
$DIMTSZ
 40
0.0
  9
$DIMTOL
 70
     0
  9
$DIMLIM
 70
     0
  9
$DIMTIH
 70
     0
  9
$DIMTOH
 70
     0
  9
$DIMSE1
 70
     0
  9
$DIMSE2
 70
     0
  9
$DIMTAD
 70
     3
  9
$DIMZIN
 70
    12
  9
$DIMBLK
  1
OPEN
  9
$DIMASO
 70
     1
  9
$DIMSHO
 70
     1
  9
$DIMPOST
  1

  9
$DIMAPOST
  1

  9
$DIMALT
 70
     0
  9
$DIMALTD
 70
     2
  9
$DIMALTF
 40
25.4
  9
$DIMLFAC
 40
1.0
  9
$DIMTOFL
 70
     0
  9
$DIMTVP
 40
0.0
  9
$DIMTIX
 70
     0
  9
$DIMSOXD
 70
     0
  9
$DIMSAH
 70
     0
  9
$DIMBLK1
  1

  9
$DIMBLK2
  1

  9
$DIMSTYLE
  2
STANDARD
  9
$DIMCLRD
 70
     0
  9
$DIMCLRE
 70
     0
  9
$DIMCLRT
 70
     0
  9
$DIMTFAC
 40
1.0
  9
$DIMGAP
 40
2.0
  9
$DIMJUST
 70
     0
  9
$DIMSD1
 70
     0
  9
$DIMSD2
 70
     0
  9
$DIMTOLJ
 70
     1
  9
$DIMTZIN
 70
     0
  9
$DIMALTZ
 70
     0
  9
$DIMALTTZ
 70
     0
  9
$DIMUPT
 70
     0
  9
$DIMDEC
 70
     1
  9
$DIMTDEC
 70
     1
  9
$DIMALTU
 70
     2
  9
$DIMALTTD
 70
     2
  9
$DIMTXSTY
  7
STANDARD
  9
$DIMAUNIT
 70
     0
  9
$DIMADEC
 70
     0
  9
$DIMALTRND
 40
0.0
  9
$DIMAZIN
 70
     0
  9
$DIMDSEP
 70
    46
  9
$DIMATFIT
 70
     3
  9
$DIMFRAC
 70
     0
  9
$DIMLDRBLK
  1
OPEN
  9
$DIMLUNIT
 70
     2
  9
$DIMLWD
 70
    -2
  9
$DIMLWE
 70
    -2
  9
$DIMTMOVE
 70
     0
  9
$DIMFXL
 40
1.0
  9
$DIMFXLON
 70
     0
  9
$DIMJOGANG
 40
0.7853981633974483
  9
$DIMTFILL
 70
     1
  9
$DIMTFILLCLR
 70
     0
  9
$DIMARCSYM
 70
     0
  9
$DIMLTYPE
  6

  9
$DIMLTEX1
  6

  9
$DIMLTEX2
  6

  9
$DIMTXTDIRECTION
 70
     0
  9
$LUNITS
 70
     2
  9
$LUPREC
 70
     1
  9
$SKETCHINC
 40
1.0
  9
$FILLETRAD
 40
0.0
  9
$AUNITS
 70
     0
  9
$AUPREC
 70
     2
  9
$MENU
  1
.
  9
$ELEVATION
 40
0.0
  9
$PELEVATION
 40
0.0
  9
$THICKNESS
 40
0.0
  9
$LIMCHECK
 70
     0
  9
$CHAMFERA
 40
0.0
  9
$CHAMFERB
 40
0.0
  9
$CHAMFERC
 40
0.0
  9
$CHAMFERD
 40
0.0
  9
$SKPOLY
 70
     0
  9
$TDCREATE
 40
2458968.445094757
  9
$TDUCREATE
 40
2458968.070094757
  9
$TDUPDATE
 40
2459243.575799062
  9
$TDUUPDATE
 40
2459243.200799063
  9
$TDINDWG
 40
0.7103975231
  9
$TDUSRTIMER
 40
0.7103966319
  9
$USRTIMER
 70
     1
  9
$ANGBASE
 50
0.0
  9
$ANGDIR
 70
     0
  9
$PDMODE
 70
     0
  9
$PDSIZE
 40
-1.0
  9
$PLINEWID
 40
0.0
  9
$SPLFRAME
 70
     0
  9
$SPLINETYPE
 70
     6
  9
$SPLINESEGS
 70
     8
  9
$HANDSEED
  5
7B42
  9
$SURFTAB1
 70
     6
  9
$SURFTAB2
 70
     6
  9
$SURFTYPE
 70
     6
  9
$SURFU
 70
     6
  9
$SURFV
 70
     6
  9
$UCSBASE
  2

  9
$UCSNAME
  2

  9
$UCSORG
 10
0.0
 20
0.0
 30
0.0
  9
$UCSXDIR
 10
1.0
 20
0.0
 30
0.0
  9
$UCSYDIR
 10
0.0
 20
1.0
 30
0.0
  9
$UCSORTHOREF
  2

  9
$UCSORTHOVIEW
 70
     0
  9
$UCSORGTOP
 10
0.0
 20
0.0
 30
0.0
  9
$UCSORGBOTTOM
 10
0.0
 20
0.0
 30
0.0
  9
$UCSORGLEFT
 10
0.0
 20
0.0
 30
0.0
  9
$UCSORGRIGHT
 10
0.0
 20
0.0
 30
0.0
  9
$UCSORGFRONT
 10
0.0
 20
0.0
 30
0.0
  9
$UCSORGBACK
 10
0.0
 20
0.0
 30
0.0
  9
$PUCSBASE
  2

  9
$PUCSNAME
  2

  9
$PUCSORG
 10
0.0
 20
0.0
 30
0.0
  9
$PUCSXDIR
 10
1.0
 20
0.0
 30
0.0
  9
$PUCSYDIR
 10
0.0
 20
1.0
 30
0.0
  9
$PUCSORTHOREF
  2

  9
$PUCSORTHOVIEW
 70
     0
  9
$PUCSORGTOP
 10
0.0
 20
0.0
 30
0.0
  9
$PUCSORGBOTTOM
 10
0.0
 20
0.0
 30
0.0
  9
$PUCSORGLEFT
 10
0.0
 20
0.0
 30
0.0
  9
$PUCSORGRIGHT
 10
0.0
 20
0.0
 30
0.0
  9
$PUCSORGFRONT
 10
0.0
 20
0.0
 30
0.0
  9
$PUCSORGBACK
 10
0.0
 20
0.0
 30
0.0
  9
$USERI1
 70
     0
  9
$USERI2
 70
     0
  9
$USERI3
 70
     0
  9
$USERI4
 70
     0
  9
$USERI5
 70
     0
  9
$USERR1
 40
0.0
  9
$USERR2
 40
0.0
  9
$USERR3
 40
0.0
  9
$USERR4
 40
0.0
  9
$USERR5
 40
0.0
  9
$WORLDVIEW
 70
     1
  9
$SHADEDGE
 70
     3
  9
$SHADEDIF
 70
    70
  9
$TILEMODE
 70
     1
  9
$MAXACTVP
 70
    64
  9
$PINSBASE
 10
0.0
 20
0.0
 30
0.0
  9
$PLIMCHECK
 70
     0
  9
$PEXTMIN
 10
1.000000000000000E+20
 20
1.000000000000000E+20
 30
1.000000000000000E+20
  9
$PEXTMAX
 10
-1.000000000000000E+20
 20
-1.000000000000000E+20
 30
-1.000000000000000E+20
  9
$PLIMMIN
 10
0.0
 20
0.0
  9
$PLIMMAX
 10
420.0
 20
297.0
  9
$UNITMODE
 70
     0
  9
$VISRETAIN
 70
     1
  9
$PLINEGEN
 70
     0
  9
$PSLTSCALE
 70
     1
  9
$TREEDEPTH
 70
  3020
  9
$CMLSTYLE
  2
Standard
  9
$CMLJUST
 70
     0
  9
$CMLSCALE
 40
20.0
  9
$PROXYGRAPHICS
 70
     1
  9
$MEASUREMENT
 70
     1
  9
$CELWEIGHT
370
    -1
  9
$ENDCAPS
280
     0
  9
$JOINSTYLE
280
     0
  9
$LWDISPLAY
290
     1
  9
$INSUNITS
 70
     4
  9
$HYPERLINKBASE
  1

  9
$STYLESHEET
  1
MONOCHROME.CTB
  9
$XEDIT
290
     1
  9
$CEPSNTYPE
380
     0
  9
$PSTYLEMODE
290
     1
  9
$FINGERPRINTGUID
  2
{C11E7A15-92EB-4EA4-8972-997643E844ED}
  9
$VERSIONGUID
  2
{E7EDFACD-1A53-4A31-A2AA-7499794659EB}
  9
$EXTNAMES
290
     1
  9
$PSVPSCALE
 40
0.0
  9
$OLESTARTUP
290
     0
  9
$SORTENTS
280
   127
  9
$INDEXCTL
280
     0
  9
$HIDETEXT
280
     1
  9
$XCLIPFRAME
280
     0
  9
$HALOGAP
280
     0
  9
$OBSCOLOR
 70
   257
  9
$OBSLTYPE
280
     0
  9
$INTERSECTIONDISPLAY
280
     0
  9
$INTERSECTIONCOLOR
 70
   257
  9
$DIMASSOC
280
     2
  9
$PROJECTNAME
  1

  9
$CAMERADISPLAY
290
     0
  9
$LENSLENGTH
 40
50.0
  9
$CAMERAHEIGHT
 40
0.0
  9
$STEPSPERSEC
 40
2.0
  9
$STEPSIZE
 40
6.0
  9
$3DDWFPREC
 40
2.0
  9
$PSOLWIDTH
 40
5.0
  9
$PSOLHEIGHT
 40
80.0
  9
$LOFTANG1
 40
1.5707963268
  9
$LOFTANG2
 40
1.5707963268
  9
$LOFTMAG1
 40
0.0
  9
$LOFTMAG2
 40
0.0
  9
$LOFTPARAM
 70
     7
  9
$LOFTNORMALS
280
     1
  9
$LATITUDE
 40
37.795
  9
$LONGITUDE
 40
-122.394
  9
$NORTHDIRECTION
 40
0.0
  9
$TIMEZONE
 70
 -8000
  9
$LIGHTGLYPHDISPLAY
280
     1
  9
$TILEMODELIGHTSYNCH
280
     1
  9
$CMATERIAL
347
44
  9
$SOLIDHIST
280
     1
  9
$SHOWHIST
280
     1
  9
$DWFFRAME
280
     2
  9
$DGNFRAME
280
     2
  9
$REALWORLDSCALE
290
     1
  9
$INTERFERECOLOR
 62
   256
  9
$INTERFEREOBJVS
345
33
  9
$INTERFEREVPVS
346
314E
  9
$CSHADOW
280
     0
  9
$SHADOWPLANELOCATION
 40
0.0
  0
ENDSEC
  0
SECTION
  2
CLASSES
  0
CLASS
  1
ACDBDICTIONARYWDFLT
  2
AcDbDictionaryWithDefault
  3
ObjectDBX Classes
 90
        0
 91
        1
280
     0
281
     0
  0
CLASS
  1
VISUALSTYLE
  2
AcDbVisualStyle
  3
ObjectDBX Classes
 90
     4095
 91
       26
280
     0
281
     0
  0
CLASS
  1
MATERIAL
  2
AcDbMaterial
  3
ObjectDBX Classes
 90
     1153
 91
        3
280
     0
281
     0
  0
CLASS
  1
SCALE
  2
AcDbScale
  3
ObjectDBX Classes
 90
     1153
 91
       33
280
     0
281
     0
  0
CLASS
  1
SUN
  2
AcDbSun
  3
SCENEOE
 90
     1153
 91
        1
280
     0
281
     0
  0
CLASS
  1
DICTIONARYVAR
  2
AcDbDictionaryVar
  3
ObjectDBX Classes
 90
        0
 91
        7
280
     0
281
     0
  0
CLASS
  1
TABLESTYLE
  2
AcDbTableStyle
  3
ObjectDBX Classes
 90
     4095
 91
        1
280
     0
281
     0
  0
CLASS
  1
MLEADERSTYLE
  2
AcDbMLeaderStyle
  3
ACDB_MLEADERSTYLE_CLASS
 90
     4095
 91
        1
280
     0
281
     0
  0
CLASS
  1
SORTENTSTABLE
  2
AcDbSortentsTable
  3
ObjectDBX Classes
 90
        0
 91
        5
280
     0
281
     0
  0
CLASS
  1
DIMASSOC
  2
AcDbDimAssoc
  3
"AcDbDimAssoc|Product Desc:     AcDim ARX App For Dimension|Company:          Autodesk, Inc.|WEB Address:      www.autodesk.com"
 90
        0
 91
        2
280
     0
281
     0
  0
CLASS
  1
AEC_REFEDIT_STATUS_TRACKER
  2
AecDbRefEditStatusTracker
  3
AecArchBase70|Product Desc: Autodesk Architectural Desktop 2007 |Company: Autodesk,Inc. |WEB Address: www.autodesk.com
 90
      129
 91
        0
280
     0
281
     0
  0
CLASS
  1
NPOCOLLECTION
  2
AcDbImpNonPersistentObjectsCollection
  3
ObjectDBX Classes
 90
     1153
 91
        0
280
     0
281
     0
  0
CLASS
  1
EXACXREFPANELOBJECT
  2
ExAcXREFPanelObject
  3
EXAC_ESW
 90
     1025
 91
        0
280
     0
281
     0
  0
CLASS
  1
CELLSTYLEMAP
  2
AcDbCellStyleMap
  3
ObjectDBX Classes
 90
     1152
 91
        2
280
     0
281
     0
  0
CLASS
  1
ACDBSECTIONVIEWSTYLE
  2
AcDbSectionViewStyle
  3
ObjectDBX Classes
 90
     1025
 91
        1
280
     0
281
     0
  0
CLASS
  1
ACDBDETAILVIEWSTYLE
  2
AcDbDetailViewStyle
  3
ObjectDBX Classes
 90
     1025
 91
        1
280
     0
281
     0
  0
ENDSEC
  0
SECTION
  2
TABLES
  0
TABLE
  2
VPORT
  5
8
330
0
100
AcDbSymbolTable
 70
     1
  0
VPORT
  5
29
330
8
100
AcDbSymbolTableRecord
100
AcDbViewportTableRecord
  2
*Active
 70
     0
 10
0.0
 20
0.0
 11
1.0
 21
1.0
 12
315.0000029337555
 22
445.5000041491689
 13
0.0
 23
0.0
 14
10.0
 24
10.0
 15
10.0
 25
10.0
 16
0.0
 26
0.0
 36
1.0
 17
0.0
 27
0.0
 37
0.0
 40
899.2097567675052
 41
2.464339908952958
 42
50.0
 43
0.0
 44
0.0
 50
0.0
 51
0.0
 71
     0
 72
  2000
 73
     1
 74
     3
 75
     0
 76
     0
 77
     0
 78
     0
281
     0
 65
     1
110
0.0
120
0.0
130
0.0
111
1.0
121
0.0
131
0.0
112
0.0
122
1.0
132
0.0
 79
     0
146
0.0
348
2F
 60
     3
 61
     5
292
     1
282
     1
141
0.0
142
0.0
 63
   250
361
69
1001
ACAD_NAV_VCDISPLAY
1070
     3
  0
ENDTAB
  0
TABLE
  2
LTYPE
  5
5
330
0
100
AcDbSymbolTable
 70
     9
  0
LTYPE
  5
14
330
5
100
AcDbSymbolTableRecord
100
AcDbLinetypeTableRecord
  2
ByBlock
 70
     0
  3

 72
    65
 73
     0
 40
0.0
  0
LTYPE
  5
15
330
5
100
AcDbSymbolTableRecord
100
AcDbLinetypeTableRecord
  2
ByLayer
 70
     0
  3

 72
    65
 73
     0
 40
0.0
  0
LTYPE
  5
16
330
5
100
AcDbSymbolTableRecord
100
AcDbLinetypeTableRecord
  2
Continuous
 70
     0
  3
Solid line
 72
    65
 73
     0
 40
0.0
  0
LTYPE
  5
6A
330
5
100
AcDbSymbolTableRecord
100
AcDbLinetypeTableRecord
  2
SLD-実線
 70
     0
  3
SolidWorks Line Style
 72
    65
 73
     0
 40
0.0
  0
LTYPE
  5
6B
330
5
100
AcDbSymbolTableRecord
100
AcDbLinetypeTableRecord
  2
SLD-破線
 70
     0
  3
SolidWorks Line Style
 72
    65
 73
     2
 40
1.905
 49
1.27
 74
     0
 49
-0.635
 74
     0
  0
LTYPE
  5
6C
330
5
100
AcDbSymbolTableRecord
100
AcDbLinetypeTableRecord
  2
SLD-2点鎖線
 70
     0
  3
SolidWorks Line Style
 72
    65
 73
     6
 40
12.7
 49
6.349999999999997
 74
     0
 49
-1.27
 74
     0
 49
1.27
 74
     0
 49
-1.27
 74
     0
 49
1.27
 74
     0
 49
-1.27
 74
     0
  0
LTYPE
  5
39A6
330
5
100
AcDbSymbolTableRecord
100
AcDbLinetypeTableRecord
  2
CONTINOUS
 70
     0
  3
Solid line
 72
    65
 73
     0
 40
0.0
  0
LTYPE
  5
39A8
330
5
100
AcDbSymbolTableRecord
100
AcDbLinetypeTableRecord
  2
DASHDOT
 70
     0
  3
__ . __ . __ . __ . __ . __ . __ . __ . __ . __
 72
    65
 73
     4
 40
1.0
 49
0.5
 74
     0
 49
-0.25
 74
     0
 49
0.0
 74
     0
 49
-0.25
 74
     0
  0
LTYPE
  5
39A9
330
5
100
AcDbSymbolTableRecord
100
AcDbLinetypeTableRecord
  2
DIVIDE
 70
     0
  3
Divide ____ . . ____ . . ____ . . ____ . . ____
 72
    65
 73
     6
 40
1.25
 49
0.5
 74
     0
 49
-0.25
 74
     0
 49
0.0
 74
     0
 49
-0.25
 74
     0
 49
0.0
 74
     0
 49
-0.25
 74
     0
  0
LTYPE
  5
672B
330
5
100
AcDbSymbolTableRecord
100
AcDbLinetypeTableRecord
  2
HIDDEN
 70
     0
  3
Hidden __ __ __ __ __ __ __ __ __ __ __ __ __ __
 72
    65
 73
     2
 40
9.524999999999996
 49
6.349999999999997
 74
     0
 49
-3.174999999999998
 74
     0
  0
LTYPE
  5
7B21
330
5
100
AcDbSymbolTableRecord
100
AcDbLinetypeTableRecord
  2
HIDDEN2
 70
     0
  3
Hidden (.5x) _ _ _ _ _ _ _ _ _ _ _ _ _ _ _ _ _
 72
    65
 73
     2
 40
4.762499999999998
 49
3.174999999999998
 74
     0
 49
-1.587499999999999
 74
     0
  0
ENDTAB
  0
TABLE
  2
LAYER
  5
2
102
{ACAD_XDICTIONARY
360
52E1
102
}
330
0
100
AcDbSymbolTable
 70
    11
  0
LAYER
  5
10
102
{ACAD_XDICTIONARY
360
3158
102
}
330
2
100
AcDbSymbolTableRecord
100
AcDbLayerTableRecord
  2
0
 70
     0
 62
     7
  6
Continuous
370
    -3
390
F
347
46
348
0
  0
LAYER
  5
72
102
{ACAD_XDICTIONARY
360
315C
102
}
330
2
100
AcDbSymbolTableRecord
100
AcDbLayerTableRecord
  2
240
 70
     0
 62
     7
  6
SLD-実線
370
    -3
390
F
347
46
348
0
  0
LAYER
  5
316A
330
2
100
AcDbSymbolTableRecord
100
AcDbLayerTableRecord
  2
Defpoints
 70
     0
 62
     7
  6
Continuous
290
     0
370
    -3
390
F
347
46
348
0
  0
LAYER
  5
39AA
102
{ACAD_XDICTIONARY
360
39AB
102
}
330
2
100
AcDbSymbolTableRecord
100
AcDbLayerTableRecord
  2
10
 70
     0
 62
     4
  6
CONTINOUS
370
    -3
390
F
347
46
348
0
  0
LAYER
  5
39AE
102
{ACAD_XDICTIONARY
360
39AF
102
}
330
2
100
AcDbSymbolTableRecord
100
AcDbLayerTableRecord
  2
16
 70
     0
 62
     6
  6
DASHDOT
370
    -3
390
F
347
46
348
0
  0
LAYER
  5
39B0
102
{ACAD_XDICTIONARY
360
39B1
102
}
330
2
100
AcDbSymbolTableRecord
100
AcDbLayerTableRecord
  2
11
 70
     0
 62
     1
  6
CONTINOUS
370
    -3
390
F
347
46
348
0
  0
LAYER
  5
39B2
102
{ACAD_XDICTIONARY
360
39B3
102
}
330
2
100
AcDbSymbolTableRecord
100
AcDbLayerTableRecord
  2
24
 70
     0
 62
     7
  6
CONTINOUS
370
    -3
390
F
347
46
348
0
  0
LAYER
  5
39B4
102
{ACAD_XDICTIONARY
360
39B5
102
}
330
2
100
AcDbSymbolTableRecord
100
AcDbLayerTableRecord
  2
30
 70
     0
 62
     9
  6
Continuous
370
    -3
390
F
347
46
348
0
  0
LAYER
  5
39B6
102
{ACAD_XDICTIONARY
360
39B7
102
}
330
2
100
AcDbSymbolTableRecord
100
AcDbLayerTableRecord
  2
18
 70
     0
 62
     5
  6
DIVIDE
370
    -3
390
F
347
46
348
0
  0
LAYER
  5
672C
102
{ACAD_XDICTIONARY
360
672D
102
}
330
2
100
AcDbSymbolTableRecord
100
AcDbLayerTableRecord
  2
17
 70
     0
 62
     2
  6
DASHDOT
370
    -3
390
F
347
46
348
0
  0
LAYER
  5
7B1C
330
2
100
AcDbSymbolTableRecord
100
AcDbLayerTableRecord
  2
12
 70
     0
 62
     3
  6
CONTINOUS
370
    -3
390
F
347
46
348
0
1001
AcAecLayerStandard
1000

1000

1001
AcCmTransparency
1071
        0
  0
ENDTAB
  0
TABLE
  2
STYLE
  5
3
330
0
100
AcDbSymbolTable
 70
     3
  0
STYLE
  5
11
330
3
100
AcDbSymbolTableRecord
100
AcDbTextStyleTableRecord
  2
STANDARD
 70
     0
 40
0.0
 41
1.0
 50
0.0
 71
     0
 42
3.0
  3
MS UI Gothic.ttf
  4

1001
ACAD
1000
MS UI GOTHIC
1071
    32818
  0
STYLE
  5
39BA
330
3
100
AcDbSymbolTableRecord
100
AcDbTextStyleTableRecord
  2
STANDARD1
 70
     0
 40
0.0
 41
1.0
 50
0.0
 71
     0
 42
5.0
  3
MONOTXT
  4
BIGFONT
  0
STYLE
  5
7B20
330
3
100
AcDbSymbolTableRecord
100
AcDbTextStyleTableRecord
  2

 70
     1
 40
0.0
 41
1.0
 50
0.0
 71
     0
 42
3.0
  3
ltypeshp.shx
  4

  0
ENDTAB
  0
TABLE
  2
VIEW
  5
6
330
0
100
AcDbSymbolTable
 70
     0
  0
ENDTAB
  0
TABLE
  2
UCS
  5
7
330
0
100
AcDbSymbolTable
 70
     0
  0
ENDTAB
  0
TABLE
  2
APPID
  5
9
330
0
100
AcDbSymbolTable
 70
     9
  0
APPID
  5
12
330
9
100
AcDbSymbolTableRecord
100
AcDbRegAppTableRecord
  2
ACAD
 70
     0
  0
APPID
  5
43A1
330
9
100
AcDbSymbolTableRecord
100
AcDbRegAppTableRecord
  2
ACAD_EXEMPT_FROM_CAD_STANDARDS
 70
     0
  0
APPID
  5
672E
330
9
100
AcDbSymbolTableRecord
100
AcDbRegAppTableRecord
  2
ACAD_DSTYLE_DIMRADIAL_EXTENSION
 70
     0
  0
APPID
  5
7210
330
9
100
AcDbSymbolTableRecord
100
AcDbRegAppTableRecord
  2
ACAD_DSTYLE_DIMJAG
 70
     0
  0
APPID
  5
7211
330
9
100
AcDbSymbolTableRecord
100
AcDbRegAppTableRecord
  2
ACAD_DSTYLE_DIMTALN
 70
     0
  0
APPID
  5
7342
330
9
100
AcDbSymbolTableRecord
100
AcDbRegAppTableRecord
  2
ACAD_DSTYLE_DIMBREAK
 70
     0
  0
APPID
  5
7ACD
330
9
100
AcDbSymbolTableRecord
100
AcDbRegAppTableRecord
  2
ACAD_NAV_VCDISPLAY
 70
     0
  0
APPID
  5
7B1D
330
9
100
AcDbSymbolTableRecord
100
AcDbRegAppTableRecord
  2
AcAecLayerStandard
 70
     0
  0
APPID
  5
7B1E
330
9
100
AcDbSymbolTableRecord
100
AcDbRegAppTableRecord
  2
AcCmTransparency
 70
     0
  0
ENDTAB
  0
TABLE
  2
DIMSTYLE
  5
A
330
0
100
AcDbSymbolTable
 70
     3
100
AcDbDimStyleTable
 71
     2
340
39BC
340
7341
  0
DIMSTYLE
105
39BC
102
{ACAD_REACTORS
330
6A36
330
6AA4
330
7483
330
7484
330
7486
330
7599
330
69D2
330
7485
330
7482
330
6A41
330
6A65
330
7416
330
6A62
330
6A63
330
6A40
330
6A98
330
6A9C
330
7A06
330
7A07
102
}
330
A
100
AcDbSymbolTableRecord
100
AcDbDimStyleTableRecord
  2
STANDARD
 70
     0
 41
2.0
 42
1.0
 43
0.5
 44
0.5
 69
     1
 73
     0
 74
     0
 77
     3
 78
    12
140
7.0
147
2.0
271
     1
272
     1
340
11
341
380B
342
380B
1001
ACAD_DSTYLE_DIMJAG
1070
   388
1040
1.5
1001
ACAD_DSTYLE_DIMTALN
1070
   392
1070
     0
  0
DIMSTYLE
105
7341
102
{ACAD_REACTORS
330
6A99
102
}
330
A
100
AcDbSymbolTableRecord
100
AcDbDimStyleTableRecord
  2
STANDARD1
 70
     0
 41
2.0
 42
1.0
 43
0.5
 44
0.5
 69
     1
 77
     3
 78
    12
140
7.0
147
2.0
271
     1
272
     1
340
11
341
380B
342
380B
1001
ACAD_DSTYLE_DIMBREAK
1070
   391
1040
3.75
1001
ACAD_DSTYLE_DIMJAG
1070
   388
1040
1.5
1001
ACAD_DSTYLE_DIMTALN
1070
   392
1070
     0
  0
DIMSTYLE
105
79FB
330
A
100
AcDbSymbolTableRecord
100
AcDbDimStyleTableRecord
  2
ISO-25
 70
     0
 41
2.5
 42
0.625
 43
3.75
 44
1.25
 77
     1
 78
     8
140
7.0
141
2.5
143
0.0393700787
147
2.0
171
     3
172
     1
271
     2
272
     2
274
     3
278
    44
283
     0
284
     8
340
11
1001
ACAD_DSTYLE_DIMJAG
1070
   388
1040
1.5
1001
ACAD_DSTYLE_DIMTALN
1070
   392
1070
     0
  0
ENDTAB
  0
TABLE
  2
BLOCK_RECORD
  5
1
330
0
100
AcDbSymbolTable
 70
    41
  0
BLOCK_RECORD
  5
1F
102
{ACAD_XDICTIONARY
360
52DB
102
}
330
1
100
AcDbSymbolTableRecord
100
AcDbBlockTableRecord
  2
*Model_Space
340
22
 70
     0
280
     1
281
     0
  0
BLOCK_RECORD
  5
1B
330
1
100
AcDbSymbolTableRecord
100
AcDbBlockTableRecord
  2
*Paper_Space
340
1E
 70
     0
280
     1
281
     0
  0
BLOCK_RECORD
  5
23
330
1
100
AcDbSymbolTableRecord
100
AcDbBlockTableRecord
  2
*Paper_Space0
340
26
 70
     0
280
     1
281
     0
  0
BLOCK_RECORD
  5
5CA
330
1
100
AcDbSymbolTableRecord
100
AcDbBlockTableRecord
  2
SW_CENTERMARKSYMBOL_12
340
0
102
{BLKREFS
331
6A3E
102
}
 70
     0
280
     1
281
     0
  0
BLOCK_RECORD
  5
5D6
330
1
100
AcDbSymbolTableRecord
100
AcDbBlockTableRecord
  2
SW_CENTERMARKSYMBOL_13
340
0
102
{BLKREFS
331
6A3F
102
}
 70
     0
280
     1
281
     0
  0
BLOCK_RECORD
  5
5E2
330
1
100
AcDbSymbolTableRecord
100
AcDbBlockTableRecord
  2
SW_CENTERMARKSYMBOL_14
340
0
102
{BLKREFS
331
6A3A
102
}
 70
     0
280
     1
281
     0
  0
BLOCK_RECORD
  5
5EE
330
1
100
AcDbSymbolTableRecord
100
AcDbBlockTableRecord
  2
SW_CENTERMARKSYMBOL_15
340
0
102
{BLKREFS
331
6A3B
102
}
 70
     0
280
     1
281
     0
  0
BLOCK_RECORD
  5
1E19
330
1
100
AcDbSymbolTableRecord
100
AcDbBlockTableRecord
  2
SW_CENTERMARKSYMBOL_32
340
0
 70
     0
280
     1
281
     0
  0
BLOCK_RECORD
  5
1E25
330
1
100
AcDbSymbolTableRecord
100
AcDbBlockTableRecord
  2
SW_CENTERMARKSYMBOL_33
340
0
 70
     0
280
     1
281
     0
  0
BLOCK_RECORD
  5
1E31
330
1
100
AcDbSymbolTableRecord
100
AcDbBlockTableRecord
  2
SW_CENTERMARKSYMBOL_34
340
0
 70
     0
280
     1
281
     0
  0
BLOCK_RECORD
  5
1E3D
330
1
100
AcDbSymbolTableRecord
100
AcDbBlockTableRecord
  2
SW_CENTERMARKSYMBOL_35
340
0
 70
     0
280
     1
281
     0
  0
BLOCK_RECORD
  5
1E49
330
1
100
AcDbSymbolTableRecord
100
AcDbBlockTableRecord
  2
SW_CENTERMARKSYMBOL_36
340
0
 70
     0
280
     1
281
     0
  0
BLOCK_RECORD
  5
1E55
330
1
100
AcDbSymbolTableRecord
100
AcDbBlockTableRecord
  2
SW_CENTERMARKSYMBOL_37
340
0
 70
     0
280
     1
281
     0
  0
BLOCK_RECORD
  5
380B
330
1
100
AcDbSymbolTableRecord
100
AcDbBlockTableRecord
  2
_OPEN
340
0
102
{BLKREFS
331
7A48
331
7912
331
7913
331
791C
331
791D
331
7988
331
7989
331
7900
331
7A75
331
7A76
331
7B00
331
7B01
331
7A7E
331
7A7F
331
7A87
331
79BF
331
79C0
331
79F4
331
79F5
331
7A88
331
7A99
331
7A9A
331
7AAA
331
7AAB
331
79E8
331
79E9
331
7A35
331
7A36
331
7A3E
331
7A3F
331
7A47
331
7992
331
7993
331
799B
331
799C
331
79A4
331
79A5
331
79AD
331
79AE
331
78C0
331
78C1
331
78FF
331
7B39
102
}
 70
     0
280
     1
281
     0
  0
BLOCK_RECORD
  5
6318
330
1
100
AcDbSymbolTableRecord
100
AcDbBlockTableRecord
  2
READTB
340
0
310
2800000020000000200000000100080000000000000400000000000000000000000000000000000000000000000080000080000000808000800000008000800080800000C0C0C000C0DCC000F0CAA6000020400000206000002080000020A0000020C0000020E00000400000004020000040400000406000004080000040A0
310
000040C0000040E00000600000006020000060400000606000006080000060A0000060C0000060E00000800000008020000080400000806000008080000080A0000080C0000080E00000A0000000A0200000A0400000A0600000A0800000A0A00000A0C00000A0E00000C0000000C0200000C0400000C0600000C0800000C0
310
A00000C0C00000C0E00000E0000000E0200000E0400000E0600000E0800000E0A00000E0C00000E0E00040000000400020004000400040006000400080004000A0004000C0004000E00040200000402020004020400040206000402080004020A0004020C0004020E000404000004040200040404000404060004040800040
310
40A0004040C0004040E00040600000406020004060400040606000406080004060A0004060C0004060E00040800000408020004080400040806000408080004080A0004080C0004080E00040A0000040A0200040A0400040A0600040A0800040A0A00040A0C00040A0E00040C0000040C0200040C0400040C0600040C08000
310
40C0A00040C0C00040C0E00040E0000040E0200040E0400040E0600040E0800040E0A00040E0C00040E0E00080000000800020008000400080006000800080008000A0008000C0008000E00080200000802020008020400080206000802080008020A0008020C0008020E00080400000804020008040400080406000804080
310
008040A0008040C0008040E00080600000806020008060400080606000806080008060A0008060C0008060E00080800000808020008080400080806000808080008080A0008080C0008080E00080A0000080A0200080A0400080A0600080A0800080A0A00080A0C00080A0E00080C0000080C0200080C0400080C0600080C0
310
800080C0A00080C0C00080C0E00080E0000080E0200080E0400080E0600080E0800080E0A00080E0C00080E0E000C0000000C0002000C0004000C0006000C0008000C000A000C000C000C000E000C0200000C0202000C0204000C0206000C0208000C020A000C020C000C020E000C0400000C0402000C0404000C0406000C0
310
408000C040A000C040C000C040E000C0600000C0602000C0604000C0606000C0608000C060A000C060C000C060E000C0800000C0802000C0804000C0806000C0808000C080A000C080C000C080E000C0A00000C0A02000C0A04000C0A06000C0A08000C0A0A000C0A0C000C0A0E000C0C00000C0C02000C0C04000C0C06000
310
C0C08000C0C0A000F0FBFF00A4A0A000808080000000FF0000FF000000FFFF00FF000000FF00FF00FFFF0000FFFFFF0000000000000000000000000000000000000000000000000000000000000000000000000000000000000000FEFEFEFEFEFEFEFEFE0000000000000000000000000000000000000000000000FEFEFEFE
310
FEFEFEFEFEFE00000000000000000000000000000000000000000000FEFEFEFEFEFBFBFEFEFE0000000000000000000000000000000000000000000000000000FEFBFB00FE000000000000000000000000000000000000000000000000000000FEFBFB00FE0000000000000000000000000000000000000000000000000000
310
00FEFBFB00FE0000000000000000000000000000000000000000000000FEFEFEFEFEFBFE00FE000000000000000000000000000000000000000000000000000000FEFBFB00FE000000000000000000000000000000000000000000000000000000FEFBFB00FE00000000000000000000000000000000000000000000000000
310
0000FEFBFB00FE0000000000000000000000000000000000000000000000FEFEFEFEFEFEFE00FE000000000000000000000000000000000000000000000000000000FEFBFB00FE000000000000000000000000000000000000000000000000000000FEFBFB00FE000000000000000000000000000000000000000000000000
310
000000FEFBFB00FE000000000000000000000000000000000000000000000000000000FEFBFE00FE0000000000000000000000000000000000000000000000FEFEFEFEFEFBFB00FE000000000000000000000000000000000000000000000000000000FEFBFB00FE0000000000000000000000000000000000000000000000
310
00000000FEFBFB00FE000000000000000000000000000000000000000000000000000000FEFBFB00FE0000000000000000000000000000000000000000000000FEFEFEFEFEFBFE00FE000000000000000000000000000000000000000000000000000000FEFBFB00FE00000000000000000000000000000000000000000000
310
0000000000FEFBFB00FE000000000000000000000000000000000000000000000000000000FEFBFB00FE0000000000000000000000000000000000000000000000FEFEFEFEFEFEFE00A4000000000000000000000000000000000000000000000000000000FEFBFB00FE000000000000000000000000000000000000000000
310
000000000000FEFBFB00FE000000000000000000000000000000000000000000000000000000FEFBFB00FE000000000000000000000000000000000000000000000000000000FEFBFBFEA4FE00000000000000000000000000000000000000000000FEFEFEFEFEFEFEFEFEFE00000000000000000000000000000000000000
310
00000000FB000000000000000000000000000000000000000000000000000000000000000000000000000000000000000000000000000000
 70
     4
280
     1
281
     0
  0
BLOCK_RECORD
  5
6644
330
1
100
AcDbSymbolTableRecord
100
AcDbBlockTableRecord
  2
SW_CENTERMARKSYMBOL_22
340
0
102
{BLKREFS
331
6A96
331
6AA1
102
}
 70
     0
280
     1
281
     0
  0
BLOCK_RECORD
  5
664F
330
1
100
AcDbSymbolTableRecord
100
AcDbBlockTableRecord
  2
SW_CENTERMARKSYMBOL_23
340
0
102
{BLKREFS
331
6A97
331
6AA2
102
}
 70
     0
280
     1
281
     0
  0
BLOCK_RECORD
  5
6AB7
330
1
100
AcDbSymbolTableRecord
100
AcDbBlockTableRecord
  2
*D15
340
0
 70
     0
280
     1
281
     0
  0
BLOCK_RECORD
  5
6AC3
330
1
100
AcDbSymbolTableRecord
100
AcDbBlockTableRecord
  2
*D16
340
0
 70
     0
280
     1
281
     0
  0
BLOCK_RECORD
  5
6ACF
330
1
100
AcDbSymbolTableRecord
100
AcDbBlockTableRecord
  2
*D17
340
0
 70
     0
280
     1
281
     0
  0
BLOCK_RECORD
  5
6ADB
330
1
100
AcDbSymbolTableRecord
100
AcDbBlockTableRecord
  2
*D18
340
0
 70
     0
280
     1
281
     0
  0
BLOCK_RECORD
  5
6AE7
330
1
100
AcDbSymbolTableRecord
100
AcDbBlockTableRecord
  2
*D19
340
0
 70
     0
280
     1
281
     0
  0
BLOCK_RECORD
  5
6AF3
330
1
100
AcDbSymbolTableRecord
100
AcDbBlockTableRecord
  2
*D20
340
0
 70
     0
280
     1
281
     0
  0
BLOCK_RECORD
  5
6B0D
330
1
100
AcDbSymbolTableRecord
100
AcDbBlockTableRecord
  2
*D21
340
0
 70
     0
280
     1
281
     0
  0
BLOCK_RECORD
  5
6B19
330
1
100
AcDbSymbolTableRecord
100
AcDbBlockTableRecord
  2
*D22
340
0
 70
     0
280
     1
281
     0
  0
BLOCK_RECORD
  5
6B25
330
1
100
AcDbSymbolTableRecord
100
AcDbBlockTableRecord
  2
*D23
340
0
 70
     0
280
     1
281
     0
  0
BLOCK_RECORD
  5
6BD0
330
1
100
AcDbSymbolTableRecord
100
AcDbBlockTableRecord
  2
*D24
340
0
 70
     0
280
     1
281
     0
  0
BLOCK_RECORD
  5
6BDB
330
1
100
AcDbSymbolTableRecord
100
AcDbBlockTableRecord
  2
*D25
340
0
 70
     0
280
     1
281
     0
  0
BLOCK_RECORD
  5
71DA
102
{ACAD_XDICTIONARY
360
71DC
102
}
330
1
100
AcDbSymbolTableRecord
100
AcDbBlockTableRecord
  2
A$C60D461C7
340
0
 70
     4
280
     1
281
     0
  0
BLOCK_RECORD
  5
7317
102
{ACAD_XDICTIONARY
360
7318
102
}
330
1
100
AcDbSymbolTableRecord
100
AcDbBlockTableRecord
  2
A$C23077EED
340
0
102
{BLKREFS
331
734C
331
7354
331
735C
102
}
 70
     4
280
     1
281
     0
  0
BLOCK_RECORD
  5
7376
102
{ACAD_XDICTIONARY
360
7377
102
}
330
1
100
AcDbSymbolTableRecord
100
AcDbBlockTableRecord
  2
A$C6D904D4D
340
0
102
{BLKREFS
331
73C4
102
}
 70
     4
280
     1
281
     0
  0
BLOCK_RECORD
  5
73CB
102
{ACAD_XDICTIONARY
360
73CC
102
}
330
1
100
AcDbSymbolTableRecord
100
AcDbBlockTableRecord
  2
A$C37787D9A
340
0
102
{BLKREFS
331
73EF
102
}
 70
     4
280
     1
281
     0
  0
BLOCK_RECORD
  5
7417
330
1
100
AcDbSymbolTableRecord
100
AcDbBlockTableRecord
  2
*D30
340
0
 70
     0
280
     1
281
     0
  0
BLOCK_RECORD
  5
7487
330
1
100
AcDbSymbolTableRecord
100
AcDbBlockTableRecord
  2
*D31
340
0
 70
     0
280
     1
281
     0
  0
BLOCK_RECORD
  5
7493
330
1
100
AcDbSymbolTableRecord
100
AcDbBlockTableRecord
  2
*D32
340
0
 70
     0
280
     1
281
     0
  0
BLOCK_RECORD
  5
74A0
330
1
100
AcDbSymbolTableRecord
100
AcDbBlockTableRecord
  2
*D33
340
0
 70
     0
280
     1
281
     0
  0
BLOCK_RECORD
  5
74AD
330
1
100
AcDbSymbolTableRecord
100
AcDbBlockTableRecord
  2
*D34
340
0
 70
     0
280
     1
281
     0
  0
BLOCK_RECORD
  5
74B9
330
1
100
AcDbSymbolTableRecord
100
AcDbBlockTableRecord
  2
*D35
340
0
 70
     0
280
     1
281
     0
  0
BLOCK_RECORD
  5
759A
330
1
100
AcDbSymbolTableRecord
100
AcDbBlockTableRecord
  2
*D36
340
0
 70
     0
280
     1
281
     0
  0
BLOCK_RECORD
  5
79E3
330
1
100
AcDbSymbolTableRecord
100
AcDbBlockTableRecord
  2
*D37
340
0
 70
     0
280
     1
281
     0
  0
BLOCK_RECORD
  5
79EF
330
1
100
AcDbSymbolTableRecord
100
AcDbBlockTableRecord
  2
*D38
340
0
 70
     0
280
     1
281
     0
  0
BLOCK_RECORD
  5
7A08
330
1
100
AcDbSymbolTableRecord
100
AcDbBlockTableRecord
  2
*D39
340
0
 70
     0
280
     1
281
     0
  0
BLOCK_RECORD
  5
7A14
330
1
100
AcDbSymbolTableRecord
100
AcDbBlockTableRecord
  2
*D40
340
0
 70
     0
280
     1
281
     0
  0
ENDTAB
  0
ENDSEC
  0
SECTION
  2
BLOCKS
  0
BLOCK
  5
20
330
1F
100
AcDbEntity
  8
0
100
AcDbBlockBegin
  2
*Model_Space
 70
     0
 10
0.0
 20
0.0
 30
0.0
  3
*Model_Space
  1
*Model_Space
  0
ENDBLK
  5
21
330
1F
100
AcDbEntity
  8
0
100
AcDbBlockEnd
  0
BLOCK
  5
1C
330
1B
100
AcDbEntity
 67
     1
  8
0
100
AcDbBlockBegin
  2
*Paper_Space
 70
     0
 10
0.0
 20
0.0
 30
0.0
  3
*Paper_Space
  1
*Paper_Space
  0
ENDBLK
  5
1D
330
1B
100
AcDbEntity
 67
     1
  8
0
100
AcDbBlockEnd
  0
BLOCK
  5
24
330
23
100
AcDbEntity
 67
     1
  8
0
100
AcDbBlockBegin
  2
*Paper_Space0
 70
     0
 10
0.0
 20
0.0
 30
0.0
  3
*Paper_Space0
  1
*Paper_Space0
  0
ENDBLK
  5
25
330
23
100
AcDbEntity
 67
     1
  8
0
100
AcDbBlockEnd
  0
BLOCK
  5
5CB
330
5CA
100
AcDbEntity
  8
0
100
AcDbBlockBegin
  2
SW_CENTERMARKSYMBOL_12
 70
     0
 10
0.0
 20
0.0
 30
0.0
  3
SW_CENTERMARKSYMBOL_12
  1
SW_CENTERMARKSYMBOL_12
  0
LINE
  5
5CD
330
5CA
100
AcDbEntity
  8
240
 62
     0
100
AcDbLine
 10
0.0
 20
0.0
 30
0.0
 11
0.0
 21
0.625
 31
0.0
  0
LINE
  5
5CE
330
5CA
100
AcDbEntity
  8
240
 62
     0
100
AcDbLine
 10
0.0
 20
0.0
 30
0.0
 11
-0.625
 21
0.0
 31
0.0
  0
LINE
  5
5CF
330
5CA
100
AcDbEntity
  8
240
 62
     0
100
AcDbLine
 10
0.0
 20
0.0
 30
0.0
 11
0.0
 21
-0.625
 31
0.0
  0
LINE
  5
5D0
330
5CA
100
AcDbEntity
  8
240
 62
     0
100
AcDbLine
 10
0.0
 20
0.0
 30
0.0
 11
0.625
 21
0.0
 31
0.0
  0
LINE
  5
5D1
330
5CA
100
AcDbEntity
  8
240
 62
     0
100
AcDbLine
 10
0.0
 20
0.625
 30
0.0
 11
0.0
 21
1.25
 31
0.0
  0
LINE
  5
5D2
330
5CA
100
AcDbEntity
  8
240
 62
     0
100
AcDbLine
 10
-0.625
 20
0.0
 30
0.0
 11
-1.25
 21
0.0
 31
0.0
  0
LINE
  5
5D3
330
5CA
100
AcDbEntity
  8
240
 62
     0
100
AcDbLine
 10
0.0
 20
-0.625
 30
0.0
 11
0.0
 21
-1.25
 31
0.0
  0
LINE
  5
5D4
330
5CA
100
AcDbEntity
  8
240
 62
     0
100
AcDbLine
 10
0.625
 20
0.0
 30
0.0
 11
1.25
 21
0.0
 31
0.0
  0
ENDBLK
  5
5CC
330
5CA
100
AcDbEntity
  8
0
100
AcDbBlockEnd
  0
BLOCK
  5
5D7
330
5D6
100
AcDbEntity
  8
0
100
AcDbBlockBegin
  2
SW_CENTERMARKSYMBOL_13
 70
     0
 10
0.0
 20
0.0
 30
0.0
  3
SW_CENTERMARKSYMBOL_13
  1
SW_CENTERMARKSYMBOL_13
  0
LINE
  5
5D9
330
5D6
100
AcDbEntity
  8
240
 62
     0
100
AcDbLine
 10
0.0
 20
0.0
 30
0.0
 11
0.0
 21
0.625
 31
0.0
  0
LINE
  5
5DA
330
5D6
100
AcDbEntity
  8
240
 62
     0
100
AcDbLine
 10
0.0
 20
0.0
 30
0.0
 11
-0.625
 21
0.0
 31
0.0
  0
LINE
  5
5DB
330
5D6
100
AcDbEntity
  8
240
 62
     0
100
AcDbLine
 10
0.0
 20
0.0
 30
0.0
 11
0.0
 21
-0.625
 31
0.0
  0
LINE
  5
5DC
330
5D6
100
AcDbEntity
  8
240
 62
     0
100
AcDbLine
 10
0.0
 20
0.0
 30
0.0
 11
0.625
 21
0.0
 31
0.0
  0
LINE
  5
5DD
330
5D6
100
AcDbEntity
  8
240
 62
     0
100
AcDbLine
 10
0.0
 20
0.625
 30
0.0
 11
0.0
 21
1.25
 31
0.0
  0
LINE
  5
5DE
330
5D6
100
AcDbEntity
  8
240
 62
     0
100
AcDbLine
 10
-0.625
 20
0.0
 30
0.0
 11
-1.25
 21
0.0
 31
0.0
  0
LINE
  5
5DF
330
5D6
100
AcDbEntity
  8
240
 62
     0
100
AcDbLine
 10
0.0
 20
-0.625
 30
0.0
 11
0.0
 21
-1.25
 31
0.0
  0
LINE
  5
5E0
330
5D6
100
AcDbEntity
  8
240
 62
     0
100
AcDbLine
 10
0.625
 20
0.0
 30
0.0
 11
1.25
 21
0.0
 31
0.0
  0
ENDBLK
  5
5D8
330
5D6
100
AcDbEntity
  8
0
100
AcDbBlockEnd
  0
BLOCK
  5
5E3
330
5E2
100
AcDbEntity
  8
0
100
AcDbBlockBegin
  2
SW_CENTERMARKSYMBOL_14
 70
     0
 10
0.0
 20
0.0
 30
0.0
  3
SW_CENTERMARKSYMBOL_14
  1
SW_CENTERMARKSYMBOL_14
  0
LINE
  5
5E5
330
5E2
100
AcDbEntity
  8
240
 62
     0
100
AcDbLine
 10
0.0
 20
0.0
 30
0.0
 11
0.0
 21
0.625
 31
0.0
  0
LINE
  5
5E6
330
5E2
100
AcDbEntity
  8
240
 62
     0
100
AcDbLine
 10
0.0
 20
0.0
 30
0.0
 11
-0.625
 21
0.0
 31
0.0
  0
LINE
  5
5E7
330
5E2
100
AcDbEntity
  8
240
 62
     0
100
AcDbLine
 10
0.0
 20
0.0
 30
0.0
 11
0.0
 21
-0.625
 31
0.0
  0
LINE
  5
5E8
330
5E2
100
AcDbEntity
  8
240
 62
     0
100
AcDbLine
 10
0.0
 20
0.0
 30
0.0
 11
0.625
 21
0.0
 31
0.0
  0
LINE
  5
5E9
330
5E2
100
AcDbEntity
  8
240
 62
     0
100
AcDbLine
 10
0.0
 20
0.625
 30
0.0
 11
0.0
 21
1.25
 31
0.0
  0
LINE
  5
5EA
330
5E2
100
AcDbEntity
  8
240
 62
     0
100
AcDbLine
 10
-0.625
 20
0.0
 30
0.0
 11
-1.25
 21
0.0
 31
0.0
  0
LINE
  5
5EB
330
5E2
100
AcDbEntity
  8
240
 62
     0
100
AcDbLine
 10
0.0
 20
-0.625
 30
0.0
 11
0.0
 21
-1.25
 31
0.0
  0
LINE
  5
5EC
330
5E2
100
AcDbEntity
  8
240
 62
     0
100
AcDbLine
 10
0.625
 20
0.0
 30
0.0
 11
1.25
 21
0.0
 31
0.0
  0
ENDBLK
  5
5E4
330
5E2
100
AcDbEntity
  8
0
100
AcDbBlockEnd
  0
BLOCK
  5
5EF
330
5EE
100
AcDbEntity
  8
0
100
AcDbBlockBegin
  2
SW_CENTERMARKSYMBOL_15
 70
     0
 10
0.0
 20
0.0
 30
0.0
  3
SW_CENTERMARKSYMBOL_15
  1
SW_CENTERMARKSYMBOL_15
  0
LINE
  5
5F1
330
5EE
100
AcDbEntity
  8
240
 62
     0
100
AcDbLine
 10
0.0
 20
0.0
 30
0.0
 11
0.0
 21
0.625
 31
0.0
  0
LINE
  5
5F2
330
5EE
100
AcDbEntity
  8
240
 62
     0
100
AcDbLine
 10
0.0
 20
0.0
 30
0.0
 11
-0.625
 21
0.0
 31
0.0
  0
LINE
  5
5F3
330
5EE
100
AcDbEntity
  8
240
 62
     0
100
AcDbLine
 10
0.0
 20
0.0
 30
0.0
 11
0.0
 21
-0.625
 31
0.0
  0
LINE
  5
5F4
330
5EE
100
AcDbEntity
  8
240
 62
     0
100
AcDbLine
 10
0.0
 20
0.0
 30
0.0
 11
0.625
 21
0.0
 31
0.0
  0
LINE
  5
5F5
330
5EE
100
AcDbEntity
  8
240
 62
     0
100
AcDbLine
 10
0.0
 20
0.625
 30
0.0
 11
0.0
 21
1.25
 31
0.0
  0
LINE
  5
5F6
330
5EE
100
AcDbEntity
  8
240
 62
     0
100
AcDbLine
 10
-0.625
 20
0.0
 30
0.0
 11
-1.25
 21
0.0
 31
0.0
  0
LINE
  5
5F7
330
5EE
100
AcDbEntity
  8
240
 62
     0
100
AcDbLine
 10
0.0
 20
-0.625
 30
0.0
 11
0.0
 21
-1.25
 31
0.0
  0
LINE
  5
5F8
330
5EE
100
AcDbEntity
  8
240
 62
     0
100
AcDbLine
 10
0.625
 20
0.0
 30
0.0
 11
1.25
 21
0.0
 31
0.0
  0
ENDBLK
  5
5F0
330
5EE
100
AcDbEntity
  8
0
100
AcDbBlockEnd
  0
BLOCK
  5
1E1A
330
1E19
100
AcDbEntity
  8
0
100
AcDbBlockBegin
  2
SW_CENTERMARKSYMBOL_32
 70
     0
 10
0.0
 20
0.0
 30
0.0
  3
SW_CENTERMARKSYMBOL_32
  1
SW_CENTERMARKSYMBOL_32
  0
LINE
  5
1E1C
330
1E19
100
AcDbEntity
  8
240
 62
     0
100
AcDbLine
 10
0.0
 20
0.0
 30
0.0
 11
0.0
 21
0.625
 31
0.0
  0
LINE
  5
1E1D
330
1E19
100
AcDbEntity
  8
240
 62
     0
100
AcDbLine
 10
0.0
 20
0.0
 30
0.0
 11
-0.625
 21
0.0
 31
0.0
  0
LINE
  5
1E1E
330
1E19
100
AcDbEntity
  8
240
 62
     0
100
AcDbLine
 10
0.0
 20
0.0
 30
0.0
 11
0.0
 21
-0.625
 31
0.0
  0
LINE
  5
1E1F
330
1E19
100
AcDbEntity
  8
240
 62
     0
100
AcDbLine
 10
0.0
 20
0.0
 30
0.0
 11
0.625
 21
0.0
 31
0.0
  0
LINE
  5
1E20
330
1E19
100
AcDbEntity
  8
240
 62
     0
100
AcDbLine
 10
0.0
 20
1.25
 30
0.0
 11
0.0
 21
1.6875
 31
0.0
  0
LINE
  5
1E21
330
1E19
100
AcDbEntity
  8
240
 62
     0
100
AcDbLine
 10
-1.25
 20
0.0
 30
0.0
 11
-1.6875
 21
0.0
 31
0.0
  0
LINE
  5
1E22
330
1E19
100
AcDbEntity
  8
240
 62
     0
100
AcDbLine
 10
0.0
 20
-1.25
 30
0.0
 11
0.0
 21
-1.6875
 31
0.0
  0
LINE
  5
1E23
330
1E19
100
AcDbEntity
  8
240
 62
     0
100
AcDbLine
 10
1.25
 20
0.0
 30
0.0
 11
1.6875
 21
0.0
 31
0.0
  0
ENDBLK
  5
1E1B
330
1E19
100
AcDbEntity
  8
0
100
AcDbBlockEnd
  0
BLOCK
  5
1E26
330
1E25
100
AcDbEntity
  8
0
100
AcDbBlockBegin
  2
SW_CENTERMARKSYMBOL_33
 70
     0
 10
0.0
 20
0.0
 30
0.0
  3
SW_CENTERMARKSYMBOL_33
  1
SW_CENTERMARKSYMBOL_33
  0
LINE
  5
1E28
330
1E25
100
AcDbEntity
  8
240
 62
     0
100
AcDbLine
 10
0.0
 20
0.0
 30
0.0
 11
0.0
 21
0.625
 31
0.0
  0
LINE
  5
1E29
330
1E25
100
AcDbEntity
  8
240
 62
     0
100
AcDbLine
 10
0.0
 20
0.0
 30
0.0
 11
-0.625
 21
0.0
 31
0.0
  0
LINE
  5
1E2A
330
1E25
100
AcDbEntity
  8
240
 62
     0
100
AcDbLine
 10
0.0
 20
0.0
 30
0.0
 11
0.0
 21
-0.625
 31
0.0
  0
LINE
  5
1E2B
330
1E25
100
AcDbEntity
  8
240
 62
     0
100
AcDbLine
 10
0.0
 20
0.0
 30
0.0
 11
0.625
 21
0.0
 31
0.0
  0
LINE
  5
1E2C
330
1E25
100
AcDbEntity
  8
240
 62
     0
100
AcDbLine
 10
0.0
 20
1.25
 30
0.0
 11
0.0
 21
1.6875
 31
0.0
  0
LINE
  5
1E2D
330
1E25
100
AcDbEntity
  8
240
 62
     0
100
AcDbLine
 10
-1.25
 20
0.0
 30
0.0
 11
-1.6875
 21
0.0
 31
0.0
  0
LINE
  5
1E2E
330
1E25
100
AcDbEntity
  8
240
 62
     0
100
AcDbLine
 10
0.0
 20
-1.25
 30
0.0
 11
0.0
 21
-1.6875
 31
0.0
  0
LINE
  5
1E2F
330
1E25
100
AcDbEntity
  8
240
 62
     0
100
AcDbLine
 10
1.25
 20
0.0
 30
0.0
 11
1.6875
 21
0.0
 31
0.0
  0
ENDBLK
  5
1E27
330
1E25
100
AcDbEntity
  8
0
100
AcDbBlockEnd
  0
BLOCK
  5
1E32
330
1E31
100
AcDbEntity
  8
0
100
AcDbBlockBegin
  2
SW_CENTERMARKSYMBOL_34
 70
     0
 10
0.0
 20
0.0
 30
0.0
  3
SW_CENTERMARKSYMBOL_34
  1
SW_CENTERMARKSYMBOL_34
  0
LINE
  5
1E34
330
1E31
100
AcDbEntity
  8
240
 62
     0
100
AcDbLine
 10
0.0
 20
0.0
 30
0.0
 11
0.0
 21
0.625
 31
0.0
  0
LINE
  5
1E35
330
1E31
100
AcDbEntity
  8
240
 62
     0
100
AcDbLine
 10
0.0
 20
0.0
 30
0.0
 11
-0.625
 21
0.0
 31
0.0
  0
LINE
  5
1E36
330
1E31
100
AcDbEntity
  8
240
 62
     0
100
AcDbLine
 10
0.0
 20
0.0
 30
0.0
 11
0.0
 21
-0.625
 31
0.0
  0
LINE
  5
1E37
330
1E31
100
AcDbEntity
  8
240
 62
     0
100
AcDbLine
 10
0.0
 20
0.0
 30
0.0
 11
0.625
 21
0.0
 31
0.0
  0
LINE
  5
1E38
330
1E31
100
AcDbEntity
  8
240
 62
     0
100
AcDbLine
 10
0.0
 20
1.25
 30
0.0
 11
0.0
 21
1.6875
 31
0.0
  0
LINE
  5
1E39
330
1E31
100
AcDbEntity
  8
240
 62
     0
100
AcDbLine
 10
-1.25
 20
0.0
 30
0.0
 11
-1.6875
 21
0.0
 31
0.0
  0
LINE
  5
1E3A
330
1E31
100
AcDbEntity
  8
240
 62
     0
100
AcDbLine
 10
0.0
 20
-1.25
 30
0.0
 11
0.0
 21
-1.6875
 31
0.0
  0
LINE
  5
1E3B
330
1E31
100
AcDbEntity
  8
240
 62
     0
100
AcDbLine
 10
1.25
 20
0.0
 30
0.0
 11
1.6875
 21
0.0
 31
0.0
  0
ENDBLK
  5
1E33
330
1E31
100
AcDbEntity
  8
0
100
AcDbBlockEnd
  0
BLOCK
  5
1E3E
330
1E3D
100
AcDbEntity
  8
0
100
AcDbBlockBegin
  2
SW_CENTERMARKSYMBOL_35
 70
     0
 10
0.0
 20
0.0
 30
0.0
  3
SW_CENTERMARKSYMBOL_35
  1
SW_CENTERMARKSYMBOL_35
  0
LINE
  5
1E40
330
1E3D
100
AcDbEntity
  8
240
 62
     0
100
AcDbLine
 10
0.0
 20
0.0
 30
0.0
 11
0.0
 21
0.625
 31
0.0
  0
LINE
  5
1E41
330
1E3D
100
AcDbEntity
  8
240
 62
     0
100
AcDbLine
 10
0.0
 20
0.0
 30
0.0
 11
-0.625
 21
0.0
 31
0.0
  0
LINE
  5
1E42
330
1E3D
100
AcDbEntity
  8
240
 62
     0
100
AcDbLine
 10
0.0
 20
0.0
 30
0.0
 11
0.0
 21
-0.625
 31
0.0
  0
LINE
  5
1E43
330
1E3D
100
AcDbEntity
  8
240
 62
     0
100
AcDbLine
 10
0.0
 20
0.0
 30
0.0
 11
0.625
 21
0.0
 31
0.0
  0
LINE
  5
1E44
330
1E3D
100
AcDbEntity
  8
240
 62
     0
100
AcDbLine
 10
0.0
 20
1.25
 30
0.0
 11
0.0
 21
1.6875
 31
0.0
  0
LINE
  5
1E45
330
1E3D
100
AcDbEntity
  8
240
 62
     0
100
AcDbLine
 10
-1.25
 20
0.0
 30
0.0
 11
-1.6875
 21
0.0
 31
0.0
  0
LINE
  5
1E46
330
1E3D
100
AcDbEntity
  8
240
 62
     0
100
AcDbLine
 10
0.0
 20
-1.25
 30
0.0
 11
0.0
 21
-1.6875
 31
0.0
  0
LINE
  5
1E47
330
1E3D
100
AcDbEntity
  8
240
 62
     0
100
AcDbLine
 10
1.25
 20
0.0
 30
0.0
 11
1.6875
 21
0.0
 31
0.0
  0
ENDBLK
  5
1E3F
330
1E3D
100
AcDbEntity
  8
0
100
AcDbBlockEnd
  0
BLOCK
  5
1E4A
330
1E49
100
AcDbEntity
  8
0
100
AcDbBlockBegin
  2
SW_CENTERMARKSYMBOL_36
 70
     0
 10
0.0
 20
0.0
 30
0.0
  3
SW_CENTERMARKSYMBOL_36
  1
SW_CENTERMARKSYMBOL_36
  0
LINE
  5
1E4C
330
1E49
100
AcDbEntity
  8
240
 62
     0
100
AcDbLine
 10
0.0
 20
0.0
 30
0.0
 11
0.0
 21
0.625
 31
0.0
  0
LINE
  5
1E4D
330
1E49
100
AcDbEntity
  8
240
 62
     0
100
AcDbLine
 10
0.0
 20
0.0
 30
0.0
 11
-0.625
 21
0.0
 31
0.0
  0
LINE
  5
1E4E
330
1E49
100
AcDbEntity
  8
240
 62
     0
100
AcDbLine
 10
0.0
 20
0.0
 30
0.0
 11
0.0
 21
-0.625
 31
0.0
  0
LINE
  5
1E4F
330
1E49
100
AcDbEntity
  8
240
 62
     0
100
AcDbLine
 10
0.0
 20
0.0
 30
0.0
 11
0.625
 21
0.0
 31
0.0
  0
LINE
  5
1E50
330
1E49
100
AcDbEntity
  8
240
 62
     0
100
AcDbLine
 10
0.0
 20
1.25
 30
0.0
 11
0.0
 21
1.6875
 31
0.0
  0
LINE
  5
1E51
330
1E49
100
AcDbEntity
  8
240
 62
     0
100
AcDbLine
 10
-1.25
 20
0.0
 30
0.0
 11
-1.6875
 21
0.0
 31
0.0
  0
LINE
  5
1E52
330
1E49
100
AcDbEntity
  8
240
 62
     0
100
AcDbLine
 10
0.0
 20
-1.25
 30
0.0
 11
0.0
 21
-1.6875
 31
0.0
  0
LINE
  5
1E53
330
1E49
100
AcDbEntity
  8
240
 62
     0
100
AcDbLine
 10
1.25
 20
0.0
 30
0.0
 11
1.6875
 21
0.0
 31
0.0
  0
ENDBLK
  5
1E4B
330
1E49
100
AcDbEntity
  8
0
100
AcDbBlockEnd
  0
BLOCK
  5
1E56
330
1E55
100
AcDbEntity
  8
0
100
AcDbBlockBegin
  2
SW_CENTERMARKSYMBOL_37
 70
     0
 10
0.0
 20
0.0
 30
0.0
  3
SW_CENTERMARKSYMBOL_37
  1
SW_CENTERMARKSYMBOL_37
  0
LINE
  5
1E58
330
1E55
100
AcDbEntity
  8
240
 62
     0
100
AcDbLine
 10
0.0
 20
0.0
 30
0.0
 11
0.0
 21
0.625
 31
0.0
  0
LINE
  5
1E59
330
1E55
100
AcDbEntity
  8
240
 62
     0
100
AcDbLine
 10
0.0
 20
0.0
 30
0.0
 11
-0.625
 21
0.0
 31
0.0
  0
LINE
  5
1E5A
330
1E55
100
AcDbEntity
  8
240
 62
     0
100
AcDbLine
 10
0.0
 20
0.0
 30
0.0
 11
0.0
 21
-0.625
 31
0.0
  0
LINE
  5
1E5B
330
1E55
100
AcDbEntity
  8
240
 62
     0
100
AcDbLine
 10
0.0
 20
0.0
 30
0.0
 11
0.625
 21
0.0
 31
0.0
  0
LINE
  5
1E5C
330
1E55
100
AcDbEntity
  8
240
 62
     0
100
AcDbLine
 10
0.0
 20
1.25
 30
0.0
 11
0.0
 21
1.6875
 31
0.0
  0
LINE
  5
1E5D
330
1E55
100
AcDbEntity
  8
240
 62
     0
100
AcDbLine
 10
-1.25
 20
0.0
 30
0.0
 11
-1.6875
 21
0.0
 31
0.0
  0
LINE
  5
1E5E
330
1E55
100
AcDbEntity
  8
240
 62
     0
100
AcDbLine
 10
0.0
 20
-1.25
 30
0.0
 11
0.0
 21
-1.6875
 31
0.0
  0
LINE
  5
1E5F
330
1E55
100
AcDbEntity
  8
240
 62
     0
100
AcDbLine
 10
1.25
 20
0.0
 30
0.0
 11
1.6875
 21
0.0
 31
0.0
  0
ENDBLK
  5
1E57
330
1E55
100
AcDbEntity
  8
0
100
AcDbBlockEnd
  0
BLOCK
  5
380C
330
380B
100
AcDbEntity
  8
0
100
AcDbBlockBegin
  2
_OPEN
 70
     0
 10
0.0
 20
0.0
 30
0.0
  3
_OPEN
  1

  0
LINE
  5
380D
330
380B
100
AcDbEntity
  8
30
  6
Continuous
 62
     0
100
AcDbLine
 10
-1.0
 20
0.166667
 30
0.0
 11
0.0
 21
0.0
 31
0.0
  0
LINE
  5
380E
330
380B
100
AcDbEntity
  8
30
  6
Continuous
 62
     0
100
AcDbLine
 10
-1.0
 20
-0.166667
 30
0.0
 11
0.0
 21
0.0
 31
0.0
  0
LINE
  5
380F
330
380B
100
AcDbEntity
  8
30
  6
Continuous
 62
     0
100
AcDbLine
 10
0.0
 20
0.0
 30
0.0
 11
-1.0
 21
0.0
 31
0.0
  0
ENDBLK
  5
3810
330
380B
100
AcDbEntity
  8
0
100
AcDbBlockEnd
  0
BLOCK
  5
6319
330
6318
100
AcDbEntity
  8
0
100
AcDbBlockBegin
  2
READTB
 70
     0
 10
0.0
 20
0.0
 30
0.0
  3
READTB
  1

  0
LWPOLYLINE
  5
631B
330
6318
100
AcDbEntity
  8
24
  6
CONTINOUS
100
AcDbPolyline
 90
        4
 70
     0
 43
0.0
 10
11.0
 20
21.19999999999993
 10
11.79999999999973
 20
21.19999999999993
 10
11.79999999999973
 20
27.79999999999996
 10
11.0
 20
27.79999999999996
  0
LINE
  5
631C
330
6318
100
AcDbEntity
  8
10
  6
CONTINOUS
100
AcDbLine
 10
6.5
 20
29.99999999999989
 30
0.0
 11
6.5
 21
31.59999999999991
 31
0.0
  0
LINE
  5
631D
330
6318
100
AcDbEntity
  8
10
  6
CONTINOUS
100
AcDbLine
 10
0.0
 20
31.59999999999991
 30
0.0
 11
17.0
 21
31.59999999999991
 31
0.0
  0
LINE
  5
631E
330
6318
100
AcDbEntity
  8
10
  6
CONTINOUS
100
AcDbLine
 10
17.0
 20
31.59999999999991
 30
0.0
 11
17.0
 21
29.99999999999989
 31
0.0
  0
ARC
  5
631F
330
6318
100
AcDbEntity
  8
24
  6
CONTINOUS
100
AcDbCircle
 10
2.099999999999909
 20
32.09999999999991
 30
0.0
 40
0.5000000000000232
100
AcDbArc
 50
180.0
 51
258.4630409671953
  0
LINE
  5
6320
330
6318
100
AcDbEntity
  8
10
  6
CONTINOUS
100
AcDbLine
 10
6.5
 20
-31.0
 30
0.0
 11
6.5
 21
-32.60000000000002
 31
0.0
  0
LINE
  5
6321
330
6318
100
AcDbEntity
  8
10
  6
CONTINOUS
100
AcDbLine
 10
10.0
 20
-31.0
 30
0.0
 11
10.0
 21
-32.60000000000002
 31
0.0
  0
LINE
  5
6322
330
6318
100
AcDbEntity
  8
10
  6
CONTINOUS
100
AcDbLine
 10
10.0
 20
-32.60000000000002
 30
0.0
 11
0.0
 21
-32.60000000000002
 31
0.0
  0
LINE
  5
6323
330
6318
100
AcDbEntity
  8
10
  6
CONTINOUS
100
AcDbLine
 10
17.0
 20
-31.0
 30
0.0
 11
17.0
 21
-32.60000000000002
 31
0.0
  0
LINE
  5
6324
330
6318
100
AcDbEntity
  8
10
  6
CONTINOUS
100
AcDbLine
 10
17.0
 20
-32.60000000000002
 30
0.0
 11
15.0
 21
-32.60000000000002
 31
0.0
  0
LINE
  5
6325
330
6318
100
AcDbEntity
  8
10
  6
CONTINOUS
100
AcDbLine
 10
15.0
 20
-32.60000000000002
 30
0.0
 11
10.0
 21
-32.60000000000002
 31
0.0
  0
LWPOLYLINE
  5
6326
330
6318
100
AcDbEntity
  8
10
  6
CONTINOUS
100
AcDbPolyline
 90
        3
 70
     0
 43
0.0
 10
10.0
 20
27.99999999999989
 10
10.0
 20
20.0
 10
0.0
 20
20.0
  0
LWPOLYLINE
  5
6327
330
6318
100
AcDbEntity
  8
10
  6
CONTINOUS
100
AcDbPolyline
 90
        4
 70
     0
 43
0.0
 10
8.237926744066726
 20
18.0
 10
13.29999999999972
 20
18.0
 10
13.29999999999972
 20
21.0
 10
10.0
 20
21.0
  0
LINE
  5
6328
330
6318
100
AcDbEntity
  8
10
  6
CONTINOUS
100
AcDbLine
 10
10.0
 20
10.0
 30
0.0
 11
0.0
 21
10.0
 31
0.0
  0
LINE
  5
6329
330
6318
100
AcDbEntity
  8
10
  6
CONTINOUS
100
AcDbLine
 10
10.0
 20
0.0
 30
0.0
 11
0.0
 21
0.0
 31
0.0
  0
LINE
  5
632A
330
6318
100
AcDbEntity
  8
10
  6
CONTINOUS
100
AcDbLine
 10
10.0
 20
-10.0
 30
0.0
 11
0.0
 21
-10.0
 31
0.0
  0
LINE
  5
632B
330
6318
100
AcDbEntity
  8
10
  6
CONTINOUS
100
AcDbLine
 10
10.0
 20
-20.0
 30
0.0
 11
0.0
 21
-20.0
 31
0.0
  0
LINE
  5
632C
330
6318
100
AcDbEntity
  8
10
  6
CONTINOUS
100
AcDbLine
 10
19.09999999999991
 20
28.99999999999989
 30
0.0
 11
19.08749217800005
 21
-30.0
 31
0.0
  0
LINE
  5
632D
330
6318
100
AcDbEntity
  8
24
  6
CONTINOUS
100
AcDbLine
 10
11.79999999999973
 20
24.5
 30
0.0
 11
11.0
 21
24.19230769239994
 31
0.0
  0
LINE
  5
632E
330
6318
100
AcDbEntity
  8
24
  6
CONTINOUS
100
AcDbLine
 10
11.79999999999973
 20
24.99999999999989
 30
0.0
 11
11.0
 21
24.69230769239994
 31
0.0
  0
LWPOLYLINE
  5
632F
330
6318
100
AcDbEntity
  8
10
  6
CONTINOUS
100
AcDbPolyline
 90
        3
 70
     0
 43
0.0
 10
13.5
 20
-30.0
 10
13.5
 20
-29.0
 10
9.960492974930275
 20
-29.0
  0
LINE
  5
6330
330
6318
100
AcDbEntity
  8
10
  6
CONTINOUS
100
AcDbLine
 10
0.0
 20
-31.0
 30
0.0
 11
20.0
 21
-31.0
 31
0.0
  0
LINE
  5
6331
330
6318
100
AcDbEntity
  8
10
  6
CONTINOUS
100
AcDbLine
 10
8.199999999999818
 20
-30.0
 30
0.0
 11
0.0
 21
-30.0
 31
0.0
  0
LINE
  5
6332
330
6318
100
AcDbEntity
  8
10
  6
CONTINOUS
100
AcDbLine
 10
8.199999999999818
 20
-30.0
 30
0.0
 11
8.199999999999818
 21
-29.0
 31
0.0
  0
LINE
  5
6333
330
6318
100
AcDbEntity
  8
10
  6
CONTINOUS
100
AcDbLine
 10
20.0
 20
-30.0
 30
0.0
 11
20.0
 21
-31.0
 31
0.0
  0
LINE
  5
6334
330
6318
100
AcDbEntity
  8
10
  6
CONTINOUS
100
AcDbLine
 10
13.5
 20
-30.0
 30
0.0
 11
20.0
 21
-30.0
 31
0.0
  0
LINE
  5
6335
330
6318
100
AcDbEntity
  8
24
  6
CONTINOUS
100
AcDbLine
 10
11.0
 20
27.99999999999989
 30
0.0
 11
11.0
 21
21.0
 31
0.0
  0
LINE
  5
6336
330
6318
100
AcDbEntity
  8
10
  6
CONTINOUS
100
AcDbLine
 10
10.0
 20
31.59999999999991
 30
0.0
 11
10.0
 21
29.99999999999989
 31
0.0
  0
LINE
  5
6337
330
6318
100
AcDbEntity
  8
10
  6
CONTINOUS
100
AcDbLine
 10
13.29999999999972
 20
30.99999999999989
 30
0.0
 11
10.0
 21
30.99999999999989
 31
0.0
  0
LINE
  5
6338
330
6318
100
AcDbEntity
  8
10
  6
CONTINOUS
100
AcDbLine
 10
13.29999999999972
 20
30.99999999999989
 30
0.0
 11
13.29999999999972
 21
29.99999999999989
 31
0.0
  0
LINE
  5
6339
330
6318
100
AcDbEntity
  8
10
  6
CONTINOUS
100
AcDbLine
 10
13.29999999999972
 20
28.99999999999989
 30
0.0
 11
18.0
 21
28.99999999999989
 31
0.0
  0
LINE
  5
633A
330
6318
100
AcDbEntity
  8
10
  6
CONTINOUS
100
AcDbLine
 10
13.29999999999972
 20
28.99999999999989
 30
0.0
 11
13.29999999999972
 21
27.99999999999989
 31
0.0
  0
LINE
  5
633B
330
6318
100
AcDbEntity
  8
10
  6
CONTINOUS
100
AcDbLine
 10
8.245828149080692
 20
27.99999999999989
 30
0.0
 11
13.29999999999972
 21
27.99999999999989
 31
0.0
  0
LINE
  5
633C
330
6318
100
AcDbEntity
  8
10
  6
CONTINOUS
100
AcDbLine
 10
8.199999999999818
 20
-30.0
 30
0.0
 11
8.245828149080692
 21
27.99999999999989
 31
0.0
  0
LINE
  5
633D
330
6318
100
AcDbEntity
  8
10
  6
CONTINOUS
100
AcDbLine
 10
20.0
 20
29.99999999999989
 30
0.0
 11
20.0
 21
28.99999999999989
 31
0.0
  0
LINE
  5
633E
330
6318
100
AcDbEntity
  8
10
  6
CONTINOUS
100
AcDbLine
 10
20.0
 20
28.99999999999989
 30
0.0
 11
18.0
 21
28.99999999999989
 31
0.0
  0
LWPOLYLINE
  5
633F
330
6318
100
AcDbEntity
  8
24
  6
CONTINOUS
100
AcDbPolyline
 90
       18
 70
     0
 43
0.0
 10
11.79999999999973
 20
27.49999999999989
 10
12.85369821182246
 20
27.40781335190093
 42
-0.3142202440833934
 10
13.81921958789166
 20
26.60086861890551
 42
-0.0056715522299757
 10
13.86488945880001
 20
26.42522510279992
 10
13.8648894587036
 20
26.37203784373256
 42
-0.026670071057275
 10
14.01983488289795
 20
25.53129002979455
 42
-0.0147955144204446
 10
14.04789378308965
 20
25.14458684978507
 42
-0.0301142318753599
 10
14.01983488279984
 20
24.96114673039995
 10
13.86488945880001
 20
24.94940628519998
 10
13.86488945880001
 20
24.05059371519997
 10
14.01983488266342
 20
24.03885326975845
 42
-0.0301142318753597
 10
14.04789378331804
 20
23.85541315057409
 42
-0.0147955144204444
 10
14.01983488276494
 20
23.46870997066259
 42
-0.0266700710572752
 10
13.86488945880001
 20
22.62796215679998
 10
13.86488945858139
 20
22.57477489731588
 42
-0.0056715522299757
 10
13.81921958813518
 20
22.39913138130043
 42
-0.3142202440833934
 10
12.85369821159975
 20
21.59218664839989
 10
11.79999999999973
 20
21.5
  0
LINE
  5
6340
330
6318
100
AcDbEntity
  8
0
  6
SLD-実線
 62
     8
370
     0
100
AcDbLine
 10
2.0
 20
31.59999999999991
 30
0.0
 11
2.0
 21
31.61010205159994
 31
0.0
  0
LINE
  5
6341
330
6318
100
AcDbEntity
  8
0
  6
SLD-実線
 62
     8
370
     0
100
AcDbLine
 10
18.0
 20
19.0
 30
0.0
 11
18.0
 21
20.0
 31
0.0
  0
LINE
  5
6342
330
6318
100
AcDbEntity
  8
0
  6
SLD-実線
 62
     8
370
     0
100
AcDbLine
 10
18.0
 20
28.99999999999989
 30
0.0
 11
18.0
 21
29.99999999999989
 31
0.0
  0
LINE
  5
6343
330
6318
100
AcDbEntity
  8
10
  6
CONTINOUS
100
AcDbLine
 10
0.0
 20
29.99999999999989
 30
0.0
 11
20.0
 21
29.99999999999989
 31
0.0
  0
LWPOLYLINE
  5
6344
330
6318
100
AcDbEntity
  8
24
  6
CONTINOUS
100
AcDbPolyline
 90
        4
 70
     0
 43
0.0
 10
10.99209859498603
 20
11.19999999999993
 10
11.79209859498576
 20
11.19999999999993
 10
11.79209859498576
 20
17.79999999999995
 10
10.99209859498603
 20
17.79999999999995
  0
LWPOLYLINE
  5
6345
330
6318
100
AcDbEntity
  8
10
  6
CONTINOUS
100
AcDbPolyline
 90
        3
 70
     0
 43
0.0
 10
9.992098594986034
 20
17.99999999999988
 10
9.992098594986034
 20
10.0
 10
-0.0079014050139676
 20
10.0
  0
LWPOLYLINE
  5
6346
330
6318
100
AcDbEntity
  8
10
  6
CONTINOUS
100
AcDbPolyline
 90
        4
 70
     0
 43
0.0
 10
8.230025339052758
 20
8.0
 10
13.29209859498576
 20
8.0
 10
13.29209859498576
 20
11.0
 10
9.992098594986034
 20
11.0
  0
LINE
  5
6347
330
6318
100
AcDbEntity
  8
24
  6
CONTINOUS
100
AcDbLine
 10
11.79209859498576
 20
14.5
 30
0.0
 11
10.99209859498603
 21
14.19230769239993
 31
0.0
  0
LINE
  5
6348
330
6318
100
AcDbEntity
  8
24
  6
CONTINOUS
100
AcDbLine
 10
11.79209859498576
 20
14.99999999999988
 30
0.0
 11
10.99209859498603
 21
14.69230769239993
 31
0.0
  0
LINE
  5
6349
330
6318
100
AcDbEntity
  8
24
  6
CONTINOUS
100
AcDbLine
 10
10.99209859498603
 20
17.99999999999988
 30
0.0
 11
10.99209859498603
 21
11.0
 31
0.0
  0
LWPOLYLINE
  5
634A
330
6318
100
AcDbEntity
  8
24
  6
CONTINOUS
100
AcDbPolyline
 90
       18
 70
     0
 43
0.0
 10
11.79209859498576
 20
17.49999999999988
 10
12.84579680680849
 20
17.40781335190092
 42
-0.3142202440833934
 10
13.8113181828777
 20
16.60086861890551
 42
-0.0056715522299757
 10
13.85698805378604
 20
16.42522510279991
 10
13.85698805368963
 20
16.37203784373255
 42
-0.026670071057275
 10
14.01193347788398
 20
15.53129002979455
 42
-0.0147955144204446
 10
14.03999237807568
 20
15.14458684978507
 42
-0.0301142318753599
 10
14.01193347778587
 20
14.96114673039994
 10
13.85698805378604
 20
14.94940628519998
 10
13.85698805378604
 20
14.05059371519996
 10
14.01193347764945
 20
14.03885326975845
 42
-0.0301142318753597
 10
14.03999237830408
 20
13.85541315057409
 42
-0.0147955144204444
 10
14.01193347775097
 20
13.46870997066259
 42
-0.0266700710572752
 10
13.85698805378604
 20
12.62796215679998
 10
13.85698805356742
 20
12.57477489731587
 42
-0.0056715522299757
 10
13.81131818312121
 20
12.39913138130043
 42
-0.3142202440833934
 10
12.84579680658578
 20
11.59218664839989
 10
11.79209859498576
 20
11.5
  0
LWPOLYLINE
  5
634B
330
6318
100
AcDbEntity
  8
24
  6
CONTINOUS
100
AcDbPolyline
 90
        4
 70
     0
 43
0.0
 10
10.98419718997206
 20
1.19999999999993
 10
11.78419718997179
 20
1.19999999999993
 10
11.78419718997179
 20
7.799999999999952
 10
10.98419718997206
 20
7.799999999999952
  0
LWPOLYLINE
  5
634C
330
6318
100
AcDbEntity
  8
10
  6
CONTINOUS
100
AcDbPolyline
 90
        3
 70
     0
 43
0.0
 10
9.984197189972064
 20
7.999999999999886
 10
9.984197189972064
 20
0.0
 10
-0.0158028100279353
 20
0.0
  0
LWPOLYLINE
  5
634D
330
6318
100
AcDbEntity
  8
10
  6
CONTINOUS
100
AcDbPolyline
 90
        4
 70
     0
 43
0.0
 10
8.222123934038791
 20
-2.0
 10
13.28419718997179
 20
-2.0
 10
13.28419718997179
 20
1.0
 10
9.984197189972064
 20
1.0
  0
LINE
  5
634E
330
6318
100
AcDbEntity
  8
24
  6
CONTINOUS
100
AcDbLine
 10
11.78419718997179
 20
4.5
 30
0.0
 11
10.98419718997206
 21
4.192307692399936
 31
0.0
  0
LINE
  5
634F
330
6318
100
AcDbEntity
  8
24
  6
CONTINOUS
100
AcDbLine
 10
11.78419718997179
 20
4.999999999999886
 30
0.0
 11
10.98419718997206
 21
4.692307692399936
 31
0.0
  0
LINE
  5
6350
330
6318
100
AcDbEntity
  8
24
  6
CONTINOUS
100
AcDbLine
 10
10.98419718997206
 20
7.999999999999886
 30
0.0
 11
10.98419718997206
 21
1.0
 31
0.0
  0
LWPOLYLINE
  5
6351
330
6318
100
AcDbEntity
  8
24
  6
CONTINOUS
100
AcDbPolyline
 90
       18
 70
     0
 43
0.0
 10
11.78419718997179
 20
7.499999999999886
 10
12.83789540179453
 20
7.407813351900927
 42
-0.3142202440833934
 10
13.80341677786373
 20
6.600868618905507
 42
-0.0056715522299757
 10
13.84908664877207
 20
6.425225102799912
 10
13.84908664867566
 20
6.372037843732556
 42
-0.026670071057275
 10
14.00403207287002
 20
5.531290029794546
 42
-0.0147955144204446
 10
14.03209097306171
 20
5.144586849785071
 42
-0.0301142318753599
 10
14.0040320727719
 20
4.961146730399946
 10
13.84908664877207
 20
4.949406285199983
 10
13.84908664877207
 20
4.050593715199966
 10
14.00403207263548
 20
4.038853269758448
 42
-0.0301142318753597
 10
14.03209097329011
 20
3.855413150574093
 42
-0.0147955144204444
 10
14.004032072737
 20
3.468709970662586
 42
-0.0266700710572752
 10
13.84908664877207
 20
2.627962156799981
 10
13.84908664855345
 20
2.574774897315875
 42
-0.0056715522299757
 10
13.80341677810725
 20
2.399131381300434
 42
-0.3142202440833934
 10
12.83789540157181
 20
1.592186648399888
 10
11.78419718997179
 20
1.5
  0
LWPOLYLINE
  5
6352
330
6318
100
AcDbEntity
  8
24
  6
CONTINOUS
100
AcDbPolyline
 90
        4
 70
     0
 43
0.0
 10
10.97629578495821
 20
-8.800000000000068
 10
11.77629578495793
 20
-8.800000000000068
 10
11.77629578495793
 20
-2.200000000000045
 10
10.97629578495821
 20
-2.200000000000045
  0
LWPOLYLINE
  5
6353
330
6318
100
AcDbEntity
  8
10
  6
CONTINOUS
100
AcDbPolyline
 90
        3
 70
     0
 43
0.0
 10
9.97629578495821
 20
-2.000000000000111
 10
9.97629578495821
 20
-10.0
 10
-0.0237042150417892
 20
-10.0
  0
LWPOLYLINE
  5
6354
330
6318
100
AcDbEntity
  8
10
  6
CONTINOUS
100
AcDbPolyline
 90
        4
 70
     0
 43
0.0
 10
8.214222529024937
 20
-12.0
 10
13.27629578495794
 20
-12.0
 10
13.27629578495794
 20
-9.0
 10
9.97629578495821
 20
-9.0
  0
LINE
  5
6355
330
6318
100
AcDbEntity
  8
24
  6
CONTINOUS
100
AcDbLine
 10
11.77629578495793
 20
-5.5
 30
0.0
 11
10.97629578495821
 21
-5.807692307600063
 31
0.0
  0
LINE
  5
6356
330
6318
100
AcDbEntity
  8
24
  6
CONTINOUS
100
AcDbLine
 10
11.77629578495793
 20
-5.000000000000113
 30
0.0
 11
10.97629578495821
 21
-5.307692307600063
 31
0.0
  0
LINE
  5
6357
330
6318
100
AcDbEntity
  8
24
  6
CONTINOUS
100
AcDbLine
 10
10.97629578495821
 20
-2.000000000000111
 30
0.0
 11
10.97629578495821
 21
-9.0
 31
0.0
  0
LWPOLYLINE
  5
6358
330
6318
100
AcDbEntity
  8
24
  6
CONTINOUS
100
AcDbPolyline
 90
       18
 70
     0
 43
0.0
 10
11.77629578495793
 20
-2.500000000000113
 10
12.82999399678067
 20
-2.592186648099068
 42
-0.3142202440833934
 10
13.79551537284988
 20
-3.399131381094491
 42
-0.0056715522299757
 10
13.84118524375822
 20
-3.574774897200086
 10
13.84118524366181
 20
-3.627962156267443
 42
-0.026670071057275
 10
13.99613066785616
 20
-4.468709970205452
 42
-0.0147955144204446
 10
14.02418956804786
 20
-4.855413150214928
 42
-0.0301142318753599
 10
13.99613066775805
 20
-5.038853269600051
 10
13.84118524375822
 20
-5.050593714800013
 10
13.84118524375822
 20
-5.949406284800032
 10
13.99613066762163
 20
-5.96114673024155
 42
-0.0301142318753597
 10
14.02418956827625
 20
-6.144586849425905
 42
-0.0147955144204444
 10
13.99613066772315
 20
-6.53129002933741
 42
-0.0266700710572752
 10
13.84118524375822
 20
-7.372037843200017
 10
13.8411852435396
 20
-7.425225102684122
 42
-0.0056715522299757
 10
13.79551537309339
 20
-7.600868618699562
 42
-0.3142202440833934
 10
12.82999399655796
 20
-8.407813351600111
 10
11.77629578495793
 20
-8.5
  0
LWPOLYLINE
  5
6359
330
6318
100
AcDbEntity
  8
24
  6
CONTINOUS
100
AcDbPolyline
 90
        4
 70
     0
 43
0.0
 10
10.96839437994424
 20
-18.80000000000007
 10
11.76839437994397
 20
-18.80000000000007
 10
11.76839437994397
 20
-12.20000000000004
 10
10.96839437994424
 20
-12.20000000000004
  0
LWPOLYLINE
  5
635A
330
6318
100
AcDbEntity
  8
10
  6
CONTINOUS
100
AcDbPolyline
 90
        3
 70
     0
 43
0.0
 10
9.968394379944244
 20
-12.00000000000011
 10
9.968394379944244
 20
-20.0
 10
-0.0316056200557569
 20
-20.0
  0
LWPOLYLINE
  5
635B
330
6318
100
AcDbEntity
  8
10
  6
CONTINOUS
100
AcDbPolyline
 90
        4
 70
     0
 43
0.0
 10
8.206321124010967
 20
-22.0
 10
13.26839437994397
 20
-22.0
 10
13.26839437994397
 20
-19.0
 10
9.968394379944244
 20
-19.0
  0
LINE
  5
635C
330
6318
100
AcDbEntity
  8
24
  6
CONTINOUS
100
AcDbLine
 10
11.76839437994397
 20
-15.5
 30
0.0
 11
10.96839437994424
 21
-15.80769230760006
 31
0.0
  0
LINE
  5
635D
330
6318
100
AcDbEntity
  8
24
  6
CONTINOUS
100
AcDbLine
 10
11.76839437994397
 20
-15.00000000000011
 30
0.0
 11
10.96839437994424
 21
-15.30769230760006
 31
0.0
  0
LINE
  5
635E
330
6318
100
AcDbEntity
  8
24
  6
CONTINOUS
100
AcDbLine
 10
10.96839437994424
 20
-12.00000000000011
 30
0.0
 11
10.96839437994424
 21
-19.0
 31
0.0
  0
LWPOLYLINE
  5
635F
330
6318
100
AcDbEntity
  8
24
  6
CONTINOUS
100
AcDbPolyline
 90
       18
 70
     0
 43
0.0
 10
11.76839437994397
 20
-12.50000000000011
 10
12.8220925917667
 20
-12.59218664809907
 42
-0.3142202440833934
 10
13.78761396783591
 20
-13.39913138109449
 42
-0.0056715522299757
 10
13.83328383874425
 20
-13.57477489720009
 10
13.83328383864784
 20
-13.62796215626744
 42
-0.026670071057275
 10
13.9882292628422
 20
-14.46870997020545
 42
-0.0147955144204446
 10
14.01628816303389
 20
-14.85541315021493
 42
-0.0301142318753599
 10
13.98822926274408
 20
-15.03885326960005
 10
13.83328383874425
 20
-15.05059371480001
 10
13.83328383874425
 20
-15.94940628480003
 10
13.98822926260766
 20
-15.96114673024155
 42
-0.0301142318753597
 10
14.01628816326229
 20
-16.1445868494259
 42
-0.0147955144204444
 10
13.98822926270918
 20
-16.53129002933741
 42
-0.0266700710572752
 10
13.83328383874425
 20
-17.37203784320002
 10
13.83328383852563
 20
-17.42522510268412
 42
-0.0056715522299757
 10
13.78761396807943
 20
-17.60086861869956
 42
-0.3142202440833934
 10
12.82209259154399
 20
-18.40781335160011
 10
11.76839437994397
 20
-18.5
  0
LWPOLYLINE
  5
6360
330
6318
100
AcDbEntity
  8
24
  6
CONTINOUS
100
AcDbPolyline
 90
        4
 70
     0
 43
0.0
 10
10.96049297493027
 20
-28.80000000000007
 10
11.76049297493
 20
-28.80000000000007
 10
11.76049297493
 20
-22.20000000000005
 10
10.96049297493027
 20
-22.20000000000005
  0
LWPOLYLINE
  5
6361
330
6318
100
AcDbEntity
  8
10
  6
CONTINOUS
100
AcDbPolyline
 90
        3
 70
     0
 43
0.0
 10
9.960492974930275
 20
-22.00000000000011
 10
9.960492974930275
 20
-30.0
 10
-0.0395070250697245
 20
-30.0
  0
LINE
  5
6362
330
6318
100
AcDbEntity
  8
24
  6
CONTINOUS
100
AcDbLine
 10
11.76049297493
 20
-25.5
 30
0.0
 11
10.96049297493027
 21
-25.80769230760007
 31
0.0
  0
LINE
  5
6363
330
6318
100
AcDbEntity
  8
24
  6
CONTINOUS
100
AcDbLine
 10
11.76049297493
 20
-25.00000000000011
 30
0.0
 11
10.96049297493027
 21
-25.30769230760006
 31
0.0
  0
LINE
  5
6364
330
6318
100
AcDbEntity
  8
24
  6
CONTINOUS
100
AcDbLine
 10
10.96049297493027
 20
-22.00000000000011
 30
0.0
 11
10.96049297493027
 21
-29.0
 31
0.0
  0
LWPOLYLINE
  5
6365
330
6318
100
AcDbEntity
  8
24
  6
CONTINOUS
100
AcDbPolyline
 90
       18
 70
     0
 43
0.0
 10
11.76049297493
 20
-22.50000000000011
 10
12.81419118675273
 20
-22.59218664809907
 42
-0.3142202440833934
 10
13.77971256282194
 20
-23.39913138109449
 42
-0.0056715522299757
 10
13.82538243373028
 20
-23.57477489720009
 10
13.82538243363387
 20
-23.62796215626744
 42
-0.026670071057275
 10
13.98032785782823
 20
-24.46870997020545
 42
-0.0147955144204446
 10
14.00838675801992
 20
-24.85541315021493
 42
-0.0301142318753599
 10
13.98032785773011
 20
-25.03885326960006
 10
13.82538243373028
 20
-25.05059371480002
 10
13.82538243373028
 20
-25.94940628480003
 10
13.98032785759369
 20
-25.96114673024155
 42
-0.0301142318753597
 10
14.00838675824832
 20
-26.14458684942591
 42
-0.0147955144204444
 10
13.98032785769521
 20
-26.53129002933741
 42
-0.0266700710572752
 10
13.82538243373028
 20
-27.37203784320002
 10
13.82538243351166
 20
-27.42522510268412
 42
-0.0056715522299757
 10
13.77971256306546
 20
-27.60086861869956
 42
-0.3142202440833934
 10
12.81419118653002
 20
-28.40781335160011
 10
11.76049297493
 20
-28.5
  0
ENDBLK
  5
631A
330
6318
100
AcDbEntity
  8
0
100
AcDbBlockEnd
  0
BLOCK
  5
6645
330
6644
100
AcDbEntity
  8
0
100
AcDbBlockBegin
  2
SW_CENTERMARKSYMBOL_22
 70
     0
 10
0.0
 20
0.0
 30
0.0
  3
SW_CENTERMARKSYMBOL_22
  1
SW_CENTERMARKSYMBOL_22
  0
LINE
  5
6646
330
6644
100
AcDbEntity
  8
240
 62
     0
100
AcDbLine
 10
0.0
 20
0.0
 30
0.0
 11
0.0
 21
0.625
 31
0.0
  0
LINE
  5
6647
330
6644
100
AcDbEntity
  8
240
 62
     0
100
AcDbLine
 10
0.0
 20
0.0
 30
0.0
 11
-0.625
 21
0.0
 31
0.0
  0
LINE
  5
6648
330
6644
100
AcDbEntity
  8
240
 62
     0
100
AcDbLine
 10
0.0
 20
0.0
 30
0.0
 11
0.0
 21
-0.625
 31
0.0
  0
LINE
  5
6649
330
6644
100
AcDbEntity
  8
240
 62
     0
100
AcDbLine
 10
0.0
 20
0.0
 30
0.0
 11
0.625
 21
0.0
 31
0.0
  0
LINE
  5
664A
330
6644
100
AcDbEntity
  8
240
 62
     0
100
AcDbLine
 10
0.0
 20
0.625
 30
0.0
 11
0.0
 21
1.25
 31
0.0
  0
LINE
  5
664B
330
6644
100
AcDbEntity
  8
240
 62
     0
100
AcDbLine
 10
-0.625
 20
0.0
 30
0.0
 11
-1.25
 21
0.0
 31
0.0
  0
LINE
  5
664C
330
6644
100
AcDbEntity
  8
240
 62
     0
100
AcDbLine
 10
0.0
 20
-0.625
 30
0.0
 11
0.0
 21
-1.25
 31
0.0
  0
LINE
  5
664D
330
6644
100
AcDbEntity
  8
240
 62
     0
100
AcDbLine
 10
0.625
 20
0.0
 30
0.0
 11
1.25
 21
0.0
 31
0.0
  0
ENDBLK
  5
664E
330
6644
100
AcDbEntity
  8
0
100
AcDbBlockEnd
  0
BLOCK
  5
6650
330
664F
100
AcDbEntity
  8
0
100
AcDbBlockBegin
  2
SW_CENTERMARKSYMBOL_23
 70
     0
 10
0.0
 20
0.0
 30
0.0
  3
SW_CENTERMARKSYMBOL_23
  1
SW_CENTERMARKSYMBOL_23
  0
LINE
  5
6651
330
664F
100
AcDbEntity
  8
240
 62
     0
100
AcDbLine
 10
0.0
 20
0.0
 30
0.0
 11
0.0
 21
0.625
 31
0.0
  0
LINE
  5
6652
330
664F
100
AcDbEntity
  8
240
 62
     0
100
AcDbLine
 10
0.0
 20
0.0
 30
0.0
 11
-0.625
 21
0.0
 31
0.0
  0
LINE
  5
6653
330
664F
100
AcDbEntity
  8
240
 62
     0
100
AcDbLine
 10
0.0
 20
0.0
 30
0.0
 11
0.0
 21
-0.625
 31
0.0
  0
LINE
  5
6654
330
664F
100
AcDbEntity
  8
240
 62
     0
100
AcDbLine
 10
0.0
 20
0.0
 30
0.0
 11
0.625
 21
0.0
 31
0.0
  0
LINE
  5
6655
330
664F
100
AcDbEntity
  8
240
 62
     0
100
AcDbLine
 10
0.0
 20
0.625
 30
0.0
 11
0.0
 21
1.25
 31
0.0
  0
LINE
  5
6656
330
664F
100
AcDbEntity
  8
240
 62
     0
100
AcDbLine
 10
-0.625
 20
0.0
 30
0.0
 11
-1.25
 21
0.0
 31
0.0
  0
LINE
  5
6657
330
664F
100
AcDbEntity
  8
240
 62
     0
100
AcDbLine
 10
0.0
 20
-0.625
 30
0.0
 11
0.0
 21
-1.25
 31
0.0
  0
LINE
  5
6658
330
664F
100
AcDbEntity
  8
240
 62
     0
100
AcDbLine
 10
0.625
 20
0.0
 30
0.0
 11
1.25
 21
0.0
 31
0.0
  0
ENDBLK
  5
6659
330
664F
100
AcDbEntity
  8
0
100
AcDbBlockEnd
  0
BLOCK
  5
6AB8
330
6AB7
100
AcDbEntity
  8
0
100
AcDbBlockBegin
  2
*D15
 70
     1
 10
0.0
 20
0.0
 30
0.0
  3
*D15
  1

  0
LINE
  5
7A3B
330
6AB7
100
AcDbEntity
  8
30
  6
Continuous
 62
     0
440
 16777216
370
    -2
100
AcDbLine
 10
184.789044151025
 20
765.312817047881
 30
0.0
 11
184.789044151025
 21
853.062837663481
 31
0.0
  0
LINE
  5
7A3C
330
6AB7
100
AcDbEntity
  8
30
  6
Continuous
 62
     0
440
 16777216
370
    -2
100
AcDbLine
 10
154.789044151025
 20
818.9980963871072
 30
0.0
 11
154.789044151025
 21
853.062837663481
 31
0.0
  0
LINE
  5
7A3D
330
6AB7
100
AcDbEntity
  8
30
  6
Continuous
 62
     0
440
 16777216
370
    -2
100
AcDbLine
 10
182.789044151025
 20
852.5628376634811
 30
0.0
 11
156.789044151025
 21
852.5628376634811
 31
0.0
  0
INSERT
  5
7A3E
330
6AB7
100
AcDbEntity
  8
30
  6
Continuous
 62
     0
440
 16777216
370
    -2
100
AcDbBlockReference
  2
_OPEN
 10
184.789044151025
 20
852.5628376634811
 30
0.0
 41
2.0
 42
2.0
 43
2.0
  0
INSERT
  5
7A3F
330
6AB7
100
AcDbEntity
  8
30
  6
Continuous
 62
     0
440
 16777216
370
    -2
100
AcDbBlockReference
  2
_OPEN
 10
154.789044151025
 20
852.5628376634811
 30
0.0
 41
2.0
 42
2.0
 43
2.0
 50
180.0
  0
MTEXT
  5
7A40
330
6AB7
100
AcDbEntity
  8
30
  6
Continuous
 62
     0
440
 16777216
100
AcDbMText
 10
169.789044151025
 20
861.5628376634811
 30
0.0
 40
7.0
 41
0.0
 46
0.0
 71
     2
 72
     1
  1
\A1;30
 73
     1
 44
1.0
 90
        3
 63
     9
421
 13158600
 45
1.1
441
        0
  0
POINT
  5
7A41
330
6AB7
100
AcDbEntity
  8
Defpoints
  6
Continuous
 62
     0
440
 16777216
100
AcDbPoint
 10
184.789044151025
 20
764.312817047881
 30
0.0
  0
POINT
  5
7A42
330
6AB7
100
AcDbEntity
  8
Defpoints
  6
Continuous
 62
     0
440
 16777216
100
AcDbPoint
 10
154.789044151025
 20
817.9980963871068
 30
0.0
  0
POINT
  5
7A43
330
6AB7
100
AcDbEntity
  8
Defpoints
  6
Continuous
 62
     0
440
 16777216
100
AcDbPoint
 10
154.789044151025
 20
852.5628376634811
 30
0.0
  0
ENDBLK
  5
6AB9
330
6AB7
100
AcDbEntity
  8
0
100
AcDbBlockEnd
  0
BLOCK
  5
6AC4
330
6AC3
100
AcDbEntity
  8
0
100
AcDbBlockBegin
  2
*D16
 70
     1
 10
0.0
 20
0.0
 30
0.0
  3
*D16
  1

  0
LINE
  5
78BD
330
6AC3
100
AcDbEntity
  8
30
  6
Continuous
 62
     0
440
 16777216
370
    -2
100
AcDbLine
 10
217.4089496158538
 20
70.59954736763437
 30
0.0
 11
217.4089496158538
 21
40.36132946840678
 31
0.0
  0
LINE
  5
78BE
330
6AC3
100
AcDbEntity
  8
30
  6
Continuous
 62
     0
440
 16777216
370
    -2
100
AcDbLine
 10
91.40894961585377
 20
70.59954736763437
 30
0.0
 11
91.40894961585377
 21
40.36132946840678
 31
0.0
  0
LINE
  5
78BF
330
6AC3
100
AcDbEntity
  8
30
  6
Continuous
 62
     0
440
 16777216
370
    -2
100
AcDbLine
 10
215.4089496158538
 20
40.86132946840677
 30
0.0
 11
93.40894961585377
 21
40.86132946840677
 31
0.0
  0
INSERT
  5
78C0
330
6AC3
100
AcDbEntity
  8
30
  6
Continuous
 62
     0
440
 16777216
370
    -2
100
AcDbBlockReference
  2
_OPEN
 10
217.4089496158538
 20
40.86132946840677
 30
0.0
 41
2.0
 42
2.0
 43
2.0
  0
INSERT
  5
78C1
330
6AC3
100
AcDbEntity
  8
30
  6
Continuous
 62
     0
440
 16777216
370
    -2
100
AcDbBlockReference
  2
_OPEN
 10
91.40894961585377
 20
40.86132946840677
 30
0.0
 41
2.0
 42
2.0
 43
2.0
 50
180.0
  0
MTEXT
  5
78C2
330
6AC3
100
AcDbEntity
  8
30
  6
Continuous
 62
     0
440
 16777216
100
AcDbMText
 10
154.4089496158538
 20
48.86132946840678
 30
0.0
 40
6.0
 41
0.0
 46
0.0
 71
     2
 72
     1
  1
\A1;126
 73
     1
 44
1.0
 90
        3
 63
     9
421
 13158600
 45
1.1
441
        0
  0
POINT
  5
78C3
330
6AC3
100
AcDbEntity
  8
Defpoints
  6
Continuous
 62
     0
440
 16777216
100
AcDbPoint
 10
217.4089496158538
 20
71.59954736763437
 30
0.0
  0
POINT
  5
78C4
330
6AC3
100
AcDbEntity
  8
Defpoints
  6
Continuous
 62
     0
440
 16777216
100
AcDbPoint
 10
91.40894961585377
 20
71.59954736763437
 30
0.0
  0
POINT
  5
78C5
330
6AC3
100
AcDbEntity
  8
Defpoints
  6
Continuous
 62
     0
440
 16777216
100
AcDbPoint
 10
91.40894961585377
 20
40.86132946840677
 30
0.0
  0
ENDBLK
  5
6AC5
330
6AC3
100
AcDbEntity
  8
0
100
AcDbBlockEnd
  0
BLOCK
  5
6AD0
330
6ACF
100
AcDbEntity
  8
0
100
AcDbBlockBegin
  2
*D17
 70
     1
 10
0.0
 20
0.0
 30
0.0
  3
*D17
  1

  0
LINE
  5
79AA
330
6ACF
100
AcDbEntity
  8
30
  6
Continuous
 62
     0
440
 16777216
370
    -2
100
AcDbLine
 10
233.289046773825
 20
352.8510555550695
 30
0.0
 11
233.289046773825
 21
318.0244655751687
 31
0.0
  0
LINE
  5
79AB
330
6ACF
100
AcDbEntity
  8
30
  6
Continuous
 62
     0
440
 16777216
370
    -2
100
AcDbLine
 10
76.28904152862492
 20
351.9469442498693
 30
0.0
 11
76.28904152862492
 21
318.0244655751687
 31
0.0
  0
LINE
  5
79AC
330
6ACF
100
AcDbEntity
  8
30
  6
Continuous
 62
     0
440
 16777216
370
    -2
100
AcDbLine
 10
231.289046773825
 20
318.5244655751688
 30
0.0
 11
78.28904152862492
 21
318.5244655751688
 31
0.0
  0
INSERT
  5
79AD
330
6ACF
100
AcDbEntity
  8
30
  6
Continuous
 62
     0
440
 16777216
370
    -2
100
AcDbBlockReference
  2
_OPEN
 10
233.289046773825
 20
318.5244655751688
 30
0.0
 41
2.0
 42
2.0
 43
2.0
  0
INSERT
  5
79AE
330
6ACF
100
AcDbEntity
  8
30
  6
Continuous
 62
     0
440
 16777216
370
    -2
100
AcDbBlockReference
  2
_OPEN
 10
76.28904152862492
 20
318.5244655751688
 30
0.0
 41
2.0
 42
2.0
 43
2.0
 50
180.0
  0
MTEXT
  5
79AF
330
6ACF
100
AcDbEntity
  8
30
  6
Continuous
 62
     0
440
 16777216
100
AcDbMText
 10
154.4064644629257
 20
327.5244655751687
 30
0.0
 40
7.0
 41
0.0
 46
0.0
 71
     2
 72
     1
  1
\A1;157
 73
     1
 44
1.0
 90
        3
 63
     9
421
 13158600
 45
1.1
441
        0
  0
POINT
  5
79B0
330
6ACF
100
AcDbEntity
  8
Defpoints
  6
Continuous
 62
     0
440
 16777216
100
AcDbPoint
 10
233.289046773825
 20
353.8510555550695
 30
0.0
  0
POINT
  5
79B1
330
6ACF
100
AcDbEntity
  8
Defpoints
  6
Continuous
 62
     0
440
 16777216
100
AcDbPoint
 10
76.28904152862492
 20
352.9469442498692
 30
0.0
  0
POINT
  5
79B2
330
6ACF
100
AcDbEntity
  8
Defpoints
  6
Continuous
 62
     0
440
 16777216
100
AcDbPoint
 10
76.28904152862492
 20
318.5244655751688
 30
0.0
  0
ENDBLK
  5
6AD1
330
6ACF
100
AcDbEntity
  8
0
100
AcDbBlockEnd
  0
BLOCK
  5
6ADC
330
6ADB
100
AcDbEntity
  8
0
100
AcDbBlockBegin
  2
*D18
 70
     1
 10
0.0
 20
0.0
 30
0.0
  3
*D18
  1

  0
LINE
  5
7AA7
330
6ADB
100
AcDbEntity
  8
30
  6
Continuous
 62
     0
440
 16777216
370
    -2
100
AcDbLine
 10
203.3343553971858
 20
538.9469412098693
 30
0.0
 11
280.9601122692303
 21
538.9469412098691
 31
0.0
  0
LINE
  5
7AA8
330
6ADB
100
AcDbEntity
  8
30
  6
Continuous
 62
     0
440
 16777216
370
    -2
100
AcDbLine
 10
227.359227808822
 20
346.9469395410692
 30
0.0
 11
280.9601122692302
 21
346.9469395410692
 31
0.0
  0
LINE
  5
7AA9
330
6ADB
100
AcDbEntity
  8
30
  6
Continuous
 62
     0
440
 16777216
370
    -2
100
AcDbLine
 10
280.4601122692302
 20
536.9469412098691
 30
0.0
 11
280.4601122692302
 21
348.9469395410692
 31
0.0
  0
INSERT
  5
7AAA
330
6ADB
100
AcDbEntity
  8
30
  6
Continuous
 62
     0
440
 16777216
370
    -2
100
AcDbBlockReference
  2
_OPEN
 10
280.4601122692302
 20
538.9469412098691
 30
0.0
 41
2.0
 42
2.0
 43
2.0
 50
90.0
  0
INSERT
  5
7AAB
330
6ADB
100
AcDbEntity
  8
30
  6
Continuous
 62
     0
440
 16777216
370
    -2
100
AcDbBlockReference
  2
_OPEN
 10
280.4601122692302
 20
346.9469395410692
 30
0.0
 41
2.0
 42
2.0
 43
2.0
 50
270.0
  0
MTEXT
  5
7AAC
330
6ADB
100
AcDbEntity
  8
30
  6
Continuous
 62
     0
440
 16777216
100
AcDbMText
 10
274.9601122692301
 20
442.9469403754692
 30
0.0
 40
7.0
 41
0.0
 46
0.0
 71
     5
 72
     1
  1
\A1;192
 11
0.0000000000000001
 21
1.0
 31
0.0
 73
     1
 44
1.0
 90
        3
 63
     9
421
 13158600
 45
1.1
441
        0
  0
POINT
  5
7AAD
330
6ADB
100
AcDbEntity
  8
Defpoints
  6
Continuous
 62
     0
440
 16777216
100
AcDbPoint
 10
202.3343553971858
 20
538.9469412098693
 30
0.0
  0
POINT
  5
7AAE
330
6ADB
100
AcDbEntity
  8
Defpoints
  6
Continuous
 62
     0
440
 16777216
100
AcDbPoint
 10
226.359227808822
 20
346.9469395410692
 30
0.0
  0
POINT
  5
7AAF
330
6ADB
100
AcDbEntity
  8
Defpoints
  6
Continuous
 62
     0
440
 16777216
100
AcDbPoint
 10
280.4601122692302
 20
346.9469395410692
 30
0.0
  0
ENDBLK
  5
6ADD
330
6ADB
100
AcDbEntity
  8
0
100
AcDbBlockEnd
  0
BLOCK
  5
6AE8
330
6AE7
100
AcDbEntity
  8
0
100
AcDbBlockBegin
  2
*D19
 70
     1
 10
0.0
 20
0.0
 30
0.0
  3
*D19
  1

  0
LINE
  5
7998
330
6AE7
100
AcDbEntity
  8
30
  6
Continuous
 62
     0
440
 16777216
370
    -2
100
AcDbLine
 10
337.5374841537366
 20
450.9257462147074
 30
0.0
 11
337.5374841537366
 21
297.5469424018693
 31
0.0
  0
LINE
  5
7999
330
6AE7
100
AcDbEntity
  8
30
  6
Continuous
 62
     0
440
 16777216
370
    -2
100
AcDbLine
 10
378.0374841537362
 20
339.6230890652732
 30
0.0
 11
378.0374841537362
 21
297.5469424018693
 31
0.0
  0
LINE
  5
799A
330
6AE7
100
AcDbEntity
  8
30
  6
Continuous
 62
     0
440
 16777216
370
    -2
100
AcDbLine
 10
339.5374841537366
 20
298.0469424018693
 30
0.0
 11
376.0374841537362
 21
298.0469424018693
 31
0.0
  0
INSERT
  5
799B
330
6AE7
100
AcDbEntity
  8
30
  6
Continuous
 62
     0
440
 16777216
370
    -2
100
AcDbBlockReference
  2
_OPEN
 10
337.5374841537366
 20
298.0469424018693
 30
0.0
 41
2.0
 42
2.0
 43
2.0
 50
180.0
  0
INSERT
  5
799C
330
6AE7
100
AcDbEntity
  8
30
  6
Continuous
 62
     0
440
 16777216
370
    -2
100
AcDbBlockReference
  2
_OPEN
 10
378.0374841537362
 20
298.0469424018693
 30
0.0
 41
2.0
 42
2.0
 43
2.0
  0
MTEXT
  5
799D
330
6AE7
100
AcDbEntity
  8
30
  6
Continuous
 62
     0
440
 16777216
100
AcDbMText
 10
357.7874841537367
 20
307.0469424018693
 30
0.0
 40
7.0
 41
0.0
 46
0.0
 71
     2
 72
     1
  1
\A1;40.5
 73
     1
 44
1.0
 90
        3
 63
     9
421
 13158600
 45
1.1
441
        0
  0
POINT
  5
799E
330
6AE7
100
AcDbEntity
  8
Defpoints
  6
Continuous
 62
     0
440
 16777216
100
AcDbPoint
 10
337.5374841537366
 20
451.9257462147074
 30
0.0
  0
POINT
  5
799F
330
6AE7
100
AcDbEntity
  8
Defpoints
  6
Continuous
 62
     0
440
 16777216
100
AcDbPoint
 10
378.0374841537362
 20
340.6230890652732
 30
0.0
  0
POINT
  5
79A0
330
6AE7
100
AcDbEntity
  8
Defpoints
  6
Continuous
 62
     0
440
 16777216
100
AcDbPoint
 10
378.0374841537362
 20
298.0469424018693
 30
0.0
  0
ENDBLK
  5
6AE9
330
6AE7
100
AcDbEntity
  8
0
100
AcDbBlockEnd
  0
BLOCK
  5
6AF4
330
6AF3
100
AcDbEntity
  8
0
100
AcDbBlockBegin
  2
*D20
 70
     1
 10
0.0
 20
0.0
 30
0.0
  3
*D20
  1

  0
LINE
  5
79A1
330
6AF3
100
AcDbEntity
  8
30
  6
Continuous
 62
     0
440
 16777216
370
    -2
100
AcDbLine
 10
363.0374841537368
 20
341.5807966816446
 30
0.0
 11
363.0374841537368
 21
317.5469424018694
 31
0.0
  0
LINE
  5
79A2
330
6AF3
100
AcDbEntity
  8
30
  6
Continuous
 62
     0
440
 16777216
370
    -2
100
AcDbLine
 10
378.0374841537362
 20
334.4827616302694
 30
0.0
 11
378.0374841537362
 21
317.5469424018694
 31
0.0
  0
LINE
  5
79A3
330
6AF3
100
AcDbEntity
  8
30
  6
Continuous
 62
     0
440
 16777216
370
    -2
100
AcDbLine
 10
365.0374841537367
 20
318.0469424018693
 30
0.0
 11
376.0374841537362
 21
318.0469424018693
 31
0.0
  0
INSERT
  5
79A4
330
6AF3
100
AcDbEntity
  8
30
  6
Continuous
 62
     0
440
 16777216
370
    -2
100
AcDbBlockReference
  2
_OPEN
 10
363.0374841537368
 20
318.0469424018693
 30
0.0
 41
2.0
 42
2.0
 43
2.0
 50
180.0
  0
INSERT
  5
79A5
330
6AF3
100
AcDbEntity
  8
30
  6
Continuous
 62
     0
440
 16777216
370
    -2
100
AcDbBlockReference
  2
_OPEN
 10
378.0374841537362
 20
318.0469424018693
 30
0.0
 41
2.0
 42
2.0
 43
2.0
  0
MTEXT
  5
79A6
330
6AF3
100
AcDbEntity
  8
30
  6
Continuous
 62
     0
440
 16777216
100
AcDbMText
 10
370.5374841537367
 20
327.0469424018693
 30
0.0
 40
7.0
 41
0.0
 46
0.0
 71
     2
 72
     1
  1
\A1;15
 73
     1
 44
1.0
 90
        3
 63
     9
421
 13158600
 45
1.1
441
        0
  0
POINT
  5
79A7
330
6AF3
100
AcDbEntity
  8
Defpoints
  6
Continuous
 62
     0
440
 16777216
100
AcDbPoint
 10
363.0374841537368
 20
342.5807966816446
 30
0.0
  0
POINT
  5
79A8
330
6AF3
100
AcDbEntity
  8
Defpoints
  6
Continuous
 62
     0
440
 16777216
100
AcDbPoint
 10
378.0374841537362
 20
335.4827616302693
 30
0.0
  0
POINT
  5
79A9
330
6AF3
100
AcDbEntity
  8
Defpoints
  6
Continuous
 62
     0
440
 16777216
100
AcDbPoint
 10
378.0374841537362
 20
318.0469424018693
 30
0.0
  0
ENDBLK
  5
6AF5
330
6AF3
100
AcDbEntity
  8
0
100
AcDbBlockEnd
  0
BLOCK
  5
6B0E
330
6B0D
100
AcDbEntity
  8
0
100
AcDbBlockBegin
  2
*D21
 70
     1
 10
0.0
 20
0.0
 30
0.0
  3
*D21
  1

  0
LINE
  5
7985
330
6B0D
100
AcDbEntity
  8
30
  6
Continuous
 62
     0
440
 16777216
370
    -2
100
AcDbLine
 10
539.3817952385362
 20
500.4469424018692
 30
0.0
 11
565.2614097489093
 21
500.4469424018692
 31
0.0
  0
LINE
  5
7986
330
6B0D
100
AcDbEntity
  8
30
  6
Continuous
 62
     0
440
 16777216
370
    -2
100
AcDbLine
 10
539.6614249649367
 20
386.4469424018693
 30
0.0
 11
565.2614097489093
 21
386.4469424018693
 31
0.0
  0
LINE
  5
7987
330
6B0D
100
AcDbEntity
  8
30
  6
Continuous
 62
     0
440
 16777216
370
    -2
100
AcDbLine
 10
564.7614097489094
 20
498.4469424018691
 30
0.0
 11
564.7614097489094
 21
388.4469424018693
 31
0.0
  0
INSERT
  5
7988
330
6B0D
100
AcDbEntity
  8
30
  6
Continuous
 62
     0
440
 16777216
370
    -2
100
AcDbBlockReference
  2
_OPEN
 10
564.7614097489094
 20
500.4469424018692
 30
0.0
 41
2.0
 42
2.0
 43
2.0
 50
90.0
  0
INSERT
  5
7989
330
6B0D
100
AcDbEntity
  8
30
  6
Continuous
 62
     0
440
 16777216
370
    -2
100
AcDbBlockReference
  2
_OPEN
 10
564.7614097489094
 20
386.4469424018693
 30
0.0
 41
2.0
 42
2.0
 43
2.0
 50
270.0
  0
MTEXT
  5
798A
330
6B0D
100
AcDbEntity
  8
30
  6
Continuous
 62
     0
440
 16777216
100
AcDbMText
 10
555.7614097489092
 20
444.1820988151393
 30
0.0
 40
7.0
 41
0.0
 46
0.0
 71
     2
 72
     1
  1
\A1;114
 11
0.0000000000000001
 21
1.0
 31
0.0
 73
     1
 44
1.0
 90
        3
 63
     9
421
 13158600
 45
1.1
441
        0
  0
POINT
  5
798B
330
6B0D
100
AcDbEntity
  8
Defpoints
  6
Continuous
 62
     0
440
 16777216
100
AcDbPoint
 10
538.3817952385363
 20
500.4469424018692
 30
0.0
  0
POINT
  5
798C
330
6B0D
100
AcDbEntity
  8
Defpoints
  6
Continuous
 62
     0
440
 16777216
100
AcDbPoint
 10
538.6614249649367
 20
386.4469424018693
 30
0.0
  0
POINT
  5
798D
330
6B0D
100
AcDbEntity
  8
Defpoints
  6
Continuous
 62
     0
440
 16777216
100
AcDbPoint
 10
564.7614097489094
 20
386.4469424018693
 30
0.0
  0
ENDBLK
  5
6B0F
330
6B0D
100
AcDbEntity
  8
0
100
AcDbBlockEnd
  0
BLOCK
  5
6B1A
330
6B19
100
AcDbEntity
  8
0
100
AcDbBlockBegin
  2
*D22
 70
     1
 10
0.0
 20
0.0
 30
0.0
  3
*D22
  1

  0
LINE
  5
7AFD
330
6B19
100
AcDbEntity
  8
30
  6
Continuous
 62
     0
440
 16777216
370
    -2
100
AcDbLine
 10
218.4089496158538
 20
252.5995473676345
 30
0.0
 11
282.9730973533397
 21
252.5995473676345
 31
0.0
  0
LINE
  5
7AFE
330
6B19
100
AcDbEntity
  8
30
  6
Continuous
 62
     0
440
 16777216
370
    -2
100
AcDbLine
 10
218.4089496158538
 20
71.59954736763437
 30
0.0
 11
282.9730973533397
 21
71.59954736763435
 31
0.0
  0
LINE
  5
7AFF
330
6B19
100
AcDbEntity
  8
30
  6
Continuous
 62
     0
440
 16777216
370
    -2
100
AcDbLine
 10
282.4730973533398
 20
250.5995473676345
 30
0.0
 11
282.4730973533397
 21
73.59954736763436
 31
0.0
  0
INSERT
  5
7B00
330
6B19
100
AcDbEntity
  8
30
  6
Continuous
 62
     0
440
 16777216
370
    -2
100
AcDbBlockReference
  2
_OPEN
 10
282.4730973533398
 20
252.5995473676345
 30
0.0
 41
2.0
 42
2.0
 43
2.0
 50
90.0
  0
INSERT
  5
7B01
330
6B19
100
AcDbEntity
  8
30
  6
Continuous
 62
     0
440
 16777216
370
    -2
100
AcDbBlockReference
  2
_OPEN
 10
282.4730973533397
 20
71.59954736763435
 30
0.0
 41
2.0
 42
2.0
 43
2.0
 50
270.0
  0
MTEXT
  5
7B02
330
6B19
100
AcDbEntity
  8
30
  6
Continuous
 62
     0
440
 16777216
100
AcDbMText
 10
276.9730973533397
 20
162.0995473676345
 30
0.0
 40
7.0
 41
0.0
 46
0.0
 71
     5
 72
     1
  1
\A1;181
 11
0.0000000000000001
 21
1.0
 31
0.0
 73
     1
 44
1.0
 90
        3
 63
     9
421
 13158600
 45
1.1
441
        0
  0
POINT
  5
7B03
330
6B19
100
AcDbEntity
  8
Defpoints
  6
Continuous
 62
     0
440
 16777216
100
AcDbPoint
 10
217.4089496158538
 20
252.5995473676345
 30
0.0
  0
POINT
  5
7B04
330
6B19
100
AcDbEntity
  8
Defpoints
  6
Continuous
 62
     0
440
 16777216
100
AcDbPoint
 10
217.4089496158538
 20
71.59954736763437
 30
0.0
  0
POINT
  5
7B05
330
6B19
100
AcDbEntity
  8
Defpoints
  6
Continuous
 62
     0
440
 16777216
100
AcDbPoint
 10
282.4730973533397
 20
71.59954736763435
 30
0.0
  0
ENDBLK
  5
6B1B
330
6B19
100
AcDbEntity
  8
0
100
AcDbBlockEnd
  0
BLOCK
  5
6B26
330
6B25
100
AcDbEntity
  8
0
100
AcDbBlockBegin
  2
*D23
 70
     1
 10
0.0
 20
0.0
 30
0.0
  3
*D23
  1

  0
LINE
  5
78FC
330
6B25
100
AcDbEntity
  8
30
  6
Continuous
 62
     0
440
 16777216
370
    -2
100
AcDbLine
 10
222.4089499138537
 20
123.0995473676344
 30
0.0
 11
222.4089499138537
 21
23.80351059696329
 31
0.0
  0
LINE
  5
78FD
330
6B25
100
AcDbEntity
  8
30
  6
Continuous
 62
     0
440
 16777216
370
    -2
100
AcDbLine
 10
86.40894931785386
 20
123.0995473676344
 30
0.0
 11
86.40894931785386
 21
23.80351059696329
 31
0.0
  0
LINE
  5
78FE
330
6B25
100
AcDbEntity
  8
30
  6
Continuous
 62
     0
440
 16777216
370
    -2
100
AcDbLine
 10
220.4089499138537
 20
24.3035105969633
 30
0.0
 11
88.40894931785385
 21
24.3035105969633
 31
0.0
  0
INSERT
  5
78FF
330
6B25
100
AcDbEntity
  8
30
  6
Continuous
 62
     0
440
 16777216
370
    -2
100
AcDbBlockReference
  2
_OPEN
 10
222.4089499138537
 20
24.3035105969633
 30
0.0
 41
2.0
 42
2.0
 43
2.0
  0
INSERT
  5
7900
330
6B25
100
AcDbEntity
  8
30
  6
Continuous
 62
     0
440
 16777216
370
    -2
100
AcDbBlockReference
  2
_OPEN
 10
86.40894931785386
 20
24.3035105969633
 30
0.0
 41
2.0
 42
2.0
 43
2.0
 50
180.0
  0
MTEXT
  5
7901
330
6B25
100
AcDbEntity
  8
30
  6
Continuous
 62
     0
440
 16777216
100
AcDbMText
 10
154.4089496158538
 20
32.30351059696329
 30
0.0
 40
6.0
 41
0.0
 46
0.0
 71
     2
 72
     1
  1
\A1;136
 73
     1
 44
1.0
 90
        3
 63
     9
421
 13158600
 45
1.1
441
        0
  0
POINT
  5
7902
330
6B25
100
AcDbEntity
  8
Defpoints
  6
Continuous
 62
     0
440
 16777216
100
AcDbPoint
 10
222.4089499138537
 20
124.0995473676344
 30
0.0
  0
POINT
  5
7903
330
6B25
100
AcDbEntity
  8
Defpoints
  6
Continuous
 62
     0
440
 16777216
100
AcDbPoint
 10
86.40894931785386
 20
124.0995473676344
 30
0.0
  0
POINT
  5
7904
330
6B25
100
AcDbEntity
  8
Defpoints
  6
Continuous
 62
     0
440
 16777216
100
AcDbPoint
 10
86.40894931785386
 20
24.3035105969633
 30
0.0
  0
ENDBLK
  5
6B27
330
6B25
100
AcDbEntity
  8
0
100
AcDbBlockEnd
  0
BLOCK
  5
6BD1
330
6BD0
100
AcDbEntity
  8
0
100
AcDbBlockBegin
  2
*D24
 70
     1
 10
0.0
 20
0.0
 30
0.0
  3
*D24
  1

  0
LINE
  5
7B36
330
6BD0
100
AcDbEntity
  8
30
  6
DASHDOT
 62
     0
440
 16777216
370
    -2
100
AcDbLine
 10
257.6497977154462
 20
214.7994683395154
 30
0.0
 11
246.2236613518098
 21
214.7994683395154
 31
0.0
  0
LINE
  5
7B37
330
6BD0
100
AcDbEntity
  8
30
  6
DASHDOT
 62
     0
440
 16777216
370
    -2
100
AcDbLine
 10
246.2236613518098
 20
214.7994683395154
 30
0.0
 11
226.2616211424315
 21
198.2865403711546
 31
0.0
  0
MTEXT
  5
7B38
330
6BD0
100
AcDbEntity
  8
30
  6
DASHDOT
 62
     0
440
 16777216
100
AcDbMText
 10
252.936729533628
 20
220.2994683395155
 30
0.0
 40
7.0
 41
0.0
 46
0.0
 71
     5
 72
     1
  1
\A1;∅6
 73
     1
 44
1.0
 90
        3
 63
     9
421
 13158600
 45
1.1
441
        0
  0
INSERT
  5
7B39
330
6BD0
100
AcDbEntity
  8
30
  6
DASHDOT
 62
     0
440
 16777216
370
    -2
100
AcDbBlockReference
  2
_OPEN
 10
224.7205526510004
 20
197.0117431697464
 30
0.0
 41
2.0
 42
2.0
 43
2.0
 50
219.5981120827072
  0
LINE
  5
7B3A
330
6BD0
100
AcDbEntity
  8
30
  6
DASHDOT
 62
     0
440
 16777216
370
    -2
100
AcDbLine
 10
222.3189499138535
 20
195.099547367634
 30
0.0
 11
222.4989499138535
 21
195.099547367634
 31
0.0
  0
LINE
  5
7B3B
330
6BD0
100
AcDbEntity
  8
30
  6
DASHDOT
 62
     0
440
 16777216
370
    -2
100
AcDbLine
 10
222.4089499138535
 20
195.009547367634
 30
0.0
 11
222.4089499138535
 21
195.189547367634
 31
0.0
  0
POINT
  5
7B3C
330
6BD0
100
AcDbEntity
  8
Defpoints
  6
DASHDOT
 62
     0
440
 16777216
100
AcDbPoint
 10
224.7205526510004
 20
197.0117431697464
 30
0.0
  0
POINT
  5
7B3D
330
6BD0
100
AcDbEntity
  8
Defpoints
  6
DASHDOT
 62
     0
440
 16777216
100
AcDbPoint
 10
220.0973471767067
 20
193.1873515655217
 30
0.0
  0
ENDBLK
  5
6BD2
330
6BD0
100
AcDbEntity
  8
0
100
AcDbBlockEnd
  0
BLOCK
  5
6BDC
330
6BDB
100
AcDbEntity
  8
0
100
AcDbBlockBegin
  2
*D25
 70
     1
 10
0.0
 20
0.0
 30
0.0
  3
*D25
  1

  0
LINE
  5
79BC
330
6BDB
100
AcDbEntity
  8
30
  6
Continuous
 62
     0
440
 16777216
370
    -2
100
AcDbLine
 10
228.4089499138537
 20
195.0995473676341
 30
0.0
 11
252.925243543624
 21
195.0995473676341
 31
0.0
  0
LINE
  5
79BD
330
6BDB
100
AcDbEntity
  8
30
  6
Continuous
 62
     0
440
 16777216
370
    -2
100
AcDbLine
 10
228.4089499138537
 20
129.0995473676344
 30
0.0
 11
252.925243543624
 21
129.0995473676344
 31
0.0
  0
LINE
  5
79BE
330
6BDB
100
AcDbEntity
  8
30
  6
Continuous
 62
     0
440
 16777216
370
    -2
100
AcDbLine
 10
252.425243543624
 20
193.0995473676341
 30
0.0
 11
252.425243543624
 21
131.0995473676344
 31
0.0
  0
INSERT
  5
79BF
330
6BDB
100
AcDbEntity
  8
30
  6
Continuous
 62
     0
440
 16777216
370
    -2
100
AcDbBlockReference
  2
_OPEN
 10
252.425243543624
 20
195.0995473676341
 30
0.0
 41
2.0
 42
2.0
 43
2.0
 50
90.0
  0
INSERT
  5
79C0
330
6BDB
100
AcDbEntity
  8
30
  6
Continuous
 62
     0
440
 16777216
370
    -2
100
AcDbBlockReference
  2
_OPEN
 10
252.425243543624
 20
129.0995473676344
 30
0.0
 41
2.0
 42
2.0
 43
2.0
 50
270.0
  0
MTEXT
  5
79C1
330
6BDB
100
AcDbEntity
  8
30
  6
Continuous
 62
     0
440
 16777216
100
AcDbMText
 10
246.9252435436239
 20
162.0995473676343
 30
0.0
 40
7.0
 41
0.0
 46
0.0
 71
     5
 72
     1
  1
\A1;66
 11
0.0000000000000001
 21
1.0
 31
0.0
 73
     1
 44
1.0
 90
        3
 63
     9
421
 13158600
 45
1.1
441
        0
  0
POINT
  5
79C2
330
6BDB
100
AcDbEntity
  8
Defpoints
  6
Continuous
 62
     0
440
 16777216
100
AcDbPoint
 10
227.4089499138537
 20
195.0995473676341
 30
0.0
  0
POINT
  5
79C3
330
6BDB
100
AcDbEntity
  8
Defpoints
  6
Continuous
 62
     0
440
 16777216
100
AcDbPoint
 10
227.4089499138537
 20
129.0995473676344
 30
0.0
  0
POINT
  5
79C4
330
6BDB
100
AcDbEntity
  8
Defpoints
  6
Continuous
 62
     0
440
 16777216
100
AcDbPoint
 10
252.425243543624
 20
129.0995473676344
 30
0.0
  0
ENDBLK
  5
6BDD
330
6BDB
100
AcDbEntity
  8
0
100
AcDbBlockEnd
  0
BLOCK
  5
71DE
330
71DA
100
AcDbEntity
  8
0
100
AcDbBlockBegin
  2
A$C60D461C7
 70
     0
 10
0.0
 20
0.0
 30
0.0
  3
A$C60D461C7
  1

  0
ARC
  5
71DB
330
71DA
100
AcDbEntity
  8
240
370
     0
100
AcDbCircle
 10
21.84121668289549
 20
-6.559027634355714
 30
0.0
 40
22.81150420857965
100
AcDbArc
 50
164.5940792611916
 51
181.331352929468
  0
ENDBLK
  5
71DF
330
71DA
100
AcDbEntity
  8
0
100
AcDbBlockEnd
  0
BLOCK
  5
731A
330
7317
100
AcDbEntity
  8
0
100
AcDbBlockBegin
  2
A$C23077EED
 70
     0
 10
0.0
 20
0.0
 30
0.0
  3
A$C23077EED
  1

  0
LINE
  5
731B
330
7317
100
AcDbEntity
  8
24
  6
CONTINOUS
100
AcDbLine
 10
5.799128966030592
 20
-11.32304873319992
 30
0.0
 11
5.799128966030592
 21
-12.92304787799992
 31
0.0
  0
ARC
  5
731C
330
7317
100
AcDbEntity
  8
24
  6
CONTINOUS
100
AcDbCircle
 10
5.974127296830602
 20
-14.24804852479997
 30
0.0
 40
0.1750000000000684
100
AcDbArc
 50
270.0
 51
0.0
  0
ARC
  5
731D
330
7317
100
AcDbEntity
  8
24
  6
CONTINOUS
100
AcDbCircle
 10
5.974127296830602
 20
-13.09804852479988
 30
0.0
 40
0.1750000000000684
100
AcDbArc
 50
0.0
 51
90.0
  0
LINE
  5
731E
330
7317
100
AcDbEntity
  8
24
  6
CONTINOUS
100
AcDbLine
 10
6.149127440030611
 20
-13.0980489776
 30
0.0
 11
6.149127440030611
 21
-14.24804795559998
 31
0.0
  0
ARC
  5
731F
330
7317
100
AcDbEntity
  8
24
  6
CONTINOUS
100
AcDbCircle
 10
4.749127296830693
 20
-16.34425061199999
 30
0.0
 40
1.3
100
AcDbArc
 50
302.6992894884049
 51
0.0
  0
LINE
  5
7320
330
7317
100
AcDbEntity
  8
24
  6
CONTINOUS
100
AcDbLine
 10
6.049125747230617
 20
-14.40616314283898
 30
0.0
 11
6.049125747230617
 21
-16.34425018000001
 31
0.0
  0
ARC
  5
7321
330
7317
100
AcDbEntity
  8
24
  6
CONTINOUS
100
AcDbCircle
 10
0.0491272968305339
 20
-9.023048524799262
 30
0.0
 40
10.00000000000073
100
AcDbArc
 50
267.7985461275124
 51
302.6992894884049
  0
LINE
  5
7322
330
7317
100
AcDbEntity
  8
10
  6
CONTINOUS
100
AcDbLine
 10
-7.3994795667694
 20
-38.08465333179242
 30
0.0
 11
-7.307653104539097
 21
-11.32304873320004
 31
0.0
  0
LINE
  5
7323
330
7317
100
AcDbEntity
  8
10
  6
CONTINOUS
100
AcDbLine
 10
5.78626553843048
 20
-3.299999050799896
 30
0.0
 11
5.729637400830597
 21
0.0
 31
0.0
  0
LINE
  5
7324
330
7317
100
AcDbEntity
  8
10
  6
CONTINOUS
100
AcDbLine
 10
9.781240777630612
 20
-3.299999050799896
 30
0.0
 11
5.78626553843048
 21
-3.299999050799896
 31
0.0
  0
SPLINE
  5
7325
330
7317
100
AcDbEntity
  8
10
  6
CONTINOUS
100
AcDbSpline
210
0.0
220
0.0
230
1.0
 70
     8
 71
     3
 72
    13
 73
     9
 74
     0
 42
0.000000001
 43
0.0000000001
 40
0.0
 40
0.0
 40
0.0
 40
0.0
 40
0.1359333841156276
 40
0.2701964075702176
 40
0.4999959066126105
 40
0.7297971636608436
 40
0.8639094857510036
 40
1.0
 40
1.0
 40
1.0
 40
1.0
 10
10.781049088965
 20
-4.291235469471073
 30
0.0
 10
10.77636073293536
 20
-4.220548031097337
 30
0.0
 10
10.76704163178226
 20
-4.080041767436114
 30
0.0
 10
10.67962317800584
 20
-3.833015725259883
 30
0.0
 10
10.50115630144091
 20
-3.573711883809891
 30
0.0
 10
10.24038549833653
 20
-3.397575158053541
 30
0.0
 10
9.992652914518883
 20
-3.312134608251767
 30
0.0
 10
9.852054603038482
 20
-3.304063932250755
 30
0.0
 10
9.781240777502603
 20
-3.299999050985431
 30
0.0
  0
LINE
  5
7326
330
7317
100
AcDbEntity
  8
10
  6
CONTINOUS
100
AcDbLine
 10
11.05613570043067
 20
-36.37304808959993
 30
0.0
 11
10.78104908883062
 21
-4.291235469599996
 31
0.0
  0
LINE
  5
7327
330
7317
100
AcDbEntity
  8
10
  6
CONTINOUS
100
AcDbLine
 10
-5.688012285569358
 20
-3.299999050799896
 30
0.0
 11
-9.682983799569342
 21
-3.299999050799896
 31
0.0
  0
LINE
  5
7328
330
7317
100
AcDbEntity
  8
10
  6
CONTINOUS
100
AcDbLine
 10
-5.631380422769438
 20
0.0
 30
0.0
 11
-5.688012285569358
 21
-3.299999050799896
 31
0.0
  0
LINE
  5
7329
330
7317
100
AcDbEntity
  8
10
  6
CONTINOUS
100
AcDbLine
 10
-10.68279583636945
 20
-4.291235469599996
 30
0.0
 11
-10.95788244756943
 21
-36.37304808959993
 31
0.0
  0
SPLINE
  5
732A
330
7317
100
AcDbEntity
  8
10
  6
CONTINOUS
100
AcDbSpline
210
0.0
220
0.0
230
1.0
 70
     8
 71
     3
 72
    13
 73
     9
 74
     0
 42
0.000000001
 43
0.0000000001
 40
0.0
 40
0.0
 40
0.0
 40
0.0
 40
0.1359332289454908
 40
0.2701975746343308
 40
0.4999975108998482
 40
0.729796675815167
 40
0.8639095686302415
 40
1.0
 40
1.0
 40
1.0
 40
1.0
 10
-9.68298379944747
 20
-3.299999050985431
 30
0.0
 10
-9.753711470593087
 20
-3.304081684923403
 30
0.0
 10
-9.894298473133856
 20
-3.312196829371486
 30
0.0
 10
-10.14207544965063
 20
-3.39749132295924
 30
0.0
 10
-10.40290985708736
 20
-3.573721388678221
 30
0.0
 10
-10.58128546342141
 20
-3.832960727038198
 30
0.0
 10
-10.66884725755869
 20
-4.079942883109197
 30
0.0
 10
-10.67812367951944
 20
-4.220461801822692
 30
0.0
 10
-10.68279583620017
 20
-4.291235469471073
 30
0.0
  0
SPLINE
  5
732B
330
7317
100
AcDbEntity
  8
24
  6
CONTINOUS
100
AcDbSpline
210
0.0
220
0.0
230
1.0
 70
     8
 71
     3
 72
    12
 73
     8
 74
     0
 42
0.000000001
 43
0.0000000001
 40
0.0
 40
0.0
 40
0.0
 40
0.0
 40
0.2302246052763817
 40
0.461465393904272
 40
0.6846481392781254
 40
0.8945815887735514
 40
1.0
 40
1.0
 40
1.0
 40
1.0
 10
-6.048689304461047
 20
-14.24804795552359
 30
0.0
 10
-6.046805751980737
 20
-14.26848180962065
 30
0.0
 10
-6.043030333248677
 20
-14.3094397103564
 30
0.0
 10
-6.010634250382622
 20
-14.36381094865896
 30
0.0
 10
-5.963091038475454
 20
-14.40317989600316
 30
0.0
 10
-5.914593486286776
 20
-14.42102083837733
 30
0.0
 10
-5.884947173037858
 20
-14.4225409123959
 30
0.0
 10
-5.875036759843395
 20
-14.42304905522917
 30
0.0
  0
LINE
  5
732C
330
7317
100
AcDbEntity
  8
24
  6
CONTINOUS
100
AcDbLine
 10
-5.875036759969472
 20
-14.42304905519995
 30
0.0
 11
5.974128202830567
 21
-14.42304905519995
 31
0.0
  0
LINE
  5
732D
330
7317
100
AcDbEntity
  8
24
  6
CONTINOUS
100
AcDbLine
 10
-5.875874044281772
 20
-12.92304852479992
 30
0.0
 11
5.974128202830567
 21
-12.92304787799992
 31
0.0
  0
ELLIPSE
  5
732E
330
7317
100
AcDbEntity
  8
24
  6
CONTINOUS
100
AcDbEllipse
 10
-22.08573108739404
 20
-13.70350724510763
 30
0.0
 11
-11.34643601874679
 21
11.34643601874678
 31
0.0
210
0.0
220
0.0
230
-1.0
 40
0.9999999999999984
 41
2.318453509821118
 42
2.390136670339345
  0
LINE
  5
732F
330
7317
100
AcDbEntity
  8
10
  6
CONTINOUS
100
AcDbLine
 10
2.057778940830528
 20
-7.123048417599872
 30
0.0
 11
-1.95952382556936
 21
-7.123048417599872
 31
0.0
  0
ARC
  5
7330
330
7317
100
AcDbEntity
  8
10
  6
CONTINOUS
100
AcDbCircle
 10
2.057778665230557
 20
-7.623048524799969
 30
0.0
 40
0.5
100
AcDbArc
 50
1.000000000001761
 51
90.0
  0
LINE
  5
7331
330
7317
100
AcDbEntity
  8
10
  6
CONTINOUS
100
AcDbLine
 10
2.575311170430607
 20
-8.623047731999918
 30
0.0
 11
2.557701723230593
 21
-7.614322938399936
 31
0.0
  0
LINE
  5
7332
330
7317
100
AcDbEntity
  8
10
  6
CONTINOUS
100
AcDbLine
 10
10.81819236285525
 20
-8.623047731999918
 30
0.0
 11
2.575311170430607
 21
-8.623047731999918
 31
0.0
  0
LINE
  5
7333
330
7317
100
AcDbEntity
  8
10
  6
CONTINOUS
100
AcDbLine
 10
-2.477056054769374
 20
-8.623047731999918
 30
0.0
 11
-10.71993911034008
 21
-8.623047731999804
 31
0.0
  0
ARC
  5
7334
330
7317
100
AcDbEntity
  8
24
  6
CONTINOUS
100
AcDbCircle
 10
0.0491272968306475
 20
-16.82304852480001
 30
0.0
 40
3.250000000000069
100
AcDbArc
 50
214.3365734082007
 51
325.6634265917993
  0
LINE
  5
7335
330
7317
100
AcDbEntity
  8
10
  6
CONTINOUS
100
AcDbLine
 10
10.84134361479766
 20
-11.32304873319992
 30
0.0
 11
-10.74309036224883
 21
-11.32304873320004
 31
0.0
  0
LINE
  5
7336
330
7317
100
AcDbEntity
  8
10
  6
CONTINOUS
100
AcDbLine
 10
7.528755735082312
 20
-34.15487986079995
 30
0.0
 11
-7.385995427809119
 21
-34.15487986080008
 31
0.0
  0
SPLINE
  5
7337
330
7317
100
AcDbEntity
  8
24
  6
CONTINOUS
100
AcDbSpline
210
0.0
220
0.0
230
1.0
 70
     8
 71
     3
 72
    15
 73
    11
 74
     0
 42
0.000000001
 43
0.0000000001
 40
0.0191599181193224
 40
0.0191599181193224
 40
0.0191599181193224
 40
0.0191599181193224
 40
0.0275388957707847
 40
0.1849948866841793
 40
0.3424510465127668
 40
0.4999072371049071
 40
0.6573634276970476
 40
0.8148194186104419
 40
0.9722755223894999
 40
0.9806563850672594
 40
0.9806563850672594
 40
0.9806563850672594
 40
0.9806563850672594
 10
3.484727702645386
 20
-18.41435566766335
 30
0.0
 10
3.479443205910115
 20
-18.43937900411697
 30
0.0
 10
3.366831230923593
 20
-18.93205815167721
 30
0.0
 10
2.702403750653843
 20
-19.74958477771611
 30
0.0
 10
1.509701413642573
 20
-20.58264338781453
 30
0.0
 10
0.049122276192179
 20
-20.86825221452386
 30
0.0
 10
-1.411430237836725
 20
-20.58263897038637
 30
0.0
 10
-2.604210880321712
 20
-19.74960335055755
 30
0.0
 10
-3.268442825549755
 20
-18.93200897061001
 30
0.0
 10
-3.381207408496377
 20
-18.43937260229541
 30
0.0
 10
-3.386499955762586
 20
-18.4143458463227
 30
0.0
  0
LINE
  5
7338
330
7317
100
AcDbEntity
  8
10
  6
CONTINOUS
100
AcDbLine
 10
7.542239874042593
 20
-38.08465333179242
 30
0.0
 11
7.450413411812291
 21
-11.32304873320004
 31
0.0
  0
LINE
  5
7339
330
7317
100
AcDbEntity
  8
24
  6
CONTINOUS
100
AcDbLine
 10
-5.700871987969432
 20
-12.92304787799992
 30
0.0
 11
-5.700871987969432
 21
-11.32304873319992
 31
0.0
  0
ARC
  5
733A
330
7317
100
AcDbEntity
  8
24
  6
CONTINOUS
100
AcDbCircle
 10
-4.650872703169396
 20
-16.34425061199999
 30
0.0
 40
1.3
100
AcDbArc
 50
180.0
 51
237.3007105115951
  0
LINE
  5
733B
330
7317
100
AcDbEntity
  8
24
  6
CONTINOUS
100
AcDbLine
 10
-5.950872494369491
 20
-16.34425018000001
 30
0.0
 11
-5.950872494369491
 21
-14.40577571755034
 31
0.0
  0
ARC
  5
733C
330
7317
100
AcDbEntity
  8
24
  6
CONTINOUS
100
AcDbCircle
 10
0.0491272968306475
 20
-9.023048524799943
 30
0.0
 40
10.00000000000003
100
AcDbArc
 50
237.3007105115951
 51
270.7795451585671
  0
LINE
  5
733D
330
7317
100
AcDbEntity
  8
10
  6
CONTINOUS
100
AcDbLine
 10
-2.459448470369351
 20
-7.614322938399936
 30
0.0
 11
-2.477056054769374
 21
-8.623047731999918
 31
0.0
  0
ARC
  5
733E
330
7317
100
AcDbEntity
  8
10
  6
CONTINOUS
100
AcDbCircle
 10
-1.959524071569489
 20
-7.623048524799969
 30
0.0
 40
0.5000000000000088
100
AcDbArc
 50
90.0
 51
179.0000000000047
  0
ARC
  5
733F
330
7317
100
AcDbEntity
  8
24
  6
CONTINOUS
100
AcDbCircle
 10
-5.875874044281772
 20
-13.09804852479988
 30
0.0
 40
0.1750000000000684
100
AcDbArc
 50
90.0
 51
180.0
  0
ENDBLK
  5
7340
330
7317
100
AcDbEntity
  8
0
100
AcDbBlockEnd
  0
BLOCK
  5
7379
330
7376
100
AcDbEntity
  8
0
100
AcDbBlockBegin
  2
A$C6D904D4D
 70
     0
 10
0.0
 20
0.0
 30
0.0
  3
A$C6D904D4D
  1

  0
LWPOLYLINE
  5
737A
330
7376
100
AcDbEntity
  8
10
  6
CONTINOUS
100
AcDbPolyline
 90
        2
 70
     0
 43
0.0
 10
43.00000146039997
 20
-26.99999985080002
 10
43.00000146039997
 20
26.99999968719988
  0
LWPOLYLINE
  5
737B
330
7376
100
AcDbEntity
  8
10
  6
CONTINOUS
100
AcDbPolyline
 90
        2
 70
     0
 43
0.0
 10
41.99999943399996
 20
27.99999985119996
 10
-41.9999994336
 20
27.99999985119996
  0
LWPOLYLINE
  5
737C
330
7376
100
AcDbEntity
  8
10
  6
CONTINOUS
100
AcDbPolyline
 90
        2
 70
     0
 43
0.0
 10
-43.0
 20
-27.0
 42
0.4142135623730951
 10
-42.0
 20
-28.0
  0
LWPOLYLINE
  5
737D
330
7376
100
AcDbEntity
  8
10
  6
CONTINOUS
100
AcDbPolyline
 90
        2
 70
     0
 43
0.0
 10
-41.9999994336
 20
-28.0000000148001
 10
41.99999943399996
 20
-28.0000000148001
  0
LWPOLYLINE
  5
737E
330
7376
100
AcDbEntity
  8
10
  6
CONTINOUS
100
AcDbPolyline
 90
        2
 70
     0
 43
0.0
 10
-42.0
 20
27.99999999999989
 42
0.4142135623730951
 10
-43.0
 20
26.99999999999989
  0
LWPOLYLINE
  5
737F
330
7376
100
AcDbEntity
  8
10
  6
CONTINOUS
100
AcDbPolyline
 90
        2
 70
     0
 43
0.0
 10
-43.00000146040008
 20
-26.99999985080002
 10
-43.00000146040008
 20
26.99999968719988
  0
LWPOLYLINE
  5
7380
330
7376
100
AcDbEntity
  8
10
  6
CONTINOUS
100
AcDbPolyline
 90
        2
 70
     0
 43
0.0
 10
43.0
 20
26.99999999999989
 42
0.4142135623730951
 10
42.0
 20
27.99999999999989
  0
LWPOLYLINE
  5
7381
330
7376
100
AcDbEntity
  8
10
  6
CONTINOUS
100
AcDbPolyline
 90
        2
 70
     0
 43
0.0
 10
42.0
 20
-28.0
 42
0.4142135623730951
 10
43.0
 20
-27.0
  0
LWPOLYLINE
  5
7382
330
7376
100
AcDbEntity
  8
10
  6
CONTINOUS
100
AcDbPolyline
 90
        2
 70
     0
 43
0.0
 10
39.7570952775999
 20
-28.0000000148001
 10
39.7570952775999
 20
-24.40000054239999
  0
LWPOLYLINE
  5
7383
330
7376
100
AcDbEntity
  8
10
  6
CONTINOUS
100
AcDbPolyline
 90
        2
 70
     0
 43
0.0
 10
-39.75709527720005
 20
-24.40000054239999
 10
-39.75709527720005
 20
-28.0000000148001
  0
LWPOLYLINE
  5
7384
330
7376
100
AcDbEntity
  8
10
  6
CONTINOUS
100
AcDbPolyline
 90
        2
 70
     0
 43
0.0
 10
40.50349071639994
 20
-8.053490974000052
 10
39.59999978559995
 20
-8.053490974000052
  0
LWPOLYLINE
  5
7385
330
7376
100
AcDbEntity
  8
10
  6
CONTINOUS
100
AcDbPolyline
 90
        2
 70
     0
 43
0.0
 10
-40.5034907160001
 20
-10.04650917640003
 10
-39.5999997852
 20
-10.04650917640003
  0
LWPOLYLINE
  5
7386
330
7376
100
AcDbEntity
  8
10
  6
CONTINOUS
100
AcDbPolyline
 90
        2
 70
     0
 43
0.0
 10
-40.5034907160001
 20
-20.55349116000002
 10
-40.5034907160001
 20
-10.04650917640003
  0
LWPOLYLINE
  5
7387
330
7376
100
AcDbEntity
  8
10
  6
CONTINOUS
100
AcDbPolyline
 90
        2
 70
     0
 43
0.0
 10
-17.99650862800001
 20
-20.55349116000002
 10
-40.5034907160001
 20
-20.55349116000002
  0
LWPOLYLINE
  5
7388
330
7376
100
AcDbEntity
  8
10
  6
CONTINOUS
100
AcDbPolyline
 90
        2
 70
     0
 43
0.0
 10
-17.99650862800001
 20
21.65349099039997
 10
-17.99650862800001
 20
-20.55349116000002
  0
LWPOLYLINE
  5
7389
330
7376
100
AcDbEntity
  8
10
  6
CONTINOUS
100
AcDbPolyline
 90
        2
 70
     0
 43
0.0
 10
-40.5034907160001
 20
21.65349099039997
 10
-17.99650862800001
 20
21.65349099039997
  0
LWPOLYLINE
  5
738A
330
7376
100
AcDbEntity
  8
10
  6
CONTINOUS
100
AcDbPolyline
 90
        2
 70
     0
 43
0.0
 10
-40.5034907160001
 20
-8.053490974000052
 10
-40.5034907160001
 20
21.65349099039997
  0
LWPOLYLINE
  5
738B
330
7376
100
AcDbEntity
  8
10
  6
CONTINOUS
100
AcDbPolyline
 90
        2
 70
     0
 43
0.0
 10
-39.5999997852
 20
-8.053490974000052
 10
-40.5034907160001
 20
-8.053490974000052
  0
LWPOLYLINE
  5
738C
330
7376
100
AcDbEntity
  8
10
  6
CONTINOUS
100
AcDbPolyline
 90
        2
 70
     0
 43
0.0
 10
40.50349071639994
 20
-20.55349116000002
 10
17.99650862839996
 20
-20.55349116000002
  0
LWPOLYLINE
  5
738D
330
7376
100
AcDbEntity
  8
10
  6
CONTINOUS
100
AcDbPolyline
 90
        2
 70
     0
 43
0.0
 10
40.50349071639994
 20
-10.04650917640003
 10
40.50349071639994
 20
-20.55349116000002
  0
LWPOLYLINE
  5
738E
330
7376
100
AcDbEntity
  8
10
  6
CONTINOUS
100
AcDbPolyline
 90
        2
 70
     0
 43
0.0
 10
39.59999978559995
 20
-10.04650917640003
 10
40.50349071639994
 20
-10.04650917640003
  0
LWPOLYLINE
  5
738F
330
7376
100
AcDbEntity
  8
10
  6
CONTINOUS
100
AcDbPolyline
 90
        2
 70
     0
 43
0.0
 10
40.50349071639994
 20
21.65349099039997
 10
40.50349071639994
 20
-8.053490974000052
  0
LWPOLYLINE
  5
7390
330
7376
100
AcDbEntity
  8
10
  6
CONTINOUS
100
AcDbPolyline
 90
        2
 70
     0
 43
0.0
 10
17.99650862839996
 20
21.65349099039997
 10
40.50349071639994
 20
21.65349099039997
  0
LWPOLYLINE
  5
7391
330
7376
100
AcDbEntity
  8
10
  6
CONTINOUS
100
AcDbPolyline
 90
        2
 70
     0
 43
0.0
 10
17.99650862839996
 20
-20.55349116000002
 10
17.99650862839996
 20
21.65349099039997
  0
LWPOLYLINE
  5
7392
330
7376
100
AcDbEntity
  8
10
  6
CONTINOUS
100
AcDbPolyline
 90
        2
 70
     0
 43
0.0
 10
-15.02618286760014
 20
-21.72625911200009
 10
-15.02618286760014
 20
24.12625859679997
  0
LWPOLYLINE
  5
7393
330
7376
100
AcDbEntity
  8
10
  6
CONTINOUS
100
AcDbPolyline
 90
        2
 70
     0
 43
0.0
 10
14.52625915399994
 20
-22.22618189440004
 10
-14.52625915400006
 20
-22.22618189440004
  0
LWPOLYLINE
  5
7394
330
7376
100
AcDbEntity
  8
10
  6
CONTINOUS
100
AcDbPolyline
 90
        2
 70
     0
 43
0.0
 10
15.02618286759991
 20
24.12625859679997
 10
15.02618286759991
 20
-21.72625911200009
  0
LWPOLYLINE
  5
7395
330
7376
100
AcDbEntity
  8
10
  6
CONTINOUS
100
AcDbPolyline
 90
        2
 70
     0
 43
0.0
 10
-14.52625915400006
 20
24.62618324159996
 10
14.52625915399994
 20
24.62618324159996
  0
LWPOLYLINE
  5
7396
330
7376
100
AcDbEntity
  8
10
  6
CONTINOUS
100
AcDbPolyline
 90
        2
 70
     0
 43
0.0
 10
41.99999943399996
 20
25.50000037279995
 10
41.99999943399996
 20
-24.40000054239999
  0
LWPOLYLINE
  5
7397
330
7376
100
AcDbEntity
  8
10
  6
CONTINOUS
100
AcDbPolyline
 90
        2
 70
     0
 43
0.0
 10
-41.9999994336
 20
25.50000037279995
 10
41.99999943399996
 20
25.50000037279995
  0
LWPOLYLINE
  5
7398
330
7376
100
AcDbEntity
  8
10
  6
CONTINOUS
100
AcDbPolyline
 90
        2
 70
     0
 43
0.0
 10
-41.9999994336
 20
-24.40000054239999
 10
41.99999943399996
 20
-24.40000054239999
  0
LWPOLYLINE
  5
7399
330
7376
100
AcDbEntity
  8
10
  6
CONTINOUS
100
AcDbPolyline
 90
        2
 70
     0
 43
0.0
 10
-41.9999994336
 20
-24.40000054239999
 10
-41.9999994336
 20
25.50000037279995
  0
LWPOLYLINE
  5
739A
330
7376
100
AcDbEntity
  8
10
  6
CONTINOUS
100
AcDbPolyline
 90
        2
 70
     0
 43
0.0
 10
40.10225087399986
 20
-24.40000054239999
 10
40.10225087399986
 20
-28.0000000148001
  0
LWPOLYLINE
  5
739B
330
7376
100
AcDbEntity
  8
10
  6
CONTINOUS
100
AcDbPolyline
 90
        2
 70
     0
 43
0.0
 10
-40.1022508740001
 20
-28.0000000148001
 10
-40.1022508740001
 20
-24.40000054239999
  0
LWPOLYLINE
  5
739C
330
7376
100
AcDbEntity
  8
10
  6
CONTINOUS
100
AcDbPolyline
 90
        2
 70
     0
 43
0.0
 10
-10.90744044621271
 20
-21.43768136184974
 42
0.4140077244144309
 10
-10.507501661849
 20
-21.83762107760873
  0
LWPOLYLINE
  5
739D
330
7376
100
AcDbEntity
  8
10
  6
CONTINOUS
100
AcDbPolyline
 90
        2
 70
     0
 43
0.0
 10
10.50750073039989
 20
22.83762107799998
 10
-10.50750166160003
 20
22.83762107799998
  0
LWPOLYLINE
  5
739E
330
7376
100
AcDbEntity
  8
10
  6
CONTINOUS
100
AcDbPolyline
 90
        2
 70
     0
 43
0.0
 10
-10.50750166160003
 20
-21.83762107760003
 10
10.50750166199998
 20
-21.83762107760003
  0
LWPOLYLINE
  5
739F
330
7376
100
AcDbEntity
  8
0
  6
SLD-実線
 62
     8
370
     0
100
AcDbPolyline
 90
        2
 70
     0
 43
0.0
 10
14.07503336679997
 20
22.93532426679997
 10
14.13985434919993
 20
23.00000089439993
  0
LWPOLYLINE
  5
73A0
330
7376
100
AcDbEntity
  8
0
  6
SLD-実線
 62
     8
370
     0
100
AcDbPolyline
 90
        2
 70
     0
 43
0.0
 10
39.59999978559995
 20
-8.053490974000052
 10
39.59999978559995
 20
-8.050000376799971
  0
LWPOLYLINE
  5
73A1
330
7376
100
AcDbEntity
  8
0
  6
SLD-実線
 62
     8
370
     0
100
AcDbPolyline
 90
        2
 70
     0
 43
0.0
 10
-39.5999997852
 20
-10.04650917640003
 10
-39.5999997852
 20
-10.04999977320006
  0
LWPOLYLINE
  5
73A2
330
7376
100
AcDbEntity
  8
0
  6
SLD-実線
 62
     8
370
     0
100
AcDbPolyline
 90
        2
 70
     0
 43
0.0
 10
-39.5999997852
 20
-8.050000376799971
 10
-39.5999997852
 20
-8.053490974000052
  0
LWPOLYLINE
  5
73A3
330
7376
100
AcDbEntity
  8
0
  6
SLD-実線
 62
     8
370
     0
100
AcDbPolyline
 90
        2
 70
     0
 43
0.0
 10
14.99999966479992
 20
24.10007539399999
 10
15.02618286759991
 20
24.12625859679997
  0
LWPOLYLINE
  5
73A4
330
7376
100
AcDbEntity
  8
0
  6
SLD-実線
 62
     8
370
     0
100
AcDbPolyline
 90
        2
 70
     0
 43
0.0
 10
14.50007595119996
 20
24.60000003879998
 10
14.52625915399994
 20
24.62618324159996
  0
LWPOLYLINE
  5
73A5
330
7376
100
AcDbEntity
  8
0
  6
SLD-実線
 62
     8
370
     0
100
AcDbPolyline
 90
        2
 70
     0
 43
0.0
 10
-6.001745350400142
 20
11.71186371919998
 10
5.900000222000016
 20
11.72078485799989
  0
LWPOLYLINE
  5
73A6
330
7376
100
AcDbEntity
  8
0
  6
SLD-実線
 62
     8
370
     0
100
AcDbPolyline
 90
        2
 70
     0
 43
0.0
 10
5.900000222000016
 20
11.72078485799989
 10
6.002181675199834
 20
11.72068893199991
  0
LWPOLYLINE
  5
73A7
330
7376
100
AcDbEntity
  8
0
  6
SLD-実線
 62
     8
370
     0
100
AcDbPolyline
 90
        2
 70
     0
 43
0.0
 10
6.002181675199834
 20
9.324610151599928
 10
6.002181675199834
 20
11.72068893199991
  0
LWPOLYLINE
  5
73A8
330
7376
100
AcDbEntity
  8
0
  6
SLD-実線
 62
     8
370
     0
100
AcDbPolyline
 90
        2
 70
     0
 43
0.0
 10
-6.001745350400142
 20
9.36503420799988
 10
-6.001745350400142
 20
11.71186371919998
  0
LWPOLYLINE
  5
73A9
330
7376
100
AcDbEntity
  8
0
  6
SLD-実線
 62
     8
370
     0
100
AcDbPolyline
 90
        2
 70
     0
 43
0.0
 10
6.002154667199985
 20
8.475579239599937
 10
6.002181675199834
 20
9.324610151599928
  0
LWPOLYLINE
  5
73AA
330
7376
100
AcDbEntity
  8
0
  6
SLD-実線
 62
     8
370
     0
100
AcDbPolyline
 90
        2
 70
     0
 43
0.0
 10
-6.001723464400012
 20
8.51637768759997
 10
-6.001745350400142
 20
9.36503420799988
  0
LWPOLYLINE
  5
73AB
330
7376
100
AcDbEntity
  8
0
  6
SLD-実線
 62
     8
370
     0
100
AcDbPolyline
 90
        2
 70
     0
 43
0.0
 10
-6.001723464400012
 20
8.51637768759997
 10
5.900026764799918
 20
8.475136861199871
  0
LWPOLYLINE
  5
73AC
330
7376
100
AcDbEntity
  8
0
  6
SLD-実線
 62
     8
370
     0
100
AcDbPolyline
 90
        2
 70
     0
 43
0.0
 10
5.900026764799918
 20
8.475136861199871
 10
6.002154667199985
 20
8.475579239599937
  0
LWPOLYLINE
  5
73AD
330
7376
100
AcDbEntity
  8
0
  6
SLD-実線
 62
     8
370
     0
100
AcDbPolyline
 90
        2
 70
     0
 43
0.0
 10
-6.001723464400012
 20
8.51637768759997
 10
-6.001723464400012
 20
8.437381044399897
  0
LWPOLYLINE
  5
73AE
330
7376
100
AcDbEntity
  8
10
  6
CONTINOUS
100
AcDbPolyline
 90
        2
 70
     0
 43
0.0
 10
10.90743951519994
 20
22.43768136239999
 10
10.90744044642156
 20
-21.43768136184974
  0
LWPOLYLINE
  5
73AF
330
7376
100
AcDbEntity
  8
10
  6
CONTINOUS
100
AcDbPolyline
 90
        2
 70
     0
 43
0.0
 10
-10.90744044621328
 20
22.43768136221593
 10
-10.90744044621271
 20
-21.43768136184974
  0
LWPOLYLINE
  5
73B0
330
7376
100
AcDbEntity
  8
10
  6
CONTINOUS
100
AcDbPolyline
 90
        4
 70
     1
 43
0.0
 10
-7.437659893200134
 20
14.34999975599999
 10
7.437935182262775
 20
14.34999975599999
 10
7.437935182262775
 20
-12.64999999999872
 10
-7.437659893200134
 20
-12.64999999999872
  0
LWPOLYLINE
  5
73B1
330
7376
100
AcDbEntity
  8
10
  6
CONTINOUS
100
AcDbPolyline
 90
        4
 70
     1
 43
0.0
 10
-6.001745350400142
 20
11.71186371919998
 10
6.004114707199957
 20
11.71186371919998
 10
6.004114707199957
 20
8.475575366153407
 10
-6.001745350400142
 20
8.475575366153407
  0
LWPOLYLINE
  5
73B2
330
7376
100
AcDbEntity
  8
0
  6
SLD-実線
 62
     8
370
     0
100
AcDbPolyline
 90
       30
 70
     0
 43
0.0
 10
-10.90744044621271
 20
-21.43768136184974
 10
-10.90681734048124
 20
-21.44851368217803
 10
-10.90614306316607
 20
-21.4593375766168
 10
-10.90536644268354
 20
-21.47014461927648
 10
-10.90443630745005
 20
-21.48092638426755
 10
-10.90330148588188
 20
-21.49167444570048
 10
-10.90191080639545
 20
-21.50238037768577
 10
-10.90021309740706
 20
-21.51303575433383
 10
-10.89816209512165
 20
-21.52363238698297
 10
-10.89575425291059
 20
-21.53416415179032
 10
-10.89300801946271
 20
-21.5446259881005
 10
-10.88994202526186
 20
-21.55501284404562
 10
-10.88657490079182
 20
-21.56531966775765
 10
-10.88292527653647
 20
-21.57554140736869
 10
-10.87901178297963
 20
-21.58567301101078
 10
-10.8748524624992
 20
-21.59570918324306
 10
-10.87045183220334
 20
-21.60563902693372
 10
-10.86580088457847
 20
-21.61544604352792
 10
-10.8608900241347
 20
-21.62511349095177
 10
-10.85570965538213
 20
-21.63462462713142
 10
-10.85025018283087
 20
-21.64396270999288
 10
-10.84450201099099
 20
-21.65311099746237
 10
-10.83845567916435
 20
-21.66205286982836
 10
-10.83211802913004
 20
-21.67078650658442
 10
-10.82552756056785
 20
-21.67933882590944
 10
-10.81872640989908
 20
-21.68774004737526
 10
-10.81175671354503
 20
-21.69602039055377
 10
-10.80466060792702
 20
-21.70421007501676
 10
-10.79748022946634
 20
-21.71233932033607
 10
-10.7902577145843
 20
-21.72043834608361
  0
LWPOLYLINE
  5
73B3
330
7376
100
AcDbEntity
  8
10
  6
CONTINOUS
100
AcDbPolyline
 90
       18
 70
     0
 43
0.0
 10
10.90743951519994
 20
22.43768136239999
 10
10.89590796294217
 20
22.51604538835807
 10
10.87835509870785
 20
22.5816023972659
 10
10.85589410701823
 20
22.63569703126746
 10
10.82963817239456
 20
22.67967393250649
 10
10.80070047935817
 20
22.71487774312681
 10
10.77019421243028
 20
22.74265310527227
 10
10.73923255613218
 20
22.76434466108674
 10
10.70892869498516
 20
22.78129705271397
 10
10.68036690923549
 20
22.79483357500055
 10
10.65396682948142
 20
22.8057866447603
 10
10.62948351926127
 20
22.81449786177006
 10
10.60664315435591
 20
22.82128749070836
 10
10.58517191054616
 20
22.82647579625388
 10
10.56479596361299
 20
22.83038304308502
 10
10.5452414893372
 20
22.83332949588043
 10
10.52623466349968
 20
22.83563541931869
 10
10.50750166188129
 20
22.83762107807837
  0
LWPOLYLINE
  5
73B4
330
7376
100
AcDbEntity
  8
10
  6
CONTINOUS
100
AcDbPolyline
 90
       42
 70
     0
 43
0.0
 10
-15.02618286748282
 20
24.12625859696118
 10
-15.02502280061816
 20
24.14539005230699
 10
-15.02369562425562
 20
24.16449207414661
 10
-15.02203422889735
 20
24.18353522897382
 10
-15.0198715050455
 20
24.20249008328244
 10
-15.01704034320218
 20
24.22132720356626
 10
-15.01337686245867
 20
24.24001727296934
 10
-15.00881526280059
 20
24.25853451833968
 10
-15.00340322978849
 20
24.27685726680659
 10
-14.99719477907675
 20
24.29496407420856
 10
-14.99024392631989
 20
24.31283349638392
 10
-14.98260468717237
 20
24.33044408917102
 10
-14.97432534193825
 20
24.34777353825223
 10
-14.96542441037655
 20
24.36479501409895
 10
-14.95591078899696
 20
24.38148022716223
 10
-14.94579336946278
 20
24.39780088715798
 10
-14.93508104343726
 20
24.41372870380184
 10
-14.92378270258365
 20
24.42923538680975
 10
-14.91190723856522
 20
24.44429264589746
 10
-14.89946354304521
 20
24.45887219078071
 10
-14.88646050768693
 20
24.47294573117535
 10
-14.87290743230795
 20
24.48648541693723
 10
-14.85882295319538
 20
24.49947346606189
 10
-14.84423501481569
 20
24.51190213417715
 10
-14.82917196413166
 20
24.52376411094951
 10
-14.81366214810606
 20
24.53505208604549
 10
-14.79773391370168
 20
24.54575874913161
 10
-14.78141560788128
 20
24.55587678987445
 10
-14.76473557760767
 20
24.56539889794056
 10
-14.7477221698436
 20
24.57431776299632
 10
-14.73040373056545
 20
24.58262606843908
 10
-14.71280678749426
 20
24.59030494095782
 10
-14.69495228407024
 20
24.59730001393234
 10
-14.67686009522433
 20
24.60355012936992
 10
-14.6585500958875
 20
24.60899412927785
 10
-14.64004216099073
 20
24.61357085566329
 10
-14.62135655810303
 20
24.61722779882967
 10
-14.60251924999099
 20
24.62003789222098
 10
-14.58356049340358
 20
24.6221686490793
 10
-14.56451065045965
 20
24.6237899035379
 10
-14.54540008327805
 20
24.62507148972993
 10
-14.52625915397766
 20
24.62618324178868
  0
LWPOLYLINE
  5
73B5
330
7376
100
AcDbEntity
  8
10
  6
CONTINOUS
100
AcDbPolyline
 90
       42
 70
     0
 43
0.0
 10
14.52625915418514
 20
24.62618324178925
 10
14.54539059527772
 20
24.62502298975227
 10
14.56449260228834
 20
24.62369563242493
 10
14.58353574113516
 20
24.62203406451688
 10
14.60249057773632
 20
24.61987118073774
 10
14.62132767800989
 20
24.6170398757971
 10
14.64001772455981
 20
24.61337627281057
 10
14.65853494486785
 20
24.60881457286229
 10
14.6768576681103
 20
24.60340246073781
 10
14.69496445225616
 20
24.5971939513488
 10
14.71283385527434
 20
24.59024305960691
 10
14.7304444351339
 20
24.58260380042384
 10
14.74777387919263
 20
24.57432445239806
 10
14.7647953578016
 20
24.56542353231589
 10
14.78148058088797
 20
24.55590993447146
 10
14.79780125764429
 20
24.54579254831918
 10
14.8137290972632
 20
24.53508026331349
 10
14.82923580893734
 20
24.52378196890885
 10
14.84429310185928
 20
24.51190655455974
 10
14.85887268522162
 20
24.49946290972065
 10
14.87294626821702
 20
24.48645992384598
 10
14.88648600032297
 20
24.47290689474761
 10
14.89947409921512
 20
24.45882245833332
 10
14.91190281845445
 20
24.44423455863722
 10
14.9237648454243
 20
24.42917154205702
 10
14.93505286750798
 20
24.41366175499025
 10
14.94575957208875
 20
24.39773354383442
 10
14.95587764654991
 20
24.38141525498719
 10
14.96539977827481
 20
24.36473523484614
 10
14.97431865464671
 20
24.34772182980879
 10
14.98262695677112
 20
24.33040338528531
 10
14.99030580815687
 20
24.31280642883377
 10
14.99730084057597
 20
24.2949519056466
 10
15.00355089557982
 20
24.2768596929073
 10
15.00899481471981
 20
24.25854966779923
 10
15.01357143954743
 20
24.24004170750601
 10
15.01722825986286
 20
24.22135608173204
 10
15.02003821039685
 20
24.20251875379165
 10
15.02216880828519
 20
24.18355997984213
 10
15.02378989168923
 20
24.16451012138566
 10
15.02507129877048
 20
24.14539953992461
 10
15.02618286769029
 20
24.12625859696124
  0
LWPOLYLINE
  5
73B6
330
7376
100
AcDbEntity
  8
10
  6
CONTINOUS
100
AcDbPolyline
 90
       42
 70
     0
 43
0.0
 10
15.02618286769075
 20
-21.72625911217483
 10
15.02502279302197
 20
-21.74539054425691
 10
15.02369561105752
 20
-21.76449254431259
 10
15.02203421450167
 20
-21.78353568031537
 10
15.01987149605873
 20
-21.8024905202389
 10
15.01704034843303
 20
-21.82132763205669
 10
15.01337689265023
 20
-21.84001770026498
 10
15.00881532495168
 20
-21.85853494927193
 10
15.00340332198632
 20
-21.87685769943067
 10
14.99719489033589
 20
-21.89496449956601
 10
14.990244036582
 20
-21.91283389850275
 10
14.98260476730633
 20
-21.93044444506558
 10
14.97432535622457
 20
-21.94777381984352
 10
14.96542432854627
 20
-21.9647951980495
 10
14.95591058985749
 20
-21.9814802980157
 10
14.94579304089817
 20
-21.99780083734038
 10
14.93508058240826
 20
-22.01372853362193
 10
14.92378211512778
 20
-22.02923510445868
 10
14.91190653979663
 20
-22.04429226744884
 10
14.89946275715479
 20
-22.05887174019074
 10
14.88645966794226
 20
-22.07294524028276
 10
14.87290658084194
 20
-22.08648492531597
 10
14.85882213342458
 20
-22.09947301468924
 10
14.84423426235736
 20
-22.11190175747714
 10
14.82917130629207
 20
-22.12376383632074
 10
14.81366160388049
 20
-22.13505193386106
 10
14.79773349377444
 20
-22.14575873273901
 10
14.78141531462575
 20
-22.15587691559574
 10
14.76473540508616
 20
-22.16539916507213
 10
14.74772210380755
 20
-22.17431816380923
 10
14.73040374845686
 20
-22.18262658817838
 10
14.7128068613477
 20
-22.19030555697401
 10
14.69495238941474
 20
-22.19730069294497
 10
14.67686021278464
 20
-22.2035508269305
 10
14.65855021158401
 20
-22.20899478976992
 10
14.64004226593948
 20
-22.21357141230254
 10
14.62135664842231
 20
-22.21722817441304
 10
14.60251932411421
 20
-22.22003801260314
 10
14.58356055011327
 20
-22.22216845465908
 10
14.56451068884274
 20
-22.22378934961444
 10
14.54540010272578
 20
-22.22507054650271
 10
14.52625915418557
 20
-22.22618189435735
  0
LWPOLYLINE
  5
73B7
330
7376
100
AcDbEntity
  8
10
  6
CONTINOUS
100
AcDbPolyline
 90
       42
 70
     0
 43
0.0
 10
-14.52625915397732
 20
-22.22618189435764
 10
-14.5453906150266
 20
-22.22502204963632
 10
-14.56449264166065
 20
-22.22369508441892
 10
-14.5835357994641
 20
-22.22203387820923
 10
-14.60249065402166
 20
-22.21987131051117
 10
-14.62132777091801
 20
-22.21704026082853
 10
-14.64001783235841
 20
-22.21337683757707
 10
-14.65853506334272
 20
-22.20881523968813
 10
-14.67685778809658
 20
-22.20340316269682
 10
-14.69496455949524
 20
-22.19719463283764
 10
-14.71283393041406
 20
-22.19024367634535
 10
-14.73044445372832
 20
-22.18260431945458
 10
-14.74777381340215
 20
-22.17432485151829
 10
-14.76479518522271
 20
-22.1654237971926
 10
-14.78148028741123
 20
-22.15591005772933
 10
-14.79780083745581
 20
-22.14579252954019
 10
-14.81372855284456
 20
-22.13508010903695
 10
-14.82923515106563
 20
-22.1237816926315
 10
-14.84429234960714
 20
-22.1119061767356
 10
-14.85887186595721
 20
-22.09946245776098
 10
-14.87294541760397
 20
-22.08645943211946
 10
-14.88648516179066
 20
-22.0729064041156
 10
-14.89947331480187
 20
-22.0588220082675
 10
-14.91190212132235
 20
-22.04423418088629
 10
-14.92376425966375
 20
-22.02917126049141
 10
-14.93505240813772
 20
-22.01366158560228
 10
-14.94575924505588
 20
-21.99773349473844
 10
-14.95587744872989
 20
-21.98141532641938
 10
-14.96539969747135
 20
-21.96473541916446
 10
-14.97431866959189
 20
-21.94772211149325
 10
-14.98262703712549
 20
-21.93040374093914
 10
-14.99030591812996
 20
-21.91280683034722
 10
-14.99730095103103
 20
-21.89495233006699
 10
-15.00355098654515
 20
-21.87686012435808
 10
-15.00899487538868
 20
-21.85855009748002
 10
-15.01357146827803
 20
-21.84004213369246
 10
-15.01722826395789
 20
-21.82135650946566
 10
-15.02003820055455
 20
-21.80251919027307
 10
-15.02216879322338
 20
-21.78356043090349
 10
-15.02378987794631
 20
-21.76451059140112
 10
-15.02507129070537
 20
-21.74540003181016
 10
-15.02618286748247
 20
-21.72625911217489
  0
LWPOLYLINE
  5
73B8
330
7376
100
AcDbEntity
  8
10
  6
CONTINOUS
100
AcDbPolyline
 90
       61
 70
     0
 43
0.0
 10
-39.59999978531937
 20
-10.04650917630965
 10
-39.50233617927842
 20
-10.03479147462315
 10
-39.40560329781304
 20
-10.02017530965463
 10
-39.35787673022607
 20
-10.01087453366404
 10
-39.31073186549882
 20
-9.999762218122155
 10
-39.26428504420322
 20
-9.986476055118828
 10
-39.21865260691125
 20
-9.97065373674377
 10
-39.17394794417949
 20
-9.952021515527576
 10
-39.13027264680593
 20
-9.930659876675463
 10
-39.08772535572463
 20
-9.906737861289622
 10
-39.04640471186958
 20
-9.880424510472153
 10
-39.00640935617481
 20
-9.851888865325179
 10
-38.96783792957436
 20
-9.821299966950787
 10
-38.93078907300223
 20
-9.788826856451123
 10
-38.89536142739246
 20
-9.754638574928263
 10
-38.86164817611351
 20
-9.718887906453346
 10
-38.82972067169978
 20
-9.681662605269368
 10
-38.79964480883407
 20
-9.64303416773663
 10
-38.77148648219929
 20
-9.603074090215159
 10
-38.74531158647826
 20
-9.561853869065203
 10
-38.72118601635385
 20
-9.519445000646953
 10
-38.69917566650889
 20
-9.475918981320603
 10
-38.67934643162622
 20
-9.43134730744623
 10
-38.66175708143277
 20
-9.385809854272451
 10
-38.64643788587942
 20
-9.339420012544223
 10
-38.63341198998509
 20
-9.29229955186696
 10
-38.62270253876872
 20
-9.244570241845906
 10
-38.61433267724918
 20
-9.196353852086303
 10
-38.60832555044542
 20
-9.147772152193507
 10
-38.60470430337635
 20
-9.098946911772712
 10
-38.60349208106086
 20
-9.049999900429156
 10
-38.60470431372612
 20
-9.001052888006995
 10
-38.60832557188179
 20
-8.95222764530547
 10
-38.61433271097072
 20
-8.903645943362731
 10
-38.62270258643569
 20
-8.855429553216822
 10
-38.63341205371954
 20
-8.807700245905834
 10
-38.64643796826505
 20
-8.760579792467806
 10
-38.66175718551505
 20
-8.714189963940951
 10
-38.67934656091235
 20
-8.66865253136325
 10
-38.69917582430398
 20
-8.624080885719136
 10
-38.72118620369665
 20
-8.580554898417062
 10
-38.74531180177267
 20
-8.538146061130646
 10
-38.77148672121429
 20
-8.496925865533681
 10
-38.79964506470381
 20
-8.456965803299965
 10
-38.82972093492352
 20
-8.41833736610323
 10
-38.86164843455569
 20
-8.381112045617271
 10
-38.89536166628264
 20
-8.345361333515882
 10
-38.93078927600127
 20
-8.311172981919581
 10
-38.96783808349127
 20
-8.278699781684961
 10
-39.00640945225904
 20
-8.248110782589492
 10
-39.046404745811
 20
-8.219575034410636
 10
-39.08772532765353
 20
-8.193261586925812
 10
-39.130272561293
 20
-8.169339489912657
 10
-39.17394781023586
 20
-8.14797779314847
 10
-39.21865243798847
 20
-8.129345546410887
 10
-39.26428485711218
 20
-8.113523242230995
 10
-39.31073167595294
 20
-8.10023713109382
 10
-39.35787655169404
 20
-8.089124899707542
 10
-39.40560314151874
 20
-8.079824234780346
 10
-39.50233609215214
 20
-8.065208351135936
 10
-39.59999978531937
 20
-8.053490973826001
  0
LWPOLYLINE
  5
73B9
330
7376
100
AcDbEntity
  8
10
  6
CONTINOUS
100
AcDbPolyline
 90
       61
 70
     0
 43
0.0
 10
39.59999978552764
 20
-8.053490973825319
 10
39.50233609236054
 20
-8.065208351135197
 10
39.40560314172723
 20
-8.079824234779549
 10
39.35787655190253
 20
-8.089124899706746
 10
39.31073167616145
 20
-8.100237131092967
 10
39.26428485732068
 20
-8.113523242230144
 10
39.21865243819699
 20
-8.129345546410092
 10
39.17394781044432
 20
-8.147977793147731
 10
39.1302725615015
 20
-8.169339489911862
 10
39.08772532786199
 20
-8.193261586925075
 10
39.04640474601947
 20
-8.219575034409842
 10
39.00640945246752
 20
-8.248110782588696
 10
38.96783808369972
 20
-8.278699781684167
 10
38.93078927620972
 20
-8.311172981918787
 10
38.89536166649111
 20
-8.345361333514972
 10
38.86164843476413
 20
-8.381112045616362
 10
38.82972093513195
 20
-8.418337366102321
 10
38.79964506491221
 20
-8.456965803299056
 10
38.77148672142266
 20
-8.496925865532714
 10
38.74531180198104
 20
-8.53814606112968
 10
38.72118620390501
 20
-8.580554898416039
 10
38.69917582451235
 20
-8.624080885718115
 10
38.67934656112069
 20
-8.66865253136217
 10
38.66175718572343
 20
-8.714189963939871
 10
38.64643796847344
 20
-8.760579792466785
 10
38.63341205392794
 20
-8.807700245904754
 10
38.62270258664414
 20
-8.855429553215799
 10
38.61433271117917
 20
-8.903645943361764
 10
38.60832557209028
 20
-8.952227645304501
 10
38.60470431393461
 20
-9.001052888006029
 10
38.60349208126937
 20
-9.049999900428247
 10
38.60470430358486
 20
-9.098946911771747
 10
38.60832555065389
 20
-9.147772152192599
 10
38.61433267745764
 20
-9.196353852085394
 10
38.62270253897714
 20
-9.244570241844996
 10
38.63341199019348
 20
-9.292299551866051
 10
38.6464378860878
 20
-9.339420012543373
 10
38.6617570816411
 20
-9.385809854271542
 10
38.67934643183455
 20
-9.431347307445435
 10
38.6991756667172
 20
-9.475918981319804
 10
38.72118601656215
 20
-9.519445000646213
 10
38.74531158668654
 20
-9.561853869064464
 10
38.77148648240757
 20
-9.603074090214418
 10
38.79964480904236
 20
-9.643034167735892
 10
38.82972067190804
 20
-9.681662605268684
 10
38.86164817632179
 20
-9.718887906452607
 10
38.89536142760074
 20
-9.754638574927581
 10
38.93078907321049
 20
-9.788826856450382
 10
38.96783792978263
 20
-9.821299966949991
 10
39.0064093563831
 20
-9.851888865324383
 10
39.04640471207789
 20
-9.880424510471355
 10
39.08772535593293
 20
-9.906737861288831
 10
39.13027264701422
 20
-9.930659876674667
 10
39.17394794438778
 20
-9.952021515526725
 10
39.21865260711955
 20
-9.970653736742974
 10
39.26428504441154
 20
-9.986476055117977
 10
39.31073186570714
 20
-9.999762218121304
 10
39.35787673043441
 20
-10.01087453366312
 10
39.40560329802139
 20
-10.02017530965372
 10
39.50233617948676
 20
-10.03479147462224
 10
39.59999978552762
 20
-10.04650917630874
  0
LWPOLYLINE
  5
73BA
330
7376
100
AcDbEntity
  8
10
  6
CONTINOUS
100
AcDbPolyline
 90
       30
 70
     0
 43
0.0
 10
10.90744044642156
 20
-21.43768136184974
 10
10.90491467898985
 20
-21.45935181583263
 10
10.90219363435451
 20
-21.48095664378974
 10
10.89908203531183
 20
-21.50243021969527
 10
10.89538460465817
 20
-21.52370691752344
 10
10.89090606518985
 20
-21.54472111124841
 10
10.88545113970326
 20
-21.5654071748445
 10
10.87882455099469
 20
-21.58569948228575
 10
10.87085116002299
 20
-21.60553431324814
 10
10.86153110155155
 20
-21.62486453380484
 10
10.85095475652181
 20
-21.64365155014735
 10
10.83921325167614
 20
-21.66185683904314
 10
10.82639771375693
 20
-21.67944187725971
 10
10.81259926950645
 20
-21.69636814156468
 10
10.7979090456671
 20
-21.71259710872551
 10
10.78241707318585
 20
-21.7280891596456
 10
10.76618817758739
 20
-21.74277946822355
 10
10.74926197779138
 20
-21.75657800017035
 10
10.73167699668551
 20
-21.7693936250962
 10
10.71347175715749
 20
-21.78113521261139
 10
10.69468478209504
 20
-21.79171163232616
 10
10.67535459438588
 20
-21.80103175385074
 10
10.65551978749801
 20
-21.80900519261212
 10
10.63522749551882
 20
-21.81563181214796
 10
10.61454143990696
 20
-21.82108675355295
 10
10.59352724793459
 20
-21.82556529651555
 10
10.57225054687376
 20
-21.82926272072427
 10
10.55077696399664
 20
-21.83237430586752
 10
10.52917212657536
 20
-21.83509533163386
 10
10.50750166188197
 20
-21.83762107771167
  0
LWPOLYLINE
  5
73BB
330
7376
100
AcDbEntity
  8
10
  6
CONTINOUS
100
AcDbPolyline
 90
       30
 70
     0
 43
0.0
 10
-10.5075016616737
 20
22.83762107807831
 10
-10.52917211290918
 20
22.83509530171068
 10
-10.55077693964156
 20
22.83237424871948
 10
-10.57225051736788
 20
22.8292626424813
 10
-10.59352722158499
 20
22.82556520637257
 10
-10.6145414277899
 20
22.82108666376985
 10
-10.63522751147951
 20
22.8156317380496
 10
-10.65551984815082
 20
22.80900515258833
 10
-10.67535471837695
 20
22.80103176885763
 10
-10.69468498347794
 20
22.79171171935019
 10
-10.71347204189433
 20
22.78113538037309
 10
-10.73167736261544
 20
22.76939387398682
 10
-10.74926241463055
 20
22.75657832225193
 10
-10.76618866692897
 20
22.74277984722893
 10
-10.78241758850001
 20
22.72808957097828
 10
-10.79790955282115
 20
22.71259751997508
 10
-10.81259973555527
 20
22.69636852118401
 10
-10.82639811397124
 20
22.67944220148013
 10
-10.83921356971021
 20
22.66185709203705
 10
-10.85095498441333
 20
22.64365172402836
 10
-10.86153123972178
 20
22.62486462862768
 10
-10.87085121727668
 20
22.60553433700858
 10
-10.87882454449857
 20
22.58569945089312
 10
-10.88545109149908
 20
22.56540710868421
 10
-10.89090599494204
 20
22.5447210284612
 10
-10.89538452875376
 20
22.52370683322636
 10
-10.8990819668605
 20
22.50243014598203
 10
-10.90219358318847
 20
22.48095658973062
 10
-10.904914651664
 20
22.45935178747448
 10
-10.90744044621328
 20
22.43768136221587
  0
ENDBLK
  5
73BC
330
7376
100
AcDbEntity
  8
0
100
AcDbBlockEnd
  0
BLOCK
  5
73CE
330
73CB
100
AcDbEntity
  8
0
100
AcDbBlockBegin
  2
A$C37787D9A
 70
     0
 10
0.0
 20
0.0
 30
0.0
  3
A$C37787D9A
  1

  0
LINE
  5
73CF
330
73CB
100
AcDbEntity
  8
10
  6
CONTINOUS
100
AcDbLine
 10
-2.0
 20
-19.20000000000004
 30
0.0
 11
-7.835235792091451
 21
-19.24528263327227
 31
0.0
  0
LINE
  5
73D0
330
73CB
100
AcDbEntity
  8
10
  6
CONTINOUS
100
AcDbLine
 10
-7.302727501200022
 20
22.83762028759998
 30
0.0
 11
-2.0
 21
22.93017974040004
 31
0.0
  0
LINE
  5
73D1
330
73CB
100
AcDbEntity
  8
10
  6
CONTINOUS
100
AcDbLine
 10
-7.302721334000125
 20
-21.83762039480007
 30
0.0
 11
-2.0
 21
-21.93017973999997
 31
0.0
  0
LINE
  5
73D2
330
73CB
100
AcDbEntity
  8
10
  6
CONTINOUS
100
AcDbLine
 10
-8.069541355730166
 20
-15.53235591842883
 30
0.0
 11
-2.049999959200249
 21
-15.5995636568
 31
0.0
  0
SPLINE
  5
73D3
330
73CB
100
AcDbEntity
  8
10
  6
CONTINOUS
100
AcDbSpline
210
0.0
220
0.0
230
1.0
 70
     8
 71
     3
 72
    11
 73
     7
 74
     0
 42
0.000000001
 43
0.0000000001
 40
0.0
 40
0.0
 40
0.0
 40
0.0
 40
0.2500000000000094
 40
0.4999999999999905
 40
0.749999999999996
 40
1.0
 40
1.0
 40
1.0
 40
1.0
 10
-7.302727490332928
 20
-21.83762028745923
 30
0.0
 10
-7.352011672625848
 20
-21.83143385152562
 30
0.0
 10
-7.450580037212603
 20
-21.81906097965839
 30
0.0
 10
-7.576257749889464
 20
-21.73430905271596
 30
0.0
 10
-7.667891236099876
 20
-21.61355690661048
 30
0.0
 10
-7.685745584104552
 20
-21.51583263780878
 30
0.0
 10
-7.694672758106659
 20
-21.46697050340811
 30
0.0
  0
LINE
  5
73D4
330
73CB
100
AcDbEntity
  8
10
  6
CONTINOUS
100
AcDbLine
 10
-2.0
 20
25.43017974040004
 30
0.0
 11
-2.0
 21
-24.33017974000006
 31
0.0
  0
LINE
  5
73D5
330
73CB
100
AcDbEntity
  8
10
  6
CONTINOUS
100
AcDbLine
 10
0.0
 20
25.46508987039999
 30
0.0
 11
-2.0
 21
25.43017974040004
 31
0.0
  0
LINE
  5
73D6
330
73CB
100
AcDbEntity
  8
10
  6
CONTINOUS
100
AcDbLine
 10
0.0
 20
-24.36508987000002
 30
0.0
 11
-2.0
 21
-24.33017974000006
 31
0.0
  0
LINE
  5
73D7
330
73CB
100
AcDbEntity
  8
10
  6
CONTINOUS
100
AcDbLine
 10
-2.055530328399981
 20
-15.70000000000004
 30
0.0
 11
-8.059540785589772
 21
-15.70000000000004
 31
0.0
  0
LINE
  5
73D8
330
73CB
100
AcDbEntity
  8
10
  6
CONTINOUS
100
AcDbLine
 10
-2.02708363360034
 20
-19.10000000000002
 30
0.0
 11
-7.844427617816562
 21
-19.10000000000002
 31
0.0
  0
SPLINE
  5
73D9
330
73CB
100
AcDbEntity
  8
10
  6
CONTINOUS
100
AcDbSpline
210
0.0
220
0.0
230
1.0
 70
     8
 71
     3
 72
     9
 73
     5
 74
     0
 42
0.000000001
 43
0.0000000001
 40
0.0
 40
0.0
 40
0.0
 40
0.0
 40
0.5307938312772637
 40
0.9910671933770951
 40
0.9910671933770951
 40
0.9910671933770951
 40
0.9910671933770951
 10
-23.30386255404437
 20
9.324609705199916
 30
0.0
 10
-15.53551226832815
 20
8.234002414561928
 30
0.0
 10
-12.6071357124789
 20
7.931301712168476
 30
0.0
 10
-9.750735795484617
 20
7.222125559231585
 30
0.0
 10
-8.424456522773082
 20
6.891099478436387
 30
0.0
  0
LINE
  5
73DA
330
73CB
100
AcDbEntity
  8
10
  6
CONTINOUS
100
AcDbLine
 10
-24.89581385204383
 20
11.72068903080003
 30
0.0
 11
-24.17592726204385
 21
14.99492101239991
 31
0.0
  0
LINE
  5
73DB
330
73CB
100
AcDbEntity
  8
10
  6
CONTINOUS
100
AcDbLine
 10
-21.72574926404422
 20
16.50228057399999
 30
0.0
 11
-8.199582744267218
 21
13.06088525410939
 31
0.0
  0
ARC
  5
73DC
330
73CB
100
AcDbEntity
  8
10
  6
CONTINOUS
100
AcDbCircle
 10
-22.94290474884428
 20
11.29131411720003
 30
0.0
 40
1.999554145593261
100
AcDbArc
 50
167.5999999998046
 51
259.5999999999035
  0
ARC
  5
73DD
330
73CB
100
AcDbEntity
  8
10
  6
CONTINOUS
100
AcDbCircle
 10
-22.2230181588443
 20
14.56554609879993
 30
0.0
 40
1.999554145593456
100
AcDbArc
 50
75.5999999998952
 51
167.5999999999049
  0
LINE
  5
73DE
330
73CB
100
AcDbEntity
  8
0
  6
SLD-実線
 62
     8
370
     0
100
AcDbLine
 10
-17.10388644600016
 20
8.396122475999957
 30
0.0
 11
-17.10383141520015
 21
8.396565094799937
 31
0.0
  0
LINE
  5
73DF
330
73CB
100
AcDbEntity
  8
0
  6
SLD-実線
 62
     8
370
     0
100
AcDbLine
 10
-21.72563838484439
 20
16.50271242119993
 30
0.0
 11
-21.72574926404422
 21
16.50228057399999
 31
0.0
  0
LINE
  5
73E0
330
73CB
100
AcDbEntity
  8
0
  6
SLD-実線
 62
     8
370
     0
100
AcDbLine
 10
-23.30394303924413
 20
9.324171175599984
 30
0.0
 11
-23.30386255404437
 21
9.324609705199916
 31
0.0
  0
LINE
  5
73E1
330
73CB
100
AcDbEntity
  8
0
  6
SLD-実線
 62
     8
370
     0
100
AcDbLine
 10
-17.70295989760007
 20
8.475136915599932
 30
0.0
 11
-17.70290054400038
 21
8.47557908519991
 31
0.0
  0
LINE
  5
73E2
330
73CB
100
AcDbEntity
  8
0
  6
SLD-実線
 62
     8
370
     0
100
AcDbLine
 10
-24.17636271564425
 20
14.99501675319993
 30
0.0
 11
-24.17592726204385
 21
14.99492101239991
 31
0.0
  0
LINE
  5
73E3
330
73CB
100
AcDbEntity
  8
0
  6
SLD-実線
 62
     8
370
     0
100
AcDbLine
 10
-24.89624930564423
 20
11.72078477119987
 30
0.0
 11
-24.89581385204383
 21
11.72068903080003
 31
0.0
  0
LWPOLYLINE
  5
73E4
330
73CB
100
AcDbEntity
  8
10
  6
CONTINOUS
100
AcDbPolyline
 90
       11
 70
     0
 43
0.0
 10
-2.0
 20
-21.93017973999997
 10
-7.302727490332928
 20
-21.83762028745923
 10
-7.570583709007562
 20
-21.72830901915592
 10
-7.694672758106659
 20
-21.46697050340811
 10
-8.059540785589772
 20
-15.70000000000004
 10
-8.085474515946316
 20
-15.26526114548278
 10
-8.424456522773082
 20
6.891099478436387
 10
-8.199582744267331
 20
13.06088525410939
 10
-7.694672758106659
 20
22.46697050376599
 10
-7.302727490332928
 20
22.83762028782598
 10
-2.0
 20
22.93017974040004
  0
ENDBLK
  5
73E5
330
73CB
100
AcDbEntity
  8
0
100
AcDbBlockEnd
  0
BLOCK
  5
7418
330
7417
100
AcDbEntity
  8
0
100
AcDbBlockBegin
  2
*D30
 70
     1
 10
0.0
 20
0.0
 30
0.0
  3
*D30
  1

  0
LINE
  5
798E
330
7417
100
AcDbEntity
  8
30
  6
Continuous
 62
     0
440
 16777216
370
    -2
100
AcDbLine
 10
536.2374841537363
 20
388.9469424018693
 30
0.0
 11
551.0541511073276
 21
388.9469424018693
 31
0.0
  0
LINE
  5
798F
330
7417
100
AcDbEntity
  8
30
  6
Continuous
 62
     0
440
 16777216
370
    -2
100
AcDbLine
 10
536.2374841537363
 20
383.9469424018692
 30
0.0
 11
551.0541511073276
 21
383.9469424018692
 31
0.0
  0
LINE
  5
7990
330
7417
100
AcDbEntity
  8
30
  6
Continuous
 62
     0
440
 16777216
370
    -2
100
AcDbLine
 10
550.5541511073277
 20
390.9469424018693
 30
0.0
 11
550.5541511073277
 21
392.9469424018693
 31
0.0
  0
LINE
  5
7991
330
7417
100
AcDbEntity
  8
30
  6
Continuous
 62
     0
440
 16777216
370
    -2
100
AcDbLine
 10
550.5541511073277
 20
381.9469424018692
 30
0.0
 11
550.5541511073277
 21
367.0911951340316
 31
0.0
  0
INSERT
  5
7992
330
7417
100
AcDbEntity
  8
30
  6
Continuous
 62
     0
440
 16777216
370
    -2
100
AcDbBlockReference
  2
_OPEN
 10
550.5541511073277
 20
388.9469424018693
 30
0.0
 41
2.0
 42
2.0
 43
2.0
 50
270.0
  0
INSERT
  5
7993
330
7417
100
AcDbEntity
  8
30
  6
Continuous
 62
     0
440
 16777216
370
    -2
100
AcDbBlockReference
  2
_OPEN
 10
550.5541511073277
 20
383.9469424018692
 30
0.0
 41
2.0
 42
2.0
 43
2.0
 50
90.0
  0
MTEXT
  5
7994
330
7417
100
AcDbEntity
  8
30
  6
Continuous
 62
     0
440
 16777216
100
AcDbMText
 10
541.5541511073277
 20
371.1196042249408
 30
0.0
 40
7.0
 41
0.0
 46
0.0
 71
     2
 72
     1
  1
\A1;5
 11
0.0000000000000001
 21
1.0
 31
0.0
 73
     1
 44
1.0
 90
        3
 63
     9
421
 13158600
 45
1.1
441
        0
  0
POINT
  5
7995
330
7417
100
AcDbEntity
  8
Defpoints
  6
Continuous
 62
     0
440
 16777216
100
AcDbPoint
 10
535.2374841537363
 20
388.9469424018693
 30
0.0
  0
POINT
  5
7996
330
7417
100
AcDbEntity
  8
Defpoints
  6
Continuous
 62
     0
440
 16777216
100
AcDbPoint
 10
535.2374841537363
 20
383.9469424018692
 30
0.0
  0
POINT
  5
7997
330
7417
100
AcDbEntity
  8
Defpoints
  6
Continuous
 62
     0
440
 16777216
100
AcDbPoint
 10
550.5541511073277
 20
383.9469424018692
 30
0.0
  0
ENDBLK
  5
7419
330
7417
100
AcDbEntity
  8
0
100
AcDbBlockEnd
  0
BLOCK
  5
7488
330
7487
100
AcDbEntity
  8
0
100
AcDbBlockBegin
  2
*D31
 70
     1
 10
0.0
 20
0.0
 30
0.0
  3
*D31
  1

  0
LINE
  5
7A84
330
7487
100
AcDbEntity
  8
30
  6
Continuous
 62
     0
440
 16777216
370
    -2
100
AcDbLine
 10
124.9445985892626
 20
752.8637087462327
 30
0.0
 11
74.79098333828644
 21
752.8637087462327
 31
0.0
  0
LINE
  5
7A85
330
7487
100
AcDbEntity
  8
30
  6
Continuous
 62
     0
440
 16777216
370
    -2
100
AcDbLine
 10
124.9445985892626
 20
765.3637087462327
 30
0.0
 11
74.79098333828644
 21
765.3637087462327
 31
0.0
  0
LINE
  5
7A86
330
7487
100
AcDbEntity
  8
30
  6
Continuous
 62
     0
440
 16777216
370
    -2
100
AcDbLine
 10
75.29098333828644
 20
754.8637087462327
 30
0.0
 11
75.29098333828644
 21
763.3637087462327
 31
0.0
  0
INSERT
  5
7A87
330
7487
100
AcDbEntity
  8
30
  6
Continuous
 62
     0
440
 16777216
370
    -2
100
AcDbBlockReference
  2
_OPEN
 10
75.29098333828644
 20
752.8637087462327
 30
0.0
 41
2.0
 42
2.0
 43
2.0
 50
270.0
  0
INSERT
  5
7A88
330
7487
100
AcDbEntity
  8
30
  6
Continuous
 62
     0
440
 16777216
370
    -2
100
AcDbBlockReference
  2
_OPEN
 10
75.29098333828644
 20
765.3637087462327
 30
0.0
 41
2.0
 42
2.0
 43
2.0
 50
90.0
  0
MTEXT
  5
7A89
330
7487
100
AcDbEntity
  8
30
  6
Continuous
 62
     0
440
 16777216
100
AcDbMText
 10
66.29098333828631
 20
759.1137087462327
 30
0.0
 40
7.0
 41
0.0
 46
0.0
 71
     2
 72
     1
  1
\A1;12.5
 11
0.0000000000000001
 21
1.0
 31
0.0
 73
     1
 44
1.0
 90
        3
 63
     9
421
 13158600
 45
1.1
441
        0
  0
POINT
  5
7A8A
330
7487
100
AcDbEntity
  8
Defpoints
  6
Continuous
 62
     0
440
 16777216
100
AcDbPoint
 10
125.9445985892626
 20
752.8637087462327
 30
0.0
  0
POINT
  5
7A8B
330
7487
100
AcDbEntity
  8
Defpoints
  6
Continuous
 62
     0
440
 16777216
100
AcDbPoint
 10
125.9445985892626
 20
765.3637087462327
 30
0.0
  0
POINT
  5
7A8C
330
7487
100
AcDbEntity
  8
Defpoints
  6
Continuous
 62
     0
440
 16777216
100
AcDbPoint
 10
75.29098333828644
 20
765.3637087462327
 30
0.0
  0
ENDBLK
  5
7489
330
7487
100
AcDbEntity
  8
0
100
AcDbBlockEnd
  0
BLOCK
  5
7494
330
7493
100
AcDbEntity
  8
0
100
AcDbBlockBegin
  2
*D32
 70
     1
 10
0.0
 20
0.0
 30
0.0
  3
*D32
  1

  0
LINE
  5
790E
330
7493
100
AcDbEntity
  8
30
  6
Continuous
 62
     0
440
 16777216
370
    -2
100
AcDbLine
 10
132.979916297032
 20
773.7519279753128
 30
0.0
 11
132.979916297032
 21
803.4449744587996
 31
0.0
  0
LINE
  5
790F
330
7493
100
AcDbEntity
  8
30
  6
Continuous
 62
     0
440
 16777216
370
    -2
100
AcDbLine
 10
116.9799168902319
 20
773.8850117817894
 30
0.0
 11
116.9799168902319
 21
803.4449744587996
 31
0.0
  0
LINE
  5
7910
330
7493
100
AcDbEntity
  8
30
  6
Continuous
 62
     0
440
 16777216
370
    -2
100
AcDbLine
 10
130.979916297032
 20
802.9449744587997
 30
0.0
 11
118.9799168902319
 21
802.9449744587997
 31
0.0
  0
LINE
  5
7911
330
7493
100
AcDbEntity
  8
30
  6
Continuous
 62
     0
440
 16777216
370
    -2
100
AcDbLine
 10
116.9799168902319
 20
802.9449744587997
 30
0.0
 11
94.13536654995589
 21
802.9449744587997
 31
0.0
  0
INSERT
  5
7912
330
7493
100
AcDbEntity
  8
30
  6
Continuous
 62
     0
440
 16777216
370
    -2
100
AcDbBlockReference
  2
_OPEN
 10
132.979916297032
 20
802.9449744587997
 30
0.0
 41
2.0
 42
2.0
 43
2.0
  0
INSERT
  5
7913
330
7493
100
AcDbEntity
  8
30
  6
Continuous
 62
     0
440
 16777216
370
    -2
100
AcDbBlockReference
  2
_OPEN
 10
116.9799168902319
 20
802.9449744587997
 30
0.0
 41
2.0
 42
2.0
 43
2.0
 50
180.0
  0
MTEXT
  5
7914
330
7493
100
AcDbEntity
  8
30
  6
Continuous
 62
     0
440
 16777216
100
AcDbMText
 10
100.410934731774
 20
811.9449744587997
 30
0.0
 40
7.0
 41
0.0
 46
0.0
 71
     2
 72
     1
  1
\A1;16
 73
     1
 44
1.0
 90
        3
 63
     9
421
 13158600
 45
1.1
441
        0
  0
POINT
  5
7915
330
7493
100
AcDbEntity
  8
Defpoints
  6
Continuous
 62
     0
440
 16777216
100
AcDbPoint
 10
132.979916297032
 20
772.7519279753122
 30
0.0
  0
POINT
  5
7916
330
7493
100
AcDbEntity
  8
Defpoints
  6
Continuous
 62
     0
440
 16777216
100
AcDbPoint
 10
116.9799168902319
 20
772.8850117817894
 30
0.0
  0
POINT
  5
7917
330
7493
100
AcDbEntity
  8
Defpoints
  6
Continuous
 62
     0
440
 16777216
100
AcDbPoint
 10
116.9799168902319
 20
802.9449744587997
 30
0.0
  0
ENDBLK
  5
7495
330
7493
100
AcDbEntity
  8
0
100
AcDbBlockEnd
  0
BLOCK
  5
74A1
330
74A0
100
AcDbEntity
  8
0
100
AcDbBlockBegin
  2
*D33
 70
     1
 10
0.0
 20
0.0
 30
0.0
  3
*D33
  1

  0
LINE
  5
7918
330
74A0
100
AcDbEntity
  8
30
  6
Continuous
 62
     0
440
 16777216
370
    -2
100
AcDbLine
 10
129.1756253749768
 20
762.5628170478811
 30
0.0
 11
129.1756253749768
 21
788.2305427183937
 31
0.0
  0
LINE
  5
7919
330
74A0
100
AcDbEntity
  8
30
  6
Continuous
 62
     0
440
 16777216
370
    -2
100
AcDbLine
 10
120.6756253749768
 20
762.5628170478811
 30
0.0
 11
120.6756253749768
 21
788.2305427183937
 31
0.0
  0
LINE
  5
791A
330
74A0
100
AcDbEntity
  8
30
  6
Continuous
 62
     0
440
 16777216
370
    -2
100
AcDbLine
 10
127.1756253749768
 20
787.7305427183937
 30
0.0
 11
122.6756253749768
 21
787.7305427183937
 31
0.0
  0
LINE
  5
791B
330
74A0
100
AcDbEntity
  8
30
  6
Continuous
 62
     0
440
 16777216
370
    -2
100
AcDbLine
 10
120.6756253749768
 20
787.7305427183937
 30
0.0
 11
100.31787042585
 21
787.7305427183937
 31
0.0
  0
INSERT
  5
791C
330
74A0
100
AcDbEntity
  8
30
  6
Continuous
 62
     0
440
 16777216
370
    -2
100
AcDbBlockReference
  2
_OPEN
 10
129.1756253749768
 20
787.7305427183937
 30
0.0
 41
2.0
 42
2.0
 43
2.0
  0
INSERT
  5
791D
330
74A0
100
AcDbEntity
  8
30
  6
Continuous
 62
     0
440
 16777216
370
    -2
100
AcDbBlockReference
  2
_OPEN
 10
120.6756253749768
 20
787.7305427183937
 30
0.0
 41
2.0
 42
2.0
 43
2.0
 50
180.0
  0
MTEXT
  5
791E
330
74A0
100
AcDbEntity
  8
30
  6
Continuous
 62
     0
440
 16777216
100
AcDbMText
 10
107.9457113349409
 20
796.7305427183937
 30
0.0
 40
7.0
 41
0.0
 46
0.0
 71
     2
 72
     1
  1
\A1;8.5
 73
     1
 44
1.0
 90
        3
 63
     9
421
 13158600
 45
1.1
441
        0
  0
POINT
  5
791F
330
74A0
100
AcDbEntity
  8
Defpoints
  6
Continuous
 62
     0
440
 16777216
100
AcDbPoint
 10
129.1756253749768
 20
761.5628170478811
 30
0.0
  0
POINT
  5
7920
330
74A0
100
AcDbEntity
  8
Defpoints
  6
Continuous
 62
     0
440
 16777216
100
AcDbPoint
 10
120.6756253749768
 20
761.5628170478811
 30
0.0
  0
POINT
  5
7921
330
74A0
100
AcDbEntity
  8
Defpoints
  6
Continuous
 62
     0
440
 16777216
100
AcDbPoint
 10
120.6756253749768
 20
787.7305427183937
 30
0.0
  0
ENDBLK
  5
74A2
330
74A0
100
AcDbEntity
  8
0
100
AcDbBlockEnd
  0
BLOCK
  5
74AE
330
74AD
100
AcDbEntity
  8
0
100
AcDbBlockBegin
  2
*D34
 70
     1
 10
0.0
 20
0.0
 30
0.0
  3
*D34
  1

  0
LINE
  5
7A96
330
74AD
100
AcDbEntity
  8
30
  6
Continuous
 62
     0
440
 16777216
370
    -2
100
AcDbLine
 10
123.8676646242866
 20
758.832817047881
 30
0.0
 11
93.21170446156797
 21
758.832817047881
 31
0.0
  0
LINE
  5
7A97
330
74AD
100
AcDbEntity
  8
30
  6
Continuous
 62
     0
440
 16777216
370
    -2
100
AcDbLine
 10
123.979916332693
 20
773.8328170478815
 30
0.0
 11
93.21170446156797
 21
773.8328170478815
 31
0.0
  0
LINE
  5
7A98
330
74AD
100
AcDbEntity
  8
30
  6
Continuous
 62
     0
440
 16777216
370
    -2
100
AcDbLine
 10
93.71170446156796
 20
760.8328170478809
 30
0.0
 11
93.71170446156796
 21
771.8328170478813
 31
0.0
  0
INSERT
  5
7A99
330
74AD
100
AcDbEntity
  8
30
  6
Continuous
 62
     0
440
 16777216
370
    -2
100
AcDbBlockReference
  2
_OPEN
 10
93.71170446156796
 20
758.832817047881
 30
0.0
 41
2.0
 42
2.0
 43
2.0
 50
270.0
  0
INSERT
  5
7A9A
330
74AD
100
AcDbEntity
  8
30
  6
Continuous
 62
     0
440
 16777216
370
    -2
100
AcDbBlockReference
  2
_OPEN
 10
93.71170446156796
 20
773.8328170478815
 30
0.0
 41
2.0
 42
2.0
 43
2.0
 50
90.0
  0
MTEXT
  5
7A9B
330
74AD
100
AcDbEntity
  8
30
  6
Continuous
 62
     0
440
 16777216
100
AcDbMText
 10
88.21170446156783
 20
769.7429328446816
 30
0.0
 40
7.0
 41
0.0
 46
0.0
 71
     5
 72
     1
  1
\A1;15
 11
0.0000000000000001
 21
1.0
 31
0.0
 73
     1
 44
1.0
 90
        3
 63
     9
421
 13158600
 45
1.1
441
        0
  0
POINT
  5
7A9C
330
74AD
100
AcDbEntity
  8
Defpoints
  6
Continuous
 62
     0
440
 16777216
100
AcDbPoint
 10
124.8676646242866
 20
758.832817047881
 30
0.0
  0
POINT
  5
7A9D
330
74AD
100
AcDbEntity
  8
Defpoints
  6
Continuous
 62
     0
440
 16777216
100
AcDbPoint
 10
124.979916332693
 20
773.8328170478815
 30
0.0
  0
POINT
  5
7A9E
330
74AD
100
AcDbEntity
  8
Defpoints
  6
Continuous
 62
     0
440
 16777216
100
AcDbPoint
 10
93.71170446156796
 20
773.8328170478815
 30
0.0
  0
ENDBLK
  5
74AF
330
74AD
100
AcDbEntity
  8
0
100
AcDbBlockEnd
  0
BLOCK
  5
74BA
330
74B9
100
AcDbEntity
  8
0
100
AcDbBlockBegin
  2
*D35
 70
     1
 10
0.0
 20
0.0
 30
0.0
  3
*D35
  1

  0
LINE
  5
7A72
330
74B9
100
AcDbEntity
  8
30
  6
Continuous
 62
     0
440
 16777216
370
    -2
100
AcDbLine
 10
78.74396095469508
 20
666.8628163326807
 30
0.0
 11
36.26469283082769
 21
666.8628163326807
 31
0.0
  0
LINE
  5
7A73
330
74B9
100
AcDbEntity
  8
30
  6
Continuous
 62
     0
440
 16777216
370
    -2
100
AcDbLine
 10
122.1371583224168
 20
773.8328170478815
 30
0.0
 11
36.26469283082772
 21
773.8328170478815
 31
0.0
  0
LINE
  5
7A74
330
74B9
100
AcDbEntity
  8
30
  6
Continuous
 62
     0
440
 16777216
370
    -2
100
AcDbLine
 10
36.76469283082769
 20
668.8628163326807
 30
0.0
 11
36.76469283082771
 21
771.8328170478813
 31
0.0
  0
INSERT
  5
7A75
330
74B9
100
AcDbEntity
  8
30
  6
Continuous
 62
     0
440
 16777216
370
    -2
100
AcDbBlockReference
  2
_OPEN
 10
36.76469283082769
 20
666.8628163326807
 30
0.0
 41
2.0
 42
2.0
 43
2.0
 50
270.0
  0
INSERT
  5
7A76
330
74B9
100
AcDbEntity
  8
30
  6
Continuous
 62
     0
440
 16777216
370
    -2
100
AcDbBlockReference
  2
_OPEN
 10
36.76469283082771
 20
773.8328170478815
 30
0.0
 41
2.0
 42
2.0
 43
2.0
 50
90.0
  0
MTEXT
  5
7A77
330
74B9
100
AcDbEntity
  8
30
  6
Continuous
 62
     0
440
 16777216
100
AcDbMText
 10
31.26469283082759
 20
720.3478166902812
 30
0.0
 40
7.0
 41
0.0
 46
0.0
 71
     5
 72
     1
  1
\A1;107
 11
0.0000000000000001
 21
1.0
 31
0.0
 73
     1
 44
1.0
 90
        3
 63
     9
421
 13158600
 45
1.1
441
        0
  0
POINT
  5
7A78
330
74B9
100
AcDbEntity
  8
Defpoints
  6
Continuous
 62
     0
440
 16777216
100
AcDbPoint
 10
79.74396095469508
 20
666.8628163326807
 30
0.0
  0
POINT
  5
7A79
330
74B9
100
AcDbEntity
  8
Defpoints
  6
Continuous
 62
     0
440
 16777216
100
AcDbPoint
 10
123.1371583224168
 20
773.8328170478815
 30
0.0
  0
POINT
  5
7A7A
330
74B9
100
AcDbEntity
  8
Defpoints
  6
Continuous
 62
     0
440
 16777216
100
AcDbPoint
 10
36.76469283082771
 20
773.8328170478815
 30
0.0
  0
ENDBLK
  5
74BB
330
74B9
100
AcDbEntity
  8
0
100
AcDbBlockEnd
  0
BLOCK
  5
759B
330
759A
100
AcDbEntity
  8
0
100
AcDbBlockBegin
  2
*D36
 70
     1
 10
0.0
 20
0.0
 30
0.0
  3
*D36
  1

  0
LINE
  5
7A32
330
759A
100
AcDbEntity
  8
30
  6
Continuous
 62
     0
440
 16777216
370
    -2
100
AcDbLine
 10
154.789044151025
 20
817.9980963871068
 30
0.0
 11
154.789044151025
 21
853.062837663481
 31
0.0
  0
LINE
  5
7A33
330
759A
100
AcDbEntity
  8
30
  6
Continuous
 62
     0
440
 16777216
370
    -2
100
AcDbLine
 10
124.7890436294249
 20
776.6471346113527
 30
0.0
 11
124.7890436294249
 21
853.062837663481
 31
0.0
  0
LINE
  5
7A34
330
759A
100
AcDbEntity
  8
30
  6
Continuous
 62
     0
440
 16777216
370
    -2
100
AcDbLine
 10
152.789044151025
 20
852.5628376634811
 30
0.0
 11
126.7890436294249
 21
852.5628376634811
 31
0.0
  0
INSERT
  5
7A35
330
759A
100
AcDbEntity
  8
30
  6
Continuous
 62
     0
440
 16777216
370
    -2
100
AcDbBlockReference
  2
_OPEN
 10
154.789044151025
 20
852.5628376634811
 30
0.0
 41
2.0
 42
2.0
 43
2.0
  0
INSERT
  5
7A36
330
759A
100
AcDbEntity
  8
30
  6
Continuous
 62
     0
440
 16777216
370
    -2
100
AcDbBlockReference
  2
_OPEN
 10
124.7890436294249
 20
852.5628376634811
 30
0.0
 41
2.0
 42
2.0
 43
2.0
 50
180.0
  0
MTEXT
  5
7A37
330
759A
100
AcDbEntity
  8
30
  6
Continuous
 62
     0
440
 16777216
100
AcDbMText
 10
139.789044151025
 20
861.5628376634811
 30
0.0
 40
7.0
 41
0.0
 46
0.0
 71
     2
 72
     1
  1
\A1;30
 73
     1
 44
1.0
 90
        3
 63
     9
421
 13158600
 45
1.1
441
        0
  0
POINT
  5
7A38
330
759A
100
AcDbEntity
  8
Defpoints
  6
Continuous
 62
     0
440
 16777216
100
AcDbPoint
 10
154.789044151025
 20
816.9980963871067
 30
0.0
  0
POINT
  5
7A39
330
759A
100
AcDbEntity
  8
Defpoints
  6
Continuous
 62
     0
440
 16777216
100
AcDbPoint
 10
124.7890436294249
 20
775.6471346113527
 30
0.0
  0
POINT
  5
7A3A
330
759A
100
AcDbEntity
  8
Defpoints
  6
Continuous
 62
     0
440
 16777216
100
AcDbPoint
 10
124.7890436294249
 20
852.5628376634811
 30
0.0
  0
ENDBLK
  5
759C
330
759A
100
AcDbEntity
  8
0
100
AcDbBlockEnd
  0
BLOCK
  5
79E4
330
79E3
100
AcDbEntity
  8
0
100
AcDbBlockBegin
  2
*D37
 70
     1
 10
0.0
 20
0.0
 30
0.0
  3
*D37
  1

  0
LINE
  5
79E5
330
79E3
100
AcDbEntity
  8
30
  6
Continuous
 62
     0
370
    -2
100
AcDbLine
 10
261.5954250570342
 20
663.6455564277007
 30
0.0
 11
272.9902800996828
 21
663.6455564277007
 31
0.0
  0
LINE
  5
79E6
330
79E3
100
AcDbEntity
  8
30
  6
Continuous
 62
     0
370
    -2
100
AcDbLine
 10
224.5859417895664
 20
820.6400850826657
 30
0.0
 11
272.9902800996828
 21
820.6400850826655
 31
0.0
  0
LINE
  5
79E7
330
79E3
100
AcDbEntity
  8
30
  6
Continuous
 62
     0
370
    -2
100
AcDbLine
 10
272.4902800996828
 20
665.6455564277011
 30
0.0
 11
272.4902800996828
 21
818.6400850826656
 31
0.0
  0
INSERT
  5
79E8
330
79E3
100
AcDbEntity
  8
30
  6
Continuous
 62
     0
370
    -2
100
AcDbBlockReference
  2
_OPEN
 10
272.4902800996828
 20
663.6455564277007
 30
0.0
 41
2.0
 42
2.0
 43
2.0
 50
270.0
  0
INSERT
  5
79E9
330
79E3
100
AcDbEntity
  8
30
  6
Continuous
 62
     0
370
    -2
100
AcDbBlockReference
  2
_OPEN
 10
272.4902800996828
 20
820.6400850826655
 30
0.0
 41
2.0
 42
2.0
 43
2.0
 50
90.0
  0
MTEXT
  5
79EA
330
79E3
100
AcDbEntity
  8
30
  6
Continuous
 62
     0
100
AcDbMText
 10
267.4902800996826
 20
742.1428211127832
 30
0.0
 40
6.0
 41
0.0
 46
0.0
 71
     5
 72
     1
  1
\A1;157
 11
0.0000000000000001
 21
1.0
 31
0.0
 73
     1
 44
1.0
 90
        3
 63
     9
421
 13158600
 45
1.1
441
        0
  0
POINT
  5
79EB
330
79E3
100
AcDbEntity
  8
Defpoints
  6
Continuous
 62
     0
100
AcDbPoint
 10
260.5954250570341
 20
663.6455564277007
 30
0.0
  0
POINT
  5
79EC
330
79E3
100
AcDbEntity
  8
Defpoints
  6
Continuous
 62
     0
100
AcDbPoint
 10
223.5859417895664
 20
820.6400850826657
 30
0.0
  0
POINT
  5
79ED
330
79E3
100
AcDbEntity
  8
Defpoints
  6
Continuous
 62
     0
100
AcDbPoint
 10
272.4902800996828
 20
820.6400850826655
 30
0.0
  0
ENDBLK
  5
79EE
330
79E3
100
AcDbEntity
  8
0
100
AcDbBlockEnd
  0
BLOCK
  5
79F0
330
79EF
100
AcDbEntity
  8
0
100
AcDbBlockBegin
  2
*D38
 70
     1
 10
0.0
 20
0.0
 30
0.0
  3
*D38
  1

  0
LINE
  5
79F1
330
79EF
100
AcDbEntity
  8
30
  6
Continuous
 62
     0
370
    -2
100
AcDbLine
 10
249.7881109446246
 20
820.6400850826655
 30
0.0
 11
258.8717241020709
 21
820.6400850826652
 31
0.0
  0
LINE
  5
79F2
330
79EF
100
AcDbEntity
  8
30
  6
Continuous
 62
     0
370
    -2
100
AcDbLine
 10
230.5391026651164
 20
805.6400850826655
 30
0.0
 11
258.8717241020709
 21
805.6400850826655
 31
0.0
  0
LINE
  5
79F3
330
79EF
100
AcDbEntity
  8
30
  6
Continuous
 62
     0
370
    -2
100
AcDbLine
 10
258.3717241020709
 20
818.6400850826654
 30
0.0
 11
258.3717241020709
 21
807.6400850826654
 31
0.0
  0
INSERT
  5
79F4
330
79EF
100
AcDbEntity
  8
30
  6
Continuous
 62
     0
370
    -2
100
AcDbBlockReference
  2
_OPEN
 10
258.3717241020709
 20
820.6400850826652
 30
0.0
 41
2.0
 42
2.0
 43
2.0
 50
90.0
  0
INSERT
  5
79F5
330
79EF
100
AcDbEntity
  8
30
  6
Continuous
 62
     0
370
    -2
100
AcDbBlockReference
  2
_OPEN
 10
258.3717241020709
 20
805.6400850826655
 30
0.0
 41
2.0
 42
2.0
 43
2.0
 50
270.0
  0
MTEXT
  5
79F6
330
79EF
100
AcDbEntity
  8
30
  6
Continuous
 62
     0
100
AcDbMText
 10
253.3717241020708
 20
813.1400850826656
 30
0.0
 40
6.0
 41
0.0
 46
0.0
 71
     5
 72
     1
  1
\A1;15
 11
0.0000000000000001
 21
1.0
 31
0.0
 73
     1
 44
1.0
 90
        3
 63
     9
421
 13158600
 45
1.1
441
        0
  0
POINT
  5
79F7
330
79EF
100
AcDbEntity
  8
Defpoints
  6
Continuous
 62
     0
100
AcDbPoint
 10
248.7881109446246
 20
820.6400850826655
 30
0.0
  0
POINT
  5
79F8
330
79EF
100
AcDbEntity
  8
Defpoints
  6
Continuous
 62
     0
100
AcDbPoint
 10
229.5391026651164
 20
805.6400850826655
 30
0.0
  0
POINT
  5
79F9
330
79EF
100
AcDbEntity
  8
Defpoints
  6
Continuous
 62
     0
100
AcDbPoint
 10
258.3717241020709
 20
805.6400850826655
 30
0.0
  0
ENDBLK
  5
79FA
330
79EF
100
AcDbEntity
  8
0
100
AcDbBlockEnd
  0
BLOCK
  5
7A09
330
7A08
100
AcDbEntity
  8
0
100
AcDbBlockBegin
  2
*D39
 70
     1
 10
0.0
 20
0.0
 30
0.0
  3
*D39
  1

  0
LINE
  5
7A7B
330
7A08
100
AcDbEntity
  8
30
  6
Continuous
 62
     0
440
 16777216
370
    -2
100
AcDbLine
 10
192.7985274184923
 20
666.8628123094811
 30
0.0
 11
279.878374309189
 21
666.8628123094809
 31
0.0
  0
LINE
  5
7A7C
330
7A08
100
AcDbEntity
  8
30
  6
Continuous
 62
     0
440
 16777216
370
    -2
100
AcDbLine
 10
155.7890441510244
 20
823.8573409644457
 30
0.0
 11
279.878374309189
 21
823.8573409644457
 31
0.0
  0
LINE
  5
7A7D
330
7A08
100
AcDbEntity
  8
30
  6
Continuous
 62
     0
440
 16777216
370
    -2
100
AcDbLine
 10
279.378374309189
 20
668.862812309481
 30
0.0
 11
279.378374309189
 21
821.8573409644458
 31
0.0
  0
INSERT
  5
7A7E
330
7A08
100
AcDbEntity
  8
30
  6
Continuous
 62
     0
440
 16777216
370
    -2
100
AcDbBlockReference
  2
_OPEN
 10
279.378374309189
 20
666.8628123094809
 30
0.0
 41
2.0
 42
2.0
 43
2.0
 50
270.0
  0
INSERT
  5
7A7F
330
7A08
100
AcDbEntity
  8
30
  6
Continuous
 62
     0
440
 16777216
370
    -2
100
AcDbBlockReference
  2
_OPEN
 10
279.378374309189
 20
823.8573409644457
 30
0.0
 41
2.0
 42
2.0
 43
2.0
 50
90.0
  0
MTEXT
  5
7A80
330
7A08
100
AcDbEntity
  8
30
  6
Continuous
 62
     0
440
 16777216
100
AcDbMText
 10
274.3783743091888
 20
745.3600769945633
 30
0.0
 40
6.0
 41
0.0
 46
0.0
 71
     5
 72
     1
  1
\A1;157
 11
0.0000000000000001
 21
1.0
 31
0.0
 73
     1
 44
1.0
 90
        3
 63
     9
421
 13158600
 45
1.1
441
        0
  0
POINT
  5
7A81
330
7A08
100
AcDbEntity
  8
Defpoints
  6
Continuous
 62
     0
440
 16777216
100
AcDbPoint
 10
191.7985274184923
 20
666.8628123094811
 30
0.0
  0
POINT
  5
7A82
330
7A08
100
AcDbEntity
  8
Defpoints
  6
Continuous
 62
     0
440
 16777216
100
AcDbPoint
 10
154.7890441510245
 20
823.8573409644457
 30
0.0
  0
POINT
  5
7A83
330
7A08
100
AcDbEntity
  8
Defpoints
  6
Continuous
 62
     0
440
 16777216
100
AcDbPoint
 10
279.378374309189
 20
823.8573409644457
 30
0.0
  0
ENDBLK
  5
7A0A
330
7A08
100
AcDbEntity
  8
0
100
AcDbBlockEnd
  0
BLOCK
  5
7A15
330
7A14
100
AcDbEntity
  8
0
100
AcDbBlockBegin
  2
*D40
 70
     1
 10
0.0
 20
0.0
 30
0.0
  3
*D40
  1

  0
LINE
  5
7A44
330
7A14
100
AcDbEntity
  8
30
  6
Continuous
 62
     0
440
 16777216
370
    -2
100
AcDbLine
 10
178.9912133060827
 20
823.8573409644457
 30
0.0
 11
176.3938648525582
 21
823.8573409644457
 31
0.0
  0
LINE
  5
7A45
330
7A14
100
AcDbEntity
  8
30
  6
Continuous
 62
     0
440
 16777216
370
    -2
100
AcDbLine
 10
161.7422050265745
 20
808.8573409644459
 30
0.0
 11
177.3938648525582
 21
808.8573409644459
 31
0.0
  0
LINE
  5
7A46
330
7A14
100
AcDbEntity
  8
30
  6
Continuous
 62
     0
440
 16777216
370
    -2
100
AcDbLine
 10
176.8938648525582
 20
821.8573409644458
 30
0.0
 11
176.8938648525582
 21
810.8573409644456
 31
0.0
  0
INSERT
  5
7A47
330
7A14
100
AcDbEntity
  8
30
  6
Continuous
 62
     0
440
 16777216
370
    -2
100
AcDbBlockReference
  2
_OPEN
 10
176.8938648525582
 20
823.8573409644457
 30
0.0
 41
2.0
 42
2.0
 43
2.0
 50
90.0
  0
INSERT
  5
7A48
330
7A14
100
AcDbEntity
  8
30
  6
Continuous
 62
     0
440
 16777216
370
    -2
100
AcDbBlockReference
  2
_OPEN
 10
176.8938648525582
 20
808.8573409644459
 30
0.0
 41
2.0
 42
2.0
 43
2.0
 50
270.0
  0
MTEXT
  5
7A49
330
7A14
100
AcDbEntity
  8
30
  6
Continuous
 62
     0
440
 16777216
100
AcDbMText
 10
171.8938648525579
 20
816.3573409644456
 30
0.0
 40
6.0
 41
0.0
 46
0.0
 71
     5
 72
     1
  1
\A1;15
 11
0.0000000000000001
 21
1.0
 31
0.0
 73
     1
 44
1.0
 90
        3
 63
     9
421
 13158600
 45
1.1
441
        0
  0
POINT
  5
7A4A
330
7A14
100
AcDbEntity
  8
Defpoints
  6
Continuous
 62
     0
440
 16777216
100
AcDbPoint
 10
179.9912133060827
 20
823.8573409644457
 30
0.0
  0
POINT
  5
7A4B
330
7A14
100
AcDbEntity
  8
Defpoints
  6
Continuous
 62
     0
440
 16777216
100
AcDbPoint
 10
160.7422050265745
 20
808.8573409644459
 30
0.0
  0
POINT
  5
7A4C
330
7A14
100
AcDbEntity
  8
Defpoints
  6
Continuous
 62
     0
440
 16777216
100
AcDbPoint
 10
176.8938648525582
 20
808.8573409644459
 30
0.0
  0
ENDBLK
  5
7A16
330
7A14
100
AcDbEntity
  8
0
100
AcDbBlockEnd
  0
ENDSEC
  0
SECTION
  2
ENTITIES
  0
MTEXT
  5
557E
330
1F
100
AcDbEntity
  8
0
  6
Continuous
100
AcDbMText
 10
400.9590871256013
 20
798.9626202284945
 30
0.0
 40
8.0
 41
199.4837089439188
 46
0.0
 71
     1
 72
     5
  1
PS125-NF (60-125A) 3P FP\PPS50-PF (60-125A) 3P FP\PPS125-PF (60-125A) 3P FP\PPS125-NE (60-125A) 3P FP\PPS125-PE (60-125A) 3P FP
  7
STANDARD1
 73
     1
 44
1.0
  0
LWPOLYLINE
  5
65F2
330
1F
100
AcDbEntity
  8
10
  6
Continuous
100
AcDbPolyline
 90
        4
 70
     1
 43
0.0
 10
0.0
 20
891.0
 10
629.9999999999998
 20
891.0
 10
629.9999999999998
 20
0.0
 10
0.0
 20
0.0
  0
LINE
  5
68F7
330
1F
100
AcDbEntity
  8
16
 48
5.0
100
AcDbLine
 10
154.789044151025
 20
341.1223412665778
 30
0.0
 11
154.789044151025
 21
548.5542992433525
 31
0.0
  0
LINE
  5
68F8
330
1F
100
AcDbEntity
  8
16
 48
5.0
100
AcDbLine
 10
243.1523712690691
 20
442.9469413886693
 30
0.0
 11
70.88316236986749
 21
442.9469413886693
 31
0.0
  0
LINE
  5
68F9
330
1F
100
AcDbEntity
  8
16
 48
5.0
100
AcDbLine
 10
154.789044151025
 20
616.6422925969746
 30
0.0
 11
154.789044151025
 21
818.9980963871072
 31
0.0
  0
LINE
  5
68FA
330
1F
100
AcDbEntity
  8
16
 48
5.0
100
AcDbLine
 10
239.6958456353216
 20
162.0995473676344
 30
0.0
 11
73.85903641427295
 21
162.0995473676344
 31
0.0
  0
LINE
  5
68FB
330
1F
100
AcDbEntity
  8
16
 48
5.0
100
AcDbLine
 10
154.4089496158538
 20
64.34760760478865
 30
0.0
 11
154.4089496158538
 21
263.4829465771204
 31
0.0
  0
ARC
  5
68FD
330
1F
100
AcDbEntity
  8
10
  6
CONTINOUS
100
AcDbCircle
 10
227.289044151025
 20
352.9469413886693
 30
0.0
 40
6.000000000000111
100
AcDbArc
 50
270.0
 51
0.0
  0
ARC
  5
68FE
330
1F
100
AcDbEntity
  8
10
  6
CONTINOUS
100
AcDbCircle
 10
227.289044151025
 20
532.9469413886688
 30
0.0
 40
6.000000000000227
100
AcDbArc
 50
0.0
 51
90.0
  0
ARC
  5
68FF
330
1F
100
AcDbEntity
  8
10
  6
CONTINOUS
100
AcDbCircle
 10
82.28904415102498
 20
352.9469413886693
 30
0.0
 40
6.000000000000111
100
AcDbArc
 50
180.0
 51
270.0
  0
LINE
  5
6908
330
1F
100
AcDbEntity
  8
10
  6
CONTINOUS
100
AcDbLine
 10
82.28904623742494
 20
538.9469412098693
 30
0.0
 11
227.2890420650249
 21
538.9469412098693
 31
0.0
  0
LINE
  5
6909
330
1F
100
AcDbEntity
  8
10
  6
CONTINOUS
100
AcDbLine
 10
233.289046773825
 20
532.9469439518692
 30
0.0
 11
233.289046773825
 21
352.9469442498692
 31
0.0
  0
LINE
  5
690A
330
1F
100
AcDbEntity
  8
10
  6
CONTINOUS
100
AcDbLine
 10
227.2890420650249
 20
346.9469395410692
 30
0.0
 11
82.28904623742494
 21
346.9469395410692
 31
0.0
  0
LINE
  5
690B
330
1F
100
AcDbEntity
  8
10
  6
CONTINOUS
100
AcDbLine
 10
76.28904152862492
 20
352.9469442498692
 30
0.0
 11
76.28904152862492
 21
532.9469439518692
 31
0.0
  0
ARC
  5
690C
330
1F
100
AcDbEntity
  8
10
  6
CONTINOUS
100
AcDbCircle
 10
82.28904415102498
 20
532.9469413886688
 30
0.0
 40
6.000000000000111
100
AcDbArc
 50
90.0
 51
180.0
  0
LWPOLYLINE
  5
6943
330
1F
100
AcDbEntity
  8
10
  6
HIDDEN
100
AcDbPolyline
 90
        4
 70
     1
 43
0.0
 10
109.789044151025
 20
377.9469413886693
 10
109.789044151025
 20
507.9469413886691
 10
199.789044151025
 20
507.9469413886691
 10
199.789044151025
 20
377.9469413886693
  0
LINE
  5
6948
330
1F
100
AcDbEntity
  8
0
  6
SLD-実線
 62
     7
370
    30
100
AcDbLine
 10
116.1855520698249
 20
650.3628201474811
 30
0.0
 11
116.185529718225
 21
650.3615609990811
 31
0.0
  0
CIRCLE
  5
6949
330
1F
100
AcDbEntity
  8
10
  6
CONTINOUS
100
AcDbCircle
 10
116.289044151025
 20
659.8628170478811
 30
0.0
 40
2.399999999999977
  0
CIRCLE
  5
694A
330
1F
100
AcDbEntity
  8
10
  6
CONTINOUS
100
AcDbCircle
 10
193.289044151025
 20
659.8628170478811
 30
0.0
 40
2.399999999999977
  0
CIRCLE
  5
694B
330
1F
100
AcDbEntity
  8
10
  6
CONTINOUS
100
AcDbCircle
 10
187.789044151025
 20
659.8628170478811
 30
0.0
 40
2.399999999999977
  0
CIRCLE
  5
694C
330
1F
100
AcDbEntity
  8
10
  6
CONTINOUS
100
AcDbCircle
 10
121.789044151025
 20
659.8628170478811
 30
0.0
 40
2.399999999999863
  0
LWPOLYLINE
  5
694D
330
1F
100
AcDbEntity
  8
24
  6
CONTINOUS
100
AcDbPolyline
 90
        6
 70
     0
 43
0.0
 10
137.7890432274249
 20
724.9628170550811
 10
137.7890432274249
 20
728.532816997481
 10
138.2890442406249
 20
729.0328170794809
 10
141.2890438010249
 20
729.0328170794809
 10
141.789043883025
 20
728.532816997481
 10
141.789043883025
 20
724.9628170550811
  0
ARC
  5
6959
330
1F
100
AcDbEntity
  8
24
  6
CONTINOUS
100
AcDbCircle
 10
141.7683592758159
 20
737.6521852128119
 30
0.0
 40
7.322967530982105
100
AcDbArc
 50
359.3007573680306
 51
36.24164990806953
  0
ARC
  5
695A
330
1F
100
AcDbEntity
  8
24
  6
CONTINOUS
100
AcDbCircle
 10
167.808917157486
 20
737.6526025058722
 30
0.0
 40
7.322066034963969
100
AcDbArc
 50
143.7572279264246
 51
180.7025943248089
  0
LINE
  5
695B
330
1F
100
AcDbEntity
  8
24
  6
CONTINOUS
100
AcDbLine
 10
147.6745578478249
 20
741.9814660834811
 30
0.0
 11
146.529685335425
 21
743.5417331446809
 31
0.0
  0
LINE
  5
695C
330
1F
100
AcDbEntity
  8
24
  6
CONTINOUS
100
AcDbLine
 10
163.0484029670249
 20
743.5417331446809
 30
0.0
 11
161.9035304542249
 21
741.9814660834811
 31
0.0
  0
ARC
  5
695D
330
1F
100
AcDbEntity
  8
24
  6
CONTINOUS
100
AcDbCircle
 10
147.9856905694249
 20
744.5322229834807
 30
0.0
 40
1.756269579941686
100
AcDbArc
 50
173.9994519955006
 51
214.0510857583008
  0
SPLINE
  5
695E
330
1F
100
AcDbEntity
  8
24
  6
CONTINOUS
100
AcDbSpline
210
0.0
220
0.0
230
1.0
 70
     8
 71
     3
 72
    17
 73
    13
 74
     0
 42
0.000000001
 43
0.0000000001
 40
0.0
 40
0.0
 40
0.0
 40
0.0
 40
0.4568458165979526
 40
0.6045104364765149
 40
0.6571052795533621
 40
0.6993807138312427
 40
0.7351086934353562
 40
0.7685357788800653
 40
0.8032689738584441
 40
0.8413434014159244
 40
0.9286060915954696
 40
1.0
 40
1.0
 40
1.0
 40
1.0
 10
163.3390445281285
 20
744.7158198494705
 30
0.0
 10
163.3387744641418
 20
744.6245899795374
 30
0.0
 10
163.3384171083501
 20
744.5038722089253
 30
0.0
 10
163.3395706718534
 20
744.4009095350722
 30
0.0
 10
163.3354031881616
 20
744.3194652221242
 30
0.0
 10
163.3290763761797
 20
744.2540911045892
 30
0.0
 10
163.3172907790721
 20
744.1751151287567
 30
0.0
 10
163.2983523266681
 20
744.0848279662747
 30
0.0
 10
163.2718056642488
 20
743.9883948580859
 30
0.0
 10
163.2233011408382
 20
743.8496072559147
 30
0.0
 10
163.1524303312765
 20
743.6949609864439
 30
0.0
 10
163.0800843611686
 20
743.594211019851
 30
0.0
 10
163.0475293864029
 20
743.5488745261224
 30
0.0
  0
LWPOLYLINE
  5
695F
330
1F
100
AcDbEntity
  8
24
  6
CONTINOUS
100
AcDbPolyline
 90
        4
 70
     0
 43
0.0
 10
176.7390450482249
 20
722.362817047881
 10
177.0043602234249
 20
737.562817304281
 10
192.5737286006249
 20
737.562817304281
 10
192.839043775425
 20
722.362817047881
  0
LWPOLYLINE
  5
6960
330
1F
100
AcDbEntity
  8
24
  6
CONTINOUS
100
AcDbPolyline
 90
        4
 70
     0
 43
0.0
 10
116.739044526625
 20
722.362817047881
 10
117.004359701825
 20
737.562817304281
 10
132.5737280790248
 20
737.562817304281
 10
132.8390432542248
 20
722.362817047881
  0
LWPOLYLINE
  5
6961
330
1F
100
AcDbEntity
  8
24
  6
CONTINOUS
100
AcDbPolyline
 90
        4
 70
     0
 43
0.0
 10
146.7844272050249
 20
724.9628170550811
 10
147.0043613594249
 20
737.562817304281
 10
162.5737269426248
 20
737.562817304281
 10
162.7936610970249
 20
724.9628170550811
  0
LWPOLYLINE
  5
6962
330
1F
100
AcDbEntity
  8
10
  6
CONTINOUS
100
AcDbPolyline
 90
        4
 70
     0
 43
0.0
 10
161.2890445012273
 20
644.151159345081
 10
161.289044151025
 20
628.895312017481
 42
-0.4129361512865498
 10
160.791225805676
 20
628.3953167771207
 10
148.7872988006248
 20
628.436417101881
  0
LINE
  5
6965
330
1F
100
AcDbEntity
  8
10
  6
CONTINOUS
100
AcDbLine
 10
132.7936603959489
 20
724.962817055081
 30
0.0
 11
176.7844279065009
 21
724.9628170550811
 31
0.0
  0
LINE
  5
6966
330
1F
100
AcDbEntity
  8
10
  6
CONTINOUS
100
AcDbLine
 10
99.28904343582495
 20
722.362817047881
 30
0.0
 11
97.289043108225
 21
722.362817047881
 31
0.0
  0
LINE
  5
6967
330
1F
100
AcDbEntity
  8
10
  6
CONTINOUS
100
AcDbLine
 10
97.289043108225
 20
724.9628170550811
 30
0.0
 11
99.28904343582495
 21
724.9628170550811
 31
0.0
  0
LINE
  5
6968
330
1F
100
AcDbEntity
  8
10
  6
CONTINOUS
100
AcDbLine
 10
99.28904343582495
 20
722.362817047881
 30
0.0
 11
112.883000263825
 21
722.362817047881
 31
0.0
  0
LINE
  5
6969
330
1F
100
AcDbEntity
  8
10
  6
CONTINOUS
100
AcDbLine
 10
99.28904343582495
 20
724.9628170550811
 30
0.0
 11
116.7844260130249
 21
724.9628170550811
 31
0.0
  0
LINE
  5
696A
330
1F
100
AcDbEntity
  8
10
  6
CONTINOUS
100
AcDbLine
 10
199.3752640576646
 20
673.312817483081
 30
0.0
 11
110.2028242447001
 21
673.312817483081
 31
0.0
  0
LWPOLYLINE
  5
696B
330
1F
100
AcDbEntity
  8
10
  6
CONTINOUS
100
AcDbPolyline
 90
        6
 70
     0
 43
0.0
 10
143.7890442106248
 20
650.3628201474811
 10
143.8615281585258
 20
644.9404662072484
 42
0.4103039084504604
 10
144.6614566908356
 20
644.151159345081
 10
164.9210448242337
 20
644.151159345081
 42
0.410541630299924
 10
165.7209817937796
 20
644.9411171962196
 10
165.7890440914249
 20
650.3628201474811
  0
LINE
  5
696D
330
1F
100
AcDbEntity
  8
10
  6
CONTINOUS
100
AcDbLine
 10
179.1085364314249
 20
709.6858655726808
 30
0.0
 11
170.739044064625
 21
709.6858655726808
 31
0.0
  0
LINE
  5
696E
330
1F
100
AcDbEntity
  8
10
  6
CONTINOUS
100
AcDbLine
 10
199.3476549532346
 20
709.6858655726808
 30
0.0
 11
179.1085364314249
 21
709.6858655726808
 31
0.0
  0
LINE
  5
6973
330
1F
100
AcDbEntity
  8
10
  6
CONTINOUS
100
AcDbLine
 10
138.839044237425
 20
709.6858655726808
 30
0.0
 11
130.4695518706248
 21
709.6858655726808
 31
0.0
  0
LINE
  5
6974
330
1F
100
AcDbEntity
  8
10
  6
CONTINOUS
100
AcDbLine
 10
137.677409315425
 20
684.1011836814811
 30
0.0
 11
137.630336547425
 21
673.312817483081
 31
0.0
  0
LINE
  5
6975
330
1F
100
AcDbEntity
  8
10
  6
CONTINOUS
100
AcDbLine
 10
138.7320110594249
 20
685.155783562681
 30
0.0
 11
137.677409315425
 21
684.1011836814811
 31
0.0
  0
LINE
  5
6978
330
1F
100
AcDbEntity
  8
10
  6
CONTINOUS
100
AcDbLine
 10
171.9006789866249
 20
684.1011836814811
 30
0.0
 11
170.846077243025
 21
685.155783562681
 31
0.0
  0
LINE
  5
6979
330
1F
100
AcDbEntity
  8
10
  6
CONTINOUS
100
AcDbLine
 10
171.9477517550249
 20
673.312817483081
 30
0.0
 11
171.9006789866249
 21
684.1011836814811
 31
0.0
  0
LINE
  5
697C
330
1F
100
AcDbEntity
  8
10
  6
CONTINOUS
100
AcDbLine
 10
141.9006787258249
 20
684.1011836814811
 30
0.0
 11
140.8460779134249
 21
685.155783562681
 31
0.0
  0
LINE
  5
697D
330
1F
100
AcDbEntity
  8
10
  6
CONTINOUS
100
AcDbLine
 10
141.947752425425
 20
673.312817483081
 30
0.0
 11
141.9006787258249
 21
684.1011836814811
 31
0.0
  0
LINE
  5
697E
330
1F
100
AcDbEntity
  8
10
  6
CONTINOUS
100
AcDbLine
 10
167.6774095762249
 20
684.1011836814811
 30
0.0
 11
167.6303358766249
 21
673.312817483081
 31
0.0
  0
LINE
  5
697F
330
1F
100
AcDbEntity
  8
10
  6
CONTINOUS
100
AcDbLine
 10
168.732010388625
 20
685.155783562681
 30
0.0
 11
167.6774095762249
 21
684.1011836814811
 31
0.0
  0
LINE
  5
6980
330
1F
100
AcDbEntity
  8
10
  6
CONTINOUS
100
AcDbLine
 10
197.404815444625
 20
714.3495835054808
 30
0.0
 11
199.3453511682599
 21
712.7209398136837
 31
0.0
  0
LINE
  5
6981
330
1F
100
AcDbEntity
  8
10
  6
CONTINOUS
100
AcDbLine
 10
197.226213851825
 20
714.730423657881
 30
0.0
 11
197.1950853262249
 21
721.8649987054813
 31
0.0
  0
SPLINE
  5
6982
330
1F
100
AcDbEntity
  8
10
  6
CONTINOUS
100
AcDbSpline
210
0.0
220
0.0
230
1.0
 70
     8
 71
     3
 72
    11
 73
     7
 74
     0
 42
0.000000001
 43
0.0000000001
 40
0.0
 40
0.0
 40
0.0
 40
0.0
 40
0.2500006708655172
 40
0.4999998424741214
 40
0.7499982410954682
 40
1.0
 40
1.0
 40
1.0
 40
1.0
 10
197.1950853262561
 20
721.864998705523
 30
0.0
 10
197.1873257834073
 20
721.9303017965472
 30
0.0
 10
197.1718067442436
 20
722.0609075869722
 30
0.0
 10
197.0560779076561
 20
722.2253847993863
 30
0.0
 10
196.8910979553457
 20
722.3403979386326
 30
0.0
 10
196.7604249700256
 20
722.3553439780174
 30
0.0
 10
196.6950880382673
 20
722.362817047933
 30
0.0
  0
LINE
  5
6983
330
1F
100
AcDbEntity
  8
10
  6
CONTINOUS
100
AcDbLine
 10
170.5390444046249
 20
684.666984497481
 30
0.0
 11
169.0390441586249
 21
684.666984497481
 31
0.0
  0
LINE
  5
6984
330
1F
100
AcDbEntity
  8
10
  6
CONTINOUS
100
AcDbLine
 10
170.5390444046249
 20
684.666984497481
 30
0.0
 11
170.5390444046249
 21
709.6858655726808
 31
0.0
  0
LINE
  5
6985
330
1F
100
AcDbEntity
  8
10
  6
CONTINOUS
100
AcDbLine
 10
169.0390441586249
 20
684.666984497481
 30
0.0
 11
169.0390441586249
 21
709.6858655726808
 31
0.0
  0
LINE
  5
6986
330
1F
100
AcDbEntity
  8
10
  6
CONTINOUS
100
AcDbLine
 10
140.539044143825
 20
684.666984497481
 30
0.0
 11
139.0390438978249
 21
684.666984497481
 31
0.0
  0
LINE
  5
6987
330
1F
100
AcDbEntity
  8
10
  6
CONTINOUS
100
AcDbLine
 10
139.0390438978249
 20
684.666984497481
 30
0.0
 11
139.0390438978249
 21
709.6858655726808
 31
0.0
  0
LINE
  5
6988
330
1F
100
AcDbEntity
  8
10
  6
CONTINOUS
100
AcDbLine
 10
140.539044143825
 20
684.666984497481
 30
0.0
 11
140.539044143825
 21
709.6858655726808
 31
0.0
  0
LINE
  5
6989
330
1F
100
AcDbEntity
  8
10
  6
CONTINOUS
100
AcDbLine
 10
139.0390438978249
 20
709.6858655726808
 30
0.0
 11
139.0390438978249
 21
722.362817047881
 31
0.0
  0
LINE
  5
698A
330
1F
100
AcDbEntity
  8
10
  6
CONTINOUS
100
AcDbLine
 10
140.539044143825
 20
709.6858655726808
 30
0.0
 11
140.539044143825
 21
722.362817047881
 31
0.0
  0
LINE
  5
698B
330
1F
100
AcDbEntity
  8
10
  6
CONTINOUS
100
AcDbLine
 10
169.0390441586249
 20
709.6858655726808
 30
0.0
 11
169.0390441586249
 21
722.362817047881
 31
0.0
  0
LINE
  5
698C
330
1F
100
AcDbEntity
  8
10
  6
CONTINOUS
100
AcDbLine
 10
170.5390444046249
 20
709.6858655726808
 30
0.0
 11
170.5390444046249
 21
722.362817047881
 31
0.0
  0
LINE
  5
698D
330
1F
100
AcDbEntity
  8
10
  6
CONTINOUS
100
AcDbLine
 10
170.5390444046249
 20
683.644682883081
 30
0.0
 11
169.0390441586249
 21
683.644682883081
 31
0.0
  0
LINE
  5
698E
330
1F
100
AcDbEntity
  8
10
  6
CONTINOUS
100
AcDbLine
 10
169.0390441586249
 20
683.644682883081
 30
0.0
 11
169.0390441586249
 21
684.666984497481
 31
0.0
  0
LINE
  5
698F
330
1F
100
AcDbEntity
  8
10
  6
CONTINOUS
100
AcDbLine
 10
170.5390444046249
 20
683.644682883081
 30
0.0
 11
170.5390444046249
 21
684.666984497481
 31
0.0
  0
LINE
  5
6990
330
1F
100
AcDbEntity
  8
10
  6
CONTINOUS
100
AcDbLine
 10
140.539044143825
 20
683.644682883081
 30
0.0
 11
139.0390438978249
 21
683.644682883081
 31
0.0
  0
LINE
  5
6991
330
1F
100
AcDbEntity
  8
10
  6
CONTINOUS
100
AcDbLine
 10
139.0390438978249
 20
683.644682883081
 30
0.0
 11
139.0390438978249
 21
684.666984497481
 31
0.0
  0
LINE
  5
6992
330
1F
100
AcDbEntity
  8
10
  6
CONTINOUS
100
AcDbLine
 10
140.539044143825
 20
683.644682883081
 30
0.0
 11
140.539044143825
 21
684.666984497481
 31
0.0
  0
SPLINE
  5
6993
330
1F
100
AcDbEntity
  8
10
  6
CONTINOUS
100
AcDbSpline
210
0.0
220
0.0
230
1.0
 70
     8
 71
     3
 72
     9
 73
     5
 74
     0
 42
0.000000001
 43
0.0000000001
 40
0.0
 40
0.0
 40
0.0
 40
0.0
 40
0.4574472827388937
 40
1.0
 40
1.0
 40
1.0
 40
1.0
 10
197.2262138519902
 20
714.7304236579927
 30
0.0
 10
197.2340381178266
 20
714.6692245786197
 30
0.0
 10
197.2511423091321
 20
714.5354406833337
 30
0.0
 10
197.3029089568381
 20
714.4647062832311
 30
0.0
 10
197.4048154446988
 20
714.3495835053649
 30
0.0
  0
LINE
  5
6994
330
1F
100
AcDbEntity
  8
10
  6
CONTINOUS
100
AcDbLine
 10
199.3801599562678
 20
666.8628163326807
 30
0.0
 11
199.33803246363
 21
722.362817047881
 31
0.0
  0
CIRCLE
  5
6995
330
1F
100
AcDbEntity
  8
10
  6
CONTINOUS
100
AcDbCircle
 10
116.289044151025
 20
659.8628170478811
 30
0.0
 40
0.7250000000000229
  0
CIRCLE
  5
6996
330
1F
100
AcDbEntity
  8
10
  6
CONTINOUS
100
AcDbCircle
 10
193.289044151025
 20
659.8628170478811
 30
0.0
 40
0.7250000000000229
  0
CIRCLE
  5
6997
330
1F
100
AcDbEntity
  8
10
  6
CONTINOUS
100
AcDbCircle
 10
187.789044151025
 20
659.8628170478811
 30
0.0
 40
0.7250000000000229
  0
CIRCLE
  5
6998
330
1F
100
AcDbEntity
  8
10
  6
CONTINOUS
100
AcDbCircle
 10
121.789044151025
 20
659.8628170478811
 30
0.0
 40
0.7249999999999092
  0
LINE
  5
6999
330
1F
100
AcDbEntity
  8
10
  6
CONTINOUS
100
AcDbLine
 10
93.68904415102509
 20
726.7628170478807
 30
0.0
 11
93.68904549822502
 21
666.8628163326807
 31
0.0
  0
LINE
  5
699A
330
1F
100
AcDbEntity
  8
10
  6
CONTINOUS
100
AcDbLine
 10
95.28904278022492
 20
666.8628163326807
 30
0.0
 11
95.289044151025
 21
726.7628170478807
 31
0.0
  0
ARC
  5
699B
330
1F
100
AcDbEntity
  8
10
  6
CONTINOUS
100
AcDbCircle
 10
95.48904415102503
 20
726.7628170478807
 30
0.0
 40
0.1999999999999888
100
AcDbArc
 50
90.0
 51
180.0
  0
ARC
  5
699C
330
1F
100
AcDbEntity
  8
10
  6
CONTINOUS
100
AcDbCircle
 10
95.48904415102503
 20
726.7628170478807
 30
0.0
 40
1.799999999999954
100
AcDbArc
 50
90.0
 51
180.0
  0
LINE
  5
699D
330
1F
100
AcDbEntity
  8
10
  6
CONTINOUS
100
AcDbLine
 10
116.8472642098248
 20
728.5628172258807
 30
0.0
 11
95.48904244062487
 21
728.5628172258807
 31
0.0
  0
LINE
  5
699E
330
1F
100
AcDbEntity
  8
10
  6
CONTINOUS
100
AcDbLine
 10
116.8193357086249
 20
726.9628171498811
 30
0.0
 11
95.48904244062487
 21
726.9628171498811
 31
0.0
  0
LINE
  5
699F
330
1F
100
AcDbEntity
  8
10
  6
CONTINOUS
100
AcDbLine
 10
97.289043108225
 20
726.9628171498811
 30
0.0
 11
116.8193357086249
 21
726.9628171498811
 31
0.0
  0
LINE
  5
69A0
330
1F
100
AcDbEntity
  8
10
  6
CONTINOUS
100
AcDbLine
 10
97.289043108225
 20
722.362817047881
 30
0.0
 11
97.289043108225
 21
726.9628171498811
 31
0.0
  0
LINE
  5
69A1
330
1F
100
AcDbEntity
  8
24
  6
CONTINOUS
100
AcDbLine
 10
137.7890432274249
 20
728.532816997481
 30
0.0
 11
141.789043883025
 21
728.532816997481
 31
0.0
  0
LINE
  5
69A2
330
1F
100
AcDbEntity
  8
24
  6
CONTINOUS
100
AcDbLine
 10
132.639043593825
 20
745.062817602281
 30
0.0
 11
116.789044186625
 21
745.062817602281
 31
0.0
  0
LINE
  5
69A3
330
1F
100
AcDbEntity
  8
24
  6
CONTINOUS
100
AcDbLine
 10
132.639043593825
 20
745.0761485534806
 30
0.0
 11
132.6390435938258
 21
743.5538068104778
 31
0.0
  0
LWPOLYLINE
  5
69AA
330
1F
100
AcDbEntity
  8
24
  6
CONTINOUS
100
AcDbPolyline
 90
        4
 70
     0
 43
0.0
 10
146.2390437741296
 20
744.7158179868254
 10
146.2390437742249
 20
785.6628156890811
 10
163.339044528225
 20
785.6628156890811
 10
163.339044528225
 20
744.4135619833375
  0
LWPOLYLINE
  5
69B7
330
1F
100
AcDbEntity
  8
10
  6
CONTINOUS
100
AcDbPolyline
 90
        3
 70
     0
 43
0.0
 10
148.28904380067
 20
644.151159345081
 10
148.2890441510249
 20
628.936412973881
 42
0.4131915413381155
 10
148.7872988253174
 20
628.4364160200521
  0
LINE
  5
69B8
330
1F
100
AcDbEntity
  8
24
  6
CONTINOUS
100
AcDbLine
 10
149.0890440550249
 20
737.6628171342811
 30
0.0
 11
160.486851122522
 21
737.6526025058722
 31
0.0
  0
LINE
  5
69BB
330
1F
100
AcDbEntity
  8
0
  6
SLD-実線
 62
     8
370
     0
100
AcDbLine
 10
160.6890443730249
 20
630.0338290322811
 30
0.0
 11
160.7912258262248
 21
630.033910988681
 31
0.0
  0
LINE
  5
69BC
330
1F
100
AcDbEntity
  8
24
  6
DIVIDE
 48
3.0
100
AcDbLine
 10
59.993681677425
 20
667.3628170478811
 30
0.0
 11
245.2066201698249
 21
667.3628170478811
 31
0.0
  0
LINE
  5
69BD
330
1F
100
AcDbEntity
  8
24
  6
DIVIDE
 48
3.0
100
AcDbLine
 10
59.993681677425
 20
671.3628170478811
 30
0.0
 11
245.2066201698249
 21
671.3628170478811
 31
0.0
  0
LINE
  5
69BE
330
1F
100
AcDbEntity
  8
10
  6
CONTINOUS
100
AcDbLine
 10
211.289043167425
 20
728.5628172258807
 30
0.0
 11
211.289043167425
 21
729.5628169242811
 31
0.0
  0
LINE
  5
69BF
330
1F
100
AcDbEntity
  8
10
  6
CONTINOUS
100
AcDbLine
 10
201.289045253425
 20
729.5628169242811
 30
0.0
 11
201.289045253425
 21
728.5628172258807
 31
0.0
  0
LINE
  5
69C0
330
1F
100
AcDbEntity
  8
10
  6
CONTINOUS
100
AcDbLine
 10
210.8890438470252
 20
729.5628169242811
 30
0.0
 11
210.889043847025
 21
730.8628175098806
 31
0.0
  0
LWPOLYLINE
  5
69C1
330
1F
100
AcDbEntity
  8
10
  6
CONTINOUS
100
AcDbPolyline
 90
        4
 70
     0
 43
0.0
 10
201.539045760225
 20
732.3062920634811
 10
201.539045760225
 20
730.8628175098806
 10
211.0390426606251
 20
730.8628175098806
 10
211.0390426606251
 20
732.3062920634811
  0
LWPOLYLINE
  5
69C2
330
1F
100
AcDbEntity
  8
10
  6
CONTINOUS
100
AcDbPolyline
 90
        5
 70
     0
 43
0.0
 10
211.0390441510251
 20
732.3062916058811
 42
0.2633131761903178
 10
210.4084471361009
 20
733.4206971173012
 42
0.1360605493281584
 10
206.289044151025
 20
734.562817047881
 42
0.1360605493358075
 10
202.1696411659501
 20
733.4206971171616
 42
0.263313176190318
 10
201.5390441510249
 20
732.3062916058811
  0
LINE
  5
69C3
330
1F
100
AcDbEntity
  8
10
  6
CONTINOUS
100
AcDbLine
 10
210.289044866225
 20
722.362817047881
 30
0.0
 11
212.289045193825
 21
722.362817047881
 31
0.0
  0
LINE
  5
69C4
330
1F
100
AcDbEntity
  8
10
  6
CONTINOUS
100
AcDbLine
 10
212.289045193825
 20
724.9628170550811
 30
0.0
 11
210.289044866225
 21
724.9628170550811
 31
0.0
  0
LINE
  5
69C5
330
1F
100
AcDbEntity
  8
10
  6
CONTINOUS
100
AcDbLine
 10
210.289044866225
 20
722.362817047881
 30
0.0
 11
97.289043108225
 21
722.362817047881
 31
0.0
  0
LINE
  5
69C6
330
1F
100
AcDbEntity
  8
10
  6
CONTINOUS
100
AcDbLine
 10
210.289044866225
 20
724.9628170550811
 30
0.0
 11
192.793662289025
 21
724.9628170550811
 31
0.0
  0
LINE
  5
69C7
330
1F
100
AcDbEntity
  8
10
  6
CONTINOUS
100
AcDbLine
 10
201.289045253425
 20
729.5628169242811
 30
0.0
 11
211.289043167425
 21
729.5628169242811
 31
0.0
  0
ELLIPSE
  5
69C8
330
1F
100
AcDbEntity
  8
10
  6
CONTINOUS
100
AcDbEllipse
 10
206.289044151025
 20
731.2361485878811
 30
0.0
 11
0.0
 21
-12.63839612949135
 31
0.0
210
0.0
220
0.0
230
1.0
 40
0.3639702343
 41
4.741932712748464
 42
4.845179527289683
  0
LINE
  5
69C9
330
1F
100
AcDbEntity
  8
10
  6
CONTINOUS
100
AcDbLine
 10
215.8890441510249
 20
726.7628170478807
 30
0.0
 11
215.889042803825
 21
666.8628163326807
 31
0.0
  0
LINE
  5
69CA
330
1F
100
AcDbEntity
  8
10
  6
CONTINOUS
100
AcDbLine
 10
214.2890455218251
 20
666.8628163326807
 30
0.0
 11
214.289044151025
 21
726.7628170478807
 31
0.0
  0
ARC
  5
69CB
330
1F
100
AcDbEntity
  8
10
  6
CONTINOUS
100
AcDbCircle
 10
214.0890441510249
 20
726.7628170478807
 30
0.0
 40
0.1999999999999888
100
AcDbArc
 50
0.0
 51
90.0
  0
ARC
  5
69CC
330
1F
100
AcDbEntity
  8
10
  6
CONTINOUS
100
AcDbCircle
 10
214.0890441510249
 20
726.7628170478807
 30
0.0
 40
1.799999999999954
100
AcDbArc
 50
0.0
 51
90.0
  0
LINE
  5
69CD
330
1F
100
AcDbEntity
  8
10
  6
CONTINOUS
100
AcDbLine
 10
192.7308240922251
 20
728.5628172258807
 30
0.0
 11
214.0890458614251
 21
728.5628172258807
 31
0.0
  0
LINE
  5
69CE
330
1F
100
AcDbEntity
  8
10
  6
CONTINOUS
100
AcDbLine
 10
192.758752593425
 20
726.9628171498811
 30
0.0
 11
214.0890458614251
 21
726.9628171498811
 31
0.0
  0
LINE
  5
69CF
330
1F
100
AcDbEntity
  8
10
  6
CONTINOUS
100
AcDbLine
 10
212.289045193825
 20
726.9628171498811
 30
0.0
 11
192.758752593425
 21
726.9628171498811
 31
0.0
  0
LINE
  5
69D0
330
1F
100
AcDbEntity
  8
10
  6
CONTINOUS
100
AcDbLine
 10
212.289045193825
 20
722.362817047881
 30
0.0
 11
212.289045193825
 21
726.9628171498811
 31
0.0
  0
DIMENSION
  5
69D2
330
1F
100
AcDbEntity
  8
30
  6
Continuous
100
AcDbDimension
280
     0
  2
*D15
 10
154.789044151025
 20
852.5628376634811
 30
0.0
 11
169.789044151025
 21
852.5628376634811
 31
0.0
 70
   160
  1
<>
 71
     2
 42
30.0
 73
     0
 74
     0
 75
     0
  3
STANDARD
100
AcDbAlignedDimension
 13
184.789044151025
 23
764.312817047881
 33
0.0
 14
154.789044151025
 24
817.9980963871068
 34
0.0
 50
180.0
100
AcDbRotatedDimension
1001
ACAD
1000
DSTYLE
1002
{
1070
    79
1070
     3
1002
}
  0
LWPOLYLINE
  5
69D3
330
1F
100
AcDbEntity
  8
24
  6
CONTINOUS
100
AcDbPolyline
 90
        6
 70
     0
 43
0.0
 10
167.7890439538249
 20
724.9628170550811
 10
167.7890439538249
 20
728.532816997481
 10
168.2890449670249
 20
729.0328170794809
 10
171.2890445274249
 20
729.0328170794809
 10
171.789044609425
 20
728.532816997481
 10
171.789044609425
 20
724.9628170550811
  0
LINE
  5
69D4
330
1F
100
AcDbEntity
  8
24
  6
CONTINOUS
100
AcDbLine
 10
167.7890439538249
 20
728.532816997481
 30
0.0
 11
171.789044609425
 21
728.532816997481
 31
0.0
  0
LINE
  5
69E2
330
1F
100
AcDbEntity
  8
10
  6
CONTINOUS
100
AcDbLine
 10
110.230433348995
 20
709.6858655725259
 30
0.0
 11
130.4695518708048
 21
709.6858655725908
 31
0.0
  0
LINE
  5
69EB
330
1F
100
AcDbEntity
  8
10
  6
CONTINOUS
100
AcDbLine
 10
112.1732728575873
 20
714.3495835053229
 30
0.0
 11
110.2327371339585
 21
712.7209398135184
 31
0.0
  0
LINE
  5
69EC
330
1F
100
AcDbEntity
  8
10
  6
CONTINOUS
100
AcDbLine
 10
112.3518744503859
 20
714.7304236577237
 30
0.0
 11
112.3830029759596
 21
721.8649987053238
 31
0.0
  0
SPLINE
  5
69ED
330
1F
100
AcDbEntity
  8
10
  6
CONTINOUS
100
AcDbSpline
210
0.0
220
0.0
230
1.0
 70
     8
 71
     3
 72
     9
 73
     5
 74
     0
 42
0.000000001
 43
0.0000000001
 40
0.0
 40
0.0
 40
0.0
 40
0.0
 40
0.4574472827388937
 40
1.0
 40
1.0
 40
1.0
 40
1.0
 10
112.3518744502207
 20
714.7304236578354
 30
0.0
 10
112.3440501843846
 20
714.6692245784625
 30
0.0
 10
112.3269459930795
 20
714.5354406831763
 30
0.0
 10
112.2751793453739
 20
714.4647062830736
 30
0.0
 10
112.1732728575135
 20
714.3495835052069
 30
0.0
  0
LINE
  5
69EE
330
1F
100
AcDbEntity
  8
10
  6
CONTINOUS
100
AcDbLine
 10
110.1979283461207
 20
666.8628163325156
 30
0.0
 11
110.2400558385526
 21
722.3628170477153
 31
0.0
  0
LINE
  5
6A08
330
1F
100
AcDbEntity
  8
10
  6
CONTINOUS
100
AcDbLine
 10
149.1085364314631
 20
709.6858655726808
 30
0.0
 11
140.7390440646631
 21
709.6858655726808
 31
0.0
  0
LINE
  5
6A09
330
1F
100
AcDbEntity
  8
10
  6
CONTINOUS
100
AcDbLine
 10
168.839044498225
 20
709.6858655726808
 30
0.0
 11
149.1085364314631
 21
709.6858655726808
 31
0.0
  0
LINE
  5
6A27
330
1F
100
AcDbEntity
  8
10
  6
CONTINOUS
100
AcDbLine
 10
98.28904513502493
 20
728.5628172258807
 30
0.0
 11
98.28904513502493
 21
729.5628169242811
 31
0.0
  0
LINE
  5
6A28
330
1F
100
AcDbEntity
  8
10
  6
CONTINOUS
100
AcDbLine
 10
108.2890430490249
 20
729.5628169242811
 30
0.0
 11
108.2890430490249
 21
728.5628172258807
 31
0.0
  0
LINE
  5
6A29
330
1F
100
AcDbEntity
  8
10
  6
CONTINOUS
100
AcDbLine
 10
98.68904445542481
 20
729.5628169242811
 30
0.0
 11
98.68904445542499
 21
730.8628175098806
 31
0.0
  0
LWPOLYLINE
  5
6A2A
330
1F
100
AcDbEntity
  8
10
  6
CONTINOUS
100
AcDbPolyline
 90
        4
 70
     0
 43
0.0
 10
108.0390425422249
 20
732.3062920634811
 10
108.0390425422249
 20
730.8628175098806
 10
98.53904564182485
 20
730.8628175098806
 10
98.53904564182485
 20
732.3062920634811
  0
LWPOLYLINE
  5
6A2B
330
1F
100
AcDbEntity
  8
10
  6
CONTINOUS
100
AcDbPolyline
 90
        5
 70
     0
 43
0.0
 10
98.53904415142485
 20
732.3062916058811
 42
-0.2633131761903178
 10
99.16964116634908
 20
733.4206971173012
 42
-0.1360605493281584
 10
103.2890441514249
 20
734.562817047881
 42
-0.1360605493358075
 10
107.4084471364998
 20
733.4206971171616
 42
-0.263313176190318
 10
108.039044151425
 20
732.3062916058811
  0
LINE
  5
6A2C
330
1F
100
AcDbEntity
  8
10
  6
CONTINOUS
100
AcDbLine
 10
108.2890430490249
 20
729.5628169242811
 30
0.0
 11
98.28904513502493
 21
729.5628169242811
 31
0.0
  0
ELLIPSE
  5
6A2D
330
1F
100
AcDbEntity
  8
10
  6
CONTINOUS
100
AcDbEllipse
 10
103.2890441514249
 20
731.2361485878811
 30
0.0
 11
0.0
 21
-12.63839612949135
 31
0.0
210
0.0
220
0.0
230
-1.0
 40
0.3639702343
 41
4.741932712748464
 42
4.845179527289683
  0
LINE
  5
6A2E
330
1F
100
AcDbEntity
  8
18
  6
DIVIDE
 48
5.0
100
AcDbLine
 10
82.40894961585377
 20
262.5995473676345
 30
0.0
 11
226.4089496158538
 21
262.5995473676345
 31
0.0
  0
LINE
  5
6A2F
330
1F
100
AcDbEntity
  8
18
  6
DIVIDE
 48
5.0
100
AcDbLine
 10
76.40894961585377
 20
256.5995473676345
 30
0.0
 11
76.40894961585377
 21
67.59954736763439
 31
0.0
  0
LINE
  5
6A30
330
1F
100
AcDbEntity
  8
18
  6
DIVIDE
 48
5.0
100
AcDbLine
 10
82.40894961585377
 20
61.59954736763438
 30
0.0
 11
226.4089496158538
 21
61.59954736763438
 31
0.0
  0
LINE
  5
6A31
330
1F
100
AcDbEntity
  8
18
  6
DIVIDE
 48
5.0
100
AcDbLine
 10
232.4089496158538
 20
256.5995473676345
 30
0.0
 11
232.4089496158538
 21
67.59954736763439
 31
0.0
  0
ARC
  5
6A32
330
1F
100
AcDbEntity
  8
18
  6
DIVIDE
 48
5.0
100
AcDbCircle
 10
82.40894961585377
 20
256.5995473676345
 30
0.0
 40
6.000000000000683
100
AcDbArc
 50
90.0
 51
180.0
  0
ARC
  5
6A33
330
1F
100
AcDbEntity
  8
18
  6
DIVIDE
 48
5.0
100
AcDbCircle
 10
82.40894961585377
 20
67.59954736763439
 30
0.0
 40
6.000000000000567
100
AcDbArc
 50
180.0
 51
270.0
  0
ARC
  5
6A34
330
1F
100
AcDbEntity
  8
18
  6
DIVIDE
 48
5.0
100
AcDbCircle
 10
226.4089496158538
 20
67.59954736763439
 30
0.0
 40
6.000000000000567
100
AcDbArc
 50
270.0
 51
0.0
  0
ARC
  5
6A35
330
1F
100
AcDbEntity
  8
18
  6
DIVIDE
 48
5.0
100
AcDbCircle
 10
226.4089496158538
 20
256.5995473676345
 30
0.0
 40
6.000000000000683
100
AcDbArc
 50
0.0
 51
90.0
  0
DIMENSION
  5
6A36
330
1F
100
AcDbEntity
  8
30
  6
Continuous
100
AcDbDimension
280
     0
  2
*D16
 10
91.40894961585377
 20
40.86132946840677
 30
0.0
 11
154.4089496158538
 21
40.86132946840677
 31
0.0
 70
   160
  1
<>
 71
     2
 42
126.0
 73
     0
 74
     0
 75
     0
  3
STANDARD
100
AcDbAlignedDimension
 13
217.4089496158538
 23
71.59954736763437
 33
0.0
 14
91.40894961585377
 24
71.59954736763437
 34
0.0
100
AcDbRotatedDimension
1001
ACAD
1000
DSTYLE
1002
{
1070
    79
1070
     3
1070
   140
1040
6.0
1002
}
  0
LWPOLYLINE
  5
6A37
330
1F
100
AcDbEntity
  8
10
  6
CONTINOUS
100
AcDbPolyline
 90
        4
 70
     0
 43
0.0
 10
112.8239544126248
 20
652.3628167498809
 10
112.858864108225
 20
650.3628201474811
 10
196.7192241942249
 20
650.3628201474811
 10
196.7541338894249
 20
652.3628167498809
  0
CIRCLE
  5
6A38
330
1F
100
AcDbEntity
  8
10
  6
HIDDEN2
 48
3.0
100
AcDbCircle
 10
86.78904285455756
 20
475.9469441008691
 30
0.0
 40
3.0
  0
CIRCLE
  5
6A39
330
1F
100
AcDbEntity
  8
10
  6
HIDDEN2
 48
3.0
100
AcDbCircle
 10
86.78904285455756
 20
409.9469441008691
 30
0.0
 40
3.0
  0
INSERT
  5
6A3A
330
1F
100
AcDbEntity
  8
10
  6
HIDDEN2
100
AcDbBlockReference
  2
SW_CENTERMARKSYMBOL_14
 10
86.78904285455756
 20
475.9469441008691
 30
0.0
 41
4.0
 42
4.0
 43
4.0
  0
INSERT
  5
6A3B
330
1F
100
AcDbEntity
  8
10
  6
HIDDEN2
100
AcDbBlockReference
  2
SW_CENTERMARKSYMBOL_15
 10
86.78904285455756
 20
409.9469441008691
 30
0.0
 41
4.0
 42
4.0
 43
4.0
  0
CIRCLE
  5
6A3C
330
1F
100
AcDbEntity
  8
10
  6
HIDDEN2
 48
3.0
100
AcDbCircle
 10
222.789044151025
 20
475.9469451140691
 30
0.0
 40
3.0
  0
CIRCLE
  5
6A3D
330
1F
100
AcDbEntity
  8
10
  6
HIDDEN2
 48
3.0
100
AcDbCircle
 10
222.789044151025
 20
409.9469451140691
 30
0.0
 40
3.0
  0
INSERT
  5
6A3E
330
1F
100
AcDbEntity
  8
10
  6
HIDDEN2
100
AcDbBlockReference
  2
SW_CENTERMARKSYMBOL_12
 10
222.789044151025
 20
409.9469451140691
 30
0.0
 41
4.0
 42
4.0
 43
4.0
  0
INSERT
  5
6A3F
330
1F
100
AcDbEntity
  8
10
  6
HIDDEN2
100
AcDbBlockReference
  2
SW_CENTERMARKSYMBOL_13
 10
222.789044151025
 20
475.9469451140691
 30
0.0
 41
4.0
 42
4.0
 43
4.0
  0
DIMENSION
  5
6A40
330
1F
100
AcDbEntity
  8
30
  6
Continuous
100
AcDbDimension
280
     0
  2
*D17
 10
76.28904152862492
 20
318.5244655751688
 30
0.0
 11
154.4064644629257
 21
318.5244655751688
 31
0.0
 70
   160
  1
<>
 71
     2
 42
157.0000052452001
 73
     0
 74
     0
 75
     0
  3
STANDARD
100
AcDbAlignedDimension
 13
233.289046773825
 23
353.8510555550695
 33
0.0
 14
76.28904152862492
 24
352.9469442498692
 34
0.0
100
AcDbRotatedDimension
1001
ACAD
1000
DSTYLE
1002
{
1070
    79
1070
     3
1002
}
  0
DIMENSION
  5
6A41
330
1F
100
AcDbEntity
  8
30
  6
Continuous
100
AcDbDimension
280
     0
  2
*D18
 10
280.4601122692302
 20
346.9469395410692
 30
0.0
 11
274.9601122692301
 21
442.9469403754692
 31
0.0
 70
    32
 71
     5
 42
192.0000016688001
 73
     0
 74
     0
 75
     0
  3
STANDARD
100
AcDbAlignedDimension
 13
202.3343553971858
 23
538.9469412098693
 33
0.0
 14
226.359227808822
 24
346.9469395410692
 34
0.0
 50
90.0
100
AcDbRotatedDimension
1001
ACAD
1000
DSTYLE
1002
{
1070
    79
1070
     3
1002
}
  0
LINE
  5
6A42
330
1F
100
AcDbEntity
  8
16
 48
5.0
100
AcDbLine
 10
449.9249662417696
 20
442.9469424018692
 30
0.0
 11
346.0823782555835
 21
442.9469424018692
 31
0.0
  0
LWPOLYLINE
  5
6A43
330
1F
100
AcDbEntity
  8
24
  6
CONTINOUS
100
AcDbPolyline
 90
        4
 70
     0
 43
0.0
 10
439.2374841537363
 20
399.4469424018693
 10
440.2374841537363
 20
399.4469424018693
 10
440.2374841537363
 20
409.4469424018692
 10
439.2374841537363
 20
409.4469424018692
  0
LWPOLYLINE
  5
6A44
330
1F
100
AcDbEntity
  8
24
  6
CONTINOUS
100
AcDbPolyline
 90
        4
 70
     0
 43
0.0
 10
441.5374841537363
 20
408.8719424018692
 42
0.4142135623730951
 10
441.3624841537362
 20
409.046942401869
 10
440.4124841537361
 20
409.046942401869
 42
0.4142135623730951
 10
440.2374841537362
 20
408.8719424018692
  0
LWPOLYLINE
  5
6A45
330
1F
100
AcDbEntity
  8
24
  6
CONTINOUS
100
AcDbPolyline
 90
        4
 70
     0
 43
0.0
 10
440.2374841537362
 20
400.0219424018691
 42
0.4142135623730951
 10
440.4124841537361
 20
399.8469424018693
 10
441.3624841537362
 20
399.8469424018693
 42
0.4142135623730951
 10
441.5374841537363
 20
400.0219424018691
  0
LINE
  5
6A46
330
1F
100
AcDbEntity
  8
10
  6
CONTINOUS
100
AcDbLine
 10
431.2374841537363
 20
376.5097997870691
 30
0.0
 11
433.0374841537361
 21
376.4469424018693
 31
0.0
  0
LWPOLYLINE
  5
6A49
330
1F
100
AcDbEntity
  8
10
  6
CONTINOUS
100
AcDbPolyline
 90
        6
 70
     1
 43
0.0
 10
365.0374841537367
 20
346.9469424018694
 42
-0.4142135623730951
 10
363.0374841537368
 20
348.9469424018694
 10
363.0374841537368
 20
536.9469424018691
 42
-0.4142135623730951
 10
365.0374841537367
 20
538.9469424018691
 10
377.5374841537362
 20
538.9469424018691
 10
377.5374841537362
 20
346.9469424018694
  0
LINE
  5
6A4A
330
1F
100
AcDbEntity
  8
10
  6
CONTINOUS
100
AcDbLine
 10
433.0374841537361
 20
374.4469424018693
 30
0.0
 11
435.6374841537365
 21
374.4469424018693
 31
0.0
  0
LINE
  5
6A4B
330
1F
100
AcDbEntity
  8
10
  6
CONTINOUS
100
AcDbLine
 10
433.0374841537361
 20
376.4469424018693
 30
0.0
 11
433.0374841537361
 21
374.4469424018693
 31
0.0
  0
LINE
  5
6A4C
330
1F
100
AcDbEntity
  8
10
  6
CONTINOUS
100
AcDbLine
 10
435.6374841537365
 20
374.4469424018693
 30
0.0
 11
435.6374841537365
 21
378.4423255706693
 31
0.0
  0
LINE
  5
6A50
330
1F
100
AcDbEntity
  8
10
  6
CONTINOUS
100
AcDbLine
 10
377.5374841537362
 20
378.5383096834247
 30
0.0
 11
432.5462103569363
 21
378.6596441918693
 31
0.0
  0
LINE
  5
6A51
330
1F
100
AcDbEntity
  8
10
  6
CONTINOUS
100
AcDbLine
 10
433.0374841537361
 20
379.1595680394693
 30
0.0
 11
433.0374841537361
 21
398.4469424018692
 31
0.0
  0
SPLINE
  5
6A52
330
1F
100
AcDbEntity
  8
10
  6
CONTINOUS
100
AcDbSpline
210
0.0
220
0.0
230
1.0
 70
     8
 71
     3
 72
    11
 73
     7
 74
     0
 42
0.000000001
 43
0.0000000001
 40
0.0
 40
0.0
 40
0.0
 40
0.0
 40
0.2499999999999934
 40
0.5000000000000058
 40
0.7499999999999965
 40
1.0
 40
1.0
 40
1.0
 40
1.0
 10
433.0374841538437
 20
379.1595680392733
 30
0.0
 10
433.0301378601348
 20
379.0947780012245
 30
0.0
 10
433.0154452727172
 20
378.9651979251275
 30
0.0
 10
432.9022611904053
 20
378.8011026437966
 30
0.0
 10
432.7401662361869
 20
378.6850719424248
 30
0.0
 10
432.6108623167704
 20
378.6681201086048
 30
0.0
 10
432.5462103570623
 20
378.6596441916949
 30
0.0
  0
LWPOLYLINE
  5
6A53
330
1F
100
AcDbEntity
  8
24
  6
CONTINOUS
100
AcDbPolyline
 90
        2
 70
     0
 43
0.0
 10
441.5374841537363
 20
405.0559852749112
 10
440.2374841537363
 20
404.5828239700271
  0
LINE
  5
6A54
330
1F
100
AcDbEntity
  8
24
  6
CONTINOUS
100
AcDbLine
 10
440.2374841537363
 20
403.8378995292273
 30
0.0
 11
441.5374841537363
 21
404.3110608341113
 31
0.0
  0
LWPOLYLINE
  5
6A55
330
1F
100
AcDbEntity
  8
24
  6
CONTINOUS
100
AcDbPolyline
 90
        9
 70
     0
 43
0.0
 10
444.0953642234171
 20
400.3275394167943
 42
-0.2633131761903002
 10
442.9809587121365
 20
399.6969424018693
 10
441.7374841537363
 20
399.6969424018691
 42
-0.5216718986821923
 10
441.5374841537363
 20
400.0219424018691
 10
441.5374841537363
 20
408.9969424018693
 42
-0.4142135623730951
 10
441.7374841537363
 20
409.1969424018691
 10
442.9809587121365
 20
409.1969424018691
 42
-0.2633131761903001
 10
444.0953642231558
 20
408.5663453869456
 42
-0.2723797614275332
 10
444.0953642233365
 20
400.3275394170931
  0
LWPOLYLINE
  5
6A5E
330
1F
100
AcDbEntity
  8
10
  6
CONTINOUS
100
AcDbPolyline
 90
       12
 70
     0
 43
0.0
 10
377.5374841537362
 20
383.4469424018692
 10
429.2374841537363
 20
383.4469424018692
 42
0.4142135623730951
 10
430.2374841537363
 20
384.4469424018693
 10
430.2374841537363
 20
397.4469424018693
 42
-0.4142135623730951
 10
431.2374841537363
 20
398.4469424018692
 10
439.2374841537363
 20
398.4469424018692
 10
439.2374841537363
 20
488.4469424018692
 10
431.2374841537365
 20
488.4469424020597
 42
-0.4142135623730951
 10
430.2374841537363
 20
489.4469424020597
 10
430.2374841537363
 20
501.4469424018692
 42
0.4142135623730951
 10
429.2374841537363
 20
502.4469424018692
 10
377.5374841537362
 20
502.4469424018692
  0
LWPOLYLINE
  5
6A5F
330
1F
100
AcDbEntity
  8
10
  6
CONTINOUS
100
AcDbPolyline
 90
        7
 70
     0
 43
0.0
 10
496.3374841537363
 20
383.9469424018692
 10
534.6346488949364
 20
383.9469424018692
 42
0.3844306407974888
 10
535.1320120935015
 20
384.3956603505897
 42
0.0339392115285597
 10
535.2374841537363
 20
385.9469424018692
 42
0.0206663951566866
 10
535.1320120934306
 20
388.4982244531513
 42
0.3844306407974888
 10
534.6346488949364
 20
388.9469424018693
 10
496.3374841537363
 20
388.9469424018693
  0
LINE
  5
6A60
330
1F
100
AcDbEntity
  8
10
  6
CONTINOUS
100
AcDbLine
 10
431.2374841537363
 20
378.656757492585
 30
0.0
 11
431.2374841537363
 21
376.5097997870691
 31
0.0
  0
LINE
  5
6A61
330
1F
100
AcDbEntity
  8
10
  6
CONTINOUS
100
AcDbLine
 10
433.0374841537361
 20
376.4469424018693
 30
0.0
 11
433.0374841537361
 21
379.0539784574692
 31
0.0
  0
DIMENSION
  5
6A62
330
1F
100
AcDbEntity
  8
30
  6
Continuous
100
AcDbDimension
280
     0
  2
*D19
 10
378.0374841537362
 20
298.0469424018693
 30
0.0
 11
357.7874841537367
 21
298.0469424018693
 31
0.0
 70
   160
  1
<>
 71
     2
 42
40.49999999999953
 73
     0
 74
     0
 75
     0
  3
STANDARD
100
AcDbAlignedDimension
 13
337.5374841537366
 23
451.9257462147074
 33
0.0
 14
378.0374841537362
 24
340.6230890652732
 34
0.0
100
AcDbRotatedDimension
1001
ACAD
1000
DSTYLE
1002
{
1070
    79
1070
     3
1002
}
  0
DIMENSION
  5
6A63
330
1F
100
AcDbEntity
  8
30
  6
Continuous
100
AcDbDimension
280
     0
  2
*D20
 10
378.0374841537362
 20
318.0469424018693
 30
0.0
 11
370.5374841537367
 21
318.0469424018693
 31
0.0
 70
   160
  1
<>
 71
     2
 42
14.99999999999954
 73
     0
 74
     0
 75
     0
  3
STANDARD
100
AcDbAlignedDimension
 13
363.0374841537368
 23
342.5807966816446
 33
0.0
 14
378.0374841537362
 24
335.4827616302693
 34
0.0
100
AcDbRotatedDimension
1001
ACAD
1000
DSTYLE
1002
{
1070
    79
1070
     3
1002
}
  0
DIMENSION
  5
6A65
330
1F
100
AcDbEntity
  8
30
  6
Continuous
100
AcDbDimension
280
     0
  2
*D21
 10
564.7614097489094
 20
386.4469424018693
 30
0.0
 11
564.7614097489093
 21
444.1820988151393
 31
0.0
 70
   160
  1
<>
 71
     2
 42
113.9999999999999
 73
     0
 74
     0
 75
     0
  3
STANDARD
100
AcDbAlignedDimension
 13
538.3817952385363
 23
500.4469424018692
 33
0.0
 14
538.6614249649367
 24
386.4469424018693
 34
0.0
 50
90.0
100
AcDbRotatedDimension
1001
ACAD
1000
DSTYLE
1002
{
1070
    79
1070
     3
1002
}
  0
LWPOLYLINE
  5
6A66
330
1F
100
AcDbEntity
  8
10
  6
CONTINOUS
100
AcDbPolyline
 90
        4
 70
     0
 43
0.0
 10
433.0374841537361
 20
394.4969424018692
 10
448.2374841537363
 20
394.2316254150692
 10
448.2374841537363
 20
378.6622593890693
 10
433.0374841537361
 20
378.3969424018692
  0
LWPOLYLINE
  5
6A67
330
1F
100
AcDbEntity
  8
24
  6
CONTINOUS
100
AcDbPolyline
 90
        4
 70
     0
 43
0.0
 10
439.2374841537363
 20
477.4469424016785
 10
440.2374841537363
 20
477.4469424016785
 10
440.2374841537363
 20
487.4469424016787
 10
439.2374841537363
 20
487.4469424016787
  0
LWPOLYLINE
  5
6A68
330
1F
100
AcDbEntity
  8
24
  6
CONTINOUS
100
AcDbPolyline
 90
        4
 70
     0
 43
0.0
 10
440.2374841537358
 20
478.0219424016786
 42
0.4142135623730951
 10
440.412484153736
 20
477.8469424016787
 10
441.3624841537362
 20
477.8469424016787
 42
0.4142135623730951
 10
441.5374841537363
 20
478.0219424016786
  0
LWPOLYLINE
  5
6A69
330
1F
100
AcDbEntity
  8
24
  6
CONTINOUS
100
AcDbPolyline
 90
        9
 70
     0
 43
0.0
 10
444.0953642234171
 20
478.3275394166038
 42
-0.2633131761903002
 10
442.9809587121363
 20
477.6969424016788
 10
441.7374841537363
 20
477.6969424016781
 42
-0.5216718986821923
 10
441.5374841537363
 20
478.0219424016786
 10
441.5374841537363
 20
486.9969424016787
 42
-0.4142135623730951
 10
441.7374841537363
 20
487.1969424016787
 10
442.9809587121363
 20
487.1969424016787
 42
-0.2633131761903001
 10
444.0953642231558
 20
486.5663453867551
 42
-0.2723797614275332
 10
444.0953642233363
 20
478.3275394169028
  0
LINE
  5
6A6A
330
1F
100
AcDbEntity
  8
10
  6
CONTINOUS
100
AcDbLine
 10
431.2374841537363
 20
509.3840850166691
 30
0.0
 11
433.0374841537361
 21
509.4469424018692
 31
0.0
  0
LINE
  5
6A6B
330
1F
100
AcDbEntity
  8
10
  6
CONTINOUS
100
AcDbLine
 10
433.0374841537361
 20
511.4469424018691
 30
0.0
 11
435.6374841537365
 21
511.4469424018691
 31
0.0
  0
LINE
  5
6A6C
330
1F
100
AcDbEntity
  8
10
  6
CONTINOUS
100
AcDbLine
 10
433.0374841537361
 20
509.4469424018692
 30
0.0
 11
433.0374841537361
 21
511.4469424018691
 31
0.0
  0
LINE
  5
6A6D
330
1F
100
AcDbEntity
  8
10
  6
CONTINOUS
100
AcDbLine
 10
435.6374841537365
 20
511.4469424018691
 30
0.0
 11
435.6374841537365
 21
507.4515592330691
 31
0.0
  0
LINE
  5
6A6E
330
1F
100
AcDbEntity
  8
10
  6
CONTINOUS
100
AcDbLine
 10
377.5374841537362
 20
507.3555751203137
 30
0.0
 11
432.5462103569363
 21
507.2342406118692
 31
0.0
  0
LINE
  5
6A6F
330
1F
100
AcDbEntity
  8
10
  6
CONTINOUS
100
AcDbLine
 10
433.0374841537361
 20
506.734316764269
 30
0.0
 11
433.0374841537361
 21
488.4469424020597
 31
0.0
  0
SPLINE
  5
6A70
330
1F
100
AcDbEntity
  8
10
  6
CONTINOUS
100
AcDbSpline
210
0.0
220
0.0
230
1.0
 70
     8
 71
     3
 72
    11
 73
     7
 74
     0
 42
0.000000001
 43
0.0000000001
 40
0.0
 40
0.0
 40
0.0
 40
0.0
 40
0.2499999999999934
 40
0.5000000000000058
 40
0.7499999999999965
 40
1.0
 40
1.0
 40
1.0
 40
1.0
 10
433.0374841538437
 20
506.7343167644652
 30
0.0
 10
433.0301378601348
 20
506.7991068025141
 30
0.0
 10
433.0154452727172
 20
506.928686878611
 30
0.0
 10
432.9022611904053
 20
507.092782159942
 30
0.0
 10
432.7401662361869
 20
507.2088128613137
 30
0.0
 10
432.6108623167704
 20
507.2257646951335
 30
0.0
 10
432.5462103570623
 20
507.2342406120435
 30
0.0
  0
LINE
  5
6A71
330
1F
100
AcDbEntity
  8
10
  6
CONTINOUS
100
AcDbLine
 10
431.2374841537363
 20
507.2371273111534
 30
0.0
 11
431.2374841537363
 21
509.3840850166691
 31
0.0
  0
LINE
  5
6A72
330
1F
100
AcDbEntity
  8
10
  6
CONTINOUS
100
AcDbLine
 10
433.0374841537361
 20
509.4469424018692
 30
0.0
 11
433.0374841537361
 21
506.8399063462694
 31
0.0
  0
LWPOLYLINE
  5
6A73
330
1F
100
AcDbEntity
  8
10
  6
CONTINOUS
100
AcDbPolyline
 90
        4
 70
     0
 43
0.0
 10
433.0374841537361
 20
491.3969424018691
 10
448.2374841537363
 20
491.6622593886692
 10
448.2374841537363
 20
507.2316254146691
 10
433.0374841537361
 20
507.4969424018694
  0
LWPOLYLINE
  5
6A75
330
1F
100
AcDbEntity
  8
24
  6
CONTINOUS
100
AcDbPolyline
 90
        4
 70
     0
 43
0.0
 10
441.5374841537363
 20
486.8719424016787
 42
0.4142135623730951
 10
441.3624841537362
 20
487.0469424016786
 10
440.412484153736
 20
487.0469424016786
 42
0.4142135623730951
 10
440.2374841537358
 20
486.8719424016787
  0
LWPOLYLINE
  5
6A76
330
1F
100
AcDbEntity
  8
24
  6
CONTINOUS
100
AcDbPolyline
 90
        2
 70
     0
 43
0.0
 10
441.5374841537361
 20
483.0559852747207
 10
440.2374841537363
 20
482.5828239698366
  0
LINE
  5
6A77
330
1F
100
AcDbEntity
  8
24
  6
CONTINOUS
100
AcDbLine
 10
440.2374841537363
 20
481.8378995290366
 30
0.0
 11
441.5374841537361
 21
482.3110608339207
 31
0.0
  0
LWPOLYLINE
  5
6A78
330
1F
100
AcDbEntity
  8
10
  6
CONTINOUS
100
AcDbPolyline
 90
       10
 70
     0
 43
0.0
 10
448.2374841537363
 20
380.8425517323354
 42
-0.1496721635402247
 10
454.8655833328266
 20
383.1159120790557
 10
454.8655833328266
 20
383.1159120790557
 10
454.8655833328266
 20
383.1159120790557
 10
496.3374841537363
 20
383.2469424018693
 10
496.3374841537363
 20
389.6469424018692
 10
454.6001494476008
 20
389.6633164907822
 10
454.6001494476008
 20
389.6633164907822
 10
454.6001494476008
 20
389.6633164907822
 42
-0.1550526629680419
 10
448.4314800186454
 20
392.0479744840519
  0
LWPOLYLINE
  5
6A79
330
1F
100
AcDbEntity
  8
10
  6
CONTINOUS
100
AcDbPolyline
 90
       13
 70
     0
 43
0.0
 10
448.2071690946266
 20
391.1008080011065
 42
0.1672155262380537
 10
455.7374841537363
 20
388.9469424018693
 10
483.1881805191663
 20
388.9469424020528
 10
484.2695968531595
 20
388.9469424020528
 10
484.6346488949364
 20
388.9469424018693
 42
-0.3844306407974888
 10
485.1320120935015
 20
388.4982244531489
 42
-0.0256918450417758
 10
485.2374841537363
 20
386.4469424018693
 42
-0.0256918450417758
 10
485.1320120934304
 20
384.3956603505873
 42
-0.3844306407974888
 10
484.6346488951145
 20
383.9469424020529
 10
484.2695968462014
 20
383.9469424020529
 10
483.188180519336
 20
383.9469424018692
 10
455.7374841537363
 20
383.9469424018692
 42
0.1661327115651163
 10
448.2766440091944
 20
381.8414283159853
  0
LWPOLYLINE
  5
6A7A
330
1F
100
AcDbEntity
  8
10
  6
CONTINOUS
100
AcDbPolyline
 90
       10
 70
     0
 43
0.0
 10
448.2374841537363
 20
506.0513330714028
 42
0.1496721635402247
 10
454.8655833328266
 20
503.7779727246826
 10
454.8655833328266
 20
503.7779727246826
 10
454.8655833328266
 20
503.7779727246826
 10
496.3374841537363
 20
503.6469424018691
 10
496.3374841537363
 20
497.2469424018692
 10
454.6001494476008
 20
497.2305683129563
 10
454.6001494476008
 20
497.2305683129563
 10
454.6001494476008
 20
497.2305683129563
 42
0.1550526629680419
 10
448.4314800186454
 20
494.8459103196864
  0
LWPOLYLINE
  5
6A7B
330
1F
100
AcDbEntity
  8
10
  6
CONTINOUS
100
AcDbPolyline
 90
       13
 70
     0
 43
0.0
 10
448.2071690946266
 20
495.7930768026319
 42
-0.1672155262380537
 10
455.7374841537363
 20
497.9469424018691
 10
483.1881805191663
 20
497.9469424016854
 10
484.2695968531595
 20
497.9469424016854
 10
484.6346488949364
 20
497.9469424018691
 42
0.3844306407974888
 10
485.1320120935015
 20
498.3956603505895
 42
0.0256918450417758
 10
485.2374841537363
 20
500.4469424018691
 42
0.0256918450417758
 10
485.1320120934304
 20
502.4982244531511
 42
0.3844306407974888
 10
484.6346488951145
 20
502.9469424016855
 10
484.2695968462014
 20
502.9469424016855
 10
483.188180519336
 20
502.9469424018691
 10
455.7374841537363
 20
502.9469424018691
 42
-0.1661327115651163
 10
448.2766440091944
 20
505.0524564877528
  0
LINE
  5
6A7C
330
1F
100
AcDbEntity
  8
24
  6
DIVIDE
 48
3.0
100
AcDbLine
 10
378.0374848689362
 20
341.7975301114716
 30
0.0
 11
378.0374848689362
 21
548.0782802754275
 31
0.0
  0
LINE
  5
6A7D
330
1F
100
AcDbEntity
  8
24
  6
DIVIDE
 48
3.0
100
AcDbLine
 10
382.0374848689361
 20
341.9745103453074
 30
0.0
 11
382.0374848689361
 21
548.5245279925838
 31
0.0
  0
CIRCLE
  5
6A94
102
{ACAD_REACTORS
330
6A9B
102
}
330
1F
100
AcDbEntity
  8
12
  6
CONTINOUS
100
AcDbCircle
 10
222.4089499138537
 20
195.0995473676341
 30
0.0
 40
3.0
  0
CIRCLE
  5
6A95
330
1F
100
AcDbEntity
  8
12
  6
CONTINOUS
100
AcDbCircle
 10
222.4089499138537
 20
129.0995473676344
 30
0.0
 40
3.0
  0
INSERT
  5
6A96
102
{ACAD_REACTORS
330
6A9E
102
}
330
1F
100
AcDbEntity
  8
12
  6
Continuous
100
AcDbBlockReference
  2
SW_CENTERMARKSYMBOL_22
 10
222.4089499138537
 20
195.0995473676341
 30
0.0
 41
4.0
 42
4.0
 43
4.0
  0
INSERT
  5
6A97
102
{ACAD_REACTORS
330
6A9E
102
}
330
1F
100
AcDbEntity
  8
12
  6
DASHDOT
100
AcDbBlockReference
  2
SW_CENTERMARKSYMBOL_23
 10
222.4089499138537
 20
129.0995473676344
 30
0.0
 41
4.0
 42
4.0
 43
4.0
  0
DIMENSION
  5
6A98
330
1F
100
AcDbEntity
  8
30
  6
Continuous
100
AcDbDimension
280
     0
  2
*D22
 10
282.4730973533397
 20
71.59954736763435
 30
0.0
 11
276.9730973533397
 21
162.0995473676345
 31
0.0
 70
    32
 71
     5
 42
181.0000000000001
 73
     0
 74
     0
 75
     0
  3
STANDARD
100
AcDbAlignedDimension
 13
217.4089496158538
 23
252.5995473676345
 33
0.0
 14
217.4089496158538
 24
71.59954736763437
 34
0.0
 50
90.0
100
AcDbRotatedDimension
1001
ACAD
1000
DSTYLE
1002
{
1070
    79
1070
     3
1002
}
  0
DIMENSION
  5
6A99
102
{ACAD_XDICTIONARY
360
6A9A
102
}
102
{ACAD_REACTORS
330
6A9B
102
}
330
1F
100
AcDbEntity
  8
30
  6
DASHDOT
100
AcDbDimension
280
     0
  2
*D24
 10
220.0973471767067
 20
193.1873515655217
 30
0.0
 11
252.936729533628
 21
214.7994683395154
 31
0.0
 70
   163
 71
     5
 42
6.000000000000284
 73
     0
 74
     0
 75
     0
  3
STANDARD1
100
AcDbDiametricDimension
 15
224.7205526510004
 25
197.0117431697464
 35
0.0
 40
0.0
1001
ACAD_DSTYLE_DIMRADIAL_EXTENSION
1070
   387
1070
     1
1070
   388
1040
0.0
1070
   390
1040
0.0
  0
DIMENSION
  5
6A9C
102
{ACAD_XDICTIONARY
360
6A9D
102
}
102
{ACAD_REACTORS
330
6A9E
102
}
330
1F
100
AcDbEntity
  8
30
  6
Continuous
100
AcDbDimension
280
     0
  2
*D25
 10
252.425243543624
 20
129.0995473676344
 30
0.0
 11
246.9252435436239
 21
162.0995473676343
 31
0.0
 70
    32
 71
     5
 42
65.99999999999977
 73
     0
 74
     0
 75
     0
  3
STANDARD
100
AcDbAlignedDimension
 13
227.4089499138537
 23
195.0995473676341
 33
0.0
 14
227.4089499138537
 24
129.0995473676344
 34
0.0
 50
90.0
100
AcDbRotatedDimension
1001
ACAD
1000
DSTYLE
1002
{
1070
    79
1070
     3
1002
}
  0
CIRCLE
  5
6A9F
330
1F
100
AcDbEntity
  8
12
  6
CONTINOUS
100
AcDbCircle
 10
86.40894931785386
 20
195.0995473676341
 30
0.0
 40
3.0
  0
CIRCLE
  5
6AA0
330
1F
100
AcDbEntity
  8
12
  6
CONTINOUS
100
AcDbCircle
 10
86.40894931785386
 20
129.0995473676344
 30
0.0
 40
3.0
  0
INSERT
  5
6AA1
330
1F
100
AcDbEntity
  8
12
  6
DASHDOT
100
AcDbBlockReference
  2
SW_CENTERMARKSYMBOL_22
 10
86.40894931785386
 20
195.0995473676341
 30
0.0
 41
-4.0
 42
4.0
 43
4.0
  0
INSERT
  5
6AA2
330
1F
100
AcDbEntity
  8
12
  6
DASHDOT
100
AcDbBlockReference
  2
SW_CENTERMARKSYMBOL_23
 10
86.40894931785386
 20
129.0995473676344
 30
0.0
 41
-4.0
 42
4.0
 43
4.0
  0
LWPOLYLINE
  5
6AA3
330
1F
100
AcDbEntity
  8
11
 48
2.0
100
AcDbPolyline
 90
        4
 70
     1
 43
0.0
 10
217.4089496158538
 20
252.5995473676345
 10
91.40894961585377
 20
252.5995473676345
 10
91.40894961585377
 20
71.59954736763437
 10
217.4089496158538
 20
71.59954736763437
  0
DIMENSION
  5
6AA4
330
1F
100
AcDbEntity
  8
30
  6
Continuous
100
AcDbDimension
280
     0
  2
*D23
 10
86.40894931785386
 20
24.3035105969633
 30
0.0
 11
154.4089496158538
 21
24.3035105969633
 31
0.0
 70
   160
  1
<>
 71
     2
 42
136.0000005959998
 73
     0
 74
     0
 75
     0
  3
STANDARD
100
AcDbAlignedDimension
 13
222.4089499138537
 23
124.0995473676344
 33
0.0
 14
86.40894931785386
 24
124.0995473676344
 34
0.0
100
AcDbRotatedDimension
1001
ACAD
1000
DSTYLE
1002
{
1070
    79
1070
     3
1070
   140
1040
6.0
1002
}
  0
LWPOLYLINE
  5
6AA5
330
1F
100
AcDbEntity
  8
10
  6
CONTINOUS
100
AcDbPolyline
 90
        7
 70
     0
 43
0.0
 10
496.3374841537363
 20
497.9469424018692
 10
534.6346488949364
 20
497.9469424018691
 42
0.3844306407974888
 10
535.1320120935015
 20
498.3956603505895
 42
0.0339392115285597
 10
535.2374841537363
 20
499.9469424018691
 42
0.0206663951566866
 10
535.1320120934306
 20
502.4982244531511
 42
0.3844306407974888
 10
534.6346488949364
 20
502.9469424018691
 10
496.3374841537363
 20
502.9469424018691
  0
LINE
  5
6AAA
330
1F
100
AcDbEntity
  8
24
100
AcDbLine
 10
144.8897567982184
 20
808.8573409644459
 30
0.0
 11
166.3853734198372
 21
808.8573409644459
 31
0.0
  0
LWPOLYLINE
  5
6AAB
330
1F
100
AcDbEntity
  8
24
  6
Continuous
 62
     7
100
AcDbPolyline
 90
        5
 70
     0
 43
0.0
 10
150.5463862033979
 20
811.1722284672149
 10
150.5463862033979
 20
807.1509418795635
 42
0.9995984643691707
 10
159.0843312548489
 20
807.1543708254777
 10
159.0843312548489
 20
811.1722280001387
 42
1.0
 10
150.5463848262774
 20
811.1722280001387
  0
LINE
  5
6AAC
330
1F
100
AcDbEntity
  8
17
100
AcDbLine
 10
179.1308504611541
 20
758.832817047881
 30
0.0
 11
190.2899958511715
 21
758.832817047881
 31
0.0
  0
LWPOLYLINE
  5
6AAD
330
1F
100
AcDbEntity
  8
24
  6
Continuous
 62
     7
100
AcDbPolyline
 90
        5
 70
     0
 43
0.0
 10
180.3645173540216
 20
761.1477045506501
 10
180.3645173540216
 20
757.1264179629988
 42
0.9995984643691707
 10
188.9024624054726
 20
757.1298469089131
 10
188.9024624054726
 20
761.1477040835739
 42
1.0
 10
180.3645159769011
 20
761.1477040835739
  0
LINE
  5
6AB4
330
1F
100
AcDbEntity
  8
17
100
AcDbLine
 10
184.789044151025
 20
749.7697325798762
 30
0.0
 11
184.789044151025
 21
775.6471346113527
 31
0.0
  0
LWPOLYLINE
  5
6AB6
330
1F
100
AcDbEntity
  8
24
  6
CONTINOUS
100
AcDbPolyline
 90
        8
 70
     0
 43
0.0
 10
189.8046844396894
 20
737.5628170478846
 42
-0.1683727652934361
 10
192.6390435934252
 20
743.6576222435321
 10
192.789043593425
 20
772.7102152688225
 42
0.1278513079332888
 10
192.3275056894717
 20
773.0877083467082
 42
0.102820541989588
 10
177.2505826125637
 20
773.0877083467516
 42
0.0465035059649609
 10
176.7890441866249
 20
772.6972191842949
 10
176.7890441866249
 20
743.5760245032475
 42
-0.1953251241738503
 10
179.7734038623605
 20
737.5628170478846
  0
LWPOLYLINE
  5
714B
330
1F
100
AcDbEntity
  8
24
  6
Continuous
 62
     7
100
AcDbPolyline
 90
        5
 70
     0
 43
0.0
 10
120.3645168324215
 20
761.1477045506501
 10
120.3645168324215
 20
757.1264179629988
 42
0.9995984643691707
 10
128.9024618838725
 20
757.1298469089131
 10
128.9024618838725
 20
761.1477040835739
 42
1.0
 10
120.364515455301
 20
761.1477040835739
  0
ARC
  5
71D2
330
1F
100
AcDbEntity
  8
30
100
AcDbCircle
 10
360.3428302795883
 20
449.7457197891135
 30
0.0
 40
22.81150420857965
100
AcDbArc
 50
164.5940792611932
 51
181.3313529294698
  0
LINE
  5
71E0
330
1F
100
AcDbEntity
  8
17
100
AcDbLine
 10
119.1308499395541
 20
758.832817047881
 30
0.0
 11
130.2899953295714
 21
758.832817047881
 31
0.0
  0
LINE
  5
71E1
330
1F
100
AcDbEntity
  8
17
100
AcDbLine
 10
124.7890436294246
 20
748.8214436582643
 30
0.0
 11
124.7890436294249
 21
775.6471346113527
 31
0.0
  0
INSERT
  5
734C
330
1F
100
AcDbEntity
  8
0
100
AcDbBlockReference
  2
A$C23077EED
 10
184.7890444118249
 20
709.6858655726808
 30
0.0
  0
INSERT
  5
7354
330
1F
100
AcDbEntity
  8
0
100
AcDbBlockReference
  2
A$C23077EED
 10
154.789044151025
 20
709.6858655726808
 30
0.0
  0
INSERT
  5
735C
330
1F
100
AcDbEntity
  8
0
100
AcDbBlockReference
  2
A$C23077EED
 10
124.7890438904311
 20
709.6858655725721
 30
0.0
  0
LWPOLYLINE
  5
736D
330
1F
100
AcDbEntity
  8
10
  6
CONTINOUS
100
AcDbPolyline
 90
       13
 70
     1
 43
0.0
 10
78.28903814246752
 20
652.362813024681
 10
82.2890387980672
 20
652.362813024681
 10
227.2890420650249
 20
652.362813024681
 10
231.2890427206251
 20
652.362813024681
 10
231.289045343425
 20
652.3628150150811
 42
0.4142135623730951
 10
233.289045343425
 20
654.362815015081
 10
233.289046773825
 20
654.362817077481
 10
233.289046773825
 20
666.8628163326807
 10
227.2890420650249
 20
666.8628163326807
 10
76.28904154006733
 20
666.8628163326807
 10
76.28904154006733
 20
654.362817077481
 10
76.28904177846727
 20
654.362815015081
 42
0.4142135623730951
 10
78.28904177846727
 20
652.3628150150807
  0
LWPOLYLINE
  5
7375
330
1F
100
AcDbEntity
  8
24
  6
CONTINOUS
100
AcDbPolyline
 90
        6
 70
     0
 43
0.0
 10
146.9390444478249
 20
785.6628156890811
 10
146.9390444478249
 20
822.0135139810809
 42
-0.3058016340050167
 10
147.250695591892
 20
822.4738339385103
 42
-0.1967952312930879
 10
162.3273927019633
 20
822.4738339418674
 42
-0.3058016388986208
 10
162.639043854443
 20
822.0135139812589
 10
162.639043854625
 20
785.6628156890811
  0
INSERT
  5
73C4
330
1F
100
AcDbEntity
  8
0
100
AcDbBlockReference
  2
A$C6D904D4D
 10
154.789044151025
 20
442.9469413886693
 30
0.0
  0
INSERT
  5
73EF
330
1F
100
AcDbEntity
  8
0
100
AcDbBlockReference
  2
A$C37787D9A
 10
363.0374841537368
 20
442.9469424018692
 30
0.0
  0
DIMENSION
  5
7416
330
1F
100
AcDbEntity
  8
30
  6
Continuous
100
AcDbDimension
280
     0
  2
*D30
 10
550.5541511073277
 20
383.9469424018692
 30
0.0
 11
550.5541511073277
 21
371.1196042249408
 31
0.0
 70
   160
 71
     2
 42
5.0
 73
     0
 74
     0
 75
     0
  3
STANDARD
100
AcDbAlignedDimension
 13
535.2374841537363
 23
388.9469424018693
 33
0.0
 14
535.2374841537363
 24
383.9469424018692
 34
0.0
 50
90.0
100
AcDbRotatedDimension
1001
ACAD
1000
DSTYLE
1002
{
1070
    79
1070
     3
1002
}
  0
DIMENSION
  5
7482
330
1F
100
AcDbEntity
  8
30
  6
Continuous
100
AcDbDimension
280
     0
  2
*D31
 10
75.29098333828644
 20
765.3637087462327
 30
0.0
 11
75.29098333828631
 21
759.1137087462327
 31
0.0
 70
   160
  1
<>
 71
     2
 42
12.5
 73
     0
 74
     0
 75
     0
  3
STANDARD
100
AcDbAlignedDimension
 13
125.9445985892626
 23
752.8637087462327
 33
0.0
 14
125.9445985892626
 24
765.3637087462327
 34
0.0
 50
90.0
100
AcDbRotatedDimension
1001
ACAD
1000
DSTYLE
1002
{
1070
    79
1070
     3
1002
}
  0
DIMENSION
  5
7483
330
1F
100
AcDbEntity
  8
30
  6
Continuous
100
AcDbDimension
280
     0
  2
*D32
 10
116.9799168902319
 20
802.9449744587997
 30
0.0
 11
100.410934731774
 21
802.9449744587997
 31
0.0
 70
   160
  1
<>
 71
     2
 42
15.99999940680026
 73
     0
 74
     0
 75
     0
  3
STANDARD
100
AcDbAlignedDimension
 13
132.979916297032
 23
772.7519279753122
 33
0.0
 14
116.9799168902319
 24
772.8850117817894
 34
0.0
100
AcDbRotatedDimension
1001
ACAD
1000
DSTYLE
1002
{
1070
    79
1070
     3
1002
}
  0
DIMENSION
  5
7484
330
1F
100
AcDbEntity
  8
30
  6
Continuous
100
AcDbDimension
280
     0
  2
*D33
 10
120.6756253749768
 20
787.7305427183937
 30
0.0
 11
107.9457113349409
 21
787.7305427183937
 31
0.0
 70
   160
  1
<>
 71
     2
 42
8.499999999999985
 73
     0
 74
     0
 75
     0
  3
STANDARD
100
AcDbAlignedDimension
 13
129.1756253749768
 23
761.5628170478811
 33
0.0
 14
120.6756253749768
 24
761.5628170478811
 34
0.0
100
AcDbRotatedDimension
1001
ACAD
1000
DSTYLE
1002
{
1070
    79
1070
     3
1002
}
  0
DIMENSION
  5
7485
330
1F
100
AcDbEntity
  8
30
  6
Continuous
100
AcDbDimension
280
     0
  2
*D34
 10
93.71170446156796
 20
773.8328170478815
 30
0.0
 11
93.71170446156783
 21
769.7429328446816
 31
0.0
 70
   160
 71
     5
 42
15.00000000000045
 73
     0
 74
     0
 75
     0
  3
STANDARD
100
AcDbAlignedDimension
 13
124.8676646242866
 23
758.832817047881
 33
0.0
 14
124.979916332693
 24
773.8328170478815
 34
0.0
 50
90.0
100
AcDbRotatedDimension
1001
ACAD
1000
DSTYLE
1002
{
1070
    79
1070
     3
1002
}
  0
DIMENSION
  5
7486
330
1F
100
AcDbEntity
  8
30
  6
Continuous
100
AcDbDimension
280
     0
  2
*D35
 10
36.76469283082771
 20
773.8328170478815
 30
0.0
 11
36.76469283082758
 21
720.3478166902812
 31
0.0
 70
   160
 71
     5
 42
106.9700007152005
 73
     0
 74
     0
 75
     0
  3
STANDARD
100
AcDbAlignedDimension
 13
79.74396095469508
 23
666.8628163326807
 33
0.0
 14
123.1371583224168
 24
773.8328170478815
 34
0.0
 50
90.0
100
AcDbRotatedDimension
1001
ACAD
1000
DSTYLE
1002
{
1070
    79
1070
     3
1002
}
  0
DIMENSION
  5
7599
330
1F
100
AcDbEntity
  8
30
  6
Continuous
100
AcDbDimension
280
     0
  2
*D36
 10
124.7890436294249
 20
852.5628376634811
 30
0.0
 11
139.789044151025
 21
852.5628376634811
 31
0.0
 70
   160
  1
<>
 71
     2
 42
30.0000005216001
 73
     0
 74
     0
 75
     0
  3
STANDARD
100
AcDbAlignedDimension
 13
154.789044151025
 23
816.9980963871067
 33
0.0
 14
124.7890436294249
 24
775.6471346113527
 34
0.0
 50
180.0
100
AcDbRotatedDimension
1001
ACAD
1000
DSTYLE
1002
{
1070
    79
1070
     3
1002
}
  0
DIMENSION
  5
7A06
330
1F
100
AcDbEntity
  8
30
  6
Continuous
100
AcDbDimension
280
     0
  2
*D39
 10
279.378374309189
 20
823.8573409644457
 30
0.0
 11
279.3783743091889
 21
745.3600769945633
 31
0.0
 70
   160
 71
     5
 42
156.9945286549647
 73
     0
 74
     0
 75
     0
  3
STANDARD
100
AcDbAlignedDimension
 13
191.7985274184923
 23
666.8628123094811
 33
0.0
 14
154.7890441510245
 24
823.8573409644457
 34
0.0
 50
90.0
100
AcDbRotatedDimension
1001
ACAD
1000
DSTYLE
1002
{
1070
    79
1070
     3
1070
   140
1040
6.0
1002
}
  0
DIMENSION
  5
7A07
330
1F
100
AcDbEntity
  8
30
  6
Continuous
100
AcDbDimension
280
     0
  2
*D40
 10
176.8938648525582
 20
808.8573409644459
 30
0.0
 11
171.8938648525579
 21
816.3573409644456
 31
0.0
 70
    32
 71
     5
 42
15.0
 73
     0
 74
     0
 75
     0
  3
STANDARD
100
AcDbAlignedDimension
 13
179.9912133060827
 23
823.8573409644457
 33
0.0
 14
160.7422050265745
 24
808.8573409644459
 34
0.0
 50
90.0
100
AcDbRotatedDimension
1001
ACAD
1000
DSTYLE
1002
{
1070
    79
1070
     3
1070
   140
1040
6.0
1002
}
  0
LWPOLYLINE
  5
7A71
330
1F
100
AcDbEntity
  8
24
  6
CONTINOUS
100
AcDbPolyline
 90
        8
 70
     0
 43
0.0
 10
129.8046844396894
 20
737.5628170478846
 42
-0.1683727652934361
 10
132.6390435934252
 20
743.6576222435321
 10
132.789043593425
 20
772.7102152688225
 42
0.1278513079332888
 10
132.3275056894717
 20
773.0877083467082
 42
0.102820541989588
 10
117.2505826125637
 20
773.0877083467516
 42
0.0465035059649609
 10
116.789044186625
 20
772.6972191842949
 10
116.789044186625
 20
743.5760245032475
 42
-0.1953251241738503
 10
119.7734038623605
 20
737.5628170478846
  0
LINE
  5
7ADB
330
1F
100
AcDbEntity
  8
16
 48
5.0
100
AcDbLine
 10
539.3817952385362
 20
500.4469424018692
 30
0.0
 11
428.6715620580578
 21
500.4469424018691
 31
0.0
  0
LINE
  5
7AE2
330
1F
100
AcDbEntity
  8
16
 48
5.0
100
AcDbLine
 10
539.3817952385362
 20
386.4469424018692
 30
0.0
 11
428.6715620580578
 21
386.4469424018691
 31
0.0
  0
ENDSEC
  0
SECTION
  2
OBJECTS
  0
DICTIONARY
  5
C
330
0
100
AcDbDictionary
281
     1
  3
ACAD_CIP_PREVIOUS_PRODUCT_INFO
350
7A69
  3
ACAD_COLOR
350
3150
  3
ACAD_DETAILVIEWSTYLE
350
314A
  3
ACAD_GROUP
350
D
  3
ACAD_LAYOUT
350
1A
  3
ACAD_MATERIAL
350
43
  3
ACAD_MLEADERSTYLE
350
3149
  3
ACAD_MLINESTYLE
350
17
  3
ACAD_PLOTSETTINGS
350
19
  3
ACAD_PLOTSTYLENAME
350
E
  3
ACAD_SCALELIST
350
47
  3
ACAD_SECTIONVIEWSTYLE
350
314B
  3
ACAD_TABLESTYLE
350
3148
  3
ACAD_VISUALSTYLE
350
2A
  3
ACDB_RECOMPOSE_DATA
350
7B41
  3
AcDbVariableDictionary
350
3146
  3
AEC_PROPERTY_SET_DEFS
350
65EE
  0
SUN
  5
69
330
29
100
AcDbSun
 90
        1
290
     1
 63
     7
421
 16777215
 40
1.0
291
     1
 91
  2455826
 92
 54000000
292
     0
 70
     0
 71
   256
280
     1
  0
DICTIONARY
  5
52E1
330
2
100
AcDbDictionary
280
     1
281
     1
  3
ACAD_LAYERSTATES
360
52E2
  0
DICTIONARY
  5
3158
330
10
100
AcDbDictionary
280
     1
281
     1
  3
ADSK_XREC_LAYER_RECONCILED
360
3159
  0
DICTIONARY
  5
315C
330
72
100
AcDbDictionary
280
     1
281
     1
  3
ADSK_XREC_LAYER_RECONCILED
360
315D
  0
DICTIONARY
  5
39AB
330
39AA
100
AcDbDictionary
280
     1
281
     1
  0
DICTIONARY
  5
39AF
330
39AE
100
AcDbDictionary
280
     1
281
     1
  0
DICTIONARY
  5
39B1
330
39B0
100
AcDbDictionary
280
     1
281
     1
  0
DICTIONARY
  5
39B3
330
39B2
100
AcDbDictionary
280
     1
281
     1
  0
DICTIONARY
  5
39B5
330
39B4
100
AcDbDictionary
280
     1
281
     1
  0
DICTIONARY
  5
39B7
330
39B6
100
AcDbDictionary
280
     1
281
     1
  0
DICTIONARY
  5
672D
330
672C
100
AcDbDictionary
280
     1
281
     1
  0
DICTIONARY
  5
52DB
330
1F
100
AcDbDictionary
280
     1
281
     1
  3
ACAD_SORTENTS
360
52DC
  0
DICTIONARY
  5
71DC
330
71DA
100
AcDbDictionary
280
     1
281
     1
  3
ACAD_SORTENTS
360
71DD
  0
DICTIONARY
  5
7318
330
7317
100
AcDbDictionary
280
     1
281
     1
  3
ACAD_SORTENTS
360
7319
  0
DICTIONARY
  5
7377
330
7376
100
AcDbDictionary
280
     1
281
     1
  3
ACAD_SORTENTS
360
7378
  0
DICTIONARY
  5
73CC
330
73CB
100
AcDbDictionary
280
     1
281
     1
  3
ACAD_SORTENTS
360
73CD
  0
DICTIONARY
  5
6A9A
330
6A99
100
AcDbDictionary
280
     1
281
     1
  3
ACAD_DIMASSOC
360
6A9B
  0
DICTIONARY
  5
6A9D
330
6A9C
100
AcDbDictionary
280
     1
281
     1
  3
ACAD_DIMASSOC
360
6A9E
  0
XRECORD
  5
7A69
102
{ACAD_REACTORS
330
C
102
}
330
C
100
AcDbXrecord
280
     1
300
ACDLT
300
2014
300
ACDLT_F_S
  0
DICTIONARY
  5
3150
102
{ACAD_REACTORS
330
C
102
}
330
C
100
AcDbDictionary
281
     1
  0
DICTIONARY
  5
314A
102
{ACAD_REACTORS
330
C
102
}
330
C
100
AcDbDictionary
281
     1
  3
Metric50
350
7A64
  0
DICTIONARY
  5
D
102
{ACAD_REACTORS
330
C
102
}
330
C
100
AcDbDictionary
281
     1
  0
DICTIONARY
  5
1A
102
{ACAD_REACTORS
330
C
102
}
330
C
100
AcDbDictionary
281
     1
  3
Layout1
350
1E
  3
Layout2
350
26
  3
Model
350
22
  0
DICTIONARY
  5
43
102
{ACAD_REACTORS
330
C
102
}
330
C
100
AcDbDictionary
281
     1
  3
ByBlock
350
45
  3
ByLayer
350
44
  3
Global
350
46
  0
DICTIONARY
  5
3149
102
{ACAD_REACTORS
330
C
102
}
330
C
100
AcDbDictionary
281
     1
  3
Standard
350
3152
  0
DICTIONARY
  5
17
102
{ACAD_REACTORS
330
C
102
}
330
C
100
AcDbDictionary
281
     1
  3
Standard
350
18
  0
DICTIONARY
  5
19
102
{ACAD_REACTORS
330
C
102
}
330
C
100
AcDbDictionary
281
     1
  0
ACDBDICTIONARYWDFLT
  5
E
102
{ACAD_REACTORS
330
C
102
}
330
C
100
AcDbDictionary
281
     1
  3
Normal
350
F
100
AcDbDictionaryWithDefault
340
F
  0
DICTIONARY
  5
47
102
{ACAD_REACTORS
330
C
102
}
330
C
100
AcDbDictionary
281
     1
  3
A0
350
48
  3
A1
350
49
  3
A2
350
4A
  3
A3
350
4B
  3
A4
350
4C
  3
A5
350
4D
  3
A6
350
4E
  3
A7
350
4F
  3
A8
350
50
  3
A9
350
51
  3
B0
350
52
  3
B1
350
53
  3
B2
350
54
  3
B3
350
55
  3
B4
350
56
  3
B5
350
57
  3
B6
350
58
  3
B7
350
59
  3
B8
350
5A
  3
B9
350
5B
  3
C0
350
5C
  3
C1
350
5D
  3
C2
350
5E
  3
C3
350
5F
  3
C4
350
60
  3
C5
350
61
  3
C6
350
62
  3
C7
350
63
  3
C8
350
64
  3
C9
350
65
  3
D0
350
66
  3
D1
350
67
  3
D2
350
68
  0
DICTIONARY
  5
314B
102
{ACAD_REACTORS
330
C
102
}
330
C
100
AcDbDictionary
281
     1
  3
Metric50
350
7A63
  0
DICTIONARY
  5
3148
102
{ACAD_REACTORS
330
C
102
}
330
C
100
AcDbDictionary
281
     1
  3
Standard
350
3151
  0
DICTIONARY
  5
2A
102
{ACAD_REACTORS
330
C
102
}
330
C
100
AcDbDictionary
281
     1
  3
2dWireframe
350
2F
  3
3D Hidden
350
314F
  3
3dWireframe
350
314E
  3
Basic
350
32
  3
Brighten
350
36
  3
ColorChange
350
3A
  3
Conceptual
350
34
  3
Dim
350
35
  3
EdgeColorOff
350
3D
  3
Facepattern
350
39
  3
Flat
350
2B
  3
FlatWithEdges
350
2C
  3
Gouraud
350
2D
  3
GouraudWithEdges
350
2E
  3
Hidden
350
31
  3
JitterOff
350
3B
  3
Linepattern
350
38
  3
OverhangOff
350
3C
  3
Realistic
350
33
  3
Shaded
350
42
  3
Shaded with edges
350
41
  3
Shades of Gray
350
3E
  3
Sketchy
350
3F
  3
Thicken
350
37
  3
Wireframe
350
30
  3
X-Ray
350
40
  0
XRECORD
  5
7B41
102
{ACAD_REACTORS
330
C
102
}
330
C
100
AcDbXrecord
280
     1
 90
        1
330
3151
330
7A63
330
7A64
  0
DICTIONARY
  5
3146
102
{ACAD_REACTORS
330
C
102
}
330
C
100
AcDbDictionary
281
     1
  3
CANNOSCALE
350
3147
  3
CMLEADERSTYLE
350
315F
  3
CTABLESTYLE
350
315E
  3
CVIEWDETAILSTYLE
350
7ACB
  3
CVIEWSECTIONSTYLE
350
7ACC
  3
LAYEREVAL
350
3160
  3
LAYERNOTIFY
350
3161
  0
DICTIONARY
  5
65EE
102
{ACAD_REACTORS
330
C
102
}
330
C
100
AcDbDictionary
281
     1
  0
DICTIONARY
  5
52E2
102
{ACAD_REACTORS
330
52E1
102
}
330
52E1
100
AcDbDictionary
281
     1
  0
XRECORD
  5
3159
102
{ACAD_REACTORS
330
3158
102
}
330
3158
100
AcDbXrecord
280
     1
290
     1
  0
XRECORD
  5
315D
102
{ACAD_REACTORS
330
315C
102
}
330
315C
100
AcDbXrecord
280
     1
290
     1
  0
SORTENTSTABLE
  5
52DC
102
{ACAD_REACTORS
330
52DB
102
}
330
52DB
100
AcDbSortentsTable
330
1F
331
557E
  5
5DE8
  0
SORTENTSTABLE
  5
71DD
102
{ACAD_REACTORS
330
71DC
102
}
330
71DC
100
AcDbSortentsTable
330
71DA
  0
SORTENTSTABLE
  5
7319
102
{ACAD_REACTORS
330
7318
102
}
330
7318
100
AcDbSortentsTable
330
7317
  0
SORTENTSTABLE
  5
7378
102
{ACAD_REACTORS
330
7377
102
}
330
7377
100
AcDbSortentsTable
330
7376
  0
SORTENTSTABLE
  5
73CD
102
{ACAD_REACTORS
330
73CC
102
}
330
73CC
100
AcDbSortentsTable
330
73CB
  0
DIMASSOC
  5
6A9B
102
{ACAD_REACTORS
330
6A9A
102
}
330
6A9A
100
AcDbDimAssoc
330
6A99
 90
        2
 70
     0
 71
     0
  1
AcDbOsnapPointRef
 72
     3
331
6A94
 73
     2
 91
        0
 40
0.0
 10
0.0
 20
0.0
 30
0.0
 75
     0
  0
DIMASSOC
  5
6A9E
102
{ACAD_REACTORS
330
6A9D
102
}
330
6A9D
100
AcDbDimAssoc
330
6A9C
 90
        3
 70
     0
 71
     0
  1
AcDbOsnapPointRef
 72
     1
331
6A96
331
664D
 73
     2
 91
        0
 40
1.0
 10
0.0
 20
0.0
 30
2.000000000000000E+50
 75
     0
  1
AcDbOsnapPointRef
 72
     1
331
6A97
331
6658
 73
     2
 91
        0
 40
1.0
 10
0.0
 20
0.0
 30
2.000000000000000E+50
 75
     0
  0
ACDBDETAILVIEWSTYLE
  5
7A64
102
{ACAD_XDICTIONARY
360
7AD1
102
}
102
{ACAD_REACTORS
330
314A
102
}
330
314A
100
AcDbModelDocViewStyle
 70
     0
  3
Metric50
290
     0
100
AcDbDetailViewStyle
 70
     0
 71
     0
 90
        3
 71
     1
340
11
 62
   256
 40
5.0
340
0
 62
   256
 40
5.0
300

 40
0.0
280
     1
 71
     2
340
16
 90
       25
 62
   256
 71
     3
340
11
 62
   256
 40
5.0
 90
        0
 40
15.0
 90
        1
300
%<\AcVar ViewDetailId>% (%<\AcVar ViewScale \f "%sn">%)
 71
     4
340
16
 90
       25
 62
   256
340
16
 90
       25
 62
   256
280
     0
  0
LAYOUT
  5
1E
102
{ACAD_REACTORS
330
1A
102
}
330
1A
100
AcDbPlotSettings
  1

  2
none_device
  4

  6

 40
0.0
 41
0.0
 42
0.0
 43
0.0
 44
0.0
 45
0.0
 46
0.0
 47
0.0
 48
0.0
 49
0.0
140
0.0
141
0.0
142
1.0
143
1.0
 70
   688
 72
     1
 73
     0
 74
     5
  7
monochrome.ctb
 75
    16
147
1.0
 76
     0
 77
     2
 78
   300
148
0.0
149
0.0
100
AcDbLayout
  1
Layout1
 70
     1
 71
     1
 10
0.0
 20
0.0
 11
420.0
 21
297.0
 12
0.0
 22
0.0
 32
0.0
 14
1.000000000000000E+20
 24
1.000000000000000E+20
 34
1.000000000000000E+20
 15
-1.000000000000000E+20
 25
-1.000000000000000E+20
 35
-1.000000000000000E+20
146
0.0
 13
0.0
 23
0.0
 33
0.0
 16
1.0
 26
0.0
 36
0.0
 17
0.0
 27
1.0
 37
0.0
 76
     0
330
1B
  0
LAYOUT
  5
26
102
{ACAD_REACTORS
330
1A
102
}
330
1A
100
AcDbPlotSettings
  1

  2
none_device
  4

  6

 40
0.0
 41
0.0
 42
0.0
 43
0.0
 44
0.0
 45
0.0
 46
0.0
 47
0.0
 48
0.0
 49
0.0
140
0.0
141
0.0
142
1.0
143
1.0
 70
   688
 72
     1
 73
     0
 74
     5
  7
monochrome.ctb
 75
    16
147
1.0
 76
     0
 77
     2
 78
   300
148
0.0
149
0.0
100
AcDbLayout
  1
Layout2
 70
     1
 71
     2
 10
0.0
 20
0.0
 11
0.0
 21
0.0
 12
0.0
 22
0.0
 32
0.0
 14
0.0
 24
0.0
 34
0.0
 15
0.0
 25
0.0
 35
0.0
146
0.0
 13
0.0
 23
0.0
 33
0.0
 16
1.0
 26
0.0
 36
0.0
 17
0.0
 27
1.0
 37
0.0
 76
     0
330
23
  0
LAYOUT
  5
22
102
{ACAD_XDICTIONARY
360
52E7
102
}
102
{ACAD_REACTORS
330
1A
102
}
330
1A
100
AcDbPlotSettings
  1

  2
none_device
  4
Letter_(8.50_x_11.00_Inches)
  6

 40
6.349999999999997
 41
6.349999999999997
 42
6.350005079999997
 43
6.350005079999997
 44
215.9
 45
279.4
 46
0.0
 47
0.0
 48
0.0
 49
0.0
140
0.0
141
0.0
142
1.0
143
1.0
 70
  1712
 72
     1
 73
     0
 74
     0
  7
monochrome.ctb
 75
     0
147
1.0
 76
     0
 77
     2
 78
   300
148
0.0
149
0.0
100
AcDbLayout
  1
Model
 70
     1
 71
     0
 10
0.0
 20
0.0
 11
420.0
 21
297.0
 12
0.0
 22
0.0
 32
0.0
 14
0.0
 24
0.0
 34
0.0
 15
420.0
 25
297.0
 35
0.0
146
0.0
 13
0.0
 23
0.0
 33
0.0
 16
1.0
 26
0.0
 36
0.0
 17
0.0
 27
1.0
 37
0.0
 76
     0
330
1F
331
29
  0
MATERIAL
  5
45
102
{ACAD_REACTORS
330
43
102
}
330
43
100
AcDbMaterial
  1
ByBlock
  0
MATERIAL
  5
44
102
{ACAD_REACTORS
330
43
102
}
330
43
100
AcDbMaterial
  1
ByLayer
  0
MATERIAL
  5
46
102
{ACAD_REACTORS
330
43
102
}
330
43
100
AcDbMaterial
  1
Global
  0
MLEADERSTYLE
  5
3152
102
{ACAD_REACTORS
330
3149
102
}
330
3149
100
AcDbMLeaderStyle
179
     2
170
     2
171
     1
172
     0
 90
        2
 40
0.0
 41
0.0
173
     1
 91
-1056964608
340
14
 92
       -2
290
     1
 42
2.0
291
     1
 43
0.36
  3
Standard
 44
4.0
300

342
11
174
     1
178
     6
175
     1
176
     0
 93
-1056964608
 45
4.0
292
     0
297
     0
 46
4.0
 94
-1056964608
 47
1.0
 49
1.0
140
1.0
293
     1
141
0.0
294
     1
177
     0
142
1.0
295
     0
296
     0
143
0.125
271
     0
272
     9
273
     9
298
     0
  0
MLINESTYLE
  5
18
102
{ACAD_REACTORS
330
17
102
}
330
17
100
AcDbMlineStyle
  2
STANDARD
 70
     0
  3

 62
   256
 51
90.0
 52
90.0
 71
     2
 49
0.5
 62
   256
  6
BYLAYER
 49
-0.5
 62
   256
  6
BYLAYER
  0
ACDBPLACEHOLDER
  5
F
102
{ACAD_REACTORS
330
E
102
}
330
E
  0
SCALE
  5
48
102
{ACAD_REACTORS
330
47
102
}
330
47
100
AcDbScale
 70
     0
300
1:1
140
1.0
141
1.0
290
     1
  0
SCALE
  5
49
102
{ACAD_REACTORS
330
47
102
}
330
47
100
AcDbScale
 70
     0
300
1:2
140
1.0
141
2.0
290
     0
  0
SCALE
  5
4A
102
{ACAD_REACTORS
330
47
102
}
330
47
100
AcDbScale
 70
     0
300
1:4
140
1.0
141
4.0
290
     0
  0
SCALE
  5
4B
102
{ACAD_REACTORS
330
47
102
}
330
47
100
AcDbScale
 70
     0
300
1:5
140
1.0
141
5.0
290
     0
  0
SCALE
  5
4C
102
{ACAD_REACTORS
330
47
102
}
330
47
100
AcDbScale
 70
     0
300
1:8
140
1.0
141
8.0
290
     0
  0
SCALE
  5
4D
102
{ACAD_REACTORS
330
47
102
}
330
47
100
AcDbScale
 70
     0
300
1:10
140
1.0
141
10.0
290
     0
  0
SCALE
  5
4E
102
{ACAD_REACTORS
330
47
102
}
330
47
100
AcDbScale
 70
     0
300
1:16
140
1.0
141
16.0
290
     0
  0
SCALE
  5
4F
102
{ACAD_REACTORS
330
47
102
}
330
47
100
AcDbScale
 70
     0
300
1:20
140
1.0
141
20.0
290
     0
  0
SCALE
  5
50
102
{ACAD_REACTORS
330
47
102
}
330
47
100
AcDbScale
 70
     0
300
1:30
140
1.0
141
30.0
290
     0
  0
SCALE
  5
51
102
{ACAD_REACTORS
330
47
102
}
330
47
100
AcDbScale
 70
     0
300
1:40
140
1.0
141
40.0
290
     0
  0
SCALE
  5
52
102
{ACAD_REACTORS
330
47
102
}
330
47
100
AcDbScale
 70
     0
300
1:50
140
1.0
141
50.0
290
     0
  0
SCALE
  5
53
102
{ACAD_REACTORS
330
47
102
}
330
47
100
AcDbScale
 70
     0
300
1:100
140
1.0
141
100.0
290
     0
  0
SCALE
  5
54
102
{ACAD_REACTORS
330
47
102
}
330
47
100
AcDbScale
 70
     0
300
2:1
140
2.0
141
1.0
290
     0
  0
SCALE
  5
55
102
{ACAD_REACTORS
330
47
102
}
330
47
100
AcDbScale
 70
     0
300
4:1
140
4.0
141
1.0
290
     0
  0
SCALE
  5
56
102
{ACAD_REACTORS
330
47
102
}
330
47
100
AcDbScale
 70
     0
300
8:1
140
8.0
141
1.0
290
     0
  0
SCALE
  5
57
102
{ACAD_REACTORS
330
47
102
}
330
47
100
AcDbScale
 70
     0
300
10:1
140
10.0
141
1.0
290
     0
  0
SCALE
  5
58
102
{ACAD_REACTORS
330
47
102
}
330
47
100
AcDbScale
 70
     0
300
100:1
140
100.0
141
1.0
290
     0
  0
SCALE
  5
59
102
{ACAD_REACTORS
330
47
102
}
330
47
100
AcDbScale
 70
     0
300
1/128" = 1'-0"
140
0.0078125
141
12.0
290
     0
  0
SCALE
  5
5A
102
{ACAD_REACTORS
330
47
102
}
330
47
100
AcDbScale
 70
     0
300
1/64" = 1'-0"
140
0.015625
141
12.0
290
     0
  0
SCALE
  5
5B
102
{ACAD_REACTORS
330
47
102
}
330
47
100
AcDbScale
 70
     0
300
1/32" = 1'-0"
140
0.03125
141
12.0
290
     0
  0
SCALE
  5
5C
102
{ACAD_REACTORS
330
47
102
}
330
47
100
AcDbScale
 70
     0
300
1/16" = 1'-0"
140
0.0625
141
12.0
290
     0
  0
SCALE
  5
5D
102
{ACAD_REACTORS
330
47
102
}
330
47
100
AcDbScale
 70
     0
300
3/32" = 1'-0"
140
0.09375
141
12.0
290
     0
  0
SCALE
  5
5E
102
{ACAD_REACTORS
330
47
102
}
330
47
100
AcDbScale
 70
     0
300
1/8" = 1'-0"
140
0.125
141
12.0
290
     0
  0
SCALE
  5
5F
102
{ACAD_REACTORS
330
47
102
}
330
47
100
AcDbScale
 70
     0
300
3/16" = 1'-0"
140
0.1875
141
12.0
290
     0
  0
SCALE
  5
60
102
{ACAD_REACTORS
330
47
102
}
330
47
100
AcDbScale
 70
     0
300
1/4" = 1'-0"
140
0.25
141
12.0
290
     0
  0
SCALE
  5
61
102
{ACAD_REACTORS
330
47
102
}
330
47
100
AcDbScale
 70
     0
300
3/8" = 1'-0"
140
0.375
141
12.0
290
     0
  0
SCALE
  5
62
102
{ACAD_REACTORS
330
47
102
}
330
47
100
AcDbScale
 70
     0
300
1/2" = 1'-0"
140
0.5
141
12.0
290
     0
  0
SCALE
  5
63
102
{ACAD_REACTORS
330
47
102
}
330
47
100
AcDbScale
 70
     0
300
3/4" = 1'-0"
140
0.75
141
12.0
290
     0
  0
SCALE
  5
64
102
{ACAD_REACTORS
330
47
102
}
330
47
100
AcDbScale
 70
     0
300
1" = 1'-0"
140
1.0
141
12.0
290
     0
  0
SCALE
  5
65
102
{ACAD_REACTORS
330
47
102
}
330
47
100
AcDbScale
 70
     0
300
1-1/2" = 1'-0"
140
1.5
141
12.0
290
     0
  0
SCALE
  5
66
102
{ACAD_REACTORS
330
47
102
}
330
47
100
AcDbScale
 70
     0
300
3" = 1'-0"
140
3.0
141
12.0
290
     0
  0
SCALE
  5
67
102
{ACAD_REACTORS
330
47
102
}
330
47
100
AcDbScale
 70
     0
300
6" = 1'-0"
140
6.0
141
12.0
290
     0
  0
SCALE
  5
68
102
{ACAD_REACTORS
330
47
102
}
330
47
100
AcDbScale
 70
     0
300
1'-0" = 1'-0"
140
12.0
141
12.0
290
     0
  0
ACDBSECTIONVIEWSTYLE
  5
7A63
102
{ACAD_XDICTIONARY
360
7ACF
102
}
102
{ACAD_REACTORS
330
314B
102
}
330
314B
100
AcDbModelDocViewStyle
 70
     0
  3
Metric50
290
     0
100
AcDbSectionViewStyle
 70
     0
 71
     0
 90
      102
 71
     1
340
11
 62
   256
 40
5.0
340
0
340
0
 62
   256
 40
5.0
300
I, O, Q, S, X, Z
 40
10.0
 90
        0
 40
2.5
 90
        0
 71
     2
340
16
 90
       25
 62
   256
340
16
 90
       50
 62
   256
 40
5.0
 40
2.5
 40
5.0
 71
     3
340
11
 62
   256
 40
5.0
 90
        0
 40
15.0
 90
        1
300
%<\AcVar ViewSectionStartId>%-%<\AcVar ViewSectionEndId>% (%<\AcVar ViewScale \f "%sn">%)
 71
     4
 62
   256
 62
   257
300
ANSI31
 40
1.0
 90
        0
290
     0
290
     0
 90
        6
 40
0.0
 40
1.570796326794896
 40
0.2617993877991494
 40
1.308996938995747
 40
-0.2617993877991494
 40
1.832595714594044
  0
TABLESTYLE
  5
3151
102
{ACAD_XDICTIONARY
360
7A5E
102
}
102
{ACAD_REACTORS
330
3148
102
}
330
3148
100
AcDbTableStyle
280
     0
  3
Standard
 70
     0
 71
     0
 40
1.5
 41
1.5
280
     0
281
     0
  7
STANDARD
140
4.5
170
     2
 62
     0
 63
     7
283
     0
 90
      512
 91
        0
  1

274
    -2
284
     1
 64
     0
275
    -2
285
     1
 65
     0
276
    -2
286
     1
 66
     0
277
    -2
287
     1
 67
     0
278
    -2
288
     1
 68
     0
279
    -2
289
     1
 69
     0
  7
STANDARD
140
6.0
170
     5
 62
     0
 63
     7
283
     0
 90
      512
 91
        0
  1

274
    -2
284
     1
 64
     0
275
    -2
285
     1
 65
     0
276
    -2
286
     1
 66
     0
277
    -2
287
     1
 67
     0
278
    -2
288
     1
 68
     0
279
    -2
289
     1
 69
     0
  7
STANDARD
140
4.5
170
     5
 62
     0
 63
     7
283
     0
 90
      512
 91
        0
  1

274
    -2
284
     1
 64
     0
275
    -2
285
     1
 65
     0
276
    -2
286
     1
 66
     0
277
    -2
287
     1
 67
     0
278
    -2
288
     1
 68
     0
279
    -2
289
     1
 69
     0
  0
VISUALSTYLE
  5
2F
102
{ACAD_REACTORS
330
2A
102
}
330
2A
100
AcDbVisualStyle
  2

 70
     4
177
     3
291
     0
 70
    58
 90
        0
176
     1
 90
        2
176
     1
 90
        0
176
     1
 90
        0
176
     1
 40
0.6
176
     1
 40
30.0
176
     1
 62
     7
420
 16777215
176
     1
 90
        1
176
     1
 90
        4
176
     1
 62
     7
176
     1
 62
   257
176
     1
 90
        1
176
     1
 90
        1
176
     1
 40
1.0
176
     1
 90
        0
176
     1
 62
   257
176
     1
 40
1.0
176
     1
 90
        1
176
     1
 90
        6
176
     1
 90
        2
176
     1
 62
     7
176
     1
 90
        5
176
     1
 90
        0
176
     1
 90
        0
176
     1
290
     0
176
     1
 90
        1
176
     1
 40
0.0
176
     1
 90
        0
176
     1
290
     1
176
     1
290
     1
176
     1
290
     0
176
     1
290
     0
176
     1
290
     0
176
     1
290
     0
176
     1
290
     0
176
     1
290
     0
176
     1
290
     0
176
     1
 90
       50
176
     1
 40
0.0
176
     1
 40
1.0
176
     1
 90
        0
176
     1
 62
    18
176
     1
 90
       50
176
     1
 90
        3
176
     1
 62
     5
420
      255
176
     1
290
     0
176
     1
 90
       50
176
     1
 90
       50
176
     1
 90
       50
176
     1
290
     0
176
     1
 90
       50
176
     1
 62
   256
176
     0
 40
1.0
176
     0
 90
        2
176
     1
  1
strokes_ogs.tif
176
     1
290
     0
176
     1
 40
1.0
176
     1
 40
1.0
176
     1
  0
VISUALSTYLE
  5
314F
102
{ACAD_REACTORS
330
2A
102
}
330
2A
100
AcDbVisualStyle
  2
3D Hidden
 70
     6
177
     3
291
     0
 70
    58
 90
        1
176
     1
 90
        2
176
     1
 90
        2
176
     1
 90
        0
176
     1
 40
0.6
176
     1
 40
30.0
176
     1
 62
     7
420
 16777215
176
     1
 90
        2
176
     1
 90
        2
176
     1
 62
     7
176
     1
 62
   257
176
     1
 90
        2
176
     1
 90
        1
176
     1
 40
179.0
176
     1
 90
        0
176
     1
 62
   257
176
     1
 40
1.0
176
     1
 90
        1
176
     1
 90
        6
176
     1
 90
        2
176
     1
 62
     7
176
     1
 90
        3
176
     1
 90
        0
176
     1
 90
        0
176
     1
290
     0
176
     1
 90
        1
176
     1
 40
0.0
176
     1
 90
        0
176
     1
290
     0
176
     1
290
     1
176
     1
290
     1
176
     1
290
     0
176
     1
290
     0
176
     1
290
     0
176
     1
290
     0
176
     1
290
     0
176
     1
290
     0
176
     1
 90
       50
176
     1
 40
0.0
176
     1
 40
1.0
176
     1
 90
        0
176
     1
 62
    18
176
     1
 90
       50
176
     1
 90
        3
176
     1
 62
     5
420
      255
176
     1
290
     0
176
     1
 90
       50
176
     1
 90
       50
176
     1
 90
       50
176
     1
290
     0
176
     1
 90
       50
176
     1
 62
   256
176
     0
 40
1.0
176
     0
 90
        2
176
     1
  1
strokes_ogs.tif
176
     1
290
     0
176
     1
 40
1.0
176
     1
 40
1.0
176
     1
  0
VISUALSTYLE
  5
314E
102
{ACAD_REACTORS
330
2A
102
}
330
2A
100
AcDbVisualStyle
  2
3dWireframe
 70
     5
177
     3
291
     0
 70
    58
 90
        0
176
     1
 90
        2
176
     1
 90
        0
176
     1
 90
        0
176
     1
 40
0.6
176
     1
 40
30.0
176
     1
 62
     7
420
 16777215
176
     1
 90
        1
176
     1
 90
        4
176
     1
 62
     7
176
     1
 62
   257
176
     1
 90
        1
176
     1
 90
        1
176
     1
 40
1.0
176
     1
 90
        0
176
     1
 62
   257
176
     1
 40
1.0
176
     1
 90
        1
176
     1
 90
        6
176
     1
 90
        2
176
     1
 62
     7
176
     1
 90
        5
176
     1
 90
        0
176
     1
 90
        0
176
     1
290
     0
176
     1
 90
        1
176
     1
 40
0.0
176
     1
 90
        0
176
     1
290
     0
176
     1
290
     1
176
     1
290
     1
176
     1
290
     0
176
     1
290
     0
176
     1
290
     0
176
     1
290
     0
176
     1
290
     0
176
     1
290
     0
176
     1
 90
       50
176
     1
 40
0.0
176
     1
 40
1.0
176
     1
 90
        0
176
     1
 62
    18
176
     1
 90
       50
176
     1
 90
        3
176
     1
 62
     5
420
      255
176
     1
290
     0
176
     1
 90
       50
176
     1
 90
       50
176
     1
 90
       50
176
     1
290
     0
176
     1
 90
       50
176
     1
 62
   256
176
     0
 40
1.0
176
     0
 90
        2
176
     1
  1
strokes_ogs.tif
176
     1
290
     0
176
     1
 40
1.0
176
     1
 40
1.0
176
     1
  0
VISUALSTYLE
  5
32
102
{ACAD_REACTORS
330
2A
102
}
330
2A
100
AcDbVisualStyle
  2

 70
     7
177
     3
291
     1
 70
    58
 90
        1
176
     1
 90
        0
176
     1
 90
        1
176
     1
 90
        0
176
     1
 40
0.6
176
     1
 40
30.0
176
     1
 62
     7
420
 16777215
176
     1
 90
        0
176
     1
 90
        4
176
     1
 62
     7
176
     1
 62
   257
176
     1
 90
        1
176
     1
 90
        1
176
     1
 40
1.0
176
     1
 90
        8
176
     1
 62
     7
176
     1
 40
1.0
176
     1
 90
        1
176
     1
 90
        6
176
     1
 90
        2
176
     1
 62
     7
176
     1
 90
        5
176
     1
 90
        0
176
     1
 90
        0
176
     1
290
     0
176
     1
 90
        1
176
     1
 40
0.0
176
     1
 90
        0
176
     1
290
     0
176
     1
290
     1
176
     1
290
     1
176
     1
290
     0
176
     1
290
     0
176
     1
290
     0
176
     1
290
     0
176
     1
290
     0
176
     1
290
     0
176
     1
 90
       50
176
     1
 40
0.0
176
     1
 40
1.0
176
     1
 90
        0
176
     1
 62
    18
176
     1
 90
       50
176
     1
 90
        3
176
     1
 62
     5
420
      255
176
     1
290
     0
176
     1
 90
       50
176
     1
 90
       50
176
     1
 90
       50
176
     1
290
     0
176
     1
 90
       50
176
     1
 62
   256
176
     0
 40
1.0
176
     0
 90
        2
176
     1
  1
strokes_ogs.tif
176
     1
290
     0
176
     1
 40
1.0
176
     1
 40
1.0
176
     1
  0
VISUALSTYLE
  5
36
102
{ACAD_REACTORS
330
2A
102
}
330
2A
100
AcDbVisualStyle
  2

 70
    12
177
     3
291
     1
 70
    58
 90
        2
176
     1
 90
        2
176
     1
 90
        0
176
     1
 90
        0
176
     1
 40
0.6
176
     1
 40
30.0
176
     1
 62
     7
420
 16777215
176
     1
 90
        1
176
     1
 90
        4
176
     1
 62
     7
176
     1
 62
   257
176
     1
 90
        1
176
     1
 90
        1
176
     1
 40
1.0
176
     1
 90
        8
176
     1
 62
     7
176
     1
 40
1.0
176
     1
 90
        1
176
     1
 90
        6
176
     1
 90
        2
176
     1
 62
     7
176
     1
 90
        5
176
     1
 90
        0
176
     1
 90
        0
176
     1
290
     0
176
     1
 90
        1
176
     1
 40
50.0
176
     1
 90
        0
176
     1
290
     0
176
     1
290
     1
176
     1
290
     1
176
     1
290
     0
176
     1
290
     0
176
     1
290
     0
176
     1
290
     0
176
     1
290
     0
176
     1
290
     0
176
     1
 90
       50
176
     1
 40
0.0
176
     1
 40
1.0
176
     1
 90
        0
176
     1
 62
    18
176
     1
 90
       50
176
     1
 90
        3
176
     1
 62
     5
420
      255
176
     1
290
     0
176
     1
 90
       50
176
     1
 90
       50
176
     1
 90
       50
176
     1
290
     0
176
     1
 90
       50
176
     1
 62
   256
176
     0
 40
1.0
176
     0
 90
        2
176
     1
  1
strokes_ogs.tif
176
     1
290
     0
176
     1
 40
1.0
176
     1
 40
1.0
176
     1
  0
VISUALSTYLE
  5
3A
102
{ACAD_REACTORS
330
2A
102
}
330
2A
100
AcDbVisualStyle
  2

 70
    16
177
     3
291
     1
 70
    58
 90
        2
176
     1
 90
        2
176
     1
 90
        3
176
     1
 90
        0
176
     1
 40
0.6
176
     1
 40
30.0
176
     1
 62
     8
420
  8421504
176
     1
 90
        1
176
     1
 90
        4
176
     1
 62
     7
176
     1
 62
   257
176
     1
 90
        1
176
     1
 90
        1
176
     1
 40
1.0
176
     1
 90
        8
176
     1
 62
     8
420
  8421504
176
     1
 40
1.0
176
     1
 90
        1
176
     1
 90
        6
176
     1
 90
        2
176
     1
 62
     7
176
     1
 90
        5
176
     1
 90
        0
176
     1
 90
        0
176
     1
290
     0
176
     1
 90
        1
176
     1
 40
0.0
176
     1
 90
        0
176
     1
290
     0
176
     1
290
     1
176
     1
290
     1
176
     1
290
     0
176
     1
290
     0
176
     1
290
     0
176
     1
290
     0
176
     1
290
     0
176
     1
290
     0
176
     1
 90
       50
176
     1
 40
0.0
176
     1
 40
1.0
176
     1
 90
        0
176
     1
 62
    18
176
     1
 90
       50
176
     1
 90
        3
176
     1
 62
     5
420
      255
176
     1
290
     0
176
     1
 90
       50
176
     1
 90
       50
176
     1
 90
       50
176
     1
290
     0
176
     1
 90
       50
176
     1
 62
   256
176
     0
 40
1.0
176
     0
 90
        2
176
     1
  1
strokes_ogs.tif
176
     1
290
     0
176
     1
 40
1.0
176
     1
 40
1.0
176
     1
  0
VISUALSTYLE
  5
34
102
{ACAD_REACTORS
330
2A
102
}
330
2A
100
AcDbVisualStyle
  2

 70
     9
177
     3
291
     0
 70
    58
 90
        3
176
     1
 90
        2
176
     1
 90
        0
176
     1
 90
        0
176
     1
 40
0.6
176
     1
 40
30.0
176
     1
 62
     7
420
 16777215
176
     1
 90
        2
176
     1
 90
        2
176
     1
 62
     7
176
     1
 62
   257
176
     1
 90
        1
176
     1
 90
        1
176
     1
 40
179.0
176
     1
 90
        8
176
     1
 62
     7
176
     1
 40
1.0
176
     1
 90
        1
176
     1
 90
        6
176
     1
 90
        2
176
     1
 62
     7
176
     1
 90
        3
176
     1
 90
        0
176
     1
 90
        0
176
     1
290
     0
176
     1
 90
        1
176
     1
 40
0.0
176
     1
 90
        0
176
     1
290
     0
176
     1
290
     1
176
     1
290
     1
176
     1
290
     0
176
     1
290
     0
176
     1
290
     0
176
     1
290
     0
176
     1
290
     0
176
     1
290
     0
176
     1
 90
       50
176
     1
 40
0.0
176
     1
 40
1.0
176
     1
 90
        0
176
     1
 62
    18
176
     1
 90
       50
176
     1
 90
        3
176
     1
 62
     5
420
      255
176
     1
290
     0
176
     1
 90
       50
176
     1
 90
       50
176
     1
 90
       50
176
     1
290
     0
176
     1
 90
       50
176
     1
 62
   256
176
     0
 40
1.0
176
     0
 90
        2
176
     1
  1
strokes_ogs.tif
176
     1
290
     0
176
     1
 40
1.0
176
     1
 40
1.0
176
     1
  0
VISUALSTYLE
  5
35
102
{ACAD_REACTORS
330
2A
102
}
330
2A
100
AcDbVisualStyle
  2

 70
    11
177
     3
291
     1
 70
    58
 90
        2
176
     1
 90
        2
176
     1
 90
        0
176
     1
 90
        0
176
     1
 40
0.6
176
     1
 40
30.0
176
     1
 62
     7
420
 16777215
176
     1
 90
        1
176
     1
 90
        4
176
     1
 62
     7
176
     1
 62
   257
176
     1
 90
        1
176
     1
 90
        1
176
     1
 40
1.0
176
     1
 90
        8
176
     1
 62
     7
176
     1
 40
1.0
176
     1
 90
        1
176
     1
 90
        6
176
     1
 90
        2
176
     1
 62
     7
176
     1
 90
        5
176
     1
 90
        0
176
     1
 90
        0
176
     1
290
     0
176
     1
 90
        1
176
     1
 40
-50.0
176
     1
 90
        0
176
     1
290
     0
176
     1
290
     1
176
     1
290
     1
176
     1
290
     0
176
     1
290
     0
176
     1
290
     0
176
     1
290
     0
176
     1
290
     0
176
     1
290
     0
176
     1
 90
       50
176
     1
 40
0.0
176
     1
 40
1.0
176
     1
 90
        0
176
     1
 62
    18
176
     1
 90
       50
176
     1
 90
        3
176
     1
 62
     5
420
      255
176
     1
290
     0
176
     1
 90
       50
176
     1
 90
       50
176
     1
 90
       50
176
     1
290
     0
176
     1
 90
       50
176
     1
 62
   256
176
     0
 40
1.0
176
     0
 90
        2
176
     1
  1
strokes_ogs.tif
176
     1
290
     0
176
     1
 40
1.0
176
     1
 40
1.0
176
     1
  0
VISUALSTYLE
  5
3D
102
{ACAD_REACTORS
330
2A
102
}
330
2A
100
AcDbVisualStyle
  2

 70
    22
177
     3
291
     1
 70
    58
 90
        2
176
     1
 90
        2
176
     1
 90
        0
176
     1
 90
        0
176
     1
 40
0.6
176
     1
 40
30.0
176
     1
 62
     7
420
 16777215
176
     1
 90
        1
176
     1
 90
        4
176
     1
 62
     7
176
     1
 62
   257
176
     1
 90
        1
176
     1
 90
        1
176
     1
 40
1.0
176
     1
 90
        8
176
     1
 62
     7
176
     1
 40
1.0
176
     1
 90
        1
176
     1
 90
        6
176
     1
 90
        2
176
     1
 62
     7
176
     1
 90
        5
176
     1
 90
        0
176
     1
 90
        0
176
     1
290
     0
176
     1
 90
        1
176
     1
 40
0.0
176
     1
 90
        0
176
     1
290
     0
176
     1
290
     1
176
     1
290
     1
176
     1
290
     0
176
     1
290
     0
176
     1
290
     0
176
     1
290
     0
176
     1
290
     0
176
     1
290
     0
176
     1
 90
       50
176
     1
 40
0.0
176
     1
 40
1.0
176
     1
 90
        0
176
     1
 62
    18
176
     1
 90
       50
176
     1
 90
        3
176
     1
 62
     5
420
      255
176
     1
290
     0
176
     1
 90
       50
176
     1
 90
       50
176
     1
 90
       50
176
     1
290
     0
176
     1
 90
       50
176
     1
 62
   256
176
     0
 40
1.0
176
     0
 90
        2
176
     1
  1
strokes_ogs.tif
176
     1
290
     0
176
     1
 40
1.0
176
     1
 40
1.0
176
     1
  0
VISUALSTYLE
  5
39
102
{ACAD_REACTORS
330
2A
102
}
330
2A
100
AcDbVisualStyle
  2

 70
    15
177
     3
291
     1
 70
    58
 90
        2
176
     1
 90
        2
176
     1
 90
        0
176
     1
 90
        0
176
     1
 40
0.6
176
     1
 40
30.0
176
     1
 62
     7
420
 16777215
176
     1
 90
        1
176
     1
 90
        4
176
     1
 62
     7
176
     1
 62
   257
176
     1
 90
        1
176
     1
 90
        1
176
     1
 40
1.0
176
     1
 90
        8
176
     1
 62
     7
176
     1
 40
1.0
176
     1
 90
        1
176
     1
 90
        6
176
     1
 90
        2
176
     1
 62
     7
176
     1
 90
        5
176
     1
 90
        0
176
     1
 90
        0
176
     1
290
     0
176
     1
 90
        1
176
     1
 40
0.0
176
     1
 90
        0
176
     1
290
     0
176
     1
290
     1
176
     1
290
     1
176
     1
290
     0
176
     1
290
     0
176
     1
290
     0
176
     1
290
     0
176
     1
290
     0
176
     1
290
     0
176
     1
 90
       50
176
     1
 40
0.0
176
     1
 40
1.0
176
     1
 90
        0
176
     1
 62
    18
176
     1
 90
       50
176
     1
 90
        3
176
     1
 62
     5
420
      255
176
     1
290
     0
176
     1
 90
       50
176
     1
 90
       50
176
     1
 90
       50
176
     1
290
     0
176
     1
 90
       50
176
     1
 62
   256
176
     0
 40
1.0
176
     0
 90
        2
176
     1
  1
strokes_ogs.tif
176
     1
290
     0
176
     1
 40
1.0
176
     1
 40
1.0
176
     1
  0
VISUALSTYLE
  5
2B
102
{ACAD_REACTORS
330
2A
102
}
330
2A
100
AcDbVisualStyle
  2

 70
     0
177
     3
291
     1
 70
    58
 90
        2
176
     1
 90
        1
176
     1
 90
        1
176
     1
 90
        2
176
     1
 40
0.6
176
     1
 40
30.0
176
     1
 62
     7
420
 16777215
176
     1
 90
        0
176
     1
 90
        0
176
     1
 62
     7
176
     1
 62
   257
176
     1
 90
        1
176
     1
 90
        1
176
     1
 40
1.0
176
     1
 90
        8
176
     1
 62
     7
176
     1
 40
1.0
176
     1
 90
        1
176
     1
 90
        6
176
     1
 90
        2
176
     1
 62
     7
176
     1
 90
        5
176
     1
 90
        0
176
     1
 90
        0
176
     1
290
     0
176
     1
 90
       13
176
     1
 40
0.0
176
     1
 90
        0
176
     1
290
     0
176
     1
290
     1
176
     1
290
     1
176
     1
290
     0
176
     1
290
     0
176
     1
290
     0
176
     1
290
     0
176
     1
290
     0
176
     1
290
     0
176
     1
 90
       50
176
     1
 40
0.0
176
     1
 40
1.0
176
     1
 90
        0
176
     1
 62
    18
176
     1
 90
       50
176
     1
 90
        3
176
     1
 62
     5
420
      255
176
     1
290
     0
176
     1
 90
       50
176
     1
 90
       50
176
     1
 90
       50
176
     1
290
     0
176
     1
 90
       50
176
     1
 62
   256
176
     0
 40
1.0
176
     0
 90
        2
176
     1
  1
strokes_ogs.tif
176
     1
290
     0
176
     1
 40
1.0
176
     1
 40
1.0
176
     1
  0
VISUALSTYLE
  5
2C
102
{ACAD_REACTORS
330
2A
102
}
330
2A
100
AcDbVisualStyle
  2

 70
     1
177
     3
291
     1
 70
    58
 90
        2
176
     1
 90
        1
176
     1
 90
        1
176
     1
 90
        2
176
     1
 40
0.6
176
     1
 40
30.0
176
     1
 62
     7
420
 16777215
176
     1
 90
        1
176
     1
 90
        0
176
     1
 62
     7
176
     1
 62
   257
176
     1
 90
        1
176
     1
 90
        1
176
     1
 40
1.0
176
     1
 90
        0
176
     1
 62
   257
176
     1
 40
1.0
176
     1
 90
        1
176
     1
 90
        6
176
     1
 90
        2
176
     1
 62
     7
176
     1
 90
        5
176
     1
 90
        0
176
     1
 90
        0
176
     1
290
     0
176
     1
 90
       13
176
     1
 40
0.0
176
     1
 90
        0
176
     1
290
     0
176
     1
290
     1
176
     1
290
     1
176
     1
290
     0
176
     1
290
     0
176
     1
290
     0
176
     1
290
     0
176
     1
290
     0
176
     1
290
     0
176
     1
 90
       50
176
     1
 40
0.0
176
     1
 40
1.0
176
     1
 90
        0
176
     1
 62
    18
176
     1
 90
       50
176
     1
 90
        3
176
     1
 62
     5
420
      255
176
     1
290
     0
176
     1
 90
       50
176
     1
 90
       50
176
     1
 90
       50
176
     1
290
     0
176
     1
 90
       50
176
     1
 62
   256
176
     0
 40
1.0
176
     0
 90
        2
176
     1
  1
strokes_ogs.tif
176
     1
290
     0
176
     1
 40
1.0
176
     1
 40
1.0
176
     1
  0
VISUALSTYLE
  5
2D
102
{ACAD_REACTORS
330
2A
102
}
330
2A
100
AcDbVisualStyle
  2

 70
     2
177
     3
291
     1
 70
    58
 90
        2
176
     1
 90
        2
176
     1
 90
        1
176
     1
 90
        2
176
     1
 40
0.6
176
     1
 40
30.0
176
     1
 62
     7
420
 16777215
176
     1
 90
        0
176
     1
 90
        0
176
     1
 62
     7
176
     1
 62
   257
176
     1
 90
        1
176
     1
 90
        1
176
     1
 40
1.0
176
     1
 90
        0
176
     1
 62
     7
176
     1
 40
1.0
176
     1
 90
        1
176
     1
 90
        6
176
     1
 90
        2
176
     1
 62
     7
176
     1
 90
        5
176
     1
 90
        0
176
     1
 90
        0
176
     1
290
     0
176
     1
 90
       13
176
     1
 40
0.0
176
     1
 90
        0
176
     1
290
     0
176
     1
290
     1
176
     1
290
     1
176
     1
290
     0
176
     1
290
     0
176
     1
290
     0
176
     1
290
     0
176
     1
290
     0
176
     1
290
     0
176
     1
 90
       50
176
     1
 40
0.0
176
     1
 40
1.0
176
     1
 90
        0
176
     1
 62
    18
176
     1
 90
       50
176
     1
 90
        3
176
     1
 62
     5
420
      255
176
     1
290
     0
176
     1
 90
       50
176
     1
 90
       50
176
     1
 90
       50
176
     1
290
     0
176
     1
 90
       50
176
     1
 62
   256
176
     0
 40
1.0
176
     0
 90
        2
176
     1
  1
strokes_ogs.tif
176
     1
290
     0
176
     1
 40
1.0
176
     1
 40
1.0
176
     1
  0
VISUALSTYLE
  5
2E
102
{ACAD_REACTORS
330
2A
102
}
330
2A
100
AcDbVisualStyle
  2

 70
     3
177
     3
291
     1
 70
    58
 90
        2
176
     1
 90
        2
176
     1
 90
        1
176
     1
 90
        2
176
     1
 40
0.6
176
     1
 40
30.0
176
     1
 62
     7
420
 16777215
176
     1
 90
        1
176
     1
 90
        0
176
     1
 62
     7
176
     1
 62
   257
176
     1
 90
        1
176
     1
 90
        1
176
     1
 40
1.0
176
     1
 90
        0
176
     1
 62
   257
176
     1
 40
1.0
176
     1
 90
        1
176
     1
 90
        6
176
     1
 90
        2
176
     1
 62
     7
176
     1
 90
        5
176
     1
 90
        0
176
     1
 90
        0
176
     1
290
     0
176
     1
 90
       13
176
     1
 40
0.0
176
     1
 90
        0
176
     1
290
     0
176
     1
290
     1
176
     1
290
     1
176
     1
290
     0
176
     1
290
     0
176
     1
290
     0
176
     1
290
     0
176
     1
290
     0
176
     1
290
     0
176
     1
 90
       50
176
     1
 40
0.0
176
     1
 40
1.0
176
     1
 90
        0
176
     1
 62
    18
176
     1
 90
       50
176
     1
 90
        3
176
     1
 62
     5
420
      255
176
     1
290
     0
176
     1
 90
       50
176
     1
 90
       50
176
     1
 90
       50
176
     1
290
     0
176
     1
 90
       50
176
     1
 62
   256
176
     0
 40
1.0
176
     0
 90
        2
176
     1
  1
strokes_ogs.tif
176
     1
290
     0
176
     1
 40
1.0
176
     1
 40
1.0
176
     1
  0
VISUALSTYLE
  5
31
102
{ACAD_REACTORS
330
2A
102
}
330
2A
100
AcDbVisualStyle
  2

 70
     6
177
     3
291
     0
 70
    58
 90
        1
176
     1
 90
        2
176
     1
 90
        2
176
     1
 90
        0
176
     1
 40
0.6
176
     1
 40
30.0
176
     1
 62
     7
420
 16777215
176
     1
 90
        2
176
     1
 90
        2
176
     1
 62
     7
176
     1
 62
   257
176
     1
 90
        2
176
     1
 90
        1
176
     1
 40
40.0
176
     1
 90
        0
176
     1
 62
   257
176
     1
 40
1.0
176
     1
 90
        1
176
     1
 90
        6
176
     1
 90
        2
176
     1
 62
     7
176
     1
 90
        3
176
     1
 90
        0
176
     1
 90
        0
176
     1
290
     0
176
     1
 90
        1
176
     1
 40
0.0
176
     1
 90
        0
176
     1
290
     0
176
     1
290
     1
176
     1
290
     1
176
     1
290
     0
176
     1
290
     0
176
     1
290
     0
176
     1
290
     0
176
     1
290
     0
176
     1
290
     0
176
     1
 90
       50
176
     1
 40
0.0
176
     1
 40
1.0
176
     1
 90
        0
176
     1
 62
    18
176
     1
 90
       50
176
     1
 90
        3
176
     1
 62
     5
420
      255
176
     1
290
     0
176
     1
 90
       50
176
     1
 90
       50
176
     1
 90
       50
176
     1
290
     0
176
     1
 90
       50
176
     1
 62
   256
176
     0
 40
1.0
176
     0
 90
        2
176
     1
  1
strokes_ogs.tif
176
     1
290
     0
176
     1
 40
1.0
176
     1
 40
1.0
176
     1
  0
VISUALSTYLE
  5
3B
102
{ACAD_REACTORS
330
2A
102
}
330
2A
100
AcDbVisualStyle
  2

 70
    20
177
     3
291
     1
 70
    58
 90
        2
176
     1
 90
        2
176
     1
 90
        0
176
     1
 90
        0
176
     1
 40
0.6
176
     1
 40
30.0
176
     1
 62
     7
420
 16777215
176
     1
 90
        1
176
     1
 90
        4
176
     1
 62
     7
176
     1
 62
   257
176
     1
 90
        1
176
     1
 90
        1
176
     1
 40
1.0
176
     1
 90
       10
176
     1
 62
     7
176
     1
 40
1.0
176
     1
 90
        1
176
     1
 90
        6
176
     1
 90
        2
176
     1
 62
     7
176
     1
 90
        5
176
     1
 90
        0
176
     1
 90
        0
176
     1
290
     0
176
     1
 90
        1
176
     1
 40
0.0
176
     1
 90
        0
176
     1
290
     0
176
     1
290
     1
176
     1
290
     1
176
     1
290
     0
176
     1
290
     0
176
     1
290
     0
176
     1
290
     0
176
     1
290
     0
176
     1
290
     0
176
     1
 90
       50
176
     1
 40
0.0
176
     1
 40
1.0
176
     1
 90
        0
176
     1
 62
    18
176
     1
 90
       50
176
     1
 90
        3
176
     1
 62
     5
420
      255
176
     1
290
     0
176
     1
 90
       50
176
     1
 90
       50
176
     1
 90
       50
176
     1
290
     0
176
     1
 90
       50
176
     1
 62
   256
176
     0
 40
1.0
176
     0
 90
        2
176
     1
  1
strokes_ogs.tif
176
     1
290
     0
176
     1
 40
1.0
176
     1
 40
1.0
176
     1
  0
VISUALSTYLE
  5
38
102
{ACAD_REACTORS
330
2A
102
}
330
2A
100
AcDbVisualStyle
  2

 70
    14
177
     3
291
     1
 70
    58
 90
        2
176
     1
 90
        2
176
     1
 90
        0
176
     1
 90
        0
176
     1
 40
0.6
176
     1
 40
30.0
176
     1
 62
     7
420
 16777215
176
     1
 90
        1
176
     1
 90
        4
176
     1
 62
     7
176
     1
 62
   257
176
     1
 90
        7
176
     1
 90
        7
176
     1
 40
1.0
176
     1
 90
        8
176
     1
 62
     7
176
     1
 40
1.0
176
     1
 90
        1
176
     1
 90
        6
176
     1
 90
        2
176
     1
 62
     7
176
     1
 90
        5
176
     1
 90
        0
176
     1
 90
        0
176
     1
290
     0
176
     1
 90
        1
176
     1
 40
0.0
176
     1
 90
        0
176
     1
290
     0
176
     1
290
     1
176
     1
290
     1
176
     1
290
     0
176
     1
290
     0
176
     1
290
     0
176
     1
290
     0
176
     1
290
     0
176
     1
290
     0
176
     1
 90
       50
176
     1
 40
0.0
176
     1
 40
1.0
176
     1
 90
        0
176
     1
 62
    18
176
     1
 90
       50
176
     1
 90
        3
176
     1
 62
     5
420
      255
176
     1
290
     0
176
     1
 90
       50
176
     1
 90
       50
176
     1
 90
       50
176
     1
290
     0
176
     1
 90
       50
176
     1
 62
   256
176
     0
 40
1.0
176
     0
 90
        2
176
     1
  1
strokes_ogs.tif
176
     1
290
     0
176
     1
 40
1.0
176
     1
 40
1.0
176
     1
  0
VISUALSTYLE
  5
3C
102
{ACAD_REACTORS
330
2A
102
}
330
2A
100
AcDbVisualStyle
  2

 70
    21
177
     3
291
     1
 70
    58
 90
        2
176
     1
 90
        2
176
     1
 90
        0
176
     1
 90
        0
176
     1
 40
0.6
176
     1
 40
30.0
176
     1
 62
     7
420
 16777215
176
     1
 90
        1
176
     1
 90
        4
176
     1
 62
     7
176
     1
 62
   257
176
     1
 90
        1
176
     1
 90
        1
176
     1
 40
1.0
176
     1
 90
        9
176
     1
 62
     7
176
     1
 40
1.0
176
     1
 90
        1
176
     1
 90
        6
176
     1
 90
        2
176
     1
 62
     7
176
     1
 90
        5
176
     1
 90
        0
176
     1
 90
        0
176
     1
290
     0
176
     1
 90
        1
176
     1
 40
0.0
176
     1
 90
        0
176
     1
290
     0
176
     1
290
     1
176
     1
290
     1
176
     1
290
     0
176
     1
290
     0
176
     1
290
     0
176
     1
290
     0
176
     1
290
     0
176
     1
290
     0
176
     1
 90
       50
176
     1
 40
0.0
176
     1
 40
1.0
176
     1
 90
        0
176
     1
 62
    18
176
     1
 90
       50
176
     1
 90
        3
176
     1
 62
     5
420
      255
176
     1
290
     0
176
     1
 90
       50
176
     1
 90
       50
176
     1
 90
       50
176
     1
290
     0
176
     1
 90
       50
176
     1
 62
   256
176
     0
 40
1.0
176
     0
 90
        2
176
     1
  1
strokes_ogs.tif
176
     1
290
     0
176
     1
 40
1.0
176
     1
 40
1.0
176
     1
  0
VISUALSTYLE
  5
33
102
{ACAD_REACTORS
330
2A
102
}
330
2A
100
AcDbVisualStyle
  2

 70
     8
177
     3
291
     0
 70
    58
 90
        2
176
     1
 90
        3
176
     1
 90
        0
176
     1
 90
        2
176
     1
 40
0.6
176
     1
 40
30.0
176
     1
 62
     7
420
 16777215
176
     1
 90
        0
176
     1
 90
        0
176
     1
 62
     7
176
     1
 62
   257
176
     1
 90
        1
176
     1
 90
        1
176
     1
 40
1.0
176
     1
 90
        8
176
     1
 62
   257
176
     1
 40
1.0
176
     1
 90
        1
176
     1
 90
        6
176
     1
 90
        2
176
     1
 62
     7
176
     1
 90
        3
176
     1
 90
        0
176
     1
 90
        0
176
     1
290
     0
176
     1
 90
       13
176
     1
 40
0.0
176
     1
 90
        0
176
     1
290
     0
176
     1
290
     1
176
     1
290
     1
176
     1
290
     0
176
     1
290
     0
176
     1
290
     0
176
     1
290
     0
176
     1
290
     0
176
     1
290
     0
176
     1
 90
       50
176
     1
 40
0.0
176
     1
 40
1.0
176
     1
 90
        0
176
     1
 62
    18
176
     1
 90
       50
176
     1
 90
        3
176
     1
 62
     5
420
      255
176
     1
290
     0
176
     1
 90
       50
176
     1
 90
       50
176
     1
 90
       50
176
     1
290
     0
176
     1
 90
       50
176
     1
 62
   256
176
     0
 40
1.0
176
     0
 90
        2
176
     1
  1
strokes_ogs.tif
176
     1
290
     0
176
     1
 40
1.0
176
     1
 40
1.0
176
     1
  0
VISUALSTYLE
  5
42
102
{ACAD_REACTORS
330
2A
102
}
330
2A
100
AcDbVisualStyle
  2

 70
    27
177
     3
291
     0
 70
    58
 90
        2
176
     1
 90
        2
176
     1
 90
        1
176
     1
 90
        2
176
     1
 40
0.6
176
     1
 40
30.0
176
     1
 62
     7
420
 16777215
176
     1
 90
        0
176
     1
 90
        4
176
     1
 62
     7
176
     1
 62
   257
176
     1
 90
        1
176
     1
 90
        1
176
     1
 40
1.0
176
     1
 90
        8
176
     1
 62
   257
176
     1
 40
1.0
176
     1
 90
        1
176
     1
 90
        6
176
     1
 90
        2
176
     1
 62
     8
420
  7895160
176
     1
 90
        3
176
     1
 90
        0
176
     1
 90
        0
176
     1
290
     0
176
     1
 90
        5
176
     1
 40
0.0
176
     1
 90
        0
176
     1
290
     0
176
     1
290
     1
176
     1
290
     1
176
     1
290
     0
176
     1
290
     0
176
     1
290
     0
176
     1
290
     0
176
     1
290
     0
176
     1
290
     0
176
     1
 90
       50
176
     1
 40
0.0
176
     1
 40
1.0
176
     1
 90
        0
176
     1
 62
    18
176
     1
 90
       50
176
     1
 90
        3
176
     1
 62
     5
420
      255
176
     1
290
     0
176
     1
 90
       50
176
     1
 90
       50
176
     1
 90
       50
176
     1
290
     0
176
     1
 90
       50
176
     1
 62
   256
176
     0
 40
1.0
176
     0
 90
        2
176
     1
  1
strokes_ogs.tif
176
     1
290
     0
176
     1
 40
1.0
176
     1
 40
1.0
176
     1
  0
VISUALSTYLE
  5
41
102
{ACAD_REACTORS
330
2A
102
}
330
2A
100
AcDbVisualStyle
  2

 70
    26
177
     3
291
     0
 70
    58
 90
        2
176
     1
 90
        2
176
     1
 90
        1
176
     1
 90
        2
176
     1
 40
0.6
176
     1
 40
30.0
176
     1
 62
     7
420
 16777215
176
     1
 90
        1
176
     1
 90
       10
176
     1
 62
     7
176
     1
 62
   257
176
     1
 90
        2
176
     1
 90
        1
176
     1
 40
1.0
176
     1
 90
        8
176
     1
 62
   257
176
     1
 40
1.0
176
     1
 90
        1
176
     1
 90
        6
176
     1
 90
        2
176
     1
 62
     7
176
     1
 90
        3
176
     1
 90
        0
176
     1
 90
        0
176
     1
290
     0
176
     1
 90
        5
176
     1
 40
0.0
176
     1
 90
        0
176
     1
290
     0
176
     1
290
     1
176
     1
290
     1
176
     1
290
     0
176
     1
290
     0
176
     1
290
     0
176
     1
290
     0
176
     1
290
     0
176
     1
290
     0
176
     1
 90
       50
176
     1
 40
0.0
176
     1
 40
1.0
176
     1
 90
        0
176
     1
 62
    18
176
     1
 90
       50
176
     1
 90
        3
176
     1
 62
     5
420
      255
176
     1
290
     0
176
     1
 90
       50
176
     1
 90
       50
176
     1
 90
       50
176
     1
290
     0
176
     1
 90
       50
176
     1
 62
   256
176
     0
 40
1.0
176
     0
 90
        2
176
     1
  1
strokes_ogs.tif
176
     1
290
     0
176
     1
 40
1.0
176
     1
 40
1.0
176
     1
  0
VISUALSTYLE
  5
3E
102
{ACAD_REACTORS
330
2A
102
}
330
2A
100
AcDbVisualStyle
  2

 70
    23
177
     3
291
     0
 70
    58
 90
        2
176
     1
 90
        2
176
     1
 90
        3
176
     1
 90
        0
176
     1
 40
0.6
176
     1
 40
30.0
176
     1
 62
     7
420
 16777215
176
     1
 90
        2
176
     1
 90
        2
176
     1
 62
     7
176
     1
 62
     7
176
     1
 90
        1
176
     1
 90
        1
176
     1
 40
40.0
176
     1
 90
        8
176
     1
 62
     7
176
     1
 40
1.0
176
     1
 90
        1
176
     1
 90
        6
176
     1
 90
        2
176
     1
 62
     7
176
     1
 90
        3
176
     1
 90
        0
176
     1
 90
        0
176
     1
290
     0
176
     1
 90
        1
176
     1
 40
0.0
176
     1
 90
        0
176
     1
290
     0
176
     1
290
     1
176
     1
290
     1
176
     1
290
     0
176
     1
290
     0
176
     1
290
     0
176
     1
290
     0
176
     1
290
     0
176
     1
290
     0
176
     1
 90
       50
176
     1
 40
0.0
176
     1
 40
1.0
176
     1
 90
        0
176
     1
 62
    18
176
     1
 90
       50
176
     1
 90
        3
176
     1
 62
     5
420
      255
176
     1
290
     0
176
     1
 90
       50
176
     1
 90
       50
176
     1
 90
       50
176
     1
290
     0
176
     1
 90
       50
176
     1
 62
   256
176
     0
 40
1.0
176
     0
 90
        2
176
     1
  1
strokes_ogs.tif
176
     1
290
     0
176
     1
 40
1.0
176
     1
 40
1.0
176
     1
  0
VISUALSTYLE
  5
3F
102
{ACAD_REACTORS
330
2A
102
}
330
2A
100
AcDbVisualStyle
  2

 70
    24
177
     3
291
     0
 70
    58
 90
        1
176
     1
 90
        2
176
     1
 90
        2
176
     1
 90
        0
176
     1
 40
0.6
176
     1
 40
30.0
176
     1
 62
     7
420
 16777215
176
     1
 90
        2
176
     1
 90
        2
176
     1
 62
     7
176
     1
 62
     7
176
     1
 90
        1
176
     1
 90
        1
176
     1
 40
40.0
176
     1
 90
       11
176
     1
 62
     7
176
     1
 40
1.0
176
     1
 90
        1
176
     1
 90
        6
176
     1
 90
        2
176
     1
 62
     7
176
     1
 90
        6
176
     1
 90
        0
176
     1
 90
        0
176
     1
290
     0
176
     1
 90
        1
176
     1
 40
0.0
176
     1
 90
        0
176
     1
290
     0
176
     1
290
     1
176
     1
290
     1
176
     1
290
     0
176
     1
290
     0
176
     1
290
     0
176
     1
290
     0
176
     1
290
     0
176
     1
290
     0
176
     1
 90
       50
176
     1
 40
0.0
176
     1
 40
1.0
176
     1
 90
        0
176
     1
 62
    18
176
     1
 90
       50
176
     1
 90
        3
176
     1
 62
     5
420
      255
176
     1
290
     0
176
     1
 90
       50
176
     1
 90
       50
176
     1
 90
       50
176
     1
290
     0
176
     1
 90
       50
176
     1
 62
   256
176
     0
 40
1.0
176
     0
 90
        2
176
     1
  1
strokes_ogs.tif
176
     1
290
     0
176
     1
 40
1.0
176
     1
 40
1.0
176
     1
  0
VISUALSTYLE
  5
37
102
{ACAD_REACTORS
330
2A
102
}
330
2A
100
AcDbVisualStyle
  2

 70
    13
177
     3
291
     1
 70
    58
 90
        2
176
     1
 90
        2
176
     1
 90
        0
176
     1
 90
        0
176
     1
 40
0.6
176
     1
 40
30.0
176
     1
 62
     7
420
 16777215
176
     1
 90
        1
176
     1
 90
        4
176
     1
 62
     7
176
     1
 62
   257
176
     1
 90
        1
176
     1
 90
        1
176
     1
 40
1.0
176
     1
 90
       12
176
     1
 62
     7
176
     1
 40
1.0
176
     1
 90
        1
176
     1
 90
        6
176
     1
 90
        2
176
     1
 62
     7
176
     1
 90
        5
176
     1
 90
        0
176
     1
 90
        0
176
     1
290
     0
176
     1
 90
        1
176
     1
 40
0.0
176
     1
 90
        0
176
     1
290
     0
176
     1
290
     1
176
     1
290
     1
176
     1
290
     0
176
     1
290
     0
176
     1
290
     0
176
     1
290
     0
176
     1
290
     0
176
     1
290
     0
176
     1
 90
       50
176
     1
 40
0.0
176
     1
 40
1.0
176
     1
 90
        0
176
     1
 62
    18
176
     1
 90
       50
176
     1
 90
        3
176
     1
 62
     5
420
      255
176
     1
290
     0
176
     1
 90
       50
176
     1
 90
       50
176
     1
 90
       50
176
     1
290
     0
176
     1
 90
       50
176
     1
 62
   256
176
     0
 40
1.0
176
     0
 90
        2
176
     1
  1
strokes_ogs.tif
176
     1
290
     0
176
     1
 40
1.0
176
     1
 40
1.0
176
     1
  0
VISUALSTYLE
  5
30
102
{ACAD_REACTORS
330
2A
102
}
330
2A
100
AcDbVisualStyle
  2

 70
     5
177
     3
291
     0
 70
    58
 90
        0
176
     1
 90
        2
176
     1
 90
        0
176
     1
 90
        0
176
     1
 40
0.6
176
     1
 40
30.0
176
     1
 62
     7
420
 16777215
176
     1
 90
        1
176
     1
 90
        4
176
     1
 62
     7
176
     1
 62
   257
176
     1
 90
        1
176
     1
 90
        1
176
     1
 40
1.0
176
     1
 90
        0
176
     1
 62
   257
176
     1
 40
1.0
176
     1
 90
        1
176
     1
 90
        6
176
     1
 90
        2
176
     1
 62
     7
176
     1
 90
        3
176
     1
 90
        0
176
     1
 90
        0
176
     1
290
     0
176
     1
 90
        1
176
     1
 40
0.0
176
     1
 90
        0
176
     1
290
     0
176
     1
290
     1
176
     1
290
     1
176
     1
290
     0
176
     1
290
     0
176
     1
290
     0
176
     1
290
     0
176
     1
290
     0
176
     1
290
     0
176
     1
 90
       50
176
     1
 40
0.0
176
     1
 40
1.0
176
     1
 90
        0
176
     1
 62
    18
176
     1
 90
       50
176
     1
 90
        3
176
     1
 62
     5
420
      255
176
     1
290
     0
176
     1
 90
       50
176
     1
 90
       50
176
     1
 90
       50
176
     1
290
     0
176
     1
 90
       50
176
     1
 62
   256
176
     0
 40
1.0
176
     0
 90
        2
176
     1
  1
strokes_ogs.tif
176
     1
290
     0
176
     1
 40
1.0
176
     1
 40
1.0
176
     1
  0
VISUALSTYLE
  5
40
102
{ACAD_REACTORS
330
2A
102
}
330
2A
100
AcDbVisualStyle
  2

 70
    25
177
     3
291
     0
 70
    58
 90
        2
176
     1
 90
        2
176
     1
 90
        1
176
     1
 90
        1
176
     1
 40
0.5
176
     1
 40
30.0
176
     1
 62
     7
420
 16777215
176
     1
 90
        1
176
     1
 90
        0
176
     1
 62
     7
176
     1
 62
   257
176
     1
 90
        1
176
     1
 90
        1
176
     1
 40
1.0
176
     1
 90
        8
176
     1
 62
     7
176
     1
 40
1.0
176
     1
 90
        1
176
     1
 90
        6
176
     1
 90
        2
176
     1
 62
     7
176
     1
 90
        3
176
     1
 90
        0
176
     1
 90
        0
176
     1
290
     0
176
     1
 90
       13
176
     1
 40
0.0
176
     1
 90
        0
176
     1
290
     0
176
     1
290
     1
176
     1
290
     1
176
     1
290
     0
176
     1
290
     0
176
     1
290
     0
176
     1
290
     0
176
     1
290
     0
176
     1
290
     0
176
     1
 90
       50
176
     1
 40
0.0
176
     1
 40
1.0
176
     1
 90
        0
176
     1
 62
    18
176
     1
 90
       50
176
     1
 90
        3
176
     1
 62
     5
420
      255
176
     1
290
     0
176
     1
 90
       50
176
     1
 90
       50
176
     1
 90
       50
176
     1
290
     0
176
     1
 90
       50
176
     1
 62
   256
176
     0
 40
1.0
176
     0
 90
        2
176
     1
  1
strokes_ogs.tif
176
     1
290
     0
176
     1
 40
1.0
176
     1
 40
1.0
176
     1
  0
DICTIONARYVAR
  5
3147
102
{ACAD_REACTORS
330
3146
102
}
330
3146
100
DictionaryVariables
280
     0
  1
1:1
  0
DICTIONARYVAR
  5
315F
102
{ACAD_REACTORS
330
3146
102
}
330
3146
100
DictionaryVariables
280
     0
  1
STANDARD
  0
DICTIONARYVAR
  5
315E
102
{ACAD_REACTORS
330
3146
102
}
330
3146
100
DictionaryVariables
280
     0
  1
STANDARD
  0
DICTIONARYVAR
  5
7ACB
102
{ACAD_REACTORS
330
3146
102
}
330
3146
100
DictionaryVariables
280
     0
  1
Metric50
  0
DICTIONARYVAR
  5
7ACC
102
{ACAD_REACTORS
330
3146
102
}
330
3146
100
DictionaryVariables
280
     0
  1
Metric50
  0
DICTIONARYVAR
  5
3160
102
{ACAD_REACTORS
330
3146
102
}
330
3146
100
DictionaryVariables
280
     0
  1
1
  0
DICTIONARYVAR
  5
3161
102
{ACAD_REACTORS
330
3146
102
}
330
3146
100
DictionaryVariables
280
     0
  1
15
  0
DICTIONARY
  5
7AD1
330
7A64
100
AcDbDictionary
280
     1
281
     1
  3
ACAD_XREC_ROUNDTRIP
360
7B40
  0
DICTIONARY
  5
52E7
330
22
100
AcDbDictionary
280
     1
281
     1
  0
DICTIONARY
  5
7ACF
330
7A63
100
AcDbDictionary
280
     1
281
     1
  3
ACAD_XREC_ROUNDTRIP
360
7B3F
  0
DICTIONARY
  5
7A5E
330
3151
100
AcDbDictionary
280
     1
281
     1
  3
ACAD_ROUNDTRIP_2008_TABLESTYLE_CELLSTYLEMAP
360
7B3E
  0
XRECORD
  5
7B40
102
{ACAD_REACTORS
330
7AD1
102
}
330
7AD1
100
AcDbXrecord
280
     1
102
DISPLAYNAME
  1
Metric50
102
FLAGS
 90
        0
  0
XRECORD
  5
7B3F
102
{ACAD_REACTORS
330
7ACF
102
}
330
7ACF
100
AcDbXrecord
280
     1
102
DISPLAYNAME
  1
Metric50
102
FLAGS
 90
        0
  0
CELLSTYLEMAP
  5
7B3E
102
{ACAD_REACTORS
330
7A5E
102
}
330
7A5E
100
AcDbCellStyleMap
 90
        3
300
CELLSTYLE
  1
TABLEFORMAT_BEGIN
 90
        5
170
     1
 91
        0
 92
    32768
 62
   257
 93
        1
300
CONTENTFORMAT
  1
CONTENTFORMAT_BEGIN
 90
        0
 91
        0
 92
      512
 93
        0
300

 40
0.0
140
1.0
 94
        5
 62
     0
340
11
144
6.0
309
CONTENTFORMAT_END
171
     1
301
MARGIN
  1
CELLMARGIN_BEGIN
 40
1.5
 40
1.5
 40
1.5
 40
1.5
 40
0.18
 40
0.18
309
CELLMARGIN_END
 94
        6
 95
        1
302
GRIDFORMAT
  1
GRIDFORMAT_BEGIN
 90
        0
 91
        1
 62
     0
 92
       -2
340
0
 93
        0
 40
1.125
309
GRIDFORMAT_END
 95
        2
302
GRIDFORMAT
  1
GRIDFORMAT_BEGIN
 90
        0
 91
        1
 62
     0
 92
       -2
340
0
 93
        0
 40
1.125
309
GRIDFORMAT_END
 95
        4
302
GRIDFORMAT
  1
GRIDFORMAT_BEGIN
 90
        0
 91
        1
 62
     0
 92
       -2
340
0
 93
        0
 40
1.125
309
GRIDFORMAT_END
 95
        8
302
GRIDFORMAT
  1
GRIDFORMAT_BEGIN
 90
        0
 91
        1
 62
     0
 92
       -2
340
0
 93
        0
 40
1.125
309
GRIDFORMAT_END
 95
       16
302
GRIDFORMAT
  1
GRIDFORMAT_BEGIN
 90
        0
 91
        1
 62
     0
 92
       -2
340
0
 93
        0
 40
1.125
309
GRIDFORMAT_END
 95
       32
302
GRIDFORMAT
  1
GRIDFORMAT_BEGIN
 90
        0
 91
        1
 62
     0
 92
       -2
340
0
 93
        0
 40
1.125
309
GRIDFORMAT_END
309
TABLEFORMAT_END
  1
CELLSTYLE_BEGIN
 90
        1
 91
        1
300
_TITLE
309
CELLSTYLE_END
300
CELLSTYLE
  1
TABLEFORMAT_BEGIN
 90
        5
170
     1
 91
        0
 92
        0
 62
   257
 93
        1
300
CONTENTFORMAT
  1
CONTENTFORMAT_BEGIN
 90
        0
 91
        0
 92
      512
 93
        0
300

 40
0.0
140
1.0
 94
        5
 62
     0
340
11
144
4.5
309
CONTENTFORMAT_END
171
     1
301
MARGIN
  1
CELLMARGIN_BEGIN
 40
1.5
 40
1.5
 40
1.5
 40
1.5
 40
0.18
 40
0.18
309
CELLMARGIN_END
 94
        6
 95
        1
302
GRIDFORMAT
  1
GRIDFORMAT_BEGIN
 90
        0
 91
        1
 62
     0
 92
       -2
340
0
 93
        0
 40
1.125
309
GRIDFORMAT_END
 95
        2
302
GRIDFORMAT
  1
GRIDFORMAT_BEGIN
 90
        0
 91
        1
 62
     0
 92
       -2
340
0
 93
        0
 40
1.125
309
GRIDFORMAT_END
 95
        4
302
GRIDFORMAT
  1
GRIDFORMAT_BEGIN
 90
        0
 91
        1
 62
     0
 92
       -2
340
0
 93
        0
 40
1.125
309
GRIDFORMAT_END
 95
        8
302
GRIDFORMAT
  1
GRIDFORMAT_BEGIN
 90
        0
 91
        1
 62
     0
 92
       -2
340
0
 93
        0
 40
1.125
309
GRIDFORMAT_END
 95
       16
302
GRIDFORMAT
  1
GRIDFORMAT_BEGIN
 90
        0
 91
        1
 62
     0
 92
       -2
340
0
 93
        0
 40
1.125
309
GRIDFORMAT_END
 95
       32
302
GRIDFORMAT
  1
GRIDFORMAT_BEGIN
 90
        0
 91
        1
 62
     0
 92
       -2
340
0
 93
        0
 40
1.125
309
GRIDFORMAT_END
309
TABLEFORMAT_END
  1
CELLSTYLE_BEGIN
 90
        2
 91
        1
300
_HEADER
309
CELLSTYLE_END
300
CELLSTYLE
  1
TABLEFORMAT_BEGIN
 90
        5
170
     1
 91
        0
 92
        0
 62
   257
 93
        1
300
CONTENTFORMAT
  1
CONTENTFORMAT_BEGIN
 90
        0
 91
        0
 92
      512
 93
        0
300

 40
0.0
140
1.0
 94
        2
 62
     0
340
11
144
4.5
309
CONTENTFORMAT_END
171
     1
301
MARGIN
  1
CELLMARGIN_BEGIN
 40
1.5
 40
1.5
 40
1.5
 40
1.5
 40
0.18
 40
0.18
309
CELLMARGIN_END
 94
        6
 95
        1
302
GRIDFORMAT
  1
GRIDFORMAT_BEGIN
 90
        0
 91
        1
 62
     0
 92
       -2
340
0
 93
        0
 40
1.125
309
GRIDFORMAT_END
 95
        2
302
GRIDFORMAT
  1
GRIDFORMAT_BEGIN
 90
        0
 91
        1
 62
     0
 92
       -2
340
0
 93
        0
 40
1.125
309
GRIDFORMAT_END
 95
        4
302
GRIDFORMAT
  1
GRIDFORMAT_BEGIN
 90
        0
 91
        1
 62
     0
 92
       -2
340
0
 93
        0
 40
1.125
309
GRIDFORMAT_END
 95
        8
302
GRIDFORMAT
  1
GRIDFORMAT_BEGIN
 90
        0
 91
        1
 62
     0
 92
       -2
340
0
 93
        0
 40
1.125
309
GRIDFORMAT_END
 95
       16
302
GRIDFORMAT
  1
GRIDFORMAT_BEGIN
 90
        0
 91
        1
 62
     0
 92
       -2
340
0
 93
        0
 40
1.125
309
GRIDFORMAT_END
 95
       32
302
GRIDFORMAT
  1
GRIDFORMAT_BEGIN
 90
        0
 91
        1
 62
     0
 92
       -2
340
0
 93
        0
 40
1.125
309
GRIDFORMAT_END
309
TABLEFORMAT_END
  1
CELLSTYLE_BEGIN
 90
        3
 91
        2
300
_DATA
309
CELLSTYLE_END
  0
ENDSEC
  0
SECTION
  2
ACDSDATA
 70
     2
 71
     6
  0
ACDSSCHEMA
 90
        0
  1
AcDb_Thumbnail_Schema
  2
AcDbDs::ID
280
    10
 91
        8
  2
Thumbnail_Data
280
    15
 91
        0
101
ACDSRECORD
 95
        0
 90
        1
  2
AcDbDs::TreatedAsObjectData
280
     1
291
     1
101
ACDSRECORD
 95
        0
 90
        2
  2
AcDbDs::Legacy
280
     1
291
     1
101
ACDSRECORD
  1
AcDbDs::ID
 90
        3
  2
AcDs:Indexable
280
     1
291
     1
101
ACDSRECORD
  1
AcDbDs::ID
 90
        4
  2
AcDbDs::HandleAttribute
280
     7
282
     1
  0
ACDSSCHEMA
 90
        1
  1
AcDbDs::TreatedAsObjectDataSchema
  2
AcDbDs::TreatedAsObjectData
280
     1
 91
        0
  0
ACDSSCHEMA
 90
        2
  1
AcDbDs::LegacySchema
  2
AcDbDs::Legacy
280
     1
 91
        0
  0
ACDSSCHEMA
 90
        3
  1
AcDbDs::IndexedPropertySchema
  2
AcDs:Indexable
280
     1
 91
        0
  0
ACDSSCHEMA
 90
        4
  1
AcDbDs::HandleAttributeSchema
  2
AcDbDs::HandleAttribute
280
     7
 91
        1
284
     1
  0
ACDSRECORD
 90
        0
  2
AcDbDs::ID
280
    10
320
22
  2
Thumbnail_Data
280
    15
 94
     1537
310
89504E470D0A1A0A0000000D4948445200000100000000A408030000004F56001800000300504C5445000000000000FFFFFF0000000000000000000000000000000000000000000000000000330000660000990000CC0000FF0033000033330033660033990033CC0033FF0066000066330066660066990066CC0066FF0099
310
000099330099660099990099CC0099FF00CC0000CC3300CC6600CC9900CCCC00CCFF00FF0000FF3300FF6600FF9900FFCC00FFFF3300003300333300663300993300CC3300FF3333003333333333663333993333CC3333FF3366003366333366663366993366CC3366FF3399003399333399663399993399CC3399FF33CC00
310
33CC3333CC6633CC9933CCCC33CCFF33FF0033FF3333FF6633FF9933FFCC33FFFF6600006600336600666600996600CC6600FF6633006633336633666633996633CC6633FF6666006666336666666666996666CC6666FF6699006699336699666699996699CC6699FF66CC0066CC3366CC6666CC9966CCCC66CCFF66FF0066
310
FF3366FF6666FF9966FFCC66FFFF9900009900339900669900999900CC9900FF9933009933339933669933999933CC9933FF9966009966339966669966999966CC9966FF9999009999339999669999999999CC9999FF99CC0099CC3399CC6699CC9999CCCC99CCFF99FF0099FF3399FF6699FF9999FFCC99FFFFCC0000CC00
310
33CC0066CC0099CC00CCCC00FFCC3300CC3333CC3366CC3399CC33CCCC33FFCC6600CC6633CC6666CC6699CC66CCCC66FFCC9900CC9933CC9966CC9999CC99CCCC99FFCCCC00CCCC33CCCC66CCCC99CCCCCCCCCCFFCCFF00CCFF33CCFF66CCFF99CCFFCCCCFFFFFF0000FF0033FF0066FF0099FF00CCFF00FFFF3300FF3333
310
FF3366FF3399FF33CCFF33FFFF6600FF6633FF6666FF6699FF66CCFF66FFFF9900FF9933FF9966FF9999FF99CCFF99FFFFCC00FFCC33FFCC66FFCC99FFCCCCFFCCFFFFFF00FFFF33FFFF66FFFF99FFFFCCFFFFFF0000000D0D0D1A1A1A2828283535354343435050505D5D5D6B6B6B787878868686939393A1A1A1AEAEAEBB
310
BBBBC9C9C9D6D6D6E4E4E4F1F1F1FFFFFF000000000000000000000000000000000000000000000000000000000000C11FEF66000002BC4944415478DAEDDDBB6EE3301085E1BC819E84EFDFB9E16B4C35B58B69B65FEB6281946CD9DE04F17ACE4F1811E20402F4E5F0A2A18C7CB978FB0200000000000000000000000000
310
00000000000000000000000000000000000000005E6BE567DA0703FC4767010080B703448C2F0F5D80F9E201100628510050051807C0B800987202E228017F6EB54C0988D00670BF02D85300BE5E7F0A80883501F7EE6D722720A655A03D0468BF2603987A40A9B209588B03B2006633C0E560F64C17F0F1906716280DC0AB
310
359E0400E14BFAEBF8567139008FBEC6A70960CB08A00B60CB1048179003308B5DADDFB41250A685907B5D8E2F5D540A80EFECF624DA17F8B76DAE4C1B23E5AC0EA09E80EAE2000E000000000000D3A01E40771BB0EC9274EB2313B81BEC1250BA2DC2E2000070FF529300F4B5801DC041C1200BC09A807290806EA81404B0
310
F66233019875006369FCE62068A5E40568BAF706A0AC00C5CE39018E06413BAB00F872F59BB2F8790698774CACA49C066BA9757C3C647A8DDFD472FDF3D61AE39B36FD4ABD005C7ED807205D02E62E104DD2E7044CB36093807C0077C6802BC0AE0BA8CC02D14C83A901EEAD033A004FBA103A5A093600DD2D406801AC0FD1
310
3555139941B0BD1B14AC07C4ED824804008900B68FC8B445D150288AC63601D1CD7671F8399A4C002E0ED0E5BE0508CF0EB06B1B80EC09386A71B38F28014C9FA71106F8A5B30000C03B01865D530338F5CDB74F08E407E896C2271FFCF9CFD103000000F900E2C11D603600DB003C5CFE664F800D1EEA634030080AAD04EB
310
70AA6D3BD5E1F900A4ED02F2004C835200B101905B0902000000006803F435C190AB094657128E50AB0A6FE21EE17200D74DE17829FD5913E024400EE0FD6701E02D00EAFF61E2431B0000000000000000000000000000000000000000000000000000000000000000000000000000000000000090BBFD0588757E8896E29A
310
0B0000000049454E44AE426082
  0
ENDSEC
  0
EOF
