  0
SECTION
  2
HEADER
  9
$ACADVER
  1
AC1027
  9
$ACADMAINTVER
 70
    55
  9
$DWGCODEPAGE
  3
ANSI_932
  9
$LASTSAVEDBY
  1
marketing
  9
$REQUIREDVERSIONS
160
                 0
  9
$INSBASE
 10
0.0
 20
0.0
 30
0.0
  9
$EXTMIN
 10
-0.1232244904658728
 20
-0.121759839963488
 30
-0.0000000000000053
  9
$EXTMAX
 10
525.0484354373165
 20
742.5665322977192
 30
0.0000000000000099
  9
$LIMMIN
 10
-1176.0
 20
-798.0
  9
$LIMMAX
 10
594.0
 20
1078.0
  9
$ORTHOMODE
 70
     1
  9
$REGENMODE
 70
     1
  9
$FILLMODE
 70
     1
  9
$QTEXTMODE
 70
     0
  9
$MIRRTEXT
 70
     1
  9
$LTSCALE
 40
10.0
  9
$ATTMODE
 70
     1
  9
$TEXTSIZE
 40
2.0
  9
$TRACEWID
 40
0.05
  9
$TEXTSTYLE
  7
STANDARD
  9
$CLAYER
  8
0
  9
$CELTYPE
  6
BYLAYER
  9
$CECOLOR
 62
   256
  9
$CELTSCALE
 40
1.0
  9
$DISPSILH
 70
     0
  9
$DIMSCALE
 40
1.0
  9
$DIMASZ
 40
2.0
  9
$DIMEXO
 40
1.0
  9
$DIMDLI
 40
0.5
  9
$DIMRND
 40
0.0
  9
$DIMDLE
 40
0.0
  9
$DIMEXE
 40
0.5
  9
$DIMTP
 40
0.0
  9
$DIMTM
 40
0.0
  9
$DIMTXT
 40
6.0
  9
$DIMCEN
 40
0.09
  9
$DIMTSZ
 40
0.0
  9
$DIMTOL
 70
     0
  9
$DIMLIM
 70
     0
  9
$DIMTIH
 70
     0
  9
$DIMTOH
 70
     1
  9
$DIMSE1
 70
     0
  9
$DIMSE2
 70
     0
  9
$DIMTAD
 70
     3
  9
$DIMZIN
 70
    12
  9
$DIMBLK
  1
OPEN
  9
$DIMASO
 70
     1
  9
$DIMSHO
 70
     1
  9
$DIMPOST
  1

  9
$DIMAPOST
  1

  9
$DIMALT
 70
     0
  9
$DIMALTD
 70
     2
  9
$DIMALTF
 40
25.4
  9
$DIMLFAC
 40
1.0
  9
$DIMTOFL
 70
     0
  9
$DIMTVP
 40
0.0
  9
$DIMTIX
 70
     0
  9
$DIMSOXD
 70
     0
  9
$DIMSAH
 70
     0
  9
$DIMBLK1
  1

  9
$DIMBLK2
  1

  9
$DIMSTYLE
  2
STANDARD
  9
$DIMCLRD
 70
     0
  9
$DIMCLRE
 70
     0
  9
$DIMCLRT
 70
     0
  9
$DIMTFAC
 40
1.0
  9
$DIMGAP
 40
2.0
  9
$DIMJUST
 70
     0
  9
$DIMSD1
 70
     0
  9
$DIMSD2
 70
     0
  9
$DIMTOLJ
 70
     1
  9
$DIMTZIN
 70
     0
  9
$DIMALTZ
 70
     0
  9
$DIMALTTZ
 70
     0
  9
$DIMUPT
 70
     0
  9
$DIMDEC
 70
     1
  9
$DIMTDEC
 70
     1
  9
$DIMALTU
 70
     2
  9
$DIMALTTD
 70
     2
  9
$DIMTXSTY
  7
STANDARD
  9
$DIMAUNIT
 70
     0
  9
$DIMADEC
 70
     0
  9
$DIMALTRND
 40
0.0
  9
$DIMAZIN
 70
     0
  9
$DIMDSEP
 70
    46
  9
$DIMATFIT
 70
     3
  9
$DIMFRAC
 70
     0
  9
$DIMLDRBLK
  1
OPEN
  9
$DIMLUNIT
 70
     2
  9
$DIMLWD
 70
    -2
  9
$DIMLWE
 70
    -2
  9
$DIMTMOVE
 70
     0
  9
$DIMFXL
 40
1.0
  9
$DIMFXLON
 70
     0
  9
$DIMJOGANG
 40
0.7853981633974483
  9
$DIMTFILL
 70
     1
  9
$DIMTFILLCLR
 70
     0
  9
$DIMARCSYM
 70
     0
  9
$DIMLTYPE
  6

  9
$DIMLTEX1
  6

  9
$DIMLTEX2
  6

  9
$DIMTXTDIRECTION
 70
     0
  9
$LUNITS
 70
     2
  9
$LUPREC
 70
     8
  9
$SKETCHINC
 40
0.1
  9
$FILLETRAD
 40
0.0
  9
$AUNITS
 70
     0
  9
$AUPREC
 70
     0
  9
$MENU
  1
.
  9
$ELEVATION
 40
0.0
  9
$PELEVATION
 40
0.0
  9
$THICKNESS
 40
0.0
  9
$LIMCHECK
 70
     0
  9
$CHAMFERA
 40
0.0
  9
$CHAMFERB
 40
0.0
  9
$CHAMFERC
 40
0.0
  9
$CHAMFERD
 40
0.0
  9
$SKPOLY
 70
     0
  9
$TDCREATE
 40
2452286.555658658
  9
$TDUCREATE
 40
2452286.180658658
  9
$TDUPDATE
 40
2459243.584991597
  9
$TDUUPDATE
 40
2459243.209991597
  9
$TDINDWG
 40
2.9401418634
  9
$TDUSRTIMER
 40
2.9401377546
  9
$USRTIMER
 70
     1
  9
$ANGBASE
 50
0.0
  9
$ANGDIR
 70
     0
  9
$PDMODE
 70
     0
  9
$PDSIZE
 40
0.0
  9
$PLINEWID
 40
0.0
  9
$SPLFRAME
 70
     0
  9
$SPLINETYPE
 70
     6
  9
$SPLINESEGS
 70
     8
  9
$HANDSEED
  5
23C59
  9
$SURFTAB1
 70
     6
  9
$SURFTAB2
 70
     6
  9
$SURFTYPE
 70
     6
  9
$SURFU
 70
     6
  9
$SURFV
 70
     6
  9
$UCSBASE
  2

  9
$UCSNAME
  2

  9
$UCSORG
 10
0.0
 20
0.0
 30
0.0
  9
$UCSXDIR
 10
1.0
 20
0.0
 30
0.0
  9
$UCSYDIR
 10
0.0
 20
1.0
 30
0.0
  9
$UCSORTHOREF
  2

  9
$UCSORTHOVIEW
 70
     0
  9
$UCSORGTOP
 10
0.0
 20
0.0
 30
0.0
  9
$UCSORGBOTTOM
 10
0.0
 20
0.0
 30
0.0
  9
$UCSORGLEFT
 10
0.0
 20
0.0
 30
0.0
  9
$UCSORGRIGHT
 10
0.0
 20
0.0
 30
0.0
  9
$UCSORGFRONT
 10
0.0
 20
0.0
 30
0.0
  9
$UCSORGBACK
 10
0.0
 20
0.0
 30
0.0
  9
$PUCSBASE
  2

  9
$PUCSNAME
  2

  9
$PUCSORG
 10
0.0
 20
0.0
 30
0.0
  9
$PUCSXDIR
 10
1.0
 20
0.0
 30
0.0
  9
$PUCSYDIR
 10
0.0
 20
1.0
 30
0.0
  9
$PUCSORTHOREF
  2

  9
$PUCSORTHOVIEW
 70
     0
  9
$PUCSORGTOP
 10
0.0
 20
0.0
 30
0.0
  9
$PUCSORGBOTTOM
 10
0.0
 20
0.0
 30
0.0
  9
$PUCSORGLEFT
 10
0.0
 20
0.0
 30
0.0
  9
$PUCSORGRIGHT
 10
0.0
 20
0.0
 30
0.0
  9
$PUCSORGFRONT
 10
0.0
 20
0.0
 30
0.0
  9
$PUCSORGBACK
 10
0.0
 20
0.0
 30
0.0
  9
$USERI1
 70
     0
  9
$USERI2
 70
     0
  9
$USERI3
 70
     0
  9
$USERI4
 70
     0
  9
$USERI5
 70
     0
  9
$USERR1
 40
0.0
  9
$USERR2
 40
0.0
  9
$USERR3
 40
0.0
  9
$USERR4
 40
0.0
  9
$USERR5
 40
0.0
  9
$WORLDVIEW
 70
     1
  9
$SHADEDGE
 70
     3
  9
$SHADEDIF
 70
    70
  9
$TILEMODE
 70
     1
  9
$MAXACTVP
 70
    48
  9
$PINSBASE
 10
0.0
 20
0.0
 30
0.0
  9
$PLIMCHECK
 70
     0
  9
$PEXTMIN
 10
0.0
 20
0.0
 30
0.0
  9
$PEXTMAX
 10
0.0
 20
0.0
 30
0.0
  9
$PLIMMIN
 10
0.0
 20
0.0
  9
$PLIMMAX
 10
0.0
 20
0.0
  9
$UNITMODE
 70
     0
  9
$VISRETAIN
 70
     1
  9
$PLINEGEN
 70
     0
  9
$PSLTSCALE
 70
     0
  9
$TREEDEPTH
 70
  3020
  9
$CMLSTYLE
  2
STANDARD
  9
$CMLJUST
 70
     0
  9
$CMLSCALE
 40
1.0
  9
$PROXYGRAPHICS
 70
     1
  9
$MEASUREMENT
 70
     0
  9
$CELWEIGHT
370
    -1
  9
$ENDCAPS
280
     0
  9
$JOINSTYLE
280
     0
  9
$LWDISPLAY
290
     0
  9
$INSUNITS
 70
     0
  9
$HYPERLINKBASE
  1

  9
$STYLESHEET
  1
MONOCHROME.CTB
  9
$XEDIT
290
     1
  9
$CEPSNTYPE
380
     0
  9
$PSTYLEMODE
290
     1
  9
$FINGERPRINTGUID
  2

  9
$VERSIONGUID
  2
{D9D7F13D-EF15-4CCA-9001-9971B9C87D48}
  9
$EXTNAMES
290
     1
  9
$PSVPSCALE
 40
0.0
  9
$OLESTARTUP
290
     0
  9
$SORTENTS
280
   127
  9
$INDEXCTL
280
     0
  9
$HIDETEXT
280
     0
  9
$XCLIPFRAME
280
     2
  9
$HALOGAP
280
     0
  9
$OBSCOLOR
 70
   257
  9
$OBSLTYPE
280
     0
  9
$INTERSECTIONDISPLAY
280
     0
  9
$INTERSECTIONCOLOR
 70
   257
  9
$DIMASSOC
280
     1
  9
$PROJECTNAME
  1

  9
$CAMERADISPLAY
290
     0
  9
$LENSLENGTH
 40
50.0
  9
$CAMERAHEIGHT
 40
0.0
  9
$STEPSPERSEC
 40
2.0
  9
$STEPSIZE
 40
6.0
  9
$3DDWFPREC
 40
2.0
  9
$PSOLWIDTH
 40
0.25
  9
$PSOLHEIGHT
 40
4.0
  9
$LOFTANG1
 40
1.570796326794896
  9
$LOFTANG2
 40
1.570796326794896
  9
$LOFTMAG1
 40
0.0
  9
$LOFTMAG2
 40
0.0
  9
$LOFTPARAM
 70
     7
  9
$LOFTNORMALS
280
     1
  9
$LATITUDE
 40
37.795
  9
$LONGITUDE
 40
-122.394
  9
$NORTHDIRECTION
 40
0.0
  9
$TIMEZONE
 70
 -8000
  9
$LIGHTGLYPHDISPLAY
280
     1
  9
$TILEMODELIGHTSYNCH
280
     1
  9
$CMATERIAL
347
FFFD
  9
$SOLIDHIST
280
     1
  9
$SHOWHIST
280
     1
  9
$DWFFRAME
280
     2
  9
$DGNFRAME
280
     0
  9
$REALWORLDSCALE
290
     1
  9
$INTERFERECOLOR
 62
     1
  9
$INTERFEREOBJVS
345
1001F
  9
$INTERFEREVPVS
346
1001C
  9
$CSHADOW
280
     0
  9
$SHADOWPLANELOCATION
 40
0.0
  0
ENDSEC
  0
SECTION
  2
CLASSES
  0
CLASS
  1
ACDBDICTIONARYWDFLT
  2
AcDbDictionaryWithDefault
  3
ObjectDBX Classes
 90
        0
 91
        1
280
     0
281
     0
  0
CLASS
  1
DICTIONARYVAR
  2
AcDbDictionaryVar
  3
ObjectDBX Classes
 90
        0
 91
       12
280
     0
281
     0
  0
CLASS
  1
MATERIAL
  2
AcDbMaterial
  3
ObjectDBX Classes
 90
     1153
 91
        3
280
     0
281
     0
  0
CLASS
  1
VISUALSTYLE
  2
AcDbVisualStyle
  3
ObjectDBX Classes
 90
     4095
 91
       26
280
     0
281
     0
  0
CLASS
  1
TABLESTYLE
  2
AcDbTableStyle
  3
ObjectDBX Classes
 90
     4095
 91
        1
280
     0
281
     0
  0
CLASS
  1
SCALE
  2
AcDbScale
  3
ObjectDBX Classes
 90
     1153
 91
       33
280
     0
281
     0
  0
CLASS
  1
MLEADERSTYLE
  2
AcDbMLeaderStyle
  3
ACDB_MLEADERSTYLE_CLASS
 90
     4095
 91
        1
280
     0
281
     0
  0
CLASS
  1
CELLSTYLEMAP
  2
AcDbCellStyleMap
  3
ObjectDBX Classes
 90
     1152
 91
        2
280
     0
281
     0
  0
CLASS
  1
AEC_REFEDIT_STATUS_TRACKER
  2
AecDbRefEditStatusTracker
  3
AecArchBase70|Product Desc: Autodesk Architectural Desktop 2007 |Company: Autodesk,Inc. |WEB Address: www.autodesk.com
 90
      129
 91
        0
280
     0
281
     0
  0
CLASS
  1
NPOCOLLECTION
  2
AcDbImpNonPersistentObjectsCollection
  3
ObjectDBX Classes
 90
     1153
 91
        0
280
     0
281
     0
  0
CLASS
  1
SORTENTSTABLE
  2
AcDbSortentsTable
  3
ObjectDBX Classes
 90
        0
 91
        1
280
     0
281
     0
  0
CLASS
  1
EXACXREFPANELOBJECT
  2
ExAcXREFPanelObject
  3
EXAC_ESW
 90
     1025
 91
        0
280
     0
281
     0
  0
CLASS
  1
ACDBSECTIONVIEWSTYLE
  2
AcDbSectionViewStyle
  3
ObjectDBX Classes
 90
     1025
 91
        1
280
     0
281
     0
  0
CLASS
  1
ACDBDETAILVIEWSTYLE
  2
AcDbDetailViewStyle
  3
ObjectDBX Classes
 90
     1025
 91
        1
280
     0
281
     0
  0
ENDSEC
  0
SECTION
  2
TABLES
  0
TABLE
  2
VPORT
  5
8
330
0
100
AcDbSymbolTable
 70
     1
  0
VPORT
  5
15B34
330
8
100
AcDbSymbolTableRecord
100
AcDbViewportTableRecord
  2
*Active
 70
     0
 10
0.0
 20
0.0
 11
1.0
 21
1.0
 12
262.4626054734254
 22
371.2223862288779
 13
0.0
 23
0.0
 14
1.0
 24
1.0
 15
10.0
 25
10.0
 16
0.0
 26
0.0
 36
1.0
 17
0.0
 27
0.0
 37
0.0
 40
749.4400038843889
 41
2.464339908952958
 42
50.0
 43
0.0
 44
0.0
 50
0.0
 51
0.0
 71
     0
 72
   100
 73
     1
 74
     1
 75
     0
 76
     0
 77
     0
 78
     1
281
     0
 65
     1
110
0.0
120
0.0
130
0.0
111
1.0
121
0.0
131
0.0
112
0.0
122
1.0
132
0.0
 79
     0
146
0.0
348
1001B
 60
     3
 61
     5
292
     1
282
     1
141
0.0
142
0.0
 63
   250
421
  3355443
1001
ACAD_NAV_VCDISPLAY
1070
     3
  0
ENDTAB
  0
TABLE
  2
LTYPE
  5
5
330
0
100
AcDbSymbolTable
 70
     7
  0
LTYPE
  5
13
330
5
100
AcDbSymbolTableRecord
100
AcDbLinetypeTableRecord
  2
BYBLOCK
 70
     0
  3

 72
    65
 73
     0
 40
0.0
  0
LTYPE
  5
14
330
5
100
AcDbSymbolTableRecord
100
AcDbLinetypeTableRecord
  2
BYLAYER
 70
     0
  3

 72
    65
 73
     0
 40
0.0
  0
LTYPE
  5
15
330
5
100
AcDbSymbolTableRecord
100
AcDbLinetypeTableRecord
  2
CONTINUOUS
 70
     0
  3
Solid line
 72
    65
 73
     0
 40
0.0
  0
LTYPE
  5
22
330
5
100
AcDbSymbolTableRecord
100
AcDbLinetypeTableRecord
  2
CONTINOUS
 70
     0
  3
Solid line
 72
    65
 73
     0
 40
0.0
  0
LTYPE
  5
24
330
5
100
AcDbSymbolTableRecord
100
AcDbLinetypeTableRecord
  2
DASHDOT
 70
     0
  3
__ . __ . __ . __ . __ . __ . __ . __ . __ . __
 72
    65
 73
     4
 40
1.0
 49
0.5
 74
     0
 49
-0.25
 74
     0
 49
0.0
 74
     0
 49
-0.25
 74
     0
  0
LTYPE
  5
4C47
330
5
100
AcDbSymbolTableRecord
100
AcDbLinetypeTableRecord
  2
DIVIDE
 70
     0
  3
Divide ____ . . ____ . . ____ . . ____ . . ____
 72
    65
 73
     6
 40
1.25
 49
0.5
 74
     0
 49
-0.25
 74
     0
 49
0.0
 74
     0
 49
-0.25
 74
     0
 49
0.0
 74
     0
 49
-0.25
 74
     0
  0
LTYPE
  5
685F
330
5
100
AcDbSymbolTableRecord
100
AcDbLinetypeTableRecord
  2
PHANTOM
 70
     0
  3
Phantom ______  __  __  ______  __  __  ______
 72
    65
 73
     6
 40
2.5
 49
1.25
 74
     0
 49
-0.25
 74
     0
 49
0.25
 74
     0
 49
-0.25
 74
     0
 49
0.25
 74
     0
 49
-0.25
 74
     0
  0
LTYPE
  5
16152
330
5
100
AcDbSymbolTableRecord
100
AcDbLinetypeTableRecord
  2
SLD-実線
 70
     0
  3
SolidWorks Line Style
 72
    65
 73
     0
 40
0.0
  0
LTYPE
  5
2347E
330
5
100
AcDbSymbolTableRecord
100
AcDbLinetypeTableRecord
  2
HIDDEN
 70
     0
  3
Hidden __ __ __ __ __ __ __ __ __ __ __ __ __ __
 72
    65
 73
     2
 40
0.375
 49
0.25
 74
     0
 49
-0.125
 74
     0
  0
ENDTAB
  0
TABLE
  2
LAYER
  5
2
102
{ACAD_XDICTIONARY
360
21E04
102
}
330
0
100
AcDbSymbolTable
 70
    16
  0
LAYER
  5
10
102
{ACAD_XDICTIONARY
360
10054
102
}
330
2
100
AcDbSymbolTableRecord
100
AcDbLayerTableRecord
  2
0
 70
     0
 62
     7
  6
CONTINOUS
370
    -3
390
F
347
1000D
348
0
  0
LAYER
  5
2F
102
{ACAD_XDICTIONARY
360
10056
102
}
330
2
100
AcDbSymbolTableRecord
100
AcDbLayerTableRecord
  2
10
 70
     0
 62
     4
  6
CONTINOUS
370
    -3
390
F
347
1000D
348
0
  0
LAYER
  5
35
102
{ACAD_XDICTIONARY
360
1005A
102
}
330
2
100
AcDbSymbolTableRecord
100
AcDbLayerTableRecord
  2
16
 70
     0
 62
     6
  6
DASHDOT
370
    -3
390
F
347
1000D
348
0
  0
LAYER
  5
3D
102
{ACAD_XDICTIONARY
360
1005E
102
}
330
2
100
AcDbSymbolTableRecord
100
AcDbLayerTableRecord
  2
24
 70
     0
 62
     7
  6
CONTINOUS
370
    -3
390
F
347
1000D
348
0
  0
LAYER
  5
3A2
102
{ACAD_XDICTIONARY
360
10060
102
}
330
2
100
AcDbSymbolTableRecord
100
AcDbLayerTableRecord
  2
30
 70
     0
 62
     9
  6
CONTINUOUS
370
    -3
390
F
347
1000D
348
0
  0
LAYER
  5
3A4
330
2
100
AcDbSymbolTableRecord
100
AcDbLayerTableRecord
  2
DEFPOINTS
 70
     0
 62
     7
  6
CONTINUOUS
290
     0
370
    -3
390
F
347
1000D
348
0
  0
LAYER
  5
3BBA
102
{ACAD_XDICTIONARY
360
10062
102
}
330
2
100
AcDbSymbolTableRecord
100
AcDbLayerTableRecord
  2
18
 70
     0
 62
     5
  6
DIVIDE
370
    -3
390
F
347
1000D
348
0
  0
LAYER
  5
67A8
102
{ACAD_XDICTIONARY
360
10064
102
}
330
2
100
AcDbSymbolTableRecord
100
AcDbLayerTableRecord
  2
11
 70
     0
 62
     1
  6
CONTINOUS
370
    -3
390
F
347
1000D
348
0
  0
LAYER
  5
7837
102
{ACAD_XDICTIONARY
360
10066
102
}
330
2
100
AcDbSymbolTableRecord
100
AcDbLayerTableRecord
  2
17
 70
     0
 62
     2
  6
DASHDOT
370
    -3
390
F
347
1000D
348
0
  0
LAYER
  5
C500
102
{ACAD_XDICTIONARY
360
10070
102
}
330
2
100
AcDbSymbolTableRecord
100
AcDbLayerTableRecord
  2
240
 70
     0
 62
     7
  6
CONTINUOUS
370
    -3
390
F
347
1000D
348
0
  0
LAYER
  5
C501
102
{ACAD_XDICTIONARY
360
10072
102
}
330
2
100
AcDbSymbolTableRecord
100
AcDbLayerTableRecord
  2
5
 70
     0
 62
     7
  6
CONTINUOUS
370
    -3
390
F
347
1000D
348
0
  0
LAYER
  5
F7D2
102
{ACAD_XDICTIONARY
360
10076
102
}
330
2
100
AcDbSymbolTableRecord
100
AcDbLayerTableRecord
  2
13
 70
     0
 62
     3
  6
CONTINUOUS
370
    -3
390
F
347
1000D
348
0
  0
LAYER
  5
F7D8
102
{ACAD_XDICTIONARY
360
10078
102
}
330
2
100
AcDbSymbolTableRecord
100
AcDbLayerTableRecord
  2
130
 70
     0
 62
     4
  6
CONTINOUS
370
    -3
390
F
347
1000D
348
0
  0
LAYER
  5
F9C3
102
{ACAD_XDICTIONARY
360
1007A
102
}
330
2
100
AcDbSymbolTableRecord
100
AcDbLayerTableRecord
  2
131
 70
     0
 62
     4
  6
PHANTOM
370
    -3
390
F
347
1000D
348
0
  0
LAYER
  5
23C13
330
2
100
AcDbSymbolTableRecord
100
AcDbLayerTableRecord
  2
12
 70
     0
 62
     3
  6
CONTINOUS
370
    -3
390
F
347
1000D
348
0
1001
AcAecLayerStandard
1000

1000

1001
AcCmTransparency
1071
        0
  0
LAYER
  5
23C23
330
2
100
AcDbSymbolTableRecord
100
AcDbLayerTableRecord
  2
19
 70
     0
 62
     7
  6
CONTINOUS
370
    -3
390
F
347
1000D
348
0
1001
AcAecLayerStandard
1000

1000

1001
AcCmTransparency
1071
        0
  0
ENDTAB
  0
TABLE
  2
STYLE
  5
3
330
0
100
AcDbSymbolTable
 70
     3
  0
STYLE
  5
11
330
3
100
AcDbSymbolTableRecord
100
AcDbTextStyleTableRecord
  2
STANDARD
 70
     0
 40
0.0
 41
1.0
 50
0.0
 71
     0
 42
2.0
  3
txt.shx
  4
bigfont.shx
  0
STYLE
  5
C503
330
3
100
AcDbSymbolTableRecord
100
AcDbTextStyleTableRecord
  2
blockfont
 70
     0
 40
0.0
 41
1.0
 50
0.0
 71
     0
 42
0.2
  3
simplex.shx
  4
bigfont
  0
STYLE
  5
234EF
330
3
100
AcDbSymbolTableRecord
100
AcDbTextStyleTableRecord
  2
SLDTEXTSTYLE0
 70
     0
 40
0.0
 41
1.0
 50
0.0
 71
     0
 42
3.0
  3
MS UI Gothic.ttf
  4

1001
ACAD
1000
MS UI Gothic
1071
      306
  0
ENDTAB
  0
TABLE
  2
VIEW
  5
6
330
0
100
AcDbSymbolTable
 70
     3
  0
VIEW
  5
230C
330
6
100
AcDbSymbolTableRecord
100
AcDbViewTableRecord
  2
OLE1
 70
     0
 40
148.912488
 10
429.497628
 20
2.560627
 41
103.145806
 11
0.0
 21
0.0
 31
1.0
 12
0.0
 22
0.0
 32
0.0
 42
50.0
 43
0.0
 44
0.0
 50
0.0
 71
     0
281
     0
 72
     0
 73
     0
348
1001B
  0
VIEW
  5
230E
330
6
100
AcDbSymbolTableRecord
100
AcDbViewTableRecord
  2
OLE2
 70
     0
 40
170.778692
 10
322.66497
 20
-5.978304
 41
102.467215
 11
0.0
 21
0.0
 31
1.0
 12
0.0
 22
0.0
 32
0.0
 42
50.0
 43
0.0
 44
0.0
 50
0.0
 71
     0
281
     0
 72
     0
 73
     0
348
1001B
  0
VIEW
  5
23AA
330
6
100
AcDbSymbolTableRecord
100
AcDbViewTableRecord
  2
OLE3
 70
     0
 40
591.7897389999998
 10
84.79698199999999
 20
-46.09335999999998
 41
388.792096
 11
0.0
 21
0.0
 31
1.0
 12
0.0
 22
0.0
 32
0.0
 42
50.0
 43
0.0
 44
0.0
 50
0.0
 71
     0
281
     0
 72
     0
 73
     0
348
1001B
  0
ENDTAB
  0
TABLE
  2
UCS
  5
7
330
0
100
AcDbSymbolTable
 70
     0
  0
ENDTAB
  0
TABLE
  2
APPID
  5
9
330
0
100
AcDbSymbolTable
 70
    11
  0
APPID
  5
12
330
9
100
AcDbSymbolTableRecord
100
AcDbRegAppTableRecord
  2
ACAD
 70
     0
  0
APPID
  5
ECD
330
9
100
AcDbSymbolTableRecord
100
AcDbRegAppTableRecord
  2
CONTENTBLOCKICON
 70
     0
  0
APPID
  5
100CA
330
9
100
AcDbSymbolTableRecord
100
AcDbRegAppTableRecord
  2
ACAD_MLEADERVER
 70
     0
  0
APPID
  5
1012B
330
9
100
AcDbSymbolTableRecord
100
AcDbRegAppTableRecord
  2
DCO15
 70
     0
  0
APPID
  5
14499
330
9
100
AcDbSymbolTableRecord
100
AcDbRegAppTableRecord
  2
ACAD_EXEMPT_FROM_CAD_STANDARDS
 70
     0
  0
APPID
  5
15772
330
9
100
AcDbSymbolTableRecord
100
AcDbRegAppTableRecord
  2
ACAD_PSEXT
 70
     0
  0
APPID
  5
16165
330
9
100
AcDbSymbolTableRecord
100
AcDbRegAppTableRecord
  2
ACAD_DSTYLE_DIMJAG
 70
     0
  0
APPID
  5
16166
330
9
100
AcDbSymbolTableRecord
100
AcDbRegAppTableRecord
  2
ACAD_DSTYLE_DIMTALN
 70
     0
  0
APPID
  5
23B80
330
9
100
AcDbSymbolTableRecord
100
AcDbRegAppTableRecord
  2
ACAD_NAV_VCDISPLAY
 70
     0
  0
APPID
  5
23C14
330
9
100
AcDbSymbolTableRecord
100
AcDbRegAppTableRecord
  2
AcAecLayerStandard
 70
     0
  0
APPID
  5
23C15
330
9
100
AcDbSymbolTableRecord
100
AcDbRegAppTableRecord
  2
AcCmTransparency
 70
     0
  0
ENDTAB
  0
TABLE
  2
DIMSTYLE
  5
A
330
0
100
AcDbSymbolTable
 70
     2
100
AcDbDimStyleTable
 71
     2
340
175
340
C24A
  0
DIMSTYLE
105
175
102
{ACAD_REACTORS
330
233AD
330
2385A
330
218EC
330
2181F
330
2181E
330
224D7
330
22081
330
2207D
330
2207A
330
1C606
330
233AA
330
2366D
330
233AB
330
233AC
330
1FDB7
330
1FDB5
330
1FDB6
330
1FDB8
330
221E1
330
23ADB
330
23ACE
330
23B34
330
23B88
330
23BB9
102
}
330
A
100
AcDbSymbolTableRecord
100
AcDbDimStyleTableRecord
  2
STANDARD
 70
     0
 41
2.0
 42
1.0
 43
0.5
 44
0.5
 69
     1
 73
     0
 77
     3
 78
    12
140
6.0
147
2.0
271
     1
272
     1
340
11
341
3B2
342
3B2
1001
ACAD_DSTYLE_DIMJAG
1070
   388
1040
1.5
1001
ACAD_DSTYLE_DIMTALN
1070
   392
1070
     0
  0
DIMSTYLE
105
C24A
102
{ACAD_REACTORS
330
22778
330
22779
330
2277A
330
23588
330
2357F
330
1FF18
330
2236F
330
22370
330
23580
102
}
330
A
100
AcDbSymbolTableRecord
100
AcDbDimStyleTableRecord
  2
STANDARD1
 70
     0
 41
2.0
 42
3.0
 43
0.5
 44
0.5
 77
     3
 78
    12
140
6.0
147
2.0
172
     1
271
     8
272
     8
289
     2
340
11
341
3B2
342
3B2
1001
ACAD_DSTYLE_DIMJAG
1070
   388
1040
1.5
1001
ACAD_DSTYLE_DIMTALN
1070
   392
1070
     0
  0
ENDTAB
  0
TABLE
  2
BLOCK_RECORD
  5
1
330
0
100
AcDbSymbolTable
 70
    39
  0
BLOCK_RECORD
  5
1E
102
{ACAD_XDICTIONARY
360
178
102
}
330
1
100
AcDbSymbolTableRecord
100
AcDbBlockTableRecord
  2
*MODEL_SPACE
340
904E
 70
     0
280
     1
281
     0
  0
BLOCK_RECORD
  5
1A
102
{ACAD_XDICTIONARY
360
17A
102
}
330
1
100
AcDbSymbolTableRecord
100
AcDbBlockTableRecord
  2
*PAPER_SPACE
340
904F
 70
     0
280
     1
281
     0
  0
BLOCK_RECORD
  5
3B2
330
1
100
AcDbSymbolTableRecord
100
AcDbBlockTableRecord
  2
_OPEN
340
0
310
2800000020000000200000000100080000000000000400000000000000000000000000000000000000000000000080000080000000808000800000008000800080800000C0C0C000C0DCC000F0CAA6000020400000206000002080000020A0000020C0000020E00000400000004020000040400000406000004080000040A0
310
000040C0000040E00000600000006020000060400000606000006080000060A0000060C0000060E00000800000008020000080400000806000008080000080A0000080C0000080E00000A0000000A0200000A0400000A0600000A0800000A0A00000A0C00000A0E00000C0000000C0200000C0400000C0600000C0800000C0
310
A00000C0C00000C0E00000E0000000E0200000E0400000E0600000E0800000E0A00000E0C00000E0E00040000000400020004000400040006000400080004000A0004000C0004000E00040200000402020004020400040206000402080004020A0004020C0004020E000404000004040200040404000404060004040800040
310
40A0004040C0004040E00040600000406020004060400040606000406080004060A0004060C0004060E00040800000408020004080400040806000408080004080A0004080C0004080E00040A0000040A0200040A0400040A0600040A0800040A0A00040A0C00040A0E00040C0000040C0200040C0400040C0600040C08000
310
40C0A00040C0C00040C0E00040E0000040E0200040E0400040E0600040E0800040E0A00040E0C00040E0E00080000000800020008000400080006000800080008000A0008000C0008000E00080200000802020008020400080206000802080008020A0008020C0008020E00080400000804020008040400080406000804080
310
008040A0008040C0008040E00080600000806020008060400080606000806080008060A0008060C0008060E00080800000808020008080400080806000808080008080A0008080C0008080E00080A0000080A0200080A0400080A0600080A0800080A0A00080A0C00080A0E00080C0000080C0200080C0400080C0600080C0
310
800080C0A00080C0C00080C0E00080E0000080E0200080E0400080E0600080E0800080E0A00080E0C00080E0E000C0000000C0002000C0004000C0006000C0008000C000A000C000C000C000E000C0200000C0202000C0204000C0206000C0208000C020A000C020C000C020E000C0400000C0402000C0404000C0406000C0
310
408000C040A000C040C000C040E000C0600000C0602000C0604000C0606000C0608000C060A000C060C000C060E000C0800000C0802000C0804000C0806000C0808000C080A000C080C000C080E000C0A00000C0A02000C0A04000C0A06000C0A08000C0A0A000C0A0C000C0A0E000C0C00000C0C02000C0C04000C0C06000
310
C0C08000C0C0A000F0FBFF00A4A0A000808080000000FF0000FF000000FFFF00FF000000FF00FF00FFFF0000FFFFFF0000000000000000000000000000000000000000000000000000000000000000000000000000000000000000000000000000000000000000000000000000000000000000000000000000000000000000
310
00000000000000000000000000000000000000000000000000000000000000000000000000000000000000000000000000000000000000000000000000000000000000000000000000000000000000000000000000000000000000000000000000000000000000000000000000000000000000000000000000000000000000
310
00000000000000000000000000000000000000000000000000000000000000000000000000000000000000000000000000000000000000000000000000000000000000000000000000000000000000000000000000000000000000000000000000000000000000000000000000000000000000000000000000000000000000
310
0000000000000000000000000000000000000000FFFFFF0000000000000000000000000000000000000000000000000000000000000000FFFFFFFFFFFF0000000000000000000000000000000000000000000000000000000000000000FFFFFFFFFFFF00000000000000000000000000000000000000000000000000000000
310
00000000FFFFFFFFFFFF0000000000000000000000000000000000000000000000000000000000000000FFFFFFFFFFFF0000000000FFFFFFFFFFFFFFFFFFFFFFFFFFFFFFFFFFFFFFFFFFFFFFFFFFFFFFFFFFFF000000000000000000000000000000000000000000FFFFFFFFFFFFFF00000000000000000000000000000000
310
00FFFFFFFFFFFFFFFF0000000000000000000000000000000000FFFFFFFFFFFFFF000000000000000000000000000000000000000000FFFFFFFF000000000000000000000000000000000000000000000000000000000000000000000000000000000000000000000000000000000000000000000000000000000000000000
310
00000000000000000000000000000000000000000000000000000000000000000000000000000000000000000000000000000000000000000000000000000000000000000000000000000000000000000000000000000000000000000000000000000000000000000000000000000000000000000000000000000000000000
310
00000000000000000000000000000000000000000000000000000000000000000000000000000000000000000000000000000000000000000000000000000000000000000000000000000000000000000000000000000000000000000000000000000000000000000000000000000000000000000000000000000000000000
310
0000000000000000000000000000000000000000000000000000000000000000000000000000000000000000000000000000000000000000
102
{BLKREFS
331
23B7A
331
23B7B
331
23A78
331
23A79
331
23A8A
331
23A8B
331
23A93
331
23A94
331
23BB3
331
23BB4
331
23BCA
331
23BCB
331
23BDC
331
23BDD
331
23B68
331
23B69
331
23B71
331
23B72
331
239A8
331
239A9
331
239B1
331
239B2
331
23AF4
331
23AF5
331
23AFD
331
23AFE
331
239C3
331
239C4
331
239CC
331
239CD
331
239E8
331
239E9
331
239FA
331
239FB
331
23A1E
331
23A1F
331
23A42
331
23A43
331
23A4B
331
23A4C
331
23A5D
331
23A5E
331
239BA
331
239BB
331
2393D
331
2393E
331
23A6F
331
23A70
331
23947
331
23948
331
23950
331
23951
331
23962
331
23963
331
2396B
331
2396C
331
23998
331
239A0
331
23A9C
331
23A9D
331
23AEB
331
23AEC
102
}
 70
     0
280
     1
281
     0
  0
BLOCK_RECORD
  5
15D81
330
1
100
AcDbSymbolTableRecord
100
AcDbBlockTableRecord
  2
SW_CENTERMARKSYMBOL_1
340
0
102
{BLKREFS
331
1FDBE
102
}
 70
     0
280
     1
281
     0
  0
BLOCK_RECORD
  5
15D8C
330
1
100
AcDbSymbolTableRecord
100
AcDbBlockTableRecord
  2
SW_CENTERMARKSYMBOL_2
340
0
102
{BLKREFS
331
1FDBF
102
}
 70
     0
280
     1
281
     0
  0
BLOCK_RECORD
  5
15D97
330
1
100
AcDbSymbolTableRecord
100
AcDbBlockTableRecord
  2
SW_CENTERMARKSYMBOL_3
340
0
102
{BLKREFS
331
1FDC0
102
}
 70
     0
280
     1
281
     0
  0
BLOCK_RECORD
  5
15DA2
330
1
100
AcDbSymbolTableRecord
100
AcDbBlockTableRecord
  2
SW_CENTERMARKSYMBOL_4
340
0
102
{BLKREFS
331
1FDC1
102
}
 70
     0
280
     1
281
     0
  0
BLOCK_RECORD
  5
1F9CA
330
1
100
AcDbSymbolTableRecord
100
AcDbBlockTableRecord
  2
*D5
340
0
 70
     0
280
     1
281
     0
  0
BLOCK_RECORD
  5
1FDC2
330
1
100
AcDbSymbolTableRecord
100
AcDbBlockTableRecord
  2
*D6
340
0
 70
     0
280
     1
281
     0
  0
BLOCK_RECORD
  5
1FDCE
330
1
100
AcDbSymbolTableRecord
100
AcDbBlockTableRecord
  2
*D7
340
0
 70
     0
280
     1
281
     0
  0
BLOCK_RECORD
  5
1FDDA
330
1
100
AcDbSymbolTableRecord
100
AcDbBlockTableRecord
  2
*D8
340
0
 70
     0
280
     1
281
     0
  0
BLOCK_RECORD
  5
1FDE6
330
1
100
AcDbSymbolTableRecord
100
AcDbBlockTableRecord
  2
*D9
340
0
 70
     0
280
     1
281
     0
  0
BLOCK_RECORD
  5
2184D
330
1
100
AcDbSymbolTableRecord
100
AcDbBlockTableRecord
  2
*D10
340
0
 70
     0
280
     1
281
     0
  0
BLOCK_RECORD
  5
21859
330
1
100
AcDbSymbolTableRecord
100
AcDbBlockTableRecord
  2
*D11
340
0
 70
     0
280
     1
281
     0
  0
BLOCK_RECORD
  5
218ED
330
1
100
AcDbSymbolTableRecord
100
AcDbBlockTableRecord
  2
*D12
340
0
 70
     0
280
     1
281
     0
  0
BLOCK_RECORD
  5
22090
330
1
100
AcDbSymbolTableRecord
100
AcDbBlockTableRecord
  2
*D13
340
0
 70
     0
280
     1
281
     0
  0
BLOCK_RECORD
  5
220A8
330
1
100
AcDbSymbolTableRecord
100
AcDbBlockTableRecord
  2
*D14
340
0
 70
     0
280
     1
281
     0
  0
BLOCK_RECORD
  5
220B4
330
1
100
AcDbSymbolTableRecord
100
AcDbBlockTableRecord
  2
*D15
340
0
 70
     0
280
     1
281
     0
  0
BLOCK_RECORD
  5
220D8
330
1
100
AcDbSymbolTableRecord
100
AcDbBlockTableRecord
  2
*D16
340
0
 70
     0
280
     1
281
     0
  0
BLOCK_RECORD
  5
220E4
330
1
100
AcDbSymbolTableRecord
100
AcDbBlockTableRecord
  2
*D17
340
0
 70
     0
280
     1
281
     0
  0
BLOCK_RECORD
  5
221E2
330
1
100
AcDbSymbolTableRecord
100
AcDbBlockTableRecord
  2
*D18
340
0
 70
     0
280
     1
281
     0
  0
BLOCK_RECORD
  5
22509
330
1
100
AcDbSymbolTableRecord
100
AcDbBlockTableRecord
  2
*D19
340
0
 70
     0
280
     1
281
     0
  0
BLOCK_RECORD
  5
22780
330
1
100
AcDbSymbolTableRecord
100
AcDbBlockTableRecord
  2
*D20
340
0
 70
     0
280
     1
281
     0
  0
BLOCK_RECORD
  5
2278C
330
1
100
AcDbSymbolTableRecord
100
AcDbBlockTableRecord
  2
*D21
340
0
 70
     0
280
     1
281
     0
  0
BLOCK_RECORD
  5
22799
330
1
100
AcDbSymbolTableRecord
100
AcDbBlockTableRecord
  2
*D22
340
0
 70
     0
280
     1
281
     0
  0
BLOCK_RECORD
  5
231A5
330
1
100
AcDbSymbolTableRecord
100
AcDbBlockTableRecord
  2
*D23
340
0
 70
     0
280
     1
281
     0
  0
BLOCK_RECORD
  5
233B1
330
1
100
AcDbSymbolTableRecord
100
AcDbBlockTableRecord
  2
*D24
340
0
 70
     0
280
     1
281
     0
  0
BLOCK_RECORD
  5
233BF
330
1
100
AcDbSymbolTableRecord
100
AcDbBlockTableRecord
  2
*D25
340
0
 70
     0
280
     1
281
     0
  0
BLOCK_RECORD
  5
233CB
330
1
100
AcDbSymbolTableRecord
100
AcDbBlockTableRecord
  2
*D26
340
0
 70
     0
280
     1
281
     0
  0
BLOCK_RECORD
  5
233D7
330
1
100
AcDbSymbolTableRecord
100
AcDbBlockTableRecord
  2
*D27
340
0
 70
     0
280
     1
281
     0
  0
BLOCK_RECORD
  5
23444
330
1
100
AcDbSymbolTableRecord
100
AcDbBlockTableRecord
  2
SW_CENTERMARKSYMBOL_5
340
0
 70
     0
280
     1
281
     0
  0
BLOCK_RECORD
  5
2344F
330
1
100
AcDbSymbolTableRecord
100
AcDbBlockTableRecord
  2
SW_CENTERMARKSYMBOL_6
340
0
 70
     0
280
     1
281
     0
  0
BLOCK_RECORD
  5
2358C
330
1
100
AcDbSymbolTableRecord
100
AcDbBlockTableRecord
  2
*D30
340
0
 70
     0
280
     1
281
     0
  0
BLOCK_RECORD
  5
23598
330
1
100
AcDbSymbolTableRecord
100
AcDbBlockTableRecord
  2
*D31
340
0
 70
     0
280
     1
281
     0
  0
BLOCK_RECORD
  5
2366E
330
1
100
AcDbSymbolTableRecord
100
AcDbBlockTableRecord
  2
*D32
340
0
 70
     0
280
     1
281
     0
  0
BLOCK_RECORD
  5
2385B
330
1
100
AcDbSymbolTableRecord
100
AcDbBlockTableRecord
  2
*D33
340
0
 70
     0
280
     1
281
     0
  0
BLOCK_RECORD
  5
23ACF
330
1
100
AcDbSymbolTableRecord
100
AcDbBlockTableRecord
  2
*D34
340
0
 70
     0
280
     1
281
     0
  0
BLOCK_RECORD
  5
23ADC
330
1
100
AcDbSymbolTableRecord
100
AcDbBlockTableRecord
  2
*D35
340
0
 70
     0
280
     1
281
     0
  0
BLOCK_RECORD
  5
23B35
330
1
100
AcDbSymbolTableRecord
100
AcDbBlockTableRecord
  2
*D36
340
0
 70
     0
280
     1
281
     0
  0
BLOCK_RECORD
  5
23B89
330
1
100
AcDbSymbolTableRecord
100
AcDbBlockTableRecord
  2
*D37
340
0
 70
     0
280
     1
281
     0
  0
BLOCK_RECORD
  5
23BBA
330
1
100
AcDbSymbolTableRecord
100
AcDbBlockTableRecord
  2
*D38
340
0
 70
     0
280
     1
281
     0
  0
ENDTAB
  0
ENDSEC
  0
SECTION
  2
BLOCKS
  0
BLOCK
  5
1F
330
1E
100
AcDbEntity
  8
0
100
AcDbBlockBegin
  2
*MODEL_SPACE
 70
     0
 10
0.0
 20
0.0
 30
0.0
  3
*MODEL_SPACE
  1

  0
ENDBLK
  5
20
330
1E
100
AcDbEntity
  8
0
100
AcDbBlockEnd
  0
BLOCK
  5
1B
330
1A
100
AcDbEntity
 67
     1
  8
0
100
AcDbBlockBegin
  2
*PAPER_SPACE
 70
     0
 10
0.0
 20
0.0
 30
0.0
  3
*PAPER_SPACE
  1

  0
ENDBLK
  5
1C
330
1A
100
AcDbEntity
 67
     1
  8
0
100
AcDbBlockEnd
  0
BLOCK
  5
3B6
330
3B2
100
AcDbEntity
  8
0
100
AcDbBlockBegin
  2
_OPEN
 70
     0
 10
0.0
 20
0.0
 30
0.0
  3
_OPEN
  1

  0
LINE
  5
3B3
330
3B2
100
AcDbEntity
  8
30
  6
Continuous
 62
     0
100
AcDbLine
 10
-1.0
 20
0.166667
 30
0.0
 11
0.0
 21
0.0
 31
0.0
  0
LINE
  5
3B4
330
3B2
100
AcDbEntity
  8
30
  6
Continuous
 62
     0
100
AcDbLine
 10
-1.0
 20
-0.166667
 30
0.0
 11
0.0
 21
0.0
 31
0.0
  0
LINE
  5
3B5
330
3B2
100
AcDbEntity
  8
30
  6
Continuous
 62
     0
100
AcDbLine
 10
0.0
 20
0.0
 30
0.0
 11
-1.0
 21
0.0
 31
0.0
  0
ENDBLK
  5
3B7
330
3B2
100
AcDbEntity
  8
0
100
AcDbBlockEnd
  0
BLOCK
  5
15D82
330
15D81
100
AcDbEntity
  8
0
100
AcDbBlockBegin
  2
SW_CENTERMARKSYMBOL_1
 70
     0
 10
0.0
 20
0.0
 30
0.0
  3
SW_CENTERMARKSYMBOL_1
  1
SW_CENTERMARKSYMBOL_1
  0
LINE
  5
15D83
330
15D81
100
AcDbEntity
  8
240
 62
     0
100
AcDbLine
 10
0.0
 20
0.0
 30
0.0
 11
0.0
 21
2.5
 31
0.0
  0
LINE
  5
15D84
330
15D81
100
AcDbEntity
  8
240
 62
     0
100
AcDbLine
 10
0.0
 20
0.0
 30
0.0
 11
-2.5
 21
0.0
 31
0.0
  0
LINE
  5
15D85
330
15D81
100
AcDbEntity
  8
240
 62
     0
100
AcDbLine
 10
0.0
 20
0.0
 30
0.0
 11
0.0
 21
-2.5
 31
0.0
  0
LINE
  5
15D86
330
15D81
100
AcDbEntity
  8
240
 62
     0
100
AcDbLine
 10
0.0
 20
0.0
 30
0.0
 11
2.5
 21
0.0
 31
0.0
  0
LINE
  5
15D87
330
15D81
100
AcDbEntity
  8
240
 62
     0
100
AcDbLine
 10
0.0
 20
2.5
 30
0.0
 11
0.0
 21
3.7
 31
0.0
  0
LINE
  5
15D88
330
15D81
100
AcDbEntity
  8
240
 62
     0
100
AcDbLine
 10
-2.5
 20
0.0
 30
0.0
 11
-3.7
 21
0.0
 31
0.0
  0
LINE
  5
15D89
330
15D81
100
AcDbEntity
  8
240
 62
     0
100
AcDbLine
 10
0.0
 20
-2.5
 30
0.0
 11
0.0
 21
-3.7
 31
0.0
  0
LINE
  5
15D8A
330
15D81
100
AcDbEntity
  8
240
 62
     0
100
AcDbLine
 10
2.5
 20
0.0
 30
0.0
 11
3.7
 21
0.0
 31
0.0
  0
ENDBLK
  5
15D8B
330
15D81
100
AcDbEntity
  8
0
100
AcDbBlockEnd
  0
BLOCK
  5
15D8D
330
15D8C
100
AcDbEntity
  8
0
100
AcDbBlockBegin
  2
SW_CENTERMARKSYMBOL_2
 70
     0
 10
0.0
 20
0.0
 30
0.0
  3
SW_CENTERMARKSYMBOL_2
  1
SW_CENTERMARKSYMBOL_2
  0
LINE
  5
15D8E
330
15D8C
100
AcDbEntity
  8
240
 62
     0
100
AcDbLine
 10
0.0
 20
0.0
 30
0.0
 11
0.0
 21
2.5
 31
0.0
  0
LINE
  5
15D8F
330
15D8C
100
AcDbEntity
  8
240
 62
     0
100
AcDbLine
 10
0.0
 20
0.0
 30
0.0
 11
-2.5
 21
0.0
 31
0.0
  0
LINE
  5
15D90
330
15D8C
100
AcDbEntity
  8
240
 62
     0
100
AcDbLine
 10
0.0
 20
0.0
 30
0.0
 11
0.0
 21
-2.5
 31
0.0
  0
LINE
  5
15D91
330
15D8C
100
AcDbEntity
  8
240
 62
     0
100
AcDbLine
 10
0.0
 20
0.0
 30
0.0
 11
2.5
 21
0.0
 31
0.0
  0
LINE
  5
15D92
330
15D8C
100
AcDbEntity
  8
240
 62
     0
100
AcDbLine
 10
0.0
 20
2.5
 30
0.0
 11
0.0
 21
3.7
 31
0.0
  0
LINE
  5
15D93
330
15D8C
100
AcDbEntity
  8
240
 62
     0
100
AcDbLine
 10
-2.5
 20
0.0
 30
0.0
 11
-3.7
 21
0.0
 31
0.0
  0
LINE
  5
15D94
330
15D8C
100
AcDbEntity
  8
240
 62
     0
100
AcDbLine
 10
0.0
 20
-2.5
 30
0.0
 11
0.0
 21
-3.7
 31
0.0
  0
LINE
  5
15D95
330
15D8C
100
AcDbEntity
  8
240
 62
     0
100
AcDbLine
 10
2.5
 20
0.0
 30
0.0
 11
3.7
 21
0.0
 31
0.0
  0
ENDBLK
  5
15D96
330
15D8C
100
AcDbEntity
  8
0
100
AcDbBlockEnd
  0
BLOCK
  5
15D98
330
15D97
100
AcDbEntity
  8
0
100
AcDbBlockBegin
  2
SW_CENTERMARKSYMBOL_3
 70
     0
 10
0.0
 20
0.0
 30
0.0
  3
SW_CENTERMARKSYMBOL_3
  1
SW_CENTERMARKSYMBOL_3
  0
LINE
  5
15D99
330
15D97
100
AcDbEntity
  8
240
 62
     0
100
AcDbLine
 10
0.0
 20
0.0
 30
0.0
 11
0.0
 21
2.5
 31
0.0
  0
LINE
  5
15D9A
330
15D97
100
AcDbEntity
  8
240
 62
     0
100
AcDbLine
 10
0.0
 20
0.0
 30
0.0
 11
-2.5
 21
0.0
 31
0.0
  0
LINE
  5
15D9B
330
15D97
100
AcDbEntity
  8
240
 62
     0
100
AcDbLine
 10
0.0
 20
0.0
 30
0.0
 11
0.0
 21
-2.5
 31
0.0
  0
LINE
  5
15D9C
330
15D97
100
AcDbEntity
  8
240
 62
     0
100
AcDbLine
 10
0.0
 20
0.0
 30
0.0
 11
2.5
 21
0.0
 31
0.0
  0
LINE
  5
15D9D
330
15D97
100
AcDbEntity
  8
240
 62
     0
100
AcDbLine
 10
0.0
 20
2.5
 30
0.0
 11
0.0
 21
3.7
 31
0.0
  0
LINE
  5
15D9E
330
15D97
100
AcDbEntity
  8
240
 62
     0
100
AcDbLine
 10
-2.5
 20
0.0
 30
0.0
 11
-3.7
 21
0.0
 31
0.0
  0
LINE
  5
15D9F
330
15D97
100
AcDbEntity
  8
240
 62
     0
100
AcDbLine
 10
0.0
 20
-2.5
 30
0.0
 11
0.0
 21
-3.7
 31
0.0
  0
LINE
  5
15DA0
330
15D97
100
AcDbEntity
  8
240
 62
     0
100
AcDbLine
 10
2.5
 20
0.0
 30
0.0
 11
3.7
 21
0.0
 31
0.0
  0
ENDBLK
  5
15DA1
330
15D97
100
AcDbEntity
  8
0
100
AcDbBlockEnd
  0
BLOCK
  5
15DA3
330
15DA2
100
AcDbEntity
  8
0
100
AcDbBlockBegin
  2
SW_CENTERMARKSYMBOL_4
 70
     0
 10
0.0
 20
0.0
 30
0.0
  3
SW_CENTERMARKSYMBOL_4
  1
SW_CENTERMARKSYMBOL_4
  0
LINE
  5
15DA4
330
15DA2
100
AcDbEntity
  8
240
 62
     0
100
AcDbLine
 10
0.0
 20
0.0
 30
0.0
 11
0.0
 21
2.5
 31
0.0
  0
LINE
  5
15DA5
330
15DA2
100
AcDbEntity
  8
240
 62
     0
100
AcDbLine
 10
0.0
 20
0.0
 30
0.0
 11
-2.5
 21
0.0
 31
0.0
  0
LINE
  5
15DA6
330
15DA2
100
AcDbEntity
  8
240
 62
     0
100
AcDbLine
 10
0.0
 20
0.0
 30
0.0
 11
0.0
 21
-2.5
 31
0.0
  0
LINE
  5
15DA7
330
15DA2
100
AcDbEntity
  8
240
 62
     0
100
AcDbLine
 10
0.0
 20
0.0
 30
0.0
 11
2.5
 21
0.0
 31
0.0
  0
LINE
  5
15DA8
330
15DA2
100
AcDbEntity
  8
240
 62
     0
100
AcDbLine
 10
0.0
 20
2.5
 30
0.0
 11
0.0
 21
3.7
 31
0.0
  0
LINE
  5
15DA9
330
15DA2
100
AcDbEntity
  8
240
 62
     0
100
AcDbLine
 10
-2.5
 20
0.0
 30
0.0
 11
-3.7
 21
0.0
 31
0.0
  0
LINE
  5
15DAA
330
15DA2
100
AcDbEntity
  8
240
 62
     0
100
AcDbLine
 10
0.0
 20
-2.5
 30
0.0
 11
0.0
 21
-3.7
 31
0.0
  0
LINE
  5
15DAB
330
15DA2
100
AcDbEntity
  8
240
 62
     0
100
AcDbLine
 10
2.5
 20
0.0
 30
0.0
 11
3.7
 21
0.0
 31
0.0
  0
ENDBLK
  5
15DAC
330
15DA2
100
AcDbEntity
  8
0
100
AcDbBlockEnd
  0
BLOCK
  5
1F9CB
330
1F9CA
100
AcDbEntity
  8
0
100
AcDbBlockBegin
  2
*D5
 70
     1
 10
0.0
 20
0.0
 30
0.0
  3
*D5
  1

  0
LINE
  5
23A90
330
1F9CA
100
AcDbEntity
  8
30
 62
     0
440
 16777216
370
    -2
100
AcDbLine
 10
396.017252672007
 20
506.4697145142361
 30
0.0
 11
431.9422056474528
 21
506.4697145142361
 31
0.0
  0
LINE
  5
23A91
330
1F9CA
100
AcDbEntity
  8
30
 62
     0
440
 16777216
370
    -2
100
AcDbLine
 10
396.017252672007
 20
326.4697145142363
 30
0.0
 11
431.9422056474526
 21
326.4697145142363
 31
0.0
  0
LINE
  5
23A92
330
1F9CA
100
AcDbEntity
  8
30
 62
     0
440
 16777216
370
    -2
100
AcDbLine
 10
431.4422056474525
 20
504.4697145142363
 30
0.0
 11
431.4422056474525
 21
328.4697145142363
 31
0.0
  0
INSERT
  5
23A93
330
1F9CA
100
AcDbEntity
  8
30
 62
     0
440
 16777216
370
    -2
100
AcDbBlockReference
  2
_OPEN
 10
431.4422056474525
 20
506.4697145142361
 30
0.0
 41
2.0
 42
2.0
 43
2.0
 50
90.0
  0
INSERT
  5
23A94
330
1F9CA
100
AcDbEntity
  8
30
 62
     0
440
 16777216
370
    -2
100
AcDbBlockReference
  2
_OPEN
 10
431.4422056474525
 20
326.4697145142363
 30
0.0
 41
2.0
 42
2.0
 43
2.0
 50
270.0
  0
MTEXT
  5
23A95
330
1F9CA
100
AcDbEntity
  8
30
 62
     0
440
 16777216
100
AcDbMText
 10
423.4422056474526
 20
416.4781387800012
 30
0.0
 40
6.0
 41
0.0
 46
0.0
 71
     2
 72
     1
  1
\A1;180
 11
0.0000000000000001
 21
1.0
 31
0.0
 73
     1
 44
1.0
 90
        3
 63
     9
421
 13158600
 45
1.25
441
        0
  0
POINT
  5
23A96
330
1F9CA
100
AcDbEntity
  8
DEFPOINTS
 62
     0
440
 16777216
100
AcDbPoint
 10
395.017252672007
 20
506.4697145142361
 30
0.0
  0
POINT
  5
23A97
330
1F9CA
100
AcDbEntity
  8
DEFPOINTS
 62
     0
440
 16777216
100
AcDbPoint
 10
395.017252672007
 20
326.4697145142363
 30
0.0
  0
POINT
  5
23A98
330
1F9CA
100
AcDbEntity
  8
DEFPOINTS
 62
     0
440
 16777216
100
AcDbPoint
 10
431.4422056474525
 20
326.4697145142363
 30
0.0
  0
ENDBLK
  5
1F9CC
330
1F9CA
100
AcDbEntity
  8
0
100
AcDbBlockEnd
  0
BLOCK
  5
1FDC3
330
1FDC2
100
AcDbEntity
  8
0
100
AcDbBlockBegin
  2
*D6
 70
     1
 10
0.0
 20
0.0
 30
0.0
  3
*D6
  1

  0
LINE
  5
23A3F
330
1FDC2
100
AcDbEntity
  8
30
 62
     0
440
 16777216
370
    -2
100
AcDbLine
 10
56.54187167922778
 20
143.4697145142366
 30
0.0
 11
32.13066264347773
 21
143.4697145142366
 31
0.0
  0
LINE
  5
23A40
330
1FDC2
100
AcDbEntity
  8
30
 62
     0
440
 16777216
370
    -2
100
AcDbLine
 10
56.54187167922778
 20
179.4697145142366
 30
0.0
 11
32.13066264347774
 21
179.4697145142366
 31
0.0
  0
LINE
  5
23A41
330
1FDC2
100
AcDbEntity
  8
30
 62
     0
440
 16777216
370
    -2
100
AcDbLine
 10
32.63066264347774
 20
145.4697145142366
 30
0.0
 11
32.63066264347774
 21
177.4697145142366
 31
0.0
  0
INSERT
  5
23A42
330
1FDC2
100
AcDbEntity
  8
30
 62
     0
440
 16777216
370
    -2
100
AcDbBlockReference
  2
_OPEN
 10
32.63066264347774
 20
143.4697145142366
 30
0.0
 41
2.0
 42
2.0
 43
2.0
 50
270.0
  0
INSERT
  5
23A43
330
1FDC2
100
AcDbEntity
  8
30
 62
     0
440
 16777216
370
    -2
100
AcDbBlockReference
  2
_OPEN
 10
32.63066264347774
 20
179.4697145142366
 30
0.0
 41
2.0
 42
2.0
 43
2.0
 50
90.0
  0
MTEXT
  5
23A44
330
1FDC2
100
AcDbEntity
  8
30
 62
     0
440
 16777216
100
AcDbMText
 10
24.63066264347772
 20
161.4697145142366
 30
0.0
 40
6.0
 41
0.0
 46
0.0
 71
     2
 72
     1
  1
\A1;36
 11
0.0000000000000001
 21
1.0
 31
0.0
 73
     1
 44
1.0
 90
        3
 63
     9
421
 13158600
 45
1.25
441
        0
  0
POINT
  5
23A45
330
1FDC2
100
AcDbEntity
  8
DEFPOINTS
 62
     0
440
 16777216
100
AcDbPoint
 10
57.54187167922776
 20
143.4697145142366
 30
0.0
  0
POINT
  5
23A46
330
1FDC2
100
AcDbEntity
  8
DEFPOINTS
 62
     0
440
 16777216
100
AcDbPoint
 10
57.54187167922776
 20
179.4697145142366
 30
0.0
  0
POINT
  5
23A47
330
1FDC2
100
AcDbEntity
  8
DEFPOINTS
 62
     0
440
 16777216
100
AcDbPoint
 10
32.63066264347774
 20
179.4697145142366
 30
0.0
  0
ENDBLK
  5
1FDC4
330
1FDC2
100
AcDbEntity
  8
0
100
AcDbBlockEnd
  0
BLOCK
  5
1FDCF
330
1FDCE
100
AcDbEntity
  8
0
100
AcDbBlockBegin
  2
*D7
 70
     1
 10
0.0
 20
0.0
 30
0.0
  3
*D7
  1

  0
LINE
  5
23A48
330
1FDCE
100
AcDbEntity
  8
30
 62
     0
440
 16777216
370
    -2
100
AcDbLine
 10
79.04187167922777
 20
187.4697145142366
 30
0.0
 11
14.93313209770576
 21
187.4697145142366
 31
0.0
  0
LINE
  5
23A49
330
1FDCE
100
AcDbEntity
  8
30
 62
     0
440
 16777216
370
    -2
100
AcDbLine
 10
79.04187167922777
 20
135.4697145142366
 30
0.0
 11
14.93313209770575
 21
135.4697145142366
 31
0.0
  0
LINE
  5
23A4A
330
1FDCE
100
AcDbEntity
  8
30
 62
     0
440
 16777216
370
    -2
100
AcDbLine
 10
15.43313209770577
 20
185.4697145142366
 30
0.0
 11
15.43313209770575
 21
137.4697145142366
 31
0.0
  0
INSERT
  5
23A4B
330
1FDCE
100
AcDbEntity
  8
30
 62
     0
440
 16777216
370
    -2
100
AcDbBlockReference
  2
_OPEN
 10
15.43313209770577
 20
187.4697145142366
 30
0.0
 41
2.0
 42
2.0
 43
2.0
 50
90.0
  0
INSERT
  5
23A4C
330
1FDCE
100
AcDbEntity
  8
30
 62
     0
440
 16777216
370
    -2
100
AcDbBlockReference
  2
_OPEN
 10
15.43313209770575
 20
135.4697145142366
 30
0.0
 41
2.0
 42
2.0
 43
2.0
 50
270.0
  0
MTEXT
  5
23A4D
330
1FDCE
100
AcDbEntity
  8
30
 62
     0
440
 16777216
100
AcDbMText
 10
7.433132097705737
 20
161.4697145142366
 30
0.0
 40
6.0
 41
0.0
 46
0.0
 71
     2
 72
     1
  1
\A1;52
 11
0.0000000000000001
 21
1.0
 31
0.0
 73
     1
 44
1.0
 90
        3
 63
     9
421
 13158600
 45
1.25
441
        0
  0
POINT
  5
23A4E
330
1FDCE
100
AcDbEntity
  8
DEFPOINTS
 62
     0
440
 16777216
100
AcDbPoint
 10
80.04187167922777
 20
187.4697145142366
 30
0.0
  0
POINT
  5
23A4F
330
1FDCE
100
AcDbEntity
  8
DEFPOINTS
 62
     0
440
 16777216
100
AcDbPoint
 10
80.04187167922777
 20
135.4697145142366
 30
0.0
  0
POINT
  5
23A50
330
1FDCE
100
AcDbEntity
  8
DEFPOINTS
 62
     0
440
 16777216
100
AcDbPoint
 10
15.43313209770575
 20
135.4697145142366
 30
0.0
  0
ENDBLK
  5
1FDD0
330
1FDCE
100
AcDbEntity
  8
0
100
AcDbBlockEnd
  0
BLOCK
  5
1FDDB
330
1FDDA
100
AcDbEntity
  8
0
100
AcDbBlockBegin
  2
*D8
 70
     1
 10
0.0
 20
0.0
 30
0.0
  3
*D8
  1

  0
LINE
  5
23A6C
330
1FDDA
100
AcDbEntity
  8
30
 62
     0
440
 16777216
370
    -2
100
AcDbLine
 10
132.5418716792277
 20
142.4697145142365
 30
0.0
 11
132.5418716792277
 21
47.14247969556936
 31
0.0
  0
LINE
  5
23A6D
330
1FDDA
100
AcDbEntity
  8
30
 62
     0
440
 16777216
370
    -2
100
AcDbLine
 10
57.54187167922776
 20
142.4697145142365
 30
0.0
 11
57.54187167922776
 21
47.14247969556936
 31
0.0
  0
LINE
  5
23A6E
330
1FDDA
100
AcDbEntity
  8
30
 62
     0
440
 16777216
370
    -2
100
AcDbLine
 10
130.5418716792277
 20
47.64247969556936
 30
0.0
 11
59.54187167922776
 21
47.64247969556936
 31
0.0
  0
INSERT
  5
23A6F
330
1FDDA
100
AcDbEntity
  8
30
 62
     0
440
 16777216
370
    -2
100
AcDbBlockReference
  2
_OPEN
 10
132.5418716792277
 20
47.64247969556936
 30
0.0
 41
2.0
 42
2.0
 43
2.0
  0
INSERT
  5
23A70
330
1FDDA
100
AcDbEntity
  8
30
 62
     0
440
 16777216
370
    -2
100
AcDbBlockReference
  2
_OPEN
 10
57.54187167922776
 20
47.64247969556936
 30
0.0
 41
2.0
 42
2.0
 43
2.0
 50
180.0
  0
MTEXT
  5
23A71
330
1FDDA
100
AcDbEntity
  8
30
 62
     0
440
 16777216
100
AcDbMText
 10
93.10852265385568
 20
55.64247969556936
 30
0.0
 40
6.0
 41
0.0
 46
0.0
 71
     2
 72
     1
  1
\A1;75
 73
     1
 44
1.0
 90
        3
 63
     9
421
 13158600
 45
1.25
441
        0
  0
POINT
  5
23A72
330
1FDDA
100
AcDbEntity
  8
DEFPOINTS
 62
     0
440
 16777216
100
AcDbPoint
 10
132.5418716792277
 20
143.4697145142366
 30
0.0
  0
POINT
  5
23A73
330
1FDDA
100
AcDbEntity
  8
DEFPOINTS
 62
     0
440
 16777216
100
AcDbPoint
 10
57.54187167922776
 20
143.4697145142366
 30
0.0
  0
POINT
  5
23A74
330
1FDDA
100
AcDbEntity
  8
DEFPOINTS
 62
     0
440
 16777216
100
AcDbPoint
 10
57.54187167922776
 20
47.64247969556936
 30
0.0
  0
ENDBLK
  5
1FDDC
330
1FDDA
100
AcDbEntity
  8
0
100
AcDbBlockEnd
  0
BLOCK
  5
1FDE7
330
1FDE6
100
AcDbEntity
  8
0
100
AcDbBlockBegin
  2
*D9
 70
     1
 10
0.0
 20
0.0
 30
0.0
  3
*D9
  1

  0
LINE
  5
23A5A
330
1FDE6
100
AcDbEntity
  8
30
 62
     0
440
 16777216
370
    -2
100
AcDbLine
 10
110.0418716792277
 20
134.4697145142366
 30
0.0
 11
110.0418716792277
 21
97.35345922223658
 31
0.0
  0
LINE
  5
23A5B
330
1FDE6
100
AcDbEntity
  8
30
 62
     0
440
 16777216
370
    -2
100
AcDbLine
 10
80.04187167922777
 20
134.4697145142366
 30
0.0
 11
80.04187167922777
 21
97.35345922223658
 31
0.0
  0
LINE
  5
23A5C
330
1FDE6
100
AcDbEntity
  8
30
 62
     0
440
 16777216
370
    -2
100
AcDbLine
 10
108.0418716792277
 20
97.85345922223658
 30
0.0
 11
82.04187167922777
 21
97.85345922223658
 31
0.0
  0
INSERT
  5
23A5D
330
1FDE6
100
AcDbEntity
  8
30
 62
     0
440
 16777216
370
    -2
100
AcDbBlockReference
  2
_OPEN
 10
110.0418716792277
 20
97.85345922223658
 30
0.0
 41
2.0
 42
2.0
 43
2.0
  0
INSERT
  5
23A5E
330
1FDE6
100
AcDbEntity
  8
30
 62
     0
440
 16777216
370
    -2
100
AcDbBlockReference
  2
_OPEN
 10
80.04187167922777
 20
97.85345922223658
 30
0.0
 41
2.0
 42
2.0
 43
2.0
 50
180.0
  0
MTEXT
  5
23A5F
330
1FDE6
100
AcDbEntity
  8
30
 62
     0
440
 16777216
100
AcDbMText
 10
95.04187167922777
 20
105.8534592222366
 30
0.0
 40
6.0
 41
0.0
 46
0.0
 71
     2
 72
     1
  1
\A1;30
 73
     1
 44
1.0
 90
        3
 63
     9
421
 13158600
 45
1.25
441
        0
  0
POINT
  5
23A60
330
1FDE6
100
AcDbEntity
  8
DEFPOINTS
 62
     0
440
 16777216
100
AcDbPoint
 10
110.0418716792277
 20
135.4697145142366
 30
0.0
  0
POINT
  5
23A61
330
1FDE6
100
AcDbEntity
  8
DEFPOINTS
 62
     0
440
 16777216
100
AcDbPoint
 10
80.04187167922777
 20
135.4697145142366
 30
0.0
  0
POINT
  5
23A62
330
1FDE6
100
AcDbEntity
  8
DEFPOINTS
 62
     0
440
 16777216
100
AcDbPoint
 10
80.04187167922777
 20
97.85345922223658
 30
0.0
  0
ENDBLK
  5
1FDE8
330
1FDE6
100
AcDbEntity
  8
0
100
AcDbBlockEnd
  0
BLOCK
  5
2184E
330
2184D
100
AcDbEntity
  8
0
100
AcDbBlockBegin
  2
*D10
 70
     1
 10
0.0
 20
0.0
 30
0.0
  3
*D10
  1

  0
LINE
  5
239B7
330
2184D
100
AcDbEntity
  8
30
 62
     0
440
 16777216
370
    -2
100
AcDbLine
 10
65.04187167922776
 20
358.9314573848613
 30
0.0
 11
65.04187167922776
 21
296.4314573848613
 31
0.0
  0
LINE
  5
239B8
330
2184D
100
AcDbEntity
  8
30
 62
     0
440
 16777216
370
    -2
100
AcDbLine
 10
125.0418716792278
 20
358.9314573848613
 30
0.0
 11
125.0418716792278
 21
296.4314573848613
 31
0.0
  0
LINE
  5
239B9
330
2184D
100
AcDbEntity
  8
30
 62
     0
440
 16777216
370
    -2
100
AcDbLine
 10
67.04187167922777
 20
296.9314573848613
 30
0.0
 11
123.0418716792277
 21
296.9314573848613
 31
0.0
  0
INSERT
  5
239BA
330
2184D
100
AcDbEntity
  8
30
 62
     0
440
 16777216
370
    -2
100
AcDbBlockReference
  2
_OPEN
 10
65.04187167922776
 20
296.9314573848613
 30
0.0
 41
2.0
 42
2.0
 43
2.0
 50
180.0
  0
INSERT
  5
239BB
330
2184D
100
AcDbEntity
  8
30
 62
     0
440
 16777216
370
    -2
100
AcDbBlockReference
  2
_OPEN
 10
125.0418716792278
 20
296.9314573848613
 30
0.0
 41
2.0
 42
2.0
 43
2.0
  0
MTEXT
  5
239BC
330
2184D
100
AcDbEntity
  8
30
 62
     0
440
 16777216
100
AcDbMText
 10
95.04187167922777
 20
304.9314573848613
 30
0.0
 40
6.0
 41
0.0
 46
0.0
 71
     2
 72
     1
  1
\A1;60
 73
     1
 44
1.0
 90
        3
 63
     9
421
 13158600
 45
1.25
441
        0
  0
POINT
  5
239BD
330
2184D
100
AcDbEntity
  8
DEFPOINTS
 62
     0
440
 16777216
100
AcDbPoint
 10
65.04187167922776
 20
359.9314573848614
 30
0.0
  0
POINT
  5
239BE
330
2184D
100
AcDbEntity
  8
DEFPOINTS
 62
     0
440
 16777216
100
AcDbPoint
 10
125.0418716792278
 20
359.9314573848614
 30
0.0
  0
POINT
  5
239BF
330
2184D
100
AcDbEntity
  8
DEFPOINTS
 62
     0
440
 16777216
100
AcDbPoint
 10
125.0418716792278
 20
296.9314573848613
 30
0.0
  0
ENDBLK
  5
2184F
330
2184D
100
AcDbEntity
  8
0
100
AcDbBlockEnd
  0
BLOCK
  5
2185A
330
21859
100
AcDbEntity
  8
0
100
AcDbBlockBegin
  2
*D11
 70
     1
 10
0.0
 20
0.0
 30
0.0
  3
*D11
  1

  0
LINE
  5
239AE
330
21859
100
AcDbEntity
  8
30
 62
     0
440
 16777216
370
    -2
100
AcDbLine
 10
50.04187167922776
 20
350.4697145142363
 30
0.0
 11
50.04187167922776
 21
283.9314573848613
 31
0.0
  0
LINE
  5
239AF
330
21859
100
AcDbEntity
  8
30
 62
     0
440
 16777216
370
    -2
100
AcDbLine
 10
140.0418716792277
 20
350.4697145142363
 30
0.0
 11
140.0418716792277
 21
283.9314573848613
 31
0.0
  0
LINE
  5
239B0
330
21859
100
AcDbEntity
  8
30
 62
     0
440
 16777216
370
    -2
100
AcDbLine
 10
52.04187167922776
 20
284.4314573848613
 30
0.0
 11
138.0418716792277
 21
284.4314573848613
 31
0.0
  0
INSERT
  5
239B1
330
21859
100
AcDbEntity
  8
30
 62
     0
440
 16777216
370
    -2
100
AcDbBlockReference
  2
_OPEN
 10
50.04187167922776
 20
284.4314573848613
 30
0.0
 41
2.0
 42
2.0
 43
2.0
 50
180.0
  0
INSERT
  5
239B2
330
21859
100
AcDbEntity
  8
30
 62
     0
440
 16777216
370
    -2
100
AcDbBlockReference
  2
_OPEN
 10
140.0418716792277
 20
284.4314573848613
 30
0.0
 41
2.0
 42
2.0
 43
2.0
  0
MTEXT
  5
239B3
330
21859
100
AcDbEntity
  8
30
 62
     0
440
 16777216
100
AcDbMText
 10
95.04187167922777
 20
292.4314573848613
 30
0.0
 40
6.0
 41
0.0
 46
0.0
 71
     2
 72
     1
  1
\A1;90
 73
     1
 44
1.0
 90
        3
 63
     9
421
 13158600
 45
1.25
441
        0
  0
POINT
  5
239B4
330
21859
100
AcDbEntity
  8
DEFPOINTS
 62
     0
440
 16777216
100
AcDbPoint
 10
50.04187167922776
 20
351.4697145142363
 30
0.0
  0
POINT
  5
239B5
330
21859
100
AcDbEntity
  8
DEFPOINTS
 62
     0
440
 16777216
100
AcDbPoint
 10
140.0418716792277
 20
351.4697145142363
 30
0.0
  0
POINT
  5
239B6
330
21859
100
AcDbEntity
  8
DEFPOINTS
 62
     0
440
 16777216
100
AcDbPoint
 10
140.0418716792277
 20
284.4314573848613
 30
0.0
  0
ENDBLK
  5
2185B
330
21859
100
AcDbEntity
  8
0
100
AcDbBlockEnd
  0
BLOCK
  5
218EE
330
218ED
100
AcDbEntity
  8
0
100
AcDbBlockBegin
  2
*D12
 70
     1
 10
0.0
 20
0.0
 30
0.0
  3
*D12
  1

  0
LINE
  5
239A5
330
218ED
100
AcDbEntity
  8
30
 62
     0
440
 16777216
370
    -2
100
AcDbLine
 10
49.04187167922778
 20
481.4697145142361
 30
0.0
 11
30.57485752891941
 21
481.4697145142361
 31
0.0
  0
LINE
  5
239A6
330
218ED
100
AcDbEntity
  8
30
 62
     0
440
 16777216
370
    -2
100
AcDbLine
 10
49.04187167922778
 20
351.4697145142363
 30
0.0
 11
30.57485752891938
 21
351.4697145142363
 31
0.0
  0
LINE
  5
239A7
330
218ED
100
AcDbEntity
  8
30
 62
     0
440
 16777216
370
    -2
100
AcDbLine
 10
31.07485752891941
 20
479.4697145142363
 30
0.0
 11
31.07485752891938
 21
353.4697145142363
 31
0.0
  0
INSERT
  5
239A8
330
218ED
100
AcDbEntity
  8
30
 62
     0
440
 16777216
370
    -2
100
AcDbBlockReference
  2
_OPEN
 10
31.07485752891941
 20
481.4697145142361
 30
0.0
 41
2.0
 42
2.0
 43
2.0
 50
90.0
  0
INSERT
  5
239A9
330
218ED
100
AcDbEntity
  8
30
 62
     0
440
 16777216
370
    -2
100
AcDbBlockReference
  2
_OPEN
 10
31.07485752891938
 20
351.4697145142363
 30
0.0
 41
2.0
 42
2.0
 43
2.0
 50
270.0
  0
MTEXT
  5
239AA
330
218ED
100
AcDbEntity
  8
30
 62
     0
440
 16777216
100
AcDbMText
 10
26.07485752891933
 20
416.4697145142362
 30
0.0
 40
6.0
 41
0.0
 46
0.0
 71
     5
 72
     1
  1
\A1;130
 11
0.0000000000000001
 21
1.0
 31
0.0
 73
     1
 44
1.0
 90
        3
 63
     9
421
 13158600
 45
1.25
441
        0
  0
POINT
  5
239AB
330
218ED
100
AcDbEntity
  8
DEFPOINTS
 62
     0
440
 16777216
100
AcDbPoint
 10
50.04187167922776
 20
481.4697145142361
 30
0.0
  0
POINT
  5
239AC
330
218ED
100
AcDbEntity
  8
DEFPOINTS
 62
     0
440
 16777216
100
AcDbPoint
 10
50.04187167922776
 20
351.4697145142363
 30
0.0
  0
POINT
  5
239AD
330
218ED
100
AcDbEntity
  8
DEFPOINTS
 62
     0
440
 16777216
100
AcDbPoint
 10
31.07485752891938
 20
351.4697145142363
 30
0.0
  0
ENDBLK
  5
218EF
330
218ED
100
AcDbEntity
  8
0
100
AcDbBlockEnd
  0
BLOCK
  5
22091
330
22090
100
AcDbEntity
  8
0
100
AcDbBlockBegin
  2
*D13
 70
     1
 10
0.0
 20
0.0
 30
0.0
  3
*D13
  1

  0
LINE
  5
239F7
330
22090
100
AcDbEntity
  8
30
 62
     0
440
 16777216
370
    -2
100
AcDbLine
 10
274.517248976507
 20
441.4697145142362
 30
0.0
 11
236.0172489765071
 21
441.4697145142362
 31
0.0
  0
LINE
  5
239F8
330
22090
100
AcDbEntity
  8
30
 62
     0
440
 16777216
370
    -2
100
AcDbLine
 10
274.517248976507
 20
391.4697145142363
 30
0.0
 11
236.0172489765071
 21
391.4697145142363
 31
0.0
  0
LINE
  5
239F9
330
22090
100
AcDbEntity
  8
30
 62
     0
440
 16777216
370
    -2
100
AcDbLine
 10
236.517248976507
 20
439.4697145142361
 30
0.0
 11
236.517248976507
 21
393.4697145142363
 31
0.0
  0
INSERT
  5
239FA
330
22090
100
AcDbEntity
  8
30
 62
     0
440
 16777216
370
    -2
100
AcDbBlockReference
  2
_OPEN
 10
236.517248976507
 20
441.4697145142362
 30
0.0
 41
2.0
 42
2.0
 43
2.0
 50
90.0
  0
INSERT
  5
239FB
330
22090
100
AcDbEntity
  8
30
 62
     0
440
 16777216
370
    -2
100
AcDbBlockReference
  2
_OPEN
 10
236.517248976507
 20
391.4697145142363
 30
0.0
 41
2.0
 42
2.0
 43
2.0
 50
270.0
  0
MTEXT
  5
239FC
330
22090
100
AcDbEntity
  8
30
 62
     0
440
 16777216
100
AcDbMText
 10
231.517248976507
 20
417.227891051836
 30
0.0
 40
6.0
 41
0.0
 46
0.0
 71
     5
 72
     1
  1
\A1;50
 11
0.0000000000000001
 21
1.0
 31
0.0
 73
     1
 44
1.0
 90
        3
 63
     9
421
 13158600
 45
1.25
441
        0
  0
POINT
  5
239FD
330
22090
100
AcDbEntity
  8
DEFPOINTS
 62
     0
440
 16777216
100
AcDbPoint
 10
275.517248976507
 20
441.4697145142362
 30
0.0
  0
POINT
  5
239FE
330
22090
100
AcDbEntity
  8
DEFPOINTS
 62
     0
440
 16777216
100
AcDbPoint
 10
275.517248976507
 20
391.4697145142363
 30
0.0
  0
POINT
  5
239FF
330
22090
100
AcDbEntity
  8
DEFPOINTS
 62
     0
440
 16777216
100
AcDbPoint
 10
236.517248976507
 20
391.4697145142363
 30
0.0
  0
ENDBLK
  5
22092
330
22090
100
AcDbEntity
  8
0
100
AcDbBlockEnd
  0
BLOCK
  5
220A9
330
220A8
100
AcDbEntity
  8
0
100
AcDbBlockBegin
  2
*D14
 70
     1
 10
0.0
 20
0.0
 30
0.0
  3
*D14
  1

  0
LINE
  5
23B6E
330
220A8
100
AcDbEntity
  8
30
 62
     0
440
 16777216
370
    -2
100
AcDbLine
 10
347.5172489765071
 20
350.4697145142363
 30
0.0
 11
347.5172489765071
 21
268.7479644086356
 31
0.0
  0
LINE
  5
23B6F
330
220A8
100
AcDbEntity
  8
30
 62
     0
440
 16777216
370
    -2
100
AcDbLine
 10
252.017248976507
 20
415.4697145142362
 30
0.0
 11
252.017248976507
 21
268.7479644086356
 31
0.0
  0
LINE
  5
23B70
330
220A8
100
AcDbEntity
  8
30
 62
     0
440
 16777216
370
    -2
100
AcDbLine
 10
345.5172489765071
 20
269.2479644086357
 30
0.0
 11
254.017248976507
 21
269.2479644086357
 31
0.0
  0
INSERT
  5
23B71
330
220A8
100
AcDbEntity
  8
30
 62
     0
440
 16777216
370
    -2
100
AcDbBlockReference
  2
_OPEN
 10
347.5172489765071
 20
269.2479644086357
 30
0.0
 41
2.0
 42
2.0
 43
2.0
  0
INSERT
  5
23B72
330
220A8
100
AcDbEntity
  8
30
 62
     0
440
 16777216
370
    -2
100
AcDbBlockReference
  2
_OPEN
 10
252.017248976507
 20
269.2479644086357
 30
0.0
 41
2.0
 42
2.0
 43
2.0
 50
180.0
  0
MTEXT
  5
23B73
330
220A8
100
AcDbEntity
  8
30
 62
     0
440
 16777216
100
AcDbMText
 10
299.7672489765071
 20
274.2479644086357
 30
0.0
 40
6.0
 41
0.0
 46
0.0
 71
     5
 72
     1
  1
\A1;95.5
 73
     1
 44
1.0
 90
        3
 63
     9
421
 13158600
 45
1.25
441
        0
  0
POINT
  5
23B74
330
220A8
100
AcDbEntity
  8
DEFPOINTS
 62
     0
440
 16777216
100
AcDbPoint
 10
347.5172489765071
 20
351.4697145142363
 30
0.0
  0
POINT
  5
23B75
330
220A8
100
AcDbEntity
  8
DEFPOINTS
 62
     0
440
 16777216
100
AcDbPoint
 10
252.017248976507
 20
416.4697145142362
 30
0.0
  0
POINT
  5
23B76
330
220A8
100
AcDbEntity
  8
DEFPOINTS
 62
     0
440
 16777216
100
AcDbPoint
 10
252.017248976507
 20
269.2479644086357
 30
0.0
  0
ENDBLK
  5
220AA
330
220A8
100
AcDbEntity
  8
0
100
AcDbBlockEnd
  0
BLOCK
  5
220B5
330
220B4
100
AcDbEntity
  8
0
100
AcDbBlockBegin
  2
*D15
 70
     1
 10
0.0
 20
0.0
 30
0.0
  3
*D15
  1

  0
LINE
  5
239E5
330
220B4
100
AcDbEntity
  8
30
 62
     0
440
 16777216
370
    -2
100
AcDbLine
 10
347.5172489765071
 20
350.4697145142363
 30
0.0
 11
347.5172489765071
 21
310.4697145142363
 31
0.0
  0
LINE
  5
239E6
330
220B4
100
AcDbEntity
  8
30
 62
     0
440
 16777216
370
    -2
100
AcDbLine
 10
287.517248976507
 20
366.4697145142363
 30
0.0
 11
287.517248976507
 21
310.4697145142363
 31
0.0
  0
LINE
  5
239E7
330
220B4
100
AcDbEntity
  8
30
 62
     0
440
 16777216
370
    -2
100
AcDbLine
 10
345.5172489765071
 20
310.9697145142363
 30
0.0
 11
289.517248976507
 21
310.9697145142363
 31
0.0
  0
INSERT
  5
239E8
330
220B4
100
AcDbEntity
  8
30
 62
     0
440
 16777216
370
    -2
100
AcDbBlockReference
  2
_OPEN
 10
347.5172489765071
 20
310.9697145142363
 30
0.0
 41
2.0
 42
2.0
 43
2.0
  0
INSERT
  5
239E9
330
220B4
100
AcDbEntity
  8
30
 62
     0
440
 16777216
370
    -2
100
AcDbBlockReference
  2
_OPEN
 10
287.517248976507
 20
310.9697145142363
 30
0.0
 41
2.0
 42
2.0
 43
2.0
 50
180.0
  0
MTEXT
  5
239EA
330
220B4
100
AcDbEntity
  8
30
 62
     0
440
 16777216
100
AcDbMText
 10
317.517248976507
 20
315.9697145142363
 30
0.0
 40
6.0
 41
0.0
 46
0.0
 71
     5
 72
     1
  1
\A1;60
 73
     1
 44
1.0
 90
        3
 63
     9
421
 13158600
 45
1.25
441
        0
  0
POINT
  5
239EB
330
220B4
100
AcDbEntity
  8
DEFPOINTS
 62
     0
440
 16777216
100
AcDbPoint
 10
347.5172489765071
 20
351.4697145142363
 30
0.0
  0
POINT
  5
239EC
330
220B4
100
AcDbEntity
  8
DEFPOINTS
 62
     0
440
 16777216
100
AcDbPoint
 10
287.517248976507
 20
367.4697145142364
 30
0.0
  0
POINT
  5
239ED
330
220B4
100
AcDbEntity
  8
DEFPOINTS
 62
     0
440
 16777216
100
AcDbPoint
 10
287.517248976507
 20
310.9697145142363
 30
0.0
  0
ENDBLK
  5
220B6
330
220B4
100
AcDbEntity
  8
0
100
AcDbBlockEnd
  0
BLOCK
  5
220D9
330
220D8
100
AcDbEntity
  8
0
100
AcDbBlockBegin
  2
*D16
 70
     1
 10
0.0
 20
0.0
 30
0.0
  3
*D16
  1

  0
LINE
  5
23B77
330
220D8
100
AcDbEntity
  8
30
 62
     0
440
 16777216
370
    -2
100
AcDbLine
 10
347.5172489765071
 20
350.4697145142363
 30
0.0
 11
347.5172489765071
 21
285.5776949797173
 31
0.0
  0
LINE
  5
23B78
330
220D8
100
AcDbEntity
  8
30
 62
     0
440
 16777216
370
    -2
100
AcDbLine
 10
275.517248976507
 20
390.4697145142363
 30
0.0
 11
275.517248976507
 21
285.5776949797173
 31
0.0
  0
LINE
  5
23B79
330
220D8
100
AcDbEntity
  8
30
 62
     0
440
 16777216
370
    -2
100
AcDbLine
 10
345.5172489765071
 20
286.0776949797173
 30
0.0
 11
277.517248976507
 21
286.0776949797173
 31
0.0
  0
INSERT
  5
23B7A
330
220D8
100
AcDbEntity
  8
30
 62
     0
440
 16777216
370
    -2
100
AcDbBlockReference
  2
_OPEN
 10
347.5172489765071
 20
286.0776949797173
 30
0.0
 41
2.0
 42
2.0
 43
2.0
  0
INSERT
  5
23B7B
330
220D8
100
AcDbEntity
  8
30
 62
     0
440
 16777216
370
    -2
100
AcDbBlockReference
  2
_OPEN
 10
275.517248976507
 20
286.0776949797173
 30
0.0
 41
2.0
 42
2.0
 43
2.0
 50
180.0
  0
MTEXT
  5
23B7C
330
220D8
100
AcDbEntity
  8
30
 62
     0
440
 16777216
100
AcDbMText
 10
311.517248976507
 20
291.0776949797173
 30
0.0
 40
6.0
 41
0.0
 46
0.0
 71
     5
 72
     1
  1
\A1;72
 73
     1
 44
1.0
 90
        3
 63
     9
421
 13158600
 45
1.25
441
        0
  0
POINT
  5
23B7D
330
220D8
100
AcDbEntity
  8
DEFPOINTS
 62
     0
440
 16777216
100
AcDbPoint
 10
347.5172489765071
 20
351.4697145142363
 30
0.0
  0
POINT
  5
23B7E
330
220D8
100
AcDbEntity
  8
DEFPOINTS
 62
     0
440
 16777216
100
AcDbPoint
 10
275.517248976507
 20
391.4697145142363
 30
0.0
  0
POINT
  5
23B7F
330
220D8
100
AcDbEntity
  8
DEFPOINTS
 62
     0
440
 16777216
100
AcDbPoint
 10
275.517248976507
 20
286.0776949797173
 30
0.0
  0
ENDBLK
  5
220DA
330
220D8
100
AcDbEntity
  8
0
100
AcDbBlockEnd
  0
BLOCK
  5
220E5
330
220E4
100
AcDbEntity
  8
0
100
AcDbBlockBegin
  2
*D17
 70
     1
 10
0.0
 20
0.0
 30
0.0
  3
*D17
  1

  0
LINE
  5
23BC6
330
220E4
100
AcDbEntity
  8
30
 62
     0
440
 16777216
370
    -2
100
AcDbLine
 10
269.0172489765072
 20
415.4697145142362
 30
0.0
 11
269.0172489765072
 21
286.0776949797173
 31
0.0
  0
LINE
  5
23BC7
330
220E4
100
AcDbEntity
  8
30
 62
     0
440
 16777216
370
    -2
100
AcDbLine
 10
275.517248976507
 20
390.4697145142363
 30
0.0
 11
275.517248976507
 21
286.0776949797173
 31
0.0
  0
LINE
  5
23BC8
330
220E4
100
AcDbEntity
  8
30
 62
     0
440
 16777216
370
    -2
100
AcDbLine
 10
277.517248976507
 20
286.5776949797173
 30
0.0
 11
279.517248976507
 21
286.5776949797173
 31
0.0
  0
LINE
  5
23BC9
330
220E4
100
AcDbEntity
  8
30
 62
     0
440
 16777216
370
    -2
100
AcDbLine
 10
267.0172489765072
 20
286.5776949797173
 30
0.0
 11
231.0720610470098
 21
286.5776949797173
 31
0.0
  0
INSERT
  5
23BCA
330
220E4
100
AcDbEntity
  8
30
 62
     0
440
 16777216
370
    -2
100
AcDbBlockReference
  2
_OPEN
 10
275.517248976507
 20
286.5776949797173
 30
0.0
 41
2.0
 42
2.0
 43
2.0
 50
180.0
  0
INSERT
  5
23BCB
330
220E4
100
AcDbEntity
  8
30
 62
     0
440
 16777216
370
    -2
100
AcDbBlockReference
  2
_OPEN
 10
269.0172489765072
 20
286.5776949797173
 30
0.0
 41
2.0
 42
2.0
 43
2.0
  0
MTEXT
  5
23BCC
330
220E4
100
AcDbEntity
  8
30
 62
     0
440
 16777216
100
AcDbMText
 10
239.0720610470098
 20
291.5776949797173
 30
0.0
 40
6.0
 41
0.0
 46
0.0
 71
     5
 72
     1
  1
\A1;6.5
 73
     1
 44
1.0
 90
        3
 63
     9
421
 13158600
 45
1.25
441
        0
  0
POINT
  5
23BCD
330
220E4
100
AcDbEntity
  8
DEFPOINTS
 62
     0
440
 16777216
100
AcDbPoint
 10
269.0172489765072
 20
416.4697145142362
 30
0.0
  0
POINT
  5
23BCE
330
220E4
100
AcDbEntity
  8
DEFPOINTS
 62
     0
440
 16777216
100
AcDbPoint
 10
275.517248976507
 20
391.4697145142363
 30
0.0
  0
POINT
  5
23BCF
330
220E4
100
AcDbEntity
  8
DEFPOINTS
 62
     0
440
 16777216
100
AcDbPoint
 10
275.517248976507
 20
286.5776949797173
 30
0.0
  0
ENDBLK
  5
220E6
330
220E4
100
AcDbEntity
  8
0
100
AcDbBlockEnd
  0
BLOCK
  5
221E3
330
221E2
100
AcDbEntity
  8
0
100
AcDbBlockBegin
  2
*D18
 70
     1
 10
0.0
 20
0.0
 30
0.0
  3
*D18
  1

  0
LINE
  5
23A87
330
221E2
100
AcDbEntity
  8
30
 62
     0
440
 16777216
370
    -2
100
AcDbLine
 10
371.5172489765071
 20
458.0608530076363
 30
0.0
 11
413.4986437687989
 21
458.0608530076362
 31
0.0
  0
LINE
  5
23A88
330
221E2
100
AcDbEntity
  8
30
 62
     0
440
 16777216
370
    -2
100
AcDbLine
 10
371.5172489765071
 20
375.0608530076363
 30
0.0
 11
413.4986437687989
 21
375.0608530076362
 31
0.0
  0
LINE
  5
23A89
330
221E2
100
AcDbEntity
  8
30
 62
     0
440
 16777216
370
    -2
100
AcDbLine
 10
412.9986437687988
 20
456.0608530076361
 30
0.0
 11
412.9986437687988
 21
377.0608530076362
 31
0.0
  0
INSERT
  5
23A8A
330
221E2
100
AcDbEntity
  8
30
 62
     0
440
 16777216
370
    -2
100
AcDbBlockReference
  2
_OPEN
 10
412.9986437687988
 20
458.0608530076362
 30
0.0
 41
2.0
 42
2.0
 43
2.0
 50
90.0
  0
INSERT
  5
23A8B
330
221E2
100
AcDbEntity
  8
30
 62
     0
440
 16777216
370
    -2
100
AcDbBlockReference
  2
_OPEN
 10
412.9986437687988
 20
375.0608530076362
 30
0.0
 41
2.0
 42
2.0
 43
2.0
 50
270.0
  0
MTEXT
  5
23A8C
330
221E2
100
AcDbEntity
  8
30
 62
     0
440
 16777216
100
AcDbMText
 10
407.9986437687988
 20
416.5608530076363
 30
0.0
 40
6.0
 41
0.0
 46
0.0
 71
     5
 72
     1
  1
\A1;83
 11
0.0000000000000001
 21
1.0
 31
0.0
 73
     1
 44
1.0
 90
        3
 63
     9
421
 13158600
 45
1.25
441
        0
  0
POINT
  5
23A8D
330
221E2
100
AcDbEntity
  8
DEFPOINTS
 62
     0
440
 16777216
100
AcDbPoint
 10
370.5172489765071
 20
458.0608530076363
 30
0.0
  0
POINT
  5
23A8E
330
221E2
100
AcDbEntity
  8
DEFPOINTS
 62
     0
440
 16777216
100
AcDbPoint
 10
370.5172489765071
 20
375.0608530076363
 30
0.0
  0
POINT
  5
23A8F
330
221E2
100
AcDbEntity
  8
DEFPOINTS
 62
     0
440
 16777216
100
AcDbPoint
 10
412.9986437687988
 20
375.0608530076362
 30
0.0
  0
ENDBLK
  5
221E4
330
221E2
100
AcDbEntity
  8
0
100
AcDbBlockEnd
  0
BLOCK
  5
2250A
330
22509
100
AcDbEntity
  8
0
100
AcDbBlockBegin
  2
*D19
 70
     1
 10
0.0
 20
0.0
 30
0.0
  3
*D19
  1

  0
LINE
  5
239C0
330
22509
100
AcDbEntity
  8
30
 62
     0
440
 16777216
370
    -2
100
AcDbLine
 10
80.04187167922777
 20
340.0079716436113
 30
0.0
 11
80.04187167922777
 21
308.0079716436114
 31
0.0
  0
LINE
  5
239C1
330
22509
100
AcDbEntity
  8
30
 62
     0
440
 16777216
370
    -2
100
AcDbLine
 10
110.0418716792277
 20
340.0079716436113
 30
0.0
 11
110.0418716792277
 21
308.0079716436114
 31
0.0
  0
LINE
  5
239C2
330
22509
100
AcDbEntity
  8
30
 62
     0
440
 16777216
370
    -2
100
AcDbLine
 10
82.04187167922777
 20
308.5079716436114
 30
0.0
 11
108.0418716792277
 21
308.5079716436114
 31
0.0
  0
INSERT
  5
239C3
330
22509
100
AcDbEntity
  8
30
 62
     0
440
 16777216
370
    -2
100
AcDbBlockReference
  2
_OPEN
 10
80.04187167922777
 20
308.5079716436114
 30
0.0
 41
2.0
 42
2.0
 43
2.0
 50
180.0
  0
INSERT
  5
239C4
330
22509
100
AcDbEntity
  8
30
 62
     0
440
 16777216
370
    -2
100
AcDbBlockReference
  2
_OPEN
 10
110.0418716792277
 20
308.5079716436114
 30
0.0
 41
2.0
 42
2.0
 43
2.0
  0
MTEXT
  5
239C5
330
22509
100
AcDbEntity
  8
30
 62
     0
440
 16777216
100
AcDbMText
 10
95.04187167922777
 20
316.5079716436114
 30
0.0
 40
6.0
 41
0.0
 46
0.0
 71
     2
 72
     1
  1
\A1;30
 73
     1
 44
1.0
 90
        3
 63
     9
421
 13158600
 45
1.25
441
        0
  0
POINT
  5
239C6
330
22509
100
AcDbEntity
  8
DEFPOINTS
 62
     0
440
 16777216
100
AcDbPoint
 10
80.04187167922777
 20
341.0079716436113
 30
0.0
  0
POINT
  5
239C7
330
22509
100
AcDbEntity
  8
DEFPOINTS
 62
     0
440
 16777216
100
AcDbPoint
 10
110.0418716792277
 20
341.0079716436113
 30
0.0
  0
POINT
  5
239C8
330
22509
100
AcDbEntity
  8
DEFPOINTS
 62
     0
440
 16777216
100
AcDbPoint
 10
110.0418716792277
 20
308.5079716436114
 30
0.0
  0
ENDBLK
  5
2250B
330
22509
100
AcDbEntity
  8
0
100
AcDbBlockEnd
  0
BLOCK
  5
22781
330
22780
100
AcDbEntity
  8
0
100
AcDbBlockBegin
  2
*D20
 70
     1
 10
0.0
 20
0.0
 30
0.0
  3
*D20
  1

  0
LINE
  5
2393A
330
22780
100
AcDbEntity
  8
30
 62
     0
440
 16777216
370
    -2
100
AcDbLine
 10
409.273900754526
 20
559.6671124319835
 30
0.0
 11
409.273900754526
 21
514.5646124319833
 31
0.0
  0
LINE
  5
2393B
330
22780
100
AcDbEntity
  8
30
 62
     0
440
 16777216
370
    -2
100
AcDbLine
 10
389.273900754526
 20
556.5646124319835
 30
0.0
 11
389.273900754526
 21
514.5646124319833
 31
0.0
  0
LINE
  5
2393C
330
22780
100
AcDbEntity
  8
30
 62
     0
440
 16777216
370
    -2
100
AcDbLine
 10
407.2739007545258
 20
515.0646124319833
 30
0.0
 11
391.273900754526
 21
515.0646124319833
 31
0.0
  0
INSERT
  5
2393D
330
22780
100
AcDbEntity
  8
30
 62
     0
440
 16777216
370
    -2
100
AcDbBlockReference
  2
_OPEN
 10
409.273900754526
 20
515.0646124319833
 30
0.0
 41
2.0
 42
2.0
 43
2.0
  0
INSERT
  5
2393E
330
22780
100
AcDbEntity
  8
30
 62
     0
440
 16777216
370
    -2
100
AcDbBlockReference
  2
_OPEN
 10
389.273900754526
 20
515.0646124319833
 30
0.0
 41
2.0
 42
2.0
 43
2.0
 50
180.0
  0
MTEXT
  5
2393F
330
22780
100
AcDbEntity
  8
30
 62
     0
440
 16777216
100
AcDbMText
 10
399.273900754526
 20
523.0646124319833
 30
0.0
 40
6.0
 41
0.0
 46
0.0
 71
     2
 72
     1
  1
\A1;20
 73
     1
 44
1.0
  0
POINT
  5
23940
330
22780
100
AcDbEntity
  8
DEFPOINTS
 62
     0
440
 16777216
100
AcDbPoint
 10
409.273900754526
 20
562.6671124319833
 30
0.0
  0
POINT
  5
23941
330
22780
100
AcDbEntity
  8
DEFPOINTS
 62
     0
440
 16777216
100
AcDbPoint
 10
389.273900754526
 20
559.5646124319833
 30
0.0
  0
POINT
  5
23942
330
22780
100
AcDbEntity
  8
DEFPOINTS
 62
     0
440
 16777216
100
AcDbPoint
 10
389.273900754526
 20
515.0646124319833
 30
0.0
  0
ENDBLK
  5
22782
330
22780
100
AcDbEntity
  8
0
100
AcDbBlockEnd
  0
BLOCK
  5
2278D
330
2278C
100
AcDbEntity
  8
0
100
AcDbBlockBegin
  2
*D21
 70
     1
 10
0.0
 20
0.0
 30
0.0
  3
*D21
  1

  0
LINE
  5
23943
330
2278C
100
AcDbEntity
  8
30
 62
     0
440
 16777216
370
    -2
100
AcDbLine
 10
375.1739007545261
 20
578.2646124319832
 30
0.0
 11
375.1739007545261
 21
514.5646124319833
 31
0.0
  0
LINE
  5
23944
330
2278C
100
AcDbEntity
  8
30
 62
     0
440
 16777216
370
    -2
100
AcDbLine
 10
389.273900754526
 20
548.1734621207333
 30
0.0
 11
389.273900754526
 21
514.5646124319833
 31
0.0
  0
LINE
  5
23945
330
2278C
100
AcDbEntity
  8
30
 62
     0
440
 16777216
370
    -2
100
AcDbLine
 10
387.273900754526
 20
515.0646124319833
 30
0.0
 11
377.1739007545261
 21
515.0646124319833
 31
0.0
  0
LINE
  5
23946
330
2278C
100
AcDbEntity
  8
30
 62
     0
440
 16777216
370
    -2
100
AcDbLine
 10
375.1739007545261
 20
515.0646124319833
 30
0.0
 11
355.1739007545261
 21
515.0646124319833
 31
0.0
  0
INSERT
  5
23947
330
2278C
100
AcDbEntity
  8
30
 62
     0
440
 16777216
370
    -2
100
AcDbBlockReference
  2
_OPEN
 10
389.273900754526
 20
515.0646124319833
 30
0.0
 41
2.0
 42
2.0
 43
2.0
  0
INSERT
  5
23948
330
2278C
100
AcDbEntity
  8
30
 62
     0
440
 16777216
370
    -2
100
AcDbBlockReference
  2
_OPEN
 10
375.1739007545261
 20
515.0646124319833
 30
0.0
 41
2.0
 42
2.0
 43
2.0
 50
180.0
  0
MTEXT
  5
23949
330
2278C
100
AcDbEntity
  8
30
 62
     0
440
 16777216
100
AcDbMText
 10
364.1739007545262
 20
523.0646124319833
 30
0.0
 40
6.0
 41
0.0
 46
0.0
 71
     2
 72
     1
  1
\A1;14.1
 73
     1
 44
1.0
  0
POINT
  5
2394A
330
2278C
100
AcDbEntity
  8
DEFPOINTS
 62
     0
440
 16777216
100
AcDbPoint
 10
375.1739007545261
 20
581.2646124319832
 30
0.0
  0
POINT
  5
2394B
330
2278C
100
AcDbEntity
  8
DEFPOINTS
 62
     0
440
 16777216
100
AcDbPoint
 10
389.273900754526
 20
551.1734621207333
 30
0.0
  0
POINT
  5
2394C
330
2278C
100
AcDbEntity
  8
DEFPOINTS
 62
     0
440
 16777216
100
AcDbPoint
 10
389.273900754526
 20
515.0646124319833
 30
0.0
  0
ENDBLK
  5
2278E
330
2278C
100
AcDbEntity
  8
0
100
AcDbBlockEnd
  0
BLOCK
  5
2279A
330
22799
100
AcDbEntity
  8
0
100
AcDbBlockBegin
  2
*D22
 70
     1
 10
0.0
 20
0.0
 30
0.0
  3
*D22
  1

  0
LINE
  5
2394D
330
22799
100
AcDbEntity
  8
30
 62
     0
440
 16777216
370
    -2
100
AcDbLine
 10
375.1739007545261
 20
609.0646124319833
 30
0.0
 11
375.1739007545261
 21
617.2937721529947
 31
0.0
  0
LINE
  5
2394E
330
22799
100
AcDbEntity
  8
30
 62
     0
440
 16777216
370
    -2
100
AcDbLine
 10
390.5739007545262
 20
601.5646124319832
 30
0.0
 11
390.5739007545262
 21
617.2937721529947
 31
0.0
  0
LINE
  5
2394F
330
22799
100
AcDbEntity
  8
30
 62
     0
440
 16777216
370
    -2
100
AcDbLine
 10
377.1739007545261
 20
616.7937721529947
 30
0.0
 11
388.5739007545262
 21
616.7937721529947
 31
0.0
  0
INSERT
  5
23950
330
22799
100
AcDbEntity
  8
30
 62
     0
440
 16777216
370
    -2
100
AcDbBlockReference
  2
_OPEN
 10
375.1739007545261
 20
616.7937721529947
 30
0.0
 41
2.0
 42
2.0
 43
2.0
 50
180.0
  0
INSERT
  5
23951
330
22799
100
AcDbEntity
  8
30
 62
     0
440
 16777216
370
    -2
100
AcDbBlockReference
  2
_OPEN
 10
390.5739007545262
 20
616.7937721529947
 30
0.0
 41
2.0
 42
2.0
 43
2.0
  0
MTEXT
  5
23952
330
22799
100
AcDbEntity
  8
30
 62
     0
440
 16777216
100
AcDbMText
 10
382.8739007545261
 20
624.7937721529947
 30
0.0
 40
6.0
 41
0.0
 46
0.0
 71
     2
 72
     1
  1
\A1;15.4
 73
     1
 44
1.0
  0
POINT
  5
23953
330
22799
100
AcDbEntity
  8
DEFPOINTS
 62
     0
440
 16777216
100
AcDbPoint
 10
375.1739007545261
 20
606.0646124319832
 30
0.0
  0
POINT
  5
23954
330
22799
100
AcDbEntity
  8
DEFPOINTS
 62
     0
440
 16777216
100
AcDbPoint
 10
390.5739007545262
 20
598.5646124319834
 30
0.0
  0
POINT
  5
23955
330
22799
100
AcDbEntity
  8
DEFPOINTS
 62
     0
440
 16777216
100
AcDbPoint
 10
390.5739007545262
 20
616.7937721529947
 30
0.0
  0
ENDBLK
  5
2279B
330
22799
100
AcDbEntity
  8
0
100
AcDbBlockEnd
  0
BLOCK
  5
231A6
330
231A5
100
AcDbEntity
  8
0
100
AcDbBlockBegin
  2
*D23
 70
     1
 10
0.0
 20
0.0
 30
0.0
  3
*D23
  1

  0
LINE
  5
239C9
330
231A5
100
AcDbEntity
  8
30
 62
     0
440
 16777216
370
    -2
100
AcDbLine
 10
347.5172489765071
 20
350.4697145142363
 30
0.0
 11
347.5172489765071
 21
299.2925153141432
 31
0.0
  0
LINE
  5
239CA
330
231A5
100
AcDbEntity
  8
30
 62
     0
440
 16777216
370
    -2
100
AcDbLine
 10
279.517248976507
 20
366.4697145142363
 30
0.0
 11
279.517248976507
 21
299.2925153141432
 31
0.0
  0
LINE
  5
239CB
330
231A5
100
AcDbEntity
  8
30
 62
     0
440
 16777216
370
    -2
100
AcDbLine
 10
345.5172489765071
 20
299.7925153141432
 30
0.0
 11
281.517248976507
 21
299.7925153141432
 31
0.0
  0
INSERT
  5
239CC
330
231A5
100
AcDbEntity
  8
30
 62
     0
440
 16777216
370
    -2
100
AcDbBlockReference
  2
_OPEN
 10
347.5172489765071
 20
299.7925153141432
 30
0.0
 41
2.0
 42
2.0
 43
2.0
  0
INSERT
  5
239CD
330
231A5
100
AcDbEntity
  8
30
 62
     0
440
 16777216
370
    -2
100
AcDbBlockReference
  2
_OPEN
 10
279.517248976507
 20
299.7925153141432
 30
0.0
 41
2.0
 42
2.0
 43
2.0
 50
180.0
  0
MTEXT
  5
239CE
330
231A5
100
AcDbEntity
  8
30
 62
     0
440
 16777216
100
AcDbMText
 10
313.517248976507
 20
304.7925153141432
 30
0.0
 40
6.0
 41
0.0
 46
0.0
 71
     5
 72
     1
  1
\A1;68
 73
     1
 44
1.0
 90
        3
 63
     9
421
 13158600
 45
1.25
441
        0
  0
POINT
  5
239CF
330
231A5
100
AcDbEntity
  8
DEFPOINTS
 62
     0
440
 16777216
100
AcDbPoint
 10
347.5172489765071
 20
351.4697145142363
 30
0.0
  0
POINT
  5
239D0
330
231A5
100
AcDbEntity
  8
DEFPOINTS
 62
     0
440
 16777216
100
AcDbPoint
 10
279.517248976507
 20
367.4697145142364
 30
0.0
  0
POINT
  5
239D1
330
231A5
100
AcDbEntity
  8
DEFPOINTS
 62
     0
440
 16777216
100
AcDbPoint
 10
279.517248976507
 20
299.7925153141432
 30
0.0
  0
ENDBLK
  5
231A7
330
231A5
100
AcDbEntity
  8
0
100
AcDbBlockEnd
  0
BLOCK
  5
233B2
330
233B1
100
AcDbEntity
  8
0
 62
     1
100
AcDbBlockBegin
  2
*D24
 70
     1
 10
0.0
 20
0.0
 30
0.0
  3
*D24
  1

  0
LINE
  5
23A99
330
233B1
100
AcDbEntity
  8
30
 62
     0
440
 16777216
370
    -2
100
AcDbLine
 10
431.0556266181669
 20
185.4091971988616
 30
0.0
 11
485.1425054026972
 21
185.4091971988616
 31
0.0
  0
LINE
  5
23A9A
330
233B1
100
AcDbEntity
  8
30
 62
     0
440
 16777216
370
    -2
100
AcDbLine
 10
431.0556266181669
 20
137.4091971988616
 30
0.0
 11
485.1425054026972
 21
137.4091971988616
 31
0.0
  0
LINE
  5
23A9B
330
233B1
100
AcDbEntity
  8
30
 62
     0
440
 16777216
370
    -2
100
AcDbLine
 10
484.6425054026972
 20
183.4091971988616
 30
0.0
 11
484.6425054026972
 21
139.4091971988616
 31
0.0
  0
INSERT
  5
23A9C
330
233B1
100
AcDbEntity
  8
30
 62
     0
440
 16777216
370
    -2
100
AcDbBlockReference
  2
_OPEN
 10
484.6425054026972
 20
185.4091971988616
 30
0.0
 41
2.0
 42
2.0
 43
2.0
 50
90.0
  0
INSERT
  5
23A9D
330
233B1
100
AcDbEntity
  8
30
 62
     0
440
 16777216
370
    -2
100
AcDbBlockReference
  2
_OPEN
 10
484.6425054026972
 20
137.4091971988616
 30
0.0
 41
2.0
 42
2.0
 43
2.0
 50
270.0
  0
MTEXT
  5
23A9E
330
233B1
100
AcDbEntity
  8
30
 62
     0
440
 16777216
100
AcDbMText
 10
476.6425054026972
 20
160.8042690589687
 30
0.0
 40
6.0
 41
0.0
 46
0.0
 71
     2
 72
     1
  1
\A1;48
 11
0.0000000000000001
 21
1.0
 31
0.0
 73
     1
 44
1.0
 90
        3
 63
     9
421
 13158600
 45
1.25
441
        0
  0
POINT
  5
23A9F
330
233B1
100
AcDbEntity
  8
DEFPOINTS
 62
     0
440
 16777216
100
AcDbPoint
 10
430.0556266181668
 20
185.4091971988616
 30
0.0
  0
POINT
  5
23AA0
330
233B1
100
AcDbEntity
  8
DEFPOINTS
 62
     0
440
 16777216
100
AcDbPoint
 10
430.0556266181668
 20
137.4091971988616
 30
0.0
  0
POINT
  5
23AA1
330
233B1
100
AcDbEntity
  8
DEFPOINTS
 62
     0
440
 16777216
100
AcDbPoint
 10
484.6425054026972
 20
137.4091971988616
 30
0.0
  0
ENDBLK
  5
233B3
330
233B1
100
AcDbEntity
  8
0
 62
     1
100
AcDbBlockEnd
  0
BLOCK
  5
233C0
330
233BF
100
AcDbEntity
  8
0
 62
     1
100
AcDbBlockBegin
  2
*D25
 70
     1
 10
0.0
 20
0.0
 30
0.0
  3
*D25
  1

  0
LINE
  5
23AFA
330
233BF
100
AcDbEntity
  8
30
 62
     0
440
 16777216
370
    -2
100
AcDbLine
 10
431.0556266181669
 20
137.4091971988616
 30
0.0
 11
431.0556266181669
 21
46.88958801584471
 31
0.0
  0
LINE
  5
23AFB
330
233BF
100
AcDbEntity
  8
30
 62
     0
440
 16777216
370
    -2
100
AcDbLine
 10
407.0556266181669
 20
137.4091971988616
 30
0.0
 11
407.0556266181669
 21
46.88958801584471
 31
0.0
  0
LINE
  5
23AFC
330
233BF
100
AcDbEntity
  8
30
 62
     0
440
 16777216
370
    -2
100
AcDbLine
 10
429.055626618167
 20
47.38958801584471
 30
0.0
 11
409.0556266181669
 21
47.38958801584471
 31
0.0
  0
INSERT
  5
23AFD
330
233BF
100
AcDbEntity
  8
30
 62
     0
440
 16777216
370
    -2
100
AcDbBlockReference
  2
_OPEN
 10
431.0556266181669
 20
47.38958801584471
 30
0.0
 41
2.0
 42
2.0
 43
2.0
  0
INSERT
  5
23AFE
330
233BF
100
AcDbEntity
  8
30
 62
     0
440
 16777216
370
    -2
100
AcDbBlockReference
  2
_OPEN
 10
407.0556266181669
 20
47.38958801584471
 30
0.0
 41
2.0
 42
2.0
 43
2.0
 50
180.0
  0
MTEXT
  5
23AFF
330
233BF
100
AcDbEntity
  8
30
 62
     0
440
 16777216
100
AcDbMText
 10
419.0556266181669
 20
55.3895880158447
 30
0.0
 40
6.0
 41
0.0
 46
0.0
 71
     2
 72
     1
  1
\A1;24
 73
     1
 44
1.0
 90
        3
 63
     9
421
 13158600
 45
1.25
441
        0
  0
POINT
  5
23B00
330
233BF
100
AcDbEntity
  8
DEFPOINTS
 62
     0
440
 16777216
100
AcDbPoint
 10
431.0556266181669
 20
138.4091971988616
 30
0.0
  0
POINT
  5
23B01
330
233BF
100
AcDbEntity
  8
DEFPOINTS
 62
     0
440
 16777216
100
AcDbPoint
 10
407.0556266181669
 20
138.4091971988616
 30
0.0
  0
POINT
  5
23B02
330
233BF
100
AcDbEntity
  8
DEFPOINTS
 62
     0
440
 16777216
100
AcDbPoint
 10
407.0556266181669
 20
47.38958801584471
 30
0.0
  0
ENDBLK
  5
233C1
330
233BF
100
AcDbEntity
  8
0
 62
     1
100
AcDbBlockEnd
  0
BLOCK
  5
233CC
330
233CB
100
AcDbEntity
  8
0
 62
     1
100
AcDbBlockBegin
  2
*D26
 70
     1
 10
0.0
 20
0.0
 30
0.0
  3
*D26
  1

  0
LINE
  5
23A75
330
233CB
100
AcDbEntity
  8
30
 62
     0
440
 16777216
370
    -2
100
AcDbLine
 10
315.8425925338873
 20
135.4697145142366
 30
0.0
 11
315.8425925338873
 21
47.41013632123939
 31
0.0
  0
LINE
  5
23A76
330
233CB
100
AcDbEntity
  8
30
 62
     0
440
 16777216
370
    -2
100
AcDbLine
 10
229.8425925338874
 20
135.4697145142366
 30
0.0
 11
229.8425925338874
 21
47.41013632123939
 31
0.0
  0
LINE
  5
23A77
330
233CB
100
AcDbEntity
  8
30
 62
     0
440
 16777216
370
    -2
100
AcDbLine
 10
313.8425925338873
 20
47.91013632123941
 30
0.0
 11
231.8425925338874
 21
47.91013632123941
 31
0.0
  0
INSERT
  5
23A78
330
233CB
100
AcDbEntity
  8
30
 62
     0
440
 16777216
370
    -2
100
AcDbBlockReference
  2
_OPEN
 10
315.8425925338873
 20
47.91013632123941
 30
0.0
 41
2.0
 42
2.0
 43
2.0
  0
INSERT
  5
23A79
330
233CB
100
AcDbEntity
  8
30
 62
     0
440
 16777216
370
    -2
100
AcDbBlockReference
  2
_OPEN
 10
229.8425925338874
 20
47.91013632123941
 30
0.0
 41
2.0
 42
2.0
 43
2.0
 50
180.0
  0
MTEXT
  5
23A7A
330
233CB
100
AcDbEntity
  8
30
 62
     0
440
 16777216
100
AcDbMText
 10
273.8092632551428
 20
55.91013632123939
 30
0.0
 40
6.0
 41
0.0
 46
0.0
 71
     2
 72
     1
  1
\A1;86
 73
     1
 44
1.0
 90
        3
 63
     9
421
 13158600
 45
1.25
441
        0
  0
POINT
  5
23A7B
330
233CB
100
AcDbEntity
  8
DEFPOINTS
 62
     0
440
 16777216
100
AcDbPoint
 10
315.8425925338873
 20
136.4697145142366
 30
0.0
  0
POINT
  5
23A7C
330
233CB
100
AcDbEntity
  8
DEFPOINTS
 62
     0
440
 16777216
100
AcDbPoint
 10
229.8425925338874
 20
136.4697145142366
 30
0.0
  0
POINT
  5
23A7D
330
233CB
100
AcDbEntity
  8
DEFPOINTS
 62
     0
440
 16777216
100
AcDbPoint
 10
229.8425925338874
 20
47.91013632123941
 30
0.0
  0
ENDBLK
  5
233CD
330
233CB
100
AcDbEntity
  8
0
 62
     1
100
AcDbBlockEnd
  0
BLOCK
  5
233D8
330
233D7
100
AcDbEntity
  8
0
 62
     1
100
AcDbBlockBegin
  2
*D27
 70
     1
 10
0.0
 20
0.0
 30
0.0
  3
*D27
  1

  0
LINE
  5
23995
330
233D7
100
AcDbEntity
  8
30
 62
     0
440
 16777216
370
    -2
100
AcDbLine
 10
343.6957838293263
 20
199.3509072509992
 30
0.0
 11
333.6957838293264
 21
199.3509072509992
 31
0.0
  0
LINE
  5
23996
330
233D7
100
AcDbEntity
  8
30
 62
     0
440
 16777216
370
    -2
100
AcDbLine
 10
333.6957838293264
 20
199.3509072509992
 30
0.0
 11
317.3196379217416
 21
188.1621229006288
 31
0.0
  0
MTEXT
  5
23997
330
233D7
100
AcDbEntity
  8
30
 62
     0
440
 16777216
100
AcDbMText
 10
335.6957838293263
 20
207.3509072509992
 30
0.0
 40
6.0
 41
0.0
 46
0.0
 71
     1
 72
     1
  1
\A1;R1
 73
     1
 44
1.0
 90
        3
 63
     9
421
 13158600
 45
1.25
441
        0
  0
INSERT
  5
23998
330
233D7
100
AcDbEntity
  8
30
 62
     0
440
 16777216
370
    -2
100
AcDbBlockReference
  2
_OPEN
 10
315.6682743298223
 20
187.0338506430227
 30
0.0
 41
2.0
 42
2.0
 43
2.0
 50
214.3423240358328
  0
LINE
  5
23999
330
233D7
100
AcDbEntity
  8
30
 62
     0
440
 16777216
370
    -2
100
AcDbLine
 10
314.7525925338873
 20
186.4697145142365
 30
0.0
 11
314.9325925338873
 21
186.4697145142365
 31
0.0
  0
LINE
  5
2399A
330
233D7
100
AcDbEntity
  8
30
 62
     0
440
 16777216
370
    -2
100
AcDbLine
 10
314.8425925338873
 20
186.3797145142365
 30
0.0
 11
314.8425925338873
 21
186.5597145142364
 31
0.0
  0
POINT
  5
2399B
330
233D7
100
AcDbEntity
  8
DEFPOINTS
 62
     0
440
 16777216
100
AcDbPoint
 10
315.6682743298223
 20
187.0338506430227
 30
0.0
  0
POINT
  5
2399C
330
233D7
100
AcDbEntity
  8
DEFPOINTS
 62
     0
440
 16777216
100
AcDbPoint
 10
314.8425925338873
 20
186.4697145142365
 30
0.0
  0
ENDBLK
  5
233D9
330
233D7
100
AcDbEntity
  8
0
 62
     1
100
AcDbBlockEnd
  0
BLOCK
  5
23445
330
23444
100
AcDbEntity
  8
0
100
AcDbBlockBegin
  2
SW_CENTERMARKSYMBOL_5
 70
     0
 10
0.0
 20
0.0
 30
0.0
  3
SW_CENTERMARKSYMBOL_5
  1
SW_CENTERMARKSYMBOL_5
  0
LINE
  5
23446
330
23444
100
AcDbEntity
  8
240
 62
     0
100
AcDbLine
 10
0.0
 20
0.0
 30
0.0
 11
0.0
 21
2.5
 31
0.0
  0
LINE
  5
23447
330
23444
100
AcDbEntity
  8
240
 62
     0
100
AcDbLine
 10
0.0
 20
0.0
 30
0.0
 11
-2.5
 21
0.0
 31
0.0
  0
LINE
  5
23448
330
23444
100
AcDbEntity
  8
240
 62
     0
100
AcDbLine
 10
0.0
 20
0.0
 30
0.0
 11
0.0
 21
-2.5
 31
0.0
  0
LINE
  5
23449
330
23444
100
AcDbEntity
  8
240
 62
     0
100
AcDbLine
 10
0.0
 20
0.0
 30
0.0
 11
2.5
 21
0.0
 31
0.0
  0
LINE
  5
2344A
330
23444
100
AcDbEntity
  8
240
 62
     0
100
AcDbLine
 10
0.0
 20
2.5
 30
0.0
 11
0.0
 21
3.7
 31
0.0
  0
LINE
  5
2344B
330
23444
100
AcDbEntity
  8
240
 62
     0
100
AcDbLine
 10
-2.5
 20
0.0
 30
0.0
 11
-3.7
 21
0.0
 31
0.0
  0
LINE
  5
2344C
330
23444
100
AcDbEntity
  8
240
 62
     0
100
AcDbLine
 10
0.0
 20
-2.5
 30
0.0
 11
0.0
 21
-3.7
 31
0.0
  0
LINE
  5
2344D
330
23444
100
AcDbEntity
  8
240
 62
     0
100
AcDbLine
 10
2.5
 20
0.0
 30
0.0
 11
3.7
 21
0.0
 31
0.0
  0
ENDBLK
  5
2344E
330
23444
100
AcDbEntity
  8
0
100
AcDbBlockEnd
  0
BLOCK
  5
23450
330
2344F
100
AcDbEntity
  8
0
100
AcDbBlockBegin
  2
SW_CENTERMARKSYMBOL_6
 70
     0
 10
0.0
 20
0.0
 30
0.0
  3
SW_CENTERMARKSYMBOL_6
  1
SW_CENTERMARKSYMBOL_6
  0
LINE
  5
23451
330
2344F
100
AcDbEntity
  8
240
 62
     0
100
AcDbLine
 10
0.0
 20
0.0
 30
0.0
 11
0.0
 21
2.5
 31
0.0
  0
LINE
  5
23452
330
2344F
100
AcDbEntity
  8
240
 62
     0
100
AcDbLine
 10
0.0
 20
0.0
 30
0.0
 11
-2.5
 21
0.0
 31
0.0
  0
LINE
  5
23453
330
2344F
100
AcDbEntity
  8
240
 62
     0
100
AcDbLine
 10
0.0
 20
0.0
 30
0.0
 11
0.0
 21
-2.5
 31
0.0
  0
LINE
  5
23454
330
2344F
100
AcDbEntity
  8
240
 62
     0
100
AcDbLine
 10
0.0
 20
0.0
 30
0.0
 11
2.5
 21
0.0
 31
0.0
  0
LINE
  5
23455
330
2344F
100
AcDbEntity
  8
240
 62
     0
100
AcDbLine
 10
0.0
 20
2.5
 30
0.0
 11
0.0
 21
3.7
 31
0.0
  0
LINE
  5
23456
330
2344F
100
AcDbEntity
  8
240
 62
     0
100
AcDbLine
 10
-2.5
 20
0.0
 30
0.0
 11
-3.7
 21
0.0
 31
0.0
  0
LINE
  5
23457
330
2344F
100
AcDbEntity
  8
240
 62
     0
100
AcDbLine
 10
0.0
 20
-2.5
 30
0.0
 11
0.0
 21
-3.7
 31
0.0
  0
LINE
  5
23458
330
2344F
100
AcDbEntity
  8
240
 62
     0
100
AcDbLine
 10
2.5
 20
0.0
 30
0.0
 11
3.7
 21
0.0
 31
0.0
  0
ENDBLK
  5
23459
330
2344F
100
AcDbEntity
  8
0
100
AcDbBlockEnd
  0
BLOCK
  5
2358D
330
2358C
100
AcDbEntity
  8
0
 62
     1
100
AcDbBlockBegin
  2
*D30
 70
     1
 10
0.0
 20
0.0
 30
0.0
  3
*D30
  1

  0
LINE
  5
2395F
330
2358C
100
AcDbEntity
  8
30
 62
     0
440
 16777216
370
    -2
100
AcDbLine
 10
486.9936068249101
 20
493.3803504510631
 30
0.0
 11
509.7042387817118
 21
493.3803504510631
 31
0.0
  0
LINE
  5
23960
330
2358C
100
AcDbEntity
  8
30
 62
     0
440
 16777216
370
    -2
100
AcDbLine
 10
489.2436068249101
 20
481.3803504510627
 30
0.0
 11
509.7042387817118
 21
481.3803504510627
 31
0.0
  0
LINE
  5
23961
330
2358C
100
AcDbEntity
  8
30
 62
     0
440
 16777216
370
    -2
100
AcDbLine
 10
509.2042387817116
 20
491.3803504510632
 30
0.0
 11
509.2042387817116
 21
483.3803504510627
 31
0.0
  0
INSERT
  5
23962
330
2358C
100
AcDbEntity
  8
30
 62
     0
440
 16777216
370
    -2
100
AcDbBlockReference
  2
_OPEN
 10
509.2042387817116
 20
493.3803504510631
 30
0.0
 41
2.0
 42
2.0
 43
2.0
 50
90.0
  0
INSERT
  5
23963
330
2358C
100
AcDbEntity
  8
30
 62
     0
440
 16777216
370
    -2
100
AcDbBlockReference
  2
_OPEN
 10
509.2042387817116
 20
481.3803504510627
 30
0.0
 41
2.0
 42
2.0
 43
2.0
 50
270.0
  0
MTEXT
  5
23964
330
2358C
100
AcDbEntity
  8
30
 62
     0
440
 16777216
100
AcDbMText
 10
503.2042387817116
 20
487.380350451063
 30
0.0
 40
6.0
 41
0.0
 46
0.0
 71
     5
 72
     1
  1
\A1;12
 73
     1
 44
1.0
  0
POINT
  5
23965
330
2358C
100
AcDbEntity
  8
DEFPOINTS
 62
     0
440
 16777216
100
AcDbPoint
 10
483.9936068249101
 20
493.3803504510631
 30
0.0
  0
POINT
  5
23966
330
2358C
100
AcDbEntity
  8
DEFPOINTS
 62
     0
440
 16777216
100
AcDbPoint
 10
486.2436068249102
 20
481.3803504510627
 30
0.0
  0
POINT
  5
23967
330
2358C
100
AcDbEntity
  8
DEFPOINTS
 62
     0
440
 16777216
100
AcDbPoint
 10
509.2042387817116
 20
481.3803504510627
 30
0.0
  0
ENDBLK
  5
2358E
330
2358C
100
AcDbEntity
  8
0
 62
     1
100
AcDbBlockEnd
  0
BLOCK
  5
23599
330
23598
100
AcDbEntity
  8
0
 62
     1
100
AcDbBlockBegin
  2
*D31
 70
     1
 10
0.0
 20
0.0
 30
0.0
  3
*D31
  1

  0
LINE
  5
23968
330
23598
100
AcDbEntity
  8
30
 62
     0
440
 16777216
370
    -2
100
AcDbLine
 10
469.2436068249101
 20
478.3803504510627
 30
0.0
 11
469.2436068249101
 21
459.3445276485327
 31
0.0
  0
LINE
  5
23969
330
23598
100
AcDbEntity
  8
30
 62
     0
440
 16777216
370
    -2
100
AcDbLine
 10
486.2436068249102
 20
478.3803504510627
 30
0.0
 11
486.2436068249102
 21
459.3445276485327
 31
0.0
  0
LINE
  5
2396A
330
23598
100
AcDbEntity
  8
30
 62
     0
440
 16777216
370
    -2
100
AcDbLine
 10
471.2436068249099
 20
459.8445276485326
 30
0.0
 11
484.2436068249099
 21
459.8445276485326
 31
0.0
  0
INSERT
  5
2396B
330
23598
100
AcDbEntity
  8
30
 62
     0
440
 16777216
370
    -2
100
AcDbBlockReference
  2
_OPEN
 10
469.2436068249101
 20
459.8445276485326
 30
0.0
 41
2.0
 42
2.0
 43
2.0
 50
180.0
  0
INSERT
  5
2396C
330
23598
100
AcDbEntity
  8
30
 62
     0
440
 16777216
370
    -2
100
AcDbBlockReference
  2
_OPEN
 10
486.2436068249102
 20
459.8445276485326
 30
0.0
 41
2.0
 42
2.0
 43
2.0
  0
MTEXT
  5
2396D
330
23598
100
AcDbEntity
  8
30
 62
     0
440
 16777216
100
AcDbMText
 10
477.7436068249101
 20
464.8445276485325
 30
0.0
 40
6.0
 41
0.0
 46
0.0
 71
     5
 72
     1
  1
\A1;17
 73
     1
 44
1.0
  0
POINT
  5
2396E
330
23598
100
AcDbEntity
  8
DEFPOINTS
 62
     0
440
 16777216
100
AcDbPoint
 10
469.2436068249101
 20
481.3803504510627
 30
0.0
  0
POINT
  5
2396F
330
23598
100
AcDbEntity
  8
DEFPOINTS
 62
     0
440
 16777216
100
AcDbPoint
 10
486.2436068249102
 20
481.3803504510627
 30
0.0
  0
POINT
  5
23970
330
23598
100
AcDbEntity
  8
DEFPOINTS
 62
     0
440
 16777216
100
AcDbPoint
 10
486.2436068249102
 20
459.8445276485326
 30
0.0
  0
ENDBLK
  5
2359A
330
23598
100
AcDbEntity
  8
0
 62
     1
100
AcDbBlockEnd
  0
BLOCK
  5
2366F
330
2366E
100
AcDbEntity
  8
0
 62
     1
100
AcDbBlockBegin
  2
*D32
 70
     1
 10
0.0
 20
0.0
 30
0.0
  3
*D32
  1

  0
LINE
  5
23A1B
330
2366E
100
AcDbEntity
  8
30
 62
     0
440
 16777216
370
    -2
100
AcDbLine
 10
316.8425925338874
 20
187.4697145142366
 30
0.0
 11
338.3482124358983
 21
187.4697145142365
 31
0.0
  0
LINE
  5
23A1C
330
2366E
100
AcDbEntity
  8
30
 62
     0
440
 16777216
370
    -2
100
AcDbLine
 10
315.8425925338873
 20
135.4697145142366
 30
0.0
 11
338.3482124358983
 21
135.4697145142366
 31
0.0
  0
LINE
  5
23A1D
330
2366E
100
AcDbEntity
  8
30
 62
     0
440
 16777216
370
    -2
100
AcDbLine
 10
337.8482124358983
 20
185.4697145142365
 30
0.0
 11
337.8482124358983
 21
137.4697145142366
 31
0.0
  0
INSERT
  5
23A1E
330
2366E
100
AcDbEntity
  8
30
 62
     0
440
 16777216
370
    -2
100
AcDbBlockReference
  2
_OPEN
 10
337.8482124358983
 20
187.4697145142365
 30
0.0
 41
2.0
 42
2.0
 43
2.0
 50
90.0
  0
INSERT
  5
23A1F
330
2366E
100
AcDbEntity
  8
30
 62
     0
440
 16777216
370
    -2
100
AcDbBlockReference
  2
_OPEN
 10
337.8482124358983
 20
135.4697145142366
 30
0.0
 41
2.0
 42
2.0
 43
2.0
 50
270.0
  0
MTEXT
  5
23A20
330
2366E
100
AcDbEntity
  8
30
 62
     0
440
 16777216
100
AcDbMText
 10
332.8482124358984
 20
161.4697145142366
 30
0.0
 40
6.0
 41
0.0
 46
0.0
 71
     5
 72
     1
  1
\A1;52
 11
0.0000000000000001
 21
1.0
 31
0.0
 73
     1
 44
1.0
 90
        3
 63
     9
421
 13158600
 45
1.25
441
        0
  0
POINT
  5
23A21
330
2366E
100
AcDbEntity
  8
DEFPOINTS
 62
     0
440
 16777216
100
AcDbPoint
 10
315.8425925338873
 20
187.4697145142366
 30
0.0
  0
POINT
  5
23A22
330
2366E
100
AcDbEntity
  8
DEFPOINTS
 62
     0
440
 16777216
100
AcDbPoint
 10
314.8425925338873
 20
135.4697145142366
 30
0.0
  0
POINT
  5
23A23
330
2366E
100
AcDbEntity
  8
DEFPOINTS
 62
     0
440
 16777216
100
AcDbPoint
 10
337.8482124358983
 20
135.4697145142366
 30
0.0
  0
ENDBLK
  5
23670
330
2366E
100
AcDbEntity
  8
0
 62
     1
100
AcDbBlockEnd
  0
BLOCK
  5
2385C
330
2385B
100
AcDbEntity
  8
0
 62
     1
100
AcDbBlockBegin
  2
*D33
 70
     1
 10
0.0
 20
0.0
 30
0.0
  3
*D33
  1

  0
LINE
  5
2399D
330
2385B
100
AcDbEntity
  8
30
 62
     0
440
 16777216
370
    -2
100
AcDbLine
 10
458.9988179136039
 20
197.2903899356244
 30
0.0
 11
448.9988179136038
 21
197.2903899356245
 31
0.0
  0
LINE
  5
2399E
330
2385B
100
AcDbEntity
  8
30
 62
     0
440
 16777216
370
    -2
100
AcDbLine
 10
448.9988179136038
 20
197.2903899356245
 30
0.0
 11
432.6226720060211
 21
186.1016055852541
 31
0.0
  0
MTEXT
  5
2399F
330
2385B
100
AcDbEntity
  8
30
 62
     0
440
 16777216
100
AcDbMText
 10
450.9988179136039
 20
205.2903899356244
 30
0.0
 40
6.0
 41
0.0
 46
0.0
 71
     1
 72
     1
  1
\A1;R1
 73
     1
 44
1.0
 90
        3
 63
     9
421
 13158600
 45
1.25
441
        0
  0
INSERT
  5
239A0
330
2385B
100
AcDbEntity
  8
30
 62
     0
440
 16777216
370
    -2
100
AcDbBlockReference
  2
_OPEN
 10
430.9713084141018
 20
184.9733333276479
 30
0.0
 41
2.0
 42
2.0
 43
2.0
 50
214.342324035836
  0
LINE
  5
239A1
330
2385B
100
AcDbEntity
  8
30
 62
     0
440
 16777216
370
    -2
100
AcDbLine
 10
430.0556266181668
 20
184.4091971988617
 30
0.0
 11
430.2356266181668
 21
184.4091971988617
 31
0.0
  0
LINE
  5
239A2
330
2385B
100
AcDbEntity
  8
30
 62
     0
440
 16777216
370
    -2
100
AcDbLine
 10
430.1456266181668
 20
184.3191971988616
 30
0.0
 11
430.1456266181668
 21
184.4991971988615
 31
0.0
  0
POINT
  5
239A3
330
2385B
100
AcDbEntity
  8
DEFPOINTS
 62
     0
440
 16777216
100
AcDbPoint
 10
430.9713084141018
 20
184.9733333276479
 30
0.0
  0
POINT
  5
239A4
330
2385B
100
AcDbEntity
  8
DEFPOINTS
 62
     0
440
 16777216
100
AcDbPoint
 10
430.1456266181668
 20
184.4091971988617
 30
0.0
  0
ENDBLK
  5
2385D
330
2385B
100
AcDbEntity
  8
0
 62
     1
100
AcDbBlockEnd
  0
BLOCK
  5
23AD0
330
23ACF
100
AcDbEntity
  8
0
 62
     1
100
AcDbBlockBegin
  2
*D34
 70
     1
 10
0.0
 20
0.0
 30
0.0
  3
*D34
  1

  0
LINE
  5
23AF1
330
23ACF
100
AcDbEntity
  8
30
 62
     0
440
 16777216
370
    -2
100
AcDbLine
 10
52.97568625254587
 20
390.5615731870176
 30
0.0
 11
52.97568625254587
 21
372.5616320322751
 31
0.0
  0
LINE
  5
23AF2
330
23ACF
100
AcDbEntity
  8
30
 62
     0
440
 16777216
370
    -2
100
AcDbLine
 10
136.9805247636424
 20
390.5615731870176
 30
0.0
 11
136.9805247636424
 21
372.5616320322751
 31
0.0
  0
LINE
  5
23AF3
330
23ACF
100
AcDbEntity
  8
30
 62
     0
440
 16777216
370
    -2
100
AcDbLine
 10
54.97568625254587
 20
373.0616320322752
 30
0.0
 11
134.9805247636424
 21
373.0616320322752
 31
0.0
  0
INSERT
  5
23AF4
330
23ACF
100
AcDbEntity
  8
30
 62
     0
440
 16777216
370
    -2
100
AcDbBlockReference
  2
_OPEN
 10
52.97568625254587
 20
373.0616320322752
 30
0.0
 41
2.0
 42
2.0
 43
2.0
 50
180.0
  0
INSERT
  5
23AF5
330
23ACF
100
AcDbEntity
  8
30
 62
     0
440
 16777216
370
    -2
100
AcDbBlockReference
  2
_OPEN
 10
136.9805247636424
 20
373.0616320322752
 30
0.0
 41
2.0
 42
2.0
 43
2.0
  0
MTEXT
  5
23AF6
330
23ACF
100
AcDbEntity
  8
30
 62
     0
440
 16777216
100
AcDbMText
 10
94.97810550809411
 20
378.0616320322752
 30
0.0
 40
6.0
 41
0.0
 46
0.0
 71
     5
 72
     1
  1
\A1;84
 73
     1
 44
1.0
 90
        3
 63
     9
421
 13158600
 45
1.25
441
        0
  0
POINT
  5
23AF7
330
23ACF
100
AcDbEntity
  8
DEFPOINTS
 62
     0
440
 16777216
100
AcDbPoint
 10
52.97568625254587
 20
391.5615731870176
 30
0.0
  0
POINT
  5
23AF8
330
23ACF
100
AcDbEntity
  8
DEFPOINTS
 62
     0
440
 16777216
100
AcDbPoint
 10
136.9805247636424
 20
391.5615731870176
 30
0.0
  0
POINT
  5
23AF9
330
23ACF
100
AcDbEntity
  8
DEFPOINTS
 62
     0
440
 16777216
100
AcDbPoint
 10
136.9805247636424
 20
373.0616320322752
 30
0.0
  0
ENDBLK
  5
23AD1
330
23ACF
100
AcDbEntity
  8
0
 62
     1
100
AcDbBlockEnd
  0
BLOCK
  5
23ADD
330
23ADC
100
AcDbEntity
  8
0
 62
     1
100
AcDbBlockBegin
  2
*D35
 70
     1
 10
0.0
 20
0.0
 30
0.0
  3
*D35
  1

  0
LINE
  5
23AE8
330
23ADC
100
AcDbEntity
  8
30
 62
     0
440
 16777216
370
    -2
100
AcDbLine
 10
84.01885800238016
 20
439.5739337521836
 30
0.0
 11
84.01885800238016
 21
451.683897782972
 31
0.0
  0
LINE
  5
23AE9
330
23ADC
100
AcDbEntity
  8
30
 62
     0
440
 16777216
370
    -2
100
AcDbLine
 10
106.0651543214931
 20
439.5739337521836
 30
0.0
 11
106.0651543214931
 21
451.683897782972
 31
0.0
  0
LINE
  5
23AEA
330
23ADC
100
AcDbEntity
  8
30
 62
     0
440
 16777216
370
    -2
100
AcDbLine
 10
86.01885800238015
 20
451.183897782972
 30
0.0
 11
104.0651543214931
 21
451.183897782972
 31
0.0
  0
INSERT
  5
23AEB
330
23ADC
100
AcDbEntity
  8
30
 62
     0
440
 16777216
370
    -2
100
AcDbBlockReference
  2
_OPEN
 10
84.01885800238016
 20
451.183897782972
 30
0.0
 41
2.0
 42
2.0
 43
2.0
 50
180.0
  0
INSERT
  5
23AEC
330
23ADC
100
AcDbEntity
  8
30
 62
     0
440
 16777216
370
    -2
100
AcDbBlockReference
  2
_OPEN
 10
106.0651543214931
 20
451.183897782972
 30
0.0
 41
2.0
 42
2.0
 43
2.0
  0
MTEXT
  5
23AED
330
23ADC
100
AcDbEntity
  8
30
 62
     0
440
 16777216
100
AcDbMText
 10
95.04200616193662
 20
456.1838977829721
 30
0.0
 40
6.0
 41
0.0
 46
0.0
 71
     5
 72
     1
  1
\A1;22
 73
     1
 44
1.0
 90
        3
 63
     9
421
 13158600
 45
1.25
441
        0
  0
POINT
  5
23AEE
330
23ADC
100
AcDbEntity
  8
DEFPOINTS
 62
     0
440
 16777216
100
AcDbPoint
 10
84.01885800238016
 20
438.5739337521835
 30
0.0
  0
POINT
  5
23AEF
330
23ADC
100
AcDbEntity
  8
DEFPOINTS
 62
     0
440
 16777216
100
AcDbPoint
 10
106.0651543214931
 20
438.5739337521835
 30
0.0
  0
POINT
  5
23AF0
330
23ADC
100
AcDbEntity
  8
DEFPOINTS
 62
     0
440
 16777216
100
AcDbPoint
 10
106.0651543214931
 20
451.183897782972
 30
0.0
  0
ENDBLK
  5
23ADE
330
23ADC
100
AcDbEntity
  8
0
 62
     1
100
AcDbBlockEnd
  0
BLOCK
  5
23B36
330
23B35
100
AcDbEntity
  8
0
 62
     1
100
AcDbBlockBegin
  2
*D36
 70
     1
 10
0.0
 20
0.0
 30
0.0
  3
*D36
  1

  0
LINE
  5
23B65
330
23B35
100
AcDbEntity
  8
30
 62
     0
440
 16777216
370
    -2
100
AcDbLine
 10
370.5172489765071
 20
374.0608530076364
 30
0.0
 11
370.5172489765071
 21
299.2925153141432
 31
0.0
  0
LINE
  5
23B66
330
23B35
100
AcDbEntity
  8
30
 62
     0
440
 16777216
370
    -2
100
AcDbLine
 10
279.517248976507
 20
366.4697145142364
 30
0.0
 11
279.517248976507
 21
299.2925153141432
 31
0.0
  0
LINE
  5
23B67
330
23B35
100
AcDbEntity
  8
30
 62
     0
440
 16777216
370
    -2
100
AcDbLine
 10
368.5172489765071
 20
299.7925153141432
 30
0.0
 11
281.517248976507
 21
299.7925153141432
 31
0.0
  0
INSERT
  5
23B68
330
23B35
100
AcDbEntity
  8
30
 62
     0
440
 16777216
370
    -2
100
AcDbBlockReference
  2
_OPEN
 10
370.5172489765071
 20
299.7925153141432
 30
0.0
 41
2.0
 42
2.0
 43
2.0
  0
INSERT
  5
23B69
330
23B35
100
AcDbEntity
  8
30
 62
     0
440
 16777216
370
    -2
100
AcDbBlockReference
  2
_OPEN
 10
279.517248976507
 20
299.7925153141432
 30
0.0
 41
2.0
 42
2.0
 43
2.0
 50
180.0
  0
MTEXT
  5
23B6A
330
23B35
100
AcDbEntity
  8
30
 62
     0
440
 16777216
100
AcDbMText
 10
325.0172489765071
 20
304.7925153141432
 30
0.0
 40
6.0
 41
0.0
 46
0.0
 71
     5
 72
     1
  1
\A1;91
 73
     1
 44
1.0
 90
        3
 63
     9
421
 13158600
 45
1.25
441
        0
  0
POINT
  5
23B6B
330
23B35
100
AcDbEntity
  8
DEFPOINTS
 62
     0
440
 16777216
100
AcDbPoint
 10
370.5172489765071
 20
375.0608530076363
 30
0.0
  0
POINT
  5
23B6C
330
23B35
100
AcDbEntity
  8
DEFPOINTS
 62
     0
440
 16777216
100
AcDbPoint
 10
279.517248976507
 20
367.4697145142364
 30
0.0
  0
POINT
  5
23B6D
330
23B35
100
AcDbEntity
  8
DEFPOINTS
 62
     0
440
 16777216
100
AcDbPoint
 10
279.517248976507
 20
299.7925153141432
 30
0.0
  0
ENDBLK
  5
23B37
330
23B35
100
AcDbEntity
  8
0
 62
     1
100
AcDbBlockEnd
  0
BLOCK
  5
23B8A
330
23B89
100
AcDbEntity
  8
0
 62
     1
100
AcDbBlockBegin
  2
*D37
 70
     1
 10
0.0
 20
0.0
 30
0.0
  3
*D37
  1

  0
LINE
  5
23BB0
330
23B89
100
AcDbEntity
  8
30
 62
     0
440
 16777216
370
    -2
100
AcDbLine
 10
370.5172489765071
 20
374.0608530076364
 30
0.0
 11
370.5172489765071
 21
286.0776949797173
 31
0.0
  0
LINE
  5
23BB1
330
23B89
100
AcDbEntity
  8
30
 62
     0
440
 16777216
370
    -2
100
AcDbLine
 10
275.517255771507
 20
390.6395352252363
 30
0.0
 11
275.517255771507
 21
286.0776949797173
 31
0.0
  0
LINE
  5
23BB2
330
23B89
100
AcDbEntity
  8
30
 62
     0
440
 16777216
370
    -2
100
AcDbLine
 10
368.5172489765071
 20
286.5776949797173
 30
0.0
 11
277.517255771507
 21
286.5776949797173
 31
0.0
  0
INSERT
  5
23BB3
330
23B89
100
AcDbEntity
  8
30
 62
     0
440
 16777216
370
    -2
100
AcDbBlockReference
  2
_OPEN
 10
370.5172489765071
 20
286.5776949797173
 30
0.0
 41
2.0
 42
2.0
 43
2.0
  0
INSERT
  5
23BB4
330
23B89
100
AcDbEntity
  8
30
 62
     0
440
 16777216
370
    -2
100
AcDbBlockReference
  2
_OPEN
 10
275.517255771507
 20
286.5776949797173
 30
0.0
 41
2.0
 42
2.0
 43
2.0
 50
180.0
  0
MTEXT
  5
23BB5
330
23B89
100
AcDbEntity
  8
30
 62
     0
440
 16777216
100
AcDbMText
 10
323.017252374007
 20
291.5776949797173
 30
0.0
 40
6.0
 41
0.0
 46
0.0
 71
     5
 72
     1
  1
\A1;95
 73
     1
 44
1.0
 90
        3
 63
     9
421
 13158600
 45
1.25
441
        0
  0
POINT
  5
23BB6
330
23B89
100
AcDbEntity
  8
DEFPOINTS
 62
     0
440
 16777216
100
AcDbPoint
 10
370.5172489765071
 20
375.0608530076363
 30
0.0
  0
POINT
  5
23BB7
330
23B89
100
AcDbEntity
  8
DEFPOINTS
 62
     0
440
 16777216
100
AcDbPoint
 10
275.517255771507
 20
391.6395352252363
 30
0.0
  0
POINT
  5
23BB8
330
23B89
100
AcDbEntity
  8
DEFPOINTS
 62
     0
440
 16777216
100
AcDbPoint
 10
275.517255771507
 20
286.5776949797173
 30
0.0
  0
ENDBLK
  5
23B8B
330
23B89
100
AcDbEntity
  8
0
 62
     1
100
AcDbBlockEnd
  0
BLOCK
  5
23BBB
330
23BBA
100
AcDbEntity
  8
0
100
AcDbBlockBegin
  2
*D38
 70
     1
 10
0.0
 20
0.0
 30
0.0
  3
*D38
  1

  0
LINE
  5
23BD9
330
23BBA
100
AcDbEntity
  8
30
 62
     0
440
 16777216
370
    -2
100
AcDbLine
 10
370.5172489765071
 20
374.0608530076364
 30
0.0
 11
370.5172489765071
 21
267.9259397068586
 31
0.0
  0
LINE
  5
23BDA
330
23BBA
100
AcDbEntity
  8
30
 62
     0
440
 16777216
370
    -2
100
AcDbLine
 10
252.0172489765071
 20
412.4697145142386
 30
0.0
 11
252.0172489765071
 21
267.9259397068586
 31
0.0
  0
LINE
  5
23BDB
330
23BBA
100
AcDbEntity
  8
30
 62
     0
440
 16777216
370
    -2
100
AcDbLine
 10
368.5172489765071
 20
268.4259397068586
 30
0.0
 11
254.0172489765071
 21
268.4259397068586
 31
0.0
  0
INSERT
  5
23BDC
330
23BBA
100
AcDbEntity
  8
30
 62
     0
440
 16777216
370
    -2
100
AcDbBlockReference
  2
_OPEN
 10
370.5172489765071
 20
268.4259397068586
 30
0.0
 41
2.0
 42
2.0
 43
2.0
  0
INSERT
  5
23BDD
330
23BBA
100
AcDbEntity
  8
30
 62
     0
440
 16777216
370
    -2
100
AcDbBlockReference
  2
_OPEN
 10
252.0172489765071
 20
268.4259397068586
 30
0.0
 41
2.0
 42
2.0
 43
2.0
 50
180.0
  0
MTEXT
  5
23BDE
330
23BBA
100
AcDbEntity
  8
30
 62
     0
440
 16777216
100
AcDbMText
 10
311.2672489765071
 20
273.4259397068586
 30
0.0
 40
6.0
 41
0.0
 46
0.0
 71
     5
 72
     1
  1
\A1;118.5
 73
     1
 44
1.0
 90
        3
 63
     9
421
 13158600
 45
1.25
441
        0
  0
POINT
  5
23BDF
330
23BBA
100
AcDbEntity
  8
DEFPOINTS
 62
     0
440
 16777216
100
AcDbPoint
 10
370.5172489765071
 20
375.0608530076363
 30
0.0
  0
POINT
  5
23BE0
330
23BBA
100
AcDbEntity
  8
DEFPOINTS
 62
     0
440
 16777216
100
AcDbPoint
 10
252.0172489765071
 20
413.4697145142387
 30
0.0
  0
POINT
  5
23BE1
330
23BBA
100
AcDbEntity
  8
DEFPOINTS
 62
     0
440
 16777216
100
AcDbPoint
 10
252.0172489765071
 20
268.4259397068586
 30
0.0
  0
ENDBLK
  5
23BBC
330
23BBA
100
AcDbEntity
  8
0
100
AcDbBlockEnd
  0
ENDSEC
  0
SECTION
  2
ENTITIES
  0
MTEXT
  5
A94C
330
1E
100
AcDbEntity
  8
19
  6
Continuous
 62
     7
100
AcDbMText
 10
324.7260766999847
 20
641.5847725280728
 30
0.0
 40
8.0
 41
0.0
 46
0.0
 71
     7
 72
     5
  1
PS125-NF 3P PMC\PPS50-PF 3P PMC\PPS125-PF 3P PMC\PPS125-NE 3P PMC\PPS125-PE 3P PMC
  7
blockfont
 73
     1
 44
1.0
  0
LINE
  5
152AE
330
1E
100
AcDbEntity
  8
16
100
AcDbLine
 10
95.04187167922777
 20
260.6084951183921
 30
0.0
 11
95.04187167922777
 21
60.96971451423701
 31
0.0
  0
LINE
  5
152AF
330
1E
100
AcDbEntity
  8
16
100
AcDbLine
 10
37.54187167922788
 20
161.4697145142366
 30
0.0
 11
152.5418716792276
 21
161.4697145142366
 31
0.0
  0
LINE
  5
1C3D3
330
1E
100
AcDbEntity
  8
130
100
AcDbLine
 10
279.517248976507
 20
380.3243440604863
 30
0.0
 11
279.517248976507
 21
465.4519547737363
 31
0.0
  0
LINE
  5
1C3D5
330
1E
100
AcDbEntity
  8
130
100
AcDbLine
 10
275.517255771507
 20
441.3998936332363
 30
0.0
 11
275.517255771507
 21
391.6395352252363
 31
0.0
  0
LINE
  5
1C457
330
1E
100
AcDbEntity
  8
130
100
AcDbLine
 10
270.2145285490071
 20
438.8073355919863
 30
0.0
 11
275.517255771507
 21
438.8998941547363
 31
0.0
  0
SPLINE
  5
1C45C
330
1E
100
AcDbEntity
  8
130
100
AcDbSpline
210
0.0
220
0.0
230
1.0
 70
     8
 71
     3
 72
    11
 73
     7
 74
     0
 42
0.000000001
 43
0.0000000001
 40
0.0
 40
0.0
 40
0.0
 40
0.0
 40
0.2500057960785421
 40
0.5000069977228378
 40
0.750000840406983
 40
1.0
 40
1.0
 40
1.0
 40
1.0
 10
270.2145285489789
 20
394.1320934362478
 30
0.0
 10
270.1652430087799
 20
394.1382800817428
 30
0.0
 10
270.066672834117
 20
394.1506532590391
 30
0.0
 10
269.9409908025711
 20
394.2354021594397
 30
0.0
 10
269.8493631909122
 20
394.3561591594884
 30
0.0
 10
269.8315099976521
 20
394.4538826532888
 30
0.0
 10
269.8225833060971
 20
394.5027449197837
 30
0.0
  0
SPLINE
  5
1C45E
330
1E
100
AcDbEntity
  8
130
100
AcDbSpline
210
0.0
220
0.0
230
1.0
 70
     8
 71
     3
 72
    11
 73
     7
 74
     0
 42
0.000000001
 43
0.0000000001
 40
0.0
 40
0.0
 40
0.0
 40
0.0
 40
0.2499991595930171
 40
0.4999930022771621
 40
0.7499942039214579
 40
1.0
 40
1.0
 40
1.0
 40
1.0
 10
269.8225833060971
 20
438.4366841085023
 30
0.0
 10
269.8315099976521
 20
438.4855463749967
 30
0.0
 10
269.849363190912
 20
438.5832698687975
 30
0.0
 10
269.9409908025711
 20
438.7040268688457
 30
0.0
 10
270.066672834117
 20
438.7887757692467
 30
0.0
 10
270.1652430087799
 20
438.8011489465426
 30
0.0
 10
270.2145285489789
 20
438.8073355920376
 30
0.0
  0
SPLINE
  5
1C45F
330
1E
100
AcDbEntity
  8
130
100
AcDbSpline
210
0.0
220
0.0
230
1.0
 70
     8
 71
     3
 72
    10
 73
     6
 74
     0
 42
0.000000001
 43
0.0000000001
 40
0.0302924631225461
 40
0.0302924631225461
 40
0.0302924631225461
 40
0.0302924631225461
 40
0.3332883909884352
 40
0.6666216714159856
 40
1.0
 40
1.0
 40
1.0
 40
1.0
 10
269.8225833060971
 20
394.5027449197837
 30
0.0
 10
269.2344435333831
 20
405.6580568296046
 30
0.0
 10
268.932547081264
 20
413.6613569578353
 30
0.0
 10
269.0589290358088
 20
425.8720900682641
 30
0.0
 10
269.5680204166265
 20
434.2482974414572
 30
0.0
 10
269.8225833060971
 20
438.4366841085023
 30
0.0
  0
LINE
  5
1C51A
330
1E
100
AcDbEntity
  8
10
  6
SLD-実線
 62
     7
370
    30
100
AcDbLine
 10
348.0172526957571
 20
458.4723402774861
 30
0.0
 11
348.0172526957571
 21
500.4543726362363
 31
0.0
  0
LINE
  5
1C527
330
1E
100
AcDbEntity
  8
10
  6
SLD-実線
 62
     7
370
    30
100
AcDbLine
 10
352.233321178257
 20
506.4697180904864
 30
0.0
 11
390.0235637012569
 21
506.4697180904864
 31
0.0
  0
LINE
  5
1C53B
330
1E
100
AcDbEntity
  8
10
  6
SLD-実線
 62
     7
370
    30
100
AcDbLine
 10
402.0036093475066
 20
326.4697109379863
 30
0.0
 11
401.032567727757
 21
326.4697109379863
 31
0.0
  0
ELLIPSE
  5
1C53C
330
1E
100
AcDbEntity
  8
10
  6
SLD-実線
 62
     7
370
    30
100
AcDbEllipse
 10
401.0325684960068
 20
326.9697145142363
 30
0.0
 11
0.0
 21
0.5000000000000428
 31
0.0
210
0.0
220
0.0
230
1.0
 40
0.0104723583
 41
3.141592653589781
 42
3.152064629115631
  0
LINE
  5
1C53D
330
1E
100
AcDbEntity
  8
10
  6
SLD-実線
 62
     7
370
    30
100
AcDbLine
 10
348.0172526957571
 20
332.4850563919864
 30
0.0
 11
348.0172526957571
 21
374.4670887507361
 31
0.0
  0
LINE
  5
1C540
330
1E
100
AcDbEntity
  8
10
  6
SLD-実線
 62
     7
370
    30
100
AcDbLine
 10
402.0224630417569
 20
326.4697109379863
 30
0.0
 11
402.0036093475066
 21
326.4697109379863
 31
0.0
  0
LINE
  5
1C541
330
1E
100
AcDbEntity
  8
10
  6
SLD-実線
 62
     7
370
    30
100
AcDbLine
 10
401.032567727757
 20
326.4697109379863
 30
0.0
 11
401.0235637012566
 21
326.4697109379863
 31
0.0
  0
LINE
  5
1C542
330
1E
100
AcDbEntity
  8
10
  6
SLD-実線
 62
     7
370
    30
100
AcDbLine
 10
348.0172526957571
 20
332.4645076907363
 30
0.0
 11
348.0172526957571
 21
332.4850563919864
 31
0.0
  0
LINE
  5
1C555
330
1E
100
AcDbEntity
  8
10
  6
SLD-実線
 62
     7
370
    30
100
AcDbLine
 10
352.233321178257
 20
326.4697109379863
 30
0.0
 11
352.216993230757
 21
326.4697109379863
 31
0.0
  0
LINE
  5
1C556
330
1E
100
AcDbEntity
  8
10
  6
SLD-実線
 62
     7
370
    30
100
AcDbLine
 10
405.512043047257
 20
326.4697109379863
 30
0.0
 11
402.0224630417569
 21
326.4697109379863
 31
0.0
  0
LINE
  5
1C55A
330
1E
100
AcDbEntity
  8
10
100
AcDbLine
 10
348.0172526957571
 20
326.9697119512364
 30
0.0
 11
348.0172526957571
 21
332.4645076907363
 31
0.0
  0
SPLINE
  5
1C5C5
330
1E
100
AcDbEntity
  8
130
100
AcDbSpline
210
0.0
220
0.0
230
1.0
 70
     8
 71
     3
 72
     9
 73
     5
 74
     0
 42
0.000000001
 43
0.0000000001
 40
0.0
 40
0.0
 40
0.0
 40
0.0
 40
0.5330530616145511
 40
0.9933312084537327
 40
0.9933312084537327
 40
0.9933312084537327
 40
0.9933312084537327
 10
255.1882682562559
 20
425.2938856893599
 30
0.0
 10
259.8142928960071
 20
424.4448513752362
 30
0.0
 10
264.8899958800756
 20
423.9036908876401
 30
0.0
 10
267.7550367017739
 20
423.1936927241928
 30
0.0
 10
269.0758268356436
 20
422.8641843876231
 30
0.0
  0
ARC
  5
1C5C6
330
1E
100
AcDbEntity
  8
130
100
AcDbCircle
 10
301.651693694991
 20
571.5563799343064
 30
0.0
 40
146.147254677102
100
AcDbArc
 50
252.1140913918017
 51
257.2204015267029
  0
ARC
  5
1C5CB
330
1E
100
AcDbEntity
  8
130
100
AcDbCircle
 10
256.269193136507
 20
430.5352606129862
 30
0.0
 40
1.999999999999706
100
AcDbArc
 50
75.60000000000345
 51
167.5999999999014
  0
ARC
  5
1C5CC
330
1E
100
AcDbEntity
  8
130
100
AcDbCircle
 10
255.5493065467571
 20
427.2610286309863
 30
0.0
 40
1.999999999999629
100
AcDbArc
 50
167.5999999999014
 51
259.5999999999961
  0
LINE
  5
1C5CD
330
1E
100
AcDbEntity
  8
130
100
AcDbLine
 10
253.5959638240069
 20
427.6904993719861
 30
0.0
 11
254.3158463720071
 21
430.9647315212361
 31
0.0
  0
ARC
  5
1C5F4
330
1E
100
AcDbEntity
  8
30
100
AcDbCircle
 10
345.0919057138603
 20
410.0729776181465
 30
0.0
 40
93.13661765555695
100
AcDbArc
 50
167.6524521723358
 51
177.9099320698273
  0
DIMENSION
  5
1C606
330
1E
100
AcDbEntity
  8
30
100
AcDbDimension
280
     0
  2
*D5
 10
431.4422056474525
 20
326.4697145142363
 30
0.0
 11
431.4422056474525
 21
416.4781387800012
 31
0.0
 70
   160
  1
<>
 71
     2
 42
180.0
 73
     0
 74
     0
 75
     0
  3
STANDARD
100
AcDbAlignedDimension
 13
395.017252672007
 23
506.4697145142361
 33
0.0
 14
395.017252672007
 24
326.4697145142363
 34
0.0
 50
90.0
100
AcDbRotatedDimension
  0
LINE
  5
1C60E
330
1E
100
AcDbEntity
  8
16
100
AcDbLine
 10
385.27679188518
 20
416.4697145142362
 30
0.0
 11
264.7196588507572
 21
416.4697145142362
 31
0.0
  0
LINE
  5
1FDA4
330
1E
100
AcDbEntity
  8
12
  6
CONTINOUS
100
AcDbLine
 10
45.04187167922776
 20
201.4697145142366
 30
0.0
 11
145.0418716792277
 21
201.4697145142366
 31
0.0
  0
LINE
  5
1FDA5
330
1E
100
AcDbEntity
  8
12
  6
CONTINOUS
100
AcDbLine
 10
45.04187167922776
 20
121.4697145142366
 30
0.0
 11
145.0418716792277
 21
121.4697145142366
 31
0.0
  0
LINE
  5
1FDA6
330
1E
100
AcDbEntity
  8
12
  6
HIDDEN
 48
2.0
100
AcDbLine
 10
44.58962278322785
 20
198.2697145142366
 30
0.0
 11
144.6262755079778
 21
198.2697145142366
 31
0.0
  0
LINE
  5
1FDA7
330
1E
100
AcDbEntity
  8
12
  6
HIDDEN
 48
2.0
100
AcDbLine
 10
45.48915259472795
 20
124.6697145142366
 30
0.0
 11
145.4567391337279
 21
124.6697145142366
 31
0.0
  0
CIRCLE
  5
1FDAF
330
1E
100
AcDbEntity
  8
12
  6
CONTINOUS
100
AcDbCircle
 10
110.0418716792277
 20
187.4697145142366
 30
0.0
 40
3.000000000000173
  0
CIRCLE
  5
1FDB0
330
1E
100
AcDbEntity
  8
12
  6
CONTINOUS
100
AcDbCircle
 10
80.04187167922777
 20
187.4697145142366
 30
0.0
 40
3.000000000000036
  0
CIRCLE
  5
1FDB1
330
1E
100
AcDbEntity
  8
12
  6
CONTINOUS
100
AcDbCircle
 10
110.0418716792277
 20
135.4697145142366
 30
0.0
 40
3.000000000000173
  0
CIRCLE
  5
1FDB2
330
1E
100
AcDbEntity
  8
12
  6
CONTINOUS
100
AcDbCircle
 10
80.04187167922777
 20
135.4697145142366
 30
0.0
 40
3.000000000000036
  0
DIMENSION
  5
1FDB5
330
1E
100
AcDbEntity
  8
30
100
AcDbDimension
280
     0
  2
*D6
 10
32.63066264347774
 20
179.4697145142366
 30
0.0
 11
32.63066264347771
 21
161.4697145142366
 31
0.0
 70
   160
  1
<>
 71
     2
 42
36.00000000000004
 73
     0
 74
     0
 75
     0
  3
STANDARD
100
AcDbAlignedDimension
 13
57.54187167922776
 23
143.4697145142366
 33
0.0
 14
57.54187167922776
 24
179.4697145142366
 34
0.0
 50
90.0
100
AcDbRotatedDimension
  0
DIMENSION
  5
1FDB6
330
1E
100
AcDbEntity
  8
30
100
AcDbDimension
280
     0
  2
*D7
 10
15.43313209770575
 20
135.4697145142366
 30
0.0
 11
15.43313209770573
 21
161.4697145142366
 31
0.0
 70
   160
  1
<>
 71
     2
 42
52.0
 73
     0
 74
     0
 75
     0
  3
STANDARD
100
AcDbAlignedDimension
 13
80.04187167922777
 23
187.4697145142366
 33
0.0
 14
80.04187167922777
 24
135.4697145142366
 34
0.0
 50
90.0
100
AcDbRotatedDimension
  0
DIMENSION
  5
1FDB7
330
1E
100
AcDbEntity
  8
30
100
AcDbDimension
280
     0
  2
*D8
 10
57.54187167922776
 20
47.64247969556936
 30
0.0
 11
93.10852265385568
 21
47.64247969556936
 31
0.0
 70
   160
  1
<>
 71
     2
 42
75.0
 73
     0
 74
     0
 75
     0
  3
STANDARD
100
AcDbAlignedDimension
 13
132.5418716792277
 23
143.4697145142366
 33
0.0
 14
57.54187167922776
 24
143.4697145142366
 34
0.0
100
AcDbRotatedDimension
  0
DIMENSION
  5
1FDB8
330
1E
100
AcDbEntity
  8
30
100
AcDbDimension
280
     0
  2
*D9
 10
80.04187167922777
 20
97.85345922223658
 30
0.0
 11
95.04187167922777
 21
97.85345922223658
 31
0.0
 70
   160
  1
<>
 71
     2
 42
30.0
 73
     0
 74
     0
 75
     0
  3
STANDARD
100
AcDbAlignedDimension
 13
110.0418716792277
 23
135.4697145142366
 33
0.0
 14
80.04187167922777
 24
135.4697145142366
 34
0.0
100
AcDbRotatedDimension
  0
INSERT
  5
1FDBE
330
1E
100
AcDbEntity
  8
12
  6
DASHDOT
100
AcDbBlockReference
  2
SW_CENTERMARKSYMBOL_1
 10
110.0418716792277
 20
187.4697145142366
 30
0.0
 41
2.5
 42
2.5
 43
2.5
  0
INSERT
  5
1FDBF
330
1E
100
AcDbEntity
  8
12
  6
DASHDOT
100
AcDbBlockReference
  2
SW_CENTERMARKSYMBOL_2
 10
80.04187167922777
 20
187.4697145142366
 30
0.0
 41
2.5
 42
2.5
 43
2.5
  0
INSERT
  5
1FDC0
330
1E
100
AcDbEntity
  8
12
  6
DASHDOT
100
AcDbBlockReference
  2
SW_CENTERMARKSYMBOL_3
 10
80.04187167922777
 20
135.4697145142366
 30
0.0
 41
2.5
 42
2.5
 43
2.5
  0
INSERT
  5
1FDC1
330
1E
100
AcDbEntity
  8
12
  6
DASHDOT
100
AcDbBlockReference
  2
SW_CENTERMARKSYMBOL_4
 10
110.0418716792277
 20
135.4697145142366
 30
0.0
 41
2.5
 42
2.5
 43
2.5
  0
MTEXT
  5
1FF17
330
1E
100
AcDbEntity
  8
30
  6
Continuous
100
AcDbMText
 10
147.9956174654384
 20
88.93591259175037
 30
0.0
 40
5.0
 41
58.0
 46
0.0
 71
     1
 72
     5
  1
Mounting plate
  7
blockfont
 73
     1
 44
1.0
  0
LEADER
  5
1FF18
330
1E
100
AcDbEntity
  8
30
100
AcDbLeader
  3
STANDARD1
 76
     3
 10
142.4924361844755
 20
120.9359125917503
 30
0.0
 10
146.9956174654384
 20
80.93591259175035
 30
0.0
 10
207.9956174654384
 20
80.93591259175035
 30
0.0
211
-1.0
221
0.0
231
0.0
210
0.0
220
0.0
230
-1.0
1001
ACAD
1000
DSTYLE
1002
{
1070
   147
1040
2.0
1070
    77
1070
     0
1002
}
  0
LWPOLYLINE
  5
1FF19
330
1E
100
AcDbEntity
  8
10
100
AcDbPolyline
 90
        2
 70
     0
 43
0.0
 10
57.54187167922776
 20
179.4697145142366
 10
132.5418716792277
 20
179.4697145142366
  0
LWPOLYLINE
  5
1FF1A
330
1E
100
AcDbEntity
  8
10
100
AcDbPolyline
 90
        2
 70
     0
 43
0.0
 10
132.5418716792277
 20
179.4697145142366
 10
132.5418716792277
 20
143.4697145142366
  0
LWPOLYLINE
  5
1FF1B
330
1E
100
AcDbEntity
  8
10
100
AcDbPolyline
 90
        2
 70
     0
 43
0.0
 10
57.54187167922776
 20
143.4697145142366
 10
132.5418716792277
 20
143.4697145142366
  0
LWPOLYLINE
  5
1FF1C
330
1E
100
AcDbEntity
  8
10
100
AcDbPolyline
 90
        2
 70
     0
 43
0.0
 10
57.54187167922776
 20
179.4697145142366
 10
57.54187167922776
 20
143.4697145142366
  0
LINE
  5
2077E
330
1E
100
AcDbEntity
  8
0
  6
SLD-実線
 62
     7
370
    30
100
AcDbLine
 10
75.53314478447777
 20
467.9314564311113
 30
0.0
 11
75.5418712769777
 21
467.9401847863611
 31
0.0
  0
LINE
  5
2077F
330
1E
100
AcDbEntity
  8
0
  6
SLD-実線
 62
     7
370
    30
100
AcDbLine
 10
75.5418712769777
 20
467.9401847863611
 30
0.0
 11
84.54187182097774
 21
467.9401847863611
 31
0.0
  0
LINE
  5
207A8
330
1E
100
AcDbEntity
  8
0
  6
SLD-実線
 62
     7
370
    30
100
AcDbLine
 10
84.56337792172773
 20
476.9529621446111
 30
0.0
 11
75.5203651762277
 21
476.9529621446111
 31
0.0
  0
LINE
  5
207FC
330
1E
100
AcDbEntity
  8
10
  6
SLD-実線
 62
     7
370
    30
100
AcDbLine
 10
56.04187087472776
 20
480.9707104482363
 30
0.0
 11
56.04187087472776
 21
480.9687732972363
 31
0.0
  0
LINE
  5
208DE
330
1E
100
AcDbEntity
  8
10
  6
SLD-実線
 62
     7
370
    30
100
AcDbLine
 10
55.54302470147781
 20
481.4697130837365
 30
0.0
 11
55.54061071322775
 21
481.4697130837365
 31
0.0
  0
LINE
  5
215BC
330
1E
100
AcDbEntity
  8
10
  6
SLD-実線
 62
     8
370
     0
100
AcDbLine
 10
56.03832439822776
 20
480.9699951924865
 30
0.0
 11
56.04187087472776
 21
480.9707104482363
 31
0.0
  0
LINE
  5
2165E
330
1E
100
AcDbEntity
  8
10
  6
SLD-実線
 62
     8
370
     0
100
AcDbLine
 10
55.53840161622776
 20
481.4687817612363
 30
0.0
 11
55.54302470147781
 21
481.4697130837365
 31
0.0
  0
CIRCLE
  5
216DE
330
1E
100
AcDbEntity
  8
12
  6
SLD-実線
370
     0
100
AcDbCircle
 10
80.04187167922777
 20
472.4314573848612
 30
0.0
 40
4.332040220405366
  0
DIMENSION
  5
2181E
330
1E
100
AcDbEntity
  8
30
100
AcDbDimension
280
     0
  2
*D10
 10
125.0418716792278
 20
296.9314573848613
 30
0.0
 11
95.04187167922777
 21
296.9314573848613
 31
0.0
 70
   160
  1
<>
 71
     2
 42
60.0
 73
     0
 74
     0
 75
     0
  3
STANDARD
100
AcDbAlignedDimension
 13
65.04187167922776
 23
359.9314573848614
 33
0.0
 14
125.0418716792278
 24
359.9314573848614
 34
0.0
100
AcDbRotatedDimension
  0
DIMENSION
  5
2181F
330
1E
100
AcDbEntity
  8
30
100
AcDbDimension
280
     0
  2
*D11
 10
140.0418716792277
 20
284.4314573848613
 30
0.0
 11
95.04187167922777
 21
284.4314573848613
 31
0.0
 70
   160
  1
<>
 71
     2
 42
90.0
 73
     0
 74
     0
 75
     0
  3
STANDARD
100
AcDbAlignedDimension
 13
50.04187167922776
 23
351.4697145142363
 33
0.0
 14
140.0418716792277
 24
351.4697145142363
 34
0.0
100
AcDbRotatedDimension
  0
DIMENSION
  5
218EC
330
1E
100
AcDbEntity
  8
30
100
AcDbDimension
280
     0
  2
*D12
 10
31.07485752891938
 20
351.4697145142363
 30
0.0
 11
26.07485752891933
 21
416.4697145142362
 31
0.0
 70
    32
 71
     5
 42
130.0
 73
     0
 74
     0
 75
     0
  3
STANDARD
100
AcDbAlignedDimension
 13
50.04187167922776
 23
481.4697145142361
 33
0.0
 14
50.04187167922776
 24
351.4697145142363
 34
0.0
 50
90.0
100
AcDbRotatedDimension
  0
LWPOLYLINE
  5
2191D
330
1E
100
AcDbEntity
  8
130
100
AcDbPolyline
 90
        4
 70
     1
 43
0.0
 10
50.04187167922776
 20
351.4697145142363
 10
140.0418716792277
 20
351.4697145142363
 10
140.0418716792277
 20
481.4697145142361
 10
50.04187167922776
 20
481.4697145142361
  0
LWPOLYLINE
  5
21C97
330
1E
100
AcDbEntity
  8
10
100
AcDbPolyline
 90
        4
 70
     1
 43
0.0
 10
348.0172526957571
 20
374.9670827884863
 10
406.5279533622291
 20
374.9670827884863
 10
406.5279533622291
 20
326.4697145142363
 10
348.0172526957571
 20
326.4697109379863
  0
LWPOLYLINE
  5
21D2D
330
1E
100
AcDbEntity
  8
10
100
AcDbPolyline
 90
        7
 70
     1
 43
0.0
 10
348.5380868064205
 20
506.4697180904864
 10
394.8717304505475
 20
506.4697180904864
 42
-0.4142135623730951
 10
395.3717304505475
 20
505.9697180904863
 10
395.3717304505475
 20
458.9212267848073
 42
-0.4144723488679106
 10
394.8712887148484
 20
458.4212269799378
 10
348.017252672007
 20
458.4723393859863
 10
348.0380868545209
 20
505.9699374087402
 42
-0.4140850945452041
  0
LINE
  5
21D89
330
1E
100
AcDbEntity
  8
130
100
AcDbLine
 10
347.5172489765071
 20
351.4697145142363
 30
0.0
 11
291.1340805571068
 21
351.4697145142363
 31
0.0
  0
LINE
  5
21D8D
330
1E
100
AcDbEntity
  8
130
100
AcDbLine
 10
279.517248976507
 20
367.4697145142364
 30
0.0
 11
279.517248976507
 21
465.4697145142362
 31
0.0
  0
LINE
  5
21D8E
330
1E
100
AcDbEntity
  8
130
100
AcDbLine
 10
289.1784757289071
 20
479.888772691836
 30
0.0
 11
287.517248976507
 21
467.4697145142363
 31
0.0
  0
LINE
  5
21D91
330
1E
100
AcDbEntity
  8
130
100
AcDbLine
 10
287.517248976507
 20
365.4697145142363
 30
0.0
 11
281.517248976507
 21
365.4697145142363
 31
0.0
  0
LINE
  5
21D92
330
1E
100
AcDbEntity
  8
130
100
AcDbLine
 10
287.517248976507
 20
365.4697145142363
 30
0.0
 11
289.1784757289071
 21
353.0506563368362
 31
0.0
  0
LINE
  5
21D95
330
1E
100
AcDbEntity
  8
130
100
AcDbLine
 10
287.517248976507
 20
467.4697145142363
 30
0.0
 11
281.517248976507
 21
467.4697145142363
 31
0.0
  0
LINE
  5
21D9B
330
1E
100
AcDbEntity
  8
130
100
AcDbLine
 10
347.5172489765071
 20
481.4697145142361
 30
0.0
 11
291.1340805571068
 21
481.4697145142361
 31
0.0
  0
ARC
  5
21D9D
330
1E
100
AcDbEntity
  8
130
100
AcDbCircle
 10
281.517248976507
 20
367.4697145142364
 30
0.0
 40
2.0
100
AcDbArc
 50
180.0
 51
270.0
  0
ARC
  5
21D9E
330
1E
100
AcDbEntity
  8
130
100
AcDbCircle
 10
281.517248976507
 20
465.4697145142362
 30
0.0
 40
2.0
100
AcDbArc
 50
90.0
 51
180.0
  0
ARC
  5
21D9F
330
1E
100
AcDbEntity
  8
130
100
AcDbCircle
 10
291.1340805571068
 20
479.4697145142363
 30
0.0
 40
2.0
100
AcDbArc
 50
90.0
 51
167.9052429230026
  0
ARC
  5
21DA0
330
1E
100
AcDbEntity
  8
130
100
AcDbCircle
 10
291.1340805571068
 20
353.4697145142363
 30
0.0
 40
2.0
100
AcDbArc
 50
192.0947570769974
 51
270.0
  0
LINE
  5
21DAA
330
1E
100
AcDbEntity
  8
130
100
AcDbLine
 10
347.5172489765071
 20
481.4697145142361
 30
0.0
 11
347.5172489765071
 21
351.4697145142363
 31
0.0
  0
LINE
  5
21DFE
330
1E
100
AcDbEntity
  8
130
100
AcDbLine
 10
275.517255771507
 20
441.3998936332363
 30
0.0
 11
279.517248976507
 21
441.3998936332363
 31
0.0
  0
LINE
  5
21DFF
330
1E
100
AcDbEntity
  8
130
100
AcDbLine
 10
275.517255771507
 20
391.5395353952364
 30
0.0
 11
279.517248976507
 21
391.5395353952364
 31
0.0
  0
LINE
  5
21E00
330
1E
100
AcDbEntity
  8
130
100
AcDbLine
 10
270.2145285490071
 20
394.1320934364863
 30
0.0
 11
275.517255771507
 21
394.0395348737363
 31
0.0
  0
DIMENSION
  5
2207A
330
1E
100
AcDbEntity
  8
30
100
AcDbDimension
280
     0
  2
*D13
 10
236.517248976507
 20
391.4697145142363
 30
0.0
 11
236.517248976507
 21
417.227891051836
 31
0.0
 70
   160
 71
     5
 42
50.0
 73
     0
 74
     0
 75
     0
  3
STANDARD
100
AcDbAlignedDimension
 13
275.517248976507
 23
441.4697145142362
 33
0.0
 14
275.517248976507
 24
391.4697145142363
 34
0.0
 50
270.0
100
AcDbRotatedDimension
  0
DIMENSION
  5
2207D
330
1E
100
AcDbEntity
  8
30
100
AcDbDimension
280
     0
  2
*D15
 10
287.517248976507
 20
310.9697145142363
 30
0.0
 11
317.517248976507
 21
315.9697145142363
 31
0.0
 70
    32
 71
     5
 42
60.0
 73
     0
 74
     0
 75
     0
  3
STANDARD
100
AcDbAlignedDimension
 13
347.5172489765071
 23
351.4697145142363
 33
0.0
 14
287.517248976507
 24
367.4697145142364
 34
0.0
100
AcDbRotatedDimension
  0
DIMENSION
  5
22081
330
1E
100
AcDbEntity
  8
30
100
AcDbDimension
280
     0
  2
*D17
 10
275.517248976507
 20
286.5776949797173
 30
0.0
 11
239.0720610470098
 21
286.5776949797173
 31
0.0
 70
   160
 71
     5
 42
6.499999999999829
 73
     0
 74
     0
 75
     0
  3
STANDARD
100
AcDbAlignedDimension
 13
269.0172489765072
 23
416.4697145142362
 33
0.0
 14
275.517248976507
 24
391.4697145142363
 34
0.0
100
AcDbRotatedDimension
  0
LWPOLYLINE
  5
221A7
330
1E
100
AcDbEntity
  8
10
100
AcDbPolyline
 90
       13
 70
     0
 43
0.0
 10
385.5172489765071
 20
376.5608530076363
 10
375.5172489765071
 20
376.5608530076363
 42
-0.4142135623730951
 10
370.5172489765071
 20
381.5608530076362
 10
370.5172489765071
 20
451.5608530076361
 42
-0.4142135623730951
 10
375.5172489765071
 20
456.5608530076363
 10
385.5172489765071
 20
456.5608530076363
 10
385.5172489765071
 20
453.3608530076362
 10
374.7172489765072
 20
453.3608530076362
 42
0.4142135623730951
 10
373.7172489765072
 20
452.3608530076358
 10
373.7172489765072
 20
380.7608530076363
 42
0.4142135623730951
 10
374.7172489765072
 20
379.7608530076364
 10
385.5172489765071
 20
379.7608530076364
 10
385.5172489765071
 20
376.5608530076363
  0
LINE
  5
221A8
330
1E
100
AcDbEntity
  8
10
100
AcDbLine
 10
370.5172489765071
 20
375.0608530076363
 30
0.0
 11
359.517248976507
 21
375.0608530076363
 31
0.0
  0
LINE
  5
221A9
330
1E
100
AcDbEntity
  8
11
  6
Continuous
 62
    11
100
AcDbLine
 10
375.0172489765071
 20
385.8509123608361
 30
0.0
 11
379.5172489765071
 21
385.8509123608361
 31
0.0
  0
LINE
  5
221AA
330
1E
100
AcDbEntity
  8
11
  6
Continuous
 62
    11
100
AcDbLine
 10
375.0172489765071
 20
385.8697145142363
 30
0.0
 11
373.7172489765072
 21
385.8697145142363
 31
0.0
  0
LINE
  5
221AB
330
1E
100
AcDbEntity
  8
11
  6
Continuous
 62
    11
100
AcDbLine
 10
385.1172489765073
 20
387.9697145142362
 30
0.0
 11
379.5172489765071
 21
387.9697145142362
 31
0.0
  0
LINE
  5
221AC
330
1E
100
AcDbEntity
  8
11
  6
Continuous
 62
    11
100
AcDbLine
 10
373.7172489765072
 20
387.9697145142362
 30
0.0
 11
370.5172489765071
 21
387.9697145142362
 31
0.0
  0
LINE
  5
221AD
330
1E
100
AcDbEntity
  8
11
  6
Continuous
 62
    11
100
AcDbLine
 10
375.0172489765071
 20
388.1603134374363
 30
0.0
 11
379.5172489765071
 21
388.1603134374363
 31
0.0
  0
LINE
  5
221AE
330
1E
100
AcDbEntity
  8
11
  6
Continuous
 62
    11
100
AcDbLine
 10
375.0172489765071
 20
392.7791155910362
 30
0.0
 11
379.5172489765071
 21
392.7791155910362
 31
0.0
  0
LINE
  5
221AF
330
1E
100
AcDbEntity
  8
11
  6
Continuous
 62
    11
100
AcDbLine
 10
385.1172489765073
 20
392.9697145142362
 30
0.0
 11
379.5172489765071
 21
392.9697145142362
 31
0.0
  0
LINE
  5
221B0
330
1E
100
AcDbEntity
  8
11
  6
Continuous
 62
    11
100
AcDbLine
 10
373.7172489765072
 20
392.9697145142362
 30
0.0
 11
370.5172489765071
 21
392.9697145142362
 31
0.0
  0
LINE
  5
221B1
330
1E
100
AcDbEntity
  8
11
  6
Continuous
 62
    11
100
AcDbLine
 10
375.0172489765071
 20
395.0697145142362
 30
0.0
 11
373.7172489765072
 21
395.0697145142362
 31
0.0
  0
LINE
  5
221B2
330
1E
100
AcDbEntity
  8
11
  6
Continuous
 62
    11
100
AcDbLine
 10
375.0172489765071
 20
395.0885166678363
 30
0.0
 11
379.5172489765071
 21
395.0885166678363
 31
0.0
  0
LINE
  5
221B3
330
1E
100
AcDbEntity
  8
10
100
AcDbLine
 10
348.0200697847073
 20
458.4672381014363
 30
0.0
 11
348.0172489765071
 21
458.5175676886361
 31
0.0
  0
LINE
  5
221B4
330
1E
100
AcDbEntity
  8
10
100
AcDbLine
 10
348.0172489765071
 20
351.8910128074363
 30
0.0
 11
348.0172489765071
 21
379.6611116888363
 31
0.0
  0
LINE
  5
221B5
330
1E
100
AcDbEntity
  8
10
100
AcDbLine
 10
348.0172489765071
 20
453.2783173398363
 30
0.0
 11
348.0172489765071
 21
481.0484162210362
 31
0.0
  0
LINE
  5
221B6
330
1E
100
AcDbEntity
  8
10
100
AcDbLine
 10
348.0172489765071
 20
374.4635416100746
 30
0.0
 11
348.0200697847073
 21
374.5138711974746
 31
0.0
  0
LINE
  5
221B7
330
1E
100
AcDbEntity
  8
11
  6
Continuous
 62
    11
100
AcDbLine
 10
375.0172489765071
 20
437.8509123608361
 30
0.0
 11
379.5172489765071
 21
437.8509123608361
 31
0.0
  0
LINE
  5
221B8
330
1E
100
AcDbEntity
  8
11
  6
Continuous
 62
    11
100
AcDbLine
 10
375.0172489765071
 20
437.8697145142361
 30
0.0
 11
373.7172489765072
 21
437.8697145142361
 31
0.0
  0
LINE
  5
221B9
330
1E
100
AcDbEntity
  8
11
  6
Continuous
 62
    11
100
AcDbLine
 10
385.1172489765073
 20
439.9697145142361
 30
0.0
 11
379.5172489765071
 21
439.9697145142361
 31
0.0
  0
LINE
  5
221BA
330
1E
100
AcDbEntity
  8
11
  6
Continuous
 62
    11
100
AcDbLine
 10
373.7172489765072
 20
439.9697145142361
 30
0.0
 11
370.5172489765071
 21
439.9697145142361
 31
0.0
  0
LINE
  5
221BB
330
1E
100
AcDbEntity
  8
11
  6
Continuous
 62
    11
100
AcDbLine
 10
375.0172489765071
 20
440.1603134374362
 30
0.0
 11
379.5172489765071
 21
440.1603134374362
 31
0.0
  0
LINE
  5
221BC
330
1E
100
AcDbEntity
  8
10
100
AcDbLine
 10
357.517248976507
 20
456.0608530076363
 30
0.0
 11
357.517248976507
 21
377.1697145142364
 31
0.0
  0
ARC
  5
221BD
330
1E
100
AcDbEntity
  8
10
100
AcDbCircle
 10
359.517248976507
 20
456.0608530076363
 30
0.0
 40
2.0
100
AcDbArc
 50
90.0
 51
180.0
  0
LWPOLYLINE
  5
221BE
330
1E
100
AcDbEntity
  8
10
100
AcDbPolyline
 90
        4
 70
     0
 43
0.0
 10
348.0200697847073
 20
374.5138711974746
 10
348.0287795183073
 20
374.5648525816747
 10
348.0436794133071
 20
374.6157664968747
 10
348.0650050669071
 20
374.6659080450746
  0
LINE
  5
221BF
330
1E
100
AcDbEntity
  8
11
  6
Continuous
 62
    11
100
AcDbLine
 10
385.917248831107
 20
440.7697146598363
 30
0.0
 11
385.1172487627069
 21
439.9697147282363
 31
0.0
  0
LINE
  5
221C0
330
1E
100
AcDbEntity
  8
17
100
AcDbLine
 10
365.5172489765071
 20
442.4697145142363
 30
0.0
 11
390.5172489765071
 21
442.4697145142363
 31
0.0
  0
LINE
  5
221C1
330
1E
100
AcDbEntity
  8
11
  6
Continuous
 62
    11
100
AcDbLine
 10
375.0172489765071
 20
444.7791155910362
 30
0.0
 11
379.5172489765071
 21
444.7791155910362
 31
0.0
  0
LINE
  5
221C2
330
1E
100
AcDbEntity
  8
11
  6
Continuous
 62
    11
100
AcDbLine
 10
385.1172489765073
 20
444.9697145142362
 30
0.0
 11
379.5172489765071
 21
444.9697145142362
 31
0.0
  0
LINE
  5
221C3
330
1E
100
AcDbEntity
  8
11
  6
Continuous
 62
    11
100
AcDbLine
 10
373.7172489765072
 20
444.9697145142362
 30
0.0
 11
370.5172489765071
 21
444.9697145142362
 31
0.0
  0
LINE
  5
221C4
330
1E
100
AcDbEntity
  8
11
  6
Continuous
 62
    11
100
AcDbLine
 10
375.0172489765071
 20
447.0697145142361
 30
0.0
 11
373.7172489765072
 21
447.0697145142361
 31
0.0
  0
LINE
  5
221C5
330
1E
100
AcDbEntity
  8
11
  6
Continuous
 62
    11
100
AcDbLine
 10
375.0172489765071
 20
447.0885166678361
 30
0.0
 11
379.5172489765071
 21
447.0885166678361
 31
0.0
  0
LINE
  5
221C6
330
1E
100
AcDbEntity
  8
11
  6
Continuous
 62
    11
100
AcDbLine
 10
385.917248831107
 20
392.1697143688363
 30
0.0
 11
385.1172487627069
 21
392.9697143004363
 31
0.0
  0
LWPOLYLINE
  5
221C7
330
1E
100
AcDbEntity
  8
10
100
AcDbPolyline
 90
        8
 70
     0
 43
0.0
 10
348.0650050669071
 20
374.6659080450746
 10
348.098017681307
 20
374.7224256374746
 10
348.1447597701067
 20
374.7811396254746
 10
348.204318430107
 20
374.8356442108747
 10
348.2741174213071
 20
374.8811207046745
 10
348.3509933239071
 20
374.9147465590746
 10
348.4328640909073
 20
374.9354220742747
 10
348.5172489765071
 20
374.9423947304746
  0
LINE
  5
221C8
330
1E
100
AcDbEntity
  8
10
100
AcDbLine
 10
357.517248976507
 20
383.8840002286362
 30
0.0
 11
349.4678067207071
 21
381.5841595840364
 31
0.0
  0
LINE
  5
221C9
330
1E
100
AcDbEntity
  8
10
100
AcDbLine
 10
357.517248976507
 20
449.0554288000359
 30
0.0
 11
349.4678067207071
 21
451.3552694444362
 31
0.0
  0
LINE
  5
221CA
330
1E
100
AcDbEntity
  8
10
100
AcDbLine
 10
370.5172489765071
 20
458.0608530076363
 30
0.0
 11
359.517248976507
 21
458.0608530076363
 31
0.0
  0
LWPOLYLINE
  5
221CB
330
1E
100
AcDbEntity
  8
10
100
AcDbPolyline
 90
        9
 70
     0
 43
0.0
 10
348.5172489765071
 20
457.9697145142362
 10
348.4197822179073
 20
457.979319448636
 10
348.3260437041068
 20
458.0077704090363
 10
348.239624288307
 20
458.0539880520363
 10
348.1638432823071
 20
458.1162142618363
 10
348.1016213719068
 20
458.1920737618363
 10
348.0553657303068
 20
458.2786598024362
 10
348.026871929707
 20
458.3726431926363
 10
348.0172489765071
 20
458.4704006872361
  0
LINE
  5
221CC
330
1E
100
AcDbEntity
  8
10
100
AcDbLine
 10
370.5172489765071
 20
458.0608530076363
 30
0.0
 11
370.5172489765071
 21
375.0608530076362
 31
0.0
  0
LINE
  5
221CD
330
1E
100
AcDbEntity
  8
11
  6
Continuous
 62
    11
100
AcDbLine
 10
373.7172489765072
 20
385.8697145142363
 30
0.0
 11
373.7172489765072
 21
395.0697145142362
 31
0.0
  0
LINE
  5
221CE
330
1E
100
AcDbEntity
  8
11
  6
Continuous
 62
    11
100
AcDbLine
 10
373.7172489765072
 20
437.8697145142361
 30
0.0
 11
373.7172489765072
 21
447.0697145142361
 31
0.0
  0
LINE
  5
221CF
330
1E
100
AcDbEntity
  8
11
  6
Continuous
 62
    11
100
AcDbLine
 10
375.0172489765071
 20
447.0885166678361
 30
0.0
 11
375.0172489765071
 21
447.0697145142361
 31
0.0
  0
LINE
  5
221D0
330
1E
100
AcDbEntity
  8
11
  6
Continuous
 62
    11
100
AcDbLine
 10
375.0172489765071
 20
447.0685269490362
 30
0.0
 11
375.0172489765071
 21
437.8706712904363
 31
0.0
  0
LINE
  5
221D1
330
1E
100
AcDbEntity
  8
11
  6
Continuous
 62
    11
100
AcDbLine
 10
375.0172489765071
 20
437.8697153424361
 30
0.0
 11
375.0172489765071
 21
437.8509123608361
 31
0.0
  0
LINE
  5
221D2
330
1E
100
AcDbEntity
  8
11
  6
Continuous
 62
    11
100
AcDbLine
 10
375.0172489765071
 20
395.0885166678363
 30
0.0
 11
375.0172489765071
 21
395.0697145142362
 31
0.0
  0
LINE
  5
221D3
330
1E
100
AcDbEntity
  8
11
  6
Continuous
 62
    11
100
AcDbLine
 10
375.0172489765071
 20
395.0685269490363
 30
0.0
 11
375.0172489765071
 21
385.8706712904364
 31
0.0
  0
LINE
  5
221D4
330
1E
100
AcDbEntity
  8
11
  6
Continuous
 62
    11
100
AcDbLine
 10
375.0172489765071
 20
385.8697153424363
 30
0.0
 11
375.0172489765071
 21
385.8509123608361
 31
0.0
  0
LINE
  5
221D5
330
1E
100
AcDbEntity
  8
11
  6
Continuous
 62
    11
100
AcDbLine
 10
379.5172489765071
 20
447.0885166678361
 30
0.0
 11
379.5172489765071
 21
437.8509123608361
 31
0.0
  0
LINE
  5
221D6
330
1E
100
AcDbEntity
  8
11
  6
Continuous
 62
    11
100
AcDbLine
 10
379.5172489765071
 20
395.0885166678363
 30
0.0
 11
379.5172489765071
 21
385.8509123608361
 31
0.0
  0
LINE
  5
221D7
330
1E
100
AcDbEntity
  8
11
  6
Continuous
 62
    11
100
AcDbLine
 10
385.117248969707
 20
444.9697145142362
 30
0.0
 11
385.117248969707
 21
439.9697145142361
 31
0.0
  0
LINE
  5
221D8
330
1E
100
AcDbEntity
  8
11
  6
Continuous
 62
    11
100
AcDbLine
 10
385.117248969707
 20
392.9697145142362
 30
0.0
 11
385.117248969707
 21
387.9697145142362
 31
0.0
  0
LINE
  5
221D9
330
1E
100
AcDbEntity
  8
11
  6
Continuous
 62
    11
100
AcDbLine
 10
385.917248976507
 20
388.7697145142362
 30
0.0
 11
385.917248976507
 21
392.1697145142363
 31
0.0
  0
LINE
  5
221DA
330
1E
100
AcDbEntity
  8
11
  6
Continuous
 62
    11
100
AcDbLine
 10
385.917248976507
 20
440.7697145142362
 30
0.0
 11
385.917248976507
 21
444.1697145142363
 31
0.0
  0
LINE
  5
221DB
330
1E
100
AcDbEntity
  8
11
  6
Continuous
 62
    11
100
AcDbLine
 10
385.917248831107
 20
388.7697146598363
 30
0.0
 11
385.1172487627069
 21
387.9697147282363
 31
0.0
  0
LINE
  5
221DC
330
1E
100
AcDbEntity
  8
11
  6
Continuous
 62
    11
100
AcDbLine
 10
385.917248831107
 20
444.1697143688362
 30
0.0
 11
385.1172487627069
 21
444.9697143004363
 31
0.0
  0
ARC
  5
221DD
330
1E
100
AcDbEntity
  8
10
100
AcDbCircle
 10
359.7157862216052
 20
377.2519513337922
 30
0.0
 40
2.200074751587898
100
AcDbArc
 50
182.1421638480675
 51
264.8225203788095
  0
ARC
  5
221DE
330
1E
100
AcDbEntity
  8
10
100
AcDbCircle
 10
350.0172489765071
 20
379.6611116888363
 30
0.0
 40
2.0
100
AcDbArc
 50
105.9453959009005
 51
180.0
  0
ARC
  5
221DF
330
1E
100
AcDbEntity
  8
10
100
AcDbCircle
 10
350.0172489765071
 20
453.2783173398363
 30
0.0
 40
2.0
100
AcDbArc
 50
180.0
 51
254.0546040990995
  0
LINE
  5
221E0
330
1E
100
AcDbEntity
  8
17
100
AcDbLine
 10
365.5172489765071
 20
390.4697145142364
 30
0.0
 11
390.5172489765071
 21
390.4697145142364
 31
0.0
  0
DIMENSION
  5
221E1
330
1E
100
AcDbEntity
  8
30
100
AcDbDimension
280
     0
  2
*D18
 10
412.9986437687988
 20
375.0608530076362
 30
0.0
 11
407.9986437687988
 21
416.5608530076363
 31
0.0
 70
    32
 71
     5
 42
83.0
 73
     0
 74
     0
 75
     0
  3
STANDARD
100
AcDbAlignedDimension
 13
370.5172489765071
 23
458.0608530076363
 33
0.0
 14
370.5172489765071
 24
375.0608530076363
 34
0.0
 50
90.0
100
AcDbRotatedDimension
  0
MTEXT
  5
2236E
330
1E
100
AcDbEntity
  8
30
  6
Continuous
100
AcDbMText
 10
423.7417883715218
 20
544.6671124319833
 30
0.0
 40
5.0
 41
37.57464383126626
 46
0.0
 71
     1
 72
     5
  1
M6 screw
  7
blockfont
 73
     1
 44
1.0
  0
LEADER
  5
2236F
330
1E
100
AcDbEntity
  8
30
100
AcDbLeader
  3
STANDARD1
 76
     3
 10
402.9417883715222
 20
562.6671124319833
 30
0.0
 10
422.741788371522
 20
538.6671124319835
 30
0.0
 10
457.7417883715219
 20
538.6671124319835
 30
0.0
211
-1.0
221
0.0
231
0.0
210
0.0
220
0.0
230
-1.0
1001
ACAD
1000
DSTYLE
1002
{
1070
   147
1040
2.0
1070
    77
1070
     0
1002
}
  0
LEADER
  5
22370
330
1E
100
AcDbEntity
  8
30
100
AcDbLeader
  3
STANDARD1
 76
     3
 10
387.5527478193673
 20
595.8737115180402
 30
0.0
 10
415.4527478193669
 20
588.8737115180401
 30
0.0
 10
495.4983742536327
 20
588.8737115180401
 30
0.0
211
-1.0
221
0.0
231
0.0
210
0.0
220
0.0
230
-1.0
1001
ACAD
1000
DSTYLE
1002
{
1070
   147
1040
2.0
1070
    77
1070
     0
1002
}
  0
MTEXT
  5
22371
330
1E
100
AcDbEntity
  8
30
  6
Continuous
100
AcDbMText
 10
416.4527478193669
 20
594.8737115180401
 30
0.0
 40
5.0
 41
100.0
 46
0.0
 71
     1
 72
     5
  1
M5　Mounting scruew
  7
blockfont
 73
     1
 44
1.0
  0
LINE
  5
2243A
330
1E
100
AcDbEntity
  8
12
  6
DASHDOT
100
AcDbLine
 10
74.54187201472773
 20
472.431458100111
 30
0.0
 11
85.54187201472798
 21
472.431458100111
 31
0.0
  0
LINE
  5
2243B
330
1E
100
AcDbEntity
  8
12
  6
DASHDOT
100
AcDbLine
 10
80.04187201472786
 20
477.9314581001115
 30
0.0
 11
80.04187201472786
 21
466.9314581001112
 31
0.0
  0
LINE
  5
22445
330
1E
100
AcDbEntity
  8
17
100
AcDbLine
 10
65.04187234997772
 20
480.9314574146112
 30
0.0
 11
65.04187234997772
 21
466.9314574146111
 31
0.0
  0
LINE
  5
22446
330
1E
100
AcDbEntity
  8
17
100
AcDbLine
 10
58.04187234997783
 20
473.9314574146114
 30
0.0
 11
72.0418723499776
 21
473.9314574146114
 31
0.0
  0
LWPOLYLINE
  5
22453
330
1E
100
AcDbEntity
  8
130
100
AcDbPolyline
 90
       19
 70
     0
 43
0.0
 10
56.02948014179858
 20
470.4696002834368
 10
56.04089596989869
 20
470.2081298250363
 10
56.0750562075988
 20
469.9486530578366
 10
56.1317003655987
 20
469.6931444695366
 10
56.21039691869864
 20
469.4435482199366
 10
56.31054661969861
 20
469.2017633716367
 10
56.43138708089876
 20
468.9696294702367
 10
56.57199859369874
 20
468.7489125738363
 10
56.73131113249864
 20
468.5412918519366
 10
56.90811249139873
 20
468.3483468481361
 10
57.10105749609877
 20
468.1715454910365
 10
57.3086782176986
 20
468.0122329546365
 10
57.52939511269872
 20
467.8716214447367
 10
57.76152901169862
 20
467.7507809863365
 10
58.00331385689881
 20
467.6506312877362
 10
58.25291010329877
 20
467.5719347363365
 10
58.50841868859859
 20
467.5152905794367
 10
58.76789545359875
 20
467.4811303422367
 10
59.02936591099856
 20
467.4697145142364
  0
LINE
  5
22456
330
1E
100
AcDbEntity
  8
130
100
AcDbLine
 10
56.02948014179858
 20
480.9459624107613
 30
0.0
 11
56.02948014179858
 21
470.4458359954617
 31
0.0
  0
LWPOLYLINE
  5
22457
330
1E
100
AcDbEntity
  8
10
100
AcDbPolyline
 90
       13
 70
     0
 43
0.0
 10
55.52947633379872
 20
481.4459502262613
 10
55.59474241279874
 20
481.4416725481613
 10
55.6588911051987
 20
481.4289128104617
 10
55.72082478699875
 20
481.4078895077613
 10
55.77948380159867
 20
481.3789625264615
 10
55.83386458749877
 20
481.3426269601615
 10
55.88303683609878
 20
481.2995046143616
 10
55.92615938349857
 20
481.2503333537613
 10
55.96249457979857
 20
481.1959544683615
 10
55.99142088069861
 20
481.1372982862613
 10
56.01244346019875
 20
481.0753682693613
 10
56.02520266079878
 20
481.0112238659614
 10
56.02948014179858
 20
480.9459624107613
  0
LWPOLYLINE
  5
22458
330
1E
100
AcDbEntity
  8
130
100
AcDbPolyline
 90
       19
 70
     0
 43
0.0
 10
74.05426455815685
 20
470.4696002834368
 10
74.04284873005676
 20
470.2081298250363
 10
74.00868849235664
 20
469.9486530578366
 10
73.9520443343567
 20
469.6931444695366
 10
73.8733477812568
 20
469.4435482199366
 10
73.77319808025681
 20
469.2017633716367
 10
73.65235761905669
 20
468.9696294702367
 10
73.51174610625671
 20
468.7489125738363
 10
73.35243356745682
 20
468.5412918519366
 10
73.17563220855672
 20
468.3483468481361
 10
72.98268720385667
 20
468.1715454910365
 10
72.77506648225685
 20
468.0122329546365
 10
72.55434958725672
 20
467.8716214447367
 10
72.32221568825682
 20
467.7507809863365
 10
72.08043084305661
 20
467.6506312877362
 10
71.83083459665667
 20
467.5719347363365
 10
71.57532601135684
 20
467.5152905794367
 10
71.31584924635669
 20
467.4811303422367
 10
71.05437878895687
 20
467.4697145142364
  0
LINE
  5
22459
330
1E
100
AcDbEntity
  8
130
100
AcDbLine
 10
74.05426455815685
 20
480.9459624107613
 30
0.0
 11
74.05426455815685
 21
470.4458359954617
 31
0.0
  0
LINE
  5
2245B
330
1E
100
AcDbEntity
  8
130
100
AcDbLine
 10
59.02936591099856
 20
467.4697145142364
 30
0.0
 11
71.05437878895687
 21
467.4697145142364
 31
0.0
  0
LINE
  5
2245C
330
1E
100
AcDbEntity
  8
130
100
AcDbLine
 10
50.04187167922776
 20
467.4697145142364
 30
0.0
 11
140.0418716792277
 21
467.4697145142364
 31
0.0
  0
CIRCLE
  5
22464
330
1E
100
AcDbEntity
  8
24
100
AcDbCircle
 10
65.04187234997772
 20
473.9314574146113
 30
0.0
 40
3.0
  0
LWPOLYLINE
  5
22465
330
1E
100
AcDbEntity
  8
130
100
AcDbPolyline
 90
        4
 70
     1
 43
0.0
 10
75.5203651762277
 20
476.9529621446111
 10
84.54187182097774
 20
476.9529621446111
 10
84.54187182097774
 20
467.9401847863611
 10
75.5203651762277
 20
467.9401847863611
  0
LINE
  5
22466
330
1E
100
AcDbEntity
  8
10
  6
SLD-実線
 62
     7
370
    30
100
AcDbLine
 10
86.04186973835275
 20
480.9707104184866
 30
0.0
 11
86.04186973835275
 21
480.9687732674866
 31
0.0
  0
LINE
  5
22468
330
1E
100
AcDbEntity
  8
10
  6
SLD-実線
 62
     7
370
    30
100
AcDbLine
 10
104.5431309876027
 20
481.4697130539865
 30
0.0
 11
104.5407169993528
 21
481.4697130539865
 31
0.0
  0
LINE
  5
22469
330
1E
100
AcDbEntity
  8
10
  6
SLD-実線
 62
     8
370
     0
100
AcDbLine
 10
86.03832326185278
 20
480.9699951627366
 30
0.0
 11
86.04186973835275
 21
480.9707104184866
 31
0.0
  0
LINE
  5
2246A
330
1E
100
AcDbEntity
  8
10
  6
SLD-実線
 62
     8
370
     0
100
AcDbLine
 10
104.5407169993528
 20
481.4697130539865
 30
0.0
 11
104.5453419473528
 21
481.4687817314866
 31
0.0
  0
LINE
  5
2246C
330
1E
100
AcDbEntity
  8
17
100
AcDbLine
 10
95.04187121360272
 20
480.9314573848612
 30
0.0
 11
95.04187121360272
 21
466.9314573848612
 31
0.0
  0
LINE
  5
2246D
330
1E
100
AcDbEntity
  8
17
100
AcDbLine
 10
88.04187121360286
 20
473.9314573848615
 30
0.0
 11
102.0418712136026
 21
473.9314573848615
 31
0.0
  0
LWPOLYLINE
  5
2246E
330
1E
100
AcDbEntity
  8
130
100
AcDbPolyline
 90
       19
 70
     0
 43
0.0
 10
86.02947900542359
 20
470.4696002536869
 10
86.04089483352371
 20
470.2081297952864
 10
86.07505507122381
 20
469.9486530280867
 10
86.13169922922372
 20
469.6931444397867
 10
86.21039578232368
 20
469.4435481901867
 10
86.31054548332363
 20
469.2017633418868
 10
86.43138594452379
 20
468.9696294404867
 10
86.57199745732375
 20
468.7489125440865
 10
86.73130999612366
 20
468.5412918221866
 10
86.90811135502375
 20
468.3483468183863
 10
87.1010563597238
 20
468.1715454612866
 10
87.30867708132363
 20
468.0122329248866
 10
87.52939397632372
 20
467.8716214149868
 10
87.76152787532366
 20
467.7507809565866
 10
88.00331272052384
 20
467.6506312579864
 10
88.25290896692377
 20
467.5719347065865
 10
88.5084175522236
 20
467.5152905496868
 10
88.76789431722377
 20
467.4811303124868
 10
89.02936477462359
 20
467.4697144844866
  0
LINE
  5
2246F
330
1E
100
AcDbEntity
  8
130
100
AcDbLine
 10
86.02947900542359
 20
480.9459623810115
 30
0.0
 11
86.02947900542359
 21
470.4458359657117
 31
0.0
  0
LWPOLYLINE
  5
22470
330
1E
100
AcDbEntity
  8
10
100
AcDbPolyline
 90
       13
 70
     0
 43
0.0
 10
85.52947519742373
 20
481.4459501965114
 10
85.59474127642378
 20
481.4416725184115
 10
85.65888996882375
 20
481.4289127807115
 10
85.72082365062376
 20
481.4078894780114
 10
85.77948266522367
 20
481.3789624967117
 10
85.83386345112378
 20
481.3426269304115
 10
85.88303569972381
 20
481.2995045846117
 10
85.92615824712359
 20
481.2503333240115
 10
85.96249344342359
 20
481.1959544386115
 10
85.99141974432361
 20
481.1372982565115
 10
86.01244232382375
 20
481.0753682396113
 10
86.02520152442378
 20
481.0112238362115
 10
86.02947900542359
 20
480.9459623810115
  0
LWPOLYLINE
  5
22471
330
1E
100
AcDbEntity
  8
130
100
AcDbPolyline
 90
       19
 70
     0
 43
0.0
 10
104.0542634217819
 20
470.4696002536869
 10
104.0428475936818
 20
470.2081297952864
 10
104.0086873559816
 20
469.9486530280867
 10
103.9520431979817
 20
469.6931444397867
 10
103.8733466448818
 20
469.4435481901867
 10
103.7731969438818
 20
469.2017633418868
 10
103.6523564826817
 20
468.9696294404867
 10
103.5117449698817
 20
468.7489125440865
 10
103.3524324310818
 20
468.5412918221866
 10
103.1756310721817
 20
468.3483468183863
 10
102.9826860674817
 20
468.1715454612866
 10
102.7750653458818
 20
468.0122329248866
 10
102.5543484508817
 20
467.8716214149868
 10
102.3222145518818
 20
467.7507809565866
 10
102.0804297066816
 20
467.6506312579864
 10
101.8308334602817
 20
467.5719347065865
 10
101.5753248749818
 20
467.5152905496868
 10
101.3158481099817
 20
467.4811303124868
 10
101.0543776525819
 20
467.4697144844866
  0
LINE
  5
22472
330
1E
100
AcDbEntity
  8
130
100
AcDbLine
 10
104.0542634217819
 20
480.9459623810115
 30
0.0
 11
104.0542634217819
 21
470.4458359657117
 31
0.0
  0
LWPOLYLINE
  5
22473
330
1E
100
AcDbEntity
  8
10
100
AcDbPolyline
 90
       13
 70
     0
 43
0.0
 10
104.5542672297817
 20
481.4459501965114
 10
104.4890011507817
 20
481.4416725184115
 10
104.4248524583817
 20
481.4289127807115
 10
104.3629187765817
 20
481.4078894780114
 10
104.3042597619818
 20
481.3789624967117
 10
104.2498789760817
 20
481.3426269304115
 10
104.2007067274816
 20
481.2995045846117
 10
104.1575841800819
 20
481.2503333240115
 10
104.1212489837819
 20
481.1959544386115
 10
104.0923226828818
 20
481.1372982565115
 10
104.0713001033817
 20
481.0753682396113
 10
104.0585409027817
 20
481.0112238362115
 10
104.0542634217819
 20
480.9459623810115
  0
LINE
  5
22474
330
1E
100
AcDbEntity
  8
130
100
AcDbLine
 10
89.02936477462359
 20
467.4697144844866
 30
0.0
 11
101.0543776525819
 21
467.4697144844866
 31
0.0
  0
CIRCLE
  5
22475
330
1E
100
AcDbEntity
  8
24
100
AcDbCircle
 10
95.04187121360272
 20
473.9314573848613
 30
0.0
 40
3.0
  0
LINE
  5
22476
330
1E
100
AcDbEntity
  8
10
  6
SLD-実線
 62
     7
370
    30
100
AcDbLine
 10
116.0418702039778
 20
480.9707104184866
 30
0.0
 11
116.0418702039778
 21
480.9687732674866
 31
0.0
  0
LINE
  5
22477
330
1E
100
AcDbEntity
  8
10
  6
SLD-実線
 62
     7
370
    30
100
AcDbLine
 10
115.5430240307278
 20
481.4697130539865
 30
0.0
 11
115.5406100424778
 21
481.4697130539865
 31
0.0
  0
LINE
  5
22478
330
1E
100
AcDbEntity
  8
10
  6
SLD-実線
 62
     7
370
    30
100
AcDbLine
 10
134.5431314532278
 20
481.4697130539865
 30
0.0
 11
134.5407174649778
 21
481.4697130539865
 31
0.0
  0
LINE
  5
22479
330
1E
100
AcDbEntity
  8
10
  6
SLD-実線
 62
     8
370
     0
100
AcDbLine
 10
116.0383237274778
 20
480.9699951627366
 30
0.0
 11
116.0418702039778
 21
480.9707104184866
 31
0.0
  0
LINE
  5
2247A
330
1E
100
AcDbEntity
  8
10
  6
SLD-実線
 62
     8
370
     0
100
AcDbLine
 10
134.5407174649778
 20
481.4697130539865
 30
0.0
 11
134.5453424129778
 21
481.4687817314866
 31
0.0
  0
LINE
  5
2247B
330
1E
100
AcDbEntity
  8
10
  6
SLD-実線
 62
     8
370
     0
100
AcDbLine
 10
115.5384009454778
 20
481.4687817314866
 30
0.0
 11
115.5430240307278
 21
481.4697130539865
 31
0.0
  0
LINE
  5
2247C
330
1E
100
AcDbEntity
  8
17
100
AcDbLine
 10
125.0418716792278
 20
480.9314573848612
 30
0.0
 11
125.0418716792278
 21
466.9314573848612
 31
0.0
  0
LINE
  5
2247D
330
1E
100
AcDbEntity
  8
17
100
AcDbLine
 10
118.0418716792279
 20
473.9314573848615
 30
0.0
 11
132.0418716792276
 21
473.9314573848615
 31
0.0
  0
LWPOLYLINE
  5
2247E
330
1E
100
AcDbEntity
  8
130
100
AcDbPolyline
 90
       19
 70
     0
 43
0.0
 10
116.0294794710486
 20
470.4696002536869
 10
116.0408952991487
 20
470.2081297952864
 10
116.0750555368488
 20
469.9486530280867
 10
116.1316996948488
 20
469.6931444397867
 10
116.2103962479487
 20
469.4435481901867
 10
116.3105459489486
 20
469.2017633418868
 10
116.4313864101488
 20
468.9696294404867
 10
116.5719979229488
 20
468.7489125440865
 10
116.7313104617486
 20
468.5412918221866
 10
116.9081118206487
 20
468.3483468183863
 10
117.1010568253488
 20
468.1715454612866
 10
117.3086775469486
 20
468.0122329248866
 10
117.5293944419487
 20
467.8716214149868
 10
117.7615283409487
 20
467.7507809565866
 10
118.0033131861488
 20
467.6506312579864
 10
118.2529094325488
 20
467.5719347065865
 10
118.5084180178486
 20
467.5152905496868
 10
118.7678947828488
 20
467.4811303124868
 10
119.0293652402486
 20
467.4697144844866
  0
LINE
  5
2247F
330
1E
100
AcDbEntity
  8
130
100
AcDbLine
 10
116.0294794710486
 20
480.9459623810115
 30
0.0
 11
116.0294794710486
 21
470.4458359657117
 31
0.0
  0
LWPOLYLINE
  5
22480
330
1E
100
AcDbEntity
  8
10
100
AcDbPolyline
 90
       13
 70
     0
 43
0.0
 10
115.5294756630487
 20
481.4459501965114
 10
115.5947417420488
 20
481.4416725184115
 10
115.6588904344487
 20
481.4289127807115
 10
115.7208241162488
 20
481.4078894780114
 10
115.7794831308487
 20
481.3789624967117
 10
115.8338639167488
 20
481.3426269304115
 10
115.8830361653488
 20
481.2995045846117
 10
115.9261587127486
 20
481.2503333240115
 10
115.9624939090486
 20
481.1959544386115
 10
115.9914202099486
 20
481.1372982565115
 10
116.0124427894487
 20
481.0753682396113
 10
116.0252019900488
 20
481.0112238362115
 10
116.0294794710486
 20
480.9459623810115
  0
LWPOLYLINE
  5
22481
330
1E
100
AcDbEntity
  8
130
100
AcDbPolyline
 90
       19
 70
     0
 43
0.0
 10
134.0542638874069
 20
470.4696002536869
 10
134.0428480593068
 20
470.2081297952864
 10
134.0086878216067
 20
469.9486530280867
 10
133.9520436636067
 20
469.6931444397867
 10
133.8733471105068
 20
469.4435481901867
 10
133.7731974095069
 20
469.2017633418868
 10
133.6523569483067
 20
468.9696294404867
 10
133.5117454355067
 20
468.7489125440865
 10
133.3524328967068
 20
468.5412918221866
 10
133.1756315378067
 20
468.3483468183863
 10
132.9826865331067
 20
468.1715454612866
 10
132.7750658115069
 20
468.0122329248866
 10
132.5543489165067
 20
467.8716214149868
 10
132.3222150175068
 20
467.7507809565866
 10
132.0804301723067
 20
467.6506312579864
 10
131.8308339259067
 20
467.5719347065865
 10
131.5753253406069
 20
467.5152905496868
 10
131.3158485756067
 20
467.4811303124868
 10
131.0543781182069
 20
467.4697144844866
  0
LINE
  5
22482
330
1E
100
AcDbEntity
  8
130
100
AcDbLine
 10
134.0542638874069
 20
480.9459623810115
 30
0.0
 11
134.0542638874069
 21
470.4458359657117
 31
0.0
  0
LWPOLYLINE
  5
22483
330
1E
100
AcDbEntity
  8
10
100
AcDbPolyline
 90
       13
 70
     0
 43
0.0
 10
134.5542676954067
 20
481.4459501965114
 10
134.4890016164067
 20
481.4416725184115
 10
134.4248529240068
 20
481.4289127807115
 10
134.3629192422067
 20
481.4078894780114
 10
134.3042602276068
 20
481.3789624967117
 10
134.2498794417067
 20
481.3426269304115
 10
134.2007071931067
 20
481.2995045846117
 10
134.1575846457069
 20
481.2503333240115
 10
134.1212494494069
 20
481.1959544386115
 10
134.0923231485069
 20
481.1372982565115
 10
134.0713005690067
 20
481.0753682396113
 10
134.0585413684067
 20
481.0112238362115
 10
134.0542638874069
 20
480.9459623810115
  0
LINE
  5
22484
330
1E
100
AcDbEntity
  8
130
100
AcDbLine
 10
119.0293652402486
 20
467.4697144844866
 30
0.0
 11
131.0543781182069
 21
467.4697144844866
 31
0.0
  0
CIRCLE
  5
22485
330
1E
100
AcDbEntity
  8
24
100
AcDbCircle
 10
125.0418716792278
 20
473.9314573848613
 30
0.0
 40
3.0
  0
LWPOLYLINE
  5
22487
330
1E
100
AcDbEntity
  8
10
100
AcDbPolyline
 90
        4
 70
     0
 43
0.0
 10
50.24187327672774
 20
481.4697145142361
 10
50.24187327672774
 20
506.4314599478613
 10
139.8418700819779
 20
506.4314599478613
 10
139.8418700819779
 20
481.4697145142361
  0
CIRCLE
  5
22492
330
1E
100
AcDbEntity
  8
10
100
AcDbCircle
 10
80.04187167922777
 20
491.9314573848613
 30
0.0
 40
2.5
  0
LWPOLYLINE
  5
22493
330
1E
100
AcDbEntity
  8
10
100
AcDbPolyline
 90
        4
 70
     1
 43
0.0
 10
77.29187167922777
 20
481.4697145142361
 10
82.79187167922776
 20
481.4697145142361
 10
82.79187167922776
 20
499.4314573848613
 10
77.29187167922777
 20
499.4314573848613
  0
LWPOLYLINE
  5
2249F
330
1E
100
AcDbEntity
  8
10
100
AcDbPolyline
 90
       13
 70
     0
 43
0.0
 10
74.55426836615671
 20
481.4459502262613
 10
74.48900228715668
 20
481.4416725481613
 10
74.42485359475674
 20
481.4289128104617
 10
74.3629199129567
 20
481.4078895077613
 10
74.30426089835676
 20
481.3789625264615
 10
74.24988011245668
 20
481.3426269601615
 10
74.20070786385664
 20
481.2995046143616
 10
74.15758531645687
 20
481.2503333537613
 10
74.12125012015687
 20
481.1959544683615
 10
74.09232381925683
 20
481.1372982862613
 10
74.07130123975669
 20
481.0753682693613
 10
74.05854203915666
 20
481.0112238659614
 10
74.05426455815685
 20
480.9459624107613
  0
CIRCLE
  5
224A0
330
1E
100
AcDbEntity
  8
10
100
AcDbCircle
 10
110.0418716792277
 20
491.9314573848613
 30
0.0
 40
2.5
  0
LWPOLYLINE
  5
224A1
330
1E
100
AcDbEntity
  8
10
100
AcDbPolyline
 90
        4
 70
     1
 43
0.0
 10
107.2918716792278
 20
481.4697145142361
 10
112.7918716792277
 20
481.4697145142361
 10
112.7918716792277
 20
499.4314573848613
 10
107.2918716792278
 20
499.4314573848613
  0
LWPOLYLINE
  5
224B9
330
1E
100
AcDbEntity
  8
130
100
AcDbPolyline
 90
        4
 70
     1
 43
0.0
 10
52.97568625254587
 20
441.5633761977085
 10
136.9805247636424
 20
441.5633761977085
 10
136.9805247636424
 20
391.5615731870176
 10
52.97568625254587
 20
391.5615731870176
  0
LWPOLYLINE
  5
224BA
330
1E
100
AcDbEntity
  8
130
100
AcDbPolyline
 90
        4
 70
     1
 43
0.0
 10
87.55760116045241
 20
403.237554466751
 10
102.5261412667531
 20
403.237554466751
 10
102.5261412667531
 20
430.3961856062609
 10
87.55760116045241
 20
430.3961856062609
  0
LWPOLYLINE
  5
224BB
330
1E
100
AcDbEntity
  8
130
100
AcDbPolyline
 90
        4
 70
     1
 43
0.0
 10
88.64263265934761
 20
427.6480319725949
 10
101.6426326593476
 20
427.6480319725949
 10
101.6426326593476
 20
422.6480319725949
 10
88.64263265934761
 20
422.6480319725949
  0
LWPOLYLINE
  5
224BC
330
1E
100
AcDbEntity
  8
130
100
AcDbPolyline
 90
        4
 70
     1
 43
0.0
 10
84.01885800238016
 20
438.5739337521835
 10
106.0651543214931
 20
438.5739337521835
 10
106.0651543215263
 20
394.3654960463961
 10
84.01885050533712
 20
394.3654960463961
  0
LINE
  5
224D2
330
1E
100
AcDbEntity
  8
10
  6
SLD-実線
 62
     7
370
    30
100
AcDbLine
 10
56.04187087472776
 20
351.9687185802362
 30
0.0
 11
56.04187087472776
 21
351.9706557312361
 31
0.0
  0
LINE
  5
224D3
330
1E
100
AcDbEntity
  8
10
  6
SLD-実線
 62
     7
370
    30
100
AcDbLine
 10
55.54302470147781
 20
351.4697159447361
 30
0.0
 11
55.54061071322775
 21
351.4697159447361
 31
0.0
  0
LINE
  5
224D4
330
1E
100
AcDbEntity
  8
10
  6
SLD-実線
 62
     8
370
     0
100
AcDbLine
 10
56.03832439822776
 20
351.9694338359861
 30
0.0
 11
56.04187087472776
 21
351.9687185802362
 31
0.0
  0
LINE
  5
224D5
330
1E
100
AcDbEntity
  8
10
  6
SLD-実線
 62
     8
370
     0
100
AcDbLine
 10
55.53840161622776
 20
351.4706472672362
 30
0.0
 11
55.54302470147781
 21
351.4697159447361
 31
0.0
  0
CIRCLE
  5
224D6
330
1E
100
AcDbEntity
  8
12
  6
SLD-実線
370
     0
100
AcDbCircle
 10
110.0418716792277
 20
360.5079716436113
 30
0.0
 40
4.332040220405366
  0
DIMENSION
  5
224D7
330
1E
100
AcDbEntity
  8
30
100
AcDbDimension
280
     0
  2
*D19
 10
110.0418716792277
 20
308.5079716436114
 30
0.0
 11
95.04187167922777
 21
308.5079716436114
 31
0.0
 70
   160
  1
<>
 71
     2
 42
30.0
 73
     0
 74
     0
 75
     0
  3
STANDARD
100
AcDbAlignedDimension
 13
80.04187167922777
 23
341.0079716436113
 33
0.0
 14
110.0418716792277
 24
341.0079716436113
 34
0.0
100
AcDbRotatedDimension
  0
LINE
  5
224D8
330
1E
100
AcDbEntity
  8
12
  6
DASHDOT
100
AcDbLine
 10
104.5418720147277
 20
360.5079709283615
 30
0.0
 11
115.541872014728
 21
360.5079709283615
 31
0.0
  0
LINE
  5
224D9
330
1E
100
AcDbEntity
  8
12
  6
DASHDOT
100
AcDbLine
 10
110.0418720147278
 20
355.0079709283612
 30
0.0
 11
110.0418720147278
 21
366.0079709283615
 31
0.0
  0
LINE
  5
224DA
330
1E
100
AcDbEntity
  8
17
100
AcDbLine
 10
65.04187234997772
 20
352.0079716138613
 30
0.0
 11
65.04187234997772
 21
366.0079716138615
 31
0.0
  0
LINE
  5
224DB
330
1E
100
AcDbEntity
  8
17
100
AcDbLine
 10
58.04187234997783
 20
359.0079716138613
 30
0.0
 11
72.0418723499776
 21
359.0079716138613
 31
0.0
  0
LWPOLYLINE
  5
224DC
330
1E
100
AcDbEntity
  8
130
100
AcDbPolyline
 90
       19
 70
     0
 43
0.0
 10
56.02948014179858
 20
362.4698287450358
 10
56.04089596989869
 20
362.7312992034362
 10
56.0750562075988
 20
362.990775970636
 10
56.1317003655987
 20
363.2462845589362
 10
56.21039691869864
 20
363.495880808536
 10
56.31054661969861
 20
363.7376656568359
 10
56.43138708089876
 20
363.969799558236
 10
56.57199859369874
 20
364.1905164546362
 10
56.73131113249864
 20
364.398137176536
 10
56.90811249139873
 20
364.5910821803362
 10
57.10105749609877
 20
364.7678835374362
 10
57.3086782176986
 20
364.9271960738361
 10
57.52939511269872
 20
365.067807583736
 10
57.76152901169862
 20
365.1886480421361
 10
58.00331385689881
 20
365.2887977407362
 10
58.25291010329877
 20
365.367494292136
 10
58.50841868859859
 20
365.4241384490358
 10
58.76789545359875
 20
365.4582986862359
 10
59.02936591099856
 20
365.4697145142362
  0
LINE
  5
224DD
330
1E
100
AcDbEntity
  8
130
100
AcDbLine
 10
56.02948014179858
 20
351.9934666177111
 30
0.0
 11
56.02948014179858
 21
362.493593033011
 31
0.0
  0
LWPOLYLINE
  5
224DE
330
1E
100
AcDbEntity
  8
10
100
AcDbPolyline
 90
       13
 70
     0
 43
0.0
 10
55.52947633379872
 20
351.4934788022114
 10
55.59474241279874
 20
351.4977564803112
 10
55.6588911051987
 20
351.510516218011
 10
55.72082478699875
 20
351.5315395207114
 10
55.77948380159867
 20
351.5604665020112
 10
55.83386458749877
 20
351.5968020683112
 10
55.88303683609878
 20
351.639924414111
 10
55.92615938349857
 20
351.6890956747113
 10
55.96249457979857
 20
351.7434745601112
 10
55.99142088069861
 20
351.8021307422113
 10
56.01244346019875
 20
351.8640607591113
 10
56.02520266079878
 20
351.9282051625113
 10
56.02948014179858
 20
351.9934666177111
  0
LWPOLYLINE
  5
224DF
330
1E
100
AcDbEntity
  8
130
100
AcDbPolyline
 90
       19
 70
     0
 43
0.0
 10
74.05426455815685
 20
362.4698287450358
 10
74.04284873005676
 20
362.7312992034362
 10
74.00868849235664
 20
362.990775970636
 10
73.9520443343567
 20
363.2462845589362
 10
73.8733477812568
 20
363.495880808536
 10
73.77319808025681
 20
363.7376656568359
 10
73.65235761905669
 20
363.969799558236
 10
73.51174610625671
 20
364.1905164546362
 10
73.35243356745682
 20
364.398137176536
 10
73.17563220855672
 20
364.5910821803362
 10
72.98268720385667
 20
364.7678835374362
 10
72.77506648225685
 20
364.9271960738361
 10
72.55434958725672
 20
365.067807583736
 10
72.32221568825682
 20
365.1886480421361
 10
72.08043084305661
 20
365.2887977407362
 10
71.83083459665667
 20
365.367494292136
 10
71.57532601135684
 20
365.4241384490358
 10
71.31584924635669
 20
365.4582986862359
 10
71.05437878895687
 20
365.4697145142362
  0
LINE
  5
224E0
330
1E
100
AcDbEntity
  8
130
100
AcDbLine
 10
74.05426455815685
 20
351.9934666177111
 30
0.0
 11
74.05426455815685
 21
362.493593033011
 31
0.0
  0
LINE
  5
224E1
330
1E
100
AcDbEntity
  8
130
100
AcDbLine
 10
59.02936591099856
 20
365.4697145142362
 30
0.0
 11
71.05437878895687
 21
365.4697145142362
 31
0.0
  0
LINE
  5
224E2
330
1E
100
AcDbEntity
  8
130
100
AcDbLine
 10
50.04187167922776
 20
365.4697145142362
 30
0.0
 11
140.0418716792277
 21
365.4697145142362
 31
0.0
  0
CIRCLE
  5
224E3
330
1E
100
AcDbEntity
  8
24
100
AcDbCircle
 10
65.04187234997772
 20
359.0079716138613
 30
0.0
 40
3.0
  0
LWPOLYLINE
  5
224E4
330
1E
100
AcDbEntity
  8
130
100
AcDbPolyline
 90
        4
 70
     1
 43
0.0
 10
105.5203651762277
 20
355.9864668838613
 10
114.5418718209777
 20
355.9864668838613
 10
114.5418718209777
 20
364.9992442421113
 10
105.5203651762277
 20
364.9992442421113
  0
LINE
  5
224E5
330
1E
100
AcDbEntity
  8
10
  6
SLD-実線
 62
     7
370
    30
100
AcDbLine
 10
86.04186973835275
 20
351.968718609986
 30
0.0
 11
86.04186973835275
 21
351.970655760986
 31
0.0
  0
LINE
  5
224E6
330
1E
100
AcDbEntity
  8
10
  6
SLD-実線
 62
     7
370
    30
100
AcDbLine
 10
104.5431309876027
 20
351.469715974486
 30
0.0
 11
104.5407169993528
 21
351.469715974486
 31
0.0
  0
LINE
  5
224E7
330
1E
100
AcDbEntity
  8
10
  6
SLD-実線
 62
     8
370
     0
100
AcDbLine
 10
86.03832326185278
 20
351.9694338657362
 30
0.0
 11
86.04186973835275
 21
351.968718609986
 31
0.0
  0
LINE
  5
224E8
330
1E
100
AcDbEntity
  8
10
  6
SLD-実線
 62
     8
370
     0
100
AcDbLine
 10
104.5407169993528
 20
351.469715974486
 30
0.0
 11
104.5453419473528
 21
351.470647296986
 31
0.0
  0
LINE
  5
224E9
330
1E
100
AcDbEntity
  8
17
100
AcDbLine
 10
95.04187121360272
 20
352.0079716436112
 30
0.0
 11
95.04187121360272
 21
366.0079716436114
 31
0.0
  0
LINE
  5
224EA
330
1E
100
AcDbEntity
  8
17
100
AcDbLine
 10
88.04187121360286
 20
359.0079716436112
 30
0.0
 11
102.0418712136026
 21
359.0079716436112
 31
0.0
  0
LWPOLYLINE
  5
224EB
330
1E
100
AcDbEntity
  8
130
100
AcDbPolyline
 90
       19
 70
     0
 43
0.0
 10
86.02947900542359
 20
362.4698287747857
 10
86.04089483352371
 20
362.731299233186
 10
86.07505507122381
 20
362.990776000386
 10
86.13169922922372
 20
363.2462845886859
 10
86.21039578232368
 20
363.4958808382859
 10
86.31054548332363
 20
363.7376656865858
 10
86.43138594452379
 20
363.9697995879858
 10
86.57199745732375
 20
364.1905164843862
 10
86.73130999612366
 20
364.3981372062859
 10
86.90811135502375
 20
364.5910822100861
 10
87.1010563597238
 20
364.767883567186
 10
87.30867708132363
 20
364.927196103586
 10
87.52939397632372
 20
365.0678076134858
 10
87.76152787532366
 20
365.1886480718861
 10
88.00331272052384
 20
365.2887977704862
 10
88.25290896692377
 20
365.3674943218859
 10
88.5084175522236
 20
365.4241384787858
 10
88.76789431722377
 20
365.4582987159859
 10
89.02936477462359
 20
365.469714543986
  0
LINE
  5
224EC
330
1E
100
AcDbEntity
  8
130
100
AcDbLine
 10
86.02947900542359
 20
351.9934666474611
 30
0.0
 11
86.02947900542359
 21
362.493593062761
 31
0.0
  0
LWPOLYLINE
  5
224ED
330
1E
100
AcDbEntity
  8
10
100
AcDbPolyline
 90
       13
 70
     0
 43
0.0
 10
85.52947519742373
 20
351.4934788319613
 10
85.59474127642378
 20
351.4977565100611
 10
85.65888996882375
 20
351.510516247761
 10
85.72082365062376
 20
351.5315395504613
 10
85.77948266522367
 20
351.560466531761
 10
85.83386345112378
 20
351.5968020980611
 10
85.88303569972381
 20
351.639924443861
 10
85.92615824712359
 20
351.6890957044612
 10
85.96249344342359
 20
351.7434745898611
 10
85.99141974432361
 20
351.8021307719612
 10
86.01244232382375
 20
351.8640607888613
 10
86.02520152442378
 20
351.9282051922612
 10
86.02947900542359
 20
351.9934666474611
  0
LWPOLYLINE
  5
224EE
330
1E
100
AcDbEntity
  8
130
100
AcDbPolyline
 90
       19
 70
     0
 43
0.0
 10
104.0542634217819
 20
362.4698287747857
 10
104.0428475936818
 20
362.731299233186
 10
104.0086873559816
 20
362.990776000386
 10
103.9520431979817
 20
363.2462845886859
 10
103.8733466448818
 20
363.4958808382859
 10
103.7731969438818
 20
363.7376656865858
 10
103.6523564826817
 20
363.9697995879858
 10
103.5117449698817
 20
364.1905164843862
 10
103.3524324310818
 20
364.3981372062859
 10
103.1756310721817
 20
364.5910822100861
 10
102.9826860674817
 20
364.767883567186
 10
102.7750653458818
 20
364.927196103586
 10
102.5543484508817
 20
365.0678076134858
 10
102.3222145518818
 20
365.1886480718861
 10
102.0804297066816
 20
365.2887977704862
 10
101.8308334602817
 20
365.3674943218859
 10
101.5753248749818
 20
365.4241384787858
 10
101.3158481099817
 20
365.4582987159859
 10
101.0543776525819
 20
365.469714543986
  0
LINE
  5
224EF
330
1E
100
AcDbEntity
  8
130
100
AcDbLine
 10
104.0542634217819
 20
351.9934666474611
 30
0.0
 11
104.0542634217819
 21
362.493593062761
 31
0.0
  0
LWPOLYLINE
  5
224F0
330
1E
100
AcDbEntity
  8
10
100
AcDbPolyline
 90
       13
 70
     0
 43
0.0
 10
104.5542672297817
 20
351.4934788319613
 10
104.4890011507817
 20
351.4977565100611
 10
104.4248524583817
 20
351.510516247761
 10
104.3629187765817
 20
351.5315395504613
 10
104.3042597619818
 20
351.560466531761
 10
104.2498789760817
 20
351.5968020980611
 10
104.2007067274816
 20
351.639924443861
 10
104.1575841800819
 20
351.6890957044612
 10
104.1212489837819
 20
351.7434745898611
 10
104.0923226828818
 20
351.8021307719612
 10
104.0713001033817
 20
351.8640607888613
 10
104.0585409027817
 20
351.9282051922612
 10
104.0542634217819
 20
351.9934666474611
  0
LINE
  5
224F1
330
1E
100
AcDbEntity
  8
130
100
AcDbLine
 10
89.02936477462359
 20
365.469714543986
 30
0.0
 11
101.0543776525819
 21
365.469714543986
 31
0.0
  0
CIRCLE
  5
224F2
330
1E
100
AcDbEntity
  8
24
100
AcDbCircle
 10
95.04187121360272
 20
359.0079716436112
 30
0.0
 40
3.0
  0
LINE
  5
224F3
330
1E
100
AcDbEntity
  8
10
  6
SLD-実線
 62
     7
370
    30
100
AcDbLine
 10
116.0418702039778
 20
351.968718609986
 30
0.0
 11
116.0418702039778
 21
351.970655760986
 31
0.0
  0
LINE
  5
224F4
330
1E
100
AcDbEntity
  8
10
  6
SLD-実線
 62
     7
370
    30
100
AcDbLine
 10
115.5430240307278
 20
351.469715974486
 30
0.0
 11
115.5406100424778
 21
351.469715974486
 31
0.0
  0
LINE
  5
224F5
330
1E
100
AcDbEntity
  8
10
  6
SLD-実線
 62
     7
370
    30
100
AcDbLine
 10
134.5431314532278
 20
351.469715974486
 30
0.0
 11
134.5407174649778
 21
351.469715974486
 31
0.0
  0
LINE
  5
224F6
330
1E
100
AcDbEntity
  8
10
  6
SLD-実線
 62
     8
370
     0
100
AcDbLine
 10
116.0383237274778
 20
351.9694338657362
 30
0.0
 11
116.0418702039778
 21
351.968718609986
 31
0.0
  0
LINE
  5
224F7
330
1E
100
AcDbEntity
  8
10
  6
SLD-実線
 62
     8
370
     0
100
AcDbLine
 10
134.5407174649778
 20
351.469715974486
 30
0.0
 11
134.5453424129778
 21
351.470647296986
 31
0.0
  0
LINE
  5
224F8
330
1E
100
AcDbEntity
  8
10
  6
SLD-実線
 62
     8
370
     0
100
AcDbLine
 10
115.5384009454778
 20
351.470647296986
 30
0.0
 11
115.5430240307278
 21
351.469715974486
 31
0.0
  0
LINE
  5
224F9
330
1E
100
AcDbEntity
  8
17
100
AcDbLine
 10
125.0418716792278
 20
352.0079716436112
 30
0.0
 11
125.0418716792278
 21
366.0079716436114
 31
0.0
  0
LINE
  5
224FA
330
1E
100
AcDbEntity
  8
17
100
AcDbLine
 10
118.0418716792279
 20
359.0079716436112
 30
0.0
 11
132.0418716792276
 21
359.0079716436112
 31
0.0
  0
LWPOLYLINE
  5
224FB
330
1E
100
AcDbEntity
  8
130
100
AcDbPolyline
 90
       19
 70
     0
 43
0.0
 10
116.0294794710486
 20
362.4698287747857
 10
116.0408952991487
 20
362.731299233186
 10
116.0750555368488
 20
362.990776000386
 10
116.1316996948488
 20
363.2462845886859
 10
116.2103962479487
 20
363.4958808382859
 10
116.3105459489486
 20
363.7376656865858
 10
116.4313864101488
 20
363.9697995879858
 10
116.5719979229488
 20
364.1905164843862
 10
116.7313104617486
 20
364.3981372062859
 10
116.9081118206487
 20
364.5910822100861
 10
117.1010568253488
 20
364.767883567186
 10
117.3086775469486
 20
364.927196103586
 10
117.5293944419487
 20
365.0678076134858
 10
117.7615283409487
 20
365.1886480718861
 10
118.0033131861488
 20
365.2887977704862
 10
118.2529094325488
 20
365.3674943218859
 10
118.5084180178486
 20
365.4241384787858
 10
118.7678947828488
 20
365.4582987159859
 10
119.0293652402486
 20
365.469714543986
  0
LINE
  5
224FC
330
1E
100
AcDbEntity
  8
130
100
AcDbLine
 10
116.0294794710486
 20
351.9934666474611
 30
0.0
 11
116.0294794710486
 21
362.493593062761
 31
0.0
  0
LWPOLYLINE
  5
224FD
330
1E
100
AcDbEntity
  8
10
100
AcDbPolyline
 90
       13
 70
     0
 43
0.0
 10
115.5294756630487
 20
351.4934788319613
 10
115.5947417420488
 20
351.4977565100611
 10
115.6588904344487
 20
351.510516247761
 10
115.7208241162488
 20
351.5315395504613
 10
115.7794831308487
 20
351.560466531761
 10
115.8338639167488
 20
351.5968020980611
 10
115.8830361653488
 20
351.639924443861
 10
115.9261587127486
 20
351.6890957044612
 10
115.9624939090486
 20
351.7434745898611
 10
115.9914202099486
 20
351.8021307719612
 10
116.0124427894487
 20
351.8640607888613
 10
116.0252019900488
 20
351.9282051922612
 10
116.0294794710486
 20
351.9934666474611
  0
LWPOLYLINE
  5
224FE
330
1E
100
AcDbEntity
  8
130
100
AcDbPolyline
 90
       19
 70
     0
 43
0.0
 10
134.0542638874069
 20
362.4698287747857
 10
134.0428480593068
 20
362.731299233186
 10
134.0086878216067
 20
362.990776000386
 10
133.9520436636067
 20
363.2462845886859
 10
133.8733471105068
 20
363.4958808382859
 10
133.7731974095069
 20
363.7376656865858
 10
133.6523569483067
 20
363.9697995879858
 10
133.5117454355067
 20
364.1905164843862
 10
133.3524328967068
 20
364.3981372062859
 10
133.1756315378067
 20
364.5910822100861
 10
132.9826865331067
 20
364.767883567186
 10
132.7750658115069
 20
364.927196103586
 10
132.5543489165067
 20
365.0678076134858
 10
132.3222150175068
 20
365.1886480718861
 10
132.0804301723067
 20
365.2887977704862
 10
131.8308339259067
 20
365.3674943218859
 10
131.5753253406069
 20
365.4241384787858
 10
131.3158485756067
 20
365.4582987159859
 10
131.0543781182069
 20
365.469714543986
  0
LINE
  5
224FF
330
1E
100
AcDbEntity
  8
130
100
AcDbLine
 10
134.0542638874069
 20
351.9934666474611
 30
0.0
 11
134.0542638874069
 21
362.493593062761
 31
0.0
  0
LWPOLYLINE
  5
22500
330
1E
100
AcDbEntity
  8
10
100
AcDbPolyline
 90
       13
 70
     0
 43
0.0
 10
134.5542676954067
 20
351.4934788319613
 10
134.4890016164067
 20
351.4977565100611
 10
134.4248529240068
 20
351.510516247761
 10
134.3629192422067
 20
351.5315395504613
 10
134.3042602276068
 20
351.560466531761
 10
134.2498794417067
 20
351.5968020980611
 10
134.2007071931067
 20
351.639924443861
 10
134.1575846457069
 20
351.6890957044612
 10
134.1212494494069
 20
351.7434745898611
 10
134.0923231485069
 20
351.8021307719612
 10
134.0713005690067
 20
351.8640607888613
 10
134.0585413684067
 20
351.9282051922612
 10
134.0542638874069
 20
351.9934666474611
  0
LINE
  5
22501
330
1E
100
AcDbEntity
  8
130
100
AcDbLine
 10
119.0293652402486
 20
365.469714543986
 30
0.0
 11
131.0543781182069
 21
365.469714543986
 31
0.0
  0
CIRCLE
  5
22502
330
1E
100
AcDbEntity
  8
24
100
AcDbCircle
 10
125.0418716792278
 20
359.0079716436112
 30
0.0
 40
3.0
  0
LWPOLYLINE
  5
22503
330
1E
100
AcDbEntity
  8
10
100
AcDbPolyline
 90
        4
 70
     0
 43
0.0
 10
50.24187327672774
 20
351.4697145142363
 10
50.24187327672774
 20
326.5079690806112
 10
139.8418700819779
 20
326.5079690806112
 10
139.8418700819779
 20
351.4697145142363
  0
CIRCLE
  5
22504
330
1E
100
AcDbEntity
  8
10
100
AcDbCircle
 10
80.04187167922777
 20
341.0079716436113
 30
0.0
 40
2.5
  0
LWPOLYLINE
  5
22505
330
1E
100
AcDbEntity
  8
10
100
AcDbPolyline
 90
        4
 70
     1
 43
0.0
 10
77.29187167922777
 20
351.4697145142363
 10
82.79187167922776
 20
351.4697145142363
 10
82.79187167922776
 20
333.5079716436113
 10
77.29187167922777
 20
333.5079716436113
  0
LWPOLYLINE
  5
22506
330
1E
100
AcDbEntity
  8
10
100
AcDbPolyline
 90
       13
 70
     0
 43
0.0
 10
74.55426836615671
 20
351.4934788022114
 10
74.48900228715668
 20
351.4977564803112
 10
74.42485359475674
 20
351.510516218011
 10
74.3629199129567
 20
351.5315395207114
 10
74.30426089835676
 20
351.5604665020112
 10
74.24988011245668
 20
351.5968020683112
 10
74.20070786385664
 20
351.639924414111
 10
74.15758531645687
 20
351.6890956747113
 10
74.12125012015687
 20
351.7434745601112
 10
74.09232381925683
 20
351.8021307422113
 10
74.07130123975669
 20
351.8640607591113
 10
74.05854203915666
 20
351.9282051625113
 10
74.05426455815685
 20
351.9934666177111
  0
CIRCLE
  5
22507
330
1E
100
AcDbEntity
  8
10
100
AcDbCircle
 10
110.0418716792277
 20
341.0079716436113
 30
0.0
 40
2.5
  0
LWPOLYLINE
  5
22508
330
1E
100
AcDbEntity
  8
10
100
AcDbPolyline
 90
        4
 70
     1
 43
0.0
 10
107.2918716792278
 20
351.4697145142363
 10
112.7918716792277
 20
351.4697145142363
 10
112.7918716792277
 20
333.5079716436113
 10
107.2918716792278
 20
333.5079716436113
  0
ARC
  5
22670
330
1E
100
AcDbEntity
  8
24
100
AcDbCircle
 10
369.8737343157761
 20
596.5645843697333
 30
0.0
 40
7.999832079429983
100
AcDbArc
 50
187.3899774096993
 51
195.7406834442985
  0
ARC
  5
22671
330
1E
100
AcDbEntity
  8
24
100
AcDbCircle
 10
369.8739270955262
 20
596.5645982917334
 30
0.0
 40
8.00002878790144
100
AcDbArc
 50
164.2594075884002
 51
172.6098948236004
  0
LINE
  5
22672
330
1E
100
AcDbEntity
  8
24
100
AcDbLine
 10
385.3739007545259
 20
594.0646124172332
 30
0.0
 11
390.0739020837763
 21
594.0646124172332
 31
0.0
  0
LINE
  5
22673
330
1E
100
AcDbEntity
  8
24
100
AcDbLine
 10
390.0739020837763
 20
599.0646132367333
 30
0.0
 11
385.3739007545259
 21
599.0646132367333
 31
0.0
  0
LINE
  5
22674
330
1E
100
AcDbEntity
  8
24
100
AcDbLine
 10
390.0739020837763
 20
594.0646124172332
 30
0.0
 11
390.5739030970262
 21
594.5646115677334
 31
0.0
  0
LINE
  5
22675
330
1E
100
AcDbEntity
  8
24
100
AcDbLine
 10
390.5739030970262
 20
598.5646122234832
 30
0.0
 11
390.0739020837763
 21
599.0646132367333
 31
0.0
  0
LINE
  5
2267E
330
1E
100
AcDbEntity
  8
24
100
AcDbLine
 10
379.373899771026
 20
601.5646127152332
 30
0.0
 11
378.3739014697762
 21
601.5646127152332
 31
0.0
  0
LINE
  5
2267F
330
1E
100
AcDbEntity
  8
24
100
AcDbLine
 10
378.3739014697762
 20
591.5646129387332
 30
0.0
 11
379.373899771026
 21
591.5646129387332
 31
0.0
  0
LINE
  5
22680
330
1E
100
AcDbEntity
  8
24
100
AcDbLine
 10
379.5488990082763
 20
591.9646122592332
 30
0.0
 11
380.4989001882761
 21
591.9646122592332
 31
0.0
  0
LINE
  5
22681
330
1E
100
AcDbEntity
  8
24
100
AcDbLine
 10
380.4989001882761
 20
601.1646115319834
 30
0.0
 11
379.5488990082763
 21
601.1646115319834
 31
0.0
  0
ARC
  5
22682
330
1E
100
AcDbEntity
  8
24
100
AcDbCircle
 10
380.4988995757762
 20
592.1396121087332
 30
0.0
 40
0.174999849525174
100
AcDbArc
 50
270.0002005223989
 51
0.0004093154010712
  0
ARC
  5
22683
330
1E
100
AcDbEntity
  8
24
100
AcDbCircle
 10
380.4988995757762
 20
600.9896116824831
 30
0.0
 40
0.1749998495194188
100
AcDbArc
 50
0.0002005216009705
 51
89.99979947839577
  0
ARC
  5
22684
330
1E
100
AcDbEntity
  8
24
100
AcDbCircle
 10
379.548899620526
 20
592.1396121087332
 30
0.0
 40
0.1749998495251917
100
AcDbArc
 50
179.9995906845989
 51
269.9997994776011
  0
ARC
  5
22685
330
1E
100
AcDbEntity
  8
24
100
AcDbCircle
 10
379.548899620526
 20
600.9896116824831
 30
0.0
 40
0.1749998495194188
100
AcDbArc
 50
90.00020052159118
 51
179.999799478399
  0
ARC
  5
22686
330
1E
100
AcDbEntity
  8
24
  6
Continuous
100
AcDbCircle
 10
393.168512377276
 20
554.7123562954833
 30
0.0
 40
55.10096109102964
100
AcDbArc
 50
105.5750306752995
 51
109.0610414346927
  0
ARC
  5
22687
330
1E
100
AcDbEntity
  8
10
100
AcDbCircle
 10
393.1683531127762
 20
554.7127685632333
 30
0.0
 40
55.10051854960792
100
AcDbArc
 50
111.2565201262019
 51
124.2293824521937
  0
ARC
  5
22689
330
1E
100
AcDbEntity
  8
24
100
AcDbCircle
 10
362.8889458847762
 20
595.6602398084832
 30
0.0
 40
0.9567441192496517
100
AcDbArc
 50
187.483731883399
 51
201.5633485484977
  0
ARC
  5
2268A
330
1E
100
AcDbEntity
  8
24
100
AcDbCircle
 10
366.038075278026
 20
596.2964966267334
 30
0.0
 40
4.157973046593212
100
AcDbArc
 50
193.7442854510023
 51
202.3475767364002
  0
ARC
  5
2268B
330
1E
100
AcDbEntity
  8
24
100
AcDbCircle
 10
366.3099554587761
 20
596.9426182499834
 30
0.0
 40
4.429606156138596
100
AcDbArc
 50
193.3003514127983
 51
201.6343326691007
  0
ARC
  5
2268C
330
1E
100
AcDbEntity
  8
24
100
AcDbCircle
 10
369.1083460265264
 20
596.8989950382332
 30
0.0
 40
7.175789760959322
100
AcDbArc
 50
182.6708813848023
 51
187.8126252253976
  0
ARC
  5
2268D
330
1E
100
AcDbEntity
  8
24
100
AcDbCircle
 10
369.1082936327761
 20
596.2302363939834
 30
0.0
 40
7.175737068197865
100
AcDbArc
 50
172.1873636164992
 51
177.3291600645002
  0
ARC
  5
2268E
330
1E
100
AcDbEntity
  8
24
100
AcDbCircle
 10
366.3101345087761
 20
596.1865510617334
 30
0.0
 40
4.429793365610766
100
AcDbArc
 50
158.3658437451041
 51
166.6994721730008
  0
ARC
  5
2268F
330
1E
100
AcDbEntity
  8
24
100
AcDbCircle
 10
366.038172150776
 20
596.8326974654834
 30
0.0
 40
4.158074644074313
100
AcDbArc
 50
157.6525285670022
 51
166.2556092457026
  0
ARC
  5
22690
330
1E
100
AcDbEntity
  8
24
100
AcDbCircle
 10
362.888985790526
 20
597.4689755074834
 30
0.0
 40
0.9567850312965267
100
AcDbArc
 50
158.4369539970992
 51
172.5159655711
  0
LINE
  5
22691
330
1E
100
AcDbEntity
  8
24
100
AcDbLine
 10
390.5739030970262
 20
598.5646122234832
 30
0.0
 11
390.5739030970262
 21
594.5646115677334
 31
0.0
  0
LINE
  5
22692
330
1E
100
AcDbEntity
  8
24
100
AcDbLine
 10
361.999162582776
 20
597.8206177339832
 30
0.0
 11
362.1739010495261
 21
597.7917728112331
 31
0.0
  0
LINE
  5
22693
330
1E
100
AcDbEntity
  8
24
100
AcDbLine
 10
361.999162582776
 20
595.3086079197333
 30
0.0
 11
362.1739010495261
 21
595.3374509799835
 31
0.0
  0
LINE
  5
22694
330
1E
100
AcDbEntity
  8
24
100
AcDbLine
 10
361.9403514250261
 20
597.5935966807333
 30
0.0
 11
362.1039363725262
 21
597.5760673272333
 31
0.0
  0
LINE
  5
22695
330
1E
100
AcDbEntity
  8
24
100
AcDbLine
 10
361.9403514250261
 20
595.5356289732333
 30
0.0
 11
362.1039363725262
 21
595.5531583267334
 31
0.0
  0
ARC
  5
22696
330
1E
100
AcDbEntity
  8
24
100
AcDbCircle
 10
378.8739017245262
 20
586.2646155954832
 30
0.0
 40
3.700002269309958
100
AcDbArc
 50
180.0000459400987
 51
269.9999540599013
  0
ARC
  5
22697
330
1E
100
AcDbEntity
  8
24
100
AcDbCircle
 10
378.8739019482761
 20
586.2646120939833
 30
0.0
 40
0.5000004785415883
100
AcDbArc
 50
179.9999387224992
 51
269.999634389896
  0
LINE
  5
22698
330
1E
100
AcDbEntity
  8
24
100
AcDbLine
 10
390.1739000512761
 20
585.7646116154832
 30
0.0
 11
378.8738987577762
 21
585.7646116154832
 31
0.0
  0
LINE
  5
22699
330
1E
100
AcDbEntity
  8
24
100
AcDbLine
 10
390.1739000512761
 20
582.5646133259834
 30
0.0
 11
378.8738987577762
 21
582.5646133259834
 31
0.0
  0
LINE
  5
2269A
330
1E
100
AcDbEntity
  8
24
100
AcDbLine
 10
390.1739000512761
 20
582.5646133259834
 30
0.0
 11
390.1739000512761
 21
585.7646116154832
 31
0.0
  0
LINE
  5
2269B
330
1E
100
AcDbEntity
  8
10
100
AcDbLine
 10
375.1738994552761
 20
606.7921971069832
 30
0.0
 11
375.1738994552761
 21
577.0494750719582
 31
0.0
  0
LINE
  5
2269C
330
1E
100
AcDbEntity
  8
24
  6
Continuous
100
AcDbLine
 10
378.3739014697762
 20
607.7899918989834
 30
0.0
 11
378.3739014697762
 21
586.2646126287334
 31
0.0
  0
LINE
  5
226C4
330
1E
100
AcDbEntity
  8
10
100
AcDbLine
 10
375.1738994552761
 20
581.2646136717334
 30
0.0
 11
364.1738995147762
 21
581.2646136717335
 31
0.0
  0
ARC
  5
226C5
330
1E
100
AcDbEntity
  8
10
100
AcDbCircle
 10
364.173902963776
 20
583.2646155859833
 30
0.0
 40
2.000001914168076
100
AcDbArc
 50
180.0000454451983
 51
269.9999011938999
  0
LINE
  5
226C6
330
1E
100
AcDbEntity
  8
10
100
AcDbLine
 10
362.1739010495261
 20
583.2646139997335
 30
0.0
 11
362.1739010495261
 21
600.2694484877332
 31
0.0
  0
LINE
  5
226C7
330
1E
100
AcDbEntity
  8
10
100
AcDbLine
 10
373.1919854117761
 20
606.0646125214836
 30
0.0
 11
375.1738994552761
 21
606.0646125214836
 31
0.0
  0
LINE
  5
226CD
330
1E
100
AcDbEntity
  8
131
 62
     4
100
AcDbLine
 10
353.176518453526
 20
581.0619802312332
 30
0.0
 11
407.662875129026
 21
580.7766900497332
 31
0.0
  0
LINE
  5
226CE
330
1E
100
AcDbEntity
  8
10
100
AcDbLine
 10
352.673900423776
 20
538.5799543099832
 30
0.0
 11
352.673900423776
 21
588.7098699270957
 31
0.0
  0
LINE
  5
226D4
330
1E
100
AcDbEntity
  8
0
  6
SLD-実線
 62
     7
370
    30
100
AcDbLine
 10
352.673900423776
 20
538.5594056087334
 30
0.0
 11
352.673900423776
 21
538.5799543099832
 31
0.0
  0
LINE
  5
226D5
330
1E
100
AcDbEntity
  8
131
 62
     4
100
AcDbLine
 10
407.662875129026
 20
580.7766900497332
 30
0.0
 11
407.6737380755258
 21
580.7766304449832
 31
0.0
  0
LINE
  5
226DB
330
1E
100
AcDbEntity
  8
10
100
AcDbLine
 10
385.5881884525654
 20
532.5646124320352
 30
0.0
 11
350.0118353963002
 21
532.5646088557333
 31
0.0
  0
LINE
  5
226DC
330
1E
100
AcDbEntity
  8
131
 62
     4
100
AcDbLine
 10
407.6737380755258
 20
580.7766304449832
 30
0.0
 11
410.6765157712761
 21
580.7609097199834
 31
0.0
  0
ARC
  5
226DE
330
1E
100
AcDbEntity
  8
131
 62
     4
100
AcDbCircle
 10
410.6738935495259
 20
580.2609085144832
 30
0.0
 40
0.5000080814187495
100
AcDbArc
 50
0.0008757790021723
 51
89.69951898690451
  0
LINE
  5
226E3
330
1E
100
AcDbEntity
  8
10
100
AcDbLine
 10
362.0042513295262
 20
592.3302346007329
 30
0.0
 11
353.0087251481243
 21
589.1817990831282
 31
0.0
  0
LWPOLYLINE
  5
226E4
330
1E
100
AcDbEntity
  8
24
100
AcDbPolyline
 90
        3
 70
   128
 43
0.0
 10
362.1739010495261
 20
592.4080689537332
 10
362.1646753682762
 20
592.4028069812329
 10
362.0042513295262
 20
592.3302346007329
  0
LINE
  5
226EC
330
1E
100
AcDbEntity
  8
10
100
AcDbLine
 10
352.673900423776
 20
533.0646098689834
 30
0.0
 11
352.673900423776
 21
538.5594056087334
 31
0.0
  0
LINE
  5
226EF
330
1E
100
AcDbEntity
  8
24
100
AcDbLine
 10
385.3739007545259
 20
598.5646122234832
 30
0.0
 11
385.3739007545259
 21
594.5646115677334
 31
0.0
  0
LINE
  5
226F0
330
1E
100
AcDbEntity
  8
24
100
AcDbLine
 10
380.673899425526
 20
596.4646120654832
 30
0.0
 11
380.673899425526
 21
596.6646117257335
 31
0.0
  0
LINE
  5
226F1
330
1E
100
AcDbEntity
  8
24
100
AcDbLine
 10
380.673899425526
 20
596.4646120654832
 30
0.0
 11
380.673899425526
 21
596.2033518689834
 31
0.0
  0
LINE
  5
226F2
330
1E
100
AcDbEntity
  8
24
100
AcDbLine
 10
380.673899425526
 20
592.9258731292334
 30
0.0
 11
380.673899425526
 21
592.6646129327332
 31
0.0
  0
LINE
  5
226F3
330
1E
100
AcDbEntity
  8
24
100
AcDbLine
 10
380.673899425526
 20
600.4646127212334
 30
0.0
 11
380.673899425526
 21
600.2033525244833
 31
0.0
  0
LINE
  5
226F4
330
1E
100
AcDbEntity
  8
24
100
AcDbLine
 10
380.673899425526
 20
596.9258719222332
 30
0.0
 11
380.673899425526
 21
596.6646117257335
 31
0.0
  0
LINE
  5
226F5
330
1E
100
AcDbEntity
  8
24
100
AcDbLine
 10
385.1410440340261
 20
600.5646125512334
 30
0.0
 11
385.3739007545259
 21
600.5646125512334
 31
0.0
  0
LINE
  5
226F6
330
1E
100
AcDbEntity
  8
24
100
AcDbLine
 10
385.3739007545259
 20
600.5646125512334
 30
0.0
 11
385.3739007545259
 21
598.5646122234832
 31
0.0
  0
LINE
  5
226F7
330
1E
100
AcDbEntity
  8
24
100
AcDbLine
 10
385.3739007545259
 20
592.5646131024832
 30
0.0
 11
385.1410440340261
 21
592.5646131024832
 31
0.0
  0
LINE
  5
226F8
330
1E
100
AcDbEntity
  8
24
100
AcDbLine
 10
385.3739007545259
 20
594.5646115677334
 30
0.0
 11
385.3739007545259
 21
592.5646131024832
 31
0.0
  0
LINE
  5
226F9
330
1E
100
AcDbEntity
  8
24
100
AcDbLine
 10
385.1410440340261
 20
592.5646131024832
 30
0.0
 11
380.673899425526
 21
592.5646131024832
 31
0.0
  0
LINE
  5
226FA
330
1E
100
AcDbEntity
  8
24
100
AcDbLine
 10
380.673899425526
 20
592.5646131024832
 30
0.0
 11
380.673899425526
 21
592.6646129327332
 31
0.0
  0
LINE
  5
226FB
330
1E
100
AcDbEntity
  8
24
100
AcDbLine
 10
380.673899425526
 20
600.5646125512334
 30
0.0
 11
385.1410440340261
 21
600.5646125512334
 31
0.0
  0
LINE
  5
226FC
330
1E
100
AcDbEntity
  8
24
100
AcDbLine
 10
380.673899425526
 20
600.4646127212334
 30
0.0
 11
380.673899425526
 21
600.5646125512334
 31
0.0
  0
LINE
  5
226FD
330
1E
100
AcDbEntity
  8
24
100
AcDbLine
 10
379.373899771026
 20
591.5646129387332
 30
0.0
 11
379.373899771026
 21
601.5646127152332
 31
0.0
  0
LINE
  5
226FE
330
1E
100
AcDbEntity
  8
24
100
AcDbLine
 10
380.673899425526
 20
592.1396133589832
 30
0.0
 11
380.673899425526
 21
592.5646131024832
 31
0.0
  0
LINE
  5
226FF
330
1E
100
AcDbEntity
  8
24
100
AcDbLine
 10
380.673899425526
 20
592.9258731292334
 30
0.0
 11
380.673899425526
 21
596.2033518689834
 31
0.0
  0
LINE
  5
22700
330
1E
100
AcDbEntity
  8
24
100
AcDbLine
 10
380.673899425526
 20
596.9258719222332
 30
0.0
 11
380.673899425526
 21
600.2033525244833
 31
0.0
  0
LINE
  5
22701
330
1E
100
AcDbEntity
  8
24
100
AcDbLine
 10
380.673899425526
 20
600.5646125512334
 30
0.0
 11
380.673899425526
 21
600.9896122949831
 31
0.0
  0
LINE
  5
22743
330
1E
100
AcDbEntity
  8
24
  6
Continuous
100
AcDbLine
 10
392.273900754526
 20
574.5258625282332
 30
0.0
 11
389.273900754526
 21
574.5258625282332
 31
0.0
  0
LINE
  5
22744
330
1E
100
AcDbEntity
  8
24
  6
Continuous
100
AcDbLine
 10
389.273900754526
 20
562.6671124319833
 30
0.0
 11
389.273900754526
 21
559.5646124319833
 31
0.0
  0
LINE
  5
22745
330
1E
100
AcDbEntity
  8
24
  6
Continuous
100
AcDbLine
 10
383.9827088487761
 20
571.5646124319833
 30
0.0
 11
389.273900754526
 21
571.5646124319833
 31
0.0
  0
LINE
  5
22746
330
1E
100
AcDbEntity
  8
24
  6
Continuous
100
AcDbLine
 10
389.273900754526
 20
571.5646124319833
 30
0.0
 11
389.273900754526
 21
568.4621124319833
 31
0.0
  0
LINE
  5
22747
330
1E
100
AcDbEntity
  8
24
  6
Continuous
100
AcDbLine
 10
386.113433177526
 20
559.5646124319833
 30
0.0
 11
389.273900754526
 21
559.5646124319833
 31
0.0
  0
LINE
  5
22748
330
1E
100
AcDbEntity
  8
17
100
AcDbLine
 10
383.5809024247761
 20
565.5646124319835
 30
0.0
 11
410.1590508832761
 21
565.5646124319835
 31
0.0
  0
LINE
  5
22749
330
1E
100
AcDbEntity
  8
24
  6
Continuous
100
AcDbLine
 10
389.273900754526
 20
568.4621124319833
 30
0.0
 11
409.273900754526
 21
568.4621124319833
 31
0.0
  0
LINE
  5
2274A
330
1E
100
AcDbEntity
  8
24
  6
Continuous
100
AcDbLine
 10
409.273900754526
 20
568.4621124319833
 30
0.0
 11
409.273900754526
 21
562.6671124319833
 31
0.0
  0
LINE
  5
2274B
330
1E
100
AcDbEntity
  8
24
  6
Continuous
100
AcDbLine
 10
389.273900754526
 20
562.6671124319833
 30
0.0
 11
409.273900754526
 21
562.6671124319833
 31
0.0
  0
LINE
  5
2274C
330
1E
100
AcDbEntity
  8
131
 62
     4
100
AcDbLine
 10
385.4162912737761
 20
579.0619807064834
 30
0.0
 11
411.1739007545258
 21
579.0619807064834
 31
0.0
  0
LINE
  5
2274D
330
1E
100
AcDbEntity
  8
24
  6
Continuous
100
AcDbLine
 10
389.273900754526
 20
574.5258625282332
 30
0.0
 11
389.273900754526
 21
551.1734621207333
 31
0.0
  0
LINE
  5
2274E
330
1E
100
AcDbEntity
  8
24
  6
Continuous
100
AcDbLine
 10
389.273900754526
 20
551.1734621207333
 30
0.0
 11
392.273900754526
 21
551.1734621207333
 31
0.0
  0
LINE
  5
2274F
330
1E
100
AcDbEntity
  8
24
100
AcDbLine
 10
365.3739007545259
 20
601.3146124319834
 30
0.0
 11
364.1304261962761
 21
601.3146124319834
 31
0.0
  0
LINE
  5
22750
330
1E
100
AcDbEntity
  8
24
  6
Continuous
100
AcDbLine
 10
392.273900754526
 20
574.5258625282332
 30
0.0
 11
392.273900754526
 21
551.1734621207333
 31
0.0
  0
LINE
  5
22751
330
1E
100
AcDbEntity
  8
24
100
AcDbLine
 10
364.1304261962761
 20
591.8146124319832
 30
0.0
 11
365.3739007545259
 21
591.8146124319832
 31
0.0
  0
LINE
  5
22752
330
1E
100
AcDbEntity
  8
24
  6
Continuous
100
AcDbLine
 10
392.273900754526
 20
570.5646124319835
 30
0.0
 11
392.273900754526
 21
560.5646124319835
 31
0.0
  0
LINE
  5
22753
330
1E
100
AcDbEntity
  8
24
  6
Continuous
100
AcDbLine
 10
392.273900754526
 20
570.5646124319835
 30
0.0
 11
393.5739007545262
 21
570.5646124319835
 31
0.0
  0
LINE
  5
22754
330
1E
100
AcDbEntity
  8
24
  6
Continuous
100
AcDbLine
 10
393.5739007545262
 20
570.5646124319835
 30
0.0
 11
393.5739007545262
 21
560.5646124319835
 31
0.0
  0
LINE
  5
22755
330
1E
100
AcDbEntity
  8
24
  6
Continuous
100
AcDbLine
 10
392.273900754526
 20
560.5646124319835
 30
0.0
 11
393.5739007545262
 21
560.5646124319835
 31
0.0
  0
LINE
  5
22756
330
1E
100
AcDbEntity
  8
24
  6
Continuous
100
AcDbLine
 10
393.5739007545262
 20
570.1646124319832
 30
0.0
 11
393.5739007545262
 21
560.9646124319834
 31
0.0
  0
LINE
  5
22757
330
1E
100
AcDbEntity
  8
24
  6
Continuous
100
AcDbLine
 10
393.5739007545262
 20
570.1646124319832
 30
0.0
 11
394.5739007545262
 21
570.1646124319832
 31
0.0
  0
LINE
  5
22758
330
1E
100
AcDbEntity
  8
24
  6
Continuous
100
AcDbLine
 10
394.5739007545262
 20
570.1646124319832
 30
0.0
 11
394.5739007545262
 21
560.9646124319834
 31
0.0
  0
LINE
  5
22759
330
1E
100
AcDbEntity
  8
24
  6
Continuous
100
AcDbLine
 10
393.5739007545262
 20
560.9646124319834
 30
0.0
 11
394.5739007545262
 21
560.9646124319834
 31
0.0
  0
LINE
  5
2275A
330
1E
100
AcDbEntity
  8
24
  6
Continuous
100
AcDbLine
 10
394.5739007545262
 20
569.5646124319835
 30
0.0
 11
394.5739007545262
 21
561.5646124319835
 31
0.0
  0
LINE
  5
2275B
330
1E
100
AcDbEntity
  8
24
  6
Continuous
100
AcDbLine
 10
394.5739007545262
 20
569.5646124319835
 30
0.0
 11
399.273900754526
 21
569.5646124319835
 31
0.0
  0
LINE
  5
2275C
330
1E
100
AcDbEntity
  8
24
  6
Continuous
100
AcDbLine
 10
399.273900754526
 20
569.5646124319835
 30
0.0
 11
399.273900754526
 21
561.5646124319835
 31
0.0
  0
LINE
  5
2275D
330
1E
100
AcDbEntity
  8
24
  6
Continuous
100
AcDbLine
 10
394.5739007545262
 20
561.5646124319835
 30
0.0
 11
399.273900754526
 21
561.5646124319835
 31
0.0
  0
LINE
  5
2275E
330
1E
100
AcDbEntity
  8
24
100
AcDbLine
 10
365.5739007545262
 20
592.0146124319832
 30
0.0
 11
365.5739007545262
 21
601.1146124319832
 31
0.0
  0
LINE
  5
2275F
330
1E
100
AcDbEntity
  8
24
100
AcDbLine
 10
365.7489007545261
 20
591.9646124319832
 30
0.0
 11
366.6989007545262
 21
591.9646124319832
 31
0.0
  0
LINE
  5
22760
330
1E
100
AcDbEntity
  8
24
100
AcDbLine
 10
366.8739007545261
 20
601.5646124319832
 30
0.0
 11
366.8739007545261
 21
591.5646124319834
 31
0.0
  0
LINE
  5
22761
330
1E
100
AcDbEntity
  8
24
100
AcDbLine
 10
366.6989007545262
 20
601.1646124319833
 30
0.0
 11
365.7489007545261
 21
601.1646124319833
 31
0.0
  0
LINE
  5
22762
330
1E
100
AcDbEntity
  8
24
100
AcDbLine
 10
367.8739007545259
 20
601.5646124319832
 30
0.0
 11
366.8739007545261
 21
601.5646124319832
 31
0.0
  0
LINE
  5
22763
330
1E
100
AcDbEntity
  8
24
100
AcDbLine
 10
367.8739007545259
 20
591.5646124319834
 30
0.0
 11
367.8739007545259
 21
601.5646124319832
 31
0.0
  0
LINE
  5
22764
330
1E
100
AcDbEntity
  8
24
100
AcDbLine
 10
366.8739007545261
 20
591.5646124319834
 30
0.0
 11
367.8739007545259
 21
591.5646124319834
 31
0.0
  0
LINE
  5
22765
330
1E
100
AcDbEntity
  8
24
100
AcDbLine
 10
365.8739007545261
 20
594.0646124319832
 30
0.0
 11
390.0739007545262
 21
594.0646124319832
 31
0.0
  0
LINE
  5
22766
330
1E
100
AcDbEntity
  8
24
100
AcDbLine
 10
390.0739007545262
 20
599.0646124319834
 30
0.0
 11
365.8739007545261
 21
599.0646124319834
 31
0.0
  0
LINE
  5
22767
330
1E
100
AcDbEntity
  8
24
  6
Continuous
100
AcDbLine
 10
387.3239007545262
 20
557.3146124319833
 30
0.0
 11
387.3239007545262
 21
573.7962586829834
 31
0.0
  0
LINE
  5
22768
330
1E
100
AcDbEntity
  8
24
  6
Continuous
100
AcDbLine
 10
387.3239007545262
 20
573.7962586829834
 30
0.0
 11
386.3239007545262
 21
573.7962586829834
 31
0.0
  0
LINE
  5
22769
330
1E
100
AcDbEntity
  8
24
  6
Continuous
100
AcDbLine
 10
386.3239007545262
 20
573.7962586829834
 30
0.0
 11
386.3239007545262
 21
557.3146124319833
 31
0.0
  0
LINE
  5
2276A
330
1E
100
AcDbEntity
  8
24
  6
Continuous
100
AcDbLine
 10
386.3239007545262
 20
557.3146124319833
 30
0.0
 11
387.3239007545262
 21
557.3146124319833
 31
0.0
  0
ARC
  5
2276B
330
1E
100
AcDbEntity
  8
24
100
AcDbCircle
 10
369.8739007545261
 20
596.5646124319833
 30
0.0
 40
7.999999999999971
100
AcDbArc
 50
187.3900279016011
 51
210.9924669536009
  0
ARC
  5
2276C
330
1E
100
AcDbEntity
  8
24
100
AcDbCircle
 10
369.8739007545261
 20
596.5646124319833
 30
0.0
 40
8.0
100
AcDbArc
 50
149.007533046399
 51
172.6099720983987
  0
ARC
  5
2276D
330
1E
100
AcDbEntity
  8
24
100
AcDbCircle
 10
364.1304261962761
 20
600.0146124319832
 30
0.0
 40
1.300000000000032
100
AcDbArc
 50
90.0
 51
149.007533046399
  0
ARC
  5
2276E
330
1E
100
AcDbEntity
  8
24
100
AcDbCircle
 10
364.1304261962761
 20
593.1146124319832
 30
0.0
 40
1.29999999999999
100
AcDbArc
 50
210.9924669536009
 51
270.0
  0
ARC
  5
2276F
330
1E
100
AcDbEntity
  8
24
100
AcDbCircle
 10
365.3739007545259
 20
592.0146124319832
 30
0.0
 40
0.199999999999978
100
AcDbArc
 50
270.0
 51
0.0
  0
ARC
  5
22770
330
1E
100
AcDbEntity
  8
24
100
AcDbCircle
 10
365.3739007545259
 20
601.1146124319832
 30
0.0
 40
0.2000000000000313
100
AcDbArc
 50
0.0
 51
90.0
  0
ARC
  5
22771
330
1E
100
AcDbEntity
  8
24
100
AcDbCircle
 10
365.7489007545261
 20
592.1396124319832
 30
0.0
 40
0.175000000000054
100
AcDbArc
 50
180.0
 51
270.0
  0
ARC
  5
22772
330
1E
100
AcDbEntity
  8
24
100
AcDbCircle
 10
366.6989007545262
 20
592.1396124319832
 30
0.0
 40
0.1750000000000007
100
AcDbArc
 50
270.0
 51
0.0
  0
ARC
  5
22773
330
1E
100
AcDbEntity
  8
24
100
AcDbCircle
 10
365.7489007545261
 20
600.9896124319832
 30
0.0
 40
0.1750000000000007
100
AcDbArc
 50
90.0
 51
180.0
  0
ARC
  5
22774
330
1E
100
AcDbEntity
  8
24
100
AcDbCircle
 10
366.6989007545262
 20
600.9896124319832
 30
0.0
 40
0.1750000000000007
100
AcDbArc
 50
0.0
 51
90.0
  0
ARC
  5
22775
330
1E
100
AcDbEntity
  8
24
100
AcDbCircle
 10
365.8739007545261
 20
593.7646124319832
 30
0.0
 40
0.3000000000000113
100
AcDbArc
 50
90.0
 51
180.0
  0
ARC
  5
22776
330
1E
100
AcDbEntity
  8
24
100
AcDbCircle
 10
365.8739007545261
 20
599.3646124319832
 30
0.0
 40
0.3000000000000113
100
AcDbArc
 50
180.0
 51
270.0
  0
SPLINE
  5
22777
330
1E
100
AcDbEntity
  8
10
100
AcDbSpline
210
0.0
220
0.0
230
1.0
 70
     8
 71
     3
 72
     8
 73
     4
 74
     0
 42
0.000000001
 43
0.0000000001
 40
0.0
 40
0.0
 40
0.0
 40
0.0
 40
1.0
 40
1.0
 40
1.0
 40
1.0
 10
385.4162912738662
 20
579.0619807063857
 30
0.0
 10
379.5461311653457
 20
569.8322235573457
 30
0.0
 10
393.5847491885569
 20
549.4808711784144
 30
0.0
 10
385.5881884525654
 20
532.5646124320352
 30
0.0
  0
DIMENSION
  5
22778
330
1E
100
AcDbEntity
  8
30
100
AcDbDimension
280
     0
  2
*D20
 10
389.273900754526
 20
515.0646124319833
 30
0.0
 11
399.273900754526
 21
515.0646124319833
 31
0.0
 70
   160
  1
<>
 71
     2
 42
20.0
 73
     0
 74
     0
 75
     0
  3
STANDARD1
100
AcDbAlignedDimension
 13
409.273900754526
 23
562.6671124319833
 33
0.0
 14
389.273900754526
 24
559.5646124319833
 34
0.0
100
AcDbRotatedDimension
  0
DIMENSION
  5
22779
330
1E
100
AcDbEntity
  8
30
100
AcDbDimension
280
     0
  2
*D21
 10
389.273900754526
 20
515.0646124319833
 30
0.0
 11
364.1739007545262
 21
515.0646124319833
 31
0.0
 70
   160
  1
<>
 71
     2
 42
14.09999999999991
 73
     0
 74
     0
 75
     0
  3
STANDARD1
100
AcDbAlignedDimension
 13
375.1739007545261
 23
581.2646124319832
 33
0.0
 14
389.273900754526
 24
551.1734621207333
 34
0.0
100
AcDbRotatedDimension
  0
DIMENSION
  5
2277A
330
1E
100
AcDbEntity
  8
30
100
AcDbDimension
280
     0
  2
*D22
 10
390.5739007545262
 20
616.7937721529947
 30
0.0
 11
382.8739007545261
 21
616.7937721529947
 31
0.0
 70
   160
  1
<>
 71
     2
 42
15.40000000000009
 73
     0
 74
     0
 75
     0
  3
STANDARD1
100
AcDbAlignedDimension
 13
375.1739007545261
 23
606.0646124319832
 33
0.0
 14
390.5739007545262
 24
598.5646124319834
 34
0.0
100
AcDbRotatedDimension
  0
LINE
  5
2277F
330
1E
100
AcDbEntity
  8
17
100
AcDbLine
 10
360.8739013952763
 20
596.5646118954833
 30
0.0
 11
395.0738973155262
 21
596.5646118954833
 31
0.0
  0
LINE
  5
227C1
330
1E
100
AcDbEntity
  8
131
 62
     4
100
AcDbLine
 10
411.1739016308864
 20
580.2609161572205
 30
0.0
 11
411.1739007545258
 21
579.0619807064834
 31
0.0
  0
ARC
  5
227F1
330
1E
100
AcDbEntity
  8
10
100
AcDbCircle
 10
353.173900423776
 20
588.7098699270957
 30
0.0
 40
0.5
100
AcDbArc
 50
109.2900539027951
 51
180.0
  0
LINE
  5
22828
330
1E
100
AcDbEntity
  8
16
100
AcDbLine
 10
95.04187121360272
 20
515.9418972643326
 30
0.0
 11
95.04187121360272
 21
320.4611104525238
 31
0.0
  0
LINE
  5
22830
330
1E
100
AcDbEntity
  8
16
100
AcDbLine
 10
37.54187167922788
 20
416.4697145142362
 30
0.0
 11
152.5418716792276
 21
416.4697145142362
 31
0.0
  0
LWPOLYLINE
  5
231E3
330
1E
100
AcDbEntity
  8
10
  6
Continuous
 62
     4
100
AcDbPolyline
 90
        4
 70
     1
 43
0.0
 10
-0.0000000000000284
 20
742.4999999999997
 10
525.0
 20
742.4999999999997
 10
525.0
 20
0.0
 10
-0.0000000000000284
 20
0.0
  0
LWPOLYLINE
  5
232ED
330
1E
100
AcDbEntity
  8
18
100
AcDbPolyline
 90
        4
 70
     1
 43
0.0
 10
50.04187167922776
 20
71.46971451423659
 10
50.04187167922776
 20
251.4697145142366
 10
140.0418716792277
 20
251.4697145142366
 10
140.0418716792277
 20
71.46971451423659
  0
LINE
  5
23393
330
1E
100
AcDbEntity
  8
16
100
AcDbLine
 10
222.8425925338874
 20
161.4697145142366
 30
0.0
 11
322.8425925338874
 21
161.4697145142366
 31
0.0
  0
LINE
  5
23394
330
1E
100
AcDbEntity
  8
16
100
AcDbLine
 10
272.8425925338874
 20
260.6084951183921
 30
0.0
 11
272.8425925338874
 21
74.46971451423657
 31
0.0
  0
LINE
  5
23398
330
1E
100
AcDbEntity
  8
16
100
AcDbLine
 10
369.0556266181669
 20
161.4091971988616
 30
0.0
 11
469.0556266181669
 21
161.4091971988616
 31
0.0
  0
LINE
  5
23399
330
1E
100
AcDbEntity
  8
16
100
AcDbLine
 10
419.0556266181669
 20
260.6084951183921
 30
0.0
 11
419.0556266181669
 21
74.40919719886164
 31
0.0
  0
DIMENSION
  5
233AA
330
1E
100
AcDbEntity
  8
30
100
AcDbDimension
280
     0
  2
*D24
 10
484.6425054026972
 20
137.4091971988616
 30
0.0
 11
484.6425054026972
 21
160.8042690589687
 31
0.0
 70
   160
 71
     2
 42
48.0
 73
     0
 74
     0
 75
     0
  3
STANDARD
100
AcDbAlignedDimension
 13
430.0556266181668
 23
185.4091971988616
 33
0.0
 14
430.0556266181668
 24
137.4091971988616
 34
0.0
 50
90.0
100
AcDbRotatedDimension
  0
DIMENSION
  5
233AB
330
1E
100
AcDbEntity
  8
30
100
AcDbDimension
280
     0
  2
*D25
 10
407.0556266181669
 20
47.38958801584471
 30
0.0
 11
419.0556266181669
 21
47.38958801584471
 31
0.0
 70
   160
  1
<>
 71
     2
 42
24.0
 73
     0
 74
     0
 75
     0
  3
STANDARD
100
AcDbAlignedDimension
 13
431.0556266181669
 23
138.4091971988616
 33
0.0
 14
407.0556266181669
 24
138.4091971988616
 34
0.0
100
AcDbRotatedDimension
  0
DIMENSION
  5
233AC
330
1E
100
AcDbEntity
  8
30
100
AcDbDimension
280
     0
  2
*D26
 10
229.8425925338874
 20
47.91013632123941
 30
0.0
 11
273.8092632551428
 21
47.91013632123941
 31
0.0
 70
   160
  1
<>
 71
     2
 42
86.0
 73
     0
 74
     0
 75
     0
  3
STANDARD
100
AcDbAlignedDimension
 13
315.8425925338873
 23
136.4697145142366
 33
0.0
 14
229.8425925338874
 24
136.4697145142366
 34
0.0
100
AcDbRotatedDimension
  0
DIMENSION
  5
233AD
330
1E
100
AcDbEntity
  8
30
100
AcDbDimension
280
     0
  2
*D27
 10
314.8425925338873
 20
186.4697145142365
 30
0.0
 11
339.6957838293263
 21
199.3509072509992
 31
0.0
 70
   164
  1
<>
 71
     5
 42
0.999999999970214
 73
     0
 74
     0
 75
     0
  3
STANDARD
100
AcDbRadialDimension
 15
315.6682743298223
 25
187.0338506430227
 35
0.0
 40
0.0
1001
ACAD
1000
DSTYLE
1002
{
1070
   140
1040
6.0
1002
}
  0
MTEXT
  5
234F9
330
1E
100
AcDbEntity
  8
19
100
AcDbMText
 10
247.0252216595556
 20
29.56070656900929
 30
0.0
 40
7.826237649998486
 41
0.0
 46
0.0
 71
     1
 72
     1
  1
[Cutout A]
  7
SLDTEXTSTYLE0
 73
     1
 44
1.0
  0
MTEXT
  5
234FA
330
1E
100
AcDbEntity
  8
19
100
AcDbMText
 10
392.1675306951848
 20
29.56070656900929
 30
0.0
 40
7.826237649998486
 41
0.0
 46
0.0
 71
     1
 72
     1
  1
[Cutout B]
  7
SLDTEXTSTYLE0
 73
     1
 44
1.0
  0
LWPOLYLINE
  5
2353C
330
1E
100
AcDbEntity
  8
11
 48
2.0
100
AcDbPolyline
 90
        8
 70
     1
 43
0.0
 10
314.8425925338873
 20
187.4697145142366
 10
230.8425925338874
 20
187.4697145142366
 42
0.4142135623730951
 10
229.8425925338874
 20
186.4697145142366
 10
229.8425925338874
 20
136.4697145142366
 42
0.4142135623730951
 10
230.8425925338874
 20
135.4697145142366
 10
314.8425925338873
 20
135.4697145142366
 42
0.4142135623731038
 10
315.8425925338873
 20
136.4697145142366
 10
315.8425925338873
 20
186.4697145142366
 42
0.4142135623730951
  0
LWPOLYLINE
  5
23544
330
1E
100
AcDbEntity
  8
11
 48
2.0
100
AcDbPolyline
 90
        8
 70
     1
 43
0.0
 10
407.0556266181666
 20
138.4091971988616
 42
0.4142135623730951
 10
408.0556266181668
 20
137.4091971988616
 10
430.0556266181668
 20
137.4091971988616
 42
0.4142135623730869
 10
431.0556266181669
 20
138.4091971988616
 10
431.0556266181669
 20
184.4091971988616
 42
0.4142135623730993
 10
430.0556266181668
 20
185.4091971988616
 10
408.0556266181668
 20
185.4091971988616
 42
0.4142135623731038
 10
407.0556266181666
 20
184.4091971988617
  0
LWPOLYLINE
  5
2354C
330
1E
100
AcDbEntity
  8
18
  6
DIVIDE
100
AcDbPolyline
 90
        4
 70
     1
 43
0.0
 10
317.8425925338873
 20
76.46971451423659
 10
227.8425925338874
 20
76.46971451423659
 10
227.8425925338874
 20
246.4697145142366
 10
317.8425925338873
 20
246.4697145142366
  0
LWPOLYLINE
  5
23550
330
1E
100
AcDbEntity
  8
18
  6
DIVIDE
100
AcDbPolyline
 90
        4
 70
     1
 43
0.0
 10
374.055626618167
 20
76.40919719886163
 10
374.055626618167
 20
246.4091971988616
 10
464.0556266181667
 20
246.4091971988616
 10
464.0556266181667
 20
76.40919719886163
  0
DIMENSION
  5
2357F
330
1E
100
AcDbEntity
  8
30
100
AcDbDimension
280
     0
  2
*D31
 10
486.2436068249102
 20
459.8445276485326
 30
0.0
 11
477.7436068249101
 21
459.8445276485326
 31
0.0
 70
   160
 71
     5
 42
17.0
 73
     0
 74
     0
 75
     0
  3
STANDARD1
100
AcDbAlignedDimension
 13
469.2436068249101
 23
481.3803504510627
 33
0.0
 14
486.2436068249102
 24
481.3803504510627
 34
0.0
100
AcDbRotatedDimension
  0
LEADER
  5
23580
330
1E
100
AcDbEntity
  8
30
100
AcDbLeader
  3
STANDARD1
 76
     3
 10
477.7436068249101
 20
493.3803504510628
 30
0.0
 10
462.2436068249099
 20
501.3803504510628
 30
0.0
 10
448.2436068249098
 20
501.3803504510628
 30
0.0
1001
ACAD
1000
DSTYLE
1002
{
1070
   147
1040
2.0
1070
    77
1070
     0
1002
}
  0
LINE
  5
23581
330
1E
100
AcDbEntity
  8
24
100
AcDbLine
 10
469.2436068249101
 20
481.3803504510627
 30
0.0
 11
486.2436068249102
 21
481.3803504510627
 31
0.0
  0
LINE
  5
23582
330
1E
100
AcDbEntity
  8
17
100
AcDbLine
 10
471.4936068249101
 20
493.3803504510631
 30
0.0
 11
483.9936068249101
 21
493.3803504510631
 31
0.0
  0
MTEXT
  5
23583
330
1E
100
AcDbEntity
  8
30
  6
Continuous
100
AcDbMText
 10
446.2436068249099
 20
507.3803504510627
 30
0.0
 40
5.0
 41
10.0
 46
0.0
 71
     1
 72
     5
  1
%%C6.5
  7
blockfont
 73
     1
 44
1.0
  0
LINE
  5
23584
330
1E
100
AcDbEntity
  8
24
100
AcDbLine
 10
469.2436068249101
 20
513.3803504510629
 30
0.0
 11
469.2436068249101
 21
481.3803504510627
 31
0.0
  0
CIRCLE
  5
23585
330
1E
100
AcDbEntity
  8
24
100
AcDbCircle
 10
477.7436068249101
 20
493.3803504510631
 30
0.0
 40
3.25
  0
LINE
  5
23586
330
1E
100
AcDbEntity
  8
17
100
AcDbLine
 10
477.7436068249101
 20
499.6303504510631
 30
0.0
 11
477.7436068249101
 21
487.1303504510628
 31
0.0
  0
LINE
  5
23587
330
1E
100
AcDbEntity
  8
24
100
AcDbLine
 10
486.2436068249102
 20
513.5302529510627
 30
0.0
 11
486.2436068249102
 21
481.3803504510627
 31
0.0
  0
DIMENSION
  5
23588
330
1E
100
AcDbEntity
  8
30
100
AcDbDimension
280
     0
  2
*D30
 10
509.2042387817116
 20
481.3803504510627
 30
0.0
 11
509.2042387817116
 21
487.380350451063
 31
0.0
 70
   160
 71
     5
 42
12.00000000000023
 73
     0
 74
     0
 75
     0
  3
STANDARD1
100
AcDbAlignedDimension
 13
483.9936068249101
 23
493.3803504510631
 33
0.0
 14
486.2436068249102
 24
481.3803504510627
 34
0.0
 50
90.0
100
AcDbRotatedDimension
  0
SPLINE
  5
23589
330
1E
100
AcDbEntity
  8
24
100
AcDbSpline
210
0.0
220
0.0
230
1.0
 70
  1064
 71
     3
 72
    10
 73
     6
 74
     4
 42
0.000000001
 43
0.0000000001
 44
0.0000000001
 40
0.0
 40
0.0
 40
0.0
 40
0.0
 40
5.099019513592874
 40
10.92997140843807
 40
18.25268134120953
 40
18.25268134120953
 40
18.25268134120953
 40
18.25268134120953
 10
469.2436068249101
 20
513.3803504510629
 30
0.0
 10
470.9713334906366
 20
514.0885918548693
 30
0.0
 10
474.6747911863066
 20
515.6067382893438
 30
0.0
 10
479.4538765966962
 20
509.5118403294192
 30
0.0
 10
483.8154801252785
 20
512.093198068351
 30
0.0
 10
486.2436068249102
 20
513.5302529510627
 30
0.0
 11
469.2436068249101
 21
513.3803504510629
 31
0.0
 11
474.2436068249102
 21
514.3803504510628
 31
0.0
 11
479.24360682491
 21
511.3803504510626
 31
0.0
 11
486.2436068249102
 21
513.5302529510627
 31
0.0
  0
TEXT
  5
2358A
330
1E
100
AcDbEntity
  8
30
100
AcDbText
 10
487.9072952159376
 20
462.1541520170248
 30
0.0
 40
5.0
  1
(max.)
100
AcDbText
  0
TEXT
  5
2358B
330
1E
100
AcDbEntity
  8
30
100
AcDbText
 10
506.6612635126436
 20
495.5864859537705
 30
0.0
 40
5.0
  1
(max.)
 50
90.0
100
AcDbText
  0
DIMENSION
  5
2366D
330
1E
100
AcDbEntity
  8
30
100
AcDbDimension
280
     0
  2
*D32
 10
337.8482124358983
 20
135.4697145142366
 30
0.0
 11
332.8482124358984
 21
161.4697145142366
 31
0.0
 70
    32
 71
     5
 42
51.99999999999997
 73
     0
 74
     0
 75
     0
  3
STANDARD
100
AcDbAlignedDimension
 13
315.8425925338873
 23
187.4697145142366
 33
0.0
 14
314.8425925338873
 24
135.4697145142366
 34
0.0
 50
90.0
100
AcDbRotatedDimension
  0
DIMENSION
  5
2385A
330
1E
100
AcDbEntity
  8
30
100
AcDbDimension
280
     0
  2
*D33
 10
430.1456266181668
 20
184.4091971988617
 30
0.0
 11
454.9988179136039
 21
197.2903899356244
 31
0.0
 70
   164
  1
<>
 71
     5
 42
0.999999999970214
 73
     0
 74
     0
 75
     0
  3
STANDARD
100
AcDbRadialDimension
 15
430.9713084141018
 25
184.9733333276479
 35
0.0
 40
0.0
1001
ACAD
1000
DSTYLE
1002
{
1070
   140
1040
6.0
1002
}
  0
DIMENSION
  5
23ACE
330
1E
100
AcDbEntity
  8
30
100
AcDbDimension
280
     0
  2
*D34
 10
136.9805247636424
 20
373.0616320322752
 30
0.0
 11
94.97810550809411
 21
378.0616320322752
 31
0.0
 70
    32
 71
     5
 42
84.00483851109653
 73
     0
 74
     0
 75
     0
  3
STANDARD
100
AcDbAlignedDimension
 13
52.97568625254587
 23
391.5615731870176
 33
0.0
 14
136.9805247636424
 24
391.5615731870176
 34
0.0
100
AcDbRotatedDimension
  0
DIMENSION
  5
23ADB
330
1E
100
AcDbEntity
  8
30
100
AcDbDimension
280
     0
  2
*D35
 10
106.0651543214931
 20
451.183897782972
 30
0.0
 11
95.04200616193662
 21
456.1838977829721
 31
0.0
 70
    32
 71
     5
 42
22.04629631911294
 73
     0
 74
     0
 75
     0
  3
STANDARD
100
AcDbAlignedDimension
 13
84.01885800238016
 23
438.5739337521835
 33
0.0
 14
106.0651543214931
 24
438.5739337521835
 34
0.0
100
AcDbRotatedDimension
  0
DIMENSION
  5
23B34
330
1E
100
AcDbEntity
  8
30
100
AcDbDimension
280
     0
  2
*D36
 10
279.517248976507
 20
299.7925153141432
 30
0.0
 11
325.0172489765071
 21
304.7925153141432
 31
0.0
 70
    32
 71
     5
 42
91.00000000000006
 73
     0
 74
     0
 75
     0
  3
STANDARD
100
AcDbAlignedDimension
 13
370.5172489765071
 23
375.0608530076363
 33
0.0
 14
279.517248976507
 24
367.4697145142364
 34
0.0
100
AcDbRotatedDimension
  0
DIMENSION
  5
23B88
330
1E
100
AcDbEntity
  8
30
100
AcDbDimension
280
     0
  2
*D37
 10
275.517255771507
 20
286.5776949797173
 30
0.0
 11
323.017252374007
 21
291.5776949797173
 31
0.0
 70
    32
 71
     5
 42
94.99999320500007
 73
     0
 74
     0
 75
     0
  3
STANDARD
100
AcDbAlignedDimension
 13
370.5172489765071
 23
375.0608530076363
 33
0.0
 14
275.517255771507
 24
391.6395352252363
 34
0.0
100
AcDbRotatedDimension
  0
DIMENSION
  5
23BB9
330
1E
100
AcDbEntity
  8
30
100
AcDbDimension
280
     0
  2
*D38
 10
252.0172489765071
 20
268.4259397068586
 30
0.0
 11
311.2672489765071
 21
273.4259397068586
 31
0.0
 70
    32
 71
     5
 42
118.4999999999999
 73
     0
 74
     0
 75
     0
  3
STANDARD
100
AcDbAlignedDimension
 13
370.5172489765071
 23
375.0608530076363
 33
0.0
 14
252.0172489765071
 24
413.4697145142387
 34
0.0
100
AcDbRotatedDimension
  0
VIEWPORT
  5
9AC
330
1A
100
AcDbEntity
 67
     1
  8
0
  6
Continuous
348
1001B
100
AcDbViewport
 10
0.0
 20
0.0
 30
0.0
 40
0.0
 41
0.0
 68
     1
 69
     1
 12
0.0
 22
0.0
 13
0.0
 23
0.0
 14
10.0
 24
10.0
 15
10.0
 25
10.0
 16
0.0
 26
0.0
 36
1.0
 17
0.0
 27
0.0
 37
0.0
 42
50.0
 43
0.0
 44
0.0
 45
0.0
 50
0.0
 51
0.0
 72
   100
 90
    32800
  1

281
     0
 71
     1
 74
     0
110
0.0
120
0.0
130
0.0
111
1.0
121
0.0
131
0.0
112
0.0
122
1.0
132
0.0
 79
     0
146
0.0
170
     0
 61
     5
292
     1
282
     1
141
0.0
142
0.0
 63
   250
421
  3355443
  0
VIEWPORT
  5
E19D
330
1A
100
AcDbEntity
 67
     1
  8
30
348
1001B
100
AcDbViewport
 10
0.0
 20
0.0
 30
0.0
 40
0.0
 41
0.0
 68
     2
 69
     2
 12
8.653370891979619
 22
137.2805829780177
 13
0.0
 23
0.0
 14
1.0
 24
1.0
 15
10.0
 25
10.0
 16
0.0
 26
0.0
 36
1.0
 17
0.0
 27
0.0
 37
0.0
 42
50.0
 43
0.0
 44
0.0
 45
689.9195596776387
 50
0.0
 51
0.0
 72
   100
 90
    37664
  1

281
     0
 71
     1
 74
     0
110
0.0
120
0.0
130
0.0
111
1.0
121
0.0
131
0.0
112
0.0
122
1.0
132
0.0
 79
     0
146
0.0
170
     0
 61
     5
292
     1
282
     1
141
0.0
142
0.0
 63
   250
421
  3355443
  0
ENDSEC
  0
SECTION
  2
OBJECTS
  0
DICTIONARY
  5
C
330
0
100
AcDbDictionary
281
     1
  3
ACAD_CIP_PREVIOUS_PRODUCT_INFO
350
23B33
  3
ACAD_COLOR
350
10029
  3
ACAD_DETAILVIEWSTYLE
350
23B2F
  3
ACAD_GROUP
350
D
  3
ACAD_LAYOUT
350
19
  3
ACAD_MATERIAL
350
FFFC
  3
ACAD_MLEADERSTYLE
350
1004E
  3
ACAD_MLINESTYLE
350
16
  3
ACAD_PLOTSETTINGS
350
18
  3
ACAD_PLOTSTYLENAME
350
E
  3
ACAD_SCALELIST
350
1002C
  3
ACAD_SECTIONVIEWSTYLE
350
23B2D
  3
ACAD_TABLESTYLE
350
1002A
  3
ACAD_VISUALSTYLE
350
10015
  3
ACADDIM
350
6D5E
  3
ACDB_RECOMPOSE_DATA
350
23C58
  3
ACDBVARIABLEDICTIONARY
350
5697
  3
AEC_PROPERTY_SET_DEFS
350
102B7
  3
ASE_INDEX_DICTIONARY
350
1012A
  0
DICTIONARY
  5
21E04
330
2
100
AcDbDictionary
280
     1
281
     1
  3
ACAD_LAYERSTATES
360
21E05
  0
DICTIONARY
  5
10054
330
10
100
AcDbDictionary
280
     1
281
     1
  3
ADSK_XREC_LAYER_RECONCILED
360
10055
  0
DICTIONARY
  5
10056
330
2F
100
AcDbDictionary
280
     1
281
     1
  3
ADSK_XREC_LAYER_RECONCILED
360
10057
  0
DICTIONARY
  5
1005A
330
35
100
AcDbDictionary
280
     1
281
     1
  3
ADSK_XREC_LAYER_RECONCILED
360
1005B
  0
DICTIONARY
  5
1005E
330
3D
100
AcDbDictionary
280
     1
281
     1
  3
ADSK_XREC_LAYER_RECONCILED
360
1005F
  0
DICTIONARY
  5
10060
330
3A2
100
AcDbDictionary
280
     1
281
     1
  3
ADSK_XREC_LAYER_RECONCILED
360
10061
  0
DICTIONARY
  5
10062
330
3BBA
100
AcDbDictionary
280
     1
281
     1
  3
ADSK_XREC_LAYER_RECONCILED
360
10063
  0
DICTIONARY
  5
10064
330
67A8
100
AcDbDictionary
280
     1
281
     1
  3
ADSK_XREC_LAYER_RECONCILED
360
10065
  0
DICTIONARY
  5
10066
330
7837
100
AcDbDictionary
280
     1
281
     1
  3
ADSK_XREC_LAYER_RECONCILED
360
10067
  0
DICTIONARY
  5
10070
330
C500
100
AcDbDictionary
280
     1
281
     1
  3
ADSK_XREC_LAYER_RECONCILED
360
10071
  0
DICTIONARY
  5
10072
330
C501
100
AcDbDictionary
280
     1
281
     1
  3
ADSK_XREC_LAYER_RECONCILED
360
10073
  0
DICTIONARY
  5
10076
330
F7D2
100
AcDbDictionary
280
     1
281
     1
  3
ADSK_XREC_LAYER_RECONCILED
360
10077
  0
DICTIONARY
  5
10078
330
F7D8
100
AcDbDictionary
280
     1
281
     1
  3
ADSK_XREC_LAYER_RECONCILED
360
10079
  0
DICTIONARY
  5
1007A
330
F9C3
100
AcDbDictionary
280
     1
281
     1
  3
ADSK_XREC_LAYER_RECONCILED
360
1007B
  0
DICTIONARY
  5
178
330
1E
100
AcDbDictionary
280
     1
281
     1
  3
ACAD_LAYOUTSELFREF
360
9011
  3
ACAD_SORTENTS
360
10128
  0
DICTIONARY
  5
17A
330
1A
100
AcDbDictionary
280
     1
281
     1
  3
ACAD_LAYOUTSELFREF
360
9010
  0
XRECORD
  5
23B33
102
{ACAD_REACTORS
330
C
102
}
330
C
100
AcDbXrecord
280
     1
300
ACDLT
300
2014
300
ACDLT_F_S
  0
DICTIONARY
  5
10029
102
{ACAD_REACTORS
330
C
102
}
330
C
100
AcDbDictionary
281
     1
  0
DICTIONARY
  5
23B2F
102
{ACAD_REACTORS
330
C
102
}
330
C
100
AcDbDictionary
281
     1
  3
Imperial24
350
23B30
  0
DICTIONARY
  5
D
102
{ACAD_REACTORS
330
C
102
}
330
C
100
AcDbDictionary
281
     1
  0
DICTIONARY
  5
19
102
{ACAD_REACTORS
330
C
102
}
330
C
100
AcDbDictionary
281
     1
  3
Model
350
904E
  3
ﾚｲｱｳﾄ1
350
904F
  0
DICTIONARY
  5
FFFC
102
{ACAD_REACTORS
330
C
102
}
330
C
100
AcDbDictionary
281
     1
  3
ByBlock
350
10005
  3
ByLayer
350
FFFD
  3
Global
350
1000D
  0
DICTIONARY
  5
1004E
102
{ACAD_REACTORS
330
C
102
}
330
C
100
AcDbDictionary
281
     1
  3
Standard
350
1004F
  0
DICTIONARY
  5
16
102
{ACAD_REACTORS
330
C
102
}
330
C
100
AcDbDictionary
281
     1
  3
STANDARD
350
17
  0
DICTIONARY
  5
18
102
{ACAD_REACTORS
330
C
102
}
330
C
100
AcDbDictionary
281
     1
  0
ACDBDICTIONARYWDFLT
  5
E
102
{ACAD_REACTORS
330
C
102
}
330
C
100
AcDbDictionary
281
     1
  3
Normal
350
F
100
AcDbDictionaryWithDefault
340
F
  0
DICTIONARY
  5
1002C
102
{ACAD_REACTORS
330
C
102
}
330
C
100
AcDbDictionary
281
     1
  3
A0
350
1002D
  3
A1
350
1002E
  3
A2
350
1002F
  3
A3
350
10030
  3
A4
350
10031
  3
A5
350
10032
  3
A6
350
10033
  3
A7
350
10034
  3
A8
350
10035
  3
A9
350
10036
  3
B0
350
10037
  3
B1
350
10038
  3
B2
350
10039
  3
B3
350
1003A
  3
B4
350
1003B
  3
B5
350
1003C
  3
B6
350
1003D
  3
B7
350
1003E
  3
B8
350
1003F
  3
B9
350
10040
  3
C0
350
10041
  3
C1
350
10042
  3
C2
350
10043
  3
C3
350
10044
  3
C4
350
10045
  3
C5
350
10046
  3
C6
350
10047
  3
C7
350
10048
  3
C8
350
10049
  3
C9
350
1004A
  3
D0
350
1004B
  3
D1
350
1004C
  3
D2
350
1004D
  0
DICTIONARY
  5
23B2D
102
{ACAD_REACTORS
330
C
102
}
330
C
100
AcDbDictionary
281
     1
  3
Imperial24
350
23B2E
  0
DICTIONARY
  5
1002A
102
{ACAD_REACTORS
330
C
102
}
330
C
100
AcDbDictionary
281
     1
  3
Standard
350
1002B
  0
DICTIONARY
  5
10015
102
{ACAD_REACTORS
330
C
102
}
330
C
100
AcDbDictionary
281
     1
  3
2dWireframe
350
1001B
  3
3D Hidden
350
1001D
  3
3dWireframe
350
1001C
  3
Basic
350
1001A
  3
Brighten
350
10021
  3
ColorChange
350
10025
  3
Conceptual
350
1001E
  3
Dim
350
10020
  3
EdgeColorOff
350
10028
  3
Facepattern
350
10024
  3
Flat
350
10016
  3
FlatWithEdges
350
10017
  3
Gouraud
350
10018
  3
GouraudWithEdges
350
10019
  3
Hidden
350
23B27
  3
JitterOff
350
10026
  3
Linepattern
350
10023
  3
OverhangOff
350
10027
  3
Realistic
350
1001F
  3
Shaded
350
23B2C
  3
Shaded with edges
350
23B2B
  3
Shades of Gray
350
23B28
  3
Sketchy
350
23B29
  3
Thicken
350
10022
  3
Wireframe
350
23B26
  3
X-Ray
350
23B2A
  0
XRECORD
  5
6D5E
102
{ACAD_REACTORS
330
C
102
}
330
C
100
AcDbXrecord
280
     1
 90
   990106
  3

 60
     0
 61
     0
 62
     1
 63
     3
 64
     0
 65
     0
 66
     0
 67
     3
 68
     1
 69
     0
 70
     0
 71
     0
 72
     0
 40
0.0
170
     0
340
0
  0
XRECORD
  5
23C58
102
{ACAD_REACTORS
330
C
102
}
330
C
100
AcDbXrecord
280
     1
 90
        1
330
1002B
330
23B2E
330
23B30
  0
DICTIONARY
  5
5697
102
{ACAD_REACTORS
330
C
102
}
330
C
100
AcDbDictionary
281
     1
  3
CANNOSCALE
350
100CD
  3
CMLEADERSTYLE
350
100CC
  3
CTABLESTYLE
350
100CB
  3
CVIEWDETAILSTYLE
350
23BE2
  3
CVIEWSECTIONSTYLE
350
23BE3
  3
DIMASSOC
350
5698
  3
INDEXCTL
350
100CF
  3
LAYEREVAL
350
21D20
  3
LAYERNOTIFY
350
21D21
  3
LIGHTINGUNITS
350
21D1F
  3
MSLTSCALE
350
21D1E
  3
SORTENTS
350
100CE
  0
DICTIONARY
  5
102B7
102
{ACAD_REACTORS
330
C
102
}
330
C
100
AcDbDictionary
281
     1
  0
DICTIONARY
  5
1012A
102
{ACAD_REACTORS
330
C
102
}
330
C
100
AcDbDictionary
281
     1
  3
ASEBlockHierarchyIndexRecord
350
1012C
1001
DCO15
1040
1706443972.030999
  0
DICTIONARY
  5
21E05
102
{ACAD_REACTORS
330
21E04
102
}
330
21E04
100
AcDbDictionary
281
     1
  0
XRECORD
  5
10055
102
{ACAD_REACTORS
330
10054
102
}
330
10054
100
AcDbXrecord
280
     1
290
     1
  0
XRECORD
  5
10057
102
{ACAD_REACTORS
330
10056
102
}
330
10056
100
AcDbXrecord
280
     1
290
     1
  0
XRECORD
  5
1005B
102
{ACAD_REACTORS
330
1005A
102
}
330
1005A
100
AcDbXrecord
280
     1
290
     1
  0
XRECORD
  5
1005F
102
{ACAD_REACTORS
330
1005E
102
}
330
1005E
100
AcDbXrecord
280
     1
290
     1
  0
XRECORD
  5
10061
102
{ACAD_REACTORS
330
10060
102
}
330
10060
100
AcDbXrecord
280
     1
290
     1
  0
XRECORD
  5
10063
102
{ACAD_REACTORS
330
10062
102
}
330
10062
100
AcDbXrecord
280
     1
290
     1
  0
XRECORD
  5
10065
102
{ACAD_REACTORS
330
10064
102
}
330
10064
100
AcDbXrecord
280
     1
290
     1
  0
XRECORD
  5
10067
102
{ACAD_REACTORS
330
10066
102
}
330
10066
100
AcDbXrecord
280
     1
290
     1
  0
XRECORD
  5
10071
102
{ACAD_REACTORS
330
10070
102
}
330
10070
100
AcDbXrecord
280
     1
290
     1
  0
XRECORD
  5
10073
102
{ACAD_REACTORS
330
10072
102
}
330
10072
100
AcDbXrecord
280
     1
290
     1
  0
XRECORD
  5
10077
102
{ACAD_REACTORS
330
10076
102
}
330
10076
100
AcDbXrecord
280
     1
290
     1
  0
XRECORD
  5
10079
102
{ACAD_REACTORS
330
10078
102
}
330
10078
100
AcDbXrecord
280
     1
290
     1
  0
XRECORD
  5
1007B
102
{ACAD_REACTORS
330
1007A
102
}
330
1007A
100
AcDbXrecord
280
     1
290
     1
  0
XRECORD
  5
9011
102
{ACAD_REACTORS
330
178
102
}
330
178
100
AcDbXrecord
280
     1
340
1E
  0
SORTENTSTABLE
  5
10128
102
{ACAD_REACTORS
330
178
102
}
330
178
100
AcDbSortentsTable
330
1E
331
22760
  5
22772
331
22768
  5
2277A
331
22770
  5
231E3
331
22692
  5
226CE
331
226F1
  5
22744
331
22445
  5
2246D
331
22484
  5
224D3
331
221AE
  5
221BE
331
224F3
  5
22503
331
221B6
  5
221C6
331
224FB
  5
22672
331
2269A
  5
226EF
331
226F9
  5
2274C
331
22701
  5
22754
331
221BE
  5
221CE
331
22503
  5
22682
331
21D9F
  5
221A7
331
1FDA5
  5
1FDC1
331
221C6
  5
221D6
331
224D3
  5
224E3
331
2277A
  5
23242
331
22749
  5
2275B
331
22828
  5
232E5
331
22830
  5
232E6
331
22751
  5
22763
331
22759
  5
2276B
331
22465
  5
22477
331
224BC
  5
224DE
331
221CE
  5
221DE
331
22673
  5
2268C
331
1C556
  5
1C556
331
2246D
  5
2247D
331
224DC
  5
224EC
331
152AF
  5
152AF
331
221D6
  5
221FD
331
22683
  5
22694
331
221DE
  5
22205
331
22475
  5
22485
331
21DFF
  5
221AB
331
224E4
  5
224F4
331
1C457
  5
1C457
331
224EC
  5
224FC
331
2268B
  5
2269B
331
1C5C6
  5
1C5C6
331
221A7
  5
221B7
331
2247D
  5
224BA
331
1C45F
  5
1C45F
331
1FF1A
  5
2077E
331
22761
  5
22773
331
22769
  5
2277F
331
22771
  5
23217
331
23398
  5
234A8
331
227C1
  5
2324A
331
226F2
  5
22745
331
22485
  5
224D4
331
224F4
  5
22504
331
221AF
  5
221BF
331
22446
  5
2246E
331
22693
  5
226D4
331
226FA
  5
2274D
331
23550
  5
2338F
331
224FC
  5
22673
331
221B7
  5
221C7
331
22456
  5
22470
331
2269B
  5
226F0
331
1C60E
  5
1C60E
331
221BF
  5
221CF
331
22504
  5
22683
331
1C527
  5
1C527
331
221C7
  5
221D7
331
1FDA6
  5
1FF17
331
21E00
  5
221AC
331
224D4
  5
224E4
331
227F1
  5
226FE
331
2274A
  5
2275C
331
22752
  5
22764
331
2275A
  5
2276C
331
21DA0
  5
221A8
331
22674
  5
2268D
331
221CF
  5
221DF
331
22466
  5
22478
331
224DD
  5
224ED
331
221D7
  5
221FE
331
2246E
  5
2247E
331
226DB
  5
226FA
331
234F9
  5
23552
331
226E3
  5
226FD
331
22476
  5
22487
331
224E5
  5
224F5
331
221DF
  5
2236E
331
22684
  5
22695
331
2268C
  5
2269C
331
2247E
  5
224BB
331
224ED
  5
224FD
331
1FF1B
  5
1FF1B
331
22762
  5
22774
331
2276A
  5
227C1
331
22772
  5
23218
331
23399
  5
234A9
331
21D89
  5
2207A
331
221A8
  5
221B8
331
22694
  5
226D5
331
226F3
  5
22746
331
21D91
  5
2207D
331
221B0
  5
221C0
331
224F5
  5
22505
331
224FD
  5
22674
331
221B8
  5
221C8
331
22457
  5
22471
331
2269C
  5
226F1
331
226FB
  5
2274E
331
221C0
  5
221D0
331
22505
  5
22684
331
226C4
  5
226F2
331
1FDA7
  5
1FF18
331
1C540
  5
1C540
331
1FDB5
  5
2165E
331
224D5
  5
224E5
331
2207D
  5
221B1
331
22743
  5
22755
331
2274B
  5
2275D
331
22753
  5
22765
331
2275B
  5
2276D
331
221C8
  5
221D8
331
226D4
  5
226F8
331
A94C
  5
A94C
331
221D0
  5
221E0
331
22675
  5
2268E
331
226DC
  5
226FB
331
234FA
  5
23553
331
221D8
  5
221FF
331
2246F
  5
2247F
331
224DE
  5
224EE
331
22685
  5
22696
331
226E4
  5
226FF
331
22477
  5
22492
331
224E6
  5
224F6
331
224EE
  5
224FE
331
2268D
  5
226C4
331
2247F
  5
224BC
331
226EC
  5
22700
331
1FF1C
  5
1FF1A
331
22763
  5
22775
331
2276B
  5
227F0
331
22773
  5
23219
331
221A9
  5
221B9
331
226F4
  5
22747
331
22487
  5
224D5
331
21D92
  5
2207E
331
221B1
  5
221C1
331
224F6
  5
22506
331
22695
  5
226DB
331
226FC
  5
2274F
331
224FE
  5
22675
331
221B9
  5
221C9
331
22458
  5
22472
331
226C5
  5
226F3
331
2249F
  5
224D8
331
221C1
  5
221D1
331
22506
  5
22685
331
1C541
  5
1C541
331
226CD
  5
226F6
331
1C606
  5
1C606
331
2181E
  5
21D9F
331
224D6
  5
224E6
331
1FDB6
  5
216DE
331
1FDC0
  5
2191D
331
1FDBE
  5
21821
331
22744
  5
22756
331
2274C
  5
2275E
331
22754
  5
22766
331
2275C
  5
2276E
331
231E3
  5
232E8
331
221C9
  5
221D9
331
22508
  5
22687
331
221D1
  5
221E1
331
22468
  5
22479
331
226D5
  5
226F9
331
21DAA
  5
221A9
331
224DF
  5
224EF
331
2267E
  5
2268F
331
221D9
  5
22200
331
22470
  5
22480
331
22478
  5
22493
331
224E7
  5
224F7
331
22686
  5
22697
331
2268E
  5
226C5
331
224EF
  5
224FF
331
233AA
  5
234AC
331
22764
  5
22776
331
23393
  5
234A6
331
2276C
  5
227F1
331
22774
  5
2321A
331
22480
  5
224CF
331
221AA
  5
221BA
331
207FC
  5
21D92
331
1C51A
  5
1C51A
331
22696
  5
226DC
331
226F5
  5
22748
331
221B2
  5
221C2
331
224F7
  5
22507
331
224FF
  5
2267E
331
221BA
  5
221CA
331
22459
  5
22473
331
215BC
  5
21D9B
331
21D9B
  5
22080
331
226FD
  5
22750
331
224A0
  5
224D9
331
221C2
  5
221D2
331
22507
  5
22686
331
226C6
  5
226F4
331
226CE
  5
226F7
331
1C542
  5
1C542
331
2181F
  5
21DA0
331
224D7
  5
224E7
331
1FDB7
  5
2181E
331
1FDC1
  5
21C97
331
1FDBF
  5
218EC
331
22745
  5
22757
331
2274D
  5
2275F
331
22755
  5
22767
331
2275D
  5
2276F
331
221CA
  5
221DA
331
22469
  5
2247A
331
224D8
  5
224E8
331
221D2
  5
221F9
331
1C55A
  5
1C55A
331
2267F
  5
22690
331
226DE
  5
226FC
331
221DA
  5
22201
331
22471
  5
22481
331
224E0
  5
224F0
331
1C3D3
  5
1C3D3
331
224E8
  5
224F8
331
22687
  5
22698
331
2243A
  5
2246A
331
22479
  5
2249F
331
2353C
  5
234AA
331
23544
  5
234AB
331
2268F
  5
226C6
331
233AB
  5
234AD
331
2236E
  5
22465
331
22765
  5
22777
331
2276D
  5
22828
331
23394
  5
234A7
331
22775
  5
2321B
331
224F0
  5
22500
331
221AB
  5
221BB
331
22481
  5
224D0
331
226F6
  5
22749
331
2354C
  5
234A5
331
221B3
  5
221C3
331
224F8
  5
22508
331
22697
  5
226DE
331
226FE
  5
22751
331
221BB
  5
221CB
331
22500
  5
2267F
331
1C53B
  5
1C53B
331
226C7
  5
226F5
331
224A1
  5
224DA
331
221C3
  5
221D3
331
1FDB0
  5
207FC
331
1FDB8
  5
2181F
331
2277F
  5
23243
331
22746
  5
22758
331
2274E
  5
22760
331
22756
  5
22768
331
2275E
  5
22770
331
22670
  5
22689
331
221CB
  5
221DB
331
224B9
  5
224DB
331
224D9
  5
224E9
331
221D3
  5
221FA
331
2191D
  5
21DFF
331
2246A
  5
2247B
331
224E1
  5
224F1
331
22680
  5
22691
331
2077E
  5
21D8D
331
221DB
  5
22202
331
22472
  5
22482
331
2247A
  5
224A0
331
224E9
  5
224F9
331
21D2D
  5
22079
331
2243B
  5
2246C
331
1C5CB
  5
1C5CB
331
226EF
  5
22701
331
1C45C
  5
1C45C
331
221E0
  5
2236F
331
22370
  5
22468
331
2236F
  5
22466
331
233AC
  5
234AE
331
232ED
  5
1FDB6
331
22766
  5
22778
331
2276E
  5
22832
331
22776
  5
2321C
331
22690
  5
226C7
331
22482
  5
224D1
331
21D8D
  5
2207B
331
221AC
  5
221BC
331
224F1
  5
22501
331
224F9
  5
22670
331
22698
  5
226E3
331
22453
  5
2246F
331
22492
  5
224D6
331
226F7
  5
2274A
331
208DE
  5
21D95
331
21D95
  5
2207F
331
221B4
  5
221C4
331
22501
  5
22680
331
221BC
  5
221CC
331
2245B
  5
22474
331
21D9D
  5
22081
331
226FF
  5
22752
331
221C4
  5
221D4
331
1C53C
  5
1C53C
331
2165E
  5
21D9D
331
1FDB1
  5
208DE
331
22778
  5
2321E
331
22081
  5
221B5
331
22747
  5
22759
331
2274F
  5
22761
331
22757
  5
22769
331
2275F
  5
22771
331
224BA
  5
224DC
331
221CC
  5
221DC
331
22671
  5
2268A
331
1FDAF
  5
207A8
331
216DE
  5
21D9E
331
224DA
  5
224EA
331
1FF17
  5
21D2D
331
221D4
  5
221FB
331
22681
  5
22692
331
2077F
  5
21D8E
331
221DC
  5
22203
331
22473
  5
22483
331
224E2
  5
224F2
331
1C3D5
  5
1C3D5
331
224EA
  5
224FA
331
22689
  5
22699
331
2247B
  5
224A1
331
1C5CC
  5
1C5CC
331
221E1
  5
22370
331
22371
  5
22469
331
1FF18
  5
21D89
331
233AD
  5
234F9
331
22767
  5
22779
331
2276F
  5
231A4
331
22777
  5
2321D
331
226F0
  5
22702
331
224F2
  5
22502
331
22691
  5
226CD
331
221AD
  5
221BD
331
21D8E
  5
2207C
331
22483
  5
224D2
331
1C5F4
  5
1C5F4
331
226F8
  5
2274B
331
22493
  5
224D7
331
221B5
  5
221C5
331
224FA
  5
22671
331
22699
  5
226E5
331
22700
  5
22753
331
2245C
  5
22475
331
21D9E
  5
22082
331
221BD
  5
221CD
331
22502
  5
22681
331
1C53D
  5
1C53D
331
1FDA4
  5
1FDC0
331
221C5
  5
221D5
331
218EC
  5
21DFE
331
22779
  5
23241
331
1FDB2
  5
215BC
331
224D2
  5
224E2
331
2207A
  5
221AE
331
22748
  5
2275A
331
22750
  5
22762
331
22758
  5
2276A
331
22672
  5
2268B
331
221CD
  5
221DD
331
22464
  5
22476
331
224BB
  5
224DD
331
224DB
  5
224EB
331
152AE
  5
152AE
331
1C555
  5
1C555
331
221D5
  5
221FC
331
2246C
  5
2247C
331
22474
  5
22484
331
224E3
  5
224F3
331
21DFE
  5
221AA
331
221DD
  5
22204
331
22682
  5
22693
331
207A8
  5
21D91
331
21C97
  5
21E00
331
1C5C5
  5
1C5C5
331
2247C
  5
224B9
331
224EB
  5
224FB
331
2268A
  5
2269A
331
1C5CD
  5
1C5CD
331
1C45E
  5
1C45E
331
1FF19
  5
1FF19
  0
XRECORD
  5
9010
102
{ACAD_REACTORS
330
17A
102
}
330
17A
100
AcDbXrecord
280
     1
340
1A
  0
ACDBDETAILVIEWSTYLE
  5
23B30
102
{ACAD_XDICTIONARY
360
23BE7
102
}
102
{ACAD_REACTORS
330
23B2F
102
}
330
23B2F
100
AcDbModelDocViewStyle
 70
     0
  3
Imperial24
290
     0
100
AcDbDetailViewStyle
 70
     0
 71
     0
 90
        3
 71
     1
340
11
 62
   256
 40
0.24
340
0
 62
   256
 40
0.24
300

 40
0.36
280
     3
 71
     2
340
15
 90
       25
 62
   256
 71
     3
340
11
 62
   256
 40
0.24
 90
        1
 40
0.75
 90
        1
300
%<\AcVar ViewType \f "%tc1">% %<\AcVar ViewDetailId>%\PSCALE %<\AcVar ViewScale \f "%sn">%
 71
     4
340
15
 90
       25
 62
   256
340
15
 90
       25
 62
   256
280
     0
  0
LAYOUT
  5
904E
102
{ACAD_XDICTIONARY
360
21E0A
102
}
102
{ACAD_REACTORS
330
19
102
}
330
19
100
AcDbPlotSettings
  1

  2
Canon LBP3800 LIPSLX
  4
A4
  6

 40
5.873749732971191
 41
5.873747825622557
 42
5.873748779296875
 43
5.873748779296875
 44
209.9733276367186
 45
296.9259948730469
 46
12.8491819637551
 47
19.52827530649846
 48
0.0
 49
0.0
140
0.0
141
0.0
142
1.0
143
2.5
 70
 11940
 72
     1
 73
     0
 74
     1
  7
monochrome.ctb
 75
     0
147
0.4396468539207607
 76
     0
 77
     2
 78
   300
148
148.1273750533901
149
230.5569407722878
100
AcDbLayout
  1
Model
 70
     1
 71
     0
 10
0.0
 20
0.0
 11
12.0
 21
9.0
 12
0.0
 22
0.0
 32
0.0
 14
0.0
 24
0.0
 34
0.0
 15
0.0
 25
0.0
 35
0.0
146
0.0
 13
0.0
 23
0.0
 33
0.0
 16
1.0
 26
0.0
 36
0.0
 17
0.0
 27
1.0
 37
0.0
 76
     0
330
1E
331
15B34
1001
ACAD_PSEXT
1000
Canon LBP3800 LIPSLX
1000
Canon LBP3800 LIPSLX
1000
IP_192.168.54.50
1000

1070
     0
  0
LAYOUT
  5
904F
102
{ACAD_REACTORS
330
19
102
}
330
19
100
AcDbPlotSettings
  1

  2
LBP5400
  4

  6

 40
0.0
 41
0.0
 42
0.0
 43
0.0
 44
0.0
 45
0.0
 46
0.0
 47
0.0
 48
0.0
 49
0.0
140
0.0
141
0.0
142
1.0
143
1.0
 70
   688
 72
     0
 73
     1
 74
     1
  7
monochrome.stb
 75
     0
147
1.0
 76
     0
 77
     2
 78
   300
148
0.0
149
0.0
100
AcDbLayout
  1
ﾚｲｱｳﾄ1
 70
     0
 71
     1
 10
0.0
 20
0.0
 11
0.0
 21
0.0
 12
0.0
 22
0.0
 32
0.0
 14
0.0
 24
0.0
 34
0.0
 15
0.0
 25
0.0
 35
0.0
146
0.0
 13
0.0
 23
0.0
 33
0.0
 16
1.0
 26
0.0
 36
0.0
 17
0.0
 27
1.0
 37
0.0
 76
     0
330
1A
331
9AC
  0
MATERIAL
  5
10005
102
{ACAD_XDICTIONARY
360
10006
102
}
102
{ACAD_REACTORS
330
FFFC
102
}
330
FFFC
100
AcDbMaterial
  1
ByBlock
 72
     0
 43
0.0208333333333333
 43
0.0
 43
0.0
 43
0.0
 43
0.0
 43
0.0208333333333333
 43
0.0
 43
0.0
 43
0.0
 43
0.0
 43
1.0
 43
0.0
 43
0.0
 43
0.0
 43
0.0
 43
1.0
 77
     0
 47
0.0208333333333333
 47
0.0
 47
0.0
 47
0.0
 47
0.0
 47
0.0208333333333333
 47
0.0
 47
0.0
 47
0.0
 47
0.0
 47
1.0
 47
0.0
 47
0.0
 47
0.0
 47
0.0
 47
1.0
171
     0
 49
0.0208333333333333
 49
0.0
 49
0.0
 49
0.0
 49
0.0
 49
0.0208333333333333
 49
0.0
 49
0.0
 49
0.0
 49
0.0
 49
1.0
 49
0.0
 49
0.0
 49
0.0
 49
0.0
 49
1.0
175
     0
142
0.0208333333333333
142
0.0
142
0.0
142
0.0
142
0.0
142
0.0208333333333333
142
0.0
142
0.0
142
0.0
142
0.0
142
1.0
142
0.0
142
0.0
142
0.0
142
0.0
142
1.0
179
     0
144
0.0208333333333333
144
0.0
144
0.0
144
0.0
144
0.0
144
0.0208333333333333
144
0.0
144
0.0
144
0.0
144
0.0
144
1.0
144
0.0
144
0.0
144
0.0
144
0.0
144
1.0
147
0.0208333333333333
147
0.0
147
0.0
147
0.0
147
0.0
147
0.0208333333333333
147
0.0
147
0.0
147
0.0
147
0.0
147
1.0
147
0.0
147
0.0
147
0.0
147
0.0
147
1.0
  0
MATERIAL
  5
FFFD
102
{ACAD_XDICTIONARY
360
FFFE
102
}
102
{ACAD_REACTORS
330
FFFC
102
}
330
FFFC
100
AcDbMaterial
  1
ByLayer
 72
     0
 43
0.0208333333333333
 43
0.0
 43
0.0
 43
0.0
 43
0.0
 43
0.0208333333333333
 43
0.0
 43
0.0
 43
0.0
 43
0.0
 43
1.0
 43
0.0
 43
0.0
 43
0.0
 43
0.0
 43
1.0
 77
     0
 47
0.0208333333333333
 47
0.0
 47
0.0
 47
0.0
 47
0.0
 47
0.0208333333333333
 47
0.0
 47
0.0
 47
0.0
 47
0.0
 47
1.0
 47
0.0
 47
0.0
 47
0.0
 47
0.0
 47
1.0
171
     0
 49
0.0208333333333333
 49
0.0
 49
0.0
 49
0.0
 49
0.0
 49
0.0208333333333333
 49
0.0
 49
0.0
 49
0.0
 49
0.0
 49
1.0
 49
0.0
 49
0.0
 49
0.0
 49
0.0
 49
1.0
175
     0
142
0.0208333333333333
142
0.0
142
0.0
142
0.0
142
0.0
142
0.0208333333333333
142
0.0
142
0.0
142
0.0
142
0.0
142
1.0
142
0.0
142
0.0
142
0.0
142
0.0
142
1.0
179
     0
144
0.0208333333333333
144
0.0
144
0.0
144
0.0
144
0.0
144
0.0208333333333333
144
0.0
144
0.0
144
0.0
144
0.0
144
1.0
144
0.0
144
0.0
144
0.0
144
0.0
144
1.0
147
0.0208333333333333
147
0.0
147
0.0
147
0.0
147
0.0
147
0.0208333333333333
147
0.0
147
0.0
147
0.0
147
0.0
147
1.0
147
0.0
147
0.0
147
0.0
147
0.0
147
1.0
  0
MATERIAL
  5
1000D
102
{ACAD_XDICTIONARY
360
1000E
102
}
102
{ACAD_REACTORS
330
FFFC
102
}
330
FFFC
100
AcDbMaterial
  1
Global
 72
     0
 43
0.0208333333333333
 43
0.0
 43
0.0
 43
0.0
 43
0.0
 43
0.0208333333333333
 43
0.0
 43
0.0
 43
0.0
 43
0.0
 43
1.0
 43
0.0
 43
0.0
 43
0.0
 43
0.0
 43
1.0
 77
     0
 47
0.0208333333333333
 47
0.0
 47
0.0
 47
0.0
 47
0.0
 47
0.0208333333333333
 47
0.0
 47
0.0
 47
0.0
 47
0.0
 47
1.0
 47
0.0
 47
0.0
 47
0.0
 47
0.0
 47
1.0
171
     0
 49
0.0208333333333333
 49
0.0
 49
0.0
 49
0.0
 49
0.0
 49
0.0208333333333333
 49
0.0
 49
0.0
 49
0.0
 49
0.0
 49
1.0
 49
0.0
 49
0.0
 49
0.0
 49
0.0
 49
1.0
175
     0
142
0.0208333333333333
142
0.0
142
0.0
142
0.0
142
0.0
142
0.0208333333333333
142
0.0
142
0.0
142
0.0
142
0.0
142
1.0
142
0.0
142
0.0
142
0.0
142
0.0
142
1.0
179
     0
144
0.0208333333333333
144
0.0
144
0.0
144
0.0
144
0.0
144
0.0208333333333333
144
0.0
144
0.0
144
0.0
144
0.0
144
1.0
144
0.0
144
0.0
144
0.0
144
0.0
144
1.0
147
0.0208333333333333
147
0.0
147
0.0
147
0.0
147
0.0
147
0.0208333333333333
147
0.0
147
0.0
147
0.0
147
0.0
147
1.0
147
0.0
147
0.0
147
0.0
147
0.0
147
1.0
  0
MLEADERSTYLE
  5
1004F
102
{ACAD_REACTORS
330
1004E
102
}
330
1004E
100
AcDbMLeaderStyle
179
     2
170
     2
171
     1
172
     0
 90
        2
 40
0.0
 41
0.0
173
     1
 91
-1056964608
340
13
 92
       -2
290
     1
 42
0.09
291
     1
 43
0.36
  3
Standard
 44
0.18
300

342
11
174
     1
178
     6
175
     1
176
     0
 93
-1056964608
 45
0.18
292
     0
297
     0
 46
0.18
 94
-1056964608
 47
1.0
 49
1.0
140
1.0
293
     1
141
0.0
294
     1
177
     0
142
1.0
295
     0
296
     0
143
0.125
271
     0
272
     9
273
     9
298
     0
  0
MLINESTYLE
  5
17
102
{ACAD_REACTORS
330
16
102
}
330
16
100
AcDbMlineStyle
  2
STANDARD
 70
     0
  3

 62
   256
 51
90.0
 52
90.0
 71
     2
 49
0.5
 62
   256
  6
BYLAYER
 49
-0.5
 62
   256
  6
BYLAYER
  0
ACDBPLACEHOLDER
  5
F
102
{ACAD_REACTORS
330
E
102
}
330
E
  0
SCALE
  5
1002D
102
{ACAD_REACTORS
330
1002C
102
}
330
1002C
100
AcDbScale
 70
     0
300
1:1
140
1.0
141
1.0
290
     1
  0
SCALE
  5
1002E
102
{ACAD_REACTORS
330
1002C
102
}
330
1002C
100
AcDbScale
 70
     0
300
1:2
140
1.0
141
2.0
290
     0
  0
SCALE
  5
1002F
102
{ACAD_REACTORS
330
1002C
102
}
330
1002C
100
AcDbScale
 70
     0
300
1:4
140
1.0
141
4.0
290
     0
  0
SCALE
  5
10030
102
{ACAD_REACTORS
330
1002C
102
}
330
1002C
100
AcDbScale
 70
     0
300
1:5
140
1.0
141
5.0
290
     0
  0
SCALE
  5
10031
102
{ACAD_REACTORS
330
1002C
102
}
330
1002C
100
AcDbScale
 70
     0
300
1:8
140
1.0
141
8.0
290
     0
  0
SCALE
  5
10032
102
{ACAD_REACTORS
330
1002C
102
}
330
1002C
100
AcDbScale
 70
     0
300
1:10
140
1.0
141
10.0
290
     0
  0
SCALE
  5
10033
102
{ACAD_REACTORS
330
1002C
102
}
330
1002C
100
AcDbScale
 70
     0
300
1:16
140
1.0
141
16.0
290
     0
  0
SCALE
  5
10034
102
{ACAD_REACTORS
330
1002C
102
}
330
1002C
100
AcDbScale
 70
     0
300
1:20
140
1.0
141
20.0
290
     0
  0
SCALE
  5
10035
102
{ACAD_REACTORS
330
1002C
102
}
330
1002C
100
AcDbScale
 70
     0
300
1:30
140
1.0
141
30.0
290
     0
  0
SCALE
  5
10036
102
{ACAD_REACTORS
330
1002C
102
}
330
1002C
100
AcDbScale
 70
     0
300
1:40
140
1.0
141
40.0
290
     0
  0
SCALE
  5
10037
102
{ACAD_REACTORS
330
1002C
102
}
330
1002C
100
AcDbScale
 70
     0
300
1:50
140
1.0
141
50.0
290
     0
  0
SCALE
  5
10038
102
{ACAD_REACTORS
330
1002C
102
}
330
1002C
100
AcDbScale
 70
     0
300
1:100
140
1.0
141
100.0
290
     0
  0
SCALE
  5
10039
102
{ACAD_REACTORS
330
1002C
102
}
330
1002C
100
AcDbScale
 70
     0
300
2:1
140
2.0
141
1.0
290
     0
  0
SCALE
  5
1003A
102
{ACAD_REACTORS
330
1002C
102
}
330
1002C
100
AcDbScale
 70
     0
300
4:1
140
4.0
141
1.0
290
     0
  0
SCALE
  5
1003B
102
{ACAD_REACTORS
330
1002C
102
}
330
1002C
100
AcDbScale
 70
     0
300
8:1
140
8.0
141
1.0
290
     0
  0
SCALE
  5
1003C
102
{ACAD_REACTORS
330
1002C
102
}
330
1002C
100
AcDbScale
 70
     0
300
10:1
140
10.0
141
1.0
290
     0
  0
SCALE
  5
1003D
102
{ACAD_REACTORS
330
1002C
102
}
330
1002C
100
AcDbScale
 70
     0
300
100:1
140
100.0
141
1.0
290
     0
  0
SCALE
  5
1003E
102
{ACAD_REACTORS
330
1002C
102
}
330
1002C
100
AcDbScale
 70
     0
300
1/128" = 1'-0"
140
0.0078125
141
12.0
290
     0
  0
SCALE
  5
1003F
102
{ACAD_REACTORS
330
1002C
102
}
330
1002C
100
AcDbScale
 70
     0
300
1/64" = 1'-0"
140
0.015625
141
12.0
290
     0
  0
SCALE
  5
10040
102
{ACAD_REACTORS
330
1002C
102
}
330
1002C
100
AcDbScale
 70
     0
300
1/32" = 1'-0"
140
0.03125
141
12.0
290
     0
  0
SCALE
  5
10041
102
{ACAD_REACTORS
330
1002C
102
}
330
1002C
100
AcDbScale
 70
     0
300
1/16" = 1'-0"
140
0.0625
141
12.0
290
     0
  0
SCALE
  5
10042
102
{ACAD_REACTORS
330
1002C
102
}
330
1002C
100
AcDbScale
 70
     0
300
3/32" = 1'-0"
140
0.09375
141
12.0
290
     0
  0
SCALE
  5
10043
102
{ACAD_REACTORS
330
1002C
102
}
330
1002C
100
AcDbScale
 70
     0
300
1/8" = 1'-0"
140
0.125
141
12.0
290
     0
  0
SCALE
  5
10044
102
{ACAD_REACTORS
330
1002C
102
}
330
1002C
100
AcDbScale
 70
     0
300
3/16" = 1'-0"
140
0.1875
141
12.0
290
     0
  0
SCALE
  5
10045
102
{ACAD_REACTORS
330
1002C
102
}
330
1002C
100
AcDbScale
 70
     0
300
1/4" = 1'-0"
140
0.25
141
12.0
290
     0
  0
SCALE
  5
10046
102
{ACAD_REACTORS
330
1002C
102
}
330
1002C
100
AcDbScale
 70
     0
300
3/8" = 1'-0"
140
0.375
141
12.0
290
     0
  0
SCALE
  5
10047
102
{ACAD_REACTORS
330
1002C
102
}
330
1002C
100
AcDbScale
 70
     0
300
1/2" = 1'-0"
140
0.5
141
12.0
290
     0
  0
SCALE
  5
10048
102
{ACAD_REACTORS
330
1002C
102
}
330
1002C
100
AcDbScale
 70
     0
300
3/4" = 1'-0"
140
0.75
141
12.0
290
     0
  0
SCALE
  5
10049
102
{ACAD_REACTORS
330
1002C
102
}
330
1002C
100
AcDbScale
 70
     0
300
1" = 1'-0"
140
1.0
141
12.0
290
     0
  0
SCALE
  5
1004A
102
{ACAD_REACTORS
330
1002C
102
}
330
1002C
100
AcDbScale
 70
     0
300
1-1/2" = 1'-0"
140
1.5
141
12.0
290
     0
  0
SCALE
  5
1004B
102
{ACAD_REACTORS
330
1002C
102
}
330
1002C
100
AcDbScale
 70
     0
300
3" = 1'-0"
140
3.0
141
12.0
290
     0
  0
SCALE
  5
1004C
102
{ACAD_REACTORS
330
1002C
102
}
330
1002C
100
AcDbScale
 70
     0
300
6" = 1'-0"
140
6.0
141
12.0
290
     0
  0
SCALE
  5
1004D
102
{ACAD_REACTORS
330
1002C
102
}
330
1002C
100
AcDbScale
 70
     0
300
1'-0" = 1'-0"
140
12.0
141
12.0
290
     0
  0
ACDBSECTIONVIEWSTYLE
  5
23B2E
102
{ACAD_XDICTIONARY
360
23BE5
102
}
102
{ACAD_REACTORS
330
23B2D
102
}
330
23B2D
100
AcDbModelDocViewStyle
 70
     0
  3
Imperial24
290
     0
100
AcDbSectionViewStyle
 70
     0
 71
     0
 90
       78
 71
     1
340
11
 62
   256
 40
0.24
340
0
340
0
 62
   256
 40
0.24
300
I, O, Q, S, X, Z
 40
0.48
 90
        3
 40
0.18
 90
        1
 71
     2
340
15
 90
       25
 62
   256
340
15
 90
       50
 62
   256
 40
0.24
 40
0.0
 40
0.24
 71
     3
340
11
 62
   256
 40
0.24
 90
        1
 40
0.75
 90
        1
300
%<\AcVar ViewType \f "%tc1">% %<\AcVar ViewSectionStartId>%-%<\AcVar ViewSectionEndId>%\PSCALE %<\AcVar ViewScale \f "%sn">%
 71
     4
 62
   256
 62
   257
300
ANSI31
 40
1.0
 90
        0
290
     0
290
     0
 90
        6
 40
0.0
 40
1.570796326794896
 40
0.2617993877991494
 40
1.308996938995747
 40
-0.2617993877991494
 40
1.832595714594044
  0
TABLESTYLE
  5
1002B
102
{ACAD_XDICTIONARY
360
1007E
102
}
102
{ACAD_REACTORS
330
1002A
102
}
330
1002A
100
AcDbTableStyle
280
     0
  3
Standard
 70
     0
 71
     0
 40
0.06
 41
0.06
280
     0
281
     0
  7
STANDARD
140
0.18
170
     2
 62
     0
 63
     7
283
     0
 90
      512
 91
        0
  1

274
    -2
284
     1
 64
     0
275
    -2
285
     1
 65
     0
276
    -2
286
     1
 66
     0
277
    -2
287
     1
 67
     0
278
    -2
288
     1
 68
     0
279
    -2
289
     1
 69
     0
  7
STANDARD
140
0.25
170
     5
 62
     0
 63
     7
283
     0
 90
      512
 91
        0
  1

274
    -2
284
     1
 64
     0
275
    -2
285
     1
 65
     0
276
    -2
286
     1
 66
     0
277
    -2
287
     1
 67
     0
278
    -2
288
     1
 68
     0
279
    -2
289
     1
 69
     0
  7
STANDARD
140
0.18
170
     5
 62
     0
 63
     7
283
     0
 90
      512
 91
        0
  1

274
    -2
284
     1
 64
     0
275
    -2
285
     1
 65
     0
276
    -2
286
     1
 66
     0
277
    -2
287
     1
 67
     0
278
    -2
288
     1
 68
     0
279
    -2
289
     1
 69
     0
  0
VISUALSTYLE
  5
1001B
102
{ACAD_REACTORS
330
10015
102
}
330
10015
100
AcDbVisualStyle
  2
2dWireframe
 70
     4
177
     3
291
     0
 70
    58
 90
        0
176
     1
 90
        2
176
     1
 90
        0
176
     1
 90
        0
176
     1
 40
0.6
176
     1
 40
30.0
176
     1
 62
     7
176
     1
 90
        1
176
     1
 90
        4
176
     1
 62
     7
176
     1
 62
   257
176
     1
 90
        1
176
     1
 90
        1
176
     1
 40
1.0
176
     1
 90
        0
176
     1
 62
   257
176
     1
 40
1.0
176
     1
 90
        1
176
     1
 90
        6
176
     1
 90
        2
176
     1
 62
     7
176
     1
 90
        5
176
     1
 90
        0
176
     1
 90
        0
176
     1
290
     0
176
     1
 90
        1
176
     1
 40
0.0
176
     1
 90
        0
176
     1
290
     1
176
     1
290
     1
176
     1
290
     0
176
     1
290
     0
176
     1
290
     0
176
     1
290
     0
176
     1
290
     0
176
     1
290
     0
176
     1
290
     0
176
     1
 90
       50
176
     1
 40
0.0
176
     1
 40
1.0
176
     1
 90
        0
176
     1
 62
    18
176
     1
 90
       50
176
     1
 90
        3
176
     1
 62
     5
420
      255
176
     1
290
     0
176
     1
 90
       50
176
     1
 90
       50
176
     1
 90
       50
176
     1
290
     0
176
     1
 90
       50
176
     1
 62
   256
176
     0
 40
1.0
176
     0
 90
        2
176
     1
  1
strokes_ogs.tif
176
     1
290
     0
176
     1
 40
1.0
176
     1
 40
1.0
176
     1
  0
VISUALSTYLE
  5
1001D
102
{ACAD_REACTORS
330
10015
102
}
330
10015
100
AcDbVisualStyle
  2
3D Hidden
 70
     6
177
     3
291
     0
 70
    58
 90
        1
176
     1
 90
        2
176
     1
 90
        2
176
     1
 90
        0
176
     1
 40
0.6
176
     1
 40
30.0
176
     1
 62
     7
176
     1
 90
        2
176
     1
 90
        2
176
     1
 62
     7
176
     1
 62
   257
176
     1
 90
        2
176
     1
 90
        1
176
     1
 40
179.0
176
     1
 90
        0
176
     1
 62
   257
176
     1
 40
1.0
176
     1
 90
        1
176
     1
 90
        6
176
     1
 90
        2
176
     1
 62
     7
176
     1
 90
        3
176
     1
 90
        0
176
     1
 90
        0
176
     1
290
     0
176
     1
 90
        1
176
     1
 40
0.0
176
     1
 90
        0
176
     1
290
     0
176
     1
290
     1
176
     1
290
     1
176
     1
290
     0
176
     1
290
     0
176
     1
290
     0
176
     1
290
     0
176
     1
290
     0
176
     1
290
     0
176
     1
 90
       50
176
     1
 40
0.0
176
     1
 40
1.0
176
     1
 90
        0
176
     1
 62
    18
176
     1
 90
       50
176
     1
 90
        3
176
     1
 62
     5
420
      255
176
     1
290
     0
176
     1
 90
       50
176
     1
 90
       50
176
     1
 90
       50
176
     1
290
     0
176
     1
 90
       50
176
     1
 62
   256
176
     0
 40
1.0
176
     0
 90
        2
176
     1
  1
strokes_ogs.tif
176
     1
290
     0
176
     1
 40
1.0
176
     1
 40
1.0
176
     1
  0
VISUALSTYLE
  5
1001C
102
{ACAD_REACTORS
330
10015
102
}
330
10015
100
AcDbVisualStyle
  2
3dWireframe
 70
     5
177
     3
291
     0
 70
    58
 90
        0
176
     1
 90
        2
176
     1
 90
        0
176
     1
 90
        0
176
     1
 40
0.6
176
     1
 40
30.0
176
     1
 62
     7
176
     1
 90
        1
176
     1
 90
        4
176
     1
 62
     7
176
     1
 62
   257
176
     1
 90
        1
176
     1
 90
        1
176
     1
 40
1.0
176
     1
 90
        0
176
     1
 62
   257
176
     1
 40
1.0
176
     1
 90
        1
176
     1
 90
        6
176
     1
 90
        2
176
     1
 62
     7
176
     1
 90
        5
176
     1
 90
        0
176
     1
 90
        0
176
     1
290
     0
176
     1
 90
        1
176
     1
 40
0.0
176
     1
 90
        0
176
     1
290
     0
176
     1
290
     1
176
     1
290
     1
176
     1
290
     0
176
     1
290
     0
176
     1
290
     0
176
     1
290
     0
176
     1
290
     0
176
     1
290
     0
176
     1
 90
       50
176
     1
 40
0.0
176
     1
 40
1.0
176
     1
 90
        0
176
     1
 62
    18
176
     1
 90
       50
176
     1
 90
        3
176
     1
 62
     5
420
      255
176
     1
290
     0
176
     1
 90
       50
176
     1
 90
       50
176
     1
 90
       50
176
     1
290
     0
176
     1
 90
       50
176
     1
 62
   256
176
     0
 40
1.0
176
     0
 90
        2
176
     1
  1
strokes_ogs.tif
176
     1
290
     0
176
     1
 40
1.0
176
     1
 40
1.0
176
     1
  0
VISUALSTYLE
  5
1001A
102
{ACAD_REACTORS
330
10015
102
}
330
10015
100
AcDbVisualStyle
  2
Basic
 70
     7
177
     3
291
     1
 70
    58
 90
        1
176
     1
 90
        0
176
     1
 90
        1
176
     1
 90
        0
176
     1
 40
0.6
176
     1
 40
30.0
176
     1
 62
     7
176
     1
 90
        0
176
     1
 90
        4
176
     1
 62
     7
176
     1
 62
   257
176
     1
 90
        1
176
     1
 90
        1
176
     1
 40
1.0
176
     1
 90
        8
176
     1
 62
     7
176
     1
 40
1.0
176
     1
 90
        1
176
     1
 90
        6
176
     1
 90
        2
176
     1
 62
     7
176
     1
 90
        5
176
     1
 90
        0
176
     1
 90
        0
176
     1
290
     0
176
     1
 90
        1
176
     1
 40
0.0
176
     1
 90
        0
176
     1
290
     0
176
     1
290
     1
176
     1
290
     1
176
     1
290
     0
176
     1
290
     0
176
     1
290
     0
176
     1
290
     0
176
     1
290
     0
176
     1
290
     0
176
     1
 90
       50
176
     1
 40
0.0
176
     1
 40
1.0
176
     1
 90
        0
176
     1
 62
    18
176
     1
 90
       50
176
     1
 90
        3
176
     1
 62
     5
420
      255
176
     1
290
     0
176
     1
 90
       50
176
     1
 90
       50
176
     1
 90
       50
176
     1
290
     0
176
     1
 90
       50
176
     1
 62
   256
176
     0
 40
1.0
176
     0
 90
        2
176
     1
  1
strokes_ogs.tif
176
     1
290
     0
176
     1
 40
1.0
176
     1
 40
1.0
176
     1
  0
VISUALSTYLE
  5
10021
102
{ACAD_REACTORS
330
10015
102
}
330
10015
100
AcDbVisualStyle
  2
Brighten
 70
    12
177
     3
291
     1
 70
    58
 90
        2
176
     1
 90
        2
176
     1
 90
        0
176
     1
 90
        0
176
     1
 40
0.6
176
     1
 40
30.0
176
     1
 62
     7
176
     1
 90
        1
176
     1
 90
        4
176
     1
 62
     7
176
     1
 62
   257
176
     1
 90
        1
176
     1
 90
        1
176
     1
 40
1.0
176
     1
 90
        8
176
     1
 62
     7
176
     1
 40
1.0
176
     1
 90
        1
176
     1
 90
        6
176
     1
 90
        2
176
     1
 62
     7
176
     1
 90
        5
176
     1
 90
        0
176
     1
 90
        0
176
     1
290
     0
176
     1
 90
        1
176
     1
 40
50.0
176
     1
 90
        0
176
     1
290
     0
176
     1
290
     1
176
     1
290
     1
176
     1
290
     0
176
     1
290
     0
176
     1
290
     0
176
     1
290
     0
176
     1
290
     0
176
     1
290
     0
176
     1
 90
       50
176
     1
 40
0.0
176
     1
 40
1.0
176
     1
 90
        0
176
     1
 62
    18
176
     1
 90
       50
176
     1
 90
        3
176
     1
 62
     5
420
      255
176
     1
290
     0
176
     1
 90
       50
176
     1
 90
       50
176
     1
 90
       50
176
     1
290
     0
176
     1
 90
       50
176
     1
 62
   256
176
     0
 40
1.0
176
     0
 90
        2
176
     1
  1
strokes_ogs.tif
176
     1
290
     0
176
     1
 40
1.0
176
     1
 40
1.0
176
     1
  0
VISUALSTYLE
  5
10025
102
{ACAD_REACTORS
330
10015
102
}
330
10015
100
AcDbVisualStyle
  2
ColorChange
 70
    16
177
     3
291
     1
 70
    58
 90
        2
176
     1
 90
        2
176
     1
 90
        3
176
     1
 90
        0
176
     1
 40
0.6
176
     1
 40
30.0
176
     1
 62
     8
176
     1
 90
        1
176
     1
 90
        4
176
     1
 62
     7
176
     1
 62
   257
176
     1
 90
        1
176
     1
 90
        1
176
     1
 40
1.0
176
     1
 90
        8
176
     1
 62
     8
176
     1
 40
1.0
176
     1
 90
        1
176
     1
 90
        6
176
     1
 90
        2
176
     1
 62
     7
176
     1
 90
        5
176
     1
 90
        0
176
     1
 90
        0
176
     1
290
     0
176
     1
 90
        1
176
     1
 40
0.0
176
     1
 90
        0
176
     1
290
     0
176
     1
290
     1
176
     1
290
     1
176
     1
290
     0
176
     1
290
     0
176
     1
290
     0
176
     1
290
     0
176
     1
290
     0
176
     1
290
     0
176
     1
 90
       50
176
     1
 40
0.0
176
     1
 40
1.0
176
     1
 90
        0
176
     1
 62
    18
176
     1
 90
       50
176
     1
 90
        3
176
     1
 62
     5
420
      255
176
     1
290
     0
176
     1
 90
       50
176
     1
 90
       50
176
     1
 90
       50
176
     1
290
     0
176
     1
 90
       50
176
     1
 62
   256
176
     0
 40
1.0
176
     0
 90
        2
176
     1
  1
strokes_ogs.tif
176
     1
290
     0
176
     1
 40
1.0
176
     1
 40
1.0
176
     1
  0
VISUALSTYLE
  5
1001E
102
{ACAD_REACTORS
330
10015
102
}
330
10015
100
AcDbVisualStyle
  2
Conceptual
 70
     9
177
     3
291
     0
 70
    58
 90
        3
176
     1
 90
        2
176
     1
 90
        0
176
     1
 90
        0
176
     1
 40
0.6
176
     1
 40
30.0
176
     1
 62
     7
176
     1
 90
        2
176
     1
 90
        2
176
     1
 62
     7
176
     1
 62
   257
176
     1
 90
        1
176
     1
 90
        1
176
     1
 40
179.0
176
     1
 90
        8
176
     1
 62
     7
176
     1
 40
1.0
176
     1
 90
        1
176
     1
 90
        6
176
     1
 90
        2
176
     1
 62
     7
176
     1
 90
        3
176
     1
 90
        0
176
     1
 90
        0
176
     1
290
     0
176
     1
 90
        1
176
     1
 40
0.0
176
     1
 90
        0
176
     1
290
     0
176
     1
290
     1
176
     1
290
     1
176
     1
290
     0
176
     1
290
     0
176
     1
290
     0
176
     1
290
     0
176
     1
290
     0
176
     1
290
     0
176
     1
 90
       50
176
     1
 40
0.0
176
     1
 40
1.0
176
     1
 90
        0
176
     1
 62
    18
176
     1
 90
       50
176
     1
 90
        3
176
     1
 62
     5
420
      255
176
     1
290
     0
176
     1
 90
       50
176
     1
 90
       50
176
     1
 90
       50
176
     1
290
     0
176
     1
 90
       50
176
     1
 62
   256
176
     0
 40
1.0
176
     0
 90
        2
176
     1
  1
strokes_ogs.tif
176
     1
290
     0
176
     1
 40
1.0
176
     1
 40
1.0
176
     1
  0
VISUALSTYLE
  5
10020
102
{ACAD_REACTORS
330
10015
102
}
330
10015
100
AcDbVisualStyle
  2
Dim
 70
    11
177
     3
291
     1
 70
    58
 90
        2
176
     1
 90
        2
176
     1
 90
        0
176
     1
 90
        0
176
     1
 40
0.6
176
     1
 40
30.0
176
     1
 62
     7
176
     1
 90
        1
176
     1
 90
        4
176
     1
 62
     7
176
     1
 62
   257
176
     1
 90
        1
176
     1
 90
        1
176
     1
 40
1.0
176
     1
 90
        8
176
     1
 62
     7
176
     1
 40
1.0
176
     1
 90
        1
176
     1
 90
        6
176
     1
 90
        2
176
     1
 62
     7
176
     1
 90
        5
176
     1
 90
        0
176
     1
 90
        0
176
     1
290
     0
176
     1
 90
        1
176
     1
 40
-50.0
176
     1
 90
        0
176
     1
290
     0
176
     1
290
     1
176
     1
290
     1
176
     1
290
     0
176
     1
290
     0
176
     1
290
     0
176
     1
290
     0
176
     1
290
     0
176
     1
290
     0
176
     1
 90
       50
176
     1
 40
0.0
176
     1
 40
1.0
176
     1
 90
        0
176
     1
 62
    18
176
     1
 90
       50
176
     1
 90
        3
176
     1
 62
     5
420
      255
176
     1
290
     0
176
     1
 90
       50
176
     1
 90
       50
176
     1
 90
       50
176
     1
290
     0
176
     1
 90
       50
176
     1
 62
   256
176
     0
 40
1.0
176
     0
 90
        2
176
     1
  1
strokes_ogs.tif
176
     1
290
     0
176
     1
 40
1.0
176
     1
 40
1.0
176
     1
  0
VISUALSTYLE
  5
10028
102
{ACAD_REACTORS
330
10015
102
}
330
10015
100
AcDbVisualStyle
  2
EdgeColorOff
 70
    22
177
     3
291
     1
 70
    58
 90
        2
176
     0
 90
        2
176
     0
 90
        0
176
     0
 90
        0
176
     0
 40
0.6
176
     0
 40
30.0
176
     0
 62
     7
176
     0
 90
        1
176
     0
 90
        4
176
     0
 62
     7
176
     0
 62
   257
176
     0
 90
        1
176
     0
 90
        1
176
     0
 40
1.0
176
     0
 90
        8
176
     2
 62
     7
176
     0
 40
1.0
176
     0
 90
        1
176
     0
 90
        6
176
     0
 90
        2
176
     0
 62
     7
176
     0
 90
        5
176
     0
 90
        0
176
     0
 90
        0
176
     0
290
     0
176
     0
 90
        1
176
     0
 40
0.0
176
     0
 90
        0
176
     0
290
     0
176
     1
290
     1
176
     1
290
     1
176
     1
290
     0
176
     1
290
     0
176
     1
290
     0
176
     1
290
     0
176
     1
290
     0
176
     1
290
     0
176
     1
 90
       50
176
     1
 40
0.0
176
     1
 40
1.0
176
     1
 90
        0
176
     1
 62
    18
176
     1
 90
       50
176
     1
 90
        3
176
     1
 62
     5
420
      255
176
     1
290
     0
176
     1
 90
       50
176
     1
 90
       50
176
     1
 90
       50
176
     1
290
     0
176
     1
 90
       50
176
     1
 62
   256
176
     0
 40
1.0
176
     0
 90
        2
176
     1
  1
strokes_ogs.tif
176
     1
290
     0
176
     1
 40
1.0
176
     1
 40
1.0
176
     1
  0
VISUALSTYLE
  5
10024
102
{ACAD_REACTORS
330
10015
102
}
330
10015
100
AcDbVisualStyle
  2
Facepattern
 70
    15
177
     3
291
     1
 70
    58
 90
        2
176
     1
 90
        2
176
     1
 90
        0
176
     1
 90
        0
176
     1
 40
0.6
176
     1
 40
30.0
176
     1
 62
     7
176
     1
 90
        1
176
     1
 90
        4
176
     1
 62
     7
176
     1
 62
   257
176
     1
 90
        1
176
     1
 90
        1
176
     1
 40
1.0
176
     1
 90
        8
176
     1
 62
     7
176
     1
 40
1.0
176
     1
 90
        1
176
     1
 90
        6
176
     1
 90
        2
176
     1
 62
     7
176
     1
 90
        5
176
     1
 90
        0
176
     1
 90
        0
176
     1
290
     0
176
     1
 90
        1
176
     1
 40
0.0
176
     1
 90
        0
176
     1
290
     0
176
     1
290
     1
176
     1
290
     1
176
     1
290
     0
176
     1
290
     0
176
     1
290
     0
176
     1
290
     0
176
     1
290
     0
176
     1
290
     0
176
     1
 90
       50
176
     1
 40
0.0
176
     1
 40
1.0
176
     1
 90
        0
176
     1
 62
    18
176
     1
 90
       50
176
     1
 90
        3
176
     1
 62
     5
420
      255
176
     1
290
     0
176
     1
 90
       50
176
     1
 90
       50
176
     1
 90
       50
176
     1
290
     0
176
     1
 90
       50
176
     1
 62
   256
176
     0
 40
1.0
176
     0
 90
        2
176
     1
  1
strokes_ogs.tif
176
     1
290
     0
176
     1
 40
1.0
176
     1
 40
1.0
176
     1
  0
VISUALSTYLE
  5
10016
102
{ACAD_REACTORS
330
10015
102
}
330
10015
100
AcDbVisualStyle
  2
Flat
 70
     0
177
     3
291
     1
 70
    58
 90
        2
176
     1
 90
        1
176
     1
 90
        1
176
     1
 90
        2
176
     1
 40
0.6
176
     1
 40
30.0
176
     1
 62
     7
176
     1
 90
        0
176
     1
 90
        4
176
     1
 62
     7
176
     1
 62
   257
176
     1
 90
        1
176
     1
 90
        1
176
     1
 40
1.0
176
     1
 90
        8
176
     1
 62
     7
176
     1
 40
1.0
176
     1
 90
        1
176
     1
 90
        6
176
     1
 90
        2
176
     1
 62
     7
176
     1
 90
        5
176
     1
 90
        0
176
     1
 90
        0
176
     1
290
     0
176
     1
 90
       13
176
     1
 40
0.0
176
     1
 90
        0
176
     1
290
     0
176
     1
290
     1
176
     1
290
     1
176
     1
290
     0
176
     1
290
     0
176
     1
290
     0
176
     1
290
     0
176
     1
290
     0
176
     1
290
     0
176
     1
 90
       50
176
     1
 40
0.0
176
     1
 40
1.0
176
     1
 90
        0
176
     1
 62
    18
176
     1
 90
       50
176
     1
 90
        3
176
     1
 62
     5
420
      255
176
     1
290
     0
176
     1
 90
       50
176
     1
 90
       50
176
     1
 90
       50
176
     1
290
     0
176
     1
 90
       50
176
     1
 62
   256
176
     0
 40
1.0
176
     0
 90
        2
176
     1
  1
strokes_ogs.tif
176
     1
290
     0
176
     1
 40
1.0
176
     1
 40
1.0
176
     1
  0
VISUALSTYLE
  5
10017
102
{ACAD_REACTORS
330
10015
102
}
330
10015
100
AcDbVisualStyle
  2
FlatWithEdges
 70
     1
177
     3
291
     1
 70
    58
 90
        2
176
     1
 90
        1
176
     1
 90
        1
176
     1
 90
        2
176
     1
 40
0.6
176
     1
 40
30.0
176
     1
 62
     7
176
     1
 90
        1
176
     1
 90
        4
176
     1
 62
     7
176
     1
 62
   257
176
     1
 90
        1
176
     1
 90
        1
176
     1
 40
1.0
176
     1
 90
        0
176
     1
 62
   257
176
     1
 40
1.0
176
     1
 90
        1
176
     1
 90
        6
176
     1
 90
        2
176
     1
 62
     7
176
     1
 90
        5
176
     1
 90
        0
176
     1
 90
        0
176
     1
290
     0
176
     1
 90
       13
176
     1
 40
0.0
176
     1
 90
        0
176
     1
290
     0
176
     1
290
     1
176
     1
290
     1
176
     1
290
     0
176
     1
290
     0
176
     1
290
     0
176
     1
290
     0
176
     1
290
     0
176
     1
290
     0
176
     1
 90
       50
176
     1
 40
0.0
176
     1
 40
1.0
176
     1
 90
        0
176
     1
 62
    18
176
     1
 90
       50
176
     1
 90
        3
176
     1
 62
     5
420
      255
176
     1
290
     0
176
     1
 90
       50
176
     1
 90
       50
176
     1
 90
       50
176
     1
290
     0
176
     1
 90
       50
176
     1
 62
   256
176
     0
 40
1.0
176
     0
 90
        2
176
     1
  1
strokes_ogs.tif
176
     1
290
     0
176
     1
 40
1.0
176
     1
 40
1.0
176
     1
  0
VISUALSTYLE
  5
10018
102
{ACAD_REACTORS
330
10015
102
}
330
10015
100
AcDbVisualStyle
  2
Gouraud
 70
     2
177
     3
291
     1
 70
    58
 90
        2
176
     1
 90
        2
176
     1
 90
        1
176
     1
 90
        2
176
     1
 40
0.6
176
     1
 40
30.0
176
     1
 62
     7
176
     1
 90
        0
176
     1
 90
        4
176
     1
 62
     7
176
     1
 62
   257
176
     1
 90
        1
176
     1
 90
        1
176
     1
 40
1.0
176
     1
 90
        0
176
     1
 62
     7
176
     1
 40
1.0
176
     1
 90
        1
176
     1
 90
        6
176
     1
 90
        2
176
     1
 62
     7
176
     1
 90
        5
176
     1
 90
        0
176
     1
 90
        0
176
     1
290
     0
176
     1
 90
       13
176
     1
 40
0.0
176
     1
 90
        0
176
     1
290
     0
176
     1
290
     1
176
     1
290
     1
176
     1
290
     0
176
     1
290
     0
176
     1
290
     0
176
     1
290
     0
176
     1
290
     0
176
     1
290
     0
176
     1
 90
       50
176
     1
 40
0.0
176
     1
 40
1.0
176
     1
 90
        0
176
     1
 62
    18
176
     1
 90
       50
176
     1
 90
        3
176
     1
 62
     5
420
      255
176
     1
290
     0
176
     1
 90
       50
176
     1
 90
       50
176
     1
 90
       50
176
     1
290
     0
176
     1
 90
       50
176
     1
 62
   256
176
     0
 40
1.0
176
     0
 90
        2
176
     1
  1
strokes_ogs.tif
176
     1
290
     0
176
     1
 40
1.0
176
     1
 40
1.0
176
     1
  0
VISUALSTYLE
  5
10019
102
{ACAD_REACTORS
330
10015
102
}
330
10015
100
AcDbVisualStyle
  2
GouraudWithEdges
 70
     3
177
     3
291
     1
 70
    58
 90
        2
176
     1
 90
        2
176
     1
 90
        1
176
     1
 90
        2
176
     1
 40
0.6
176
     1
 40
30.0
176
     1
 62
     7
176
     1
 90
        1
176
     1
 90
        4
176
     1
 62
     7
176
     1
 62
   257
176
     1
 90
        1
176
     1
 90
        1
176
     1
 40
1.0
176
     1
 90
        0
176
     1
 62
   257
176
     1
 40
1.0
176
     1
 90
        1
176
     1
 90
        6
176
     1
 90
        2
176
     1
 62
     7
176
     1
 90
        5
176
     1
 90
        0
176
     1
 90
        0
176
     1
290
     0
176
     1
 90
       13
176
     1
 40
0.0
176
     1
 90
        0
176
     1
290
     0
176
     1
290
     1
176
     1
290
     1
176
     1
290
     0
176
     1
290
     0
176
     1
290
     0
176
     1
290
     0
176
     1
290
     0
176
     1
290
     0
176
     1
 90
       50
176
     1
 40
0.0
176
     1
 40
1.0
176
     1
 90
        0
176
     1
 62
    18
176
     1
 90
       50
176
     1
 90
        3
176
     1
 62
     5
420
      255
176
     1
290
     0
176
     1
 90
       50
176
     1
 90
       50
176
     1
 90
       50
176
     1
290
     0
176
     1
 90
       50
176
     1
 62
   256
176
     0
 40
1.0
176
     0
 90
        2
176
     1
  1
strokes_ogs.tif
176
     1
290
     0
176
     1
 40
1.0
176
     1
 40
1.0
176
     1
  0
VISUALSTYLE
  5
23B27
102
{ACAD_REACTORS
330
10015
102
}
330
10015
100
AcDbVisualStyle
  2
Hidden
 70
     6
177
     3
291
     0
 70
    58
 90
        1
176
     1
 90
        2
176
     1
 90
        2
176
     1
 90
        0
176
     1
 40
0.6
176
     1
 40
30.0
176
     1
 62
     7
420
 16777215
176
     1
 90
        2
176
     1
 90
        2
176
     1
 62
     7
176
     1
 62
   257
176
     1
 90
        2
176
     1
 90
        1
176
     1
 40
40.0
176
     1
 90
        0
176
     1
 62
   257
176
     1
 40
1.0
176
     1
 90
        1
176
     1
 90
        6
176
     1
 90
        2
176
     1
 62
     7
176
     1
 90
        3
176
     1
 90
        0
176
     1
 90
        0
176
     1
290
     0
176
     1
 90
        1
176
     1
 40
0.0
176
     1
 90
        0
176
     1
290
     0
176
     1
290
     1
176
     1
290
     1
176
     1
290
     0
176
     1
290
     0
176
     1
290
     0
176
     1
290
     0
176
     1
290
     0
176
     1
290
     0
176
     1
 90
       50
176
     1
 40
0.0
176
     1
 40
1.0
176
     1
 90
        0
176
     1
 62
    18
176
     1
 90
       50
176
     1
 90
        3
176
     1
 62
     5
420
      255
176
     1
290
     0
176
     1
 90
       50
176
     1
 90
       50
176
     1
 90
       50
176
     1
290
     0
176
     1
 90
       50
176
     1
 62
   256
176
     0
 40
1.0
176
     0
 90
        2
176
     1
  1
strokes_ogs.tif
176
     1
290
     0
176
     1
 40
1.0
176
     1
 40
1.0
176
     1
  0
VISUALSTYLE
  5
10026
102
{ACAD_REACTORS
330
10015
102
}
330
10015
100
AcDbVisualStyle
  2
JitterOff
 70
    20
177
     3
291
     1
 70
    58
 90
        2
176
     0
 90
        2
176
     0
 90
        0
176
     0
 90
        0
176
     0
 40
0.6
176
     0
 40
30.0
176
     0
 62
     7
176
     0
 90
        1
176
     0
 90
        4
176
     0
 62
     7
176
     0
 62
   257
176
     0
 90
        1
176
     0
 90
        1
176
     0
 40
1.0
176
     0
 90
       10
176
     2
 62
     7
176
     0
 40
1.0
176
     0
 90
        1
176
     0
 90
        6
176
     0
 90
        2
176
     0
 62
     7
176
     0
 90
        5
176
     0
 90
        0
176
     0
 90
        0
176
     0
290
     0
176
     0
 90
        1
176
     0
 40
0.0
176
     0
 90
        0
176
     0
290
     0
176
     1
290
     1
176
     1
290
     1
176
     1
290
     0
176
     1
290
     0
176
     1
290
     0
176
     1
290
     0
176
     1
290
     0
176
     1
290
     0
176
     1
 90
       50
176
     1
 40
0.0
176
     1
 40
1.0
176
     1
 90
        0
176
     1
 62
    18
176
     1
 90
       50
176
     1
 90
        3
176
     1
 62
     5
420
      255
176
     1
290
     0
176
     1
 90
       50
176
     1
 90
       50
176
     1
 90
       50
176
     1
290
     0
176
     1
 90
       50
176
     1
 62
   256
176
     0
 40
1.0
176
     0
 90
        2
176
     1
  1
strokes_ogs.tif
176
     1
290
     0
176
     1
 40
1.0
176
     1
 40
1.0
176
     1
  0
VISUALSTYLE
  5
10023
102
{ACAD_REACTORS
330
10015
102
}
330
10015
100
AcDbVisualStyle
  2
Linepattern
 70
    14
177
     3
291
     1
 70
    58
 90
        2
176
     1
 90
        2
176
     1
 90
        0
176
     1
 90
        0
176
     1
 40
0.6
176
     1
 40
30.0
176
     1
 62
     7
176
     1
 90
        1
176
     1
 90
        4
176
     1
 62
     7
176
     1
 62
   257
176
     1
 90
        7
176
     1
 90
        7
176
     1
 40
1.0
176
     1
 90
        8
176
     1
 62
     7
176
     1
 40
1.0
176
     1
 90
        1
176
     1
 90
        6
176
     1
 90
        2
176
     1
 62
     7
176
     1
 90
        5
176
     1
 90
        0
176
     1
 90
        0
176
     1
290
     0
176
     1
 90
        1
176
     1
 40
0.0
176
     1
 90
        0
176
     1
290
     0
176
     1
290
     1
176
     1
290
     1
176
     1
290
     0
176
     1
290
     0
176
     1
290
     0
176
     1
290
     0
176
     1
290
     0
176
     1
290
     0
176
     1
 90
       50
176
     1
 40
0.0
176
     1
 40
1.0
176
     1
 90
        0
176
     1
 62
    18
176
     1
 90
       50
176
     1
 90
        3
176
     1
 62
     5
420
      255
176
     1
290
     0
176
     1
 90
       50
176
     1
 90
       50
176
     1
 90
       50
176
     1
290
     0
176
     1
 90
       50
176
     1
 62
   256
176
     0
 40
1.0
176
     0
 90
        2
176
     1
  1
strokes_ogs.tif
176
     1
290
     0
176
     1
 40
1.0
176
     1
 40
1.0
176
     1
  0
VISUALSTYLE
  5
10027
102
{ACAD_REACTORS
330
10015
102
}
330
10015
100
AcDbVisualStyle
  2
OverhangOff
 70
    21
177
     3
291
     1
 70
    58
 90
        2
176
     0
 90
        2
176
     0
 90
        0
176
     0
 90
        0
176
     0
 40
0.6
176
     0
 40
30.0
176
     0
 62
     7
176
     0
 90
        1
176
     0
 90
        4
176
     0
 62
     7
176
     0
 62
   257
176
     0
 90
        1
176
     0
 90
        1
176
     0
 40
1.0
176
     0
 90
        9
176
     2
 62
     7
176
     0
 40
1.0
176
     0
 90
        1
176
     0
 90
        6
176
     0
 90
        2
176
     0
 62
     7
176
     0
 90
        5
176
     0
 90
        0
176
     0
 90
        0
176
     0
290
     0
176
     0
 90
        1
176
     0
 40
0.0
176
     0
 90
        0
176
     0
290
     0
176
     1
290
     1
176
     1
290
     1
176
     1
290
     0
176
     1
290
     0
176
     1
290
     0
176
     1
290
     0
176
     1
290
     0
176
     1
290
     0
176
     1
 90
       50
176
     1
 40
0.0
176
     1
 40
1.0
176
     1
 90
        0
176
     1
 62
    18
176
     1
 90
       50
176
     1
 90
        3
176
     1
 62
     5
420
      255
176
     1
290
     0
176
     1
 90
       50
176
     1
 90
       50
176
     1
 90
       50
176
     1
290
     0
176
     1
 90
       50
176
     1
 62
   256
176
     0
 40
1.0
176
     0
 90
        2
176
     1
  1
strokes_ogs.tif
176
     1
290
     0
176
     1
 40
1.0
176
     1
 40
1.0
176
     1
  0
VISUALSTYLE
  5
1001F
102
{ACAD_REACTORS
330
10015
102
}
330
10015
100
AcDbVisualStyle
  2
Realistic
 70
     8
177
     3
291
     0
 70
    58
 90
        2
176
     1
 90
        2
176
     1
 90
        0
176
     1
 90
        0
176
     1
 40
0.6
176
     1
 40
30.0
176
     1
 62
     7
176
     1
 90
        1
176
     1
 90
        0
176
     1
 62
     7
176
     1
 62
   257
176
     1
 90
        1
176
     1
 90
        1
176
     1
 40
1.0
176
     1
 90
        8
176
     1
 62
     8
176
     1
 40
1.0
176
     1
 90
        1
176
     1
 90
        6
176
     1
 90
        2
176
     1
 62
     7
176
     1
 90
        5
176
     1
 90
        0
176
     1
 90
        0
176
     1
290
     0
176
     1
 90
       13
176
     1
 40
0.0
176
     1
 90
        0
176
     1
290
     0
176
     1
290
     1
176
     1
290
     1
176
     1
290
     0
176
     1
290
     0
176
     1
290
     0
176
     1
290
     0
176
     1
290
     0
176
     1
290
     0
176
     1
 90
       50
176
     1
 40
0.0
176
     1
 40
1.0
176
     1
 90
        0
176
     1
 62
    18
176
     1
 90
       50
176
     1
 90
        3
176
     1
 62
     5
420
      255
176
     1
290
     0
176
     1
 90
       50
176
     1
 90
       50
176
     1
 90
       50
176
     1
290
     0
176
     1
 90
       50
176
     1
 62
   256
176
     0
 40
1.0
176
     0
 90
        2
176
     1
  1
strokes_ogs.tif
176
     1
290
     0
176
     1
 40
1.0
176
     1
 40
1.0
176
     1
  0
VISUALSTYLE
  5
23B2C
102
{ACAD_REACTORS
330
10015
102
}
330
10015
100
AcDbVisualStyle
  2
Shaded
 70
    27
177
     3
291
     0
 70
    58
 90
        2
176
     1
 90
        2
176
     1
 90
        1
176
     1
 90
        2
176
     1
 40
0.6
176
     1
 40
30.0
176
     1
 62
     7
420
 16777215
176
     1
 90
        0
176
     1
 90
        4
176
     1
 62
     7
176
     1
 62
   257
176
     1
 90
        1
176
     1
 90
        1
176
     1
 40
1.0
176
     1
 90
        8
176
     1
 62
   257
176
     1
 40
1.0
176
     1
 90
        1
176
     1
 90
        6
176
     1
 90
        2
176
     1
 62
     8
420
  7895160
176
     1
 90
        3
176
     1
 90
        0
176
     1
 90
        0
176
     1
290
     0
176
     1
 90
        5
176
     1
 40
0.0
176
     1
 90
        0
176
     1
290
     0
176
     1
290
     1
176
     1
290
     1
176
     1
290
     0
176
     1
290
     0
176
     1
290
     0
176
     1
290
     0
176
     1
290
     0
176
     1
290
     0
176
     1
 90
       50
176
     1
 40
0.0
176
     1
 40
1.0
176
     1
 90
        0
176
     1
 62
    18
176
     1
 90
       50
176
     1
 90
        3
176
     1
 62
     5
420
      255
176
     1
290
     0
176
     1
 90
       50
176
     1
 90
       50
176
     1
 90
       50
176
     1
290
     0
176
     1
 90
       50
176
     1
 62
   256
176
     0
 40
1.0
176
     0
 90
        2
176
     1
  1
strokes_ogs.tif
176
     1
290
     0
176
     1
 40
1.0
176
     1
 40
1.0
176
     1
  0
VISUALSTYLE
  5
23B2B
102
{ACAD_REACTORS
330
10015
102
}
330
10015
100
AcDbVisualStyle
  2
Shaded with edges
 70
    26
177
     3
291
     0
 70
    58
 90
        2
176
     1
 90
        2
176
     1
 90
        1
176
     1
 90
        2
176
     1
 40
0.6
176
     1
 40
30.0
176
     1
 62
     7
420
 16777215
176
     1
 90
        1
176
     1
 90
       10
176
     1
 62
     7
176
     1
 62
   257
176
     1
 90
        2
176
     1
 90
        1
176
     1
 40
1.0
176
     1
 90
        8
176
     1
 62
   257
176
     1
 40
1.0
176
     1
 90
        1
176
     1
 90
        6
176
     1
 90
        2
176
     1
 62
     7
176
     1
 90
        3
176
     1
 90
        0
176
     1
 90
        0
176
     1
290
     0
176
     1
 90
        5
176
     1
 40
0.0
176
     1
 90
        0
176
     1
290
     0
176
     1
290
     1
176
     1
290
     1
176
     1
290
     0
176
     1
290
     0
176
     1
290
     0
176
     1
290
     0
176
     1
290
     0
176
     1
290
     0
176
     1
 90
       50
176
     1
 40
0.0
176
     1
 40
1.0
176
     1
 90
        0
176
     1
 62
    18
176
     1
 90
       50
176
     1
 90
        3
176
     1
 62
     5
420
      255
176
     1
290
     0
176
     1
 90
       50
176
     1
 90
       50
176
     1
 90
       50
176
     1
290
     0
176
     1
 90
       50
176
     1
 62
   256
176
     0
 40
1.0
176
     0
 90
        2
176
     1
  1
strokes_ogs.tif
176
     1
290
     0
176
     1
 40
1.0
176
     1
 40
1.0
176
     1
  0
VISUALSTYLE
  5
23B28
102
{ACAD_REACTORS
330
10015
102
}
330
10015
100
AcDbVisualStyle
  2
Shades of Gray
 70
    23
177
     3
291
     0
 70
    58
 90
        2
176
     1
 90
        2
176
     1
 90
        3
176
     1
 90
        0
176
     1
 40
0.6
176
     1
 40
30.0
176
     1
 62
     7
420
 16777215
176
     1
 90
        2
176
     1
 90
        2
176
     1
 62
     7
176
     1
 62
     7
176
     1
 90
        1
176
     1
 90
        1
176
     1
 40
40.0
176
     1
 90
        8
176
     1
 62
     7
176
     1
 40
1.0
176
     1
 90
        1
176
     1
 90
        6
176
     1
 90
        2
176
     1
 62
     7
176
     1
 90
        3
176
     1
 90
        0
176
     1
 90
        0
176
     1
290
     0
176
     1
 90
        1
176
     1
 40
0.0
176
     1
 90
        0
176
     1
290
     0
176
     1
290
     1
176
     1
290
     1
176
     1
290
     0
176
     1
290
     0
176
     1
290
     0
176
     1
290
     0
176
     1
290
     0
176
     1
290
     0
176
     1
 90
       50
176
     1
 40
0.0
176
     1
 40
1.0
176
     1
 90
        0
176
     1
 62
    18
176
     1
 90
       50
176
     1
 90
        3
176
     1
 62
     5
420
      255
176
     1
290
     0
176
     1
 90
       50
176
     1
 90
       50
176
     1
 90
       50
176
     1
290
     0
176
     1
 90
       50
176
     1
 62
   256
176
     0
 40
1.0
176
     0
 90
        2
176
     1
  1
strokes_ogs.tif
176
     1
290
     0
176
     1
 40
1.0
176
     1
 40
1.0
176
     1
  0
VISUALSTYLE
  5
23B29
102
{ACAD_REACTORS
330
10015
102
}
330
10015
100
AcDbVisualStyle
  2
Sketchy
 70
    24
177
     3
291
     0
 70
    58
 90
        1
176
     1
 90
        2
176
     1
 90
        2
176
     1
 90
        0
176
     1
 40
0.6
176
     1
 40
30.0
176
     1
 62
     7
420
 16777215
176
     1
 90
        2
176
     1
 90
        2
176
     1
 62
     7
176
     1
 62
     7
176
     1
 90
        1
176
     1
 90
        1
176
     1
 40
40.0
176
     1
 90
       11
176
     1
 62
     7
176
     1
 40
1.0
176
     1
 90
        1
176
     1
 90
        6
176
     1
 90
        2
176
     1
 62
     7
176
     1
 90
        6
176
     1
 90
        0
176
     1
 90
        0
176
     1
290
     0
176
     1
 90
        1
176
     1
 40
0.0
176
     1
 90
        0
176
     1
290
     0
176
     1
290
     1
176
     1
290
     1
176
     1
290
     0
176
     1
290
     0
176
     1
290
     0
176
     1
290
     0
176
     1
290
     0
176
     1
290
     0
176
     1
 90
       50
176
     1
 40
0.0
176
     1
 40
1.0
176
     1
 90
        0
176
     1
 62
    18
176
     1
 90
       50
176
     1
 90
        3
176
     1
 62
     5
420
      255
176
     1
290
     0
176
     1
 90
       50
176
     1
 90
       50
176
     1
 90
       50
176
     1
290
     0
176
     1
 90
       50
176
     1
 62
   256
176
     0
 40
1.0
176
     0
 90
        2
176
     1
  1
strokes_ogs.tif
176
     1
290
     0
176
     1
 40
1.0
176
     1
 40
1.0
176
     1
  0
VISUALSTYLE
  5
10022
102
{ACAD_REACTORS
330
10015
102
}
330
10015
100
AcDbVisualStyle
  2
Thicken
 70
    13
177
     3
291
     1
 70
    58
 90
        2
176
     1
 90
        2
176
     1
 90
        0
176
     1
 90
        0
176
     1
 40
0.6
176
     1
 40
30.0
176
     1
 62
     7
176
     1
 90
        1
176
     1
 90
        4
176
     1
 62
     7
176
     1
 62
   257
176
     1
 90
        1
176
     1
 90
        1
176
     1
 40
1.0
176
     1
 90
       12
176
     1
 62
     7
176
     1
 40
1.0
176
     1
 90
        1
176
     1
 90
        6
176
     1
 90
        2
176
     1
 62
     7
176
     1
 90
        5
176
     1
 90
        0
176
     1
 90
        0
176
     1
290
     0
176
     1
 90
        1
176
     1
 40
0.0
176
     1
 90
        0
176
     1
290
     0
176
     1
290
     1
176
     1
290
     1
176
     1
290
     0
176
     1
290
     0
176
     1
290
     0
176
     1
290
     0
176
     1
290
     0
176
     1
290
     0
176
     1
 90
       50
176
     1
 40
0.0
176
     1
 40
1.0
176
     1
 90
        0
176
     1
 62
    18
176
     1
 90
       50
176
     1
 90
        3
176
     1
 62
     5
420
      255
176
     1
290
     0
176
     1
 90
       50
176
     1
 90
       50
176
     1
 90
       50
176
     1
290
     0
176
     1
 90
       50
176
     1
 62
   256
176
     0
 40
1.0
176
     0
 90
        2
176
     1
  1
strokes_ogs.tif
176
     1
290
     0
176
     1
 40
1.0
176
     1
 40
1.0
176
     1
  0
VISUALSTYLE
  5
23B26
102
{ACAD_REACTORS
330
10015
102
}
330
10015
100
AcDbVisualStyle
  2
Wireframe
 70
     5
177
     3
291
     0
 70
    58
 90
        0
176
     1
 90
        2
176
     1
 90
        0
176
     1
 90
        0
176
     1
 40
0.6
176
     1
 40
30.0
176
     1
 62
     7
420
 16777215
176
     1
 90
        1
176
     1
 90
        4
176
     1
 62
     7
176
     1
 62
   257
176
     1
 90
        1
176
     1
 90
        1
176
     1
 40
1.0
176
     1
 90
        0
176
     1
 62
   257
176
     1
 40
1.0
176
     1
 90
        1
176
     1
 90
        6
176
     1
 90
        2
176
     1
 62
     7
176
     1
 90
        3
176
     1
 90
        0
176
     1
 90
        0
176
     1
290
     0
176
     1
 90
        1
176
     1
 40
0.0
176
     1
 90
        0
176
     1
290
     0
176
     1
290
     1
176
     1
290
     1
176
     1
290
     0
176
     1
290
     0
176
     1
290
     0
176
     1
290
     0
176
     1
290
     0
176
     1
290
     0
176
     1
 90
       50
176
     1
 40
0.0
176
     1
 40
1.0
176
     1
 90
        0
176
     1
 62
    18
176
     1
 90
       50
176
     1
 90
        3
176
     1
 62
     5
420
      255
176
     1
290
     0
176
     1
 90
       50
176
     1
 90
       50
176
     1
 90
       50
176
     1
290
     0
176
     1
 90
       50
176
     1
 62
   256
176
     0
 40
1.0
176
     0
 90
        2
176
     1
  1
strokes_ogs.tif
176
     1
290
     0
176
     1
 40
1.0
176
     1
 40
1.0
176
     1
  0
VISUALSTYLE
  5
23B2A
102
{ACAD_REACTORS
330
10015
102
}
330
10015
100
AcDbVisualStyle
  2
X-Ray
 70
    25
177
     3
291
     0
 70
    58
 90
        2
176
     1
 90
        2
176
     1
 90
        1
176
     1
 90
        1
176
     1
 40
0.5
176
     1
 40
30.0
176
     1
 62
     7
420
 16777215
176
     1
 90
        1
176
     1
 90
        0
176
     1
 62
     7
176
     1
 62
   257
176
     1
 90
        1
176
     1
 90
        1
176
     1
 40
1.0
176
     1
 90
        8
176
     1
 62
     7
176
     1
 40
1.0
176
     1
 90
        1
176
     1
 90
        6
176
     1
 90
        2
176
     1
 62
     7
176
     1
 90
        3
176
     1
 90
        0
176
     1
 90
        0
176
     1
290
     0
176
     1
 90
       13
176
     1
 40
0.0
176
     1
 90
        0
176
     1
290
     0
176
     1
290
     1
176
     1
290
     1
176
     1
290
     0
176
     1
290
     0
176
     1
290
     0
176
     1
290
     0
176
     1
290
     0
176
     1
290
     0
176
     1
 90
       50
176
     1
 40
0.0
176
     1
 40
1.0
176
     1
 90
        0
176
     1
 62
    18
176
     1
 90
       50
176
     1
 90
        3
176
     1
 62
     5
420
      255
176
     1
290
     0
176
     1
 90
       50
176
     1
 90
       50
176
     1
 90
       50
176
     1
290
     0
176
     1
 90
       50
176
     1
 62
   256
176
     0
 40
1.0
176
     0
 90
        2
176
     1
  1
strokes_ogs.tif
176
     1
290
     0
176
     1
 40
1.0
176
     1
 40
1.0
176
     1
  0
DICTIONARYVAR
  5
100CD
102
{ACAD_REACTORS
330
5697
102
}
330
5697
100
DictionaryVariables
280
     0
  1
1:1
  0
DICTIONARYVAR
  5
100CC
102
{ACAD_REACTORS
330
5697
102
}
330
5697
100
DictionaryVariables
280
     0
  1
STANDARD
  0
DICTIONARYVAR
  5
100CB
102
{ACAD_REACTORS
330
5697
102
}
330
5697
100
DictionaryVariables
280
     0
  1
STANDARD
  0
DICTIONARYVAR
  5
23BE2
102
{ACAD_REACTORS
330
5697
102
}
330
5697
100
DictionaryVariables
280
     0
  1
Imperial24
  0
DICTIONARYVAR
  5
23BE3
102
{ACAD_REACTORS
330
5697
102
}
330
5697
100
DictionaryVariables
280
     0
  1
Imperial24
  0
DICTIONARYVAR
  5
5698
102
{ACAD_REACTORS
330
5697
102
}
330
5697
100
DictionaryVariables
280
     0
  1
1
  0
DICTIONARYVAR
  5
100CF
102
{ACAD_REACTORS
330
5697
102
}
330
5697
100
DictionaryVariables
280
     0
  1
0
  0
DICTIONARYVAR
  5
21D20
102
{ACAD_REACTORS
330
5697
102
}
330
5697
100
DictionaryVariables
280
     0
  1
1
  0
DICTIONARYVAR
  5
21D21
102
{ACAD_REACTORS
330
5697
102
}
330
5697
100
DictionaryVariables
280
     0
  1
15
  0
DICTIONARYVAR
  5
21D1F
102
{ACAD_REACTORS
330
5697
102
}
330
5697
100
DictionaryVariables
280
     0
  1
0
  0
DICTIONARYVAR
  5
21D1E
102
{ACAD_REACTORS
330
5697
102
}
330
5697
100
DictionaryVariables
280
     0
  1
0
  0
DICTIONARYVAR
  5
100CE
102
{ACAD_REACTORS
330
5697
102
}
330
5697
100
DictionaryVariables
280
     0
  1
127
  0
XRECORD
  5
1012C
102
{ACAD_REACTORS
330
1012A
102
}
330
1012A
100
AcDbXrecord
280
     1
330
0
330
0
330
0
330
0
330
0
330
0
330
0
330
0
330
0
330
0
330
0
330
0
330
0
330
0
330
0
330
0
330
0
330
0
330
0
330
0
330
0
330
0
330
0
330
0
330
0
330
0
330
0
330
0
330
0
330
0
330
0
330
0
330
0
330
0
330
0
330
0
330
0
330
0
330
0
330
0
330
0
330
0
330
0
330
0
330
0
330
0
330
0
330
0
330
0
330
0
  0
DICTIONARY
  5
23BE7
330
23B30
100
AcDbDictionary
280
     1
281
     1
  3
ACAD_XREC_ROUNDTRIP
360
23C57
  0
DICTIONARY
  5
21E0A
330
904E
100
AcDbDictionary
280
     1
281
     1
  0
DICTIONARY
  5
10006
330
10005
100
AcDbDictionary
280
     1
281
     1
  3
ACAD_XREC_ROUNDTRIP
360
159CA
  3
BUMPTILE
360
10008
  3
DIFFUSETILE
360
10007
  3
OPACITYTILE
360
1000B
  3
REFLECTIONTILE
360
1000A
  3
REFRACTIONTILE
360
1000C
  3
SPECULARTILE
360
10009
  0
DICTIONARY
  5
FFFE
330
FFFD
100
AcDbDictionary
280
     1
281
     1
  3
ACAD_XREC_ROUNDTRIP
360
159C9
  3
BUMPTILE
360
10000
  3
DIFFUSETILE
360
FFFF
  3
OPACITYTILE
360
10003
  3
REFLECTIONTILE
360
10002
  3
REFRACTIONTILE
360
10004
  3
SPECULARTILE
360
10001
  0
DICTIONARY
  5
1000E
330
1000D
100
AcDbDictionary
280
     1
281
     1
  3
ACAD_XREC_ROUNDTRIP
360
159CB
  3
BUMPTILE
360
10010
  3
DIFFUSETILE
360
1000F
  3
OPACITYTILE
360
10013
  3
REFLECTIONTILE
360
10012
  3
REFRACTIONTILE
360
10014
  3
SPECULARTILE
360
10011
  0
DICTIONARY
  5
23BE5
330
23B2E
100
AcDbDictionary
280
     1
281
     1
  3
ACAD_XREC_ROUNDTRIP
360
23C56
  0
DICTIONARY
  5
1007E
330
1002B
100
AcDbDictionary
280
     1
281
     1
  3
ACAD_ROUNDTRIP_2008_TABLESTYLE_CELLSTYLEMAP
360
23C55
  0
XRECORD
  5
23C57
102
{ACAD_REACTORS
330
23BE7
102
}
330
23BE7
100
AcDbXrecord
280
     1
102
DISPLAYNAME
  1
Imperial24
102
FLAGS
 90
        0
  0
XRECORD
  5
159CA
102
{ACAD_REACTORS
330
10006
102
}
330
10006
100
AcDbXrecord
280
     1
102
MATERIAL
148
0.0
149
0.0
149
0.0
 93
        0
 94
      127
282
     0
 72
     0
 77
     0
171
     0
175
     0
179
     0
273
     0
  0
XRECORD
  5
10008
102
{ACAD_REACTORS
330
10006
102
}
330
10006
100
AcDbXrecord
280
     1
270
     1
271
     1
  0
XRECORD
  5
10007
102
{ACAD_REACTORS
330
10006
102
}
330
10006
100
AcDbXrecord
280
     1
270
     1
271
     1
  0
XRECORD
  5
1000B
102
{ACAD_REACTORS
330
10006
102
}
330
10006
100
AcDbXrecord
280
     1
270
     1
271
     1
  0
XRECORD
  5
1000A
102
{ACAD_REACTORS
330
10006
102
}
330
10006
100
AcDbXrecord
280
     1
270
     1
271
     1
  0
XRECORD
  5
1000C
102
{ACAD_REACTORS
330
10006
102
}
330
10006
100
AcDbXrecord
280
     1
270
     1
271
     1
  0
XRECORD
  5
10009
102
{ACAD_REACTORS
330
10006
102
}
330
10006
100
AcDbXrecord
280
     1
270
     1
271
     1
  0
XRECORD
  5
159C9
102
{ACAD_REACTORS
330
FFFE
102
}
330
FFFE
100
AcDbXrecord
280
     1
102
MATERIAL
148
0.0
149
0.0
149
0.0
 93
        0
 94
      127
282
     0
 72
     0
 77
     0
171
     0
175
     0
179
     0
273
     0
  0
XRECORD
  5
10000
102
{ACAD_REACTORS
330
FFFE
102
}
330
FFFE
100
AcDbXrecord
280
     1
270
     1
271
     1
  0
XRECORD
  5
FFFF
102
{ACAD_REACTORS
330
FFFE
102
}
330
FFFE
100
AcDbXrecord
280
     1
270
     1
271
     1
  0
XRECORD
  5
10003
102
{ACAD_REACTORS
330
FFFE
102
}
330
FFFE
100
AcDbXrecord
280
     1
270
     1
271
     1
  0
XRECORD
  5
10002
102
{ACAD_REACTORS
330
FFFE
102
}
330
FFFE
100
AcDbXrecord
280
     1
270
     1
271
     1
  0
XRECORD
  5
10004
102
{ACAD_REACTORS
330
FFFE
102
}
330
FFFE
100
AcDbXrecord
280
     1
270
     1
271
     1
  0
XRECORD
  5
10001
102
{ACAD_REACTORS
330
FFFE
102
}
330
FFFE
100
AcDbXrecord
280
     1
270
     1
271
     1
  0
XRECORD
  5
159CB
102
{ACAD_REACTORS
330
1000E
102
}
330
1000E
100
AcDbXrecord
280
     1
102
MATERIAL
148
0.0
149
0.0
149
0.0
 93
        0
 94
      127
282
     0
 72
     0
 77
     0
171
     0
175
     0
179
     0
273
     0
  0
XRECORD
  5
10010
102
{ACAD_REACTORS
330
1000E
102
}
330
1000E
100
AcDbXrecord
280
     1
270
     1
271
     1
  0
XRECORD
  5
1000F
102
{ACAD_REACTORS
330
1000E
102
}
330
1000E
100
AcDbXrecord
280
     1
270
     1
271
     1
  0
XRECORD
  5
10013
102
{ACAD_REACTORS
330
1000E
102
}
330
1000E
100
AcDbXrecord
280
     1
270
     1
271
     1
  0
XRECORD
  5
10012
102
{ACAD_REACTORS
330
1000E
102
}
330
1000E
100
AcDbXrecord
280
     1
270
     1
271
     1
  0
XRECORD
  5
10014
102
{ACAD_REACTORS
330
1000E
102
}
330
1000E
100
AcDbXrecord
280
     1
270
     1
271
     1
  0
XRECORD
  5
10011
102
{ACAD_REACTORS
330
1000E
102
}
330
1000E
100
AcDbXrecord
280
     1
270
     1
271
     1
  0
XRECORD
  5
23C56
102
{ACAD_REACTORS
330
23BE5
102
}
330
23BE5
100
AcDbXrecord
280
     1
102
DISPLAYNAME
  1
Imperial24
102
FLAGS
 90
        0
  0
CELLSTYLEMAP
  5
23C55
102
{ACAD_REACTORS
330
1007E
102
}
330
1007E
100
AcDbCellStyleMap
 90
        3
300
CELLSTYLE
  1
TABLEFORMAT_BEGIN
 90
        5
170
     1
 91
        0
 92
    32768
 62
   257
 93
        1
300
CONTENTFORMAT
  1
CONTENTFORMAT_BEGIN
 90
        0
 91
        0
 92
      512
 93
        0
300

 40
0.0
140
1.0
 94
        5
 62
     0
340
11
144
0.25
309
CONTENTFORMAT_END
171
     1
301
MARGIN
  1
CELLMARGIN_BEGIN
 40
0.06
 40
0.06
 40
0.06
 40
0.06
 40
0.18
 40
0.18
309
CELLMARGIN_END
 94
        6
 95
        1
302
GRIDFORMAT
  1
GRIDFORMAT_BEGIN
 90
        0
 91
        1
 62
     0
 92
       -2
340
0
 93
        0
 40
0.045
309
GRIDFORMAT_END
 95
        2
302
GRIDFORMAT
  1
GRIDFORMAT_BEGIN
 90
        0
 91
        1
 62
     0
 92
       -2
340
0
 93
        0
 40
0.045
309
GRIDFORMAT_END
 95
        4
302
GRIDFORMAT
  1
GRIDFORMAT_BEGIN
 90
        0
 91
        1
 62
     0
 92
       -2
340
0
 93
        0
 40
0.045
309
GRIDFORMAT_END
 95
        8
302
GRIDFORMAT
  1
GRIDFORMAT_BEGIN
 90
        0
 91
        1
 62
     0
 92
       -2
340
0
 93
        0
 40
0.045
309
GRIDFORMAT_END
 95
       16
302
GRIDFORMAT
  1
GRIDFORMAT_BEGIN
 90
        0
 91
        1
 62
     0
 92
       -2
340
0
 93
        0
 40
0.045
309
GRIDFORMAT_END
 95
       32
302
GRIDFORMAT
  1
GRIDFORMAT_BEGIN
 90
        0
 91
        1
 62
     0
 92
       -2
340
0
 93
        0
 40
0.045
309
GRIDFORMAT_END
309
TABLEFORMAT_END
  1
CELLSTYLE_BEGIN
 90
        1
 91
        1
300
_TITLE
309
CELLSTYLE_END
300
CELLSTYLE
  1
TABLEFORMAT_BEGIN
 90
        5
170
     1
 91
        0
 92
        0
 62
   257
 93
        1
300
CONTENTFORMAT
  1
CONTENTFORMAT_BEGIN
 90
        0
 91
        0
 92
      512
 93
        0
300

 40
0.0
140
1.0
 94
        5
 62
     0
340
11
144
0.18
309
CONTENTFORMAT_END
171
     1
301
MARGIN
  1
CELLMARGIN_BEGIN
 40
0.06
 40
0.06
 40
0.06
 40
0.06
 40
0.18
 40
0.18
309
CELLMARGIN_END
 94
        6
 95
        1
302
GRIDFORMAT
  1
GRIDFORMAT_BEGIN
 90
        0
 91
        1
 62
     0
 92
       -2
340
0
 93
        0
 40
0.045
309
GRIDFORMAT_END
 95
        2
302
GRIDFORMAT
  1
GRIDFORMAT_BEGIN
 90
        0
 91
        1
 62
     0
 92
       -2
340
0
 93
        0
 40
0.045
309
GRIDFORMAT_END
 95
        4
302
GRIDFORMAT
  1
GRIDFORMAT_BEGIN
 90
        0
 91
        1
 62
     0
 92
       -2
340
0
 93
        0
 40
0.045
309
GRIDFORMAT_END
 95
        8
302
GRIDFORMAT
  1
GRIDFORMAT_BEGIN
 90
        0
 91
        1
 62
     0
 92
       -2
340
0
 93
        0
 40
0.045
309
GRIDFORMAT_END
 95
       16
302
GRIDFORMAT
  1
GRIDFORMAT_BEGIN
 90
        0
 91
        1
 62
     0
 92
       -2
340
0
 93
        0
 40
0.045
309
GRIDFORMAT_END
 95
       32
302
GRIDFORMAT
  1
GRIDFORMAT_BEGIN
 90
        0
 91
        1
 62
     0
 92
       -2
340
0
 93
        0
 40
0.045
309
GRIDFORMAT_END
309
TABLEFORMAT_END
  1
CELLSTYLE_BEGIN
 90
        2
 91
        1
300
_HEADER
309
CELLSTYLE_END
300
CELLSTYLE
  1
TABLEFORMAT_BEGIN
 90
        5
170
     1
 91
        0
 92
        0
 62
   257
 93
        1
300
CONTENTFORMAT
  1
CONTENTFORMAT_BEGIN
 90
        0
 91
        0
 92
      512
 93
        0
300

 40
0.0
140
1.0
 94
        2
 62
     0
340
11
144
0.18
309
CONTENTFORMAT_END
171
     1
301
MARGIN
  1
CELLMARGIN_BEGIN
 40
0.06
 40
0.06
 40
0.06
 40
0.06
 40
0.18
 40
0.18
309
CELLMARGIN_END
 94
        6
 95
        1
302
GRIDFORMAT
  1
GRIDFORMAT_BEGIN
 90
        0
 91
        1
 62
     0
 92
       -2
340
0
 93
        0
 40
0.045
309
GRIDFORMAT_END
 95
        2
302
GRIDFORMAT
  1
GRIDFORMAT_BEGIN
 90
        0
 91
        1
 62
     0
 92
       -2
340
0
 93
        0
 40
0.045
309
GRIDFORMAT_END
 95
        4
302
GRIDFORMAT
  1
GRIDFORMAT_BEGIN
 90
        0
 91
        1
 62
     0
 92
       -2
340
0
 93
        0
 40
0.045
309
GRIDFORMAT_END
 95
        8
302
GRIDFORMAT
  1
GRIDFORMAT_BEGIN
 90
        0
 91
        1
 62
     0
 92
       -2
340
0
 93
        0
 40
0.045
309
GRIDFORMAT_END
 95
       16
302
GRIDFORMAT
  1
GRIDFORMAT_BEGIN
 90
        0
 91
        1
 62
     0
 92
       -2
340
0
 93
        0
 40
0.045
309
GRIDFORMAT_END
 95
       32
302
GRIDFORMAT
  1
GRIDFORMAT_BEGIN
 90
        0
 91
        1
 62
     0
 92
       -2
340
0
 93
        0
 40
0.045
309
GRIDFORMAT_END
309
TABLEFORMAT_END
  1
CELLSTYLE_BEGIN
 90
        3
 91
        2
300
_DATA
309
CELLSTYLE_END
  0
ENDSEC
  0
SECTION
  2
ACDSDATA
 70
     2
 71
     6
  0
ACDSSCHEMA
 90
        0
  1
AcDb_Thumbnail_Schema
  2
AcDbDs::ID
280
    10
 91
        8
  2
Thumbnail_Data
280
    15
 91
        0
101
ACDSRECORD
 95
        0
 90
        1
  2
AcDbDs::TreatedAsObjectData
280
     1
291
     1
101
ACDSRECORD
 95
        0
 90
        2
  2
AcDbDs::Legacy
280
     1
291
     1
101
ACDSRECORD
  1
AcDbDs::ID
 90
        3
  2
AcDs:Indexable
280
     1
291
     1
101
ACDSRECORD
  1
AcDbDs::ID
 90
        4
  2
AcDbDs::HandleAttribute
280
     7
282
     1
  0
ACDSSCHEMA
 90
        1
  1
AcDbDs::TreatedAsObjectDataSchema
  2
AcDbDs::TreatedAsObjectData
280
     1
 91
        0
  0
ACDSSCHEMA
 90
        2
  1
AcDbDs::LegacySchema
  2
AcDbDs::Legacy
280
     1
 91
        0
  0
ACDSSCHEMA
 90
        3
  1
AcDbDs::IndexedPropertySchema
  2
AcDs:Indexable
280
     1
 91
        0
  0
ACDSSCHEMA
 90
        4
  1
AcDbDs::HandleAttributeSchema
  2
AcDbDs::HandleAttribute
280
     7
 91
        1
284
     1
  0
ACDSRECORD
 90
        0
  2
AcDbDs::ID
280
    10
320
904E
  2
Thumbnail_Data
280
    15
 94
     1853
310
89504E470D0A1A0A0000000D494844520000010000000062080300000088E7FDB100000300504C5445000000000000C8C8C80000000000000000000000000000000000000000000000000000330000660000990000CC0000FF0033000033330033660033990033CC0033FF0066000066330066660066990066CC0066FF0099
310
000099330099660099990099CC0099FF00CC0000CC3300CC6600CC9900CCCC00CCFF00FF0000FF3300FF6600FF9900FFCC00FFFF3300003300333300663300993300CC3300FF3333003333333333663333993333CC3333FF3366003366333366663366993366CC3366FF3399003399333399663399993399CC3399FF33CC00
310
33CC3333CC6633CC9933CCCC33CCFF33FF0033FF3333FF6633FF9933FFCC33FFFF6600006600336600666600996600CC6600FF6633006633336633666633996633CC6633FF6666006666336666666666996666CC6666FF6699006699336699666699996699CC6699FF66CC0066CC3366CC6666CC9966CCCC66CCFF66FF0066
310
FF3366FF6666FF9966FFCC66FFFF9900009900339900669900999900CC9900FF9933009933339933669933999933CC9933FF9966009966339966669966999966CC9966FF9999009999339999669999999999CC9999FF99CC0099CC3399CC6699CC9999CCCC99CCFF99FF0099FF3399FF6699FF9999FFCC99FFFFCC0000CC00
310
33CC0066CC0099CC00CCCC00FFCC3300CC3333CC3366CC3399CC33CCCC33FFCC6600CC6633CC6666CC6699CC66CCCC66FFCC9900CC9933CC9966CC9999CC99CCCC99FFCCCC00CCCC33CCCC66CCCC99CCCCCCCCCCFFCCFF00CCFF33CCFF66CCFF99CCFFCCCCFFFFFF0000FF0033FF0066FF0099FF00CCFF00FFFF3300FF3333
310
FF3366FF3399FF33CCFF33FFFF6600FF6633FF6666FF6699FF66CCFF66FFFF9900FF9933FF9966FF9999FF99CCFF99FFFFCC00FFCC33FFCC66FFCC99FFCCCCFFCCFFFFFF00FFFF33FFFF66FFFF99FFFFCCFFFFFF0000000D0D0D1A1A1A2828283535354343435050505D5D5D6B6B6B787878868686939393A1A1A1AEAEAEBB
310
BBBBC9C9C9D6D6D6E4E4E4F1F1F1FFFFFF00000000000000000000000000000000000000000000000000000000000008F1915C0000033D4944415478DAEDDD3B72E3300C0660DC40D77083FB776ED8FA08AA7482BF511F3E45522465EFCEEEC402C8492247CE78869F09F09984E87F16FE2785EE5BF86B5E64024C80093001
310
BE1B60AFCB04D00A404DFD5501D06C0113805403CC10D00E40EE837402CCA1B02F0026806600C6AE1A60F5452F00FB9E0055D105C08CCE2AA822009B0427C07932AC0D80B09F3B026D00EE8B7A80D4012803D81300B402B86E507308F899009AE9801800F30940D1F87D870811006197DBBCDBEB8EBBE189617759410880AB
310
1C19577B7EFBD3FEAB0B857D5F3503B81008F17077005B07E63586C0DA8B81FA284801B0CA00F0F35CE6DD02B8EB38559E005287280180F7D8027A003C0200C4B480D0C76DFDF793CBF580D80D0A0448FDFB2500F1E341E7F990881070835CD3AC7684B7B800585FAF97480077B10065C0A7482F48EC23C1002E09B600E01A
310
20654041001803A00F60B32544019853A9000886D313CEC83E2D0C60DB2E43C0B5812604B64D620EA04F005C0E14980491A7C3B8EE06FDCE98408018F1BE37AC9740A802B02D40E440A8DCECBB04A886C2C246826945A80538523EC7A111C903184E8755005C2D880480BC202211C05F1097C4FCBAFFA805600288052892E0
310
15403C2071DA1B1100E0477C9B09D72E00D08E00A50184A94F1720EF084906D8360C00F2385130003C002A802D6D86D6A7C2440274DFE30D6D110A80A305A00D81FA7B9100E3821C0B4A0142E3901E02A10C0E489877B704002C6551095054AB000820A674E9DC920CD0DEEEFDE404980013E0E6008FAA8C00FC1820DF0294
310
01C0EDA1E55B9002100778B9F645083C734983C00400312110E7BBFC78B0FFE41220B780E7420740F4C0F850CDDD0068E1A3A69F009079C6B470FF1610DEC64F00D002400A80598E3310869763A06F9EF9D0C4D3F8DAC6C7F119090061A5F72F43C0F70B529220BB04683FF147394042123C75832500FADD2044F502612074
310
00D847E7F530DF02500C854106D286C20806EE028500B643F3D52210290600D403403540AA69B3133A0154001C8BE2D538202F01A35815C662206C55988A1640E71C409DDBE8BDC8DD01E239803300D2E1907C3BFE76912880EEE61FC6B7A501FCFE8B4C8009F09500ED5F4F24B57F507186804C80EFFF070B3F897E492F09
310
A2CAB30000000049454E44AE4260829AC0980AF310013CF401B200D219208E7F591DC096B7FC7262CF9B5A80BC070A00B500F5BF03D00A502B1900FAB15D3700EB041813A1610B680748EF36CB327686B8DB193C02DCBF93714ED00F11E0B502D4533233808BE331A7D322CB025C9F8162BEFE90C5007CAD0000001201E6BF
310
5046D1EF17500F803E403080F65FB929AC00000000000000000000000000000000000000000000000000000000000000000000404BF903462B1BBDB5B884680000000049454E44AE426082
  0
ENDSEC
  0
EOF
