  0
SECTION
  2
HEADER
  9
$ACADVER
  1
AC1027
  9
$ACADMAINTVER
 70
    55
  9
$DWGCODEPAGE
  3
ANSI_932
  9
$LASTSAVEDBY
  1
marketing
  9
$REQUIREDVERSIONS
160
                 0
  9
$INSBASE
 10
0.0
 20
0.0
 30
0.0
  9
$EXTMIN
 10
-0.1232244904658728
 20
-0.121759839963488
 30
-0.000000000000013
  9
$EXTMAX
 10
525.0484354373165
 20
742.5665322977192
 30
0.0000000000000023
  9
$LIMMIN
 10
-1176.0
 20
-798.0
  9
$LIMMAX
 10
594.0
 20
1078.0
  9
$ORTHOMODE
 70
     1
  9
$REGENMODE
 70
     1
  9
$FILLMODE
 70
     1
  9
$QTEXTMODE
 70
     0
  9
$MIRRTEXT
 70
     1
  9
$LTSCALE
 40
10.0
  9
$ATTMODE
 70
     1
  9
$TEXTSIZE
 40
2.0
  9
$TRACEWID
 40
0.05
  9
$TEXTSTYLE
  7
STANDARD
  9
$CLAYER
  8
24
  9
$CELTYPE
  6
BYLAYER
  9
$CECOLOR
 62
   256
  9
$CELTSCALE
 40
1.0
  9
$DISPSILH
 70
     0
  9
$DIMSCALE
 40
1.0
  9
$DIMASZ
 40
2.0
  9
$DIMEXO
 40
1.0
  9
$DIMDLI
 40
0.5
  9
$DIMRND
 40
0.0
  9
$DIMDLE
 40
0.0
  9
$DIMEXE
 40
0.5
  9
$DIMTP
 40
0.0
  9
$DIMTM
 40
0.0
  9
$DIMTXT
 40
6.0
  9
$DIMCEN
 40
0.09
  9
$DIMTSZ
 40
0.0
  9
$DIMTOL
 70
     0
  9
$DIMLIM
 70
     0
  9
$DIMTIH
 70
     0
  9
$DIMTOH
 70
     0
  9
$DIMSE1
 70
     0
  9
$DIMSE2
 70
     0
  9
$DIMTAD
 70
     3
  9
$DIMZIN
 70
    12
  9
$DIMBLK
  1
OPEN
  9
$DIMASO
 70
     1
  9
$DIMSHO
 70
     1
  9
$DIMPOST
  1

  9
$DIMAPOST
  1

  9
$DIMALT
 70
     0
  9
$DIMALTD
 70
     2
  9
$DIMALTF
 40
25.4
  9
$DIMLFAC
 40
1.0
  9
$DIMTOFL
 70
     0
  9
$DIMTVP
 40
0.0
  9
$DIMTIX
 70
     0
  9
$DIMSOXD
 70
     0
  9
$DIMSAH
 70
     0
  9
$DIMBLK1
  1

  9
$DIMBLK2
  1

  9
$DIMSTYLE
  2
STANDARD
  9
$DIMCLRD
 70
     0
  9
$DIMCLRE
 70
     0
  9
$DIMCLRT
 70
     0
  9
$DIMTFAC
 40
1.0
  9
$DIMGAP
 40
2.0
  9
$DIMJUST
 70
     0
  9
$DIMSD1
 70
     0
  9
$DIMSD2
 70
     0
  9
$DIMTOLJ
 70
     1
  9
$DIMTZIN
 70
     0
  9
$DIMALTZ
 70
     0
  9
$DIMALTTZ
 70
     0
  9
$DIMUPT
 70
     0
  9
$DIMDEC
 70
     1
  9
$DIMTDEC
 70
     1
  9
$DIMALTU
 70
     2
  9
$DIMALTTD
 70
     2
  9
$DIMTXSTY
  7
STANDARD
  9
$DIMAUNIT
 70
     0
  9
$DIMADEC
 70
     0
  9
$DIMALTRND
 40
0.0
  9
$DIMAZIN
 70
     0
  9
$DIMDSEP
 70
    46
  9
$DIMATFIT
 70
     3
  9
$DIMFRAC
 70
     0
  9
$DIMLDRBLK
  1
OPEN
  9
$DIMLUNIT
 70
     2
  9
$DIMLWD
 70
    -2
  9
$DIMLWE
 70
    -2
  9
$DIMTMOVE
 70
     0
  9
$DIMFXL
 40
1.0
  9
$DIMFXLON
 70
     0
  9
$DIMJOGANG
 40
0.7853981633974483
  9
$DIMTFILL
 70
     1
  9
$DIMTFILLCLR
 70
     0
  9
$DIMARCSYM
 70
     0
  9
$DIMLTYPE
  6

  9
$DIMLTEX1
  6

  9
$DIMLTEX2
  6

  9
$DIMTXTDIRECTION
 70
     0
  9
$LUNITS
 70
     2
  9
$LUPREC
 70
     8
  9
$SKETCHINC
 40
0.1
  9
$FILLETRAD
 40
0.0
  9
$AUNITS
 70
     0
  9
$AUPREC
 70
     0
  9
$MENU
  1
.
  9
$ELEVATION
 40
0.0
  9
$PELEVATION
 40
0.0
  9
$THICKNESS
 40
0.0
  9
$LIMCHECK
 70
     0
  9
$CHAMFERA
 40
0.0
  9
$CHAMFERB
 40
0.0
  9
$CHAMFERC
 40
0.0
  9
$CHAMFERD
 40
0.0
  9
$SKPOLY
 70
     0
  9
$TDCREATE
 40
2452286.555658658
  9
$TDUCREATE
 40
2452286.180658658
  9
$TDUPDATE
 40
2459243.550154444
  9
$TDUUPDATE
 40
2459243.175154445
  9
$TDINDWG
 40
3.0677951505
  9
$TDUSRTIMER
 40
3.0677905787
  9
$USRTIMER
 70
     1
  9
$ANGBASE
 50
0.0
  9
$ANGDIR
 70
     0
  9
$PDMODE
 70
     0
  9
$PDSIZE
 40
0.0
  9
$PLINEWID
 40
0.0
  9
$SPLFRAME
 70
     0
  9
$SPLINETYPE
 70
     6
  9
$SPLINESEGS
 70
     8
  9
$HANDSEED
  5
2488F
  9
$SURFTAB1
 70
     6
  9
$SURFTAB2
 70
     6
  9
$SURFTYPE
 70
     6
  9
$SURFU
 70
     6
  9
$SURFV
 70
     6
  9
$UCSBASE
  2

  9
$UCSNAME
  2

  9
$UCSORG
 10
0.0
 20
0.0
 30
0.0
  9
$UCSXDIR
 10
1.0
 20
0.0
 30
0.0
  9
$UCSYDIR
 10
0.0
 20
1.0
 30
0.0
  9
$UCSORTHOREF
  2

  9
$UCSORTHOVIEW
 70
     0
  9
$UCSORGTOP
 10
0.0
 20
0.0
 30
0.0
  9
$UCSORGBOTTOM
 10
0.0
 20
0.0
 30
0.0
  9
$UCSORGLEFT
 10
0.0
 20
0.0
 30
0.0
  9
$UCSORGRIGHT
 10
0.0
 20
0.0
 30
0.0
  9
$UCSORGFRONT
 10
0.0
 20
0.0
 30
0.0
  9
$UCSORGBACK
 10
0.0
 20
0.0
 30
0.0
  9
$PUCSBASE
  2

  9
$PUCSNAME
  2

  9
$PUCSORG
 10
0.0
 20
0.0
 30
0.0
  9
$PUCSXDIR
 10
1.0
 20
0.0
 30
0.0
  9
$PUCSYDIR
 10
0.0
 20
1.0
 30
0.0
  9
$PUCSORTHOREF
  2

  9
$PUCSORTHOVIEW
 70
     0
  9
$PUCSORGTOP
 10
0.0
 20
0.0
 30
0.0
  9
$PUCSORGBOTTOM
 10
0.0
 20
0.0
 30
0.0
  9
$PUCSORGLEFT
 10
0.0
 20
0.0
 30
0.0
  9
$PUCSORGRIGHT
 10
0.0
 20
0.0
 30
0.0
  9
$PUCSORGFRONT
 10
0.0
 20
0.0
 30
0.0
  9
$PUCSORGBACK
 10
0.0
 20
0.0
 30
0.0
  9
$USERI1
 70
     0
  9
$USERI2
 70
     0
  9
$USERI3
 70
     0
  9
$USERI4
 70
     0
  9
$USERI5
 70
     0
  9
$USERR1
 40
0.0
  9
$USERR2
 40
0.0
  9
$USERR3
 40
0.0
  9
$USERR4
 40
0.0
  9
$USERR5
 40
0.0
  9
$WORLDVIEW
 70
     1
  9
$SHADEDGE
 70
     3
  9
$SHADEDIF
 70
    70
  9
$TILEMODE
 70
     1
  9
$MAXACTVP
 70
    48
  9
$PINSBASE
 10
0.0
 20
0.0
 30
0.0
  9
$PLIMCHECK
 70
     0
  9
$PEXTMIN
 10
0.0
 20
0.0
 30
0.0
  9
$PEXTMAX
 10
0.0
 20
0.0
 30
0.0
  9
$PLIMMIN
 10
0.0
 20
0.0
  9
$PLIMMAX
 10
0.0
 20
0.0
  9
$UNITMODE
 70
     0
  9
$VISRETAIN
 70
     1
  9
$PLINEGEN
 70
     0
  9
$PSLTSCALE
 70
     0
  9
$TREEDEPTH
 70
  3020
  9
$CMLSTYLE
  2
STANDARD
  9
$CMLJUST
 70
     0
  9
$CMLSCALE
 40
1.0
  9
$PROXYGRAPHICS
 70
     1
  9
$MEASUREMENT
 70
     0
  9
$CELWEIGHT
370
    -1
  9
$ENDCAPS
280
     0
  9
$JOINSTYLE
280
     0
  9
$LWDISPLAY
290
     0
  9
$INSUNITS
 70
     0
  9
$HYPERLINKBASE
  1

  9
$STYLESHEET
  1
MONOCHROME.CTB
  9
$XEDIT
290
     1
  9
$CEPSNTYPE
380
     0
  9
$PSTYLEMODE
290
     1
  9
$FINGERPRINTGUID
  2

  9
$VERSIONGUID
  2
{E86AEE22-5040-46A8-8B6C-9CFB690A99A8}
  9
$EXTNAMES
290
     1
  9
$PSVPSCALE
 40
0.0
  9
$OLESTARTUP
290
     0
  9
$SORTENTS
280
   127
  9
$INDEXCTL
280
     0
  9
$HIDETEXT
280
     0
  9
$XCLIPFRAME
280
     2
  9
$HALOGAP
280
     0
  9
$OBSCOLOR
 70
   257
  9
$OBSLTYPE
280
     0
  9
$INTERSECTIONDISPLAY
280
     0
  9
$INTERSECTIONCOLOR
 70
   257
  9
$DIMASSOC
280
     1
  9
$PROJECTNAME
  1

  9
$CAMERADISPLAY
290
     0
  9
$LENSLENGTH
 40
50.0
  9
$CAMERAHEIGHT
 40
0.0
  9
$STEPSPERSEC
 40
2.0
  9
$STEPSIZE
 40
6.0
  9
$3DDWFPREC
 40
2.0
  9
$PSOLWIDTH
 40
0.25
  9
$PSOLHEIGHT
 40
4.0
  9
$LOFTANG1
 40
1.570796326794896
  9
$LOFTANG2
 40
1.570796326794896
  9
$LOFTMAG1
 40
0.0
  9
$LOFTMAG2
 40
0.0
  9
$LOFTPARAM
 70
     7
  9
$LOFTNORMALS
280
     1
  9
$LATITUDE
 40
37.795
  9
$LONGITUDE
 40
-122.394
  9
$NORTHDIRECTION
 40
0.0
  9
$TIMEZONE
 70
 -8000
  9
$LIGHTGLYPHDISPLAY
280
     1
  9
$TILEMODELIGHTSYNCH
280
     1
  9
$CMATERIAL
347
FFFD
  9
$SOLIDHIST
280
     1
  9
$SHOWHIST
280
     1
  9
$DWFFRAME
280
     2
  9
$DGNFRAME
280
     0
  9
$REALWORLDSCALE
290
     1
  9
$INTERFERECOLOR
 62
     1
  9
$INTERFEREOBJVS
345
1001F
  9
$INTERFEREVPVS
346
1001C
  9
$CSHADOW
280
     0
  9
$SHADOWPLANELOCATION
 40
0.0
  0
ENDSEC
  0
SECTION
  2
CLASSES
  0
CLASS
  1
ACDBDICTIONARYWDFLT
  2
AcDbDictionaryWithDefault
  3
ObjectDBX Classes
 90
        0
 91
        1
280
     0
281
     0
  0
CLASS
  1
DICTIONARYVAR
  2
AcDbDictionaryVar
  3
ObjectDBX Classes
 90
        0
 91
       12
280
     0
281
     0
  0
CLASS
  1
MATERIAL
  2
AcDbMaterial
  3
ObjectDBX Classes
 90
     1153
 91
        3
280
     0
281
     0
  0
CLASS
  1
VISUALSTYLE
  2
AcDbVisualStyle
  3
ObjectDBX Classes
 90
     4095
 91
       26
280
     0
281
     0
  0
CLASS
  1
TABLESTYLE
  2
AcDbTableStyle
  3
ObjectDBX Classes
 90
     4095
 91
        1
280
     0
281
     0
  0
CLASS
  1
SCALE
  2
AcDbScale
  3
ObjectDBX Classes
 90
     1153
 91
       33
280
     0
281
     0
  0
CLASS
  1
MLEADERSTYLE
  2
AcDbMLeaderStyle
  3
ACDB_MLEADERSTYLE_CLASS
 90
     4095
 91
        1
280
     0
281
     0
  0
CLASS
  1
CELLSTYLEMAP
  2
AcDbCellStyleMap
  3
ObjectDBX Classes
 90
     1152
 91
        2
280
     0
281
     0
  0
CLASS
  1
AEC_REFEDIT_STATUS_TRACKER
  2
AecDbRefEditStatusTracker
  3
AecArchBase70|Product Desc: Autodesk Architectural Desktop 2007 |Company: Autodesk,Inc. |WEB Address: www.autodesk.com
 90
      129
 91
        0
280
     0
281
     0
  0
CLASS
  1
NPOCOLLECTION
  2
AcDbImpNonPersistentObjectsCollection
  3
ObjectDBX Classes
 90
     1153
 91
        0
280
     0
281
     0
  0
CLASS
  1
SORTENTSTABLE
  2
AcDbSortentsTable
  3
ObjectDBX Classes
 90
        0
 91
        3
280
     0
281
     0
  0
CLASS
  1
ACDB_ALDIMOBJECTCONTEXTDATA_CLASS
  2
AcDbAlignedDimensionObjectContextData
  3
ObjectDBX Classes
 90
     1153
 91
        1
280
     0
281
     0
  0
CLASS
  1
ACDBSECTIONVIEWSTYLE
  2
AcDbSectionViewStyle
  3
ObjectDBX Classes
 90
     1025
 91
        1
280
     0
281
     0
  0
CLASS
  1
ACDBDETAILVIEWSTYLE
  2
AcDbDetailViewStyle
  3
ObjectDBX Classes
 90
     1025
 91
        1
280
     0
281
     0
  0
ENDSEC
  0
SECTION
  2
TABLES
  0
TABLE
  2
VPORT
  5
8
330
0
100
AcDbSymbolTable
 70
     1
  0
VPORT
  5
15B34
330
8
100
AcDbSymbolTableRecord
100
AcDbViewportTableRecord
  2
*Active
 70
     0
 10
0.0
 20
0.0
 11
1.0
 21
1.0
 12
262.4626054734254
 22
371.2223862288779
 13
0.0
 23
0.0
 14
1.0
 24
1.0
 15
10.0
 25
10.0
 16
0.0
 26
0.0
 36
1.0
 17
0.0
 27
0.0
 37
0.0
 40
749.4400038843889
 41
2.464339908952958
 42
50.0
 43
0.0
 44
0.0
 50
0.0
 51
0.0
 71
     0
 72
   100
 73
     1
 74
     1
 75
     0
 76
     0
 77
     0
 78
     1
281
     0
 65
     1
110
0.0
120
0.0
130
0.0
111
1.0
121
0.0
131
0.0
112
0.0
122
1.0
132
0.0
 79
     0
146
0.0
348
1001B
 60
     3
 61
     5
292
     1
282
     1
141
0.0
142
0.0
 63
   250
421
  3355443
1001
ACAD_NAV_VCDISPLAY
1070
     3
  0
ENDTAB
  0
TABLE
  2
LTYPE
  5
5
330
0
100
AcDbSymbolTable
 70
    10
  0
LTYPE
  5
13
330
5
100
AcDbSymbolTableRecord
100
AcDbLinetypeTableRecord
  2
BYBLOCK
 70
     0
  3

 72
    65
 73
     0
 40
0.0
  0
LTYPE
  5
14
330
5
100
AcDbSymbolTableRecord
100
AcDbLinetypeTableRecord
  2
BYLAYER
 70
     0
  3

 72
    65
 73
     0
 40
0.0
  0
LTYPE
  5
15
330
5
100
AcDbSymbolTableRecord
100
AcDbLinetypeTableRecord
  2
CONTINUOUS
 70
     0
  3
Solid line
 72
    65
 73
     0
 40
0.0
  0
LTYPE
  5
22
330
5
100
AcDbSymbolTableRecord
100
AcDbLinetypeTableRecord
  2
CONTINOUS
 70
     0
  3
Solid line
 72
    65
 73
     0
 40
0.0
  0
LTYPE
  5
24
330
5
100
AcDbSymbolTableRecord
100
AcDbLinetypeTableRecord
  2
DASHDOT
 70
     0
  3
__ . __ . __ . __ . __ . __ . __ . __ . __ . __
 72
    65
 73
     4
 40
1.0
 49
0.5
 74
     0
 49
-0.25
 74
     0
 49
0.0
 74
     0
 49
-0.25
 74
     0
  0
LTYPE
  5
4C47
330
5
100
AcDbSymbolTableRecord
100
AcDbLinetypeTableRecord
  2
DIVIDE
 70
     0
  3
Divide ____ . . ____ . . ____ . . ____ . . ____
 72
    65
 73
     6
 40
1.25
 49
0.5
 74
     0
 49
-0.25
 74
     0
 49
0.0
 74
     0
 49
-0.25
 74
     0
 49
0.0
 74
     0
 49
-0.25
 74
     0
  0
LTYPE
  5
685F
330
5
100
AcDbSymbolTableRecord
100
AcDbLinetypeTableRecord
  2
PHANTOM
 70
     0
  3
Phantom ______  __  __  ______  __  __  ______
 72
    65
 73
     6
 40
2.5
 49
1.25
 74
     0
 49
-0.25
 74
     0
 49
0.25
 74
     0
 49
-0.25
 74
     0
 49
0.25
 74
     0
 49
-0.25
 74
     0
  0
LTYPE
  5
16086
330
5
100
AcDbSymbolTableRecord
100
AcDbLinetypeTableRecord
  2
SLD-実線
 70
     0
  3
SolidWorks Line Style
 72
    65
 73
     0
 40
0.0
  0
LTYPE
  5
16089
330
5
100
AcDbSymbolTableRecord
100
AcDbLinetypeTableRecord
  2
SLD-鎖線
 70
     0
  3
SolidWorks Line Style
 72
    65
 73
     4
 40
10.16
 49
6.349999999999997
 74
     0
 49
-1.27
 74
     0
 49
1.27
 74
     0
 49
-1.27
 74
     0
  0
LTYPE
  5
247D7
330
5
100
AcDbSymbolTableRecord
100
AcDbLinetypeTableRecord
  2
HIDDEN2
 70
     0
  3
Hidden (.5x) _ _ _ _ _ _ _ _ _ _ _ _ _ _ _ _ _
 72
    65
 73
     2
 40
0.1875
 49
0.125
 74
     0
 49
-0.0625
 74
     0
  0
LTYPE
  5
247D8
330
5
100
AcDbSymbolTableRecord
100
AcDbLinetypeTableRecord
  2
HIDDEN
 70
     0
  3
Hidden __ __ __ __ __ __ __ __ __ __ __ __ __ _
 72
    65
 73
     2
 40
0.375
 49
0.25
 74
     0
 49
-0.125
 74
     0
  0
ENDTAB
  0
TABLE
  2
LAYER
  5
2
102
{ACAD_XDICTIONARY
360
160A2
102
}
330
0
100
AcDbSymbolTable
 70
    16
  0
LAYER
  5
10
102
{ACAD_XDICTIONARY
360
10054
102
}
330
2
100
AcDbSymbolTableRecord
100
AcDbLayerTableRecord
  2
0
 70
     0
 62
     7
  6
CONTINOUS
370
    -3
390
F
347
1000D
348
0
  0
LAYER
  5
2F
102
{ACAD_XDICTIONARY
360
10056
102
}
330
2
100
AcDbSymbolTableRecord
100
AcDbLayerTableRecord
  2
10
 70
     0
 62
     4
  6
CONTINOUS
370
    -3
390
F
347
1000D
348
0
  0
LAYER
  5
35
102
{ACAD_XDICTIONARY
360
1005A
102
}
330
2
100
AcDbSymbolTableRecord
100
AcDbLayerTableRecord
  2
16
 70
     0
 62
     6
  6
DASHDOT
370
    -3
390
F
347
1000D
348
0
  0
LAYER
  5
3D
102
{ACAD_XDICTIONARY
360
1005E
102
}
330
2
100
AcDbSymbolTableRecord
100
AcDbLayerTableRecord
  2
24
 70
     0
 62
     7
  6
CONTINOUS
370
    -3
390
F
347
1000D
348
0
  0
LAYER
  5
3A2
102
{ACAD_XDICTIONARY
360
10060
102
}
330
2
100
AcDbSymbolTableRecord
100
AcDbLayerTableRecord
  2
30
 70
     0
 62
     9
  6
CONTINUOUS
370
    -3
390
F
347
1000D
348
0
  0
LAYER
  5
3A4
330
2
100
AcDbSymbolTableRecord
100
AcDbLayerTableRecord
  2
DEFPOINTS
 70
     0
 62
     7
  6
CONTINUOUS
290
     0
370
    -3
390
F
347
1000D
348
0
  0
LAYER
  5
3BBA
102
{ACAD_XDICTIONARY
360
10062
102
}
330
2
100
AcDbSymbolTableRecord
100
AcDbLayerTableRecord
  2
18
 70
     0
 62
     5
  6
DIVIDE
370
    -3
390
F
347
1000D
348
0
  0
LAYER
  5
67A8
102
{ACAD_XDICTIONARY
360
10064
102
}
330
2
100
AcDbSymbolTableRecord
100
AcDbLayerTableRecord
  2
11
 70
     0
 62
     1
  6
CONTINOUS
370
    -3
390
F
347
1000D
348
0
  0
LAYER
  5
7837
102
{ACAD_XDICTIONARY
360
10066
102
}
330
2
100
AcDbSymbolTableRecord
100
AcDbLayerTableRecord
  2
17
 70
     0
 62
     2
  6
DASHDOT
370
    -3
390
F
347
1000D
348
0
  0
LAYER
  5
C500
102
{ACAD_XDICTIONARY
360
10070
102
}
330
2
100
AcDbSymbolTableRecord
100
AcDbLayerTableRecord
  2
240
 70
     0
 62
     7
  6
CONTINUOUS
370
    -3
390
F
347
1000D
348
0
  0
LAYER
  5
C501
102
{ACAD_XDICTIONARY
360
10072
102
}
330
2
100
AcDbSymbolTableRecord
100
AcDbLayerTableRecord
  2
5
 70
     0
 62
     7
  6
CONTINUOUS
370
    -3
390
F
347
1000D
348
0
  0
LAYER
  5
F7D2
102
{ACAD_XDICTIONARY
360
10076
102
}
330
2
100
AcDbSymbolTableRecord
100
AcDbLayerTableRecord
  2
13
 70
     0
 62
     3
  6
CONTINUOUS
370
    -3
390
F
347
1000D
348
0
  0
LAYER
  5
F7D8
102
{ACAD_XDICTIONARY
360
10078
102
}
330
2
100
AcDbSymbolTableRecord
100
AcDbLayerTableRecord
  2
130
 70
     0
 62
     4
  6
CONTINOUS
370
    -3
390
F
347
1000D
348
0
  0
LAYER
  5
F9C3
102
{ACAD_XDICTIONARY
360
1007A
102
}
330
2
100
AcDbSymbolTableRecord
100
AcDbLayerTableRecord
  2
131
 70
     0
 62
     4
  6
PHANTOM
370
    -3
390
F
347
1000D
348
0
  0
LAYER
  5
247A4
330
2
100
AcDbSymbolTableRecord
100
AcDbLayerTableRecord
  2
19
 70
     0
 62
     7
  6
CONTINOUS
370
    -3
390
F
347
1000D
348
0
1001
AcAecLayerStandard
1000

1000

1001
AcCmTransparency
1071
        0
  0
LAYER
  5
247AD
330
2
100
AcDbSymbolTableRecord
100
AcDbLayerTableRecord
  2
12
 70
     0
 62
     3
  6
CONTINOUS
370
    -3
390
F
347
1000D
348
0
1001
AcAecLayerStandard
1000

1000

1001
AcCmTransparency
1071
        0
  0
ENDTAB
  0
TABLE
  2
STYLE
  5
3
330
0
100
AcDbSymbolTable
 70
     3
  0
STYLE
  5
11
330
3
100
AcDbSymbolTableRecord
100
AcDbTextStyleTableRecord
  2
STANDARD
 70
     0
 40
0.0
 41
1.0
 50
0.0
 71
     0
 42
2.0
  3
txt.shx
  4
bigfont.shx
  0
STYLE
  5
C503
330
3
100
AcDbSymbolTableRecord
100
AcDbTextStyleTableRecord
  2
blockfont
 70
     0
 40
0.0
 41
1.0
 50
0.0
 71
     0
 42
0.2
  3
simplex.shx
  4
bigfont
  0
STYLE
  5
247D6
330
3
100
AcDbSymbolTableRecord
100
AcDbTextStyleTableRecord
  2

 70
     1
 40
0.0
 41
1.0
 50
0.0
 71
     0
 42
2.0
  3
ltypeshp.shx
  4

  0
ENDTAB
  0
TABLE
  2
VIEW
  5
6
330
0
100
AcDbSymbolTable
 70
     3
  0
VIEW
  5
230C
330
6
100
AcDbSymbolTableRecord
100
AcDbViewTableRecord
  2
OLE1
 70
     0
 40
148.912488
 10
429.497628
 20
2.560627
 41
103.145806
 11
0.0
 21
0.0
 31
1.0
 12
0.0
 22
0.0
 32
0.0
 42
50.0
 43
0.0
 44
0.0
 50
0.0
 71
     0
281
     0
 72
     0
 73
     0
348
1001B
  0
VIEW
  5
230E
330
6
100
AcDbSymbolTableRecord
100
AcDbViewTableRecord
  2
OLE2
 70
     0
 40
170.778692
 10
322.66497
 20
-5.978304
 41
102.467215
 11
0.0
 21
0.0
 31
1.0
 12
0.0
 22
0.0
 32
0.0
 42
50.0
 43
0.0
 44
0.0
 50
0.0
 71
     0
281
     0
 72
     0
 73
     0
348
1001B
  0
VIEW
  5
23AA
330
6
100
AcDbSymbolTableRecord
100
AcDbViewTableRecord
  2
OLE3
 70
     0
 40
591.7897389999998
 10
84.79698199999999
 20
-46.09335999999998
 41
388.792096
 11
0.0
 21
0.0
 31
1.0
 12
0.0
 22
0.0
 32
0.0
 42
50.0
 43
0.0
 44
0.0
 50
0.0
 71
     0
281
     0
 72
     0
 73
     0
348
1001B
  0
ENDTAB
  0
TABLE
  2
UCS
  5
7
330
0
100
AcDbSymbolTable
 70
     0
  0
ENDTAB
  0
TABLE
  2
APPID
  5
9
330
0
100
AcDbSymbolTable
 70
    12
  0
APPID
  5
12
330
9
100
AcDbSymbolTableRecord
100
AcDbRegAppTableRecord
  2
ACAD
 70
     0
  0
APPID
  5
ECD
330
9
100
AcDbSymbolTableRecord
100
AcDbRegAppTableRecord
  2
CONTENTBLOCKICON
 70
     0
  0
APPID
  5
100CA
330
9
100
AcDbSymbolTableRecord
100
AcDbRegAppTableRecord
  2
ACAD_MLEADERVER
 70
     0
  0
APPID
  5
1012B
330
9
100
AcDbSymbolTableRecord
100
AcDbRegAppTableRecord
  2
DCO15
 70
     0
  0
APPID
  5
14499
330
9
100
AcDbSymbolTableRecord
100
AcDbRegAppTableRecord
  2
ACAD_EXEMPT_FROM_CAD_STANDARDS
 70
     0
  0
APPID
  5
15772
330
9
100
AcDbSymbolTableRecord
100
AcDbRegAppTableRecord
  2
ACAD_PSEXT
 70
     0
  0
APPID
  5
160A0
330
9
100
AcDbSymbolTableRecord
100
AcDbRegAppTableRecord
  2
ACAD_DSTYLE_DIMJAG
 70
     0
  0
APPID
  5
160A1
330
9
100
AcDbSymbolTableRecord
100
AcDbRegAppTableRecord
  2
ACAD_DSTYLE_DIMTALN
 70
     0
  0
APPID
  5
24573
330
9
100
AcDbSymbolTableRecord
100
AcDbRegAppTableRecord
  2
AcadAnnotative
 70
     0
  0
APPID
  5
24777
330
9
100
AcDbSymbolTableRecord
100
AcDbRegAppTableRecord
  2
ACAD_NAV_VCDISPLAY
 70
     0
  0
APPID
  5
247A5
330
9
100
AcDbSymbolTableRecord
100
AcDbRegAppTableRecord
  2
AcAecLayerStandard
 70
     0
  0
APPID
  5
247A6
330
9
100
AcDbSymbolTableRecord
100
AcDbRegAppTableRecord
  2
AcCmTransparency
 70
     0
  0
ENDTAB
  0
TABLE
  2
DIMSTYLE
  5
A
330
0
100
AcDbSymbolTable
 70
     3
100
AcDbDimStyleTable
 71
     2
340
175
340
C24A
  0
DIMSTYLE
105
175
102
{ACAD_REACTORS
330
1FE13
330
23BE0
330
23BED
330
20648
330
20645
330
240E0
330
1FE14
330
20646
330
20643
330
20642
330
20641
330
22903
330
1FD09
330
1FD0B
330
1FE5F
330
22DFD
330
22D29
330
23C89
330
24486
330
240D3
330
24756
102
}
330
A
100
AcDbSymbolTableRecord
100
AcDbDimStyleTableRecord
  2
STANDARD
 70
     0
 41
2.0
 42
1.0
 43
0.5
 44
0.5
 69
     1
 73
     0
 74
     0
 77
     3
 78
    12
140
6.0
147
2.0
271
     1
272
     1
340
11
341
3B2
342
3B2
1001
ACAD_DSTYLE_DIMJAG
1070
   388
1040
1.5
1001
ACAD_DSTYLE_DIMTALN
1070
   392
1070
     0
  0
DIMSTYLE
105
C24A
102
{ACAD_REACTORS
330
1FD04
330
1FD05
330
1FD07
330
1FD06
330
22625
330
22D2A
330
22DFF
330
22F03
330
24124
330
230E6
330
22F04
330
22D2B
330
22DFE
102
}
330
A
100
AcDbSymbolTableRecord
100
AcDbDimStyleTableRecord
  2
STANDARD1
 70
     0
 41
2.0
 42
3.0
 43
0.5
 44
0.5
 77
     3
 78
    12
140
6.0
147
2.0
172
     1
271
     1
272
     1
289
     2
340
11
341
3B2
342
3B2
1001
ACAD_DSTYLE_DIMJAG
1070
   388
1040
1.5
1001
ACAD_DSTYLE_DIMTALN
1070
   392
1070
     0
  0
ENDTAB
  0
TABLE
  2
BLOCK_RECORD
  5
1
330
0
100
AcDbSymbolTable
 70
    44
  0
BLOCK_RECORD
  5
1E
102
{ACAD_XDICTIONARY
360
178
102
}
330
1
100
AcDbSymbolTableRecord
100
AcDbBlockTableRecord
  2
*MODEL_SPACE
340
904E
 70
     0
280
     1
281
     0
  0
BLOCK_RECORD
  5
1A
102
{ACAD_XDICTIONARY
360
17A
102
}
330
1
100
AcDbSymbolTableRecord
100
AcDbBlockTableRecord
  2
*PAPER_SPACE
340
904F
 70
     0
280
     1
281
     0
  0
BLOCK_RECORD
  5
3B2
330
1
100
AcDbSymbolTableRecord
100
AcDbBlockTableRecord
  2
_OPEN
340
0
310
2800000020000000200000000100080000000000000400000000000000000000000000000000000000000000000080000080000000808000800000008000800080800000C0C0C000C0DCC000F0CAA6000020400000206000002080000020A0000020C0000020E00000400000004020000040400000406000004080000040A0
310
000040C0000040E00000600000006020000060400000606000006080000060A0000060C0000060E00000800000008020000080400000806000008080000080A0000080C0000080E00000A0000000A0200000A0400000A0600000A0800000A0A00000A0C00000A0E00000C0000000C0200000C0400000C0600000C0800000C0
310
A00000C0C00000C0E00000E0000000E0200000E0400000E0600000E0800000E0A00000E0C00000E0E00040000000400020004000400040006000400080004000A0004000C0004000E00040200000402020004020400040206000402080004020A0004020C0004020E000404000004040200040404000404060004040800040
310
40A0004040C0004040E00040600000406020004060400040606000406080004060A0004060C0004060E00040800000408020004080400040806000408080004080A0004080C0004080E00040A0000040A0200040A0400040A0600040A0800040A0A00040A0C00040A0E00040C0000040C0200040C0400040C0600040C08000
310
40C0A00040C0C00040C0E00040E0000040E0200040E0400040E0600040E0800040E0A00040E0C00040E0E00080000000800020008000400080006000800080008000A0008000C0008000E00080200000802020008020400080206000802080008020A0008020C0008020E00080400000804020008040400080406000804080
310
008040A0008040C0008040E00080600000806020008060400080606000806080008060A0008060C0008060E00080800000808020008080400080806000808080008080A0008080C0008080E00080A0000080A0200080A0400080A0600080A0800080A0A00080A0C00080A0E00080C0000080C0200080C0400080C0600080C0
310
800080C0A00080C0C00080C0E00080E0000080E0200080E0400080E0600080E0800080E0A00080E0C00080E0E000C0000000C0002000C0004000C0006000C0008000C000A000C000C000C000E000C0200000C0202000C0204000C0206000C0208000C020A000C020C000C020E000C0400000C0402000C0404000C0406000C0
310
408000C040A000C040C000C040E000C0600000C0602000C0604000C0606000C0608000C060A000C060C000C060E000C0800000C0802000C0804000C0806000C0808000C080A000C080C000C080E000C0A00000C0A02000C0A04000C0A06000C0A08000C0A0A000C0A0C000C0A0E000C0C00000C0C02000C0C04000C0C06000
310
C0C08000C0C0A000F0FBFF00A4A0A000808080000000FF0000FF000000FFFF00FF000000FF00FF00FFFF0000FFFFFF0000000000000000000000000000000000000000000000000000000000000000000000000000000000000000000000000000000000000000000000000000000000000000000000000000000000000000
310
00000000000000000000000000000000000000000000000000000000000000000000000000000000000000000000000000000000000000000000000000000000000000000000000000000000000000000000000000000000000000000000000000000000000000000000000000000000000000000000000000000000000000
310
00000000000000000000000000000000000000000000000000000000000000000000000000000000000000000000000000000000000000000000000000000000000000000000000000000000000000000000000000000000000000000000000000000000000000000000000000000000000000000000000000000000000000
310
0000000000000000000000000000000000000000FFFFFF0000000000000000000000000000000000000000000000000000000000000000FFFFFFFFFFFF0000000000000000000000000000000000000000000000000000000000000000FFFFFFFFFFFF00000000000000000000000000000000000000000000000000000000
310
00000000FFFFFFFFFFFF0000000000000000000000000000000000000000000000000000000000000000FFFFFFFFFFFF0000000000FFFFFFFFFFFFFFFFFFFFFFFFFFFFFFFFFFFFFFFFFFFFFFFFFFFFFFFFFFFF000000000000000000000000000000000000000000FFFFFFFFFFFFFF00000000000000000000000000000000
310
00FFFFFFFFFFFFFFFF0000000000000000000000000000000000FFFFFFFFFFFFFF000000000000000000000000000000000000000000FFFFFFFF000000000000000000000000000000000000000000000000000000000000000000000000000000000000000000000000000000000000000000000000000000000000000000
310
00000000000000000000000000000000000000000000000000000000000000000000000000000000000000000000000000000000000000000000000000000000000000000000000000000000000000000000000000000000000000000000000000000000000000000000000000000000000000000000000000000000000000
310
00000000000000000000000000000000000000000000000000000000000000000000000000000000000000000000000000000000000000000000000000000000000000000000000000000000000000000000000000000000000000000000000000000000000000000000000000000000000000000000000000000000000000
310
0000000000000000000000000000000000000000000000000000000000000000000000000000000000000000000000000000000000000000
102
{BLKREFS
331
2484D
331
2484E
331
24770
331
247D0
331
24750
331
24751
331
24663
331
24664
331
2466C
331
2466D
331
24675
331
24676
331
24692
331
24693
331
246AF
331
246B0
331
24748
331
243DD
331
243DE
331
243F8
331
243F9
331
2440A
331
2440B
331
2441C
331
2441D
331
246A5
331
246A6
331
24442
331
24443
331
2444B
331
2444C
331
2471E
331
2471F
331
24727
331
24728
331
24739
331
2473A
331
24747
331
24651
331
24652
331
2465A
331
2465B
331
24424
331
2442B
331
24433
331
24434
331
242DF
331
242E0
331
242E8
331
242E9
331
24356
331
24357
331
243C9
331
243CA
331
243D4
331
243D5
331
2476F
331
24703
331
24704
331
2470C
331
2470D
331
24715
331
24716
331
247CF
102
}
 70
     0
280
     1
281
     0
  0
BLOCK_RECORD
  5
15CB5
330
1
100
AcDbSymbolTableRecord
100
AcDbBlockTableRecord
  2
SW_CENTERMARKSYMBOL_0
340
0
102
{BLKREFS
331
22E01
102
}
 70
     0
280
     1
281
     0
  0
BLOCK_RECORD
  5
15CC0
330
1
100
AcDbSymbolTableRecord
100
AcDbBlockTableRecord
  2
SW_CENTERMARKSYMBOL_1
340
0
102
{BLKREFS
331
22E02
102
}
 70
     0
280
     1
281
     0
  0
BLOCK_RECORD
  5
15CCB
330
1
100
AcDbSymbolTableRecord
100
AcDbBlockTableRecord
  2
SW_CENTERMARKSYMBOL_2
340
0
102
{BLKREFS
331
22E03
102
}
 70
     0
280
     1
281
     0
  0
BLOCK_RECORD
  5
15CD6
330
1
100
AcDbSymbolTableRecord
100
AcDbBlockTableRecord
  2
SW_CENTERMARKSYMBOL_3
340
0
102
{BLKREFS
331
22E04
102
}
 70
     0
280
     1
281
     0
  0
BLOCK_RECORD
  5
15CE1
102
{ACAD_XDICTIONARY
360
23CEC
102
}
330
1
100
AcDbSymbolTableRecord
100
AcDbBlockTableRecord
  2
SW_CENTERMARKSYMBOL_4
340
0
102
{BLKREFS
331
22E05
331
23CEE
331
23CEF
102
}
 70
     0
280
     1
281
     0
  0
BLOCK_RECORD
  5
15D4F
330
1
100
AcDbSymbolTableRecord
100
AcDbBlockTableRecord
  2
SW_CENTERMARKSYMBOL_14
340
0
102
{BLKREFS
331
1FE16
102
}
 70
     0
280
     1
281
     0
  0
BLOCK_RECORD
  5
15E7D
330
1
100
AcDbSymbolTableRecord
100
AcDbBlockTableRecord
  2
_DOT
340
0
 70
     0
280
     1
281
     0
  0
BLOCK_RECORD
  5
1FD0D
330
1
100
AcDbSymbolTableRecord
100
AcDbBlockTableRecord
  2
*D8
340
0
 70
     0
280
     1
281
     0
  0
BLOCK_RECORD
  5
1FD19
330
1
100
AcDbSymbolTableRecord
100
AcDbBlockTableRecord
  2
*D9
340
0
 70
     0
280
     1
281
     0
  0
BLOCK_RECORD
  5
1FD27
330
1
100
AcDbSymbolTableRecord
100
AcDbBlockTableRecord
  2
*D10
340
0
 70
     0
280
     1
281
     0
  0
BLOCK_RECORD
  5
1FD33
330
1
100
AcDbSymbolTableRecord
100
AcDbBlockTableRecord
  2
*D11
340
0
 70
     0
280
     1
281
     0
  0
BLOCK_RECORD
  5
1FE17
330
1
100
AcDbSymbolTableRecord
100
AcDbBlockTableRecord
  2
*D12
340
0
 70
     0
280
     1
281
     0
  0
BLOCK_RECORD
  5
1FE25
330
1
100
AcDbSymbolTableRecord
100
AcDbBlockTableRecord
  2
*D13
340
0
 70
     0
280
     1
281
     0
  0
BLOCK_RECORD
  5
20681
330
1
100
AcDbSymbolTableRecord
100
AcDbBlockTableRecord
  2
*D14
340
0
 70
     0
280
     1
281
     0
  0
BLOCK_RECORD
  5
2068D
330
1
100
AcDbSymbolTableRecord
100
AcDbBlockTableRecord
  2
*D15
340
0
 70
     0
280
     1
281
     0
  0
BLOCK_RECORD
  5
20699
330
1
100
AcDbSymbolTableRecord
100
AcDbBlockTableRecord
  2
*D16
340
0
 70
     0
280
     1
281
     0
  0
BLOCK_RECORD
  5
206B1
330
1
100
AcDbSymbolTableRecord
100
AcDbBlockTableRecord
  2
*D17
340
0
 70
     0
280
     1
281
     0
  0
BLOCK_RECORD
  5
206BD
330
1
100
AcDbSymbolTableRecord
100
AcDbBlockTableRecord
  2
*D18
340
0
 70
     0
280
     1
281
     0
  0
BLOCK_RECORD
  5
206D5
330
1
100
AcDbSymbolTableRecord
100
AcDbBlockTableRecord
  2
*D19
340
0
 70
     0
280
     1
281
     0
  0
BLOCK_RECORD
  5
20AF9
330
1
100
AcDbSymbolTableRecord
100
AcDbBlockTableRecord
  2
PM1
340
0
310
2800000020000000200000000100080000000000000400000000000000000000000000000000000000000000000080000080000000808000800000008000800080800000C0C0C000C0DCC000F0CAA6000020400000206000002080000020A0000020C0000020E00000400000004020000040400000406000004080000040A0
310
000040C0000040E00000600000006020000060400000606000006080000060A0000060C0000060E00000800000008020000080400000806000008080000080A0000080C0000080E00000A0000000A0200000A0400000A0600000A0800000A0A00000A0C00000A0E00000C0000000C0200000C0400000C0600000C0800000C0
310
A00000C0C00000C0E00000E0000000E0200000E0400000E0600000E0800000E0A00000E0C00000E0E00040000000400020004000400040006000400080004000A0004000C0004000E00040200000402020004020400040206000402080004020A0004020C0004020E000404000004040200040404000404060004040800040
310
40A0004040C0004040E00040600000406020004060400040606000406080004060A0004060C0004060E00040800000408020004080400040806000408080004080A0004080C0004080E00040A0000040A0200040A0400040A0600040A0800040A0A00040A0C00040A0E00040C0000040C0200040C0400040C0600040C08000
310
40C0A00040C0C00040C0E00040E0000040E0200040E0400040E0600040E0800040E0A00040E0C00040E0E00080000000800020008000400080006000800080008000A0008000C0008000E00080200000802020008020400080206000802080008020A0008020C0008020E00080400000804020008040400080406000804080
310
008040A0008040C0008040E00080600000806020008060400080606000806080008060A0008060C0008060E00080800000808020008080400080806000808080008080A0008080C0008080E00080A0000080A0200080A0400080A0600080A0800080A0A00080A0C00080A0E00080C0000080C0200080C0400080C0600080C0
310
800080C0A00080C0C00080C0E00080E0000080E0200080E0400080E0600080E0800080E0A00080E0C00080E0E000C0000000C0002000C0004000C0006000C0008000C000A000C000C000C000E000C0200000C0202000C0204000C0206000C0208000C020A000C020C000C020E000C0400000C0402000C0404000C0406000C0
310
408000C040A000C040C000C040E000C0600000C0602000C0604000C0606000C0608000C060A000C060C000C060E000C0800000C0802000C0804000C0806000C0808000C080A000C080C000C080E000C0A00000C0A02000C0A04000C0A06000C0A08000C0A0A000C0A0C000C0A0E000C0C00000C0C02000C0C04000C0C06000
310
C0C08000C0C0A000F0FBFF00A4A0A000808080000000FF0000FF000000FFFF00FF000000FF00FF00FFFF0000FFFFFF0000000000000000000000000000000000000000000000000000000000000000000000000000000000000000000000FEFEFEFEFE0000000000000000000000000000000000000000000000000000FEFE
310
FEFEFEFE0000000000000000000000000000000000000000000000000000FEFE000000000000000000000000000000000000000000000000000000000000FEFE000000000000000000000000000000000000000000000000000000000000FEFE000000000000000000000000000000000000000000000000000000000000A7
310
A7A7A7A7A7000000000000000000000000000000000000000000000000FBFBFBFBFBFBFBFBFBFB000000000000000000000000000000000000000000000000A7A7A7A7A7A70000000000000000000000000000000000000000000000000000FEA7A7A700000000000000000000000000000000000000000000000000000000
310
FEFE000000000000000000000000000000000000000000000000000000000000FEFE000000000000000000000000000000000000000000000000000000000000FEFE000000000000000000000000000000000000000000000000000000000000FEFE0000000000000000000000000000000000000000000000000000000000
310
00FEFE000000000000000000000000000000000000000000000000000000000000FEFE000000000000000000000000000000000000000000000000000000000000FEFE000000000000000000000000000000000000000000000000000000000000FEFE00000000000000000000000000000000000000000000000000000000
310
0000FEFE000000000000000000000000000000000000000000000000000000000000FEFE000000000000000000000000000000000000000000000000000000000000FEFE000000000000000000000000000000000000000000000000000000000000FEFE000000000000000000000000000000000000000000000000000000
310
000000FEA7A7A700000000000000000000000000000000000000000000000000000000A7A7A7A7A7A7000000000000000000000000000000000000000000000000FBFBFBA7A7A7FBA7FBFB000000000000000000000000000000000000000000000000A7A7A7A7A7A700000000000000000000000000000000000000000000
310
00000000FEFE000000000000000000000000000000000000000000000000000000000000FEFE000000000000000000000000000000000000000000000000000000000000FEFE000000000000000000000000000000000000000000000000000000000000FEFEFEFEFEFE000000000000000000000000000000000000000000
310
000000000000FEFEFEFEFE000000000000000000000000000000000000000000000000000000000000000000000000000000000000000000
102
{BLKREFS
331
20B7A
102
}
 70
     0
280
     1
281
     0
  0
BLOCK_RECORD
  5
22635
330
1
100
AcDbSymbolTableRecord
100
AcDbBlockTableRecord
  2
*D21
340
0
 70
     0
280
     1
281
     0
  0
BLOCK_RECORD
  5
22904
330
1
100
AcDbSymbolTableRecord
100
AcDbBlockTableRecord
  2
*D22
340
0
 70
     0
280
     1
281
     0
  0
BLOCK_RECORD
  5
22D2D
330
1
100
AcDbSymbolTableRecord
100
AcDbBlockTableRecord
  2
*D23
340
0
 70
     0
280
     1
281
     0
  0
BLOCK_RECORD
  5
22D39
330
1
100
AcDbSymbolTableRecord
100
AcDbBlockTableRecord
  2
*D24
340
0
 70
     0
280
     1
281
     0
  0
BLOCK_RECORD
  5
22D45
330
1
100
AcDbSymbolTableRecord
100
AcDbBlockTableRecord
  2
*D25
340
0
 70
     0
280
     1
281
     0
  0
BLOCK_RECORD
  5
22E08
330
1
100
AcDbSymbolTableRecord
100
AcDbBlockTableRecord
  2
*D26
340
0
 70
     0
280
     1
281
     0
  0
BLOCK_RECORD
  5
22E14
330
1
100
AcDbSymbolTableRecord
100
AcDbBlockTableRecord
  2
*D27
340
0
 70
     0
280
     1
281
     0
  0
BLOCK_RECORD
  5
22E1C
330
1
100
AcDbSymbolTableRecord
100
AcDbBlockTableRecord
  2
*D28
340
0
 70
     0
280
     1
281
     0
  0
BLOCK_RECORD
  5
22F13
330
1
100
AcDbSymbolTableRecord
100
AcDbBlockTableRecord
  2
*D29
340
0
 70
     0
280
     1
281
     0
  0
BLOCK_RECORD
  5
22F1F
330
1
100
AcDbSymbolTableRecord
100
AcDbBlockTableRecord
  2
*D30
340
0
 70
     0
280
     1
281
     0
  0
BLOCK_RECORD
  5
230E7
330
1
100
AcDbSymbolTableRecord
100
AcDbBlockTableRecord
  2
*D31
340
0
 70
     0
280
     1
281
     0
  0
BLOCK_RECORD
  5
23BE1
330
1
100
AcDbSymbolTableRecord
100
AcDbBlockTableRecord
  2
*D32
340
0
 70
     0
280
     1
281
     0
  0
BLOCK_RECORD
  5
23BEE
330
1
100
AcDbSymbolTableRecord
100
AcDbBlockTableRecord
  2
*D33
340
0
 70
     0
280
     1
281
     0
  0
BLOCK_RECORD
  5
23C8A
330
1
100
AcDbSymbolTableRecord
100
AcDbBlockTableRecord
  2
*D34
340
0
 70
     0
280
     1
281
     0
  0
BLOCK_RECORD
  5
240D4
330
1
100
AcDbSymbolTableRecord
100
AcDbBlockTableRecord
  2
*D35
340
0
 70
     0
280
     1
281
     0
  0
BLOCK_RECORD
  5
24125
330
1
100
AcDbSymbolTableRecord
100
AcDbBlockTableRecord
  2
*D36
340
0
 70
     0
280
     1
281
     0
  0
BLOCK_RECORD
  5
24487
330
1
100
AcDbSymbolTableRecord
100
AcDbBlockTableRecord
  2
*D37
340
0
 70
     0
280
     1
281
     0
  0
BLOCK_RECORD
  5
24574
330
1
100
AcDbSymbolTableRecord
100
AcDbBlockTableRecord
  2
*D38
340
0
 70
     0
280
     1
281
     0
  0
BLOCK_RECORD
  5
2473F
330
1
100
AcDbSymbolTableRecord
100
AcDbBlockTableRecord
  2
*D39
340
0
 70
     0
280
     1
281
     0
  0
BLOCK_RECORD
  5
24757
330
1
100
AcDbSymbolTableRecord
100
AcDbBlockTableRecord
  2
*D40
340
0
 70
     0
280
     1
281
     0
  0
BLOCK_RECORD
  5
24846
330
1
100
AcDbSymbolTableRecord
100
AcDbBlockTableRecord
  2
*D43
340
0
 70
     0
280
     1
281
     0
  0
ENDTAB
  0
ENDSEC
  0
SECTION
  2
BLOCKS
  0
BLOCK
  5
1F
330
1E
100
AcDbEntity
  8
0
100
AcDbBlockBegin
  2
*MODEL_SPACE
 70
     0
 10
0.0
 20
0.0
 30
0.0
  3
*MODEL_SPACE
  1

  0
ENDBLK
  5
20
330
1E
100
AcDbEntity
  8
0
100
AcDbBlockEnd
  0
BLOCK
  5
1B
330
1A
100
AcDbEntity
 67
     1
  8
0
100
AcDbBlockBegin
  2
*PAPER_SPACE
 70
     0
 10
0.0
 20
0.0
 30
0.0
  3
*PAPER_SPACE
  1

  0
ENDBLK
  5
1C
330
1A
100
AcDbEntity
 67
     1
  8
0
100
AcDbBlockEnd
  0
BLOCK
  5
3B6
330
3B2
100
AcDbEntity
  8
0
100
AcDbBlockBegin
  2
_OPEN
 70
     0
 10
0.0
 20
0.0
 30
0.0
  3
_OPEN
  1

  0
LINE
  5
3B3
330
3B2
100
AcDbEntity
  8
30
  6
Continuous
 62
     0
100
AcDbLine
 10
-1.0
 20
0.166667
 30
0.0
 11
0.0
 21
0.0
 31
0.0
  0
LINE
  5
3B4
330
3B2
100
AcDbEntity
  8
30
  6
Continuous
 62
     0
100
AcDbLine
 10
-1.0
 20
-0.166667
 30
0.0
 11
0.0
 21
0.0
 31
0.0
  0
LINE
  5
3B5
330
3B2
100
AcDbEntity
  8
30
  6
Continuous
 62
     0
100
AcDbLine
 10
0.0
 20
0.0
 30
0.0
 11
-1.0
 21
0.0
 31
0.0
  0
ENDBLK
  5
3B7
330
3B2
100
AcDbEntity
  8
0
100
AcDbBlockEnd
  0
BLOCK
  5
15CB6
330
15CB5
100
AcDbEntity
  8
0
100
AcDbBlockBegin
  2
SW_CENTERMARKSYMBOL_0
 70
     0
 10
0.0
 20
0.0
 30
0.0
  3
SW_CENTERMARKSYMBOL_0
  1
SW_CENTERMARKSYMBOL_0
  0
LINE
  5
15CB7
330
15CB5
100
AcDbEntity
  8
240
 62
     0
100
AcDbLine
 10
0.0
 20
0.0
 30
0.0
 11
0.0
 21
2.5
 31
0.0
  0
LINE
  5
15CB8
330
15CB5
100
AcDbEntity
  8
240
 62
     0
100
AcDbLine
 10
0.0
 20
0.0
 30
0.0
 11
-2.5
 21
0.0
 31
0.0
  0
LINE
  5
15CB9
330
15CB5
100
AcDbEntity
  8
240
 62
     0
100
AcDbLine
 10
0.0
 20
0.0
 30
0.0
 11
0.0
 21
-2.5
 31
0.0
  0
LINE
  5
15CBA
330
15CB5
100
AcDbEntity
  8
240
 62
     0
100
AcDbLine
 10
0.0
 20
0.0
 30
0.0
 11
2.5
 21
0.0
 31
0.0
  0
LINE
  5
15CBB
330
15CB5
100
AcDbEntity
  8
240
 62
     0
100
AcDbLine
 10
0.0
 20
2.5
 30
0.0
 11
0.0
 21
3.841640832999998
 31
0.0
  0
LINE
  5
15CBC
330
15CB5
100
AcDbEntity
  8
240
 62
     0
100
AcDbLine
 10
-2.5
 20
0.0
 30
0.0
 11
-3.841640832999998
 21
0.0
 31
0.0
  0
LINE
  5
15CBD
330
15CB5
100
AcDbEntity
  8
240
 62
     0
100
AcDbLine
 10
0.0
 20
-2.5
 30
0.0
 11
0.0
 21
-3.841640832999998
 31
0.0
  0
LINE
  5
15CBE
330
15CB5
100
AcDbEntity
  8
240
 62
     0
100
AcDbLine
 10
2.5
 20
0.0
 30
0.0
 11
3.841640832999998
 21
0.0
 31
0.0
  0
ENDBLK
  5
15CBF
330
15CB5
100
AcDbEntity
  8
0
100
AcDbBlockEnd
  0
BLOCK
  5
15CC1
330
15CC0
100
AcDbEntity
  8
0
100
AcDbBlockBegin
  2
SW_CENTERMARKSYMBOL_1
 70
     0
 10
0.0
 20
0.0
 30
0.0
  3
SW_CENTERMARKSYMBOL_1
  1
SW_CENTERMARKSYMBOL_1
  0
LINE
  5
15CC2
330
15CC0
100
AcDbEntity
  8
240
 62
     0
100
AcDbLine
 10
0.0
 20
0.0
 30
0.0
 11
0.0
 21
2.5
 31
0.0
  0
LINE
  5
15CC3
330
15CC0
100
AcDbEntity
  8
240
 62
     0
100
AcDbLine
 10
0.0
 20
0.0
 30
0.0
 11
-2.5
 21
0.0
 31
0.0
  0
LINE
  5
15CC4
330
15CC0
100
AcDbEntity
  8
240
 62
     0
100
AcDbLine
 10
0.0
 20
0.0
 30
0.0
 11
0.0
 21
-2.5
 31
0.0
  0
LINE
  5
15CC5
330
15CC0
100
AcDbEntity
  8
240
 62
     0
100
AcDbLine
 10
0.0
 20
0.0
 30
0.0
 11
2.5
 21
0.0
 31
0.0
  0
LINE
  5
15CC6
330
15CC0
100
AcDbEntity
  8
240
 62
     0
100
AcDbLine
 10
0.0
 20
2.5
 30
0.0
 11
0.0
 21
3.841640832999998
 31
0.0
  0
LINE
  5
15CC7
330
15CC0
100
AcDbEntity
  8
240
 62
     0
100
AcDbLine
 10
-2.5
 20
0.0
 30
0.0
 11
-3.841640832999998
 21
0.0
 31
0.0
  0
LINE
  5
15CC8
330
15CC0
100
AcDbEntity
  8
240
 62
     0
100
AcDbLine
 10
0.0
 20
-2.5
 30
0.0
 11
0.0
 21
-3.841640832999998
 31
0.0
  0
LINE
  5
15CC9
330
15CC0
100
AcDbEntity
  8
240
 62
     0
100
AcDbLine
 10
2.5
 20
0.0
 30
0.0
 11
3.841640832999998
 21
0.0
 31
0.0
  0
ENDBLK
  5
15CCA
330
15CC0
100
AcDbEntity
  8
0
100
AcDbBlockEnd
  0
BLOCK
  5
15CCC
330
15CCB
100
AcDbEntity
  8
0
100
AcDbBlockBegin
  2
SW_CENTERMARKSYMBOL_2
 70
     0
 10
0.0
 20
0.0
 30
0.0
  3
SW_CENTERMARKSYMBOL_2
  1
SW_CENTERMARKSYMBOL_2
  0
LINE
  5
15CCD
330
15CCB
100
AcDbEntity
  8
240
 62
     0
100
AcDbLine
 10
0.0
 20
0.0
 30
0.0
 11
0.0
 21
2.5
 31
0.0
  0
LINE
  5
15CCE
330
15CCB
100
AcDbEntity
  8
240
 62
     0
100
AcDbLine
 10
0.0
 20
0.0
 30
0.0
 11
-2.5
 21
0.0
 31
0.0
  0
LINE
  5
15CCF
330
15CCB
100
AcDbEntity
  8
240
 62
     0
100
AcDbLine
 10
0.0
 20
0.0
 30
0.0
 11
0.0
 21
-2.5
 31
0.0
  0
LINE
  5
15CD0
330
15CCB
100
AcDbEntity
  8
240
 62
     0
100
AcDbLine
 10
0.0
 20
0.0
 30
0.0
 11
2.5
 21
0.0
 31
0.0
  0
LINE
  5
15CD1
330
15CCB
100
AcDbEntity
  8
240
 62
     0
100
AcDbLine
 10
0.0
 20
2.5
 30
0.0
 11
0.0
 21
3.841640832999998
 31
0.0
  0
LINE
  5
15CD2
330
15CCB
100
AcDbEntity
  8
240
 62
     0
100
AcDbLine
 10
-2.5
 20
0.0
 30
0.0
 11
-3.841640832999998
 21
0.0
 31
0.0
  0
LINE
  5
15CD3
330
15CCB
100
AcDbEntity
  8
240
 62
     0
100
AcDbLine
 10
0.0
 20
-2.5
 30
0.0
 11
0.0
 21
-3.841640832999998
 31
0.0
  0
LINE
  5
15CD4
330
15CCB
100
AcDbEntity
  8
240
 62
     0
100
AcDbLine
 10
2.5
 20
0.0
 30
0.0
 11
3.841640832999998
 21
0.0
 31
0.0
  0
ENDBLK
  5
15CD5
330
15CCB
100
AcDbEntity
  8
0
100
AcDbBlockEnd
  0
BLOCK
  5
15CD7
330
15CD6
100
AcDbEntity
  8
0
100
AcDbBlockBegin
  2
SW_CENTERMARKSYMBOL_3
 70
     0
 10
0.0
 20
0.0
 30
0.0
  3
SW_CENTERMARKSYMBOL_3
  1
SW_CENTERMARKSYMBOL_3
  0
LINE
  5
15CD8
330
15CD6
100
AcDbEntity
  8
240
 62
     0
100
AcDbLine
 10
0.0
 20
0.0
 30
0.0
 11
0.0
 21
2.5
 31
0.0
  0
LINE
  5
15CD9
330
15CD6
100
AcDbEntity
  8
240
 62
     0
100
AcDbLine
 10
0.0
 20
0.0
 30
0.0
 11
-2.5
 21
0.0
 31
0.0
  0
LINE
  5
15CDA
330
15CD6
100
AcDbEntity
  8
240
 62
     0
100
AcDbLine
 10
0.0
 20
0.0
 30
0.0
 11
0.0
 21
-2.5
 31
0.0
  0
LINE
  5
15CDB
330
15CD6
100
AcDbEntity
  8
240
 62
     0
100
AcDbLine
 10
0.0
 20
0.0
 30
0.0
 11
2.5
 21
0.0
 31
0.0
  0
LINE
  5
15CDC
330
15CD6
100
AcDbEntity
  8
240
 62
     0
100
AcDbLine
 10
0.0
 20
2.5
 30
0.0
 11
0.0
 21
3.841640832999998
 31
0.0
  0
LINE
  5
15CDD
330
15CD6
100
AcDbEntity
  8
240
 62
     0
100
AcDbLine
 10
-2.5
 20
0.0
 30
0.0
 11
-3.841640832999998
 21
0.0
 31
0.0
  0
LINE
  5
15CDE
330
15CD6
100
AcDbEntity
  8
240
 62
     0
100
AcDbLine
 10
0.0
 20
-2.5
 30
0.0
 11
0.0
 21
-3.841640832999998
 31
0.0
  0
LINE
  5
15CDF
330
15CD6
100
AcDbEntity
  8
240
 62
     0
100
AcDbLine
 10
2.5
 20
0.0
 30
0.0
 11
3.841640832999998
 21
0.0
 31
0.0
  0
ENDBLK
  5
15CE0
330
15CD6
100
AcDbEntity
  8
0
100
AcDbBlockEnd
  0
BLOCK
  5
15CE2
330
15CE1
100
AcDbEntity
  8
0
100
AcDbBlockBegin
  2
SW_CENTERMARKSYMBOL_4
 70
     0
 10
0.0
 20
0.0
 30
0.0
  3
SW_CENTERMARKSYMBOL_4
  1
SW_CENTERMARKSYMBOL_4
  0
LINE
  5
23CEA
330
15CE1
100
AcDbEntity
  8
240
 62
     0
100
AcDbLine
 10
0.0
 20
-6.524922498999996
 30
0.0
 11
0.0
 21
6.524922498999996
 31
0.0
  0
LINE
  5
23CEB
330
15CE1
100
AcDbEntity
  8
240
 62
     0
100
AcDbLine
 10
6.524922498999996
 20
0.0
 30
0.0
 11
-6.524922498999996
 21
0.0
 31
0.0
  0
ENDBLK
  5
15CEB
330
15CE1
100
AcDbEntity
  8
0
100
AcDbBlockEnd
  0
BLOCK
  5
15D50
330
15D4F
100
AcDbEntity
  8
0
100
AcDbBlockBegin
  2
SW_CENTERMARKSYMBOL_14
 70
     0
 10
0.0
 20
0.0
 30
0.0
  3
SW_CENTERMARKSYMBOL_14
  1
SW_CENTERMARKSYMBOL_14
  0
LINE
  5
15D51
330
15D4F
100
AcDbEntity
  8
240
 62
     0
100
AcDbLine
 10
0.0
 20
0.0
 30
0.0
 11
0.0
 21
2.5
 31
0.0
  0
LINE
  5
15D52
330
15D4F
100
AcDbEntity
  8
240
 62
     0
100
AcDbLine
 10
0.0
 20
0.0
 30
0.0
 11
-2.5
 21
0.0
 31
0.0
  0
LINE
  5
15D53
330
15D4F
100
AcDbEntity
  8
240
 62
     0
100
AcDbLine
 10
0.0
 20
0.0
 30
0.0
 11
0.0
 21
-2.5
 31
0.0
  0
LINE
  5
15D54
330
15D4F
100
AcDbEntity
  8
240
 62
     0
100
AcDbLine
 10
0.0
 20
0.0
 30
0.0
 11
2.5
 21
0.0
 31
0.0
  0
LINE
  5
15D55
330
15D4F
100
AcDbEntity
  8
240
 62
     0
100
AcDbLine
 10
0.0
 20
2.5
 30
0.0
 11
0.0
 21
3.9534442357
 31
0.0
  0
LINE
  5
15D56
330
15D4F
100
AcDbEntity
  8
240
 62
     0
100
AcDbLine
 10
-2.5
 20
0.0
 30
0.0
 11
-3.9534442357
 21
0.0
 31
0.0
  0
LINE
  5
15D57
330
15D4F
100
AcDbEntity
  8
240
 62
     0
100
AcDbLine
 10
0.0
 20
-2.5
 30
0.0
 11
0.0
 21
-3.9534442357
 31
0.0
  0
LINE
  5
15D58
330
15D4F
100
AcDbEntity
  8
240
 62
     0
100
AcDbLine
 10
2.5
 20
0.0
 30
0.0
 11
3.9534442357
 21
0.0
 31
0.0
  0
ENDBLK
  5
15D59
330
15D4F
100
AcDbEntity
  8
0
100
AcDbBlockEnd
  0
BLOCK
  5
15E7E
330
15E7D
100
AcDbEntity
  8
0
100
AcDbBlockBegin
  2
_DOT
 70
     0
 10
0.0
 20
0.0
 30
0.0
  3
_DOT
  1
_DOT
  0
POLYLINE
  5
15E7F
330
15E7D
100
AcDbEntity
  8
0
  6
ByBlock
 62
     0
100
AcDb2dPolyline
 66
     1
 10
0.0
 20
0.0
 30
0.0
 70
     1
 40
0.5
 41
0.5
  0
VERTEX
  5
15E80
330
15E7F
100
AcDbEntity
  8
0
  6
ByBlock
 62
     0
100
AcDbVertex
100
AcDb2dVertex
 10
-0.25
 20
0.0
 30
0.0
 42
1.0
  0
VERTEX
  5
15E81
330
15E7F
100
AcDbEntity
  8
0
  6
ByBlock
 62
     0
100
AcDbVertex
100
AcDb2dVertex
 10
0.25
 20
0.0
 30
0.0
 42
1.0
  0
SEQEND
  5
15E82
330
15E7F
100
AcDbEntity
  8
0
  6
ByBlock
 62
     0
  0
LINE
  5
15E83
330
15E7D
100
AcDbEntity
  8
0
  6
ByBlock
 62
     0
370
    -2
100
AcDbLine
 10
-0.5
 20
0.0
 30
0.0
 11
-1.0
 21
0.0
 31
0.0
  0
ENDBLK
  5
15E84
330
15E7D
100
AcDbEntity
  8
0
100
AcDbBlockEnd
  0
BLOCK
  5
1FD0E
330
1FD0D
100
AcDbEntity
  8
0
100
AcDbBlockBegin
  2
*D8
 70
     1
 10
0.0
 20
0.0
 30
0.0
  3
*D8
  1

  0
LINE
  5
243C6
330
1FD0D
100
AcDbEntity
  8
30
 62
     0
440
 16777216
370
    -2
100
AcDbLine
 10
411.6391713752959
 20
551.3289141956611
 30
0.0
 11
411.6391713752959
 21
512.0739388957257
 31
0.0
  0
LINE
  5
243C7
330
1FD0D
100
AcDbEntity
  8
30
 62
     0
440
 16777216
370
    -2
100
AcDbLine
 10
391.6391713752961
 20
548.2264141957227
 30
0.0
 11
391.6391713752961
 21
512.0739388957257
 31
0.0
  0
LINE
  5
243C8
330
1FD0D
100
AcDbEntity
  8
30
 62
     0
440
 16777216
370
    -2
100
AcDbLine
 10
409.6391713752955
 20
512.5739388957257
 30
0.0
 11
393.6391713752962
 21
512.5739388957257
 31
0.0
  0
INSERT
  5
243C9
330
1FD0D
100
AcDbEntity
  8
30
 62
     0
440
 16777216
370
    -2
100
AcDbBlockReference
  2
_OPEN
 10
411.6391713752959
 20
512.5739388957257
 30
0.0
 41
2.0
 42
2.0
 43
2.0
  0
INSERT
  5
243CA
330
1FD0D
100
AcDbEntity
  8
30
 62
     0
440
 16777216
370
    -2
100
AcDbBlockReference
  2
_OPEN
 10
391.6391713752961
 20
512.5739388957257
 30
0.0
 41
2.0
 42
2.0
 43
2.0
 50
180.0
  0
MTEXT
  5
243CB
330
1FD0D
100
AcDbEntity
  8
30
 62
     0
440
 16777216
100
AcDbMText
 10
401.6391713752961
 20
520.5739388957257
 30
0.0
 40
6.0
 41
0.0
 46
0.0
 71
     2
 72
     1
  1
\A1;20
 73
     1
 44
1.0
  0
POINT
  5
243CC
330
1FD0D
100
AcDbEntity
  8
DEFPOINTS
 62
     0
440
 16777216
100
AcDbPoint
 10
411.6391713752959
 20
554.3289141956611
 30
0.0
  0
POINT
  5
243CD
330
1FD0D
100
AcDbEntity
  8
DEFPOINTS
 62
     0
440
 16777216
100
AcDbPoint
 10
391.6391713752961
 20
551.2264141957226
 30
0.0
  0
POINT
  5
243CE
330
1FD0D
100
AcDbEntity
  8
DEFPOINTS
 62
     0
440
 16777216
100
AcDbPoint
 10
391.6391713752961
 20
512.5739388957257
 30
0.0
  0
ENDBLK
  5
1FD0F
330
1FD0D
100
AcDbEntity
  8
0
100
AcDbBlockEnd
  0
BLOCK
  5
1FD1A
330
1FD19
100
AcDbEntity
  8
0
100
AcDbBlockBegin
  2
*D9
 70
     1
 10
0.0
 20
0.0
 30
0.0
  3
*D9
  1

  0
LINE
  5
243CF
330
1FD19
100
AcDbEntity
  8
30
 62
     0
440
 16777216
370
    -2
100
AcDbLine
 10
386.4391713752961
 20
567.7220698008915
 30
0.0
 11
386.4391713752961
 21
512.0739388957257
 31
0.0
  0
LINE
  5
243D0
330
1FD19
100
AcDbEntity
  8
30
 62
     0
440
 16777216
370
    -2
100
AcDbLine
 10
391.6391713752961
 20
548.2264141957227
 30
0.0
 11
391.6391713752961
 21
512.0739388957257
 31
0.0
  0
LINE
  5
243D1
330
1FD19
100
AcDbEntity
  8
30
 62
     0
440
 16777216
370
    -2
100
AcDbLine
 10
393.6391713752962
 20
512.5739388957257
 30
0.0
 11
395.6391713752962
 21
512.5739388957257
 31
0.0
  0
LINE
  5
243D2
330
1FD19
100
AcDbEntity
  8
30
 62
     0
440
 16777216
370
    -2
100
AcDbLine
 10
384.4391713752961
 20
512.5739388957257
 30
0.0
 11
366.4391713752961
 21
512.5739388957257
 31
0.0
  0
LINE
  5
243D3
330
1FD19
100
AcDbEntity
  8
30
 62
     0
440
 16777216
370
    -2
100
AcDbLine
 10
391.6391713752961
 20
512.5739388957257
 30
0.0
 11
386.4391713752961
 21
512.5739388957257
 31
0.0
  0
INSERT
  5
243D4
330
1FD19
100
AcDbEntity
  8
30
 62
     0
440
 16777216
370
    -2
100
AcDbBlockReference
  2
_OPEN
 10
391.6391713752961
 20
512.5739388957257
 30
0.0
 41
2.0
 42
2.0
 43
2.0
 50
180.0
  0
INSERT
  5
243D5
330
1FD19
100
AcDbEntity
  8
30
 62
     0
440
 16777216
370
    -2
100
AcDbBlockReference
  2
_OPEN
 10
386.4391713752961
 20
512.5739388957257
 30
0.0
 41
2.0
 42
2.0
 43
2.0
  0
MTEXT
  5
243D6
330
1FD19
100
AcDbEntity
  8
30
 62
     0
440
 16777216
100
AcDbMText
 10
374.4391713752961
 20
520.5739388957257
 30
0.0
 40
6.0
 41
0.0
 46
0.0
 71
     2
 72
     1
  1
\A1;5.2
 73
     1
 44
1.0
  0
POINT
  5
243D7
330
1FD19
100
AcDbEntity
  8
DEFPOINTS
 62
     0
440
 16777216
100
AcDbPoint
 10
386.4391713752961
 20
570.7220698008915
 30
0.0
  0
POINT
  5
243D8
330
1FD19
100
AcDbEntity
  8
DEFPOINTS
 62
     0
440
 16777216
100
AcDbPoint
 10
391.6391713752961
 20
551.2264141957226
 30
0.0
  0
POINT
  5
243D9
330
1FD19
100
AcDbEntity
  8
DEFPOINTS
 62
     0
440
 16777216
100
AcDbPoint
 10
391.6391713752961
 20
512.5739388957257
 30
0.0
  0
ENDBLK
  5
1FD1B
330
1FD19
100
AcDbEntity
  8
0
100
AcDbBlockEnd
  0
BLOCK
  5
1FD28
330
1FD27
100
AcDbEntity
  8
0
100
AcDbBlockBegin
  2
*D10
 70
     1
 10
0.0
 20
0.0
 30
0.0
  3
*D10
  1

  0
LINE
  5
247CC
330
1FD27
100
AcDbEntity
  8
30
 62
     0
440
 16777216
370
    -2
100
AcDbLine
 10
367.4391713752963
 20
526.2351504166336
 30
0.0
 11
367.4391713752963
 21
500.893599395728
 31
0.0
  0
LINE
  5
247CD
330
1FD27
100
AcDbEntity
  8
30
 62
     0
440
 16777216
370
    -2
100
AcDbLine
 10
391.6391713752961
 20
557.1239141955605
 30
0.0
 11
391.6391713752961
 21
500.893599395728
 31
0.0
  0
LINE
  5
247CE
330
1FD27
100
AcDbEntity
  8
30
 62
     0
440
 16777216
370
    -2
100
AcDbLine
 10
369.4391713752963
 20
501.393599395728
 30
0.0
 11
389.6391713752961
 21
501.393599395728
 31
0.0
  0
INSERT
  5
247CF
330
1FD27
100
AcDbEntity
  8
30
 62
     0
440
 16777216
370
    -2
100
AcDbBlockReference
  2
_OPEN
 10
367.4391713752963
 20
501.393599395728
 30
0.0
 41
2.0
 42
2.0
 43
2.0
 50
180.0
  0
INSERT
  5
247D0
330
1FD27
100
AcDbEntity
  8
30
 62
     0
440
 16777216
370
    -2
100
AcDbBlockReference
  2
_OPEN
 10
391.6391713752961
 20
501.393599395728
 30
0.0
 41
2.0
 42
2.0
 43
2.0
  0
MTEXT
  5
247D1
330
1FD27
100
AcDbEntity
  8
30
 62
     0
440
 16777216
100
AcDbMText
 10
379.5391713752962
 20
509.393599395728
 30
0.0
 40
6.0
 41
0.0
 46
0.0
 71
     2
 72
     1
  1
\A1;24.2
 73
     1
 44
1.0
  0
POINT
  5
247D2
330
1FD27
100
AcDbEntity
  8
DEFPOINTS
 62
     0
440
 16777216
100
AcDbPoint
 10
367.4391713752963
 20
529.2351504166336
 30
0.0
  0
POINT
  5
247D3
330
1FD27
100
AcDbEntity
  8
DEFPOINTS
 62
     0
440
 16777216
100
AcDbPoint
 10
391.6391713752961
 20
560.1239141955606
 30
0.0
  0
POINT
  5
247D4
330
1FD27
100
AcDbEntity
  8
DEFPOINTS
 62
     0
440
 16777216
100
AcDbPoint
 10
391.6391713752961
 20
501.393599395728
 30
0.0
  0
ENDBLK
  5
1FD29
330
1FD27
100
AcDbEntity
  8
0
100
AcDbBlockEnd
  0
BLOCK
  5
1FD34
330
1FD33
100
AcDbEntity
  8
0
100
AcDbBlockBegin
  2
*D11
 70
     1
 10
0.0
 20
0.0
 30
0.0
  3
*D11
  1

  0
LINE
  5
243DA
330
1FD33
100
AcDbEntity
  8
30
 62
     0
440
 16777216
370
    -2
100
AcDbLine
 10
402.4391713752961
 20
593.2264141954987
 30
0.0
 11
402.4391713752961
 21
611.2596785812208
 31
0.0
  0
LINE
  5
243DB
330
1FD33
100
AcDbEntity
  8
30
 62
     0
440
 16777216
370
    -2
100
AcDbLine
 10
386.4391713752961
 20
575.2264141954989
 30
0.0
 11
386.4391713752961
 21
611.2596785812208
 31
0.0
  0
LINE
  5
243DC
330
1FD33
100
AcDbEntity
  8
30
 62
     0
440
 16777216
370
    -2
100
AcDbLine
 10
400.439171375296
 20
610.7596785812209
 30
0.0
 11
388.4391713752961
 21
610.7596785812209
 31
0.0
  0
INSERT
  5
243DD
330
1FD33
100
AcDbEntity
  8
30
 62
     0
440
 16777216
370
    -2
100
AcDbBlockReference
  2
_OPEN
 10
402.4391713752961
 20
610.7596785812209
 30
0.0
 41
2.0
 42
2.0
 43
2.0
  0
INSERT
  5
243DE
330
1FD33
100
AcDbEntity
  8
30
 62
     0
440
 16777216
370
    -2
100
AcDbBlockReference
  2
_OPEN
 10
386.4391713752961
 20
610.7596785812209
 30
0.0
 41
2.0
 42
2.0
 43
2.0
 50
180.0
  0
MTEXT
  5
243DF
330
1FD33
100
AcDbEntity
  8
30
 62
     0
440
 16777216
100
AcDbMText
 10
394.4391713752961
 20
618.7596785812209
 30
0.0
 40
6.0
 41
0.0
 46
0.0
 71
     2
 72
     1
  1
\A1;16
 73
     1
 44
1.0
  0
POINT
  5
243E0
330
1FD33
100
AcDbEntity
  8
DEFPOINTS
 62
     0
440
 16777216
100
AcDbPoint
 10
402.4391713752961
 20
590.2264141954987
 30
0.0
  0
POINT
  5
243E1
330
1FD33
100
AcDbEntity
  8
DEFPOINTS
 62
     0
440
 16777216
100
AcDbPoint
 10
386.4391713752961
 20
572.2264141954989
 30
0.0
  0
POINT
  5
243E2
330
1FD33
100
AcDbEntity
  8
DEFPOINTS
 62
     0
440
 16777216
100
AcDbPoint
 10
386.4391713752961
 20
610.7596785812209
 30
0.0
  0
ENDBLK
  5
1FD35
330
1FD33
100
AcDbEntity
  8
0
100
AcDbBlockEnd
  0
BLOCK
  5
1FE18
330
1FE17
100
AcDbEntity
  8
0
100
AcDbBlockBegin
  2
*D12
 70
     1
 10
0.0
 20
0.0
 30
0.0
  3
*D12
  1

  0
LINE
  5
246A1
330
1FE17
100
AcDbEntity
  8
30
  6
Continuous
 62
     0
440
 16777216
370
    -2
100
AcDbLine
 10
477.7852291395531
 20
459.6834390974565
 30
0.0
 11
466.469814287505
 21
459.6834390974565
 31
0.0
  0
LINE
  5
246A2
330
1FE17
100
AcDbEntity
  8
30
  6
Continuous
 62
     0
440
 16777216
370
    -2
100
AcDbLine
 10
470.2852291395532
 20
469.6834390974565
 30
0.0
 11
466.469814287505
 21
469.6834390974565
 31
0.0
  0
LINE
  5
246A3
330
1FE17
100
AcDbEntity
  8
30
  6
Continuous
 62
     0
440
 16777216
370
    -2
100
AcDbLine
 10
466.9698142875049
 20
461.6834390974566
 30
0.0
 11
466.9698142875049
 21
467.6834390974565
 31
0.0
  0
LINE
  5
246A4
330
1FE17
100
AcDbEntity
  8
30
  6
Continuous
 62
     0
440
 16777216
370
    -2
100
AcDbLine
 10
466.9698142875049
 20
469.6834390974565
 30
0.0
 11
466.9698142875049
 21
502.9418155642227
 31
0.0
  0
INSERT
  5
246A5
330
1FE17
100
AcDbEntity
  8
30
  6
Continuous
 62
     0
440
 16777216
370
    -2
100
AcDbBlockReference
  2
_OPEN
 10
466.9698142875049
 20
459.6834390974565
 30
0.0
 41
2.0
 42
2.0
 43
2.0
 50
270.0
  0
INSERT
  5
246A6
330
1FE17
100
AcDbEntity
  8
30
  6
Continuous
 62
     0
440
 16777216
370
    -2
100
AcDbBlockReference
  2
_OPEN
 10
466.9698142875049
 20
469.6834390974565
 30
0.0
 41
2.0
 42
2.0
 43
2.0
 50
90.0
  0
MTEXT
  5
246A7
330
1FE17
100
AcDbEntity
  8
30
  6
Continuous
 62
     0
440
 16777216
100
AcDbMText
 10
448.9698142875049
 20
487.9418155642228
 30
0.0
 40
6.0
 41
0.0
 46
0.0
 71
     2
 72
     1
  1
\A1;10\P(MAX.)
 11
0.0000000000000001
 21
1.0
 31
0.0
 73
     1
 44
1.0
 90
        3
 63
     9
421
 13158600
 45
1.25
441
        0
  0
POINT
  5
246A8
330
1FE17
100
AcDbEntity
  8
DEFPOINTS
  6
Continuous
 62
     0
440
 16777216
100
AcDbPoint
 10
478.7852291395532
 20
459.6834390974565
 30
0.0
  0
POINT
  5
246A9
330
1FE17
100
AcDbEntity
  8
DEFPOINTS
  6
Continuous
 62
     0
440
 16777216
100
AcDbPoint
 10
471.2852291395533
 20
469.6834390974565
 30
0.0
  0
POINT
  5
246AA
330
1FE17
100
AcDbEntity
  8
DEFPOINTS
  6
Continuous
 62
     0
440
 16777216
100
AcDbPoint
 10
466.9698142875049
 20
469.6834390974565
 30
0.0
  0
ENDBLK
  5
1FE19
330
1FE17
100
AcDbEntity
  8
0
100
AcDbBlockEnd
  0
BLOCK
  5
1FE26
330
1FE25
100
AcDbEntity
  8
0
100
AcDbBlockBegin
  2
*D13
 70
     1
 10
0.0
 20
0.0
 30
0.0
  3
*D13
  1

  0
LINE
  5
246AB
330
1FE25
100
AcDbEntity
  8
30
 62
     0
440
 16777216
370
    -2
100
AcDbLine
 10
471.2852291395533
 20
448.8202745852298
 30
0.0
 11
471.2852291395533
 21
437.0512135695535
 31
0.0
  0
LINE
  5
246AC
330
1FE25
100
AcDbEntity
  8
30
 62
     0
440
 16777216
370
    -2
100
AcDbLine
 10
486.2852291395532
 20
447.0425716780614
 30
0.0
 11
486.2852291395532
 21
437.0512135695535
 31
0.0
  0
LINE
  5
246AD
330
1FE25
100
AcDbEntity
  8
30
 62
     0
440
 16777216
370
    -2
100
AcDbLine
 10
473.2852291395531
 20
437.5512135695536
 30
0.0
 11
484.2852291395533
 21
437.5512135695536
 31
0.0
  0
LINE
  5
246AE
330
1FE25
100
AcDbEntity
  8
30
 62
     0
440
 16777216
370
    -2
100
AcDbLine
 10
486.2852291395532
 20
437.5512135695536
 30
0.0
 11
519.3725639843328
 21
437.5512135695536
 31
0.0
  0
INSERT
  5
246AF
330
1FE25
100
AcDbEntity
  8
30
 62
     0
440
 16777216
370
    -2
100
AcDbBlockReference
  2
_OPEN
 10
471.2852291395533
 20
437.5512135695536
 30
0.0
 41
2.0
 42
2.0
 43
2.0
 50
180.0
  0
INSERT
  5
246B0
330
1FE25
100
AcDbEntity
  8
30
 62
     0
440
 16777216
370
    -2
100
AcDbBlockReference
  2
_OPEN
 10
486.2852291395532
 20
437.5512135695536
 30
0.0
 41
2.0
 42
2.0
 43
2.0
  0
MTEXT
  5
246B1
330
1FE25
100
AcDbEntity
  8
30
 62
     0
440
 16777216
100
AcDbMText
 10
504.3725639843327
 20
455.5512135695535
 30
0.0
 40
6.0
 41
0.0
 46
0.0
 71
     2
 72
     1
  1
\A1;15\P(MAX.)
 73
     1
 44
1.0
 90
        3
 63
     9
421
 13158600
 45
1.25
441
        0
  0
POINT
  5
246B2
330
1FE25
100
AcDbEntity
  8
DEFPOINTS
 62
     0
440
 16777216
100
AcDbPoint
 10
471.2852291395533
 20
449.8202745852299
 30
0.0
  0
POINT
  5
246B3
330
1FE25
100
AcDbEntity
  8
DEFPOINTS
 62
     0
440
 16777216
100
AcDbPoint
 10
486.2852291395532
 20
448.0425716780612
 30
0.0
  0
POINT
  5
246B4
330
1FE25
100
AcDbEntity
  8
DEFPOINTS
 62
     0
440
 16777216
100
AcDbPoint
 10
486.2852291395532
 20
437.5512135695536
 30
0.0
  0
ENDBLK
  5
1FE27
330
1FE25
100
AcDbEntity
  8
0
100
AcDbBlockEnd
  0
BLOCK
  5
20682
330
20681
100
AcDbEntity
  8
0
100
AcDbBlockBegin
  2
*D14
 70
     1
 10
0.0
 20
0.0
 30
0.0
  3
*D14
  1

  0
LINE
  5
2464E
330
20681
100
AcDbEntity
  8
30
 62
     0
440
 16777216
370
    -2
100
AcDbLine
 10
355.1333536591014
 20
361.0306575225208
 30
0.0
 11
397.2858036020881
 21
361.0306575225207
 31
0.0
  0
LINE
  5
2464F
330
20681
100
AcDbEntity
  8
30
 62
     0
440
 16777216
370
    -2
100
AcDbLine
 10
384.088217964012
 20
449.0305748774506
 30
0.0
 11
397.2858036020883
 21
449.0305748774506
 31
0.0
  0
LINE
  5
24650
330
20681
100
AcDbEntity
  8
30
 62
     0
440
 16777216
370
    -2
100
AcDbLine
 10
396.7858036020881
 20
363.0306575225207
 30
0.0
 11
396.7858036020883
 21
447.0305748774506
 31
0.0
  0
INSERT
  5
24651
330
20681
100
AcDbEntity
  8
30
 62
     0
440
 16777216
370
    -2
100
AcDbBlockReference
  2
_OPEN
 10
396.7858036020881
 20
361.0306575225207
 30
0.0
 41
2.0
 42
2.0
 43
2.0
 50
270.0
  0
INSERT
  5
24652
330
20681
100
AcDbEntity
  8
30
 62
     0
440
 16777216
370
    -2
100
AcDbBlockReference
  2
_OPEN
 10
396.7858036020883
 20
449.0305748774506
 30
0.0
 41
2.0
 42
2.0
 43
2.0
 50
90.0
  0
MTEXT
  5
24653
330
20681
100
AcDbEntity
  8
30
 62
     0
440
 16777216
100
AcDbMText
 10
388.7858036020881
 20
405.0306161999857
 30
0.0
 40
6.0
 41
0.0
 46
0.0
 71
     2
 72
     1
  1
\A1;88
 11
0.0000000000000001
 21
1.0
 31
0.0
 73
     1
 44
1.0
 90
        3
 63
     9
421
 13158600
 45
1.25
441
        0
  0
POINT
  5
24654
330
20681
100
AcDbEntity
  8
DEFPOINTS
 62
     0
440
 16777216
100
AcDbPoint
 10
354.1333536591015
 20
361.0306575225208
 30
0.0
  0
POINT
  5
24655
330
20681
100
AcDbEntity
  8
DEFPOINTS
 62
     0
440
 16777216
100
AcDbPoint
 10
383.088217964012
 20
449.0305748774507
 30
0.0
  0
POINT
  5
24656
330
20681
100
AcDbEntity
  8
DEFPOINTS
 62
     0
440
 16777216
100
AcDbPoint
 10
396.7858036020883
 20
449.0305748774506
 30
0.0
  0
ENDBLK
  5
20683
330
20681
100
AcDbEntity
  8
0
100
AcDbBlockEnd
  0
BLOCK
  5
2068E
330
2068D
100
AcDbEntity
  8
0
100
AcDbBlockBegin
  2
*D15
 70
     1
 10
0.0
 20
0.0
 30
0.0
  3
*D15
  1

  0
LINE
  5
24657
330
2068D
100
AcDbEntity
  8
30
 62
     0
440
 16777216
370
    -2
100
AcDbLine
 10
367.7054818193507
 20
462.0305626685198
 30
0.0
 11
412.8653612612338
 21
462.0305626685197
 31
0.0
  0
LINE
  5
24658
330
2068D
100
AcDbEntity
  8
30
 62
     0
440
 16777216
370
    -2
100
AcDbLine
 10
367.7054818193507
 20
348.0306697314517
 30
0.0
 11
412.8653612612338
 21
348.0306697314517
 31
0.0
  0
LINE
  5
24659
330
2068D
100
AcDbEntity
  8
30
 62
     0
440
 16777216
370
    -2
100
AcDbLine
 10
412.3653612612338
 20
460.0305626685193
 30
0.0
 11
412.3653612612338
 21
350.0306697314517
 31
0.0
  0
INSERT
  5
2465A
330
2068D
100
AcDbEntity
  8
30
 62
     0
440
 16777216
370
    -2
100
AcDbBlockReference
  2
_OPEN
 10
412.3653612612338
 20
462.0305626685197
 30
0.0
 41
2.0
 42
2.0
 43
2.0
 50
90.0
  0
INSERT
  5
2465B
330
2068D
100
AcDbEntity
  8
30
 62
     0
440
 16777216
370
    -2
100
AcDbBlockReference
  2
_OPEN
 10
412.3653612612338
 20
348.0306697314517
 30
0.0
 41
2.0
 42
2.0
 43
2.0
 50
270.0
  0
MTEXT
  5
2465C
330
2068D
100
AcDbEntity
  8
30
 62
     0
440
 16777216
100
AcDbMText
 10
404.3653612612335
 20
405.0306161999857
 30
0.0
 40
6.0
 41
0.0
 46
0.0
 71
     2
 72
     1
  1
\A1;114
 11
0.0000000000000001
 21
1.0
 31
0.0
 73
     1
 44
1.0
 90
        3
 63
     9
421
 13158600
 45
1.25
441
        0
  0
POINT
  5
2465D
330
2068D
100
AcDbEntity
  8
DEFPOINTS
 62
     0
440
 16777216
100
AcDbPoint
 10
366.7054818193506
 20
462.0305626685198
 30
0.0
  0
POINT
  5
2465E
330
2068D
100
AcDbEntity
  8
DEFPOINTS
 62
     0
440
 16777216
100
AcDbPoint
 10
366.7054818193506
 20
348.0306697314517
 30
0.0
  0
POINT
  5
2465F
330
2068D
100
AcDbEntity
  8
DEFPOINTS
 62
     0
440
 16777216
100
AcDbPoint
 10
412.3653612612338
 20
348.0306697314517
 30
0.0
  0
ENDBLK
  5
2068F
330
2068D
100
AcDbEntity
  8
0
100
AcDbBlockEnd
  0
BLOCK
  5
2069A
330
20699
100
AcDbEntity
  8
0
100
AcDbBlockBegin
  2
*D16
 70
     1
 10
0.0
 20
0.0
 30
0.0
  3
*D16
  1

  0
LINE
  5
24660
330
20699
100
AcDbEntity
  8
30
 62
     0
440
 16777216
370
    -2
100
AcDbLine
 10
384.2761256590815
 20
480.0304343701943
 30
0.0
 11
425.9607454728238
 21
480.0289792598307
 31
0.0
  0
LINE
  5
24661
330
20699
100
AcDbEntity
  8
30
 62
     0
440
 16777216
370
    -2
100
AcDbLine
 10
365.7007667728894
 20
330.0359186701801
 30
0.0
 11
425.9555095004555
 21
330.0338153212475
 31
0.0
  0
LINE
  5
24662
330
20699
100
AcDbEntity
  8
30
 62
     0
440
 16777216
370
    -2
100
AcDbLine
 10
425.4606756579127
 20
478.0289967148532
 30
0.0
 11
425.4555793159758
 21
332.0338327738329
 31
0.0
  0
INSERT
  5
24663
330
20699
100
AcDbEntity
  8
30
 62
     0
440
 16777216
370
    -2
100
AcDbBlockReference
  2
_OPEN
 10
425.4607454731281
 20
480.0289967136347
 30
0.0
 41
2.0
 42
2.0
 43
2.0
 50
89.99799994139584
  0
INSERT
  5
24664
330
20699
100
AcDbEntity
  8
30
 62
     0
440
 16777216
370
    -2
100
AcDbBlockReference
  2
_OPEN
 10
425.4555095007601
 20
330.0338327750514
 30
0.0
 41
2.0
 42
2.0
 43
2.0
 50
269.9979999413958
  0
MTEXT
  5
24665
330
20699
100
AcDbEntity
  8
30
 62
     0
440
 16777216
100
AcDbMText
 10
417.458127455826
 20
405.0306629285704
 30
0.0
 40
6.0
 41
0.0
 46
0.0
 71
     2
 72
     1
  1
\A1;150
 11
0.0000349076078692
 21
0.9999999993907294
 31
0.0
 73
     1
 44
1.0
 90
        3
 63
     9
421
 13158600
 45
1.25
441
        0
  0
POINT
  5
24666
330
20699
100
AcDbEntity
  8
DEFPOINTS
 62
     0
440
 16777216
100
AcDbPoint
 10
383.2761256596908
 20
480.0304692778021
 30
0.0
  0
POINT
  5
24667
330
20699
100
AcDbEntity
  8
DEFPOINTS
 62
     0
440
 16777216
100
AcDbPoint
 10
364.7007667734987
 20
330.035953577788
 30
0.0
  0
POINT
  5
24668
330
20699
100
AcDbEntity
  8
DEFPOINTS
 62
     0
440
 16777216
100
AcDbPoint
 10
425.4555095007601
 20
330.0338327750514
 30
0.0
  0
ENDBLK
  5
2069B
330
20699
100
AcDbEntity
  8
0
100
AcDbBlockEnd
  0
BLOCK
  5
206B2
330
206B1
100
AcDbEntity
  8
0
100
AcDbBlockBegin
  2
*D17
 70
     1
 10
0.0
 20
0.0
 30
0.0
  3
*D17
  1

  0
LINE
  5
24669
330
206B1
100
AcDbEntity
  8
30
 62
     0
440
 16777216
370
    -2
100
AcDbLine
 10
306.1333987380066
 20
320.5306946188875
 30
0.0
 11
306.1333987380066
 21
310.7323399857232
 31
0.0
  0
LINE
  5
2466A
330
206B1
100
AcDbEntity
  8
30
 62
     0
440
 16777216
370
    -2
100
AcDbLine
 10
246.1334550869182
 20
353.0306640965605
 30
0.0
 11
246.1334550869182
 21
310.7323399857232
 31
0.0
  0
LINE
  5
2466B
330
206B1
100
AcDbEntity
  8
30
 62
     0
440
 16777216
370
    -2
100
AcDbLine
 10
304.1333987380066
 20
311.2323399857232
 30
0.0
 11
248.1334550869182
 21
311.2323399857232
 31
0.0
  0
INSERT
  5
2466C
330
206B1
100
AcDbEntity
  8
30
 62
     0
440
 16777216
370
    -2
100
AcDbBlockReference
  2
_OPEN
 10
306.1333987380066
 20
311.2323399857232
 30
0.0
 41
2.0
 42
2.0
 43
2.0
  0
INSERT
  5
2466D
330
206B1
100
AcDbEntity
  8
30
 62
     0
440
 16777216
370
    -2
100
AcDbBlockReference
  2
_OPEN
 10
246.1334550869182
 20
311.2323399857232
 30
0.0
 41
2.0
 42
2.0
 43
2.0
 50
180.0
  0
MTEXT
  5
2466E
330
206B1
100
AcDbEntity
  8
30
 62
     0
440
 16777216
100
AcDbMText
 10
276.1334269124624
 20
319.2323399857232
 30
0.0
 40
6.0
 41
0.0
 46
0.0
 71
     2
 72
     1
  1
\A1;60
 73
     1
 44
1.0
 90
        3
 63
     9
421
 13158600
 45
1.25
441
        0
  0
POINT
  5
2466F
330
206B1
100
AcDbEntity
  8
DEFPOINTS
 62
     0
440
 16777216
100
AcDbPoint
 10
306.1333987380066
 20
321.5306946188875
 30
0.0
  0
POINT
  5
24670
330
206B1
100
AcDbEntity
  8
DEFPOINTS
 62
     0
440
 16777216
100
AcDbPoint
 10
246.1334550869182
 20
354.0306640965606
 30
0.0
  0
POINT
  5
24671
330
206B1
100
AcDbEntity
  8
DEFPOINTS
 62
     0
440
 16777216
100
AcDbPoint
 10
246.1334550869182
 20
311.2323399857232
 30
0.0
  0
ENDBLK
  5
206B3
330
206B1
100
AcDbEntity
  8
0
100
AcDbBlockEnd
  0
BLOCK
  5
206BE
330
206BD
100
AcDbEntity
  8
0
100
AcDbBlockBegin
  2
*D18
 70
     1
 10
0.0
 20
0.0
 30
0.0
  3
*D18
  1

  0
LINE
  5
24672
330
206BD
100
AcDbEntity
  8
30
 62
     0
440
 16777216
370
    -2
100
AcDbLine
 10
351.2423011765031
 20
491.0305354332126
 30
0.0
 11
437.9990820811813
 21
491.0305354332126
 31
0.0
  0
LINE
  5
24673
330
206BD
100
AcDbEntity
  8
30
 62
     0
440
 16777216
370
    -2
100
AcDbLine
 10
348.6983937497511
 20
319.0306969667588
 30
0.0
 11
437.9990820811813
 21
319.0306969667588
 31
0.0
  0
LINE
  5
24674
330
206BD
100
AcDbEntity
  8
30
 62
     0
440
 16777216
370
    -2
100
AcDbLine
 10
437.4990820811813
 20
489.0305354332125
 30
0.0
 11
437.4990820811813
 21
321.0306969667588
 31
0.0
  0
INSERT
  5
24675
330
206BD
100
AcDbEntity
  8
30
 62
     0
440
 16777216
370
    -2
100
AcDbBlockReference
  2
_OPEN
 10
437.4990820811813
 20
491.0305354332126
 30
0.0
 41
2.0
 42
2.0
 43
2.0
 50
90.0
  0
INSERT
  5
24676
330
206BD
100
AcDbEntity
  8
30
 62
     0
440
 16777216
370
    -2
100
AcDbBlockReference
  2
_OPEN
 10
437.4990820811813
 20
319.0306969667588
 30
0.0
 41
2.0
 42
2.0
 43
2.0
 50
270.0
  0
MTEXT
  5
24677
330
206BD
100
AcDbEntity
  8
30
 62
     0
440
 16777216
100
AcDbMText
 10
429.499082081181
 20
405.0306161999857
 30
0.0
 40
6.0
 41
0.0
 46
0.0
 71
     2
 72
     1
  1
\A1;172
 11
0.0000000000000001
 21
1.0
 31
0.0
 73
     1
 44
1.0
 90
        3
 63
     9
421
 13158600
 45
1.25
441
        0
  0
POINT
  5
24678
330
206BD
100
AcDbEntity
  8
DEFPOINTS
 62
     0
440
 16777216
100
AcDbPoint
 10
350.2423011765031
 20
491.0305354332126
 30
0.0
  0
POINT
  5
24679
330
206BD
100
AcDbEntity
  8
DEFPOINTS
 62
     0
440
 16777216
100
AcDbPoint
 10
347.6983937497511
 20
319.0306969667588
 30
0.0
  0
POINT
  5
2467A
330
206BD
100
AcDbEntity
  8
DEFPOINTS
 62
     0
440
 16777216
100
AcDbPoint
 10
437.4990820811813
 20
319.0306969667588
 30
0.0
  0
ENDBLK
  5
206BF
330
206BD
100
AcDbEntity
  8
0
100
AcDbBlockEnd
  0
BLOCK
  5
206D6
330
206D5
100
AcDbEntity
  8
0
100
AcDbBlockBegin
  2
*D19
 70
     1
 10
0.0
 20
0.0
 30
0.0
  3
*D19
  1

  0
LINE
  5
24736
330
206D5
100
AcDbEntity
  8
30
 62
     0
440
 16777216
370
    -2
100
AcDbLine
 10
234.1334663567006
 20
285.4218118574772
 30
0.0
 11
234.1334663567006
 21
284.9218118574772
 31
0.0
  0
LINE
  5
24737
330
206D5
100
AcDbEntity
  8
30
 62
     0
440
 16777216
370
    -2
100
AcDbLine
 10
354.1333987380066
 20
320.5306946188875
 30
0.0
 11
354.1333987380066
 21
283.9218118574772
 31
0.0
  0
LINE
  5
24738
330
206D5
100
AcDbEntity
  8
30
 62
     0
440
 16777216
370
    -2
100
AcDbLine
 10
236.1334663567006
 20
284.4218118574772
 30
0.0
 11
352.1333987380066
 21
284.4218118574772
 31
0.0
  0
INSERT
  5
24739
330
206D5
100
AcDbEntity
  8
30
 62
     0
440
 16777216
370
    -2
100
AcDbBlockReference
  2
_OPEN
 10
234.1334663567006
 20
284.4218118574772
 30
0.0
 41
2.0
 42
2.0
 43
2.0
 50
180.0
  0
INSERT
  5
2473A
330
206D5
100
AcDbEntity
  8
30
 62
     0
440
 16777216
370
    -2
100
AcDbBlockReference
  2
_OPEN
 10
354.1333987380066
 20
284.4218118574772
 30
0.0
 41
2.0
 42
2.0
 43
2.0
  0
MTEXT
  5
2473B
330
206D5
100
AcDbEntity
  8
30
 62
     0
440
 16777216
100
AcDbMText
 10
282.0603110423162
 20
292.4218118574771
 30
0.0
 40
6.0
 41
0.0
 46
0.0
 71
     2
 72
     1
  1
\A1;120
 73
     1
 44
1.0
 90
        3
 63
     9
421
 13158600
 45
1.25
441
        0
  0
POINT
  5
2473C
330
206D5
100
AcDbEntity
  8
DEFPOINTS
 62
     0
440
 16777216
100
AcDbPoint
 10
234.1334663567006
 20
284.4218118574772
 30
0.0
  0
POINT
  5
2473D
330
206D5
100
AcDbEntity
  8
DEFPOINTS
 62
     0
440
 16777216
100
AcDbPoint
 10
354.1333987380066
 20
321.5306946188875
 30
0.0
  0
POINT
  5
2473E
330
206D5
100
AcDbEntity
  8
DEFPOINTS
 62
     0
440
 16777216
100
AcDbPoint
 10
354.1333987380066
 20
284.4218118574772
 30
0.0
  0
ENDBLK
  5
206D7
330
206D5
100
AcDbEntity
  8
0
100
AcDbBlockEnd
  0
BLOCK
  5
20AFA
330
20AF9
100
AcDbEntity
  8
0
100
AcDbBlockBegin
  2
PM1
 70
     0
 10
0.0
 20
0.0
 30
0.0
  3
PM1
  1

  0
LWPOLYLINE
  5
20B51
330
20AF9
100
AcDbEntity
  8
131
 62
     4
100
AcDbPolyline
 90
       13
 70
     0
 43
0.0
 10
15.0
 20
-43.99999999999997
 10
5.0
 20
-43.99999999999997
 42
-0.4142135623730951
 10
0.0
 20
-39.0
 10
0.0
 20
39.0
 42
-0.4142135623730951
 10
5.0
 20
44.00000000000003
 10
15.0
 20
44.00000000000003
 10
15.0
 20
40.8
 10
4.200000000000158
 20
40.8
 42
0.4142135623730951
 10
3.200000000000156
 20
39.79999999999999
 10
3.200000000000156
 20
-39.79999999999991
 42
0.4142135623730951
 10
4.200000000000158
 20
-40.79999999999988
 10
15.0
 20
-40.79999999999988
 10
15.0
 20
-43.99999999999997
  0
LINE
  5
20B52
330
20AF9
100
AcDbEntity
  8
11
  6
Continuous
 62
    11
100
AcDbLine
 10
4.5
 20
-30.70994064680012
 30
0.0
 11
9.0
 21
-30.70994064680012
 31
0.0
  0
LINE
  5
20B53
330
20AF9
100
AcDbEntity
  8
11
  6
Continuous
 62
    11
100
AcDbLine
 10
4.5
 20
-30.6911384933999
 30
0.0
 11
3.200000000000156
 21
-30.6911384933999
 31
0.0
  0
LINE
  5
20B54
330
20AF9
100
AcDbEntity
  8
11
  6
Continuous
 62
    11
100
AcDbLine
 10
14.60000000000036
 20
-28.59113849340001
 30
0.0
 11
9.0
 21
-28.59113849340001
 31
0.0
  0
LINE
  5
20B55
330
20AF9
100
AcDbEntity
  8
11
  6
Continuous
 62
    11
100
AcDbLine
 10
3.200000000000156
 20
-28.59113849340001
 30
0.0
 11
0.0
 21
-28.59113849340001
 31
0.0
  0
LINE
  5
20B56
330
20AF9
100
AcDbEntity
  8
11
  6
Continuous
 62
    11
100
AcDbLine
 10
4.5
 20
-28.40053957019991
 30
0.0
 11
9.0
 21
-28.40053957019991
 31
0.0
  0
LINE
  5
20B57
330
20AF9
100
AcDbEntity
  8
11
  6
Continuous
 62
    11
100
AcDbLine
 10
4.5
 20
-23.78173741660001
 30
0.0
 11
9.0
 21
-23.78173741660001
 31
0.0
  0
LINE
  5
20B58
330
20AF9
100
AcDbEntity
  8
11
  6
Continuous
 62
    11
100
AcDbLine
 10
14.60000000000036
 20
-23.59113849340001
 30
0.0
 11
9.0
 21
-23.59113849340001
 31
0.0
  0
LINE
  5
20B59
330
20AF9
100
AcDbEntity
  8
11
  6
Continuous
 62
    11
100
AcDbLine
 10
3.200000000000156
 20
-23.59113849340001
 30
0.0
 11
0.0
 21
-23.59113849340001
 31
0.0
  0
LINE
  5
20B5A
330
20AF9
100
AcDbEntity
  8
11
  6
Continuous
 62
    11
100
AcDbLine
 10
4.5
 20
-21.4911384934
 30
0.0
 11
3.200000000000156
 21
-21.4911384934
 31
0.0
  0
LINE
  5
20B5B
330
20AF9
100
AcDbEntity
  8
11
  6
Continuous
 62
    11
100
AcDbLine
 10
4.5
 20
-21.4723363398
 30
0.0
 11
9.0
 21
-21.4723363398
 31
0.0
  0
LINE
  5
20B5C
330
20AF9
100
AcDbEntity
  8
11
  6
Continuous
 62
    11
100
AcDbLine
 10
4.5
 20
21.29005935319989
 30
0.0
 11
9.0
 21
21.29005935319989
 31
0.0
  0
LINE
  5
20B5D
330
20AF9
100
AcDbEntity
  8
11
  6
Continuous
 62
    11
100
AcDbLine
 10
4.5
 20
21.3088615066001
 30
0.0
 11
3.200000000000156
 21
21.3088615066001
 31
0.0
  0
LINE
  5
20B5E
330
20AF9
100
AcDbEntity
  8
11
  6
Continuous
 62
    11
100
AcDbLine
 10
14.60000000000036
 20
23.40886150660001
 30
0.0
 11
9.0
 21
23.40886150660001
 31
0.0
  0
LINE
  5
20B5F
330
20AF9
100
AcDbEntity
  8
11
  6
Continuous
 62
    11
100
AcDbLine
 10
3.200000000000156
 20
23.40886150660001
 30
0.0
 11
0.0
 21
23.40886150660001
 31
0.0
  0
LINE
  5
20B60
330
20AF9
100
AcDbEntity
  8
11
  6
Continuous
 62
    11
100
AcDbLine
 10
4.5
 20
23.59946042980007
 30
0.0
 11
9.0
 21
23.59946042980007
 31
0.0
  0
LINE
  5
20B61
330
20AF9
100
AcDbEntity
  8
11
  6
Continuous
 62
    11
100
AcDbLine
 10
15.39999985459997
 20
24.20886165220009
 30
0.0
 11
14.59999978619987
 21
23.40886172060007
 31
0.0
  0
LINE
  5
20B62
330
20AF9
100
AcDbEntity
  8
17
100
AcDbLine
 10
-5.0
 20
25.90886150660009
 30
0.0
 11
20.0
 21
25.90886150660009
 31
0.0
  0
LINE
  5
20B63
330
20AF9
100
AcDbEntity
  8
11
  6
Continuous
 62
    11
100
AcDbLine
 10
4.5
 20
28.21826258339999
 30
0.0
 11
9.0
 21
28.21826258339999
 31
0.0
  0
LINE
  5
20B64
330
20AF9
100
AcDbEntity
  8
11
  6
Continuous
 62
    11
100
AcDbLine
 10
14.60000000000036
 20
28.40886150660001
 30
0.0
 11
9.0
 21
28.40886150660001
 31
0.0
  0
LINE
  5
20B65
330
20AF9
100
AcDbEntity
  8
11
  6
Continuous
 62
    11
100
AcDbLine
 10
3.200000000000156
 20
28.40886150660001
 30
0.0
 11
0.0
 21
28.40886150660001
 31
0.0
  0
LINE
  5
20B66
330
20AF9
100
AcDbEntity
  8
11
  6
Continuous
 62
    11
100
AcDbLine
 10
4.5
 20
30.50886150659989
 30
0.0
 11
3.200000000000156
 21
30.50886150659989
 31
0.0
  0
LINE
  5
20B67
330
20AF9
100
AcDbEntity
  8
11
  6
Continuous
 62
    11
100
AcDbLine
 10
4.5
 20
30.52766366020001
 30
0.0
 11
9.0
 21
30.52766366020001
 31
0.0
  0
LINE
  5
20B68
330
20AF9
100
AcDbEntity
  8
11
  6
Continuous
 62
    11
100
AcDbLine
 10
15.39999985459997
 20
-24.39113863879992
 30
0.0
 11
14.59999978619987
 21
-23.59113870719991
 31
0.0
  0
LINE
  5
20B69
330
20AF9
100
AcDbEntity
  8
11
  6
Continuous
 62
    11
100
AcDbLine
 10
3.200000000000156
 20
-30.6911384933999
 30
0.0
 11
3.200000000000156
 21
-21.4911384934
 31
0.0
  0
LINE
  5
20B6A
330
20AF9
100
AcDbEntity
  8
11
  6
Continuous
 62
    11
100
AcDbLine
 10
3.200000000000156
 20
21.3088615066001
 30
0.0
 11
3.200000000000156
 21
30.50886150659989
 31
0.0
  0
LINE
  5
20B6B
330
20AF9
100
AcDbEntity
  8
11
  6
Continuous
 62
    11
100
AcDbLine
 10
4.5
 20
30.52766366020001
 30
0.0
 11
4.5
 21
30.50886150659989
 31
0.0
  0
LINE
  5
20B6C
330
20AF9
100
AcDbEntity
  8
11
  6
Continuous
 62
    11
100
AcDbLine
 10
4.5
 20
30.50767394140007
 30
0.0
 11
4.5
 21
21.30981828280011
 31
0.0
  0
LINE
  5
20B6D
330
20AF9
100
AcDbEntity
  8
11
  6
Continuous
 62
    11
100
AcDbLine
 10
4.5
 20
21.3088623348001
 30
0.0
 11
4.5
 21
21.29005935319989
 31
0.0
  0
LINE
  5
20B6E
330
20AF9
100
AcDbEntity
  8
11
  6
Continuous
 62
    11
100
AcDbLine
 10
4.5
 20
-21.4723363398
 30
0.0
 11
4.5
 21
-21.4911384934
 31
0.0
  0
LINE
  5
20B6F
330
20AF9
100
AcDbEntity
  8
11
  6
Continuous
 62
    11
100
AcDbLine
 10
4.5
 20
-21.49232605859991
 30
0.0
 11
4.5
 21
-30.69018171719991
 31
0.0
  0
LINE
  5
20B70
330
20AF9
100
AcDbEntity
  8
11
  6
Continuous
 62
    11
100
AcDbLine
 10
4.5
 20
-30.69113766519993
 30
0.0
 11
4.5
 21
-30.70994064680012
 31
0.0
  0
LINE
  5
20B71
330
20AF9
100
AcDbEntity
  8
11
  6
Continuous
 62
    11
100
AcDbLine
 10
9.0
 20
30.52766366020001
 30
0.0
 11
9.0
 21
21.29005935319989
 31
0.0
  0
LINE
  5
20B72
330
20AF9
100
AcDbEntity
  8
11
  6
Continuous
 62
    11
100
AcDbLine
 10
9.0
 20
-21.4723363398
 30
0.0
 11
9.0
 21
-30.70994064680012
 31
0.0
  0
LINE
  5
20B73
330
20AF9
100
AcDbEntity
  8
11
  6
Continuous
 62
    11
100
AcDbLine
 10
14.59999999319996
 20
28.40886150660001
 30
0.0
 11
14.59999999319996
 21
23.40886150660001
 31
0.0
  0
LINE
  5
20B74
330
20AF9
100
AcDbEntity
  8
11
  6
Continuous
 62
    11
100
AcDbLine
 10
14.59999999319996
 20
-23.59113849340001
 30
0.0
 11
14.59999999319996
 21
-28.59113849340001
 31
0.0
  0
LINE
  5
20B75
330
20AF9
100
AcDbEntity
  8
11
  6
Continuous
 62
    11
100
AcDbLine
 10
15.39999999999998
 20
-27.79113849340002
 30
0.0
 11
15.39999999999998
 21
-24.39113849339991
 31
0.0
  0
LINE
  5
20B76
330
20AF9
100
AcDbEntity
  8
11
  6
Continuous
 62
    11
100
AcDbLine
 10
15.39999999999998
 20
24.20886150659999
 30
0.0
 11
15.39999999999998
 21
27.60886150660008
 31
0.0
  0
LINE
  5
20B77
330
20AF9
100
AcDbEntity
  8
11
  6
Continuous
 62
    11
100
AcDbLine
 10
15.39999985459997
 20
-27.79113834779991
 30
0.0
 11
14.59999978619987
 21
-28.59113827939991
 31
0.0
  0
LINE
  5
20B78
330
20AF9
100
AcDbEntity
  8
11
  6
Continuous
 62
    11
100
AcDbLine
 10
15.39999985459997
 20
27.60886136120007
 30
0.0
 11
14.59999978619987
 21
28.40886129280011
 31
0.0
  0
LINE
  5
20B79
330
20AF9
100
AcDbEntity
  8
17
100
AcDbLine
 10
-5.0
 20
-26.09113849339991
 30
0.0
 11
20.0
 21
-26.09113849339991
 31
0.0
  0
ENDBLK
  5
20AFB
330
20AF9
100
AcDbEntity
  8
0
100
AcDbBlockEnd
  0
BLOCK
  5
22636
330
22635
100
AcDbEntity
  8
0
100
AcDbBlockBegin
  2
*D21
 70
     1
 10
0.0
 20
0.0
 30
0.0
  3
*D21
  1

  0
LINE
  5
24700
330
22635
100
AcDbEntity
  8
30
 62
     0
440
 16777216
370
    -2
100
AcDbLine
 10
49.82917764921205
 20
319.9295797272865
 30
0.0
 11
49.82917764921205
 21
281.2766236909892
 31
0.0
  0
LINE
  5
24701
330
22635
100
AcDbEntity
  8
30
 62
     0
440
 16777216
370
    -2
100
AcDbLine
 10
139.8444035897555
 20
317.2167632886818
 30
0.0
 11
139.8444035897555
 21
281.2766236909892
 31
0.0
  0
LINE
  5
24702
330
22635
100
AcDbEntity
  8
30
 62
     0
440
 16777216
370
    -2
100
AcDbLine
 10
51.82917764921205
 20
281.7766236909893
 30
0.0
 11
137.8444035897555
 21
281.7766236909893
 31
0.0
  0
INSERT
  5
24703
330
22635
100
AcDbEntity
  8
30
 62
     0
440
 16777216
370
    -2
100
AcDbBlockReference
  2
_OPEN
 10
49.82917764921205
 20
281.7766236909893
 30
0.0
 41
2.0
 42
2.0
 43
2.0
 50
180.0
  0
INSERT
  5
24704
330
22635
100
AcDbEntity
  8
30
 62
     0
440
 16777216
370
    -2
100
AcDbBlockReference
  2
_OPEN
 10
139.8444035897555
 20
281.7766236909893
 30
0.0
 41
2.0
 42
2.0
 43
2.0
  0
MTEXT
  5
24705
330
22635
100
AcDbEntity
  8
30
 62
     0
440
 16777216
100
AcDbMText
 10
95.24444566360941
 20
289.7766236909892
 30
0.0
 40
6.0
 41
0.0
 46
0.0
 71
     2
 72
     1
  1
\A1;90
 73
     1
 44
1.0
  0
POINT
  5
24706
330
22635
100
AcDbEntity
  8
DEFPOINTS
 62
     0
440
 16777216
100
AcDbPoint
 10
49.82917764921205
 20
322.9295797272865
 30
0.0
  0
POINT
  5
24707
330
22635
100
AcDbEntity
  8
DEFPOINTS
 62
     0
440
 16777216
100
AcDbPoint
 10
139.8444035897555
 20
320.2167632886818
 30
0.0
  0
POINT
  5
24708
330
22635
100
AcDbEntity
  8
DEFPOINTS
 62
     0
440
 16777216
100
AcDbPoint
 10
139.8444035897555
 20
281.7766236909893
 30
0.0
  0
ENDBLK
  5
22637
330
22635
100
AcDbEntity
  8
0
100
AcDbBlockEnd
  0
BLOCK
  5
22905
330
22904
100
AcDbEntity
  8
0
100
AcDbBlockBegin
  2
*D22
 70
     1
 10
0.0
 20
0.0
 30
0.0
  3
*D22
  1

  0
LINE
  5
24353
330
22904
100
AcDbEntity
  8
30
 62
     0
440
 16777216
370
    -2
100
AcDbLine
 10
48.82584848759655
 20
470.0697145142362
 30
0.0
 11
26.11541271923167
 21
470.0697145142362
 31
0.0
  0
LINE
  5
24354
330
22904
100
AcDbEntity
  8
30
 62
     0
440
 16777216
370
    -2
100
AcDbLine
 10
48.82032336131171
 20
340.0697145142363
 30
0.0
 11
26.11541271923164
 21
340.0697145142363
 31
0.0
  0
LINE
  5
24355
330
22904
100
AcDbEntity
  8
30
 62
     0
440
 16777216
370
    -2
100
AcDbLine
 10
26.61541271923167
 20
468.0697145142363
 30
0.0
 11
26.61541271923165
 21
342.0697145142364
 31
0.0
  0
INSERT
  5
24356
330
22904
100
AcDbEntity
  8
30
 62
     0
440
 16777216
370
    -2
100
AcDbBlockReference
  2
_OPEN
 10
26.61541271923167
 20
470.0697145142362
 30
0.0
 41
2.0
 42
2.0
 43
2.0
 50
90.0
  0
INSERT
  5
24357
330
22904
100
AcDbEntity
  8
30
 62
     0
440
 16777216
370
    -2
100
AcDbBlockReference
  2
_OPEN
 10
26.61541271923165
 20
340.0697145142363
 30
0.0
 41
2.0
 42
2.0
 43
2.0
 50
270.0
  0
MTEXT
  5
24358
330
22904
100
AcDbEntity
  8
30
 62
     0
440
 16777216
100
AcDbMText
 10
21.61541271923159
 20
405.0697145142363
 30
0.0
 40
6.0
 41
0.0
 46
0.0
 71
     5
 72
     1
  1
\A1;130
 11
0.0000000000000001
 21
1.0
 31
0.0
 73
     1
 44
1.0
 90
        3
 63
     9
421
 13158600
 45
1.25
441
        0
  0
POINT
  5
24359
330
22904
100
AcDbEntity
  8
DEFPOINTS
 62
     0
440
 16777216
100
AcDbPoint
 10
49.82584848759653
 20
470.0697145142362
 30
0.0
  0
POINT
  5
2435A
330
22904
100
AcDbEntity
  8
DEFPOINTS
 62
     0
440
 16777216
100
AcDbPoint
 10
49.82032336131172
 20
340.0697145142363
 30
0.0
  0
POINT
  5
2435B
330
22904
100
AcDbEntity
  8
DEFPOINTS
 62
     0
440
 16777216
100
AcDbPoint
 10
26.61541271923165
 20
340.0697145142363
 30
0.0
  0
ENDBLK
  5
22906
330
22904
100
AcDbEntity
  8
0
100
AcDbBlockEnd
  0
BLOCK
  5
22D2E
330
22D2D
100
AcDbEntity
  8
0
100
AcDbBlockBegin
  2
*D23
 70
     1
 10
0.0
 20
0.0
 30
0.0
  3
*D23
  1

  0
LINE
  5
2471B
330
22D2D
100
AcDbEntity
  8
30
 62
     0
440
 16777216
370
    -2
100
AcDbLine
 10
426.2328990043315
 20
185.2197145142365
 30
0.0
 11
491.4835050438797
 21
185.2197145142364
 31
0.0
  0
LINE
  5
2471C
330
22D2D
100
AcDbEntity
  8
30
 62
     0
440
 16777216
370
    -2
100
AcDbLine
 10
426.2328990043315
 20
137.2197145142368
 30
0.0
 11
491.4835050438797
 21
137.2197145142367
 31
0.0
  0
LINE
  5
2471D
330
22D2D
100
AcDbEntity
  8
30
 62
     0
440
 16777216
370
    -2
100
AcDbLine
 10
490.9835050438797
 20
183.2197145142364
 30
0.0
 11
490.9835050438797
 21
139.2197145142367
 31
0.0
  0
INSERT
  5
2471E
330
22D2D
100
AcDbEntity
  8
30
 62
     0
440
 16777216
370
    -2
100
AcDbBlockReference
  2
_OPEN
 10
490.9835050438797
 20
185.2197145142364
 30
0.0
 41
2.0
 42
2.0
 43
2.0
 50
90.0
  0
INSERT
  5
2471F
330
22D2D
100
AcDbEntity
  8
30
 62
     0
440
 16777216
370
    -2
100
AcDbBlockReference
  2
_OPEN
 10
490.9835050438797
 20
137.2197145142367
 30
0.0
 41
2.0
 42
2.0
 43
2.0
 50
270.0
  0
MTEXT
  5
24720
330
22D2D
100
AcDbEntity
  8
30
 62
     0
440
 16777216
100
AcDbMText
 10
482.9835050438796
 20
161.2197145142366
 30
0.0
 40
6.0
 41
0.0
 46
0.0
 71
     2
 72
     1
  1
\A1;48
 11
0.0000000000000001
 21
1.0
 31
0.0
 73
     1
 44
1.0
 90
        3
 63
     9
421
 13158600
 45
1.25
441
        0
  0
POINT
  5
24721
330
22D2D
100
AcDbEntity
  8
DEFPOINTS
 62
     0
440
 16777216
100
AcDbPoint
 10
425.2328990043316
 20
185.2197145142365
 30
0.0
  0
POINT
  5
24722
330
22D2D
100
AcDbEntity
  8
DEFPOINTS
 62
     0
440
 16777216
100
AcDbPoint
 10
425.2328990043316
 20
137.2197145142368
 30
0.0
  0
POINT
  5
24723
330
22D2D
100
AcDbEntity
  8
DEFPOINTS
 62
     0
440
 16777216
100
AcDbPoint
 10
490.9835050438797
 20
137.2197145142367
 30
0.0
  0
ENDBLK
  5
22D2F
330
22D2D
100
AcDbEntity
  8
0
100
AcDbBlockEnd
  0
BLOCK
  5
22D3A
330
22D39
100
AcDbEntity
  8
0
100
AcDbBlockBegin
  2
*D24
 70
     1
 10
0.0
 20
0.0
 30
0.0
  3
*D24
  1

  0
LINE
  5
243F5
330
22D39
100
AcDbEntity
  8
30
 62
     0
440
 16777216
370
    -2
100
AcDbLine
 10
426.2328990043315
 20
135.2197145142367
 30
0.0
 11
426.2328990043315
 21
40.86961443333971
 31
0.0
  0
LINE
  5
243F6
330
22D39
100
AcDbEntity
  8
30
 62
     0
440
 16777216
370
    -2
100
AcDbLine
 10
402.2328990043319
 20
135.2197145142367
 30
0.0
 11
402.2328990043319
 21
40.86961443333971
 31
0.0
  0
LINE
  5
243F7
330
22D39
100
AcDbEntity
  8
30
 62
     0
440
 16777216
370
    -2
100
AcDbLine
 10
424.2328990043317
 20
41.36961443333972
 30
0.0
 11
404.2328990043318
 21
41.36961443333972
 31
0.0
  0
INSERT
  5
243F8
330
22D39
100
AcDbEntity
  8
30
 62
     0
440
 16777216
370
    -2
100
AcDbBlockReference
  2
_OPEN
 10
426.2328990043315
 20
41.36961443333972
 30
0.0
 41
2.0
 42
2.0
 43
2.0
  0
INSERT
  5
243F9
330
22D39
100
AcDbEntity
  8
30
 62
     0
440
 16777216
370
    -2
100
AcDbBlockReference
  2
_OPEN
 10
402.2328990043319
 20
41.36961443333972
 30
0.0
 41
2.0
 42
2.0
 43
2.0
 50
180.0
  0
MTEXT
  5
243FA
330
22D39
100
AcDbEntity
  8
30
 62
     0
440
 16777216
100
AcDbMText
 10
414.2328990043319
 20
49.36961443333974
 30
0.0
 40
6.0
 41
0.0
 46
0.0
 71
     2
 72
     1
  1
\A1;24
 73
     1
 44
1.0
  0
POINT
  5
243FB
330
22D39
100
AcDbEntity
  8
DEFPOINTS
 62
     0
440
 16777216
100
AcDbPoint
 10
426.2328990043315
 20
138.2197145142368
 30
0.0
  0
POINT
  5
243FC
330
22D39
100
AcDbEntity
  8
DEFPOINTS
 62
     0
440
 16777216
100
AcDbPoint
 10
402.2328990043319
 20
138.2197145142368
 30
0.0
  0
POINT
  5
243FD
330
22D39
100
AcDbEntity
  8
DEFPOINTS
 62
     0
440
 16777216
100
AcDbPoint
 10
402.2328990043319
 20
41.36961443333972
 30
0.0
  0
ENDBLK
  5
22D3B
330
22D39
100
AcDbEntity
  8
0
100
AcDbBlockEnd
  0
BLOCK
  5
22D46
330
22D45
100
AcDbEntity
  8
0
100
AcDbBlockBegin
  2
*D25
 70
     1
 10
0.0
 20
0.0
 30
0.0
  3
*D25
  1

  0
LINE
  5
24428
330
22D45
100
AcDbEntity
  8
30
 62
     0
440
 16777216
370
    -2
100
AcDbLine
 10
427.5217759804021
 20
186.1590551725697
 30
0.0
 11
436.7183372346685
 21
193.9512018644681
 31
0.0
  0
LINE
  5
24429
330
22D45
100
AcDbEntity
  8
30
 62
     0
440
 16777216
370
    -2
100
AcDbLine
 10
436.7183372346685
 20
193.9512018644681
 30
0.0
 11
446.7183372346685
 21
193.951201864468
 31
0.0
  0
LINE
  5
2442A
330
22D45
100
AcDbEntity
  8
30
 62
     0
440
 16777216
370
    -2
100
AcDbLine
 10
425.2328990043318
 20
184.2197145142366
 30
0.0
 11
425.9958579964105
 21
184.8661614003943
 31
0.0
  0
INSERT
  5
2442B
330
22D45
100
AcDbEntity
  8
30
 62
     0
440
 16777216
370
    -2
100
AcDbBlockReference
  2
_OPEN
 10
425.9958579964105
 20
184.8661614003943
 30
0.0
 41
2.0
 42
2.0
 43
2.0
 50
220.2742448954142
  0
MTEXT
  5
2442C
330
22D45
100
AcDbEntity
  8
30
 62
     0
440
 16777216
100
AcDbMText
 10
438.7183372346685
 20
201.9512018644681
 30
0.0
 40
6.0
 41
0.0
 46
0.0
 71
     1
 72
     1
  1
\A1;R1
 73
     1
 44
1.0
  0
POINT
  5
2442D
330
22D45
100
AcDbEntity
  8
DEFPOINTS
 62
     0
440
 16777216
100
AcDbPoint
 10
425.9958579964105
 20
184.8661614003943
 30
0.0
  0
POINT
  5
2442E
330
22D45
100
AcDbEntity
  8
DEFPOINTS
 62
     0
440
 16777216
100
AcDbPoint
 10
425.2328990043318
 20
184.2197145142366
 30
0.0
  0
ENDBLK
  5
22D47
330
22D45
100
AcDbEntity
  8
0
100
AcDbBlockEnd
  0
BLOCK
  5
22E09
330
22E08
100
AcDbEntity
  8
0
100
AcDbBlockBegin
  2
*D26
 70
     1
 10
0.0
 20
0.0
 30
0.0
  3
*D26
  1

  0
LINE
  5
2443F
330
22E08
100
AcDbEntity
  8
30
 62
     0
440
 16777216
370
    -2
100
AcDbLine
 10
77.54187167922788
 20
134.4697145142368
 30
0.0
 11
77.54187167922788
 21
41.44877649939258
 31
0.0
  0
LINE
  5
24440
330
22E08
100
AcDbEntity
  8
30
 62
     0
440
 16777216
370
    -2
100
AcDbLine
 10
112.5418716792274
 20
134.4697145142368
 30
0.0
 11
112.5418716792274
 21
41.44877649939258
 31
0.0
  0
LINE
  5
24441
330
22E08
100
AcDbEntity
  8
30
 62
     0
440
 16777216
370
    -2
100
AcDbLine
 10
79.54187167922788
 20
41.94877649939257
 30
0.0
 11
110.5418716792274
 21
41.94877649939257
 31
0.0
  0
INSERT
  5
24442
330
22E08
100
AcDbEntity
  8
30
 62
     0
440
 16777216
370
    -2
100
AcDbBlockReference
  2
_OPEN
 10
77.54187167922788
 20
41.94877649939257
 30
0.0
 41
2.0
 42
2.0
 43
2.0
 50
180.0
  0
INSERT
  5
24443
330
22E08
100
AcDbEntity
  8
30
 62
     0
440
 16777216
370
    -2
100
AcDbBlockReference
  2
_OPEN
 10
112.5418716792274
 20
41.94877649939257
 30
0.0
 41
2.0
 42
2.0
 43
2.0
  0
MTEXT
  5
24444
330
22E08
100
AcDbEntity
  8
30
 62
     0
440
 16777216
100
AcDbMText
 10
95.04187167922777
 20
49.94877649939258
 30
0.0
 40
6.0
 41
0.0
 46
0.0
 71
     2
 72
     1
  1
\A1;35
 73
     1
 44
1.0
 90
        3
 63
     9
421
 13158600
 45
1.25
441
        0
  0
POINT
  5
24445
330
22E08
100
AcDbEntity
  8
DEFPOINTS
 62
     0
440
 16777216
100
AcDbPoint
 10
77.54187167922788
 20
135.4697145142368
 30
0.0
  0
POINT
  5
24446
330
22E08
100
AcDbEntity
  8
DEFPOINTS
 62
     0
440
 16777216
100
AcDbPoint
 10
112.5418716792274
 20
135.4697145142368
 30
0.0
  0
POINT
  5
24447
330
22E08
100
AcDbEntity
  8
DEFPOINTS
 62
     0
440
 16777216
100
AcDbPoint
 10
112.5418716792274
 20
41.94877649939257
 30
0.0
  0
ENDBLK
  5
22E0A
330
22E08
100
AcDbEntity
  8
0
100
AcDbBlockEnd
  0
BLOCK
  5
22E15
330
22E14
100
AcDbEntity
  8
0
100
AcDbBlockBegin
  2
*D27
 70
     1
 10
0.0
 20
0.0
 30
0.0
  3
*D27
  1

  0
LINE
  5
2442F
330
22E14
100
AcDbEntity
  8
30
 62
     0
440
 16777216
370
    -2
100
AcDbLine
 10
81.26256863969933
 20
138.8098363873829
 30
0.0
 11
82.75084742389159
 21
140.1458851366892
 31
0.0
  0
LINE
  5
24430
330
22E14
100
AcDbEntity
  8
30
 62
     0
440
 16777216
370
    -2
100
AcDbLine
 10
73.82117471875577
 20
132.1295926408669
 30
0.0
 11
39.03334640733315
 21
100.9000709946341
 31
0.0
  0
LINE
  5
24431
330
22E14
100
AcDbEntity
  8
30
 62
     0
440
 16777216
370
    -2
100
AcDbLine
 10
39.03334640733315
 20
100.9000709946341
 30
0.0
 11
27.03334640733316
 21
100.9000709946341
 31
0.0
  0
LINE
  5
24432
330
22E14
100
AcDbEntity
  8
30
 62
     0
440
 16777216
370
    -2
100
AcDbLine
 10
79.77428985550705
 20
137.4737876380765
 30
0.0
 11
75.30945350294806
 21
133.4656413901733
 31
0.0
  0
INSERT
  5
24433
330
22E14
100
AcDbEntity
  8
30
 62
     0
440
 16777216
370
    -2
100
AcDbBlockReference
  2
_OPEN
 10
79.77428985550705
 20
137.4737876380765
 30
0.0
 41
2.0
 42
2.0
 43
2.0
 50
221.9147676073466
  0
INSERT
  5
24434
330
22E14
100
AcDbEntity
  8
30
 62
     0
440
 16777216
370
    -2
100
AcDbBlockReference
  2
_OPEN
 10
75.30945350294806
 20
133.4656413901733
 30
0.0
 41
2.0
 42
2.0
 43
2.0
 50
41.91476760734658
  0
MTEXT
  5
24435
330
22E14
100
AcDbEntity
  8
30
 62
     0
440
 16777216
100
AcDbMText
 10
27.03334640733307
 20
108.9000709946342
 30
0.0
 40
6.0
 41
0.0
 46
0.0
 71
     1
 72
     1
  1
\A1;∅6
 73
     1
 44
1.0
  0
POINT
  5
24436
330
22E14
100
AcDbEntity
  8
DEFPOINTS
 62
     0
440
 16777216
100
AcDbPoint
 10
75.30945350294806
 20
133.4656413901733
 30
0.0
  0
POINT
  5
24437
330
22E14
100
AcDbEntity
  8
DEFPOINTS
 62
     0
440
 16777216
100
AcDbPoint
 10
79.77428985550705
 20
137.4737876380765
 30
0.0
  0
ENDBLK
  5
22E16
330
22E14
100
AcDbEntity
  8
0
100
AcDbBlockEnd
  0
BLOCK
  5
22E1D
330
22E1C
100
AcDbEntity
  8
0
100
AcDbBlockBegin
  2
*D28
 70
     1
 10
0.0
 20
0.0
 30
0.0
  3
*D28
  1

  0
LINE
  5
24448
330
22E1C
100
AcDbEntity
  8
30
 62
     0
440
 16777216
370
    -2
100
AcDbLine
 10
134.5418716792274
 20
158.4697145142366
 30
0.0
 11
134.5418716792274
 21
41.44877649939258
 31
0.0
  0
LINE
  5
24449
330
22E1C
100
AcDbEntity
  8
30
 62
     0
440
 16777216
370
    -2
100
AcDbLine
 10
112.5418716792274
 20
132.4697145142368
 30
0.0
 11
112.5418716792274
 21
41.44877649939258
 31
0.0
  0
LINE
  5
2444A
330
22E1C
100
AcDbEntity
  8
30
 62
     0
440
 16777216
370
    -2
100
AcDbLine
 10
132.5418716792274
 20
41.94877649939257
 30
0.0
 11
114.5418716792274
 21
41.94877649939257
 31
0.0
  0
INSERT
  5
2444B
330
22E1C
100
AcDbEntity
  8
30
 62
     0
440
 16777216
370
    -2
100
AcDbBlockReference
  2
_OPEN
 10
134.5418716792274
 20
41.94877649939257
 30
0.0
 41
2.0
 42
2.0
 43
2.0
  0
INSERT
  5
2444C
330
22E1C
100
AcDbEntity
  8
30
 62
     0
440
 16777216
370
    -2
100
AcDbBlockReference
  2
_OPEN
 10
112.5418716792274
 20
41.94877649939257
 30
0.0
 41
2.0
 42
2.0
 43
2.0
 50
180.0
  0
MTEXT
  5
2444D
330
22E1C
100
AcDbEntity
  8
30
 62
     0
440
 16777216
100
AcDbMText
 10
123.5418716792274
 20
49.94877649939258
 30
0.0
 40
6.0
 41
0.0
 46
0.0
 71
     2
 72
     1
  1
\A1;22
 73
     1
 44
1.0
  0
POINT
  5
2444E
330
22E1C
100
AcDbEntity
  8
DEFPOINTS
 62
     0
440
 16777216
100
AcDbPoint
 10
134.5418716792274
 20
161.4697145142366
 30
0.0
  0
POINT
  5
2444F
330
22E1C
100
AcDbEntity
  8
DEFPOINTS
 62
     0
440
 16777216
100
AcDbPoint
 10
112.5418716792274
 20
135.4697145142368
 30
0.0
  0
POINT
  5
24450
330
22E1C
100
AcDbEntity
  8
DEFPOINTS
 62
     0
440
 16777216
100
AcDbPoint
 10
112.5418716792274
 20
41.94877649939257
 30
0.0
  0
ENDBLK
  5
22E1E
330
22E1C
100
AcDbEntity
  8
0
100
AcDbBlockEnd
  0
BLOCK
  5
22F14
330
22F13
100
AcDbEntity
  8
0
100
AcDbBlockBegin
  2
*D29
 70
     1
 10
0.0
 20
0.0
 30
0.0
  3
*D29
  1

  0
LINE
  5
24407
330
22F13
100
AcDbEntity
  8
30
 62
     0
440
 16777216
370
    -2
100
AcDbLine
 10
288.0209269660766
 20
135.5095285057293
 30
0.0
 11
288.0209269660766
 21
41.15942842483224
 31
0.0
  0
LINE
  5
24408
330
22F13
100
AcDbEntity
  8
30
 62
     0
440
 16777216
370
    -2
100
AcDbLine
 10
202.0209269660768
 20
135.5095285057293
 30
0.0
 11
202.0209269660768
 21
41.15942842483224
 31
0.0
  0
LINE
  5
24409
330
22F13
100
AcDbEntity
  8
30
 62
     0
440
 16777216
370
    -2
100
AcDbLine
 10
286.0209269660766
 20
41.65942842483224
 30
0.0
 11
204.0209269660768
 21
41.65942842483224
 31
0.0
  0
INSERT
  5
2440A
330
22F13
100
AcDbEntity
  8
30
 62
     0
440
 16777216
370
    -2
100
AcDbBlockReference
  2
_OPEN
 10
288.0209269660766
 20
41.65942842483224
 30
0.0
 41
2.0
 42
2.0
 43
2.0
  0
INSERT
  5
2440B
330
22F13
100
AcDbEntity
  8
30
 62
     0
440
 16777216
370
    -2
100
AcDbBlockReference
  2
_OPEN
 10
202.0209269660768
 20
41.65942842483224
 30
0.0
 41
2.0
 42
2.0
 43
2.0
 50
180.0
  0
MTEXT
  5
2440C
330
22F13
100
AcDbEntity
  8
30
 62
     0
440
 16777216
100
AcDbMText
 10
245.0209269660768
 20
49.65942842483224
 30
0.0
 40
6.0
 41
0.0
 46
0.0
 71
     2
 72
     1
  1
\A1;86
 73
     1
 44
1.0
  0
POINT
  5
2440D
330
22F13
100
AcDbEntity
  8
DEFPOINTS
 62
     0
440
 16777216
100
AcDbPoint
 10
288.0209269660766
 20
138.5095285057293
 30
0.0
  0
POINT
  5
2440E
330
22F13
100
AcDbEntity
  8
DEFPOINTS
 62
     0
440
 16777216
100
AcDbPoint
 10
202.0209269660768
 20
138.5095285057293
 30
0.0
  0
POINT
  5
2440F
330
22F13
100
AcDbEntity
  8
DEFPOINTS
 62
     0
440
 16777216
100
AcDbPoint
 10
202.0209269660768
 20
41.65942842483224
 30
0.0
  0
ENDBLK
  5
22F15
330
22F13
100
AcDbEntity
  8
0
100
AcDbBlockEnd
  0
BLOCK
  5
22F20
330
22F1F
100
AcDbEntity
  8
0
100
AcDbBlockBegin
  2
*D30
 70
     1
 10
0.0
 20
0.0
 30
0.0
  3
*D30
  1

  0
LINE
  5
24421
330
22F1F
100
AcDbEntity
  8
30
 62
     0
440
 16777216
370
    -2
100
AcDbLine
 10
289.309803942147
 20
188.3611408903521
 30
0.0
 11
298.5063651964152
 21
196.1532875822504
 31
0.0
  0
LINE
  5
24422
330
22F1F
100
AcDbEntity
  8
30
 62
     0
440
 16777216
370
    -2
100
AcDbLine
 10
298.5063651964152
 20
196.1532875822504
 30
0.0
 11
308.5063651964152
 21
196.1532875822504
 31
0.0
  0
LINE
  5
24423
330
22F1F
100
AcDbEntity
  8
30
 62
     0
440
 16777216
370
    -2
100
AcDbLine
 10
287.0209269660767
 20
186.4218002320195
 30
0.0
 11
287.7838859581549
 21
187.0682471181768
 31
0.0
  0
INSERT
  5
24424
330
22F1F
100
AcDbEntity
  8
30
 62
     0
440
 16777216
370
    -2
100
AcDbBlockReference
  2
_OPEN
 10
287.7838859581549
 20
187.0682471181768
 30
0.0
 41
2.0
 42
2.0
 43
2.0
 50
220.2742448954076
  0
MTEXT
  5
24425
330
22F1F
100
AcDbEntity
  8
30
 62
     0
440
 16777216
100
AcDbMText
 10
300.506365196415
 20
204.1532875822506
 30
0.0
 40
6.0
 41
0.0
 46
0.0
 71
     1
 72
     1
  1
\A1;R1
 73
     1
 44
1.0
  0
POINT
  5
24426
330
22F1F
100
AcDbEntity
  8
DEFPOINTS
 62
     0
440
 16777216
100
AcDbPoint
 10
287.7838859581549
 20
187.0682471181768
 30
0.0
  0
POINT
  5
24427
330
22F1F
100
AcDbEntity
  8
DEFPOINTS
 62
     0
440
 16777216
100
AcDbPoint
 10
287.0209269660767
 20
186.4218002320195
 30
0.0
  0
ENDBLK
  5
22F21
330
22F1F
100
AcDbEntity
  8
0
100
AcDbBlockEnd
  0
BLOCK
  5
230E8
330
230E7
100
AcDbEntity
  8
0
100
AcDbBlockBegin
  2
*D31
 70
     1
 10
0.0
 20
0.0
 30
0.0
  3
*D31
  1

  0
LINE
  5
24419
330
230E7
100
AcDbEntity
  8
30
 62
     0
440
 16777216
370
    -2
100
AcDbLine
 10
129.8899750435746
 20
156.3290493852897
 30
0.0
 11
139.1937683148802
 21
166.7903796431836
 31
0.0
  0
LINE
  5
2441A
330
230E7
100
AcDbEntity
  8
30
 62
     0
440
 16777216
370
    -2
100
AcDbLine
 10
140.5228816393527
 20
168.2848553943116
 30
0.0
 11
158.2754117426873
 21
188.2460771141621
 31
0.0
  0
LINE
  5
2441B
330
230E7
100
AcDbEntity
  8
30
 62
     0
440
 16777216
370
    -2
100
AcDbLine
 10
158.2754117426873
 20
188.2460771141621
 30
0.0
 11
174.2754117426873
 21
188.2460771141621
 31
0.0
  0
INSERT
  5
2441C
330
230E7
100
AcDbEntity
  8
30
 62
     0
440
 16777216
370
    -2
100
AcDbBlockReference
  2
_OPEN
 10
128.5608617191021
 20
154.8345736341616
 30
0.0
 41
2.0
 42
2.0
 43
2.0
 50
228.3516772853115
  0
INSERT
  5
2441D
330
230E7
100
AcDbEntity
  8
30
 62
     0
440
 16777216
370
    -2
100
AcDbBlockReference
  2
_OPEN
 10
140.5228816393527
 20
168.2848553943116
 30
0.0
 41
2.0
 42
2.0
 43
2.0
 50
48.35167728531148
  0
MTEXT
  5
2441E
330
230E7
100
AcDbEntity
  8
30
 62
     0
440
 16777216
100
AcDbMText
 10
160.2754117426873
 20
196.2460771141621
 30
0.0
 40
6.0
 41
0.0
 46
0.0
 71
     1
 72
     1
  1
\A1;∅18
 73
     1
 44
1.0
  0
POINT
  5
2441F
330
230E7
100
AcDbEntity
  8
DEFPOINTS
 62
     0
440
 16777216
100
AcDbPoint
 10
140.5228816393527
 20
168.2848553943116
 30
0.0
  0
POINT
  5
24420
330
230E7
100
AcDbEntity
  8
DEFPOINTS
 62
     0
440
 16777216
100
AcDbPoint
 10
128.5608617191021
 20
154.8345736341616
 30
0.0
  0
ENDBLK
  5
230E9
330
230E7
100
AcDbEntity
  8
0
100
AcDbBlockEnd
  0
BLOCK
  5
23BE2
330
23BE1
100
AcDbEntity
  8
0
100
AcDbBlockBegin
  2
*D32
 70
     1
 10
0.0
 20
0.0
 30
0.0
  3
*D32
  1

  0
LINE
  5
242DC
330
23BE1
100
AcDbEntity
  8
30
 62
     0
440
 16777216
370
    -2
100
AcDbLine
 10
67.95170192922899
 20
187.4697145142365
 30
0.0
 11
28.16594588405856
 21
187.4697145142365
 31
0.0
  0
LINE
  5
242DD
330
23BE1
100
AcDbEntity
  8
30
 62
     0
440
 16777216
370
    -2
100
AcDbLine
 10
67.95170192922899
 20
135.4697145142368
 30
0.0
 11
28.16594588405854
 21
135.4697145142368
 31
0.0
  0
LINE
  5
242DE
330
23BE1
100
AcDbEntity
  8
30
 62
     0
440
 16777216
370
    -2
100
AcDbLine
 10
28.66594588405856
 20
185.4697145142365
 30
0.0
 11
28.66594588405855
 21
137.4697145142368
 31
0.0
  0
INSERT
  5
242DF
330
23BE1
100
AcDbEntity
  8
30
 62
     0
440
 16777216
370
    -2
100
AcDbBlockReference
  2
_OPEN
 10
28.66594588405856
 20
187.4697145142365
 30
0.0
 41
2.0
 42
2.0
 43
2.0
 50
90.0
  0
INSERT
  5
242E0
330
23BE1
100
AcDbEntity
  8
30
 62
     0
440
 16777216
370
    -2
100
AcDbBlockReference
  2
_OPEN
 10
28.66594588405855
 20
135.4697145142368
 30
0.0
 41
2.0
 42
2.0
 43
2.0
 50
270.0
  0
MTEXT
  5
242E1
330
23BE1
100
AcDbEntity
  8
30
 62
     0
440
 16777216
100
AcDbMText
 10
23.66594588405853
 20
161.4697145142367
 30
0.0
 40
6.0
 41
0.0
 46
0.0
 71
     5
 72
     1
  1
\A1;52
 11
0.0000000000000001
 21
1.0
 31
0.0
 73
     1
 44
1.0
 90
        3
 63
     9
421
 13158600
 45
1.25
441
        0
  0
POINT
  5
242E2
330
23BE1
100
AcDbEntity
  8
DEFPOINTS
 62
     0
440
 16777216
100
AcDbPoint
 10
68.95170192922899
 20
187.4697145142365
 30
0.0
  0
POINT
  5
242E3
330
23BE1
100
AcDbEntity
  8
DEFPOINTS
 62
     0
440
 16777216
100
AcDbPoint
 10
68.95170192922899
 20
135.4697145142368
 30
0.0
  0
POINT
  5
242E4
330
23BE1
100
AcDbEntity
  8
DEFPOINTS
 62
     0
440
 16777216
100
AcDbPoint
 10
28.66594588405855
 20
135.4697145142368
 30
0.0
  0
ENDBLK
  5
23BE3
330
23BE1
100
AcDbEntity
  8
0
100
AcDbBlockEnd
  0
BLOCK
  5
23BEF
330
23BEE
100
AcDbEntity
  8
0
100
AcDbBlockBegin
  2
*D33
 70
     1
 10
0.0
 20
0.0
 30
0.0
  3
*D33
  1

  0
LINE
  5
242E5
330
23BEE
100
AcDbEntity
  8
30
 62
     0
440
 16777216
370
    -2
100
AcDbLine
 10
61.95170192922901
 20
171.4697145142365
 30
0.0
 11
41.68990350416692
 21
171.4697145142365
 31
0.0
  0
LINE
  5
242E6
330
23BEE
100
AcDbEntity
  8
30
 62
     0
440
 16777216
370
    -2
100
AcDbLine
 10
61.95170192922901
 20
151.4697145142366
 30
0.0
 11
41.68990350416692
 21
151.4697145142366
 31
0.0
  0
LINE
  5
242E7
330
23BEE
100
AcDbEntity
  8
30
 62
     0
440
 16777216
370
    -2
100
AcDbLine
 10
42.18990350416691
 20
169.4697145142365
 30
0.0
 11
42.18990350416691
 21
153.4697145142366
 31
0.0
  0
INSERT
  5
242E8
330
23BEE
100
AcDbEntity
  8
30
 62
     0
440
 16777216
370
    -2
100
AcDbBlockReference
  2
_OPEN
 10
42.18990350416691
 20
171.4697145142365
 30
0.0
 41
2.0
 42
2.0
 43
2.0
 50
90.0
  0
INSERT
  5
242E9
330
23BEE
100
AcDbEntity
  8
30
 62
     0
440
 16777216
370
    -2
100
AcDbBlockReference
  2
_OPEN
 10
42.18990350416691
 20
151.4697145142366
 30
0.0
 41
2.0
 42
2.0
 43
2.0
 50
270.0
  0
MTEXT
  5
242EA
330
23BEE
100
AcDbEntity
  8
30
 62
     0
440
 16777216
100
AcDbMText
 10
37.18990350416689
 20
161.4697145142366
 30
0.0
 40
6.0
 41
0.0
 46
0.0
 71
     5
 72
     1
  1
\A1;20
 11
0.0000000000000001
 21
1.0
 31
0.0
 73
     1
 44
1.0
 90
        3
 63
     9
421
 13158600
 45
1.25
441
        0
  0
POINT
  5
242EB
330
23BEE
100
AcDbEntity
  8
DEFPOINTS
 62
     0
440
 16777216
100
AcDbPoint
 10
62.95170192922903
 20
171.4697145142365
 30
0.0
  0
POINT
  5
242EC
330
23BEE
100
AcDbEntity
  8
DEFPOINTS
 62
     0
440
 16777216
100
AcDbPoint
 10
62.95170192922903
 20
151.4697145142366
 30
0.0
  0
POINT
  5
242ED
330
23BEE
100
AcDbEntity
  8
DEFPOINTS
 62
     0
440
 16777216
100
AcDbPoint
 10
42.18990350416691
 20
151.4697145142366
 30
0.0
  0
ENDBLK
  5
23BF0
330
23BEE
100
AcDbEntity
  8
0
100
AcDbBlockEnd
  0
BLOCK
  5
23C8B
330
23C8A
100
AcDbEntity
  8
0
100
AcDbBlockBegin
  2
*D34
 70
     1
 10
0.0
 20
0.0
 30
0.0
  3
*D34
  1

  0
LINE
  5
24712
330
23C8A
100
AcDbEntity
  8
30
 62
     0
440
 16777216
370
    -2
100
AcDbLine
 10
288.0209269660766
 20
187.7595285057289
 30
0.0
 11
321.8611331309321
 21
187.7595285057289
 31
0.0
  0
LINE
  5
24713
330
23C8A
100
AcDbEntity
  8
30
 62
     0
440
 16777216
370
    -2
100
AcDbLine
 10
288.0209269660766
 20
135.7595285057294
 30
0.0
 11
321.8611331309321
 21
135.7595285057294
 31
0.0
  0
LINE
  5
24714
330
23C8A
100
AcDbEntity
  8
30
 62
     0
440
 16777216
370
    -2
100
AcDbLine
 10
321.3611331309321
 20
185.7595285057289
 30
0.0
 11
321.3611331309321
 21
137.7595285057294
 31
0.0
  0
INSERT
  5
24715
330
23C8A
100
AcDbEntity
  8
30
 62
     0
440
 16777216
370
    -2
100
AcDbBlockReference
  2
_OPEN
 10
321.3611331309321
 20
187.7595285057289
 30
0.0
 41
2.0
 42
2.0
 43
2.0
 50
90.0
  0
INSERT
  5
24716
330
23C8A
100
AcDbEntity
  8
30
 62
     0
440
 16777216
370
    -2
100
AcDbBlockReference
  2
_OPEN
 10
321.3611331309321
 20
135.7595285057294
 30
0.0
 41
2.0
 42
2.0
 43
2.0
 50
270.0
  0
MTEXT
  5
24717
330
23C8A
100
AcDbEntity
  8
30
 62
     0
440
 16777216
100
AcDbMText
 10
313.3611331309321
 20
161.5095285057291
 30
0.0
 40
6.0
 41
0.0
 46
0.0
 71
     2
 72
     1
  1
\A1;52
 11
0.0000000000000001
 21
1.0
 31
0.0
 73
     1
 44
1.0
 90
        3
 63
     9
421
 13158600
 45
1.25
441
        0
  0
POINT
  5
24718
330
23C8A
100
AcDbEntity
  8
DEFPOINTS
 62
     0
440
 16777216
100
AcDbPoint
 10
287.0209269660766
 20
187.7595285057289
 30
0.0
  0
POINT
  5
24719
330
23C8A
100
AcDbEntity
  8
DEFPOINTS
 62
     0
440
 16777216
100
AcDbPoint
 10
287.0209269660766
 20
135.7595285057294
 30
0.0
  0
POINT
  5
2471A
330
23C8A
100
AcDbEntity
  8
DEFPOINTS
 62
     0
440
 16777216
100
AcDbPoint
 10
321.3611331309321
 20
135.7595285057294
 30
0.0
  0
ENDBLK
  5
23C8C
330
23C8A
100
AcDbEntity
  8
0
100
AcDbBlockEnd
  0
BLOCK
  5
240D5
330
240D4
100
AcDbEntity
  8
0
100
AcDbBlockBegin
  2
*D35
 70
     1
 10
0.0
 20
0.0
 30
0.0
  3
*D35
  1

  0
LINE
  5
24724
330
240D4
100
AcDbEntity
  8
30
 62
     0
440
 16777216
370
    -2
100
AcDbLine
 10
210.6334694561141
 20
398.0913457165475
 30
0.0
 11
210.6334694561141
 21
269.5986921544232
 31
0.0
  0
LINE
  5
24725
330
240D4
100
AcDbEntity
  8
30
 62
     0
440
 16777216
370
    -2
100
AcDbLine
 10
354.1333987380066
 20
320.5306946188875
 30
0.0
 11
354.1333987380066
 21
269.5986921544232
 31
0.0
  0
LINE
  5
24726
330
240D4
100
AcDbEntity
  8
30
 62
     0
440
 16777216
370
    -2
100
AcDbLine
 10
212.6334694561141
 20
270.0986921544231
 30
0.0
 11
352.1333987380066
 21
270.0986921544231
 31
0.0
  0
INSERT
  5
24727
330
240D4
100
AcDbEntity
  8
30
 62
     0
440
 16777216
370
    -2
100
AcDbBlockReference
  2
_OPEN
 10
210.6334694561141
 20
270.0986921544231
 30
0.0
 41
2.0
 42
2.0
 43
2.0
 50
180.0
  0
INSERT
  5
24728
330
240D4
100
AcDbEntity
  8
30
 62
     0
440
 16777216
370
    -2
100
AcDbBlockReference
  2
_OPEN
 10
354.1333987380066
 20
270.0986921544231
 30
0.0
 41
2.0
 42
2.0
 43
2.0
  0
MTEXT
  5
24729
330
240D4
100
AcDbEntity
  8
30
 62
     0
440
 16777216
100
AcDbMText
 10
282.3834340970604
 20
275.0986921544231
 30
0.0
 40
6.0
 41
0.0
 46
0.0
 71
     5
 72
     1
  1
\A1;143.5
 73
     1
 44
1.0
 90
        3
 63
     9
421
 13158600
 45
1.25
441
        0
  0
POINT
  5
2472A
330
240D4
100
AcDbEntity
  8
DEFPOINTS
 62
     0
440
 16777216
100
AcDbPoint
 10
210.6334694561141
 20
399.0913457165475
 30
0.0
  0
POINT
  5
2472B
330
240D4
100
AcDbEntity
  8
DEFPOINTS
 62
     0
440
 16777216
100
AcDbPoint
 10
354.1333987380066
 20
321.5306946188875
 30
0.0
  0
POINT
  5
2472C
330
240D4
100
AcDbEntity
  8
DEFPOINTS
 62
     0
440
 16777216
100
AcDbPoint
 10
354.1333987380066
 20
270.0986921544231
 30
0.0
  0
ENDBLK
  5
240D6
330
240D4
100
AcDbEntity
  8
0
100
AcDbBlockEnd
  0
BLOCK
  5
24126
330
24125
100
AcDbEntity
  8
0
100
AcDbBlockBegin
  2
*D36
 70
     1
 10
0.0
 20
0.0
 30
0.0
  3
*D36
  1

  0
LINE
  5
24709
330
24125
100
AcDbEntity
  8
30
 62
     0
440
 16777216
370
    -2
100
AcDbLine
 10
53.29024382837221
 20
377.130639957313
 30
0.0
 11
53.29024382837221
 21
296.8880095783129
 31
0.0
  0
LINE
  5
2470A
330
24125
100
AcDbEntity
  8
30
 62
     0
440
 16777216
370
    -2
100
AcDbLine
 10
137.2902438283722
 20
377.130639957313
 30
0.0
 11
137.2902438283722
 21
296.8880095783129
 31
0.0
  0
LINE
  5
2470B
330
24125
100
AcDbEntity
  8
30
 62
     0
440
 16777216
370
    -2
100
AcDbLine
 10
55.29024382837221
 20
297.3880095783128
 30
0.0
 11
135.2902438283722
 21
297.3880095783128
 31
0.0
  0
INSERT
  5
2470C
330
24125
100
AcDbEntity
  8
30
 62
     0
440
 16777216
370
    -2
100
AcDbBlockReference
  2
_OPEN
 10
53.29024382837221
 20
297.3880095783128
 30
0.0
 41
2.0
 42
2.0
 43
2.0
 50
180.0
  0
INSERT
  5
2470D
330
24125
100
AcDbEntity
  8
30
 62
     0
440
 16777216
370
    -2
100
AcDbBlockReference
  2
_OPEN
 10
137.2902438283722
 20
297.3880095783128
 30
0.0
 41
2.0
 42
2.0
 43
2.0
  0
MTEXT
  5
2470E
330
24125
100
AcDbEntity
  8
30
 62
     0
440
 16777216
100
AcDbMText
 10
95.29024382837221
 20
302.3880095783129
 30
0.0
 40
6.0
 41
0.0
 46
0.0
 71
     5
 72
     1
  1
\A1;84
 73
     1
 44
1.0
  0
POINT
  5
2470F
330
24125
100
AcDbEntity
  8
DEFPOINTS
 62
     0
440
 16777216
100
AcDbPoint
 10
53.29024382837221
 20
380.130639957313
 30
0.0
  0
POINT
  5
24710
330
24125
100
AcDbEntity
  8
DEFPOINTS
 62
     0
440
 16777216
100
AcDbPoint
 10
137.2902438283722
 20
380.130639957313
 30
0.0
  0
POINT
  5
24711
330
24125
100
AcDbEntity
  8
DEFPOINTS
 62
     0
440
 16777216
100
AcDbPoint
 10
137.2902438283722
 20
297.3880095783128
 30
0.0
  0
ENDBLK
  5
24127
330
24125
100
AcDbEntity
  8
0
100
AcDbBlockEnd
  0
BLOCK
  5
24488
330
24487
100
AcDbEntity
  8
0
100
AcDbBlockBegin
  2
*D37
 70
     1
 10
0.0
 20
0.0
 30
0.0
  3
*D37
  1

  0
LINE
  5
2474D
330
24487
100
AcDbEntity
  8
30
 62
     0
440
 16777216
370
    -2
100
AcDbLine
 10
354.1333283017353
 20
359.6475268316817
 30
0.0
 11
354.1333283017353
 21
269.5986921544232
 31
0.0
  0
LINE
  5
2474E
330
24487
100
AcDbEntity
  8
30
 62
     0
440
 16777216
370
    -2
100
AcDbLine
 10
381.1333283020675
 20
330.0353465792452
 30
0.0
 11
381.1333283020675
 21
269.5986921544232
 31
0.0
  0
LINE
  5
2474F
330
24487
100
AcDbEntity
  8
30
 62
     0
440
 16777216
370
    -2
100
AcDbLine
 10
356.1333283017353
 20
270.0986921544231
 30
0.0
 11
379.1333283020675
 21
270.0986921544231
 31
0.0
  0
INSERT
  5
24750
330
24487
100
AcDbEntity
  8
30
 62
     0
440
 16777216
370
    -2
100
AcDbBlockReference
  2
_OPEN
 10
354.1333283017353
 20
270.0986921544231
 30
0.0
 41
2.0
 42
2.0
 43
2.0
 50
180.0
  0
INSERT
  5
24751
330
24487
100
AcDbEntity
  8
30
 62
     0
440
 16777216
370
    -2
100
AcDbBlockReference
  2
_OPEN
 10
381.1333283020675
 20
270.0986921544231
 30
0.0
 41
2.0
 42
2.0
 43
2.0
  0
MTEXT
  5
24752
330
24487
100
AcDbEntity
  8
30
 62
     0
440
 16777216
100
AcDbMText
 10
367.6333283019014
 20
275.0986921544231
 30
0.0
 40
6.0
 41
0.0
 46
0.0
 71
     5
 72
     1
  1
\A1;27
 73
     1
 44
1.0
 90
        3
 63
     9
421
 13158600
 45
1.25
441
        0
  0
POINT
  5
24753
330
24487
100
AcDbEntity
  8
DEFPOINTS
 62
     0
440
 16777216
100
AcDbPoint
 10
354.1333283017353
 20
360.6475268316817
 30
0.0
  0
POINT
  5
24754
330
24487
100
AcDbEntity
  8
DEFPOINTS
 62
     0
440
 16777216
100
AcDbPoint
 10
381.1333283020675
 20
331.0353465792452
 30
0.0
  0
POINT
  5
24755
330
24487
100
AcDbEntity
  8
DEFPOINTS
 62
     0
440
 16777216
100
AcDbPoint
 10
381.1333283020675
 20
270.0986921544231
 30
0.0
  0
ENDBLK
  5
24489
330
24487
100
AcDbEntity
  8
0
100
AcDbBlockEnd
  0
BLOCK
  5
24575
330
24574
100
AcDbEntity
  8
0
100
AcDbBlockBegin
  2
*D38
 70
     1
 10
0.0
 20
0.0
 30
0.0
  3
*D38
  1

  0
LINE
  5
2468D
330
24574
100
AcDbEntity
  8
30
 62
     0
440
 16777216
370
    -2
100
AcDbLine
 10
234.1334663567006
 20
380.2004588396814
 30
0.0
 11
234.1334663567006
 21
297.0078465109627
 31
0.0
  0
LINE
  5
2468E
330
24574
100
AcDbEntity
  8
30
 62
     0
440
 16777216
370
    -2
100
AcDbLine
 10
227.6334663567006
 20
380.2004588396814
 30
0.0
 11
227.6334663567006
 21
297.0078465109627
 31
0.0
  0
LINE
  5
2468F
330
24574
100
AcDbEntity
  8
30
 62
     0
440
 16777216
370
    -2
100
AcDbLine
 10
236.1334663567006
 20
297.5078465109628
 30
0.0
 11
238.1334663567006
 21
297.5078465109628
 31
0.0
  0
LINE
  5
24690
330
24574
100
AcDbEntity
  8
30
 62
     0
440
 16777216
370
    -2
100
AcDbLine
 10
225.6334663567006
 20
297.5078465109628
 30
0.0
 11
207.1275881213548
 21
297.5078465109628
 31
0.0
  0
LINE
  5
24691
330
24574
100
AcDbEntity
  8
30
 62
     0
440
 16777216
370
    -2
100
AcDbLine
 10
234.1334663567006
 20
297.5078465109628
 30
0.0
 11
227.6334663567006
 21
297.5078465109628
 31
0.0
  0
INSERT
  5
24692
330
24574
100
AcDbEntity
  8
30
 62
     0
440
 16777216
370
    -2
100
AcDbBlockReference
  2
_OPEN
 10
234.1334663567006
 20
297.5078465109628
 30
0.0
 41
2.0
 42
2.0
 43
2.0
 50
180.0
  0
INSERT
  5
24693
330
24574
100
AcDbEntity
  8
30
 62
     0
440
 16777216
370
    -2
100
AcDbBlockReference
  2
_OPEN
 10
227.6334663567006
 20
297.5078465109628
 30
0.0
 41
2.0
 42
2.0
 43
2.0
  0
MTEXT
  5
24694
330
24574
100
AcDbEntity
  8
30
 62
     0
440
 16777216
100
AcDbMText
 10
215.1275881213548
 20
302.5078465109627
 30
0.0
 40
6.0
 41
0.0
 46
0.0
 71
     5
 72
     1
  1
\A1;6.5
 73
     1
 44
1.0
 90
        3
 63
     9
421
 13158600
 45
1.25
441
        0
  0
POINT
  5
24695
330
24574
100
AcDbEntity
  8
DEFPOINTS
 62
     0
440
 16777216
100
AcDbPoint
 10
234.1334663567006
 20
381.2004588396814
 30
0.0
  0
POINT
  5
24696
330
24574
100
AcDbEntity
  8
DEFPOINTS
 62
     0
440
 16777216
100
AcDbPoint
 10
227.6334663567006
 20
381.2004588396814
 30
0.0
  0
POINT
  5
24697
330
24574
100
AcDbEntity
  8
DEFPOINTS
 62
     0
440
 16777216
100
AcDbPoint
 10
227.6334663567006
 20
297.5078465109628
 30
0.0
  0
ENDBLK
  5
24576
330
24574
100
AcDbEntity
  8
0
100
AcDbBlockEnd
  0
BLOCK
  5
24740
330
2473F
100
AcDbEntity
  8
0
100
AcDbBlockBegin
  2
*D39
 70
     1
 10
0.0
 20
0.0
 30
0.0
  3
*D39
  1

  0
LINE
  5
24742
330
2473F
100
AcDbEntity
  8
30
 62
     0
440
 16777216
370
    -2
100
AcDbLine
 10
234.1334663567006
 20
380.2004588396814
 30
0.0
 11
234.1334663567006
 21
283.9218118574772
 31
0.0
  0
LINE
  5
24743
330
2473F
100
AcDbEntity
  8
30
 62
     0
440
 16777216
370
    -2
100
AcDbLine
 10
227.6334663567006
 20
380.2004588396814
 30
0.0
 11
227.6334663567006
 21
283.9218118574772
 31
0.0
  0
LINE
  5
24744
330
2473F
100
AcDbEntity
  8
30
 62
     0
440
 16777216
370
    -2
100
AcDbLine
 10
236.1334663567006
 20
284.4218118574772
 30
0.0
 11
238.1334663567006
 21
284.4218118574772
 31
0.0
  0
LINE
  5
24745
330
2473F
100
AcDbEntity
  8
30
 62
     0
440
 16777216
370
    -2
100
AcDbLine
 10
225.6334663567006
 20
284.4218118574772
 30
0.0
 11
207.1275881213548
 21
284.4218118574772
 31
0.0
  0
LINE
  5
24746
330
2473F
100
AcDbEntity
  8
30
 62
     0
440
 16777216
370
    -2
100
AcDbLine
 10
234.1334663567006
 20
284.4218118574772
 30
0.0
 11
227.6334663567006
 21
284.4218118574772
 31
0.0
  0
INSERT
  5
24747
330
2473F
100
AcDbEntity
  8
30
 62
     0
440
 16777216
370
    -2
100
AcDbBlockReference
  2
_OPEN
 10
234.1334663567006
 20
284.4218118574772
 30
0.0
 41
2.0
 42
2.0
 43
2.0
 50
180.0
  0
INSERT
  5
24748
330
2473F
100
AcDbEntity
  8
30
 62
     0
440
 16777216
370
    -2
100
AcDbBlockReference
  2
_OPEN
 10
227.6334663567006
 20
284.4218118574772
 30
0.0
 41
2.0
 42
2.0
 43
2.0
  0
MTEXT
  5
24749
330
2473F
100
AcDbEntity
  8
30
 62
     0
440
 16777216
100
AcDbMText
 10
215.1275881213548
 20
289.4218118574772
 30
0.0
 40
6.0
 41
0.0
 46
0.0
 71
     5
 72
     1
  1
\A1;6.5
 73
     1
 44
1.0
 90
        3
 63
     9
421
 13158600
 45
1.25
441
        0
  0
POINT
  5
2474A
330
2473F
100
AcDbEntity
  8
DEFPOINTS
 62
     0
440
 16777216
100
AcDbPoint
 10
234.1334663567006
 20
381.2004588396814
 30
0.0
  0
POINT
  5
2474B
330
2473F
100
AcDbEntity
  8
DEFPOINTS
 62
     0
440
 16777216
100
AcDbPoint
 10
227.6334663567006
 20
381.2004588396814
 30
0.0
  0
POINT
  5
2474C
330
2473F
100
AcDbEntity
  8
DEFPOINTS
 62
     0
440
 16777216
100
AcDbPoint
 10
227.6334663567006
 20
284.4218118574772
 30
0.0
  0
ENDBLK
  5
24741
330
2473F
100
AcDbEntity
  8
0
100
AcDbBlockEnd
  0
BLOCK
  5
24758
330
24757
100
AcDbEntity
  8
0
100
AcDbBlockBegin
  2
*D40
 70
     1
 10
0.0
 20
0.0
 30
0.0
  3
*D40
  1

  0
LINE
  5
2476C
330
24757
100
AcDbEntity
  8
30
 62
     0
440
 16777216
370
    -2
100
AcDbLine
 10
354.1066986595305
 20
360.4998703895166
 30
0.0
 11
354.1066986595305
 21
297.5954071934052
 31
0.0
  0
LINE
  5
2476D
330
24757
100
AcDbEntity
  8
30
 62
     0
440
 16777216
370
    -2
100
AcDbLine
 10
238.1334589046648
 20
355.1527858515758
 30
0.0
 11
238.1334589046648
 21
297.5954071934052
 31
0.0
  0
LINE
  5
2476E
330
24757
100
AcDbEntity
  8
30
 62
     0
440
 16777216
370
    -2
100
AcDbLine
 10
352.1066986595305
 20
298.0954071934052
 30
0.0
 11
240.1334589046648
 21
298.0954071934052
 31
0.0
  0
INSERT
  5
2476F
330
24757
100
AcDbEntity
  8
30
 62
     0
440
 16777216
370
    -2
100
AcDbBlockReference
  2
_OPEN
 10
354.1066986595305
 20
298.0954071934052
 30
0.0
 41
2.0
 42
2.0
 43
2.0
  0
INSERT
  5
24770
330
24757
100
AcDbEntity
  8
30
 62
     0
440
 16777216
370
    -2
100
AcDbBlockReference
  2
_OPEN
 10
238.1334589046648
 20
298.0954071934052
 30
0.0
 41
2.0
 42
2.0
 43
2.0
 50
180.0
  0
MTEXT
  5
24771
330
24757
100
AcDbEntity
  8
30
 62
     0
440
 16777216
100
AcDbMText
 10
296.1200787820976
 20
303.0954071934052
 30
0.0
 40
6.0
 41
0.0
 46
0.0
 71
     5
 72
     1
  1
\A1;116
 73
     1
 44
1.0
 90
        3
 63
     9
421
 13158600
 45
1.25
441
        0
  0
POINT
  5
24772
330
24757
100
AcDbEntity
  8
DEFPOINTS
 62
     0
440
 16777216
100
AcDbPoint
 10
354.1066986595305
 20
361.4998703895166
 30
0.0
  0
POINT
  5
24773
330
24757
100
AcDbEntity
  8
DEFPOINTS
 62
     0
440
 16777216
100
AcDbPoint
 10
238.1334589046648
 20
356.1527858515758
 30
0.0
  0
POINT
  5
24774
330
24757
100
AcDbEntity
  8
DEFPOINTS
 62
     0
440
 16777216
100
AcDbPoint
 10
238.1334589046648
 20
298.0954071934052
 30
0.0
  0
ENDBLK
  5
24759
330
24757
100
AcDbEntity
  8
0
100
AcDbBlockEnd
  0
BLOCK
  5
24847
330
24846
100
AcDbEntity
  8
0
100
AcDbBlockBegin
  2
*D43
 70
     1
 10
0.0
 20
0.0
 30
0.0
  3
*D43
  1

  0
LINE
  5
24849
330
24846
100
AcDbEntity
  8
24
 62
     0
440
 16777216
370
    -2
100
AcDbLine
 10
60.02835941187292
 20
456.030568303411
 30
0.0
 11
67.02896845346095
 21
456.030568303411
 31
0.0
  0
LINE
  5
2484A
330
24846
100
AcDbEntity
  8
24
 62
     0
440
 16777216
370
    -2
100
AcDbLine
 10
60.02835941187292
 20
455.9307892005988
 30
0.0
 11
67.02896845346095
 21
455.9307892005988
 31
0.0
  0
LINE
  5
2484B
330
24846
100
AcDbEntity
  8
24
 62
     0
440
 16777216
370
    -2
100
AcDbLine
 10
66.52896845346095
 20
458.030568303411
 30
0.0
 11
66.52896845346095
 21
460.030568303411
 31
0.0
  0
LINE
  5
2484C
330
24846
100
AcDbEntity
  8
24
 62
     0
440
 16777216
370
    -2
100
AcDbLine
 10
66.52896845346095
 20
453.9307892005989
 30
0.0
 11
66.52896845346095
 21
443.9307892005989
 31
0.0
  0
INSERT
  5
2484D
330
24846
100
AcDbEntity
  8
24
 62
     0
440
 16777216
370
    -2
100
AcDbBlockReference
  2
_OPEN
 10
66.52896845346095
 20
456.030568303411
 30
0.0
 41
2.0
 42
2.0
 43
2.0
 50
270.0
  0
INSERT
  5
2484E
330
24846
100
AcDbEntity
  8
24
 62
     0
440
 16777216
370
    -2
100
AcDbBlockReference
  2
_OPEN
 10
66.52896845346095
 20
455.9307892005988
 30
0.0
 41
2.0
 42
2.0
 43
2.0
 50
90.0
  0
MTEXT
  5
2484F
330
24846
100
AcDbEntity
  8
24
 62
     0
440
 16777216
100
AcDbMText
 10
61.52896845346088
 20
447.9307892005989
 30
0.0
 40
6.0
 41
0.0
 46
0.0
 71
     5
 72
     1
  1
\A1;.1
 11
0.0000000000000001
 21
1.0
 31
0.0
 73
     1
 44
1.0
 90
        3
 63
     9
421
 13158600
 45
1.25
441
        0
  0
POINT
  5
24850
330
24846
100
AcDbEntity
  8
DEFPOINTS
 62
     0
440
 16777216
100
AcDbPoint
 10
59.02835941187293
 20
456.030568303411
 30
0.0
  0
POINT
  5
24851
330
24846
100
AcDbEntity
  8
DEFPOINTS
 62
     0
440
 16777216
100
AcDbPoint
 10
59.02835941187293
 20
455.9307892005988
 30
0.0
  0
POINT
  5
24852
330
24846
100
AcDbEntity
  8
DEFPOINTS
 62
     0
440
 16777216
100
AcDbPoint
 10
66.52896845346095
 20
455.9307892005988
 30
0.0
  0
ENDBLK
  5
24848
330
24846
100
AcDbEntity
  8
0
100
AcDbBlockEnd
  0
ENDSEC
  0
SECTION
  2
ENTITIES
  0
LINE
  5
140D8
330
1E
100
AcDbEntity
  8
16
100
AcDbLine
 10
95.04187167922777
 20
313.6688678654268
 30
0.0
 11
95.04187167922777
 21
504.7651499610883
 31
0.0
  0
LINE
  5
152AE
330
1E
100
AcDbEntity
  8
16
100
AcDbLine
 10
95.04187167922777
 20
261.4697145142363
 30
0.0
 11
95.04187167922777
 21
68.34498073373243
 31
0.0
  0
LINE
  5
152AF
330
1E
100
AcDbEntity
  8
16
100
AcDbLine
 10
31.14994749692551
 20
161.4697145142366
 30
0.0
 11
152.5418716792275
 21
161.4697145142366
 31
0.0
  0
LINE
  5
1FC2B
330
1E
100
AcDbEntity
  8
24
100
AcDbLine
 10
395.639168742997
 20
592.2264143149048
 30
0.0
 11
395.436706665652
 21
592.7152115174567
 31
0.0
  0
LINE
  5
1FC2C
330
1E
100
AcDbEntity
  8
24
100
AcDbLine
 10
395.436706665652
 20
583.7376176635435
 30
0.0
 11
395.639168742997
 21
584.2264148660956
 31
0.0
  0
LINE
  5
1FC2D
330
1E
100
AcDbEntity
  8
24
100
AcDbLine
 10
395.3968013560615
 20
592.8076136181166
 30
0.0
 11
390.9391711389437
 21
592.8076136181166
 31
0.0
  0
LINE
  5
1FC2E
330
1E
100
AcDbEntity
  8
24
100
AcDbLine
 10
390.9391711389437
 20
583.6452137002392
 30
0.0
 11
395.3968013560615
 21
583.6452137002392
 31
0.0
  0
ARC
  5
1FC2F
330
1E
100
AcDbEntity
  8
24
100
AcDbCircle
 10
389.8141649749431
 20
583.8014075131776
 30
0.0
 40
0.1749934904430388
100
AcDbArc
 50
179.9975085699976
 51
270.0018815922996
  0
ARC
  5
1FC30
330
1E
100
AcDbEntity
  8
24
100
AcDbCircle
 10
389.8141649749431
 20
592.6514198054018
 30
0.0
 40
0.1749934903217181
100
AcDbArc
 50
89.99811839129861
 51
180.0018816087991
  0
LINE
  5
1FC31
330
1E
100
AcDbEntity
  8
24
100
AcDbLine
 10
389.8141707218612
 20
583.6264140226508
 30
0.0
 11
390.7641719019461
 21
583.6264140226508
 31
0.0
  0
LINE
  5
1FC32
330
1E
100
AcDbEntity
  8
24
100
AcDbLine
 10
390.7641719019461
 20
592.8264132954812
 30
0.0
 11
389.8141707218612
 21
592.8264132954812
 31
0.0
  0
ARC
  5
1FC33
330
1E
100
AcDbEntity
  8
24
100
AcDbCircle
 10
390.7641649298864
 20
583.8014202319317
 30
0.0
 40
0.1750062093005818
100
AcDbArc
 50
270.0022826370001
 51
359.9983272006993
  0
ARC
  5
1FC34
330
1E
100
AcDbEntity
  8
24
100
AcDbCircle
 10
390.7641649296626
 20
592.6514070862004
 30
0.0
 40
0.1750062094103553
100
AcDbArc
 50
0.0022826519003381
 51
89.99771734810293
  0
LINE
  5
1FC35
330
1E
100
AcDbEntity
  8
24
100
AcDbLine
 10
395.639168742997
 20
585.7264141807408
 30
0.0
 11
401.9391710794643
 21
585.7264141807408
 31
0.0
  0
LINE
  5
1FC36
330
1E
100
AcDbEntity
  8
24
100
AcDbLine
 10
401.9391710794643
 20
590.7264150002596
 30
0.0
 11
395.639168742997
 21
590.7264150002596
 31
0.0
  0
LINE
  5
1FC37
330
1E
100
AcDbEntity
  8
24
100
AcDbLine
 10
401.9391710794643
 20
585.7264141807408
 30
0.0
 11
402.4391720926263
 21
586.2264133312586
 31
0.0
  0
LINE
  5
1FC38
330
1E
100
AcDbEntity
  8
24
100
AcDbLine
 10
402.4391720926263
 20
590.2264139868732
 30
0.0
 11
401.9391710794643
 21
590.7264150002596
 31
0.0
  0
LINE
  5
1FC39
330
1E
100
AcDbEntity
  8
10
100
AcDbLine
 10
377.4391735827423
 20
530.276416174531
 30
0.0
 11
378.5391735769287
 21
530.276416174531
 31
0.0
  0
LINE
  5
1FC3A
330
1E
100
AcDbEntity
  8
10
100
AcDbLine
 10
378.5391735769287
 20
538.1764157930579
 30
0.0
 11
377.4391735827423
 21
538.1764157930579
 31
0.0
  0
ARC
  5
1FC3B
330
1E
100
AcDbEntity
  8
0
  6
SLD-実線
 62
     7
370
     0
100
AcDbCircle
 10
387.5741577999378
 20
546.2952772489536
 30
0.0
 40
55.25283029826606
100
AcDbArc
 50
87.85813451139731
 51
176.838638528399
  0
LINE
  5
1FC3C
330
1E
100
AcDbEntity
  8
24
100
AcDbLine
 10
390.9391711389437
 20
590.1966824450043
 30
0.0
 11
390.9391711389437
 21
589.8954629221932
 31
0.0
  0
LINE
  5
1FC3D
330
1E
100
AcDbEntity
  8
24
100
AcDbLine
 10
390.9391711389437
 20
586.1167016693298
 30
0.0
 11
390.9391711389437
 21
585.8154821465188
 31
0.0
  0
LINE
  5
1FC3E
330
1E
100
AcDbEntity
  8
24
100
AcDbLine
 10
395.639168742997
 20
591.575090146911
 30
0.0
 11
395.639168742997
 21
588.0060832270837
 31
0.0
  0
LINE
  5
1FC3F
330
1E
100
AcDbEntity
  8
24
100
AcDbLine
 10
395.639168742997
 20
588.0060832270837
 30
0.0
 11
395.639168742997
 21
584.6574067392387
 31
0.0
  0
LINE
  5
1FC40
330
1E
100
AcDbEntity
  8
24
100
AcDbLine
 10
390.9391711389437
 20
590.1966824450043
 30
0.0
 11
390.9391711389437
 21
590.3751331637145
 31
0.0
  0
LINE
  5
1FC41
330
1E
100
AcDbEntity
  8
24
100
AcDbLine
 10
390.9391711389437
 20
592.7750489929755
 30
0.0
 11
390.9391711389437
 21
592.6100484351102
 31
0.0
  0
LINE
  5
1FC42
330
1E
100
AcDbEntity
  8
24
100
AcDbLine
 10
390.9391711389437
 20
590.5401337215801
 30
0.0
 11
390.9391711389437
 21
590.3751331637145
 31
0.0
  0
LINE
  5
1FC43
330
1E
100
AcDbEntity
  8
24
100
AcDbLine
 10
390.9391711389437
 20
585.6480489739626
 30
0.0
 11
390.9391711389437
 21
585.8154821465188
 31
0.0
  0
LINE
  5
1FC44
330
1E
100
AcDbEntity
  8
24
100
AcDbLine
 10
390.9391711389437
 20
585.6480489739626
 30
0.0
 11
390.9391711389437
 21
585.5118300090171
 31
0.0
  0
LINE
  5
1FC45
330
1E
100
AcDbEntity
  8
24
100
AcDbLine
 10
390.9391711389437
 20
583.8029816070392
 30
0.0
 11
390.9391711389437
 21
583.6667626418702
 31
0.0
  0
SPLINE
  5
1FC46
330
1E
100
AcDbEntity
  8
24
100
AcDbSpline
210
0.0
220
0.0
230
1.0
 70
     8
 71
     3
 72
    11
 73
     7
 74
     0
 42
0.000000001
 43
0.0000000001
 40
0.0
 40
0.0
 40
0.0
 40
0.0
 40
0.3934671520995484
 40
0.4174049029749511
 40
0.8045718586716315
 40
1.0
 40
1.0
 40
1.0
 40
1.0
 10
395.4063157475022
 20
592.7860646763481
 30
0.0
 10
395.4051254401063
 20
592.7967712429582
 30
0.0
 10
395.4038627168003
 20
592.8081291755662
 30
0.0
 10
395.3897481501341
 20
592.8020937417095
 30
0.0
 10
395.4031473222175
 20
592.7875172797065
 30
0.0
 10
395.4055198850733
 20
592.7781808455447
 30
0.0
 10
395.4063157475022
 20
592.7750489929357
 30
0.0
  0
LINE
  5
1FC47
330
1E
100
AcDbEntity
  8
24
100
AcDbLine
 10
395.4063157476082
 20
592.7860646762619
 30
0.0
 11
395.4241896904029
 21
592.7100259134347
 31
0.0
  0
LINE
  5
1FC48
330
1E
100
AcDbEntity
  8
24
100
AcDbLine
 10
395.639168742997
 20
592.2264143149048
 30
0.0
 11
395.639168742997
 21
591.575090146911
 31
0.0
  0
SPLINE
  5
1FC49
330
1E
100
AcDbEntity
  8
24
100
AcDbSpline
210
0.0
220
0.0
230
1.0
 70
     8
 71
     3
 72
     9
 73
     5
 74
     0
 42
0.000000001
 43
0.0000000001
 40
0.0
 40
0.0
 40
0.0
 40
0.0
 40
0.9720765363217923
 40
1.0
 40
1.0
 40
1.0
 40
1.0
 10
395.4063157475022
 20
583.6667626419718
 30
0.0
 10
395.4050312319852
 20
583.6558535801477
 30
0.0
 10
395.4037098180135
 20
583.6446311491802
 30
0.0
 10
395.3969890239293
 20
583.6476767549426
 30
0.0
 10
395.39680135608
 20
583.6477617988045
 30
0.0
  0
LINE
  5
1FC4A
330
1E
100
AcDbEntity
  8
24
100
AcDbLine
 10
395.639168742997
 20
584.6574067392387
 30
0.0
 11
395.639168742997
 21
584.2264148660956
 31
0.0
  0
LINE
  5
1FC4B
330
1E
100
AcDbEntity
  8
24
100
AcDbLine
 10
390.9391711389437
 20
592.7750489929755
 30
0.0
 11
390.9391711389437
 21
592.8076136181166
 31
0.0
  0
LINE
  5
1FC4C
330
1E
100
AcDbEntity
  8
24
100
AcDbLine
 10
390.9391711389437
 20
583.6452137002392
 30
0.0
 11
390.9391711389437
 21
583.6667626418702
 31
0.0
  0
LINE
  5
1FC4D
330
1E
100
AcDbEntity
  8
24
100
AcDbLine
 10
390.9391711389437
 20
583.8029816070392
 30
0.0
 11
390.9391711389437
 21
585.5118300090171
 31
0.0
  0
LINE
  5
1FC4E
330
1E
100
AcDbEntity
  8
24
100
AcDbLine
 10
390.9391711389437
 20
586.1167016693298
 30
0.0
 11
390.9391711389437
 21
589.8954629221932
 31
0.0
  0
LINE
  5
1FC4F
330
1E
100
AcDbEntity
  8
24
100
AcDbLine
 10
390.9391711389437
 20
590.5401337215801
 30
0.0
 11
390.9391711389437
 21
592.6100484351102
 31
0.0
  0
LINE
  5
1FC50
330
1E
100
AcDbEntity
  8
24
100
AcDbLine
 10
402.4391720926263
 20
590.2264139868732
 30
0.0
 11
402.4391720926263
 21
586.2264133312586
 31
0.0
  0
LINE
  5
1FC51
330
1E
100
AcDbEntity
  8
24
100
AcDbLine
 10
386.4391731954553
 20
601.4662667432783
 30
0.0
 11
386.4391731954553
 21
575.9264140644652
 31
0.0
  0
LINE
  5
1FC52
330
1E
100
AcDbEntity
  8
24
100
AcDbLine
 10
389.6391714846399
 20
601.5095052564277
 30
0.0
 11
389.6391714846399
 21
575.9264140644652
 31
0.0
  0
ARC
  5
1FC53
330
1E
100
AcDbEntity
  8
24
100
AcDbCircle
 10
390.6391695837585
 20
575.9264101370356
 30
0.0
 40
4.199996388383426
100
AcDbArc
 50
179.9999464213004
 51
270.0000535786996
  0
ARC
  5
1FC54
330
1E
100
AcDbEntity
  8
24
100
AcDbCircle
 10
390.6391660822998
 20
575.9264103608662
 30
0.0
 40
0.999994597662854
100
AcDbArc
 50
179.9997877963977
 51
270.0004256469975
  0
LINE
  5
1FC55
330
1E
100
AcDbEntity
  8
10
100
AcDbLine
 10
338.4391709155608
 20
528.7264122883567
 30
0.0
 11
342.9478990770121
 21
528.805112771156
 31
0.0
  0
LINE
  5
1FC56
330
1E
100
AcDbEntity
  8
10
  6
SLD-実線
 62
     7
370
    30
100
AcDbLine
 10
338.4391709155608
 20
528.7264271895134
 30
0.0
 11
338.4391709155608
 21
530.7264163414536
 31
0.0
  0
LINE
  5
1FC57
330
1E
100
AcDbEntity
  8
10
100
AcDbLine
 10
348.4391706919542
 20
577.7264147321552
 30
0.0
 11
341.652387466119
 21
577.0477338950015
 31
0.0
  0
LINE
  5
1FC58
330
1E
100
AcDbEntity
  8
10
100
AcDbLine
 10
348.4391706919542
 20
577.7264147321552
 30
0.0
 11
348.4391706919542
 21
578.6976277152055
 31
0.0
  0
LINE
  5
1FC59
330
1E
100
AcDbEntity
  8
10
100
AcDbLine
 10
348.4391706919542
 20
584.7552011974669
 30
0.0
 11
348.4391706919542
 21
578.6976277152055
 31
0.0
  0
LINE
  5
1FC5A
330
1E
100
AcDbEntity
  8
13
100
AcDbLine
 10
348.4391706919542
 20
584.7552011974669
 30
0.0
 11
348.4391706919542
 21
585.3116068313283
 31
0.0
  0
LINE
  5
1FC5B
330
1E
100
AcDbEntity
  8
10
100
AcDbLine
 10
366.4391736424456
 20
578.1805499711204
 30
0.0
 11
366.4391736424456
 21
597.3217881540521
 31
0.0
  0
ARC
  5
1FC5C
330
1E
100
AcDbEntity
  8
10
100
AcDbCircle
 10
364.4391681406004
 20
578.1805559646767
 30
0.0
 40
2.000005501803836
100
AcDbArc
 50
271.0000719135972
 51
359.9998283009004
  0
LINE
  5
1FC5D
330
1E
100
AcDbEntity
  8
10
100
AcDbLine
 10
342.9478972143676
 20
575.8051148871467
 30
0.0
 11
364.4740755593732
 21
576.1808551172443
 31
0.0
  0
LINE
  5
1FC5E
330
1E
100
AcDbEntity
  8
10
100
AcDbLine
 10
338.4391709155608
 20
530.7264163414536
 30
0.0
 11
338.4391709155608
 21
571.6007112781071
 31
0.0
  0
LINE
  5
1FC5F
330
1E
100
AcDbEntity
  8
10
100
AcDbLine
 10
343.4391717350797
 20
530.7264163414536
 30
0.0
 11
343.4391717350797
 21
575.8136905053873
 31
0.0
  0
LINE
  5
1FC60
330
1E
100
AcDbEntity
  8
10
100
AcDbLine
 10
343.4391717350797
 20
529.305046729114
 30
0.0
 11
343.4391717350797
 21
530.7264163414536
 31
0.0
  0
SPLINE
  5
1FC61
330
1E
100
AcDbEntity
  8
10
100
AcDbSpline
210
0.0
220
0.0
230
1.0
 70
     8
 71
     3
 72
    11
 73
     7
 74
     0
 42
0.000000001
 43
0.0000000001
 40
0.0
 40
0.0
 40
0.0
 40
0.0
 40
0.2500002021574283
 40
0.5000006753123169
 40
0.7499963964637133
 40
1.0
 40
1.0
 40
1.0
 40
1.0
 10
342.9478990769516
 20
528.8051127711098
 30
0.0
 10
343.0125508687906
 20
528.8135897502496
 30
0.0
 10
343.1418545225503
 20
528.830543717718
 30
0.0
 10
343.3039465703557
 20
528.9465753790822
 30
0.0
 10
343.4171332636367
 20
529.1106682346788
 30
0.0
 10
343.4318255007128
 20
529.2402482496809
 30
0.0
 10
343.4391717350611
 20
529.3050392785828
 30
0.0
  0
LINE
  5
1FC62
330
1E
100
AcDbEntity
  8
10
100
AcDbLine
 10
348.4391706919542
 20
579.1980832138643
 30
0.0
 11
342.9573538637091
 21
578.9107925513267
 31
0.0
  0
LINE
  5
1FC63
330
1E
100
AcDbEntity
  8
13
100
AcDbLine
 10
347.4601588136686
 20
584.3060522595557
 30
0.0
 11
348.4391706919542
 21
584.2547438361632
 31
0.0
  0
LINE
  5
1FC64
330
1E
100
AcDbEntity
  8
10
100
AcDbLine
 10
350.9478966629533
 20
537.8574787893717
 30
0.0
 11
343.4391717350797
 21
537.7264156261353
 31
0.0
  0
LINE
  5
1FC65
330
1E
100
AcDbEntity
  8
10
100
AcDbLine
 10
343.4391717350797
 20
540.2264132420397
 30
0.0
 11
350.9478966629533
 21
540.0953500785798
 31
0.0
  0
LINE
  5
1FC66
330
1E
100
AcDbEntity
  8
10
100
AcDbLine
 10
355.9435333049247
 20
574.9720878223687
 30
0.0
 11
343.4391717350797
 21
574.8629666187658
 31
0.0
  0
ARC
  5
1FC67
330
1E
100
AcDbEntity
  8
10
100
AcDbCircle
 10
350.9392047758899
 20
538.3573937069882
 30
0.0
 40
0.4999664079602952
100
AcDbArc
 50
315.4983478595034
 51
0.0013281828979507
  0
ARC
  5
1FC68
330
1E
100
AcDbEntity
  8
10
100
AcDbCircle
 10
350.9391626928684
 20
538.3574111570383
 30
0.0
 40
0.5000086542669432
100
AcDbArc
 50
271.0008728288025
 51
315.5003017807981
  0
ARC
  5
1FC69
330
1E
100
AcDbEntity
  8
10
100
AcDbCircle
 10
350.9391628142868
 20
539.5954179939994
 30
0.0
 40
0.5000083693687332
100
AcDbArc
 50
0.0006390942001119
 51
88.99914052710128
  0
LINE
  5
1FC6A
330
1E
100
AcDbEntity
  8
10
100
AcDbLine
 10
351.4391711836653
 20
539.5954235711998
 30
0.0
 11
351.4391711836653
 21
538.3574052969752
 31
0.0
  0
ARC
  5
1FC6B
330
1E
100
AcDbEntity
  8
10
100
AcDbCircle
 10
355.9391639752532
 20
575.472080061648
 30
0.0
 40
0.500011330355008
100
AcDbArc
 50
270.5006833174991
 51
315.2498516891033
  0
ARC
  5
1FC6C
330
1E
100
AcDbEntity
  8
10
100
AcDbCircle
 10
355.9391849209484
 20
575.4720641026079
 30
0.0
 40
0.499985219671965
100
AcDbArc
 50
315.2494606632973
 51
0.0006997727006028
  0
LINE
  5
1FC6D
330
1E
100
AcDbEntity
  8
10
100
AcDbLine
 10
356.4355845486422
 20
576.0405420579892
 30
0.0
 11
356.4391701405397
 21
575.980758599386
 31
0.0
  0
LINE
  5
1FC6E
330
1E
100
AcDbEntity
  8
10
100
AcDbLine
 10
356.4391701405397
 20
575.4720702090856
 30
0.0
 11
356.4391701405397
 21
575.980758599386
 31
0.0
  0
ARC
  5
1FC6F
330
1E
100
AcDbEntity
  8
10
100
AcDbCircle
 10
370.3930747503436
 20
573.9576053458952
 30
0.0
 40
2.442398458676375
100
AcDbArc
 50
50.49885440040295
 51
100.571096933903
  0
LINE
  5
1FC70
330
1E
100
AcDbEntity
  8
10
100
AcDbLine
 10
365.3474177157684
 20
576.3986728408197
 30
0.0
 11
369.9450033641621
 21
576.3585514644606
 31
0.0
  0
LINE
  5
1FC71
330
1E
100
AcDbEntity
  8
10
100
AcDbLine
 10
371.9466688966542
 20
575.8421889761104
 30
0.0
 11
371.9466688966542
 21
575.6106398323614
 31
0.0
  0
ARC
  5
1FC72
330
1E
100
AcDbEntity
  8
10
100
AcDbCircle
 10
370.3930769642746
 20
577.495214879877
 30
0.0
 40
2.442390427803428
100
AcDbArc
 50
259.4288150712031
 51
309.5012335945012
  0
LINE
  5
1FC73
330
1E
100
AcDbEntity
  8
10
100
AcDbLine
 10
369.9450033641621
 20
575.0942773440112
 30
0.0
 11
355.9435333049247
 21
574.9720878223687
 31
0.0
  0
LINE
  5
1FC74
330
1E
100
AcDbEntity
  8
10
100
AcDbLine
 10
343.4391717350797
 20
578.9360462943305
 30
0.0
 11
343.4391717350797
 21
579.5592836358255
 31
0.0
  0
LINE
  5
1FC75
330
1E
100
AcDbEntity
  8
10
100
AcDbLine
 10
374.4392494594583
 20
574.1871430792627
 30
0.0
 11
374.4392494594583
 21
576.3193316080684
 31
0.0
  0
LINE
  5
1FC76
330
1E
100
AcDbEntity
  8
10
100
AcDbLine
 10
374.4392494594583
 20
576.3193316080684
 30
0.0
 11
369.9450033641621
 21
576.3585514644606
 31
0.0
  0
LINE
  5
1FC77
330
1E
100
AcDbEntity
  8
10
100
AcDbLine
 10
376.4391715561941
 20
574.195871434581
 30
0.0
 11
376.4391715561941
 21
576.3018786231681
 31
0.0
  0
LINE
  5
1FC78
330
1E
100
AcDbEntity
  8
10
100
AcDbLine
 10
374.4392494594583
 20
576.3193316080684
 30
0.0
 11
376.4391715561941
 21
576.3018786231681
 31
0.0
  0
LINE
  5
1FC79
330
1E
100
AcDbEntity
  8
10
100
AcDbLine
 10
348.4391706919542
 20
579.3242662467862
 30
0.0
 11
348.3125201350237
 21
579.1914484719264
 31
0.0
  0
LINE
  5
1FC7A
330
1E
100
AcDbEntity
  8
10
100
AcDbLine
 10
348.0175479238582
 20
579.1759885171534
 30
0.0
 11
347.4460362381372
 21
579.7475002028741
 31
0.0
  0
ARC
  5
1FC7B
330
1E
100
AcDbEntity
  8
10
100
AcDbCircle
 10
345.2377480577041
 20
581.7415882282946
 30
0.0
 40
2.975386317731365
100
AcDbArc
 50
317.9179093735998
 51
49.4209705396025
  0
LINE
  5
1FC7C
330
1E
100
AcDbEntity
  8
10
100
AcDbLine
 10
378.5391735769287
 20
538.1764157930579
 30
0.0
 11
378.5391735769287
 21
530.276416174531
 31
0.0
  0
LINE
  5
1FC7D
330
1E
100
AcDbEntity
  8
24
100
AcDbLine
 10
379.470116171831
 20
576.734872839661
 30
0.0
 11
379.4478985405792
 21
576.7350665549193
 31
0.0
  0
LINE
  5
1FC7E
330
1E
100
AcDbEntity
  8
10
100
AcDbLine
 10
379.4478985405792
 20
576.7350665549193
 30
0.0
 11
367.9304446017724
 21
576.8355748871665
 31
0.0
  0
ARC
  5
1FC7F
330
1E
100
AcDbEntity
  8
24
100
AcDbCircle
 10
379.461426297676
 20
575.734872544053
 30
0.0
 40
1.000038051997635
100
AcDbArc
 50
0.0020351895997868
 51
89.50211956470218
  0
ARC
  5
1FC80
330
1E
100
AcDbEntity
  8
10
100
AcDbCircle
 10
367.939175825295
 20
577.8355416643405
 30
0.0
 40
1.000004895007277
100
AcDbArc
 50
180.0001148018005
 51
269.4997338291973
  0
LINE
  5
1FC81
330
1E
100
AcDbEntity
  8
10
100
AcDbLine
 10
366.9391709303188
 20
597.5248947064151
 30
0.0
 11
366.9391709303188
 21
577.8355396608238
 31
0.0
  0
ARC
  5
1FC82
330
1E
100
AcDbEntity
  8
10
100
AcDbCircle
 10
367.9391699345976
 20
539.7373269239579
 30
0.0
 40
0.4999979913239975
100
AcDbArc
 50
180.0025148795992
 51
269.7480544091989
  0
ARC
  5
1FC83
330
1E
100
AcDbEntity
  8
10
  6
SLD-実線
370
    30
100
AcDbCircle
 10
386.9391708999082
 20
570.7220678801093
 30
0.0
 40
0.4999977047852543
100
AcDbArc
 50
180.0021168534998
 51
269.4979246435017
  0
LINE
  5
1FC85
330
1E
100
AcDbEntity
  8
10
100
AcDbLine
 10
367.4391719437046
 20
539.7373273291337
 30
0.0
 11
367.4391719437046
 21
539.7373049773989
 31
0.0
  0
LINE
  5
1FC86
330
1E
100
AcDbEntity
  8
10
100
AcDbLine
 10
367.4391719437046
 20
541.7264162817505
 30
0.0
 11
367.4391719437046
 21
539.7373273291337
 31
0.0
  0
LINE
  5
1FC87
330
1E
100
AcDbEntity
  8
10
100
AcDbLine
 10
370.4391742980606
 20
539.2264112152678
 30
0.0
 11
367.9369899367711
 21
539.2373337665493
 31
0.0
  0
LINE
  5
1FC88
330
1E
100
AcDbEntity
  8
10
100
AcDbLine
 10
367.9369899367711
 20
539.2373337665493
 30
0.0
 11
367.9369713103255
 21
539.2373337665493
 31
0.0
  0
LINE
  5
1FC89
330
1E
100
AcDbEntity
  8
24
100
AcDbLine
 10
386.4391731954553
 20
572.2264147618949
 30
0.0
 11
386.4391731954553
 21
570.7220680335033
 31
0.0
  0
LINE
  5
1FC8A
330
1E
100
AcDbEntity
  8
24
100
AcDbLine
 10
386.4391731954553
 20
570.7220494070577
 30
0.0
 11
386.4391731954553
 21
570.7220680335033
 31
0.0
  0
LINE
  5
1FC8B
330
1E
100
AcDbEntity
  8
10
  6
SLD-実線
370
    30
100
AcDbLine
 10
386.9348081684258
 20
570.2220893720757
 30
0.0
 11
386.9347895419803
 21
570.2220893720757
 31
0.0
  0
LINE
  5
1FC8C
330
1E
100
AcDbEntity
  8
10
100
AcDbLine
 10
386.9348081684258
 20
570.2220893720757
 30
0.0
 11
412.9435296093748
 21
569.9951148847094
 31
0.0
  0
LINE
  5
1FC8D
330
1E
100
AcDbEntity
  8
10
100
AcDbLine
 10
412.9435296093748
 20
569.9951148847094
 30
0.0
 11
412.9435519611093
 21
569.9951148847094
 31
0.0
  0
ARC
  5
1FC8E
330
1E
100
AcDbEntity
  8
24
100
AcDbCircle
 10
379.4614044626966
 20
575.7348881529249
 30
0.0
 40
1.000022633546082
100
AcDbArc
 50
0.001140910401975
 51
89.500860822403
  0
LINE
  5
1FC8F
330
1E
100
AcDbEntity
  8
24
100
AcDbLine
 10
386.4391731954553
 20
573.9873334088902
 30
0.0
 11
386.4391731954553
 21
572.2264147618949
 31
0.0
  0
LINE
  5
1FC90
330
1E
100
AcDbEntity
  8
24
100
AcDbLine
 10
386.4391731954553
 20
575.9264140644652
 30
0.0
 11
386.4391731954553
 21
573.9873334088902
 31
0.0
  0
ARC
  5
1FC91
330
1E
100
AcDbEntity
  8
10
100
AcDbCircle
 10
380.4204320690814
 20
567.5285689841196
 30
0.0
 40
0.0211236945490667
100
AcDbArc
 50
274.7800876823975
 51
332.5187850074042
  0
LINE
  5
1FC92
330
1E
100
AcDbEntity
  8
10
100
AcDbLine
 10
380.4391722118093
 20
567.518821291087
 30
0.0
 11
380.4391722118093
 21
567.6995090463621
 31
0.0
  0
ARC
  5
1FC93
330
1E
100
AcDbEntity
  8
24
100
AcDbCircle
 10
379.4391738000883
 20
575.7351062042044
 30
0.0
 40
0.9999984118914916
100
AcDbArc
 50
359.9997465748002
 51
89.50010205619911
  0
LINE
  5
1FC94
330
1E
100
AcDbEntity
  8
10
100
AcDbLine
 10
380.4391722118093
 20
567.6995090463621
 30
0.0
 11
380.4391722118093
 21
575.7351017812617
 31
0.0
  0
ARC
  5
1FC95
330
1E
100
AcDbEntity
  8
10
100
AcDbCircle
 10
412.9531295027051
 20
569.5282249259467
 30
0.0
 40
0.4669881827082432
100
AcDbArc
 50
353.2103515308905
 51
91.17517145386207
  0
LINE
  5
1FC96
330
1E
100
AcDbEntity
  8
10
100
AcDbLine
 10
413.4391720331471
 20
569.4951324977687
 30
0.0
 11
413.4391720331471
 21
569.4951511242146
 31
0.0
  0
ARC
  5
1FC98
330
1E
100
AcDbEntity
  8
10
100
AcDbCircle
 10
412.4391542841346
 20
540.5929965858098
 30
0.0
 40
1.000017749135226
100
AcDbArc
 50
270.5007827885983
 51
359.9991532664981
  0
LINE
  5
1FC9A
330
1E
100
AcDbEntity
  8
10
100
AcDbLine
 10
370.4391742980606
 20
539.2264112152678
 30
0.0
 11
412.4478946364042
 21
539.5930170337567
 31
0.0
  0
LINE
  5
1FC9B
330
1E
100
AcDbEntity
  8
10
100
AcDbLine
 10
382.4391539131713
 20
539.3311365761424
 30
0.0
 11
370.4479175543117
 21
539.226493171852
 31
0.0
  0
LINE
  5
1FC9E
330
1E
100
AcDbEntity
  8
10
100
AcDbLine
 10
380.4391722118093
 20
572.2395054318924
 30
0.0
 11
343.9369897281462
 21
572.3987764933002
 31
0.0
  0
LINE
  5
1FC9F
330
1E
100
AcDbEntity
  8
10
100
AcDbLine
 10
344.4348077214363
 20
574.0562252023021
 30
0.0
 11
380.4391722118093
 21
574.2133244194812
 31
0.0
  0
ARC
  5
1FCA0
330
1E
100
AcDbEntity
  8
10
100
AcDbCircle
 10
344.439173881034
 20
573.0562325880343
 30
0.0
 40
1.000002146035664
100
AcDbArc
 50
90.25016278180066
 51
179.9998989505978
  0
ARC
  5
1FCA1
330
1E
100
AcDbEntity
  8
10
100
AcDbCircle
 10
343.93916790559
 20
572.8987679195451
 30
0.0
 40
0.4999961706341577
100
AcDbArc
 50
179.9997551640997
 51
269.7503965471976
  0
LINE
  5
1FCA3
330
1E
100
AcDbEntity
  8
10
100
AcDbLine
 10
380.4221923386273
 20
567.507518760315
 30
0.0
 11
380.4221923386273
 21
567.4761853436762
 31
0.0
  0
LWPOLYLINE
  5
1FCA4
330
1E
100
AcDbEntity
  8
10
100
AcDbPolyline
 90
        8
 70
   128
 43
0.0
 10
379.9435186123933
 20
567.4697145142362
 10
380.0342741345905
 20
567.4709438600936
 10
380.122015896994
 20
567.4721285024814
 10
380.2038307226164
 20
567.4732349135735
 10
380.2769916987032
 20
567.4742221156383
 10
380.3390773868776
 20
567.4750603059144
 10
380.3880165254946
 20
567.4757234076016
 10
380.4221923386273
 20
567.4761853436762
  0
LWPOLYLINE
  5
1FCA5
330
1E
100
AcDbEntity
  8
10
100
AcDbPolyline
 90
        9
 70
   128
 43
0.0
 10
343.4391717350797
 20
566.9764152982159
 10
343.4487792586307
 20
566.9765456835587
 10
343.4772311634635
 20
566.9769293883383
 10
343.5234359389705
 20
566.9775515118451
 10
343.5856184846622
 20
566.9783934274097
 10
343.6613853013839
 20
566.9794178823657
 10
343.7478288000813
 20
566.9805838980842
 10
343.8416260219641
 20
566.9818542221219
 10
343.9391708855975
 20
566.9831692496289
  0
LINE
  5
1FCA6
330
1E
100
AcDbEntity
  8
10
100
AcDbLine
 10
367.4391719437046
 20
541.7264162817505
 30
0.0
 11
344.4348077214363
 21
541.8267905035897
 31
0.0
  0
LINE
  5
1FCA7
330
1E
100
AcDbEntity
  8
10
100
AcDbLine
 10
379.9435186123933
 20
567.4697145142362
 30
0.0
 11
343.9391708855975
 21
566.9831692496289
 31
0.0
  0
ARC
  5
1FCA8
330
1E
100
AcDbEntity
  8
10
100
AcDbCircle
 10
344.4391640763235
 20
542.8267733558556
 30
0.0
 40
0.9999923412683315
100
AcDbArc
 50
179.9997551640997
 51
269.7503965471976
  0
LINE
  5
1FCA9
330
1E
100
AcDbEntity
  8
10
100
AcDbLine
 10
370.4391742980606
 20
529.226405850941
 30
0.0
 11
370.4391742980606
 21
535.528337887844
 31
0.0
  0
LINE
  5
1FCAA
330
1E
100
AcDbEntity
  8
10
100
AcDbLine
 10
370.4391742980606
 20
535.528337887844
 30
0.0
 11
368.4348079300611
 21
535.5259909550267
 31
0.0
  0
LINE
  5
1FCAB
330
1E
100
AcDbEntity
  8
10
100
AcDbLine
 10
370.4391742980606
 20
529.226376048628
 30
0.0
 11
370.4391742980606
 21
529.226405850941
 31
0.0
  0
ARC
  5
1FCAC
330
1E
100
AcDbEntity
  8
10
100
AcDbCircle
 10
255.5353902743679
 20
528.7263936619113
 30
0.0
 40
114.9048718086132
100
AcDbArc
 50
359.7506896745007
 51
0.2493103254994246
  0
LINE
  5
1FCAD
330
1E
100
AcDbEntity
  8
10
100
AcDbLine
 10
370.4391742980606
 20
528.2264112749706
 30
0.0
 11
368.4348079300611
 21
528.2351582565111
 31
0.0
  0
LINE
  5
1FCAE
330
1E
100
AcDbEntity
  8
10
100
AcDbLine
 10
376.9435348844829
 20
528.2831772484914
 30
0.0
 11
370.4391742980606
 21
528.2264112749706
 31
0.0
  0
LINE
  5
1FCAF
330
1E
100
AcDbEntity
  8
10
100
AcDbLine
 10
376.9435348844829
 20
535.5131312527311
 30
0.0
 11
370.4391742980606
 21
535.528337887844
 31
0.0
  0
LINE
  5
1FCB0
330
1E
100
AcDbEntity
  8
10
100
AcDbLine
 10
370.4391742980606
 20
535.528337887844
 30
0.0
 11
370.4391742980606
 21
538.1264149465944
 31
0.0
  0
LINE
  5
1FCB1
330
1E
100
AcDbEntity
  8
10
100
AcDbLine
 10
376.9435348844829
 20
538.111208311705
 30
0.0
 11
370.4391742980606
 21
538.1264149465944
 31
0.0
  0
LINE
  5
1FCB2
330
1E
100
AcDbEntity
  8
10
100
AcDbLine
 10
370.4391742980606
 20
538.1264149465944
 30
0.0
 11
368.4348079300611
 21
538.1240680137771
 31
0.0
  0
ARC
  5
1FCB3
330
1E
100
AcDbEntity
  8
10
100
AcDbCircle
 10
368.4391770710086
 20
529.2351538391591
 30
0.0
 40
1.00000512731618
100
AcDbArc
 50
180.0000576762979
 51
269.7496671483999
  0
ARC
  5
1FCB4
330
1E
100
AcDbEntity
  8
10
100
AcDbCircle
 10
368.204732348797
 20
534.3971359886693
 30
0.0
 40
1.152062631962254
100
AcDbArc
 50
78.48014336489808
 51
131.6449622381016
  0
ARC
  5
1FCB5
330
1E
100
AcDbEntity
  8
10
100
AcDbCircle
 10
368.204732348797
 20
536.9952130474196
 30
0.0
 40
1.152062631962383
100
AcDbArc
 50
78.48014336489808
 51
131.6449622381016
  0
LINE
  5
1FCB6
330
1E
100
AcDbEntity
  8
10
100
AcDbLine
 10
367.4391719437046
 20
535.2580457249338
 30
0.0
 11
367.4391719437046
 21
537.8561227836843
 31
0.0
  0
LINE
  5
1FCB7
330
1E
100
AcDbEntity
  8
10
100
AcDbLine
 10
367.4391719437046
 20
529.2351528324814
 30
0.0
 11
367.4391719437046
 21
535.2580457249338
 31
0.0
  0
LINE
  5
1FCB8
330
1E
100
AcDbEntity
  8
10
100
AcDbLine
 10
377.4391735827423
 20
537.9772319712578
 30
0.0
 11
377.4391735827423
 21
535.3791623630857
 31
0.0
  0
ARC
  5
1FCB9
330
1E
100
AcDbEntity
  8
10
100
AcDbCircle
 10
377.0575671338278
 20
534.9511806693441
 30
0.0
 40
0.5734037078780087
100
AcDbArc
 50
48.27846360959743
 51
101.4708318101989
  0
ARC
  5
1FCBA
330
1E
100
AcDbEntity
  8
10
100
AcDbCircle
 10
377.0575674627533
 20
537.5492827454459
 30
0.0
 40
0.5733792557126725
100
AcDbArc
 50
48.27632895930103
 51
101.4713611758989
  0
LINE
  5
1FCBB
330
1E
100
AcDbEntity
  8
10
100
AcDbLine
 10
377.4391735827423
 20
529.2831420221482
 30
0.0
 11
377.4391735827423
 21
528.7831559101426
 31
0.0
  0
ARC
  5
1FCBC
330
1E
100
AcDbEntity
  8
10
100
AcDbCircle
 10
376.9391711914916
 20
528.7831605978351
 30
0.0
 40
0.5000023913092483
100
AcDbArc
 50
270.5000463344009
 51
359.9994628335001
  0
LINE
  5
1FCBD
330
1E
100
AcDbEntity
  8
10
100
AcDbLine
 10
377.4391735827423
 20
535.3791623630857
 30
0.0
 11
377.4391735827423
 21
529.2831420221482
 31
0.0
  0
LINE
  5
1FCBE
330
1E
100
AcDbEntity
  8
10
100
AcDbLine
 10
370.4391742980606
 20
538.1264149465944
 30
0.0
 11
370.4391742980606
 21
539.2264112152678
 31
0.0
  0
LINE
  5
1FCBF
330
1E
100
AcDbEntity
  8
10
100
AcDbLine
 10
367.4391719437046
 20
537.8561227836843
 30
0.0
 11
367.4391719437046
 21
539.7373273291337
 31
0.0
  0
LINE
  5
1FCC0
330
1E
100
AcDbEntity
  8
10
100
AcDbLine
 10
377.4391735827423
 20
539.287520877469
 30
0.0
 11
377.4391735827423
 21
537.9772319712578
 31
0.0
  0
LINE
  5
1FCC1
330
1E
100
AcDbEntity
  8
0
  6
SLD-実線
 62
     7
370
    30
100
AcDbLine
 10
366.4391736424456
 20
584.1522368856316
 30
0.0
 11
366.9391709303188
 21
584.1544180433062
 31
0.0
  0
LINE
  5
1FCC2
330
1E
100
AcDbEntity
  8
10
100
AcDbLine
 10
345.9391712136286
 20
579.0670647540974
 30
0.0
 11
345.9391712136286
 21
582.6362430372244
 31
0.0
  0
LINE
  5
1FCC3
330
1E
100
AcDbEntity
  8
0
  6
SLD-実線
 62
     7
370
    30
100
AcDbLine
 10
366.9391709303188
 20
584.1871428558795
 30
0.0
 11
366.4391736424456
 21
584.1915070334269
 31
0.0
  0
LINE
  5
1FCC4
330
1E
100
AcDbEntity
  8
10
100
AcDbLine
 10
345.9391469990257
 20
582.6362169602004
 30
0.0
 11
345.9391469990257
 21
579.0670647540974
 31
0.0
  0
LINE
  5
1FCC5
330
1E
100
AcDbEntity
  8
0
  6
SLD-実線
 62
     7
370
    30
100
AcDbLine
 10
366.9391709303188
 20
594.8616865345152
 30
0.0
 11
366.4391736424456
 21
594.8354828425618
 31
0.0
  0
LINE
  5
1FCC6
330
1E
100
AcDbEntity
  8
10
100
AcDbLine
 10
338.039171595102
 20
570.8083345809678
 30
0.0
 11
338.039171595102
 21
569.8917492548114
 31
0.0
  0
LINE
  5
1FCC7
330
1E
100
AcDbEntity
  8
10
100
AcDbLine
 10
338.039171595102
 20
565.561095557422
 30
0.0
 11
338.039171595102
 21
563.3264131168195
 31
0.0
  0
LINE
  5
1FCC9
330
1E
100
AcDbEntity
  8
10
100
AcDbLine
 10
338.039171595102
 20
569.8917492548114
 30
0.0
 11
338.039171595102
 21
565.561095557422
 31
0.0
  0
LINE
  5
1FCCA
330
1E
100
AcDbEntity
  8
24
100
AcDbLine
 10
395.4063157476082
 20
592.7750489929755
 30
0.0
 11
390.9391711389437
 21
592.7750489929755
 31
0.0
  0
LINE
  5
1FCCB
330
1E
100
AcDbEntity
  8
24
100
AcDbLine
 10
390.9391711389437
 20
583.6667626418702
 30
0.0
 11
395.4063157476082
 21
583.6667626418702
 31
0.0
  0
LINE
  5
1FCCC
330
1E
100
AcDbEntity
  8
10
100
AcDbLine
 10
354.0120503789723
 20
575.9982413868227
 30
0.0
 11
356.0151985769818
 21
575.980758599386
 31
0.0
  0
LWPOLYLINE
  5
1FCCD
330
1E
100
AcDbEntity
  8
10
100
AcDbPolyline
 90
        3
 70
   128
 43
0.0
 10
356.0151985769818
 20
575.980758599386
 10
356.0152507310296
 20
576.0297238150265
 10
356.0152265166504
 20
576.0332069614727
  0
LINE
  5
1FCCE
330
1E
100
AcDbEntity
  8
10
100
AcDbLine
 10
356.0151985769818
 20
575.980758599386
 30
0.0
 11
356.4391701405397
 21
575.980758599386
 31
0.0
  0
LINE
  5
1FCCF
330
1E
100
AcDbEntity
  8
24
100
AcDbLine
 10
380.4614643490672
 20
575.734908066004
 30
0.0
 11
380.4614270961758
 21
575.734908066004
 31
0.0
  0
LINE
  5
1FCD4
330
1E
100
AcDbEntity
  8
10
100
AcDbLine
 10
413.4168426429979
 20
569.4730154493234
 30
0.0
 11
413.4391720331604
 21
540.5929818072602
 31
0.0
  0
LINE
  5
1FCD6
330
1E
100
AcDbEntity
  8
10
100
AcDbLine
 10
412.4478946364042
 20
539.5930170337567
 30
0.0
 11
412.4478052294653
 21
539.6035298027876
 31
0.0
  0
LINE
  5
1FCD9
330
1E
100
AcDbEntity
  8
24
370
    15
100
AcDbLine
 10
391.6391713752961
 20
554.3289141956611
 30
0.0
 11
391.6391713752961
 21
551.2264141954989
 31
0.0
  0
LINE
  5
1FCDA
330
1E
100
AcDbEntity
  8
24
  6
Continuous
100
AcDbLine
 10
388.1423621395415
 20
563.2264141954989
 30
0.0
 11
391.6391713752961
 21
563.2264141954989
 31
0.0
  0
LINE
  5
1FCDB
330
1E
100
AcDbEntity
  8
24
  6
Continuous
100
AcDbLine
 10
391.6391713752961
 20
563.2264141954989
 30
0.0
 11
391.6391713752961
 21
560.1239141955606
 31
0.0
  0
LINE
  5
1FCDC
330
1E
100
AcDbEntity
  8
24
370
    15
100
AcDbLine
 10
389.2486518711839
 20
551.2264141954989
 30
0.0
 11
391.6391713752961
 21
551.2264141954989
 31
0.0
  0
LINE
  5
1FCDD
330
1E
100
AcDbEntity
  8
17
100
AcDbLine
 10
377.8385793740838
 20
557.2264141954989
 30
0.0
 11
416.0635539822465
 21
557.2264141954989
 31
0.0
  0
LINE
  5
1FCDE
330
1E
100
AcDbEntity
  8
24
  6
Continuous
100
AcDbLine
 10
391.6391713752961
 20
560.1239141955606
 30
0.0
 11
411.6391713752959
 21
560.1239141955606
 31
0.0
  0
LINE
  5
1FCDF
330
1E
100
AcDbEntity
  8
24
  6
Continuous
100
AcDbLine
 10
411.6391713752959
 20
560.1239141955606
 30
0.0
 11
411.6391713752959
 21
554.3289141956611
 31
0.0
  0
LINE
  5
1FCE0
330
1E
100
AcDbEntity
  8
24
  6
Continuous
100
AcDbLine
 10
391.6391713752961
 20
554.3289141956611
 30
0.0
 11
411.6391713752959
 21
554.3289141956611
 31
0.0
  0
LINE
  5
1FCE1
330
1E
100
AcDbEntity
  8
24
100
AcDbLine
 10
401.4391713752961
 20
574.9264141954987
 30
0.0
 11
390.6391713752961
 21
574.9264141954987
 31
0.0
  0
LINE
  5
1FCE2
330
1E
100
AcDbEntity
  8
24
100
AcDbLine
 10
401.4391713752961
 20
571.7264141954989
 30
0.0
 11
390.6391713752961
 21
571.7264141954989
 31
0.0
  0
LINE
  5
1FCE3
330
1E
100
AcDbEntity
  8
24
100
AcDbLine
 10
401.4391713752961
 20
574.9264141954987
 30
0.0
 11
401.4391713752961
 21
571.7264141954989
 31
0.0
  0
LINE
  5
1FCE4
330
1E
100
AcDbEntity
  8
10
100
AcDbLine
 10
390.1650824876035
 20
568.2487057860383
 30
0.0
 11
413.4391332975194
 21
568.2487057860383
 31
0.0
  0
LINE
  5
1FCE5
330
1E
100
AcDbEntity
  8
24
  6
Continuous
100
AcDbLine
 10
391.6391713752961
 20
566.7915453831093
 30
0.0
 11
391.6391713752961
 21
544.3109172481131
 31
0.0
  0
LINE
  5
1FCE6
330
1E
100
AcDbEntity
  8
24
  6
Continuous
100
AcDbLine
 10
391.6391713752961
 20
566.7915453831093
 30
0.0
 11
394.6391713752961
 21
566.7915453831093
 31
0.0
  0
LINE
  5
1FCE7
330
1E
100
AcDbEntity
  8
24
  6
Continuous
100
AcDbLine
 10
394.6391713752961
 20
566.7915453831093
 30
0.0
 11
394.6391713752961
 21
544.3109172481131
 31
0.0
  0
LINE
  5
1FCE8
330
1E
100
AcDbEntity
  8
24
  6
Continuous
100
AcDbLine
 10
391.6391713752961
 20
544.3109172481131
 30
0.0
 11
394.6391713752961
 21
544.3109172481131
 31
0.0
  0
LINE
  5
1FCE9
330
1E
100
AcDbEntity
  8
24
  6
Continuous
100
AcDbLine
 10
394.6391713752961
 20
562.2264141954989
 30
0.0
 11
394.6391713752961
 21
552.2264141954989
 31
0.0
  0
LINE
  5
1FCEA
330
1E
100
AcDbEntity
  8
24
  6
Continuous
100
AcDbLine
 10
394.6391713752961
 20
562.2264141954989
 30
0.0
 11
395.9391713752961
 21
562.2264141954989
 31
0.0
  0
LINE
  5
1FCEB
330
1E
100
AcDbEntity
  8
24
  6
Continuous
100
AcDbLine
 10
395.9391713752961
 20
562.2264141954989
 30
0.0
 11
395.9391713752961
 21
552.2264141954989
 31
0.0
  0
LINE
  5
1FCEC
330
1E
100
AcDbEntity
  8
24
  6
Continuous
100
AcDbLine
 10
394.6391713752961
 20
552.2264141954989
 30
0.0
 11
395.9391713752961
 21
552.2264141954989
 31
0.0
  0
LINE
  5
1FCED
330
1E
100
AcDbEntity
  8
24
  6
Continuous
100
AcDbLine
 10
395.9391713752961
 20
561.8264141954988
 30
0.0
 11
395.9391713752961
 21
552.6264141954991
 31
0.0
  0
LINE
  5
1FCEE
330
1E
100
AcDbEntity
  8
24
  6
Continuous
100
AcDbLine
 10
395.9391713752961
 20
561.8264141954988
 30
0.0
 11
396.9391713752961
 21
561.8264141954988
 31
0.0
  0
LINE
  5
1FCEF
330
1E
100
AcDbEntity
  8
24
  6
Continuous
100
AcDbLine
 10
396.9391713752961
 20
561.8264141954988
 30
0.0
 11
396.9391713752961
 21
552.6264141954991
 31
0.0
  0
LINE
  5
1FCF0
330
1E
100
AcDbEntity
  8
24
  6
Continuous
100
AcDbLine
 10
395.9391713752961
 20
552.6264141954991
 30
0.0
 11
396.9391713752961
 21
552.6264141954991
 31
0.0
  0
LINE
  5
1FCF1
330
1E
100
AcDbEntity
  8
24
  6
Continuous
100
AcDbLine
 10
396.9391713752961
 20
561.2264141954989
 30
0.0
 11
396.9391713752961
 21
553.2264141954989
 31
0.0
  0
LINE
  5
1FCF2
330
1E
100
AcDbEntity
  8
24
  6
Continuous
100
AcDbLine
 10
396.9391713752961
 20
561.2264141954989
 30
0.0
 11
401.6391713752961
 21
561.2264141954989
 31
0.0
  0
LINE
  5
1FCF3
330
1E
100
AcDbEntity
  8
24
  6
Continuous
100
AcDbLine
 10
401.6391713752961
 20
561.2264141954989
 30
0.0
 11
401.6391713752961
 21
553.2264141954989
 31
0.0
  0
LINE
  5
1FCF4
330
1E
100
AcDbEntity
  8
24
  6
Continuous
100
AcDbLine
 10
396.9391713752961
 20
553.2264141954989
 30
0.0
 11
401.6391713752961
 21
553.2264141954989
 31
0.0
  0
LINE
  5
1FCF5
330
1E
100
AcDbEntity
  8
24
100
AcDbLine
 10
380.9956968170052
 20
583.4764141956107
 30
0.0
 11
382.2391713752963
 21
583.4764141956107
 31
0.0
  0
LINE
  5
1FCF6
330
1E
100
AcDbEntity
  8
24
100
AcDbLine
 10
382.2391713752963
 20
592.9764141956106
 30
0.0
 11
380.9956968170052
 21
592.9764141956106
 31
0.0
  0
LINE
  5
1FCF7
330
1E
100
AcDbEntity
  8
24
100
AcDbLine
 10
382.4391713752963
 20
593.2264141954987
 30
0.0
 11
382.4391713752963
 21
583.2264141954986
 31
0.0
  0
LINE
  5
1FCF8
330
1E
100
AcDbEntity
  8
24
100
AcDbLine
 10
395.6059030868675
 20
590.7264141954986
 30
0.0
 11
383.4391713752961
 21
590.7264141954986
 31
0.0
  0
LINE
  5
1FCF9
330
1E
100
AcDbEntity
  8
24
100
AcDbLine
 10
383.4391713752961
 20
585.7264141954987
 30
0.0
 11
395.802709097765
 21
585.7264141954987
 31
0.0
  0
LINE
  5
1FCFA
330
1E
100
AcDbEntity
  8
24
100
AcDbLine
 10
383.4391713752961
 20
593.2264141954987
 30
0.0
 11
382.4391713752963
 21
593.2264141954987
 31
0.0
  0
LINE
  5
1FCFB
330
1E
100
AcDbEntity
  8
24
100
AcDbLine
 10
382.4391713752963
 20
583.2264141954986
 30
0.0
 11
383.4391713752961
 21
583.2264141954986
 31
0.0
  0
LINE
  5
1FCFC
330
1E
100
AcDbEntity
  8
24
100
AcDbLine
 10
383.4391713752961
 20
583.2264141954986
 30
0.0
 11
383.4391713752961
 21
593.2264141954987
 31
0.0
  0
ARC
  5
1FCFD
330
1E
100
AcDbEntity
  8
24
100
AcDbCircle
 10
380.9956968170052
 20
591.6764141956106
 30
0.0
 40
1.299999999999745
100
AcDbArc
 50
90.0
 51
149.007533046399
  0
ARC
  5
1FCFE
330
1E
100
AcDbEntity
  8
24
100
AcDbCircle
 10
386.7391713752963
 20
588.2264141954987
 30
0.0
 40
7.99999999999849
100
AcDbArc
 50
149.007533046399
 51
182.2482051777013
  0
ARC
  5
1FCFF
330
1E
100
AcDbEntity
  8
24
100
AcDbCircle
 10
380.9956968170052
 20
584.7764141956106
 30
0.0
 40
1.29999999999974
100
AcDbArc
 50
210.9924669536009
 51
270.0
  0
ARC
  5
1FD00
330
1E
100
AcDbEntity
  8
24
100
AcDbCircle
 10
386.7391713752963
 20
588.2264141954987
 30
0.0
 40
7.99999999999849
100
AcDbArc
 50
182.2482051777013
 51
210.9924669536009
  0
ARC
  5
1FD01
330
1E
100
AcDbEntity
  8
24
100
AcDbCircle
 10
382.2391713752963
 20
592.7764141956106
 30
0.0
 40
0.1999999999999457
100
AcDbArc
 50
0.0
 51
90.0
  0
ARC
  5
1FD02
330
1E
100
AcDbEntity
  8
24
100
AcDbCircle
 10
382.2391713752963
 20
583.6764141956107
 30
0.0
 40
0.1999999999999616
100
AcDbArc
 50
270.0
 51
0.0
  0
SPLINE
  5
1FD03
330
1E
100
AcDbEntity
  8
10
100
AcDbSpline
210
0.0
220
0.0
230
1.0
 70
     8
 71
     3
 72
     8
 73
     4
 74
     0
 42
0.000000001
 43
0.0000000001
 40
0.0
 40
0.0
 40
0.0
 40
0.0
 40
1.0
 40
1.0
 40
1.0
 40
1.0
 10
391.6526295998751
 20
570.1542609955436
 30
0.0
 10
381.499284025315
 20
558.9288478775728
 30
0.0
 10
396.5752556447416
 20
547.1278681704583
 30
0.0
 10
384.8450842002682
 20
539.3521326922405
 30
0.0
  0
DIMENSION
  5
1FD04
330
1E
100
AcDbEntity
  8
30
100
AcDbDimension
280
     0
  2
*D8
 10
391.6391713752961
 20
512.5739388957257
 30
0.0
 11
401.6391713752961
 21
512.5739388957257
 31
0.0
 70
   160
  1
<>
 71
     2
 42
19.99999999999977
 73
     0
 74
     0
 75
     0
  3
STANDARD1
100
AcDbAlignedDimension
 13
411.6391713752959
 23
554.3289141956611
 33
0.0
 14
391.6391713752961
 24
551.2264141957226
 34
0.0
100
AcDbRotatedDimension
  0
DIMENSION
  5
1FD05
330
1E
100
AcDbEntity
  8
30
100
AcDbDimension
280
     0
  2
*D9
 10
391.6391713752961
 20
512.5739388957257
 30
0.0
 11
374.4391713752961
 21
512.5739388957257
 31
0.0
 70
   160
  1
<>
 71
     2
 42
5.200000000000041
 73
     0
 74
     0
 75
     0
  3
STANDARD1
100
AcDbAlignedDimension
 13
386.4391713752961
 23
570.7220698008915
 33
0.0
 14
391.6391713752961
 24
551.2264141957226
 34
0.0
100
AcDbRotatedDimension
  0
DIMENSION
  5
1FD06
330
1E
100
AcDbEntity
  8
30
100
AcDbDimension
280
     0
  2
*D10
 10
391.6391713752961
 20
501.393599395728
 30
0.0
 11
379.5391713752962
 21
501.393599395728
 31
0.0
 70
   160
  1
<>
 71
     2
 42
24.19999999999976
 73
     0
 74
     0
 75
     0
  3
STANDARD1
100
AcDbAlignedDimension
 13
367.4391713752963
 23
529.2351504166336
 33
0.0
 14
391.6391713752961
 24
560.1239141955606
 34
0.0
100
AcDbRotatedDimension
  0
DIMENSION
  5
1FD07
330
1E
100
AcDbEntity
  8
30
100
AcDbDimension
280
     0
  2
*D11
 10
386.4391713752961
 20
610.7596785812209
 30
0.0
 11
394.4391713752961
 21
610.7596785812209
 31
0.0
 70
   160
  1
<>
 71
     2
 42
16.0
 73
     0
 74
     0
 75
     0
  3
STANDARD1
100
AcDbAlignedDimension
 13
402.4391713752961
 23
590.2264141954987
 33
0.0
 14
386.4391713752961
 24
572.2264141954989
 34
0.0
100
AcDbRotatedDimension
  0
LEADER
  5
1FD09
330
1E
100
AcDbEntity
  8
30
  6
Continuous
100
AcDbLeader
  3
STANDARD
 76
     2
 10
399.8618010020584
 20
587.0396012337619
 30
0.0
 10
418.6424277838042
 20
571.1490181593571
 30
0.0
  0
LEADER
  5
1FD0B
330
1E
100
AcDbEntity
  8
30
  6
Continuous
100
AcDbLeader
  3
STANDARD
 76
     2
 10
407.0056225249681
 20
556.1682646408781
 30
0.0
 10
418.6424277838042
 20
542.8507577300701
 30
0.0
  0
LINE
  5
1FD0C
330
1E
100
AcDbEntity
  8
17
100
AcDbLine
 10
406.4113075768926
 20
588.2264136590661
 30
0.0
 11
371.2056453263763
 21
588.2264136590661
 31
0.0
  0
LINE
  5
1FDBA
330
1E
100
AcDbEntity
  8
30
100
AcDbLine
 10
486.4723587316698
 20
571.1490181593571
 30
0.0
 11
418.6424277838042
 21
571.1490181593571
 31
0.0
  0
MTEXT
  5
1FDBB
330
1E
100
AcDbEntity
  8
30
  6
Continuous
100
AcDbMText
 10
419.6899734603601
 20
580.0761779288749
 30
0.0
 40
5.0
 41
70.74860822312405
 46
0.0
 71
     1
 72
     5
  1
M5 Mounting screw 
  7
blockfont
 73
     1
 44
1.0
  0
LINE
  5
1FDBC
330
1E
100
AcDbEntity
  8
30
100
AcDbLine
 10
456.1296220727093
 20
542.8507577300701
 30
0.0
 11
418.6424277838042
 21
542.8507577300701
 31
0.0
  0
MTEXT
  5
1FDBD
330
1E
100
AcDbEntity
  8
30
  6
Continuous
100
AcDbMText
 10
419.6899734603601
 20
551.7282951333312
 30
0.0
 40
5.0
 41
100.0
 46
0.0
 71
     1
 72
     5
  1
M6 Screw
  7
blockfont
 73
     1
 44
1.0
  0
LINE
  5
1FE0E
330
1E
100
AcDbEntity
  8
24
100
AcDbLine
 10
471.2852291395533
 20
449.8202745852299
 30
0.0
 11
471.2852291395533
 21
469.6834390974565
 31
0.0
  0
LINE
  5
1FE0F
330
1E
100
AcDbEntity
  8
24
100
AcDbLine
 10
471.2852291395533
 20
469.6834390974565
 30
0.0
 11
486.2852291395532
 21
469.6834390974565
 31
0.0
  0
LINE
  5
1FE10
330
1E
100
AcDbEntity
  8
24
100
AcDbLine
 10
486.2852291395532
 20
448.0425716780612
 30
0.0
 11
486.2852291395532
 21
469.6834390974565
 31
0.0
  0
CIRCLE
  5
1FE11
330
1E
100
AcDbEntity
  8
24
100
AcDbCircle
 10
478.7852291395532
 20
459.6834390974565
 30
0.0
 40
3.249999999999341
  0
SPLINE
  5
1FE12
330
1E
100
AcDbEntity
  8
24
100
AcDbSpline
210
0.0
220
0.0
230
1.0
 70
     8
 71
     3
 72
     8
 73
     4
 74
     0
 42
0.000000001
 43
0.0000000001
 40
0.0
 40
0.0
 40
0.0
 40
0.0
 40
1.0
 40
1.0
 40
1.0
 40
1.0
 10
471.2852291395098
 20
449.8202745851918
 30
0.0
 10
476.9175079075266
 20
452.8958054261596
 30
0.0
 10
483.5156406135448
 20
445.9072822119235
 30
0.0
 10
486.285229139507
 20
448.0425716780684
 30
0.0
  0
DIMENSION
  5
1FE13
330
1E
100
AcDbEntity
  8
30
  6
Continuous
100
AcDbDimension
280
     0
  2
*D12
 10
466.9698142875049
 20
469.6834390974565
 30
0.0
 11
466.9698142875049
 21
487.9418155642228
 31
0.0
 70
   160
  1
<>\P(MAX.)
 71
     2
 42
9.999999999999943
 73
     0
 74
     0
 75
     0
  3
STANDARD
100
AcDbAlignedDimension
 13
478.7852291395532
 23
459.6834390974565
 33
0.0
 14
471.2852291395533
 24
469.6834390974565
 34
0.0
 50
90.0
100
AcDbRotatedDimension
1001
ACAD
1000
DSTYLE
1002
{
1070
   140
1040
6.0
1002
}
  0
DIMENSION
  5
1FE14
330
1E
100
AcDbEntity
  8
30
100
AcDbDimension
280
     0
  2
*D13
 10
486.2852291395532
 20
437.5512135695536
 30
0.0
 11
504.3725639843327
 21
437.5512135695536
 31
0.0
 70
   160
  1
<>\P(MAX.)
 71
     2
 42
15.0
 73
     0
 74
     0
 75
     0
  3
STANDARD
100
AcDbAlignedDimension
 13
471.2852291395533
 23
449.8202745852299
 33
0.0
 14
486.2852291395532
 24
448.0425716780612
 34
0.0
100
AcDbRotatedDimension
  0
INSERT
  5
1FE16
330
1E
100
AcDbEntity
  8
17
100
AcDbBlockReference
  2
SW_CENTERMARKSYMBOL_14
 10
478.7852291395532
 20
459.6834390974565
 30
0.0
 41
2.236067899999567
 42
2.236067899999567
 43
2.236067899999567
  0
LEADER
  5
1FE5F
330
1E
100
AcDbEntity
  8
30
100
AcDbLeader
  3
STANDARD
 76
     3
 10
481.0629502491122
 20
462.0017329845783
 30
0.0
 10
493.3496090428201
 20
473.8380025537565
 30
0.0
 10
476.3496090428201
 20
473.8380025537565
 30
0.0
1001
ACAD
1000
DSTYLE
1002
{
1070
   147
1040
2.0
1070
    77
1070
     0
1002
}
  0
MTEXT
  5
1FE60
330
1E
100
AcDbEntity
  8
30
100
AcDbMText
 10
477.3496090428202
 20
481.9243464856413
 30
0.0
 40
6.0
 41
10.0
 46
0.0
 71
     1
 72
     5
  1
%%C6.5
  7
blockfont
 73
     1
 44
1.0
  0
LINE
  5
202ED
330
1E
100
AcDbEntity
  8
10
100
AcDbLine
 10
345.1333629159754
 20
481.0805431804054
 30
0.0
 11
346.2333618768743
 21
481.0805431804054
 31
0.0
  0
LINE
  5
202EE
330
1E
100
AcDbEntity
  8
10
100
AcDbLine
 10
346.2333618768743
 20
488.9805353796588
 30
0.0
 11
345.1333629159754
 21
488.9805353796588
 31
0.0
  0
LINE
  5
202EF
330
1E
100
AcDbEntity
  8
10
100
AcDbLine
 10
345.1333629159754
 20
321.0806970203127
 30
0.0
 11
346.2333618768743
 21
321.0806970203127
 31
0.0
  0
LINE
  5
202F0
330
1E
100
AcDbEntity
  8
10
100
AcDbLine
 10
346.2333618768743
 20
328.9806892195661
 30
0.0
 11
345.1333629159754
 21
328.9806892195661
 31
0.0
  0
LINE
  5
202FF
330
1E
100
AcDbEntity
  8
0
  6
SLD-実線
 62
     7
370
    30
100
AcDbLine
 10
234.1334694561141
 20
429.9607719060471
 30
0.0
 11
234.1334694561141
 21
380.200460230292
 31
0.0
  0
LINE
  5
20300
330
1E
100
AcDbEntity
  8
0
  6
SLD-実線
 62
     7
370
    30
100
AcDbLine
 10
238.133458904557
 20
430.0305930938016
 30
0.0
 11
234.1334694561141
 21
429.9607719060471
 31
0.0
  0
LINE
  5
2034B
330
1E
100
AcDbEntity
  8
10
100
AcDbLine
 10
306.1333987380066
 20
490.5305378101527
 30
0.0
 11
311.1333939306843
 21
490.4432621381663
 31
0.0
  0
SPLINE
  5
2034C
330
1E
100
AcDbEntity
  8
10
100
AcDbSpline
210
0.0
220
0.0
230
1.0
 70
    24
 71
     3
 72
    12
 73
     8
 74
     0
 42
0.000000001
 43
0.0000000001
 40
0.0
 40
0.0
 40
0.0
 40
0.0
 40
0.2144782929225663
 40
0.4289845633770979
 40
0.6435663596551767
 40
0.8579758564114229
 40
1.0
 40
1.0
 40
1.0
 40
1.0
 10
306.1333987380927
 20
488.5305356353428
 30
0.0
 10
306.1333987380927
 20
488.7551636335514
 30
0.0
 10
306.1333987380927
 20
489.2044489314745
 30
0.0
 10
306.1333987380927
 20
489.8034262436706
 30
0.0
 10
306.1333987380927
 20
490.2555923997613
 30
0.0
 10
306.1333987380927
 20
490.4959940171846
 30
0.0
 10
306.1333987380927
 20
490.5206846911148
 30
0.0
 10
306.1333987380927
 20
490.530522909012
 30
0.0
  0
LINE
  5
2034D
330
1E
100
AcDbEntity
  8
10
100
AcDbLine
 10
306.1333987380056
 20
319.5306945898187
 30
0.0
 11
311.1333939306843
 21
319.562997235864
 31
0.0
  0
LINE
  5
2035A
330
1E
100
AcDbEntity
  8
10
100
AcDbLine
 10
306.1333987380056
 20
319.5306945898187
 30
0.0
 11
306.1333987380927
 21
488.5305356353428
 31
0.0
  0
LINE
  5
2035B
330
1E
100
AcDbEntity
  8
10
100
AcDbLine
 10
311.1333939306843
 20
319.562997235864
 30
0.0
 11
311.1333939306843
 21
490.4432621381663
 31
0.0
  0
LINE
  5
20397
330
1E
100
AcDbEntity
  8
10
100
AcDbLine
 10
346.2333618768743
 20
485.0305392799202
 30
0.0
 11
346.2333618768743
 21
481.0805431804054
 31
0.0
  0
LINE
  5
20398
330
1E
100
AcDbEntity
  8
10
100
AcDbLine
 10
346.2333618768743
 20
488.9805353796588
 30
0.0
 11
346.2333618768743
 21
485.0305392799202
 31
0.0
  0
LINE
  5
20399
330
1E
100
AcDbEntity
  8
10
100
AcDbLine
 10
346.2333618768743
 20
328.9806892195661
 30
0.0
 11
346.2333618768743
 21
321.0806970203127
 31
0.0
  0
ARC
  5
203B7
330
1E
100
AcDbEntity
  8
10
100
AcDbCircle
 10
335.6333710331254
 20
479.5196331069417
 30
0.0
 40
0.4999995307854361
100
AcDbArc
 50
90.25217214920923
 51
179.9978278508017
  0
LINE
  5
203CD
330
1E
100
AcDbEntity
  8
10
  6
SLD-実線
 62
     7
370
    30
100
AcDbLine
 10
380.6377116758342
 20
449.261873971118
 30
0.0
 11
380.6376893240994
 21
449.261873971118
 31
0.0
  0
LINE
  5
203D4
330
1E
100
AcDbEntity
  8
10
100
AcDbLine
 10
335.1333706684226
 20
479.5196554618067
 30
0.0
 11
335.1333706684226
 21
479.5196331100719
 31
0.0
  0
LINE
  5
203D5
330
1E
100
AcDbEntity
  8
10
100
AcDbLine
 10
335.6311695674817
 20
480.0196262033055
 30
0.0
 11
335.631190056572
 21
480.0196262033055
 31
0.0
  0
LINE
  5
203D6
330
1E
100
AcDbEntity
  8
10
100
AcDbLine
 10
335.631190056572
 20
480.0196262033055
 30
0.0
 11
338.1333702053329
 21
480.0305487440777
 31
0.0
  0
ARC
  5
203ED
330
1E
100
AcDbEntity
  8
10
100
AcDbCircle
 10
380.6333287716654
 20
360.5441104944408
 30
0.0
 40
0.4999995304260984
100
AcDbArc
 50
0.0021626513996375
 51
89.49783734860115
  0
ARC
  5
203EE
330
1E
100
AcDbEntity
  8
10
100
AcDbCircle
 10
380.6333287716654
 20
449.7618552263842
 30
0.0
 40
0.499999530426087
100
AcDbArc
 50
270.5021626513989
 51
359.9978373486004
  0
LINE
  5
203F1
330
1E
100
AcDbEntity
  8
10
100
AcDbLine
 10
381.1333312823223
 20
449.7618558884838
 30
0.0
 11
381.1420712296708
 21
479.0305082897808
 31
0.0
  0
LINE
  5
203F4
330
1E
100
AcDbEntity
  8
10
  6
SLD-実線
 62
     7
370
    30
100
AcDbLine
 10
381.1332865788529
 20
333.2349890966332
 30
0.0
 11
381.1228185229065
 21
333.2245210409102
 31
0.0
  0
LINE
  5
203F6
330
1E
100
AcDbEntity
  8
10
100
AcDbLine
 10
335.1333706684226
 20
330.0565884621741
 30
0.0
 11
380.1449795436787
 21
330.0354144572645
 31
0.0
  0
ARC
  5
203FD
330
1E
100
AcDbEntity
  8
10
100
AcDbCircle
 10
380.1420721688187
 20
479.0305082897808
 30
0.0
 40
0.9999990608521628
100
AcDbArc
 50
0.0000000000977066
 51
89.49999999999542
  0
LINE
  5
203FF
330
1E
100
AcDbEntity
  8
10
100
AcDbLine
 10
380.1507986961216
 20
480.0304692737329
 30
0.0
 11
338.142114085
 21
480.0304692778022
 31
0.0
  0
LINE
  5
20417
330
1E
100
AcDbEntity
  8
10
100
AcDbLine
 10
351.9833569536119
 20
397.4490270573423
 30
0.0
 11
351.9833569536119
 21
412.6122053424054
 31
0.0
  0
LINE
  5
20418
330
1E
100
AcDbEntity
  8
10
100
AcDbLine
 10
351.1333582645067
 20
397.4564450348332
 30
0.0
 11
351.1333582645067
 21
412.6047873651383
 31
0.0
  0
LINE
  5
20419
330
1E
100
AcDbEntity
  8
10
100
AcDbLine
 10
336.73337017291
 20
402.4878569678657
 30
0.0
 11
336.73337017291
 21
407.5733754321056
 31
0.0
  0
LINE
  5
20481
330
1E
100
AcDbEntity
  8
130
100
AcDbLine
 10
246.1334564281119
 20
456.030567349728
 30
0.0
 11
241.1334621669801
 21
456.030567349728
 31
0.0
  0
LINE
  5
20483
330
1E
100
AcDbEntity
  8
0
  6
SLD-実線
 62
     7
370
    30
100
AcDbLine
 10
246.1334564281119
 20
455.5558726792653
 30
0.0
 11
246.1334564281119
 21
455.5662587788514
 31
0.0
  0
LINE
  5
20485
330
1E
100
AcDbEntity
  8
130
100
AcDbLine
 10
240.0985551422027
 20
456.0125034339586
 30
0.0
 11
241.1334621669801
 21
456.030567349728
 31
0.0
  0
SPLINE
  5
20488
330
1E
100
AcDbEntity
  8
130
100
AcDbSpline
210
0.0
220
0.0
230
1.0
 70
     8
 71
     3
 72
    12
 73
     8
 74
     0
 42
0.000000001
 43
0.0000000001
 40
0.0
 40
0.0
 40
0.0
 40
0.0
 40
0.2429927693644977
 40
0.4991681179683811
 40
0.7111648306467968
 40
0.8460825200099279
 40
1.0
 40
1.0
 40
1.0
 40
1.0
 10
238.1334589046648
 20
454.0128104580368
 30
0.0
 10
238.1612988094911
 20
454.2646365217144
 30
0.0
 10
238.2184889593586
 20
454.7819504425772
 30
0.0
 10
238.6464568829753
 20
455.4139407622667
 30
0.0
 10
239.1551174113392
 20
455.7837245201207
 30
0.0
 10
239.6417815482611
 20
455.9730301013015
 30
0.0
 10
239.9397634542924
 20
455.9987810183563
 30
0.0
 10
240.0985551421665
 20
456.0125034340485
 30
0.0
  0
SPLINE
  5
20489
330
1E
100
AcDbEntity
  8
130
100
AcDbSpline
210
0.0
220
0.0
230
1.0
 70
     8
 71
     3
 72
    12
 73
     8
 74
     0
 42
0.000000001
 43
0.0000000001
 40
0.0
 40
0.0
 40
0.0
 40
0.0
 40
0.1540330144142507
 40
0.2890514592245007
 40
0.5012146475018571
 40
0.7571789837608979
 40
1.0
 40
1.0
 40
1.0
 40
1.0
 10
246.1334564281119
 20
354.0306650502436
 30
0.0
 10
239.9396428153973
 20
354.166832652712
 30
0.0
 10
239.6414350570405
 20
354.1926161034166
 30
0.0
 10
239.1544433694318
 20
354.3822083968088
 30
0.0
 10
238.6458881713274
 20
354.752273857867
 30
0.0
 10
238.218360703845
 20
355.3842223743159
 30
0.0
 10
238.1612579393368
 20
355.9011383840517
 30
0.0
 10
238.1334589046648
 20
356.1527858515759
 30
0.0
  0
LINE
  5
2048A
330
1E
100
AcDbEntity
  8
130
100
AcDbLine
 10
238.133458904557
 20
356.1527858514817
 30
0.0
 11
238.133458904557
 21
454.0128104579323
 31
0.0
  0
LINE
  5
204EB
330
1E
100
AcDbEntity
  8
0
  6
SLD-実線
 62
     7
370
    30
100
AcDbLine
 10
228.8307472138344
 20
427.3682162995497
 30
0.0
 11
234.1334694561141
 21
427.4607747753693
 31
0.0
  0
SPLINE
  5
204F0
330
1E
100
AcDbEntity
  8
0
  6
SLD-実線
 62
     7
370
    30
100
AcDbSpline
210
0.0
220
0.0
230
1.0
 70
     8
 71
     3
 72
    11
 73
     7
 74
     0
 42
0.000000001
 43
0.0000000001
 40
0.0
 40
0.0
 40
0.0
 40
0.0
 40
0.2500057960785421
 40
0.5000069977228378
 40
0.750000840406983
 40
1.0
 40
1.0
 40
1.0
 40
1.0
 10
228.8307472137819
 20
382.6930161003913
 30
0.0
 10
228.7814617198691
 20
382.6992027400761
 30
0.0
 10
228.6828916377787
 20
382.7115759057521
 30
0.0
 10
228.5572097242663
 20
382.7963247265611
 30
0.0
 10
228.4655821986598
 20
382.917081613201
 30
0.0
 10
228.4477290221663
 20
383.0148050152248
 30
0.0
 10
228.4388023389947
 20
383.0636672358305
 30
0.0
  0
SPLINE
  5
204F3
330
1E
100
AcDbEntity
  8
0
  6
SLD-実線
 62
     7
370
    30
100
AcDbSpline
210
0.0
220
0.0
230
1.0
 70
     8
 71
     3
 72
    11
 73
     7
 74
     0
 42
0.000000001
 43
0.0000000001
 40
0.0
 40
0.0
 40
0.0
 40
0.0
 40
0.2499991595930171
 40
0.4999930022771621
 40
0.7499942039214579
 40
1.0
 40
1.0
 40
1.0
 40
1.0
 10
228.4388023389947
 20
426.9975651640827
 30
0.0
 10
228.4477290221663
 20
427.0464273846883
 30
0.0
 10
228.4655821986598
 20
427.1441507867121
 30
0.0
 10
228.5572097242663
 20
427.2649076733523
 30
0.0
 10
228.6828916377787
 20
427.3496564941613
 30
0.0
 10
228.7814617198691
 20
427.362029659837
 30
0.0
 10
228.8307472137819
 20
427.3682162995219
 30
0.0
  0
ELLIPSE
  5
20588
330
1E
100
AcDbEntity
  8
13
100
AcDbEllipse
 10
354.6067553067536
 20
361.4999458830222
 30
0.0
 11
0.3551727770182599
 21
0.3520867555563158
 31
0.0
210
0.0
220
0.0
230
1.0
 40
0.9997735673999995
 41
2.360595558709523
 42
3.922589748470071
  0
LINE
  5
205AD
330
1E
100
AcDbEntity
  8
10
  6
SLD-実線
 62
     8
370
     0
100
AcDbLine
 10
380.6377116758342
 20
449.261873971118
 30
0.0
 11
380.6153823067043
 21
449.2840096252137
 31
0.0
  0
LINE
  5
205CD
330
1E
100
AcDbEntity
  8
10
100
AcDbLine
 10
337.2290065431993
 20
407.5690501413443
 30
0.0
 11
337.2290065431993
 21
402.492182258627
 31
0.0
  0
SPLINE
  5
205F6
330
1E
100
AcDbEntity
  8
0
  6
SLD-実線
 62
     8
370
     0
100
AcDbSpline
210
0.0
220
0.0
230
1.0
 70
     8
 71
     3
 72
     9
 73
     5
 74
     0
 42
0.000000001
 43
0.0000000001
 40
0.0
 40
0.0
 40
0.0
 40
0.0
 40
0.5000028020680265
 40
1.0
 40
1.0
 40
1.0
 40
1.0
 10
228.8307472137819
 20
427.3682162995219
 30
0.0
 10
228.829913370479
 20
427.3627414769276
 30
0.0
 10
228.8282456932192
 20
427.351791893102
 30
0.0
 10
228.8279712568967
 20
427.2846196241833
 30
0.0
 10
228.8278340395045
 20
427.2510336779454
 30
0.0
  0
SPLINE
  5
205F7
330
1E
100
AcDbEntity
  8
0
  6
SLD-実線
 62
     8
370
     0
100
AcDbSpline
210
0.0
220
0.0
230
1.0
 70
     8
 71
     3
 72
     9
 73
     5
 74
     0
 42
0.000000001
 43
0.0000000001
 40
0.0
 40
0.0
 40
0.0
 40
0.0
 40
0.5000006414325294
 40
1.0
 40
1.0
 40
1.0
 40
1.0
 10
228.8278340395047
 20
427.2510336779454
 30
0.0
 10
228.8279669074634
 20
427.2097292853187
 30
0.0
 10
228.8282326430401
 20
427.1271206060409
 30
0.0
 10
228.8298841889954
 20
427.0212247962382
 30
0.0
 10
228.8307099609139
 20
426.9682769592621
 30
0.0
  0
SPLINE
  5
205FE
330
1E
100
AcDbEntity
  8
0
  6
SLD-実線
 62
     8
370
     0
100
AcDbSpline
210
0.0
220
0.0
230
1.0
 70
     8
 71
     3
 72
    13
 73
     9
 74
     0
 42
0.000000001
 43
0.0000000001
 40
0.0
 40
0.0
 40
0.0
 40
0.0
 40
0.239544344176169
 40
0.365175650014858
 40
0.498363992538185
 40
0.7393832643179015
 40
0.8675083472766726
 40
1.0
 40
1.0
 40
1.0
 40
1.0
 10
228.8307099609139
 20
426.9682769592621
 30
0.0
 10
228.7811922937787
 20
426.9722032020513
 30
0.0
 10
228.7057046159311
 20
426.9781886001513
 30
0.0
 10
228.6146289776431
 20
426.9842972803184
 30
0.0
 10
228.5345550273568
 20
426.9901779007112
 30
0.0
 10
228.4757726335892
 20
426.9944121901497
 30
0.0
 10
228.443625783746
 20
426.9970009226255
 30
0.0
 10
228.4404280132002
 20
426.9973749944361
 30
0.0
 10
228.4388023389947
 20
426.9975651640827
 30
0.0
  0
ARC
  5
20632
330
1E
100
AcDbEntity
  8
30
100
AcDbCircle
 10
276.8074702094921
 20
401.8519655769146
 30
0.0
 40
66.28077124960339
100
AcDbArc
 50
164.3763881900083
 51
183.2525786066571
  0
LINE
  5
20637
330
1E
100
AcDbEntity
  8
240
370
     0
100
AcDbLine
 10
234.1334663567006
 20
428.9607734663753
 30
0.0
 11
234.1334663567006
 21
426.4607758142465
 31
0.0
  0
LINE
  5
20638
330
1E
100
AcDbEntity
  8
240
370
     0
100
AcDbLine
 10
233.4283836017393
 20
427.4484676097004
 30
0.0
 11
233.1336196006948
 21
427.4433224849918
 31
0.0
  0
LINE
  5
20639
330
1E
100
AcDbEntity
  8
240
370
     0
100
AcDbLine
 10
234.1334663567006
 20
381.2004588396814
 30
0.0
 11
234.1334663567006
 21
383.6004565857249
 31
0.0
  0
DIMENSION
  5
20641
330
1E
100
AcDbEntity
  8
30
100
AcDbDimension
280
     0
  2
*D14
 10
396.7858036020883
 20
449.0305748774506
 30
0.0
 11
396.7858036020881
 21
405.0306161999857
 31
0.0
 70
   160
  1
<>
 71
     2
 42
87.99991735492989
 73
     0
 74
     0
 75
     0
  3
STANDARD
100
AcDbAlignedDimension
 13
354.1333536591015
 23
361.0306575225208
 33
0.0
 14
383.088217964012
 24
449.0305748774507
 34
0.0
 50
90.0
100
AcDbRotatedDimension
  0
DIMENSION
  5
20642
330
1E
100
AcDbEntity
  8
30
100
AcDbDimension
280
     0
  2
*D15
 10
412.3653612612338
 20
348.0306697314517
 30
0.0
 11
412.3653612612335
 21
405.0306161999857
 31
0.0
 70
   160
  1
<>
 71
     2
 42
113.9998929370681
 73
     0
 74
     0
 75
     0
  3
STANDARD
100
AcDbAlignedDimension
 13
366.7054818193506
 23
462.0305626685198
 33
0.0
 14
366.7054818193506
 24
348.0306697314517
 34
0.0
 50
90.0
100
AcDbRotatedDimension
  0
DIMENSION
  5
20643
330
1E
100
AcDbEntity
  8
30
100
AcDbDimension
280
     0
  2
*D16
 10
425.4555095007601
 20
330.0338327750514
 30
0.0
 11
425.4581274509518
 21
405.0303836677072
 31
0.0
 70
   160
  1
<>
 71
     2
 42
149.9951640299709
 73
     0
 74
     0
 75
     0
  3
STANDARD
100
AcDbAlignedDimension
 13
383.2761256596909
 23
480.0304692778022
 33
0.0
 14
364.7007667734988
 24
330.035953577788
 34
0.0
 50
89.99799994139577
100
AcDbRotatedDimension
  0
DIMENSION
  5
20645
330
1E
100
AcDbEntity
  8
30
100
AcDbDimension
280
     0
  2
*D17
 10
246.1334550869182
 20
311.2323399857232
 30
0.0
 11
276.1334269124624
 21
311.2323399857232
 31
0.0
 70
   160
  1
<>
 71
     2
 42
59.9999436510884
 73
     0
 74
     0
 75
     0
  3
STANDARD
100
AcDbAlignedDimension
 13
306.1333987380066
 23
321.5306946188875
 33
0.0
 14
246.1334550869182
 24
354.0306640965606
 34
0.0
100
AcDbRotatedDimension
  0
DIMENSION
  5
20646
330
1E
100
AcDbEntity
  8
30
100
AcDbDimension
280
     0
  2
*D18
 10
437.4990820811813
 20
319.0306969667588
 30
0.0
 11
437.499082081181
 21
405.0306161999857
 31
0.0
 70
   160
  1
<>
 71
     2
 42
171.9998384664538
 73
     0
 74
     0
 75
     0
  3
STANDARD
100
AcDbAlignedDimension
 13
350.2423011765031
 23
491.0305354332126
 33
0.0
 14
347.6983937497511
 24
319.0306969667588
 34
0.0
 50
90.0
100
AcDbRotatedDimension
  0
DIMENSION
  5
20648
330
1E
100
AcDbEntity
  8
30
100
AcDbDimension
280
     0
  2
*D19
 10
354.1333987380066
 20
284.4218118574772
 30
0.0
 11
282.0603110423162
 21
284.4218118574772
 31
0.0
 70
   160
  1
<>
 71
     2
 42
119.999932381306
 73
     0
 74
     0
 75
     0
  3
STANDARD
100
AcDbAlignedDimension
 13
234.1334663567006
 23
284.4218118574772
 33
0.0
 14
354.1333987380066
 24
321.5306946188875
 34
0.0
100
AcDbRotatedDimension
  0
LINE
  5
2064E
330
1E
100
AcDbEntity
  8
16
100
AcDbLine
 10
364.2507645046312
 20
405.0306161999857
 30
0.0
 11
221.2188077081946
 21
405.0306161999857
 31
0.0
  0
LINE
  5
2064F
330
1E
100
AcDbEntity
  8
17
 48
0.9999990609000001
100
AcDbLine
 10
339.5344162153123
 20
462.0305626685198
 30
0.0
 11
383.3054662621318
 21
462.0305626685198
 31
0.0
  0
LINE
  5
20650
330
1E
100
AcDbEntity
  8
17
 48
0.9999990609000001
100
AcDbLine
 10
383.3054662621318
 20
348.0306697314517
 30
0.0
 11
336.8209258336432
 21
348.0306697314517
 31
0.0
  0
LWPOLYLINE
  5
20A28
330
1E
100
AcDbEntity
  8
130
100
AcDbPolyline
 90
        4
 70
     0
 43
0.0
 10
306.1333987380066
 20
470.030567349728
 10
250.7502880087117
 20
470.030567349728
 42
0.3536533375391492
 10
248.794683180512
 20
468.449625527328
 10
246.1334564281119
 20
456.030567349728
  0
LWPOLYLINE
  5
20A38
330
1E
100
AcDbEntity
  8
130
100
AcDbPolyline
 90
        4
 70
     0
 43
0.0
 10
238.1334626001066
 20
430.0305927212726
 10
234.1334694561141
 20
429.9607719060471
 10
234.1334694561141
 20
380.200460230292
 10
238.0709626001066
 20
380.1306395847841
  0
LWPOLYLINE
  5
20A39
330
1E
100
AcDbEntity
  8
130
100
AcDbPolyline
 90
        8
 70
     0
 43
0.0
 10
234.1334694561141
 20
427.4607747753693
 10
228.8307472138344
 20
427.3682162995497
 10
228.4388023389947
 20
426.9975651640827
 10
228.132583764046
 20
389.0719122320371
 10
228.2244269849093
 20
385.4306343747457
 10
228.4388023389724
 20
383.0636672358588
 10
228.8307472137819
 20
382.6930161003913
 10
234.1334694561141
 20
382.6930161003913
  0
LWPOLYLINE
  5
20A42
330
1E
100
AcDbEntity
  8
10
100
AcDbPolyline
 90
        7
 70
     0
 43
0.0
 10
311.1333939306843
 20
481.5305429247111
 10
314.8877533343386
 20
481.4650114045845
 10
318.6421127379928
 20
481.3994798844584
 10
319.1333867974042
 20
480.2805452905826
 10
318.6421127379928
 20
479.1616106969303
 10
314.8877533343386
 20
479.0960791768042
 10
311.1333939306843
 20
479.0305476566778
  0
LWPOLYLINE
  5
20A43
330
1E
100
AcDbEntity
  8
10
100
AcDbPolyline
 90
        7
 70
     0
 43
0.0
 10
311.1333939306843
 20
331.0306847432936
 10
314.8877533343386
 20
330.9651532231673
 10
318.6421127379928
 20
330.8996217030409
 10
319.1333867974042
 20
329.7806871091652
 10
318.6421127379928
 20
328.661752515513
 10
314.8877533343386
 20
328.5962209953867
 10
311.1333939306843
 20
328.5306894752605
  0
LWPOLYLINE
  5
20A49
330
1E
100
AcDbEntity
  8
10
100
AcDbPolyline
 90
        3
 70
     0
 43
0.0
 10
335.1333706684226
 20
320.039434656319
 10
335.1333706684226
 20
332.5306863742814
 10
311.1333939306843
 20
332.6231775888199
  0
LWPOLYLINE
  5
20A4D
330
1E
100
AcDbEntity
  8
10
100
AcDbPolyline
 90
        2
 70
     0
 43
0.0
 10
335.1333715026989
 20
320.0394322402477
 42
0.4129361512916065
 10
336.129007258364
 20
319.0394426986659
  0
LWPOLYLINE
  5
20A4E
330
1E
100
AcDbEntity
  8
10
100
AcDbPolyline
 90
        3
 70
     0
 43
0.0
 10
344.6377246830413
 20
319.087459966309
 10
338.1333702053329
 20
319.030694046007
 10
336.1290075823001
 20
319.0394410194975
  0
LWPOLYLINE
  5
20A50
330
1E
100
AcDbEntity
  8
10
100
AcDbPolyline
 90
        2
 70
     0
 43
0.0
 10
344.6377258444402
 20
319.0874596316902
 42
0.411659890495474
 10
345.1333621112148
 20
319.5874401236661
  0
LWPOLYLINE
  5
20A51
330
1E
100
AcDbEntity
  8
10
100
AcDbPolyline
 90
        4
 70
     0
 43
0.0
 10
345.1333629159754
 20
330.0917932604045
 10
345.1333629159754
 20
328.7815055849249
 10
345.1333629159754
 20
326.1834384167502
 10
345.1333621112149
 20
319.5874401236661
  0
LINE
  5
20A66
330
1E
100
AcDbEntity
  8
10
100
AcDbLine
 10
381.1333283020675
 20
331.0353465792452
 30
0.0
 11
381.1333283017353
 21
360.544129367117
 31
0.0
  0
INSERT
  5
20B7A
330
1E
100
AcDbEntity
  8
130
100
AcDbBlockReference
  2
PM1
 10
354.1067369021261
 20
405.0306161998736
 30
0.0
  0
LWPOLYLINE
  5
20B91
330
1E
100
AcDbEntity
  8
130
100
AcDbPolyline
 90
        6
 70
     0
 43
0.0
 10
228.3620037143904
 20
417.4859345163061
 10
215.3707719162971
 20
421.0063819814194
 10
212.9203527650831
 20
419.497022429866
 10
212.2023335365952
 20
416.2223938187576
 10
213.7962049445991
 20
413.8261524447589
 10
228.3110342741056
 20
411.1732890384563
  0
ARC
  5
20BAD
330
1E
100
AcDbEntity
  8
10
100
AcDbCircle
 10
380.1333283020675
 20
331.0353465792452
 30
0.0
 40
1.0
100
AcDbArc
 50
270.4337015816023
 51
0.0000000007067447
  0
LWPOLYLINE
  5
20BAE
330
1E
100
AcDbEntity
  8
10
100
AcDbPolyline
 90
       15
 70
     0
 43
0.0
 10
311.1333939306843
 20
358.1214851233206
 10
348.2591890257558
 20
358.1214851233206
 10
348.2591890257558
 20
366.6179281650286
 10
347.3071137529395
 20
367.5391100541678
 10
335.767454882852
 20
367.6398120070877
 10
334.7761821275148
 20
368.6397743020635
 10
334.7503061239872
 20
401.4782201934161
 10
335.7674546610642
 20
402.4781812350583
 10
342.2761735343065
 20
402.5306186037588
 10
342.7761746143273
 20
402.0306190174312
 10
342.7761740778946
 20
398.0262784078162
 10
343.1093279090981
 20
397.4490270573423
 10
353.8445988677058
 20
397.4490270573423
 10
354.1066986595305
 20
397.0891218700399
 10
354.1066986595305
 20
361.499870389466
  0
LWPOLYLINE
  5
20BB3
330
1E
100
AcDbEntity
  8
10
100
AcDbPolyline
 90
        4
 70
     0
 43
0.0
 10
311.1333939306843
 20
366.6179281650286
 10
332.0343026910795
 20
366.6179281650286
 42
0.1995059223003618
 10
334.133373306312
 20
369.9674855189813
 10
334.133373306312
 20
441.0764465720848
  0
LWPOLYLINE
  5
20BB6
330
1E
100
AcDbEntity
  8
10
100
AcDbPolyline
 90
        2
 70
     0
 43
0.0
 10
334.1333724418495
 20
441.0764460032289
 42
0.4091108014282317
 10
332.1682791002355
 20
443.0761395155321
  0
LWPOLYLINE
  5
20BB9
330
1E
100
AcDbEntity
  8
13
100
AcDbPolyline
 90
        2
 70
     0
 43
0.0
 10
354.6023155302103
 20
360.9999092437078
 10
380.6377109072711
 20
361.0440908213677
  0
LWPOLYLINE
  5
20BBA
330
1E
100
AcDbEntity
  8
10
100
AcDbPolyline
 90
       18
 70
     0
 43
0.0
 10
311.1333939306843
 20
451.9397472764274
 10
348.2615059758059
 20
451.9397472764274
 10
348.2761694490108
 20
443.5218912613787
 10
347.3071137529395
 20
442.52212234558
 10
335.7674561734933
 20
442.421420403923
 42
0.411429610139034
 10
334.7761827487255
 20
441.422246457184
 10
334.75030691003
 20
408.58400974932
 42
0.412086317216791
 10
335.7422503802126
 20
407.5832542224942
 10
341.7681183274396
 20
407.5347069330137
 42
0.4165752126067682
 10
342.7761745468018
 20
408.5346746151143
 10
342.7761741441435
 20
411.5404222474166
 42
-0.4109953411030502
 10
343.7651740488722
 20
412.5403618785012
 10
353.7536834445537
 20
412.6502430816014
 10
353.7804914850151
 20
412.6746857549083
 42
0.2109266866875249
 10
354.1067369021261
 20
413.4136409376061
 10
354.1067369021261
 20
448.2618739741186
 42
-0.4142135624075202
 10
355.1067369022437
 20
449.2618739741186
 10
380.6376893240994
 20
449.261873971118
  0
LINE
  5
20BBB
330
1E
100
AcDbEntity
  8
10
100
AcDbLine
 10
332.1682791002355
 20
443.0761395155321
 30
0.0
 11
311.1333939306843
 21
443.0761395155321
 31
0.0
  0
LWPOLYLINE
  5
20BBC
330
1E
100
AcDbEntity
  8
10
100
AcDbPolyline
 90
        6
 70
     0
 43
0.0
 10
311.1333939306843
 20
477.4366677396925
 10
335.1333706684226
 20
477.4366677396925
 10
335.1333706684226
 20
479.5196331100719
 10
335.1333706684226
 20
481.4008358888042
 10
335.1333706684226
 20
483.9989105075573
 10
335.1333706684226
 20
490.0217977436525
  0
LWPOLYLINE
  5
20BC1
330
1E
100
AcDbEntity
  8
10
100
AcDbPolyline
 90
        2
 70
     0
 43
0.0
 10
336.1290072583642
 20
491.021789701082
 42
0.4129361512916736
 10
335.133371502699
 20
490.0218001595002
  0
LWPOLYLINE
  5
20BC4
330
1E
100
AcDbEntity
  8
10
100
AcDbPolyline
 90
        2
 70
     0
 43
0.0
 10
345.1333621112149
 20
490.5218108922603
 42
0.4116598904954074
 10
344.6377258444402
 20
491.0217913842362
  0
LWPOLYLINE
  5
20BC5
330
1E
100
AcDbEntity
  8
10
100
AcDbPolyline
 90
        5
 70
     0
 43
0.0
 10
345.1333621112149
 20
490.5380049481608
 10
345.1333629159754
 20
489.973808599154
 10
345.1333629159754
 20
483.8777939832213
 10
345.1333629159754
 20
481.2797268150466
 10
345.1333629159754
 20
479.9694391393433
  0
LWPOLYLINE
  5
20BC9
330
1E
100
AcDbEntity
  8
240
  6
HIDDEN
370
     0
100
AcDbPolyline
 90
       10
 70
     0
 43
0.0
 10
353.8333539408458
 20
468.0305570336288
 10
359.3333487755288
 20
467.9825593059836
 10
359.3333487755288
 20
464.9280599475103
 10
378.8333304621328
 20
464.9280599475103
 10
379.3333299925584
 20
464.4280604170845
 10
379.3333299925584
 20
459.6330649201787
 10
378.8333304621328
 20
459.133065389753
 10
359.3333487755288
 20
459.133065389753
 10
359.3333487755288
 20
456.0785660312798
 10
353.8333539408458
 20
456.030568303411
  0
LWPOLYLINE
  5
20BD2
330
1E
100
AcDbEntity
  8
24
  6
HIDDEN
370
     0
100
AcDbPolyline
 90
       10
 70
     0
 43
0.0
 10
353.8333539408458
 20
342.0306753663428
 10
359.3333487755288
 20
342.078673093988
 10
359.3333487755288
 20
345.1331724524612
 10
378.8333304621328
 20
345.1331724524612
 10
379.3333299925584
 20
345.6331719828869
 10
379.3333299925584
 20
350.4281674797927
 10
378.8333304621328
 20
350.9281670102185
 10
359.3333487755288
 20
350.9281670102185
 10
359.3333487755288
 20
353.9826663686918
 10
353.8333539408458
 20
354.0306640965606
  0
LWPOLYLINE
  5
20BD3
330
1E
100
AcDbEntity
  8
130
100
AcDbPolyline
 90
        2
 70
     0
 43
0.0
 10
246.1334564281119
 20
456.030567349728
 10
246.1334564281119
 20
354.1736669115073
  0
LWPOLYLINE
  5
20BDC
330
1E
100
AcDbEntity
  8
130
100
AcDbPolyline
 90
        4
 70
     0
 43
0.0
 10
306.133397396813
 20
340.0306640965605
 10
250.7502866675181
 20
340.0306640965605
 42
-0.3536533375391492
 10
248.7946818393183
 20
341.6116059189607
 10
246.1334550869182
 20
354.0306640965606
  0
LINE
  5
21B82
330
1E
100
AcDbEntity
  8
10
100
AcDbLine
 10
109.4944322882338
 20
335.7670020103875
 30
0.0
 11
95.99444496584437
 21
335.7670020103875
 31
0.0
  0
LINE
  5
21B83
330
1E
100
AcDbEntity
  8
10
100
AcDbLine
 10
109.4944322882338
 20
340.1306640965605
 30
0.0
 11
109.4944322882338
 21
335.7670020103875
 31
0.0
  0
LINE
  5
21BA4
330
1E
100
AcDbEntity
  8
10
100
AcDbLine
 10
80.99445903898498
 20
335.7670020103875
 30
0.0
 11
80.99445903898498
 21
340.1306640965605
 31
0.0
  0
LINE
  5
21BA6
330
1E
100
AcDbEntity
  8
10
100
AcDbLine
 10
94.494446361598
 20
335.7670020103875
 30
0.0
 11
80.99445903898498
 21
335.7670020103875
 31
0.0
  0
LINE
  5
21BC5
330
1E
100
AcDbEntity
  8
10
100
AcDbLine
 10
79.49446020196394
 20
335.7670020103875
 30
0.0
 11
65.99447346162304
 21
335.7670020103875
 31
0.0
  0
LINE
  5
21BC6
330
1E
100
AcDbEntity
  8
10
100
AcDbLine
 10
79.49446020196394
 20
340.1306640965605
 30
0.0
 11
79.49446020196394
 21
335.7670020103875
 31
0.0
  0
LINE
  5
21BC7
330
1E
100
AcDbEntity
  8
10
100
AcDbLine
 10
110.9944311254784
 20
335.7670020103875
 30
0.0
 11
110.9944311254784
 21
340.1306640965605
 31
0.0
  0
LINE
  5
21BC8
330
1E
100
AcDbEntity
  8
10
100
AcDbLine
 10
124.4944178658192
 20
335.7670020103875
 30
0.0
 11
110.9944311254784
 21
335.7670020103875
 31
0.0
  0
DIMENSION
  5
22625
330
1E
100
AcDbEntity
  8
30
100
AcDbDimension
280
     0
  2
*D21
 10
139.8444035897555
 20
281.7766236909893
 30
0.0
 11
95.24444566360941
 21
281.7766236909893
 31
0.0
 70
   160
  1
<>
 71
     2
 42
90.01522594054344
 73
     0
 74
     0
 75
     0
  3
STANDARD1
100
AcDbAlignedDimension
 13
49.82917764921205
 23
322.9295797272865
 33
0.0
 14
139.8444035897555
 24
320.2167632886818
 34
0.0
100
AcDbRotatedDimension
  0
LINE
  5
22698
330
1E
100
AcDbEntity
  8
10
100
AcDbLine
 10
336.1290075823001
 20
491.0217913804741
 30
0.0
 11
344.6377258444402
 21
491.0217913842362
 31
0.0
  0
LWPOLYLINE
  5
226DA
330
1E
100
AcDbEntity
  8
10
100
AcDbPolyline
 90
        4
 70
     1
 43
0.0
 10
84.2444559942432
 20
427.4607747753693
 10
106.2444353329755
 20
427.4607747753693
 10
106.2444353329755
 20
382.6930161003913
 10
84.2444559942432
 20
382.6930161003913
  0
LWPOLYLINE
  5
226DB
330
1E
100
AcDbEntity
  8
10
100
AcDbPolyline
 90
        4
 70
     1
 43
0.0
 10
87.71998332857545
 20
420.3110986440875
 10
102.7426400702238
 20
420.3110986440875
 10
102.7426400702238
 20
393.3206106748846
 10
87.71998332857545
 20
393.3206106748846
  0
LWPOLYLINE
  5
226DC
330
1E
100
AcDbEntity
  8
10
100
AcDbPolyline
 90
        4
 70
     1
 43
0.0
 10
88.74445163402418
 20
417.5454177842182
 10
101.744439693308
 20
417.5454177842182
 10
101.744439693308
 20
413.1872294368868
 10
88.74445163402418
 20
413.1872294368868
  0
LWPOLYLINE
  5
22844
330
1E
100
AcDbEntity
  8
10
100
AcDbPolyline
 90
        4
 70
     1
 43
0.0
 10
53.29024382837221
 20
430.0305930938016
 10
137.2254891033639
 20
430.0305930938016
 10
137.2254891033639
 20
380.130639957313
 10
53.29024382837221
 20
380.130639957313
  0
LINE
  5
22869
330
1E
100
AcDbEntity
  8
10
100
AcDbLine
 10
140.2440569128052
 20
354.0306640965606
 30
0.0
 11
49.81342078480557
 21
354.0306640965606
 31
0.0
  0
LINE
  5
22871
330
1E
100
AcDbEntity
  8
10
100
AcDbLine
 10
49.82032336131172
 20
340.0697145142363
 30
0.0
 11
140.2363125690123
 21
340.0697145142363
 31
0.0
  0
DIMENSION
  5
22903
330
1E
100
AcDbEntity
  8
30
100
AcDbDimension
280
     0
  2
*D22
 10
26.61541271923165
 20
340.0697145142363
 30
0.0
 11
21.61541271923159
 21
405.0697145142363
 31
0.0
 70
    32
 71
     5
 42
130.0
 73
     0
 74
     0
 75
     0
  3
STANDARD
100
AcDbAlignedDimension
 13
49.82584848759653
 23
470.0697145142362
 33
0.0
 14
49.82032336131172
 24
340.0697145142363
 34
0.0
 50
90.0
100
AcDbRotatedDimension
  0
LINE
  5
22A8B
330
1E
100
AcDbEntity
  8
16
100
AcDbLine
 10
145.906293337965
 20
405.0306161999857
 30
0.0
 11
46.30465086192129
 21
405.0306161999857
 31
0.0
  0
LINE
  5
22AC5
330
1E
100
AcDbEntity
  8
10
100
AcDbLine
 10
95.99444496584437
 20
474.2942303895841
 30
0.0
 11
95.99444496584437
 21
470.0697145142362
 31
0.0
  0
LINE
  5
22AC6
330
1E
100
AcDbEntity
  8
10
100
AcDbLine
 10
109.4944322882338
 20
474.2942303895841
 30
0.0
 11
95.99444496584437
 21
474.2942303895841
 31
0.0
  0
LINE
  5
22AC7
330
1E
100
AcDbEntity
  8
10
100
AcDbLine
 10
109.4944322882338
 20
470.0697145142362
 30
0.0
 11
109.4944322882338
 21
474.2942303895841
 31
0.0
  0
LINE
  5
22AD4
330
1E
100
AcDbEntity
  8
10
100
AcDbLine
 10
80.99445903898498
 20
474.2942303895841
 30
0.0
 11
80.99445903898498
 21
470.0697145142362
 31
0.0
  0
LINE
  5
22AD5
330
1E
100
AcDbEntity
  8
10
100
AcDbLine
 10
94.494446361598
 20
474.2942303895841
 30
0.0
 11
80.99445903898498
 21
474.2942303895841
 31
0.0
  0
LINE
  5
22AD6
330
1E
100
AcDbEntity
  8
10
100
AcDbLine
 10
94.49444636159798
 20
470.0697145142362
 30
0.0
 11
94.494446361598
 21
474.2942303895841
 31
0.0
  0
LINE
  5
22AD7
330
1E
100
AcDbEntity
  8
10
  6
SLD-実線
 62
     7
370
    30
100
AcDbLine
 10
64.49447369305613
 20
474.2942303895841
 30
0.0
 11
52.74448513043164
 21
474.2942303895841
 31
0.0
  0
LINE
  5
22AE4
330
1E
100
AcDbEntity
  8
10
100
AcDbLine
 10
79.49446020196394
 20
474.2942303895841
 30
0.0
 11
65.99447346162304
 21
474.2942303895841
 31
0.0
  0
LINE
  5
22AE5
330
1E
100
AcDbEntity
  8
10
100
AcDbLine
 10
79.49446020196394
 20
470.0697145142362
 30
0.0
 11
79.49446020196394
 21
474.2942303895841
 31
0.0
  0
LINE
  5
22AE6
330
1E
100
AcDbEntity
  8
10
100
AcDbLine
 10
110.9944311254784
 20
474.2942303895841
 30
0.0
 11
110.9944311254784
 21
470.0697145142362
 31
0.0
  0
LINE
  5
22AE7
330
1E
100
AcDbEntity
  8
10
100
AcDbLine
 10
124.4944178658192
 20
474.2942303895841
 30
0.0
 11
110.9944311254784
 21
474.2942303895841
 31
0.0
  0
LINE
  5
22AE8
330
1E
100
AcDbEntity
  8
10
100
AcDbLine
 10
124.4944178658192
 20
470.0697145142362
 30
0.0
 11
124.4944178658192
 21
474.2942303895841
 31
0.0
  0
LWPOLYLINE
  5
22AF0
330
1E
100
AcDbEntity
  8
10
100
AcDbPolyline
 90
        4
 70
     0
 43
0.0
 10
49.82263109239068
 20
474.2942303895841
 10
49.82263109239068
 20
474.2942303895841
 10
64.49447369305613
 20
474.2942303895841
 10
64.49447369305613
 20
470.0697145142362
  0
LWPOLYLINE
  5
22AFF
330
1E
100
AcDbEntity
  8
10
100
AcDbPolyline
 90
       11
 70
     0
 43
0.0
 10
140.2970643303397
 20
406.4697145142361
 10
140.2540560104735
 20
321.5692045554746
 42
-0.4140642067898019
 10
139.2540561405025
 20
320.5697145142364
 10
51.8291773891541
 20
320.5697145142364
 42
-0.4140642067898155
 10
49.82917764921205
 20
322.568694596713
 10
49.81342078480557
 20
405.0306161999857
 10
49.82917764921205
 20
487.4925378032584
 42
-0.4140642067898155
 10
51.8291773891541
 20
489.4915178857352
 10
139.2540561405025
 20
489.4915178857352
 42
-0.4140642067898019
 10
140.2540560104735
 20
488.4920278444968
 10
140.2970643303397
 20
403.5915178857352
  0
LINE
  5
22B00
330
1E
100
AcDbEntity
  8
10
100
AcDbLine
 10
140.2440569128052
 20
456.030568303411
 30
0.0
 11
49.81342078480557
 21
456.030568303411
 31
0.0
  0
LINE
  5
22B01
330
1E
100
AcDbEntity
  8
10
100
AcDbLine
 10
65.99447346162304
 20
474.2942303895841
 30
0.0
 11
65.99447346162304
 21
470.0697145142362
 31
0.0
  0
LINE
  5
22B02
330
1E
100
AcDbEntity
  8
10
100
AcDbLine
 10
49.82584848759653
 20
470.0697145142362
 30
0.0
 11
140.2363275108624
 21
470.0697145142362
 31
0.0
  0
LWPOLYLINE
  5
22B06
330
1E
100
AcDbEntity
  8
10
100
AcDbPolyline
 90
        4
 70
     0
 43
0.0
 10
140.2611122660649
 20
474.2942303895841
 10
140.2611122660649
 20
474.2942303895841
 10
125.5892696653994
 20
474.2942303895841
 10
125.5892696653994
 20
470.0697145142362
  0
LINE
  5
22D1B
330
1E
100
AcDbEntity
  8
16
100
AcDbLine
 10
414.2328990043319
 20
261.4697145142363
 30
0.0
 11
414.2328990043319
 21
65.58751486573783
 31
0.0
  0
LINE
  5
22D1C
330
1E
100
AcDbEntity
  8
16
100
AcDbLine
 10
356.732899004332
 20
161.4697145142366
 30
0.0
 11
471.7328990043315
 21
161.4697145142366
 31
0.0
  0
LINE
  5
22D21
330
1E
100
AcDbEntity
  8
11
100
AcDbLine
 10
403.2328990043319
 20
185.2197145142365
 30
0.0
 11
425.2328990043316
 21
185.2197145142365
 31
0.0
  0
LINE
  5
22D22
330
1E
100
AcDbEntity
  8
11
100
AcDbLine
 10
402.2328990043319
 20
184.2197145142365
 30
0.0
 11
402.2328990043319
 21
138.2197145142368
 31
0.0
  0
LINE
  5
22D23
330
1E
100
AcDbEntity
  8
11
100
AcDbLine
 10
403.2328990043319
 20
137.2197145142368
 30
0.0
 11
425.2328990043316
 21
137.2197145142368
 31
0.0
  0
LINE
  5
22D24
330
1E
100
AcDbEntity
  8
11
100
AcDbLine
 10
426.2328990043315
 20
184.2197145142365
 30
0.0
 11
426.2328990043315
 21
138.2197145142368
 31
0.0
  0
ARC
  5
22D25
330
1E
100
AcDbEntity
  8
11
100
AcDbCircle
 10
425.2328990043316
 20
184.2197145142365
 30
0.0
 40
0.9999999999998236
100
AcDbArc
 50
0.0
 51
90.0
  0
ARC
  5
22D26
330
1E
100
AcDbEntity
  8
11
100
AcDbCircle
 10
403.2328990043319
 20
184.2197145142365
 30
0.0
 40
0.9999999999998236
100
AcDbArc
 50
90.0
 51
180.0
  0
ARC
  5
22D27
330
1E
100
AcDbEntity
  8
11
100
AcDbCircle
 10
403.2328990043319
 20
138.2197145142368
 30
0.0
 40
0.9999999999998236
100
AcDbArc
 50
180.0
 51
270.0
  0
ARC
  5
22D28
330
1E
100
AcDbEntity
  8
11
100
AcDbCircle
 10
425.2328990043316
 20
138.2197145142368
 30
0.0
 40
0.9999999999998236
100
AcDbArc
 50
270.0
 51
0.0
  0
DIMENSION
  5
22D29
330
1E
100
AcDbEntity
  8
30
100
AcDbDimension
280
     0
  2
*D23
 10
490.9835050438797
 20
137.2197145142367
 30
0.0
 11
490.9835050438796
 21
161.2197145142366
 31
0.0
 70
   160
 71
     2
 42
47.99999999999971
 73
     0
 74
     0
 75
     0
  3
STANDARD
100
AcDbAlignedDimension
 13
425.2328990043316
 23
185.2197145142365
 33
0.0
 14
425.2328990043316
 24
137.2197145142368
 34
0.0
 50
90.0
100
AcDbRotatedDimension
  0
DIMENSION
  5
22D2A
330
1E
100
AcDbEntity
  8
30
100
AcDbDimension
280
     0
  2
*D24
 10
402.2328990043319
 20
41.36961443333972
 30
0.0
 11
414.2328990043319
 21
41.36961443333972
 31
0.0
 70
   160
  1
<>
 71
     2
 42
23.99999999999977
 73
     0
 74
     0
 75
     0
  3
STANDARD1
100
AcDbAlignedDimension
 13
426.2328990043315
 23
138.2197145142368
 33
0.0
 14
402.2328990043319
 24
138.2197145142368
 34
0.0
100
AcDbRotatedDimension
  0
DIMENSION
  5
22D2B
330
1E
100
AcDbEntity
  8
30
100
AcDbDimension
280
     0
  2
*D25
 10
425.2328990043318
 20
184.2197145142366
 30
0.0
 11
442.7183372346685
 21
193.9512018644681
 31
0.0
 70
   164
  1
<>
 71
     5
 42
1.000000000108228
 73
     0
 74
     0
 75
     0
  3
STANDARD1
100
AcDbRadialDimension
 15
425.9958579964105
 25
184.8661614003943
 35
0.0
 40
0.0
  0
LINE
  5
22DDF
330
1E
100
AcDbEntity
  8
12
  6
CONTINOUS
100
AcDbLine
 10
45.04187167922789
 20
203.9697145142363
 30
0.0
 11
145.0418716792274
 21
203.9697145142363
 31
0.0
  0
LINE
  5
22DE0
330
1E
100
AcDbEntity
  8
12
  6
CONTINOUS
100
AcDbLine
 10
45.04187167922789
 20
118.9697145142369
 30
0.0
 11
145.0418716792274
 21
118.9697145142369
 31
0.0
  0
LINE
  5
22DE1
330
1E
100
AcDbEntity
  8
12
  6
HIDDEN
100
AcDbLine
 10
43.85957663857023
 20
200.7697145142364
 30
0.0
 11
143.8106153445447
 21
200.7697145142364
 31
0.0
  0
LINE
  5
22DE2
330
1E
100
AcDbEntity
  8
12
  6
HIDDEN
100
AcDbLine
 10
45.84976168819281
 20
122.1697145142369
 30
0.0
 11
146.8195526673401
 21
122.1697145142369
 31
0.0
  0
CIRCLE
  5
22DF4
330
1E
100
AcDbEntity
  8
12
100
AcDbCircle
 10
77.54187167922788
 20
187.4697145142365
 30
0.0
 40
2.999999999999285
  0
CIRCLE
  5
22DF5
330
1E
100
AcDbEntity
  8
12
100
AcDbCircle
 10
112.5418716792274
 20
187.4697145142365
 30
0.0
 40
2.999999999999531
  0
CIRCLE
  5
22DF6
330
1E
100
AcDbEntity
  8
12
100
AcDbCircle
 10
112.5418716792274
 20
135.4697145142368
 30
0.0
 40
2.999999999999548
  0
CIRCLE
  5
22DF7
330
1E
100
AcDbEntity
  8
12
100
AcDbCircle
 10
77.54187167922788
 20
135.4697145142368
 30
0.0
 40
2.999999999999305
  0
CIRCLE
  5
22DF8
330
1E
100
AcDbEntity
  8
12
370
     0
100
AcDbCircle
 10
77.54187167922788
 20
171.4697145142365
 30
0.0
 40
8.999999999998133
  0
CIRCLE
  5
22DF9
330
1E
100
AcDbEntity
  8
12
370
     0
100
AcDbCircle
 10
77.54187167922788
 20
151.4697145142366
 30
0.0
 40
8.999999999998133
  0
CIRCLE
  5
22DFA
330
1E
100
AcDbEntity
  8
12
370
     0
100
AcDbCircle
 10
134.5418716792274
 20
161.4697145142366
 30
0.0
 40
8.999999999998262
  0
DIMENSION
  5
22DFD
330
1E
100
AcDbEntity
  8
30
100
AcDbDimension
280
     0
  2
*D26
 10
112.5418716792274
 20
41.94877649939257
 30
0.0
 11
95.04187167922777
 21
41.94877649939257
 31
0.0
 70
   160
  1
<>
 71
     2
 42
34.99999999999956
 73
     0
 74
     0
 75
     0
  3
STANDARD
100
AcDbAlignedDimension
 13
77.54187167922788
 23
135.4697145142368
 33
0.0
 14
112.5418716792274
 24
135.4697145142368
 34
0.0
100
AcDbRotatedDimension
  0
DIMENSION
  5
22DFE
330
1E
100
AcDbEntity
  8
30
100
AcDbDimension
280
     0
  2
*D27
 10
79.77428985550705
 20
137.4737876380765
 30
0.0
 11
32.03334640733307
 21
100.9000709946342
 31
0.0
 70
   163
  1
<>
 71
     5
 42
5.999999999976067
 73
     0
 74
     0
 75
     0
  3
STANDARD1
100
AcDbDiametricDimension
 15
75.30945350294806
 25
133.4656413901733
 35
0.0
 40
0.0
  0
DIMENSION
  5
22DFF
330
1E
100
AcDbEntity
  8
30
100
AcDbDimension
280
     0
  2
*D28
 10
112.5418716792274
 20
41.94877649939257
 30
0.0
 11
123.5418716792274
 21
41.94877649939257
 31
0.0
 70
   160
  1
<>
 71
     2
 42
22.0
 73
     0
 74
     0
 75
     0
  3
STANDARD1
100
AcDbAlignedDimension
 13
134.5418716792274
 23
161.4697145142366
 33
0.0
 14
112.5418716792274
 24
135.4697145142368
 34
0.0
100
AcDbRotatedDimension
  0
INSERT
  5
22E01
330
1E
100
AcDbEntity
  8
12
  6
DASHDOT
100
AcDbBlockReference
  2
SW_CENTERMARKSYMBOL_0
 10
112.5418716792274
 20
135.4697145142368
 30
0.0
 41
2.236067899999567
 42
2.236067899999567
 43
2.236067899999567
  0
INSERT
  5
22E02
330
1E
100
AcDbEntity
  8
12
  6
DASHDOT
100
AcDbBlockReference
  2
SW_CENTERMARKSYMBOL_1
 10
77.54187167922788
 20
135.4697145142368
 30
0.0
 41
2.236067899999567
 42
2.236067899999567
 43
2.236067899999567
  0
INSERT
  5
22E03
330
1E
100
AcDbEntity
  8
12
  6
DASHDOT
100
AcDbBlockReference
  2
SW_CENTERMARKSYMBOL_2
 10
77.54187167922788
 20
187.4697145142365
 30
0.0
 41
2.236067899999567
 42
2.236067899999567
 43
2.236067899999567
  0
INSERT
  5
22E04
330
1E
100
AcDbEntity
  8
12
  6
DASHDOT
100
AcDbBlockReference
  2
SW_CENTERMARKSYMBOL_3
 10
112.5418716792274
 20
187.4697145142365
 30
0.0
 41
2.236067899999567
 42
2.236067899999567
 43
2.236067899999567
  0
INSERT
  5
22E05
330
1E
100
AcDbEntity
  8
12
  6
DASHDOT
370
     0
100
AcDbBlockReference
  2
SW_CENTERMARKSYMBOL_4
 10
77.54187167922788
 20
171.4697145142365
 30
0.0
 41
2.236067899999567
 42
2.236067899999567
 43
2.236067899999567
  0
LWPOLYLINE
  5
22E40
330
1E
100
AcDbEntity
  8
18
100
AcDbPolyline
 90
       20
 70
     1
 43
0.0
 10
74.04187167922788
 20
236.4697145142361
 10
50.04187167922789
 20
236.4697145142361
 10
50.04187167922789
 20
86.46971451423711
 10
74.04187167922788
 20
86.46971451423711
 10
74.04187167922788
 20
75.96971451423718
 10
86.04187167922765
 20
75.96971451423718
 10
86.04187167922765
 20
86.46971451423711
 10
104.0418716792274
 20
86.46971451423711
 10
104.0418716792274
 20
75.96971451423718
 10
116.0418716792274
 20
75.96971451423718
 10
116.0418716792274
 20
86.46971451423711
 10
140.0418716792274
 20
86.46971451423711
 10
140.0418716792274
 20
236.4697145142361
 10
116.0418716792274
 20
236.4697145142361
 10
116.0418716792274
 20
246.9697145142361
 10
104.0418716792274
 20
246.9697145142361
 10
104.0418716792274
 20
236.4697145142361
 10
86.04187167922765
 20
236.4697145142361
 10
86.04187167922765
 20
246.9697145142361
 10
74.04187167922788
 20
246.9697145142361
  0
LWPOLYLINE
  5
22E9B
330
1E
100
AcDbEntity
  8
10
100
AcDbPolyline
 90
        5
 70
     0
 43
0.0
 10
125.7918430537571
 20
333.9824010209982
 10
139.2918297940979
 20
333.9824010209982
 10
139.2918297940979
 20
322.4824108675233
 10
125.7918430537571
 20
322.4824108675233
 10
125.7918430537571
 20
333.9824010209982
  0
LWPOLYLINE
  5
22E9C
330
1E
100
AcDbEntity
  8
10
100
AcDbPolyline
 90
        5
 70
     0
 43
0.0
 10
110.7918571851474
 20
334.069706842511
 10
124.2918439254882
 20
334.069706842511
 10
124.2918439254882
 20
322.569716689036
 10
110.7918571851474
 20
322.569716689036
 10
110.7918571851474
 20
334.069706842511
  0
LWPOLYLINE
  5
22E9D
330
1E
100
AcDbEntity
  8
10
100
AcDbPolyline
 90
        5
 70
     0
 43
0.0
 10
95.7918713748989
 20
333.9824010209982
 10
109.2918581152396
 20
333.9824010209982
 10
109.2918581152396
 20
322.4824108675233
 10
95.7918713748989
 20
322.4824108675233
 10
95.7918713748989
 20
333.9824010209982
  0
LWPOLYLINE
  5
22E9E
330
1E
100
AcDbEntity
  8
10
100
AcDbPolyline
 90
        5
 70
     0
 43
0.0
 10
80.79188538979002
 20
334.069706842511
 10
94.29187213013081
 20
334.069706842511
 10
94.29187213013081
 20
322.569716689036
 10
80.79188538979002
 20
322.569716689036
 10
80.79188538979002
 20
334.069706842511
  0
LWPOLYLINE
  5
22E9F
330
1E
100
AcDbEntity
  8
10
100
AcDbPolyline
 90
        5
 70
     0
 43
0.0
 10
65.79189981231627
 20
333.9824010209982
 10
79.29188655265704
 20
333.9824010209982
 10
79.29188655265704
 20
322.4824108675233
 10
65.79189981231627
 20
322.4824108675233
 10
65.79189981231627
 20
333.9824010209982
  0
LWPOLYLINE
  5
22EA0
330
1E
100
AcDbEntity
  8
10
100
AcDbPolyline
 90
        5
 70
     0
 43
0.0
 10
51.66691239226661
 20
333.9824010209982
 10
65.1668991326074
 20
333.9824010209982
 10
65.1668991326074
 20
322.4824108675233
 10
51.66691239226661
 20
322.4824108675233
 10
51.66691239226661
 20
333.9824010209982
  0
LWPOLYLINE
  5
22EA1
330
1E
100
AcDbEntity
  8
10
100
AcDbPolyline
 90
        5
 70
     0
 43
0.0
 10
125.7918430537571
 20
476.0788313789731
 10
139.2918297940979
 20
476.0788313789731
 10
139.2918297940979
 20
487.5788215324482
 10
125.7918430537571
 20
487.5788215324482
 10
125.7918430537571
 20
476.0788313789731
  0
LWPOLYLINE
  5
22EA2
330
1E
100
AcDbEntity
  8
10
100
AcDbPolyline
 90
        5
 70
     0
 43
0.0
 10
110.7918571851474
 20
475.9915255574606
 10
124.2918439254882
 20
475.9915255574606
 10
124.2918439254882
 20
487.4915157109355
 10
110.7918571851474
 20
487.4915157109355
 10
110.7918571851474
 20
475.9915255574606
  0
LWPOLYLINE
  5
22EA3
330
1E
100
AcDbEntity
  8
10
100
AcDbPolyline
 90
        5
 70
     0
 43
0.0
 10
95.7918713748989
 20
476.0788313789731
 10
109.2918581152396
 20
476.0788313789731
 10
109.2918581152396
 20
487.5788215324482
 10
95.7918713748989
 20
487.5788215324482
 10
95.7918713748989
 20
476.0788313789731
  0
LWPOLYLINE
  5
22EA4
330
1E
100
AcDbEntity
  8
10
100
AcDbPolyline
 90
        5
 70
     0
 43
0.0
 10
80.79188538979002
 20
475.9915255574606
 10
94.29187213013081
 20
475.9915255574606
 10
94.29187213013081
 20
487.4915157109355
 10
80.79188538979002
 20
487.4915157109355
 10
80.79188538979002
 20
475.9915255574606
  0
LWPOLYLINE
  5
22EA5
330
1E
100
AcDbEntity
  8
10
100
AcDbPolyline
 90
        5
 70
     0
 43
0.0
 10
65.79189981231627
 20
476.0788313789731
 10
79.29188655265704
 20
476.0788313789731
 10
79.29188655265704
 20
487.5788215324482
 10
65.79189981231627
 20
487.5788215324482
 10
65.79189981231627
 20
476.0788313789731
  0
LWPOLYLINE
  5
22EA6
330
1E
100
AcDbEntity
  8
10
100
AcDbPolyline
 90
        5
 70
     0
 43
0.0
 10
51.66691239226661
 20
476.0788313789731
 10
65.1668991326074
 20
476.0788313789731
 10
65.1668991326074
 20
487.5788215324482
 10
51.66691239226661
 20
487.5788215324482
 10
51.66691239226661
 20
476.0788313789731
  0
LINE
  5
22EF4
330
1E
100
AcDbEntity
  8
16
100
AcDbLine
 10
245.0209269660768
 20
261.7595285057289
 30
0.0
 11
245.0209269660768
 21
66.40542219881081
 31
0.0
  0
LINE
  5
22EF5
330
1E
100
AcDbEntity
  8
16
100
AcDbLine
 10
187.5209269660768
 20
161.7595285057291
 30
0.0
 11
302.5209269660766
 21
161.7595285057291
 31
0.0
  0
DIMENSION
  5
22F03
330
1E
100
AcDbEntity
  8
30
100
AcDbDimension
280
     0
  2
*D29
 10
202.0209269660768
 20
41.65942842483224
 30
0.0
 11
245.0209269660768
 21
41.65942842483224
 31
0.0
 70
   160
  1
<>
 71
     2
 42
85.99999999999978
 73
     0
 74
     0
 75
     0
  3
STANDARD1
100
AcDbAlignedDimension
 13
288.0209269660766
 23
138.5095285057293
 33
0.0
 14
202.0209269660768
 24
138.5095285057293
 34
0.0
100
AcDbRotatedDimension
  0
DIMENSION
  5
22F04
330
1E
100
AcDbEntity
  8
30
100
AcDbDimension
280
     0
  2
*D30
 10
287.0209269660767
 20
186.4218002320195
 30
0.0
 11
304.506365196415
 21
196.1532875822506
 31
0.0
 70
   164
  1
<>
 71
     5
 42
1.000000000107775
 73
     0
 74
     0
 75
     0
  3
STANDARD1
100
AcDbRadialDimension
 15
287.7838859581549
 25
187.0682471181768
 35
0.0
 40
0.0
  0
MTEXT
  5
22F06
330
1E
100
AcDbEntity
  8
19
100
AcDbMText
 10
372.2956389354038
 20
21.95479338446427
 30
0.0
 40
7.826237649998486
 41
0.0
 46
0.0
 71
     1
 72
     1
  1
[Cutout B]
 73
     1
 44
1.0
  0
MTEXT
  5
22F7F
330
1E
100
AcDbEntity
  8
19
100
AcDbMText
 10
208.622135939372
 20
21.95479338446427
 30
0.0
 40
7.826237649998486
 41
0.0
 46
0.0
 71
     1
 72
     1
  1
[Cutout A]
 73
     1
 44
1.0
  0
LWPOLYLINE
  5
2309F
330
1E
100
AcDbEntity
  8
18
100
AcDbPolyline
 90
        4
 70
     1
 43
0.0
 10
361.7328990043322
 20
76.21971451423718
 10
361.7328990043322
 20
246.2197145142361
 10
466.7328990043315
 20
246.2197145142361
 10
466.7328990043315
 20
76.21971451423718
  0
LWPOLYLINE
  5
230A5
330
1E
100
AcDbEntity
  8
18
100
AcDbPolyline
 90
        4
 70
     1
 43
0.0
 10
192.520926966077
 20
76.50952850572969
 10
192.520926966077
 20
246.5095285057286
 10
297.5209269660764
 20
246.5095285057286
 10
297.5209269660764
 20
76.50952850572969
  0
LWPOLYLINE
  5
230B0
330
1E
100
AcDbEntity
  8
131
  6
Continuous
100
AcDbPolyline
 90
        4
 70
     1
 43
0.0
 10
-0.0000000000000284
 20
742.4999999999997
 10
525.0
 20
742.4999999999997
 10
525.0
 20
0.0
 10
-0.0000000000000284
 20
0.0
  0
DIMENSION
  5
230E6
330
1E
100
AcDbEntity
  8
30
100
AcDbDimension
280
     0
  2
*D31
 10
128.5608617191021
 20
154.8345736341616
 30
0.0
 11
167.2754117426873
 21
188.2460771141621
 31
0.0
 70
   163
  1
<>
 71
     5
 42
17.99999999999698
 73
     0
 74
     0
 75
     0
  3
STANDARD1
100
AcDbDiametricDimension
 15
140.5228816393527
 25
168.2848553943116
 35
0.0
 40
0.0
  0
DIMENSION
  5
23BE0
330
1E
100
AcDbEntity
  8
30
100
AcDbDimension
280
     0
  2
*D32
 10
28.66594588405855
 20
135.4697145142368
 30
0.0
 11
23.66594588405853
 21
161.4697145142367
 31
0.0
 70
    32
 71
     5
 42
51.99999999999966
 73
     0
 74
     0
 75
     0
  3
STANDARD
100
AcDbAlignedDimension
 13
68.95170192922899
 23
187.4697145142365
 33
0.0
 14
68.95170192922899
 24
135.4697145142368
 34
0.0
 50
90.0
100
AcDbRotatedDimension
  0
DIMENSION
  5
23BED
330
1E
100
AcDbEntity
  8
30
100
AcDbDimension
280
     0
  2
*D33
 10
42.18990350416691
 20
151.4697145142366
 30
0.0
 11
37.18990350416689
 21
161.4697145142366
 31
0.0
 70
    32
 71
     5
 42
19.99999999999988
 73
     0
 74
     0
 75
     0
  3
STANDARD
100
AcDbAlignedDimension
 13
62.95170192922903
 23
171.4697145142365
 33
0.0
 14
62.95170192922903
 24
151.4697145142366
 34
0.0
 50
90.0
100
AcDbRotatedDimension
  0
LWPOLYLINE
  5
23C64
330
1E
100
AcDbEntity
  8
11
100
AcDbPolyline
 90
        8
 70
     1
 43
0.0
 10
202.0209269660773
 20
136.7595285057293
 42
0.4142135623730951
 10
203.0209269660771
 20
135.7595285057293
 10
287.0209269660766
 20
135.7595285057294
 42
0.4142135623730951
 10
288.0209269660765
 20
136.7595285057293
 10
288.0209269660765
 20
186.759528505729
 42
0.4142135623730951
 10
287.0209269660766
 20
187.7595285057289
 10
203.0209269660771
 20
187.7595285057289
 42
0.4142135623730951
 10
202.020926966077
 20
186.759528505729
  0
DIMENSION
  5
23C89
330
1E
100
AcDbEntity
  8
30
100
AcDbDimension
280
     0
  2
*D34
 10
321.3611331309321
 20
135.7595285057294
 30
0.0
 11
321.3611331309321
 21
161.5095285057291
 31
0.0
 70
   160
 71
     2
 42
51.99999999999953
 73
     0
 74
     0
 75
     0
  3
STANDARD
100
AcDbAlignedDimension
 13
287.0209269660766
 23
187.7595285057289
 33
0.0
 14
287.0209269660766
 24
135.7595285057294
 34
0.0
 50
90.0
100
AcDbRotatedDimension
  0
INSERT
  5
23CEE
330
1E
100
AcDbEntity
  8
12
  6
DASHDOT
370
     0
100
AcDbBlockReference
  2
SW_CENTERMARKSYMBOL_4
 10
77.54187167922788
 20
151.4697145142366
 30
0.0
 41
2.236067899999567
 42
2.236067899999567
 43
2.236067899999567
  0
INSERT
  5
23CEF
330
1E
100
AcDbEntity
  8
12
  6
DASHDOT
370
     0
100
AcDbBlockReference
  2
SW_CENTERMARKSYMBOL_4
 10
134.6318716792274
 20
161.5597145142366
 30
0.0
 41
2.236067899999567
 42
2.236067899999567
 43
2.236067899999567
  0
MTEXT
  5
23ED7
330
1E
100
AcDbEntity
  8
19
  6
Continuous
 62
     7
100
AcDbMText
 10
325.4105989155
 20
630.1335811646289
 30
0.0
 40
8.0
 41
0.0
 46
0.0
 71
     7
 72
     5
  1
PS125-NF 3P PMB\PPS50-PF 3P PMB\PPS125-PF 3P PMB\PPS125-NE 3P PMB\PPS125-PE 3P PMB
  7
blockfont
 73
     1
 44
1.0
  0
DIMENSION
  5
240D3
330
1E
100
AcDbEntity
  8
30
100
AcDbDimension
280
     0
  2
*D35
 10
354.1333987380066
 20
270.0986921544231
 30
0.0
 11
282.3834340970604
 21
275.0986921544231
 31
0.0
 70
    32
 71
     5
 42
143.4999292818925
 73
     0
 74
     0
 75
     0
  3
STANDARD
100
AcDbAlignedDimension
 13
210.6334694561141
 23
399.0913457165475
 33
0.0
 14
354.1333987380066
 24
321.5306946188875
 34
0.0
100
AcDbRotatedDimension
  0
DIMENSION
  5
240E0
102
{ACAD_XDICTIONARY
360
24581
102
}
330
1E
100
AcDbEntity
  8
30
100
AcDbDimension
280
     0
  2
*D39
 10
227.6334663567006
 20
284.4218118574772
 30
0.0
 11
215.1275881213548
 21
284.4218118574772
 31
0.0
 70
   128
 71
     5
 42
6.5
 73
     0
 74
     0
 75
     0
  3
STANDARD
100
AcDbAlignedDimension
 13
234.1334663567006
 23
381.2004588396814
 33
0.0
 14
227.6334663567006
 24
381.2004588396814
 34
0.0
100
AcDbRotatedDimension
1001
AcadAnnotative
1000
AnnotativeData
1002
{
1070
     1
1070
     1
1002
}
1001
ACAD
1000
DSTYLE
1002
{
1070
    40
1040
0.0
1002
}
  0
DIMENSION
  5
24124
330
1E
100
AcDbEntity
  8
30
100
AcDbDimension
280
     0
  2
*D36
 10
137.2902438283722
 20
297.3880095783128
 30
0.0
 11
95.29024382837221
 21
302.3880095783129
 31
0.0
 70
    32
 71
     5
 42
84.0
 73
     0
 74
     0
 75
     0
  3
STANDARD1
100
AcDbAlignedDimension
 13
53.29024382837221
 23
380.130639957313
 33
0.0
 14
137.2902438283722
 24
380.130639957313
 34
0.0
100
AcDbRotatedDimension
  0
DIMENSION
  5
24486
330
1E
100
AcDbEntity
  8
30
100
AcDbDimension
280
     0
  2
*D37
 10
381.1333283020675
 20
270.0986921544231
 30
0.0
 11
367.6333283019014
 21
275.0986921544231
 31
0.0
 70
    32
 71
     5
 42
27.00000000033214
 73
     0
 74
     0
 75
     0
  3
STANDARD
100
AcDbAlignedDimension
 13
354.1333283017353
 23
360.6475268316817
 33
0.0
 14
381.1333283020675
 24
331.0353465792452
 34
0.0
100
AcDbRotatedDimension
  0
DIMENSION
  5
24756
330
1E
100
AcDbEntity
  8
30
100
AcDbDimension
280
     0
  2
*D40
 10
238.1334589046648
 20
298.0954071934052
 30
0.0
 11
296.1200787820976
 21
303.0954071934052
 31
0.0
 70
    32
 71
     5
 42
115.9732397548657
 73
     0
 74
     0
 75
     0
  3
STANDARD
100
AcDbAlignedDimension
 13
354.1066986595305
 23
361.4998703895166
 33
0.0
 14
238.1334589046648
 24
356.1527858515758
 34
0.0
100
AcDbRotatedDimension
  0
CIRCLE
  5
2481B
330
1E
100
AcDbEntity
  8
24
100
AcDbCircle
 10
65.04187167922776
 20
462.0306161999856
 30
0.0
 40
5.999994365112642
  0
ELLIPSE
  5
2481C
330
1E
100
AcDbEntity
  8
130
100
AcDbEllipse
 10
59.03655112540767
 20
459.0386220301461
 30
0.0
 11
-1.224716190266895
 21
-2.749200778644313
 31
0.0
210
0.0
220
0.0
230
-1.0
 40
0.9963343309
 41
5.865459295927847
 42
7.433525461465419
  0
ELLIPSE
  5
2481D
330
1E
100
AcDbEntity
  8
130
100
AcDbEllipse
 10
71.03562588813874
 20
459.0386220301461
 30
0.0
 11
1.224716190266833
 21
-2.749200778644375
 31
0.0
210
0.0
220
0.0
230
-1.0
 40
0.9963343309
 41
5.132845152893018
 42
6.700911318431388
  0
LINE
  5
2481E
330
1E
100
AcDbEntity
  8
130
100
AcDbLine
 10
56.03609555832522
 20
459.0304115298178
 30
0.0
 11
56.03609555832519
 21
470.0697145142362
 31
0.0
  0
LINE
  5
2481F
330
1E
100
AcDbEntity
  8
0
  6
SLD-実線
 62
     8
370
     0
100
AcDbLine
 10
56.01010050715935
 20
458.9040961040113
 30
0.0
 11
56.03609555832522
 21
458.9304115298178
 31
0.0
  0
LINE
  5
24820
330
1E
100
AcDbEntity
  8
130
100
AcDbLine
 10
74.06207665553281
 20
459.0040961040113
 30
0.0
 11
74.06207665553281
 21
470.0697145142362
 31
0.0
  0
CIRCLE
  5
24821
330
1E
100
AcDbEntity
  8
24
100
AcDbCircle
 10
95.0418435047721
 20
462.0306161999856
 30
0.0
 40
5.999994365112642
  0
ELLIPSE
  5
24822
330
1E
100
AcDbEntity
  8
130
100
AcDbEllipse
 10
89.03652295095197
 20
459.0386220301461
 30
0.0
 11
-1.224716190266895
 21
-2.749200778644313
 31
0.0
210
0.0
220
0.0
230
-1.0
 40
0.9963343309
 41
5.865459295927847
 42
7.433525461465419
  0
ELLIPSE
  5
24823
330
1E
100
AcDbEntity
  8
130
100
AcDbEllipse
 10
101.035597713683
 20
459.0386220301461
 30
0.0
 11
1.224716190266833
 21
-2.749200778644375
 31
0.0
210
0.0
220
0.0
230
-1.0
 40
0.9963343309
 41
5.132845152893018
 42
6.700911318431388
  0
LINE
  5
24824
330
1E
100
AcDbEntity
  8
130
100
AcDbLine
 10
86.03606738386954
 20
459.0304115298178
 30
0.0
 11
86.03606738386954
 21
470.0697145142362
 31
0.0
  0
LINE
  5
24825
330
1E
100
AcDbEntity
  8
0
  6
SLD-実線
 62
     8
370
     0
100
AcDbLine
 10
86.01007233270367
 20
458.9040961040113
 30
0.0
 11
86.03606738386954
 21
458.9304115298178
 31
0.0
  0
LINE
  5
24826
330
1E
100
AcDbEntity
  8
130
100
AcDbLine
 10
104.062048481077
 20
459.0040961040113
 30
0.0
 11
104.0620484810771
 21
470.0697145142362
 31
0.0
  0
CIRCLE
  5
24827
330
1E
100
AcDbEntity
  8
24
100
AcDbCircle
 10
125.041815460679
 20
462.0306161999856
 30
0.0
 40
5.999994365112642
  0
ELLIPSE
  5
24828
330
1E
100
AcDbEntity
  8
130
100
AcDbEllipse
 10
119.0364949068589
 20
459.0386220301461
 30
0.0
 11
-1.224716190266895
 21
-2.749200778644313
 31
0.0
210
0.0
220
0.0
230
-1.0
 40
0.9963343309
 41
5.865459295927847
 42
7.433525461465419
  0
ELLIPSE
  5
24829
330
1E
100
AcDbEntity
  8
130
100
AcDbEllipse
 10
131.03556966959
 20
459.0386220301461
 30
0.0
 11
1.224716190266833
 21
-2.749200778644375
 31
0.0
210
0.0
220
0.0
230
-1.0
 40
0.9963343309
 41
5.132845152893018
 42
6.700911318431388
  0
LINE
  5
2482A
330
1E
100
AcDbEntity
  8
130
100
AcDbLine
 10
116.0360393397764
 20
459.0304115298178
 30
0.0
 11
116.0360393397764
 21
470.0697145142362
 31
0.0
  0
LINE
  5
2482B
330
1E
100
AcDbEntity
  8
0
  6
SLD-実線
 62
     8
370
     0
100
AcDbLine
 10
116.0100442886106
 20
458.9040961040113
 30
0.0
 11
116.0360393397764
 21
458.9304115298178
 31
0.0
  0
LINE
  5
2482C
330
1E
100
AcDbEntity
  8
130
100
AcDbLine
 10
134.0620204369841
 20
459.0040961040113
 30
0.0
 11
134.0620204369841
 21
470.0697145142362
 31
0.0
  0
LINE
  5
2482D
330
1E
100
AcDbEntity
  8
0
  6
SLD-実線
 62
     7
370
    30
100
AcDbLine
 10
75.76438987857426
 20
456.4308361431655
 30
0.0
 11
75.7731163710742
 21
456.4395644984153
 31
0.0
  0
LINE
  5
2482E
330
1E
100
AcDbEntity
  8
0
  6
SLD-実線
 62
     7
370
    30
100
AcDbLine
 10
75.7731163710742
 20
456.4395644984153
 30
0.0
 11
84.77311691507422
 21
456.4395644984153
 31
0.0
  0
LINE
  5
2482F
330
1E
100
AcDbEntity
  8
0
  6
SLD-実線
 62
     7
370
    30
100
AcDbLine
 10
84.79462301582422
 20
465.4523418566653
 30
0.0
 11
75.75161027032419
 21
465.4523418566653
 31
0.0
  0
CIRCLE
  5
24830
330
1E
100
AcDbEntity
  8
12
  6
SLD-実線
370
     0
100
AcDbCircle
 10
80.27311677332425
 20
460.9308370969153
 30
0.0
 40
4.332040220405366
  0
LINE
  5
24831
330
1E
100
AcDbEntity
  8
12
  6
DASHDOT
100
AcDbLine
 10
74.77311710882422
 20
460.9308378121651
 30
0.0
 11
85.77311710882447
 21
460.9308378121651
 31
0.0
  0
LINE
  5
24832
330
1E
100
AcDbEntity
  8
12
  6
DASHDOT
100
AcDbLine
 10
80.27311710882434
 20
466.4308378121656
 30
0.0
 11
80.27311710882434
 21
455.4308378121653
 31
0.0
  0
LWPOLYLINE
  5
24833
330
1E
100
AcDbEntity
  8
130
100
AcDbPolyline
 90
        4
 70
     1
 43
0.0
 10
75.75161027032419
 20
465.4523418566653
 10
84.77311691507422
 20
465.4523418566653
 10
84.77311691507422
 20
456.4395644984153
 10
75.75161027032419
 20
456.4395644984153
  0
LINE
  5
24834
330
1E
100
AcDbEntity
  8
17
100
AcDbLine
 10
65.04187167922776
 20
469.0306161999855
 30
0.0
 11
65.04187167922776
 21
455.0306161999855
 31
0.0
  0
LINE
  5
24835
330
1E
100
AcDbEntity
  8
17
100
AcDbLine
 10
58.04187167922788
 20
462.0306161999856
 30
0.0
 11
72.04187167922765
 21
462.0306161999856
 31
0.0
  0
LINE
  5
24836
330
1E
100
AcDbEntity
  8
17
100
AcDbLine
 10
95.04187167922777
 20
469.0306161999855
 30
0.0
 11
95.04187167922777
 21
455.0306161999855
 31
0.0
  0
LINE
  5
24837
330
1E
100
AcDbEntity
  8
17
100
AcDbLine
 10
88.04187167922789
 20
462.0306161999856
 30
0.0
 11
102.0418716792276
 21
462.0306161999856
 31
0.0
  0
LINE
  5
24838
330
1E
100
AcDbEntity
  8
17
100
AcDbLine
 10
125.0418716792278
 20
469.0306161999855
 30
0.0
 11
125.0418716792278
 21
455.0306161999855
 31
0.0
  0
LINE
  5
24839
330
1E
100
AcDbEntity
  8
17
100
AcDbLine
 10
118.0418716792279
 20
462.0306161999856
 30
0.0
 11
132.0418716792276
 21
462.0306161999856
 31
0.0
  0
LINE
  5
24856
330
1E
100
AcDbEntity
  8
10
100
AcDbLine
 10
95.99444496584437
 20
335.7670020103872
 30
0.0
 11
95.99444496584437
 21
339.9915178857351
 31
0.0
  0
LINE
  5
24857
330
1E
100
AcDbEntity
  8
10
100
AcDbLine
 10
109.4944322882338
 20
339.9915178857351
 30
0.0
 11
109.4944322882338
 21
335.7670020103872
 31
0.0
  0
LINE
  5
24858
330
1E
100
AcDbEntity
  8
10
100
AcDbLine
 10
80.99445903898498
 20
335.7670020103872
 30
0.0
 11
80.99445903898498
 21
339.9915178857351
 31
0.0
  0
LINE
  5
24859
330
1E
100
AcDbEntity
  8
10
100
AcDbLine
 10
94.49444636159798
 20
339.9915178857352
 30
0.0
 11
94.494446361598
 21
335.7670020103872
 31
0.0
  0
LINE
  5
2485A
330
1E
100
AcDbEntity
  8
10
100
AcDbLine
 10
79.49446020196394
 20
339.9915178857351
 30
0.0
 11
79.49446020196394
 21
335.7670020103872
 31
0.0
  0
LINE
  5
2485B
330
1E
100
AcDbEntity
  8
10
100
AcDbLine
 10
110.9944311254784
 20
335.7670020103872
 30
0.0
 11
110.9944311254784
 21
339.9915178857351
 31
0.0
  0
LWPOLYLINE
  5
2485C
330
1E
100
AcDbEntity
  8
10
100
AcDbPolyline
 90
        4
 70
     0
 43
0.0
 10
49.82263109239068
 20
335.7670020103872
 10
49.82263109239068
 20
335.7670020103872
 10
64.49447369305613
 20
335.7670020103872
 10
64.49447369305613
 20
339.9915178857351
  0
LINE
  5
2485D
330
1E
100
AcDbEntity
  8
10
100
AcDbLine
 10
65.99447346162304
 20
335.7670020103872
 30
0.0
 11
65.99447346162304
 21
339.9915178857351
 31
0.0
  0
LWPOLYLINE
  5
2485E
330
1E
100
AcDbEntity
  8
10
100
AcDbPolyline
 90
        4
 70
     0
 43
0.0
 10
140.2611122660649
 20
335.7670020103872
 10
140.2611122660649
 20
335.7670020103872
 10
125.5892696653994
 20
335.7670020103872
 10
125.5892696653994
 20
339.9915178857351
  0
CIRCLE
  5
2485F
330
1E
100
AcDbEntity
  8
24
100
AcDbCircle
 10
65.04187167922776
 20
348.0306161999857
 30
0.0
 40
5.999994365112642
  0
ELLIPSE
  5
24860
330
1E
100
AcDbEntity
  8
130
100
AcDbEllipse
 10
59.03655112540767
 20
351.0226103698252
 30
0.0
 11
-1.224716190266895
 21
2.749200778644313
 31
0.0
210
0.0
220
0.0
230
1.0
 40
0.9963343309
 41
5.865459295927847
 42
7.433525461465419
  0
ELLIPSE
  5
24861
330
1E
100
AcDbEntity
  8
130
100
AcDbEllipse
 10
71.03562588813874
 20
351.0226103698252
 30
0.0
 11
1.224716190266833
 21
2.749200778644375
 31
0.0
210
0.0
220
0.0
230
1.0
 40
0.9963343309
 41
5.132845152893018
 42
6.700911318431388
  0
LINE
  5
24862
330
1E
100
AcDbEntity
  8
130
100
AcDbLine
 10
56.03609555832522
 20
351.0308208701535
 30
0.0
 11
56.03609555832519
 21
339.9915178857351
 31
0.0
  0
LINE
  5
24863
330
1E
100
AcDbEntity
  8
0
  6
SLD-実線
 62
     8
370
     0
100
AcDbLine
 10
56.01010050715935
 20
351.15713629596
 30
0.0
 11
56.03609555832522
 21
351.1308208701535
 31
0.0
  0
LINE
  5
24864
330
1E
100
AcDbEntity
  8
130
100
AcDbLine
 10
74.06207665553281
 20
351.05713629596
 30
0.0
 11
74.06207665553281
 21
339.9915178857351
 31
0.0
  0
CIRCLE
  5
24865
330
1E
100
AcDbEntity
  8
24
100
AcDbCircle
 10
95.0418435047721
 20
348.0306161999857
 30
0.0
 40
5.999994365112642
  0
ELLIPSE
  5
24866
330
1E
100
AcDbEntity
  8
130
100
AcDbEllipse
 10
89.03652295095197
 20
351.0226103698252
 30
0.0
 11
-1.224716190266895
 21
2.749200778644313
 31
0.0
210
0.0
220
0.0
230
1.0
 40
0.9963343309
 41
5.865459295927847
 42
7.433525461465419
  0
ELLIPSE
  5
24867
330
1E
100
AcDbEntity
  8
130
100
AcDbEllipse
 10
101.035597713683
 20
351.0226103698252
 30
0.0
 11
1.224716190266833
 21
2.749200778644375
 31
0.0
210
0.0
220
0.0
230
1.0
 40
0.9963343309
 41
5.132845152893018
 42
6.700911318431388
  0
LINE
  5
24868
330
1E
100
AcDbEntity
  8
130
100
AcDbLine
 10
86.03606738386954
 20
351.0308208701535
 30
0.0
 11
86.03606738386954
 21
339.9915178857351
 31
0.0
  0
LINE
  5
2486A
330
1E
100
AcDbEntity
  8
130
100
AcDbLine
 10
104.062048481077
 20
351.05713629596
 30
0.0
 11
104.0620484810771
 21
339.9915178857351
 31
0.0
  0
CIRCLE
  5
2486B
330
1E
100
AcDbEntity
  8
24
100
AcDbCircle
 10
125.041815460679
 20
348.0306161999857
 30
0.0
 40
5.999994365112642
  0
ELLIPSE
  5
2486C
330
1E
100
AcDbEntity
  8
130
100
AcDbEllipse
 10
119.0364949068589
 20
351.0226103698252
 30
0.0
 11
-1.224716190266895
 21
2.749200778644313
 31
0.0
210
0.0
220
0.0
230
1.0
 40
0.9963343309
 41
5.865459295927847
 42
7.433525461465419
  0
ELLIPSE
  5
2486D
330
1E
100
AcDbEntity
  8
130
100
AcDbEllipse
 10
131.03556966959
 20
351.0226103698252
 30
0.0
 11
1.224716190266833
 21
2.749200778644375
 31
0.0
210
0.0
220
0.0
230
1.0
 40
0.9963343309
 41
5.132845152893018
 42
6.700911318431388
  0
LINE
  5
2486E
330
1E
100
AcDbEntity
  8
130
100
AcDbLine
 10
116.0360393397764
 20
351.0308208701535
 30
0.0
 11
116.0360393397764
 21
339.9915178857351
 31
0.0
  0
LINE
  5
2486F
330
1E
100
AcDbEntity
  8
0
  6
SLD-実線
 62
     8
370
     0
100
AcDbLine
 10
116.0100442886106
 20
351.15713629596
 30
0.0
 11
116.0360393397764
 21
351.1308208701535
 31
0.0
  0
LINE
  5
24870
330
1E
100
AcDbEntity
  8
130
100
AcDbLine
 10
134.0620204369841
 20
351.05713629596
 30
0.0
 11
134.0620204369841
 21
339.9915178857351
 31
0.0
  0
LINE
  5
24871
330
1E
100
AcDbEntity
  8
17
100
AcDbLine
 10
65.04187167922776
 20
341.0306161999858
 30
0.0
 11
65.04187167922776
 21
355.0306161999858
 31
0.0
  0
LINE
  5
24872
330
1E
100
AcDbEntity
  8
17
100
AcDbLine
 10
58.04187167922788
 20
348.0306161999857
 30
0.0
 11
72.04187167922765
 21
348.0306161999857
 31
0.0
  0
LINE
  5
24873
330
1E
100
AcDbEntity
  8
17
100
AcDbLine
 10
95.04187167922777
 20
341.0306161999858
 30
0.0
 11
95.04187167922777
 21
355.0306161999858
 31
0.0
  0
LINE
  5
24874
330
1E
100
AcDbEntity
  8
17
100
AcDbLine
 10
88.04187167922789
 20
348.0306161999857
 30
0.0
 11
102.0418716792276
 21
348.0306161999857
 31
0.0
  0
LINE
  5
24875
330
1E
100
AcDbEntity
  8
17
100
AcDbLine
 10
125.0418716792278
 20
341.0306161999858
 30
0.0
 11
125.0418716792278
 21
355.0306161999858
 31
0.0
  0
LINE
  5
24876
330
1E
100
AcDbEntity
  8
17
100
AcDbLine
 10
118.0418716792279
 20
348.0306161999857
 30
0.0
 11
132.0418716792276
 21
348.0306161999857
 31
0.0
  0
LINE
  5
24882
330
1E
100
AcDbEntity
  8
0
  6
SLD-実線
 62
     8
370
     0
100
AcDbLine
 10
104.0736710257518
 20
351.15713629596
 30
0.0
 11
104.047675974586
 21
351.1308208701535
 31
0.0
  0
LINE
  5
24883
330
1E
100
AcDbEntity
  8
0
  6
SLD-実線
 62
     8
370
     0
100
AcDbLine
 10
104.0736710257518
 20
351.15713629596
 30
0.0
 11
104.047675974586
 21
351.1308208701535
 31
0.0
  0
LINE
  5
24884
330
1E
100
AcDbEntity
  8
0
  6
SLD-実線
 62
     7
370
    30
100
AcDbLine
 10
114.3193534798812
 20
353.6303962568058
 30
0.0
 11
114.3106269873813
 21
353.621667901556
 31
0.0
  0
LINE
  5
24885
330
1E
100
AcDbEntity
  8
0
  6
SLD-実線
 62
     7
370
    30
100
AcDbLine
 10
114.3106269873813
 20
353.621667901556
 30
0.0
 11
105.3106264433813
 21
353.621667901556
 31
0.0
  0
LINE
  5
24886
330
1E
100
AcDbEntity
  8
0
  6
SLD-実線
 62
     7
370
    30
100
AcDbLine
 10
105.2891203426313
 20
344.608890543306
 30
0.0
 11
114.3321330881313
 21
344.608890543306
 31
0.0
  0
CIRCLE
  5
24887
330
1E
100
AcDbEntity
  8
12
  6
SLD-実線
370
     0
100
AcDbCircle
 10
109.8106265851312
 20
349.130395303056
 30
0.0
 40
4.332040220405366
  0
LINE
  5
24888
330
1E
100
AcDbEntity
  8
12
  6
DASHDOT
100
AcDbLine
 10
115.3106262496313
 20
349.1303945878062
 30
0.0
 11
104.310626249631
 21
349.1303945878062
 31
0.0
  0
LINE
  5
24889
330
1E
100
AcDbEntity
  8
12
  6
DASHDOT
100
AcDbLine
 10
109.8106262496312
 20
343.6303945878057
 30
0.0
 11
109.8106262496312
 21
354.6303945878059
 31
0.0
  0
LWPOLYLINE
  5
2488A
330
1E
100
AcDbEntity
  8
130
100
AcDbPolyline
 90
        4
 70
     1
 43
0.0
 10
114.3321330881313
 20
344.608890543306
 10
105.3106264433813
 20
344.608890543306
 10
105.3106264433813
 20
353.621667901556
 10
114.3321330881313
 20
353.621667901556
  0
VIEWPORT
  5
9AC
330
1A
100
AcDbEntity
 67
     1
  8
0
  6
Continuous
348
1001B
100
AcDbViewport
 10
0.0
 20
0.0
 30
0.0
 40
0.0
 41
0.0
 68
     1
 69
     1
 12
0.0
 22
0.0
 13
0.0
 23
0.0
 14
10.0
 24
10.0
 15
10.0
 25
10.0
 16
0.0
 26
0.0
 36
1.0
 17
0.0
 27
0.0
 37
0.0
 42
50.0
 43
0.0
 44
0.0
 45
0.0
 50
0.0
 51
0.0
 72
   100
 90
    32800
  1

281
     0
 71
     1
 74
     0
110
0.0
120
0.0
130
0.0
111
1.0
121
0.0
131
0.0
112
0.0
122
1.0
132
0.0
 79
     0
146
0.0
170
     0
 61
     5
292
     1
282
     1
141
0.0
142
0.0
 63
   250
421
  3355443
  0
VIEWPORT
  5
E19D
330
1A
100
AcDbEntity
 67
     1
  8
30
348
1001B
100
AcDbViewport
 10
0.0
 20
0.0
 30
0.0
 40
0.0
 41
0.0
 68
     2
 69
     2
 12
8.653370891979619
 22
137.2805829780177
 13
0.0
 23
0.0
 14
1.0
 24
1.0
 15
10.0
 25
10.0
 16
0.0
 26
0.0
 36
1.0
 17
0.0
 27
0.0
 37
0.0
 42
50.0
 43
0.0
 44
0.0
 45
689.9195596776387
 50
0.0
 51
0.0
 72
   100
 90
    37664
  1

281
     0
 71
     1
 74
     0
110
0.0
120
0.0
130
0.0
111
1.0
121
0.0
131
0.0
112
0.0
122
1.0
132
0.0
 79
     0
146
0.0
170
     0
 61
     5
292
     1
282
     1
141
0.0
142
0.0
 63
   250
421
  3355443
  0
ENDSEC
  0
SECTION
  2
OBJECTS
  0
DICTIONARY
  5
C
330
0
100
AcDbDictionary
281
     1
  3
ACAD_CIP_PREVIOUS_PRODUCT_INFO
350
246F9
  3
ACAD_COLOR
350
10029
  3
ACAD_DETAILVIEWSTYLE
350
246F4
  3
ACAD_GROUP
350
D
  3
ACAD_LAYOUT
350
19
  3
ACAD_MATERIAL
350
FFFC
  3
ACAD_MLEADERSTYLE
350
1004E
  3
ACAD_MLINESTYLE
350
16
  3
ACAD_PLOTSETTINGS
350
18
  3
ACAD_PLOTSTYLENAME
350
E
  3
ACAD_SCALELIST
350
1002C
  3
ACAD_SECTIONVIEWSTYLE
350
246F2
  3
ACAD_TABLESTYLE
350
1002A
  3
ACAD_VISUALSTYLE
350
10015
  3
ACADDIM
350
6D5E
  3
ACDB_RECOMPOSE_DATA
350
2488E
  3
ACDBVARIABLEDICTIONARY
350
5697
  3
AEC_PROPERTY_SET_DEFS
350
102B7
  3
ASE_INDEX_DICTIONARY
350
1012A
  0
DICTIONARY
  5
160A2
330
2
100
AcDbDictionary
280
     1
281
     1
  3
ACAD_LAYERSTATES
360
160A3
  0
DICTIONARY
  5
10054
330
10
100
AcDbDictionary
280
     1
281
     1
  3
ADSK_XREC_LAYER_RECONCILED
360
10055
  0
DICTIONARY
  5
10056
330
2F
100
AcDbDictionary
280
     1
281
     1
  3
ADSK_XREC_LAYER_RECONCILED
360
10057
  0
DICTIONARY
  5
1005A
330
35
100
AcDbDictionary
280
     1
281
     1
  3
ADSK_XREC_LAYER_RECONCILED
360
1005B
  0
DICTIONARY
  5
1005E
330
3D
100
AcDbDictionary
280
     1
281
     1
  3
ADSK_XREC_LAYER_RECONCILED
360
1005F
  0
DICTIONARY
  5
10060
330
3A2
100
AcDbDictionary
280
     1
281
     1
  3
ADSK_XREC_LAYER_RECONCILED
360
10061
  0
DICTIONARY
  5
10062
330
3BBA
100
AcDbDictionary
280
     1
281
     1
  3
ADSK_XREC_LAYER_RECONCILED
360
10063
  0
DICTIONARY
  5
10064
330
67A8
100
AcDbDictionary
280
     1
281
     1
  3
ADSK_XREC_LAYER_RECONCILED
360
10065
  0
DICTIONARY
  5
10066
330
7837
100
AcDbDictionary
280
     1
281
     1
  3
ADSK_XREC_LAYER_RECONCILED
360
10067
  0
DICTIONARY
  5
10070
330
C500
100
AcDbDictionary
280
     1
281
     1
  3
ADSK_XREC_LAYER_RECONCILED
360
10071
  0
DICTIONARY
  5
10072
330
C501
100
AcDbDictionary
280
     1
281
     1
  3
ADSK_XREC_LAYER_RECONCILED
360
10073
  0
DICTIONARY
  5
10076
330
F7D2
100
AcDbDictionary
280
     1
281
     1
  3
ADSK_XREC_LAYER_RECONCILED
360
10077
  0
DICTIONARY
  5
10078
330
F7D8
100
AcDbDictionary
280
     1
281
     1
  3
ADSK_XREC_LAYER_RECONCILED
360
10079
  0
DICTIONARY
  5
1007A
330
F9C3
100
AcDbDictionary
280
     1
281
     1
  3
ADSK_XREC_LAYER_RECONCILED
360
1007B
  0
DICTIONARY
  5
178
330
1E
100
AcDbDictionary
280
     1
281
     1
  3
ACAD_LAYOUTSELFREF
360
9011
  3
ACAD_SORTENTS
360
10128
  0
DICTIONARY
  5
17A
330
1A
100
AcDbDictionary
280
     1
281
     1
  3
ACAD_LAYOUTSELFREF
360
9010
  0
DICTIONARY
  5
23CEC
330
15CE1
100
AcDbDictionary
280
     1
281
     1
  3
ACAD_SORTENTS
360
23CED
  0
DICTIONARY
  5
24581
330
240E0
100
AcDbDictionary
280
     1
281
     1
  3
AcDbContextDataManager
360
24582
  0
XRECORD
  5
246F9
102
{ACAD_REACTORS
330
C
102
}
330
C
100
AcDbXrecord
280
     1
300
ACDLT
300
2014
300
ACDLT_F_S
  0
DICTIONARY
  5
10029
102
{ACAD_REACTORS
330
C
102
}
330
C
100
AcDbDictionary
281
     1
  0
DICTIONARY
  5
246F4
102
{ACAD_REACTORS
330
C
102
}
330
C
100
AcDbDictionary
281
     1
  3
Imperial24
350
246F5
  0
DICTIONARY
  5
D
102
{ACAD_REACTORS
330
C
102
}
330
C
100
AcDbDictionary
281
     1
  0
DICTIONARY
  5
19
102
{ACAD_REACTORS
330
C
102
}
330
C
100
AcDbDictionary
281
     1
  3
Model
350
904E
  3
ﾚｲｱｳﾄ1
350
904F
  0
DICTIONARY
  5
FFFC
102
{ACAD_REACTORS
330
C
102
}
330
C
100
AcDbDictionary
281
     1
  3
ByBlock
350
10005
  3
ByLayer
350
FFFD
  3
Global
350
1000D
  0
DICTIONARY
  5
1004E
102
{ACAD_REACTORS
330
C
102
}
330
C
100
AcDbDictionary
281
     1
  3
Standard
350
1004F
  0
DICTIONARY
  5
16
102
{ACAD_REACTORS
330
C
102
}
330
C
100
AcDbDictionary
281
     1
  3
STANDARD
350
17
  0
DICTIONARY
  5
18
102
{ACAD_REACTORS
330
C
102
}
330
C
100
AcDbDictionary
281
     1
  0
ACDBDICTIONARYWDFLT
  5
E
102
{ACAD_REACTORS
330
C
102
}
330
C
100
AcDbDictionary
281
     1
  3
Normal
350
F
100
AcDbDictionaryWithDefault
340
F
  0
DICTIONARY
  5
1002C
102
{ACAD_REACTORS
330
C
102
}
330
C
100
AcDbDictionary
281
     1
  3
A0
350
1002D
  3
A1
350
1002E
  3
A2
350
1002F
  3
A3
350
10030
  3
A4
350
10031
  3
A5
350
10032
  3
A6
350
10033
  3
A7
350
10034
  3
A8
350
10035
  3
A9
350
10036
  3
B0
350
10037
  3
B1
350
10038
  3
B2
350
10039
  3
B3
350
1003A
  3
B4
350
1003B
  3
B5
350
1003C
  3
B6
350
1003D
  3
B7
350
1003E
  3
B8
350
1003F
  3
B9
350
10040
  3
C0
350
10041
  3
C1
350
10042
  3
C2
350
10043
  3
C3
350
10044
  3
C4
350
10045
  3
C5
350
10046
  3
C6
350
10047
  3
C7
350
10048
  3
C8
350
10049
  3
C9
350
1004A
  3
D0
350
1004B
  3
D1
350
1004C
  3
D2
350
1004D
  0
DICTIONARY
  5
246F2
102
{ACAD_REACTORS
330
C
102
}
330
C
100
AcDbDictionary
281
     1
  3
Imperial24
350
246F3
  0
DICTIONARY
  5
1002A
102
{ACAD_REACTORS
330
C
102
}
330
C
100
AcDbDictionary
281
     1
  3
Standard
350
1002B
  0
DICTIONARY
  5
10015
102
{ACAD_REACTORS
330
C
102
}
330
C
100
AcDbDictionary
281
     1
  3
2dWireframe
350
1001B
  3
3D Hidden
350
1001D
  3
3dWireframe
350
1001C
  3
Basic
350
1001A
  3
Brighten
350
10021
  3
ColorChange
350
10025
  3
Conceptual
350
1001E
  3
Dim
350
10020
  3
EdgeColorOff
350
10028
  3
Facepattern
350
10024
  3
Flat
350
10016
  3
FlatWithEdges
350
10017
  3
Gouraud
350
10018
  3
GouraudWithEdges
350
10019
  3
Hidden
350
246EC
  3
JitterOff
350
10026
  3
Linepattern
350
10023
  3
OverhangOff
350
10027
  3
Realistic
350
1001F
  3
Shaded
350
246F1
  3
Shaded with edges
350
246F0
  3
Shades of Gray
350
246ED
  3
Sketchy
350
246EE
  3
Thicken
350
10022
  3
Wireframe
350
246EB
  3
X-Ray
350
246EF
  0
XRECORD
  5
6D5E
102
{ACAD_REACTORS
330
C
102
}
330
C
100
AcDbXrecord
280
     1
 90
   990106
  3

 60
     0
 61
     0
 62
     1
 63
     3
 64
     0
 65
     0
 66
     0
 67
     3
 68
     1
 69
     0
 70
     0
 71
     0
 72
     0
 40
0.0
170
     0
340
0
  0
XRECORD
  5
2488E
102
{ACAD_REACTORS
330
C
102
}
330
C
100
AcDbXrecord
280
     1
 90
        1
330
1002B
330
246F3
330
246F5
  0
DICTIONARY
  5
5697
102
{ACAD_REACTORS
330
C
102
}
330
C
100
AcDbDictionary
281
     1
  3
CANNOSCALE
350
100CD
  3
CMLEADERSTYLE
350
100CC
  3
CTABLESTYLE
350
100CB
  3
CVIEWDETAILSTYLE
350
24775
  3
CVIEWSECTIONSTYLE
350
24776
  3
DIMASSOC
350
5698
  3
INDEXCTL
350
100CF
  3
LAYEREVAL
350
228A5
  3
LAYERNOTIFY
350
228A6
  3
LIGHTINGUNITS
350
228A4
  3
MSLTSCALE
350
228A3
  3
SORTENTS
350
100CE
  0
DICTIONARY
  5
102B7
102
{ACAD_REACTORS
330
C
102
}
330
C
100
AcDbDictionary
281
     1
  0
DICTIONARY
  5
1012A
102
{ACAD_REACTORS
330
C
102
}
330
C
100
AcDbDictionary
281
     1
  3
ASEBlockHierarchyIndexRecord
350
1012C
1001
DCO15
1040
1706443972.030999
  0
DICTIONARY
  5
160A3
102
{ACAD_REACTORS
330
160A2
102
}
330
160A2
100
AcDbDictionary
281
     1
  0
XRECORD
  5
10055
102
{ACAD_REACTORS
330
10054
102
}
330
10054
100
AcDbXrecord
280
     1
290
     1
  0
XRECORD
  5
10057
102
{ACAD_REACTORS
330
10056
102
}
330
10056
100
AcDbXrecord
280
     1
290
     1
  0
XRECORD
  5
1005B
102
{ACAD_REACTORS
330
1005A
102
}
330
1005A
100
AcDbXrecord
280
     1
290
     1
  0
XRECORD
  5
1005F
102
{ACAD_REACTORS
330
1005E
102
}
330
1005E
100
AcDbXrecord
280
     1
290
     1
  0
XRECORD
  5
10061
102
{ACAD_REACTORS
330
10060
102
}
330
10060
100
AcDbXrecord
280
     1
290
     1
  0
XRECORD
  5
10063
102
{ACAD_REACTORS
330
10062
102
}
330
10062
100
AcDbXrecord
280
     1
290
     1
  0
XRECORD
  5
10065
102
{ACAD_REACTORS
330
10064
102
}
330
10064
100
AcDbXrecord
280
     1
290
     1
  0
XRECORD
  5
10067
102
{ACAD_REACTORS
330
10066
102
}
330
10066
100
AcDbXrecord
280
     1
290
     1
  0
XRECORD
  5
10071
102
{ACAD_REACTORS
330
10070
102
}
330
10070
100
AcDbXrecord
280
     1
290
     1
  0
XRECORD
  5
10073
102
{ACAD_REACTORS
330
10072
102
}
330
10072
100
AcDbXrecord
280
     1
290
     1
  0
XRECORD
  5
10077
102
{ACAD_REACTORS
330
10076
102
}
330
10076
100
AcDbXrecord
280
     1
290
     1
  0
XRECORD
  5
10079
102
{ACAD_REACTORS
330
10078
102
}
330
10078
100
AcDbXrecord
280
     1
290
     1
  0
XRECORD
  5
1007B
102
{ACAD_REACTORS
330
1007A
102
}
330
1007A
100
AcDbXrecord
280
     1
290
     1
  0
XRECORD
  5
9011
102
{ACAD_REACTORS
330
178
102
}
330
178
100
AcDbXrecord
280
     1
340
1E
  0
SORTENTSTABLE
  5
10128
102
{ACAD_REACTORS
330
178
102
}
330
178
100
AcDbSortentsTable
330
1E
331
20588
  5
20647
331
1FCCC
  5
1FCCF
331
1FC56
  5
1FC59
331
2035A
  5
2038A
331
22AE5
  5
22AE6
331
21BC8
  5
21BCB
331
22DF4
  5
22E46
331
1FE14
  5
1FE60
331
22D2B
  5
22DEB
331
1FCD4
  5
1FCDA
331
1FC5E
  5
1FC61
331
1FC95
  5
1FC99
331
1FCDC
  5
1FCDF
331
152AF
  5
152AF
331
1FC66
  5
1FC69
331
1FC6E
  5
1FC71
331
1FCA5
  5
1FCA8
331
1FC2F
  5
1FC32
331
1FCE4
  5
1FCE7
331
20419
  5
2043A
331
1FCEC
  5
1FCEF
331
20481
  5
205B0
331
22698
  5
20452
331
1FC76
  5
1FC79
331
1FCAD
  5
1FCB0
331
1FC37
  5
1FC3A
331
20BBA
  5
20BDC
331
22E9C
  5
22EA0
331
22EA4
  5
22EF5
331
20A43
  5
20BD1
331
22EF4
  5
22EF8
331
22AC6
  5
22AC7
331
22D25
  5
22D29
331
22AD6
  5
22AD7
331
1FD0C
  5
1FE10
331
1FD07
  5
1FD0B
331
22E01
  5
22E50
331
1FCF4
  5
1FCF7
331
20489
  5
20632
331
1FC3F
  5
1FC42
331
1FC7E
  5
1FC81
331
1FCB5
  5
1FCB8
331
1FCBD
  5
1FCC0
331
1FCFC
  5
1FCFF
331
1FC47
  5
1FC4A
331
1FC86
  5
1FC89
331
20638
  5
20BB9
331
2034B
  5
2034E
331
20650
  5
20BCD
331
1FC8E
  5
1FC91
331
1FCC5
  5
1FCC8
331
1FC4F
  5
1FC52
331
1FDBC
  5
1FDBD
331
2035B
  5
2038B
331
20BD2
  5
21938
331
1FCCD
  5
1FCD4
331
1FC57
  5
1FC5A
331
22AE6
  5
22AE7
331
22DF5
  5
22E47
331
140D8
  5
140D8
331
1FC5F
  5
1FC62
331
1FC96
  5
1FC9A
331
1FCDD
  5
1FCE0
331
1FC67
  5
1FC6A
331
1FC9E
  5
1FCA1
331
1FCE5
  5
1FCE8
331
1FC30
  5
1FC33
331
1FC6F
  5
1FC72
331
1FCA6
  5
1FCA9
331
20BB3
  5
20388
331
1FCAE
  5
1FCB1
331
1FCED
  5
1FCF0
331
1FC77
  5
1FC7A
331
20BBB
  5
20BDD
331
22E9D
  5
22EA1
331
22B06
  5
22B10
331
22EA5
  5
22EF6
331
21B82
  5
21B85
331
22AC7
  5
22AC8
331
22EF5
  5
22EF9
331
22AD7
  5
22AD8
331
22D26
  5
22D2A
331
20645
  5
20BC0
331
1FD00
  5
1FD03
331
22E02
  5
22E51
331
1FC38
  5
1FC3B
331
1FC7F
  5
1FC82
331
1FCB6
  5
1FCB9
331
1FC40
  5
1FC43
331
1FCF5
  5
1FCF8
331
2048A
  5
2063A
331
1FCFD
  5
1FD00
331
20639
  5
20BBA
331
1FC87
  5
1FC8A
331
1FCBE
  5
1FCC1
331
1FC48
  5
1FC4B
331
1FDBD
  5
1FE0E
331
2034C
  5
2034F
331
1FC50
  5
1FC53
331
1FC8F
  5
1FC92
331
1FCC6
  5
1FCC9
331
20BD3
  5
2063B
331
1FCCE
  5
1FCD6
331
22AE7
  5
22AE8
331
230A5
  5
22EFD
331
22DF6
  5
22E48
331
1FE16
  5
1FE7B
331
22DFD
  5
22E4D
331
2064E
  5
20BC9
331
1FC58
  5
1FC5B
331
1FCD6
  5
1FCDB
331
1FC60
  5
1FC63
331
1FC9F
  5
1FCA3
331
1FCDE
  5
1FCE1
331
1FC68
  5
1FC6B
331
202ED
  5
202F0
331
1FC70
  5
1FC73
331
1FCA7
  5
1FCAA
331
1FC31
  5
1FC34
331
1FCE6
  5
1FCE9
331
1FCEE
  5
1FCF1
331
20483
  5
2061D
331
1FCAF
  5
1FCB2
331
226DA
  5
226DB
331
22AFF
  5
22B00
331
20BBC
  5
20430
331
22E9E
  5
22EA2
331
22EA6
  5
22EF7
331
20BC4
  5
205AE
331
21B83
  5
21B86
331
20A4D
  5
204F9
331
22D27
  5
22D2B
331
20646
  5
20BC2
331
1FD01
  5
1FD04
331
22E03
  5
22E52
331
1FC39
  5
1FC3C
331
1FC78
  5
1FC7B
331
203D4
  5
203F2
331
1FCF6
  5
1FCF9
331
20632
  5
20BB7
331
1FC41
  5
1FC44
331
1FC80
  5
1FC83
331
1FCB7
  5
1FCBA
331
1FCBF
  5
1FCC2
331
1FCFE
  5
1FD01
331
204EB
  5
2063C
331
1FC49
  5
1FC4C
331
1FC88
  5
1FC8B
331
2034D
  5
20350
331
1FCC7
  5
1FCCA
331
203F4
  5
20413
331
1FC51
  5
1FC54
331
204F3
  5
2063F
331
1FCCF
  5
1FCD9
331
22AE8
  5
22AE9
331
22DDF
  5
22E42
331
20BDC
  5
21A30
331
22869
  5
22874
331
22871
  5
22876
331
22AF0
  5
22AF1
331
22DF7
  5
22E49
331
20BAD
  5
20BD3
331
22DFE
  5
22E4E
331
2064F
  5
20BCB
331
1FC90
  5
1FC93
331
1FC59
  5
1FC5C
331
1FE0E
  5
1FE11
331
1FC61
  5
1FC64
331
1FC98
  5
1FC9B
331
1FCDF
  5
1FCE2
331
1FC69
  5
1FC6C
331
1FCA0
  5
1FCA4
331
1FCA8
  5
1FCAB
331
1FCE7
  5
1FCEA
331
1FC32
  5
1FC35
331
1FC71
  5
1FC74
331
202EE
  5
202F1
331
203CD
  5
203DD
331
1FCEF
  5
1FCF2
331
226DB
  5
226DC
331
22B00
  5
22B01
331
22E9F
  5
22EA3
331
20BC5
  5
2058E
331
21BA4
  5
21BA8
331
20A4E
  5
2043C
331
22F7F
  5
230A8
331
1FD02
  5
1FD05
331
22E04
  5
22E9B
331
1FCB0
  5
1FCB3
331
1FC3A
  5
1FC3D
331
1FC79
  5
1FC7C
331
203D5
  5
203F3
331
1FC81
  5
1FC84
331
1FCB8
  5
1FCBB
331
1FC42
  5
1FC45
331
1FCF7
  5
1FCFA
331
1FCFF
  5
1FD02
331
1FC4A
  5
1FC4D
331
1FC89
  5
1FC8C
331
1FCC0
  5
1FCC3
331
203ED
  5
20406
331
1FC52
  5
1FC55
331
22DE0
  5
22E43
331
2309F
  5
22D20
331
20A66
  5
20BD2
331
20BAE
  5
20BD6
331
22E40
  5
22DED
331
1FE10
  5
1FE13
331
1FE5F
  5
202CB
331
22DFF
  5
22E4F
331
20648
  5
20BC4
331
1FC5A
  5
1FC5D
331
1FC91
  5
1FC94
331
203FD
  5
2041A
331
1FC62
  5
1FC65
331
1FE0F
  5
1FE12
331
1FCA1
  5
1FCA5
331
1FCE0
  5
1FCE3
331
1FC2B
  5
1FC2E
331
1FC6A
  5
1FC6D
331
202EF
  5
202F2
331
1FC72
  5
1FC75
331
1FCA9
  5
1FCAC
331
1FC33
  5
1FC36
331
1FCE8
  5
1FCEB
331
20485
  5
2061F
331
20BB6
  5
2035E
331
22EA0
  5
22EA4
331
22B01
  5
22B02
331
226DC
  5
226DD
331
22D21
  5
22D25
331
1FD03
  5
1FD06
331
22E05
  5
22E9C
331
22F03
  5
230A4
331
1FCF0
  5
1FCF3
331
1FC3B
  5
1FC3E
331
1FC7A
  5
1FC7D
331
1FCB1
  5
1FCB4
331
203D6
  5
20400
331
1FCB9
  5
1FCBC
331
1FCF8
  5
1FCFB
331
1FC43
  5
1FC46
331
1FC82
  5
1FC85
331
202FF
  5
20302
331
1FCC1
  5
1FCC4
331
203EE
  5
20407
331
1FC4B
  5
1FC4E
331
1FC8A
  5
1FC8D
331
1FCC9
  5
1FCCC
331
203F6
  5
20414
331
1FC53
  5
1FC56
331
21BC5
  5
21BC8
331
22DE1
  5
22E44
331
1FE11
  5
1FE14
331
22DF8
  5
22E4A
331
22D28
  5
22D2C
331
1FC5B
  5
1FC5E
331
1FC92
  5
1FC95
331
205AD
  5
20A49
331
1FE60
  5
202CC
331
20397
  5
203B1
331
1FC63
  5
1FC66
331
1FC9A
  5
1FC9F
331
1FCD9
  5
1FCDC
331
1FCE1
  5
1FCE4
331
1FC2C
  5
1FC2F
331
1FC6B
  5
1FC6E
331
205CD
  5
20BAE
331
203B7
  5
203DA
331
20A28
  5
1F9E9
331
1FCAA
  5
1FCAD
331
1FCE9
  5
1FCEC
331
1FC34
  5
1FC37
331
1FC73
  5
1FC76
331
202F0
  5
202F3
331
22A8B
  5
20BCA
331
20A38
  5
20BCE
331
22B02
  5
22B03
331
22EA1
  5
22EA5
331
21BA6
  5
21BA9
331
22D22
  5
22D26
331
20641
  5
20BBC
331
1FD04
  5
1FD07
331
1FD09
  5
1FDBC
331
22F04
  5
230A5
331
20B7A
  5
20BD4
331
1FCB2
  5
1FCB5
331
1FCF1
  5
1FCF4
331
1FC3C
  5
1FC3F
331
1FC7B
  5
1FC7E
331
20300
  5
20303
331
1FC83
  5
1FC86
331
1FCBA
  5
1FCBD
331
1FC44
  5
1FC47
331
1FCF9
  5
1FCFC
331
1FC4C
  5
1FC4F
331
1FC8B
  5
1FC8E
331
1FCC2
  5
1FCC5
331
1FCCA
  5
1FCCD
331
1FC54
  5
1FC57
331
20A50
  5
2056D
331
22844
  5
22871
331
22DE2
  5
22E45
331
21BC6
  5
21BC9
331
1FE12
  5
1FE16
331
22DF9
  5
22E4B
331
22D29
  5
22DE6
331
1FC5C
  5
1FC5F
331
1FC93
  5
1FC96
331
20398
  5
203B2
331
1FC9B
  5
1FCA0
331
1FCDA
  5
1FCDD
331
203FF
  5
2041C
331
1FC64
  5
1FC67
331
1FC6C
  5
1FC6F
331
1FCA3
  5
1FCA6
331
1FC2D
  5
1FC30
331
1FCE2
  5
1FCE5
331
20417
  5
20431
331
205F6
  5
20BB3
331
1FC74
  5
1FC77
331
1FCAB
  5
1FCAE
331
1FC35
  5
1FC38
331
1FCEA
  5
1FCED
331
20A39
  5
20BCF
331
205FE
  5
20BB5
331
22EA2
  5
22EA6
331
20A49
  5
2042F
331
22D1B
  5
22D1B
331
22D23
  5
22D27
331
22AD4
  5
22AD5
331
20642
  5
20BBD
331
1FD05
  5
1FD09
331
22625
  5
22628
331
1FCF2
  5
1FCF5
331
1FC3D
  5
1FC40
331
1FC7C
  5
1FC7F
331
1FCB3
  5
1FCB6
331
1FCBB
  5
1FCBE
331
1FC45
  5
1FC48
331
1FCFA
  5
1FCFD
331
1FCC3
  5
1FCC6
331
1FDBA
  5
1FDBA
331
1FC4D
  5
1FC50
331
1FC8C
  5
1FC8F
331
20A51
  5
20573
331
1FCCB
  5
1FCCE
331
1FC55
  5
1FC58
331
22AE4
  5
22AE5
331
21BC7
  5
21BCA
331
20B91
  5
20BD5
331
1FE13
  5
1FE5F
331
22DFA
  5
22E4C
331
22D2A
  5
22DEA
331
1FC5D
  5
1FC60
331
1FC94
  5
1FC98
331
1FCDB
  5
1FCDE
331
1FC65
  5
1FC68
331
20399
  5
203B3
331
152AE
  5
152AE
331
1FCE3
  5
1FCE6
331
20418
  5
20437
331
1FC2E
  5
1FC31
331
1FC6D
  5
1FC70
331
1FCA4
  5
1FCA7
331
1FCAC
  5
1FCAF
331
1FCEB
  5
1FCEE
331
1FC36
  5
1FC39
331
1FC75
  5
1FC78
331
205F7
  5
20BB4
331
22E9B
  5
22E9F
331
20BB9
  5
20640
331
22EA3
  5
22EF4
331
20A42
  5
20BD0
331
20BC1
  5
20568
331
22AC5
  5
22AC6
331
22D1C
  5
22D1C
331
20BC9
  5
20BB6
331
22AD5
  5
22AD6
331
22D24
  5
22D28
331
20643
  5
20BBE
331
22903
  5
22A34
331
1FD06
  5
1FD0A
331
1FD0B
  5
1FE0F
331
22F06
  5
230A7
331
1FC7D
  5
1FC80
331
1FCB4
  5
1FCB7
331
1FC3E
  5
1FC41
331
1FCF3
  5
1FCF6
331
20488
  5
20620
331
20637
  5
20BB8
331
1FC85
  5
1FC88
331
1FCBC
  5
1FCBF
331
1FC46
  5
1FC49
331
1FCFB
  5
1FCFE
331
204F0
  5
2063E
331
1FDBB
  5
1FDBB
331
1FC4E
  5
1FC51
331
1FC8D
  5
1FC90
331
1FCC4
  5
1FCC7
331
203F1
  5
20409
  0
XRECORD
  5
9010
102
{ACAD_REACTORS
330
17A
102
}
330
17A
100
AcDbXrecord
280
     1
340
1A
  0
SORTENTSTABLE
  5
23CED
102
{ACAD_REACTORS
330
23CEC
102
}
330
23CEC
100
AcDbSortentsTable
330
15CE1
  0
DICTIONARY
  5
24582
102
{ACAD_REACTORS
330
24581
102
}
330
24581
100
AcDbDictionary
281
     1
  3
ACDB_ANNOTATIONSCALES
350
24583
  0
ACDBDETAILVIEWSTYLE
  5
246F5
102
{ACAD_XDICTIONARY
360
2477B
102
}
102
{ACAD_REACTORS
330
246F4
102
}
330
246F4
100
AcDbModelDocViewStyle
 70
     0
  3
Imperial24
290
     0
100
AcDbDetailViewStyle
 70
     0
 71
     0
 90
        3
 71
     1
340
11
 62
   256
 40
0.24
340
0
 62
   256
 40
0.24
300

 40
0.36
280
     3
 71
     2
340
15
 90
       25
 62
   256
 71
     3
340
11
 62
   256
 40
0.24
 90
        1
 40
0.75
 90
        1
300
%<\AcVar ViewType \f "%tc1">% %<\AcVar ViewDetailId>%\PSCALE %<\AcVar ViewScale \f "%sn">%
 71
     4
340
15
 90
       25
 62
   256
340
15
 90
       25
 62
   256
280
     0
  0
LAYOUT
  5
904E
102
{ACAD_XDICTIONARY
360
1F6F5
102
}
102
{ACAD_REACTORS
330
19
102
}
330
19
100
AcDbPlotSettings
  1

  2
Canon LBP3800 LIPSLX
  4
A4
  6

 40
5.873749732971191
 41
5.873747825622557
 42
5.873748779296875
 43
5.873748779296875
 44
209.9733276367186
 45
296.9259948730469
 46
12.8491819637551
 47
19.52827530649846
 48
0.0
 49
0.0
140
0.0
141
0.0
142
1.0
143
2.5
 70
 11940
 72
     1
 73
     0
 74
     1
  7
monochrome.ctb
 75
     0
147
0.4396468539207607
 76
     0
 77
     2
 78
   300
148
148.1273750533901
149
230.5569407722878
100
AcDbLayout
  1
Model
 70
     1
 71
     0
 10
0.0
 20
0.0
 11
12.0
 21
9.0
 12
0.0
 22
0.0
 32
0.0
 14
0.0
 24
0.0
 34
0.0
 15
0.0
 25
0.0
 35
0.0
146
0.0
 13
0.0
 23
0.0
 33
0.0
 16
1.0
 26
0.0
 36
0.0
 17
0.0
 27
1.0
 37
0.0
 76
     0
330
1E
331
15B34
1001
ACAD_PSEXT
1000
Canon LBP3800 LIPSLX
1000
Canon LBP3800 LIPSLX
1000
IP_192.168.54.50
1000

1070
     0
  0
LAYOUT
  5
904F
102
{ACAD_REACTORS
330
19
102
}
330
19
100
AcDbPlotSettings
  1

  2
LBP5400
  4

  6

 40
0.0
 41
0.0
 42
0.0
 43
0.0
 44
0.0
 45
0.0
 46
0.0
 47
0.0
 48
0.0
 49
0.0
140
0.0
141
0.0
142
1.0
143
1.0
 70
   688
 72
     0
 73
     1
 74
     1
  7
monochrome.stb
 75
     0
147
1.0
 76
     0
 77
     2
 78
   300
148
0.0
149
0.0
100
AcDbLayout
  1
ﾚｲｱｳﾄ1
 70
     0
 71
     1
 10
0.0
 20
0.0
 11
0.0
 21
0.0
 12
0.0
 22
0.0
 32
0.0
 14
0.0
 24
0.0
 34
0.0
 15
0.0
 25
0.0
 35
0.0
146
0.0
 13
0.0
 23
0.0
 33
0.0
 16
1.0
 26
0.0
 36
0.0
 17
0.0
 27
1.0
 37
0.0
 76
     0
330
1A
331
9AC
  0
MATERIAL
  5
10005
102
{ACAD_XDICTIONARY
360
10006
102
}
102
{ACAD_REACTORS
330
FFFC
102
}
330
FFFC
100
AcDbMaterial
  1
ByBlock
 72
     0
 43
0.0208333333333333
 43
0.0
 43
0.0
 43
0.0
 43
0.0
 43
0.0208333333333333
 43
0.0
 43
0.0
 43
0.0
 43
0.0
 43
1.0
 43
0.0
 43
0.0
 43
0.0
 43
0.0
 43
1.0
 77
     0
 47
0.0208333333333333
 47
0.0
 47
0.0
 47
0.0
 47
0.0
 47
0.0208333333333333
 47
0.0
 47
0.0
 47
0.0
 47
0.0
 47
1.0
 47
0.0
 47
0.0
 47
0.0
 47
0.0
 47
1.0
171
     0
 49
0.0208333333333333
 49
0.0
 49
0.0
 49
0.0
 49
0.0
 49
0.0208333333333333
 49
0.0
 49
0.0
 49
0.0
 49
0.0
 49
1.0
 49
0.0
 49
0.0
 49
0.0
 49
0.0
 49
1.0
175
     0
142
0.0208333333333333
142
0.0
142
0.0
142
0.0
142
0.0
142
0.0208333333333333
142
0.0
142
0.0
142
0.0
142
0.0
142
1.0
142
0.0
142
0.0
142
0.0
142
0.0
142
1.0
179
     0
144
0.0208333333333333
144
0.0
144
0.0
144
0.0
144
0.0
144
0.0208333333333333
144
0.0
144
0.0
144
0.0
144
0.0
144
1.0
144
0.0
144
0.0
144
0.0
144
0.0
144
1.0
147
0.0208333333333333
147
0.0
147
0.0
147
0.0
147
0.0
147
0.0208333333333333
147
0.0
147
0.0
147
0.0
147
0.0
147
1.0
147
0.0
147
0.0
147
0.0
147
0.0
147
1.0
  0
MATERIAL
  5
FFFD
102
{ACAD_XDICTIONARY
360
FFFE
102
}
102
{ACAD_REACTORS
330
FFFC
102
}
330
FFFC
100
AcDbMaterial
  1
ByLayer
 72
     0
 43
0.0208333333333333
 43
0.0
 43
0.0
 43
0.0
 43
0.0
 43
0.0208333333333333
 43
0.0
 43
0.0
 43
0.0
 43
0.0
 43
1.0
 43
0.0
 43
0.0
 43
0.0
 43
0.0
 43
1.0
 77
     0
 47
0.0208333333333333
 47
0.0
 47
0.0
 47
0.0
 47
0.0
 47
0.0208333333333333
 47
0.0
 47
0.0
 47
0.0
 47
0.0
 47
1.0
 47
0.0
 47
0.0
 47
0.0
 47
0.0
 47
1.0
171
     0
 49
0.0208333333333333
 49
0.0
 49
0.0
 49
0.0
 49
0.0
 49
0.0208333333333333
 49
0.0
 49
0.0
 49
0.0
 49
0.0
 49
1.0
 49
0.0
 49
0.0
 49
0.0
 49
0.0
 49
1.0
175
     0
142
0.0208333333333333
142
0.0
142
0.0
142
0.0
142
0.0
142
0.0208333333333333
142
0.0
142
0.0
142
0.0
142
0.0
142
1.0
142
0.0
142
0.0
142
0.0
142
0.0
142
1.0
179
     0
144
0.0208333333333333
144
0.0
144
0.0
144
0.0
144
0.0
144
0.0208333333333333
144
0.0
144
0.0
144
0.0
144
0.0
144
1.0
144
0.0
144
0.0
144
0.0
144
0.0
144
1.0
147
0.0208333333333333
147
0.0
147
0.0
147
0.0
147
0.0
147
0.0208333333333333
147
0.0
147
0.0
147
0.0
147
0.0
147
1.0
147
0.0
147
0.0
147
0.0
147
0.0
147
1.0
  0
MATERIAL
  5
1000D
102
{ACAD_XDICTIONARY
360
1000E
102
}
102
{ACAD_REACTORS
330
FFFC
102
}
330
FFFC
100
AcDbMaterial
  1
Global
 72
     0
 43
0.0208333333333333
 43
0.0
 43
0.0
 43
0.0
 43
0.0
 43
0.0208333333333333
 43
0.0
 43
0.0
 43
0.0
 43
0.0
 43
1.0
 43
0.0
 43
0.0
 43
0.0
 43
0.0
 43
1.0
 77
     0
 47
0.0208333333333333
 47
0.0
 47
0.0
 47
0.0
 47
0.0
 47
0.0208333333333333
 47
0.0
 47
0.0
 47
0.0
 47
0.0
 47
1.0
 47
0.0
 47
0.0
 47
0.0
 47
0.0
 47
1.0
171
     0
 49
0.0208333333333333
 49
0.0
 49
0.0
 49
0.0
 49
0.0
 49
0.0208333333333333
 49
0.0
 49
0.0
 49
0.0
 49
0.0
 49
1.0
 49
0.0
 49
0.0
 49
0.0
 49
0.0
 49
1.0
175
     0
142
0.0208333333333333
142
0.0
142
0.0
142
0.0
142
0.0
142
0.0208333333333333
142
0.0
142
0.0
142
0.0
142
0.0
142
1.0
142
0.0
142
0.0
142
0.0
142
0.0
142
1.0
179
     0
144
0.0208333333333333
144
0.0
144
0.0
144
0.0
144
0.0
144
0.0208333333333333
144
0.0
144
0.0
144
0.0
144
0.0
144
1.0
144
0.0
144
0.0
144
0.0
144
0.0
144
1.0
147
0.0208333333333333
147
0.0
147
0.0
147
0.0
147
0.0
147
0.0208333333333333
147
0.0
147
0.0
147
0.0
147
0.0
147
1.0
147
0.0
147
0.0
147
0.0
147
0.0
147
1.0
  0
MLEADERSTYLE
  5
1004F
102
{ACAD_REACTORS
330
1004E
102
}
330
1004E
100
AcDbMLeaderStyle
179
     2
170
     2
171
     1
172
     0
 90
        2
 40
0.0
 41
0.0
173
     1
 91
-1056964608
340
13
 92
       -2
290
     1
 42
0.09
291
     1
 43
0.36
  3
Standard
 44
0.18
300

342
11
174
     1
178
     6
175
     1
176
     0
 93
-1056964608
 45
0.18
292
     0
297
     0
 46
0.18
 94
-1056964608
 47
1.0
 49
1.0
140
1.0
293
     1
141
0.0
294
     1
177
     0
142
1.0
295
     0
296
     0
143
0.125
271
     0
272
     9
273
     9
298
     0
  0
MLINESTYLE
  5
17
102
{ACAD_REACTORS
330
16
102
}
330
16
100
AcDbMlineStyle
  2
STANDARD
 70
     0
  3

 62
   256
 51
90.0
 52
90.0
 71
     2
 49
0.5
 62
   256
  6
BYLAYER
 49
-0.5
 62
   256
  6
BYLAYER
  0
ACDBPLACEHOLDER
  5
F
102
{ACAD_REACTORS
330
E
102
}
330
E
  0
SCALE
  5
1002D
102
{ACAD_REACTORS
330
1002C
102
}
330
1002C
100
AcDbScale
 70
     0
300
1:1
140
1.0
141
1.0
290
     1
  0
SCALE
  5
1002E
102
{ACAD_REACTORS
330
1002C
102
}
330
1002C
100
AcDbScale
 70
     0
300
1:2
140
1.0
141
2.0
290
     0
  0
SCALE
  5
1002F
102
{ACAD_REACTORS
330
1002C
102
}
330
1002C
100
AcDbScale
 70
     0
300
1:4
140
1.0
141
4.0
290
     0
  0
SCALE
  5
10030
102
{ACAD_REACTORS
330
1002C
102
}
330
1002C
100
AcDbScale
 70
     0
300
1:5
140
1.0
141
5.0
290
     0
  0
SCALE
  5
10031
102
{ACAD_REACTORS
330
1002C
102
}
330
1002C
100
AcDbScale
 70
     0
300
1:8
140
1.0
141
8.0
290
     0
  0
SCALE
  5
10032
102
{ACAD_REACTORS
330
1002C
102
}
330
1002C
100
AcDbScale
 70
     0
300
1:10
140
1.0
141
10.0
290
     0
  0
SCALE
  5
10033
102
{ACAD_REACTORS
330
1002C
102
}
330
1002C
100
AcDbScale
 70
     0
300
1:16
140
1.0
141
16.0
290
     0
  0
SCALE
  5
10034
102
{ACAD_REACTORS
330
1002C
102
}
330
1002C
100
AcDbScale
 70
     0
300
1:20
140
1.0
141
20.0
290
     0
  0
SCALE
  5
10035
102
{ACAD_REACTORS
330
1002C
102
}
330
1002C
100
AcDbScale
 70
     0
300
1:30
140
1.0
141
30.0
290
     0
  0
SCALE
  5
10036
102
{ACAD_REACTORS
330
1002C
102
}
330
1002C
100
AcDbScale
 70
     0
300
1:40
140
1.0
141
40.0
290
     0
  0
SCALE
  5
10037
102
{ACAD_REACTORS
330
1002C
102
}
330
1002C
100
AcDbScale
 70
     0
300
1:50
140
1.0
141
50.0
290
     0
  0
SCALE
  5
10038
102
{ACAD_REACTORS
330
1002C
102
}
330
1002C
100
AcDbScale
 70
     0
300
1:100
140
1.0
141
100.0
290
     0
  0
SCALE
  5
10039
102
{ACAD_REACTORS
330
1002C
102
}
330
1002C
100
AcDbScale
 70
     0
300
2:1
140
2.0
141
1.0
290
     0
  0
SCALE
  5
1003A
102
{ACAD_REACTORS
330
1002C
102
}
330
1002C
100
AcDbScale
 70
     0
300
4:1
140
4.0
141
1.0
290
     0
  0
SCALE
  5
1003B
102
{ACAD_REACTORS
330
1002C
102
}
330
1002C
100
AcDbScale
 70
     0
300
8:1
140
8.0
141
1.0
290
     0
  0
SCALE
  5
1003C
102
{ACAD_REACTORS
330
1002C
102
}
330
1002C
100
AcDbScale
 70
     0
300
10:1
140
10.0
141
1.0
290
     0
  0
SCALE
  5
1003D
102
{ACAD_REACTORS
330
1002C
102
}
330
1002C
100
AcDbScale
 70
     0
300
100:1
140
100.0
141
1.0
290
     0
  0
SCALE
  5
1003E
102
{ACAD_REACTORS
330
1002C
102
}
330
1002C
100
AcDbScale
 70
     0
300
1/128" = 1'-0"
140
0.0078125
141
12.0
290
     0
  0
SCALE
  5
1003F
102
{ACAD_REACTORS
330
1002C
102
}
330
1002C
100
AcDbScale
 70
     0
300
1/64" = 1'-0"
140
0.015625
141
12.0
290
     0
  0
SCALE
  5
10040
102
{ACAD_REACTORS
330
1002C
102
}
330
1002C
100
AcDbScale
 70
     0
300
1/32" = 1'-0"
140
0.03125
141
12.0
290
     0
  0
SCALE
  5
10041
102
{ACAD_REACTORS
330
1002C
102
}
330
1002C
100
AcDbScale
 70
     0
300
1/16" = 1'-0"
140
0.0625
141
12.0
290
     0
  0
SCALE
  5
10042
102
{ACAD_REACTORS
330
1002C
102
}
330
1002C
100
AcDbScale
 70
     0
300
3/32" = 1'-0"
140
0.09375
141
12.0
290
     0
  0
SCALE
  5
10043
102
{ACAD_REACTORS
330
1002C
102
}
330
1002C
100
AcDbScale
 70
     0
300
1/8" = 1'-0"
140
0.125
141
12.0
290
     0
  0
SCALE
  5
10044
102
{ACAD_REACTORS
330
1002C
102
}
330
1002C
100
AcDbScale
 70
     0
300
3/16" = 1'-0"
140
0.1875
141
12.0
290
     0
  0
SCALE
  5
10045
102
{ACAD_REACTORS
330
1002C
102
}
330
1002C
100
AcDbScale
 70
     0
300
1/4" = 1'-0"
140
0.25
141
12.0
290
     0
  0
SCALE
  5
10046
102
{ACAD_REACTORS
330
1002C
102
}
330
1002C
100
AcDbScale
 70
     0
300
3/8" = 1'-0"
140
0.375
141
12.0
290
     0
  0
SCALE
  5
10047
102
{ACAD_REACTORS
330
1002C
102
}
330
1002C
100
AcDbScale
 70
     0
300
1/2" = 1'-0"
140
0.5
141
12.0
290
     0
  0
SCALE
  5
10048
102
{ACAD_REACTORS
330
1002C
102
}
330
1002C
100
AcDbScale
 70
     0
300
3/4" = 1'-0"
140
0.75
141
12.0
290
     0
  0
SCALE
  5
10049
102
{ACAD_REACTORS
330
1002C
102
}
330
1002C
100
AcDbScale
 70
     0
300
1" = 1'-0"
140
1.0
141
12.0
290
     0
  0
SCALE
  5
1004A
102
{ACAD_REACTORS
330
1002C
102
}
330
1002C
100
AcDbScale
 70
     0
300
1-1/2" = 1'-0"
140
1.5
141
12.0
290
     0
  0
SCALE
  5
1004B
102
{ACAD_REACTORS
330
1002C
102
}
330
1002C
100
AcDbScale
 70
     0
300
3" = 1'-0"
140
3.0
141
12.0
290
     0
  0
SCALE
  5
1004C
102
{ACAD_REACTORS
330
1002C
102
}
330
1002C
100
AcDbScale
 70
     0
300
6" = 1'-0"
140
6.0
141
12.0
290
     0
  0
SCALE
  5
1004D
102
{ACAD_REACTORS
330
1002C
102
}
330
1002C
100
AcDbScale
 70
     0
300
1'-0" = 1'-0"
140
12.0
141
12.0
290
     0
  0
ACDBSECTIONVIEWSTYLE
  5
246F3
102
{ACAD_XDICTIONARY
360
24779
102
}
102
{ACAD_REACTORS
330
246F2
102
}
330
246F2
100
AcDbModelDocViewStyle
 70
     0
  3
Imperial24
290
     0
100
AcDbSectionViewStyle
 70
     0
 71
     0
 90
       78
 71
     1
340
11
 62
   256
 40
0.24
340
0
340
0
 62
   256
 40
0.24
300
I, O, Q, S, X, Z
 40
0.48
 90
        3
 40
0.18
 90
        1
 71
     2
340
15
 90
       25
 62
   256
340
15
 90
       50
 62
   256
 40
0.24
 40
0.0
 40
0.24
 71
     3
340
11
 62
   256
 40
0.24
 90
        1
 40
0.75
 90
        1
300
%<\AcVar ViewType \f "%tc1">% %<\AcVar ViewSectionStartId>%-%<\AcVar ViewSectionEndId>%\PSCALE %<\AcVar ViewScale \f "%sn">%
 71
     4
 62
   256
 62
   257
300
ANSI31
 40
1.0
 90
        0
290
     0
290
     0
 90
        6
 40
0.0
 40
1.570796326794896
 40
0.2617993877991494
 40
1.308996938995747
 40
-0.2617993877991494
 40
1.832595714594044
  0
TABLESTYLE
  5
1002B
102
{ACAD_XDICTIONARY
360
1007E
102
}
102
{ACAD_REACTORS
330
1002A
102
}
330
1002A
100
AcDbTableStyle
280
     0
  3
Standard
 70
     0
 71
     0
 40
0.06
 41
0.06
280
     0
281
     0
  7
STANDARD
140
0.18
170
     2
 62
     0
 63
     7
283
     0
 90
      512
 91
        0
  1

274
    -2
284
     1
 64
     0
275
    -2
285
     1
 65
     0
276
    -2
286
     1
 66
     0
277
    -2
287
     1
 67
     0
278
    -2
288
     1
 68
     0
279
    -2
289
     1
 69
     0
  7
STANDARD
140
0.25
170
     5
 62
     0
 63
     7
283
     0
 90
      512
 91
        0
  1

274
    -2
284
     1
 64
     0
275
    -2
285
     1
 65
     0
276
    -2
286
     1
 66
     0
277
    -2
287
     1
 67
     0
278
    -2
288
     1
 68
     0
279
    -2
289
     1
 69
     0
  7
STANDARD
140
0.18
170
     5
 62
     0
 63
     7
283
     0
 90
      512
 91
        0
  1

274
    -2
284
     1
 64
     0
275
    -2
285
     1
 65
     0
276
    -2
286
     1
 66
     0
277
    -2
287
     1
 67
     0
278
    -2
288
     1
 68
     0
279
    -2
289
     1
 69
     0
  0
VISUALSTYLE
  5
1001B
102
{ACAD_REACTORS
330
10015
102
}
330
10015
100
AcDbVisualStyle
  2
2dWireframe
 70
     4
177
     3
291
     0
 70
    58
 90
        0
176
     1
 90
        2
176
     1
 90
        0
176
     1
 90
        0
176
     1
 40
0.6
176
     1
 40
30.0
176
     1
 62
     7
176
     1
 90
        1
176
     1
 90
        4
176
     1
 62
     7
176
     1
 62
   257
176
     1
 90
        1
176
     1
 90
        1
176
     1
 40
1.0
176
     1
 90
        0
176
     1
 62
   257
176
     1
 40
1.0
176
     1
 90
        1
176
     1
 90
        6
176
     1
 90
        2
176
     1
 62
     7
176
     1
 90
        5
176
     1
 90
        0
176
     1
 90
        0
176
     1
290
     0
176
     1
 90
        1
176
     1
 40
0.0
176
     1
 90
        0
176
     1
290
     1
176
     1
290
     1
176
     1
290
     0
176
     1
290
     0
176
     1
290
     0
176
     1
290
     0
176
     1
290
     0
176
     1
290
     0
176
     1
290
     0
176
     1
 90
       50
176
     1
 40
0.0
176
     1
 40
1.0
176
     1
 90
        0
176
     1
 62
    18
176
     1
 90
       50
176
     1
 90
        3
176
     1
 62
     5
420
      255
176
     1
290
     0
176
     1
 90
       50
176
     1
 90
       50
176
     1
 90
       50
176
     1
290
     0
176
     1
 90
       50
176
     1
 62
   256
176
     0
 40
1.0
176
     0
 90
        2
176
     1
  1
strokes_ogs.tif
176
     1
290
     0
176
     1
 40
1.0
176
     1
 40
1.0
176
     1
  0
VISUALSTYLE
  5
1001D
102
{ACAD_REACTORS
330
10015
102
}
330
10015
100
AcDbVisualStyle
  2
3D Hidden
 70
     6
177
     3
291
     0
 70
    58
 90
        1
176
     1
 90
        2
176
     1
 90
        2
176
     1
 90
        0
176
     1
 40
0.6
176
     1
 40
30.0
176
     1
 62
     7
176
     1
 90
        2
176
     1
 90
        2
176
     1
 62
     7
176
     1
 62
   257
176
     1
 90
        2
176
     1
 90
        1
176
     1
 40
179.0
176
     1
 90
        0
176
     1
 62
   257
176
     1
 40
1.0
176
     1
 90
        1
176
     1
 90
        6
176
     1
 90
        2
176
     1
 62
     7
176
     1
 90
        3
176
     1
 90
        0
176
     1
 90
        0
176
     1
290
     0
176
     1
 90
        1
176
     1
 40
0.0
176
     1
 90
        0
176
     1
290
     0
176
     1
290
     1
176
     1
290
     1
176
     1
290
     0
176
     1
290
     0
176
     1
290
     0
176
     1
290
     0
176
     1
290
     0
176
     1
290
     0
176
     1
 90
       50
176
     1
 40
0.0
176
     1
 40
1.0
176
     1
 90
        0
176
     1
 62
    18
176
     1
 90
       50
176
     1
 90
        3
176
     1
 62
     5
420
      255
176
     1
290
     0
176
     1
 90
       50
176
     1
 90
       50
176
     1
 90
       50
176
     1
290
     0
176
     1
 90
       50
176
     1
 62
   256
176
     0
 40
1.0
176
     0
 90
        2
176
     1
  1
strokes_ogs.tif
176
     1
290
     0
176
     1
 40
1.0
176
     1
 40
1.0
176
     1
  0
VISUALSTYLE
  5
1001C
102
{ACAD_REACTORS
330
10015
102
}
330
10015
100
AcDbVisualStyle
  2
3dWireframe
 70
     5
177
     3
291
     0
 70
    58
 90
        0
176
     1
 90
        2
176
     1
 90
        0
176
     1
 90
        0
176
     1
 40
0.6
176
     1
 40
30.0
176
     1
 62
     7
176
     1
 90
        1
176
     1
 90
        4
176
     1
 62
     7
176
     1
 62
   257
176
     1
 90
        1
176
     1
 90
        1
176
     1
 40
1.0
176
     1
 90
        0
176
     1
 62
   257
176
     1
 40
1.0
176
     1
 90
        1
176
     1
 90
        6
176
     1
 90
        2
176
     1
 62
     7
176
     1
 90
        5
176
     1
 90
        0
176
     1
 90
        0
176
     1
290
     0
176
     1
 90
        1
176
     1
 40
0.0
176
     1
 90
        0
176
     1
290
     0
176
     1
290
     1
176
     1
290
     1
176
     1
290
     0
176
     1
290
     0
176
     1
290
     0
176
     1
290
     0
176
     1
290
     0
176
     1
290
     0
176
     1
 90
       50
176
     1
 40
0.0
176
     1
 40
1.0
176
     1
 90
        0
176
     1
 62
    18
176
     1
 90
       50
176
     1
 90
        3
176
     1
 62
     5
420
      255
176
     1
290
     0
176
     1
 90
       50
176
     1
 90
       50
176
     1
 90
       50
176
     1
290
     0
176
     1
 90
       50
176
     1
 62
   256
176
     0
 40
1.0
176
     0
 90
        2
176
     1
  1
strokes_ogs.tif
176
     1
290
     0
176
     1
 40
1.0
176
     1
 40
1.0
176
     1
  0
VISUALSTYLE
  5
1001A
102
{ACAD_REACTORS
330
10015
102
}
330
10015
100
AcDbVisualStyle
  2
Basic
 70
     7
177
     3
291
     1
 70
    58
 90
        1
176
     1
 90
        0
176
     1
 90
        1
176
     1
 90
        0
176
     1
 40
0.6
176
     1
 40
30.0
176
     1
 62
     7
176
     1
 90
        0
176
     1
 90
        4
176
     1
 62
     7
176
     1
 62
   257
176
     1
 90
        1
176
     1
 90
        1
176
     1
 40
1.0
176
     1
 90
        8
176
     1
 62
     7
176
     1
 40
1.0
176
     1
 90
        1
176
     1
 90
        6
176
     1
 90
        2
176
     1
 62
     7
176
     1
 90
        5
176
     1
 90
        0
176
     1
 90
        0
176
     1
290
     0
176
     1
 90
        1
176
     1
 40
0.0
176
     1
 90
        0
176
     1
290
     0
176
     1
290
     1
176
     1
290
     1
176
     1
290
     0
176
     1
290
     0
176
     1
290
     0
176
     1
290
     0
176
     1
290
     0
176
     1
290
     0
176
     1
 90
       50
176
     1
 40
0.0
176
     1
 40
1.0
176
     1
 90
        0
176
     1
 62
    18
176
     1
 90
       50
176
     1
 90
        3
176
     1
 62
     5
420
      255
176
     1
290
     0
176
     1
 90
       50
176
     1
 90
       50
176
     1
 90
       50
176
     1
290
     0
176
     1
 90
       50
176
     1
 62
   256
176
     0
 40
1.0
176
     0
 90
        2
176
     1
  1
strokes_ogs.tif
176
     1
290
     0
176
     1
 40
1.0
176
     1
 40
1.0
176
     1
  0
VISUALSTYLE
  5
10021
102
{ACAD_REACTORS
330
10015
102
}
330
10015
100
AcDbVisualStyle
  2
Brighten
 70
    12
177
     3
291
     1
 70
    58
 90
        2
176
     1
 90
        2
176
     1
 90
        0
176
     1
 90
        0
176
     1
 40
0.6
176
     1
 40
30.0
176
     1
 62
     7
176
     1
 90
        1
176
     1
 90
        4
176
     1
 62
     7
176
     1
 62
   257
176
     1
 90
        1
176
     1
 90
        1
176
     1
 40
1.0
176
     1
 90
        8
176
     1
 62
     7
176
     1
 40
1.0
176
     1
 90
        1
176
     1
 90
        6
176
     1
 90
        2
176
     1
 62
     7
176
     1
 90
        5
176
     1
 90
        0
176
     1
 90
        0
176
     1
290
     0
176
     1
 90
        1
176
     1
 40
50.0
176
     1
 90
        0
176
     1
290
     0
176
     1
290
     1
176
     1
290
     1
176
     1
290
     0
176
     1
290
     0
176
     1
290
     0
176
     1
290
     0
176
     1
290
     0
176
     1
290
     0
176
     1
 90
       50
176
     1
 40
0.0
176
     1
 40
1.0
176
     1
 90
        0
176
     1
 62
    18
176
     1
 90
       50
176
     1
 90
        3
176
     1
 62
     5
420
      255
176
     1
290
     0
176
     1
 90
       50
176
     1
 90
       50
176
     1
 90
       50
176
     1
290
     0
176
     1
 90
       50
176
     1
 62
   256
176
     0
 40
1.0
176
     0
 90
        2
176
     1
  1
strokes_ogs.tif
176
     1
290
     0
176
     1
 40
1.0
176
     1
 40
1.0
176
     1
  0
VISUALSTYLE
  5
10025
102
{ACAD_REACTORS
330
10015
102
}
330
10015
100
AcDbVisualStyle
  2
ColorChange
 70
    16
177
     3
291
     1
 70
    58
 90
        2
176
     1
 90
        2
176
     1
 90
        3
176
     1
 90
        0
176
     1
 40
0.6
176
     1
 40
30.0
176
     1
 62
     8
176
     1
 90
        1
176
     1
 90
        4
176
     1
 62
     7
176
     1
 62
   257
176
     1
 90
        1
176
     1
 90
        1
176
     1
 40
1.0
176
     1
 90
        8
176
     1
 62
     8
176
     1
 40
1.0
176
     1
 90
        1
176
     1
 90
        6
176
     1
 90
        2
176
     1
 62
     7
176
     1
 90
        5
176
     1
 90
        0
176
     1
 90
        0
176
     1
290
     0
176
     1
 90
        1
176
     1
 40
0.0
176
     1
 90
        0
176
     1
290
     0
176
     1
290
     1
176
     1
290
     1
176
     1
290
     0
176
     1
290
     0
176
     1
290
     0
176
     1
290
     0
176
     1
290
     0
176
     1
290
     0
176
     1
 90
       50
176
     1
 40
0.0
176
     1
 40
1.0
176
     1
 90
        0
176
     1
 62
    18
176
     1
 90
       50
176
     1
 90
        3
176
     1
 62
     5
420
      255
176
     1
290
     0
176
     1
 90
       50
176
     1
 90
       50
176
     1
 90
       50
176
     1
290
     0
176
     1
 90
       50
176
     1
 62
   256
176
     0
 40
1.0
176
     0
 90
        2
176
     1
  1
strokes_ogs.tif
176
     1
290
     0
176
     1
 40
1.0
176
     1
 40
1.0
176
     1
  0
VISUALSTYLE
  5
1001E
102
{ACAD_REACTORS
330
10015
102
}
330
10015
100
AcDbVisualStyle
  2
Conceptual
 70
     9
177
     3
291
     0
 70
    58
 90
        3
176
     1
 90
        2
176
     1
 90
        0
176
     1
 90
        0
176
     1
 40
0.6
176
     1
 40
30.0
176
     1
 62
     7
176
     1
 90
        2
176
     1
 90
        2
176
     1
 62
     7
176
     1
 62
   257
176
     1
 90
        1
176
     1
 90
        1
176
     1
 40
179.0
176
     1
 90
        8
176
     1
 62
     7
176
     1
 40
1.0
176
     1
 90
        1
176
     1
 90
        6
176
     1
 90
        2
176
     1
 62
     7
176
     1
 90
        3
176
     1
 90
        0
176
     1
 90
        0
176
     1
290
     0
176
     1
 90
        1
176
     1
 40
0.0
176
     1
 90
        0
176
     1
290
     0
176
     1
290
     1
176
     1
290
     1
176
     1
290
     0
176
     1
290
     0
176
     1
290
     0
176
     1
290
     0
176
     1
290
     0
176
     1
290
     0
176
     1
 90
       50
176
     1
 40
0.0
176
     1
 40
1.0
176
     1
 90
        0
176
     1
 62
    18
176
     1
 90
       50
176
     1
 90
        3
176
     1
 62
     5
420
      255
176
     1
290
     0
176
     1
 90
       50
176
     1
 90
       50
176
     1
 90
       50
176
     1
290
     0
176
     1
 90
       50
176
     1
 62
   256
176
     0
 40
1.0
176
     0
 90
        2
176
     1
  1
strokes_ogs.tif
176
     1
290
     0
176
     1
 40
1.0
176
     1
 40
1.0
176
     1
  0
VISUALSTYLE
  5
10020
102
{ACAD_REACTORS
330
10015
102
}
330
10015
100
AcDbVisualStyle
  2
Dim
 70
    11
177
     3
291
     1
 70
    58
 90
        2
176
     1
 90
        2
176
     1
 90
        0
176
     1
 90
        0
176
     1
 40
0.6
176
     1
 40
30.0
176
     1
 62
     7
176
     1
 90
        1
176
     1
 90
        4
176
     1
 62
     7
176
     1
 62
   257
176
     1
 90
        1
176
     1
 90
        1
176
     1
 40
1.0
176
     1
 90
        8
176
     1
 62
     7
176
     1
 40
1.0
176
     1
 90
        1
176
     1
 90
        6
176
     1
 90
        2
176
     1
 62
     7
176
     1
 90
        5
176
     1
 90
        0
176
     1
 90
        0
176
     1
290
     0
176
     1
 90
        1
176
     1
 40
-50.0
176
     1
 90
        0
176
     1
290
     0
176
     1
290
     1
176
     1
290
     1
176
     1
290
     0
176
     1
290
     0
176
     1
290
     0
176
     1
290
     0
176
     1
290
     0
176
     1
290
     0
176
     1
 90
       50
176
     1
 40
0.0
176
     1
 40
1.0
176
     1
 90
        0
176
     1
 62
    18
176
     1
 90
       50
176
     1
 90
        3
176
     1
 62
     5
420
      255
176
     1
290
     0
176
     1
 90
       50
176
     1
 90
       50
176
     1
 90
       50
176
     1
290
     0
176
     1
 90
       50
176
     1
 62
   256
176
     0
 40
1.0
176
     0
 90
        2
176
     1
  1
strokes_ogs.tif
176
     1
290
     0
176
     1
 40
1.0
176
     1
 40
1.0
176
     1
  0
VISUALSTYLE
  5
10028
102
{ACAD_REACTORS
330
10015
102
}
330
10015
100
AcDbVisualStyle
  2
EdgeColorOff
 70
    22
177
     3
291
     1
 70
    58
 90
        2
176
     0
 90
        2
176
     0
 90
        0
176
     0
 90
        0
176
     0
 40
0.6
176
     0
 40
30.0
176
     0
 62
     7
176
     0
 90
        1
176
     0
 90
        4
176
     0
 62
     7
176
     0
 62
   257
176
     0
 90
        1
176
     0
 90
        1
176
     0
 40
1.0
176
     0
 90
        8
176
     2
 62
     7
176
     0
 40
1.0
176
     0
 90
        1
176
     0
 90
        6
176
     0
 90
        2
176
     0
 62
     7
176
     0
 90
        5
176
     0
 90
        0
176
     0
 90
        0
176
     0
290
     0
176
     0
 90
        1
176
     0
 40
0.0
176
     0
 90
        0
176
     0
290
     0
176
     1
290
     1
176
     1
290
     1
176
     1
290
     0
176
     1
290
     0
176
     1
290
     0
176
     1
290
     0
176
     1
290
     0
176
     1
290
     0
176
     1
 90
       50
176
     1
 40
0.0
176
     1
 40
1.0
176
     1
 90
        0
176
     1
 62
    18
176
     1
 90
       50
176
     1
 90
        3
176
     1
 62
     5
420
      255
176
     1
290
     0
176
     1
 90
       50
176
     1
 90
       50
176
     1
 90
       50
176
     1
290
     0
176
     1
 90
       50
176
     1
 62
   256
176
     0
 40
1.0
176
     0
 90
        2
176
     1
  1
strokes_ogs.tif
176
     1
290
     0
176
     1
 40
1.0
176
     1
 40
1.0
176
     1
  0
VISUALSTYLE
  5
10024
102
{ACAD_REACTORS
330
10015
102
}
330
10015
100
AcDbVisualStyle
  2
Facepattern
 70
    15
177
     3
291
     1
 70
    58
 90
        2
176
     1
 90
        2
176
     1
 90
        0
176
     1
 90
        0
176
     1
 40
0.6
176
     1
 40
30.0
176
     1
 62
     7
176
     1
 90
        1
176
     1
 90
        4
176
     1
 62
     7
176
     1
 62
   257
176
     1
 90
        1
176
     1
 90
        1
176
     1
 40
1.0
176
     1
 90
        8
176
     1
 62
     7
176
     1
 40
1.0
176
     1
 90
        1
176
     1
 90
        6
176
     1
 90
        2
176
     1
 62
     7
176
     1
 90
        5
176
     1
 90
        0
176
     1
 90
        0
176
     1
290
     0
176
     1
 90
        1
176
     1
 40
0.0
176
     1
 90
        0
176
     1
290
     0
176
     1
290
     1
176
     1
290
     1
176
     1
290
     0
176
     1
290
     0
176
     1
290
     0
176
     1
290
     0
176
     1
290
     0
176
     1
290
     0
176
     1
 90
       50
176
     1
 40
0.0
176
     1
 40
1.0
176
     1
 90
        0
176
     1
 62
    18
176
     1
 90
       50
176
     1
 90
        3
176
     1
 62
     5
420
      255
176
     1
290
     0
176
     1
 90
       50
176
     1
 90
       50
176
     1
 90
       50
176
     1
290
     0
176
     1
 90
       50
176
     1
 62
   256
176
     0
 40
1.0
176
     0
 90
        2
176
     1
  1
strokes_ogs.tif
176
     1
290
     0
176
     1
 40
1.0
176
     1
 40
1.0
176
     1
  0
VISUALSTYLE
  5
10016
102
{ACAD_REACTORS
330
10015
102
}
330
10015
100
AcDbVisualStyle
  2
Flat
 70
     0
177
     3
291
     1
 70
    58
 90
        2
176
     1
 90
        1
176
     1
 90
        1
176
     1
 90
        2
176
     1
 40
0.6
176
     1
 40
30.0
176
     1
 62
     7
176
     1
 90
        0
176
     1
 90
        4
176
     1
 62
     7
176
     1
 62
   257
176
     1
 90
        1
176
     1
 90
        1
176
     1
 40
1.0
176
     1
 90
        8
176
     1
 62
     7
176
     1
 40
1.0
176
     1
 90
        1
176
     1
 90
        6
176
     1
 90
        2
176
     1
 62
     7
176
     1
 90
        5
176
     1
 90
        0
176
     1
 90
        0
176
     1
290
     0
176
     1
 90
       13
176
     1
 40
0.0
176
     1
 90
        0
176
     1
290
     0
176
     1
290
     1
176
     1
290
     1
176
     1
290
     0
176
     1
290
     0
176
     1
290
     0
176
     1
290
     0
176
     1
290
     0
176
     1
290
     0
176
     1
 90
       50
176
     1
 40
0.0
176
     1
 40
1.0
176
     1
 90
        0
176
     1
 62
    18
176
     1
 90
       50
176
     1
 90
        3
176
     1
 62
     5
420
      255
176
     1
290
     0
176
     1
 90
       50
176
     1
 90
       50
176
     1
 90
       50
176
     1
290
     0
176
     1
 90
       50
176
     1
 62
   256
176
     0
 40
1.0
176
     0
 90
        2
176
     1
  1
strokes_ogs.tif
176
     1
290
     0
176
     1
 40
1.0
176
     1
 40
1.0
176
     1
  0
VISUALSTYLE
  5
10017
102
{ACAD_REACTORS
330
10015
102
}
330
10015
100
AcDbVisualStyle
  2
FlatWithEdges
 70
     1
177
     3
291
     1
 70
    58
 90
        2
176
     1
 90
        1
176
     1
 90
        1
176
     1
 90
        2
176
     1
 40
0.6
176
     1
 40
30.0
176
     1
 62
     7
176
     1
 90
        1
176
     1
 90
        4
176
     1
 62
     7
176
     1
 62
   257
176
     1
 90
        1
176
     1
 90
        1
176
     1
 40
1.0
176
     1
 90
        0
176
     1
 62
   257
176
     1
 40
1.0
176
     1
 90
        1
176
     1
 90
        6
176
     1
 90
        2
176
     1
 62
     7
176
     1
 90
        5
176
     1
 90
        0
176
     1
 90
        0
176
     1
290
     0
176
     1
 90
       13
176
     1
 40
0.0
176
     1
 90
        0
176
     1
290
     0
176
     1
290
     1
176
     1
290
     1
176
     1
290
     0
176
     1
290
     0
176
     1
290
     0
176
     1
290
     0
176
     1
290
     0
176
     1
290
     0
176
     1
 90
       50
176
     1
 40
0.0
176
     1
 40
1.0
176
     1
 90
        0
176
     1
 62
    18
176
     1
 90
       50
176
     1
 90
        3
176
     1
 62
     5
420
      255
176
     1
290
     0
176
     1
 90
       50
176
     1
 90
       50
176
     1
 90
       50
176
     1
290
     0
176
     1
 90
       50
176
     1
 62
   256
176
     0
 40
1.0
176
     0
 90
        2
176
     1
  1
strokes_ogs.tif
176
     1
290
     0
176
     1
 40
1.0
176
     1
 40
1.0
176
     1
  0
VISUALSTYLE
  5
10018
102
{ACAD_REACTORS
330
10015
102
}
330
10015
100
AcDbVisualStyle
  2
Gouraud
 70
     2
177
     3
291
     1
 70
    58
 90
        2
176
     1
 90
        2
176
     1
 90
        1
176
     1
 90
        2
176
     1
 40
0.6
176
     1
 40
30.0
176
     1
 62
     7
176
     1
 90
        0
176
     1
 90
        4
176
     1
 62
     7
176
     1
 62
   257
176
     1
 90
        1
176
     1
 90
        1
176
     1
 40
1.0
176
     1
 90
        0
176
     1
 62
     7
176
     1
 40
1.0
176
     1
 90
        1
176
     1
 90
        6
176
     1
 90
        2
176
     1
 62
     7
176
     1
 90
        5
176
     1
 90
        0
176
     1
 90
        0
176
     1
290
     0
176
     1
 90
       13
176
     1
 40
0.0
176
     1
 90
        0
176
     1
290
     0
176
     1
290
     1
176
     1
290
     1
176
     1
290
     0
176
     1
290
     0
176
     1
290
     0
176
     1
290
     0
176
     1
290
     0
176
     1
290
     0
176
     1
 90
       50
176
     1
 40
0.0
176
     1
 40
1.0
176
     1
 90
        0
176
     1
 62
    18
176
     1
 90
       50
176
     1
 90
        3
176
     1
 62
     5
420
      255
176
     1
290
     0
176
     1
 90
       50
176
     1
 90
       50
176
     1
 90
       50
176
     1
290
     0
176
     1
 90
       50
176
     1
 62
   256
176
     0
 40
1.0
176
     0
 90
        2
176
     1
  1
strokes_ogs.tif
176
     1
290
     0
176
     1
 40
1.0
176
     1
 40
1.0
176
     1
  0
VISUALSTYLE
  5
10019
102
{ACAD_REACTORS
330
10015
102
}
330
10015
100
AcDbVisualStyle
  2
GouraudWithEdges
 70
     3
177
     3
291
     1
 70
    58
 90
        2
176
     1
 90
        2
176
     1
 90
        1
176
     1
 90
        2
176
     1
 40
0.6
176
     1
 40
30.0
176
     1
 62
     7
176
     1
 90
        1
176
     1
 90
        4
176
     1
 62
     7
176
     1
 62
   257
176
     1
 90
        1
176
     1
 90
        1
176
     1
 40
1.0
176
     1
 90
        0
176
     1
 62
   257
176
     1
 40
1.0
176
     1
 90
        1
176
     1
 90
        6
176
     1
 90
        2
176
     1
 62
     7
176
     1
 90
        5
176
     1
 90
        0
176
     1
 90
        0
176
     1
290
     0
176
     1
 90
       13
176
     1
 40
0.0
176
     1
 90
        0
176
     1
290
     0
176
     1
290
     1
176
     1
290
     1
176
     1
290
     0
176
     1
290
     0
176
     1
290
     0
176
     1
290
     0
176
     1
290
     0
176
     1
290
     0
176
     1
 90
       50
176
     1
 40
0.0
176
     1
 40
1.0
176
     1
 90
        0
176
     1
 62
    18
176
     1
 90
       50
176
     1
 90
        3
176
     1
 62
     5
420
      255
176
     1
290
     0
176
     1
 90
       50
176
     1
 90
       50
176
     1
 90
       50
176
     1
290
     0
176
     1
 90
       50
176
     1
 62
   256
176
     0
 40
1.0
176
     0
 90
        2
176
     1
  1
strokes_ogs.tif
176
     1
290
     0
176
     1
 40
1.0
176
     1
 40
1.0
176
     1
  0
VISUALSTYLE
  5
246EC
102
{ACAD_REACTORS
330
10015
102
}
330
10015
100
AcDbVisualStyle
  2
Hidden
 70
     6
177
     3
291
     0
 70
    58
 90
        1
176
     1
 90
        2
176
     1
 90
        2
176
     1
 90
        0
176
     1
 40
0.6
176
     1
 40
30.0
176
     1
 62
     7
420
 16777215
176
     1
 90
        2
176
     1
 90
        2
176
     1
 62
     7
176
     1
 62
   257
176
     1
 90
        2
176
     1
 90
        1
176
     1
 40
40.0
176
     1
 90
        0
176
     1
 62
   257
176
     1
 40
1.0
176
     1
 90
        1
176
     1
 90
        6
176
     1
 90
        2
176
     1
 62
     7
176
     1
 90
        3
176
     1
 90
        0
176
     1
 90
        0
176
     1
290
     0
176
     1
 90
        1
176
     1
 40
0.0
176
     1
 90
        0
176
     1
290
     0
176
     1
290
     1
176
     1
290
     1
176
     1
290
     0
176
     1
290
     0
176
     1
290
     0
176
     1
290
     0
176
     1
290
     0
176
     1
290
     0
176
     1
 90
       50
176
     1
 40
0.0
176
     1
 40
1.0
176
     1
 90
        0
176
     1
 62
    18
176
     1
 90
       50
176
     1
 90
        3
176
     1
 62
     5
420
      255
176
     1
290
     0
176
     1
 90
       50
176
     1
 90
       50
176
     1
 90
       50
176
     1
290
     0
176
     1
 90
       50
176
     1
 62
   256
176
     0
 40
1.0
176
     0
 90
        2
176
     1
  1
strokes_ogs.tif
176
     1
290
     0
176
     1
 40
1.0
176
     1
 40
1.0
176
     1
  0
VISUALSTYLE
  5
10026
102
{ACAD_REACTORS
330
10015
102
}
330
10015
100
AcDbVisualStyle
  2
JitterOff
 70
    20
177
     3
291
     1
 70
    58
 90
        2
176
     0
 90
        2
176
     0
 90
        0
176
     0
 90
        0
176
     0
 40
0.6
176
     0
 40
30.0
176
     0
 62
     7
176
     0
 90
        1
176
     0
 90
        4
176
     0
 62
     7
176
     0
 62
   257
176
     0
 90
        1
176
     0
 90
        1
176
     0
 40
1.0
176
     0
 90
       10
176
     2
 62
     7
176
     0
 40
1.0
176
     0
 90
        1
176
     0
 90
        6
176
     0
 90
        2
176
     0
 62
     7
176
     0
 90
        5
176
     0
 90
        0
176
     0
 90
        0
176
     0
290
     0
176
     0
 90
        1
176
     0
 40
0.0
176
     0
 90
        0
176
     0
290
     0
176
     1
290
     1
176
     1
290
     1
176
     1
290
     0
176
     1
290
     0
176
     1
290
     0
176
     1
290
     0
176
     1
290
     0
176
     1
290
     0
176
     1
 90
       50
176
     1
 40
0.0
176
     1
 40
1.0
176
     1
 90
        0
176
     1
 62
    18
176
     1
 90
       50
176
     1
 90
        3
176
     1
 62
     5
420
      255
176
     1
290
     0
176
     1
 90
       50
176
     1
 90
       50
176
     1
 90
       50
176
     1
290
     0
176
     1
 90
       50
176
     1
 62
   256
176
     0
 40
1.0
176
     0
 90
        2
176
     1
  1
strokes_ogs.tif
176
     1
290
     0
176
     1
 40
1.0
176
     1
 40
1.0
176
     1
  0
VISUALSTYLE
  5
10023
102
{ACAD_REACTORS
330
10015
102
}
330
10015
100
AcDbVisualStyle
  2
Linepattern
 70
    14
177
     3
291
     1
 70
    58
 90
        2
176
     1
 90
        2
176
     1
 90
        0
176
     1
 90
        0
176
     1
 40
0.6
176
     1
 40
30.0
176
     1
 62
     7
176
     1
 90
        1
176
     1
 90
        4
176
     1
 62
     7
176
     1
 62
   257
176
     1
 90
        7
176
     1
 90
        7
176
     1
 40
1.0
176
     1
 90
        8
176
     1
 62
     7
176
     1
 40
1.0
176
     1
 90
        1
176
     1
 90
        6
176
     1
 90
        2
176
     1
 62
     7
176
     1
 90
        5
176
     1
 90
        0
176
     1
 90
        0
176
     1
290
     0
176
     1
 90
        1
176
     1
 40
0.0
176
     1
 90
        0
176
     1
290
     0
176
     1
290
     1
176
     1
290
     1
176
     1
290
     0
176
     1
290
     0
176
     1
290
     0
176
     1
290
     0
176
     1
290
     0
176
     1
290
     0
176
     1
 90
       50
176
     1
 40
0.0
176
     1
 40
1.0
176
     1
 90
        0
176
     1
 62
    18
176
     1
 90
       50
176
     1
 90
        3
176
     1
 62
     5
420
      255
176
     1
290
     0
176
     1
 90
       50
176
     1
 90
       50
176
     1
 90
       50
176
     1
290
     0
176
     1
 90
       50
176
     1
 62
   256
176
     0
 40
1.0
176
     0
 90
        2
176
     1
  1
strokes_ogs.tif
176
     1
290
     0
176
     1
 40
1.0
176
     1
 40
1.0
176
     1
  0
VISUALSTYLE
  5
10027
102
{ACAD_REACTORS
330
10015
102
}
330
10015
100
AcDbVisualStyle
  2
OverhangOff
 70
    21
177
     3
291
     1
 70
    58
 90
        2
176
     0
 90
        2
176
     0
 90
        0
176
     0
 90
        0
176
     0
 40
0.6
176
     0
 40
30.0
176
     0
 62
     7
176
     0
 90
        1
176
     0
 90
        4
176
     0
 62
     7
176
     0
 62
   257
176
     0
 90
        1
176
     0
 90
        1
176
     0
 40
1.0
176
     0
 90
        9
176
     2
 62
     7
176
     0
 40
1.0
176
     0
 90
        1
176
     0
 90
        6
176
     0
 90
        2
176
     0
 62
     7
176
     0
 90
        5
176
     0
 90
        0
176
     0
 90
        0
176
     0
290
     0
176
     0
 90
        1
176
     0
 40
0.0
176
     0
 90
        0
176
     0
290
     0
176
     1
290
     1
176
     1
290
     1
176
     1
290
     0
176
     1
290
     0
176
     1
290
     0
176
     1
290
     0
176
     1
290
     0
176
     1
290
     0
176
     1
 90
       50
176
     1
 40
0.0
176
     1
 40
1.0
176
     1
 90
        0
176
     1
 62
    18
176
     1
 90
       50
176
     1
 90
        3
176
     1
 62
     5
420
      255
176
     1
290
     0
176
     1
 90
       50
176
     1
 90
       50
176
     1
 90
       50
176
     1
290
     0
176
     1
 90
       50
176
     1
 62
   256
176
     0
 40
1.0
176
     0
 90
        2
176
     1
  1
strokes_ogs.tif
176
     1
290
     0
176
     1
 40
1.0
176
     1
 40
1.0
176
     1
  0
VISUALSTYLE
  5
1001F
102
{ACAD_REACTORS
330
10015
102
}
330
10015
100
AcDbVisualStyle
  2
Realistic
 70
     8
177
     3
291
     0
 70
    58
 90
        2
176
     1
 90
        2
176
     1
 90
        0
176
     1
 90
        0
176
     1
 40
0.6
176
     1
 40
30.0
176
     1
 62
     7
176
     1
 90
        1
176
     1
 90
        0
176
     1
 62
     7
176
     1
 62
   257
176
     1
 90
        1
176
     1
 90
        1
176
     1
 40
1.0
176
     1
 90
        8
176
     1
 62
     8
176
     1
 40
1.0
176
     1
 90
        1
176
     1
 90
        6
176
     1
 90
        2
176
     1
 62
     7
176
     1
 90
        5
176
     1
 90
        0
176
     1
 90
        0
176
     1
290
     0
176
     1
 90
       13
176
     1
 40
0.0
176
     1
 90
        0
176
     1
290
     0
176
     1
290
     1
176
     1
290
     1
176
     1
290
     0
176
     1
290
     0
176
     1
290
     0
176
     1
290
     0
176
     1
290
     0
176
     1
290
     0
176
     1
 90
       50
176
     1
 40
0.0
176
     1
 40
1.0
176
     1
 90
        0
176
     1
 62
    18
176
     1
 90
       50
176
     1
 90
        3
176
     1
 62
     5
420
      255
176
     1
290
     0
176
     1
 90
       50
176
     1
 90
       50
176
     1
 90
       50
176
     1
290
     0
176
     1
 90
       50
176
     1
 62
   256
176
     0
 40
1.0
176
     0
 90
        2
176
     1
  1
strokes_ogs.tif
176
     1
290
     0
176
     1
 40
1.0
176
     1
 40
1.0
176
     1
  0
VISUALSTYLE
  5
246F1
102
{ACAD_REACTORS
330
10015
102
}
330
10015
100
AcDbVisualStyle
  2
Shaded
 70
    27
177
     3
291
     0
 70
    58
 90
        2
176
     1
 90
        2
176
     1
 90
        1
176
     1
 90
        2
176
     1
 40
0.6
176
     1
 40
30.0
176
     1
 62
     7
420
 16777215
176
     1
 90
        0
176
     1
 90
        4
176
     1
 62
     7
176
     1
 62
   257
176
     1
 90
        1
176
     1
 90
        1
176
     1
 40
1.0
176
     1
 90
        8
176
     1
 62
   257
176
     1
 40
1.0
176
     1
 90
        1
176
     1
 90
        6
176
     1
 90
        2
176
     1
 62
     8
420
  7895160
176
     1
 90
        3
176
     1
 90
        0
176
     1
 90
        0
176
     1
290
     0
176
     1
 90
        5
176
     1
 40
0.0
176
     1
 90
        0
176
     1
290
     0
176
     1
290
     1
176
     1
290
     1
176
     1
290
     0
176
     1
290
     0
176
     1
290
     0
176
     1
290
     0
176
     1
290
     0
176
     1
290
     0
176
     1
 90
       50
176
     1
 40
0.0
176
     1
 40
1.0
176
     1
 90
        0
176
     1
 62
    18
176
     1
 90
       50
176
     1
 90
        3
176
     1
 62
     5
420
      255
176
     1
290
     0
176
     1
 90
       50
176
     1
 90
       50
176
     1
 90
       50
176
     1
290
     0
176
     1
 90
       50
176
     1
 62
   256
176
     0
 40
1.0
176
     0
 90
        2
176
     1
  1
strokes_ogs.tif
176
     1
290
     0
176
     1
 40
1.0
176
     1
 40
1.0
176
     1
  0
VISUALSTYLE
  5
246F0
102
{ACAD_REACTORS
330
10015
102
}
330
10015
100
AcDbVisualStyle
  2
Shaded with edges
 70
    26
177
     3
291
     0
 70
    58
 90
        2
176
     1
 90
        2
176
     1
 90
        1
176
     1
 90
        2
176
     1
 40
0.6
176
     1
 40
30.0
176
     1
 62
     7
420
 16777215
176
     1
 90
        1
176
     1
 90
       10
176
     1
 62
     7
176
     1
 62
   257
176
     1
 90
        2
176
     1
 90
        1
176
     1
 40
1.0
176
     1
 90
        8
176
     1
 62
   257
176
     1
 40
1.0
176
     1
 90
        1
176
     1
 90
        6
176
     1
 90
        2
176
     1
 62
     7
176
     1
 90
        3
176
     1
 90
        0
176
     1
 90
        0
176
     1
290
     0
176
     1
 90
        5
176
     1
 40
0.0
176
     1
 90
        0
176
     1
290
     0
176
     1
290
     1
176
     1
290
     1
176
     1
290
     0
176
     1
290
     0
176
     1
290
     0
176
     1
290
     0
176
     1
290
     0
176
     1
290
     0
176
     1
 90
       50
176
     1
 40
0.0
176
     1
 40
1.0
176
     1
 90
        0
176
     1
 62
    18
176
     1
 90
       50
176
     1
 90
        3
176
     1
 62
     5
420
      255
176
     1
290
     0
176
     1
 90
       50
176
     1
 90
       50
176
     1
 90
       50
176
     1
290
     0
176
     1
 90
       50
176
     1
 62
   256
176
     0
 40
1.0
176
     0
 90
        2
176
     1
  1
strokes_ogs.tif
176
     1
290
     0
176
     1
 40
1.0
176
     1
 40
1.0
176
     1
  0
VISUALSTYLE
  5
246ED
102
{ACAD_REACTORS
330
10015
102
}
330
10015
100
AcDbVisualStyle
  2
Shades of Gray
 70
    23
177
     3
291
     0
 70
    58
 90
        2
176
     1
 90
        2
176
     1
 90
        3
176
     1
 90
        0
176
     1
 40
0.6
176
     1
 40
30.0
176
     1
 62
     7
420
 16777215
176
     1
 90
        2
176
     1
 90
        2
176
     1
 62
     7
176
     1
 62
     7
176
     1
 90
        1
176
     1
 90
        1
176
     1
 40
40.0
176
     1
 90
        8
176
     1
 62
     7
176
     1
 40
1.0
176
     1
 90
        1
176
     1
 90
        6
176
     1
 90
        2
176
     1
 62
     7
176
     1
 90
        3
176
     1
 90
        0
176
     1
 90
        0
176
     1
290
     0
176
     1
 90
        1
176
     1
 40
0.0
176
     1
 90
        0
176
     1
290
     0
176
     1
290
     1
176
     1
290
     1
176
     1
290
     0
176
     1
290
     0
176
     1
290
     0
176
     1
290
     0
176
     1
290
     0
176
     1
290
     0
176
     1
 90
       50
176
     1
 40
0.0
176
     1
 40
1.0
176
     1
 90
        0
176
     1
 62
    18
176
     1
 90
       50
176
     1
 90
        3
176
     1
 62
     5
420
      255
176
     1
290
     0
176
     1
 90
       50
176
     1
 90
       50
176
     1
 90
       50
176
     1
290
     0
176
     1
 90
       50
176
     1
 62
   256
176
     0
 40
1.0
176
     0
 90
        2
176
     1
  1
strokes_ogs.tif
176
     1
290
     0
176
     1
 40
1.0
176
     1
 40
1.0
176
     1
  0
VISUALSTYLE
  5
246EE
102
{ACAD_REACTORS
330
10015
102
}
330
10015
100
AcDbVisualStyle
  2
Sketchy
 70
    24
177
     3
291
     0
 70
    58
 90
        1
176
     1
 90
        2
176
     1
 90
        2
176
     1
 90
        0
176
     1
 40
0.6
176
     1
 40
30.0
176
     1
 62
     7
420
 16777215
176
     1
 90
        2
176
     1
 90
        2
176
     1
 62
     7
176
     1
 62
     7
176
     1
 90
        1
176
     1
 90
        1
176
     1
 40
40.0
176
     1
 90
       11
176
     1
 62
     7
176
     1
 40
1.0
176
     1
 90
        1
176
     1
 90
        6
176
     1
 90
        2
176
     1
 62
     7
176
     1
 90
        6
176
     1
 90
        0
176
     1
 90
        0
176
     1
290
     0
176
     1
 90
        1
176
     1
 40
0.0
176
     1
 90
        0
176
     1
290
     0
176
     1
290
     1
176
     1
290
     1
176
     1
290
     0
176
     1
290
     0
176
     1
290
     0
176
     1
290
     0
176
     1
290
     0
176
     1
290
     0
176
     1
 90
       50
176
     1
 40
0.0
176
     1
 40
1.0
176
     1
 90
        0
176
     1
 62
    18
176
     1
 90
       50
176
     1
 90
        3
176
     1
 62
     5
420
      255
176
     1
290
     0
176
     1
 90
       50
176
     1
 90
       50
176
     1
 90
       50
176
     1
290
     0
176
     1
 90
       50
176
     1
 62
   256
176
     0
 40
1.0
176
     0
 90
        2
176
     1
  1
strokes_ogs.tif
176
     1
290
     0
176
     1
 40
1.0
176
     1
 40
1.0
176
     1
  0
VISUALSTYLE
  5
10022
102
{ACAD_REACTORS
330
10015
102
}
330
10015
100
AcDbVisualStyle
  2
Thicken
 70
    13
177
     3
291
     1
 70
    58
 90
        2
176
     1
 90
        2
176
     1
 90
        0
176
     1
 90
        0
176
     1
 40
0.6
176
     1
 40
30.0
176
     1
 62
     7
176
     1
 90
        1
176
     1
 90
        4
176
     1
 62
     7
176
     1
 62
   257
176
     1
 90
        1
176
     1
 90
        1
176
     1
 40
1.0
176
     1
 90
       12
176
     1
 62
     7
176
     1
 40
1.0
176
     1
 90
        1
176
     1
 90
        6
176
     1
 90
        2
176
     1
 62
     7
176
     1
 90
        5
176
     1
 90
        0
176
     1
 90
        0
176
     1
290
     0
176
     1
 90
        1
176
     1
 40
0.0
176
     1
 90
        0
176
     1
290
     0
176
     1
290
     1
176
     1
290
     1
176
     1
290
     0
176
     1
290
     0
176
     1
290
     0
176
     1
290
     0
176
     1
290
     0
176
     1
290
     0
176
     1
 90
       50
176
     1
 40
0.0
176
     1
 40
1.0
176
     1
 90
        0
176
     1
 62
    18
176
     1
 90
       50
176
     1
 90
        3
176
     1
 62
     5
420
      255
176
     1
290
     0
176
     1
 90
       50
176
     1
 90
       50
176
     1
 90
       50
176
     1
290
     0
176
     1
 90
       50
176
     1
 62
   256
176
     0
 40
1.0
176
     0
 90
        2
176
     1
  1
strokes_ogs.tif
176
     1
290
     0
176
     1
 40
1.0
176
     1
 40
1.0
176
     1
  0
VISUALSTYLE
  5
246EB
102
{ACAD_REACTORS
330
10015
102
}
330
10015
100
AcDbVisualStyle
  2
Wireframe
 70
     5
177
     3
291
     0
 70
    58
 90
        0
176
     1
 90
        2
176
     1
 90
        0
176
     1
 90
        0
176
     1
 40
0.6
176
     1
 40
30.0
176
     1
 62
     7
420
 16777215
176
     1
 90
        1
176
     1
 90
        4
176
     1
 62
     7
176
     1
 62
   257
176
     1
 90
        1
176
     1
 90
        1
176
     1
 40
1.0
176
     1
 90
        0
176
     1
 62
   257
176
     1
 40
1.0
176
     1
 90
        1
176
     1
 90
        6
176
     1
 90
        2
176
     1
 62
     7
176
     1
 90
        3
176
     1
 90
        0
176
     1
 90
        0
176
     1
290
     0
176
     1
 90
        1
176
     1
 40
0.0
176
     1
 90
        0
176
     1
290
     0
176
     1
290
     1
176
     1
290
     1
176
     1
290
     0
176
     1
290
     0
176
     1
290
     0
176
     1
290
     0
176
     1
290
     0
176
     1
290
     0
176
     1
 90
       50
176
     1
 40
0.0
176
     1
 40
1.0
176
     1
 90
        0
176
     1
 62
    18
176
     1
 90
       50
176
     1
 90
        3
176
     1
 62
     5
420
      255
176
     1
290
     0
176
     1
 90
       50
176
     1
 90
       50
176
     1
 90
       50
176
     1
290
     0
176
     1
 90
       50
176
     1
 62
   256
176
     0
 40
1.0
176
     0
 90
        2
176
     1
  1
strokes_ogs.tif
176
     1
290
     0
176
     1
 40
1.0
176
     1
 40
1.0
176
     1
  0
VISUALSTYLE
  5
246EF
102
{ACAD_REACTORS
330
10015
102
}
330
10015
100
AcDbVisualStyle
  2
X-Ray
 70
    25
177
     3
291
     0
 70
    58
 90
        2
176
     1
 90
        2
176
     1
 90
        1
176
     1
 90
        1
176
     1
 40
0.5
176
     1
 40
30.0
176
     1
 62
     7
420
 16777215
176
     1
 90
        1
176
     1
 90
        0
176
     1
 62
     7
176
     1
 62
   257
176
     1
 90
        1
176
     1
 90
        1
176
     1
 40
1.0
176
     1
 90
        8
176
     1
 62
     7
176
     1
 40
1.0
176
     1
 90
        1
176
     1
 90
        6
176
     1
 90
        2
176
     1
 62
     7
176
     1
 90
        3
176
     1
 90
        0
176
     1
 90
        0
176
     1
290
     0
176
     1
 90
       13
176
     1
 40
0.0
176
     1
 90
        0
176
     1
290
     0
176
     1
290
     1
176
     1
290
     1
176
     1
290
     0
176
     1
290
     0
176
     1
290
     0
176
     1
290
     0
176
     1
290
     0
176
     1
290
     0
176
     1
 90
       50
176
     1
 40
0.0
176
     1
 40
1.0
176
     1
 90
        0
176
     1
 62
    18
176
     1
 90
       50
176
     1
 90
        3
176
     1
 62
     5
420
      255
176
     1
290
     0
176
     1
 90
       50
176
     1
 90
       50
176
     1
 90
       50
176
     1
290
     0
176
     1
 90
       50
176
     1
 62
   256
176
     0
 40
1.0
176
     0
 90
        2
176
     1
  1
strokes_ogs.tif
176
     1
290
     0
176
     1
 40
1.0
176
     1
 40
1.0
176
     1
  0
DICTIONARYVAR
  5
100CD
102
{ACAD_REACTORS
330
5697
102
}
330
5697
100
DictionaryVariables
280
     0
  1
1:1
  0
DICTIONARYVAR
  5
100CC
102
{ACAD_REACTORS
330
5697
102
}
330
5697
100
DictionaryVariables
280
     0
  1
STANDARD
  0
DICTIONARYVAR
  5
100CB
102
{ACAD_REACTORS
330
5697
102
}
330
5697
100
DictionaryVariables
280
     0
  1
STANDARD
  0
DICTIONARYVAR
  5
24775
102
{ACAD_REACTORS
330
5697
102
}
330
5697
100
DictionaryVariables
280
     0
  1
Imperial24
  0
DICTIONARYVAR
  5
24776
102
{ACAD_REACTORS
330
5697
102
}
330
5697
100
DictionaryVariables
280
     0
  1
Imperial24
  0
DICTIONARYVAR
  5
5698
102
{ACAD_REACTORS
330
5697
102
}
330
5697
100
DictionaryVariables
280
     0
  1
1
  0
DICTIONARYVAR
  5
100CF
102
{ACAD_REACTORS
330
5697
102
}
330
5697
100
DictionaryVariables
280
     0
  1
0
  0
DICTIONARYVAR
  5
228A5
102
{ACAD_REACTORS
330
5697
102
}
330
5697
100
DictionaryVariables
280
     0
  1
1
  0
DICTIONARYVAR
  5
228A6
102
{ACAD_REACTORS
330
5697
102
}
330
5697
100
DictionaryVariables
280
     0
  1
15
  0
DICTIONARYVAR
  5
228A4
102
{ACAD_REACTORS
330
5697
102
}
330
5697
100
DictionaryVariables
280
     0
  1
0
  0
DICTIONARYVAR
  5
228A3
102
{ACAD_REACTORS
330
5697
102
}
330
5697
100
DictionaryVariables
280
     0
  1
0
  0
DICTIONARYVAR
  5
100CE
102
{ACAD_REACTORS
330
5697
102
}
330
5697
100
DictionaryVariables
280
     0
  1
127
  0
XRECORD
  5
1012C
102
{ACAD_REACTORS
330
1012A
102
}
330
1012A
100
AcDbXrecord
280
     1
330
0
330
0
330
0
330
0
330
0
330
0
330
0
330
0
330
0
330
0
330
0
330
0
330
0
330
0
330
0
330
0
330
0
330
0
330
0
330
0
330
0
330
0
330
0
330
0
330
0
330
0
330
0
330
0
330
0
330
0
330
0
330
0
330
0
330
0
330
0
330
0
330
0
330
0
330
0
330
0
330
0
330
0
330
0
330
0
330
0
330
0
330
0
330
0
330
0
330
0
  0
DICTIONARY
  5
24583
102
{ACAD_REACTORS
330
24582
102
}
330
24582
100
AcDbDictionary
281
     1
  3
*A1
350
24584
  0
DICTIONARY
  5
2477B
330
246F5
100
AcDbDictionary
280
     1
281
     1
  3
ACAD_XREC_ROUNDTRIP
360
2488D
  0
DICTIONARY
  5
1F6F5
330
904E
100
AcDbDictionary
280
     1
281
     1
  0
DICTIONARY
  5
10006
330
10005
100
AcDbDictionary
280
     1
281
     1
  3
ACAD_XREC_ROUNDTRIP
360
159CA
  3
BUMPTILE
360
10008
  3
DIFFUSETILE
360
10007
  3
OPACITYTILE
360
1000B
  3
REFLECTIONTILE
360
1000A
  3
REFRACTIONTILE
360
1000C
  3
SPECULARTILE
360
10009
  0
DICTIONARY
  5
FFFE
330
FFFD
100
AcDbDictionary
280
     1
281
     1
  3
ACAD_XREC_ROUNDTRIP
360
159C9
  3
BUMPTILE
360
10000
  3
DIFFUSETILE
360
FFFF
  3
OPACITYTILE
360
10003
  3
REFLECTIONTILE
360
10002
  3
REFRACTIONTILE
360
10004
  3
SPECULARTILE
360
10001
  0
DICTIONARY
  5
1000E
330
1000D
100
AcDbDictionary
280
     1
281
     1
  3
ACAD_XREC_ROUNDTRIP
360
159CB
  3
BUMPTILE
360
10010
  3
DIFFUSETILE
360
1000F
  3
OPACITYTILE
360
10013
  3
REFLECTIONTILE
360
10012
  3
REFRACTIONTILE
360
10014
  3
SPECULARTILE
360
10011
  0
DICTIONARY
  5
24779
330
246F3
100
AcDbDictionary
280
     1
281
     1
  3
ACAD_XREC_ROUNDTRIP
360
2488C
  0
DICTIONARY
  5
1007E
330
1002B
100
AcDbDictionary
280
     1
281
     1
  3
ACAD_ROUNDTRIP_2008_TABLESTYLE_CELLSTYLEMAP
360
2488B
  0
ACDB_ALDIMOBJECTCONTEXTDATA_CLASS
  5
24584
102
{ACAD_REACTORS
330
24583
102
}
330
24583
100
AcDbObjectContextData
 70
     4
290
     1
100
AcDbAnnotScaleObjectContextData
340
1002D
100
AcDbDimensionObjectContextData
  2
*D39
293
     0
 10
215.1275881213548
 20
284.4218118574772
294
     0
140
0.0
298
     1
291
     0
 70
     0
292
     0
 71
     0
280
     1
295
     0
296
     0
297
     0
100
AcDbAlignedDimensionObjectContextData
 11
227.6334663567006
 21
284.4218118574772
 31
0.0
  0
XRECORD
  5
2488D
102
{ACAD_REACTORS
330
2477B
102
}
330
2477B
100
AcDbXrecord
280
     1
102
DISPLAYNAME
  1
Imperial24
102
FLAGS
 90
        0
  0
XRECORD
  5
159CA
102
{ACAD_REACTORS
330
10006
102
}
330
10006
100
AcDbXrecord
280
     1
102
MATERIAL
148
0.0
149
0.0
149
0.0
 93
        0
 94
      127
282
     0
 72
     0
 77
     0
171
     0
175
     0
179
     0
273
     0
  0
XRECORD
  5
10008
102
{ACAD_REACTORS
330
10006
102
}
330
10006
100
AcDbXrecord
280
     1
270
     1
271
     1
  0
XRECORD
  5
10007
102
{ACAD_REACTORS
330
10006
102
}
330
10006
100
AcDbXrecord
280
     1
270
     1
271
     1
  0
XRECORD
  5
1000B
102
{ACAD_REACTORS
330
10006
102
}
330
10006
100
AcDbXrecord
280
     1
270
     1
271
     1
  0
XRECORD
  5
1000A
102
{ACAD_REACTORS
330
10006
102
}
330
10006
100
AcDbXrecord
280
     1
270
     1
271
     1
  0
XRECORD
  5
1000C
102
{ACAD_REACTORS
330
10006
102
}
330
10006
100
AcDbXrecord
280
     1
270
     1
271
     1
  0
XRECORD
  5
10009
102
{ACAD_REACTORS
330
10006
102
}
330
10006
100
AcDbXrecord
280
     1
270
     1
271
     1
  0
XRECORD
  5
159C9
102
{ACAD_REACTORS
330
FFFE
102
}
330
FFFE
100
AcDbXrecord
280
     1
102
MATERIAL
148
0.0
149
0.0
149
0.0
 93
        0
 94
      127
282
     0
 72
     0
 77
     0
171
     0
175
     0
179
     0
273
     0
  0
XRECORD
  5
10000
102
{ACAD_REACTORS
330
FFFE
102
}
330
FFFE
100
AcDbXrecord
280
     1
270
     1
271
     1
  0
XRECORD
  5
FFFF
102
{ACAD_REACTORS
330
FFFE
102
}
330
FFFE
100
AcDbXrecord
280
     1
270
     1
271
     1
  0
XRECORD
  5
10003
102
{ACAD_REACTORS
330
FFFE
102
}
330
FFFE
100
AcDbXrecord
280
     1
270
     1
271
     1
  0
XRECORD
  5
10002
102
{ACAD_REACTORS
330
FFFE
102
}
330
FFFE
100
AcDbXrecord
280
     1
270
     1
271
     1
  0
XRECORD
  5
10004
102
{ACAD_REACTORS
330
FFFE
102
}
330
FFFE
100
AcDbXrecord
280
     1
270
     1
271
     1
  0
XRECORD
  5
10001
102
{ACAD_REACTORS
330
FFFE
102
}
330
FFFE
100
AcDbXrecord
280
     1
270
     1
271
     1
  0
XRECORD
  5
159CB
102
{ACAD_REACTORS
330
1000E
102
}
330
1000E
100
AcDbXrecord
280
     1
102
MATERIAL
148
0.0
149
0.0
149
0.0
 93
        0
 94
      127
282
     0
 72
     0
 77
     0
171
     0
175
     0
179
     0
273
     0
  0
XRECORD
  5
10010
102
{ACAD_REACTORS
330
1000E
102
}
330
1000E
100
AcDbXrecord
280
     1
270
     1
271
     1
  0
XRECORD
  5
1000F
102
{ACAD_REACTORS
330
1000E
102
}
330
1000E
100
AcDbXrecord
280
     1
270
     1
271
     1
  0
XRECORD
  5
10013
102
{ACAD_REACTORS
330
1000E
102
}
330
1000E
100
AcDbXrecord
280
     1
270
     1
271
     1
  0
XRECORD
  5
10012
102
{ACAD_REACTORS
330
1000E
102
}
330
1000E
100
AcDbXrecord
280
     1
270
     1
271
     1
  0
XRECORD
  5
10014
102
{ACAD_REACTORS
330
1000E
102
}
330
1000E
100
AcDbXrecord
280
     1
270
     1
271
     1
  0
XRECORD
  5
10011
102
{ACAD_REACTORS
330
1000E
102
}
330
1000E
100
AcDbXrecord
280
     1
270
     1
271
     1
  0
XRECORD
  5
2488C
102
{ACAD_REACTORS
330
24779
102
}
330
24779
100
AcDbXrecord
280
     1
102
DISPLAYNAME
  1
Imperial24
102
FLAGS
 90
        0
  0
CELLSTYLEMAP
  5
2488B
102
{ACAD_REACTORS
330
1007E
102
}
330
1007E
100
AcDbCellStyleMap
 90
        3
300
CELLSTYLE
  1
TABLEFORMAT_BEGIN
 90
        5
170
     1
 91
        0
 92
    32768
 62
   257
 93
        1
300
CONTENTFORMAT
  1
CONTENTFORMAT_BEGIN
 90
        0
 91
        0
 92
      512
 93
        0
300

 40
0.0
140
1.0
 94
        5
 62
     0
340
11
144
0.25
309
CONTENTFORMAT_END
171
     1
301
MARGIN
  1
CELLMARGIN_BEGIN
 40
0.06
 40
0.06
 40
0.06
 40
0.06
 40
0.18
 40
0.18
309
CELLMARGIN_END
 94
        6
 95
        1
302
GRIDFORMAT
  1
GRIDFORMAT_BEGIN
 90
        0
 91
        1
 62
     0
 92
       -2
340
0
 93
        0
 40
0.045
309
GRIDFORMAT_END
 95
        2
302
GRIDFORMAT
  1
GRIDFORMAT_BEGIN
 90
        0
 91
        1
 62
     0
 92
       -2
340
0
 93
        0
 40
0.045
309
GRIDFORMAT_END
 95
        4
302
GRIDFORMAT
  1
GRIDFORMAT_BEGIN
 90
        0
 91
        1
 62
     0
 92
       -2
340
0
 93
        0
 40
0.045
309
GRIDFORMAT_END
 95
        8
302
GRIDFORMAT
  1
GRIDFORMAT_BEGIN
 90
        0
 91
        1
 62
     0
 92
       -2
340
0
 93
        0
 40
0.045
309
GRIDFORMAT_END
 95
       16
302
GRIDFORMAT
  1
GRIDFORMAT_BEGIN
 90
        0
 91
        1
 62
     0
 92
       -2
340
0
 93
        0
 40
0.045
309
GRIDFORMAT_END
 95
       32
302
GRIDFORMAT
  1
GRIDFORMAT_BEGIN
 90
        0
 91
        1
 62
     0
 92
       -2
340
0
 93
        0
 40
0.045
309
GRIDFORMAT_END
309
TABLEFORMAT_END
  1
CELLSTYLE_BEGIN
 90
        1
 91
        1
300
_TITLE
309
CELLSTYLE_END
300
CELLSTYLE
  1
TABLEFORMAT_BEGIN
 90
        5
170
     1
 91
        0
 92
        0
 62
   257
 93
        1
300
CONTENTFORMAT
  1
CONTENTFORMAT_BEGIN
 90
        0
 91
        0
 92
      512
 93
        0
300

 40
0.0
140
1.0
 94
        5
 62
     0
340
11
144
0.18
309
CONTENTFORMAT_END
171
     1
301
MARGIN
  1
CELLMARGIN_BEGIN
 40
0.06
 40
0.06
 40
0.06
 40
0.06
 40
0.18
 40
0.18
309
CELLMARGIN_END
 94
        6
 95
        1
302
GRIDFORMAT
  1
GRIDFORMAT_BEGIN
 90
        0
 91
        1
 62
     0
 92
       -2
340
0
 93
        0
 40
0.045
309
GRIDFORMAT_END
 95
        2
302
GRIDFORMAT
  1
GRIDFORMAT_BEGIN
 90
        0
 91
        1
 62
     0
 92
       -2
340
0
 93
        0
 40
0.045
309
GRIDFORMAT_END
 95
        4
302
GRIDFORMAT
  1
GRIDFORMAT_BEGIN
 90
        0
 91
        1
 62
     0
 92
       -2
340
0
 93
        0
 40
0.045
309
GRIDFORMAT_END
 95
        8
302
GRIDFORMAT
  1
GRIDFORMAT_BEGIN
 90
        0
 91
        1
 62
     0
 92
       -2
340
0
 93
        0
 40
0.045
309
GRIDFORMAT_END
 95
       16
302
GRIDFORMAT
  1
GRIDFORMAT_BEGIN
 90
        0
 91
        1
 62
     0
 92
       -2
340
0
 93
        0
 40
0.045
309
GRIDFORMAT_END
 95
       32
302
GRIDFORMAT
  1
GRIDFORMAT_BEGIN
 90
        0
 91
        1
 62
     0
 92
       -2
340
0
 93
        0
 40
0.045
309
GRIDFORMAT_END
309
TABLEFORMAT_END
  1
CELLSTYLE_BEGIN
 90
        2
 91
        1
300
_HEADER
309
CELLSTYLE_END
300
CELLSTYLE
  1
TABLEFORMAT_BEGIN
 90
        5
170
     1
 91
        0
 92
        0
 62
   257
 93
        1
300
CONTENTFORMAT
  1
CONTENTFORMAT_BEGIN
 90
        0
 91
        0
 92
      512
 93
        0
300

 40
0.0
140
1.0
 94
        2
 62
     0
340
11
144
0.18
309
CONTENTFORMAT_END
171
     1
301
MARGIN
  1
CELLMARGIN_BEGIN
 40
0.06
 40
0.06
 40
0.06
 40
0.06
 40
0.18
 40
0.18
309
CELLMARGIN_END
 94
        6
 95
        1
302
GRIDFORMAT
  1
GRIDFORMAT_BEGIN
 90
        0
 91
        1
 62
     0
 92
       -2
340
0
 93
        0
 40
0.045
309
GRIDFORMAT_END
 95
        2
302
GRIDFORMAT
  1
GRIDFORMAT_BEGIN
 90
        0
 91
        1
 62
     0
 92
       -2
340
0
 93
        0
 40
0.045
309
GRIDFORMAT_END
 95
        4
302
GRIDFORMAT
  1
GRIDFORMAT_BEGIN
 90
        0
 91
        1
 62
     0
 92
       -2
340
0
 93
        0
 40
0.045
309
GRIDFORMAT_END
 95
        8
302
GRIDFORMAT
  1
GRIDFORMAT_BEGIN
 90
        0
 91
        1
 62
     0
 92
       -2
340
0
 93
        0
 40
0.045
309
GRIDFORMAT_END
 95
       16
302
GRIDFORMAT
  1
GRIDFORMAT_BEGIN
 90
        0
 91
        1
 62
     0
 92
       -2
340
0
 93
        0
 40
0.045
309
GRIDFORMAT_END
 95
       32
302
GRIDFORMAT
  1
GRIDFORMAT_BEGIN
 90
        0
 91
        1
 62
     0
 92
       -2
340
0
 93
        0
 40
0.045
309
GRIDFORMAT_END
309
TABLEFORMAT_END
  1
CELLSTYLE_BEGIN
 90
        3
 91
        2
300
_DATA
309
CELLSTYLE_END
  0
ENDSEC
  0
SECTION
  2
ACDSDATA
 70
     2
 71
     6
  0
ACDSSCHEMA
 90
        0
  1
AcDb_Thumbnail_Schema
  2
AcDbDs::ID
280
    10
 91
        8
  2
Thumbnail_Data
280
    15
 91
        0
101
ACDSRECORD
 95
        0
 90
        1
  2
AcDbDs::TreatedAsObjectData
280
     1
291
     1
101
ACDSRECORD
 95
        0
 90
        2
  2
AcDbDs::Legacy
280
     1
291
     1
101
ACDSRECORD
  1
AcDbDs::ID
 90
        3
  2
AcDs:Indexable
280
     1
291
     1
101
ACDSRECORD
  1
AcDbDs::ID
 90
        4
  2
AcDbDs::HandleAttribute
280
     7
282
     1
  0
ACDSSCHEMA
 90
        1
  1
AcDbDs::TreatedAsObjectDataSchema
  2
AcDbDs::TreatedAsObjectData
280
     1
 91
        0
  0
ACDSSCHEMA
 90
        2
  1
AcDbDs::LegacySchema
  2
AcDbDs::Legacy
280
     1
 91
        0
  0
ACDSSCHEMA
 90
        3
  1
AcDbDs::IndexedPropertySchema
  2
AcDs:Indexable
280
     1
 91
        0
  0
ACDSSCHEMA
 90
        4
  1
AcDbDs::HandleAttributeSchema
  2
AcDbDs::HandleAttribute
280
     7
 91
        1
284
     1
  0
ACDSRECORD
 90
        0
  2
AcDbDs::ID
280
    10
320
904E
  2
Thumbnail_Data
280
    15
 94
     1895
310
89504E470D0A1A0A0000000D4948445200000100000000A408030000004F56001800000300504C5445000000000000FFFFFF0000000000000000000000000000000000000000000000000000330000660000990000CC0000FF0033000033330033660033990033CC0033FF0066000066330066660066990066CC0066FF0099
310
000099330099660099990099CC0099FF00CC0000CC3300CC6600CC9900CCCC00CCFF00FF0000FF3300FF6600FF9900FFCC00FFFF3300003300333300663300993300CC3300FF3333003333333333663333993333CC3333FF3366003366333366663366993366CC3366FF3399003399333399663399993399CC3399FF33CC00
310
33CC3333CC6633CC9933CCCC33CCFF33FF0033FF3333FF6633FF9933FFCC33FFFF6600006600336600666600996600CC6600FF6633006633336633666633996633CC6633FF6666006666336666666666996666CC6666FF6699006699336699666699996699CC6699FF66CC0066CC3366CC6666CC9966CCCC66CCFF66FF0066
310
FF3366FF6666FF9966FFCC66FFFF9900009900339900669900999900CC9900FF9933009933339933669933999933CC9933FF9966009966339966669966999966CC9966FF9999009999339999669999999999CC9999FF99CC0099CC3399CC6699CC9999CCCC99CCFF99FF0099FF3399FF6699FF9999FFCC99FFFFCC0000CC00
310
33CC0066CC0099CC00CCCC00FFCC3300CC3333CC3366CC3399CC33CCCC33FFCC6600CC6633CC6666CC6699CC66CCCC66FFCC9900CC9933CC9966CC9999CC99CCCC99FFCCCC00CCCC33CCCC66CCCC99CCCCCCCCCCFFCCFF00CCFF33CCFF66CCFF99CCFFCCCCFFFFFF0000FF0033FF0066FF0099FF00CCFF00FFFF3300FF3333
310
FF3366FF3399FF33CCFF33FFFF6600FF6633FF6666FF6699FF66CCFF66FFFF9900FF9933FF9966FF9999FF99CCFF99FFFFCC00FFCC33FFCC66FFCC99FFCCCCFFCCFFFFFF00FFFF33FFFF66FFFF99FFFFCCFFFFFF0000000D0D0D1A1A1A2828283535354343435050505D5D5D6B6B6B787878868686939393A1A1A1AEAEAEBB
310
BBBBC9C9C9D6D6D6E4E4E4F1F1F1FFFFFF000000000000000000000000000000000000000000000000000000000000C11FEF66000004224944415478DAEDDD4B72E2301006E0DCC0D7D046F7DFB1D1962378D527E80DFBD1DB2DD932D4149329A9FF4E8060482AFAD4167A91FC90F2F8010000000000000000000000000000
310
0000007C1AF6DB311DC0977F0B000000000000C0DA00AF18F9267EA9124006009403A83C05A87CA20DD07A0A8814400628EE07105E059001FA008E60563E18D20EC07C21A006C09FFA6C482F806FF99EFC7CAA057891D96328053081C06700E78640B4052A004C0AF69F4D6801781D000D012902C82F83CFE753631B900176
310
0FC0BCEB0508194032FB953582A927CCBD8016008AED9FBFA8EC07C4EA0F00443A01CA48E86A340400006802B8981A51BA3CBE00C0877BBDC20B80390D82780580F061C9962FEEBA0064DAEAA78CC02A32E0885AFFF114981920FCEEF700F5781E0684B50053EB3FFE887D9F773E20D69C4D735CD67FECA76258D906D4B5A1
310
5CFF1120977F66809B0CB02D001D0B4202C013788F7901288EECF774B90168DA800AE005525B3831400C77F962760648472440EE1BAE0F105B3F93E6C22400CF0E70D306D81E6037693650004CDD11AA19508ADE0258FB41062CD0131C00B41951006CEE03FCA3B1C5EF02F05D06F005406804A974FFBA45F259019C753EAC
310
ADB7F9E17CAF0963D21396022819E04E1970D106AC9601B78D205F378296566A04FF0260AD57013E1ABB14DC0084A162DF0F485B039602903DC177004B66C0A70083B1C002006234F80900B7A3414D6DC0D57CC00A00613628CF08F500EF67842607E82705CF00C7A4601D04347382F30F86EE01B86B03D8C855016500615D
310
80E550500B40ECF3731C0BF0797BDCFC00E9BAB9110069D0530BCBD7930153030C2AF5B8270FAF08D0547D075056401B202D000DC5719499949C025A0046C1E3D001F0BF7F1E007E19C05D3FCB8DBEDD016025806D23B7F92B79A48BB70FCC0F400D4057D1DBDB07A60538AA5256A82680A6400000803680C19F45ECCB59FB
310
BF00100F84836B9C027B28D09EEFB12C97AB23A333002F00908777662797DE11BDE5C1EFF69021C680B9C0E5E0ECEF1C4D5518667C4B0694723E64063C024C0BE0E851EECF0D1013C0472AA9D10510D3B76600C5796FBA06201E019407E605089B9F4CDE045552C16D0FB93BCA17B70294232E3D6372807A06A472B331C30C
310
A0D129303140DB08A63680B43582B144FED44FAF02FC2900BB7C607680AE1F2000EEFB01BC483F205761ED091E00EDD6A1D3604866C0F46301B69C5686E3451B00E5F7C2A70269CB8070026FA41B8054039412E806F0C1E54A2300A58A77B1F075E117002C577FF8B432C45B79C61A00B50D90876406F45133800000802500
310
065B84CA46B933C069A7CCDC00836D82E35D418B017C2300B01AC0E85F6990963FAEAE1E60FD5340FBFF1B5C28000000000000000000000000000000000000000000000000000000000000000000000000000000000000000000000000AC1D7F00C722910B4B19AC800000000049454E44AE426082
  0
ENDSEC
  0
EOF
