  0
SECTION
  2
HEADER
  9
$ACADVER
  1
AC1027
  9
$ACADMAINTVER
 70
    55
  9
$DWGCODEPAGE
  3
ANSI_932
  9
$LASTSAVEDBY
  1
marketing
  9
$REQUIREDVERSIONS
160
                 0
  9
$INSBASE
 10
0.0
 20
0.0
 30
0.0
  9
$EXTMIN
 10
-0.0288314832657761
 20
-0.0407759549043476
 30
-0.0000000000000057
  9
$EXTMAX
 10
630.028843218557
 20
891.0407925519594
 30
0.0000000000000104
  9
$LIMMIN
 10
0.0
 20
0.0
  9
$LIMMAX
 10
420.0
 20
297.0
  9
$ORTHOMODE
 70
     1
  9
$REGENMODE
 70
     1
  9
$FILLMODE
 70
     1
  9
$QTEXTMODE
 70
     0
  9
$MIRRTEXT
 70
     1
  9
$LTSCALE
 40
1.0
  9
$ATTMODE
 70
     1
  9
$TEXTSIZE
 40
3.0
  9
$TRACEWID
 40
1.0
  9
$TEXTSTYLE
  7
STANDARD
  9
$CLAYER
  8
0
  9
$CELTYPE
  6
ByLayer
  9
$CECOLOR
 62
   256
  9
$CELTSCALE
 40
1.0
  9
$DISPSILH
 70
     0
  9
$DIMSCALE
 40
1.0
  9
$DIMASZ
 40
2.0
  9
$DIMEXO
 40
1.0
  9
$DIMDLI
 40
0.5
  9
$DIMRND
 40
0.0
  9
$DIMDLE
 40
0.0
  9
$DIMEXE
 40
1.0
  9
$DIMTP
 40
0.0
  9
$DIMTM
 40
0.0
  9
$DIMTXT
 40
8.0
  9
$DIMCEN
 40
0.09
  9
$DIMTSZ
 40
0.0
  9
$DIMTOL
 70
     0
  9
$DIMLIM
 70
     0
  9
$DIMTIH
 70
     0
  9
$DIMTOH
 70
     0
  9
$DIMSE1
 70
     0
  9
$DIMSE2
 70
     0
  9
$DIMTAD
 70
     3
  9
$DIMZIN
 70
    12
  9
$DIMBLK
  1
OPEN
  9
$DIMASO
 70
     1
  9
$DIMSHO
 70
     1
  9
$DIMPOST
  1

  9
$DIMAPOST
  1

  9
$DIMALT
 70
     0
  9
$DIMALTD
 70
     2
  9
$DIMALTF
 40
25.4
  9
$DIMLFAC
 40
1.0
  9
$DIMTOFL
 70
     0
  9
$DIMTVP
 40
0.0
  9
$DIMTIX
 70
     0
  9
$DIMSOXD
 70
     0
  9
$DIMSAH
 70
     0
  9
$DIMBLK1
  1

  9
$DIMBLK2
  1

  9
$DIMSTYLE
  2
STANDARD
  9
$DIMCLRD
 70
     0
  9
$DIMCLRE
 70
     0
  9
$DIMCLRT
 70
     0
  9
$DIMTFAC
 40
1.0
  9
$DIMGAP
 40
2.0
  9
$DIMJUST
 70
     0
  9
$DIMSD1
 70
     0
  9
$DIMSD2
 70
     0
  9
$DIMTOLJ
 70
     1
  9
$DIMTZIN
 70
     0
  9
$DIMALTZ
 70
     0
  9
$DIMALTTZ
 70
     0
  9
$DIMUPT
 70
     0
  9
$DIMDEC
 70
     1
  9
$DIMTDEC
 70
     1
  9
$DIMALTU
 70
     2
  9
$DIMALTTD
 70
     2
  9
$DIMTXSTY
  7
STANDARD
  9
$DIMAUNIT
 70
     0
  9
$DIMADEC
 70
     0
  9
$DIMALTRND
 40
0.0
  9
$DIMAZIN
 70
     0
  9
$DIMDSEP
 70
    46
  9
$DIMATFIT
 70
     3
  9
$DIMFRAC
 70
     0
  9
$DIMLDRBLK
  1
OPEN
  9
$DIMLUNIT
 70
     2
  9
$DIMLWD
 70
    -2
  9
$DIMLWE
 70
    -2
  9
$DIMTMOVE
 70
     0
  9
$DIMFXL
 40
1.0
  9
$DIMFXLON
 70
     0
  9
$DIMJOGANG
 40
0.7853981633974483
  9
$DIMTFILL
 70
     1
  9
$DIMTFILLCLR
 70
     0
  9
$DIMARCSYM
 70
     0
  9
$DIMLTYPE
  6

  9
$DIMLTEX1
  6

  9
$DIMLTEX2
  6

  9
$DIMTXTDIRECTION
 70
     0
  9
$LUNITS
 70
     2
  9
$LUPREC
 70
     1
  9
$SKETCHINC
 40
1.0
  9
$FILLETRAD
 40
0.0
  9
$AUNITS
 70
     0
  9
$AUPREC
 70
     2
  9
$MENU
  1
.
  9
$ELEVATION
 40
0.0
  9
$PELEVATION
 40
0.0
  9
$THICKNESS
 40
0.0
  9
$LIMCHECK
 70
     0
  9
$CHAMFERA
 40
0.0
  9
$CHAMFERB
 40
0.0
  9
$CHAMFERC
 40
0.0
  9
$CHAMFERD
 40
0.0
  9
$SKPOLY
 70
     0
  9
$TDCREATE
 40
2458968.445094757
  9
$TDUCREATE
 40
2458968.070094757
  9
$TDUPDATE
 40
2459243.555845081
  9
$TDUUPDATE
 40
2459243.180845081
  9
$TDINDWG
 40
0.7954013194
  9
$TDUSRTIMER
 40
0.7954001968
  9
$USRTIMER
 70
     1
  9
$ANGBASE
 50
0.0
  9
$ANGDIR
 70
     0
  9
$PDMODE
 70
     0
  9
$PDSIZE
 40
-1.0
  9
$PLINEWID
 40
0.0
  9
$SPLFRAME
 70
     0
  9
$SPLINETYPE
 70
     6
  9
$SPLINESEGS
 70
     8
  9
$HANDSEED
  5
8876
  9
$SURFTAB1
 70
     6
  9
$SURFTAB2
 70
     6
  9
$SURFTYPE
 70
     6
  9
$SURFU
 70
     6
  9
$SURFV
 70
     6
  9
$UCSBASE
  2

  9
$UCSNAME
  2

  9
$UCSORG
 10
0.0
 20
0.0
 30
0.0
  9
$UCSXDIR
 10
1.0
 20
0.0
 30
0.0
  9
$UCSYDIR
 10
0.0
 20
1.0
 30
0.0
  9
$UCSORTHOREF
  2

  9
$UCSORTHOVIEW
 70
     0
  9
$UCSORGTOP
 10
0.0
 20
0.0
 30
0.0
  9
$UCSORGBOTTOM
 10
0.0
 20
0.0
 30
0.0
  9
$UCSORGLEFT
 10
0.0
 20
0.0
 30
0.0
  9
$UCSORGRIGHT
 10
0.0
 20
0.0
 30
0.0
  9
$UCSORGFRONT
 10
0.0
 20
0.0
 30
0.0
  9
$UCSORGBACK
 10
0.0
 20
0.0
 30
0.0
  9
$PUCSBASE
  2

  9
$PUCSNAME
  2

  9
$PUCSORG
 10
0.0
 20
0.0
 30
0.0
  9
$PUCSXDIR
 10
1.0
 20
0.0
 30
0.0
  9
$PUCSYDIR
 10
0.0
 20
1.0
 30
0.0
  9
$PUCSORTHOREF
  2

  9
$PUCSORTHOVIEW
 70
     0
  9
$PUCSORGTOP
 10
0.0
 20
0.0
 30
0.0
  9
$PUCSORGBOTTOM
 10
0.0
 20
0.0
 30
0.0
  9
$PUCSORGLEFT
 10
0.0
 20
0.0
 30
0.0
  9
$PUCSORGRIGHT
 10
0.0
 20
0.0
 30
0.0
  9
$PUCSORGFRONT
 10
0.0
 20
0.0
 30
0.0
  9
$PUCSORGBACK
 10
0.0
 20
0.0
 30
0.0
  9
$USERI1
 70
     0
  9
$USERI2
 70
     0
  9
$USERI3
 70
     0
  9
$USERI4
 70
     0
  9
$USERI5
 70
     0
  9
$USERR1
 40
0.0
  9
$USERR2
 40
0.0
  9
$USERR3
 40
0.0
  9
$USERR4
 40
0.0
  9
$USERR5
 40
0.0
  9
$WORLDVIEW
 70
     1
  9
$SHADEDGE
 70
     3
  9
$SHADEDIF
 70
    70
  9
$TILEMODE
 70
     1
  9
$MAXACTVP
 70
    64
  9
$PINSBASE
 10
0.0
 20
0.0
 30
0.0
  9
$PLIMCHECK
 70
     0
  9
$PEXTMIN
 10
1.000000000000000E+20
 20
1.000000000000000E+20
 30
1.000000000000000E+20
  9
$PEXTMAX
 10
-1.000000000000000E+20
 20
-1.000000000000000E+20
 30
-1.000000000000000E+20
  9
$PLIMMIN
 10
0.0
 20
0.0
  9
$PLIMMAX
 10
420.0
 20
297.0
  9
$UNITMODE
 70
     0
  9
$VISRETAIN
 70
     1
  9
$PLINEGEN
 70
     0
  9
$PSLTSCALE
 70
     1
  9
$TREEDEPTH
 70
  3020
  9
$CMLSTYLE
  2
Standard
  9
$CMLJUST
 70
     0
  9
$CMLSCALE
 40
20.0
  9
$PROXYGRAPHICS
 70
     1
  9
$MEASUREMENT
 70
     1
  9
$CELWEIGHT
370
    -1
  9
$ENDCAPS
280
     0
  9
$JOINSTYLE
280
     0
  9
$LWDISPLAY
290
     1
  9
$INSUNITS
 70
     4
  9
$HYPERLINKBASE
  1

  9
$STYLESHEET
  1
MONOCHROME.CTB
  9
$XEDIT
290
     1
  9
$CEPSNTYPE
380
     0
  9
$PSTYLEMODE
290
     1
  9
$FINGERPRINTGUID
  2
{C11E7A15-92EB-4EA4-8972-997643E844ED}
  9
$VERSIONGUID
  2
{3ADC4012-E9F9-4D18-BF4B-40DBE91B3C88}
  9
$EXTNAMES
290
     1
  9
$PSVPSCALE
 40
0.0
  9
$OLESTARTUP
290
     0
  9
$SORTENTS
280
   127
  9
$INDEXCTL
280
     0
  9
$HIDETEXT
280
     1
  9
$XCLIPFRAME
280
     0
  9
$HALOGAP
280
     0
  9
$OBSCOLOR
 70
   257
  9
$OBSLTYPE
280
     0
  9
$INTERSECTIONDISPLAY
280
     0
  9
$INTERSECTIONCOLOR
 70
   257
  9
$DIMASSOC
280
     2
  9
$PROJECTNAME
  1

  9
$CAMERADISPLAY
290
     0
  9
$LENSLENGTH
 40
50.0
  9
$CAMERAHEIGHT
 40
0.0
  9
$STEPSPERSEC
 40
2.0
  9
$STEPSIZE
 40
6.0
  9
$3DDWFPREC
 40
2.0
  9
$PSOLWIDTH
 40
5.0
  9
$PSOLHEIGHT
 40
80.0
  9
$LOFTANG1
 40
1.5707963268
  9
$LOFTANG2
 40
1.5707963268
  9
$LOFTMAG1
 40
0.0
  9
$LOFTMAG2
 40
0.0
  9
$LOFTPARAM
 70
     7
  9
$LOFTNORMALS
280
     1
  9
$LATITUDE
 40
37.795
  9
$LONGITUDE
 40
-122.394
  9
$NORTHDIRECTION
 40
0.0
  9
$TIMEZONE
 70
 -8000
  9
$LIGHTGLYPHDISPLAY
280
     1
  9
$TILEMODELIGHTSYNCH
280
     1
  9
$CMATERIAL
347
44
  9
$SOLIDHIST
280
     1
  9
$SHOWHIST
280
     1
  9
$DWFFRAME
280
     2
  9
$DGNFRAME
280
     2
  9
$REALWORLDSCALE
290
     1
  9
$INTERFERECOLOR
 62
   256
  9
$INTERFEREOBJVS
345
33
  9
$INTERFEREVPVS
346
314E
  9
$CSHADOW
280
     0
  9
$SHADOWPLANELOCATION
 40
0.0
  0
ENDSEC
  0
SECTION
  2
CLASSES
  0
CLASS
  1
ACDBDICTIONARYWDFLT
  2
AcDbDictionaryWithDefault
  3
ObjectDBX Classes
 90
        0
 91
        1
280
     0
281
     0
  0
CLASS
  1
VISUALSTYLE
  2
AcDbVisualStyle
  3
ObjectDBX Classes
 90
     4095
 91
       26
280
     0
281
     0
  0
CLASS
  1
MATERIAL
  2
AcDbMaterial
  3
ObjectDBX Classes
 90
     1153
 91
        3
280
     0
281
     0
  0
CLASS
  1
SCALE
  2
AcDbScale
  3
ObjectDBX Classes
 90
     1153
 91
       33
280
     0
281
     0
  0
CLASS
  1
SUN
  2
AcDbSun
  3
SCENEOE
 90
     1153
 91
        1
280
     0
281
     0
  0
CLASS
  1
DICTIONARYVAR
  2
AcDbDictionaryVar
  3
ObjectDBX Classes
 90
        0
 91
        7
280
     0
281
     0
  0
CLASS
  1
TABLESTYLE
  2
AcDbTableStyle
  3
ObjectDBX Classes
 90
     4095
 91
        1
280
     0
281
     0
  0
CLASS
  1
MLEADERSTYLE
  2
AcDbMLeaderStyle
  3
ACDB_MLEADERSTYLE_CLASS
 90
     4095
 91
        1
280
     0
281
     0
  0
CLASS
  1
SORTENTSTABLE
  2
AcDbSortentsTable
  3
ObjectDBX Classes
 90
        0
 91
        7
280
     0
281
     0
  0
CLASS
  1
DIMASSOC
  2
AcDbDimAssoc
  3
"AcDbDimAssoc|Product Desc:     AcDim ARX App For Dimension|Company:          Autodesk, Inc.|WEB Address:      www.autodesk.com"
 90
        0
 91
        4
280
     0
281
     0
  0
CLASS
  1
AEC_REFEDIT_STATUS_TRACKER
  2
AecDbRefEditStatusTracker
  3
AecArchBase70|Product Desc: Autodesk Architectural Desktop 2007 |Company: Autodesk,Inc. |WEB Address: www.autodesk.com
 90
      129
 91
        0
280
     0
281
     0
  0
CLASS
  1
NPOCOLLECTION
  2
AcDbImpNonPersistentObjectsCollection
  3
ObjectDBX Classes
 90
     1153
 91
        0
280
     0
281
     0
  0
CLASS
  1
EXACXREFPANELOBJECT
  2
ExAcXREFPanelObject
  3
EXAC_ESW
 90
     1025
 91
        0
280
     0
281
     0
  0
CLASS
  1
CELLSTYLEMAP
  2
AcDbCellStyleMap
  3
ObjectDBX Classes
 90
     1152
 91
        2
280
     0
281
     0
  0
CLASS
  1
ACDBSECTIONVIEWSTYLE
  2
AcDbSectionViewStyle
  3
ObjectDBX Classes
 90
     1025
 91
        1
280
     0
281
     0
  0
CLASS
  1
ACDBDETAILVIEWSTYLE
  2
AcDbDetailViewStyle
  3
ObjectDBX Classes
 90
     1025
 91
        1
280
     0
281
     0
  0
CLASS
  1
ACAD_EVALUATION_GRAPH
  2
AcDbEvalGraph
  3
ObjectDBX Classes
 90
     1153
 91
        1
280
     0
281
     0
  0
CLASS
  1
ACAECUSTOBJ
  2
AcAeEditorObj
  3
AcAeEditorObj
 90
     1024
 91
        1
280
     0
281
     0
  0
ENDSEC
  0
SECTION
  2
TABLES
  0
TABLE
  2
VPORT
  5
8
330
0
100
AcDbSymbolTable
 70
     1
  0
VPORT
  5
29
330
8
100
AcDbSymbolTableRecord
100
AcDbViewportTableRecord
  2
*Active
 70
     0
 10
0.0
 20
0.0
 11
1.0
 21
1.0
 12
315.0000058676459
 22
445.5000082985275
 13
0.0
 23
0.0
 14
10.0
 24
10.0
 15
10.0
 25
10.0
 16
0.0
 26
0.0
 36
1.0
 17
0.0
 27
0.0
 37
0.0
 40
899.1823100387444
 41
2.464339908952958
 42
50.0
 43
0.0
 44
0.0
 50
0.0
 51
0.0
 71
     0
 72
  2000
 73
     1
 74
     3
 75
     0
 76
     0
 77
     0
 78
     0
281
     0
 65
     1
110
0.0
120
0.0
130
0.0
111
1.0
121
0.0
131
0.0
112
0.0
122
1.0
132
0.0
 79
     0
146
0.0
348
2F
 60
     3
 61
     5
292
     1
282
     1
141
0.0
142
0.0
 63
   250
361
69
1001
ACAD_NAV_VCDISPLAY
1070
     3
  0
ENDTAB
  0
TABLE
  2
LTYPE
  5
5
330
0
100
AcDbSymbolTable
 70
    11
  0
LTYPE
  5
14
330
5
100
AcDbSymbolTableRecord
100
AcDbLinetypeTableRecord
  2
ByBlock
 70
     0
  3

 72
    65
 73
     0
 40
0.0
  0
LTYPE
  5
15
330
5
100
AcDbSymbolTableRecord
100
AcDbLinetypeTableRecord
  2
ByLayer
 70
     0
  3

 72
    65
 73
     0
 40
0.0
  0
LTYPE
  5
16
330
5
100
AcDbSymbolTableRecord
100
AcDbLinetypeTableRecord
  2
Continuous
 70
     0
  3
Solid line
 72
    65
 73
     0
 40
0.0
  0
LTYPE
  5
6A
330
5
100
AcDbSymbolTableRecord
100
AcDbLinetypeTableRecord
  2
SLD-実線
 70
     0
  3
SolidWorks Line Style
 72
    65
 73
     0
 40
0.0
  0
LTYPE
  5
6B
330
5
100
AcDbSymbolTableRecord
100
AcDbLinetypeTableRecord
  2
SLD-破線
 70
     0
  3
SolidWorks Line Style
 72
    65
 73
     2
 40
1.905
 49
1.27
 74
     0
 49
-0.635
 74
     0
  0
LTYPE
  5
6C
330
5
100
AcDbSymbolTableRecord
100
AcDbLinetypeTableRecord
  2
SLD-2点鎖線
 70
     0
  3
SolidWorks Line Style
 72
    65
 73
     6
 40
12.7
 49
6.349999999999997
 74
     0
 49
-1.27
 74
     0
 49
1.27
 74
     0
 49
-1.27
 74
     0
 49
1.27
 74
     0
 49
-1.27
 74
     0
  0
LTYPE
  5
6D
330
5
100
AcDbSymbolTableRecord
100
AcDbLinetypeTableRecord
  2
SLD-鎖線
 70
     0
  3
SolidWorks Line Style
 72
    65
 73
     4
 40
10.16
 49
6.349999999999997
 74
     0
 49
-1.27
 74
     0
 49
1.27
 74
     0
 49
-1.27
 74
     0
  0
LTYPE
  5
39A6
330
5
100
AcDbSymbolTableRecord
100
AcDbLinetypeTableRecord
  2
CONTINOUS
 70
     0
  3
Solid line
 72
    65
 73
     0
 40
0.0
  0
LTYPE
  5
39A8
330
5
100
AcDbSymbolTableRecord
100
AcDbLinetypeTableRecord
  2
DASHDOT
 70
     0
  3
__ . __ . __ . __ . __ . __ . __ . __ . __ . __
 72
    65
 73
     4
 40
1.0
 49
0.5
 74
     0
 49
-0.25
 74
     0
 49
0.0
 74
     0
 49
-0.25
 74
     0
  0
LTYPE
  5
39A9
330
5
100
AcDbSymbolTableRecord
100
AcDbLinetypeTableRecord
  2
DIVIDE
 70
     0
  3
Divide ____ . . ____ . . ____ . . ____ . . ____
 72
    65
 73
     6
 40
1.25
 49
0.5
 74
     0
 49
-0.25
 74
     0
 49
0.0
 74
     0
 49
-0.25
 74
     0
 49
0.0
 74
     0
 49
-0.25
 74
     0
  0
LTYPE
  5
73A0
330
5
100
AcDbSymbolTableRecord
100
AcDbLinetypeTableRecord
  2
HIDDEN
 70
     0
  3
Hidden __ __ __ __ __ __ __ __ __ __ __ __ __ __
 72
    65
 73
     2
 40
9.524999999999996
 49
6.349999999999997
 74
     0
 49
-3.174999999999998
 74
     0
  0
LTYPE
  5
77D0
330
5
100
AcDbSymbolTableRecord
100
AcDbLinetypeTableRecord
  2
PHANTOM
 70
     0
  3
Phantom ______  __  __  ______  __  __  ______
 72
    65
 73
     6
 40
2.5
 49
1.25
 74
     0
 49
-0.25
 74
     0
 49
0.25
 74
     0
 49
-0.25
 74
     0
 49
0.25
 74
     0
 49
-0.25
 74
     0
  0
LTYPE
  5
8844
330
5
100
AcDbSymbolTableRecord
100
AcDbLinetypeTableRecord
  2
HIDDEN2
 70
     0
  3
Hidden (.5x) _ _ _ _ _ _ _ _ _ _ _ _ _ _ _ _ _
 72
    65
 73
     2
 40
4.762499999999999
 49
3.174999999999999
 74
     0
 49
-1.587499999999999
 74
     0
  0
ENDTAB
  0
TABLE
  2
LAYER
  5
2
102
{ACAD_XDICTIONARY
360
52E1
102
}
330
0
100
AcDbSymbolTable
 70
    15
  0
LAYER
  5
10
102
{ACAD_XDICTIONARY
360
3158
102
}
330
2
100
AcDbSymbolTableRecord
100
AcDbLayerTableRecord
  2
0
 70
     0
 62
     7
  6
Continuous
370
    -3
390
F
347
46
348
0
  0
LAYER
  5
72
102
{ACAD_XDICTIONARY
360
315C
102
}
330
2
100
AcDbSymbolTableRecord
100
AcDbLayerTableRecord
  2
240
 70
     0
 62
     7
  6
SLD-実線
370
    -3
390
F
347
46
348
0
  0
LAYER
  5
316A
330
2
100
AcDbSymbolTableRecord
100
AcDbLayerTableRecord
  2
Defpoints
 70
     0
 62
     7
  6
Continuous
290
     0
370
    -3
390
F
347
46
348
0
  0
LAYER
  5
39AA
102
{ACAD_XDICTIONARY
360
39AB
102
}
330
2
100
AcDbSymbolTableRecord
100
AcDbLayerTableRecord
  2
10
 70
     0
 62
     4
  6
CONTINOUS
370
    -3
390
F
347
46
348
0
  0
LAYER
  5
39AE
102
{ACAD_XDICTIONARY
360
39AF
102
}
330
2
100
AcDbSymbolTableRecord
100
AcDbLayerTableRecord
  2
16
 70
     0
 62
     6
  6
DASHDOT
370
    -3
390
F
347
46
348
0
  0
LAYER
  5
39B0
102
{ACAD_XDICTIONARY
360
39B1
102
}
330
2
100
AcDbSymbolTableRecord
100
AcDbLayerTableRecord
  2
11
 70
     0
 62
     1
  6
CONTINOUS
370
    -3
390
F
347
46
348
0
  0
LAYER
  5
39B2
102
{ACAD_XDICTIONARY
360
39B3
102
}
330
2
100
AcDbSymbolTableRecord
100
AcDbLayerTableRecord
  2
24
 70
     0
 62
     7
  6
CONTINOUS
370
    -3
390
F
347
46
348
0
  0
LAYER
  5
39B4
102
{ACAD_XDICTIONARY
360
39B5
102
}
330
2
100
AcDbSymbolTableRecord
100
AcDbLayerTableRecord
  2
30
 70
     0
 62
     9
  6
Continuous
370
    -3
390
F
347
46
348
0
  0
LAYER
  5
39B6
102
{ACAD_XDICTIONARY
360
39B7
102
}
330
2
100
AcDbSymbolTableRecord
100
AcDbLayerTableRecord
  2
18
 70
     0
 62
     5
  6
DIVIDE
370
    -3
390
F
347
46
348
0
  0
LAYER
  5
71C4
102
{ACAD_XDICTIONARY
360
71C5
102
}
330
2
100
AcDbSymbolTableRecord
100
AcDbLayerTableRecord
  2
17
 70
     0
 62
     2
  6
DASHDOT
370
    -3
390
F
347
46
348
0
  0
LAYER
  5
760C
102
{ACAD_XDICTIONARY
360
760D
102
}
330
2
100
AcDbSymbolTableRecord
100
AcDbLayerTableRecord
  2
130
 70
     0
 62
     4
  6
CONTINOUS
370
    -3
390
F
347
46
348
0
  0
LAYER
  5
77D1
102
{ACAD_XDICTIONARY
360
77D2
102
}
330
2
100
AcDbSymbolTableRecord
100
AcDbLayerTableRecord
  2
131
 70
     0
 62
     4
  6
PHANTOM
370
    -3
390
F
347
46
348
0
  0
LAYER
  5
7D89
102
{ACAD_XDICTIONARY
360
7D8A
102
}
330
2
100
AcDbSymbolTableRecord
100
AcDbLayerTableRecord
  2
13
 70
     0
 62
     3
  6
Continuous
370
    -3
390
F
347
46
348
0
  0
LAYER
  5
8840
330
2
100
AcDbSymbolTableRecord
100
AcDbLayerTableRecord
  2
19
 70
     0
 62
     7
  6
Continuous
370
    -3
390
F
347
46
348
0
1001
AcAecLayerStandard
1000

1000

1001
AcCmTransparency
1071
        0
  0
LAYER
  5
8843
330
2
100
AcDbSymbolTableRecord
100
AcDbLayerTableRecord
  2
12
 70
     0
 62
     3
  6
CONTINOUS
370
    -3
390
F
347
46
348
0
1001
AcAecLayerStandard
1000

1000

1001
AcCmTransparency
1071
        0
  0
ENDTAB
  0
TABLE
  2
STYLE
  5
3
330
0
100
AcDbSymbolTable
 70
     3
  0
STYLE
  5
11
330
3
100
AcDbSymbolTableRecord
100
AcDbTextStyleTableRecord
  2
STANDARD
 70
     0
 40
0.0
 41
1.0
 50
0.0
 71
     0
 42
3.0
  3
MS UI Gothic.ttf
  4

1001
ACAD
1000
MS UI Gothic
1071
    32818
  0
STYLE
  5
39BA
330
3
100
AcDbSymbolTableRecord
100
AcDbTextStyleTableRecord
  2
STANDARD1
 70
     0
 40
0.0
 41
1.0
 50
0.0
 71
     0
 42
5.0
  3
MONOTXT
  4
BIGFONT
  0
STYLE
  5
739F
330
3
100
AcDbSymbolTableRecord
100
AcDbTextStyleTableRecord
  2

 70
     1
 40
0.0
 41
1.0
 50
0.0
 71
     0
 42
3.0
  3
ltypeshp.shx
  4

  0
ENDTAB
  0
TABLE
  2
VIEW
  5
6
330
0
100
AcDbSymbolTable
 70
     0
  0
ENDTAB
  0
TABLE
  2
UCS
  5
7
330
0
100
AcDbSymbolTable
 70
     0
  0
ENDTAB
  0
TABLE
  2
APPID
  5
9
330
0
100
AcDbSymbolTable
 70
    12
  0
APPID
  5
12
330
9
100
AcDbSymbolTableRecord
100
AcDbRegAppTableRecord
  2
ACAD
 70
     0
  0
APPID
  5
43A1
330
9
100
AcDbSymbolTableRecord
100
AcDbRegAppTableRecord
  2
ACAD_EXEMPT_FROM_CAD_STANDARDS
 70
     0
  0
APPID
  5
710E
330
9
100
AcDbSymbolTableRecord
100
AcDbRegAppTableRecord
  2
ACAD_NAV_VCDISPLAY
 70
     0
  0
APPID
  5
714F
330
9
100
AcDbSymbolTableRecord
100
AcDbRegAppTableRecord
  2
ACAD_DSTYLE_DIMJAG
 70
     0
  0
APPID
  5
7150
330
9
100
AcDbSymbolTableRecord
100
AcDbRegAppTableRecord
  2
ACAD_DSTYLE_DIMTALN
 70
     0
  0
APPID
  5
73E6
330
9
100
AcDbSymbolTableRecord
100
AcDbRegAppTableRecord
  2
ACAD_DSTYLE_DIMRADIAL_EXTENSION
 70
     0
  0
APPID
  5
760F
330
9
100
AcDbSymbolTableRecord
100
AcDbRegAppTableRecord
  2
ACAD_PSEXT
 70
     0
  0
APPID
  5
7A1F
330
9
100
AcDbSymbolTableRecord
100
AcDbRegAppTableRecord
  2
AcadAnnoPO
 70
     0
  0
APPID
  5
80A6
330
9
100
AcDbSymbolTableRecord
100
AcDbRegAppTableRecord
  2
ACAD_DSTYLE_DIMBREAK
 70
     0
  0
APPID
  5
8841
330
9
100
AcDbSymbolTableRecord
100
AcDbRegAppTableRecord
  2
AcAecLayerStandard
 70
     0
  0
APPID
  5
8842
330
9
100
AcDbSymbolTableRecord
100
AcDbRegAppTableRecord
  2
AcCmTransparency
 70
     0
  0
APPID
  5
886F
330
9
100
AcDbSymbolTableRecord
100
AcDbRegAppTableRecord
  2
ACAUTHENVIRON
 70
     0
  0
ENDTAB
  0
TABLE
  2
DIMSTYLE
  5
A
330
0
100
AcDbSymbolTable
 70
     3
100
AcDbDimStyleTable
 71
     3
340
39BC
340
760E
340
7188
  0
DIMSTYLE
105
39BC
102
{ACAD_REACTORS
330
73A1
330
4AF2
330
5FBE
330
5FB2
330
5FB4
330
7470
330
54C2
330
66BB
330
7488
330
5FBA
330
845E
330
8471
330
8472
330
8483
330
8484
330
8485
330
8488
330
8470
102
}
330
A
100
AcDbSymbolTableRecord
100
AcDbDimStyleTableRecord
  2
STANDARD
 70
     0
 41
2.0
 42
1.0
 43
0.5
 44
1.0
 69
     1
 73
     0
 74
     0
 77
     3
 78
    12
140
8.0
147
2.0
271
     1
272
     1
340
11
341
380B
342
380B
1001
ACAD_DSTYLE_DIMJAG
1070
   388
1040
1.5
1001
ACAD_DSTYLE_DIMTALN
1070
   392
1070
     0
  0
DIMSTYLE
105
7188
330
A
100
AcDbSymbolTableRecord
100
AcDbDimStyleTableRecord
  2
ISO-25
 70
     0
 41
2.5
 42
0.625
 43
3.75
 44
1.25
 73
     0
 74
     0
 77
     1
 78
     8
140
2.5
141
2.5
143
0.0393700787
147
0.625
171
     3
172
     1
271
     2
272
     2
274
     3
283
     0
284
     8
340
11
1001
ACAD_DSTYLE_DIMJAG
1070
   388
1040
1.5
1001
ACAD_DSTYLE_DIMTALN
1070
   392
1070
     0
  0
DIMSTYLE
105
760E
102
{ACAD_REACTORS
330
73E7
102
}
330
A
100
AcDbSymbolTableRecord
100
AcDbDimStyleTableRecord
  2
STANDARD1
 70
     0
 41
2.0
 42
3.0
 43
0.5
 44
0.5
 77
     3
 78
    12
140
7.0
147
2.0
172
     1
271
     1
272
     1
289
     2
340
11
341
380B
342
380B
1001
ACAD_DSTYLE_DIMJAG
1070
   388
1040
1.5
1001
ACAD_DSTYLE_DIMTALN
1070
   392
1070
     0
  0
ENDTAB
  0
TABLE
  2
BLOCK_RECORD
  5
1
330
0
100
AcDbSymbolTable
 70
    41
  0
BLOCK_RECORD
  5
1F
102
{ACAD_XDICTIONARY
360
52DB
102
}
330
1
100
AcDbSymbolTableRecord
100
AcDbBlockTableRecord
  2
*Model_Space
340
22
 70
     0
280
     1
281
     0
  0
BLOCK_RECORD
  5
1B
330
1
100
AcDbSymbolTableRecord
100
AcDbBlockTableRecord
  2
*Paper_Space
340
1E
 70
     0
280
     1
281
     0
  0
BLOCK_RECORD
  5
23
330
1
100
AcDbSymbolTableRecord
100
AcDbBlockTableRecord
  2
*Paper_Space0
340
26
 70
     0
280
     1
281
     0
  0
BLOCK_RECORD
  5
5CA
330
1
100
AcDbSymbolTableRecord
100
AcDbBlockTableRecord
  2
SW_CENTERMARKSYMBOL_12
340
0
102
{BLKREFS
331
4AF3
102
}
 70
     0
280
     1
281
     0
  0
BLOCK_RECORD
  5
5D6
330
1
100
AcDbSymbolTableRecord
100
AcDbBlockTableRecord
  2
SW_CENTERMARKSYMBOL_13
340
0
102
{BLKREFS
331
4AF4
102
}
 70
     0
280
     1
281
     0
  0
BLOCK_RECORD
  5
5E2
330
1
100
AcDbSymbolTableRecord
100
AcDbBlockTableRecord
  2
SW_CENTERMARKSYMBOL_14
340
0
102
{BLKREFS
331
4AF5
102
}
 70
     0
280
     1
281
     0
  0
BLOCK_RECORD
  5
5EE
330
1
100
AcDbSymbolTableRecord
100
AcDbBlockTableRecord
  2
SW_CENTERMARKSYMBOL_15
340
0
102
{BLKREFS
331
4AF6
102
}
 70
     0
280
     1
281
     0
  0
BLOCK_RECORD
  5
E76
330
1
100
AcDbSymbolTableRecord
100
AcDbBlockTableRecord
  2
SW_CENTERMARKSYMBOL_20
340
0
102
{BLKREFS
331
65DA
102
}
 70
     0
280
     1
281
     0
  0
BLOCK_RECORD
  5
E82
330
1
100
AcDbSymbolTableRecord
100
AcDbBlockTableRecord
  2
SW_CENTERMARKSYMBOL_21
340
0
102
{BLKREFS
331
65DB
102
}
 70
     0
280
     1
281
     0
  0
BLOCK_RECORD
  5
E8E
330
1
100
AcDbSymbolTableRecord
100
AcDbBlockTableRecord
  2
SW_CENTERMARKSYMBOL_22
340
0
102
{BLKREFS
331
65DC
102
}
 70
     0
280
     1
281
     0
  0
BLOCK_RECORD
  5
E9A
330
1
100
AcDbSymbolTableRecord
100
AcDbBlockTableRecord
  2
SW_CENTERMARKSYMBOL_23
340
0
102
{BLKREFS
331
65DD
102
}
 70
     0
280
     1
281
     0
  0
BLOCK_RECORD
  5
1E31
330
1
100
AcDbSymbolTableRecord
100
AcDbBlockTableRecord
  2
SW_CENTERMARKSYMBOL_34
340
0
 70
     0
280
     1
281
     0
  0
BLOCK_RECORD
  5
1E3D
330
1
100
AcDbSymbolTableRecord
100
AcDbBlockTableRecord
  2
SW_CENTERMARKSYMBOL_35
340
0
 70
     0
280
     1
281
     0
  0
BLOCK_RECORD
  5
1E49
330
1
100
AcDbSymbolTableRecord
100
AcDbBlockTableRecord
  2
SW_CENTERMARKSYMBOL_36
340
0
 70
     0
280
     1
281
     0
  0
BLOCK_RECORD
  5
1E55
330
1
100
AcDbSymbolTableRecord
100
AcDbBlockTableRecord
  2
SW_CENTERMARKSYMBOL_37
340
0
 70
     0
280
     1
281
     0
  0
BLOCK_RECORD
  5
380B
330
1
100
AcDbSymbolTableRecord
100
AcDbBlockTableRecord
  2
_OPEN
340
0
102
{BLKREFS
331
86A4
331
86A5
331
86AD
331
86AE
331
86E4
331
86E5
331
8738
331
8739
331
8692
331
8693
331
87FF
331
8800
331
86B6
331
86B7
331
86D1
331
86D2
331
86DA
331
86DB
331
8711
331
8712
331
8742
331
8743
331
871B
331
871C
331
8788
331
8789
331
8792
331
8793
331
87AA
331
87AB
331
87B3
331
87B4
331
87BC
331
87BD
331
8309
331
830A
331
86ED
331
86EE
102
}
 70
     0
280
     1
281
     0
  0
BLOCK_RECORD
  5
4B12
330
1
100
AcDbSymbolTableRecord
100
AcDbBlockTableRecord
  2
*D14
340
0
 70
     0
280
     1
281
     0
  0
BLOCK_RECORD
  5
54D3
330
1
100
AcDbSymbolTableRecord
100
AcDbBlockTableRecord
  2
*D15
340
0
 70
     0
280
     1
281
     0
  0
BLOCK_RECORD
  5
5FD0
330
1
100
AcDbSymbolTableRecord
100
AcDbBlockTableRecord
  2
*D16
340
0
 70
     0
280
     1
281
     0
  0
BLOCK_RECORD
  5
5FE8
330
1
100
AcDbSymbolTableRecord
100
AcDbBlockTableRecord
  2
*D17
340
0
 70
     0
280
     1
281
     0
  0
BLOCK_RECORD
  5
6030
330
1
100
AcDbSymbolTableRecord
100
AcDbBlockTableRecord
  2
*D18
340
0
 70
     0
280
     1
281
     0
  0
BLOCK_RECORD
  5
6066
330
1
100
AcDbSymbolTableRecord
100
AcDbBlockTableRecord
  2
*D19
340
0
 70
     0
280
     1
281
     0
  0
BLOCK_RECORD
  5
6318
330
1
100
AcDbSymbolTableRecord
100
AcDbBlockTableRecord
  2
READTB
340
0
310
2800000020000000200000000100080000000000000400000000000000000000000000000000000000000000000080000080000000808000800000008000800080800000C0C0C000C0DCC000F0CAA6000020400000206000002080000020A0000020C0000020E00000400000004020000040400000406000004080000040A0
310
000040C0000040E00000600000006020000060400000606000006080000060A0000060C0000060E00000800000008020000080400000806000008080000080A0000080C0000080E00000A0000000A0200000A0400000A0600000A0800000A0A00000A0C00000A0E00000C0000000C0200000C0400000C0600000C0800000C0
310
A00000C0C00000C0E00000E0000000E0200000E0400000E0600000E0800000E0A00000E0C00000E0E00040000000400020004000400040006000400080004000A0004000C0004000E00040200000402020004020400040206000402080004020A0004020C0004020E000404000004040200040404000404060004040800040
310
40A0004040C0004040E00040600000406020004060400040606000406080004060A0004060C0004060E00040800000408020004080400040806000408080004080A0004080C0004080E00040A0000040A0200040A0400040A0600040A0800040A0A00040A0C00040A0E00040C0000040C0200040C0400040C0600040C08000
310
40C0A00040C0C00040C0E00040E0000040E0200040E0400040E0600040E0800040E0A00040E0C00040E0E00080000000800020008000400080006000800080008000A0008000C0008000E00080200000802020008020400080206000802080008020A0008020C0008020E00080400000804020008040400080406000804080
310
008040A0008040C0008040E00080600000806020008060400080606000806080008060A0008060C0008060E00080800000808020008080400080806000808080008080A0008080C0008080E00080A0000080A0200080A0400080A0600080A0800080A0A00080A0C00080A0E00080C0000080C0200080C0400080C0600080C0
310
800080C0A00080C0C00080C0E00080E0000080E0200080E0400080E0600080E0800080E0A00080E0C00080E0E000C0000000C0002000C0004000C0006000C0008000C000A000C000C000C000E000C0200000C0202000C0204000C0206000C0208000C020A000C020C000C020E000C0400000C0402000C0404000C0406000C0
310
408000C040A000C040C000C040E000C0600000C0602000C0604000C0606000C0608000C060A000C060C000C060E000C0800000C0802000C0804000C0806000C0808000C080A000C080C000C080E000C0A00000C0A02000C0A04000C0A06000C0A08000C0A0A000C0A0C000C0A0E000C0C00000C0C02000C0C04000C0C06000
310
C0C08000C0C0A000F0FBFF00A4A0A000808080000000FF0000FF000000FFFF00FF000000FF00FF00FFFF0000FFFFFF0000000000000000000000000000000000000000000000000000000000000000000000000000000000000000FEFEFEFEFEFEFEFEFE0000000000000000000000000000000000000000000000FEFEFEFE
310
FEFEFEFEFEFE00000000000000000000000000000000000000000000FEFEFEFEFEFBFBFEFEFE0000000000000000000000000000000000000000000000000000FEFBFB00FE000000000000000000000000000000000000000000000000000000FEFBFB00FE0000000000000000000000000000000000000000000000000000
310
00FEFBFB00FE0000000000000000000000000000000000000000000000FEFEFEFEFEFBFE00FE000000000000000000000000000000000000000000000000000000FEFBFB00FE000000000000000000000000000000000000000000000000000000FEFBFB00FE00000000000000000000000000000000000000000000000000
310
0000FEFBFB00FE0000000000000000000000000000000000000000000000FEFEFEFEFEFEFE00FE000000000000000000000000000000000000000000000000000000FEFBFB00FE000000000000000000000000000000000000000000000000000000FEFBFB00FE000000000000000000000000000000000000000000000000
310
000000FEFBFB00FE000000000000000000000000000000000000000000000000000000FEFBFE00FE0000000000000000000000000000000000000000000000FEFEFEFEFEFBFB00FE000000000000000000000000000000000000000000000000000000FEFBFB00FE0000000000000000000000000000000000000000000000
310
00000000FEFBFB00FE000000000000000000000000000000000000000000000000000000FEFBFB00FE0000000000000000000000000000000000000000000000FEFEFEFEFEFBFE00FE000000000000000000000000000000000000000000000000000000FEFBFB00FE00000000000000000000000000000000000000000000
310
0000000000FEFBFB00FE000000000000000000000000000000000000000000000000000000FEFBFB00FE0000000000000000000000000000000000000000000000FEFEFEFEFEFEFE00A4000000000000000000000000000000000000000000000000000000FEFBFB00FE000000000000000000000000000000000000000000
310
000000000000FEFBFB00FE000000000000000000000000000000000000000000000000000000FEFBFB00FE000000000000000000000000000000000000000000000000000000FEFBFBFEA4FE00000000000000000000000000000000000000000000FEFEFEFEFEFEFEFEFEFE00000000000000000000000000000000000000
310
00000000FB000000000000000000000000000000000000000000000000000000000000000000000000000000000000000000000000000000
 70
     4
280
     1
281
     0
  0
BLOCK_RECORD
  5
66D4
330
1
100
AcDbSymbolTableRecord
100
AcDbBlockTableRecord
  2
*D21
340
0
 70
     0
280
     1
281
     0
  0
BLOCK_RECORD
  5
7151
102
{ACAD_XDICTIONARY
360
7153
102
}
330
1
100
AcDbSymbolTableRecord
100
AcDbBlockTableRecord
  2
A$C18C025DC
340
0
 70
     4
280
     1
281
     0
  0
BLOCK_RECORD
  5
71C6
102
{ACAD_XDICTIONARY
360
71CA
102
}
330
1
100
AcDbSymbolTableRecord
100
AcDbBlockTableRecord
  2
A$C7ADD71F4
340
0
 70
     4
280
     1
281
     0
  0
BLOCK_RECORD
  5
73A2
330
1
100
AcDbSymbolTableRecord
100
AcDbBlockTableRecord
  2
*D24
340
0
 70
     0
280
     1
281
     0
  0
BLOCK_RECORD
  5
73E8
330
1
100
AcDbSymbolTableRecord
100
AcDbBlockTableRecord
  2
*D25
340
0
 70
     0
280
     1
281
     0
  0
BLOCK_RECORD
  5
73FD
102
{ACAD_XDICTIONARY
360
73FF
102
}
330
1
100
AcDbSymbolTableRecord
100
AcDbBlockTableRecord
  2
A$C309218B0
340
0
 70
     4
280
     1
281
     0
  0
BLOCK_RECORD
  5
7471
330
1
100
AcDbSymbolTableRecord
100
AcDbBlockTableRecord
  2
*D27
340
0
 70
     0
280
     1
281
     0
  0
BLOCK_RECORD
  5
7489
330
1
100
AcDbSymbolTableRecord
100
AcDbBlockTableRecord
  2
*D28
340
0
 70
     0
280
     1
281
     0
  0
BLOCK_RECORD
  5
7D7E
330
1
100
AcDbSymbolTableRecord
100
AcDbBlockTableRecord
  2
SW_CENTERMARKSYMBOL_6
340
0
 70
     0
280
     1
281
     0
  0
BLOCK_RECORD
  5
814A
102
{ACAD_XDICTIONARY
360
8170
102
}
330
1
100
AcDbSymbolTableRecord
100
AcDbBlockTableRecord
  2
A$C23077EED
340
0
102
{BLKREFS
331
8489
331
848A
102
}
 70
     4
280
     1
281
     0
  0
BLOCK_RECORD
  5
81BC
102
{ACAD_XDICTIONARY
360
81BD
102
}
330
1
100
AcDbSymbolTableRecord
100
AcDbBlockTableRecord
  2
A$C37787D9A
340
0
102
{BLKREFS
331
81E0
102
}
 70
     4
280
     1
281
     0
  0
BLOCK_RECORD
  5
848E
330
1
100
AcDbSymbolTableRecord
100
AcDbBlockTableRecord
  2
*D32
340
0
 70
     0
280
     1
281
     0
  0
BLOCK_RECORD
  5
849A
330
1
100
AcDbSymbolTableRecord
100
AcDbBlockTableRecord
  2
*D33
340
0
 70
     0
280
     1
281
     0
  0
BLOCK_RECORD
  5
84A8
330
1
100
AcDbSymbolTableRecord
100
AcDbBlockTableRecord
  2
*D34
340
0
 70
     0
280
     1
281
     0
  0
BLOCK_RECORD
  5
84B5
330
1
100
AcDbSymbolTableRecord
100
AcDbBlockTableRecord
  2
*D35
340
0
 70
     0
280
     1
281
     0
  0
BLOCK_RECORD
  5
84C2
330
1
100
AcDbSymbolTableRecord
100
AcDbBlockTableRecord
  2
*D36
340
0
 70
     0
280
     1
281
     0
  0
BLOCK_RECORD
  5
84CE
330
1
100
AcDbSymbolTableRecord
100
AcDbBlockTableRecord
  2
*D37
340
0
 70
     0
280
     1
281
     0
  0
BLOCK_RECORD
  5
84DA
330
1
100
AcDbSymbolTableRecord
100
AcDbBlockTableRecord
  2
*D38
340
0
 70
     0
280
     1
281
     0
  0
BLOCK_RECORD
  5
8520
330
1
100
AcDbSymbolTableRecord
100
AcDbBlockTableRecord
  2
*D39
340
0
 70
     0
280
     1
281
     0
  0
ENDTAB
  0
ENDSEC
  0
SECTION
  2
BLOCKS
  0
BLOCK
  5
20
330
1F
100
AcDbEntity
  8
0
100
AcDbBlockBegin
  2
*Model_Space
 70
     0
 10
0.0
 20
0.0
 30
0.0
  3
*Model_Space
  1
*Model_Space
  0
ENDBLK
  5
21
330
1F
100
AcDbEntity
  8
0
100
AcDbBlockEnd
  0
BLOCK
  5
1C
330
1B
100
AcDbEntity
 67
     1
  8
0
100
AcDbBlockBegin
  2
*Paper_Space
 70
     0
 10
0.0
 20
0.0
 30
0.0
  3
*Paper_Space
  1
*Paper_Space
  0
ENDBLK
  5
1D
330
1B
100
AcDbEntity
 67
     1
  8
0
100
AcDbBlockEnd
  0
BLOCK
  5
24
330
23
100
AcDbEntity
 67
     1
  8
0
100
AcDbBlockBegin
  2
*Paper_Space0
 70
     0
 10
0.0
 20
0.0
 30
0.0
  3
*Paper_Space0
  1
*Paper_Space0
  0
ENDBLK
  5
25
330
23
100
AcDbEntity
 67
     1
  8
0
100
AcDbBlockEnd
  0
BLOCK
  5
5CB
330
5CA
100
AcDbEntity
  8
0
100
AcDbBlockBegin
  2
SW_CENTERMARKSYMBOL_12
 70
     0
 10
0.0
 20
0.0
 30
0.0
  3
SW_CENTERMARKSYMBOL_12
  1
SW_CENTERMARKSYMBOL_12
  0
LINE
  5
5CD
330
5CA
100
AcDbEntity
  8
240
 62
     0
100
AcDbLine
 10
0.0
 20
0.0
 30
0.0
 11
0.0
 21
0.625
 31
0.0
  0
LINE
  5
5CE
330
5CA
100
AcDbEntity
  8
240
 62
     0
100
AcDbLine
 10
0.0
 20
0.0
 30
0.0
 11
-0.625
 21
0.0
 31
0.0
  0
LINE
  5
5CF
330
5CA
100
AcDbEntity
  8
240
 62
     0
100
AcDbLine
 10
0.0
 20
0.0
 30
0.0
 11
0.0
 21
-0.625
 31
0.0
  0
LINE
  5
5D0
330
5CA
100
AcDbEntity
  8
240
 62
     0
100
AcDbLine
 10
0.0
 20
0.0
 30
0.0
 11
0.625
 21
0.0
 31
0.0
  0
LINE
  5
5D1
330
5CA
100
AcDbEntity
  8
240
 62
     0
100
AcDbLine
 10
0.0
 20
0.625
 30
0.0
 11
0.0
 21
1.25
 31
0.0
  0
LINE
  5
5D2
330
5CA
100
AcDbEntity
  8
240
 62
     0
100
AcDbLine
 10
-0.625
 20
0.0
 30
0.0
 11
-1.25
 21
0.0
 31
0.0
  0
LINE
  5
5D3
330
5CA
100
AcDbEntity
  8
240
 62
     0
100
AcDbLine
 10
0.0
 20
-0.625
 30
0.0
 11
0.0
 21
-1.25
 31
0.0
  0
LINE
  5
5D4
330
5CA
100
AcDbEntity
  8
240
 62
     0
100
AcDbLine
 10
0.625
 20
0.0
 30
0.0
 11
1.25
 21
0.0
 31
0.0
  0
ENDBLK
  5
5CC
330
5CA
100
AcDbEntity
  8
0
100
AcDbBlockEnd
  0
BLOCK
  5
5D7
330
5D6
100
AcDbEntity
  8
0
100
AcDbBlockBegin
  2
SW_CENTERMARKSYMBOL_13
 70
     0
 10
0.0
 20
0.0
 30
0.0
  3
SW_CENTERMARKSYMBOL_13
  1
SW_CENTERMARKSYMBOL_13
  0
LINE
  5
5D9
330
5D6
100
AcDbEntity
  8
240
 62
     0
100
AcDbLine
 10
0.0
 20
0.0
 30
0.0
 11
0.0
 21
0.625
 31
0.0
  0
LINE
  5
5DA
330
5D6
100
AcDbEntity
  8
240
 62
     0
100
AcDbLine
 10
0.0
 20
0.0
 30
0.0
 11
-0.625
 21
0.0
 31
0.0
  0
LINE
  5
5DB
330
5D6
100
AcDbEntity
  8
240
 62
     0
100
AcDbLine
 10
0.0
 20
0.0
 30
0.0
 11
0.0
 21
-0.625
 31
0.0
  0
LINE
  5
5DC
330
5D6
100
AcDbEntity
  8
240
 62
     0
100
AcDbLine
 10
0.0
 20
0.0
 30
0.0
 11
0.625
 21
0.0
 31
0.0
  0
LINE
  5
5DD
330
5D6
100
AcDbEntity
  8
240
 62
     0
100
AcDbLine
 10
0.0
 20
0.625
 30
0.0
 11
0.0
 21
1.25
 31
0.0
  0
LINE
  5
5DE
330
5D6
100
AcDbEntity
  8
240
 62
     0
100
AcDbLine
 10
-0.625
 20
0.0
 30
0.0
 11
-1.25
 21
0.0
 31
0.0
  0
LINE
  5
5DF
330
5D6
100
AcDbEntity
  8
240
 62
     0
100
AcDbLine
 10
0.0
 20
-0.625
 30
0.0
 11
0.0
 21
-1.25
 31
0.0
  0
LINE
  5
5E0
330
5D6
100
AcDbEntity
  8
240
 62
     0
100
AcDbLine
 10
0.625
 20
0.0
 30
0.0
 11
1.25
 21
0.0
 31
0.0
  0
ENDBLK
  5
5D8
330
5D6
100
AcDbEntity
  8
0
100
AcDbBlockEnd
  0
BLOCK
  5
5E3
330
5E2
100
AcDbEntity
  8
0
100
AcDbBlockBegin
  2
SW_CENTERMARKSYMBOL_14
 70
     0
 10
0.0
 20
0.0
 30
0.0
  3
SW_CENTERMARKSYMBOL_14
  1
SW_CENTERMARKSYMBOL_14
  0
LINE
  5
5E5
330
5E2
100
AcDbEntity
  8
240
 62
     0
100
AcDbLine
 10
0.0
 20
0.0
 30
0.0
 11
0.0
 21
0.625
 31
0.0
  0
LINE
  5
5E6
330
5E2
100
AcDbEntity
  8
240
 62
     0
100
AcDbLine
 10
0.0
 20
0.0
 30
0.0
 11
-0.625
 21
0.0
 31
0.0
  0
LINE
  5
5E7
330
5E2
100
AcDbEntity
  8
240
 62
     0
100
AcDbLine
 10
0.0
 20
0.0
 30
0.0
 11
0.0
 21
-0.625
 31
0.0
  0
LINE
  5
5E8
330
5E2
100
AcDbEntity
  8
240
 62
     0
100
AcDbLine
 10
0.0
 20
0.0
 30
0.0
 11
0.625
 21
0.0
 31
0.0
  0
LINE
  5
5E9
330
5E2
100
AcDbEntity
  8
240
 62
     0
100
AcDbLine
 10
0.0
 20
0.625
 30
0.0
 11
0.0
 21
1.25
 31
0.0
  0
LINE
  5
5EA
330
5E2
100
AcDbEntity
  8
240
 62
     0
100
AcDbLine
 10
-0.625
 20
0.0
 30
0.0
 11
-1.25
 21
0.0
 31
0.0
  0
LINE
  5
5EB
330
5E2
100
AcDbEntity
  8
240
 62
     0
100
AcDbLine
 10
0.0
 20
-0.625
 30
0.0
 11
0.0
 21
-1.25
 31
0.0
  0
LINE
  5
5EC
330
5E2
100
AcDbEntity
  8
240
 62
     0
100
AcDbLine
 10
0.625
 20
0.0
 30
0.0
 11
1.25
 21
0.0
 31
0.0
  0
ENDBLK
  5
5E4
330
5E2
100
AcDbEntity
  8
0
100
AcDbBlockEnd
  0
BLOCK
  5
5EF
330
5EE
100
AcDbEntity
  8
0
100
AcDbBlockBegin
  2
SW_CENTERMARKSYMBOL_15
 70
     0
 10
0.0
 20
0.0
 30
0.0
  3
SW_CENTERMARKSYMBOL_15
  1
SW_CENTERMARKSYMBOL_15
  0
LINE
  5
5F1
330
5EE
100
AcDbEntity
  8
240
 62
     0
100
AcDbLine
 10
0.0
 20
0.0
 30
0.0
 11
0.0
 21
0.625
 31
0.0
  0
LINE
  5
5F2
330
5EE
100
AcDbEntity
  8
240
 62
     0
100
AcDbLine
 10
0.0
 20
0.0
 30
0.0
 11
-0.625
 21
0.0
 31
0.0
  0
LINE
  5
5F3
330
5EE
100
AcDbEntity
  8
240
 62
     0
100
AcDbLine
 10
0.0
 20
0.0
 30
0.0
 11
0.0
 21
-0.625
 31
0.0
  0
LINE
  5
5F4
330
5EE
100
AcDbEntity
  8
240
 62
     0
100
AcDbLine
 10
0.0
 20
0.0
 30
0.0
 11
0.625
 21
0.0
 31
0.0
  0
LINE
  5
5F5
330
5EE
100
AcDbEntity
  8
240
 62
     0
100
AcDbLine
 10
0.0
 20
0.625
 30
0.0
 11
0.0
 21
1.25
 31
0.0
  0
LINE
  5
5F6
330
5EE
100
AcDbEntity
  8
240
 62
     0
100
AcDbLine
 10
-0.625
 20
0.0
 30
0.0
 11
-1.25
 21
0.0
 31
0.0
  0
LINE
  5
5F7
330
5EE
100
AcDbEntity
  8
240
 62
     0
100
AcDbLine
 10
0.0
 20
-0.625
 30
0.0
 11
0.0
 21
-1.25
 31
0.0
  0
LINE
  5
5F8
330
5EE
100
AcDbEntity
  8
240
 62
     0
100
AcDbLine
 10
0.625
 20
0.0
 30
0.0
 11
1.25
 21
0.0
 31
0.0
  0
ENDBLK
  5
5F0
330
5EE
100
AcDbEntity
  8
0
100
AcDbBlockEnd
  0
BLOCK
  5
E77
330
E76
100
AcDbEntity
  8
0
100
AcDbBlockBegin
  2
SW_CENTERMARKSYMBOL_20
 70
     0
 10
0.0
 20
0.0
 30
0.0
  3
SW_CENTERMARKSYMBOL_20
  1
SW_CENTERMARKSYMBOL_20
  0
LINE
  5
E79
330
E76
100
AcDbEntity
  8
240
 62
     0
100
AcDbLine
 10
0.0
 20
0.0
 30
0.0
 11
0.0
 21
0.625
 31
0.0
  0
LINE
  5
E7A
330
E76
100
AcDbEntity
  8
240
 62
     0
100
AcDbLine
 10
0.0
 20
0.0
 30
0.0
 11
-0.625
 21
0.0
 31
0.0
  0
LINE
  5
E7B
330
E76
100
AcDbEntity
  8
240
 62
     0
100
AcDbLine
 10
0.0
 20
0.0
 30
0.0
 11
0.0
 21
-0.625
 31
0.0
  0
LINE
  5
E7C
330
E76
100
AcDbEntity
  8
240
 62
     0
100
AcDbLine
 10
0.0
 20
0.0
 30
0.0
 11
0.625
 21
0.0
 31
0.0
  0
LINE
  5
E7D
330
E76
100
AcDbEntity
  8
240
 62
     0
100
AcDbLine
 10
0.0
 20
0.625
 30
0.0
 11
0.0
 21
1.25
 31
0.0
  0
LINE
  5
E7E
330
E76
100
AcDbEntity
  8
240
 62
     0
100
AcDbLine
 10
-0.625
 20
0.0
 30
0.0
 11
-1.25
 21
0.0
 31
0.0
  0
LINE
  5
E7F
330
E76
100
AcDbEntity
  8
240
 62
     0
100
AcDbLine
 10
0.0
 20
-0.625
 30
0.0
 11
0.0
 21
-1.25
 31
0.0
  0
LINE
  5
E80
330
E76
100
AcDbEntity
  8
240
 62
     0
100
AcDbLine
 10
0.625
 20
0.0
 30
0.0
 11
1.25
 21
0.0
 31
0.0
  0
ENDBLK
  5
E78
330
E76
100
AcDbEntity
  8
0
100
AcDbBlockEnd
  0
BLOCK
  5
E83
330
E82
100
AcDbEntity
  8
0
100
AcDbBlockBegin
  2
SW_CENTERMARKSYMBOL_21
 70
     0
 10
0.0
 20
0.0
 30
0.0
  3
SW_CENTERMARKSYMBOL_21
  1
SW_CENTERMARKSYMBOL_21
  0
LINE
  5
E85
330
E82
100
AcDbEntity
  8
240
 62
     0
100
AcDbLine
 10
0.0
 20
0.0
 30
0.0
 11
0.0
 21
0.625
 31
0.0
  0
LINE
  5
E86
330
E82
100
AcDbEntity
  8
240
 62
     0
100
AcDbLine
 10
0.0
 20
0.0
 30
0.0
 11
-0.625
 21
0.0
 31
0.0
  0
LINE
  5
E87
330
E82
100
AcDbEntity
  8
240
 62
     0
100
AcDbLine
 10
0.0
 20
0.0
 30
0.0
 11
0.0
 21
-0.625
 31
0.0
  0
LINE
  5
E88
330
E82
100
AcDbEntity
  8
240
 62
     0
100
AcDbLine
 10
0.0
 20
0.0
 30
0.0
 11
0.625
 21
0.0
 31
0.0
  0
LINE
  5
E89
330
E82
100
AcDbEntity
  8
240
 62
     0
100
AcDbLine
 10
0.0
 20
0.625
 30
0.0
 11
0.0
 21
1.25
 31
0.0
  0
LINE
  5
E8A
330
E82
100
AcDbEntity
  8
240
 62
     0
100
AcDbLine
 10
-0.625
 20
0.0
 30
0.0
 11
-1.25
 21
0.0
 31
0.0
  0
LINE
  5
E8B
330
E82
100
AcDbEntity
  8
240
 62
     0
100
AcDbLine
 10
0.0
 20
-0.625
 30
0.0
 11
0.0
 21
-1.25
 31
0.0
  0
LINE
  5
E8C
330
E82
100
AcDbEntity
  8
240
 62
     0
100
AcDbLine
 10
0.625
 20
0.0
 30
0.0
 11
1.25
 21
0.0
 31
0.0
  0
ENDBLK
  5
E84
330
E82
100
AcDbEntity
  8
0
100
AcDbBlockEnd
  0
BLOCK
  5
E8F
330
E8E
100
AcDbEntity
  8
0
100
AcDbBlockBegin
  2
SW_CENTERMARKSYMBOL_22
 70
     0
 10
0.0
 20
0.0
 30
0.0
  3
SW_CENTERMARKSYMBOL_22
  1
SW_CENTERMARKSYMBOL_22
  0
LINE
  5
E91
330
E8E
100
AcDbEntity
  8
240
 62
     0
100
AcDbLine
 10
0.0
 20
0.0
 30
0.0
 11
0.0
 21
0.625
 31
0.0
  0
LINE
  5
E92
330
E8E
100
AcDbEntity
  8
240
 62
     0
100
AcDbLine
 10
0.0
 20
0.0
 30
0.0
 11
-0.625
 21
0.0
 31
0.0
  0
LINE
  5
E93
330
E8E
100
AcDbEntity
  8
240
 62
     0
100
AcDbLine
 10
0.0
 20
0.0
 30
0.0
 11
0.0
 21
-0.625
 31
0.0
  0
LINE
  5
E94
330
E8E
100
AcDbEntity
  8
240
 62
     0
100
AcDbLine
 10
0.0
 20
0.0
 30
0.0
 11
0.625
 21
0.0
 31
0.0
  0
LINE
  5
E95
330
E8E
100
AcDbEntity
  8
240
 62
     0
100
AcDbLine
 10
0.0
 20
0.625
 30
0.0
 11
0.0
 21
1.25
 31
0.0
  0
LINE
  5
E96
330
E8E
100
AcDbEntity
  8
240
 62
     0
100
AcDbLine
 10
-0.625
 20
0.0
 30
0.0
 11
-1.25
 21
0.0
 31
0.0
  0
LINE
  5
E97
330
E8E
100
AcDbEntity
  8
240
 62
     0
100
AcDbLine
 10
0.0
 20
-0.625
 30
0.0
 11
0.0
 21
-1.25
 31
0.0
  0
LINE
  5
E98
330
E8E
100
AcDbEntity
  8
240
 62
     0
100
AcDbLine
 10
0.625
 20
0.0
 30
0.0
 11
1.25
 21
0.0
 31
0.0
  0
ENDBLK
  5
E90
330
E8E
100
AcDbEntity
  8
0
100
AcDbBlockEnd
  0
BLOCK
  5
E9B
330
E9A
100
AcDbEntity
  8
0
100
AcDbBlockBegin
  2
SW_CENTERMARKSYMBOL_23
 70
     0
 10
0.0
 20
0.0
 30
0.0
  3
SW_CENTERMARKSYMBOL_23
  1
SW_CENTERMARKSYMBOL_23
  0
LINE
  5
E9D
330
E9A
100
AcDbEntity
  8
240
 62
     0
100
AcDbLine
 10
0.0
 20
0.0
 30
0.0
 11
0.0
 21
0.625
 31
0.0
  0
LINE
  5
E9E
330
E9A
100
AcDbEntity
  8
240
 62
     0
100
AcDbLine
 10
0.0
 20
0.0
 30
0.0
 11
-0.625
 21
0.0
 31
0.0
  0
LINE
  5
E9F
330
E9A
100
AcDbEntity
  8
240
 62
     0
100
AcDbLine
 10
0.0
 20
0.0
 30
0.0
 11
0.0
 21
-0.625
 31
0.0
  0
LINE
  5
EA0
330
E9A
100
AcDbEntity
  8
240
 62
     0
100
AcDbLine
 10
0.0
 20
0.0
 30
0.0
 11
0.625
 21
0.0
 31
0.0
  0
LINE
  5
EA1
330
E9A
100
AcDbEntity
  8
240
 62
     0
100
AcDbLine
 10
0.0
 20
0.625
 30
0.0
 11
0.0
 21
1.25
 31
0.0
  0
LINE
  5
EA2
330
E9A
100
AcDbEntity
  8
240
 62
     0
100
AcDbLine
 10
-0.625
 20
0.0
 30
0.0
 11
-1.25
 21
0.0
 31
0.0
  0
LINE
  5
EA3
330
E9A
100
AcDbEntity
  8
240
 62
     0
100
AcDbLine
 10
0.0
 20
-0.625
 30
0.0
 11
0.0
 21
-1.25
 31
0.0
  0
LINE
  5
EA4
330
E9A
100
AcDbEntity
  8
240
 62
     0
100
AcDbLine
 10
0.625
 20
0.0
 30
0.0
 11
1.25
 21
0.0
 31
0.0
  0
ENDBLK
  5
E9C
330
E9A
100
AcDbEntity
  8
0
100
AcDbBlockEnd
  0
BLOCK
  5
1E32
330
1E31
100
AcDbEntity
  8
0
100
AcDbBlockBegin
  2
SW_CENTERMARKSYMBOL_34
 70
     0
 10
0.0
 20
0.0
 30
0.0
  3
SW_CENTERMARKSYMBOL_34
  1
SW_CENTERMARKSYMBOL_34
  0
LINE
  5
1E34
330
1E31
100
AcDbEntity
  8
240
 62
     0
100
AcDbLine
 10
0.0
 20
0.0
 30
0.0
 11
0.0
 21
0.625
 31
0.0
  0
LINE
  5
1E35
330
1E31
100
AcDbEntity
  8
240
 62
     0
100
AcDbLine
 10
0.0
 20
0.0
 30
0.0
 11
-0.625
 21
0.0
 31
0.0
  0
LINE
  5
1E36
330
1E31
100
AcDbEntity
  8
240
 62
     0
100
AcDbLine
 10
0.0
 20
0.0
 30
0.0
 11
0.0
 21
-0.625
 31
0.0
  0
LINE
  5
1E37
330
1E31
100
AcDbEntity
  8
240
 62
     0
100
AcDbLine
 10
0.0
 20
0.0
 30
0.0
 11
0.625
 21
0.0
 31
0.0
  0
LINE
  5
1E38
330
1E31
100
AcDbEntity
  8
240
 62
     0
100
AcDbLine
 10
0.0
 20
1.25
 30
0.0
 11
0.0
 21
1.6875
 31
0.0
  0
LINE
  5
1E39
330
1E31
100
AcDbEntity
  8
240
 62
     0
100
AcDbLine
 10
-1.25
 20
0.0
 30
0.0
 11
-1.6875
 21
0.0
 31
0.0
  0
LINE
  5
1E3A
330
1E31
100
AcDbEntity
  8
240
 62
     0
100
AcDbLine
 10
0.0
 20
-1.25
 30
0.0
 11
0.0
 21
-1.6875
 31
0.0
  0
LINE
  5
1E3B
330
1E31
100
AcDbEntity
  8
240
 62
     0
100
AcDbLine
 10
1.25
 20
0.0
 30
0.0
 11
1.6875
 21
0.0
 31
0.0
  0
ENDBLK
  5
1E33
330
1E31
100
AcDbEntity
  8
0
100
AcDbBlockEnd
  0
BLOCK
  5
1E3E
330
1E3D
100
AcDbEntity
  8
0
100
AcDbBlockBegin
  2
SW_CENTERMARKSYMBOL_35
 70
     0
 10
0.0
 20
0.0
 30
0.0
  3
SW_CENTERMARKSYMBOL_35
  1
SW_CENTERMARKSYMBOL_35
  0
LINE
  5
1E40
330
1E3D
100
AcDbEntity
  8
240
 62
     0
100
AcDbLine
 10
0.0
 20
0.0
 30
0.0
 11
0.0
 21
0.625
 31
0.0
  0
LINE
  5
1E41
330
1E3D
100
AcDbEntity
  8
240
 62
     0
100
AcDbLine
 10
0.0
 20
0.0
 30
0.0
 11
-0.625
 21
0.0
 31
0.0
  0
LINE
  5
1E42
330
1E3D
100
AcDbEntity
  8
240
 62
     0
100
AcDbLine
 10
0.0
 20
0.0
 30
0.0
 11
0.0
 21
-0.625
 31
0.0
  0
LINE
  5
1E43
330
1E3D
100
AcDbEntity
  8
240
 62
     0
100
AcDbLine
 10
0.0
 20
0.0
 30
0.0
 11
0.625
 21
0.0
 31
0.0
  0
LINE
  5
1E44
330
1E3D
100
AcDbEntity
  8
240
 62
     0
100
AcDbLine
 10
0.0
 20
1.25
 30
0.0
 11
0.0
 21
1.6875
 31
0.0
  0
LINE
  5
1E45
330
1E3D
100
AcDbEntity
  8
240
 62
     0
100
AcDbLine
 10
-1.25
 20
0.0
 30
0.0
 11
-1.6875
 21
0.0
 31
0.0
  0
LINE
  5
1E46
330
1E3D
100
AcDbEntity
  8
240
 62
     0
100
AcDbLine
 10
0.0
 20
-1.25
 30
0.0
 11
0.0
 21
-1.6875
 31
0.0
  0
LINE
  5
1E47
330
1E3D
100
AcDbEntity
  8
240
 62
     0
100
AcDbLine
 10
1.25
 20
0.0
 30
0.0
 11
1.6875
 21
0.0
 31
0.0
  0
ENDBLK
  5
1E3F
330
1E3D
100
AcDbEntity
  8
0
100
AcDbBlockEnd
  0
BLOCK
  5
1E4A
330
1E49
100
AcDbEntity
  8
0
100
AcDbBlockBegin
  2
SW_CENTERMARKSYMBOL_36
 70
     0
 10
0.0
 20
0.0
 30
0.0
  3
SW_CENTERMARKSYMBOL_36
  1
SW_CENTERMARKSYMBOL_36
  0
LINE
  5
1E4C
330
1E49
100
AcDbEntity
  8
240
 62
     0
100
AcDbLine
 10
0.0
 20
0.0
 30
0.0
 11
0.0
 21
0.625
 31
0.0
  0
LINE
  5
1E4D
330
1E49
100
AcDbEntity
  8
240
 62
     0
100
AcDbLine
 10
0.0
 20
0.0
 30
0.0
 11
-0.625
 21
0.0
 31
0.0
  0
LINE
  5
1E4E
330
1E49
100
AcDbEntity
  8
240
 62
     0
100
AcDbLine
 10
0.0
 20
0.0
 30
0.0
 11
0.0
 21
-0.625
 31
0.0
  0
LINE
  5
1E4F
330
1E49
100
AcDbEntity
  8
240
 62
     0
100
AcDbLine
 10
0.0
 20
0.0
 30
0.0
 11
0.625
 21
0.0
 31
0.0
  0
LINE
  5
1E50
330
1E49
100
AcDbEntity
  8
240
 62
     0
100
AcDbLine
 10
0.0
 20
1.25
 30
0.0
 11
0.0
 21
1.6875
 31
0.0
  0
LINE
  5
1E51
330
1E49
100
AcDbEntity
  8
240
 62
     0
100
AcDbLine
 10
-1.25
 20
0.0
 30
0.0
 11
-1.6875
 21
0.0
 31
0.0
  0
LINE
  5
1E52
330
1E49
100
AcDbEntity
  8
240
 62
     0
100
AcDbLine
 10
0.0
 20
-1.25
 30
0.0
 11
0.0
 21
-1.6875
 31
0.0
  0
LINE
  5
1E53
330
1E49
100
AcDbEntity
  8
240
 62
     0
100
AcDbLine
 10
1.25
 20
0.0
 30
0.0
 11
1.6875
 21
0.0
 31
0.0
  0
ENDBLK
  5
1E4B
330
1E49
100
AcDbEntity
  8
0
100
AcDbBlockEnd
  0
BLOCK
  5
1E56
330
1E55
100
AcDbEntity
  8
0
100
AcDbBlockBegin
  2
SW_CENTERMARKSYMBOL_37
 70
     0
 10
0.0
 20
0.0
 30
0.0
  3
SW_CENTERMARKSYMBOL_37
  1
SW_CENTERMARKSYMBOL_37
  0
LINE
  5
1E58
330
1E55
100
AcDbEntity
  8
240
 62
     0
100
AcDbLine
 10
0.0
 20
0.0
 30
0.0
 11
0.0
 21
0.625
 31
0.0
  0
LINE
  5
1E59
330
1E55
100
AcDbEntity
  8
240
 62
     0
100
AcDbLine
 10
0.0
 20
0.0
 30
0.0
 11
-0.625
 21
0.0
 31
0.0
  0
LINE
  5
1E5A
330
1E55
100
AcDbEntity
  8
240
 62
     0
100
AcDbLine
 10
0.0
 20
0.0
 30
0.0
 11
0.0
 21
-0.625
 31
0.0
  0
LINE
  5
1E5B
330
1E55
100
AcDbEntity
  8
240
 62
     0
100
AcDbLine
 10
0.0
 20
0.0
 30
0.0
 11
0.625
 21
0.0
 31
0.0
  0
LINE
  5
1E5C
330
1E55
100
AcDbEntity
  8
240
 62
     0
100
AcDbLine
 10
0.0
 20
1.25
 30
0.0
 11
0.0
 21
1.6875
 31
0.0
  0
LINE
  5
1E5D
330
1E55
100
AcDbEntity
  8
240
 62
     0
100
AcDbLine
 10
-1.25
 20
0.0
 30
0.0
 11
-1.6875
 21
0.0
 31
0.0
  0
LINE
  5
1E5E
330
1E55
100
AcDbEntity
  8
240
 62
     0
100
AcDbLine
 10
0.0
 20
-1.25
 30
0.0
 11
0.0
 21
-1.6875
 31
0.0
  0
LINE
  5
1E5F
330
1E55
100
AcDbEntity
  8
240
 62
     0
100
AcDbLine
 10
1.25
 20
0.0
 30
0.0
 11
1.6875
 21
0.0
 31
0.0
  0
ENDBLK
  5
1E57
330
1E55
100
AcDbEntity
  8
0
100
AcDbBlockEnd
  0
BLOCK
  5
380C
330
380B
100
AcDbEntity
  8
0
100
AcDbBlockBegin
  2
_OPEN
 70
     0
 10
0.0
 20
0.0
 30
0.0
  3
_OPEN
  1

  0
LINE
  5
380D
330
380B
100
AcDbEntity
  8
30
  6
Continuous
 62
     0
100
AcDbLine
 10
-1.0
 20
0.166667
 30
0.0
 11
0.0
 21
0.0
 31
0.0
  0
LINE
  5
380E
330
380B
100
AcDbEntity
  8
30
  6
Continuous
 62
     0
100
AcDbLine
 10
-1.0
 20
-0.166667
 30
0.0
 11
0.0
 21
0.0
 31
0.0
  0
LINE
  5
380F
330
380B
100
AcDbEntity
  8
30
  6
Continuous
 62
     0
100
AcDbLine
 10
0.0
 20
0.0
 30
0.0
 11
-1.0
 21
0.0
 31
0.0
  0
ENDBLK
  5
3810
330
380B
100
AcDbEntity
  8
0
100
AcDbBlockEnd
  0
BLOCK
  5
4B13
330
4B12
100
AcDbEntity
  8
0
100
AcDbBlockBegin
  2
*D14
 70
     1
 10
0.0
 20
0.0
 30
0.0
  3
*D14
  1

  0
LINE
  5
87A7
330
4B12
100
AcDbEntity
  8
30
  6
Continuous
 62
     0
440
 16777216
370
    -2
100
AcDbLine
 10
224.5859370209668
 20
350.1312116653491
 30
0.0
 11
224.5859370209668
 21
316.2887587520963
 31
0.0
  0
LINE
  5
87A8
330
4B12
100
AcDbEntity
  8
30
  6
Continuous
 62
     0
440
 16777216
370
    -2
100
AcDbLine
 10
102.5859370209667
 20
350.1312116653491
 30
0.0
 11
102.5859370209667
 21
316.2887587520963
 31
0.0
  0
LINE
  5
87A9
330
4B12
100
AcDbEntity
  8
30
  6
Continuous
 62
     0
440
 16777216
370
    -2
100
AcDbLine
 10
222.5859370209668
 20
317.2887587520963
 30
0.0
 11
104.5859370209667
 21
317.2887587520963
 31
0.0
  0
INSERT
  5
87AA
330
4B12
100
AcDbEntity
  8
30
  6
Continuous
 62
     0
440
 16777216
370
    -2
100
AcDbBlockReference
  2
_OPEN
 10
224.5859370209668
 20
317.2887587520963
 30
0.0
 41
2.0
 42
2.0
 43
2.0
  0
INSERT
  5
87AB
330
4B12
100
AcDbEntity
  8
30
  6
Continuous
 62
     0
440
 16777216
370
    -2
100
AcDbBlockReference
  2
_OPEN
 10
102.5859370209667
 20
317.2887587520963
 30
0.0
 41
2.0
 42
2.0
 43
2.0
 50
180.0
  0
MTEXT
  5
87AC
330
4B12
100
AcDbEntity
  8
30
  6
Continuous
 62
     0
440
 16777216
100
AcDbMText
 10
170.1973409527341
 20
327.2887587520963
 30
0.0
 40
8.0
 41
0.0
 46
0.0
 71
     2
 72
     1
  1
\A1;122
 73
     1
 44
1.0
 90
        3
 63
     9
421
 13158600
 45
1.1
441
        0
  0
POINT
  5
87AD
330
4B12
100
AcDbEntity
  8
Defpoints
  6
Continuous
 62
     0
440
 16777216
100
AcDbPoint
 10
224.5859370209668
 20
351.1312116653491
 30
0.0
  0
POINT
  5
87AE
330
4B12
100
AcDbEntity
  8
Defpoints
  6
Continuous
 62
     0
440
 16777216
100
AcDbPoint
 10
102.5859370209667
 20
351.1312116653491
 30
0.0
  0
POINT
  5
87AF
330
4B12
100
AcDbEntity
  8
Defpoints
  6
Continuous
 62
     0
440
 16777216
100
AcDbPoint
 10
102.5859370209667
 20
317.2887587520963
 30
0.0
  0
ENDBLK
  5
4B14
330
4B12
100
AcDbEntity
  8
0
100
AcDbBlockEnd
  0
BLOCK
  5
54D4
330
54D3
100
AcDbEntity
  8
0
100
AcDbBlockBegin
  2
*D15
 70
     1
 10
0.0
 20
0.0
 30
0.0
  3
*D15
  1

  0
LINE
  5
87B0
330
54D3
100
AcDbEntity
  8
30
  6
Continuous
 62
     0
440
 16777216
370
    -2
100
AcDbLine
 10
214.0859420877667
 20
121.2838176443142
 30
0.0
 11
214.0859420877667
 21
13.47450028322373
 31
0.0
  0
LINE
  5
87B1
330
54D3
100
AcDbEntity
  8
30
  6
Continuous
 62
     0
440
 16777216
370
    -2
100
AcDbLine
 10
113.0859420877667
 20
121.2838176443142
 30
0.0
 11
113.0859420877667
 21
13.47450028322373
 31
0.0
  0
LINE
  5
87B2
330
54D3
100
AcDbEntity
  8
30
  6
Continuous
 62
     0
440
 16777216
370
    -2
100
AcDbLine
 10
212.0859420877667
 20
14.47450028322373
 30
0.0
 11
115.0859420877667
 21
14.47450028322373
 31
0.0
  0
INSERT
  5
87B3
330
54D3
100
AcDbEntity
  8
30
  6
Continuous
 62
     0
440
 16777216
370
    -2
100
AcDbBlockReference
  2
_OPEN
 10
214.0859420877667
 20
14.47450028322373
 30
0.0
 41
2.0
 42
2.0
 43
2.0
  0
INSERT
  5
87B4
330
54D3
100
AcDbEntity
  8
30
  6
Continuous
 62
     0
440
 16777216
370
    -2
100
AcDbBlockReference
  2
_OPEN
 10
113.0859420877667
 20
14.47450028322373
 30
0.0
 41
2.0
 42
2.0
 43
2.0
 50
180.0
  0
MTEXT
  5
87B5
330
54D3
100
AcDbEntity
  8
30
  6
Continuous
 62
     0
440
 16777216
100
AcDbMText
 10
163.4613130969666
 20
24.47450028322374
 30
0.0
 40
8.0
 41
0.0
 46
0.0
 71
     2
 72
     1
  1
\A1;101
 73
     1
 44
1.0
 90
        3
 63
     9
421
 13158600
 45
1.1
441
        0
  0
POINT
  5
87B6
330
54D3
100
AcDbEntity
  8
Defpoints
  6
Continuous
 62
     0
440
 16777216
100
AcDbPoint
 10
214.0859420877667
 20
122.2838176443142
 30
0.0
  0
POINT
  5
87B7
330
54D3
100
AcDbEntity
  8
Defpoints
  6
Continuous
 62
     0
440
 16777216
100
AcDbPoint
 10
113.0859420877667
 20
122.2838176443142
 30
0.0
  0
POINT
  5
87B8
330
54D3
100
AcDbEntity
  8
Defpoints
  6
Continuous
 62
     0
440
 16777216
100
AcDbPoint
 10
113.0859420877667
 20
14.47450028322373
 30
0.0
  0
ENDBLK
  5
54D5
330
54D3
100
AcDbEntity
  8
0
100
AcDbBlockEnd
  0
BLOCK
  5
5FD1
330
5FD0
100
AcDbEntity
  8
0
100
AcDbBlockBegin
  2
*D16
 70
     1
 10
0.0
 20
0.0
 30
0.0
  3
*D16
  1

  0
LINE
  5
86AA
330
5FD0
100
AcDbEntity
  8
30
  6
Continuous
 62
     0
440
 16777216
370
    -2
100
AcDbLine
 10
328.8343770236784
 20
449.1100154781872
 30
0.0
 11
328.8343770236784
 21
295.2312116653492
 31
0.0
  0
LINE
  5
86AB
330
5FD0
100
AcDbEntity
  8
30
  6
Continuous
 62
     0
440
 16777216
370
    -2
100
AcDbLine
 10
369.3343770236779
 20
337.807358328753
 30
0.0
 11
369.3343770236779
 21
295.2312116653492
 31
0.0
  0
LINE
  5
86AC
330
5FD0
100
AcDbEntity
  8
30
  6
Continuous
 62
     0
440
 16777216
370
    -2
100
AcDbLine
 10
330.8343770236784
 20
296.2312116653492
 30
0.0
 11
367.3343770236779
 21
296.2312116653492
 31
0.0
  0
INSERT
  5
86AD
330
5FD0
100
AcDbEntity
  8
30
  6
Continuous
 62
     0
440
 16777216
370
    -2
100
AcDbBlockReference
  2
_OPEN
 10
328.8343770236784
 20
296.2312116653492
 30
0.0
 41
2.0
 42
2.0
 43
2.0
 50
180.0
  0
INSERT
  5
86AE
330
5FD0
100
AcDbEntity
  8
30
  6
Continuous
 62
     0
440
 16777216
370
    -2
100
AcDbBlockReference
  2
_OPEN
 10
369.3343770236779
 20
296.2312116653492
 30
0.0
 41
2.0
 42
2.0
 43
2.0
  0
MTEXT
  5
86AF
330
5FD0
100
AcDbEntity
  8
30
  6
Continuous
 62
     0
440
 16777216
100
AcDbMText
 10
349.0843770236784
 20
306.2312116653492
 30
0.0
 40
8.0
 41
0.0
 46
0.0
 71
     2
 72
     1
  1
\A1;40.5
 73
     1
 44
1.0
 90
        3
 63
     9
421
 13158600
 45
1.1
441
        0
  0
POINT
  5
86B0
330
5FD0
100
AcDbEntity
  8
Defpoints
  6
Continuous
 62
     0
440
 16777216
100
AcDbPoint
 10
328.8343770236784
 20
450.110015478187
 30
0.0
  0
POINT
  5
86B1
330
5FD0
100
AcDbEntity
  8
Defpoints
  6
Continuous
 62
     0
440
 16777216
100
AcDbPoint
 10
369.3343770236779
 20
338.807358328753
 30
0.0
  0
POINT
  5
86B2
330
5FD0
100
AcDbEntity
  8
Defpoints
  6
Continuous
 62
     0
440
 16777216
100
AcDbPoint
 10
369.3343770236779
 20
296.2312116653492
 30
0.0
  0
ENDBLK
  5
5FD2
330
5FD0
100
AcDbEntity
  8
0
100
AcDbBlockEnd
  0
BLOCK
  5
5FE9
330
5FE8
100
AcDbEntity
  8
0
100
AcDbBlockBegin
  2
*D17
 70
     1
 10
0.0
 20
0.0
 30
0.0
  3
*D17
  1

  0
LINE
  5
86B3
330
5FE8
100
AcDbEntity
  8
30
  6
Continuous
 62
     0
440
 16777216
370
    -2
100
AcDbLine
 10
354.3343770236784
 20
339.7650659451244
 30
0.0
 11
354.3343770236784
 21
315.2312116653492
 31
0.0
  0
LINE
  5
86B4
330
5FE8
100
AcDbEntity
  8
30
  6
Continuous
 62
     0
440
 16777216
370
    -2
100
AcDbLine
 10
369.3343770236779
 20
332.6670308937492
 30
0.0
 11
369.3343770236779
 21
315.2312116653492
 31
0.0
  0
LINE
  5
86B5
330
5FE8
100
AcDbEntity
  8
30
  6
Continuous
 62
     0
440
 16777216
370
    -2
100
AcDbLine
 10
356.3343770236784
 20
316.2312116653492
 30
0.0
 11
367.3343770236779
 21
316.2312116653492
 31
0.0
  0
INSERT
  5
86B6
330
5FE8
100
AcDbEntity
  8
30
  6
Continuous
 62
     0
440
 16777216
370
    -2
100
AcDbBlockReference
  2
_OPEN
 10
354.3343770236784
 20
316.2312116653492
 30
0.0
 41
2.0
 42
2.0
 43
2.0
 50
180.0
  0
INSERT
  5
86B7
330
5FE8
100
AcDbEntity
  8
30
  6
Continuous
 62
     0
440
 16777216
370
    -2
100
AcDbBlockReference
  2
_OPEN
 10
369.3343770236779
 20
316.2312116653492
 30
0.0
 41
2.0
 42
2.0
 43
2.0
  0
MTEXT
  5
86B8
330
5FE8
100
AcDbEntity
  8
30
  6
Continuous
 62
     0
440
 16777216
100
AcDbMText
 10
361.8343770236784
 20
326.2312116653492
 30
0.0
 40
8.0
 41
0.0
 46
0.0
 71
     2
 72
     1
  1
\A1;15
 73
     1
 44
1.0
 90
        3
 63
     9
421
 13158600
 45
1.1
441
        0
  0
POINT
  5
86B9
330
5FE8
100
AcDbEntity
  8
Defpoints
  6
Continuous
 62
     0
440
 16777216
100
AcDbPoint
 10
354.3343770236784
 20
340.7650659451245
 30
0.0
  0
POINT
  5
86BA
330
5FE8
100
AcDbEntity
  8
Defpoints
  6
Continuous
 62
     0
440
 16777216
100
AcDbPoint
 10
369.3343770236779
 20
333.6670308937491
 30
0.0
  0
POINT
  5
86BB
330
5FE8
100
AcDbEntity
  8
Defpoints
  6
Continuous
 62
     0
440
 16777216
100
AcDbPoint
 10
369.3343770236779
 20
316.2312116653492
 30
0.0
  0
ENDBLK
  5
5FEA
330
5FE8
100
AcDbEntity
  8
0
100
AcDbBlockEnd
  0
BLOCK
  5
6031
330
6030
100
AcDbEntity
  8
0
100
AcDbBlockBegin
  2
*D18
 70
     1
 10
0.0
 20
0.0
 30
0.0
  3
*D18
  1

  0
LINE
  5
86E0
330
6030
100
AcDbEntity
  8
30
  6
Continuous
 62
     0
440
 16777216
370
    -2
100
AcDbLine
 10
527.5343770236782
 20
386.6312116653491
 30
0.0
 11
542.8510439772695
 21
386.6312116653491
 31
0.0
  0
LINE
  5
86E1
330
6030
100
AcDbEntity
  8
30
  6
Continuous
 62
     0
440
 16777216
370
    -2
100
AcDbLine
 10
527.5343770236782
 20
382.6312116653491
 30
0.0
 11
542.8510439772695
 21
382.6312116653491
 31
0.0
  0
LINE
  5
86E2
330
6030
100
AcDbEntity
  8
30
  6
Continuous
 62
     0
440
 16777216
370
    -2
100
AcDbLine
 10
541.8510439772695
 20
388.6312116653492
 30
0.0
 11
541.8510439772695
 21
390.6312116653491
 31
0.0
  0
LINE
  5
86E3
330
6030
100
AcDbEntity
  8
30
  6
Continuous
 62
     0
440
 16777216
370
    -2
100
AcDbLine
 10
541.8510439772695
 20
380.6312116653491
 30
0.0
 11
541.8510439772695
 21
364.7811462156932
 31
0.0
  0
INSERT
  5
86E4
330
6030
100
AcDbEntity
  8
30
  6
Continuous
 62
     0
440
 16777216
370
    -2
100
AcDbBlockReference
  2
_OPEN
 10
541.8510439772695
 20
386.6312116653491
 30
0.0
 41
2.0
 42
2.0
 43
2.0
 50
270.0
  0
INSERT
  5
86E5
330
6030
100
AcDbEntity
  8
30
  6
Continuous
 62
     0
440
 16777216
370
    -2
100
AcDbBlockReference
  2
_OPEN
 10
541.8510439772695
 20
382.6312116653491
 30
0.0
 41
2.0
 42
2.0
 43
2.0
 50
90.0
  0
MTEXT
  5
86E6
330
6030
100
AcDbEntity
  8
30
  6
Continuous
 62
     0
440
 16777216
100
AcDbMText
 10
531.8510439772693
 20
369.3038734884205
 30
0.0
 40
8.0
 41
0.0
 46
0.0
 71
     2
 72
     1
  1
\A1;4
 11
0.0000000000000001
 21
1.0
 31
0.0
 73
     1
 44
1.0
 90
        3
 63
     9
421
 13158600
 45
1.1
441
        0
  0
POINT
  5
86E7
330
6030
100
AcDbEntity
  8
Defpoints
  6
Continuous
 62
     0
440
 16777216
100
AcDbPoint
 10
526.5343770236778
 20
386.6312116653491
 30
0.0
  0
POINT
  5
86E8
330
6030
100
AcDbEntity
  8
Defpoints
  6
Continuous
 62
     0
440
 16777216
100
AcDbPoint
 10
526.5343770236778
 20
382.6312116653491
 30
0.0
  0
POINT
  5
86E9
330
6030
100
AcDbEntity
  8
Defpoints
  6
Continuous
 62
     0
440
 16777216
100
AcDbPoint
 10
541.8510439772695
 20
382.6312116653491
 30
0.0
  0
ENDBLK
  5
6032
330
6030
100
AcDbEntity
  8
0
100
AcDbBlockEnd
  0
BLOCK
  5
6067
330
6066
100
AcDbEntity
  8
0
100
AcDbBlockBegin
  2
*D19
 70
     1
 10
0.0
 20
0.0
 30
0.0
  3
*D19
  1

  0
LINE
  5
86A1
330
6066
100
AcDbEntity
  8
30
  6
Continuous
 62
     0
440
 16777216
370
    -2
100
AcDbLine
 10
530.6786881084781
 20
498.631211665349
 30
0.0
 11
557.0583026188511
 21
498.631211665349
 31
0.0
  0
LINE
  5
86A2
330
6066
100
AcDbEntity
  8
30
  6
Continuous
 62
     0
440
 16777216
370
    -2
100
AcDbLine
 10
530.9583178348783
 20
384.6312116653491
 30
0.0
 11
557.0583026188511
 21
384.6312116653491
 31
0.0
  0
LINE
  5
86A3
330
6066
100
AcDbEntity
  8
30
  6
Continuous
 62
     0
440
 16777216
370
    -2
100
AcDbLine
 10
556.0583026188511
 20
496.6312116653488
 30
0.0
 11
556.0583026188511
 21
386.6312116653491
 31
0.0
  0
INSERT
  5
86A4
330
6066
100
AcDbEntity
  8
30
  6
Continuous
 62
     0
440
 16777216
370
    -2
100
AcDbBlockReference
  2
_OPEN
 10
556.0583026188511
 20
498.631211665349
 30
0.0
 41
2.0
 42
2.0
 43
2.0
 50
90.0
  0
INSERT
  5
86A5
330
6066
100
AcDbEntity
  8
30
  6
Continuous
 62
     0
440
 16777216
370
    -2
100
AcDbBlockReference
  2
_OPEN
 10
556.0583026188511
 20
384.6312116653491
 30
0.0
 41
2.0
 42
2.0
 43
2.0
 50
270.0
  0
MTEXT
  5
86A6
330
6066
100
AcDbEntity
  8
30
  6
Continuous
 62
     0
440
 16777216
100
AcDbMText
 10
546.058302618851
 20
442.3663680786191
 30
0.0
 40
8.0
 41
0.0
 46
0.0
 71
     2
 72
     1
  1
\A1;114
 11
0.0000000000000001
 21
1.0
 31
0.0
 73
     1
 44
1.0
 90
        3
 63
     9
421
 13158600
 45
1.1
441
        0
  0
POINT
  5
86A7
330
6066
100
AcDbEntity
  8
Defpoints
  6
Continuous
 62
     0
440
 16777216
100
AcDbPoint
 10
529.6786881084781
 20
498.631211665349
 30
0.0
  0
POINT
  5
86A8
330
6066
100
AcDbEntity
  8
Defpoints
  6
Continuous
 62
     0
440
 16777216
100
AcDbPoint
 10
529.9583178348783
 20
384.6312116653491
 30
0.0
  0
POINT
  5
86A9
330
6066
100
AcDbEntity
  8
Defpoints
  6
Continuous
 62
     0
440
 16777216
100
AcDbPoint
 10
556.0583026188511
 20
384.6312116653491
 30
0.0
  0
ENDBLK
  5
6068
330
6066
100
AcDbEntity
  8
0
100
AcDbBlockEnd
  0
BLOCK
  5
6319
330
6318
100
AcDbEntity
  8
0
100
AcDbBlockBegin
  2
READTB
 70
     0
 10
0.0
 20
0.0
 30
0.0
  3
READTB
  1

  0
LWPOLYLINE
  5
631B
330
6318
100
AcDbEntity
  8
24
  6
CONTINOUS
100
AcDbPolyline
 90
        4
 70
     0
 43
0.0
 10
11.0
 20
21.19999999999993
 10
11.79999999999973
 20
21.19999999999993
 10
11.79999999999973
 20
27.79999999999996
 10
11.0
 20
27.79999999999996
  0
LINE
  5
631C
330
6318
100
AcDbEntity
  8
10
  6
CONTINOUS
100
AcDbLine
 10
6.5
 20
29.99999999999989
 30
0.0
 11
6.5
 21
31.59999999999991
 31
0.0
  0
LINE
  5
631D
330
6318
100
AcDbEntity
  8
10
  6
CONTINOUS
100
AcDbLine
 10
0.0
 20
31.59999999999991
 30
0.0
 11
17.0
 21
31.59999999999991
 31
0.0
  0
LINE
  5
631E
330
6318
100
AcDbEntity
  8
10
  6
CONTINOUS
100
AcDbLine
 10
17.0
 20
31.59999999999991
 30
0.0
 11
17.0
 21
29.99999999999989
 31
0.0
  0
ARC
  5
631F
330
6318
100
AcDbEntity
  8
24
  6
CONTINOUS
100
AcDbCircle
 10
2.099999999999909
 20
32.09999999999991
 30
0.0
 40
0.5000000000000232
100
AcDbArc
 50
180.0
 51
258.4630409671953
  0
LINE
  5
6320
330
6318
100
AcDbEntity
  8
10
  6
CONTINOUS
100
AcDbLine
 10
6.5
 20
-31.0
 30
0.0
 11
6.5
 21
-32.60000000000002
 31
0.0
  0
LINE
  5
6321
330
6318
100
AcDbEntity
  8
10
  6
CONTINOUS
100
AcDbLine
 10
10.0
 20
-31.0
 30
0.0
 11
10.0
 21
-32.60000000000002
 31
0.0
  0
LINE
  5
6322
330
6318
100
AcDbEntity
  8
10
  6
CONTINOUS
100
AcDbLine
 10
10.0
 20
-32.60000000000002
 30
0.0
 11
0.0
 21
-32.60000000000002
 31
0.0
  0
LINE
  5
6323
330
6318
100
AcDbEntity
  8
10
  6
CONTINOUS
100
AcDbLine
 10
17.0
 20
-31.0
 30
0.0
 11
17.0
 21
-32.60000000000002
 31
0.0
  0
LINE
  5
6324
330
6318
100
AcDbEntity
  8
10
  6
CONTINOUS
100
AcDbLine
 10
17.0
 20
-32.60000000000002
 30
0.0
 11
15.0
 21
-32.60000000000002
 31
0.0
  0
LINE
  5
6325
330
6318
100
AcDbEntity
  8
10
  6
CONTINOUS
100
AcDbLine
 10
15.0
 20
-32.60000000000002
 30
0.0
 11
10.0
 21
-32.60000000000002
 31
0.0
  0
LWPOLYLINE
  5
6326
330
6318
100
AcDbEntity
  8
10
  6
CONTINOUS
100
AcDbPolyline
 90
        3
 70
     0
 43
0.0
 10
10.0
 20
27.99999999999989
 10
10.0
 20
20.0
 10
0.0
 20
20.0
  0
LWPOLYLINE
  5
6327
330
6318
100
AcDbEntity
  8
10
  6
CONTINOUS
100
AcDbPolyline
 90
        4
 70
     0
 43
0.0
 10
8.237926744066726
 20
18.0
 10
13.29999999999972
 20
18.0
 10
13.29999999999972
 20
21.0
 10
10.0
 20
21.0
  0
LINE
  5
6328
330
6318
100
AcDbEntity
  8
10
  6
CONTINOUS
100
AcDbLine
 10
10.0
 20
10.0
 30
0.0
 11
0.0
 21
10.0
 31
0.0
  0
LINE
  5
6329
330
6318
100
AcDbEntity
  8
10
  6
CONTINOUS
100
AcDbLine
 10
10.0
 20
0.0
 30
0.0
 11
0.0
 21
0.0
 31
0.0
  0
LINE
  5
632A
330
6318
100
AcDbEntity
  8
10
  6
CONTINOUS
100
AcDbLine
 10
10.0
 20
-10.0
 30
0.0
 11
0.0
 21
-10.0
 31
0.0
  0
LINE
  5
632B
330
6318
100
AcDbEntity
  8
10
  6
CONTINOUS
100
AcDbLine
 10
10.0
 20
-20.0
 30
0.0
 11
0.0
 21
-20.0
 31
0.0
  0
LINE
  5
632C
330
6318
100
AcDbEntity
  8
10
  6
CONTINOUS
100
AcDbLine
 10
19.09999999999991
 20
28.99999999999989
 30
0.0
 11
19.08749217800005
 21
-30.0
 31
0.0
  0
LINE
  5
632D
330
6318
100
AcDbEntity
  8
24
  6
CONTINOUS
100
AcDbLine
 10
11.79999999999973
 20
24.5
 30
0.0
 11
11.0
 21
24.19230769239994
 31
0.0
  0
LINE
  5
632E
330
6318
100
AcDbEntity
  8
24
  6
CONTINOUS
100
AcDbLine
 10
11.79999999999973
 20
24.99999999999989
 30
0.0
 11
11.0
 21
24.69230769239994
 31
0.0
  0
LWPOLYLINE
  5
632F
330
6318
100
AcDbEntity
  8
10
  6
CONTINOUS
100
AcDbPolyline
 90
        3
 70
     0
 43
0.0
 10
13.5
 20
-30.0
 10
13.5
 20
-29.0
 10
9.960492974930275
 20
-29.0
  0
LINE
  5
6330
330
6318
100
AcDbEntity
  8
10
  6
CONTINOUS
100
AcDbLine
 10
0.0
 20
-31.0
 30
0.0
 11
20.0
 21
-31.0
 31
0.0
  0
LINE
  5
6331
330
6318
100
AcDbEntity
  8
10
  6
CONTINOUS
100
AcDbLine
 10
8.199999999999818
 20
-30.0
 30
0.0
 11
0.0
 21
-30.0
 31
0.0
  0
LINE
  5
6332
330
6318
100
AcDbEntity
  8
10
  6
CONTINOUS
100
AcDbLine
 10
8.199999999999818
 20
-30.0
 30
0.0
 11
8.199999999999818
 21
-29.0
 31
0.0
  0
LINE
  5
6333
330
6318
100
AcDbEntity
  8
10
  6
CONTINOUS
100
AcDbLine
 10
20.0
 20
-30.0
 30
0.0
 11
20.0
 21
-31.0
 31
0.0
  0
LINE
  5
6334
330
6318
100
AcDbEntity
  8
10
  6
CONTINOUS
100
AcDbLine
 10
13.5
 20
-30.0
 30
0.0
 11
20.0
 21
-30.0
 31
0.0
  0
LINE
  5
6335
330
6318
100
AcDbEntity
  8
24
  6
CONTINOUS
100
AcDbLine
 10
11.0
 20
27.99999999999989
 30
0.0
 11
11.0
 21
21.0
 31
0.0
  0
LINE
  5
6336
330
6318
100
AcDbEntity
  8
10
  6
CONTINOUS
100
AcDbLine
 10
10.0
 20
31.59999999999991
 30
0.0
 11
10.0
 21
29.99999999999989
 31
0.0
  0
LINE
  5
6337
330
6318
100
AcDbEntity
  8
10
  6
CONTINOUS
100
AcDbLine
 10
13.29999999999972
 20
30.99999999999989
 30
0.0
 11
10.0
 21
30.99999999999989
 31
0.0
  0
LINE
  5
6338
330
6318
100
AcDbEntity
  8
10
  6
CONTINOUS
100
AcDbLine
 10
13.29999999999972
 20
30.99999999999989
 30
0.0
 11
13.29999999999972
 21
29.99999999999989
 31
0.0
  0
LINE
  5
6339
330
6318
100
AcDbEntity
  8
10
  6
CONTINOUS
100
AcDbLine
 10
13.29999999999972
 20
28.99999999999989
 30
0.0
 11
18.0
 21
28.99999999999989
 31
0.0
  0
LINE
  5
633A
330
6318
100
AcDbEntity
  8
10
  6
CONTINOUS
100
AcDbLine
 10
13.29999999999972
 20
28.99999999999989
 30
0.0
 11
13.29999999999972
 21
27.99999999999989
 31
0.0
  0
LINE
  5
633B
330
6318
100
AcDbEntity
  8
10
  6
CONTINOUS
100
AcDbLine
 10
8.245828149080692
 20
27.99999999999989
 30
0.0
 11
13.29999999999972
 21
27.99999999999989
 31
0.0
  0
LINE
  5
633C
330
6318
100
AcDbEntity
  8
10
  6
CONTINOUS
100
AcDbLine
 10
8.199999999999818
 20
-30.0
 30
0.0
 11
8.245828149080692
 21
27.99999999999989
 31
0.0
  0
LINE
  5
633D
330
6318
100
AcDbEntity
  8
10
  6
CONTINOUS
100
AcDbLine
 10
20.0
 20
29.99999999999989
 30
0.0
 11
20.0
 21
28.99999999999989
 31
0.0
  0
LINE
  5
633E
330
6318
100
AcDbEntity
  8
10
  6
CONTINOUS
100
AcDbLine
 10
20.0
 20
28.99999999999989
 30
0.0
 11
18.0
 21
28.99999999999989
 31
0.0
  0
LWPOLYLINE
  5
633F
330
6318
100
AcDbEntity
  8
24
  6
CONTINOUS
100
AcDbPolyline
 90
       18
 70
     0
 43
0.0
 10
11.79999999999973
 20
27.49999999999989
 10
12.85369821182246
 20
27.40781335190093
 42
-0.3142202440833934
 10
13.81921958789166
 20
26.60086861890551
 42
-0.0056715522299757
 10
13.86488945880001
 20
26.42522510279992
 10
13.8648894587036
 20
26.37203784373256
 42
-0.026670071057275
 10
14.01983488289795
 20
25.53129002979455
 42
-0.0147955144204446
 10
14.04789378308965
 20
25.14458684978507
 42
-0.0301142318753599
 10
14.01983488279984
 20
24.96114673039995
 10
13.86488945880001
 20
24.94940628519998
 10
13.86488945880001
 20
24.05059371519997
 10
14.01983488266342
 20
24.03885326975845
 42
-0.0301142318753597
 10
14.04789378331804
 20
23.85541315057409
 42
-0.0147955144204444
 10
14.01983488276494
 20
23.46870997066259
 42
-0.0266700710572752
 10
13.86488945880001
 20
22.62796215679998
 10
13.86488945858139
 20
22.57477489731588
 42
-0.0056715522299757
 10
13.81921958813518
 20
22.39913138130043
 42
-0.3142202440833934
 10
12.85369821159975
 20
21.59218664839989
 10
11.79999999999973
 20
21.5
  0
LINE
  5
6340
330
6318
100
AcDbEntity
  8
0
  6
SLD-実線
 62
     8
370
     0
100
AcDbLine
 10
2.0
 20
31.59999999999991
 30
0.0
 11
2.0
 21
31.61010205159994
 31
0.0
  0
LINE
  5
6341
330
6318
100
AcDbEntity
  8
0
  6
SLD-実線
 62
     8
370
     0
100
AcDbLine
 10
18.0
 20
19.0
 30
0.0
 11
18.0
 21
20.0
 31
0.0
  0
LINE
  5
6342
330
6318
100
AcDbEntity
  8
0
  6
SLD-実線
 62
     8
370
     0
100
AcDbLine
 10
18.0
 20
28.99999999999989
 30
0.0
 11
18.0
 21
29.99999999999989
 31
0.0
  0
LINE
  5
6343
330
6318
100
AcDbEntity
  8
10
  6
CONTINOUS
100
AcDbLine
 10
0.0
 20
29.99999999999989
 30
0.0
 11
20.0
 21
29.99999999999989
 31
0.0
  0
LWPOLYLINE
  5
6344
330
6318
100
AcDbEntity
  8
24
  6
CONTINOUS
100
AcDbPolyline
 90
        4
 70
     0
 43
0.0
 10
10.99209859498603
 20
11.19999999999993
 10
11.79209859498576
 20
11.19999999999993
 10
11.79209859498576
 20
17.79999999999995
 10
10.99209859498603
 20
17.79999999999995
  0
LWPOLYLINE
  5
6345
330
6318
100
AcDbEntity
  8
10
  6
CONTINOUS
100
AcDbPolyline
 90
        3
 70
     0
 43
0.0
 10
9.992098594986034
 20
17.99999999999988
 10
9.992098594986034
 20
10.0
 10
-0.0079014050139676
 20
10.0
  0
LWPOLYLINE
  5
6346
330
6318
100
AcDbEntity
  8
10
  6
CONTINOUS
100
AcDbPolyline
 90
        4
 70
     0
 43
0.0
 10
8.230025339052758
 20
8.0
 10
13.29209859498576
 20
8.0
 10
13.29209859498576
 20
11.0
 10
9.992098594986034
 20
11.0
  0
LINE
  5
6347
330
6318
100
AcDbEntity
  8
24
  6
CONTINOUS
100
AcDbLine
 10
11.79209859498576
 20
14.5
 30
0.0
 11
10.99209859498603
 21
14.19230769239993
 31
0.0
  0
LINE
  5
6348
330
6318
100
AcDbEntity
  8
24
  6
CONTINOUS
100
AcDbLine
 10
11.79209859498576
 20
14.99999999999988
 30
0.0
 11
10.99209859498603
 21
14.69230769239993
 31
0.0
  0
LINE
  5
6349
330
6318
100
AcDbEntity
  8
24
  6
CONTINOUS
100
AcDbLine
 10
10.99209859498603
 20
17.99999999999988
 30
0.0
 11
10.99209859498603
 21
11.0
 31
0.0
  0
LWPOLYLINE
  5
634A
330
6318
100
AcDbEntity
  8
24
  6
CONTINOUS
100
AcDbPolyline
 90
       18
 70
     0
 43
0.0
 10
11.79209859498576
 20
17.49999999999988
 10
12.84579680680849
 20
17.40781335190092
 42
-0.3142202440833934
 10
13.8113181828777
 20
16.60086861890551
 42
-0.0056715522299757
 10
13.85698805378604
 20
16.42522510279991
 10
13.85698805368963
 20
16.37203784373255
 42
-0.026670071057275
 10
14.01193347788398
 20
15.53129002979455
 42
-0.0147955144204446
 10
14.03999237807568
 20
15.14458684978507
 42
-0.0301142318753599
 10
14.01193347778587
 20
14.96114673039994
 10
13.85698805378604
 20
14.94940628519998
 10
13.85698805378604
 20
14.05059371519996
 10
14.01193347764945
 20
14.03885326975845
 42
-0.0301142318753597
 10
14.03999237830408
 20
13.85541315057409
 42
-0.0147955144204444
 10
14.01193347775097
 20
13.46870997066259
 42
-0.0266700710572752
 10
13.85698805378604
 20
12.62796215679998
 10
13.85698805356742
 20
12.57477489731587
 42
-0.0056715522299757
 10
13.81131818312121
 20
12.39913138130043
 42
-0.3142202440833934
 10
12.84579680658578
 20
11.59218664839989
 10
11.79209859498576
 20
11.5
  0
LWPOLYLINE
  5
634B
330
6318
100
AcDbEntity
  8
24
  6
CONTINOUS
100
AcDbPolyline
 90
        4
 70
     0
 43
0.0
 10
10.98419718997206
 20
1.19999999999993
 10
11.78419718997179
 20
1.19999999999993
 10
11.78419718997179
 20
7.799999999999952
 10
10.98419718997206
 20
7.799999999999952
  0
LWPOLYLINE
  5
634C
330
6318
100
AcDbEntity
  8
10
  6
CONTINOUS
100
AcDbPolyline
 90
        3
 70
     0
 43
0.0
 10
9.984197189972064
 20
7.999999999999886
 10
9.984197189972064
 20
0.0
 10
-0.0158028100279353
 20
0.0
  0
LWPOLYLINE
  5
634D
330
6318
100
AcDbEntity
  8
10
  6
CONTINOUS
100
AcDbPolyline
 90
        4
 70
     0
 43
0.0
 10
8.222123934038791
 20
-2.0
 10
13.28419718997179
 20
-2.0
 10
13.28419718997179
 20
1.0
 10
9.984197189972064
 20
1.0
  0
LINE
  5
634E
330
6318
100
AcDbEntity
  8
24
  6
CONTINOUS
100
AcDbLine
 10
11.78419718997179
 20
4.5
 30
0.0
 11
10.98419718997206
 21
4.192307692399936
 31
0.0
  0
LINE
  5
634F
330
6318
100
AcDbEntity
  8
24
  6
CONTINOUS
100
AcDbLine
 10
11.78419718997179
 20
4.999999999999886
 30
0.0
 11
10.98419718997206
 21
4.692307692399936
 31
0.0
  0
LINE
  5
6350
330
6318
100
AcDbEntity
  8
24
  6
CONTINOUS
100
AcDbLine
 10
10.98419718997206
 20
7.999999999999886
 30
0.0
 11
10.98419718997206
 21
1.0
 31
0.0
  0
LWPOLYLINE
  5
6351
330
6318
100
AcDbEntity
  8
24
  6
CONTINOUS
100
AcDbPolyline
 90
       18
 70
     0
 43
0.0
 10
11.78419718997179
 20
7.499999999999886
 10
12.83789540179453
 20
7.407813351900927
 42
-0.3142202440833934
 10
13.80341677786373
 20
6.600868618905507
 42
-0.0056715522299757
 10
13.84908664877207
 20
6.425225102799912
 10
13.84908664867566
 20
6.372037843732556
 42
-0.026670071057275
 10
14.00403207287002
 20
5.531290029794546
 42
-0.0147955144204446
 10
14.03209097306171
 20
5.144586849785071
 42
-0.0301142318753599
 10
14.0040320727719
 20
4.961146730399946
 10
13.84908664877207
 20
4.949406285199983
 10
13.84908664877207
 20
4.050593715199966
 10
14.00403207263548
 20
4.038853269758448
 42
-0.0301142318753597
 10
14.03209097329011
 20
3.855413150574093
 42
-0.0147955144204444
 10
14.004032072737
 20
3.468709970662586
 42
-0.0266700710572752
 10
13.84908664877207
 20
2.627962156799981
 10
13.84908664855345
 20
2.574774897315875
 42
-0.0056715522299757
 10
13.80341677810725
 20
2.399131381300434
 42
-0.3142202440833934
 10
12.83789540157181
 20
1.592186648399888
 10
11.78419718997179
 20
1.5
  0
LWPOLYLINE
  5
6352
330
6318
100
AcDbEntity
  8
24
  6
CONTINOUS
100
AcDbPolyline
 90
        4
 70
     0
 43
0.0
 10
10.97629578495821
 20
-8.800000000000068
 10
11.77629578495793
 20
-8.800000000000068
 10
11.77629578495793
 20
-2.200000000000045
 10
10.97629578495821
 20
-2.200000000000045
  0
LWPOLYLINE
  5
6353
330
6318
100
AcDbEntity
  8
10
  6
CONTINOUS
100
AcDbPolyline
 90
        3
 70
     0
 43
0.0
 10
9.97629578495821
 20
-2.000000000000111
 10
9.97629578495821
 20
-10.0
 10
-0.0237042150417892
 20
-10.0
  0
LWPOLYLINE
  5
6354
330
6318
100
AcDbEntity
  8
10
  6
CONTINOUS
100
AcDbPolyline
 90
        4
 70
     0
 43
0.0
 10
8.214222529024937
 20
-12.0
 10
13.27629578495794
 20
-12.0
 10
13.27629578495794
 20
-9.0
 10
9.97629578495821
 20
-9.0
  0
LINE
  5
6355
330
6318
100
AcDbEntity
  8
24
  6
CONTINOUS
100
AcDbLine
 10
11.77629578495793
 20
-5.5
 30
0.0
 11
10.97629578495821
 21
-5.807692307600063
 31
0.0
  0
LINE
  5
6356
330
6318
100
AcDbEntity
  8
24
  6
CONTINOUS
100
AcDbLine
 10
11.77629578495793
 20
-5.000000000000113
 30
0.0
 11
10.97629578495821
 21
-5.307692307600063
 31
0.0
  0
LINE
  5
6357
330
6318
100
AcDbEntity
  8
24
  6
CONTINOUS
100
AcDbLine
 10
10.97629578495821
 20
-2.000000000000111
 30
0.0
 11
10.97629578495821
 21
-9.0
 31
0.0
  0
LWPOLYLINE
  5
6358
330
6318
100
AcDbEntity
  8
24
  6
CONTINOUS
100
AcDbPolyline
 90
       18
 70
     0
 43
0.0
 10
11.77629578495793
 20
-2.500000000000113
 10
12.82999399678067
 20
-2.592186648099068
 42
-0.3142202440833934
 10
13.79551537284988
 20
-3.399131381094491
 42
-0.0056715522299757
 10
13.84118524375822
 20
-3.574774897200086
 10
13.84118524366181
 20
-3.627962156267443
 42
-0.026670071057275
 10
13.99613066785616
 20
-4.468709970205452
 42
-0.0147955144204446
 10
14.02418956804786
 20
-4.855413150214928
 42
-0.0301142318753599
 10
13.99613066775805
 20
-5.038853269600051
 10
13.84118524375822
 20
-5.050593714800013
 10
13.84118524375822
 20
-5.949406284800032
 10
13.99613066762163
 20
-5.96114673024155
 42
-0.0301142318753597
 10
14.02418956827625
 20
-6.144586849425905
 42
-0.0147955144204444
 10
13.99613066772315
 20
-6.53129002933741
 42
-0.0266700710572752
 10
13.84118524375822
 20
-7.372037843200017
 10
13.8411852435396
 20
-7.425225102684122
 42
-0.0056715522299757
 10
13.79551537309339
 20
-7.600868618699562
 42
-0.3142202440833934
 10
12.82999399655796
 20
-8.407813351600111
 10
11.77629578495793
 20
-8.5
  0
LWPOLYLINE
  5
6359
330
6318
100
AcDbEntity
  8
24
  6
CONTINOUS
100
AcDbPolyline
 90
        4
 70
     0
 43
0.0
 10
10.96839437994424
 20
-18.80000000000007
 10
11.76839437994397
 20
-18.80000000000007
 10
11.76839437994397
 20
-12.20000000000004
 10
10.96839437994424
 20
-12.20000000000004
  0
LWPOLYLINE
  5
635A
330
6318
100
AcDbEntity
  8
10
  6
CONTINOUS
100
AcDbPolyline
 90
        3
 70
     0
 43
0.0
 10
9.968394379944244
 20
-12.00000000000011
 10
9.968394379944244
 20
-20.0
 10
-0.0316056200557569
 20
-20.0
  0
LWPOLYLINE
  5
635B
330
6318
100
AcDbEntity
  8
10
  6
CONTINOUS
100
AcDbPolyline
 90
        4
 70
     0
 43
0.0
 10
8.206321124010967
 20
-22.0
 10
13.26839437994397
 20
-22.0
 10
13.26839437994397
 20
-19.0
 10
9.968394379944244
 20
-19.0
  0
LINE
  5
635C
330
6318
100
AcDbEntity
  8
24
  6
CONTINOUS
100
AcDbLine
 10
11.76839437994397
 20
-15.5
 30
0.0
 11
10.96839437994424
 21
-15.80769230760006
 31
0.0
  0
LINE
  5
635D
330
6318
100
AcDbEntity
  8
24
  6
CONTINOUS
100
AcDbLine
 10
11.76839437994397
 20
-15.00000000000011
 30
0.0
 11
10.96839437994424
 21
-15.30769230760006
 31
0.0
  0
LINE
  5
635E
330
6318
100
AcDbEntity
  8
24
  6
CONTINOUS
100
AcDbLine
 10
10.96839437994424
 20
-12.00000000000011
 30
0.0
 11
10.96839437994424
 21
-19.0
 31
0.0
  0
LWPOLYLINE
  5
635F
330
6318
100
AcDbEntity
  8
24
  6
CONTINOUS
100
AcDbPolyline
 90
       18
 70
     0
 43
0.0
 10
11.76839437994397
 20
-12.50000000000011
 10
12.8220925917667
 20
-12.59218664809907
 42
-0.3142202440833934
 10
13.78761396783591
 20
-13.39913138109449
 42
-0.0056715522299757
 10
13.83328383874425
 20
-13.57477489720009
 10
13.83328383864784
 20
-13.62796215626744
 42
-0.026670071057275
 10
13.9882292628422
 20
-14.46870997020545
 42
-0.0147955144204446
 10
14.01628816303389
 20
-14.85541315021493
 42
-0.0301142318753599
 10
13.98822926274408
 20
-15.03885326960005
 10
13.83328383874425
 20
-15.05059371480001
 10
13.83328383874425
 20
-15.94940628480003
 10
13.98822926260766
 20
-15.96114673024155
 42
-0.0301142318753597
 10
14.01628816326229
 20
-16.1445868494259
 42
-0.0147955144204444
 10
13.98822926270918
 20
-16.53129002933741
 42
-0.0266700710572752
 10
13.83328383874425
 20
-17.37203784320002
 10
13.83328383852563
 20
-17.42522510268412
 42
-0.0056715522299757
 10
13.78761396807943
 20
-17.60086861869956
 42
-0.3142202440833934
 10
12.82209259154399
 20
-18.40781335160011
 10
11.76839437994397
 20
-18.5
  0
LWPOLYLINE
  5
6360
330
6318
100
AcDbEntity
  8
24
  6
CONTINOUS
100
AcDbPolyline
 90
        4
 70
     0
 43
0.0
 10
10.96049297493027
 20
-28.80000000000007
 10
11.76049297493
 20
-28.80000000000007
 10
11.76049297493
 20
-22.20000000000005
 10
10.96049297493027
 20
-22.20000000000005
  0
LWPOLYLINE
  5
6361
330
6318
100
AcDbEntity
  8
10
  6
CONTINOUS
100
AcDbPolyline
 90
        3
 70
     0
 43
0.0
 10
9.960492974930275
 20
-22.00000000000011
 10
9.960492974930275
 20
-30.0
 10
-0.0395070250697245
 20
-30.0
  0
LINE
  5
6362
330
6318
100
AcDbEntity
  8
24
  6
CONTINOUS
100
AcDbLine
 10
11.76049297493
 20
-25.5
 30
0.0
 11
10.96049297493027
 21
-25.80769230760007
 31
0.0
  0
LINE
  5
6363
330
6318
100
AcDbEntity
  8
24
  6
CONTINOUS
100
AcDbLine
 10
11.76049297493
 20
-25.00000000000011
 30
0.0
 11
10.96049297493027
 21
-25.30769230760006
 31
0.0
  0
LINE
  5
6364
330
6318
100
AcDbEntity
  8
24
  6
CONTINOUS
100
AcDbLine
 10
10.96049297493027
 20
-22.00000000000011
 30
0.0
 11
10.96049297493027
 21
-29.0
 31
0.0
  0
LWPOLYLINE
  5
6365
330
6318
100
AcDbEntity
  8
24
  6
CONTINOUS
100
AcDbPolyline
 90
       18
 70
     0
 43
0.0
 10
11.76049297493
 20
-22.50000000000011
 10
12.81419118675273
 20
-22.59218664809907
 42
-0.3142202440833934
 10
13.77971256282194
 20
-23.39913138109449
 42
-0.0056715522299757
 10
13.82538243373028
 20
-23.57477489720009
 10
13.82538243363387
 20
-23.62796215626744
 42
-0.026670071057275
 10
13.98032785782823
 20
-24.46870997020545
 42
-0.0147955144204446
 10
14.00838675801992
 20
-24.85541315021493
 42
-0.0301142318753599
 10
13.98032785773011
 20
-25.03885326960006
 10
13.82538243373028
 20
-25.05059371480002
 10
13.82538243373028
 20
-25.94940628480003
 10
13.98032785759369
 20
-25.96114673024155
 42
-0.0301142318753597
 10
14.00838675824832
 20
-26.14458684942591
 42
-0.0147955144204444
 10
13.98032785769521
 20
-26.53129002933741
 42
-0.0266700710572752
 10
13.82538243373028
 20
-27.37203784320002
 10
13.82538243351166
 20
-27.42522510268412
 42
-0.0056715522299757
 10
13.77971256306546
 20
-27.60086861869956
 42
-0.3142202440833934
 10
12.81419118653002
 20
-28.40781335160011
 10
11.76049297493
 20
-28.5
  0
ENDBLK
  5
631A
330
6318
100
AcDbEntity
  8
0
100
AcDbBlockEnd
  0
BLOCK
  5
66D5
330
66D4
100
AcDbEntity
  8
0
100
AcDbBlockBegin
  2
*D21
 70
     1
 10
0.0
 20
0.0
 30
0.0
  3
*D21
  1

  0
LINE
  5
86CE
330
66D4
100
AcDbEntity
  8
30
  6
Continuous
 62
     0
440
 16777216
370
    -2
100
AcDbLine
 10
210.0859417897668
 20
250.7838176443144
 30
0.0
 11
267.2554298344155
 21
250.7838176443144
 31
0.0
  0
LINE
  5
86CF
330
66D4
100
AcDbEntity
  8
30
  6
Continuous
 62
     0
440
 16777216
370
    -2
100
AcDbLine
 10
210.0859417897668
 20
69.78381764431427
 30
0.0
 11
267.2554298344154
 21
69.78381764431425
 31
0.0
  0
LINE
  5
86D0
330
66D4
100
AcDbEntity
  8
30
  6
Continuous
 62
     0
440
 16777216
370
    -2
100
AcDbLine
 10
266.2554298344154
 20
248.7838176443144
 30
0.0
 11
266.2554298344154
 21
71.78381764431425
 31
0.0
  0
INSERT
  5
86D1
330
66D4
100
AcDbEntity
  8
30
  6
Continuous
 62
     0
440
 16777216
370
    -2
100
AcDbBlockReference
  2
_OPEN
 10
266.2554298344154
 20
250.7838176443144
 30
0.0
 41
2.0
 42
2.0
 43
2.0
 50
90.0
  0
INSERT
  5
86D2
330
66D4
100
AcDbEntity
  8
30
  6
Continuous
 62
     0
440
 16777216
370
    -2
100
AcDbBlockReference
  2
_OPEN
 10
266.2554298344154
 20
69.78381764431425
 30
0.0
 41
2.0
 42
2.0
 43
2.0
 50
270.0
  0
MTEXT
  5
86D3
330
66D4
100
AcDbEntity
  8
30
  6
Continuous
 62
     0
440
 16777216
100
AcDbMText
 10
260.2554298344154
 20
160.2838176443143
 30
0.0
 40
8.0
 41
0.0
 46
0.0
 71
     5
 72
     1
  1
\A1;181
 11
0.0000000000000001
 21
1.0
 31
0.0
 73
     1
 44
1.0
 90
        3
 63
     9
421
 13158600
 45
1.1
441
        0
  0
POINT
  5
86D4
330
66D4
100
AcDbEntity
  8
Defpoints
  6
Continuous
 62
     0
440
 16777216
100
AcDbPoint
 10
209.0859417897668
 20
250.7838176443144
 30
0.0
  0
POINT
  5
86D5
330
66D4
100
AcDbEntity
  8
Defpoints
  6
Continuous
 62
     0
440
 16777216
100
AcDbPoint
 10
209.0859417897668
 20
69.78381764431427
 30
0.0
  0
POINT
  5
86D6
330
66D4
100
AcDbEntity
  8
Defpoints
  6
Continuous
 62
     0
440
 16777216
100
AcDbPoint
 10
266.2554298344154
 20
69.78381764431425
 30
0.0
  0
ENDBLK
  5
66D6
330
66D4
100
AcDbEntity
  8
0
100
AcDbBlockEnd
  0
BLOCK
  5
7155
330
7151
100
AcDbEntity
  8
0
100
AcDbBlockBegin
  2
A$C18C025DC
 70
     0
 10
0.0
 20
0.0
 30
0.0
  3
A$C18C025DC
  1

  0
LWPOLYLINE
  5
7152
330
7151
100
AcDbEntity
  8
10
  6
Continuous
100
AcDbPolyline
 90
        4
 70
     1
 43
0.0
 10
0.0
 20
891.0
 10
629.9999999999998
 20
891.0
 10
629.9999999999998
 20
0.0
 10
0.0
 20
0.0
  0
ENDBLK
  5
7156
330
7151
100
AcDbEntity
  8
0
100
AcDbBlockEnd
  0
BLOCK
  5
71CC
330
71C6
100
AcDbEntity
  8
0
100
AcDbBlockBegin
  2
A$C7ADD71F4
 70
     0
 10
0.0
 20
0.0
 30
0.0
  3
A$C7ADD71F4
  1

  0
LINE
  5
71C7
330
71C6
100
AcDbEntity
  8
17
 48
0.5
100
AcDbLine
 10
0.0
 20
-33.8172535967451
 30
0.0
 11
0.0
 21
27.7405552880548
 31
0.0
  0
LINE
  5
71C8
330
71C6
100
AcDbEntity
  8
17
 48
0.5
100
AcDbLine
 10
-9.89028349897535
 20
0.0
 30
0.0
 11
11.60533312264363
 21
0.0
 31
0.0
  0
LWPOLYLINE
  5
71C9
330
71C6
100
AcDbEntity
  8
0
  6
Continuous
 62
     7
100
AcDbPolyline
 90
        5
 70
     0
 43
0.0
 10
-4.233654093795959
 20
2.314887502769009
 10
-4.233654093795959
 20
-1.706399084882264
 42
0.9995984643691707
 10
4.304290957655098
 20
-1.702970138967883
 10
4.304290957655098
 20
2.314887035693118
 42
1.0
 10
-4.23365547091646
 20
2.314887035693118
  0
ENDBLK
  5
71CD
330
71C6
100
AcDbEntity
  8
0
100
AcDbBlockEnd
  0
BLOCK
  5
73A3
330
73A2
100
AcDbEntity
  8
0
100
AcDbBlockBegin
  2
*D24
 70
     1
 10
0.0
 20
0.0
 30
0.0
  3
*D24
  1

  0
LINE
  5
868F
330
73A2
100
AcDbEntity
  8
30
  6
Continuous
 62
     0
440
 16777216
370
    -2
100
AcDbLine
 10
212.1312606355277
 20
537.1312114865491
 30
0.0
 11
262.2340641491947
 21
537.131211486549
 31
0.0
  0
LINE
  5
8690
330
73A2
100
AcDbEntity
  8
30
  6
Continuous
 62
     0
440
 16777216
370
    -2
100
AcDbLine
 10
210.1535175788395
 20
345.1312098177491
 30
0.0
 11
262.2340641491947
 21
345.1312098177491
 31
0.0
  0
LINE
  5
8691
330
73A2
100
AcDbEntity
  8
30
  6
Continuous
 62
     0
440
 16777216
370
    -2
100
AcDbLine
 10
261.2340641491947
 20
535.1312114865492
 30
0.0
 11
261.2340641491946
 21
347.1312098177491
 31
0.0
  0
INSERT
  5
8692
330
73A2
100
AcDbEntity
  8
30
  6
Continuous
 62
     0
440
 16777216
370
    -2
100
AcDbBlockReference
  2
_OPEN
 10
261.2340641491947
 20
537.131211486549
 30
0.0
 41
2.0
 42
2.0
 43
2.0
 50
90.0
  0
INSERT
  5
8693
330
73A2
100
AcDbEntity
  8
30
  6
Continuous
 62
     0
440
 16777216
370
    -2
100
AcDbBlockReference
  2
_OPEN
 10
261.2340641491946
 20
345.1312098177491
 30
0.0
 41
2.0
 42
2.0
 43
2.0
 50
270.0
  0
MTEXT
  5
8694
330
73A2
100
AcDbEntity
  8
30
  6
Continuous
 62
     0
440
 16777216
100
AcDbMText
 10
255.7340641491946
 20
441.1312106521491
 30
0.0
 40
7.0
 41
0.0
 46
0.0
 71
     5
 72
     1
  1
\A1;192
 11
0.0000000000000001
 21
1.0
 31
0.0
 73
     1
 44
1.0
 90
        3
 63
     9
421
 13158600
 45
1.1
441
        0
  0
POINT
  5
8695
330
73A2
100
AcDbEntity
  8
Defpoints
  6
Continuous
 62
     0
440
 16777216
100
AcDbPoint
 10
211.1312606355277
 20
537.1312114865491
 30
0.0
  0
POINT
  5
8696
330
73A2
100
AcDbEntity
  8
Defpoints
  6
Continuous
 62
     0
440
 16777216
100
AcDbPoint
 10
209.1535175788394
 20
345.1312098177491
 30
0.0
  0
POINT
  5
8697
330
73A2
100
AcDbEntity
  8
Defpoints
  6
Continuous
 62
     0
440
 16777216
100
AcDbPoint
 10
261.2340641491946
 20
345.1312098177491
 30
0.0
  0
ENDBLK
  5
73A4
330
73A2
100
AcDbEntity
  8
0
100
AcDbBlockEnd
  0
BLOCK
  5
73E9
330
73E8
100
AcDbEntity
  8
0
100
AcDbBlockBegin
  2
*D25
 70
     1
 10
0.0
 20
0.0
 30
0.0
  3
*D25
  1

  0
LINE
  5
8305
330
73E8
100
AcDbEntity
  8
30
  6
Continuous
 62
     0
440
 16777216
370
    -2
100
AcDbLine
 10
210.1049721108902
 20
190.2586105368249
 30
0.0
 11
208.5125841201394
 21
189.0485276938292
 31
0.0
  0
LINE
  5
8306
330
73E8
100
AcDbEntity
  8
30
  6
Continuous
 62
     0
440
 16777216
370
    -2
100
AcDbLine
 10
218.0669120646438
 20
196.3090247518035
 30
0.0
 11
231.242725190427
 21
206.3215502786455
 31
0.0
  0
LINE
  5
8307
330
73E8
100
AcDbEntity
  8
30
  6
Continuous
 62
     0
440
 16777216
370
    -2
100
AcDbLine
 10
231.242725190427
 20
206.3215502786455
 30
0.0
 11
242.6688615540634
 21
206.3215502786455
 31
0.0
  0
LINE
  5
8308
330
73E8
100
AcDbEntity
  8
30
  6
Continuous
 62
     0
440
 16777216
370
    -2
100
AcDbLine
 10
211.697360101641
 20
191.4686933798207
 30
0.0
 11
216.474524073893
 21
195.0989419088078
 31
0.0
  0
INSERT
  5
8309
330
73E8
100
AcDbEntity
  8
30
  6
Continuous
 62
     0
440
 16777216
370
    -2
100
AcDbBlockReference
  2
_OPEN
 10
211.697360101641
 20
191.4686933798207
 30
0.0
 41
2.0
 42
2.0
 43
2.0
 50
37.23182259348344
  0
INSERT
  5
830A
330
73E8
100
AcDbEntity
  8
30
  6
Continuous
 62
     0
440
 16777216
370
    -2
100
AcDbBlockReference
  2
_OPEN
 10
216.474524073893
 20
195.0989419088078
 30
0.0
 41
2.0
 42
2.0
 43
2.0
 50
217.2318225934835
  0
MTEXT
  5
830B
330
73E8
100
AcDbEntity
  8
30
  6
Continuous
 62
     0
440
 16777216
100
AcDbMText
 10
237.9557933722452
 20
211.8215502786455
 30
0.0
 40
7.0
 41
0.0
 46
0.0
 71
     5
 72
     1
  1
\A1;∅6
 73
     1
 44
1.0
  0
POINT
  5
830C
330
73E8
100
AcDbEntity
  8
Defpoints
  6
Continuous
 62
     0
440
 16777216
100
AcDbPoint
 10
216.474524073893
 20
195.0989419088078
 30
0.0
  0
POINT
  5
830D
330
73E8
100
AcDbEntity
  8
Defpoints
  6
Continuous
 62
     0
440
 16777216
100
AcDbPoint
 10
211.697360101641
 20
191.4686933798207
 30
0.0
  0
ENDBLK
  5
73EA
330
73E8
100
AcDbEntity
  8
0
100
AcDbBlockEnd
  0
BLOCK
  5
7401
330
73FD
100
AcDbEntity
  8
0
100
AcDbBlockBegin
  2
A$C309218B0
 70
     0
 10
0.0
 20
0.0
 30
0.0
  3
A$C309218B0
  1

  0
MTEXT
  5
73FE
330
73FD
100
AcDbEntity
  8
0
  6
Continuous
100
AcDbMText
 10
-262.0055925361933
 20
-145.6973594171987
 30
0.0
 40
8.0
 41
196.6431052441735
 46
0.0
 71
     1
 72
     5
  1
PS125-NF (60-125A) 3P FP\PPS50-PF (60-125A) 3P FP\PPS125-PF (60-125A) 3P FP\PPS125-NE (60-125A) 3P FP\PPS125-PE (60-125A) 3P FP
  7
STANDARD1
 73
     1
 44
1.0
  0
ENDBLK
  5
7402
330
73FD
100
AcDbEntity
  8
0
100
AcDbBlockEnd
  0
BLOCK
  5
7472
330
7471
100
AcDbEntity
  8
0
100
AcDbBlockBegin
  2
*D27
 70
     1
 10
0.0
 20
0.0
 30
0.0
  3
*D27
  1

  0
LINE
  5
87B9
330
7471
100
AcDbEntity
  8
30
  6
Continuous
 62
     0
440
 16777216
370
    -2
100
AcDbLine
 10
118.0859417897668
 20
68.78381764431427
 30
0.0
 11
118.0859417897668
 21
33.98413169655123
 31
0.0
  0
LINE
  5
87BA
330
7471
100
AcDbEntity
  8
30
  6
Continuous
 62
     0
440
 16777216
370
    -2
100
AcDbLine
 10
209.0859417897668
 20
68.78381764431427
 30
0.0
 11
209.0859417897668
 21
33.98413169655123
 31
0.0
  0
LINE
  5
87BB
330
7471
100
AcDbEntity
  8
30
  6
Continuous
 62
     0
440
 16777216
370
    -2
100
AcDbLine
 10
120.0859417897668
 20
34.98413169655123
 30
0.0
 11
207.0859417897668
 21
34.98413169655123
 31
0.0
  0
INSERT
  5
87BC
330
7471
100
AcDbEntity
  8
30
  6
Continuous
 62
     0
440
 16777216
370
    -2
100
AcDbBlockReference
  2
_OPEN
 10
118.0859417897668
 20
34.98413169655123
 30
0.0
 41
2.0
 42
2.0
 43
2.0
 50
180.0
  0
INSERT
  5
87BD
330
7471
100
AcDbEntity
  8
30
  6
Continuous
 62
     0
440
 16777216
370
    -2
100
AcDbBlockReference
  2
_OPEN
 10
209.0859417897668
 20
34.98413169655123
 30
0.0
 41
2.0
 42
2.0
 43
2.0
  0
MTEXT
  5
87BE
330
7471
100
AcDbEntity
  8
30
  6
Continuous
 62
     0
440
 16777216
100
AcDbMText
 10
163.5859417897668
 20
40.98413169655123
 30
0.0
 40
8.0
 41
0.0
 46
0.0
 71
     5
 72
     1
  1
\A1;91
 73
     1
 44
1.0
 90
        3
 63
     9
421
 13158600
 45
1.1
441
        0
  0
POINT
  5
87BF
330
7471
100
AcDbEntity
  8
Defpoints
  6
Continuous
 62
     0
440
 16777216
100
AcDbPoint
 10
118.0859417897668
 20
69.78381764431427
 30
0.0
  0
POINT
  5
87C0
330
7471
100
AcDbEntity
  8
Defpoints
  6
Continuous
 62
     0
440
 16777216
100
AcDbPoint
 10
209.0859417897668
 20
69.78381764431427
 30
0.0
  0
POINT
  5
87C1
330
7471
100
AcDbEntity
  8
Defpoints
  6
Continuous
 62
     0
440
 16777216
100
AcDbPoint
 10
209.0859417897668
 20
34.98413169655123
 30
0.0
  0
ENDBLK
  5
7473
330
7471
100
AcDbEntity
  8
0
100
AcDbBlockEnd
  0
BLOCK
  5
748A
330
7489
100
AcDbEntity
  8
0
100
AcDbBlockBegin
  2
*D28
 70
     1
 10
0.0
 20
0.0
 30
0.0
  3
*D28
  1

  0
LINE
  5
86D7
330
7489
100
AcDbEntity
  8
30
  6
Continuous
 62
     0
440
 16777216
370
    -2
100
AcDbLine
 10
220.0859420877667
 20
193.2838176443141
 30
0.0
 11
245.1022357175371
 21
193.2838176443141
 31
0.0
  0
LINE
  5
86D8
330
7489
100
AcDbEntity
  8
30
  6
Continuous
 62
     0
440
 16777216
370
    -2
100
AcDbLine
 10
220.0859420877667
 20
127.2838176443142
 30
0.0
 11
245.1022357175371
 21
127.2838176443142
 31
0.0
  0
LINE
  5
86D9
330
7489
100
AcDbEntity
  8
30
  6
Continuous
 62
     0
440
 16777216
370
    -2
100
AcDbLine
 10
244.102235717537
 20
191.283817644314
 30
0.0
 11
244.102235717537
 21
129.2838176443142
 31
0.0
  0
INSERT
  5
86DA
330
7489
100
AcDbEntity
  8
30
  6
Continuous
 62
     0
440
 16777216
370
    -2
100
AcDbBlockReference
  2
_OPEN
 10
244.1022357175371
 20
193.2838176443141
 30
0.0
 41
2.0
 42
2.0
 43
2.0
 50
90.0
  0
INSERT
  5
86DB
330
7489
100
AcDbEntity
  8
30
  6
Continuous
 62
     0
440
 16777216
370
    -2
100
AcDbBlockReference
  2
_OPEN
 10
244.102235717537
 20
127.2838176443142
 30
0.0
 41
2.0
 42
2.0
 43
2.0
 50
270.0
  0
MTEXT
  5
86DC
330
7489
100
AcDbEntity
  8
30
  6
Continuous
 62
     0
440
 16777216
100
AcDbMText
 10
238.102235717537
 20
160.2838176443142
 30
0.0
 40
8.0
 41
0.0
 46
0.0
 71
     5
 72
     1
  1
\A1;66
 11
0.0000000000000001
 21
1.0
 31
0.0
 73
     1
 44
1.0
 90
        3
 63
     9
421
 13158600
 45
1.1
441
        0
  0
POINT
  5
86DD
330
7489
100
AcDbEntity
  8
Defpoints
  6
Continuous
 62
     0
440
 16777216
100
AcDbPoint
 10
219.0859420877667
 20
193.2838176443141
 30
0.0
  0
POINT
  5
86DE
330
7489
100
AcDbEntity
  8
Defpoints
  6
Continuous
 62
     0
440
 16777216
100
AcDbPoint
 10
219.0859420877667
 20
127.2838176443142
 30
0.0
  0
POINT
  5
86DF
330
7489
100
AcDbEntity
  8
Defpoints
  6
Continuous
 62
     0
440
 16777216
100
AcDbPoint
 10
244.102235717537
 20
127.2838176443142
 30
0.0
  0
ENDBLK
  5
748B
330
7489
100
AcDbEntity
  8
0
100
AcDbBlockEnd
  0
BLOCK
  5
7D7F
330
7D7E
100
AcDbEntity
  8
0
100
AcDbBlockBegin
  2
SW_CENTERMARKSYMBOL_6
 70
     0
 10
0.0
 20
0.0
 30
0.0
  3
SW_CENTERMARKSYMBOL_6
  1
SW_CENTERMARKSYMBOL_6
  0
LINE
  5
7D80
330
7D7E
100
AcDbEntity
  8
240
 62
     0
100
AcDbLine
 10
0.0
 20
0.0
 30
0.0
 11
0.0
 21
2.5
 31
0.0
  0
LINE
  5
7D81
330
7D7E
100
AcDbEntity
  8
240
 62
     0
100
AcDbLine
 10
0.0
 20
0.0
 30
0.0
 11
-2.5
 21
0.0
 31
0.0
  0
LINE
  5
7D82
330
7D7E
100
AcDbEntity
  8
240
 62
     0
100
AcDbLine
 10
0.0
 20
0.0
 30
0.0
 11
0.0
 21
-2.5
 31
0.0
  0
LINE
  5
7D83
330
7D7E
100
AcDbEntity
  8
240
 62
     0
100
AcDbLine
 10
0.0
 20
0.0
 30
0.0
 11
2.5
 21
0.0
 31
0.0
  0
LINE
  5
7D84
330
7D7E
100
AcDbEntity
  8
240
 62
     0
100
AcDbLine
 10
0.0
 20
2.5
 30
0.0
 11
0.0
 21
3.7
 31
0.0
  0
LINE
  5
7D85
330
7D7E
100
AcDbEntity
  8
240
 62
     0
100
AcDbLine
 10
-2.5
 20
0.0
 30
0.0
 11
-3.7
 21
0.0
 31
0.0
  0
LINE
  5
7D86
330
7D7E
100
AcDbEntity
  8
240
 62
     0
100
AcDbLine
 10
0.0
 20
-2.5
 30
0.0
 11
0.0
 21
-3.7
 31
0.0
  0
LINE
  5
7D87
330
7D7E
100
AcDbEntity
  8
240
 62
     0
100
AcDbLine
 10
2.5
 20
0.0
 30
0.0
 11
3.7
 21
0.0
 31
0.0
  0
ENDBLK
  5
7D88
330
7D7E
100
AcDbEntity
  8
0
100
AcDbBlockEnd
  0
BLOCK
  5
8172
330
814A
100
AcDbEntity
  8
0
100
AcDbBlockBegin
  2
A$C23077EED
 70
     0
 10
0.0
 20
0.0
 30
0.0
  3
A$C23077EED
  1

  0
LINE
  5
814B
330
814A
100
AcDbEntity
  8
24
  6
CONTINOUS
100
AcDbLine
 10
5.799128966030592
 20
-11.32304873319992
 30
0.0
 11
5.799128966030592
 21
-12.92304787799992
 31
0.0
  0
ARC
  5
814C
330
814A
100
AcDbEntity
  8
24
  6
CONTINOUS
100
AcDbCircle
 10
5.974127296830602
 20
-14.24804852479997
 30
0.0
 40
0.1750000000000684
100
AcDbArc
 50
270.0
 51
0.0
  0
ARC
  5
814D
330
814A
100
AcDbEntity
  8
24
  6
CONTINOUS
100
AcDbCircle
 10
5.974127296830602
 20
-13.09804852479988
 30
0.0
 40
0.1750000000000684
100
AcDbArc
 50
0.0
 51
90.0
  0
LINE
  5
814E
330
814A
100
AcDbEntity
  8
24
  6
CONTINOUS
100
AcDbLine
 10
6.149127440030611
 20
-13.0980489776
 30
0.0
 11
6.149127440030611
 21
-14.24804795559998
 31
0.0
  0
ARC
  5
814F
330
814A
100
AcDbEntity
  8
24
  6
CONTINOUS
100
AcDbCircle
 10
4.749127296830693
 20
-16.34425061199999
 30
0.0
 40
1.3
100
AcDbArc
 50
302.6992894884049
 51
0.0
  0
LINE
  5
8150
330
814A
100
AcDbEntity
  8
24
  6
CONTINOUS
100
AcDbLine
 10
6.049125747230617
 20
-14.40616314283898
 30
0.0
 11
6.049125747230617
 21
-16.34425018000001
 31
0.0
  0
ARC
  5
8151
330
814A
100
AcDbEntity
  8
24
  6
CONTINOUS
100
AcDbCircle
 10
0.0491272968305339
 20
-9.023048524799262
 30
0.0
 40
10.00000000000073
100
AcDbArc
 50
267.7985461275124
 51
302.6992894884049
  0
LINE
  5
8152
330
814A
100
AcDbEntity
  8
10
  6
CONTINOUS
100
AcDbLine
 10
-7.3994795667694
 20
-38.08465333179242
 30
0.0
 11
-7.307653104539097
 21
-11.32304873320004
 31
0.0
  0
LINE
  5
8153
330
814A
100
AcDbEntity
  8
10
  6
CONTINOUS
100
AcDbLine
 10
5.78626553843048
 20
-3.299999050799896
 30
0.0
 11
5.729637400830597
 21
0.0
 31
0.0
  0
LINE
  5
8154
330
814A
100
AcDbEntity
  8
10
  6
CONTINOUS
100
AcDbLine
 10
9.781240777630612
 20
-3.299999050799896
 30
0.0
 11
5.78626553843048
 21
-3.299999050799896
 31
0.0
  0
SPLINE
  5
8155
330
814A
100
AcDbEntity
  8
10
  6
CONTINOUS
100
AcDbSpline
210
0.0
220
0.0
230
1.0
 70
     8
 71
     3
 72
    13
 73
     9
 74
     0
 42
0.000000001
 43
0.0000000001
 40
0.0
 40
0.0
 40
0.0
 40
0.0
 40
0.1359333841156276
 40
0.2701964075702176
 40
0.4999959066126105
 40
0.7297971636608436
 40
0.8639094857510036
 40
1.0
 40
1.0
 40
1.0
 40
1.0
 10
10.781049088965
 20
-4.291235469471073
 30
0.0
 10
10.77636073293536
 20
-4.220548031097337
 30
0.0
 10
10.76704163178226
 20
-4.080041767436114
 30
0.0
 10
10.67962317800584
 20
-3.833015725259883
 30
0.0
 10
10.50115630144091
 20
-3.573711883809891
 30
0.0
 10
10.24038549833653
 20
-3.397575158053541
 30
0.0
 10
9.992652914518883
 20
-3.312134608251767
 30
0.0
 10
9.852054603038482
 20
-3.304063932250755
 30
0.0
 10
9.781240777502603
 20
-3.299999050985431
 30
0.0
  0
LINE
  5
8156
330
814A
100
AcDbEntity
  8
10
  6
CONTINOUS
100
AcDbLine
 10
11.05613570043067
 20
-36.37304808959993
 30
0.0
 11
10.78104908883062
 21
-4.291235469599996
 31
0.0
  0
LINE
  5
8157
330
814A
100
AcDbEntity
  8
10
  6
CONTINOUS
100
AcDbLine
 10
-5.688012285569358
 20
-3.299999050799896
 30
0.0
 11
-9.682983799569342
 21
-3.299999050799896
 31
0.0
  0
LINE
  5
8158
330
814A
100
AcDbEntity
  8
10
  6
CONTINOUS
100
AcDbLine
 10
-5.631380422769438
 20
0.0
 30
0.0
 11
-5.688012285569358
 21
-3.299999050799896
 31
0.0
  0
LINE
  5
8159
330
814A
100
AcDbEntity
  8
10
  6
CONTINOUS
100
AcDbLine
 10
-10.68279583636945
 20
-4.291235469599996
 30
0.0
 11
-10.95788244756943
 21
-36.37304808959993
 31
0.0
  0
SPLINE
  5
815A
330
814A
100
AcDbEntity
  8
10
  6
CONTINOUS
100
AcDbSpline
210
0.0
220
0.0
230
1.0
 70
     8
 71
     3
 72
    13
 73
     9
 74
     0
 42
0.000000001
 43
0.0000000001
 40
0.0
 40
0.0
 40
0.0
 40
0.0
 40
0.1359332289454908
 40
0.2701975746343308
 40
0.4999975108998482
 40
0.729796675815167
 40
0.8639095686302415
 40
1.0
 40
1.0
 40
1.0
 40
1.0
 10
-9.68298379944747
 20
-3.299999050985431
 30
0.0
 10
-9.753711470593087
 20
-3.304081684923403
 30
0.0
 10
-9.894298473133856
 20
-3.312196829371486
 30
0.0
 10
-10.14207544965063
 20
-3.39749132295924
 30
0.0
 10
-10.40290985708736
 20
-3.573721388678221
 30
0.0
 10
-10.58128546342141
 20
-3.832960727038198
 30
0.0
 10
-10.66884725755869
 20
-4.079942883109197
 30
0.0
 10
-10.67812367951944
 20
-4.220461801822692
 30
0.0
 10
-10.68279583620017
 20
-4.291235469471073
 30
0.0
  0
SPLINE
  5
815B
330
814A
100
AcDbEntity
  8
24
  6
CONTINOUS
100
AcDbSpline
210
0.0
220
0.0
230
1.0
 70
     8
 71
     3
 72
    12
 73
     8
 74
     0
 42
0.000000001
 43
0.0000000001
 40
0.0
 40
0.0
 40
0.0
 40
0.0
 40
0.2302246052763817
 40
0.461465393904272
 40
0.6846481392781254
 40
0.8945815887735514
 40
1.0
 40
1.0
 40
1.0
 40
1.0
 10
-6.048689304461047
 20
-14.24804795552359
 30
0.0
 10
-6.046805751980737
 20
-14.26848180962065
 30
0.0
 10
-6.043030333248677
 20
-14.3094397103564
 30
0.0
 10
-6.010634250382622
 20
-14.36381094865896
 30
0.0
 10
-5.963091038475454
 20
-14.40317989600316
 30
0.0
 10
-5.914593486286776
 20
-14.42102083837733
 30
0.0
 10
-5.884947173037858
 20
-14.4225409123959
 30
0.0
 10
-5.875036759843395
 20
-14.42304905522917
 30
0.0
  0
LINE
  5
815C
330
814A
100
AcDbEntity
  8
24
  6
CONTINOUS
100
AcDbLine
 10
-5.875036759969472
 20
-14.42304905519995
 30
0.0
 11
5.974128202830567
 21
-14.42304905519995
 31
0.0
  0
LINE
  5
815D
330
814A
100
AcDbEntity
  8
24
  6
CONTINOUS
100
AcDbLine
 10
-5.875874044281772
 20
-12.92304852479992
 30
0.0
 11
5.974128202830567
 21
-12.92304787799992
 31
0.0
  0
ELLIPSE
  5
815E
330
814A
100
AcDbEntity
  8
24
  6
CONTINOUS
100
AcDbEllipse
 10
-22.08573108739404
 20
-13.70350724510763
 30
0.0
 11
-11.34643601874679
 21
11.34643601874678
 31
0.0
210
0.0
220
0.0
230
-1.0
 40
0.9999999999999984
 41
2.318453509821118
 42
2.390136670339345
  0
LINE
  5
815F
330
814A
100
AcDbEntity
  8
10
  6
CONTINOUS
100
AcDbLine
 10
2.057778940830528
 20
-7.123048417599872
 30
0.0
 11
-1.95952382556936
 21
-7.123048417599872
 31
0.0
  0
ARC
  5
8160
330
814A
100
AcDbEntity
  8
10
  6
CONTINOUS
100
AcDbCircle
 10
2.057778665230557
 20
-7.623048524799969
 30
0.0
 40
0.5
100
AcDbArc
 50
1.000000000001761
 51
90.0
  0
LINE
  5
8161
330
814A
100
AcDbEntity
  8
10
  6
CONTINOUS
100
AcDbLine
 10
2.575311170430607
 20
-8.623047731999918
 30
0.0
 11
2.557701723230593
 21
-7.614322938399936
 31
0.0
  0
LINE
  5
8162
330
814A
100
AcDbEntity
  8
10
  6
CONTINOUS
100
AcDbLine
 10
10.81819236285525
 20
-8.623047731999918
 30
0.0
 11
2.575311170430607
 21
-8.623047731999918
 31
0.0
  0
LINE
  5
8163
330
814A
100
AcDbEntity
  8
10
  6
CONTINOUS
100
AcDbLine
 10
-2.477056054769374
 20
-8.623047731999918
 30
0.0
 11
-10.71993911034008
 21
-8.623047731999804
 31
0.0
  0
ARC
  5
8164
330
814A
100
AcDbEntity
  8
24
  6
CONTINOUS
100
AcDbCircle
 10
0.0491272968306475
 20
-16.82304852480001
 30
0.0
 40
3.250000000000069
100
AcDbArc
 50
214.3365734082007
 51
325.6634265917993
  0
LINE
  5
8165
330
814A
100
AcDbEntity
  8
10
  6
CONTINOUS
100
AcDbLine
 10
10.84134361479766
 20
-11.32304873319992
 30
0.0
 11
-10.74309036224883
 21
-11.32304873320004
 31
0.0
  0
LINE
  5
8166
330
814A
100
AcDbEntity
  8
10
  6
CONTINOUS
100
AcDbLine
 10
7.528755735082312
 20
-34.15487986079995
 30
0.0
 11
-7.385995427809119
 21
-34.15487986080008
 31
0.0
  0
SPLINE
  5
8167
330
814A
100
AcDbEntity
  8
24
  6
CONTINOUS
100
AcDbSpline
210
0.0
220
0.0
230
1.0
 70
     8
 71
     3
 72
    15
 73
    11
 74
     0
 42
0.000000001
 43
0.0000000001
 40
0.0191599181193224
 40
0.0191599181193224
 40
0.0191599181193224
 40
0.0191599181193224
 40
0.0275388957707847
 40
0.1849948866841793
 40
0.3424510465127668
 40
0.4999072371049071
 40
0.6573634276970476
 40
0.8148194186104419
 40
0.9722755223894999
 40
0.9806563850672594
 40
0.9806563850672594
 40
0.9806563850672594
 40
0.9806563850672594
 10
3.484727702645386
 20
-18.41435566766335
 30
0.0
 10
3.479443205910115
 20
-18.43937900411697
 30
0.0
 10
3.366831230923593
 20
-18.93205815167721
 30
0.0
 10
2.702403750653843
 20
-19.74958477771611
 30
0.0
 10
1.509701413642573
 20
-20.58264338781453
 30
0.0
 10
0.049122276192179
 20
-20.86825221452386
 30
0.0
 10
-1.411430237836725
 20
-20.58263897038637
 30
0.0
 10
-2.604210880321712
 20
-19.74960335055755
 30
0.0
 10
-3.268442825549755
 20
-18.93200897061001
 30
0.0
 10
-3.381207408496377
 20
-18.43937260229541
 30
0.0
 10
-3.386499955762586
 20
-18.4143458463227
 30
0.0
  0
LINE
  5
8168
330
814A
100
AcDbEntity
  8
10
  6
CONTINOUS
100
AcDbLine
 10
7.542239874042593
 20
-38.08465333179242
 30
0.0
 11
7.450413411812291
 21
-11.32304873320004
 31
0.0
  0
LINE
  5
8169
330
814A
100
AcDbEntity
  8
24
  6
CONTINOUS
100
AcDbLine
 10
-5.700871987969432
 20
-12.92304787799992
 30
0.0
 11
-5.700871987969432
 21
-11.32304873319992
 31
0.0
  0
ARC
  5
816A
330
814A
100
AcDbEntity
  8
24
  6
CONTINOUS
100
AcDbCircle
 10
-4.650872703169396
 20
-16.34425061199999
 30
0.0
 40
1.3
100
AcDbArc
 50
180.0
 51
237.3007105115951
  0
LINE
  5
816B
330
814A
100
AcDbEntity
  8
24
  6
CONTINOUS
100
AcDbLine
 10
-5.950872494369491
 20
-16.34425018000001
 30
0.0
 11
-5.950872494369491
 21
-14.40577571755034
 31
0.0
  0
ARC
  5
816C
330
814A
100
AcDbEntity
  8
24
  6
CONTINOUS
100
AcDbCircle
 10
0.0491272968306475
 20
-9.023048524799943
 30
0.0
 40
10.00000000000003
100
AcDbArc
 50
237.3007105115951
 51
270.7795451585671
  0
LINE
  5
816D
330
814A
100
AcDbEntity
  8
10
  6
CONTINOUS
100
AcDbLine
 10
-2.459448470369351
 20
-7.614322938399936
 30
0.0
 11
-2.477056054769374
 21
-8.623047731999918
 31
0.0
  0
ARC
  5
816E
330
814A
100
AcDbEntity
  8
10
  6
CONTINOUS
100
AcDbCircle
 10
-1.959524071569489
 20
-7.623048524799969
 30
0.0
 40
0.5000000000000088
100
AcDbArc
 50
90.0
 51
179.0000000000047
  0
ARC
  5
816F
330
814A
100
AcDbEntity
  8
24
  6
CONTINOUS
100
AcDbCircle
 10
-5.875874044281772
 20
-13.09804852479988
 30
0.0
 40
0.1750000000000684
100
AcDbArc
 50
90.0
 51
180.0
  0
ENDBLK
  5
8173
330
814A
100
AcDbEntity
  8
0
100
AcDbBlockEnd
  0
BLOCK
  5
81BF
330
81BC
100
AcDbEntity
  8
0
100
AcDbBlockBegin
  2
A$C37787D9A
 70
     0
 10
0.0
 20
0.0
 30
0.0
  3
A$C37787D9A
  1

  0
LINE
  5
81C0
330
81BC
100
AcDbEntity
  8
10
  6
CONTINOUS
100
AcDbLine
 10
-2.0
 20
-19.20000000000004
 30
0.0
 11
-7.835235792091451
 21
-19.24528263327227
 31
0.0
  0
LINE
  5
81C1
330
81BC
100
AcDbEntity
  8
10
  6
CONTINOUS
100
AcDbLine
 10
-7.302727501200022
 20
22.83762028759998
 30
0.0
 11
-2.0
 21
22.93017974040004
 31
0.0
  0
LINE
  5
81C2
330
81BC
100
AcDbEntity
  8
10
  6
CONTINOUS
100
AcDbLine
 10
-7.302721334000125
 20
-21.83762039480007
 30
0.0
 11
-2.0
 21
-21.93017973999997
 31
0.0
  0
LINE
  5
81C3
330
81BC
100
AcDbEntity
  8
10
  6
CONTINOUS
100
AcDbLine
 10
-8.069541355730166
 20
-15.53235591842883
 30
0.0
 11
-2.049999959200249
 21
-15.5995636568
 31
0.0
  0
SPLINE
  5
81C4
330
81BC
100
AcDbEntity
  8
10
  6
CONTINOUS
100
AcDbSpline
210
0.0
220
0.0
230
1.0
 70
     8
 71
     3
 72
    11
 73
     7
 74
     0
 42
0.000000001
 43
0.0000000001
 40
0.0
 40
0.0
 40
0.0
 40
0.0
 40
0.2500000000000094
 40
0.4999999999999905
 40
0.749999999999996
 40
1.0
 40
1.0
 40
1.0
 40
1.0
 10
-7.302727490332928
 20
-21.83762028745923
 30
0.0
 10
-7.352011672625848
 20
-21.83143385152562
 30
0.0
 10
-7.450580037212603
 20
-21.81906097965839
 30
0.0
 10
-7.576257749889464
 20
-21.73430905271596
 30
0.0
 10
-7.667891236099876
 20
-21.61355690661048
 30
0.0
 10
-7.685745584104552
 20
-21.51583263780878
 30
0.0
 10
-7.694672758106659
 20
-21.46697050340811
 30
0.0
  0
LINE
  5
81C5
330
81BC
100
AcDbEntity
  8
10
  6
CONTINOUS
100
AcDbLine
 10
-2.0
 20
25.43017974040004
 30
0.0
 11
-2.0
 21
-24.33017974000006
 31
0.0
  0
LINE
  5
81C6
330
81BC
100
AcDbEntity
  8
10
  6
CONTINOUS
100
AcDbLine
 10
0.0
 20
25.46508987039999
 30
0.0
 11
-2.0
 21
25.43017974040004
 31
0.0
  0
LINE
  5
81C7
330
81BC
100
AcDbEntity
  8
10
  6
CONTINOUS
100
AcDbLine
 10
0.0
 20
-24.36508987000002
 30
0.0
 11
-2.0
 21
-24.33017974000006
 31
0.0
  0
LINE
  5
81C8
330
81BC
100
AcDbEntity
  8
10
  6
CONTINOUS
100
AcDbLine
 10
-2.055530328399981
 20
-15.70000000000004
 30
0.0
 11
-8.059540785589772
 21
-15.70000000000004
 31
0.0
  0
LINE
  5
81C9
330
81BC
100
AcDbEntity
  8
10
  6
CONTINOUS
100
AcDbLine
 10
-2.02708363360034
 20
-19.10000000000002
 30
0.0
 11
-7.844427617816562
 21
-19.10000000000002
 31
0.0
  0
SPLINE
  5
81CA
330
81BC
100
AcDbEntity
  8
10
  6
CONTINOUS
100
AcDbSpline
210
0.0
220
0.0
230
1.0
 70
     8
 71
     3
 72
     9
 73
     5
 74
     0
 42
0.000000001
 43
0.0000000001
 40
0.0
 40
0.0
 40
0.0
 40
0.0
 40
0.5307938312772637
 40
0.9910671933770951
 40
0.9910671933770951
 40
0.9910671933770951
 40
0.9910671933770951
 10
-23.30386255404437
 20
9.324609705199916
 30
0.0
 10
-15.53551226832815
 20
8.234002414561928
 30
0.0
 10
-12.6071357124789
 20
7.931301712168476
 30
0.0
 10
-9.750735795484617
 20
7.222125559231585
 30
0.0
 10
-8.424456522773082
 20
6.891099478436387
 30
0.0
  0
LINE
  5
81CB
330
81BC
100
AcDbEntity
  8
10
  6
CONTINOUS
100
AcDbLine
 10
-24.89581385204383
 20
11.72068903080003
 30
0.0
 11
-24.17592726204385
 21
14.99492101239991
 31
0.0
  0
LINE
  5
81CC
330
81BC
100
AcDbEntity
  8
10
  6
CONTINOUS
100
AcDbLine
 10
-21.72574926404422
 20
16.50228057399999
 30
0.0
 11
-8.199582744267218
 21
13.06088525410939
 31
0.0
  0
ARC
  5
81CD
330
81BC
100
AcDbEntity
  8
10
  6
CONTINOUS
100
AcDbCircle
 10
-22.94290474884428
 20
11.29131411720003
 30
0.0
 40
1.999554145593261
100
AcDbArc
 50
167.5999999998046
 51
259.5999999999035
  0
ARC
  5
81CE
330
81BC
100
AcDbEntity
  8
10
  6
CONTINOUS
100
AcDbCircle
 10
-22.2230181588443
 20
14.56554609879993
 30
0.0
 40
1.999554145593456
100
AcDbArc
 50
75.5999999998952
 51
167.5999999999049
  0
LINE
  5
81CF
330
81BC
100
AcDbEntity
  8
0
  6
SLD-実線
 62
     8
370
     0
100
AcDbLine
 10
-17.10388644600016
 20
8.396122475999957
 30
0.0
 11
-17.10383141520015
 21
8.396565094799937
 31
0.0
  0
LINE
  5
81D0
330
81BC
100
AcDbEntity
  8
0
  6
SLD-実線
 62
     8
370
     0
100
AcDbLine
 10
-21.72563838484439
 20
16.50271242119993
 30
0.0
 11
-21.72574926404422
 21
16.50228057399999
 31
0.0
  0
LINE
  5
81D1
330
81BC
100
AcDbEntity
  8
0
  6
SLD-実線
 62
     8
370
     0
100
AcDbLine
 10
-23.30394303924413
 20
9.324171175599984
 30
0.0
 11
-23.30386255404437
 21
9.324609705199916
 31
0.0
  0
LINE
  5
81D2
330
81BC
100
AcDbEntity
  8
0
  6
SLD-実線
 62
     8
370
     0
100
AcDbLine
 10
-17.70295989760007
 20
8.475136915599932
 30
0.0
 11
-17.70290054400038
 21
8.47557908519991
 31
0.0
  0
LINE
  5
81D3
330
81BC
100
AcDbEntity
  8
0
  6
SLD-実線
 62
     8
370
     0
100
AcDbLine
 10
-24.17636271564425
 20
14.99501675319993
 30
0.0
 11
-24.17592726204385
 21
14.99492101239991
 31
0.0
  0
LINE
  5
81D4
330
81BC
100
AcDbEntity
  8
0
  6
SLD-実線
 62
     8
370
     0
100
AcDbLine
 10
-24.89624930564423
 20
11.72078477119987
 30
0.0
 11
-24.89581385204383
 21
11.72068903080003
 31
0.0
  0
LWPOLYLINE
  5
81D5
330
81BC
100
AcDbEntity
  8
10
  6
CONTINOUS
100
AcDbPolyline
 90
       11
 70
     0
 43
0.0
 10
-2.0
 20
-21.93017973999997
 10
-7.302727490332928
 20
-21.83762028745923
 10
-7.570583709007562
 20
-21.72830901915592
 10
-7.694672758106659
 20
-21.46697050340811
 10
-8.059540785589772
 20
-15.70000000000004
 10
-8.085474515946316
 20
-15.26526114548278
 10
-8.424456522773082
 20
6.891099478436387
 10
-8.199582744267331
 20
13.06088525410939
 10
-7.694672758106659
 20
22.46697050376599
 10
-7.302727490332928
 20
22.83762028782598
 10
-2.0
 20
22.93017974040004
  0
ENDBLK
  5
81D6
330
81BC
100
AcDbEntity
  8
0
100
AcDbBlockEnd
  0
BLOCK
  5
848F
330
848E
100
AcDbEntity
  8
0
100
AcDbBlockBegin
  2
*D32
 70
     1
 10
0.0
 20
0.0
 30
0.0
  3
*D32
  1

  0
LINE
  5
86EA
330
848E
100
AcDbEntity
  8
30
  6
Continuous
 62
     0
440
 16777216
370
    -2
100
AcDbLine
 10
179.1459370209667
 20
774.3441203377844
 30
0.0
 11
179.1459370209667
 21
840.6971093030531
 31
0.0
  0
LINE
  5
86EB
330
848E
100
AcDbEntity
  8
30
  6
Continuous
 62
     0
440
 16777216
370
    -2
100
AcDbLine
 10
149.1459370209667
 20
819.651721257466
 30
0.0
 11
149.1459370209667
 21
840.6971093030531
 31
0.0
  0
LINE
  5
86EC
330
848E
100
AcDbEntity
  8
30
  6
Continuous
 62
     0
440
 16777216
370
    -2
100
AcDbLine
 10
177.1459370209667
 20
839.6971093030531
 30
0.0
 11
151.1459370209666
 21
839.6971093030531
 31
0.0
  0
INSERT
  5
86ED
330
848E
100
AcDbEntity
  8
30
  6
Continuous
 62
     0
440
 16777216
370
    -2
100
AcDbBlockReference
  2
_OPEN
 10
179.1459370209667
 20
839.6971093030531
 30
0.0
 41
2.0
 42
2.0
 43
2.0
  0
INSERT
  5
86EE
330
848E
100
AcDbEntity
  8
30
  6
Continuous
 62
     0
440
 16777216
370
    -2
100
AcDbBlockReference
  2
_OPEN
 10
149.1459370209667
 20
839.6971093030531
 30
0.0
 41
2.0
 42
2.0
 43
2.0
 50
180.0
  0
MTEXT
  5
86EF
330
848E
100
AcDbEntity
  8
30
  6
Continuous
 62
     0
440
 16777216
100
AcDbMText
 10
164.1459370209665
 20
849.6971093030531
 30
0.0
 40
8.0
 41
0.0
 46
0.0
 71
     2
 72
     1
  1
\A1;30
 73
     1
 44
1.0
 90
        3
 63
     9
421
 13158600
 45
1.1
441
        0
  0
POINT
  5
86F0
330
848E
100
AcDbEntity
  8
Defpoints
  6
Continuous
 62
     0
440
 16777216
100
AcDbPoint
 10
179.1459370209667
 20
773.3441203377844
 30
0.0
  0
POINT
  5
86F1
330
848E
100
AcDbEntity
  8
Defpoints
  6
Continuous
 62
     0
440
 16777216
100
AcDbPoint
 10
149.1459370209667
 20
818.651721257466
 30
0.0
  0
POINT
  5
86F2
330
848E
100
AcDbEntity
  8
Defpoints
  6
Continuous
 62
     0
440
 16777216
100
AcDbPoint
 10
149.1459370209667
 20
839.6971093030531
 30
0.0
  0
ENDBLK
  5
8490
330
848E
100
AcDbEntity
  8
0
100
AcDbBlockEnd
  0
BLOCK
  5
849B
330
849A
100
AcDbEntity
  8
0
100
AcDbBlockBegin
  2
*D33
 70
     1
 10
0.0
 20
0.0
 30
0.0
  3
*D33
  1

  0
LINE
  5
878E
330
849A
100
AcDbEntity
  8
30
  6
Continuous
 62
     0
440
 16777216
370
    -2
100
AcDbLine
 10
179.181254764336
 20
751.1009475745397
 30
0.0
 11
234.8531887328072
 21
751.1009475745397
 31
0.0
  0
LINE
  5
878F
330
849A
100
AcDbEntity
  8
30
  6
Continuous
 62
     0
440
 16777216
370
    -2
100
AcDbLine
 10
179.181254764336
 20
763.6009475745397
 30
0.0
 11
234.8531887328072
 21
763.6009475745397
 31
0.0
  0
LINE
  5
8790
330
849A
100
AcDbEntity
  8
30
  6
Continuous
 62
     0
440
 16777216
370
    -2
100
AcDbLine
 10
233.8531887328072
 20
761.6009475745397
 30
0.0
 11
233.8531887328072
 21
753.1009475745397
 31
0.0
  0
LINE
  5
8791
330
849A
100
AcDbEntity
  8
30
  6
Continuous
 62
     0
440
 16777216
370
    -2
100
AcDbLine
 10
233.8531887328072
 20
751.1009475745397
 30
0.0
 11
233.8531887328072
 21
725.1009475745397
 31
0.0
  0
INSERT
  5
8792
330
849A
100
AcDbEntity
  8
30
  6
Continuous
 62
     0
440
 16777216
370
    -2
100
AcDbBlockReference
  2
_OPEN
 10
233.8531887328072
 20
763.6009475745397
 30
0.0
 41
2.0
 42
2.0
 43
2.0
 50
90.0
  0
INSERT
  5
8793
330
849A
100
AcDbEntity
  8
30
  6
Continuous
 62
     0
440
 16777216
370
    -2
100
AcDbBlockReference
  2
_OPEN
 10
233.8531887328072
 20
751.1009475745397
 30
0.0
 41
2.0
 42
2.0
 43
2.0
 50
270.0
  0
MTEXT
  5
8794
330
849A
100
AcDbEntity
  8
30
  6
Continuous
 62
     0
440
 16777216
100
AcDbMText
 10
223.8531887328071
 20
736.1009475745397
 30
0.0
 40
8.0
 41
0.0
 46
0.0
 71
     2
 72
     1
  1
\A1;12.5
 11
0.0000000000000001
 21
1.0
 31
0.0
 73
     1
 44
1.0
 90
        3
 63
     9
421
 13158600
 45
1.1
441
        0
  0
POINT
  5
8795
330
849A
100
AcDbEntity
  8
Defpoints
  6
Continuous
 62
     0
440
 16777216
100
AcDbPoint
 10
178.181254764336
 20
751.1009475745397
 30
0.0
  0
POINT
  5
8796
330
849A
100
AcDbEntity
  8
Defpoints
  6
Continuous
 62
     0
440
 16777216
100
AcDbPoint
 10
178.181254764336
 20
763.6009475745397
 30
0.0
  0
POINT
  5
8797
330
849A
100
AcDbEntity
  8
Defpoints
  6
Continuous
 62
     0
440
 16777216
100
AcDbPoint
 10
233.8531887328072
 20
763.6009475745397
 30
0.0
  0
ENDBLK
  5
849C
330
849A
100
AcDbEntity
  8
0
100
AcDbBlockEnd
  0
BLOCK
  5
84A9
330
84A8
100
AcDbEntity
  8
0
100
AcDbBlockBegin
  2
*D34
 70
     1
 10
0.0
 20
0.0
 30
0.0
  3
*D34
  1

  0
LINE
  5
873E
330
84A8
100
AcDbEntity
  8
30
  6
Continuous
 62
     0
440
 16777216
370
    -2
100
AcDbLine
 10
171.1459370565667
 20
771.9361982519922
 30
0.0
 11
171.1459370565667
 21
812.326512083108
 31
0.0
  0
LINE
  5
873F
330
84A8
100
AcDbEntity
  8
30
  6
Continuous
 62
     0
440
 16777216
370
    -2
100
AcDbLine
 10
187.1459364633667
 20
772.0692820584692
 30
0.0
 11
187.1459364633667
 21
812.326512083108
 31
0.0
  0
LINE
  5
8740
330
84A8
100
AcDbEntity
  8
30
  6
Continuous
 62
     0
440
 16777216
370
    -2
100
AcDbLine
 10
173.1459370565667
 20
811.3265120831082
 30
0.0
 11
185.1459364633667
 21
811.3265120831082
 31
0.0
  0
LINE
  5
8741
330
84A8
100
AcDbEntity
  8
30
  6
Continuous
 62
     0
440
 16777216
370
    -2
100
AcDbLine
 10
187.1459364633667
 20
811.3265120831082
 30
0.0
 11
207.8258684630561
 21
811.3265120831082
 31
0.0
  0
INSERT
  5
8742
330
84A8
100
AcDbEntity
  8
30
  6
Continuous
 62
     0
440
 16777216
370
    -2
100
AcDbBlockReference
  2
_OPEN
 10
171.1459370565667
 20
811.3265120831082
 30
0.0
 41
2.0
 42
2.0
 43
2.0
 50
180.0
  0
INSERT
  5
8743
330
84A8
100
AcDbEntity
  8
30
  6
Continuous
 62
     0
440
 16777216
370
    -2
100
AcDbBlockReference
  2
_OPEN
 10
187.1459364633667
 20
811.3265120831082
 30
0.0
 41
2.0
 42
2.0
 43
2.0
  0
MTEXT
  5
8744
330
84A8
100
AcDbEntity
  8
30
  6
Continuous
 62
     0
440
 16777216
100
AcDbMText
 10
200.9395048266924
 20
821.326512083108
 30
0.0
 40
8.0
 41
0.0
 46
0.0
 71
     2
 72
     1
  1
\A1;16
 73
     1
 44
1.0
 90
        3
 63
     9
421
 13158600
 45
1.1
441
        0
  0
POINT
  5
8745
330
84A8
100
AcDbEntity
  8
Defpoints
  6
Continuous
 62
     0
440
 16777216
100
AcDbPoint
 10
171.1459370565667
 20
770.9361982519922
 30
0.0
  0
POINT
  5
8746
330
84A8
100
AcDbEntity
  8
Defpoints
  6
Continuous
 62
     0
440
 16777216
100
AcDbPoint
 10
187.1459364633667
 20
771.0692820584689
 30
0.0
  0
POINT
  5
8747
330
84A8
100
AcDbEntity
  8
Defpoints
  6
Continuous
 62
     0
440
 16777216
100
AcDbPoint
 10
187.1459364633667
 20
811.3265120831082
 30
0.0
  0
ENDBLK
  5
84AA
330
84A8
100
AcDbEntity
  8
0
100
AcDbBlockEnd
  0
BLOCK
  5
84B6
330
84B5
100
AcDbEntity
  8
0
100
AcDbBlockBegin
  2
*D35
 70
     1
 10
0.0
 20
0.0
 30
0.0
  3
*D35
  1

  0
LINE
  5
8734
330
84B5
100
AcDbEntity
  8
30
  6
Continuous
 62
     0
440
 16777216
370
    -2
100
AcDbLine
 10
174.9502279786218
 20
760.747087324561
 30
0.0
 11
174.9502279786218
 21
794.6976534943237
 31
0.0
  0
LINE
  5
8735
330
84B5
100
AcDbEntity
  8
30
  6
Continuous
 62
     0
440
 16777216
370
    -2
100
AcDbLine
 10
183.4502279786218
 20
760.747087324561
 30
0.0
 11
183.4502279786218
 21
794.6976534943237
 31
0.0
  0
LINE
  5
8736
330
84B5
100
AcDbEntity
  8
30
  6
Continuous
 62
     0
440
 16777216
370
    -2
100
AcDbLine
 10
176.9502279786218
 20
793.6976534943237
 30
0.0
 11
181.4502279786218
 21
793.6976534943237
 31
0.0
  0
LINE
  5
8737
330
84B5
100
AcDbEntity
  8
30
  6
Continuous
 62
     0
440
 16777216
370
    -2
100
AcDbLine
 10
183.4502279786218
 20
793.6976534943237
 30
0.0
 11
207.6584384794834
 21
793.6976534943237
 31
0.0
  0
INSERT
  5
8738
330
84B5
100
AcDbEntity
  8
30
  6
Continuous
 62
     0
440
 16777216
370
    -2
100
AcDbBlockReference
  2
_OPEN
 10
174.9502279786218
 20
793.6976534943237
 30
0.0
 41
2.0
 42
2.0
 43
2.0
 50
180.0
  0
INSERT
  5
8739
330
84B5
100
AcDbEntity
  8
30
  6
Continuous
 62
     0
440
 16777216
370
    -2
100
AcDbBlockReference
  2
_OPEN
 10
183.4502279786218
 20
793.6976534943237
 30
0.0
 41
2.0
 42
2.0
 43
2.0
  0
MTEXT
  5
873A
330
84B5
100
AcDbEntity
  8
30
  6
Continuous
 62
     0
440
 16777216
100
AcDbMText
 10
199.2266202976651
 20
803.6976534943237
 30
0.0
 40
8.0
 41
0.0
 46
0.0
 71
     2
 72
     1
  1
\A1;8.5
 73
     1
 44
1.0
 90
        3
 63
     9
421
 13158600
 45
1.1
441
        0
  0
POINT
  5
873B
330
84B5
100
AcDbEntity
  8
Defpoints
  6
Continuous
 62
     0
440
 16777216
100
AcDbPoint
 10
174.9502279786218
 20
759.747087324561
 30
0.0
  0
POINT
  5
873C
330
84B5
100
AcDbEntity
  8
Defpoints
  6
Continuous
 62
     0
440
 16777216
100
AcDbPoint
 10
183.4502279786218
 20
759.747087324561
 30
0.0
  0
POINT
  5
873D
330
84B5
100
AcDbEntity
  8
Defpoints
  6
Continuous
 62
     0
440
 16777216
100
AcDbPoint
 10
183.4502279786218
 20
793.6976534943237
 30
0.0
  0
ENDBLK
  5
84B7
330
84B5
100
AcDbEntity
  8
0
100
AcDbBlockEnd
  0
BLOCK
  5
84C3
330
84C2
100
AcDbEntity
  8
0
100
AcDbBlockBegin
  2
*D36
 70
     1
 10
0.0
 20
0.0
 30
0.0
  3
*D36
  1

  0
LINE
  5
87FC
330
84C2
100
AcDbEntity
  8
30
  6
Continuous
 62
     0
440
 16777216
370
    -2
100
AcDbLine
 10
105.200486998537
 20
665.0470866093609
 30
0.0
 11
57.86009512709178
 21
665.0470866093609
 31
0.0
  0
LINE
  5
87FD
330
84C2
100
AcDbEntity
  8
30
  6
Continuous
 62
     0
440
 16777216
370
    -2
100
AcDbLine
 10
152.047287186876
 20
822.0416152643258
 30
0.0
 11
57.86009512709181
 21
822.0416152643258
 31
0.0
  0
LINE
  5
87FE
330
84C2
100
AcDbEntity
  8
30
  6
Continuous
 62
     0
440
 16777216
370
    -2
100
AcDbLine
 10
58.86009512709176
 20
667.0470866093609
 30
0.0
 11
58.86009512709181
 21
820.0416152643255
 31
0.0
  0
INSERT
  5
87FF
330
84C2
100
AcDbEntity
  8
30
  6
Continuous
 62
     0
440
 16777216
370
    -2
100
AcDbBlockReference
  2
_OPEN
 10
58.86009512709176
 20
665.0470866093609
 30
0.0
 41
2.0
 42
2.0
 43
2.0
 50
270.0
  0
INSERT
  5
8800
330
84C2
100
AcDbEntity
  8
30
  6
Continuous
 62
     0
440
 16777216
370
    -2
100
AcDbBlockReference
  2
_OPEN
 10
58.86009512709181
 20
822.0416152643258
 30
0.0
 41
2.0
 42
2.0
 43
2.0
 50
90.0
  0
MTEXT
  5
8801
330
84C2
100
AcDbEntity
  8
30
  6
Continuous
 62
     0
440
 16777216
100
AcDbMText
 10
52.86009512709167
 20
743.5443512944432
 30
0.0
 40
8.0
 41
0.0
 46
0.0
 71
     5
 72
     1
  1
\A1;157
 11
0.0000000000000001
 21
1.0
 31
0.0
 73
     1
 44
1.0
 90
        3
 63
     9
421
 13158600
 45
1.1
441
        0
  0
POINT
  5
8802
330
84C2
100
AcDbEntity
  8
Defpoints
  6
Continuous
 62
     0
440
 16777216
100
AcDbPoint
 10
106.200486998537
 20
665.0470866093609
 30
0.0
  0
POINT
  5
8803
330
84C2
100
AcDbEntity
  8
Defpoints
  6
Continuous
 62
     0
440
 16777216
100
AcDbPoint
 10
153.047287186876
 20
822.0416152643258
 30
0.0
  0
POINT
  5
8804
330
84C2
100
AcDbEntity
  8
Defpoints
  6
Continuous
 62
     0
440
 16777216
100
AcDbPoint
 10
58.86009512709181
 20
822.0416152643258
 30
0.0
  0
ENDBLK
  5
84C4
330
84C2
100
AcDbEntity
  8
0
100
AcDbBlockEnd
  0
BLOCK
  5
84CF
330
84CE
100
AcDbEntity
  8
0
100
AcDbBlockBegin
  2
*D37
 70
     1
 10
0.0
 20
0.0
 30
0.0
  3
*D37
  1

  0
LINE
  5
870E
330
84CE
100
AcDbEntity
  8
30
  6
Continuous
 62
     0
440
 16777216
370
    -2
100
AcDbLine
 10
147.3859370209666
 20
822.0416152643258
 30
0.0
 11
118.5979800372024
 21
822.0416152643258
 31
0.0
  0
LINE
  5
870F
330
84CE
100
AcDbEntity
  8
30
  6
Continuous
 62
     0
440
 16777216
370
    -2
100
AcDbLine
 10
144.186238664134
 20
807.0819478597666
 30
0.0
 11
118.5979800372024
 21
807.0819478597666
 31
0.0
  0
LINE
  5
8710
330
84CE
100
AcDbEntity
  8
30
  6
Continuous
 62
     0
440
 16777216
370
    -2
100
AcDbLine
 10
119.5979800372024
 20
820.0416152643255
 30
0.0
 11
119.5979800372024
 21
809.0819478597667
 31
0.0
  0
INSERT
  5
8711
330
84CE
100
AcDbEntity
  8
30
  6
Continuous
 62
     0
440
 16777216
370
    -2
100
AcDbBlockReference
  2
_OPEN
 10
119.5979800372024
 20
822.0416152643258
 30
0.0
 41
2.0
 42
2.0
 43
2.0
 50
90.0
  0
INSERT
  5
8712
330
84CE
100
AcDbEntity
  8
30
  6
Continuous
 62
     0
440
 16777216
370
    -2
100
AcDbBlockReference
  2
_OPEN
 10
119.5979800372024
 20
807.0819478597666
 30
0.0
 41
2.0
 42
2.0
 43
2.0
 50
270.0
  0
MTEXT
  5
8713
330
84CE
100
AcDbEntity
  8
30
  6
Continuous
 62
     0
440
 16777216
100
AcDbMText
 10
113.5979800372023
 20
814.5617815620463
 30
0.0
 40
8.0
 41
0.0
 46
0.0
 71
     5
 72
     1
  1
\A1;15
 11
0.0000000000000001
 21
1.0
 31
0.0
 73
     1
 44
1.0
 90
        3
 63
     9
421
 13158600
 45
1.1
441
        0
  0
POINT
  5
8714
330
84CE
100
AcDbEntity
  8
Defpoints
  6
Continuous
 62
     0
440
 16777216
100
AcDbPoint
 10
148.3859370209667
 20
822.0416152643258
 30
0.0
  0
POINT
  5
8715
330
84CE
100
AcDbEntity
  8
Defpoints
  6
Continuous
 62
     0
440
 16777216
100
AcDbPoint
 10
145.186238664134
 20
807.0819478597666
 30
0.0
  0
POINT
  5
8716
330
84CE
100
AcDbEntity
  8
Defpoints
  6
Continuous
 62
     0
440
 16777216
100
AcDbPoint
 10
119.5979800372024
 20
807.0819478597666
 30
0.0
  0
ENDBLK
  5
84D0
330
84CE
100
AcDbEntity
  8
0
100
AcDbBlockEnd
  0
BLOCK
  5
84DB
330
84DA
100
AcDbEntity
  8
0
100
AcDbBlockBegin
  2
*D38
 70
     1
 10
0.0
 20
0.0
 30
0.0
  3
*D38
  1

  0
LINE
  5
8785
330
84DA
100
AcDbEntity
  8
30
  6
Continuous
 62
     0
440
 16777216
370
    -2
100
AcDbLine
 10
225.5391343886275
 20
665.0470866093609
 30
0.0
 11
262.4923098511026
 21
665.0470866093606
 31
0.0
  0
LINE
  5
8786
330
84DA
100
AcDbEntity
  8
30
  6
Continuous
 62
     0
440
 16777216
370
    -2
100
AcDbLine
 10
182.145937020906
 20
772.0170873245613
 30
0.0
 11
262.4923098511026
 21
772.0170873245613
 31
0.0
  0
LINE
  5
8787
330
84DA
100
AcDbEntity
  8
30
  6
Continuous
 62
     0
440
 16777216
370
    -2
100
AcDbLine
 10
261.4923098511026
 20
667.0470866093607
 30
0.0
 11
261.4923098511026
 21
770.0170873245611
 31
0.0
  0
INSERT
  5
8788
330
84DA
100
AcDbEntity
  8
30
  6
Continuous
 62
     0
440
 16777216
370
    -2
100
AcDbBlockReference
  2
_OPEN
 10
261.4923098511026
 20
665.0470866093606
 30
0.0
 41
2.0
 42
2.0
 43
2.0
 50
270.0
  0
INSERT
  5
8789
330
84DA
100
AcDbEntity
  8
30
  6
Continuous
 62
     0
440
 16777216
370
    -2
100
AcDbBlockReference
  2
_OPEN
 10
261.4923098511026
 20
772.0170873245613
 30
0.0
 41
2.0
 42
2.0
 43
2.0
 50
90.0
  0
MTEXT
  5
878A
330
84DA
100
AcDbEntity
  8
30
  6
Continuous
 62
     0
440
 16777216
100
AcDbMText
 10
255.4923098511025
 20
718.532086966961
 30
0.0
 40
8.0
 41
0.0
 46
0.0
 71
     5
 72
     1
  1
\A1;107
 11
0.0000000000000001
 21
1.0
 31
0.0
 73
     1
 44
1.0
 90
        3
 63
     9
421
 13158600
 45
1.1
441
        0
  0
POINT
  5
878B
330
84DA
100
AcDbEntity
  8
Defpoints
  6
Continuous
 62
     0
440
 16777216
100
AcDbPoint
 10
224.5391343886275
 20
665.0470866093609
 30
0.0
  0
POINT
  5
878C
330
84DA
100
AcDbEntity
  8
Defpoints
  6
Continuous
 62
     0
440
 16777216
100
AcDbPoint
 10
181.145937020906
 20
772.0170873245613
 30
0.0
  0
POINT
  5
878D
330
84DA
100
AcDbEntity
  8
Defpoints
  6
Continuous
 62
     0
440
 16777216
100
AcDbPoint
 10
261.4923098511026
 20
772.0170873245613
 30
0.0
  0
ENDBLK
  5
84DC
330
84DA
100
AcDbEntity
  8
0
100
AcDbBlockEnd
  0
BLOCK
  5
8521
330
8520
100
AcDbEntity
  8
0
100
AcDbBlockBegin
  2
*D39
 70
     1
 10
0.0
 20
0.0
 30
0.0
  3
*D39
  1

  0
LINE
  5
8717
330
8520
100
AcDbEntity
  8
30
  6
Continuous
 62
     0
440
 16777216
370
    -2
100
AcDbLine
 10
180.2581887293119
 20
757.0170873245607
 30
0.0
 11
207.977484885667
 21
757.0170873245607
 31
0.0
  0
LINE
  5
8718
330
8520
100
AcDbEntity
  8
30
  6
Continuous
 62
     0
440
 16777216
370
    -2
100
AcDbLine
 10
180.1586791310283
 20
772.0470873246156
 30
0.0
 11
207.977484885667
 21
772.0470873246156
 31
0.0
  0
LINE
  5
8719
330
8520
100
AcDbEntity
  8
30
  6
Continuous
 62
     0
440
 16777216
370
    -2
100
AcDbLine
 10
206.977484885667
 20
759.0170873245607
 30
0.0
 11
206.977484885667
 21
770.0470873246156
 31
0.0
  0
LINE
  5
871A
330
8520
100
AcDbEntity
  8
30
  6
Continuous
 62
     0
440
 16777216
370
    -2
100
AcDbLine
 10
206.977484885667
 20
772.0470873246156
 30
0.0
 11
206.977484885667
 21
789.8659554771402
 31
0.0
  0
INSERT
  5
871B
330
8520
100
AcDbEntity
  8
30
  6
Continuous
 62
     0
440
 16777216
370
    -2
100
AcDbBlockReference
  2
_OPEN
 10
206.977484885667
 20
757.0170873245607
 30
0.0
 41
2.0
 42
2.0
 43
2.0
 50
270.0
  0
INSERT
  5
871C
330
8520
100
AcDbEntity
  8
30
  6
Continuous
 62
     0
440
 16777216
370
    -2
100
AcDbBlockReference
  2
_OPEN
 10
206.977484885667
 20
772.0470873246156
 30
0.0
 41
2.0
 42
2.0
 43
2.0
 50
90.0
  0
MTEXT
  5
871D
330
8520
100
AcDbEntity
  8
30
  6
Continuous
 62
     0
440
 16777216
100
AcDbMText
 10
200.9774848856669
 20
782.9568645680494
 30
0.0
 40
8.0
 41
0.0
 46
0.0
 71
     5
 72
     1
  1
\A1;15
 11
0.0000000000000001
 21
1.0
 31
0.0
 73
     1
 44
1.0
 90
        3
 63
     9
421
 13158600
 45
1.1
441
        0
  0
POINT
  5
871E
330
8520
100
AcDbEntity
  8
Defpoints
  6
Continuous
 62
     0
440
 16777216
100
AcDbPoint
 10
179.2581887293119
 20
757.0170873245607
 30
0.0
  0
POINT
  5
871F
330
8520
100
AcDbEntity
  8
Defpoints
  6
Continuous
 62
     0
440
 16777216
100
AcDbPoint
 10
179.1586791310283
 20
772.0470873246156
 30
0.0
  0
POINT
  5
8720
330
8520
100
AcDbEntity
  8
Defpoints
  6
Continuous
 62
     0
440
 16777216
100
AcDbPoint
 10
206.977484885667
 20
772.0470873246156
 30
0.0
  0
ENDBLK
  5
8522
330
8520
100
AcDbEntity
  8
0
100
AcDbBlockEnd
  0
ENDSEC
  0
SECTION
  2
ENTITIES
  0
LINE
  5
3AE0
330
1F
100
AcDbEntity
  8
16
 48
5.0
100
AcDbLine
 10
233.125656188513
 20
441.131211665349
 30
0.0
 11
97.18005523980922
 21
441.131211665349
 31
0.0
  0
LINE
  5
3AE2
330
1F
100
AcDbEntity
  8
16
 48
5.0
100
AcDbLine
 10
477.5197747819333
 20
441.131211665349
 30
0.0
 11
311.3559558792505
 21
441.131211665349
 31
0.0
  0
LINE
  5
3AE3
330
1F
100
AcDbEntity
  8
16
 48
5.0
100
AcDbLine
 10
229.4898345703738
 20
160.2838176443142
 30
0.0
 11
80.03602381938597
 21
160.2838176443142
 31
0.0
  0
LINE
  5
3AE4
330
1F
100
AcDbEntity
  8
16
 48
5.0
100
AcDbLine
 10
163.5859417897668
 20
62.53187788146853
 30
0.0
 11
163.5859417897668
 21
261.6672168538002
 31
0.0
  0
CIRCLE
  5
4AEC
330
1F
100
AcDbEntity
  8
10
  6
HIDDEN2
 48
3.0
100
AcDbCircle
 10
113.0859370209667
 20
474.131211665349
 30
0.0
 40
3.0
  0
CIRCLE
  5
4AED
330
1F
100
AcDbEntity
  8
10
  6
HIDDEN2
 48
3.0
100
AcDbCircle
 10
113.0859370209667
 20
408.131211665349
 30
0.0
 40
3.0
  0
CIRCLE
  5
4AEE
330
1F
100
AcDbEntity
  8
10
  6
HIDDEN2
 48
3.0
100
AcDbCircle
 10
214.0859370209668
 20
474.131211665349
 30
0.0
 40
3.0
  0
CIRCLE
  5
4AEF
330
1F
100
AcDbEntity
  8
10
  6
HIDDEN2
 48
3.0
100
AcDbCircle
 10
214.0859370209668
 20
408.131211665349
 30
0.0
 40
3.0
  0
DIMENSION
  5
4AF2
330
1F
100
AcDbEntity
  8
30
  6
Continuous
100
AcDbDimension
280
     0
  2
*D14
 10
102.5859370209667
 20
317.2887587520963
 30
0.0
 11
170.1973409527341
 21
317.2887587520963
 31
0.0
 70
   160
  1
<>
 71
     2
 42
122.0000000000001
 73
     0
 74
     0
 75
     0
  3
STANDARD
100
AcDbAlignedDimension
 13
224.5859370209668
 23
351.1312116653491
 33
0.0
 14
102.5859370209667
 24
351.1312116653491
 34
0.0
100
AcDbRotatedDimension
1001
ACAD
1000
DSTYLE
1002
{
1070
    79
1070
     3
1002
}
  0
INSERT
  5
4AF3
330
1F
100
AcDbEntity
  8
10
  6
HIDDEN2
100
AcDbBlockReference
  2
SW_CENTERMARKSYMBOL_12
 10
214.0859370209668
 20
408.131211665349
 30
0.0
 41
4.0
 42
4.0
 43
4.0
  0
INSERT
  5
4AF4
330
1F
100
AcDbEntity
  8
10
  6
HIDDEN2
100
AcDbBlockReference
  2
SW_CENTERMARKSYMBOL_13
 10
214.0859370209668
 20
474.131211665349
 30
0.0
 41
4.0
 42
4.0
 43
4.0
  0
INSERT
  5
4AF5
330
1F
100
AcDbEntity
  8
10
  6
HIDDEN2
100
AcDbBlockReference
  2
SW_CENTERMARKSYMBOL_14
 10
113.0859370209667
 20
474.131211665349
 30
0.0
 41
4.0
 42
4.0
 43
4.0
  0
INSERT
  5
4AF6
330
1F
100
AcDbEntity
  8
10
  6
HIDDEN2
100
AcDbBlockReference
  2
SW_CENTERMARKSYMBOL_15
 10
113.0859370209667
 20
408.131211665349
 30
0.0
 41
4.0
 42
4.0
 43
4.0
  0
DIMENSION
  5
54C2
330
1F
100
AcDbEntity
  8
30
  6
Continuous
100
AcDbDimension
280
     0
  2
*D15
 10
113.0859420877667
 20
14.47450028322373
 30
0.0
 11
163.4613130969666
 21
14.47450028322373
 31
0.0
 70
   160
  1
<>
 71
     2
 42
101.0
 73
     0
 74
     0
 75
     0
  3
STANDARD
100
AcDbAlignedDimension
 13
214.0859420877667
 23
122.2838176443142
 33
0.0
 14
113.0859420877667
 24
122.2838176443142
 34
0.0
100
AcDbRotatedDimension
1001
ACAD
1000
DSTYLE
1002
{
1070
    79
1070
     3
1002
}
  0
LINE
  5
5C04
330
1F
100
AcDbEntity
  8
10
  6
CONTINOUS
100
AcDbLine
 10
422.5343770236781
 20
374.694069050549
 30
0.0
 11
424.3343770236779
 21
374.6312116653492
 31
0.0
  0
LINE
  5
5D04
330
1F
100
AcDbEntity
  8
10
  6
CONTINOUS
100
AcDbLine
 10
424.3343770236779
 20
372.6312116653492
 30
0.0
 11
426.9343770236782
 21
372.6312116653492
 31
0.0
  0
LINE
  5
5D05
330
1F
100
AcDbEntity
  8
10
  6
CONTINOUS
100
AcDbLine
 10
424.3343770236779
 20
374.6312116653492
 30
0.0
 11
424.3343770236779
 21
372.6312116653492
 31
0.0
  0
LINE
  5
5D06
330
1F
100
AcDbEntity
  8
10
  6
CONTINOUS
100
AcDbLine
 10
426.9343770236782
 20
372.6312116653492
 30
0.0
 11
426.9343770236782
 21
376.6265948341492
 31
0.0
  0
LINE
  5
5D71
330
1F
100
AcDbEntity
  8
10
  6
CONTINOUS
100
AcDbLine
 10
368.8343770236779
 20
376.7225789469045
 30
0.0
 11
423.8431032268781
 21
376.8439134553491
 31
0.0
  0
LINE
  5
5D74
330
1F
100
AcDbEntity
  8
10
  6
CONTINOUS
100
AcDbLine
 10
424.3343770236779
 20
377.3438373029492
 30
0.0
 11
424.3343770236779
 21
396.6312116653492
 31
0.0
  0
SPLINE
  5
5D76
330
1F
100
AcDbEntity
  8
24
  6
CONTINOUS
100
AcDbSpline
210
0.0
220
0.0
230
1.0
 70
     8
 71
     3
 72
    11
 73
     7
 74
     0
 42
0.000000001
 43
0.0000000001
 40
0.0
 40
0.0
 40
0.0
 40
0.0
 40
0.2499999999999934
 40
0.5000000000000058
 40
0.7499999999999965
 40
1.0
 40
1.0
 40
1.0
 40
1.0
 10
424.3343770237856
 20
377.3438373027532
 30
0.0
 10
424.3270307300766
 20
377.2790472647043
 30
0.0
 10
424.3123381426588
 20
377.1494671886074
 30
0.0
 10
424.1991540603471
 20
376.9853719072764
 30
0.0
 10
424.0370591061287
 20
376.8693412059047
 30
0.0
 10
423.907755186712
 20
376.8523893720848
 30
0.0
 10
423.8431032270041
 20
376.8439134551747
 30
0.0
  0
LINE
  5
5D8C
330
1F
100
AcDbEntity
  8
10
  6
CONTINOUS
100
AcDbLine
 10
431.5343770236782
 20
402.0221687927071
 30
0.0
 11
432.8343770236779
 21
402.4953300975908
 31
0.0
  0
LINE
  5
5E13
330
1F
100
AcDbEntity
  8
10
  6
CONTINOUS
100
AcDbLine
 10
422.5343770236781
 20
376.8410267560649
 30
0.0
 11
422.5343770236781
 21
374.694069050549
 31
0.0
  0
LINE
  5
5E14
330
1F
100
AcDbEntity
  8
10
  6
CONTINOUS
100
AcDbLine
 10
424.3343770236779
 20
374.6312116653492
 30
0.0
 11
424.3343770236779
 21
377.238247720949
 31
0.0
  0
DIMENSION
  5
5FB2
330
1F
100
AcDbEntity
  8
30
  6
Continuous
100
AcDbDimension
280
     0
  2
*D16
 10
369.3343770236779
 20
296.2312116653492
 30
0.0
 11
349.0843770236784
 21
296.2312116653492
 31
0.0
 70
   160
  1
<>
 71
     2
 42
40.49999999999953
 73
     0
 74
     0
 75
     0
  3
STANDARD
100
AcDbAlignedDimension
 13
328.8343770236784
 23
450.110015478187
 33
0.0
 14
369.3343770236779
 24
338.807358328753
 34
0.0
100
AcDbRotatedDimension
1001
ACAD
1000
DSTYLE
1002
{
1070
    79
1070
     3
1002
}
  0
DIMENSION
  5
5FB4
330
1F
100
AcDbEntity
  8
30
  6
Continuous
100
AcDbDimension
280
     0
  2
*D17
 10
369.3343770236779
 20
316.2312116653492
 30
0.0
 11
361.8343770236784
 21
316.2312116653492
 31
0.0
 70
   160
  1
<>
 71
     2
 42
14.99999999999954
 73
     0
 74
     0
 75
     0
  3
STANDARD
100
AcDbAlignedDimension
 13
354.3343770236784
 23
340.7650659451245
 33
0.0
 14
369.3343770236779
 24
333.6670308937491
 34
0.0
100
AcDbRotatedDimension
1001
ACAD
1000
DSTYLE
1002
{
1070
    79
1070
     3
1002
}
  0
DIMENSION
  5
5FBA
330
1F
100
AcDbEntity
  8
30
  6
Continuous
100
AcDbDimension
280
     0
  2
*D18
 10
541.8510439772695
 20
382.6312116653491
 30
0.0
 11
541.8510439772695
 21
369.3038734884205
 31
0.0
 70
   160
 71
     2
 42
4.0
 73
     0
 74
     0
 75
     0
  3
STANDARD
100
AcDbAlignedDimension
 13
526.5343770236778
 23
386.6312116653491
 33
0.0
 14
526.5343770236778
 24
382.6312116653491
 34
0.0
 50
90.0
100
AcDbRotatedDimension
1001
ACAD
1000
DSTYLE
1002
{
1070
    79
1070
     3
1002
}
  0
DIMENSION
  5
5FBE
330
1F
100
AcDbEntity
  8
30
  6
Continuous
100
AcDbDimension
280
     0
  2
*D19
 10
556.0583026188511
 20
384.6312116653491
 30
0.0
 11
556.058302618851
 21
442.3663680786191
 31
0.0
 70
   160
  1
<>
 71
     2
 42
113.9999999999999
 73
     0
 74
     0
 75
     0
  3
STANDARD
100
AcDbAlignedDimension
 13
529.6786881084781
 23
498.631211665349
 33
0.0
 14
529.9583178348783
 24
384.6312116653491
 34
0.0
 50
90.0
100
AcDbRotatedDimension
1001
ACAD
1000
DSTYLE
1002
{
1070
    79
1070
     3
1002
}
  0
LWPOLYLINE
  5
620B
330
1F
100
AcDbEntity
  8
24
  6
CONTINOUS
100
AcDbPolyline
 90
        4
 70
     0
 43
0.0
 10
424.3343770236779
 20
392.6812116653491
 10
439.5343770236782
 20
392.4158946785492
 10
439.5343770236782
 20
376.8465286525492
 10
424.3343770236779
 20
376.5812116653492
  0
LWPOLYLINE
  5
620C
330
1F
100
AcDbEntity
  8
10
  6
CONTINOUS
100
AcDbPolyline
 90
        2
 70
     0
 43
0.0
 10
432.8343770236779
 20
403.2402545383911
 10
431.5343770236782
 20
402.7670932335071
  0
LWPOLYLINE
  5
620F
330
1F
100
AcDbEntity
  8
10
  6
CONTINOUS
100
AcDbPolyline
 90
        9
 70
     0
 43
0.0
 10
435.392257093359
 20
398.5118086802742
 42
-0.2633131761903002
 10
434.277851582078
 20
397.8812116653492
 10
433.0343770236781
 20
397.8812116653489
 42
-0.5216718986821923
 10
432.8343770236781
 20
398.2062116653492
 10
432.8343770236781
 20
407.1812116653489
 42
-0.4142135623730951
 10
433.0343770236781
 20
407.3812116653486
 10
434.277851582078
 20
407.3812116653486
 42
-0.2633131761903001
 10
435.3922570930977
 20
406.7506146504253
 42
-0.2723797614275332
 10
435.3922570932781
 20
398.5118086805733
  0
LWPOLYLINE
  5
6217
330
1F
100
AcDbEntity
  8
10
  6
CONTINOUS
100
AcDbPolyline
 90
        4
 70
     0
 43
0.0
 10
431.5343770236778
 20
398.2062116653492
 42
0.4142135623730951
 10
431.7093770236779
 20
398.0312116653491
 10
432.6593770236781
 20
398.0312116653491
 42
0.4142135623730951
 10
432.8343770236781
 20
398.2062116653492
  0
LWPOLYLINE
  5
6218
330
1F
100
AcDbEntity
  8
10
  6
CONTINOUS
100
AcDbPolyline
 90
        4
 70
     0
 43
0.0
 10
432.8343770236781
 20
407.0562116653491
 42
0.4142135623730951
 10
432.6593770236781
 20
407.2312116653491
 10
431.7093770236779
 20
407.2312116653488
 42
0.4142135623730951
 10
431.5343770236778
 20
407.0562116653491
  0
LWPOLYLINE
  5
6219
330
1F
100
AcDbEntity
  8
10
  6
CONTINOUS
100
AcDbPolyline
 90
        4
 70
     0
 43
0.0
 10
430.5343770236781
 20
397.6312116653492
 10
431.5343770236782
 20
397.6312116653492
 10
431.5343770236782
 20
407.6312116653491
 10
430.5343770236781
 20
407.6312116653491
  0
LWPOLYLINE
  5
622D
330
1F
100
AcDbEntity
  8
10
  6
CONTINOUS
100
AcDbPolyline
 90
        4
 70
     0
 43
0.0
 10
430.5343770236778
 20
475.6312116651586
 10
431.5343770236778
 20
475.6312116651586
 10
431.5343770236778
 20
485.6312116651586
 10
430.5343770236778
 20
485.6312116651586
  0
LWPOLYLINE
  5
622F
330
1F
100
AcDbEntity
  8
10
  6
CONTINOUS
100
AcDbPolyline
 90
        4
 70
     0
 43
0.0
 10
431.5343770236778
 20
476.2062116651583
 42
0.4142135623730951
 10
431.7093770236778
 20
476.0312116651586
 10
432.659377023678
 20
476.0312116651586
 42
0.4142135623730951
 10
432.8343770236779
 20
476.2062116651583
  0
LWPOLYLINE
  5
6232
330
1F
100
AcDbEntity
  8
10
  6
CONTINOUS
100
AcDbPolyline
 90
        9
 70
     0
 43
0.0
 10
435.3922570933589
 20
476.5118086800836
 42
-0.2633131761903002
 10
434.277851582078
 20
475.8812116651584
 10
433.0343770236781
 20
475.8812116651584
 42
-0.5216718986821923
 10
432.8343770236779
 20
476.2062116651583
 10
432.8343770236779
 20
485.1812116651585
 42
-0.4142135623730951
 10
433.0343770236781
 20
485.3812116651586
 10
434.277851582078
 20
485.3812116651586
 42
-0.2633131761903001
 10
435.3922570930977
 20
484.7506146502349
 42
-0.2723797614275332
 10
435.3922570932781
 20
476.5118086803826
  0
LINE
  5
6236
330
1F
100
AcDbEntity
  8
10
  6
CONTINOUS
100
AcDbLine
 10
422.5343770236781
 20
507.5683542801491
 30
0.0
 11
424.3343770236779
 21
507.6312116653491
 31
0.0
  0
LINE
  5
6237
330
1F
100
AcDbEntity
  8
10
  6
CONTINOUS
100
AcDbLine
 10
424.3343770236779
 20
509.6312116653491
 30
0.0
 11
426.9343770236782
 21
509.6312116653491
 31
0.0
  0
LINE
  5
6238
330
1F
100
AcDbEntity
  8
10
  6
CONTINOUS
100
AcDbLine
 10
424.3343770236779
 20
507.6312116653491
 30
0.0
 11
424.3343770236779
 21
509.6312116653491
 31
0.0
  0
LINE
  5
6239
330
1F
100
AcDbEntity
  8
10
  6
CONTINOUS
100
AcDbLine
 10
426.9343770236782
 20
509.6312116653491
 30
0.0
 11
426.9343770236782
 21
505.6358284965491
 31
0.0
  0
LINE
  5
623A
330
1F
100
AcDbEntity
  8
10
  6
CONTINOUS
100
AcDbLine
 10
368.8343770236779
 20
505.5398443837937
 30
0.0
 11
423.8431032268781
 21
505.4185098753491
 31
0.0
  0
LINE
  5
623B
330
1F
100
AcDbEntity
  8
10
  6
CONTINOUS
100
AcDbLine
 10
424.3343770236779
 20
504.918586027749
 30
0.0
 11
424.3343770236779
 21
486.6312116655396
 31
0.0
  0
SPLINE
  5
623C
330
1F
100
AcDbEntity
  8
24
  6
CONTINOUS
100
AcDbSpline
210
0.0
220
0.0
230
1.0
 70
     8
 71
     3
 72
    11
 73
     7
 74
     0
 42
0.000000001
 43
0.0000000001
 40
0.0
 40
0.0
 40
0.0
 40
0.0
 40
0.2499999999999934
 40
0.5000000000000058
 40
0.7499999999999965
 40
1.0
 40
1.0
 40
1.0
 40
1.0
 10
424.3343770237856
 20
504.9185860279449
 30
0.0
 10
424.3270307300766
 20
504.9833760659939
 30
0.0
 10
424.3123381426588
 20
505.1129561420908
 30
0.0
 10
424.1991540603471
 20
505.2770514234217
 30
0.0
 10
424.0370591061287
 20
505.3930821247936
 30
0.0
 10
423.907755186712
 20
505.4100339586135
 30
0.0
 10
423.8431032270041
 20
505.4185098755235
 30
0.0
  0
LINE
  5
6242
330
1F
100
AcDbEntity
  8
10
  6
CONTINOUS
100
AcDbLine
 10
422.5343770236781
 20
505.4213965746334
 30
0.0
 11
422.5343770236781
 21
507.5683542801491
 31
0.0
  0
LINE
  5
6243
330
1F
100
AcDbEntity
  8
24
  6
CONTINOUS
100
AcDbLine
 10
424.3343770236779
 20
507.6312116653491
 30
0.0
 11
424.3343770236779
 21
505.0241756097492
 31
0.0
  0
LWPOLYLINE
  5
6244
330
1F
100
AcDbEntity
  8
24
  6
CONTINOUS
100
AcDbPolyline
 90
        4
 70
     0
 43
0.0
 10
424.3343770236779
 20
489.5812116653492
 10
439.5343770236782
 20
489.8465286521491
 10
439.5343770236782
 20
505.4158946781491
 10
424.3343770236779
 20
505.6812116653492
  0
LWPOLYLINE
  5
6245
330
1F
100
AcDbEntity
  8
10
  6
CONTINOUS
100
AcDbPolyline
 90
       12
 70
     0
 43
0.0
 10
368.8343770236779
 20
381.6312116653492
 10
420.5343770236781
 20
381.6312116653492
 42
0.4142135623730951
 10
421.5343770236781
 20
382.6312116653491
 10
421.5343770236781
 20
395.6312116653492
 42
-0.4142135623730951
 10
422.5343770236781
 20
396.6312116653492
 10
430.5343770236781
 20
396.6312116653492
 10
430.5343770236781
 20
486.631211665349
 10
422.5343770236783
 20
486.6312116655396
 42
-0.4142135623730951
 10
421.5343770236783
 20
487.6312116655395
 10
421.5343770236781
 20
499.631211665349
 42
0.4142135623730951
 10
420.5343770236781
 20
500.6312116653488
 10
368.8343770236779
 20
500.6312116653488
  0
LWPOLYLINE
  5
6370
330
1F
100
AcDbEntity
  8
10
  6
CONTINOUS
100
AcDbPolyline
 90
        4
 70
     0
 43
0.0
 10
432.8343770236779
 20
485.0562116651586
 42
0.4142135623730951
 10
432.659377023678
 20
485.2312116651586
 10
431.7093770236778
 20
485.2312116651583
 42
0.4142135623730951
 10
431.5343770236778
 20
485.0562116651586
  0
LWPOLYLINE
  5
6371
330
1F
100
AcDbEntity
  8
10
  6
CONTINOUS
100
AcDbPolyline
 90
        2
 70
     0
 43
0.0
 10
432.8343770236779
 20
481.2402545382005
 10
431.5343770236778
 20
480.7670932333165
  0
LINE
  5
6372
330
1F
100
AcDbEntity
  8
10
  6
CONTINOUS
100
AcDbLine
 10
431.5343770236778
 20
480.0221687925166
 30
0.0
 11
432.8343770236779
 21
480.4953300974005
 31
0.0
  0
LWPOLYLINE
  5
646E
330
1F
100
AcDbEntity
  8
24
  6
CONTINOUS
100
AcDbPolyline
 90
       10
 70
     0
 43
0.0
 10
439.5343770236782
 20
379.0268209958152
 42
-0.1496721635402247
 10
446.1624762027686
 20
381.3001813425355
 10
446.1624762027686
 20
381.3001813425355
 10
446.1624762027686
 20
381.3001813425355
 10
487.6343770236781
 20
381.4312116653491
 10
487.6343770236781
 20
387.8312116653491
 10
445.8970423175425
 20
387.847585754262
 10
445.8970423175425
 20
387.847585754262
 10
445.8970423175425
 20
387.847585754262
 42
-0.1550526629680419
 10
439.7283728885873
 20
390.2322437475318
  0
LWPOLYLINE
  5
6486
330
1F
100
AcDbEntity
  8
24
  6
CONTINOUS
100
AcDbPolyline
 90
        7
 70
     0
 43
0.0
 10
487.6343770236781
 20
382.6312116653491
 10
525.9315417648781
 20
382.6312116653491
 42
0.3844306407974888
 10
526.4289049634434
 20
383.0799296140696
 42
0.0339392115285597
 10
526.5343770236778
 20
384.6312116653491
 42
0.0339392115285022
 10
526.4289049633723
 20
386.1824937166312
 42
0.3844306407974888
 10
525.9315417648781
 20
386.6312116653491
 10
487.6343770236781
 20
386.6312116653491
  0
LWPOLYLINE
  5
64A0
330
1F
100
AcDbEntity
  8
24
  6
CONTINOUS
100
AcDbPolyline
 90
       13
 70
     0
 43
0.0
 10
439.5040619645683
 20
389.2850772645863
 42
0.1672155262380537
 10
447.0343770236781
 20
387.1312116653492
 10
474.4850733891081
 20
387.1312116655328
 10
475.5664897231013
 20
387.1312116655328
 10
475.9315417648781
 20
387.1312116653492
 42
-0.3844306407974888
 10
476.4289049634433
 20
386.6824937166287
 42
-0.0256918450417758
 10
476.5343770236778
 20
384.6312116653491
 42
-0.0256918450417758
 10
476.4289049633721
 20
382.5799296140672
 42
-0.3844306407974888
 10
475.9315417650561
 20
382.1312116655328
 10
475.566489716143
 20
382.1312116655328
 10
474.4850733892781
 20
382.1312116653492
 10
447.0343770236781
 20
382.1312116653492
 42
0.1661327115651163
 10
439.5735368791362
 20
380.0256975794652
  0
LWPOLYLINE
  5
64D1
330
1F
100
AcDbEntity
  8
24
  6
CONTINOUS
100
AcDbPolyline
 90
        7
 70
     0
 43
0.0
 10
487.6343770236781
 20
500.6312116653488
 10
525.9315417648781
 20
500.6312116653488
 42
-0.3844306407974888
 10
526.4289049634434
 20
500.1824937166285
 42
-0.0339392115285598
 10
526.5343770236778
 20
498.631211665349
 42
-0.0339392115285022
 10
526.4289049633723
 20
497.0799296140667
 42
-0.3844306407974888
 10
525.9315417648781
 20
496.6312116653488
 10
487.6343770236781
 20
496.6312116653488
  0
LWPOLYLINE
  5
64D2
330
1F
100
AcDbEntity
  8
24
  6
CONTINOUS
100
AcDbPolyline
 90
       10
 70
     0
 43
0.0
 10
439.5343770236782
 20
504.2356023348829
 42
0.1496721635402247
 10
446.1624762027686
 20
501.9622419881626
 10
446.1624762027686
 20
501.9622419881626
 10
446.1624762027686
 20
501.9622419881626
 10
487.6343770236781
 20
501.8312116653489
 10
487.6343770236781
 20
495.431211665349
 10
445.8970423175425
 20
495.4148375764361
 10
445.8970423175425
 20
495.4148375764361
 10
445.8970423175425
 20
495.4148375764361
 42
0.1550526629680419
 10
439.7283728885873
 20
493.0301795831661
  0
LWPOLYLINE
  5
64D3
330
1F
100
AcDbEntity
  8
24
  6
CONTINOUS
100
AcDbPolyline
 90
       13
 70
     0
 43
0.0
 10
439.5040619645683
 20
493.9773460661116
 42
-0.1672155262380537
 10
447.0343770236781
 20
496.1312116653489
 10
474.4850733891081
 20
496.1312116651654
 10
475.5664897231013
 20
496.1312116651654
 10
475.9315417648781
 20
496.1312116653489
 42
0.3844306407974888
 10
476.4289049634433
 20
496.5799296140692
 42
0.0256918450417758
 10
476.5343770236778
 20
498.631211665349
 42
0.0256918450417758
 10
476.4289049633721
 20
500.6824937166308
 42
0.3844306407974888
 10
475.9315417650561
 20
501.1312116651651
 10
475.566489716143
 20
501.1312116651651
 10
474.4850733892781
 20
501.1312116653486
 10
447.0343770236781
 20
501.1312116653486
 42
-0.1661327115651163
 10
439.5735368791362
 20
503.2367257512328
  0
LINE
  5
64DD
330
1F
100
AcDbEntity
  8
18
  6
DIVIDE
 48
5.0
100
AcDbLine
 10
369.334377738878
 20
346.3358491915493
 30
0.0
 11
369.334377738878
 21
531.5487876839489
 31
0.0
  0
LINE
  5
64DE
330
1F
100
AcDbEntity
  8
18
  6
DIVIDE
 48
5.0
100
AcDbLine
 10
373.334377738878
 20
346.3358491915493
 30
0.0
 11
373.334377738878
 21
531.5487876839489
 31
0.0
  0
CIRCLE
  5
65D6
330
1F
100
AcDbEntity
  8
12
  6
Continuous
100
AcDbCircle
 10
113.0859420877667
 20
193.2838176443141
 30
0.0
 40
3.0
  0
CIRCLE
  5
65D7
330
1F
100
AcDbEntity
  8
12
  6
Continuous
100
AcDbCircle
 10
113.0859420877667
 20
127.2838176443142
 30
0.0
 40
3.0
  0
CIRCLE
  5
65D8
102
{ACAD_REACTORS
330
73FC
102
}
330
1F
100
AcDbEntity
  8
12
  6
Continuous
100
AcDbCircle
 10
214.0859420877667
 20
193.2838176443141
 30
0.0
 40
3.0
  0
CIRCLE
  5
65D9
330
1F
100
AcDbEntity
  8
12
  6
Continuous
100
AcDbCircle
 10
214.0859420877667
 20
127.2838176443142
 30
0.0
 40
3.0
  0
INSERT
  5
65DA
330
1F
100
AcDbEntity
  8
12
  6
DASHDOT
100
AcDbBlockReference
  2
SW_CENTERMARKSYMBOL_20
 10
113.0859420877667
 20
127.2838176443142
 30
0.0
 41
4.0
 42
4.0
 43
4.0
  0
INSERT
  5
65DB
330
1F
100
AcDbEntity
  8
12
  6
DASHDOT
100
AcDbBlockReference
  2
SW_CENTERMARKSYMBOL_21
 10
113.0859420877667
 20
193.2838176443141
 30
0.0
 41
4.0
 42
4.0
 43
4.0
  0
INSERT
  5
65DC
102
{ACAD_REACTORS
330
749F
102
}
330
1F
100
AcDbEntity
  8
12
  6
DASHDOT
100
AcDbBlockReference
  2
SW_CENTERMARKSYMBOL_22
 10
214.0859420877667
 20
193.2838176443141
 30
0.0
 41
4.0
 42
4.0
 43
4.0
  0
INSERT
  5
65DD
102
{ACAD_REACTORS
330
749F
102
}
330
1F
100
AcDbEntity
  8
12
  6
DASHDOT
100
AcDbBlockReference
  2
SW_CENTERMARKSYMBOL_23
 10
214.0859420877667
 20
127.2838176443142
 30
0.0
 41
4.0
 42
4.0
 43
4.0
  0
DIMENSION
  5
66BB
330
1F
100
AcDbEntity
  8
30
  6
Continuous
100
AcDbDimension
280
     0
  2
*D21
 10
266.2554298344154
 20
69.78381764431425
 30
0.0
 11
260.2554298344154
 21
160.2838176443143
 31
0.0
 70
    32
 71
     5
 42
181.0000000000001
 73
     0
 74
     0
 75
     0
  3
STANDARD
100
AcDbAlignedDimension
 13
209.0859417897668
 23
250.7838176443144
 33
0.0
 14
209.0859417897668
 24
69.78381764431427
 34
0.0
 50
90.0
100
AcDbRotatedDimension
1001
ACAD
1000
DSTYLE
1002
{
1070
    79
1070
     3
1002
}
  0
LWPOLYLINE
  5
7031
330
1F
100
AcDbEntity
  8
10
  6
HIDDEN
100
AcDbPolyline
 90
        4
 70
     1
 43
0.0
 10
133.3859370209667
 20
376.1312116653491
 10
133.3859370209667
 20
506.1312116653488
 10
194.3859370209667
 20
506.1312116653488
 10
194.3859370209667
 20
376.1312116653491
  0
LWPOLYLINE
  5
7055
330
1F
100
AcDbEntity
  8
10
  6
CONTINOUS
100
AcDbPolyline
 90
        9
 70
     0
 43
0.0
 10
108.5844722346032
 20
537.1312114865491
 10
216.5859396437668
 20
537.1312114865491
 42
-0.4142135623730951
 10
224.5859396437668
 20
529.1312114865491
 10
224.5859396437668
 20
353.1312098177491
 42
-0.4142135623730951
 10
216.5859396437668
 20
345.1312098177491
 10
110.5859343985666
 20
345.1312098177491
 42
-0.4142135623730951
 10
102.5859343985666
 20
353.1312098177491
 10
102.5859370209666
 20
531.1312116653489
 42
-0.4142135623730951
 10
108.5859370209667
 20
537.1312116653491
  0
LWPOLYLINE
  5
7056
330
1F
100
AcDbEntity
  8
10
  6
CONTINOUS
100
AcDbPolyline
 90
        6
 70
     1
 43
0.0
 10
356.3343770236784
 20
345.1312116653491
 42
-0.4142135623730951
 10
354.3343770236784
 20
347.1312116653491
 10
354.3343770236784
 20
535.1312116653489
 42
-0.4142135623730951
 10
356.3343770236784
 20
537.1312116653489
 10
368.8343770236779
 20
537.1312116653489
 10
368.8343770236779
 20
345.1312116653491
  0
LINE
  5
70D4
330
1F
100
AcDbEntity
  8
0
  6
SLD-実線
 62
     8
370
     0
100
AcDbLine
 10
337.2304905776782
 20
449.5273341413491
 30
0.0
 11
337.2305456084782
 21
449.5277767601491
 31
0.0
  0
LINE
  5
70D6
330
1F
100
AcDbEntity
  8
0
  6
SLD-実線
 62
     8
370
     0
100
AcDbLine
 10
331.0304339844342
 20
450.455382840949
 30
0.0
 11
331.030514469634
 21
450.455821370549
 31
0.0
  0
LINE
  5
70D7
330
1F
100
AcDbEntity
  8
0
  6
SLD-実線
 62
     8
370
     0
100
AcDbLine
 10
336.6314171260783
 20
449.606348580949
 30
0.0
 11
336.631476479678
 21
449.606790750549
 31
0.0
  0
LINE
  5
711C
330
1F
100
AcDbEntity
  8
16
 48
5.0
100
AcDbLine
 10
163.5859493893669
 20
334.8114754944831
 30
0.0
 11
163.5859493893669
 21
542.5146108748351
 31
0.0
  0
LWPOLYLINE
  5
712A
330
1F
100
AcDbEntity
  8
10
  6
Continuous
100
AcDbPolyline
 90
        4
 70
     1
 43
0.0
 10
0.0
 20
891.0
 10
629.9999999999998
 20
891.0
 10
629.9999999999998
 20
0.0
 10
0.0
 20
0.0
  0
LWPOLYLINE
  5
7167
330
1F
100
AcDbEntity
  8
18
  6
DIVIDE
 48
5.0
100
AcDbPolyline
 90
        8
 70
     1
 43
0.0
 10
103.0859417897668
 20
254.7838176443144
 42
-0.4142135623730951
 10
109.0859417897668
 20
260.7838176443144
 10
218.0859417897668
 20
260.7838176443144
 42
-0.4142135623730951
 10
224.0859417897668
 20
254.7838176443144
 10
224.0859417897668
 20
65.78381764431425
 42
-0.4142135623730951
 10
218.0859417897668
 20
59.78381764431427
 10
109.0859417897668
 20
59.78381764431427
 42
-0.4142135623730951
 10
103.0859417897668
 20
65.78381764431425
  0
DIMENSION
  5
73A1
330
1F
100
AcDbEntity
  8
30
  6
Continuous
100
AcDbDimension
280
     0
  2
*D24
 10
261.2340641491946
 20
345.1312098177491
 30
0.0
 11
255.7340641491946
 21
441.1312106521491
 31
0.0
 70
    32
 71
     5
 42
192.0000016688
 73
     0
 74
     0
 75
     0
  3
STANDARD
100
AcDbAlignedDimension
 13
211.1312606355277
 23
537.1312114865491
 33
0.0
 14
209.1535175788394
 24
345.1312098177491
 34
0.0
 50
90.0
100
AcDbRotatedDimension
1001
ACAD
1000
DSTYLE
1002
{
1070
    79
1070
     3
1070
   140
1040
7.0
1002
}
  0
DIMENSION
  5
73E7
102
{ACAD_XDICTIONARY
360
73F3
102
}
102
{ACAD_REACTORS
330
73FC
102
}
330
1F
100
AcDbEntity
  8
30
  6
Continuous
100
AcDbDimension
280
     0
  2
*D25
 10
211.697360101641
 20
191.4686933798207
 30
0.0
 11
237.9557933722452
 21
206.3215502786455
 31
0.0
 70
   163
 71
     5
 42
5.999999999999543
 73
     0
 74
     0
 75
     0
  3
STANDARD1
100
AcDbDiametricDimension
 15
216.474524073893
 25
195.0989419088078
 35
0.0
 40
0.0
1001
ACAD_DSTYLE_DIMRADIAL_EXTENSION
1070
   387
1070
     1
1070
   388
1040
0.0
1070
   390
1040
0.0
  0
MTEXT
  5
7404
330
1F
100
AcDbEntity
  8
19
  6
Continuous
100
AcDbMText
 10
396.6862241526942
 20
784.3791409352746
 30
0.0
 40
9.0
 41
198.7815198951302
 46
9.763876006032646
 71
     1
 72
     5
  1
PS125-NF (15-50A) 2P FP\PPS50-PF (15-50A) 2P FP\PPS125-PF (15-50A) 2P FP
  7
STANDARD1
 73
     1
 44
1.0
  0
LWPOLYLINE
  5
7451
102
{ACAD_REACTORS
330
7487
102
}
330
1F
100
AcDbEntity
  8
11
 48
2.0
100
AcDbPolyline
 90
        4
 70
     1
 43
0.0
 10
118.0859417897668
 20
69.78381764431427
 10
118.0859417897668
 20
250.7838176443144
 10
209.0859417897668
 20
250.7838176443144
 10
209.0859417897668
 20
69.78381764431427
  0
DIMENSION
  5
7470
102
{ACAD_XDICTIONARY
360
747D
102
}
102
{ACAD_REACTORS
330
7487
102
}
330
1F
100
AcDbEntity
  8
30
  6
Continuous
100
AcDbDimension
280
     0
  2
*D27
 10
209.0859417897668
 20
34.98413169655123
 30
0.0
 11
163.5859417897668
 21
40.98413169655123
 31
0.0
 70
    33
 71
     5
 42
91.00000000000004
 73
     0
 74
     0
 75
     0
  3
STANDARD
100
AcDbAlignedDimension
 13
118.0859417897668
 23
69.78381764431427
 33
0.0
 14
209.0859417897668
 24
69.78381764431427
 34
0.0
1001
ACAD
1000
DSTYLE
1002
{
1070
    79
1070
     3
1002
}
  0
DIMENSION
  5
7488
102
{ACAD_XDICTIONARY
360
7495
102
}
102
{ACAD_REACTORS
330
749F
102
}
330
1F
100
AcDbEntity
  8
30
  6
Continuous
100
AcDbDimension
280
     0
  2
*D28
 10
244.102235717537
 20
127.2838176443142
 30
0.0
 11
238.102235717537
 21
160.2838176443142
 31
0.0
 70
    32
 71
     5
 42
65.9999999999999
 73
     0
 74
     0
 75
     0
  3
STANDARD
100
AcDbAlignedDimension
 13
219.0859420877667
 23
193.2838176443141
 33
0.0
 14
219.0859420877667
 24
127.2838176443142
 34
0.0
 50
90.0
100
AcDbRotatedDimension
1001
ACAD
1000
DSTYLE
1002
{
1070
    79
1070
     3
1002
}
  0
ARC
  5
7619
330
1F
100
AcDbEntity
  8
30
  6
Continuous
100
AcDbCircle
 10
351.63972314953
 20
447.9299890525934
 30
0.0
 40
22.81150420857965
100
AcDbArc
 50
164.59407926119
 51
181.3313529294665
  0
LWPOLYLINE
  5
81A6
330
1F
100
AcDbEntity
  8
10
  6
CONTINOUS
100
AcDbPolyline
 90
        2
 70
     0
 43
0.0
 10
188.1430322985666
 20
413.131211650549
 10
188.1430322985666
 20
416.7312111229491
  0
LWPOLYLINE
  5
81A7
330
1F
100
AcDbEntity
  8
10
  6
CONTINOUS
100
AcDbPolyline
 90
        2
 70
     0
 43
0.0
 10
188.8894277373666
 20
433.0777206913491
 10
187.9859368065665
 20
433.0777206913491
  0
LWPOLYLINE
  5
81A8
330
1F
100
AcDbEntity
  8
10
  6
CONTINOUS
100
AcDbPolyline
 90
        3
 70
     0
 43
0.0
 10
188.8894277373666
 20
431.0847024889491
 10
188.8894277373666
 20
420.5777205053491
 10
166.3824456493667
 20
420.5777205053491
  0
LWPOLYLINE
  5
81A9
330
1F
100
AcDbEntity
  8
10
  6
CONTINOUS
100
AcDbPolyline
 90
        2
 70
     0
 43
0.0
 10
187.9859368065665
 20
431.0847024889491
 10
188.8894277373666
 20
431.0847024889491
  0
LWPOLYLINE
  5
81AA
330
1F
100
AcDbEntity
  8
10
  6
CONTINOUS
100
AcDbPolyline
 90
        4
 70
     0
 43
0.0
 10
166.3824456493667
 20
420.5777205053491
 10
166.3824456493667
 20
462.7847026557491
 10
188.8894277373666
 20
462.7847026557491
 10
188.8894277373666
 20
433.0777206913491
  0
LWPOLYLINE
  5
81AB
330
1F
100
AcDbEntity
  8
10
  6
CONTINOUS
100
AcDbPolyline
 90
        2
 70
     0
 43
0.0
 10
188.4881878949666
 20
416.7312111229491
 10
188.4881878949666
 20
413.131211650549
  0
LWPOLYLINE
  5
81AC
330
1F
100
AcDbEntity
  8
10
  6
CONTINOUS
100
AcDbPolyline
 90
        5
 70
     0
 43
0.0
 10
138.7784965747534
 20
463.9688327433491
 10
138.7784965747539
 20
419.2935905877491
 10
160.5933774758766
 20
419.2935905877491
 10
160.5933765276781
 20
463.9688327433491
 10
138.7784965747534
 20
463.9688327433491
  0
LWPOLYLINE
  5
81AD
330
1F
100
AcDbEntity
  8
0
  6
SLD-実線
 62
     8
370
     0
100
AcDbPolyline
 90
        2
 70
     0
 43
0.0
 10
187.9859368065665
 20
433.0777206913491
 10
187.9859368065665
 20
433.0812112885491
  0
LWPOLYLINE
  5
81AE
330
1F
100
AcDbEntity
  8
0
  6
SLD-実線
 62
     8
370
     0
100
AcDbPolyline
 90
        2
 70
     0
 43
0.0
 10
143.6841916705665
 20
452.8430753845491
 10
155.5859372429666
 20
452.8519965233488
  0
LWPOLYLINE
  5
81AF
330
1F
100
AcDbEntity
  8
0
  6
SLD-実線
 62
     8
370
     0
100
AcDbPolyline
 90
        2
 70
     0
 43
0.0
 10
155.5859372429666
 20
452.8519965233488
 10
155.6881186961665
 20
452.8519005973491
  0
LWPOLYLINE
  5
81B0
330
1F
100
AcDbEntity
  8
0
  6
SLD-実線
 62
     8
370
     0
100
AcDbPolyline
 90
        2
 70
     0
 43
0.0
 10
155.6881186961665
 20
450.455821816949
 10
155.6881186961665
 20
452.8519005973491
  0
LWPOLYLINE
  5
81B1
330
1F
100
AcDbEntity
  8
0
  6
SLD-実線
 62
     8
370
     0
100
AcDbPolyline
 90
        2
 70
     0
 43
0.0
 10
143.6841916705665
 20
450.496245873349
 10
143.6841916705665
 20
452.8430753845491
  0
LWPOLYLINE
  5
81B2
330
1F
100
AcDbEntity
  8
0
  6
SLD-実線
 62
     8
370
     0
100
AcDbPolyline
 90
        2
 70
     0
 43
0.0
 10
155.6880916881666
 20
449.606790904949
 10
155.6881186961665
 20
450.455821816949
  0
LWPOLYLINE
  5
81B3
330
1F
100
AcDbEntity
  8
0
  6
SLD-実線
 62
     8
370
     0
100
AcDbPolyline
 90
        2
 70
     0
 43
0.0
 10
143.6842135565666
 20
449.6475893529491
 10
143.6841916705665
 20
450.496245873349
  0
LWPOLYLINE
  5
81B4
330
1F
100
AcDbEntity
  8
0
  6
SLD-実線
 62
     8
370
     0
100
AcDbPolyline
 90
        2
 70
     0
 43
0.0
 10
143.6842135565666
 20
449.6475893529491
 10
155.5859637857666
 20
449.6063485265488
  0
LWPOLYLINE
  5
81B5
330
1F
100
AcDbEntity
  8
0
  6
SLD-実線
 62
     8
370
     0
100
AcDbPolyline
 90
        2
 70
     0
 43
0.0
 10
155.5859637857666
 20
449.6063485265488
 10
155.6880916881666
 20
449.606790904949
  0
LWPOLYLINE
  5
81B6
330
1F
100
AcDbEntity
  8
0
  6
SLD-実線
 62
     8
370
     0
100
AcDbPolyline
 90
        2
 70
     0
 43
0.0
 10
143.6842135565666
 20
449.6475893529491
 10
143.6842135565666
 20
449.568592709749
  0
LWPOLYLINE
  5
81B7
330
1F
100
AcDbEntity
  8
10
  6
CONTINOUS
100
AcDbPolyline
 90
        4
 70
     1
 43
0.0
 10
142.2482771277665
 20
455.4812114213491
 10
157.1238722032294
 20
455.4812114213491
 10
157.1238722032294
 20
428.4812116653503
 10
142.2482771277665
 20
428.4812116653503
  0
LWPOLYLINE
  5
81B8
330
1F
100
AcDbEntity
  8
10
  6
CONTINOUS
100
AcDbPolyline
 90
        4
 70
     1
 43
0.0
 10
143.6841916705665
 20
452.8430753845491
 10
155.6900517281666
 20
452.8430753845491
 10
155.6900517281666
 20
449.6067870315025
 10
143.6841916705665
 20
449.6067870315025
  0
LWPOLYLINE
  5
81B9
330
1F
100
AcDbEntity
  8
10
  6
CONTINOUS
100
AcDbPolyline
 90
        9
 70
     0
 43
0.0
 10
136.3859370213666
 20
468.1312116653486
 42
-0.4143733526010906
 10
137.3864825484805
 20
469.1312115165492
 10
190.3859384813667
 20
469.1312115165492
 42
-0.4142135623730951
 10
191.3859384813667
 20
468.1312115165491
 10
191.3859384813667
 20
414.1312116653491
 42
-0.4142135623730951
 10
190.3859384813667
 20
413.1312116653488
 10
137.3859355609667
 20
413.1312116653488
 42
-0.4142135623730951
 10
136.3859355609667
 20
414.1312116653491
 10
136.3859355609667
 20
468.1312113525489
  0
LWPOLYLINE
  5
81BA
330
1F
100
AcDbEntity
  8
10
  6
CONTINOUS
100
AcDbPolyline
 90
        5
 70
     0
 43
0.0
 10
137.3859375873667
 20
466.6312120381491
 10
137.3859375873667
 20
416.7312111229491
 10
190.3859364549665
 20
416.7312111229491
 10
190.3859364549665
 20
466.6312120381491
 10
137.3859375873667
 20
466.6312120381491
  0
LWPOLYLINE
  5
81BB
330
1F
100
AcDbEntity
  8
10
  6
CONTINOUS
100
AcDbPolyline
 90
       61
 70
     0
 43
0.0
 10
187.9859368064943
 20
433.0777206915238
 10
187.8882731133272
 20
433.0660033142136
 10
187.7915401626939
 20
433.0513874305696
 10
187.7438135728692
 20
433.0420867656424
 10
187.6966686971281
 20
433.0309745342561
 10
187.6502218782874
 20
433.0176884231189
 10
187.6045894591637
 20
433.0018661189391
 10
187.559884831411
 20
432.9832338722011
 10
187.5162095824681
 20
432.961872175437
 10
187.4736623488287
 20
432.9379500784241
 10
187.432341766986
 20
432.9116366309393
 10
187.3923464734341
 20
432.8831008827604
 10
187.3537751046664
 20
432.8525118836648
 10
187.3167262971764
 20
432.8200386834303
 10
187.2812986874578
 20
432.7858503318341
 10
187.2475854557308
 20
432.7500996197326
 10
187.2156579560986
 20
432.7128742992468
 10
187.1855820858789
 20
432.67424586205
 10
187.1574237423893
 20
432.6342857998162
 10
187.1312488229477
 20
432.5930656042195
 10
187.1071232248717
 20
432.550656766933
 10
187.085112845479
 20
432.5071307796306
 10
187.0652835820874
 20
432.4625591339866
 10
187.0476942066901
 20
432.4170217014092
 10
187.0323749894401
 20
432.3706318728823
 10
187.0193490748946
 20
432.3235114194439
 10
187.0086396076108
 20
432.2757821121333
 10
187.0002697321458
 20
432.2275657219874
 10
186.9942625930569
 20
432.1789840200446
 10
186.9906413349013
 20
432.1301587773431
 10
186.9894291022361
 20
432.0812117649209
 10
186.9906413245515
 20
432.0322647535773
 10
186.9942625716206
 20
431.9834395131564
 10
187.0002696984243
 20
431.9348578132637
 10
187.0086395599438
 20
431.886641423504
 10
187.0193490111602
 20
431.8389121134829
 10
187.0323749070545
 20
431.7917916528058
 10
187.0476941026078
 20
431.7454018110776
 10
187.0652834528011
 20
431.6998643579037
 10
187.0851126876839
 20
431.6552926840294
 10
187.1071230375288
 20
431.6117666647029
 10
187.1312486076532
 20
431.5693577962846
 10
187.1574235033742
 20
431.5281375751347
 10
187.185581830009
 20
431.4881774976131
 10
187.2156576928747
 20
431.4495490600803
 10
187.2475851972884
 20
431.4123237588964
 10
187.2812984485674
 20
431.3765730904215
 10
187.3167260941771
 20
431.3423848088985
 10
187.3537749507493
 20
431.3099116983988
 10
187.3923463773498
 20
431.2793228000248
 10
187.4323417330446
 20
431.2507871548778
 10
187.4736623768996
 20
431.2244738040602
 10
187.5162096679809
 20
431.2005517886745
 10
187.5598849653545
 20
431.1791901498224
 10
187.6045896280862
 20
431.1605579286061
 10
187.6502220653781
 20
431.1447356102312
 10
187.6966688866738
 20
431.1314494472276
 10
187.7438137514011
 20
431.120337131686
 10
187.7915403189881
 20
431.1110363556953
 10
187.8882732004534
 20
431.0964201907268
 10
187.9859368064943
 20
431.0847024890403
  0
INSERT
  5
81E0
330
1F
100
AcDbEntity
  8
0
100
AcDbBlockReference
  2
A$C37787D9A
 10
354.3343770236784
 20
441.131211665349
 30
0.0
  0
LWPOLYLINE
  5
8422
330
1F
100
AcDbEntity
  8
24
100
AcDbPolyline
 90
        2
 70
     0
 43
0.0
 10
143.6876743431417
 20
735.7470875809609
 42
0.2488709036792295
 10
140.8260901502212
 20
741.7602947799272
  0
LWPOLYLINE
  5
8423
330
1F
100
AcDbEntity
  8
24
100
AcDbPolyline
 90
        4
 70
     0
 43
0.0
 10
171.1086800283406
 20
720.547087324615
 10
171.3739952035405
 20
735.7470875810149
 10
186.9433635807405
 20
735.7470875810149
 10
187.2086787555405
 20
720.547087324615
  0
LWPOLYLINE
  5
8424
330
1F
100
AcDbEntity
  8
24
100
AcDbPolyline
 90
        4
 70
     0
 43
0.0
 10
141.3813200749666
 20
723.147087331761
 10
141.6012542293666
 20
735.7470875809609
 10
157.1706198125665
 20
735.7470875809609
 10
157.3905539669666
 20
723.147087331761
  0
LWPOLYLINE
  5
8425
330
1F
100
AcDbEntity
  8
10
  6
CONTINOUS
100
AcDbPolyline
 90
        7
 70
     0
 43
0.0
 10
224.5391343886275
 20
652.5470836289607
 10
224.5391343886275
 20
665.0470866093609
 10
102.5391368326276
 20
665.0470866093609
 10
102.5391368326276
 20
652.5470836289607
 42
0.4141255548205244
 10
104.5391394550277
 20
650.5470873245607
 10
222.5391317658275
 20
650.5470873245607
 42
0.4142135623730951
 10
224.5391317658275
 20
652.5470873245607
  0
LINE
  5
8426
330
1F
100
AcDbEntity
  8
10
  6
CONTINOUS
100
AcDbLine
 10
127.3905532658906
 20
723.1470873317609
 30
0.0
 11
171.3813207764426
 21
723.147087331761
 31
0.0
  0
LINE
  5
8427
330
1F
100
AcDbEntity
  8
10
  6
CONTINOUS
100
AcDbLine
 10
124.9224128922463
 20
720.5470873246927
 30
0.0
 11
122.9224125646463
 21
720.5470873246927
 31
0.0
  0
LINE
  5
8428
330
1F
100
AcDbEntity
  8
10
  6
CONTINOUS
100
AcDbLine
 10
122.9224125646463
 20
723.1470873318929
 30
0.0
 11
124.9224128922463
 21
723.1470873318929
 31
0.0
  0
LINE
  5
8429
330
1F
100
AcDbEntity
  8
10
  6
CONTINOUS
100
AcDbLine
 10
124.9224128922463
 20
720.5470873246927
 30
0.0
 11
138.5163697202464
 21
720.5470873246927
 31
0.0
  0
LINE
  5
842A
330
1F
100
AcDbEntity
  8
10
  6
CONTINOUS
100
AcDbLine
 10
124.9224128922463
 20
723.1470873318929
 30
0.0
 11
142.4177954694463
 21
723.1470873318929
 31
0.0
  0
LINE
  5
842B
330
1F
100
AcDbEntity
  8
10
  6
CONTINOUS
100
AcDbLine
 10
193.9721569276064
 20
671.4970877597607
 30
0.0
 11
135.8361937011213
 21
671.4970877597607
 31
0.0
  0
LINE
  5
842C
330
1F
100
AcDbEntity
  8
10
  6
CONTINOUS
100
AcDbLine
 10
193.9445478231764
 20
707.8701358493608
 30
0.0
 11
165.3359369345667
 21
707.8701358493608
 31
0.0
  0
LINE
  5
842D
330
1F
100
AcDbEntity
  8
10
  6
CONTINOUS
100
AcDbLine
 10
142.3700864241017
 20
707.8701358494931
 30
0.0
 11
134.0005940573015
 21
707.8701358494931
 31
0.0
  0
LINE
  5
842E
330
1F
100
AcDbEntity
  8
10
  6
CONTINOUS
100
AcDbLine
 10
165.6975717261667
 20
682.2854539581608
 30
0.0
 11
164.3359371441668
 21
683.6470861355487
 31
0.0
  0
LINE
  5
842F
330
1F
100
AcDbEntity
  8
10
  6
CONTINOUS
100
AcDbLine
 10
165.7446444945667
 20
671.4970877597607
 30
0.0
 11
165.6975717261667
 21
682.2854539581608
 31
0.0
  0
LINE
  5
8430
330
1F
100
AcDbEntity
  8
10
  6
CONTINOUS
100
AcDbLine
 10
161.4743023157667
 20
682.2854539581608
 30
0.0
 11
161.4272286161667
 21
671.4970877597607
 31
0.0
  0
LINE
  5
8431
330
1F
100
AcDbEntity
  8
10
  6
CONTINOUS
100
AcDbLine
 10
162.8359368981667
 20
683.6470873382534
 30
0.0
 11
161.4743023157667
 21
682.2854539581608
 31
0.0
  0
LINE
  5
8432
330
1F
100
AcDbEntity
  8
10
  6
CONTINOUS
100
AcDbLine
 10
192.0017083145667
 20
712.5338537821609
 30
0.0
 11
193.9422440382016
 21
710.9052100903636
 31
0.0
  0
LINE
  5
8433
330
1F
100
AcDbEntity
  8
10
  6
CONTINOUS
100
AcDbLine
 10
191.8231067217667
 20
712.9146939345607
 30
0.0
 11
191.8231067217667
 21
720.5470873245607
 31
0.0
  0
LINE
  5
8434
330
1F
100
AcDbEntity
  8
10
  6
CONTINOUS
100
AcDbLine
 10
164.3359371441668
 20
682.8512547741608
 30
0.0
 11
162.8359368981667
 21
682.8512547741608
 31
0.0
  0
LINE
  5
8435
330
1F
100
AcDbEntity
  8
10
  6
CONTINOUS
100
AcDbLine
 10
164.3359371441668
 20
682.8512547741608
 30
0.0
 11
164.3359371441668
 21
707.8701358493608
 31
0.0
  0
LINE
  5
8436
330
1F
100
AcDbEntity
  8
10
  6
CONTINOUS
100
AcDbLine
 10
162.8359368981667
 20
682.8512547741608
 30
0.0
 11
162.8359368981667
 21
707.8701358493608
 31
0.0
  0
LINE
  5
8437
330
1F
100
AcDbEntity
  8
10
  6
CONTINOUS
100
AcDbLine
 10
163.6359370285665
 20
707.8701358493608
 30
0.0
 11
163.6359370285665
 21
720.5470873245607
 31
0.0
  0
LINE
  5
8438
330
1F
100
AcDbEntity
  8
10
  6
CONTINOUS
100
AcDbLine
 10
165.1359372745667
 20
707.8701358493608
 30
0.0
 11
165.1359372745667
 21
720.5470873245607
 31
0.0
  0
LINE
  5
8439
330
1F
100
AcDbEntity
  8
10
  6
CONTINOUS
100
AcDbLine
 10
164.3359371441668
 20
681.8289531597607
 30
0.0
 11
162.8359368981667
 21
681.8289531597607
 31
0.0
  0
LINE
  5
843A
330
1F
100
AcDbEntity
  8
10
  6
CONTINOUS
100
AcDbLine
 10
162.8359368981667
 20
681.8289531597607
 30
0.0
 11
162.8359368981667
 21
682.8512547741608
 31
0.0
  0
LINE
  5
843B
330
1F
100
AcDbEntity
  8
10
  6
CONTINOUS
100
AcDbLine
 10
164.3359371441668
 20
681.8289531597607
 30
0.0
 11
164.3359371441668
 21
682.8512547741608
 31
0.0
  0
SPLINE
  5
843C
330
1F
100
AcDbEntity
  8
10
  6
CONTINOUS
100
AcDbSpline
210
0.0
220
0.0
230
1.0
 70
     8
 71
     3
 72
     9
 73
     5
 74
     0
 42
0.000000001
 43
0.0000000001
 40
0.0
 40
0.0
 40
0.0
 40
0.0
 40
0.4574472827388937
 40
1.0
 40
1.0
 40
1.0
 40
1.0
 10
191.8231067219319
 20
712.9146939346727
 30
0.0
 10
191.8309309877683
 20
712.8534948552997
 30
0.0
 10
191.8480351790738
 20
712.7197109600134
 30
0.0
 10
191.8998018267798
 20
712.6489765599111
 30
0.0
 10
192.0017083146405
 20
712.5338537820447
 30
0.0
  0
LINE
  5
843D
330
1F
100
AcDbEntity
  8
10
  6
CONTINOUS
100
AcDbLine
 10
193.9770528262095
 20
665.0470866093609
 30
0.0
 11
193.9349253335717
 21
720.5470873245607
 31
0.0
  0
LINE
  5
843E
330
1F
100
AcDbEntity
  8
10
  6
CONTINOUS
100
AcDbLine
 10
119.3224136074465
 20
724.947087324693
 30
0.0
 11
119.3224149546464
 21
665.0470866094931
 31
0.0
  0
LINE
  5
843F
330
1F
100
AcDbEntity
  8
10
  6
CONTINOUS
100
AcDbLine
 10
120.9224122366463
 20
665.0470866094931
 30
0.0
 11
120.9224136074464
 21
724.947087324693
 31
0.0
  0
ARC
  5
8440
330
1F
100
AcDbEntity
  8
10
  6
CONTINOUS
100
AcDbCircle
 10
121.1224136074464
 20
724.947087324693
 30
0.0
 40
0.1999999999999888
100
AcDbArc
 50
90.0
 51
180.0
  0
ARC
  5
8441
330
1F
100
AcDbEntity
  8
10
  6
CONTINOUS
100
AcDbCircle
 10
121.1224136074464
 20
724.947087324693
 30
0.0
 40
1.799999999999954
100
AcDbArc
 50
90.0
 51
180.0
  0
LINE
  5
8442
330
1F
100
AcDbEntity
  8
10
  6
CONTINOUS
100
AcDbLine
 10
141.4441584065361
 20
726.747087502693
 30
0.0
 11
121.1224118970463
 21
726.747087502693
 31
0.0
  0
LINE
  5
8443
330
1F
100
AcDbEntity
  8
10
  6
CONTINOUS
100
AcDbLine
 10
141.4162302591713
 20
725.1470874266931
 30
0.0
 11
121.1224118970463
 21
725.1470874266931
 31
0.0
  0
LINE
  5
8444
330
1F
100
AcDbEntity
  8
10
  6
CONTINOUS
100
AcDbLine
 10
122.9224125646463
 20
725.1470874266931
 30
0.0
 11
141.4162302591713
 21
725.1470874266931
 31
0.0
  0
LINE
  5
8445
330
1F
100
AcDbEntity
  8
10
  6
CONTINOUS
100
AcDbLine
 10
122.9224125646463
 20
720.5470873246927
 30
0.0
 11
122.9224125646463
 21
725.1470874266931
 31
0.0
  0
LINE
  5
8446
330
1F
100
AcDbEntity
  8
24
100
AcDbLine
 10
187.0086790955405
 20
743.2470878790152
 30
0.0
 11
171.3086796887405
 21
743.2470878790152
 31
0.0
  0
LWPOLYLINE
  5
8447
330
1F
100
AcDbEntity
  8
24
100
AcDbPolyline
 90
        4
 70
     0
 43
0.0
 10
140.8260901502212
 20
741.7602947799272
 10
140.8359366441666
 20
783.8470859657608
 10
157.9359373981667
 20
783.8470859657608
 10
157.9359373981667
 20
741.7602947799272
  0
LWPOLYLINE
  5
8448
330
1F
100
AcDbEntity
  8
24
100
AcDbPolyline
 90
        6
 70
     0
 43
0.0
 10
141.5359373177666
 20
783.8470859657608
 10
141.5359373177666
 20
820.1977842577607
 42
-0.3058016340050167
 10
141.8475884618336
 20
820.6581042151901
 42
-0.1967952312930879
 10
156.924285571905
 20
820.6581042185472
 42
-0.3058016388986208
 10
157.2359367243847
 20
820.1977842579387
 10
157.2359367245667
 20
783.8470859657608
  0
LINE
  5
8449
330
1F
100
AcDbEntity
  8
18
  6
DIVIDE
 48
5.0
100
AcDbLine
 10
78.81103092859689
 20
665.5470873245607
 30
0.0
 11
239.8035130397666
 21
665.5470873245607
 31
0.0
  0
LINE
  5
844A
330
1F
100
AcDbEntity
  8
18
  6
DIVIDE
 48
5.0
100
AcDbLine
 10
78.81103092859689
 20
669.5470873245607
 30
0.0
 11
239.8035130397666
 21
669.5470873245607
 31
0.0
  0
LINE
  5
844B
330
1F
100
AcDbEntity
  8
24
100
AcDbLine
 10
179.1459370209667
 20
764.0170873245607
 30
0.0
 11
179.1459370209667
 21
765.7670873245607
 31
0.0
  0
LINE
  5
844C
330
1F
100
AcDbEntity
  8
10
  6
CONTINOUS
100
AcDbLine
 10
203.5224134995185
 20
726.7470875025606
 30
0.0
 11
203.5224134995185
 21
727.747087200961
 31
0.0
  0
LINE
  5
844D
330
1F
100
AcDbEntity
  8
10
  6
CONTINOUS
100
AcDbLine
 10
193.5224155855185
 20
727.747087200961
 30
0.0
 11
193.5224155855185
 21
726.7470875025606
 31
0.0
  0
LINE
  5
844E
330
1F
100
AcDbEntity
  8
10
  6
CONTINOUS
100
AcDbLine
 10
203.1224141791187
 20
727.747087200961
 30
0.0
 11
203.1224141791184
 21
729.0470877865608
 31
0.0
  0
LWPOLYLINE
  5
844F
330
1F
100
AcDbEntity
  8
10
  6
CONTINOUS
100
AcDbPolyline
 90
        4
 70
     0
 43
0.0
 10
193.7724160923185
 20
730.490562340161
 10
193.7724160923185
 20
729.0470877865608
 10
203.2724129927186
 20
729.0470877865608
 10
203.2724129927186
 20
730.490562340161
  0
LWPOLYLINE
  5
8450
330
1F
100
AcDbEntity
  8
10
  6
CONTINOUS
100
AcDbPolyline
 90
        5
 70
     0
 43
0.0
 10
203.0324144831186
 20
729.7605618825611
 42
0.2633131761903178
 10
202.4018174681944
 20
730.874967393981
 42
0.1360605493281584
 10
198.2824144831185
 20
732.0170873245607
 42
0.1360605493358075
 10
194.1630114980436
 20
730.8749673938415
 42
0.263313176190318
 10
193.5324144831183
 20
729.7605618825611
  0
LINE
  5
8451
330
1F
100
AcDbEntity
  8
10
  6
CONTINOUS
100
AcDbLine
 10
202.5224151983185
 20
720.5470873245607
 30
0.0
 11
204.5224155259185
 21
720.5470873245607
 31
0.0
  0
LINE
  5
8452
330
1F
100
AcDbEntity
  8
10
  6
CONTINOUS
100
AcDbLine
 10
204.5224155259185
 20
723.147087331761
 30
0.0
 11
202.5224151983185
 21
723.147087331761
 31
0.0
  0
LINE
  5
8453
330
1F
100
AcDbEntity
  8
10
  6
CONTINOUS
100
AcDbLine
 10
204.5224155259184
 20
720.5470873245607
 30
0.0
 11
122.9224125646463
 21
720.5470873246927
 31
0.0
  0
LINE
  5
8454
330
1F
100
AcDbEntity
  8
10
  6
CONTINOUS
100
AcDbLine
 10
204.5224155259184
 20
723.147087331761
 30
0.0
 11
187.3905551589668
 21
723.147087331761
 31
0.0
  0
LINE
  5
8455
330
1F
100
AcDbEntity
  8
10
  6
CONTINOUS
100
AcDbLine
 10
193.5224155855185
 20
727.747087200961
 30
0.0
 11
203.5224134995185
 21
727.747087200961
 31
0.0
  0
ELLIPSE
  5
8456
330
1F
100
AcDbEntity
  8
10
  6
CONTINOUS
100
AcDbEllipse
 10
198.5224144831185
 20
729.420418864561
 30
0.0
 11
0.0
 21
-12.63839612949135
 31
0.0
210
0.0
220
0.0
230
1.0
 40
0.3639702343
 41
4.741932712748464
 42
4.845179527289683
  0
LINE
  5
8457
330
1F
100
AcDbEntity
  8
10
  6
CONTINOUS
100
AcDbLine
 10
208.1224144831184
 20
724.9470873245607
 30
0.0
 11
208.1224131359185
 21
665.0470866093609
 31
0.0
  0
LINE
  5
8458
330
1F
100
AcDbEntity
  8
10
  6
CONTINOUS
100
AcDbLine
 10
206.5224158539186
 20
665.0470866093609
 30
0.0
 11
206.5224144831185
 21
724.9470873245607
 31
0.0
  0
ARC
  5
8459
330
1F
100
AcDbEntity
  8
10
  6
CONTINOUS
100
AcDbCircle
 10
206.3224144831184
 20
724.9470873245607
 30
0.0
 40
0.1999999999999888
100
AcDbArc
 50
0.0
 51
90.0
  0
ARC
  5
845A
330
1F
100
AcDbEntity
  8
10
  6
CONTINOUS
100
AcDbCircle
 10
206.3224144831184
 20
724.9470873245607
 30
0.0
 40
1.799999999999954
100
AcDbArc
 50
0.0
 51
90.0
  0
LINE
  5
845B
330
1F
100
AcDbEntity
  8
10
  6
CONTINOUS
100
AcDbLine
 10
187.3277169621668
 20
726.7470875025606
 30
0.0
 11
206.3224144831184
 21
726.7470873245606
 31
0.0
  0
LINE
  5
845C
330
1F
100
AcDbEntity
  8
10
  6
CONTINOUS
100
AcDbLine
 10
187.3556454633667
 20
725.147087426561
 30
0.0
 11
206.3224144831184
 21
725.1470873245607
 31
0.0
  0
LINE
  5
845D
330
1F
100
AcDbEntity
  8
10
  6
CONTINOUS
100
AcDbLine
 10
204.5224155259185
 20
720.5470873245607
 30
0.0
 11
204.5224155259185
 21
725.147087426561
 31
0.0
  0
DIMENSION
  5
845E
330
1F
100
AcDbEntity
  8
30
  6
Continuous
100
AcDbDimension
280
     0
  2
*D32
 10
149.1459370209667
 20
839.6971093030531
 30
0.0
 11
164.1459370209665
 21
839.6971093030531
 31
0.0
 70
   160
  1
<>
 71
     2
 42
30.0
 73
     0
 74
     0
 75
     0
  3
STANDARD
100
AcDbAlignedDimension
 13
179.1459370209667
 23
773.3441203377844
 33
0.0
 14
149.1459370209667
 24
818.651721257466
 34
0.0
 50
180.0
100
AcDbRotatedDimension
1001
ACAD
1000
DSTYLE
1002
{
1070
    79
1070
     3
1002
}
  0
LWPOLYLINE
  5
845F
330
1F
100
AcDbEntity
  8
24
  6
CONTINOUS
100
AcDbPolyline
 90
        6
 70
     0
 43
0.0
 10
161.5882633246277
 20
723.147087331761
 10
161.5882633246277
 20
726.717087274161
 10
162.0882643378277
 20
727.2170873561607
 10
165.0882638982277
 20
727.2170873561607
 10
165.5882639802278
 20
726.717087274161
 10
165.5882639802278
 20
723.147087331761
  0
LINE
  5
8460
330
1F
100
AcDbEntity
  8
24
  6
CONTINOUS
100
AcDbLine
 10
161.5882633246277
 20
726.717087274161
 30
0.0
 11
165.5882639802278
 21
726.717087274161
 31
0.0
  0
LINE
  5
8461
330
1F
100
AcDbEntity
  8
10
  6
CONTINOUS
100
AcDbLine
 10
120.9224132166436
 20
707.8701358493608
 30
0.0
 11
134.0005940574815
 21
707.8701358494027
 31
0.0
  0
LINE
  5
8462
330
1F
100
AcDbEntity
  8
10
  6
CONTINOUS
100
AcDbLine
 10
137.8066423140086
 20
712.5338537821349
 30
0.0
 11
135.8661065903799
 21
710.9052100903302
 31
0.0
  0
LINE
  5
8463
330
1F
100
AcDbEntity
  8
10
  6
CONTINOUS
100
AcDbLine
 10
137.9852439068073
 20
712.9146939345355
 30
0.0
 11
137.9852439068073
 21
720.5470873246927
 31
0.0
  0
SPLINE
  5
8464
330
1F
100
AcDbEntity
  8
10
  6
CONTINOUS
100
AcDbSpline
210
0.0
220
0.0
230
1.0
 70
     8
 71
     3
 72
     9
 73
     5
 74
     0
 42
0.000000001
 43
0.0000000001
 40
0.0
 40
0.0
 40
0.0
 40
0.0
 40
0.4574472827388937
 40
1.0
 40
1.0
 40
1.0
 40
1.0
 10
137.9852439066421
 20
712.9146939346472
 30
0.0
 10
137.977419640806
 20
712.8534948552742
 30
0.0
 10
137.960315449501
 20
712.7197109599882
 30
0.0
 10
137.9085488017953
 20
712.6489765598855
 30
0.0
 10
137.8066423139349
 20
712.5338537820189
 30
0.0
  0
LINE
  5
8465
330
1F
100
AcDbEntity
  8
10
  6
CONTINOUS
100
AcDbLine
 10
135.8312978025421
 20
665.0470866093276
 30
0.0
 11
135.873425294974
 21
720.5470873245277
 31
0.0
  0
LINE
  5
8466
330
1F
100
AcDbEntity
  8
10
  6
CONTINOUS
100
AcDbLine
 10
143.7054293014048
 20
707.8701358493608
 30
0.0
 11
135.3359369346049
 21
707.8701358493608
 31
0.0
  0
LINE
  5
8467
330
1F
100
AcDbEntity
  8
10
  6
CONTINOUS
100
AcDbLine
 10
163.4359373681667
 20
707.8701358493608
 30
0.0
 11
143.7054293014048
 21
707.8701358493608
 31
0.0
  0
LINE
  5
8468
330
1F
100
AcDbEntity
  8
10
  6
CONTINOUS
100
AcDbLine
 10
123.9224145914463
 20
726.747087502693
 30
0.0
 11
123.9224145914463
 21
727.7470872010931
 31
0.0
  0
LINE
  5
8469
330
1F
100
AcDbEntity
  8
10
  6
CONTINOUS
100
AcDbLine
 10
133.9224125054463
 20
727.7470872010931
 30
0.0
 11
133.9224125054463
 21
726.747087502693
 31
0.0
  0
LINE
  5
846A
330
1F
100
AcDbEntity
  8
10
  6
CONTINOUS
100
AcDbLine
 10
124.3224139118462
 20
727.7470872010931
 30
0.0
 11
124.3224139118464
 21
729.0470877866928
 31
0.0
  0
LWPOLYLINE
  5
846B
330
1F
100
AcDbEntity
  8
10
  6
CONTINOUS
100
AcDbPolyline
 90
        4
 70
     0
 43
0.0
 10
133.6724119986463
 20
730.4905623402929
 10
133.6724119986463
 20
729.0470877866928
 10
124.1724150982462
 20
729.0470877866928
 10
124.1724150982462
 20
730.4905623402929
  0
LWPOLYLINE
  5
846C
330
1F
100
AcDbEntity
  8
10
  6
CONTINOUS
100
AcDbPolyline
 90
        5
 70
     0
 43
0.0
 10
124.1724136078462
 20
730.4905618826929
 42
-0.2633131761903178
 10
124.8030106227704
 20
731.6049673941131
 42
-0.1360605493281584
 10
128.9224136078463
 20
732.7470873246926
 42
-0.1360605493358075
 10
133.0418165929212
 20
731.6049673939739
 42
-0.263313176190318
 10
133.6724136078464
 20
730.4905618826929
  0
LINE
  5
846D
330
1F
100
AcDbEntity
  8
10
  6
CONTINOUS
100
AcDbLine
 10
133.9224125054463
 20
727.7470872010931
 30
0.0
 11
123.9224145914463
 21
727.7470872010931
 31
0.0
  0
ELLIPSE
  5
846E
330
1F
100
AcDbEntity
  8
10
  6
CONTINOUS
100
AcDbEllipse
 10
128.9224136078463
 20
729.4204188646931
 30
0.0
 11
0.0
 21
-12.63839612949135
 31
0.0
210
0.0
220
0.0
230
-1.0
 40
0.3639702343
 41
4.741932712748464
 42
4.845179527289683
  0
LWPOLYLINE
  5
846F
102
{ACAD_REACTORS
330
8487
102
}
330
1F
100
AcDbEntity
  8
24
100
AcDbPolyline
 90
        8
 70
     0
 43
0.0
 10
184.1743194198051
 20
735.7470873246186
 42
-0.1683727652934361
 10
187.0086785735407
 20
741.8418925202662
 10
187.1586785735406
 20
770.8944855455566
 42
0.1278513079332888
 10
186.6971406695873
 20
771.2719786234424
 42
0.1028205419895897
 10
171.6202175926794
 20
771.271978623486
 42
0.0465035059649609
 10
171.1586791667406
 20
770.8814894610291
 10
171.1586791667406
 20
741.7602947799815
 42
-0.1953251241738503
 10
174.1430388424761
 20
735.7470873246186
  0
DIMENSION
  5
8470
330
1F
100
AcDbEntity
  8
30
  6
Continuous
100
AcDbDimension
280
     0
  2
*D33
 10
233.8531887328072
 20
763.6009475745397
 30
0.0
 11
233.8531887328071
 21
736.1009475745397
 31
0.0
 70
   160
  1
<>
 71
     2
 42
12.5
 73
     0
 74
     0
 75
     0
  3
STANDARD
100
AcDbAlignedDimension
 13
178.181254764336
 23
751.1009475745397
 33
0.0
 14
178.181254764336
 24
763.6009475745397
 34
0.0
 50
90.0
100
AcDbRotatedDimension
  0
DIMENSION
  5
8471
330
1F
100
AcDbEntity
  8
30
  6
Continuous
100
AcDbDimension
280
     0
  2
*D34
 10
187.1459364633667
 20
811.3265120831082
 30
0.0
 11
200.9395048266924
 21
811.3265120831082
 31
0.0
 70
   160
  1
<>
 71
     2
 42
15.99999940680004
 73
     0
 74
     0
 75
     0
  3
STANDARD
100
AcDbAlignedDimension
 13
171.1459370565667
 23
770.9361982519922
 33
0.0
 14
187.1459364633667
 24
771.0692820584689
 34
0.0
 50
180.0
100
AcDbRotatedDimension
1001
ACAD
1000
DSTYLE
1002
{
1070
    79
1070
     3
1002
}
  0
DIMENSION
  5
8472
330
1F
100
AcDbEntity
  8
30
  6
Continuous
100
AcDbDimension
280
     0
  2
*D35
 10
183.4502279786218
 20
793.6976534943237
 30
0.0
 11
199.2266202976651
 21
793.6976534943237
 31
0.0
 70
   160
  1
<>
 71
     2
 42
8.5
 73
     0
 74
     0
 75
     0
  3
STANDARD
100
AcDbAlignedDimension
 13
174.9502279786218
 23
759.747087324561
 33
0.0
 14
183.4502279786218
 24
759.747087324561
 34
0.0
 50
180.0
100
AcDbRotatedDimension
1001
ACAD
1000
DSTYLE
1002
{
1070
    79
1070
     3
1002
}
  0
CIRCLE
  5
8473
330
1F
100
AcDbEntity
  8
10
  6
CONTINOUS
100
AcDbCircle
 10
142.5368097171668
 20
658.0473101279133
 30
0.0
 40
0.7249999999999092
  0
CIRCLE
  5
8474
330
1F
100
AcDbEntity
  8
10
  6
CONTINOUS
100
AcDbCircle
 10
148.0368097171669
 20
658.0473101279133
 30
0.0
 40
0.7250000000000229
  0
CIRCLE
  5
8475
330
1F
100
AcDbEntity
  8
10
  6
CONTINOUS
100
AcDbCircle
 10
179.0368097171669
 20
658.0473101279133
 30
0.0
 40
0.7250000000000229
  0
CIRCLE
  5
8476
330
1F
100
AcDbEntity
  8
10
  6
CONTINOUS
100
AcDbCircle
 10
184.5368097171668
 20
658.0473101279133
 30
0.0
 40
0.7250000000000229
  0
CIRCLE
  5
8477
330
1F
100
AcDbEntity
  8
10
  6
CONTINOUS
100
AcDbCircle
 10
142.5368097171668
 20
658.0473101279133
 30
0.0
 40
2.355709342560828
  0
CIRCLE
  5
8478
330
1F
100
AcDbEntity
  8
10
  6
CONTINOUS
100
AcDbCircle
 10
148.0368097171669
 20
658.0473101279133
 30
0.0
 40
2.355709342560828
  0
CIRCLE
  5
8479
330
1F
100
AcDbEntity
  8
10
  6
CONTINOUS
100
AcDbCircle
 10
179.0368097171669
 20
658.0473101279133
 30
0.0
 40
2.355709342560828
  0
CIRCLE
  5
847A
330
1F
100
AcDbEntity
  8
10
  6
CONTINOUS
100
AcDbCircle
 10
184.5368097171668
 20
658.0473101279133
 30
0.0
 40
2.355709342560828
  0
LINE
  5
847B
330
1F
100
AcDbEntity
  8
24
100
AcDbLine
 10
157.9359373981667
 20
743.2470878789607
 30
0.0
 11
140.8359366440721
 21
743.2470878789607
 31
0.0
  0
LWPOLYLINE
  5
847C
330
1F
100
AcDbEntity
  8
24
100
AcDbPolyline
 90
        2
 70
     0
 43
0.0
 10
155.0841996990971
 20
735.7470875809609
 42
-0.2475726248225671
 10
157.9359373981667
 20
741.7602947799272
  0
LINE
  5
847D
330
1F
100
AcDbEntity
  8
16
100
AcDbLine
 10
149.41989275793
 20
611.3669314742374
 30
0.0
 11
149.41989275793
 21
817.3456797365881
 31
0.0
  0
LINE
  5
847E
330
1F
100
AcDbEntity
  8
16
100
AcDbLine
 10
139.5296092589547
 20
807.0819478597666
 30
0.0
 11
161.0252258805736
 21
807.0819478597666
 31
0.0
  0
LWPOLYLINE
  5
847F
330
1F
100
AcDbEntity
  8
24
100
AcDbPolyline
 90
        5
 70
     0
 43
0.0
 10
145.186238664134
 20
809.396835362536
 10
145.186238664134
 20
805.3755487748846
 42
0.9995984643691707
 10
153.7241837155851
 20
805.378977720799
 10
153.7241837155851
 20
809.3968348954597
 42
1.0
 10
145.1862372870134
 20
809.3968348954597
  0
LINE
  5
8480
330
1F
100
AcDbEntity
  8
16
100
AcDbLine
 10
179.1459370209667
 20
682.1303468359457
 30
0.0
 11
179.1459370209667
 21
773.1014048880326
 31
0.0
  0
LINE
  5
8481
102
{ACAD_REACTORS
330
8487
102
}
330
1F
100
AcDbEntity
  8
24
100
AcDbLine
 10
173.6786160343033
 20
757.0170873245607
 30
0.0
 11
184.8377614243206
 21
757.0170873245607
 31
0.0
  0
LWPOLYLINE
  5
8482
330
1F
100
AcDbEntity
  8
24
100
AcDbPolyline
 90
        5
 70
     0
 43
0.0
 10
174.9122829271707
 20
759.33197482733
 10
174.9122829271707
 20
755.3106882396788
 42
0.9995984643691707
 10
183.4502279786218
 20
755.3141171855927
 10
183.4502279786218
 20
759.3319743602537
 42
1.0
 10
174.9122815500502
 20
759.3319743602537
  0
DIMENSION
  5
8483
330
1F
100
AcDbEntity
  8
30
  6
Continuous
100
AcDbDimension
280
     0
  2
*D36
 10
58.86009512709181
 20
822.0416152643258
 30
0.0
 11
58.86009512709168
 21
743.5443512944432
 31
0.0
 70
   160
 71
     5
 42
156.9945286549648
 73
     0
 74
     0
 75
     0
  3
STANDARD
100
AcDbAlignedDimension
 13
106.200486998537
 23
665.0470866093609
 33
0.0
 14
153.047287186876
 24
822.0416152643258
 34
0.0
 50
90.0
100
AcDbRotatedDimension
1001
ACAD
1000
DSTYLE
1002
{
1070
    79
1070
     3
1002
}
  0
DIMENSION
  5
8484
330
1F
100
AcDbEntity
  8
30
  6
Continuous
100
AcDbDimension
280
     0
  2
*D37
 10
119.5979800372024
 20
807.0819478597666
 30
0.0
 11
113.5979800372023
 21
814.5617815620463
 31
0.0
 70
    32
 71
     5
 42
14.95966740455901
 73
     0
 74
     0
 75
     0
  3
STANDARD
100
AcDbAlignedDimension
 13
148.3859370209667
 23
822.0416152643258
 33
0.0
 14
145.186238664134
 24
807.0819478597666
 34
0.0
 50
90.0
100
AcDbRotatedDimension
1001
ACAD
1000
DSTYLE
1002
{
1070
    79
1070
     3
1002
}
  0
DIMENSION
  5
8485
102
{ACAD_XDICTIONARY
360
8486
102
}
102
{ACAD_REACTORS
330
8487
102
}
330
1F
100
AcDbEntity
  8
30
  6
Continuous
100
AcDbDimension
280
     0
  2
*D39
 10
206.977484885667
 20
772.0470873246156
 30
0.0
 11
206.9774848856669
 21
782.9568645680494
 31
0.0
 70
   160
 71
     5
 42
15.03000000005477
 73
     0
 74
     0
 75
     0
  3
STANDARD
100
AcDbAlignedDimension
 13
179.2581887293119
 23
757.0170873245607
 33
0.0
 14
179.1586791310283
 24
772.0470873246156
 34
0.0
 50
90.0
100
AcDbRotatedDimension
1001
ACAD
1000
DSTYLE
1002
{
1070
    79
1070
     3
1002
}
  0
DIMENSION
  5
8488
330
1F
100
AcDbEntity
  8
30
  6
Continuous
100
AcDbDimension
280
     0
  2
*D38
 10
261.4923098511026
 20
772.0170873245613
 30
0.0
 11
261.4923098511025
 21
718.532086966961
 31
0.0
 70
   160
 71
     5
 42
106.9700007152004
 73
     0
 74
     0
 75
     0
  3
STANDARD
100
AcDbAlignedDimension
 13
224.5391343886275
 23
665.0470866093609
 33
0.0
 14
181.145937020906
 24
772.0170873245613
 34
0.0
 50
90.0
100
AcDbRotatedDimension
1001
ACAD
1000
DSTYLE
1002
{
1070
    79
1070
     3
1002
}
  0
INSERT
  5
8489
330
1F
100
AcDbEntity
  8
0
100
AcDbBlockReference
  2
A$C23077EED
 10
179.6402423788715
 20
707.8701358493608
 30
0.0
  0
INSERT
  5
848A
330
1F
100
AcDbEntity
  8
0
100
AcDbBlockReference
  2
A$C23077EED
 10
149.3368097241742
 20
707.8701358493608
 30
0.0
  0
LWPOLYLINE
  5
848B
330
1F
100
AcDbEntity
  8
10
  6
CONTINOUS
100
AcDbPolyline
 90
        6
 70
     0
 43
0.0
 10
138.3859370805666
 20
648.5470904241607
 10
138.46237771025
 20
642.8287464106155
 42
0.4103039084504922
 10
138.9623330429437
 20
642.3354296217609
 10
159.8141952299112
 20
642.3354296217608
 42
0.410541630299918
 10
160.3141558358774
 20
642.8291532787222
 10
160.3859369613666
 20
648.5470904241607
  0
LWPOLYLINE
  5
848C
330
1F
100
AcDbEntity
  8
10
  6
CONTINOUS
100
AcDbPolyline
 90
        6
 70
     0
 43
0.0
 10
142.8859366706117
 20
642.3354296217609
 10
142.8859370209666
 20
627.1206832505612
 42
0.3871416151798214
 10
143.3853497516959
 20
626.6001372161805
 10
155.388118675622
 20
626.5795870538006
 42
0.4129361445666932
 10
155.8859370209666
 20
627.0795822826833
 10
155.885937371169
 20
642.3354296217609
  0
LWPOLYLINE
  5
848D
330
1F
100
AcDbEntity
  8
10
  6
CONTINOUS
100
AcDbPolyline
 90
        4
 70
     0
 43
0.0
 10
129.5231745471097
 20
650.5470873245607
 10
129.5580842479114
 20
648.5470904241607
 10
191.3161170641666
 20
648.5470904241607
 10
191.3510267645681
 20
650.5470873245607
  0
LINE
  5
87E8
330
1F
100
AcDbEntity
  8
17
 48
5.0
100
AcDbLine
 10
530.6786881084781
 20
498.631211665349
 30
0.0
 11
419.9431285450407
 21
498.631211665349
 31
0.0
  0
LINE
  5
87EF
330
1F
100
AcDbEntity
  8
17
 48
5.0
100
AcDbLine
 10
530.6786881084781
 20
384.631211665349
 30
0.0
 11
419.9431285450407
 21
384.631211665349
 31
0.0
  0
ENDSEC
  0
SECTION
  2
OBJECTS
  0
DICTIONARY
  5
C
330
0
100
AcDbDictionary
281
     1
  3
ACAD_CIP_PREVIOUS_PRODUCT_INFO
350
8783
  3
ACAD_COLOR
350
3150
  3
ACAD_DETAILVIEWSTYLE
350
314A
  3
ACAD_GROUP
350
D
  3
ACAD_LAYOUT
350
1A
  3
ACAD_MATERIAL
350
43
  3
ACAD_MLEADERSTYLE
350
3149
  3
ACAD_MLINESTYLE
350
17
  3
ACAD_PLOTSETTINGS
350
19
  3
ACAD_PLOTSTYLENAME
350
E
  3
ACAD_SCALELIST
350
47
  3
ACAD_SECTIONVIEWSTYLE
350
314B
  3
ACAD_TABLESTYLE
350
3148
  3
ACAD_VISUALSTYLE
350
2A
  3
ACDB_RECOMPOSE_DATA
350
8875
  3
AcDbVariableDictionary
350
3146
  3
AEC_PROPERTY_SET_DEFS
350
7116
  0
SUN
  5
69
330
29
100
AcDbSun
 90
        1
290
     1
 63
     7
421
 16777215
 40
1.0
291
     1
 91
  2455826
 92
 54000000
292
     0
 70
     0
 71
   256
280
     1
  0
DICTIONARY
  5
52E1
330
2
100
AcDbDictionary
280
     1
281
     1
  3
ACAD_LAYERSTATES
360
52E2
  0
DICTIONARY
  5
3158
330
10
100
AcDbDictionary
280
     1
281
     1
  3
ADSK_XREC_LAYER_RECONCILED
360
3159
  0
DICTIONARY
  5
315C
330
72
100
AcDbDictionary
280
     1
281
     1
  3
ADSK_XREC_LAYER_RECONCILED
360
315D
  0
DICTIONARY
  5
39AB
330
39AA
100
AcDbDictionary
280
     1
281
     1
  0
DICTIONARY
  5
39AF
330
39AE
100
AcDbDictionary
280
     1
281
     1
  0
DICTIONARY
  5
39B1
330
39B0
100
AcDbDictionary
280
     1
281
     1
  0
DICTIONARY
  5
39B3
330
39B2
100
AcDbDictionary
280
     1
281
     1
  0
DICTIONARY
  5
39B5
330
39B4
100
AcDbDictionary
280
     1
281
     1
  0
DICTIONARY
  5
39B7
330
39B6
100
AcDbDictionary
280
     1
281
     1
  0
DICTIONARY
  5
71C5
330
71C4
100
AcDbDictionary
280
     1
281
     1
  0
DICTIONARY
  5
760D
330
760C
100
AcDbDictionary
280
     1
281
     1
  0
DICTIONARY
  5
77D2
330
77D1
100
AcDbDictionary
280
     1
281
     1
  0
DICTIONARY
  5
7D8A
330
7D89
100
AcDbDictionary
280
     1
281
     1
  0
DICTIONARY
  5
52DB
330
1F
100
AcDbDictionary
280
     1
281
     1
  3
ACAD_SORTENTS
360
52DC
  0
DICTIONARY
  5
7153
330
7151
100
AcDbDictionary
280
     1
281
     1
  3
ACAD_SORTENTS
360
7154
  0
DICTIONARY
  5
71CA
330
71C6
100
AcDbDictionary
280
     1
281
     1
  3
ACAD_SORTENTS
360
71CB
  0
DICTIONARY
  5
73FF
330
73FD
100
AcDbDictionary
280
     1
281
     1
  3
ACAD_SORTENTS
360
7400
  0
DICTIONARY
  5
8170
330
814A
100
AcDbDictionary
280
     1
281
     1
  3
ACAD_SORTENTS
360
8171
  0
DICTIONARY
  5
81BD
330
81BC
100
AcDbDictionary
280
     1
281
     1
  3
ACAD_SORTENTS
360
81BE
  0
DICTIONARY
  5
73F3
330
73E7
100
AcDbDictionary
280
     1
281
     1
  3
ACAD_DIMASSOC
360
73FC
  0
DICTIONARY
  5
747D
330
7470
100
AcDbDictionary
280
     1
281
     1
  3
ACAD_DIMASSOC
360
7487
  0
DICTIONARY
  5
7495
330
7488
100
AcDbDictionary
280
     1
281
     1
  3
ACAD_DIMASSOC
360
749F
  0
DICTIONARY
  5
8486
330
8485
100
AcDbDictionary
280
     1
281
     1
  3
ACAD_DIMASSOC
360
8487
  0
XRECORD
  5
8783
102
{ACAD_REACTORS
330
C
102
}
330
C
100
AcDbXrecord
280
     1
300
ACDLT
300
2014
300
ACDLT_F_S
  0
DICTIONARY
  5
3150
102
{ACAD_REACTORS
330
C
102
}
330
C
100
AcDbDictionary
281
     1
  0
DICTIONARY
  5
314A
102
{ACAD_REACTORS
330
C
102
}
330
C
100
AcDbDictionary
281
     1
  3
Metric50
350
877D
  0
DICTIONARY
  5
D
102
{ACAD_REACTORS
330
C
102
}
330
C
100
AcDbDictionary
281
     1
  0
DICTIONARY
  5
1A
102
{ACAD_REACTORS
330
C
102
}
330
C
100
AcDbDictionary
281
     1
  3
Layout1
350
1E
  3
Layout2
350
26
  3
Model
350
22
  0
DICTIONARY
  5
43
102
{ACAD_REACTORS
330
C
102
}
330
C
100
AcDbDictionary
281
     1
  3
ByBlock
350
45
  3
ByLayer
350
44
  3
Global
350
46
  0
DICTIONARY
  5
3149
102
{ACAD_REACTORS
330
C
102
}
330
C
100
AcDbDictionary
281
     1
  3
Standard
350
3152
  0
DICTIONARY
  5
17
102
{ACAD_REACTORS
330
C
102
}
330
C
100
AcDbDictionary
281
     1
  3
Standard
350
18
  0
DICTIONARY
  5
19
102
{ACAD_REACTORS
330
C
102
}
330
C
100
AcDbDictionary
281
     1
  0
ACDBDICTIONARYWDFLT
  5
E
102
{ACAD_REACTORS
330
C
102
}
330
C
100
AcDbDictionary
281
     1
  3
Normal
350
F
100
AcDbDictionaryWithDefault
340
F
  0
DICTIONARY
  5
47
102
{ACAD_REACTORS
330
C
102
}
330
C
100
AcDbDictionary
281
     1
  3
A0
350
48
  3
A1
350
49
  3
A2
350
4A
  3
A3
350
4B
  3
A4
350
4C
  3
A5
350
4D
  3
A6
350
4E
  3
A7
350
4F
  3
A8
350
50
  3
A9
350
51
  3
B0
350
52
  3
B1
350
53
  3
B2
350
54
  3
B3
350
55
  3
B4
350
56
  3
B5
350
57
  3
B6
350
58
  3
B7
350
59
  3
B8
350
5A
  3
B9
350
5B
  3
C0
350
5C
  3
C1
350
5D
  3
C2
350
5E
  3
C3
350
5F
  3
C4
350
60
  3
C5
350
61
  3
C6
350
62
  3
C7
350
63
  3
C8
350
64
  3
C9
350
65
  3
D0
350
66
  3
D1
350
67
  3
D2
350
68
  0
DICTIONARY
  5
314B
102
{ACAD_REACTORS
330
C
102
}
330
C
100
AcDbDictionary
281
     1
  3
Metric50
350
877C
  0
DICTIONARY
  5
3148
102
{ACAD_REACTORS
330
C
102
}
330
C
100
AcDbDictionary
281
     1
  3
Standard
350
3151
  0
DICTIONARY
  5
2A
102
{ACAD_REACTORS
330
C
102
}
330
C
100
AcDbDictionary
281
     1
  3
2dWireframe
350
2F
  3
3D Hidden
350
314F
  3
3dWireframe
350
314E
  3
Basic
350
32
  3
Brighten
350
36
  3
ColorChange
350
3A
  3
Conceptual
350
34
  3
Dim
350
35
  3
EdgeColorOff
350
3D
  3
Facepattern
350
39
  3
Flat
350
2B
  3
FlatWithEdges
350
2C
  3
Gouraud
350
2D
  3
GouraudWithEdges
350
2E
  3
Hidden
350
31
  3
JitterOff
350
3B
  3
Linepattern
350
38
  3
OverhangOff
350
3C
  3
Realistic
350
33
  3
Shaded
350
42
  3
Shaded with edges
350
41
  3
Shades of Gray
350
3E
  3
Sketchy
350
3F
  3
Thicken
350
37
  3
Wireframe
350
30
  3
X-Ray
350
40
  0
XRECORD
  5
8875
102
{ACAD_REACTORS
330
C
102
}
330
C
100
AcDbXrecord
280
     1
 90
        1
330
3151
330
877C
330
877D
  0
DICTIONARY
  5
3146
102
{ACAD_REACTORS
330
C
102
}
330
C
100
AcDbDictionary
281
     1
  3
CANNOSCALE
350
3147
  3
CMLEADERSTYLE
350
315F
  3
CTABLESTYLE
350
315E
  3
CVIEWDETAILSTYLE
350
87C2
  3
CVIEWSECTIONSTYLE
350
87C3
  3
LAYEREVAL
350
3160
  3
LAYERNOTIFY
350
3161
  0
DICTIONARY
  5
7116
102
{ACAD_REACTORS
330
C
102
}
330
C
100
AcDbDictionary
281
     1
  0
DICTIONARY
  5
52E2
102
{ACAD_REACTORS
330
52E1
102
}
330
52E1
100
AcDbDictionary
281
     1
  0
XRECORD
  5
3159
102
{ACAD_REACTORS
330
3158
102
}
330
3158
100
AcDbXrecord
280
     1
290
     1
  0
XRECORD
  5
315D
102
{ACAD_REACTORS
330
315C
102
}
330
315C
100
AcDbXrecord
280
     1
290
     1
  0
SORTENTSTABLE
  5
52DC
102
{ACAD_REACTORS
330
52DB
102
}
330
52DB
100
AcDbSortentsTable
330
1F
331
623B
  5
70D2
331
4AF6
  5
4C38
331
6232
  5
70CA
331
620C
  5
6688
331
5D06
  5
6681
331
5C04
  5
65D9
331
7488
  5
8182
331
623C
  5
70D3
331
3AE0
  5
3AE0
331
5FB2
  5
7058
331
5E13
  5
702A
331
65D8
  5
71A9
331
7167
  5
7619
331
6217
  5
65D8
331
711C
  5
7470
331
65D9
  5
71AA
331
6486
  5
700F
331
5E14
  5
7057
331
6370
  5
70D8
331
6218
  5
65D7
331
64D1
  5
7165
331
620F
  5
6F18
331
4AEC
  5
4BBE
331
3AE2
  5
3AE2
331
6371
  5
70D9
331
5FB4
  5
7059
331
65DA
  5
71AB
331
6219
  5
65D6
331
5FBA
  5
70C5
331
4AED
  5
4BD6
331
64D2
  5
7166
331
6236
  5
70CB
331
73E7
  5
817F
331
5D71
  5
6685
331
3AE3
  5
3AE3
331
65DB
  5
71AC
331
70D4
  5
73A1
331
65D6
  5
71A6
331
64A0
  5
7164
331
6372
  5
70DA
331
646E
  5
7161
331
4AEE
  5
4BD7
331
7031
  5
4BBD
331
64D3
  5
7167
331
6237
  5
70CE
331
5D8C
  5
6F17
331
3AE4
  5
3AE4
331
65D7
  5
71A7
331
622D
  5
70C8
331
65DC
  5
71AD
331
7451
  5
71AF
331
66BB
  5
71B0
331
54C2
  5
65C7
331
4AEF
  5
4C28
331
64DD
  5
71A2
331
4AF2
  5
4C2A
331
65DD
  5
71AE
331
70D6
  5
7404
331
7470
  5
8181
331
64DE
  5
71A5
331
73A1
  5
817E
331
6242
  5
70D4
331
6238
  5
70CF
331
4AF3
  5
4C33
331
70D7
  5
7451
331
622F
  5
70C9
331
5D74
  5
6686
331
6243
  5
70D5
331
712A
  5
7488
331
5FBE
  5
70C6
331
7055
  5
48F7
331
4AF4
  5
4C34
331
5D04
  5
65DD
331
6239
  5
70D0
331
7056
  5
65DC
331
7619
  5
8183
331
6244
  5
70D6
331
623A
  5
70D1
331
4AF5
  5
4C37
331
7404
  5
8180
331
5D76
  5
6687
331
620B
  5
70C7
331
5D05
  5
6680
331
6245
  5
700E
  0
SORTENTSTABLE
  5
7154
102
{ACAD_REACTORS
330
7153
102
}
330
7153
100
AcDbSortentsTable
330
7151
  0
SORTENTSTABLE
  5
71CB
102
{ACAD_REACTORS
330
71CA
102
}
330
71CA
100
AcDbSortentsTable
330
71C6
  0
SORTENTSTABLE
  5
7400
102
{ACAD_REACTORS
330
73FF
102
}
330
73FF
100
AcDbSortentsTable
330
73FD
  0
SORTENTSTABLE
  5
8171
102
{ACAD_REACTORS
330
8170
102
}
330
8170
100
AcDbSortentsTable
330
814A
  0
SORTENTSTABLE
  5
81BE
102
{ACAD_REACTORS
330
81BD
102
}
330
81BD
100
AcDbSortentsTable
330
81BC
  0
DIMASSOC
  5
73FC
102
{ACAD_REACTORS
330
73F3
102
}
330
73F3
100
AcDbDimAssoc
330
73E7
 90
        2
 70
     0
 71
     0
  1
AcDbOsnapPointRef
 72
     3
331
65D8
 73
     2
 91
        0
 40
0.0
 10
0.0
 20
0.0
 30
0.0
 75
     0
  0
DIMASSOC
  5
7487
102
{ACAD_REACTORS
330
747D
102
}
330
747D
100
AcDbDimAssoc
330
7470
 90
        3
 70
     0
 71
     0
  1
AcDbOsnapPointRef
 72
     1
331
7451
 73
     2
 91
        4
 40
1.0
 10
0.0
 20
0.0
 30
2.000000000000000E+50
 75
     0
  1
AcDbOsnapPointRef
 72
     1
331
7451
 73
     2
 91
        3
 40
1.0
 10
0.0
 20
0.0
 30
2.000000000000000E+50
 75
     0
  0
DIMASSOC
  5
749F
102
{ACAD_REACTORS
330
7495
102
}
330
7495
100
AcDbDimAssoc
330
7488
 90
        3
 70
     0
 71
     0
  1
AcDbOsnapPointRef
 72
     1
331
65DC
331
E98
 73
     2
 91
        0
 40
1.0
 10
0.0
 20
0.0
 30
2.000000000000000E+50
 75
     0
  1
AcDbOsnapPointRef
 72
     1
331
65DD
331
EA4
 73
     2
 91
        0
 40
1.0
 10
0.0
 20
0.0
 30
2.000000000000000E+50
 75
     0
  0
DIMASSOC
  5
8487
102
{ACAD_REACTORS
330
8486
102
}
330
8486
100
AcDbDimAssoc
330
8485
 90
        3
 70
     0
 71
     0
  1
AcDbOsnapPointRef
 72
     2
331
8481
 73
     2
 91
        0
 40
0.5
 10
0.0
 20
0.0
 30
0.0
 75
     0
  1
AcDbOsnapPointRef
 72
     5
331
846F
 73
     2
 91
        4
 40
1.570796326794896
 10
0.0
 20
0.0
 30
0.0
 75
     0
  0
ACDBDETAILVIEWSTYLE
  5
877D
102
{ACAD_XDICTIONARY
360
87C7
102
}
102
{ACAD_REACTORS
330
314A
102
}
330
314A
100
AcDbModelDocViewStyle
 70
     0
  3
Metric50
290
     0
100
AcDbDetailViewStyle
 70
     0
 71
     0
 90
        3
 71
     1
340
11
 62
   256
 40
5.0
340
0
 62
   256
 40
5.0
300

 40
0.0
280
     1
 71
     2
340
16
 90
       25
 62
   256
 71
     3
340
11
 62
   256
 40
5.0
 90
        0
 40
15.0
 90
        1
300
%<\AcVar ViewDetailId>% (%<\AcVar ViewScale \f "%sn">%)
 71
     4
340
16
 90
       25
 62
   256
340
16
 90
       25
 62
   256
280
     0
  0
LAYOUT
  5
1E
102
{ACAD_REACTORS
330
1A
102
}
330
1A
100
AcDbPlotSettings
  1

  2
none_device
  4

  6

 40
0.0
 41
0.0
 42
0.0
 43
0.0
 44
0.0
 45
0.0
 46
0.0
 47
0.0
 48
0.0
 49
0.0
140
0.0
141
0.0
142
1.0
143
1.0
 70
   688
 72
     1
 73
     0
 74
     5
  7
monochrome.ctb
 75
    16
147
1.0
 76
     0
 77
     2
 78
   300
148
0.0
149
0.0
100
AcDbLayout
  1
Layout1
 70
     1
 71
     1
 10
0.0
 20
0.0
 11
420.0
 21
297.0
 12
0.0
 22
0.0
 32
0.0
 14
1.000000000000000E+20
 24
1.000000000000000E+20
 34
1.000000000000000E+20
 15
-1.000000000000000E+20
 25
-1.000000000000000E+20
 35
-1.000000000000000E+20
146
0.0
 13
0.0
 23
0.0
 33
0.0
 16
1.0
 26
0.0
 36
0.0
 17
0.0
 27
1.0
 37
0.0
 76
     0
330
1B
  0
LAYOUT
  5
26
102
{ACAD_REACTORS
330
1A
102
}
330
1A
100
AcDbPlotSettings
  1

  2
none_device
  4

  6

 40
0.0
 41
0.0
 42
0.0
 43
0.0
 44
0.0
 45
0.0
 46
0.0
 47
0.0
 48
0.0
 49
0.0
140
0.0
141
0.0
142
1.0
143
1.0
 70
   688
 72
     1
 73
     0
 74
     5
  7
monochrome.ctb
 75
    16
147
1.0
 76
     0
 77
     2
 78
   300
148
0.0
149
0.0
100
AcDbLayout
  1
Layout2
 70
     1
 71
     2
 10
0.0
 20
0.0
 11
0.0
 21
0.0
 12
0.0
 22
0.0
 32
0.0
 14
0.0
 24
0.0
 34
0.0
 15
0.0
 25
0.0
 35
0.0
146
0.0
 13
0.0
 23
0.0
 33
0.0
 16
1.0
 26
0.0
 36
0.0
 17
0.0
 27
1.0
 37
0.0
 76
     0
330
23
  0
LAYOUT
  5
22
102
{ACAD_XDICTIONARY
360
52E7
102
}
102
{ACAD_REACTORS
330
1A
102
}
330
1A
100
AcDbPlotSettings
  1

  2
none_device
  4
Letter_(8.50_x_11.00_Inches)
  6

 40
6.349999999999997
 41
6.349999999999997
 42
6.350005079999997
 43
6.350005079999997
 44
215.9
 45
279.4
 46
0.0
 47
0.0
 48
0.0
 49
0.0
140
0.0
141
0.0
142
1.0
143
1.0
 70
  1712
 72
     1
 73
     0
 74
     0
  7
monochrome.ctb
 75
     0
147
1.0
 76
     0
 77
     2
 78
   300
148
0.0
149
0.0
100
AcDbLayout
  1
Model
 70
     1
 71
     0
 10
0.0
 20
0.0
 11
420.0
 21
297.0
 12
0.0
 22
0.0
 32
0.0
 14
0.0
 24
0.0
 34
0.0
 15
420.0
 25
297.0
 35
0.0
146
0.0
 13
0.0
 23
0.0
 33
0.0
 16
1.0
 26
0.0
 36
0.0
 17
0.0
 27
1.0
 37
0.0
 76
     0
330
1F
331
29
  0
MATERIAL
  5
45
102
{ACAD_REACTORS
330
43
102
}
330
43
100
AcDbMaterial
  1
ByBlock
  0
MATERIAL
  5
44
102
{ACAD_REACTORS
330
43
102
}
330
43
100
AcDbMaterial
  1
ByLayer
  0
MATERIAL
  5
46
102
{ACAD_REACTORS
330
43
102
}
330
43
100
AcDbMaterial
  1
Global
  0
MLEADERSTYLE
  5
3152
102
{ACAD_REACTORS
330
3149
102
}
330
3149
100
AcDbMLeaderStyle
179
     2
170
     2
171
     1
172
     0
 90
        2
 40
0.0
 41
0.0
173
     1
 91
-1056964608
340
14
 92
       -2
290
     1
 42
2.0
291
     1
 43
0.36
  3
Standard
 44
4.0
300

342
11
174
     1
178
     6
175
     1
176
     0
 93
-1056964608
 45
4.0
292
     0
297
     0
 46
4.0
 94
-1056964608
 47
1.0
 49
1.0
140
1.0
293
     1
141
0.0
294
     1
177
     0
142
1.0
295
     0
296
     0
143
0.125
271
     0
272
     9
273
     9
298
     0
  0
MLINESTYLE
  5
18
102
{ACAD_REACTORS
330
17
102
}
330
17
100
AcDbMlineStyle
  2
STANDARD
 70
     0
  3

 62
   256
 51
90.0
 52
90.0
 71
     2
 49
0.5
 62
   256
  6
BYLAYER
 49
-0.5
 62
   256
  6
BYLAYER
  0
ACDBPLACEHOLDER
  5
F
102
{ACAD_REACTORS
330
E
102
}
330
E
  0
SCALE
  5
48
102
{ACAD_REACTORS
330
47
102
}
330
47
100
AcDbScale
 70
     0
300
1:1
140
1.0
141
1.0
290
     1
  0
SCALE
  5
49
102
{ACAD_REACTORS
330
47
102
}
330
47
100
AcDbScale
 70
     0
300
1:2
140
1.0
141
2.0
290
     0
  0
SCALE
  5
4A
102
{ACAD_REACTORS
330
47
102
}
330
47
100
AcDbScale
 70
     0
300
1:4
140
1.0
141
4.0
290
     0
  0
SCALE
  5
4B
102
{ACAD_REACTORS
330
47
102
}
330
47
100
AcDbScale
 70
     0
300
1:5
140
1.0
141
5.0
290
     0
  0
SCALE
  5
4C
102
{ACAD_REACTORS
330
47
102
}
330
47
100
AcDbScale
 70
     0
300
1:8
140
1.0
141
8.0
290
     0
  0
SCALE
  5
4D
102
{ACAD_REACTORS
330
47
102
}
330
47
100
AcDbScale
 70
     0
300
1:10
140
1.0
141
10.0
290
     0
  0
SCALE
  5
4E
102
{ACAD_REACTORS
330
47
102
}
330
47
100
AcDbScale
 70
     0
300
1:16
140
1.0
141
16.0
290
     0
  0
SCALE
  5
4F
102
{ACAD_REACTORS
330
47
102
}
330
47
100
AcDbScale
 70
     0
300
1:20
140
1.0
141
20.0
290
     0
  0
SCALE
  5
50
102
{ACAD_REACTORS
330
47
102
}
330
47
100
AcDbScale
 70
     0
300
1:30
140
1.0
141
30.0
290
     0
  0
SCALE
  5
51
102
{ACAD_REACTORS
330
47
102
}
330
47
100
AcDbScale
 70
     0
300
1:40
140
1.0
141
40.0
290
     0
  0
SCALE
  5
52
102
{ACAD_REACTORS
330
47
102
}
330
47
100
AcDbScale
 70
     0
300
1:50
140
1.0
141
50.0
290
     0
  0
SCALE
  5
53
102
{ACAD_REACTORS
330
47
102
}
330
47
100
AcDbScale
 70
     0
300
1:100
140
1.0
141
100.0
290
     0
  0
SCALE
  5
54
102
{ACAD_REACTORS
330
47
102
}
330
47
100
AcDbScale
 70
     0
300
2:1
140
2.0
141
1.0
290
     0
  0
SCALE
  5
55
102
{ACAD_REACTORS
330
47
102
}
330
47
100
AcDbScale
 70
     0
300
4:1
140
4.0
141
1.0
290
     0
  0
SCALE
  5
56
102
{ACAD_REACTORS
330
47
102
}
330
47
100
AcDbScale
 70
     0
300
8:1
140
8.0
141
1.0
290
     0
  0
SCALE
  5
57
102
{ACAD_REACTORS
330
47
102
}
330
47
100
AcDbScale
 70
     0
300
10:1
140
10.0
141
1.0
290
     0
  0
SCALE
  5
58
102
{ACAD_REACTORS
330
47
102
}
330
47
100
AcDbScale
 70
     0
300
100:1
140
100.0
141
1.0
290
     0
  0
SCALE
  5
59
102
{ACAD_REACTORS
330
47
102
}
330
47
100
AcDbScale
 70
     0
300
1/128" = 1'-0"
140
0.0078125
141
12.0
290
     0
  0
SCALE
  5
5A
102
{ACAD_REACTORS
330
47
102
}
330
47
100
AcDbScale
 70
     0
300
1/64" = 1'-0"
140
0.015625
141
12.0
290
     0
  0
SCALE
  5
5B
102
{ACAD_REACTORS
330
47
102
}
330
47
100
AcDbScale
 70
     0
300
1/32" = 1'-0"
140
0.03125
141
12.0
290
     0
  0
SCALE
  5
5C
102
{ACAD_REACTORS
330
47
102
}
330
47
100
AcDbScale
 70
     0
300
1/16" = 1'-0"
140
0.0625
141
12.0
290
     0
  0
SCALE
  5
5D
102
{ACAD_REACTORS
330
47
102
}
330
47
100
AcDbScale
 70
     0
300
3/32" = 1'-0"
140
0.09375
141
12.0
290
     0
  0
SCALE
  5
5E
102
{ACAD_REACTORS
330
47
102
}
330
47
100
AcDbScale
 70
     0
300
1/8" = 1'-0"
140
0.125
141
12.0
290
     0
  0
SCALE
  5
5F
102
{ACAD_REACTORS
330
47
102
}
330
47
100
AcDbScale
 70
     0
300
3/16" = 1'-0"
140
0.1875
141
12.0
290
     0
  0
SCALE
  5
60
102
{ACAD_REACTORS
330
47
102
}
330
47
100
AcDbScale
 70
     0
300
1/4" = 1'-0"
140
0.25
141
12.0
290
     0
  0
SCALE
  5
61
102
{ACAD_REACTORS
330
47
102
}
330
47
100
AcDbScale
 70
     0
300
3/8" = 1'-0"
140
0.375
141
12.0
290
     0
  0
SCALE
  5
62
102
{ACAD_REACTORS
330
47
102
}
330
47
100
AcDbScale
 70
     0
300
1/2" = 1'-0"
140
0.5
141
12.0
290
     0
  0
SCALE
  5
63
102
{ACAD_REACTORS
330
47
102
}
330
47
100
AcDbScale
 70
     0
300
3/4" = 1'-0"
140
0.75
141
12.0
290
     0
  0
SCALE
  5
64
102
{ACAD_REACTORS
330
47
102
}
330
47
100
AcDbScale
 70
     0
300
1" = 1'-0"
140
1.0
141
12.0
290
     0
  0
SCALE
  5
65
102
{ACAD_REACTORS
330
47
102
}
330
47
100
AcDbScale
 70
     0
300
1-1/2" = 1'-0"
140
1.5
141
12.0
290
     0
  0
SCALE
  5
66
102
{ACAD_REACTORS
330
47
102
}
330
47
100
AcDbScale
 70
     0
300
3" = 1'-0"
140
3.0
141
12.0
290
     0
  0
SCALE
  5
67
102
{ACAD_REACTORS
330
47
102
}
330
47
100
AcDbScale
 70
     0
300
6" = 1'-0"
140
6.0
141
12.0
290
     0
  0
SCALE
  5
68
102
{ACAD_REACTORS
330
47
102
}
330
47
100
AcDbScale
 70
     0
300
1'-0" = 1'-0"
140
12.0
141
12.0
290
     0
  0
ACDBSECTIONVIEWSTYLE
  5
877C
102
{ACAD_XDICTIONARY
360
87C5
102
}
102
{ACAD_REACTORS
330
314B
102
}
330
314B
100
AcDbModelDocViewStyle
 70
     0
  3
Metric50
290
     0
100
AcDbSectionViewStyle
 70
     0
 71
     0
 90
      102
 71
     1
340
11
 62
   256
 40
5.0
340
0
340
0
 62
   256
 40
5.0
300
I, O, Q, S, X, Z
 40
10.0
 90
        0
 40
2.5
 90
        0
 71
     2
340
16
 90
       25
 62
   256
340
16
 90
       50
 62
   256
 40
5.0
 40
2.5
 40
5.0
 71
     3
340
11
 62
   256
 40
5.0
 90
        0
 40
15.0
 90
        1
300
%<\AcVar ViewSectionStartId>%-%<\AcVar ViewSectionEndId>% (%<\AcVar ViewScale \f "%sn">%)
 71
     4
 62
   256
 62
   257
300
ANSI31
 40
1.0
 90
        0
290
     0
290
     0
 90
        6
 40
0.0
 40
1.570796326794896
 40
0.2617993877991494
 40
1.308996938995747
 40
-0.2617993877991494
 40
1.832595714594044
  0
TABLESTYLE
  5
3151
102
{ACAD_XDICTIONARY
360
8777
102
}
102
{ACAD_REACTORS
330
3148
102
}
330
3148
100
AcDbTableStyle
280
     0
  3
Standard
 70
     0
 71
     0
 40
1.5
 41
1.5
280
     0
281
     0
  7
STANDARD
140
4.5
170
     2
 62
     0
 63
     7
283
     0
 90
      512
 91
        0
  1

274
    -2
284
     1
 64
     0
275
    -2
285
     1
 65
     0
276
    -2
286
     1
 66
     0
277
    -2
287
     1
 67
     0
278
    -2
288
     1
 68
     0
279
    -2
289
     1
 69
     0
  7
STANDARD
140
6.0
170
     5
 62
     0
 63
     7
283
     0
 90
      512
 91
        0
  1

274
    -2
284
     1
 64
     0
275
    -2
285
     1
 65
     0
276
    -2
286
     1
 66
     0
277
    -2
287
     1
 67
     0
278
    -2
288
     1
 68
     0
279
    -2
289
     1
 69
     0
  7
STANDARD
140
4.5
170
     5
 62
     0
 63
     7
283
     0
 90
      512
 91
        0
  1

274
    -2
284
     1
 64
     0
275
    -2
285
     1
 65
     0
276
    -2
286
     1
 66
     0
277
    -2
287
     1
 67
     0
278
    -2
288
     1
 68
     0
279
    -2
289
     1
 69
     0
  0
VISUALSTYLE
  5
2F
102
{ACAD_REACTORS
330
2A
102
}
330
2A
100
AcDbVisualStyle
  2

 70
     4
177
     3
291
     0
 70
    58
 90
        0
176
     1
 90
        2
176
     1
 90
        0
176
     1
 90
        0
176
     1
 40
0.6
176
     1
 40
30.0
176
     1
 62
     7
420
 16777215
176
     1
 90
        1
176
     1
 90
        4
176
     1
 62
     7
176
     1
 62
   257
176
     1
 90
        1
176
     1
 90
        1
176
     1
 40
1.0
176
     1
 90
        0
176
     1
 62
   257
176
     1
 40
1.0
176
     1
 90
        1
176
     1
 90
        6
176
     1
 90
        2
176
     1
 62
     7
176
     1
 90
        5
176
     1
 90
        0
176
     1
 90
        0
176
     1
290
     0
176
     1
 90
        1
176
     1
 40
0.0
176
     1
 90
        0
176
     1
290
     1
176
     1
290
     1
176
     1
290
     0
176
     1
290
     0
176
     1
290
     0
176
     1
290
     0
176
     1
290
     0
176
     1
290
     0
176
     1
290
     0
176
     1
 90
       50
176
     1
 40
0.0
176
     1
 40
1.0
176
     1
 90
        0
176
     1
 62
    18
176
     1
 90
       50
176
     1
 90
        3
176
     1
 62
     5
420
      255
176
     1
290
     0
176
     1
 90
       50
176
     1
 90
       50
176
     1
 90
       50
176
     1
290
     0
176
     1
 90
       50
176
     1
 62
   256
176
     0
 40
1.0
176
     0
 90
        2
176
     1
  1
strokes_ogs.tif
176
     1
290
     0
176
     1
 40
1.0
176
     1
 40
1.0
176
     1
  0
VISUALSTYLE
  5
314F
102
{ACAD_REACTORS
330
2A
102
}
330
2A
100
AcDbVisualStyle
  2
3D Hidden
 70
     6
177
     3
291
     0
 70
    58
 90
        1
176
     1
 90
        2
176
     1
 90
        2
176
     1
 90
        0
176
     1
 40
0.6
176
     1
 40
30.0
176
     1
 62
     7
420
 16777215
176
     1
 90
        2
176
     1
 90
        2
176
     1
 62
     7
176
     1
 62
   257
176
     1
 90
        2
176
     1
 90
        1
176
     1
 40
179.0
176
     1
 90
        0
176
     1
 62
   257
176
     1
 40
1.0
176
     1
 90
        1
176
     1
 90
        6
176
     1
 90
        2
176
     1
 62
     7
176
     1
 90
        3
176
     1
 90
        0
176
     1
 90
        0
176
     1
290
     0
176
     1
 90
        1
176
     1
 40
0.0
176
     1
 90
        0
176
     1
290
     0
176
     1
290
     1
176
     1
290
     1
176
     1
290
     0
176
     1
290
     0
176
     1
290
     0
176
     1
290
     0
176
     1
290
     0
176
     1
290
     0
176
     1
 90
       50
176
     1
 40
0.0
176
     1
 40
1.0
176
     1
 90
        0
176
     1
 62
    18
176
     1
 90
       50
176
     1
 90
        3
176
     1
 62
     5
420
      255
176
     1
290
     0
176
     1
 90
       50
176
     1
 90
       50
176
     1
 90
       50
176
     1
290
     0
176
     1
 90
       50
176
     1
 62
   256
176
     0
 40
1.0
176
     0
 90
        2
176
     1
  1
strokes_ogs.tif
176
     1
290
     0
176
     1
 40
1.0
176
     1
 40
1.0
176
     1
  0
VISUALSTYLE
  5
314E
102
{ACAD_REACTORS
330
2A
102
}
330
2A
100
AcDbVisualStyle
  2
3dWireframe
 70
     5
177
     3
291
     0
 70
    58
 90
        0
176
     1
 90
        2
176
     1
 90
        0
176
     1
 90
        0
176
     1
 40
0.6
176
     1
 40
30.0
176
     1
 62
     7
420
 16777215
176
     1
 90
        1
176
     1
 90
        4
176
     1
 62
     7
176
     1
 62
   257
176
     1
 90
        1
176
     1
 90
        1
176
     1
 40
1.0
176
     1
 90
        0
176
     1
 62
   257
176
     1
 40
1.0
176
     1
 90
        1
176
     1
 90
        6
176
     1
 90
        2
176
     1
 62
     7
176
     1
 90
        5
176
     1
 90
        0
176
     1
 90
        0
176
     1
290
     0
176
     1
 90
        1
176
     1
 40
0.0
176
     1
 90
        0
176
     1
290
     0
176
     1
290
     1
176
     1
290
     1
176
     1
290
     0
176
     1
290
     0
176
     1
290
     0
176
     1
290
     0
176
     1
290
     0
176
     1
290
     0
176
     1
 90
       50
176
     1
 40
0.0
176
     1
 40
1.0
176
     1
 90
        0
176
     1
 62
    18
176
     1
 90
       50
176
     1
 90
        3
176
     1
 62
     5
420
      255
176
     1
290
     0
176
     1
 90
       50
176
     1
 90
       50
176
     1
 90
       50
176
     1
290
     0
176
     1
 90
       50
176
     1
 62
   256
176
     0
 40
1.0
176
     0
 90
        2
176
     1
  1
strokes_ogs.tif
176
     1
290
     0
176
     1
 40
1.0
176
     1
 40
1.0
176
     1
  0
VISUALSTYLE
  5
32
102
{ACAD_REACTORS
330
2A
102
}
330
2A
100
AcDbVisualStyle
  2

 70
     7
177
     3
291
     1
 70
    58
 90
        1
176
     1
 90
        0
176
     1
 90
        1
176
     1
 90
        0
176
     1
 40
0.6
176
     1
 40
30.0
176
     1
 62
     7
420
 16777215
176
     1
 90
        0
176
     1
 90
        4
176
     1
 62
     7
176
     1
 62
   257
176
     1
 90
        1
176
     1
 90
        1
176
     1
 40
1.0
176
     1
 90
        8
176
     1
 62
     7
176
     1
 40
1.0
176
     1
 90
        1
176
     1
 90
        6
176
     1
 90
        2
176
     1
 62
     7
176
     1
 90
        5
176
     1
 90
        0
176
     1
 90
        0
176
     1
290
     0
176
     1
 90
        1
176
     1
 40
0.0
176
     1
 90
        0
176
     1
290
     0
176
     1
290
     1
176
     1
290
     1
176
     1
290
     0
176
     1
290
     0
176
     1
290
     0
176
     1
290
     0
176
     1
290
     0
176
     1
290
     0
176
     1
 90
       50
176
     1
 40
0.0
176
     1
 40
1.0
176
     1
 90
        0
176
     1
 62
    18
176
     1
 90
       50
176
     1
 90
        3
176
     1
 62
     5
420
      255
176
     1
290
     0
176
     1
 90
       50
176
     1
 90
       50
176
     1
 90
       50
176
     1
290
     0
176
     1
 90
       50
176
     1
 62
   256
176
     0
 40
1.0
176
     0
 90
        2
176
     1
  1
strokes_ogs.tif
176
     1
290
     0
176
     1
 40
1.0
176
     1
 40
1.0
176
     1
  0
VISUALSTYLE
  5
36
102
{ACAD_REACTORS
330
2A
102
}
330
2A
100
AcDbVisualStyle
  2

 70
    12
177
     3
291
     1
 70
    58
 90
        2
176
     1
 90
        2
176
     1
 90
        0
176
     1
 90
        0
176
     1
 40
0.6
176
     1
 40
30.0
176
     1
 62
     7
420
 16777215
176
     1
 90
        1
176
     1
 90
        4
176
     1
 62
     7
176
     1
 62
   257
176
     1
 90
        1
176
     1
 90
        1
176
     1
 40
1.0
176
     1
 90
        8
176
     1
 62
     7
176
     1
 40
1.0
176
     1
 90
        1
176
     1
 90
        6
176
     1
 90
        2
176
     1
 62
     7
176
     1
 90
        5
176
     1
 90
        0
176
     1
 90
        0
176
     1
290
     0
176
     1
 90
        1
176
     1
 40
50.0
176
     1
 90
        0
176
     1
290
     0
176
     1
290
     1
176
     1
290
     1
176
     1
290
     0
176
     1
290
     0
176
     1
290
     0
176
     1
290
     0
176
     1
290
     0
176
     1
290
     0
176
     1
 90
       50
176
     1
 40
0.0
176
     1
 40
1.0
176
     1
 90
        0
176
     1
 62
    18
176
     1
 90
       50
176
     1
 90
        3
176
     1
 62
     5
420
      255
176
     1
290
     0
176
     1
 90
       50
176
     1
 90
       50
176
     1
 90
       50
176
     1
290
     0
176
     1
 90
       50
176
     1
 62
   256
176
     0
 40
1.0
176
     0
 90
        2
176
     1
  1
strokes_ogs.tif
176
     1
290
     0
176
     1
 40
1.0
176
     1
 40
1.0
176
     1
  0
VISUALSTYLE
  5
3A
102
{ACAD_REACTORS
330
2A
102
}
330
2A
100
AcDbVisualStyle
  2

 70
    16
177
     3
291
     1
 70
    58
 90
        2
176
     1
 90
        2
176
     1
 90
        3
176
     1
 90
        0
176
     1
 40
0.6
176
     1
 40
30.0
176
     1
 62
     8
420
  8421504
176
     1
 90
        1
176
     1
 90
        4
176
     1
 62
     7
176
     1
 62
   257
176
     1
 90
        1
176
     1
 90
        1
176
     1
 40
1.0
176
     1
 90
        8
176
     1
 62
     8
420
  8421504
176
     1
 40
1.0
176
     1
 90
        1
176
     1
 90
        6
176
     1
 90
        2
176
     1
 62
     7
176
     1
 90
        5
176
     1
 90
        0
176
     1
 90
        0
176
     1
290
     0
176
     1
 90
        1
176
     1
 40
0.0
176
     1
 90
        0
176
     1
290
     0
176
     1
290
     1
176
     1
290
     1
176
     1
290
     0
176
     1
290
     0
176
     1
290
     0
176
     1
290
     0
176
     1
290
     0
176
     1
290
     0
176
     1
 90
       50
176
     1
 40
0.0
176
     1
 40
1.0
176
     1
 90
        0
176
     1
 62
    18
176
     1
 90
       50
176
     1
 90
        3
176
     1
 62
     5
420
      255
176
     1
290
     0
176
     1
 90
       50
176
     1
 90
       50
176
     1
 90
       50
176
     1
290
     0
176
     1
 90
       50
176
     1
 62
   256
176
     0
 40
1.0
176
     0
 90
        2
176
     1
  1
strokes_ogs.tif
176
     1
290
     0
176
     1
 40
1.0
176
     1
 40
1.0
176
     1
  0
VISUALSTYLE
  5
34
102
{ACAD_REACTORS
330
2A
102
}
330
2A
100
AcDbVisualStyle
  2

 70
     9
177
     3
291
     0
 70
    58
 90
        3
176
     1
 90
        2
176
     1
 90
        0
176
     1
 90
        0
176
     1
 40
0.6
176
     1
 40
30.0
176
     1
 62
     7
420
 16777215
176
     1
 90
        2
176
     1
 90
        2
176
     1
 62
     7
176
     1
 62
   257
176
     1
 90
        1
176
     1
 90
        1
176
     1
 40
179.0
176
     1
 90
        8
176
     1
 62
     7
176
     1
 40
1.0
176
     1
 90
        1
176
     1
 90
        6
176
     1
 90
        2
176
     1
 62
     7
176
     1
 90
        3
176
     1
 90
        0
176
     1
 90
        0
176
     1
290
     0
176
     1
 90
        1
176
     1
 40
0.0
176
     1
 90
        0
176
     1
290
     0
176
     1
290
     1
176
     1
290
     1
176
     1
290
     0
176
     1
290
     0
176
     1
290
     0
176
     1
290
     0
176
     1
290
     0
176
     1
290
     0
176
     1
 90
       50
176
     1
 40
0.0
176
     1
 40
1.0
176
     1
 90
        0
176
     1
 62
    18
176
     1
 90
       50
176
     1
 90
        3
176
     1
 62
     5
420
      255
176
     1
290
     0
176
     1
 90
       50
176
     1
 90
       50
176
     1
 90
       50
176
     1
290
     0
176
     1
 90
       50
176
     1
 62
   256
176
     0
 40
1.0
176
     0
 90
        2
176
     1
  1
strokes_ogs.tif
176
     1
290
     0
176
     1
 40
1.0
176
     1
 40
1.0
176
     1
  0
VISUALSTYLE
  5
35
102
{ACAD_REACTORS
330
2A
102
}
330
2A
100
AcDbVisualStyle
  2

 70
    11
177
     3
291
     1
 70
    58
 90
        2
176
     1
 90
        2
176
     1
 90
        0
176
     1
 90
        0
176
     1
 40
0.6
176
     1
 40
30.0
176
     1
 62
     7
420
 16777215
176
     1
 90
        1
176
     1
 90
        4
176
     1
 62
     7
176
     1
 62
   257
176
     1
 90
        1
176
     1
 90
        1
176
     1
 40
1.0
176
     1
 90
        8
176
     1
 62
     7
176
     1
 40
1.0
176
     1
 90
        1
176
     1
 90
        6
176
     1
 90
        2
176
     1
 62
     7
176
     1
 90
        5
176
     1
 90
        0
176
     1
 90
        0
176
     1
290
     0
176
     1
 90
        1
176
     1
 40
-50.0
176
     1
 90
        0
176
     1
290
     0
176
     1
290
     1
176
     1
290
     1
176
     1
290
     0
176
     1
290
     0
176
     1
290
     0
176
     1
290
     0
176
     1
290
     0
176
     1
290
     0
176
     1
 90
       50
176
     1
 40
0.0
176
     1
 40
1.0
176
     1
 90
        0
176
     1
 62
    18
176
     1
 90
       50
176
     1
 90
        3
176
     1
 62
     5
420
      255
176
     1
290
     0
176
     1
 90
       50
176
     1
 90
       50
176
     1
 90
       50
176
     1
290
     0
176
     1
 90
       50
176
     1
 62
   256
176
     0
 40
1.0
176
     0
 90
        2
176
     1
  1
strokes_ogs.tif
176
     1
290
     0
176
     1
 40
1.0
176
     1
 40
1.0
176
     1
  0
VISUALSTYLE
  5
3D
102
{ACAD_REACTORS
330
2A
102
}
330
2A
100
AcDbVisualStyle
  2

 70
    22
177
     3
291
     1
 70
    58
 90
        2
176
     1
 90
        2
176
     1
 90
        0
176
     1
 90
        0
176
     1
 40
0.6
176
     1
 40
30.0
176
     1
 62
     7
420
 16777215
176
     1
 90
        1
176
     1
 90
        4
176
     1
 62
     7
176
     1
 62
   257
176
     1
 90
        1
176
     1
 90
        1
176
     1
 40
1.0
176
     1
 90
        8
176
     1
 62
     7
176
     1
 40
1.0
176
     1
 90
        1
176
     1
 90
        6
176
     1
 90
        2
176
     1
 62
     7
176
     1
 90
        5
176
     1
 90
        0
176
     1
 90
        0
176
     1
290
     0
176
     1
 90
        1
176
     1
 40
0.0
176
     1
 90
        0
176
     1
290
     0
176
     1
290
     1
176
     1
290
     1
176
     1
290
     0
176
     1
290
     0
176
     1
290
     0
176
     1
290
     0
176
     1
290
     0
176
     1
290
     0
176
     1
 90
       50
176
     1
 40
0.0
176
     1
 40
1.0
176
     1
 90
        0
176
     1
 62
    18
176
     1
 90
       50
176
     1
 90
        3
176
     1
 62
     5
420
      255
176
     1
290
     0
176
     1
 90
       50
176
     1
 90
       50
176
     1
 90
       50
176
     1
290
     0
176
     1
 90
       50
176
     1
 62
   256
176
     0
 40
1.0
176
     0
 90
        2
176
     1
  1
strokes_ogs.tif
176
     1
290
     0
176
     1
 40
1.0
176
     1
 40
1.0
176
     1
  0
VISUALSTYLE
  5
39
102
{ACAD_REACTORS
330
2A
102
}
330
2A
100
AcDbVisualStyle
  2

 70
    15
177
     3
291
     1
 70
    58
 90
        2
176
     1
 90
        2
176
     1
 90
        0
176
     1
 90
        0
176
     1
 40
0.6
176
     1
 40
30.0
176
     1
 62
     7
420
 16777215
176
     1
 90
        1
176
     1
 90
        4
176
     1
 62
     7
176
     1
 62
   257
176
     1
 90
        1
176
     1
 90
        1
176
     1
 40
1.0
176
     1
 90
        8
176
     1
 62
     7
176
     1
 40
1.0
176
     1
 90
        1
176
     1
 90
        6
176
     1
 90
        2
176
     1
 62
     7
176
     1
 90
        5
176
     1
 90
        0
176
     1
 90
        0
176
     1
290
     0
176
     1
 90
        1
176
     1
 40
0.0
176
     1
 90
        0
176
     1
290
     0
176
     1
290
     1
176
     1
290
     1
176
     1
290
     0
176
     1
290
     0
176
     1
290
     0
176
     1
290
     0
176
     1
290
     0
176
     1
290
     0
176
     1
 90
       50
176
     1
 40
0.0
176
     1
 40
1.0
176
     1
 90
        0
176
     1
 62
    18
176
     1
 90
       50
176
     1
 90
        3
176
     1
 62
     5
420
      255
176
     1
290
     0
176
     1
 90
       50
176
     1
 90
       50
176
     1
 90
       50
176
     1
290
     0
176
     1
 90
       50
176
     1
 62
   256
176
     0
 40
1.0
176
     0
 90
        2
176
     1
  1
strokes_ogs.tif
176
     1
290
     0
176
     1
 40
1.0
176
     1
 40
1.0
176
     1
  0
VISUALSTYLE
  5
2B
102
{ACAD_REACTORS
330
2A
102
}
330
2A
100
AcDbVisualStyle
  2

 70
     0
177
     3
291
     1
 70
    58
 90
        2
176
     1
 90
        1
176
     1
 90
        1
176
     1
 90
        2
176
     1
 40
0.6
176
     1
 40
30.0
176
     1
 62
     7
420
 16777215
176
     1
 90
        0
176
     1
 90
        0
176
     1
 62
     7
176
     1
 62
   257
176
     1
 90
        1
176
     1
 90
        1
176
     1
 40
1.0
176
     1
 90
        8
176
     1
 62
     7
176
     1
 40
1.0
176
     1
 90
        1
176
     1
 90
        6
176
     1
 90
        2
176
     1
 62
     7
176
     1
 90
        5
176
     1
 90
        0
176
     1
 90
        0
176
     1
290
     0
176
     1
 90
       13
176
     1
 40
0.0
176
     1
 90
        0
176
     1
290
     0
176
     1
290
     1
176
     1
290
     1
176
     1
290
     0
176
     1
290
     0
176
     1
290
     0
176
     1
290
     0
176
     1
290
     0
176
     1
290
     0
176
     1
 90
       50
176
     1
 40
0.0
176
     1
 40
1.0
176
     1
 90
        0
176
     1
 62
    18
176
     1
 90
       50
176
     1
 90
        3
176
     1
 62
     5
420
      255
176
     1
290
     0
176
     1
 90
       50
176
     1
 90
       50
176
     1
 90
       50
176
     1
290
     0
176
     1
 90
       50
176
     1
 62
   256
176
     0
 40
1.0
176
     0
 90
        2
176
     1
  1
strokes_ogs.tif
176
     1
290
     0
176
     1
 40
1.0
176
     1
 40
1.0
176
     1
  0
VISUALSTYLE
  5
2C
102
{ACAD_REACTORS
330
2A
102
}
330
2A
100
AcDbVisualStyle
  2

 70
     1
177
     3
291
     1
 70
    58
 90
        2
176
     1
 90
        1
176
     1
 90
        1
176
     1
 90
        2
176
     1
 40
0.6
176
     1
 40
30.0
176
     1
 62
     7
420
 16777215
176
     1
 90
        1
176
     1
 90
        0
176
     1
 62
     7
176
     1
 62
   257
176
     1
 90
        1
176
     1
 90
        1
176
     1
 40
1.0
176
     1
 90
        0
176
     1
 62
   257
176
     1
 40
1.0
176
     1
 90
        1
176
     1
 90
        6
176
     1
 90
        2
176
     1
 62
     7
176
     1
 90
        5
176
     1
 90
        0
176
     1
 90
        0
176
     1
290
     0
176
     1
 90
       13
176
     1
 40
0.0
176
     1
 90
        0
176
     1
290
     0
176
     1
290
     1
176
     1
290
     1
176
     1
290
     0
176
     1
290
     0
176
     1
290
     0
176
     1
290
     0
176
     1
290
     0
176
     1
290
     0
176
     1
 90
       50
176
     1
 40
0.0
176
     1
 40
1.0
176
     1
 90
        0
176
     1
 62
    18
176
     1
 90
       50
176
     1
 90
        3
176
     1
 62
     5
420
      255
176
     1
290
     0
176
     1
 90
       50
176
     1
 90
       50
176
     1
 90
       50
176
     1
290
     0
176
     1
 90
       50
176
     1
 62
   256
176
     0
 40
1.0
176
     0
 90
        2
176
     1
  1
strokes_ogs.tif
176
     1
290
     0
176
     1
 40
1.0
176
     1
 40
1.0
176
     1
  0
VISUALSTYLE
  5
2D
102
{ACAD_REACTORS
330
2A
102
}
330
2A
100
AcDbVisualStyle
  2

 70
     2
177
     3
291
     1
 70
    58
 90
        2
176
     1
 90
        2
176
     1
 90
        1
176
     1
 90
        2
176
     1
 40
0.6
176
     1
 40
30.0
176
     1
 62
     7
420
 16777215
176
     1
 90
        0
176
     1
 90
        0
176
     1
 62
     7
176
     1
 62
   257
176
     1
 90
        1
176
     1
 90
        1
176
     1
 40
1.0
176
     1
 90
        0
176
     1
 62
     7
176
     1
 40
1.0
176
     1
 90
        1
176
     1
 90
        6
176
     1
 90
        2
176
     1
 62
     7
176
     1
 90
        5
176
     1
 90
        0
176
     1
 90
        0
176
     1
290
     0
176
     1
 90
       13
176
     1
 40
0.0
176
     1
 90
        0
176
     1
290
     0
176
     1
290
     1
176
     1
290
     1
176
     1
290
     0
176
     1
290
     0
176
     1
290
     0
176
     1
290
     0
176
     1
290
     0
176
     1
290
     0
176
     1
 90
       50
176
     1
 40
0.0
176
     1
 40
1.0
176
     1
 90
        0
176
     1
 62
    18
176
     1
 90
       50
176
     1
 90
        3
176
     1
 62
     5
420
      255
176
     1
290
     0
176
     1
 90
       50
176
     1
 90
       50
176
     1
 90
       50
176
     1
290
     0
176
     1
 90
       50
176
     1
 62
   256
176
     0
 40
1.0
176
     0
 90
        2
176
     1
  1
strokes_ogs.tif
176
     1
290
     0
176
     1
 40
1.0
176
     1
 40
1.0
176
     1
  0
VISUALSTYLE
  5
2E
102
{ACAD_REACTORS
330
2A
102
}
330
2A
100
AcDbVisualStyle
  2

 70
     3
177
     3
291
     1
 70
    58
 90
        2
176
     1
 90
        2
176
     1
 90
        1
176
     1
 90
        2
176
     1
 40
0.6
176
     1
 40
30.0
176
     1
 62
     7
420
 16777215
176
     1
 90
        1
176
     1
 90
        0
176
     1
 62
     7
176
     1
 62
   257
176
     1
 90
        1
176
     1
 90
        1
176
     1
 40
1.0
176
     1
 90
        0
176
     1
 62
   257
176
     1
 40
1.0
176
     1
 90
        1
176
     1
 90
        6
176
     1
 90
        2
176
     1
 62
     7
176
     1
 90
        5
176
     1
 90
        0
176
     1
 90
        0
176
     1
290
     0
176
     1
 90
       13
176
     1
 40
0.0
176
     1
 90
        0
176
     1
290
     0
176
     1
290
     1
176
     1
290
     1
176
     1
290
     0
176
     1
290
     0
176
     1
290
     0
176
     1
290
     0
176
     1
290
     0
176
     1
290
     0
176
     1
 90
       50
176
     1
 40
0.0
176
     1
 40
1.0
176
     1
 90
        0
176
     1
 62
    18
176
     1
 90
       50
176
     1
 90
        3
176
     1
 62
     5
420
      255
176
     1
290
     0
176
     1
 90
       50
176
     1
 90
       50
176
     1
 90
       50
176
     1
290
     0
176
     1
 90
       50
176
     1
 62
   256
176
     0
 40
1.0
176
     0
 90
        2
176
     1
  1
strokes_ogs.tif
176
     1
290
     0
176
     1
 40
1.0
176
     1
 40
1.0
176
     1
  0
VISUALSTYLE
  5
31
102
{ACAD_REACTORS
330
2A
102
}
330
2A
100
AcDbVisualStyle
  2

 70
     6
177
     3
291
     0
 70
    58
 90
        1
176
     1
 90
        2
176
     1
 90
        2
176
     1
 90
        0
176
     1
 40
0.6
176
     1
 40
30.0
176
     1
 62
     7
420
 16777215
176
     1
 90
        2
176
     1
 90
        2
176
     1
 62
     7
176
     1
 62
   257
176
     1
 90
        2
176
     1
 90
        1
176
     1
 40
40.0
176
     1
 90
        0
176
     1
 62
   257
176
     1
 40
1.0
176
     1
 90
        1
176
     1
 90
        6
176
     1
 90
        2
176
     1
 62
     7
176
     1
 90
        3
176
     1
 90
        0
176
     1
 90
        0
176
     1
290
     0
176
     1
 90
        1
176
     1
 40
0.0
176
     1
 90
        0
176
     1
290
     0
176
     1
290
     1
176
     1
290
     1
176
     1
290
     0
176
     1
290
     0
176
     1
290
     0
176
     1
290
     0
176
     1
290
     0
176
     1
290
     0
176
     1
 90
       50
176
     1
 40
0.0
176
     1
 40
1.0
176
     1
 90
        0
176
     1
 62
    18
176
     1
 90
       50
176
     1
 90
        3
176
     1
 62
     5
420
      255
176
     1
290
     0
176
     1
 90
       50
176
     1
 90
       50
176
     1
 90
       50
176
     1
290
     0
176
     1
 90
       50
176
     1
 62
   256
176
     0
 40
1.0
176
     0
 90
        2
176
     1
  1
strokes_ogs.tif
176
     1
290
     0
176
     1
 40
1.0
176
     1
 40
1.0
176
     1
  0
VISUALSTYLE
  5
3B
102
{ACAD_REACTORS
330
2A
102
}
330
2A
100
AcDbVisualStyle
  2

 70
    20
177
     3
291
     1
 70
    58
 90
        2
176
     1
 90
        2
176
     1
 90
        0
176
     1
 90
        0
176
     1
 40
0.6
176
     1
 40
30.0
176
     1
 62
     7
420
 16777215
176
     1
 90
        1
176
     1
 90
        4
176
     1
 62
     7
176
     1
 62
   257
176
     1
 90
        1
176
     1
 90
        1
176
     1
 40
1.0
176
     1
 90
       10
176
     1
 62
     7
176
     1
 40
1.0
176
     1
 90
        1
176
     1
 90
        6
176
     1
 90
        2
176
     1
 62
     7
176
     1
 90
        5
176
     1
 90
        0
176
     1
 90
        0
176
     1
290
     0
176
     1
 90
        1
176
     1
 40
0.0
176
     1
 90
        0
176
     1
290
     0
176
     1
290
     1
176
     1
290
     1
176
     1
290
     0
176
     1
290
     0
176
     1
290
     0
176
     1
290
     0
176
     1
290
     0
176
     1
290
     0
176
     1
 90
       50
176
     1
 40
0.0
176
     1
 40
1.0
176
     1
 90
        0
176
     1
 62
    18
176
     1
 90
       50
176
     1
 90
        3
176
     1
 62
     5
420
      255
176
     1
290
     0
176
     1
 90
       50
176
     1
 90
       50
176
     1
 90
       50
176
     1
290
     0
176
     1
 90
       50
176
     1
 62
   256
176
     0
 40
1.0
176
     0
 90
        2
176
     1
  1
strokes_ogs.tif
176
     1
290
     0
176
     1
 40
1.0
176
     1
 40
1.0
176
     1
  0
VISUALSTYLE
  5
38
102
{ACAD_REACTORS
330
2A
102
}
330
2A
100
AcDbVisualStyle
  2

 70
    14
177
     3
291
     1
 70
    58
 90
        2
176
     1
 90
        2
176
     1
 90
        0
176
     1
 90
        0
176
     1
 40
0.6
176
     1
 40
30.0
176
     1
 62
     7
420
 16777215
176
     1
 90
        1
176
     1
 90
        4
176
     1
 62
     7
176
     1
 62
   257
176
     1
 90
        7
176
     1
 90
        7
176
     1
 40
1.0
176
     1
 90
        8
176
     1
 62
     7
176
     1
 40
1.0
176
     1
 90
        1
176
     1
 90
        6
176
     1
 90
        2
176
     1
 62
     7
176
     1
 90
        5
176
     1
 90
        0
176
     1
 90
        0
176
     1
290
     0
176
     1
 90
        1
176
     1
 40
0.0
176
     1
 90
        0
176
     1
290
     0
176
     1
290
     1
176
     1
290
     1
176
     1
290
     0
176
     1
290
     0
176
     1
290
     0
176
     1
290
     0
176
     1
290
     0
176
     1
290
     0
176
     1
 90
       50
176
     1
 40
0.0
176
     1
 40
1.0
176
     1
 90
        0
176
     1
 62
    18
176
     1
 90
       50
176
     1
 90
        3
176
     1
 62
     5
420
      255
176
     1
290
     0
176
     1
 90
       50
176
     1
 90
       50
176
     1
 90
       50
176
     1
290
     0
176
     1
 90
       50
176
     1
 62
   256
176
     0
 40
1.0
176
     0
 90
        2
176
     1
  1
strokes_ogs.tif
176
     1
290
     0
176
     1
 40
1.0
176
     1
 40
1.0
176
     1
  0
VISUALSTYLE
  5
3C
102
{ACAD_REACTORS
330
2A
102
}
330
2A
100
AcDbVisualStyle
  2

 70
    21
177
     3
291
     1
 70
    58
 90
        2
176
     1
 90
        2
176
     1
 90
        0
176
     1
 90
        0
176
     1
 40
0.6
176
     1
 40
30.0
176
     1
 62
     7
420
 16777215
176
     1
 90
        1
176
     1
 90
        4
176
     1
 62
     7
176
     1
 62
   257
176
     1
 90
        1
176
     1
 90
        1
176
     1
 40
1.0
176
     1
 90
        9
176
     1
 62
     7
176
     1
 40
1.0
176
     1
 90
        1
176
     1
 90
        6
176
     1
 90
        2
176
     1
 62
     7
176
     1
 90
        5
176
     1
 90
        0
176
     1
 90
        0
176
     1
290
     0
176
     1
 90
        1
176
     1
 40
0.0
176
     1
 90
        0
176
     1
290
     0
176
     1
290
     1
176
     1
290
     1
176
     1
290
     0
176
     1
290
     0
176
     1
290
     0
176
     1
290
     0
176
     1
290
     0
176
     1
290
     0
176
     1
 90
       50
176
     1
 40
0.0
176
     1
 40
1.0
176
     1
 90
        0
176
     1
 62
    18
176
     1
 90
       50
176
     1
 90
        3
176
     1
 62
     5
420
      255
176
     1
290
     0
176
     1
 90
       50
176
     1
 90
       50
176
     1
 90
       50
176
     1
290
     0
176
     1
 90
       50
176
     1
 62
   256
176
     0
 40
1.0
176
     0
 90
        2
176
     1
  1
strokes_ogs.tif
176
     1
290
     0
176
     1
 40
1.0
176
     1
 40
1.0
176
     1
  0
VISUALSTYLE
  5
33
102
{ACAD_REACTORS
330
2A
102
}
330
2A
100
AcDbVisualStyle
  2

 70
     8
177
     3
291
     0
 70
    58
 90
        2
176
     1
 90
        3
176
     1
 90
        0
176
     1
 90
        2
176
     1
 40
0.6
176
     1
 40
30.0
176
     1
 62
     7
420
 16777215
176
     1
 90
        0
176
     1
 90
        0
176
     1
 62
     7
176
     1
 62
   257
176
     1
 90
        1
176
     1
 90
        1
176
     1
 40
1.0
176
     1
 90
        8
176
     1
 62
   257
176
     1
 40
1.0
176
     1
 90
        1
176
     1
 90
        6
176
     1
 90
        2
176
     1
 62
     7
176
     1
 90
        3
176
     1
 90
        0
176
     1
 90
        0
176
     1
290
     0
176
     1
 90
       13
176
     1
 40
0.0
176
     1
 90
        0
176
     1
290
     0
176
     1
290
     1
176
     1
290
     1
176
     1
290
     0
176
     1
290
     0
176
     1
290
     0
176
     1
290
     0
176
     1
290
     0
176
     1
290
     0
176
     1
 90
       50
176
     1
 40
0.0
176
     1
 40
1.0
176
     1
 90
        0
176
     1
 62
    18
176
     1
 90
       50
176
     1
 90
        3
176
     1
 62
     5
420
      255
176
     1
290
     0
176
     1
 90
       50
176
     1
 90
       50
176
     1
 90
       50
176
     1
290
     0
176
     1
 90
       50
176
     1
 62
   256
176
     0
 40
1.0
176
     0
 90
        2
176
     1
  1
strokes_ogs.tif
176
     1
290
     0
176
     1
 40
1.0
176
     1
 40
1.0
176
     1
  0
VISUALSTYLE
  5
42
102
{ACAD_REACTORS
330
2A
102
}
330
2A
100
AcDbVisualStyle
  2

 70
    27
177
     3
291
     0
 70
    58
 90
        2
176
     1
 90
        2
176
     1
 90
        1
176
     1
 90
        2
176
     1
 40
0.6
176
     1
 40
30.0
176
     1
 62
     7
420
 16777215
176
     1
 90
        0
176
     1
 90
        4
176
     1
 62
     7
176
     1
 62
   257
176
     1
 90
        1
176
     1
 90
        1
176
     1
 40
1.0
176
     1
 90
        8
176
     1
 62
   257
176
     1
 40
1.0
176
     1
 90
        1
176
     1
 90
        6
176
     1
 90
        2
176
     1
 62
     8
420
  7895160
176
     1
 90
        3
176
     1
 90
        0
176
     1
 90
        0
176
     1
290
     0
176
     1
 90
        5
176
     1
 40
0.0
176
     1
 90
        0
176
     1
290
     0
176
     1
290
     1
176
     1
290
     1
176
     1
290
     0
176
     1
290
     0
176
     1
290
     0
176
     1
290
     0
176
     1
290
     0
176
     1
290
     0
176
     1
 90
       50
176
     1
 40
0.0
176
     1
 40
1.0
176
     1
 90
        0
176
     1
 62
    18
176
     1
 90
       50
176
     1
 90
        3
176
     1
 62
     5
420
      255
176
     1
290
     0
176
     1
 90
       50
176
     1
 90
       50
176
     1
 90
       50
176
     1
290
     0
176
     1
 90
       50
176
     1
 62
   256
176
     0
 40
1.0
176
     0
 90
        2
176
     1
  1
strokes_ogs.tif
176
     1
290
     0
176
     1
 40
1.0
176
     1
 40
1.0
176
     1
  0
VISUALSTYLE
  5
41
102
{ACAD_REACTORS
330
2A
102
}
330
2A
100
AcDbVisualStyle
  2

 70
    26
177
     3
291
     0
 70
    58
 90
        2
176
     1
 90
        2
176
     1
 90
        1
176
     1
 90
        2
176
     1
 40
0.6
176
     1
 40
30.0
176
     1
 62
     7
420
 16777215
176
     1
 90
        1
176
     1
 90
       10
176
     1
 62
     7
176
     1
 62
   257
176
     1
 90
        2
176
     1
 90
        1
176
     1
 40
1.0
176
     1
 90
        8
176
     1
 62
   257
176
     1
 40
1.0
176
     1
 90
        1
176
     1
 90
        6
176
     1
 90
        2
176
     1
 62
     7
176
     1
 90
        3
176
     1
 90
        0
176
     1
 90
        0
176
     1
290
     0
176
     1
 90
        5
176
     1
 40
0.0
176
     1
 90
        0
176
     1
290
     0
176
     1
290
     1
176
     1
290
     1
176
     1
290
     0
176
     1
290
     0
176
     1
290
     0
176
     1
290
     0
176
     1
290
     0
176
     1
290
     0
176
     1
 90
       50
176
     1
 40
0.0
176
     1
 40
1.0
176
     1
 90
        0
176
     1
 62
    18
176
     1
 90
       50
176
     1
 90
        3
176
     1
 62
     5
420
      255
176
     1
290
     0
176
     1
 90
       50
176
     1
 90
       50
176
     1
 90
       50
176
     1
290
     0
176
     1
 90
       50
176
     1
 62
   256
176
     0
 40
1.0
176
     0
 90
        2
176
     1
  1
strokes_ogs.tif
176
     1
290
     0
176
     1
 40
1.0
176
     1
 40
1.0
176
     1
  0
VISUALSTYLE
  5
3E
102
{ACAD_REACTORS
330
2A
102
}
330
2A
100
AcDbVisualStyle
  2

 70
    23
177
     3
291
     0
 70
    58
 90
        2
176
     1
 90
        2
176
     1
 90
        3
176
     1
 90
        0
176
     1
 40
0.6
176
     1
 40
30.0
176
     1
 62
     7
420
 16777215
176
     1
 90
        2
176
     1
 90
        2
176
     1
 62
     7
176
     1
 62
     7
176
     1
 90
        1
176
     1
 90
        1
176
     1
 40
40.0
176
     1
 90
        8
176
     1
 62
     7
176
     1
 40
1.0
176
     1
 90
        1
176
     1
 90
        6
176
     1
 90
        2
176
     1
 62
     7
176
     1
 90
        3
176
     1
 90
        0
176
     1
 90
        0
176
     1
290
     0
176
     1
 90
        1
176
     1
 40
0.0
176
     1
 90
        0
176
     1
290
     0
176
     1
290
     1
176
     1
290
     1
176
     1
290
     0
176
     1
290
     0
176
     1
290
     0
176
     1
290
     0
176
     1
290
     0
176
     1
290
     0
176
     1
 90
       50
176
     1
 40
0.0
176
     1
 40
1.0
176
     1
 90
        0
176
     1
 62
    18
176
     1
 90
       50
176
     1
 90
        3
176
     1
 62
     5
420
      255
176
     1
290
     0
176
     1
 90
       50
176
     1
 90
       50
176
     1
 90
       50
176
     1
290
     0
176
     1
 90
       50
176
     1
 62
   256
176
     0
 40
1.0
176
     0
 90
        2
176
     1
  1
strokes_ogs.tif
176
     1
290
     0
176
     1
 40
1.0
176
     1
 40
1.0
176
     1
  0
VISUALSTYLE
  5
3F
102
{ACAD_REACTORS
330
2A
102
}
330
2A
100
AcDbVisualStyle
  2

 70
    24
177
     3
291
     0
 70
    58
 90
        1
176
     1
 90
        2
176
     1
 90
        2
176
     1
 90
        0
176
     1
 40
0.6
176
     1
 40
30.0
176
     1
 62
     7
420
 16777215
176
     1
 90
        2
176
     1
 90
        2
176
     1
 62
     7
176
     1
 62
     7
176
     1
 90
        1
176
     1
 90
        1
176
     1
 40
40.0
176
     1
 90
       11
176
     1
 62
     7
176
     1
 40
1.0
176
     1
 90
        1
176
     1
 90
        6
176
     1
 90
        2
176
     1
 62
     7
176
     1
 90
        6
176
     1
 90
        0
176
     1
 90
        0
176
     1
290
     0
176
     1
 90
        1
176
     1
 40
0.0
176
     1
 90
        0
176
     1
290
     0
176
     1
290
     1
176
     1
290
     1
176
     1
290
     0
176
     1
290
     0
176
     1
290
     0
176
     1
290
     0
176
     1
290
     0
176
     1
290
     0
176
     1
 90
       50
176
     1
 40
0.0
176
     1
 40
1.0
176
     1
 90
        0
176
     1
 62
    18
176
     1
 90
       50
176
     1
 90
        3
176
     1
 62
     5
420
      255
176
     1
290
     0
176
     1
 90
       50
176
     1
 90
       50
176
     1
 90
       50
176
     1
290
     0
176
     1
 90
       50
176
     1
 62
   256
176
     0
 40
1.0
176
     0
 90
        2
176
     1
  1
strokes_ogs.tif
176
     1
290
     0
176
     1
 40
1.0
176
     1
 40
1.0
176
     1
  0
VISUALSTYLE
  5
37
102
{ACAD_REACTORS
330
2A
102
}
330
2A
100
AcDbVisualStyle
  2

 70
    13
177
     3
291
     1
 70
    58
 90
        2
176
     1
 90
        2
176
     1
 90
        0
176
     1
 90
        0
176
     1
 40
0.6
176
     1
 40
30.0
176
     1
 62
     7
420
 16777215
176
     1
 90
        1
176
     1
 90
        4
176
     1
 62
     7
176
     1
 62
   257
176
     1
 90
        1
176
     1
 90
        1
176
     1
 40
1.0
176
     1
 90
       12
176
     1
 62
     7
176
     1
 40
1.0
176
     1
 90
        1
176
     1
 90
        6
176
     1
 90
        2
176
     1
 62
     7
176
     1
 90
        5
176
     1
 90
        0
176
     1
 90
        0
176
     1
290
     0
176
     1
 90
        1
176
     1
 40
0.0
176
     1
 90
        0
176
     1
290
     0
176
     1
290
     1
176
     1
290
     1
176
     1
290
     0
176
     1
290
     0
176
     1
290
     0
176
     1
290
     0
176
     1
290
     0
176
     1
290
     0
176
     1
 90
       50
176
     1
 40
0.0
176
     1
 40
1.0
176
     1
 90
        0
176
     1
 62
    18
176
     1
 90
       50
176
     1
 90
        3
176
     1
 62
     5
420
      255
176
     1
290
     0
176
     1
 90
       50
176
     1
 90
       50
176
     1
 90
       50
176
     1
290
     0
176
     1
 90
       50
176
     1
 62
   256
176
     0
 40
1.0
176
     0
 90
        2
176
     1
  1
strokes_ogs.tif
176
     1
290
     0
176
     1
 40
1.0
176
     1
 40
1.0
176
     1
  0
VISUALSTYLE
  5
30
102
{ACAD_REACTORS
330
2A
102
}
330
2A
100
AcDbVisualStyle
  2

 70
     5
177
     3
291
     0
 70
    58
 90
        0
176
     1
 90
        2
176
     1
 90
        0
176
     1
 90
        0
176
     1
 40
0.6
176
     1
 40
30.0
176
     1
 62
     7
420
 16777215
176
     1
 90
        1
176
     1
 90
        4
176
     1
 62
     7
176
     1
 62
   257
176
     1
 90
        1
176
     1
 90
        1
176
     1
 40
1.0
176
     1
 90
        0
176
     1
 62
   257
176
     1
 40
1.0
176
     1
 90
        1
176
     1
 90
        6
176
     1
 90
        2
176
     1
 62
     7
176
     1
 90
        3
176
     1
 90
        0
176
     1
 90
        0
176
     1
290
     0
176
     1
 90
        1
176
     1
 40
0.0
176
     1
 90
        0
176
     1
290
     0
176
     1
290
     1
176
     1
290
     1
176
     1
290
     0
176
     1
290
     0
176
     1
290
     0
176
     1
290
     0
176
     1
290
     0
176
     1
290
     0
176
     1
 90
       50
176
     1
 40
0.0
176
     1
 40
1.0
176
     1
 90
        0
176
     1
 62
    18
176
     1
 90
       50
176
     1
 90
        3
176
     1
 62
     5
420
      255
176
     1
290
     0
176
     1
 90
       50
176
     1
 90
       50
176
     1
 90
       50
176
     1
290
     0
176
     1
 90
       50
176
     1
 62
   256
176
     0
 40
1.0
176
     0
 90
        2
176
     1
  1
strokes_ogs.tif
176
     1
290
     0
176
     1
 40
1.0
176
     1
 40
1.0
176
     1
  0
VISUALSTYLE
  5
40
102
{ACAD_REACTORS
330
2A
102
}
330
2A
100
AcDbVisualStyle
  2

 70
    25
177
     3
291
     0
 70
    58
 90
        2
176
     1
 90
        2
176
     1
 90
        1
176
     1
 90
        1
176
     1
 40
0.5
176
     1
 40
30.0
176
     1
 62
     7
420
 16777215
176
     1
 90
        1
176
     1
 90
        0
176
     1
 62
     7
176
     1
 62
   257
176
     1
 90
        1
176
     1
 90
        1
176
     1
 40
1.0
176
     1
 90
        8
176
     1
 62
     7
176
     1
 40
1.0
176
     1
 90
        1
176
     1
 90
        6
176
     1
 90
        2
176
     1
 62
     7
176
     1
 90
        3
176
     1
 90
        0
176
     1
 90
        0
176
     1
290
     0
176
     1
 90
       13
176
     1
 40
0.0
176
     1
 90
        0
176
     1
290
     0
176
     1
290
     1
176
     1
290
     1
176
     1
290
     0
176
     1
290
     0
176
     1
290
     0
176
     1
290
     0
176
     1
290
     0
176
     1
290
     0
176
     1
 90
       50
176
     1
 40
0.0
176
     1
 40
1.0
176
     1
 90
        0
176
     1
 62
    18
176
     1
 90
       50
176
     1
 90
        3
176
     1
 62
     5
420
      255
176
     1
290
     0
176
     1
 90
       50
176
     1
 90
       50
176
     1
 90
       50
176
     1
290
     0
176
     1
 90
       50
176
     1
 62
   256
176
     0
 40
1.0
176
     0
 90
        2
176
     1
  1
strokes_ogs.tif
176
     1
290
     0
176
     1
 40
1.0
176
     1
 40
1.0
176
     1
  0
DICTIONARYVAR
  5
3147
102
{ACAD_REACTORS
330
3146
102
}
330
3146
100
DictionaryVariables
280
     0
  1
1:1
  0
DICTIONARYVAR
  5
315F
102
{ACAD_REACTORS
330
3146
102
}
330
3146
100
DictionaryVariables
280
     0
  1
STANDARD
  0
DICTIONARYVAR
  5
315E
102
{ACAD_REACTORS
330
3146
102
}
330
3146
100
DictionaryVariables
280
     0
  1
STANDARD
  0
DICTIONARYVAR
  5
87C2
102
{ACAD_REACTORS
330
3146
102
}
330
3146
100
DictionaryVariables
280
     0
  1
Metric50
  0
DICTIONARYVAR
  5
87C3
102
{ACAD_REACTORS
330
3146
102
}
330
3146
100
DictionaryVariables
280
     0
  1
Metric50
  0
DICTIONARYVAR
  5
3160
102
{ACAD_REACTORS
330
3146
102
}
330
3146
100
DictionaryVariables
280
     0
  1
1
  0
DICTIONARYVAR
  5
3161
102
{ACAD_REACTORS
330
3146
102
}
330
3146
100
DictionaryVariables
280
     0
  1
15
  0
DICTIONARY
  5
87C7
330
877D
100
AcDbDictionary
280
     1
281
     1
  3
ACAD_XREC_ROUNDTRIP
360
8874
  0
DICTIONARY
  5
52E7
330
22
100
AcDbDictionary
280
     1
281
     1
  0
DICTIONARY
  5
87C5
330
877C
100
AcDbDictionary
280
     1
281
     1
  3
ACAD_XREC_ROUNDTRIP
360
8873
  0
DICTIONARY
  5
8777
330
3151
100
AcDbDictionary
280
     1
281
     1
  3
ACAD_ROUNDTRIP_2008_TABLESTYLE_CELLSTYLEMAP
360
8872
  0
XRECORD
  5
8874
102
{ACAD_REACTORS
330
87C7
102
}
330
87C7
100
AcDbXrecord
280
     1
102
DISPLAYNAME
  1
Metric50
102
FLAGS
 90
        0
  0
XRECORD
  5
8873
102
{ACAD_REACTORS
330
87C5
102
}
330
87C5
100
AcDbXrecord
280
     1
102
DISPLAYNAME
  1
Metric50
102
FLAGS
 90
        0
  0
CELLSTYLEMAP
  5
8872
102
{ACAD_REACTORS
330
8777
102
}
330
8777
100
AcDbCellStyleMap
 90
        3
300
CELLSTYLE
  1
TABLEFORMAT_BEGIN
 90
        5
170
     1
 91
        0
 92
    32768
 62
   257
 93
        1
300
CONTENTFORMAT
  1
CONTENTFORMAT_BEGIN
 90
        0
 91
        0
 92
      512
 93
        0
300

 40
0.0
140
1.0
 94
        5
 62
     0
340
11
144
6.0
309
CONTENTFORMAT_END
171
     1
301
MARGIN
  1
CELLMARGIN_BEGIN
 40
1.5
 40
1.5
 40
1.5
 40
1.5
 40
0.18
 40
0.18
309
CELLMARGIN_END
 94
        6
 95
        1
302
GRIDFORMAT
  1
GRIDFORMAT_BEGIN
 90
        0
 91
        1
 62
     0
 92
       -2
340
0
 93
        0
 40
1.125
309
GRIDFORMAT_END
 95
        2
302
GRIDFORMAT
  1
GRIDFORMAT_BEGIN
 90
        0
 91
        1
 62
     0
 92
       -2
340
0
 93
        0
 40
1.125
309
GRIDFORMAT_END
 95
        4
302
GRIDFORMAT
  1
GRIDFORMAT_BEGIN
 90
        0
 91
        1
 62
     0
 92
       -2
340
0
 93
        0
 40
1.125
309
GRIDFORMAT_END
 95
        8
302
GRIDFORMAT
  1
GRIDFORMAT_BEGIN
 90
        0
 91
        1
 62
     0
 92
       -2
340
0
 93
        0
 40
1.125
309
GRIDFORMAT_END
 95
       16
302
GRIDFORMAT
  1
GRIDFORMAT_BEGIN
 90
        0
 91
        1
 62
     0
 92
       -2
340
0
 93
        0
 40
1.125
309
GRIDFORMAT_END
 95
       32
302
GRIDFORMAT
  1
GRIDFORMAT_BEGIN
 90
        0
 91
        1
 62
     0
 92
       -2
340
0
 93
        0
 40
1.125
309
GRIDFORMAT_END
309
TABLEFORMAT_END
  1
CELLSTYLE_BEGIN
 90
        1
 91
        1
300
_TITLE
309
CELLSTYLE_END
300
CELLSTYLE
  1
TABLEFORMAT_BEGIN
 90
        5
170
     1
 91
        0
 92
        0
 62
   257
 93
        1
300
CONTENTFORMAT
  1
CONTENTFORMAT_BEGIN
 90
        0
 91
        0
 92
      512
 93
        0
300

 40
0.0
140
1.0
 94
        5
 62
     0
340
11
144
4.5
309
CONTENTFORMAT_END
171
     1
301
MARGIN
  1
CELLMARGIN_BEGIN
 40
1.5
 40
1.5
 40
1.5
 40
1.5
 40
0.18
 40
0.18
309
CELLMARGIN_END
 94
        6
 95
        1
302
GRIDFORMAT
  1
GRIDFORMAT_BEGIN
 90
        0
 91
        1
 62
     0
 92
       -2
340
0
 93
        0
 40
1.125
309
GRIDFORMAT_END
 95
        2
302
GRIDFORMAT
  1
GRIDFORMAT_BEGIN
 90
        0
 91
        1
 62
     0
 92
       -2
340
0
 93
        0
 40
1.125
309
GRIDFORMAT_END
 95
        4
302
GRIDFORMAT
  1
GRIDFORMAT_BEGIN
 90
        0
 91
        1
 62
     0
 92
       -2
340
0
 93
        0
 40
1.125
309
GRIDFORMAT_END
 95
        8
302
GRIDFORMAT
  1
GRIDFORMAT_BEGIN
 90
        0
 91
        1
 62
     0
 92
       -2
340
0
 93
        0
 40
1.125
309
GRIDFORMAT_END
 95
       16
302
GRIDFORMAT
  1
GRIDFORMAT_BEGIN
 90
        0
 91
        1
 62
     0
 92
       -2
340
0
 93
        0
 40
1.125
309
GRIDFORMAT_END
 95
       32
302
GRIDFORMAT
  1
GRIDFORMAT_BEGIN
 90
        0
 91
        1
 62
     0
 92
       -2
340
0
 93
        0
 40
1.125
309
GRIDFORMAT_END
309
TABLEFORMAT_END
  1
CELLSTYLE_BEGIN
 90
        2
 91
        1
300
_HEADER
309
CELLSTYLE_END
300
CELLSTYLE
  1
TABLEFORMAT_BEGIN
 90
        5
170
     1
 91
        0
 92
        0
 62
   257
 93
        1
300
CONTENTFORMAT
  1
CONTENTFORMAT_BEGIN
 90
        0
 91
        0
 92
      512
 93
        0
300

 40
0.0
140
1.0
 94
        2
 62
     0
340
11
144
4.5
309
CONTENTFORMAT_END
171
     1
301
MARGIN
  1
CELLMARGIN_BEGIN
 40
1.5
 40
1.5
 40
1.5
 40
1.5
 40
0.18
 40
0.18
309
CELLMARGIN_END
 94
        6
 95
        1
302
GRIDFORMAT
  1
GRIDFORMAT_BEGIN
 90
        0
 91
        1
 62
     0
 92
       -2
340
0
 93
        0
 40
1.125
309
GRIDFORMAT_END
 95
        2
302
GRIDFORMAT
  1
GRIDFORMAT_BEGIN
 90
        0
 91
        1
 62
     0
 92
       -2
340
0
 93
        0
 40
1.125
309
GRIDFORMAT_END
 95
        4
302
GRIDFORMAT
  1
GRIDFORMAT_BEGIN
 90
        0
 91
        1
 62
     0
 92
       -2
340
0
 93
        0
 40
1.125
309
GRIDFORMAT_END
 95
        8
302
GRIDFORMAT
  1
GRIDFORMAT_BEGIN
 90
        0
 91
        1
 62
     0
 92
       -2
340
0
 93
        0
 40
1.125
309
GRIDFORMAT_END
 95
       16
302
GRIDFORMAT
  1
GRIDFORMAT_BEGIN
 90
        0
 91
        1
 62
     0
 92
       -2
340
0
 93
        0
 40
1.125
309
GRIDFORMAT_END
 95
       32
302
GRIDFORMAT
  1
GRIDFORMAT_BEGIN
 90
        0
 91
        1
 62
     0
 92
       -2
340
0
 93
        0
 40
1.125
309
GRIDFORMAT_END
309
TABLEFORMAT_END
  1
CELLSTYLE_BEGIN
 90
        3
 91
        2
300
_DATA
309
CELLSTYLE_END
  0
ENDSEC
  0
SECTION
  2
ACDSDATA
 70
     2
 71
     6
  0
ACDSSCHEMA
 90
        0
  1
AcDb_Thumbnail_Schema
  2
AcDbDs::ID
280
    10
 91
        8
  2
Thumbnail_Data
280
    15
 91
        0
101
ACDSRECORD
 95
        0
 90
        1
  2
AcDbDs::TreatedAsObjectData
280
     1
291
     1
101
ACDSRECORD
 95
        0
 90
        2
  2
AcDbDs::Legacy
280
     1
291
     1
101
ACDSRECORD
  1
AcDbDs::ID
 90
        3
  2
AcDs:Indexable
280
     1
291
     1
101
ACDSRECORD
  1
AcDbDs::ID
 90
        4
  2
AcDbDs::HandleAttribute
280
     7
282
     1
  0
ACDSSCHEMA
 90
        1
  1
AcDbDs::TreatedAsObjectDataSchema
  2
AcDbDs::TreatedAsObjectData
280
     1
 91
        0
  0
ACDSSCHEMA
 90
        2
  1
AcDbDs::LegacySchema
  2
AcDbDs::Legacy
280
     1
 91
        0
  0
ACDSSCHEMA
 90
        3
  1
AcDbDs::IndexedPropertySchema
  2
AcDs:Indexable
280
     1
 91
        0
  0
ACDSSCHEMA
 90
        4
  1
AcDbDs::HandleAttributeSchema
  2
AcDbDs::HandleAttribute
280
     7
 91
        1
284
     1
  0
ACDSRECORD
 90
        0
  2
AcDbDs::ID
280
    10
320
22
  2
Thumbnail_Data
280
    15
 94
     1816
310
89504E470D0A1A0A0000000D49484452000001000000006F08030000003479EE6F00000300504C5445000000000000C8C8C80000000000000000000000000000000000000000000000000000330000660000990000CC0000FF0033000033330033660033990033CC0033FF0066000066330066660066990066CC0066FF0099
310
000099330099660099990099CC0099FF00CC0000CC3300CC6600CC9900CCCC00CCFF00FF0000FF3300FF6600FF9900FFCC00FFFF3300003300333300663300993300CC3300FF3333003333333333663333993333CC3333FF3366003366333366663366993366CC3366FF3399003399333399663399993399CC3399FF33CC00
310
33CC3333CC6633CC9933CCCC33CCFF33FF0033FF3333FF6633FF9933FFCC33FFFF6600006600336600666600996600CC6600FF6633006633336633666633996633CC6633FF6666006666336666666666996666CC6666FF6699006699336699666699996699CC6699FF66CC0066CC3366CC6666CC9966CCCC66CCFF66FF0066
310
FF3366FF6666FF9966FFCC66FFFF9900009900339900669900999900CC9900FF9933009933339933669933999933CC9933FF9966009966339966669966999966CC9966FF9999009999339999669999999999CC9999FF99CC0099CC3399CC6699CC9999CCCC99CCFF99FF0099FF3399FF6699FF9999FFCC99FFFFCC0000CC00
310
33CC0066CC0099CC00CCCC00FFCC3300CC3333CC3366CC3399CC33CCCC33FFCC6600CC6633CC6666CC6699CC66CCCC66FFCC9900CC9933CC9966CC9999CC99CCCC99FFCCCC00CCCC33CCCC66CCCC99CCCCCCCCCCFFCCFF00CCFF33CCFF66CCFF99CCFFCCCCFFFFFF0000FF0033FF0066FF0099FF00CCFF00FFFF3300FF3333
310
FF3366FF3399FF33CCFF33FFFF6600FF6633FF6666FF6699FF66CCFF66FFFF9900FF9933FF9966FF9999FF99CCFF99FFFFCC00FFCC33FFCC66FFCC99FFCCCCFFCCFFFFFF00FFFF33FFFF66FFFF99FFFFCCFFFFFF0000000D0D0D1A1A1A2828283535354343435050505D5D5D6B6B6B787878868686939393A1A1A1AEAEAEBB
310
BBBBC9C9C9D6D6D6E4E4E4F1F1F1FFFFFF00000000000000000000000000000000000000000000000000000000000008F1915C000002974944415478DAEDDCC172C220100660DE8027D9F7BF79E135F6C4D9C35EBC9725898158D4B4CEB4ECFE7F6B1DB59319BE0142368921200882200882200882200882201F087D343302
310
FCDB8D01000000F823809CB36B0011C9E21BA03C5C03048F00525346BF3E29806467000DC32DC90FE781E901EA1BB75B9D075DF680FA46A2B527F80618F680DB20E67A807B802D6F02D81A02696FFD08A085086BFB27066846BC02943DC12B006343400E0089B683A2214030350476005E0198439D08E507E369E63980994B
310
E30B4089029C5B0F190028EDBE031CC6861B00AA086E01C2A1C62DFE0098F4D737C022E015C0ED10884BEA0418CB0F95178E0096DCF700B42C044E5605A62F8A520F40BFDAD88C00A1395BFC898DCD08A0041FDC18002604480100BE010200000000000000009E01925B80B6244A0FE7065F1F21CD0FD0F7007DD90204AD90
310
000000E3765A00684F8B7C03F0FC0A7913006B0FA0710F487D9A89D209809E3AE8B66108801B00E6E124C8C1280033EF63FB09005905A0BE2ADC03902380B532DA025CAF0B40FDB86FE87E118541807BE3F4A45105A8E70FFB0E600620515A0E03F4A9ECE0286D8D2B3B3B7D2BC6FA2FFAA7C41EC0B3212061D8037C4C8277
310
80C739C0C76E507CEC06C70B2171B30E182C855B806365C41B80F183A1C1E1B00C0E87FBA299E182888C0A22EDC5B45E00FA09C0520F901E40DE013055119271595C01C83EC0630F683E9297170D5A01D8EE9F3F02BCBC79607E802DF9E18E310590ECA40784C11010F343E0494407866B80776E28C7F5010000C0DC00B18F
310
438070D923319EBD63C202C0BE14BE84F8CDDA000000000000DC00C8D9AF159B1F805B00710E201C83789F030070EEDB25E7064829C574D94F795D52D46FD7CB8E7B40AD0D66CC0100C03AC02900FFB3A5F017EC20CE739B9CB2420000000049454E44AE426082006A9B805400C41440D3F301923365DF11F0EC9CE46F01A0
310
5F806DC4CBA3ABBA04A8957A044897006D05807E9B402B808800207601BEEC4F01000000005CF5AE865A310550590F3006703B1491412EF86FC615011C22E0B64600000000000000360172176817404C45403801C8601AE0BE326C36025212B49D030000C0C874383DEE3EF89BDF979B1FE4820FDE533E10320E9077428C03
310
D00BD81D0885E18A8F9AD13C1760286C6A3224000000000000006018408CEF0E977AAE1120C69E0FC89F33B32962EB0991F3BCFFA2CF1F57075020EC0194AD902B729F4280E24004449311F05705000000F846800F96AF04E8A400000000000000000000000000000000000000000000000000000000000000000000000000
310
0000000000000000000000000000D06BF907AAC67E6490388D2A0000000049454E44AE426082
  0
ENDSEC
  0
EOF
