  0
SECTION
  2
HEADER
  9
$ACADVER
  1
AC1027
  9
$ACADMAINTVER
 70
    55
  9
$DWGCODEPAGE
  3
ANSI_932
  9
$LASTSAVEDBY
  1
marketing
  9
$REQUIREDVERSIONS
160
                 0
  9
$INSBASE
 10
0.0
 20
0.0
 30
0.0
  9
$EXTMIN
 10
-0.1232244904658728
 20
-0.121759839963488
 30
-0.0015258207003583
  9
$EXTMAX
 10
525.0484354373165
 20
742.5665322977192
 30
0.0000000349246037
  9
$LIMMIN
 10
-1176.0
 20
-798.0
  9
$LIMMAX
 10
594.0
 20
1078.0
  9
$ORTHOMODE
 70
     1
  9
$REGENMODE
 70
     1
  9
$FILLMODE
 70
     1
  9
$QTEXTMODE
 70
     0
  9
$MIRRTEXT
 70
     1
  9
$LTSCALE
 40
10.0
  9
$ATTMODE
 70
     1
  9
$TEXTSIZE
 40
2.0
  9
$TRACEWID
 40
0.05
  9
$TEXTSTYLE
  7
STANDARD
  9
$CLAYER
  8
13
  9
$CELTYPE
  6
BYLAYER
  9
$CECOLOR
 62
   256
  9
$CELTSCALE
 40
1.0
  9
$DISPSILH
 70
     0
  9
$DIMSCALE
 40
1.0
  9
$DIMASZ
 40
2.0
  9
$DIMEXO
 40
3.0
  9
$DIMDLI
 40
0.5
  9
$DIMRND
 40
0.0
  9
$DIMDLE
 40
0.0
  9
$DIMEXE
 40
0.5
  9
$DIMTP
 40
0.0
  9
$DIMTM
 40
0.0
  9
$DIMTXT
 40
6.0
  9
$DIMCEN
 40
0.09
  9
$DIMTSZ
 40
0.0
  9
$DIMTOL
 70
     0
  9
$DIMLIM
 70
     0
  9
$DIMTIH
 70
     1
  9
$DIMTOH
 70
     1
  9
$DIMSE1
 70
     0
  9
$DIMSE2
 70
     0
  9
$DIMTAD
 70
     3
  9
$DIMZIN
 70
    12
  9
$DIMBLK
  1
OPEN
  9
$DIMASO
 70
     1
  9
$DIMSHO
 70
     1
  9
$DIMPOST
  1

  9
$DIMAPOST
  1

  9
$DIMALT
 70
     0
  9
$DIMALTD
 70
     2
  9
$DIMALTF
 40
25.4
  9
$DIMLFAC
 40
1.0
  9
$DIMTOFL
 70
     1
  9
$DIMTVP
 40
0.0
  9
$DIMTIX
 70
     0
  9
$DIMSOXD
 70
     0
  9
$DIMSAH
 70
     0
  9
$DIMBLK1
  1

  9
$DIMBLK2
  1

  9
$DIMSTYLE
  2
STANDARD1
  9
$DIMCLRD
 70
     0
  9
$DIMCLRE
 70
     0
  9
$DIMCLRT
 70
     0
  9
$DIMTFAC
 40
1.0
  9
$DIMGAP
 40
2.0
  9
$DIMJUST
 70
     0
  9
$DIMSD1
 70
     0
  9
$DIMSD2
 70
     0
  9
$DIMTOLJ
 70
     1
  9
$DIMTZIN
 70
     0
  9
$DIMALTZ
 70
     0
  9
$DIMALTTZ
 70
     0
  9
$DIMUPT
 70
     0
  9
$DIMDEC
 70
     8
  9
$DIMTDEC
 70
     8
  9
$DIMALTU
 70
     2
  9
$DIMALTTD
 70
     2
  9
$DIMTXSTY
  7
STANDARD
  9
$DIMAUNIT
 70
     0
  9
$DIMADEC
 70
     0
  9
$DIMALTRND
 40
0.0
  9
$DIMAZIN
 70
     0
  9
$DIMDSEP
 70
    46
  9
$DIMATFIT
 70
     2
  9
$DIMFRAC
 70
     0
  9
$DIMLDRBLK
  1
OPEN
  9
$DIMLUNIT
 70
     2
  9
$DIMLWD
 70
    -2
  9
$DIMLWE
 70
    -2
  9
$DIMTMOVE
 70
     0
  9
$DIMFXL
 40
1.0
  9
$DIMFXLON
 70
     0
  9
$DIMJOGANG
 40
0.7853981633974483
  9
$DIMTFILL
 70
     0
  9
$DIMTFILLCLR
 70
     0
  9
$DIMARCSYM
 70
     0
  9
$DIMLTYPE
  6

  9
$DIMLTEX1
  6

  9
$DIMLTEX2
  6

  9
$DIMTXTDIRECTION
 70
     0
  9
$LUNITS
 70
     2
  9
$LUPREC
 70
     8
  9
$SKETCHINC
 40
0.1
  9
$FILLETRAD
 40
0.0
  9
$AUNITS
 70
     0
  9
$AUPREC
 70
     0
  9
$MENU
  1
.
  9
$ELEVATION
 40
0.0
  9
$PELEVATION
 40
0.0
  9
$THICKNESS
 40
0.0
  9
$LIMCHECK
 70
     0
  9
$CHAMFERA
 40
0.0
  9
$CHAMFERB
 40
0.0
  9
$CHAMFERC
 40
0.0
  9
$CHAMFERD
 40
0.0
  9
$SKPOLY
 70
     0
  9
$TDCREATE
 40
2452286.555658658
  9
$TDUCREATE
 40
2452286.180658658
  9
$TDUPDATE
 40
2459243.467397512
  9
$TDUUPDATE
 40
2459243.092397512
  9
$TDINDWG
 40
3.1446605440
  9
$TDUSRTIMER
 40
3.1446564931
  9
$USRTIMER
 70
     1
  9
$ANGBASE
 50
0.0
  9
$ANGDIR
 70
     0
  9
$PDMODE
 70
     0
  9
$PDSIZE
 40
0.0
  9
$PLINEWID
 40
0.0
  9
$SPLFRAME
 70
     0
  9
$SPLINETYPE
 70
     6
  9
$SPLINESEGS
 70
     8
  9
$HANDSEED
  5
23FD6
  9
$SURFTAB1
 70
     6
  9
$SURFTAB2
 70
     6
  9
$SURFTYPE
 70
     6
  9
$SURFU
 70
     6
  9
$SURFV
 70
     6
  9
$UCSBASE
  2

  9
$UCSNAME
  2

  9
$UCSORG
 10
0.0
 20
0.0
 30
0.0
  9
$UCSXDIR
 10
1.0
 20
0.0
 30
0.0
  9
$UCSYDIR
 10
0.0
 20
1.0
 30
0.0
  9
$UCSORTHOREF
  2

  9
$UCSORTHOVIEW
 70
     0
  9
$UCSORGTOP
 10
0.0
 20
0.0
 30
0.0
  9
$UCSORGBOTTOM
 10
0.0
 20
0.0
 30
0.0
  9
$UCSORGLEFT
 10
0.0
 20
0.0
 30
0.0
  9
$UCSORGRIGHT
 10
0.0
 20
0.0
 30
0.0
  9
$UCSORGFRONT
 10
0.0
 20
0.0
 30
0.0
  9
$UCSORGBACK
 10
0.0
 20
0.0
 30
0.0
  9
$PUCSBASE
  2

  9
$PUCSNAME
  2

  9
$PUCSORG
 10
0.0
 20
0.0
 30
0.0
  9
$PUCSXDIR
 10
1.0
 20
0.0
 30
0.0
  9
$PUCSYDIR
 10
0.0
 20
1.0
 30
0.0
  9
$PUCSORTHOREF
  2

  9
$PUCSORTHOVIEW
 70
     0
  9
$PUCSORGTOP
 10
0.0
 20
0.0
 30
0.0
  9
$PUCSORGBOTTOM
 10
0.0
 20
0.0
 30
0.0
  9
$PUCSORGLEFT
 10
0.0
 20
0.0
 30
0.0
  9
$PUCSORGRIGHT
 10
0.0
 20
0.0
 30
0.0
  9
$PUCSORGFRONT
 10
0.0
 20
0.0
 30
0.0
  9
$PUCSORGBACK
 10
0.0
 20
0.0
 30
0.0
  9
$USERI1
 70
     0
  9
$USERI2
 70
     0
  9
$USERI3
 70
     0
  9
$USERI4
 70
     0
  9
$USERI5
 70
     0
  9
$USERR1
 40
0.0
  9
$USERR2
 40
0.0
  9
$USERR3
 40
0.0
  9
$USERR4
 40
0.0
  9
$USERR5
 40
0.0
  9
$WORLDVIEW
 70
     1
  9
$SHADEDGE
 70
     3
  9
$SHADEDIF
 70
    70
  9
$TILEMODE
 70
     1
  9
$MAXACTVP
 70
    48
  9
$PINSBASE
 10
0.0
 20
0.0
 30
0.0
  9
$PLIMCHECK
 70
     0
  9
$PEXTMIN
 10
0.0
 20
0.0
 30
0.0
  9
$PEXTMAX
 10
0.0
 20
0.0
 30
0.0
  9
$PLIMMIN
 10
0.0
 20
0.0
  9
$PLIMMAX
 10
0.0
 20
0.0
  9
$UNITMODE
 70
     0
  9
$VISRETAIN
 70
     1
  9
$PLINEGEN
 70
     0
  9
$PSLTSCALE
 70
     0
  9
$TREEDEPTH
 70
  3020
  9
$CMLSTYLE
  2
STANDARD
  9
$CMLJUST
 70
     0
  9
$CMLSCALE
 40
1.0
  9
$PROXYGRAPHICS
 70
     1
  9
$MEASUREMENT
 70
     0
  9
$CELWEIGHT
370
    -1
  9
$ENDCAPS
280
     0
  9
$JOINSTYLE
280
     0
  9
$LWDISPLAY
290
     0
  9
$INSUNITS
 70
     0
  9
$HYPERLINKBASE
  1

  9
$STYLESHEET
  1
MONOCHROME.CTB
  9
$XEDIT
290
     1
  9
$CEPSNTYPE
380
     0
  9
$PSTYLEMODE
290
     1
  9
$FINGERPRINTGUID
  2

  9
$VERSIONGUID
  2
{901021CA-9DE8-478A-9F36-9455DB23FC87}
  9
$EXTNAMES
290
     1
  9
$PSVPSCALE
 40
0.0
  9
$OLESTARTUP
290
     0
  9
$SORTENTS
280
   127
  9
$INDEXCTL
280
     0
  9
$HIDETEXT
280
     0
  9
$XCLIPFRAME
280
     2
  9
$HALOGAP
280
     0
  9
$OBSCOLOR
 70
   257
  9
$OBSLTYPE
280
     0
  9
$INTERSECTIONDISPLAY
280
     0
  9
$INTERSECTIONCOLOR
 70
   257
  9
$DIMASSOC
280
     1
  9
$PROJECTNAME
  1

  9
$CAMERADISPLAY
290
     0
  9
$LENSLENGTH
 40
50.0
  9
$CAMERAHEIGHT
 40
0.0
  9
$STEPSPERSEC
 40
2.0
  9
$STEPSIZE
 40
6.0
  9
$3DDWFPREC
 40
2.0
  9
$PSOLWIDTH
 40
0.25
  9
$PSOLHEIGHT
 40
4.0
  9
$LOFTANG1
 40
1.570796326794896
  9
$LOFTANG2
 40
1.570796326794896
  9
$LOFTMAG1
 40
0.0
  9
$LOFTMAG2
 40
0.0
  9
$LOFTPARAM
 70
     7
  9
$LOFTNORMALS
280
     1
  9
$LATITUDE
 40
37.795
  9
$LONGITUDE
 40
-122.394
  9
$NORTHDIRECTION
 40
0.0
  9
$TIMEZONE
 70
 -8000
  9
$LIGHTGLYPHDISPLAY
280
     1
  9
$TILEMODELIGHTSYNCH
280
     1
  9
$CMATERIAL
347
FFFD
  9
$SOLIDHIST
280
     1
  9
$SHOWHIST
280
     1
  9
$DWFFRAME
280
     2
  9
$DGNFRAME
280
     0
  9
$REALWORLDSCALE
290
     1
  9
$INTERFERECOLOR
 62
     1
  9
$INTERFEREOBJVS
345
1001F
  9
$INTERFEREVPVS
346
1001C
  9
$CSHADOW
280
     0
  9
$SHADOWPLANELOCATION
 40
0.0
  0
ENDSEC
  0
SECTION
  2
CLASSES
  0
CLASS
  1
ACDBDICTIONARYWDFLT
  2
AcDbDictionaryWithDefault
  3
ObjectDBX Classes
 90
        0
 91
        1
280
     0
281
     0
  0
CLASS
  1
DICTIONARYVAR
  2
AcDbDictionaryVar
  3
ObjectDBX Classes
 90
        0
 91
       12
280
     0
281
     0
  0
CLASS
  1
MATERIAL
  2
AcDbMaterial
  3
ObjectDBX Classes
 90
     1153
 91
        3
280
     0
281
     0
  0
CLASS
  1
VISUALSTYLE
  2
AcDbVisualStyle
  3
ObjectDBX Classes
 90
     4095
 91
       26
280
     0
281
     0
  0
CLASS
  1
TABLESTYLE
  2
AcDbTableStyle
  3
ObjectDBX Classes
 90
     4095
 91
        1
280
     0
281
     0
  0
CLASS
  1
SCALE
  2
AcDbScale
  3
ObjectDBX Classes
 90
     1153
 91
       33
280
     0
281
     0
  0
CLASS
  1
MLEADERSTYLE
  2
AcDbMLeaderStyle
  3
ACDB_MLEADERSTYLE_CLASS
 90
     4095
 91
        1
280
     0
281
     0
  0
CLASS
  1
CELLSTYLEMAP
  2
AcDbCellStyleMap
  3
ObjectDBX Classes
 90
     1152
 91
        2
280
     0
281
     0
  0
CLASS
  1
AEC_REFEDIT_STATUS_TRACKER
  2
AecDbRefEditStatusTracker
  3
AecArchBase70|Product Desc: Autodesk Architectural Desktop 2007 |Company: Autodesk,Inc. |WEB Address: www.autodesk.com
 90
      129
 91
        0
280
     0
281
     0
  0
CLASS
  1
NPOCOLLECTION
  2
AcDbImpNonPersistentObjectsCollection
  3
ObjectDBX Classes
 90
     1153
 91
        0
280
     0
281
     0
  0
CLASS
  1
SORTENTSTABLE
  2
AcDbSortentsTable
  3
ObjectDBX Classes
 90
        0
 91
        1
280
     0
281
     0
  0
CLASS
  1
ACDBSECTIONVIEWSTYLE
  2
AcDbSectionViewStyle
  3
ObjectDBX Classes
 90
     1025
 91
        1
280
     0
281
     0
  0
CLASS
  1
ACDBDETAILVIEWSTYLE
  2
AcDbDetailViewStyle
  3
ObjectDBX Classes
 90
     1025
 91
        1
280
     0
281
     0
  0
ENDSEC
  0
SECTION
  2
TABLES
  0
TABLE
  2
VPORT
  5
8
330
0
100
AcDbSymbolTable
 70
     1
  0
VPORT
  5
15B34
330
8
100
AcDbSymbolTableRecord
100
AcDbViewportTableRecord
  2
*Active
 70
     0
 10
0.0
 20
0.0
 11
1.0
 21
1.0
 12
262.4626054734254
 22
371.2223862288779
 13
0.0
 23
0.0
 14
1.0
 24
1.0
 15
10.0
 25
10.0
 16
0.0
 26
0.0
 36
1.0
 17
0.0
 27
0.0
 37
0.0
 40
749.4400038843889
 41
2.464339908952958
 42
50.0
 43
0.0
 44
0.0
 50
0.0
 51
0.0
 71
     0
 72
   100
 73
     1
 74
     1
 75
     0
 76
     0
 77
     0
 78
     1
281
     0
 65
     1
110
0.0
120
0.0
130
0.0
111
1.0
121
0.0
131
0.0
112
0.0
122
1.0
132
0.0
 79
     0
146
0.0
348
1001B
 60
     3
 61
     5
292
     1
282
     1
141
0.0
142
0.0
 63
   250
421
  3355443
1001
ACAD_NAV_VCDISPLAY
1070
     3
  0
ENDTAB
  0
TABLE
  2
LTYPE
  5
5
330
0
100
AcDbSymbolTable
 70
     7
  0
LTYPE
  5
13
330
5
100
AcDbSymbolTableRecord
100
AcDbLinetypeTableRecord
  2
BYBLOCK
 70
     0
  3

 72
    65
 73
     0
 40
0.0
  0
LTYPE
  5
14
330
5
100
AcDbSymbolTableRecord
100
AcDbLinetypeTableRecord
  2
BYLAYER
 70
     0
  3

 72
    65
 73
     0
 40
0.0
  0
LTYPE
  5
15
330
5
100
AcDbSymbolTableRecord
100
AcDbLinetypeTableRecord
  2
CONTINUOUS
 70
     0
  3
Solid line
 72
    65
 73
     0
 40
0.0
  0
LTYPE
  5
22
330
5
100
AcDbSymbolTableRecord
100
AcDbLinetypeTableRecord
  2
CONTINOUS
 70
     0
  3
Solid line
 72
    65
 73
     0
 40
0.0
  0
LTYPE
  5
24
330
5
100
AcDbSymbolTableRecord
100
AcDbLinetypeTableRecord
  2
DASHDOT
 70
     0
  3
__ . __ . __ . __ . __ . __ . __ . __ . __ . __
 72
    65
 73
     4
 40
1.0
 49
0.5
 74
     0
 49
-0.25
 74
     0
 49
0.0
 74
     0
 49
-0.25
 74
     0
  0
LTYPE
  5
4C47
330
5
100
AcDbSymbolTableRecord
100
AcDbLinetypeTableRecord
  2
DIVIDE
 70
     0
  3
Divide ____ . . ____ . . ____ . . ____ . . ____
 72
    65
 73
     6
 40
1.25
 49
0.5
 74
     0
 49
-0.25
 74
     0
 49
0.0
 74
     0
 49
-0.25
 74
     0
 49
0.0
 74
     0
 49
-0.25
 74
     0
  0
LTYPE
  5
685F
330
5
100
AcDbSymbolTableRecord
100
AcDbLinetypeTableRecord
  2
PHANTOM
 70
     0
  3
Phantom ______  __  __  ______  __  __  ______
 72
    65
 73
     6
 40
2.5
 49
1.25
 74
     0
 49
-0.25
 74
     0
 49
0.25
 74
     0
 49
-0.25
 74
     0
 49
0.25
 74
     0
 49
-0.25
 74
     0
  0
LTYPE
  5
16152
330
5
100
AcDbSymbolTableRecord
100
AcDbLinetypeTableRecord
  2
SLD-実線
 70
     0
  3
SolidWorks Line Style
 72
    65
 73
     0
 40
0.0
  0
LTYPE
  5
23292
330
5
100
AcDbSymbolTableRecord
100
AcDbLinetypeTableRecord
  2
HIDDEN
 70
     0
  3
Hidden __ __ __ __ __ __ __ __ __ __ __ __ __ __
 72
    65
 73
     2
 40
0.375
 49
0.25
 74
     0
 49
-0.125
 74
     0
  0
ENDTAB
  0
TABLE
  2
LAYER
  5
2
102
{ACAD_XDICTIONARY
360
21E04
102
}
330
0
100
AcDbSymbolTable
 70
    17
  0
LAYER
  5
10
102
{ACAD_XDICTIONARY
360
10054
102
}
330
2
100
AcDbSymbolTableRecord
100
AcDbLayerTableRecord
  2
0
 70
     0
 62
     7
  6
CONTINOUS
370
    -3
390
F
347
1000D
348
0
  0
LAYER
  5
2F
102
{ACAD_XDICTIONARY
360
10056
102
}
330
2
100
AcDbSymbolTableRecord
100
AcDbLayerTableRecord
  2
10
 70
     0
 62
     4
  6
CONTINOUS
370
    -3
390
F
347
1000D
348
0
  0
LAYER
  5
35
102
{ACAD_XDICTIONARY
360
1005A
102
}
330
2
100
AcDbSymbolTableRecord
100
AcDbLayerTableRecord
  2
16
 70
     0
 62
     6
  6
DASHDOT
370
    -3
390
F
347
1000D
348
0
  0
LAYER
  5
3D
102
{ACAD_XDICTIONARY
360
1005E
102
}
330
2
100
AcDbSymbolTableRecord
100
AcDbLayerTableRecord
  2
24
 70
     0
 62
     7
  6
CONTINOUS
370
    -3
390
F
347
1000D
348
0
  0
LAYER
  5
3A2
102
{ACAD_XDICTIONARY
360
10060
102
}
330
2
100
AcDbSymbolTableRecord
100
AcDbLayerTableRecord
  2
30
 70
     0
 62
     9
  6
CONTINUOUS
370
    -3
390
F
347
1000D
348
0
  0
LAYER
  5
3A4
330
2
100
AcDbSymbolTableRecord
100
AcDbLayerTableRecord
  2
DEFPOINTS
 70
     0
 62
     7
  6
CONTINUOUS
290
     0
370
    -3
390
F
347
1000D
348
0
  0
LAYER
  5
3BBA
102
{ACAD_XDICTIONARY
360
10062
102
}
330
2
100
AcDbSymbolTableRecord
100
AcDbLayerTableRecord
  2
18
 70
     0
 62
     5
  6
DIVIDE
370
    -3
390
F
347
1000D
348
0
  0
LAYER
  5
67A8
102
{ACAD_XDICTIONARY
360
10064
102
}
330
2
100
AcDbSymbolTableRecord
100
AcDbLayerTableRecord
  2
11
 70
     0
 62
     1
  6
CONTINOUS
370
    -3
390
F
347
1000D
348
0
  0
LAYER
  5
7837
102
{ACAD_XDICTIONARY
360
10066
102
}
330
2
100
AcDbSymbolTableRecord
100
AcDbLayerTableRecord
  2
17
 70
     0
 62
     2
  6
DASHDOT
370
    -3
390
F
347
1000D
348
0
  0
LAYER
  5
C500
102
{ACAD_XDICTIONARY
360
10070
102
}
330
2
100
AcDbSymbolTableRecord
100
AcDbLayerTableRecord
  2
240
 70
     0
 62
     7
  6
CONTINUOUS
370
    -3
390
F
347
1000D
348
0
  0
LAYER
  5
C501
102
{ACAD_XDICTIONARY
360
10072
102
}
330
2
100
AcDbSymbolTableRecord
100
AcDbLayerTableRecord
  2
5
 70
     0
 62
     7
  6
CONTINUOUS
370
    -3
390
F
347
1000D
348
0
  0
LAYER
  5
F7D2
102
{ACAD_XDICTIONARY
360
10076
102
}
330
2
100
AcDbSymbolTableRecord
100
AcDbLayerTableRecord
  2
13
 70
     0
 62
     3
  6
CONTINUOUS
370
    -3
390
F
347
1000D
348
0
  0
LAYER
  5
F7D8
102
{ACAD_XDICTIONARY
360
10078
102
}
330
2
100
AcDbSymbolTableRecord
100
AcDbLayerTableRecord
  2
130
 70
     0
 62
     4
  6
CONTINOUS
370
    -3
390
F
347
1000D
348
0
  0
LAYER
  5
F9C3
102
{ACAD_XDICTIONARY
360
1007A
102
}
330
2
100
AcDbSymbolTableRecord
100
AcDbLayerTableRecord
  2
131
 70
     0
 62
     4
  6
PHANTOM
370
    -3
390
F
347
1000D
348
0
  0
LAYER
  5
23F90
330
2
100
AcDbSymbolTableRecord
100
AcDbLayerTableRecord
  2
19
 70
     0
 62
     7
  6
CONTINOUS
370
    -3
390
F
347
1000D
348
0
1001
AcAecLayerStandard
1000

1000

1001
AcCmTransparency
1071
        0
  0
LAYER
  5
23F93
330
2
100
AcDbSymbolTableRecord
100
AcDbLayerTableRecord
  2
12
 70
     0
 62
     3
  6
CONTINOUS
370
    -3
390
F
347
1000D
348
0
1001
AcAecLayerStandard
1000

1000

1001
AcCmTransparency
1071
        0
  0
LAYER
  5
23F94
330
2
100
AcDbSymbolTableRecord
100
AcDbLayerTableRecord
  2
23
 70
     0
 62
     2
  6
CONTINUOUS
370
    -3
390
F
347
1000D
348
0
1001
AcAecLayerStandard
1000

1000

1001
AcCmTransparency
1071
        0
  0
ENDTAB
  0
TABLE
  2
STYLE
  5
3
330
0
100
AcDbSymbolTable
 70
     3
  0
STYLE
  5
11
330
3
100
AcDbSymbolTableRecord
100
AcDbTextStyleTableRecord
  2
STANDARD
 70
     0
 40
0.0
 41
1.0
 50
0.0
 71
     0
 42
2.0
  3
txt.shx
  4
bigfont.shx
  0
STYLE
  5
C503
330
3
100
AcDbSymbolTableRecord
100
AcDbTextStyleTableRecord
  2
blockfont
 70
     0
 40
0.0
 41
1.0
 50
0.0
 71
     0
 42
0.2
  3
simplex.shx
  4
bigfont
  0
STYLE
  5
232DA
330
3
100
AcDbSymbolTableRecord
100
AcDbTextStyleTableRecord
  2
SLDTEXTSTYLE0
 70
     0
 40
0.0
 41
1.0
 50
0.0
 71
     0
 42
3.0
  3
MS UI Gothic.ttf
  4

1001
ACAD
1000
MS UI Gothic
1071
      306
  0
ENDTAB
  0
TABLE
  2
VIEW
  5
6
330
0
100
AcDbSymbolTable
 70
     3
  0
VIEW
  5
230C
330
6
100
AcDbSymbolTableRecord
100
AcDbViewTableRecord
  2
OLE1
 70
     0
 40
148.912488
 10
429.497628
 20
2.560627
 41
103.145806
 11
0.0
 21
0.0
 31
1.0
 12
0.0
 22
0.0
 32
0.0
 42
50.0
 43
0.0
 44
0.0
 50
0.0
 71
     0
281
     0
 72
     0
 73
     0
348
1001B
  0
VIEW
  5
230E
330
6
100
AcDbSymbolTableRecord
100
AcDbViewTableRecord
  2
OLE2
 70
     0
 40
170.778692
 10
322.66497
 20
-5.978304
 41
102.467215
 11
0.0
 21
0.0
 31
1.0
 12
0.0
 22
0.0
 32
0.0
 42
50.0
 43
0.0
 44
0.0
 50
0.0
 71
     0
281
     0
 72
     0
 73
     0
348
1001B
  0
VIEW
  5
23AA
330
6
100
AcDbSymbolTableRecord
100
AcDbViewTableRecord
  2
OLE3
 70
     0
 40
591.7897389999998
 10
84.79698199999999
 20
-46.09335999999998
 41
388.792096
 11
0.0
 21
0.0
 31
1.0
 12
0.0
 22
0.0
 32
0.0
 42
50.0
 43
0.0
 44
0.0
 50
0.0
 71
     0
281
     0
 72
     0
 73
     0
348
1001B
  0
ENDTAB
  0
TABLE
  2
UCS
  5
7
330
0
100
AcDbSymbolTable
 70
     0
  0
ENDTAB
  0
TABLE
  2
APPID
  5
9
330
0
100
AcDbSymbolTable
 70
    11
  0
APPID
  5
12
330
9
100
AcDbSymbolTableRecord
100
AcDbRegAppTableRecord
  2
ACAD
 70
     0
  0
APPID
  5
ECD
330
9
100
AcDbSymbolTableRecord
100
AcDbRegAppTableRecord
  2
CONTENTBLOCKICON
 70
     0
  0
APPID
  5
100CA
330
9
100
AcDbSymbolTableRecord
100
AcDbRegAppTableRecord
  2
ACAD_MLEADERVER
 70
     0
  0
APPID
  5
1012B
330
9
100
AcDbSymbolTableRecord
100
AcDbRegAppTableRecord
  2
DCO15
 70
     0
  0
APPID
  5
14499
330
9
100
AcDbSymbolTableRecord
100
AcDbRegAppTableRecord
  2
ACAD_EXEMPT_FROM_CAD_STANDARDS
 70
     0
  0
APPID
  5
15772
330
9
100
AcDbSymbolTableRecord
100
AcDbRegAppTableRecord
  2
ACAD_PSEXT
 70
     0
  0
APPID
  5
16165
330
9
100
AcDbSymbolTableRecord
100
AcDbRegAppTableRecord
  2
ACAD_DSTYLE_DIMJAG
 70
     0
  0
APPID
  5
16166
330
9
100
AcDbSymbolTableRecord
100
AcDbRegAppTableRecord
  2
ACAD_DSTYLE_DIMTALN
 70
     0
  0
APPID
  5
231C8
330
9
100
AcDbSymbolTableRecord
100
AcDbRegAppTableRecord
  2
ACAD_NAV_VCDISPLAY
 70
     0
  0
APPID
  5
23F91
330
9
100
AcDbSymbolTableRecord
100
AcDbRegAppTableRecord
  2
AcAecLayerStandard
 70
     0
  0
APPID
  5
23F92
330
9
100
AcDbSymbolTableRecord
100
AcDbRegAppTableRecord
  2
AcCmTransparency
 70
     0
  0
ENDTAB
  0
TABLE
  2
DIMSTYLE
  5
A
330
0
100
AcDbSymbolTable
 70
     2
100
AcDbDimStyleTable
 71
     2
340
C24A
340
175
  0
DIMSTYLE
105
175
102
{ACAD_REACTORS
330
22EF5
330
22E9E
330
218EC
330
22A01
330
22A02
330
2390B
330
2395A
330
23DF0
330
23DF1
330
22EB2
330
22F03
102
}
330
A
100
AcDbSymbolTableRecord
100
AcDbDimStyleTableRecord
  2
STANDARD
 70
     0
 41
2.0
 42
1.0
 43
0.5
 44
0.5
 69
     1
 73
     0
 74
     0
 77
     3
 78
    12
140
6.0
147
2.0
271
     1
272
     1
340
11
341
3B2
342
3B2
1001
ACAD_DSTYLE_DIMJAG
1070
   388
1040
1.5
1001
ACAD_DSTYLE_DIMTALN
1070
   392
1070
     0
  0
DIMSTYLE
105
C24A
102
{ACAD_REACTORS
330
2181F
330
228C2
330
22BC8
330
22BEA
330
22EB5
330
22F84
330
22F85
330
22F86
330
22EF9
330
23959
330
23909
330
22A05
330
22EFA
330
22F06
330
22F07
330
2390A
330
23957
330
23EF4
330
22EB9
330
23F1B
330
23F3A
102
}
330
A
100
AcDbSymbolTableRecord
100
AcDbDimStyleTableRecord
  2
STANDARD1
 70
     0
 41
2.0
 42
3.0
 43
0.5
 44
0.5
 77
     3
 78
    12
140
6.0
147
2.0
172
     1
271
     8
272
     8
289
     2
340
11
341
3B2
342
3B2
1001
ACAD_DSTYLE_DIMJAG
1070
   388
1040
1.5
1001
ACAD_DSTYLE_DIMTALN
1070
   392
1070
     0
  0
ENDTAB
  0
TABLE
  2
BLOCK_RECORD
  5
1
330
0
100
AcDbSymbolTable
 70
    34
  0
BLOCK_RECORD
  5
1E
102
{ACAD_XDICTIONARY
360
178
102
}
330
1
100
AcDbSymbolTableRecord
100
AcDbBlockTableRecord
  2
*MODEL_SPACE
340
904E
 70
     0
280
     1
281
     0
  0
BLOCK_RECORD
  5
1A
102
{ACAD_XDICTIONARY
360
17A
102
}
330
1
100
AcDbSymbolTableRecord
100
AcDbBlockTableRecord
  2
*PAPER_SPACE
340
904F
 70
     0
280
     1
281
     0
  0
BLOCK_RECORD
  5
3B2
330
1
100
AcDbSymbolTableRecord
100
AcDbBlockTableRecord
  2
_OPEN
340
0
310
2800000020000000200000000100080000000000000400000000000000000000000000000000000000000000000080000080000000808000800000008000800080800000C0C0C000C0DCC000F0CAA6000020400000206000002080000020A0000020C0000020E00000400000004020000040400000406000004080000040A0
310
000040C0000040E00000600000006020000060400000606000006080000060A0000060C0000060E00000800000008020000080400000806000008080000080A0000080C0000080E00000A0000000A0200000A0400000A0600000A0800000A0A00000A0C00000A0E00000C0000000C0200000C0400000C0600000C0800000C0
310
A00000C0C00000C0E00000E0000000E0200000E0400000E0600000E0800000E0A00000E0C00000E0E00040000000400020004000400040006000400080004000A0004000C0004000E00040200000402020004020400040206000402080004020A0004020C0004020E000404000004040200040404000404060004040800040
310
40A0004040C0004040E00040600000406020004060400040606000406080004060A0004060C0004060E00040800000408020004080400040806000408080004080A0004080C0004080E00040A0000040A0200040A0400040A0600040A0800040A0A00040A0C00040A0E00040C0000040C0200040C0400040C0600040C08000
310
40C0A00040C0C00040C0E00040E0000040E0200040E0400040E0600040E0800040E0A00040E0C00040E0E00080000000800020008000400080006000800080008000A0008000C0008000E00080200000802020008020400080206000802080008020A0008020C0008020E00080400000804020008040400080406000804080
310
008040A0008040C0008040E00080600000806020008060400080606000806080008060A0008060C0008060E00080800000808020008080400080806000808080008080A0008080C0008080E00080A0000080A0200080A0400080A0600080A0800080A0A00080A0C00080A0E00080C0000080C0200080C0400080C0600080C0
310
800080C0A00080C0C00080C0E00080E0000080E0200080E0400080E0600080E0800080E0A00080E0C00080E0E000C0000000C0002000C0004000C0006000C0008000C000A000C000C000C000E000C0200000C0202000C0204000C0206000C0208000C020A000C020C000C020E000C0400000C0402000C0404000C0406000C0
310
408000C040A000C040C000C040E000C0600000C0602000C0604000C0606000C0608000C060A000C060C000C060E000C0800000C0802000C0804000C0806000C0808000C080A000C080C000C080E000C0A00000C0A02000C0A04000C0A06000C0A08000C0A0A000C0A0C000C0A0E000C0C00000C0C02000C0C04000C0C06000
310
C0C08000C0C0A000F0FBFF00A4A0A000808080000000FF0000FF000000FFFF00FF000000FF00FF00FFFF0000FFFFFF0000000000000000000000000000000000000000000000000000000000000000000000000000000000000000000000000000000000000000000000000000000000000000000000000000000000000000
310
00000000000000000000000000000000000000000000000000000000000000000000000000000000000000000000000000000000000000000000000000000000000000000000000000000000000000000000000000000000000000000000000000000000000000000000000000000000000000000000000000000000000000
310
00000000000000000000000000000000000000000000000000000000000000000000000000000000000000000000000000000000000000000000000000000000000000000000000000000000000000000000000000000000000000000000000000000000000000000000000000000000000000000000000000000000000000
310
0000000000000000000000000000000000000000FFFFFF0000000000000000000000000000000000000000000000000000000000000000FFFFFFFFFFFF0000000000000000000000000000000000000000000000000000000000000000FFFFFFFFFFFF00000000000000000000000000000000000000000000000000000000
310
00000000FFFFFFFFFFFF0000000000000000000000000000000000000000000000000000000000000000FFFFFFFFFFFF0000000000FFFFFFFFFFFFFFFFFFFFFFFFFFFFFFFFFFFFFFFFFFFFFFFFFFFFFFFFFFFF000000000000000000000000000000000000000000FFFFFFFFFFFFFF00000000000000000000000000000000
310
00FFFFFFFFFFFFFFFF0000000000000000000000000000000000FFFFFFFFFFFFFF000000000000000000000000000000000000000000FFFFFFFF000000000000000000000000000000000000000000000000000000000000000000000000000000000000000000000000000000000000000000000000000000000000000000
310
00000000000000000000000000000000000000000000000000000000000000000000000000000000000000000000000000000000000000000000000000000000000000000000000000000000000000000000000000000000000000000000000000000000000000000000000000000000000000000000000000000000000000
310
00000000000000000000000000000000000000000000000000000000000000000000000000000000000000000000000000000000000000000000000000000000000000000000000000000000000000000000000000000000000000000000000000000000000000000000000000000000000000000000000000000000000000
310
0000000000000000000000000000000000000000000000000000000000000000000000000000000000000000000000000000000000000000
102
{BLKREFS
331
23DAC
331
23DAD
331
23CEC
331
23CED
331
23E4E
331
23E4F
331
23E58
331
23E59
331
23E61
331
23E62
331
23E6A
331
23E6B
331
23E85
331
23E86
331
23E95
331
23E96
331
23E9E
331
23E9F
331
23ECF
331
23D01
331
23D02
331
23D12
331
23D13
331
23E16
331
23E17
331
23E3A
331
23E3B
331
23F34
331
23F35
331
23CF5
331
23CF6
331
23D91
331
23D92
331
23DA3
331
23DA4
331
23CE3
331
23CE4
331
23DBC
331
23DC3
331
23D1C
331
23D1D
331
23D25
331
23D26
331
23D2E
331
23D2F
331
23F5C
331
23F5D
331
23F0D
331
23F0E
331
23D80
331
23ED0
331
23D37
331
23D38
331
23D49
331
23D4A
331
23D5B
331
23D5C
331
23D7F
331
23CA2
331
23CA3
102
}
 70
     0
280
     1
281
     0
  0
BLOCK_RECORD
  5
15DAD
330
1
100
AcDbSymbolTableRecord
100
AcDbBlockTableRecord
  2
SW_CENTERMARKSYMBOL_5
340
0
102
{BLKREFS
331
228C5
102
}
 70
     0
280
     1
281
     0
  0
BLOCK_RECORD
  5
15DB8
330
1
100
AcDbSymbolTableRecord
100
AcDbBlockTableRecord
  2
SW_CENTERMARKSYMBOL_6
340
0
102
{BLKREFS
331
228C6
102
}
 70
     0
280
     1
281
     0
  0
BLOCK_RECORD
  5
21859
330
1
100
AcDbSymbolTableRecord
100
AcDbBlockTableRecord
  2
*D3
340
0
 70
     0
280
     1
281
     0
  0
BLOCK_RECORD
  5
218ED
330
1
100
AcDbSymbolTableRecord
100
AcDbBlockTableRecord
  2
*D4
340
0
 70
     0
280
     1
281
     0
  0
BLOCK_RECORD
  5
228C9
330
1
100
AcDbSymbolTableRecord
100
AcDbBlockTableRecord
  2
*D5
340
0
 70
     0
280
     1
281
     0
  0
BLOCK_RECORD
  5
22A06
330
1
100
AcDbSymbolTableRecord
100
AcDbBlockTableRecord
  2
*D6
340
0
 70
     0
280
     1
281
     0
  0
BLOCK_RECORD
  5
22A12
330
1
100
AcDbSymbolTableRecord
100
AcDbBlockTableRecord
  2
*D7
340
0
 70
     0
280
     1
281
     0
  0
BLOCK_RECORD
  5
22BC9
330
1
100
AcDbSymbolTableRecord
100
AcDbBlockTableRecord
  2
*D8
340
0
 70
     0
280
     1
281
     0
  0
BLOCK_RECORD
  5
22BEB
330
1
100
AcDbSymbolTableRecord
100
AcDbBlockTableRecord
  2
*D9
340
0
 70
     0
280
     1
281
     0
  0
BLOCK_RECORD
  5
22F89
330
1
100
AcDbSymbolTableRecord
100
AcDbBlockTableRecord
  2
*D10
340
0
 70
     0
280
     1
281
     0
  0
BLOCK_RECORD
  5
22FA1
330
1
100
AcDbSymbolTableRecord
100
AcDbBlockTableRecord
  2
*D11
340
0
 70
     0
280
     1
281
     0
  0
BLOCK_RECORD
  5
22FB9
330
1
100
AcDbSymbolTableRecord
100
AcDbBlockTableRecord
  2
*D12
340
0
 70
     0
280
     1
281
     0
  0
BLOCK_RECORD
  5
22FC5
330
1
100
AcDbSymbolTableRecord
100
AcDbBlockTableRecord
  2
*D13
340
0
 70
     0
280
     1
281
     0
  0
BLOCK_RECORD
  5
22FE9
330
1
100
AcDbSymbolTableRecord
100
AcDbBlockTableRecord
  2
*D14
340
0
 70
     0
280
     1
281
     0
  0
BLOCK_RECORD
  5
22FF5
330
1
100
AcDbSymbolTableRecord
100
AcDbBlockTableRecord
  2
*D15
340
0
 70
     0
280
     1
281
     0
  0
BLOCK_RECORD
  5
2300F
330
1
100
AcDbSymbolTableRecord
100
AcDbBlockTableRecord
  2
*D16
340
0
 70
     0
280
     1
281
     0
  0
BLOCK_RECORD
  5
2301B
330
1
100
AcDbSymbolTableRecord
100
AcDbBlockTableRecord
  2
*D17
340
0
 70
     0
280
     1
281
     0
  0
BLOCK_RECORD
  5
23027
330
1
100
AcDbSymbolTableRecord
100
AcDbBlockTableRecord
  2
*D18
340
0
 70
     0
280
     1
281
     0
  0
BLOCK_RECORD
  5
23033
330
1
100
AcDbSymbolTableRecord
100
AcDbBlockTableRecord
  2
*D19
340
0
 70
     0
280
     1
281
     0
  0
BLOCK_RECORD
  5
2303F
330
1
100
AcDbSymbolTableRecord
100
AcDbBlockTableRecord
  2
*D20
340
0
 70
     0
280
     1
281
     0
  0
BLOCK_RECORD
  5
2304C
330
1
100
AcDbSymbolTableRecord
100
AcDbBlockTableRecord
  2
*D21
340
0
 70
     0
280
     1
281
     0
  0
BLOCK_RECORD
  5
23119
330
1
100
AcDbSymbolTableRecord
100
AcDbBlockTableRecord
  2
*D22
340
0
 70
     0
280
     1
281
     0
  0
BLOCK_RECORD
  5
2390C
330
1
100
AcDbSymbolTableRecord
100
AcDbBlockTableRecord
  2
*D23
340
0
 70
     0
280
     1
281
     0
  0
BLOCK_RECORD
  5
23918
330
1
100
AcDbSymbolTableRecord
100
AcDbBlockTableRecord
  2
*D24
340
0
 70
     0
280
     1
281
     0
  0
BLOCK_RECORD
  5
23923
330
1
100
AcDbSymbolTableRecord
100
AcDbBlockTableRecord
  2
*D25
340
0
 70
     0
280
     1
281
     0
  0
BLOCK_RECORD
  5
2395B
330
1
100
AcDbSymbolTableRecord
100
AcDbBlockTableRecord
  2
*D26
340
0
 70
     0
280
     1
281
     0
  0
BLOCK_RECORD
  5
23972
330
1
100
AcDbSymbolTableRecord
100
AcDbBlockTableRecord
  2
*D27
340
0
 70
     0
280
     1
281
     0
  0
BLOCK_RECORD
  5
2397E
330
1
100
AcDbSymbolTableRecord
100
AcDbBlockTableRecord
  2
*D28
340
0
 70
     0
280
     1
281
     0
  0
BLOCK_RECORD
  5
23DF2
330
1
100
AcDbSymbolTableRecord
100
AcDbBlockTableRecord
  2
*D29
340
0
 70
     0
280
     1
281
     0
  0
BLOCK_RECORD
  5
23DFE
330
1
100
AcDbSymbolTableRecord
100
AcDbBlockTableRecord
  2
*D30
340
0
 70
     0
280
     1
281
     0
  0
BLOCK_RECORD
  5
23EF5
330
1
100
AcDbSymbolTableRecord
100
AcDbBlockTableRecord
  2
*D31
340
0
 70
     0
280
     1
281
     0
  0
BLOCK_RECORD
  5
23F1C
330
1
100
AcDbSymbolTableRecord
100
AcDbBlockTableRecord
  2
*D32
340
0
 70
     0
280
     1
281
     0
  0
BLOCK_RECORD
  5
23F3B
330
1
100
AcDbSymbolTableRecord
100
AcDbBlockTableRecord
  2
*D33
340
0
 70
     0
280
     1
281
     0
  0
ENDTAB
  0
ENDSEC
  0
SECTION
  2
BLOCKS
  0
BLOCK
  5
1F
330
1E
100
AcDbEntity
  8
0
100
AcDbBlockBegin
  2
*MODEL_SPACE
 70
     0
 10
0.0
 20
0.0
 30
0.0
  3
*MODEL_SPACE
  1

  0
ENDBLK
  5
20
330
1E
100
AcDbEntity
  8
0
100
AcDbBlockEnd
  0
BLOCK
  5
1B
330
1A
100
AcDbEntity
 67
     1
  8
0
100
AcDbBlockBegin
  2
*PAPER_SPACE
 70
     0
 10
0.0
 20
0.0
 30
0.0
  3
*PAPER_SPACE
  1

  0
ENDBLK
  5
1C
330
1A
100
AcDbEntity
 67
     1
  8
0
100
AcDbBlockEnd
  0
BLOCK
  5
3B6
330
3B2
100
AcDbEntity
  8
0
100
AcDbBlockBegin
  2
_OPEN
 70
     0
 10
0.0
 20
0.0
 30
0.0
  3
_OPEN
  1

  0
LINE
  5
3B3
330
3B2
100
AcDbEntity
  8
30
  6
Continuous
 62
     0
100
AcDbLine
 10
-1.0
 20
0.166667
 30
0.0
 11
0.0
 21
0.0
 31
0.0
  0
LINE
  5
3B4
330
3B2
100
AcDbEntity
  8
30
  6
Continuous
 62
     0
100
AcDbLine
 10
-1.0
 20
-0.166667
 30
0.0
 11
0.0
 21
0.0
 31
0.0
  0
LINE
  5
3B5
330
3B2
100
AcDbEntity
  8
30
  6
Continuous
 62
     0
100
AcDbLine
 10
0.0
 20
0.0
 30
0.0
 11
-1.0
 21
0.0
 31
0.0
  0
ENDBLK
  5
3B7
330
3B2
100
AcDbEntity
  8
0
100
AcDbBlockEnd
  0
BLOCK
  5
15DAE
330
15DAD
100
AcDbEntity
  8
0
100
AcDbBlockBegin
  2
SW_CENTERMARKSYMBOL_5
 70
     0
 10
0.0
 20
0.0
 30
0.0
  3
SW_CENTERMARKSYMBOL_5
  1
SW_CENTERMARKSYMBOL_5
  0
LINE
  5
15DAF
330
15DAD
100
AcDbEntity
  8
240
 62
     0
100
AcDbLine
 10
0.0
 20
0.0
 30
0.0
 11
0.0
 21
2.5
 31
0.0
  0
LINE
  5
15DB0
330
15DAD
100
AcDbEntity
  8
240
 62
     0
100
AcDbLine
 10
0.0
 20
0.0
 30
0.0
 11
-2.5
 21
0.0
 31
0.0
  0
LINE
  5
15DB1
330
15DAD
100
AcDbEntity
  8
240
 62
     0
100
AcDbLine
 10
0.0
 20
0.0
 30
0.0
 11
0.0
 21
-2.5
 31
0.0
  0
LINE
  5
15DB2
330
15DAD
100
AcDbEntity
  8
240
 62
     0
100
AcDbLine
 10
0.0
 20
0.0
 30
0.0
 11
2.5
 21
0.0
 31
0.0
  0
LINE
  5
15DB3
330
15DAD
100
AcDbEntity
  8
240
 62
     0
100
AcDbLine
 10
0.0
 20
2.5
 30
0.0
 11
0.0
 21
3.7
 31
0.0
  0
LINE
  5
15DB4
330
15DAD
100
AcDbEntity
  8
240
 62
     0
100
AcDbLine
 10
-2.5
 20
0.0
 30
0.0
 11
-3.7
 21
0.0
 31
0.0
  0
LINE
  5
15DB5
330
15DAD
100
AcDbEntity
  8
240
 62
     0
100
AcDbLine
 10
0.0
 20
-2.5
 30
0.0
 11
0.0
 21
-3.7
 31
0.0
  0
LINE
  5
15DB6
330
15DAD
100
AcDbEntity
  8
240
 62
     0
100
AcDbLine
 10
2.5
 20
0.0
 30
0.0
 11
3.7
 21
0.0
 31
0.0
  0
ENDBLK
  5
15DB7
330
15DAD
100
AcDbEntity
  8
0
100
AcDbBlockEnd
  0
BLOCK
  5
15DB9
330
15DB8
100
AcDbEntity
  8
0
100
AcDbBlockBegin
  2
SW_CENTERMARKSYMBOL_6
 70
     0
 10
0.0
 20
0.0
 30
0.0
  3
SW_CENTERMARKSYMBOL_6
  1
SW_CENTERMARKSYMBOL_6
  0
LINE
  5
15DBA
330
15DB8
100
AcDbEntity
  8
240
 62
     0
100
AcDbLine
 10
0.0
 20
0.0
 30
0.0
 11
0.0
 21
2.5
 31
0.0
  0
LINE
  5
15DBB
330
15DB8
100
AcDbEntity
  8
240
 62
     0
100
AcDbLine
 10
0.0
 20
0.0
 30
0.0
 11
-2.5
 21
0.0
 31
0.0
  0
LINE
  5
15DBC
330
15DB8
100
AcDbEntity
  8
240
 62
     0
100
AcDbLine
 10
0.0
 20
0.0
 30
0.0
 11
0.0
 21
-2.5
 31
0.0
  0
LINE
  5
15DBD
330
15DB8
100
AcDbEntity
  8
240
 62
     0
100
AcDbLine
 10
0.0
 20
0.0
 30
0.0
 11
2.5
 21
0.0
 31
0.0
  0
LINE
  5
15DBE
330
15DB8
100
AcDbEntity
  8
240
 62
     0
100
AcDbLine
 10
0.0
 20
2.5
 30
0.0
 11
0.0
 21
3.7
 31
0.0
  0
LINE
  5
15DBF
330
15DB8
100
AcDbEntity
  8
240
 62
     0
100
AcDbLine
 10
-2.5
 20
0.0
 30
0.0
 11
-3.7
 21
0.0
 31
0.0
  0
LINE
  5
15DC0
330
15DB8
100
AcDbEntity
  8
240
 62
     0
100
AcDbLine
 10
0.0
 20
-2.5
 30
0.0
 11
0.0
 21
-3.7
 31
0.0
  0
LINE
  5
15DC1
330
15DB8
100
AcDbEntity
  8
240
 62
     0
100
AcDbLine
 10
2.5
 20
0.0
 30
0.0
 11
3.7
 21
0.0
 31
0.0
  0
ENDBLK
  5
15DC2
330
15DB8
100
AcDbEntity
  8
0
100
AcDbBlockEnd
  0
BLOCK
  5
2185A
330
21859
100
AcDbEntity
  8
0
100
AcDbBlockBegin
  2
*D3
 70
     1
 10
0.0
 20
0.0
 30
0.0
  3
*D3
  1

  0
LINE
  5
23E5E
330
21859
100
AcDbEntity
  8
30
 62
     0
440
 16777216
370
    -2
100
AcDbLine
 10
65.04187167922776
 20
348.4697145142363
 30
0.0
 11
65.04187167922776
 21
290.8827874193913
 31
0.0
  0
LINE
  5
23E5F
330
21859
100
AcDbEntity
  8
30
 62
     0
440
 16777216
370
    -2
100
AcDbLine
 10
125.0418716792278
 20
348.4697145142363
 30
0.0
 11
125.0418716792278
 21
290.8827874193913
 31
0.0
  0
LINE
  5
23E60
330
21859
100
AcDbEntity
  8
30
 62
     0
440
 16777216
370
    -2
100
AcDbLine
 10
67.04187167922777
 20
291.3827874193913
 30
0.0
 11
123.0418716792277
 21
291.3827874193913
 31
0.0
  0
INSERT
  5
23E61
330
21859
100
AcDbEntity
  8
30
 62
     0
440
 16777216
370
    -2
100
AcDbBlockReference
  2
_OPEN
 10
65.04187167922776
 20
291.3827874193913
 30
0.0
 41
2.0
 42
2.0
 43
2.0
 50
180.0
  0
INSERT
  5
23E62
330
21859
100
AcDbEntity
  8
30
 62
     0
440
 16777216
370
    -2
100
AcDbBlockReference
  2
_OPEN
 10
125.0418716792278
 20
291.3827874193913
 30
0.0
 41
2.0
 42
2.0
 43
2.0
  0
MTEXT
  5
23E63
330
21859
100
AcDbEntity
  8
30
 62
     0
440
 16777216
100
AcDbMText
 10
95.04187167922777
 20
299.3827874193913
 30
0.0
 40
6.0
 41
0.0
 46
0.0
 71
     2
 72
     1
  1
\A1;60
 73
     1
 44
1.0
  0
POINT
  5
23E64
330
21859
100
AcDbEntity
  8
DEFPOINTS
 62
     0
440
 16777216
100
AcDbPoint
 10
65.04187167922776
 20
351.4697145142363
 30
0.0
  0
POINT
  5
23E65
330
21859
100
AcDbEntity
  8
DEFPOINTS
 62
     0
440
 16777216
100
AcDbPoint
 10
125.0418716792278
 20
351.4697145142363
 30
0.0
  0
POINT
  5
23E66
330
21859
100
AcDbEntity
  8
DEFPOINTS
 62
     0
440
 16777216
100
AcDbPoint
 10
125.0418716792278
 20
291.3827874193913
 30
0.0
  0
ENDBLK
  5
2185B
330
21859
100
AcDbEntity
  8
0
100
AcDbBlockEnd
  0
BLOCK
  5
218EE
330
218ED
100
AcDbEntity
  8
0
100
AcDbBlockBegin
  2
*D4
 70
     1
 10
0.0
 20
0.0
 30
0.0
  3
*D4
  1

  0
LINE
  5
23E67
330
218ED
100
AcDbEntity
  8
30
 62
     0
440
 16777216
370
    -2
100
AcDbLine
 10
64.04187167922777
 20
481.4697145142361
 30
0.0
 11
35.99166745749616
 21
481.4697145142361
 31
0.0
  0
LINE
  5
23E68
330
218ED
100
AcDbEntity
  8
30
 62
     0
440
 16777216
370
    -2
100
AcDbLine
 10
64.04187167922777
 20
351.4697145142363
 30
0.0
 11
35.99166745749613
 21
351.4697145142363
 31
0.0
  0
LINE
  5
23E69
330
218ED
100
AcDbEntity
  8
30
 62
     0
440
 16777216
370
    -2
100
AcDbLine
 10
36.49166745749616
 20
479.4697145142363
 30
0.0
 11
36.49166745749614
 21
353.4697145142363
 31
0.0
  0
INSERT
  5
23E6A
330
218ED
100
AcDbEntity
  8
30
 62
     0
440
 16777216
370
    -2
100
AcDbBlockReference
  2
_OPEN
 10
36.49166745749616
 20
481.4697145142361
 30
0.0
 41
2.0
 42
2.0
 43
2.0
 50
90.0
  0
INSERT
  5
23E6B
330
218ED
100
AcDbEntity
  8
30
 62
     0
440
 16777216
370
    -2
100
AcDbBlockReference
  2
_OPEN
 10
36.49166745749614
 20
351.4697145142363
 30
0.0
 41
2.0
 42
2.0
 43
2.0
 50
270.0
  0
MTEXT
  5
23E6C
330
218ED
100
AcDbEntity
  8
30
 62
     0
440
 16777216
100
AcDbMText
 10
31.49166745749607
 20
416.4697145142362
 30
0.0
 40
6.0
 41
0.0
 46
0.0
 71
     5
 72
     1
  1
\A1;130
 11
0.0000000000000001
 21
1.0
 31
0.0
 73
     1
 44
1.0
 90
        3
 63
     9
421
 13158600
 45
1.25
441
        0
  0
POINT
  5
23E6D
330
218ED
100
AcDbEntity
  8
DEFPOINTS
 62
     0
440
 16777216
100
AcDbPoint
 10
65.04187167922776
 20
481.4697145142361
 30
0.0
  0
POINT
  5
23E6E
330
218ED
100
AcDbEntity
  8
DEFPOINTS
 62
     0
440
 16777216
100
AcDbPoint
 10
65.04187167922776
 20
351.4697145142363
 30
0.0
  0
POINT
  5
23E6F
330
218ED
100
AcDbEntity
  8
DEFPOINTS
 62
     0
440
 16777216
100
AcDbPoint
 10
36.49166745749614
 20
351.4697145142363
 30
0.0
  0
ENDBLK
  5
218EF
330
218ED
100
AcDbEntity
  8
0
100
AcDbBlockEnd
  0
BLOCK
  5
228CA
330
228C9
100
AcDbEntity
  8
0
100
AcDbBlockBegin
  2
*D5
 70
     1
 10
0.0
 20
0.0
 30
0.0
  3
*D5
  1

  0
LINE
  5
23E82
330
228C9
100
AcDbEntity
  8
30
 62
     0
440
 16777216
370
    -2
100
AcDbLine
 10
124.0418716792277
 20
123.9657427111928
 30
0.0
 11
124.0418716792277
 21
39.22374630477357
 31
0.0
  0
LINE
  5
23E83
330
228C9
100
AcDbEntity
  8
30
 62
     0
440
 16777216
370
    -2
100
AcDbLine
 10
66.04187167922799
 20
123.9657427111928
 30
0.0
 11
66.04187167922799
 21
39.22374630477357
 31
0.0
  0
LINE
  5
23E84
330
228C9
100
AcDbEntity
  8
30
 62
     0
440
 16777216
370
    -2
100
AcDbLine
 10
122.0418716792277
 20
39.72374630477356
 30
0.0
 11
68.04187167922799
 21
39.72374630477356
 31
0.0
  0
INSERT
  5
23E85
330
228C9
100
AcDbEntity
  8
30
 62
     0
440
 16777216
370
    -2
100
AcDbBlockReference
  2
_OPEN
 10
124.0418716792277
 20
39.72374630477356
 30
0.0
 41
2.0
 42
2.0
 43
2.0
  0
INSERT
  5
23E86
330
228C9
100
AcDbEntity
  8
30
 62
     0
440
 16777216
370
    -2
100
AcDbBlockReference
  2
_OPEN
 10
66.04187167922799
 20
39.72374630477356
 30
0.0
 41
2.0
 42
2.0
 43
2.0
 50
180.0
  0
MTEXT
  5
23E87
330
228C9
100
AcDbEntity
  8
30
 62
     0
440
 16777216
100
AcDbMText
 10
95.04187167922786
 20
47.72374630477353
 30
0.0
 40
6.0
 41
0.0
 46
0.0
 71
     2
 72
     1
  1
\A1;58
 73
     1
 44
1.0
  0
POINT
  5
23E88
330
228C9
100
AcDbEntity
  8
DEFPOINTS
 62
     0
440
 16777216
100
AcDbPoint
 10
124.0418716792277
 20
126.9657427111928
 30
0.0
  0
POINT
  5
23E89
330
228C9
100
AcDbEntity
  8
DEFPOINTS
 62
     0
440
 16777216
100
AcDbPoint
 10
66.04187167922799
 20
126.9657427111928
 30
0.0
  0
POINT
  5
23E8A
330
228C9
100
AcDbEntity
  8
DEFPOINTS
 62
     0
440
 16777216
100
AcDbPoint
 10
66.04187167922799
 20
39.72374630477356
 30
0.0
  0
ENDBLK
  5
228CB
330
228C9
100
AcDbEntity
  8
0
100
AcDbBlockEnd
  0
BLOCK
  5
22A07
330
22A06
100
AcDbEntity
  8
0
100
AcDbBlockBegin
  2
*D6
 70
     1
 10
0.0
 20
0.0
 30
0.0
  3
*D6
  1

  0
LINE
  5
23D8E
330
22A06
100
AcDbEntity
  8
30
 62
     0
440
 16777216
370
    -2
100
AcDbLine
 10
65.041871679228
 20
126.9657427111928
 30
0.0
 11
40.63066264347795
 21
126.9657427111928
 31
0.0
  0
LINE
  5
23D8F
330
22A06
100
AcDbEntity
  8
30
 62
     0
440
 16777216
370
    -2
100
AcDbLine
 10
65.041871679228
 20
162.9657427111929
 30
0.0
 11
40.63066264347796
 21
162.9657427111929
 31
0.0
  0
LINE
  5
23D90
330
22A06
100
AcDbEntity
  8
30
 62
     0
440
 16777216
370
    -2
100
AcDbLine
 10
41.13066264347795
 20
128.9657427111929
 30
0.0
 11
41.13066264347795
 21
160.9657427111929
 31
0.0
  0
INSERT
  5
23D91
330
22A06
100
AcDbEntity
  8
30
 62
     0
440
 16777216
370
    -2
100
AcDbBlockReference
  2
_OPEN
 10
41.13066264347795
 20
126.9657427111928
 30
0.0
 41
2.0
 42
2.0
 43
2.0
 50
270.0
  0
INSERT
  5
23D92
330
22A06
100
AcDbEntity
  8
30
 62
     0
440
 16777216
370
    -2
100
AcDbBlockReference
  2
_OPEN
 10
41.13066264347795
 20
162.9657427111929
 30
0.0
 41
2.0
 42
2.0
 43
2.0
 50
90.0
  0
MTEXT
  5
23D93
330
22A06
100
AcDbEntity
  8
30
 62
     0
440
 16777216
100
AcDbMText
 10
33.13066264347793
 20
144.9657427111929
 30
0.0
 40
6.0
 41
0.0
 46
0.0
 71
     2
 72
     1
  1
\A1;36
 11
0.0000000000000001
 21
1.0
 31
0.0
 73
     1
 44
1.0
 90
        3
 63
     9
421
 13158600
 45
1.25
441
        0
  0
POINT
  5
23D94
330
22A06
100
AcDbEntity
  8
DEFPOINTS
 62
     0
440
 16777216
100
AcDbPoint
 10
66.04187167922799
 20
126.9657427111928
 30
0.0
  0
POINT
  5
23D95
330
22A06
100
AcDbEntity
  8
DEFPOINTS
 62
     0
440
 16777216
100
AcDbPoint
 10
66.04187167922799
 20
162.9657427111929
 30
0.0
  0
POINT
  5
23D96
330
22A06
100
AcDbEntity
  8
DEFPOINTS
 62
     0
440
 16777216
100
AcDbPoint
 10
41.13066264347795
 20
162.9657427111929
 30
0.0
  0
ENDBLK
  5
22A08
330
22A06
100
AcDbEntity
  8
0
100
AcDbBlockEnd
  0
BLOCK
  5
22A13
330
22A12
100
AcDbEntity
  8
0
100
AcDbBlockBegin
  2
*D7
 70
     1
 10
0.0
 20
0.0
 30
0.0
  3
*D7
  1

  0
LINE
  5
23ECC
330
22A12
100
AcDbEntity
  8
30
 62
     0
440
 16777216
370
    -2
100
AcDbLine
 10
84.79187167922777
 20
170.9657427111928
 30
0.0
 11
23.43313209770597
 21
170.9657427111929
 31
0.0
  0
LINE
  5
23ECD
330
22A12
100
AcDbEntity
  8
30
 62
     0
440
 16777216
370
    -2
100
AcDbLine
 10
84.79187167922777
 20
118.9657427111928
 30
0.0
 11
23.43313209770595
 21
118.9657427111928
 31
0.0
  0
LINE
  5
23ECE
330
22A12
100
AcDbEntity
  8
30
 62
     0
440
 16777216
370
    -2
100
AcDbLine
 10
23.93313209770597
 20
168.9657427111929
 30
0.0
 11
23.93313209770596
 21
120.9657427111928
 31
0.0
  0
INSERT
  5
23ECF
330
22A12
100
AcDbEntity
  8
30
 62
     0
440
 16777216
370
    -2
100
AcDbBlockReference
  2
_OPEN
 10
23.93313209770597
 20
170.9657427111929
 30
0.0
 41
2.0
 42
2.0
 43
2.0
 50
90.0
  0
INSERT
  5
23ED0
330
22A12
100
AcDbEntity
  8
30
 62
     0
440
 16777216
370
    -2
100
AcDbBlockReference
  2
_OPEN
 10
23.93313209770596
 20
118.9657427111928
 30
0.0
 41
2.0
 42
2.0
 43
2.0
 50
270.0
  0
MTEXT
  5
23ED1
330
22A12
100
AcDbEntity
  8
30
 62
     0
440
 16777216
100
AcDbMText
 10
15.93313209770593
 20
144.9657427111929
 30
0.0
 40
6.0
 41
0.0
 46
0.0
 71
     2
 72
     1
  1
\A1;52
 11
0.0000000000000001
 21
1.0
 31
0.0
 73
     1
 44
1.0
 90
        3
 63
     9
421
 13158600
 45
1.25
441
        0
  0
POINT
  5
23ED2
330
22A12
100
AcDbEntity
  8
DEFPOINTS
 62
     0
440
 16777216
100
AcDbPoint
 10
85.79187167922777
 20
170.9657427111928
 30
0.0
  0
POINT
  5
23ED3
330
22A12
100
AcDbEntity
  8
DEFPOINTS
 62
     0
440
 16777216
100
AcDbPoint
 10
85.79187167922777
 20
118.9657427111928
 30
0.0
  0
POINT
  5
23ED4
330
22A12
100
AcDbEntity
  8
DEFPOINTS
 62
     0
440
 16777216
100
AcDbPoint
 10
23.93313209770596
 20
118.9657427111928
 30
0.0
  0
ENDBLK
  5
22A14
330
22A12
100
AcDbEntity
  8
0
100
AcDbBlockEnd
  0
BLOCK
  5
22BCA
330
22BC9
100
AcDbEntity
  8
0
100
AcDbBlockBegin
  2
*D8
 70
     1
 10
0.0
 20
0.0
 30
0.0
  3
*D8
  1

  0
LINE
  5
23E4A
330
22BC9
100
AcDbEntity
  8
30
 62
     0
440
 16777216
370
    -2
100
AcDbLine
 10
95.04187167935283
 20
318.8389989351711
 30
0.0
 11
95.04187167935283
 21
308.8720302772435
 31
0.0
  0
LINE
  5
23E4B
330
22BC9
100
AcDbEntity
  8
30
 62
     0
440
 16777216
370
    -2
100
AcDbLine
 10
80.84187167922776
 20
318.8389989351711
 30
0.0
 11
80.84187167922776
 21
308.8720302772435
 31
0.0
  0
LINE
  5
23E4C
330
22BC9
100
AcDbEntity
  8
30
 62
     0
440
 16777216
370
    -2
100
AcDbLine
 10
82.84187167922777
 20
309.3720302772435
 30
0.0
 11
93.04187167935282
 21
309.3720302772435
 31
0.0
  0
LINE
  5
23E4D
330
22BC9
100
AcDbEntity
  8
30
 62
     0
440
 16777216
370
    -2
100
AcDbLine
 10
95.04187167935283
 20
309.3720302772435
 30
0.0
 11
120.3263189667117
 21
309.3720302772435
 31
0.0
  0
INSERT
  5
23E4E
330
22BC9
100
AcDbEntity
  8
30
 62
     0
440
 16777216
370
    -2
100
AcDbBlockReference
  2
_OPEN
 10
80.84187167922776
 20
309.3720302772435
 30
0.0
 41
2.0
 42
2.0
 43
2.0
 50
180.0
  0
INSERT
  5
23E4F
330
22BC9
100
AcDbEntity
  8
30
 62
     0
440
 16777216
370
    -2
100
AcDbBlockReference
  2
_OPEN
 10
95.04187167935283
 20
309.3720302772435
 30
0.0
 41
2.0
 42
2.0
 43
2.0
  0
MTEXT
  5
23E50
330
22BC9
100
AcDbEntity
  8
30
 62
     0
440
 16777216
100
AcDbMText
 10
110.3263189667117
 20
314.3720302772436
 30
0.0
 40
6.0
 41
0.0
 46
0.0
 71
     5
 72
     1
  1
\A1;14.2
 73
     1
 44
1.0
  0
POINT
  5
23E51
330
22BC9
100
AcDbEntity
  8
DEFPOINTS
 62
     0
440
 16777216
100
AcDbPoint
 10
95.04187167935283
 20
321.838998935171
 30
0.0
  0
POINT
  5
23E52
330
22BC9
100
AcDbEntity
  8
DEFPOINTS
 62
     0
440
 16777216
100
AcDbPoint
 10
80.84187167922776
 20
321.838998935171
 30
0.0
  0
POINT
  5
23E53
330
22BC9
100
AcDbEntity
  8
DEFPOINTS
 62
     0
440
 16777216
100
AcDbPoint
 10
80.84187167922776
 20
309.3720302772435
 30
0.0
  0
ENDBLK
  5
22BCB
330
22BC9
100
AcDbEntity
  8
0
100
AcDbBlockEnd
  0
BLOCK
  5
22BEC
330
22BEB
100
AcDbEntity
  8
0
100
AcDbBlockBegin
  2
*D9
 70
     1
 10
0.0
 20
0.0
 30
0.0
  3
*D9
  1

  0
LINE
  5
23E54
330
22BEB
100
AcDbEntity
  8
30
 62
     0
440
 16777216
370
    -2
100
AcDbLine
 10
80.84187167922776
 20
318.8389989351711
 30
0.0
 11
80.84187167922776
 21
308.8691779628343
 31
0.0
  0
LINE
  5
23E55
330
22BEB
100
AcDbEntity
  8
30
 62
     0
440
 16777216
370
    -2
100
AcDbLine
 10
65.04187167922776
 20
343.8007443687961
 30
0.0
 11
65.04187167922776
 21
308.8691779628343
 31
0.0
  0
LINE
  5
23E56
330
22BEB
100
AcDbEntity
  8
30
 62
     0
440
 16777216
370
    -2
100
AcDbLine
 10
78.84187167922776
 20
309.3691779628343
 30
0.0
 11
67.04187167922777
 21
309.3691779628343
 31
0.0
  0
LINE
  5
23E57
330
22BEB
100
AcDbEntity
  8
30
 62
     0
440
 16777216
370
    -2
100
AcDbLine
 10
65.04187167922776
 20
309.3691779628343
 30
0.0
 11
43.04187167922775
 21
309.3691779628343
 31
0.0
  0
INSERT
  5
23E58
330
22BEB
100
AcDbEntity
  8
30
 62
     0
440
 16777216
370
    -2
100
AcDbBlockReference
  2
_OPEN
 10
80.84187167922776
 20
309.3691779628343
 30
0.0
 41
2.0
 42
2.0
 43
2.0
  0
INSERT
  5
23E59
330
22BEB
100
AcDbEntity
  8
30
 62
     0
440
 16777216
370
    -2
100
AcDbBlockReference
  2
_OPEN
 10
65.04187167922776
 20
309.3691779628343
 30
0.0
 41
2.0
 42
2.0
 43
2.0
 50
180.0
  0
MTEXT
  5
23E5A
330
22BEB
100
AcDbEntity
  8
30
 62
     0
440
 16777216
100
AcDbMText
 10
53.04187167922776
 20
314.3691779628343
 30
0.0
 40
6.0
 41
0.0
 46
0.0
 71
     5
 72
     1
  1
\A1;15.8
 73
     1
 44
1.0
  0
POINT
  5
23E5B
330
22BEB
100
AcDbEntity
  8
DEFPOINTS
 62
     0
440
 16777216
100
AcDbPoint
 10
80.84187167922776
 20
321.838998935171
 30
0.0
  0
POINT
  5
23E5C
330
22BEB
100
AcDbEntity
  8
DEFPOINTS
 62
     0
440
 16777216
100
AcDbPoint
 10
65.04187167922776
 20
346.8007443687961
 30
0.0
  0
POINT
  5
23E5D
330
22BEB
100
AcDbEntity
  8
DEFPOINTS
 62
     0
440
 16777216
100
AcDbPoint
 10
65.04187167922776
 20
309.3691779628343
 30
0.0
  0
ENDBLK
  5
22BED
330
22BEB
100
AcDbEntity
  8
0
100
AcDbBlockEnd
  0
BLOCK
  5
22F8A
330
22F89
100
AcDbEntity
  8
0
100
AcDbBlockBegin
  2
*D10
 70
     1
 10
0.0
 20
0.0
 30
0.0
  3
*D10
  1

  0
LINE
  5
23D7C
330
22F89
100
AcDbEntity
  8
30
 62
     0
440
 16777216
370
    -2
100
AcDbLine
 10
396.017252672007
 20
506.4697145142361
 30
0.0
 11
428.3070527400883
 21
506.4697145142361
 31
0.0
  0
LINE
  5
23D7D
330
22F89
100
AcDbEntity
  8
30
 62
     0
440
 16777216
370
    -2
100
AcDbLine
 10
396.017252672007
 20
326.4697145142363
 30
0.0
 11
428.3070527400881
 21
326.4697145142363
 31
0.0
  0
LINE
  5
23D7E
330
22F89
100
AcDbEntity
  8
30
 62
     0
440
 16777216
370
    -2
100
AcDbLine
 10
427.8070527400883
 20
504.4697145142363
 30
0.0
 11
427.8070527400881
 21
328.4697145142363
 31
0.0
  0
INSERT
  5
23D7F
330
22F89
100
AcDbEntity
  8
30
 62
     0
440
 16777216
370
    -2
100
AcDbBlockReference
  2
_OPEN
 10
427.8070527400883
 20
506.4697145142361
 30
0.0
 41
2.0
 42
2.0
 43
2.0
 50
90.0
  0
INSERT
  5
23D80
330
22F89
100
AcDbEntity
  8
30
 62
     0
440
 16777216
370
    -2
100
AcDbBlockReference
  2
_OPEN
 10
427.8070527400881
 20
326.4697145142363
 30
0.0
 41
2.0
 42
2.0
 43
2.0
 50
270.0
  0
MTEXT
  5
23D81
330
22F89
100
AcDbEntity
  8
30
 62
     0
440
 16777216
100
AcDbMText
 10
419.8070527400881
 20
416.4697145142362
 30
0.0
 40
6.0
 41
0.0
 46
0.0
 71
     2
 72
     1
  1
\A1;180
 11
0.0000000000000001
 21
1.0
 31
0.0
 73
     1
 44
1.0
 90
        3
 63
     9
421
 13158600
 45
1.25
441
        0
  0
POINT
  5
23D82
330
22F89
100
AcDbEntity
  8
DEFPOINTS
 62
     0
440
 16777216
100
AcDbPoint
 10
395.017252672007
 20
506.4697145142361
 30
0.0
  0
POINT
  5
23D83
330
22F89
100
AcDbEntity
  8
DEFPOINTS
 62
     0
440
 16777216
100
AcDbPoint
 10
395.017252672007
 20
326.4697145142363
 30
0.0
  0
POINT
  5
23D84
330
22F89
100
AcDbEntity
  8
DEFPOINTS
 62
     0
440
 16777216
100
AcDbPoint
 10
427.8070527400881
 20
326.4697145142363
 30
0.0
  0
ENDBLK
  5
22F8B
330
22F89
100
AcDbEntity
  8
0
100
AcDbBlockEnd
  0
BLOCK
  5
22FA2
330
22FA1
100
AcDbEntity
  8
0
100
AcDbBlockBegin
  2
*D11
 70
     1
 10
0.0
 20
0.0
 30
0.0
  3
*D11
  1

  0
LINE
  5
23E92
330
22FA1
100
AcDbEntity
  8
30
 62
     0
440
 16777216
370
    -2
100
AcDbLine
 10
274.517248976507
 20
441.4697145142362
 30
0.0
 11
236.0172489765071
 21
441.4697145142362
 31
0.0
  0
LINE
  5
23E93
330
22FA1
100
AcDbEntity
  8
30
 62
     0
440
 16777216
370
    -2
100
AcDbLine
 10
274.517248976507
 20
391.4697145142363
 30
0.0
 11
236.0172489765071
 21
391.4697145142363
 31
0.0
  0
LINE
  5
23E94
330
22FA1
100
AcDbEntity
  8
30
 62
     0
440
 16777216
370
    -2
100
AcDbLine
 10
236.517248976507
 20
439.4697145142361
 30
0.0
 11
236.517248976507
 21
393.4697145142363
 31
0.0
  0
INSERT
  5
23E95
330
22FA1
100
AcDbEntity
  8
30
 62
     0
440
 16777216
370
    -2
100
AcDbBlockReference
  2
_OPEN
 10
236.517248976507
 20
441.4697145142362
 30
0.0
 41
2.0
 42
2.0
 43
2.0
 50
90.0
  0
INSERT
  5
23E96
330
22FA1
100
AcDbEntity
  8
30
 62
     0
440
 16777216
370
    -2
100
AcDbBlockReference
  2
_OPEN
 10
236.517248976507
 20
391.4697145142363
 30
0.0
 41
2.0
 42
2.0
 43
2.0
 50
270.0
  0
MTEXT
  5
23E97
330
22FA1
100
AcDbEntity
  8
30
 62
     0
440
 16777216
100
AcDbMText
 10
231.517248976507
 20
417.227891051836
 30
0.0
 40
6.0
 41
0.0
 46
0.0
 71
     5
 72
     1
  1
\A1;50
 11
0.0000000000000001
 21
1.0
 31
0.0
 73
     1
 44
1.0
 90
        3
 63
     9
421
 13158600
 45
1.25
441
        0
  0
POINT
  5
23E98
330
22FA1
100
AcDbEntity
  8
DEFPOINTS
 62
     0
440
 16777216
100
AcDbPoint
 10
275.517248976507
 20
441.4697145142362
 30
0.0
  0
POINT
  5
23E99
330
22FA1
100
AcDbEntity
  8
DEFPOINTS
 62
     0
440
 16777216
100
AcDbPoint
 10
275.517248976507
 20
391.4697145142363
 30
0.0
  0
POINT
  5
23E9A
330
22FA1
100
AcDbEntity
  8
DEFPOINTS
 62
     0
440
 16777216
100
AcDbPoint
 10
236.517248976507
 20
391.4697145142363
 30
0.0
  0
ENDBLK
  5
22FA3
330
22FA1
100
AcDbEntity
  8
0
100
AcDbBlockEnd
  0
BLOCK
  5
22FBA
330
22FB9
100
AcDbEntity
  8
0
100
AcDbBlockBegin
  2
*D12
 70
     1
 10
0.0
 20
0.0
 30
0.0
  3
*D12
  1

  0
LINE
  5
23CE0
330
22FB9
100
AcDbEntity
  8
30
 62
     0
440
 16777216
370
    -2
100
AcDbLine
 10
347.5172489765071
 20
348.4697145142363
 30
0.0
 11
347.5172489765071
 21
267.5131574326383
 31
0.0
  0
LINE
  5
23CE1
330
22FB9
100
AcDbEntity
  8
30
 62
     0
440
 16777216
370
    -2
100
AcDbLine
 10
252.017248976507
 20
413.4697145142362
 30
0.0
 11
252.017248976507
 21
267.5131574326383
 31
0.0
  0
LINE
  5
23CE2
330
22FB9
100
AcDbEntity
  8
30
 62
     0
440
 16777216
370
    -2
100
AcDbLine
 10
345.5172489765071
 20
268.0131574326383
 30
0.0
 11
254.017248976507
 21
268.0131574326383
 31
0.0
  0
INSERT
  5
23CE3
330
22FB9
100
AcDbEntity
  8
30
 62
     0
440
 16777216
370
    -2
100
AcDbBlockReference
  2
_OPEN
 10
347.5172489765071
 20
268.0131574326383
 30
0.0
 41
2.0
 42
2.0
 43
2.0
  0
INSERT
  5
23CE4
330
22FB9
100
AcDbEntity
  8
30
 62
     0
440
 16777216
370
    -2
100
AcDbBlockReference
  2
_OPEN
 10
252.017248976507
 20
268.0131574326383
 30
0.0
 41
2.0
 42
2.0
 43
2.0
 50
180.0
  0
MTEXT
  5
23CE5
330
22FB9
100
AcDbEntity
  8
30
 62
     0
440
 16777216
100
AcDbMText
 10
299.767248976507
 20
273.0131574326383
 30
0.0
 40
6.0
 41
0.0
 46
0.0
 71
     5
 72
     1
  1
\A1;95.5
 73
     1
 44
1.0
  0
POINT
  5
23CE6
330
22FB9
100
AcDbEntity
  8
DEFPOINTS
 62
     0
440
 16777216
100
AcDbPoint
 10
347.5172489765071
 20
351.4697145142363
 30
0.0
  0
POINT
  5
23CE7
330
22FB9
100
AcDbEntity
  8
DEFPOINTS
 62
     0
440
 16777216
100
AcDbPoint
 10
252.017248976507
 20
416.4697145142362
 30
0.0
  0
POINT
  5
23CE8
330
22FB9
100
AcDbEntity
  8
DEFPOINTS
 62
     0
440
 16777216
100
AcDbPoint
 10
252.017248976507
 20
268.0131574326383
 30
0.0
  0
ENDBLK
  5
22FBB
330
22FB9
100
AcDbEntity
  8
0
100
AcDbBlockEnd
  0
BLOCK
  5
22FC6
330
22FC5
100
AcDbEntity
  8
0
100
AcDbBlockBegin
  2
*D13
 70
     1
 10
0.0
 20
0.0
 30
0.0
  3
*D13
  1

  0
LINE
  5
23CE9
330
22FC5
100
AcDbEntity
  8
30
 62
     0
440
 16777216
370
    -2
100
AcDbLine
 10
347.5172489765071
 20
348.4697145142363
 30
0.0
 11
347.5172489765071
 21
310.9697145142363
 31
0.0
  0
LINE
  5
23CEA
330
22FC5
100
AcDbEntity
  8
30
 62
     0
440
 16777216
370
    -2
100
AcDbLine
 10
287.517248976507
 20
364.4697145142363
 30
0.0
 11
287.517248976507
 21
310.9697145142363
 31
0.0
  0
LINE
  5
23CEB
330
22FC5
100
AcDbEntity
  8
30
 62
     0
440
 16777216
370
    -2
100
AcDbLine
 10
345.5172489765071
 20
311.4697145142363
 30
0.0
 11
289.517248976507
 21
311.4697145142363
 31
0.0
  0
INSERT
  5
23CEC
330
22FC5
100
AcDbEntity
  8
30
 62
     0
440
 16777216
370
    -2
100
AcDbBlockReference
  2
_OPEN
 10
347.5172489765071
 20
311.4697145142363
 30
0.0
 41
2.0
 42
2.0
 43
2.0
  0
INSERT
  5
23CED
330
22FC5
100
AcDbEntity
  8
30
 62
     0
440
 16777216
370
    -2
100
AcDbBlockReference
  2
_OPEN
 10
287.517248976507
 20
311.4697145142363
 30
0.0
 41
2.0
 42
2.0
 43
2.0
 50
180.0
  0
MTEXT
  5
23CEE
330
22FC5
100
AcDbEntity
  8
30
 62
     0
440
 16777216
100
AcDbMText
 10
317.517248976507
 20
316.4697145142363
 30
0.0
 40
6.0
 41
0.0
 46
0.0
 71
     5
 72
     1
  1
\A1;60
 73
     1
 44
1.0
  0
POINT
  5
23CEF
330
22FC5
100
AcDbEntity
  8
DEFPOINTS
 62
     0
440
 16777216
100
AcDbPoint
 10
347.5172489765071
 20
351.4697145142363
 30
0.0
  0
POINT
  5
23CF0
330
22FC5
100
AcDbEntity
  8
DEFPOINTS
 62
     0
440
 16777216
100
AcDbPoint
 10
287.517248976507
 20
367.4697145142364
 30
0.0
  0
POINT
  5
23CF1
330
22FC5
100
AcDbEntity
  8
DEFPOINTS
 62
     0
440
 16777216
100
AcDbPoint
 10
287.517248976507
 20
311.4697145142363
 30
0.0
  0
ENDBLK
  5
22FC7
330
22FC5
100
AcDbEntity
  8
0
100
AcDbBlockEnd
  0
BLOCK
  5
22FEA
330
22FE9
100
AcDbEntity
  8
0
100
AcDbBlockBegin
  2
*D14
 70
     1
 10
0.0
 20
0.0
 30
0.0
  3
*D14
  1

  0
LINE
  5
23CF2
330
22FE9
100
AcDbEntity
  8
30
 62
     0
440
 16777216
370
    -2
100
AcDbLine
 10
347.5172489765071
 20
348.4697145142363
 30
0.0
 11
347.5172489765071
 21
281.2101253128553
 31
0.0
  0
LINE
  5
23CF3
330
22FE9
100
AcDbEntity
  8
30
 62
     0
440
 16777216
370
    -2
100
AcDbLine
 10
275.517248976507
 20
388.4697145142363
 30
0.0
 11
275.517248976507
 21
281.2101253128553
 31
0.0
  0
LINE
  5
23CF4
330
22FE9
100
AcDbEntity
  8
30
 62
     0
440
 16777216
370
    -2
100
AcDbLine
 10
345.5172489765071
 20
281.7101253128553
 30
0.0
 11
277.517248976507
 21
281.7101253128553
 31
0.0
  0
INSERT
  5
23CF5
330
22FE9
100
AcDbEntity
  8
30
 62
     0
440
 16777216
370
    -2
100
AcDbBlockReference
  2
_OPEN
 10
347.5172489765071
 20
281.7101253128553
 30
0.0
 41
2.0
 42
2.0
 43
2.0
  0
INSERT
  5
23CF6
330
22FE9
100
AcDbEntity
  8
30
 62
     0
440
 16777216
370
    -2
100
AcDbBlockReference
  2
_OPEN
 10
275.517248976507
 20
281.7101253128553
 30
0.0
 41
2.0
 42
2.0
 43
2.0
 50
180.0
  0
MTEXT
  5
23CF7
330
22FE9
100
AcDbEntity
  8
30
 62
     0
440
 16777216
100
AcDbMText
 10
311.517248976507
 20
286.7101253128553
 30
0.0
 40
6.0
 41
0.0
 46
0.0
 71
     5
 72
     1
  1
\A1;72
 73
     1
 44
1.0
  0
POINT
  5
23CF8
330
22FE9
100
AcDbEntity
  8
DEFPOINTS
 62
     0
440
 16777216
100
AcDbPoint
 10
347.5172489765071
 20
351.4697145142363
 30
0.0
  0
POINT
  5
23CF9
330
22FE9
100
AcDbEntity
  8
DEFPOINTS
 62
     0
440
 16777216
100
AcDbPoint
 10
275.517248976507
 20
391.4697145142363
 30
0.0
  0
POINT
  5
23CFA
330
22FE9
100
AcDbEntity
  8
DEFPOINTS
 62
     0
440
 16777216
100
AcDbPoint
 10
275.517248976507
 20
281.7101253128553
 30
0.0
  0
ENDBLK
  5
22FEB
330
22FE9
100
AcDbEntity
  8
0
100
AcDbBlockEnd
  0
BLOCK
  5
22FF6
330
22FF5
100
AcDbEntity
  8
0
100
AcDbBlockBegin
  2
*D15
 70
     1
 10
0.0
 20
0.0
 30
0.0
  3
*D15
  1

  0
LINE
  5
23CFB
330
22FF5
100
AcDbEntity
  8
30
 62
     0
440
 16777216
370
    -2
100
AcDbLine
 10
269.0172489765072
 20
413.4697145142363
 30
0.0
 11
269.0172489765072
 21
281.2101253128553
 31
0.0
  0
LINE
  5
23CFC
330
22FF5
100
AcDbEntity
  8
30
 62
     0
440
 16777216
370
    -2
100
AcDbLine
 10
275.517248976507
 20
388.4697145142363
 30
0.0
 11
275.517248976507
 21
281.2101253128553
 31
0.0
  0
LINE
  5
23CFD
330
22FF5
100
AcDbEntity
  8
30
 62
     0
440
 16777216
370
    -2
100
AcDbLine
 10
267.0172489765072
 20
281.7101253128553
 30
0.0
 11
265.0172489765072
 21
281.7101253128553
 31
0.0
  0
LINE
  5
23CFE
330
22FF5
100
AcDbEntity
  8
30
 62
     0
440
 16777216
370
    -2
100
AcDbLine
 10
277.517248976507
 20
281.7101253128553
 30
0.0
 11
279.517248976507
 21
281.7101253128553
 31
0.0
  0
MTEXT
  5
23CFF
330
22FF5
100
AcDbEntity
  8
30
 62
     0
440
 16777216
100
AcDbMText
 10
260.517248976507
 20
286.7101253128553
 30
0.0
 40
6.0
 41
0.0
 46
0.0
 71
     5
 72
     1
  1
\A1;6.5
 73
     1
 44
1.0
  0
LINE
  5
23D00
330
22FF5
100
AcDbEntity
  8
30
 62
     0
440
 16777216
370
    -2
100
AcDbLine
 10
269.0172489765072
 20
281.7101253128553
 30
0.0
 11
275.517248976507
 21
281.7101253128553
 31
0.0
  0
INSERT
  5
23D01
330
22FF5
100
AcDbEntity
  8
30
 62
     0
440
 16777216
370
    -2
100
AcDbBlockReference
  2
_OPEN
 10
269.0172489765072
 20
281.7101253128553
 30
0.0
 41
2.0
 42
2.0
 43
2.0
  0
INSERT
  5
23D02
330
22FF5
100
AcDbEntity
  8
30
 62
     0
440
 16777216
370
    -2
100
AcDbBlockReference
  2
_OPEN
 10
275.517248976507
 20
281.7101253128553
 30
0.0
 41
2.0
 42
2.0
 43
2.0
 50
180.0
  0
POINT
  5
23D03
330
22FF5
100
AcDbEntity
  8
DEFPOINTS
 62
     0
440
 16777216
100
AcDbPoint
 10
269.0172489765072
 20
416.4697145142362
 30
0.0
  0
POINT
  5
23D04
330
22FF5
100
AcDbEntity
  8
DEFPOINTS
 62
     0
440
 16777216
100
AcDbPoint
 10
275.517248976507
 20
391.4697145142363
 30
0.0
  0
POINT
  5
23D05
330
22FF5
100
AcDbEntity
  8
DEFPOINTS
 62
     0
440
 16777216
100
AcDbPoint
 10
275.517248976507
 20
281.7101253128553
 30
0.0
  0
ENDBLK
  5
22FF7
330
22FF5
100
AcDbEntity
  8
0
100
AcDbBlockEnd
  0
BLOCK
  5
23010
330
2300F
100
AcDbEntity
  8
0
100
AcDbBlockBegin
  2
*D16
 70
     1
 10
0.0
 20
0.0
 30
0.0
  3
*D16
  1

  0
LINE
  5
23C9F
330
2300F
100
AcDbEntity
  8
30
 62
     0
440
 16777216
370
    -2
100
AcDbLine
 10
371.5172489765071
 20
458.0608530076363
 30
0.0
 11
399.017248976507
 21
458.0608530076362
 31
0.0
  0
LINE
  5
23CA0
330
2300F
100
AcDbEntity
  8
30
 62
     0
440
 16777216
370
    -2
100
AcDbLine
 10
371.5172489765071
 20
375.0608530076363
 30
0.0
 11
399.017248976507
 21
375.0608530076362
 31
0.0
  0
LINE
  5
23CA1
330
2300F
100
AcDbEntity
  8
30
 62
     0
440
 16777216
370
    -2
100
AcDbLine
 10
398.5172489765071
 20
456.0608530076361
 30
0.0
 11
398.5172489765071
 21
377.0608530076362
 31
0.0
  0
INSERT
  5
23CA2
330
2300F
100
AcDbEntity
  8
30
 62
     0
440
 16777216
370
    -2
100
AcDbBlockReference
  2
_OPEN
 10
398.5172489765071
 20
458.0608530076362
 30
0.0
 41
2.0
 42
2.0
 43
2.0
 50
90.0
  0
INSERT
  5
23CA3
330
2300F
100
AcDbEntity
  8
30
 62
     0
440
 16777216
370
    -2
100
AcDbBlockReference
  2
_OPEN
 10
398.5172489765071
 20
375.0608530076362
 30
0.0
 41
2.0
 42
2.0
 43
2.0
 50
270.0
  0
MTEXT
  5
23CA4
330
2300F
100
AcDbEntity
  8
30
 62
     0
440
 16777216
100
AcDbMText
 10
393.5172489765069
 20
416.5608530076363
 30
0.0
 40
6.0
 41
0.0
 46
0.0
 71
     5
 72
     1
  1
\A1;83
 11
0.0000000000000001
 21
1.0
 31
0.0
 73
     1
 44
1.0
 90
        3
 63
     9
421
 13158600
 45
1.25
441
        0
  0
POINT
  5
23CA5
330
2300F
100
AcDbEntity
  8
DEFPOINTS
 62
     0
440
 16777216
100
AcDbPoint
 10
370.5172489765071
 20
458.0608530076363
 30
0.0
  0
POINT
  5
23CA6
330
2300F
100
AcDbEntity
  8
DEFPOINTS
 62
     0
440
 16777216
100
AcDbPoint
 10
370.5172489765071
 20
375.0608530076363
 30
0.0
  0
POINT
  5
23CA7
330
2300F
100
AcDbEntity
  8
DEFPOINTS
 62
     0
440
 16777216
100
AcDbPoint
 10
398.5172489765071
 20
375.0608530076362
 30
0.0
  0
ENDBLK
  5
23011
330
2300F
100
AcDbEntity
  8
0
100
AcDbBlockEnd
  0
BLOCK
  5
2301C
330
2301B
100
AcDbEntity
  8
0
100
AcDbBlockBegin
  2
*D17
 70
     1
 10
0.0
 20
0.0
 30
0.0
  3
*D17
  1

  0
LINE
  5
23D34
330
2301B
100
AcDbEntity
  8
30
 62
     0
440
 16777216
370
    -2
100
AcDbLine
 10
468.8891290463697
 20
478.8803468748128
 30
0.0
 11
468.8891290463697
 21
459.8445240722826
 31
0.0
  0
LINE
  5
23D35
330
2301B
100
AcDbEntity
  8
30
 62
     0
440
 16777216
370
    -2
100
AcDbLine
 10
485.8891290463697
 20
478.8803468748128
 30
0.0
 11
485.8891290463697
 21
459.8445240722826
 31
0.0
  0
LINE
  5
23D36
330
2301B
100
AcDbEntity
  8
30
 62
     0
440
 16777216
370
    -2
100
AcDbLine
 10
470.8891290463697
 20
460.3445240722826
 30
0.0
 11
483.8891290463696
 21
460.3445240722826
 31
0.0
  0
INSERT
  5
23D37
330
2301B
100
AcDbEntity
  8
30
 62
     0
440
 16777216
370
    -2
100
AcDbBlockReference
  2
_OPEN
 10
468.8891290463697
 20
460.3445240722826
 30
0.0
 41
2.0
 42
2.0
 43
2.0
 50
180.0
  0
INSERT
  5
23D38
330
2301B
100
AcDbEntity
  8
30
 62
     0
440
 16777216
370
    -2
100
AcDbBlockReference
  2
_OPEN
 10
485.8891290463697
 20
460.3445240722826
 30
0.0
 41
2.0
 42
2.0
 43
2.0
  0
MTEXT
  5
23D39
330
2301B
100
AcDbEntity
  8
30
 62
     0
440
 16777216
100
AcDbMText
 10
477.3891290463697
 20
465.3445240722826
 30
0.0
 40
6.0
 41
0.0
 46
0.0
 71
     5
 72
     1
  1
\A1;17
 73
     1
 44
1.0
  0
POINT
  5
23D3A
330
2301B
100
AcDbEntity
  8
DEFPOINTS
 62
     0
440
 16777216
100
AcDbPoint
 10
468.8891290463697
 20
481.8803468748128
 30
0.0
  0
POINT
  5
23D3B
330
2301B
100
AcDbEntity
  8
DEFPOINTS
 62
     0
440
 16777216
100
AcDbPoint
 10
485.8891290463697
 20
481.8803468748128
 30
0.0
  0
POINT
  5
23D3C
330
2301B
100
AcDbEntity
  8
DEFPOINTS
 62
     0
440
 16777216
100
AcDbPoint
 10
485.8891290463697
 20
460.3445240722826
 30
0.0
  0
ENDBLK
  5
2301D
330
2301B
100
AcDbEntity
  8
0
100
AcDbBlockEnd
  0
BLOCK
  5
23028
330
23027
100
AcDbEntity
  8
0
100
AcDbBlockBegin
  2
*D18
 70
     1
 10
0.0
 20
0.0
 30
0.0
  3
*D18
  1

  0
LINE
  5
23E9B
330
23027
100
AcDbEntity
  8
30
 62
     0
440
 16777216
370
    -2
100
AcDbLine
 10
484.6391290463698
 20
493.8803468748131
 30
0.0
 11
509.3497610031713
 21
493.8803468748131
 31
0.0
  0
LINE
  5
23E9C
330
23027
100
AcDbEntity
  8
30
 62
     0
440
 16777216
370
    -2
100
AcDbLine
 10
486.8891290463698
 20
481.8803468748128
 30
0.0
 11
509.3497610031713
 21
481.8803468748128
 31
0.0
  0
LINE
  5
23E9D
330
23027
100
AcDbEntity
  8
30
 62
     0
440
 16777216
370
    -2
100
AcDbLine
 10
508.8497610031713
 20
491.880346874813
 30
0.0
 11
508.8497610031713
 21
483.8803468748126
 31
0.0
  0
INSERT
  5
23E9E
330
23027
100
AcDbEntity
  8
30
 62
     0
440
 16777216
370
    -2
100
AcDbBlockReference
  2
_OPEN
 10
508.8497610031713
 20
493.8803468748131
 30
0.0
 41
2.0
 42
2.0
 43
2.0
 50
90.0
  0
INSERT
  5
23E9F
330
23027
100
AcDbEntity
  8
30
 62
     0
440
 16777216
370
    -2
100
AcDbBlockReference
  2
_OPEN
 10
508.8497610031713
 20
481.8803468748128
 30
0.0
 41
2.0
 42
2.0
 43
2.0
 50
270.0
  0
MTEXT
  5
23EA0
330
23027
100
AcDbEntity
  8
30
 62
     0
440
 16777216
100
AcDbMText
 10
503.8497610031711
 20
487.8803468748126
 30
0.0
 40
6.0
 41
0.0
 46
0.0
 71
     5
 72
     1
  1
\A1;12
 11
0.0000000000000001
 21
1.0
 31
0.0
 73
     1
 44
1.0
 90
        3
 63
     9
421
 13158600
 45
1.25
441
        0
  0
POINT
  5
23EA1
330
23027
100
AcDbEntity
  8
DEFPOINTS
 62
     0
440
 16777216
100
AcDbPoint
 10
483.6391290463697
 20
493.8803468748131
 30
0.0
  0
POINT
  5
23EA2
330
23027
100
AcDbEntity
  8
DEFPOINTS
 62
     0
440
 16777216
100
AcDbPoint
 10
485.8891290463697
 20
481.8803468748128
 30
0.0
  0
POINT
  5
23EA3
330
23027
100
AcDbEntity
  8
DEFPOINTS
 62
     0
440
 16777216
100
AcDbPoint
 10
508.8497610031713
 20
481.8803468748128
 30
0.0
  0
ENDBLK
  5
23029
330
23027
100
AcDbEntity
  8
0
100
AcDbBlockEnd
  0
BLOCK
  5
23034
330
23033
100
AcDbEntity
  8
0
100
AcDbBlockBegin
  2
*D19
 70
     1
 10
0.0
 20
0.0
 30
0.0
  3
*D19
  1

  0
LINE
  5
23D0F
330
23033
100
AcDbEntity
  8
30
 62
     0
440
 16777216
370
    -2
100
AcDbLine
 10
409.273900754526
 20
559.6671124319835
 30
0.0
 11
409.273900754526
 21
514.5646124319833
 31
0.0
  0
LINE
  5
23D10
330
23033
100
AcDbEntity
  8
30
 62
     0
440
 16777216
370
    -2
100
AcDbLine
 10
389.273900754526
 20
556.5646124319835
 30
0.0
 11
389.273900754526
 21
514.5646124319833
 31
0.0
  0
LINE
  5
23D11
330
23033
100
AcDbEntity
  8
30
 62
     0
440
 16777216
370
    -2
100
AcDbLine
 10
407.2739007545258
 20
515.0646124319833
 30
0.0
 11
391.273900754526
 21
515.0646124319833
 31
0.0
  0
INSERT
  5
23D12
330
23033
100
AcDbEntity
  8
30
 62
     0
440
 16777216
370
    -2
100
AcDbBlockReference
  2
_OPEN
 10
409.273900754526
 20
515.0646124319833
 30
0.0
 41
2.0
 42
2.0
 43
2.0
  0
INSERT
  5
23D13
330
23033
100
AcDbEntity
  8
30
 62
     0
440
 16777216
370
    -2
100
AcDbBlockReference
  2
_OPEN
 10
389.273900754526
 20
515.0646124319833
 30
0.0
 41
2.0
 42
2.0
 43
2.0
 50
180.0
  0
MTEXT
  5
23D14
330
23033
100
AcDbEntity
  8
30
 62
     0
440
 16777216
100
AcDbMText
 10
399.273900754526
 20
523.0646124319833
 30
0.0
 40
6.0
 41
0.0
 46
0.0
 71
     2
 72
     1
  1
\A1;20
 73
     1
 44
1.0
  0
POINT
  5
23D15
330
23033
100
AcDbEntity
  8
DEFPOINTS
 62
     0
440
 16777216
100
AcDbPoint
 10
409.273900754526
 20
562.6671124319833
 30
0.0
  0
POINT
  5
23D16
330
23033
100
AcDbEntity
  8
DEFPOINTS
 62
     0
440
 16777216
100
AcDbPoint
 10
389.273900754526
 20
559.5646124319833
 30
0.0
  0
POINT
  5
23D17
330
23033
100
AcDbEntity
  8
DEFPOINTS
 62
     0
440
 16777216
100
AcDbPoint
 10
389.273900754526
 20
515.0646124319833
 30
0.0
  0
ENDBLK
  5
23035
330
23033
100
AcDbEntity
  8
0
100
AcDbBlockEnd
  0
BLOCK
  5
23040
330
2303F
100
AcDbEntity
  8
0
100
AcDbBlockBegin
  2
*D20
 70
     1
 10
0.0
 20
0.0
 30
0.0
  3
*D20
  1

  0
LINE
  5
23D18
330
2303F
100
AcDbEntity
  8
30
 62
     0
440
 16777216
370
    -2
100
AcDbLine
 10
375.1739007545261
 20
578.2646124319832
 30
0.0
 11
375.1739007545261
 21
514.5646124319833
 31
0.0
  0
LINE
  5
23D19
330
2303F
100
AcDbEntity
  8
30
 62
     0
440
 16777216
370
    -2
100
AcDbLine
 10
389.273900754526
 20
548.1734621207333
 30
0.0
 11
389.273900754526
 21
514.5646124319833
 31
0.0
  0
LINE
  5
23D1A
330
2303F
100
AcDbEntity
  8
30
 62
     0
440
 16777216
370
    -2
100
AcDbLine
 10
387.273900754526
 20
515.0646124319833
 30
0.0
 11
377.1739007545261
 21
515.0646124319833
 31
0.0
  0
LINE
  5
23D1B
330
2303F
100
AcDbEntity
  8
30
 62
     0
440
 16777216
370
    -2
100
AcDbLine
 10
375.1739007545261
 20
515.0646124319833
 30
0.0
 11
355.1739007545261
 21
515.0646124319833
 31
0.0
  0
INSERT
  5
23D1C
330
2303F
100
AcDbEntity
  8
30
 62
     0
440
 16777216
370
    -2
100
AcDbBlockReference
  2
_OPEN
 10
389.273900754526
 20
515.0646124319833
 30
0.0
 41
2.0
 42
2.0
 43
2.0
  0
INSERT
  5
23D1D
330
2303F
100
AcDbEntity
  8
30
 62
     0
440
 16777216
370
    -2
100
AcDbBlockReference
  2
_OPEN
 10
375.1739007545261
 20
515.0646124319833
 30
0.0
 41
2.0
 42
2.0
 43
2.0
 50
180.0
  0
MTEXT
  5
23D1E
330
2303F
100
AcDbEntity
  8
30
 62
     0
440
 16777216
100
AcDbMText
 10
364.1739007545262
 20
523.0646124319833
 30
0.0
 40
6.0
 41
0.0
 46
0.0
 71
     2
 72
     1
  1
\A1;14.1
 73
     1
 44
1.0
  0
POINT
  5
23D1F
330
2303F
100
AcDbEntity
  8
DEFPOINTS
 62
     0
440
 16777216
100
AcDbPoint
 10
375.1739007545261
 20
581.2646124319832
 30
0.0
  0
POINT
  5
23D20
330
2303F
100
AcDbEntity
  8
DEFPOINTS
 62
     0
440
 16777216
100
AcDbPoint
 10
389.273900754526
 20
551.1734621207333
 30
0.0
  0
POINT
  5
23D21
330
2303F
100
AcDbEntity
  8
DEFPOINTS
 62
     0
440
 16777216
100
AcDbPoint
 10
389.273900754526
 20
515.0646124319833
 30
0.0
  0
ENDBLK
  5
23041
330
2303F
100
AcDbEntity
  8
0
100
AcDbBlockEnd
  0
BLOCK
  5
2304D
330
2304C
100
AcDbEntity
  8
0
100
AcDbBlockBegin
  2
*D21
 70
     1
 10
0.0
 20
0.0
 30
0.0
  3
*D21
  1

  0
LINE
  5
23D22
330
2304C
100
AcDbEntity
  8
30
 62
     0
440
 16777216
370
    -2
100
AcDbLine
 10
375.1739007545261
 20
609.0646124319833
 30
0.0
 11
375.1739007545261
 21
625.0923335657334
 31
0.0
  0
LINE
  5
23D23
330
2304C
100
AcDbEntity
  8
30
 62
     0
440
 16777216
370
    -2
100
AcDbLine
 10
390.5739007545262
 20
601.5646124319832
 30
0.0
 11
390.5739007545262
 21
625.0923335657334
 31
0.0
  0
LINE
  5
23D24
330
2304C
100
AcDbEntity
  8
30
 62
     0
440
 16777216
370
    -2
100
AcDbLine
 10
377.1739007545261
 20
624.5923335657334
 30
0.0
 11
388.5739007545262
 21
624.5923335657334
 31
0.0
  0
INSERT
  5
23D25
330
2304C
100
AcDbEntity
  8
30
 62
     0
440
 16777216
370
    -2
100
AcDbBlockReference
  2
_OPEN
 10
375.1739007545261
 20
624.5923335657334
 30
0.0
 41
2.0
 42
2.0
 43
2.0
 50
180.0
  0
INSERT
  5
23D26
330
2304C
100
AcDbEntity
  8
30
 62
     0
440
 16777216
370
    -2
100
AcDbBlockReference
  2
_OPEN
 10
390.5739007545262
 20
624.5923335657334
 30
0.0
 41
2.0
 42
2.0
 43
2.0
  0
MTEXT
  5
23D27
330
2304C
100
AcDbEntity
  8
30
 62
     0
440
 16777216
100
AcDbMText
 10
382.8739007545261
 20
632.5923335657334
 30
0.0
 40
6.0
 41
0.0
 46
0.0
 71
     2
 72
     1
  1
\A1;15.4
 73
     1
 44
1.0
  0
POINT
  5
23D28
330
2304C
100
AcDbEntity
  8
DEFPOINTS
 62
     0
440
 16777216
100
AcDbPoint
 10
375.1739007545261
 20
606.0646124319832
 30
0.0
  0
POINT
  5
23D29
330
2304C
100
AcDbEntity
  8
DEFPOINTS
 62
     0
440
 16777216
100
AcDbPoint
 10
390.5739007545262
 20
598.5646124319834
 30
0.0
  0
POINT
  5
23D2A
330
2304C
100
AcDbEntity
  8
DEFPOINTS
 62
     0
440
 16777216
100
AcDbPoint
 10
390.5739007545262
 20
624.5923335657334
 30
0.0
  0
ENDBLK
  5
2304E
330
2304C
100
AcDbEntity
  8
0
100
AcDbBlockEnd
  0
BLOCK
  5
2311A
330
23119
100
AcDbEntity
  8
0
100
AcDbBlockBegin
  2
*D22
 70
     1
 10
0.0
 20
0.0
 30
0.0
  3
*D22
  1

  0
LINE
  5
23D2B
330
23119
100
AcDbEntity
  8
30
 62
     0
440
 16777216
370
    -2
100
AcDbLine
 10
279.517248976507
 20
364.4697145142363
 30
0.0
 11
279.517248976507
 21
295.5544065164022
 31
0.0
  0
LINE
  5
23D2C
330
23119
100
AcDbEntity
  8
30
 62
     0
440
 16777216
370
    -2
100
AcDbLine
 10
347.5172489765071
 20
308.4697145142363
 30
0.0
 11
347.5172489765071
 21
295.5544065164022
 31
0.0
  0
LINE
  5
23D2D
330
23119
100
AcDbEntity
  8
30
 62
     0
440
 16777216
370
    -2
100
AcDbLine
 10
281.517248976507
 20
296.0544065164022
 30
0.0
 11
345.5172489765071
 21
296.0544065164022
 31
0.0
  0
INSERT
  5
23D2E
330
23119
100
AcDbEntity
  8
30
 62
     0
440
 16777216
370
    -2
100
AcDbBlockReference
  2
_OPEN
 10
279.517248976507
 20
296.0544065164022
 30
0.0
 41
2.0
 42
2.0
 43
2.0
 50
180.0
  0
INSERT
  5
23D2F
330
23119
100
AcDbEntity
  8
30
 62
     0
440
 16777216
370
    -2
100
AcDbBlockReference
  2
_OPEN
 10
347.5172489765071
 20
296.0544065164022
 30
0.0
 41
2.0
 42
2.0
 43
2.0
  0
MTEXT
  5
23D30
330
23119
100
AcDbEntity
  8
30
 62
     0
440
 16777216
100
AcDbMText
 10
313.517248976507
 20
301.0544065164022
 30
0.0
 40
6.0
 41
0.0
 46
0.0
 71
     5
 72
     1
  1
\A1;68
 73
     1
 44
1.0
  0
POINT
  5
23D31
330
23119
100
AcDbEntity
  8
DEFPOINTS
 62
     0
440
 16777216
100
AcDbPoint
 10
279.517248976507
 20
367.4697145142364
 30
0.0
  0
POINT
  5
23D32
330
23119
100
AcDbEntity
  8
DEFPOINTS
 62
     0
440
 16777216
100
AcDbPoint
 10
347.5172489765071
 20
311.4697145142363
 30
0.0
  0
POINT
  5
23D33
330
23119
100
AcDbEntity
  8
DEFPOINTS
 62
     0
440
 16777216
100
AcDbPoint
 10
347.5172489765071
 20
296.0544065164022
 30
0.0
  0
ENDBLK
  5
2311B
330
23119
100
AcDbEntity
  8
0
100
AcDbBlockEnd
  0
BLOCK
  5
2390D
330
2390C
100
AcDbEntity
  8
0
100
AcDbBlockBegin
  2
*D23
 70
     1
 10
0.0
 20
0.0
 30
0.0
  3
*D23
  1

  0
LINE
  5
23D58
330
2390C
100
AcDbEntity
  8
30
 62
     0
440
 16777216
370
    -2
100
AcDbLine
 10
301.3324900034967
 20
116.9657427111928
 30
0.0
 11
301.3324900034967
 21
42.03544486564777
 31
0.0
  0
LINE
  5
23D59
330
2390C
100
AcDbEntity
  8
30
 62
     0
440
 16777216
370
    -2
100
AcDbLine
 10
244.3324900034967
 20
116.9657427111928
 30
0.0
 11
244.3324900034967
 21
42.03544486564777
 31
0.0
  0
LINE
  5
23D5A
330
2390C
100
AcDbEntity
  8
30
 62
     0
440
 16777216
370
    -2
100
AcDbLine
 10
299.3324900034967
 20
42.53544486564777
 30
0.0
 11
246.3324900034967
 21
42.53544486564777
 31
0.0
  0
INSERT
  5
23D5B
330
2390C
100
AcDbEntity
  8
30
 62
     0
440
 16777216
370
    -2
100
AcDbBlockReference
  2
_OPEN
 10
301.3324900034967
 20
42.53544486564777
 30
0.0
 41
2.0
 42
2.0
 43
2.0
  0
INSERT
  5
23D5C
330
2390C
100
AcDbEntity
  8
30
 62
     0
440
 16777216
370
    -2
100
AcDbBlockReference
  2
_OPEN
 10
244.3324900034967
 20
42.53544486564777
 30
0.0
 41
2.0
 42
2.0
 43
2.0
 50
180.0
  0
MTEXT
  5
23D5D
330
2390C
100
AcDbEntity
  8
30
 62
     0
440
 16777216
100
AcDbMText
 10
271.4021109822467
 20
50.53544486564778
 30
0.0
 40
6.0
 41
0.0
 46
0.0
 71
     2
 72
     1
  1
\A1;57
 73
     1
 44
1.0
  0
POINT
  5
23D5E
330
2390C
100
AcDbEntity
  8
DEFPOINTS
 62
     0
440
 16777216
100
AcDbPoint
 10
301.3324900034967
 20
119.9657427111928
 30
0.0
  0
POINT
  5
23D5F
330
2390C
100
AcDbEntity
  8
DEFPOINTS
 62
     0
440
 16777216
100
AcDbPoint
 10
244.3324900034967
 20
119.9657427111928
 30
0.0
  0
POINT
  5
23D60
330
2390C
100
AcDbEntity
  8
DEFPOINTS
 62
     0
440
 16777216
100
AcDbPoint
 10
244.3324900034967
 20
42.53544486564777
 30
0.0
  0
ENDBLK
  5
2390E
330
2390C
100
AcDbEntity
  8
0
100
AcDbBlockEnd
  0
BLOCK
  5
23919
330
23918
100
AcDbEntity
  8
0
100
AcDbBlockBegin
  2
*D24
 70
     1
 10
0.0
 20
0.0
 30
0.0
  3
*D24
  1

  0
LINE
  5
23DB9
330
23918
100
AcDbEntity
  8
30
 62
     0
440
 16777216
370
    -2
100
AcDbLine
 10
302.8647721430019
 20
171.5743281661079
 30
0.0
 11
312.4221376070731
 21
177.6454680414681
 31
0.0
  0
LINE
  5
23DBA
330
23918
100
AcDbEntity
  8
30
 62
     0
440
 16777216
370
    -2
100
AcDbLine
 10
312.4221376070731
 20
177.6454680414681
 30
0.0
 11
322.4221376070731
 21
177.6454680414681
 31
0.0
  0
LINE
  5
23DBB
330
23918
100
AcDbEntity
  8
30
 62
     0
440
 16777216
370
    -2
100
AcDbLine
 10
300.3324900034967
 20
169.9657427111929
 30
0.0
 11
301.1765840499816
 21
170.5019378628206
 31
0.0
  0
INSERT
  5
23DBC
330
23918
100
AcDbEntity
  8
30
 62
     0
440
 16777216
370
    -2
100
AcDbBlockReference
  2
_OPEN
 10
301.1765840499816
 20
170.5019378628206
 30
0.0
 41
2.0
 42
2.0
 43
2.0
 50
212.4250000085955
  0
MTEXT
  5
23DBD
330
23918
100
AcDbEntity
  8
30
 62
     0
440
 16777216
100
AcDbMText
 10
314.4221376070731
 20
185.6454680414681
 30
0.0
 40
6.0
 41
0.0
 46
0.0
 71
     1
 72
     1
  1
\A1;R1
 73
     1
 44
1.0
  0
POINT
  5
23DBE
330
23918
100
AcDbEntity
  8
DEFPOINTS
 62
     0
440
 16777216
100
AcDbPoint
 10
301.1765840499816
 20
170.5019378628206
 30
0.0
  0
POINT
  5
23DBF
330
23918
100
AcDbEntity
  8
DEFPOINTS
 62
     0
440
 16777216
100
AcDbPoint
 10
300.3324900034967
 20
169.9657427111929
 30
0.0
  0
ENDBLK
  5
2391A
330
23918
100
AcDbEntity
  8
0
100
AcDbBlockEnd
  0
BLOCK
  5
23924
330
23923
100
AcDbEntity
  8
0
100
AcDbBlockBegin
  2
*D25
 70
     1
 10
0.0
 20
0.0
 30
0.0
  3
*D25
  1

  0
LINE
  5
23DA0
330
23923
100
AcDbEntity
  8
30
 62
     0
440
 16777216
370
    -2
100
AcDbLine
 10
300.1787148769094
 20
170.9657427111928
 30
0.0
 11
324.1898743491338
 21
170.9657427111928
 31
0.0
  0
LINE
  5
23DA1
330
23923
100
AcDbEntity
  8
30
 62
     0
440
 16777216
370
    -2
100
AcDbLine
 10
300.5272959784283
 20
118.9657427111928
 30
0.0
 11
324.1898743491337
 21
118.9657427111928
 31
0.0
  0
LINE
  5
23DA2
330
23923
100
AcDbEntity
  8
30
 62
     0
440
 16777216
370
    -2
100
AcDbLine
 10
323.6898743491338
 20
168.9657427111928
 30
0.0
 11
323.6898743491337
 21
120.9657427111928
 31
0.0
  0
INSERT
  5
23DA3
330
23923
100
AcDbEntity
  8
30
 62
     0
440
 16777216
370
    -2
100
AcDbBlockReference
  2
_OPEN
 10
323.6898743491338
 20
170.9657427111928
 30
0.0
 41
2.0
 42
2.0
 43
2.0
 50
90.0
  0
INSERT
  5
23DA4
330
23923
100
AcDbEntity
  8
30
 62
     0
440
 16777216
370
    -2
100
AcDbBlockReference
  2
_OPEN
 10
323.6898743491337
 20
118.9657427111928
 30
0.0
 41
2.0
 42
2.0
 43
2.0
 50
270.0
  0
MTEXT
  5
23DA5
330
23923
100
AcDbEntity
  8
30
 62
     0
440
 16777216
100
AcDbMText
 10
315.6898743491337
 20
144.9657427111929
 30
0.0
 40
6.0
 41
0.0
 46
0.0
 71
     2
 72
     1
  1
\A1;52
 11
0.0000000000000001
 21
1.0
 31
0.0
 73
     1
 44
1.0
 90
        3
 63
     9
421
 13158600
 45
1.25
441
        0
  0
POINT
  5
23DA6
330
23923
100
AcDbEntity
  8
DEFPOINTS
 62
     0
440
 16777216
100
AcDbPoint
 10
299.1787148769094
 20
170.9657427111928
 30
0.0
  0
POINT
  5
23DA7
330
23923
100
AcDbEntity
  8
DEFPOINTS
 62
     0
440
 16777216
100
AcDbPoint
 10
299.5272959784283
 20
118.9657427111928
 30
0.0
  0
POINT
  5
23DA8
330
23923
100
AcDbEntity
  8
DEFPOINTS
 62
     0
440
 16777216
100
AcDbPoint
 10
323.6898743491337
 20
118.9657427111928
 30
0.0
  0
ENDBLK
  5
23925
330
23923
100
AcDbEntity
  8
0
100
AcDbBlockEnd
  0
BLOCK
  5
2395C
330
2395B
100
AcDbEntity
  8
0
100
AcDbBlockBegin
  2
*D26
 70
     1
 10
0.0
 20
0.0
 30
0.0
  3
*D26
  1

  0
LINE
  5
23DC0
330
2395B
100
AcDbEntity
  8
30
 62
     0
440
 16777216
370
    -2
100
AcDbLine
 10
422.0105190165743
 20
169.5505057541436
 30
0.0
 11
433.8820270047107
 21
176.9362998486219
 31
0.0
  0
LINE
  5
23DC1
330
2395B
100
AcDbEntity
  8
30
 62
     0
440
 16777216
370
    -2
100
AcDbLine
 10
433.8820270047107
 20
176.9362998486219
 30
0.0
 11
443.8820270047107
 21
176.9362998486219
 31
0.0
  0
LINE
  5
23DC2
330
2395B
100
AcDbEntity
  8
30
 62
     0
440
 16777216
370
    -2
100
AcDbLine
 10
419.4632604709076
 20
167.9657427111928
 30
0.0
 11
420.3123466528697
 21
168.4939970588884
 31
0.0
  0
INSERT
  5
23DC3
330
2395B
100
AcDbEntity
  8
30
 62
     0
440
 16777216
370
    -2
100
AcDbBlockReference
  2
_OPEN
 10
420.3123466528697
 20
168.4939970588884
 30
0.0
 41
2.0
 42
2.0
 43
2.0
 50
211.8875838342556
  0
MTEXT
  5
23DC4
330
2395B
100
AcDbEntity
  8
30
 62
     0
440
 16777216
100
AcDbMText
 10
435.8820270047108
 20
184.9362998486217
 30
0.0
 40
6.0
 41
0.0
 46
0.0
 71
     1
 72
     1
  1
\A1;R1
 73
     1
 44
1.0
  0
POINT
  5
23DC5
330
2395B
100
AcDbEntity
  8
DEFPOINTS
 62
     0
440
 16777216
100
AcDbPoint
 10
420.3123466528697
 20
168.4939970588884
 30
0.0
  0
POINT
  5
23DC6
330
2395B
100
AcDbEntity
  8
DEFPOINTS
 62
     0
440
 16777216
100
AcDbPoint
 10
419.4632604709076
 20
167.9657427111928
 30
0.0
  0
ENDBLK
  5
2395D
330
2395B
100
AcDbEntity
  8
0
100
AcDbBlockEnd
  0
BLOCK
  5
23973
330
23972
100
AcDbEntity
  8
0
100
AcDbBlockBegin
  2
*D27
 70
     1
 10
0.0
 20
0.0
 30
0.0
  3
*D27
  1

  0
LINE
  5
23D46
330
23972
100
AcDbEntity
  8
30
 62
     0
440
 16777216
370
    -2
100
AcDbLine
 10
396.4632604709081
 20
118.9657427111928
 30
0.0
 11
396.4632604709081
 21
42.03544486564777
 31
0.0
  0
LINE
  5
23D47
330
23972
100
AcDbEntity
  8
30
 62
     0
440
 16777216
370
    -2
100
AcDbLine
 10
420.4632604709081
 20
118.9657427111928
 30
0.0
 11
420.4632604709081
 21
42.03544486564777
 31
0.0
  0
LINE
  5
23D48
330
23972
100
AcDbEntity
  8
30
 62
     0
440
 16777216
370
    -2
100
AcDbLine
 10
398.4632604709081
 20
42.53544486564777
 30
0.0
 11
418.4632604709078
 21
42.53544486564777
 31
0.0
  0
INSERT
  5
23D49
330
23972
100
AcDbEntity
  8
30
 62
     0
440
 16777216
370
    -2
100
AcDbBlockReference
  2
_OPEN
 10
396.4632604709081
 20
42.53544486564777
 30
0.0
 41
2.0
 42
2.0
 43
2.0
 50
180.0
  0
INSERT
  5
23D4A
330
23972
100
AcDbEntity
  8
30
 62
     0
440
 16777216
370
    -2
100
AcDbBlockReference
  2
_OPEN
 10
420.4632604709081
 20
42.53544486564777
 30
0.0
 41
2.0
 42
2.0
 43
2.0
  0
MTEXT
  5
23D4B
330
23972
100
AcDbEntity
  8
30
 62
     0
440
 16777216
100
AcDbMText
 10
408.4632604709081
 20
50.53544486564778
 30
0.0
 40
6.0
 41
0.0
 46
0.0
 71
     2
 72
     1
  1
\A1;24
 73
     1
 44
1.0
  0
POINT
  5
23D4C
330
23972
100
AcDbEntity
  8
DEFPOINTS
 62
     0
440
 16777216
100
AcDbPoint
 10
396.4632604709081
 20
121.9657427111928
 30
0.0
  0
POINT
  5
23D4D
330
23972
100
AcDbEntity
  8
DEFPOINTS
 62
     0
440
 16777216
100
AcDbPoint
 10
420.4632604709081
 20
121.9657427111928
 30
0.0
  0
POINT
  5
23D4E
330
23972
100
AcDbEntity
  8
DEFPOINTS
 62
     0
440
 16777216
100
AcDbPoint
 10
420.4632604709081
 20
42.53544486564777
 30
0.0
  0
ENDBLK
  5
23974
330
23972
100
AcDbEntity
  8
0
100
AcDbBlockEnd
  0
BLOCK
  5
2397F
330
2397E
100
AcDbEntity
  8
0
100
AcDbBlockBegin
  2
*D28
 70
     1
 10
0.0
 20
0.0
 30
0.0
  3
*D28
  1

  0
LINE
  5
23DA9
330
2397E
100
AcDbEntity
  8
30
 62
     0
440
 16777216
370
    -2
100
AcDbLine
 10
420.4632604709081
 20
168.9657427111928
 30
0.0
 11
468.7814356714357
 21
168.9657427111928
 31
0.0
  0
LINE
  5
23DAA
330
2397E
100
AcDbEntity
  8
30
 62
     0
440
 16777216
370
    -2
100
AcDbLine
 10
420.4632604709081
 20
120.9657427111928
 30
0.0
 11
468.7814356714356
 21
120.9657427111928
 31
0.0
  0
LINE
  5
23DAB
330
2397E
100
AcDbEntity
  8
30
 62
     0
440
 16777216
370
    -2
100
AcDbLine
 10
468.2814356714357
 20
166.9657427111928
 30
0.0
 11
468.2814356714356
 21
122.9657427111928
 31
0.0
  0
INSERT
  5
23DAC
330
2397E
100
AcDbEntity
  8
30
 62
     0
440
 16777216
370
    -2
100
AcDbBlockReference
  2
_OPEN
 10
468.2814356714357
 20
168.9657427111928
 30
0.0
 41
2.0
 42
2.0
 43
2.0
 50
90.0
  0
INSERT
  5
23DAD
330
2397E
100
AcDbEntity
  8
30
 62
     0
440
 16777216
370
    -2
100
AcDbBlockReference
  2
_OPEN
 10
468.2814356714356
 20
120.9657427111928
 30
0.0
 41
2.0
 42
2.0
 43
2.0
 50
270.0
  0
MTEXT
  5
23DAE
330
2397E
100
AcDbEntity
  8
30
 62
     0
440
 16777216
100
AcDbMText
 10
460.2814356714356
 20
144.9657427111928
 30
0.0
 40
6.0
 41
0.0
 46
0.0
 71
     2
 72
     1
  1
\A1;48
 11
0.0000000000000001
 21
1.0
 31
0.0
 73
     1
 44
1.0
 90
        3
 63
     9
421
 13158600
 45
1.25
441
        0
  0
POINT
  5
23DAF
330
2397E
100
AcDbEntity
  8
DEFPOINTS
 62
     0
440
 16777216
100
AcDbPoint
 10
419.4632604709081
 20
168.9657427111928
 30
0.0
  0
POINT
  5
23DB0
330
2397E
100
AcDbEntity
  8
DEFPOINTS
 62
     0
440
 16777216
100
AcDbPoint
 10
419.4632604709081
 20
120.9657427111928
 30
0.0
  0
POINT
  5
23DB1
330
2397E
100
AcDbEntity
  8
DEFPOINTS
 62
     0
440
 16777216
100
AcDbPoint
 10
468.2814356714356
 20
120.9657427111928
 30
0.0
  0
ENDBLK
  5
23980
330
2397E
100
AcDbEntity
  8
0
100
AcDbBlockEnd
  0
BLOCK
  5
23DF3
330
23DF2
100
AcDbEntity
  8
0
100
AcDbBlockBegin
  2
*D29
 70
     1
 10
0.0
 20
0.0
 30
0.0
  3
*D29
  1

  0
LINE
  5
23E37
330
23DF2
100
AcDbEntity
  8
30
 62
     0
440
 16777216
370
    -2
100
AcDbLine
 10
67.47568625254587
 20
390.5615731870176
 30
0.0
 11
67.47568625254587
 21
372.1395513506087
 31
0.0
  0
LINE
  5
23E38
330
23DF2
100
AcDbEntity
  8
30
 62
     0
440
 16777216
370
    -2
100
AcDbLine
 10
122.4805247636424
 20
390.5615731870176
 30
0.0
 11
122.4805247636424
 21
372.1395513506087
 31
0.0
  0
LINE
  5
23E39
330
23DF2
100
AcDbEntity
  8
30
 62
     0
440
 16777216
370
    -2
100
AcDbLine
 10
69.47568625254587
 20
372.6395513506087
 30
0.0
 11
120.4805247636424
 21
372.6395513506087
 31
0.0
  0
INSERT
  5
23E3A
330
23DF2
100
AcDbEntity
  8
30
 62
     0
440
 16777216
370
    -2
100
AcDbBlockReference
  2
_OPEN
 10
67.47568625254587
 20
372.6395513506087
 30
0.0
 41
2.0
 42
2.0
 43
2.0
 50
180.0
  0
INSERT
  5
23E3B
330
23DF2
100
AcDbEntity
  8
30
 62
     0
440
 16777216
370
    -2
100
AcDbBlockReference
  2
_OPEN
 10
122.4805247636424
 20
372.6395513506087
 30
0.0
 41
2.0
 42
2.0
 43
2.0
  0
MTEXT
  5
23E3C
330
23DF2
100
AcDbEntity
  8
30
 62
     0
440
 16777216
100
AcDbMText
 10
94.97810550809411
 20
377.6395513506086
 30
0.0
 40
6.0
 41
0.0
 46
0.0
 71
     5
 72
     1
  1
\A1;55
 73
     1
 44
1.0
 90
        3
 63
     9
421
 13158600
 45
1.25
441
        0
  0
POINT
  5
23E3D
330
23DF2
100
AcDbEntity
  8
DEFPOINTS
 62
     0
440
 16777216
100
AcDbPoint
 10
67.47568625254587
 20
391.5615731870176
 30
0.0
  0
POINT
  5
23E3E
330
23DF2
100
AcDbEntity
  8
DEFPOINTS
 62
     0
440
 16777216
100
AcDbPoint
 10
122.4805247636424
 20
391.5615731870176
 30
0.0
  0
POINT
  5
23E3F
330
23DF2
100
AcDbEntity
  8
DEFPOINTS
 62
     0
440
 16777216
100
AcDbPoint
 10
122.4805247636424
 20
372.6395513506087
 30
0.0
  0
ENDBLK
  5
23DF4
330
23DF2
100
AcDbEntity
  8
0
100
AcDbBlockEnd
  0
BLOCK
  5
23DFF
330
23DFE
100
AcDbEntity
  8
0
100
AcDbBlockBegin
  2
*D30
 70
     1
 10
0.0
 20
0.0
 30
0.0
  3
*D30
  1

  0
LINE
  5
23E13
330
23DFE
100
AcDbEntity
  8
30
 62
     0
440
 16777216
370
    -2
100
AcDbLine
 10
69.81885886863029
 20
439.1518530705169
 30
0.0
 11
69.81885886863029
 21
451.2618171013054
 31
0.0
  0
LINE
  5
23E14
330
23DFE
100
AcDbEntity
  8
30
 62
     0
440
 16777216
370
    -2
100
AcDbLine
 10
91.86515518774323
 20
439.1518530705169
 30
0.0
 11
91.86515518774323
 21
451.2618171013054
 31
0.0
  0
LINE
  5
23E15
330
23DFE
100
AcDbEntity
  8
30
 62
     0
440
 16777216
370
    -2
100
AcDbLine
 10
71.81885886863028
 20
450.7618171013056
 30
0.0
 11
89.86515518774323
 21
450.7618171013056
 31
0.0
  0
INSERT
  5
23E16
330
23DFE
100
AcDbEntity
  8
30
 62
     0
440
 16777216
370
    -2
100
AcDbBlockReference
  2
_OPEN
 10
69.81885886863029
 20
450.7618171013056
 30
0.0
 41
2.0
 42
2.0
 43
2.0
 50
180.0
  0
INSERT
  5
23E17
330
23DFE
100
AcDbEntity
  8
30
 62
     0
440
 16777216
370
    -2
100
AcDbBlockReference
  2
_OPEN
 10
91.86515518774323
 20
450.7618171013056
 30
0.0
 41
2.0
 42
2.0
 43
2.0
  0
MTEXT
  5
23E18
330
23DFE
100
AcDbEntity
  8
30
 62
     0
440
 16777216
100
AcDbMText
 10
80.84200702818675
 20
455.7618171013054
 30
0.0
 40
6.0
 41
0.0
 46
0.0
 71
     5
 72
     1
  1
\A1;22
 73
     1
 44
1.0
 90
        3
 63
     9
421
 13158600
 45
1.25
441
        0
  0
POINT
  5
23E19
330
23DFE
100
AcDbEntity
  8
DEFPOINTS
 62
     0
440
 16777216
100
AcDbPoint
 10
69.81885886863029
 20
438.1518530705171
 30
0.0
  0
POINT
  5
23E1A
330
23DFE
100
AcDbEntity
  8
DEFPOINTS
 62
     0
440
 16777216
100
AcDbPoint
 10
91.86515518774323
 20
438.1518530705171
 30
0.0
  0
POINT
  5
23E1B
330
23DFE
100
AcDbEntity
  8
DEFPOINTS
 62
     0
440
 16777216
100
AcDbPoint
 10
91.86515518774323
 20
450.7618171013056
 30
0.0
  0
ENDBLK
  5
23E00
330
23DFE
100
AcDbEntity
  8
0
100
AcDbBlockEnd
  0
BLOCK
  5
23EF6
330
23EF5
100
AcDbEntity
  8
0
100
AcDbBlockBegin
  2
*D31
 70
     1
 10
0.0
 20
0.0
 30
0.0
  3
*D31
  1

  0
LINE
  5
23F0A
330
23EF5
100
AcDbEntity
  8
30
 62
     0
440
 16777216
370
    -2
100
AcDbLine
 10
370.5172489765071
 20
372.0608530076364
 30
0.0
 11
370.5172489765071
 21
295.5544065164022
 31
0.0
  0
LINE
  5
23F0B
330
23EF5
100
AcDbEntity
  8
30
 62
     0
440
 16777216
370
    -2
100
AcDbLine
 10
279.517248976507
 20
364.4697145142364
 30
0.0
 11
279.517248976507
 21
295.5544065164022
 31
0.0
  0
LINE
  5
23F0C
330
23EF5
100
AcDbEntity
  8
30
 62
     0
440
 16777216
370
    -2
100
AcDbLine
 10
368.5172489765071
 20
296.0544065164022
 30
0.0
 11
281.517248976507
 21
296.0544065164022
 31
0.0
  0
INSERT
  5
23F0D
330
23EF5
100
AcDbEntity
  8
30
 62
     0
440
 16777216
370
    -2
100
AcDbBlockReference
  2
_OPEN
 10
370.5172489765071
 20
296.0544065164022
 30
0.0
 41
2.0
 42
2.0
 43
2.0
  0
INSERT
  5
23F0E
330
23EF5
100
AcDbEntity
  8
30
 62
     0
440
 16777216
370
    -2
100
AcDbBlockReference
  2
_OPEN
 10
279.517248976507
 20
296.0544065164022
 30
0.0
 41
2.0
 42
2.0
 43
2.0
 50
180.0
  0
MTEXT
  5
23F0F
330
23EF5
100
AcDbEntity
  8
30
 62
     0
440
 16777216
100
AcDbMText
 10
325.0172489765071
 20
301.0544065164022
 30
0.0
 40
6.0
 41
0.0
 46
0.0
 71
     5
 72
     1
  1
\A1;91
 73
     1
 44
1.0
  0
POINT
  5
23F10
330
23EF5
100
AcDbEntity
  8
DEFPOINTS
 62
     0
440
 16777216
100
AcDbPoint
 10
370.5172489765071
 20
375.0608530076363
 30
0.0
  0
POINT
  5
23F11
330
23EF5
100
AcDbEntity
  8
DEFPOINTS
 62
     0
440
 16777216
100
AcDbPoint
 10
279.517248976507
 20
367.4697145142364
 30
0.0
  0
POINT
  5
23F12
330
23EF5
100
AcDbEntity
  8
DEFPOINTS
 62
     0
440
 16777216
100
AcDbPoint
 10
279.517248976507
 20
296.0544065164022
 30
0.0
  0
ENDBLK
  5
23EF7
330
23EF5
100
AcDbEntity
  8
0
100
AcDbBlockEnd
  0
BLOCK
  5
23F1D
330
23F1C
100
AcDbEntity
  8
0
100
AcDbBlockBegin
  2
*D32
 70
     1
 10
0.0
 20
0.0
 30
0.0
  3
*D32
  1

  0
LINE
  5
23F31
330
23F1C
100
AcDbEntity
  8
30
 62
     0
440
 16777216
370
    -2
100
AcDbLine
 10
275.517248976507
 20
388.5395353952365
 30
0.0
 11
275.517248976507
 21
281.2101253128553
 31
0.0
  0
LINE
  5
23F32
330
23F1C
100
AcDbEntity
  8
30
 62
     0
440
 16777216
370
    -2
100
AcDbLine
 10
370.5172489765071
 20
372.0608530076362
 30
0.0
 11
370.5172489765071
 21
281.2101253128553
 31
0.0
  0
LINE
  5
23F33
330
23F1C
100
AcDbEntity
  8
30
 62
     0
440
 16777216
370
    -2
100
AcDbLine
 10
277.517248976507
 20
281.7101253128553
 30
0.0
 11
368.5172489765071
 21
281.7101253128553
 31
0.0
  0
INSERT
  5
23F34
330
23F1C
100
AcDbEntity
  8
30
 62
     0
440
 16777216
370
    -2
100
AcDbBlockReference
  2
_OPEN
 10
275.517248976507
 20
281.7101253128553
 30
0.0
 41
2.0
 42
2.0
 43
2.0
 50
180.0
  0
INSERT
  5
23F35
330
23F1C
100
AcDbEntity
  8
30
 62
     0
440
 16777216
370
    -2
100
AcDbBlockReference
  2
_OPEN
 10
370.5172489765071
 20
281.7101253128553
 30
0.0
 41
2.0
 42
2.0
 43
2.0
  0
MTEXT
  5
23F36
330
23F1C
100
AcDbEntity
  8
30
 62
     0
440
 16777216
100
AcDbMText
 10
323.0172489765071
 20
286.7101253128553
 30
0.0
 40
6.0
 41
0.0
 46
0.0
 71
     5
 72
     1
  1
\A1;95
 73
     1
 44
1.0
  0
POINT
  5
23F37
330
23F1C
100
AcDbEntity
  8
DEFPOINTS
 62
     0
440
 16777216
100
AcDbPoint
 10
275.517248976507
 20
391.5395353952364
 30
0.0
  0
POINT
  5
23F38
330
23F1C
100
AcDbEntity
  8
DEFPOINTS
 62
     0
440
 16777216
100
AcDbPoint
 10
370.5172489765071
 20
375.0608530076362
 30
0.0
  0
POINT
  5
23F39
330
23F1C
100
AcDbEntity
  8
DEFPOINTS
 62
     0
440
 16777216
100
AcDbPoint
 10
370.5172489765071
 20
281.7101253128553
 30
0.0
  0
ENDBLK
  5
23F1E
330
23F1C
100
AcDbEntity
  8
0
100
AcDbBlockEnd
  0
BLOCK
  5
23F3C
330
23F3B
100
AcDbEntity
  8
0
100
AcDbBlockBegin
  2
*D33
 70
     1
 10
0.0
 20
0.0
 30
0.0
  3
*D33
  1

  0
LINE
  5
23F59
330
23F3B
100
AcDbEntity
  8
30
 62
     0
440
 16777216
370
    -2
100
AcDbLine
 10
370.5172489765071
 20
372.0608530076362
 30
0.0
 11
370.5172489765071
 21
267.1798234326383
 31
0.0
  0
LINE
  5
23F5A
330
23F3B
100
AcDbEntity
  8
30
 62
     0
440
 16777216
370
    -2
100
AcDbLine
 10
252.0172489765069
 20
410.4697145142361
 30
0.0
 11
252.0172489765069
 21
267.1798234326383
 31
0.0
  0
LINE
  5
23F5B
330
23F3B
100
AcDbEntity
  8
30
 62
     0
440
 16777216
370
    -2
100
AcDbLine
 10
368.5172489765071
 20
267.6798234326383
 30
0.0
 11
254.0172489765069
 21
267.6798234326383
 31
0.0
  0
INSERT
  5
23F5C
330
23F3B
100
AcDbEntity
  8
30
 62
     0
440
 16777216
370
    -2
100
AcDbBlockReference
  2
_OPEN
 10
370.5172489765071
 20
267.6798234326383
 30
0.0
 41
2.0
 42
2.0
 43
2.0
  0
INSERT
  5
23F5D
330
23F3B
100
AcDbEntity
  8
30
 62
     0
440
 16777216
370
    -2
100
AcDbBlockReference
  2
_OPEN
 10
252.0172489765069
 20
267.6798234326383
 30
0.0
 41
2.0
 42
2.0
 43
2.0
 50
180.0
  0
MTEXT
  5
23F5E
330
23F3B
100
AcDbEntity
  8
30
 62
     0
440
 16777216
100
AcDbMText
 10
311.267248976507
 20
272.6798234326383
 30
0.0
 40
6.0
 41
0.0
 46
0.0
 71
     5
 72
     1
  1
\A1;118.5
 73
     1
 44
1.0
  0
POINT
  5
23F5F
330
23F3B
100
AcDbEntity
  8
DEFPOINTS
 62
     0
440
 16777216
100
AcDbPoint
 10
370.5172489765071
 20
375.0608530076362
 30
0.0
  0
POINT
  5
23F60
330
23F3B
100
AcDbEntity
  8
DEFPOINTS
 62
     0
440
 16777216
100
AcDbPoint
 10
252.0172489765069
 20
413.4697145142361
 30
0.0
  0
POINT
  5
23F61
330
23F3B
100
AcDbEntity
  8
DEFPOINTS
 62
     0
440
 16777216
100
AcDbPoint
 10
252.0172489765069
 20
267.6798234326383
 30
0.0
  0
ENDBLK
  5
23F3D
330
23F3B
100
AcDbEntity
  8
0
100
AcDbBlockEnd
  0
ENDSEC
  0
SECTION
  2
ENTITIES
  0
MTEXT
  5
A94C
330
1E
100
AcDbEntity
  8
19
  6
Continuous
 62
     7
100
AcDbMText
 10
325.4105989155
 20
664.6671001651948
 30
0.0
 40
8.0
 41
0.0
 46
0.0
 71
     7
 72
     5
  1
PS125-NF 2P PMC\PPS50-PF 2P PMC\PPS125-PF 2P PMC
  7
blockfont
 73
     1
 44
1.0
  0
LINE
  5
2077E
330
1E
100
AcDbEntity
  8
0
  6
SLD-実線
 62
     7
370
    30
100
AcDbLine
 10
90.5331436481028
 20
467.9314564013615
 30
0.0
 11
90.54187014060273
 21
467.9401847566114
 31
0.0
  0
LINE
  5
2077F
330
1E
100
AcDbEntity
  8
0
  6
SLD-実線
 62
     7
370
    30
100
AcDbLine
 10
90.54187014060273
 20
467.9401847566114
 30
0.0
 11
99.54187068460278
 21
467.9401847566114
 31
0.0
  0
LINE
  5
207A8
330
1E
100
AcDbEntity
  8
0
  6
SLD-実線
 62
     7
370
    30
100
AcDbLine
 10
99.56337678535277
 20
476.9529621148615
 30
0.0
 11
90.52036403985271
 21
476.9529621148615
 31
0.0
  0
CIRCLE
  5
216DE
330
1E
100
AcDbEntity
  8
12
  6
SLD-実線
370
     0
100
AcDbCircle
 10
95.0418705428528
 20
472.4314573551111
 30
0.0
 40
4.332040220405366
  0
DIMENSION
  5
2181F
330
1E
100
AcDbEntity
  8
30
100
AcDbDimension
280
     0
  2
*D3
 10
125.0418716792278
 20
291.3827874193913
 30
0.0
 11
95.04187167922777
 21
291.3827874193913
 31
0.0
 70
   160
  1
<>
 71
     2
 42
60.0
 73
     0
 74
     0
 75
     0
  3
STANDARD1
100
AcDbAlignedDimension
 13
65.04187167922776
 23
351.4697145142363
 33
0.0
 14
125.0418716792278
 24
351.4697145142363
 34
0.0
100
AcDbRotatedDimension
  0
DIMENSION
  5
218EC
330
1E
100
AcDbEntity
  8
30
100
AcDbDimension
280
     0
  2
*D4
 10
36.49166745749614
 20
351.4697145142363
 30
0.0
 11
36.49166745749608
 21
416.4697145142362
 31
0.0
 70
   160
 71
     5
 42
130.0
 73
     0
 74
     0
 75
     0
  3
STANDARD
100
AcDbAlignedDimension
 13
65.04187167922776
 23
481.4697145142361
 33
0.0
 14
65.04187167922776
 24
351.4697145142363
 34
0.0
 50
90.0
100
AcDbRotatedDimension
  0
LWPOLYLINE
  5
2191D
330
1E
100
AcDbEntity
  8
130
100
AcDbPolyline
 90
        4
 70
     1
 43
0.0
 10
65.04187167922776
 20
351.4697145142363
 10
125.0418716792278
 20
351.4697145142363
 10
125.0418716792278
 20
481.4697145142361
 10
65.04187167922776
 20
481.4697145142361
  0
LINE
  5
2243A
330
1E
100
AcDbEntity
  8
12
  6
DASHDOT
100
AcDbLine
 10
89.54187087835276
 20
472.4314580703614
 30
0.0
 11
100.541870878353
 21
472.4314580703614
 31
0.0
  0
LINE
  5
2243B
330
1E
100
AcDbEntity
  8
12
  6
DASHDOT
100
AcDbLine
 10
95.04187087835287
 20
477.9314580703617
 30
0.0
 11
95.04187087835287
 21
466.9314580703614
 31
0.0
  0
LINE
  5
2245C
330
1E
100
AcDbEntity
  8
130
100
AcDbLine
 10
65.04187167922776
 20
467.4697145142364
 30
0.0
 11
125.0418716792278
 21
467.4697145142364
 31
0.0
  0
LWPOLYLINE
  5
22465
330
1E
100
AcDbEntity
  8
130
100
AcDbPolyline
 90
        4
 70
     1
 43
0.0
 10
90.52036403985271
 20
476.9529621148615
 10
99.54187068460278
 20
476.9529621148615
 10
99.54187068460278
 20
467.9401847566114
 10
90.52036403985271
 20
467.9401847566114
  0
LINE
  5
22466
330
1E
100
AcDbEntity
  8
10
  6
SLD-実線
 62
     7
370
    30
100
AcDbLine
 10
71.04186973835277
 20
480.9707104184866
 30
0.0
 11
71.04186973835277
 21
480.9687732674866
 31
0.0
  0
LINE
  5
22468
330
1E
100
AcDbEntity
  8
10
  6
SLD-実線
 62
     7
370
    30
100
AcDbLine
 10
89.54313098760275
 20
481.4697130539865
 30
0.0
 11
89.54071699935282
 21
481.4697130539865
 31
0.0
  0
LINE
  5
22469
330
1E
100
AcDbEntity
  8
10
  6
SLD-実線
 62
     8
370
     0
100
AcDbLine
 10
71.03832326185278
 20
480.9699951627366
 30
0.0
 11
71.04186973835277
 21
480.9707104184866
 31
0.0
  0
LINE
  5
2246A
330
1E
100
AcDbEntity
  8
10
  6
SLD-実線
 62
     8
370
     0
100
AcDbLine
 10
89.54071699935282
 20
481.4697130539865
 30
0.0
 11
89.54534194735281
 21
481.4687817314866
 31
0.0
  0
LINE
  5
2246C
330
1E
100
AcDbEntity
  8
17
100
AcDbLine
 10
80.04187121360272
 20
480.9314573848612
 30
0.0
 11
80.04187121360272
 21
466.9314573848612
 31
0.0
  0
LINE
  5
2246D
330
1E
100
AcDbEntity
  8
17
100
AcDbLine
 10
73.04187121360286
 20
473.9314573848615
 30
0.0
 11
87.04187121360261
 21
473.9314573848615
 31
0.0
  0
LWPOLYLINE
  5
2246E
330
1E
100
AcDbEntity
  8
130
100
AcDbPolyline
 90
       19
 70
     0
 43
0.0
 10
71.02947900542361
 20
470.4696002536869
 10
71.04089483352371
 20
470.2081297952864
 10
71.07505507122382
 20
469.9486530280867
 10
71.13169922922374
 20
469.6931444397867
 10
71.21039578232367
 20
469.4435481901867
 10
71.31054548332364
 20
469.2017633418868
 10
71.43138594452378
 20
468.9696294404867
 10
71.57199745732376
 20
468.7489125440865
 10
71.73130999612365
 20
468.5412918221866
 10
71.90811135502375
 20
468.3483468183863
 10
72.1010563597238
 20
468.1715454612866
 10
72.30867708132362
 20
468.0122329248866
 10
72.52939397632373
 20
467.8716214149868
 10
72.76152787532365
 20
467.7507809565866
 10
73.00331272052384
 20
467.6506312579864
 10
73.25290896692379
 20
467.5719347065865
 10
73.50841755222361
 20
467.5152905496868
 10
73.76789431722378
 20
467.4811303124868
 10
74.02936477462358
 20
467.4697144844866
  0
LINE
  5
2246F
330
1E
100
AcDbEntity
  8
130
100
AcDbLine
 10
71.02947900542361
 20
480.9459623810115
 30
0.0
 11
71.02947900542361
 21
470.4458359657117
 31
0.0
  0
LWPOLYLINE
  5
22470
330
1E
100
AcDbEntity
  8
10
100
AcDbPolyline
 90
       13
 70
     0
 43
0.0
 10
70.52947519742374
 20
481.4459501965114
 10
70.59474127642378
 20
481.4416725184115
 10
70.65888996882375
 20
481.4289127807115
 10
70.72082365062377
 20
481.4078894780114
 10
70.77948266522368
 20
481.3789624967117
 10
70.8338634511238
 20
481.3426269304115
 10
70.88303569972381
 20
481.2995045846117
 10
70.9261582471236
 20
481.2503333240115
 10
70.9624934434236
 20
481.1959544386115
 10
70.99141974432362
 20
481.1372982565115
 10
71.01244232382376
 20
481.0753682396113
 10
71.02520152442379
 20
481.0112238362115
 10
71.02947900542361
 20
480.9459623810115
  0
LWPOLYLINE
  5
22471
330
1E
100
AcDbEntity
  8
130
100
AcDbPolyline
 90
       19
 70
     0
 43
0.0
 10
89.05426342178188
 20
470.4696002536869
 10
89.04284759368179
 20
470.2081297952864
 10
89.00868735598164
 20
469.9486530280867
 10
88.95204319798173
 20
469.6931444397867
 10
88.87334664488182
 20
469.4435481901867
 10
88.77319694388186
 20
469.2017633418868
 10
88.6523564826817
 20
468.9696294404867
 10
88.5117449698817
 20
468.7489125440865
 10
88.35243243108186
 20
468.5412918221866
 10
88.17563107218175
 20
468.3483468183863
 10
87.98268606748171
 20
468.1715454612866
 10
87.77506534588189
 20
468.0122329248866
 10
87.55434845088171
 20
467.8716214149868
 10
87.32221455188184
 20
467.7507809565866
 10
87.08042970668165
 20
467.6506312579864
 10
86.83083346028169
 20
467.5719347065865
 10
86.57532487498187
 20
467.5152905496868
 10
86.31584810998171
 20
467.4811303124868
 10
86.05437765258191
 20
467.4697144844866
  0
LINE
  5
22472
330
1E
100
AcDbEntity
  8
130
100
AcDbLine
 10
89.05426342178188
 20
480.9459623810115
 30
0.0
 11
89.05426342178188
 21
470.4458359657117
 31
0.0
  0
LWPOLYLINE
  5
22473
330
1E
100
AcDbEntity
  8
10
100
AcDbPolyline
 90
       13
 70
     0
 43
0.0
 10
89.55426722978174
 20
481.4459501965114
 10
89.48900115078172
 20
481.4416725184115
 10
89.42485245838176
 20
481.4289127807115
 10
89.36291877658172
 20
481.4078894780114
 10
89.30425976198179
 20
481.3789624967117
 10
89.24987897608168
 20
481.3426269304115
 10
89.20070672748167
 20
481.2995045846117
 10
89.1575841800819
 20
481.2503333240115
 10
89.12124898378189
 20
481.1959544386115
 10
89.09232268288187
 20
481.1372982565115
 10
89.07130010338173
 20
481.0753682396113
 10
89.0585409027817
 20
481.0112238362115
 10
89.05426342178188
 20
480.9459623810115
  0
LINE
  5
22474
330
1E
100
AcDbEntity
  8
130
100
AcDbLine
 10
74.02936477462358
 20
467.4697144844866
 30
0.0
 11
86.05437765258191
 21
467.4697144844866
 31
0.0
  0
CIRCLE
  5
22475
330
1E
100
AcDbEntity
  8
23
100
AcDbCircle
 10
80.04187121360272
 20
473.9314573848613
 30
0.0
 40
3.0
  0
LINE
  5
22476
330
1E
100
AcDbEntity
  8
10
  6
SLD-実線
 62
     7
370
    30
100
AcDbLine
 10
101.0418702039778
 20
480.9707104184866
 30
0.0
 11
101.0418702039778
 21
480.9687732674866
 31
0.0
  0
LINE
  5
22477
330
1E
100
AcDbEntity
  8
10
  6
SLD-実線
 62
     7
370
    30
100
AcDbLine
 10
100.5430240307278
 20
481.4697130539865
 30
0.0
 11
100.5406100424778
 21
481.4697130539865
 31
0.0
  0
LINE
  5
22478
330
1E
100
AcDbEntity
  8
10
  6
SLD-実線
 62
     7
370
    30
100
AcDbLine
 10
119.5431314532277
 20
481.4697130539865
 30
0.0
 11
119.5407174649778
 21
481.4697130539865
 31
0.0
  0
LINE
  5
22479
330
1E
100
AcDbEntity
  8
10
  6
SLD-実線
 62
     8
370
     0
100
AcDbLine
 10
101.0383237274778
 20
480.9699951627366
 30
0.0
 11
101.0418702039778
 21
480.9707104184866
 31
0.0
  0
LINE
  5
2247A
330
1E
100
AcDbEntity
  8
10
  6
SLD-実線
 62
     8
370
     0
100
AcDbLine
 10
119.5407174649778
 20
481.4697130539865
 30
0.0
 11
119.5453424129778
 21
481.4687817314866
 31
0.0
  0
LINE
  5
2247B
330
1E
100
AcDbEntity
  8
10
  6
SLD-実線
 62
     8
370
     0
100
AcDbLine
 10
100.5384009454778
 20
481.4687817314866
 30
0.0
 11
100.5430240307278
 21
481.4697130539865
 31
0.0
  0
LINE
  5
2247C
330
1E
100
AcDbEntity
  8
17
100
AcDbLine
 10
110.0418716792277
 20
480.9314573848612
 30
0.0
 11
110.0418716792277
 21
466.9314573848612
 31
0.0
  0
LINE
  5
2247D
330
1E
100
AcDbEntity
  8
17
100
AcDbLine
 10
103.0418716792279
 20
473.9314573848615
 30
0.0
 11
117.0418716792276
 21
473.9314573848615
 31
0.0
  0
LWPOLYLINE
  5
2247E
330
1E
100
AcDbEntity
  8
130
100
AcDbPolyline
 90
       19
 70
     0
 43
0.0
 10
101.0294794710486
 20
470.4696002536869
 10
101.0408952991487
 20
470.2081297952864
 10
101.0750555368488
 20
469.9486530280867
 10
101.1316996948488
 20
469.6931444397867
 10
101.2103962479487
 20
469.4435481901867
 10
101.3105459489486
 20
469.2017633418868
 10
101.4313864101488
 20
468.9696294404867
 10
101.5719979229487
 20
468.7489125440865
 10
101.7313104617487
 20
468.5412918221866
 10
101.9081118206487
 20
468.3483468183863
 10
102.1010568253488
 20
468.1715454612866
 10
102.3086775469486
 20
468.0122329248866
 10
102.5293944419487
 20
467.8716214149868
 10
102.7615283409486
 20
467.7507809565866
 10
103.0033131861488
 20
467.6506312579864
 10
103.2529094325488
 20
467.5719347065865
 10
103.5084180178486
 20
467.5152905496868
 10
103.7678947828488
 20
467.4811303124868
 10
104.0293652402485
 20
467.4697144844866
  0
LINE
  5
2247F
330
1E
100
AcDbEntity
  8
130
100
AcDbLine
 10
101.0294794710486
 20
480.9459623810115
 30
0.0
 11
101.0294794710486
 21
470.4458359657117
 31
0.0
  0
LWPOLYLINE
  5
22480
330
1E
100
AcDbEntity
  8
10
100
AcDbPolyline
 90
       13
 70
     0
 43
0.0
 10
100.5294756630487
 20
481.4459501965114
 10
100.5947417420488
 20
481.4416725184115
 10
100.6588904344487
 20
481.4289127807115
 10
100.7208241162488
 20
481.4078894780114
 10
100.7794831308487
 20
481.3789624967117
 10
100.8338639167488
 20
481.3426269304115
 10
100.8830361653488
 20
481.2995045846117
 10
100.9261587127486
 20
481.2503333240115
 10
100.9624939090486
 20
481.1959544386115
 10
100.9914202099486
 20
481.1372982565115
 10
101.0124427894488
 20
481.0753682396113
 10
101.0252019900488
 20
481.0112238362115
 10
101.0294794710486
 20
480.9459623810115
  0
LWPOLYLINE
  5
22481
330
1E
100
AcDbEntity
  8
130
100
AcDbPolyline
 90
       19
 70
     0
 43
0.0
 10
119.0542638874069
 20
470.4696002536869
 10
119.0428480593068
 20
470.2081297952864
 10
119.0086878216067
 20
469.9486530280867
 10
118.9520436636067
 20
469.6931444397867
 10
118.8733471105068
 20
469.4435481901867
 10
118.7731974095068
 20
469.2017633418868
 10
118.6523569483067
 20
468.9696294404867
 10
118.5117454355067
 20
468.7489125440865
 10
118.3524328967068
 20
468.5412918221866
 10
118.1756315378067
 20
468.3483468183863
 10
117.9826865331067
 20
468.1715454612866
 10
117.7750658115069
 20
468.0122329248866
 10
117.5543489165068
 20
467.8716214149868
 10
117.3222150175068
 20
467.7507809565866
 10
117.0804301723066
 20
467.6506312579864
 10
116.8308339259067
 20
467.5719347065865
 10
116.5753253406069
 20
467.5152905496868
 10
116.3158485756067
 20
467.4811303124868
 10
116.0543781182069
 20
467.4697144844866
  0
LINE
  5
22482
330
1E
100
AcDbEntity
  8
130
100
AcDbLine
 10
119.0542638874069
 20
480.9459623810115
 30
0.0
 11
119.0542638874069
 21
470.4458359657117
 31
0.0
  0
LWPOLYLINE
  5
22483
330
1E
100
AcDbEntity
  8
10
100
AcDbPolyline
 90
       13
 70
     0
 43
0.0
 10
119.5542676954067
 20
481.4459501965114
 10
119.4890016164067
 20
481.4416725184115
 10
119.4248529240068
 20
481.4289127807115
 10
119.3629192422067
 20
481.4078894780114
 10
119.3042602276068
 20
481.3789624967117
 10
119.2498794417067
 20
481.3426269304115
 10
119.2007071931067
 20
481.2995045846117
 10
119.1575846457069
 20
481.2503333240115
 10
119.1212494494069
 20
481.1959544386115
 10
119.0923231485069
 20
481.1372982565115
 10
119.0713005690067
 20
481.0753682396113
 10
119.0585413684067
 20
481.0112238362115
 10
119.0542638874069
 20
480.9459623810115
  0
LINE
  5
22484
330
1E
100
AcDbEntity
  8
130
100
AcDbLine
 10
104.0293652402485
 20
467.4697144844866
 30
0.0
 11
116.0543781182069
 21
467.4697144844866
 31
0.0
  0
CIRCLE
  5
22485
330
1E
100
AcDbEntity
  8
23
100
AcDbCircle
 10
110.0418716792277
 20
473.9314573848613
 30
0.0
 40
3.0
  0
LWPOLYLINE
  5
22487
330
1E
100
AcDbEntity
  8
10
100
AcDbPolyline
 90
        4
 70
     0
 43
0.0
 10
65.24187327672774
 20
481.4697145142361
 10
65.24187327672774
 20
506.4314599478613
 10
124.8418700819779
 20
506.4314599478613
 10
124.8418700819779
 20
481.4697145142361
  0
CIRCLE
  5
224A0
330
1E
100
AcDbEntity
  8
10
100
AcDbCircle
 10
95.04187167922777
 20
491.9314573848613
 30
0.0
 40
2.5
  0
LWPOLYLINE
  5
224A1
330
1E
100
AcDbEntity
  8
10
100
AcDbPolyline
 90
        4
 70
     1
 43
0.0
 10
92.29187167922777
 20
481.4697145142361
 10
97.79187167922778
 20
481.4697145142361
 10
97.79187167922778
 20
499.4314573848613
 10
92.29187167922777
 20
499.4314573848613
  0
LWPOLYLINE
  5
224B9
330
1E
100
AcDbEntity
  8
10
 62
     4
100
AcDbPolyline
 90
        4
 70
     1
 43
0.0
 10
67.47568625254587
 20
441.5633761977085
 10
122.4805247636424
 20
441.5633761977085
 10
122.4805247636424
 20
391.5615731870176
 10
67.47568625254587
 20
391.5615731870176
  0
LWPOLYLINE
  5
224BA
330
1E
100
AcDbEntity
  8
130
100
AcDbPolyline
 90
        4
 70
     1
 43
0.0
 10
73.35746747899377
 20
403.237554466751
 10
88.32600758529443
 20
403.237554466751
 10
88.32600758529443
 20
430.3961856062609
 10
73.35746747899377
 20
430.3961856062609
  0
LWPOLYLINE
  5
224BB
330
1E
100
AcDbEntity
  8
130
100
AcDbPolyline
 90
        4
 70
     1
 43
0.0
 10
74.44249897788896
 20
427.6480319725949
 10
87.44249897788895
 20
427.6480319725949
 10
87.44249897788895
 20
422.6480319725949
 10
74.44249897788896
 20
422.6480319725949
  0
LWPOLYLINE
  5
224BC
330
1E
100
AcDbEntity
  8
130
100
AcDbPolyline
 90
        4
 70
     1
 43
0.0
 10
69.81872432092153
 20
438.5739337521835
 10
91.86502064003445
 20
438.5739337521835
 10
91.86502064006765
 20
394.3654960463961
 10
69.81871682387847
 20
394.3654960463961
  0
LINE
  5
224CF
330
1E
100
AcDbEntity
  8
0
  6
SLD-実線
 62
     7
370
    30
100
AcDbLine
 10
90.53314525022788
 20
365.478442869486
 30
0.0
 11
90.54187174272785
 21
365.4697145142362
 31
0.0
  0
LINE
  5
224D0
330
1E
100
AcDbEntity
  8
0
  6
SLD-実線
 62
     7
370
    30
100
AcDbLine
 10
90.54187174272785
 20
365.4697145142362
 30
0.0
 11
99.54187228672786
 21
365.4697145142362
 31
0.0
  0
LINE
  5
224D1
330
1E
100
AcDbEntity
  8
0
  6
SLD-実線
 62
     7
370
    30
100
AcDbLine
 10
99.56337838747787
 20
356.456937155986
 30
0.0
 11
90.52036564197781
 21
356.456937155986
 31
0.0
  0
CIRCLE
  5
224D6
330
1E
100
AcDbEntity
  8
12
  6
SLD-実線
370
     0
100
AcDbCircle
 10
95.04187214497791
 20
360.978441915736
 30
0.0
 40
4.332040220405366
  0
LINE
  5
224D8
330
1E
100
AcDbEntity
  8
12
100
AcDbLine
 10
89.54187248047785
 20
360.9784412004862
 30
0.0
 11
100.5418724804781
 21
360.9784412004862
 31
0.0
  0
LINE
  5
224D9
330
1E
100
AcDbEntity
  8
12
100
AcDbLine
 10
95.041872480478
 20
355.4784412004859
 30
0.0
 11
95.041872480478
 21
366.4784412004863
 31
0.0
  0
LINE
  5
224E2
330
1E
100
AcDbEntity
  8
130
100
AcDbLine
 10
65.04187167922776
 20
365.4697145142362
 30
0.0
 11
125.0418716792278
 21
365.4697145142362
 31
0.0
  0
LWPOLYLINE
  5
224E4
330
1E
100
AcDbEntity
  8
130
100
AcDbPolyline
 90
        4
 70
     1
 43
0.0
 10
90.52036564197781
 20
356.456937155986
 10
99.54187228672786
 20
356.456937155986
 10
99.54187228672786
 20
365.4697145142362
 10
90.52036564197781
 20
365.4697145142362
  0
LINE
  5
224E5
330
1E
100
AcDbEntity
  8
10
  6
SLD-実線
 62
     7
370
    30
100
AcDbLine
 10
71.04186973835277
 20
351.968718609986
 30
0.0
 11
71.04186973835277
 21
351.970655760986
 31
0.0
  0
LINE
  5
224E6
330
1E
100
AcDbEntity
  8
10
  6
SLD-実線
 62
     7
370
    30
100
AcDbLine
 10
89.54313098760275
 20
351.469715974486
 30
0.0
 11
89.54071699935282
 21
351.469715974486
 31
0.0
  0
LINE
  5
224E7
330
1E
100
AcDbEntity
  8
10
  6
SLD-実線
 62
     8
370
     0
100
AcDbLine
 10
71.03832326185278
 20
351.9694338657362
 30
0.0
 11
71.04186973835277
 21
351.968718609986
 31
0.0
  0
LINE
  5
224E8
330
1E
100
AcDbEntity
  8
10
  6
SLD-実線
 62
     8
370
     0
100
AcDbLine
 10
89.54071699935282
 20
351.469715974486
 30
0.0
 11
89.54534194735281
 21
351.470647296986
 31
0.0
  0
LINE
  5
224E9
330
1E
100
AcDbEntity
  8
17
100
AcDbLine
 10
80.04187121360272
 20
352.0079716436112
 30
0.0
 11
80.04187121360272
 21
366.0079716436114
 31
0.0
  0
LINE
  5
224EA
330
1E
100
AcDbEntity
  8
17
100
AcDbLine
 10
73.04187121360286
 20
359.0079716436112
 30
0.0
 11
87.04187121360261
 21
359.0079716436112
 31
0.0
  0
LWPOLYLINE
  5
224EB
330
1E
100
AcDbEntity
  8
130
100
AcDbPolyline
 90
       19
 70
     0
 43
0.0
 10
71.02947900542361
 20
362.4698287747857
 10
71.04089483352371
 20
362.731299233186
 10
71.07505507122382
 20
362.990776000386
 10
71.13169922922374
 20
363.2462845886859
 10
71.21039578232367
 20
363.4958808382859
 10
71.31054548332364
 20
363.7376656865858
 10
71.43138594452378
 20
363.9697995879858
 10
71.57199745732376
 20
364.1905164843862
 10
71.73130999612365
 20
364.3981372062859
 10
71.90811135502375
 20
364.5910822100861
 10
72.1010563597238
 20
364.767883567186
 10
72.30867708132362
 20
364.927196103586
 10
72.52939397632373
 20
365.0678076134858
 10
72.76152787532365
 20
365.1886480718861
 10
73.00331272052384
 20
365.2887977704862
 10
73.25290896692379
 20
365.3674943218859
 10
73.50841755222361
 20
365.4241384787858
 10
73.76789431722378
 20
365.4582987159859
 10
74.02936477462358
 20
365.469714543986
  0
LINE
  5
224EC
330
1E
100
AcDbEntity
  8
130
100
AcDbLine
 10
71.02947900542361
 20
351.9934666474611
 30
0.0
 11
71.02947900542361
 21
362.493593062761
 31
0.0
  0
LWPOLYLINE
  5
224ED
330
1E
100
AcDbEntity
  8
10
100
AcDbPolyline
 90
       13
 70
     0
 43
0.0
 10
70.52947519742374
 20
351.4934788319613
 10
70.59474127642378
 20
351.4977565100611
 10
70.65888996882375
 20
351.510516247761
 10
70.72082365062377
 20
351.5315395504613
 10
70.77948266522368
 20
351.560466531761
 10
70.8338634511238
 20
351.5968020980611
 10
70.88303569972381
 20
351.639924443861
 10
70.9261582471236
 20
351.6890957044612
 10
70.9624934434236
 20
351.7434745898611
 10
70.99141974432362
 20
351.8021307719612
 10
71.01244232382376
 20
351.8640607888613
 10
71.02520152442379
 20
351.9282051922612
 10
71.02947900542361
 20
351.9934666474611
  0
LWPOLYLINE
  5
224EE
330
1E
100
AcDbEntity
  8
130
100
AcDbPolyline
 90
       19
 70
     0
 43
0.0
 10
89.05426342178188
 20
362.4698287747857
 10
89.04284759368179
 20
362.731299233186
 10
89.00868735598164
 20
362.990776000386
 10
88.95204319798173
 20
363.2462845886859
 10
88.87334664488182
 20
363.4958808382859
 10
88.77319694388186
 20
363.7376656865858
 10
88.6523564826817
 20
363.9697995879858
 10
88.5117449698817
 20
364.1905164843862
 10
88.35243243108186
 20
364.3981372062859
 10
88.17563107218175
 20
364.5910822100861
 10
87.98268606748171
 20
364.767883567186
 10
87.77506534588189
 20
364.927196103586
 10
87.55434845088171
 20
365.0678076134858
 10
87.32221455188184
 20
365.1886480718861
 10
87.08042970668165
 20
365.2887977704862
 10
86.83083346028169
 20
365.3674943218859
 10
86.57532487498187
 20
365.4241384787858
 10
86.31584810998171
 20
365.4582987159859
 10
86.05437765258191
 20
365.469714543986
  0
LINE
  5
224EF
330
1E
100
AcDbEntity
  8
130
100
AcDbLine
 10
89.05426342178188
 20
351.9934666474611
 30
0.0
 11
89.05426342178188
 21
362.493593062761
 31
0.0
  0
LWPOLYLINE
  5
224F0
330
1E
100
AcDbEntity
  8
10
100
AcDbPolyline
 90
       13
 70
     0
 43
0.0
 10
89.55426722978174
 20
351.4934788319613
 10
89.48900115078172
 20
351.4977565100611
 10
89.42485245838176
 20
351.510516247761
 10
89.36291877658172
 20
351.5315395504613
 10
89.30425976198179
 20
351.560466531761
 10
89.24987897608168
 20
351.5968020980611
 10
89.20070672748167
 20
351.639924443861
 10
89.1575841800819
 20
351.6890957044612
 10
89.12124898378189
 20
351.7434745898611
 10
89.09232268288187
 20
351.8021307719612
 10
89.07130010338173
 20
351.8640607888613
 10
89.0585409027817
 20
351.9282051922612
 10
89.05426342178188
 20
351.9934666474611
  0
LINE
  5
224F1
330
1E
100
AcDbEntity
  8
130
100
AcDbLine
 10
74.02936477462358
 20
365.469714543986
 30
0.0
 11
86.05437765258191
 21
365.469714543986
 31
0.0
  0
CIRCLE
  5
224F2
330
1E
100
AcDbEntity
  8
23
100
AcDbCircle
 10
80.04187121360272
 20
359.0079716436112
 30
0.0
 40
3.0
  0
LINE
  5
224F3
330
1E
100
AcDbEntity
  8
10
  6
SLD-実線
 62
     7
370
    30
100
AcDbLine
 10
101.0418702039778
 20
351.968718609986
 30
0.0
 11
101.0418702039778
 21
351.970655760986
 31
0.0
  0
LINE
  5
224F4
330
1E
100
AcDbEntity
  8
10
  6
SLD-実線
 62
     7
370
    30
100
AcDbLine
 10
100.5430240307278
 20
351.469715974486
 30
0.0
 11
100.5406100424778
 21
351.469715974486
 31
0.0
  0
LINE
  5
224F5
330
1E
100
AcDbEntity
  8
10
  6
SLD-実線
 62
     7
370
    30
100
AcDbLine
 10
119.5431314532277
 20
351.469715974486
 30
0.0
 11
119.5407174649778
 21
351.469715974486
 31
0.0
  0
LINE
  5
224F6
330
1E
100
AcDbEntity
  8
10
  6
SLD-実線
 62
     8
370
     0
100
AcDbLine
 10
101.0383237274778
 20
351.9694338657362
 30
0.0
 11
101.0418702039778
 21
351.968718609986
 31
0.0
  0
LINE
  5
224F7
330
1E
100
AcDbEntity
  8
10
  6
SLD-実線
 62
     8
370
     0
100
AcDbLine
 10
119.5407174649778
 20
351.469715974486
 30
0.0
 11
119.5453424129778
 21
351.470647296986
 31
0.0
  0
LINE
  5
224F8
330
1E
100
AcDbEntity
  8
10
  6
SLD-実線
 62
     8
370
     0
100
AcDbLine
 10
100.5384009454778
 20
351.470647296986
 30
0.0
 11
100.5430240307278
 21
351.469715974486
 31
0.0
  0
LINE
  5
224F9
330
1E
100
AcDbEntity
  8
17
100
AcDbLine
 10
110.0418716792277
 20
352.0079716436112
 30
0.0
 11
110.0418716792277
 21
366.0079716436114
 31
0.0
  0
LINE
  5
224FA
330
1E
100
AcDbEntity
  8
17
100
AcDbLine
 10
103.0418716792279
 20
359.0079716436112
 30
0.0
 11
117.0418716792276
 21
359.0079716436112
 31
0.0
  0
LWPOLYLINE
  5
224FB
330
1E
100
AcDbEntity
  8
130
100
AcDbPolyline
 90
       19
 70
     0
 43
0.0
 10
101.0294794710486
 20
362.4698287747857
 10
101.0408952991487
 20
362.731299233186
 10
101.0750555368488
 20
362.990776000386
 10
101.1316996948488
 20
363.2462845886859
 10
101.2103962479487
 20
363.4958808382859
 10
101.3105459489486
 20
363.7376656865858
 10
101.4313864101488
 20
363.9697995879858
 10
101.5719979229487
 20
364.1905164843862
 10
101.7313104617487
 20
364.3981372062859
 10
101.9081118206487
 20
364.5910822100861
 10
102.1010568253488
 20
364.767883567186
 10
102.3086775469486
 20
364.927196103586
 10
102.5293944419487
 20
365.0678076134858
 10
102.7615283409486
 20
365.1886480718861
 10
103.0033131861488
 20
365.2887977704862
 10
103.2529094325488
 20
365.3674943218859
 10
103.5084180178486
 20
365.4241384787858
 10
103.7678947828488
 20
365.4582987159859
 10
104.0293652402485
 20
365.469714543986
  0
LINE
  5
224FC
330
1E
100
AcDbEntity
  8
130
100
AcDbLine
 10
101.0294794710486
 20
351.9934666474611
 30
0.0
 11
101.0294794710486
 21
362.493593062761
 31
0.0
  0
LWPOLYLINE
  5
224FD
330
1E
100
AcDbEntity
  8
10
100
AcDbPolyline
 90
       13
 70
     0
 43
0.0
 10
100.5294756630487
 20
351.4934788319613
 10
100.5947417420488
 20
351.4977565100611
 10
100.6588904344487
 20
351.510516247761
 10
100.7208241162488
 20
351.5315395504613
 10
100.7794831308487
 20
351.560466531761
 10
100.8338639167488
 20
351.5968020980611
 10
100.8830361653488
 20
351.639924443861
 10
100.9261587127486
 20
351.6890957044612
 10
100.9624939090486
 20
351.7434745898611
 10
100.9914202099486
 20
351.8021307719612
 10
101.0124427894488
 20
351.8640607888613
 10
101.0252019900488
 20
351.9282051922612
 10
101.0294794710486
 20
351.9934666474611
  0
LWPOLYLINE
  5
224FE
330
1E
100
AcDbEntity
  8
130
100
AcDbPolyline
 90
       19
 70
     0
 43
0.0
 10
119.0542638874069
 20
362.4698287747857
 10
119.0428480593068
 20
362.731299233186
 10
119.0086878216067
 20
362.990776000386
 10
118.9520436636067
 20
363.2462845886859
 10
118.8733471105068
 20
363.4958808382859
 10
118.7731974095068
 20
363.7376656865858
 10
118.6523569483067
 20
363.9697995879858
 10
118.5117454355067
 20
364.1905164843862
 10
118.3524328967068
 20
364.3981372062859
 10
118.1756315378067
 20
364.5910822100861
 10
117.9826865331067
 20
364.767883567186
 10
117.7750658115069
 20
364.927196103586
 10
117.5543489165068
 20
365.0678076134858
 10
117.3222150175068
 20
365.1886480718861
 10
117.0804301723066
 20
365.2887977704862
 10
116.8308339259067
 20
365.3674943218859
 10
116.5753253406069
 20
365.4241384787858
 10
116.3158485756067
 20
365.4582987159859
 10
116.0543781182069
 20
365.469714543986
  0
LINE
  5
224FF
330
1E
100
AcDbEntity
  8
130
100
AcDbLine
 10
119.0542638874069
 20
351.9934666474611
 30
0.0
 11
119.0542638874069
 21
362.493593062761
 31
0.0
  0
LWPOLYLINE
  5
22500
330
1E
100
AcDbEntity
  8
10
100
AcDbPolyline
 90
       13
 70
     0
 43
0.0
 10
119.5542676954067
 20
351.4934788319613
 10
119.4890016164067
 20
351.4977565100611
 10
119.4248529240068
 20
351.510516247761
 10
119.3629192422067
 20
351.5315395504613
 10
119.3042602276068
 20
351.560466531761
 10
119.2498794417067
 20
351.5968020980611
 10
119.2007071931067
 20
351.639924443861
 10
119.1575846457069
 20
351.6890957044612
 10
119.1212494494069
 20
351.7434745898611
 10
119.0923231485069
 20
351.8021307719612
 10
119.0713005690067
 20
351.8640607888613
 10
119.0585413684067
 20
351.9282051922612
 10
119.0542638874069
 20
351.9934666474611
  0
LINE
  5
22501
330
1E
100
AcDbEntity
  8
130
100
AcDbLine
 10
104.0293652402485
 20
365.469714543986
 30
0.0
 11
116.0543781182069
 21
365.469714543986
 31
0.0
  0
CIRCLE
  5
22502
330
1E
100
AcDbEntity
  8
23
100
AcDbCircle
 10
110.0418716792277
 20
359.0079716436112
 30
0.0
 40
3.0
  0
LWPOLYLINE
  5
22503
330
1E
100
AcDbEntity
  8
10
100
AcDbPolyline
 90
        4
 70
     0
 43
0.0
 10
65.24187327672774
 20
351.4697145142363
 10
65.24187327672774
 20
326.5079690806112
 10
124.8418700819779
 20
326.5079690806112
 10
124.8418700819779
 20
351.4697145142363
  0
CIRCLE
  5
22507
330
1E
100
AcDbEntity
  8
10
100
AcDbCircle
 10
95.04187167922777
 20
341.0079716436113
 30
0.0
 40
2.5
  0
LWPOLYLINE
  5
22508
330
1E
100
AcDbEntity
  8
10
100
AcDbPolyline
 90
        4
 70
     1
 43
0.0
 10
92.29187167922777
 20
351.4697145142363
 10
97.79187167922778
 20
351.4697145142363
 10
97.79187167922778
 20
333.5079716436113
 10
92.29187167922777
 20
333.5079716436113
  0
LINE
  5
228B0
330
1E
100
AcDbEntity
  8
18
100
AcDbLine
 10
65.04187167922776
 20
234.9657427111929
 30
0.0
 11
125.0418716792278
 21
234.9657427111929
 31
0.0
  0
LINE
  5
228B1
330
1E
100
AcDbEntity
  8
18
100
AcDbLine
 10
65.04187167922776
 20
234.9657427111929
 30
0.0
 11
65.04187167922776
 21
54.96574271119285
 31
0.0
  0
LINE
  5
228B2
330
1E
100
AcDbEntity
  8
18
100
AcDbLine
 10
65.04187167922776
 20
54.96574271119285
 30
0.0
 11
125.0418716792278
 21
54.96574271119285
 31
0.0
  0
LINE
  5
228B3
330
1E
100
AcDbEntity
  8
18
100
AcDbLine
 10
125.0418716792278
 20
234.9657427111929
 30
0.0
 11
125.0418716792278
 21
54.96574271119285
 31
0.0
  0
LINE
  5
228B4
330
1E
100
AcDbEntity
  8
12
100
AcDbLine
 10
60.04187167922776
 20
184.9657427111928
 30
0.0
 11
130.0418716792277
 21
184.9657427111928
 31
0.0
  0
LINE
  5
228B5
330
1E
100
AcDbEntity
  8
12
100
AcDbLine
 10
60.04187167922776
 20
144.9657427111929
 30
0.0
 11
130.0418716792277
 21
144.9657427111929
 31
0.0
  0
LINE
  5
228B6
330
1E
100
AcDbEntity
  8
12
100
AcDbLine
 10
60.04187167922776
 20
104.9657427111928
 30
0.0
 11
130.0418716792277
 21
104.9657427111928
 31
0.0
  0
LINE
  5
228B7
330
1E
100
AcDbEntity
  8
12
  6
HIDDEN
100
AcDbLine
 10
59.57247744847784
 20
181.7657427111928
 30
0.0
 11
129.6380576937278
 21
181.7657427111928
 31
0.0
  0
LINE
  5
228B8
330
1E
100
AcDbEntity
  8
12
  6
HIDDEN
100
AcDbLine
 10
60.64020354947769
 20
108.1657427111928
 30
0.0
 11
130.7150005232276
 21
108.1657427111928
 31
0.0
  0
LINE
  5
228B9
330
1E
100
AcDbEntity
  8
16
100
AcDbLine
 10
96.64187167922769
 20
238.5037606374337
 30
0.0
 11
96.64187167922769
 21
50.08677734194288
 31
0.0
  0
CIRCLE
  5
228BE
330
1E
100
AcDbEntity
  8
12
100
AcDbCircle
 10
96.64187167922777
 20
170.9657427111928
 30
0.0
 40
3.000000000000308
  0
CIRCLE
  5
228BF
330
1E
100
AcDbEntity
  8
12
100
AcDbCircle
 10
96.64187167922777
 20
118.9657427111928
 30
0.0
 40
3.000000000000308
  0
DIMENSION
  5
228C2
330
1E
100
AcDbEntity
  8
30
100
AcDbDimension
280
     0
  2
*D5
 10
66.04187167922799
 20
39.72374630477356
 30
0.0
 11
95.04187167922786
 21
39.72374630477356
 31
0.0
 70
   160
  1
<>
 71
     2
 42
57.99999999999977
 73
     0
 74
     0
 75
     0
  3
STANDARD1
100
AcDbAlignedDimension
 13
124.0418716792277
 23
126.9657427111928
 33
0.0
 14
66.04187167922799
 24
126.9657427111928
 34
0.0
100
AcDbRotatedDimension
  0
INSERT
  5
228C5
330
1E
100
AcDbEntity
  8
12
  6
DASHDOT
100
AcDbBlockReference
  2
SW_CENTERMARKSYMBOL_5
 10
96.64187167922777
 20
118.9657427111928
 30
0.0
 41
2.5
 42
2.5
 43
2.5
  0
INSERT
  5
228C6
330
1E
100
AcDbEntity
  8
12
  6
DASHDOT
100
AcDbBlockReference
  2
SW_CENTERMARKSYMBOL_6
 10
96.64187167922777
 20
170.9657427111928
 30
0.0
 41
2.5
 42
2.5
 43
2.5
  0
LWPOLYLINE
  5
229FD
330
1E
100
AcDbEntity
  8
12
100
AcDbPolyline
 90
        4
 70
     1
 43
0.0
 10
66.04187167922799
 20
126.9657427111928
 10
66.04187167922799
 20
162.9657427111929
 10
124.0418716792277
 20
162.9657427111929
 10
124.0418716792277
 20
126.9657427111928
  0
DIMENSION
  5
22A01
330
1E
100
AcDbEntity
  8
30
100
AcDbDimension
280
     0
  2
*D6
 10
41.13066264347795
 20
162.9657427111929
 30
0.0
 11
41.13066264347793
 21
144.9657427111929
 31
0.0
 70
   160
  1
<>
 71
     2
 42
36.00000000000004
 73
     0
 74
     0
 75
     0
  3
STANDARD
100
AcDbAlignedDimension
 13
66.04187167922799
 23
126.9657427111928
 33
0.0
 14
66.04187167922799
 24
162.9657427111929
 34
0.0
 50
90.0
100
AcDbRotatedDimension
  0
DIMENSION
  5
22A02
330
1E
100
AcDbEntity
  8
30
100
AcDbDimension
280
     0
  2
*D7
 10
23.93313209770596
 20
118.9657427111928
 30
0.0
 11
23.93313209770594
 21
144.9657427111929
 31
0.0
 70
   160
  1
<>
 71
     2
 42
52.00000000000001
 73
     0
 74
     0
 75
     0
  3
STANDARD
100
AcDbAlignedDimension
 13
85.79187167922777
 23
170.9657427111928
 33
0.0
 14
85.79187167922777
 24
118.9657427111928
 34
0.0
 50
90.0
100
AcDbRotatedDimension
  0
MTEXT
  5
22A04
330
1E
100
AcDbEntity
  8
30
  6
Continuous
100
AcDbMText
 10
136.7036289144714
 20
72.43194078870664
 30
0.0
 40
5.0
 41
58.0
 46
0.0
 71
     1
 72
     5
  1
Mounting plate
  7
blockfont
 73
     1
 44
1.0
  0
LEADER
  5
22A05
330
1E
100
AcDbEntity
  8
30
100
AcDbLeader
  3
STANDARD1
 76
     3
 10
115.7036289144714
 20
104.4319407887066
 30
0.0
 10
135.7036289144714
 20
64.43194078870664
 30
0.0
 10
196.7036289144714
 20
64.43194078870664
 30
0.0
211
-1.0
221
0.0
231
0.0
210
0.0
220
0.0
230
-1.0
1001
ACAD
1000
DSTYLE
1002
{
1070
   147
1040
2.0
1070
    77
1070
     0
1002
}
  0
LINE
  5
22AD4
330
1E
100
AcDbEntity
  8
16
100
AcDbLine
 10
80.84187248047799
 20
508.5872985845285
 30
0.0
 11
80.84187167922776
 21
323.5079690806113
 31
0.0
  0
DIMENSION
  5
22BC8
330
1E
100
AcDbEntity
  8
30
100
AcDbDimension
280
     0
  2
*D8
 10
80.84187167922776
 20
309.3720302772435
 30
0.0
 11
110.3263189667117
 21
309.3720302772435
 31
0.0
 70
   160
 71
     5
 42
14.20000000012506
 73
     0
 74
     0
 75
     0
  3
STANDARD1
100
AcDbAlignedDimension
 13
95.04187167935283
 23
321.838998935171
 33
0.0
 14
80.84187167922776
 24
321.838998935171
 34
0.0
100
AcDbRotatedDimension
  0
DIMENSION
  5
22BEA
330
1E
100
AcDbEntity
  8
30
100
AcDbDimension
280
     0
  2
*D9
 10
65.04187167922776
 20
309.3691779628343
 30
0.0
 11
53.04187167922776
 21
314.3691779628343
 31
0.0
 70
    32
 71
     5
 42
15.8
 73
     0
 74
     0
 75
     0
  3
STANDARD1
100
AcDbAlignedDimension
 13
80.84187167922776
 23
321.838998935171
 33
0.0
 14
65.04187167922776
 24
346.8007443687961
 34
0.0
100
AcDbRotatedDimension
  0
LINE
  5
22C02
330
1E
100
AcDbEntity
  8
16
100
AcDbLine
 10
56.26931836781881
 20
415.7667006342662
 30
0.0
 11
126.2693183678188
 21
415.7667006342662
 31
0.0
  0
LINE
  5
22C03
330
1E
100
AcDbEntity
  8
16
100
AcDbLine
 10
95.04187248047804
 20
509.3047185605071
 30
0.0
 11
95.04187248047804
 21
320.8877352650163
 31
0.0
  0
LINE
  5
22E87
330
1E
100
AcDbEntity
  8
130
100
AcDbLine
 10
279.517248976507
 20
380.3243440604863
 30
0.0
 11
279.517248976507
 21
465.4519547737363
 31
0.0
  0
LINE
  5
22E89
330
1E
100
AcDbEntity
  8
130
100
AcDbLine
 10
270.2145285490071
 20
438.8073355919863
 30
0.0
 11
275.517255771507
 21
438.8998941547363
 31
0.0
  0
SPLINE
  5
22E8A
330
1E
100
AcDbEntity
  8
130
100
AcDbSpline
210
0.0
220
0.0
230
1.0
 70
     8
 71
     3
 72
    11
 73
     7
 74
     0
 42
0.000000001
 43
0.0000000001
 40
0.0
 40
0.0
 40
0.0
 40
0.0
 40
0.2500057960785421
 40
0.5000069977228378
 40
0.750000840406983
 40
1.0
 40
1.0
 40
1.0
 40
1.0
 10
270.2145285489789
 20
394.1320934362478
 30
0.0
 10
270.1652430087799
 20
394.1382800817428
 30
0.0
 10
270.066672834117
 20
394.1506532590391
 30
0.0
 10
269.9409908025711
 20
394.2354021594397
 30
0.0
 10
269.8493631909122
 20
394.3561591594884
 30
0.0
 10
269.8315099976521
 20
394.4538826532888
 30
0.0
 10
269.8225833060971
 20
394.5027449197837
 30
0.0
  0
SPLINE
  5
22E8B
330
1E
100
AcDbEntity
  8
130
100
AcDbSpline
210
0.0
220
0.0
230
1.0
 70
     8
 71
     3
 72
    11
 73
     7
 74
     0
 42
0.000000001
 43
0.0000000001
 40
0.0
 40
0.0
 40
0.0
 40
0.0
 40
0.2499991595930171
 40
0.4999930022771621
 40
0.7499942039214579
 40
1.0
 40
1.0
 40
1.0
 40
1.0
 10
269.8225833060971
 20
438.4366841085023
 30
0.0
 10
269.8315099976521
 20
438.4855463749967
 30
0.0
 10
269.849363190912
 20
438.5832698687975
 30
0.0
 10
269.9409908025711
 20
438.7040268688457
 30
0.0
 10
270.066672834117
 20
438.7887757692467
 30
0.0
 10
270.1652430087799
 20
438.8011489465426
 30
0.0
 10
270.2145285489789
 20
438.8073355920376
 30
0.0
  0
SPLINE
  5
22E8C
330
1E
100
AcDbEntity
  8
130
100
AcDbSpline
210
0.0
220
0.0
230
1.0
 70
     8
 71
     3
 72
    10
 73
     6
 74
     0
 42
0.000000001
 43
0.0000000001
 40
0.0302924631225461
 40
0.0302924631225461
 40
0.0302924631225461
 40
0.0302924631225461
 40
0.3332883909884352
 40
0.6666216714159856
 40
1.0
 40
1.0
 40
1.0
 40
1.0
 10
269.8225833060971
 20
394.5027449197837
 30
0.0
 10
269.2344435333831
 20
405.6580568296046
 30
0.0
 10
268.932547081264
 20
413.6613569578353
 30
0.0
 10
269.0589290358088
 20
425.8720900682641
 30
0.0
 10
269.5680204166265
 20
434.2482974414572
 30
0.0
 10
269.8225833060971
 20
438.4366841085023
 30
0.0
  0
LINE
  5
22E8D
330
1E
100
AcDbEntity
  8
0
  6
SLD-実線
 62
     7
370
    30
100
AcDbLine
 10
348.0172526957571
 20
458.4723402774861
 30
0.0
 11
348.0172526957571
 21
500.4543726362363
 31
0.0
  0
LINE
  5
22E8E
330
1E
100
AcDbEntity
  8
0
  6
SLD-実線
 62
     7
370
    30
100
AcDbLine
 10
352.233321178257
 20
506.4697180904864
 30
0.0
 11
390.0235637012569
 21
506.4697180904864
 31
0.0
  0
LINE
  5
22E8F
330
1E
100
AcDbEntity
  8
10
  6
SLD-実線
 62
     7
370
    30
100
AcDbLine
 10
402.0036093475066
 20
326.4697109379863
 30
0.0
 11
401.032567727757
 21
326.4697109379863
 31
0.0
  0
ELLIPSE
  5
22E90
330
1E
100
AcDbEntity
  8
10
  6
SLD-実線
 62
     7
370
    30
100
AcDbEllipse
 10
401.0325684960068
 20
326.9697145142363
 30
0.0
 11
0.0
 21
0.5000000000000428
 31
0.0
210
0.0
220
0.0
230
1.0
 40
0.0104723583
 41
3.141592653589781
 42
3.152064629115631
  0
LINE
  5
22E91
330
1E
100
AcDbEntity
  8
10
  6
SLD-実線
 62
     7
370
    30
100
AcDbLine
 10
348.0172526957571
 20
332.4850563919864
 30
0.0
 11
348.0172526957571
 21
374.4670887507361
 31
0.0
  0
LINE
  5
22E92
330
1E
100
AcDbEntity
  8
10
  6
SLD-実線
 62
     7
370
    30
100
AcDbLine
 10
402.0224630417569
 20
326.4697109379863
 30
0.0
 11
402.0036093475066
 21
326.4697109379863
 31
0.0
  0
LINE
  5
22E93
330
1E
100
AcDbEntity
  8
10
  6
SLD-実線
 62
     7
370
    30
100
AcDbLine
 10
401.032567727757
 20
326.4697109379863
 30
0.0
 11
401.0235637012566
 21
326.4697109379863
 31
0.0
  0
LINE
  5
22E94
330
1E
100
AcDbEntity
  8
10
  6
SLD-実線
 62
     7
370
    30
100
AcDbLine
 10
348.0172526957571
 20
332.4645076907363
 30
0.0
 11
348.0172526957571
 21
332.4850563919864
 31
0.0
  0
LINE
  5
22E95
330
1E
100
AcDbEntity
  8
10
  6
SLD-実線
 62
     7
370
    30
100
AcDbLine
 10
352.233321178257
 20
326.4697109379863
 30
0.0
 11
352.216993230757
 21
326.4697109379863
 31
0.0
  0
LINE
  5
22E96
330
1E
100
AcDbEntity
  8
10
  6
SLD-実線
 62
     7
370
    30
100
AcDbLine
 10
405.512043047257
 20
326.4697109379863
 30
0.0
 11
402.0224630417569
 21
326.4697109379863
 31
0.0
  0
LINE
  5
22E97
330
1E
100
AcDbEntity
  8
10
100
AcDbLine
 10
348.0172526957571
 20
326.9697119512364
 30
0.0
 11
348.0172526957571
 21
332.4645076907363
 31
0.0
  0
ARC
  5
22E9D
330
1E
100
AcDbEntity
  8
30
100
AcDbCircle
 10
345.0919057138583
 20
410.0729776181466
 30
0.0
 40
93.13661765555504
100
AcDbArc
 50
167.6524521723353
 51
177.9099320698289
  0
DIMENSION
  5
22E9E
330
1E
100
AcDbEntity
  8
30
100
AcDbDimension
280
     0
  2
*D10
 10
427.8070527400881
 20
326.4697145142363
 30
0.0
 11
427.8070527400881
 21
416.4697145142362
 31
0.0
 70
   160
  1
<>
 71
     2
 42
180.0
 73
     0
 74
     0
 75
     0
  3
STANDARD
100
AcDbAlignedDimension
 13
395.017252672007
 23
506.4697145142361
 33
0.0
 14
395.017252672007
 24
326.4697145142363
 34
0.0
 50
90.0
100
AcDbRotatedDimension
  0
LINE
  5
22E9F
330
1E
100
AcDbEntity
  8
16
100
AcDbLine
 10
385.4865322045029
 20
416.4697145142362
 30
0.0
 11
264.7196588507572
 21
416.4697145142362
 31
0.0
  0
LWPOLYLINE
  5
22EA0
330
1E
100
AcDbEntity
  8
10
100
AcDbPolyline
 90
        4
 70
     1
 43
0.0
 10
348.0172526957571
 20
374.9670827884863
 10
406.5279533622291
 20
374.9670827884863
 10
406.5279533622291
 20
326.4697145142363
 10
348.0172526957571
 20
326.4697109379863
  0
LWPOLYLINE
  5
22EA1
330
1E
100
AcDbEntity
  8
10
100
AcDbPolyline
 90
        7
 70
     1
 43
0.0
 10
348.5380868064205
 20
506.4697180904864
 10
394.8717304505475
 20
506.4697180904864
 42
-0.4142135623730951
 10
395.3717304505475
 20
505.9697180904863
 10
395.3717304505475
 20
458.9212267848073
 42
-0.4144723488679106
 10
394.8712887148484
 20
458.4212269799378
 10
348.017252672007
 20
458.4723393859863
 10
348.0380868545209
 20
505.9699374087402
 42
-0.4140850945452041
  0
LINE
  5
22EAE
330
1E
100
AcDbEntity
  8
130
100
AcDbLine
 10
275.517255771507
 20
441.3998936332363
 30
0.0
 11
279.517248976507
 21
441.3998936332363
 31
0.0
  0
LINE
  5
22EAF
330
1E
100
AcDbEntity
  8
130
100
AcDbLine
 10
275.517255771507
 20
391.5395353952364
 30
0.0
 11
279.517248976507
 21
391.5395353952364
 31
0.0
  0
LINE
  5
22EB0
330
1E
100
AcDbEntity
  8
130
100
AcDbLine
 10
270.2145285490071
 20
394.1320934364863
 30
0.0
 11
275.517255771507
 21
394.0395348737363
 31
0.0
  0
DIMENSION
  5
22EB2
330
1E
100
AcDbEntity
  8
30
100
AcDbDimension
280
     0
  2
*D11
 10
236.517248976507
 20
391.4697145142363
 30
0.0
 11
236.517248976507
 21
417.227891051836
 31
0.0
 70
   160
 71
     5
 42
50.0
 73
     0
 74
     0
 75
     0
  3
STANDARD
100
AcDbAlignedDimension
 13
275.517248976507
 23
441.4697145142362
 33
0.0
 14
275.517248976507
 24
391.4697145142363
 34
0.0
 50
270.0
100
AcDbRotatedDimension
  0
DIMENSION
  5
22EB5
330
1E
100
AcDbEntity
  8
30
100
AcDbDimension
280
     0
  2
*D13
 10
287.517248976507
 20
311.4697145142363
 30
0.0
 11
317.517248976507
 21
316.4697145142363
 31
0.0
 70
    32
 71
     5
 42
60.0
 73
     0
 74
     0
 75
     0
  3
STANDARD1
100
AcDbAlignedDimension
 13
347.5172489765071
 23
351.4697145142363
 33
0.0
 14
287.517248976507
 24
367.4697145142364
 34
0.0
100
AcDbRotatedDimension
  0
DIMENSION
  5
22EB9
330
1E
100
AcDbEntity
  8
30
100
AcDbDimension
280
     0
  2
*D15
 10
275.517248976507
 20
281.7101253128553
 30
0.0
 11
260.517248976507
 21
281.7101253128553
 31
0.0
 70
   160
 71
     5
 42
6.499999999999772
 73
     0
 74
     0
 75
     0
  3
STANDARD1
100
AcDbAlignedDimension
 13
269.0172489765072
 23
416.4697145142362
 33
0.0
 14
275.517248976507
 24
391.4697145142363
 34
0.0
100
AcDbRotatedDimension
1001
ACAD
1000
DSTYLE
1002
{
1070
   279
1070
     1
1002
}
  0
LWPOLYLINE
  5
22EBB
330
1E
100
AcDbEntity
  8
131
 62
     4
100
AcDbPolyline
 90
       13
 70
     0
 43
0.0
 10
385.5172489765071
 20
376.5608530076363
 10
375.5172489765071
 20
376.5608530076363
 42
-0.4142135623730951
 10
370.5172489765071
 20
381.5608530076362
 10
370.5172489765071
 20
451.5608530076361
 42
-0.4142135623730951
 10
375.5172489765071
 20
456.5608530076363
 10
385.5172489765071
 20
456.5608530076363
 10
385.5172489765071
 20
453.3608530076362
 10
374.7172489765072
 20
453.3608530076362
 42
0.4142135623730951
 10
373.7172489765072
 20
452.3608530076358
 10
373.7172489765072
 20
380.7608530076363
 42
0.4142135623730951
 10
374.7172489765072
 20
379.7608530076364
 10
385.5172489765071
 20
379.7608530076364
 10
385.5172489765071
 20
376.5608530076363
  0
LINE
  5
22EBC
330
1E
100
AcDbEntity
  8
10
100
AcDbLine
 10
370.5172489765071
 20
375.0608530076363
 30
0.0
 11
359.517248976507
 21
375.0608530076363
 31
0.0
  0
LINE
  5
22EBD
330
1E
100
AcDbEntity
  8
11
  6
Continuous
 62
    11
100
AcDbLine
 10
375.0172489765071
 20
385.8509123608361
 30
0.0
 11
379.5172489765071
 21
385.8509123608361
 31
0.0
  0
LINE
  5
22EBE
330
1E
100
AcDbEntity
  8
11
  6
Continuous
 62
    11
100
AcDbLine
 10
375.0172489765071
 20
385.8697145142363
 30
0.0
 11
373.7172489765072
 21
385.8697145142363
 31
0.0
  0
LINE
  5
22EBF
330
1E
100
AcDbEntity
  8
11
  6
Continuous
 62
    11
100
AcDbLine
 10
385.1172489765073
 20
387.9697145142362
 30
0.0
 11
379.5172489765071
 21
387.9697145142362
 31
0.0
  0
LINE
  5
22EC0
330
1E
100
AcDbEntity
  8
11
  6
Continuous
 62
    11
100
AcDbLine
 10
373.7172489765072
 20
387.9697145142362
 30
0.0
 11
370.5172489765071
 21
387.9697145142362
 31
0.0
  0
LINE
  5
22EC1
330
1E
100
AcDbEntity
  8
11
  6
Continuous
 62
    11
100
AcDbLine
 10
375.0172489765071
 20
388.1603134374363
 30
0.0
 11
379.5172489765071
 21
388.1603134374363
 31
0.0
  0
LINE
  5
22EC2
330
1E
100
AcDbEntity
  8
11
  6
Continuous
 62
    11
100
AcDbLine
 10
375.0172489765071
 20
392.7791155910362
 30
0.0
 11
379.5172489765071
 21
392.7791155910362
 31
0.0
  0
LINE
  5
22EC3
330
1E
100
AcDbEntity
  8
11
  6
Continuous
 62
    11
100
AcDbLine
 10
385.1172489765073
 20
392.9697145142362
 30
0.0
 11
379.5172489765071
 21
392.9697145142362
 31
0.0
  0
LINE
  5
22EC4
330
1E
100
AcDbEntity
  8
11
  6
Continuous
 62
    11
100
AcDbLine
 10
373.7172489765072
 20
392.9697145142362
 30
0.0
 11
370.5172489765071
 21
392.9697145142362
 31
0.0
  0
LINE
  5
22EC5
330
1E
100
AcDbEntity
  8
11
  6
Continuous
 62
    11
100
AcDbLine
 10
375.0172489765071
 20
395.0697145142362
 30
0.0
 11
373.7172489765072
 21
395.0697145142362
 31
0.0
  0
LINE
  5
22EC6
330
1E
100
AcDbEntity
  8
11
  6
Continuous
 62
    11
100
AcDbLine
 10
375.0172489765071
 20
395.0885166678363
 30
0.0
 11
379.5172489765071
 21
395.0885166678363
 31
0.0
  0
LINE
  5
22EC7
330
1E
100
AcDbEntity
  8
10
100
AcDbLine
 10
348.0200697847073
 20
458.4672381014363
 30
0.0
 11
348.0172489765071
 21
458.5175676886361
 31
0.0
  0
LINE
  5
22EC8
330
1E
100
AcDbEntity
  8
10
100
AcDbLine
 10
348.0172489765071
 20
351.8910128074363
 30
0.0
 11
348.0172489765071
 21
379.6611116888363
 31
0.0
  0
LINE
  5
22EC9
330
1E
100
AcDbEntity
  8
10
100
AcDbLine
 10
348.0172489765071
 20
453.2783173398363
 30
0.0
 11
348.0172489765071
 21
481.0484162210362
 31
0.0
  0
LINE
  5
22ECA
330
1E
100
AcDbEntity
  8
10
100
AcDbLine
 10
348.0172489765071
 20
374.4635416100746
 30
0.0
 11
348.0200697847073
 21
374.5138711974746
 31
0.0
  0
LINE
  5
22ECB
330
1E
100
AcDbEntity
  8
11
  6
Continuous
 62
    11
100
AcDbLine
 10
375.0172489765071
 20
437.8509123608361
 30
0.0
 11
379.5172489765071
 21
437.8509123608361
 31
0.0
  0
LINE
  5
22ECC
330
1E
100
AcDbEntity
  8
11
  6
Continuous
 62
    11
100
AcDbLine
 10
375.0172489765071
 20
437.8697145142361
 30
0.0
 11
373.7172489765072
 21
437.8697145142361
 31
0.0
  0
LINE
  5
22ECD
330
1E
100
AcDbEntity
  8
11
  6
Continuous
 62
    11
100
AcDbLine
 10
385.1172489765073
 20
439.9697145142361
 30
0.0
 11
379.5172489765071
 21
439.9697145142361
 31
0.0
  0
LINE
  5
22ECE
330
1E
100
AcDbEntity
  8
11
  6
Continuous
 62
    11
100
AcDbLine
 10
373.7172489765072
 20
439.9697145142361
 30
0.0
 11
370.5172489765071
 21
439.9697145142361
 31
0.0
  0
LINE
  5
22ECF
330
1E
100
AcDbEntity
  8
11
  6
Continuous
 62
    11
100
AcDbLine
 10
375.0172489765071
 20
440.1603134374362
 30
0.0
 11
379.5172489765071
 21
440.1603134374362
 31
0.0
  0
LINE
  5
22ED0
330
1E
100
AcDbEntity
  8
10
100
AcDbLine
 10
357.517248976507
 20
456.0608530076363
 30
0.0
 11
357.517248976507
 21
377.1697145142364
 31
0.0
  0
ARC
  5
22ED1
330
1E
100
AcDbEntity
  8
10
100
AcDbCircle
 10
359.517248976507
 20
456.0608530076363
 30
0.0
 40
2.0
100
AcDbArc
 50
90.0
 51
180.0
  0
LWPOLYLINE
  5
22ED2
330
1E
100
AcDbEntity
  8
10
100
AcDbPolyline
 90
        4
 70
     0
 43
0.0
 10
348.0200697847073
 20
374.5138711974746
 10
348.0287795183073
 20
374.5648525816747
 10
348.0436794133071
 20
374.6157664968747
 10
348.0650050669071
 20
374.6659080450746
  0
LINE
  5
22ED3
330
1E
100
AcDbEntity
  8
11
  6
Continuous
 62
    11
100
AcDbLine
 10
385.917248831107
 20
440.7697146598363
 30
0.0
 11
385.1172487627069
 21
439.9697147282363
 31
0.0
  0
LINE
  5
22ED4
330
1E
100
AcDbEntity
  8
17
100
AcDbLine
 10
365.5172489765071
 20
442.4697145142363
 30
0.0
 11
390.5172489765071
 21
442.4697145142363
 31
0.0
  0
LINE
  5
22ED5
330
1E
100
AcDbEntity
  8
11
  6
Continuous
 62
    11
100
AcDbLine
 10
375.0172489765071
 20
444.7791155910362
 30
0.0
 11
379.5172489765071
 21
444.7791155910362
 31
0.0
  0
LINE
  5
22ED6
330
1E
100
AcDbEntity
  8
11
  6
Continuous
 62
    11
100
AcDbLine
 10
385.1172489765073
 20
444.9697145142362
 30
0.0
 11
379.5172489765071
 21
444.9697145142362
 31
0.0
  0
LINE
  5
22ED7
330
1E
100
AcDbEntity
  8
11
  6
Continuous
 62
    11
100
AcDbLine
 10
373.7172489765072
 20
444.9697145142362
 30
0.0
 11
370.5172489765071
 21
444.9697145142362
 31
0.0
  0
LINE
  5
22ED8
330
1E
100
AcDbEntity
  8
11
  6
Continuous
 62
    11
100
AcDbLine
 10
375.0172489765071
 20
447.0697145142361
 30
0.0
 11
373.7172489765072
 21
447.0697145142361
 31
0.0
  0
LINE
  5
22ED9
330
1E
100
AcDbEntity
  8
11
  6
Continuous
 62
    11
100
AcDbLine
 10
375.0172489765071
 20
447.0885166678361
 30
0.0
 11
379.5172489765071
 21
447.0885166678361
 31
0.0
  0
LINE
  5
22EDA
330
1E
100
AcDbEntity
  8
11
  6
Continuous
 62
    11
100
AcDbLine
 10
385.917248831107
 20
392.1697143688363
 30
0.0
 11
385.1172487627069
 21
392.9697143004363
 31
0.0
  0
LWPOLYLINE
  5
22EDB
330
1E
100
AcDbEntity
  8
10
100
AcDbPolyline
 90
        8
 70
     0
 43
0.0
 10
348.0650050669071
 20
374.6659080450746
 10
348.098017681307
 20
374.7224256374746
 10
348.1447597701067
 20
374.7811396254746
 10
348.204318430107
 20
374.8356442108747
 10
348.2741174213071
 20
374.8811207046745
 10
348.3509933239071
 20
374.9147465590746
 10
348.4328640909073
 20
374.9354220742747
 10
348.5172489765071
 20
374.9423947304746
  0
LINE
  5
22EDC
330
1E
100
AcDbEntity
  8
10
100
AcDbLine
 10
357.517248976507
 20
383.8840002286362
 30
0.0
 11
349.4678067207071
 21
381.5841595840364
 31
0.0
  0
LINE
  5
22EDD
330
1E
100
AcDbEntity
  8
10
100
AcDbLine
 10
357.517248976507
 20
449.0554288000359
 30
0.0
 11
349.4678067207071
 21
451.3552694444362
 31
0.0
  0
LINE
  5
22EDE
330
1E
100
AcDbEntity
  8
10
100
AcDbLine
 10
370.5172489765071
 20
458.0608530076363
 30
0.0
 11
359.517248976507
 21
458.0608530076363
 31
0.0
  0
LWPOLYLINE
  5
22EDF
330
1E
100
AcDbEntity
  8
10
100
AcDbPolyline
 90
        9
 70
     0
 43
0.0
 10
348.5172489765071
 20
457.9697145142362
 10
348.4197822179073
 20
457.979319448636
 10
348.3260437041068
 20
458.0077704090363
 10
348.239624288307
 20
458.0539880520363
 10
348.1638432823071
 20
458.1162142618363
 10
348.1016213719068
 20
458.1920737618363
 10
348.0553657303068
 20
458.2786598024362
 10
348.026871929707
 20
458.3726431926363
 10
348.0172489765071
 20
458.4704006872361
  0
LINE
  5
22EE0
330
1E
100
AcDbEntity
  8
10
100
AcDbLine
 10
370.5172489765071
 20
458.0608530076363
 30
0.0
 11
370.5172489765071
 21
375.0608530076362
 31
0.0
  0
LINE
  5
22EE1
330
1E
100
AcDbEntity
  8
11
  6
Continuous
 62
    11
100
AcDbLine
 10
373.7172489765072
 20
385.8697145142363
 30
0.0
 11
373.7172489765072
 21
395.0697145142362
 31
0.0
  0
LINE
  5
22EE2
330
1E
100
AcDbEntity
  8
11
  6
Continuous
 62
    11
100
AcDbLine
 10
373.7172489765072
 20
437.8697145142361
 30
0.0
 11
373.7172489765072
 21
447.0697145142361
 31
0.0
  0
LINE
  5
22EE3
330
1E
100
AcDbEntity
  8
11
  6
Continuous
 62
    11
100
AcDbLine
 10
375.0172489765071
 20
447.0885166678361
 30
0.0
 11
375.0172489765071
 21
447.0697145142361
 31
0.0
  0
LINE
  5
22EE4
330
1E
100
AcDbEntity
  8
11
  6
Continuous
 62
    11
100
AcDbLine
 10
375.0172489765071
 20
447.0685269490362
 30
0.0
 11
375.0172489765071
 21
437.8706712904363
 31
0.0
  0
LINE
  5
22EE5
330
1E
100
AcDbEntity
  8
11
  6
Continuous
 62
    11
100
AcDbLine
 10
375.0172489765071
 20
437.8697153424361
 30
0.0
 11
375.0172489765071
 21
437.8509123608361
 31
0.0
  0
LINE
  5
22EE6
330
1E
100
AcDbEntity
  8
11
  6
Continuous
 62
    11
100
AcDbLine
 10
375.0172489765071
 20
395.0885166678363
 30
0.0
 11
375.0172489765071
 21
395.0697145142362
 31
0.0
  0
LINE
  5
22EE7
330
1E
100
AcDbEntity
  8
11
  6
Continuous
 62
    11
100
AcDbLine
 10
375.0172489765071
 20
395.0685269490363
 30
0.0
 11
375.0172489765071
 21
385.8706712904364
 31
0.0
  0
LINE
  5
22EE8
330
1E
100
AcDbEntity
  8
11
  6
Continuous
 62
    11
100
AcDbLine
 10
375.0172489765071
 20
385.8697153424363
 30
0.0
 11
375.0172489765071
 21
385.8509123608361
 31
0.0
  0
LINE
  5
22EE9
330
1E
100
AcDbEntity
  8
11
  6
Continuous
 62
    11
100
AcDbLine
 10
379.5172489765071
 20
447.0885166678361
 30
0.0
 11
379.5172489765071
 21
437.8509123608361
 31
0.0
  0
LINE
  5
22EEA
330
1E
100
AcDbEntity
  8
11
  6
Continuous
 62
    11
100
AcDbLine
 10
379.5172489765071
 20
395.0885166678363
 30
0.0
 11
379.5172489765071
 21
385.8509123608361
 31
0.0
  0
LINE
  5
22EEB
330
1E
100
AcDbEntity
  8
11
  6
Continuous
 62
    11
100
AcDbLine
 10
385.117248969707
 20
444.9697145142362
 30
0.0
 11
385.117248969707
 21
439.9697145142361
 31
0.0
  0
LINE
  5
22EEC
330
1E
100
AcDbEntity
  8
11
  6
Continuous
 62
    11
100
AcDbLine
 10
385.117248969707
 20
392.9697145142362
 30
0.0
 11
385.117248969707
 21
387.9697145142362
 31
0.0
  0
LINE
  5
22EED
330
1E
100
AcDbEntity
  8
11
  6
Continuous
 62
    11
100
AcDbLine
 10
385.917248976507
 20
388.7697145142362
 30
0.0
 11
385.917248976507
 21
392.1697145142363
 31
0.0
  0
LINE
  5
22EEE
330
1E
100
AcDbEntity
  8
11
  6
Continuous
 62
    11
100
AcDbLine
 10
385.917248976507
 20
440.7697145142362
 30
0.0
 11
385.917248976507
 21
444.1697145142363
 31
0.0
  0
LINE
  5
22EEF
330
1E
100
AcDbEntity
  8
11
  6
Continuous
 62
    11
100
AcDbLine
 10
385.917248831107
 20
388.7697146598363
 30
0.0
 11
385.1172487627069
 21
387.9697147282363
 31
0.0
  0
LINE
  5
22EF0
330
1E
100
AcDbEntity
  8
11
  6
Continuous
 62
    11
100
AcDbLine
 10
385.917248831107
 20
444.1697143688362
 30
0.0
 11
385.1172487627069
 21
444.9697143004363
 31
0.0
  0
ARC
  5
22EF1
330
1E
100
AcDbEntity
  8
10
100
AcDbCircle
 10
359.7157862216052
 20
377.2519513337922
 30
0.0
 40
2.200074751587898
100
AcDbArc
 50
182.1421638480642
 51
264.8225203788098
  0
ARC
  5
22EF2
330
1E
100
AcDbEntity
  8
10
100
AcDbCircle
 10
350.0172489765071
 20
379.6611116888363
 30
0.0
 40
2.0
100
AcDbArc
 50
105.9453959009005
 51
180.0
  0
ARC
  5
22EF3
330
1E
100
AcDbEntity
  8
10
100
AcDbCircle
 10
350.0172489765071
 20
453.2783173398363
 30
0.0
 40
2.0
100
AcDbArc
 50
180.0
 51
254.0546040990995
  0
LINE
  5
22EF4
330
1E
100
AcDbEntity
  8
17
100
AcDbLine
 10
365.5172489765071
 20
390.4697145142364
 30
0.0
 11
390.5172489765071
 21
390.4697145142364
 31
0.0
  0
DIMENSION
  5
22EF5
330
1E
100
AcDbEntity
  8
30
100
AcDbDimension
280
     0
  2
*D16
 10
398.5172489765071
 20
375.0608530076362
 30
0.0
 11
393.5172489765069
 21
416.5608530076363
 31
0.0
 70
    32
 71
     5
 42
83.0
 73
     0
 74
     0
 75
     0
  3
STANDARD
100
AcDbAlignedDimension
 13
370.5172489765071
 23
458.0608530076363
 33
0.0
 14
370.5172489765071
 24
375.0608530076363
 34
0.0
 50
90.0
100
AcDbRotatedDimension
  0
DIMENSION
  5
22EF9
330
1E
100
AcDbEntity
  8
30
100
AcDbDimension
280
     0
  2
*D17
 10
485.8891290463697
 20
460.3445240722826
 30
0.0
 11
477.3891290463697
 21
460.3445240722826
 31
0.0
 70
   160
 71
     5
 42
17.0
 73
     0
 74
     0
 75
     0
  3
STANDARD1
100
AcDbAlignedDimension
 13
468.8891290463697
 23
481.8803468748128
 33
0.0
 14
485.8891290463697
 24
481.8803468748128
 34
0.0
100
AcDbRotatedDimension
  0
LEADER
  5
22EFA
330
1E
100
AcDbEntity
  8
30
100
AcDbLeader
  3
STANDARD1
 76
     3
 10
477.3891290463697
 20
493.8803468748128
 30
0.0
 10
461.8891290463694
 20
501.8803468748128
 30
0.0
 10
447.8891290463693
 20
501.8803468748128
 30
0.0
1001
ACAD
1000
DSTYLE
1002
{
1070
   147
1040
2.0
1070
    77
1070
     0
1002
}
  0
LINE
  5
22EFB
330
1E
100
AcDbEntity
  8
24
100
AcDbLine
 10
468.8891290463697
 20
481.8803468748128
 30
0.0
 11
485.8891290463697
 21
481.8803468748128
 31
0.0
  0
LINE
  5
22EFC
330
1E
100
AcDbEntity
  8
24
100
AcDbLine
 10
471.1391290463697
 20
493.8803468748131
 30
0.0
 11
483.6391290463697
 21
493.8803468748131
 31
0.0
  0
MTEXT
  5
22EFD
330
1E
100
AcDbEntity
  8
30
  6
Continuous
100
AcDbMText
 10
445.8891290463695
 20
507.8803468748128
 30
0.0
 40
5.0
 41
10.0
 46
0.0
 71
     1
 72
     5
  1
%%C6.5
  7
blockfont
 73
     1
 44
1.0
  0
LINE
  5
22EFE
330
1E
100
AcDbEntity
  8
24
100
AcDbLine
 10
468.8891290463697
 20
513.8803468748127
 30
0.0
 11
468.8891290463697
 21
481.8803468748128
 31
0.0
  0
CIRCLE
  5
22EFF
330
1E
100
AcDbEntity
  8
24
100
AcDbCircle
 10
477.3891290463697
 20
493.8803468748131
 30
0.0
 40
3.25
  0
LINE
  5
22F00
330
1E
100
AcDbEntity
  8
24
100
AcDbLine
 10
477.3891290463697
 20
500.1303468748131
 30
0.0
 11
477.3891290463697
 21
487.6303468748126
 31
0.0
  0
LINE
  5
22F01
330
1E
100
AcDbEntity
  8
24
100
AcDbLine
 10
485.8891290463697
 20
514.0302493748126
 30
0.0
 11
485.8891290463697
 21
481.8803468748128
 31
0.0
  0
DIMENSION
  5
22F03
330
1E
100
AcDbEntity
  8
30
100
AcDbDimension
280
     0
  2
*D18
 10
508.8497610031713
 20
481.8803468748128
 30
0.0
 11
508.8497610031713
 21
487.8803468748126
 31
0.0
 70
   160
 71
     5
 42
12.00000000000023
 73
     0
 74
     0
 75
     0
  3
STANDARD
100
AcDbAlignedDimension
 13
483.6391290463697
 23
493.8803468748131
 33
0.0
 14
485.8891290463697
 24
481.8803468748128
 34
0.0
 50
90.0
100
AcDbRotatedDimension
  0
SPLINE
  5
22F04
330
1E
100
AcDbEntity
  8
24
100
AcDbSpline
210
0.0
220
0.0
230
1.0
 70
  1064
 71
     3
 72
    10
 73
     6
 74
     4
 42
0.000000001
 43
0.0000000001
 44
0.0000000001
 40
0.0
 40
0.0
 40
0.0
 40
0.0
 40
5.099019513592784
 40
10.92997140843805
 40
18.25268134120921
 40
18.25268134120921
 40
18.25268134120921
 40
18.25268134120921
 10
468.8891290463697
 20
513.8803468748127
 30
0.0
 10
470.6168557120961
 20
514.5885882786191
 30
0.0
 10
474.3203134077662
 20
516.1067347130936
 30
0.0
 10
479.0993988181556
 20
510.0118367531695
 30
0.0
 10
483.4610023467382
 20
512.5931944921013
 30
0.0
 10
485.8891290463697
 20
514.0302493748126
 30
0.0
 11
468.8891290463697
 21
513.8803468748127
 31
0.0
 11
473.8891290463697
 21
514.8803468748127
 31
0.0
 11
478.8891290463697
 21
511.8803468748128
 31
0.0
 11
485.8891290463697
 21
514.0302493748126
 31
0.0
  0
MTEXT
  5
22F05
330
1E
100
AcDbEntity
  8
30
  6
Continuous
100
AcDbMText
 10
423.7417883715218
 20
544.6671124319833
 30
0.0
 40
5.0
 41
37.57464383126626
 46
0.0
 71
     1
 72
     5
  1
M6 screw
  7
blockfont
 73
     1
 44
1.0
  0
LEADER
  5
22F06
330
1E
100
AcDbEntity
  8
30
100
AcDbLeader
  3
STANDARD1
 76
     3
 10
402.9417883715222
 20
562.6671124319833
 30
0.0
 10
422.741788371522
 20
538.6671124319835
 30
0.0
 10
457.7417883715219
 20
538.6671124319835
 30
0.0
211
-1.0
221
0.0
231
0.0
210
0.0
220
0.0
230
-1.0
1001
ACAD
1000
DSTYLE
1002
{
1070
   147
1040
2.0
1070
    77
1070
     0
1002
}
  0
LEADER
  5
22F07
330
1E
100
AcDbEntity
  8
30
100
AcDbLeader
  3
STANDARD1
 76
     3
 10
387.5527478193673
 20
595.8737115180402
 30
0.0
 10
415.4527478193669
 20
588.8737115180401
 30
0.0
 10
495.4983742536327
 20
588.8737115180401
 30
0.0
211
-1.0
221
0.0
231
0.0
210
0.0
220
0.0
230
-1.0
1001
ACAD
1000
DSTYLE
1002
{
1070
   147
1040
2.0
1070
    77
1070
     0
1002
}
  0
MTEXT
  5
22F08
330
1E
100
AcDbEntity
  8
30
  6
Continuous
100
AcDbMText
 10
416.4527478193669
 20
594.8737115180401
 30
0.0
 40
5.0
 41
100.0
 46
0.0
 71
     1
 72
     5
  1
M5　Mounting scruew
  7
blockfont
 73
     1
 44
1.0
  0
ARC
  5
22F09
330
1E
100
AcDbEntity
  8
24
100
AcDbCircle
 10
369.8737343157761
 20
596.5645843697333
 30
0.0
 40
7.999832079429983
100
AcDbArc
 50
187.3899774096993
 51
195.7406834442985
  0
ARC
  5
22F0A
330
1E
100
AcDbEntity
  8
24
100
AcDbCircle
 10
369.8739270955262
 20
596.5645982917334
 30
0.0
 40
8.00002878790144
100
AcDbArc
 50
164.2594075884002
 51
172.6098948236004
  0
LINE
  5
22F0B
330
1E
100
AcDbEntity
  8
24
100
AcDbLine
 10
385.3739007545259
 20
594.0646124172332
 30
0.0
 11
390.0739020837763
 21
594.0646124172332
 31
0.0
  0
LINE
  5
22F0C
330
1E
100
AcDbEntity
  8
24
100
AcDbLine
 10
390.0739020837763
 20
599.0646132367333
 30
0.0
 11
385.3739007545259
 21
599.0646132367333
 31
0.0
  0
LINE
  5
22F0D
330
1E
100
AcDbEntity
  8
24
100
AcDbLine
 10
390.0739020837763
 20
594.0646124172332
 30
0.0
 11
390.5739030970262
 21
594.5646115677334
 31
0.0
  0
LINE
  5
22F0E
330
1E
100
AcDbEntity
  8
24
100
AcDbLine
 10
390.5739030970262
 20
598.5646122234832
 30
0.0
 11
390.0739020837763
 21
599.0646132367333
 31
0.0
  0
LINE
  5
22F0F
330
1E
100
AcDbEntity
  8
24
100
AcDbLine
 10
379.373899771026
 20
601.5646127152332
 30
0.0
 11
378.3739014697762
 21
601.5646127152332
 31
0.0
  0
LINE
  5
22F10
330
1E
100
AcDbEntity
  8
24
100
AcDbLine
 10
378.3739014697762
 20
591.5646129387332
 30
0.0
 11
379.373899771026
 21
591.5646129387332
 31
0.0
  0
LINE
  5
22F11
330
1E
100
AcDbEntity
  8
24
100
AcDbLine
 10
379.5488990082763
 20
591.9646122592332
 30
0.0
 11
380.4989001882761
 21
591.9646122592332
 31
0.0
  0
LINE
  5
22F12
330
1E
100
AcDbEntity
  8
24
100
AcDbLine
 10
380.4989001882761
 20
601.1646115319834
 30
0.0
 11
379.5488990082763
 21
601.1646115319834
 31
0.0
  0
ARC
  5
22F13
330
1E
100
AcDbEntity
  8
24
100
AcDbCircle
 10
380.4988995757762
 20
592.1396121087332
 30
0.0
 40
0.174999849525174
100
AcDbArc
 50
270.0002005223989
 51
0.0004093154010712
  0
ARC
  5
22F14
330
1E
100
AcDbEntity
  8
24
100
AcDbCircle
 10
380.4988995757762
 20
600.9896116824831
 30
0.0
 40
0.1749998495194188
100
AcDbArc
 50
0.0002005216009705
 51
89.99979947839577
  0
ARC
  5
22F15
330
1E
100
AcDbEntity
  8
24
100
AcDbCircle
 10
379.548899620526
 20
592.1396121087332
 30
0.0
 40
0.1749998495251917
100
AcDbArc
 50
179.9995906845989
 51
269.9997994776011
  0
ARC
  5
22F16
330
1E
100
AcDbEntity
  8
24
100
AcDbCircle
 10
379.548899620526
 20
600.9896116824831
 30
0.0
 40
0.1749998495194188
100
AcDbArc
 50
90.00020052159118
 51
179.999799478399
  0
ARC
  5
22F17
330
1E
100
AcDbEntity
  8
24
100
AcDbCircle
 10
393.168512377276
 20
554.7123562954833
 30
0.0
 40
55.10096109102964
100
AcDbArc
 50
105.5750306752995
 51
109.0610414346927
  0
ARC
  5
22F18
330
1E
100
AcDbEntity
  8
10
100
AcDbCircle
 10
393.1683531127762
 20
554.7127685632333
 30
0.0
 40
55.10051854960792
100
AcDbArc
 50
111.2565201262019
 51
124.2293824521937
  0
ARC
  5
22F19
330
1E
100
AcDbEntity
  8
24
100
AcDbCircle
 10
362.8889458847762
 20
595.6602398084832
 30
0.0
 40
0.9567441192496517
100
AcDbArc
 50
187.483731883399
 51
201.5633485484977
  0
ARC
  5
22F1A
330
1E
100
AcDbEntity
  8
24
100
AcDbCircle
 10
366.038075278026
 20
596.2964966267334
 30
0.0
 40
4.157973046593212
100
AcDbArc
 50
193.7442854510023
 51
202.3475767364008
  0
ARC
  5
22F1B
330
1E
100
AcDbEntity
  8
24
100
AcDbCircle
 10
366.3099554587761
 20
596.9426182499834
 30
0.0
 40
4.429606156138596
100
AcDbArc
 50
193.3003514127983
 51
201.6343326691007
  0
ARC
  5
22F1C
330
1E
100
AcDbEntity
  8
24
100
AcDbCircle
 10
369.1083460265264
 20
596.8989950382332
 30
0.0
 40
7.175789760959322
100
AcDbArc
 50
182.6708813848023
 51
187.8126252253976
  0
ARC
  5
22F1D
330
1E
100
AcDbEntity
  8
24
100
AcDbCircle
 10
369.1082936327761
 20
596.2302363939834
 30
0.0
 40
7.175737068197865
100
AcDbArc
 50
172.1873636164992
 51
177.3291600645002
  0
ARC
  5
22F1E
330
1E
100
AcDbEntity
  8
24
100
AcDbCircle
 10
366.3101345087761
 20
596.1865510617334
 30
0.0
 40
4.429793365610766
100
AcDbArc
 50
158.3658437451041
 51
166.6994721730008
  0
ARC
  5
22F1F
330
1E
100
AcDbEntity
  8
24
100
AcDbCircle
 10
366.038172150776
 20
596.8326974654834
 30
0.0
 40
4.158074644074313
100
AcDbArc
 50
157.6525285670022
 51
166.2556092457026
  0
ARC
  5
22F20
330
1E
100
AcDbEntity
  8
24
100
AcDbCircle
 10
362.888985790526
 20
597.4689755074834
 30
0.0
 40
0.9567850312965267
100
AcDbArc
 50
158.4369539970992
 51
172.5159655711
  0
LINE
  5
22F21
330
1E
100
AcDbEntity
  8
24
100
AcDbLine
 10
390.5739030970262
 20
598.5646122234832
 30
0.0
 11
390.5739030970262
 21
594.5646115677334
 31
0.0
  0
LINE
  5
22F22
330
1E
100
AcDbEntity
  8
24
100
AcDbLine
 10
361.999162582776
 20
597.8206177339832
 30
0.0
 11
362.1739010495261
 21
597.7917728112331
 31
0.0
  0
LINE
  5
22F23
330
1E
100
AcDbEntity
  8
24
100
AcDbLine
 10
361.999162582776
 20
595.3086079197333
 30
0.0
 11
362.1739010495261
 21
595.3374509799835
 31
0.0
  0
LINE
  5
22F24
330
1E
100
AcDbEntity
  8
24
100
AcDbLine
 10
361.9403514250261
 20
597.5935966807333
 30
0.0
 11
362.1039363725262
 21
597.5760673272333
 31
0.0
  0
LINE
  5
22F25
330
1E
100
AcDbEntity
  8
24
100
AcDbLine
 10
361.9403514250261
 20
595.5356289732333
 30
0.0
 11
362.1039363725262
 21
595.5531583267334
 31
0.0
  0
ARC
  5
22F26
330
1E
100
AcDbEntity
  8
24
100
AcDbCircle
 10
378.8739017245262
 20
586.2646155954832
 30
0.0
 40
3.700002269309958
100
AcDbArc
 50
180.0000459400987
 51
269.9999540599013
  0
ARC
  5
22F27
330
1E
100
AcDbEntity
  8
12
100
AcDbCircle
 10
378.8739019482761
 20
586.2646120939833
 30
0.0
 40
0.5000004785415883
100
AcDbArc
 50
179.9999387224992
 51
269.999634389896
  0
LINE
  5
22F28
330
1E
100
AcDbEntity
  8
24
100
AcDbLine
 10
390.1739000512761
 20
585.7646116154832
 30
0.0
 11
378.8738987577762
 21
585.7646116154832
 31
0.0
  0
LINE
  5
22F29
330
1E
100
AcDbEntity
  8
24
100
AcDbLine
 10
390.1739000512761
 20
582.5646133259834
 30
0.0
 11
378.8738987577762
 21
582.5646133259834
 31
0.0
  0
LINE
  5
22F2A
330
1E
100
AcDbEntity
  8
24
100
AcDbLine
 10
390.1739000512761
 20
582.5646133259834
 30
0.0
 11
390.1739000512761
 21
585.7646116154832
 31
0.0
  0
LINE
  5
22F2B
330
1E
100
AcDbEntity
  8
10
100
AcDbLine
 10
375.1738994552761
 20
606.7921971069832
 30
0.0
 11
375.1738994552761
 21
577.0494750719582
 31
0.0
  0
LINE
  5
22F2C
330
1E
100
AcDbEntity
  8
24
100
AcDbLine
 10
378.3739014697762
 20
607.7899918989834
 30
0.0
 11
378.3739014697762
 21
586.2646126287334
 31
0.0
  0
LINE
  5
22F2D
330
1E
100
AcDbEntity
  8
10
100
AcDbLine
 10
375.1738994552761
 20
581.2646136717334
 30
0.0
 11
364.1738995147762
 21
581.2646136717335
 31
0.0
  0
ARC
  5
22F2E
330
1E
100
AcDbEntity
  8
10
100
AcDbCircle
 10
364.173902963776
 20
583.2646155859833
 30
0.0
 40
2.000001914168076
100
AcDbArc
 50
180.0000454451983
 51
269.9999011938999
  0
LINE
  5
22F2F
330
1E
100
AcDbEntity
  8
10
100
AcDbLine
 10
362.1739010495261
 20
583.2646139997335
 30
0.0
 11
362.1739010495261
 21
600.2694484877332
 31
0.0
  0
LINE
  5
22F30
330
1E
100
AcDbEntity
  8
10
100
AcDbLine
 10
373.1919854117761
 20
606.0646125214836
 30
0.0
 11
375.1738994552761
 21
606.0646125214836
 31
0.0
  0
LINE
  5
22F31
330
1E
100
AcDbEntity
  8
131
 62
     4
100
AcDbLine
 10
353.176518453526
 20
581.0619802312332
 30
0.0
 11
407.662875129026
 21
580.7766900497332
 31
0.0
  0
LINE
  5
22F32
330
1E
100
AcDbEntity
  8
10
100
AcDbLine
 10
352.673900423776
 20
532.5646091233367
 30
0.0
 11
352.673900423776
 21
588.7098699270957
 31
0.0
  0
LINE
  5
22F34
330
1E
100
AcDbEntity
  8
131
 62
     4
100
AcDbLine
 10
407.662875129026
 20
580.7766900497332
 30
0.0
 11
407.6737380755258
 21
580.7766304449832
 31
0.0
  0
LINE
  5
22F35
330
1E
100
AcDbEntity
  8
10
100
AcDbLine
 10
385.5881884525654
 20
532.5646124320352
 30
0.0
 11
350.0118353963002
 21
532.5646088557333
 31
0.0
  0
LINE
  5
22F36
330
1E
100
AcDbEntity
  8
131
 62
     4
100
AcDbLine
 10
407.6737380755258
 20
580.7766304449832
 30
0.0
 11
410.6765157712761
 21
580.7609097199834
 31
0.0
  0
ARC
  5
22F37
330
1E
100
AcDbEntity
  8
131
 62
     4
100
AcDbCircle
 10
410.6738935495259
 20
580.2609085144832
 30
0.0
 40
0.5000080814187495
100
AcDbArc
 50
0.0008757790021723
 51
89.69951898690451
  0
LINE
  5
22F38
330
1E
100
AcDbEntity
  8
10
100
AcDbLine
 10
362.0042513295262
 20
592.3302346007329
 30
0.0
 11
353.0087251481243
 21
589.1817990831282
 31
0.0
  0
ARC
  5
22F39
330
1E
100
AcDbEntity
  8
10
100
AcDbCircle
 10
353.173900423776
 20
588.7098699270957
 30
0.0
 40
0.5
100
AcDbArc
 50
109.2900539027951
 51
180.0
  0
LWPOLYLINE
  5
22F3A
330
1E
100
AcDbEntity
  8
24
100
AcDbPolyline
 90
        3
 70
   128
 43
0.0
 10
362.1739010495261
 20
592.4080689537332
 10
362.1646753682762
 20
592.4028069812329
 10
362.0042513295262
 20
592.3302346007329
  0
LINE
  5
22F3C
330
1E
100
AcDbEntity
  8
24
100
AcDbLine
 10
385.3739007545259
 20
598.5646122234832
 30
0.0
 11
385.3739007545259
 21
594.5646115677334
 31
0.0
  0
LINE
  5
22F3D
330
1E
100
AcDbEntity
  8
24
100
AcDbLine
 10
380.673899425526
 20
596.4646120654832
 30
0.0
 11
380.673899425526
 21
596.6646117257335
 31
0.0
  0
LINE
  5
22F3E
330
1E
100
AcDbEntity
  8
24
100
AcDbLine
 10
380.673899425526
 20
596.4646120654832
 30
0.0
 11
380.673899425526
 21
596.2033518689834
 31
0.0
  0
LINE
  5
22F3F
330
1E
100
AcDbEntity
  8
24
100
AcDbLine
 10
380.673899425526
 20
592.9258731292334
 30
0.0
 11
380.673899425526
 21
592.6646129327332
 31
0.0
  0
LINE
  5
22F40
330
1E
100
AcDbEntity
  8
24
100
AcDbLine
 10
380.673899425526
 20
600.4646127212334
 30
0.0
 11
380.673899425526
 21
600.2033525244833
 31
0.0
  0
LINE
  5
22F41
330
1E
100
AcDbEntity
  8
24
100
AcDbLine
 10
380.673899425526
 20
596.9258719222332
 30
0.0
 11
380.673899425526
 21
596.6646117257335
 31
0.0
  0
LINE
  5
22F42
330
1E
100
AcDbEntity
  8
24
100
AcDbLine
 10
385.1410440340261
 20
600.5646125512334
 30
0.0
 11
385.3739007545259
 21
600.5646125512334
 31
0.0
  0
LINE
  5
22F43
330
1E
100
AcDbEntity
  8
24
100
AcDbLine
 10
385.3739007545259
 20
600.5646125512334
 30
0.0
 11
385.3739007545259
 21
598.5646122234832
 31
0.0
  0
LINE
  5
22F44
330
1E
100
AcDbEntity
  8
24
100
AcDbLine
 10
385.3739007545259
 20
592.5646131024832
 30
0.0
 11
385.1410440340261
 21
592.5646131024832
 31
0.0
  0
LINE
  5
22F45
330
1E
100
AcDbEntity
  8
24
100
AcDbLine
 10
385.3739007545259
 20
594.5646115677334
 30
0.0
 11
385.3739007545259
 21
592.5646131024832
 31
0.0
  0
LINE
  5
22F46
330
1E
100
AcDbEntity
  8
24
100
AcDbLine
 10
385.1410440340261
 20
592.5646131024832
 30
0.0
 11
380.673899425526
 21
592.5646131024832
 31
0.0
  0
LINE
  5
22F47
330
1E
100
AcDbEntity
  8
24
100
AcDbLine
 10
380.673899425526
 20
592.5646131024832
 30
0.0
 11
380.673899425526
 21
592.6646129327332
 31
0.0
  0
LINE
  5
22F48
330
1E
100
AcDbEntity
  8
24
100
AcDbLine
 10
380.673899425526
 20
600.5646125512334
 30
0.0
 11
385.1410440340261
 21
600.5646125512334
 31
0.0
  0
LINE
  5
22F49
330
1E
100
AcDbEntity
  8
24
100
AcDbLine
 10
380.673899425526
 20
600.4646127212334
 30
0.0
 11
380.673899425526
 21
600.5646125512334
 31
0.0
  0
LINE
  5
22F4A
330
1E
100
AcDbEntity
  8
24
100
AcDbLine
 10
379.373899771026
 20
591.5646129387332
 30
0.0
 11
379.373899771026
 21
601.5646127152332
 31
0.0
  0
LINE
  5
22F4B
330
1E
100
AcDbEntity
  8
24
100
AcDbLine
 10
380.673899425526
 20
592.1396133589832
 30
0.0
 11
380.673899425526
 21
592.5646131024832
 31
0.0
  0
LINE
  5
22F4C
330
1E
100
AcDbEntity
  8
24
100
AcDbLine
 10
380.673899425526
 20
592.9258731292334
 30
0.0
 11
380.673899425526
 21
596.2033518689834
 31
0.0
  0
LINE
  5
22F4D
330
1E
100
AcDbEntity
  8
24
100
AcDbLine
 10
380.673899425526
 20
596.9258719222332
 30
0.0
 11
380.673899425526
 21
600.2033525244833
 31
0.0
  0
LINE
  5
22F4E
330
1E
100
AcDbEntity
  8
24
100
AcDbLine
 10
380.673899425526
 20
600.5646125512334
 30
0.0
 11
380.673899425526
 21
600.9896122949831
 31
0.0
  0
LINE
  5
22F4F
330
1E
100
AcDbEntity
  8
24
100
AcDbLine
 10
392.273900754526
 20
574.5258625282332
 30
0.0
 11
389.273900754526
 21
574.5258625282332
 31
0.0
  0
LINE
  5
22F50
330
1E
100
AcDbEntity
  8
24
100
AcDbLine
 10
389.273900754526
 20
562.6671124319833
 30
0.0
 11
389.273900754526
 21
559.5646124319833
 31
0.0
  0
LINE
  5
22F51
330
1E
100
AcDbEntity
  8
24
100
AcDbLine
 10
383.9827088487761
 20
571.5646124319833
 30
0.0
 11
389.273900754526
 21
571.5646124319833
 31
0.0
  0
LINE
  5
22F52
330
1E
100
AcDbEntity
  8
24
100
AcDbLine
 10
389.273900754526
 20
571.5646124319833
 30
0.0
 11
389.273900754526
 21
568.4621124319833
 31
0.0
  0
LINE
  5
22F53
330
1E
100
AcDbEntity
  8
24
100
AcDbLine
 10
386.113433177526
 20
559.5646124319833
 30
0.0
 11
389.273900754526
 21
559.5646124319833
 31
0.0
  0
LINE
  5
22F54
330
1E
100
AcDbEntity
  8
17
100
AcDbLine
 10
383.5809024247761
 20
565.5646124319835
 30
0.0
 11
410.1590508832761
 21
565.5646124319835
 31
0.0
  0
LINE
  5
22F55
330
1E
100
AcDbEntity
  8
24
100
AcDbLine
 10
389.273900754526
 20
568.4621124319833
 30
0.0
 11
409.273900754526
 21
568.4621124319833
 31
0.0
  0
LINE
  5
22F56
330
1E
100
AcDbEntity
  8
24
100
AcDbLine
 10
409.273900754526
 20
568.4621124319833
 30
0.0
 11
409.273900754526
 21
562.6671124319833
 31
0.0
  0
LINE
  5
22F57
330
1E
100
AcDbEntity
  8
24
100
AcDbLine
 10
389.273900754526
 20
562.6671124319833
 30
0.0
 11
409.273900754526
 21
562.6671124319833
 31
0.0
  0
LINE
  5
22F58
330
1E
100
AcDbEntity
  8
131
 62
     4
100
AcDbLine
 10
385.4162912737761
 20
579.0619807064834
 30
0.0
 11
411.1739007545258
 21
579.0619807064834
 31
0.0
  0
LINE
  5
22F59
330
1E
100
AcDbEntity
  8
24
100
AcDbLine
 10
389.273900754526
 20
574.5258625282332
 30
0.0
 11
389.273900754526
 21
551.1734621207333
 31
0.0
  0
LINE
  5
22F5A
330
1E
100
AcDbEntity
  8
24
100
AcDbLine
 10
389.273900754526
 20
551.1734621207333
 30
0.0
 11
392.273900754526
 21
551.1734621207333
 31
0.0
  0
LINE
  5
22F5B
330
1E
100
AcDbEntity
  8
24
100
AcDbLine
 10
365.3739007545259
 20
601.3146124319834
 30
0.0
 11
364.1304261962761
 21
601.3146124319834
 31
0.0
  0
LINE
  5
22F5C
330
1E
100
AcDbEntity
  8
24
100
AcDbLine
 10
392.273900754526
 20
574.5258625282332
 30
0.0
 11
392.273900754526
 21
551.1734621207333
 31
0.0
  0
LINE
  5
22F5D
330
1E
100
AcDbEntity
  8
24
100
AcDbLine
 10
364.1304261962761
 20
591.8146124319832
 30
0.0
 11
365.3739007545259
 21
591.8146124319832
 31
0.0
  0
LINE
  5
22F5E
330
1E
100
AcDbEntity
  8
24
100
AcDbLine
 10
392.273900754526
 20
570.5646124319835
 30
0.0
 11
392.273900754526
 21
560.5646124319835
 31
0.0
  0
LINE
  5
22F5F
330
1E
100
AcDbEntity
  8
24
100
AcDbLine
 10
392.273900754526
 20
570.5646124319835
 30
0.0
 11
393.5739007545262
 21
570.5646124319835
 31
0.0
  0
LINE
  5
22F60
330
1E
100
AcDbEntity
  8
24
100
AcDbLine
 10
393.5739007545262
 20
570.5646124319835
 30
0.0
 11
393.5739007545262
 21
560.5646124319835
 31
0.0
  0
LINE
  5
22F61
330
1E
100
AcDbEntity
  8
24
100
AcDbLine
 10
392.273900754526
 20
560.5646124319835
 30
0.0
 11
393.5739007545262
 21
560.5646124319835
 31
0.0
  0
LINE
  5
22F62
330
1E
100
AcDbEntity
  8
24
100
AcDbLine
 10
393.5739007545262
 20
570.1646124319832
 30
0.0
 11
393.5739007545262
 21
560.9646124319834
 31
0.0
  0
LINE
  5
22F63
330
1E
100
AcDbEntity
  8
24
100
AcDbLine
 10
393.5739007545262
 20
570.1646124319832
 30
0.0
 11
394.5739007545262
 21
570.1646124319832
 31
0.0
  0
LINE
  5
22F64
330
1E
100
AcDbEntity
  8
24
100
AcDbLine
 10
394.5739007545262
 20
570.1646124319832
 30
0.0
 11
394.5739007545262
 21
560.9646124319834
 31
0.0
  0
LINE
  5
22F65
330
1E
100
AcDbEntity
  8
24
100
AcDbLine
 10
393.5739007545262
 20
560.9646124319834
 30
0.0
 11
394.5739007545262
 21
560.9646124319834
 31
0.0
  0
LINE
  5
22F66
330
1E
100
AcDbEntity
  8
24
100
AcDbLine
 10
394.5739007545262
 20
569.5646124319835
 30
0.0
 11
394.5739007545262
 21
561.5646124319835
 31
0.0
  0
LINE
  5
22F67
330
1E
100
AcDbEntity
  8
24
100
AcDbLine
 10
394.5739007545262
 20
569.5646124319835
 30
0.0
 11
399.273900754526
 21
569.5646124319835
 31
0.0
  0
LINE
  5
22F68
330
1E
100
AcDbEntity
  8
24
100
AcDbLine
 10
399.273900754526
 20
569.5646124319835
 30
0.0
 11
399.273900754526
 21
561.5646124319835
 31
0.0
  0
LINE
  5
22F69
330
1E
100
AcDbEntity
  8
24
100
AcDbLine
 10
394.5739007545262
 20
561.5646124319835
 30
0.0
 11
399.273900754526
 21
561.5646124319835
 31
0.0
  0
LINE
  5
22F6A
330
1E
100
AcDbEntity
  8
24
100
AcDbLine
 10
365.5739007545262
 20
592.0146124319832
 30
0.0
 11
365.5739007545262
 21
601.1146124319832
 31
0.0
  0
LINE
  5
22F6B
330
1E
100
AcDbEntity
  8
24
100
AcDbLine
 10
365.7489007545261
 20
591.9646124319832
 30
0.0
 11
366.6989007545262
 21
591.9646124319832
 31
0.0
  0
LINE
  5
22F6C
330
1E
100
AcDbEntity
  8
24
100
AcDbLine
 10
366.8739007545261
 20
601.5646124319832
 30
0.0
 11
366.8739007545261
 21
591.5646124319834
 31
0.0
  0
LINE
  5
22F6D
330
1E
100
AcDbEntity
  8
24
100
AcDbLine
 10
366.6989007545262
 20
601.1646124319833
 30
0.0
 11
365.7489007545261
 21
601.1646124319833
 31
0.0
  0
LINE
  5
22F6E
330
1E
100
AcDbEntity
  8
24
100
AcDbLine
 10
367.8739007545259
 20
601.5646124319832
 30
0.0
 11
366.8739007545261
 21
601.5646124319832
 31
0.0
  0
LINE
  5
22F6F
330
1E
100
AcDbEntity
  8
24
100
AcDbLine
 10
367.8739007545259
 20
591.5646124319834
 30
0.0
 11
367.8739007545259
 21
601.5646124319832
 31
0.0
  0
LINE
  5
22F70
330
1E
100
AcDbEntity
  8
24
100
AcDbLine
 10
366.8739007545261
 20
591.5646124319834
 30
0.0
 11
367.8739007545259
 21
591.5646124319834
 31
0.0
  0
LINE
  5
22F71
330
1E
100
AcDbEntity
  8
24
100
AcDbLine
 10
365.8739007545261
 20
594.0646124319832
 30
0.0
 11
390.0739007545262
 21
594.0646124319832
 31
0.0
  0
LINE
  5
22F72
330
1E
100
AcDbEntity
  8
24
100
AcDbLine
 10
390.0739007545262
 20
599.0646124319834
 30
0.0
 11
365.8739007545261
 21
599.0646124319834
 31
0.0
  0
LINE
  5
22F73
330
1E
100
AcDbEntity
  8
24
100
AcDbLine
 10
387.3239007545262
 20
557.3146124319833
 30
0.0
 11
387.3239007545262
 21
573.7962586829834
 31
0.0
  0
LINE
  5
22F74
330
1E
100
AcDbEntity
  8
24
100
AcDbLine
 10
387.3239007545262
 20
573.7962586829834
 30
0.0
 11
386.3239007545262
 21
573.7962586829834
 31
0.0
  0
LINE
  5
22F75
330
1E
100
AcDbEntity
  8
24
100
AcDbLine
 10
386.3239007545262
 20
573.7962586829834
 30
0.0
 11
386.3239007545262
 21
557.3146124319833
 31
0.0
  0
LINE
  5
22F76
330
1E
100
AcDbEntity
  8
24
100
AcDbLine
 10
386.3239007545262
 20
557.3146124319833
 30
0.0
 11
387.3239007545262
 21
557.3146124319833
 31
0.0
  0
ARC
  5
22F77
330
1E
100
AcDbEntity
  8
24
100
AcDbCircle
 10
369.8739007545261
 20
596.5646124319833
 30
0.0
 40
7.999999999999971
100
AcDbArc
 50
187.3900279016011
 51
210.9924669536009
  0
ARC
  5
22F78
330
1E
100
AcDbEntity
  8
24
100
AcDbCircle
 10
369.8739007545261
 20
596.5646124319833
 30
0.0
 40
8.0
100
AcDbArc
 50
149.007533046399
 51
172.6099720983987
  0
ARC
  5
22F79
330
1E
100
AcDbEntity
  8
24
100
AcDbCircle
 10
364.1304261962761
 20
600.0146124319832
 30
0.0
 40
1.300000000000032
100
AcDbArc
 50
90.0
 51
149.007533046399
  0
ARC
  5
22F7A
330
1E
100
AcDbEntity
  8
24
100
AcDbCircle
 10
364.1304261962761
 20
593.1146124319832
 30
0.0
 40
1.29999999999999
100
AcDbArc
 50
210.9924669536009
 51
270.0
  0
ARC
  5
22F7B
330
1E
100
AcDbEntity
  8
24
100
AcDbCircle
 10
365.3739007545259
 20
592.0146124319832
 30
0.0
 40
0.199999999999978
100
AcDbArc
 50
270.0
 51
0.0
  0
ARC
  5
22F7C
330
1E
100
AcDbEntity
  8
24
100
AcDbCircle
 10
365.3739007545259
 20
601.1146124319832
 30
0.0
 40
0.2000000000000313
100
AcDbArc
 50
0.0
 51
90.0
  0
ARC
  5
22F7D
330
1E
100
AcDbEntity
  8
24
100
AcDbCircle
 10
365.7489007545261
 20
592.1396124319832
 30
0.0
 40
0.175000000000054
100
AcDbArc
 50
180.0
 51
270.0
  0
ARC
  5
22F7E
330
1E
100
AcDbEntity
  8
24
100
AcDbCircle
 10
366.6989007545262
 20
592.1396124319832
 30
0.0
 40
0.1750000000000007
100
AcDbArc
 50
270.0
 51
0.0
  0
ARC
  5
22F7F
330
1E
100
AcDbEntity
  8
24
100
AcDbCircle
 10
365.7489007545261
 20
600.9896124319832
 30
0.0
 40
0.1750000000000007
100
AcDbArc
 50
90.0
 51
180.0
  0
ARC
  5
22F80
330
1E
100
AcDbEntity
  8
24
100
AcDbCircle
 10
366.6989007545262
 20
600.9896124319832
 30
0.0
 40
0.1750000000000007
100
AcDbArc
 50
0.0
 51
90.0
  0
ARC
  5
22F81
330
1E
100
AcDbEntity
  8
24
100
AcDbCircle
 10
365.8739007545261
 20
593.7646124319832
 30
0.0
 40
0.3000000000000113
100
AcDbArc
 50
90.0
 51
180.0
  0
ARC
  5
22F82
330
1E
100
AcDbEntity
  8
24
100
AcDbCircle
 10
365.8739007545261
 20
599.3646124319832
 30
0.0
 40
0.3000000000000113
100
AcDbArc
 50
180.0
 51
270.0
  0
SPLINE
  5
22F83
330
1E
100
AcDbEntity
  8
10
100
AcDbSpline
210
0.0
220
0.0
230
1.0
 70
     8
 71
     3
 72
     8
 73
     4
 74
     0
 42
0.000000001
 43
0.0000000001
 40
0.0
 40
0.0
 40
0.0
 40
0.0
 40
1.0
 40
1.0
 40
1.0
 40
1.0
 10
385.4162912738662
 20
579.0619807063857
 30
0.0
 10
379.5461311653457
 20
569.8322235573457
 30
0.0
 10
393.5847491885569
 20
549.4808711784144
 30
0.0
 10
385.5881884525654
 20
532.5646124320352
 30
0.0
  0
DIMENSION
  5
22F84
330
1E
100
AcDbEntity
  8
30
100
AcDbDimension
280
     0
  2
*D19
 10
389.273900754526
 20
515.0646124319833
 30
0.0
 11
399.273900754526
 21
515.0646124319833
 31
0.0
 70
   160
  1
<>
 71
     2
 42
20.0
 73
     0
 74
     0
 75
     0
  3
STANDARD1
100
AcDbAlignedDimension
 13
409.273900754526
 23
562.6671124319833
 33
0.0
 14
389.273900754526
 24
559.5646124319833
 34
0.0
100
AcDbRotatedDimension
  0
DIMENSION
  5
22F85
330
1E
100
AcDbEntity
  8
30
100
AcDbDimension
280
     0
  2
*D20
 10
389.273900754526
 20
515.0646124319833
 30
0.0
 11
364.1739007545262
 21
515.0646124319833
 31
0.0
 70
   160
  1
<>
 71
     2
 42
14.09999999999991
 73
     0
 74
     0
 75
     0
  3
STANDARD1
100
AcDbAlignedDimension
 13
375.1739007545261
 23
581.2646124319832
 33
0.0
 14
389.273900754526
 24
551.1734621207333
 34
0.0
100
AcDbRotatedDimension
  0
DIMENSION
  5
22F86
330
1E
100
AcDbEntity
  8
30
100
AcDbDimension
280
     0
  2
*D21
 10
390.5739007545262
 20
624.5923335657334
 30
0.0
 11
382.8739007545261
 21
624.5923335657334
 31
0.0
 70
   160
  1
<>
 71
     2
 42
15.40000000000009
 73
     0
 74
     0
 75
     0
  3
STANDARD1
100
AcDbAlignedDimension
 13
375.1739007545261
 23
606.0646124319832
 33
0.0
 14
390.5739007545262
 24
598.5646124319834
 34
0.0
100
AcDbRotatedDimension
  0
LINE
  5
22F87
330
1E
100
AcDbEntity
  8
17
100
AcDbLine
 10
360.8739013952763
 20
596.5646118954833
 30
0.0
 11
395.0738973155262
 21
596.5646118954833
 31
0.0
  0
LINE
  5
22F88
330
1E
100
AcDbEntity
  8
131
 62
     4
100
AcDbLine
 10
411.1739016308864
 20
580.2609161572205
 30
0.0
 11
411.1739007545258
 21
579.0619807064834
 31
0.0
  0
LWPOLYLINE
  5
231D1
330
1E
100
AcDbEntity
  8
10
  6
Continuous
100
AcDbPolyline
 90
        4
 70
     1
 43
0.0
 10
-0.0000000000000284
 20
742.4999999999997
 10
525.0
 20
742.4999999999997
 10
525.0
 20
0.0
 10
-0.0000000000000284
 20
0.0
  0
LWPOLYLINE
  5
231D9
330
1E
100
AcDbEntity
  8
130
100
AcDbPolyline
 90
       12
 70
     1
 43
0.0
 10
289.178475728952
 20
353.0506563367751
 42
0.3536533375391462
 10
291.1340805571068
 20
351.4697145142363
 10
347.5172489765071
 20
351.4697145142363
 10
347.5172489765071
 20
481.4697145142361
 10
291.1340805571068
 20
481.4697145142361
 42
0.3536533375391462
 10
289.1784757289071
 20
479.888772691836
 10
287.517248976507
 20
467.4697145142363
 10
281.517248976507
 20
467.4697145142363
 42
0.4142135623730951
 10
279.517248976507
 20
465.4697145142362
 10
279.517248976507
 20
367.4697145142364
 42
0.4142135623730951
 10
281.517248976507
 20
365.4697145142363
 10
287.517248976507
 20
365.4697145142363
  0
LWPOLYLINE
  5
231E5
330
1E
100
AcDbEntity
  8
130
100
AcDbPolyline
 90
        3
 70
     0
 43
0.0
 10
254.3158485798397
 20
430.9647312673238
 42
-0.4244748162090743
 10
256.7665729108362
 20
432.4724269352434
 42
0.0222841686770106
 10
269.3237370439362
 20
429.0294587284471
  0
LWPOLYLINE
  5
231E7
330
1E
100
AcDbEntity
  8
130
100
AcDbPolyline
 90
        2
 70
     0
 43
0.0
 10
253.5959638240069
 20
427.6904993719861
 10
254.3158463720071
 20
430.9647315212361
  0
LWPOLYLINE
  5
231E8
330
1E
100
AcDbEntity
  8
130
100
AcDbPolyline
 90
       15
 70
     0
 43
0.0
 10
253.5959619900899
 20
427.6904992853236
 42
0.4244748162100999
 10
255.1882682562559
 20
425.2938856893599
 10
256.7291987429517
 20
425.0190051833905
 10
258.1273071508414
 20
424.7838341695426
 10
259.3945903675223
 20
424.5826165176059
 10
260.5430452805915
 20
424.4095960973701
 10
261.5846687776462
 20
424.2590167786246
 10
262.5314577462835
 20
424.1251224311596
 10
263.3954090741006
 20
424.0021569247647
 10
264.1885196486948
 20
423.8843641292294
 10
264.9227259943797
 20
423.7660621522018
 10
265.6077997299411
 20
423.6442316130569
 10
266.8586185980914
 20
423.3914569016075
 10
267.9962576415978
 20
423.1300381653624
 10
269.0758268356436
 20
422.8641843876231
  0
TEXT
  5
2327C
330
1E
100
AcDbEntity
  8
30
100
AcDbText
 10
487.5528174373975
 20
462.6541484407749
 30
0.0
 40
5.0
  1
(max.)
100
AcDbText
  0
TEXT
  5
2327D
330
1E
100
AcDbEntity
  8
30
100
AcDbText
 10
508.8497610031713
 20
495.4235166610188
 30
0.0
 40
5.0
  1
(max.)
 50
90.0
100
AcDbText
  0
MTEXT
  5
2331D
330
1E
100
AcDbEntity
  8
19
100
AcDbMText
 10
247.0252216595556
 20
29.56070656900923
 30
0.0
 40
7.826237649998486
 41
0.0
 46
0.0
 71
     1
 72
     1
  1
[Cutout A]
  7
SLDTEXTSTYLE0
 73
     1
 44
1.0
  0
MTEXT
  5
2331E
330
1E
100
AcDbEntity
  8
19
100
AcDbMText
 10
392.1675306951848
 20
29.56070656900923
 30
0.0
 40
7.826237649998486
 41
0.0
 46
0.0
 71
     1
 72
     1
  1
[Cutout B]
  7
SLDTEXTSTYLE0
 73
     1
 44
1.0
  0
LINE
  5
238FB
330
1E
100
AcDbEntity
  8
16
100
AcDbLine
 10
237.3909754604967
 20
144.9657427111929
 30
0.0
 11
304.7219610129967
 21
144.9657427111929
 31
0.0
  0
LINE
  5
238FC
330
1E
100
AcDbEntity
  8
18
  6
DIVIDE
100
AcDbLine
 10
242.8324900034967
 20
229.9657427111929
 30
0.0
 11
302.8324900034967
 21
229.9657427111929
 31
0.0
  0
LINE
  5
238FD
330
1E
100
AcDbEntity
  8
18
  6
DIVIDE
100
AcDbLine
 10
242.8324900034967
 20
229.9657427111929
 30
0.0
 11
242.8324900034967
 21
59.96574271119285
 31
0.0
  0
LINE
  5
238FE
330
1E
100
AcDbEntity
  8
18
  6
DIVIDE
100
AcDbLine
 10
242.8324900034967
 20
59.96574271119285
 30
0.0
 11
302.8324900034967
 21
59.96574271119285
 31
0.0
  0
LINE
  5
238FF
330
1E
100
AcDbEntity
  8
18
  6
DIVIDE
100
AcDbLine
 10
302.8324900034967
 20
229.9657427111929
 30
0.0
 11
302.8324900034967
 21
59.96574271119285
 31
0.0
  0
LINE
  5
23900
330
1E
100
AcDbEntity
  8
16
100
AcDbLine
 10
274.4324900034967
 20
235.2215369643999
 30
0.0
 11
274.4324900034967
 21
57.96574271119285
 31
0.0
  0
LINE
  5
23901
330
1E
100
AcDbEntity
  8
11
 48
2.0
100
AcDbLine
 10
245.3324900034967
 20
170.9657427111928
 30
0.0
 11
300.3324900034967
 21
170.9657427111928
 31
0.0
  0
LINE
  5
23902
330
1E
100
AcDbEntity
  8
11
 48
2.0
100
AcDbLine
 10
244.3324900034967
 20
169.9657427111928
 30
0.0
 11
244.3324900034967
 21
119.9657427111928
 31
0.0
  0
LINE
  5
23903
330
1E
100
AcDbEntity
  8
11
 48
2.0
100
AcDbLine
 10
245.3324900034967
 20
118.9657427111928
 30
0.0
 11
300.3324900034967
 21
118.9657427111928
 31
0.0
  0
LINE
  5
23904
330
1E
100
AcDbEntity
  8
11
 48
2.0
100
AcDbLine
 10
301.3324900034967
 20
169.9657427111928
 30
0.0
 11
301.3324900034967
 21
119.9657427111928
 31
0.0
  0
ARC
  5
23905
330
1E
100
AcDbEntity
  8
11
 48
2.0
100
AcDbCircle
 10
245.3324900034967
 20
169.9657427111928
 30
0.0
 40
0.9999999999999163
100
AcDbArc
 50
90.0
 51
180.0
  0
ARC
  5
23906
330
1E
100
AcDbEntity
  8
11
 48
2.0
100
AcDbCircle
 10
300.3324900034967
 20
169.9657427111928
 30
0.0
 40
0.9999999999999078
100
AcDbArc
 50
0.0
 51
90.0
  0
ARC
  5
23907
330
1E
100
AcDbEntity
  8
11
 48
2.0
100
AcDbCircle
 10
300.3324900034967
 20
119.9657427111928
 30
0.0
 40
0.9999999999999078
100
AcDbArc
 50
270.0
 51
0.0
  0
ARC
  5
23908
330
1E
100
AcDbEntity
  8
11
 48
2.0
100
AcDbCircle
 10
245.3324900034967
 20
119.9657427111928
 30
0.0
 40
0.9999999999999163
100
AcDbArc
 50
180.0
 51
270.0
  0
DIMENSION
  5
23909
330
1E
100
AcDbEntity
  8
30
100
AcDbDimension
280
     0
  2
*D23
 10
244.3324900034967
 20
42.53544486564777
 30
0.0
 11
271.4021109822467
 21
42.53544486564777
 31
0.0
 70
   160
  1
<>
 71
     2
 42
57.0
 73
     0
 74
     0
 75
     0
  3
STANDARD1
100
AcDbAlignedDimension
 13
301.3324900034967
 23
119.9657427111928
 33
0.0
 14
244.3324900034967
 24
119.9657427111928
 34
0.0
100
AcDbRotatedDimension
  0
DIMENSION
  5
2390A
330
1E
100
AcDbEntity
  8
30
100
AcDbDimension
280
     0
  2
*D24
 10
300.3324900034967
 20
169.9657427111929
 30
0.0
 11
318.4221376070731
 21
177.6454680414681
 31
0.0
 70
   164
  1
<>
 71
     5
 42
0.9999999999701572
 73
     0
 74
     0
 75
     0
  3
STANDARD1
100
AcDbRadialDimension
 15
301.1765840499816
 25
170.5019378628206
 35
0.0
 40
0.0
  0
DIMENSION
  5
2390B
330
1E
100
AcDbEntity
  8
30
100
AcDbDimension
280
     0
  2
*D25
 10
323.6898743491337
 20
118.9657427111928
 30
0.0
 11
323.6898743491337
 21
144.9657427111929
 31
0.0
 70
   160
  1
<>
 71
     2
 42
51.99999999999999
 73
     0
 74
     0
 75
     0
  3
STANDARD
100
AcDbAlignedDimension
 13
299.1787148769094
 23
170.9657427111928
 33
0.0
 14
299.5272959784283
 24
118.9657427111928
 34
0.0
 50
90.0
100
AcDbRotatedDimension
  0
LINE
  5
23949
330
1E
100
AcDbEntity
  8
16
100
AcDbLine
 10
408.4632604709081
 20
232.0867773419429
 30
0.0
 11
408.4632604709081
 21
64.34860356819289
 31
0.0
  0
LINE
  5
2394A
330
1E
100
AcDbEntity
  8
18
  6
DIVIDE
100
AcDbLine
 10
392.6632604709082
 20
229.9657427111929
 30
0.0
 11
452.6632604709081
 21
229.9657427111929
 31
0.0
  0
LINE
  5
2394B
330
1E
100
AcDbEntity
  8
18
  6
DIVIDE
100
AcDbLine
 10
392.6632604709082
 20
229.9657427111929
 30
0.0
 11
392.6632604709082
 21
59.96574271119285
 31
0.0
  0
LINE
  5
2394C
330
1E
100
AcDbEntity
  8
18
  6
DIVIDE
100
AcDbLine
 10
392.6632604709082
 20
59.96574271119285
 30
0.0
 11
452.6632604709081
 21
59.96574271119285
 31
0.0
  0
LINE
  5
2394D
330
1E
100
AcDbEntity
  8
18
  6
DIVIDE
100
AcDbLine
 10
452.6632604709081
 20
229.9657427111929
 30
0.0
 11
452.6632604709081
 21
59.96574271119285
 31
0.0
  0
LINE
  5
2394E
330
1E
100
AcDbEntity
  8
11
 48
2.0
100
AcDbLine
 10
397.4632604709082
 20
168.9657427111928
 30
0.0
 11
419.4632604709081
 21
168.9657427111928
 31
0.0
  0
LINE
  5
2394F
330
1E
100
AcDbEntity
  8
11
 48
2.0
100
AcDbLine
 10
396.4632604709081
 20
167.9657427111929
 30
0.0
 11
396.4632604709081
 21
121.9657427111928
 31
0.0
  0
LINE
  5
23950
330
1E
100
AcDbEntity
  8
11
 48
2.0
100
AcDbLine
 10
397.4632604709082
 20
120.9657427111928
 30
0.0
 11
419.4632604709081
 21
120.9657427111928
 31
0.0
  0
LINE
  5
23951
330
1E
100
AcDbEntity
  8
11
 48
2.0
100
AcDbLine
 10
420.4632604709081
 20
167.9657427111929
 30
0.0
 11
420.4632604709081
 21
121.9657427111928
 31
0.0
  0
LINE
  5
23952
330
1E
100
AcDbEntity
  8
16
100
AcDbLine
 10
387.9642634581581
 20
144.9657427111929
 30
0.0
 11
454.3987902846581
 21
144.9657427111929
 31
0.0
  0
ARC
  5
23953
330
1E
100
AcDbEntity
  8
11
 48
2.0
100
AcDbCircle
 10
397.4632604709082
 20
167.9657427111929
 30
0.0
 40
0.9999999999999783
100
AcDbArc
 50
90.0
 51
180.0
  0
ARC
  5
23954
330
1E
100
AcDbEntity
  8
11
 48
2.0
100
AcDbCircle
 10
419.4632604709081
 20
167.9657427111929
 30
0.0
 40
1.000000000000011
100
AcDbArc
 50
0.0
 51
90.0
  0
ARC
  5
23955
330
1E
100
AcDbEntity
  8
11
 48
2.0
100
AcDbCircle
 10
397.4632604709082
 20
121.9657427111928
 30
0.0
 40
1.000000000000011
100
AcDbArc
 50
180.0
 51
270.0
  0
ARC
  5
23956
330
1E
100
AcDbEntity
  8
11
 48
2.0
100
AcDbCircle
 10
419.4632604709081
 20
121.9657427111928
 30
0.0
 40
1.000000000000011
100
AcDbArc
 50
270.0
 51
0.0
  0
DIMENSION
  5
23957
330
1E
100
AcDbEntity
  8
30
100
AcDbDimension
280
     0
  2
*D26
 10
419.4632604709076
 20
167.9657427111928
 30
0.0
 11
439.8820270047108
 21
176.9362998486216
 31
0.0
 70
   164
  1
<>
 71
     5
 42
1.000000000128977
 73
     0
 74
     0
 75
     0
  3
STANDARD1
100
AcDbRadialDimension
 15
420.3123466528697
 25
168.4939970588884
 35
0.0
 40
0.0
  0
DIMENSION
  5
23959
330
1E
100
AcDbEntity
  8
30
100
AcDbDimension
280
     0
  2
*D27
 10
420.4632604709081
 20
42.53544486564777
 30
0.0
 11
408.4632604709081
 21
42.53544486564777
 31
0.0
 70
   160
  1
<>
 71
     2
 42
24.0
 73
     0
 74
     0
 75
     0
  3
STANDARD1
100
AcDbAlignedDimension
 13
396.4632604709081
 23
121.9657427111928
 33
0.0
 14
420.4632604709081
 24
121.9657427111928
 34
0.0
100
AcDbRotatedDimension
  0
DIMENSION
  5
2395A
330
1E
100
AcDbEntity
  8
30
100
AcDbDimension
280
     0
  2
*D28
 10
468.2814356714356
 20
120.9657427111928
 30
0.0
 11
468.2814356714356
 21
144.9657427111928
 31
0.0
 70
   160
 71
     2
 42
47.99999999999998
 73
     0
 74
     0
 75
     0
  3
STANDARD
100
AcDbAlignedDimension
 13
419.4632604709081
 23
168.9657427111928
 33
0.0
 14
419.4632604709081
 24
120.9657427111928
 34
0.0
 50
90.0
100
AcDbRotatedDimension
  0
DIMENSION
  5
23DF0
330
1E
100
AcDbEntity
  8
30
100
AcDbDimension
280
     0
  2
*D29
 10
122.4805247636424
 20
372.6395513506087
 30
0.0
 11
94.97810550809411
 21
377.6395513506086
 31
0.0
 70
    32
 71
     5
 42
55.00483851109652
 73
     0
 74
     0
 75
     0
  3
STANDARD
100
AcDbAlignedDimension
 13
67.47568625254587
 23
391.5615731870176
 33
0.0
 14
122.4805247636424
 24
391.5615731870176
 34
0.0
100
AcDbRotatedDimension
  0
DIMENSION
  5
23DF1
330
1E
100
AcDbEntity
  8
30
100
AcDbDimension
280
     0
  2
*D30
 10
91.86515518774323
 20
450.7618171013056
 30
0.0
 11
80.84200702818675
 21
455.7618171013054
 31
0.0
 70
    32
 71
     5
 42
22.04629631911294
 73
     0
 74
     0
 75
     0
  3
STANDARD
100
AcDbAlignedDimension
 13
69.81885886863029
 23
438.1518530705171
 33
0.0
 14
91.86515518774323
 24
438.1518530705171
 34
0.0
100
AcDbRotatedDimension
  0
DIMENSION
  5
23EF4
330
1E
100
AcDbEntity
  8
30
100
AcDbDimension
280
     0
  2
*D31
 10
279.517248976507
 20
296.0544065164022
 30
0.0
 11
325.0172489765071
 21
301.0544065164022
 31
0.0
 70
    32
 71
     5
 42
91.00000000000006
 73
     0
 74
     0
 75
     0
  3
STANDARD1
100
AcDbAlignedDimension
 13
370.5172489765071
 23
375.0608530076363
 33
0.0
 14
279.517248976507
 24
367.4697145142364
 34
0.0
100
AcDbRotatedDimension
  0
LINE
  5
23F1A
330
1E
100
AcDbEntity
  8
130
100
AcDbLine
 10
275.517248976507
 20
441.3998936332363
 30
0.0
 11
275.517248976507
 21
391.5395353952364
 31
0.0
  0
DIMENSION
  5
23F1B
330
1E
100
AcDbEntity
  8
30
100
AcDbDimension
280
     0
  2
*D32
 10
370.5172489765071
 20
281.7101253128553
 30
0.0
 11
323.0172489765071
 21
286.7101253128553
 31
0.0
 70
    32
 71
     5
 42
95.00000000000005
 73
     0
 74
     0
 75
     0
  3
STANDARD1
100
AcDbAlignedDimension
 13
275.517248976507
 23
391.5395353952364
 33
0.0
 14
370.5172489765071
 24
375.0608530076362
 34
0.0
100
AcDbRotatedDimension
  0
DIMENSION
  5
23F3A
330
1E
100
AcDbEntity
  8
30
100
AcDbDimension
280
     0
  2
*D33
 10
252.0172489765069
 20
267.6798234326383
 30
0.0
 11
311.267248976507
 21
272.6798234326383
 31
0.0
 70
    32
 71
     5
 42
118.5000000000001
 73
     0
 74
     0
 75
     0
  3
STANDARD1
100
AcDbAlignedDimension
 13
370.5172489765071
 23
375.0608530076362
 33
0.0
 14
252.0172489765069
 24
413.4697145142361
 34
0.0
100
AcDbRotatedDimension
  0
LINE
  5
23F74
330
1E
100
AcDbEntity
  8
16
100
AcDbLine
 10
80.8418716792277
 20
238.5037606374337
 30
0.0
 11
80.8418716792277
 21
50.08677734194288
 31
0.0
  0
LINE
  5
23F75
330
1E
100
AcDbEntity
  8
16
100
AcDbLine
 10
258.6324900034967
 20
235.2215369643999
 30
0.0
 11
258.6324900034967
 21
57.96574271119285
 31
0.0
  0
VIEWPORT
  5
9AC
330
1A
100
AcDbEntity
 67
     1
  8
0
  6
Continuous
348
1001B
100
AcDbViewport
 10
0.0
 20
0.0
 30
0.0
 40
0.0
 41
0.0
 68
     1
 69
     1
 12
0.0
 22
0.0
 13
0.0
 23
0.0
 14
10.0
 24
10.0
 15
10.0
 25
10.0
 16
0.0
 26
0.0
 36
1.0
 17
0.0
 27
0.0
 37
0.0
 42
50.0
 43
0.0
 44
0.0
 45
0.0
 50
0.0
 51
0.0
 72
   100
 90
    32800
  1

281
     0
 71
     1
 74
     0
110
0.0
120
0.0
130
0.0
111
1.0
121
0.0
131
0.0
112
0.0
122
1.0
132
0.0
 79
     0
146
0.0
170
     0
 61
     5
292
     1
282
     1
141
0.0
142
0.0
 63
   250
421
  3355443
  0
VIEWPORT
  5
E19D
330
1A
100
AcDbEntity
 67
     1
  8
30
348
1001B
100
AcDbViewport
 10
0.0
 20
0.0
 30
0.0
 40
0.0
 41
0.0
 68
     2
 69
     2
 12
8.653370891979619
 22
137.2805829780177
 13
0.0
 23
0.0
 14
1.0
 24
1.0
 15
10.0
 25
10.0
 16
0.0
 26
0.0
 36
1.0
 17
0.0
 27
0.0
 37
0.0
 42
50.0
 43
0.0
 44
0.0
 45
689.9195596776387
 50
0.0
 51
0.0
 72
   100
 90
    37664
  1

281
     0
 71
     1
 74
     0
110
0.0
120
0.0
130
0.0
111
1.0
121
0.0
131
0.0
112
0.0
122
1.0
132
0.0
 79
     0
146
0.0
170
     0
 61
     5
292
     1
282
     1
141
0.0
142
0.0
 63
   250
421
  3355443
  0
ENDSEC
  0
SECTION
  2
OBJECTS
  0
DICTIONARY
  5
C
330
0
100
AcDbDictionary
281
     1
  3
ACAD_CIP_PREVIOUS_PRODUCT_INFO
350
23EF3
  3
ACAD_COLOR
350
10029
  3
ACAD_DETAILVIEWSTYLE
350
23EEF
  3
ACAD_GROUP
350
D
  3
ACAD_LAYOUT
350
19
  3
ACAD_MATERIAL
350
FFFC
  3
ACAD_MLEADERSTYLE
350
1004E
  3
ACAD_MLINESTYLE
350
16
  3
ACAD_PLOTSETTINGS
350
18
  3
ACAD_PLOTSTYLENAME
350
E
  3
ACAD_SCALELIST
350
1002C
  3
ACAD_SECTIONVIEWSTYLE
350
23EED
  3
ACAD_TABLESTYLE
350
1002A
  3
ACAD_VISUALSTYLE
350
10015
  3
ACADDIM
350
6D5E
  3
ACDB_RECOMPOSE_DATA
350
23FD5
  3
ACDBVARIABLEDICTIONARY
350
5697
  3
AEC_PROPERTY_SET_DEFS
350
102B7
  3
ASE_INDEX_DICTIONARY
350
1012A
  0
DICTIONARY
  5
21E04
330
2
100
AcDbDictionary
280
     1
281
     1
  3
ACAD_LAYERSTATES
360
21E05
  0
DICTIONARY
  5
10054
330
10
100
AcDbDictionary
280
     1
281
     1
  3
ADSK_XREC_LAYER_RECONCILED
360
10055
  0
DICTIONARY
  5
10056
330
2F
100
AcDbDictionary
280
     1
281
     1
  3
ADSK_XREC_LAYER_RECONCILED
360
10057
  0
DICTIONARY
  5
1005A
330
35
100
AcDbDictionary
280
     1
281
     1
  3
ADSK_XREC_LAYER_RECONCILED
360
1005B
  0
DICTIONARY
  5
1005E
330
3D
100
AcDbDictionary
280
     1
281
     1
  3
ADSK_XREC_LAYER_RECONCILED
360
1005F
  0
DICTIONARY
  5
10060
330
3A2
100
AcDbDictionary
280
     1
281
     1
  3
ADSK_XREC_LAYER_RECONCILED
360
10061
  0
DICTIONARY
  5
10062
330
3BBA
100
AcDbDictionary
280
     1
281
     1
  3
ADSK_XREC_LAYER_RECONCILED
360
10063
  0
DICTIONARY
  5
10064
330
67A8
100
AcDbDictionary
280
     1
281
     1
  3
ADSK_XREC_LAYER_RECONCILED
360
10065
  0
DICTIONARY
  5
10066
330
7837
100
AcDbDictionary
280
     1
281
     1
  3
ADSK_XREC_LAYER_RECONCILED
360
10067
  0
DICTIONARY
  5
10070
330
C500
100
AcDbDictionary
280
     1
281
     1
  3
ADSK_XREC_LAYER_RECONCILED
360
10071
  0
DICTIONARY
  5
10072
330
C501
100
AcDbDictionary
280
     1
281
     1
  3
ADSK_XREC_LAYER_RECONCILED
360
10073
  0
DICTIONARY
  5
10076
330
F7D2
100
AcDbDictionary
280
     1
281
     1
  3
ADSK_XREC_LAYER_RECONCILED
360
10077
  0
DICTIONARY
  5
10078
330
F7D8
100
AcDbDictionary
280
     1
281
     1
  3
ADSK_XREC_LAYER_RECONCILED
360
10079
  0
DICTIONARY
  5
1007A
330
F9C3
100
AcDbDictionary
280
     1
281
     1
  3
ADSK_XREC_LAYER_RECONCILED
360
1007B
  0
DICTIONARY
  5
178
330
1E
100
AcDbDictionary
280
     1
281
     1
  3
ACAD_LAYOUTSELFREF
360
9011
  3
ACAD_SORTENTS
360
10128
  0
DICTIONARY
  5
17A
330
1A
100
AcDbDictionary
280
     1
281
     1
  3
ACAD_LAYOUTSELFREF
360
9010
  0
XRECORD
  5
23EF3
102
{ACAD_REACTORS
330
C
102
}
330
C
100
AcDbXrecord
280
     1
300
ACDLT
300
2014
300
ACDLT_F_S
  0
DICTIONARY
  5
10029
102
{ACAD_REACTORS
330
C
102
}
330
C
100
AcDbDictionary
281
     1
  0
DICTIONARY
  5
23EEF
102
{ACAD_REACTORS
330
C
102
}
330
C
100
AcDbDictionary
281
     1
  3
Imperial24
350
23EF0
  0
DICTIONARY
  5
D
102
{ACAD_REACTORS
330
C
102
}
330
C
100
AcDbDictionary
281
     1
  0
DICTIONARY
  5
19
102
{ACAD_REACTORS
330
C
102
}
330
C
100
AcDbDictionary
281
     1
  3
Model
350
904E
  3
ﾚｲｱｳﾄ1
350
904F
  0
DICTIONARY
  5
FFFC
102
{ACAD_REACTORS
330
C
102
}
330
C
100
AcDbDictionary
281
     1
  3
ByBlock
350
10005
  3
ByLayer
350
FFFD
  3
Global
350
1000D
  0
DICTIONARY
  5
1004E
102
{ACAD_REACTORS
330
C
102
}
330
C
100
AcDbDictionary
281
     1
  3
Standard
350
1004F
  0
DICTIONARY
  5
16
102
{ACAD_REACTORS
330
C
102
}
330
C
100
AcDbDictionary
281
     1
  3
STANDARD
350
17
  0
DICTIONARY
  5
18
102
{ACAD_REACTORS
330
C
102
}
330
C
100
AcDbDictionary
281
     1
  0
ACDBDICTIONARYWDFLT
  5
E
102
{ACAD_REACTORS
330
C
102
}
330
C
100
AcDbDictionary
281
     1
  3
Normal
350
F
100
AcDbDictionaryWithDefault
340
F
  0
DICTIONARY
  5
1002C
102
{ACAD_REACTORS
330
C
102
}
330
C
100
AcDbDictionary
281
     1
  3
A0
350
1002D
  3
A1
350
1002E
  3
A2
350
1002F
  3
A3
350
10030
  3
A4
350
10031
  3
A5
350
10032
  3
A6
350
10033
  3
A7
350
10034
  3
A8
350
10035
  3
A9
350
10036
  3
B0
350
10037
  3
B1
350
10038
  3
B2
350
10039
  3
B3
350
1003A
  3
B4
350
1003B
  3
B5
350
1003C
  3
B6
350
1003D
  3
B7
350
1003E
  3
B8
350
1003F
  3
B9
350
10040
  3
C0
350
10041
  3
C1
350
10042
  3
C2
350
10043
  3
C3
350
10044
  3
C4
350
10045
  3
C5
350
10046
  3
C6
350
10047
  3
C7
350
10048
  3
C8
350
10049
  3
C9
350
1004A
  3
D0
350
1004B
  3
D1
350
1004C
  3
D2
350
1004D
  0
DICTIONARY
  5
23EED
102
{ACAD_REACTORS
330
C
102
}
330
C
100
AcDbDictionary
281
     1
  3
Imperial24
350
23EEE
  0
DICTIONARY
  5
1002A
102
{ACAD_REACTORS
330
C
102
}
330
C
100
AcDbDictionary
281
     1
  3
Standard
350
1002B
  0
DICTIONARY
  5
10015
102
{ACAD_REACTORS
330
C
102
}
330
C
100
AcDbDictionary
281
     1
  3
2dWireframe
350
1001B
  3
3D Hidden
350
1001D
  3
3dWireframe
350
1001C
  3
Basic
350
1001A
  3
Brighten
350
10021
  3
ColorChange
350
10025
  3
Conceptual
350
1001E
  3
Dim
350
10020
  3
EdgeColorOff
350
10028
  3
Facepattern
350
10024
  3
Flat
350
10016
  3
FlatWithEdges
350
10017
  3
Gouraud
350
10018
  3
GouraudWithEdges
350
10019
  3
Hidden
350
23EE7
  3
JitterOff
350
10026
  3
Linepattern
350
10023
  3
OverhangOff
350
10027
  3
Realistic
350
1001F
  3
Shaded
350
23EEC
  3
Shaded with edges
350
23EEB
  3
Shades of Gray
350
23EE8
  3
Sketchy
350
23EE9
  3
Thicken
350
10022
  3
Wireframe
350
23EE6
  3
X-Ray
350
23EEA
  0
XRECORD
  5
6D5E
102
{ACAD_REACTORS
330
C
102
}
330
C
100
AcDbXrecord
280
     1
 90
   990106
  3

 60
     0
 61
     0
 62
     1
 63
     3
 64
     0
 65
     0
 66
     0
 67
     3
 68
     1
 69
     0
 70
     0
 71
     0
 72
     0
 40
0.0
170
     0
340
0
  0
XRECORD
  5
23FD5
102
{ACAD_REACTORS
330
C
102
}
330
C
100
AcDbXrecord
280
     1
 90
        1
330
1002B
330
23EEE
330
23EF0
  0
DICTIONARY
  5
5697
102
{ACAD_REACTORS
330
C
102
}
330
C
100
AcDbDictionary
281
     1
  3
CANNOSCALE
350
100CD
  3
CMLEADERSTYLE
350
100CC
  3
CTABLESTYLE
350
100CB
  3
CVIEWDETAILSTYLE
350
23F62
  3
CVIEWSECTIONSTYLE
350
23F63
  3
DIMASSOC
350
5698
  3
INDEXCTL
350
100CF
  3
LAYEREVAL
350
21D20
  3
LAYERNOTIFY
350
21D21
  3
LIGHTINGUNITS
350
21D1F
  3
MSLTSCALE
350
21D1E
  3
SORTENTS
350
100CE
  0
DICTIONARY
  5
102B7
102
{ACAD_REACTORS
330
C
102
}
330
C
100
AcDbDictionary
281
     1
  0
DICTIONARY
  5
1012A
102
{ACAD_REACTORS
330
C
102
}
330
C
100
AcDbDictionary
281
     1
  3
ASEBlockHierarchyIndexRecord
350
1012C
1001
DCO15
1040
1706443972.030999
  0
DICTIONARY
  5
21E05
102
{ACAD_REACTORS
330
21E04
102
}
330
21E04
100
AcDbDictionary
281
     1
  0
XRECORD
  5
10055
102
{ACAD_REACTORS
330
10054
102
}
330
10054
100
AcDbXrecord
280
     1
290
     1
  0
XRECORD
  5
10057
102
{ACAD_REACTORS
330
10056
102
}
330
10056
100
AcDbXrecord
280
     1
290
     1
  0
XRECORD
  5
1005B
102
{ACAD_REACTORS
330
1005A
102
}
330
1005A
100
AcDbXrecord
280
     1
290
     1
  0
XRECORD
  5
1005F
102
{ACAD_REACTORS
330
1005E
102
}
330
1005E
100
AcDbXrecord
280
     1
290
     1
  0
XRECORD
  5
10061
102
{ACAD_REACTORS
330
10060
102
}
330
10060
100
AcDbXrecord
280
     1
290
     1
  0
XRECORD
  5
10063
102
{ACAD_REACTORS
330
10062
102
}
330
10062
100
AcDbXrecord
280
     1
290
     1
  0
XRECORD
  5
10065
102
{ACAD_REACTORS
330
10064
102
}
330
10064
100
AcDbXrecord
280
     1
290
     1
  0
XRECORD
  5
10067
102
{ACAD_REACTORS
330
10066
102
}
330
10066
100
AcDbXrecord
280
     1
290
     1
  0
XRECORD
  5
10071
102
{ACAD_REACTORS
330
10070
102
}
330
10070
100
AcDbXrecord
280
     1
290
     1
  0
XRECORD
  5
10073
102
{ACAD_REACTORS
330
10072
102
}
330
10072
100
AcDbXrecord
280
     1
290
     1
  0
XRECORD
  5
10077
102
{ACAD_REACTORS
330
10076
102
}
330
10076
100
AcDbXrecord
280
     1
290
     1
  0
XRECORD
  5
10079
102
{ACAD_REACTORS
330
10078
102
}
330
10078
100
AcDbXrecord
280
     1
290
     1
  0
XRECORD
  5
1007B
102
{ACAD_REACTORS
330
1007A
102
}
330
1007A
100
AcDbXrecord
280
     1
290
     1
  0
XRECORD
  5
9011
102
{ACAD_REACTORS
330
178
102
}
330
178
100
AcDbXrecord
280
     1
340
1E
  0
SORTENTSTABLE
  5
10128
102
{ACAD_REACTORS
330
178
102
}
330
178
100
AcDbSortentsTable
330
1E
331
224B9
  5
224B9
331
224F8
  5
224F8
331
2243A
  5
2243A
331
22ED6
  5
22EE6
331
22F2D
  5
22F3D
331
22500
  5
22500
331
22E87
  5
22E87
331
22E8F
  5
22E8F
331
22EDE
  5
22EEE
331
224D1
  5
224D1
331
22508
  5
22508
331
22F35
  5
22F45
331
22F84
  5
231E2
331
22F3D
  5
22F4D
331
228B0
  5
228B9
331
2246A
  5
2246A
331
22E97
  5
22E97
331
22EE6
  5
22EF8
331
22EF0
  5
22F02
331
22F64
  5
22F74
331
22EEE
  5
22F00
331
22EFC
  5
22F0C
331
22F06
  5
22F16
331
22F6C
  5
22F7C
331
22F74
  5
22F84
331
22F7C
  5
231DA
331
228B8
  5
228C1
331
22472
  5
22472
331
224D9
  5
224D9
331
22F0E
  5
22F1E
331
2247A
  5
2247A
331
22EAF
  5
22EBF
331
22482
  5
22482
331
224E9
  5
224E9
331
22F16
  5
22F26
331
22EBC
  5
22ECC
331
22EC7
  5
22ED7
331
224F1
  5
224F1
331
22F1E
  5
22F2E
331
228C5
  5
2291C
331
22F45
  5
22F55
331
22ECF
  5
22EDF
331
22F26
  5
22F36
331
22F4D
  5
22F5D
331
22F55
  5
22F65
331
22F5D
  5
22F6D
331
2243B
  5
2243B
331
224BA
  5
224BA
331
224F9
  5
224F9
331
22F2E
  5
22F3E
331
22501
  5
22501
331
22ED7
  5
22EE7
331
22EDF
  5
22EEF
331
22F36
  5
22F46
331
22E90
  5
22E90
331
22EF1
  5
22F03
331
22EE7
  5
22EF9
331
228B1
  5
228BA
331
22F3E
  5
22F4E
331
22F85
  5
231E3
331
22EFD
  5
22F0D
331
22EEF
  5
22F01
331
22F65
  5
22F75
331
22F07
  5
22F17
331
22F6D
  5
22F7D
331
22F75
  5
22F85
331
22F7D
  5
231DB
331
22EA0
  5
22EBB
331
22473
  5
22473
331
228B9
  5
228C2
331
2247B
  5
2247B
331
224E2
  5
224E2
331
22F0F
  5
22F1F
331
22F17
  5
22F27
331
22EC0
  5
22ED0
331
22483
  5
22483
331
224EA
  5
224EA
331
22F1F
  5
22F2F
331
22EBD
  5
22ECD
331
224F2
  5
224F2
331
22EC8
  5
22ED8
331
22F46
  5
22F56
331
22F27
  5
22F37
331
228C6
  5
2291D
331
22F4E
  5
22F5E
331
231E5
  5
22E9A
331
22F56
  5
22F66
331
22F5E
  5
22F6E
331
22ED0
  5
22EE0
331
224BB
  5
224BB
331
224FA
  5
224FA
331
22E89
  5
22E89
331
22ED8
  5
22EE8
331
22502
  5
22502
331
22F2F
  5
22F3F
331
2245C
  5
2245C
331
22E91
  5
22E91
331
22EE0
  5
22EF0
331
22F37
  5
22F47
331
22F86
  5
231E4
331
22EB0
  5
22EC0
331
22F3F
  5
22F4F
331
228B2
  5
228BB
331
2246C
  5
2246C
331
22EE8
  5
22EFA
331
22EF2
  5
22F04
331
22F66
  5
22F76
331
22EFE
  5
22F0E
331
22F00
  5
22F10
331
22F6E
  5
22F7E
331
22F76
  5
22F86
331
22F7E
  5
231DC
331
22F08
  5
22F18
331
22474
  5
22474
331
22EA1
  5
22EBC
331
22F10
  5
22F20
331
2247C
  5
2247C
331
22EC1
  5
22ED1
331
22484
  5
22484
331
224EB
  5
224EB
331
22F18
  5
22F28
331
22EBE
  5
22ECE
331
22A01
  5
22A01
331
22C02
  5
22C02
331
22EC9
  5
22ED9
331
2191D
  5
2191D
331
224F3
  5
224F3
331
22F20
  5
22F30
331
2181F
  5
2181F
331
22F47
  5
22F57
331
22F4F
  5
22F5F
331
22F57
  5
22F67
331
22F5F
  5
22F6F
331
22F28
  5
22F38
331
22ED1
  5
22EE1
331
224BC
  5
224BC
331
224FB
  5
224FB
331
22F30
  5
22F40
331
22503
  5
22503
331
22E8A
  5
22E8A
331
22ED9
  5
22EE9
331
22EE1
  5
22EF1
331
22F38
  5
22F48
331
22465
  5
22465
331
22E92
  5
22E92
331
22EE9
  5
22EFB
331
22EF3
  5
22F05
331
228B3
  5
228BC
331
22F87
  5
231E5
331
2246D
  5
2246D
331
22EFF
  5
22F0F
331
22F01
  5
22F11
331
22F67
  5
22F77
331
22F6F
  5
22F7F
331
22F77
  5
22F87
331
22F7F
  5
231DD
331
22475
  5
22475
331
22F09
  5
22F19
331
2077E
  5
2077E
331
2247D
  5
2247D
331
224E4
  5
224E4
331
22F11
  5
22F21
331
22F19
  5
22F29
331
224EC
  5
224EC
331
216DE
  5
216DE
331
22485
  5
22485
331
22EC2
  5
22ED2
331
22F40
  5
22F50
331
22F21
  5
22F31
331
22A02
  5
22A02
331
22EBF
  5
22ECF
331
224F4
  5
224F4
331
22C03
  5
22C03
331
22ECA
  5
22EDA
331
22F48
  5
22F58
331
22BC8
  5
22BC8
331
22F50
  5
22F60
331
231E7
  5
22EA0
331
22F58
  5
22F68
331
22ED2
  5
22EE2
331
224FC
  5
224FC
331
22F29
  5
22F39
331
22E8B
  5
22E8B
331
22EDA
  5
22EEA
331
22F31
  5
22F41
331
22F39
  5
22F49
331
22F80
  5
231DE
331
22466
  5
22466
331
22E93
  5
22E93
331
22EE2
  5
22EF2
331
22F60
  5
22F70
331
22EF4
  5
22F06
331
22EB2
  5
22EC2
331
228B4
  5
228BD
331
2246E
  5
2246E
331
22EEA
  5
22EFC
331
22F68
  5
22F78
331
22F70
  5
22F80
331
22F78
  5
22F88
331
22F0A
  5
22F1A
331
2077F
  5
2077F
331
22476
  5
22476
331
224E5
  5
224E5
331
22F12
  5
22F22
331
2247E
  5
2247E
331
22EC3
  5
22ED3
331
22F1A
  5
22F2A
331
224ED
  5
224ED
331
22AD4
  5
22AD4
331
22F41
  5
22F51
331
22ECB
  5
22EDB
331
224F5
  5
224F5
331
22F22
  5
22F32
331
22F49
  5
22F59
331
22F51
  5
22F61
331
22F59
  5
22F69
331
231E8
  5
22E9F
331
22F2A
  5
22F3A
331
224FD
  5
224FD
331
22ED3
  5
22EE3
331
22F32
  5
22F42
331
22E8C
  5
22E8C
331
22EDB
  5
22EEB
331
22EE3
  5
22EF3
331
22F3A
  5
22F4A
331
22F81
  5
231DF
331
224D6
  5
224D6
331
22E94
  5
22E94
331
22F61
  5
22F71
331
22EEB
  5
22EFD
331
22EF5
  5
22F07
331
2246F
  5
2246F
331
228B5
  5
228BE
331
22EF9
  5
22F09
331
22F03
  5
22F13
331
22E9D
  5
22EA1
331
22F69
  5
22F79
331
22F71
  5
22F81
331
22F79
  5
23118
331
22477
  5
22477
331
22F0B
  5
22F1B
331
207A8
  5
207A8
331
229FD
  5
228C4
331
2247F
  5
2247F
331
224E6
  5
224E6
331
22F13
  5
22F23
331
22F1B
  5
22F2B
331
218EC
  5
218EC
331
22EB9
  5
22EC9
331
224EE
  5
224EE
331
22487
  5
22487
331
22EC4
  5
22ED4
331
22F42
  5
22F52
331
228C2
  5
22919
331
231D1
  5
231E8
331
22ECC
  5
22EDC
331
224F6
  5
224F6
331
22F23
  5
22F33
331
22A04
  5
22A04
331
22F4A
  5
22F5A
331
231D9
  5
22EBD
331
22BEA
  5
22BEA
331
22F52
  5
22F62
331
22F5A
  5
22F6A
331
22ED4
  5
22EE4
331
224FE
  5
224FE
331
22F2B
  5
22F3B
331
22E8D
  5
22E8D
331
224CF
  5
224CF
331
22EDC
  5
22EEC
331
22F82
  5
231E0
331
22468
  5
22468
331
22E95
  5
22E95
331
22EE4
  5
22EF4
331
22F62
  5
22F72
331
22EFA
  5
22F0A
331
228B6
  5
228BF
331
22EEC
  5
22EFE
331
22F04
  5
22F14
331
22E9E
  5
22EB4
331
22F6A
  5
22F7A
331
22F88
  5
231E6
331
22F72
  5
22F82
331
22F7A
  5
231D1
331
A94C
  5
A94C
331
22470
  5
22470
331
22F0C
  5
22F1C
331
228BE
  5
228E0
331
22478
  5
22478
331
22480
  5
22480
331
224E7
  5
224E7
331
22F14
  5
22F24
331
22EC5
  5
22ED5
331
224A0
  5
224A0
331
224EF
  5
224EF
331
22F1C
  5
22F2C
331
22A05
  5
22A05
331
22F43
  5
22F53
331
22ECD
  5
22EDD
331
224F7
  5
224F7
331
22F24
  5
22F34
331
22F4B
  5
22F5B
331
22F53
  5
22F63
331
22F5B
  5
22F6B
331
22F2C
  5
22F3C
331
224FF
  5
224FF
331
22ED5
  5
22EE5
331
22EDD
  5
22EED
331
22F34
  5
22F44
331
22507
  5
22507
331
22E8E
  5
22E8E
331
224D0
  5
224D0
331
22EE5
  5
22EF5
331
22F3C
  5
22F4C
331
22F83
  5
231E1
331
22469
  5
22469
331
22E96
  5
22E96
331
22EFB
  5
22F0B
331
22EB5
  5
22EC5
331
22EED
  5
22EFF
331
22F63
  5
22F73
331
228B7
  5
228C0
331
22F05
  5
22F15
331
22E9F
  5
22EBA
331
22F6B
  5
22F7B
331
22F73
  5
22F83
331
22F7B
  5
231D9
331
22471
  5
22471
331
224D8
  5
224D8
331
228BF
  5
22915
331
22479
  5
22479
331
22F0D
  5
22F1D
331
22EAE
  5
22EBE
331
22481
  5
22481
331
224E8
  5
224E8
331
22F15
  5
22F25
331
22F1D
  5
22F2D
331
22EBB
  5
22ECB
331
224F0
  5
224F0
331
224A1
  5
224A1
331
22EC6
  5
22ED6
331
22F44
  5
22F54
331
22ECE
  5
22EDE
331
22F25
  5
22F35
331
22F4C
  5
22F5C
331
22F54
  5
22F64
331
22F5C
  5
22F6C
  0
XRECORD
  5
9010
102
{ACAD_REACTORS
330
17A
102
}
330
17A
100
AcDbXrecord
280
     1
340
1A
  0
ACDBDETAILVIEWSTYLE
  5
23EF0
102
{ACAD_XDICTIONARY
360
23F67
102
}
102
{ACAD_REACTORS
330
23EEF
102
}
330
23EEF
100
AcDbModelDocViewStyle
 70
     0
  3
Imperial24
290
     0
100
AcDbDetailViewStyle
 70
     0
 71
     0
 90
        3
 71
     1
340
11
 62
   256
 40
0.24
340
0
 62
   256
 40
0.24
300

 40
0.36
280
     3
 71
     2
340
15
 90
       25
 62
   256
 71
     3
340
11
 62
   256
 40
0.24
 90
        1
 40
0.75
 90
        1
300
%<\AcVar ViewType \f "%tc1">% %<\AcVar ViewDetailId>%\PSCALE %<\AcVar ViewScale \f "%sn">%
 71
     4
340
15
 90
       25
 62
   256
340
15
 90
       25
 62
   256
280
     0
  0
LAYOUT
  5
904E
102
{ACAD_XDICTIONARY
360
21E0A
102
}
102
{ACAD_REACTORS
330
19
102
}
330
19
100
AcDbPlotSettings
  1

  2
Canon LBP3800 LIPSLX
  4
A4
  6

 40
5.873749732971191
 41
5.873747825622557
 42
5.873748779296875
 43
5.873748779296875
 44
209.9733276367186
 45
296.9259948730469
 46
12.8491819637551
 47
19.52827530649846
 48
0.0
 49
0.0
140
0.0
141
0.0
142
1.0
143
2.5
 70
 11940
 72
     1
 73
     0
 74
     1
  7
monochrome.ctb
 75
     0
147
0.4396468539207607
 76
     0
 77
     2
 78
   300
148
148.1273750533901
149
230.5569407722878
100
AcDbLayout
  1
Model
 70
     1
 71
     0
 10
0.0
 20
0.0
 11
12.0
 21
9.0
 12
0.0
 22
0.0
 32
0.0
 14
0.0
 24
0.0
 34
0.0
 15
0.0
 25
0.0
 35
0.0
146
0.0
 13
0.0
 23
0.0
 33
0.0
 16
1.0
 26
0.0
 36
0.0
 17
0.0
 27
1.0
 37
0.0
 76
     0
330
1E
331
15B34
1001
ACAD_PSEXT
1000
Canon LBP3800 LIPSLX
1000
Canon LBP3800 LIPSLX
1000
IP_192.168.54.50
1000

1070
     0
  0
LAYOUT
  5
904F
102
{ACAD_REACTORS
330
19
102
}
330
19
100
AcDbPlotSettings
  1

  2
LBP5400
  4

  6

 40
0.0
 41
0.0
 42
0.0
 43
0.0
 44
0.0
 45
0.0
 46
0.0
 47
0.0
 48
0.0
 49
0.0
140
0.0
141
0.0
142
1.0
143
1.0
 70
   688
 72
     0
 73
     1
 74
     1
  7
monochrome.stb
 75
     0
147
1.0
 76
     0
 77
     2
 78
   300
148
0.0
149
0.0
100
AcDbLayout
  1
ﾚｲｱｳﾄ1
 70
     0
 71
     1
 10
0.0
 20
0.0
 11
0.0
 21
0.0
 12
0.0
 22
0.0
 32
0.0
 14
0.0
 24
0.0
 34
0.0
 15
0.0
 25
0.0
 35
0.0
146
0.0
 13
0.0
 23
0.0
 33
0.0
 16
1.0
 26
0.0
 36
0.0
 17
0.0
 27
1.0
 37
0.0
 76
     0
330
1A
331
9AC
  0
MATERIAL
  5
10005
102
{ACAD_XDICTIONARY
360
10006
102
}
102
{ACAD_REACTORS
330
FFFC
102
}
330
FFFC
100
AcDbMaterial
  1
ByBlock
 72
     0
 43
0.0208333333333333
 43
0.0
 43
0.0
 43
0.0
 43
0.0
 43
0.0208333333333333
 43
0.0
 43
0.0
 43
0.0
 43
0.0
 43
1.0
 43
0.0
 43
0.0
 43
0.0
 43
0.0
 43
1.0
 77
     0
 47
0.0208333333333333
 47
0.0
 47
0.0
 47
0.0
 47
0.0
 47
0.0208333333333333
 47
0.0
 47
0.0
 47
0.0
 47
0.0
 47
1.0
 47
0.0
 47
0.0
 47
0.0
 47
0.0
 47
1.0
171
     0
 49
0.0208333333333333
 49
0.0
 49
0.0
 49
0.0
 49
0.0
 49
0.0208333333333333
 49
0.0
 49
0.0
 49
0.0
 49
0.0
 49
1.0
 49
0.0
 49
0.0
 49
0.0
 49
0.0
 49
1.0
175
     0
142
0.0208333333333333
142
0.0
142
0.0
142
0.0
142
0.0
142
0.0208333333333333
142
0.0
142
0.0
142
0.0
142
0.0
142
1.0
142
0.0
142
0.0
142
0.0
142
0.0
142
1.0
179
     0
144
0.0208333333333333
144
0.0
144
0.0
144
0.0
144
0.0
144
0.0208333333333333
144
0.0
144
0.0
144
0.0
144
0.0
144
1.0
144
0.0
144
0.0
144
0.0
144
0.0
144
1.0
147
0.0208333333333333
147
0.0
147
0.0
147
0.0
147
0.0
147
0.0208333333333333
147
0.0
147
0.0
147
0.0
147
0.0
147
1.0
147
0.0
147
0.0
147
0.0
147
0.0
147
1.0
  0
MATERIAL
  5
FFFD
102
{ACAD_XDICTIONARY
360
FFFE
102
}
102
{ACAD_REACTORS
330
FFFC
102
}
330
FFFC
100
AcDbMaterial
  1
ByLayer
 72
     0
 43
0.0208333333333333
 43
0.0
 43
0.0
 43
0.0
 43
0.0
 43
0.0208333333333333
 43
0.0
 43
0.0
 43
0.0
 43
0.0
 43
1.0
 43
0.0
 43
0.0
 43
0.0
 43
0.0
 43
1.0
 77
     0
 47
0.0208333333333333
 47
0.0
 47
0.0
 47
0.0
 47
0.0
 47
0.0208333333333333
 47
0.0
 47
0.0
 47
0.0
 47
0.0
 47
1.0
 47
0.0
 47
0.0
 47
0.0
 47
0.0
 47
1.0
171
     0
 49
0.0208333333333333
 49
0.0
 49
0.0
 49
0.0
 49
0.0
 49
0.0208333333333333
 49
0.0
 49
0.0
 49
0.0
 49
0.0
 49
1.0
 49
0.0
 49
0.0
 49
0.0
 49
0.0
 49
1.0
175
     0
142
0.0208333333333333
142
0.0
142
0.0
142
0.0
142
0.0
142
0.0208333333333333
142
0.0
142
0.0
142
0.0
142
0.0
142
1.0
142
0.0
142
0.0
142
0.0
142
0.0
142
1.0
179
     0
144
0.0208333333333333
144
0.0
144
0.0
144
0.0
144
0.0
144
0.0208333333333333
144
0.0
144
0.0
144
0.0
144
0.0
144
1.0
144
0.0
144
0.0
144
0.0
144
0.0
144
1.0
147
0.0208333333333333
147
0.0
147
0.0
147
0.0
147
0.0
147
0.0208333333333333
147
0.0
147
0.0
147
0.0
147
0.0
147
1.0
147
0.0
147
0.0
147
0.0
147
0.0
147
1.0
  0
MATERIAL
  5
1000D
102
{ACAD_XDICTIONARY
360
1000E
102
}
102
{ACAD_REACTORS
330
FFFC
102
}
330
FFFC
100
AcDbMaterial
  1
Global
 72
     0
 43
0.0208333333333333
 43
0.0
 43
0.0
 43
0.0
 43
0.0
 43
0.0208333333333333
 43
0.0
 43
0.0
 43
0.0
 43
0.0
 43
1.0
 43
0.0
 43
0.0
 43
0.0
 43
0.0
 43
1.0
 77
     0
 47
0.0208333333333333
 47
0.0
 47
0.0
 47
0.0
 47
0.0
 47
0.0208333333333333
 47
0.0
 47
0.0
 47
0.0
 47
0.0
 47
1.0
 47
0.0
 47
0.0
 47
0.0
 47
0.0
 47
1.0
171
     0
 49
0.0208333333333333
 49
0.0
 49
0.0
 49
0.0
 49
0.0
 49
0.0208333333333333
 49
0.0
 49
0.0
 49
0.0
 49
0.0
 49
1.0
 49
0.0
 49
0.0
 49
0.0
 49
0.0
 49
1.0
175
     0
142
0.0208333333333333
142
0.0
142
0.0
142
0.0
142
0.0
142
0.0208333333333333
142
0.0
142
0.0
142
0.0
142
0.0
142
1.0
142
0.0
142
0.0
142
0.0
142
0.0
142
1.0
179
     0
144
0.0208333333333333
144
0.0
144
0.0
144
0.0
144
0.0
144
0.0208333333333333
144
0.0
144
0.0
144
0.0
144
0.0
144
1.0
144
0.0
144
0.0
144
0.0
144
0.0
144
1.0
147
0.0208333333333333
147
0.0
147
0.0
147
0.0
147
0.0
147
0.0208333333333333
147
0.0
147
0.0
147
0.0
147
0.0
147
1.0
147
0.0
147
0.0
147
0.0
147
0.0
147
1.0
  0
MLEADERSTYLE
  5
1004F
102
{ACAD_REACTORS
330
1004E
102
}
330
1004E
100
AcDbMLeaderStyle
179
     2
170
     2
171
     1
172
     0
 90
        2
 40
0.0
 41
0.0
173
     1
 91
-1056964608
340
13
 92
       -2
290
     1
 42
0.09
291
     1
 43
0.36
  3
Standard
 44
0.18
300

342
11
174
     1
178
     6
175
     1
176
     0
 93
-1056964608
 45
0.18
292
     0
297
     0
 46
0.18
 94
-1056964608
 47
1.0
 49
1.0
140
1.0
293
     1
141
0.0
294
     1
177
     0
142
1.0
295
     0
296
     0
143
0.125
271
     0
272
     9
273
     9
298
     0
  0
MLINESTYLE
  5
17
102
{ACAD_REACTORS
330
16
102
}
330
16
100
AcDbMlineStyle
  2
STANDARD
 70
     0
  3

 62
   256
 51
90.0
 52
90.0
 71
     2
 49
0.5
 62
   256
  6
BYLAYER
 49
-0.5
 62
   256
  6
BYLAYER
  0
ACDBPLACEHOLDER
  5
F
102
{ACAD_REACTORS
330
E
102
}
330
E
  0
SCALE
  5
1002D
102
{ACAD_REACTORS
330
1002C
102
}
330
1002C
100
AcDbScale
 70
     0
300
1:1
140
1.0
141
1.0
290
     1
  0
SCALE
  5
1002E
102
{ACAD_REACTORS
330
1002C
102
}
330
1002C
100
AcDbScale
 70
     0
300
1:2
140
1.0
141
2.0
290
     0
  0
SCALE
  5
1002F
102
{ACAD_REACTORS
330
1002C
102
}
330
1002C
100
AcDbScale
 70
     0
300
1:4
140
1.0
141
4.0
290
     0
  0
SCALE
  5
10030
102
{ACAD_REACTORS
330
1002C
102
}
330
1002C
100
AcDbScale
 70
     0
300
1:5
140
1.0
141
5.0
290
     0
  0
SCALE
  5
10031
102
{ACAD_REACTORS
330
1002C
102
}
330
1002C
100
AcDbScale
 70
     0
300
1:8
140
1.0
141
8.0
290
     0
  0
SCALE
  5
10032
102
{ACAD_REACTORS
330
1002C
102
}
330
1002C
100
AcDbScale
 70
     0
300
1:10
140
1.0
141
10.0
290
     0
  0
SCALE
  5
10033
102
{ACAD_REACTORS
330
1002C
102
}
330
1002C
100
AcDbScale
 70
     0
300
1:16
140
1.0
141
16.0
290
     0
  0
SCALE
  5
10034
102
{ACAD_REACTORS
330
1002C
102
}
330
1002C
100
AcDbScale
 70
     0
300
1:20
140
1.0
141
20.0
290
     0
  0
SCALE
  5
10035
102
{ACAD_REACTORS
330
1002C
102
}
330
1002C
100
AcDbScale
 70
     0
300
1:30
140
1.0
141
30.0
290
     0
  0
SCALE
  5
10036
102
{ACAD_REACTORS
330
1002C
102
}
330
1002C
100
AcDbScale
 70
     0
300
1:40
140
1.0
141
40.0
290
     0
  0
SCALE
  5
10037
102
{ACAD_REACTORS
330
1002C
102
}
330
1002C
100
AcDbScale
 70
     0
300
1:50
140
1.0
141
50.0
290
     0
  0
SCALE
  5
10038
102
{ACAD_REACTORS
330
1002C
102
}
330
1002C
100
AcDbScale
 70
     0
300
1:100
140
1.0
141
100.0
290
     0
  0
SCALE
  5
10039
102
{ACAD_REACTORS
330
1002C
102
}
330
1002C
100
AcDbScale
 70
     0
300
2:1
140
2.0
141
1.0
290
     0
  0
SCALE
  5
1003A
102
{ACAD_REACTORS
330
1002C
102
}
330
1002C
100
AcDbScale
 70
     0
300
4:1
140
4.0
141
1.0
290
     0
  0
SCALE
  5
1003B
102
{ACAD_REACTORS
330
1002C
102
}
330
1002C
100
AcDbScale
 70
     0
300
8:1
140
8.0
141
1.0
290
     0
  0
SCALE
  5
1003C
102
{ACAD_REACTORS
330
1002C
102
}
330
1002C
100
AcDbScale
 70
     0
300
10:1
140
10.0
141
1.0
290
     0
  0
SCALE
  5
1003D
102
{ACAD_REACTORS
330
1002C
102
}
330
1002C
100
AcDbScale
 70
     0
300
100:1
140
100.0
141
1.0
290
     0
  0
SCALE
  5
1003E
102
{ACAD_REACTORS
330
1002C
102
}
330
1002C
100
AcDbScale
 70
     0
300
1/128" = 1'-0"
140
0.0078125
141
12.0
290
     0
  0
SCALE
  5
1003F
102
{ACAD_REACTORS
330
1002C
102
}
330
1002C
100
AcDbScale
 70
     0
300
1/64" = 1'-0"
140
0.015625
141
12.0
290
     0
  0
SCALE
  5
10040
102
{ACAD_REACTORS
330
1002C
102
}
330
1002C
100
AcDbScale
 70
     0
300
1/32" = 1'-0"
140
0.03125
141
12.0
290
     0
  0
SCALE
  5
10041
102
{ACAD_REACTORS
330
1002C
102
}
330
1002C
100
AcDbScale
 70
     0
300
1/16" = 1'-0"
140
0.0625
141
12.0
290
     0
  0
SCALE
  5
10042
102
{ACAD_REACTORS
330
1002C
102
}
330
1002C
100
AcDbScale
 70
     0
300
3/32" = 1'-0"
140
0.09375
141
12.0
290
     0
  0
SCALE
  5
10043
102
{ACAD_REACTORS
330
1002C
102
}
330
1002C
100
AcDbScale
 70
     0
300
1/8" = 1'-0"
140
0.125
141
12.0
290
     0
  0
SCALE
  5
10044
102
{ACAD_REACTORS
330
1002C
102
}
330
1002C
100
AcDbScale
 70
     0
300
3/16" = 1'-0"
140
0.1875
141
12.0
290
     0
  0
SCALE
  5
10045
102
{ACAD_REACTORS
330
1002C
102
}
330
1002C
100
AcDbScale
 70
     0
300
1/4" = 1'-0"
140
0.25
141
12.0
290
     0
  0
SCALE
  5
10046
102
{ACAD_REACTORS
330
1002C
102
}
330
1002C
100
AcDbScale
 70
     0
300
3/8" = 1'-0"
140
0.375
141
12.0
290
     0
  0
SCALE
  5
10047
102
{ACAD_REACTORS
330
1002C
102
}
330
1002C
100
AcDbScale
 70
     0
300
1/2" = 1'-0"
140
0.5
141
12.0
290
     0
  0
SCALE
  5
10048
102
{ACAD_REACTORS
330
1002C
102
}
330
1002C
100
AcDbScale
 70
     0
300
3/4" = 1'-0"
140
0.75
141
12.0
290
     0
  0
SCALE
  5
10049
102
{ACAD_REACTORS
330
1002C
102
}
330
1002C
100
AcDbScale
 70
     0
300
1" = 1'-0"
140
1.0
141
12.0
290
     0
  0
SCALE
  5
1004A
102
{ACAD_REACTORS
330
1002C
102
}
330
1002C
100
AcDbScale
 70
     0
300
1-1/2" = 1'-0"
140
1.5
141
12.0
290
     0
  0
SCALE
  5
1004B
102
{ACAD_REACTORS
330
1002C
102
}
330
1002C
100
AcDbScale
 70
     0
300
3" = 1'-0"
140
3.0
141
12.0
290
     0
  0
SCALE
  5
1004C
102
{ACAD_REACTORS
330
1002C
102
}
330
1002C
100
AcDbScale
 70
     0
300
6" = 1'-0"
140
6.0
141
12.0
290
     0
  0
SCALE
  5
1004D
102
{ACAD_REACTORS
330
1002C
102
}
330
1002C
100
AcDbScale
 70
     0
300
1'-0" = 1'-0"
140
12.0
141
12.0
290
     0
  0
ACDBSECTIONVIEWSTYLE
  5
23EEE
102
{ACAD_XDICTIONARY
360
23F65
102
}
102
{ACAD_REACTORS
330
23EED
102
}
330
23EED
100
AcDbModelDocViewStyle
 70
     0
  3
Imperial24
290
     0
100
AcDbSectionViewStyle
 70
     0
 71
     0
 90
       78
 71
     1
340
11
 62
   256
 40
0.24
340
0
340
0
 62
   256
 40
0.24
300
I, O, Q, S, X, Z
 40
0.48
 90
        3
 40
0.18
 90
        1
 71
     2
340
15
 90
       25
 62
   256
340
15
 90
       50
 62
   256
 40
0.24
 40
0.0
 40
0.24
 71
     3
340
11
 62
   256
 40
0.24
 90
        1
 40
0.75
 90
        1
300
%<\AcVar ViewType \f "%tc1">% %<\AcVar ViewSectionStartId>%-%<\AcVar ViewSectionEndId>%\PSCALE %<\AcVar ViewScale \f "%sn">%
 71
     4
 62
   256
 62
   257
300
ANSI31
 40
1.0
 90
        0
290
     0
290
     0
 90
        6
 40
0.0
 40
1.570796326794896
 40
0.2617993877991494
 40
1.308996938995747
 40
-0.2617993877991494
 40
1.832595714594044
  0
TABLESTYLE
  5
1002B
102
{ACAD_XDICTIONARY
360
1007E
102
}
102
{ACAD_REACTORS
330
1002A
102
}
330
1002A
100
AcDbTableStyle
280
     0
  3
Standard
 70
     0
 71
     0
 40
0.06
 41
0.06
280
     0
281
     0
  7
STANDARD
140
0.18
170
     2
 62
     0
 63
     7
283
     0
 90
      512
 91
        0
  1

274
    -2
284
     1
 64
     0
275
    -2
285
     1
 65
     0
276
    -2
286
     1
 66
     0
277
    -2
287
     1
 67
     0
278
    -2
288
     1
 68
     0
279
    -2
289
     1
 69
     0
  7
STANDARD
140
0.25
170
     5
 62
     0
 63
     7
283
     0
 90
      512
 91
        0
  1

274
    -2
284
     1
 64
     0
275
    -2
285
     1
 65
     0
276
    -2
286
     1
 66
     0
277
    -2
287
     1
 67
     0
278
    -2
288
     1
 68
     0
279
    -2
289
     1
 69
     0
  7
STANDARD
140
0.18
170
     5
 62
     0
 63
     7
283
     0
 90
      512
 91
        0
  1

274
    -2
284
     1
 64
     0
275
    -2
285
     1
 65
     0
276
    -2
286
     1
 66
     0
277
    -2
287
     1
 67
     0
278
    -2
288
     1
 68
     0
279
    -2
289
     1
 69
     0
  0
VISUALSTYLE
  5
1001B
102
{ACAD_REACTORS
330
10015
102
}
330
10015
100
AcDbVisualStyle
  2
2dWireframe
 70
     4
177
     3
291
     0
 70
    58
 90
        0
176
     1
 90
        2
176
     1
 90
        0
176
     1
 90
        0
176
     1
 40
0.6
176
     1
 40
30.0
176
     1
 62
     7
176
     1
 90
        1
176
     1
 90
        4
176
     1
 62
     7
176
     1
 62
   257
176
     1
 90
        1
176
     1
 90
        1
176
     1
 40
1.0
176
     1
 90
        0
176
     1
 62
   257
176
     1
 40
1.0
176
     1
 90
        1
176
     1
 90
        6
176
     1
 90
        2
176
     1
 62
     7
176
     1
 90
        5
176
     1
 90
        0
176
     1
 90
        0
176
     1
290
     0
176
     1
 90
        1
176
     1
 40
0.0
176
     1
 90
        0
176
     1
290
     1
176
     1
290
     1
176
     1
290
     0
176
     1
290
     0
176
     1
290
     0
176
     1
290
     0
176
     1
290
     0
176
     1
290
     0
176
     1
290
     0
176
     1
 90
       50
176
     1
 40
0.0
176
     1
 40
1.0
176
     1
 90
        0
176
     1
 62
    18
176
     1
 90
       50
176
     1
 90
        3
176
     1
 62
     5
420
      255
176
     1
290
     0
176
     1
 90
       50
176
     1
 90
       50
176
     1
 90
       50
176
     1
290
     0
176
     1
 90
       50
176
     1
 62
   256
176
     0
 40
1.0
176
     0
 90
        2
176
     1
  1
strokes_ogs.tif
176
     1
290
     0
176
     1
 40
1.0
176
     1
 40
1.0
176
     1
  0
VISUALSTYLE
  5
1001D
102
{ACAD_REACTORS
330
10015
102
}
330
10015
100
AcDbVisualStyle
  2
3D Hidden
 70
     6
177
     3
291
     0
 70
    58
 90
        1
176
     1
 90
        2
176
     1
 90
        2
176
     1
 90
        0
176
     1
 40
0.6
176
     1
 40
30.0
176
     1
 62
     7
176
     1
 90
        2
176
     1
 90
        2
176
     1
 62
     7
176
     1
 62
   257
176
     1
 90
        2
176
     1
 90
        1
176
     1
 40
179.0
176
     1
 90
        0
176
     1
 62
   257
176
     1
 40
1.0
176
     1
 90
        1
176
     1
 90
        6
176
     1
 90
        2
176
     1
 62
     7
176
     1
 90
        3
176
     1
 90
        0
176
     1
 90
        0
176
     1
290
     0
176
     1
 90
        1
176
     1
 40
0.0
176
     1
 90
        0
176
     1
290
     0
176
     1
290
     1
176
     1
290
     1
176
     1
290
     0
176
     1
290
     0
176
     1
290
     0
176
     1
290
     0
176
     1
290
     0
176
     1
290
     0
176
     1
 90
       50
176
     1
 40
0.0
176
     1
 40
1.0
176
     1
 90
        0
176
     1
 62
    18
176
     1
 90
       50
176
     1
 90
        3
176
     1
 62
     5
420
      255
176
     1
290
     0
176
     1
 90
       50
176
     1
 90
       50
176
     1
 90
       50
176
     1
290
     0
176
     1
 90
       50
176
     1
 62
   256
176
     0
 40
1.0
176
     0
 90
        2
176
     1
  1
strokes_ogs.tif
176
     1
290
     0
176
     1
 40
1.0
176
     1
 40
1.0
176
     1
  0
VISUALSTYLE
  5
1001C
102
{ACAD_REACTORS
330
10015
102
}
330
10015
100
AcDbVisualStyle
  2
3dWireframe
 70
     5
177
     3
291
     0
 70
    58
 90
        0
176
     1
 90
        2
176
     1
 90
        0
176
     1
 90
        0
176
     1
 40
0.6
176
     1
 40
30.0
176
     1
 62
     7
176
     1
 90
        1
176
     1
 90
        4
176
     1
 62
     7
176
     1
 62
   257
176
     1
 90
        1
176
     1
 90
        1
176
     1
 40
1.0
176
     1
 90
        0
176
     1
 62
   257
176
     1
 40
1.0
176
     1
 90
        1
176
     1
 90
        6
176
     1
 90
        2
176
     1
 62
     7
176
     1
 90
        5
176
     1
 90
        0
176
     1
 90
        0
176
     1
290
     0
176
     1
 90
        1
176
     1
 40
0.0
176
     1
 90
        0
176
     1
290
     0
176
     1
290
     1
176
     1
290
     1
176
     1
290
     0
176
     1
290
     0
176
     1
290
     0
176
     1
290
     0
176
     1
290
     0
176
     1
290
     0
176
     1
 90
       50
176
     1
 40
0.0
176
     1
 40
1.0
176
     1
 90
        0
176
     1
 62
    18
176
     1
 90
       50
176
     1
 90
        3
176
     1
 62
     5
420
      255
176
     1
290
     0
176
     1
 90
       50
176
     1
 90
       50
176
     1
 90
       50
176
     1
290
     0
176
     1
 90
       50
176
     1
 62
   256
176
     0
 40
1.0
176
     0
 90
        2
176
     1
  1
strokes_ogs.tif
176
     1
290
     0
176
     1
 40
1.0
176
     1
 40
1.0
176
     1
  0
VISUALSTYLE
  5
1001A
102
{ACAD_REACTORS
330
10015
102
}
330
10015
100
AcDbVisualStyle
  2
Basic
 70
     7
177
     3
291
     1
 70
    58
 90
        1
176
     1
 90
        0
176
     1
 90
        1
176
     1
 90
        0
176
     1
 40
0.6
176
     1
 40
30.0
176
     1
 62
     7
176
     1
 90
        0
176
     1
 90
        4
176
     1
 62
     7
176
     1
 62
   257
176
     1
 90
        1
176
     1
 90
        1
176
     1
 40
1.0
176
     1
 90
        8
176
     1
 62
     7
176
     1
 40
1.0
176
     1
 90
        1
176
     1
 90
        6
176
     1
 90
        2
176
     1
 62
     7
176
     1
 90
        5
176
     1
 90
        0
176
     1
 90
        0
176
     1
290
     0
176
     1
 90
        1
176
     1
 40
0.0
176
     1
 90
        0
176
     1
290
     0
176
     1
290
     1
176
     1
290
     1
176
     1
290
     0
176
     1
290
     0
176
     1
290
     0
176
     1
290
     0
176
     1
290
     0
176
     1
290
     0
176
     1
 90
       50
176
     1
 40
0.0
176
     1
 40
1.0
176
     1
 90
        0
176
     1
 62
    18
176
     1
 90
       50
176
     1
 90
        3
176
     1
 62
     5
420
      255
176
     1
290
     0
176
     1
 90
       50
176
     1
 90
       50
176
     1
 90
       50
176
     1
290
     0
176
     1
 90
       50
176
     1
 62
   256
176
     0
 40
1.0
176
     0
 90
        2
176
     1
  1
strokes_ogs.tif
176
     1
290
     0
176
     1
 40
1.0
176
     1
 40
1.0
176
     1
  0
VISUALSTYLE
  5
10021
102
{ACAD_REACTORS
330
10015
102
}
330
10015
100
AcDbVisualStyle
  2
Brighten
 70
    12
177
     3
291
     1
 70
    58
 90
        2
176
     1
 90
        2
176
     1
 90
        0
176
     1
 90
        0
176
     1
 40
0.6
176
     1
 40
30.0
176
     1
 62
     7
176
     1
 90
        1
176
     1
 90
        4
176
     1
 62
     7
176
     1
 62
   257
176
     1
 90
        1
176
     1
 90
        1
176
     1
 40
1.0
176
     1
 90
        8
176
     1
 62
     7
176
     1
 40
1.0
176
     1
 90
        1
176
     1
 90
        6
176
     1
 90
        2
176
     1
 62
     7
176
     1
 90
        5
176
     1
 90
        0
176
     1
 90
        0
176
     1
290
     0
176
     1
 90
        1
176
     1
 40
50.0
176
     1
 90
        0
176
     1
290
     0
176
     1
290
     1
176
     1
290
     1
176
     1
290
     0
176
     1
290
     0
176
     1
290
     0
176
     1
290
     0
176
     1
290
     0
176
     1
290
     0
176
     1
 90
       50
176
     1
 40
0.0
176
     1
 40
1.0
176
     1
 90
        0
176
     1
 62
    18
176
     1
 90
       50
176
     1
 90
        3
176
     1
 62
     5
420
      255
176
     1
290
     0
176
     1
 90
       50
176
     1
 90
       50
176
     1
 90
       50
176
     1
290
     0
176
     1
 90
       50
176
     1
 62
   256
176
     0
 40
1.0
176
     0
 90
        2
176
     1
  1
strokes_ogs.tif
176
     1
290
     0
176
     1
 40
1.0
176
     1
 40
1.0
176
     1
  0
VISUALSTYLE
  5
10025
102
{ACAD_REACTORS
330
10015
102
}
330
10015
100
AcDbVisualStyle
  2
ColorChange
 70
    16
177
     3
291
     1
 70
    58
 90
        2
176
     1
 90
        2
176
     1
 90
        3
176
     1
 90
        0
176
     1
 40
0.6
176
     1
 40
30.0
176
     1
 62
     8
176
     1
 90
        1
176
     1
 90
        4
176
     1
 62
     7
176
     1
 62
   257
176
     1
 90
        1
176
     1
 90
        1
176
     1
 40
1.0
176
     1
 90
        8
176
     1
 62
     8
176
     1
 40
1.0
176
     1
 90
        1
176
     1
 90
        6
176
     1
 90
        2
176
     1
 62
     7
176
     1
 90
        5
176
     1
 90
        0
176
     1
 90
        0
176
     1
290
     0
176
     1
 90
        1
176
     1
 40
0.0
176
     1
 90
        0
176
     1
290
     0
176
     1
290
     1
176
     1
290
     1
176
     1
290
     0
176
     1
290
     0
176
     1
290
     0
176
     1
290
     0
176
     1
290
     0
176
     1
290
     0
176
     1
 90
       50
176
     1
 40
0.0
176
     1
 40
1.0
176
     1
 90
        0
176
     1
 62
    18
176
     1
 90
       50
176
     1
 90
        3
176
     1
 62
     5
420
      255
176
     1
290
     0
176
     1
 90
       50
176
     1
 90
       50
176
     1
 90
       50
176
     1
290
     0
176
     1
 90
       50
176
     1
 62
   256
176
     0
 40
1.0
176
     0
 90
        2
176
     1
  1
strokes_ogs.tif
176
     1
290
     0
176
     1
 40
1.0
176
     1
 40
1.0
176
     1
  0
VISUALSTYLE
  5
1001E
102
{ACAD_REACTORS
330
10015
102
}
330
10015
100
AcDbVisualStyle
  2
Conceptual
 70
     9
177
     3
291
     0
 70
    58
 90
        3
176
     1
 90
        2
176
     1
 90
        0
176
     1
 90
        0
176
     1
 40
0.6
176
     1
 40
30.0
176
     1
 62
     7
176
     1
 90
        2
176
     1
 90
        2
176
     1
 62
     7
176
     1
 62
   257
176
     1
 90
        1
176
     1
 90
        1
176
     1
 40
179.0
176
     1
 90
        8
176
     1
 62
     7
176
     1
 40
1.0
176
     1
 90
        1
176
     1
 90
        6
176
     1
 90
        2
176
     1
 62
     7
176
     1
 90
        3
176
     1
 90
        0
176
     1
 90
        0
176
     1
290
     0
176
     1
 90
        1
176
     1
 40
0.0
176
     1
 90
        0
176
     1
290
     0
176
     1
290
     1
176
     1
290
     1
176
     1
290
     0
176
     1
290
     0
176
     1
290
     0
176
     1
290
     0
176
     1
290
     0
176
     1
290
     0
176
     1
 90
       50
176
     1
 40
0.0
176
     1
 40
1.0
176
     1
 90
        0
176
     1
 62
    18
176
     1
 90
       50
176
     1
 90
        3
176
     1
 62
     5
420
      255
176
     1
290
     0
176
     1
 90
       50
176
     1
 90
       50
176
     1
 90
       50
176
     1
290
     0
176
     1
 90
       50
176
     1
 62
   256
176
     0
 40
1.0
176
     0
 90
        2
176
     1
  1
strokes_ogs.tif
176
     1
290
     0
176
     1
 40
1.0
176
     1
 40
1.0
176
     1
  0
VISUALSTYLE
  5
10020
102
{ACAD_REACTORS
330
10015
102
}
330
10015
100
AcDbVisualStyle
  2
Dim
 70
    11
177
     3
291
     1
 70
    58
 90
        2
176
     1
 90
        2
176
     1
 90
        0
176
     1
 90
        0
176
     1
 40
0.6
176
     1
 40
30.0
176
     1
 62
     7
176
     1
 90
        1
176
     1
 90
        4
176
     1
 62
     7
176
     1
 62
   257
176
     1
 90
        1
176
     1
 90
        1
176
     1
 40
1.0
176
     1
 90
        8
176
     1
 62
     7
176
     1
 40
1.0
176
     1
 90
        1
176
     1
 90
        6
176
     1
 90
        2
176
     1
 62
     7
176
     1
 90
        5
176
     1
 90
        0
176
     1
 90
        0
176
     1
290
     0
176
     1
 90
        1
176
     1
 40
-50.0
176
     1
 90
        0
176
     1
290
     0
176
     1
290
     1
176
     1
290
     1
176
     1
290
     0
176
     1
290
     0
176
     1
290
     0
176
     1
290
     0
176
     1
290
     0
176
     1
290
     0
176
     1
 90
       50
176
     1
 40
0.0
176
     1
 40
1.0
176
     1
 90
        0
176
     1
 62
    18
176
     1
 90
       50
176
     1
 90
        3
176
     1
 62
     5
420
      255
176
     1
290
     0
176
     1
 90
       50
176
     1
 90
       50
176
     1
 90
       50
176
     1
290
     0
176
     1
 90
       50
176
     1
 62
   256
176
     0
 40
1.0
176
     0
 90
        2
176
     1
  1
strokes_ogs.tif
176
     1
290
     0
176
     1
 40
1.0
176
     1
 40
1.0
176
     1
  0
VISUALSTYLE
  5
10028
102
{ACAD_REACTORS
330
10015
102
}
330
10015
100
AcDbVisualStyle
  2
EdgeColorOff
 70
    22
177
     3
291
     1
 70
    58
 90
        2
176
     0
 90
        2
176
     0
 90
        0
176
     0
 90
        0
176
     0
 40
0.6
176
     0
 40
30.0
176
     0
 62
     7
176
     0
 90
        1
176
     0
 90
        4
176
     0
 62
     7
176
     0
 62
   257
176
     0
 90
        1
176
     0
 90
        1
176
     0
 40
1.0
176
     0
 90
        8
176
     2
 62
     7
176
     0
 40
1.0
176
     0
 90
        1
176
     0
 90
        6
176
     0
 90
        2
176
     0
 62
     7
176
     0
 90
        5
176
     0
 90
        0
176
     0
 90
        0
176
     0
290
     0
176
     0
 90
        1
176
     0
 40
0.0
176
     0
 90
        0
176
     0
290
     0
176
     1
290
     1
176
     1
290
     1
176
     1
290
     0
176
     1
290
     0
176
     1
290
     0
176
     1
290
     0
176
     1
290
     0
176
     1
290
     0
176
     1
 90
       50
176
     1
 40
0.0
176
     1
 40
1.0
176
     1
 90
        0
176
     1
 62
    18
176
     1
 90
       50
176
     1
 90
        3
176
     1
 62
     5
420
      255
176
     1
290
     0
176
     1
 90
       50
176
     1
 90
       50
176
     1
 90
       50
176
     1
290
     0
176
     1
 90
       50
176
     1
 62
   256
176
     0
 40
1.0
176
     0
 90
        2
176
     1
  1
strokes_ogs.tif
176
     1
290
     0
176
     1
 40
1.0
176
     1
 40
1.0
176
     1
  0
VISUALSTYLE
  5
10024
102
{ACAD_REACTORS
330
10015
102
}
330
10015
100
AcDbVisualStyle
  2
Facepattern
 70
    15
177
     3
291
     1
 70
    58
 90
        2
176
     1
 90
        2
176
     1
 90
        0
176
     1
 90
        0
176
     1
 40
0.6
176
     1
 40
30.0
176
     1
 62
     7
176
     1
 90
        1
176
     1
 90
        4
176
     1
 62
     7
176
     1
 62
   257
176
     1
 90
        1
176
     1
 90
        1
176
     1
 40
1.0
176
     1
 90
        8
176
     1
 62
     7
176
     1
 40
1.0
176
     1
 90
        1
176
     1
 90
        6
176
     1
 90
        2
176
     1
 62
     7
176
     1
 90
        5
176
     1
 90
        0
176
     1
 90
        0
176
     1
290
     0
176
     1
 90
        1
176
     1
 40
0.0
176
     1
 90
        0
176
     1
290
     0
176
     1
290
     1
176
     1
290
     1
176
     1
290
     0
176
     1
290
     0
176
     1
290
     0
176
     1
290
     0
176
     1
290
     0
176
     1
290
     0
176
     1
 90
       50
176
     1
 40
0.0
176
     1
 40
1.0
176
     1
 90
        0
176
     1
 62
    18
176
     1
 90
       50
176
     1
 90
        3
176
     1
 62
     5
420
      255
176
     1
290
     0
176
     1
 90
       50
176
     1
 90
       50
176
     1
 90
       50
176
     1
290
     0
176
     1
 90
       50
176
     1
 62
   256
176
     0
 40
1.0
176
     0
 90
        2
176
     1
  1
strokes_ogs.tif
176
     1
290
     0
176
     1
 40
1.0
176
     1
 40
1.0
176
     1
  0
VISUALSTYLE
  5
10016
102
{ACAD_REACTORS
330
10015
102
}
330
10015
100
AcDbVisualStyle
  2
Flat
 70
     0
177
     3
291
     1
 70
    58
 90
        2
176
     1
 90
        1
176
     1
 90
        1
176
     1
 90
        2
176
     1
 40
0.6
176
     1
 40
30.0
176
     1
 62
     7
176
     1
 90
        0
176
     1
 90
        4
176
     1
 62
     7
176
     1
 62
   257
176
     1
 90
        1
176
     1
 90
        1
176
     1
 40
1.0
176
     1
 90
        8
176
     1
 62
     7
176
     1
 40
1.0
176
     1
 90
        1
176
     1
 90
        6
176
     1
 90
        2
176
     1
 62
     7
176
     1
 90
        5
176
     1
 90
        0
176
     1
 90
        0
176
     1
290
     0
176
     1
 90
       13
176
     1
 40
0.0
176
     1
 90
        0
176
     1
290
     0
176
     1
290
     1
176
     1
290
     1
176
     1
290
     0
176
     1
290
     0
176
     1
290
     0
176
     1
290
     0
176
     1
290
     0
176
     1
290
     0
176
     1
 90
       50
176
     1
 40
0.0
176
     1
 40
1.0
176
     1
 90
        0
176
     1
 62
    18
176
     1
 90
       50
176
     1
 90
        3
176
     1
 62
     5
420
      255
176
     1
290
     0
176
     1
 90
       50
176
     1
 90
       50
176
     1
 90
       50
176
     1
290
     0
176
     1
 90
       50
176
     1
 62
   256
176
     0
 40
1.0
176
     0
 90
        2
176
     1
  1
strokes_ogs.tif
176
     1
290
     0
176
     1
 40
1.0
176
     1
 40
1.0
176
     1
  0
VISUALSTYLE
  5
10017
102
{ACAD_REACTORS
330
10015
102
}
330
10015
100
AcDbVisualStyle
  2
FlatWithEdges
 70
     1
177
     3
291
     1
 70
    58
 90
        2
176
     1
 90
        1
176
     1
 90
        1
176
     1
 90
        2
176
     1
 40
0.6
176
     1
 40
30.0
176
     1
 62
     7
176
     1
 90
        1
176
     1
 90
        4
176
     1
 62
     7
176
     1
 62
   257
176
     1
 90
        1
176
     1
 90
        1
176
     1
 40
1.0
176
     1
 90
        0
176
     1
 62
   257
176
     1
 40
1.0
176
     1
 90
        1
176
     1
 90
        6
176
     1
 90
        2
176
     1
 62
     7
176
     1
 90
        5
176
     1
 90
        0
176
     1
 90
        0
176
     1
290
     0
176
     1
 90
       13
176
     1
 40
0.0
176
     1
 90
        0
176
     1
290
     0
176
     1
290
     1
176
     1
290
     1
176
     1
290
     0
176
     1
290
     0
176
     1
290
     0
176
     1
290
     0
176
     1
290
     0
176
     1
290
     0
176
     1
 90
       50
176
     1
 40
0.0
176
     1
 40
1.0
176
     1
 90
        0
176
     1
 62
    18
176
     1
 90
       50
176
     1
 90
        3
176
     1
 62
     5
420
      255
176
     1
290
     0
176
     1
 90
       50
176
     1
 90
       50
176
     1
 90
       50
176
     1
290
     0
176
     1
 90
       50
176
     1
 62
   256
176
     0
 40
1.0
176
     0
 90
        2
176
     1
  1
strokes_ogs.tif
176
     1
290
     0
176
     1
 40
1.0
176
     1
 40
1.0
176
     1
  0
VISUALSTYLE
  5
10018
102
{ACAD_REACTORS
330
10015
102
}
330
10015
100
AcDbVisualStyle
  2
Gouraud
 70
     2
177
     3
291
     1
 70
    58
 90
        2
176
     1
 90
        2
176
     1
 90
        1
176
     1
 90
        2
176
     1
 40
0.6
176
     1
 40
30.0
176
     1
 62
     7
176
     1
 90
        0
176
     1
 90
        4
176
     1
 62
     7
176
     1
 62
   257
176
     1
 90
        1
176
     1
 90
        1
176
     1
 40
1.0
176
     1
 90
        0
176
     1
 62
     7
176
     1
 40
1.0
176
     1
 90
        1
176
     1
 90
        6
176
     1
 90
        2
176
     1
 62
     7
176
     1
 90
        5
176
     1
 90
        0
176
     1
 90
        0
176
     1
290
     0
176
     1
 90
       13
176
     1
 40
0.0
176
     1
 90
        0
176
     1
290
     0
176
     1
290
     1
176
     1
290
     1
176
     1
290
     0
176
     1
290
     0
176
     1
290
     0
176
     1
290
     0
176
     1
290
     0
176
     1
290
     0
176
     1
 90
       50
176
     1
 40
0.0
176
     1
 40
1.0
176
     1
 90
        0
176
     1
 62
    18
176
     1
 90
       50
176
     1
 90
        3
176
     1
 62
     5
420
      255
176
     1
290
     0
176
     1
 90
       50
176
     1
 90
       50
176
     1
 90
       50
176
     1
290
     0
176
     1
 90
       50
176
     1
 62
   256
176
     0
 40
1.0
176
     0
 90
        2
176
     1
  1
strokes_ogs.tif
176
     1
290
     0
176
     1
 40
1.0
176
     1
 40
1.0
176
     1
  0
VISUALSTYLE
  5
10019
102
{ACAD_REACTORS
330
10015
102
}
330
10015
100
AcDbVisualStyle
  2
GouraudWithEdges
 70
     3
177
     3
291
     1
 70
    58
 90
        2
176
     1
 90
        2
176
     1
 90
        1
176
     1
 90
        2
176
     1
 40
0.6
176
     1
 40
30.0
176
     1
 62
     7
176
     1
 90
        1
176
     1
 90
        4
176
     1
 62
     7
176
     1
 62
   257
176
     1
 90
        1
176
     1
 90
        1
176
     1
 40
1.0
176
     1
 90
        0
176
     1
 62
   257
176
     1
 40
1.0
176
     1
 90
        1
176
     1
 90
        6
176
     1
 90
        2
176
     1
 62
     7
176
     1
 90
        5
176
     1
 90
        0
176
     1
 90
        0
176
     1
290
     0
176
     1
 90
       13
176
     1
 40
0.0
176
     1
 90
        0
176
     1
290
     0
176
     1
290
     1
176
     1
290
     1
176
     1
290
     0
176
     1
290
     0
176
     1
290
     0
176
     1
290
     0
176
     1
290
     0
176
     1
290
     0
176
     1
 90
       50
176
     1
 40
0.0
176
     1
 40
1.0
176
     1
 90
        0
176
     1
 62
    18
176
     1
 90
       50
176
     1
 90
        3
176
     1
 62
     5
420
      255
176
     1
290
     0
176
     1
 90
       50
176
     1
 90
       50
176
     1
 90
       50
176
     1
290
     0
176
     1
 90
       50
176
     1
 62
   256
176
     0
 40
1.0
176
     0
 90
        2
176
     1
  1
strokes_ogs.tif
176
     1
290
     0
176
     1
 40
1.0
176
     1
 40
1.0
176
     1
  0
VISUALSTYLE
  5
23EE7
102
{ACAD_REACTORS
330
10015
102
}
330
10015
100
AcDbVisualStyle
  2
Hidden
 70
     6
177
     3
291
     0
 70
    58
 90
        1
176
     1
 90
        2
176
     1
 90
        2
176
     1
 90
        0
176
     1
 40
0.6
176
     1
 40
30.0
176
     1
 62
     7
420
 16777215
176
     1
 90
        2
176
     1
 90
        2
176
     1
 62
     7
176
     1
 62
   257
176
     1
 90
        2
176
     1
 90
        1
176
     1
 40
40.0
176
     1
 90
        0
176
     1
 62
   257
176
     1
 40
1.0
176
     1
 90
        1
176
     1
 90
        6
176
     1
 90
        2
176
     1
 62
     7
176
     1
 90
        3
176
     1
 90
        0
176
     1
 90
        0
176
     1
290
     0
176
     1
 90
        1
176
     1
 40
0.0
176
     1
 90
        0
176
     1
290
     0
176
     1
290
     1
176
     1
290
     1
176
     1
290
     0
176
     1
290
     0
176
     1
290
     0
176
     1
290
     0
176
     1
290
     0
176
     1
290
     0
176
     1
 90
       50
176
     1
 40
0.0
176
     1
 40
1.0
176
     1
 90
        0
176
     1
 62
    18
176
     1
 90
       50
176
     1
 90
        3
176
     1
 62
     5
420
      255
176
     1
290
     0
176
     1
 90
       50
176
     1
 90
       50
176
     1
 90
       50
176
     1
290
     0
176
     1
 90
       50
176
     1
 62
   256
176
     0
 40
1.0
176
     0
 90
        2
176
     1
  1
strokes_ogs.tif
176
     1
290
     0
176
     1
 40
1.0
176
     1
 40
1.0
176
     1
  0
VISUALSTYLE
  5
10026
102
{ACAD_REACTORS
330
10015
102
}
330
10015
100
AcDbVisualStyle
  2
JitterOff
 70
    20
177
     3
291
     1
 70
    58
 90
        2
176
     0
 90
        2
176
     0
 90
        0
176
     0
 90
        0
176
     0
 40
0.6
176
     0
 40
30.0
176
     0
 62
     7
176
     0
 90
        1
176
     0
 90
        4
176
     0
 62
     7
176
     0
 62
   257
176
     0
 90
        1
176
     0
 90
        1
176
     0
 40
1.0
176
     0
 90
       10
176
     2
 62
     7
176
     0
 40
1.0
176
     0
 90
        1
176
     0
 90
        6
176
     0
 90
        2
176
     0
 62
     7
176
     0
 90
        5
176
     0
 90
        0
176
     0
 90
        0
176
     0
290
     0
176
     0
 90
        1
176
     0
 40
0.0
176
     0
 90
        0
176
     0
290
     0
176
     1
290
     1
176
     1
290
     1
176
     1
290
     0
176
     1
290
     0
176
     1
290
     0
176
     1
290
     0
176
     1
290
     0
176
     1
290
     0
176
     1
 90
       50
176
     1
 40
0.0
176
     1
 40
1.0
176
     1
 90
        0
176
     1
 62
    18
176
     1
 90
       50
176
     1
 90
        3
176
     1
 62
     5
420
      255
176
     1
290
     0
176
     1
 90
       50
176
     1
 90
       50
176
     1
 90
       50
176
     1
290
     0
176
     1
 90
       50
176
     1
 62
   256
176
     0
 40
1.0
176
     0
 90
        2
176
     1
  1
strokes_ogs.tif
176
     1
290
     0
176
     1
 40
1.0
176
     1
 40
1.0
176
     1
  0
VISUALSTYLE
  5
10023
102
{ACAD_REACTORS
330
10015
102
}
330
10015
100
AcDbVisualStyle
  2
Linepattern
 70
    14
177
     3
291
     1
 70
    58
 90
        2
176
     1
 90
        2
176
     1
 90
        0
176
     1
 90
        0
176
     1
 40
0.6
176
     1
 40
30.0
176
     1
 62
     7
176
     1
 90
        1
176
     1
 90
        4
176
     1
 62
     7
176
     1
 62
   257
176
     1
 90
        7
176
     1
 90
        7
176
     1
 40
1.0
176
     1
 90
        8
176
     1
 62
     7
176
     1
 40
1.0
176
     1
 90
        1
176
     1
 90
        6
176
     1
 90
        2
176
     1
 62
     7
176
     1
 90
        5
176
     1
 90
        0
176
     1
 90
        0
176
     1
290
     0
176
     1
 90
        1
176
     1
 40
0.0
176
     1
 90
        0
176
     1
290
     0
176
     1
290
     1
176
     1
290
     1
176
     1
290
     0
176
     1
290
     0
176
     1
290
     0
176
     1
290
     0
176
     1
290
     0
176
     1
290
     0
176
     1
 90
       50
176
     1
 40
0.0
176
     1
 40
1.0
176
     1
 90
        0
176
     1
 62
    18
176
     1
 90
       50
176
     1
 90
        3
176
     1
 62
     5
420
      255
176
     1
290
     0
176
     1
 90
       50
176
     1
 90
       50
176
     1
 90
       50
176
     1
290
     0
176
     1
 90
       50
176
     1
 62
   256
176
     0
 40
1.0
176
     0
 90
        2
176
     1
  1
strokes_ogs.tif
176
     1
290
     0
176
     1
 40
1.0
176
     1
 40
1.0
176
     1
  0
VISUALSTYLE
  5
10027
102
{ACAD_REACTORS
330
10015
102
}
330
10015
100
AcDbVisualStyle
  2
OverhangOff
 70
    21
177
     3
291
     1
 70
    58
 90
        2
176
     0
 90
        2
176
     0
 90
        0
176
     0
 90
        0
176
     0
 40
0.6
176
     0
 40
30.0
176
     0
 62
     7
176
     0
 90
        1
176
     0
 90
        4
176
     0
 62
     7
176
     0
 62
   257
176
     0
 90
        1
176
     0
 90
        1
176
     0
 40
1.0
176
     0
 90
        9
176
     2
 62
     7
176
     0
 40
1.0
176
     0
 90
        1
176
     0
 90
        6
176
     0
 90
        2
176
     0
 62
     7
176
     0
 90
        5
176
     0
 90
        0
176
     0
 90
        0
176
     0
290
     0
176
     0
 90
        1
176
     0
 40
0.0
176
     0
 90
        0
176
     0
290
     0
176
     1
290
     1
176
     1
290
     1
176
     1
290
     0
176
     1
290
     0
176
     1
290
     0
176
     1
290
     0
176
     1
290
     0
176
     1
290
     0
176
     1
 90
       50
176
     1
 40
0.0
176
     1
 40
1.0
176
     1
 90
        0
176
     1
 62
    18
176
     1
 90
       50
176
     1
 90
        3
176
     1
 62
     5
420
      255
176
     1
290
     0
176
     1
 90
       50
176
     1
 90
       50
176
     1
 90
       50
176
     1
290
     0
176
     1
 90
       50
176
     1
 62
   256
176
     0
 40
1.0
176
     0
 90
        2
176
     1
  1
strokes_ogs.tif
176
     1
290
     0
176
     1
 40
1.0
176
     1
 40
1.0
176
     1
  0
VISUALSTYLE
  5
1001F
102
{ACAD_REACTORS
330
10015
102
}
330
10015
100
AcDbVisualStyle
  2
Realistic
 70
     8
177
     3
291
     0
 70
    58
 90
        2
176
     1
 90
        2
176
     1
 90
        0
176
     1
 90
        0
176
     1
 40
0.6
176
     1
 40
30.0
176
     1
 62
     7
176
     1
 90
        1
176
     1
 90
        0
176
     1
 62
     7
176
     1
 62
   257
176
     1
 90
        1
176
     1
 90
        1
176
     1
 40
1.0
176
     1
 90
        8
176
     1
 62
     8
176
     1
 40
1.0
176
     1
 90
        1
176
     1
 90
        6
176
     1
 90
        2
176
     1
 62
     7
176
     1
 90
        5
176
     1
 90
        0
176
     1
 90
        0
176
     1
290
     0
176
     1
 90
       13
176
     1
 40
0.0
176
     1
 90
        0
176
     1
290
     0
176
     1
290
     1
176
     1
290
     1
176
     1
290
     0
176
     1
290
     0
176
     1
290
     0
176
     1
290
     0
176
     1
290
     0
176
     1
290
     0
176
     1
 90
       50
176
     1
 40
0.0
176
     1
 40
1.0
176
     1
 90
        0
176
     1
 62
    18
176
     1
 90
       50
176
     1
 90
        3
176
     1
 62
     5
420
      255
176
     1
290
     0
176
     1
 90
       50
176
     1
 90
       50
176
     1
 90
       50
176
     1
290
     0
176
     1
 90
       50
176
     1
 62
   256
176
     0
 40
1.0
176
     0
 90
        2
176
     1
  1
strokes_ogs.tif
176
     1
290
     0
176
     1
 40
1.0
176
     1
 40
1.0
176
     1
  0
VISUALSTYLE
  5
23EEC
102
{ACAD_REACTORS
330
10015
102
}
330
10015
100
AcDbVisualStyle
  2
Shaded
 70
    27
177
     3
291
     0
 70
    58
 90
        2
176
     1
 90
        2
176
     1
 90
        1
176
     1
 90
        2
176
     1
 40
0.6
176
     1
 40
30.0
176
     1
 62
     7
420
 16777215
176
     1
 90
        0
176
     1
 90
        4
176
     1
 62
     7
176
     1
 62
   257
176
     1
 90
        1
176
     1
 90
        1
176
     1
 40
1.0
176
     1
 90
        8
176
     1
 62
   257
176
     1
 40
1.0
176
     1
 90
        1
176
     1
 90
        6
176
     1
 90
        2
176
     1
 62
     8
420
  7895160
176
     1
 90
        3
176
     1
 90
        0
176
     1
 90
        0
176
     1
290
     0
176
     1
 90
        5
176
     1
 40
0.0
176
     1
 90
        0
176
     1
290
     0
176
     1
290
     1
176
     1
290
     1
176
     1
290
     0
176
     1
290
     0
176
     1
290
     0
176
     1
290
     0
176
     1
290
     0
176
     1
290
     0
176
     1
 90
       50
176
     1
 40
0.0
176
     1
 40
1.0
176
     1
 90
        0
176
     1
 62
    18
176
     1
 90
       50
176
     1
 90
        3
176
     1
 62
     5
420
      255
176
     1
290
     0
176
     1
 90
       50
176
     1
 90
       50
176
     1
 90
       50
176
     1
290
     0
176
     1
 90
       50
176
     1
 62
   256
176
     0
 40
1.0
176
     0
 90
        2
176
     1
  1
strokes_ogs.tif
176
     1
290
     0
176
     1
 40
1.0
176
     1
 40
1.0
176
     1
  0
VISUALSTYLE
  5
23EEB
102
{ACAD_REACTORS
330
10015
102
}
330
10015
100
AcDbVisualStyle
  2
Shaded with edges
 70
    26
177
     3
291
     0
 70
    58
 90
        2
176
     1
 90
        2
176
     1
 90
        1
176
     1
 90
        2
176
     1
 40
0.6
176
     1
 40
30.0
176
     1
 62
     7
420
 16777215
176
     1
 90
        1
176
     1
 90
       10
176
     1
 62
     7
176
     1
 62
   257
176
     1
 90
        2
176
     1
 90
        1
176
     1
 40
1.0
176
     1
 90
        8
176
     1
 62
   257
176
     1
 40
1.0
176
     1
 90
        1
176
     1
 90
        6
176
     1
 90
        2
176
     1
 62
     7
176
     1
 90
        3
176
     1
 90
        0
176
     1
 90
        0
176
     1
290
     0
176
     1
 90
        5
176
     1
 40
0.0
176
     1
 90
        0
176
     1
290
     0
176
     1
290
     1
176
     1
290
     1
176
     1
290
     0
176
     1
290
     0
176
     1
290
     0
176
     1
290
     0
176
     1
290
     0
176
     1
290
     0
176
     1
 90
       50
176
     1
 40
0.0
176
     1
 40
1.0
176
     1
 90
        0
176
     1
 62
    18
176
     1
 90
       50
176
     1
 90
        3
176
     1
 62
     5
420
      255
176
     1
290
     0
176
     1
 90
       50
176
     1
 90
       50
176
     1
 90
       50
176
     1
290
     0
176
     1
 90
       50
176
     1
 62
   256
176
     0
 40
1.0
176
     0
 90
        2
176
     1
  1
strokes_ogs.tif
176
     1
290
     0
176
     1
 40
1.0
176
     1
 40
1.0
176
     1
  0
VISUALSTYLE
  5
23EE8
102
{ACAD_REACTORS
330
10015
102
}
330
10015
100
AcDbVisualStyle
  2
Shades of Gray
 70
    23
177
     3
291
     0
 70
    58
 90
        2
176
     1
 90
        2
176
     1
 90
        3
176
     1
 90
        0
176
     1
 40
0.6
176
     1
 40
30.0
176
     1
 62
     7
420
 16777215
176
     1
 90
        2
176
     1
 90
        2
176
     1
 62
     7
176
     1
 62
     7
176
     1
 90
        1
176
     1
 90
        1
176
     1
 40
40.0
176
     1
 90
        8
176
     1
 62
     7
176
     1
 40
1.0
176
     1
 90
        1
176
     1
 90
        6
176
     1
 90
        2
176
     1
 62
     7
176
     1
 90
        3
176
     1
 90
        0
176
     1
 90
        0
176
     1
290
     0
176
     1
 90
        1
176
     1
 40
0.0
176
     1
 90
        0
176
     1
290
     0
176
     1
290
     1
176
     1
290
     1
176
     1
290
     0
176
     1
290
     0
176
     1
290
     0
176
     1
290
     0
176
     1
290
     0
176
     1
290
     0
176
     1
 90
       50
176
     1
 40
0.0
176
     1
 40
1.0
176
     1
 90
        0
176
     1
 62
    18
176
     1
 90
       50
176
     1
 90
        3
176
     1
 62
     5
420
      255
176
     1
290
     0
176
     1
 90
       50
176
     1
 90
       50
176
     1
 90
       50
176
     1
290
     0
176
     1
 90
       50
176
     1
 62
   256
176
     0
 40
1.0
176
     0
 90
        2
176
     1
  1
strokes_ogs.tif
176
     1
290
     0
176
     1
 40
1.0
176
     1
 40
1.0
176
     1
  0
VISUALSTYLE
  5
23EE9
102
{ACAD_REACTORS
330
10015
102
}
330
10015
100
AcDbVisualStyle
  2
Sketchy
 70
    24
177
     3
291
     0
 70
    58
 90
        1
176
     1
 90
        2
176
     1
 90
        2
176
     1
 90
        0
176
     1
 40
0.6
176
     1
 40
30.0
176
     1
 62
     7
420
 16777215
176
     1
 90
        2
176
     1
 90
        2
176
     1
 62
     7
176
     1
 62
     7
176
     1
 90
        1
176
     1
 90
        1
176
     1
 40
40.0
176
     1
 90
       11
176
     1
 62
     7
176
     1
 40
1.0
176
     1
 90
        1
176
     1
 90
        6
176
     1
 90
        2
176
     1
 62
     7
176
     1
 90
        6
176
     1
 90
        0
176
     1
 90
        0
176
     1
290
     0
176
     1
 90
        1
176
     1
 40
0.0
176
     1
 90
        0
176
     1
290
     0
176
     1
290
     1
176
     1
290
     1
176
     1
290
     0
176
     1
290
     0
176
     1
290
     0
176
     1
290
     0
176
     1
290
     0
176
     1
290
     0
176
     1
 90
       50
176
     1
 40
0.0
176
     1
 40
1.0
176
     1
 90
        0
176
     1
 62
    18
176
     1
 90
       50
176
     1
 90
        3
176
     1
 62
     5
420
      255
176
     1
290
     0
176
     1
 90
       50
176
     1
 90
       50
176
     1
 90
       50
176
     1
290
     0
176
     1
 90
       50
176
     1
 62
   256
176
     0
 40
1.0
176
     0
 90
        2
176
     1
  1
strokes_ogs.tif
176
     1
290
     0
176
     1
 40
1.0
176
     1
 40
1.0
176
     1
  0
VISUALSTYLE
  5
10022
102
{ACAD_REACTORS
330
10015
102
}
330
10015
100
AcDbVisualStyle
  2
Thicken
 70
    13
177
     3
291
     1
 70
    58
 90
        2
176
     1
 90
        2
176
     1
 90
        0
176
     1
 90
        0
176
     1
 40
0.6
176
     1
 40
30.0
176
     1
 62
     7
176
     1
 90
        1
176
     1
 90
        4
176
     1
 62
     7
176
     1
 62
   257
176
     1
 90
        1
176
     1
 90
        1
176
     1
 40
1.0
176
     1
 90
       12
176
     1
 62
     7
176
     1
 40
1.0
176
     1
 90
        1
176
     1
 90
        6
176
     1
 90
        2
176
     1
 62
     7
176
     1
 90
        5
176
     1
 90
        0
176
     1
 90
        0
176
     1
290
     0
176
     1
 90
        1
176
     1
 40
0.0
176
     1
 90
        0
176
     1
290
     0
176
     1
290
     1
176
     1
290
     1
176
     1
290
     0
176
     1
290
     0
176
     1
290
     0
176
     1
290
     0
176
     1
290
     0
176
     1
290
     0
176
     1
 90
       50
176
     1
 40
0.0
176
     1
 40
1.0
176
     1
 90
        0
176
     1
 62
    18
176
     1
 90
       50
176
     1
 90
        3
176
     1
 62
     5
420
      255
176
     1
290
     0
176
     1
 90
       50
176
     1
 90
       50
176
     1
 90
       50
176
     1
290
     0
176
     1
 90
       50
176
     1
 62
   256
176
     0
 40
1.0
176
     0
 90
        2
176
     1
  1
strokes_ogs.tif
176
     1
290
     0
176
     1
 40
1.0
176
     1
 40
1.0
176
     1
  0
VISUALSTYLE
  5
23EE6
102
{ACAD_REACTORS
330
10015
102
}
330
10015
100
AcDbVisualStyle
  2
Wireframe
 70
     5
177
     3
291
     0
 70
    58
 90
        0
176
     1
 90
        2
176
     1
 90
        0
176
     1
 90
        0
176
     1
 40
0.6
176
     1
 40
30.0
176
     1
 62
     7
420
 16777215
176
     1
 90
        1
176
     1
 90
        4
176
     1
 62
     7
176
     1
 62
   257
176
     1
 90
        1
176
     1
 90
        1
176
     1
 40
1.0
176
     1
 90
        0
176
     1
 62
   257
176
     1
 40
1.0
176
     1
 90
        1
176
     1
 90
        6
176
     1
 90
        2
176
     1
 62
     7
176
     1
 90
        3
176
     1
 90
        0
176
     1
 90
        0
176
     1
290
     0
176
     1
 90
        1
176
     1
 40
0.0
176
     1
 90
        0
176
     1
290
     0
176
     1
290
     1
176
     1
290
     1
176
     1
290
     0
176
     1
290
     0
176
     1
290
     0
176
     1
290
     0
176
     1
290
     0
176
     1
290
     0
176
     1
 90
       50
176
     1
 40
0.0
176
     1
 40
1.0
176
     1
 90
        0
176
     1
 62
    18
176
     1
 90
       50
176
     1
 90
        3
176
     1
 62
     5
420
      255
176
     1
290
     0
176
     1
 90
       50
176
     1
 90
       50
176
     1
 90
       50
176
     1
290
     0
176
     1
 90
       50
176
     1
 62
   256
176
     0
 40
1.0
176
     0
 90
        2
176
     1
  1
strokes_ogs.tif
176
     1
290
     0
176
     1
 40
1.0
176
     1
 40
1.0
176
     1
  0
VISUALSTYLE
  5
23EEA
102
{ACAD_REACTORS
330
10015
102
}
330
10015
100
AcDbVisualStyle
  2
X-Ray
 70
    25
177
     3
291
     0
 70
    58
 90
        2
176
     1
 90
        2
176
     1
 90
        1
176
     1
 90
        1
176
     1
 40
0.5
176
     1
 40
30.0
176
     1
 62
     7
420
 16777215
176
     1
 90
        1
176
     1
 90
        0
176
     1
 62
     7
176
     1
 62
   257
176
     1
 90
        1
176
     1
 90
        1
176
     1
 40
1.0
176
     1
 90
        8
176
     1
 62
     7
176
     1
 40
1.0
176
     1
 90
        1
176
     1
 90
        6
176
     1
 90
        2
176
     1
 62
     7
176
     1
 90
        3
176
     1
 90
        0
176
     1
 90
        0
176
     1
290
     0
176
     1
 90
       13
176
     1
 40
0.0
176
     1
 90
        0
176
     1
290
     0
176
     1
290
     1
176
     1
290
     1
176
     1
290
     0
176
     1
290
     0
176
     1
290
     0
176
     1
290
     0
176
     1
290
     0
176
     1
290
     0
176
     1
 90
       50
176
     1
 40
0.0
176
     1
 40
1.0
176
     1
 90
        0
176
     1
 62
    18
176
     1
 90
       50
176
     1
 90
        3
176
     1
 62
     5
420
      255
176
     1
290
     0
176
     1
 90
       50
176
     1
 90
       50
176
     1
 90
       50
176
     1
290
     0
176
     1
 90
       50
176
     1
 62
   256
176
     0
 40
1.0
176
     0
 90
        2
176
     1
  1
strokes_ogs.tif
176
     1
290
     0
176
     1
 40
1.0
176
     1
 40
1.0
176
     1
  0
DICTIONARYVAR
  5
100CD
102
{ACAD_REACTORS
330
5697
102
}
330
5697
100
DictionaryVariables
280
     0
  1
1:1
  0
DICTIONARYVAR
  5
100CC
102
{ACAD_REACTORS
330
5697
102
}
330
5697
100
DictionaryVariables
280
     0
  1
STANDARD
  0
DICTIONARYVAR
  5
100CB
102
{ACAD_REACTORS
330
5697
102
}
330
5697
100
DictionaryVariables
280
     0
  1
STANDARD
  0
DICTIONARYVAR
  5
23F62
102
{ACAD_REACTORS
330
5697
102
}
330
5697
100
DictionaryVariables
280
     0
  1
Imperial24
  0
DICTIONARYVAR
  5
23F63
102
{ACAD_REACTORS
330
5697
102
}
330
5697
100
DictionaryVariables
280
     0
  1
Imperial24
  0
DICTIONARYVAR
  5
5698
102
{ACAD_REACTORS
330
5697
102
}
330
5697
100
DictionaryVariables
280
     0
  1
1
  0
DICTIONARYVAR
  5
100CF
102
{ACAD_REACTORS
330
5697
102
}
330
5697
100
DictionaryVariables
280
     0
  1
0
  0
DICTIONARYVAR
  5
21D20
102
{ACAD_REACTORS
330
5697
102
}
330
5697
100
DictionaryVariables
280
     0
  1
1
  0
DICTIONARYVAR
  5
21D21
102
{ACAD_REACTORS
330
5697
102
}
330
5697
100
DictionaryVariables
280
     0
  1
15
  0
DICTIONARYVAR
  5
21D1F
102
{ACAD_REACTORS
330
5697
102
}
330
5697
100
DictionaryVariables
280
     0
  1
0
  0
DICTIONARYVAR
  5
21D1E
102
{ACAD_REACTORS
330
5697
102
}
330
5697
100
DictionaryVariables
280
     0
  1
0
  0
DICTIONARYVAR
  5
100CE
102
{ACAD_REACTORS
330
5697
102
}
330
5697
100
DictionaryVariables
280
     0
  1
127
  0
XRECORD
  5
1012C
102
{ACAD_REACTORS
330
1012A
102
}
330
1012A
100
AcDbXrecord
280
     1
330
0
330
0
330
0
330
0
330
0
330
0
330
0
330
0
330
0
330
0
330
0
330
0
330
0
330
0
330
0
330
0
330
0
330
0
330
0
330
0
330
0
330
0
330
0
330
0
330
0
330
0
330
0
330
0
330
0
330
0
330
0
330
0
330
0
330
0
330
0
330
0
330
0
330
0
330
0
330
0
330
0
330
0
330
0
330
0
330
0
330
0
330
0
330
0
330
0
330
0
  0
DICTIONARY
  5
23F67
330
23EF0
100
AcDbDictionary
280
     1
281
     1
  3
ACAD_XREC_ROUNDTRIP
360
23FD4
  0
DICTIONARY
  5
21E0A
330
904E
100
AcDbDictionary
280
     1
281
     1
  0
DICTIONARY
  5
10006
330
10005
100
AcDbDictionary
280
     1
281
     1
  3
ACAD_XREC_ROUNDTRIP
360
159CA
  3
BUMPTILE
360
10008
  3
DIFFUSETILE
360
10007
  3
OPACITYTILE
360
1000B
  3
REFLECTIONTILE
360
1000A
  3
REFRACTIONTILE
360
1000C
  3
SPECULARTILE
360
10009
  0
DICTIONARY
  5
FFFE
330
FFFD
100
AcDbDictionary
280
     1
281
     1
  3
ACAD_XREC_ROUNDTRIP
360
159C9
  3
BUMPTILE
360
10000
  3
DIFFUSETILE
360
FFFF
  3
OPACITYTILE
360
10003
  3
REFLECTIONTILE
360
10002
  3
REFRACTIONTILE
360
10004
  3
SPECULARTILE
360
10001
  0
DICTIONARY
  5
1000E
330
1000D
100
AcDbDictionary
280
     1
281
     1
  3
ACAD_XREC_ROUNDTRIP
360
159CB
  3
BUMPTILE
360
10010
  3
DIFFUSETILE
360
1000F
  3
OPACITYTILE
360
10013
  3
REFLECTIONTILE
360
10012
  3
REFRACTIONTILE
360
10014
  3
SPECULARTILE
360
10011
  0
DICTIONARY
  5
23F65
330
23EEE
100
AcDbDictionary
280
     1
281
     1
  3
ACAD_XREC_ROUNDTRIP
360
23FD3
  0
DICTIONARY
  5
1007E
330
1002B
100
AcDbDictionary
280
     1
281
     1
  3
ACAD_ROUNDTRIP_2008_TABLESTYLE_CELLSTYLEMAP
360
23FD2
  0
XRECORD
  5
23FD4
102
{ACAD_REACTORS
330
23F67
102
}
330
23F67
100
AcDbXrecord
280
     1
102
DISPLAYNAME
  1
Imperial24
102
FLAGS
 90
        0
  0
XRECORD
  5
159CA
102
{ACAD_REACTORS
330
10006
102
}
330
10006
100
AcDbXrecord
280
     1
102
MATERIAL
148
0.0
149
0.0
149
0.0
 93
        0
 94
      127
282
     0
 72
     0
 77
     0
171
     0
175
     0
179
     0
273
     0
  0
XRECORD
  5
10008
102
{ACAD_REACTORS
330
10006
102
}
330
10006
100
AcDbXrecord
280
     1
270
     1
271
     1
  0
XRECORD
  5
10007
102
{ACAD_REACTORS
330
10006
102
}
330
10006
100
AcDbXrecord
280
     1
270
     1
271
     1
  0
XRECORD
  5
1000B
102
{ACAD_REACTORS
330
10006
102
}
330
10006
100
AcDbXrecord
280
     1
270
     1
271
     1
  0
XRECORD
  5
1000A
102
{ACAD_REACTORS
330
10006
102
}
330
10006
100
AcDbXrecord
280
     1
270
     1
271
     1
  0
XRECORD
  5
1000C
102
{ACAD_REACTORS
330
10006
102
}
330
10006
100
AcDbXrecord
280
     1
270
     1
271
     1
  0
XRECORD
  5
10009
102
{ACAD_REACTORS
330
10006
102
}
330
10006
100
AcDbXrecord
280
     1
270
     1
271
     1
  0
XRECORD
  5
159C9
102
{ACAD_REACTORS
330
FFFE
102
}
330
FFFE
100
AcDbXrecord
280
     1
102
MATERIAL
148
0.0
149
0.0
149
0.0
 93
        0
 94
      127
282
     0
 72
     0
 77
     0
171
     0
175
     0
179
     0
273
     0
  0
XRECORD
  5
10000
102
{ACAD_REACTORS
330
FFFE
102
}
330
FFFE
100
AcDbXrecord
280
     1
270
     1
271
     1
  0
XRECORD
  5
FFFF
102
{ACAD_REACTORS
330
FFFE
102
}
330
FFFE
100
AcDbXrecord
280
     1
270
     1
271
     1
  0
XRECORD
  5
10003
102
{ACAD_REACTORS
330
FFFE
102
}
330
FFFE
100
AcDbXrecord
280
     1
270
     1
271
     1
  0
XRECORD
  5
10002
102
{ACAD_REACTORS
330
FFFE
102
}
330
FFFE
100
AcDbXrecord
280
     1
270
     1
271
     1
  0
XRECORD
  5
10004
102
{ACAD_REACTORS
330
FFFE
102
}
330
FFFE
100
AcDbXrecord
280
     1
270
     1
271
     1
  0
XRECORD
  5
10001
102
{ACAD_REACTORS
330
FFFE
102
}
330
FFFE
100
AcDbXrecord
280
     1
270
     1
271
     1
  0
XRECORD
  5
159CB
102
{ACAD_REACTORS
330
1000E
102
}
330
1000E
100
AcDbXrecord
280
     1
102
MATERIAL
148
0.0
149
0.0
149
0.0
 93
        0
 94
      127
282
     0
 72
     0
 77
     0
171
     0
175
     0
179
     0
273
     0
  0
XRECORD
  5
10010
102
{ACAD_REACTORS
330
1000E
102
}
330
1000E
100
AcDbXrecord
280
     1
270
     1
271
     1
  0
XRECORD
  5
1000F
102
{ACAD_REACTORS
330
1000E
102
}
330
1000E
100
AcDbXrecord
280
     1
270
     1
271
     1
  0
XRECORD
  5
10013
102
{ACAD_REACTORS
330
1000E
102
}
330
1000E
100
AcDbXrecord
280
     1
270
     1
271
     1
  0
XRECORD
  5
10012
102
{ACAD_REACTORS
330
1000E
102
}
330
1000E
100
AcDbXrecord
280
     1
270
     1
271
     1
  0
XRECORD
  5
10014
102
{ACAD_REACTORS
330
1000E
102
}
330
1000E
100
AcDbXrecord
280
     1
270
     1
271
     1
  0
XRECORD
  5
10011
102
{ACAD_REACTORS
330
1000E
102
}
330
1000E
100
AcDbXrecord
280
     1
270
     1
271
     1
  0
XRECORD
  5
23FD3
102
{ACAD_REACTORS
330
23F65
102
}
330
23F65
100
AcDbXrecord
280
     1
102
DISPLAYNAME
  1
Imperial24
102
FLAGS
 90
        0
  0
CELLSTYLEMAP
  5
23FD2
102
{ACAD_REACTORS
330
1007E
102
}
330
1007E
100
AcDbCellStyleMap
 90
        3
300
CELLSTYLE
  1
TABLEFORMAT_BEGIN
 90
        5
170
     1
 91
        0
 92
    32768
 62
   257
 93
        1
300
CONTENTFORMAT
  1
CONTENTFORMAT_BEGIN
 90
        0
 91
        0
 92
      512
 93
        0
300

 40
0.0
140
1.0
 94
        5
 62
     0
340
11
144
0.25
309
CONTENTFORMAT_END
171
     1
301
MARGIN
  1
CELLMARGIN_BEGIN
 40
0.06
 40
0.06
 40
0.06
 40
0.06
 40
0.18
 40
0.18
309
CELLMARGIN_END
 94
        6
 95
        1
302
GRIDFORMAT
  1
GRIDFORMAT_BEGIN
 90
        0
 91
        1
 62
     0
 92
       -2
340
0
 93
        0
 40
0.045
309
GRIDFORMAT_END
 95
        2
302
GRIDFORMAT
  1
GRIDFORMAT_BEGIN
 90
        0
 91
        1
 62
     0
 92
       -2
340
0
 93
        0
 40
0.045
309
GRIDFORMAT_END
 95
        4
302
GRIDFORMAT
  1
GRIDFORMAT_BEGIN
 90
        0
 91
        1
 62
     0
 92
       -2
340
0
 93
        0
 40
0.045
309
GRIDFORMAT_END
 95
        8
302
GRIDFORMAT
  1
GRIDFORMAT_BEGIN
 90
        0
 91
        1
 62
     0
 92
       -2
340
0
 93
        0
 40
0.045
309
GRIDFORMAT_END
 95
       16
302
GRIDFORMAT
  1
GRIDFORMAT_BEGIN
 90
        0
 91
        1
 62
     0
 92
       -2
340
0
 93
        0
 40
0.045
309
GRIDFORMAT_END
 95
       32
302
GRIDFORMAT
  1
GRIDFORMAT_BEGIN
 90
        0
 91
        1
 62
     0
 92
       -2
340
0
 93
        0
 40
0.045
309
GRIDFORMAT_END
309
TABLEFORMAT_END
  1
CELLSTYLE_BEGIN
 90
        1
 91
        1
300
_TITLE
309
CELLSTYLE_END
300
CELLSTYLE
  1
TABLEFORMAT_BEGIN
 90
        5
170
     1
 91
        0
 92
        0
 62
   257
 93
        1
300
CONTENTFORMAT
  1
CONTENTFORMAT_BEGIN
 90
        0
 91
        0
 92
      512
 93
        0
300

 40
0.0
140
1.0
 94
        5
 62
     0
340
11
144
0.18
309
CONTENTFORMAT_END
171
     1
301
MARGIN
  1
CELLMARGIN_BEGIN
 40
0.06
 40
0.06
 40
0.06
 40
0.06
 40
0.18
 40
0.18
309
CELLMARGIN_END
 94
        6
 95
        1
302
GRIDFORMAT
  1
GRIDFORMAT_BEGIN
 90
        0
 91
        1
 62
     0
 92
       -2
340
0
 93
        0
 40
0.045
309
GRIDFORMAT_END
 95
        2
302
GRIDFORMAT
  1
GRIDFORMAT_BEGIN
 90
        0
 91
        1
 62
     0
 92
       -2
340
0
 93
        0
 40
0.045
309
GRIDFORMAT_END
 95
        4
302
GRIDFORMAT
  1
GRIDFORMAT_BEGIN
 90
        0
 91
        1
 62
     0
 92
       -2
340
0
 93
        0
 40
0.045
309
GRIDFORMAT_END
 95
        8
302
GRIDFORMAT
  1
GRIDFORMAT_BEGIN
 90
        0
 91
        1
 62
     0
 92
       -2
340
0
 93
        0
 40
0.045
309
GRIDFORMAT_END
 95
       16
302
GRIDFORMAT
  1
GRIDFORMAT_BEGIN
 90
        0
 91
        1
 62
     0
 92
       -2
340
0
 93
        0
 40
0.045
309
GRIDFORMAT_END
 95
       32
302
GRIDFORMAT
  1
GRIDFORMAT_BEGIN
 90
        0
 91
        1
 62
     0
 92
       -2
340
0
 93
        0
 40
0.045
309
GRIDFORMAT_END
309
TABLEFORMAT_END
  1
CELLSTYLE_BEGIN
 90
        2
 91
        1
300
_HEADER
309
CELLSTYLE_END
300
CELLSTYLE
  1
TABLEFORMAT_BEGIN
 90
        5
170
     1
 91
        0
 92
        0
 62
   257
 93
        1
300
CONTENTFORMAT
  1
CONTENTFORMAT_BEGIN
 90
        0
 91
        0
 92
      512
 93
        0
300

 40
0.0
140
1.0
 94
        2
 62
     0
340
11
144
0.18
309
CONTENTFORMAT_END
171
     1
301
MARGIN
  1
CELLMARGIN_BEGIN
 40
0.06
 40
0.06
 40
0.06
 40
0.06
 40
0.18
 40
0.18
309
CELLMARGIN_END
 94
        6
 95
        1
302
GRIDFORMAT
  1
GRIDFORMAT_BEGIN
 90
        0
 91
        1
 62
     0
 92
       -2
340
0
 93
        0
 40
0.045
309
GRIDFORMAT_END
 95
        2
302
GRIDFORMAT
  1
GRIDFORMAT_BEGIN
 90
        0
 91
        1
 62
     0
 92
       -2
340
0
 93
        0
 40
0.045
309
GRIDFORMAT_END
 95
        4
302
GRIDFORMAT
  1
GRIDFORMAT_BEGIN
 90
        0
 91
        1
 62
     0
 92
       -2
340
0
 93
        0
 40
0.045
309
GRIDFORMAT_END
 95
        8
302
GRIDFORMAT
  1
GRIDFORMAT_BEGIN
 90
        0
 91
        1
 62
     0
 92
       -2
340
0
 93
        0
 40
0.045
309
GRIDFORMAT_END
 95
       16
302
GRIDFORMAT
  1
GRIDFORMAT_BEGIN
 90
        0
 91
        1
 62
     0
 92
       -2
340
0
 93
        0
 40
0.045
309
GRIDFORMAT_END
 95
       32
302
GRIDFORMAT
  1
GRIDFORMAT_BEGIN
 90
        0
 91
        1
 62
     0
 92
       -2
340
0
 93
        0
 40
0.045
309
GRIDFORMAT_END
309
TABLEFORMAT_END
  1
CELLSTYLE_BEGIN
 90
        3
 91
        2
300
_DATA
309
CELLSTYLE_END
  0
ENDSEC
  0
SECTION
  2
ACDSDATA
 70
     2
 71
     6
  0
ACDSSCHEMA
 90
        0
  1
AcDb_Thumbnail_Schema
  2
AcDbDs::ID
280
    10
 91
        8
  2
Thumbnail_Data
280
    15
 91
        0
101
ACDSRECORD
 95
        0
 90
        1
  2
AcDbDs::TreatedAsObjectData
280
     1
291
     1
101
ACDSRECORD
 95
        0
 90
        2
  2
AcDbDs::Legacy
280
     1
291
     1
101
ACDSRECORD
  1
AcDbDs::ID
 90
        3
  2
AcDs:Indexable
280
     1
291
     1
101
ACDSRECORD
  1
AcDbDs::ID
 90
        4
  2
AcDbDs::HandleAttribute
280
     7
282
     1
  0
ACDSSCHEMA
 90
        1
  1
AcDbDs::TreatedAsObjectDataSchema
  2
AcDbDs::TreatedAsObjectData
280
     1
 91
        0
  0
ACDSSCHEMA
 90
        2
  1
AcDbDs::LegacySchema
  2
AcDbDs::Legacy
280
     1
 91
        0
  0
ACDSSCHEMA
 90
        3
  1
AcDbDs::IndexedPropertySchema
  2
AcDs:Indexable
280
     1
 91
        0
  0
ACDSSCHEMA
 90
        4
  1
AcDbDs::HandleAttributeSchema
  2
AcDbDs::HandleAttribute
280
     7
 91
        1
284
     1
  0
ACDSRECORD
 90
        0
  2
AcDbDs::ID
280
    10
320
904E
  2
Thumbnail_Data
280
    15
 94
     1689
310
89504E470D0A1A0A0000000D4948445200000100000000A408030000004F56001800000300504C5445000000000000FFFFFF0000000000000000000000000000000000000000000000000000330000660000990000CC0000FF0033000033330033660033990033CC0033FF0066000066330066660066990066CC0066FF0099
310
000099330099660099990099CC0099FF00CC0000CC3300CC6600CC9900CCCC00CCFF00FF0000FF3300FF6600FF9900FFCC00FFFF3300003300333300663300993300CC3300FF3333003333333333663333993333CC3333FF3366003366333366663366993366CC3366FF3399003399333399663399993399CC3399FF33CC00
310
33CC3333CC6633CC9933CCCC33CCFF33FF0033FF3333FF6633FF9933FFCC33FFFF6600006600336600666600996600CC6600FF6633006633336633666633996633CC6633FF6666006666336666666666996666CC6666FF6699006699336699666699996699CC6699FF66CC0066CC3366CC6666CC9966CCCC66CCFF66FF0066
310
FF3366FF6666FF9966FFCC66FFFF9900009900339900669900999900CC9900FF9933009933339933669933999933CC9933FF9966009966339966669966999966CC9966FF9999009999339999669999999999CC9999FF99CC0099CC3399CC6699CC9999CCCC99CCFF99FF0099FF3399FF6699FF9999FFCC99FFFFCC0000CC00
310
33CC0066CC0099CC00CCCC00FFCC3300CC3333CC3366CC3399CC33CCCC33FFCC6600CC6633CC6666CC6699CC66CCCC66FFCC9900CC9933CC9966CC9999CC99CCCC99FFCCCC00CCCC33CCCC66CCCC99CCCCCCCCCCFFCCFF00CCFF33CCFF66CCFF99CCFFCCCCFFFFFF0000FF0033FF0066FF0099FF00CCFF00FFFF3300FF3333
310
FF3366FF3399FF33CCFF33FFFF6600FF6633FF6666FF6699FF66CCFF66FFFF9900FF9933FF9966FF9999FF99CCFF99FFFFCC00FFCC33FFCC66FFCC99FFCCCCFFCCFFFFFF00FFFF33FFFF66FFFF99FFFFCCFFFFFF0000000D0D0D1A1A1A2828283535354343435050505D5D5D6B6B6B787878868686939393A1A1A1AEAEAEBB
310
BBBBC9C9C9D6D6D6E4E4E4F1F1F1FFFFFF000000000000000000000000000000000000000000000000000000000000C11FEF66000003544944415478DAEDDD3B72E420108061DF40D720E1FED924A47304459CA093CD9797340281EDAD75EDD674FFED2ADBC3B8ECE273032D84C71FD1787C00000000000000000000000000
310
0000000000000000000000000000000000F4E17F28DE17E0677E1A00000000807E805F7D000000004601A25500964100000020461101C03640B40EF0340DB097B00BE0DC33459A05E415B6000A41BCF6BF08D801F05EBC7BDE76810D65405A03F230300D20CFDB42600D200230D483C600CABBCEC0501DE0C41500AB95A0B4
310
22C832C035F94B552C4A00427AFB538C725DA003C0B990DE527C3507E4A849A00C2026803ACF7FBE0AB4F7D286808871803DCAFB03E484763E01F8DDCF018E9330B30CD000903FD9830FFBBE38EDE3171970EC8F6900F0096075DCC92F01444F06A47E84D5EFD25F2BC1DAE513404B06E46E7D0720EF89C45B31AC01C00799
310
0C819AE367A3777BDE0D510B7019ED0740ECCE41A665A06C092A0388C7247807C8323DC06B06540320B2049019402D8375018457DC00629A1B8E277DBE625007F0D910C8958E681F02B50E88DF04D03809B655205782F2E53258AE7F3402C4500ABCFB2A102F004E7106B43D8EAF006A29ECCC0C816307BCBB18CA1FD5012C
310
2F874D00E4A4DED30ABF4F36442A40B721A20EA0F673B125D665800000805A0027F3FB023D807BDD19D004506B80E18EEF002032BB08500430DCF51B0056CF6A9A0316BF63892D013467C03509AC66C0325AB76BDF4D0298CF809606F14C038343C07406FCCB6F03C07F0508B601B62D6C256E5F3283090A015AA7468019CC
310
7684098049FBBD0D00000000E0BD017CBE3BBC4F4E899D9DBD94C1B54D445B0694A3DFAB0C901140D4001CD739F54F424780478DEE4AE878FC6A7A6F804A90B27F36041E35031EDB653324B53D6A26680038FFF6334CBB7202C80440F4009CC78086AE84476DBE02BCCE1389F90C88FAE6003137070CABC0082093554074AD
310
02AD53AD0EB801D40C90AD6F137595A0944A50BC5580B3A300180788009807186E02015077857B80FC58DBAE70EBE8B61A027DDB38527464C0F40C483B39D203DCEE922A3E21326B5609F077A11860F21ABAB65E55D63C80FA2160FD5F6CE80D00000000000000000000000000000000000000000000000000000000000000
310
00000000000000000000000000000034C76F8C1FDC7C054CD9490000000049454E44AE426082
  0
ENDSEC
  0
EOF
