  0
SECTION
  2
HEADER
  9
$ACADVER
  1
AC1027
  9
$ACADMAINTVER
 70
    55
  9
$DWGCODEPAGE
  3
ANSI_932
  9
$LASTSAVEDBY
  1
marketing
  9
$REQUIREDVERSIONS
160
                 0
  9
$INSBASE
 10
0.0
 20
0.0
 30
0.0
  9
$EXTMIN
 10
-0.0501380315408824
 20
-0.0149740505676164
 30
-0.0015258207003583
  9
$EXTMAX
 10
525.0436834305673
 20
742.5339748645629
 30
0.0000000349246037
  9
$LIMMIN
 10
-296.316999476111
 20
-370.7034300441653
  9
$LIMMAX
 10
623.3128432133979
 20
328.6261559379898
  9
$ORTHOMODE
 70
     1
  9
$REGENMODE
 70
     1
  9
$FILLMODE
 70
     1
  9
$QTEXTMODE
 70
     0
  9
$MIRRTEXT
 70
     1
  9
$LTSCALE
 40
10.0
  9
$ATTMODE
 70
     1
  9
$TEXTSIZE
 40
5.0
  9
$TRACEWID
 40
0.05
  9
$TEXTSTYLE
  7
STANDARD1
  9
$CLAYER
  8
10
  9
$CELTYPE
  6
HIDDENX2
  9
$CECOLOR
 62
   256
  9
$CELTSCALE
 40
1.0
  9
$DISPSILH
 70
     0
  9
$DIMSCALE
 40
1.0
  9
$DIMASZ
 40
2.0
  9
$DIMEXO
 40
1.0
  9
$DIMDLI
 40
0.5
  9
$DIMRND
 40
0.0
  9
$DIMDLE
 40
0.0
  9
$DIMEXE
 40
0.5
  9
$DIMTP
 40
0.0
  9
$DIMTM
 40
0.0
  9
$DIMTXT
 40
6.0
  9
$DIMCEN
 40
0.09
  9
$DIMTSZ
 40
0.0
  9
$DIMTOL
 70
     0
  9
$DIMLIM
 70
     0
  9
$DIMTIH
 70
     0
  9
$DIMTOH
 70
     1
  9
$DIMSE1
 70
     0
  9
$DIMSE2
 70
     0
  9
$DIMTAD
 70
     3
  9
$DIMZIN
 70
    12
  9
$DIMBLK
  1
OPEN
  9
$DIMASO
 70
     1
  9
$DIMSHO
 70
     1
  9
$DIMPOST
  1

  9
$DIMAPOST
  1

  9
$DIMALT
 70
     0
  9
$DIMALTD
 70
     2
  9
$DIMALTF
 40
25.4
  9
$DIMLFAC
 40
1.0
  9
$DIMTOFL
 70
     0
  9
$DIMTVP
 40
0.0
  9
$DIMTIX
 70
     0
  9
$DIMSOXD
 70
     0
  9
$DIMSAH
 70
     0
  9
$DIMBLK1
  1

  9
$DIMBLK2
  1

  9
$DIMSTYLE
  2
STANDARD
  9
$DIMCLRD
 70
     0
  9
$DIMCLRE
 70
     0
  9
$DIMCLRT
 70
     0
  9
$DIMTFAC
 40
1.0
  9
$DIMGAP
 40
2.0
  9
$DIMJUST
 70
     0
  9
$DIMSD1
 70
     0
  9
$DIMSD2
 70
     0
  9
$DIMTOLJ
 70
     1
  9
$DIMTZIN
 70
     0
  9
$DIMALTZ
 70
     0
  9
$DIMALTTZ
 70
     0
  9
$DIMUPT
 70
     0
  9
$DIMDEC
 70
     1
  9
$DIMTDEC
 70
     1
  9
$DIMALTU
 70
     2
  9
$DIMALTTD
 70
     2
  9
$DIMTXSTY
  7
STANDARD
  9
$DIMAUNIT
 70
     0
  9
$DIMADEC
 70
     0
  9
$DIMALTRND
 40
0.0
  9
$DIMAZIN
 70
     0
  9
$DIMDSEP
 70
    46
  9
$DIMATFIT
 70
     3
  9
$DIMFRAC
 70
     0
  9
$DIMLDRBLK
  1
OPEN
  9
$DIMLUNIT
 70
     2
  9
$DIMLWD
 70
    -2
  9
$DIMLWE
 70
    -2
  9
$DIMTMOVE
 70
     0
  9
$DIMFXL
 40
1.0
  9
$DIMFXLON
 70
     0
  9
$DIMJOGANG
 40
0.7853981633974483
  9
$DIMTFILL
 70
     0
  9
$DIMTFILLCLR
 70
     0
  9
$DIMARCSYM
 70
     0
  9
$DIMLTYPE
  6

  9
$DIMLTEX1
  6

  9
$DIMLTEX2
  6

  9
$DIMTXTDIRECTION
 70
     0
  9
$LUNITS
 70
     2
  9
$LUPREC
 70
     4
  9
$SKETCHINC
 40
0.1
  9
$FILLETRAD
 40
0.0
  9
$AUNITS
 70
     0
  9
$AUPREC
 70
     0
  9
$MENU
  1
.
  9
$ELEVATION
 40
0.0
  9
$PELEVATION
 40
0.0
  9
$THICKNESS
 40
0.0
  9
$LIMCHECK
 70
     0
  9
$CHAMFERA
 40
0.0
  9
$CHAMFERB
 40
0.0
  9
$CHAMFERC
 40
0.0
  9
$CHAMFERD
 40
0.0
  9
$SKPOLY
 70
     0
  9
$TDCREATE
 40
2452286.555658658
  9
$TDUCREATE
 40
2452286.180658658
  9
$TDUPDATE
 40
2459243.456725776
  9
$TDUUPDATE
 40
2459243.081725775
  9
$TDINDWG
 40
1.6858225694
  9
$TDUSRTIMER
 40
1.6858211690
  9
$USRTIMER
 70
     1
  9
$ANGBASE
 50
0.0
  9
$ANGDIR
 70
     0
  9
$PDMODE
 70
     0
  9
$PDSIZE
 40
0.0
  9
$PLINEWID
 40
0.0
  9
$SPLFRAME
 70
     0
  9
$SPLINETYPE
 70
     6
  9
$SPLINESEGS
 70
     8
  9
$HANDSEED
  5
10F9E
  9
$SURFTAB1
 70
     6
  9
$SURFTAB2
 70
     6
  9
$SURFTYPE
 70
     6
  9
$SURFU
 70
     6
  9
$SURFV
 70
     6
  9
$UCSBASE
  2

  9
$UCSNAME
  2

  9
$UCSORG
 10
0.0
 20
0.0
 30
0.0
  9
$UCSXDIR
 10
1.0
 20
0.0
 30
0.0
  9
$UCSYDIR
 10
0.0
 20
1.0
 30
0.0
  9
$UCSORTHOREF
  2

  9
$UCSORTHOVIEW
 70
     0
  9
$UCSORGTOP
 10
0.0
 20
0.0
 30
0.0
  9
$UCSORGBOTTOM
 10
0.0
 20
0.0
 30
0.0
  9
$UCSORGLEFT
 10
0.0
 20
0.0
 30
0.0
  9
$UCSORGRIGHT
 10
0.0
 20
0.0
 30
0.0
  9
$UCSORGFRONT
 10
0.0
 20
0.0
 30
0.0
  9
$UCSORGBACK
 10
0.0
 20
0.0
 30
0.0
  9
$PUCSBASE
  2

  9
$PUCSNAME
  2

  9
$PUCSORG
 10
0.0
 20
0.0
 30
0.0
  9
$PUCSXDIR
 10
1.0
 20
0.0
 30
0.0
  9
$PUCSYDIR
 10
0.0
 20
1.0
 30
0.0
  9
$PUCSORTHOREF
  2

  9
$PUCSORTHOVIEW
 70
     0
  9
$PUCSORGTOP
 10
0.0
 20
0.0
 30
0.0
  9
$PUCSORGBOTTOM
 10
0.0
 20
0.0
 30
0.0
  9
$PUCSORGLEFT
 10
0.0
 20
0.0
 30
0.0
  9
$PUCSORGRIGHT
 10
0.0
 20
0.0
 30
0.0
  9
$PUCSORGFRONT
 10
0.0
 20
0.0
 30
0.0
  9
$PUCSORGBACK
 10
0.0
 20
0.0
 30
0.0
  9
$USERI1
 70
     0
  9
$USERI2
 70
     0
  9
$USERI3
 70
     0
  9
$USERI4
 70
     0
  9
$USERI5
 70
     0
  9
$USERR1
 40
0.0
  9
$USERR2
 40
0.0
  9
$USERR3
 40
0.0
  9
$USERR4
 40
0.0
  9
$USERR5
 40
0.0
  9
$WORLDVIEW
 70
     1
  9
$SHADEDGE
 70
     3
  9
$SHADEDIF
 70
    70
  9
$TILEMODE
 70
     1
  9
$MAXACTVP
 70
    48
  9
$PINSBASE
 10
0.0
 20
0.0
 30
0.0
  9
$PLIMCHECK
 70
     0
  9
$PEXTMIN
 10
1.122749993181602
 20
0.7804166500962629
 30
0.0
  9
$PEXTMAX
 10
10.10474993863443
 20
7.023749850866361
 30
0.0
  9
$PLIMMIN
 10
-0.2312499519408218
 20
-0.2312499894870548
  9
$PLIMMAX
 10
11.45874984621061
 20
8.035416452903447
  9
$UNITMODE
 70
     0
  9
$VISRETAIN
 70
     1
  9
$PLINEGEN
 70
     0
  9
$PSLTSCALE
 70
     1
  9
$TREEDEPTH
 70
  3020
  9
$CMLSTYLE
  2
STANDARD
  9
$CMLJUST
 70
     0
  9
$CMLSCALE
 40
1.0
  9
$PROXYGRAPHICS
 70
     1
  9
$MEASUREMENT
 70
     0
  9
$CELWEIGHT
370
    -1
  9
$ENDCAPS
280
     0
  9
$JOINSTYLE
280
     0
  9
$LWDISPLAY
290
     0
  9
$INSUNITS
 70
     0
  9
$HYPERLINKBASE
  1

  9
$STYLESHEET
  1
MONOCHROME.CTB
  9
$XEDIT
290
     1
  9
$CEPSNTYPE
380
     0
  9
$PSTYLEMODE
290
     1
  9
$FINGERPRINTGUID
  2

  9
$VERSIONGUID
  2
{95601E4E-2958-4E99-8284-8F9A321A85EE}
  9
$EXTNAMES
290
     1
  9
$PSVPSCALE
 40
0.0
  9
$OLESTARTUP
290
     0
  9
$SORTENTS
280
   127
  9
$INDEXCTL
280
     0
  9
$HIDETEXT
280
     0
  9
$XCLIPFRAME
280
     2
  9
$HALOGAP
280
     0
  9
$OBSCOLOR
 70
   257
  9
$OBSLTYPE
280
     0
  9
$INTERSECTIONDISPLAY
280
     0
  9
$INTERSECTIONCOLOR
 70
   257
  9
$DIMASSOC
280
     1
  9
$PROJECTNAME
  1

  9
$CAMERADISPLAY
290
     0
  9
$LENSLENGTH
 40
50.0
  9
$CAMERAHEIGHT
 40
0.0
  9
$STEPSPERSEC
 40
2.0
  9
$STEPSIZE
 40
6.0
  9
$3DDWFPREC
 40
2.0
  9
$PSOLWIDTH
 40
0.25
  9
$PSOLHEIGHT
 40
4.0
  9
$LOFTANG1
 40
1.570796326794896
  9
$LOFTANG2
 40
1.570796326794896
  9
$LOFTMAG1
 40
0.0
  9
$LOFTMAG2
 40
0.0
  9
$LOFTPARAM
 70
     7
  9
$LOFTNORMALS
280
     1
  9
$LATITUDE
 40
37.795
  9
$LONGITUDE
 40
-122.394
  9
$NORTHDIRECTION
 40
0.0
  9
$TIMEZONE
 70
 -8000
  9
$LIGHTGLYPHDISPLAY
280
     1
  9
$TILEMODELIGHTSYNCH
280
     1
  9
$CMATERIAL
347
627F
  9
$SOLIDHIST
280
     1
  9
$SHOWHIST
280
     1
  9
$DWFFRAME
280
     2
  9
$DGNFRAME
280
     0
  9
$REALWORLDSCALE
290
     1
  9
$INTERFERECOLOR
 62
     1
  9
$INTERFEREOBJVS
345
62A1
  9
$INTERFEREVPVS
346
66D0
  9
$CSHADOW
280
     0
  9
$SHADOWPLANELOCATION
 40
0.0
  0
ENDSEC
  0
SECTION
  2
CLASSES
  0
CLASS
  1
ACDBDICTIONARYWDFLT
  2
AcDbDictionaryWithDefault
  3
ObjectDBX Classes
 90
        0
 91
        1
280
     0
281
     0
  0
CLASS
  1
DICTIONARYVAR
  2
AcDbDictionaryVar
  3
ObjectDBX Classes
 90
        0
 91
       12
280
     0
281
     0
  0
CLASS
  1
MATERIAL
  2
AcDbMaterial
  3
ObjectDBX Classes
 90
     1153
 91
        3
280
     0
281
     0
  0
CLASS
  1
VISUALSTYLE
  2
AcDbVisualStyle
  3
ObjectDBX Classes
 90
     4095
 91
       26
280
     0
281
     0
  0
CLASS
  1
TABLESTYLE
  2
AcDbTableStyle
  3
ObjectDBX Classes
 90
     4095
 91
        1
280
     0
281
     0
  0
CLASS
  1
SCALE
  2
AcDbScale
  3
ObjectDBX Classes
 90
     1153
 91
       17
280
     0
281
     0
  0
CLASS
  1
MLEADERSTYLE
  2
AcDbMLeaderStyle
  3
ACDB_MLEADERSTYLE_CLASS
 90
     4095
 91
        1
280
     0
281
     0
  0
CLASS
  1
ACDBSECTIONVIEWSTYLE
  2
AcDbSectionViewStyle
  3
ObjectDBX Classes
 90
     1025
 91
        2
280
     0
281
     0
  0
CLASS
  1
ACDBDETAILVIEWSTYLE
  2
AcDbDetailViewStyle
  3
ObjectDBX Classes
 90
     1025
 91
        2
280
     0
281
     0
  0
CLASS
  1
CELLSTYLEMAP
  2
AcDbCellStyleMap
  3
ObjectDBX Classes
 90
     1152
 91
        2
280
     0
281
     0
  0
CLASS
  1
SORTENTSTABLE
  2
AcDbSortentsTable
  3
ObjectDBX Classes
 90
        0
 91
        2
280
     0
281
     0
  0
CLASS
  1
AEC_REFEDIT_STATUS_TRACKER
  2
AecDbRefEditStatusTracker
  3
AecArchBase70|Product Desc: Autodesk Architectural Desktop 2007 |Company: Autodesk,Inc. |WEB Address: www.autodesk.com
 90
      129
 91
        0
280
     0
281
     0
  0
CLASS
  1
NPOCOLLECTION
  2
AcDbImpNonPersistentObjectsCollection
  3
ObjectDBX Classes
 90
     1153
 91
        0
280
     0
281
     0
  0
ENDSEC
  0
SECTION
  2
TABLES
  0
TABLE
  2
VPORT
  5
8
330
0
100
AcDbSymbolTable
 70
     1
  0
VPORT
  5
6275
330
8
100
AcDbSymbolTableRecord
100
AcDbViewportTableRecord
  2
*Active
 70
     0
 10
0.0
 20
0.0
 11
1.0
 21
1.0
 12
262.4967726995133
 22
371.2595004069976
 13
0.0
 23
0.0
 14
1.0
 24
1.0
 15
10.0
 25
10.0
 16
0.0
 26
0.0
 36
1.0
 17
0.0
 27
0.0
 37
0.0
 40
749.2993939052681
 41
2.464339908952958
 42
50.0
 43
0.0
 44
0.0
 50
0.0
 51
0.0
 71
     0
 72
   100
 73
     1
 74
     1
 75
     0
 76
     0
 77
     0
 78
     0
281
     0
 65
     1
110
0.0
120
0.0
130
0.0
111
1.0
121
0.0
131
0.0
112
0.0
122
1.0
132
0.0
 79
     0
146
0.0
348
629D
 60
     3
 61
     5
292
     1
282
     1
141
0.0
142
0.0
 63
   250
421
  3355443
1001
ACAD_NAV_VCDISPLAY
1070
     3
  0
ENDTAB
  0
TABLE
  2
LTYPE
  5
5
330
0
100
AcDbSymbolTable
 70
     7
  0
LTYPE
  5
13
330
5
100
AcDbSymbolTableRecord
100
AcDbLinetypeTableRecord
  2
BYBLOCK
 70
     0
  3

 72
    65
 73
     0
 40
0.0
  0
LTYPE
  5
14
330
5
100
AcDbSymbolTableRecord
100
AcDbLinetypeTableRecord
  2
BYLAYER
 70
     0
  3

 72
    65
 73
     0
 40
0.0
  0
LTYPE
  5
15
330
5
100
AcDbSymbolTableRecord
100
AcDbLinetypeTableRecord
  2
CONTINUOUS
 70
     0
  3
Solid line
 72
    65
 73
     0
 40
0.0
  0
LTYPE
  5
22
330
5
100
AcDbSymbolTableRecord
100
AcDbLinetypeTableRecord
  2
CONTINOUS
 70
     0
  3
Solid line
 72
    65
 73
     0
 40
0.0
  0
LTYPE
  5
23
330
5
100
AcDbSymbolTableRecord
100
AcDbLinetypeTableRecord
  2
DASHED
 70
     0
  3
__ __ __ __ __ __ __ __ __ __ __ __ __ __ __
 72
    65
 73
     2
 40
0.75
 49
0.5
 74
     0
 49
-0.25
 74
     0
  0
LTYPE
  5
24
330
5
100
AcDbSymbolTableRecord
100
AcDbLinetypeTableRecord
  2
DASHDOT
 70
     0
  3
__ . __ . __ . __ . __ . __ . __ . __ . __ . __
 72
    65
 73
     4
 40
1.0
 49
0.5
 74
     0
 49
-0.25
 74
     0
 49
0.0
 74
     0
 49
-0.25
 74
     0
  0
LTYPE
  5
4C47
330
5
100
AcDbSymbolTableRecord
100
AcDbLinetypeTableRecord
  2
DIVIDE
 70
     0
  3
Divide ____ . . ____ . . ____ . . ____ . . ____
 72
    65
 73
     6
 40
1.25
 49
0.5
 74
     0
 49
-0.25
 74
     0
 49
0.0
 74
     0
 49
-0.25
 74
     0
 49
0.0
 74
     0
 49
-0.25
 74
     0
  0
LTYPE
  5
6AE6
330
5
100
AcDbSymbolTableRecord
100
AcDbLinetypeTableRecord
  2
SLD-実線
 70
     0
  3
SolidWorks Line Style
 72
    65
 73
     0
 40
0.0
  0
LTYPE
  5
10F97
330
5
100
AcDbSymbolTableRecord
100
AcDbLinetypeTableRecord
  2
HIDDENX2
 70
     0
  3
Hidden (2x) ____ ____ ____ ____ ____ ____ ____
 72
    65
 73
     2
 40
0.75
 49
0.5
 74
     0
 49
-0.25
 74
     0
  0
ENDTAB
  0
TABLE
  2
LAYER
  5
2
102
{ACAD_XDICTIONARY
360
FF70
102
}
330
0
100
AcDbSymbolTable
 70
    14
  0
LAYER
  5
10
102
{ACAD_XDICTIONARY
360
6368
102
}
330
2
100
AcDbSymbolTableRecord
100
AcDbLayerTableRecord
  2
0
 70
     0
 62
     7
  6
CONTINOUS
370
    -3
390
F
347
628F
348
0
  0
LAYER
  5
2F
102
{ACAD_XDICTIONARY
360
636A
102
}
330
2
100
AcDbSymbolTableRecord
100
AcDbLayerTableRecord
  2
10
 70
     0
 62
     4
  6
CONTINOUS
370
    -3
390
F
347
628F
348
0
  0
LAYER
  5
31
102
{ACAD_XDICTIONARY
360
636C
102
}
330
2
100
AcDbSymbolTableRecord
100
AcDbLayerTableRecord
  2
12
 70
     0
 62
     3
  6
CONTINOUS
370
    -3
390
F
347
628F
348
0
  0
LAYER
  5
35
102
{ACAD_XDICTIONARY
360
636E
102
}
330
2
100
AcDbSymbolTableRecord
100
AcDbLayerTableRecord
  2
16
 70
     0
 62
     6
  6
DASHDOT
370
    -3
390
F
347
628F
348
0
  0
LAYER
  5
3C
102
{ACAD_XDICTIONARY
360
6372
102
}
330
2
100
AcDbSymbolTableRecord
100
AcDbLayerTableRecord
  2
11
 70
     0
 62
     1
  6
CONTINOUS
370
    -3
390
F
347
628F
348
0
  0
LAYER
  5
3D
102
{ACAD_XDICTIONARY
360
6374
102
}
330
2
100
AcDbSymbolTableRecord
100
AcDbLayerTableRecord
  2
24
 70
     0
 62
     7
  6
CONTINOUS
370
    -3
390
F
347
628F
348
0
  0
LAYER
  5
3A2
102
{ACAD_XDICTIONARY
360
6376
102
}
330
2
100
AcDbSymbolTableRecord
100
AcDbLayerTableRecord
  2
30
 70
     0
 62
     9
  6
CONTINUOUS
370
    -3
390
F
347
628F
348
0
  0
LAYER
  5
3A4
330
2
100
AcDbSymbolTableRecord
100
AcDbLayerTableRecord
  2
DEFPOINTS
 70
     0
 62
     7
  6
CONTINUOUS
290
     0
370
    -3
390
F
347
628F
348
0
  0
LAYER
  5
3BBA
102
{ACAD_XDICTIONARY
360
6378
102
}
330
2
100
AcDbSymbolTableRecord
100
AcDbLayerTableRecord
  2
18
 70
     0
 62
     5
  6
DIVIDE
370
    -3
390
F
347
628F
348
0
  0
LAYER
  5
5C47
102
{ACAD_XDICTIONARY
360
637E
102
}
330
2
100
AcDbSymbolTableRecord
100
AcDbLayerTableRecord
  2
17
 70
     0
 62
     2
  6
DASHDOT
370
    -3
390
F
347
628F
348
0
  0
LAYER
  5
6AEB
102
{ACAD_XDICTIONARY
360
6AEC
102
}
330
2
100
AcDbSymbolTableRecord
100
AcDbLayerTableRecord
  2
SLD-0
 70
     0
 62
     7
  6
SLD-実線
370
    -3
390
F
347
628F
348
0
  0
LAYER
  5
10676
102
{ACAD_XDICTIONARY
360
10677
102
}
330
2
100
AcDbSymbolTableRecord
100
AcDbLayerTableRecord
  2
240
 70
     0
 62
     7
  6
CONTINUOUS
370
    -3
390
F
347
628F
348
0
  0
LAYER
  5
10AE0
102
{ACAD_XDICTIONARY
360
10AE1
102
}
330
2
100
AcDbSymbolTableRecord
100
AcDbLayerTableRecord
  2
5
 70
     0
 62
     7
  6
CONTINUOUS
370
    -3
390
F
347
628F
348
0
  0
LAYER
  5
10F7D
330
2
100
AcDbSymbolTableRecord
100
AcDbLayerTableRecord
  2
19
 70
     0
 62
     7
  6
CONTINOUS
370
    -3
390
F
347
628F
348
0
1001
AcAecLayerStandard
1000

1000

1001
AcCmTransparency
1071
        0
  0
ENDTAB
  0
TABLE
  2
STYLE
  5
3
330
0
100
AcDbSymbolTable
 70
     5
  0
STYLE
  5
11
330
3
100
AcDbSymbolTableRecord
100
AcDbTextStyleTableRecord
  2
STANDARD
 70
     0
 40
0.0
 41
1.0
 50
0.0
 71
     0
 42
2.0
  3
txt.shx
  4
bigfont.shx
  0
STYLE
  5
42
330
3
100
AcDbSymbolTableRecord
100
AcDbTextStyleTableRecord
  2
STANDARD1
 70
     0
 40
0.0
 41
1.0
 50
0.0
 71
     0
 42
5.0
  3
MONOTXT
  4
BIGFONT
  0
STYLE
  5
10678
330
3
100
AcDbSymbolTableRecord
100
AcDbTextStyleTableRecord
  2
SLDTEXTSTYLE0
 70
     0
 40
0.0
 41
1.0
 50
0.0
 71
     0
 42
3.0
  3
MS UI Gothic.ttf
  4

1001
ACAD
1000
MS UI Gothic
1071
      306
  0
STYLE
  5
10AE2
330
3
100
AcDbSymbolTableRecord
100
AcDbTextStyleTableRecord
  2
blockfont
 70
     0
 40
0.0
 41
1.0
 50
0.0
 71
     0
 42
0.2
  3
simplex.shx
  4
bigfont
  0
STYLE
  5
10F96
330
3
100
AcDbSymbolTableRecord
100
AcDbTextStyleTableRecord
  2

 70
     1
 40
0.0
 41
1.0
 50
0.0
 71
     0
 42
5.0
  3
ltypeshp.shx
  4

  0
ENDTAB
  0
TABLE
  2
VIEW
  5
6
330
0
100
AcDbSymbolTable
 70
     3
  0
VIEW
  5
230C
330
6
100
AcDbSymbolTableRecord
100
AcDbViewTableRecord
  2
OLE1
 70
     0
 40
148.912488
 10
429.497628
 20
2.560627
 41
103.145806
 11
0.0
 21
0.0
 31
1.0
 12
0.0
 22
0.0
 32
0.0
 42
50.0
 43
0.0
 44
0.0
 50
0.0
 71
     0
281
     0
 72
     0
 73
     0
348
629D
  0
VIEW
  5
230E
330
6
100
AcDbSymbolTableRecord
100
AcDbViewTableRecord
  2
OLE2
 70
     0
 40
170.778692
 10
322.66497
 20
-5.978304
 41
102.467215
 11
0.0
 21
0.0
 31
1.0
 12
0.0
 22
0.0
 32
0.0
 42
50.0
 43
0.0
 44
0.0
 50
0.0
 71
     0
281
     0
 72
     0
 73
     0
348
629D
  0
VIEW
  5
23AA
330
6
100
AcDbSymbolTableRecord
100
AcDbViewTableRecord
  2
OLE3
 70
     0
 40
591.7897389999998
 10
84.79698199999999
 20
-46.09335999999998
 41
388.792096
 11
0.0
 21
0.0
 31
1.0
 12
0.0
 22
0.0
 32
0.0
 42
50.0
 43
0.0
 44
0.0
 50
0.0
 71
     0
281
     0
 72
     0
 73
     0
348
629D
  0
ENDTAB
  0
TABLE
  2
UCS
  5
7
330
0
100
AcDbSymbolTable
 70
     0
  0
ENDTAB
  0
TABLE
  2
APPID
  5
9
330
0
100
AcDbSymbolTable
 70
    10
  0
APPID
  5
12
330
9
100
AcDbSymbolTableRecord
100
AcDbRegAppTableRecord
  2
ACAD
 70
     0
  0
APPID
  5
ECD
330
9
100
AcDbSymbolTableRecord
100
AcDbRegAppTableRecord
  2
CONTENTBLOCKICON
 70
     0
  0
APPID
  5
630E
330
9
100
AcDbSymbolTableRecord
100
AcDbRegAppTableRecord
  2
ACAD_EXEMPT_FROM_CAD_STANDARDS
 70
     0
  0
APPID
  5
6329
330
9
100
AcDbSymbolTableRecord
100
AcDbRegAppTableRecord
  2
ACAD_NAV_VCDISPLAY
 70
     0
  0
APPID
  5
64DC
330
9
100
AcDbSymbolTableRecord
100
AcDbRegAppTableRecord
  2
ACAD_MLEADERVER
 70
     0
  0
APPID
  5
10679
330
9
100
AcDbSymbolTableRecord
100
AcDbRegAppTableRecord
  2
ACAD_DSTYLE_DIMJAG
 70
     0
  0
APPID
  5
1067A
330
9
100
AcDbSymbolTableRecord
100
AcDbRegAppTableRecord
  2
ACAD_DSTYLE_DIMTALN
 70
     0
  0
APPID
  5
10AE4
330
9
100
AcDbSymbolTableRecord
100
AcDbRegAppTableRecord
  2
ACAD_PSEXT
 70
     0
  0
APPID
  5
10F7E
330
9
100
AcDbSymbolTableRecord
100
AcDbRegAppTableRecord
  2
AcAecLayerStandard
 70
     0
  0
APPID
  5
10F7F
330
9
100
AcDbSymbolTableRecord
100
AcDbRegAppTableRecord
  2
AcCmTransparency
 70
     0
  0
ENDTAB
  0
TABLE
  2
DIMSTYLE
  5
A
330
0
100
AcDbSymbolTable
 70
     3
100
AcDbDimStyleTable
 71
     3
340
175
340
10AE3
340
1062B
  0
DIMSTYLE
105
175
102
{ACAD_REACTORS
330
54D8
330
5844
330
5847
330
5E68
330
5EB9
330
5EC6
330
6175
330
6186
330
616E
330
FFD5
330
1013C
330
10322
330
10323
330
10324
330
10325
330
10327
330
10328
330
10329
330
10339
330
104B4
330
104B6
330
104B7
330
105B1
330
105BE
330
10D13
330
10054
330
1033A
102
}
330
A
100
AcDbSymbolTableRecord
100
AcDbDimStyleTableRecord
  2
STANDARD
 70
     0
 41
2.0
 42
1.0
 43
0.5
 44
0.5
 73
     0
 77
     3
 78
    12
140
6.0
147
2.0
271
     1
272
     1
340
11
341
3B2
342
3B2
1001
ACAD_DSTYLE_DIMJAG
1070
   388
1040
1.5
1001
ACAD_DSTYLE_DIMTALN
1070
   392
1070
     0
  0
DIMSTYLE
105
1062B
330
A
100
AcDbSymbolTableRecord
100
AcDbDimStyleTableRecord
  2
ISO-25
 70
     0
 41
2.5
 42
0.625
 43
3.75
 44
1.25
 73
     0
 74
     0
 77
     1
 78
     8
140
6.0
141
2.5
143
0.0393700787
147
0.625
171
     3
172
     1
271
     2
272
     2
274
     3
278
    44
283
     0
284
     8
340
11
1001
ACAD_DSTYLE_DIMJAG
1070
   388
1040
1.5
1001
ACAD_DSTYLE_DIMTALN
1070
   392
1070
     0
  0
DIMSTYLE
105
10AE3
102
{ACAD_REACTORS
330
1034F
330
FFD4
102
}
330
A
100
AcDbSymbolTableRecord
100
AcDbDimStyleTableRecord
  2
STANDARD1
 70
     0
 41
2.0
 42
3.0
 43
0.5
 44
0.5
 73
     0
 74
     0
 77
     3
 78
    12
140
6.0
147
2.0
172
     1
271
     8
272
     8
289
     2
340
11
341
3B2
342
3B2
  0
ENDTAB
  0
TABLE
  2
BLOCK_RECORD
  5
1
330
0
100
AcDbSymbolTable
 70
    31
  0
BLOCK_RECORD
  5
1E
102
{ACAD_XDICTIONARY
360
178
102
}
330
1
100
AcDbSymbolTableRecord
100
AcDbBlockTableRecord
  2
*MODEL_SPACE
340
6262
 70
     0
280
     1
281
     0
  0
BLOCK_RECORD
  5
1A
102
{ACAD_XDICTIONARY
360
17A
102
}
330
1
100
AcDbSymbolTableRecord
100
AcDbBlockTableRecord
  2
*PAPER_SPACE
340
6263
 70
     0
280
     1
281
     0
  0
BLOCK_RECORD
  5
3B2
330
1
100
AcDbSymbolTableRecord
100
AcDbBlockTableRecord
  2
_OPEN
340
0
102
{BLKREFS
331
10E01
331
10E09
331
10E0A
331
10E1D
331
10E1E
331
10E26
331
10E27
331
10E39
331
10E3A
331
10E43
331
10E44
331
10E4C
331
10E4D
331
10E55
331
10E56
331
10E5E
331
10E5F
331
10E67
331
10E68
331
10E70
331
10E71
331
10E7A
331
10E7B
331
10E83
331
10E84
331
10E8C
331
10E8D
331
10E95
331
10E9E
331
10E9F
331
10EA8
331
10EA9
331
10F2C
331
10F2D
331
10F3D
331
10F3E
331
10F18
331
10F17
331
10D71
331
10D72
331
10D85
331
10D86
331
10DC3
331
10DCB
331
10DCC
331
10DD4
331
10DD5
331
10DDD
331
10DDE
331
10DF8
331
10DF9
102
}
 70
     0
280
     1
281
     0
  0
BLOCK_RECORD
  5
54D9
330
1
100
AcDbSymbolTableRecord
100
AcDbBlockTableRecord
  2
*D1
340
0
 70
     0
280
     1
281
     0
  0
BLOCK_RECORD
  5
5879
330
1
100
AcDbSymbolTableRecord
100
AcDbBlockTableRecord
  2
*D2
340
0
 70
     0
280
     1
281
     0
  0
BLOCK_RECORD
  5
5885
330
1
100
AcDbSymbolTableRecord
100
AcDbBlockTableRecord
  2
*D3
340
0
 70
     0
280
     1
281
     0
  0
BLOCK_RECORD
  5
5E69
330
1
100
AcDbSymbolTableRecord
100
AcDbBlockTableRecord
  2
*D4
340
0
 70
     0
280
     1
281
     0
  0
BLOCK_RECORD
  5
5EBA
330
1
100
AcDbSymbolTableRecord
100
AcDbBlockTableRecord
  2
*D5
340
0
 70
     0
280
     1
281
     0
  0
BLOCK_RECORD
  5
5EC7
330
1
100
AcDbSymbolTableRecord
100
AcDbBlockTableRecord
  2
*D6
340
0
 70
     0
280
     1
281
     0
  0
BLOCK_RECORD
  5
6194
330
1
100
AcDbSymbolTableRecord
100
AcDbBlockTableRecord
  2
*D7
340
0
 70
     0
280
     1
281
     0
  0
BLOCK_RECORD
  5
61A0
330
1
100
AcDbSymbolTableRecord
100
AcDbBlockTableRecord
  2
*D8
340
0
 70
     0
280
     1
281
     0
  0
BLOCK_RECORD
  5
61AB
330
1
100
AcDbSymbolTableRecord
100
AcDbBlockTableRecord
  2
*D9
340
0
 70
     0
280
     1
281
     0
  0
BLOCK_RECORD
  5
6ADB
330
1
100
AcDbSymbolTableRecord
100
AcDbBlockTableRecord
  2
SW_CENTERMARKSYMBOL_24
340
0
102
{BLKREFS
331
FFD6
102
}
 70
     0
280
     1
281
     0
  0
BLOCK_RECORD
  5
FFDF
330
1
100
AcDbSymbolTableRecord
100
AcDbBlockTableRecord
  2
*D11
340
0
 70
     0
280
     1
281
     0
  0
BLOCK_RECORD
  5
FFED
330
1
100
AcDbSymbolTableRecord
100
AcDbBlockTableRecord
  2
*D12
340
0
 70
     0
280
     1
281
     0
  0
BLOCK_RECORD
  5
1013D
330
1
100
AcDbSymbolTableRecord
100
AcDbBlockTableRecord
  2
*D13
340
0
 70
     0
280
     1
281
     0
  0
BLOCK_RECORD
  5
10350
330
1
100
AcDbSymbolTableRecord
100
AcDbBlockTableRecord
  2
*D14
340
0
 70
     0
280
     1
281
     0
  0
BLOCK_RECORD
  5
1035C
330
1
100
AcDbSymbolTableRecord
100
AcDbBlockTableRecord
  2
*D15
340
0
 70
     0
280
     1
281
     0
  0
BLOCK_RECORD
  5
10369
330
1
100
AcDbSymbolTableRecord
100
AcDbBlockTableRecord
  2
*D16
340
0
 70
     0
280
     1
281
     0
  0
BLOCK_RECORD
  5
10375
330
1
100
AcDbSymbolTableRecord
100
AcDbBlockTableRecord
  2
*D17
340
0
 70
     0
280
     1
281
     0
  0
BLOCK_RECORD
  5
10381
330
1
100
AcDbSymbolTableRecord
100
AcDbBlockTableRecord
  2
*D18
340
0
 70
     0
280
     1
281
     0
  0
BLOCK_RECORD
  5
1038D
330
1
100
AcDbSymbolTableRecord
100
AcDbBlockTableRecord
  2
*D19
340
0
 70
     0
280
     1
281
     0
  0
BLOCK_RECORD
  5
10399
330
1
100
AcDbSymbolTableRecord
100
AcDbBlockTableRecord
  2
*D20
340
0
 70
     0
280
     1
281
     0
  0
BLOCK_RECORD
  5
103A5
330
1
100
AcDbSymbolTableRecord
100
AcDbBlockTableRecord
  2
*D21
340
0
 70
     0
280
     1
281
     0
  0
BLOCK_RECORD
  5
103B1
330
1
100
AcDbSymbolTableRecord
100
AcDbBlockTableRecord
  2
*D22
340
0
 70
     0
280
     1
281
     0
  0
BLOCK_RECORD
  5
104C2
330
1
100
AcDbSymbolTableRecord
100
AcDbBlockTableRecord
  2
*D23
340
0
 70
     0
280
     1
281
     0
  0
BLOCK_RECORD
  5
104CE
330
1
100
AcDbSymbolTableRecord
100
AcDbBlockTableRecord
  2
*D24
340
0
 70
     0
280
     1
281
     0
  0
BLOCK_RECORD
  5
104DA
330
1
100
AcDbSymbolTableRecord
100
AcDbBlockTableRecord
  2
*D25
340
0
 70
     0
280
     1
281
     0
  0
BLOCK_RECORD
  5
105B2
330
1
100
AcDbSymbolTableRecord
100
AcDbBlockTableRecord
  2
*D26
340
0
 70
     0
280
     1
281
     0
  0
BLOCK_RECORD
  5
105BF
330
1
100
AcDbSymbolTableRecord
100
AcDbBlockTableRecord
  2
*D27
340
0
 70
     0
280
     1
281
     0
  0
BLOCK_RECORD
  5
1062C
330
1
100
AcDbSymbolTableRecord
100
AcDbBlockTableRecord
  2
A$C75756DBA
340
0
 70
     4
280
     1
281
     0
  0
BLOCK_RECORD
  5
10AE5
102
{ACAD_XDICTIONARY
360
10AE8
102
}
330
1
100
AcDbSymbolTableRecord
100
AcDbBlockTableRecord
  2
A$C46AC479A
340
0
 70
     0
280
     1
281
     0
  0
BLOCK_RECORD
  5
10D14
330
1
100
AcDbSymbolTableRecord
100
AcDbBlockTableRecord
  2
*D30
340
0
 70
     0
280
     1
281
     0
  0
ENDTAB
  0
ENDSEC
  0
SECTION
  2
BLOCKS
  0
BLOCK
  5
1F
330
1E
100
AcDbEntity
  8
0
100
AcDbBlockBegin
  2
*MODEL_SPACE
 70
     0
 10
0.0
 20
0.0
 30
0.0
  3
*MODEL_SPACE
  1

  0
ENDBLK
  5
20
330
1E
100
AcDbEntity
  8
0
100
AcDbBlockEnd
  0
BLOCK
  5
1B
330
1A
100
AcDbEntity
 67
     1
  8
0
100
AcDbBlockBegin
  2
*PAPER_SPACE
 70
     0
 10
0.0
 20
0.0
 30
0.0
  3
*PAPER_SPACE
  1

  0
ENDBLK
  5
1C
330
1A
100
AcDbEntity
 67
     1
  8
0
100
AcDbBlockEnd
  0
BLOCK
  5
3B6
330
3B2
100
AcDbEntity
  8
0
100
AcDbBlockBegin
  2
_OPEN
 70
     0
 10
0.0
 20
0.0
 30
0.0
  3
_OPEN
  1

  0
LINE
  5
3B3
330
3B2
100
AcDbEntity
  8
30
  6
Continuous
 62
     0
100
AcDbLine
 10
-1.0
 20
0.166667
 30
0.0
 11
0.0
 21
0.0
 31
0.0
  0
LINE
  5
3B4
330
3B2
100
AcDbEntity
  8
30
  6
Continuous
 62
     0
100
AcDbLine
 10
-1.0
 20
-0.166667
 30
0.0
 11
0.0
 21
0.0
 31
0.0
  0
LINE
  5
3B5
330
3B2
100
AcDbEntity
  8
30
  6
Continuous
 62
     0
100
AcDbLine
 10
0.0
 20
0.0
 30
0.0
 11
-1.0
 21
0.0
 31
0.0
  0
ENDBLK
  5
3B7
330
3B2
100
AcDbEntity
  8
0
100
AcDbBlockEnd
  0
BLOCK
  5
54E2
330
54D9
100
AcDbEntity
  8
0
100
AcDbBlockBegin
  2
*D1
 70
     1
 10
0.0
 20
0.0
 30
0.0
  3
*D1
  1

  0
LINE
  5
10DC0
330
54D9
100
AcDbEntity
  8
30
  6
Continuous
 62
     0
440
 16777216
370
    -2
100
AcDbLine
 10
176.3840287753378
 20
197.9182834241715
 30
0.0
 11
144.1840287753378
 21
197.9182834241715
 31
0.0
  0
LINE
  5
10DC1
330
54D9
100
AcDbEntity
  8
30
  6
Continuous
 62
     0
440
 16777216
370
    -2
100
AcDbLine
 10
144.1840287753378
 20
197.9182834241715
 30
0.0
 11
132.1785969924696
 21
186.1777677475522
 31
0.0
  0
MTEXT
  5
10DC2
330
54D9
100
AcDbEntity
  8
30
  6
Continuous
 62
     0
440
 16777216
100
AcDbMText
 10
161.2840287753378
 20
202.9182834241715
 30
0.0
 40
6.0
 41
0.0
 46
0.0
 71
     5
 72
     1
  1
\A1;M4×0.7
 73
     1
 44
1.0
  0
INSERT
  5
10DC3
330
54D9
100
AcDbEntity
  8
30
  6
Continuous
 62
     0
440
 16777216
370
    -2
100
AcDbBlockReference
  2
_OPEN
 10
130.7486950690674
 20
184.779418546011
 30
0.0
 41
2.0
 42
2.0
 43
2.0
 50
224.3608195602193
  0
LINE
  5
10DC4
330
54D9
100
AcDbEntity
  8
30
  6
Continuous
 62
     0
440
 16777216
370
    -2
100
AcDbLine
 10
128.5138419940825
 20
182.6818945580076
 30
0.0
 11
128.6938419940825
 21
182.6818945580076
 31
0.0
  0
LINE
  5
10DC5
330
54D9
100
AcDbEntity
  8
30
  6
Continuous
 62
     0
440
 16777216
370
    -2
100
AcDbLine
 10
128.6038419940825
 20
182.5918945580076
 30
0.0
 11
128.6038419940825
 21
182.7718945580075
 31
0.0
  0
POINT
  5
10DC6
330
54D9
100
AcDbEntity
  8
DEFPOINTS
  6
Continuous
 62
     0
440
 16777216
100
AcDbPoint
 10
130.7486950690674
 20
184.779418546011
 30
0.0
  0
POINT
  5
10DC7
330
54D9
100
AcDbEntity
  8
DEFPOINTS
  6
Continuous
 62
     0
440
 16777216
100
AcDbPoint
 10
126.4589889190976
 20
180.5843705700042
 30
0.0
  0
ENDBLK
  5
54E3
330
54D9
100
AcDbEntity
  8
0
100
AcDbBlockEnd
  0
BLOCK
  5
5883
330
5879
100
AcDbEntity
  8
0
100
AcDbBlockBegin
  2
*D2
 70
     1
 10
0.0
 20
0.0
 30
0.0
  3
*D2
  1

  0
LINE
  5
10DC8
330
5879
100
AcDbEntity
  8
30
  6
Continuous
 62
     0
440
 16777216
370
    -2
100
AcDbLine
 10
99.31857381891695
 20
305.201071418
 30
0.0
 11
99.31857381891695
 21
269.9461849705708
 31
0.0
  0
LINE
  5
10DC9
330
5879
100
AcDbEntity
  8
30
  6
Continuous
 62
     0
440
 16777216
370
    -2
100
AcDbLine
 10
159.318573818917
 20
305.201071418
 30
0.0
 11
159.318573818917
 21
269.9461849705708
 31
0.0
  0
LINE
  5
10DCA
330
5879
100
AcDbEntity
  8
30
  6
Continuous
 62
     0
440
 16777216
370
    -2
100
AcDbLine
 10
101.318573818917
 20
270.4461849705708
 30
0.0
 11
157.318573818917
 21
270.4461849705708
 31
0.0
  0
INSERT
  5
10DCB
330
5879
100
AcDbEntity
  8
30
  6
Continuous
 62
     0
440
 16777216
370
    -2
100
AcDbBlockReference
  2
_OPEN
 10
99.31857381891695
 20
270.4461849705708
 30
0.0
 41
2.0
 42
2.0
 43
2.0
 50
180.0
  0
INSERT
  5
10DCC
330
5879
100
AcDbEntity
  8
30
  6
Continuous
 62
     0
440
 16777216
370
    -2
100
AcDbBlockReference
  2
_OPEN
 10
159.318573818917
 20
270.4461849705708
 30
0.0
 41
2.0
 42
2.0
 43
2.0
  0
MTEXT
  5
10DCD
330
5879
100
AcDbEntity
  8
30
  6
Continuous
 62
     0
440
 16777216
100
AcDbMText
 10
129.318573818917
 20
275.4461849705708
 30
0.0
 40
6.0
 41
0.0
 46
0.0
 71
     5
 72
     1
  1
\A1;60
 73
     1
 44
1.0
  0
POINT
  5
10DCE
330
5879
100
AcDbEntity
  8
DEFPOINTS
  6
Continuous
 62
     0
440
 16777216
100
AcDbPoint
 10
99.31857381891695
 20
306.201071418
 30
0.0
  0
POINT
  5
10DCF
330
5879
100
AcDbEntity
  8
DEFPOINTS
  6
Continuous
 62
     0
440
 16777216
100
AcDbPoint
 10
159.318573818917
 20
306.201071418
 30
0.0
  0
POINT
  5
10DD0
330
5879
100
AcDbEntity
  8
DEFPOINTS
  6
Continuous
 62
     0
440
 16777216
100
AcDbPoint
 10
159.318573818917
 20
270.4461849705708
 30
0.0
  0
ENDBLK
  5
5884
330
5879
100
AcDbEntity
  8
0
100
AcDbBlockEnd
  0
BLOCK
  5
588F
330
5885
100
AcDbEntity
  8
0
100
AcDbBlockBegin
  2
*D3
 70
     1
 10
0.0
 20
0.0
 30
0.0
  3
*D3
  1

  0
LINE
  5
10DD1
330
5885
100
AcDbEntity
  8
30
  6
Continuous
 62
     0
440
 16777216
370
    -2
100
AcDbLine
 10
114.3185738189169
 20
313.2010714015
 30
0.0
 11
114.3185738189169
 21
281.0738651181837
 31
0.0
  0
LINE
  5
10DD2
330
5885
100
AcDbEntity
  8
30
  6
Continuous
 62
     0
440
 16777216
370
    -2
100
AcDbLine
 10
144.3185738189169
 20
313.2010714015
 30
0.0
 11
144.3185738189169
 21
281.0738651181837
 31
0.0
  0
LINE
  5
10DD3
330
5885
100
AcDbEntity
  8
30
  6
Continuous
 62
     0
440
 16777216
370
    -2
100
AcDbLine
 10
116.3185738189169
 20
281.5738651181837
 30
0.0
 11
142.3185738189169
 21
281.5738651181837
 31
0.0
  0
INSERT
  5
10DD4
330
5885
100
AcDbEntity
  8
30
  6
Continuous
 62
     0
440
 16777216
370
    -2
100
AcDbBlockReference
  2
_OPEN
 10
114.3185738189169
 20
281.5738651181837
 30
0.0
 41
2.0
 42
2.0
 43
2.0
 50
180.0
  0
INSERT
  5
10DD5
330
5885
100
AcDbEntity
  8
30
  6
Continuous
 62
     0
440
 16777216
370
    -2
100
AcDbBlockReference
  2
_OPEN
 10
144.3185738189169
 20
281.5738651181837
 30
0.0
 41
2.0
 42
2.0
 43
2.0
  0
MTEXT
  5
10DD6
330
5885
100
AcDbEntity
  8
30
  6
Continuous
 62
     0
440
 16777216
100
AcDbMText
 10
129.318573818917
 20
286.5738651181837
 30
0.0
 40
6.0
 41
0.0
 46
0.0
 71
     5
 72
     1
  1
\A1;30
 73
     1
 44
1.0
  0
POINT
  5
10DD7
330
5885
100
AcDbEntity
  8
DEFPOINTS
  6
Continuous
 62
     0
440
 16777216
100
AcDbPoint
 10
114.3185738189169
 20
314.2010714015
 30
0.0
  0
POINT
  5
10DD8
330
5885
100
AcDbEntity
  8
DEFPOINTS
  6
Continuous
 62
     0
440
 16777216
100
AcDbPoint
 10
144.3185738189169
 20
314.2010714015
 30
0.0
  0
POINT
  5
10DD9
330
5885
100
AcDbEntity
  8
DEFPOINTS
  6
Continuous
 62
     0
440
 16777216
100
AcDbPoint
 10
144.3185738189169
 20
281.5738651181837
 30
0.0
  0
ENDBLK
  5
5890
330
5885
100
AcDbEntity
  8
0
100
AcDbBlockEnd
  0
BLOCK
  5
5E73
330
5E69
100
AcDbEntity
  8
0
100
AcDbBlockBegin
  2
*D4
 70
     1
 10
0.0
 20
0.0
 30
0.0
  3
*D4
  1

  0
LINE
  5
10DDA
330
5E69
100
AcDbEntity
  8
30
  6
Continuous
 62
     0
440
 16777216
370
    -2
100
AcDbLine
 10
114.318573818917
 20
622.4088240294937
 30
0.0
 11
114.318573818917
 21
655.7975459602214
 31
0.0
  0
LINE
  5
10DDB
330
5E69
100
AcDbEntity
  8
30
  6
Continuous
 62
     0
440
 16777216
370
    -2
100
AcDbLine
 10
144.3185738189169
 20
622.4088240294937
 30
0.0
 11
144.3185738189169
 21
655.7975459602214
 31
0.0
  0
LINE
  5
10DDC
330
5E69
100
AcDbEntity
  8
30
  6
Continuous
 62
     0
440
 16777216
370
    -2
100
AcDbLine
 10
116.318573818917
 20
655.2975459602214
 30
0.0
 11
142.3185738189169
 21
655.2975459602214
 31
0.0
  0
INSERT
  5
10DDD
330
5E69
100
AcDbEntity
  8
30
  6
Continuous
 62
     0
440
 16777216
370
    -2
100
AcDbBlockReference
  2
_OPEN
 10
114.318573818917
 20
655.2975459602214
 30
0.0
 41
2.0
 42
2.0
 43
2.0
 50
180.0
  0
INSERT
  5
10DDE
330
5E69
100
AcDbEntity
  8
30
  6
Continuous
 62
     0
440
 16777216
370
    -2
100
AcDbBlockReference
  2
_OPEN
 10
144.3185738189169
 20
655.2975459602214
 30
0.0
 41
2.0
 42
2.0
 43
2.0
  0
MTEXT
  5
10DDF
330
5E69
100
AcDbEntity
  8
30
  6
Continuous
 62
     0
440
 16777216
100
AcDbMText
 10
129.318573818917
 20
660.2975459602214
 30
0.0
 40
6.0
 41
0.0
 46
0.0
 71
     5
 72
     1
  1
\A1;30
 73
     1
 44
1.0
  0
POINT
  5
10DE0
330
5E69
100
AcDbEntity
  8
DEFPOINTS
  6
Continuous
 62
     0
440
 16777216
100
AcDbPoint
 10
114.318573818917
 20
621.4088240294938
 30
0.0
  0
POINT
  5
10DE1
330
5E69
100
AcDbEntity
  8
DEFPOINTS
  6
Continuous
 62
     0
440
 16777216
100
AcDbPoint
 10
144.3185738189169
 20
621.4088240294938
 30
0.0
  0
POINT
  5
10DE2
330
5E69
100
AcDbEntity
  8
DEFPOINTS
  6
Continuous
 62
     0
440
 16777216
100
AcDbPoint
 10
144.3185738189169
 20
655.2975459602214
 30
0.0
  0
ENDBLK
  5
5E74
330
5E69
100
AcDbEntity
  8
0
100
AcDbBlockEnd
  0
BLOCK
  5
5EC4
330
5EBA
100
AcDbEntity
  8
0
100
AcDbBlockBegin
  2
*D5
 70
     1
 10
0.0
 20
0.0
 30
0.0
  3
*D5
  1

  0
LINE
  5
10F3A
330
5EBA
100
AcDbEntity
  8
30
  6
Continuous
 62
     0
440
 16777216
370
    -2
100
AcDbLine
 10
131.8185738189169
 20
486.2499999999993
 30
0.0
 11
209.0339272522488
 21
486.2499999999993
 31
0.0
  0
LINE
  5
10F3B
330
5EBA
100
AcDbEntity
  8
30
  6
Continuous
 62
     0
440
 16777216
370
    -2
100
AcDbLine
 10
160.318573818917
 20
436.2000012167498
 30
0.0
 11
209.0339272522488
 21
436.2000012167498
 31
0.0
  0
LINE
  5
10F3C
330
5EBA
100
AcDbEntity
  8
30
  6
Continuous
 62
     0
440
 16777216
370
    -2
100
AcDbLine
 10
208.5339272522488
 20
484.2499999999994
 30
0.0
 11
208.5339272522488
 21
438.2000012167497
 31
0.0
  0
INSERT
  5
10F3D
330
5EBA
100
AcDbEntity
  8
30
  6
Continuous
 62
     0
440
 16777216
370
    -2
100
AcDbBlockReference
  2
_OPEN
 10
208.5339272522488
 20
486.2499999999993
 30
0.0
 41
2.0
 42
2.0
 43
2.0
 50
90.0
  0
INSERT
  5
10F3E
330
5EBA
100
AcDbEntity
  8
30
  6
Continuous
 62
     0
440
 16777216
370
    -2
100
AcDbBlockReference
  2
_OPEN
 10
208.5339272522488
 20
436.2000012167498
 30
0.0
 41
2.0
 42
2.0
 43
2.0
 50
270.0
  0
MTEXT
  5
10F3F
330
5EBA
100
AcDbEntity
  8
30
  6
Continuous
 62
     0
440
 16777216
100
AcDbMText
 10
203.5339272522487
 20
463.3495721543936
 30
0.0
 40
6.0
 41
0.0
 46
0.0
 71
     5
 72
     1
  1
\A1;50
 11
0.0000000000000001
 21
1.0
 31
0.0
 73
     1
 44
1.0
  0
POINT
  5
10F40
330
5EBA
100
AcDbEntity
  8
DEFPOINTS
  6
Continuous
 62
     0
440
 16777216
100
AcDbPoint
 10
130.8185738189169
 20
486.2499999999993
 30
0.0
  0
POINT
  5
10F41
330
5EBA
100
AcDbEntity
  8
DEFPOINTS
  6
Continuous
 62
     0
440
 16777216
100
AcDbPoint
 10
159.318573818917
 20
436.2000012167498
 30
0.0
  0
POINT
  5
10F42
330
5EBA
100
AcDbEntity
  8
DEFPOINTS
  6
Continuous
 62
     0
440
 16777216
100
AcDbPoint
 10
208.5339272522488
 20
436.2000012167498
 30
0.0
  0
ENDBLK
  5
5EC5
330
5EBA
100
AcDbEntity
  8
0
100
AcDbBlockEnd
  0
BLOCK
  5
5ED1
330
5EC7
100
AcDbEntity
  8
0
100
AcDbBlockBegin
  2
*D6
 70
     1
 10
0.0
 20
0.0
 30
0.0
  3
*D6
  1

  0
LINE
  5
10F28
330
5EC7
100
AcDbEntity
  8
30
  6
Continuous
 62
     0
440
 16777216
370
    -2
100
AcDbLine
 10
160.318573818917
 20
436.2000012167498
 30
0.0
 11
209.0339272522488
 21
436.2000012167498
 31
0.0
  0
LINE
  5
10F29
330
5EC7
100
AcDbEntity
  8
30
  6
Continuous
 62
     0
440
 16777216
370
    -2
100
AcDbLine
 10
160.318573818917
 20
306.201071418
 30
0.0
 11
209.0339272522487
 21
306.201071418
 31
0.0
  0
LINE
  5
10F2A
330
5EC7
100
AcDbEntity
  8
30
  6
Continuous
 62
     0
440
 16777216
370
    -2
100
AcDbLine
 10
208.5339272522488
 20
434.2000012167497
 30
0.0
 11
208.5339272522487
 21
308.201071418
 31
0.0
  0
MTEXT
  5
10F2B
330
5EC7
100
AcDbEntity
  8
30
  6
Continuous
 62
     0
440
 16777216
100
AcDbMText
 10
203.5339272522488
 20
371.2005363173749
 30
0.0
 40
6.0
 41
0.0
 46
0.0
 71
     5
 72
     1
  1
\A1;130
 11
0.0000000000000001
 21
1.0
 31
0.0
 73
     1
 44
1.0
  0
INSERT
  5
10F2C
330
5EC7
100
AcDbEntity
  8
30
  6
Continuous
 62
     0
440
 16777216
370
    -2
100
AcDbBlockReference
  2
_OPEN
 10
208.5339272522488
 20
436.2000012167498
 30
0.0
 41
2.0
 42
2.0
 43
2.0
 50
90.0
  0
INSERT
  5
10F2D
330
5EC7
100
AcDbEntity
  8
30
  6
Continuous
 62
     0
440
 16777216
370
    -2
100
AcDbBlockReference
  2
_OPEN
 10
208.5339272522487
 20
306.201071418
 30
0.0
 41
2.0
 42
2.0
 43
2.0
 50
270.0
  0
POINT
  5
10F2E
330
5EC7
100
AcDbEntity
  8
DEFPOINTS
  6
Continuous
 62
     0
440
 16777216
100
AcDbPoint
 10
159.318573818917
 20
436.2000012167498
 30
0.0
  0
POINT
  5
10F2F
330
5EC7
100
AcDbEntity
  8
DEFPOINTS
  6
Continuous
 62
     0
440
 16777216
100
AcDbPoint
 10
159.318573818917
 20
306.201071418
 30
0.0
  0
POINT
  5
10F30
330
5EC7
100
AcDbEntity
  8
DEFPOINTS
  6
Continuous
 62
     0
440
 16777216
100
AcDbPoint
 10
208.5339272522487
 20
306.201071418
 30
0.0
  0
ENDBLK
  5
5ED2
330
5EC7
100
AcDbEntity
  8
0
100
AcDbBlockEnd
  0
BLOCK
  5
619E
330
6194
100
AcDbEntity
  8
0
100
AcDbBlockBegin
  2
*D7
 70
     1
 10
0.0
 20
0.0
 30
0.0
  3
*D7
  1

  0
LINE
  5
10DF5
330
6194
100
AcDbEntity
  8
30
  6
Continuous
 62
     0
440
 16777216
370
    -2
100
AcDbLine
 10
279.5996305838631
 20
102.266267453822
 30
0.0
 11
279.5996305838631
 21
45.57554712722645
 31
0.0
  0
LINE
  5
10DF6
330
6194
100
AcDbEntity
  8
30
  6
Continuous
 62
     0
440
 16777216
370
    -2
100
AcDbLine
 10
336.5996305838633
 20
102.266267453822
 30
0.0
 11
336.5996305838633
 21
45.57554712722645
 31
0.0
  0
LINE
  5
10DF7
330
6194
100
AcDbEntity
  8
30
  6
Continuous
 62
     0
440
 16777216
370
    -2
100
AcDbLine
 10
281.5996305838631
 20
46.07554712722645
 30
0.0
 11
334.5996305838633
 21
46.07554712722645
 31
0.0
  0
INSERT
  5
10DF8
330
6194
100
AcDbEntity
  8
30
  6
Continuous
 62
     0
440
 16777216
370
    -2
100
AcDbBlockReference
  2
_OPEN
 10
279.5996305838631
 20
46.07554712722645
 30
0.0
 41
2.0
 42
2.0
 43
2.0
 50
180.0
  0
INSERT
  5
10DF9
330
6194
100
AcDbEntity
  8
30
  6
Continuous
 62
     0
440
 16777216
370
    -2
100
AcDbBlockReference
  2
_OPEN
 10
336.5996305838633
 20
46.07554712722645
 30
0.0
 41
2.0
 42
2.0
 43
2.0
  0
MTEXT
  5
10DFA
330
6194
100
AcDbEntity
  8
30
  6
Continuous
 62
     0
440
 16777216
100
AcDbMText
 10
308.0996305838632
 20
51.07554712722645
 30
0.0
 40
6.0
 41
0.0
 46
0.0
 71
     5
 72
     1
  1
\A1;57
 73
     1
 44
1.0
  0
POINT
  5
10DFB
330
6194
100
AcDbEntity
  8
DEFPOINTS
  6
Continuous
 62
     0
440
 16777216
100
AcDbPoint
 10
279.5996305838631
 20
103.266267453822
 30
0.0
  0
POINT
  5
10DFC
330
6194
100
AcDbEntity
  8
DEFPOINTS
  6
Continuous
 62
     0
440
 16777216
100
AcDbPoint
 10
336.5996305838633
 20
103.266267453822
 30
0.0
  0
POINT
  5
10DFD
330
6194
100
AcDbEntity
  8
DEFPOINTS
  6
Continuous
 62
     0
440
 16777216
100
AcDbPoint
 10
336.5996305838633
 20
46.07554712722645
 30
0.0
  0
ENDBLK
  5
619F
330
6194
100
AcDbEntity
  8
0
100
AcDbBlockEnd
  0
BLOCK
  5
61A9
330
61A0
100
AcDbEntity
  8
0
100
AcDbBlockBegin
  2
*D8
 70
     1
 10
0.0
 20
0.0
 30
0.0
  3
*D8
  1

  0
LINE
  5
10DFE
330
61A0
100
AcDbEntity
  8
30
  6
Continuous
 62
     0
440
 16777216
370
    -2
100
AcDbLine
 10
350.0565601804153
 20
156.2636710759418
 30
0.0
 11
340.0565601804153
 21
156.2636710759418
 31
0.0
  0
LINE
  5
10DFF
330
61A0
100
AcDbEntity
  8
30
  6
Continuous
 62
     0
440
 16777216
370
    -2
100
AcDbLine
 10
340.0565601804153
 20
156.2636710759418
 30
0.0
 11
338.3808951229811
 21
155.1718164082804
 31
0.0
  0
MTEXT
  5
10E00
330
61A0
100
AcDbEntity
  8
30
  6
Continuous
 62
     0
440
 16777216
100
AcDbMText
 10
346.0565601804153
 20
161.2636710759418
 30
0.0
 40
6.0
 41
0.0
 46
0.0
 71
     5
 72
     1
  1
\A1;R1
 73
     1
 44
1.0
  0
INSERT
  5
10E01
330
61A0
100
AcDbEntity
  8
30
  6
Continuous
 62
     0
440
 16777216
370
    -2
100
AcDbBlockReference
  2
_OPEN
 10
336.7052300655468
 20
154.0799617406191
 30
0.0
 41
2.0
 42
2.0
 43
2.0
 50
213.0880571834383
  0
LINE
  5
10E02
330
61A0
100
AcDbEntity
  8
30
  6
Continuous
 62
     0
440
 16777216
370
    -2
100
AcDbLine
 10
335.7773975368298
 20
153.5340344067884
 30
0.0
 11
335.9573975368298
 21
153.5340344067884
 31
0.0
  0
LINE
  5
10E03
330
61A0
100
AcDbEntity
  8
30
  6
Continuous
 62
     0
440
 16777216
370
    -2
100
AcDbLine
 10
335.8673975368298
 20
153.4440344067884
 30
0.0
 11
335.8673975368298
 21
153.6240344067885
 31
0.0
  0
POINT
  5
10E04
330
61A0
100
AcDbEntity
  8
DEFPOINTS
  6
Continuous
 62
     0
440
 16777216
100
AcDbPoint
 10
336.7052300655468
 20
154.0799617406191
 30
0.0
  0
POINT
  5
10E05
330
61A0
100
AcDbEntity
  8
DEFPOINTS
  6
Continuous
 62
     0
440
 16777216
100
AcDbPoint
 10
335.8673975368298
 20
153.5340344067884
 30
0.0
  0
ENDBLK
  5
61AA
330
61A0
100
AcDbEntity
  8
0
100
AcDbBlockEnd
  0
BLOCK
  5
61B5
330
61AB
100
AcDbEntity
  8
0
100
AcDbBlockBegin
  2
*D9
 70
     1
 10
0.0
 20
0.0
 30
0.0
  3
*D9
  1

  0
LINE
  5
10E06
330
61AB
100
AcDbEntity
  8
30
  6
Continuous
 62
     0
440
 16777216
370
    -2
100
AcDbLine
 10
338.099630583863
 20
154.2662674538221
 30
0.0
 11
371.61746093808
 21
154.2662674538221
 31
0.0
  0
LINE
  5
10E07
330
61AB
100
AcDbEntity
  8
30
  6
Continuous
 62
     0
440
 16777216
370
    -2
100
AcDbLine
 10
338.099630583863
 20
102.2662674538221
 30
0.0
 11
371.61746093808
 21
102.2662674538221
 31
0.0
  0
LINE
  5
10E08
330
61AB
100
AcDbEntity
  8
30
  6
Continuous
 62
     0
440
 16777216
370
    -2
100
AcDbLine
 10
371.11746093808
 20
152.2662674538221
 30
0.0
 11
371.1174609380799
 21
104.2662674538221
 31
0.0
  0
INSERT
  5
10E09
330
61AB
100
AcDbEntity
  8
30
  6
Continuous
 62
     0
440
 16777216
370
    -2
100
AcDbBlockReference
  2
_OPEN
 10
371.11746093808
 20
154.2662674538221
 30
0.0
 41
2.0
 42
2.0
 43
2.0
 50
90.0
  0
INSERT
  5
10E0A
330
61AB
100
AcDbEntity
  8
30
  6
Continuous
 62
     0
440
 16777216
370
    -2
100
AcDbBlockReference
  2
_OPEN
 10
371.1174609380799
 20
102.2662674538221
 30
0.0
 41
2.0
 42
2.0
 43
2.0
 50
270.0
  0
MTEXT
  5
10E0B
330
61AB
100
AcDbEntity
  8
30
  6
Continuous
 62
     0
440
 16777216
100
AcDbMText
 10
366.1174609380799
 20
128.2662674538222
 30
0.0
 40
6.0
 41
0.0
 46
0.0
 71
     5
 72
     1
  1
\A1;52
 11
0.0000000000000001
 21
1.0
 31
0.0
 73
     1
 44
1.0
  0
POINT
  5
10E0C
330
61AB
100
AcDbEntity
  8
DEFPOINTS
  6
Continuous
 62
     0
440
 16777216
100
AcDbPoint
 10
337.099630583863
 20
154.2662674538221
 30
0.0
  0
POINT
  5
10E0D
330
61AB
100
AcDbEntity
  8
DEFPOINTS
  6
Continuous
 62
     0
440
 16777216
100
AcDbPoint
 10
337.099630583863
 20
102.2662674538221
 30
0.0
  0
POINT
  5
10E0E
330
61AB
100
AcDbEntity
  8
DEFPOINTS
  6
Continuous
 62
     0
440
 16777216
100
AcDbPoint
 10
371.1174609380799
 20
102.2662674538221
 30
0.0
  0
ENDBLK
  5
61B6
330
61AB
100
AcDbEntity
  8
0
100
AcDbBlockEnd
  0
BLOCK
  5
6ADC
330
6ADB
100
AcDbEntity
  8
0
100
AcDbBlockBegin
  2
SW_CENTERMARKSYMBOL_24
 70
     0
 10
0.0
 20
0.0
 30
0.0
  3
SW_CENTERMARKSYMBOL_24
  1
SW_CENTERMARKSYMBOL_24
  0
LINE
  5
6ADD
330
6ADB
100
AcDbEntity
  8
SLD-0
 62
     0
100
AcDbLine
 10
0.0
 20
0.0
 30
0.0
 11
0.0
 21
1.0
 31
0.0
  0
LINE
  5
6ADE
330
6ADB
100
AcDbEntity
  8
SLD-0
 62
     0
100
AcDbLine
 10
0.0
 20
0.0
 30
0.0
 11
-1.0
 21
0.0
 31
0.0
  0
LINE
  5
6ADF
330
6ADB
100
AcDbEntity
  8
SLD-0
 62
     0
100
AcDbLine
 10
0.0
 20
0.0
 30
0.0
 11
0.0
 21
-1.0
 31
0.0
  0
LINE
  5
6AE0
330
6ADB
100
AcDbEntity
  8
SLD-0
 62
     0
100
AcDbLine
 10
0.0
 20
0.0
 30
0.0
 11
1.0
 21
0.0
 31
0.0
  0
LINE
  5
6AE1
330
6ADB
100
AcDbEntity
  8
SLD-0
 62
     0
100
AcDbLine
 10
0.0
 20
2.0
 30
0.0
 11
0.0
 21
2.799999999999998
 31
0.0
  0
LINE
  5
6AE2
330
6ADB
100
AcDbEntity
  8
SLD-0
 62
     0
100
AcDbLine
 10
-2.0
 20
0.0
 30
0.0
 11
-2.799999999999998
 21
0.0
 31
0.0
  0
LINE
  5
6AE3
330
6ADB
100
AcDbEntity
  8
SLD-0
 62
     0
100
AcDbLine
 10
0.0
 20
-2.0
 30
0.0
 11
0.0
 21
-2.799999999999998
 31
0.0
  0
LINE
  5
6AE4
330
6ADB
100
AcDbEntity
  8
SLD-0
 62
     0
100
AcDbLine
 10
2.0
 20
0.0
 30
0.0
 11
2.799999999999998
 21
0.0
 31
0.0
  0
ENDBLK
  5
6AE5
330
6ADB
100
AcDbEntity
  8
0
100
AcDbBlockEnd
  0
BLOCK
  5
FFE0
330
FFDF
100
AcDbEntity
  8
0
100
AcDbBlockBegin
  2
*D11
 70
     1
 10
0.0
 20
0.0
 30
0.0
  3
*D11
  1

  0
LINE
  5
10D81
330
FFDF
100
AcDbEntity
  8
30
  6
Continuous
 62
     0
440
 16777216
370
    -2
100
AcDbLine
 10
460.1074811053615
 20
425.1660206037691
 30
0.0
 11
477.6767377577644
 21
425.1660206037691
 31
0.0
  0
LINE
  5
10D82
330
FFDF
100
AcDbEntity
  8
30
  6
Continuous
 62
     0
440
 16777216
370
    -2
100
AcDbLine
 10
463.1074811053615
 20
416.1660206037693
 30
0.0
 11
477.6767377577644
 21
416.1660206037693
 31
0.0
  0
LINE
  5
10D83
330
FFDF
100
AcDbEntity
  8
30
  6
Continuous
 62
     0
440
 16777216
370
    -2
100
AcDbLine
 10
477.1767377577644
 20
418.1660206037693
 30
0.0
 11
477.1767377577644
 21
423.1660206037693
 31
0.0
  0
LINE
  5
10D84
330
FFDF
100
AcDbEntity
  8
30
  6
Continuous
 62
     0
440
 16777216
370
    -2
100
AcDbLine
 10
477.1767377577644
 20
425.1660206037691
 30
0.0
 11
477.1767377577644
 21
466.7660206037694
 31
0.0
  0
INSERT
  5
10D85
330
FFDF
100
AcDbEntity
  8
30
  6
Continuous
 62
     0
440
 16777216
370
    -2
100
AcDbBlockReference
  2
_OPEN
 10
477.1767377577644
 20
416.1660206037693
 30
0.0
 41
2.0
 42
2.0
 43
2.0
 50
270.0
  0
INSERT
  5
10D86
330
FFDF
100
AcDbEntity
  8
30
  6
Continuous
 62
     0
440
 16777216
370
    -2
100
AcDbBlockReference
  2
_OPEN
 10
477.1767377577644
 20
425.1660206037691
 30
0.0
 41
2.0
 42
2.0
 43
2.0
 50
90.0
  0
MTEXT
  5
10D87
330
FFDF
100
AcDbEntity
  8
30
  6
Continuous
 62
     0
440
 16777216
100
AcDbMText
 10
469.1767377577642
 20
446.9660206037693
 30
0.0
 40
6.0
 41
0.0
 46
0.0
 71
     2
 72
     1
  1
\A1;9 (max.)
 11
0.0000000000000001
 21
1.0
 31
0.0
 73
     1
 44
1.0
  0
POINT
  5
10D88
330
FFDF
100
AcDbEntity
  8
DEFPOINTS
  6
Continuous
 62
     0
440
 16777216
100
AcDbPoint
 10
457.1074811053613
 20
425.1660206037691
 30
0.0
  0
POINT
  5
10D89
330
FFDF
100
AcDbEntity
  8
DEFPOINTS
  6
Continuous
 62
     0
440
 16777216
100
AcDbPoint
 10
460.1074811053615
 20
416.1660206037693
 30
0.0
  0
POINT
  5
10D8A
330
FFDF
100
AcDbEntity
  8
DEFPOINTS
  6
Continuous
 62
     0
440
 16777216
100
AcDbPoint
 10
477.1767377577644
 20
416.1660206037693
 30
0.0
  0
ENDBLK
  5
FFE1
330
FFDF
100
AcDbEntity
  8
0
100
AcDbBlockEnd
  0
BLOCK
  5
FFEE
330
FFED
100
AcDbEntity
  8
0
100
AcDbBlockBegin
  2
*D12
 70
     1
 10
0.0
 20
0.0
 30
0.0
  3
*D12
  1

  0
LINE
  5
10E19
330
FFED
100
AcDbEntity
  8
30
  6
Continuous
 62
     0
440
 16777216
370
    -2
100
AcDbLine
 10
440.1074811053613
 20
415.1660206037694
 30
0.0
 11
440.1074811053613
 21
402.4290684996548
 31
0.0
  0
LINE
  5
10E1A
330
FFED
100
AcDbEntity
  8
30
  6
Continuous
 62
     0
440
 16777216
370
    -2
100
AcDbLine
 10
460.1074811053615
 20
415.1660206037694
 30
0.0
 11
460.1074811053615
 21
402.4290684996548
 31
0.0
  0
LINE
  5
10E1B
330
FFED
100
AcDbEntity
  8
30
  6
Continuous
 62
     0
440
 16777216
370
    -2
100
AcDbLine
 10
458.1074811053615
 20
402.9290684996547
 30
0.0
 11
442.1074811053615
 21
402.9290684996547
 31
0.0
  0
LINE
  5
10E1C
330
FFED
100
AcDbEntity
  8
30
  6
Continuous
 62
     0
440
 16777216
370
    -2
100
AcDbLine
 10
440.1074811053613
 20
402.9290684996547
 30
0.0
 11
388.0777805352595
 21
402.9290684996547
 31
0.0
  0
INSERT
  5
10E1D
330
FFED
100
AcDbEntity
  8
30
  6
Continuous
 62
     0
440
 16777216
370
    -2
100
AcDbBlockReference
  2
_OPEN
 10
460.1074811053615
 20
402.9290684996547
 30
0.0
 41
2.0
 42
2.0
 43
2.0
  0
INSERT
  5
10E1E
330
FFED
100
AcDbEntity
  8
30
  6
Continuous
 62
     0
440
 16777216
370
    -2
100
AcDbBlockReference
  2
_OPEN
 10
440.1074811053613
 20
402.9290684996547
 30
0.0
 41
2.0
 42
2.0
 43
2.0
 50
180.0
  0
MTEXT
  5
10E1F
330
FFED
100
AcDbEntity
  8
30
  6
Continuous
 62
     0
440
 16777216
100
AcDbMText
 10
410.3777805352595
 20
420.9290684996548
 30
0.0
 40
6.0
 41
0.0
 46
0.0
 71
     2
 72
     1
  1
\A1;20 (max.)\Pmax. t6
 73
     1
 44
1.0
  0
POINT
  5
10E20
330
FFED
100
AcDbEntity
  8
DEFPOINTS
  6
Continuous
 62
     0
440
 16777216
100
AcDbPoint
 10
440.1074811053613
 20
416.1660206037693
 30
0.0
  0
POINT
  5
10E21
330
FFED
100
AcDbEntity
  8
DEFPOINTS
  6
Continuous
 62
     0
440
 16777216
100
AcDbPoint
 10
460.1074811053615
 20
416.1660206037693
 30
0.0
  0
POINT
  5
10E22
330
FFED
100
AcDbEntity
  8
DEFPOINTS
  6
Continuous
 62
     0
440
 16777216
100
AcDbPoint
 10
460.1074811053615
 20
402.9290684996547
 30
0.0
  0
ENDBLK
  5
FFEF
330
FFED
100
AcDbEntity
  8
0
100
AcDbBlockEnd
  0
BLOCK
  5
1013E
330
1013D
100
AcDbEntity
  8
0
100
AcDbBlockBegin
  2
*D13
 70
     1
 10
0.0
 20
0.0
 30
0.0
  3
*D13
  1

  0
LINE
  5
10E23
330
1013D
100
AcDbEntity
  8
30
  6
Continuous
 62
     0
440
 16777216
370
    -2
100
AcDbLine
 10
135.8185738189169
 20
183.266267453822
 30
0.0
 11
180.307445302905
 21
183.266267453822
 31
0.0
  0
LINE
  5
10E24
330
1013D
100
AcDbEntity
  8
30
  6
Continuous
 62
     0
440
 16777216
370
    -2
100
AcDbLine
 10
135.8185738189169
 20
72.26626745382214
 30
0.0
 11
180.307445302905
 21
72.26626745382212
 31
0.0
  0
LINE
  5
10E25
330
1013D
100
AcDbEntity
  8
30
  6
Continuous
 62
     0
440
 16777216
370
    -2
100
AcDbLine
 10
179.807445302905
 20
181.266267453822
 30
0.0
 11
179.807445302905
 21
74.26626745382212
 31
0.0
  0
INSERT
  5
10E26
330
1013D
100
AcDbEntity
  8
30
  6
Continuous
 62
     0
440
 16777216
370
    -2
100
AcDbBlockReference
  2
_OPEN
 10
179.807445302905
 20
183.266267453822
 30
0.0
 41
2.0
 42
2.0
 43
2.0
 50
90.0
  0
INSERT
  5
10E27
330
1013D
100
AcDbEntity
  8
30
  6
Continuous
 62
     0
440
 16777216
370
    -2
100
AcDbBlockReference
  2
_OPEN
 10
179.807445302905
 20
72.26626745382212
 30
0.0
 41
2.0
 42
2.0
 43
2.0
 50
270.0
  0
MTEXT
  5
10E28
330
1013D
100
AcDbEntity
  8
30
  6
Continuous
 62
     0
440
 16777216
100
AcDbMText
 10
174.807445302905
 20
127.7662674538221
 30
0.0
 40
6.0
 41
0.0
 46
0.0
 71
     5
 72
     1
  1
\A1;111
 11
0.0000000000000001
 21
1.0
 31
0.0
 73
     1
 44
1.0
  0
POINT
  5
10E29
330
1013D
100
AcDbEntity
  8
DEFPOINTS
  6
Continuous
 62
     0
440
 16777216
100
AcDbPoint
 10
134.8185738189169
 20
183.266267453822
 30
0.0
  0
POINT
  5
10E2A
330
1013D
100
AcDbEntity
  8
DEFPOINTS
  6
Continuous
 62
     0
440
 16777216
100
AcDbPoint
 10
134.8185738189169
 20
72.26626745382214
 30
0.0
  0
POINT
  5
10E2B
330
1013D
100
AcDbEntity
  8
DEFPOINTS
  6
Continuous
 62
     0
440
 16777216
100
AcDbPoint
 10
179.807445302905
 20
72.26626745382212
 30
0.0
  0
ENDBLK
  5
1013F
330
1013D
100
AcDbEntity
  8
0
100
AcDbBlockEnd
  0
BLOCK
  5
10351
330
10350
100
AcDbEntity
  8
0
100
AcDbBlockBegin
  2
*D14
 70
     1
 10
0.0
 20
0.0
 30
0.0
  3
*D14
  1

  0
LINE
  5
10E36
330
10350
100
AcDbEntity
  8
30
  6
Continuous
 62
     0
440
 16777216
370
    -2
100
AcDbLine
 10
263.5409063266836
 20
370.259032165375
 30
0.0
 11
263.5409063266836
 21
250.3907747675793
 31
0.0
  0
LINE
  5
10E37
330
10350
100
AcDbEntity
  8
30
  6
Continuous
 62
     0
440
 16777216
370
    -2
100
AcDbLine
 10
359.0409050899339
 20
305.0983987361387
 30
0.0
 11
359.0409050899339
 21
250.3907747675793
 31
0.0
  0
LINE
  5
10E38
330
10350
100
AcDbEntity
  8
30
  6
Continuous
 62
     0
440
 16777216
370
    -2
100
AcDbLine
 10
265.5409063266836
 20
250.8907747675793
 30
0.0
 11
357.0409050899339
 21
250.8907747675793
 31
0.0
  0
INSERT
  5
10E39
330
10350
100
AcDbEntity
  8
30
  6
Continuous
 62
     0
440
 16777216
370
    -2
100
AcDbBlockReference
  2
_OPEN
 10
263.5409063266836
 20
250.8907747675793
 30
0.0
 41
2.0
 42
2.0
 43
2.0
 50
180.0
  0
INSERT
  5
10E3A
330
10350
100
AcDbEntity
  8
30
  6
Continuous
 62
     0
440
 16777216
370
    -2
100
AcDbBlockReference
  2
_OPEN
 10
359.0409050899339
 20
250.8907747675793
 30
0.0
 41
2.0
 42
2.0
 43
2.0
  0
MTEXT
  5
10E3B
330
10350
100
AcDbEntity
  8
30
  6
Continuous
 62
     0
440
 16777216
100
AcDbMText
 10
311.2909057083087
 20
255.8907747675793
 30
0.0
 40
6.0
 41
0.0
 46
0.0
 71
     5
 72
     1
  1
\A1;95.5
 73
     1
 44
1.0
  0
POINT
  5
10E3C
330
10350
100
AcDbEntity
  8
DEFPOINTS
  6
Continuous
 62
     0
440
 16777216
100
AcDbPoint
 10
263.5409063266836
 20
371.259032165375
 30
0.0
  0
POINT
  5
10E3D
330
10350
100
AcDbEntity
  8
DEFPOINTS
  6
Continuous
 62
     0
440
 16777216
100
AcDbPoint
 10
359.0409050899339
 20
306.0983987361387
 30
0.0
  0
POINT
  5
10E3E
330
10350
100
AcDbEntity
  8
DEFPOINTS
  6
Continuous
 62
     0
440
 16777216
100
AcDbPoint
 10
359.0409050899339
 20
250.8907747675793
 30
0.0
  0
ENDBLK
  5
10352
330
10350
100
AcDbEntity
  8
0
100
AcDbBlockEnd
  0
BLOCK
  5
1035D
330
1035C
100
AcDbEntity
  8
0
100
AcDbBlockBegin
  2
*D15
 70
     1
 10
0.0
 20
0.0
 30
0.0
  3
*D15
  1

  0
LINE
  5
10E3F
330
1035C
100
AcDbEntity
  8
30
  6
Continuous
 62
     0
440
 16777216
370
    -2
100
AcDbLine
 10
280.5409063266834
 20
345.259032165375
 30
0.0
 11
280.5409063266834
 21
261.8110425341362
 31
0.0
  0
LINE
  5
10E40
330
1035C
100
AcDbEntity
  8
30
  6
Continuous
 62
     0
440
 16777216
370
    -2
100
AcDbLine
 10
287.0409063266834
 20
345.259032165375
 30
0.0
 11
287.0409063266834
 21
261.8110425341362
 31
0.0
  0
LINE
  5
10E41
330
1035C
100
AcDbEntity
  8
30
  6
Continuous
 62
     0
440
 16777216
370
    -2
100
AcDbLine
 10
289.0409063266834
 20
262.3110425341362
 30
0.0
 11
291.0409063266834
 21
262.3110425341362
 31
0.0
  0
LINE
  5
10E42
330
1035C
100
AcDbEntity
  8
30
  6
Continuous
 62
     0
440
 16777216
370
    -2
100
AcDbLine
 10
278.5409063266834
 20
262.3110425341362
 30
0.0
 11
260.5409063266834
 21
262.3110425341362
 31
0.0
  0
INSERT
  5
10E43
330
1035C
100
AcDbEntity
  8
30
  6
Continuous
 62
     0
440
 16777216
370
    -2
100
AcDbBlockReference
  2
_OPEN
 10
287.0409063266834
 20
262.3110425341362
 30
0.0
 41
2.0
 42
2.0
 43
2.0
 50
180.0
  0
INSERT
  5
10E44
330
1035C
100
AcDbEntity
  8
30
  6
Continuous
 62
     0
440
 16777216
370
    -2
100
AcDbBlockReference
  2
_OPEN
 10
280.5409063266834
 20
262.3110425341362
 30
0.0
 41
2.0
 42
2.0
 43
2.0
  0
MTEXT
  5
10E45
330
1035C
100
AcDbEntity
  8
30
  6
Continuous
 62
     0
440
 16777216
100
AcDbMText
 10
268.5409063266834
 20
267.3110425341362
 30
0.0
 40
6.0
 41
0.0
 46
0.0
 71
     5
 72
     1
  1
\A1;6.5
 73
     1
 44
1.0
  0
POINT
  5
10E46
330
1035C
100
AcDbEntity
  8
DEFPOINTS
  6
Continuous
 62
     0
440
 16777216
100
AcDbPoint
 10
280.5409063266834
 20
346.259032165375
 30
0.0
  0
POINT
  5
10E47
330
1035C
100
AcDbEntity
  8
DEFPOINTS
  6
Continuous
 62
     0
440
 16777216
100
AcDbPoint
 10
287.0409063266834
 20
346.259032165375
 30
0.0
  0
POINT
  5
10E48
330
1035C
100
AcDbEntity
  8
DEFPOINTS
  6
Continuous
 62
     0
440
 16777216
100
AcDbPoint
 10
287.0409063266834
 20
262.3110425341362
 30
0.0
  0
ENDBLK
  5
1035E
330
1035C
100
AcDbEntity
  8
0
100
AcDbBlockEnd
  0
BLOCK
  5
1036A
330
10369
100
AcDbEntity
  8
0
100
AcDbBlockBegin
  2
*D16
 70
     1
 10
0.0
 20
0.0
 30
0.0
  3
*D16
  1

  0
LINE
  5
10E49
330
10369
100
AcDbEntity
  8
30
  6
Continuous
 62
     0
440
 16777216
370
    -2
100
AcDbLine
 10
287.0409063266834
 20
345.259032165375
 30
0.0
 11
287.0409063266834
 21
261.8110425341362
 31
0.0
  0
LINE
  5
10E4A
330
10369
100
AcDbEntity
  8
30
  6
Continuous
 62
     0
440
 16777216
370
    -2
100
AcDbLine
 10
359.0409050899339
 20
305.0983987361387
 30
0.0
 11
359.0409050899339
 21
261.8110425341362
 31
0.0
  0
LINE
  5
10E4B
330
10369
100
AcDbEntity
  8
30
  6
Continuous
 62
     0
440
 16777216
370
    -2
100
AcDbLine
 10
289.0409063266834
 20
262.3110425341362
 30
0.0
 11
357.0409050899339
 21
262.3110425341362
 31
0.0
  0
INSERT
  5
10E4C
330
10369
100
AcDbEntity
  8
30
  6
Continuous
 62
     0
440
 16777216
370
    -2
100
AcDbBlockReference
  2
_OPEN
 10
287.0409063266834
 20
262.3110425341362
 30
0.0
 41
2.0
 42
2.0
 43
2.0
 50
180.0
  0
INSERT
  5
10E4D
330
10369
100
AcDbEntity
  8
30
  6
Continuous
 62
     0
440
 16777216
370
    -2
100
AcDbBlockReference
  2
_OPEN
 10
359.0409050899339
 20
262.3110425341362
 30
0.0
 41
2.0
 42
2.0
 43
2.0
  0
MTEXT
  5
10E4E
330
10369
100
AcDbEntity
  8
30
  6
Continuous
 62
     0
440
 16777216
100
AcDbMText
 10
323.0409057083087
 20
267.3110425341362
 30
0.0
 40
6.0
 41
0.0
 46
0.0
 71
     5
 72
     1
  1
\A1;72
 73
     1
 44
1.0
  0
POINT
  5
10E4F
330
10369
100
AcDbEntity
  8
DEFPOINTS
  6
Continuous
 62
     0
440
 16777216
100
AcDbPoint
 10
287.0409063266834
 20
346.259032165375
 30
0.0
  0
POINT
  5
10E50
330
10369
100
AcDbEntity
  8
DEFPOINTS
  6
Continuous
 62
     0
440
 16777216
100
AcDbPoint
 10
359.0409050899339
 20
306.0983987361387
 30
0.0
  0
POINT
  5
10E51
330
10369
100
AcDbEntity
  8
DEFPOINTS
  6
Continuous
 62
     0
440
 16777216
100
AcDbPoint
 10
359.0409050899339
 20
262.3110425341362
 30
0.0
  0
ENDBLK
  5
1036B
330
10369
100
AcDbEntity
  8
0
100
AcDbBlockEnd
  0
BLOCK
  5
10376
330
10375
100
AcDbEntity
  8
0
100
AcDbBlockBegin
  2
*D17
 70
     1
 10
0.0
 20
0.0
 30
0.0
  3
*D17
  1

  0
LINE
  5
10E52
330
10375
100
AcDbEntity
  8
30
  6
Continuous
 62
     0
440
 16777216
370
    -2
100
AcDbLine
 10
335.0409063266834
 20
437.2090333821248
 30
0.0
 11
335.0409063266834
 21
467.4596152381733
 31
0.0
  0
LINE
  5
10E53
330
10375
100
AcDbEntity
  8
30
  6
Continuous
 62
     0
440
 16777216
370
    -2
100
AcDbLine
 10
359.0409063266835
 20
437.209033382125
 30
0.0
 11
359.0409063266835
 21
467.4596152381733
 31
0.0
  0
LINE
  5
10E54
330
10375
100
AcDbEntity
  8
30
  6
Continuous
 62
     0
440
 16777216
370
    -2
100
AcDbLine
 10
337.0409063266834
 20
466.9596152381733
 30
0.0
 11
357.0409063266835
 21
466.9596152381733
 31
0.0
  0
INSERT
  5
10E55
330
10375
100
AcDbEntity
  8
30
  6
Continuous
 62
     0
440
 16777216
370
    -2
100
AcDbBlockReference
  2
_OPEN
 10
335.0409063266834
 20
466.9596152381733
 30
0.0
 41
2.0
 42
2.0
 43
2.0
 50
180.0
  0
INSERT
  5
10E56
330
10375
100
AcDbEntity
  8
30
  6
Continuous
 62
     0
440
 16777216
370
    -2
100
AcDbBlockReference
  2
_OPEN
 10
359.0409063266835
 20
466.9596152381733
 30
0.0
 41
2.0
 42
2.0
 43
2.0
  0
MTEXT
  5
10E57
330
10375
100
AcDbEntity
  8
30
  6
Continuous
 62
     0
440
 16777216
100
AcDbMText
 10
347.0409063266834
 20
471.9596152381733
 30
0.0
 40
6.0
 41
0.0
 46
0.0
 71
     5
 72
     1
  1
\A1;24
 73
     1
 44
1.0
  0
POINT
  5
10E58
330
10375
100
AcDbEntity
  8
DEFPOINTS
  6
Continuous
 62
     0
440
 16777216
100
AcDbPoint
 10
335.0409063266834
 20
436.2090333821249
 30
0.0
  0
POINT
  5
10E59
330
10375
100
AcDbEntity
  8
DEFPOINTS
  6
Continuous
 62
     0
440
 16777216
100
AcDbPoint
 10
359.0409063266835
 20
436.2090333821249
 30
0.0
  0
POINT
  5
10E5A
330
10375
100
AcDbEntity
  8
DEFPOINTS
  6
Continuous
 62
     0
440
 16777216
100
AcDbPoint
 10
359.0409063266835
 20
466.9596152381733
 30
0.0
  0
ENDBLK
  5
10377
330
10375
100
AcDbEntity
  8
0
100
AcDbBlockEnd
  0
BLOCK
  5
10382
330
10381
100
AcDbEntity
  8
0
100
AcDbBlockBegin
  2
*D18
 70
     1
 10
0.0
 20
0.0
 30
0.0
  3
*D18
  1

  0
LINE
  5
10E5B
330
10381
100
AcDbEntity
  8
30
  6
Continuous
 62
     0
440
 16777216
370
    -2
100
AcDbLine
 10
291.0409063266834
 20
319.2590321653749
 30
0.0
 11
291.0409063266834
 21
272.6655079224665
 31
0.0
  0
LINE
  5
10E5C
330
10381
100
AcDbEntity
  8
30
  6
Continuous
 62
     0
440
 16777216
370
    -2
100
AcDbLine
 10
359.0409050899339
 20
305.0983987361387
 30
0.0
 11
359.0409050899339
 21
272.6655079224665
 31
0.0
  0
LINE
  5
10E5D
330
10381
100
AcDbEntity
  8
30
  6
Continuous
 62
     0
440
 16777216
370
    -2
100
AcDbLine
 10
293.0409063266834
 20
273.1655079224665
 30
0.0
 11
357.0409050899339
 21
273.1655079224665
 31
0.0
  0
INSERT
  5
10E5E
330
10381
100
AcDbEntity
  8
30
  6
Continuous
 62
     0
440
 16777216
370
    -2
100
AcDbBlockReference
  2
_OPEN
 10
291.0409063266834
 20
273.1655079224665
 30
0.0
 41
2.0
 42
2.0
 43
2.0
 50
180.0
  0
INSERT
  5
10E5F
330
10381
100
AcDbEntity
  8
30
  6
Continuous
 62
     0
440
 16777216
370
    -2
100
AcDbBlockReference
  2
_OPEN
 10
359.0409050899339
 20
273.1655079224665
 30
0.0
 41
2.0
 42
2.0
 43
2.0
  0
MTEXT
  5
10E60
330
10381
100
AcDbEntity
  8
30
  6
Continuous
 62
     0
440
 16777216
100
AcDbMText
 10
325.0409057083086
 20
278.1655079224665
 30
0.0
 40
6.0
 41
0.0
 46
0.0
 71
     5
 72
     1
  1
\A1;68
 73
     1
 44
1.0
  0
POINT
  5
10E61
330
10381
100
AcDbEntity
  8
DEFPOINTS
  6
Continuous
 62
     0
440
 16777216
100
AcDbPoint
 10
291.0409063266834
 20
320.2590321653749
 30
0.0
  0
POINT
  5
10E62
330
10381
100
AcDbEntity
  8
DEFPOINTS
  6
Continuous
 62
     0
440
 16777216
100
AcDbPoint
 10
359.0409050899339
 20
306.0983987361387
 30
0.0
  0
POINT
  5
10E63
330
10381
100
AcDbEntity
  8
DEFPOINTS
  6
Continuous
 62
     0
440
 16777216
100
AcDbPoint
 10
359.0409050899339
 20
273.1655079224665
 30
0.0
  0
ENDBLK
  5
10383
330
10381
100
AcDbEntity
  8
0
100
AcDbBlockEnd
  0
BLOCK
  5
1038E
330
1038D
100
AcDbEntity
  8
0
100
AcDbBlockBegin
  2
*D19
 70
     1
 10
0.0
 20
0.0
 30
0.0
  3
*D19
  1

  0
LINE
  5
10E64
330
1038D
100
AcDbEntity
  8
30
  6
Continuous
 62
     0
440
 16777216
370
    -2
100
AcDbLine
 10
299.0409050899338
 20
305.0983987361387
 30
0.0
 11
299.0409050899338
 21
282.9656976477115
 31
0.0
  0
LINE
  5
10E65
330
1038D
100
AcDbEntity
  8
30
  6
Continuous
 62
     0
440
 16777216
370
    -2
100
AcDbLine
 10
359.0409050899339
 20
305.0983987361387
 30
0.0
 11
359.0409050899339
 21
282.9656976477115
 31
0.0
  0
LINE
  5
10E66
330
1038D
100
AcDbEntity
  8
30
  6
Continuous
 62
     0
440
 16777216
370
    -2
100
AcDbLine
 10
301.0409050899338
 20
283.4656976477115
 30
0.0
 11
357.0409050899339
 21
283.4656976477115
 31
0.0
  0
INSERT
  5
10E67
330
1038D
100
AcDbEntity
  8
30
  6
Continuous
 62
     0
440
 16777216
370
    -2
100
AcDbBlockReference
  2
_OPEN
 10
299.0409050899338
 20
283.4656976477115
 30
0.0
 41
2.0
 42
2.0
 43
2.0
 50
180.0
  0
INSERT
  5
10E68
330
1038D
100
AcDbEntity
  8
30
  6
Continuous
 62
     0
440
 16777216
370
    -2
100
AcDbBlockReference
  2
_OPEN
 10
359.0409050899339
 20
283.4656976477115
 30
0.0
 41
2.0
 42
2.0
 43
2.0
  0
MTEXT
  5
10E69
330
1038D
100
AcDbEntity
  8
30
  6
Continuous
 62
     0
440
 16777216
100
AcDbMText
 10
329.0409050899338
 20
288.4656976477115
 30
0.0
 40
6.0
 41
0.0
 46
0.0
 71
     5
 72
     1
  1
\A1;60
 73
     1
 44
1.0
  0
POINT
  5
10E6A
330
1038D
100
AcDbEntity
  8
DEFPOINTS
  6
Continuous
 62
     0
440
 16777216
100
AcDbPoint
 10
299.0409050899338
 20
306.0983987361387
 30
0.0
  0
POINT
  5
10E6B
330
1038D
100
AcDbEntity
  8
DEFPOINTS
  6
Continuous
 62
     0
440
 16777216
100
AcDbPoint
 10
359.0409050899339
 20
306.0983987361387
 30
0.0
  0
POINT
  5
10E6C
330
1038D
100
AcDbEntity
  8
DEFPOINTS
  6
Continuous
 62
     0
440
 16777216
100
AcDbPoint
 10
359.0409050899339
 20
283.4656976477115
 30
0.0
  0
ENDBLK
  5
1038F
330
1038D
100
AcDbEntity
  8
0
100
AcDbBlockEnd
  0
BLOCK
  5
1039A
330
10399
100
AcDbEntity
  8
0
100
AcDbBlockBegin
  2
*D20
 70
     1
 10
0.0
 20
0.0
 30
0.0
  3
*D20
  1

  0
LINE
  5
10E6D
330
10399
100
AcDbEntity
  8
30
  6
Continuous
 62
     0
440
 16777216
370
    -2
100
AcDbLine
 10
306.0409061349336
 20
312.709032165375
 30
0.0
 11
306.0409061349336
 21
292.4344769514917
 31
0.0
  0
LINE
  5
10E6E
330
10399
100
AcDbEntity
  8
30
  6
Continuous
 62
     0
440
 16777216
370
    -2
100
AcDbLine
 10
359.0409050899339
 20
305.0983987361387
 30
0.0
 11
359.0409050899339
 21
292.4344769514917
 31
0.0
  0
LINE
  5
10E6F
330
10399
100
AcDbEntity
  8
30
  6
Continuous
 62
     0
440
 16777216
370
    -2
100
AcDbLine
 10
308.0409061349336
 20
292.9344769514917
 30
0.0
 11
357.0409050899339
 21
292.9344769514917
 31
0.0
  0
INSERT
  5
10E70
330
10399
100
AcDbEntity
  8
30
  6
Continuous
 62
     0
440
 16777216
370
    -2
100
AcDbBlockReference
  2
_OPEN
 10
306.0409061349336
 20
292.9344769514917
 30
0.0
 41
2.0
 42
2.0
 43
2.0
 50
180.0
  0
INSERT
  5
10E71
330
10399
100
AcDbEntity
  8
30
  6
Continuous
 62
     0
440
 16777216
370
    -2
100
AcDbBlockReference
  2
_OPEN
 10
359.0409050899339
 20
292.9344769514917
 30
0.0
 41
2.0
 42
2.0
 43
2.0
  0
MTEXT
  5
10E72
330
10399
100
AcDbEntity
  8
30
  6
Continuous
 62
     0
440
 16777216
100
AcDbMText
 10
332.5409056124337
 20
297.9344769514917
 30
0.0
 40
6.0
 41
0.0
 46
0.0
 71
     5
 72
     1
  1
\A1;53
 73
     1
 44
1.0
  0
POINT
  5
10E73
330
10399
100
AcDbEntity
  8
DEFPOINTS
  6
Continuous
 62
     0
440
 16777216
100
AcDbPoint
 10
306.0409061349336
 20
313.709032165375
 30
0.0
  0
POINT
  5
10E74
330
10399
100
AcDbEntity
  8
DEFPOINTS
  6
Continuous
 62
     0
440
 16777216
100
AcDbPoint
 10
359.0409050899339
 20
306.0983987361387
 30
0.0
  0
POINT
  5
10E75
330
10399
100
AcDbEntity
  8
DEFPOINTS
  6
Continuous
 62
     0
440
 16777216
100
AcDbPoint
 10
359.0409050899339
 20
292.9344769514917
 30
0.0
  0
ENDBLK
  5
1039B
330
10399
100
AcDbEntity
  8
0
100
AcDbBlockEnd
  0
BLOCK
  5
103A6
330
103A5
100
AcDbEntity
  8
0
100
AcDbBlockBegin
  2
*D21
 70
     1
 10
0.0
 20
0.0
 30
0.0
  3
*D21
  1

  0
LINE
  5
10E76
330
103A5
100
AcDbEntity
  8
30
  6
Continuous
 62
     0
440
 16777216
370
    -2
100
AcDbLine
 10
359.0409050899339
 20
305.0983987361387
 30
0.0
 11
359.0409050899339
 21
292.4344769514917
 31
0.0
  0
LINE
  5
10E77
330
103A5
100
AcDbEntity
  8
30
  6
Continuous
 62
     0
440
 16777216
370
    -2
100
AcDbLine
 10
366.0409050899338
 20
314.3483987361388
 30
0.0
 11
366.0409050899338
 21
292.4344769514917
 31
0.0
  0
LINE
  5
10E78
330
103A5
100
AcDbEntity
  8
30
  6
Continuous
 62
     0
440
 16777216
370
    -2
100
AcDbLine
 10
357.0409050899339
 20
292.9344769514917
 30
0.0
 11
355.0409050899339
 21
292.9344769514917
 31
0.0
  0
LINE
  5
10E79
330
103A5
100
AcDbEntity
  8
30
  6
Continuous
 62
     0
440
 16777216
370
    -2
100
AcDbLine
 10
368.0409050899339
 20
292.9344769514917
 30
0.0
 11
378.0409050899339
 21
292.9344769514917
 31
0.0
  0
INSERT
  5
10E7A
330
103A5
100
AcDbEntity
  8
30
  6
Continuous
 62
     0
440
 16777216
370
    -2
100
AcDbBlockReference
  2
_OPEN
 10
359.0409050899339
 20
292.9344769514917
 30
0.0
 41
2.0
 42
2.0
 43
2.0
  0
INSERT
  5
10E7B
330
103A5
100
AcDbEntity
  8
30
  6
Continuous
 62
     0
440
 16777216
370
    -2
100
AcDbBlockReference
  2
_OPEN
 10
366.0409050899338
 20
292.9344769514917
 30
0.0
 41
2.0
 42
2.0
 43
2.0
 50
180.0
  0
MTEXT
  5
10E7C
330
103A5
100
AcDbEntity
  8
30
  6
Continuous
 62
     0
440
 16777216
100
AcDbMText
 10
374.0409050899339
 20
297.9344769514917
 30
0.0
 40
6.0
 41
0.0
 46
0.0
 71
     5
 72
     1
  1
\A1;7
 73
     1
 44
1.0
  0
POINT
  5
10E7D
330
103A5
100
AcDbEntity
  8
DEFPOINTS
  6
Continuous
 62
     0
440
 16777216
100
AcDbPoint
 10
359.0409050899339
 20
306.0983987361387
 30
0.0
  0
POINT
  5
10E7E
330
103A5
100
AcDbEntity
  8
DEFPOINTS
  6
Continuous
 62
     0
440
 16777216
100
AcDbPoint
 10
366.0409050899338
 20
315.3483987361387
 30
0.0
  0
POINT
  5
10E7F
330
103A5
100
AcDbEntity
  8
DEFPOINTS
  6
Continuous
 62
     0
440
 16777216
100
AcDbPoint
 10
366.0409050899338
 20
292.9344769514917
 30
0.0
  0
ENDBLK
  5
103A7
330
103A5
100
AcDbEntity
  8
0
100
AcDbBlockEnd
  0
BLOCK
  5
103B2
330
103B1
100
AcDbEntity
  8
0
100
AcDbBlockBegin
  2
*D22
 70
     1
 10
0.0
 20
0.0
 30
0.0
  3
*D22
  1

  0
LINE
  5
10D6E
330
103B1
100
AcDbEntity
  8
30
  6
Continuous
 62
     0
440
 16777216
370
    -2
100
AcDbLine
 10
284.0409063266834
 20
396.2590321653749
 30
0.0
 11
247.6046683432497
 21
396.2590321653749
 31
0.0
  0
LINE
  5
10D6F
330
103B1
100
AcDbEntity
  8
30
  6
Continuous
 62
     0
440
 16777216
370
    -2
100
AcDbLine
 10
284.0409063266834
 20
346.2590321653749
 30
0.0
 11
247.6046683432497
 21
346.2590321653749
 31
0.0
  0
LINE
  5
10D70
330
103B1
100
AcDbEntity
  8
30
  6
Continuous
 62
     0
440
 16777216
370
    -2
100
AcDbLine
 10
248.1046683432496
 20
394.2590321653749
 30
0.0
 11
248.1046683432496
 21
348.2590321653749
 31
0.0
  0
INSERT
  5
10D71
330
103B1
100
AcDbEntity
  8
30
  6
Continuous
 62
     0
440
 16777216
370
    -2
100
AcDbBlockReference
  2
_OPEN
 10
248.1046683432496
 20
396.2590321653749
 30
0.0
 41
2.0
 42
2.0
 43
2.0
 50
90.0
  0
INSERT
  5
10D72
330
103B1
100
AcDbEntity
  8
30
  6
Continuous
 62
     0
440
 16777216
370
    -2
100
AcDbBlockReference
  2
_OPEN
 10
248.1046683432496
 20
346.2590321653749
 30
0.0
 41
2.0
 42
2.0
 43
2.0
 50
270.0
  0
MTEXT
  5
10D73
330
103B1
100
AcDbEntity
  8
30
  6
Continuous
 62
     0
440
 16777216
100
AcDbMText
 10
243.1046683432496
 20
371.259032165375
 30
0.0
 40
6.0
 41
0.0
 46
0.0
 71
     5
 72
     1
  1
\A1;50
 11
0.0000000000000001
 21
1.0
 31
0.0
 73
     1
 44
1.0
  0
POINT
  5
10D74
330
103B1
100
AcDbEntity
  8
DEFPOINTS
  6
Continuous
 62
     0
440
 16777216
100
AcDbPoint
 10
287.0409063266834
 20
396.2590321653749
 30
0.0
  0
POINT
  5
10D75
330
103B1
100
AcDbEntity
  8
DEFPOINTS
  6
Continuous
 62
     0
440
 16777216
100
AcDbPoint
 10
287.0409063266834
 20
346.2590321653749
 30
0.0
  0
POINT
  5
10D76
330
103B1
100
AcDbEntity
  8
DEFPOINTS
  6
Continuous
 62
     0
440
 16777216
100
AcDbPoint
 10
248.1046683432496
 20
346.2590321653749
 30
0.0
  0
ENDBLK
  5
103B3
330
103B1
100
AcDbEntity
  8
0
100
AcDbBlockEnd
  0
BLOCK
  5
104C3
330
104C2
100
AcDbEntity
  8
0
100
AcDbBlockBegin
  2
*D23
 70
     1
 10
0.0
 20
0.0
 30
0.0
  3
*D23
  1

  0
LINE
  5
10E80
330
104C2
100
AcDbEntity
  8
30
  6
Continuous
 62
     0
440
 16777216
370
    -2
100
AcDbLine
 10
457.3025653786976
 20
152.2662676623219
 30
0.0
 11
500.7170144683403
 21
152.2662676623219
 31
0.0
  0
LINE
  5
10E81
330
104C2
100
AcDbEntity
  8
30
  6
Continuous
 62
     0
440
 16777216
370
    -2
100
AcDbLine
 10
457.3025653786976
 20
104.2662672450719
 30
0.0
 11
500.7170144683402
 21
104.2662672450719
 31
0.0
  0
LINE
  5
10E82
330
104C2
100
AcDbEntity
  8
30
  6
Continuous
 62
     0
440
 16777216
370
    -2
100
AcDbLine
 10
500.2170144683403
 20
150.2662676623219
 30
0.0
 11
500.2170144683402
 21
106.2662672450719
 31
0.0
  0
INSERT
  5
10E83
330
104C2
100
AcDbEntity
  8
30
  6
Continuous
 62
     0
440
 16777216
370
    -2
100
AcDbBlockReference
  2
_OPEN
 10
500.2170144683403
 20
152.2662676623219
 30
0.0
 41
2.0
 42
2.0
 43
2.0
 50
90.0
  0
INSERT
  5
10E84
330
104C2
100
AcDbEntity
  8
30
  6
Continuous
 62
     0
440
 16777216
370
    -2
100
AcDbBlockReference
  2
_OPEN
 10
500.2170144683402
 20
104.2662672450719
 30
0.0
 41
2.0
 42
2.0
 43
2.0
 50
270.0
  0
MTEXT
  5
10E85
330
104C2
100
AcDbEntity
  8
30
  6
Continuous
 62
     0
440
 16777216
100
AcDbMText
 10
495.2170144683401
 20
128.266267453697
 30
0.0
 40
6.0
 41
0.0
 46
0.0
 71
     5
 72
     1
  1
\A1;48
 11
0.0000000000000001
 21
1.0
 31
0.0
 73
     1
 44
1.0
  0
POINT
  5
10E86
330
104C2
100
AcDbEntity
  8
DEFPOINTS
  6
Continuous
 62
     0
440
 16777216
100
AcDbPoint
 10
456.3025653786976
 20
152.2662676623219
 30
0.0
  0
POINT
  5
10E87
330
104C2
100
AcDbEntity
  8
DEFPOINTS
  6
Continuous
 62
     0
440
 16777216
100
AcDbPoint
 10
456.3025653786976
 20
104.2662672450719
 30
0.0
  0
POINT
  5
10E88
330
104C2
100
AcDbEntity
  8
DEFPOINTS
  6
Continuous
 62
     0
440
 16777216
100
AcDbPoint
 10
500.2170144683402
 20
104.2662672450719
 30
0.0
  0
ENDBLK
  5
104C4
330
104C2
100
AcDbEntity
  8
0
100
AcDbBlockEnd
  0
BLOCK
  5
104CF
330
104CE
100
AcDbEntity
  8
0
100
AcDbBlockBegin
  2
*D24
 70
     1
 10
0.0
 20
0.0
 30
0.0
  3
*D24
  1

  0
LINE
  5
10E89
330
104CE
100
AcDbEntity
  8
30
  6
Continuous
 62
     0
440
 16777216
370
    -2
100
AcDbLine
 10
444.3025639181976
 20
102.2662670813221
 30
0.0
 11
444.3025639181976
 21
48.39812902924819
 31
0.0
  0
LINE
  5
10E8A
330
104CE
100
AcDbEntity
  8
30
  6
Continuous
 62
     0
440
 16777216
370
    -2
100
AcDbLine
 10
468.3025668389475
 20
102.2662670813221
 30
0.0
 11
468.3025668389475
 21
48.39812902924819
 31
0.0
  0
LINE
  5
10E8B
330
104CE
100
AcDbEntity
  8
30
  6
Continuous
 62
     0
440
 16777216
370
    -2
100
AcDbLine
 10
446.3025639181976
 20
48.8981290292482
 30
0.0
 11
466.3025668389478
 21
48.8981290292482
 31
0.0
  0
INSERT
  5
10E8C
330
104CE
100
AcDbEntity
  8
30
  6
Continuous
 62
     0
440
 16777216
370
    -2
100
AcDbBlockReference
  2
_OPEN
 10
444.3025639181976
 20
48.8981290292482
 30
0.0
 41
2.0
 42
2.0
 43
2.0
 50
180.0
  0
INSERT
  5
10E8D
330
104CE
100
AcDbEntity
  8
30
  6
Continuous
 62
     0
440
 16777216
370
    -2
100
AcDbBlockReference
  2
_OPEN
 10
468.3025668389475
 20
48.8981290292482
 30
0.0
 41
2.0
 42
2.0
 43
2.0
  0
MTEXT
  5
10E8E
330
104CE
100
AcDbEntity
  8
30
  6
Continuous
 62
     0
440
 16777216
100
AcDbMText
 10
456.3025653785727
 20
53.8981290292482
 30
0.0
 40
6.0
 41
0.0
 46
0.0
 71
     5
 72
     1
  1
\A1;24
 73
     1
 44
1.0
  0
POINT
  5
10E8F
330
104CE
100
AcDbEntity
  8
DEFPOINTS
  6
Continuous
 62
     0
440
 16777216
100
AcDbPoint
 10
444.3025639181976
 20
103.2662670813221
 30
0.0
  0
POINT
  5
10E90
330
104CE
100
AcDbEntity
  8
DEFPOINTS
  6
Continuous
 62
     0
440
 16777216
100
AcDbPoint
 10
468.3025668389475
 20
103.2662670813221
 30
0.0
  0
POINT
  5
10E91
330
104CE
100
AcDbEntity
  8
DEFPOINTS
  6
Continuous
 62
     0
440
 16777216
100
AcDbPoint
 10
468.3025668389475
 20
48.8981290292482
 30
0.0
  0
ENDBLK
  5
104D0
330
104CE
100
AcDbEntity
  8
0
100
AcDbBlockEnd
  0
BLOCK
  5
104DB
330
104DA
100
AcDbEntity
  8
0
100
AcDbBlockBegin
  2
*D25
 70
     1
 10
0.0
 20
0.0
 30
0.0
  3
*D25
  1

  0
LINE
  5
10E92
330
104DA
100
AcDbEntity
  8
30
  6
Continuous
 62
     0
440
 16777216
370
    -2
100
AcDbLine
 10
481.178931956068
 20
156.3105959797729
 30
0.0
 11
471.1789319560677
 21
156.3105959797729
 31
0.0
  0
LINE
  5
10E93
330
104DA
100
AcDbEntity
  8
30
  6
Continuous
 62
     0
440
 16777216
370
    -2
100
AcDbLine
 10
471.1789319560677
 20
156.3105959797729
 30
0.0
 11
469.5923853251198
 21
155.0928645693925
 31
0.0
  0
MTEXT
  5
10E94
330
104DA
100
AcDbEntity
  8
30
  6
Continuous
 62
     0
440
 16777216
100
AcDbMText
 10
477.1789319560681
 20
161.3105959797728
 30
0.0
 40
6.0
 41
0.0
 46
0.0
 71
     5
 72
     1
  1
\A1;R1
 73
     1
 44
1.0
  0
INSERT
  5
10E95
330
104DA
100
AcDbEntity
  8
30
  6
Continuous
 62
     0
440
 16777216
370
    -2
100
AcDbBlockReference
  2
_OPEN
 10
468.0058386941715
 20
153.8751331590121
 30
0.0
 41
2.0
 42
2.0
 43
2.0
 50
217.5075311795269
  0
LINE
  5
10E96
330
104DA
100
AcDbEntity
  8
30
  6
Continuous
 62
     0
440
 16777216
370
    -2
100
AcDbLine
 10
467.1225653786975
 20
153.2662674538219
 30
0.0
 11
467.3025653786975
 21
153.2662674538219
 31
0.0
  0
LINE
  5
10E97
330
104DA
100
AcDbEntity
  8
30
  6
Continuous
 62
     0
440
 16777216
370
    -2
100
AcDbLine
 10
467.2125653786975
 20
153.1762674538219
 30
0.0
 11
467.2125653786975
 21
153.3562674538219
 31
0.0
  0
POINT
  5
10E98
330
104DA
100
AcDbEntity
  8
DEFPOINTS
  6
Continuous
 62
     0
440
 16777216
100
AcDbPoint
 10
468.0058386941715
 20
153.8751331590121
 30
0.0
  0
POINT
  5
10E99
330
104DA
100
AcDbEntity
  8
DEFPOINTS
  6
Continuous
 62
     0
440
 16777216
100
AcDbPoint
 10
467.2125653786975
 20
153.2662674538219
 30
0.0
  0
ENDBLK
  5
104DC
330
104DA
100
AcDbEntity
  8
0
100
AcDbBlockEnd
  0
BLOCK
  5
105B3
330
105B2
100
AcDbEntity
  8
0
100
AcDbBlockBegin
  2
*D26
 70
     1
 10
0.0
 20
0.0
 30
0.0
  3
*D26
  1

  0
LINE
  5
10E9A
330
105B2
100
AcDbEntity
  8
30
  6
Continuous
 62
     0
440
 16777216
370
    -2
100
AcDbLine
 10
101.8185738189169
 20
345.25
 30
0.0
 11
101.8185738189169
 21
327.771001561081
 31
0.0
  0
LINE
  5
10E9B
330
105B2
100
AcDbEntity
  8
30
  6
Continuous
 62
     0
440
 16777216
370
    -2
100
AcDbLine
 10
156.8185738189169
 20
345.25
 30
0.0
 11
156.8185738189169
 21
327.771001561081
 31
0.0
  0
LINE
  5
10E9C
330
105B2
100
AcDbEntity
  8
30
  6
Continuous
 62
     0
440
 16777216
370
    -2
100
AcDbLine
 10
103.8185738189169
 20
328.271001561081
 30
0.0
 11
154.8185738189169
 21
328.271001561081
 31
0.0
  0
MTEXT
  5
10E9D
330
105B2
100
AcDbEntity
  8
30
  6
Continuous
 62
     0
440
 16777216
100
AcDbMText
 10
130.2216861471224
 20
335.1337126678122
 30
0.0
 40
6.0
 41
0.0
 46
0.0
 71
     5
 72
     1
  1
\A1;55
 73
     1
 44
1.0
 90
        3
 63
     9
421
 13158600
 45
1.25
441
        0
  0
INSERT
  5
10E9E
330
105B2
100
AcDbEntity
  8
30
  6
Continuous
 62
     0
440
 16777216
370
    -2
100
AcDbBlockReference
  2
_OPEN
 10
101.8185738189169
 20
328.271001561081
 30
0.0
 41
2.0
 42
2.0
 43
2.0
 50
180.0
  0
INSERT
  5
10E9F
330
105B2
100
AcDbEntity
  8
30
  6
Continuous
 62
     0
440
 16777216
370
    -2
100
AcDbBlockReference
  2
_OPEN
 10
156.8185738189169
 20
328.271001561081
 30
0.0
 41
2.0
 42
2.0
 43
2.0
  0
POINT
  5
10EA0
330
105B2
100
AcDbEntity
  8
DEFPOINTS
  6
Continuous
 62
     0
440
 16777216
100
AcDbPoint
 10
101.8185738189169
 20
346.2499999999999
 30
0.0
  0
POINT
  5
10EA1
330
105B2
100
AcDbEntity
  8
DEFPOINTS
  6
Continuous
 62
     0
440
 16777216
100
AcDbPoint
 10
156.8185738189169
 20
346.2499999999999
 30
0.0
  0
POINT
  5
10EA2
330
105B2
100
AcDbEntity
  8
DEFPOINTS
  6
Continuous
 62
     0
440
 16777216
100
AcDbPoint
 10
156.8185738189169
 20
328.271001561081
 30
0.0
  0
ENDBLK
  5
105B4
330
105B2
100
AcDbEntity
  8
0
100
AcDbBlockEnd
  0
BLOCK
  5
105C0
330
105BF
100
AcDbEntity
  8
0
100
AcDbBlockBegin
  2
*D27
 70
     1
 10
0.0
 20
0.0
 30
0.0
  3
*D27
  1

  0
LINE
  5
10EA3
330
105BF
100
AcDbEntity
  8
30
  6
Continuous
 62
     0
440
 16777216
370
    -2
100
AcDbLine
 10
104.1185738189169
 20
394.7499999999998
 30
0.0
 11
104.1185738189169
 21
401.4739102869858
 31
0.0
  0
LINE
  5
10EA4
330
105BF
100
AcDbEntity
  8
30
  6
Continuous
 62
     0
440
 16777216
370
    -2
100
AcDbLine
 10
126.1185738189169
 20
394.7499999999998
 30
0.0
 11
126.1185738189169
 21
401.4739102869858
 31
0.0
  0
LINE
  5
10EA5
330
105BF
100
AcDbEntity
  8
30
  6
Continuous
 62
     0
440
 16777216
370
    -2
100
AcDbLine
 10
106.1185738189169
 20
400.9739102869859
 30
0.0
 11
124.1185738189169
 21
400.9739102869859
 31
0.0
  0
LINE
  5
10EA6
330
105BF
100
AcDbEntity
  8
30
  6
Continuous
 62
     0
440
 16777216
370
    -2
100
AcDbLine
 10
79.90919821069472
 20
400.9739102869859
 30
0.0
 11
104.1185738189169
 21
400.9739102869859
 31
0.0
  0
MTEXT
  5
10EA7
330
105BF
100
AcDbEntity
  8
30
  6
Continuous
 62
     0
440
 16777216
100
AcDbMText
 10
86.90919821069469
 20
405.9739102869857
 30
0.0
 40
6.0
 41
0.0
 46
0.0
 71
     5
 72
     1
  1
\A1;22
 73
     1
 44
1.0
 90
        3
 63
     9
421
 13158600
 45
1.25
441
        0
  0
INSERT
  5
10EA8
330
105BF
100
AcDbEntity
  8
30
  6
Continuous
 62
     0
440
 16777216
370
    -2
100
AcDbBlockReference
  2
_OPEN
 10
104.1185738189169
 20
400.9739102869859
 30
0.0
 41
2.0
 42
2.0
 43
2.0
 50
180.0
  0
INSERT
  5
10EA9
330
105BF
100
AcDbEntity
  8
30
  6
Continuous
 62
     0
440
 16777216
370
    -2
100
AcDbBlockReference
  2
_OPEN
 10
126.1185738189169
 20
400.9739102869859
 30
0.0
 41
2.0
 42
2.0
 43
2.0
  0
POINT
  5
10EAA
330
105BF
100
AcDbEntity
  8
DEFPOINTS
  6
Continuous
 62
     0
440
 16777216
100
AcDbPoint
 10
104.1185738189169
 20
393.75
 30
0.0
  0
POINT
  5
10EAB
330
105BF
100
AcDbEntity
  8
DEFPOINTS
  6
Continuous
 62
     0
440
 16777216
100
AcDbPoint
 10
126.1185738189169
 20
393.75
 30
0.0
  0
POINT
  5
10EAC
330
105BF
100
AcDbEntity
  8
DEFPOINTS
  6
Continuous
 62
     0
440
 16777216
100
AcDbPoint
 10
126.1185738189169
 20
400.9739102869859
 30
0.0
  0
ENDBLK
  5
105C1
330
105BF
100
AcDbEntity
  8
0
100
AcDbBlockEnd
  0
BLOCK
  5
10635
330
1062C
100
AcDbEntity
  8
0
100
AcDbBlockBegin
  2
A$C75756DBA
 70
     0
 10
0.0
 20
0.0
 30
0.0
  3
A$C75756DBA
  1

  0
ARC
  5
1062D
330
1062C
100
AcDbEntity
  8
0
  6
SLD-実線
 62
     7
370
    30
100
AcDbCircle
 10
-4.400000000000003
 20
-9.199999999999988
 30
0.0
 40
0.4000000000000057
100
AcDbArc
 50
180.0
 51
270.0
  0
LINE
  5
1062E
330
1062C
100
AcDbEntity
  8
0
  6
SLD-実線
 62
     7
370
    30
100
AcDbLine
 10
-4.4000001473
 20
-9.600000083499963
 30
0.0
 11
4.400000177600018
 21
-9.600000083499963
 31
0.0
  0
ARC
  5
1062F
330
1062C
100
AcDbEntity
  8
0
  6
SLD-実線
 62
     7
370
    30
100
AcDbCircle
 10
4.400000000000003
 20
-9.199999999999988
 30
0.0
 40
0.4000000000000057
100
AcDbArc
 50
270.0
 51
0.0
  0
LINE
  5
10630
330
1062C
100
AcDbEntity
  8
0
  6
SLD-実線
 62
     7
370
    30
100
AcDbLine
 10
4.799999870600004
 20
-9.200000017899981
 30
0.0
 11
4.799999870600004
 21
9.200000017900007
 31
0.0
  0
ARC
  5
10631
330
1062C
100
AcDbEntity
  8
0
  6
SLD-実線
 62
     7
370
    30
100
AcDbCircle
 10
4.400000000000003
 20
9.200000000000015
 30
0.0
 40
0.3999999999999773
100
AcDbArc
 50
0.0
 51
90.0
  0
LINE
  5
10632
330
1062C
100
AcDbEntity
  8
0
  6
SLD-実線
 62
     7
370
    30
100
AcDbLine
 10
4.400000177600018
 20
9.600000083400004
 30
0.0
 11
-4.4000001473
 21
9.600000083400004
 31
0.0
  0
ARC
  5
10633
330
1062C
100
AcDbEntity
  8
0
  6
SLD-実線
 62
     7
370
    30
100
AcDbCircle
 10
-4.400000000000003
 20
9.200000000000015
 30
0.0
 40
0.4000000000000057
100
AcDbArc
 50
90.0
 51
180.0
  0
LINE
  5
10634
330
1062C
100
AcDbEntity
  8
0
  6
SLD-実線
 62
     7
370
    30
100
AcDbLine
 10
-4.799999840299988
 20
9.200000017900007
 30
0.0
 11
-4.799999840299988
 21
-9.200000017899981
 31
0.0
  0
ENDBLK
  5
10636
330
1062C
100
AcDbEntity
  8
0
100
AcDbBlockEnd
  0
BLOCK
  5
10AEA
330
10AE5
100
AcDbEntity
  8
0
100
AcDbBlockBegin
  2
A$C46AC479A
 70
     0
 10
0.0
 20
0.0
 30
0.0
  3
A$C46AC479A
  1

  0
MTEXT
  5
10AE6
330
10AE5
100
AcDbEntity
  8
5
  6
Continuous
 62
     7
100
AcDbMText
 10
-257.7773767759652
 20
-154.2390184680093
 30
0.0
 40
9.0
 41
0.0
 46
0.0
 71
     7
 72
     5
  1
PS250-PF 3P FC\PPS250-NE 3P FC\PPS250-PE 3P FC
  7
blockfont
 73
     1
 44
1.0
  0
LINE
  5
10AE7
330
10AE5
100
AcDbEntity
  8
16
100
AcDbLine
 10
-504.0203122360586
 20
-164.9671860752637
 30
0.0
 11
-504.0203122360586
 21
-59.96718607526394
 31
0.0
  0
ENDBLK
  5
10AEB
330
10AE5
100
AcDbEntity
  8
0
100
AcDbBlockEnd
  0
BLOCK
  5
10D15
330
10D14
100
AcDbEntity
  8
0
100
AcDbBlockBegin
  2
*D30
 70
     1
 10
0.0
 20
0.0
 30
0.0
  3
*D30
  1

  0
LINE
  5
10F14
330
10D14
100
AcDbEntity
  8
30
  6
Continuous
 62
     0
440
 16777216
370
    -2
100
AcDbLine
 10
152.318573818917
 20
314.2010714015
 30
0.0
 11
186.3158653110513
 21
314.2010714015
 31
0.0
  0
LINE
  5
10F15
330
10D14
100
AcDbEntity
  8
30
  6
Continuous
 62
     0
440
 16777216
370
    -2
100
AcDbLine
 10
152.3185738189169
 20
428.2499999999997
 30
0.0
 11
186.3158653110513
 21
428.2499999999997
 31
0.0
  0
LINE
  5
10F16
330
10D14
100
AcDbEntity
  8
30
  6
Continuous
 62
     0
440
 16777216
370
    -2
100
AcDbLine
 10
185.8158653110513
 20
316.2010714015
 30
0.0
 11
185.8158653110513
 21
426.2499999999998
 31
0.0
  0
INSERT
  5
10F17
330
10D14
100
AcDbEntity
  8
30
  6
Continuous
 62
     0
440
 16777216
370
    -2
100
AcDbBlockReference
  2
_OPEN
 10
185.8158653110513
 20
314.2010714015
 30
0.0
 41
2.0
 42
2.0
 43
2.0
 50
270.0
  0
INSERT
  5
10F18
330
10D14
100
AcDbEntity
  8
30
  6
Continuous
 62
     0
440
 16777216
370
    -2
100
AcDbBlockReference
  2
_OPEN
 10
185.8158653110513
 20
428.2499999999997
 30
0.0
 41
2.0
 42
2.0
 43
2.0
 50
90.0
  0
MTEXT
  5
10F19
330
10D14
100
AcDbEntity
  8
30
  6
Continuous
 62
     0
440
 16777216
100
AcDbMText
 10
180.8158653110513
 20
371.22553570075
 30
0.0
 40
6.0
 41
0.0
 46
0.0
 71
     5
 72
     1
  1
\A1;114
 11
0.0000000000000001
 21
1.0
 31
0.0
 73
     1
 44
1.0
  0
POINT
  5
10F1A
330
10D14
100
AcDbEntity
  8
DEFPOINTS
  6
Continuous
 62
     0
440
 16777216
100
AcDbPoint
 10
151.318573818917
 20
314.2010714015
 30
0.0
  0
POINT
  5
10F1B
330
10D14
100
AcDbEntity
  8
DEFPOINTS
  6
Continuous
 62
     0
440
 16777216
100
AcDbPoint
 10
151.3185738189169
 20
428.2499999999997
 30
0.0
  0
POINT
  5
10F1C
330
10D14
100
AcDbEntity
  8
DEFPOINTS
  6
Continuous
 62
     0
440
 16777216
100
AcDbPoint
 10
185.8158653110513
 20
428.2499999999997
 30
0.0
  0
ENDBLK
  5
10D16
330
10D14
100
AcDbEntity
  8
0
100
AcDbBlockEnd
  0
ENDSEC
  0
SECTION
  2
ENTITIES
  0
LINE
  5
B4
330
1E
100
AcDbEntity
  8
16
  6
DASHDOT
100
AcDbLine
 10
129.318573818917
 20
297.702803797098
 30
0.0
 11
129.318573818917
 21
476.8573578546828
 31
0.0
  0
LINE
  5
1C9B
330
1E
100
AcDbEntity
  8
16
  6
DASHDOT
100
AcDbLine
 10
370.8689918057528
 20
371.25
 30
0.0
 11
257.9995944236411
 21
371.25
 31
0.0
  0
LINE
  5
2260
330
1E
100
AcDbEntity
  8
16
  6
DASHDOT
100
AcDbLine
 10
169.6677526774258
 20
128.2662674538219
 30
0.0
 11
86.44124696879154
 21
128.2662674538219
 31
0.0
  0
LINE
  5
2261
330
1E
100
AcDbEntity
  8
16
  6
DASHDOT
100
AcDbLine
 10
129.318573818917
 20
50.01237515496653
 30
0.0
 11
129.318573818917
 21
206.0114684452526
 31
0.0
  0
DIMENSION
  5
54D8
330
1E
100
AcDbEntity
  8
30
  6
Continuous
100
AcDbDimension
280
     0
  2
*D1
 10
126.4589889190976
 20
180.5843705700042
 30
0.0
 11
161.2840287753378
 21
197.9182834241715
 31
0.0
 70
   163
  1
M4×0.7
 71
     5
 42
6.000000531174037
 73
     0
 74
     0
 75
     0
  3
STANDARD
100
AcDbDiametricDimension
 15
130.7486950690674
 25
184.779418546011
 35
0.0
 40
0.0
1001
ACAD
1000
DSTYLE
1002
{
1070
   288
1070
     1
1002
}
  0
LINE
  5
583B
330
1E
100
AcDbEntity
  8
18
100
AcDbLine
 10
127.8185738189169
 20
486.2499999999993
 30
0.0
 11
127.8185738189169
 21
436.2000012167498
 31
0.0
  0
LINE
  5
583C
330
1E
100
AcDbEntity
  8
18
100
AcDbLine
 10
130.8185738189169
 20
486.2499999999993
 30
0.0
 11
130.8185738189169
 21
436.2000012167498
 31
0.0
  0
DIMENSION
  5
5844
330
1E
100
AcDbEntity
  8
30
  6
Continuous
100
AcDbDimension
280
     0
  2
*D2
 10
159.318573818917
 20
270.4461849705708
 30
0.0
 11
129.318573818917
 21
275.4461849705708
 31
0.0
 70
    32
 71
     5
 42
60.0
 73
     0
 74
     0
 75
     0
  3
STANDARD
100
AcDbAlignedDimension
 13
99.31857381891695
 23
306.201071418
 33
0.0
 14
159.318573818917
 24
306.201071418
 34
0.0
 50
180.0
100
AcDbRotatedDimension
1001
ACAD
1000
DSTYLE
1002
{
1070
    79
1070
     3
1002
}
  0
LINE
  5
5845
330
1E
100
AcDbEntity
  8
10
  6
CONTINOUS
100
AcDbLine
 10
99.31857381891701
 20
320.2499999999998
 30
0.0
 11
159.318573818917
 21
320.2499999999998
 31
0.0
  0
DIMENSION
  5
5847
330
1E
100
AcDbEntity
  8
30
  6
Continuous
100
AcDbDimension
280
     0
  2
*D3
 10
144.3185738189169
 20
281.5738651181837
 30
0.0
 11
129.318573818917
 21
286.5738651181837
 31
0.0
 70
    32
 71
     5
 42
30.0
 73
     0
 74
     0
 75
     0
  3
STANDARD
100
AcDbAlignedDimension
 13
114.3185738189169
 23
314.2010714015
 33
0.0
 14
144.3185738189169
 24
314.2010714015
 34
0.0
 50
180.0
100
AcDbRotatedDimension
1001
ACAD
1000
DSTYLE
1002
{
1070
    79
1070
     3
1002
}
  0
CIRCLE
  5
5848
330
1E
100
AcDbEntity
  8
24
  6
CONTINOUS
100
AcDbCircle
 10
144.3185738189169
 20
314.2010714015
 30
0.0
 40
3.5
  0
LINE
  5
584A
330
1E
100
AcDbEntity
  8
17
  6
DASHDOT
100
AcDbLine
 10
137.3185738189169
 20
314.2010714015
 30
0.0
 11
151.318573818917
 21
314.2010714015
 31
0.0
  0
LINE
  5
584B
330
1E
100
AcDbEntity
  8
10
  6
CONTINOUS
100
AcDbLine
 10
148.068573818917
 20
320.2010714014999
 30
0.0
 11
140.5685738189169
 21
320.2010714014999
 31
0.0
  0
ARC
  5
584C
330
1E
100
AcDbEntity
  8
10
  6
CONTINOUS
100
AcDbCircle
 10
118.0685738189169
 20
315.2010714015
 30
0.0
 40
5.0
100
AcDbArc
 50
0.0
 51
90.0
  0
CIRCLE
  5
584D
330
1E
100
AcDbEntity
  8
24
  6
CONTINOUS
100
AcDbCircle
 10
114.3185738189169
 20
314.2010714014999
 30
0.0
 40
3.5
  0
LINE
  5
584E
330
1E
100
AcDbEntity
  8
17
  6
DASHDOT
100
AcDbLine
 10
114.3185738189169
 20
309.2661742337849
 30
0.0
 11
114.3185738189169
 21
318.8533276017141
 31
0.0
  0
LINE
  5
584F
330
1E
100
AcDbEntity
  8
10
  6
CONTINOUS
100
AcDbLine
 10
105.5685738189169
 20
315.2010714015
 30
0.0
 11
105.5685738189169
 21
306.201071418
 31
0.0
  0
LINE
  5
5850
330
1E
100
AcDbEntity
  8
10
  6
CONTINOUS
100
AcDbLine
 10
110.568573818917
 20
320.2010714014999
 30
0.0
 11
118.0685738189169
 21
320.2010714014999
 31
0.0
  0
LINE
  5
5851
330
1E
100
AcDbEntity
  8
17
  6
DASHDOT
100
AcDbLine
 10
121.3185738189169
 20
314.2010714015
 30
0.0
 11
107.318573818917
 21
314.2010714015
 31
0.0
  0
ARC
  5
5852
330
1E
100
AcDbEntity
  8
10
  6
CONTINOUS
100
AcDbCircle
 10
110.568573818917
 20
315.2010714015
 30
0.0
 40
5.0
100
AcDbArc
 50
90.0
 51
180.0
  0
CIRCLE
  5
5853
330
1E
100
AcDbEntity
  8
12
  6
CONTINOUS
100
AcDbCircle
 10
129.3185738189169
 20
315.2010714015
 30
0.0
 40
4.0
  0
LINE
  5
5854
330
1E
100
AcDbEntity
  8
10
  6
CONTINOUS
100
AcDbLine
 10
123.068573818917
 20
315.2010714015
 30
0.0
 11
123.068573818917
 21
306.201071418
 31
0.0
  0
LINE
  5
5855
330
1E
100
AcDbEntity
  8
10
  6
CONTINOUS
100
AcDbLine
 10
135.5685738189169
 20
315.2010714015
 30
0.0
 11
135.568573818917
 21
306.201071418
 31
0.0
  0
LINE
  5
5856
330
1E
100
AcDbEntity
  8
12
  6
DASHED
100
AcDbLine
 10
123.8185738189169
 20
315.2010714015
 30
0.0
 11
134.8185738189169
 21
315.2010714015
 31
0.0
  0
ARC
  5
5857
330
1E
100
AcDbEntity
  8
10
  6
CONTINOUS
100
AcDbCircle
 10
-140.5685738189169
 20
315.2010714015
 30
0.0
 40
5.0
210
0.0
220
0.0
230
-1.0
100
AcDbArc
 50
0.0
 51
90.0
  0
LINE
  5
5858
330
1E
100
AcDbEntity
  8
17
  6
DASHDOT
100
AcDbLine
 10
144.3185738189169
 20
309.4373749214018
 30
0.0
 11
144.3185738189169
 21
318.7677239833428
 31
0.0
  0
LINE
  5
5859
330
1E
100
AcDbEntity
  8
10
  6
CONTINOUS
100
AcDbLine
 10
153.068573818917
 20
315.2010714015
 30
0.0
 11
153.068573818917
 21
306.201071418
 31
0.0
  0
ARC
  5
585A
330
1E
100
AcDbEntity
  8
10
  6
CONTINOUS
100
AcDbCircle
 10
-148.068573818917
 20
315.2010714015
 30
0.0
 40
5.0
210
0.0
220
0.0
230
-1.0
100
AcDbArc
 50
90.0
 51
180.0
  0
LINE
  5
585B
330
1E
100
AcDbEntity
  8
10
  6
CONTINOUS
100
AcDbLine
 10
99.31857381891701
 20
422.2499999999998
 30
0.0
 11
159.318573818917
 21
422.2499999999998
 31
0.0
  0
LINE
  5
5866
330
1E
100
AcDbEntity
  8
10
  6
CONTINOUS
100
AcDbLine
 10
148.0685738189169
 20
422.2499999999998
 30
0.0
 11
140.5685738189169
 21
422.2499999999998
 31
0.0
  0
LINE
  5
5867
330
1E
100
AcDbEntity
  8
17
  6
DASHDOT
100
AcDbLine
 10
137.3185738189169
 20
428.2499999999997
 30
0.0
 11
151.3185738189169
 21
428.2499999999997
 31
0.0
  0
LINE
  5
5869
330
1E
100
AcDbEntity
  8
17
  6
DASHDOT
100
AcDbLine
 10
114.3185738189169
 20
435.2499999999998
 30
0.0
 11
114.3185738189169
 21
421.2499999999998
 31
0.0
  0
LINE
  5
586A
330
1E
100
AcDbEntity
  8
10
  6
CONTINOUS
100
AcDbLine
 10
105.5685738189169
 20
427.2499999999998
 30
0.0
 11
105.5685738189169
 21
436.2000012167498
 31
0.0
  0
LINE
  5
586B
330
1E
100
AcDbEntity
  8
10
  6
CONTINOUS
100
AcDbLine
 10
123.0685738189169
 20
427.2499999999998
 30
0.0
 11
123.0685738189169
 21
436.2000012167498
 31
0.0
  0
LINE
  5
586C
330
1E
100
AcDbEntity
  8
10
  6
CONTINOUS
100
AcDbLine
 10
135.5685738189169
 20
427.2499999999998
 30
0.0
 11
135.5685738189169
 21
436.2000012167498
 31
0.0
  0
ARC
  5
586D
330
1E
100
AcDbEntity
  8
10
  6
CONTINOUS
100
AcDbCircle
 10
-118.0685738189169
 20
427.2499999999998
 30
0.0
 40
5.0
210
0.0
220
0.0
230
-1.0
100
AcDbArc
 50
180.0
 51
270.0
  0
LINE
  5
586E
330
1E
100
AcDbEntity
  8
10
  6
CONTINOUS
100
AcDbLine
 10
110.568573818917
 20
422.2499999999998
 30
0.0
 11
118.0685738189169
 21
422.2499999999998
 31
0.0
  0
LINE
  5
586F
330
1E
100
AcDbEntity
  8
17
  6
DASHDOT
100
AcDbLine
 10
121.3185738189169
 20
428.2499999999997
 30
0.0
 11
107.318573818917
 21
428.2499999999997
 31
0.0
  0
ARC
  5
5870
330
1E
100
AcDbEntity
  8
10
  6
CONTINOUS
100
AcDbCircle
 10
-110.568573818917
 20
427.2499999999998
 30
0.0
 40
5.0
210
0.0
220
0.0
230
-1.0
100
AcDbArc
 50
270.0
 51
0.0
  0
CIRCLE
  5
5871
330
1E
100
AcDbEntity
  8
12
  6
CONTINOUS
100
AcDbCircle
 10
129.3185738189169
 20
427.2499999999998
 30
0.0
 40
4.0
  0
LINE
  5
5872
330
1E
100
AcDbEntity
  8
12
  6
DASHED
100
AcDbLine
 10
123.8185738189169
 20
427.2499999999998
 30
0.0
 11
134.8185738189169
 21
427.2499999999998
 31
0.0
  0
ARC
  5
5873
330
1E
100
AcDbEntity
  8
10
  6
CONTINOUS
100
AcDbCircle
 10
140.5685738189169
 20
427.2499999999998
 30
0.0
 40
5.0
100
AcDbArc
 50
180.0
 51
270.0
  0
LINE
  5
5875
330
1E
100
AcDbEntity
  8
10
  6
CONTINOUS
100
AcDbLine
 10
153.0685738189169
 20
427.2499999999998
 30
0.0
 11
153.0685738189169
 21
436.2000012167498
 31
0.0
  0
LINE
  5
5876
330
1E
100
AcDbEntity
  8
17
  6
DASHDOT
100
AcDbLine
 10
144.3185738189169
 20
435.2499999999998
 30
0.0
 11
144.3185738189169
 21
421.2499999999998
 31
0.0
  0
ARC
  5
5877
330
1E
100
AcDbEntity
  8
10
  6
CONTINOUS
100
AcDbCircle
 10
148.0685738189169
 20
427.2499999999998
 30
0.0
 40
5.0
100
AcDbArc
 50
270.0
 51
0.0
  0
LINE
  5
5878
330
1E
100
AcDbEntity
  8
18
100
AcDbLine
 10
130.8185738189169
 20
486.2499999999993
 30
0.0
 11
127.8185738189169
 21
486.2499999999993
 31
0.0
  0
LINE
  5
5AE7
330
1E
100
AcDbEntity
  8
12
  6
Continuous
 62
     3
100
AcDbLine
 10
123.8185738189169
 20
72.26626745382214
 30
0.0
 11
134.8185738189169
 21
72.26626745382214
 31
0.0
  0
CIRCLE
  5
5AE8
330
1E
100
AcDbEntity
  8
12
  6
Continuous
 62
     3
100
AcDbCircle
 10
129.318573818917
 20
72.26626745382214
 30
0.0
 40
2.0
  0
LINE
  5
5AEA
330
1E
100
AcDbEntity
  8
12
  6
Continuous
 62
     3
100
AcDbLine
 10
123.8185738189169
 20
183.266267453822
 30
0.0
 11
134.8185738189169
 21
183.266267453822
 31
0.0
  0
CIRCLE
  5
5AEB
330
1E
100
AcDbEntity
  8
12
  6
Continuous
 62
     3
100
AcDbCircle
 10
129.318573818917
 20
183.266267453822
 30
0.0
 40
2.0
  0
LINE
  5
5C86
330
1E
100
AcDbEntity
  8
10
  6
CONTINOUS
100
AcDbLine
 10
99.31857381891701
 20
579.4088240294938
 30
0.0
 11
99.31857381891688
 21
640.4088240294935
 31
0.0
  0
LINE
  5
5C8A
330
1E
100
AcDbEntity
  8
10
  6
CONTINOUS
100
AcDbLine
 10
159.318573818917
 20
579.4088240294938
 30
0.0
 11
159.318573818917
 21
640.4088240294935
 31
0.0
  0
LINE
  5
5C8E
330
1E
100
AcDbEntity
  8
10
  6
CONTINOUS
100
AcDbLine
 10
103.3006702837457
 20
561.9088240294936
 30
0.0
 11
125.318573818917
 21
561.9088240294936
 31
0.0
  0
LINE
  5
5C98
330
1E
100
AcDbEntity
  8
10
  6
CONTINOUS
100
AcDbLine
 10
99.31857381891688
 20
640.4088240294935
 30
0.0
 11
159.318573818917
 21
640.4088240294935
 31
0.0
  0
LINE
  5
5CA2
330
1E
100
AcDbEntity
  8
17
  6
DASHDOT
100
AcDbLine
 10
114.318573818917
 20
604.2088240294932
 30
0.0
 11
114.318573818917
 21
621.4088240294938
 31
0.0
  0
LINE
  5
5CA3
330
1E
100
AcDbEntity
  8
24
  6
CONTINOUS
100
AcDbLine
 10
103.818573818917
 20
616.4088240294937
 30
0.0
 11
124.8185738189171
 21
616.4088240294937
 31
0.0
  0
LINE
  5
5CA4
330
1E
100
AcDbEntity
  8
24
  6
CONTINOUS
100
AcDbLine
 10
106.618573818917
 20
614.4088240294936
 30
0.0
 11
122.018573818917
 21
614.4088240294936
 31
0.0
  0
LINE
  5
5CA5
330
1E
100
AcDbEntity
  8
24
  6
CONTINOUS
100
AcDbLine
 10
109.318573818917
 20
609.2088240294936
 30
0.0
 11
119.3185738189169
 21
609.2088240294936
 31
0.0
  0
LINE
  5
5CA6
330
1E
100
AcDbEntity
  8
24
  6
CONTINOUS
100
AcDbLine
 10
103.818573818917
 20
618.4088240294937
 30
0.0
 11
124.8185738189171
 21
618.4088240294937
 31
0.0
  0
LINE
  5
5CA7
330
1E
100
AcDbEntity
  8
24
  6
CONTINOUS
100
AcDbLine
 10
122.018573818917
 20
614.4088240294936
 30
0.0
 11
122.018573818917
 21
616.4088240294937
 31
0.0
  0
ARC
  5
5CA8
330
1E
100
AcDbEntity
  8
24
  6
CONTINOUS
100
AcDbCircle
 10
119.318573818917
 20
611.2088240294935
 30
0.0
 40
2.0
100
AcDbArc
 50
270.0
 51
0.0
  0
LINE
  5
5CA9
330
1E
100
AcDbEntity
  8
24
  6
CONTINOUS
100
AcDbLine
 10
121.318573818917
 20
611.2088240294935
 30
0.0
 11
121.318573818917
 21
614.4088240294936
 31
0.0
  0
LINE
  5
5CAA
330
1E
100
AcDbEntity
  8
24
  6
CONTINOUS
100
AcDbLine
 10
124.8185738189171
 20
616.4088240294937
 30
0.0
 11
124.8185738189171
 21
618.4088240294937
 31
0.0
  0
LINE
  5
5CAB
330
1E
100
AcDbEntity
  8
24
  6
CONTINOUS
100
AcDbLine
 10
106.618573818917
 20
614.4088240294936
 30
0.0
 11
106.618573818917
 21
616.4088240294937
 31
0.0
  0
ARC
  5
5CAC
330
1E
100
AcDbEntity
  8
24
  6
CONTINOUS
100
AcDbCircle
 10
109.318573818917
 20
611.2088240294935
 30
0.0
 40
2.0
100
AcDbArc
 50
180.0
 51
270.0
  0
LINE
  5
5CAD
330
1E
100
AcDbEntity
  8
24
  6
CONTINOUS
100
AcDbLine
 10
107.318573818917
 20
611.2088240294935
 30
0.0
 11
107.318573818917
 21
614.4088240294936
 31
0.0
  0
LINE
  5
5D3B
330
1E
100
AcDbEntity
  8
24
  6
CONTINOUS
100
AcDbLine
 10
133.8185738189169
 20
618.4088240294937
 30
0.0
 11
154.818573818917
 21
618.4088240294937
 31
0.0
  0
LINE
  5
5D3C
330
1E
100
AcDbEntity
  8
24
  6
CONTINOUS
100
AcDbLine
 10
139.3185738189169
 20
609.2088240294936
 30
0.0
 11
149.3185738189169
 21
609.2088240294936
 31
0.0
  0
LINE
  5
5D3D
330
1E
100
AcDbEntity
  8
24
  6
CONTINOUS
100
AcDbLine
 10
136.618573818917
 20
614.4088240294936
 30
0.0
 11
152.018573818917
 21
614.4088240294936
 31
0.0
  0
LINE
  5
5D3E
330
1E
100
AcDbEntity
  8
24
  6
CONTINOUS
100
AcDbLine
 10
133.8185738189169
 20
616.4088240294937
 30
0.0
 11
154.818573818917
 21
616.4088240294937
 31
0.0
  0
LINE
  5
5D3F
330
1E
100
AcDbEntity
  8
24
  6
CONTINOUS
100
AcDbLine
 10
136.618573818917
 20
614.4088240294936
 30
0.0
 11
136.618573818917
 21
616.4088240294937
 31
0.0
  0
LINE
  5
5D40
330
1E
100
AcDbEntity
  8
17
  6
DASHDOT
100
AcDbLine
 10
144.3185738189169
 20
604.2088240294932
 30
0.0
 11
144.3185738189169
 21
621.4088240294938
 31
0.0
  0
ARC
  5
5D41
330
1E
100
AcDbEntity
  8
24
  6
CONTINOUS
100
AcDbCircle
 10
139.318573818917
 20
611.2088240294935
 30
0.0
 40
2.0
100
AcDbArc
 50
180.0
 51
270.0
  0
LINE
  5
5D42
330
1E
100
AcDbEntity
  8
24
  6
CONTINOUS
100
AcDbLine
 10
137.3185738189169
 20
611.2088240294935
 30
0.0
 11
137.3185738189169
 21
614.4088240294936
 31
0.0
  0
LINE
  5
5D43
330
1E
100
AcDbEntity
  8
24
  6
CONTINOUS
100
AcDbLine
 10
152.018573818917
 20
614.4088240294936
 30
0.0
 11
152.018573818917
 21
616.4088240294937
 31
0.0
  0
LINE
  5
5D44
330
1E
100
AcDbEntity
  8
24
  6
CONTINOUS
100
AcDbLine
 10
151.318573818917
 20
611.2088240294935
 30
0.0
 11
151.318573818917
 21
614.4088240294936
 31
0.0
  0
ARC
  5
5D45
330
1E
100
AcDbEntity
  8
24
  6
CONTINOUS
100
AcDbCircle
 10
149.318573818917
 20
611.2088240294935
 30
0.0
 40
2.0
100
AcDbArc
 50
270.0
 51
0.0
  0
LINE
  5
5D46
330
1E
100
AcDbEntity
  8
24
  6
CONTINOUS
100
AcDbLine
 10
154.818573818917
 20
616.4088240294937
 30
0.0
 11
154.818573818917
 21
618.4088240294937
 31
0.0
  0
DIMENSION
  5
5E68
330
1E
100
AcDbEntity
  8
30
  6
Continuous
100
AcDbDimension
280
     0
  2
*D4
 10
144.3185738189169
 20
655.2975459602214
 30
0.0
 11
129.318573818917
 21
660.2975459602214
 31
0.0
 70
    32
 71
     5
 42
29.99999999999997
 73
     0
 74
     0
 75
     0
  3
STANDARD
100
AcDbAlignedDimension
 13
114.318573818917
 23
621.4088240294938
 33
0.0
 14
144.3185738189169
 24
621.4088240294938
 34
0.0
100
AcDbRotatedDimension
1001
ACAD
1000
DSTYLE
1002
{
1070
    79
1070
     3
1002
}
  0
DIMENSION
  5
5EB9
330
1E
100
AcDbEntity
  8
30
  6
Continuous
100
AcDbDimension
280
     0
  2
*D5
 10
208.5339272522488
 20
436.2000012167498
 30
0.0
 11
208.5339272522487
 21
463.3495721543936
 31
0.0
 70
   160
 71
     5
 42
50.04999878324952
 73
     0
 74
     0
 75
     0
  3
STANDARD
100
AcDbAlignedDimension
 13
130.8185738189169
 23
486.2499999999993
 33
0.0
 14
159.318573818917
 24
436.2000012167498
 34
0.0
 50
90.0
100
AcDbRotatedDimension
1001
ACAD
1000
DSTYLE
1002
{
1070
    79
1070
     3
1002
}
  0
DIMENSION
  5
5EC6
330
1E
100
AcDbEntity
  8
30
  6
Continuous
100
AcDbDimension
280
     0
  2
*D6
 10
208.5339272522487
 20
306.201071418
 30
0.0
 11
208.5339272522487
 21
371.2005363173749
 31
0.0
 70
   160
 71
     5
 42
129.9989297987499
 73
     0
 74
     0
 75
     0
  3
STANDARD
100
AcDbAlignedDimension
 13
159.318573818917
 23
436.2000012167498
 33
0.0
 14
159.318573818917
 24
306.201071418
 34
0.0
 50
90.0
100
AcDbRotatedDimension
1001
ACAD
1000
DSTYLE
1002
{
1070
    79
1070
     3
1070
   279
1070
     1
1002
}
  0
DIMENSION
  5
616E
330
1E
100
AcDbEntity
  8
30
  6
Continuous
100
AcDbDimension
280
     0
  2
*D9
 10
371.1174609380799
 20
102.2662674538221
 30
0.0
 11
366.1174609380799
 21
128.2662674538222
 31
0.0
 70
    32
 71
     5
 42
52.00000000000001
 73
     0
 74
     0
 75
     0
  3
STANDARD
100
AcDbAlignedDimension
 13
337.099630583863
 23
154.2662674538221
 33
0.0
 14
337.099630583863
 24
102.2662674538221
 34
0.0
 50
90.0
100
AcDbRotatedDimension
1001
ACAD
1000
DSTYLE
1002
{
1070
    79
1070
     3
1002
}
  0
LINE
  5
616F
330
1E
100
AcDbEntity
  8
11
 48
2.0
100
AcDbLine
 10
336.5996305838633
 20
153.2662674538221
 30
0.0
 11
336.5996305838633
 21
103.2662674538221
 31
0.0
  0
LINE
  5
6170
330
1E
100
AcDbEntity
  8
11
 48
2.0
100
AcDbLine
 10
279.5996305838631
 20
153.2662674538221
 30
0.0
 11
279.5996305838631
 21
103.2662674538221
 31
0.0
  0
LINE
  5
6173
330
1E
100
AcDbEntity
  8
16
  6
DASHDOT
100
AcDbLine
 10
308.0996305838634
 20
53.91796586668057
 30
0.0
 11
308.0996305838634
 21
206.0114684452526
 31
0.0
  0
LINE
  5
6174
330
1E
100
AcDbEntity
  8
11
 48
2.0
100
AcDbLine
 10
280.5996305838631
 20
102.2662674538221
 30
0.0
 11
335.5996305838634
 21
102.2662674538221
 31
0.0
  0
DIMENSION
  5
6175
330
1E
100
AcDbEntity
  8
30
  6
Continuous
100
AcDbDimension
280
     0
  2
*D7
 10
336.5996305838633
 20
46.07554712722645
 30
0.0
 11
308.0996305838632
 21
51.07554712722645
 31
0.0
 70
    32
 71
     5
 42
57.00000000000023
 73
     0
 74
     0
 75
     0
  3
STANDARD
100
AcDbAlignedDimension
 13
279.5996305838631
 23
103.266267453822
 33
0.0
 14
336.5996305838633
 24
103.266267453822
 34
0.0
 50
180.0
100
AcDbRotatedDimension
1001
ACAD
1000
DSTYLE
1002
{
1070
    79
1070
     3
1002
}
  0
LINE
  5
6177
330
1E
100
AcDbEntity
  8
16
  6
DASHDOT
100
AcDbLine
 10
361.9890902953664
 20
128.2662674538219
 30
0.0
 11
251.0833490978755
 21
128.2662674538219
 31
0.0
  0
LINE
  5
617F
330
1E
100
AcDbEntity
  8
11
 48
2.0
100
AcDbLine
 10
280.5996305838631
 20
154.2662674538221
 30
0.0
 11
335.5996305838634
 21
154.2662674538221
 31
0.0
  0
DIMENSION
  5
6186
330
1E
100
AcDbEntity
  8
30
  6
Continuous
100
AcDbDimension
280
     0
  2
*D8
 10
335.8673975368298
 20
153.5340344067884
 30
0.0
 11
346.0565601804153
 21
161.2636710759418
 31
0.0
 70
    36
  1
<>
 71
     5
 42
0.9999999999999431
 73
     0
 74
     0
 75
     0
  3
STANDARD
100
AcDbRadialDimension
 15
336.7052300655468
 25
154.0799617406191
 35
0.0
 40
0.0
1001
ACAD
1000
DSTYLE
1002
{
1070
   288
1070
     1
1002
}
  0
MTEXT
  5
6269
330
1E
100
AcDbEntity
  8
19
  6
Continuous
100
AcDbMText
 10
326.3487103694692
 20
629.9007406937865
 30
0.0
 40
8.0
 41
150.2893024693628
 46
42.86197611701783
 71
     1
 72
     5
  1
PS125-NF 2P FC\PPS50-PF 2P FC\PPS125-PF 2P FC
  7
STANDARD1
 73
     1
 44
1.0
  0
LINE
  5
6317
330
1E
100
AcDbEntity
  8
10
  6
CONTINOUS
100
AcDbLine
 10
99.31857381891701
 20
579.4088240294938
 30
0.0
 11
159.318573818917
 21
579.4088240294938
 31
0.0
  0
LINE
  5
6338
330
1E
100
AcDbEntity
  8
10
  6
CONTINOUS
100
AcDbLine
 10
99.31857381891701
 20
579.4088240294938
 30
0.0
 11
99.31857381891701
 21
572.4088240294937
 31
0.0
  0
LINE
  5
6339
330
1E
100
AcDbEntity
  8
10
  6
CONTINOUS
100
AcDbLine
 10
159.318573818917
 20
579.4088240294938
 30
0.0
 11
159.318573818917
 21
572.4088240294937
 31
0.0
  0
LINE
  5
633A
330
1E
100
AcDbEntity
  8
10
  6
CONTINOUS
100
AcDbLine
 10
99.31857381891701
 20
572.4088240294937
 30
0.0
 11
159.318573818917
 21
572.4088240294937
 31
0.0
  0
LINE
  5
633B
330
1E
100
AcDbEntity
  8
10
  6
CONTINOUS
100
AcDbLine
 10
101.8185738189169
 20
572.4088240294934
 30
0.0
 11
101.8185738189169
 21
568.4088240294934
 31
0.0
  0
LINE
  5
633C
330
1E
100
AcDbEntity
  8
10
  6
CONTINOUS
100
AcDbLine
 10
156.8185738189169
 20
572.4088240294934
 30
0.0
 11
156.8185738189169
 21
568.4088240294934
 31
0.0
  0
LINE
  5
633D
330
1E
100
AcDbEntity
  8
10
  6
CONTINOUS
100
AcDbLine
 10
101.8185738189169
 20
568.4088240294934
 30
0.0
 11
156.8185738189169
 21
568.4088240294934
 31
0.0
  0
LINE
  5
6366
330
1E
100
AcDbEntity
  8
10
  6
CONTINOUS
100
AcDbLine
 10
103.3006702837457
 20
561.9088240294936
 30
0.0
 11
103.3006702837457
 21
568.4088240294936
 31
0.0
  0
LINE
  5
6367
330
1E
100
AcDbEntity
  8
10
  6
CONTINOUS
100
AcDbLine
 10
125.318573818917
 20
561.9088240294936
 30
0.0
 11
125.318573818917
 21
568.4088240294936
 31
0.0
  0
LINE
  5
6544
330
1E
100
AcDbEntity
  8
10
  6
CONTINOUS
100
AcDbLine
 10
121.318573818917
 20
561.9088240294936
 30
0.0
 11
121.318573818917
 21
544.9088240294935
 31
0.0
  0
LINE
  5
6545
330
1E
100
AcDbEntity
  8
10
  6
CONTINOUS
100
AcDbLine
 10
121.318573818917
 20
544.9088240294935
 30
0.0
 11
107.318573818917
 21
544.9088240294935
 31
0.0
  0
LINE
  5
6546
330
1E
100
AcDbEntity
  8
10
  6
CONTINOUS
100
AcDbLine
 10
107.318573818917
 20
544.9088240294935
 30
0.0
 11
107.318573818917
 21
561.9088240294936
 31
0.0
  0
LINE
  5
663A
330
1E
100
AcDbEntity
  8
16
  6
DASHDOT
100
AcDbLine
 10
129.318573818917
 20
559.7095256631921
 30
0.0
 11
129.318573818917
 21
649.0349143101172
 31
0.0
  0
LINE
  5
FF98
330
1E
100
AcDbEntity
  8
12
  6
DASHED
100
AcDbLine
 10
129.3185738189169
 20
434.2499999999998
 30
0.0
 11
129.3185738189169
 21
420.2499999999998
 31
0.0
  0
CIRCLE
  5
FFCE
330
1E
100
AcDbEntity
  8
17
  6
CONTINOUS
100
AcDbCircle
 10
450.1074811053615
 20
425.1660206037691
 30
0.0
 40
4.5
  0
LINE
  5
FFCF
330
1E
100
AcDbEntity
  8
24
  6
Continuous
100
AcDbLine
 10
460.1074813396111
 20
416.1660205690194
 30
0.0
 11
460.1074813396111
 21
440.9147175145193
 31
0.0
  0
LINE
  5
FFD0
330
1E
100
AcDbEntity
  8
24
  6
Continuous
100
AcDbLine
 10
440.1074808551113
 20
416.1660205690194
 30
0.0
 11
460.1074813396111
 21
416.1660205690194
 31
0.0
  0
LINE
  5
FFD1
330
1E
100
AcDbEntity
  8
24
  6
Continuous
100
AcDbLine
 10
440.1074808551113
 20
440.9147175145193
 30
0.0
 11
440.1074808551113
 21
416.1660205690194
 31
0.0
  0
SPLINE
  5
FFD2
330
1E
100
AcDbEntity
  8
24
  6
Continuous
100
AcDbSpline
210
0.0
220
0.0
230
1.0
 70
     8
 71
     3
 72
     9
 73
     5
 74
     0
 42
0.000000001
 43
0.0000000001
 40
0.0
 40
0.0
 40
0.0
 40
0.0
 40
0.4831447904732653
 40
1.0
 40
1.0
 40
1.0
 40
1.0
 10
460.1074811052368
 20
440.9147175842561
 30
0.0
 10
456.6929844152823
 20
436.1184747083353
 30
0.0
 10
449.8923679796281
 20
440.5587870694803
 30
0.0
 10
443.0311827585676
 20
447.1651351270391
 30
0.0
 10
440.1074811052374
 20
440.9147175842561
 30
0.0
  0
DIMENSION
  5
FFD4
330
1E
100
AcDbEntity
  8
30
  6
Continuous
100
AcDbDimension
280
     0
  2
*D11
 10
477.1767377577644
 20
416.1660206037693
 30
0.0
 11
477.1767377577642
 21
446.9660206037693
 31
0.0
 70
   160
  1
<> (max.)
 71
     2
 42
9.0
 73
     0
 74
     0
 75
     0
  3
STANDARD1
100
AcDbAlignedDimension
 13
457.1074811053613
 23
425.1660206037691
 33
0.0
 14
460.1074811053615
 24
416.1660206037693
 34
0.0
 50
90.0
100
AcDbRotatedDimension
  0
DIMENSION
  5
FFD5
330
1E
100
AcDbEntity
  8
30
  6
Continuous
100
AcDbDimension
280
     0
  2
*D12
 10
460.1074811053615
 20
402.9290684996547
 30
0.0
 11
410.3777805352595
 21
402.9290684996547
 31
0.0
 70
   160
  1
<> (max.)\Pmax. t6
 71
     2
 42
20.0
 73
     0
 74
     0
 75
     0
  3
STANDARD
100
AcDbAlignedDimension
 13
440.1074811053613
 23
416.1660206037693
 33
0.0
 14
460.1074811053615
 24
416.1660206037693
 34
0.0
100
AcDbRotatedDimension
  0
INSERT
  5
FFD6
330
1E
100
AcDbEntity
  8
17
  6
DASHDOT
100
AcDbBlockReference
  2
SW_CENTERMARKSYMBOL_24
 10
450.1074811053615
 20
425.1660206037691
 30
0.0
 41
2.5
 42
2.5
 43
2.5
  0
TEXT
  5
10053
330
1E
100
AcDbEntity
  8
30
  6
Continuous
100
AcDbText
 10
426.5595501188788
 20
448.0488101567348
 30
0.0
 40
5.0
  1
%%c9
  7
STANDARD1
100
AcDbText
  0
LEADER
  5
10054
330
1E
100
AcDbEntity
  8
30
  6
Continuous
100
AcDbLeader
  3
STANDARD
 76
     3
 10
447.8592381456746
 20
427.0495216776318
 30
0.0
 10
438.5232405171171
 20
446.1565278134322
 30
0.0
 10
425.1860969918497
 20
446.6008762324732
 30
0.0
213
0.0
223
2.0
233
0.0
1001
ACAD
1000
DSTYLE
1002
{
1070
     5
1000
OPEN
1070
    77
1070
     0
1070
    79
1070
     3
1070
   147
1040
1.0
1070
   342
1005
3B2
1002
}
  0
CIRCLE
  5
100D3
330
1E
100
AcDbEntity
  8
24
  6
CONTINOUS
100
AcDbCircle
 10
144.3185738189169
 20
428.2499999999997
 30
0.0
 40
3.5
  0
CIRCLE
  5
100D4
330
1E
100
AcDbEntity
  8
24
  6
CONTINOUS
100
AcDbCircle
 10
114.3185738189169
 20
428.2499999999997
 30
0.0
 40
3.5
  0
LINE
  5
100D5
330
1E
100
AcDbEntity
  8
16
  6
DASHDOT
100
AcDbLine
 10
167.6874176793808
 20
371.25
 30
0.0
 11
85.47901430297836
 21
371.25
 31
0.0
  0
DIMENSION
  5
1013C
330
1E
100
AcDbEntity
  8
30
  6
Continuous
100
AcDbDimension
280
     0
  2
*D13
 10
179.807445302905
 20
72.26626745382212
 30
0.0
 11
174.807445302905
 21
127.7662674538221
 31
0.0
 70
    32
 71
     5
 42
110.9999999999999
 73
     0
 74
     0
 75
     0
  3
STANDARD
100
AcDbAlignedDimension
 13
134.8185738189169
 23
183.266267453822
 33
0.0
 14
134.8185738189169
 24
72.26626745382214
 34
0.0
 50
90.0
100
AcDbRotatedDimension
1001
ACAD
1000
DSTYLE
1002
{
1070
    79
1070
     3
1002
}
  0
LINE
  5
1022D
330
1E
100
AcDbEntity
  8
12
  6
Continuous
 62
     3
100
AcDbLine
 10
129.3185738189169
 20
177.766267453822
 30
0.0
 11
129.3185738189169
 21
188.766267453822
 31
0.0
  0
LINE
  5
1022E
330
1E
100
AcDbEntity
  8
12
  6
Continuous
 62
     3
100
AcDbLine
 10
129.3185738189169
 20
66.76626745382214
 30
0.0
 11
129.3185738189169
 21
77.76626745382213
 31
0.0
  0
ARC
  5
10238
330
1E
100
AcDbEntity
  8
11
 48
2.0
100
AcDbCircle
 10
335.5996305838634
 20
153.2662674538221
 30
0.0
 40
1.0
100
AcDbArc
 50
0.0
 51
90.0
  0
ARC
  5
10239
330
1E
100
AcDbEntity
  8
11
 48
2.0
100
AcDbCircle
 10
335.5996305838634
 20
103.2662674538221
 30
0.0
 40
1.0
100
AcDbArc
 50
270.0
 51
0.0
  0
ARC
  5
1023A
330
1E
100
AcDbEntity
  8
11
 48
2.0
100
AcDbCircle
 10
280.5996305838631
 20
103.2662674538221
 30
0.0
 40
1.0
100
AcDbArc
 50
180.0
 51
270.0
  0
ARC
  5
1023B
330
1E
100
AcDbEntity
  8
11
 48
2.0
100
AcDbCircle
 10
280.5996305838631
 20
153.2662674538221
 30
0.0
 40
1.0
100
AcDbArc
 50
90.0
 51
180.0
  0
LWPOLYLINE
  5
1026C
330
1E
100
AcDbEntity
  8
10
  6
CONTINOUS
100
AcDbPolyline
 90
        4
 70
     1
 43
0.0
 10
159.318573818917
 20
306.201071418
 10
159.3185738189169
 20
436.2000012167498
 10
99.31857381891695
 20
436.2000012167498
 10
99.31857381891695
 20
306.201071418
  0
LINE
  5
10270
330
1E
100
AcDbEntity
  8
12
  6
DASHED
100
AcDbLine
 10
129.3185738189169
 20
322.2010714015
 30
0.0
 11
129.3185738189169
 21
308.2010714015
 31
0.0
  0
DIMENSION
  5
10322
330
1E
100
AcDbEntity
  8
30
  6
Continuous
100
AcDbDimension
280
     0
  2
*D14
 10
359.0409050899339
 20
250.8907747675793
 30
0.0
 11
311.2909057083087
 21
255.8907747675793
 31
0.0
 70
    32
 71
     5
 42
95.49999876325022
 73
     0
 74
     0
 75
     0
  3
STANDARD
100
AcDbAlignedDimension
 13
263.5409063266836
 23
371.259032165375
 33
0.0
 14
359.0409050899339
 24
306.0983987361387
 34
0.0
 50
180.0
100
AcDbRotatedDimension
1001
ACAD
1000
DSTYLE
1002
{
1070
    79
1070
     3
1002
}
  0
DIMENSION
  5
10323
330
1E
100
AcDbEntity
  8
30
  6
Continuous
100
AcDbDimension
280
     0
  2
*D15
 10
287.0409063266834
 20
262.3110425341362
 30
0.0
 11
268.5409063266834
 21
262.3110425341362
 31
0.0
 70
   160
 71
     5
 42
6.5
 73
     0
 74
     0
 75
     0
  3
STANDARD
100
AcDbAlignedDimension
 13
280.5409063266834
 23
346.259032165375
 33
0.0
 14
287.0409063266834
 24
346.259032165375
 34
0.0
 50
180.0
100
AcDbRotatedDimension
1001
ACAD
1000
DSTYLE
1002
{
1070
    79
1070
     3
1002
}
  0
DIMENSION
  5
10324
330
1E
100
AcDbEntity
  8
30
  6
Continuous
100
AcDbDimension
280
     0
  2
*D16
 10
359.0409050899339
 20
262.3110425341362
 30
0.0
 11
323.0409057083087
 21
267.3110425341362
 31
0.0
 70
    32
 71
     5
 42
71.99999876325046
 73
     0
 74
     0
 75
     0
  3
STANDARD
100
AcDbAlignedDimension
 13
287.0409063266834
 23
346.259032165375
 33
0.0
 14
359.0409050899339
 24
306.0983987361387
 34
0.0
 50
180.0
100
AcDbRotatedDimension
1001
ACAD
1000
DSTYLE
1002
{
1070
    79
1070
     3
1002
}
  0
DIMENSION
  5
10325
330
1E
100
AcDbEntity
  8
30
  6
Continuous
100
AcDbDimension
280
     0
  2
*D17
 10
359.0409063266835
 20
466.9596152381733
 30
0.0
 11
347.0409063266834
 21
471.9596152381733
 31
0.0
 70
    32
 71
     5
 42
24.00000000000011
 73
     0
 74
     0
 75
     0
  3
STANDARD
100
AcDbAlignedDimension
 13
335.0409063266834
 23
436.2090333821249
 33
0.0
 14
359.0409063266835
 24
436.2090333821249
 34
0.0
100
AcDbRotatedDimension
1001
ACAD
1000
DSTYLE
1002
{
1070
    79
1070
     3
1002
}
  0
LINE
  5
10326
330
1E
100
AcDbEntity
  8
10
  6
CONTINOUS
100
AcDbLine
 10
280.5409063266834
 20
383.8311496616898
 30
0.0
 11
280.5409063266834
 21
348.828852400375
 31
0.0
  0
DIMENSION
  5
10327
330
1E
100
AcDbEntity
  8
30
  6
Continuous
100
AcDbDimension
280
     0
  2
*D18
 10
359.0409050899339
 20
273.1655079224665
 30
0.0
 11
325.0409057083086
 21
278.1655079224665
 31
0.0
 70
    32
 71
     5
 42
67.99999876325045
 73
     0
 74
     0
 75
     0
  3
STANDARD
100
AcDbAlignedDimension
 13
291.0409063266834
 23
320.2590321653749
 33
0.0
 14
359.0409050899339
 24
306.0983987361387
 34
0.0
 50
180.0
100
AcDbRotatedDimension
1001
ACAD
1000
DSTYLE
1002
{
1070
    79
1070
     3
1002
}
  0
DIMENSION
  5
10328
330
1E
100
AcDbEntity
  8
30
  6
Continuous
100
AcDbDimension
280
     0
  2
*D19
 10
359.0409050899339
 20
283.4656976477115
 30
0.0
 11
329.0409050899338
 21
288.4656976477115
 31
0.0
 70
    32
 71
     5
 42
60.00000000000007
 73
     0
 74
     0
 75
     0
  3
STANDARD
100
AcDbAlignedDimension
 13
299.0409050899338
 23
306.0983987361387
 33
0.0
 14
359.0409050899339
 24
306.0983987361387
 34
0.0
 50
180.0
100
AcDbRotatedDimension
1001
ACAD
1000
DSTYLE
1002
{
1070
    79
1070
     3
1002
}
  0
DIMENSION
  5
10329
330
1E
100
AcDbEntity
  8
30
  6
Continuous
100
AcDbDimension
280
     0
  2
*D20
 10
359.0409050899339
 20
292.9344769514917
 30
0.0
 11
332.5409056124337
 21
297.9344769514917
 31
0.0
 70
    32
 71
     5
 42
52.99999895500025
 73
     0
 74
     0
 75
     0
  3
STANDARD
100
AcDbAlignedDimension
 13
306.0409061349336
 23
313.709032165375
 33
0.0
 14
359.0409050899339
 24
306.0983987361387
 34
0.0
 50
180.0
100
AcDbRotatedDimension
1001
ACAD
1000
DSTYLE
1002
{
1070
    79
1070
     3
1002
}
  0
LINE
  5
1032A
330
1E
100
AcDbEntity
  8
10
  6
CONTINOUS
100
AcDbLine
 10
299.0409063266836
 20
320.2590321653751
 30
0.0
 11
299.04090510401
 21
306.259567266
 31
0.0
  0
LINE
  5
1032B
330
1E
100
AcDbEntity
  8
10
  6
CONTINOUS
100
AcDbLine
 10
299.040905089934
 20
436.2090333821249
 30
0.0
 11
359.0409050899339
 21
436.2090333821249
 31
0.0
  0
LINE
  5
1032C
330
1E
100
AcDbEntity
  8
24
  6
HIDDENX2
100
AcDbLine
 10
337.0409063266834
 20
436.2090333821249
 30
0.0
 11
337.0409063266834
 21
415.2090333821248
 31
0.0
  0
LINE
  5
1032D
330
1E
100
AcDbEntity
  8
24
  6
HIDDENX2
100
AcDbLine
 10
327.8409063266835
 20
430.7090333821248
 30
0.0
 11
327.8409063266835
 21
420.7090333821247
 31
0.0
  0
LINE
  5
1032E
330
1E
100
AcDbEntity
  8
24
  6
HIDDENX2
100
AcDbLine
 10
333.0409063266834
 20
433.4090333821247
 30
0.0
 11
333.0409063266834
 21
418.009033382125
 31
0.0
  0
LINE
  5
1032F
330
1E
100
AcDbEntity
  8
24
  6
HIDDENX2
100
AcDbLine
 10
335.0409063266834
 20
436.2090333821249
 30
0.0
 11
335.0409063266834
 21
415.2090333821248
 31
0.0
  0
LINE
  5
10330
330
1E
100
AcDbEntity
  8
24
  6
HIDDENX2
100
AcDbLine
 10
329.8409063266835
 20
418.709033382125
 30
0.0
 11
333.0409063266834
 21
418.709033382125
 31
0.0
  0
LINE
  5
10331
330
1E
100
AcDbEntity
  8
24
  6
HIDDENX2
100
AcDbLine
 10
322.8409063266834
 20
425.7090333821246
 30
0.0
 11
340.0409063266834
 21
425.7090333821246
 31
0.0
  0
ARC
  5
10332
330
1E
100
AcDbEntity
  8
24
  6
HIDDENX2
100
AcDbCircle
 10
329.8409063266835
 20
420.7090333821247
 30
0.0
 40
2.0
100
AcDbArc
 50
180.0
 51
270.0
  0
LINE
  5
10333
330
1E
100
AcDbEntity
  8
24
  6
HIDDENX2
100
AcDbLine
 10
335.0409063266834
 20
415.2090333821248
 30
0.0
 11
337.0409063266834
 21
415.2090333821248
 31
0.0
  0
LINE
  5
10334
330
1E
100
AcDbEntity
  8
24
  6
HIDDENX2
100
AcDbLine
 10
333.0409063266834
 20
418.009033382125
 30
0.0
 11
335.0409063266834
 21
418.009033382125
 31
0.0
  0
LINE
  5
10335
330
1E
100
AcDbEntity
  8
24
  6
HIDDENX2
100
AcDbLine
 10
329.8409063266835
 20
432.7090333821248
 30
0.0
 11
333.0409063266834
 21
432.7090333821248
 31
0.0
  0
ARC
  5
10336
330
1E
100
AcDbEntity
  8
24
  6
HIDDENX2
100
AcDbCircle
 10
329.8409063266835
 20
430.7090333821248
 30
0.0
 40
2.0
100
AcDbArc
 50
90.0
 51
180.0
  0
LINE
  5
10337
330
1E
100
AcDbEntity
  8
24
  6
HIDDENX2
100
AcDbLine
 10
333.0409063266834
 20
433.4090333821247
 30
0.0
 11
335.0409063266834
 21
433.4090333821247
 31
0.0
  0
TEXT
  5
10338
330
1E
100
AcDbEntity
  8
30
  6
Continuous
100
AcDbText
 10
306.3726437720189
 20
453.9215612781291
 30
0.0
 40
5.0
  1
M8
  7
STANDARD1
100
AcDbText
  0
DIMENSION
  5
10339
330
1E
100
AcDbEntity
  8
30
  6
Continuous
100
AcDbDimension
280
     0
  2
*D21
 10
366.0409050899338
 20
292.9344769514917
 30
0.0
 11
374.0409050899339
 21
297.9344769514917
 31
0.0
 70
    32
 71
     5
 42
7.0
 73
     0
 74
     0
 75
     0
  3
STANDARD
100
AcDbAlignedDimension
 13
359.0409050899339
 23
306.0983987361387
 33
0.0
 14
366.0409050899338
 24
315.3483987361387
 34
0.0
100
AcDbRotatedDimension
1001
ACAD
1000
DSTYLE
1002
{
1070
    79
1070
     3
1002
}
  0
LEADER
  5
1033A
330
1E
100
AcDbEntity
  8
30
  6
Continuous
100
AcDbLeader
  3
STANDARD
 76
     3
 10
327.8409063266835
 20
430.7090333821248
 30
0.0
 10
319.9453264660641
 20
451.9467731483284
 30
0.0
 10
302.6699129494509
 20
451.9467731483284
 30
0.0
213
0.0
223
2.0
233
0.0
1001
ACAD
1000
DSTYLE
1002
{
1070
     5
1000
OPEN
1070
    77
1070
     0
1070
    79
1070
     3
1070
   147
1040
1.0
1002
}
  0
LINE
  5
1033B
330
1E
100
AcDbEntity
  8
10
  6
CONTINOUS
100
AcDbLine
 10
299.04090510401
 20
306.259567266
 30
0.0
 11
359.0409050899339
 21
306.259567266
 31
0.0
  0
LINE
  5
1033C
330
1E
100
AcDbEntity
  8
0
  6
SLD-実線
 62
     7
370
    30
100
AcDbLine
 10
291.0409069824336
 20
416.5537945451249
 30
0.0
 11
291.0395304876833
 21
416.553772193375
 31
0.0
  0
LINE
  5
1033D
330
1E
100
AcDbEntity
  8
0
  6
SLD-実線
 62
     7
370
    30
100
AcDbLine
 10
291.0409069824336
 20
402.1537947923751
 30
0.0
 11
291.0395304876833
 21
402.153772440625
 31
0.0
  0
LINE
  5
1033E
330
1E
100
AcDbEntity
  8
10
  6
Continuous
100
AcDbLine
 10
287.0409063266834
 20
396.139211160125
 30
0.0
 11
287.0409063266834
 21
346.2590321653749
 31
0.0
  0
LINE
  5
1033F
330
1E
100
AcDbEntity
  8
12
  6
DASHED
100
AcDbLine
 10
306.0409061349336
 20
319.709032165375
 30
0.0
 11
300.8209061349333
 21
319.709032165375
 31
0.0
  0
LINE
  5
10340
330
1E
100
AcDbEntity
  8
12
  6
DASHED
100
AcDbLine
 10
306.0409061349336
 20
311.709032165375
 30
0.0
 11
300.7404170161835
 21
311.709032165375
 31
0.0
  0
LINE
  5
10341
330
1E
100
AcDbEntity
  8
12
  6
DASHED
100
AcDbLine
 10
300.8209061349333
 20
319.709032165375
 30
0.0
 11
300.8209061349333
 21
311.709032165375
 31
0.0
  0
LINE
  5
10342
330
1E
100
AcDbEntity
  8
12
  6
DASHED
100
AcDbLine
 10
306.0409061349336
 20
319.709032165375
 30
0.0
 11
306.0409061349336
 21
311.709032165375
 31
0.0
  0
ARC
  5
10343
330
1E
100
AcDbEntity
  8
SLD-0
100
AcDbCircle
 10
468.3512162076834
 20
347.427551154875
 30
0.0
 40
206.1968630727214
100
AcDbArc
 50
170.3476901732009
 51
173.3517321866993
  0
LINE
  5
10344
330
1E
100
AcDbEntity
  8
12
  6
DASHED
100
AcDbLine
 10
306.0409061349336
 20
313.709032165375
 30
0.0
 11
366.0409061349337
 21
313.709032165375
 31
0.0
  0
LINE
  5
10345
330
1E
100
AcDbEntity
  8
12
  6
DASHED
100
AcDbLine
 10
306.0409061349336
 20
317.709032165375
 30
0.0
 11
366.0409061349337
 21
317.709032165375
 31
0.0
  0
LINE
  5
10346
330
1E
100
AcDbEntity
  8
10
  6
CONTINOUS
100
AcDbLine
 10
359.0409050899339
 20
306.259567266
 30
0.0
 11
359.0409050899339
 21
436.2090333821249
 31
0.0
  0
LINE
  5
10347
330
1E
100
AcDbEntity
  8
12
  6
DASHED
100
AcDbLine
 10
366.0409061349337
 20
313.709032165375
 30
0.0
 11
366.0409061349337
 21
317.709032165375
 31
0.0
  0
LINE
  5
10348
330
1E
100
AcDbEntity
  8
10
  6
Continuous
100
AcDbLine
 10
299.0409063266836
 20
320.2590321653751
 30
0.0
 11
291.0409063266834
 21
320.2590321653749
 31
0.0
  0
LINE
  5
10349
330
1E
100
AcDbEntity
  8
10
  6
Continuous
100
AcDbLine
 10
291.0409063266834
 20
320.2590321653749
 30
0.0
 11
291.0409063266834
 21
422.2409678346251
 31
0.0
  0
LWPOLYLINE
  5
1034A
330
1E
100
AcDbEntity
  8
10
  6
Continuous
100
AcDbPolyline
 90
       11
 70
     0
 43
0.0
 10
280.5409063266834
 20
377.6149015850844
 10
265.407117528263
 20
380.89356318364
 10
265.2638296801839
 20
382.3981090903751
 10
265.8395025151835
 20
385.704049047875
 10
266.7451084091717
 20
386.9776523862061
 10
268.2612392324336
 20
387.098843836125
 10
280.5409063266834
 20
383.8311496616898
 10
281.2984903027462
 20
393.394402563875
 10
287.0409063266834
 20
393.394402563875
 10
287.0409063266834
 20
396.2590321653749
 10
291.0409063266834
 20
396.2590321653749
  0
LINE
  5
1034B
330
1E
100
AcDbEntity
  8
10
  6
Continuous
100
AcDbLine
 10
299.040905089934
 20
422.2409678346251
 30
0.0
 11
291.0409063266834
 21
422.2409678346251
 31
0.0
  0
LINE
  5
1034C
330
1E
100
AcDbEntity
  8
10
  6
Continuous
100
AcDbLine
 10
299.040905089934
 20
422.2409678346251
 30
0.0
 11
299.040905089934
 21
436.2090333821249
 31
0.0
  0
LINE
  5
1034D
330
1E
100
AcDbEntity
  8
10
  6
Continuous
100
AcDbLine
 10
280.5409063266834
 20
348.828852400375
 30
0.0
 11
287.0409063266834
 21
348.828852400375
 31
0.0
  0
LINE
  5
1034E
330
1E
100
AcDbEntity
  8
10
  6
Continuous
100
AcDbLine
 10
287.0409063266834
 20
346.2590321653749
 30
0.0
 11
291.0409063266834
 21
346.2590321653749
 31
0.0
  0
DIMENSION
  5
1034F
330
1E
100
AcDbEntity
  8
30
  6
Continuous
100
AcDbDimension
280
     0
  2
*D22
 10
248.1046683432496
 20
346.2590321653749
 30
0.0
 11
243.1046683432496
 21
371.259032165375
 31
0.0
 70
    32
 71
     5
 42
50.0
 73
     0
 74
     0
 75
     0
  3
STANDARD1
100
AcDbAlignedDimension
 13
287.0409063266834
 23
396.2590321653749
 33
0.0
 14
287.0409063266834
 24
346.2590321653749
 34
0.0
 50
90.0
100
AcDbRotatedDimension
  0
LWPOLYLINE
  5
10423
330
1E
100
AcDbEntity
  8
10
  6
Continuous
100
AcDbPolyline
 90
        4
 70
     1
 43
0.0
 10
104.1185738189169
 20
393.75
 10
126.1185738189169
 20
393.75
 10
126.1185738189169
 20
348.7499999999998
 10
104.1185738189169
 20
348.7499999999998
  0
LWPOLYLINE
  5
10424
330
1E
100
AcDbEntity
  8
10
  6
Continuous
100
AcDbPolyline
 90
        4
 70
     1
 43
0.0
 10
107.6809104020969
 20
385.1000002087499
 10
122.5565161044169
 20
385.1000002087499
 10
122.5565161044169
 20
358.1000009055001
 10
107.6809104020969
 20
358.1000009055001
  0
LWPOLYLINE
  5
10425
330
1E
100
AcDbEntity
  8
10
  6
Continuous
100
AcDbPolyline
 90
        4
 70
     1
 43
0.0
 10
108.618573420917
 20
382.354496649
 10
121.6185774143116
 20
382.354496649
 10
121.6185774143116
 20
377.9886239408918
 10
108.618573420917
 20
377.9886239408918
  0
LINE
  5
10426
330
1E
100
AcDbEntity
  8
10
  6
Continuous
100
AcDbLine
 10
156.8185738189169
 20
396.25
 30
0.0
 11
101.8185738189169
 21
396.25
 31
0.0
  0
LINE
  5
10427
330
1E
100
AcDbEntity
  8
10
  6
Continuous
100
AcDbLine
 10
156.8185738189169
 20
346.2499999999999
 30
0.0
 11
101.8185738189169
 21
346.2499999999999
 31
0.0
  0
LINE
  5
10429
330
1E
100
AcDbEntity
  8
10
  6
Continuous
100
AcDbLine
 10
156.8185738189169
 20
396.25
 30
0.0
 11
156.8185738189169
 21
346.2499999999999
 31
0.0
  0
LINE
  5
10435
330
1E
100
AcDbEntity
  8
10
  6
Continuous
100
AcDbLine
 10
101.8185738189169
 20
396.25
 30
0.0
 11
101.8185738189169
 21
346.2499999999999
 31
0.0
  0
LWPOLYLINE
  5
10444
330
1E
100
AcDbEntity
  8
10
  6
Continuous
100
AcDbPolyline
 90
        4
 70
     1
 43
0.0
 10
0.0
 20
742.4999999999997
 10
525.0
 20
742.4999999999997
 10
525.0
 20
0.0
 10
0.0
 20
0.0
  0
DIMENSION
  5
104B4
330
1E
100
AcDbEntity
  8
30
  6
Continuous
100
AcDbDimension
280
     0
  2
*D23
 10
500.2170144683402
 20
104.2662672450719
 30
0.0
 11
495.2170144683401
 21
128.266267453697
 31
0.0
 70
    32
 71
     5
 42
48.00000041724995
 73
     0
 74
     0
 75
     0
  3
STANDARD
100
AcDbAlignedDimension
 13
456.3025653786976
 23
152.2662676623219
 33
0.0
 14
456.3025653786976
 24
104.2662672450719
 34
0.0
 50
90.0
100
AcDbRotatedDimension
1001
ACAD
1000
DSTYLE
1002
{
1070
    79
1070
     3
1002
}
  0
LINE
  5
104B5
330
1E
100
AcDbEntity
  8
16
  6
DASHDOT
100
AcDbLine
 10
456.3025653786976
 20
55.63997178208706
 30
0.0
 11
456.3025653786976
 21
206.0114684452526
 31
0.0
  0
DIMENSION
  5
104B6
330
1E
100
AcDbEntity
  8
30
  6
Continuous
100
AcDbDimension
280
     0
  2
*D24
 10
468.3025668389475
 20
48.8981290292482
 30
0.0
 11
456.3025653785727
 21
53.8981290292482
 31
0.0
 70
    32
 71
     5
 42
24.00000292075015
 73
     0
 74
     0
 75
     0
  3
STANDARD
100
AcDbAlignedDimension
 13
444.3025639181976
 23
103.2662670813221
 33
0.0
 14
468.3025668389475
 24
103.2662670813221
 34
0.0
 50
180.0
100
AcDbRotatedDimension
1001
ACAD
1000
DSTYLE
1002
{
1070
    79
1070
     3
1002
}
  0
DIMENSION
  5
104B7
330
1E
100
AcDbEntity
  8
30
  6
Continuous
100
AcDbDimension
280
     0
  2
*D25
 10
467.2125653786975
 20
153.2662674538219
 30
0.0
 11
477.1789319560681
 21
161.3105959797728
 31
0.0
 70
    36
 71
     5
 42
1.000000000000055
 73
     0
 74
     0
 75
     0
  3
STANDARD
100
AcDbRadialDimension
 15
468.0058386941715
 25
153.8751331590121
 35
0.0
 40
0.0
1001
ACAD
1000
DSTYLE
1002
{
1070
   288
1070
     1
1002
}
  0
LINE
  5
104C0
330
1E
100
AcDbEntity
  8
16
  6
DASHDOT
100
AcDbLine
 10
489.0499452810074
 20
128.2662674538219
 30
0.0
 11
397.8966957890291
 21
128.2662674538219
 31
0.0
  0
LWPOLYLINE
  5
104FF
330
1E
100
AcDbEntity
  8
18
  6
DIVIDE
100
AcDbPolyline
 90
        4
 70
     1
 43
0.0
 10
278.0996309191134
 20
65.08199956114214
 10
338.0996323718632
 20
65.08199956114214
 10
338.0996323718632
 20
195.0819947928922
 10
278.0996309191134
 20
195.0819947928922
  0
LWPOLYLINE
  5
10503
330
1E
100
AcDbEntity
  8
18
  6
DIVIDE
100
AcDbPolyline
 90
        4
 70
     1
 43
0.0
 10
426.3025657139476
 20
65.08199956114214
 10
486.3025671666973
 20
65.08199956114214
 10
486.3025671666973
 20
195.0819947928922
 10
426.3025657139476
 20
195.0819947928922
  0
LWPOLYLINE
  5
10504
330
1E
100
AcDbEntity
  8
18
  6
DIVIDE
100
AcDbPolyline
 90
        4
 70
     1
 43
0.0
 10
99.31857415416693
 20
63.26626983782205
 10
159.3185756069167
 20
63.26626983782205
 10
159.3185756069167
 20
193.2662650695721
 10
99.31857415416693
 20
193.2662650695721
  0
DIMENSION
  5
105B1
330
1E
100
AcDbEntity
  8
30
  6
Continuous
100
AcDbDimension
280
     0
  2
*D26
 10
156.8185738189169
 20
328.271001561081
 30
0.0
 11
130.2216861471224
 21
330.1337126678122
 31
0.0
 70
   160
 71
     5
 42
55.0
 73
     0
 74
     0
 75
     0
  3
STANDARD
100
AcDbAlignedDimension
 13
101.8185738189169
 23
346.2499999999999
 33
0.0
 14
156.8185738189169
 24
346.2499999999999
 34
0.0
100
AcDbRotatedDimension
1001
ACAD
1000
DSTYLE
1002
{
1070
    70
1070
     7
1070
    69
1070
     1
1070
    79
1070
     3
1070
   279
1070
     1
1002
}
  0
DIMENSION
  5
105BE
330
1E
100
AcDbEntity
  8
30
  6
Continuous
100
AcDbDimension
280
     0
  2
*D27
 10
126.1185738189169
 20
400.9739102869859
 30
0.0
 11
86.90919821069469
 21
404.9739102869859
 31
0.0
 70
   160
 71
     5
 42
22.0
 73
     0
 74
     0
 75
     0
  3
STANDARD
100
AcDbAlignedDimension
 13
104.1185738189169
 23
393.75
 33
0.0
 14
126.1185738189169
 24
393.75
 34
0.0
100
AcDbRotatedDimension
1001
ACAD
1000
DSTYLE
1002
{
1070
    70
1070
     7
1070
    69
1070
     1
1070
    79
1070
     3
1070
   279
1070
     1
1002
}
  0
ARC
  5
10643
330
1E
100
AcDbEntity
  8
11
 48
2.0
100
AcDbCircle
 10
445.3025653786976
 20
105.2662674538219
 30
0.0
 40
1.000000000000011
100
AcDbArc
 50
180.0
 51
270.0
  0
LINE
  5
10644
330
1E
100
AcDbEntity
  8
11
 48
2.0
100
AcDbLine
 10
445.3025650104477
 20
104.2662672450719
 30
0.0
 11
467.3025658226976
 21
104.2662672450719
 31
0.0
  0
ARC
  5
10645
330
1E
100
AcDbEntity
  8
11
 48
2.0
100
AcDbCircle
 10
467.3025653786976
 20
105.2662674538219
 30
0.0
 40
1.000000000000011
100
AcDbArc
 50
270.0
 51
0.0
  0
LINE
  5
10646
330
1E
100
AcDbEntity
  8
11
 48
2.0
100
AcDbLine
 10
468.3025650551975
 20
105.2662674090719
 30
0.0
 11
468.3025650551975
 21
151.2662674985719
 31
0.0
  0
ARC
  5
10647
330
1E
100
AcDbEntity
  8
11
 48
2.0
100
AcDbCircle
 10
467.3025653786976
 20
151.2662674538219
 30
0.0
 40
0.9999999999999431
100
AcDbArc
 50
0.0
 51
90.0
  0
LINE
  5
10648
330
1E
100
AcDbEntity
  8
11
 48
2.0
100
AcDbLine
 10
467.3025658226976
 20
152.2662676623219
 30
0.0
 11
445.3025650104477
 21
152.2662676623219
 31
0.0
  0
ARC
  5
10649
330
1E
100
AcDbEntity
  8
11
 48
2.0
100
AcDbCircle
 10
445.3025653786976
 20
151.2662674538219
 30
0.0
 40
1.000000000000011
100
AcDbArc
 50
90.0
 51
180.0
  0
LINE
  5
1064A
330
1E
100
AcDbEntity
  8
11
 48
2.0
100
AcDbLine
 10
444.3025657779476
 20
151.2662674985719
 30
0.0
 11
444.3025657779476
 21
105.2662674090719
 31
0.0
  0
MTEXT
  5
10684
330
1E
100
AcDbEntity
  8
240
100
AcDbMText
 10
289.8800457693568
 20
34.11543061980501
 30
0.0
 40
7.826237649998486
 41
0.0
 46
0.0
 71
     1
 72
     1
  1
[Cutout A]
  7
SLDTEXTSTYLE0
 73
     1
 44
1.0
  0
MTEXT
  5
10685
330
1E
100
AcDbEntity
  8
240
100
AcDbMText
 10
427.6745300112751
 20
34.11543061980501
 30
0.0
 40
7.826237649998486
 41
0.0
 46
0.0
 71
     1
 72
     1
  1
[Cutout B]
  7
SLDTEXTSTYLE0
 73
     1
 44
1.0
  0
DIMENSION
  5
10D13
330
1E
100
AcDbEntity
  8
30
  6
Continuous
100
AcDbDimension
280
     0
  2
*D30
 10
185.8158653110513
 20
428.2499999999997
 30
0.0
 11
180.8158653110513
 21
371.22553570075
 31
0.0
 70
    32
 71
     5
 42
114.0489285984998
 73
     0
 74
     0
 75
     0
  3
STANDARD
100
AcDbAlignedDimension
 13
151.318573818917
 23
314.2010714015
 33
0.0
 14
151.3185738189169
 24
428.2499999999997
 34
0.0
 50
270.0
100
AcDbRotatedDimension
1001
ACAD
1000
DSTYLE
1002
{
1070
    79
1070
     3
1070
   279
1070
     1
1002
}
  0
VIEWPORT
  5
9AC
330
1A
100
AcDbEntity
 67
     1
  8
0
  6
Continuous
348
629D
100
AcDbViewport
 10
5.613749947134903
 20
3.902083231708196
 30
0.0
 40
14.87469589274309
 41
8.746133096049151
 68
     1
 69
     1
 12
5.613749947134903
 22
3.902083231708196
 13
0.0
 23
0.0
 14
10.0
 24
10.0
 15
10.0
 25
10.0
 16
0.0
 26
0.0
 36
1.0
 17
0.0
 27
0.0
 37
0.0
 42
50.0
 43
0.0
 44
0.0
 45
8.746133096049151
 50
0.0
 51
0.0
 72
   100
 90
    32800
  1

281
     0
 71
     1
 74
     0
110
0.0
120
0.0
130
0.0
111
1.0
121
0.0
131
0.0
112
0.0
122
1.0
132
0.0
 79
     0
146
0.0
170
     0
 61
     5
292
     1
282
     1
141
0.0
142
0.0
 63
   250
421
  3355443
  0
VIEWPORT
  5
6267
330
1A
100
AcDbEntity
 67
     1
  8
30
  6
Continuous
348
629D
100
AcDbViewport
 10
5.613749965908018
 20
3.902083250481312
 30
0.0
 40
8.981999945452834
 41
6.243333200770099
 68
     2
 69
     2
 12
107.0904203558153
 22
-39.95474566704796
 13
0.0
 23
0.0
 14
1.0
 24
1.0
 15
10.0
 25
10.0
 16
0.0
 26
0.0
 36
1.0
 17
0.0
 27
0.0
 37
0.0
 42
50.0
 43
0.0
 44
0.0
 45
650.0648328262407
 50
0.0
 51
0.0
 72
   100
 90
    33312
  1

281
     0
 71
     1
 74
     0
110
0.0
120
0.0
130
0.0
111
1.0
121
0.0
131
0.0
112
0.0
122
1.0
132
0.0
 79
     0
146
0.0
170
     0
 61
     5
292
     1
282
     1
141
0.0
142
0.0
 63
   250
421
  3355443
  0
ENDSEC
  0
SECTION
  2
OBJECTS
  0
DICTIONARY
  5
C
330
0
100
AcDbDictionary
281
     1
  3
ACAD_CIP_PREVIOUS_PRODUCT_INFO
350
62CC
  3
ACAD_COLOR
350
62B0
  3
ACAD_DETAILVIEWSTYLE
350
62C9
  3
ACAD_GROUP
350
D
  3
ACAD_LAYOUT
350
19
  3
ACAD_MATERIAL
350
627E
  3
ACAD_MLEADERSTYLE
350
62C5
  3
ACAD_MLINESTYLE
350
16
  3
ACAD_PLOTSETTINGS
350
18
  3
ACAD_PLOTSTYLENAME
350
E
  3
ACAD_SCALELIST
350
62B3
  3
ACAD_SECTIONVIEWSTYLE
350
62C7
  3
ACAD_TABLESTYLE
350
62B1
  3
ACAD_VISUALSTYLE
350
6297
  3
ACADDIM
350
5C76
  3
ACDB_RECOMPOSE_DATA
350
10F9D
  3
ACDBVARIABLEDICTIONARY
350
5697
  3
AEC_PROPERTY_SET_DEFS
350
1069D
  0
DICTIONARY
  5
FF70
330
2
100
AcDbDictionary
280
     1
281
     1
  3
ACAD_LAYERSTATES
360
FF71
  0
DICTIONARY
  5
6368
330
10
100
AcDbDictionary
280
     1
281
     1
  3
ADSK_XREC_LAYER_RECONCILED
360
6369
  0
DICTIONARY
  5
636A
330
2F
100
AcDbDictionary
280
     1
281
     1
  3
ADSK_XREC_LAYER_RECONCILED
360
636B
  0
DICTIONARY
  5
636C
330
31
100
AcDbDictionary
280
     1
281
     1
  3
ADSK_XREC_LAYER_RECONCILED
360
636D
  0
DICTIONARY
  5
636E
330
35
100
AcDbDictionary
280
     1
281
     1
  3
ADSK_XREC_LAYER_RECONCILED
360
636F
  0
DICTIONARY
  5
6372
330
3C
100
AcDbDictionary
280
     1
281
     1
  3
ADSK_XREC_LAYER_RECONCILED
360
6373
  0
DICTIONARY
  5
6374
330
3D
100
AcDbDictionary
280
     1
281
     1
  3
ADSK_XREC_LAYER_RECONCILED
360
6375
  0
DICTIONARY
  5
6376
330
3A2
100
AcDbDictionary
280
     1
281
     1
  3
ADSK_XREC_LAYER_RECONCILED
360
6377
  0
DICTIONARY
  5
6378
330
3BBA
100
AcDbDictionary
280
     1
281
     1
  3
ADSK_XREC_LAYER_RECONCILED
360
6379
  0
DICTIONARY
  5
637E
330
5C47
100
AcDbDictionary
280
     1
281
     1
  3
ADSK_XREC_LAYER_RECONCILED
360
637F
  0
DICTIONARY
  5
6AEC
330
6AEB
100
AcDbDictionary
280
     1
281
     1
  0
DICTIONARY
  5
10677
330
10676
100
AcDbDictionary
280
     1
281
     1
  0
DICTIONARY
  5
10AE1
330
10AE0
100
AcDbDictionary
280
     1
281
     1
  0
DICTIONARY
  5
178
330
1E
100
AcDbDictionary
280
     1
281
     1
  3
ACAD_LAYOUTSELFREF
360
6251
  3
ACAD_SORTENTS
360
F9D9
  0
DICTIONARY
  5
17A
330
1A
100
AcDbDictionary
280
     1
281
     1
  3
ACAD_LAYOUTSELFREF
360
6250
  0
DICTIONARY
  5
10AE8
330
10AE5
100
AcDbDictionary
280
     1
281
     1
  3
ACAD_SORTENTS
360
10AE9
  0
XRECORD
  5
62CC
102
{ACAD_REACTORS
330
C
102
}
330
C
100
AcDbXrecord
280
     1
300
ACDLT
300
2014
300
ACDLT_F_S
  0
DICTIONARY
  5
62B0
102
{ACAD_REACTORS
330
C
102
}
330
C
100
AcDbDictionary
281
     1
  0
DICTIONARY
  5
62C9
102
{ACAD_REACTORS
330
C
102
}
330
C
100
AcDbDictionary
281
     1
  3
Imperial24
350
62CA
  3
Metric50
350
6AFE
  0
DICTIONARY
  5
D
102
{ACAD_REACTORS
330
C
102
}
330
C
100
AcDbDictionary
281
     1
  0
DICTIONARY
  5
19
102
{ACAD_REACTORS
330
C
102
}
330
C
100
AcDbDictionary
281
     1
  3
Model
350
6262
  3
ﾚｲｱｳﾄ1
350
6263
  0
DICTIONARY
  5
627E
102
{ACAD_REACTORS
330
C
102
}
330
C
100
AcDbDictionary
281
     1
  3
ByBlock
350
6287
  3
ByLayer
350
627F
  3
Global
350
628F
  0
DICTIONARY
  5
62C5
102
{ACAD_REACTORS
330
C
102
}
330
C
100
AcDbDictionary
281
     1
  3
Standard
350
62C6
  0
DICTIONARY
  5
16
102
{ACAD_REACTORS
330
C
102
}
330
C
100
AcDbDictionary
281
     1
  3
STANDARD
350
17
  0
DICTIONARY
  5
18
102
{ACAD_REACTORS
330
C
102
}
330
C
100
AcDbDictionary
281
     1
  0
ACDBDICTIONARYWDFLT
  5
E
102
{ACAD_REACTORS
330
C
102
}
330
C
100
AcDbDictionary
281
     1
  3
Normal
350
F
100
AcDbDictionaryWithDefault
340
F
  0
DICTIONARY
  5
62B3
102
{ACAD_REACTORS
330
C
102
}
330
C
100
AcDbDictionary
281
     1
  3
A0
350
62B4
  3
A1
350
62B5
  3
A2
350
62B6
  3
A3
350
62B7
  3
A4
350
62B8
  3
A5
350
62B9
  3
A6
350
62BA
  3
A7
350
62BB
  3
A8
350
62BC
  3
A9
350
62BD
  3
B0
350
62BE
  3
B1
350
62BF
  3
B2
350
62C0
  3
B3
350
62C1
  3
B4
350
62C2
  3
B5
350
62C3
  3
B6
350
62C4
  0
DICTIONARY
  5
62C7
102
{ACAD_REACTORS
330
C
102
}
330
C
100
AcDbDictionary
281
     1
  3
Imperial24
350
62C8
  3
Metric50
350
6AFD
  0
DICTIONARY
  5
62B1
102
{ACAD_REACTORS
330
C
102
}
330
C
100
AcDbDictionary
281
     1
  3
Standard
350
62B2
  0
DICTIONARY
  5
6297
102
{ACAD_REACTORS
330
C
102
}
330
C
100
AcDbDictionary
281
     1
  3
2dWireframe
350
629D
  3
3D Hidden
350
66D1
  3
3dWireframe
350
66D0
  3
Basic
350
629C
  3
Brighten
350
62A3
  3
ColorChange
350
62A7
  3
Conceptual
350
62A0
  3
Dim
350
62A2
  3
EdgeColorOff
350
62AF
  3
Facepattern
350
62A6
  3
Flat
350
6298
  3
FlatWithEdges
350
6299
  3
Gouraud
350
629A
  3
GouraudWithEdges
350
629B
  3
Hidden
350
629F
  3
JitterOff
350
62AD
  3
Linepattern
350
62A5
  3
OverhangOff
350
62AE
  3
Realistic
350
62A1
  3
Shaded
350
62AC
  3
Shaded with edges
350
62AB
  3
Shades of Gray
350
62A8
  3
Sketchy
350
62A9
  3
Thicken
350
62A4
  3
Wireframe
350
629E
  3
X-Ray
350
62AA
  0
XRECORD
  5
5C76
102
{ACAD_REACTORS
330
C
102
}
330
C
100
AcDbXrecord
280
     1
 90
   990106
  3

 60
     0
 61
     0
 62
     1
 63
     3
 64
     0
 65
     0
 66
     0
 67
     3
 68
     1
 69
     0
 70
     0
 71
     0
 72
     0
 40
0.0
170
     0
340
0
  0
XRECORD
  5
10F9D
102
{ACAD_REACTORS
330
C
102
}
330
C
100
AcDbXrecord
280
     1
 90
        1
330
62B2
330
62C8
330
62CA
330
6AFD
330
6AFE
  0
DICTIONARY
  5
5697
102
{ACAD_REACTORS
330
C
102
}
330
C
100
AcDbDictionary
281
     1
  3
CANNOSCALE
350
6384
  3
CMLEADERSTYLE
350
6381
  3
CTABLESTYLE
350
6380
  3
CVIEWDETAILSTYLE
350
6382
  3
CVIEWSECTIONSTYLE
350
6383
  3
DIMASSOC
350
5698
  3
INDEXCTL
350
6386
  3
LAYEREVAL
350
66D5
  3
LAYERNOTIFY
350
66D6
  3
LIGHTINGUNITS
350
66D4
  3
MSLTSCALE
350
66D3
  3
SORTENTS
350
6385
  0
DICTIONARY
  5
1069D
102
{ACAD_REACTORS
330
C
102
}
330
C
100
AcDbDictionary
281
     1
  0
DICTIONARY
  5
FF71
102
{ACAD_REACTORS
330
FF70
102
}
330
FF70
100
AcDbDictionary
281
     1
  0
XRECORD
  5
6369
102
{ACAD_REACTORS
330
6368
102
}
330
6368
100
AcDbXrecord
280
     1
290
     1
  0
XRECORD
  5
636B
102
{ACAD_REACTORS
330
636A
102
}
330
636A
100
AcDbXrecord
280
     1
290
     1
  0
XRECORD
  5
636D
102
{ACAD_REACTORS
330
636C
102
}
330
636C
100
AcDbXrecord
280
     1
290
     1
  0
XRECORD
  5
636F
102
{ACAD_REACTORS
330
636E
102
}
330
636E
100
AcDbXrecord
280
     1
290
     1
  0
XRECORD
  5
6373
102
{ACAD_REACTORS
330
6372
102
}
330
6372
100
AcDbXrecord
280
     1
290
     1
  0
XRECORD
  5
6375
102
{ACAD_REACTORS
330
6374
102
}
330
6374
100
AcDbXrecord
280
     1
290
     1
  0
XRECORD
  5
6377
102
{ACAD_REACTORS
330
6376
102
}
330
6376
100
AcDbXrecord
280
     1
290
     1
  0
XRECORD
  5
6379
102
{ACAD_REACTORS
330
6378
102
}
330
6378
100
AcDbXrecord
280
     1
290
     1
  0
XRECORD
  5
637F
102
{ACAD_REACTORS
330
637E
102
}
330
637E
100
AcDbXrecord
280
     1
290
     1
  0
XRECORD
  5
6251
102
{ACAD_REACTORS
330
178
102
}
330
178
100
AcDbXrecord
280
     1
340
1E
  0
SORTENTSTABLE
  5
F9D9
102
{ACAD_REACTORS
330
178
102
}
330
178
100
AcDbSortentsTable
330
1E
331
6545
  5
FF14
331
FFD2
  5
101EF
331
5D3E
  5
5D46
331
5D46
  5
6173
331
5847
  5
584B
331
586A
  5
586E
331
5872
  5
5877
331
1C9B
  5
1C9B
331
10331
  5
10339
331
10341
  5
10349
331
10322
  5
1032A
331
583B
  5
583B
331
5AEA
  5
5CA3
331
10349
  5
10424
331
1032A
  5
10332
331
FF98
  5
10129
331
1033A
  5
10342
331
6173
  5
633A
331
584B
  5
584E
331
5C8A
  5
5CA7
331
10429
  5
104B9
331
5853
  5
5856
331
585B
  5
5867
331
6366
  5
FDAD
331
5CA7
  5
5D3C
331
6546
  5
FF42
331
10238
  5
631C
331
5D3F
  5
5E5B
331
54D8
  5
54D8
331
B4
  5
B4
331
586B
  5
586F
331
5873
  5
5878
331
10332
  5
1033A
331
5AEB
  5
5CA4
331
10342
  5
1034A
331
583C
  5
583C
331
10323
  5
1032B
331
1032B
  5
10333
331
1034A
  5
10425
331
617F
  5
6366
331
1033B
  5
10343
331
6317
  5
A4D0
331
6174
  5
633B
331
10053
  5
1022C
331
104C0
  5
10506
331
584C
  5
584F
331
5854
  5
5857
331
5CA8
  5
5D3D
331
6367
  5
FEC3
331
FFD4
  5
10209
331
10239
  5
6317
331
1013C
  5
10325
331
5D40
  5
5EB9
331
586C
  5
5870
331
10333
  5
1033B
331
10343
  5
1034B
331
10324
  5
1032C
331
1034B
  5
10426
331
1032C
  5
10334
331
1033C
  5
10344
331
10054
  5
1022D
331
104B4
  5
104BC
331
6338
  5
A4D2
331
6175
  5
633E
331
10423
  5
104B4
331
584D
  5
5850
331
5855
  5
5858
331
5CA9
  5
5D3E
331
FFD5
  5
1022A
331
1023A
  5
633D
331
5D41
  5
5EC6
331
1026C
  5
5843
331
586D
  5
5871
331
10503
  5
10507
331
5875
  5
59B9
331
10334
  5
1033C
331
10325
  5
1032D
331
10344
  5
1034C
331
5878
  5
59BE
331
1032D
  5
10335
331
1034C
  5
10427
331
6269
  5
6546
331
5EC6
  5
617C
331
1033D
  5
10345
331
6339
  5
A4D3
331
104B5
  5
104BD
331
584E
  5
5851
331
10424
  5
104B5
331
5856
  5
5859
331
5CA2
  5
5CAA
331
6186
  5
6544
331
10444
  5
104BB
331
100D3
  5
1022E
331
5866
  5
586B
331
5CAA
  5
5D3F
331
616E
  5
617E
331
FFD6
  5
1022B
331
1023B
  5
6367
331
5D42
  5
606B
331
586E
  5
5872
331
10504
  5
10323
331
5876
  5
59BA
331
10335
  5
1033D
331
10345
  5
1034D
331
10326
  5
1032E
331
1034D
  5
10429
331
1032E
  5
10336
331
1033E
  5
10346
331
104B6
  5
104BE
331
633A
  5
A4D4
331
6177
  5
634B
331
5C86
  5
5CA6
331
10425
  5
104B6
331
584F
  5
5852
331
5857
  5
585A
331
5C8E
  5
5CA8
331
10435
  5
104BA
331
100D4
  5
10238
331
5867
  5
586C
331
5CA3
  5
5CAB
331
616F
  5
6188
331
5CAB
  5
5D40
331
5D3B
  5
5D43
331
663A
  5
FF43
331
5D43
  5
616E
331
5844
  5
5846
331
586F
  5
5873
331
2260
  5
2260
331
5877
  5
59BB
331
5E68
  5
6174
331
5AE7
  5
5C98
331
10336
  5
1033E
331
10327
  5
1032F
331
10346
  5
1034E
331
1032F
  5
10337
331
1034E
  5
10435
331
6170
  5
6338
331
1033F
  5
10347
331
633B
  5
A4D5
331
104B7
  5
104BF
331
5848
  5
584C
331
10426
  5
104B7
331
5850
  5
5853
331
5858
  5
585B
331
5CA4
  5
5CAC
331
100D5
  5
1023B
331
5CAC
  5
5D41
331
FFD0
  5
101E6
331
1022D
  5
10327
331
5D3C
  5
5D44
331
5D44
  5
616F
331
5845
  5
5847
331
5870
  5
5875
331
2261
  5
2261
331
10337
  5
1033F
331
5AE8
  5
5CA2
331
5EB9
  5
617B
331
10347
  5
1034F
331
10328
  5
10330
331
1034F
  5
10444
331
10338
  5
10340
331
FFCE
  5
1017F
331
633C
  5
A4D6
331
10427
  5
104B8
331
5851
  5
5854
331
5859
  5
585C
331
5C98
  5
5CA9
331
5CA5
  5
5CAD
331
6544
  5
FEC4
331
FFD1
  5
101EE
331
1022E
  5
10328
331
5CAD
  5
5D42
331
5D3D
  5
5D45
331
5D45
  5
6170
331
5869
  5
586D
331
10270
  5
10329
331
104FF
  5
10324
331
5871
  5
5876
331
10330
  5
10338
331
10340
  5
10348
331
10329
  5
10331
331
10348
  5
10423
331
10339
  5
10341
331
633D
  5
A4D7
331
FFCF
  5
101E5
331
584A
  5
584D
331
5852
  5
5855
331
585A
  5
5866
331
5CA6
  5
5D3B
  0
XRECORD
  5
6250
102
{ACAD_REACTORS
330
17A
102
}
330
17A
100
AcDbXrecord
280
     1
340
1A
  0
SORTENTSTABLE
  5
10AE9
102
{ACAD_REACTORS
330
10AE8
102
}
330
10AE8
100
AcDbSortentsTable
330
10AE5
  0
ACDBDETAILVIEWSTYLE
  5
62CA
102
{ACAD_XDICTIONARY
360
10F46
102
}
102
{ACAD_REACTORS
330
62C9
102
}
330
62C9
100
AcDbModelDocViewStyle
 70
     0
  3
Imperial24
290
     0
100
AcDbDetailViewStyle
 70
     0
 71
     0
 90
        3
 71
     1
340
11
 62
   256
 40
0.24
340
0
 62
   256
 40
0.24
300

 40
0.36
280
     3
 71
     2
340
15
 90
       25
 62
   256
 71
     3
340
11
 62
   256
 40
0.24
 90
        1
 40
0.75
 90
        1
300
%<\AcVar ViewType \f "%tc1">% %<\AcVar ViewDetailId>%\PSCALE %<\AcVar ViewScale \f "%sn">%
 71
     4
340
15
 90
       25
 62
   256
340
15
 90
       25
 62
   256
280
     0
  0
ACDBDETAILVIEWSTYLE
  5
6AFE
102
{ACAD_XDICTIONARY
360
10F4A
102
}
102
{ACAD_REACTORS
330
62C9
102
}
330
62C9
100
AcDbModelDocViewStyle
 70
     0
  3
Metric50
290
     0
100
AcDbDetailViewStyle
 70
     0
 71
     0
 90
        3
 71
     1
340
11
 62
   256
 40
5.0
340
0
 62
   256
 40
5.0
300

 40
0.0
280
     1
 71
     2
340
15
 90
       25
 62
   256
 71
     3
340
11
 62
   256
 40
5.0
 90
        0
 40
15.0
 90
        1
300
%<\AcVar ViewDetailId>% (%<\AcVar ViewScale \f "%sn">%)
 71
     4
340
15
 90
       25
 62
   256
340
15
 90
       25
 62
   256
280
     0
  0
LAYOUT
  5
6262
102
{ACAD_XDICTIONARY
360
FF76
102
}
102
{ACAD_REACTORS
330
19
102
}
330
19
100
AcDbPlotSettings
  1

  2
Canon LBP3800 LIPSLX
  4
A4
  6
OLE1
 40
5.873749732971191
 41
5.873747825622557
 42
5.873748779296875
 43
5.873748779296875
 44
209.9733276367186
 45
296.9259948730469
 46
13.97
 47
0.0
 48
0.0
 49
0.0
140
0.0
141
0.0
142
1.0
143
57.03989542820892
 70
 11956
 72
     0
 73
     0
 74
     1
  7
monochrome.ctb
 75
     0
147
0.0175315889430164
 76
     0
 77
     2
 78
   300
148
2132.688548548884
149
9148.078143675617
100
AcDbLayout
  1
Model
 70
     1
 71
     0
 10
0.0
 20
0.0
 11
12.0
 21
9.0
 12
0.0
 22
0.0
 32
0.0
 14
0.0
 24
0.0
 34
0.0
 15
0.0
 25
0.0
 35
0.0
146
0.0
 13
0.0
 23
0.0
 33
0.0
 16
1.0
 26
0.0
 36
0.0
 17
0.0
 27
1.0
 37
0.0
 76
     0
330
1E
331
6275
  0
LAYOUT
  5
6263
102
{ACAD_REACTORS
330
19
102
}
330
19
100
AcDbPlotSettings
  1

  2
Canon LBP3800 LIPSLX
  4
A4
  6

 40
5.873749732971191
 41
5.873747825622557
 42
5.873748779296875
 43
5.873748779296875
 44
209.9733276367186
 45
296.9259948730469
 46
0.0
 47
0.0
 48
0.0
 49
0.0
140
0.0
141
0.0
142
1.0
143
1.0
 70
   688
 72
     0
 73
     1
 74
     5
  7
monochrome.ctb
 75
    16
147
1.0
 76
     0
 77
     2
 78
   300
148
0.0
149
0.0
100
AcDbLayout
  1
ﾚｲｱｳﾄ1
 70
     1
 71
     1
 10
-0.2312499519408218
 20
-0.2312499894870548
 11
11.45874984621061
 21
8.035416452903447
 12
0.0
 22
0.0
 32
0.0
 14
1.122749993181602
 24
0.7804166500962629
 34
0.0
 15
10.10474993863443
 25
7.023749850866361
 35
0.0
146
0.0
 13
0.0
 23
0.0
 33
0.0
 16
1.0
 26
0.0
 36
0.0
 17
0.0
 27
1.0
 37
0.0
 76
     0
330
1A
331
9AC
  0
MATERIAL
  5
6287
102
{ACAD_XDICTIONARY
360
6288
102
}
102
{ACAD_REACTORS
330
627E
102
}
330
627E
100
AcDbMaterial
  1
ByBlock
 72
     0
 43
0.0208333333333333
 43
0.0
 43
0.0
 43
0.0
 43
0.0
 43
0.0208333333333333
 43
0.0
 43
0.0
 43
0.0
 43
0.0
 43
1.0
 43
0.0
 43
0.0
 43
0.0
 43
0.0
 43
1.0
 77
     0
 47
0.0208333333333333
 47
0.0
 47
0.0
 47
0.0
 47
0.0
 47
0.0208333333333333
 47
0.0
 47
0.0
 47
0.0
 47
0.0
 47
1.0
 47
0.0
 47
0.0
 47
0.0
 47
0.0
 47
1.0
171
     0
 49
0.0208333333333333
 49
0.0
 49
0.0
 49
0.0
 49
0.0
 49
0.0208333333333333
 49
0.0
 49
0.0
 49
0.0
 49
0.0
 49
1.0
 49
0.0
 49
0.0
 49
0.0
 49
0.0
 49
1.0
175
     0
142
0.0208333333333333
142
0.0
142
0.0
142
0.0
142
0.0
142
0.0208333333333333
142
0.0
142
0.0
142
0.0
142
0.0
142
1.0
142
0.0
142
0.0
142
0.0
142
0.0
142
1.0
179
     0
144
0.0208333333333333
144
0.0
144
0.0
144
0.0
144
0.0
144
0.0208333333333333
144
0.0
144
0.0
144
0.0
144
0.0
144
1.0
144
0.0
144
0.0
144
0.0
144
0.0
144
1.0
147
0.0208333333333333
147
0.0
147
0.0
147
0.0
147
0.0
147
0.0208333333333333
147
0.0
147
0.0
147
0.0
147
0.0
147
1.0
147
0.0
147
0.0
147
0.0
147
0.0
147
1.0
  0
MATERIAL
  5
627F
102
{ACAD_XDICTIONARY
360
6280
102
}
102
{ACAD_REACTORS
330
627E
102
}
330
627E
100
AcDbMaterial
  1
ByLayer
 72
     0
 43
0.0208333333333333
 43
0.0
 43
0.0
 43
0.0
 43
0.0
 43
0.0208333333333333
 43
0.0
 43
0.0
 43
0.0
 43
0.0
 43
1.0
 43
0.0
 43
0.0
 43
0.0
 43
0.0
 43
1.0
 77
     0
 47
0.0208333333333333
 47
0.0
 47
0.0
 47
0.0
 47
0.0
 47
0.0208333333333333
 47
0.0
 47
0.0
 47
0.0
 47
0.0
 47
1.0
 47
0.0
 47
0.0
 47
0.0
 47
0.0
 47
1.0
171
     0
 49
0.0208333333333333
 49
0.0
 49
0.0
 49
0.0
 49
0.0
 49
0.0208333333333333
 49
0.0
 49
0.0
 49
0.0
 49
0.0
 49
1.0
 49
0.0
 49
0.0
 49
0.0
 49
0.0
 49
1.0
175
     0
142
0.0208333333333333
142
0.0
142
0.0
142
0.0
142
0.0
142
0.0208333333333333
142
0.0
142
0.0
142
0.0
142
0.0
142
1.0
142
0.0
142
0.0
142
0.0
142
0.0
142
1.0
179
     0
144
0.0208333333333333
144
0.0
144
0.0
144
0.0
144
0.0
144
0.0208333333333333
144
0.0
144
0.0
144
0.0
144
0.0
144
1.0
144
0.0
144
0.0
144
0.0
144
0.0
144
1.0
147
0.0208333333333333
147
0.0
147
0.0
147
0.0
147
0.0
147
0.0208333333333333
147
0.0
147
0.0
147
0.0
147
0.0
147
1.0
147
0.0
147
0.0
147
0.0
147
0.0
147
1.0
  0
MATERIAL
  5
628F
102
{ACAD_XDICTIONARY
360
6290
102
}
102
{ACAD_REACTORS
330
627E
102
}
330
627E
100
AcDbMaterial
  1
Global
 72
     0
 43
0.0208333333333333
 43
0.0
 43
0.0
 43
0.0
 43
0.0
 43
0.0208333333333333
 43
0.0
 43
0.0
 43
0.0
 43
0.0
 43
1.0
 43
0.0
 43
0.0
 43
0.0
 43
0.0
 43
1.0
 77
     0
 47
0.0208333333333333
 47
0.0
 47
0.0
 47
0.0
 47
0.0
 47
0.0208333333333333
 47
0.0
 47
0.0
 47
0.0
 47
0.0
 47
1.0
 47
0.0
 47
0.0
 47
0.0
 47
0.0
 47
1.0
171
     0
 49
0.0208333333333333
 49
0.0
 49
0.0
 49
0.0
 49
0.0
 49
0.0208333333333333
 49
0.0
 49
0.0
 49
0.0
 49
0.0
 49
1.0
 49
0.0
 49
0.0
 49
0.0
 49
0.0
 49
1.0
175
     0
142
0.0208333333333333
142
0.0
142
0.0
142
0.0
142
0.0
142
0.0208333333333333
142
0.0
142
0.0
142
0.0
142
0.0
142
1.0
142
0.0
142
0.0
142
0.0
142
0.0
142
1.0
179
     0
144
0.0208333333333333
144
0.0
144
0.0
144
0.0
144
0.0
144
0.0208333333333333
144
0.0
144
0.0
144
0.0
144
0.0
144
1.0
144
0.0
144
0.0
144
0.0
144
0.0
144
1.0
147
0.0208333333333333
147
0.0
147
0.0
147
0.0
147
0.0
147
0.0208333333333333
147
0.0
147
0.0
147
0.0
147
0.0
147
1.0
147
0.0
147
0.0
147
0.0
147
0.0
147
1.0
  0
MLEADERSTYLE
  5
62C6
102
{ACAD_REACTORS
330
62C5
102
}
330
62C5
100
AcDbMLeaderStyle
179
     2
170
     2
171
     1
172
     0
 90
        2
 40
0.0
 41
0.0
173
     1
 91
-1056964608
340
13
 92
       -2
290
     1
 42
0.09
291
     1
 43
0.36
  3
Standard
 44
0.18
300

342
11
174
     1
178
     6
175
     1
176
     0
 93
-1056964608
 45
0.18
292
     0
297
     0
 46
0.18
 94
-1056964608
 47
1.0
 49
1.0
140
1.0
293
     1
141
0.0
294
     1
177
     0
142
1.0
295
     0
296
     0
143
0.125
271
     0
272
     9
273
     9
298
     0
1001
ACAD_MLEADERVER
1070
     2
  0
MLINESTYLE
  5
17
102
{ACAD_REACTORS
330
16
102
}
330
16
100
AcDbMlineStyle
  2
STANDARD
 70
     0
  3

 62
   256
 51
90.0
 52
90.0
 71
     2
 49
0.5
 62
   256
  6
BYLAYER
 49
-0.5
 62
   256
  6
BYLAYER
  0
ACDBPLACEHOLDER
  5
F
102
{ACAD_REACTORS
330
E
102
}
330
E
  0
SCALE
  5
62B4
102
{ACAD_REACTORS
330
62B3
102
}
330
62B3
100
AcDbScale
 70
     0
300
1:1
140
1.0
141
1.0
290
     1
  0
SCALE
  5
62B5
102
{ACAD_REACTORS
330
62B3
102
}
330
62B3
100
AcDbScale
 70
     0
300
1/128" = 1'-0"
140
0.0078125
141
12.0
290
     0
  0
SCALE
  5
62B6
102
{ACAD_REACTORS
330
62B3
102
}
330
62B3
100
AcDbScale
 70
     0
300
1/64" = 1'-0"
140
0.015625
141
12.0
290
     0
  0
SCALE
  5
62B7
102
{ACAD_REACTORS
330
62B3
102
}
330
62B3
100
AcDbScale
 70
     0
300
1/32" = 1'-0"
140
0.03125
141
12.0
290
     0
  0
SCALE
  5
62B8
102
{ACAD_REACTORS
330
62B3
102
}
330
62B3
100
AcDbScale
 70
     0
300
1/16" = 1'-0"
140
0.0625
141
12.0
290
     0
  0
SCALE
  5
62B9
102
{ACAD_REACTORS
330
62B3
102
}
330
62B3
100
AcDbScale
 70
     0
300
3/32" = 1'-0"
140
0.09375
141
12.0
290
     0
  0
SCALE
  5
62BA
102
{ACAD_REACTORS
330
62B3
102
}
330
62B3
100
AcDbScale
 70
     0
300
1/8" = 1'-0"
140
0.125
141
12.0
290
     0
  0
SCALE
  5
62BB
102
{ACAD_REACTORS
330
62B3
102
}
330
62B3
100
AcDbScale
 70
     0
300
3/16" = 1'-0"
140
0.1875
141
12.0
290
     0
  0
SCALE
  5
62BC
102
{ACAD_REACTORS
330
62B3
102
}
330
62B3
100
AcDbScale
 70
     0
300
1/4" = 1'-0"
140
0.25
141
12.0
290
     0
  0
SCALE
  5
62BD
102
{ACAD_REACTORS
330
62B3
102
}
330
62B3
100
AcDbScale
 70
     0
300
3/8" = 1'-0"
140
0.375
141
12.0
290
     0
  0
SCALE
  5
62BE
102
{ACAD_REACTORS
330
62B3
102
}
330
62B3
100
AcDbScale
 70
     0
300
1/2" = 1'-0"
140
0.5
141
12.0
290
     0
  0
SCALE
  5
62BF
102
{ACAD_REACTORS
330
62B3
102
}
330
62B3
100
AcDbScale
 70
     0
300
3/4" = 1'-0"
140
0.75
141
12.0
290
     0
  0
SCALE
  5
62C0
102
{ACAD_REACTORS
330
62B3
102
}
330
62B3
100
AcDbScale
 70
     0
300
1" = 1'-0"
140
1.0
141
12.0
290
     0
  0
SCALE
  5
62C1
102
{ACAD_REACTORS
330
62B3
102
}
330
62B3
100
AcDbScale
 70
     0
300
1-1/2" = 1'-0"
140
1.5
141
12.0
290
     0
  0
SCALE
  5
62C2
102
{ACAD_REACTORS
330
62B3
102
}
330
62B3
100
AcDbScale
 70
     0
300
3" = 1'-0"
140
3.0
141
12.0
290
     0
  0
SCALE
  5
62C3
102
{ACAD_REACTORS
330
62B3
102
}
330
62B3
100
AcDbScale
 70
     0
300
6" = 1'-0"
140
6.0
141
12.0
290
     0
  0
SCALE
  5
62C4
102
{ACAD_REACTORS
330
62B3
102
}
330
62B3
100
AcDbScale
 70
     0
300
1'-0" = 1'-0"
140
12.0
141
12.0
290
     0
  0
ACDBSECTIONVIEWSTYLE
  5
62C8
102
{ACAD_XDICTIONARY
360
10F44
102
}
102
{ACAD_REACTORS
330
62C7
102
}
330
62C7
100
AcDbModelDocViewStyle
 70
     0
  3
Imperial24
290
     0
100
AcDbSectionViewStyle
 70
     0
 71
     0
 90
       78
 71
     1
340
11
 62
   256
 40
0.24
340
0
340
0
 62
   256
 40
0.24
300
I, O, Q, S, X, Z
 40
0.48
 90
        3
 40
0.18
 90
        1
 71
     2
340
15
 90
       25
 62
   256
340
15
 90
       50
 62
   256
 40
0.24
 40
0.0
 40
0.24
 71
     3
340
11
 62
   256
 40
0.24
 90
        1
 40
0.75
 90
        1
300
%<\AcVar ViewType \f "%tc1">% %<\AcVar ViewSectionStartId>%-%<\AcVar ViewSectionEndId>%\PSCALE %<\AcVar ViewScale \f "%sn">%
 71
     4
 62
   256
 62
   257
300
ANSI31
 40
1.0
 90
        0
290
     0
290
     0
 90
        6
 40
0.0
 40
1.570796326794896
 40
0.2617993877991494
 40
1.308996938995747
 40
-0.2617993877991494
 40
1.832595714594044
  0
ACDBSECTIONVIEWSTYLE
  5
6AFD
102
{ACAD_XDICTIONARY
360
10F48
102
}
102
{ACAD_REACTORS
330
62C7
102
}
330
62C7
100
AcDbModelDocViewStyle
 70
     0
  3
Metric50
290
     0
100
AcDbSectionViewStyle
 70
     0
 71
     0
 90
      102
 71
     1
340
11
 62
   256
 40
5.0
340
0
340
0
 62
   256
 40
5.0
300
I, O, Q, S, X, Z
 40
10.0
 90
        0
 40
2.5
 90
        0
 71
     2
340
15
 90
       25
 62
   256
340
15
 90
       50
 62
   256
 40
5.0
 40
2.5
 40
5.0
 71
     3
340
11
 62
   256
 40
5.0
 90
        0
 40
15.0
 90
        1
300
%<\AcVar ViewSectionStartId>%-%<\AcVar ViewSectionEndId>% (%<\AcVar ViewScale \f "%sn">%)
 71
     4
 62
   256
 62
   257
300
ANSI31
 40
1.0
 90
        0
290
     0
290
     0
 90
        6
 40
0.0
 40
1.570796326794896
 40
0.2617993877991494
 40
1.308996938995747
 40
-0.2617993877991494
 40
1.832595714594044
  0
TABLESTYLE
  5
62B2
102
{ACAD_XDICTIONARY
360
649A
102
}
102
{ACAD_REACTORS
330
62B1
102
}
330
62B1
100
AcDbTableStyle
280
     0
  3
Standard
 70
     0
 71
     0
 40
0.06
 41
0.06
280
     0
281
     0
  7
STANDARD
140
0.18
170
     2
 62
     0
 63
     7
283
     0
 90
      512
 91
        0
  1

274
    -2
284
     1
 64
     0
275
    -2
285
     1
 65
     0
276
    -2
286
     1
 66
     0
277
    -2
287
     1
 67
     0
278
    -2
288
     1
 68
     0
279
    -2
289
     1
 69
     0
  7
STANDARD
140
0.25
170
     5
 62
     0
 63
     7
283
     0
 90
      512
 91
        0
  1

274
    -2
284
     1
 64
     0
275
    -2
285
     1
 65
     0
276
    -2
286
     1
 66
     0
277
    -2
287
     1
 67
     0
278
    -2
288
     1
 68
     0
279
    -2
289
     1
 69
     0
  7
STANDARD
140
0.18
170
     5
 62
     0
 63
     7
283
     0
 90
      512
 91
        0
  1

274
    -2
284
     1
 64
     0
275
    -2
285
     1
 65
     0
276
    -2
286
     1
 66
     0
277
    -2
287
     1
 67
     0
278
    -2
288
     1
 68
     0
279
    -2
289
     1
 69
     0
  0
VISUALSTYLE
  5
629D
102
{ACAD_XDICTIONARY
360
669D
102
}
102
{ACAD_REACTORS
330
6297
102
}
330
6297
100
AcDbVisualStyle
  2

 70
     4
177
     3
291
     0
 70
    58
 90
        0
176
     1
 90
        2
176
     1
 90
        0
176
     1
 90
        0
176
     1
 40
0.6
176
     1
 40
30.0
176
     1
 62
     7
176
     1
 90
        1
176
     1
 90
        4
176
     1
 62
     7
176
     1
 62
   257
176
     1
 90
        1
176
     1
 90
        1
176
     1
 40
1.0
176
     1
 90
        0
176
     1
 62
   257
176
     1
 40
1.0
176
     1
 90
        1
176
     1
 90
        6
176
     1
 90
        2
176
     1
 62
     7
176
     1
 90
        5
176
     1
 90
        0
176
     1
 90
        0
176
     1
290
     0
176
     1
 90
        1
176
     1
 40
0.0
176
     1
 90
        0
176
     1
290
     1
176
     1
290
     1
176
     1
290
     0
176
     1
290
     0
176
     1
290
     0
176
     1
290
     0
176
     1
290
     0
176
     1
290
     0
176
     1
290
     0
176
     1
 90
       50
176
     1
 40
0.0
176
     1
 40
1.0
176
     1
 90
        0
176
     1
 62
    18
176
     1
 90
       50
176
     1
 90
        3
176
     1
 62
     5
420
      255
176
     1
290
     0
176
     1
 90
       50
176
     1
 90
       50
176
     1
 90
       50
176
     1
290
     0
176
     1
 90
       50
176
     1
 62
   256
176
     0
 40
1.0
176
     0
 90
        2
176
     1
  1
strokes_ogs.tif
176
     1
290
     0
176
     1
 40
1.0
176
     1
 40
1.0
176
     1
  0
VISUALSTYLE
  5
66D1
102
{ACAD_REACTORS
330
6297
102
}
330
6297
100
AcDbVisualStyle
  2
3D Hidden
 70
     6
177
     3
291
     0
 70
    58
 90
        1
176
     1
 90
        2
176
     1
 90
        2
176
     1
 90
        0
176
     1
 40
0.6
176
     1
 40
30.0
176
     1
 62
     7
420
 16777215
176
     1
 90
        2
176
     1
 90
        2
176
     1
 62
     7
176
     1
 62
   257
176
     1
 90
        2
176
     1
 90
        1
176
     1
 40
179.0
176
     1
 90
        0
176
     1
 62
   257
176
     1
 40
1.0
176
     1
 90
        1
176
     1
 90
        6
176
     1
 90
        2
176
     1
 62
     7
176
     1
 90
        3
176
     1
 90
        0
176
     1
 90
        0
176
     1
290
     0
176
     1
 90
        1
176
     1
 40
0.0
176
     1
 90
        0
176
     1
290
     0
176
     1
290
     1
176
     1
290
     1
176
     1
290
     0
176
     1
290
     0
176
     1
290
     0
176
     1
290
     0
176
     1
290
     0
176
     1
290
     0
176
     1
 90
       50
176
     1
 40
0.0
176
     1
 40
1.0
176
     1
 90
        0
176
     1
 62
    18
176
     1
 90
       50
176
     1
 90
        3
176
     1
 62
     5
420
      255
176
     1
290
     0
176
     1
 90
       50
176
     1
 90
       50
176
     1
 90
       50
176
     1
290
     0
176
     1
 90
       50
176
     1
 62
   256
176
     0
 40
1.0
176
     0
 90
        2
176
     1
  1
strokes_ogs.tif
176
     1
290
     0
176
     1
 40
1.0
176
     1
 40
1.0
176
     1
  0
VISUALSTYLE
  5
66D0
102
{ACAD_REACTORS
330
6297
102
}
330
6297
100
AcDbVisualStyle
  2
3dWireframe
 70
     5
177
     3
291
     0
 70
    58
 90
        0
176
     1
 90
        2
176
     1
 90
        0
176
     1
 90
        0
176
     1
 40
0.6
176
     1
 40
30.0
176
     1
 62
     7
420
 16777215
176
     1
 90
        1
176
     1
 90
        4
176
     1
 62
     7
176
     1
 62
   257
176
     1
 90
        1
176
     1
 90
        1
176
     1
 40
1.0
176
     1
 90
        0
176
     1
 62
   257
176
     1
 40
1.0
176
     1
 90
        1
176
     1
 90
        6
176
     1
 90
        2
176
     1
 62
     7
176
     1
 90
        5
176
     1
 90
        0
176
     1
 90
        0
176
     1
290
     0
176
     1
 90
        1
176
     1
 40
0.0
176
     1
 90
        0
176
     1
290
     0
176
     1
290
     1
176
     1
290
     1
176
     1
290
     0
176
     1
290
     0
176
     1
290
     0
176
     1
290
     0
176
     1
290
     0
176
     1
290
     0
176
     1
 90
       50
176
     1
 40
0.0
176
     1
 40
1.0
176
     1
 90
        0
176
     1
 62
    18
176
     1
 90
       50
176
     1
 90
        3
176
     1
 62
     5
420
      255
176
     1
290
     0
176
     1
 90
       50
176
     1
 90
       50
176
     1
 90
       50
176
     1
290
     0
176
     1
 90
       50
176
     1
 62
   256
176
     0
 40
1.0
176
     0
 90
        2
176
     1
  1
strokes_ogs.tif
176
     1
290
     0
176
     1
 40
1.0
176
     1
 40
1.0
176
     1
  0
VISUALSTYLE
  5
629C
102
{ACAD_XDICTIONARY
360
669B
102
}
102
{ACAD_REACTORS
330
6297
102
}
330
6297
100
AcDbVisualStyle
  2

 70
     7
177
     3
291
     1
 70
    58
 90
        1
176
     1
 90
        0
176
     1
 90
        1
176
     1
 90
        0
176
     1
 40
0.6
176
     1
 40
30.0
176
     1
 62
     7
176
     1
 90
        0
176
     1
 90
        4
176
     1
 62
     7
176
     1
 62
   257
176
     1
 90
        1
176
     1
 90
        1
176
     1
 40
1.0
176
     1
 90
        8
176
     1
 62
     7
176
     1
 40
1.0
176
     1
 90
        1
176
     1
 90
        6
176
     1
 90
        2
176
     1
 62
     7
176
     1
 90
        5
176
     1
 90
        0
176
     1
 90
        0
176
     1
290
     0
176
     1
 90
        1
176
     1
 40
0.0
176
     1
 90
        0
176
     1
290
     0
176
     1
290
     1
176
     1
290
     1
176
     1
290
     0
176
     1
290
     0
176
     1
290
     0
176
     1
290
     0
176
     1
290
     0
176
     1
290
     0
176
     1
 90
       50
176
     1
 40
0.0
176
     1
 40
1.0
176
     1
 90
        0
176
     1
 62
    18
176
     1
 90
       50
176
     1
 90
        3
176
     1
 62
     5
420
      255
176
     1
290
     0
176
     1
 90
       50
176
     1
 90
       50
176
     1
 90
       50
176
     1
290
     0
176
     1
 90
       50
176
     1
 62
   256
176
     0
 40
1.0
176
     0
 90
        2
176
     1
  1
strokes_ogs.tif
176
     1
290
     0
176
     1
 40
1.0
176
     1
 40
1.0
176
     1
  0
VISUALSTYLE
  5
62A3
102
{ACAD_XDICTIONARY
360
66A9
102
}
102
{ACAD_REACTORS
330
6297
102
}
330
6297
100
AcDbVisualStyle
  2

 70
    12
177
     3
291
     1
 70
    58
 90
        2
176
     1
 90
        2
176
     1
 90
        0
176
     1
 90
        0
176
     1
 40
0.6
176
     1
 40
30.0
176
     1
 62
     7
176
     1
 90
        1
176
     1
 90
        4
176
     1
 62
     7
176
     1
 62
   257
176
     1
 90
        1
176
     1
 90
        1
176
     1
 40
1.0
176
     1
 90
        8
176
     1
 62
     7
176
     1
 40
1.0
176
     1
 90
        1
176
     1
 90
        6
176
     1
 90
        2
176
     1
 62
     7
176
     1
 90
        5
176
     1
 90
        0
176
     1
 90
        0
176
     1
290
     0
176
     1
 90
        1
176
     1
 40
50.0
176
     1
 90
        0
176
     1
290
     0
176
     1
290
     1
176
     1
290
     1
176
     1
290
     0
176
     1
290
     0
176
     1
290
     0
176
     1
290
     0
176
     1
290
     0
176
     1
290
     0
176
     1
 90
       50
176
     1
 40
0.0
176
     1
 40
1.0
176
     1
 90
        0
176
     1
 62
    18
176
     1
 90
       50
176
     1
 90
        3
176
     1
 62
     5
420
      255
176
     1
290
     0
176
     1
 90
       50
176
     1
 90
       50
176
     1
 90
       50
176
     1
290
     0
176
     1
 90
       50
176
     1
 62
   256
176
     0
 40
1.0
176
     0
 90
        2
176
     1
  1
strokes_ogs.tif
176
     1
290
     0
176
     1
 40
1.0
176
     1
 40
1.0
176
     1
  0
VISUALSTYLE
  5
62A7
102
{ACAD_XDICTIONARY
360
66B1
102
}
102
{ACAD_REACTORS
330
6297
102
}
330
6297
100
AcDbVisualStyle
  2

 70
    16
177
     3
291
     1
 70
    58
 90
        2
176
     1
 90
        2
176
     1
 90
        3
176
     1
 90
        0
176
     1
 40
0.6
176
     1
 40
30.0
176
     1
 62
     8
176
     1
 90
        1
176
     1
 90
        4
176
     1
 62
     7
176
     1
 62
   257
176
     1
 90
        1
176
     1
 90
        1
176
     1
 40
1.0
176
     1
 90
        8
176
     1
 62
     8
176
     1
 40
1.0
176
     1
 90
        1
176
     1
 90
        6
176
     1
 90
        2
176
     1
 62
     7
176
     1
 90
        5
176
     1
 90
        0
176
     1
 90
        0
176
     1
290
     0
176
     1
 90
        1
176
     1
 40
0.0
176
     1
 90
        0
176
     1
290
     0
176
     1
290
     1
176
     1
290
     1
176
     1
290
     0
176
     1
290
     0
176
     1
290
     0
176
     1
290
     0
176
     1
290
     0
176
     1
290
     0
176
     1
 90
       50
176
     1
 40
0.0
176
     1
 40
1.0
176
     1
 90
        0
176
     1
 62
    18
176
     1
 90
       50
176
     1
 90
        3
176
     1
 62
     5
420
      255
176
     1
290
     0
176
     1
 90
       50
176
     1
 90
       50
176
     1
 90
       50
176
     1
290
     0
176
     1
 90
       50
176
     1
 62
   256
176
     0
 40
1.0
176
     0
 90
        2
176
     1
  1
strokes_ogs.tif
176
     1
290
     0
176
     1
 40
1.0
176
     1
 40
1.0
176
     1
  0
VISUALSTYLE
  5
62A0
102
{ACAD_XDICTIONARY
360
66A3
102
}
102
{ACAD_REACTORS
330
6297
102
}
330
6297
100
AcDbVisualStyle
  2

 70
     9
177
     3
291
     0
 70
    58
 90
        3
176
     1
 90
        2
176
     1
 90
        0
176
     1
 90
        0
176
     1
 40
0.6
176
     1
 40
30.0
176
     1
 62
     7
176
     1
 90
        2
176
     1
 90
        2
176
     1
 62
     7
176
     1
 62
   257
176
     1
 90
        1
176
     1
 90
        1
176
     1
 40
179.0
176
     1
 90
        8
176
     1
 62
     7
176
     1
 40
1.0
176
     1
 90
        1
176
     1
 90
        6
176
     1
 90
        2
176
     1
 62
     7
176
     1
 90
        3
176
     1
 90
        0
176
     1
 90
        0
176
     1
290
     0
176
     1
 90
        1
176
     1
 40
0.0
176
     1
 90
        0
176
     1
290
     0
176
     1
290
     1
176
     1
290
     1
176
     1
290
     0
176
     1
290
     0
176
     1
290
     0
176
     1
290
     0
176
     1
290
     0
176
     1
290
     0
176
     1
 90
       50
176
     1
 40
0.0
176
     1
 40
1.0
176
     1
 90
        0
176
     1
 62
    18
176
     1
 90
       50
176
     1
 90
        3
176
     1
 62
     5
420
      255
176
     1
290
     0
176
     1
 90
       50
176
     1
 90
       50
176
     1
 90
       50
176
     1
290
     0
176
     1
 90
       50
176
     1
 62
   256
176
     0
 40
1.0
176
     0
 90
        2
176
     1
  1
strokes_ogs.tif
176
     1
290
     0
176
     1
 40
1.0
176
     1
 40
1.0
176
     1
  0
VISUALSTYLE
  5
62A2
102
{ACAD_XDICTIONARY
360
66A7
102
}
102
{ACAD_REACTORS
330
6297
102
}
330
6297
100
AcDbVisualStyle
  2

 70
    11
177
     3
291
     1
 70
    58
 90
        2
176
     1
 90
        2
176
     1
 90
        0
176
     1
 90
        0
176
     1
 40
0.6
176
     1
 40
30.0
176
     1
 62
     7
176
     1
 90
        1
176
     1
 90
        4
176
     1
 62
     7
176
     1
 62
   257
176
     1
 90
        1
176
     1
 90
        1
176
     1
 40
1.0
176
     1
 90
        8
176
     1
 62
     7
176
     1
 40
1.0
176
     1
 90
        1
176
     1
 90
        6
176
     1
 90
        2
176
     1
 62
     7
176
     1
 90
        5
176
     1
 90
        0
176
     1
 90
        0
176
     1
290
     0
176
     1
 90
        1
176
     1
 40
-50.0
176
     1
 90
        0
176
     1
290
     0
176
     1
290
     1
176
     1
290
     1
176
     1
290
     0
176
     1
290
     0
176
     1
290
     0
176
     1
290
     0
176
     1
290
     0
176
     1
290
     0
176
     1
 90
       50
176
     1
 40
0.0
176
     1
 40
1.0
176
     1
 90
        0
176
     1
 62
    18
176
     1
 90
       50
176
     1
 90
        3
176
     1
 62
     5
420
      255
176
     1
290
     0
176
     1
 90
       50
176
     1
 90
       50
176
     1
 90
       50
176
     1
290
     0
176
     1
 90
       50
176
     1
 62
   256
176
     0
 40
1.0
176
     0
 90
        2
176
     1
  1
strokes_ogs.tif
176
     1
290
     0
176
     1
 40
1.0
176
     1
 40
1.0
176
     1
  0
VISUALSTYLE
  5
62AF
102
{ACAD_XDICTIONARY
360
66C1
102
}
102
{ACAD_REACTORS
330
6297
102
}
330
6297
100
AcDbVisualStyle
  2

 70
    22
177
     3
291
     1
 70
    58
 90
        2
176
     0
 90
        2
176
     0
 90
        0
176
     0
 90
        0
176
     0
 40
0.6
176
     0
 40
30.0
176
     0
 62
     7
176
     0
 90
        1
176
     0
 90
        4
176
     0
 62
     7
176
     0
 62
   257
176
     0
 90
        1
176
     0
 90
        1
176
     0
 40
1.0
176
     0
 90
        8
176
     2
 62
     7
176
     0
 40
1.0
176
     0
 90
        1
176
     0
 90
        6
176
     0
 90
        2
176
     0
 62
     7
176
     0
 90
        5
176
     0
 90
        0
176
     0
 90
        0
176
     0
290
     0
176
     0
 90
        1
176
     0
 40
0.0
176
     0
 90
        0
176
     0
290
     0
176
     1
290
     1
176
     1
290
     1
176
     1
290
     0
176
     1
290
     0
176
     1
290
     0
176
     1
290
     0
176
     1
290
     0
176
     1
290
     0
176
     1
 90
       50
176
     0
 40
0.0
176
     0
 40
1.0
176
     0
 90
        0
176
     0
 62
    18
176
     0
 90
       50
176
     0
 90
        3
176
     0
 62
     5
420
      255
176
     0
290
     0
176
     1
 90
       50
176
     0
 90
       50
176
     0
 90
       50
176
     0
290
     0
176
     1
 90
       50
176
     0
 62
   256
176
     0
 40
1.0
176
     0
 90
        2
176
     0
  1
strokes_ogs.tif
176
     0
290
     0
176
     1
 40
1.0
176
     0
 40
1.0
176
     0
  0
VISUALSTYLE
  5
62A6
102
{ACAD_XDICTIONARY
360
66AF
102
}
102
{ACAD_REACTORS
330
6297
102
}
330
6297
100
AcDbVisualStyle
  2

 70
    15
177
     3
291
     1
 70
    58
 90
        2
176
     1
 90
        2
176
     1
 90
        0
176
     1
 90
        0
176
     1
 40
0.6
176
     1
 40
30.0
176
     1
 62
     7
176
     1
 90
        1
176
     1
 90
        4
176
     1
 62
     7
176
     1
 62
   257
176
     1
 90
        1
176
     1
 90
        1
176
     1
 40
1.0
176
     1
 90
        8
176
     1
 62
     7
176
     1
 40
1.0
176
     1
 90
        1
176
     1
 90
        6
176
     1
 90
        2
176
     1
 62
     7
176
     1
 90
        5
176
     1
 90
        0
176
     1
 90
        0
176
     1
290
     0
176
     1
 90
        1
176
     1
 40
0.0
176
     1
 90
        0
176
     1
290
     0
176
     1
290
     1
176
     1
290
     1
176
     1
290
     0
176
     1
290
     0
176
     1
290
     0
176
     1
290
     0
176
     1
290
     0
176
     1
290
     0
176
     1
 90
       50
176
     1
 40
0.0
176
     1
 40
1.0
176
     1
 90
        0
176
     1
 62
    18
176
     1
 90
       50
176
     1
 90
        3
176
     1
 62
     5
420
      255
176
     1
290
     0
176
     1
 90
       50
176
     1
 90
       50
176
     1
 90
       50
176
     1
290
     0
176
     1
 90
       50
176
     1
 62
   256
176
     0
 40
1.0
176
     0
 90
        2
176
     1
  1
strokes_ogs.tif
176
     1
290
     0
176
     1
 40
1.0
176
     1
 40
1.0
176
     1
  0
VISUALSTYLE
  5
6298
102
{ACAD_XDICTIONARY
360
6693
102
}
102
{ACAD_REACTORS
330
6297
102
}
330
6297
100
AcDbVisualStyle
  2

 70
     0
177
     3
291
     1
 70
    58
 90
        2
176
     1
 90
        1
176
     1
 90
        1
176
     1
 90
        2
176
     1
 40
0.6
176
     1
 40
30.0
176
     1
 62
     7
176
     1
 90
        0
176
     1
 90
        0
176
     1
 62
     7
176
     1
 62
   257
176
     1
 90
        1
176
     1
 90
        1
176
     1
 40
1.0
176
     1
 90
        8
176
     1
 62
     7
176
     1
 40
1.0
176
     1
 90
        1
176
     1
 90
        6
176
     1
 90
        2
176
     1
 62
     7
176
     1
 90
        5
176
     1
 90
        0
176
     1
 90
        0
176
     1
290
     0
176
     1
 90
       13
176
     1
 40
0.0
176
     1
 90
        0
176
     1
290
     0
176
     1
290
     1
176
     1
290
     1
176
     1
290
     0
176
     1
290
     0
176
     1
290
     0
176
     1
290
     0
176
     1
290
     0
176
     1
290
     0
176
     1
 90
       50
176
     1
 40
0.0
176
     1
 40
1.0
176
     1
 90
        0
176
     1
 62
    18
176
     1
 90
       50
176
     1
 90
        3
176
     1
 62
     5
420
      255
176
     1
290
     0
176
     1
 90
       50
176
     1
 90
       50
176
     1
 90
       50
176
     1
290
     0
176
     1
 90
       50
176
     1
 62
   256
176
     0
 40
1.0
176
     0
 90
        2
176
     1
  1
strokes_ogs.tif
176
     1
290
     0
176
     1
 40
1.0
176
     1
 40
1.0
176
     1
  0
VISUALSTYLE
  5
6299
102
{ACAD_XDICTIONARY
360
6695
102
}
102
{ACAD_REACTORS
330
6297
102
}
330
6297
100
AcDbVisualStyle
  2

 70
     1
177
     3
291
     1
 70
    58
 90
        2
176
     1
 90
        1
176
     1
 90
        1
176
     1
 90
        2
176
     1
 40
0.6
176
     1
 40
30.0
176
     1
 62
     7
176
     1
 90
        1
176
     1
 90
        0
176
     1
 62
     7
176
     1
 62
   257
176
     1
 90
        1
176
     1
 90
        1
176
     1
 40
1.0
176
     1
 90
        0
176
     1
 62
   257
176
     1
 40
1.0
176
     1
 90
        1
176
     1
 90
        6
176
     1
 90
        2
176
     1
 62
     7
176
     1
 90
        5
176
     1
 90
        0
176
     1
 90
        0
176
     1
290
     0
176
     1
 90
       13
176
     1
 40
0.0
176
     1
 90
        0
176
     1
290
     0
176
     1
290
     1
176
     1
290
     1
176
     1
290
     0
176
     1
290
     0
176
     1
290
     0
176
     1
290
     0
176
     1
290
     0
176
     1
290
     0
176
     1
 90
       50
176
     1
 40
0.0
176
     1
 40
1.0
176
     1
 90
        0
176
     1
 62
    18
176
     1
 90
       50
176
     1
 90
        3
176
     1
 62
     5
420
      255
176
     1
290
     0
176
     1
 90
       50
176
     1
 90
       50
176
     1
 90
       50
176
     1
290
     0
176
     1
 90
       50
176
     1
 62
   256
176
     0
 40
1.0
176
     0
 90
        2
176
     1
  1
strokes_ogs.tif
176
     1
290
     0
176
     1
 40
1.0
176
     1
 40
1.0
176
     1
  0
VISUALSTYLE
  5
629A
102
{ACAD_XDICTIONARY
360
6697
102
}
102
{ACAD_REACTORS
330
6297
102
}
330
6297
100
AcDbVisualStyle
  2

 70
     2
177
     3
291
     1
 70
    58
 90
        2
176
     1
 90
        2
176
     1
 90
        1
176
     1
 90
        2
176
     1
 40
0.6
176
     1
 40
30.0
176
     1
 62
     7
176
     1
 90
        0
176
     1
 90
        0
176
     1
 62
     7
176
     1
 62
   257
176
     1
 90
        1
176
     1
 90
        1
176
     1
 40
1.0
176
     1
 90
        0
176
     1
 62
     7
176
     1
 40
1.0
176
     1
 90
        1
176
     1
 90
        6
176
     1
 90
        2
176
     1
 62
     7
176
     1
 90
        5
176
     1
 90
        0
176
     1
 90
        0
176
     1
290
     0
176
     1
 90
       13
176
     1
 40
0.0
176
     1
 90
        0
176
     1
290
     0
176
     1
290
     1
176
     1
290
     1
176
     1
290
     0
176
     1
290
     0
176
     1
290
     0
176
     1
290
     0
176
     1
290
     0
176
     1
290
     0
176
     1
 90
       50
176
     1
 40
0.0
176
     1
 40
1.0
176
     1
 90
        0
176
     1
 62
    18
176
     1
 90
       50
176
     1
 90
        3
176
     1
 62
     5
420
      255
176
     1
290
     0
176
     1
 90
       50
176
     1
 90
       50
176
     1
 90
       50
176
     1
290
     0
176
     1
 90
       50
176
     1
 62
   256
176
     0
 40
1.0
176
     0
 90
        2
176
     1
  1
strokes_ogs.tif
176
     1
290
     0
176
     1
 40
1.0
176
     1
 40
1.0
176
     1
  0
VISUALSTYLE
  5
629B
102
{ACAD_XDICTIONARY
360
6699
102
}
102
{ACAD_REACTORS
330
6297
102
}
330
6297
100
AcDbVisualStyle
  2

 70
     3
177
     3
291
     1
 70
    58
 90
        2
176
     1
 90
        2
176
     1
 90
        1
176
     1
 90
        2
176
     1
 40
0.6
176
     1
 40
30.0
176
     1
 62
     7
176
     1
 90
        1
176
     1
 90
        0
176
     1
 62
     7
176
     1
 62
   257
176
     1
 90
        1
176
     1
 90
        1
176
     1
 40
1.0
176
     1
 90
        0
176
     1
 62
   257
176
     1
 40
1.0
176
     1
 90
        1
176
     1
 90
        6
176
     1
 90
        2
176
     1
 62
     7
176
     1
 90
        5
176
     1
 90
        0
176
     1
 90
        0
176
     1
290
     0
176
     1
 90
       13
176
     1
 40
0.0
176
     1
 90
        0
176
     1
290
     0
176
     1
290
     1
176
     1
290
     1
176
     1
290
     0
176
     1
290
     0
176
     1
290
     0
176
     1
290
     0
176
     1
290
     0
176
     1
290
     0
176
     1
 90
       50
176
     1
 40
0.0
176
     1
 40
1.0
176
     1
 90
        0
176
     1
 62
    18
176
     1
 90
       50
176
     1
 90
        3
176
     1
 62
     5
420
      255
176
     1
290
     0
176
     1
 90
       50
176
     1
 90
       50
176
     1
 90
       50
176
     1
290
     0
176
     1
 90
       50
176
     1
 62
   256
176
     0
 40
1.0
176
     0
 90
        2
176
     1
  1
strokes_ogs.tif
176
     1
290
     0
176
     1
 40
1.0
176
     1
 40
1.0
176
     1
  0
VISUALSTYLE
  5
629F
102
{ACAD_XDICTIONARY
360
66A1
102
}
102
{ACAD_REACTORS
330
6297
102
}
330
6297
100
AcDbVisualStyle
  2

 70
     6
177
     3
291
     0
 70
    58
 90
        1
176
     1
 90
        2
176
     1
 90
        2
176
     1
 90
        0
176
     1
 40
0.6
176
     1
 40
30.0
176
     1
 62
     7
176
     1
 90
        2
176
     1
 90
        2
176
     1
 62
     7
176
     1
 62
   257
176
     1
 90
        2
176
     1
 90
        1
176
     1
 40
40.0
176
     1
 90
        0
176
     1
 62
   257
176
     1
 40
1.0
176
     1
 90
        1
176
     1
 90
        6
176
     1
 90
        2
176
     1
 62
     7
176
     1
 90
        3
176
     1
 90
        0
176
     1
 90
        0
176
     1
290
     0
176
     1
 90
        1
176
     1
 40
0.0
176
     1
 90
        0
176
     1
290
     0
176
     1
290
     1
176
     1
290
     1
176
     1
290
     0
176
     1
290
     0
176
     1
290
     0
176
     1
290
     0
176
     1
290
     0
176
     1
290
     0
176
     1
 90
       50
176
     1
 40
0.0
176
     1
 40
1.0
176
     1
 90
        0
176
     1
 62
    18
176
     1
 90
       50
176
     1
 90
        3
176
     1
 62
     5
420
      255
176
     1
290
     0
176
     1
 90
       50
176
     1
 90
       50
176
     1
 90
       50
176
     1
290
     0
176
     1
 90
       50
176
     1
 62
   256
176
     0
 40
1.0
176
     0
 90
        2
176
     1
  1
strokes_ogs.tif
176
     1
290
     0
176
     1
 40
1.0
176
     1
 40
1.0
176
     1
  0
VISUALSTYLE
  5
62AD
102
{ACAD_XDICTIONARY
360
66BD
102
}
102
{ACAD_REACTORS
330
6297
102
}
330
6297
100
AcDbVisualStyle
  2

 70
    20
177
     3
291
     1
 70
    58
 90
        2
176
     0
 90
        2
176
     0
 90
        0
176
     0
 90
        0
176
     0
 40
0.6
176
     0
 40
30.0
176
     0
 62
     7
176
     0
 90
        1
176
     0
 90
        4
176
     0
 62
     7
176
     0
 62
   257
176
     0
 90
        1
176
     0
 90
        1
176
     0
 40
1.0
176
     0
 90
       10
176
     2
 62
     7
176
     0
 40
1.0
176
     0
 90
        1
176
     0
 90
        6
176
     0
 90
        2
176
     0
 62
     7
176
     0
 90
        5
176
     0
 90
        0
176
     0
 90
        0
176
     0
290
     0
176
     0
 90
        1
176
     0
 40
0.0
176
     0
 90
        0
176
     0
290
     0
176
     1
290
     1
176
     1
290
     1
176
     1
290
     0
176
     1
290
     0
176
     1
290
     0
176
     1
290
     0
176
     1
290
     0
176
     1
290
     0
176
     1
 90
       50
176
     0
 40
0.0
176
     0
 40
1.0
176
     0
 90
        0
176
     0
 62
    18
176
     0
 90
       50
176
     0
 90
        3
176
     0
 62
     5
420
      255
176
     0
290
     0
176
     1
 90
       50
176
     0
 90
       50
176
     0
 90
       50
176
     0
290
     0
176
     1
 90
       50
176
     0
 62
   256
176
     0
 40
1.0
176
     0
 90
        2
176
     0
  1
strokes_ogs.tif
176
     0
290
     0
176
     1
 40
1.0
176
     0
 40
1.0
176
     0
  0
VISUALSTYLE
  5
62A5
102
{ACAD_XDICTIONARY
360
66AD
102
}
102
{ACAD_REACTORS
330
6297
102
}
330
6297
100
AcDbVisualStyle
  2

 70
    14
177
     3
291
     1
 70
    58
 90
        2
176
     1
 90
        2
176
     1
 90
        0
176
     1
 90
        0
176
     1
 40
0.6
176
     1
 40
30.0
176
     1
 62
     7
176
     1
 90
        1
176
     1
 90
        4
176
     1
 62
     7
176
     1
 62
   257
176
     1
 90
        7
176
     1
 90
        7
176
     1
 40
1.0
176
     1
 90
        8
176
     1
 62
     7
176
     1
 40
1.0
176
     1
 90
        1
176
     1
 90
        6
176
     1
 90
        2
176
     1
 62
     7
176
     1
 90
        5
176
     1
 90
        0
176
     1
 90
        0
176
     1
290
     0
176
     1
 90
        1
176
     1
 40
0.0
176
     1
 90
        0
176
     1
290
     0
176
     1
290
     1
176
     1
290
     1
176
     1
290
     0
176
     1
290
     0
176
     1
290
     0
176
     1
290
     0
176
     1
290
     0
176
     1
290
     0
176
     1
 90
       50
176
     1
 40
0.0
176
     1
 40
1.0
176
     1
 90
        0
176
     1
 62
    18
176
     1
 90
       50
176
     1
 90
        3
176
     1
 62
     5
420
      255
176
     1
290
     0
176
     1
 90
       50
176
     1
 90
       50
176
     1
 90
       50
176
     1
290
     0
176
     1
 90
       50
176
     1
 62
   256
176
     0
 40
1.0
176
     0
 90
        2
176
     1
  1
strokes_ogs.tif
176
     1
290
     0
176
     1
 40
1.0
176
     1
 40
1.0
176
     1
  0
VISUALSTYLE
  5
62AE
102
{ACAD_XDICTIONARY
360
66BF
102
}
102
{ACAD_REACTORS
330
6297
102
}
330
6297
100
AcDbVisualStyle
  2

 70
    21
177
     3
291
     1
 70
    58
 90
        2
176
     0
 90
        2
176
     0
 90
        0
176
     0
 90
        0
176
     0
 40
0.6
176
     0
 40
30.0
176
     0
 62
     7
176
     0
 90
        1
176
     0
 90
        4
176
     0
 62
     7
176
     0
 62
   257
176
     0
 90
        1
176
     0
 90
        1
176
     0
 40
1.0
176
     0
 90
        9
176
     2
 62
     7
176
     0
 40
1.0
176
     0
 90
        1
176
     0
 90
        6
176
     0
 90
        2
176
     0
 62
     7
176
     0
 90
        5
176
     0
 90
        0
176
     0
 90
        0
176
     0
290
     0
176
     0
 90
        1
176
     0
 40
0.0
176
     0
 90
        0
176
     0
290
     0
176
     1
290
     1
176
     1
290
     1
176
     1
290
     0
176
     1
290
     0
176
     1
290
     0
176
     1
290
     0
176
     1
290
     0
176
     1
290
     0
176
     1
 90
       50
176
     0
 40
0.0
176
     0
 40
1.0
176
     0
 90
        0
176
     0
 62
    18
176
     0
 90
       50
176
     0
 90
        3
176
     0
 62
     5
420
      255
176
     0
290
     0
176
     1
 90
       50
176
     0
 90
       50
176
     0
 90
       50
176
     0
290
     0
176
     1
 90
       50
176
     0
 62
   256
176
     0
 40
1.0
176
     0
 90
        2
176
     0
  1
strokes_ogs.tif
176
     0
290
     0
176
     1
 40
1.0
176
     0
 40
1.0
176
     0
  0
VISUALSTYLE
  5
62A1
102
{ACAD_XDICTIONARY
360
66A5
102
}
102
{ACAD_REACTORS
330
6297
102
}
330
6297
100
AcDbVisualStyle
  2

 70
     8
177
     3
291
     0
 70
    58
 90
        2
176
     1
 90
        3
176
     1
 90
        0
176
     1
 90
        2
176
     1
 40
0.6
176
     1
 40
30.0
176
     1
 62
     7
176
     1
 90
        0
176
     1
 90
        0
176
     1
 62
     7
176
     1
 62
   257
176
     1
 90
        1
176
     1
 90
        1
176
     1
 40
1.0
176
     1
 90
        8
176
     1
 62
   257
176
     1
 40
1.0
176
     1
 90
        1
176
     1
 90
        6
176
     1
 90
        2
176
     1
 62
     7
176
     1
 90
        3
176
     1
 90
        0
176
     1
 90
        0
176
     1
290
     0
176
     1
 90
       13
176
     1
 40
0.0
176
     1
 90
        0
176
     1
290
     0
176
     1
290
     1
176
     1
290
     1
176
     1
290
     0
176
     1
290
     0
176
     1
290
     0
176
     1
290
     0
176
     1
290
     0
176
     1
290
     0
176
     1
 90
       50
176
     1
 40
0.0
176
     1
 40
1.0
176
     1
 90
        0
176
     1
 62
    18
176
     1
 90
       50
176
     1
 90
        3
176
     1
 62
     5
420
      255
176
     1
290
     0
176
     1
 90
       50
176
     1
 90
       50
176
     1
 90
       50
176
     1
290
     0
176
     1
 90
       50
176
     1
 62
   256
176
     0
 40
1.0
176
     0
 90
        2
176
     1
  1
strokes_ogs.tif
176
     1
290
     0
176
     1
 40
1.0
176
     1
 40
1.0
176
     1
  0
VISUALSTYLE
  5
62AC
102
{ACAD_XDICTIONARY
360
66BB
102
}
102
{ACAD_REACTORS
330
6297
102
}
330
6297
100
AcDbVisualStyle
  2

 70
    27
177
     3
291
     0
 70
    58
 90
        2
176
     1
 90
        2
176
     1
 90
        1
176
     1
 90
        2
176
     1
 40
0.6
176
     1
 40
30.0
176
     1
 62
     7
176
     1
 90
        0
176
     1
 90
        4
176
     1
 62
     7
176
     1
 62
   257
176
     1
 90
        1
176
     1
 90
        1
176
     1
 40
1.0
176
     1
 90
        8
176
     1
 62
   257
176
     1
 40
1.0
176
     1
 90
        1
176
     1
 90
        6
176
     1
 90
        2
176
     1
 62
     8
176
     1
 90
        3
176
     1
 90
        0
176
     1
 90
        0
176
     1
290
     0
176
     1
 90
        5
176
     1
 40
0.0
176
     1
 90
        0
176
     1
290
     0
176
     1
290
     1
176
     1
290
     1
176
     1
290
     0
176
     1
290
     0
176
     1
290
     0
176
     1
290
     0
176
     1
290
     0
176
     1
290
     0
176
     1
 90
       50
176
     1
 40
0.0
176
     1
 40
1.0
176
     1
 90
        0
176
     1
 62
    18
176
     1
 90
       50
176
     1
 90
        3
176
     1
 62
     5
420
      255
176
     1
290
     0
176
     1
 90
       50
176
     1
 90
       50
176
     1
 90
       50
176
     1
290
     0
176
     1
 90
       50
176
     1
 62
   256
176
     0
 40
1.0
176
     0
 90
        2
176
     1
  1
strokes_ogs.tif
176
     1
290
     0
176
     1
 40
1.0
176
     1
 40
1.0
176
     1
  0
VISUALSTYLE
  5
62AB
102
{ACAD_XDICTIONARY
360
66B9
102
}
102
{ACAD_REACTORS
330
6297
102
}
330
6297
100
AcDbVisualStyle
  2

 70
    26
177
     3
291
     0
 70
    58
 90
        2
176
     1
 90
        2
176
     1
 90
        1
176
     1
 90
        2
176
     1
 40
0.6
176
     1
 40
30.0
176
     1
 62
     7
176
     1
 90
        1
176
     1
 90
        2
176
     1
 62
     7
176
     1
 62
   257
176
     1
 90
        2
176
     1
 90
        1
176
     1
 40
1.0
176
     1
 90
        8
176
     1
 62
   257
176
     1
 40
1.0
176
     1
 90
        1
176
     1
 90
        6
176
     1
 90
        2
176
     1
 62
     7
176
     1
 90
        3
176
     1
 90
        0
176
     1
 90
        0
176
     1
290
     0
176
     1
 90
        5
176
     1
 40
0.0
176
     1
 90
        0
176
     1
290
     0
176
     1
290
     1
176
     1
290
     1
176
     1
290
     0
176
     1
290
     0
176
     1
290
     0
176
     1
290
     0
176
     1
290
     0
176
     1
290
     0
176
     1
 90
       50
176
     1
 40
0.0
176
     1
 40
1.0
176
     1
 90
        0
176
     1
 62
    18
176
     1
 90
       50
176
     1
 90
        3
176
     1
 62
     5
420
      255
176
     1
290
     0
176
     1
 90
       50
176
     1
 90
       50
176
     1
 90
       50
176
     1
290
     0
176
     1
 90
       50
176
     1
 62
   256
176
     0
 40
1.0
176
     0
 90
        2
176
     1
  1
strokes_ogs.tif
176
     1
290
     0
176
     1
 40
1.0
176
     1
 40
1.0
176
     1
  0
VISUALSTYLE
  5
62A8
102
{ACAD_XDICTIONARY
360
66B3
102
}
102
{ACAD_REACTORS
330
6297
102
}
330
6297
100
AcDbVisualStyle
  2

 70
    23
177
     3
291
     0
 70
    58
 90
        2
176
     1
 90
        2
176
     1
 90
        3
176
     1
 90
        0
176
     1
 40
0.6
176
     1
 40
30.0
176
     1
 62
     7
176
     1
 90
        2
176
     1
 90
        2
176
     1
 62
     7
176
     1
 62
     7
176
     1
 90
        1
176
     1
 90
        1
176
     1
 40
40.0
176
     1
 90
        8
176
     1
 62
     7
176
     1
 40
1.0
176
     1
 90
        1
176
     1
 90
        6
176
     1
 90
        2
176
     1
 62
     7
176
     1
 90
        3
176
     1
 90
        0
176
     1
 90
        0
176
     1
290
     0
176
     1
 90
        1
176
     1
 40
0.0
176
     1
 90
        0
176
     1
290
     0
176
     1
290
     1
176
     1
290
     1
176
     1
290
     0
176
     1
290
     0
176
     1
290
     0
176
     1
290
     0
176
     1
290
     0
176
     1
290
     0
176
     1
 90
       50
176
     1
 40
0.0
176
     1
 40
1.0
176
     1
 90
        0
176
     1
 62
    18
176
     1
 90
       50
176
     1
 90
        3
176
     1
 62
     5
420
      255
176
     1
290
     0
176
     1
 90
       50
176
     1
 90
       50
176
     1
 90
       50
176
     1
290
     0
176
     1
 90
       50
176
     1
 62
   256
176
     0
 40
1.0
176
     0
 90
        2
176
     1
  1
strokes_ogs.tif
176
     1
290
     0
176
     1
 40
1.0
176
     1
 40
1.0
176
     1
  0
VISUALSTYLE
  5
62A9
102
{ACAD_XDICTIONARY
360
66B5
102
}
102
{ACAD_REACTORS
330
6297
102
}
330
6297
100
AcDbVisualStyle
  2

 70
    24
177
     3
291
     0
 70
    58
 90
        1
176
     1
 90
        2
176
     1
 90
        2
176
     1
 90
        0
176
     1
 40
0.6
176
     1
 40
30.0
176
     1
 62
     7
176
     1
 90
        2
176
     1
 90
        2
176
     1
 62
     7
176
     1
 62
     7
176
     1
 90
        1
176
     1
 90
        1
176
     1
 40
40.0
176
     1
 90
       11
176
     1
 62
     7
176
     1
 40
1.0
176
     1
 90
        1
176
     1
 90
        6
176
     1
 90
        2
176
     1
 62
     7
176
     1
 90
        6
176
     1
 90
        0
176
     1
 90
        0
176
     1
290
     0
176
     1
 90
        1
176
     1
 40
0.0
176
     1
 90
        0
176
     1
290
     0
176
     1
290
     1
176
     1
290
     1
176
     1
290
     0
176
     1
290
     0
176
     1
290
     0
176
     1
290
     0
176
     1
290
     0
176
     1
290
     0
176
     1
 90
       50
176
     1
 40
0.0
176
     1
 40
1.0
176
     1
 90
        0
176
     1
 62
    18
176
     1
 90
       50
176
     1
 90
        3
176
     1
 62
     5
420
      255
176
     1
290
     0
176
     1
 90
       50
176
     1
 90
       50
176
     1
 90
       50
176
     1
290
     0
176
     1
 90
       50
176
     1
 62
   256
176
     0
 40
1.0
176
     0
 90
        2
176
     1
  1
strokes_ogs.tif
176
     1
290
     0
176
     1
 40
1.0
176
     1
 40
1.0
176
     1
  0
VISUALSTYLE
  5
62A4
102
{ACAD_XDICTIONARY
360
66AB
102
}
102
{ACAD_REACTORS
330
6297
102
}
330
6297
100
AcDbVisualStyle
  2

 70
    13
177
     3
291
     1
 70
    58
 90
        2
176
     1
 90
        2
176
     1
 90
        0
176
     1
 90
        0
176
     1
 40
0.6
176
     1
 40
30.0
176
     1
 62
     7
176
     1
 90
        1
176
     1
 90
        4
176
     1
 62
     7
176
     1
 62
   257
176
     1
 90
        1
176
     1
 90
        1
176
     1
 40
1.0
176
     1
 90
       12
176
     1
 62
     7
176
     1
 40
1.0
176
     1
 90
        1
176
     1
 90
        6
176
     1
 90
        2
176
     1
 62
     7
176
     1
 90
        5
176
     1
 90
        0
176
     1
 90
        0
176
     1
290
     0
176
     1
 90
        1
176
     1
 40
0.0
176
     1
 90
        0
176
     1
290
     0
176
     1
290
     1
176
     1
290
     1
176
     1
290
     0
176
     1
290
     0
176
     1
290
     0
176
     1
290
     0
176
     1
290
     0
176
     1
290
     0
176
     1
 90
       50
176
     1
 40
0.0
176
     1
 40
1.0
176
     1
 90
        0
176
     1
 62
    18
176
     1
 90
       50
176
     1
 90
        3
176
     1
 62
     5
420
      255
176
     1
290
     0
176
     1
 90
       50
176
     1
 90
       50
176
     1
 90
       50
176
     1
290
     0
176
     1
 90
       50
176
     1
 62
   256
176
     0
 40
1.0
176
     0
 90
        2
176
     1
  1
strokes_ogs.tif
176
     1
290
     0
176
     1
 40
1.0
176
     1
 40
1.0
176
     1
  0
VISUALSTYLE
  5
629E
102
{ACAD_XDICTIONARY
360
669F
102
}
102
{ACAD_REACTORS
330
6297
102
}
330
6297
100
AcDbVisualStyle
  2

 70
     5
177
     3
291
     0
 70
    58
 90
        0
176
     1
 90
        2
176
     1
 90
        0
176
     1
 90
        0
176
     1
 40
0.6
176
     1
 40
30.0
176
     1
 62
     7
176
     1
 90
        1
176
     1
 90
        4
176
     1
 62
     7
176
     1
 62
   257
176
     1
 90
        1
176
     1
 90
        1
176
     1
 40
1.0
176
     1
 90
        0
176
     1
 62
   257
176
     1
 40
1.0
176
     1
 90
        1
176
     1
 90
        6
176
     1
 90
        2
176
     1
 62
     7
176
     1
 90
        3
176
     1
 90
        0
176
     1
 90
        0
176
     1
290
     0
176
     1
 90
        1
176
     1
 40
0.0
176
     1
 90
        0
176
     1
290
     0
176
     1
290
     1
176
     1
290
     1
176
     1
290
     0
176
     1
290
     0
176
     1
290
     0
176
     1
290
     0
176
     1
290
     0
176
     1
290
     0
176
     1
 90
       50
176
     1
 40
0.0
176
     1
 40
1.0
176
     1
 90
        0
176
     1
 62
    18
176
     1
 90
       50
176
     1
 90
        3
176
     1
 62
     5
420
      255
176
     1
290
     0
176
     1
 90
       50
176
     1
 90
       50
176
     1
 90
       50
176
     1
290
     0
176
     1
 90
       50
176
     1
 62
   256
176
     0
 40
1.0
176
     0
 90
        2
176
     1
  1
strokes_ogs.tif
176
     1
290
     0
176
     1
 40
1.0
176
     1
 40
1.0
176
     1
  0
VISUALSTYLE
  5
62AA
102
{ACAD_XDICTIONARY
360
66B7
102
}
102
{ACAD_REACTORS
330
6297
102
}
330
6297
100
AcDbVisualStyle
  2

 70
    25
177
     3
291
     0
 70
    58
 90
        2
176
     1
 90
        2
176
     1
 90
        1
176
     1
 90
        1
176
     1
 40
0.5
176
     1
 40
30.0
176
     1
 62
     7
176
     1
 90
        1
176
     1
 90
        0
176
     1
 62
     7
176
     1
 62
   257
176
     1
 90
        1
176
     1
 90
        1
176
     1
 40
1.0
176
     1
 90
        8
176
     1
 62
     7
176
     1
 40
1.0
176
     1
 90
        1
176
     1
 90
        6
176
     1
 90
        2
176
     1
 62
     7
176
     1
 90
        3
176
     1
 90
        0
176
     1
 90
        0
176
     1
290
     0
176
     1
 90
       13
176
     1
 40
0.0
176
     1
 90
        0
176
     1
290
     0
176
     1
290
     1
176
     1
290
     1
176
     1
290
     0
176
     1
290
     0
176
     1
290
     0
176
     1
290
     0
176
     1
290
     0
176
     1
290
     0
176
     1
 90
       50
176
     1
 40
0.0
176
     1
 40
1.0
176
     1
 90
        0
176
     1
 62
    18
176
     1
 90
       50
176
     1
 90
        3
176
     1
 62
     5
420
      255
176
     1
290
     0
176
     1
 90
       50
176
     1
 90
       50
176
     1
 90
       50
176
     1
290
     0
176
     1
 90
       50
176
     1
 62
   256
176
     0
 40
1.0
176
     0
 90
        2
176
     1
  1
strokes_ogs.tif
176
     1
290
     0
176
     1
 40
1.0
176
     1
 40
1.0
176
     1
  0
DICTIONARYVAR
  5
6384
102
{ACAD_REACTORS
330
5697
102
}
330
5697
100
DictionaryVariables
280
     0
  1
1:1
  0
DICTIONARYVAR
  5
6381
102
{ACAD_REACTORS
330
5697
102
}
330
5697
100
DictionaryVariables
280
     0
  1
STANDARD
  0
DICTIONARYVAR
  5
6380
102
{ACAD_REACTORS
330
5697
102
}
330
5697
100
DictionaryVariables
280
     0
  1
STANDARD
  0
DICTIONARYVAR
  5
6382
102
{ACAD_REACTORS
330
5697
102
}
330
5697
100
DictionaryVariables
280
     0
  1
Imperial24
  0
DICTIONARYVAR
  5
6383
102
{ACAD_REACTORS
330
5697
102
}
330
5697
100
DictionaryVariables
280
     0
  1
Imperial24
  0
DICTIONARYVAR
  5
5698
102
{ACAD_REACTORS
330
5697
102
}
330
5697
100
DictionaryVariables
280
     0
  1
1
  0
DICTIONARYVAR
  5
6386
102
{ACAD_REACTORS
330
5697
102
}
330
5697
100
DictionaryVariables
280
     0
  1
0
  0
DICTIONARYVAR
  5
66D5
102
{ACAD_REACTORS
330
5697
102
}
330
5697
100
DictionaryVariables
280
     0
  1
1
  0
DICTIONARYVAR
  5
66D6
102
{ACAD_REACTORS
330
5697
102
}
330
5697
100
DictionaryVariables
280
     0
  1
15
  0
DICTIONARYVAR
  5
66D4
102
{ACAD_REACTORS
330
5697
102
}
330
5697
100
DictionaryVariables
280
     0
  1
0
  0
DICTIONARYVAR
  5
66D3
102
{ACAD_REACTORS
330
5697
102
}
330
5697
100
DictionaryVariables
280
     0
  1
0
  0
DICTIONARYVAR
  5
6385
102
{ACAD_REACTORS
330
5697
102
}
330
5697
100
DictionaryVariables
280
     0
  1
127
  0
DICTIONARY
  5
10F46
330
62CA
100
AcDbDictionary
280
     1
281
     1
  3
ACAD_XREC_ROUNDTRIP
360
10F9A
  0
DICTIONARY
  5
10F4A
330
6AFE
100
AcDbDictionary
280
     1
281
     1
  3
ACAD_XREC_ROUNDTRIP
360
10F9C
  0
DICTIONARY
  5
FF76
330
6262
100
AcDbDictionary
280
     1
281
     1
  0
DICTIONARY
  5
6288
330
6287
100
AcDbDictionary
280
     1
281
     1
  3
ACAD_XREC_ROUNDTRIP
360
64A9
  3
BUMPTILE
360
628A
  3
DIFFUSETILE
360
6289
  3
OPACITYTILE
360
628D
  3
REFLECTIONTILE
360
628C
  3
REFRACTIONTILE
360
628E
  3
SPECULARTILE
360
628B
  0
DICTIONARY
  5
6280
330
627F
100
AcDbDictionary
280
     1
281
     1
  3
ACAD_XREC_ROUNDTRIP
360
64A8
  3
BUMPTILE
360
6282
  3
DIFFUSETILE
360
6281
  3
OPACITYTILE
360
6285
  3
REFLECTIONTILE
360
6284
  3
REFRACTIONTILE
360
6286
  3
SPECULARTILE
360
6283
  0
DICTIONARY
  5
6290
330
628F
100
AcDbDictionary
280
     1
281
     1
  3
ACAD_XREC_ROUNDTRIP
360
64AA
  3
BUMPTILE
360
6292
  3
DIFFUSETILE
360
6291
  3
FBXASSET
360
63D7
  3
OPACITYTILE
360
6295
  3
REFLECTIONTILE
360
6294
  3
REFRACTIONTILE
360
6296
  3
SPECULARTILE
360
6293
  0
DICTIONARY
  5
10F44
330
62C8
100
AcDbDictionary
280
     1
281
     1
  3
ACAD_XREC_ROUNDTRIP
360
10F99
  0
DICTIONARY
  5
10F48
330
6AFD
100
AcDbDictionary
280
     1
281
     1
  3
ACAD_XREC_ROUNDTRIP
360
10F9B
  0
DICTIONARY
  5
649A
330
62B2
100
AcDbDictionary
280
     1
281
     1
  3
ACAD_ROUNDTRIP_2008_TABLESTYLE_CELLSTYLEMAP
360
10F98
  0
DICTIONARY
  5
669D
330
629D
100
AcDbDictionary
280
     1
281
     1
  3
ACAD_XREC_ROUNDTRIP
360
669E
  0
DICTIONARY
  5
669B
330
629C
100
AcDbDictionary
280
     1
281
     1
  3
ACAD_XREC_ROUNDTRIP
360
669C
  0
DICTIONARY
  5
66A9
330
62A3
100
AcDbDictionary
280
     1
281
     1
  3
ACAD_XREC_ROUNDTRIP
360
66AA
  0
DICTIONARY
  5
66B1
330
62A7
100
AcDbDictionary
280
     1
281
     1
  3
ACAD_XREC_ROUNDTRIP
360
66B2
  0
DICTIONARY
  5
66A3
330
62A0
100
AcDbDictionary
280
     1
281
     1
  3
ACAD_XREC_ROUNDTRIP
360
66A4
  0
DICTIONARY
  5
66A7
330
62A2
100
AcDbDictionary
280
     1
281
     1
  3
ACAD_XREC_ROUNDTRIP
360
66A8
  0
DICTIONARY
  5
66C1
330
62AF
100
AcDbDictionary
280
     1
281
     1
  3
ACAD_XREC_ROUNDTRIP
360
66C2
  0
DICTIONARY
  5
66AF
330
62A6
100
AcDbDictionary
280
     1
281
     1
  3
ACAD_XREC_ROUNDTRIP
360
66B0
  0
DICTIONARY
  5
6693
330
6298
100
AcDbDictionary
280
     1
281
     1
  3
ACAD_XREC_ROUNDTRIP
360
6694
  0
DICTIONARY
  5
6695
330
6299
100
AcDbDictionary
280
     1
281
     1
  3
ACAD_XREC_ROUNDTRIP
360
6696
  0
DICTIONARY
  5
6697
330
629A
100
AcDbDictionary
280
     1
281
     1
  3
ACAD_XREC_ROUNDTRIP
360
6698
  0
DICTIONARY
  5
6699
330
629B
100
AcDbDictionary
280
     1
281
     1
  3
ACAD_XREC_ROUNDTRIP
360
669A
  0
DICTIONARY
  5
66A1
330
629F
100
AcDbDictionary
280
     1
281
     1
  3
ACAD_XREC_ROUNDTRIP
360
66A2
  0
DICTIONARY
  5
66BD
330
62AD
100
AcDbDictionary
280
     1
281
     1
  3
ACAD_XREC_ROUNDTRIP
360
66BE
  0
DICTIONARY
  5
66AD
330
62A5
100
AcDbDictionary
280
     1
281
     1
  3
ACAD_XREC_ROUNDTRIP
360
66AE
  0
DICTIONARY
  5
66BF
330
62AE
100
AcDbDictionary
280
     1
281
     1
  3
ACAD_XREC_ROUNDTRIP
360
66C0
  0
DICTIONARY
  5
66A5
330
62A1
100
AcDbDictionary
280
     1
281
     1
  3
ACAD_XREC_ROUNDTRIP
360
66A6
  0
DICTIONARY
  5
66BB
330
62AC
100
AcDbDictionary
280
     1
281
     1
  3
ACAD_XREC_ROUNDTRIP
360
66BC
  0
DICTIONARY
  5
66B9
330
62AB
100
AcDbDictionary
280
     1
281
     1
  3
ACAD_XREC_ROUNDTRIP
360
66BA
  0
DICTIONARY
  5
66B3
330
62A8
100
AcDbDictionary
280
     1
281
     1
  3
ACAD_XREC_ROUNDTRIP
360
66B4
  0
DICTIONARY
  5
66B5
330
62A9
100
AcDbDictionary
280
     1
281
     1
  3
ACAD_XREC_ROUNDTRIP
360
66B6
  0
DICTIONARY
  5
66AB
330
62A4
100
AcDbDictionary
280
     1
281
     1
  3
ACAD_XREC_ROUNDTRIP
360
66AC
  0
DICTIONARY
  5
669F
330
629E
100
AcDbDictionary
280
     1
281
     1
  3
ACAD_XREC_ROUNDTRIP
360
66A0
  0
DICTIONARY
  5
66B7
330
62AA
100
AcDbDictionary
280
     1
281
     1
  3
ACAD_XREC_ROUNDTRIP
360
66B8
  0
XRECORD
  5
10F9A
102
{ACAD_REACTORS
330
10F46
102
}
330
10F46
100
AcDbXrecord
280
     1
102
DISPLAYNAME
  1

102
FLAGS
 90
        0
  0
XRECORD
  5
10F9C
102
{ACAD_REACTORS
330
10F4A
102
}
330
10F4A
100
AcDbXrecord
280
     1
102
DISPLAYNAME
  1
Metric50
102
FLAGS
 90
        0
  0
XRECORD
  5
64A9
102
{ACAD_REACTORS
330
6288
102
}
330
6288
100
AcDbXrecord
280
     1
102
MATERIAL
148
0.0
149
0.0
149
0.0
 93
        0
 94
      127
282
     0
 72
     0
 77
     0
171
     0
175
     0
179
     0
273
     0
  0
XRECORD
  5
628A
102
{ACAD_REACTORS
330
6288
102
}
330
6288
100
AcDbXrecord
280
     1
270
     1
271
     1
  0
XRECORD
  5
6289
102
{ACAD_REACTORS
330
6288
102
}
330
6288
100
AcDbXrecord
280
     1
270
     1
271
     1
  0
XRECORD
  5
628D
102
{ACAD_REACTORS
330
6288
102
}
330
6288
100
AcDbXrecord
280
     1
270
     1
271
     1
  0
XRECORD
  5
628C
102
{ACAD_REACTORS
330
6288
102
}
330
6288
100
AcDbXrecord
280
     1
270
     1
271
     1
  0
XRECORD
  5
628E
102
{ACAD_REACTORS
330
6288
102
}
330
6288
100
AcDbXrecord
280
     1
270
     1
271
     1
  0
XRECORD
  5
628B
102
{ACAD_REACTORS
330
6288
102
}
330
6288
100
AcDbXrecord
280
     1
270
     1
271
     1
  0
XRECORD
  5
64A8
102
{ACAD_REACTORS
330
6280
102
}
330
6280
100
AcDbXrecord
280
     1
102
MATERIAL
148
0.0
149
0.0
149
0.0
 93
        0
 94
      127
282
     0
 72
     0
 77
     0
171
     0
175
     0
179
     0
273
     0
  0
XRECORD
  5
6282
102
{ACAD_REACTORS
330
6280
102
}
330
6280
100
AcDbXrecord
280
     1
270
     1
271
     1
  0
XRECORD
  5
6281
102
{ACAD_REACTORS
330
6280
102
}
330
6280
100
AcDbXrecord
280
     1
270
     1
271
     1
  0
XRECORD
  5
6285
102
{ACAD_REACTORS
330
6280
102
}
330
6280
100
AcDbXrecord
280
     1
270
     1
271
     1
  0
XRECORD
  5
6284
102
{ACAD_REACTORS
330
6280
102
}
330
6280
100
AcDbXrecord
280
     1
270
     1
271
     1
  0
XRECORD
  5
6286
102
{ACAD_REACTORS
330
6280
102
}
330
6280
100
AcDbXrecord
280
     1
270
     1
271
     1
  0
XRECORD
  5
6283
102
{ACAD_REACTORS
330
6280
102
}
330
6280
100
AcDbXrecord
280
     1
270
     1
271
     1
  0
XRECORD
  5
64AA
102
{ACAD_REACTORS
330
6290
102
}
330
6290
100
AcDbXrecord
280
     1
102
MATERIAL
148
0.0
149
0.0
149
0.0
 93
        0
 94
      127
282
     0
 72
     0
 77
     0
171
     0
175
     0
179
     0
273
     0
  0
XRECORD
  5
6292
102
{ACAD_REACTORS
330
6290
102
}
330
6290
100
AcDbXrecord
280
     1
270
     1
271
     1
  0
XRECORD
  5
6291
102
{ACAD_REACTORS
330
6290
102
}
330
6290
100
AcDbXrecord
280
     1
270
     1
271
     1
  0
XRECORD
  5
63D7
102
{ACAD_REACTORS
330
6290
102
}
330
6290
100
AcDbXrecord
280
     1
 70
     1
 90
652598616
 71
     1
  1
E9D7140A-5182-4D1A-8DAF-B29BB4741B8E
311
504B030414000608080054756A488F956FB8DA000000200100004F00000046353733343737332D383136372D343130432D424146432D4533333435423933463535312F4173736574446174612F446566696E6974696F6E4974657261746F7250726F706572746965732E62696E454E3D6FC23010753B5075E8C03F40ECAE3F
311
B00244404580742A0B9DBAA0C31C6924C741B62375ECD87FDDDA828A93DEBDFB7C773F8490DFABC590DC457C47FF14F9152DBA5AEFF42736407AA962DA0398875BEF3E86295DE3093A13D2D65BED351A0316DBCEF76FA38306429403F39C961E23FE0B3E29549763E9FE3622BD94188EE7FC05BCC73067A7C317DB2C0BB91E
311
97059D8A72495526059D64AB0D559372C5A75C48A10AE6D0B79DD3E899647C7F55DE9F6D85F3A17618FF380E17928B8CF21115FC5DA85CC95C898F190B75838B990FAEB6D5C042F307504B030414000608080054756A4803B7991C25010000300200004500000046353733343737332D383136372D343130432D424146432D
311
4533333435423933463535312F4173736574446174612F496E7374616E636550726F706572746965732E62696EEB606060F80F0540260323103700495E20ED9E9A975A94991C9C9C919A9BA8021470B5743137343170D43535B430D235713174D4B5707174D37532B274723231373174B270654768046931363471713532B5
311
D435353131D635313332D475727372D13534373670367376B67474B5042A03DBCBA019D37FE8ABC6157B20CD04146B0062181F4C03F940F0C11EA29A8141C08141002C0426541C106CAC2CA046088033B02A030AC2157C6006F21A8018AAF50194E6010A610250382264E08660284CD9E98021862280A91564B406929A0FF6
311
2C401E28B6F88038B83CB1243943D7A928312F25350524B3C02C4569470543830283ACF88FBF3DB61C40311088E1284984B018181CCA2FD882D8E5AC3011042D9DFC8661F2C4979ED316F5CD64ADB3B90D930100504B030414000608080054756A4828BB58AF800100009E0500003D00000046353733343737332D38313637
311
2D343130432D424146432D4533333435423933463535312F536368656D61732F436F6D6D6F6E536368656D612E786D6CBD544D4FC23018BEFB2B96DE15493C78601010A34B880709DEDFB52FD0D8B54BD70DF6EFED3AC0B12E6442E2716BFB3CEFF3D18E26FB440405EA8C2B1992E1C323095052C5B8DC842437EBFB673219
311
DF8DA659866649B798C078B48AE6410122242F2A4994AC7F93815DF85C049C8564CA0A901499DD886B2EB9B1E02448F358701A9235880C49A0119892A20C89D1B9FD768815CAD268CB5E0355B40B1E47F3E37A2020464BED06AA57CE8FCC20C3C3446D46761A2632A8C1283D07031EFF2AE7CCB1BFEEE916E406DFAC8E36FF
311
D99A9D60A6944090EEDC3B670C7DC13DE86B6B2C5C240D6E503BB85ACD579D513F1B9F9A69DC9CC22AFA80C426D40AF0B21EA168559156B6276F0F726A6BFF04DCD513A87A62CAD41FB24FCB2858B3952E3D852084DA25B9303C15687973CC8E8AAE11DF2836C38C6A9E765E8C1BA1BFB1DC29CDFE518C8B5A7655A4ED7E77
311
291ABEB80DBD82EC866ADE1B8D05AF9E35CF09D7A061F38A986D9EC412B8F0F65E5D81534D9B231D1E5A8FE577A241F3A5FD01504B030414000608080054756A482CCEBD668A040000E01200003E00000046353733343737332D383136372D343130432D424146432D4533333435423933463535312F536368656D61732F47
311
656E65726963536368656D612E786D6CD5586D6FDB380CFE7EBF42F0F7A649B70E1B90744856B4970F450FCD7A5F05459613EDE4174872DADCAF3F522F8ED3B88D2F1D06AC4050DBA2493EE4438AF2F8EB73AEC8466823CB62928C06C384888297A92C5693A4B6D9D9E7E4EBD51FE3A931C22EF85AE4EC6AFC38BF261BA626
311
C9AD288496DC3F4FCEAFC63366845F7A10452AF41DB320C0D44EC26EAB20918735565582695670811A6A49643A49A6E9069FA4604A64B29016DC4B48552F95E4932463CA888468C1D2B250DB4962750DF7CE273069CE8363F1FF4EDB00E0A21999574AE4A2B00C353B93F3BD4777B8A61ED8F604ABFEDD79CE56A2B7BDFBDB
311
C50996E0ADDE16FED26223C5D30956C29BDF4A55EA686E5E58B112DA45CE67F76F4FA27EFA3FB672FD7372FC388FAECDCA5209E693CAD167BADCD272F943701B3812F8A3D852008B1D2E32DB927B2F833C6EA95879925356D254582695095A3CE982924720BE5774A3CB9CDCDB350427D2DF20DA1B5532EBE2D5D6288D75D4
311
F7E4FD9890A0EF8E3D93EBB8F8BA4758158EF6FB90A6F9520281C93DE7AAC6D24607DA296BB96018123F821A7D6A5C5884050C475DA4865442732C8B95684A50165CBB3A32F25F783A4A480ED59AD7F924B968AEA50131F46303223E6A397B0E52976030DC1DCA81D7E7C1EDEEA42C19FF27635C505E2BD5198A599020DF50
311
A2330FCB3AAF28CB0124108429553EF1B228802E2265D8F7CC2401042B155BCC7070F1E5C55F13B4A9577362CCCE46C32174E010C3C378C44841A4BDA00FE3A12006CE11EE6AEC59894D3526DDE1CD59D503ECC324017F8061B7F162162FA62EDD81AE3308617770796DCBDAD2B2625C5AE8A63DE20B2C8AA5E95E76E57308
311
23955956E33E705425A2187C185D36489A1B44D3DCEC2172F6BA2105C3546287A7194B2331768EBBE64F6E70A9930ABE0ADEA89E9E2C38523B810287AD67A54A039C1606EAFE68F8304610BB9093DBDDABC0B2AE4E290DCDA15376D7E39F72B556F0B32EAB5D3D498B4C41ABADEC3A1434C422D87E8025A84BDCB2B1417ED7
311
50FAE4DA8976863974C577C7F902D3F156AD354DEA3540DE6BEAE2BEA52F7A2EB4CA43802ECE5BF2CE2EDC9347179FFB023CE412E60BE16DA0BE29B374988A553F561DC04615DD35F7D2C8979F60E5955CE93DF29DED8AFA1EE6642D53418086C03C47C377910F75F7E8F5EF665F70B60FFB22AEDF897D119E8423C773E819
311
A3C1E55E550599EE6EDCA34D0C86FD72057DF2CD46F16A470682471C164E4346D5306BF12D7D12D82CFF673D41636C347443FEB51B50D72EA171A8E4A58623A4A16E0FA2B8B10A0D23268D87C33896EE8FB73305A74BF224EDBADFA0BD674AB354D63DB7BD5D83426761C077DE767728235446A552754EB93B755891C3C4CC
311
6CADE37CF0E912A7BB38DBA010F9DE1282EDF470CA69A9CDA482E334C4A6EA4107987980B17E72F31730EBF88BBD39E7C629F56797A3C0009C2C5AE7951D9A05A02773440F02EEB4DE396A3B6A570C72CCFBCD823B0B8ED3F1D5CEDDFED772FA70236C83FB7D86C385D570B87107535572A60A96035F8F7C6A7192F1300724
311
6BBE0521855E6AC46F3E27689CEE7D186A6FD679D98CDCAD13333E04EBE7ED6F55FF01504B030414000608080054756A486180134D5F0100006B0300004500000046353733343737332D383136372D343130432D424146432D4533333435423933463535312F536368656D61732F52656E6465724D6174657269616C536368
311
656D612E786D6CA5934D6FC2300C86EFFB1551EEE343DBA41D1A103009551ADAD40EAE28A4A68D9426284961FCFBE5A340113B2071746D3F765EBF4DC6BFB5407BD0862B49F0B037C0082453059725C18DDD3EBFE3F1E829991803366715D474942CD30FB4A782E00C64017A412D684E454CE3FE28995203B162A6EA5AC94B
311
66997D225E109CD63B0135484BAD1B3C07E9080CA35DB3119C11BCA5C200461A68A1A438126C75E3E230D40FF81FB3F03C91D1E3A3A0AF79FE28E25BC39EC3E17E4C2A2D94A0833A51AF55BCCA7D88572FCBAC529C4140B020FC3AAFA886621DCED7EAD7664CC86024E806DC297DA1BB393E4156543457A4537DB8817349A7
311
0F8ACBF09B3EEE2CB2F33E91B65D60786E4E3B39B77E3FEEEF5650424525DA657FB8B46BE6BF064646F0A0F7327C0BC1BC1B4CBBC1C419FA3CCB23500007872A2580CAAE5461865565294E4EDB4617B62FF579DF9A5B2F54E834076A597573A020912FED777F9B3F504B030414000608080054756A4801B3D6125100000057
311
0000004700000046353733343737332D383136372D343130432D424146432D4533333435423933463535312F4173736574446174612F41737365745461626C654F66436F6E74656E74732E62696E5361606070B5743137343170D43535B430D235713174D4B5707174D37532B274723231373174B2701502AACB4D2C492DCA
311
4CCC492C28484D2C4ACC4B4E050A82012F90744FCD03CA26072767A4E6260200504B030414000608080054756A48F865834058000000680000004500000046353733343737332D383136372D343130432D424146432D4533333435423933463535312F4173736574446174612F53747265616D56657273696F6E5461626C65
311
2E696E66558CBD0A80300C06F73E4B117FB66E451741D041DC5BF98480A492E4FDD18EAEC7DD4555D89EF28DF51A0B1BD8340C4DE7DD848B988C0ACF0649566493F2408C508DDEBB99D5129FF8F1AF8CF5B9503E20FAE5A16B5AF702504B030414000608080054756A48204BF1A8340100009A040000360000004635373334
311
3737332D383136372D343130432D424146432D4533333435423933463535312F4173736574446174612F636E782E786D6CCD94314FC3301085FF4AE43D76522A842AC71582A51348540C6C57E752AC3A76645F10FC7BEC3603A8882943D6F3BBF3F327BF93DBCFDE161F18A2F1AE6135AF58814EFBD6B863C346EACA3B566C
311
950CDED30F192B1CF4D8B05C664A1E831F87A9D46207A3CD556BDC692ADEC788B48783C5A7EEC13B42479115DA428C0D8BFA1D7BE030926F319E780B04BCE601A31F83C634894C8FD3241D10085BA656557D5B5637655DEDEBF566BDDAACEB3729B252C983F776D29B7459F043A12FB7325549918F951C839934F92D4CFDE5
311
911F8C932229958C141293A983BE86D401C3608D064AE884D784542611422FC545ACA4C80C7E9178C4CE38935B76C918900FCFC91E0632B83822FF799D9FCCCE4502A771B93CAE1DCE4FE1E5FC835E2F813C27666939B976C88DEB66488938AF91149ABC55D437504B030414000608080054756A48EB7DE2A2080100004F03
311
00003400000046353733343737332D383136372D343130432D424146432D4533333435423933463535312F536368656D61732F636E782E786D6CCD93BD4E042114855F85D0EF30AC1363360C5B5858D9A8951DC2DD952C7027FC187D7B61A4D84DECB4D80E0E5FC839878BD87F7A473E20268B61A67C182981A0D1D8709C69
311
C987CD1D257B2922623EC32809CAC34C9B4CA538462C4B970C1C54714D75369CBA788FDE6378D6EFE01525DAA994669AD6EDA04A4603E9341895D5C08708094BD4506FC8D643BF414750190C95DB91DF6EC69B0D1F5FF8B49BB6BB89BF0AD64829DE105DE76DC81071211AEB22543BA360ED588A126D675A062ACFBD0DB50D
311
C12A2145CAB176D0C9FCB554522D8BB35AE55A155BC11F460AD6A25E047E8000D1EAEB4C7C61EEDF223F4130101FEB2B45ABDC7526FFCDE3DF0A60EBECD711685F417E03504B030414000608080054756A48410A3D5871000000A40000002C00000046353733343737332D383136372D343130432D424146432D4533333435
311
423933463535312F636E782E786D6C55CC4D0E82301086E1AB34B31774E7A22D31F1069E60020334B633A63FC6E34B0909B07DDE2F9FEE7EC1AB2FC5E4840DDC9A2B28E25E06C7938192C7CB1D54677514C9871928C640062A83D55394F2D968A0118BAFEA1DBF377CA444F98919176EAB9FEAAB9F2960DA5BBB1E2ED3FA6F
311
FF504B030414000608080054756A486F2552EE7E000000A300000007000000636E782E786D6C4D8CD10AC22018465F45FE7B6BA2E60275B491EF319A1B92D361337AFC3476D1D50787EF1CD97D568FDE36BD5C0C0AC8A90164C3234E2E2C0AF23EE31650A7658A71FFBB010AE36A15540C5A2E29E6ED40939DC7EC2BF52E3C
311
0F68B8A04C088A5B7211989166C0FDCD0CF84E29E3FD951ACE4931CE5529F3EB95AD79FD05504B030414000608080054756A4816E99B5DA600000035010000130000005B436F6E74656E745F54797065735D2E786D6C9590410E82301045AFD2740F4517C6180A0BF5065E60AC53688469D30E066F6F91AD9AB89CF9FFFD3F
311
99BA9DC7413C3026E749CB4D59498164FCCD51A7E5C4B6D84BD136F5E5193089ECA5A465CF1C0E4A25D3E308A9F401292BD6C711388FB15301CC1D3A54DBAADA29E38991B8E0254336F5092D4C038BF39CD76B6FC6A538AEBEA54A4B08617006389FA516557DE4AE8E7E70DE30729138228C5F021CD93F02D4FB0DCD0B504B
311
030414000608080054756A483DEE336E64000000790000001B0000006175746F6465736B2D64657369676E2D7061636B6167652E786D6C35CBC10E83200C00D05F21DCA56CA76D41FC96062B120735B69A7DBE268BB7777961F8D5AF396893C2ADB70FE7ADA196782C2DF776D7A97B5933C430F15651E5469C55D70F80A499
311
2A3ADC954792C525AE70A1E4D6AD9816CC044FEFDF01FE3FDE907802504B030414000608080054756A48B1D018FAF8000000960100003700000046353733343737332D383136372D343130432D424146432D4533333435423933463535312F4173736574446174612F636F72652E786D6C8550CB6E833010FC15B47703C66E
311
4191714403F9829E7AB38C43AC041BF951F5F36B27546A4F3DED6A76667677D8F16BBD179FCA796D4D0FB8ACA15046DA599BA587182EA883E2C899B336FCA24161C4AA7AC83070B6381BB71D92D60465326AECAC765078AF0214F29E9A1EBCBCAA55942286C4F0B77213F2261655E2F2C9E32C463DEF523D27377DD1CA016F
311
68DB4E5D8BD1899033A20399D05B3B4E88BC8C434771DD9DA633ABB298B3A0D79FEDD22911D49CF4357E453541B87EC7F4409B03C51FACCA4CCE7C70E9E77D69FE0EF890AF1E4510AC7A4EFFB8C66DFEDF356A1348B3BB3E151E384E473E069C5539A5541E11A69A13E5DF504B030414000608080054756A485F72CBB6F700
311
0000940100003500000046353733343737332D383136372D343130432D424146432D4533333435423933463535312F536368656D61732F636F72652E786D6C8550CB6E833010FC15B47703C66E4191719426E407DA536F9671A89560233FAA7E7E6DA0527BEA6957B333B3BBC38E5FF3A3F854CE6B6B7AC0650D8532D28EDA
311
4C3DC470431D1447CE9CB5E1170D0A2366D5438681B3C9D9B8EC90B4262893516347B583C27B15A0908FD4F4E0E5879A452962480C7F2F1721EF6252252E371E6731EA7197EA31B9E99B560E7843DB76E85A8CCE845C113D9101BDB4970191A7CBA9A3B8EECEC3955559CC59D0F3CF76E994086A4CFA1A3FA39A205CBF617A
311
A0CD81E277566526673EB8F4F3BE347F07FC75BDD3B36A9BFDF18CCBF8BF67D4269066F7DC141E384E27AE03CEAA9C512A6B80A9E63CF937504B030414000608080054756A487484BDB102010000D70100002D00000046353733343737332D383136372D343130432D424146432D4533333435423933463535312F636F7265
311
2E786D6C9551416E833010FC8AB57703C610D2C8386AA2F2829E7A73F186580936C2A6EAF36B072AB5B7F6B4D678667767561C3FC73BF9C0D91B675B605901046DEFB4B1430B4BB8D03D90A314B373E1070D885523B69060906298DD326D50EF6C409B50EB346EA0F21E0390FE1E1F2DF8FE8AA3CAD41222C3DFB249F53735
311
60C6B295274530E3B7B49F5105D420CB82ED68C1292B5E5975A8CA43C5DE449E98522CC6065E6EC3707C474DDC14A22590B5C8D7DFC85A8CDE3846C71DCDC5E00CB2AB1B5E350DA77BB66B68C58A333D3D7767FAC279559F9E7857D72C368962297C9863325B9394C15FE5ABF097B365D2FF74B62A3CC8B4CFC3B214798A39
311
96C70D624D27915F504B030414000608080054756A48ED4D471007010000B201000008000000636F72652E786D6C8D50CB6EC32010FC15B4776C63DCDA8A30519A385FD0536FD41017C506CB40D4FE7D21A1527BEB69D13C768665FBCF654637B5396D4D0FA4A80029335AA9CDD443F017DC01DA73B659EB7FC90019B1A81E
311
120C9C4D9B0D6B86466BBC32093556AA0C0AE7940734CEF1D1831B3FD4220A117C54B86BB18AF12A265590E2A1E3CCEBE5C73A6E4A782581D71579C615C5A47A25CDAEA9770D7963655272168296394ACB98AE2F5A6DD1D2B4EDD0B5041F293DE3E64007FCD29E064C9F4E87AE2155771CCEAC4C66CE9CDFE29FF392D8D323
311
276E2997950F8AB3776BE72C88A524B266FE025EB132117F4A8755FEA3B4369ED679E1C3E1809358E84EC4E074C138EEE78D335D9B7F03504B0102140014000608080054756A488F956FB8DA000000200100004F000000000000000000000000000000000046353733343737332D383136372D343130432D424146432D4533
311
333435423933463535312F4173736574446174612F446566696E6974696F6E4974657261746F7250726F706572746965732E62696E504B0102140014000608080054756A4803B7991C250100003002000045000000000000000000000000004701000046353733343737332D383136372D343130432D424146432D45333334
311
35423933463535312F4173736574446174612F496E7374616E636550726F706572746965732E62696E504B0102140014000608080054756A4828BB58AF800100009E0500003D00000000000000000000000000CF02000046353733343737332D383136372D343130432D424146432D4533333435423933463535312F536368
311
656D61732F436F6D6D6F6E536368656D612E786D6C504B0102140014000608080054756A482CCEBD668A040000E01200003E00000000000000000000000000AA04000046353733343737332D383136372D343130432D424146432D4533333435423933463535312F536368656D61732F47656E65726963536368656D612E78
311
6D6C504B0102140014000608080054756A486180134D5F0100006B03000045000000000000000000000000009009000046353733343737332D383136372D343130432D424146432D4533333435423933463535312F536368656D61732F52656E6465724D6174657269616C536368656D612E786D6C504B0102140014000608
311
080054756A4801B3D61251000000570000004700000000000000000000000000520B000046353733343737332D383136372D343130432D424146432D4533333435423933463535312F4173736574446174612F41737365745461626C654F66436F6E74656E74732E62696E504B0102140014000608080054756A48F8658340
311
58000000680000004500000000000000000000000000080C000046353733343737332D383136372D343130432D424146432D4533333435423933463535312F4173736574446174612F53747265616D56657273696F6E5461626C652E696E66504B0102140014000608080054756A48204BF1A8340100009A04000036000000
311
00000000000000000000C30C000046353733343737332D383136372D343130432D424146432D4533333435423933463535312F4173736574446174612F636E782E786D6C504B0102140014000608080054756A48EB7DE2A2080100004F03000034000000000000000000000000004B0E000046353733343737332D38313637
311
2D343130432D424146432D4533333435423933463535312F536368656D61732F636E782E786D6C504B0102140014000608080054756A48410A3D5871000000A40000002C00000000000000000000000000A50F000046353733343737332D383136372D343130432D424146432D4533333435423933463535312F636E782E78
311
6D6C504B0102140014000608080054756A486F2552EE7E000000A3000000070000000000000000000000000060100000636E782E786D6C504B0102140014000608080054756A4816E99B5DA6000000350100001300000000000000000000000000031100005B436F6E74656E745F54797065735D2E786D6C504B0102140014
311
000608080054756A483DEE336E64000000790000001B00000000000000000000000000DA1100006175746F6465736B2D64657369676E2D7061636B6167652E786D6C504B0102140014000608080054756A48B1D018FAF80000009601000037000000000000000000000000007712000046353733343737332D383136372D34
311
3130432D424146432D4533333435423933463535312F4173736574446174612F636F72652E786D6C504B0102140014000608080054756A485F72CBB6F7000000940100003500000000000000000000000000C413000046353733343737332D383136372D343130432D424146432D4533333435423933463535312F53636865
311
6D61732F636F72652E786D6C504B0102140014000608080054756A487484BDB102010000D70100002D000000000000000000000000000E15000046353733343737332D383136372D343130432D424146432D4533333435423933463535312F636F72652E786D6C504B0102140014000608080054756A48ED4D471007010000
311
B201000008000000000000000000000000005B160000636F72652E786D6C504B050600000000110011005A060000881700000000
310
504B030414000608080054756A48000000000000000000000000370000006662782F43363831343245362D363635422D343444322D414445432D3430463439343138333745452F617474726962757465732E62696E504B030414000608080054756A48000000000000000000000000350000006662782F4336383134324536
310
2D363635422D343444322D414445432D3430463439343138333745452F76657274696365732E62696E504B030414000608080054756A48F270F1330600000004000000360000006662782F43363831343245362D363635422D343444322D414445432D3430463439343138333745452F747269616E676C65732E62696E6366
310
60600000504B030414000608080054756A4851464CB48900000043010000360000006662782F43363831343245362D363635422D343444322D414445432D3430463439343138333745452F6469726563746F72792E786D6C9D8F310EC2300C45AF127987122606C71DD918B841D4B851A43646695A717C52A85029031293A5
310
A76FBF6FACEF7DA7264E43906840EF0FA03836E242F406C6DCEE4EA06AC22492573150D1F66C60C640E8938CB705396EEDD86DE9B5042FE27813D640EA63BB001C722AF6E55CB61E4863F58284D5D3F53DD715CE1C3985E63FD7F1B7EBDD617E9F1E504B030414000608080054756A48F8B497E8320700001A1C0000340000
310
006662782F43363831343245362D363635422D343444322D414445432D3430463439343138333745452F6F626A656374732E786D6CDD59596FDB3810FE2B84F6D93A7C2476E1B8F01107C6226D51A38B7D13688976B8A10E50528EFDF53BA4485954645BE90114EB00B14C51C3996FEED1F4E34BC4D013E1194DE21BCBB35D
310
0B913848421A1F6EAC22DFF7C616FA3843539E24796D9F85621C911B4B2C5BB3E9812745AA9642B2C7056BAEAE177FA32C2031B150C07096DD5859F040226CE3224F42923DDA21CEB17DD8BFD89E5D6E34C91E384E1F1A47A59893380756613D062A8A03CFFC092239B3A9233618DB06DDB6F5CF6C73A4E026A334CE721C07
310
6FB86A1CD73FC155E3B881375CDDF64793DE68381CF486577DAFB7582F563DEF7AE02EAF96CBC9FC7662A1D9749724AC52404AE210B4F86ACDBCA923EE54E22B14DAF80E9238268142B36D4348145D4AB2262606B09E14ADA69052D6DAC2A0A3F027B67502C560C9405B0BA7BFEBD69BECFE0110B22E56CA3322AC3CCB39E8
310
5A615FFA833B75CA55432F344311CE09A7982146771C7350106C2D15649011DE2248218199D4A2A657E7150CFBB22FB571B92F1813FE6BCDA4A7F9E08F24CF2467F45FC28FDCD74F039E40DA82C6F958099BBFA640623275E462796FD057374B20D19EE103580B8829360DFA0DBC9622166C56D6ECCFF5EE652BE243FBE129
310
4F52C2736179D29995DF690DD64C0B8CAF032825AEA6EE8EA87C05E83F01F2152F680A9AE3F465F832D4B2731C67FB8447A01DE4A29E0BFF5C242EDF5C4D9DEAE1194246AC3C8529B8ED4FC2D410C338BB06E96CFA04469FF081126E1B6006367D4F63E1E760288825B004F17EBF7BB1661B08A6B0084F6106D2C3DFD41197
310
08BE4A3A106F1A1A6A0BBF1D14A51DA6E967475DDD81CD701A54AA32643C85EFE8A7E03B5F6DFFDC167C8F0372AF1C7B45F634A63924D376860CD00D97FFB6F9243DF28E253BCC8E4F1B9B0238E69088B8D1A296AD520B927A014E441A2E352357EE29783B6338264991A9F5B63815242CE1FEEED52F5DB8F5ACBFB40D9487
310
2903688D6590DC034E5381893553DAAA02A15D13142C0C7365818752ABFEAE88521F4749118B50FBD6149B7C409C1196085425356DD8DA6B35D990EEF74506C1AB95E4D20052F9B3265C5AF810E2581BBF9CEC3986249AC43E851C0CCED27A82714005DE799E33C2F63E65AC88FC3D659047FC08A727E87794A09EB91EC9EB
310
73C2C35682A665699FD436240057C06A9074B62A63BED229274F549499329FE96C60EC5075A8351B9E48172253B400AA8D519AF9ED6475ED0DDD796FE48DFBBDE1CA9BF7C6ABF9BAB7E84F168BE1F5D05B8C6F9B7CEA6855CF77A04A51E618FE973F14D12EC694C10D21360ED30F1F65F6BC7120343AB7F3457F75BD5EF426
310
DE7A5E566BE3ABE56D6F385E2FDD89EBF5BDE1C2E1244B0A1E90CCE93BAEAF4D328D0FA7B8D2DCBD8DA150D65C4E765A5F4D61FEC731B499130C25FEAE41B48A5D2D0561D7202A1E6D86501C3C8A14E50750F5B5BA4F238836F9688B73EF8CCBAE3D70E5C7F3267D77D21F4FAE2A633F1BA8E5393F1CE7DA2408A0EF2C723F
310
497140F3F684DAC0A5639C7E576EB107DE08013AD5FFEA90F379461DE2D3081F88BFC7A24B68098C972468CD61079664198D4926BBBC37D55F83A66B433165E6DC1623A4991F911C7F8FFDC9B6A161D3109B990FFD682E260217AB82CAA05507728AA2E87E21714BF95FFD0C47292B3BDD4B18787D0D81EE71DA2C4E302D8E
310
78027BF371EEBB2191838B4BD42BF6757DD0AAB526F5C977933F018FAE6B7E213CFA88EEA5933DF226E23386A07235F206D75A1197B0D247E5A28F6305749EC1ABFF4CE8E1A153A1D94D27B592AD2CAA7312411B8BF38277F2D7AB91FBE62015171A0E513BE99DC5A1ECDF740707E8C906EE54795B3B06EA501AC39CAB9320
310
6FA4683561A90B39D313A3AB77F8F55965D7A9FE70BCFCE51573DDF92239FCB98C0354CB650056D1C7A8A95BAB6EA31ECA9E711E4020DDCAEFDE023C2224E1B13133C8B595E8BA3EBD543D6F44408D60628B459CBD1717EC2B065543F79C397765D1E694EB1B91D86C184E1FF9309836697DBEDB36A8C04AE7A7BF088CC873
310
83825A5D8A6EF80CA96F9B63CFDFA0A024FAB639F3F86FD1516805D6C668300DCE124661284F42742009646F183B74E8367844329995C1785590D26F043A3CFD54CE5473BC63FAE9E001C3609AA95EAC0860280A19F3C652EBE80F18838A49A41C4ED98FD086A91866A182D31B0B2C36A7D06DD93B1867C9E1A1A4DE185782
310
63E3F820F27DF954F5FBF8984007A2D251AE6A4F175C9464863341619BCAF70450F5953766D3EF175DB383700E97BB22AF84392E1CA55120E81702A57030F57B54F0BE4041715E2ECF967B0C483A4DE6CFDA4149B597637E90E3F51ADEF3D517474CC6379F51CA8A8350E7B9EED7A0D4135D372BCA29D4140C438999625143
310
2E3F385F7802AF9822B4A66004CE3289A224563FE6EA1515DA3EC00BA7D0D1C33E68E05D6FE4C8FE5F0DF4FD1DCE888DC3EC111640A99C8AA96809AEA1FA2A8ED654AF7521B4008F19FB372BA4AAA2DA6CA41E700530729A8FC085C45B1CE130F50DB5D123780170256F1E2FF4C2D4E130FE9EFD07504B0304140006080800
310
54756A48FEC0F66F3E01000046050000300000006662782F43363831343245362D363635422D343444322D414445432D3430463439343138333745452F636E782E786D6CCD94C14A033110865F65C97D379B5A444A36050F3E8107F196CD4ED7D86CB22413B16F6F52D3AA48C543A1BD85C93FF07F333FC3D7EF93A9DEC007
310
ED6C4758D3920AAC7283B66347226EEA3B52AD05F7CEE13719A9AC9CA023B94C041FBD8B73290DB091D1E4AAD1765B8A12D1EB3E220452292343E848502F30C946467403846D3348940D6B3C0417BD82D48F7A82D2AF3C4884818845CB6EEBF6A666ED235BAE968BD5923D739A9582F7CE99A2D716C1BBB9522E3D6C32D372
310
9ABF058F5E174D2620E2CB59D36BCB69FA173C24B7762C3ADCCD5937CF462B89694CD42904AC9308E4C4E9A758709A797F503FDC3F1D1C5483F6A0D0F9DD8506C04E0DE068AC4949F81FFF5EF837B6EB5F13EEA5B67D12B6D83A1BEA21AD21C5F5F7FE538AA41DCDF585FE68ECFC994FA704B5BA3EE483AF3311D3FDC94B4B
310
CF17507C00504B030414000608080054756A4856BE3CF97F000000A30000000B0000006662782F636E782E786D6C4D8C410EC2201405AF42FE1E6DEB1731011A6DF11E8DA50D9182C1623CBE60BA70F592C99B11ED6771E46DE2CB062FA1DE55408CBF87D1FA59425A27CA81B44AC410D6BF1B103F2C4642C1A0C41C437A6E
310
6834D3905CA1CEFAC7063BC66B6C34A38C1DAF14B16FE8A5D71DC5EA8667ACF9E1A47536F645C9F3EBE52D79F505504B030414000608080054756A48A6D797065F0000008200000007000000636E782E786D6C4DCB3B0E80201045D1AD90E9FD7516806B51190811670C8A61F982B1B0BAC9C97B72CA7B1037C6D3332918DA
310
1E04D2CAC69353902EDB8C20262D23F3F59B81A079470595414B17391D1F19B4730A5583A7ED43BBE4025D9592775E5ADFFA01504B030414000608080054756A484FEB6A7CA0000000F4000000130000005B436F6E74656E745F54797065735D2E786D6C7D8F4B0EC2300C44AF1279DFA6B0400835ED02B8011730C16D239A
310
8F121795DB93D02D6269CFBC19BBED573B8B17C564BC53B0AB1B10E4B47F18372A5878A88E20FAAEBDBD032591BD2E299898C349CAA427B2986A1FC86565F0D122E7318E32A07EE24872DF3407A9BD63725C71C980AEBDD080CBCCE2BAE6F5D69B7110E7CD57AA146008B3D1C8F92C5954F993BB1BF787F39A89ABC491D096
310
00F9FDA2FB00504B030414000608080054756A483DEE336E64000000790000001B0000006175746F6465736B2D64657369676E2D7061636B6167652E786D6C35CBC10E83200C00D05F21DCA56CA76D41FC96062B120735B69A7DBE268BB7777961F8D5AF396893C2ADB70FE7ADA196782C2DF776D7A97B5933C430F15651E5
310
469C55D70F80A4992A3ADC954792C525AE70A1E4D6AD9816CC044FEFDF01FE3FDE907802504B030414000608080054756A482C338BCDF8000000960100003B0000006662782F43363831343245362D363635422D343444322D414445432D3430463439343138333745452F7265736F75726365732F636F72652E786D6C8550
310
CB6E833010FC15B47703063740649C43D27E414FBD596643AC041BF951F5F36B072AB5A79E76353B33BB3BFCF4B53C8A4F745E5B33022D6B28D0283B69338F10C395F4509C0477D6865F34288C5C70840C83E0B3B371DD21654D4093516327DC41E93D0628D42335237875C345963286C4F0F77295EA2E672C69B9F1048F51
310
4FBB544FC94D5F353A1097BE6E3B7A6EC8850E03612D7B257D7FEE4877606C78A1ACAFDF065E65B1E0412F3FDB9543197002D1D4F440EA96D0FA9DB2236B8E8C7EF02A3305F7C1A59FF7A5F93B100EBD8D4EA1E7D536FDE31AD7E97FD7A84D689BDD75537810341DF91C085EE594527946986A4E547C03504B030414000608
310
080054756A482EDAC884F2000000B1010000310000006662782F43363831343245362D363635422D343444322D414445432D3430463439343138333745452F636F72652E786D6C8D50CB6EC32010FC156BEFD8C6A6AE1B61A23CDC2FE8A93704C44189C1E251F5F30BB12BB5B79C16CDCE30B343F7DFF3BDF852CE6B6B06C0
310
650D8532C24A6DA60162B8A01E8A3DA3CEDAF0870685E1B31A20C3C0E8E46C5C3648581394C9A8B1526D20F75E0528C43D3D06F0E2AA665EF21812C3DFCA858B1B9F5489CB95C768D0F3AF5438C58392C09A1A77A86E11AE3F30D9916647F027AD3293D118B5DCACB44CEEFAA2950376EA7A4C9AB1435DF77244849C1B7438
310
8F2744EA77F24670DFBE8E23ADB298511F5CBA79FB245FF7AC7C15FECB1C17F944666D42DB6C86ABC203C329CF63C168950B4CE3D16E9AB96CF603504B030414000608080054756A485AAC720052010000DD0200000C0000006662782F636F72652E786D6C8D52CB8E832014FD15C31E15655A6D902EDA992F98D5EC285287
310
54C120987EFE808F382EE6111324E7DE7BCE3D2790F3B36BA35198416A550114A720128AEB5AAAA602CEDE6101A23325466BFBAD0D448A75A2020106943446BB7E81B85656A8802A5D8B0564C3202C8878EB2F1518F8A7E858CC9CF51DC323EE197FB046C4289EFB28714ED6CBA8AC3D9BBC4B6100BD16697E44970C5E5159
310
429CE357581497233C1E302E5F102ED2B792246198122BBB559D1BC1ACA801CD527480690E51FA8EF00967278C3E48123A2919ACF19E17D1E00ED0FBED499219DFF1B9BEFE9BCF4965F36CE19B270640915F6F2A5092847CFC6F0A6F9FA117F6F959766B570B0F0F8D825B6DB0AFD4DA6DA591B54E78EA349A3E92CC55CF3C
310
11FCC493FDC2F33B870F8AA9C6AFC6ACBFDE9C0DEAFB9D7A61E0689F91D2A663EDB6DCBCE2766E423B4BEB38D7AD36FF995EADAE6126E161D22F504B030414000608080054756A48B811851D06010000B201000008000000636F72652E786D6C8D50C172832014FC15E6DD51501A3583E490B45FD0536F548865A2E00866DA
310
BF2F443AD3DE7A7ACCEEBEB7CBF2D3E73CA1BB5EBD71B6075A1040DA0E4E193BF6B0852B6E019D045F9D0BBF6480AC9C750F0906C1C7D56D4B86066783B609B54EE90C4AEF7500344CF1D1831F3EF42C0BB985A8F0B76291C34D8EBAA0C5AE133C98F9677558B50C5A81A8083D6052634A5E293BB2EAC8E81B2F9352F06D33
310
2A5B1915DDCDD5E815C4A5257543CF15BED0AEC3AC66CFB86DCF0D6E0E8C754F94B5E4A5E3655A16DC8735FE391F893903F2F29E7C79B95382BF3B3765410CA590B3D31708C2CB44FC09BD2DEA1FA18D0D75950FEE1B1E048D811E44344E0DC6F1A837CED4B6F806504B0102140014000608080054756A4800000000000000
310
00000000003700000000000000000000000000000000006662782F43363831343245362D363635422D343444322D414445432D3430463439343138333745452F617474726962757465732E62696E504B0102140014000608080054756A48000000000000000000000000350000000000000000000000000055000000666278
310
2F43363831343245362D363635422D343444322D414445432D3430463439343138333745452F76657274696365732E62696E504B0102140014000608080054756A48F270F13306000000040000003600000000000000000000000000A80000006662782F43363831343245362D363635422D343444322D414445432D343046
310
3439343138333745452F747269616E676C65732E62696E504B0102140014000608080054756A4851464CB489000000430100003600000000000000000000000000020100006662782F43363831343245362D363635422D343444322D414445432D3430463439343138333745452F6469726563746F72792E786D6C504B0102
310
140014000608080054756A48F8B497E8320700001A1C00003400000000000000000000000000DF0100006662782F43363831343245362D363635422D343444322D414445432D3430463439343138333745452F6F626A656374732E786D6C504B0102140014000608080054756A48FEC0F66F3E010000460500003000000000
310
000000000000000000630900006662782F43363831343245362D363635422D343444322D414445432D3430463439343138333745452F636E782E786D6C504B0102140014000608080054756A4856BE3CF97F000000A30000000B00000000000000000000000000EF0A00006662782F636E782E786D6C504B01021400140006
310
08080054756A48A6D797065F000000820000000700000000000000000000000000970B0000636E782E786D6C504B0102140014000608080054756A484FEB6A7CA0000000F400000013000000000000000000000000001B0C00005B436F6E74656E745F54797065735D2E786D6C504B0102140014000608080054756A483DEE
310
336E64000000790000001B00000000000000000000000000EC0C00006175746F6465736B2D64657369676E2D7061636B6167652E786D6C504B0102140014000608080054756A482C338BCDF8000000960100003B00000000000000000000000000890D00006662782F43363831343245362D363635422D343444322D414445
310
432D3430463439343138333745452F7265736F75726365732F636F72652E786D6C504B0102140014000608080054756A482EDAC884F2000000B10100003100000000000000000000000000DA0E00006662782F43363831343245362D363635422D343444322D414445432D3430463439343138333745452F636F72652E786D
310
6C504B0102140014000608080054756A485AAC720052010000DD0200000C000000000000000000000000001B1000006662782F636F72652E786D6C504B0102140014000608080054756A48B811851D06010000B2010000080000000000000000000000000097110000636F72652E786D6C504B0506000000000E000E008004
310
0000C31200000000
  0
XRECORD
  5
6295
102
{ACAD_REACTORS
330
6290
102
}
330
6290
100
AcDbXrecord
280
     1
270
     1
271
     1
  0
XRECORD
  5
6294
102
{ACAD_REACTORS
330
6290
102
}
330
6290
100
AcDbXrecord
280
     1
270
     1
271
     1
  0
XRECORD
  5
6296
102
{ACAD_REACTORS
330
6290
102
}
330
6290
100
AcDbXrecord
280
     1
270
     1
271
     1
  0
XRECORD
  5
6293
102
{ACAD_REACTORS
330
6290
102
}
330
6290
100
AcDbXrecord
280
     1
270
     1
271
     1
  0
XRECORD
  5
10F99
102
{ACAD_REACTORS
330
10F44
102
}
330
10F44
100
AcDbXrecord
280
     1
102
DISPLAYNAME
  1

102
FLAGS
 90
        0
  0
XRECORD
  5
10F9B
102
{ACAD_REACTORS
330
10F48
102
}
330
10F48
100
AcDbXrecord
280
     1
102
DISPLAYNAME
  1
Metric50
102
FLAGS
 90
        0
  0
CELLSTYLEMAP
  5
10F98
102
{ACAD_REACTORS
330
649A
102
}
330
649A
100
AcDbCellStyleMap
 90
        3
300
CELLSTYLE
  1
TABLEFORMAT_BEGIN
 90
        5
170
     1
 91
        0
 92
    32768
 62
   257
 93
        1
300
CONTENTFORMAT
  1
CONTENTFORMAT_BEGIN
 90
        0
 91
        0
 92
      512
 93
        0
300

 40
0.0
140
1.0
 94
        5
 62
     0
340
11
144
0.25
309
CONTENTFORMAT_END
171
     1
301
MARGIN
  1
CELLMARGIN_BEGIN
 40
0.06
 40
0.06
 40
0.06
 40
0.06
 40
0.18
 40
0.18
309
CELLMARGIN_END
 94
        6
 95
        1
302
GRIDFORMAT
  1
GRIDFORMAT_BEGIN
 90
        0
 91
        1
 62
     0
 92
       -2
340
0
 93
        0
 40
0.045
309
GRIDFORMAT_END
 95
        2
302
GRIDFORMAT
  1
GRIDFORMAT_BEGIN
 90
        0
 91
        1
 62
     0
 92
       -2
340
0
 93
        0
 40
0.045
309
GRIDFORMAT_END
 95
        4
302
GRIDFORMAT
  1
GRIDFORMAT_BEGIN
 90
        0
 91
        1
 62
     0
 92
       -2
340
0
 93
        0
 40
0.045
309
GRIDFORMAT_END
 95
        8
302
GRIDFORMAT
  1
GRIDFORMAT_BEGIN
 90
        0
 91
        1
 62
     0
 92
       -2
340
0
 93
        0
 40
0.045
309
GRIDFORMAT_END
 95
       16
302
GRIDFORMAT
  1
GRIDFORMAT_BEGIN
 90
        0
 91
        1
 62
     0
 92
       -2
340
0
 93
        0
 40
0.045
309
GRIDFORMAT_END
 95
       32
302
GRIDFORMAT
  1
GRIDFORMAT_BEGIN
 90
        0
 91
        1
 62
     0
 92
       -2
340
0
 93
        0
 40
0.045
309
GRIDFORMAT_END
309
TABLEFORMAT_END
  1
CELLSTYLE_BEGIN
 90
        1
 91
        1
300
_TITLE
309
CELLSTYLE_END
300
CELLSTYLE
  1
TABLEFORMAT_BEGIN
 90
        5
170
     1
 91
        0
 92
        0
 62
   257
 93
        1
300
CONTENTFORMAT
  1
CONTENTFORMAT_BEGIN
 90
        0
 91
        0
 92
      512
 93
        0
300

 40
0.0
140
1.0
 94
        5
 62
     0
340
11
144
0.18
309
CONTENTFORMAT_END
171
     1
301
MARGIN
  1
CELLMARGIN_BEGIN
 40
0.06
 40
0.06
 40
0.06
 40
0.06
 40
0.18
 40
0.18
309
CELLMARGIN_END
 94
        6
 95
        1
302
GRIDFORMAT
  1
GRIDFORMAT_BEGIN
 90
        0
 91
        1
 62
     0
 92
       -2
340
0
 93
        0
 40
0.045
309
GRIDFORMAT_END
 95
        2
302
GRIDFORMAT
  1
GRIDFORMAT_BEGIN
 90
        0
 91
        1
 62
     0
 92
       -2
340
0
 93
        0
 40
0.045
309
GRIDFORMAT_END
 95
        4
302
GRIDFORMAT
  1
GRIDFORMAT_BEGIN
 90
        0
 91
        1
 62
     0
 92
       -2
340
0
 93
        0
 40
0.045
309
GRIDFORMAT_END
 95
        8
302
GRIDFORMAT
  1
GRIDFORMAT_BEGIN
 90
        0
 91
        1
 62
     0
 92
       -2
340
0
 93
        0
 40
0.045
309
GRIDFORMAT_END
 95
       16
302
GRIDFORMAT
  1
GRIDFORMAT_BEGIN
 90
        0
 91
        1
 62
     0
 92
       -2
340
0
 93
        0
 40
0.045
309
GRIDFORMAT_END
 95
       32
302
GRIDFORMAT
  1
GRIDFORMAT_BEGIN
 90
        0
 91
        1
 62
     0
 92
       -2
340
0
 93
        0
 40
0.045
309
GRIDFORMAT_END
309
TABLEFORMAT_END
  1
CELLSTYLE_BEGIN
 90
        2
 91
        1
300
_HEADER
309
CELLSTYLE_END
300
CELLSTYLE
  1
TABLEFORMAT_BEGIN
 90
        5
170
     1
 91
        0
 92
        0
 62
   257
 93
        1
300
CONTENTFORMAT
  1
CONTENTFORMAT_BEGIN
 90
        0
 91
        0
 92
      512
 93
        0
300

 40
0.0
140
1.0
 94
        2
 62
     0
340
11
144
0.18
309
CONTENTFORMAT_END
171
     1
301
MARGIN
  1
CELLMARGIN_BEGIN
 40
0.06
 40
0.06
 40
0.06
 40
0.06
 40
0.18
 40
0.18
309
CELLMARGIN_END
 94
        6
 95
        1
302
GRIDFORMAT
  1
GRIDFORMAT_BEGIN
 90
        0
 91
        1
 62
     0
 92
       -2
340
0
 93
        0
 40
0.045
309
GRIDFORMAT_END
 95
        2
302
GRIDFORMAT
  1
GRIDFORMAT_BEGIN
 90
        0
 91
        1
 62
     0
 92
       -2
340
0
 93
        0
 40
0.045
309
GRIDFORMAT_END
 95
        4
302
GRIDFORMAT
  1
GRIDFORMAT_BEGIN
 90
        0
 91
        1
 62
     0
 92
       -2
340
0
 93
        0
 40
0.045
309
GRIDFORMAT_END
 95
        8
302
GRIDFORMAT
  1
GRIDFORMAT_BEGIN
 90
        0
 91
        1
 62
     0
 92
       -2
340
0
 93
        0
 40
0.045
309
GRIDFORMAT_END
 95
       16
302
GRIDFORMAT
  1
GRIDFORMAT_BEGIN
 90
        0
 91
        1
 62
     0
 92
       -2
340
0
 93
        0
 40
0.045
309
GRIDFORMAT_END
 95
       32
302
GRIDFORMAT
  1
GRIDFORMAT_BEGIN
 90
        0
 91
        1
 62
     0
 92
       -2
340
0
 93
        0
 40
0.045
309
GRIDFORMAT_END
309
TABLEFORMAT_END
  1
CELLSTYLE_BEGIN
 90
        3
 91
        2
300
_DATA
309
CELLSTYLE_END
  0
XRECORD
  5
669E
102
{ACAD_REACTORS
330
669D
102
}
330
669D
100
AcDbXrecord
280
     1
102
RTVSPropertyOp28
 70
     1
102
RTVSPropertyOp29
 70
     1
102
RTVSPropertyOp30
 70
     1
102
RTVSPropertyOp31
 70
     1
102
RTVSPropertyOp32
 70
     1
102
RTVSPropertyOp33
 70
     1
102
RTVSPropertyOp34
 70
     1
102
RTVSPropertyOp35
 70
     1
102
RTVSPropertyOp36
 70
     1
102
RTVSPropertyOp37
 70
     1
102
RTVSPropertyOp38
 70
     1
102
RTVSPropertyOp39
 70
     1
102
RTVSPropertyOp40
 70
     1
102
RTVSPropertyOp41
 70
     1
102
RTVSPropertyOp42
 70
     1
102
RTVSPropertyOp43
 70
     1
102
RTVSPropertyOp44
 70
     1
102
RTVSPropertyOp45
 70
     1
102
RTVSPropertyOp46
 70
     1
102
RTVSPropertyOp47
 70
     1
102
RTVSPropertyOp48
 70
     1
102
RTVSPropertyOp49
 70
     1
102
RTVSPropertyOp50
 70
     1
102
RTVSPropertyOp51
 70
     0
102
RTVSPropertyOp52
 70
     0
102
RTVSPropertyOp53
 70
     1
102
RTVSPropertyOp54
 70
     1
102
RTVSPropertyOp55
 70
     1
102
RTVSPropertyOp56
 70
     1
102
RTVSPropertyOp57
 70
     1
102
RTVSPropertyOp58
 70
     1
102
RTVSPropertyOp59
 70
     1
102
RTVSPropertyOp60
 70
     1
102
RTVSPropertyOp61
 70
     1
102
RTVSPropertyOp62
 70
     1
  0
XRECORD
  5
669C
102
{ACAD_REACTORS
330
669B
102
}
330
669B
100
AcDbXrecord
280
     1
102
RTVSPropertyOp28
 70
     1
102
RTVSPropertyOp29
 70
     1
102
RTVSPropertyOp30
 70
     1
102
RTVSPropertyOp31
 70
     1
102
RTVSPropertyOp32
 70
     1
102
RTVSPropertyOp33
 70
     1
102
RTVSPropertyOp34
 70
     1
102
RTVSPropertyOp35
 70
     1
102
RTVSPropertyOp36
 70
     1
102
RTVSPropertyOp37
 70
     1
102
RTVSPropertyOp38
 70
     1
102
RTVSPropertyOp39
 70
     1
102
RTVSPropertyOp40
 70
     1
102
RTVSPropertyOp41
 70
     1
102
RTVSPropertyOp42
 70
     1
102
RTVSPropertyOp43
 70
     1
102
RTVSPropertyOp44
 70
     1
102
RTVSPropertyOp45
 70
     1
102
RTVSPropertyOp46
 70
     1
102
RTVSPropertyOp47
 70
     1
102
RTVSPropertyOp48
 70
     1
102
RTVSPropertyOp49
 70
     1
102
RTVSPropertyOp50
 70
     1
102
RTVSPropertyOp51
 70
     0
102
RTVSPropertyOp52
 70
     0
102
RTVSPropertyOp53
 70
     1
102
RTVSPropertyOp54
 70
     1
102
RTVSPropertyOp55
 70
     1
102
RTVSPropertyOp56
 70
     1
102
RTVSPropertyOp57
 70
     1
102
RTVSPropertyOp58
 70
     1
102
RTVSPropertyOp59
 70
     1
102
RTVSPropertyOp60
 70
     1
102
RTVSPropertyOp61
 70
     1
102
RTVSPropertyOp62
 70
     1
  0
XRECORD
  5
66AA
102
{ACAD_REACTORS
330
66A9
102
}
330
66A9
100
AcDbXrecord
280
     1
102
RTVSPropertyOp28
 70
     1
102
RTVSPropertyOp29
 70
     1
102
RTVSPropertyOp30
 70
     1
102
RTVSPropertyOp31
 70
     1
102
RTVSPropertyOp32
 70
     1
102
RTVSPropertyOp33
 70
     1
102
RTVSPropertyOp34
 70
     1
102
RTVSPropertyOp35
 70
     1
102
RTVSPropertyOp36
 70
     1
102
RTVSPropertyOp37
 70
     1
102
RTVSPropertyOp38
 70
     1
102
RTVSPropertyOp39
 70
     1
102
RTVSPropertyOp40
 70
     1
102
RTVSPropertyOp41
 70
     1
102
RTVSPropertyOp42
 70
     1
102
RTVSPropertyOp43
 70
     1
102
RTVSPropertyOp44
 70
     1
102
RTVSPropertyOp45
 70
     1
102
RTVSPropertyOp46
 70
     1
102
RTVSPropertyOp47
 70
     1
102
RTVSPropertyOp48
 70
     1
102
RTVSPropertyOp49
 70
     1
102
RTVSPropertyOp50
 70
     1
102
RTVSPropertyOp51
 70
     0
102
RTVSPropertyOp52
 70
     0
102
RTVSPropertyOp53
 70
     1
102
RTVSPropertyOp54
 70
     1
102
RTVSPropertyOp55
 70
     1
102
RTVSPropertyOp56
 70
     1
102
RTVSPropertyOp57
 70
     1
102
RTVSPropertyOp58
 70
     1
102
RTVSPropertyOp59
 70
     1
102
RTVSPropertyOp60
 70
     1
102
RTVSPropertyOp61
 70
     1
102
RTVSPropertyOp62
 70
     1
  0
XRECORD
  5
66B2
102
{ACAD_REACTORS
330
66B1
102
}
330
66B1
100
AcDbXrecord
280
     1
102
RTVSPropertyOp28
 70
     1
102
RTVSPropertyOp29
 70
     1
102
RTVSPropertyOp30
 70
     1
102
RTVSPropertyOp31
 70
     1
102
RTVSPropertyOp32
 70
     1
102
RTVSPropertyOp33
 70
     1
102
RTVSPropertyOp34
 70
     1
102
RTVSPropertyOp35
 70
     1
102
RTVSPropertyOp36
 70
     1
102
RTVSPropertyOp37
 70
     1
102
RTVSPropertyOp38
 70
     1
102
RTVSPropertyOp39
 70
     1
102
RTVSPropertyOp40
 70
     1
102
RTVSPropertyOp41
 70
     1
102
RTVSPropertyOp42
 70
     1
102
RTVSPropertyOp43
 70
     1
102
RTVSPropertyOp44
 70
     1
102
RTVSPropertyOp45
 70
     1
102
RTVSPropertyOp46
 70
     1
102
RTVSPropertyOp47
 70
     1
102
RTVSPropertyOp48
 70
     1
102
RTVSPropertyOp49
 70
     1
102
RTVSPropertyOp50
 70
     1
102
RTVSPropertyOp51
 70
     0
102
RTVSPropertyOp52
 70
     0
102
RTVSPropertyOp53
 70
     1
102
RTVSPropertyOp54
 70
     1
102
RTVSPropertyOp55
 70
     1
102
RTVSPropertyOp56
 70
     1
102
RTVSPropertyOp57
 70
     1
102
RTVSPropertyOp58
 70
     1
102
RTVSPropertyOp59
 70
     1
102
RTVSPropertyOp60
 70
     1
102
RTVSPropertyOp61
 70
     1
102
RTVSPropertyOp62
 70
     1
  0
XRECORD
  5
66A4
102
{ACAD_REACTORS
330
66A3
102
}
330
66A3
100
AcDbXrecord
280
     1
102
RTVSPropertyOp28
 70
     1
102
RTVSPropertyOp29
 70
     1
102
RTVSPropertyOp30
 70
     1
102
RTVSPropertyOp31
 70
     1
102
RTVSPropertyOp32
 70
     1
102
RTVSPropertyOp33
 70
     1
102
RTVSPropertyOp34
 70
     1
102
RTVSPropertyOp35
 70
     1
102
RTVSPropertyOp36
 70
     1
102
RTVSPropertyOp37
 70
     1
102
RTVSPropertyOp38
 70
     1
102
RTVSPropertyOp39
 70
     1
102
RTVSPropertyOp40
 70
     1
102
RTVSPropertyOp41
 70
     1
102
RTVSPropertyOp42
 70
     1
102
RTVSPropertyOp43
 70
     1
102
RTVSPropertyOp44
 70
     1
102
RTVSPropertyOp45
 70
     1
102
RTVSPropertyOp46
 70
     1
102
RTVSPropertyOp47
 70
     1
102
RTVSPropertyOp48
 70
     1
102
RTVSPropertyOp49
 70
     1
102
RTVSPropertyOp50
 70
     1
102
RTVSPropertyOp51
 70
     0
102
RTVSPropertyOp52
 70
     0
102
RTVSPropertyOp53
 70
     1
102
RTVSPropertyOp54
 70
     1
102
RTVSPropertyOp55
 70
     1
102
RTVSPropertyOp56
 70
     1
102
RTVSPropertyOp57
 70
     1
102
RTVSPropertyOp58
 70
     1
102
RTVSPropertyOp59
 70
     1
102
RTVSPropertyOp60
 70
     1
102
RTVSPropertyOp61
 70
     1
102
RTVSPropertyOp62
 70
     1
  0
XRECORD
  5
66A8
102
{ACAD_REACTORS
330
66A7
102
}
330
66A7
100
AcDbXrecord
280
     1
102
RTVSPropertyOp28
 70
     1
102
RTVSPropertyOp29
 70
     1
102
RTVSPropertyOp30
 70
     1
102
RTVSPropertyOp31
 70
     1
102
RTVSPropertyOp32
 70
     1
102
RTVSPropertyOp33
 70
     1
102
RTVSPropertyOp34
 70
     1
102
RTVSPropertyOp35
 70
     1
102
RTVSPropertyOp36
 70
     1
102
RTVSPropertyOp37
 70
     1
102
RTVSPropertyOp38
 70
     1
102
RTVSPropertyOp39
 70
     1
102
RTVSPropertyOp40
 70
     1
102
RTVSPropertyOp41
 70
     1
102
RTVSPropertyOp42
 70
     1
102
RTVSPropertyOp43
 70
     1
102
RTVSPropertyOp44
 70
     1
102
RTVSPropertyOp45
 70
     1
102
RTVSPropertyOp46
 70
     1
102
RTVSPropertyOp47
 70
     1
102
RTVSPropertyOp48
 70
     1
102
RTVSPropertyOp49
 70
     1
102
RTVSPropertyOp50
 70
     1
102
RTVSPropertyOp51
 70
     0
102
RTVSPropertyOp52
 70
     0
102
RTVSPropertyOp53
 70
     1
102
RTVSPropertyOp54
 70
     1
102
RTVSPropertyOp55
 70
     1
102
RTVSPropertyOp56
 70
     1
102
RTVSPropertyOp57
 70
     1
102
RTVSPropertyOp58
 70
     1
102
RTVSPropertyOp59
 70
     1
102
RTVSPropertyOp60
 70
     1
102
RTVSPropertyOp61
 70
     1
102
RTVSPropertyOp62
 70
     1
  0
XRECORD
  5
66C2
102
{ACAD_REACTORS
330
66C1
102
}
330
66C1
100
AcDbXrecord
280
     1
102
RTVSPropertyOp28
 70
     1
102
RTVSPropertyOp29
 70
     1
102
RTVSPropertyOp30
 70
     1
102
RTVSPropertyOp31
 70
     1
102
RTVSPropertyOp32
 70
     1
102
RTVSPropertyOp33
 70
     1
102
RTVSPropertyOp34
 70
     1
102
RTVSPropertyOp35
 70
     1
102
RTVSPropertyOp36
 70
     1
102
RTVSPropertyOp37
 70
     0
102
RTVSPropertyOp38
 70
     0
102
RTVSPropertyOp39
 70
     0
102
RTVSPropertyOp40
 70
     0
102
RTVSPropertyOp41
 70
     0
102
RTVSPropertyOp42
 70
     0
102
RTVSPropertyOp43
 70
     0
102
RTVSPropertyOp44
 70
     0
102
RTVSPropertyOp45
 70
     1
102
RTVSPropertyOp46
 70
     0
102
RTVSPropertyOp47
 70
     0
102
RTVSPropertyOp48
 70
     0
102
RTVSPropertyOp49
 70
     1
102
RTVSPropertyOp50
 70
     0
102
RTVSPropertyOp51
 70
     0
102
RTVSPropertyOp52
 70
     0
102
RTVSPropertyOp53
 70
     0
102
RTVSPropertyOp54
 70
     0
102
RTVSPropertyOp55
 70
     1
102
RTVSPropertyOp56
 70
     0
102
RTVSPropertyOp57
 70
     0
102
RTVSPropertyOp58
 70
     0
102
RTVSPropertyOp59
 70
     0
102
RTVSPropertyOp60
 70
     0
102
RTVSPropertyOp61
 70
     0
102
RTVSPropertyOp62
 70
     0
  0
XRECORD
  5
66B0
102
{ACAD_REACTORS
330
66AF
102
}
330
66AF
100
AcDbXrecord
280
     1
102
RTVSPropertyOp28
 70
     1
102
RTVSPropertyOp29
 70
     1
102
RTVSPropertyOp30
 70
     1
102
RTVSPropertyOp31
 70
     1
102
RTVSPropertyOp32
 70
     1
102
RTVSPropertyOp33
 70
     1
102
RTVSPropertyOp34
 70
     1
102
RTVSPropertyOp35
 70
     1
102
RTVSPropertyOp36
 70
     1
102
RTVSPropertyOp37
 70
     1
102
RTVSPropertyOp38
 70
     1
102
RTVSPropertyOp39
 70
     1
102
RTVSPropertyOp40
 70
     1
102
RTVSPropertyOp41
 70
     1
102
RTVSPropertyOp42
 70
     1
102
RTVSPropertyOp43
 70
     1
102
RTVSPropertyOp44
 70
     1
102
RTVSPropertyOp45
 70
     1
102
RTVSPropertyOp46
 70
     1
102
RTVSPropertyOp47
 70
     1
102
RTVSPropertyOp48
 70
     1
102
RTVSPropertyOp49
 70
     1
102
RTVSPropertyOp50
 70
     1
102
RTVSPropertyOp51
 70
     0
102
RTVSPropertyOp52
 70
     0
102
RTVSPropertyOp53
 70
     1
102
RTVSPropertyOp54
 70
     1
102
RTVSPropertyOp55
 70
     1
102
RTVSPropertyOp56
 70
     1
102
RTVSPropertyOp57
 70
     1
102
RTVSPropertyOp58
 70
     1
102
RTVSPropertyOp59
 70
     1
102
RTVSPropertyOp60
 70
     1
102
RTVSPropertyOp61
 70
     1
102
RTVSPropertyOp62
 70
     1
  0
XRECORD
  5
6694
102
{ACAD_REACTORS
330
6693
102
}
330
6693
100
AcDbXrecord
280
     1
102
RTVSPropertyOp28
 70
     1
102
RTVSPropertyOp29
 70
     1
102
RTVSPropertyOp30
 70
     1
102
RTVSPropertyOp31
 70
     1
102
RTVSPropertyOp32
 70
     1
102
RTVSPropertyOp33
 70
     1
102
RTVSPropertyOp34
 70
     1
102
RTVSPropertyOp35
 70
     1
102
RTVSPropertyOp36
 70
     1
102
RTVSPropertyOp37
 70
     1
102
RTVSPropertyOp38
 70
     1
102
RTVSPropertyOp39
 70
     1
102
RTVSPropertyOp40
 70
     1
102
RTVSPropertyOp41
 70
     1
102
RTVSPropertyOp42
 70
     1
102
RTVSPropertyOp43
 70
     1
102
RTVSPropertyOp44
 70
     1
102
RTVSPropertyOp45
 70
     1
102
RTVSPropertyOp46
 70
     1
102
RTVSPropertyOp47
 70
     1
102
RTVSPropertyOp48
 70
     1
102
RTVSPropertyOp49
 70
     1
102
RTVSPropertyOp50
 70
     1
102
RTVSPropertyOp51
 70
     0
102
RTVSPropertyOp52
 70
     0
102
RTVSPropertyOp53
 70
     1
102
RTVSPropertyOp54
 70
     1
102
RTVSPropertyOp55
 70
     1
102
RTVSPropertyOp56
 70
     1
102
RTVSPropertyOp57
 70
     1
102
RTVSPropertyOp58
 70
     1
102
RTVSPropertyOp59
 70
     1
102
RTVSPropertyOp60
 70
     1
102
RTVSPropertyOp61
 70
     1
102
RTVSPropertyOp62
 70
     1
  0
XRECORD
  5
6696
102
{ACAD_REACTORS
330
6695
102
}
330
6695
100
AcDbXrecord
280
     1
102
RTVSPropertyOp28
 70
     1
102
RTVSPropertyOp29
 70
     1
102
RTVSPropertyOp30
 70
     1
102
RTVSPropertyOp31
 70
     1
102
RTVSPropertyOp32
 70
     1
102
RTVSPropertyOp33
 70
     1
102
RTVSPropertyOp34
 70
     1
102
RTVSPropertyOp35
 70
     1
102
RTVSPropertyOp36
 70
     1
102
RTVSPropertyOp37
 70
     1
102
RTVSPropertyOp38
 70
     1
102
RTVSPropertyOp39
 70
     1
102
RTVSPropertyOp40
 70
     1
102
RTVSPropertyOp41
 70
     1
102
RTVSPropertyOp42
 70
     1
102
RTVSPropertyOp43
 70
     1
102
RTVSPropertyOp44
 70
     1
102
RTVSPropertyOp45
 70
     1
102
RTVSPropertyOp46
 70
     1
102
RTVSPropertyOp47
 70
     1
102
RTVSPropertyOp48
 70
     1
102
RTVSPropertyOp49
 70
     1
102
RTVSPropertyOp50
 70
     1
102
RTVSPropertyOp51
 70
     0
102
RTVSPropertyOp52
 70
     0
102
RTVSPropertyOp53
 70
     1
102
RTVSPropertyOp54
 70
     1
102
RTVSPropertyOp55
 70
     1
102
RTVSPropertyOp56
 70
     1
102
RTVSPropertyOp57
 70
     1
102
RTVSPropertyOp58
 70
     1
102
RTVSPropertyOp59
 70
     1
102
RTVSPropertyOp60
 70
     1
102
RTVSPropertyOp61
 70
     1
102
RTVSPropertyOp62
 70
     1
  0
XRECORD
  5
6698
102
{ACAD_REACTORS
330
6697
102
}
330
6697
100
AcDbXrecord
280
     1
102
RTVSPropertyOp28
 70
     1
102
RTVSPropertyOp29
 70
     1
102
RTVSPropertyOp30
 70
     1
102
RTVSPropertyOp31
 70
     1
102
RTVSPropertyOp32
 70
     1
102
RTVSPropertyOp33
 70
     1
102
RTVSPropertyOp34
 70
     1
102
RTVSPropertyOp35
 70
     1
102
RTVSPropertyOp36
 70
     1
102
RTVSPropertyOp37
 70
     1
102
RTVSPropertyOp38
 70
     1
102
RTVSPropertyOp39
 70
     1
102
RTVSPropertyOp40
 70
     1
102
RTVSPropertyOp41
 70
     1
102
RTVSPropertyOp42
 70
     1
102
RTVSPropertyOp43
 70
     1
102
RTVSPropertyOp44
 70
     1
102
RTVSPropertyOp45
 70
     1
102
RTVSPropertyOp46
 70
     1
102
RTVSPropertyOp47
 70
     1
102
RTVSPropertyOp48
 70
     1
102
RTVSPropertyOp49
 70
     1
102
RTVSPropertyOp50
 70
     1
102
RTVSPropertyOp51
 70
     0
102
RTVSPropertyOp52
 70
     0
102
RTVSPropertyOp53
 70
     1
102
RTVSPropertyOp54
 70
     1
102
RTVSPropertyOp55
 70
     1
102
RTVSPropertyOp56
 70
     1
102
RTVSPropertyOp57
 70
     1
102
RTVSPropertyOp58
 70
     1
102
RTVSPropertyOp59
 70
     1
102
RTVSPropertyOp60
 70
     1
102
RTVSPropertyOp61
 70
     1
102
RTVSPropertyOp62
 70
     1
  0
XRECORD
  5
669A
102
{ACAD_REACTORS
330
6699
102
}
330
6699
100
AcDbXrecord
280
     1
102
RTVSPropertyOp28
 70
     1
102
RTVSPropertyOp29
 70
     1
102
RTVSPropertyOp30
 70
     1
102
RTVSPropertyOp31
 70
     1
102
RTVSPropertyOp32
 70
     1
102
RTVSPropertyOp33
 70
     1
102
RTVSPropertyOp34
 70
     1
102
RTVSPropertyOp35
 70
     1
102
RTVSPropertyOp36
 70
     1
102
RTVSPropertyOp37
 70
     1
102
RTVSPropertyOp38
 70
     1
102
RTVSPropertyOp39
 70
     1
102
RTVSPropertyOp40
 70
     1
102
RTVSPropertyOp41
 70
     1
102
RTVSPropertyOp42
 70
     1
102
RTVSPropertyOp43
 70
     1
102
RTVSPropertyOp44
 70
     1
102
RTVSPropertyOp45
 70
     1
102
RTVSPropertyOp46
 70
     1
102
RTVSPropertyOp47
 70
     1
102
RTVSPropertyOp48
 70
     1
102
RTVSPropertyOp49
 70
     1
102
RTVSPropertyOp50
 70
     1
102
RTVSPropertyOp51
 70
     0
102
RTVSPropertyOp52
 70
     0
102
RTVSPropertyOp53
 70
     1
102
RTVSPropertyOp54
 70
     1
102
RTVSPropertyOp55
 70
     1
102
RTVSPropertyOp56
 70
     1
102
RTVSPropertyOp57
 70
     1
102
RTVSPropertyOp58
 70
     1
102
RTVSPropertyOp59
 70
     1
102
RTVSPropertyOp60
 70
     1
102
RTVSPropertyOp61
 70
     1
102
RTVSPropertyOp62
 70
     1
  0
XRECORD
  5
66A2
102
{ACAD_REACTORS
330
66A1
102
}
330
66A1
100
AcDbXrecord
280
     1
102
RTVSPropertyOp28
 70
     1
102
RTVSPropertyOp29
 70
     1
102
RTVSPropertyOp30
 70
     1
102
RTVSPropertyOp31
 70
     1
102
RTVSPropertyOp32
 70
     1
102
RTVSPropertyOp33
 70
     1
102
RTVSPropertyOp34
 70
     1
102
RTVSPropertyOp35
 70
     1
102
RTVSPropertyOp36
 70
     1
102
RTVSPropertyOp37
 70
     1
102
RTVSPropertyOp38
 70
     1
102
RTVSPropertyOp39
 70
     1
102
RTVSPropertyOp40
 70
     1
102
RTVSPropertyOp41
 70
     1
102
RTVSPropertyOp42
 70
     1
102
RTVSPropertyOp43
 70
     1
102
RTVSPropertyOp44
 70
     1
102
RTVSPropertyOp45
 70
     1
102
RTVSPropertyOp46
 70
     1
102
RTVSPropertyOp47
 70
     1
102
RTVSPropertyOp48
 70
     1
102
RTVSPropertyOp49
 70
     1
102
RTVSPropertyOp50
 70
     1
102
RTVSPropertyOp51
 70
     0
102
RTVSPropertyOp52
 70
     0
102
RTVSPropertyOp53
 70
     1
102
RTVSPropertyOp54
 70
     1
102
RTVSPropertyOp55
 70
     1
102
RTVSPropertyOp56
 70
     1
102
RTVSPropertyOp57
 70
     1
102
RTVSPropertyOp58
 70
     1
102
RTVSPropertyOp59
 70
     1
102
RTVSPropertyOp60
 70
     1
102
RTVSPropertyOp61
 70
     1
102
RTVSPropertyOp62
 70
     1
  0
XRECORD
  5
66BE
102
{ACAD_REACTORS
330
66BD
102
}
330
66BD
100
AcDbXrecord
280
     1
102
RTVSPropertyOp28
 70
     1
102
RTVSPropertyOp29
 70
     1
102
RTVSPropertyOp30
 70
     1
102
RTVSPropertyOp31
 70
     1
102
RTVSPropertyOp32
 70
     1
102
RTVSPropertyOp33
 70
     1
102
RTVSPropertyOp34
 70
     1
102
RTVSPropertyOp35
 70
     1
102
RTVSPropertyOp36
 70
     1
102
RTVSPropertyOp37
 70
     0
102
RTVSPropertyOp38
 70
     0
102
RTVSPropertyOp39
 70
     0
102
RTVSPropertyOp40
 70
     0
102
RTVSPropertyOp41
 70
     0
102
RTVSPropertyOp42
 70
     0
102
RTVSPropertyOp43
 70
     0
102
RTVSPropertyOp44
 70
     0
102
RTVSPropertyOp45
 70
     1
102
RTVSPropertyOp46
 70
     0
102
RTVSPropertyOp47
 70
     0
102
RTVSPropertyOp48
 70
     0
102
RTVSPropertyOp49
 70
     1
102
RTVSPropertyOp50
 70
     0
102
RTVSPropertyOp51
 70
     0
102
RTVSPropertyOp52
 70
     0
102
RTVSPropertyOp53
 70
     0
102
RTVSPropertyOp54
 70
     0
102
RTVSPropertyOp55
 70
     1
102
RTVSPropertyOp56
 70
     0
102
RTVSPropertyOp57
 70
     0
102
RTVSPropertyOp58
 70
     0
102
RTVSPropertyOp59
 70
     0
102
RTVSPropertyOp60
 70
     0
102
RTVSPropertyOp61
 70
     0
102
RTVSPropertyOp62
 70
     0
  0
XRECORD
  5
66AE
102
{ACAD_REACTORS
330
66AD
102
}
330
66AD
100
AcDbXrecord
280
     1
102
RTVSPropertyOp28
 70
     1
102
RTVSPropertyOp29
 70
     1
102
RTVSPropertyOp30
 70
     1
102
RTVSPropertyOp31
 70
     1
102
RTVSPropertyOp32
 70
     1
102
RTVSPropertyOp33
 70
     1
102
RTVSPropertyOp34
 70
     1
102
RTVSPropertyOp35
 70
     1
102
RTVSPropertyOp36
 70
     1
102
RTVSPropertyOp37
 70
     1
102
RTVSPropertyOp38
 70
     1
102
RTVSPropertyOp39
 70
     1
102
RTVSPropertyOp40
 70
     1
102
RTVSPropertyOp41
 70
     1
102
RTVSPropertyOp42
 70
     1
102
RTVSPropertyOp43
 70
     1
102
RTVSPropertyOp44
 70
     1
102
RTVSPropertyOp45
 70
     1
102
RTVSPropertyOp46
 70
     1
102
RTVSPropertyOp47
 70
     1
102
RTVSPropertyOp48
 70
     1
102
RTVSPropertyOp49
 70
     1
102
RTVSPropertyOp50
 70
     1
102
RTVSPropertyOp51
 70
     0
102
RTVSPropertyOp52
 70
     0
102
RTVSPropertyOp53
 70
     1
102
RTVSPropertyOp54
 70
     1
102
RTVSPropertyOp55
 70
     1
102
RTVSPropertyOp56
 70
     1
102
RTVSPropertyOp57
 70
     1
102
RTVSPropertyOp58
 70
     1
102
RTVSPropertyOp59
 70
     1
102
RTVSPropertyOp60
 70
     1
102
RTVSPropertyOp61
 70
     1
102
RTVSPropertyOp62
 70
     1
  0
XRECORD
  5
66C0
102
{ACAD_REACTORS
330
66BF
102
}
330
66BF
100
AcDbXrecord
280
     1
102
RTVSPropertyOp28
 70
     1
102
RTVSPropertyOp29
 70
     1
102
RTVSPropertyOp30
 70
     1
102
RTVSPropertyOp31
 70
     1
102
RTVSPropertyOp32
 70
     1
102
RTVSPropertyOp33
 70
     1
102
RTVSPropertyOp34
 70
     1
102
RTVSPropertyOp35
 70
     1
102
RTVSPropertyOp36
 70
     1
102
RTVSPropertyOp37
 70
     0
102
RTVSPropertyOp38
 70
     0
102
RTVSPropertyOp39
 70
     0
102
RTVSPropertyOp40
 70
     0
102
RTVSPropertyOp41
 70
     0
102
RTVSPropertyOp42
 70
     0
102
RTVSPropertyOp43
 70
     0
102
RTVSPropertyOp44
 70
     0
102
RTVSPropertyOp45
 70
     1
102
RTVSPropertyOp46
 70
     0
102
RTVSPropertyOp47
 70
     0
102
RTVSPropertyOp48
 70
     0
102
RTVSPropertyOp49
 70
     1
102
RTVSPropertyOp50
 70
     0
102
RTVSPropertyOp51
 70
     0
102
RTVSPropertyOp52
 70
     0
102
RTVSPropertyOp53
 70
     0
102
RTVSPropertyOp54
 70
     0
102
RTVSPropertyOp55
 70
     1
102
RTVSPropertyOp56
 70
     0
102
RTVSPropertyOp57
 70
     0
102
RTVSPropertyOp58
 70
     0
102
RTVSPropertyOp59
 70
     0
102
RTVSPropertyOp60
 70
     0
102
RTVSPropertyOp61
 70
     0
102
RTVSPropertyOp62
 70
     0
  0
XRECORD
  5
66A6
102
{ACAD_REACTORS
330
66A5
102
}
330
66A5
100
AcDbXrecord
280
     1
102
RTVSPropertyOp28
 70
     1
102
RTVSPropertyOp29
 70
     1
102
RTVSPropertyOp30
 70
     1
102
RTVSPropertyOp31
 70
     1
102
RTVSPropertyOp32
 70
     1
102
RTVSPropertyOp33
 70
     1
102
RTVSPropertyOp34
 70
     1
102
RTVSPropertyOp35
 70
     1
102
RTVSPropertyOp36
 70
     1
102
RTVSPropertyOp37
 70
     1
102
RTVSPropertyOp38
 70
     1
102
RTVSPropertyOp39
 70
     1
102
RTVSPropertyOp40
 70
     1
102
RTVSPropertyOp41
 70
     1
102
RTVSPropertyOp42
 70
     1
102
RTVSPropertyOp43
 70
     1
102
RTVSPropertyOp44
 70
     1
102
RTVSPropertyOp45
 70
     1
102
RTVSPropertyOp46
 70
     1
102
RTVSPropertyOp47
 70
     1
102
RTVSPropertyOp48
 70
     1
102
RTVSPropertyOp49
 70
     1
102
RTVSPropertyOp50
 70
     1
102
RTVSPropertyOp51
 70
     0
102
RTVSPropertyOp52
 70
     0
102
RTVSPropertyOp53
 70
     1
102
RTVSPropertyOp54
 70
     1
102
RTVSPropertyOp55
 70
     1
102
RTVSPropertyOp56
 70
     1
102
RTVSPropertyOp57
 70
     1
102
RTVSPropertyOp58
 70
     1
102
RTVSPropertyOp59
 70
     1
102
RTVSPropertyOp60
 70
     1
102
RTVSPropertyOp61
 70
     1
102
RTVSPropertyOp62
 70
     1
  0
XRECORD
  5
66BC
102
{ACAD_REACTORS
330
66BB
102
}
330
66BB
100
AcDbXrecord
280
     1
102
RTVSPropertyOp28
 70
     1
102
RTVSPropertyOp29
 70
     1
102
RTVSPropertyOp30
 70
     1
102
RTVSPropertyOp31
 70
     1
102
RTVSPropertyOp32
 70
     1
102
RTVSPropertyOp33
 70
     1
102
RTVSPropertyOp34
 70
     1
102
RTVSPropertyOp35
 70
     1
102
RTVSPropertyOp36
 70
     1
102
RTVSPropertyOp37
 70
     1
102
RTVSPropertyOp38
 70
     1
102
RTVSPropertyOp39
 70
     1
102
RTVSPropertyOp40
 70
     1
102
RTVSPropertyOp41
 70
     1
102
RTVSPropertyOp42
 70
     1
102
RTVSPropertyOp43
 70
     1
102
RTVSPropertyOp44
 70
     1
102
RTVSPropertyOp45
 70
     1
102
RTVSPropertyOp46
 70
     1
102
RTVSPropertyOp47
 70
     1
102
RTVSPropertyOp48
 70
     1
102
RTVSPropertyOp49
 70
     1
102
RTVSPropertyOp50
 70
     1
102
RTVSPropertyOp51
 70
     0
102
RTVSPropertyOp52
 70
     0
102
RTVSPropertyOp53
 70
     1
102
RTVSPropertyOp54
 70
     1
102
RTVSPropertyOp55
 70
     1
102
RTVSPropertyOp56
 70
     1
102
RTVSPropertyOp57
 70
     1
102
RTVSPropertyOp58
 70
     1
102
RTVSPropertyOp59
 70
     1
102
RTVSPropertyOp60
 70
     1
102
RTVSPropertyOp61
 70
     1
102
RTVSPropertyOp62
 70
     1
  0
XRECORD
  5
66BA
102
{ACAD_REACTORS
330
66B9
102
}
330
66B9
100
AcDbXrecord
280
     1
102
RTVSPropertyOp28
 70
     1
102
RTVSPropertyOp29
 70
     1
102
RTVSPropertyOp30
 70
     1
102
RTVSPropertyOp31
 70
     1
102
RTVSPropertyOp32
 70
     1
102
RTVSPropertyOp33
 70
     1
102
RTVSPropertyOp34
 70
     1
102
RTVSPropertyOp35
 70
     1
102
RTVSPropertyOp36
 70
     1
102
RTVSPropertyOp37
 70
     1
102
RTVSPropertyOp38
 70
     1
102
RTVSPropertyOp39
 70
     1
102
RTVSPropertyOp40
 70
     1
102
RTVSPropertyOp41
 70
     1
102
RTVSPropertyOp42
 70
     1
102
RTVSPropertyOp43
 70
     1
102
RTVSPropertyOp44
 70
     1
102
RTVSPropertyOp45
 70
     1
102
RTVSPropertyOp46
 70
     1
102
RTVSPropertyOp47
 70
     1
102
RTVSPropertyOp48
 70
     1
102
RTVSPropertyOp49
 70
     1
102
RTVSPropertyOp50
 70
     1
102
RTVSPropertyOp51
 70
     0
102
RTVSPropertyOp52
 70
     0
102
RTVSPropertyOp53
 70
     1
102
RTVSPropertyOp54
 70
     1
102
RTVSPropertyOp55
 70
     1
102
RTVSPropertyOp56
 70
     1
102
RTVSPropertyOp57
 70
     1
102
RTVSPropertyOp58
 70
     1
102
RTVSPropertyOp59
 70
     1
102
RTVSPropertyOp60
 70
     1
102
RTVSPropertyOp61
 70
     1
102
RTVSPropertyOp62
 70
     1
  0
XRECORD
  5
66B4
102
{ACAD_REACTORS
330
66B3
102
}
330
66B3
100
AcDbXrecord
280
     1
102
RTVSPropertyOp28
 70
     1
102
RTVSPropertyOp29
 70
     1
102
RTVSPropertyOp30
 70
     1
102
RTVSPropertyOp31
 70
     1
102
RTVSPropertyOp32
 70
     1
102
RTVSPropertyOp33
 70
     1
102
RTVSPropertyOp34
 70
     1
102
RTVSPropertyOp35
 70
     1
102
RTVSPropertyOp36
 70
     1
102
RTVSPropertyOp37
 70
     1
102
RTVSPropertyOp38
 70
     1
102
RTVSPropertyOp39
 70
     1
102
RTVSPropertyOp40
 70
     1
102
RTVSPropertyOp41
 70
     1
102
RTVSPropertyOp42
 70
     1
102
RTVSPropertyOp43
 70
     1
102
RTVSPropertyOp44
 70
     1
102
RTVSPropertyOp45
 70
     1
102
RTVSPropertyOp46
 70
     1
102
RTVSPropertyOp47
 70
     1
102
RTVSPropertyOp48
 70
     1
102
RTVSPropertyOp49
 70
     1
102
RTVSPropertyOp50
 70
     1
102
RTVSPropertyOp51
 70
     0
102
RTVSPropertyOp52
 70
     0
102
RTVSPropertyOp53
 70
     1
102
RTVSPropertyOp54
 70
     1
102
RTVSPropertyOp55
 70
     1
102
RTVSPropertyOp56
 70
     1
102
RTVSPropertyOp57
 70
     1
102
RTVSPropertyOp58
 70
     1
102
RTVSPropertyOp59
 70
     1
102
RTVSPropertyOp60
 70
     1
102
RTVSPropertyOp61
 70
     1
102
RTVSPropertyOp62
 70
     1
  0
XRECORD
  5
66B6
102
{ACAD_REACTORS
330
66B5
102
}
330
66B5
100
AcDbXrecord
280
     1
102
RTVSPropertyOp28
 70
     1
102
RTVSPropertyOp29
 70
     1
102
RTVSPropertyOp30
 70
     1
102
RTVSPropertyOp31
 70
     1
102
RTVSPropertyOp32
 70
     1
102
RTVSPropertyOp33
 70
     1
102
RTVSPropertyOp34
 70
     1
102
RTVSPropertyOp35
 70
     1
102
RTVSPropertyOp36
 70
     1
102
RTVSPropertyOp37
 70
     1
102
RTVSPropertyOp38
 70
     1
102
RTVSPropertyOp39
 70
     1
102
RTVSPropertyOp40
 70
     1
102
RTVSPropertyOp41
 70
     1
102
RTVSPropertyOp42
 70
     1
102
RTVSPropertyOp43
 70
     1
102
RTVSPropertyOp44
 70
     1
102
RTVSPropertyOp45
 70
     1
102
RTVSPropertyOp46
 70
     1
102
RTVSPropertyOp47
 70
     1
102
RTVSPropertyOp48
 70
     1
102
RTVSPropertyOp49
 70
     1
102
RTVSPropertyOp50
 70
     1
102
RTVSPropertyOp51
 70
     0
102
RTVSPropertyOp52
 70
     0
102
RTVSPropertyOp53
 70
     1
102
RTVSPropertyOp54
 70
     1
102
RTVSPropertyOp55
 70
     1
102
RTVSPropertyOp56
 70
     1
102
RTVSPropertyOp57
 70
     1
102
RTVSPropertyOp58
 70
     1
102
RTVSPropertyOp59
 70
     1
102
RTVSPropertyOp60
 70
     1
102
RTVSPropertyOp61
 70
     1
102
RTVSPropertyOp62
 70
     1
  0
XRECORD
  5
66AC
102
{ACAD_REACTORS
330
66AB
102
}
330
66AB
100
AcDbXrecord
280
     1
102
RTVSPropertyOp28
 70
     1
102
RTVSPropertyOp29
 70
     1
102
RTVSPropertyOp30
 70
     1
102
RTVSPropertyOp31
 70
     1
102
RTVSPropertyOp32
 70
     1
102
RTVSPropertyOp33
 70
     1
102
RTVSPropertyOp34
 70
     1
102
RTVSPropertyOp35
 70
     1
102
RTVSPropertyOp36
 70
     1
102
RTVSPropertyOp37
 70
     1
102
RTVSPropertyOp38
 70
     1
102
RTVSPropertyOp39
 70
     1
102
RTVSPropertyOp40
 70
     1
102
RTVSPropertyOp41
 70
     1
102
RTVSPropertyOp42
 70
     1
102
RTVSPropertyOp43
 70
     1
102
RTVSPropertyOp44
 70
     1
102
RTVSPropertyOp45
 70
     1
102
RTVSPropertyOp46
 70
     1
102
RTVSPropertyOp47
 70
     1
102
RTVSPropertyOp48
 70
     1
102
RTVSPropertyOp49
 70
     1
102
RTVSPropertyOp50
 70
     1
102
RTVSPropertyOp51
 70
     0
102
RTVSPropertyOp52
 70
     0
102
RTVSPropertyOp53
 70
     1
102
RTVSPropertyOp54
 70
     1
102
RTVSPropertyOp55
 70
     1
102
RTVSPropertyOp56
 70
     1
102
RTVSPropertyOp57
 70
     1
102
RTVSPropertyOp58
 70
     1
102
RTVSPropertyOp59
 70
     1
102
RTVSPropertyOp60
 70
     1
102
RTVSPropertyOp61
 70
     1
102
RTVSPropertyOp62
 70
     1
  0
XRECORD
  5
66A0
102
{ACAD_REACTORS
330
669F
102
}
330
669F
100
AcDbXrecord
280
     1
102
RTVSPropertyOp28
 70
     1
102
RTVSPropertyOp29
 70
     1
102
RTVSPropertyOp30
 70
     1
102
RTVSPropertyOp31
 70
     1
102
RTVSPropertyOp32
 70
     1
102
RTVSPropertyOp33
 70
     1
102
RTVSPropertyOp34
 70
     1
102
RTVSPropertyOp35
 70
     1
102
RTVSPropertyOp36
 70
     1
102
RTVSPropertyOp37
 70
     1
102
RTVSPropertyOp38
 70
     1
102
RTVSPropertyOp39
 70
     1
102
RTVSPropertyOp40
 70
     1
102
RTVSPropertyOp41
 70
     1
102
RTVSPropertyOp42
 70
     1
102
RTVSPropertyOp43
 70
     1
102
RTVSPropertyOp44
 70
     1
102
RTVSPropertyOp45
 70
     1
102
RTVSPropertyOp46
 70
     1
102
RTVSPropertyOp47
 70
     1
102
RTVSPropertyOp48
 70
     1
102
RTVSPropertyOp49
 70
     1
102
RTVSPropertyOp50
 70
     1
102
RTVSPropertyOp51
 70
     0
102
RTVSPropertyOp52
 70
     0
102
RTVSPropertyOp53
 70
     1
102
RTVSPropertyOp54
 70
     1
102
RTVSPropertyOp55
 70
     1
102
RTVSPropertyOp56
 70
     1
102
RTVSPropertyOp57
 70
     1
102
RTVSPropertyOp58
 70
     1
102
RTVSPropertyOp59
 70
     1
102
RTVSPropertyOp60
 70
     1
102
RTVSPropertyOp61
 70
     1
102
RTVSPropertyOp62
 70
     1
  0
XRECORD
  5
66B8
102
{ACAD_REACTORS
330
66B7
102
}
330
66B7
100
AcDbXrecord
280
     1
102
RTVSPropertyOp28
 70
     1
102
RTVSPropertyOp29
 70
     1
102
RTVSPropertyOp30
 70
     1
102
RTVSPropertyOp31
 70
     1
102
RTVSPropertyOp32
 70
     1
102
RTVSPropertyOp33
 70
     1
102
RTVSPropertyOp34
 70
     1
102
RTVSPropertyOp35
 70
     1
102
RTVSPropertyOp36
 70
     1
102
RTVSPropertyOp37
 70
     1
102
RTVSPropertyOp38
 70
     1
102
RTVSPropertyOp39
 70
     1
102
RTVSPropertyOp40
 70
     1
102
RTVSPropertyOp41
 70
     1
102
RTVSPropertyOp42
 70
     1
102
RTVSPropertyOp43
 70
     1
102
RTVSPropertyOp44
 70
     1
102
RTVSPropertyOp45
 70
     1
102
RTVSPropertyOp46
 70
     1
102
RTVSPropertyOp47
 70
     1
102
RTVSPropertyOp48
 70
     1
102
RTVSPropertyOp49
 70
     1
102
RTVSPropertyOp50
 70
     1
102
RTVSPropertyOp51
 70
     0
102
RTVSPropertyOp52
 70
     0
102
RTVSPropertyOp53
 70
     1
102
RTVSPropertyOp54
 70
     1
102
RTVSPropertyOp55
 70
     1
102
RTVSPropertyOp56
 70
     1
102
RTVSPropertyOp57
 70
     1
102
RTVSPropertyOp58
 70
     1
102
RTVSPropertyOp59
 70
     1
102
RTVSPropertyOp60
 70
     1
102
RTVSPropertyOp61
 70
     1
102
RTVSPropertyOp62
 70
     1
  0
ENDSEC
  0
SECTION
  2
ACDSDATA
 70
     2
 71
     6
  0
ACDSSCHEMA
 90
        0
  1
AcDb_Thumbnail_Schema
  2
AcDbDs::ID
280
    10
 91
        8
  2
Thumbnail_Data
280
    15
 91
        0
101
ACDSRECORD
 95
        0
 90
        1
  2
AcDbDs::TreatedAsObjectData
280
     1
291
     1
101
ACDSRECORD
 95
        0
 90
        2
  2
AcDbDs::Legacy
280
     1
291
     1
101
ACDSRECORD
  1
AcDbDs::ID
 90
        3
  2
AcDs:Indexable
280
     1
291
     1
101
ACDSRECORD
  1
AcDbDs::ID
 90
        4
  2
AcDbDs::HandleAttribute
280
     7
282
     1
  0
ACDSSCHEMA
 90
        1
  1
AcDbDs::TreatedAsObjectDataSchema
  2
AcDbDs::TreatedAsObjectData
280
     1
 91
        0
  0
ACDSSCHEMA
 90
        2
  1
AcDbDs::LegacySchema
  2
AcDbDs::Legacy
280
     1
 91
        0
  0
ACDSSCHEMA
 90
        3
  1
AcDbDs::IndexedPropertySchema
  2
AcDs:Indexable
280
     1
 91
        0
  0
ACDSSCHEMA
 90
        4
  1
AcDbDs::HandleAttributeSchema
  2
AcDbDs::HandleAttribute
280
     7
 91
        1
284
     1
  0
ACDSRECORD
 90
        0
  2
AcDbDs::ID
280
    10
320
6262
  2
Thumbnail_Data
280
    15
 94
     2159
310
89504E470D0A1A0A0000000D4948445200000121000001000803000000CB3330BA00000300504C5445000000000000FFFFFF0000000000000000000000000000000000000000000000000000330000660000990000CC0000FF0033000033330033660033990033CC0033FF0066000066330066660066990066CC0066FF0099
310
000099330099660099990099CC0099FF00CC0000CC3300CC6600CC9900CCCC00CCFF00FF0000FF3300FF6600FF9900FFCC00FFFF3300003300333300663300993300CC3300FF3333003333333333663333993333CC3333FF3366003366333366663366993366CC3366FF3399003399333399663399993399CC3399FF33CC00
310
33CC3333CC6633CC9933CCCC33CCFF33FF0033FF3333FF6633FF9933FFCC33FFFF6600006600336600666600996600CC6600FF6633006633336633666633996633CC6633FF6666006666336666666666996666CC6666FF6699006699336699666699996699CC6699FF66CC0066CC3366CC6666CC9966CCCC66CCFF66FF0066
310
FF3366FF6666FF9966FFCC66FFFF9900009900339900669900999900CC9900FF9933009933339933669933999933CC9933FF9966009966339966669966999966CC9966FF9999009999339999669999999999CC9999FF99CC0099CC3399CC6699CC9999CCCC99CCFF99FF0099FF3399FF6699FF9999FFCC99FFFFCC0000CC00
310
33CC0066CC0099CC00CCCC00FFCC3300CC3333CC3366CC3399CC33CCCC33FFCC6600CC6633CC6666CC6699CC66CCCC66FFCC9900CC9933CC9966CC9999CC99CCCC99FFCCCC00CCCC33CCCC66CCCC99CCCCCCCCCCFFCCFF00CCFF33CCFF66CCFF99CCFFCCCCFFFFFF0000FF0033FF0066FF0099FF00CCFF00FFFF3300FF3333
310
FF3366FF3399FF33CCFF33FFFF6600FF6633FF6666FF6699FF66CCFF66FFFF9900FF9933FF9966FF9999FF99CCFF99FFFFCC00FFCC33FFCC66FFCC99FFCCCCFFCCFFFFFF00FFFF33FFFF66FFFF99FFFFCCFFFFFF0000000D0D0D1A1A1A2828283535354343435050505D5D5D6B6B6B787878868686939393A1A1A1AEAEAEBB
310
BBBBC9C9C9D6D6D6E4E4E4F1F1F1FFFFFF000000000000000000000000000000000000000000000000000000000000C11FEF660000052A4944415478DAEDDD4B96A3201480E1DE41B6E184FDCF32711B8EEE0AEE24F31615057C80795590FF9E932E6391EAF8D5054421F54F88E3F8070142082184D08585CCCFC5CF09FDDA
310
AF1B218410420821841042082184104208218410420821841042082184103AF5865415A194902274C83306427B42E157845642FDA3751B082184D09BDF909D66A0FDA3751B06A1F5B7821C4208A1EF0A3D96E89FD8A7E32E19F720B490784EB316423241783934A15D4AA81BA395F1EBB3B54CFCDAF538AE63A5E5D008F39A
310
908475EC719C41A50A0D1BCFD4B2751D1BA4AED49775AE1DEAE8EDDF2EB4EAC5AED9DB8B1392278424ECEE67277908427E3B74E1DEFE35A14ADA2184107AF5FA9071D7870CD787C82172E8036FC88439F49D1BD86509453984D09E907C33CABA1B64860742082184D01F0A0D3D1842A940E8B7022184104208218410420821
310
841042082184107AF71BBA691C084542B7680742087D4FA8AF908AD0B1905628947FD083CF59A3EA84D2591455C4BA84722AA546AB8CAB68875CDE6409C5E208AD542A149A1B1F84526DD0AE50D07ED72A640B1DB6436A571B217450BC53E9A457D28285ECC48FCECD61B41B79637BF70A355D7730FFB117B2442BC2B2E653
310
1B7B04A6B185BAE1694E0E99A51A7507FF459F3DDDF06FC93934AE51344D6357BC7A0994292449A1AE78216B244D2F24DD9C43B942D3DAD87DA14E67F792DB211BCDDC2065082DCD4EB7CA219D2F868C6D5037B64325E7D018E1BA8E949097249190BAB1FE00353442750B896C08C9D2980DB5B0F05AF6AAD0CE2EF54EB8B5
310
D4EB43C32FF6ED42BAD4338436BBFFAD2855283CA237D7B2978741BFD30EA91B3EF8CBA73684FC9CA853683ED5D913F2CFA0AA123261910C21A94D285C9B782C64CB21941032084D43844DA1C750A03A21BF391A36364E62C6E78FDADAA1D68631CBBF76A37FEC09B58FB1C45CD80BBB8B1C9ADA226A996C0E1510CAE9CB6A
310
15CAEFED2B153A714E4D0EE509D5362ED3F08F862B63FB95D0746EE4208EAE0F4DD361AA149ABB77841042E8FD425120B4F3ADAC7B1D750AB9FBF64DE24A7E2064CBD7934376CE8791FE884D72EE871352E985C258915D49C8DE5A6FB2E60FD52A943F07CD138ABF6F4EAD0F2AEA9EAB7F375113F3183DA1555C5748A2BFD7
310
7174A08BD03C8B6A3E8F3AB588AA52A1136BD24A14923708A920E40BC533602E5ECB961E3E57284C21B9EE1AC567855E5B9E5F9C907F987942710A5D3C87B2AB0B42D9425A532D3B73A8AED7F29ECBE573E8548C9DBAF88B3311DACCA1AA6AD939A115969043083D51CB945AF6F94008218410420821841042082184104228
310
8EF19EAB4AFE30347B29507B29214508A1B342B755A47E58EE0B8E7E725142D3D7C65D954F0B45A9714B94DB2A58A490260EB876A1A66972AFA9569B43C10E84103A2FD42284D0DF09ED34EC81902D8310422F0A693D42F720F4B67312E50B292DF5C68B86FDB3A3CDA14511A145682C78773B1042082184B2849E1ADB6FF7
310
65A150792D75DBB6B7F8E3BA6EC3A77C6D177605E2170C31BFC8DF7F1FB7EFE38ECBF465E45052483E24249C0FD197218410427F30B6BF1F8EED19B94AE22AAC72F5032184104208A16F093508A5841A840E8FF753B3632E5BCB04A1E53898C798F986F2FF508246AFD054E1765D0621AFB06AAB550A657E36D3F4D156950A
310
65E5D076DF78ED952FAF7D16410D42EF0884104228118F209E2885104208D10E218410420821F46B423F17BF2654472084104208218410420821442084104208218410420811082184104208218410420442082184104208218410811042082184104208214420F45CFC079F5CAFA3D695D67E0000000049454E44AE426082
  0
ENDSEC
  0
EOF
