  0
SECTION
  2
HEADER
  9
$ACADVER
  1
AC1015
  9
$ACADMAINTVER
 70
    20
  9
$DWGCODEPAGE
  3
ANSI_932
  9
$INSBASE
 10
0.0
 20
0.0
 30
0.0
  9
$EXTMIN
 10
181.9505802541111
 20
-550.5741247767955
 30
-0.0015258207003583
  9
$EXTMAX
 10
847.5091041093859
 20
429.3857686996306
 30
0.0000000349246037
  9
$LIMMIN
 10
-296.316999476111
 20
-370.7034300441653
  9
$LIMMAX
 10
623.3128432133979
 20
328.6261559379898
  9
$ORTHOMODE
 70
     1
  9
$REGENMODE
 70
     1
  9
$FILLMODE
 70
     1
  9
$QTEXTMODE
 70
     0
  9
$MIRRTEXT
 70
     1
  9
$LTSCALE
 40
10.0
  9
$ATTMODE
 70
     1
  9
$TEXTSIZE
 40
2.0
  9
$TRACEWID
 40
0.05
  9
$TEXTSTYLE
  7
STANDARD
  9
$CLAYER
  8
0
  9
$CELTYPE
  6
CONTINUOUS
  9
$CECOLOR
 62
   256
  9
$CELTSCALE
 40
1.0
  9
$DISPSILH
 70
     0
  9
$DIMSCALE
 40
1.0
  9
$DIMASZ
 40
2.0
  9
$DIMEXO
 40
1.0
  9
$DIMDLI
 40
0.5
  9
$DIMRND
 40
0.0
  9
$DIMDLE
 40
0.0
  9
$DIMEXE
 40
0.5
  9
$DIMTP
 40
0.0
  9
$DIMTM
 40
0.0
  9
$DIMTXT
 40
4.0
  9
$DIMCEN
 40
0.09
  9
$DIMTSZ
 40
0.0
  9
$DIMTOL
 70
     0
  9
$DIMLIM
 70
     0
  9
$DIMTIH
 70
     0
  9
$DIMTOH
 70
     1
  9
$DIMSE1
 70
     0
  9
$DIMSE2
 70
     0
  9
$DIMTAD
 70
     3
  9
$DIMZIN
 70
    12
  9
$DIMBLK
  1
OPEN
  9
$DIMASO
 70
     1
  9
$DIMSHO
 70
     1
  9
$DIMPOST
  1

  9
$DIMAPOST
  1

  9
$DIMALT
 70
     0
  9
$DIMALTD
 70
     2
  9
$DIMALTF
 40
25.4
  9
$DIMLFAC
 40
1.0
  9
$DIMTOFL
 70
     0
  9
$DIMTVP
 40
0.0
  9
$DIMTIX
 70
     0
  9
$DIMSOXD
 70
     0
  9
$DIMSAH
 70
     0
  9
$DIMBLK1
  1

  9
$DIMBLK2
  1

  9
$DIMSTYLE
  2
STANDARD
  9
$DIMCLRD
 70
     0
  9
$DIMCLRE
 70
     0
  9
$DIMCLRT
 70
     0
  9
$DIMTFAC
 40
1.0
  9
$DIMGAP
 40
1.0
  9
$DIMJUST
 70
     0
  9
$DIMSD1
 70
     0
  9
$DIMSD2
 70
     0
  9
$DIMTOLJ
 70
     1
  9
$DIMTZIN
 70
     0
  9
$DIMALTZ
 70
     0
  9
$DIMALTTZ
 70
     0
  9
$DIMUPT
 70
     0
  9
$DIMDEC
 70
     1
  9
$DIMTDEC
 70
     1
  9
$DIMALTU
 70
     2
  9
$DIMALTTD
 70
     2
  9
$DIMTXSTY
  7
STANDARD
  9
$DIMAUNIT
 70
     0
  9
$DIMADEC
 70
     0
  9
$DIMALTRND
 40
0.0
  9
$DIMAZIN
 70
     0
  9
$DIMDSEP
 70
    46
  9
$DIMATFIT
 70
     3
  9
$DIMFRAC
 70
     0
  9
$DIMLDRBLK
  1
OPEN
  9
$DIMLUNIT
 70
     2
  9
$DIMLWD
 70
    -2
  9
$DIMLWE
 70
    -2
  9
$DIMTMOVE
 70
     0
  9
$LUNITS
 70
     2
  9
$LUPREC
 70
     4
  9
$SKETCHINC
 40
0.1
  9
$FILLETRAD
 40
0.0
  9
$AUNITS
 70
     0
  9
$AUPREC
 70
     0
  9
$MENU
  1
.
  9
$ELEVATION
 40
0.0
  9
$PELEVATION
 40
0.0
  9
$THICKNESS
 40
0.0
  9
$LIMCHECK
 70
     0
  9
$CHAMFERA
 40
0.0
  9
$CHAMFERB
 40
0.0
  9
$CHAMFERC
 40
0.0
  9
$CHAMFERD
 40
0.0
  9
$SKPOLY
 70
     0
  9
$TDCREATE
 40
2452286.555658658
  9
$TDUCREATE
 40
2452286.180658658
  9
$TDUPDATE
 40
2457256.470225822
  9
$TDUUPDATE
 40
2457256.095225822
  9
$TDINDWG
 40
1.3872793287
  9
$TDUSRTIMER
 40
1.3872769444
  9
$USRTIMER
 70
     1
  9
$ANGBASE
 50
0.0
  9
$ANGDIR
 70
     0
  9
$PDMODE
 70
     0
  9
$PDSIZE
 40
0.0
  9
$PLINEWID
 40
0.0
  9
$SPLFRAME
 70
     0
  9
$SPLINETYPE
 70
     6
  9
$SPLINESEGS
 70
     8
  9
$HANDSEED
  5
A591
  9
$SURFTAB1
 70
     6
  9
$SURFTAB2
 70
     6
  9
$SURFTYPE
 70
     6
  9
$SURFU
 70
     6
  9
$SURFV
 70
     6
  9
$UCSBASE
  2

  9
$UCSNAME
  2

  9
$UCSORG
 10
0.0
 20
0.0
 30
0.0
  9
$UCSXDIR
 10
1.0
 20
0.0
 30
0.0
  9
$UCSYDIR
 10
0.0
 20
1.0
 30
0.0
  9
$UCSORTHOREF
  2

  9
$UCSORTHOVIEW
 70
     0
  9
$UCSORGTOP
 10
0.0
 20
0.0
 30
0.0
  9
$UCSORGBOTTOM
 10
0.0
 20
0.0
 30
0.0
  9
$UCSORGLEFT
 10
0.0
 20
0.0
 30
0.0
  9
$UCSORGRIGHT
 10
0.0
 20
0.0
 30
0.0
  9
$UCSORGFRONT
 10
0.0
 20
0.0
 30
0.0
  9
$UCSORGBACK
 10
0.0
 20
0.0
 30
0.0
  9
$PUCSBASE
  2

  9
$PUCSNAME
  2

  9
$PUCSORG
 10
0.0
 20
0.0
 30
0.0
  9
$PUCSXDIR
 10
1.0
 20
0.0
 30
0.0
  9
$PUCSYDIR
 10
0.0
 20
1.0
 30
0.0
  9
$PUCSORTHOREF
  2

  9
$PUCSORTHOVIEW
 70
     0
  9
$PUCSORGTOP
 10
0.0
 20
0.0
 30
0.0
  9
$PUCSORGBOTTOM
 10
0.0
 20
0.0
 30
0.0
  9
$PUCSORGLEFT
 10
0.0
 20
0.0
 30
0.0
  9
$PUCSORGRIGHT
 10
0.0
 20
0.0
 30
0.0
  9
$PUCSORGFRONT
 10
0.0
 20
0.0
 30
0.0
  9
$PUCSORGBACK
 10
0.0
 20
0.0
 30
0.0
  9
$USERI1
 70
     0
  9
$USERI2
 70
     0
  9
$USERI3
 70
     0
  9
$USERI4
 70
     0
  9
$USERI5
 70
     0
  9
$USERR1
 40
0.0
  9
$USERR2
 40
0.0
  9
$USERR3
 40
0.0
  9
$USERR4
 40
0.0
  9
$USERR5
 40
0.0
  9
$WORLDVIEW
 70
     1
  9
$SHADEDGE
 70
     3
  9
$SHADEDIF
 70
    70
  9
$TILEMODE
 70
     1
  9
$MAXACTVP
 70
    48
  9
$PINSBASE
 10
0.0
 20
0.0
 30
0.0
  9
$PLIMCHECK
 70
     0
  9
$PEXTMIN
 10
4.273573
 20
5.205245999999998
 30
0.0
  9
$PEXTMAX
 10
194.610095
 20
283.0697009999996
 30
0.0
  9
$PLIMMIN
 10
-5.873749
 20
-5.87375
  9
$PLIMMAX
 10
204.099579
 20
291.1369009999999
  9
$UNITMODE
 70
     0
  9
$VISRETAIN
 70
     1
  9
$PLINEGEN
 70
     0
  9
$PSLTSCALE
 70
     1
  9
$TREEDEPTH
 70
  3020
  9
$CMLSTYLE
  2
STANDARD
  9
$CMLJUST
 70
     0
  9
$CMLSCALE
 40
1.0
  9
$PROXYGRAPHICS
 70
     1
  9
$MEASUREMENT
 70
     0
  9
$CELWEIGHT
370
    -1
  9
$ENDCAPS
280
     0
  9
$JOINSTYLE
280
     0
  9
$LWDISPLAY
290
     0
  9
$INSUNITS
 70
     0
  9
$HYPERLINKBASE
  1

  9
$STYLESHEET
  1
monochrome.ctb
  9
$XEDIT
290
     1
  9
$CEPSNTYPE
380
     0
  9
$PSTYLEMODE
290
     1
  9
$FINGERPRINTGUID
  2

  9
$VERSIONGUID
  2
{5EA2501B-4979-4030-9FF8-3899F127E88D}
  9
$EXTNAMES
290
     1
  9
$PSVPSCALE
 40
0.0
  9
$OLESTARTUP
290
     0
  0
ENDSEC
  0
SECTION
  2
CLASSES
  0
CLASS
  1
ACDBDICTIONARYWDFLT
  2
AcDbDictionaryWithDefault
  3
ObjectDBX Classes
 90
        0
280
     0
281
     0
  0
CLASS
  1
DICTIONARYVAR
  2
AcDbDictionaryVar
  3
ObjectDBX Classes
 90
        0
280
     0
281
     0
  0
CLASS
  1
MATERIAL
  2
AcDbMaterial
  3
ObjectDBX Classes
 90
     1153
280
     0
281
     0
  0
CLASS
  1
VISUALSTYLE
  2
AcDbVisualStyle
  3
ObjectDBX Classes
 90
     4095
280
     0
281
     0
  0
CLASS
  1
TABLESTYLE
  2
AcDbTableStyle
  3
ObjectDBX Classes
 90
     4095
280
     0
281
     0
  0
CLASS
  1
SCALE
  2
AcDbScale
  3
ObjectDBX Classes
 90
     1153
280
     0
281
     0
  0
CLASS
  1
MLEADERSTYLE
  2
AcDbMLeaderStyle
  3
ACDB_MLEADERSTYLE_CLASS
 90
     4095
280
     0
281
     0
  0
CLASS
  1
ACDBSECTIONVIEWSTYLE
  2
AcDbSectionViewStyle
  3
ObjectDBX Classes
 90
     1025
280
     0
281
     0
  0
CLASS
  1
ACDBDETAILVIEWSTYLE
  2
AcDbDetailViewStyle
  3
ObjectDBX Classes
 90
     1025
280
     0
281
     0
  0
CLASS
  1
CELLSTYLEMAP
  2
AcDbCellStyleMap
  3
ObjectDBX Classes
 90
     1152
280
     0
281
     0
  0
CLASS
  1
AEC_REFEDIT_STATUS_TRACKER
  2
AecDbRefEditStatusTracker
  3
AecArchBase60|Product Desc: Autodesk Architectural Desktop 2007 |Company: Autodesk,Inc. |WEB Address: www.autodesk.com
 90
      129
280
     0
281
     0
  0
CLASS
  1
NPOCOLLECTION
  2
AcDbImpNonPersistentObjectsCollection
  3
ObjectDBX Classes
 90
     1153
280
     0
281
     0
  0
CLASS
  1
ACDBPLACEHOLDER
  2
AcDbPlaceHolder
  3
ObjectDBX Classes
 90
        0
280
     0
281
     0
  0
CLASS
  1
LAYOUT
  2
AcDbLayout
  3
ObjectDBX Classes
 90
        0
280
     0
281
     0
  0
ENDSEC
  0
SECTION
  2
TABLES
  0
TABLE
  2
VPORT
  5
8
330
0
100
AcDbSymbolTable
 70
     1
  0
VPORT
  5
8A51
330
8
100
AcDbSymbolTableRecord
100
AcDbViewportTableRecord
  2
*Active
 70
     0
 10
0.0
 20
0.0
 11
1.0
 21
1.0
 12
514.7298421817485
 22
-60.59417803858242
 13
0.0
 23
0.0
 14
1.0
 24
1.0
 15
10.0
 25
10.0
 16
0.0
 26
0.0
 36
1.0
 17
0.0
 27
0.0
 37
0.0
 40
986.6950130192194
 41
1.752293577981651
 42
50.0
 43
0.0
 44
0.0
 50
0.0
 51
0.0
 71
     0
 72
   100
 73
     1
 74
     1
 75
     1
 76
     1
 77
     0
 78
     0
281
     0
 65
     1
110
0.0
120
0.0
130
0.0
111
1.0
121
0.0
131
0.0
112
0.0
122
1.0
132
0.0
 79
     0
146
0.0
1001
ACAD_NAV_VCDISPLAY
1070
     3
  0
ENDTAB
  0
TABLE
  2
LTYPE
  5
5
330
0
100
AcDbSymbolTable
 70
     9
  0
LTYPE
  5
13
330
5
100
AcDbSymbolTableRecord
100
AcDbLinetypeTableRecord
  2
BYBLOCK
 70
     0
  3

 72
    65
 73
     0
 40
0.0
  0
LTYPE
  5
14
330
5
100
AcDbSymbolTableRecord
100
AcDbLinetypeTableRecord
  2
BYLAYER
 70
     0
  3

 72
    65
 73
     0
 40
0.0
  0
LTYPE
  5
15
330
5
100
AcDbSymbolTableRecord
100
AcDbLinetypeTableRecord
  2
CONTINUOUS
 70
     0
  3
Solid line
 72
    65
 73
     0
 40
0.0
  0
LTYPE
  5
22
330
5
100
AcDbSymbolTableRecord
100
AcDbLinetypeTableRecord
  2
CONTINOUS
 70
     0
  3
Solid line
 72
    65
 73
     0
 40
0.0
  0
LTYPE
  5
23
330
5
100
AcDbSymbolTableRecord
100
AcDbLinetypeTableRecord
  2
DASHED
 70
     0
  3
__ __ __ __ __ __ __ __ __ __ __ __ __ __ __
 72
    65
 73
     2
 40
0.75
 49
0.5
 74
     0
 49
-0.25
 74
     0
  0
LTYPE
  5
24
330
5
100
AcDbSymbolTableRecord
100
AcDbLinetypeTableRecord
  2
DASHDOT
 70
     0
  3
__ . __ . __ . __ . __ . __ . __ . __ . __ . __
 72
    65
 73
     4
 40
1.0
 49
0.5
 74
     0
 49
-0.25
 74
     0
 49
0.0
 74
     0
 49
-0.25
 74
     0
  0
LTYPE
  5
4C47
330
5
100
AcDbSymbolTableRecord
100
AcDbLinetypeTableRecord
  2
DIVIDE
 70
     0
  3
Divide ____ . . ____ . . ____ . . ____ . . ____
 72
    65
 73
     6
 40
1.25
 49
0.5
 74
     0
 49
-0.25
 74
     0
 49
0.0
 74
     0
 49
-0.25
 74
     0
 49
0.0
 74
     0
 49
-0.25
 74
     0
  0
LTYPE
  5
685F
330
5
100
AcDbSymbolTableRecord
100
AcDbLinetypeTableRecord
  2
PHANTOM
 70
     0
  3
Phantom ______  __  __  ______  __  __  ______
 72
    65
 73
     6
 40
63.5
 49
31.75
 74
     0
 49
-6.349999999999997
 74
     0
 49
6.349999999999997
 74
     0
 49
-6.349999999999997
 74
     0
 49
6.349999999999997
 74
     0
 49
-6.349999999999997
 74
     0
  0
ENDTAB
  0
TABLE
  2
LAYER
  5
2
102
{ACAD_XDICTIONARY
360
9584
102
}
330
0
100
AcDbSymbolTable
 70
    18
  0
LAYER
  5
10
102
{ACAD_XDICTIONARY
360
8ACC
102
}
330
2
100
AcDbSymbolTableRecord
100
AcDbLayerTableRecord
  2
0
 70
     0
 62
     7
  6
CONTINOUS
370
    -3
390
F
  0
LAYER
  5
2F
102
{ACAD_XDICTIONARY
360
8ACE
102
}
330
2
100
AcDbSymbolTableRecord
100
AcDbLayerTableRecord
  2
10
 70
     0
 62
     4
  6
CONTINOUS
370
    -3
390
F
  0
LAYER
  5
31
102
{ACAD_XDICTIONARY
360
8AD0
102
}
330
2
100
AcDbSymbolTableRecord
100
AcDbLayerTableRecord
  2
12
 70
     0
 62
     3
  6
CONTINOUS
370
    -3
390
F
  0
LAYER
  5
35
102
{ACAD_XDICTIONARY
360
8AD2
102
}
330
2
100
AcDbSymbolTableRecord
100
AcDbLayerTableRecord
  2
16
 70
     0
 62
     6
  6
DASHDOT
370
    -3
390
F
  0
LAYER
  5
3D
102
{ACAD_XDICTIONARY
360
8AD6
102
}
330
2
100
AcDbSymbolTableRecord
100
AcDbLayerTableRecord
  2
24
 70
     0
 62
     2
  6
CONTINOUS
370
    -3
390
F
  0
LAYER
  5
3A2
102
{ACAD_XDICTIONARY
360
8AD8
102
}
330
2
100
AcDbSymbolTableRecord
100
AcDbLayerTableRecord
  2
30
 70
     0
 62
     9
  6
CONTINUOUS
370
    -3
390
F
  0
LAYER
  5
3A4
330
2
100
AcDbSymbolTableRecord
100
AcDbLayerTableRecord
  2
DEFPOINTS
 70
     0
 62
     7
  6
CONTINUOUS
290
     0
370
    -3
390
F
  0
LAYER
  5
3BBA
102
{ACAD_XDICTIONARY
360
8ADA
102
}
330
2
100
AcDbSymbolTableRecord
100
AcDbLayerTableRecord
  2
18
 70
     0
 62
     5
  6
DIVIDE
370
    -3
390
F
  0
LAYER
  5
67A8
102
{ACAD_XDICTIONARY
360
8ADC
102
}
330
2
100
AcDbSymbolTableRecord
100
AcDbLayerTableRecord
  2
11
 70
     0
 62
     1
  6
CONTINOUS
370
    -3
390
F
  0
LAYER
  5
7837
102
{ACAD_XDICTIONARY
360
8ADE
102
}
330
2
100
AcDbSymbolTableRecord
100
AcDbLayerTableRecord
  2
17
 70
     0
 62
     2
  6
DASHDOT
370
    -3
390
F
  0
LAYER
  5
957C
330
2
100
AcDbSymbolTableRecord
100
AcDbLayerTableRecord
  2
240
 70
     0
 62
     7
  6
CONTINUOUS
370
    -3
390
F
  0
ENDTAB
  0
TABLE
  2
STYLE
  5
3
330
0
100
AcDbSymbolTable
 70
     7
  0
STYLE
  5
11
330
3
100
AcDbSymbolTableRecord
100
AcDbTextStyleTableRecord
  2
STANDARD
 70
     0
 40
0.0
 41
1.0
 50
0.0
 71
     0
 42
2.0
  3
txt.shx
  4
bigfont.shx
  0
STYLE
  5
42
330
3
100
AcDbSymbolTableRecord
100
AcDbTextStyleTableRecord
  2
STANDARD1
 70
     0
 40
0.0
 41
1.0
 50
0.0
 71
     0
 42
5.0
  3
MONOTXT
  4
BIGFONT
  0
STYLE
  5
957E
330
3
100
AcDbSymbolTableRecord
100
AcDbTextStyleTableRecord
  2
blockfont
 70
     0
 40
0.0
 41
1.0
 50
0.0
 71
     0
 42
0.2
  3
simplex.shx
  4
bigfont
  0
ENDTAB
  0
TABLE
  2
VIEW
  5
6
330
0
100
AcDbSymbolTable
 70
     3
  0
VIEW
  5
230C
330
6
100
AcDbSymbolTableRecord
100
AcDbViewTableRecord
  2
OLE1
 70
     0
 40
148.912488
 10
429.497628
 20
2.560627
 41
103.145806
 11
0.0
 21
0.0
 31
1.0
 12
0.0
 22
0.0
 32
0.0
 42
50.0
 43
0.0
 44
0.0
 50
0.0
 71
     0
281
     0
 72
     0
  0
VIEW
  5
230E
330
6
100
AcDbSymbolTableRecord
100
AcDbViewTableRecord
  2
OLE2
 70
     0
 40
170.778692
 10
322.66497
 20
-5.978304
 41
102.467215
 11
0.0
 21
0.0
 31
1.0
 12
0.0
 22
0.0
 32
0.0
 42
50.0
 43
0.0
 44
0.0
 50
0.0
 71
     0
281
     0
 72
     0
  0
VIEW
  5
23AA
330
6
100
AcDbSymbolTableRecord
100
AcDbViewTableRecord
  2
OLE3
 70
     0
 40
591.7897389999998
 10
84.79698199999999
 20
-46.09335999999998
 41
388.792096
 11
0.0
 21
0.0
 31
1.0
 12
0.0
 22
0.0
 32
0.0
 42
50.0
 43
0.0
 44
0.0
 50
0.0
 71
     0
281
     0
 72
     0
  0
ENDTAB
  0
TABLE
  2
UCS
  5
7
330
0
100
AcDbSymbolTable
 70
     0
  0
ENDTAB
  0
TABLE
  2
APPID
  5
9
330
0
100
AcDbSymbolTable
 70
     9
  0
APPID
  5
12
330
9
100
AcDbSymbolTableRecord
100
AcDbRegAppTableRecord
  2
ACAD
 70
     0
  0
APPID
  5
ECD
330
9
100
AcDbSymbolTableRecord
100
AcDbRegAppTableRecord
  2
CONTENTBLOCKICON
 70
     0
  0
APPID
  5
8AA9
330
9
100
AcDbSymbolTableRecord
100
AcDbRegAppTableRecord
  2
ACAD_NAV_VCDISPLAY
 70
     0
  0
APPID
  5
9580
330
9
100
AcDbSymbolTableRecord
100
AcDbRegAppTableRecord
  2
ACAD_PSEXT
 70
     0
  0
APPID
  5
9581
330
9
100
AcDbSymbolTableRecord
100
AcDbRegAppTableRecord
  2
ACAD_DSTYLE_DIMJAG
 70
     0
  0
APPID
  5
9582
330
9
100
AcDbSymbolTableRecord
100
AcDbRegAppTableRecord
  2
ACAD_DSTYLE_DIMTALN
 70
     0
  0
APPID
  5
9583
330
9
100
AcDbSymbolTableRecord
100
AcDbRegAppTableRecord
  2
DCO15
 70
     0
  0
APPID
  5
A23D
330
9
100
AcDbSymbolTableRecord
100
AcDbRegAppTableRecord
  2
ACAD_EXEMPT_FROM_CAD_STANDARDS
 70
     0
  0
APPID
  5
A58A
330
9
100
AcDbSymbolTableRecord
100
AcDbRegAppTableRecord
  2
ACAD_MLEADERVER
 70
     0
  0
ENDTAB
  0
TABLE
  2
DIMSTYLE
  5
A
330
0
100
AcDbSymbolTable
 70
     4
100
AcDbDimStyleTable
 71
     1
340
175
  0
DIMSTYLE
105
175
102
{ACAD_REACTORS
330
972F
330
9734
330
973E
330
980F
102
}
330
A
100
AcDbSymbolTableRecord
100
AcDbDimStyleTableRecord
  2
STANDARD
 70
     0
 41
2.0
 42
1.0
 43
0.5
 44
0.5
 73
     0
 77
     3
 78
    12
140
4.0
147
1.0
271
     1
272
     1
340
11
341
3B2
342
3B2
  0
DIMSTYLE
105
957F
102
{ACAD_REACTORS
330
96B1
330
96B2
330
96C5
330
96C6
330
96C7
330
96C8
330
96C9
330
96CA
330
96CD
330
96CE
330
95D1
330
95D2
330
95D4
330
95D5
330
95D6
330
95D7
330
95D9
330
95DA
330
95DB
330
95DC
330
95DE
330
95DF
330
95E0
330
95ED
330
9604
330
9605
330
9606
330
9607
330
9633
330
96DA
330
96DB
330
96DC
330
96DD
330
972D
330
972E
330
9730
330
9731
330
9732
330
9733
330
9735
330
9736
330
9737
330
973A
330
973B
330
973C
330
9749
330
9760
330
9761
330
9763
330
978F
330
980D
330
980E
330
9821
330
9822
330
9823
330
9824
330
9825
330
9826
330
9829
330
982A
330
9836
330
9837
330
9838
330
9839
330
9B60
330
9B83
330
A16E
330
A4B5
330
A50B
330
A50E
330
A50F
102
}
330
A
100
AcDbSymbolTableRecord
100
AcDbDimStyleTableRecord
  2
STANDARD1
 70
     0
 41
2.0
 42
3.0
 43
0.5
 44
0.5
 73
     0
 74
     0
 77
     3
 78
    12
140
6.0
147
2.0
172
     1
271
     8
272
     8
289
     2
340
11
341
3B2
342
3B2
1001
ACAD_DSTYLE_DIMJAG
1070
   388
1040
1.5
1001
ACAD_DSTYLE_DIMTALN
1070
   392
1070
     0
  0
ENDTAB
  0
TABLE
  2
BLOCK_RECORD
  5
1
330
0
100
AcDbSymbolTable
 70
   149
  0
BLOCK_RECORD
  5
1E
102
{ACAD_XDICTIONARY
360
178
102
}
330
1
100
AcDbSymbolTableRecord
100
AcDbBlockTableRecord
  2
*MODEL_SPACE
340
8A4C
  0
BLOCK_RECORD
  5
1A
102
{ACAD_XDICTIONARY
360
17A
102
}
330
1
100
AcDbSymbolTableRecord
100
AcDbBlockTableRecord
  2
*PAPER_SPACE
340
8A4D
  0
BLOCK_RECORD
  5
3B2
330
1
100
AcDbSymbolTableRecord
100
AcDbBlockTableRecord
  2
_OPEN
340
0
102
{BLKREFS
331
9A26
331
9A27
331
9A30
331
9A31
331
9A39
331
9A65
331
9A66
331
9A6E
331
9A6F
331
9A77
331
9A78
331
9A88
331
9A89
331
9AB5
331
9AB6
331
9AD9
331
9ADA
331
9AF4
331
9AF5
331
9AFF
331
9B00
331
9B08
331
9B09
331
9B35
331
9B36
331
9B3F
331
9B40
331
A2AA
331
A2B2
331
A2B3
331
A2BB
331
A2BC
331
A3BD
331
A3BE
331
A3C6
331
A3C7
331
A3F3
331
A3FB
331
A3FC
331
A404
331
A405
331
A40D
331
A40E
331
A416
331
A417
331
A41F
331
A420
331
A429
331
A42A
331
A431
331
A432
331
A443
331
A444
331
A44C
331
A44D
331
A455
331
A456
331
A45E
331
A45F
331
A467
331
A468
331
A470
331
A471
331
A479
331
A47A
331
A482
331
A483
331
A48B
331
A48C
331
A494
331
A495
331
A49D
331
A49E
331
A4D7
331
A4D8
331
A537
331
A538
331
A540
331
A541
331
A549
331
A54A
102
}
  0
BLOCK_RECORD
  5
93B7
330
1
100
AcDbSymbolTableRecord
100
AcDbBlockTableRecord
  2
*U32
340
0
102
{BLKREFS
331
96B5
331
96B7
331
96B9
331
96BB
331
9811
331
9813
331
9815
331
9817
102
}
  0
BLOCK_RECORD
  5
93BB
330
1
100
AcDbSymbolTableRecord
100
AcDbBlockTableRecord
  2
*U33
340
0
102
{BLKREFS
331
96B6
331
96B8
331
96BA
331
96BC
331
9812
331
9814
331
9816
331
9818
102
}
  0
BLOCK_RECORD
  5
983A
330
1
100
AcDbSymbolTableRecord
100
AcDbBlockTableRecord
  2
*D72
340
0
  0
BLOCK_RECORD
  5
9846
330
1
100
AcDbSymbolTableRecord
100
AcDbBlockTableRecord
  2
*D73
340
0
  0
BLOCK_RECORD
  5
9852
330
1
100
AcDbSymbolTableRecord
100
AcDbBlockTableRecord
  2
*D74
340
0
  0
BLOCK_RECORD
  5
985D
330
1
100
AcDbSymbolTableRecord
100
AcDbBlockTableRecord
  2
*D75
340
0
  0
BLOCK_RECORD
  5
9869
330
1
100
AcDbSymbolTableRecord
100
AcDbBlockTableRecord
  2
*D76
340
0
  0
BLOCK_RECORD
  5
9875
330
1
100
AcDbSymbolTableRecord
100
AcDbBlockTableRecord
  2
*D77
340
0
  0
BLOCK_RECORD
  5
9881
330
1
100
AcDbSymbolTableRecord
100
AcDbBlockTableRecord
  2
*D78
340
0
  0
BLOCK_RECORD
  5
988E
330
1
100
AcDbSymbolTableRecord
100
AcDbBlockTableRecord
  2
*D79
340
0
  0
BLOCK_RECORD
  5
9899
330
1
100
AcDbSymbolTableRecord
100
AcDbBlockTableRecord
  2
*D80
340
0
  0
BLOCK_RECORD
  5
98A5
330
1
100
AcDbSymbolTableRecord
100
AcDbBlockTableRecord
  2
*D81
340
0
  0
BLOCK_RECORD
  5
98B1
330
1
100
AcDbSymbolTableRecord
100
AcDbBlockTableRecord
  2
*D82
340
0
  0
BLOCK_RECORD
  5
98C9
330
1
100
AcDbSymbolTableRecord
100
AcDbBlockTableRecord
  2
*D84
340
0
  0
BLOCK_RECORD
  5
98D5
330
1
100
AcDbSymbolTableRecord
100
AcDbBlockTableRecord
  2
*D85
340
0
  0
BLOCK_RECORD
  5
98E1
330
1
100
AcDbSymbolTableRecord
100
AcDbBlockTableRecord
  2
*D86
340
0
  0
BLOCK_RECORD
  5
98ED
330
1
100
AcDbSymbolTableRecord
100
AcDbBlockTableRecord
  2
*D87
340
0
  0
BLOCK_RECORD
  5
98F8
330
1
100
AcDbSymbolTableRecord
100
AcDbBlockTableRecord
  2
*D88
340
0
  0
BLOCK_RECORD
  5
9904
330
1
100
AcDbSymbolTableRecord
100
AcDbBlockTableRecord
  2
*D89
340
0
  0
BLOCK_RECORD
  5
9910
330
1
100
AcDbSymbolTableRecord
100
AcDbBlockTableRecord
  2
*D90
340
0
  0
BLOCK_RECORD
  5
9928
330
1
100
AcDbSymbolTableRecord
100
AcDbBlockTableRecord
  2
*D92
340
0
  0
BLOCK_RECORD
  5
9934
330
1
100
AcDbSymbolTableRecord
100
AcDbBlockTableRecord
  2
*D93
340
0
  0
BLOCK_RECORD
  5
9940
330
1
100
AcDbSymbolTableRecord
100
AcDbBlockTableRecord
  2
*D94
340
0
  0
BLOCK_RECORD
  5
994C
330
1
100
AcDbSymbolTableRecord
100
AcDbBlockTableRecord
  2
*D95
340
0
  0
BLOCK_RECORD
  5
9958
330
1
100
AcDbSymbolTableRecord
100
AcDbBlockTableRecord
  2
*D96
340
0
  0
BLOCK_RECORD
  5
9964
330
1
100
AcDbSymbolTableRecord
100
AcDbBlockTableRecord
  2
*D97
340
0
  0
BLOCK_RECORD
  5
9970
330
1
100
AcDbSymbolTableRecord
100
AcDbBlockTableRecord
  2
*D98
340
0
  0
BLOCK_RECORD
  5
997C
330
1
100
AcDbSymbolTableRecord
100
AcDbBlockTableRecord
  2
*D99
340
0
  0
BLOCK_RECORD
  5
9988
330
1
100
AcDbSymbolTableRecord
100
AcDbBlockTableRecord
  2
*D100
340
0
  0
BLOCK_RECORD
  5
9994
330
1
100
AcDbSymbolTableRecord
100
AcDbBlockTableRecord
  2
*D101
340
0
  0
BLOCK_RECORD
  5
99A2
330
1
100
AcDbSymbolTableRecord
100
AcDbBlockTableRecord
  2
*D102
340
0
  0
BLOCK_RECORD
  5
99AE
330
1
100
AcDbSymbolTableRecord
100
AcDbBlockTableRecord
  2
*D103
340
0
  0
BLOCK_RECORD
  5
99BA
330
1
100
AcDbSymbolTableRecord
100
AcDbBlockTableRecord
  2
*D104
340
0
  0
BLOCK_RECORD
  5
99C6
330
1
100
AcDbSymbolTableRecord
100
AcDbBlockTableRecord
  2
*D105
340
0
  0
BLOCK_RECORD
  5
99D2
330
1
100
AcDbSymbolTableRecord
100
AcDbBlockTableRecord
  2
*D106
340
0
  0
BLOCK_RECORD
  5
99DE
330
1
100
AcDbSymbolTableRecord
100
AcDbBlockTableRecord
  2
*D107
340
0
  0
BLOCK_RECORD
  5
99EA
330
1
100
AcDbSymbolTableRecord
100
AcDbBlockTableRecord
  2
*D108
340
0
  0
BLOCK_RECORD
  5
9B6E
330
1
100
AcDbSymbolTableRecord
100
AcDbBlockTableRecord
  2
*D109
340
0
  0
BLOCK_RECORD
  5
9B84
330
1
100
AcDbSymbolTableRecord
100
AcDbBlockTableRecord
  2
*D110
340
0
  0
BLOCK_RECORD
  5
A16F
330
1
100
AcDbSymbolTableRecord
100
AcDbBlockTableRecord
  2
*D133
340
0
  0
BLOCK_RECORD
  5
A4B6
330
1
100
AcDbSymbolTableRecord
100
AcDbBlockTableRecord
  2
*D140
340
0
  0
BLOCK_RECORD
  5
A510
330
1
100
AcDbSymbolTableRecord
100
AcDbBlockTableRecord
  2
*D145
340
0
  0
BLOCK_RECORD
  5
A51C
330
1
100
AcDbSymbolTableRecord
100
AcDbBlockTableRecord
  2
*D146
340
0
  0
BLOCK_RECORD
  5
A528
330
1
100
AcDbSymbolTableRecord
100
AcDbBlockTableRecord
  2
*D147
340
0
  0
ENDTAB
  0
ENDSEC
  0
SECTION
  2
BLOCKS
  0
BLOCK
  5
1F
330
1E
100
AcDbEntity
  8
0
100
AcDbBlockBegin
  2
*MODEL_SPACE
 70
     0
 10
0.0
 20
0.0
 30
0.0
  3
*MODEL_SPACE
  1

  0
ENDBLK
  5
20
330
1E
100
AcDbEntity
  8
0
100
AcDbBlockEnd
  0
BLOCK
  5
1B
330
1A
100
AcDbEntity
 67
     1
  8
0
100
AcDbBlockBegin
  2
*PAPER_SPACE
 70
     0
 10
0.0
 20
0.0
 30
0.0
  3
*PAPER_SPACE
  1

  0
ENDBLK
  5
1C
330
1A
100
AcDbEntity
 67
     1
  8
0
100
AcDbBlockEnd
  0
BLOCK
  5
3B6
330
3B2
100
AcDbEntity
  8
0
100
AcDbBlockBegin
  2
_OPEN
 70
     0
 10
0.0
 20
0.0
 30
0.0
  3
_OPEN
  1

  0
LINE
  5
3B3
330
3B2
100
AcDbEntity
  8
30
  6
Continuous
 62
     0
100
AcDbLine
 10
-1.0
 20
0.166667
 30
0.0
 11
0.0
 21
0.0
 31
0.0
  0
LINE
  5
3B4
330
3B2
100
AcDbEntity
  8
30
  6
Continuous
 62
     0
100
AcDbLine
 10
-1.0
 20
-0.166667
 30
0.0
 11
0.0
 21
0.0
 31
0.0
  0
LINE
  5
3B5
330
3B2
100
AcDbEntity
  8
30
  6
Continuous
 62
     0
100
AcDbLine
 10
0.0
 20
0.0
 30
0.0
 11
-1.0
 21
0.0
 31
0.0
  0
ENDBLK
  5
3B7
330
3B2
100
AcDbEntity
  8
0
100
AcDbBlockEnd
  0
BLOCK
  5
93B8
330
93B7
100
AcDbEntity
  8
0
100
AcDbBlockBegin
  2
*U32
 70
     1
 10
0.0
 20
0.0
 30
0.0
  3
*U32
  1

  0
TEXT
  5
93B9
330
93B7
100
AcDbEntity
  8
16
100
AcDbText
 10
351.6754600000002
 20
69.06337833333329
 30
0.0
 40
6.25
  1
C
  7
blockfont
100
AcDbText
  0
ENDBLK
  5
93BA
330
93B7
100
AcDbEntity
  8
0
100
AcDbBlockEnd
  0
BLOCK
  5
93BC
330
93BB
100
AcDbEntity
  8
0
100
AcDbBlockBegin
  2
*U33
 70
     1
 10
0.0
 20
0.0
 30
0.0
  3
*U33
  1

  0
TEXT
  5
93BD
330
93BB
100
AcDbEntity
  8
16
100
AcDbText
 10
353.3824625
 20
66.65349083333332
 30
0.0
 40
6.25
  1
L
  7
blockfont
100
AcDbText
  0
ENDBLK
  5
93BE
330
93BB
100
AcDbEntity
  8
0
100
AcDbBlockEnd
  0
BLOCK
  5
983B
330
983A
100
AcDbEntity
  8
0
100
AcDbBlockBegin
  2
*D72
 70
     1
 10
0.0
 20
0.0
 30
0.0
  3
*D72
  1

  0
LINE
  5
A3BA
330
983A
100
AcDbEntity
  8
30
  6
Continuous
 62
     0
370
    -2
100
AcDbLine
 10
332.954303862607
 20
-293.0
 30
0.0
 11
269.5000000000001
 21
-293.0
 31
0.0
  0
LINE
  5
A3BB
330
983A
100
AcDbEntity
  8
30
  6
Continuous
 62
     0
370
    -2
100
AcDbLine
 10
332.954303862607
 20
-506.9999999999999
 30
0.0
 11
269.5
 21
-506.9999999999999
 31
0.0
  0
LINE
  5
A3BC
330
983A
100
AcDbEntity
  8
30
  6
Continuous
 62
     0
370
    -2
100
AcDbLine
 10
270.0000000000001
 20
-295.0
 30
0.0
 11
270.0
 21
-504.9999999999998
 31
0.0
  0
INSERT
  5
A3BD
330
983A
100
AcDbEntity
  8
30
  6
Continuous
 62
     0
370
    -2
100
AcDbBlockReference
  2
_OPEN
 10
270.0000000000001
 20
-293.0
 30
0.0
 41
2.0
 42
2.0
 43
2.0
 50
90.0
  0
INSERT
  5
A3BE
330
983A
100
AcDbEntity
  8
30
  6
Continuous
 62
     0
370
    -2
100
AcDbBlockReference
  2
_OPEN
 10
270.0
 20
-506.9999999999999
 30
0.0
 41
2.0
 42
2.0
 43
2.0
 50
270.0
  0
MTEXT
  5
A3BF
330
983A
100
AcDbEntity
  8
30
  6
Continuous
 62
     0
100
AcDbMText
 10
265.0000000000001
 20
-399.9999999999999
 30
0.0
 40
6.0
 41
0.0
 71
     5
 72
     1
  1
\A1;214
 11
0.0000000000000001
 21
1.0
 31
0.0
 73
     1
 44
1.0
1001
ACAD
1000
MTEXTBEGIN
1070
    73
1070
     1
1070
    44
1040
1.0
1070
    74
1070
     0
1000
MTEXTEND
  0
POINT
  5
A3C0
330
983A
100
AcDbEntity
  8
DEFPOINTS
  6
Continuous
 62
     0
100
AcDbPoint
 10
335.9543038626071
 20
-293.0
 30
0.0
  0
POINT
  5
A3C1
330
983A
100
AcDbEntity
  8
DEFPOINTS
  6
Continuous
 62
     0
100
AcDbPoint
 10
335.9543038626071
 20
-506.9999999999999
 30
0.0
  0
POINT
  5
A3C2
330
983A
100
AcDbEntity
  8
DEFPOINTS
  6
Continuous
 62
     0
100
AcDbPoint
 10
270.0
 20
-506.9999999999999
 30
0.0
  0
ENDBLK
  5
983C
330
983A
100
AcDbEntity
  8
0
100
AcDbBlockEnd
  0
BLOCK
  5
9847
330
9846
100
AcDbEntity
  8
0
100
AcDbBlockBegin
  2
*D73
 70
     1
 10
0.0
 20
0.0
 30
0.0
  3
*D73
  1

  0
LINE
  5
A3C3
330
9846
100
AcDbEntity
  8
30
  6
Continuous
 62
     0
370
    -2
100
AcDbLine
 10
347.5
 20
-516.9999999999999
 30
0.0
 11
347.5
 21
-550.4999999999999
 31
0.0
  0
LINE
  5
A3C4
330
9846
100
AcDbEntity
  8
30
  6
Continuous
 62
     0
370
    -2
100
AcDbLine
 10
392.5
 20
-516.9999999999999
 30
0.0
 11
392.5
 21
-550.4999999999999
 31
0.0
  0
LINE
  5
A3C5
330
9846
100
AcDbEntity
  8
30
  6
Continuous
 62
     0
370
    -2
100
AcDbLine
 10
349.5
 20
-550.0
 30
0.0
 11
390.5
 21
-550.0
 31
0.0
  0
INSERT
  5
A3C6
330
9846
100
AcDbEntity
  8
30
  6
Continuous
 62
     0
370
    -2
100
AcDbBlockReference
  2
_OPEN
 10
347.5
 20
-550.0
 30
0.0
 41
2.0
 42
2.0
 43
2.0
 50
180.0
  0
INSERT
  5
A3C7
330
9846
100
AcDbEntity
  8
30
  6
Continuous
 62
     0
370
    -2
100
AcDbBlockReference
  2
_OPEN
 10
392.5
 20
-550.0
 30
0.0
 41
2.0
 42
2.0
 43
2.0
  0
MTEXT
  5
A3C8
330
9846
100
AcDbEntity
  8
30
  6
Continuous
 62
     0
100
AcDbMText
 10
370.0
 20
-545.0
 30
0.0
 40
6.0
 41
0.0
 71
     5
 72
     1
  1
\A1;45
 73
     1
 44
1.0
1001
ACAD
1000
MTEXTBEGIN
1070
    73
1070
     1
1070
    44
1040
1.0
1070
    74
1070
     0
1000
MTEXTEND
  0
POINT
  5
A3C9
330
9846
100
AcDbEntity
  8
DEFPOINTS
  6
Continuous
 62
     0
100
AcDbPoint
 10
347.5
 20
-513.9999999999998
 30
0.0
  0
POINT
  5
A3CA
330
9846
100
AcDbEntity
  8
DEFPOINTS
  6
Continuous
 62
     0
100
AcDbPoint
 10
392.5
 20
-513.9999999999998
 30
0.0
  0
POINT
  5
A3CB
330
9846
100
AcDbEntity
  8
DEFPOINTS
  6
Continuous
 62
     0
100
AcDbPoint
 10
392.5
 20
-550.0
 30
0.0
  0
ENDBLK
  5
9848
330
9846
100
AcDbEntity
  8
0
100
AcDbBlockEnd
  0
BLOCK
  5
9853
330
9852
100
AcDbEntity
  8
0
100
AcDbBlockBegin
  2
*D74
 70
     1
 10
0.0
 20
0.0
 30
0.0
  3
*D74
  1

  0
LINE
  5
A2A7
330
9852
100
AcDbEntity
  8
30
  6
Continuous
 62
     0
370
    -2
100
AcDbLine
 10
804.9930829734
 20
-346.0312994595852
 30
0.0
 11
793.9930829733987
 21
-346.0312994595851
 31
0.0
  0
LINE
  5
A2A8
330
9852
100
AcDbEntity
  8
30
  6
Continuous
 62
     0
370
    -2
100
AcDbLine
 10
793.9930829733987
 20
-346.0312994595851
 30
0.0
 11
770.2934498468415
 21
-356.7128143752428
 31
0.0
  0
MTEXT
  5
A2A9
330
9852
100
AcDbEntity
  8
30
  6
Continuous
 62
     0
100
AcDbMText
 10
799.9930829733999
 20
-342.0312994595852
 30
0.0
 40
6.0
 41
0.0
 71
     5
 72
     1
  1
\A1;R6
 73
     1
 44
1.0
1001
ACAD
1000
MTEXTBEGIN
1070
    73
1070
     1
1070
    44
1040
1.0
1070
    74
1070
     0
1000
MTEXTEND
  0
INSERT
  5
A2AA
330
9852
100
AcDbEntity
  8
30
  6
Continuous
 62
     0
370
    -2
100
AcDbBlockReference
  2
_OPEN
 10
768.4700873851312
 20
-357.5346107814322
 30
0.0
 41
2.0
 42
2.0
 43
2.0
 50
204.2612710120853
  0
LINE
  5
A2AB
330
9852
100
AcDbEntity
  8
30
  6
Continuous
 62
     0
370
    -2
100
AcDbLine
 10
762.9099999999996
 20
-360.0000000000004
 30
0.0
 11
763.0899999999996
 21
-360.0000000000004
 31
0.0
  0
LINE
  5
A2AC
330
9852
100
AcDbEntity
  8
30
  6
Continuous
 62
     0
370
    -2
100
AcDbLine
 10
762.9999999999995
 20
-360.0900000000004
 30
0.0
 11
762.9999999999995
 21
-359.9100000000003
 31
0.0
  0
POINT
  5
A2AD
330
9852
100
AcDbEntity
  8
DEFPOINTS
  6
Continuous
 62
     0
100
AcDbPoint
 10
768.4700873851312
 20
-357.5346107814322
 30
0.0
  0
POINT
  5
A2AE
330
9852
100
AcDbEntity
  8
DEFPOINTS
  6
Continuous
 62
     0
100
AcDbPoint
 10
762.9999999999995
 20
-360.0000000000004
 30
0.0
  0
ENDBLK
  5
9854
330
9852
100
AcDbEntity
  8
0
100
AcDbBlockEnd
  0
BLOCK
  5
985E
330
985D
100
AcDbEntity
  8
0
100
AcDbBlockBegin
  2
*D75
 70
     1
 10
0.0
 20
0.0
 30
0.0
  3
*D75
  1

  0
LINE
  5
A2AF
330
985D
100
AcDbEntity
  8
30
  6
Continuous
 62
     0
370
    -2
100
AcDbLine
 10
651.0
 20
-443.0
 30
0.0
 11
651.0
 21
-470.5
 31
0.0
  0
LINE
  5
A2B0
330
985D
100
AcDbEntity
  8
30
  6
Continuous
 62
     0
370
    -2
100
AcDbLine
 10
769.0
 20
-443.0
 30
0.0
 11
769.0
 21
-470.5
 31
0.0
  0
LINE
  5
A2B1
330
985D
100
AcDbEntity
  8
30
  6
Continuous
 62
     0
370
    -2
100
AcDbLine
 10
653.0
 20
-470.0
 30
0.0
 11
767.0
 21
-470.0
 31
0.0
  0
INSERT
  5
A2B2
330
985D
100
AcDbEntity
  8
30
  6
Continuous
 62
     0
370
    -2
100
AcDbBlockReference
  2
_OPEN
 10
651.0
 20
-470.0
 30
0.0
 41
2.0
 42
2.0
 43
2.0
 50
180.0
  0
INSERT
  5
A2B3
330
985D
100
AcDbEntity
  8
30
  6
Continuous
 62
     0
370
    -2
100
AcDbBlockReference
  2
_OPEN
 10
769.0
 20
-470.0
 30
0.0
 41
2.0
 42
2.0
 43
2.0
  0
MTEXT
  5
A2B4
330
985D
100
AcDbEntity
  8
30
  6
Continuous
 62
     0
100
AcDbMText
 10
710.0
 20
-465.0
 30
0.0
 40
6.0
 41
0.0
 71
     5
 72
     1
  1
\A1;118
 73
     1
 44
1.0
1001
ACAD
1000
MTEXTBEGIN
1070
    73
1070
     1
1070
    44
1040
1.0
1070
    74
1070
     0
1000
MTEXTEND
  0
POINT
  5
A2B5
330
985D
100
AcDbEntity
  8
DEFPOINTS
  6
Continuous
 62
     0
100
AcDbPoint
 10
651.0
 20
-440.0
 30
0.0
  0
POINT
  5
A2B6
330
985D
100
AcDbEntity
  8
DEFPOINTS
  6
Continuous
 62
     0
100
AcDbPoint
 10
769.0
 20
-440.0
 30
0.0
  0
POINT
  5
A2B7
330
985D
100
AcDbEntity
  8
DEFPOINTS
  6
Continuous
 62
     0
100
AcDbPoint
 10
769.0
 20
-470.0
 30
0.0
  0
ENDBLK
  5
985F
330
985D
100
AcDbEntity
  8
0
100
AcDbBlockEnd
  0
BLOCK
  5
986A
330
9869
100
AcDbEntity
  8
0
100
AcDbBlockBegin
  2
*D76
 70
     1
 10
0.0
 20
0.0
 30
0.0
  3
*D76
  1

  0
LINE
  5
A2B8
330
9869
100
AcDbEntity
  8
30
  6
Continuous
 62
     0
370
    -2
100
AcDbLine
 10
766.0
 20
-353.9999999999999
 30
0.0
 11
845.5
 21
-353.9999999999999
 31
0.0
  0
LINE
  5
A2B9
330
9869
100
AcDbEntity
  8
30
  6
Continuous
 62
     0
370
    -2
100
AcDbLine
 10
766.0
 20
-446.0
 30
0.0
 11
845.5
 21
-446.0
 31
0.0
  0
LINE
  5
A2BA
330
9869
100
AcDbEntity
  8
30
  6
Continuous
 62
     0
370
    -2
100
AcDbLine
 10
845.0
 20
-355.9999999999999
 30
0.0
 11
845.0
 21
-444.0
 31
0.0
  0
INSERT
  5
A2BB
330
9869
100
AcDbEntity
  8
30
  6
Continuous
 62
     0
370
    -2
100
AcDbBlockReference
  2
_OPEN
 10
845.0
 20
-353.9999999999999
 30
0.0
 41
2.0
 42
2.0
 43
2.0
 50
90.0
  0
INSERT
  5
A2BC
330
9869
100
AcDbEntity
  8
30
  6
Continuous
 62
     0
370
    -2
100
AcDbBlockReference
  2
_OPEN
 10
845.0
 20
-446.0
 30
0.0
 41
2.0
 42
2.0
 43
2.0
 50
270.0
  0
MTEXT
  5
A2BD
330
9869
100
AcDbEntity
  8
30
  6
Continuous
 62
     0
100
AcDbMText
 10
840.0000000000002
 20
-399.9999999999998
 30
0.0
 40
6.0
 41
0.0
 71
     5
 72
     1
  1
\A1;92
 11
0.0000000000000001
 21
1.0
 31
0.0
 73
     1
 44
1.0
1001
ACAD
1000
MTEXTBEGIN
1070
    73
1070
     1
1070
    44
1040
1.0
1070
    74
1070
     0
1000
MTEXTEND
  0
POINT
  5
A2BE
330
9869
100
AcDbEntity
  8
DEFPOINTS
  6
Continuous
 62
     0
100
AcDbPoint
 10
763.0
 20
-353.9999999999999
 30
0.0
  0
POINT
  5
A2BF
330
9869
100
AcDbEntity
  8
DEFPOINTS
  6
Continuous
 62
     0
100
AcDbPoint
 10
763.0
 20
-446.0
 30
0.0
  0
POINT
  5
A2C0
330
9869
100
AcDbEntity
  8
DEFPOINTS
  6
Continuous
 62
     0
100
AcDbPoint
 10
845.0
 20
-446.0
 30
0.0
  0
ENDBLK
  5
986B
330
9869
100
AcDbEntity
  8
0
100
AcDbBlockEnd
  0
BLOCK
  5
9876
330
9875
100
AcDbEntity
  8
0
100
AcDbBlockBegin
  2
*D77
 70
     1
 10
0.0
 20
0.0
 30
0.0
  3
*D77
  1

  0
LINE
  5
9A23
330
9875
100
AcDbEntity
  8
30
  6
Continuous
 62
     0
370
    -2
100
AcDbLine
 10
803.5114182281752
 20
152.2621828604459
 30
0.0
 11
803.5114182281752
 21
139.1759028429514
 31
0.0
  0
LINE
  5
9A24
330
9875
100
AcDbEntity
  8
30
  6
Continuous
 62
     0
370
    -2
100
AcDbLine
 10
828.5114182281752
 20
152.2621828604459
 30
0.0
 11
828.5114182281752
 21
139.1759028429514
 31
0.0
  0
LINE
  5
9A25
330
9875
100
AcDbEntity
  8
30
  6
Continuous
 62
     0
370
    -2
100
AcDbLine
 10
805.5114182281752
 20
139.6759028429515
 30
0.0
 11
826.5114182281752
 21
139.6759028429515
 31
0.0
  0
INSERT
  5
9A26
330
9875
100
AcDbEntity
  8
30
  6
Continuous
 62
     0
370
    -2
100
AcDbBlockReference
  2
_OPEN
 10
803.5114182281752
 20
139.6759028429515
 30
0.0
 41
2.0
 42
2.0
 43
2.0
 50
180.0
  0
INSERT
  5
9A27
330
9875
100
AcDbEntity
  8
30
  6
Continuous
 62
     0
370
    -2
100
AcDbBlockReference
  2
_OPEN
 10
828.5114182281752
 20
139.6759028429515
 30
0.0
 41
2.0
 42
2.0
 43
2.0
  0
MTEXT
  5
9A28
330
9875
100
AcDbEntity
  8
30
  6
Continuous
 62
     0
100
AcDbMText
 10
816.0114182281752
 20
144.6759028429514
 30
0.0
 40
6.0
 41
0.0
 71
     5
 72
     1
  1
\A1;25
 73
     1
 44
1.0
1001
ACAD
1000
MTEXTBEGIN
1070
    73
1070
     1
1070
    44
1040
1.0
1070
    74
1070
     0
1000
MTEXTEND
  0
POINT
  5
9A29
330
9875
100
AcDbEntity
  8
DEFPOINTS
  6
Continuous
 62
     0
100
AcDbPoint
 10
803.5114182281752
 20
155.2621828604459
 30
0.0
  0
POINT
  5
9A2A
330
9875
100
AcDbEntity
  8
DEFPOINTS
  6
Continuous
 62
     0
100
AcDbPoint
 10
828.5114182281752
 20
155.2621828604459
 30
0.0
  0
POINT
  5
9A2B
330
9875
100
AcDbEntity
  8
DEFPOINTS
  6
Continuous
 62
     0
100
AcDbPoint
 10
828.5114182281752
 20
139.6759028429515
 30
0.0
  0
ENDBLK
  5
9877
330
9875
100
AcDbEntity
  8
0
100
AcDbBlockEnd
  0
BLOCK
  5
9882
330
9881
100
AcDbEntity
  8
0
100
AcDbBlockBegin
  2
*D78
 70
     1
 10
0.0
 20
0.0
 30
0.0
  3
*D78
  1

  0
LINE
  5
9A2C
330
9881
100
AcDbEntity
  8
30
  6
Continuous
 62
     0
370
    -2
100
AcDbLine
 10
831.5114182281751
 20
155.2621828604459
 30
0.0
 11
845.453747906364
 21
155.2621828604459
 31
0.0
  0
LINE
  5
9A2D
330
9881
100
AcDbEntity
  8
30
  6
Continuous
 62
     0
370
    -2
100
AcDbLine
 10
826.5114182281749
 20
167.2621828604459
 30
0.0
 11
845.453747906364
 21
167.2621828604459
 31
0.0
  0
LINE
  5
9A2E
330
9881
100
AcDbEntity
  8
30
  6
Continuous
 62
     0
370
    -2
100
AcDbLine
 10
844.9537479063639
 20
157.2621828604459
 30
0.0
 11
844.9537479063639
 21
165.2621828604459
 31
0.0
  0
LINE
  5
9A2F
330
9881
100
AcDbEntity
  8
30
  6
Continuous
 62
     0
370
    -2
100
AcDbLine
 10
844.9537479063639
 20
167.2621828604459
 30
0.0
 11
844.9537479063639
 21
181.2621828604459
 31
0.0
  0
INSERT
  5
9A30
330
9881
100
AcDbEntity
  8
30
  6
Continuous
 62
     0
370
    -2
100
AcDbBlockReference
  2
_OPEN
 10
844.9537479063639
 20
155.2621828604459
 30
0.0
 41
2.0
 42
2.0
 43
2.0
 50
270.0
  0
INSERT
  5
9A31
330
9881
100
AcDbEntity
  8
30
  6
Continuous
 62
     0
370
    -2
100
AcDbBlockReference
  2
_OPEN
 10
844.9537479063639
 20
167.2621828604459
 30
0.0
 41
2.0
 42
2.0
 43
2.0
 50
90.0
  0
MTEXT
  5
9A32
330
9881
100
AcDbEntity
  8
30
  6
Continuous
 62
     0
100
AcDbMText
 10
839.953747906364
 20
175.262182860446
 30
0.0
 40
6.0
 41
0.0
 71
     5
 72
     1
  1
\A1;12
 11
0.0000000000000001
 21
1.0
 31
0.0
 73
     1
 44
1.0
1001
ACAD
1000
MTEXTBEGIN
1070
    73
1070
     1
1070
    44
1040
1.0
1070
    74
1070
     0
1000
MTEXTEND
  0
POINT
  5
9A33
330
9881
100
AcDbEntity
  8
DEFPOINTS
  6
Continuous
 62
     0
100
AcDbPoint
 10
828.5114182281752
 20
155.2621828604459
 30
0.0
  0
POINT
  5
9A34
330
9881
100
AcDbEntity
  8
DEFPOINTS
  6
Continuous
 62
     0
100
AcDbPoint
 10
823.5114182281749
 20
167.2621828604459
 30
0.0
  0
POINT
  5
9A35
330
9881
100
AcDbEntity
  8
DEFPOINTS
  6
Continuous
 62
     0
100
AcDbPoint
 10
844.9537479063639
 20
167.2621828604459
 30
0.0
  0
ENDBLK
  5
9883
330
9881
100
AcDbEntity
  8
0
100
AcDbBlockEnd
  0
BLOCK
  5
988F
330
988E
100
AcDbEntity
  8
0
100
AcDbBlockBegin
  2
*D79
 70
     1
 10
0.0
 20
0.0
 30
0.0
  3
*D79
  1

  0
LINE
  5
9A36
330
988E
100
AcDbEntity
  8
30
  6
Continuous
 62
     0
370
    -2
100
AcDbLine
 10
847.4762583619749
 20
190.2634688469852
 30
0.0
 11
834.4762583619747
 21
190.2634688469852
 31
0.0
  0
LINE
  5
9A37
330
988E
100
AcDbEntity
  8
30
  6
Continuous
 62
     0
370
    -2
100
AcDbLine
 10
834.4762583619747
 20
190.2634688469852
 30
0.0
 11
820.7065179759954
 21
173.1107757132628
 31
0.0
  0
MTEXT
  5
9A38
102
{ACAD_XDICTIONARY
360
A58F
102
}
330
988E
100
AcDbEntity
  8
30
  6
Continuous
 62
     0
100
AcDbMText
 10
841.4762583619751
 20
194.2634688469853
 30
0.0
 40
6.0
 41
0.0
 71
     5
 72
     1
  1
\A1;\U+220511
 73
     1
 44
1.0
1001
ACAD
1000
MTEXTBEGIN
1070
    73
1070
     1
1070
    44
1040
1.0
1070
    74
1070
     0
1000
MTEXTEND
  0
INSERT
  5
9A39
330
988E
100
AcDbEntity
  8
30
  6
Continuous
 62
     0
370
    -2
100
AcDbBlockReference
  2
_OPEN
 10
819.4544913765767
 20
171.5511509525117
 30
0.0
 41
2.0
 42
2.0
 43
2.0
 50
231.2434003354121
  0
LINE
  5
9A3A
330
988E
100
AcDbEntity
  8
30
  6
Continuous
 62
     0
370
    -2
100
AcDbLine
 10
815.9214182281752
 20
167.262182860446
 30
0.0
 11
816.1014182281752
 21
167.262182860446
 31
0.0
  0
LINE
  5
9A3B
330
988E
100
AcDbEntity
  8
30
  6
Continuous
 62
     0
370
    -2
100
AcDbLine
 10
816.0114182281754
 20
167.172182860446
 30
0.0
 11
816.0114182281752
 21
167.3521828604459
 31
0.0
  0
POINT
  5
9A3C
330
988E
100
AcDbEntity
  8
DEFPOINTS
  6
Continuous
 62
     0
100
AcDbPoint
 10
819.4544913765767
 20
171.5511509525117
 30
0.0
  0
POINT
  5
9A3D
330
988E
100
AcDbEntity
  8
DEFPOINTS
  6
Continuous
 62
     0
100
AcDbPoint
 10
812.5683450797735
 20
162.9732147683802
 30
0.0
  0
ENDBLK
  5
9890
330
988E
100
AcDbEntity
  8
0
100
AcDbBlockEnd
  0
BLOCK
  5
989A
330
9899
100
AcDbEntity
  8
0
100
AcDbBlockBegin
  2
*D80
 70
     1
 10
0.0
 20
0.0
 30
0.0
  3
*D80
  1

  0
LINE
  5
A488
330
9899
100
AcDbEntity
  8
30
  6
Continuous
 62
     0
370
    -2
100
AcDbLine
 10
237.0000000000009
 20
218.0
 30
0.0
 11
199.5
 21
218.0
 31
0.0
  0
LINE
  5
A489
330
9899
100
AcDbEntity
  8
30
  6
Continuous
 62
     0
370
    -2
100
AcDbLine
 10
297.0000000000009
 20
140.0
 30
0.0
 11
199.5
 21
140.0
 31
0.0
  0
LINE
  5
A48A
330
9899
100
AcDbEntity
  8
30
  6
Continuous
 62
     0
370
    -2
100
AcDbLine
 10
200.0
 20
216.0
 30
0.0
 11
200.0
 21
142.0
 31
0.0
  0
INSERT
  5
A48B
330
9899
100
AcDbEntity
  8
30
  6
Continuous
 62
     0
370
    -2
100
AcDbBlockReference
  2
_OPEN
 10
200.0
 20
218.0
 30
0.0
 41
2.0
 42
2.0
 43
2.0
 50
90.0
  0
INSERT
  5
A48C
330
9899
100
AcDbEntity
  8
30
  6
Continuous
 62
     0
370
    -2
100
AcDbBlockReference
  2
_OPEN
 10
200.0
 20
140.0
 30
0.0
 41
2.0
 42
2.0
 43
2.0
 50
270.0
  0
MTEXT
  5
A48D
330
9899
100
AcDbEntity
  8
30
  6
Continuous
 62
     0
100
AcDbMText
 10
195.0
 20
179.0
 30
0.0
 40
6.0
 41
0.0
 71
     5
 72
     1
  1
\A1;78
 11
0.0000000000000001
 21
1.0
 31
0.0
 73
     1
 44
1.0
1001
ACAD
1000
MTEXTBEGIN
1070
    73
1070
     1
1070
    44
1040
1.0
1070
    74
1070
     0
1000
MTEXTEND
  0
POINT
  5
A48E
330
9899
100
AcDbEntity
  8
DEFPOINTS
  6
Continuous
 62
     0
100
AcDbPoint
 10
240.0000000000009
 20
218.0
 30
0.0
  0
POINT
  5
A48F
330
9899
100
AcDbEntity
  8
DEFPOINTS
  6
Continuous
 62
     0
100
AcDbPoint
 10
300.0000000000009
 20
140.0
 30
0.0
  0
POINT
  5
A490
330
9899
100
AcDbEntity
  8
DEFPOINTS
  6
Continuous
 62
     0
100
AcDbPoint
 10
200.0
 20
140.0
 30
0.0
  0
ENDBLK
  5
989B
330
9899
100
AcDbEntity
  8
0
100
AcDbBlockEnd
  0
BLOCK
  5
98A6
330
98A5
100
AcDbEntity
  8
0
100
AcDbBlockBegin
  2
*D81
 70
     1
 10
0.0
 20
0.0
 30
0.0
  3
*D81
  1

  0
LINE
  5
A491
330
98A5
100
AcDbEntity
  8
30
  6
Continuous
 62
     0
370
    -2
100
AcDbLine
 10
297.0000000000009
 20
140.0
 30
0.0
 11
199.5
 21
140.0
 31
0.0
  0
LINE
  5
A492
330
98A5
100
AcDbEntity
  8
30
  6
Continuous
 62
     0
370
    -2
100
AcDbLine
 10
297.0000000000009
 20
-120.0
 30
0.0
 11
199.5
 21
-119.9999999999999
 31
0.0
  0
LINE
  5
A493
330
98A5
100
AcDbEntity
  8
30
  6
Continuous
 62
     0
370
    -2
100
AcDbLine
 10
200.0
 20
138.0
 30
0.0
 11
200.0
 21
-117.9999999999999
 31
0.0
  0
INSERT
  5
A494
330
98A5
100
AcDbEntity
  8
30
  6
Continuous
 62
     0
370
    -2
100
AcDbBlockReference
  2
_OPEN
 10
200.0
 20
140.0
 30
0.0
 41
2.0
 42
2.0
 43
2.0
 50
90.0
  0
INSERT
  5
A495
330
98A5
100
AcDbEntity
  8
30
  6
Continuous
 62
     0
370
    -2
100
AcDbBlockReference
  2
_OPEN
 10
200.0
 20
-119.9999999999999
 30
0.0
 41
2.0
 42
2.0
 43
2.0
 50
270.0
  0
MTEXT
  5
A496
330
98A5
100
AcDbEntity
  8
30
  6
Continuous
 62
     0
100
AcDbMText
 10
195.0
 20
10.00000000000005
 30
0.0
 40
6.0
 41
0.0
 71
     5
 72
     1
  1
\A1;260
 11
0.0000000000000001
 21
1.0
 31
0.0
 73
     1
 44
1.0
1001
ACAD
1000
MTEXTBEGIN
1070
    73
1070
     1
1070
    44
1040
1.0
1070
    74
1070
     0
1000
MTEXTEND
  0
POINT
  5
A497
330
98A5
100
AcDbEntity
  8
DEFPOINTS
  6
Continuous
 62
     0
100
AcDbPoint
 10
300.0000000000009
 20
140.0
 30
0.0
  0
POINT
  5
A498
330
98A5
100
AcDbEntity
  8
DEFPOINTS
  6
Continuous
 62
     0
100
AcDbPoint
 10
300.0000000000009
 20
-120.0
 30
0.0
  0
POINT
  5
A499
330
98A5
100
AcDbEntity
  8
DEFPOINTS
  6
Continuous
 62
     0
100
AcDbPoint
 10
200.0
 20
-119.9999999999999
 30
0.0
  0
ENDBLK
  5
98A7
330
98A5
100
AcDbEntity
  8
0
100
AcDbBlockEnd
  0
BLOCK
  5
98B2
330
98B1
100
AcDbEntity
  8
0
100
AcDbBlockBegin
  2
*D82
 70
     1
 10
0.0
 20
0.0
 30
0.0
  3
*D82
  1

  0
LINE
  5
A49A
330
98B1
100
AcDbEntity
  8
30
  6
Continuous
 62
     0
370
    -2
100
AcDbLine
 10
237.0000000000009
 20
218.0
 30
0.0
 11
189.5000000000001
 21
218.0
 31
0.0
  0
LINE
  5
A49B
330
98B1
100
AcDbEntity
  8
30
  6
Continuous
 62
     0
370
    -2
100
AcDbLine
 10
237.0000000000009
 20
-198.0000000000002
 30
0.0
 11
189.5
 21
-198.0000000000002
 31
0.0
  0
LINE
  5
A49C
330
98B1
100
AcDbEntity
  8
30
  6
Continuous
 62
     0
370
    -2
100
AcDbLine
 10
190.0000000000001
 20
216.0
 30
0.0
 11
190.0
 21
-196.0000000000002
 31
0.0
  0
INSERT
  5
A49D
330
98B1
100
AcDbEntity
  8
30
  6
Continuous
 62
     0
370
    -2
100
AcDbBlockReference
  2
_OPEN
 10
190.0000000000001
 20
218.0
 30
0.0
 41
2.0
 42
2.0
 43
2.0
 50
90.0
  0
INSERT
  5
A49E
330
98B1
100
AcDbEntity
  8
30
  6
Continuous
 62
     0
370
    -2
100
AcDbBlockReference
  2
_OPEN
 10
190.0
 20
-198.0000000000002
 30
0.0
 41
2.0
 42
2.0
 43
2.0
 50
270.0
  0
MTEXT
  5
A49F
330
98B1
100
AcDbEntity
  8
30
  6
Continuous
 62
     0
100
AcDbMText
 10
185.0
 20
9.999999999999932
 30
0.0
 40
6.0
 41
0.0
 71
     5
 72
     1
  1
\A1;416
 11
0.0000000000000001
 21
1.0
 31
0.0
 73
     1
 44
1.0
1001
ACAD
1000
MTEXTBEGIN
1070
    73
1070
     1
1070
    44
1040
1.0
1070
    74
1070
     0
1000
MTEXTEND
  0
POINT
  5
A4A0
330
98B1
100
AcDbEntity
  8
DEFPOINTS
  6
Continuous
 62
     0
100
AcDbPoint
 10
240.0000000000009
 20
218.0
 30
0.0
  0
POINT
  5
A4A1
330
98B1
100
AcDbEntity
  8
DEFPOINTS
  6
Continuous
 62
     0
100
AcDbPoint
 10
240.0000000000009
 20
-198.0000000000002
 30
0.0
  0
POINT
  5
A4A2
330
98B1
100
AcDbEntity
  8
DEFPOINTS
  6
Continuous
 62
     0
100
AcDbPoint
 10
190.0
 20
-198.0000000000002
 30
0.0
  0
ENDBLK
  5
98B3
330
98B1
100
AcDbEntity
  8
0
100
AcDbBlockEnd
  0
BLOCK
  5
98CA
330
98C9
100
AcDbEntity
  8
0
100
AcDbBlockBegin
  2
*D84
 70
     1
 10
0.0
 20
0.0
 30
0.0
  3
*D84
  1

  0
LINE
  5
9A62
330
98C9
100
AcDbEntity
  8
30
  6
Continuous
 62
     0
370
    -2
100
AcDbLine
 10
667.0
 20
-182.8060655566291
 30
0.0
 11
667.0
 21
-180.5
 31
0.0
  0
LINE
  5
9A63
330
98C9
100
AcDbEntity
  8
30
  6
Continuous
 62
     0
370
    -2
100
AcDbLine
 10
771.6
 20
-173.0
 30
0.0
 11
771.6
 21
-180.5
 31
0.0
  0
LINE
  5
9A64
330
98C9
100
AcDbEntity
  8
30
  6
Continuous
 62
     0
370
    -2
100
AcDbLine
 10
669.0
 20
-180.0
 30
0.0
 11
769.6
 21
-180.0
 31
0.0
  0
INSERT
  5
9A65
330
98C9
100
AcDbEntity
  8
30
  6
Continuous
 62
     0
370
    -2
100
AcDbBlockReference
  2
_OPEN
 10
667.0
 20
-180.0
 30
0.0
 41
2.0
 42
2.0
 43
2.0
 50
180.0
  0
INSERT
  5
9A66
330
98C9
100
AcDbEntity
  8
30
  6
Continuous
 62
     0
370
    -2
100
AcDbBlockReference
  2
_OPEN
 10
771.6
 20
-180.0
 30
0.0
 41
2.0
 42
2.0
 43
2.0
  0
MTEXT
  5
9A67
330
98C9
100
AcDbEntity
  8
30
  6
Continuous
 62
     0
100
AcDbMText
 10
719.2999999999999
 20
-175.0
 30
0.0
 40
6.0
 41
0.0
 71
     5
 72
     1
  1
\A1;104.6
 73
     1
 44
1.0
1001
ACAD
1000
MTEXTBEGIN
1070
    73
1070
     1
1070
    44
1040
1.0
1070
    74
1070
     0
1000
MTEXTEND
  0
POINT
  5
9A68
330
98C9
100
AcDbEntity
  8
DEFPOINTS
  6
Continuous
 62
     0
100
AcDbPoint
 10
667.0
 20
-179.8060655566291
 30
0.0
  0
POINT
  5
9A69
330
98C9
100
AcDbEntity
  8
DEFPOINTS
  6
Continuous
 62
     0
100
AcDbPoint
 10
771.6
 20
-170.0
 30
0.0
  0
POINT
  5
9A6A
330
98C9
100
AcDbEntity
  8
DEFPOINTS
  6
Continuous
 62
     0
100
AcDbPoint
 10
771.6
 20
-180.0
 30
0.0
  0
ENDBLK
  5
98CB
330
98C9
100
AcDbEntity
  8
0
100
AcDbBlockEnd
  0
BLOCK
  5
98D6
330
98D5
100
AcDbEntity
  8
0
100
AcDbBlockBegin
  2
*D85
 70
     1
 10
0.0
 20
0.0
 30
0.0
  3
*D85
  1

  0
LINE
  5
9A6B
330
98D5
100
AcDbEntity
  8
30
  6
Continuous
 62
     0
370
    -2
100
AcDbLine
 10
659.0
 20
-38.00000000000011
 30
0.0
 11
659.0
 21
-180.5
 31
0.0
  0
LINE
  5
9A6C
330
98D5
100
AcDbEntity
  8
30
  6
Continuous
 62
     0
370
    -2
100
AcDbLine
 10
667.0
 20
-44.00000000000011
 30
0.0
 11
667.0
 21
-180.5
 31
0.0
  0
LINE
  5
9A6D
330
98D5
100
AcDbEntity
  8
30
  6
Continuous
 62
     0
370
    -2
100
AcDbLine
 10
661.0
 20
-180.0
 30
0.0
 11
665.0
 21
-180.0
 31
0.0
  0
INSERT
  5
9A6E
330
98D5
100
AcDbEntity
  8
30
  6
Continuous
 62
     0
370
    -2
100
AcDbBlockReference
  2
_OPEN
 10
659.0
 20
-180.0
 30
0.0
 41
2.0
 42
2.0
 43
2.0
 50
180.0
  0
INSERT
  5
9A6F
330
98D5
100
AcDbEntity
  8
30
  6
Continuous
 62
     0
370
    -2
100
AcDbBlockReference
  2
_OPEN
 10
667.0
 20
-180.0
 30
0.0
 41
2.0
 42
2.0
 43
2.0
  0
MTEXT
  5
9A70
330
98D5
100
AcDbEntity
  8
30
  6
Continuous
 62
     0
100
AcDbMText
 10
663.0
 20
-175.0
 30
0.0
 40
6.0
 41
0.0
 71
     5
 72
     1
  1
\A1;8
 73
     1
 44
1.0
1001
ACAD
1000
MTEXTBEGIN
1070
    73
1070
     1
1070
    44
1040
1.0
1070
    74
1070
     0
1000
MTEXTEND
  0
POINT
  5
9A71
330
98D5
100
AcDbEntity
  8
DEFPOINTS
  6
Continuous
 62
     0
100
AcDbPoint
 10
659.0
 20
-35.00000000000011
 30
0.0
  0
POINT
  5
9A72
330
98D5
100
AcDbEntity
  8
DEFPOINTS
  6
Continuous
 62
     0
100
AcDbPoint
 10
667.0
 20
-41.00000000000011
 30
0.0
  0
POINT
  5
9A73
330
98D5
100
AcDbEntity
  8
DEFPOINTS
  6
Continuous
 62
     0
100
AcDbPoint
 10
667.0
 20
-180.0
 30
0.0
  0
ENDBLK
  5
98D7
330
98D5
100
AcDbEntity
  8
0
100
AcDbBlockEnd
  0
BLOCK
  5
98E2
330
98E1
100
AcDbEntity
  8
0
100
AcDbBlockBegin
  2
*D86
 70
     1
 10
0.0
 20
0.0
 30
0.0
  3
*D86
  1

  0
LINE
  5
9A74
330
98E1
100
AcDbEntity
  8
30
  6
Continuous
 62
     0
370
    -2
100
AcDbLine
 10
625.0
 20
6.999999999999772
 30
0.0
 11
625.0
 21
-220.5
 31
0.0
  0
LINE
  5
9A75
330
98E1
100
AcDbEntity
  8
30
  6
Continuous
 62
     0
370
    -2
100
AcDbLine
 10
771.6
 20
-201.0000000000003
 30
0.0
 11
771.6
 21
-220.5
 31
0.0
  0
LINE
  5
9A76
330
98E1
100
AcDbEntity
  8
30
  6
Continuous
 62
     0
370
    -2
100
AcDbLine
 10
627.0
 20
-220.0
 30
0.0
 11
769.6
 21
-220.0
 31
0.0
  0
INSERT
  5
9A77
330
98E1
100
AcDbEntity
  8
30
  6
Continuous
 62
     0
370
    -2
100
AcDbBlockReference
  2
_OPEN
 10
625.0
 20
-220.0
 30
0.0
 41
2.0
 42
2.0
 43
2.0
 50
180.0
  0
INSERT
  5
9A78
330
98E1
100
AcDbEntity
  8
30
  6
Continuous
 62
     0
370
    -2
100
AcDbBlockReference
  2
_OPEN
 10
771.6
 20
-220.0
 30
0.0
 41
2.0
 42
2.0
 43
2.0
  0
MTEXT
  5
9A79
330
98E1
100
AcDbEntity
  8
30
  6
Continuous
 62
     0
100
AcDbMText
 10
698.2999999999999
 20
-215.0
 30
0.0
 40
6.0
 41
0.0
 71
     5
 72
     1
  1
\A1;146.6
 73
     1
 44
1.0
1001
ACAD
1000
MTEXTBEGIN
1070
    73
1070
     1
1070
    44
1040
1.0
1070
    74
1070
     0
1000
MTEXTEND
  0
POINT
  5
9A7A
330
98E1
100
AcDbEntity
  8
DEFPOINTS
  6
Continuous
 62
     0
100
AcDbPoint
 10
625.0
 20
9.999999999999772
 30
0.0
  0
POINT
  5
9A7B
330
98E1
100
AcDbEntity
  8
DEFPOINTS
  6
Continuous
 62
     0
100
AcDbPoint
 10
771.6
 20
-198.0000000000003
 30
0.0
  0
POINT
  5
9A7C
330
98E1
100
AcDbEntity
  8
DEFPOINTS
  6
Continuous
 62
     0
100
AcDbPoint
 10
771.6
 20
-220.0
 30
0.0
  0
ENDBLK
  5
98E3
330
98E1
100
AcDbEntity
  8
0
100
AcDbBlockEnd
  0
BLOCK
  5
98EE
330
98ED
100
AcDbEntity
  8
0
100
AcDbBlockBegin
  2
*D87
 70
     1
 10
0.0
 20
0.0
 30
0.0
  3
*D87
  1

  0
LINE
  5
A3F0
330
98ED
100
AcDbEntity
  8
30
  6
Continuous
 62
     0
370
    -2
100
AcDbLine
 10
307.5075517935829
 20
-260.6800347238195
 30
0.0
 11
323.1742184602485
 21
-260.6800347238195
 31
0.0
  0
LINE
  5
A3F1
330
98ED
100
AcDbEntity
  8
30
  6
Continuous
 62
     0
370
    -2
100
AcDbLine
 10
323.1742184602485
 20
-260.6800347238195
 30
0.0
 11
344.4932163323945
 21
-289.0050967500799
 31
0.0
  0
MTEXT
  5
A3F2
330
98ED
100
AcDbEntity
  8
30
  6
Continuous
 62
     0
100
AcDbMText
 10
312.5075517935828
 20
-256.6800347238195
 30
0.0
 40
6.0
 41
0.0
 71
     5
 72
     1
  1
\A1;M6
 73
     1
 44
1.0
1001
ACAD
1000
MTEXTBEGIN
1070
    73
1070
     1
1070
    44
1040
1.0
1070
    74
1070
     0
1000
MTEXTEND
  0
INSERT
  5
A3F3
330
98ED
100
AcDbEntity
  8
30
  6
Continuous
 62
     0
370
    -2
100
AcDbBlockReference
  2
_OPEN
 10
345.6959297994367
 20
-290.6030580500479
 30
0.0
 41
2.0
 42
2.0
 43
2.0
 50
306.9671284485163
  0
LINE
  5
A3F4
330
98ED
100
AcDbEntity
  8
30
  6
Continuous
 62
     0
370
    -2
100
AcDbLine
 10
347.4100000000001
 20
-292.9999999999999
 30
0.0
 11
347.59
 21
-292.9999999999999
 31
0.0
  0
LINE
  5
A3F5
330
98ED
100
AcDbEntity
  8
30
  6
Continuous
 62
     0
370
    -2
100
AcDbLine
 10
347.5
 20
-293.0899999999999
 30
0.0
 11
347.5
 21
-292.91
 31
0.0
  0
POINT
  5
A3F6
330
98ED
100
AcDbEntity
  8
DEFPOINTS
  6
Continuous
 62
     0
100
AcDbPoint
 10
345.6959297994367
 20
-290.6030580500479
 30
0.0
  0
POINT
  5
A3F7
330
98ED
100
AcDbEntity
  8
DEFPOINTS
  6
Continuous
 62
     0
100
AcDbPoint
 10
349.3040702005634
 20
-295.3969419499519
 30
0.0
  0
ENDBLK
  5
98EF
330
98ED
100
AcDbEntity
  8
0
100
AcDbBlockEnd
  0
BLOCK
  5
98F9
330
98F8
100
AcDbEntity
  8
0
100
AcDbBlockBegin
  2
*D88
 70
     1
 10
0.0
 20
0.0
 30
0.0
  3
*D88
  1

  0
LINE
  5
9A85
330
98F8
100
AcDbEntity
  8
30
  6
Continuous
 62
     0
370
    -2
100
AcDbLine
 10
771.6
 20
143.0
 30
0.0
 11
771.6
 21
150.5
 31
0.0
  0
LINE
  5
9A86
330
98F8
100
AcDbEntity
  8
30
  6
Continuous
 62
     0
370
    -2
100
AcDbLine
 10
734.0
 20
143.0
 30
0.0
 11
734.0
 21
150.5
 31
0.0
  0
LINE
  5
9A87
330
98F8
100
AcDbEntity
  8
30
  6
Continuous
 62
     0
370
    -2
100
AcDbLine
 10
769.6
 20
150.0
 30
0.0
 11
736.0
 21
150.0
 31
0.0
  0
INSERT
  5
9A88
330
98F8
100
AcDbEntity
  8
30
  6
Continuous
 62
     0
370
    -2
100
AcDbBlockReference
  2
_OPEN
 10
771.6
 20
150.0
 30
0.0
 41
2.0
 42
2.0
 43
2.0
  0
INSERT
  5
9A89
330
98F8
100
AcDbEntity
  8
30
  6
Continuous
 62
     0
370
    -2
100
AcDbBlockReference
  2
_OPEN
 10
734.0
 20
150.0
 30
0.0
 41
2.0
 42
2.0
 43
2.0
 50
180.0
  0
MTEXT
  5
9A8A
330
98F8
100
AcDbEntity
  8
30
  6
Continuous
 62
     0
100
AcDbMText
 10
752.7999999999999
 20
155.0
 30
0.0
 40
6.0
 41
0.0
 71
     5
 72
     1
  1
\A1;37.6
 73
     1
 44
1.0
1001
ACAD
1000
MTEXTBEGIN
1070
    73
1070
     1
1070
    44
1040
1.0
1070
    74
1070
     0
1000
MTEXTEND
  0
POINT
  5
9A8B
330
98F8
100
AcDbEntity
  8
DEFPOINTS
  6
Continuous
 62
     0
100
AcDbPoint
 10
771.6
 20
140.0
 30
0.0
  0
POINT
  5
9A8C
330
98F8
100
AcDbEntity
  8
DEFPOINTS
  6
Continuous
 62
     0
100
AcDbPoint
 10
734.0
 20
140.0
 30
0.0
  0
POINT
  5
9A8D
330
98F8
100
AcDbEntity
  8
DEFPOINTS
  6
Continuous
 62
     0
100
AcDbPoint
 10
734.0
 20
150.0
 30
0.0
  0
ENDBLK
  5
98FA
330
98F8
100
AcDbEntity
  8
0
100
AcDbBlockEnd
  0
BLOCK
  5
9905
330
9904
100
AcDbEntity
  8
0
100
AcDbBlockBegin
  2
*D89
 70
     1
 10
0.0
 20
0.0
 30
0.0
  3
*D89
  1

  0
LINE
  5
A3F8
330
9904
100
AcDbEntity
  8
30
  6
Continuous
 62
     0
370
    -2
100
AcDbLine
 10
300.0
 20
402.5000000000001
 30
0.0
 11
300.0
 21
415.5
 31
0.0
  0
LINE
  5
A3F9
330
9904
100
AcDbEntity
  8
30
  6
Continuous
 62
     0
370
    -2
100
AcDbLine
 10
325.0
 20
369.5665648324821
 30
0.0
 11
325.0
 21
415.5
 31
0.0
  0
LINE
  5
A3FA
330
9904
100
AcDbEntity
  8
30
  6
Continuous
 62
     0
370
    -2
100
AcDbLine
 10
302.0
 20
415.0
 30
0.0
 11
323.0
 21
415.0
 31
0.0
  0
INSERT
  5
A3FB
330
9904
100
AcDbEntity
  8
30
  6
Continuous
 62
     0
370
    -2
100
AcDbBlockReference
  2
_OPEN
 10
300.0
 20
415.0
 30
0.0
 41
2.0
 42
2.0
 43
2.0
 50
180.0
  0
INSERT
  5
A3FC
330
9904
100
AcDbEntity
  8
30
  6
Continuous
 62
     0
370
    -2
100
AcDbBlockReference
  2
_OPEN
 10
325.0
 20
415.0
 30
0.0
 41
2.0
 42
2.0
 43
2.0
  0
MTEXT
  5
A3FD
330
9904
100
AcDbEntity
  8
30
  6
Continuous
 62
     0
100
AcDbMText
 10
312.5
 20
420.0
 30
0.0
 40
6.0
 41
0.0
 71
     5
 72
     1
  1
\A1;25
 73
     1
 44
1.0
1001
ACAD
1000
MTEXTBEGIN
1070
    73
1070
     1
1070
    44
1040
1.0
1070
    74
1070
     0
1000
MTEXTEND
  0
POINT
  5
A3FE
330
9904
100
AcDbEntity
  8
DEFPOINTS
  6
Continuous
 62
     0
100
AcDbPoint
 10
300.0
 20
399.5000000000001
 30
0.0
  0
POINT
  5
A3FF
330
9904
100
AcDbEntity
  8
DEFPOINTS
  6
Continuous
 62
     0
100
AcDbPoint
 10
325.0
 20
366.5665648324821
 30
0.0
  0
POINT
  5
A400
330
9904
100
AcDbEntity
  8
DEFPOINTS
  6
Continuous
 62
     0
100
AcDbPoint
 10
325.0
 20
415.0
 30
0.0
  0
ENDBLK
  5
9906
330
9904
100
AcDbEntity
  8
0
100
AcDbBlockEnd
  0
BLOCK
  5
9911
330
9910
100
AcDbEntity
  8
0
100
AcDbBlockBegin
  2
*D90
 70
     1
 10
0.0
 20
0.0
 30
0.0
  3
*D90
  1

  0
LINE
  5
A401
330
9910
100
AcDbEntity
  8
30
  6
Continuous
 62
     0
370
    -2
100
AcDbLine
 10
325.000006238623
 20
372.5819837500784
 30
0.0
 11
325.000006238623
 21
415.5
 31
0.0
  0
LINE
  5
A402
330
9910
100
AcDbEntity
  8
30
  6
Continuous
 62
     0
370
    -2
100
AcDbLine
 10
370.0000062386231
 20
369.5665648324821
 30
0.0
 11
370.0000062386231
 21
415.5
 31
0.0
  0
LINE
  5
A403
330
9910
100
AcDbEntity
  8
30
  6
Continuous
 62
     0
370
    -2
100
AcDbLine
 10
327.000006238623
 20
415.0
 30
0.0
 11
368.0000062386231
 21
415.0
 31
0.0
  0
INSERT
  5
A404
330
9910
100
AcDbEntity
  8
30
  6
Continuous
 62
     0
370
    -2
100
AcDbBlockReference
  2
_OPEN
 10
325.000006238623
 20
415.0
 30
0.0
 41
2.0
 42
2.0
 43
2.0
 50
180.0
  0
INSERT
  5
A405
330
9910
100
AcDbEntity
  8
30
  6
Continuous
 62
     0
370
    -2
100
AcDbBlockReference
  2
_OPEN
 10
370.0000062386231
 20
415.0
 30
0.0
 41
2.0
 42
2.0
 43
2.0
  0
MTEXT
  5
A406
330
9910
100
AcDbEntity
  8
30
  6
Continuous
 62
     0
100
AcDbMText
 10
347.500006238623
 20
420.0
 30
0.0
 40
6.0
 41
0.0
 71
     5
 72
     1
  1
\A1;45
 73
     1
 44
1.0
1001
ACAD
1000
MTEXTBEGIN
1070
    73
1070
     1
1070
    44
1040
1.0
1070
    74
1070
     0
1000
MTEXTEND
  0
POINT
  5
A407
330
9910
100
AcDbEntity
  8
DEFPOINTS
  6
Continuous
 62
     0
100
AcDbPoint
 10
325.000006238623
 20
369.5819837500784
 30
0.0
  0
POINT
  5
A408
330
9910
100
AcDbEntity
  8
DEFPOINTS
  6
Continuous
 62
     0
100
AcDbPoint
 10
370.0000062386231
 20
366.5665648324821
 30
0.0
  0
POINT
  5
A409
330
9910
100
AcDbEntity
  8
DEFPOINTS
  6
Continuous
 62
     0
100
AcDbPoint
 10
370.0000062386231
 20
415.0
 30
0.0
  0
ENDBLK
  5
9912
330
9910
100
AcDbEntity
  8
0
100
AcDbBlockEnd
  0
BLOCK
  5
9929
330
9928
100
AcDbEntity
  8
0
100
AcDbBlockBegin
  2
*D92
 70
     1
 10
0.0
 20
0.0
 30
0.0
  3
*D92
  1

  0
LINE
  5
A40A
330
9928
100
AcDbEntity
  8
30
  6
Continuous
 62
     0
370
    -2
100
AcDbLine
 10
460.0
 20
369.5665648324821
 30
0.0
 11
460.0
 21
415.5
 31
0.0
  0
LINE
  5
A40B
330
9928
100
AcDbEntity
  8
30
  6
Continuous
 62
     0
370
    -2
100
AcDbLine
 10
485.0
 20
402.5000000000001
 30
0.0
 11
485.0
 21
415.5
 31
0.0
  0
LINE
  5
A40C
330
9928
100
AcDbEntity
  8
30
  6
Continuous
 62
     0
370
    -2
100
AcDbLine
 10
462.0
 20
415.0
 30
0.0
 11
483.0
 21
415.0
 31
0.0
  0
INSERT
  5
A40D
330
9928
100
AcDbEntity
  8
30
  6
Continuous
 62
     0
370
    -2
100
AcDbBlockReference
  2
_OPEN
 10
460.0
 20
415.0
 30
0.0
 41
2.0
 42
2.0
 43
2.0
 50
180.0
  0
INSERT
  5
A40E
330
9928
100
AcDbEntity
  8
30
  6
Continuous
 62
     0
370
    -2
100
AcDbBlockReference
  2
_OPEN
 10
485.0
 20
415.0
 30
0.0
 41
2.0
 42
2.0
 43
2.0
  0
MTEXT
  5
A40F
330
9928
100
AcDbEntity
  8
30
  6
Continuous
 62
     0
100
AcDbMText
 10
472.5
 20
420.0
 30
0.0
 40
6.0
 41
0.0
 71
     5
 72
     1
  1
\A1;25
 73
     1
 44
1.0
1001
ACAD
1000
MTEXTBEGIN
1070
    73
1070
     1
1070
    44
1040
1.0
1070
    74
1070
     0
1000
MTEXTEND
  0
POINT
  5
A410
330
9928
100
AcDbEntity
  8
DEFPOINTS
  6
Continuous
 62
     0
100
AcDbPoint
 10
460.0
 20
366.5665648324821
 30
0.0
  0
POINT
  5
A411
330
9928
100
AcDbEntity
  8
DEFPOINTS
  6
Continuous
 62
     0
100
AcDbPoint
 10
485.0
 20
399.5000000000001
 30
0.0
  0
POINT
  5
A412
330
9928
100
AcDbEntity
  8
DEFPOINTS
  6
Continuous
 62
     0
100
AcDbPoint
 10
485.0
 20
415.0
 30
0.0
  0
ENDBLK
  5
992A
330
9928
100
AcDbEntity
  8
0
100
AcDbBlockEnd
  0
BLOCK
  5
9935
330
9934
100
AcDbEntity
  8
0
100
AcDbBlockBegin
  2
*D93
 70
     1
 10
0.0
 20
0.0
 30
0.0
  3
*D93
  1

  0
LINE
  5
9AB2
330
9934
100
AcDbEntity
  8
30
  6
Continuous
 62
     0
370
    -2
100
AcDbLine
 10
771.6
 20
-123.0
 30
0.0
 11
771.6
 21
-130.5
 31
0.0
  0
LINE
  5
9AB3
330
9934
100
AcDbEntity
  8
30
  6
Continuous
 62
     0
370
    -2
100
AcDbLine
 10
735.0
 20
-123.0
 30
0.0
 11
735.0
 21
-130.5
 31
0.0
  0
LINE
  5
9AB4
330
9934
100
AcDbEntity
  8
30
  6
Continuous
 62
     0
370
    -2
100
AcDbLine
 10
769.6
 20
-130.0
 30
0.0
 11
737.0
 21
-130.0
 31
0.0
  0
INSERT
  5
9AB5
330
9934
100
AcDbEntity
  8
30
  6
Continuous
 62
     0
370
    -2
100
AcDbBlockReference
  2
_OPEN
 10
771.6
 20
-130.0
 30
0.0
 41
2.0
 42
2.0
 43
2.0
  0
INSERT
  5
9AB6
330
9934
100
AcDbEntity
  8
30
  6
Continuous
 62
     0
370
    -2
100
AcDbBlockReference
  2
_OPEN
 10
735.0
 20
-130.0
 30
0.0
 41
2.0
 42
2.0
 43
2.0
 50
180.0
  0
MTEXT
  5
9AB7
330
9934
100
AcDbEntity
  8
30
  6
Continuous
 62
     0
100
AcDbMText
 10
753.2999999999999
 20
-125.0
 30
0.0
 40
6.0
 41
0.0
 71
     5
 72
     1
  1
\A1;36.6
 73
     1
 44
1.0
1001
ACAD
1000
MTEXTBEGIN
1070
    73
1070
     1
1070
    44
1040
1.0
1070
    74
1070
     0
1000
MTEXTEND
  0
POINT
  5
9AB8
330
9934
100
AcDbEntity
  8
DEFPOINTS
  6
Continuous
 62
     0
100
AcDbPoint
 10
771.6
 20
-120.0
 30
0.0
  0
POINT
  5
9AB9
330
9934
100
AcDbEntity
  8
DEFPOINTS
  6
Continuous
 62
     0
100
AcDbPoint
 10
735.0
 20
-120.0
 30
0.0
  0
POINT
  5
9ABA
330
9934
100
AcDbEntity
  8
DEFPOINTS
  6
Continuous
 62
     0
100
AcDbPoint
 10
735.0
 20
-130.0
 30
0.0
  0
ENDBLK
  5
9936
330
9934
100
AcDbEntity
  8
0
100
AcDbBlockEnd
  0
BLOCK
  5
9941
330
9940
100
AcDbEntity
  8
0
100
AcDbBlockBegin
  2
*D94
 70
     1
 10
0.0
 20
0.0
 30
0.0
  3
*D94
  1

  0
LINE
  5
A413
330
9940
100
AcDbEntity
  8
30
  6
Continuous
 62
     0
370
    -2
100
AcDbLine
 10
300.0000000000009
 20
-123.0
 30
0.0
 11
300.0000000000009
 21
-220.5
 31
0.0
  0
LINE
  5
A414
330
9940
100
AcDbEntity
  8
30
  6
Continuous
 62
     0
370
    -2
100
AcDbLine
 10
484.9999999999995
 20
-123.0
 30
0.0
 11
484.9999999999995
 21
-220.5
 31
0.0
  0
LINE
  5
A415
330
9940
100
AcDbEntity
  8
30
  6
Continuous
 62
     0
370
    -2
100
AcDbLine
 10
302.0000000000009
 20
-220.0
 30
0.0
 11
482.9999999999995
 21
-220.0
 31
0.0
  0
INSERT
  5
A416
330
9940
100
AcDbEntity
  8
30
  6
Continuous
 62
     0
370
    -2
100
AcDbBlockReference
  2
_OPEN
 10
300.0000000000009
 20
-220.0
 30
0.0
 41
2.0
 42
2.0
 43
2.0
 50
180.0
  0
INSERT
  5
A417
330
9940
100
AcDbEntity
  8
30
  6
Continuous
 62
     0
370
    -2
100
AcDbBlockReference
  2
_OPEN
 10
484.9999999999995
 20
-220.0
 30
0.0
 41
2.0
 42
2.0
 43
2.0
  0
MTEXT
  5
A418
330
9940
100
AcDbEntity
  8
30
  6
Continuous
 62
     0
100
AcDbMText
 10
370.0
 20
-215.0
 30
0.0
 40
6.0
 41
0.0
 71
     5
 72
     1
  1
\A1;185
 73
     1
 44
1.0
1001
ACAD
1000
MTEXTBEGIN
1070
    73
1070
     1
1070
    44
1040
1.0
1070
    74
1070
     0
1000
MTEXTEND
  0
POINT
  5
A419
330
9940
100
AcDbEntity
  8
DEFPOINTS
  6
Continuous
 62
     0
100
AcDbPoint
 10
300.0000000000009
 20
-120.0
 30
0.0
  0
POINT
  5
A41A
330
9940
100
AcDbEntity
  8
DEFPOINTS
  6
Continuous
 62
     0
100
AcDbPoint
 10
484.9999999999995
 20
-120.0
 30
0.0
  0
POINT
  5
A41B
330
9940
100
AcDbEntity
  8
DEFPOINTS
  6
Continuous
 62
     0
100
AcDbPoint
 10
484.9999999999995
 20
-220.0
 30
0.0
  0
ENDBLK
  5
9942
330
9940
100
AcDbEntity
  8
0
100
AcDbBlockEnd
  0
BLOCK
  5
994D
330
994C
100
AcDbEntity
  8
0
100
AcDbBlockBegin
  2
*D95
 70
     1
 10
0.0
 20
0.0
 30
0.0
  3
*D95
  1

  0
LINE
  5
A41C
330
994C
100
AcDbEntity
  8
30
  6
Continuous
 62
     0
370
    -2
100
AcDbLine
 10
240.0000000000009
 20
-201.0000000000002
 30
0.0
 11
240.0000000000009
 21
-240.5
 31
0.0
  0
LINE
  5
A41D
330
994C
100
AcDbEntity
  8
30
  6
Continuous
 62
     0
370
    -2
100
AcDbLine
 10
545.0
 20
-201.0000000000002
 30
0.0
 11
545.0
 21
-240.5
 31
0.0
  0
LINE
  5
A41E
330
994C
100
AcDbEntity
  8
30
  6
Continuous
 62
     0
370
    -2
100
AcDbLine
 10
242.0000000000009
 20
-240.0
 30
0.0
 11
543.0
 21
-240.0
 31
0.0
  0
INSERT
  5
A41F
330
994C
100
AcDbEntity
  8
30
  6
Continuous
 62
     0
370
    -2
100
AcDbBlockReference
  2
_OPEN
 10
240.0000000000009
 20
-240.0
 30
0.0
 41
2.0
 42
2.0
 43
2.0
 50
180.0
  0
INSERT
  5
A420
330
994C
100
AcDbEntity
  8
30
  6
Continuous
 62
     0
370
    -2
100
AcDbBlockReference
  2
_OPEN
 10
545.0
 20
-240.0
 30
0.0
 41
2.0
 42
2.0
 43
2.0
  0
MTEXT
  5
A421
330
994C
100
AcDbEntity
  8
30
  6
Continuous
 62
     0
100
AcDbMText
 10
392.5000000000005
 20
-235.0
 30
0.0
 40
6.0
 41
0.0
 71
     5
 72
     1
  1
\A1;305
 73
     1
 44
1.0
1001
ACAD
1000
MTEXTBEGIN
1070
    73
1070
     1
1070
    44
1040
1.0
1070
    74
1070
     0
1000
MTEXTEND
  0
POINT
  5
A422
330
994C
100
AcDbEntity
  8
DEFPOINTS
  6
Continuous
 62
     0
100
AcDbPoint
 10
240.0000000000009
 20
-198.0000000000002
 30
0.0
  0
POINT
  5
A423
330
994C
100
AcDbEntity
  8
DEFPOINTS
  6
Continuous
 62
     0
100
AcDbPoint
 10
545.0
 20
-198.0000000000002
 30
0.0
  0
POINT
  5
A424
330
994C
100
AcDbEntity
  8
DEFPOINTS
  6
Continuous
 62
     0
100
AcDbPoint
 10
545.0
 20
-240.0
 30
0.0
  0
ENDBLK
  5
994E
330
994C
100
AcDbEntity
  8
0
100
AcDbBlockEnd
  0
BLOCK
  5
9959
330
9958
100
AcDbEntity
  8
0
100
AcDbBlockBegin
  2
*D96
 70
     1
 10
0.0
 20
0.0
 30
0.0
  3
*D96
  1

  0
LINE
  5
A425
330
9958
100
AcDbEntity
  8
30
  6
Continuous
 62
     0
370
    -2
100
AcDbLine
 10
545.9999452034627
 20
401.1000000000001
 30
0.0
 11
565.5
 21
401.1000000000001
 31
0.0
  0
LINE
  5
A426
330
9958
100
AcDbEntity
  8
30
  6
Continuous
 62
     0
370
    -2
100
AcDbLine
 10
474.9999452034629
 20
366.5665648324821
 30
0.0
 11
565.5
 21
366.5665648324821
 31
0.0
  0
LINE
  5
A427
330
9958
100
AcDbEntity
  8
30
  6
Continuous
 62
     0
370
    -2
100
AcDbLine
 10
565.0
 20
399.1000000000001
 30
0.0
 11
565.0
 21
368.5665648324821
 31
0.0
  0
MTEXT
  5
A428
330
9958
100
AcDbEntity
  8
30
  6
Continuous
 62
     0
100
AcDbMText
 10
601.4224256543098
 20
382.4104650120816
 30
0.0
 40
6.0
 41
0.0
 71
     5
 72
     1
  1
\A1;ON SIDE 37.6\POFF SIDE 36.6
 73
     1
 44
1.0
1001
ACAD
1000
MTEXTBEGIN
1070
    73
1070
     1
1070
    44
1040
1.0
1070
    74
1070
     0
1000
MTEXTEND
  0
INSERT
  5
A429
330
9958
100
AcDbEntity
  8
30
  6
Continuous
 62
     0
370
    -2
100
AcDbBlockReference
  2
_OPEN
 10
565.0
 20
401.1000000000001
 30
0.0
 41
2.0
 42
2.0
 43
2.0
 50
90.0
  0
INSERT
  5
A42A
330
9958
100
AcDbEntity
  8
30
  6
Continuous
 62
     0
370
    -2
100
AcDbBlockReference
  2
_OPEN
 10
565.0
 20
366.5665648324821
 30
0.0
 41
2.0
 42
2.0
 43
2.0
 50
270.0
  0
POINT
  5
A42B
330
9958
100
AcDbEntity
  8
DEFPOINTS
  6
Continuous
 62
     0
100
AcDbPoint
 10
544.9999452034627
 20
401.1000000000001
 30
0.0
  0
POINT
  5
A42C
330
9958
100
AcDbEntity
  8
DEFPOINTS
  6
Continuous
 62
     0
100
AcDbPoint
 10
473.9999452034629
 20
366.5665648324821
 30
0.0
  0
POINT
  5
A42D
330
9958
100
AcDbEntity
  8
DEFPOINTS
  6
Continuous
 62
     0
100
AcDbPoint
 10
565.0
 20
366.5665648324821
 30
0.0
  0
ENDBLK
  5
995A
330
9958
100
AcDbEntity
  8
0
100
AcDbBlockEnd
  0
BLOCK
  5
9965
330
9964
100
AcDbEntity
  8
0
100
AcDbBlockBegin
  2
*D97
 70
     1
 10
0.0
 20
0.0
 30
0.0
  3
*D97
  1

  0
LINE
  5
9AD6
330
9964
100
AcDbEntity
  8
30
 62
     0
370
    -2
100
AcDbLine
 10
656.0
 20
-35.00000000000011
 30
0.0
 11
599.5
 21
-35.00000000000009
 31
0.0
  0
LINE
  5
9AD7
330
9964
100
AcDbEntity
  8
30
 62
     0
370
    -2
100
AcDbLine
 10
656.0
 20
55.0
 30
0.0
 11
599.5
 21
55.00000000000002
 31
0.0
  0
LINE
  5
9AD8
330
9964
100
AcDbEntity
  8
30
 62
     0
370
    -2
100
AcDbLine
 10
600.0
 20
-33.0000000000001
 30
0.0
 11
600.0
 21
53.00000000000002
 31
0.0
  0
INSERT
  5
9AD9
330
9964
100
AcDbEntity
  8
30
 62
     0
370
    -2
100
AcDbBlockReference
  2
_OPEN
 10
600.0
 20
-35.00000000000009
 30
0.0
 41
2.0
 42
2.0
 43
2.0
 50
270.0
  0
INSERT
  5
9ADA
330
9964
100
AcDbEntity
  8
30
 62
     0
370
    -2
100
AcDbBlockReference
  2
_OPEN
 10
600.0
 20
55.00000000000002
 30
0.0
 41
2.0
 42
2.0
 43
2.0
 50
90.0
  0
MTEXT
  5
9ADB
330
9964
100
AcDbEntity
  8
30
 62
     0
100
AcDbMText
 10
595.0
 20
10.00000000000006
 30
0.0
 40
6.0
 41
0.0
 71
     5
 72
     1
  1
\A1; 90 
 11
0.0000000000000001
 21
1.0
 31
0.0
 73
     1
 44
1.0
1001
ACAD
1000
MTEXTBEGIN
1070
    73
1070
     1
1070
    44
1040
1.0
1070
    74
1070
     0
1000
MTEXTEND
  0
POINT
  5
9ADC
330
9964
100
AcDbEntity
  8
DEFPOINTS
 62
     0
100
AcDbPoint
 10
659.0
 20
-35.00000000000011
 30
0.0
  0
POINT
  5
9ADD
330
9964
100
AcDbEntity
  8
DEFPOINTS
 62
     0
100
AcDbPoint
 10
659.0
 20
55.0
 30
0.0
  0
POINT
  5
9ADE
330
9964
100
AcDbEntity
  8
DEFPOINTS
 62
     0
100
AcDbPoint
 10
600.0
 20
55.00000000000002
 30
0.0
  0
ENDBLK
  5
9966
330
9964
100
AcDbEntity
  8
0
100
AcDbBlockEnd
  0
BLOCK
  5
9971
330
9970
100
AcDbEntity
  8
0
100
AcDbBlockBegin
  2
*D98
 70
     1
 10
0.0
 20
0.0
 30
0.0
  3
*D98
  1

  0
LINE
  5
A42E
330
9970
100
AcDbEntity
  8
30
 62
     0
370
    -2
100
AcDbLine
 10
659.0
 20
-41.0
 30
0.0
 11
584.4999999999999
 21
-40.99999999999996
 31
0.0
  0
LINE
  5
A42F
330
9970
100
AcDbEntity
  8
30
 62
     0
370
    -2
100
AcDbLine
 10
659.0
 20
61.0
 30
0.0
 11
584.4999999999999
 21
61.00000000000003
 31
0.0
  0
LINE
  5
A430
330
9970
100
AcDbEntity
  8
30
 62
     0
370
    -2
100
AcDbLine
 10
585.0
 20
-38.99999999999997
 30
0.0
 11
585.0
 21
59.00000000000003
 31
0.0
  0
INSERT
  5
A431
330
9970
100
AcDbEntity
  8
30
 62
     0
370
    -2
100
AcDbBlockReference
  2
_OPEN
 10
585.0
 20
-40.99999999999996
 30
0.0
 41
2.0
 42
2.0
 43
2.0
 50
270.0
  0
INSERT
  5
A432
330
9970
100
AcDbEntity
  8
30
 62
     0
370
    -2
100
AcDbBlockReference
  2
_OPEN
 10
585.0
 20
61.00000000000003
 30
0.0
 41
2.0
 42
2.0
 43
2.0
 50
90.0
  0
MTEXT
  5
A433
330
9970
100
AcDbEntity
  8
30
 62
     0
100
AcDbMText
 10
580.0
 20
10.00000000000012
 30
0.0
 40
6.0
 41
0.0
 71
     5
 72
     1
  1
\A1; 102 
 11
0.0000000000000001
 21
1.0
 31
0.0
 73
     1
 44
1.0
1001
ACAD
1000
MTEXTBEGIN
1070
    73
1070
     1
1070
    44
1040
1.0
1070
    74
1070
     0
1000
MTEXTEND
  0
POINT
  5
A434
330
9970
100
AcDbEntity
  8
DEFPOINTS
 62
     0
100
AcDbPoint
 10
662.0
 20
-41.0
 30
0.0
  0
POINT
  5
A435
330
9970
100
AcDbEntity
  8
DEFPOINTS
 62
     0
100
AcDbPoint
 10
662.0
 20
61.0
 30
0.0
  0
POINT
  5
A436
330
9970
100
AcDbEntity
  8
DEFPOINTS
 62
     0
100
AcDbPoint
 10
585.0
 20
61.00000000000003
 30
0.0
  0
ENDBLK
  5
9972
330
9970
100
AcDbEntity
  8
0
100
AcDbBlockEnd
  0
BLOCK
  5
997D
330
997C
100
AcDbEntity
  8
0
100
AcDbBlockBegin
  2
*D99
 70
     1
 10
0.0
 20
0.0
 30
0.0
  3
*D99
  1

  0
LINE
  5
A47F
330
997C
100
AcDbEntity
  8
30
  6
Continuous
 62
     0
370
    -2
100
AcDbLine
 10
237.0000000000009
 20
-197.9999999999999
 30
0.0
 11
199.4999999999999
 21
-197.9999999999999
 31
0.0
  0
LINE
  5
A480
330
997C
100
AcDbEntity
  8
30
  6
Continuous
 62
     0
370
    -2
100
AcDbLine
 10
297.0000000000009
 20
-120.0
 30
0.0
 11
199.5
 21
-119.9999999999999
 31
0.0
  0
LINE
  5
A481
330
997C
100
AcDbEntity
  8
30
  6
Continuous
 62
     0
370
    -2
100
AcDbLine
 10
200.0
 20
-195.9999999999999
 30
0.0
 11
200.0
 21
-121.9999999999999
 31
0.0
  0
INSERT
  5
A482
330
997C
100
AcDbEntity
  8
30
  6
Continuous
 62
     0
370
    -2
100
AcDbBlockReference
  2
_OPEN
 10
200.0
 20
-197.9999999999999
 30
0.0
 41
2.0
 42
2.0
 43
2.0
 50
270.0
  0
INSERT
  5
A483
330
997C
100
AcDbEntity
  8
30
  6
Continuous
 62
     0
370
    -2
100
AcDbBlockReference
  2
_OPEN
 10
200.0
 20
-119.9999999999999
 30
0.0
 41
2.0
 42
2.0
 43
2.0
 50
90.0
  0
MTEXT
  5
A484
330
997C
100
AcDbEntity
  8
30
  6
Continuous
 62
     0
100
AcDbMText
 10
195.0
 20
-158.9999999999999
 30
0.0
 40
6.0
 41
0.0
 71
     5
 72
     1
  1
\A1;78
 11
0.0000000000000001
 21
1.0
 31
0.0
 73
     1
 44
1.0
1001
ACAD
1000
MTEXTBEGIN
1070
    73
1070
     1
1070
    44
1040
1.0
1070
    74
1070
     0
1000
MTEXTEND
  0
POINT
  5
A485
330
997C
100
AcDbEntity
  8
DEFPOINTS
  6
Continuous
 62
     0
100
AcDbPoint
 10
240.0000000000009
 20
-197.9999999999999
 30
0.0
  0
POINT
  5
A486
330
997C
100
AcDbEntity
  8
DEFPOINTS
  6
Continuous
 62
     0
100
AcDbPoint
 10
300.0000000000009
 20
-120.0
 30
0.0
  0
POINT
  5
A487
330
997C
100
AcDbEntity
  8
DEFPOINTS
  6
Continuous
 62
     0
100
AcDbPoint
 10
200.0
 20
-119.9999999999999
 30
0.0
  0
ENDBLK
  5
997E
330
997C
100
AcDbEntity
  8
0
100
AcDbBlockEnd
  0
BLOCK
  5
9989
330
9988
100
AcDbEntity
  8
0
100
AcDbBlockBegin
  2
*D100
 70
     1
 10
0.0
 20
0.0
 30
0.0
  3
*D100
  1

  0
LINE
  5
9AF1
330
9988
100
AcDbEntity
  8
30
  6
Continuous
 62
     0
370
    -2
100
AcDbLine
 10
672.9999999999997
 20
-123.0
 30
0.0
 11
672.9999999999997
 21
-170.5
 31
0.0
  0
LINE
  5
9AF2
330
9988
100
AcDbEntity
  8
30
  6
Continuous
 62
     0
370
    -2
100
AcDbLine
 10
771.6
 20
-167.0
 30
0.0
 11
771.6
 21
-169.5
 31
0.0
  0
LINE
  5
9AF3
330
9988
100
AcDbEntity
  8
30
  6
Continuous
 62
     0
370
    -2
100
AcDbLine
 10
674.9999999999998
 20
-170.0
 30
0.0
 11
769.6
 21
-170.0
 31
0.0
  0
INSERT
  5
9AF4
330
9988
100
AcDbEntity
  8
30
  6
Continuous
 62
     0
370
    -2
100
AcDbBlockReference
  2
_OPEN
 10
672.9999999999997
 20
-170.0
 30
0.0
 41
2.0
 42
2.0
 43
2.0
 50
180.0
  0
INSERT
  5
9AF5
330
9988
100
AcDbEntity
  8
30
  6
Continuous
 62
     0
370
    -2
100
AcDbBlockReference
  2
_OPEN
 10
771.6
 20
-170.0
 30
0.0
 41
2.0
 42
2.0
 43
2.0
  0
MTEXT
  5
9AF6
330
9988
100
AcDbEntity
  8
30
  6
Continuous
 62
     0
100
AcDbMText
 10
722.2999999999999
 20
-165.0
 30
0.0
 40
6.0
 41
0.0
 71
     5
 72
     1
  1
\A1;98.6
 73
     1
 44
1.0
1001
ACAD
1000
MTEXTBEGIN
1070
    73
1070
     1
1070
    44
1040
1.0
1070
    74
1070
     0
1000
MTEXTEND
  0
POINT
  5
9AF7
330
9988
100
AcDbEntity
  8
DEFPOINTS
  6
Continuous
 62
     0
100
AcDbPoint
 10
672.9999999999997
 20
-120.0
 30
0.0
  0
POINT
  5
9AF8
330
9988
100
AcDbEntity
  8
DEFPOINTS
  6
Continuous
 62
     0
100
AcDbPoint
 10
771.6
 20
-170.0
 30
0.0
  0
POINT
  5
9AF9
330
9988
100
AcDbEntity
  8
DEFPOINTS
  6
Continuous
 62
     0
100
AcDbPoint
 10
771.6
 20
-170.0
 30
0.0
  0
ENDBLK
  5
998A
330
9988
100
AcDbEntity
  8
0
100
AcDbBlockEnd
  0
BLOCK
  5
9995
330
9994
100
AcDbEntity
  8
0
100
AcDbBlockBegin
  2
*D101
 70
     1
 10
0.0
 20
0.0
 30
0.0
  3
*D101
  1

  0
LINE
  5
9AFA
330
9994
100
AcDbEntity
  8
30
 62
     0
370
    -2
100
AcDbLine
 10
770.0000000000003
 20
-147.5000000000004
 30
0.0
 11
770.0000000000003
 21
-149.5
 31
0.0
  0
LINE
  5
9AFB
330
9994
100
AcDbEntity
  8
30
 62
     0
370
    -2
100
AcDbLine
 10
771.6
 20
-147.0
 30
0.0
 11
771.6
 21
-149.5
 31
0.0
  0
LINE
  5
9AFC
330
9994
100
AcDbEntity
  8
30
 62
     0
370
    -2
100
AcDbLine
 10
773.6
 20
-150.0
 30
0.0
 11
775.6
 21
-150.0
 31
0.0
  0
LINE
  5
9AFD
330
9994
100
AcDbEntity
  8
30
 62
     0
370
    -2
100
AcDbLine
 10
768.0000000000003
 20
-150.0
 30
0.0
 11
748.4
 21
-150.0
 31
0.0
  0
LINE
  5
9AFE
330
9994
100
AcDbEntity
  8
30
 62
     0
370
    -2
100
AcDbLine
 10
771.6
 20
-150.0
 30
0.0
 11
770.0000000000003
 21
-150.0
 31
0.0
  0
INSERT
  5
9AFF
330
9994
100
AcDbEntity
  8
30
 62
     0
370
    -2
100
AcDbBlockReference
  2
_OPEN
 10
771.6
 20
-150.0
 30
0.0
 41
2.0
 42
2.0
 43
2.0
 50
180.0
  0
INSERT
  5
9B00
330
9994
100
AcDbEntity
  8
30
 62
     0
370
    -2
100
AcDbBlockReference
  2
_OPEN
 10
770.0000000000003
 20
-150.0
 30
0.0
 41
2.0
 42
2.0
 43
2.0
  0
MTEXT
  5
9B01
330
9994
100
AcDbEntity
  8
30
 62
     0
100
AcDbMText
 10
757.2000000000001
 20
-145.0
 30
0.0
 40
6.0
 41
0.0
 71
     5
 72
     1
  1
\A1; 1.6 
 73
     1
 44
1.0
1001
ACAD
1000
MTEXTBEGIN
1070
    73
1070
     1
1070
    44
1040
1.0
1070
    74
1070
     0
1000
MTEXTEND
  0
POINT
  5
9B02
330
9994
100
AcDbEntity
  8
DEFPOINTS
 62
     0
100
AcDbPoint
 10
770.0000000000003
 20
-150.5000000000004
 30
0.0
  0
POINT
  5
9B03
330
9994
100
AcDbEntity
  8
DEFPOINTS
 62
     0
100
AcDbPoint
 10
771.6
 20
-150.0
 30
0.0
  0
POINT
  5
9B04
330
9994
100
AcDbEntity
  8
DEFPOINTS
 62
     0
100
AcDbPoint
 10
771.6
 20
-150.0
 30
0.0
  0
ENDBLK
  5
9996
330
9994
100
AcDbEntity
  8
0
100
AcDbBlockEnd
  0
BLOCK
  5
99A3
330
99A2
100
AcDbEntity
  8
0
100
AcDbBlockBegin
  2
*D102
 70
     1
 10
0.0
 20
0.0
 30
0.0
  3
*D102
  1

  0
LINE
  5
9B05
330
99A2
100
AcDbEntity
  8
30
  6
Continuous
 62
     0
370
    -2
100
AcDbLine
 10
642.4999999999999
 20
6.999999999999886
 30
0.0
 11
642.4999999999999
 21
-210.5
 31
0.0
  0
LINE
  5
9B06
330
99A2
100
AcDbEntity
  8
30
  6
Continuous
 62
     0
370
    -2
100
AcDbLine
 10
771.6
 20
-201.0000000000003
 30
0.0
 11
771.6
 21
-210.5
 31
0.0
  0
LINE
  5
9B07
330
99A2
100
AcDbEntity
  8
30
  6
Continuous
 62
     0
370
    -2
100
AcDbLine
 10
644.5
 20
-210.0
 30
0.0
 11
769.6
 21
-210.0
 31
0.0
  0
INSERT
  5
9B08
330
99A2
100
AcDbEntity
  8
30
  6
Continuous
 62
     0
370
    -2
100
AcDbBlockReference
  2
_OPEN
 10
642.4999999999999
 20
-210.0
 30
0.0
 41
2.0
 42
2.0
 43
2.0
 50
180.0
  0
INSERT
  5
9B09
330
99A2
100
AcDbEntity
  8
30
  6
Continuous
 62
     0
370
    -2
100
AcDbBlockReference
  2
_OPEN
 10
771.6
 20
-210.0
 30
0.0
 41
2.0
 42
2.0
 43
2.0
  0
MTEXT
  5
9B0A
330
99A2
100
AcDbEntity
  8
30
  6
Continuous
 62
     0
100
AcDbMText
 10
707.05
 20
-205.0
 30
0.0
 40
6.0
 41
0.0
 71
     5
 72
     1
  1
\A1;129.1
 73
     1
 44
1.0
1001
ACAD
1000
MTEXTBEGIN
1070
    73
1070
     1
1070
    44
1040
1.0
1070
    74
1070
     0
1000
MTEXTEND
  0
POINT
  5
9B0B
330
99A2
100
AcDbEntity
  8
DEFPOINTS
  6
Continuous
 62
     0
100
AcDbPoint
 10
642.4999999999999
 20
9.999999999999886
 30
0.0
  0
POINT
  5
9B0C
330
99A2
100
AcDbEntity
  8
DEFPOINTS
  6
Continuous
 62
     0
100
AcDbPoint
 10
771.6
 20
-198.0000000000003
 30
0.0
  0
POINT
  5
9B0D
330
99A2
100
AcDbEntity
  8
DEFPOINTS
  6
Continuous
 62
     0
100
AcDbPoint
 10
771.6
 20
-210.0
 30
0.0
  0
ENDBLK
  5
99A4
330
99A2
100
AcDbEntity
  8
0
100
AcDbBlockEnd
  0
BLOCK
  5
99AF
330
99AE
100
AcDbEntity
  8
0
100
AcDbBlockBegin
  2
*D103
 70
     1
 10
0.0
 20
0.0
 30
0.0
  3
*D103
  1

  0
LINE
  5
A440
330
99AE
100
AcDbEntity
  8
30
 62
     0
370
    -2
100
AcDbLine
 10
312.0000000000009
 20
53.0
 30
0.0
 11
312.0000000000009
 21
70.5
 31
0.0
  0
LINE
  5
A441
330
99AE
100
AcDbEntity
  8
30
 62
     0
370
    -2
100
AcDbLine
 10
428.0
 20
53.0
 30
0.0
 11
428.0
 21
70.5
 31
0.0
  0
LINE
  5
A442
330
99AE
100
AcDbEntity
  8
30
 62
     0
370
    -2
100
AcDbLine
 10
314.0000000000009
 20
70.0
 30
0.0
 11
426.0
 21
70.0
 31
0.0
  0
INSERT
  5
A443
330
99AE
100
AcDbEntity
  8
30
 62
     0
370
    -2
100
AcDbBlockReference
  2
_OPEN
 10
312.0000000000009
 20
70.0
 30
0.0
 41
2.0
 42
2.0
 43
2.0
 50
180.0
  0
INSERT
  5
A444
330
99AE
100
AcDbEntity
  8
30
 62
     0
370
    -2
100
AcDbBlockReference
  2
_OPEN
 10
428.0
 20
70.0
 30
0.0
 41
2.0
 42
2.0
 43
2.0
  0
MTEXT
  5
A445
330
99AE
100
AcDbEntity
  8
30
 62
     0
100
AcDbMText
 10
390.0000000000005
 20
75.0
 30
0.0
 40
6.0
 41
0.0
 71
     5
 72
     1
  1
\A1; 116 
 73
     1
 44
1.0
1001
ACAD
1000
MTEXTBEGIN
1070
    73
1070
     1
1070
    44
1040
1.0
1070
    74
1070
     0
1000
MTEXTEND
  0
POINT
  5
A446
330
99AE
100
AcDbEntity
  8
DEFPOINTS
 62
     0
100
AcDbPoint
 10
312.0000000000009
 20
50.0
 30
0.0
  0
POINT
  5
A447
330
99AE
100
AcDbEntity
  8
DEFPOINTS
 62
     0
100
AcDbPoint
 10
428.0
 20
50.0
 30
0.0
  0
POINT
  5
A448
330
99AE
100
AcDbEntity
  8
DEFPOINTS
 62
     0
100
AcDbPoint
 10
428.0
 20
70.0
 30
0.0
  0
ENDBLK
  5
99B0
330
99AE
100
AcDbEntity
  8
0
100
AcDbBlockEnd
  0
BLOCK
  5
99BB
330
99BA
100
AcDbEntity
  8
0
100
AcDbBlockBegin
  2
*D104
 70
     1
 10
0.0
 20
0.0
 30
0.0
  3
*D104
  1

  0
LINE
  5
A449
330
99BA
100
AcDbEntity
  8
30
 62
     0
370
    -2
100
AcDbLine
 10
344.5000000000009
 20
-38.0
 30
0.0
 11
344.5000000000009
 21
-60.5
 31
0.0
  0
LINE
  5
A44A
330
99BA
100
AcDbEntity
  8
30
 62
     0
370
    -2
100
AcDbLine
 10
395.5
 20
-38.0
 30
0.0
 11
395.5
 21
-60.5
 31
0.0
  0
LINE
  5
A44B
330
99BA
100
AcDbEntity
  8
30
 62
     0
370
    -2
100
AcDbLine
 10
346.5000000000009
 20
-60.0
 30
0.0
 11
393.5
 21
-60.0
 31
0.0
  0
INSERT
  5
A44C
330
99BA
100
AcDbEntity
  8
30
 62
     0
370
    -2
100
AcDbBlockReference
  2
_OPEN
 10
344.5000000000009
 20
-60.0
 30
0.0
 41
2.0
 42
2.0
 43
2.0
 50
180.0
  0
INSERT
  5
A44D
330
99BA
100
AcDbEntity
  8
30
 62
     0
370
    -2
100
AcDbBlockReference
  2
_OPEN
 10
395.5
 20
-60.0
 30
0.0
 41
2.0
 42
2.0
 43
2.0
  0
MTEXT
  5
A44E
330
99BA
100
AcDbEntity
  8
30
 62
     0
100
AcDbMText
 10
380.0000000000005
 20
-55.0
 30
0.0
 40
6.0
 41
0.0
 71
     5
 72
     1
  1
\A1; 51 
 73
     1
 44
1.0
1001
ACAD
1000
MTEXTBEGIN
1070
    73
1070
     1
1070
    44
1040
1.0
1070
    74
1070
     0
1000
MTEXTEND
  0
POINT
  5
A44F
330
99BA
100
AcDbEntity
  8
DEFPOINTS
 62
     0
100
AcDbPoint
 10
344.5000000000009
 20
-35.0
 30
0.0
  0
POINT
  5
A450
330
99BA
100
AcDbEntity
  8
DEFPOINTS
 62
     0
100
AcDbPoint
 10
395.5
 20
-35.0
 30
0.0
  0
POINT
  5
A451
330
99BA
100
AcDbEntity
  8
DEFPOINTS
 62
     0
100
AcDbPoint
 10
395.5
 20
-60.0
 30
0.0
  0
ENDBLK
  5
99BC
330
99BA
100
AcDbEntity
  8
0
100
AcDbBlockEnd
  0
BLOCK
  5
99C7
330
99C6
100
AcDbEntity
  8
0
100
AcDbBlockBegin
  2
*D105
 70
     1
 10
0.0
 20
0.0
 30
0.0
  3
*D105
  1

  0
LINE
  5
A452
330
99C6
100
AcDbEntity
  8
30
  6
Continuous
 62
     0
370
    -2
100
AcDbLine
 10
488.0
 20
140.0
 30
0.0
 11
565.5
 21
140.0
 31
0.0
  0
LINE
  5
A453
330
99C6
100
AcDbEntity
  8
30
  6
Continuous
 62
     0
370
    -2
100
AcDbLine
 10
488.0
 20
-120.0
 30
0.0
 11
565.5
 21
-120.0
 31
0.0
  0
LINE
  5
A454
330
99C6
100
AcDbEntity
  8
30
  6
Continuous
 62
     0
370
    -2
100
AcDbLine
 10
565.0
 20
138.0
 30
0.0
 11
565.0
 21
-118.0
 31
0.0
  0
INSERT
  5
A455
330
99C6
100
AcDbEntity
  8
30
  6
Continuous
 62
     0
370
    -2
100
AcDbBlockReference
  2
_OPEN
 10
565.0
 20
140.0
 30
0.0
 41
2.0
 42
2.0
 43
2.0
 50
90.0
  0
INSERT
  5
A456
330
99C6
100
AcDbEntity
  8
30
  6
Continuous
 62
     0
370
    -2
100
AcDbBlockReference
  2
_OPEN
 10
565.0
 20
-120.0
 30
0.0
 41
2.0
 42
2.0
 43
2.0
 50
270.0
  0
MTEXT
  5
A457
330
99C6
100
AcDbEntity
  8
30
  6
Continuous
 62
     0
100
AcDbMText
 10
560.0
 20
10.00000000000008
 30
0.0
 40
6.0
 41
0.0
 71
     5
 72
     1
  1
\A1;260
 11
0.0000000000000001
 21
1.0
 31
0.0
 73
     1
 44
1.0
1001
ACAD
1000
MTEXTBEGIN
1070
    73
1070
     1
1070
    44
1040
1.0
1070
    74
1070
     0
1000
MTEXTEND
  0
POINT
  5
A458
330
99C6
100
AcDbEntity
  8
DEFPOINTS
  6
Continuous
 62
     0
100
AcDbPoint
 10
485.0
 20
140.0
 30
0.0
  0
POINT
  5
A459
330
99C6
100
AcDbEntity
  8
DEFPOINTS
  6
Continuous
 62
     0
100
AcDbPoint
 10
485.0
 20
-120.0
 30
0.0
  0
POINT
  5
A45A
330
99C6
100
AcDbEntity
  8
DEFPOINTS
  6
Continuous
 62
     0
100
AcDbPoint
 10
565.0
 20
-120.0
 30
0.0
  0
ENDBLK
  5
99C8
330
99C6
100
AcDbEntity
  8
0
100
AcDbBlockEnd
  0
BLOCK
  5
99D3
330
99D2
100
AcDbEntity
  8
0
100
AcDbBlockBegin
  2
*D106
 70
     1
 10
0.0
 20
0.0
 30
0.0
  3
*D106
  1

  0
LINE
  5
A45B
330
99D2
100
AcDbEntity
  8
30
  6
Continuous
 62
     0
370
    -2
100
AcDbLine
 10
442.5000000000009
 20
250.0
 30
0.0
 11
565.5
 21
250.0
 31
0.0
  0
LINE
  5
A45C
330
99D2
100
AcDbEntity
  8
30
  6
Continuous
 62
     0
370
    -2
100
AcDbLine
 10
488.0
 20
140.0
 30
0.0
 11
565.5
 21
140.0
 31
0.0
  0
LINE
  5
A45D
330
99D2
100
AcDbEntity
  8
30
  6
Continuous
 62
     0
370
    -2
100
AcDbLine
 10
565.0
 20
248.0
 30
0.0
 11
565.0
 21
142.0
 31
0.0
  0
INSERT
  5
A45E
330
99D2
100
AcDbEntity
  8
30
  6
Continuous
 62
     0
370
    -2
100
AcDbBlockReference
  2
_OPEN
 10
565.0
 20
250.0
 30
0.0
 41
2.0
 42
2.0
 43
2.0
 50
90.0
  0
INSERT
  5
A45F
330
99D2
100
AcDbEntity
  8
30
  6
Continuous
 62
     0
370
    -2
100
AcDbBlockReference
  2
_OPEN
 10
565.0
 20
140.0
 30
0.0
 41
2.0
 42
2.0
 43
2.0
 50
270.0
  0
MTEXT
  5
A460
330
99D2
100
AcDbEntity
  8
30
  6
Continuous
 62
     0
100
AcDbMText
 10
560.0
 20
195.0000000000001
 30
0.0
 40
6.0
 41
0.0
 71
     5
 72
     1
  1
\A1;110
 11
0.0000000000000001
 21
1.0
 31
0.0
 73
     1
 44
1.0
1001
ACAD
1000
MTEXTBEGIN
1070
    73
1070
     1
1070
    44
1040
1.0
1070
    74
1070
     0
1000
MTEXTEND
  0
POINT
  5
A461
330
99D2
100
AcDbEntity
  8
DEFPOINTS
  6
Continuous
 62
     0
100
AcDbPoint
 10
439.5000000000009
 20
250.0
 30
0.0
  0
POINT
  5
A462
330
99D2
100
AcDbEntity
  8
DEFPOINTS
  6
Continuous
 62
     0
100
AcDbPoint
 10
485.0
 20
140.0
 30
0.0
  0
POINT
  5
A463
330
99D2
100
AcDbEntity
  8
DEFPOINTS
  6
Continuous
 62
     0
100
AcDbPoint
 10
565.0
 20
140.0
 30
0.0
  0
ENDBLK
  5
99D4
330
99D2
100
AcDbEntity
  8
0
100
AcDbBlockEnd
  0
BLOCK
  5
99DF
330
99DE
100
AcDbEntity
  8
0
100
AcDbBlockBegin
  2
*D107
 70
     1
 10
0.0
 20
0.0
 30
0.0
  3
*D107
  1

  0
LINE
  5
9B32
330
99DE
100
AcDbEntity
  8
30
 62
     0
370
    -2
100
AcDbLine
 10
684.6999999999994
 20
-104.2499999999997
 30
0.0
 11
684.6999999999994
 21
-160.5
 31
0.0
  0
LINE
  5
9B33
330
99DE
100
AcDbEntity
  8
30
 62
     0
370
    -2
100
AcDbLine
 10
771.6
 20
-157.0
 30
0.0
 11
771.6
 21
-159.5
 31
0.0
  0
LINE
  5
9B34
330
99DE
100
AcDbEntity
  8
30
 62
     0
370
    -2
100
AcDbLine
 10
686.6999999999993
 20
-160.0
 30
0.0
 11
769.6
 21
-160.0
 31
0.0
  0
INSERT
  5
9B35
330
99DE
100
AcDbEntity
  8
30
 62
     0
370
    -2
100
AcDbBlockReference
  2
_OPEN
 10
684.6999999999994
 20
-160.0
 30
0.0
 41
2.0
 42
2.0
 43
2.0
 50
180.0
  0
INSERT
  5
9B36
330
99DE
100
AcDbEntity
  8
30
 62
     0
370
    -2
100
AcDbBlockReference
  2
_OPEN
 10
771.6
 20
-160.0
 30
0.0
 41
2.0
 42
2.0
 43
2.0
  0
MTEXT
  5
9B37
330
99DE
100
AcDbEntity
  8
30
 62
     0
100
AcDbMText
 10
728.1499999999996
 20
-155.0
 30
0.0
 40
6.0
 41
0.0
 71
     5
 72
     1
  1
\A1; 86.9 
 73
     1
 44
1.0
1001
ACAD
1000
MTEXTBEGIN
1070
    73
1070
     1
1070
    44
1040
1.0
1070
    74
1070
     0
1000
MTEXTEND
  0
POINT
  5
9B38
330
99DE
100
AcDbEntity
  8
DEFPOINTS
 62
     0
100
AcDbPoint
 10
684.6999999999994
 20
-101.2499999999997
 30
0.0
  0
POINT
  5
9B39
330
99DE
100
AcDbEntity
  8
DEFPOINTS
 62
     0
100
AcDbPoint
 10
771.6
 20
-160.0
 30
0.0
  0
POINT
  5
9B3A
330
99DE
100
AcDbEntity
  8
DEFPOINTS
 62
     0
100
AcDbPoint
 10
771.6
 20
-160.0
 30
0.0
  0
ENDBLK
  5
99E0
330
99DE
100
AcDbEntity
  8
0
100
AcDbBlockEnd
  0
BLOCK
  5
99EB
330
99EA
100
AcDbEntity
  8
0
100
AcDbBlockBegin
  2
*D108
 70
     1
 10
0.0
 20
0.0
 30
0.0
  3
*D108
  1

  0
LINE
  5
9B3B
330
99EA
100
AcDbEntity
  8
30
 62
     0
370
    -2
100
AcDbLine
 10
771.6
 20
-157.0
 30
0.0
 11
771.6
 21
-159.5
 31
0.0
  0
LINE
  5
9B3C
330
99EA
100
AcDbEntity
  8
30
 62
     0
370
    -2
100
AcDbLine
 10
784.7
 20
-102.2499999999999
 30
0.0
 11
784.7
 21
-160.5
 31
0.0
  0
LINE
  5
9B3D
330
99EA
100
AcDbEntity
  8
30
 62
     0
370
    -2
100
AcDbLine
 10
773.6
 20
-160.0
 30
0.0
 11
782.7
 21
-160.0
 31
0.0
  0
LINE
  5
9B3E
330
99EA
100
AcDbEntity
  8
30
 62
     0
370
    -2
100
AcDbLine
 10
784.7
 20
-160.0
 30
0.0
 11
808.3
 21
-160.0
 31
0.0
  0
INSERT
  5
9B3F
330
99EA
100
AcDbEntity
  8
30
 62
     0
370
    -2
100
AcDbBlockReference
  2
_OPEN
 10
771.6
 20
-160.0
 30
0.0
 41
2.0
 42
2.0
 43
2.0
 50
180.0
  0
INSERT
  5
9B40
330
99EA
100
AcDbEntity
  8
30
 62
     0
370
    -2
100
AcDbBlockReference
  2
_OPEN
 10
784.7
 20
-160.0
 30
0.0
 41
2.0
 42
2.0
 43
2.0
  0
MTEXT
  5
9B41
330
99EA
100
AcDbEntity
  8
30
 62
     0
100
AcDbMText
 10
797.5
 20
-155.0
 30
0.0
 40
6.0
 41
0.0
 71
     5
 72
     1
  1
\A1; 13.1 
 73
     1
 44
1.0
1001
ACAD
1000
MTEXTBEGIN
1070
    73
1070
     1
1070
    44
1040
1.0
1070
    74
1070
     0
1000
MTEXTEND
  0
POINT
  5
9B42
330
99EA
100
AcDbEntity
  8
DEFPOINTS
 62
     0
100
AcDbPoint
 10
771.6
 20
-160.0
 30
0.0
  0
POINT
  5
9B43
330
99EA
100
AcDbEntity
  8
DEFPOINTS
 62
     0
100
AcDbPoint
 10
784.7
 20
-99.2499999999999
 30
0.0
  0
POINT
  5
9B44
330
99EA
100
AcDbEntity
  8
DEFPOINTS
 62
     0
100
AcDbPoint
 10
784.7
 20
-160.0
 30
0.0
  0
ENDBLK
  5
99EC
330
99EA
100
AcDbEntity
  8
0
100
AcDbBlockEnd
  0
BLOCK
  5
9B6F
330
9B6E
100
AcDbEntity
  8
0
100
AcDbBlockBegin
  2
*D109
 70
     1
 10
0.0
 20
0.0
 30
0.0
  3
*D109
  1

  0
LINE
  5
A464
330
9B6E
100
AcDbEntity
  8
30
  6
Continuous
 62
     0
370
    -2
100
AcDbLine
 10
370.0000062386231
 20
372.5819837500784
 30
0.0
 11
370.0000062386231
 21
415.5
 31
0.0
  0
LINE
  5
A465
330
9B6E
100
AcDbEntity
  8
30
  6
Continuous
 62
     0
370
    -2
100
AcDbLine
 10
415.000006238623
 20
369.5665648324821
 30
0.0
 11
415.000006238623
 21
415.5
 31
0.0
  0
LINE
  5
A466
330
9B6E
100
AcDbEntity
  8
30
  6
Continuous
 62
     0
370
    -2
100
AcDbLine
 10
372.000006238623
 20
415.0
 30
0.0
 11
413.000006238623
 21
415.0
 31
0.0
  0
INSERT
  5
A467
330
9B6E
100
AcDbEntity
  8
30
  6
Continuous
 62
     0
370
    -2
100
AcDbBlockReference
  2
_OPEN
 10
370.0000062386231
 20
415.0
 30
0.0
 41
2.0
 42
2.0
 43
2.0
 50
180.0
  0
INSERT
  5
A468
330
9B6E
100
AcDbEntity
  8
30
  6
Continuous
 62
     0
370
    -2
100
AcDbBlockReference
  2
_OPEN
 10
415.000006238623
 20
415.0
 30
0.0
 41
2.0
 42
2.0
 43
2.0
  0
MTEXT
  5
A469
330
9B6E
100
AcDbEntity
  8
30
  6
Continuous
 62
     0
100
AcDbMText
 10
392.500006238623
 20
420.0
 30
0.0
 40
6.0
 41
0.0
 71
     5
 72
     1
  1
\A1;45
 73
     1
 44
1.0
1001
ACAD
1000
MTEXTBEGIN
1070
    73
1070
     1
1070
    44
1040
1.0
1070
    74
1070
     0
1000
MTEXTEND
  0
POINT
  5
A46A
330
9B6E
100
AcDbEntity
  8
DEFPOINTS
  6
Continuous
 62
     0
100
AcDbPoint
 10
370.0000062386231
 20
369.5819837500784
 30
0.0
  0
POINT
  5
A46B
330
9B6E
100
AcDbEntity
  8
DEFPOINTS
  6
Continuous
 62
     0
100
AcDbPoint
 10
415.000006238623
 20
366.5665648324821
 30
0.0
  0
POINT
  5
A46C
330
9B6E
100
AcDbEntity
  8
DEFPOINTS
  6
Continuous
 62
     0
100
AcDbPoint
 10
415.000006238623
 20
415.0
 30
0.0
  0
ENDBLK
  5
9B70
330
9B6E
100
AcDbEntity
  8
0
100
AcDbBlockEnd
  0
BLOCK
  5
9B85
330
9B84
100
AcDbEntity
  8
0
100
AcDbBlockBegin
  2
*D110
 70
     1
 10
0.0
 20
0.0
 30
0.0
  3
*D110
  1

  0
LINE
  5
A46D
330
9B84
100
AcDbEntity
  8
30
  6
Continuous
 62
     0
370
    -2
100
AcDbLine
 10
415.000006238623
 20
372.5819837500784
 30
0.0
 11
415.000006238623
 21
415.5
 31
0.0
  0
LINE
  5
A46E
330
9B84
100
AcDbEntity
  8
30
  6
Continuous
 62
     0
370
    -2
100
AcDbLine
 10
460.000006238623
 20
369.5665648324821
 30
0.0
 11
460.000006238623
 21
415.5
 31
0.0
  0
LINE
  5
A46F
330
9B84
100
AcDbEntity
  8
30
  6
Continuous
 62
     0
370
    -2
100
AcDbLine
 10
417.000006238623
 20
415.0
 30
0.0
 11
458.000006238623
 21
415.0
 31
0.0
  0
INSERT
  5
A470
330
9B84
100
AcDbEntity
  8
30
  6
Continuous
 62
     0
370
    -2
100
AcDbBlockReference
  2
_OPEN
 10
415.000006238623
 20
415.0
 30
0.0
 41
2.0
 42
2.0
 43
2.0
 50
180.0
  0
INSERT
  5
A471
330
9B84
100
AcDbEntity
  8
30
  6
Continuous
 62
     0
370
    -2
100
AcDbBlockReference
  2
_OPEN
 10
460.000006238623
 20
415.0
 30
0.0
 41
2.0
 42
2.0
 43
2.0
  0
MTEXT
  5
A472
330
9B84
100
AcDbEntity
  8
30
  6
Continuous
 62
     0
100
AcDbMText
 10
437.500006238623
 20
420.0
 30
0.0
 40
6.0
 41
0.0
 71
     5
 72
     1
  1
\A1;45
 73
     1
 44
1.0
1001
ACAD
1000
MTEXTBEGIN
1070
    73
1070
     1
1070
    44
1040
1.0
1070
    74
1070
     0
1000
MTEXTEND
  0
POINT
  5
A473
330
9B84
100
AcDbEntity
  8
DEFPOINTS
  6
Continuous
 62
     0
100
AcDbPoint
 10
415.000006238623
 20
369.5819837500784
 30
0.0
  0
POINT
  5
A474
330
9B84
100
AcDbEntity
  8
DEFPOINTS
  6
Continuous
 62
     0
100
AcDbPoint
 10
460.000006238623
 20
366.5665648324821
 30
0.0
  0
POINT
  5
A475
330
9B84
100
AcDbEntity
  8
DEFPOINTS
  6
Continuous
 62
     0
100
AcDbPoint
 10
460.000006238623
 20
415.0
 30
0.0
  0
ENDBLK
  5
9B86
330
9B84
100
AcDbEntity
  8
0
100
AcDbBlockEnd
  0
BLOCK
  5
A170
330
A16F
100
AcDbEntity
  8
0
100
AcDbBlockBegin
  2
*D133
 70
     1
 10
0.0
 20
0.0
 30
0.0
  3
*D133
  1

  0
LINE
  5
A476
330
A16F
100
AcDbEntity
  8
30
  6
Continuous
 62
     0
370
    -2
100
AcDbLine
 10
445.5000000000008
 20
-230.0
 30
0.0
 11
565.4999999999995
 21
-230.0
 31
0.0
  0
LINE
  5
A477
330
A16F
100
AcDbEntity
  8
30
  6
Continuous
 62
     0
370
    -2
100
AcDbLine
 10
487.9999999999995
 20
-120.0
 30
0.0
 11
565.4999999999995
 21
-120.0
 31
0.0
  0
LINE
  5
A478
330
A16F
100
AcDbEntity
  8
30
  6
Continuous
 62
     0
370
    -2
100
AcDbLine
 10
564.9999999999995
 20
-228.0
 30
0.0
 11
564.9999999999995
 21
-122.0
 31
0.0
  0
INSERT
  5
A479
330
A16F
100
AcDbEntity
  8
30
  6
Continuous
 62
     0
370
    -2
100
AcDbBlockReference
  2
_OPEN
 10
564.9999999999995
 20
-230.0
 30
0.0
 41
2.0
 42
2.0
 43
2.0
 50
270.0
  0
INSERT
  5
A47A
330
A16F
100
AcDbEntity
  8
30
  6
Continuous
 62
     0
370
    -2
100
AcDbBlockReference
  2
_OPEN
 10
564.9999999999995
 20
-120.0
 30
0.0
 41
2.0
 42
2.0
 43
2.0
 50
90.0
  0
MTEXT
  5
A47B
330
A16F
100
AcDbEntity
  8
30
  6
Continuous
 62
     0
100
AcDbMText
 10
559.9999999999995
 20
-174.9999999999999
 30
0.0
 40
6.0
 41
0.0
 71
     5
 72
     1
  1
\A1;110
 11
0.0000000000000001
 21
1.0
 31
0.0
 73
     1
 44
1.0
1001
ACAD
1000
MTEXTBEGIN
1070
    73
1070
     1
1070
    44
1040
1.0
1070
    74
1070
     0
1000
MTEXTEND
  0
POINT
  5
A47C
330
A16F
100
AcDbEntity
  8
DEFPOINTS
  6
Continuous
 62
     0
100
AcDbPoint
 10
442.5000000000009
 20
-230.0
 30
0.0
  0
POINT
  5
A47D
330
A16F
100
AcDbEntity
  8
DEFPOINTS
  6
Continuous
 62
     0
100
AcDbPoint
 10
484.9999999999995
 20
-120.0
 30
0.0
  0
POINT
  5
A47E
330
A16F
100
AcDbEntity
  8
DEFPOINTS
  6
Continuous
 62
     0
100
AcDbPoint
 10
564.9999999999995
 20
-120.0
 30
0.0
  0
ENDBLK
  5
A171
330
A16F
100
AcDbEntity
  8
0
100
AcDbBlockEnd
  0
BLOCK
  5
A4B7
330
A4B6
100
AcDbEntity
  8
0
100
AcDbBlockBegin
  2
*D140
 70
     1
 10
0.0
 20
0.0
 30
0.0
  3
*D140
  1

  0
LINE
  5
A4D4
330
A4B6
100
AcDbEntity
  8
30
  6
Continuous
 62
     0
370
    -2
100
AcDbLine
 10
313.0000000000009
 20
124.0
 30
0.0
 11
209.5000000000001
 21
124.0
 31
0.0
  0
LINE
  5
A4D5
330
A4B6
100
AcDbEntity
  8
30
  6
Continuous
 62
     0
370
    -2
100
AcDbLine
 10
313.0000000000009
 20
-104.0
 30
0.0
 11
209.5
 21
-104.0
 31
0.0
  0
LINE
  5
A4D6
330
A4B6
100
AcDbEntity
  8
30
  6
Continuous
 62
     0
370
    -2
100
AcDbLine
 10
210.0
 20
122.0
 30
0.0
 11
210.0
 21
-102.0
 31
0.0
  0
INSERT
  5
A4D7
330
A4B6
100
AcDbEntity
  8
30
  6
Continuous
 62
     0
370
    -2
100
AcDbBlockReference
  2
_OPEN
 10
210.0
 20
124.0
 30
0.0
 41
2.0
 42
2.0
 43
2.0
 50
90.0
  0
INSERT
  5
A4D8
330
A4B6
100
AcDbEntity
  8
30
  6
Continuous
 62
     0
370
    -2
100
AcDbBlockReference
  2
_OPEN
 10
210.0
 20
-104.0
 30
0.0
 41
2.0
 42
2.0
 43
2.0
 50
270.0
  0
MTEXT
  5
A4D9
330
A4B6
100
AcDbEntity
  8
30
  6
Continuous
 62
     0
100
AcDbMText
 10
205.0
 20
10.00000000000006
 30
0.0
 40
6.0
 41
0.0
 71
     5
 72
     1
  1
\A1;228
 11
0.0000000000000001
 21
1.0
 31
0.0
 73
     1
 44
1.0
1001
ACAD
1000
MTEXTBEGIN
1070
    73
1070
     1
1070
    44
1040
1.0
1070
    74
1070
     0
1000
MTEXTEND
  0
POINT
  5
A4DA
330
A4B6
100
AcDbEntity
  8
DEFPOINTS
  6
Continuous
 62
     0
100
AcDbPoint
 10
316.0000000000009
 20
124.0
 30
0.0
  0
POINT
  5
A4DB
330
A4B6
100
AcDbEntity
  8
DEFPOINTS
  6
Continuous
 62
     0
100
AcDbPoint
 10
316.0000000000009
 20
-104.0
 30
0.0
  0
POINT
  5
A4DC
330
A4B6
100
AcDbEntity
  8
DEFPOINTS
  6
Continuous
 62
     0
100
AcDbPoint
 10
210.0
 20
-104.0
 30
0.0
  0
ENDBLK
  5
A4B8
330
A4B6
100
AcDbEntity
  8
0
100
AcDbBlockEnd
  0
BLOCK
  5
A511
330
A510
100
AcDbEntity
  8
0
100
AcDbBlockBegin
  2
*D145
 70
     1
 10
0.0
 20
0.0
 30
0.0
  3
*D145
  1

  0
LINE
  5
A534
330
A510
100
AcDbEntity
  8
30
  6
Continuous
 62
     0
370
    -2
100
AcDbLine
 10
325.0
 20
-116.0000000000002
 30
0.0
 11
325.0
 21
-210.5
 31
0.0
  0
LINE
  5
A535
330
A510
100
AcDbEntity
  8
30
  6
Continuous
 62
     0
370
    -2
100
AcDbLine
 10
370.0
 20
-205.0
 30
0.0
 11
370.0
 21
-210.5
 31
0.0
  0
LINE
  5
A536
330
A510
100
AcDbEntity
  8
30
  6
Continuous
 62
     0
370
    -2
100
AcDbLine
 10
327.0
 20
-210.0
 30
0.0
 11
368.0
 21
-210.0
 31
0.0
  0
INSERT
  5
A537
330
A510
100
AcDbEntity
  8
30
  6
Continuous
 62
     0
370
    -2
100
AcDbBlockReference
  2
_OPEN
 10
325.0
 20
-210.0
 30
0.0
 41
2.0
 42
2.0
 43
2.0
 50
180.0
  0
INSERT
  5
A538
330
A510
100
AcDbEntity
  8
30
  6
Continuous
 62
     0
370
    -2
100
AcDbBlockReference
  2
_OPEN
 10
370.0
 20
-210.0
 30
0.0
 41
2.0
 42
2.0
 43
2.0
  0
MTEXT
  5
A539
330
A510
100
AcDbEntity
  8
30
  6
Continuous
 62
     0
100
AcDbMText
 10
357.5
 20
-205.0
 30
0.0
 40
6.0
 41
0.0
 71
     5
 72
     1
  1
\A1;45
 73
     1
 44
1.0
1001
ACAD
1000
MTEXTBEGIN
1070
    73
1070
     1
1070
    44
1040
1.0
1070
    74
1070
     0
1000
MTEXTEND
  0
POINT
  5
A53A
330
A510
100
AcDbEntity
  8
DEFPOINTS
  6
Continuous
 62
     0
100
AcDbPoint
 10
325.0
 20
-113.0000000000002
 30
0.0
  0
POINT
  5
A53B
330
A510
100
AcDbEntity
  8
DEFPOINTS
  6
Continuous
 62
     0
100
AcDbPoint
 10
370.0
 20
-202.0
 30
0.0
  0
POINT
  5
A53C
330
A510
100
AcDbEntity
  8
DEFPOINTS
  6
Continuous
 62
     0
100
AcDbPoint
 10
370.0
 20
-210.0
 30
0.0
  0
ENDBLK
  5
A512
330
A510
100
AcDbEntity
  8
0
100
AcDbBlockEnd
  0
BLOCK
  5
A51D
330
A51C
100
AcDbEntity
  8
0
100
AcDbBlockBegin
  2
*D146
 70
     1
 10
0.0
 20
0.0
 30
0.0
  3
*D146
  1

  0
LINE
  5
A53D
330
A51C
100
AcDbEntity
  8
30
  6
Continuous
 62
     0
370
    -2
100
AcDbLine
 10
370.0
 20
-116.0000000000002
 30
0.0
 11
370.0
 21
-210.5
 31
0.0
  0
LINE
  5
A53E
330
A51C
100
AcDbEntity
  8
30
  6
Continuous
 62
     0
370
    -2
100
AcDbLine
 10
415.0
 20
-116.0000000000002
 30
0.0
 11
415.0
 21
-210.5
 31
0.0
  0
LINE
  5
A53F
330
A51C
100
AcDbEntity
  8
30
  6
Continuous
 62
     0
370
    -2
100
AcDbLine
 10
372.0
 20
-210.0
 30
0.0
 11
413.0
 21
-210.0
 31
0.0
  0
INSERT
  5
A540
330
A51C
100
AcDbEntity
  8
30
  6
Continuous
 62
     0
370
    -2
100
AcDbBlockReference
  2
_OPEN
 10
370.0
 20
-210.0
 30
0.0
 41
2.0
 42
2.0
 43
2.0
 50
180.0
  0
INSERT
  5
A541
330
A51C
100
AcDbEntity
  8
30
  6
Continuous
 62
     0
370
    -2
100
AcDbBlockReference
  2
_OPEN
 10
415.0
 20
-210.0
 30
0.0
 41
2.0
 42
2.0
 43
2.0
  0
MTEXT
  5
A542
330
A51C
100
AcDbEntity
  8
30
  6
Continuous
 62
     0
100
AcDbMText
 10
402.5
 20
-205.0
 30
0.0
 40
6.0
 41
0.0
 71
     5
 72
     1
  1
\A1;45
 73
     1
 44
1.0
1001
ACAD
1000
MTEXTBEGIN
1070
    73
1070
     1
1070
    44
1040
1.0
1070
    74
1070
     0
1000
MTEXTEND
  0
POINT
  5
A543
330
A51C
100
AcDbEntity
  8
DEFPOINTS
  6
Continuous
 62
     0
100
AcDbPoint
 10
370.0
 20
-113.0000000000002
 30
0.0
  0
POINT
  5
A544
330
A51C
100
AcDbEntity
  8
DEFPOINTS
  6
Continuous
 62
     0
100
AcDbPoint
 10
415.0
 20
-113.0000000000002
 30
0.0
  0
POINT
  5
A545
330
A51C
100
AcDbEntity
  8
DEFPOINTS
  6
Continuous
 62
     0
100
AcDbPoint
 10
415.0
 20
-210.0
 30
0.0
  0
ENDBLK
  5
A51E
330
A51C
100
AcDbEntity
  8
0
100
AcDbBlockEnd
  0
BLOCK
  5
A529
330
A528
100
AcDbEntity
  8
0
100
AcDbBlockBegin
  2
*D147
 70
     1
 10
0.0
 20
0.0
 30
0.0
  3
*D147
  1

  0
LINE
  5
A546
330
A528
100
AcDbEntity
  8
30
  6
Continuous
 62
     0
370
    -2
100
AcDbLine
 10
415.0
 20
-116.0000000000002
 30
0.0
 11
415.0
 21
-210.5
 31
0.0
  0
LINE
  5
A547
330
A528
100
AcDbEntity
  8
30
  6
Continuous
 62
     0
370
    -2
100
AcDbLine
 10
460.0000000000009
 20
-116.0000000000002
 30
0.0
 11
460.0000000000009
 21
-210.5
 31
0.0
  0
LINE
  5
A548
330
A528
100
AcDbEntity
  8
30
  6
Continuous
 62
     0
370
    -2
100
AcDbLine
 10
417.0
 20
-210.0
 30
0.0
 11
458.0000000000008
 21
-210.0
 31
0.0
  0
INSERT
  5
A549
330
A528
100
AcDbEntity
  8
30
  6
Continuous
 62
     0
370
    -2
100
AcDbBlockReference
  2
_OPEN
 10
415.0
 20
-210.0
 30
0.0
 41
2.0
 42
2.0
 43
2.0
 50
180.0
  0
INSERT
  5
A54A
330
A528
100
AcDbEntity
  8
30
  6
Continuous
 62
     0
370
    -2
100
AcDbBlockReference
  2
_OPEN
 10
460.0000000000009
 20
-210.0
 30
0.0
 41
2.0
 42
2.0
 43
2.0
  0
MTEXT
  5
A54B
330
A528
100
AcDbEntity
  8
30
  6
Continuous
 62
     0
100
AcDbMText
 10
427.5000000000004
 20
-205.0
 30
0.0
 40
6.0
 41
0.0
 71
     5
 72
     1
  1
\A1;45
 73
     1
 44
1.0
1001
ACAD
1000
MTEXTBEGIN
1070
    73
1070
     1
1070
    44
1040
1.0
1070
    74
1070
     0
1000
MTEXTEND
  0
POINT
  5
A54C
330
A528
100
AcDbEntity
  8
DEFPOINTS
  6
Continuous
 62
     0
100
AcDbPoint
 10
415.0
 20
-113.0000000000002
 30
0.0
  0
POINT
  5
A54D
330
A528
100
AcDbEntity
  8
DEFPOINTS
  6
Continuous
 62
     0
100
AcDbPoint
 10
460.0000000000009
 20
-113.0000000000002
 30
0.0
  0
POINT
  5
A54E
330
A528
100
AcDbEntity
  8
DEFPOINTS
  6
Continuous
 62
     0
100
AcDbPoint
 10
460.0000000000009
 20
-210.0
 30
0.0
  0
ENDBLK
  5
A52A
330
A528
100
AcDbEntity
  8
0
100
AcDbBlockEnd
  0
ENDSEC
  0
SECTION
  2
ENTITIES
  0
LINE
  5
96E3
330
1E
100
AcDbEntity
  8
16
100
AcDbLine
 10
798.0096179068368
 20
9.999999999999886
 30
0.0
 11
614.2286236157302
 21
9.999999999999886
 31
0.0
  0
LINE
  5
96E4
330
1E
100
AcDbEntity
  8
16
100
AcDbLine
 10
835.0
 20
-400.0
 30
0.0
 11
630.0
 21
-400.0
 31
0.0
  0
LINE
  5
96E5
330
1E
100
AcDbEntity
  8
16
100
AcDbLine
 10
370.0
 20
-540.0
 30
0.0
 11
370.0
 21
-260.0
 31
0.0
  0
LINE
  5
96E6
330
1E
100
AcDbEntity
  8
16
100
AcDbLine
 10
495.0
 20
-400.0
 30
0.0
 11
290.0
 21
-400.0
 31
0.0
  0
LINE
  5
96E7
330
1E
100
AcDbEntity
  8
16
100
AcDbLine
 10
710.0
 20
-540.0
 30
0.0
 11
710.0
 21
-260.0
 31
0.0
  0
LINE
  5
96E8
330
1E
100
AcDbEntity
  8
10
  6
CONTINOUS
100
AcDbLine
 10
659.0
 20
11.49999999999988
 30
0.0
 11
659.0
 21
-35.00000000000011
 31
0.0
  0
LINE
  5
96E9
330
1E
100
AcDbEntity
  8
10
  6
CONTINOUS
100
AcDbLine
 10
770.0
 20
140.0
 30
0.0
 11
770.0
 21
-120.0
 31
0.0
  0
LINE
  5
96EA
330
1E
100
AcDbEntity
  8
10
  6
CONTINOUS
100
AcDbLine
 10
663.0
 20
55.0
 30
0.0
 11
663.0
 21
-35.00000000000011
 31
0.0
  0
LINE
  5
96EB
330
1E
100
AcDbEntity
  8
10
  6
CONTINOUS
100
AcDbLine
 10
667.0
 20
61.0
 30
0.0
 11
667.0
 21
-41.00000000000011
 31
0.0
  0
LINE
  5
96EC
330
1E
100
AcDbEntity
  8
10
  6
CONTINOUS
100
AcDbLine
 10
672.9999999999997
 20
-120.0
 30
0.0
 11
770.0
 21
-120.0
 31
0.0
  0
LINE
  5
96ED
330
1E
100
AcDbEntity
  8
10
  6
CONTINOUS
100
AcDbLine
 10
667.0
 20
-41.00000000000011
 30
0.0
 11
672.9999999999997
 21
-41.00000000000011
 31
0.0
  0
LINE
  5
96EE
330
1E
100
AcDbEntity
  8
10
  6
CONTINOUS
100
AcDbLine
 10
659.0
 20
-35.00000000000011
 30
0.0
 11
667.0
 21
-35.00000000000011
 31
0.0
  0
LINE
  5
96EF
330
1E
100
AcDbEntity
  8
10
  6
CONTINOUS
100
AcDbLine
 10
672.9999999999997
 20
-41.00000000000011
 30
0.0
 11
672.9999999999997
 21
-120.0
 31
0.0
  0
LINE
  5
96F0
330
1E
100
AcDbEntity
  8
10
  6
CONTINOUS
100
AcDbLine
 10
770.0
 20
140.0
 30
0.0
 11
672.9999999999997
 21
140.0
 31
0.0
  0
LINE
  5
96F1
330
1E
100
AcDbEntity
  8
10
  6
CONTINOUS
100
AcDbLine
 10
659.0
 20
27.03370272535199
 30
0.0
 11
628.3490118975478
 21
38.03853193396594
 31
0.0
  0
LINE
  5
96F2
330
1E
100
AcDbEntity
  8
10
  6
CONTINOUS
100
AcDbLine
 10
659.0
 20
39.78370889367909
 30
0.0
 11
632.4040125135874
 21
49.33264411704192
 31
0.0
  0
LINE
  5
96F3
330
1E
100
AcDbEntity
  8
10
  6
CONTINOUS
100
AcDbLine
 10
632.4040125135874
 20
49.33264411704192
 30
0.0
 11
628.3490118975473
 21
38.0385319339656
 31
0.0
  0
LINE
  5
96F4
330
1E
100
AcDbEntity
  8
10
  6
CONTINOUS
100
AcDbLine
 10
648.1987593445674
 20
41.53674952147139
 30
0.0
 11
645.4954256005404
 21
34.00734139942028
 31
0.0
  0
LINE
  5
96F5
330
1E
100
AcDbEntity
  8
10
  6
CONTINOUS
100
AcDbLine
 10
659.0
 20
55.0
 30
0.0
 11
659.0
 21
9.999999999999886
 31
0.0
  0
LINE
  5
96F6
330
1E
100
AcDbEntity
  8
10
  6
CONTINOUS
100
AcDbLine
 10
659.0
 20
29.15870375340671
 30
0.0
 11
645.4954256005404
 21
34.00734139942006
 31
0.0
  0
LINE
  5
96F7
330
1E
100
AcDbEntity
  8
10
  6
CONTINOUS
100
AcDbLine
 10
659.0
 20
37.65870786562459
 30
0.0
 11
648.1987593445674
 21
41.53674952147082
 31
0.0
  0
LINE
  5
96F8
330
1E
100
AcDbEntity
  8
10
  6
CONTINOUS
100
AcDbLine
 10
659.0
 20
55.0
 30
0.0
 11
667.0
 21
55.0
 31
0.0
  0
LINE
  5
96F9
330
1E
100
AcDbEntity
  8
10
  6
CONTINOUS
100
AcDbLine
 10
667.0
 20
61.0
 30
0.0
 11
672.9999999999997
 21
61.0
 31
0.0
  0
LINE
  5
96FA
330
1E
100
AcDbEntity
  8
10
  6
CONTINOUS
100
AcDbLine
 10
672.9999999999997
 20
140.0
 30
0.0
 11
672.9999999999997
 21
61.0
 31
0.0
  0
LINE
  5
96FB
330
1E
100
AcDbEntity
  8
12
  6
DASHED
100
AcDbLine
 10
684.6999999999994
 20
-99.2499999999999
 30
0.0
 11
770.0
 21
-99.2499999999999
 31
0.0
  0
LINE
  5
96FC
330
1E
100
AcDbEntity
  8
12
  6
DASHED
100
AcDbLine
 10
684.6999999999994
 20
-94.74999999999978
 30
0.0
 11
770.0
 21
-94.74999999999978
 31
0.0
  0
LINE
  5
96FD
330
1E
100
AcDbEntity
  8
12
  6
DASHED
100
AcDbLine
 10
669.0
 20
-96.99999999999977
 30
0.0
 11
794.0
 21
-96.99999999999977
 31
0.0
  0
LINE
  5
96FE
330
1E
100
AcDbEntity
  8
12
  6
DASHED
100
AcDbLine
 10
672.9999999999997
 20
-101.2499999999997
 30
0.0
 11
684.6999999999994
 21
-101.2499999999997
 31
0.0
  0
LINE
  5
96FF
330
1E
100
AcDbEntity
  8
12
  6
DASHED
100
AcDbLine
 10
672.9999999999997
 20
-92.74999999999977
 30
0.0
 11
684.6999999999994
 21
-92.74999999999977
 31
0.0
  0
LINE
  5
9700
330
1E
100
AcDbEntity
  8
12
  6
DASHED
100
AcDbLine
 10
678.6999999999996
 20
-92.74999999999977
 30
0.0
 11
678.6999999999996
 21
-101.2499999999997
 31
0.0
  0
LINE
  5
9701
330
1E
100
AcDbEntity
  8
12
  6
DASHED
100
AcDbLine
 10
684.6999999999994
 20
-92.74999999999977
 30
0.0
 11
684.6999999999994
 21
-101.2499999999997
 31
0.0
  0
LINE
  5
9702
330
1E
100
AcDbEntity
  8
12
  6
DASHED
100
AcDbLine
 10
684.6999999999994
 20
-99.2499999999999
 30
0.0
 11
684.6999999999994
 21
-101.2499999999997
 31
0.0
  0
LINE
  5
9703
330
1E
100
AcDbEntity
  8
12
  6
DASHED
100
AcDbLine
 10
684.6999999999994
 20
-92.74999999999977
 30
0.0
 11
684.6999999999994
 21
-94.74999999999978
 31
0.0
  0
LINE
  5
9704
330
1E
100
AcDbEntity
  8
12
  6
DASHED
100
AcDbLine
 10
770.0
 20
-99.2499999999999
 30
0.0
 11
784.7
 21
-99.2499999999999
 31
0.0
  0
LINE
  5
9705
330
1E
100
AcDbEntity
  8
12
  6
DASHED
100
AcDbLine
 10
770.0
 20
-94.74999999999978
 30
0.0
 11
784.7
 21
-94.74999999999978
 31
0.0
  0
LINE
  5
9706
330
1E
100
AcDbEntity
  8
12
  6
DASHED
100
AcDbLine
 10
784.7
 20
-94.74999999999978
 30
0.0
 11
784.7
 21
-99.2499999999999
 31
0.0
  0
LINE
  5
9707
330
1E
100
AcDbEntity
  8
24
  6
CONTINOUS
100
AcDbLine
 10
816.011418228175
 20
174.7621828604459
 30
0.0
 11
816.0114182281752
 21
159.7621828604459
 31
0.0
  0
LINE
  5
9708
330
1E
100
AcDbEntity
  8
24
  6
CONTINOUS
100
AcDbLine
 10
828.5114182281752
 20
182.9120863596154
 30
0.0
 11
828.5114182281752
 21
155.2621828604459
 31
0.0
  0
LINE
  5
9709
330
1E
100
AcDbEntity
  8
24
  6
CONTINOUS
100
AcDbLine
 10
803.5114182281752
 20
184.4034650513458
 30
0.0
 11
803.5114182281752
 21
155.2621828604459
 31
0.0
  0
LINE
  5
970A
330
1E
100
AcDbEntity
  8
24
  6
CONTINOUS
100
AcDbLine
 10
803.5114182281752
 20
155.2621828604459
 30
0.0
 11
828.5114182281752
 21
155.2621828604459
 31
0.0
  0
LINE
  5
970B
330
1E
100
AcDbEntity
  8
24
  6
CONTINOUS
100
AcDbLine
 10
808.5114182281749
 20
167.2621828604459
 30
0.0
 11
823.5114182281749
 21
167.2621828604459
 31
0.0
  0
CIRCLE
  5
970C
330
1E
100
AcDbEntity
  8
24
  6
CONTINOUS
100
AcDbCircle
 10
816.011418228175
 20
167.2621828604459
 30
0.0
 40
5.5
  0
ARC
  5
970D
330
1E
100
AcDbEntity
  8
24
  6
CONTINOUS
100
AcDbCircle
 10
820.9990000491215
 20
187.7581008892937
 30
0.0
 40
7.5
100
AcDbArc
 50
251.3586110284597
 51
294.2039969225344
  0
LINE
  5
970E
330
1E
100
AcDbEntity
  8
24
  6
CONTINOUS
100
AcDbLine
 10
807.1935691810724
 20
183.4879699641258
 30
0.0
 11
818.6016710307807
 21
180.6515677276304
 31
0.0
  0
ARC
  5
970F
330
1E
100
AcDbEntity
  8
24
  6
CONTINOUS
100
AcDbCircle
 10
804.6364182281749
 20
175.9076679250182
 30
0.0
 40
8.0
100
AcDbArc
 50
71.35861102845979
 51
97.54313196795749
  0
LINE
  5
9710
330
1E
100
AcDbEntity
  8
24
  6
CONTINOUS
100
AcDbLine
 10
824.0739000129911
 20
180.9174145047124
 30
0.0
 11
828.5114182281752
 21
182.9120863596154
 31
0.0
  0
CIRCLE
  5
9711
330
1E
100
AcDbEntity
  8
12
  6
Continuous
 62
     3
100
AcDbCircle
 10
-392.5
 20
-293.0
 30
0.0
 40
3.0
210
0.0
220
0.0
230
-1.0
  0
CIRCLE
  5
9712
330
1E
100
AcDbEntity
  8
12
  6
Continuous
 62
     3
100
AcDbCircle
 10
347.5
 20
-293.0
 30
0.0
 40
3.0
  0
LINE
  5
9713
330
1E
100
AcDbEntity
  8
18
  6
DIVIDE
100
AcDbLine
 10
300.0
 20
-270.0
 30
0.0
 11
300.0
 21
-529.9999999999998
 31
0.0
  0
LINE
  5
9714
330
1E
100
AcDbEntity
  8
18
  6
DIVIDE
100
AcDbLine
 10
485.0
 20
-529.9999999999998
 30
0.0
 11
485.0
 21
-270.0
 31
0.0
  0
LINE
  5
9715
330
1E
100
AcDbEntity
  8
12
  6
Continuous
 62
     3
100
AcDbLine
 10
392.5
 20
-286.0
 30
0.0
 11
392.5
 21
-300.0
 31
0.0
  0
LINE
  5
9716
330
1E
100
AcDbEntity
  8
12
  6
Continuous
 62
     3
100
AcDbLine
 10
347.5
 20
-286.0
 30
0.0
 11
347.5
 21
-300.0
 31
0.0
  0
LINE
  5
9717
330
1E
100
AcDbEntity
  8
18
  6
DIVIDE
100
AcDbLine
 10
300.0
 20
-529.9999999999998
 30
0.0
 11
485.0
 21
-529.9999999999998
 31
0.0
  0
LINE
  5
9718
330
1E
100
AcDbEntity
  8
12
  6
Continuous
 62
     3
100
AcDbLine
 10
340.5
 20
-506.9999999999999
 30
0.0
 11
354.5
 21
-506.9999999999999
 31
0.0
  0
CIRCLE
  5
9719
330
1E
100
AcDbEntity
  8
12
  6
Continuous
 62
     3
100
AcDbCircle
 10
-347.5
 20
-506.9999999999999
 30
0.0
 40
3.0
210
0.0
220
0.0
230
-1.0
  0
LINE
  5
971A
330
1E
100
AcDbEntity
  8
12
  6
Continuous
 62
     3
100
AcDbLine
 10
347.5
 20
-499.9999999999999
 30
0.0
 11
347.5
 21
-513.9999999999998
 31
0.0
  0
LINE
  5
971B
330
1E
100
AcDbEntity
  8
12
  6
Continuous
 62
     3
100
AcDbLine
 10
385.5
 20
-506.9999999999999
 30
0.0
 11
399.5
 21
-506.9999999999999
 31
0.0
  0
CIRCLE
  5
971C
330
1E
100
AcDbEntity
  8
12
  6
Continuous
 62
     3
100
AcDbCircle
 10
392.5
 20
-506.9999999999999
 30
0.0
 40
3.0
  0
LINE
  5
971D
330
1E
100
AcDbEntity
  8
12
  6
Continuous
 62
     3
100
AcDbLine
 10
392.5
 20
-499.9999999999999
 30
0.0
 11
392.5
 21
-513.9999999999998
 31
0.0
  0
LINE
  5
971E
330
1E
100
AcDbEntity
  8
18
  6
DIVIDE
100
AcDbLine
 10
485.0
 20
-270.0
 30
0.0
 11
300.0
 21
-270.0
 31
0.0
  0
LINE
  5
971F
330
1E
100
AcDbEntity
  8
12
  6
Continuous
 62
     3
100
AcDbLine
 10
340.5
 20
-293.0
 30
0.0
 11
354.5
 21
-293.0
 31
0.0
  0
LINE
  5
9720
330
1E
100
AcDbEntity
  8
12
  6
Continuous
 62
     3
100
AcDbLine
 10
385.5
 20
-293.0
 30
0.0
 11
399.5
 21
-293.0
 31
0.0
  0
ARC
  5
9721
330
1E
100
AcDbEntity
  8
11
 48
2.0
100
AcDbCircle
 10
763.0
 20
-440.0
 30
0.0
 40
6.0
100
AcDbArc
 50
270.0
 51
0.0
  0
ARC
  5
9722
330
1E
100
AcDbEntity
  8
11
 48
2.0
100
AcDbCircle
 10
657.0
 20
-440.0
 30
0.0
 40
6.0
100
AcDbArc
 50
180.0
 51
270.0
  0
LINE
  5
9723
330
1E
100
AcDbEntity
  8
18
  6
DIVIDE
100
AcDbLine
 10
640.0
 20
-269.9999999999999
 30
0.0
 11
640.0
 21
-530.0
 31
0.0
  0
LINE
  5
9724
330
1E
100
AcDbEntity
  8
18
  6
DIVIDE
100
AcDbLine
 10
825.0
 20
-530.0
 30
0.0
 11
825.0
 21
-269.9999999999999
 31
0.0
  0
LINE
  5
9725
330
1E
100
AcDbEntity
  8
11
 48
2.0
100
AcDbLine
 10
657.0
 20
-446.0
 30
0.0
 11
763.0
 21
-446.0
 31
0.0
  0
LINE
  5
9726
330
1E
100
AcDbEntity
  8
18
  6
DIVIDE
100
AcDbLine
 10
640.0
 20
-530.0
 30
0.0
 11
825.0
 21
-530.0
 31
0.0
  0
LINE
  5
9727
330
1E
100
AcDbEntity
  8
11
 48
2.0
100
AcDbLine
 10
657.0
 20
-353.9999999999999
 30
0.0
 11
763.0
 21
-353.9999999999999
 31
0.0
  0
LINE
  5
9728
330
1E
100
AcDbEntity
  8
18
  6
DIVIDE
100
AcDbLine
 10
825.0
 20
-269.9999999999999
 30
0.0
 11
640.0
 21
-269.9999999999999
 31
0.0
  0
LINE
  5
9729
330
1E
100
AcDbEntity
  8
11
 48
2.0
100
AcDbLine
 10
651.0
 20
-359.9999999999999
 30
0.0
 11
651.0
 21
-440.0
 31
0.0
  0
ARC
  5
972A
330
1E
100
AcDbEntity
  8
11
 48
2.0
100
AcDbCircle
 10
657.0
 20
-359.9999999999999
 30
0.0
 40
6.0
100
AcDbArc
 50
90.0
 51
180.0
  0
LINE
  5
972B
330
1E
100
AcDbEntity
  8
11
 48
2.0
100
AcDbLine
 10
769.0
 20
-359.9999999999999
 30
0.0
 11
769.0
 21
-440.0
 31
0.0
  0
ARC
  5
972C
330
1E
100
AcDbEntity
  8
11
 48
2.0
100
AcDbCircle
 10
763.0
 20
-359.9999999999999
 30
0.0
 40
6.0
100
AcDbArc
 50
0.0
 51
90.0
  0
DIMENSION
  5
972D
330
1E
100
AcDbEntity
  8
30
  6
Continuous
100
AcDbDimension
  2
*D72
 10
270.0
 20
-506.9999999999999
 30
0.0
 11
265.0000000000001
 21
-399.9999999999999
 31
0.0
 70
    32
 71
     5
 42
213.9999999999999
  3
STANDARD1
100
AcDbAlignedDimension
 13
335.9543038626071
 23
-293.0
 33
0.0
 14
335.9543038626071
 24
-506.9999999999999
 34
0.0
 50
90.0
100
AcDbRotatedDimension
  0
DIMENSION
  5
972E
330
1E
100
AcDbEntity
  8
30
  6
Continuous
100
AcDbDimension
  2
*D73
 10
392.5
 20
-550.0
 30
0.0
 11
370.0
 21
-545.0
 31
0.0
 70
    32
 71
     5
 42
45.0
  3
STANDARD1
100
AcDbAlignedDimension
 13
347.5
 23
-513.9999999999998
 33
0.0
 14
392.5
 24
-513.9999999999998
 34
0.0
100
AcDbRotatedDimension
  0
DIMENSION
  5
972F
330
1E
100
AcDbEntity
  8
30
  6
Continuous
100
AcDbDimension
  2
*D74
 10
762.9999999999995
 20
-360.0000000000004
 30
0.0
 11
799.9930829733999
 21
-346.0312994595852
 31
0.0
 70
   164
 71
     5
 42
6.000000000000682
  3
STANDARD
100
AcDbRadialDimension
 15
768.4700873851312
 25
-357.5346107814322
 35
0.0
 40
0.0
1001
ACAD
1000
DSTYLE
1002
{
1070
   140
1040
6.0
1070
    79
1070
     3
1070
   288
1070
     1
1002
}
  0
DIMENSION
  5
9730
330
1E
100
AcDbEntity
  8
30
  6
Continuous
100
AcDbDimension
  2
*D75
 10
769.0
 20
-470.0
 30
0.0
 11
710.0
 21
-465.0
 31
0.0
 70
    32
 71
     5
 42
118.0
  3
STANDARD1
100
AcDbAlignedDimension
 13
651.0
 23
-440.0
 33
0.0
 14
769.0
 24
-440.0
 34
0.0
100
AcDbRotatedDimension
  0
DIMENSION
  5
9731
330
1E
100
AcDbEntity
  8
30
  6
Continuous
100
AcDbDimension
  2
*D76
 10
845.0
 20
-446.0
 30
0.0
 11
840.0000000000002
 21
-399.9999999999998
 31
0.0
 70
    32
 71
     5
 42
92.00000000000011
  3
STANDARD1
100
AcDbAlignedDimension
 13
763.0
 23
-353.9999999999999
 33
0.0
 14
763.0
 24
-446.0
 34
0.0
 50
90.0
100
AcDbRotatedDimension
  0
DIMENSION
  5
9732
330
1E
100
AcDbEntity
  8
30
  6
Continuous
100
AcDbDimension
  2
*D77
 10
828.5114182281752
 20
139.6759028429515
 30
0.0
 11
816.0114182281752
 21
144.6759028429514
 31
0.0
 70
    32
 71
     5
 42
25.0
  3
STANDARD1
100
AcDbAlignedDimension
 13
803.5114182281752
 23
155.2621828604459
 33
0.0
 14
828.5114182281752
 24
155.2621828604459
 34
0.0
100
AcDbRotatedDimension
  0
DIMENSION
  5
9733
330
1E
100
AcDbEntity
  8
30
  6
Continuous
100
AcDbDimension
  2
*D78
 10
844.9537479063639
 20
167.2621828604459
 30
0.0
 11
839.953747906364
 21
175.262182860446
 31
0.0
 70
    32
 71
     5
 42
12.0
  3
STANDARD1
100
AcDbAlignedDimension
 13
828.5114182281752
 23
155.2621828604459
 33
0.0
 14
823.5114182281749
 24
167.2621828604459
 34
0.0
 50
90.0
100
AcDbRotatedDimension
  0
DIMENSION
  5
9734
330
1E
100
AcDbEntity
  8
30
  6
Continuous
100
AcDbDimension
  2
*D79
 10
812.5683450797735
 20
162.9732147683802
 30
0.0
 11
841.4762583619751
 21
190.2634688469852
 31
0.0
 70
   163
 71
     5
 42
11.00000000000034
  3
STANDARD
100
AcDbDiametricDimension
 15
819.4544913765767
 25
171.5511509525117
 35
0.0
 40
0.0
1001
ACAD
1000
DSTYLE
1002
{
1070
   140
1040
6.0
1070
    79
1070
     3
1070
   288
1070
     1
1002
}
  0
DIMENSION
  5
9735
330
1E
100
AcDbEntity
  8
30
  6
Continuous
100
AcDbDimension
  2
*D80
 10
200.0
 20
140.0
 30
0.0
 11
195.0
 21
179.0
 31
0.0
 70
    32
 71
     5
 42
78.0
  3
STANDARD1
100
AcDbAlignedDimension
 13
240.0000000000009
 23
218.0
 33
0.0
 14
300.0000000000009
 24
140.0
 34
0.0
 50
90.0
100
AcDbRotatedDimension
  0
DIMENSION
  5
9736
330
1E
100
AcDbEntity
  8
30
  6
Continuous
100
AcDbDimension
  2
*D81
 10
200.0
 20
-119.9999999999999
 30
0.0
 11
195.0
 21
10.00000000000005
 31
0.0
 70
    32
 71
     5
 42
260.0
  3
STANDARD1
100
AcDbAlignedDimension
 13
300.0000000000009
 23
140.0
 33
0.0
 14
300.0000000000009
 24
-120.0
 34
0.0
 50
90.0
100
AcDbRotatedDimension
  0
DIMENSION
  5
9737
330
1E
100
AcDbEntity
  8
30
  6
Continuous
100
AcDbDimension
  2
*D82
 10
190.0
 20
-198.0000000000002
 30
0.0
 11
185.0
 21
9.999999999999932
 31
0.0
 70
    32
 71
     5
 42
416.0000000000001
  3
STANDARD1
100
AcDbAlignedDimension
 13
240.0000000000009
 23
218.0
 33
0.0
 14
240.0000000000009
 24
-198.0000000000002
 34
0.0
 50
90.0
100
AcDbRotatedDimension
  0
LINE
  5
9739
330
1E
100
AcDbEntity
  8
16
100
AcDbLine
 10
370.0
 20
253.0
 30
0.0
 11
370.0
 21
403.0
 31
0.0
  0
DIMENSION
  5
973A
330
1E
100
AcDbEntity
  8
30
  6
Continuous
100
AcDbDimension
  2
*D84
 10
771.6
 20
-180.0
 30
0.0
 11
719.2999999999999
 21
-175.0
 31
0.0
 70
    32
 71
     5
 42
104.6
  3
STANDARD1
100
AcDbAlignedDimension
 13
667.0
 23
-179.8060655566291
 33
0.0
 14
771.6
 24
-170.0
 34
0.0
100
AcDbRotatedDimension
  0
DIMENSION
  5
973B
330
1E
100
AcDbEntity
  8
30
  6
Continuous
100
AcDbDimension
  2
*D85
 10
667.0
 20
-180.0
 30
0.0
 11
663.0
 21
-180.0
 31
0.0
 70
   160
 71
     5
 42
8.0
  3
STANDARD1
100
AcDbAlignedDimension
 13
659.0
 23
-35.00000000000011
 33
0.0
 14
667.0
 24
-41.00000000000011
 34
0.0
100
AcDbRotatedDimension
  0
DIMENSION
  5
973C
330
1E
100
AcDbEntity
  8
30
  6
Continuous
100
AcDbDimension
  2
*D86
 10
771.6
 20
-220.0
 30
0.0
 11
698.2999999999999
 21
-215.0
 31
0.0
 70
    32
 71
     5
 42
146.6
  3
STANDARD1
100
AcDbAlignedDimension
 13
625.0
 23
9.999999999999772
 33
0.0
 14
771.6
 24
-198.0000000000003
 34
0.0
100
AcDbRotatedDimension
  0
ARC
  5
973D
330
1E
100
AcDbEntity
  8
30
  6
Continuous
100
AcDbCircle
 10
-70.05586445147582
 20
107.2389689581607
 30
0.0
 40
701.8248156003281
100
AcDbArc
 50
352.0359562820045
 51
354.3414001886371
  0
DIMENSION
  5
973E
330
1E
100
AcDbEntity
  8
30
  6
Continuous
100
AcDbDimension
  2
*D87
 10
349.3040702005634
 20
-295.3969419499519
 30
0.0
 11
312.5075517935828
 21
-260.6800347238195
 31
0.0
 70
   163
  1
M6
 71
     5
 42
6.000000000000113
  3
STANDARD
100
AcDbDiametricDimension
 15
345.6959297994367
 25
-290.6030580500479
 35
0.0
 40
0.0
1001
ACAD
1000
DSTYLE
1002
{
1070
   140
1040
6.0
1070
    79
1070
     3
1070
   288
1070
     1
1002
}
  0
LINE
  5
973F
330
1E
100
AcDbEntity
  8
24
  6
CONTINOUS
100
AcDbLine
 10
734.0
 20
140.0
 30
0.0
 11
734.0
 21
108.0
 31
0.0
  0
LINE
  5
9740
330
1E
100
AcDbEntity
  8
24
  6
CONTINOUS
100
AcDbLine
 10
737.9999999999999
 20
140.0
 30
0.0
 11
737.9999999999999
 21
108.0
 31
0.0
  0
LINE
  5
9741
330
1E
100
AcDbEntity
  8
24
  6
CONTINOUS
100
AcDbLine
 10
734.0
 20
108.0
 30
0.0
 11
737.9999999999999
 21
108.0
 31
0.0
  0
LINE
  5
9742
330
1E
100
AcDbEntity
  8
24
  6
CONTINOUS
100
AcDbLine
 10
725.0999999999999
 20
115.1000000000001
 30
0.0
 11
731.4999999999998
 21
115.1000000000001
 31
0.0
  0
LINE
  5
9743
330
1E
100
AcDbEntity
  8
24
  6
CONTINOUS
100
AcDbLine
 10
725.0999999999999
 20
132.8999999999999
 30
0.0
 11
731.4999999999998
 21
132.8999999999999
 31
0.0
  0
LINE
  5
9744
330
1E
100
AcDbEntity
  8
24
  6
CONTINOUS
100
AcDbLine
 10
720.0999999999999
 20
124.0
 30
0.0
 11
743.0
 21
124.0
 31
0.0
  0
LINE
  5
9745
330
1E
100
AcDbEntity
  8
24
  6
CONTINOUS
100
AcDbLine
 10
725.0999999999999
 20
132.8999999999999
 30
0.0
 11
725.0999999999999
 21
115.1000000000001
 31
0.0
  0
LINE
  5
9746
330
1E
100
AcDbEntity
  8
24
  6
CONTINOUS
100
AcDbLine
 10
731.4999999999998
 20
133.2
 30
0.0
 11
731.4999999999998
 21
114.7999999999999
 31
0.0
  0
LINE
  5
9747
330
1E
100
AcDbEntity
  8
24
  6
CONTINOUS
100
AcDbLine
 10
731.4999999999998
 20
114.7999999999999
 30
0.0
 11
734.0
 21
114.7999999999999
 31
0.0
  0
LINE
  5
9748
330
1E
100
AcDbEntity
  8
24
  6
CONTINOUS
100
AcDbLine
 10
731.4999999999998
 20
133.2
 30
0.0
 11
734.0
 21
133.2
 31
0.0
  0
DIMENSION
  5
9749
330
1E
100
AcDbEntity
  8
30
  6
Continuous
100
AcDbDimension
  2
*D88
 10
734.0
 20
150.0
 30
0.0
 11
752.7999999999999
 21
155.0
 31
0.0
 70
    32
 71
     5
 42
37.60000000000002
  3
STANDARD1
100
AcDbAlignedDimension
 13
771.6
 23
140.0
 33
0.0
 14
734.0
 24
140.0
 34
0.0
100
AcDbRotatedDimension
  0
LINE
  5
974A
330
1E
100
AcDbEntity
  8
10
  6
CONTINOUS
100
AcDbLine
 10
485.0
 20
302.5
 30
0.0
 11
300.0
 21
302.5
 31
0.0
  0
LINE
  5
974B
330
1E
100
AcDbEntity
  8
10
  6
CONTINOUS
100
AcDbLine
 10
485.0
 20
296.5
 30
0.0
 11
300.0
 21
296.5
 31
0.0
  0
LINE
  5
974C
330
1E
100
AcDbEntity
  8
10
  6
CONTINOUS
100
AcDbLine
 10
473.0
 20
292.5000000000001
 30
0.0
 11
312.0
 21
292.5000000000001
 31
0.0
  0
LINE
  5
974D
330
1E
100
AcDbEntity
  8
10
  6
CONTINOUS
100
AcDbLine
 10
485.0
 20
399.5000000000001
 30
0.0
 11
300.0
 21
399.5000000000001
 31
0.0
  0
LINE
  5
974E
330
1E
100
AcDbEntity
  8
10
  6
CONTINOUS
100
AcDbLine
 10
300.0
 20
296.5
 30
0.0
 11
300.0
 21
399.5000000000001
 31
0.0
  0
LINE
  5
974F
330
1E
100
AcDbEntity
  8
10
  6
CONTINOUS
100
AcDbLine
 10
312.0
 20
292.5000000000001
 30
0.0
 11
312.0
 21
296.5
 31
0.0
  0
LINE
  5
9750
330
1E
100
AcDbEntity
  8
10
  6
CONTINOUS
100
AcDbLine
 10
387.0
 20
260.0
 30
0.0
 11
352.9999999999999
 21
260.0
 31
0.0
  0
LINE
  5
9751
330
1E
100
AcDbEntity
  8
10
  6
CONTINOUS
100
AcDbLine
 10
388.0000000000001
 20
288.5000000000001
 30
0.0
 11
352.0000000000001
 21
288.5000000000001
 31
0.0
  0
LINE
  5
9752
330
1E
100
AcDbEntity
  8
10
  6
CONTINOUS
100
AcDbLine
 10
352.9999999999999
 20
260.0
 30
0.0
 11
352.9999999999999
 21
288.5000000000001
 31
0.0
  0
LINE
  5
9753
330
1E
100
AcDbEntity
  8
10
  6
CONTINOUS
100
AcDbLine
 10
352.0000000000001
 20
288.5000000000001
 30
0.0
 11
352.0000000000001
 21
292.5000000000001
 31
0.0
  0
LINE
  5
9754
330
1E
100
AcDbEntity
  8
10
  6
CONTINOUS
100
AcDbLine
 10
387.0
 20
260.0
 30
0.0
 11
387.0
 21
288.5000000000001
 31
0.0
  0
LINE
  5
9755
330
1E
100
AcDbEntity
  8
10
  6
CONTINOUS
100
AcDbLine
 10
388.0000000000001
 20
288.5000000000001
 30
0.0
 11
388.0000000000001
 21
292.5000000000001
 31
0.0
  0
LINE
  5
9756
330
1E
100
AcDbEntity
  8
10
  6
CONTINOUS
100
AcDbLine
 10
485.0
 20
296.5
 30
0.0
 11
485.0
 21
399.5000000000001
 31
0.0
  0
LINE
  5
9757
330
1E
100
AcDbEntity
  8
10
  6
CONTINOUS
100
AcDbLine
 10
473.0
 20
292.5000000000001
 30
0.0
 11
473.0
 21
296.5
 31
0.0
  0
LINE
  5
9758
330
1E
100
AcDbEntity
  8
24
  6
CONTINOUS
100
AcDbLine
 10
468.8999452034628
 20
354.6
 30
0.0
 11
468.8999452034628
 21
361.0
 31
0.0
  0
LINE
  5
9759
330
1E
100
AcDbEntity
  8
24
  6
CONTINOUS
100
AcDbLine
 10
451.0999452034629
 20
354.6
 30
0.0
 11
468.8999452034628
 21
354.6
 31
0.0
  0
LINE
  5
975A
330
1E
100
AcDbEntity
  8
24
  6
CONTINOUS
100
AcDbLine
 10
450.7999452034629
 20
361.0
 30
0.0
 11
469.1999452034628
 21
361.0
 31
0.0
  0
LINE
  5
975B
330
1E
100
AcDbEntity
  8
24
  6
CONTINOUS
100
AcDbLine
 10
469.1999452034628
 20
361.0
 30
0.0
 11
469.1999452034628
 21
363.5000000000001
 31
0.0
  0
LINE
  5
975C
330
1E
100
AcDbEntity
  8
24
  6
CONTINOUS
100
AcDbLine
 10
451.0999452034629
 20
354.6
 30
0.0
 11
451.0999452034629
 21
361.0
 31
0.0
  0
LINE
  5
975D
330
1E
100
AcDbEntity
  8
24
  6
CONTINOUS
100
AcDbLine
 10
450.7999452034629
 20
361.0
 30
0.0
 11
450.7999452034629
 21
363.5000000000001
 31
0.0
  0
LEADER
  5
975E
330
1E
100
AcDbEntity
  8
30
  6
Continuous
100
AcDbLeader
  3
STANDARD
 76
     3
 10
730.5032591696683
 20
133.1879450447892
 30
0.0
 10
726.400935541442
 20
148.8087179895957
 30
0.0
 10
710.0
 20
148.8087179895957
 30
0.0
213
471.3911129906765
223
11.99999999999971
233
0.0
1001
ACAD
1000
DSTYLE
1002
{
1070
     5
1000
OPEN
1070
    77
1070
     0
1070
    79
1070
     3
1070
   147
1040
1.0
1070
   342
1005
3B2
1002
}
  0
TEXT
  5
975F
330
1E
100
AcDbEntity
  8
30
  6
Continuous
100
AcDbText
 10
710.7608230663855
 20
149.833032726024
 30
0.0
 40
5.0
  1
M10
  7
STANDARD1
100
AcDbText
  0
DIMENSION
  5
9760
330
1E
100
AcDbEntity
  8
30
  6
Continuous
100
AcDbDimension
  2
*D89
 10
325.0
 20
415.0
 30
0.0
 11
312.5
 21
420.0
 31
0.0
 70
    32
 71
     5
 42
25.0
  3
STANDARD1
100
AcDbAlignedDimension
 13
300.0
 23
399.5000000000001
 33
0.0
 14
325.0
 24
366.5665648324821
 34
0.0
100
AcDbRotatedDimension
  0
DIMENSION
  5
9761
330
1E
100
AcDbEntity
  8
30
  6
Continuous
100
AcDbDimension
  2
*D90
 10
370.0000062386231
 20
415.0
 30
0.0
 11
347.500006238623
 21
420.0
 31
0.0
 70
    32
 71
     5
 42
45.0
  3
STANDARD1
100
AcDbAlignedDimension
 13
325.000006238623
 23
369.5819837500784
 33
0.0
 14
370.0000062386231
 24
366.5665648324821
 34
0.0
100
AcDbRotatedDimension
  0
DIMENSION
  5
9763
330
1E
100
AcDbEntity
  8
30
  6
Continuous
100
AcDbDimension
  2
*D92
 10
485.0
 20
415.0
 30
0.0
 11
472.5
 21
420.0
 31
0.0
 70
    32
 71
     5
 42
25.00000000000006
  3
STANDARD1
100
AcDbAlignedDimension
 13
460.0
 23
366.5665648324821
 33
0.0
 14
485.0
 24
399.5000000000001
 34
0.0
100
AcDbRotatedDimension
  0
LWPOLYLINE
  5
9764
330
1E
100
AcDbEntity
  8
10
  6
CONTINOUS
100
AcDbPolyline
 90
        4
 70
     0
 43
0.0
 10
445.9999452034629
 20
364.5665648324821
 10
445.9999452034629
 20
308.5
 10
473.9999452034628
 20
308.5
 10
473.9999452034629
 20
364.5665648324821
  0
LWPOLYLINE
  5
9765
330
1E
100
AcDbEntity
  8
10
  6
CONTINOUS
100
AcDbPolyline
 90
        4
 70
     0
 43
0.0
 10
355.9999452034629
 20
364.5665648324821
 10
355.9999452034629
 20
308.5
 10
383.9999452034629
 20
308.5
 10
383.9999452034629
 20
364.5665648324821
  0
LWPOLYLINE
  5
9766
330
1E
100
AcDbEntity
  8
10
  6
CONTINOUS
100
AcDbPolyline
 90
        4
 70
     0
 43
0.0
 10
310.9999389648399
 20
364.5665648324821
 10
310.9999389648399
 20
308.5
 10
338.9999389648399
 20
308.5
 10
338.9999389648399
 20
364.5665648324821
  0
LWPOLYLINE
  5
9767
330
1E
100
AcDbEntity
  8
24
  6
CONTINOUS
100
AcDbPolyline
 90
        2
 70
     0
 43
0.001
 10
310.9999389648399
 20
363.5000000000001
 10
338.9999389648399
 20
363.5000000000001
  0
LINE
  5
9768
330
1E
100
AcDbEntity
  8
24
  6
CONTINOUS
100
AcDbLine
 10
310.9999389648399
 20
366.5665648324821
 30
0.0
 11
338.9999389648399
 21
366.5665648324821
 31
0.0
  0
LWPOLYLINE
  5
9769
330
1E
100
AcDbEntity
  8
24
  6
CONTINOUS
100
AcDbPolyline
 90
        2
 70
     0
 43
0.001
 10
310.9999389648399
 20
366.5665648324821
 10
310.9999389648399
 20
363.5000000000001
  0
LINE
  5
976A
330
1E
100
AcDbEntity
  8
24
  6
CONTINOUS
100
AcDbLine
 10
319.3169288355172
 20
366.5665648324821
 30
0.0
 11
319.3169288355172
 21
363.5000000000001
 31
0.0
  0
LINE
  5
976B
330
1E
100
AcDbEntity
  8
24
  6
CONTINOUS
100
AcDbLine
 10
330.9514499914828
 20
366.5665648324821
 30
0.0
 11
330.9514499914828
 21
363.5000000000001
 31
0.0
  0
LWPOLYLINE
  5
976C
330
1E
100
AcDbEntity
  8
24
  6
CONTINOUS
100
AcDbPolyline
 90
        2
 70
     0
 43
0.001
 10
338.9999389648399
 20
366.5665648324821
 10
338.9999389648399
 20
363.5000000000001
  0
LWPOLYLINE
  5
976D
330
1E
100
AcDbEntity
  8
24
  6
CONTINOUS
100
AcDbPolyline
 90
        2
 70
     0
 43
0.001
 10
355.9999452034629
 20
363.5000000000001
 10
383.9999452034629
 20
363.5000000000001
  0
LINE
  5
976E
330
1E
100
AcDbEntity
  8
24
  6
CONTINOUS
100
AcDbLine
 10
355.9999452034629
 20
366.5665648324821
 30
0.0
 11
383.9999452034629
 21
366.5665648324821
 31
0.0
  0
LWPOLYLINE
  5
976F
330
1E
100
AcDbEntity
  8
24
  6
CONTINOUS
100
AcDbPolyline
 90
        2
 70
     0
 43
0.001
 10
355.9999452034629
 20
366.5665648324821
 10
355.9999452034629
 20
363.5000000000001
  0
LINE
  5
9770
330
1E
100
AcDbEntity
  8
24
  6
CONTINOUS
100
AcDbLine
 10
364.3169350741402
 20
366.5665648324821
 30
0.0
 11
364.3169350741402
 21
363.5000000000001
 31
0.0
  0
LINE
  5
9771
330
1E
100
AcDbEntity
  8
24
  6
CONTINOUS
100
AcDbLine
 10
375.9514562301057
 20
366.5665648324821
 30
0.0
 11
375.9514562301057
 21
363.5000000000001
 31
0.0
  0
LWPOLYLINE
  5
9772
330
1E
100
AcDbEntity
  8
24
  6
CONTINOUS
100
AcDbPolyline
 90
        2
 70
     0
 43
0.001
 10
383.9999452034629
 20
366.5665648324821
 10
383.9999452034629
 20
363.5000000000001
  0
LWPOLYLINE
  5
9773
330
1E
100
AcDbEntity
  8
24
  6
CONTINOUS
100
AcDbPolyline
 90
        2
 70
     0
 43
0.001
 10
445.9999452034629
 20
363.5000000000001
 10
473.9999452034629
 20
363.5000000000001
  0
LINE
  5
9774
330
1E
100
AcDbEntity
  8
24
  6
CONTINOUS
100
AcDbLine
 10
445.9999452034629
 20
366.5665648324821
 30
0.0
 11
473.9999452034629
 21
366.5665648324821
 31
0.0
  0
LWPOLYLINE
  5
9775
330
1E
100
AcDbEntity
  8
24
  6
CONTINOUS
100
AcDbPolyline
 90
        2
 70
     0
 43
0.001
 10
445.9999452034629
 20
366.5665648324821
 10
445.9999452034629
 20
363.5000000000001
  0
LINE
  5
9776
330
1E
100
AcDbEntity
  8
24
  6
CONTINOUS
100
AcDbLine
 10
454.3169350741401
 20
366.5665648324821
 30
0.0
 11
454.3169350741401
 21
363.5000000000001
 31
0.0
  0
LINE
  5
9777
330
1E
100
AcDbEntity
  8
24
  6
CONTINOUS
100
AcDbLine
 10
465.9514562301057
 20
366.5665648324821
 30
0.0
 11
465.9514562301057
 21
363.5000000000001
 31
0.0
  0
LWPOLYLINE
  5
9778
330
1E
100
AcDbEntity
  8
24
  6
CONTINOUS
100
AcDbPolyline
 90
        2
 70
     0
 43
0.001
 10
473.9999452034629
 20
366.5665648324821
 10
473.9999452034629
 20
363.5000000000001
  0
LINE
  5
9779
330
1E
100
AcDbEntity
  8
24
  6
CONTINOUS
100
AcDbLine
 10
360.7999452034629
 20
361.0
 30
0.0
 11
379.1999452034628
 21
361.0
 31
0.0
  0
LINE
  5
977A
330
1E
100
AcDbEntity
  8
24
  6
CONTINOUS
100
AcDbLine
 10
361.0999452034629
 20
354.6
 30
0.0
 11
378.8999452034628
 21
354.6
 31
0.0
  0
LINE
  5
977B
330
1E
100
AcDbEntity
  8
24
  6
CONTINOUS
100
AcDbLine
 10
360.7999452034629
 20
361.0
 30
0.0
 11
360.7999452034629
 21
363.5000000000001
 31
0.0
  0
LINE
  5
977C
330
1E
100
AcDbEntity
  8
24
  6
CONTINOUS
100
AcDbLine
 10
361.0999452034629
 20
354.6
 30
0.0
 11
361.0999452034629
 21
361.0
 31
0.0
  0
LINE
  5
977D
330
1E
100
AcDbEntity
  8
24
  6
CONTINOUS
100
AcDbLine
 10
379.1999452034628
 20
361.0
 30
0.0
 11
379.1999452034628
 21
363.5000000000001
 31
0.0
  0
LINE
  5
977E
330
1E
100
AcDbEntity
  8
24
  6
CONTINOUS
100
AcDbLine
 10
378.8999452034628
 20
354.6
 30
0.0
 11
378.8999452034628
 21
361.0
 31
0.0
  0
LINE
  5
977F
330
1E
100
AcDbEntity
  8
24
  6
CONTINOUS
100
AcDbLine
 10
315.7999389648399
 20
361.0
 30
0.0
 11
334.1999389648399
 21
361.0
 31
0.0
  0
LINE
  5
9780
330
1E
100
AcDbEntity
  8
24
  6
CONTINOUS
100
AcDbLine
 10
316.09993896484
 20
354.6
 30
0.0
 11
333.8999389648399
 21
354.6
 31
0.0
  0
LINE
  5
9781
330
1E
100
AcDbEntity
  8
24
  6
CONTINOUS
100
AcDbLine
 10
315.7999389648399
 20
361.0
 30
0.0
 11
315.7999389648399
 21
363.5000000000001
 31
0.0
  0
LINE
  5
9782
330
1E
100
AcDbEntity
  8
24
  6
CONTINOUS
100
AcDbLine
 10
316.09993896484
 20
354.6
 30
0.0
 11
316.09993896484
 21
361.0
 31
0.0
  0
LINE
  5
9783
330
1E
100
AcDbEntity
  8
24
  6
CONTINOUS
100
AcDbLine
 10
334.1999389648399
 20
361.0
 30
0.0
 11
334.1999389648399
 21
363.5000000000001
 31
0.0
  0
LINE
  5
9784
330
1E
100
AcDbEntity
  8
24
  6
CONTINOUS
100
AcDbLine
 10
333.8999389648399
 20
354.6
 30
0.0
 11
333.8999389648399
 21
361.0
 31
0.0
  0
LINE
  5
9785
330
1E
100
AcDbEntity
  8
24
  6
CONTINOUS
100
AcDbLine
 10
721.0999999999998
 20
-103.9999999999999
 30
0.0
 11
743.9999999999998
 21
-103.9999999999999
 31
0.0
  0
LINE
  5
9786
330
1E
100
AcDbEntity
  8
24
  6
CONTINOUS
100
AcDbLine
 10
726.0999999999999
 20
-95.10000000000013
 30
0.0
 11
732.5
 21
-95.10000000000013
 31
0.0
  0
LINE
  5
9787
330
1E
100
AcDbEntity
  8
24
  6
CONTINOUS
100
AcDbLine
 10
726.0999999999999
 20
-112.8999999999997
 30
0.0
 11
726.0999999999999
 21
-95.10000000000013
 31
0.0
  0
LINE
  5
9788
330
1E
100
AcDbEntity
  8
24
  6
CONTINOUS
100
AcDbLine
 10
739.0
 20
-120.0
 30
0.0
 11
739.0
 21
-88.00000000000011
 31
0.0
  0
LINE
  5
9789
330
1E
100
AcDbEntity
  8
24
  6
CONTINOUS
100
AcDbLine
 10
735.0
 20
-120.0
 30
0.0
 11
735.0
 21
-88.00000000000011
 31
0.0
  0
LINE
  5
978A
330
1E
100
AcDbEntity
  8
24
  6
CONTINOUS
100
AcDbLine
 10
732.5
 20
-113.1999999999997
 30
0.0
 11
732.5
 21
-94.79999999999979
 31
0.0
  0
LINE
  5
978B
330
1E
100
AcDbEntity
  8
24
  6
CONTINOUS
100
AcDbLine
 10
732.5
 20
-94.79999999999979
 30
0.0
 11
735.0
 21
-94.79999999999979
 31
0.0
  0
LINE
  5
978C
330
1E
100
AcDbEntity
  8
24
  6
CONTINOUS
100
AcDbLine
 10
735.0
 20
-88.00000000000011
 30
0.0
 11
739.0
 21
-88.00000000000011
 31
0.0
  0
LINE
  5
978D
330
1E
100
AcDbEntity
  8
24
  6
CONTINOUS
100
AcDbLine
 10
726.0999999999999
 20
-112.8999999999997
 30
0.0
 11
732.5
 21
-112.8999999999997
 31
0.0
  0
LINE
  5
978E
330
1E
100
AcDbEntity
  8
24
  6
CONTINOUS
100
AcDbLine
 10
732.5
 20
-113.1999999999997
 30
0.0
 11
735.0
 21
-113.1999999999997
 31
0.0
  0
DIMENSION
  5
978F
330
1E
100
AcDbEntity
  8
30
  6
Continuous
100
AcDbDimension
  2
*D93
 10
735.0
 20
-130.0
 30
0.0
 11
753.2999999999999
 21
-125.0
 31
0.0
 70
    32
 71
     5
 42
36.60000000000002
  3
STANDARD1
100
AcDbAlignedDimension
 13
771.6
 23
-120.0
 33
0.0
 14
735.0
 24
-120.0
 34
0.0
100
AcDbRotatedDimension
  0
LINE
  5
97C6
330
1E
100
AcDbEntity
  8
16
100
AcDbLine
 10
230.0
 20
10.0
 30
0.0
 11
555.0
 21
10.0
 31
0.0
  0
LINE
  5
9809
330
1E
100
AcDbEntity
  8
16
100
AcDbLine
 10
370.0
 20
220.0
 30
0.0
 11
370.0
 21
-202.0
 31
0.0
  0
LWPOLYLINE
  5
980B
330
1E
100
AcDbEntity
  8
17
100
AcDbPolyline
 90
        4
 70
     1
 43
0.75
 10
240.0000000000009
 20
399.5000000000001
 10
545.0
 20
399.5000000000001
 10
545.0
 20
401.1000000000001
 10
240.0000000000009
 20
401.1000000000001
  0
LWPOLYLINE
  5
980C
330
1E
100
AcDbEntity
  8
17
100
AcDbPolyline
 90
        4
 70
     1
 43
0.75
 10
770.0
 20
-198.0000000000003
 10
771.6
 20
-198.0000000000003
 10
771.6
 20
218.0
 10
770.0
 20
218.0
  0
DIMENSION
  5
980D
330
1E
100
AcDbEntity
  8
30
  6
Continuous
100
AcDbDimension
  2
*D94
 10
484.9999999999995
 20
-220.0
 30
0.0
 11
370.0
 21
-220.0
 31
0.0
 70
   160
 71
     5
 42
184.9999999999986
  3
STANDARD1
100
AcDbAlignedDimension
 13
300.0000000000009
 23
-120.0
 33
0.0
 14
484.9999999999995
 24
-120.0
 34
0.0
100
AcDbRotatedDimension
  0
DIMENSION
  5
980E
330
1E
100
AcDbEntity
  8
30
  6
Continuous
100
AcDbDimension
  2
*D95
 10
545.0
 20
-240.0
 30
0.0
 11
392.5000000000005
 21
-235.0
 31
0.0
 70
    32
 71
     5
 42
304.9999999999991
  3
STANDARD1
100
AcDbAlignedDimension
 13
240.0000000000009
 23
-198.0000000000002
 33
0.0
 14
545.0
 24
-198.0000000000002
 34
0.0
100
AcDbRotatedDimension
  0
DIMENSION
  5
980F
330
1E
100
AcDbEntity
  8
30
  6
Continuous
100
AcDbDimension
  2
*D96
 10
565.0
 20
366.5665648324821
 30
0.0
 11
601.4224256543098
 21
382.4104650120816
 31
0.0
 70
   160
  1
ON SIDE 37.6\POFF SIDE 36.6
 71
     5
 42
34.53343516751806
  3
STANDARD
100
AcDbAlignedDimension
 13
544.9999452034627
 23
401.1000000000001
 33
0.0
 14
473.9999452034629
 24
366.5665648324821
 34
0.0
 50
90.0
100
AcDbRotatedDimension
1001
ACAD
1000
DSTYLE
1002
{
1070
   140
1040
6.0
1070
   287
1070
     5
1070
   287
1070
     5
1070
   287
1070
     5
1070
   287
1070
     5
1070
   287
1070
     5
1070
   287
1070
     5
1070
   287
1070
     5
1070
   279
1070
     2
1070
    79
1070
     3
1002
}
  0
MTEXT
  5
9810
330
1E
100
AcDbEntity
  8
30
  6
Continuous
100
AcDbMText
 10
720.0000000000002
 20
290.5
 30
0.0
 40
6.0
 41
0.0
 71
     7
 72
     5
  1
PVS400-NDL 4P FC\PPVS400-NDH 4P FC
 73
     1
 44
1.0
1001
ACAD
1000
MTEXTBEGIN
1070
    73
1070
     1
1070
    44
1040
1.0
1070
    74
1070
     0
1000
MTEXTEND
  0
INSERT
  5
9811
330
1E
100
AcDbEntity
  8
30
100
AcDbBlockReference
  2
*U32
 10
-132.5
 20
-60.0
 30
0.0
  0
INSERT
  5
9812
330
1E
100
AcDbEntity
  8
30
100
AcDbBlockReference
  2
*U33
 10
-132.5
 20
-60.0
 30
0.0
  0
INSERT
  5
9813
330
1E
100
AcDbEntity
  8
30
100
AcDbBlockReference
  2
*U32
 10
251.7286236157303
 20
-60.00000000000011
 30
0.0
  0
INSERT
  5
9814
330
1E
100
AcDbEntity
  8
30
100
AcDbBlockReference
  2
*U33
 10
251.7286236157303
 20
-60.00000000000011
 30
0.0
  0
INSERT
  5
9815
330
1E
100
AcDbEntity
  8
30
100
AcDbBlockReference
  2
*U32
 10
-72.5
 20
-470.0
 30
0.0
  0
INSERT
  5
9816
330
1E
100
AcDbEntity
  8
30
100
AcDbBlockReference
  2
*U33
 10
-72.5
 20
-470.0
 30
0.0
  0
INSERT
  5
9817
330
1E
100
AcDbEntity
  8
30
100
AcDbBlockReference
  2
*U32
 10
267.5
 20
-470.0
 30
0.0
  0
INSERT
  5
9818
330
1E
100
AcDbEntity
  8
30
100
AcDbBlockReference
  2
*U33
 10
267.5
 20
-470.0
 30
0.0
  0
MTEXT
  5
9819
330
1E
100
AcDbEntity
  8
16
100
AcDbMText
 10
370.8825424999993
 20
219.3995025000002
 30
0.0
 40
8.0
 41
0.0
 71
     7
 72
     5
  1
\W01.000;\fsimplex.shx;L
  7
blockfont
 73
     2
 44
0.9036139999999999
1001
ACAD
1000
MTEXTBEGIN
1070
    73
1070
     2
1070
    44
1040
0.9036139999999999
1070
    74
1070
     0
1000
MTEXTEND
  0
MTEXT
  5
981A
330
1E
100
AcDbEntity
  8
16
100
AcDbMText
 10
368.1117099999992
 20
223.6758200000001
 30
0.0
 40
8.0
 41
0.0
 71
     7
 72
     5
  1
\W01.000;\fsimplex.shx;H
  7
blockfont
 73
     2
 44
0.9036139999999999
1001
ACAD
1000
MTEXTBEGIN
1070
    73
1070
     2
1070
    44
1040
0.9036139999999999
1070
    74
1070
     0
1000
MTEXTEND
  0
MTEXT
  5
981B
330
1E
100
AcDbEntity
  8
16
100
AcDbMText
 10
370.8825424999993
 20
414.3995025000001
 30
0.0
 40
8.0
 41
0.0
 71
     7
 72
     5
  1
\W01.000;\fsimplex.shx;L
  7
blockfont
 73
     2
 44
0.9036139999999999
1001
ACAD
1000
MTEXTBEGIN
1070
    73
1070
     2
1070
    44
1040
0.9036139999999999
1070
    74
1070
     0
1000
MTEXTEND
  0
MTEXT
  5
981C
330
1E
100
AcDbEntity
  8
16
100
AcDbMText
 10
368.1117099999992
 20
418.6758200000001
 30
0.0
 40
8.0
 41
0.0
 71
     7
 72
     5
  1
\W01.000;\fsimplex.shx;H
  7
blockfont
 73
     2
 44
0.9036139999999999
1001
ACAD
1000
MTEXTBEGIN
1070
    73
1070
     2
1070
    44
1040
0.9036139999999999
1070
    74
1070
     0
1000
MTEXTEND
  0
MTEXT
  5
981D
330
1E
100
AcDbEntity
  8
16
100
AcDbMText
 10
370.8825424999993
 20
-260.6004974999998
 30
0.0
 40
8.0
 41
0.0
 71
     7
 72
     5
  1
\W01.000;\fsimplex.shx;L
  7
blockfont
 73
     2
 44
0.9036139999999999
1001
ACAD
1000
MTEXTBEGIN
1070
    73
1070
     2
1070
    44
1040
0.9036139999999999
1070
    74
1070
     0
1000
MTEXTEND
  0
MTEXT
  5
981E
330
1E
100
AcDbEntity
  8
16
100
AcDbMText
 10
368.1117099999992
 20
-256.3241799999998
 30
0.0
 40
8.0
 41
0.0
 71
     7
 72
     5
  1
\W01.000;\fsimplex.shx;H
  7
blockfont
 73
     2
 44
0.9036139999999999
1001
ACAD
1000
MTEXTBEGIN
1070
    73
1070
     2
1070
    44
1040
0.9036139999999999
1070
    74
1070
     0
1000
MTEXTEND
  0
MTEXT
  5
981F
330
1E
100
AcDbEntity
  8
16
100
AcDbMText
 10
710.8825424999992
 20
-260.6004974999998
 30
0.0
 40
8.0
 41
0.0
 71
     7
 72
     5
  1
\W01.000;\fsimplex.shx;L
  7
blockfont
 73
     2
 44
0.9036139999999999
1001
ACAD
1000
MTEXTBEGIN
1070
    73
1070
     2
1070
    44
1040
0.9036139999999999
1070
    74
1070
     0
1000
MTEXTEND
  0
MTEXT
  5
9820
330
1E
100
AcDbEntity
  8
16
100
AcDbMText
 10
708.1117099999992
 20
-256.3241799999998
 30
0.0
 40
8.0
 41
0.0
 71
     7
 72
     5
  1
\W01.000;\fsimplex.shx;H
  7
blockfont
 73
     2
 44
0.9036139999999999
1001
ACAD
1000
MTEXTBEGIN
1070
    73
1070
     2
1070
    44
1040
0.9036139999999999
1070
    74
1070
     0
1000
MTEXTEND
  0
DIMENSION
  5
9821
330
1E
100
AcDbEntity
  8
30
100
AcDbDimension
  2
*D97
 10
600.0
 20
55.00000000000002
 30
0.0
 11
595.0
 21
10.00000000000006
 31
0.0
 70
    32
  1
 <> 
 71
     5
 42
90.00000000000012
  3
STANDARD1
100
AcDbAlignedDimension
 13
659.0
 23
-35.00000000000011
 33
0.0
 14
659.0
 24
55.0
 34
0.0
 50
90.0
100
AcDbRotatedDimension
  0
DIMENSION
  5
9822
330
1E
100
AcDbEntity
  8
30
100
AcDbDimension
  2
*D98
 10
585.0
 20
61.00000000000003
 30
0.0
 11
580.0
 21
10.00000000000012
 31
0.0
 70
    32
  1
 <> 
 71
     5
 42
102.0
  3
STANDARD1
100
AcDbAlignedDimension
 13
662.0
 23
-41.0
 33
0.0
 14
662.0
 24
61.0
 34
0.0
 50
90.0
100
AcDbRotatedDimension
  0
DIMENSION
  5
9823
330
1E
100
AcDbEntity
  8
30
  6
Continuous
100
AcDbDimension
  2
*D99
 10
200.0
 20
-119.9999999999999
 30
0.0
 11
195.0
 21
-158.9999999999999
 31
0.0
 70
    32
 71
     5
 42
77.9999999999999
  3
STANDARD1
100
AcDbAlignedDimension
 13
240.0000000000009
 23
-197.9999999999999
 33
0.0
 14
300.0000000000009
 24
-120.0
 34
0.0
 50
270.0
100
AcDbRotatedDimension
  0
DIMENSION
  5
9824
330
1E
100
AcDbEntity
  8
30
  6
Continuous
100
AcDbDimension
  2
*D100
 10
771.6
 20
-170.0
 30
0.0
 11
722.2999999999999
 21
-165.0
 31
0.0
 70
    32
 71
     5
 42
98.60000000000026
  3
STANDARD1
100
AcDbAlignedDimension
 13
672.9999999999997
 23
-120.0
 33
0.0
 14
771.6
 24
-170.0
 34
0.0
100
AcDbRotatedDimension
  0
DIMENSION
  5
9825
330
1E
100
AcDbEntity
  8
30
100
AcDbDimension
  2
*D101
 10
771.6
 20
-150.0
 30
0.0
 11
757.2000000000001
 21
-150.0
 31
0.0
 70
   160
  1
 <> 
 71
     5
 42
1.599999999999681
  3
STANDARD1
100
AcDbAlignedDimension
 13
770.0000000000003
 23
-150.5000000000004
 33
0.0
 14
771.6
 24
-150.0
 34
0.0
100
AcDbRotatedDimension
  0
DIMENSION
  5
9826
330
1E
100
AcDbEntity
  8
30
  6
Continuous
100
AcDbDimension
  2
*D102
 10
771.6
 20
-210.0
 30
0.0
 11
707.05
 21
-205.0
 31
0.0
 70
    32
 71
     5
 42
129.1
  3
STANDARD1
100
AcDbAlignedDimension
 13
642.4999999999999
 23
9.999999999999886
 33
0.0
 14
771.6
 24
-198.0000000000003
 34
0.0
100
AcDbRotatedDimension
  0
ARC
  5
9827
330
1E
100
AcDbEntity
  8
30
  6
Continuous
100
AcDbCircle
 10
-395.1754247083853
 20
151.6625849334405
 30
0.0
 40
1047.300613488674
100
AcDbArc
 50
352.2260855765429
 51
353.5496938535667
  0
LINE
  5
9828
330
1E
100
AcDbEntity
  8
16
100
AcDbLine
 10
370.0
 20
220.0
 30
0.0
 11
370.0
 21
-202.0
 31
0.0
  0
DIMENSION
  5
9829
330
1E
100
AcDbEntity
  8
30
100
AcDbDimension
  2
*D103
 10
428.0
 20
70.0
 30
0.0
 11
390.0000000000005
 21
70.0
 31
0.0
 70
   160
  1
 <> 
 71
     5
 42
115.9999999999991
  3
STANDARD1
100
AcDbAlignedDimension
 13
312.0000000000009
 23
50.0
 33
0.0
 14
428.0
 24
50.0
 34
0.0
100
AcDbRotatedDimension
  0
DIMENSION
  5
982A
330
1E
100
AcDbEntity
  8
30
100
AcDbDimension
  2
*D104
 10
395.5
 20
-60.0
 30
0.0
 11
380.0000000000005
 21
-60.0
 31
0.0
 70
   160
  1
 <> 
 71
     5
 42
50.99999999999909
  3
STANDARD1
100
AcDbAlignedDimension
 13
344.5000000000009
 23
-35.0
 33
0.0
 14
395.5
 24
-35.0
 34
0.0
100
AcDbRotatedDimension
  0
DIMENSION
  5
9836
330
1E
100
AcDbEntity
  8
30
  6
Continuous
100
AcDbDimension
  2
*D105
 10
565.0
 20
-120.0
 30
0.0
 11
560.0
 21
10.00000000000008
 31
0.0
 70
    32
 71
     5
 42
260.0
  3
STANDARD1
100
AcDbAlignedDimension
 13
485.0
 23
140.0
 33
0.0
 14
485.0
 24
-120.0
 34
0.0
 50
90.0
100
AcDbRotatedDimension
  0
DIMENSION
  5
9837
330
1E
100
AcDbEntity
  8
30
  6
Continuous
100
AcDbDimension
  2
*D106
 10
565.0
 20
140.0
 30
0.0
 11
560.0
 21
195.0000000000001
 31
0.0
 70
    32
 71
     5
 42
109.9999999999999
  3
STANDARD1
100
AcDbAlignedDimension
 13
439.5000000000009
 23
250.0
 33
0.0
 14
485.0
 24
140.0
 34
0.0
 50
90.0
100
AcDbRotatedDimension
  0
DIMENSION
  5
9838
330
1E
100
AcDbEntity
  8
30
100
AcDbDimension
  2
*D107
 10
771.6
 20
-160.0
 30
0.0
 11
728.1499999999996
 21
-155.0
 31
0.0
 70
    32
  1
 <> 
 71
     5
 42
86.90000000000067
  3
STANDARD1
100
AcDbAlignedDimension
 13
684.6999999999994
 23
-101.2499999999997
 33
0.0
 14
771.6
 24
-160.0
 34
0.0
100
AcDbRotatedDimension
  0
DIMENSION
  5
9839
330
1E
100
AcDbEntity
  8
30
100
AcDbDimension
  2
*D108
 10
784.7
 20
-160.0
 30
0.0
 11
797.5
 21
-155.0
 31
0.0
 70
    32
  1
 <> 
 71
     5
 42
13.10000000000002
  3
STANDARD1
100
AcDbAlignedDimension
 13
771.6
 23
-160.0
 33
0.0
 14
784.7
 24
-99.2499999999999
 34
0.0
100
AcDbRotatedDimension
  0
DIMENSION
  5
9B60
330
1E
100
AcDbEntity
  8
30
  6
Continuous
100
AcDbDimension
  2
*D109
 10
415.000006238623
 20
415.0
 30
0.0
 11
392.500006238623
 21
420.0
 31
0.0
 70
    32
 71
     5
 42
45.0
  3
STANDARD1
100
AcDbAlignedDimension
 13
370.0000062386231
 23
369.5819837500784
 33
0.0
 14
415.000006238623
 24
366.5665648324821
 34
0.0
100
AcDbRotatedDimension
  0
LWPOLYLINE
  5
9B61
330
1E
100
AcDbEntity
  8
10
  6
CONTINOUS
100
AcDbPolyline
 90
        4
 70
     0
 43
0.0
 10
400.9999452034628
 20
364.5665648324821
 10
400.9999452034628
 20
308.5
 10
428.9999452034628
 20
308.5
 10
428.9999452034628
 20
364.5665648324821
  0
LWPOLYLINE
  5
9B62
330
1E
100
AcDbEntity
  8
24
  6
CONTINOUS
100
AcDbPolyline
 90
        2
 70
     0
 43
0.001
 10
400.9999452034628
 20
363.5000000000001
 10
428.9999452034628
 20
363.5000000000001
  0
LINE
  5
9B63
330
1E
100
AcDbEntity
  8
24
  6
CONTINOUS
100
AcDbLine
 10
400.9999452034628
 20
366.5665648324821
 30
0.0
 11
428.9999452034628
 21
366.5665648324821
 31
0.0
  0
LWPOLYLINE
  5
9B64
330
1E
100
AcDbEntity
  8
24
  6
CONTINOUS
100
AcDbPolyline
 90
        2
 70
     0
 43
0.001
 10
400.9999452034628
 20
366.5665648324821
 10
400.9999452034628
 20
363.5000000000001
  0
LINE
  5
9B65
330
1E
100
AcDbEntity
  8
24
  6
CONTINOUS
100
AcDbLine
 10
409.3169350741401
 20
366.5665648324821
 30
0.0
 11
409.3169350741401
 21
363.5000000000001
 31
0.0
  0
LINE
  5
9B66
330
1E
100
AcDbEntity
  8
24
  6
CONTINOUS
100
AcDbLine
 10
420.9514562301057
 20
366.5665648324821
 30
0.0
 11
420.9514562301057
 21
363.5000000000001
 31
0.0
  0
LWPOLYLINE
  5
9B67
330
1E
100
AcDbEntity
  8
24
  6
CONTINOUS
100
AcDbPolyline
 90
        2
 70
     0
 43
0.001
 10
428.9999452034628
 20
366.5665648324821
 10
428.9999452034628
 20
363.5000000000001
  0
LINE
  5
9B68
330
1E
100
AcDbEntity
  8
24
  6
CONTINOUS
100
AcDbLine
 10
405.7999452034628
 20
361.0
 30
0.0
 11
424.1999452034628
 21
361.0
 31
0.0
  0
LINE
  5
9B69
330
1E
100
AcDbEntity
  8
24
  6
CONTINOUS
100
AcDbLine
 10
406.0999452034629
 20
354.6
 30
0.0
 11
423.8999452034628
 21
354.6
 31
0.0
  0
LINE
  5
9B6A
330
1E
100
AcDbEntity
  8
24
  6
CONTINOUS
100
AcDbLine
 10
405.7999452034628
 20
361.0
 30
0.0
 11
405.7999452034628
 21
363.5000000000001
 31
0.0
  0
LINE
  5
9B6B
330
1E
100
AcDbEntity
  8
24
  6
CONTINOUS
100
AcDbLine
 10
406.0999452034629
 20
354.6
 30
0.0
 11
406.0999452034629
 21
361.0
 31
0.0
  0
LINE
  5
9B6C
330
1E
100
AcDbEntity
  8
24
  6
CONTINOUS
100
AcDbLine
 10
424.1999452034628
 20
361.0
 30
0.0
 11
424.1999452034628
 21
363.5000000000001
 31
0.0
  0
LINE
  5
9B6D
330
1E
100
AcDbEntity
  8
24
  6
CONTINOUS
100
AcDbLine
 10
423.8999452034628
 20
354.6
 30
0.0
 11
423.8999452034628
 21
361.0
 31
0.0
  0
DIMENSION
  5
9B83
330
1E
100
AcDbEntity
  8
30
  6
Continuous
100
AcDbDimension
  2
*D110
 10
460.000006238623
 20
415.0
 30
0.0
 11
437.500006238623
 21
420.0
 31
0.0
 70
    32
 71
     5
 42
45.0
  3
STANDARD1
100
AcDbAlignedDimension
 13
415.000006238623
 23
369.5819837500784
 33
0.0
 14
460.000006238623
 24
366.5665648324821
 34
0.0
100
AcDbRotatedDimension
  0
LINE
  5
9CCB
330
1E
100
AcDbEntity
  8
10
  6
CONTINOUS
100
AcDbLine
 10
460.0000000000009
 20
-108.6188000000002
 30
0.0
 11
456.0000000000009
 21
-106.3094000000001
 31
0.0
  0
LINE
  5
9CCC
330
1E
100
AcDbEntity
  8
10
  6
CONTINOUS
100
AcDbLine
 10
419.0000000000009
 20
-106.3094000000001
 30
0.0
 11
415.0000000000009
 21
-108.6188000000002
 31
0.0
  0
LINE
  5
9CCD
330
1E
100
AcDbEntity
  8
12
  6
DASHED
100
AcDbLine
 10
400.5000000000018
 20
-96.99999999999977
 30
0.0
 11
384.5000000000009
 21
-96.99999999999977
 31
0.0
  0
LINE
  5
9CCE
330
1E
100
AcDbEntity
  8
10
  6
CONTINOUS
100
AcDbLine
 10
370.0000000000009
 20
-113.0000000000002
 30
0.0
 11
370.0000000000009
 21
-95.0
 31
0.0
  0
LINE
  5
9CCF
330
1E
100
AcDbEntity
  8
10
  6
CONTINOUS
100
AcDbLine
 10
361.0000000000009
 20
124.0
 30
0.0
 11
379.0000000000009
 21
124.0
 31
0.0
  0
LINE
  5
9CD0
330
1E
100
AcDbEntity
  8
10
  6
CONTINOUS
100
AcDbLine
 10
389.0000000000009
 20
-30.45000000000005
 30
0.0
 11
394.300000000002
 21
-30.45000000000005
 31
0.0
  0
LINE
  5
9CD1
330
1E
100
AcDbEntity
  8
10
  6
CONTINOUS
100
AcDbLine
 10
353.0000000000018
 20
41.0
 30
0.0
 11
352.0000000000009
 21
41.0
 31
0.0
  0
LINE
  5
9CD2
330
1E
100
AcDbEntity
  8
10
  6
CONTINOUS
100
AcDbLine
 10
352.0000000000009
 20
-21.00000000000023
 30
0.0
 11
352.0000000000009
 21
41.0
 31
0.0
  0
LINE
  5
9CD3
330
1E
100
AcDbEntity
  8
10
  6
CONTINOUS
100
AcDbLine
 10
387.0000000000009
 20
38.03853499999991
 30
0.0
 11
353.0000000000018
 21
38.03853499999991
 31
0.0
  0
LINE
  5
9CD4
330
1E
100
AcDbEntity
  8
10
  6
CONTINOUS
100
AcDbLine
 10
464.0000000000009
 20
-101.6906000000001
 30
0.0
 11
464.0000000000009
 21
-106.3094000000001
 31
0.0
  0
LINE
  5
9CD5
330
1E
100
AcDbEntity
  8
10
  6
CONTINOUS
100
AcDbLine
 10
415.0000000000009
 20
-99.38119499999993
 30
0.0
 11
419.0000000000009
 21
-101.6906000000001
 31
0.0
  0
LINE
  5
9CD6
330
1E
100
AcDbEntity
  8
10
  6
CONTINOUS
100
AcDbLine
 10
366.0000000000009
 20
-101.6906000000001
 30
0.0
 11
370.0000000000009
 21
-99.38119499999993
 31
0.0
  0
LINE
  5
9CD7
330
1E
100
AcDbEntity
  8
10
  6
CONTINOUS
100
AcDbLine
 10
321.0000000000009
 20
-106.3094000000001
 30
0.0
 11
321.0000000000009
 21
-101.6906000000001
 31
0.0
  0
LINE
  5
9CD8
330
1E
100
AcDbEntity
  8
10
  6
CONTINOUS
100
AcDbLine
 10
460.0000000000009
 20
128.6188049999998
 30
0.0
 11
456.0000000000009
 21
126.3093999999998
 31
0.0
  0
LINE
  5
9CD9
330
1E
100
AcDbEntity
  8
10
  6
CONTINOUS
100
AcDbLine
 10
419.0000000000009
 20
126.3093999999998
 30
0.0
 11
415.0000000000009
 21
128.6188049999998
 31
0.0
  0
LINE
  5
9CDA
330
1E
100
AcDbEntity
  8
10
  6
CONTINOUS
100
AcDbLine
 10
329.0000000000009
 20
121.6906000000001
 30
0.0
 11
329.0000000000009
 21
126.3093999999998
 31
0.0
  0
LINE
  5
9CDB
330
1E
100
AcDbEntity
  8
10
  6
CONTINOUS
100
AcDbLine
 10
409.5000000000009
 20
-104.0
 30
0.0
 11
409.5000000000009
 21
-120.0
 31
0.0
  0
LINE
  5
9CDC
330
1E
100
AcDbEntity
  8
10
  6
CONTINOUS
100
AcDbLine
 10
420.5000000000017
 20
124.0
 30
0.0
 11
420.5000000000017
 21
140.0
 31
0.0
  0
LINE
  5
9CDD
330
1E
100
AcDbEntity
  8
10
  6
CONTINOUS
100
AcDbLine
 10
317.0000000000009
 20
55.0
 30
0.0
 11
423.0000000000018
 21
55.0
 31
0.0
  0
LINE
  5
9CDE
330
1E
100
AcDbEntity
  8
10
  6
CONTINOUS
100
AcDbLine
 10
312.0000000000009
 20
50.0
 30
0.0
 11
312.0000000000009
 21
-30.0
 31
0.0
  0
LINE
  5
9CDF
330
1E
100
AcDbEntity
  8
10
  6
CONTINOUS
100
AcDbLine
 10
329.0000000000009
 20
-101.6906000000001
 30
0.0
 11
329.0000000000009
 21
-106.3094000000001
 31
0.0
  0
LINE
  5
9CE0
330
1E
100
AcDbEntity
  8
10
  6
CONTINOUS
100
AcDbLine
 10
460.0000000000009
 20
119.3812
 30
0.0
 11
464.0000000000009
 21
121.6906000000001
 31
0.0
  0
LINE
  5
9CE1
330
1E
100
AcDbEntity
  8
10
  6
CONTINOUS
100
AcDbLine
 10
411.0000000000009
 20
121.6906000000001
 30
0.0
 11
415.0000000000009
 21
119.3812
 31
0.0
  0
LINE
  5
9CE2
330
1E
100
AcDbEntity
  8
10
  6
CONTINOUS
100
AcDbLine
 10
366.0000000000009
 20
126.3093999999998
 30
0.0
 11
366.0000000000009
 21
121.6906000000001
 31
0.0
  0
LINE
  5
9CE3
330
1E
100
AcDbEntity
  8
10
  6
CONTINOUS
100
AcDbLine
 10
325.0000000000009
 20
128.6188049999998
 30
0.0
 11
321.0000000000009
 21
126.3093999999998
 31
0.0
  0
LINE
  5
9CE4
330
1E
100
AcDbEntity
  8
10
  6
CONTINOUS
100
AcDbLine
 10
375.5000000000018
 20
-104.0
 30
0.0
 11
375.5000000000018
 21
-120.0
 31
0.0
  0
LINE
  5
9CE5
330
1E
100
AcDbEntity
  8
10
  6
CONTINOUS
100
AcDbLine
 10
319.5000000000009
 20
124.0
 30
0.0
 11
319.5000000000009
 21
140.0
 31
0.0
  0
LINE
  5
9CE6
330
1E
100
AcDbEntity
  8
10
  6
CONTINOUS
100
AcDbLine
 10
485.0000000000009
 20
140.0
 30
0.0
 11
485.0000000000009
 21
-120.0
 31
0.0
  0
LINE
  5
9CE7
330
1E
100
AcDbEntity
  8
12
  6
DASHED
100
AcDbLine
 10
355.5000000000018
 20
-96.99999999999977
 30
0.0
 11
339.5000000000009
 21
-96.99999999999977
 31
0.0
  0
LINE
  5
9CE8
330
1E
100
AcDbEntity
  8
10
  6
CONTINOUS
100
AcDbLine
 10
317.0000000000009
 20
-35.0
 30
0.0
 11
423.0000000000018
 21
-35.0
 31
0.0
  0
LINE
  5
9CE9
330
1E
100
AcDbEntity
  8
10
  6
CONTINOUS
100
AcDbLine
 10
330.5000000000018
 20
124.0
 30
0.0
 11
330.5000000000018
 21
140.0
 31
0.0
  0
LINE
  5
9CEA
330
1E
100
AcDbEntity
  8
10
  6
CONTINOUS
100
AcDbLine
 10
454.5000000000008
 20
124.0
 30
0.0
 11
454.5000000000008
 21
140.0
 31
0.0
  0
LINE
  5
9CEB
330
1E
100
AcDbEntity
  8
10
  6
CONTINOUS
100
AcDbLine
 10
456.0000000000009
 20
126.3093999999998
 30
0.0
 11
456.0000000000009
 21
121.6906000000001
 31
0.0
  0
LINE
  5
9CEC
330
1E
100
AcDbEntity
  8
10
  6
CONTINOUS
100
AcDbLine
 10
415.0000000000009
 20
128.6188049999998
 30
0.0
 11
411.0000000000009
 21
126.3093999999998
 31
0.0
  0
LINE
  5
9CED
330
1E
100
AcDbEntity
  8
10
  6
CONTINOUS
100
AcDbLine
 10
374.0000000000009
 20
126.3093999999998
 30
0.0
 11
370.0000000000009
 21
128.6188049999998
 31
0.0
  0
LINE
  5
9CEE
330
1E
100
AcDbEntity
  8
10
  6
CONTINOUS
100
AcDbLine
 10
420.5000000000017
 20
-104.0
 30
0.0
 11
420.5000000000017
 21
-120.0
 31
0.0
  0
LINE
  5
9CEF
330
1E
100
AcDbEntity
  8
10
  6
CONTINOUS
100
AcDbLine
 10
415.0000000000009
 20
-113.0000000000002
 30
0.0
 11
415.0000000000009
 21
-95.0
 31
0.0
  0
LINE
  5
9CF0
330
1E
100
AcDbEntity
  8
10
  6
CONTINOUS
100
AcDbLine
 10
406.0000000000009
 20
124.0
 30
0.0
 11
424.0000000000009
 21
124.0
 31
0.0
  0
LINE
  5
9CF1
330
1E
100
AcDbEntity
  8
10
  6
CONTINOUS
100
AcDbLine
 10
300.0000000000009
 20
61.0
 30
0.0
 11
485.0000000000009
 21
61.0
 31
0.0
  0
LINE
  5
9CF2
330
1E
100
AcDbEntity
  8
10
  6
CONTINOUS
100
AcDbLine
 10
344.5000000000009
 20
-35.0
 30
0.0
 11
344.5000000000009
 21
55.0
 31
0.0
  0
LINE
  5
9CF3
330
1E
100
AcDbEntity
  8
10
  6
CONTINOUS
100
AcDbLine
 10
388.0000000000018
 20
-21.00000000000023
 30
0.0
 11
352.0000000000009
 21
-21.00000000000023
 31
0.0
  0
LINE
  5
9CF4
330
1E
100
AcDbEntity
  8
10
  6
CONTINOUS
100
AcDbLine
 10
387.0000000000009
 20
27.03370500000005
 30
0.0
 11
387.0000000000009
 21
49.33264500000018
 31
0.0
  0
LINE
  5
9CF5
330
1E
100
AcDbEntity
  8
10
  6
CONTINOUS
100
AcDbLine
 10
456.0000000000009
 20
-101.6906000000001
 30
0.0
 11
460.0000000000009
 21
-99.38119499999993
 31
0.0
  0
LINE
  5
9CF6
330
1E
100
AcDbEntity
  8
10
  6
CONTINOUS
100
AcDbLine
 10
411.0000000000009
 20
-106.3094000000001
 30
0.0
 11
411.0000000000009
 21
-101.6906000000001
 31
0.0
  0
LINE
  5
9CF7
330
1E
100
AcDbEntity
  8
10
  6
CONTINOUS
100
AcDbLine
 10
370.0000000000009
 20
-108.6188000000002
 30
0.0
 11
366.0000000000009
 21
-106.3094000000001
 31
0.0
  0
LINE
  5
9CF8
330
1E
100
AcDbEntity
  8
10
  6
CONTINOUS
100
AcDbLine
 10
329.0000000000009
 20
-106.3094000000001
 30
0.0
 11
325.0000000000009
 21
-108.6188000000002
 31
0.0
  0
LINE
  5
9CF9
330
1E
100
AcDbEntity
  8
10
  6
CONTINOUS
100
AcDbLine
 10
419.0000000000009
 20
121.6906000000001
 30
0.0
 11
419.0000000000009
 21
126.3093999999998
 31
0.0
  0
LINE
  5
9CFA
330
1E
100
AcDbEntity
  8
10
  6
CONTINOUS
100
AcDbLine
 10
370.0000000000009
 20
119.3812
 30
0.0
 11
374.0000000000009
 21
121.6906000000001
 31
0.0
  0
LINE
  5
9CFB
330
1E
100
AcDbEntity
  8
10
  6
CONTINOUS
100
AcDbLine
 10
321.0000000000009
 20
121.6906000000001
 30
0.0
 11
325.0000000000009
 21
119.3812
 31
0.0
  0
LINE
  5
9CFC
330
1E
100
AcDbEntity
  8
10
  6
CONTINOUS
100
AcDbLine
 10
364.5000000000009
 20
-104.0
 30
0.0
 11
364.5000000000009
 21
-120.0
 31
0.0
  0
LINE
  5
9CFD
330
1E
100
AcDbEntity
  8
10
  6
CONTINOUS
100
AcDbLine
 10
465.5000000000018
 20
124.0
 30
0.0
 11
465.5000000000018
 21
140.0
 31
0.0
  0
LINE
  5
9CFF
330
1E
100
AcDbEntity
  8
10
  6
CONTINOUS
100
AcDbLine
 10
389.0000000000009
 20
-23.84999999999991
 30
0.0
 11
389.0000000000009
 21
-30.45000000000005
 31
0.0
  0
LINE
  5
9D00
330
1E
100
AcDbEntity
  8
10
  6
CONTINOUS
100
AcDbLine
 10
387.0000000000009
 20
27.03370500000005
 30
0.0
 11
353.0000000000018
 21
27.03370500000005
 31
0.0
  0
LINE
  5
9D01
330
1E
100
AcDbEntity
  8
10
  6
CONTINOUS
100
AcDbLine
 10
428.0000000000018
 20
50.0
 30
0.0
 11
428.0000000000018
 21
-30.0
 31
0.0
  0
LINE
  5
9D02
330
1E
100
AcDbEntity
  8
10
  6
CONTINOUS
100
AcDbLine
 10
419.0000000000009
 20
-101.6906000000001
 30
0.0
 11
419.0000000000009
 21
-106.3094000000001
 31
0.0
  0
LINE
  5
9D03
330
1E
100
AcDbEntity
  8
10
  6
CONTINOUS
100
AcDbLine
 10
370.0000000000009
 20
-99.38119499999993
 30
0.0
 11
374.0000000000009
 21
-101.6906000000001
 31
0.0
  0
LINE
  5
9D04
330
1E
100
AcDbEntity
  8
10
  6
CONTINOUS
100
AcDbLine
 10
321.0000000000009
 20
-101.6906000000001
 30
0.0
 11
325.0000000000009
 21
-99.38119499999993
 31
0.0
  0
LINE
  5
9D05
330
1E
100
AcDbEntity
  8
12
  6
DASHED
100
AcDbLine
 10
347.5000000000009
 20
125.0
 30
0.0
 11
347.5000000000009
 21
109.0
 31
0.0
  0
LINE
  5
9D06
330
1E
100
AcDbEntity
  8
10
  6
CONTINOUS
100
AcDbLine
 10
325.0000000000009
 20
-113.0000000000002
 30
0.0
 11
325.0000000000009
 21
-95.0
 31
0.0
  0
LINE
  5
9D07
330
1E
100
AcDbEntity
  8
10
  6
CONTINOUS
100
AcDbLine
 10
316.0000000000009
 20
124.0
 30
0.0
 11
334.0000000000009
 21
124.0
 31
0.0
  0
LINE
  5
9D08
330
1E
100
AcDbEntity
  8
10
  6
CONTINOUS
100
AcDbLine
 10
460.0000000000009
 20
-113.0000000000002
 30
0.0
 11
460.0000000000009
 21
-95.0
 31
0.0
  0
LINE
  5
9D09
330
1E
100
AcDbEntity
  8
12
  6
DASHED
100
AcDbLine
 10
355.5000000000018
 20
117.0
 30
0.0
 11
339.5000000000009
 21
117.0
 31
0.0
  0
LINE
  5
9D0A
330
1E
100
AcDbEntity
  8
10
  6
CONTINOUS
100
AcDbLine
 10
316.0000000000009
 20
-104.0
 30
0.0
 11
334.0000000000009
 21
-104.0
 31
0.0
  0
LINE
  5
9D0B
330
1E
100
AcDbEntity
  8
10
  6
CONTINOUS
100
AcDbLine
 10
460.0000000000009
 20
115.0
 30
0.0
 11
460.0000000000009
 21
133.0
 31
0.0
  0
LINE
  5
9D0C
330
1E
100
AcDbEntity
  8
10
  6
CONTINOUS
100
AcDbLine
 10
300.0000000000009
 20
-120.0
 30
0.0
 11
485.0000000000009
 21
-120.0
 31
0.0
  0
LINE
  5
9D0E
330
1E
100
AcDbEntity
  8
10
  6
CONTINOUS
100
AcDbLine
 10
300.0000000000009
 20
140.0
 30
0.0
 11
300.0000000000009
 21
-120.0
 31
0.0
  0
LINE
  5
9D0F
330
1E
100
AcDbEntity
  8
10
  6
CONTINOUS
100
AcDbLine
 10
409.5000000000009
 20
124.0
 30
0.0
 11
409.5000000000009
 21
140.0
 31
0.0
  0
LINE
  5
9D10
330
1E
100
AcDbEntity
  8
10
  6
CONTINOUS
100
AcDbLine
 10
465.5000000000018
 20
-104.0
 30
0.0
 11
465.5000000000018
 21
-120.0
 31
0.0
  0
LINE
  5
9D11
330
1E
100
AcDbEntity
  8
10
  6
CONTINOUS
100
AcDbLine
 10
325.0000000000009
 20
119.3812
 30
0.0
 11
329.0000000000009
 21
121.6906000000001
 31
0.0
  0
LINE
  5
9D12
330
1E
100
AcDbEntity
  8
10
  6
CONTINOUS
100
AcDbLine
 10
374.0000000000009
 20
121.6906000000001
 30
0.0
 11
374.0000000000009
 21
126.3093999999998
 31
0.0
  0
LINE
  5
9D13
330
1E
100
AcDbEntity
  8
10
  6
CONTINOUS
100
AcDbLine
 10
464.0000000000009
 20
126.3093999999998
 30
0.0
 11
460.0000000000009
 21
128.6188049999998
 31
0.0
  0
LINE
  5
9D14
330
1E
100
AcDbEntity
  8
10
  6
CONTINOUS
100
AcDbLine
 10
325.0000000000009
 20
-108.6188000000002
 30
0.0
 11
321.0000000000009
 21
-106.3094000000001
 31
0.0
  0
LINE
  5
9D15
330
1E
100
AcDbEntity
  8
10
  6
CONTINOUS
100
AcDbLine
 10
366.0000000000009
 20
-106.3094000000001
 30
0.0
 11
366.0000000000009
 21
-101.6906000000001
 31
0.0
  0
LINE
  5
9D16
330
1E
100
AcDbEntity
  8
10
  6
CONTINOUS
100
AcDbLine
 10
411.0000000000009
 20
-101.6906000000001
 30
0.0
 11
415.0000000000009
 21
-99.38119499999993
 31
0.0
  0
LINE
  5
9D17
330
1E
100
AcDbEntity
  8
10
  6
CONTINOUS
100
AcDbLine
 10
460.0000000000009
 20
-99.38119499999993
 30
0.0
 11
464.0000000000009
 21
-101.6906000000001
 31
0.0
  0
LINE
  5
9D18
330
1E
100
AcDbEntity
  8
10
  6
CONTINOUS
100
AcDbLine
 10
387.0000000000009
 20
49.33264500000018
 30
0.0
 11
353.0000000000018
 21
49.33264500000018
 31
0.0
  0
LINE
  5
9D19
330
1E
100
AcDbEntity
  8
10
  6
CONTINOUS
100
AcDbLine
 10
388.0000000000018
 20
-21.00000000000023
 30
0.0
 11
388.0000000000018
 21
41.0
 31
0.0
  0
LINE
  5
9D1A
330
1E
100
AcDbEntity
  8
10
  6
CONTINOUS
100
AcDbLine
 10
395.5000000000018
 20
-35.0
 30
0.0
 11
395.5000000000018
 21
55.0
 31
0.0
  0
LINE
  5
9D1B
330
1E
100
AcDbEntity
  8
10
  6
CONTINOUS
100
AcDbLine
 10
300.0000000000009
 20
-41.00000000000022
 30
0.0
 11
485.0000000000009
 21
-41.00000000000022
 31
0.0
  0
LINE
  5
9D1C
330
1E
100
AcDbEntity
  8
10
  6
CONTINOUS
100
AcDbLine
 10
415.0000000000009
 20
115.0
 30
0.0
 11
415.0000000000009
 21
133.0
 31
0.0
  0
LINE
  5
9D1D
330
1E
100
AcDbEntity
  8
12
  6
DASHED
100
AcDbLine
 10
392.5000000000009
 20
125.0
 30
0.0
 11
392.5000000000009
 21
109.0
 31
0.0
  0
LINE
  5
9D1E
330
1E
100
AcDbEntity
  8
10
  6
CONTINOUS
100
AcDbLine
 10
451.0000000000009
 20
-104.0
 30
0.0
 11
469.0000000000009
 21
-104.0
 31
0.0
  0
LINE
  5
9D1F
330
1E
100
AcDbEntity
  8
12
  6
DASHED
100
AcDbLine
 10
392.5000000000009
 20
-89.0
 30
0.0
 11
392.5000000000009
 21
-105.0
 31
0.0
  0
LINE
  5
9D21
330
1E
100
AcDbEntity
  8
10
  6
CONTINOUS
100
AcDbLine
 10
364.5000000000009
 20
124.0
 30
0.0
 11
364.5000000000009
 21
140.0
 31
0.0
  0
LINE
  5
9D22
330
1E
100
AcDbEntity
  8
10
  6
CONTINOUS
100
AcDbLine
 10
319.5000000000009
 20
-104.0
 30
0.0
 11
319.5000000000009
 21
-120.0
 31
0.0
  0
LINE
  5
9D23
330
1E
100
AcDbEntity
  8
10
  6
CONTINOUS
100
AcDbLine
 10
321.0000000000009
 20
126.3093999999998
 30
0.0
 11
321.0000000000009
 21
121.6906000000001
 31
0.0
  0
LINE
  5
9D24
330
1E
100
AcDbEntity
  8
10
  6
CONTINOUS
100
AcDbLine
 10
366.0000000000009
 20
121.6906000000001
 30
0.0
 11
370.0000000000009
 21
119.3812
 31
0.0
  0
LINE
  5
9D25
330
1E
100
AcDbEntity
  8
10
  6
CONTINOUS
100
AcDbLine
 10
415.0000000000009
 20
119.3812
 30
0.0
 11
419.0000000000009
 21
121.6906000000001
 31
0.0
  0
LINE
  5
9D26
330
1E
100
AcDbEntity
  8
10
  6
CONTINOUS
100
AcDbLine
 10
464.0000000000009
 20
121.6906000000001
 30
0.0
 11
464.0000000000009
 21
126.3093999999998
 31
0.0
  0
LINE
  5
9D27
330
1E
100
AcDbEntity
  8
10
  6
CONTINOUS
100
AcDbLine
 10
374.0000000000009
 20
-106.3094000000001
 30
0.0
 11
370.0000000000009
 21
-108.6188000000002
 31
0.0
  0
LINE
  5
9D28
330
1E
100
AcDbEntity
  8
10
  6
CONTINOUS
100
AcDbLine
 10
415.0000000000009
 20
-108.6188000000002
 30
0.0
 11
411.0000000000009
 21
-106.3094000000001
 31
0.0
  0
LINE
  5
9D29
330
1E
100
AcDbEntity
  8
10
  6
CONTINOUS
100
AcDbLine
 10
456.0000000000009
 20
-106.3094000000001
 30
0.0
 11
456.0000000000009
 21
-101.6906000000001
 31
0.0
  0
LINE
  5
9D2A
330
1E
100
AcDbEntity
  8
10
  6
CONTINOUS
100
AcDbLine
 10
388.0000000000018
 20
41.0
 30
0.0
 11
387.0000000000009
 21
41.0
 31
0.0
  0
LINE
  5
9D2B
330
1E
100
AcDbEntity
  8
10
  6
CONTINOUS
100
AcDbLine
 10
394.300000000002
 20
-23.84999999999991
 30
0.0
 11
394.300000000002
 21
-30.45000000000005
 31
0.0
  0
LINE
  5
9D2C
330
1E
100
AcDbEntity
  8
10
  6
CONTINOUS
100
AcDbLine
 10
485.0000000000009
 20
140.0
 30
0.0
 11
300.0000000000009
 21
140.0
 31
0.0
  0
LINE
  5
9D2D
330
1E
100
AcDbEntity
  8
10
  6
CONTINOUS
100
AcDbLine
 10
370.0000000000009
 20
115.0
 30
0.0
 11
370.0000000000009
 21
133.0
 31
0.0
  0
LINE
  5
9D2E
330
1E
100
AcDbEntity
  8
10
  6
CONTINOUS
100
AcDbLine
 10
406.0000000000009
 20
-104.0
 30
0.0
 11
424.0000000000009
 21
-104.0
 31
0.0
  0
LINE
  5
9D2F
330
1E
100
AcDbEntity
  8
10
  6
CONTINOUS
100
AcDbLine
 10
451.0000000000009
 20
124.0
 30
0.0
 11
469.0000000000009
 21
124.0
 31
0.0
  0
LINE
  5
9D30
330
1E
100
AcDbEntity
  8
12
  6
DASHED
100
AcDbLine
 10
400.5000000000018
 20
117.0
 30
0.0
 11
384.5000000000009
 21
117.0
 31
0.0
  0
LINE
  5
9D33
330
1E
100
AcDbEntity
  8
10
  6
CONTINOUS
100
AcDbLine
 10
375.5000000000018
 20
124.0
 30
0.0
 11
375.5000000000018
 21
140.0
 31
0.0
  0
LINE
  5
9D34
330
1E
100
AcDbEntity
  8
10
  6
CONTINOUS
100
AcDbLine
 10
330.5000000000018
 20
-104.0
 30
0.0
 11
330.5000000000018
 21
-120.0
 31
0.0
  0
LINE
  5
9D35
330
1E
100
AcDbEntity
  8
10
  6
CONTINOUS
100
AcDbLine
 10
454.5000000000008
 20
-104.0
 30
0.0
 11
454.5000000000008
 21
-120.0
 31
0.0
  0
LINE
  5
9D36
330
1E
100
AcDbEntity
  8
10
  6
CONTINOUS
100
AcDbLine
 10
329.0000000000009
 20
126.3093999999998
 30
0.0
 11
325.0000000000009
 21
128.6188049999998
 31
0.0
  0
LINE
  5
9D37
330
1E
100
AcDbEntity
  8
10
  6
CONTINOUS
100
AcDbLine
 10
370.0000000000009
 20
128.6188049999998
 30
0.0
 11
366.0000000000009
 21
126.3093999999998
 31
0.0
  0
LINE
  5
9D38
330
1E
100
AcDbEntity
  8
10
  6
CONTINOUS
100
AcDbLine
 10
411.0000000000009
 20
126.3093999999998
 30
0.0
 11
411.0000000000009
 21
121.6906000000001
 31
0.0
  0
LINE
  5
9D39
330
1E
100
AcDbEntity
  8
10
  6
CONTINOUS
100
AcDbLine
 10
456.0000000000009
 20
121.6906000000001
 30
0.0
 11
460.0000000000009
 21
119.3812
 31
0.0
  0
LINE
  5
9D3A
330
1E
100
AcDbEntity
  8
10
  6
CONTINOUS
100
AcDbLine
 10
325.0000000000009
 20
-99.38119499999993
 30
0.0
 11
329.0000000000009
 21
-101.6906000000001
 31
0.0
  0
LINE
  5
9D3B
330
1E
100
AcDbEntity
  8
10
  6
CONTINOUS
100
AcDbLine
 10
374.0000000000009
 20
-101.6906000000001
 30
0.0
 11
374.0000000000009
 21
-106.3094000000001
 31
0.0
  0
LINE
  5
9D3C
330
1E
100
AcDbEntity
  8
10
  6
CONTINOUS
100
AcDbLine
 10
464.0000000000009
 20
-106.3094000000001
 30
0.0
 11
460.0000000000009
 21
-108.6188000000002
 31
0.0
  0
LINE
  5
9D3D
330
1E
100
AcDbEntity
  8
10
  6
CONTINOUS
100
AcDbLine
 10
353.0000000000018
 20
27.03370500000005
 30
0.0
 11
353.0000000000018
 21
49.33264500000018
 31
0.0
  0
LINE
  5
9D3E
330
1E
100
AcDbEntity
  8
10
  6
CONTINOUS
100
AcDbLine
 10
389.0000000000009
 20
-23.84999999999991
 30
0.0
 11
394.300000000002
 21
-23.84999999999991
 31
0.0
  0
LINE
  5
9D3F
330
1E
100
AcDbEntity
  8
10
  6
CONTINOUS
100
AcDbLine
 10
325.0000000000009
 20
115.0
 30
0.0
 11
325.0000000000009
 21
133.0
 31
0.0
  0
LINE
  5
9D40
330
1E
100
AcDbEntity
  8
10
  6
CONTINOUS
100
AcDbLine
 10
361.0000000000009
 20
-104.0
 30
0.0
 11
379.0000000000009
 21
-104.0
 31
0.0
  0
LINE
  5
9D41
330
1E
100
AcDbEntity
  8
12
  6
DASHED
100
AcDbLine
 10
347.5000000000009
 20
-89.0
 30
0.0
 11
347.5000000000009
 21
-105.0
 31
0.0
  0
ARC
  5
9D42
330
1E
100
AcDbEntity
  8
10
  6
CONTINOUS
100
AcDbCircle
 10
423.0000000000018
 20
50.0
 30
0.0
 40
5.0
100
AcDbArc
 50
0.0
 51
90.0
  0
ARC
  5
9D43
330
1E
100
AcDbEntity
  8
10
  6
CONTINOUS
100
AcDbCircle
 10
-460.0000000000009
 20
-104.0
 30
0.0
 40
5.5
210
0.0
220
0.0
230
-1.0
100
AcDbArc
 50
0.0
 51
180.0
  0
ARC
  5
9D44
330
1E
100
AcDbEntity
  8
10
  6
CONTINOUS
100
AcDbCircle
 10
-370.0000000000009
 20
-104.0
 30
0.0
 40
8.0
210
0.0
220
0.0
230
-1.0
100
AcDbArc
 50
226.5674630000002
 51
313.4325369999998
  0
ARC
  5
9D45
330
1E
100
AcDbEntity
  8
10
  6
CONTINOUS
100
AcDbCircle
 10
370.0000000000009
 20
124.0
 30
0.0
 40
5.5
100
AcDbArc
 50
180.0
 51
0.0
  0
CIRCLE
  5
9D46
330
1E
100
AcDbEntity
  8
10
  6
CONTINOUS
100
AcDbCircle
 10
370.0000000000009
 20
-104.0
 30
0.0
 40
5.0
  0
ARC
  5
9D47
330
1E
100
AcDbEntity
  8
10
  6
CONTINOUS
100
AcDbCircle
 10
423.0000000000018
 20
-30.0
 30
0.0
 40
5.0
100
AcDbArc
 50
270.0
 51
0.0
  0
CIRCLE
  5
9D48
330
1E
100
AcDbEntity
  8
10
  6
CONTINOUS
100
AcDbCircle
 10
460.0000000000009
 20
124.0
 30
0.0
 40
5.0
  0
CIRCLE
  5
9D49
330
1E
100
AcDbEntity
  8
10
  6
CONTINOUS
100
AcDbCircle
 10
-460.0000000000009
 20
-104.0
 30
0.0
 40
5.0
210
0.0
220
0.0
230
-1.0
  0
ARC
  5
9D4A
330
1E
100
AcDbEntity
  8
10
  6
CONTINOUS
100
AcDbCircle
 10
415.0000000000009
 20
124.0
 30
0.0
 40
8.0
100
AcDbArc
 50
46.5674630000002
 51
133.4325369999997
  0
CIRCLE
  5
9D4B
330
1E
100
AcDbEntity
  8
10
  6
CONTINOUS
100
AcDbCircle
 10
-325.0000000000009
 20
124.0
 30
0.0
 40
5.0
210
0.0
220
0.0
230
-1.0
  0
ARC
  5
9D4C
330
1E
100
AcDbEntity
  8
10
  6
CONTINOUS
100
AcDbCircle
 10
-370.0000000000009
 20
-104.0
 30
0.0
 40
5.5
210
0.0
220
0.0
230
-1.0
100
AcDbArc
 50
0.0
 51
180.0
  0
CIRCLE
  5
9D4D
330
1E
100
AcDbEntity
  8
12
  6
DASHED
100
AcDbCircle
 10
392.5000000000009
 20
-96.99999999999977
 30
0.0
 40
4.0
  0
ARC
  5
9D4E
330
1E
100
AcDbEntity
  8
10
  6
CONTINOUS
100
AcDbCircle
 10
-460.0000000000009
 20
-104.0
 30
0.0
 40
8.0
210
0.0
220
0.0
230
-1.0
100
AcDbArc
 50
226.5674630000002
 51
313.4325369999998
  0
ARC
  5
9D4F
330
1E
100
AcDbEntity
  8
10
  6
CONTINOUS
100
AcDbCircle
 10
325.0000000000009
 20
124.0
 30
0.0
 40
8.0
100
AcDbArc
 50
46.5674630000002
 51
133.4325369999997
  0
ARC
  5
9D50
330
1E
100
AcDbEntity
  8
10
  6
CONTINOUS
100
AcDbCircle
 10
415.0000000000009
 20
124.0
 30
0.0
 40
5.5
100
AcDbArc
 50
180.0
 51
0.0
  0
ARC
  5
9D51
330
1E
100
AcDbEntity
  8
10
  6
CONTINOUS
100
AcDbCircle
 10
-325.0000000000009
 20
-104.0
 30
0.0
 40
8.0
210
0.0
220
0.0
230
-1.0
100
AcDbArc
 50
226.5674630000002
 51
313.4325369999998
  0
ARC
  5
9D52
330
1E
100
AcDbEntity
  8
10
  6
CONTINOUS
100
AcDbCircle
 10
-415.0000000000009
 20
-104.0
 30
0.0
 40
5.5
210
0.0
220
0.0
230
-1.0
100
AcDbArc
 50
0.0
 51
180.0
  0
CIRCLE
  5
9D53
330
1E
100
AcDbEntity
  8
12
  6
DASHED
100
AcDbCircle
 10
-347.5000000000009
 20
117.0
 30
0.0
 40
4.0
210
0.0
220
0.0
230
-1.0
  0
CIRCLE
  5
9D54
330
1E
100
AcDbEntity
  8
10
  6
CONTINOUS
100
AcDbCircle
 10
-415.0000000000009
 20
124.0
 30
0.0
 40
5.0
210
0.0
220
0.0
230
-1.0
  0
ARC
  5
9D55
330
1E
100
AcDbEntity
  8
10
  6
CONTINOUS
100
AcDbCircle
 10
317.0000000000009
 20
-30.0
 30
0.0
 40
5.0
100
AcDbArc
 50
180.0
 51
270.0
  0
ARC
  5
9D56
330
1E
100
AcDbEntity
  8
10
  6
CONTINOUS
100
AcDbCircle
 10
-415.0000000000009
 20
-104.0
 30
0.0
 40
8.0
210
0.0
220
0.0
230
-1.0
100
AcDbArc
 50
226.5674630000002
 51
313.4325369999998
  0
CIRCLE
  5
9D57
330
1E
100
AcDbEntity
  8
12
  6
DASHED
100
AcDbCircle
 10
-392.5000000000009
 20
117.0
 30
0.0
 40
4.0
210
0.0
220
0.0
230
-1.0
  0
ARC
  5
9D58
330
1E
100
AcDbEntity
  8
10
  6
CONTINOUS
100
AcDbCircle
 10
-325.0000000000009
 20
-104.0
 30
0.0
 40
5.5
210
0.0
220
0.0
230
-1.0
100
AcDbArc
 50
0.0
 51
180.0
  0
ARC
  5
9D59
330
1E
100
AcDbEntity
  8
10
  6
CONTINOUS
100
AcDbCircle
 10
460.0000000000009
 20
124.0
 30
0.0
 40
8.0
100
AcDbArc
 50
46.5674630000002
 51
133.4325369999997
  0
CIRCLE
  5
9D5A
330
1E
100
AcDbEntity
  8
10
  6
CONTINOUS
100
AcDbCircle
 10
-370.0000000000009
 20
124.0
 30
0.0
 40
5.0
210
0.0
220
0.0
230
-1.0
  0
ARC
  5
9D5B
330
1E
100
AcDbEntity
  8
10
  6
CONTINOUS
100
AcDbCircle
 10
317.0000000000009
 20
50.0
 30
0.0
 40
5.0
100
AcDbArc
 50
90.0
 51
180.0
  0
CIRCLE
  5
9D5C
330
1E
100
AcDbEntity
  8
10
  6
CONTINOUS
100
AcDbCircle
 10
325.0000000000009
 20
-104.0
 30
0.0
 40
5.0
  0
ARC
  5
9D5D
330
1E
100
AcDbEntity
  8
10
  6
CONTINOUS
100
AcDbCircle
 10
460.0000000000009
 20
124.0
 30
0.0
 40
5.5
100
AcDbArc
 50
180.0
 51
0.0
  0
ARC
  5
9D5E
330
1E
100
AcDbEntity
  8
10
  6
CONTINOUS
100
AcDbCircle
 10
370.0000000000009
 20
124.0
 30
0.0
 40
8.0
100
AcDbArc
 50
46.5674630000002
 51
133.4325369999997
  0
CIRCLE
  5
9D5F
330
1E
100
AcDbEntity
  8
12
  6
DASHED
100
AcDbCircle
 10
347.5000000000009
 20
-96.99999999999977
 30
0.0
 40
4.0
  0
CIRCLE
  5
9D60
330
1E
100
AcDbEntity
  8
10
  6
CONTINOUS
100
AcDbCircle
 10
415.0000000000009
 20
-104.0
 30
0.0
 40
5.0
  0
ARC
  5
9D61
330
1E
100
AcDbEntity
  8
10
  6
CONTINOUS
100
AcDbCircle
 10
325.0000000000009
 20
124.0
 30
0.0
 40
5.5
100
AcDbArc
 50
180.0
 51
0.0
  0
LINE
  5
9EA2
330
1E
100
AcDbEntity
  8
240
  6
PHANTOM
 62
     5
 48
0.05
100
AcDbLine
 10
390.5000000000009
 20
-230.0
 30
0.0
 11
394.5000000000009
 21
-230.0
 31
0.0
  0
LINE
  5
9EA6
330
1E
100
AcDbEntity
  8
240
  6
PHANTOM
 62
     5
 48
0.05
100
AcDbLine
 10
390.5000000000009
 20
250.0
 30
0.0
 11
394.5000000000009
 21
250.0
 31
0.0
  0
LINE
  5
9EA9
330
1E
100
AcDbEntity
  8
240
  6
PHANTOM
 62
     5
 48
0.05
100
AcDbLine
 10
438.5000000000009
 20
250.0
 30
0.0
 11
442.5000000000009
 21
250.0
 31
0.0
  0
LINE
  5
9EAA
330
1E
100
AcDbEntity
  8
240
  6
PHANTOM
 62
     5
 48
0.05
100
AcDbLine
 10
394.5000000000009
 20
140.0
 30
0.0
 11
394.5000000000009
 21
250.0
 31
0.0
  0
LINE
  5
9ECC
330
1E
100
AcDbEntity
  8
240
  6
PHANTOM
 62
     5
 48
0.05
100
AcDbLine
 10
346.5000000000009
 20
140.0
 30
0.0
 11
346.5000000000009
 21
250.0
 31
0.0
  0
LINE
  5
9ED8
330
1E
100
AcDbEntity
  8
240
  6
PHANTOM
 62
     5
 48
0.05
100
AcDbLine
 10
438.5000000000009
 20
-230.0
 30
0.0
 11
442.5000000000009
 21
-230.0
 31
0.0
  0
LINE
  5
9EDD
330
1E
100
AcDbEntity
  8
240
  6
PHANTOM
 62
     5
 48
0.05
100
AcDbLine
 10
438.5000000000009
 20
140.0
 30
0.0
 11
438.5000000000009
 21
250.0
 31
0.0
  0
LINE
  5
9EE1
330
1E
100
AcDbEntity
  8
240
  6
PHANTOM
 62
     5
 48
0.05
100
AcDbLine
 10
390.5000000000009
 20
-120.0
 30
0.0
 11
390.5000000000009
 21
-230.0
 31
0.0
  0
LINE
  5
9EE5
330
1E
100
AcDbEntity
  8
240
  6
PHANTOM
 62
     5
 48
0.05
100
AcDbLine
 10
342.5000000000009
 20
-120.0
 30
0.0
 11
342.5000000000009
 21
-230.0
 31
0.0
  0
LINE
  5
9EF8
330
1E
100
AcDbEntity
  8
240
  6
PHANTOM
 62
     5
 48
0.05
100
AcDbLine
 10
390.5000000000009
 20
140.0
 30
0.0
 11
390.5000000000009
 21
250.0
 31
0.0
  0
LINE
  5
9EFF
330
1E
100
AcDbEntity
  8
240
  6
PHANTOM
 62
     5
 48
0.05
100
AcDbLine
 10
342.5000000000009
 20
-230.0
 30
0.0
 11
346.5000000000009
 21
-230.0
 31
0.0
  0
LINE
  5
9F02
330
1E
100
AcDbEntity
  8
240
  6
PHANTOM
 62
     5
 48
0.05
100
AcDbLine
 10
442.5000000000009
 20
-120.0
 30
0.0
 11
442.5000000000009
 21
-230.0
 31
0.0
  0
LINE
  5
9F0E
330
1E
100
AcDbEntity
  8
240
  6
PHANTOM
 62
     5
 48
0.05
100
AcDbLine
 10
342.5000000000009
 20
140.0
 30
0.0
 11
342.5000000000009
 21
250.0
 31
0.0
  0
LINE
  5
9F13
330
1E
100
AcDbEntity
  8
240
  6
PHANTOM
 62
     5
 48
0.05
100
AcDbLine
 10
438.5000000000009
 20
-120.0
 30
0.0
 11
438.5000000000009
 21
-230.0
 31
0.0
  0
LINE
  5
9F23
330
1E
100
AcDbEntity
  8
240
  6
PHANTOM
 62
     5
 48
0.05
100
AcDbLine
 10
342.5000000000009
 20
250.0
 30
0.0
 11
346.5000000000009
 21
250.0
 31
0.0
  0
LINE
  5
9F24
330
1E
100
AcDbEntity
  8
240
  6
PHANTOM
 62
     5
 48
0.05
100
AcDbLine
 10
442.5000000000009
 20
140.0
 30
0.0
 11
442.5000000000009
 21
250.0
 31
0.0
  0
LINE
  5
9F28
330
1E
100
AcDbEntity
  8
240
  6
PHANTOM
 62
     5
 48
0.05
100
AcDbLine
 10
346.5000000000009
 20
-120.0
 30
0.0
 11
346.5000000000009
 21
-230.0
 31
0.0
  0
LINE
  5
9F29
330
1E
100
AcDbEntity
  8
240
  6
PHANTOM
 62
     5
 48
0.05
100
AcDbLine
 10
394.5000000000009
 20
-120.0
 30
0.0
 11
394.5000000000009
 21
-230.0
 31
0.0
  0
LWPOLYLINE
  5
A056
330
1E
100
AcDbEntity
  8
17
100
AcDbPolyline
 90
        4
 70
     1
 43
0.75
 10
240.0000000000009
 20
-198.0000000000002
 10
545.0
 20
-198.0000000000002
 10
545.0
 20
218.0
 10
240.0000000000009
 20
218.0
  0
DIMENSION
  5
A16E
330
1E
100
AcDbEntity
  8
30
  6
Continuous
100
AcDbDimension
  2
*D133
 10
564.9999999999995
 20
-120.0
 30
0.0
 11
559.9999999999995
 21
-174.9999999999999
 31
0.0
 70
    32
 71
     5
 42
110.0
  3
STANDARD1
100
AcDbAlignedDimension
 13
442.5000000000009
 23
-230.0
 33
0.0
 14
484.9999999999995
 24
-120.0
 34
0.0
 50
270.0
100
AcDbRotatedDimension
  0
DIMENSION
  5
A4B5
330
1E
100
AcDbEntity
  8
30
  6
Continuous
100
AcDbDimension
  2
*D140
 10
210.0
 20
-104.0
 30
0.0
 11
205.0
 21
10.00000000000006
 31
0.0
 70
    32
 71
     5
 42
228.0
  3
STANDARD1
100
AcDbAlignedDimension
 13
316.0000000000009
 23
124.0
 33
0.0
 14
316.0000000000009
 24
-104.0
 34
0.0
 50
90.0
100
AcDbRotatedDimension
  0
DIMENSION
  5
A50B
330
1E
100
AcDbEntity
  8
30
  6
Continuous
100
AcDbDimension
  2
*D145
 10
370.0
 20
-210.0
 30
0.0
 11
357.5
 21
-210.0
 31
0.0
 70
   160
 71
     5
 42
45.0
  3
STANDARD1
100
AcDbAlignedDimension
 13
325.0
 23
-113.0000000000002
 33
0.0
 14
370.0
 24
-202.0
 34
0.0
100
AcDbRotatedDimension
  0
LINE
  5
A50C
330
1E
100
AcDbEntity
  8
16
100
AcDbLine
 10
370.0
 20
220.0
 30
0.0
 11
370.0
 21
-202.0
 31
0.0
  0
LINE
  5
A50D
330
1E
100
AcDbEntity
  8
16
100
AcDbLine
 10
370.0
 20
220.0
 30
0.0
 11
370.0
 21
-202.0
 31
0.0
  0
DIMENSION
  5
A50E
330
1E
100
AcDbEntity
  8
30
  6
Continuous
100
AcDbDimension
  2
*D146
 10
415.0
 20
-210.0
 30
0.0
 11
402.5
 21
-210.0
 31
0.0
 70
   160
 71
     5
 42
45.0
  3
STANDARD1
100
AcDbAlignedDimension
 13
370.0
 23
-113.0000000000002
 33
0.0
 14
415.0
 24
-113.0000000000002
 34
0.0
100
AcDbRotatedDimension
  0
DIMENSION
  5
A50F
330
1E
100
AcDbEntity
  8
30
  6
Continuous
100
AcDbDimension
  2
*D147
 10
460.0000000000009
 20
-210.0
 30
0.0
 11
427.5000000000004
 21
-210.0
 31
0.0
 70
   160
 71
     5
 42
45.00000000000091
  3
STANDARD1
100
AcDbAlignedDimension
 13
415.0
 23
-113.0000000000002
 33
0.0
 14
460.0000000000009
 24
-113.0000000000002
 34
0.0
100
AcDbRotatedDimension
  0
VIEWPORT
  5
9AC
102
{ACAD_XDICTIONARY
360
A580
102
}
330
1A
100
AcDbEntity
 67
     1
  8
0
  6
Continuous
100
AcDbViewport
 10
171.999535
 20
144.1384739999999
 30
0.0
 40
488.867686
 41
292.351491
 68
    -1
 69
     1
 12
171.999535
 22
144.1384739999999
 13
0.0
 23
0.0
 14
10.0
 24
10.0
 15
10.0
 25
10.0
 16
0.0
 26
0.0
 36
1.0
 17
0.0
 27
0.0
 37
0.0
 42
50.0
 43
0.0
 44
0.0
 45
292.351491
 50
0.0
 51
0.0
 72
   100
 90
    32800
  1

281
     0
 71
     1
 74
     0
110
0.0
120
0.0
130
0.0
111
1.0
121
0.0
131
0.0
112
0.0
122
1.0
132
0.0
 79
     0
146
0.0
  0
ENDSEC
  0
SECTION
  2
OBJECTS
  0
DICTIONARY
  5
C
330
0
100
AcDbDictionary
281
     1
  3
ACAD_2007HEADERVARS_RT
350
A57E
  3
ACAD_CIP_PREVIOUS_PRODUCT_INFO
350
8AA8
  3
ACAD_COLOR
350
8A8A
  3
ACAD_DETAILVIEWSTYLE
350
8AA3
  3
ACAD_GROUP
350
D
  3
ACAD_LAYOUT
350
19
  3
ACAD_MATERIAL
350
8A58
  3
ACAD_MLEADERSTYLE
350
8A9F
  3
ACAD_MLINESTYLE
350
16
  3
ACAD_PLOTSETTINGS
350
18
  3
ACAD_PLOTSTYLENAME
350
E
  3
ACAD_SCALELIST
350
8A8D
  3
ACAD_SECTIONVIEWSTYLE
350
8AA1
  3
ACAD_TABLESTYLE
350
8A8B
  3
ACAD_VISUALSTYLE
350
8A71
  3
ACADDIM
350
6D5E
  3
ACDB_RECOMPOSE_DATA
350
A57C
  3
ACDBVARIABLEDICTIONARY
350
5697
  3
AEC_PROPERTY_SET_DEFS
350
96E1
  3
ASE_INDEX_DICTIONARY
350
A550
  3
DWGPROPS
350
A57D
  0
DICTIONARY
  5
9584
330
2
100
AcDbDictionary
280
     1
281
     1
  3
ACAD_LAYERSTATES
360
9585
  0
DICTIONARY
  5
8ACC
330
10
100
AcDbDictionary
280
     1
281
     1
  3
ADSK_XREC_LAYER_RECONCILED
360
8ACD
  0
DICTIONARY
  5
8ACE
330
2F
100
AcDbDictionary
280
     1
281
     1
  3
ADSK_XREC_LAYER_RECONCILED
360
8ACF
  0
DICTIONARY
  5
8AD0
330
31
100
AcDbDictionary
280
     1
281
     1
  3
ADSK_XREC_LAYER_RECONCILED
360
8AD1
  0
DICTIONARY
  5
8AD2
330
35
100
AcDbDictionary
280
     1
281
     1
  3
ADSK_XREC_LAYER_RECONCILED
360
8AD3
  0
DICTIONARY
  5
8AD6
330
3D
100
AcDbDictionary
280
     1
281
     1
  3
ADSK_XREC_LAYER_RECONCILED
360
8AD7
  0
DICTIONARY
  5
8AD8
330
3A2
100
AcDbDictionary
280
     1
281
     1
  3
ADSK_XREC_LAYER_RECONCILED
360
8AD9
  0
DICTIONARY
  5
8ADA
330
3BBA
100
AcDbDictionary
280
     1
281
     1
  3
ADSK_XREC_LAYER_RECONCILED
360
8ADB
  0
DICTIONARY
  5
8ADC
330
67A8
100
AcDbDictionary
280
     1
281
     1
  3
ADSK_XREC_LAYER_RECONCILED
360
8ADD
  0
DICTIONARY
  5
8ADE
330
7837
100
AcDbDictionary
280
     1
281
     1
  3
ADSK_XREC_LAYER_RECONCILED
360
8ADF
  0
DICTIONARY
  5
178
330
1E
100
AcDbDictionary
280
     1
281
     1
  3
ACAD_LAYOUTSELFREF
360
8A0F
  0
DICTIONARY
  5
17A
330
1A
100
AcDbDictionary
280
     1
281
     1
  3
ACAD_LAYOUTSELFREF
360
8A0E
  0
DICTIONARY
  5
A58F
330
9A38
100
AcDbDictionary
280
     1
281
     1
  3
ACAD_MTEXT_RT
360
A590
  0
DICTIONARY
  5
A580
330
9AC
100
AcDbDictionary
280
     1
281
     1
  3
ACAD_XREC_ROUNDTRIP
360
A581
  0
DICTIONARY
  5
A57E
102
{ACAD_REACTORS
330
C
102
}
330
C
100
AcDbDictionary
281
     1
  3
INTERFEREVPVS
350
A57F
  0
XRECORD
  5
8AA8
102
{ACAD_REACTORS
330
C
102
}
330
C
100
AcDbXrecord
280
     1
300
ACDLT
300
2015
300
ACDLT_F_S
  0
DICTIONARY
  5
8A8A
102
{ACAD_REACTORS
330
C
102
}
330
C
100
AcDbDictionary
281
     1
  0
DICTIONARY
  5
8AA3
102
{ACAD_REACTORS
330
C
102
}
330
C
100
AcDbDictionary
281
     1
  3
Imperial24
350
8AA4
  0
DICTIONARY
  5
D
102
{ACAD_REACTORS
330
C
102
}
330
C
100
AcDbDictionary
281
     1
  0
DICTIONARY
  5
19
102
{ACAD_REACTORS
330
C
102
}
330
C
100
AcDbDictionary
281
     1
  3
Model
350
8A4C
  3
ﾚｲｱｳﾄ1
350
8A4D
  0
DICTIONARY
  5
8A58
102
{ACAD_REACTORS
330
C
102
}
330
C
100
AcDbDictionary
281
     1
  3
ByBlock
350
8A61
  3
ByLayer
350
8A59
  3
Global
350
8A69
  0
DICTIONARY
  5
8A9F
102
{ACAD_REACTORS
330
C
102
}
330
C
100
AcDbDictionary
281
     1
  3
Standard
350
8AA0
  0
DICTIONARY
  5
16
102
{ACAD_REACTORS
330
C
102
}
330
C
100
AcDbDictionary
281
     1
  3
STANDARD
350
17
  0
DICTIONARY
  5
18
102
{ACAD_REACTORS
330
C
102
}
330
C
100
AcDbDictionary
281
     1
  0
ACDBDICTIONARYWDFLT
  5
E
102
{ACAD_REACTORS
330
C
102
}
330
C
100
AcDbDictionary
281
     1
  3
Normal
350
F
100
AcDbDictionaryWithDefault
340
F
  0
DICTIONARY
  5
8A8D
102
{ACAD_REACTORS
330
C
102
}
330
C
100
AcDbDictionary
281
     1
  3
A0
350
8A8E
  3
A1
350
8A8F
  3
A2
350
8A90
  3
A3
350
8A91
  3
A4
350
8A92
  3
A5
350
8A93
  3
A6
350
8A94
  3
A7
350
8A95
  3
A8
350
8A96
  3
A9
350
8A97
  3
B0
350
8A98
  3
B1
350
8A99
  3
B2
350
8A9A
  3
B3
350
8A9B
  3
B4
350
8A9C
  3
B5
350
8A9D
  3
B6
350
8A9E
  0
DICTIONARY
  5
8AA1
102
{ACAD_REACTORS
330
C
102
}
330
C
100
AcDbDictionary
281
     1
  3
Imperial24
350
8AA2
  0
DICTIONARY
  5
8A8B
102
{ACAD_REACTORS
330
C
102
}
330
C
100
AcDbDictionary
281
     1
  3
Standard
350
8A8C
  0
DICTIONARY
  5
8A71
102
{ACAD_REACTORS
330
C
102
}
330
C
100
AcDbDictionary
281
     1
  3
2dWireframe
350
8A77
  3
3D Hidden
350
8B2B
  3
3dWireframe
350
8B2A
  3
Basic
350
8A76
  3
Brighten
350
8A7D
  3
ColorChange
350
8A81
  3
Conceptual
350
8A7A
  3
Dim
350
8A7C
  3
EdgeColorOff
350
8A89
  3
Facepattern
350
8A80
  3
Flat
350
8A72
  3
FlatWithEdges
350
8A73
  3
Gouraud
350
8A74
  3
GouraudWithEdges
350
8A75
  3
Hidden
350
8A79
  3
JitterOff
350
8A87
  3
Linepattern
350
8A7F
  3
OverhangOff
350
8A88
  3
Realistic
350
8A7B
  3
Shaded
350
8A86
  3
Shaded with edges
350
8A85
  3
Shades of Gray
350
8A82
  3
Sketchy
350
8A83
  3
Thicken
350
8A7E
  3
Wireframe
350
8A78
  3
X-Ray
350
8A84
  0
XRECORD
  5
6D5E
102
{ACAD_REACTORS
330
C
102
}
330
C
100
AcDbXrecord
280
     1
 90
   990106
  3

 60
     0
 61
     0
 62
     1
 63
     3
 64
     0
 65
     0
 66
     0
 67
     3
 68
     1
 69
     0
 70
     0
 71
     0
 72
     0
 40
0.0
170
     0
340
7CA9
  0
XRECORD
  5
A57C
102
{ACAD_REACTORS
330
C
102
}
330
C
100
AcDbXrecord
280
     1
 90
        1
330
8A8C
330
980F
  0
DICTIONARY
  5
5697
102
{ACAD_REACTORS
330
C
102
}
330
C
100
AcDbDictionary
281
     1
  3
CANNOSCALE
350
8AE9
  3
CMLEADERSTYLE
350
8AE5
  3
CTABLESTYLE
350
8AE4
  3
CVIEWDETAILSTYLE
350
8AE6
  3
CVIEWSECTIONSTYLE
350
8AE7
  3
DIMASSOC
350
5698
  3
INDEXCTL
350
A553
  3
LAYEREVAL
350
8AEB
  3
LAYERNOTIFY
350
8AEC
  3
LIGHTINGUNITS
350
8AEA
  3
LOFTANG1
350
A555
  3
LOFTANG2
350
A556
  3
LONGITUDE
350
A557
  3
MSLTSCALE
350
8AE8
  3
SOLIDHIST
350
A554
  3
SORTENTS
350
A552
  3
XCLIPFRAME
350
A558
  0
DICTIONARY
  5
96E1
102
{ACAD_REACTORS
330
C
102
}
330
C
100
AcDbDictionary
281
     1
  0
DICTIONARY
  5
A550
102
{ACAD_REACTORS
330
C
102
}
330
C
100
AcDbDictionary
281
     1
  3
ASEBlockHierarchyIndexRecord
350
A551
1001
DCO15
1040
1853561523.511
  0
XRECORD
  5
A57D
102
{ACAD_REACTORS
330
C
102
}
330
C
100
AcDbXrecord
280
     1
  1
DWGPROPS COOKIE
  2

  3

  4

  6

  7

  8
CAD-PC
  9

300
=
301
=
302
=
303
=
304
=
305
=
306
=
307
=
308
=
309
=
 40
1.387275902777777
 41
2452286.555658658
 42
2457256.470225822
  1

 90
        0
  0
DICTIONARY
  5
9585
102
{ACAD_REACTORS
330
9584
102
}
330
9584
100
AcDbDictionary
281
     1
  0
XRECORD
  5
8ACD
102
{ACAD_REACTORS
330
8ACC
102
}
330
8ACC
100
AcDbXrecord
280
     1
290
     1
  0
XRECORD
  5
8ACF
102
{ACAD_REACTORS
330
8ACE
102
}
330
8ACE
100
AcDbXrecord
280
     1
290
     1
  0
XRECORD
  5
8AD1
102
{ACAD_REACTORS
330
8AD0
102
}
330
8AD0
100
AcDbXrecord
280
     1
290
     1
  0
XRECORD
  5
8AD3
102
{ACAD_REACTORS
330
8AD2
102
}
330
8AD2
100
AcDbXrecord
280
     1
290
     1
  0
XRECORD
  5
8AD7
102
{ACAD_REACTORS
330
8AD6
102
}
330
8AD6
100
AcDbXrecord
280
     1
290
     1
  0
XRECORD
  5
8AD9
102
{ACAD_REACTORS
330
8AD8
102
}
330
8AD8
100
AcDbXrecord
280
     1
290
     1
  0
XRECORD
  5
8ADB
102
{ACAD_REACTORS
330
8ADA
102
}
330
8ADA
100
AcDbXrecord
280
     1
290
     1
  0
XRECORD
  5
8ADD
102
{ACAD_REACTORS
330
8ADC
102
}
330
8ADC
100
AcDbXrecord
280
     1
290
     1
  0
XRECORD
  5
8ADF
102
{ACAD_REACTORS
330
8ADE
102
}
330
8ADE
100
AcDbXrecord
280
     1
290
     1
  0
XRECORD
  5
8A0F
102
{ACAD_REACTORS
330
178
102
}
330
178
100
AcDbXrecord
280
     1
340
1E
  0
XRECORD
  5
8A0E
102
{ACAD_REACTORS
330
17A
102
}
330
17A
100
AcDbXrecord
280
     1
340
1A
  0
XRECORD
  5
A590
102
{ACAD_REACTORS
330
A58F
102
}
330
A58F
100
AcDbXrecord
280
     1
 40
5014.0
  1
\A1;\U+220511
  0
XRECORD
  5
A581
102
{ACAD_REACTORS
330
A580
102
}
330
A580
100
AcDbXrecord
280
     1
102
SHADEPLOT
 70
     0
  0
XRECORD
  5
A57F
102
{ACAD_REACTORS
330
A57E
102
}
330
A57E
100
AcDbXrecord
280
     1
340
8A78
  0
ACAD_PROXY_OBJECT
  5
8AA4
102
{ACAD_XDICTIONARY
360
8B22
102
}
102
{ACAD_REACTORS
330
8AA3
102
}
330
8AA3
100
AcDbProxyObject
 90
      499
 91
      508
 95
 11993117
 70
     1
100
AcDbModelDocViewStyle
 70
     0
  3
Imperial24
290
     0
100
AcDbDetailViewStyle
 70
     0
 71
     0
 90
        3
 71
     1
340
11
 62
   256
 40
0.24
340
0
 62
   256
 40
0.24
300

 40
0.36
280
     3
 71
     2
340
15
 90
       25
 62
   256
 71
     3
340
11
 62
   256
 40
0.24
 90
        1
 40
0.75
 90
        1
300
%<\AcVar ViewType \f "%tc1">% %<\AcVar ViewDetailId>%\PSCALE %<\AcVar ViewScale \f "%sn">%
 71
     4
340
15
 90
       25
 62
   256
340
15
 90
       25
 62
   256
280
     0
1001
ACAD
1000
AcRTDxfName
1000
ACDBDETAILVIEWSTYLE
  0
LAYOUT
  5
8A4C
102
{ACAD_XDICTIONARY
360
A582
102
}
102
{ACAD_REACTORS
330
19
102
}
330
19
100
AcDbPlotSettings
  1

  2
Canon LBP8620 CAD242
  4
A4
  6

 40
3.174999952316284
 41
3.174999952316284
 42
3.17498779296875
 43
3.175003051757812
 44
296.9259948730469
 45
209.9733276367187
 46
5.293733067248609
 47
8.876831543800378
 48
0.0
 49
0.0
140
0.0
141
0.0
142
1.0
143
3.5
 70
 11940
 72
     1
 73
     1
 74
     1
  7
monochrome.ctb
 75
     0
147
0.2965182647393231
148
-196.9652887017323
149
550.5741247767955
100
AcDbLayout
  1
Model
 70
     1
 71
     0
 10
0.0
 20
0.0
 11
12.0
 21
9.0
 12
0.0
 22
0.0
 32
0.0
 14
0.0
 24
0.0
 34
0.0
 15
0.0
 25
0.0
 35
0.0
146
0.0
 13
0.0
 23
0.0
 33
0.0
 16
1.0
 26
0.0
 36
0.0
 17
0.0
 27
1.0
 37
0.0
 76
     0
330
1E
331
8A51
1001
ACAD_PSEXT
1000
Canon LBP8620 CAD242
1000
Canon LBP8630/8620/8610 LIPSLX
1000
IP_192.168.54.242
1000

1070
     0
  0
LAYOUT
  5
8A4D
102
{ACAD_XDICTIONARY
360
A584
102
}
102
{ACAD_REACTORS
330
19
102
}
330
19
100
AcDbPlotSettings
  1

  2
Canon LBP3800 LIPSLX
  4

  6

 40
0.0
 41
0.0
 42
0.0
 43
0.0
 44
0.0
 45
0.0
 46
0.0
 47
0.0
 48
0.0
 49
0.0
140
0.0
141
0.0
142
1.0
143
1.0
 70
   688
 72
     0
 73
     0
 74
     5
  7
monochrome.ctb
 75
    16
147
1.0
148
0.0
149
0.0
100
AcDbLayout
  1
ﾚｲｱｳﾄ1
 70
     1
 71
     1
 10
-5.873749
 20
-5.87375
 11
204.099579
 21
291.1369009999999
 12
0.0
 22
0.0
 32
0.0
 14
4.273573
 24
5.205245999999998
 34
0.0
 15
194.610095
 25
283.0697009999996
 35
0.0
146
0.0
 13
0.0
 23
0.0
 33
0.0
 16
1.0
 26
0.0
 36
0.0
 17
0.0
 27
1.0
 37
0.0
 76
     0
330
1A
  0
MATERIAL
  5
8A61
102
{ACAD_XDICTIONARY
360
8A62
102
}
102
{ACAD_REACTORS
330
8A58
102
}
330
8A58
100
AcDbMaterial
  1
ByBlock
 72
     0
 43
0.0208333333333333
 43
0.0
 43
0.0
 43
0.0
 43
0.0
 43
0.0208333333333333
 43
0.0
 43
0.0
 43
0.0
 43
0.0
 43
1.0
 43
0.0
 43
0.0
 43
0.0
 43
0.0
 43
1.0
 77
     0
 47
0.0208333333333333
 47
0.0
 47
0.0
 47
0.0
 47
0.0
 47
0.0208333333333333
 47
0.0
 47
0.0
 47
0.0
 47
0.0
 47
1.0
 47
0.0
 47
0.0
 47
0.0
 47
0.0
 47
1.0
171
     0
 49
0.0208333333333333
 49
0.0
 49
0.0
 49
0.0
 49
0.0
 49
0.0208333333333333
 49
0.0
 49
0.0
 49
0.0
 49
0.0
 49
1.0
 49
0.0
 49
0.0
 49
0.0
 49
0.0
 49
1.0
175
     0
142
0.0208333333333333
142
0.0
142
0.0
142
0.0
142
0.0
142
0.0208333333333333
142
0.0
142
0.0
142
0.0
142
0.0
142
1.0
142
0.0
142
0.0
142
0.0
142
0.0
142
1.0
179
     0
144
0.0208333333333333
144
0.0
144
0.0
144
0.0
144
0.0
144
0.0208333333333333
144
0.0
144
0.0
144
0.0
144
0.0
144
1.0
144
0.0
144
0.0
144
0.0
144
0.0
144
1.0
147
0.0208333333333333
147
0.0
147
0.0
147
0.0
147
0.0
147
0.0208333333333333
147
0.0
147
0.0
147
0.0
147
0.0
147
1.0
147
0.0
147
0.0
147
0.0
147
0.0
147
1.0
  0
MATERIAL
  5
8A59
102
{ACAD_XDICTIONARY
360
8A5A
102
}
102
{ACAD_REACTORS
330
8A58
102
}
330
8A58
100
AcDbMaterial
  1
ByLayer
 72
     0
 43
0.0208333333333333
 43
0.0
 43
0.0
 43
0.0
 43
0.0
 43
0.0208333333333333
 43
0.0
 43
0.0
 43
0.0
 43
0.0
 43
1.0
 43
0.0
 43
0.0
 43
0.0
 43
0.0
 43
1.0
 77
     0
 47
0.0208333333333333
 47
0.0
 47
0.0
 47
0.0
 47
0.0
 47
0.0208333333333333
 47
0.0
 47
0.0
 47
0.0
 47
0.0
 47
1.0
 47
0.0
 47
0.0
 47
0.0
 47
0.0
 47
1.0
171
     0
 49
0.0208333333333333
 49
0.0
 49
0.0
 49
0.0
 49
0.0
 49
0.0208333333333333
 49
0.0
 49
0.0
 49
0.0
 49
0.0
 49
1.0
 49
0.0
 49
0.0
 49
0.0
 49
0.0
 49
1.0
175
     0
142
0.0208333333333333
142
0.0
142
0.0
142
0.0
142
0.0
142
0.0208333333333333
142
0.0
142
0.0
142
0.0
142
0.0
142
1.0
142
0.0
142
0.0
142
0.0
142
0.0
142
1.0
179
     0
144
0.0208333333333333
144
0.0
144
0.0
144
0.0
144
0.0
144
0.0208333333333333
144
0.0
144
0.0
144
0.0
144
0.0
144
1.0
144
0.0
144
0.0
144
0.0
144
0.0
144
1.0
147
0.0208333333333333
147
0.0
147
0.0
147
0.0
147
0.0
147
0.0208333333333333
147
0.0
147
0.0
147
0.0
147
0.0
147
1.0
147
0.0
147
0.0
147
0.0
147
0.0
147
1.0
  0
MATERIAL
  5
8A69
102
{ACAD_XDICTIONARY
360
8A6A
102
}
102
{ACAD_REACTORS
330
8A58
102
}
330
8A58
100
AcDbMaterial
  1
Global
 72
     0
 43
0.0208333333333333
 43
0.0
 43
0.0
 43
0.0
 43
0.0
 43
0.0208333333333333
 43
0.0
 43
0.0
 43
0.0
 43
0.0
 43
1.0
 43
0.0
 43
0.0
 43
0.0
 43
0.0
 43
1.0
 77
     0
 47
0.0208333333333333
 47
0.0
 47
0.0
 47
0.0
 47
0.0
 47
0.0208333333333333
 47
0.0
 47
0.0
 47
0.0
 47
0.0
 47
1.0
 47
0.0
 47
0.0
 47
0.0
 47
0.0
 47
1.0
171
     0
 49
0.0208333333333333
 49
0.0
 49
0.0
 49
0.0
 49
0.0
 49
0.0208333333333333
 49
0.0
 49
0.0
 49
0.0
 49
0.0
 49
1.0
 49
0.0
 49
0.0
 49
0.0
 49
0.0
 49
1.0
175
     0
142
0.0208333333333333
142
0.0
142
0.0
142
0.0
142
0.0
142
0.0208333333333333
142
0.0
142
0.0
142
0.0
142
0.0
142
1.0
142
0.0
142
0.0
142
0.0
142
0.0
142
1.0
179
     0
144
0.0208333333333333
144
0.0
144
0.0
144
0.0
144
0.0
144
0.0208333333333333
144
0.0
144
0.0
144
0.0
144
0.0
144
1.0
144
0.0
144
0.0
144
0.0
144
0.0
144
1.0
147
0.0208333333333333
147
0.0
147
0.0
147
0.0
147
0.0
147
0.0208333333333333
147
0.0
147
0.0
147
0.0
147
0.0
147
1.0
147
0.0
147
0.0
147
0.0
147
0.0
147
1.0
  0
MLEADERSTYLE
  5
8AA0
102
{ACAD_REACTORS
330
8A9F
102
}
330
8A9F
100
AcDbMLeaderStyle
170
     2
171
     1
172
     0
 90
        2
 40
0.0
 41
0.0
173
     1
 91
-1056964608
340
13
 92
       -2
290
     1
 42
0.09
291
     1
 43
0.36
  3
Standard
 44
0.18
300

342
11
174
     1
178
     6
175
     1
176
     0
 93
-1056964608
 45
0.18
292
     0
297
     0
 46
0.18
 94
-1056964608
 47
1.0
 49
1.0
140
1.0
293
     1
141
0.0
294
     1
177
     0
142
1.0
295
     0
296
     0
143
0.125
1001
ACAD_MLEADERVER
1070
     2
  0
MLINESTYLE
  5
17
102
{ACAD_REACTORS
330
16
102
}
330
16
100
AcDbMlineStyle
  2
STANDARD
 70
     0
  3

 62
   256
 51
90.0
 52
90.0
 71
     2
 49
0.5
 62
   256
  6
BYLAYER
 49
-0.5
 62
   256
  6
BYLAYER
  0
ACDBPLACEHOLDER
  5
F
102
{ACAD_REACTORS
330
E
102
}
330
E
  0
SCALE
  5
8A8E
102
{ACAD_REACTORS
330
8A8D
102
}
330
8A8D
100
AcDbScale
 70
     0
300
1:1
140
1.0
141
1.0
290
     1
  0
SCALE
  5
8A8F
102
{ACAD_REACTORS
330
8A8D
102
}
330
8A8D
100
AcDbScale
 70
     0
300
1/128" = 1'-0"
140
0.0078125
141
12.0
290
     0
  0
SCALE
  5
8A90
102
{ACAD_REACTORS
330
8A8D
102
}
330
8A8D
100
AcDbScale
 70
     0
300
1/64" = 1'-0"
140
0.015625
141
12.0
290
     0
  0
SCALE
  5
8A91
102
{ACAD_REACTORS
330
8A8D
102
}
330
8A8D
100
AcDbScale
 70
     0
300
1/32" = 1'-0"
140
0.03125
141
12.0
290
     0
  0
SCALE
  5
8A92
102
{ACAD_REACTORS
330
8A8D
102
}
330
8A8D
100
AcDbScale
 70
     0
300
1/16" = 1'-0"
140
0.0625
141
12.0
290
     0
  0
SCALE
  5
8A93
102
{ACAD_REACTORS
330
8A8D
102
}
330
8A8D
100
AcDbScale
 70
     0
300
3/32" = 1'-0"
140
0.09375
141
12.0
290
     0
  0
SCALE
  5
8A94
102
{ACAD_REACTORS
330
8A8D
102
}
330
8A8D
100
AcDbScale
 70
     0
300
1/8" = 1'-0"
140
0.125
141
12.0
290
     0
  0
SCALE
  5
8A95
102
{ACAD_REACTORS
330
8A8D
102
}
330
8A8D
100
AcDbScale
 70
     0
300
3/16" = 1'-0"
140
0.1875
141
12.0
290
     0
  0
SCALE
  5
8A96
102
{ACAD_REACTORS
330
8A8D
102
}
330
8A8D
100
AcDbScale
 70
     0
300
1/4" = 1'-0"
140
0.25
141
12.0
290
     0
  0
SCALE
  5
8A97
102
{ACAD_REACTORS
330
8A8D
102
}
330
8A8D
100
AcDbScale
 70
     0
300
3/8" = 1'-0"
140
0.375
141
12.0
290
     0
  0
SCALE
  5
8A98
102
{ACAD_REACTORS
330
8A8D
102
}
330
8A8D
100
AcDbScale
 70
     0
300
1/2" = 1'-0"
140
0.5
141
12.0
290
     0
  0
SCALE
  5
8A99
102
{ACAD_REACTORS
330
8A8D
102
}
330
8A8D
100
AcDbScale
 70
     0
300
3/4" = 1'-0"
140
0.75
141
12.0
290
     0
  0
SCALE
  5
8A9A
102
{ACAD_REACTORS
330
8A8D
102
}
330
8A8D
100
AcDbScale
 70
     0
300
1" = 1'-0"
140
1.0
141
12.0
290
     0
  0
SCALE
  5
8A9B
102
{ACAD_REACTORS
330
8A8D
102
}
330
8A8D
100
AcDbScale
 70
     0
300
1-1/2" = 1'-0"
140
1.5
141
12.0
290
     0
  0
SCALE
  5
8A9C
102
{ACAD_REACTORS
330
8A8D
102
}
330
8A8D
100
AcDbScale
 70
     0
300
3" = 1'-0"
140
3.0
141
12.0
290
     0
  0
SCALE
  5
8A9D
102
{ACAD_REACTORS
330
8A8D
102
}
330
8A8D
100
AcDbScale
 70
     0
300
6" = 1'-0"
140
6.0
141
12.0
290
     0
  0
SCALE
  5
8A9E
102
{ACAD_REACTORS
330
8A8D
102
}
330
8A8D
100
AcDbScale
 70
     0
300
1'-0" = 1'-0"
140
12.0
141
12.0
290
     0
  0
ACAD_PROXY_OBJECT
  5
8AA2
102
{ACAD_XDICTIONARY
360
8B20
102
}
102
{ACAD_REACTORS
330
8AA1
102
}
330
8AA1
100
AcDbProxyObject
 90
      499
 91
      507
 95
 11993117
 70
     1
100
AcDbModelDocViewStyle
 70
     0
  3
Imperial24
290
     0
100
AcDbSectionViewStyle
 70
     0
 71
     0
 90
       78
 71
     1
340
11
 62
   256
 40
0.24
340
0
340
0
 62
   256
 40
0.24
300
I, O, Q, S, X, Z
 40
0.48
 90
        3
 40
0.18
 90
        1
 71
     2
340
15
 90
       25
 62
   256
340
15
 90
       50
 62
   256
 40
0.24
 40
0.0
 40
0.24
 71
     3
340
11
 62
   256
 40
0.24
 90
        1
 40
0.75
 90
        1
300
%<\AcVar ViewType \f "%tc1">% %<\AcVar ViewSectionStartId>%-%<\AcVar ViewSectionEndId>%\PSCALE %<\AcVar ViewScale \f "%sn">%
 71
     4
 62
   256
 62
   257
300
ANSI31
 40
1.0
 90
        0
290
     0
290
     0
 90
        6
 40
0.0
 40
1.570796326794896
 40
0.2617993877991494
 40
1.308996938995747
 40
-0.2617993877991494
 40
1.832595714594045
1001
ACAD
1000
AcRTDxfName
1000
ACDBSECTIONVIEWSTYLE
  0
TABLESTYLE
  5
8A8C
102
{ACAD_XDICTIONARY
360
8AED
102
}
102
{ACAD_REACTORS
330
8A8B
102
}
330
8A8B
100
AcDbTableStyle
  3
Standard
 70
     0
 71
     0
 40
0.06
 41
0.06
280
     0
281
     0
  7
STANDARD
140
0.18
170
     2
 62
     0
 63
     7
283
     0
274
    -2
284
     1
 64
     0
275
    -2
285
     1
 65
     0
276
    -2
286
     1
 66
     0
277
    -2
287
     1
 67
     0
278
    -2
288
     1
 68
     0
279
    -2
289
     1
 69
     0
  7
STANDARD
140
0.25
170
     5
 62
     0
 63
     7
283
     0
274
    -2
284
     1
 64
     0
275
    -2
285
     1
 65
     0
276
    -2
286
     1
 66
     0
277
    -2
287
     1
 67
     0
278
    -2
288
     1
 68
     0
279
    -2
289
     1
 69
     0
  7
STANDARD
140
0.18
170
     5
 62
     0
 63
     7
283
     0
274
    -2
284
     1
 64
     0
275
    -2
285
     1
 65
     0
276
    -2
286
     1
 66
     0
277
    -2
287
     1
 67
     0
278
    -2
288
     1
 68
     0
279
    -2
289
     1
 69
     0
  0
VISUALSTYLE
  5
8A77
102
{ACAD_XDICTIONARY
360
8AFA
102
}
102
{ACAD_REACTORS
330
8A71
102
}
330
8A71
100
AcDbVisualStyle
  2
2dWireframe
 70
     4
 71
     0
 72
     2
 73
     0
 90
        0
 40
-0.6
 41
-30.0
 62
     5
 63
     7
 74
     1
 91
        4
 64
     7
 65
   257
 75
     1
175
     1
 42
1.0
 92
        0
 66
   257
 43
1.0
 76
     1
 77
     6
 78
     2
 67
     7
 79
     5
170
     0
171
     0
290
     0
174
     0
 93
        1
 44
0.0
173
     0
291
     0
 45
0.0
1001
ACAD
1000
AcDbSavedByObjectVersion
1070
     0
  0
VISUALSTYLE
  5
8B2B
102
{ACAD_XDICTIONARY
360
A58D
102
}
102
{ACAD_REACTORS
330
8A71
102
}
330
8A71
100
AcDbVisualStyle
  2
3D Hidden
 70
     6
 71
     1
 72
     2
 73
     2
 90
        0
 40
-0.6
 41
-30.0
 62
     5
 63
     7
 74
     2
 91
        2
 64
     7
 65
   257
 75
     2
175
     1
 42
179.0
 92
        0
 66
   257
 43
1.0
 76
     1
 77
     6
 78
     2
 67
     7
 79
     3
170
     0
171
     0
290
     0
174
     0
 93
        1
 44
0.0
173
     0
291
     0
 45
0.0
1001
ACAD
1000
AcDbSavedByObjectVersion
1070
     0
  0
VISUALSTYLE
  5
8B2A
102
{ACAD_XDICTIONARY
360
A58B
102
}
102
{ACAD_REACTORS
330
8A71
102
}
330
8A71
100
AcDbVisualStyle
  2
3dWireframe
 70
     5
 71
     0
 72
     2
 73
     0
 90
        0
 40
-0.6
 41
-30.0
 62
     5
 63
     7
 74
     1
 91
        4
 64
     7
 65
   257
 75
     1
175
     1
 42
1.0
 92
        0
 66
   257
 43
1.0
 76
     1
 77
     6
 78
     2
 67
     7
 79
     5
170
     0
171
     0
290
     0
174
     0
 93
        1
 44
0.0
173
     0
291
     0
 45
0.0
1001
ACAD
1000
AcDbSavedByObjectVersion
1070
     0
  0
VISUALSTYLE
  5
8A76
102
{ACAD_XDICTIONARY
360
8AF8
102
}
102
{ACAD_REACTORS
330
8A71
102
}
330
8A71
100
AcDbVisualStyle
  2
Basic
 70
     7
 71
     1
 72
     0
 73
     1
 90
        0
 40
-0.6
 41
-30.0
 62
     5
 63
     7
 74
     0
 91
        4
 64
     7
 65
   257
 75
     1
175
     1
 42
1.0
 92
        8
 66
     7
 43
1.0
 76
     1
 77
     6
 78
     2
 67
     7
 79
     5
170
     0
171
     0
290
     0
174
     0
 93
        1
 44
0.0
173
     0
291
     1
 45
0.0
1001
ACAD
1000
AcDbSavedByObjectVersion
1070
     0
  0
VISUALSTYLE
  5
8A7D
102
{ACAD_XDICTIONARY
360
8B06
102
}
102
{ACAD_REACTORS
330
8A71
102
}
330
8A71
100
AcDbVisualStyle
  2
Brighten
 70
    12
 71
     2
 72
     2
 73
     0
 90
        0
 40
-0.6
 41
-30.0
 62
     5
 63
     7
 74
     1
 91
        4
 64
     7
 65
   257
 75
     1
175
     1
 42
1.0
 92
        8
 66
     7
 43
1.0
 76
     1
 77
     6
 78
     2
 67
     7
 79
     5
170
     0
171
     0
290
     0
174
     0
 93
        1
 44
50.0
173
     0
291
     1
 45
0.0
1001
ACAD
1000
AcDbSavedByObjectVersion
1070
     0
  0
VISUALSTYLE
  5
8A81
102
{ACAD_XDICTIONARY
360
8B0E
102
}
102
{ACAD_REACTORS
330
8A71
102
}
330
8A71
100
AcDbVisualStyle
  2
ColorChange
 70
    16
 71
     2
 72
     2
 73
     3
 90
        0
 40
-0.6
 41
-30.0
 62
     5
 63
     8
 74
     1
 91
        4
 64
     7
 65
   257
 75
     1
175
     1
 42
1.0
 92
        8
 66
     8
 43
1.0
 76
     1
 77
     6
 78
     2
 67
     7
 79
     5
170
     0
171
     0
290
     0
174
     0
 93
        1
 44
0.0
173
     0
291
     1
 45
0.0
1001
ACAD
1000
AcDbSavedByObjectVersion
1070
     0
  0
VISUALSTYLE
  5
8A7A
102
{ACAD_XDICTIONARY
360
8B00
102
}
102
{ACAD_REACTORS
330
8A71
102
}
330
8A71
100
AcDbVisualStyle
  2
Conceptual
 70
     9
 71
     3
 72
     2
 73
     0
 90
        0
 40
-0.6
 41
-30.0
 62
     5
 63
     7
 74
     2
 91
        2
 64
     7
 65
   257
 75
     1
175
     1
 42
179.0
 92
        8
 66
     7
 43
1.0
 76
     1
 77
     6
 78
     2
 67
     7
 79
     3
170
     0
171
     0
290
     0
174
     0
 93
        1
 44
0.0
173
     0
291
     0
 45
0.0
1001
ACAD
1000
AcDbSavedByObjectVersion
1070
     0
  0
VISUALSTYLE
  5
8A7C
102
{ACAD_XDICTIONARY
360
8B04
102
}
102
{ACAD_REACTORS
330
8A71
102
}
330
8A71
100
AcDbVisualStyle
  2
Dim
 70
    11
 71
     2
 72
     2
 73
     0
 90
        0
 40
-0.6
 41
-30.0
 62
     5
 63
     7
 74
     1
 91
        4
 64
     7
 65
   257
 75
     1
175
     1
 42
1.0
 92
        8
 66
     7
 43
1.0
 76
     1
 77
     6
 78
     2
 67
     7
 79
     5
170
     0
171
     0
290
     0
174
     0
 93
        1
 44
-50.0
173
     0
291
     1
 45
0.0
1001
ACAD
1000
AcDbSavedByObjectVersion
1070
     0
  0
VISUALSTYLE
  5
8A89
102
{ACAD_XDICTIONARY
360
8B1E
102
}
102
{ACAD_REACTORS
330
8A71
102
}
330
8A71
100
AcDbVisualStyle
  2
EdgeColorOff
 70
    22
 71
     2
 72
     2
 73
     0
 90
        0
 40
-0.6
 41
-30.0
 62
     5
 63
     7
 74
     1
 91
        4
 64
     7
 65
   257
 75
     1
175
     1
 42
1.0
 92
        8
 66
     7
 43
1.0
 76
     1
 77
     6
 78
     2
 67
     7
 79
     5
170
     0
171
     0
290
     0
174
     0
 93
        1
 44
0.0
173
     0
291
     1
 45
0.0
1001
ACAD
1000
AcDbSavedByObjectVersion
1070
     0
  0
VISUALSTYLE
  5
8A80
102
{ACAD_XDICTIONARY
360
8B0C
102
}
102
{ACAD_REACTORS
330
8A71
102
}
330
8A71
100
AcDbVisualStyle
  2
Facepattern
 70
    15
 71
     2
 72
     2
 73
     0
 90
        0
 40
-0.6
 41
-30.0
 62
     5
 63
     7
 74
     1
 91
        4
 64
     7
 65
   257
 75
     1
175
     1
 42
1.0
 92
        8
 66
     7
 43
1.0
 76
     1
 77
     6
 78
     2
 67
     7
 79
     5
170
     0
171
     0
290
     0
174
     0
 93
        1
 44
0.0
173
     0
291
     1
 45
0.0
1001
ACAD
1000
AcDbSavedByObjectVersion
1070
     0
  0
VISUALSTYLE
  5
8A72
102
{ACAD_XDICTIONARY
360
8AF0
102
}
102
{ACAD_REACTORS
330
8A71
102
}
330
8A71
100
AcDbVisualStyle
  2
Flat
 70
     0
 71
     2
 72
     1
 73
     1
 90
        2
 40
-0.6
 41
30.0
 62
     5
 63
     7
 74
     0
 91
        0
 64
     7
 65
   257
 75
     1
175
     1
 42
1.0
 92
        8
 66
     7
 43
1.0
 76
     1
 77
     6
 78
     2
 67
     7
 79
     5
170
     0
171
     0
290
     0
174
     0
 93
       13
 44
0.0
173
     0
291
     1
 45
0.0
1001
ACAD
1000
AcDbSavedByObjectVersion
1070
     0
  0
VISUALSTYLE
  5
8A73
102
{ACAD_XDICTIONARY
360
8AF2
102
}
102
{ACAD_REACTORS
330
8A71
102
}
330
8A71
100
AcDbVisualStyle
  2
FlatWithEdges
 70
     1
 71
     2
 72
     1
 73
     1
 90
        2
 40
-0.6
 41
30.0
 62
     5
 63
     7
 74
     1
 91
        0
 64
     7
 65
   257
 75
     1
175
     1
 42
1.0
 92
        0
 66
   257
 43
1.0
 76
     1
 77
     6
 78
     2
 67
     7
 79
     5
170
     0
171
     0
290
     0
174
     0
 93
       13
 44
0.0
173
     0
291
     1
 45
0.0
1001
ACAD
1000
AcDbSavedByObjectVersion
1070
     0
  0
VISUALSTYLE
  5
8A74
102
{ACAD_XDICTIONARY
360
8AF4
102
}
102
{ACAD_REACTORS
330
8A71
102
}
330
8A71
100
AcDbVisualStyle
  2
Gouraud
 70
     2
 71
     2
 72
     2
 73
     1
 90
        2
 40
-0.6
 41
30.0
 62
     5
 63
     7
 74
     0
 91
        0
 64
     7
 65
   257
 75
     1
175
     1
 42
1.0
 92
        0
 66
     7
 43
1.0
 76
     1
 77
     6
 78
     2
 67
     7
 79
     5
170
     0
171
     0
290
     0
174
     0
 93
       13
 44
0.0
173
     0
291
     1
 45
0.0
1001
ACAD
1000
AcDbSavedByObjectVersion
1070
     0
  0
VISUALSTYLE
  5
8A75
102
{ACAD_XDICTIONARY
360
8AF6
102
}
102
{ACAD_REACTORS
330
8A71
102
}
330
8A71
100
AcDbVisualStyle
  2
GouraudWithEdges
 70
     3
 71
     2
 72
     2
 73
     1
 90
        2
 40
-0.6
 41
30.0
 62
     5
 63
     7
 74
     1
 91
        0
 64
     7
 65
   257
 75
     1
175
     1
 42
1.0
 92
        0
 66
   257
 43
1.0
 76
     1
 77
     6
 78
     2
 67
     7
 79
     5
170
     0
171
     0
290
     0
174
     0
 93
       13
 44
0.0
173
     0
291
     1
 45
0.0
1001
ACAD
1000
AcDbSavedByObjectVersion
1070
     0
  0
VISUALSTYLE
  5
8A79
102
{ACAD_XDICTIONARY
360
8AFE
102
}
102
{ACAD_REACTORS
330
8A71
102
}
330
8A71
100
AcDbVisualStyle
  2
Hidden
 70
     6
 71
     1
 72
     2
 73
     2
 90
        0
 40
-0.6
 41
-30.0
 62
     5
 63
     7
 74
     2
 91
        2
 64
     7
 65
   257
 75
     2
175
     1
 42
40.0
 92
        0
 66
   257
 43
1.0
 76
     1
 77
     6
 78
     2
 67
     7
 79
     3
170
     0
171
     0
290
     0
174
     0
 93
        1
 44
0.0
173
     0
291
     0
 45
0.0
1001
ACAD
1000
AcDbSavedByObjectVersion
1070
     0
  0
VISUALSTYLE
  5
8A87
102
{ACAD_XDICTIONARY
360
8B1A
102
}
102
{ACAD_REACTORS
330
8A71
102
}
330
8A71
100
AcDbVisualStyle
  2
JitterOff
 70
    20
 71
     2
 72
     2
 73
     0
 90
        0
 40
-0.6
 41
-30.0
 62
     5
 63
     7
 74
     1
 91
        4
 64
     7
 65
   257
 75
     1
175
     1
 42
1.0
 92
       10
 66
     7
 43
1.0
 76
     1
 77
     6
 78
     2
 67
     7
 79
     5
170
     0
171
     0
290
     0
174
     0
 93
        1
 44
0.0
173
     0
291
     1
 45
0.0
1001
ACAD
1000
AcDbSavedByObjectVersion
1070
     0
  0
VISUALSTYLE
  5
8A7F
102
{ACAD_XDICTIONARY
360
8B0A
102
}
102
{ACAD_REACTORS
330
8A71
102
}
330
8A71
100
AcDbVisualStyle
  2
Linepattern
 70
    14
 71
     2
 72
     2
 73
     0
 90
        0
 40
-0.6
 41
-30.0
 62
     5
 63
     7
 74
     1
 91
        4
 64
     7
 65
   257
 75
     7
175
     7
 42
1.0
 92
        8
 66
     7
 43
1.0
 76
     1
 77
     6
 78
     2
 67
     7
 79
     5
170
     0
171
     0
290
     0
174
     0
 93
        1
 44
0.0
173
     0
291
     1
 45
0.0
1001
ACAD
1000
AcDbSavedByObjectVersion
1070
     0
  0
VISUALSTYLE
  5
8A88
102
{ACAD_XDICTIONARY
360
8B1C
102
}
102
{ACAD_REACTORS
330
8A71
102
}
330
8A71
100
AcDbVisualStyle
  2
OverhangOff
 70
    21
 71
     2
 72
     2
 73
     0
 90
        0
 40
-0.6
 41
-30.0
 62
     5
 63
     7
 74
     1
 91
        4
 64
     7
 65
   257
 75
     1
175
     1
 42
1.0
 92
        9
 66
     7
 43
1.0
 76
     1
 77
     6
 78
     2
 67
     7
 79
     5
170
     0
171
     0
290
     0
174
     0
 93
        1
 44
0.0
173
     0
291
     1
 45
0.0
1001
ACAD
1000
AcDbSavedByObjectVersion
1070
     0
  0
VISUALSTYLE
  5
8A7B
102
{ACAD_XDICTIONARY
360
8B02
102
}
102
{ACAD_REACTORS
330
8A71
102
}
330
8A71
100
AcDbVisualStyle
  2
Realistic
 70
     8
 71
     2
 72
     3
 73
     0
 90
        2
 40
-0.6
 41
30.0
 62
     5
 63
     7
 74
     0
 91
        0
 64
     7
 65
   257
 75
     1
175
     1
 42
1.0
 92
        8
 66
   257
 43
1.0
 76
     1
 77
     6
 78
     2
 67
     7
 79
     3
170
     0
171
     0
290
     0
174
     0
 93
       13
 44
0.0
173
     0
291
     0
 45
0.0
1001
ACAD
1000
AcDbSavedByObjectVersion
1070
     0
  0
VISUALSTYLE
  5
8A86
102
{ACAD_XDICTIONARY
360
8B18
102
}
102
{ACAD_REACTORS
330
8A71
102
}
330
8A71
100
AcDbVisualStyle
  2
Shaded
 70
    27
 71
     2
 72
     2
 73
     1
 90
        2
 40
-0.6
 41
30.0
 62
     5
 63
     7
 74
     0
 91
        4
 64
     7
 65
   257
 75
     1
175
     1
 42
1.0
 92
        8
 66
   257
 43
1.0
 76
     1
 77
     6
 78
     2
 67
     8
 79
     3
170
     0
171
     0
290
     0
174
     0
 93
        5
 44
0.0
173
     0
291
     0
 45
0.0
1001
ACAD
1000
AcDbSavedByObjectVersion
1070
     0
  0
VISUALSTYLE
  5
8A85
102
{ACAD_XDICTIONARY
360
8B16
102
}
102
{ACAD_REACTORS
330
8A71
102
}
330
8A71
100
AcDbVisualStyle
  2
Shaded with edges
 70
    26
 71
     2
 72
     2
 73
     1
 90
        2
 40
-0.6
 41
30.0
 62
     5
 63
     7
 74
     1
 91
       10
 64
     7
 65
   257
 75
     2
175
     1
 42
1.0
 92
        8
 66
   257
 43
1.0
 76
     1
 77
     6
 78
     2
 67
     7
 79
     3
170
     0
171
     0
290
     0
174
     0
 93
        5
 44
0.0
173
     0
291
     0
 45
0.0
1001
ACAD
1000
AcDbSavedByObjectVersion
1070
     0
  0
VISUALSTYLE
  5
8A82
102
{ACAD_XDICTIONARY
360
8B10
102
}
102
{ACAD_REACTORS
330
8A71
102
}
330
8A71
100
AcDbVisualStyle
  2
Shades of Gray
 70
    23
 71
     2
 72
     2
 73
     3
 90
        0
 40
-0.6
 41
-30.0
 62
     5
 63
     7
 74
     2
 91
        2
 64
     7
 65
     7
 75
     1
175
     1
 42
40.0
 92
        8
 66
     7
 43
1.0
 76
     1
 77
     6
 78
     2
 67
     7
 79
     3
170
     0
171
     0
290
     0
174
     0
 93
        1
 44
0.0
173
     0
291
     0
 45
0.0
1001
ACAD
1000
AcDbSavedByObjectVersion
1070
     0
  0
VISUALSTYLE
  5
8A83
102
{ACAD_XDICTIONARY
360
8B12
102
}
102
{ACAD_REACTORS
330
8A71
102
}
330
8A71
100
AcDbVisualStyle
  2
Sketchy
 70
    24
 71
     1
 72
     2
 73
     2
 90
        0
 40
-0.6
 41
-30.0
 62
     5
 63
     7
 74
     2
 91
        2
 64
     7
 65
     7
 75
     1
175
     1
 42
40.0
 92
       11
 66
     7
 43
1.0
 76
     1
 77
     6
 78
     2
 67
     7
 79
     6
170
     0
171
     0
290
     0
174
     0
 93
        1
 44
0.0
173
     0
291
     0
 45
0.0
1001
ACAD
1000
AcDbSavedByObjectVersion
1070
     0
  0
VISUALSTYLE
  5
8A7E
102
{ACAD_XDICTIONARY
360
8B08
102
}
102
{ACAD_REACTORS
330
8A71
102
}
330
8A71
100
AcDbVisualStyle
  2
Thicken
 70
    13
 71
     2
 72
     2
 73
     0
 90
        0
 40
-0.6
 41
-30.0
 62
     5
 63
     7
 74
     1
 91
        4
 64
     7
 65
   257
 75
     1
175
     1
 42
1.0
 92
       12
 66
     7
 43
1.0
 76
     1
 77
     6
 78
     2
 67
     7
 79
     5
170
     0
171
     0
290
     0
174
     0
 93
        1
 44
0.0
173
     0
291
     1
 45
0.0
1001
ACAD
1000
AcDbSavedByObjectVersion
1070
     0
  0
VISUALSTYLE
  5
8A78
102
{ACAD_XDICTIONARY
360
8AFC
102
}
102
{ACAD_REACTORS
330
8A71
102
}
330
8A71
100
AcDbVisualStyle
  2
Wireframe
 70
     5
 71
     0
 72
     2
 73
     0
 90
        0
 40
-0.6
 41
-30.0
 62
     5
 63
     7
 74
     1
 91
        4
 64
     7
 65
   257
 75
     1
175
     1
 42
1.0
 92
        0
 66
   257
 43
1.0
 76
     1
 77
     6
 78
     2
 67
     7
 79
     3
170
     0
171
     0
290
     0
174
     0
 93
        1
 44
0.0
173
     0
291
     0
 45
0.0
1001
ACAD
1000
AcDbSavedByObjectVersion
1070
     0
  0
VISUALSTYLE
  5
8A84
102
{ACAD_XDICTIONARY
360
8B14
102
}
102
{ACAD_REACTORS
330
8A71
102
}
330
8A71
100
AcDbVisualStyle
  2
X-Ray
 70
    25
 71
     2
 72
     2
 73
     1
 90
        1
 40
0.5
 41
-30.0
 62
     5
 63
     7
 74
     1
 91
        0
 64
     7
 65
   257
 75
     1
175
     1
 42
1.0
 92
        8
 66
     7
 43
1.0
 76
     1
 77
     6
 78
     2
 67
     7
 79
     3
170
     0
171
     0
290
     0
174
     0
 93
       13
 44
0.0
173
     0
291
     0
 45
0.0
1001
ACAD
1000
AcDbSavedByObjectVersion
1070
     0
  0
DICTIONARYVAR
  5
8AE9
102
{ACAD_REACTORS
330
5697
102
}
330
5697
100
DictionaryVariables
280
     0
  1
1:1
  0
DICTIONARYVAR
  5
8AE5
102
{ACAD_REACTORS
330
5697
102
}
330
5697
100
DictionaryVariables
280
     0
  1
STANDARD
  0
DICTIONARYVAR
  5
8AE4
102
{ACAD_REACTORS
330
5697
102
}
330
5697
100
DictionaryVariables
280
     0
  1
STANDARD
  0
DICTIONARYVAR
  5
8AE6
102
{ACAD_REACTORS
330
5697
102
}
330
5697
100
DictionaryVariables
280
     0
  1
Imperial24
  0
DICTIONARYVAR
  5
8AE7
102
{ACAD_REACTORS
330
5697
102
}
330
5697
100
DictionaryVariables
280
     0
  1
Imperial24
  0
DICTIONARYVAR
  5
5698
102
{ACAD_REACTORS
330
5697
102
}
330
5697
100
DictionaryVariables
280
     0
  1
1
  0
DICTIONARYVAR
  5
A553
102
{ACAD_REACTORS
330
5697
102
}
330
5697
100
DictionaryVariables
280
     0
  1
0
  0
DICTIONARYVAR
  5
8AEB
102
{ACAD_REACTORS
330
5697
102
}
330
5697
100
DictionaryVariables
280
     0
  1
1
  0
DICTIONARYVAR
  5
8AEC
102
{ACAD_REACTORS
330
5697
102
}
330
5697
100
DictionaryVariables
280
     0
  1
15
  0
DICTIONARYVAR
  5
8AEA
102
{ACAD_REACTORS
330
5697
102
}
330
5697
100
DictionaryVariables
280
     0
  1
0
  0
DICTIONARYVAR
  5
A555
102
{ACAD_REACTORS
330
5697
102
}
330
5697
100
DictionaryVariables
280
     0
  1
1.570796
  0
DICTIONARYVAR
  5
A556
102
{ACAD_REACTORS
330
5697
102
}
330
5697
100
DictionaryVariables
280
     0
  1
1.570796
  0
DICTIONARYVAR
  5
A557
102
{ACAD_REACTORS
330
5697
102
}
330
5697
100
DictionaryVariables
280
     0
  1
-122.394000
  0
DICTIONARYVAR
  5
8AE8
102
{ACAD_REACTORS
330
5697
102
}
330
5697
100
DictionaryVariables
280
     0
  1
0
  0
DICTIONARYVAR
  5
A554
102
{ACAD_REACTORS
330
5697
102
}
330
5697
100
DictionaryVariables
280
     0
  1
0
  0
DICTIONARYVAR
  5
A552
102
{ACAD_REACTORS
330
5697
102
}
330
5697
100
DictionaryVariables
280
     0
  1
127
  0
DICTIONARYVAR
  5
A558
102
{ACAD_REACTORS
330
5697
102
}
330
5697
100
DictionaryVariables
280
     0
  1
2
  0
XRECORD
  5
A551
102
{ACAD_REACTORS
330
A550
102
}
330
A550
100
AcDbXrecord
280
     1
330
9811
330
9812
330
9813
330
9814
330
9815
330
9816
330
9817
330
9818
330
A3BD
330
A3BE
330
A3C6
330
A3C7
330
A2AA
330
A2B2
330
A2B3
330
A2BB
330
A2BC
330
9A26
330
9A27
330
9A30
330
9A31
330
9A39
330
A48B
330
A48C
330
A494
330
A495
330
A49D
330
A49E
330
9A65
330
9A66
330
9A6E
330
9A6F
330
9A77
330
9A78
330
A3F3
330
9A88
330
9A89
330
A3FB
330
A3FC
330
A404
330
A405
330
A40D
330
A40E
330
9AB5
330
9AB6
330
A416
330
A417
330
A41F
330
A420
330
A429
330
A42A
330
9AD9
330
9ADA
330
A431
330
A432
330
A482
330
A483
330
9AF4
330
9AF5
330
9AFF
330
9B00
330
9B08
330
9B09
330
A443
330
A444
330
A44C
330
A44D
330
A455
330
A456
330
A45E
330
A45F
330
9B35
330
9B36
330
9B3F
330
9B40
330
A467
330
A468
330
A470
330
A471
330
A479
330
A47A
330
A4D7
330
A4D8
330
A537
330
A538
330
A540
330
A541
330
A549
330
A54A
  0
DICTIONARY
  5
8B22
330
8AA4
100
AcDbDictionary
280
     1
281
     1
  3
ACAD_XREC_ROUNDTRIP
360
8B23
  0
DICTIONARY
  5
A582
330
8A4C
100
AcDbDictionary
280
     1
281
     1
  3
ACAD_XREC_ROUNDTRIP
360
A583
  0
DICTIONARY
  5
A584
330
8A4D
100
AcDbDictionary
280
     1
281
     1
  3
ACAD_XREC_ROUNDTRIP
360
A585
  0
DICTIONARY
  5
8A62
330
8A61
100
AcDbDictionary
280
     1
281
     1
  3
ACAD_XREC_ROUNDTRIP
360
A587
  3
BUMPTILE
360
8A64
  3
DIFFUSETILE
360
8A63
  3
OPACITYTILE
360
8A67
  3
REFLECTIONTILE
360
8A66
  3
REFRACTIONTILE
360
8A68
  3
SPECULARTILE
360
8A65
  0
DICTIONARY
  5
8A5A
330
8A59
100
AcDbDictionary
280
     1
281
     1
  3
ACAD_XREC_ROUNDTRIP
360
A586
  3
BUMPTILE
360
8A5C
  3
DIFFUSETILE
360
8A5B
  3
OPACITYTILE
360
8A5F
  3
REFLECTIONTILE
360
8A5E
  3
REFRACTIONTILE
360
8A60
  3
SPECULARTILE
360
8A5D
  0
DICTIONARY
  5
8A6A
330
8A69
100
AcDbDictionary
280
     1
281
     1
  3
ACAD_XREC_ROUNDTRIP
360
A588
  3
BUMPTILE
360
8A6C
  3
DIFFUSETILE
360
8A6B
  3
OPACITYTILE
360
8A6F
  3
REFLECTIONTILE
360
8A6E
  3
REFRACTIONTILE
360
8A70
  3
SPECULARTILE
360
8A6D
  0
DICTIONARY
  5
8B20
330
8AA2
100
AcDbDictionary
280
     1
281
     1
  3
ACAD_XREC_ROUNDTRIP
360
8B21
  0
DICTIONARY
  5
8AED
330
8A8C
100
AcDbDictionary
280
     1
281
     1
  3
ACAD_ROUNDTRIP_2008_TABLESTYLE_CELLSTYLEMAP
360
A57B
  3
ACAD_XREC_ROUNDTRIP
360
A589
  0
DICTIONARY
  5
8AFA
330
8A77
100
AcDbDictionary
280
     1
281
     1
  3
ACAD_XREC_ROUNDTRIP
360
8AFB
  0
DICTIONARY
  5
A58D
330
8B2B
100
AcDbDictionary
280
     1
281
     1
  3
ACAD_XREC_ROUNDTRIP
360
A58E
  0
DICTIONARY
  5
A58B
330
8B2A
100
AcDbDictionary
280
     1
281
     1
  3
ACAD_XREC_ROUNDTRIP
360
A58C
  0
DICTIONARY
  5
8AF8
330
8A76
100
AcDbDictionary
280
     1
281
     1
  3
ACAD_XREC_ROUNDTRIP
360
8AF9
  0
DICTIONARY
  5
8B06
330
8A7D
100
AcDbDictionary
280
     1
281
     1
  3
ACAD_XREC_ROUNDTRIP
360
8B07
  0
DICTIONARY
  5
8B0E
330
8A81
100
AcDbDictionary
280
     1
281
     1
  3
ACAD_XREC_ROUNDTRIP
360
8B0F
  0
DICTIONARY
  5
8B00
330
8A7A
100
AcDbDictionary
280
     1
281
     1
  3
ACAD_XREC_ROUNDTRIP
360
8B01
  0
DICTIONARY
  5
8B04
330
8A7C
100
AcDbDictionary
280
     1
281
     1
  3
ACAD_XREC_ROUNDTRIP
360
8B05
  0
DICTIONARY
  5
8B1E
330
8A89
100
AcDbDictionary
280
     1
281
     1
  3
ACAD_XREC_ROUNDTRIP
360
8B1F
  0
DICTIONARY
  5
8B0C
330
8A80
100
AcDbDictionary
280
     1
281
     1
  3
ACAD_XREC_ROUNDTRIP
360
8B0D
  0
DICTIONARY
  5
8AF0
330
8A72
100
AcDbDictionary
280
     1
281
     1
  3
ACAD_XREC_ROUNDTRIP
360
8AF1
  0
DICTIONARY
  5
8AF2
330
8A73
100
AcDbDictionary
280
     1
281
     1
  3
ACAD_XREC_ROUNDTRIP
360
8AF3
  0
DICTIONARY
  5
8AF4
330
8A74
100
AcDbDictionary
280
     1
281
     1
  3
ACAD_XREC_ROUNDTRIP
360
8AF5
  0
DICTIONARY
  5
8AF6
330
8A75
100
AcDbDictionary
280
     1
281
     1
  3
ACAD_XREC_ROUNDTRIP
360
8AF7
  0
DICTIONARY
  5
8AFE
330
8A79
100
AcDbDictionary
280
     1
281
     1
  3
ACAD_XREC_ROUNDTRIP
360
8AFF
  0
DICTIONARY
  5
8B1A
330
8A87
100
AcDbDictionary
280
     1
281
     1
  3
ACAD_XREC_ROUNDTRIP
360
8B1B
  0
DICTIONARY
  5
8B0A
330
8A7F
100
AcDbDictionary
280
     1
281
     1
  3
ACAD_XREC_ROUNDTRIP
360
8B0B
  0
DICTIONARY
  5
8B1C
330
8A88
100
AcDbDictionary
280
     1
281
     1
  3
ACAD_XREC_ROUNDTRIP
360
8B1D
  0
DICTIONARY
  5
8B02
330
8A7B
100
AcDbDictionary
280
     1
281
     1
  3
ACAD_XREC_ROUNDTRIP
360
8B03
  0
DICTIONARY
  5
8B18
330
8A86
100
AcDbDictionary
280
     1
281
     1
  3
ACAD_XREC_ROUNDTRIP
360
8B19
  0
DICTIONARY
  5
8B16
330
8A85
100
AcDbDictionary
280
     1
281
     1
  3
ACAD_XREC_ROUNDTRIP
360
8B17
  0
DICTIONARY
  5
8B10
330
8A82
100
AcDbDictionary
280
     1
281
     1
  3
ACAD_XREC_ROUNDTRIP
360
8B11
  0
DICTIONARY
  5
8B12
330
8A83
100
AcDbDictionary
280
     1
281
     1
  3
ACAD_XREC_ROUNDTRIP
360
8B13
  0
DICTIONARY
  5
8B08
330
8A7E
100
AcDbDictionary
280
     1
281
     1
  3
ACAD_XREC_ROUNDTRIP
360
8B09
  0
DICTIONARY
  5
8AFC
330
8A78
100
AcDbDictionary
280
     1
281
     1
  3
ACAD_XREC_ROUNDTRIP
360
8AFD
  0
DICTIONARY
  5
8B14
330
8A84
100
AcDbDictionary
280
     1
281
     1
  3
ACAD_XREC_ROUNDTRIP
360
8B15
  0
XRECORD
  5
8B23
102
{ACAD_REACTORS
330
8B22
102
}
330
8B22
100
AcDbXrecord
280
     1
102
DISPLAYNAME
  1
Imperial24
102
FLAGS
 90
        0
  0
XRECORD
  5
A583
102
{ACAD_REACTORS
330
A582
102
}
330
A582
100
AcDbXrecord
280
     1
102
SHADEPLOT
 70
     0
102
SHADEPLOTRESLEVEL
 70
     2
102
SHADEPLOTCUSTOMDPI
 70
   300
  0
XRECORD
  5
A585
102
{ACAD_REACTORS
330
A584
102
}
330
A584
100
AcDbXrecord
280
     1
102
SHADEPLOT
 70
     0
102
SHADEPLOTRESLEVEL
 70
     2
102
SHADEPLOTCUSTOMDPI
 70
   300
  0
XRECORD
  5
A587
102
{ACAD_REACTORS
330
8A62
102
}
330
8A62
100
AcDbXrecord
280
     1
102
MATERIAL
148
0.0
149
0.0
149
0.0
 93
        0
 94
      127
282
     0
 72
     0
 77
     0
171
     0
175
     0
179
     0
273
     0
  0
XRECORD
  5
8A64
102
{ACAD_REACTORS
330
8A62
102
}
330
8A62
100
AcDbXrecord
280
     1
270
     1
271
     1
  0
XRECORD
  5
8A63
102
{ACAD_REACTORS
330
8A62
102
}
330
8A62
100
AcDbXrecord
280
     1
270
     1
271
     1
  0
XRECORD
  5
8A67
102
{ACAD_REACTORS
330
8A62
102
}
330
8A62
100
AcDbXrecord
280
     1
270
     1
271
     1
  0
XRECORD
  5
8A66
102
{ACAD_REACTORS
330
8A62
102
}
330
8A62
100
AcDbXrecord
280
     1
270
     1
271
     1
  0
XRECORD
  5
8A68
102
{ACAD_REACTORS
330
8A62
102
}
330
8A62
100
AcDbXrecord
280
     1
270
     1
271
     1
  0
XRECORD
  5
8A65
102
{ACAD_REACTORS
330
8A62
102
}
330
8A62
100
AcDbXrecord
280
     1
270
     1
271
     1
  0
XRECORD
  5
A586
102
{ACAD_REACTORS
330
8A5A
102
}
330
8A5A
100
AcDbXrecord
280
     1
102
MATERIAL
148
0.0
149
0.0
149
0.0
 93
        0
 94
      127
282
     0
 72
     0
 77
     0
171
     0
175
     0
179
     0
273
     0
  0
XRECORD
  5
8A5C
102
{ACAD_REACTORS
330
8A5A
102
}
330
8A5A
100
AcDbXrecord
280
     1
270
     1
271
     1
  0
XRECORD
  5
8A5B
102
{ACAD_REACTORS
330
8A5A
102
}
330
8A5A
100
AcDbXrecord
280
     1
270
     1
271
     1
  0
XRECORD
  5
8A5F
102
{ACAD_REACTORS
330
8A5A
102
}
330
8A5A
100
AcDbXrecord
280
     1
270
     1
271
     1
  0
XRECORD
  5
8A5E
102
{ACAD_REACTORS
330
8A5A
102
}
330
8A5A
100
AcDbXrecord
280
     1
270
     1
271
     1
  0
XRECORD
  5
8A60
102
{ACAD_REACTORS
330
8A5A
102
}
330
8A5A
100
AcDbXrecord
280
     1
270
     1
271
     1
  0
XRECORD
  5
8A5D
102
{ACAD_REACTORS
330
8A5A
102
}
330
8A5A
100
AcDbXrecord
280
     1
270
     1
271
     1
  0
XRECORD
  5
A588
102
{ACAD_REACTORS
330
8A6A
102
}
330
8A6A
100
AcDbXrecord
280
     1
102
MATERIAL
148
0.0
149
0.0
149
0.0
 93
        0
 94
      127
282
     0
 72
     0
 77
     0
171
     0
175
     0
179
     0
273
     0
  0
XRECORD
  5
8A6C
102
{ACAD_REACTORS
330
8A6A
102
}
330
8A6A
100
AcDbXrecord
280
     1
270
     1
271
     1
  0
XRECORD
  5
8A6B
102
{ACAD_REACTORS
330
8A6A
102
}
330
8A6A
100
AcDbXrecord
280
     1
270
     1
271
     1
  0
XRECORD
  5
8A6F
102
{ACAD_REACTORS
330
8A6A
102
}
330
8A6A
100
AcDbXrecord
280
     1
270
     1
271
     1
  0
XRECORD
  5
8A6E
102
{ACAD_REACTORS
330
8A6A
102
}
330
8A6A
100
AcDbXrecord
280
     1
270
     1
271
     1
  0
XRECORD
  5
8A70
102
{ACAD_REACTORS
330
8A6A
102
}
330
8A6A
100
AcDbXrecord
280
     1
270
     1
271
     1
  0
XRECORD
  5
8A6D
102
{ACAD_REACTORS
330
8A6A
102
}
330
8A6A
100
AcDbXrecord
280
     1
270
     1
271
     1
  0
XRECORD
  5
8B21
102
{ACAD_REACTORS
330
8B20
102
}
330
8B20
100
AcDbXrecord
280
     1
102
DISPLAYNAME
  1
Imperial24
102
FLAGS
 90
        0
  0
CELLSTYLEMAP
  5
A57B
102
{ACAD_REACTORS
330
8AED
102
}
330
8AED
100
AcDbCellStyleMap
 90
        3
300
CELLSTYLE
  1
TABLEFORMAT_BEGIN
 90
        5
170
     1
 91
        0
 92
    32768
 62
   257
 93
        1
300
CONTENTFORMAT
  1
CONTENTFORMAT_BEGIN
 90
        0
 91
        0
 92
      512
 93
        0
300

 40
0.0
140
1.0
 94
        5
 62
     0
340
11
144
0.25
309
CONTENTFORMAT_END
171
     1
301
MARGIN
  1
CELLMARGIN_BEGIN
 40
0.06
 40
0.06
 40
0.06
 40
0.06
 40
0.18
 40
0.18
309
CELLMARGIN_END
 94
        6
 95
        1
302
GRIDFORMAT
  1
GRIDFORMAT_BEGIN
 90
        0
 91
        1
 62
     0
 92
       -2
340
0
 93
        0
 40
0.045
309
GRIDFORMAT_END
 95
        2
302
GRIDFORMAT
  1
GRIDFORMAT_BEGIN
 90
        0
 91
        1
 62
     0
 92
       -2
340
0
 93
        0
 40
0.045
309
GRIDFORMAT_END
 95
        4
302
GRIDFORMAT
  1
GRIDFORMAT_BEGIN
 90
        0
 91
        1
 62
     0
 92
       -2
340
0
 93
        0
 40
0.045
309
GRIDFORMAT_END
 95
        8
302
GRIDFORMAT
  1
GRIDFORMAT_BEGIN
 90
        0
 91
        1
 62
     0
 92
       -2
340
0
 93
        0
 40
0.045
309
GRIDFORMAT_END
 95
       16
302
GRIDFORMAT
  1
GRIDFORMAT_BEGIN
 90
        0
 91
        1
 62
     0
 92
       -2
340
0
 93
        0
 40
0.045
309
GRIDFORMAT_END
 95
       32
302
GRIDFORMAT
  1
GRIDFORMAT_BEGIN
 90
        0
 91
        1
 62
     0
 92
       -2
340
0
 93
        0
 40
0.045
309
GRIDFORMAT_END
309
TABLEFORMAT_END
  1
CELLSTYLE_BEGIN
 90
        1
 91
        1
300
_TITLE
309
CELLSTYLE_END
300
CELLSTYLE
  1
TABLEFORMAT_BEGIN
 90
        5
170
     1
 91
        0
 92
        0
 62
   257
 93
        1
300
CONTENTFORMAT
  1
CONTENTFORMAT_BEGIN
 90
        0
 91
        0
 92
      512
 93
        0
300

 40
0.0
140
1.0
 94
        5
 62
     0
340
11
144
0.18
309
CONTENTFORMAT_END
171
     1
301
MARGIN
  1
CELLMARGIN_BEGIN
 40
0.06
 40
0.06
 40
0.06
 40
0.06
 40
0.18
 40
0.18
309
CELLMARGIN_END
 94
        6
 95
        1
302
GRIDFORMAT
  1
GRIDFORMAT_BEGIN
 90
        0
 91
        1
 62
     0
 92
       -2
340
0
 93
        0
 40
0.045
309
GRIDFORMAT_END
 95
        2
302
GRIDFORMAT
  1
GRIDFORMAT_BEGIN
 90
        0
 91
        1
 62
     0
 92
       -2
340
0
 93
        0
 40
0.045
309
GRIDFORMAT_END
 95
        4
302
GRIDFORMAT
  1
GRIDFORMAT_BEGIN
 90
        0
 91
        1
 62
     0
 92
       -2
340
0
 93
        0
 40
0.045
309
GRIDFORMAT_END
 95
        8
302
GRIDFORMAT
  1
GRIDFORMAT_BEGIN
 90
        0
 91
        1
 62
     0
 92
       -2
340
0
 93
        0
 40
0.045
309
GRIDFORMAT_END
 95
       16
302
GRIDFORMAT
  1
GRIDFORMAT_BEGIN
 90
        0
 91
        1
 62
     0
 92
       -2
340
0
 93
        0
 40
0.045
309
GRIDFORMAT_END
 95
       32
302
GRIDFORMAT
  1
GRIDFORMAT_BEGIN
 90
        0
 91
        1
 62
     0
 92
       -2
340
0
 93
        0
 40
0.045
309
GRIDFORMAT_END
309
TABLEFORMAT_END
  1
CELLSTYLE_BEGIN
 90
        2
 91
        1
300
_HEADER
309
CELLSTYLE_END
300
CELLSTYLE
  1
TABLEFORMAT_BEGIN
 90
        5
170
     1
 91
        0
 92
        0
 62
   257
 93
        1
300
CONTENTFORMAT
  1
CONTENTFORMAT_BEGIN
 90
        0
 91
        0
 92
      512
 93
        0
300

 40
0.0
140
1.0
 94
        2
 62
     0
340
11
144
0.18
309
CONTENTFORMAT_END
171
     1
301
MARGIN
  1
CELLMARGIN_BEGIN
 40
0.06
 40
0.06
 40
0.06
 40
0.06
 40
0.18
 40
0.18
309
CELLMARGIN_END
 94
        6
 95
        1
302
GRIDFORMAT
  1
GRIDFORMAT_BEGIN
 90
        0
 91
        1
 62
     0
 92
       -2
340
0
 93
        0
 40
0.045
309
GRIDFORMAT_END
 95
        2
302
GRIDFORMAT
  1
GRIDFORMAT_BEGIN
 90
        0
 91
        1
 62
     0
 92
       -2
340
0
 93
        0
 40
0.045
309
GRIDFORMAT_END
 95
        4
302
GRIDFORMAT
  1
GRIDFORMAT_BEGIN
 90
        0
 91
        1
 62
     0
 92
       -2
340
0
 93
        0
 40
0.045
309
GRIDFORMAT_END
 95
        8
302
GRIDFORMAT
  1
GRIDFORMAT_BEGIN
 90
        0
 91
        1
 62
     0
 92
       -2
340
0
 93
        0
 40
0.045
309
GRIDFORMAT_END
 95
       16
302
GRIDFORMAT
  1
GRIDFORMAT_BEGIN
 90
        0
 91
        1
 62
     0
 92
       -2
340
0
 93
        0
 40
0.045
309
GRIDFORMAT_END
 95
       32
302
GRIDFORMAT
  1
GRIDFORMAT_BEGIN
 90
        0
 91
        1
 62
     0
 92
       -2
340
0
 93
        0
 40
0.045
309
GRIDFORMAT_END
309
TABLEFORMAT_END
  1
CELLSTYLE_BEGIN
 90
        3
 91
        2
300
_DATA
309
CELLSTYLE_END
  0
XRECORD
  5
A589
102
{ACAD_REACTORS
330
8AED
102
}
330
8AED
100
AcDbXrecord
280
     1
102
ACAD_ROUNDTRIP_PRE2007_TABLESTYLE
 90
      512
 91
        0
  1

 92
      512
 93
        0
  2

 94
      512
 95
        0
  3

  0
XRECORD
  5
8AFB
102
{ACAD_REACTORS
330
8AFA
102
}
330
8AFA
100
AcDbXrecord
280
     1
102
RTVSPost2010Prop28
280
     1
102
RTVSPost2010PropOp28
 70
     1
102
RTVSPost2010Prop29
280
     1
102
RTVSPost2010PropOp29
 70
     1
102
RTVSPost2010Prop30
280
     0
102
RTVSPost2010PropOp30
 70
     1
102
RTVSPost2010Prop31
280
     0
102
RTVSPost2010PropOp31
 70
     1
102
RTVSPost2010Prop32
280
     0
102
RTVSPost2010PropOp32
 70
     1
102
RTVSPost2010Prop33
280
     0
102
RTVSPost2010PropOp33
 70
     1
102
RTVSPost2010Prop34
280
     0
102
RTVSPost2010PropOp34
 70
     1
102
RTVSPost2010Prop35
280
     0
102
RTVSPost2010PropOp35
 70
     1
102
RTVSPost2010Prop36
280
     0
102
RTVSPost2010PropOp36
 70
     1
102
RTVSPost2010Prop37
 90
       50
102
RTVSPost2010PropOp37
 70
     1
102
RTVSPost2010Prop38
140
0.0
102
RTVSPost2010PropOp38
 70
     1
102
RTVSPost2010Prop39
140
1.0
102
RTVSPost2010PropOp39
 70
     1
102
RTVSPost2010Prop40
 90
        0
102
RTVSPost2010PropOp40
 70
     1
102
RTVSPost2010Prop41ColorIndex
 90
       18
102
RTVSPost2010Prop41ColorRGB
 90
        0
102
RTVSPost2010PropOp41
 70
     1
102
RTVSPost2010Prop42
 90
       50
102
RTVSPost2010PropOp42
 70
     1
102
RTVSPost2010Prop43
 90
        3
102
RTVSPost2010PropOp43
 70
     1
102
RTVSPost2010Prop44ColorIndex
 90
        5
102
RTVSPost2010Prop44ColorRGB
 90
      255
102
RTVSPost2010PropOp44
 70
     1
102
RTVSPost2010Prop45
280
     0
102
RTVSPost2010PropOp45
 70
     1
102
RTVSPost2010Prop46
 90
       50
102
RTVSPost2010PropOp46
 70
     1
102
RTVSPost2010Prop47
 90
       50
102
RTVSPost2010PropOp47
 70
     1
102
RTVSPost2010Prop48
 90
       50
102
RTVSPost2010PropOp48
 70
     1
102
RTVSPost2010Prop49
280
     0
102
RTVSPost2010PropOp49
 70
     1
102
RTVSPost2010Prop50
 90
       50
102
RTVSPost2010PropOp50
 70
     1
102
RTVSPost2010Prop51ColorIndex
 90
      256
102
RTVSPost2010Prop51ColorRGB
 90
-16777216
102
RTVSPost2010PropOp51
 70
     0
102
RTVSPost2010Prop52
140
1.0
102
RTVSPost2010PropOp52
 70
     0
102
RTVSPost2010Prop53
 90
        2
102
RTVSPost2010PropOp53
 70
     1
102
RTVSPost2010Prop54
  1
strokes_ogs.tif
102
RTVSPost2010PropOp54
 70
     1
102
RTVSPost2010Prop55
280
     0
102
RTVSPost2010PropOp55
 70
     1
102
RTVSPost2010Prop56
140
1.0
102
RTVSPost2010PropOp56
 70
     1
102
RTVSPost2010Prop57
140
1.0
102
RTVSPost2010PropOp57
 70
     1
102
RTVSPropertyOp0
 70
     1
102
RTVSPropertyOp1
 70
     1
102
RTVSPropertyOp2
 70
     1
102
RTVSPropertyOp3
 70
     1
102
RTVSPropertyOp4
 70
     1
102
RTVSPropertyOp5
 70
     1
102
RTVSPropertyOp6
 70
     1
102
RTVSPropertyOp7
 70
     1
102
RTVSPropertyOp8
 70
     1
102
RTVSPropertyOp9
 70
     1
102
RTVSPropertyOp10
 70
     1
102
RTVSPropertyOp11
 70
     1
102
RTVSPropertyOp12
 70
     1
102
RTVSPropertyOp13
 70
     1
102
RTVSPropertyOp14
 70
     1
102
RTVSPropertyOp15
 70
     1
102
RTVSPropertyOp16
 70
     1
102
RTVSPropertyOp17
 70
     1
102
RTVSPropertyOp18
 70
     1
102
RTVSPropertyOp19
 70
     1
102
RTVSPropertyOp20
 70
     1
102
RTVSPropertyOp21
 70
     1
102
RTVSPropertyOp22
 70
     1
102
RTVSPropertyOp23
 70
     1
102
RTVSPropertyOp24
 70
     1
102
RTVSPropertyOp25
 70
     1
102
RTVSPropertyOp26
 70
     1
102
RTVSPropertyOp27
 70
     1
  0
XRECORD
  5
A58E
102
{ACAD_REACTORS
330
A58D
102
}
330
A58D
100
AcDbXrecord
280
     1
102
RTVSPropertyOp0
 70
     1
102
RTVSPropertyOp1
 70
     1
102
RTVSPropertyOp2
 70
     1
102
RTVSPropertyOp3
 70
     1
102
RTVSPropertyOp4
 70
     1
102
RTVSPropertyOp5
 70
     1
102
RTVSPropertyOp6
 70
     1
102
RTVSPropertyOp7
 70
     1
102
RTVSPropertyOp8
 70
     1
102
RTVSPropertyOp9
 70
     1
102
RTVSPropertyOp10
 70
     1
102
RTVSPropertyOp11
 70
     1
102
RTVSPropertyOp12
 70
     1
102
RTVSPropertyOp13
 70
     1
102
RTVSPropertyOp14
 70
     1
102
RTVSPropertyOp15
 70
     1
102
RTVSPropertyOp16
 70
     1
102
RTVSPropertyOp17
 70
     1
102
RTVSPropertyOp18
 70
     1
102
RTVSPropertyOp19
 70
     1
102
RTVSPropertyOp20
 70
     1
102
RTVSPropertyOp21
 70
     1
102
RTVSPropertyOp22
 70
     1
102
RTVSPropertyOp23
 70
     1
102
RTVSPropertyOp24
 70
     1
102
RTVSPropertyOp25
 70
     1
102
RTVSPropertyOp26
 70
     1
102
RTVSPropertyOp27
 70
     1
  0
XRECORD
  5
A58C
102
{ACAD_REACTORS
330
A58B
102
}
330
A58B
100
AcDbXrecord
280
     1
102
RTVSPropertyOp0
 70
     1
102
RTVSPropertyOp1
 70
     1
102
RTVSPropertyOp2
 70
     1
102
RTVSPropertyOp3
 70
     1
102
RTVSPropertyOp4
 70
     1
102
RTVSPropertyOp5
 70
     1
102
RTVSPropertyOp6
 70
     1
102
RTVSPropertyOp7
 70
     1
102
RTVSPropertyOp8
 70
     1
102
RTVSPropertyOp9
 70
     1
102
RTVSPropertyOp10
 70
     1
102
RTVSPropertyOp11
 70
     1
102
RTVSPropertyOp12
 70
     1
102
RTVSPropertyOp13
 70
     1
102
RTVSPropertyOp14
 70
     1
102
RTVSPropertyOp15
 70
     1
102
RTVSPropertyOp16
 70
     1
102
RTVSPropertyOp17
 70
     1
102
RTVSPropertyOp18
 70
     1
102
RTVSPropertyOp19
 70
     1
102
RTVSPropertyOp20
 70
     1
102
RTVSPropertyOp21
 70
     1
102
RTVSPropertyOp22
 70
     1
102
RTVSPropertyOp23
 70
     1
102
RTVSPropertyOp24
 70
     1
102
RTVSPropertyOp25
 70
     1
102
RTVSPropertyOp26
 70
     1
102
RTVSPropertyOp27
 70
     1
  0
XRECORD
  5
8AF9
102
{ACAD_REACTORS
330
8AF8
102
}
330
8AF8
100
AcDbXrecord
280
     1
102
RTVSPost2010Prop28
280
     0
102
RTVSPost2010PropOp28
 70
     1
102
RTVSPost2010Prop29
280
     1
102
RTVSPost2010PropOp29
 70
     1
102
RTVSPost2010Prop30
280
     1
102
RTVSPost2010PropOp30
 70
     1
102
RTVSPost2010Prop31
280
     0
102
RTVSPost2010PropOp31
 70
     1
102
RTVSPost2010Prop32
280
     0
102
RTVSPost2010PropOp32
 70
     1
102
RTVSPost2010Prop33
280
     0
102
RTVSPost2010PropOp33
 70
     1
102
RTVSPost2010Prop34
280
     0
102
RTVSPost2010PropOp34
 70
     1
102
RTVSPost2010Prop35
280
     0
102
RTVSPost2010PropOp35
 70
     1
102
RTVSPost2010Prop36
280
     0
102
RTVSPost2010PropOp36
 70
     1
102
RTVSPost2010Prop37
 90
       50
102
RTVSPost2010PropOp37
 70
     1
102
RTVSPost2010Prop38
140
0.0
102
RTVSPost2010PropOp38
 70
     1
102
RTVSPost2010Prop39
140
1.0
102
RTVSPost2010PropOp39
 70
     1
102
RTVSPost2010Prop40
 90
        0
102
RTVSPost2010PropOp40
 70
     1
102
RTVSPost2010Prop41ColorIndex
 90
       18
102
RTVSPost2010Prop41ColorRGB
 90
        0
102
RTVSPost2010PropOp41
 70
     1
102
RTVSPost2010Prop42
 90
       50
102
RTVSPost2010PropOp42
 70
     1
102
RTVSPost2010Prop43
 90
        3
102
RTVSPost2010PropOp43
 70
     1
102
RTVSPost2010Prop44ColorIndex
 90
        5
102
RTVSPost2010Prop44ColorRGB
 90
      255
102
RTVSPost2010PropOp44
 70
     1
102
RTVSPost2010Prop45
280
     0
102
RTVSPost2010PropOp45
 70
     1
102
RTVSPost2010Prop46
 90
       50
102
RTVSPost2010PropOp46
 70
     1
102
RTVSPost2010Prop47
 90
       50
102
RTVSPost2010PropOp47
 70
     1
102
RTVSPost2010Prop48
 90
       50
102
RTVSPost2010PropOp48
 70
     1
102
RTVSPost2010Prop49
280
     0
102
RTVSPost2010PropOp49
 70
     1
102
RTVSPost2010Prop50
 90
       50
102
RTVSPost2010PropOp50
 70
     1
102
RTVSPost2010Prop51ColorIndex
 90
      256
102
RTVSPost2010Prop51ColorRGB
 90
-16777216
102
RTVSPost2010PropOp51
 70
     0
102
RTVSPost2010Prop52
140
1.0
102
RTVSPost2010PropOp52
 70
     0
102
RTVSPost2010Prop53
 90
        2
102
RTVSPost2010PropOp53
 70
     1
102
RTVSPost2010Prop54
  1
strokes_ogs.tif
102
RTVSPost2010PropOp54
 70
     1
102
RTVSPost2010Prop55
280
     0
102
RTVSPost2010PropOp55
 70
     1
102
RTVSPost2010Prop56
140
1.0
102
RTVSPost2010PropOp56
 70
     1
102
RTVSPost2010Prop57
140
1.0
102
RTVSPost2010PropOp57
 70
     1
102
RTVSPropertyOp0
 70
     1
102
RTVSPropertyOp1
 70
     1
102
RTVSPropertyOp2
 70
     1
102
RTVSPropertyOp3
 70
     1
102
RTVSPropertyOp4
 70
     1
102
RTVSPropertyOp5
 70
     1
102
RTVSPropertyOp6
 70
     1
102
RTVSPropertyOp7
 70
     1
102
RTVSPropertyOp8
 70
     1
102
RTVSPropertyOp9
 70
     1
102
RTVSPropertyOp10
 70
     1
102
RTVSPropertyOp11
 70
     1
102
RTVSPropertyOp12
 70
     1
102
RTVSPropertyOp13
 70
     1
102
RTVSPropertyOp14
 70
     1
102
RTVSPropertyOp15
 70
     1
102
RTVSPropertyOp16
 70
     1
102
RTVSPropertyOp17
 70
     1
102
RTVSPropertyOp18
 70
     1
102
RTVSPropertyOp19
 70
     1
102
RTVSPropertyOp20
 70
     1
102
RTVSPropertyOp21
 70
     1
102
RTVSPropertyOp22
 70
     1
102
RTVSPropertyOp23
 70
     1
102
RTVSPropertyOp24
 70
     1
102
RTVSPropertyOp25
 70
     1
102
RTVSPropertyOp26
 70
     1
102
RTVSPropertyOp27
 70
     1
  0
XRECORD
  5
8B07
102
{ACAD_REACTORS
330
8B06
102
}
330
8B06
100
AcDbXrecord
280
     1
102
RTVSPost2010Prop28
280
     0
102
RTVSPost2010PropOp28
 70
     1
102
RTVSPost2010Prop29
280
     1
102
RTVSPost2010PropOp29
 70
     1
102
RTVSPost2010Prop30
280
     1
102
RTVSPost2010PropOp30
 70
     1
102
RTVSPost2010Prop31
280
     0
102
RTVSPost2010PropOp31
 70
     1
102
RTVSPost2010Prop32
280
     0
102
RTVSPost2010PropOp32
 70
     1
102
RTVSPost2010Prop33
280
     0
102
RTVSPost2010PropOp33
 70
     1
102
RTVSPost2010Prop34
280
     0
102
RTVSPost2010PropOp34
 70
     1
102
RTVSPost2010Prop35
280
     0
102
RTVSPost2010PropOp35
 70
     1
102
RTVSPost2010Prop36
280
     0
102
RTVSPost2010PropOp36
 70
     1
102
RTVSPost2010Prop37
 90
       50
102
RTVSPost2010PropOp37
 70
     1
102
RTVSPost2010Prop38
140
0.0
102
RTVSPost2010PropOp38
 70
     1
102
RTVSPost2010Prop39
140
1.0
102
RTVSPost2010PropOp39
 70
     1
102
RTVSPost2010Prop40
 90
        0
102
RTVSPost2010PropOp40
 70
     1
102
RTVSPost2010Prop41ColorIndex
 90
       18
102
RTVSPost2010Prop41ColorRGB
 90
        0
102
RTVSPost2010PropOp41
 70
     1
102
RTVSPost2010Prop42
 90
       50
102
RTVSPost2010PropOp42
 70
     1
102
RTVSPost2010Prop43
 90
        3
102
RTVSPost2010PropOp43
 70
     1
102
RTVSPost2010Prop44ColorIndex
 90
        5
102
RTVSPost2010Prop44ColorRGB
 90
      255
102
RTVSPost2010PropOp44
 70
     1
102
RTVSPost2010Prop45
280
     0
102
RTVSPost2010PropOp45
 70
     1
102
RTVSPost2010Prop46
 90
       50
102
RTVSPost2010PropOp46
 70
     1
102
RTVSPost2010Prop47
 90
       50
102
RTVSPost2010PropOp47
 70
     1
102
RTVSPost2010Prop48
 90
       50
102
RTVSPost2010PropOp48
 70
     1
102
RTVSPost2010Prop49
280
     0
102
RTVSPost2010PropOp49
 70
     1
102
RTVSPost2010Prop50
 90
       50
102
RTVSPost2010PropOp50
 70
     1
102
RTVSPost2010Prop51ColorIndex
 90
      256
102
RTVSPost2010Prop51ColorRGB
 90
-16777216
102
RTVSPost2010PropOp51
 70
     0
102
RTVSPost2010Prop52
140
1.0
102
RTVSPost2010PropOp52
 70
     0
102
RTVSPost2010Prop53
 90
        2
102
RTVSPost2010PropOp53
 70
     1
102
RTVSPost2010Prop54
  1
strokes_ogs.tif
102
RTVSPost2010PropOp54
 70
     1
102
RTVSPost2010Prop55
280
     0
102
RTVSPost2010PropOp55
 70
     1
102
RTVSPost2010Prop56
140
1.0
102
RTVSPost2010PropOp56
 70
     1
102
RTVSPost2010Prop57
140
1.0
102
RTVSPost2010PropOp57
 70
     1
102
RTVSPropertyOp0
 70
     1
102
RTVSPropertyOp1
 70
     1
102
RTVSPropertyOp2
 70
     1
102
RTVSPropertyOp3
 70
     1
102
RTVSPropertyOp4
 70
     1
102
RTVSPropertyOp5
 70
     1
102
RTVSPropertyOp6
 70
     1
102
RTVSPropertyOp7
 70
     1
102
RTVSPropertyOp8
 70
     1
102
RTVSPropertyOp9
 70
     1
102
RTVSPropertyOp10
 70
     1
102
RTVSPropertyOp11
 70
     1
102
RTVSPropertyOp12
 70
     1
102
RTVSPropertyOp13
 70
     1
102
RTVSPropertyOp14
 70
     1
102
RTVSPropertyOp15
 70
     1
102
RTVSPropertyOp16
 70
     1
102
RTVSPropertyOp17
 70
     1
102
RTVSPropertyOp18
 70
     1
102
RTVSPropertyOp19
 70
     1
102
RTVSPropertyOp20
 70
     1
102
RTVSPropertyOp21
 70
     1
102
RTVSPropertyOp22
 70
     1
102
RTVSPropertyOp23
 70
     1
102
RTVSPropertyOp24
 70
     1
102
RTVSPropertyOp25
 70
     1
102
RTVSPropertyOp26
 70
     1
102
RTVSPropertyOp27
 70
     1
  0
XRECORD
  5
8B0F
102
{ACAD_REACTORS
330
8B0E
102
}
330
8B0E
100
AcDbXrecord
280
     1
102
RTVSPost2010Prop28
280
     0
102
RTVSPost2010PropOp28
 70
     1
102
RTVSPost2010Prop29
280
     1
102
RTVSPost2010PropOp29
 70
     1
102
RTVSPost2010Prop30
280
     1
102
RTVSPost2010PropOp30
 70
     1
102
RTVSPost2010Prop31
280
     0
102
RTVSPost2010PropOp31
 70
     1
102
RTVSPost2010Prop32
280
     0
102
RTVSPost2010PropOp32
 70
     1
102
RTVSPost2010Prop33
280
     0
102
RTVSPost2010PropOp33
 70
     1
102
RTVSPost2010Prop34
280
     0
102
RTVSPost2010PropOp34
 70
     1
102
RTVSPost2010Prop35
280
     0
102
RTVSPost2010PropOp35
 70
     1
102
RTVSPost2010Prop36
280
     0
102
RTVSPost2010PropOp36
 70
     1
102
RTVSPost2010Prop37
 90
       50
102
RTVSPost2010PropOp37
 70
     1
102
RTVSPost2010Prop38
140
0.0
102
RTVSPost2010PropOp38
 70
     1
102
RTVSPost2010Prop39
140
1.0
102
RTVSPost2010PropOp39
 70
     1
102
RTVSPost2010Prop40
 90
        0
102
RTVSPost2010PropOp40
 70
     1
102
RTVSPost2010Prop41ColorIndex
 90
       18
102
RTVSPost2010Prop41ColorRGB
 90
        0
102
RTVSPost2010PropOp41
 70
     1
102
RTVSPost2010Prop42
 90
       50
102
RTVSPost2010PropOp42
 70
     1
102
RTVSPost2010Prop43
 90
        3
102
RTVSPost2010PropOp43
 70
     1
102
RTVSPost2010Prop44ColorIndex
 90
        5
102
RTVSPost2010Prop44ColorRGB
 90
      255
102
RTVSPost2010PropOp44
 70
     1
102
RTVSPost2010Prop45
280
     0
102
RTVSPost2010PropOp45
 70
     1
102
RTVSPost2010Prop46
 90
       50
102
RTVSPost2010PropOp46
 70
     1
102
RTVSPost2010Prop47
 90
       50
102
RTVSPost2010PropOp47
 70
     1
102
RTVSPost2010Prop48
 90
       50
102
RTVSPost2010PropOp48
 70
     1
102
RTVSPost2010Prop49
280
     0
102
RTVSPost2010PropOp49
 70
     1
102
RTVSPost2010Prop50
 90
       50
102
RTVSPost2010PropOp50
 70
     1
102
RTVSPost2010Prop51ColorIndex
 90
      256
102
RTVSPost2010Prop51ColorRGB
 90
-16777216
102
RTVSPost2010PropOp51
 70
     0
102
RTVSPost2010Prop52
140
1.0
102
RTVSPost2010PropOp52
 70
     0
102
RTVSPost2010Prop53
 90
        2
102
RTVSPost2010PropOp53
 70
     1
102
RTVSPost2010Prop54
  1
strokes_ogs.tif
102
RTVSPost2010PropOp54
 70
     1
102
RTVSPost2010Prop55
280
     0
102
RTVSPost2010PropOp55
 70
     1
102
RTVSPost2010Prop56
140
1.0
102
RTVSPost2010PropOp56
 70
     1
102
RTVSPost2010Prop57
140
1.0
102
RTVSPost2010PropOp57
 70
     1
102
RTVSPropertyOp0
 70
     1
102
RTVSPropertyOp1
 70
     1
102
RTVSPropertyOp2
 70
     1
102
RTVSPropertyOp3
 70
     1
102
RTVSPropertyOp4
 70
     1
102
RTVSPropertyOp5
 70
     1
102
RTVSPropertyOp6
 70
     1
102
RTVSPropertyOp7
 70
     1
102
RTVSPropertyOp8
 70
     1
102
RTVSPropertyOp9
 70
     1
102
RTVSPropertyOp10
 70
     1
102
RTVSPropertyOp11
 70
     1
102
RTVSPropertyOp12
 70
     1
102
RTVSPropertyOp13
 70
     1
102
RTVSPropertyOp14
 70
     1
102
RTVSPropertyOp15
 70
     1
102
RTVSPropertyOp16
 70
     1
102
RTVSPropertyOp17
 70
     1
102
RTVSPropertyOp18
 70
     1
102
RTVSPropertyOp19
 70
     1
102
RTVSPropertyOp20
 70
     1
102
RTVSPropertyOp21
 70
     1
102
RTVSPropertyOp22
 70
     1
102
RTVSPropertyOp23
 70
     1
102
RTVSPropertyOp24
 70
     1
102
RTVSPropertyOp25
 70
     1
102
RTVSPropertyOp26
 70
     1
102
RTVSPropertyOp27
 70
     1
  0
XRECORD
  5
8B01
102
{ACAD_REACTORS
330
8B00
102
}
330
8B00
100
AcDbXrecord
280
     1
102
RTVSPost2010Prop28
280
     0
102
RTVSPost2010PropOp28
 70
     1
102
RTVSPost2010Prop29
280
     1
102
RTVSPost2010PropOp29
 70
     1
102
RTVSPost2010Prop30
280
     1
102
RTVSPost2010PropOp30
 70
     1
102
RTVSPost2010Prop31
280
     0
102
RTVSPost2010PropOp31
 70
     1
102
RTVSPost2010Prop32
280
     0
102
RTVSPost2010PropOp32
 70
     1
102
RTVSPost2010Prop33
280
     0
102
RTVSPost2010PropOp33
 70
     1
102
RTVSPost2010Prop34
280
     0
102
RTVSPost2010PropOp34
 70
     1
102
RTVSPost2010Prop35
280
     0
102
RTVSPost2010PropOp35
 70
     1
102
RTVSPost2010Prop36
280
     0
102
RTVSPost2010PropOp36
 70
     1
102
RTVSPost2010Prop37
 90
       50
102
RTVSPost2010PropOp37
 70
     1
102
RTVSPost2010Prop38
140
0.0
102
RTVSPost2010PropOp38
 70
     1
102
RTVSPost2010Prop39
140
1.0
102
RTVSPost2010PropOp39
 70
     1
102
RTVSPost2010Prop40
 90
        0
102
RTVSPost2010PropOp40
 70
     1
102
RTVSPost2010Prop41ColorIndex
 90
       18
102
RTVSPost2010Prop41ColorRGB
 90
        0
102
RTVSPost2010PropOp41
 70
     1
102
RTVSPost2010Prop42
 90
       50
102
RTVSPost2010PropOp42
 70
     1
102
RTVSPost2010Prop43
 90
        3
102
RTVSPost2010PropOp43
 70
     1
102
RTVSPost2010Prop44ColorIndex
 90
        5
102
RTVSPost2010Prop44ColorRGB
 90
      255
102
RTVSPost2010PropOp44
 70
     1
102
RTVSPost2010Prop45
280
     0
102
RTVSPost2010PropOp45
 70
     1
102
RTVSPost2010Prop46
 90
       50
102
RTVSPost2010PropOp46
 70
     1
102
RTVSPost2010Prop47
 90
       50
102
RTVSPost2010PropOp47
 70
     1
102
RTVSPost2010Prop48
 90
       50
102
RTVSPost2010PropOp48
 70
     1
102
RTVSPost2010Prop49
280
     0
102
RTVSPost2010PropOp49
 70
     1
102
RTVSPost2010Prop50
 90
       50
102
RTVSPost2010PropOp50
 70
     1
102
RTVSPost2010Prop51ColorIndex
 90
      256
102
RTVSPost2010Prop51ColorRGB
 90
-16777216
102
RTVSPost2010PropOp51
 70
     0
102
RTVSPost2010Prop52
140
1.0
102
RTVSPost2010PropOp52
 70
     0
102
RTVSPost2010Prop53
 90
        2
102
RTVSPost2010PropOp53
 70
     1
102
RTVSPost2010Prop54
  1
strokes_ogs.tif
102
RTVSPost2010PropOp54
 70
     1
102
RTVSPost2010Prop55
280
     0
102
RTVSPost2010PropOp55
 70
     1
102
RTVSPost2010Prop56
140
1.0
102
RTVSPost2010PropOp56
 70
     1
102
RTVSPost2010Prop57
140
1.0
102
RTVSPost2010PropOp57
 70
     1
102
RTVSPropertyOp0
 70
     1
102
RTVSPropertyOp1
 70
     1
102
RTVSPropertyOp2
 70
     1
102
RTVSPropertyOp3
 70
     1
102
RTVSPropertyOp4
 70
     1
102
RTVSPropertyOp5
 70
     1
102
RTVSPropertyOp6
 70
     1
102
RTVSPropertyOp7
 70
     1
102
RTVSPropertyOp8
 70
     1
102
RTVSPropertyOp9
 70
     1
102
RTVSPropertyOp10
 70
     1
102
RTVSPropertyOp11
 70
     1
102
RTVSPropertyOp12
 70
     1
102
RTVSPropertyOp13
 70
     1
102
RTVSPropertyOp14
 70
     1
102
RTVSPropertyOp15
 70
     1
102
RTVSPropertyOp16
 70
     1
102
RTVSPropertyOp17
 70
     1
102
RTVSPropertyOp18
 70
     1
102
RTVSPropertyOp19
 70
     1
102
RTVSPropertyOp20
 70
     1
102
RTVSPropertyOp21
 70
     1
102
RTVSPropertyOp22
 70
     1
102
RTVSPropertyOp23
 70
     1
102
RTVSPropertyOp24
 70
     1
102
RTVSPropertyOp25
 70
     1
102
RTVSPropertyOp26
 70
     1
102
RTVSPropertyOp27
 70
     1
  0
XRECORD
  5
8B05
102
{ACAD_REACTORS
330
8B04
102
}
330
8B04
100
AcDbXrecord
280
     1
102
RTVSPost2010Prop28
280
     0
102
RTVSPost2010PropOp28
 70
     1
102
RTVSPost2010Prop29
280
     1
102
RTVSPost2010PropOp29
 70
     1
102
RTVSPost2010Prop30
280
     1
102
RTVSPost2010PropOp30
 70
     1
102
RTVSPost2010Prop31
280
     0
102
RTVSPost2010PropOp31
 70
     1
102
RTVSPost2010Prop32
280
     0
102
RTVSPost2010PropOp32
 70
     1
102
RTVSPost2010Prop33
280
     0
102
RTVSPost2010PropOp33
 70
     1
102
RTVSPost2010Prop34
280
     0
102
RTVSPost2010PropOp34
 70
     1
102
RTVSPost2010Prop35
280
     0
102
RTVSPost2010PropOp35
 70
     1
102
RTVSPost2010Prop36
280
     0
102
RTVSPost2010PropOp36
 70
     1
102
RTVSPost2010Prop37
 90
       50
102
RTVSPost2010PropOp37
 70
     1
102
RTVSPost2010Prop38
140
0.0
102
RTVSPost2010PropOp38
 70
     1
102
RTVSPost2010Prop39
140
1.0
102
RTVSPost2010PropOp39
 70
     1
102
RTVSPost2010Prop40
 90
        0
102
RTVSPost2010PropOp40
 70
     1
102
RTVSPost2010Prop41ColorIndex
 90
       18
102
RTVSPost2010Prop41ColorRGB
 90
        0
102
RTVSPost2010PropOp41
 70
     1
102
RTVSPost2010Prop42
 90
       50
102
RTVSPost2010PropOp42
 70
     1
102
RTVSPost2010Prop43
 90
        3
102
RTVSPost2010PropOp43
 70
     1
102
RTVSPost2010Prop44ColorIndex
 90
        5
102
RTVSPost2010Prop44ColorRGB
 90
      255
102
RTVSPost2010PropOp44
 70
     1
102
RTVSPost2010Prop45
280
     0
102
RTVSPost2010PropOp45
 70
     1
102
RTVSPost2010Prop46
 90
       50
102
RTVSPost2010PropOp46
 70
     1
102
RTVSPost2010Prop47
 90
       50
102
RTVSPost2010PropOp47
 70
     1
102
RTVSPost2010Prop48
 90
       50
102
RTVSPost2010PropOp48
 70
     1
102
RTVSPost2010Prop49
280
     0
102
RTVSPost2010PropOp49
 70
     1
102
RTVSPost2010Prop50
 90
       50
102
RTVSPost2010PropOp50
 70
     1
102
RTVSPost2010Prop51ColorIndex
 90
      256
102
RTVSPost2010Prop51ColorRGB
 90
-16777216
102
RTVSPost2010PropOp51
 70
     0
102
RTVSPost2010Prop52
140
1.0
102
RTVSPost2010PropOp52
 70
     0
102
RTVSPost2010Prop53
 90
        2
102
RTVSPost2010PropOp53
 70
     1
102
RTVSPost2010Prop54
  1
strokes_ogs.tif
102
RTVSPost2010PropOp54
 70
     1
102
RTVSPost2010Prop55
280
     0
102
RTVSPost2010PropOp55
 70
     1
102
RTVSPost2010Prop56
140
1.0
102
RTVSPost2010PropOp56
 70
     1
102
RTVSPost2010Prop57
140
1.0
102
RTVSPost2010PropOp57
 70
     1
102
RTVSPropertyOp0
 70
     1
102
RTVSPropertyOp1
 70
     1
102
RTVSPropertyOp2
 70
     1
102
RTVSPropertyOp3
 70
     1
102
RTVSPropertyOp4
 70
     1
102
RTVSPropertyOp5
 70
     1
102
RTVSPropertyOp6
 70
     1
102
RTVSPropertyOp7
 70
     1
102
RTVSPropertyOp8
 70
     1
102
RTVSPropertyOp9
 70
     1
102
RTVSPropertyOp10
 70
     1
102
RTVSPropertyOp11
 70
     1
102
RTVSPropertyOp12
 70
     1
102
RTVSPropertyOp13
 70
     1
102
RTVSPropertyOp14
 70
     1
102
RTVSPropertyOp15
 70
     1
102
RTVSPropertyOp16
 70
     1
102
RTVSPropertyOp17
 70
     1
102
RTVSPropertyOp18
 70
     1
102
RTVSPropertyOp19
 70
     1
102
RTVSPropertyOp20
 70
     1
102
RTVSPropertyOp21
 70
     1
102
RTVSPropertyOp22
 70
     1
102
RTVSPropertyOp23
 70
     1
102
RTVSPropertyOp24
 70
     1
102
RTVSPropertyOp25
 70
     1
102
RTVSPropertyOp26
 70
     1
102
RTVSPropertyOp27
 70
     1
  0
XRECORD
  5
8B1F
102
{ACAD_REACTORS
330
8B1E
102
}
330
8B1E
100
AcDbXrecord
280
     1
102
RTVSPost2010Prop28
280
     0
102
RTVSPost2010PropOp28
 70
     1
102
RTVSPost2010Prop29
280
     1
102
RTVSPost2010PropOp29
 70
     1
102
RTVSPost2010Prop30
280
     1
102
RTVSPost2010PropOp30
 70
     1
102
RTVSPost2010Prop31
280
     0
102
RTVSPost2010PropOp31
 70
     1
102
RTVSPost2010Prop32
280
     0
102
RTVSPost2010PropOp32
 70
     1
102
RTVSPost2010Prop33
280
     0
102
RTVSPost2010PropOp33
 70
     1
102
RTVSPost2010Prop34
280
     0
102
RTVSPost2010PropOp34
 70
     1
102
RTVSPost2010Prop35
280
     0
102
RTVSPost2010PropOp35
 70
     1
102
RTVSPost2010Prop36
280
     0
102
RTVSPost2010PropOp36
 70
     1
102
RTVSPost2010Prop37
 90
       50
102
RTVSPost2010PropOp37
 70
     0
102
RTVSPost2010Prop38
140
0.0
102
RTVSPost2010PropOp38
 70
     0
102
RTVSPost2010Prop39
140
1.0
102
RTVSPost2010PropOp39
 70
     0
102
RTVSPost2010Prop40
 90
        0
102
RTVSPost2010PropOp40
 70
     0
102
RTVSPost2010Prop41ColorIndex
 90
       18
102
RTVSPost2010Prop41ColorRGB
 90
        0
102
RTVSPost2010PropOp41
 70
     0
102
RTVSPost2010Prop42
 90
       50
102
RTVSPost2010PropOp42
 70
     0
102
RTVSPost2010Prop43
 90
        3
102
RTVSPost2010PropOp43
 70
     0
102
RTVSPost2010Prop44ColorIndex
 90
        5
102
RTVSPost2010Prop44ColorRGB
 90
      255
102
RTVSPost2010PropOp44
 70
     0
102
RTVSPost2010Prop45
280
     0
102
RTVSPost2010PropOp45
 70
     1
102
RTVSPost2010Prop46
 90
       50
102
RTVSPost2010PropOp46
 70
     0
102
RTVSPost2010Prop47
 90
       50
102
RTVSPost2010PropOp47
 70
     0
102
RTVSPost2010Prop48
 90
       50
102
RTVSPost2010PropOp48
 70
     0
102
RTVSPost2010Prop49
280
     0
102
RTVSPost2010PropOp49
 70
     1
102
RTVSPost2010Prop50
 90
       50
102
RTVSPost2010PropOp50
 70
     0
102
RTVSPost2010Prop51ColorIndex
 90
      256
102
RTVSPost2010Prop51ColorRGB
 90
-16777216
102
RTVSPost2010PropOp51
 70
     0
102
RTVSPost2010Prop52
140
1.0
102
RTVSPost2010PropOp52
 70
     0
102
RTVSPost2010Prop53
 90
        2
102
RTVSPost2010PropOp53
 70
     0
102
RTVSPost2010Prop54
  1
strokes_ogs.tif
102
RTVSPost2010PropOp54
 70
     0
102
RTVSPost2010Prop55
280
     0
102
RTVSPost2010PropOp55
 70
     1
102
RTVSPost2010Prop56
140
1.0
102
RTVSPost2010PropOp56
 70
     0
102
RTVSPost2010Prop57
140
1.0
102
RTVSPost2010PropOp57
 70
     0
102
RTVSPropertyOp0
 70
     0
102
RTVSPropertyOp1
 70
     0
102
RTVSPropertyOp2
 70
     0
102
RTVSPropertyOp3
 70
     0
102
RTVSPropertyOp4
 70
     0
102
RTVSPropertyOp5
 70
     0
102
RTVSPropertyOp6
 70
     0
102
RTVSPropertyOp7
 70
     0
102
RTVSPropertyOp8
 70
     0
102
RTVSPropertyOp9
 70
     0
102
RTVSPropertyOp10
 70
     0
102
RTVSPropertyOp11
 70
     0
102
RTVSPropertyOp12
 70
     0
102
RTVSPropertyOp13
 70
     0
102
RTVSPropertyOp14
 70
     2
102
RTVSPropertyOp15
 70
     0
102
RTVSPropertyOp16
 70
     0
102
RTVSPropertyOp17
 70
     0
102
RTVSPropertyOp18
 70
     0
102
RTVSPropertyOp19
 70
     0
102
RTVSPropertyOp20
 70
     0
102
RTVSPropertyOp21
 70
     0
102
RTVSPropertyOp22
 70
     0
102
RTVSPropertyOp23
 70
     0
102
RTVSPropertyOp24
 70
     0
102
RTVSPropertyOp25
 70
     0
102
RTVSPropertyOp26
 70
     0
102
RTVSPropertyOp27
 70
     0
  0
XRECORD
  5
8B0D
102
{ACAD_REACTORS
330
8B0C
102
}
330
8B0C
100
AcDbXrecord
280
     1
102
RTVSPost2010Prop28
280
     0
102
RTVSPost2010PropOp28
 70
     1
102
RTVSPost2010Prop29
280
     1
102
RTVSPost2010PropOp29
 70
     1
102
RTVSPost2010Prop30
280
     1
102
RTVSPost2010PropOp30
 70
     1
102
RTVSPost2010Prop31
280
     0
102
RTVSPost2010PropOp31
 70
     1
102
RTVSPost2010Prop32
280
     0
102
RTVSPost2010PropOp32
 70
     1
102
RTVSPost2010Prop33
280
     0
102
RTVSPost2010PropOp33
 70
     1
102
RTVSPost2010Prop34
280
     0
102
RTVSPost2010PropOp34
 70
     1
102
RTVSPost2010Prop35
280
     0
102
RTVSPost2010PropOp35
 70
     1
102
RTVSPost2010Prop36
280
     0
102
RTVSPost2010PropOp36
 70
     1
102
RTVSPost2010Prop37
 90
       50
102
RTVSPost2010PropOp37
 70
     1
102
RTVSPost2010Prop38
140
0.0
102
RTVSPost2010PropOp38
 70
     1
102
RTVSPost2010Prop39
140
1.0
102
RTVSPost2010PropOp39
 70
     1
102
RTVSPost2010Prop40
 90
        0
102
RTVSPost2010PropOp40
 70
     1
102
RTVSPost2010Prop41ColorIndex
 90
       18
102
RTVSPost2010Prop41ColorRGB
 90
        0
102
RTVSPost2010PropOp41
 70
     1
102
RTVSPost2010Prop42
 90
       50
102
RTVSPost2010PropOp42
 70
     1
102
RTVSPost2010Prop43
 90
        3
102
RTVSPost2010PropOp43
 70
     1
102
RTVSPost2010Prop44ColorIndex
 90
        5
102
RTVSPost2010Prop44ColorRGB
 90
      255
102
RTVSPost2010PropOp44
 70
     1
102
RTVSPost2010Prop45
280
     0
102
RTVSPost2010PropOp45
 70
     1
102
RTVSPost2010Prop46
 90
       50
102
RTVSPost2010PropOp46
 70
     1
102
RTVSPost2010Prop47
 90
       50
102
RTVSPost2010PropOp47
 70
     1
102
RTVSPost2010Prop48
 90
       50
102
RTVSPost2010PropOp48
 70
     1
102
RTVSPost2010Prop49
280
     0
102
RTVSPost2010PropOp49
 70
     1
102
RTVSPost2010Prop50
 90
       50
102
RTVSPost2010PropOp50
 70
     1
102
RTVSPost2010Prop51ColorIndex
 90
      256
102
RTVSPost2010Prop51ColorRGB
 90
-16777216
102
RTVSPost2010PropOp51
 70
     0
102
RTVSPost2010Prop52
140
1.0
102
RTVSPost2010PropOp52
 70
     0
102
RTVSPost2010Prop53
 90
        2
102
RTVSPost2010PropOp53
 70
     1
102
RTVSPost2010Prop54
  1
strokes_ogs.tif
102
RTVSPost2010PropOp54
 70
     1
102
RTVSPost2010Prop55
280
     0
102
RTVSPost2010PropOp55
 70
     1
102
RTVSPost2010Prop56
140
1.0
102
RTVSPost2010PropOp56
 70
     1
102
RTVSPost2010Prop57
140
1.0
102
RTVSPost2010PropOp57
 70
     1
102
RTVSPropertyOp0
 70
     1
102
RTVSPropertyOp1
 70
     1
102
RTVSPropertyOp2
 70
     1
102
RTVSPropertyOp3
 70
     1
102
RTVSPropertyOp4
 70
     1
102
RTVSPropertyOp5
 70
     1
102
RTVSPropertyOp6
 70
     1
102
RTVSPropertyOp7
 70
     1
102
RTVSPropertyOp8
 70
     1
102
RTVSPropertyOp9
 70
     1
102
RTVSPropertyOp10
 70
     1
102
RTVSPropertyOp11
 70
     1
102
RTVSPropertyOp12
 70
     1
102
RTVSPropertyOp13
 70
     1
102
RTVSPropertyOp14
 70
     1
102
RTVSPropertyOp15
 70
     1
102
RTVSPropertyOp16
 70
     1
102
RTVSPropertyOp17
 70
     1
102
RTVSPropertyOp18
 70
     1
102
RTVSPropertyOp19
 70
     1
102
RTVSPropertyOp20
 70
     1
102
RTVSPropertyOp21
 70
     1
102
RTVSPropertyOp22
 70
     1
102
RTVSPropertyOp23
 70
     1
102
RTVSPropertyOp24
 70
     1
102
RTVSPropertyOp25
 70
     1
102
RTVSPropertyOp26
 70
     1
102
RTVSPropertyOp27
 70
     1
  0
XRECORD
  5
8AF1
102
{ACAD_REACTORS
330
8AF0
102
}
330
8AF0
100
AcDbXrecord
280
     1
102
RTVSPost2010Prop28
280
     0
102
RTVSPost2010PropOp28
 70
     1
102
RTVSPost2010Prop29
280
     1
102
RTVSPost2010PropOp29
 70
     1
102
RTVSPost2010Prop30
280
     1
102
RTVSPost2010PropOp30
 70
     1
102
RTVSPost2010Prop31
280
     0
102
RTVSPost2010PropOp31
 70
     1
102
RTVSPost2010Prop32
280
     0
102
RTVSPost2010PropOp32
 70
     1
102
RTVSPost2010Prop33
280
     0
102
RTVSPost2010PropOp33
 70
     1
102
RTVSPost2010Prop34
280
     0
102
RTVSPost2010PropOp34
 70
     1
102
RTVSPost2010Prop35
280
     0
102
RTVSPost2010PropOp35
 70
     1
102
RTVSPost2010Prop36
280
     0
102
RTVSPost2010PropOp36
 70
     1
102
RTVSPost2010Prop37
 90
       50
102
RTVSPost2010PropOp37
 70
     1
102
RTVSPost2010Prop38
140
0.0
102
RTVSPost2010PropOp38
 70
     1
102
RTVSPost2010Prop39
140
1.0
102
RTVSPost2010PropOp39
 70
     1
102
RTVSPost2010Prop40
 90
        0
102
RTVSPost2010PropOp40
 70
     1
102
RTVSPost2010Prop41ColorIndex
 90
       18
102
RTVSPost2010Prop41ColorRGB
 90
        0
102
RTVSPost2010PropOp41
 70
     1
102
RTVSPost2010Prop42
 90
       50
102
RTVSPost2010PropOp42
 70
     1
102
RTVSPost2010Prop43
 90
        3
102
RTVSPost2010PropOp43
 70
     1
102
RTVSPost2010Prop44ColorIndex
 90
        5
102
RTVSPost2010Prop44ColorRGB
 90
      255
102
RTVSPost2010PropOp44
 70
     1
102
RTVSPost2010Prop45
280
     0
102
RTVSPost2010PropOp45
 70
     1
102
RTVSPost2010Prop46
 90
       50
102
RTVSPost2010PropOp46
 70
     1
102
RTVSPost2010Prop47
 90
       50
102
RTVSPost2010PropOp47
 70
     1
102
RTVSPost2010Prop48
 90
       50
102
RTVSPost2010PropOp48
 70
     1
102
RTVSPost2010Prop49
280
     0
102
RTVSPost2010PropOp49
 70
     1
102
RTVSPost2010Prop50
 90
       50
102
RTVSPost2010PropOp50
 70
     1
102
RTVSPost2010Prop51ColorIndex
 90
      256
102
RTVSPost2010Prop51ColorRGB
 90
-16777216
102
RTVSPost2010PropOp51
 70
     0
102
RTVSPost2010Prop52
140
1.0
102
RTVSPost2010PropOp52
 70
     0
102
RTVSPost2010Prop53
 90
        2
102
RTVSPost2010PropOp53
 70
     1
102
RTVSPost2010Prop54
  1
strokes_ogs.tif
102
RTVSPost2010PropOp54
 70
     1
102
RTVSPost2010Prop55
280
     0
102
RTVSPost2010PropOp55
 70
     1
102
RTVSPost2010Prop56
140
1.0
102
RTVSPost2010PropOp56
 70
     1
102
RTVSPost2010Prop57
140
1.0
102
RTVSPost2010PropOp57
 70
     1
102
RTVSPropertyOp0
 70
     1
102
RTVSPropertyOp1
 70
     1
102
RTVSPropertyOp2
 70
     1
102
RTVSPropertyOp3
 70
     1
102
RTVSPropertyOp4
 70
     1
102
RTVSPropertyOp5
 70
     1
102
RTVSPropertyOp6
 70
     1
102
RTVSPropertyOp7
 70
     1
102
RTVSPropertyOp8
 70
     1
102
RTVSPropertyOp9
 70
     1
102
RTVSPropertyOp10
 70
     1
102
RTVSPropertyOp11
 70
     1
102
RTVSPropertyOp12
 70
     1
102
RTVSPropertyOp13
 70
     1
102
RTVSPropertyOp14
 70
     1
102
RTVSPropertyOp15
 70
     1
102
RTVSPropertyOp16
 70
     1
102
RTVSPropertyOp17
 70
     1
102
RTVSPropertyOp18
 70
     1
102
RTVSPropertyOp19
 70
     1
102
RTVSPropertyOp20
 70
     1
102
RTVSPropertyOp21
 70
     1
102
RTVSPropertyOp22
 70
     1
102
RTVSPropertyOp23
 70
     1
102
RTVSPropertyOp24
 70
     1
102
RTVSPropertyOp25
 70
     1
102
RTVSPropertyOp26
 70
     1
102
RTVSPropertyOp27
 70
     1
  0
XRECORD
  5
8AF3
102
{ACAD_REACTORS
330
8AF2
102
}
330
8AF2
100
AcDbXrecord
280
     1
102
RTVSPost2010Prop28
280
     0
102
RTVSPost2010PropOp28
 70
     1
102
RTVSPost2010Prop29
280
     1
102
RTVSPost2010PropOp29
 70
     1
102
RTVSPost2010Prop30
280
     1
102
RTVSPost2010PropOp30
 70
     1
102
RTVSPost2010Prop31
280
     0
102
RTVSPost2010PropOp31
 70
     1
102
RTVSPost2010Prop32
280
     0
102
RTVSPost2010PropOp32
 70
     1
102
RTVSPost2010Prop33
280
     0
102
RTVSPost2010PropOp33
 70
     1
102
RTVSPost2010Prop34
280
     0
102
RTVSPost2010PropOp34
 70
     1
102
RTVSPost2010Prop35
280
     0
102
RTVSPost2010PropOp35
 70
     1
102
RTVSPost2010Prop36
280
     0
102
RTVSPost2010PropOp36
 70
     1
102
RTVSPost2010Prop37
 90
       50
102
RTVSPost2010PropOp37
 70
     1
102
RTVSPost2010Prop38
140
0.0
102
RTVSPost2010PropOp38
 70
     1
102
RTVSPost2010Prop39
140
1.0
102
RTVSPost2010PropOp39
 70
     1
102
RTVSPost2010Prop40
 90
        0
102
RTVSPost2010PropOp40
 70
     1
102
RTVSPost2010Prop41ColorIndex
 90
       18
102
RTVSPost2010Prop41ColorRGB
 90
        0
102
RTVSPost2010PropOp41
 70
     1
102
RTVSPost2010Prop42
 90
       50
102
RTVSPost2010PropOp42
 70
     1
102
RTVSPost2010Prop43
 90
        3
102
RTVSPost2010PropOp43
 70
     1
102
RTVSPost2010Prop44ColorIndex
 90
        5
102
RTVSPost2010Prop44ColorRGB
 90
      255
102
RTVSPost2010PropOp44
 70
     1
102
RTVSPost2010Prop45
280
     0
102
RTVSPost2010PropOp45
 70
     1
102
RTVSPost2010Prop46
 90
       50
102
RTVSPost2010PropOp46
 70
     1
102
RTVSPost2010Prop47
 90
       50
102
RTVSPost2010PropOp47
 70
     1
102
RTVSPost2010Prop48
 90
       50
102
RTVSPost2010PropOp48
 70
     1
102
RTVSPost2010Prop49
280
     0
102
RTVSPost2010PropOp49
 70
     1
102
RTVSPost2010Prop50
 90
       50
102
RTVSPost2010PropOp50
 70
     1
102
RTVSPost2010Prop51ColorIndex
 90
      256
102
RTVSPost2010Prop51ColorRGB
 90
-16777216
102
RTVSPost2010PropOp51
 70
     0
102
RTVSPost2010Prop52
140
1.0
102
RTVSPost2010PropOp52
 70
     0
102
RTVSPost2010Prop53
 90
        2
102
RTVSPost2010PropOp53
 70
     1
102
RTVSPost2010Prop54
  1
strokes_ogs.tif
102
RTVSPost2010PropOp54
 70
     1
102
RTVSPost2010Prop55
280
     0
102
RTVSPost2010PropOp55
 70
     1
102
RTVSPost2010Prop56
140
1.0
102
RTVSPost2010PropOp56
 70
     1
102
RTVSPost2010Prop57
140
1.0
102
RTVSPost2010PropOp57
 70
     1
102
RTVSPropertyOp0
 70
     1
102
RTVSPropertyOp1
 70
     1
102
RTVSPropertyOp2
 70
     1
102
RTVSPropertyOp3
 70
     1
102
RTVSPropertyOp4
 70
     1
102
RTVSPropertyOp5
 70
     1
102
RTVSPropertyOp6
 70
     1
102
RTVSPropertyOp7
 70
     1
102
RTVSPropertyOp8
 70
     1
102
RTVSPropertyOp9
 70
     1
102
RTVSPropertyOp10
 70
     1
102
RTVSPropertyOp11
 70
     1
102
RTVSPropertyOp12
 70
     1
102
RTVSPropertyOp13
 70
     1
102
RTVSPropertyOp14
 70
     1
102
RTVSPropertyOp15
 70
     1
102
RTVSPropertyOp16
 70
     1
102
RTVSPropertyOp17
 70
     1
102
RTVSPropertyOp18
 70
     1
102
RTVSPropertyOp19
 70
     1
102
RTVSPropertyOp20
 70
     1
102
RTVSPropertyOp21
 70
     1
102
RTVSPropertyOp22
 70
     1
102
RTVSPropertyOp23
 70
     1
102
RTVSPropertyOp24
 70
     1
102
RTVSPropertyOp25
 70
     1
102
RTVSPropertyOp26
 70
     1
102
RTVSPropertyOp27
 70
     1
  0
XRECORD
  5
8AF5
102
{ACAD_REACTORS
330
8AF4
102
}
330
8AF4
100
AcDbXrecord
280
     1
102
RTVSPost2010Prop28
280
     0
102
RTVSPost2010PropOp28
 70
     1
102
RTVSPost2010Prop29
280
     1
102
RTVSPost2010PropOp29
 70
     1
102
RTVSPost2010Prop30
280
     1
102
RTVSPost2010PropOp30
 70
     1
102
RTVSPost2010Prop31
280
     0
102
RTVSPost2010PropOp31
 70
     1
102
RTVSPost2010Prop32
280
     0
102
RTVSPost2010PropOp32
 70
     1
102
RTVSPost2010Prop33
280
     0
102
RTVSPost2010PropOp33
 70
     1
102
RTVSPost2010Prop34
280
     0
102
RTVSPost2010PropOp34
 70
     1
102
RTVSPost2010Prop35
280
     0
102
RTVSPost2010PropOp35
 70
     1
102
RTVSPost2010Prop36
280
     0
102
RTVSPost2010PropOp36
 70
     1
102
RTVSPost2010Prop37
 90
       50
102
RTVSPost2010PropOp37
 70
     1
102
RTVSPost2010Prop38
140
0.0
102
RTVSPost2010PropOp38
 70
     1
102
RTVSPost2010Prop39
140
1.0
102
RTVSPost2010PropOp39
 70
     1
102
RTVSPost2010Prop40
 90
        0
102
RTVSPost2010PropOp40
 70
     1
102
RTVSPost2010Prop41ColorIndex
 90
       18
102
RTVSPost2010Prop41ColorRGB
 90
        0
102
RTVSPost2010PropOp41
 70
     1
102
RTVSPost2010Prop42
 90
       50
102
RTVSPost2010PropOp42
 70
     1
102
RTVSPost2010Prop43
 90
        3
102
RTVSPost2010PropOp43
 70
     1
102
RTVSPost2010Prop44ColorIndex
 90
        5
102
RTVSPost2010Prop44ColorRGB
 90
      255
102
RTVSPost2010PropOp44
 70
     1
102
RTVSPost2010Prop45
280
     0
102
RTVSPost2010PropOp45
 70
     1
102
RTVSPost2010Prop46
 90
       50
102
RTVSPost2010PropOp46
 70
     1
102
RTVSPost2010Prop47
 90
       50
102
RTVSPost2010PropOp47
 70
     1
102
RTVSPost2010Prop48
 90
       50
102
RTVSPost2010PropOp48
 70
     1
102
RTVSPost2010Prop49
280
     0
102
RTVSPost2010PropOp49
 70
     1
102
RTVSPost2010Prop50
 90
       50
102
RTVSPost2010PropOp50
 70
     1
102
RTVSPost2010Prop51ColorIndex
 90
      256
102
RTVSPost2010Prop51ColorRGB
 90
-16777216
102
RTVSPost2010PropOp51
 70
     0
102
RTVSPost2010Prop52
140
1.0
102
RTVSPost2010PropOp52
 70
     0
102
RTVSPost2010Prop53
 90
        2
102
RTVSPost2010PropOp53
 70
     1
102
RTVSPost2010Prop54
  1
strokes_ogs.tif
102
RTVSPost2010PropOp54
 70
     1
102
RTVSPost2010Prop55
280
     0
102
RTVSPost2010PropOp55
 70
     1
102
RTVSPost2010Prop56
140
1.0
102
RTVSPost2010PropOp56
 70
     1
102
RTVSPost2010Prop57
140
1.0
102
RTVSPost2010PropOp57
 70
     1
102
RTVSPropertyOp0
 70
     1
102
RTVSPropertyOp1
 70
     1
102
RTVSPropertyOp2
 70
     1
102
RTVSPropertyOp3
 70
     1
102
RTVSPropertyOp4
 70
     1
102
RTVSPropertyOp5
 70
     1
102
RTVSPropertyOp6
 70
     1
102
RTVSPropertyOp7
 70
     1
102
RTVSPropertyOp8
 70
     1
102
RTVSPropertyOp9
 70
     1
102
RTVSPropertyOp10
 70
     1
102
RTVSPropertyOp11
 70
     1
102
RTVSPropertyOp12
 70
     1
102
RTVSPropertyOp13
 70
     1
102
RTVSPropertyOp14
 70
     1
102
RTVSPropertyOp15
 70
     1
102
RTVSPropertyOp16
 70
     1
102
RTVSPropertyOp17
 70
     1
102
RTVSPropertyOp18
 70
     1
102
RTVSPropertyOp19
 70
     1
102
RTVSPropertyOp20
 70
     1
102
RTVSPropertyOp21
 70
     1
102
RTVSPropertyOp22
 70
     1
102
RTVSPropertyOp23
 70
     1
102
RTVSPropertyOp24
 70
     1
102
RTVSPropertyOp25
 70
     1
102
RTVSPropertyOp26
 70
     1
102
RTVSPropertyOp27
 70
     1
  0
XRECORD
  5
8AF7
102
{ACAD_REACTORS
330
8AF6
102
}
330
8AF6
100
AcDbXrecord
280
     1
102
RTVSPost2010Prop28
280
     0
102
RTVSPost2010PropOp28
 70
     1
102
RTVSPost2010Prop29
280
     1
102
RTVSPost2010PropOp29
 70
     1
102
RTVSPost2010Prop30
280
     1
102
RTVSPost2010PropOp30
 70
     1
102
RTVSPost2010Prop31
280
     0
102
RTVSPost2010PropOp31
 70
     1
102
RTVSPost2010Prop32
280
     0
102
RTVSPost2010PropOp32
 70
     1
102
RTVSPost2010Prop33
280
     0
102
RTVSPost2010PropOp33
 70
     1
102
RTVSPost2010Prop34
280
     0
102
RTVSPost2010PropOp34
 70
     1
102
RTVSPost2010Prop35
280
     0
102
RTVSPost2010PropOp35
 70
     1
102
RTVSPost2010Prop36
280
     0
102
RTVSPost2010PropOp36
 70
     1
102
RTVSPost2010Prop37
 90
       50
102
RTVSPost2010PropOp37
 70
     1
102
RTVSPost2010Prop38
140
0.0
102
RTVSPost2010PropOp38
 70
     1
102
RTVSPost2010Prop39
140
1.0
102
RTVSPost2010PropOp39
 70
     1
102
RTVSPost2010Prop40
 90
        0
102
RTVSPost2010PropOp40
 70
     1
102
RTVSPost2010Prop41ColorIndex
 90
       18
102
RTVSPost2010Prop41ColorRGB
 90
        0
102
RTVSPost2010PropOp41
 70
     1
102
RTVSPost2010Prop42
 90
       50
102
RTVSPost2010PropOp42
 70
     1
102
RTVSPost2010Prop43
 90
        3
102
RTVSPost2010PropOp43
 70
     1
102
RTVSPost2010Prop44ColorIndex
 90
        5
102
RTVSPost2010Prop44ColorRGB
 90
      255
102
RTVSPost2010PropOp44
 70
     1
102
RTVSPost2010Prop45
280
     0
102
RTVSPost2010PropOp45
 70
     1
102
RTVSPost2010Prop46
 90
       50
102
RTVSPost2010PropOp46
 70
     1
102
RTVSPost2010Prop47
 90
       50
102
RTVSPost2010PropOp47
 70
     1
102
RTVSPost2010Prop48
 90
       50
102
RTVSPost2010PropOp48
 70
     1
102
RTVSPost2010Prop49
280
     0
102
RTVSPost2010PropOp49
 70
     1
102
RTVSPost2010Prop50
 90
       50
102
RTVSPost2010PropOp50
 70
     1
102
RTVSPost2010Prop51ColorIndex
 90
      256
102
RTVSPost2010Prop51ColorRGB
 90
-16777216
102
RTVSPost2010PropOp51
 70
     0
102
RTVSPost2010Prop52
140
1.0
102
RTVSPost2010PropOp52
 70
     0
102
RTVSPost2010Prop53
 90
        2
102
RTVSPost2010PropOp53
 70
     1
102
RTVSPost2010Prop54
  1
strokes_ogs.tif
102
RTVSPost2010PropOp54
 70
     1
102
RTVSPost2010Prop55
280
     0
102
RTVSPost2010PropOp55
 70
     1
102
RTVSPost2010Prop56
140
1.0
102
RTVSPost2010PropOp56
 70
     1
102
RTVSPost2010Prop57
140
1.0
102
RTVSPost2010PropOp57
 70
     1
102
RTVSPropertyOp0
 70
     1
102
RTVSPropertyOp1
 70
     1
102
RTVSPropertyOp2
 70
     1
102
RTVSPropertyOp3
 70
     1
102
RTVSPropertyOp4
 70
     1
102
RTVSPropertyOp5
 70
     1
102
RTVSPropertyOp6
 70
     1
102
RTVSPropertyOp7
 70
     1
102
RTVSPropertyOp8
 70
     1
102
RTVSPropertyOp9
 70
     1
102
RTVSPropertyOp10
 70
     1
102
RTVSPropertyOp11
 70
     1
102
RTVSPropertyOp12
 70
     1
102
RTVSPropertyOp13
 70
     1
102
RTVSPropertyOp14
 70
     1
102
RTVSPropertyOp15
 70
     1
102
RTVSPropertyOp16
 70
     1
102
RTVSPropertyOp17
 70
     1
102
RTVSPropertyOp18
 70
     1
102
RTVSPropertyOp19
 70
     1
102
RTVSPropertyOp20
 70
     1
102
RTVSPropertyOp21
 70
     1
102
RTVSPropertyOp22
 70
     1
102
RTVSPropertyOp23
 70
     1
102
RTVSPropertyOp24
 70
     1
102
RTVSPropertyOp25
 70
     1
102
RTVSPropertyOp26
 70
     1
102
RTVSPropertyOp27
 70
     1
  0
XRECORD
  5
8AFF
102
{ACAD_REACTORS
330
8AFE
102
}
330
8AFE
100
AcDbXrecord
280
     1
102
RTVSPost2010Prop28
280
     0
102
RTVSPost2010PropOp28
 70
     1
102
RTVSPost2010Prop29
280
     1
102
RTVSPost2010PropOp29
 70
     1
102
RTVSPost2010Prop30
280
     1
102
RTVSPost2010PropOp30
 70
     1
102
RTVSPost2010Prop31
280
     0
102
RTVSPost2010PropOp31
 70
     1
102
RTVSPost2010Prop32
280
     0
102
RTVSPost2010PropOp32
 70
     1
102
RTVSPost2010Prop33
280
     0
102
RTVSPost2010PropOp33
 70
     1
102
RTVSPost2010Prop34
280
     0
102
RTVSPost2010PropOp34
 70
     1
102
RTVSPost2010Prop35
280
     0
102
RTVSPost2010PropOp35
 70
     1
102
RTVSPost2010Prop36
280
     0
102
RTVSPost2010PropOp36
 70
     1
102
RTVSPost2010Prop37
 90
       50
102
RTVSPost2010PropOp37
 70
     1
102
RTVSPost2010Prop38
140
0.0
102
RTVSPost2010PropOp38
 70
     1
102
RTVSPost2010Prop39
140
1.0
102
RTVSPost2010PropOp39
 70
     1
102
RTVSPost2010Prop40
 90
        0
102
RTVSPost2010PropOp40
 70
     1
102
RTVSPost2010Prop41ColorIndex
 90
       18
102
RTVSPost2010Prop41ColorRGB
 90
        0
102
RTVSPost2010PropOp41
 70
     1
102
RTVSPost2010Prop42
 90
       50
102
RTVSPost2010PropOp42
 70
     1
102
RTVSPost2010Prop43
 90
        3
102
RTVSPost2010PropOp43
 70
     1
102
RTVSPost2010Prop44ColorIndex
 90
        5
102
RTVSPost2010Prop44ColorRGB
 90
      255
102
RTVSPost2010PropOp44
 70
     1
102
RTVSPost2010Prop45
280
     0
102
RTVSPost2010PropOp45
 70
     1
102
RTVSPost2010Prop46
 90
       50
102
RTVSPost2010PropOp46
 70
     1
102
RTVSPost2010Prop47
 90
       50
102
RTVSPost2010PropOp47
 70
     1
102
RTVSPost2010Prop48
 90
       50
102
RTVSPost2010PropOp48
 70
     1
102
RTVSPost2010Prop49
280
     0
102
RTVSPost2010PropOp49
 70
     1
102
RTVSPost2010Prop50
 90
       50
102
RTVSPost2010PropOp50
 70
     1
102
RTVSPost2010Prop51ColorIndex
 90
      256
102
RTVSPost2010Prop51ColorRGB
 90
-16777216
102
RTVSPost2010PropOp51
 70
     0
102
RTVSPost2010Prop52
140
1.0
102
RTVSPost2010PropOp52
 70
     0
102
RTVSPost2010Prop53
 90
        2
102
RTVSPost2010PropOp53
 70
     1
102
RTVSPost2010Prop54
  1
strokes_ogs.tif
102
RTVSPost2010PropOp54
 70
     1
102
RTVSPost2010Prop55
280
     0
102
RTVSPost2010PropOp55
 70
     1
102
RTVSPost2010Prop56
140
1.0
102
RTVSPost2010PropOp56
 70
     1
102
RTVSPost2010Prop57
140
1.0
102
RTVSPost2010PropOp57
 70
     1
102
RTVSPropertyOp0
 70
     1
102
RTVSPropertyOp1
 70
     1
102
RTVSPropertyOp2
 70
     1
102
RTVSPropertyOp3
 70
     1
102
RTVSPropertyOp4
 70
     1
102
RTVSPropertyOp5
 70
     1
102
RTVSPropertyOp6
 70
     1
102
RTVSPropertyOp7
 70
     1
102
RTVSPropertyOp8
 70
     1
102
RTVSPropertyOp9
 70
     1
102
RTVSPropertyOp10
 70
     1
102
RTVSPropertyOp11
 70
     1
102
RTVSPropertyOp12
 70
     1
102
RTVSPropertyOp13
 70
     1
102
RTVSPropertyOp14
 70
     1
102
RTVSPropertyOp15
 70
     1
102
RTVSPropertyOp16
 70
     1
102
RTVSPropertyOp17
 70
     1
102
RTVSPropertyOp18
 70
     1
102
RTVSPropertyOp19
 70
     1
102
RTVSPropertyOp20
 70
     1
102
RTVSPropertyOp21
 70
     1
102
RTVSPropertyOp22
 70
     1
102
RTVSPropertyOp23
 70
     1
102
RTVSPropertyOp24
 70
     1
102
RTVSPropertyOp25
 70
     1
102
RTVSPropertyOp26
 70
     1
102
RTVSPropertyOp27
 70
     1
  0
XRECORD
  5
8B1B
102
{ACAD_REACTORS
330
8B1A
102
}
330
8B1A
100
AcDbXrecord
280
     1
102
RTVSPost2010Prop28
280
     0
102
RTVSPost2010PropOp28
 70
     1
102
RTVSPost2010Prop29
280
     1
102
RTVSPost2010PropOp29
 70
     1
102
RTVSPost2010Prop30
280
     1
102
RTVSPost2010PropOp30
 70
     1
102
RTVSPost2010Prop31
280
     0
102
RTVSPost2010PropOp31
 70
     1
102
RTVSPost2010Prop32
280
     0
102
RTVSPost2010PropOp32
 70
     1
102
RTVSPost2010Prop33
280
     0
102
RTVSPost2010PropOp33
 70
     1
102
RTVSPost2010Prop34
280
     0
102
RTVSPost2010PropOp34
 70
     1
102
RTVSPost2010Prop35
280
     0
102
RTVSPost2010PropOp35
 70
     1
102
RTVSPost2010Prop36
280
     0
102
RTVSPost2010PropOp36
 70
     1
102
RTVSPost2010Prop37
 90
       50
102
RTVSPost2010PropOp37
 70
     0
102
RTVSPost2010Prop38
140
0.0
102
RTVSPost2010PropOp38
 70
     0
102
RTVSPost2010Prop39
140
1.0
102
RTVSPost2010PropOp39
 70
     0
102
RTVSPost2010Prop40
 90
        0
102
RTVSPost2010PropOp40
 70
     0
102
RTVSPost2010Prop41ColorIndex
 90
       18
102
RTVSPost2010Prop41ColorRGB
 90
        0
102
RTVSPost2010PropOp41
 70
     0
102
RTVSPost2010Prop42
 90
       50
102
RTVSPost2010PropOp42
 70
     0
102
RTVSPost2010Prop43
 90
        3
102
RTVSPost2010PropOp43
 70
     0
102
RTVSPost2010Prop44ColorIndex
 90
        5
102
RTVSPost2010Prop44ColorRGB
 90
      255
102
RTVSPost2010PropOp44
 70
     0
102
RTVSPost2010Prop45
280
     0
102
RTVSPost2010PropOp45
 70
     1
102
RTVSPost2010Prop46
 90
       50
102
RTVSPost2010PropOp46
 70
     0
102
RTVSPost2010Prop47
 90
       50
102
RTVSPost2010PropOp47
 70
     0
102
RTVSPost2010Prop48
 90
       50
102
RTVSPost2010PropOp48
 70
     0
102
RTVSPost2010Prop49
280
     0
102
RTVSPost2010PropOp49
 70
     1
102
RTVSPost2010Prop50
 90
       50
102
RTVSPost2010PropOp50
 70
     0
102
RTVSPost2010Prop51ColorIndex
 90
      256
102
RTVSPost2010Prop51ColorRGB
 90
-16777216
102
RTVSPost2010PropOp51
 70
     0
102
RTVSPost2010Prop52
140
1.0
102
RTVSPost2010PropOp52
 70
     0
102
RTVSPost2010Prop53
 90
        2
102
RTVSPost2010PropOp53
 70
     0
102
RTVSPost2010Prop54
  1
strokes_ogs.tif
102
RTVSPost2010PropOp54
 70
     0
102
RTVSPost2010Prop55
280
     0
102
RTVSPost2010PropOp55
 70
     1
102
RTVSPost2010Prop56
140
1.0
102
RTVSPost2010PropOp56
 70
     0
102
RTVSPost2010Prop57
140
1.0
102
RTVSPost2010PropOp57
 70
     0
102
RTVSPropertyOp0
 70
     0
102
RTVSPropertyOp1
 70
     0
102
RTVSPropertyOp2
 70
     0
102
RTVSPropertyOp3
 70
     0
102
RTVSPropertyOp4
 70
     0
102
RTVSPropertyOp5
 70
     0
102
RTVSPropertyOp6
 70
     0
102
RTVSPropertyOp7
 70
     0
102
RTVSPropertyOp8
 70
     0
102
RTVSPropertyOp9
 70
     0
102
RTVSPropertyOp10
 70
     0
102
RTVSPropertyOp11
 70
     0
102
RTVSPropertyOp12
 70
     0
102
RTVSPropertyOp13
 70
     0
102
RTVSPropertyOp14
 70
     2
102
RTVSPropertyOp15
 70
     0
102
RTVSPropertyOp16
 70
     0
102
RTVSPropertyOp17
 70
     0
102
RTVSPropertyOp18
 70
     0
102
RTVSPropertyOp19
 70
     0
102
RTVSPropertyOp20
 70
     0
102
RTVSPropertyOp21
 70
     0
102
RTVSPropertyOp22
 70
     0
102
RTVSPropertyOp23
 70
     0
102
RTVSPropertyOp24
 70
     0
102
RTVSPropertyOp25
 70
     0
102
RTVSPropertyOp26
 70
     0
102
RTVSPropertyOp27
 70
     0
  0
XRECORD
  5
8B0B
102
{ACAD_REACTORS
330
8B0A
102
}
330
8B0A
100
AcDbXrecord
280
     1
102
RTVSPost2010Prop28
280
     0
102
RTVSPost2010PropOp28
 70
     1
102
RTVSPost2010Prop29
280
     1
102
RTVSPost2010PropOp29
 70
     1
102
RTVSPost2010Prop30
280
     1
102
RTVSPost2010PropOp30
 70
     1
102
RTVSPost2010Prop31
280
     0
102
RTVSPost2010PropOp31
 70
     1
102
RTVSPost2010Prop32
280
     0
102
RTVSPost2010PropOp32
 70
     1
102
RTVSPost2010Prop33
280
     0
102
RTVSPost2010PropOp33
 70
     1
102
RTVSPost2010Prop34
280
     0
102
RTVSPost2010PropOp34
 70
     1
102
RTVSPost2010Prop35
280
     0
102
RTVSPost2010PropOp35
 70
     1
102
RTVSPost2010Prop36
280
     0
102
RTVSPost2010PropOp36
 70
     1
102
RTVSPost2010Prop37
 90
       50
102
RTVSPost2010PropOp37
 70
     1
102
RTVSPost2010Prop38
140
0.0
102
RTVSPost2010PropOp38
 70
     1
102
RTVSPost2010Prop39
140
1.0
102
RTVSPost2010PropOp39
 70
     1
102
RTVSPost2010Prop40
 90
        0
102
RTVSPost2010PropOp40
 70
     1
102
RTVSPost2010Prop41ColorIndex
 90
       18
102
RTVSPost2010Prop41ColorRGB
 90
        0
102
RTVSPost2010PropOp41
 70
     1
102
RTVSPost2010Prop42
 90
       50
102
RTVSPost2010PropOp42
 70
     1
102
RTVSPost2010Prop43
 90
        3
102
RTVSPost2010PropOp43
 70
     1
102
RTVSPost2010Prop44ColorIndex
 90
        5
102
RTVSPost2010Prop44ColorRGB
 90
      255
102
RTVSPost2010PropOp44
 70
     1
102
RTVSPost2010Prop45
280
     0
102
RTVSPost2010PropOp45
 70
     1
102
RTVSPost2010Prop46
 90
       50
102
RTVSPost2010PropOp46
 70
     1
102
RTVSPost2010Prop47
 90
       50
102
RTVSPost2010PropOp47
 70
     1
102
RTVSPost2010Prop48
 90
       50
102
RTVSPost2010PropOp48
 70
     1
102
RTVSPost2010Prop49
280
     0
102
RTVSPost2010PropOp49
 70
     1
102
RTVSPost2010Prop50
 90
       50
102
RTVSPost2010PropOp50
 70
     1
102
RTVSPost2010Prop51ColorIndex
 90
      256
102
RTVSPost2010Prop51ColorRGB
 90
-16777216
102
RTVSPost2010PropOp51
 70
     0
102
RTVSPost2010Prop52
140
1.0
102
RTVSPost2010PropOp52
 70
     0
102
RTVSPost2010Prop53
 90
        2
102
RTVSPost2010PropOp53
 70
     1
102
RTVSPost2010Prop54
  1
strokes_ogs.tif
102
RTVSPost2010PropOp54
 70
     1
102
RTVSPost2010Prop55
280
     0
102
RTVSPost2010PropOp55
 70
     1
102
RTVSPost2010Prop56
140
1.0
102
RTVSPost2010PropOp56
 70
     1
102
RTVSPost2010Prop57
140
1.0
102
RTVSPost2010PropOp57
 70
     1
102
RTVSPropertyOp0
 70
     1
102
RTVSPropertyOp1
 70
     1
102
RTVSPropertyOp2
 70
     1
102
RTVSPropertyOp3
 70
     1
102
RTVSPropertyOp4
 70
     1
102
RTVSPropertyOp5
 70
     1
102
RTVSPropertyOp6
 70
     1
102
RTVSPropertyOp7
 70
     1
102
RTVSPropertyOp8
 70
     1
102
RTVSPropertyOp9
 70
     1
102
RTVSPropertyOp10
 70
     1
102
RTVSPropertyOp11
 70
     1
102
RTVSPropertyOp12
 70
     1
102
RTVSPropertyOp13
 70
     1
102
RTVSPropertyOp14
 70
     1
102
RTVSPropertyOp15
 70
     1
102
RTVSPropertyOp16
 70
     1
102
RTVSPropertyOp17
 70
     1
102
RTVSPropertyOp18
 70
     1
102
RTVSPropertyOp19
 70
     1
102
RTVSPropertyOp20
 70
     1
102
RTVSPropertyOp21
 70
     1
102
RTVSPropertyOp22
 70
     1
102
RTVSPropertyOp23
 70
     1
102
RTVSPropertyOp24
 70
     1
102
RTVSPropertyOp25
 70
     1
102
RTVSPropertyOp26
 70
     1
102
RTVSPropertyOp27
 70
     1
  0
XRECORD
  5
8B1D
102
{ACAD_REACTORS
330
8B1C
102
}
330
8B1C
100
AcDbXrecord
280
     1
102
RTVSPost2010Prop28
280
     0
102
RTVSPost2010PropOp28
 70
     1
102
RTVSPost2010Prop29
280
     1
102
RTVSPost2010PropOp29
 70
     1
102
RTVSPost2010Prop30
280
     1
102
RTVSPost2010PropOp30
 70
     1
102
RTVSPost2010Prop31
280
     0
102
RTVSPost2010PropOp31
 70
     1
102
RTVSPost2010Prop32
280
     0
102
RTVSPost2010PropOp32
 70
     1
102
RTVSPost2010Prop33
280
     0
102
RTVSPost2010PropOp33
 70
     1
102
RTVSPost2010Prop34
280
     0
102
RTVSPost2010PropOp34
 70
     1
102
RTVSPost2010Prop35
280
     0
102
RTVSPost2010PropOp35
 70
     1
102
RTVSPost2010Prop36
280
     0
102
RTVSPost2010PropOp36
 70
     1
102
RTVSPost2010Prop37
 90
       50
102
RTVSPost2010PropOp37
 70
     0
102
RTVSPost2010Prop38
140
0.0
102
RTVSPost2010PropOp38
 70
     0
102
RTVSPost2010Prop39
140
1.0
102
RTVSPost2010PropOp39
 70
     0
102
RTVSPost2010Prop40
 90
        0
102
RTVSPost2010PropOp40
 70
     0
102
RTVSPost2010Prop41ColorIndex
 90
       18
102
RTVSPost2010Prop41ColorRGB
 90
        0
102
RTVSPost2010PropOp41
 70
     0
102
RTVSPost2010Prop42
 90
       50
102
RTVSPost2010PropOp42
 70
     0
102
RTVSPost2010Prop43
 90
        3
102
RTVSPost2010PropOp43
 70
     0
102
RTVSPost2010Prop44ColorIndex
 90
        5
102
RTVSPost2010Prop44ColorRGB
 90
      255
102
RTVSPost2010PropOp44
 70
     0
102
RTVSPost2010Prop45
280
     0
102
RTVSPost2010PropOp45
 70
     1
102
RTVSPost2010Prop46
 90
       50
102
RTVSPost2010PropOp46
 70
     0
102
RTVSPost2010Prop47
 90
       50
102
RTVSPost2010PropOp47
 70
     0
102
RTVSPost2010Prop48
 90
       50
102
RTVSPost2010PropOp48
 70
     0
102
RTVSPost2010Prop49
280
     0
102
RTVSPost2010PropOp49
 70
     1
102
RTVSPost2010Prop50
 90
       50
102
RTVSPost2010PropOp50
 70
     0
102
RTVSPost2010Prop51ColorIndex
 90
      256
102
RTVSPost2010Prop51ColorRGB
 90
-16777216
102
RTVSPost2010PropOp51
 70
     0
102
RTVSPost2010Prop52
140
1.0
102
RTVSPost2010PropOp52
 70
     0
102
RTVSPost2010Prop53
 90
        2
102
RTVSPost2010PropOp53
 70
     0
102
RTVSPost2010Prop54
  1
strokes_ogs.tif
102
RTVSPost2010PropOp54
 70
     0
102
RTVSPost2010Prop55
280
     0
102
RTVSPost2010PropOp55
 70
     1
102
RTVSPost2010Prop56
140
1.0
102
RTVSPost2010PropOp56
 70
     0
102
RTVSPost2010Prop57
140
1.0
102
RTVSPost2010PropOp57
 70
     0
102
RTVSPropertyOp0
 70
     0
102
RTVSPropertyOp1
 70
     0
102
RTVSPropertyOp2
 70
     0
102
RTVSPropertyOp3
 70
     0
102
RTVSPropertyOp4
 70
     0
102
RTVSPropertyOp5
 70
     0
102
RTVSPropertyOp6
 70
     0
102
RTVSPropertyOp7
 70
     0
102
RTVSPropertyOp8
 70
     0
102
RTVSPropertyOp9
 70
     0
102
RTVSPropertyOp10
 70
     0
102
RTVSPropertyOp11
 70
     0
102
RTVSPropertyOp12
 70
     0
102
RTVSPropertyOp13
 70
     0
102
RTVSPropertyOp14
 70
     2
102
RTVSPropertyOp15
 70
     0
102
RTVSPropertyOp16
 70
     0
102
RTVSPropertyOp17
 70
     0
102
RTVSPropertyOp18
 70
     0
102
RTVSPropertyOp19
 70
     0
102
RTVSPropertyOp20
 70
     0
102
RTVSPropertyOp21
 70
     0
102
RTVSPropertyOp22
 70
     0
102
RTVSPropertyOp23
 70
     0
102
RTVSPropertyOp24
 70
     0
102
RTVSPropertyOp25
 70
     0
102
RTVSPropertyOp26
 70
     0
102
RTVSPropertyOp27
 70
     0
  0
XRECORD
  5
8B03
102
{ACAD_REACTORS
330
8B02
102
}
330
8B02
100
AcDbXrecord
280
     1
102
RTVSPost2010Prop28
280
     0
102
RTVSPost2010PropOp28
 70
     1
102
RTVSPost2010Prop29
280
     1
102
RTVSPost2010PropOp29
 70
     1
102
RTVSPost2010Prop30
280
     1
102
RTVSPost2010PropOp30
 70
     1
102
RTVSPost2010Prop31
280
     0
102
RTVSPost2010PropOp31
 70
     1
102
RTVSPost2010Prop32
280
     0
102
RTVSPost2010PropOp32
 70
     1
102
RTVSPost2010Prop33
280
     0
102
RTVSPost2010PropOp33
 70
     1
102
RTVSPost2010Prop34
280
     0
102
RTVSPost2010PropOp34
 70
     1
102
RTVSPost2010Prop35
280
     0
102
RTVSPost2010PropOp35
 70
     1
102
RTVSPost2010Prop36
280
     0
102
RTVSPost2010PropOp36
 70
     1
102
RTVSPost2010Prop37
 90
       50
102
RTVSPost2010PropOp37
 70
     1
102
RTVSPost2010Prop38
140
0.0
102
RTVSPost2010PropOp38
 70
     1
102
RTVSPost2010Prop39
140
1.0
102
RTVSPost2010PropOp39
 70
     1
102
RTVSPost2010Prop40
 90
        0
102
RTVSPost2010PropOp40
 70
     1
102
RTVSPost2010Prop41ColorIndex
 90
       18
102
RTVSPost2010Prop41ColorRGB
 90
        0
102
RTVSPost2010PropOp41
 70
     1
102
RTVSPost2010Prop42
 90
       50
102
RTVSPost2010PropOp42
 70
     1
102
RTVSPost2010Prop43
 90
        3
102
RTVSPost2010PropOp43
 70
     1
102
RTVSPost2010Prop44ColorIndex
 90
        5
102
RTVSPost2010Prop44ColorRGB
 90
      255
102
RTVSPost2010PropOp44
 70
     1
102
RTVSPost2010Prop45
280
     0
102
RTVSPost2010PropOp45
 70
     1
102
RTVSPost2010Prop46
 90
       50
102
RTVSPost2010PropOp46
 70
     1
102
RTVSPost2010Prop47
 90
       50
102
RTVSPost2010PropOp47
 70
     1
102
RTVSPost2010Prop48
 90
       50
102
RTVSPost2010PropOp48
 70
     1
102
RTVSPost2010Prop49
280
     0
102
RTVSPost2010PropOp49
 70
     1
102
RTVSPost2010Prop50
 90
       50
102
RTVSPost2010PropOp50
 70
     1
102
RTVSPost2010Prop51ColorIndex
 90
      256
102
RTVSPost2010Prop51ColorRGB
 90
-16777216
102
RTVSPost2010PropOp51
 70
     0
102
RTVSPost2010Prop52
140
1.0
102
RTVSPost2010PropOp52
 70
     0
102
RTVSPost2010Prop53
 90
        2
102
RTVSPost2010PropOp53
 70
     1
102
RTVSPost2010Prop54
  1
strokes_ogs.tif
102
RTVSPost2010PropOp54
 70
     1
102
RTVSPost2010Prop55
280
     0
102
RTVSPost2010PropOp55
 70
     1
102
RTVSPost2010Prop56
140
1.0
102
RTVSPost2010PropOp56
 70
     1
102
RTVSPost2010Prop57
140
1.0
102
RTVSPost2010PropOp57
 70
     1
102
RTVSPropertyOp0
 70
     1
102
RTVSPropertyOp1
 70
     1
102
RTVSPropertyOp2
 70
     1
102
RTVSPropertyOp3
 70
     1
102
RTVSPropertyOp4
 70
     1
102
RTVSPropertyOp5
 70
     1
102
RTVSPropertyOp6
 70
     1
102
RTVSPropertyOp7
 70
     1
102
RTVSPropertyOp8
 70
     1
102
RTVSPropertyOp9
 70
     1
102
RTVSPropertyOp10
 70
     1
102
RTVSPropertyOp11
 70
     1
102
RTVSPropertyOp12
 70
     1
102
RTVSPropertyOp13
 70
     1
102
RTVSPropertyOp14
 70
     1
102
RTVSPropertyOp15
 70
     1
102
RTVSPropertyOp16
 70
     1
102
RTVSPropertyOp17
 70
     1
102
RTVSPropertyOp18
 70
     1
102
RTVSPropertyOp19
 70
     1
102
RTVSPropertyOp20
 70
     1
102
RTVSPropertyOp21
 70
     1
102
RTVSPropertyOp22
 70
     1
102
RTVSPropertyOp23
 70
     1
102
RTVSPropertyOp24
 70
     1
102
RTVSPropertyOp25
 70
     1
102
RTVSPropertyOp26
 70
     1
102
RTVSPropertyOp27
 70
     1
  0
XRECORD
  5
8B19
102
{ACAD_REACTORS
330
8B18
102
}
330
8B18
100
AcDbXrecord
280
     1
102
RTVSPost2010Prop28
280
     0
102
RTVSPost2010PropOp28
 70
     1
102
RTVSPost2010Prop29
280
     1
102
RTVSPost2010PropOp29
 70
     1
102
RTVSPost2010Prop30
280
     1
102
RTVSPost2010PropOp30
 70
     1
102
RTVSPost2010Prop31
280
     0
102
RTVSPost2010PropOp31
 70
     1
102
RTVSPost2010Prop32
280
     0
102
RTVSPost2010PropOp32
 70
     1
102
RTVSPost2010Prop33
280
     0
102
RTVSPost2010PropOp33
 70
     1
102
RTVSPost2010Prop34
280
     0
102
RTVSPost2010PropOp34
 70
     1
102
RTVSPost2010Prop35
280
     0
102
RTVSPost2010PropOp35
 70
     1
102
RTVSPost2010Prop36
280
     0
102
RTVSPost2010PropOp36
 70
     1
102
RTVSPost2010Prop37
 90
       50
102
RTVSPost2010PropOp37
 70
     1
102
RTVSPost2010Prop38
140
0.0
102
RTVSPost2010PropOp38
 70
     1
102
RTVSPost2010Prop39
140
1.0
102
RTVSPost2010PropOp39
 70
     1
102
RTVSPost2010Prop40
 90
        0
102
RTVSPost2010PropOp40
 70
     1
102
RTVSPost2010Prop41ColorIndex
 90
       18
102
RTVSPost2010Prop41ColorRGB
 90
        0
102
RTVSPost2010PropOp41
 70
     1
102
RTVSPost2010Prop42
 90
       50
102
RTVSPost2010PropOp42
 70
     1
102
RTVSPost2010Prop43
 90
        3
102
RTVSPost2010PropOp43
 70
     1
102
RTVSPost2010Prop44ColorIndex
 90
        5
102
RTVSPost2010Prop44ColorRGB
 90
      255
102
RTVSPost2010PropOp44
 70
     1
102
RTVSPost2010Prop45
280
     0
102
RTVSPost2010PropOp45
 70
     1
102
RTVSPost2010Prop46
 90
       50
102
RTVSPost2010PropOp46
 70
     1
102
RTVSPost2010Prop47
 90
       50
102
RTVSPost2010PropOp47
 70
     1
102
RTVSPost2010Prop48
 90
       50
102
RTVSPost2010PropOp48
 70
     1
102
RTVSPost2010Prop49
280
     0
102
RTVSPost2010PropOp49
 70
     1
102
RTVSPost2010Prop50
 90
       50
102
RTVSPost2010PropOp50
 70
     1
102
RTVSPost2010Prop51ColorIndex
 90
      256
102
RTVSPost2010Prop51ColorRGB
 90
-16777216
102
RTVSPost2010PropOp51
 70
     0
102
RTVSPost2010Prop52
140
1.0
102
RTVSPost2010PropOp52
 70
     0
102
RTVSPost2010Prop53
 90
        2
102
RTVSPost2010PropOp53
 70
     1
102
RTVSPost2010Prop54
  1
strokes_ogs.tif
102
RTVSPost2010PropOp54
 70
     1
102
RTVSPost2010Prop55
280
     0
102
RTVSPost2010PropOp55
 70
     1
102
RTVSPost2010Prop56
140
1.0
102
RTVSPost2010PropOp56
 70
     1
102
RTVSPost2010Prop57
140
1.0
102
RTVSPost2010PropOp57
 70
     1
102
RTVSPropertyOp0
 70
     1
102
RTVSPropertyOp1
 70
     1
102
RTVSPropertyOp2
 70
     1
102
RTVSPropertyOp3
 70
     1
102
RTVSPropertyOp4
 70
     1
102
RTVSPropertyOp5
 70
     1
102
RTVSPropertyOp6
 70
     1
102
RTVSPropertyOp7
 70
     1
102
RTVSPropertyOp8
 70
     1
102
RTVSPropertyOp9
 70
     1
102
RTVSPropertyOp10
 70
     1
102
RTVSPropertyOp11
 70
     1
102
RTVSPropertyOp12
 70
     1
102
RTVSPropertyOp13
 70
     1
102
RTVSPropertyOp14
 70
     1
102
RTVSPropertyOp15
 70
     1
102
RTVSPropertyOp16
 70
     1
102
RTVSPropertyOp17
 70
     1
102
RTVSPropertyOp18
 70
     1
102
RTVSPropertyOp19
 70
     1
102
RTVSPropertyOp20
 70
     1
102
RTVSPropertyOp21
 70
     1
102
RTVSPropertyOp22
 70
     1
102
RTVSPropertyOp23
 70
     1
102
RTVSPropertyOp24
 70
     1
102
RTVSPropertyOp25
 70
     1
102
RTVSPropertyOp26
 70
     1
102
RTVSPropertyOp27
 70
     1
  0
XRECORD
  5
8B17
102
{ACAD_REACTORS
330
8B16
102
}
330
8B16
100
AcDbXrecord
280
     1
102
RTVSPost2010Prop28
280
     0
102
RTVSPost2010PropOp28
 70
     1
102
RTVSPost2010Prop29
280
     1
102
RTVSPost2010PropOp29
 70
     1
102
RTVSPost2010Prop30
280
     1
102
RTVSPost2010PropOp30
 70
     1
102
RTVSPost2010Prop31
280
     0
102
RTVSPost2010PropOp31
 70
     1
102
RTVSPost2010Prop32
280
     0
102
RTVSPost2010PropOp32
 70
     1
102
RTVSPost2010Prop33
280
     0
102
RTVSPost2010PropOp33
 70
     1
102
RTVSPost2010Prop34
280
     0
102
RTVSPost2010PropOp34
 70
     1
102
RTVSPost2010Prop35
280
     0
102
RTVSPost2010PropOp35
 70
     1
102
RTVSPost2010Prop36
280
     0
102
RTVSPost2010PropOp36
 70
     1
102
RTVSPost2010Prop37
 90
       50
102
RTVSPost2010PropOp37
 70
     1
102
RTVSPost2010Prop38
140
0.0
102
RTVSPost2010PropOp38
 70
     1
102
RTVSPost2010Prop39
140
1.0
102
RTVSPost2010PropOp39
 70
     1
102
RTVSPost2010Prop40
 90
        0
102
RTVSPost2010PropOp40
 70
     1
102
RTVSPost2010Prop41ColorIndex
 90
       18
102
RTVSPost2010Prop41ColorRGB
 90
        0
102
RTVSPost2010PropOp41
 70
     1
102
RTVSPost2010Prop42
 90
       50
102
RTVSPost2010PropOp42
 70
     1
102
RTVSPost2010Prop43
 90
        3
102
RTVSPost2010PropOp43
 70
     1
102
RTVSPost2010Prop44ColorIndex
 90
        5
102
RTVSPost2010Prop44ColorRGB
 90
      255
102
RTVSPost2010PropOp44
 70
     1
102
RTVSPost2010Prop45
280
     0
102
RTVSPost2010PropOp45
 70
     1
102
RTVSPost2010Prop46
 90
       50
102
RTVSPost2010PropOp46
 70
     1
102
RTVSPost2010Prop47
 90
       50
102
RTVSPost2010PropOp47
 70
     1
102
RTVSPost2010Prop48
 90
       50
102
RTVSPost2010PropOp48
 70
     1
102
RTVSPost2010Prop49
280
     0
102
RTVSPost2010PropOp49
 70
     1
102
RTVSPost2010Prop50
 90
       50
102
RTVSPost2010PropOp50
 70
     1
102
RTVSPost2010Prop51ColorIndex
 90
      256
102
RTVSPost2010Prop51ColorRGB
 90
-16777216
102
RTVSPost2010PropOp51
 70
     0
102
RTVSPost2010Prop52
140
1.0
102
RTVSPost2010PropOp52
 70
     0
102
RTVSPost2010Prop53
 90
        2
102
RTVSPost2010PropOp53
 70
     1
102
RTVSPost2010Prop54
  1
strokes_ogs.tif
102
RTVSPost2010PropOp54
 70
     1
102
RTVSPost2010Prop55
280
     0
102
RTVSPost2010PropOp55
 70
     1
102
RTVSPost2010Prop56
140
1.0
102
RTVSPost2010PropOp56
 70
     1
102
RTVSPost2010Prop57
140
1.0
102
RTVSPost2010PropOp57
 70
     1
102
RTVSPropertyOp0
 70
     1
102
RTVSPropertyOp1
 70
     1
102
RTVSPropertyOp2
 70
     1
102
RTVSPropertyOp3
 70
     1
102
RTVSPropertyOp4
 70
     1
102
RTVSPropertyOp5
 70
     1
102
RTVSPropertyOp6
 70
     1
102
RTVSPropertyOp7
 70
     1
102
RTVSPropertyOp8
 70
     1
102
RTVSPropertyOp9
 70
     1
102
RTVSPropertyOp10
 70
     1
102
RTVSPropertyOp11
 70
     1
102
RTVSPropertyOp12
 70
     1
102
RTVSPropertyOp13
 70
     1
102
RTVSPropertyOp14
 70
     1
102
RTVSPropertyOp15
 70
     1
102
RTVSPropertyOp16
 70
     1
102
RTVSPropertyOp17
 70
     1
102
RTVSPropertyOp18
 70
     1
102
RTVSPropertyOp19
 70
     1
102
RTVSPropertyOp20
 70
     1
102
RTVSPropertyOp21
 70
     1
102
RTVSPropertyOp22
 70
     1
102
RTVSPropertyOp23
 70
     1
102
RTVSPropertyOp24
 70
     1
102
RTVSPropertyOp25
 70
     1
102
RTVSPropertyOp26
 70
     1
102
RTVSPropertyOp27
 70
     1
  0
XRECORD
  5
8B11
102
{ACAD_REACTORS
330
8B10
102
}
330
8B10
100
AcDbXrecord
280
     1
102
RTVSPost2010Prop28
280
     0
102
RTVSPost2010PropOp28
 70
     1
102
RTVSPost2010Prop29
280
     1
102
RTVSPost2010PropOp29
 70
     1
102
RTVSPost2010Prop30
280
     1
102
RTVSPost2010PropOp30
 70
     1
102
RTVSPost2010Prop31
280
     0
102
RTVSPost2010PropOp31
 70
     1
102
RTVSPost2010Prop32
280
     0
102
RTVSPost2010PropOp32
 70
     1
102
RTVSPost2010Prop33
280
     0
102
RTVSPost2010PropOp33
 70
     1
102
RTVSPost2010Prop34
280
     0
102
RTVSPost2010PropOp34
 70
     1
102
RTVSPost2010Prop35
280
     0
102
RTVSPost2010PropOp35
 70
     1
102
RTVSPost2010Prop36
280
     0
102
RTVSPost2010PropOp36
 70
     1
102
RTVSPost2010Prop37
 90
       50
102
RTVSPost2010PropOp37
 70
     1
102
RTVSPost2010Prop38
140
0.0
102
RTVSPost2010PropOp38
 70
     1
102
RTVSPost2010Prop39
140
1.0
102
RTVSPost2010PropOp39
 70
     1
102
RTVSPost2010Prop40
 90
        0
102
RTVSPost2010PropOp40
 70
     1
102
RTVSPost2010Prop41ColorIndex
 90
       18
102
RTVSPost2010Prop41ColorRGB
 90
        0
102
RTVSPost2010PropOp41
 70
     1
102
RTVSPost2010Prop42
 90
       50
102
RTVSPost2010PropOp42
 70
     1
102
RTVSPost2010Prop43
 90
        3
102
RTVSPost2010PropOp43
 70
     1
102
RTVSPost2010Prop44ColorIndex
 90
        5
102
RTVSPost2010Prop44ColorRGB
 90
      255
102
RTVSPost2010PropOp44
 70
     1
102
RTVSPost2010Prop45
280
     0
102
RTVSPost2010PropOp45
 70
     1
102
RTVSPost2010Prop46
 90
       50
102
RTVSPost2010PropOp46
 70
     1
102
RTVSPost2010Prop47
 90
       50
102
RTVSPost2010PropOp47
 70
     1
102
RTVSPost2010Prop48
 90
       50
102
RTVSPost2010PropOp48
 70
     1
102
RTVSPost2010Prop49
280
     0
102
RTVSPost2010PropOp49
 70
     1
102
RTVSPost2010Prop50
 90
       50
102
RTVSPost2010PropOp50
 70
     1
102
RTVSPost2010Prop51ColorIndex
 90
      256
102
RTVSPost2010Prop51ColorRGB
 90
-16777216
102
RTVSPost2010PropOp51
 70
     0
102
RTVSPost2010Prop52
140
1.0
102
RTVSPost2010PropOp52
 70
     0
102
RTVSPost2010Prop53
 90
        2
102
RTVSPost2010PropOp53
 70
     1
102
RTVSPost2010Prop54
  1
strokes_ogs.tif
102
RTVSPost2010PropOp54
 70
     1
102
RTVSPost2010Prop55
280
     0
102
RTVSPost2010PropOp55
 70
     1
102
RTVSPost2010Prop56
140
1.0
102
RTVSPost2010PropOp56
 70
     1
102
RTVSPost2010Prop57
140
1.0
102
RTVSPost2010PropOp57
 70
     1
102
RTVSPropertyOp0
 70
     1
102
RTVSPropertyOp1
 70
     1
102
RTVSPropertyOp2
 70
     1
102
RTVSPropertyOp3
 70
     1
102
RTVSPropertyOp4
 70
     1
102
RTVSPropertyOp5
 70
     1
102
RTVSPropertyOp6
 70
     1
102
RTVSPropertyOp7
 70
     1
102
RTVSPropertyOp8
 70
     1
102
RTVSPropertyOp9
 70
     1
102
RTVSPropertyOp10
 70
     1
102
RTVSPropertyOp11
 70
     1
102
RTVSPropertyOp12
 70
     1
102
RTVSPropertyOp13
 70
     1
102
RTVSPropertyOp14
 70
     1
102
RTVSPropertyOp15
 70
     1
102
RTVSPropertyOp16
 70
     1
102
RTVSPropertyOp17
 70
     1
102
RTVSPropertyOp18
 70
     1
102
RTVSPropertyOp19
 70
     1
102
RTVSPropertyOp20
 70
     1
102
RTVSPropertyOp21
 70
     1
102
RTVSPropertyOp22
 70
     1
102
RTVSPropertyOp23
 70
     1
102
RTVSPropertyOp24
 70
     1
102
RTVSPropertyOp25
 70
     1
102
RTVSPropertyOp26
 70
     1
102
RTVSPropertyOp27
 70
     1
  0
XRECORD
  5
8B13
102
{ACAD_REACTORS
330
8B12
102
}
330
8B12
100
AcDbXrecord
280
     1
102
RTVSPost2010Prop28
280
     0
102
RTVSPost2010PropOp28
 70
     1
102
RTVSPost2010Prop29
280
     1
102
RTVSPost2010PropOp29
 70
     1
102
RTVSPost2010Prop30
280
     1
102
RTVSPost2010PropOp30
 70
     1
102
RTVSPost2010Prop31
280
     0
102
RTVSPost2010PropOp31
 70
     1
102
RTVSPost2010Prop32
280
     0
102
RTVSPost2010PropOp32
 70
     1
102
RTVSPost2010Prop33
280
     0
102
RTVSPost2010PropOp33
 70
     1
102
RTVSPost2010Prop34
280
     0
102
RTVSPost2010PropOp34
 70
     1
102
RTVSPost2010Prop35
280
     0
102
RTVSPost2010PropOp35
 70
     1
102
RTVSPost2010Prop36
280
     0
102
RTVSPost2010PropOp36
 70
     1
102
RTVSPost2010Prop37
 90
       50
102
RTVSPost2010PropOp37
 70
     1
102
RTVSPost2010Prop38
140
0.0
102
RTVSPost2010PropOp38
 70
     1
102
RTVSPost2010Prop39
140
1.0
102
RTVSPost2010PropOp39
 70
     1
102
RTVSPost2010Prop40
 90
        0
102
RTVSPost2010PropOp40
 70
     1
102
RTVSPost2010Prop41ColorIndex
 90
       18
102
RTVSPost2010Prop41ColorRGB
 90
        0
102
RTVSPost2010PropOp41
 70
     1
102
RTVSPost2010Prop42
 90
       50
102
RTVSPost2010PropOp42
 70
     1
102
RTVSPost2010Prop43
 90
        3
102
RTVSPost2010PropOp43
 70
     1
102
RTVSPost2010Prop44ColorIndex
 90
        5
102
RTVSPost2010Prop44ColorRGB
 90
      255
102
RTVSPost2010PropOp44
 70
     1
102
RTVSPost2010Prop45
280
     0
102
RTVSPost2010PropOp45
 70
     1
102
RTVSPost2010Prop46
 90
       50
102
RTVSPost2010PropOp46
 70
     1
102
RTVSPost2010Prop47
 90
       50
102
RTVSPost2010PropOp47
 70
     1
102
RTVSPost2010Prop48
 90
       50
102
RTVSPost2010PropOp48
 70
     1
102
RTVSPost2010Prop49
280
     0
102
RTVSPost2010PropOp49
 70
     1
102
RTVSPost2010Prop50
 90
       50
102
RTVSPost2010PropOp50
 70
     1
102
RTVSPost2010Prop51ColorIndex
 90
      256
102
RTVSPost2010Prop51ColorRGB
 90
-16777216
102
RTVSPost2010PropOp51
 70
     0
102
RTVSPost2010Prop52
140
1.0
102
RTVSPost2010PropOp52
 70
     0
102
RTVSPost2010Prop53
 90
        2
102
RTVSPost2010PropOp53
 70
     1
102
RTVSPost2010Prop54
  1
strokes_ogs.tif
102
RTVSPost2010PropOp54
 70
     1
102
RTVSPost2010Prop55
280
     0
102
RTVSPost2010PropOp55
 70
     1
102
RTVSPost2010Prop56
140
1.0
102
RTVSPost2010PropOp56
 70
     1
102
RTVSPost2010Prop57
140
1.0
102
RTVSPost2010PropOp57
 70
     1
102
RTVSPropertyOp0
 70
     1
102
RTVSPropertyOp1
 70
     1
102
RTVSPropertyOp2
 70
     1
102
RTVSPropertyOp3
 70
     1
102
RTVSPropertyOp4
 70
     1
102
RTVSPropertyOp5
 70
     1
102
RTVSPropertyOp6
 70
     1
102
RTVSPropertyOp7
 70
     1
102
RTVSPropertyOp8
 70
     1
102
RTVSPropertyOp9
 70
     1
102
RTVSPropertyOp10
 70
     1
102
RTVSPropertyOp11
 70
     1
102
RTVSPropertyOp12
 70
     1
102
RTVSPropertyOp13
 70
     1
102
RTVSPropertyOp14
 70
     1
102
RTVSPropertyOp15
 70
     1
102
RTVSPropertyOp16
 70
     1
102
RTVSPropertyOp17
 70
     1
102
RTVSPropertyOp18
 70
     1
102
RTVSPropertyOp19
 70
     1
102
RTVSPropertyOp20
 70
     1
102
RTVSPropertyOp21
 70
     1
102
RTVSPropertyOp22
 70
     1
102
RTVSPropertyOp23
 70
     1
102
RTVSPropertyOp24
 70
     1
102
RTVSPropertyOp25
 70
     1
102
RTVSPropertyOp26
 70
     1
102
RTVSPropertyOp27
 70
     1
  0
XRECORD
  5
8B09
102
{ACAD_REACTORS
330
8B08
102
}
330
8B08
100
AcDbXrecord
280
     1
102
RTVSPost2010Prop28
280
     0
102
RTVSPost2010PropOp28
 70
     1
102
RTVSPost2010Prop29
280
     1
102
RTVSPost2010PropOp29
 70
     1
102
RTVSPost2010Prop30
280
     1
102
RTVSPost2010PropOp30
 70
     1
102
RTVSPost2010Prop31
280
     0
102
RTVSPost2010PropOp31
 70
     1
102
RTVSPost2010Prop32
280
     0
102
RTVSPost2010PropOp32
 70
     1
102
RTVSPost2010Prop33
280
     0
102
RTVSPost2010PropOp33
 70
     1
102
RTVSPost2010Prop34
280
     0
102
RTVSPost2010PropOp34
 70
     1
102
RTVSPost2010Prop35
280
     0
102
RTVSPost2010PropOp35
 70
     1
102
RTVSPost2010Prop36
280
     0
102
RTVSPost2010PropOp36
 70
     1
102
RTVSPost2010Prop37
 90
       50
102
RTVSPost2010PropOp37
 70
     1
102
RTVSPost2010Prop38
140
0.0
102
RTVSPost2010PropOp38
 70
     1
102
RTVSPost2010Prop39
140
1.0
102
RTVSPost2010PropOp39
 70
     1
102
RTVSPost2010Prop40
 90
        0
102
RTVSPost2010PropOp40
 70
     1
102
RTVSPost2010Prop41ColorIndex
 90
       18
102
RTVSPost2010Prop41ColorRGB
 90
        0
102
RTVSPost2010PropOp41
 70
     1
102
RTVSPost2010Prop42
 90
       50
102
RTVSPost2010PropOp42
 70
     1
102
RTVSPost2010Prop43
 90
        3
102
RTVSPost2010PropOp43
 70
     1
102
RTVSPost2010Prop44ColorIndex
 90
        5
102
RTVSPost2010Prop44ColorRGB
 90
      255
102
RTVSPost2010PropOp44
 70
     1
102
RTVSPost2010Prop45
280
     0
102
RTVSPost2010PropOp45
 70
     1
102
RTVSPost2010Prop46
 90
       50
102
RTVSPost2010PropOp46
 70
     1
102
RTVSPost2010Prop47
 90
       50
102
RTVSPost2010PropOp47
 70
     1
102
RTVSPost2010Prop48
 90
       50
102
RTVSPost2010PropOp48
 70
     1
102
RTVSPost2010Prop49
280
     0
102
RTVSPost2010PropOp49
 70
     1
102
RTVSPost2010Prop50
 90
       50
102
RTVSPost2010PropOp50
 70
     1
102
RTVSPost2010Prop51ColorIndex
 90
      256
102
RTVSPost2010Prop51ColorRGB
 90
-16777216
102
RTVSPost2010PropOp51
 70
     0
102
RTVSPost2010Prop52
140
1.0
102
RTVSPost2010PropOp52
 70
     0
102
RTVSPost2010Prop53
 90
        2
102
RTVSPost2010PropOp53
 70
     1
102
RTVSPost2010Prop54
  1
strokes_ogs.tif
102
RTVSPost2010PropOp54
 70
     1
102
RTVSPost2010Prop55
280
     0
102
RTVSPost2010PropOp55
 70
     1
102
RTVSPost2010Prop56
140
1.0
102
RTVSPost2010PropOp56
 70
     1
102
RTVSPost2010Prop57
140
1.0
102
RTVSPost2010PropOp57
 70
     1
102
RTVSPropertyOp0
 70
     1
102
RTVSPropertyOp1
 70
     1
102
RTVSPropertyOp2
 70
     1
102
RTVSPropertyOp3
 70
     1
102
RTVSPropertyOp4
 70
     1
102
RTVSPropertyOp5
 70
     1
102
RTVSPropertyOp6
 70
     1
102
RTVSPropertyOp7
 70
     1
102
RTVSPropertyOp8
 70
     1
102
RTVSPropertyOp9
 70
     1
102
RTVSPropertyOp10
 70
     1
102
RTVSPropertyOp11
 70
     1
102
RTVSPropertyOp12
 70
     1
102
RTVSPropertyOp13
 70
     1
102
RTVSPropertyOp14
 70
     1
102
RTVSPropertyOp15
 70
     1
102
RTVSPropertyOp16
 70
     1
102
RTVSPropertyOp17
 70
     1
102
RTVSPropertyOp18
 70
     1
102
RTVSPropertyOp19
 70
     1
102
RTVSPropertyOp20
 70
     1
102
RTVSPropertyOp21
 70
     1
102
RTVSPropertyOp22
 70
     1
102
RTVSPropertyOp23
 70
     1
102
RTVSPropertyOp24
 70
     1
102
RTVSPropertyOp25
 70
     1
102
RTVSPropertyOp26
 70
     1
102
RTVSPropertyOp27
 70
     1
  0
XRECORD
  5
8AFD
102
{ACAD_REACTORS
330
8AFC
102
}
330
8AFC
100
AcDbXrecord
280
     1
102
RTVSPost2010Prop28
280
     0
102
RTVSPost2010PropOp28
 70
     1
102
RTVSPost2010Prop29
280
     1
102
RTVSPost2010PropOp29
 70
     1
102
RTVSPost2010Prop30
280
     1
102
RTVSPost2010PropOp30
 70
     1
102
RTVSPost2010Prop31
280
     0
102
RTVSPost2010PropOp31
 70
     1
102
RTVSPost2010Prop32
280
     0
102
RTVSPost2010PropOp32
 70
     1
102
RTVSPost2010Prop33
280
     0
102
RTVSPost2010PropOp33
 70
     1
102
RTVSPost2010Prop34
280
     0
102
RTVSPost2010PropOp34
 70
     1
102
RTVSPost2010Prop35
280
     0
102
RTVSPost2010PropOp35
 70
     1
102
RTVSPost2010Prop36
280
     0
102
RTVSPost2010PropOp36
 70
     1
102
RTVSPost2010Prop37
 90
       50
102
RTVSPost2010PropOp37
 70
     1
102
RTVSPost2010Prop38
140
0.0
102
RTVSPost2010PropOp38
 70
     1
102
RTVSPost2010Prop39
140
1.0
102
RTVSPost2010PropOp39
 70
     1
102
RTVSPost2010Prop40
 90
        0
102
RTVSPost2010PropOp40
 70
     1
102
RTVSPost2010Prop41ColorIndex
 90
       18
102
RTVSPost2010Prop41ColorRGB
 90
        0
102
RTVSPost2010PropOp41
 70
     1
102
RTVSPost2010Prop42
 90
       50
102
RTVSPost2010PropOp42
 70
     1
102
RTVSPost2010Prop43
 90
        3
102
RTVSPost2010PropOp43
 70
     1
102
RTVSPost2010Prop44ColorIndex
 90
        5
102
RTVSPost2010Prop44ColorRGB
 90
      255
102
RTVSPost2010PropOp44
 70
     1
102
RTVSPost2010Prop45
280
     0
102
RTVSPost2010PropOp45
 70
     1
102
RTVSPost2010Prop46
 90
       50
102
RTVSPost2010PropOp46
 70
     1
102
RTVSPost2010Prop47
 90
       50
102
RTVSPost2010PropOp47
 70
     1
102
RTVSPost2010Prop48
 90
       50
102
RTVSPost2010PropOp48
 70
     1
102
RTVSPost2010Prop49
280
     0
102
RTVSPost2010PropOp49
 70
     1
102
RTVSPost2010Prop50
 90
       50
102
RTVSPost2010PropOp50
 70
     1
102
RTVSPost2010Prop51ColorIndex
 90
      256
102
RTVSPost2010Prop51ColorRGB
 90
-16777216
102
RTVSPost2010PropOp51
 70
     0
102
RTVSPost2010Prop52
140
1.0
102
RTVSPost2010PropOp52
 70
     0
102
RTVSPost2010Prop53
 90
        2
102
RTVSPost2010PropOp53
 70
     1
102
RTVSPost2010Prop54
  1
strokes_ogs.tif
102
RTVSPost2010PropOp54
 70
     1
102
RTVSPost2010Prop55
280
     0
102
RTVSPost2010PropOp55
 70
     1
102
RTVSPost2010Prop56
140
1.0
102
RTVSPost2010PropOp56
 70
     1
102
RTVSPost2010Prop57
140
1.0
102
RTVSPost2010PropOp57
 70
     1
102
RTVSPropertyOp0
 70
     1
102
RTVSPropertyOp1
 70
     1
102
RTVSPropertyOp2
 70
     1
102
RTVSPropertyOp3
 70
     1
102
RTVSPropertyOp4
 70
     1
102
RTVSPropertyOp5
 70
     1
102
RTVSPropertyOp6
 70
     1
102
RTVSPropertyOp7
 70
     1
102
RTVSPropertyOp8
 70
     1
102
RTVSPropertyOp9
 70
     1
102
RTVSPropertyOp10
 70
     1
102
RTVSPropertyOp11
 70
     1
102
RTVSPropertyOp12
 70
     1
102
RTVSPropertyOp13
 70
     1
102
RTVSPropertyOp14
 70
     1
102
RTVSPropertyOp15
 70
     1
102
RTVSPropertyOp16
 70
     1
102
RTVSPropertyOp17
 70
     1
102
RTVSPropertyOp18
 70
     1
102
RTVSPropertyOp19
 70
     1
102
RTVSPropertyOp20
 70
     1
102
RTVSPropertyOp21
 70
     1
102
RTVSPropertyOp22
 70
     1
102
RTVSPropertyOp23
 70
     1
102
RTVSPropertyOp24
 70
     1
102
RTVSPropertyOp25
 70
     1
102
RTVSPropertyOp26
 70
     1
102
RTVSPropertyOp27
 70
     1
  0
XRECORD
  5
8B15
102
{ACAD_REACTORS
330
8B14
102
}
330
8B14
100
AcDbXrecord
280
     1
102
RTVSPost2010Prop28
280
     0
102
RTVSPost2010PropOp28
 70
     1
102
RTVSPost2010Prop29
280
     1
102
RTVSPost2010PropOp29
 70
     1
102
RTVSPost2010Prop30
280
     1
102
RTVSPost2010PropOp30
 70
     1
102
RTVSPost2010Prop31
280
     0
102
RTVSPost2010PropOp31
 70
     1
102
RTVSPost2010Prop32
280
     0
102
RTVSPost2010PropOp32
 70
     1
102
RTVSPost2010Prop33
280
     0
102
RTVSPost2010PropOp33
 70
     1
102
RTVSPost2010Prop34
280
     0
102
RTVSPost2010PropOp34
 70
     1
102
RTVSPost2010Prop35
280
     0
102
RTVSPost2010PropOp35
 70
     1
102
RTVSPost2010Prop36
280
     0
102
RTVSPost2010PropOp36
 70
     1
102
RTVSPost2010Prop37
 90
       50
102
RTVSPost2010PropOp37
 70
     1
102
RTVSPost2010Prop38
140
0.0
102
RTVSPost2010PropOp38
 70
     1
102
RTVSPost2010Prop39
140
1.0
102
RTVSPost2010PropOp39
 70
     1
102
RTVSPost2010Prop40
 90
        0
102
RTVSPost2010PropOp40
 70
     1
102
RTVSPost2010Prop41ColorIndex
 90
       18
102
RTVSPost2010Prop41ColorRGB
 90
        0
102
RTVSPost2010PropOp41
 70
     1
102
RTVSPost2010Prop42
 90
       50
102
RTVSPost2010PropOp42
 70
     1
102
RTVSPost2010Prop43
 90
        3
102
RTVSPost2010PropOp43
 70
     1
102
RTVSPost2010Prop44ColorIndex
 90
        5
102
RTVSPost2010Prop44ColorRGB
 90
      255
102
RTVSPost2010PropOp44
 70
     1
102
RTVSPost2010Prop45
280
     0
102
RTVSPost2010PropOp45
 70
     1
102
RTVSPost2010Prop46
 90
       50
102
RTVSPost2010PropOp46
 70
     1
102
RTVSPost2010Prop47
 90
       50
102
RTVSPost2010PropOp47
 70
     1
102
RTVSPost2010Prop48
 90
       50
102
RTVSPost2010PropOp48
 70
     1
102
RTVSPost2010Prop49
280
     0
102
RTVSPost2010PropOp49
 70
     1
102
RTVSPost2010Prop50
 90
       50
102
RTVSPost2010PropOp50
 70
     1
102
RTVSPost2010Prop51ColorIndex
 90
      256
102
RTVSPost2010Prop51ColorRGB
 90
-16777216
102
RTVSPost2010PropOp51
 70
     0
102
RTVSPost2010Prop52
140
1.0
102
RTVSPost2010PropOp52
 70
     0
102
RTVSPost2010Prop53
 90
        2
102
RTVSPost2010PropOp53
 70
     1
102
RTVSPost2010Prop54
  1
strokes_ogs.tif
102
RTVSPost2010PropOp54
 70
     1
102
RTVSPost2010Prop55
280
     0
102
RTVSPost2010PropOp55
 70
     1
102
RTVSPost2010Prop56
140
1.0
102
RTVSPost2010PropOp56
 70
     1
102
RTVSPost2010Prop57
140
1.0
102
RTVSPost2010PropOp57
 70
     1
102
RTVSPropertyOp0
 70
     1
102
RTVSPropertyOp1
 70
     1
102
RTVSPropertyOp2
 70
     1
102
RTVSPropertyOp3
 70
     1
102
RTVSPropertyOp4
 70
     1
102
RTVSPropertyOp5
 70
     1
102
RTVSPropertyOp6
 70
     1
102
RTVSPropertyOp7
 70
     1
102
RTVSPropertyOp8
 70
     1
102
RTVSPropertyOp9
 70
     1
102
RTVSPropertyOp10
 70
     1
102
RTVSPropertyOp11
 70
     1
102
RTVSPropertyOp12
 70
     1
102
RTVSPropertyOp13
 70
     1
102
RTVSPropertyOp14
 70
     1
102
RTVSPropertyOp15
 70
     1
102
RTVSPropertyOp16
 70
     1
102
RTVSPropertyOp17
 70
     1
102
RTVSPropertyOp18
 70
     1
102
RTVSPropertyOp19
 70
     1
102
RTVSPropertyOp20
 70
     1
102
RTVSPropertyOp21
 70
     1
102
RTVSPropertyOp22
 70
     1
102
RTVSPropertyOp23
 70
     1
102
RTVSPropertyOp24
 70
     1
102
RTVSPropertyOp25
 70
     1
102
RTVSPropertyOp26
 70
     1
102
RTVSPropertyOp27
 70
     1
  0
ENDSEC
  0
EOF
