  0
SECTION
  2
HEADER
  9
$ACADVER
  1
AC1015
  9
$ACADMAINTVER
 70
    20
  9
$DWGCODEPAGE
  3
ANSI_932
  9
$INSBASE
 10
0.0
 20
0.0
 30
0.0
  9
$EXTMIN
 10
221.9479224318647
 20
-550.5528338767301
 30
-0.0000000349181948
  9
$EXTMAX
 10
847.5032609355258
 20
429.3638083155546
 30
0.0000000814935747
  9
$LIMMIN
 10
-296.316999476111
 20
-370.7034300441653
  9
$LIMMAX
 10
623.3128432133979
 20
328.6261559379898
  9
$ORTHOMODE
 70
     1
  9
$REGENMODE
 70
     1
  9
$FILLMODE
 70
     1
  9
$QTEXTMODE
 70
     0
  9
$MIRRTEXT
 70
     1
  9
$LTSCALE
 40
10.0
  9
$ATTMODE
 70
     1
  9
$TEXTSIZE
 40
2.0
  9
$TRACEWID
 40
0.05
  9
$TEXTSTYLE
  7
STANDARD
  9
$CLAYER
  8
0
  9
$CELTYPE
  6
CONTINUOUS
  9
$CECOLOR
 62
   256
  9
$CELTSCALE
 40
1.0
  9
$DISPSILH
 70
     0
  9
$DIMSCALE
 40
1.0
  9
$DIMASZ
 40
2.0
  9
$DIMEXO
 40
1.0
  9
$DIMDLI
 40
0.5
  9
$DIMRND
 40
0.0
  9
$DIMDLE
 40
0.0
  9
$DIMEXE
 40
0.5
  9
$DIMTP
 40
0.0
  9
$DIMTM
 40
0.0
  9
$DIMTXT
 40
4.0
  9
$DIMCEN
 40
0.09
  9
$DIMTSZ
 40
0.0
  9
$DIMTOL
 70
     0
  9
$DIMLIM
 70
     0
  9
$DIMTIH
 70
     0
  9
$DIMTOH
 70
     1
  9
$DIMSE1
 70
     0
  9
$DIMSE2
 70
     0
  9
$DIMTAD
 70
     3
  9
$DIMZIN
 70
    12
  9
$DIMBLK
  1
OPEN
  9
$DIMASO
 70
     1
  9
$DIMSHO
 70
     1
  9
$DIMPOST
  1

  9
$DIMAPOST
  1

  9
$DIMALT
 70
     0
  9
$DIMALTD
 70
     2
  9
$DIMALTF
 40
25.4
  9
$DIMLFAC
 40
1.0
  9
$DIMTOFL
 70
     0
  9
$DIMTVP
 40
0.0
  9
$DIMTIX
 70
     0
  9
$DIMSOXD
 70
     0
  9
$DIMSAH
 70
     0
  9
$DIMBLK1
  1

  9
$DIMBLK2
  1

  9
$DIMSTYLE
  2
STANDARD
  9
$DIMCLRD
 70
     0
  9
$DIMCLRE
 70
     0
  9
$DIMCLRT
 70
     0
  9
$DIMTFAC
 40
1.0
  9
$DIMGAP
 40
1.0
  9
$DIMJUST
 70
     0
  9
$DIMSD1
 70
     0
  9
$DIMSD2
 70
     0
  9
$DIMTOLJ
 70
     1
  9
$DIMTZIN
 70
     0
  9
$DIMALTZ
 70
     0
  9
$DIMALTTZ
 70
     0
  9
$DIMUPT
 70
     0
  9
$DIMDEC
 70
     8
  9
$DIMTDEC
 70
     8
  9
$DIMALTU
 70
     2
  9
$DIMALTTD
 70
     2
  9
$DIMTXSTY
  7
STANDARD
  9
$DIMAUNIT
 70
     0
  9
$DIMADEC
 70
     0
  9
$DIMALTRND
 40
0.0
  9
$DIMAZIN
 70
     0
  9
$DIMDSEP
 70
    46
  9
$DIMATFIT
 70
     3
  9
$DIMFRAC
 70
     0
  9
$DIMLDRBLK
  1
OPEN
  9
$DIMLUNIT
 70
     2
  9
$DIMLWD
 70
    -2
  9
$DIMLWE
 70
    -2
  9
$DIMTMOVE
 70
     0
  9
$LUNITS
 70
     2
  9
$LUPREC
 70
     8
  9
$SKETCHINC
 40
0.1
  9
$FILLETRAD
 40
0.0
  9
$AUNITS
 70
     0
  9
$AUPREC
 70
     0
  9
$MENU
  1
.
  9
$ELEVATION
 40
0.0
  9
$PELEVATION
 40
0.0
  9
$THICKNESS
 40
0.0
  9
$LIMCHECK
 70
     0
  9
$CHAMFERA
 40
0.0
  9
$CHAMFERB
 40
0.0
  9
$CHAMFERC
 40
0.0
  9
$CHAMFERD
 40
0.0
  9
$SKPOLY
 70
     0
  9
$TDCREATE
 40
2452286.555658658
  9
$TDUCREATE
 40
2452286.180658658
  9
$TDUPDATE
 40
2457256.469969792
  9
$TDUUPDATE
 40
2457256.094969792
  9
$TDINDWG
 40
1.4271512616
  9
$TDUSRTIMER
 40
1.4271483333
  9
$USRTIMER
 70
     1
  9
$ANGBASE
 50
0.0
  9
$ANGDIR
 70
     0
  9
$PDMODE
 70
     0
  9
$PDSIZE
 40
0.0
  9
$PLINEWID
 40
0.0
  9
$SPLFRAME
 70
     0
  9
$SPLINETYPE
 70
     6
  9
$SPLINESEGS
 70
     8
  9
$HANDSEED
  5
D0D8
  9
$SURFTAB1
 70
     6
  9
$SURFTAB2
 70
     6
  9
$SURFTYPE
 70
     6
  9
$SURFU
 70
     6
  9
$SURFV
 70
     6
  9
$UCSBASE
  2

  9
$UCSNAME
  2

  9
$UCSORG
 10
0.0
 20
0.0
 30
0.0
  9
$UCSXDIR
 10
1.0
 20
0.0
 30
0.0
  9
$UCSYDIR
 10
0.0
 20
1.0
 30
0.0
  9
$UCSORTHOREF
  2

  9
$UCSORTHOVIEW
 70
     0
  9
$UCSORGTOP
 10
0.0
 20
0.0
 30
0.0
  9
$UCSORGBOTTOM
 10
0.0
 20
0.0
 30
0.0
  9
$UCSORGLEFT
 10
0.0
 20
0.0
 30
0.0
  9
$UCSORGRIGHT
 10
0.0
 20
0.0
 30
0.0
  9
$UCSORGFRONT
 10
0.0
 20
0.0
 30
0.0
  9
$UCSORGBACK
 10
0.0
 20
0.0
 30
0.0
  9
$PUCSBASE
  2

  9
$PUCSNAME
  2

  9
$PUCSORG
 10
0.0
 20
0.0
 30
0.0
  9
$PUCSXDIR
 10
1.0
 20
0.0
 30
0.0
  9
$PUCSYDIR
 10
0.0
 20
1.0
 30
0.0
  9
$PUCSORTHOREF
  2

  9
$PUCSORTHOVIEW
 70
     0
  9
$PUCSORGTOP
 10
0.0
 20
0.0
 30
0.0
  9
$PUCSORGBOTTOM
 10
0.0
 20
0.0
 30
0.0
  9
$PUCSORGLEFT
 10
0.0
 20
0.0
 30
0.0
  9
$PUCSORGRIGHT
 10
0.0
 20
0.0
 30
0.0
  9
$PUCSORGFRONT
 10
0.0
 20
0.0
 30
0.0
  9
$PUCSORGBACK
 10
0.0
 20
0.0
 30
0.0
  9
$USERI1
 70
     0
  9
$USERI2
 70
     0
  9
$USERI3
 70
     0
  9
$USERI4
 70
     0
  9
$USERI5
 70
     0
  9
$USERR1
 40
0.0
  9
$USERR2
 40
0.0
  9
$USERR3
 40
0.0
  9
$USERR4
 40
0.0
  9
$USERR5
 40
0.0
  9
$WORLDVIEW
 70
     1
  9
$SHADEDGE
 70
     3
  9
$SHADEDIF
 70
    70
  9
$TILEMODE
 70
     1
  9
$MAXACTVP
 70
    48
  9
$PINSBASE
 10
0.0
 20
0.0
 30
0.0
  9
$PLIMCHECK
 70
     0
  9
$PEXTMIN
 10
4.273573
 20
5.205245999999998
 30
0.0
  9
$PEXTMAX
 10
194.610095
 20
283.0697009999996
 30
0.0
  9
$PLIMMIN
 10
-5.873749
 20
-5.87375
  9
$PLIMMAX
 10
204.099579
 20
291.1369009999999
  9
$UNITMODE
 70
     0
  9
$VISRETAIN
 70
     1
  9
$PLINEGEN
 70
     0
  9
$PSLTSCALE
 70
     1
  9
$TREEDEPTH
 70
  3020
  9
$CMLSTYLE
  2
STANDARD
  9
$CMLJUST
 70
     0
  9
$CMLSCALE
 40
1.0
  9
$PROXYGRAPHICS
 70
     1
  9
$MEASUREMENT
 70
     0
  9
$CELWEIGHT
370
    -1
  9
$ENDCAPS
280
     0
  9
$JOINSTYLE
280
     0
  9
$LWDISPLAY
290
     0
  9
$INSUNITS
 70
     0
  9
$HYPERLINKBASE
  1

  9
$STYLESHEET
  1
monochrome.ctb
  9
$XEDIT
290
     1
  9
$CEPSNTYPE
380
     0
  9
$PSTYLEMODE
290
     1
  9
$FINGERPRINTGUID
  2

  9
$VERSIONGUID
  2
{24AA5787-EC6A-4CC3-81DC-B0B1D588A9B4}
  9
$EXTNAMES
290
     1
  9
$PSVPSCALE
 40
0.0
  9
$OLESTARTUP
290
     0
  0
ENDSEC
  0
SECTION
  2
CLASSES
  0
CLASS
  1
ACDBDICTIONARYWDFLT
  2
AcDbDictionaryWithDefault
  3
ObjectDBX Classes
 90
        0
280
     0
281
     0
  0
CLASS
  1
ACDBPLACEHOLDER
  2
AcDbPlaceHolder
  3
ObjectDBX Classes
 90
        0
280
     0
281
     0
  0
CLASS
  1
LAYOUT
  2
AcDbLayout
  3
ObjectDBX Classes
 90
        0
280
     0
281
     0
  0
CLASS
  1
DICTIONARYVAR
  2
AcDbDictionaryVar
  3
ObjectDBX Classes
 90
        0
280
     0
281
     0
  0
CLASS
  1
MATERIAL
  2
AcDbMaterial
  3
ObjectDBX Classes
 90
     1153
280
     0
281
     0
  0
CLASS
  1
VISUALSTYLE
  2
AcDbVisualStyle
  3
ObjectDBX Classes
 90
     4095
280
     0
281
     0
  0
CLASS
  1
TABLESTYLE
  2
AcDbTableStyle
  3
ObjectDBX Classes
 90
     4095
280
     0
281
     0
  0
CLASS
  1
SCALE
  2
AcDbScale
  3
ObjectDBX Classes
 90
     1153
280
     0
281
     0
  0
CLASS
  1
MLEADERSTYLE
  2
AcDbMLeaderStyle
  3
ACDB_MLEADERSTYLE_CLASS
 90
     4095
280
     0
281
     0
  0
CLASS
  1
CELLSTYLEMAP
  2
AcDbCellStyleMap
  3
ObjectDBX Classes
 90
     1152
280
     0
281
     0
  0
CLASS
  1
SORTENTSTABLE
  2
AcDbSortentsTable
  3
ObjectDBX Classes
 90
    32768
280
     0
281
     0
  0
CLASS
  1
AEC_REFEDIT_STATUS_TRACKER
  2
AecDbRefEditStatusTracker
  3
AecArchBase60|Product Desc: Autodesk Architectural Desktop 2007 |Company: Autodesk,Inc. |WEB Address: www.autodesk.com
 90
    32897
280
     0
281
     0
  0
CLASS
  1
NPOCOLLECTION
  2
AcDbImpNonPersistentObjectsCollection
  3
ObjectDBX Classes
 90
    33921
280
     0
281
     0
  0
ENDSEC
  0
SECTION
  2
TABLES
  0
TABLE
  2
VPORT
  5
8
330
0
100
AcDbSymbolTable
 70
     1
  0
VPORT
  5
8021
330
8
100
AcDbSymbolTableRecord
100
AcDbViewportTableRecord
  2
*Active
 70
     0
 10
0.0
 20
0.0
 11
1.0
 21
1.0
 12
534.6466730305402
 22
-60.55712793381281
 13
0.0
 23
0.0
 14
1.0
 24
1.0
 15
10.0
 25
10.0
 16
0.0
 26
0.0
 36
1.0
 17
0.0
 27
0.0
 37
0.0
 40
986.8937454529431
 41
1.752293577981651
 42
50.0
 43
0.0
 44
0.0
 50
0.0
 51
0.0
 71
     0
 72
   100
 73
     1
 74
     1
 75
     1
 76
     1
 77
     0
 78
     0
281
     0
 65
     1
110
0.0
120
0.0
130
0.0
111
1.0
121
0.0
131
0.0
112
0.0
122
1.0
132
0.0
 79
     0
146
0.0
  0
ENDTAB
  0
TABLE
  2
LTYPE
  5
5
330
0
100
AcDbSymbolTable
 70
     6
  0
LTYPE
  5
13
330
5
100
AcDbSymbolTableRecord
100
AcDbLinetypeTableRecord
  2
BYBLOCK
 70
     0
  3

 72
    65
 73
     0
 40
0.0
  0
LTYPE
  5
14
330
5
100
AcDbSymbolTableRecord
100
AcDbLinetypeTableRecord
  2
BYLAYER
 70
     0
  3

 72
    65
 73
     0
 40
0.0
  0
LTYPE
  5
15
330
5
100
AcDbSymbolTableRecord
100
AcDbLinetypeTableRecord
  2
CONTINUOUS
 70
     0
  3
Solid line
 72
    65
 73
     0
 40
0.0
  0
LTYPE
  5
22
330
5
100
AcDbSymbolTableRecord
100
AcDbLinetypeTableRecord
  2
CONTINOUS
 70
     0
  3
Solid line
 72
    65
 73
     0
 40
0.0
  0
LTYPE
  5
23
330
5
100
AcDbSymbolTableRecord
100
AcDbLinetypeTableRecord
  2
DASHED
 70
     0
  3
__ __ __ __ __ __ __ __ __ __ __ __ __ __ __
 72
    65
 73
     2
 40
0.75
 49
0.5
 74
     0
 49
-0.25
 74
     0
  0
LTYPE
  5
24
330
5
100
AcDbSymbolTableRecord
100
AcDbLinetypeTableRecord
  2
DASHDOT
 70
     0
  3
__ . __ . __ . __ . __ . __ . __ . __ . __ . __
 72
    65
 73
     4
 40
1.0
 49
0.5
 74
     0
 49
-0.25
 74
     0
 49
0.0
 74
     0
 49
-0.25
 74
     0
  0
LTYPE
  5
4C47
330
5
100
AcDbSymbolTableRecord
100
AcDbLinetypeTableRecord
  2
DIVIDE
 70
     0
  3
Divide ____ . . ____ . . ____ . . ____ . . ____
 72
    65
 73
     6
 40
1.25
 49
0.5
 74
     0
 49
-0.25
 74
     0
 49
0.0
 74
     0
 49
-0.25
 74
     0
 49
0.0
 74
     0
 49
-0.25
 74
     0
  0
LTYPE
  5
685F
330
5
100
AcDbSymbolTableRecord
100
AcDbLinetypeTableRecord
  2
PHANTOM
 70
     0
  3
Phantom ______  __  __  ______  __  __  ______
 72
    65
 73
     6
 40
63.5
 49
31.75
 74
     0
 49
-6.349999999999997
 74
     0
 49
6.349999999999997
 74
     0
 49
-6.349999999999997
 74
     0
 49
6.349999999999997
 74
     0
 49
-6.349999999999997
 74
     0
  0
ENDTAB
  0
TABLE
  2
LAYER
  5
2
102
{ACAD_XDICTIONARY
360
9409
102
}
330
0
100
AcDbSymbolTable
 70
    12
  0
LAYER
  5
10
102
{ACAD_XDICTIONARY
360
8081
102
}
330
2
100
AcDbSymbolTableRecord
100
AcDbLayerTableRecord
  2
0
 70
     0
 62
     7
  6
CONTINOUS
370
    -3
390
F
  0
LAYER
  5
2F
102
{ACAD_XDICTIONARY
360
8083
102
}
330
2
100
AcDbSymbolTableRecord
100
AcDbLayerTableRecord
  2
10
 70
     0
 62
     4
  6
CONTINOUS
370
    -3
390
F
  0
LAYER
  5
31
102
{ACAD_XDICTIONARY
360
8085
102
}
330
2
100
AcDbSymbolTableRecord
100
AcDbLayerTableRecord
  2
12
 70
     0
 62
     3
  6
CONTINOUS
370
    -3
390
F
  0
LAYER
  5
35
102
{ACAD_XDICTIONARY
360
8087
102
}
330
2
100
AcDbSymbolTableRecord
100
AcDbLayerTableRecord
  2
16
 70
     0
 62
     6
  6
DASHDOT
370
    -3
390
F
  0
LAYER
  5
3D
102
{ACAD_XDICTIONARY
360
808B
102
}
330
2
100
AcDbSymbolTableRecord
100
AcDbLayerTableRecord
  2
24
 70
     0
 62
     2
  6
CONTINOUS
370
    -3
390
F
  0
LAYER
  5
3A2
102
{ACAD_XDICTIONARY
360
808D
102
}
330
2
100
AcDbSymbolTableRecord
100
AcDbLayerTableRecord
  2
30
 70
     0
 62
     9
  6
CONTINUOUS
370
    -3
390
F
  0
LAYER
  5
3A4
330
2
100
AcDbSymbolTableRecord
100
AcDbLayerTableRecord
  2
DEFPOINTS
 70
     0
 62
     7
  6
CONTINUOUS
290
     0
370
    -3
390
F
  0
LAYER
  5
3BBA
102
{ACAD_XDICTIONARY
360
808F
102
}
330
2
100
AcDbSymbolTableRecord
100
AcDbLayerTableRecord
  2
18
 70
     0
 62
     5
  6
DIVIDE
370
    -3
390
F
  0
LAYER
  5
67A8
102
{ACAD_XDICTIONARY
360
8091
102
}
330
2
100
AcDbSymbolTableRecord
100
AcDbLayerTableRecord
  2
11
 70
     0
 62
     1
  6
CONTINOUS
370
    -3
390
F
  0
LAYER
  5
7837
102
{ACAD_XDICTIONARY
360
8093
102
}
330
2
100
AcDbSymbolTableRecord
100
AcDbLayerTableRecord
  2
17
 70
     0
 62
     2
  6
DASHDOT
370
    -3
390
F
  0
LAYER
  5
8427
330
2
100
AcDbSymbolTableRecord
100
AcDbLayerTableRecord
  2
240
 70
     0
 62
     7
  6
CONTINUOUS
370
    -3
390
F
  0
LAYER
  5
8429
330
2
100
AcDbSymbolTableRecord
100
AcDbLayerTableRecord
  2
21
 70
     0
 62
     7
  6
CONTINUOUS
370
    -3
390
F
  0
ENDTAB
  0
TABLE
  2
STYLE
  5
3
330
0
100
AcDbSymbolTable
 70
     6
  0
STYLE
  5
11
330
3
100
AcDbSymbolTableRecord
100
AcDbTextStyleTableRecord
  2
STANDARD
 70
     0
 40
0.0
 41
1.0
 50
0.0
 71
     0
 42
2.0
  3
txt.shx
  4
bigfont.shx
  0
STYLE
  5
42
330
3
100
AcDbSymbolTableRecord
100
AcDbTextStyleTableRecord
  2
STANDARD1
 70
     0
 40
0.0
 41
1.0
 50
0.0
 71
     0
 42
5.0
  3
MONOTXT
  4
BIGFONT
  0
STYLE
  5
842E
330
3
100
AcDbSymbolTableRecord
100
AcDbTextStyleTableRecord
  2
blockfont
 70
     0
 40
0.0
 41
1.0
 50
0.0
 71
     0
 42
0.2
  3
simplex.shx
  4
bigfont
  0
ENDTAB
  0
TABLE
  2
VIEW
  5
6
330
0
100
AcDbSymbolTable
 70
     3
  0
VIEW
  5
230C
330
6
100
AcDbSymbolTableRecord
100
AcDbViewTableRecord
  2
OLE1
 70
     0
 40
148.912488
 10
429.497628
 20
2.560627
 41
103.145806
 11
0.0
 21
0.0
 31
1.0
 12
0.0
 22
0.0
 32
0.0
 42
50.0
 43
0.0
 44
0.0
 50
0.0
 71
     0
281
     0
 72
     0
  0
VIEW
  5
230E
330
6
100
AcDbSymbolTableRecord
100
AcDbViewTableRecord
  2
OLE2
 70
     0
 40
170.778692
 10
322.66497
 20
-5.978304
 41
102.467215
 11
0.0
 21
0.0
 31
1.0
 12
0.0
 22
0.0
 32
0.0
 42
50.0
 43
0.0
 44
0.0
 50
0.0
 71
     0
281
     0
 72
     0
  0
VIEW
  5
23AA
330
6
100
AcDbSymbolTableRecord
100
AcDbViewTableRecord
  2
OLE3
 70
     0
 40
591.7897389999998
 10
84.79698199999999
 20
-46.09335999999998
 41
388.792096
 11
0.0
 21
0.0
 31
1.0
 12
0.0
 22
0.0
 32
0.0
 42
50.0
 43
0.0
 44
0.0
 50
0.0
 71
     0
281
     0
 72
     0
  0
ENDTAB
  0
TABLE
  2
UCS
  5
7
330
0
100
AcDbSymbolTable
 70
     0
  0
ENDTAB
  0
TABLE
  2
APPID
  5
9
330
0
100
AcDbSymbolTable
 70
     9
  0
APPID
  5
12
330
9
100
AcDbSymbolTableRecord
100
AcDbRegAppTableRecord
  2
ACAD
 70
     0
  0
APPID
  5
ECD
330
9
100
AcDbSymbolTableRecord
100
AcDbRegAppTableRecord
  2
CONTENTBLOCKICON
 70
     0
  0
APPID
  5
807F
330
9
100
AcDbSymbolTableRecord
100
AcDbRegAppTableRecord
  2
ACAD_EXEMPT_FROM_CAD_STANDARDS
 70
     0
  0
APPID
  5
809B
330
9
100
AcDbSymbolTableRecord
100
AcDbRegAppTableRecord
  2
DCO15
 70
     0
  0
APPID
  5
80DD
330
9
100
AcDbSymbolTableRecord
100
AcDbRegAppTableRecord
  2
ACAD_MLEADERVER
 70
     0
  0
APPID
  5
80E7
330
9
100
AcDbSymbolTableRecord
100
AcDbRegAppTableRecord
  2
ACAD_PSEXT
 70
     0
  0
APPID
  5
9407
330
9
100
AcDbSymbolTableRecord
100
AcDbRegAppTableRecord
  2
ACAD_DSTYLE_DIMJAG
 70
     0
  0
APPID
  5
9408
330
9
100
AcDbSymbolTableRecord
100
AcDbRegAppTableRecord
  2
ACAD_DSTYLE_DIMTALN
 70
     0
  0
APPID
  5
9C8D
330
9
100
AcDbSymbolTableRecord
100
AcDbRegAppTableRecord
  2
ACAD_NAV_VCDISPLAY
 70
     0
  0
ENDTAB
  0
TABLE
  2
DIMSTYLE
  5
A
330
0
100
AcDbSymbolTable
 70
     5
100
AcDbDimStyleTable
 71
     2
340
175
340
9406
  0
DIMSTYLE
105
175
102
{ACAD_REACTORS
330
C9D4
330
C8F4
330
C8F9
330
C903
102
}
330
A
100
AcDbSymbolTableRecord
100
AcDbDimStyleTableRecord
  2
STANDARD
 70
     0
 41
2.0
 42
1.0
 43
0.5
 44
0.5
 73
     0
 77
     3
 78
    12
140
4.0
147
1.0
271
     8
272
     8
340
11
341
3B2
342
3B2
1001
ACAD_DSTYLE_DIMJAG
1070
   388
1040
1.5
1001
ACAD_DSTYLE_DIMTALN
1070
   392
1070
     0
  0
DIMSTYLE
105
9406
102
{ACAD_REACTORS
330
C9D2
330
C9D3
330
C9E6
330
C9E7
330
C9E8
330
C9E9
330
C9EA
330
C9EB
330
C9EE
330
C9EF
330
C8F2
330
C8F3
330
C8F5
330
C8F6
330
C8F7
330
C8F8
330
C8FA
330
C8FB
330
C8FC
330
C8FD
330
C8FF
330
C900
330
C901
330
C90E
330
C925
330
C926
330
C927
330
C928
330
C954
330
CD83
330
CD84
330
CDD1
330
CDD2
330
CFE9
102
}
330
A
100
AcDbSymbolTableRecord
100
AcDbDimStyleTableRecord
  2
STANDARD1
 70
     0
 41
2.0
 42
3.0
 43
0.5
 44
0.5
 73
     0
 74
     0
 77
     3
 78
    12
140
6.0
147
2.0
172
     1
271
     8
272
     8
289
     2
340
11
341
3B2
342
3B2
1001
ACAD_DSTYLE_DIMJAG
1070
   388
1040
1.5
1001
ACAD_DSTYLE_DIMTALN
1070
   392
1070
     0
  0
ENDTAB
  0
TABLE
  2
BLOCK_RECORD
  5
1
330
0
100
AcDbSymbolTable
 70
    44
  0
BLOCK_RECORD
  5
1E
102
{ACAD_XDICTIONARY
360
178
102
}
330
1
100
AcDbSymbolTableRecord
100
AcDbBlockTableRecord
  2
*MODEL_SPACE
340
801C
  0
BLOCK_RECORD
  5
1A
102
{ACAD_XDICTIONARY
360
17A
102
}
330
1
100
AcDbSymbolTableRecord
100
AcDbBlockTableRecord
  2
*PAPER_SPACE
340
801D
  0
BLOCK_RECORD
  5
3B2
330
1
100
AcDbSymbolTableRecord
100
AcDbBlockTableRecord
  2
_OPEN
340
0
102
{BLKREFS
331
CB8A
331
CB8B
331
CB93
331
CB94
331
CBDD
331
CBDE
331
CC51
331
CC52
331
CCF0
331
CCF1
331
CCFA
331
CCFB
331
CD03
331
CD1D
331
CD1E
331
CD26
331
CD27
331
CD2F
331
CD30
331
CD38
331
CD39
331
CD41
331
CD42
331
CD55
331
CD56
331
CD5E
331
CD5F
331
CDA0
331
CDA1
331
CDA9
331
CDAA
331
CE04
331
CE05
331
CE0D
331
CE0E
331
CE16
331
CE17
331
CE48
331
CE49
331
CE51
331
CE52
331
CF56
331
CF57
331
CF5F
331
CF60
331
CF68
331
CF69
331
CF71
331
CF72
331
CF7A
331
CF7B
331
CF84
331
CF85
331
CF8C
331
CF8D
331
CF95
331
CF96
331
CF9E
331
CFA6
331
CFA7
331
CFAF
331
CFB0
331
CFB8
331
CFC8
331
CFC9
331
CFD1
331
CFD2
331
CFDA
331
CFDB
331
CFE3
331
CFE4
331
D00B
331
D00C
102
}
  0
BLOCK_RECORD
  5
C5BC
330
1
100
AcDbSymbolTableRecord
100
AcDbBlockTableRecord
  2
*U1
340
0
102
{BLKREFS
331
C9D6
331
C9D8
331
C9DA
331
C9DC
102
}
  0
BLOCK_RECORD
  5
C5C0
330
1
100
AcDbSymbolTableRecord
100
AcDbBlockTableRecord
  2
*U2
340
0
102
{BLKREFS
331
C9D7
331
C9D9
331
C9DB
331
C9DD
102
}
  0
BLOCK_RECORD
  5
C9FB
330
1
100
AcDbSymbolTableRecord
100
AcDbBlockTableRecord
  2
*D3
340
0
  0
BLOCK_RECORD
  5
CA07
330
1
100
AcDbSymbolTableRecord
100
AcDbBlockTableRecord
  2
*D4
340
0
  0
BLOCK_RECORD
  5
CA13
330
1
100
AcDbSymbolTableRecord
100
AcDbBlockTableRecord
  2
*D5
340
0
  0
BLOCK_RECORD
  5
CA1F
330
1
100
AcDbSymbolTableRecord
100
AcDbBlockTableRecord
  2
*D6
340
0
  0
BLOCK_RECORD
  5
CA2B
330
1
100
AcDbSymbolTableRecord
100
AcDbBlockTableRecord
  2
*D7
340
0
  0
BLOCK_RECORD
  5
CA37
330
1
100
AcDbSymbolTableRecord
100
AcDbBlockTableRecord
  2
*D8
340
0
  0
BLOCK_RECORD
  5
CA43
330
1
100
AcDbSymbolTableRecord
100
AcDbBlockTableRecord
  2
*D9
340
0
  0
BLOCK_RECORD
  5
CA4F
330
1
100
AcDbSymbolTableRecord
100
AcDbBlockTableRecord
  2
*D10
340
0
  0
BLOCK_RECORD
  5
CA5D
330
1
100
AcDbSymbolTableRecord
100
AcDbBlockTableRecord
  2
*D11
340
0
  0
BLOCK_RECORD
  5
CA69
330
1
100
AcDbSymbolTableRecord
100
AcDbBlockTableRecord
  2
*D12
340
0
  0
BLOCK_RECORD
  5
CA75
330
1
100
AcDbSymbolTableRecord
100
AcDbBlockTableRecord
  2
*D13
340
0
  0
BLOCK_RECORD
  5
CA81
330
1
100
AcDbSymbolTableRecord
100
AcDbBlockTableRecord
  2
*D14
340
0
  0
BLOCK_RECORD
  5
CA8D
330
1
100
AcDbSymbolTableRecord
100
AcDbBlockTableRecord
  2
*D15
340
0
  0
BLOCK_RECORD
  5
CA99
330
1
100
AcDbSymbolTableRecord
100
AcDbBlockTableRecord
  2
*D16
340
0
  0
BLOCK_RECORD
  5
CAA4
330
1
100
AcDbSymbolTableRecord
100
AcDbBlockTableRecord
  2
*D17
340
0
  0
BLOCK_RECORD
  5
CAB0
330
1
100
AcDbSymbolTableRecord
100
AcDbBlockTableRecord
  2
*D18
340
0
  0
BLOCK_RECORD
  5
CABC
330
1
100
AcDbSymbolTableRecord
100
AcDbBlockTableRecord
  2
*D19
340
0
  0
BLOCK_RECORD
  5
CAC8
330
1
100
AcDbSymbolTableRecord
100
AcDbBlockTableRecord
  2
*D20
340
0
  0
BLOCK_RECORD
  5
CAD5
330
1
100
AcDbSymbolTableRecord
100
AcDbBlockTableRecord
  2
*D21
340
0
  0
BLOCK_RECORD
  5
CAE0
330
1
100
AcDbSymbolTableRecord
100
AcDbBlockTableRecord
  2
*D22
340
0
  0
BLOCK_RECORD
  5
CAEC
330
1
100
AcDbSymbolTableRecord
100
AcDbBlockTableRecord
  2
*D23
340
0
  0
BLOCK_RECORD
  5
CAF8
330
1
100
AcDbSymbolTableRecord
100
AcDbBlockTableRecord
  2
*D24
340
0
  0
BLOCK_RECORD
  5
CB04
330
1
100
AcDbSymbolTableRecord
100
AcDbBlockTableRecord
  2
*D25
340
0
  0
BLOCK_RECORD
  5
CB10
330
1
100
AcDbSymbolTableRecord
100
AcDbBlockTableRecord
  2
*D26
340
0
  0
BLOCK_RECORD
  5
CB1C
330
1
100
AcDbSymbolTableRecord
100
AcDbBlockTableRecord
  2
*D27
340
0
  0
BLOCK_RECORD
  5
CB28
330
1
100
AcDbSymbolTableRecord
100
AcDbBlockTableRecord
  2
*D28
340
0
  0
BLOCK_RECORD
  5
CB34
330
1
100
AcDbSymbolTableRecord
100
AcDbBlockTableRecord
  2
*D29
340
0
  0
BLOCK_RECORD
  5
CB3F
330
1
100
AcDbSymbolTableRecord
100
AcDbBlockTableRecord
  2
*D30
340
0
  0
BLOCK_RECORD
  5
CB4B
330
1
100
AcDbSymbolTableRecord
100
AcDbBlockTableRecord
  2
*D31
340
0
  0
BLOCK_RECORD
  5
CB57
330
1
100
AcDbSymbolTableRecord
100
AcDbBlockTableRecord
  2
*D32
340
0
  0
BLOCK_RECORD
  5
CB63
330
1
100
AcDbSymbolTableRecord
100
AcDbBlockTableRecord
  2
*D33
340
0
  0
BLOCK_RECORD
  5
CB6F
330
1
100
AcDbSymbolTableRecord
100
AcDbBlockTableRecord
  2
*D34
340
0
  0
BLOCK_RECORD
  5
CB7B
330
1
100
AcDbSymbolTableRecord
100
AcDbBlockTableRecord
  2
*D35
340
0
  0
BLOCK_RECORD
  5
CD85
330
1
100
AcDbSymbolTableRecord
100
AcDbBlockTableRecord
  2
*D36
340
0
  0
BLOCK_RECORD
  5
CD91
330
1
100
AcDbSymbolTableRecord
100
AcDbBlockTableRecord
  2
*D37
340
0
  0
BLOCK_RECORD
  5
CDD3
330
1
100
AcDbSymbolTableRecord
100
AcDbBlockTableRecord
  2
*D38
340
0
  0
BLOCK_RECORD
  5
CDDF
330
1
100
AcDbSymbolTableRecord
100
AcDbBlockTableRecord
  2
*D39
340
0
  0
BLOCK_RECORD
  5
CFEA
330
1
100
AcDbSymbolTableRecord
100
AcDbBlockTableRecord
  2
*D40
340
0
  0
ENDTAB
  0
ENDSEC
  0
SECTION
  2
BLOCKS
  0
BLOCK
  5
1F
330
1E
100
AcDbEntity
  8
0
100
AcDbBlockBegin
  2
*MODEL_SPACE
 70
     0
 10
0.0
 20
0.0
 30
0.0
  3
*MODEL_SPACE
  1

  0
ENDBLK
  5
20
330
1E
100
AcDbEntity
  8
0
100
AcDbBlockEnd
  0
BLOCK
  5
1B
330
1A
100
AcDbEntity
 67
     1
  8
0
100
AcDbBlockBegin
  2
*PAPER_SPACE
 70
     0
 10
0.0
 20
0.0
 30
0.0
  3
*PAPER_SPACE
  1

  0
ENDBLK
  5
1C
330
1A
100
AcDbEntity
 67
     1
  8
0
100
AcDbBlockEnd
  0
BLOCK
  5
3B6
330
3B2
100
AcDbEntity
  8
0
100
AcDbBlockBegin
  2
_OPEN
 70
     0
 10
0.0
 20
0.0
 30
0.0
  3
_OPEN
  1

  0
LINE
  5
3B3
330
3B2
100
AcDbEntity
  8
30
  6
Continuous
 62
     0
100
AcDbLine
 10
-1.0
 20
0.166667
 30
0.0
 11
0.0
 21
0.0
 31
0.0
  0
LINE
  5
3B4
330
3B2
100
AcDbEntity
  8
30
  6
Continuous
 62
     0
100
AcDbLine
 10
-1.0
 20
-0.166667
 30
0.0
 11
0.0
 21
0.0
 31
0.0
  0
LINE
  5
3B5
330
3B2
100
AcDbEntity
  8
30
  6
Continuous
 62
     0
100
AcDbLine
 10
0.0
 20
0.0
 30
0.0
 11
-1.0
 21
0.0
 31
0.0
  0
ENDBLK
  5
3B7
330
3B2
100
AcDbEntity
  8
0
100
AcDbBlockEnd
  0
BLOCK
  5
C5BD
330
C5BC
100
AcDbEntity
  8
0
100
AcDbBlockBegin
  2
*U1
 70
     1
 10
0.0
 20
0.0
 30
0.0
  3
*U1
  1

  0
TEXT
  5
C5BE
330
C5BC
100
AcDbEntity
  8
16
100
AcDbText
 10
351.6754600000002
 20
69.06337833333329
 30
0.0
 40
6.25
  1
C
  7
blockfont
100
AcDbText
  0
ENDBLK
  5
C5BF
330
C5BC
100
AcDbEntity
  8
0
100
AcDbBlockEnd
  0
BLOCK
  5
C5C1
330
C5C0
100
AcDbEntity
  8
0
100
AcDbBlockBegin
  2
*U2
 70
     1
 10
0.0
 20
0.0
 30
0.0
  3
*U2
  1

  0
TEXT
  5
C5C2
330
C5C0
100
AcDbEntity
  8
16
100
AcDbText
 10
353.3824625
 20
66.65349083333332
 30
0.0
 40
6.25
  1
L
  7
blockfont
100
AcDbText
  0
ENDBLK
  5
C5C3
330
C5C0
100
AcDbEntity
  8
0
100
AcDbBlockEnd
  0
BLOCK
  5
C9FC
330
C9FB
100
AcDbEntity
  8
0
100
AcDbBlockBegin
  2
*D3
 70
     1
 10
0.0
 20
0.0
 30
0.0
  3
*D3
  1

  0
LINE
  5
CB87
330
C9FB
100
AcDbEntity
  8
30
  6
Continuous
 62
     0
370
    -2
100
AcDbLine
 10
350.0000000000008
 20
-123.0
 30
0.0
 11
350.0000000000008
 21
-220.5
 31
0.0
  0
LINE
  5
CB88
330
C9FB
100
AcDbEntity
  8
30
  6
Continuous
 62
     0
370
    -2
100
AcDbLine
 10
490.0
 20
-123.0
 30
0.0
 11
490.0
 21
-220.5
 31
0.0
  0
LINE
  5
CB89
330
C9FB
100
AcDbEntity
  8
30
  6
Continuous
 62
     0
370
    -2
100
AcDbLine
 10
352.0000000000008
 20
-220.0
 30
0.0
 11
488.0
 21
-220.0
 31
0.0
  0
INSERT
  5
CB8A
330
C9FB
100
AcDbEntity
  8
30
  6
Continuous
 62
     0
370
    -2
100
AcDbBlockReference
  2
_OPEN
 10
350.0000000000008
 20
-220.0
 30
0.0
 41
2.0
 42
2.0
 43
2.0
 50
180.0
  0
INSERT
  5
CB8B
330
C9FB
100
AcDbEntity
  8
30
  6
Continuous
 62
     0
370
    -2
100
AcDbBlockReference
  2
_OPEN
 10
490.0
 20
-220.0
 30
0.0
 41
2.0
 42
2.0
 43
2.0
  0
MTEXT
  5
CB8C
330
C9FB
100
AcDbEntity
  8
30
  6
Continuous
 62
     0
100
AcDbMText
 10
420.0000000000003
 20
-215.0
 30
0.0
 40
6.0
 41
0.0
 71
     5
 72
     1
  1
\A1;140
 73
     1
 44
1.0
1001
ACAD
1000
MTEXTBEGIN
1070
    73
1070
     1
1070
    44
1040
1.0
1070
    74
1070
     0
1000
MTEXTEND
  0
POINT
  5
CB8D
330
C9FB
100
AcDbEntity
  8
DEFPOINTS
  6
Continuous
 62
     0
100
AcDbPoint
 10
350.0000000000008
 20
-120.0
 30
0.0
  0
POINT
  5
CB8E
330
C9FB
100
AcDbEntity
  8
DEFPOINTS
  6
Continuous
 62
     0
100
AcDbPoint
 10
490.0
 20
-120.0
 30
0.0
  0
POINT
  5
CB8F
330
C9FB
100
AcDbEntity
  8
DEFPOINTS
  6
Continuous
 62
     0
100
AcDbPoint
 10
490.0
 20
-220.0
 30
0.0
  0
ENDBLK
  5
C9FD
330
C9FB
100
AcDbEntity
  8
0
100
AcDbBlockEnd
  0
BLOCK
  5
CA08
330
CA07
100
AcDbEntity
  8
0
100
AcDbBlockBegin
  2
*D4
 70
     1
 10
0.0
 20
0.0
 30
0.0
  3
*D4
  1

  0
LINE
  5
CB90
330
CA07
100
AcDbEntity
  8
30
  6
Continuous
 62
     0
370
    -2
100
AcDbLine
 10
290.0000000000009
 20
-201.0000000000003
 30
0.0
 11
290.0000000000009
 21
-230.5
 31
0.0
  0
LINE
  5
CB91
330
CA07
100
AcDbEntity
  8
30
  6
Continuous
 62
     0
370
    -2
100
AcDbLine
 10
550.0
 20
-201.0000000000003
 30
0.0
 11
550.0
 21
-230.5
 31
0.0
  0
LINE
  5
CB92
330
CA07
100
AcDbEntity
  8
30
  6
Continuous
 62
     0
370
    -2
100
AcDbLine
 10
292.0000000000008
 20
-230.0
 30
0.0
 11
548.0
 21
-230.0
 31
0.0
  0
INSERT
  5
CB93
330
CA07
100
AcDbEntity
  8
30
  6
Continuous
 62
     0
370
    -2
100
AcDbBlockReference
  2
_OPEN
 10
290.0000000000009
 20
-230.0
 30
0.0
 41
2.0
 42
2.0
 43
2.0
 50
180.0
  0
INSERT
  5
CB94
330
CA07
100
AcDbEntity
  8
30
  6
Continuous
 62
     0
370
    -2
100
AcDbBlockReference
  2
_OPEN
 10
550.0
 20
-230.0
 30
0.0
 41
2.0
 42
2.0
 43
2.0
  0
MTEXT
  5
CB95
330
CA07
100
AcDbEntity
  8
30
  6
Continuous
 62
     0
100
AcDbMText
 10
420.0000000000003
 20
-225.0
 30
0.0
 40
6.0
 41
0.0
 71
     5
 72
     1
  1
\A1;260
 73
     1
 44
1.0
1001
ACAD
1000
MTEXTBEGIN
1070
    73
1070
     1
1070
    44
1040
1.0
1070
    74
1070
     0
1000
MTEXTEND
  0
POINT
  5
CB96
330
CA07
100
AcDbEntity
  8
DEFPOINTS
  6
Continuous
 62
     0
100
AcDbPoint
 10
290.0000000000009
 20
-198.0000000000003
 30
0.0
  0
POINT
  5
CB97
330
CA07
100
AcDbEntity
  8
DEFPOINTS
  6
Continuous
 62
     0
100
AcDbPoint
 10
550.0
 20
-198.0000000000003
 30
0.0
  0
POINT
  5
CB98
330
CA07
100
AcDbEntity
  8
DEFPOINTS
  6
Continuous
 62
     0
100
AcDbPoint
 10
550.0
 20
-230.0
 30
0.0
  0
ENDBLK
  5
CA09
330
CA07
100
AcDbEntity
  8
0
100
AcDbBlockEnd
  0
BLOCK
  5
CA14
330
CA13
100
AcDbEntity
  8
0
100
AcDbBlockBegin
  2
*D5
 70
     1
 10
0.0
 20
0.0
 30
0.0
  3
*D5
  1

  0
LINE
  5
CF80
330
CA13
100
AcDbEntity
  8
30
  6
Continuous
 62
     0
370
    -2
100
AcDbLine
 10
550.9999452034626
 20
401.1000000000001
 30
0.0
 11
570.5
 21
401.1000000000001
 31
0.0
  0
LINE
  5
CF81
330
CA13
100
AcDbEntity
  8
30
  6
Continuous
 62
     0
370
    -2
100
AcDbLine
 10
479.9999452034628
 20
366.5665648324822
 30
0.0
 11
570.5
 21
366.5665648324822
 31
0.0
  0
LINE
  5
CF82
330
CA13
100
AcDbEntity
  8
30
  6
Continuous
 62
     0
370
    -2
100
AcDbLine
 10
570.0
 20
399.1000000000001
 30
0.0
 11
570.0
 21
368.5665648324822
 31
0.0
  0
MTEXT
  5
CF83
330
CA13
100
AcDbEntity
  8
30
  6
Continuous
 62
     0
100
AcDbMText
 10
606.4224256543098
 20
382.4104650120816
 30
0.0
 40
6.0
 41
0.0
 71
     5
 72
     1
  1
\A1;ON SIDE 37.6\POFF SIDE 36.6
 73
     1
 44
1.0
1001
ACAD
1000
MTEXTBEGIN
1070
    73
1070
     1
1070
    44
1040
1.0
1070
    74
1070
     0
1000
MTEXTEND
  0
INSERT
  5
CF84
330
CA13
100
AcDbEntity
  8
30
  6
Continuous
 62
     0
370
    -2
100
AcDbBlockReference
  2
_OPEN
 10
570.0
 20
401.1000000000001
 30
0.0
 41
2.0
 42
2.0
 43
2.0
 50
90.0
  0
INSERT
  5
CF85
330
CA13
100
AcDbEntity
  8
30
  6
Continuous
 62
     0
370
    -2
100
AcDbBlockReference
  2
_OPEN
 10
570.0
 20
366.5665648324822
 30
0.0
 41
2.0
 42
2.0
 43
2.0
 50
270.0
  0
POINT
  5
CF86
330
CA13
100
AcDbEntity
  8
DEFPOINTS
  6
Continuous
 62
     0
100
AcDbPoint
 10
549.9999452034626
 20
401.1000000000001
 30
0.0
  0
POINT
  5
CF87
330
CA13
100
AcDbEntity
  8
DEFPOINTS
  6
Continuous
 62
     0
100
AcDbPoint
 10
478.9999452034629
 20
366.5665648324822
 30
0.0
  0
POINT
  5
CF88
330
CA13
100
AcDbEntity
  8
DEFPOINTS
  6
Continuous
 62
     0
100
AcDbPoint
 10
570.0
 20
366.5665648324822
 30
0.0
  0
ENDBLK
  5
CA15
330
CA13
100
AcDbEntity
  8
0
100
AcDbBlockEnd
  0
BLOCK
  5
CA20
330
CA1F
100
AcDbEntity
  8
0
100
AcDbBlockBegin
  2
*D6
 70
     1
 10
0.0
 20
0.0
 30
0.0
  3
*D6
  1

  0
LINE
  5
CD35
330
CA1F
100
AcDbEntity
  8
30
 62
     0
370
    -2
100
AcDbLine
 10
656.0
 20
-35.00000000000011
 30
0.0
 11
599.5
 21
-35.00000000000009
 31
0.0
  0
LINE
  5
CD36
330
CA1F
100
AcDbEntity
  8
30
 62
     0
370
    -2
100
AcDbLine
 10
656.0
 20
55.0
 30
0.0
 11
599.5
 21
55.00000000000002
 31
0.0
  0
LINE
  5
CD37
330
CA1F
100
AcDbEntity
  8
30
 62
     0
370
    -2
100
AcDbLine
 10
600.0
 20
-33.0000000000001
 30
0.0
 11
600.0
 21
53.00000000000002
 31
0.0
  0
INSERT
  5
CD38
330
CA1F
100
AcDbEntity
  8
30
 62
     0
370
    -2
100
AcDbBlockReference
  2
_OPEN
 10
600.0
 20
-35.00000000000009
 30
0.0
 41
2.0
 42
2.0
 43
2.0
 50
270.0
  0
INSERT
  5
CD39
330
CA1F
100
AcDbEntity
  8
30
 62
     0
370
    -2
100
AcDbBlockReference
  2
_OPEN
 10
600.0
 20
55.00000000000002
 30
0.0
 41
2.0
 42
2.0
 43
2.0
 50
90.0
  0
MTEXT
  5
CD3A
330
CA1F
100
AcDbEntity
  8
30
 62
     0
100
AcDbMText
 10
595.0
 20
10.00000000000006
 30
0.0
 40
6.0
 41
0.0
 71
     5
 72
     1
  1
\A1; 90 
 11
0.0000000000000001
 21
1.0
 31
0.0
 73
     1
 44
1.0
1001
ACAD
1000
MTEXTBEGIN
1070
    73
1070
     1
1070
    44
1040
1.0
1070
    74
1070
     0
1000
MTEXTEND
  0
POINT
  5
CD3B
330
CA1F
100
AcDbEntity
  8
DEFPOINTS
 62
     0
100
AcDbPoint
 10
659.0
 20
-35.00000000000011
 30
0.0
  0
POINT
  5
CD3C
330
CA1F
100
AcDbEntity
  8
DEFPOINTS
 62
     0
100
AcDbPoint
 10
659.0
 20
55.0
 30
0.0
  0
POINT
  5
CD3D
330
CA1F
100
AcDbEntity
  8
DEFPOINTS
 62
     0
100
AcDbPoint
 10
600.0
 20
55.00000000000002
 30
0.0
  0
ENDBLK
  5
CA21
330
CA1F
100
AcDbEntity
  8
0
100
AcDbBlockEnd
  0
BLOCK
  5
CA2C
330
CA2B
100
AcDbEntity
  8
0
100
AcDbBlockBegin
  2
*D7
 70
     1
 10
0.0
 20
0.0
 30
0.0
  3
*D7
  1

  0
LINE
  5
CD3E
330
CA2B
100
AcDbEntity
  8
30
 62
     0
370
    -2
100
AcDbLine
 10
664.0
 20
-41.0
 30
0.0
 11
589.5
 21
-40.99999999999996
 31
0.0
  0
LINE
  5
CD3F
330
CA2B
100
AcDbEntity
  8
30
 62
     0
370
    -2
100
AcDbLine
 10
664.0
 20
61.0
 30
0.0
 11
589.5
 21
61.00000000000003
 31
0.0
  0
LINE
  5
CD40
330
CA2B
100
AcDbEntity
  8
30
 62
     0
370
    -2
100
AcDbLine
 10
590.0
 20
-38.99999999999997
 30
0.0
 11
590.0
 21
59.00000000000003
 31
0.0
  0
INSERT
  5
CD41
330
CA2B
100
AcDbEntity
  8
30
 62
     0
370
    -2
100
AcDbBlockReference
  2
_OPEN
 10
590.0
 20
-40.99999999999996
 30
0.0
 41
2.0
 42
2.0
 43
2.0
 50
270.0
  0
INSERT
  5
CD42
330
CA2B
100
AcDbEntity
  8
30
 62
     0
370
    -2
100
AcDbBlockReference
  2
_OPEN
 10
590.0
 20
61.00000000000003
 30
0.0
 41
2.0
 42
2.0
 43
2.0
 50
90.0
  0
MTEXT
  5
CD43
330
CA2B
100
AcDbEntity
  8
30
 62
     0
100
AcDbMText
 10
585.0
 20
10.00000000000012
 30
0.0
 40
6.0
 41
0.0
 71
     5
 72
     1
  1
\A1; 102 
 11
0.0000000000000001
 21
1.0
 31
0.0
 73
     1
 44
1.0
1001
ACAD
1000
MTEXTBEGIN
1070
    73
1070
     1
1070
    44
1040
1.0
1070
    74
1070
     0
1000
MTEXTEND
  0
POINT
  5
CD44
330
CA2B
100
AcDbEntity
  8
DEFPOINTS
 62
     0
100
AcDbPoint
 10
667.0
 20
-41.0
 30
0.0
  0
POINT
  5
CD45
330
CA2B
100
AcDbEntity
  8
DEFPOINTS
 62
     0
100
AcDbPoint
 10
667.0
 20
61.0
 30
0.0
  0
POINT
  5
CD46
330
CA2B
100
AcDbEntity
  8
DEFPOINTS
 62
     0
100
AcDbPoint
 10
590.0
 20
61.00000000000003
 30
0.0
  0
ENDBLK
  5
CA2D
330
CA2B
100
AcDbEntity
  8
0
100
AcDbBlockEnd
  0
BLOCK
  5
CA38
330
CA37
100
AcDbEntity
  8
0
100
AcDbBlockBegin
  2
*D8
 70
     1
 10
0.0
 20
0.0
 30
0.0
  3
*D8
  1

  0
LINE
  5
CFE0
330
CA37
100
AcDbEntity
  8
30
  6
Continuous
 62
     0
370
    -2
100
AcDbLine
 10
287.0000000000008
 20
-197.9999999999999
 30
0.0
 11
239.5
 21
-197.9999999999999
 31
0.0
  0
LINE
  5
CFE1
330
CA37
100
AcDbEntity
  8
30
  6
Continuous
 62
     0
370
    -2
100
AcDbLine
 10
347.0000000000009
 20
-120.0
 30
0.0
 11
239.5
 21
-120.0
 31
0.0
  0
LINE
  5
CFE2
330
CA37
100
AcDbEntity
  8
30
  6
Continuous
 62
     0
370
    -2
100
AcDbLine
 10
240.0
 20
-195.9999999999999
 30
0.0
 11
240.0
 21
-122.0
 31
0.0
  0
INSERT
  5
CFE3
330
CA37
100
AcDbEntity
  8
30
  6
Continuous
 62
     0
370
    -2
100
AcDbBlockReference
  2
_OPEN
 10
240.0
 20
-197.9999999999999
 30
0.0
 41
2.0
 42
2.0
 43
2.0
 50
270.0
  0
INSERT
  5
CFE4
330
CA37
100
AcDbEntity
  8
30
  6
Continuous
 62
     0
370
    -2
100
AcDbBlockReference
  2
_OPEN
 10
240.0
 20
-120.0
 30
0.0
 41
2.0
 42
2.0
 43
2.0
 50
90.0
  0
MTEXT
  5
CFE5
330
CA37
100
AcDbEntity
  8
30
  6
Continuous
 62
     0
100
AcDbMText
 10
235.0
 20
-158.9999999999999
 30
0.0
 40
6.0
 41
0.0
 71
     5
 72
     1
  1
\A1;78
 11
0.0000000000000001
 21
1.0
 31
0.0
 73
     1
 44
1.0
1001
ACAD
1000
MTEXTBEGIN
1070
    73
1070
     1
1070
    44
1040
1.0
1070
    74
1070
     0
1000
MTEXTEND
  0
POINT
  5
CFE6
330
CA37
100
AcDbEntity
  8
DEFPOINTS
  6
Continuous
 62
     0
100
AcDbPoint
 10
290.0000000000009
 20
-197.9999999999999
 30
0.0
  0
POINT
  5
CFE7
330
CA37
100
AcDbEntity
  8
DEFPOINTS
  6
Continuous
 62
     0
100
AcDbPoint
 10
350.0000000000008
 20
-120.0
 30
0.0
  0
POINT
  5
CFE8
330
CA37
100
AcDbEntity
  8
DEFPOINTS
  6
Continuous
 62
     0
100
AcDbPoint
 10
240.0
 20
-120.0
 30
0.0
  0
ENDBLK
  5
CA39
330
CA37
100
AcDbEntity
  8
0
100
AcDbBlockEnd
  0
BLOCK
  5
CA44
330
CA43
100
AcDbEntity
  8
0
100
AcDbBlockBegin
  2
*D9
 70
     1
 10
0.0
 20
0.0
 30
0.0
  3
*D9
  1

  0
LINE
  5
CE13
330
CA43
100
AcDbEntity
  8
30
  6
Continuous
 62
     0
370
    -2
100
AcDbLine
 10
672.9999999999997
 20
-123.0
 30
0.0
 11
672.9999999999997
 21
-170.5
 31
0.0
  0
LINE
  5
CE14
330
CA43
100
AcDbEntity
  8
30
  6
Continuous
 62
     0
370
    -2
100
AcDbLine
 10
771.6
 20
-167.0
 30
0.0
 11
771.6
 21
-169.5
 31
0.0
  0
LINE
  5
CE15
330
CA43
100
AcDbEntity
  8
30
  6
Continuous
 62
     0
370
    -2
100
AcDbLine
 10
674.9999999999998
 20
-170.0
 30
0.0
 11
769.6
 21
-170.0
 31
0.0
  0
INSERT
  5
CE16
330
CA43
100
AcDbEntity
  8
30
  6
Continuous
 62
     0
370
    -2
100
AcDbBlockReference
  2
_OPEN
 10
672.9999999999997
 20
-170.0
 30
0.0
 41
2.0
 42
2.0
 43
2.0
 50
180.0
  0
INSERT
  5
CE17
330
CA43
100
AcDbEntity
  8
30
  6
Continuous
 62
     0
370
    -2
100
AcDbBlockReference
  2
_OPEN
 10
771.6
 20
-170.0
 30
0.0
 41
2.0
 42
2.0
 43
2.0
  0
MTEXT
  5
CE18
330
CA43
100
AcDbEntity
  8
30
  6
Continuous
 62
     0
100
AcDbMText
 10
722.2999999999998
 20
-165.0
 30
0.0
 40
6.0
 41
0.0
 71
     5
 72
     1
  1
\A1;98.6
 73
     1
 44
1.0
1001
ACAD
1000
MTEXTBEGIN
1070
    73
1070
     1
1070
    44
1040
1.0
1070
    74
1070
     0
1000
MTEXTEND
  0
POINT
  5
CE19
330
CA43
100
AcDbEntity
  8
DEFPOINTS
  6
Continuous
 62
     0
100
AcDbPoint
 10
672.9999999999997
 20
-120.0
 30
0.0
  0
POINT
  5
CE1A
330
CA43
100
AcDbEntity
  8
DEFPOINTS
  6
Continuous
 62
     0
100
AcDbPoint
 10
771.6
 20
-170.0
 30
0.0
  0
POINT
  5
CE1B
330
CA43
100
AcDbEntity
  8
DEFPOINTS
  6
Continuous
 62
     0
100
AcDbPoint
 10
771.6
 20
-170.0
 30
0.0
  0
ENDBLK
  5
CA45
330
CA43
100
AcDbEntity
  8
0
100
AcDbBlockEnd
  0
BLOCK
  5
CA50
330
CA4F
100
AcDbEntity
  8
0
100
AcDbBlockBegin
  2
*D10
 70
     1
 10
0.0
 20
0.0
 30
0.0
  3
*D10
  1

  0
LINE
  5
CD50
330
CA4F
100
AcDbEntity
  8
30
 62
     0
370
    -2
100
AcDbLine
 10
770.0000000000003
 20
-147.5000000000004
 30
0.0
 11
770.0000000000003
 21
-149.5
 31
0.0
  0
LINE
  5
CD51
330
CA4F
100
AcDbEntity
  8
30
 62
     0
370
    -2
100
AcDbLine
 10
771.6
 20
-147.0
 30
0.0
 11
771.6
 21
-149.5
 31
0.0
  0
LINE
  5
CD52
330
CA4F
100
AcDbEntity
  8
30
 62
     0
370
    -2
100
AcDbLine
 10
773.6
 20
-150.0
 30
0.0
 11
775.6
 21
-150.0
 31
0.0
  0
LINE
  5
CD53
330
CA4F
100
AcDbEntity
  8
30
 62
     0
370
    -2
100
AcDbLine
 10
768.0000000000003
 20
-150.0
 30
0.0
 11
748.3999999999999
 21
-150.0
 31
0.0
  0
LINE
  5
CD54
330
CA4F
100
AcDbEntity
  8
30
 62
     0
370
    -2
100
AcDbLine
 10
771.6
 20
-150.0
 30
0.0
 11
770.0000000000003
 21
-150.0
 31
0.0
  0
INSERT
  5
CD55
330
CA4F
100
AcDbEntity
  8
30
 62
     0
370
    -2
100
AcDbBlockReference
  2
_OPEN
 10
771.6
 20
-150.0
 30
0.0
 41
2.0
 42
2.0
 43
2.0
 50
180.0
  0
INSERT
  5
CD56
330
CA4F
100
AcDbEntity
  8
30
 62
     0
370
    -2
100
AcDbBlockReference
  2
_OPEN
 10
770.0000000000003
 20
-150.0
 30
0.0
 41
2.0
 42
2.0
 43
2.0
  0
MTEXT
  5
CD57
330
CA4F
100
AcDbEntity
  8
30
 62
     0
100
AcDbMText
 10
757.2000000000001
 20
-145.0
 30
0.0
 40
6.0
 41
0.0
 71
     5
 72
     1
  1
\A1; 1.6 
 73
     1
 44
1.0
1001
ACAD
1000
MTEXTBEGIN
1070
    73
1070
     1
1070
    44
1040
1.0
1070
    74
1070
     0
1000
MTEXTEND
  0
POINT
  5
CD58
330
CA4F
100
AcDbEntity
  8
DEFPOINTS
 62
     0
100
AcDbPoint
 10
770.0000000000003
 20
-150.5000000000004
 30
0.0
  0
POINT
  5
CD59
330
CA4F
100
AcDbEntity
  8
DEFPOINTS
 62
     0
100
AcDbPoint
 10
771.6
 20
-150.0
 30
0.0
  0
POINT
  5
CD5A
330
CA4F
100
AcDbEntity
  8
DEFPOINTS
 62
     0
100
AcDbPoint
 10
771.6
 20
-150.0
 30
0.0
  0
ENDBLK
  5
CA51
330
CA4F
100
AcDbEntity
  8
0
100
AcDbBlockEnd
  0
BLOCK
  5
CA5E
330
CA5D
100
AcDbEntity
  8
0
100
AcDbBlockBegin
  2
*D11
 70
     1
 10
0.0
 20
0.0
 30
0.0
  3
*D11
  1

  0
LINE
  5
CD5B
330
CA5D
100
AcDbEntity
  8
30
  6
Continuous
 62
     0
370
    -2
100
AcDbLine
 10
642.4999999999998
 20
6.999999999999886
 30
0.0
 11
642.4999999999998
 21
-210.5
 31
0.0
  0
LINE
  5
CD5C
330
CA5D
100
AcDbEntity
  8
30
  6
Continuous
 62
     0
370
    -2
100
AcDbLine
 10
771.6
 20
-201.0000000000003
 30
0.0
 11
771.6
 21
-210.5
 31
0.0
  0
LINE
  5
CD5D
330
CA5D
100
AcDbEntity
  8
30
  6
Continuous
 62
     0
370
    -2
100
AcDbLine
 10
644.5
 20
-210.0
 30
0.0
 11
769.6
 21
-210.0
 31
0.0
  0
INSERT
  5
CD5E
330
CA5D
100
AcDbEntity
  8
30
  6
Continuous
 62
     0
370
    -2
100
AcDbBlockReference
  2
_OPEN
 10
642.4999999999998
 20
-210.0
 30
0.0
 41
2.0
 42
2.0
 43
2.0
 50
180.0
  0
INSERT
  5
CD5F
330
CA5D
100
AcDbEntity
  8
30
  6
Continuous
 62
     0
370
    -2
100
AcDbBlockReference
  2
_OPEN
 10
771.6
 20
-210.0
 30
0.0
 41
2.0
 42
2.0
 43
2.0
  0
MTEXT
  5
CD60
330
CA5D
100
AcDbEntity
  8
30
  6
Continuous
 62
     0
100
AcDbMText
 10
707.05
 20
-205.0
 30
0.0
 40
6.0
 41
0.0
 71
     5
 72
     1
  1
\A1;129.1
 73
     1
 44
1.0
1001
ACAD
1000
MTEXTBEGIN
1070
    73
1070
     1
1070
    44
1040
1.0
1070
    74
1070
     0
1000
MTEXTEND
  0
POINT
  5
CD61
330
CA5D
100
AcDbEntity
  8
DEFPOINTS
  6
Continuous
 62
     0
100
AcDbPoint
 10
642.4999999999998
 20
9.999999999999886
 30
0.0
  0
POINT
  5
CD62
330
CA5D
100
AcDbEntity
  8
DEFPOINTS
  6
Continuous
 62
     0
100
AcDbPoint
 10
771.6
 20
-198.0000000000003
 30
0.0
  0
POINT
  5
CD63
330
CA5D
100
AcDbEntity
  8
DEFPOINTS
  6
Continuous
 62
     0
100
AcDbPoint
 10
771.6
 20
-210.0
 30
0.0
  0
ENDBLK
  5
CA5F
330
CA5D
100
AcDbEntity
  8
0
100
AcDbBlockEnd
  0
BLOCK
  5
CA6A
330
CA69
100
AcDbEntity
  8
0
100
AcDbBlockBegin
  2
*D12
 70
     1
 10
0.0
 20
0.0
 30
0.0
  3
*D12
  1

  0
LINE
  5
CBDA
330
CA69
100
AcDbEntity
  8
30
 62
     0
370
    -2
100
AcDbLine
 10
362.0000000000008
 20
53.0
 30
0.0
 11
362.0000000000008
 21
70.5
 31
0.0
  0
LINE
  5
CBDB
330
CA69
100
AcDbEntity
  8
30
 62
     0
370
    -2
100
AcDbLine
 10
478.0
 20
53.0
 30
0.0
 11
478.0
 21
70.5
 31
0.0
  0
LINE
  5
CBDC
330
CA69
100
AcDbEntity
  8
30
 62
     0
370
    -2
100
AcDbLine
 10
364.0000000000009
 20
70.0
 30
0.0
 11
476.0
 21
70.0
 31
0.0
  0
INSERT
  5
CBDD
330
CA69
100
AcDbEntity
  8
30
 62
     0
370
    -2
100
AcDbBlockReference
  2
_OPEN
 10
362.0000000000008
 20
70.0
 30
0.0
 41
2.0
 42
2.0
 43
2.0
 50
180.0
  0
INSERT
  5
CBDE
330
CA69
100
AcDbEntity
  8
30
 62
     0
370
    -2
100
AcDbBlockReference
  2
_OPEN
 10
478.0
 20
70.0
 30
0.0
 41
2.0
 42
2.0
 43
2.0
  0
MTEXT
  5
CBDF
330
CA69
100
AcDbEntity
  8
30
 62
     0
100
AcDbMText
 10
440.0000000000003
 20
75.0
 30
0.0
 40
6.0
 41
0.0
 71
     5
 72
     1
  1
\A1; 116 
 73
     1
 44
1.0
1001
ACAD
1000
MTEXTBEGIN
1070
    73
1070
     1
1070
    44
1040
1.0
1070
    74
1070
     0
1000
MTEXTEND
  0
POINT
  5
CBE0
330
CA69
100
AcDbEntity
  8
DEFPOINTS
 62
     0
100
AcDbPoint
 10
362.0000000000008
 20
50.0
 30
0.0
  0
POINT
  5
CBE1
330
CA69
100
AcDbEntity
  8
DEFPOINTS
 62
     0
100
AcDbPoint
 10
478.0
 20
50.0
 30
0.0
  0
POINT
  5
CBE2
330
CA69
100
AcDbEntity
  8
DEFPOINTS
 62
     0
100
AcDbPoint
 10
478.0
 20
70.0
 30
0.0
  0
ENDBLK
  5
CA6B
330
CA69
100
AcDbEntity
  8
0
100
AcDbBlockEnd
  0
BLOCK
  5
CA76
330
CA75
100
AcDbEntity
  8
0
100
AcDbBlockBegin
  2
*D13
 70
     1
 10
0.0
 20
0.0
 30
0.0
  3
*D13
  1

  0
LINE
  5
CF53
330
CA75
100
AcDbEntity
  8
30
 62
     0
370
    -2
100
AcDbLine
 10
394.5000000000009
 20
-38.0
 30
0.0
 11
394.5000000000009
 21
-60.5
 31
0.0
  0
LINE
  5
CF54
330
CA75
100
AcDbEntity
  8
30
 62
     0
370
    -2
100
AcDbLine
 10
445.5
 20
-38.0
 30
0.0
 11
445.5
 21
-60.5
 31
0.0
  0
LINE
  5
CF55
330
CA75
100
AcDbEntity
  8
30
 62
     0
370
    -2
100
AcDbLine
 10
396.5000000000009
 20
-60.0
 30
0.0
 11
443.5
 21
-60.0
 31
0.0
  0
INSERT
  5
CF56
330
CA75
100
AcDbEntity
  8
30
 62
     0
370
    -2
100
AcDbBlockReference
  2
_OPEN
 10
394.5000000000009
 20
-60.0
 30
0.0
 41
2.0
 42
2.0
 43
2.0
 50
180.0
  0
INSERT
  5
CF57
330
CA75
100
AcDbEntity
  8
30
 62
     0
370
    -2
100
AcDbBlockReference
  2
_OPEN
 10
445.5
 20
-60.0
 30
0.0
 41
2.0
 42
2.0
 43
2.0
  0
MTEXT
  5
CF58
330
CA75
100
AcDbEntity
  8
30
 62
     0
100
AcDbMText
 10
430.0000000000004
 20
-55.0
 30
0.0
 40
6.0
 41
0.0
 71
     5
 72
     1
  1
\A1; 51 
 73
     1
 44
1.0
1001
ACAD
1000
MTEXTBEGIN
1070
    73
1070
     1
1070
    44
1040
1.0
1070
    74
1070
     0
1000
MTEXTEND
  0
POINT
  5
CF59
330
CA75
100
AcDbEntity
  8
DEFPOINTS
 62
     0
100
AcDbPoint
 10
394.5000000000009
 20
-35.0
 30
0.0
  0
POINT
  5
CF5A
330
CA75
100
AcDbEntity
  8
DEFPOINTS
 62
     0
100
AcDbPoint
 10
445.5
 20
-35.0
 30
0.0
  0
POINT
  5
CF5B
330
CA75
100
AcDbEntity
  8
DEFPOINTS
 62
     0
100
AcDbPoint
 10
445.5
 20
-60.0
 30
0.0
  0
ENDBLK
  5
CA77
330
CA75
100
AcDbEntity
  8
0
100
AcDbBlockEnd
  0
BLOCK
  5
CA82
330
CA81
100
AcDbEntity
  8
0
100
AcDbBlockBegin
  2
*D14
 70
     1
 10
0.0
 20
0.0
 30
0.0
  3
*D14
  1

  0
LINE
  5
CF89
330
CA81
100
AcDbEntity
  8
30
  6
Continuous
 62
     0
370
    -2
100
AcDbLine
 10
382.954303862607
 20
-292.9999999999999
 30
0.0
 11
319.5000000000001
 21
-292.9999999999999
 31
0.0
  0
LINE
  5
CF8A
330
CA81
100
AcDbEntity
  8
30
  6
Continuous
 62
     0
370
    -2
100
AcDbLine
 10
382.954303862607
 20
-506.9999999999998
 30
0.0
 11
319.5
 21
-506.9999999999998
 31
0.0
  0
LINE
  5
CF8B
330
CA81
100
AcDbEntity
  8
30
  6
Continuous
 62
     0
370
    -2
100
AcDbLine
 10
320.0000000000001
 20
-294.9999999999999
 30
0.0
 11
320.0
 21
-504.9999999999998
 31
0.0
  0
INSERT
  5
CF8C
330
CA81
100
AcDbEntity
  8
30
  6
Continuous
 62
     0
370
    -2
100
AcDbBlockReference
  2
_OPEN
 10
320.0000000000001
 20
-292.9999999999999
 30
0.0
 41
2.0
 42
2.0
 43
2.0
 50
90.0
  0
INSERT
  5
CF8D
330
CA81
100
AcDbEntity
  8
30
  6
Continuous
 62
     0
370
    -2
100
AcDbBlockReference
  2
_OPEN
 10
320.0
 20
-506.9999999999998
 30
0.0
 41
2.0
 42
2.0
 43
2.0
 50
270.0
  0
MTEXT
  5
CF8E
330
CA81
100
AcDbEntity
  8
30
  6
Continuous
 62
     0
100
AcDbMText
 10
315.0000000000001
 20
-399.9999999999998
 30
0.0
 40
6.0
 41
0.0
 71
     5
 72
     1
  1
\A1;214
 11
0.0000000000000001
 21
1.0
 31
0.0
 73
     1
 44
1.0
1001
ACAD
1000
MTEXTBEGIN
1070
    73
1070
     1
1070
    44
1040
1.0
1070
    74
1070
     0
1000
MTEXTEND
  0
POINT
  5
CF8F
330
CA81
100
AcDbEntity
  8
DEFPOINTS
  6
Continuous
 62
     0
100
AcDbPoint
 10
385.9543038626071
 20
-293.0
 30
0.0
  0
POINT
  5
CF90
330
CA81
100
AcDbEntity
  8
DEFPOINTS
  6
Continuous
 62
     0
100
AcDbPoint
 10
385.9543038626071
 20
-506.9999999999998
 30
0.0
  0
POINT
  5
CF91
330
CA81
100
AcDbEntity
  8
DEFPOINTS
  6
Continuous
 62
     0
100
AcDbPoint
 10
320.0
 20
-506.9999999999998
 30
0.0
  0
ENDBLK
  5
CA83
330
CA81
100
AcDbEntity
  8
0
100
AcDbBlockEnd
  0
BLOCK
  5
CA8E
330
CA8D
100
AcDbEntity
  8
0
100
AcDbBlockBegin
  2
*D15
 70
     1
 10
0.0
 20
0.0
 30
0.0
  3
*D15
  1

  0
LINE
  5
CF92
330
CA8D
100
AcDbEntity
  8
30
  6
Continuous
 62
     0
370
    -2
100
AcDbLine
 10
397.5
 20
-516.9999999999999
 30
0.0
 11
397.5
 21
-550.4999999999999
 31
0.0
  0
LINE
  5
CF93
330
CA8D
100
AcDbEntity
  8
30
  6
Continuous
 62
     0
370
    -2
100
AcDbLine
 10
442.4999999999998
 20
-516.9999999999999
 30
0.0
 11
442.4999999999998
 21
-550.4999999999999
 31
0.0
  0
LINE
  5
CF94
330
CA8D
100
AcDbEntity
  8
30
  6
Continuous
 62
     0
370
    -2
100
AcDbLine
 10
399.5
 20
-550.0
 30
0.0
 11
440.5
 21
-550.0
 31
0.0
  0
INSERT
  5
CF95
330
CA8D
100
AcDbEntity
  8
30
  6
Continuous
 62
     0
370
    -2
100
AcDbBlockReference
  2
_OPEN
 10
397.5
 20
-550.0
 30
0.0
 41
2.0
 42
2.0
 43
2.0
 50
180.0
  0
INSERT
  5
CF96
330
CA8D
100
AcDbEntity
  8
30
  6
Continuous
 62
     0
370
    -2
100
AcDbBlockReference
  2
_OPEN
 10
442.4999999999998
 20
-550.0
 30
0.0
 41
2.0
 42
2.0
 43
2.0
  0
MTEXT
  5
CF97
330
CA8D
100
AcDbEntity
  8
30
  6
Continuous
 62
     0
100
AcDbMText
 10
420.0
 20
-545.0
 30
0.0
 40
6.0
 41
0.0
 71
     5
 72
     1
  1
\A1;45
 73
     1
 44
1.0
1001
ACAD
1000
MTEXTBEGIN
1070
    73
1070
     1
1070
    44
1040
1.0
1070
    74
1070
     0
1000
MTEXTEND
  0
POINT
  5
CF98
330
CA8D
100
AcDbEntity
  8
DEFPOINTS
  6
Continuous
 62
     0
100
AcDbPoint
 10
397.5
 20
-513.9999999999998
 30
0.0
  0
POINT
  5
CF99
330
CA8D
100
AcDbEntity
  8
DEFPOINTS
  6
Continuous
 62
     0
100
AcDbPoint
 10
442.4999999999998
 20
-513.9999999999998
 30
0.0
  0
POINT
  5
CF9A
330
CA8D
100
AcDbEntity
  8
DEFPOINTS
  6
Continuous
 62
     0
100
AcDbPoint
 10
442.4999999999998
 20
-550.0
 30
0.0
  0
ENDBLK
  5
CA8F
330
CA8D
100
AcDbEntity
  8
0
100
AcDbBlockEnd
  0
BLOCK
  5
CA9A
330
CA99
100
AcDbEntity
  8
0
100
AcDbBlockBegin
  2
*D16
 70
     1
 10
0.0
 20
0.0
 30
0.0
  3
*D16
  1

  0
LINE
  5
CF9B
330
CA99
100
AcDbEntity
  8
30
  6
Continuous
 62
     0
370
    -2
100
AcDbLine
 10
804.9930829733996
 20
-346.0312994595851
 30
0.0
 11
793.9930829733987
 21
-346.0312994595851
 31
0.0
  0
LINE
  5
CF9C
330
CA99
100
AcDbEntity
  8
30
  6
Continuous
 62
     0
370
    -2
100
AcDbLine
 10
793.9930829733987
 20
-346.0312994595851
 30
0.0
 11
770.2934498468414
 21
-356.7128143752428
 31
0.0
  0
MTEXT
  5
CF9D
330
CA99
100
AcDbEntity
  8
30
  6
Continuous
 62
     0
100
AcDbMText
 10
799.9930829733998
 20
-342.0312994595852
 30
0.0
 40
6.0
 41
0.0
 71
     5
 72
     1
  1
\A1;R6
 73
     1
 44
1.0
1001
ACAD
1000
MTEXTBEGIN
1070
    73
1070
     1
1070
    44
1040
1.0
1070
    74
1070
     0
1000
MTEXTEND
  0
INSERT
  5
CF9E
330
CA99
100
AcDbEntity
  8
30
  6
Continuous
 62
     0
370
    -2
100
AcDbBlockReference
  2
_OPEN
 10
768.4700873851312
 20
-357.5346107814322
 30
0.0
 41
2.0
 42
2.0
 43
2.0
 50
204.2612710120853
  0
LINE
  5
CF9F
330
CA99
100
AcDbEntity
  8
30
  6
Continuous
 62
     0
370
    -2
100
AcDbLine
 10
762.9099999999997
 20
-360.0000000000004
 30
0.0
 11
763.0899999999996
 21
-360.0000000000004
 31
0.0
  0
LINE
  5
CFA0
330
CA99
100
AcDbEntity
  8
30
  6
Continuous
 62
     0
370
    -2
100
AcDbLine
 10
762.9999999999995
 20
-360.0900000000004
 30
0.0
 11
762.9999999999995
 21
-359.9100000000003
 31
0.0
  0
POINT
  5
CFA1
330
CA99
100
AcDbEntity
  8
DEFPOINTS
  6
Continuous
 62
     0
100
AcDbPoint
 10
768.4700873851312
 20
-357.5346107814322
 30
0.0
  0
POINT
  5
CFA2
330
CA99
100
AcDbEntity
  8
DEFPOINTS
  6
Continuous
 62
     0
100
AcDbPoint
 10
762.9999999999995
 20
-360.0000000000004
 30
0.0
  0
ENDBLK
  5
CA9B
330
CA99
100
AcDbEntity
  8
0
100
AcDbBlockEnd
  0
BLOCK
  5
CAA5
330
CAA4
100
AcDbEntity
  8
0
100
AcDbBlockBegin
  2
*D17
 70
     1
 10
0.0
 20
0.0
 30
0.0
  3
*D17
  1

  0
LINE
  5
CFA3
330
CAA4
100
AcDbEntity
  8
30
  6
Continuous
 62
     0
370
    -2
100
AcDbLine
 10
651.0
 20
-443.0
 30
0.0
 11
651.0
 21
-470.5
 31
0.0
  0
LINE
  5
CFA4
330
CAA4
100
AcDbEntity
  8
30
  6
Continuous
 62
     0
370
    -2
100
AcDbLine
 10
769.0
 20
-443.0
 30
0.0
 11
769.0
 21
-470.5
 31
0.0
  0
LINE
  5
CFA5
330
CAA4
100
AcDbEntity
  8
30
  6
Continuous
 62
     0
370
    -2
100
AcDbLine
 10
653.0
 20
-470.0
 30
0.0
 11
767.0
 21
-470.0
 31
0.0
  0
INSERT
  5
CFA6
330
CAA4
100
AcDbEntity
  8
30
  6
Continuous
 62
     0
370
    -2
100
AcDbBlockReference
  2
_OPEN
 10
651.0
 20
-470.0
 30
0.0
 41
2.0
 42
2.0
 43
2.0
 50
180.0
  0
INSERT
  5
CFA7
330
CAA4
100
AcDbEntity
  8
30
  6
Continuous
 62
     0
370
    -2
100
AcDbBlockReference
  2
_OPEN
 10
769.0
 20
-470.0
 30
0.0
 41
2.0
 42
2.0
 43
2.0
  0
MTEXT
  5
CFA8
330
CAA4
100
AcDbEntity
  8
30
  6
Continuous
 62
     0
100
AcDbMText
 10
710.0
 20
-465.0
 30
0.0
 40
6.0
 41
0.0
 71
     5
 72
     1
  1
\A1;118
 73
     1
 44
1.0
1001
ACAD
1000
MTEXTBEGIN
1070
    73
1070
     1
1070
    44
1040
1.0
1070
    74
1070
     0
1000
MTEXTEND
  0
POINT
  5
CFA9
330
CAA4
100
AcDbEntity
  8
DEFPOINTS
  6
Continuous
 62
     0
100
AcDbPoint
 10
651.0
 20
-440.0
 30
0.0
  0
POINT
  5
CFAA
330
CAA4
100
AcDbEntity
  8
DEFPOINTS
  6
Continuous
 62
     0
100
AcDbPoint
 10
769.0
 20
-440.0
 30
0.0
  0
POINT
  5
CFAB
330
CAA4
100
AcDbEntity
  8
DEFPOINTS
  6
Continuous
 62
     0
100
AcDbPoint
 10
769.0
 20
-470.0
 30
0.0
  0
ENDBLK
  5
CAA6
330
CAA4
100
AcDbEntity
  8
0
100
AcDbBlockEnd
  0
BLOCK
  5
CAB1
330
CAB0
100
AcDbEntity
  8
0
100
AcDbBlockBegin
  2
*D18
 70
     1
 10
0.0
 20
0.0
 30
0.0
  3
*D18
  1

  0
LINE
  5
CFAC
330
CAB0
100
AcDbEntity
  8
30
  6
Continuous
 62
     0
370
    -2
100
AcDbLine
 10
766.0
 20
-353.9999999999998
 30
0.0
 11
800.5
 21
-353.9999999999998
 31
0.0
  0
LINE
  5
CFAD
330
CAB0
100
AcDbEntity
  8
30
  6
Continuous
 62
     0
370
    -2
100
AcDbLine
 10
766.0
 20
-446.0
 30
0.0
 11
800.5
 21
-446.0
 31
0.0
  0
LINE
  5
CFAE
330
CAB0
100
AcDbEntity
  8
30
  6
Continuous
 62
     0
370
    -2
100
AcDbLine
 10
800.0
 20
-355.9999999999998
 30
0.0
 11
800.0
 21
-444.0
 31
0.0
  0
INSERT
  5
CFAF
330
CAB0
100
AcDbEntity
  8
30
  6
Continuous
 62
     0
370
    -2
100
AcDbBlockReference
  2
_OPEN
 10
800.0
 20
-353.9999999999998
 30
0.0
 41
2.0
 42
2.0
 43
2.0
 50
90.0
  0
INSERT
  5
CFB0
330
CAB0
100
AcDbEntity
  8
30
  6
Continuous
 62
     0
370
    -2
100
AcDbBlockReference
  2
_OPEN
 10
800.0
 20
-446.0
 30
0.0
 41
2.0
 42
2.0
 43
2.0
 50
270.0
  0
MTEXT
  5
CFB1
330
CAB0
100
AcDbEntity
  8
30
  6
Continuous
 62
     0
100
AcDbMText
 10
795.0000000000001
 20
-399.9999999999998
 30
0.0
 40
6.0
 41
0.0
 71
     5
 72
     1
  1
\A1;92
 11
0.0000000000000001
 21
1.0
 31
0.0
 73
     1
 44
1.0
1001
ACAD
1000
MTEXTBEGIN
1070
    73
1070
     1
1070
    44
1040
1.0
1070
    74
1070
     0
1000
MTEXTEND
  0
POINT
  5
CFB2
330
CAB0
100
AcDbEntity
  8
DEFPOINTS
  6
Continuous
 62
     0
100
AcDbPoint
 10
763.0
 20
-353.9999999999998
 30
0.0
  0
POINT
  5
CFB3
330
CAB0
100
AcDbEntity
  8
DEFPOINTS
  6
Continuous
 62
     0
100
AcDbPoint
 10
763.0
 20
-446.0
 30
0.0
  0
POINT
  5
CFB4
330
CAB0
100
AcDbEntity
  8
DEFPOINTS
  6
Continuous
 62
     0
100
AcDbPoint
 10
800.0
 20
-446.0
 30
0.0
  0
ENDBLK
  5
CAB2
330
CAB0
100
AcDbEntity
  8
0
100
AcDbBlockEnd
  0
BLOCK
  5
CABD
330
CABC
100
AcDbEntity
  8
0
100
AcDbBlockBegin
  2
*D19
 70
     1
 10
0.0
 20
0.0
 30
0.0
  3
*D19
  1

  0
LINE
  5
CCED
330
CABC
100
AcDbEntity
  8
30
  6
Continuous
 62
     0
370
    -2
100
AcDbLine
 10
803.5114182281752
 20
152.2621828604459
 30
0.0
 11
803.5114182281752
 21
139.1759028429514
 31
0.0
  0
LINE
  5
CCEE
330
CABC
100
AcDbEntity
  8
30
  6
Continuous
 62
     0
370
    -2
100
AcDbLine
 10
828.5114182281752
 20
152.2621828604459
 30
0.0
 11
828.5114182281752
 21
139.1759028429514
 31
0.0
  0
LINE
  5
CCEF
330
CABC
100
AcDbEntity
  8
30
  6
Continuous
 62
     0
370
    -2
100
AcDbLine
 10
805.5114182281752
 20
139.6759028429515
 30
0.0
 11
826.5114182281752
 21
139.6759028429515
 31
0.0
  0
INSERT
  5
CCF0
330
CABC
100
AcDbEntity
  8
30
  6
Continuous
 62
     0
370
    -2
100
AcDbBlockReference
  2
_OPEN
 10
803.5114182281752
 20
139.6759028429515
 30
0.0
 41
2.0
 42
2.0
 43
2.0
 50
180.0
  0
INSERT
  5
CCF1
330
CABC
100
AcDbEntity
  8
30
  6
Continuous
 62
     0
370
    -2
100
AcDbBlockReference
  2
_OPEN
 10
828.5114182281752
 20
139.6759028429515
 30
0.0
 41
2.0
 42
2.0
 43
2.0
  0
MTEXT
  5
CCF2
330
CABC
100
AcDbEntity
  8
30
  6
Continuous
 62
     0
100
AcDbMText
 10
816.0114182281752
 20
144.6759028429514
 30
0.0
 40
6.0
 41
0.0
 71
     5
 72
     1
  1
\A1;25
 73
     1
 44
1.0
1001
ACAD
1000
MTEXTBEGIN
1070
    73
1070
     1
1070
    44
1040
1.0
1070
    74
1070
     0
1000
MTEXTEND
  0
POINT
  5
CCF3
330
CABC
100
AcDbEntity
  8
DEFPOINTS
  6
Continuous
 62
     0
100
AcDbPoint
 10
803.5114182281752
 20
155.2621828604459
 30
0.0
  0
POINT
  5
CCF4
330
CABC
100
AcDbEntity
  8
DEFPOINTS
  6
Continuous
 62
     0
100
AcDbPoint
 10
828.5114182281752
 20
155.2621828604459
 30
0.0
  0
POINT
  5
CCF5
330
CABC
100
AcDbEntity
  8
DEFPOINTS
  6
Continuous
 62
     0
100
AcDbPoint
 10
828.5114182281752
 20
139.6759028429515
 30
0.0
  0
ENDBLK
  5
CABE
330
CABC
100
AcDbEntity
  8
0
100
AcDbBlockEnd
  0
BLOCK
  5
CAC9
330
CAC8
100
AcDbEntity
  8
0
100
AcDbBlockBegin
  2
*D20
 70
     1
 10
0.0
 20
0.0
 30
0.0
  3
*D20
  1

  0
LINE
  5
CCF6
330
CAC8
100
AcDbEntity
  8
30
  6
Continuous
 62
     0
370
    -2
100
AcDbLine
 10
831.5114182281751
 20
155.2621828604459
 30
0.0
 11
845.453747906364
 21
155.2621828604459
 31
0.0
  0
LINE
  5
CCF7
330
CAC8
100
AcDbEntity
  8
30
  6
Continuous
 62
     0
370
    -2
100
AcDbLine
 10
826.5114182281749
 20
167.2621828604459
 30
0.0
 11
845.453747906364
 21
167.2621828604459
 31
0.0
  0
LINE
  5
CCF8
330
CAC8
100
AcDbEntity
  8
30
  6
Continuous
 62
     0
370
    -2
100
AcDbLine
 10
844.9537479063637
 20
157.2621828604459
 30
0.0
 11
844.9537479063637
 21
165.2621828604459
 31
0.0
  0
LINE
  5
CCF9
330
CAC8
100
AcDbEntity
  8
30
  6
Continuous
 62
     0
370
    -2
100
AcDbLine
 10
844.9537479063637
 20
167.2621828604459
 30
0.0
 11
844.9537479063637
 21
181.2621828604459
 31
0.0
  0
INSERT
  5
CCFA
330
CAC8
100
AcDbEntity
  8
30
  6
Continuous
 62
     0
370
    -2
100
AcDbBlockReference
  2
_OPEN
 10
844.9537479063637
 20
155.2621828604459
 30
0.0
 41
2.0
 42
2.0
 43
2.0
 50
270.0
  0
INSERT
  5
CCFB
330
CAC8
100
AcDbEntity
  8
30
  6
Continuous
 62
     0
370
    -2
100
AcDbBlockReference
  2
_OPEN
 10
844.9537479063637
 20
167.2621828604459
 30
0.0
 41
2.0
 42
2.0
 43
2.0
 50
90.0
  0
MTEXT
  5
CCFC
330
CAC8
100
AcDbEntity
  8
30
  6
Continuous
 62
     0
100
AcDbMText
 10
839.953747906364
 20
175.262182860446
 30
0.0
 40
6.0
 41
0.0
 71
     5
 72
     1
  1
\A1;12
 11
0.0000000000000001
 21
1.0
 31
0.0
 73
     1
 44
1.0
1001
ACAD
1000
MTEXTBEGIN
1070
    73
1070
     1
1070
    44
1040
1.0
1070
    74
1070
     0
1000
MTEXTEND
  0
POINT
  5
CCFD
330
CAC8
100
AcDbEntity
  8
DEFPOINTS
  6
Continuous
 62
     0
100
AcDbPoint
 10
828.5114182281752
 20
155.2621828604459
 30
0.0
  0
POINT
  5
CCFE
330
CAC8
100
AcDbEntity
  8
DEFPOINTS
  6
Continuous
 62
     0
100
AcDbPoint
 10
823.5114182281748
 20
167.2621828604459
 30
0.0
  0
POINT
  5
CCFF
330
CAC8
100
AcDbEntity
  8
DEFPOINTS
  6
Continuous
 62
     0
100
AcDbPoint
 10
844.9537479063637
 20
167.2621828604459
 30
0.0
  0
ENDBLK
  5
CACA
330
CAC8
100
AcDbEntity
  8
0
100
AcDbBlockEnd
  0
BLOCK
  5
CAD6
330
CAD5
100
AcDbEntity
  8
0
100
AcDbBlockBegin
  2
*D21
 70
     1
 10
0.0
 20
0.0
 30
0.0
  3
*D21
  1

  0
LINE
  5
CD00
330
CAD5
100
AcDbEntity
  8
30
  6
Continuous
 62
     0
370
    -2
100
AcDbLine
 10
847.4762583619749
 20
190.2634688469851
 30
0.0
 11
834.476258361974
 21
190.2634688469851
 31
0.0
  0
LINE
  5
CD01
330
CAD5
100
AcDbEntity
  8
30
  6
Continuous
 62
     0
370
    -2
100
AcDbLine
 10
834.476258361974
 20
190.2634688469851
 30
0.0
 11
820.7065179759952
 21
173.1107757132626
 31
0.0
  0
MTEXT
  5
CD02
102
{ACAD_XDICTIONARY
360
D0D6
102
}
330
CAD5
100
AcDbEntity
  8
30
  6
Continuous
 62
     0
100
AcDbMText
 10
841.4762583619749
 20
194.2634688469851
 30
0.0
 40
6.0
 41
0.0
 71
     5
 72
     1
  1
\A1;\U+220511
 73
     1
 44
1.0
1001
ACAD
1000
MTEXTBEGIN
1070
    73
1070
     1
1070
    44
1040
1.0
1070
    74
1070
     0
1000
MTEXTEND
  0
INSERT
  5
CD03
330
CAD5
100
AcDbEntity
  8
30
  6
Continuous
 62
     0
370
    -2
100
AcDbBlockReference
  2
_OPEN
 10
819.4544913765762
 20
171.5511509525116
 30
0.0
 41
2.0
 42
2.0
 43
2.0
 50
231.2434003354131
  0
LINE
  5
CD04
330
CAD5
100
AcDbEntity
  8
30
  6
Continuous
 62
     0
370
    -2
100
AcDbLine
 10
815.921418228175
 20
167.2621828604459
 30
0.0
 11
816.1014182281752
 21
167.2621828604459
 31
0.0
  0
LINE
  5
CD05
330
CAD5
100
AcDbEntity
  8
30
  6
Continuous
 62
     0
370
    -2
100
AcDbLine
 10
816.011418228175
 20
167.172182860446
 30
0.0
 11
816.011418228175
 21
167.3521828604459
 31
0.0
  0
POINT
  5
CD06
330
CAD5
100
AcDbEntity
  8
DEFPOINTS
  6
Continuous
 62
     0
100
AcDbPoint
 10
819.4544913765762
 20
171.5511509525116
 30
0.0
  0
POINT
  5
CD07
330
CAD5
100
AcDbEntity
  8
DEFPOINTS
  6
Continuous
 62
     0
100
AcDbPoint
 10
812.5683450797733
 20
162.9732147683801
 30
0.0
  0
ENDBLK
  5
CAD7
330
CAD5
100
AcDbEntity
  8
0
100
AcDbBlockEnd
  0
BLOCK
  5
CAE1
330
CAE0
100
AcDbEntity
  8
0
100
AcDbBlockBegin
  2
*D22
 70
     1
 10
0.0
 20
0.0
 30
0.0
  3
*D22
  1

  0
LINE
  5
CFC5
330
CAE0
100
AcDbEntity
  8
30
  6
Continuous
 62
     0
370
    -2
100
AcDbLine
 10
287.0000000000008
 20
218.0
 30
0.0
 11
239.5
 21
218.0
 31
0.0
  0
LINE
  5
CFC6
330
CAE0
100
AcDbEntity
  8
30
  6
Continuous
 62
     0
370
    -2
100
AcDbLine
 10
347.0000000000009
 20
140.0
 30
0.0
 11
239.5
 21
140.0
 31
0.0
  0
LINE
  5
CFC7
330
CAE0
100
AcDbEntity
  8
30
  6
Continuous
 62
     0
370
    -2
100
AcDbLine
 10
240.0
 20
216.0
 30
0.0
 11
240.0
 21
142.0
 31
0.0
  0
INSERT
  5
CFC8
330
CAE0
100
AcDbEntity
  8
30
  6
Continuous
 62
     0
370
    -2
100
AcDbBlockReference
  2
_OPEN
 10
240.0
 20
218.0
 30
0.0
 41
2.0
 42
2.0
 43
2.0
 50
90.0
  0
INSERT
  5
CFC9
330
CAE0
100
AcDbEntity
  8
30
  6
Continuous
 62
     0
370
    -2
100
AcDbBlockReference
  2
_OPEN
 10
240.0
 20
140.0
 30
0.0
 41
2.0
 42
2.0
 43
2.0
 50
270.0
  0
MTEXT
  5
CFCA
330
CAE0
100
AcDbEntity
  8
30
  6
Continuous
 62
     0
100
AcDbMText
 10
235.0
 20
179.0
 30
0.0
 40
6.0
 41
0.0
 71
     5
 72
     1
  1
\A1;78
 11
0.0000000000000001
 21
1.0
 31
0.0
 73
     1
 44
1.0
1001
ACAD
1000
MTEXTBEGIN
1070
    73
1070
     1
1070
    44
1040
1.0
1070
    74
1070
     0
1000
MTEXTEND
  0
POINT
  5
CFCB
330
CAE0
100
AcDbEntity
  8
DEFPOINTS
  6
Continuous
 62
     0
100
AcDbPoint
 10
290.0000000000009
 20
218.0
 30
0.0
  0
POINT
  5
CFCC
330
CAE0
100
AcDbEntity
  8
DEFPOINTS
  6
Continuous
 62
     0
100
AcDbPoint
 10
350.0000000000008
 20
140.0
 30
0.0
  0
POINT
  5
CFCD
330
CAE0
100
AcDbEntity
  8
DEFPOINTS
  6
Continuous
 62
     0
100
AcDbPoint
 10
240.0
 20
140.0
 30
0.0
  0
ENDBLK
  5
CAE2
330
CAE0
100
AcDbEntity
  8
0
100
AcDbBlockEnd
  0
BLOCK
  5
CAED
330
CAEC
100
AcDbEntity
  8
0
100
AcDbBlockBegin
  2
*D23
 70
     1
 10
0.0
 20
0.0
 30
0.0
  3
*D23
  1

  0
LINE
  5
CFCE
330
CAEC
100
AcDbEntity
  8
30
  6
Continuous
 62
     0
370
    -2
100
AcDbLine
 10
347.0000000000009
 20
140.0
 30
0.0
 11
239.5
 21
140.0
 31
0.0
  0
LINE
  5
CFCF
330
CAEC
100
AcDbEntity
  8
30
  6
Continuous
 62
     0
370
    -2
100
AcDbLine
 10
347.0000000000009
 20
-120.0
 30
0.0
 11
239.5
 21
-120.0
 31
0.0
  0
LINE
  5
CFD0
330
CAEC
100
AcDbEntity
  8
30
  6
Continuous
 62
     0
370
    -2
100
AcDbLine
 10
240.0000000000001
 20
138.0
 30
0.0
 11
240.0
 21
-118.0
 31
0.0
  0
INSERT
  5
CFD1
330
CAEC
100
AcDbEntity
  8
30
  6
Continuous
 62
     0
370
    -2
100
AcDbBlockReference
  2
_OPEN
 10
240.0000000000001
 20
140.0
 30
0.0
 41
2.0
 42
2.0
 43
2.0
 50
90.0
  0
INSERT
  5
CFD2
330
CAEC
100
AcDbEntity
  8
30
  6
Continuous
 62
     0
370
    -2
100
AcDbBlockReference
  2
_OPEN
 10
240.0
 20
-120.0
 30
0.0
 41
2.0
 42
2.0
 43
2.0
 50
270.0
  0
MTEXT
  5
CFD3
330
CAEC
100
AcDbEntity
  8
30
  6
Continuous
 62
     0
100
AcDbMText
 10
235.0
 20
10.00000000000006
 30
0.0
 40
6.0
 41
0.0
 71
     5
 72
     1
  1
\A1;260
 11
0.0000000000000001
 21
1.0
 31
0.0
 73
     1
 44
1.0
1001
ACAD
1000
MTEXTBEGIN
1070
    73
1070
     1
1070
    44
1040
1.0
1070
    74
1070
     0
1000
MTEXTEND
  0
POINT
  5
CFD4
330
CAEC
100
AcDbEntity
  8
DEFPOINTS
  6
Continuous
 62
     0
100
AcDbPoint
 10
350.0000000000008
 20
140.0
 30
0.0
  0
POINT
  5
CFD5
330
CAEC
100
AcDbEntity
  8
DEFPOINTS
  6
Continuous
 62
     0
100
AcDbPoint
 10
350.0000000000008
 20
-120.0
 30
0.0
  0
POINT
  5
CFD6
330
CAEC
100
AcDbEntity
  8
DEFPOINTS
  6
Continuous
 62
     0
100
AcDbPoint
 10
240.0
 20
-120.0
 30
0.0
  0
ENDBLK
  5
CAEE
330
CAEC
100
AcDbEntity
  8
0
100
AcDbBlockEnd
  0
BLOCK
  5
CAF9
330
CAF8
100
AcDbEntity
  8
0
100
AcDbBlockBegin
  2
*D24
 70
     1
 10
0.0
 20
0.0
 30
0.0
  3
*D24
  1

  0
LINE
  5
CFD7
330
CAF8
100
AcDbEntity
  8
30
  6
Continuous
 62
     0
370
    -2
100
AcDbLine
 10
287.0000000000008
 20
218.0
 30
0.0
 11
229.5000000000001
 21
218.0
 31
0.0
  0
LINE
  5
CFD8
330
CAF8
100
AcDbEntity
  8
30
  6
Continuous
 62
     0
370
    -2
100
AcDbLine
 10
287.0000000000008
 20
-198.0000000000003
 30
0.0
 11
229.5
 21
-198.0000000000003
 31
0.0
  0
LINE
  5
CFD9
330
CAF8
100
AcDbEntity
  8
30
  6
Continuous
 62
     0
370
    -2
100
AcDbLine
 10
230.0000000000001
 20
216.0
 30
0.0
 11
230.0
 21
-196.0000000000002
 31
0.0
  0
INSERT
  5
CFDA
330
CAF8
100
AcDbEntity
  8
30
  6
Continuous
 62
     0
370
    -2
100
AcDbBlockReference
  2
_OPEN
 10
230.0000000000001
 20
218.0
 30
0.0
 41
2.0
 42
2.0
 43
2.0
 50
90.0
  0
INSERT
  5
CFDB
330
CAF8
100
AcDbEntity
  8
30
  6
Continuous
 62
     0
370
    -2
100
AcDbBlockReference
  2
_OPEN
 10
230.0
 20
-198.0000000000003
 30
0.0
 41
2.0
 42
2.0
 43
2.0
 50
270.0
  0
MTEXT
  5
CFDC
330
CAF8
100
AcDbEntity
  8
30
  6
Continuous
 62
     0
100
AcDbMText
 10
225.0
 20
9.9999999999999
 30
0.0
 40
6.0
 41
0.0
 71
     5
 72
     1
  1
\A1;416
 11
0.0000000000000001
 21
1.0
 31
0.0
 73
     1
 44
1.0
1001
ACAD
1000
MTEXTBEGIN
1070
    73
1070
     1
1070
    44
1040
1.0
1070
    74
1070
     0
1000
MTEXTEND
  0
POINT
  5
CFDD
330
CAF8
100
AcDbEntity
  8
DEFPOINTS
  6
Continuous
 62
     0
100
AcDbPoint
 10
290.0000000000009
 20
218.0
 30
0.0
  0
POINT
  5
CFDE
330
CAF8
100
AcDbEntity
  8
DEFPOINTS
  6
Continuous
 62
     0
100
AcDbPoint
 10
290.0000000000009
 20
-198.0000000000003
 30
0.0
  0
POINT
  5
CFDF
330
CAF8
100
AcDbEntity
  8
DEFPOINTS
  6
Continuous
 62
     0
100
AcDbPoint
 10
230.0
 20
-198.0000000000003
 30
0.0
  0
ENDBLK
  5
CAFA
330
CAF8
100
AcDbEntity
  8
0
100
AcDbBlockEnd
  0
BLOCK
  5
CB05
330
CB04
100
AcDbEntity
  8
0
100
AcDbBlockBegin
  2
*D25
 70
     1
 10
0.0
 20
0.0
 30
0.0
  3
*D25
  1

  0
LINE
  5
CC4E
330
CB04
100
AcDbEntity
  8
30
  6
Continuous
 62
     0
370
    -2
100
AcDbLine
 10
375.0
 20
-116.0000000000002
 30
0.0
 11
375.0
 21
-210.5
 31
0.0
  0
LINE
  5
CC4F
330
CB04
100
AcDbEntity
  8
30
  6
Continuous
 62
     0
370
    -2
100
AcDbLine
 10
465.0
 20
-116.0000000000002
 30
0.0
 11
465.0
 21
-210.5
 31
0.0
  0
LINE
  5
CC50
330
CB04
100
AcDbEntity
  8
30
  6
Continuous
 62
     0
370
    -2
100
AcDbLine
 10
377.0
 20
-210.0
 30
0.0
 11
463.0
 21
-210.0
 31
0.0
  0
INSERT
  5
CC51
330
CB04
100
AcDbEntity
  8
30
  6
Continuous
 62
     0
370
    -2
100
AcDbBlockReference
  2
_OPEN
 10
375.0
 20
-210.0
 30
0.0
 41
2.0
 42
2.0
 43
2.0
 50
180.0
  0
INSERT
  5
CC52
330
CB04
100
AcDbEntity
  8
30
  6
Continuous
 62
     0
370
    -2
100
AcDbBlockReference
  2
_OPEN
 10
465.0
 20
-210.0
 30
0.0
 41
2.0
 42
2.0
 43
2.0
  0
MTEXT
  5
CC53
330
CB04
100
AcDbEntity
  8
30
  6
Continuous
 62
     0
100
AcDbMText
 10
420.0
 20
-205.0
 30
0.0
 40
6.0
 41
0.0
 71
     5
 72
     1
  1
\A1;90
 73
     1
 44
1.0
1001
ACAD
1000
MTEXTBEGIN
1070
    73
1070
     1
1070
    44
1040
1.0
1070
    74
1070
     0
1000
MTEXTEND
  0
POINT
  5
CC54
330
CB04
100
AcDbEntity
  8
DEFPOINTS
  6
Continuous
 62
     0
100
AcDbPoint
 10
375.0
 20
-113.0000000000002
 30
0.0
  0
POINT
  5
CC55
330
CB04
100
AcDbEntity
  8
DEFPOINTS
  6
Continuous
 62
     0
100
AcDbPoint
 10
465.0
 20
-113.0000000000002
 30
0.0
  0
POINT
  5
CC56
330
CB04
100
AcDbEntity
  8
DEFPOINTS
  6
Continuous
 62
     0
100
AcDbPoint
 10
465.0
 20
-210.0
 30
0.0
  0
ENDBLK
  5
CB06
330
CB04
100
AcDbEntity
  8
0
100
AcDbBlockEnd
  0
BLOCK
  5
CB11
330
CB10
100
AcDbEntity
  8
0
100
AcDbBlockBegin
  2
*D26
 70
     1
 10
0.0
 20
0.0
 30
0.0
  3
*D26
  1

  0
LINE
  5
CE01
330
CB10
100
AcDbEntity
  8
30
  6
Continuous
 62
     0
370
    -2
100
AcDbLine
 10
667.0
 20
-182.8060655566291
 30
0.0
 11
667.0
 21
-180.5
 31
0.0
  0
LINE
  5
CE02
330
CB10
100
AcDbEntity
  8
30
  6
Continuous
 62
     0
370
    -2
100
AcDbLine
 10
771.6
 20
-173.0
 30
0.0
 11
771.6
 21
-180.5
 31
0.0
  0
LINE
  5
CE03
330
CB10
100
AcDbEntity
  8
30
  6
Continuous
 62
     0
370
    -2
100
AcDbLine
 10
669.0
 20
-180.0
 30
0.0
 11
769.6
 21
-180.0
 31
0.0
  0
INSERT
  5
CE04
330
CB10
100
AcDbEntity
  8
30
  6
Continuous
 62
     0
370
    -2
100
AcDbBlockReference
  2
_OPEN
 10
667.0
 20
-180.0
 30
0.0
 41
2.0
 42
2.0
 43
2.0
 50
180.0
  0
INSERT
  5
CE05
330
CB10
100
AcDbEntity
  8
30
  6
Continuous
 62
     0
370
    -2
100
AcDbBlockReference
  2
_OPEN
 10
771.6
 20
-180.0
 30
0.0
 41
2.0
 42
2.0
 43
2.0
  0
MTEXT
  5
CE06
330
CB10
100
AcDbEntity
  8
30
  6
Continuous
 62
     0
100
AcDbMText
 10
719.2999999999998
 20
-175.0
 30
0.0
 40
6.0
 41
0.0
 71
     5
 72
     1
  1
\A1;104.6
 73
     1
 44
1.0
1001
ACAD
1000
MTEXTBEGIN
1070
    73
1070
     1
1070
    44
1040
1.0
1070
    74
1070
     0
1000
MTEXTEND
  0
POINT
  5
CE07
330
CB10
100
AcDbEntity
  8
DEFPOINTS
  6
Continuous
 62
     0
100
AcDbPoint
 10
667.0
 20
-179.8060655566291
 30
0.0
  0
POINT
  5
CE08
330
CB10
100
AcDbEntity
  8
DEFPOINTS
  6
Continuous
 62
     0
100
AcDbPoint
 10
771.6
 20
-170.0
 30
0.0
  0
POINT
  5
CE09
330
CB10
100
AcDbEntity
  8
DEFPOINTS
  6
Continuous
 62
     0
100
AcDbPoint
 10
771.6
 20
-180.0
 30
0.0
  0
ENDBLK
  5
CB12
330
CB10
100
AcDbEntity
  8
0
100
AcDbBlockEnd
  0
BLOCK
  5
CB1D
330
CB1C
100
AcDbEntity
  8
0
100
AcDbBlockBegin
  2
*D27
 70
     1
 10
0.0
 20
0.0
 30
0.0
  3
*D27
  1

  0
LINE
  5
CE0A
330
CB1C
100
AcDbEntity
  8
30
  6
Continuous
 62
     0
370
    -2
100
AcDbLine
 10
659.0
 20
-38.00000000000011
 30
0.0
 11
659.0
 21
-180.5
 31
0.0
  0
LINE
  5
CE0B
330
CB1C
100
AcDbEntity
  8
30
  6
Continuous
 62
     0
370
    -2
100
AcDbLine
 10
667.0
 20
-44.00000000000011
 30
0.0
 11
667.0
 21
-180.5
 31
0.0
  0
LINE
  5
CE0C
330
CB1C
100
AcDbEntity
  8
30
  6
Continuous
 62
     0
370
    -2
100
AcDbLine
 10
661.0
 20
-180.0
 30
0.0
 11
665.0
 21
-180.0
 31
0.0
  0
INSERT
  5
CE0D
330
CB1C
100
AcDbEntity
  8
30
  6
Continuous
 62
     0
370
    -2
100
AcDbBlockReference
  2
_OPEN
 10
659.0
 20
-180.0
 30
0.0
 41
2.0
 42
2.0
 43
2.0
 50
180.0
  0
INSERT
  5
CE0E
330
CB1C
100
AcDbEntity
  8
30
  6
Continuous
 62
     0
370
    -2
100
AcDbBlockReference
  2
_OPEN
 10
667.0
 20
-180.0
 30
0.0
 41
2.0
 42
2.0
 43
2.0
  0
MTEXT
  5
CE0F
330
CB1C
100
AcDbEntity
  8
30
  6
Continuous
 62
     0
100
AcDbMText
 10
663.0
 20
-175.0
 30
0.0
 40
6.0
 41
0.0
 71
     5
 72
     1
  1
\A1;8
 73
     1
 44
1.0
1001
ACAD
1000
MTEXTBEGIN
1070
    73
1070
     1
1070
    44
1040
1.0
1070
    74
1070
     0
1000
MTEXTEND
  0
POINT
  5
CE10
330
CB1C
100
AcDbEntity
  8
DEFPOINTS
  6
Continuous
 62
     0
100
AcDbPoint
 10
659.0
 20
-35.00000000000011
 30
0.0
  0
POINT
  5
CE11
330
CB1C
100
AcDbEntity
  8
DEFPOINTS
  6
Continuous
 62
     0
100
AcDbPoint
 10
667.0
 20
-41.00000000000011
 30
0.0
  0
POINT
  5
CE12
330
CB1C
100
AcDbEntity
  8
DEFPOINTS
  6
Continuous
 62
     0
100
AcDbPoint
 10
667.0
 20
-180.0
 30
0.0
  0
ENDBLK
  5
CB1E
330
CB1C
100
AcDbEntity
  8
0
100
AcDbBlockEnd
  0
BLOCK
  5
CB29
330
CB28
100
AcDbEntity
  8
0
100
AcDbBlockBegin
  2
*D28
 70
     1
 10
0.0
 20
0.0
 30
0.0
  3
*D28
  1

  0
LINE
  5
CD1A
330
CB28
100
AcDbEntity
  8
30
  6
Continuous
 62
     0
370
    -2
100
AcDbLine
 10
625.0
 20
6.999999999999772
 30
0.0
 11
625.0
 21
-220.5
 31
0.0
  0
LINE
  5
CD1B
330
CB28
100
AcDbEntity
  8
30
  6
Continuous
 62
     0
370
    -2
100
AcDbLine
 10
771.6
 20
-201.0000000000003
 30
0.0
 11
771.6
 21
-220.5
 31
0.0
  0
LINE
  5
CD1C
330
CB28
100
AcDbEntity
  8
30
  6
Continuous
 62
     0
370
    -2
100
AcDbLine
 10
627.0
 20
-220.0
 30
0.0
 11
769.6
 21
-220.0
 31
0.0
  0
INSERT
  5
CD1D
330
CB28
100
AcDbEntity
  8
30
  6
Continuous
 62
     0
370
    -2
100
AcDbBlockReference
  2
_OPEN
 10
625.0
 20
-220.0
 30
0.0
 41
2.0
 42
2.0
 43
2.0
 50
180.0
  0
INSERT
  5
CD1E
330
CB28
100
AcDbEntity
  8
30
  6
Continuous
 62
     0
370
    -2
100
AcDbBlockReference
  2
_OPEN
 10
771.6
 20
-220.0
 30
0.0
 41
2.0
 42
2.0
 43
2.0
  0
MTEXT
  5
CD1F
330
CB28
100
AcDbEntity
  8
30
  6
Continuous
 62
     0
100
AcDbMText
 10
698.2999999999998
 20
-215.0
 30
0.0
 40
6.0
 41
0.0
 71
     5
 72
     1
  1
\A1;146.6
 73
     1
 44
1.0
1001
ACAD
1000
MTEXTBEGIN
1070
    73
1070
     1
1070
    44
1040
1.0
1070
    74
1070
     0
1000
MTEXTEND
  0
POINT
  5
CD20
330
CB28
100
AcDbEntity
  8
DEFPOINTS
  6
Continuous
 62
     0
100
AcDbPoint
 10
625.0
 20
9.999999999999772
 30
0.0
  0
POINT
  5
CD21
330
CB28
100
AcDbEntity
  8
DEFPOINTS
  6
Continuous
 62
     0
100
AcDbPoint
 10
771.6
 20
-198.0000000000003
 30
0.0
  0
POINT
  5
CD22
330
CB28
100
AcDbEntity
  8
DEFPOINTS
  6
Continuous
 62
     0
100
AcDbPoint
 10
771.6
 20
-220.0
 30
0.0
  0
ENDBLK
  5
CB2A
330
CB28
100
AcDbEntity
  8
0
100
AcDbBlockEnd
  0
BLOCK
  5
CB35
330
CB34
100
AcDbEntity
  8
0
100
AcDbBlockBegin
  2
*D29
 70
     1
 10
0.0
 20
0.0
 30
0.0
  3
*D29
  1

  0
LINE
  5
CFB5
330
CB34
100
AcDbEntity
  8
30
  6
Continuous
 62
     0
370
    -2
100
AcDbLine
 10
357.5075517935828
 20
-260.6800347238195
 30
0.0
 11
373.1742184602489
 21
-260.6800347238195
 31
0.0
  0
LINE
  5
CFB6
330
CB34
100
AcDbEntity
  8
30
  6
Continuous
 62
     0
370
    -2
100
AcDbLine
 10
373.1742184602489
 20
-260.6800347238195
 30
0.0
 11
394.4932163323945
 21
-289.0050967500799
 31
0.0
  0
MTEXT
  5
CFB7
330
CB34
100
AcDbEntity
  8
30
  6
Continuous
 62
     0
100
AcDbMText
 10
362.5075517935828
 20
-256.6800347238195
 30
0.0
 40
6.0
 41
0.0
 71
     5
 72
     1
  1
\A1;M6
 73
     1
 44
1.0
1001
ACAD
1000
MTEXTBEGIN
1070
    73
1070
     1
1070
    44
1040
1.0
1070
    74
1070
     0
1000
MTEXTEND
  0
INSERT
  5
CFB8
330
CB34
100
AcDbEntity
  8
30
  6
Continuous
 62
     0
370
    -2
100
AcDbBlockReference
  2
_OPEN
 10
395.6959297994367
 20
-290.603058050048
 30
0.0
 41
2.0
 42
2.0
 43
2.0
 50
306.9671284485159
  0
LINE
  5
CFB9
330
CB34
100
AcDbEntity
  8
30
  6
Continuous
 62
     0
370
    -2
100
AcDbLine
 10
397.41
 20
-292.9999999999999
 30
0.0
 11
397.5899999999999
 21
-292.9999999999999
 31
0.0
  0
LINE
  5
CFBA
330
CB34
100
AcDbEntity
  8
30
  6
Continuous
 62
     0
370
    -2
100
AcDbLine
 10
397.4999999999998
 20
-293.0899999999999
 30
0.0
 11
397.4999999999998
 21
-292.9099999999999
 31
0.0
  0
POINT
  5
CFBB
330
CB34
100
AcDbEntity
  8
DEFPOINTS
  6
Continuous
 62
     0
100
AcDbPoint
 10
395.6959297994367
 20
-290.603058050048
 30
0.0
  0
POINT
  5
CFBC
330
CB34
100
AcDbEntity
  8
DEFPOINTS
  6
Continuous
 62
     0
100
AcDbPoint
 10
399.3040702005631
 20
-295.3969419499518
 30
0.0
  0
ENDBLK
  5
CB36
330
CB34
100
AcDbEntity
  8
0
100
AcDbBlockEnd
  0
BLOCK
  5
CB40
330
CB3F
100
AcDbEntity
  8
0
100
AcDbBlockBegin
  2
*D30
 70
     1
 10
0.0
 20
0.0
 30
0.0
  3
*D30
  1

  0
LINE
  5
CD23
330
CB3F
100
AcDbEntity
  8
30
  6
Continuous
 62
     0
370
    -2
100
AcDbLine
 10
771.6
 20
143.0
 30
0.0
 11
771.6
 21
150.5
 31
0.0
  0
LINE
  5
CD24
330
CB3F
100
AcDbEntity
  8
30
  6
Continuous
 62
     0
370
    -2
100
AcDbLine
 10
734.0
 20
143.0
 30
0.0
 11
734.0
 21
150.5
 31
0.0
  0
LINE
  5
CD25
330
CB3F
100
AcDbEntity
  8
30
  6
Continuous
 62
     0
370
    -2
100
AcDbLine
 10
769.6
 20
150.0
 30
0.0
 11
736.0
 21
150.0
 31
0.0
  0
INSERT
  5
CD26
330
CB3F
100
AcDbEntity
  8
30
  6
Continuous
 62
     0
370
    -2
100
AcDbBlockReference
  2
_OPEN
 10
771.6
 20
150.0
 30
0.0
 41
2.0
 42
2.0
 43
2.0
  0
INSERT
  5
CD27
330
CB3F
100
AcDbEntity
  8
30
  6
Continuous
 62
     0
370
    -2
100
AcDbBlockReference
  2
_OPEN
 10
734.0
 20
150.0
 30
0.0
 41
2.0
 42
2.0
 43
2.0
 50
180.0
  0
MTEXT
  5
CD28
330
CB3F
100
AcDbEntity
  8
30
  6
Continuous
 62
     0
100
AcDbMText
 10
752.7999999999998
 20
155.0
 30
0.0
 40
6.0
 41
0.0
 71
     5
 72
     1
  1
\A1;37.6
 73
     1
 44
1.0
1001
ACAD
1000
MTEXTBEGIN
1070
    73
1070
     1
1070
    44
1040
1.0
1070
    74
1070
     0
1000
MTEXTEND
  0
POINT
  5
CD29
330
CB3F
100
AcDbEntity
  8
DEFPOINTS
  6
Continuous
 62
     0
100
AcDbPoint
 10
771.6
 20
140.0
 30
0.0
  0
POINT
  5
CD2A
330
CB3F
100
AcDbEntity
  8
DEFPOINTS
  6
Continuous
 62
     0
100
AcDbPoint
 10
734.0
 20
140.0
 30
0.0
  0
POINT
  5
CD2B
330
CB3F
100
AcDbEntity
  8
DEFPOINTS
  6
Continuous
 62
     0
100
AcDbPoint
 10
734.0
 20
150.0
 30
0.0
  0
ENDBLK
  5
CB41
330
CB3F
100
AcDbEntity
  8
0
100
AcDbBlockEnd
  0
BLOCK
  5
CB4C
330
CB4B
100
AcDbEntity
  8
0
100
AcDbBlockBegin
  2
*D31
 70
     1
 10
0.0
 20
0.0
 30
0.0
  3
*D31
  1

  0
LINE
  5
CF5C
330
CB4B
100
AcDbEntity
  8
30
  6
Continuous
 62
     0
370
    -2
100
AcDbLine
 10
350.0
 20
402.5000000000002
 30
0.0
 11
350.0
 21
415.5
 31
0.0
  0
LINE
  5
CF5D
330
CB4B
100
AcDbEntity
  8
30
  6
Continuous
 62
     0
370
    -2
100
AcDbLine
 10
375.0
 20
369.5665648324821
 30
0.0
 11
375.0
 21
415.5
 31
0.0
  0
LINE
  5
CF5E
330
CB4B
100
AcDbEntity
  8
30
  6
Continuous
 62
     0
370
    -2
100
AcDbLine
 10
352.0
 20
415.0
 30
0.0
 11
373.0
 21
415.0
 31
0.0
  0
INSERT
  5
CF5F
330
CB4B
100
AcDbEntity
  8
30
  6
Continuous
 62
     0
370
    -2
100
AcDbBlockReference
  2
_OPEN
 10
350.0
 20
415.0
 30
0.0
 41
2.0
 42
2.0
 43
2.0
 50
180.0
  0
INSERT
  5
CF60
330
CB4B
100
AcDbEntity
  8
30
  6
Continuous
 62
     0
370
    -2
100
AcDbBlockReference
  2
_OPEN
 10
375.0
 20
415.0
 30
0.0
 41
2.0
 42
2.0
 43
2.0
  0
MTEXT
  5
CF61
330
CB4B
100
AcDbEntity
  8
30
  6
Continuous
 62
     0
100
AcDbMText
 10
362.5
 20
420.0
 30
0.0
 40
6.0
 41
0.0
 71
     5
 72
     1
  1
\A1;25
 73
     1
 44
1.0
1001
ACAD
1000
MTEXTBEGIN
1070
    73
1070
     1
1070
    44
1040
1.0
1070
    74
1070
     0
1000
MTEXTEND
  0
POINT
  5
CF62
330
CB4B
100
AcDbEntity
  8
DEFPOINTS
  6
Continuous
 62
     0
100
AcDbPoint
 10
350.0
 20
399.5000000000002
 30
0.0
  0
POINT
  5
CF63
330
CB4B
100
AcDbEntity
  8
DEFPOINTS
  6
Continuous
 62
     0
100
AcDbPoint
 10
375.0
 20
366.5665648324822
 30
0.0
  0
POINT
  5
CF64
330
CB4B
100
AcDbEntity
  8
DEFPOINTS
  6
Continuous
 62
     0
100
AcDbPoint
 10
375.0
 20
415.0
 30
0.0
  0
ENDBLK
  5
CB4D
330
CB4B
100
AcDbEntity
  8
0
100
AcDbBlockEnd
  0
BLOCK
  5
CB58
330
CB57
100
AcDbEntity
  8
0
100
AcDbBlockBegin
  2
*D32
 70
     1
 10
0.0
 20
0.0
 30
0.0
  3
*D32
  1

  0
LINE
  5
CF65
330
CB57
100
AcDbEntity
  8
30
  6
Continuous
 62
     0
370
    -2
100
AcDbLine
 10
375.000006238623
 20
372.5819837500783
 30
0.0
 11
375.000006238623
 21
415.5
 31
0.0
  0
LINE
  5
CF66
330
CB57
100
AcDbEntity
  8
30
  6
Continuous
 62
     0
370
    -2
100
AcDbLine
 10
420.0000062386229
 20
369.5665648324821
 30
0.0
 11
420.0000062386229
 21
415.5
 31
0.0
  0
LINE
  5
CF67
330
CB57
100
AcDbEntity
  8
30
  6
Continuous
 62
     0
370
    -2
100
AcDbLine
 10
377.000006238623
 20
415.0
 30
0.0
 11
418.000006238623
 21
415.0
 31
0.0
  0
INSERT
  5
CF68
330
CB57
100
AcDbEntity
  8
30
  6
Continuous
 62
     0
370
    -2
100
AcDbBlockReference
  2
_OPEN
 10
375.000006238623
 20
415.0
 30
0.0
 41
2.0
 42
2.0
 43
2.0
 50
180.0
  0
INSERT
  5
CF69
330
CB57
100
AcDbEntity
  8
30
  6
Continuous
 62
     0
370
    -2
100
AcDbBlockReference
  2
_OPEN
 10
420.0000062386229
 20
415.0
 30
0.0
 41
2.0
 42
2.0
 43
2.0
  0
MTEXT
  5
CF6A
330
CB57
100
AcDbEntity
  8
30
  6
Continuous
 62
     0
100
AcDbMText
 10
397.500006238623
 20
420.0
 30
0.0
 40
6.0
 41
0.0
 71
     5
 72
     1
  1
\A1;45
 73
     1
 44
1.0
1001
ACAD
1000
MTEXTBEGIN
1070
    73
1070
     1
1070
    44
1040
1.0
1070
    74
1070
     0
1000
MTEXTEND
  0
POINT
  5
CF6B
330
CB57
100
AcDbEntity
  8
DEFPOINTS
  6
Continuous
 62
     0
100
AcDbPoint
 10
375.000006238623
 20
369.5819837500784
 30
0.0
  0
POINT
  5
CF6C
330
CB57
100
AcDbEntity
  8
DEFPOINTS
  6
Continuous
 62
     0
100
AcDbPoint
 10
420.0000062386229
 20
366.5665648324822
 30
0.0
  0
POINT
  5
CF6D
330
CB57
100
AcDbEntity
  8
DEFPOINTS
  6
Continuous
 62
     0
100
AcDbPoint
 10
420.0000062386229
 20
415.0
 30
0.0
  0
ENDBLK
  5
CB59
330
CB57
100
AcDbEntity
  8
0
100
AcDbBlockEnd
  0
BLOCK
  5
CB64
330
CB63
100
AcDbEntity
  8
0
100
AcDbBlockBegin
  2
*D33
 70
     1
 10
0.0
 20
0.0
 30
0.0
  3
*D33
  1

  0
LINE
  5
CF6E
330
CB63
100
AcDbEntity
  8
30
  6
Continuous
 62
     0
370
    -2
100
AcDbLine
 10
420.0000062386229
 20
369.5665648324821
 30
0.0
 11
420.0000062386229
 21
415.5
 31
0.0
  0
LINE
  5
CF6F
330
CB63
100
AcDbEntity
  8
30
  6
Continuous
 62
     0
370
    -2
100
AcDbLine
 10
465.0000062386229
 20
369.5665648324821
 30
0.0
 11
465.0000062386229
 21
415.5
 31
0.0
  0
LINE
  5
CF70
330
CB63
100
AcDbEntity
  8
30
  6
Continuous
 62
     0
370
    -2
100
AcDbLine
 10
422.000006238623
 20
415.0
 30
0.0
 11
463.0000062386229
 21
415.0
 31
0.0
  0
INSERT
  5
CF71
330
CB63
100
AcDbEntity
  8
30
  6
Continuous
 62
     0
370
    -2
100
AcDbBlockReference
  2
_OPEN
 10
420.0000062386229
 20
415.0
 30
0.0
 41
2.0
 42
2.0
 43
2.0
 50
180.0
  0
INSERT
  5
CF72
330
CB63
100
AcDbEntity
  8
30
  6
Continuous
 62
     0
370
    -2
100
AcDbBlockReference
  2
_OPEN
 10
465.0000062386229
 20
415.0
 30
0.0
 41
2.0
 42
2.0
 43
2.0
  0
MTEXT
  5
CF73
330
CB63
100
AcDbEntity
  8
30
  6
Continuous
 62
     0
100
AcDbMText
 10
442.500006238623
 20
420.0
 30
0.0
 40
6.0
 41
0.0
 71
     5
 72
     1
  1
\A1;45
 73
     1
 44
1.0
1001
ACAD
1000
MTEXTBEGIN
1070
    73
1070
     1
1070
    44
1040
1.0
1070
    74
1070
     0
1000
MTEXTEND
  0
POINT
  5
CF74
330
CB63
100
AcDbEntity
  8
DEFPOINTS
  6
Continuous
 62
     0
100
AcDbPoint
 10
420.0000062386229
 20
366.5665648324822
 30
0.0
  0
POINT
  5
CF75
330
CB63
100
AcDbEntity
  8
DEFPOINTS
  6
Continuous
 62
     0
100
AcDbPoint
 10
465.0000062386229
 20
366.5665648324822
 30
0.0
  0
POINT
  5
CF76
330
CB63
100
AcDbEntity
  8
DEFPOINTS
  6
Continuous
 62
     0
100
AcDbPoint
 10
465.0000062386229
 20
415.0
 30
0.0
  0
ENDBLK
  5
CB65
330
CB63
100
AcDbEntity
  8
0
100
AcDbBlockEnd
  0
BLOCK
  5
CB70
330
CB6F
100
AcDbEntity
  8
0
100
AcDbBlockBegin
  2
*D34
 70
     1
 10
0.0
 20
0.0
 30
0.0
  3
*D34
  1

  0
LINE
  5
CF77
330
CB6F
100
AcDbEntity
  8
30
  6
Continuous
 62
     0
370
    -2
100
AcDbLine
 10
465.0
 20
369.5665648324821
 30
0.0
 11
465.0
 21
415.5
 31
0.0
  0
LINE
  5
CF78
330
CB6F
100
AcDbEntity
  8
30
  6
Continuous
 62
     0
370
    -2
100
AcDbLine
 10
490.0
 20
402.5000000000002
 30
0.0
 11
490.0
 21
415.5
 31
0.0
  0
LINE
  5
CF79
330
CB6F
100
AcDbEntity
  8
30
  6
Continuous
 62
     0
370
    -2
100
AcDbLine
 10
467.0
 20
415.0
 30
0.0
 11
488.0
 21
415.0
 31
0.0
  0
INSERT
  5
CF7A
330
CB6F
100
AcDbEntity
  8
30
  6
Continuous
 62
     0
370
    -2
100
AcDbBlockReference
  2
_OPEN
 10
465.0
 20
415.0
 30
0.0
 41
2.0
 42
2.0
 43
2.0
 50
180.0
  0
INSERT
  5
CF7B
330
CB6F
100
AcDbEntity
  8
30
  6
Continuous
 62
     0
370
    -2
100
AcDbBlockReference
  2
_OPEN
 10
490.0
 20
415.0
 30
0.0
 41
2.0
 42
2.0
 43
2.0
  0
MTEXT
  5
CF7C
330
CB6F
100
AcDbEntity
  8
30
  6
Continuous
 62
     0
100
AcDbMText
 10
477.5
 20
420.0
 30
0.0
 40
6.0
 41
0.0
 71
     5
 72
     1
  1
\A1;25
 73
     1
 44
1.0
1001
ACAD
1000
MTEXTBEGIN
1070
    73
1070
     1
1070
    44
1040
1.0
1070
    74
1070
     0
1000
MTEXTEND
  0
POINT
  5
CF7D
330
CB6F
100
AcDbEntity
  8
DEFPOINTS
  6
Continuous
 62
     0
100
AcDbPoint
 10
465.0
 20
366.5665648324822
 30
0.0
  0
POINT
  5
CF7E
330
CB6F
100
AcDbEntity
  8
DEFPOINTS
  6
Continuous
 62
     0
100
AcDbPoint
 10
490.0
 20
399.5000000000002
 30
0.0
  0
POINT
  5
CF7F
330
CB6F
100
AcDbEntity
  8
DEFPOINTS
  6
Continuous
 62
     0
100
AcDbPoint
 10
490.0
 20
415.0
 30
0.0
  0
ENDBLK
  5
CB71
330
CB6F
100
AcDbEntity
  8
0
100
AcDbBlockEnd
  0
BLOCK
  5
CB7C
330
CB7B
100
AcDbEntity
  8
0
100
AcDbBlockBegin
  2
*D35
 70
     1
 10
0.0
 20
0.0
 30
0.0
  3
*D35
  1

  0
LINE
  5
CD2C
330
CB7B
100
AcDbEntity
  8
30
  6
Continuous
 62
     0
370
    -2
100
AcDbLine
 10
771.6
 20
-123.0
 30
0.0
 11
771.6
 21
-130.5
 31
0.0
  0
LINE
  5
CD2D
330
CB7B
100
AcDbEntity
  8
30
  6
Continuous
 62
     0
370
    -2
100
AcDbLine
 10
735.0
 20
-123.0
 30
0.0
 11
735.0
 21
-130.5
 31
0.0
  0
LINE
  5
CD2E
330
CB7B
100
AcDbEntity
  8
30
  6
Continuous
 62
     0
370
    -2
100
AcDbLine
 10
769.6
 20
-130.0
 30
0.0
 11
737.0
 21
-130.0
 31
0.0
  0
INSERT
  5
CD2F
330
CB7B
100
AcDbEntity
  8
30
  6
Continuous
 62
     0
370
    -2
100
AcDbBlockReference
  2
_OPEN
 10
771.6
 20
-130.0
 30
0.0
 41
2.0
 42
2.0
 43
2.0
  0
INSERT
  5
CD30
330
CB7B
100
AcDbEntity
  8
30
  6
Continuous
 62
     0
370
    -2
100
AcDbBlockReference
  2
_OPEN
 10
735.0
 20
-130.0
 30
0.0
 41
2.0
 42
2.0
 43
2.0
 50
180.0
  0
MTEXT
  5
CD31
330
CB7B
100
AcDbEntity
  8
30
  6
Continuous
 62
     0
100
AcDbMText
 10
753.2999999999998
 20
-125.0
 30
0.0
 40
6.0
 41
0.0
 71
     5
 72
     1
  1
\A1;36.6
 73
     1
 44
1.0
1001
ACAD
1000
MTEXTBEGIN
1070
    73
1070
     1
1070
    44
1040
1.0
1070
    74
1070
     0
1000
MTEXTEND
  0
POINT
  5
CD32
330
CB7B
100
AcDbEntity
  8
DEFPOINTS
  6
Continuous
 62
     0
100
AcDbPoint
 10
771.6
 20
-120.0
 30
0.0
  0
POINT
  5
CD33
330
CB7B
100
AcDbEntity
  8
DEFPOINTS
  6
Continuous
 62
     0
100
AcDbPoint
 10
735.0
 20
-120.0
 30
0.0
  0
POINT
  5
CD34
330
CB7B
100
AcDbEntity
  8
DEFPOINTS
  6
Continuous
 62
     0
100
AcDbPoint
 10
735.0
 20
-130.0
 30
0.0
  0
ENDBLK
  5
CB7D
330
CB7B
100
AcDbEntity
  8
0
100
AcDbBlockEnd
  0
BLOCK
  5
CD86
330
CD85
100
AcDbEntity
  8
0
100
AcDbBlockBegin
  2
*D36
 70
     1
 10
0.0
 20
0.0
 30
0.0
  3
*D36
  1

  0
LINE
  5
CD9D
330
CD85
100
AcDbEntity
  8
30
  6
Continuous
 62
     0
370
    -2
100
AcDbLine
 10
493.0
 20
140.0
 30
0.0
 11
570.5
 21
140.0
 31
0.0
  0
LINE
  5
CD9E
330
CD85
100
AcDbEntity
  8
30
  6
Continuous
 62
     0
370
    -2
100
AcDbLine
 10
493.0
 20
-120.0
 30
0.0
 11
570.5
 21
-120.0
 31
0.0
  0
LINE
  5
CD9F
330
CD85
100
AcDbEntity
  8
30
  6
Continuous
 62
     0
370
    -2
100
AcDbLine
 10
570.0
 20
138.0
 30
0.0
 11
570.0
 21
-118.0
 31
0.0
  0
INSERT
  5
CDA0
330
CD85
100
AcDbEntity
  8
30
  6
Continuous
 62
     0
370
    -2
100
AcDbBlockReference
  2
_OPEN
 10
570.0
 20
140.0
 30
0.0
 41
2.0
 42
2.0
 43
2.0
 50
90.0
  0
INSERT
  5
CDA1
330
CD85
100
AcDbEntity
  8
30
  6
Continuous
 62
     0
370
    -2
100
AcDbBlockReference
  2
_OPEN
 10
570.0
 20
-120.0
 30
0.0
 41
2.0
 42
2.0
 43
2.0
 50
270.0
  0
MTEXT
  5
CDA2
330
CD85
100
AcDbEntity
  8
30
  6
Continuous
 62
     0
100
AcDbMText
 10
565.0
 20
10.00000000000008
 30
0.0
 40
6.0
 41
0.0
 71
     5
 72
     1
  1
\A1;260
 11
0.0000000000000001
 21
1.0
 31
0.0
 73
     1
 44
1.0
1001
ACAD
1000
MTEXTBEGIN
1070
    73
1070
     1
1070
    44
1040
1.0
1070
    74
1070
     0
1000
MTEXTEND
  0
POINT
  5
CDA3
330
CD85
100
AcDbEntity
  8
DEFPOINTS
  6
Continuous
 62
     0
100
AcDbPoint
 10
490.0
 20
140.0
 30
0.0
  0
POINT
  5
CDA4
330
CD85
100
AcDbEntity
  8
DEFPOINTS
  6
Continuous
 62
     0
100
AcDbPoint
 10
490.0
 20
-120.0
 30
0.0
  0
POINT
  5
CDA5
330
CD85
100
AcDbEntity
  8
DEFPOINTS
  6
Continuous
 62
     0
100
AcDbPoint
 10
570.0
 20
-120.0
 30
0.0
  0
ENDBLK
  5
CD87
330
CD85
100
AcDbEntity
  8
0
100
AcDbBlockEnd
  0
BLOCK
  5
CD92
330
CD91
100
AcDbEntity
  8
0
100
AcDbBlockBegin
  2
*D37
 70
     1
 10
0.0
 20
0.0
 30
0.0
  3
*D37
  1

  0
LINE
  5
CDA6
330
CD91
100
AcDbEntity
  8
30
  6
Continuous
 62
     0
370
    -2
100
AcDbLine
 10
447.5000000000008
 20
250.0
 30
0.0
 11
570.5
 21
250.0
 31
0.0
  0
LINE
  5
CDA7
330
CD91
100
AcDbEntity
  8
30
  6
Continuous
 62
     0
370
    -2
100
AcDbLine
 10
493.0
 20
140.0
 30
0.0
 11
570.5
 21
140.0
 31
0.0
  0
LINE
  5
CDA8
330
CD91
100
AcDbEntity
  8
30
  6
Continuous
 62
     0
370
    -2
100
AcDbLine
 10
570.0
 20
248.0
 30
0.0
 11
570.0
 21
142.0
 31
0.0
  0
INSERT
  5
CDA9
330
CD91
100
AcDbEntity
  8
30
  6
Continuous
 62
     0
370
    -2
100
AcDbBlockReference
  2
_OPEN
 10
570.0
 20
250.0
 30
0.0
 41
2.0
 42
2.0
 43
2.0
 50
90.0
  0
INSERT
  5
CDAA
330
CD91
100
AcDbEntity
  8
30
  6
Continuous
 62
     0
370
    -2
100
AcDbBlockReference
  2
_OPEN
 10
570.0
 20
140.0
 30
0.0
 41
2.0
 42
2.0
 43
2.0
 50
270.0
  0
MTEXT
  5
CDAB
330
CD91
100
AcDbEntity
  8
30
  6
Continuous
 62
     0
100
AcDbMText
 10
565.0
 20
195.0000000000001
 30
0.0
 40
6.0
 41
0.0
 71
     5
 72
     1
  1
\A1;110
 11
0.0000000000000001
 21
1.0
 31
0.0
 73
     1
 44
1.0
1001
ACAD
1000
MTEXTBEGIN
1070
    73
1070
     1
1070
    44
1040
1.0
1070
    74
1070
     0
1000
MTEXTEND
  0
POINT
  5
CDAC
330
CD91
100
AcDbEntity
  8
DEFPOINTS
  6
Continuous
 62
     0
100
AcDbPoint
 10
444.5000000000008
 20
250.0
 30
0.0
  0
POINT
  5
CDAD
330
CD91
100
AcDbEntity
  8
DEFPOINTS
  6
Continuous
 62
     0
100
AcDbPoint
 10
490.0
 20
140.0
 30
0.0
  0
POINT
  5
CDAE
330
CD91
100
AcDbEntity
  8
DEFPOINTS
  6
Continuous
 62
     0
100
AcDbPoint
 10
570.0
 20
140.0
 30
0.0
  0
ENDBLK
  5
CD93
330
CD91
100
AcDbEntity
  8
0
100
AcDbBlockEnd
  0
BLOCK
  5
CDD4
330
CDD3
100
AcDbEntity
  8
0
100
AcDbBlockBegin
  2
*D38
 70
     1
 10
0.0
 20
0.0
 30
0.0
  3
*D38
  1

  0
LINE
  5
CE4E
330
CDD3
100
AcDbEntity
  8
30
 62
     0
370
    -2
100
AcDbLine
 10
684.6999999999994
 20
-104.2499999999997
 30
0.0
 11
684.6999999999994
 21
-160.5
 31
0.0
  0
LINE
  5
CE4F
330
CDD3
100
AcDbEntity
  8
30
 62
     0
370
    -2
100
AcDbLine
 10
771.6
 20
-157.0
 30
0.0
 11
771.6
 21
-159.5
 31
0.0
  0
LINE
  5
CE50
330
CDD3
100
AcDbEntity
  8
30
 62
     0
370
    -2
100
AcDbLine
 10
686.6999999999992
 20
-160.0
 30
0.0
 11
769.6
 21
-160.0
 31
0.0
  0
INSERT
  5
CE51
330
CDD3
100
AcDbEntity
  8
30
 62
     0
370
    -2
100
AcDbBlockReference
  2
_OPEN
 10
684.6999999999994
 20
-160.0
 30
0.0
 41
2.0
 42
2.0
 43
2.0
 50
180.0
  0
INSERT
  5
CE52
330
CDD3
100
AcDbEntity
  8
30
 62
     0
370
    -2
100
AcDbBlockReference
  2
_OPEN
 10
771.6
 20
-160.0
 30
0.0
 41
2.0
 42
2.0
 43
2.0
  0
MTEXT
  5
CE53
330
CDD3
100
AcDbEntity
  8
30
 62
     0
100
AcDbMText
 10
728.1499999999997
 20
-155.0
 30
0.0
 40
6.0
 41
0.0
 71
     5
 72
     1
  1
\A1; 86.9 
 73
     1
 44
1.0
1001
ACAD
1000
MTEXTBEGIN
1070
    73
1070
     1
1070
    44
1040
1.0
1070
    74
1070
     0
1000
MTEXTEND
  0
POINT
  5
CE54
330
CDD3
100
AcDbEntity
  8
DEFPOINTS
 62
     0
100
AcDbPoint
 10
684.6999999999994
 20
-101.2499999999997
 30
0.0
  0
POINT
  5
CE55
330
CDD3
100
AcDbEntity
  8
DEFPOINTS
 62
     0
100
AcDbPoint
 10
771.6
 20
-160.0
 30
0.0
  0
POINT
  5
CE56
330
CDD3
100
AcDbEntity
  8
DEFPOINTS
 62
     0
100
AcDbPoint
 10
771.6
 20
-160.0
 30
0.0
  0
ENDBLK
  5
CDD5
330
CDD3
100
AcDbEntity
  8
0
100
AcDbBlockEnd
  0
BLOCK
  5
CDE0
330
CDDF
100
AcDbEntity
  8
0
100
AcDbBlockBegin
  2
*D39
 70
     1
 10
0.0
 20
0.0
 30
0.0
  3
*D39
  1

  0
LINE
  5
CE44
330
CDDF
100
AcDbEntity
  8
30
 62
     0
370
    -2
100
AcDbLine
 10
771.6
 20
-157.0
 30
0.0
 11
771.6
 21
-159.5
 31
0.0
  0
LINE
  5
CE45
330
CDDF
100
AcDbEntity
  8
30
 62
     0
370
    -2
100
AcDbLine
 10
784.7
 20
-102.2499999999999
 30
0.0
 11
784.7
 21
-160.5
 31
0.0
  0
LINE
  5
CE46
330
CDDF
100
AcDbEntity
  8
30
 62
     0
370
    -2
100
AcDbLine
 10
773.6
 20
-160.0
 30
0.0
 11
782.7
 21
-160.0
 31
0.0
  0
LINE
  5
CE47
330
CDDF
100
AcDbEntity
  8
30
 62
     0
370
    -2
100
AcDbLine
 10
784.7
 20
-160.0
 30
0.0
 11
808.3
 21
-160.0
 31
0.0
  0
INSERT
  5
CE48
330
CDDF
100
AcDbEntity
  8
30
 62
     0
370
    -2
100
AcDbBlockReference
  2
_OPEN
 10
771.6
 20
-160.0
 30
0.0
 41
2.0
 42
2.0
 43
2.0
 50
180.0
  0
INSERT
  5
CE49
330
CDDF
100
AcDbEntity
  8
30
 62
     0
370
    -2
100
AcDbBlockReference
  2
_OPEN
 10
784.7
 20
-160.0
 30
0.0
 41
2.0
 42
2.0
 43
2.0
  0
MTEXT
  5
CE4A
330
CDDF
100
AcDbEntity
  8
30
 62
     0
100
AcDbMText
 10
797.5
 20
-155.0
 30
0.0
 40
6.0
 41
0.0
 71
     5
 72
     1
  1
\A1; 13.1 
 73
     1
 44
1.0
1001
ACAD
1000
MTEXTBEGIN
1070
    73
1070
     1
1070
    44
1040
1.0
1070
    74
1070
     0
1000
MTEXTEND
  0
POINT
  5
CE4B
330
CDDF
100
AcDbEntity
  8
DEFPOINTS
 62
     0
100
AcDbPoint
 10
771.6
 20
-160.0
 30
0.0
  0
POINT
  5
CE4C
330
CDDF
100
AcDbEntity
  8
DEFPOINTS
 62
     0
100
AcDbPoint
 10
784.7
 20
-99.2499999999999
 30
0.0
  0
POINT
  5
CE4D
330
CDDF
100
AcDbEntity
  8
DEFPOINTS
 62
     0
100
AcDbPoint
 10
784.7
 20
-160.0
 30
0.0
  0
ENDBLK
  5
CDE1
330
CDDF
100
AcDbEntity
  8
0
100
AcDbBlockEnd
  0
BLOCK
  5
CFEB
330
CFEA
100
AcDbEntity
  8
0
100
AcDbBlockBegin
  2
*D40
 70
     1
 10
0.0
 20
0.0
 30
0.0
  3
*D40
  1

  0
LINE
  5
D008
330
CFEA
100
AcDbEntity
  8
30
  6
Continuous
 62
     0
370
    -2
100
AcDbLine
 10
363.0000000000009
 20
124.0
 30
0.0
 11
249.5
 21
124.0
 31
0.0
  0
LINE
  5
D009
330
CFEA
100
AcDbEntity
  8
30
  6
Continuous
 62
     0
370
    -2
100
AcDbLine
 10
363.0000000000009
 20
-104.0
 30
0.0
 11
249.5
 21
-103.9999999999999
 31
0.0
  0
LINE
  5
D00A
330
CFEA
100
AcDbEntity
  8
30
  6
Continuous
 62
     0
370
    -2
100
AcDbLine
 10
250.0
 20
122.0
 30
0.0
 11
250.0
 21
-102.0
 31
0.0
  0
INSERT
  5
D00B
330
CFEA
100
AcDbEntity
  8
30
  6
Continuous
 62
     0
370
    -2
100
AcDbBlockReference
  2
_OPEN
 10
250.0
 20
124.0
 30
0.0
 41
2.0
 42
2.0
 43
2.0
 50
90.0
  0
INSERT
  5
D00C
330
CFEA
100
AcDbEntity
  8
30
  6
Continuous
 62
     0
370
    -2
100
AcDbBlockReference
  2
_OPEN
 10
250.0
 20
-104.0
 30
0.0
 41
2.0
 42
2.0
 43
2.0
 50
270.0
  0
MTEXT
  5
D00D
330
CFEA
100
AcDbEntity
  8
30
  6
Continuous
 62
     0
100
AcDbMText
 10
245.0
 20
10.00000000000007
 30
0.0
 40
6.0
 41
0.0
 71
     5
 72
     1
  1
\A1;228
 11
0.0000000000000001
 21
1.0
 31
0.0
 73
     1
 44
1.0
1001
ACAD
1000
MTEXTBEGIN
1070
    73
1070
     1
1070
    44
1040
1.0
1070
    74
1070
     0
1000
MTEXTEND
  0
POINT
  5
D00E
330
CFEA
100
AcDbEntity
  8
DEFPOINTS
  6
Continuous
 62
     0
100
AcDbPoint
 10
366.0000000000009
 20
124.0
 30
0.0
  0
POINT
  5
D00F
330
CFEA
100
AcDbEntity
  8
DEFPOINTS
  6
Continuous
 62
     0
100
AcDbPoint
 10
366.0000000000009
 20
-104.0
 30
0.0
  0
POINT
  5
D010
330
CFEA
100
AcDbEntity
  8
DEFPOINTS
  6
Continuous
 62
     0
100
AcDbPoint
 10
250.0
 20
-104.0
 30
0.0
  0
ENDBLK
  5
CFEC
330
CFEA
100
AcDbEntity
  8
0
100
AcDbBlockEnd
  0
ENDSEC
  0
SECTION
  2
ENTITIES
  0
LINE
  5
C8A8
330
1E
100
AcDbEntity
  8
16
100
AcDbLine
 10
798.0096179068367
 20
9.999999999999886
 30
0.0
 11
614.2286236157302
 21
9.999999999999886
 31
0.0
  0
LINE
  5
C8A9
330
1E
100
AcDbEntity
  8
16
100
AcDbLine
 10
790.0
 20
-400.0
 30
0.0
 11
630.0
 21
-400.0
 31
0.0
  0
LINE
  5
C8AA
330
1E
100
AcDbEntity
  8
16
100
AcDbLine
 10
420.0
 20
-540.0
 30
0.0
 11
420.0
 21
-260.0
 31
0.0
  0
LINE
  5
C8AB
330
1E
100
AcDbEntity
  8
16
100
AcDbLine
 10
500.0
 20
-400.0
 30
0.0
 11
340.0
 21
-400.0
 31
0.0
  0
LINE
  5
C8AC
330
1E
100
AcDbEntity
  8
16
100
AcDbLine
 10
710.0
 20
-540.0
 30
0.0
 11
710.0
 21
-260.0
 31
0.0
  0
LINE
  5
C8AD
330
1E
100
AcDbEntity
  8
10
  6
CONTINOUS
100
AcDbLine
 10
659.0
 20
11.49999999999988
 30
0.0
 11
659.0
 21
-35.00000000000011
 31
0.0
  0
LINE
  5
C8AE
330
1E
100
AcDbEntity
  8
10
  6
CONTINOUS
100
AcDbLine
 10
770.0
 20
140.0
 30
0.0
 11
770.0
 21
-120.0
 31
0.0
  0
LINE
  5
C8AF
330
1E
100
AcDbEntity
  8
10
  6
CONTINOUS
100
AcDbLine
 10
663.0
 20
55.0
 30
0.0
 11
663.0
 21
-35.00000000000011
 31
0.0
  0
LINE
  5
C8B0
330
1E
100
AcDbEntity
  8
10
  6
CONTINOUS
100
AcDbLine
 10
667.0
 20
61.0
 30
0.0
 11
667.0
 21
-41.00000000000011
 31
0.0
  0
LINE
  5
C8B1
330
1E
100
AcDbEntity
  8
10
  6
CONTINOUS
100
AcDbLine
 10
672.9999999999997
 20
-120.0
 30
0.0
 11
770.0
 21
-120.0
 31
0.0
  0
LINE
  5
C8B2
330
1E
100
AcDbEntity
  8
10
  6
CONTINOUS
100
AcDbLine
 10
667.0
 20
-41.00000000000011
 30
0.0
 11
672.9999999999997
 21
-41.00000000000011
 31
0.0
  0
LINE
  5
C8B3
330
1E
100
AcDbEntity
  8
10
  6
CONTINOUS
100
AcDbLine
 10
659.0
 20
-35.00000000000011
 30
0.0
 11
667.0
 21
-35.00000000000011
 31
0.0
  0
LINE
  5
C8B4
330
1E
100
AcDbEntity
  8
10
  6
CONTINOUS
100
AcDbLine
 10
672.9999999999997
 20
-41.00000000000011
 30
0.0
 11
672.9999999999997
 21
-120.0
 31
0.0
  0
LINE
  5
C8B5
330
1E
100
AcDbEntity
  8
10
  6
CONTINOUS
100
AcDbLine
 10
770.0
 20
140.0
 30
0.0
 11
672.9999999999997
 21
140.0
 31
0.0
  0
LINE
  5
C8B6
330
1E
100
AcDbEntity
  8
10
  6
CONTINOUS
100
AcDbLine
 10
659.0
 20
27.03370272535199
 30
0.0
 11
628.3490118975477
 21
38.03853193396594
 31
0.0
  0
LINE
  5
C8B7
330
1E
100
AcDbEntity
  8
10
  6
CONTINOUS
100
AcDbLine
 10
659.0
 20
39.7837088936791
 30
0.0
 11
632.4040125135873
 21
49.33264411704192
 31
0.0
  0
LINE
  5
C8B8
330
1E
100
AcDbEntity
  8
10
  6
CONTINOUS
100
AcDbLine
 10
632.4040125135873
 20
49.33264411704192
 30
0.0
 11
628.3490118975472
 21
38.0385319339656
 31
0.0
  0
LINE
  5
C8B9
330
1E
100
AcDbEntity
  8
10
  6
CONTINOUS
100
AcDbLine
 10
648.1987593445673
 20
41.53674952147139
 30
0.0
 11
645.4954256005404
 21
34.00734139942028
 31
0.0
  0
LINE
  5
C8BA
330
1E
100
AcDbEntity
  8
10
  6
CONTINOUS
100
AcDbLine
 10
659.0
 20
55.0
 30
0.0
 11
659.0
 21
9.999999999999886
 31
0.0
  0
LINE
  5
C8BB
330
1E
100
AcDbEntity
  8
10
  6
CONTINOUS
100
AcDbLine
 10
659.0
 20
29.15870375340671
 30
0.0
 11
645.4954256005404
 21
34.00734139942006
 31
0.0
  0
LINE
  5
C8BC
330
1E
100
AcDbEntity
  8
10
  6
CONTINOUS
100
AcDbLine
 10
659.0
 20
37.65870786562459
 30
0.0
 11
648.1987593445673
 21
41.53674952147081
 31
0.0
  0
LINE
  5
C8BD
330
1E
100
AcDbEntity
  8
10
  6
CONTINOUS
100
AcDbLine
 10
659.0
 20
55.0
 30
0.0
 11
667.0
 21
55.0
 31
0.0
  0
LINE
  5
C8BE
330
1E
100
AcDbEntity
  8
10
  6
CONTINOUS
100
AcDbLine
 10
667.0
 20
61.0
 30
0.0
 11
672.9999999999997
 21
61.0
 31
0.0
  0
LINE
  5
C8BF
330
1E
100
AcDbEntity
  8
10
  6
CONTINOUS
100
AcDbLine
 10
672.9999999999997
 20
140.0
 30
0.0
 11
672.9999999999997
 21
61.0
 31
0.0
  0
LINE
  5
C8C0
330
1E
100
AcDbEntity
  8
12
  6
DASHED
100
AcDbLine
 10
684.6999999999994
 20
-99.2499999999999
 30
0.0
 11
770.0
 21
-99.2499999999999
 31
0.0
  0
LINE
  5
C8C1
330
1E
100
AcDbEntity
  8
12
  6
DASHED
100
AcDbLine
 10
684.6999999999994
 20
-94.74999999999978
 30
0.0
 11
770.0
 21
-94.74999999999978
 31
0.0
  0
LINE
  5
C8C2
330
1E
100
AcDbEntity
  8
12
  6
DASHED
100
AcDbLine
 10
669.0
 20
-96.99999999999977
 30
0.0
 11
794.0
 21
-96.99999999999977
 31
0.0
  0
LINE
  5
C8C3
330
1E
100
AcDbEntity
  8
12
  6
DASHED
100
AcDbLine
 10
672.9999999999997
 20
-101.2499999999997
 30
0.0
 11
684.6999999999994
 21
-101.2499999999997
 31
0.0
  0
LINE
  5
C8C4
330
1E
100
AcDbEntity
  8
12
  6
DASHED
100
AcDbLine
 10
672.9999999999997
 20
-92.74999999999977
 30
0.0
 11
684.6999999999994
 21
-92.74999999999977
 31
0.0
  0
LINE
  5
C8C5
330
1E
100
AcDbEntity
  8
12
  6
DASHED
100
AcDbLine
 10
678.6999999999996
 20
-92.74999999999977
 30
0.0
 11
678.6999999999996
 21
-101.2499999999997
 31
0.0
  0
LINE
  5
C8C6
330
1E
100
AcDbEntity
  8
12
  6
DASHED
100
AcDbLine
 10
684.6999999999994
 20
-92.74999999999977
 30
0.0
 11
684.6999999999994
 21
-101.2499999999997
 31
0.0
  0
LINE
  5
C8C7
330
1E
100
AcDbEntity
  8
12
  6
DASHED
100
AcDbLine
 10
684.6999999999994
 20
-99.2499999999999
 30
0.0
 11
684.6999999999994
 21
-101.2499999999997
 31
0.0
  0
LINE
  5
C8C8
330
1E
100
AcDbEntity
  8
12
  6
DASHED
100
AcDbLine
 10
684.6999999999994
 20
-92.74999999999977
 30
0.0
 11
684.6999999999994
 21
-94.74999999999978
 31
0.0
  0
LINE
  5
C8C9
330
1E
100
AcDbEntity
  8
12
  6
DASHED
100
AcDbLine
 10
770.0
 20
-99.2499999999999
 30
0.0
 11
784.7
 21
-99.2499999999999
 31
0.0
  0
LINE
  5
C8CA
330
1E
100
AcDbEntity
  8
12
  6
DASHED
100
AcDbLine
 10
770.0
 20
-94.74999999999978
 30
0.0
 11
784.7
 21
-94.74999999999978
 31
0.0
  0
LINE
  5
C8CB
330
1E
100
AcDbEntity
  8
12
  6
DASHED
100
AcDbLine
 10
784.7
 20
-94.74999999999978
 30
0.0
 11
784.7
 21
-99.2499999999999
 31
0.0
  0
LINE
  5
C8CC
330
1E
100
AcDbEntity
  8
24
  6
CONTINOUS
100
AcDbLine
 10
816.011418228175
 20
174.7621828604459
 30
0.0
 11
816.0114182281752
 21
159.7621828604459
 31
0.0
  0
LINE
  5
C8CD
330
1E
100
AcDbEntity
  8
24
  6
CONTINOUS
100
AcDbLine
 10
828.5114182281752
 20
182.9120863596154
 30
0.0
 11
828.5114182281752
 21
155.2621828604459
 31
0.0
  0
LINE
  5
C8CE
330
1E
100
AcDbEntity
  8
24
  6
CONTINOUS
100
AcDbLine
 10
803.5114182281752
 20
184.4034650513458
 30
0.0
 11
803.5114182281752
 21
155.2621828604459
 31
0.0
  0
LINE
  5
C8CF
330
1E
100
AcDbEntity
  8
24
  6
CONTINOUS
100
AcDbLine
 10
803.5114182281752
 20
155.2621828604459
 30
0.0
 11
828.5114182281752
 21
155.2621828604459
 31
0.0
  0
LINE
  5
C8D0
330
1E
100
AcDbEntity
  8
24
  6
CONTINOUS
100
AcDbLine
 10
808.5114182281749
 20
167.2621828604459
 30
0.0
 11
823.5114182281748
 21
167.2621828604459
 31
0.0
  0
CIRCLE
  5
C8D1
330
1E
100
AcDbEntity
  8
24
  6
CONTINOUS
100
AcDbCircle
 10
816.011418228175
 20
167.2621828604459
 30
0.0
 40
5.5
  0
ARC
  5
C8D2
330
1E
100
AcDbEntity
  8
24
  6
CONTINOUS
100
AcDbCircle
 10
820.9990000491215
 20
187.7581008892937
 30
0.0
 40
7.5
100
AcDbArc
 50
251.3586110284597
 51
294.2039969225344
  0
LINE
  5
C8D3
330
1E
100
AcDbEntity
  8
24
  6
CONTINOUS
100
AcDbLine
 10
807.1935691810724
 20
183.4879699641258
 30
0.0
 11
818.6016710307807
 21
180.6515677276304
 31
0.0
  0
ARC
  5
C8D4
330
1E
100
AcDbEntity
  8
24
  6
CONTINOUS
100
AcDbCircle
 10
804.6364182281749
 20
175.9076679250182
 30
0.0
 40
8.0
100
AcDbArc
 50
71.35861102845979
 51
97.54313196795749
  0
LINE
  5
C8D5
330
1E
100
AcDbEntity
  8
24
  6
CONTINOUS
100
AcDbLine
 10
824.0739000129911
 20
180.9174145047124
 30
0.0
 11
828.5114182281752
 21
182.9120863596154
 31
0.0
  0
CIRCLE
  5
C8D6
330
1E
100
AcDbEntity
  8
12
  6
Continuous
 62
     3
100
AcDbCircle
 10
-442.4999999999998
 20
-293.0
 30
0.0
 40
3.0
210
0.0
220
0.0
230
-1.0
  0
CIRCLE
  5
C8D7
330
1E
100
AcDbEntity
  8
12
  6
Continuous
 62
     3
100
AcDbCircle
 10
397.5
 20
-293.0
 30
0.0
 40
3.0
  0
LINE
  5
C8D8
330
1E
100
AcDbEntity
  8
18
  6
DIVIDE
100
AcDbLine
 10
350.0
 20
-270.0
 30
0.0
 11
350.0
 21
-529.9999999999998
 31
0.0
  0
LINE
  5
C8D9
330
1E
100
AcDbEntity
  8
18
  6
DIVIDE
100
AcDbLine
 10
490.0
 20
-529.9999999999998
 30
0.0
 11
490.0
 21
-270.0
 31
0.0
  0
LINE
  5
C8DA
330
1E
100
AcDbEntity
  8
12
  6
Continuous
 62
     3
100
AcDbLine
 10
442.4999999999998
 20
-286.0
 30
0.0
 11
442.4999999999998
 21
-300.0
 31
0.0
  0
LINE
  5
C8DB
330
1E
100
AcDbEntity
  8
12
  6
Continuous
 62
     3
100
AcDbLine
 10
397.5
 20
-286.0
 30
0.0
 11
397.5
 21
-300.0
 31
0.0
  0
LINE
  5
C8DC
330
1E
100
AcDbEntity
  8
18
  6
DIVIDE
100
AcDbLine
 10
350.0
 20
-529.9999999999998
 30
0.0
 11
490.0
 21
-529.9999999999998
 31
0.0
  0
LINE
  5
C8DD
330
1E
100
AcDbEntity
  8
12
  6
Continuous
 62
     3
100
AcDbLine
 10
390.5
 20
-506.9999999999998
 30
0.0
 11
404.4999999999998
 21
-506.9999999999998
 31
0.0
  0
CIRCLE
  5
C8DE
330
1E
100
AcDbEntity
  8
12
  6
Continuous
 62
     3
100
AcDbCircle
 10
-397.5
 20
-506.9999999999998
 30
0.0
 40
3.0
210
0.0
220
0.0
230
-1.0
  0
LINE
  5
C8DF
330
1E
100
AcDbEntity
  8
12
  6
Continuous
 62
     3
100
AcDbLine
 10
397.5
 20
-499.9999999999998
 30
0.0
 11
397.5
 21
-513.9999999999998
 31
0.0
  0
LINE
  5
C8E0
330
1E
100
AcDbEntity
  8
12
  6
Continuous
 62
     3
100
AcDbLine
 10
435.5
 20
-506.9999999999998
 30
0.0
 11
449.5
 21
-506.9999999999998
 31
0.0
  0
CIRCLE
  5
C8E1
330
1E
100
AcDbEntity
  8
12
  6
Continuous
 62
     3
100
AcDbCircle
 10
442.4999999999998
 20
-506.9999999999998
 30
0.0
 40
3.0
  0
LINE
  5
C8E2
330
1E
100
AcDbEntity
  8
12
  6
Continuous
 62
     3
100
AcDbLine
 10
442.4999999999998
 20
-499.9999999999998
 30
0.0
 11
442.4999999999998
 21
-513.9999999999998
 31
0.0
  0
LINE
  5
C8E3
330
1E
100
AcDbEntity
  8
18
  6
DIVIDE
100
AcDbLine
 10
490.0
 20
-270.0
 30
0.0
 11
350.0
 21
-270.0
 31
0.0
  0
LINE
  5
C8E4
330
1E
100
AcDbEntity
  8
12
  6
Continuous
 62
     3
100
AcDbLine
 10
390.5
 20
-293.0
 30
0.0
 11
404.4999999999998
 21
-293.0
 31
0.0
  0
LINE
  5
C8E5
330
1E
100
AcDbEntity
  8
12
  6
Continuous
 62
     3
100
AcDbLine
 10
435.5
 20
-293.0
 30
0.0
 11
449.5
 21
-293.0
 31
0.0
  0
ARC
  5
C8E6
330
1E
100
AcDbEntity
  8
11
 48
2.0
100
AcDbCircle
 10
763.0
 20
-440.0
 30
0.0
 40
6.0
100
AcDbArc
 50
270.0
 51
0.0
  0
ARC
  5
C8E7
330
1E
100
AcDbEntity
  8
11
 48
2.0
100
AcDbCircle
 10
657.0
 20
-440.0
 30
0.0
 40
6.0
100
AcDbArc
 50
180.0
 51
270.0
  0
LINE
  5
C8E8
330
1E
100
AcDbEntity
  8
18
  6
DIVIDE
100
AcDbLine
 10
640.0
 20
-269.9999999999999
 30
0.0
 11
640.0
 21
-530.0
 31
0.0
  0
LINE
  5
C8E9
330
1E
100
AcDbEntity
  8
18
  6
DIVIDE
100
AcDbLine
 10
780.0
 20
-530.0
 30
0.0
 11
780.0
 21
-269.9999999999999
 31
0.0
  0
LINE
  5
C8EA
330
1E
100
AcDbEntity
  8
11
 48
2.0
100
AcDbLine
 10
657.0
 20
-446.0
 30
0.0
 11
763.0
 21
-446.0
 31
0.0
  0
LINE
  5
C8EB
330
1E
100
AcDbEntity
  8
18
  6
DIVIDE
100
AcDbLine
 10
640.0
 20
-530.0
 30
0.0
 11
780.0
 21
-530.0
 31
0.0
  0
LINE
  5
C8EC
330
1E
100
AcDbEntity
  8
11
 48
2.0
100
AcDbLine
 10
657.0
 20
-353.9999999999998
 30
0.0
 11
763.0
 21
-353.9999999999998
 31
0.0
  0
LINE
  5
C8ED
330
1E
100
AcDbEntity
  8
18
  6
DIVIDE
100
AcDbLine
 10
780.0
 20
-269.9999999999999
 30
0.0
 11
640.0
 21
-269.9999999999999
 31
0.0
  0
LINE
  5
C8EE
330
1E
100
AcDbEntity
  8
11
 48
2.0
100
AcDbLine
 10
651.0
 20
-359.9999999999998
 30
0.0
 11
651.0
 21
-440.0
 31
0.0
  0
ARC
  5
C8EF
330
1E
100
AcDbEntity
  8
11
 48
2.0
100
AcDbCircle
 10
657.0
 20
-359.9999999999998
 30
0.0
 40
6.0
100
AcDbArc
 50
90.0
 51
180.0
  0
LINE
  5
C8F0
330
1E
100
AcDbEntity
  8
11
 48
2.0
100
AcDbLine
 10
769.0
 20
-359.9999999999998
 30
0.0
 11
769.0
 21
-440.0
 31
0.0
  0
ARC
  5
C8F1
330
1E
100
AcDbEntity
  8
11
 48
2.0
100
AcDbCircle
 10
763.0
 20
-359.9999999999998
 30
0.0
 40
6.0
100
AcDbArc
 50
0.0
 51
90.0
  0
DIMENSION
  5
C8F2
330
1E
100
AcDbEntity
  8
30
  6
Continuous
100
AcDbDimension
  2
*D14
 10
320.0
 20
-506.9999999999998
 30
0.0
 11
315.0000000000001
 21
-399.9999999999998
 31
0.0
 70
    32
 71
     5
 42
213.9999999999999
  3
STANDARD1
100
AcDbAlignedDimension
 13
385.9543038626071
 23
-293.0
 33
0.0
 14
385.9543038626071
 24
-506.9999999999998
 34
0.0
 50
90.0
100
AcDbRotatedDimension
  0
DIMENSION
  5
C8F3
330
1E
100
AcDbEntity
  8
30
  6
Continuous
100
AcDbDimension
  2
*D15
 10
442.4999999999998
 20
-550.0
 30
0.0
 11
420.0
 21
-545.0
 31
0.0
 70
    32
 71
     5
 42
45.0
  3
STANDARD1
100
AcDbAlignedDimension
 13
397.5
 23
-513.9999999999998
 33
0.0
 14
442.4999999999998
 24
-513.9999999999998
 34
0.0
100
AcDbRotatedDimension
  0
DIMENSION
  5
C8F4
330
1E
100
AcDbEntity
  8
30
  6
Continuous
100
AcDbDimension
  2
*D16
 10
762.9999999999995
 20
-360.0000000000004
 30
0.0
 11
799.9930829733998
 21
-346.0312994595852
 31
0.0
 70
   164
 71
     5
 42
6.000000000000683
  3
STANDARD
100
AcDbRadialDimension
 15
768.4700873851312
 25
-357.5346107814322
 35
0.0
 40
0.0
1001
ACAD
1000
DSTYLE
1002
{
1070
   140
1040
6.0
1070
    79
1070
     3
1070
   288
1070
     1
1002
}
  0
DIMENSION
  5
C8F5
330
1E
100
AcDbEntity
  8
30
  6
Continuous
100
AcDbDimension
  2
*D17
 10
769.0
 20
-470.0
 30
0.0
 11
710.0
 21
-465.0
 31
0.0
 70
    32
 71
     5
 42
118.0
  3
STANDARD1
100
AcDbAlignedDimension
 13
651.0
 23
-440.0
 33
0.0
 14
769.0
 24
-440.0
 34
0.0
100
AcDbRotatedDimension
  0
DIMENSION
  5
C8F6
330
1E
100
AcDbEntity
  8
30
  6
Continuous
100
AcDbDimension
  2
*D18
 10
800.0
 20
-446.0
 30
0.0
 11
795.0000000000001
 21
-399.9999999999998
 31
0.0
 70
    32
 71
     5
 42
92.00000000000013
  3
STANDARD1
100
AcDbAlignedDimension
 13
763.0
 23
-353.9999999999998
 33
0.0
 14
763.0
 24
-446.0
 34
0.0
 50
90.0
100
AcDbRotatedDimension
  0
DIMENSION
  5
C8F7
330
1E
100
AcDbEntity
  8
30
  6
Continuous
100
AcDbDimension
  2
*D19
 10
828.5114182281752
 20
139.6759028429515
 30
0.0
 11
816.0114182281752
 21
144.6759028429514
 31
0.0
 70
    32
 71
     5
 42
25.0
  3
STANDARD1
100
AcDbAlignedDimension
 13
803.5114182281752
 23
155.2621828604459
 33
0.0
 14
828.5114182281752
 24
155.2621828604459
 34
0.0
100
AcDbRotatedDimension
  0
DIMENSION
  5
C8F8
330
1E
100
AcDbEntity
  8
30
  6
Continuous
100
AcDbDimension
  2
*D20
 10
844.9537479063637
 20
167.2621828604459
 30
0.0
 11
839.953747906364
 21
175.262182860446
 31
0.0
 70
    32
 71
     5
 42
12.0
  3
STANDARD1
100
AcDbAlignedDimension
 13
828.5114182281752
 23
155.2621828604459
 33
0.0
 14
823.5114182281748
 24
167.2621828604459
 34
0.0
 50
90.0
100
AcDbRotatedDimension
  0
DIMENSION
  5
C8F9
330
1E
100
AcDbEntity
  8
30
  6
Continuous
100
AcDbDimension
  2
*D21
 10
812.5683450797733
 20
162.9732147683801
 30
0.0
 11
841.4762583619749
 21
190.2634688469851
 31
0.0
 70
   163
 71
     5
 42
11.00000000000034
  3
STANDARD
100
AcDbDiametricDimension
 15
819.4544913765762
 25
171.5511509525116
 35
0.0
 40
0.0
1001
ACAD
1000
DSTYLE
1002
{
1070
   140
1040
6.0
1070
    79
1070
     3
1070
   288
1070
     1
1002
}
  0
DIMENSION
  5
C8FA
330
1E
100
AcDbEntity
  8
30
  6
Continuous
100
AcDbDimension
  2
*D22
 10
240.0
 20
140.0
 30
0.0
 11
235.0
 21
179.0
 31
0.0
 70
    32
 71
     5
 42
77.99999999999997
  3
STANDARD1
100
AcDbAlignedDimension
 13
290.0000000000009
 23
218.0
 33
0.0
 14
350.0000000000008
 24
140.0
 34
0.0
 50
90.0
100
AcDbRotatedDimension
  0
DIMENSION
  5
C8FB
330
1E
100
AcDbEntity
  8
30
  6
Continuous
100
AcDbDimension
  2
*D23
 10
240.0
 20
-120.0
 30
0.0
 11
235.0
 21
10.00000000000006
 31
0.0
 70
    32
 71
     5
 42
260.0
  3
STANDARD1
100
AcDbAlignedDimension
 13
350.0000000000008
 23
140.0
 33
0.0
 14
350.0000000000008
 24
-120.0
 34
0.0
 50
90.0
100
AcDbRotatedDimension
  0
DIMENSION
  5
C8FC
330
1E
100
AcDbEntity
  8
30
  6
Continuous
100
AcDbDimension
  2
*D24
 10
230.0
 20
-198.0000000000003
 30
0.0
 11
225.0
 21
9.9999999999999
 31
0.0
 70
    32
 71
     5
 42
416.0000000000001
  3
STANDARD1
100
AcDbAlignedDimension
 13
290.0000000000009
 23
218.0
 33
0.0
 14
290.0000000000009
 24
-198.0000000000003
 34
0.0
 50
90.0
100
AcDbRotatedDimension
  0
DIMENSION
  5
C8FD
330
1E
100
AcDbEntity
  8
30
  6
Continuous
100
AcDbDimension
  2
*D25
 10
465.0
 20
-210.0
 30
0.0
 11
420.0
 21
-205.0
 31
0.0
 70
    32
 71
     5
 42
90.0
  3
STANDARD1
100
AcDbAlignedDimension
 13
375.0
 23
-113.0000000000002
 33
0.0
 14
465.0
 24
-113.0000000000002
 34
0.0
100
AcDbRotatedDimension
  0
LINE
  5
C8FE
330
1E
100
AcDbEntity
  8
16
100
AcDbLine
 10
420.0
 20
253.0
 30
0.0
 11
420.0
 21
403.0
 31
0.0
  0
DIMENSION
  5
C8FF
330
1E
100
AcDbEntity
  8
30
  6
Continuous
100
AcDbDimension
  2
*D26
 10
771.6
 20
-180.0
 30
0.0
 11
719.2999999999998
 21
-175.0
 31
0.0
 70
    32
 71
     5
 42
104.6
  3
STANDARD1
100
AcDbAlignedDimension
 13
667.0
 23
-179.8060655566291
 33
0.0
 14
771.6
 24
-170.0
 34
0.0
100
AcDbRotatedDimension
  0
DIMENSION
  5
C900
330
1E
100
AcDbEntity
  8
30
  6
Continuous
100
AcDbDimension
  2
*D27
 10
667.0
 20
-180.0
 30
0.0
 11
663.0
 21
-180.0
 31
0.0
 70
   160
 71
     5
 42
8.0
  3
STANDARD1
100
AcDbAlignedDimension
 13
659.0
 23
-35.00000000000011
 33
0.0
 14
667.0
 24
-41.00000000000011
 34
0.0
100
AcDbRotatedDimension
  0
DIMENSION
  5
C901
330
1E
100
AcDbEntity
  8
30
  6
Continuous
100
AcDbDimension
  2
*D28
 10
771.6
 20
-220.0
 30
0.0
 11
698.2999999999998
 21
-215.0
 31
0.0
 70
    32
 71
     5
 42
146.6
  3
STANDARD1
100
AcDbAlignedDimension
 13
625.0
 23
9.999999999999772
 33
0.0
 14
771.6
 24
-198.0000000000003
 34
0.0
100
AcDbRotatedDimension
  0
ARC
  5
C902
330
1E
100
AcDbEntity
  8
30
  6
Continuous
100
AcDbCircle
 10
-70.05586445147582
 20
107.2389689581607
 30
0.0
 40
701.8248156003281
100
AcDbArc
 50
352.0359562820045
 51
354.3414001886372
  0
DIMENSION
  5
C903
330
1E
100
AcDbEntity
  8
30
  6
Continuous
100
AcDbDimension
  2
*D29
 10
399.3040702005631
 20
-295.3969419499518
 30
0.0
 11
362.5075517935828
 21
-260.6800347238195
 31
0.0
 70
   163
  1
M6
 71
     5
 42
5.999999999999943
  3
STANDARD
100
AcDbDiametricDimension
 15
395.6959297994367
 25
-290.603058050048
 35
0.0
 40
0.0
1001
ACAD
1000
DSTYLE
1002
{
1070
   140
1040
6.0
1070
    79
1070
     3
1070
   288
1070
     1
1002
}
  0
LINE
  5
C904
330
1E
100
AcDbEntity
  8
24
  6
CONTINOUS
100
AcDbLine
 10
734.0
 20
140.0
 30
0.0
 11
734.0
 21
108.0
 31
0.0
  0
LINE
  5
C905
330
1E
100
AcDbEntity
  8
24
  6
CONTINOUS
100
AcDbLine
 10
737.9999999999999
 20
140.0
 30
0.0
 11
737.9999999999999
 21
108.0
 31
0.0
  0
LINE
  5
C906
330
1E
100
AcDbEntity
  8
24
  6
CONTINOUS
100
AcDbLine
 10
734.0
 20
108.0
 30
0.0
 11
737.9999999999999
 21
108.0
 31
0.0
  0
LINE
  5
C907
330
1E
100
AcDbEntity
  8
24
  6
CONTINOUS
100
AcDbLine
 10
725.0999999999997
 20
115.1000000000001
 30
0.0
 11
731.4999999999996
 21
115.1000000000001
 31
0.0
  0
LINE
  5
C908
330
1E
100
AcDbEntity
  8
24
  6
CONTINOUS
100
AcDbLine
 10
725.0999999999997
 20
132.8999999999999
 30
0.0
 11
731.4999999999996
 21
132.8999999999999
 31
0.0
  0
LINE
  5
C909
330
1E
100
AcDbEntity
  8
24
  6
CONTINOUS
100
AcDbLine
 10
720.0999999999997
 20
124.0
 30
0.0
 11
743.0
 21
124.0
 31
0.0
  0
LINE
  5
C90A
330
1E
100
AcDbEntity
  8
24
  6
CONTINOUS
100
AcDbLine
 10
725.0999999999997
 20
132.8999999999999
 30
0.0
 11
725.0999999999997
 21
115.1000000000001
 31
0.0
  0
LINE
  5
C90B
330
1E
100
AcDbEntity
  8
24
  6
CONTINOUS
100
AcDbLine
 10
731.4999999999996
 20
133.2
 30
0.0
 11
731.4999999999996
 21
114.7999999999999
 31
0.0
  0
LINE
  5
C90C
330
1E
100
AcDbEntity
  8
24
  6
CONTINOUS
100
AcDbLine
 10
731.4999999999996
 20
114.7999999999999
 30
0.0
 11
734.0
 21
114.7999999999999
 31
0.0
  0
LINE
  5
C90D
330
1E
100
AcDbEntity
  8
24
  6
CONTINOUS
100
AcDbLine
 10
731.4999999999996
 20
133.2
 30
0.0
 11
734.0
 21
133.2
 31
0.0
  0
DIMENSION
  5
C90E
330
1E
100
AcDbEntity
  8
30
  6
Continuous
100
AcDbDimension
  2
*D30
 10
734.0
 20
150.0
 30
0.0
 11
752.7999999999998
 21
155.0
 31
0.0
 70
    32
 71
     5
 42
37.60000000000002
  3
STANDARD1
100
AcDbAlignedDimension
 13
771.6
 23
140.0
 33
0.0
 14
734.0
 24
140.0
 34
0.0
100
AcDbRotatedDimension
  0
LINE
  5
C90F
330
1E
100
AcDbEntity
  8
10
  6
CONTINOUS
100
AcDbLine
 10
490.0
 20
302.5
 30
0.0
 11
350.0
 21
302.5
 31
0.0
  0
LINE
  5
C910
330
1E
100
AcDbEntity
  8
10
  6
CONTINOUS
100
AcDbLine
 10
490.0
 20
296.5
 30
0.0
 11
350.0
 21
296.5
 31
0.0
  0
LINE
  5
C911
330
1E
100
AcDbEntity
  8
10
  6
CONTINOUS
100
AcDbLine
 10
478.0
 20
292.5000000000001
 30
0.0
 11
362.0
 21
292.5000000000001
 31
0.0
  0
LINE
  5
C912
330
1E
100
AcDbEntity
  8
10
  6
CONTINOUS
100
AcDbLine
 10
490.0
 20
399.5000000000002
 30
0.0
 11
350.0
 21
399.5000000000002
 31
0.0
  0
LINE
  5
C913
330
1E
100
AcDbEntity
  8
10
  6
CONTINOUS
100
AcDbLine
 10
350.0
 20
296.5
 30
0.0
 11
350.0
 21
399.5000000000002
 31
0.0
  0
LINE
  5
C914
330
1E
100
AcDbEntity
  8
10
  6
CONTINOUS
100
AcDbLine
 10
362.0
 20
292.5000000000001
 30
0.0
 11
362.0
 21
296.5
 31
0.0
  0
LINE
  5
C915
330
1E
100
AcDbEntity
  8
10
  6
CONTINOUS
100
AcDbLine
 10
437.0
 20
260.0
 30
0.0
 11
402.9999999999998
 21
260.0
 31
0.0
  0
LINE
  5
C916
330
1E
100
AcDbEntity
  8
10
  6
CONTINOUS
100
AcDbLine
 10
438.0
 20
288.5000000000001
 30
0.0
 11
402.0000000000001
 21
288.5000000000001
 31
0.0
  0
LINE
  5
C917
330
1E
100
AcDbEntity
  8
10
  6
CONTINOUS
100
AcDbLine
 10
402.9999999999998
 20
260.0
 30
0.0
 11
402.9999999999998
 21
288.5000000000001
 31
0.0
  0
LINE
  5
C918
330
1E
100
AcDbEntity
  8
10
  6
CONTINOUS
100
AcDbLine
 10
402.0000000000001
 20
288.5000000000001
 30
0.0
 11
402.0000000000001
 21
292.5000000000001
 31
0.0
  0
LINE
  5
C919
330
1E
100
AcDbEntity
  8
10
  6
CONTINOUS
100
AcDbLine
 10
437.0
 20
260.0
 30
0.0
 11
437.0
 21
288.5000000000001
 31
0.0
  0
LINE
  5
C91A
330
1E
100
AcDbEntity
  8
10
  6
CONTINOUS
100
AcDbLine
 10
438.0
 20
288.5000000000001
 30
0.0
 11
438.0
 21
292.5000000000001
 31
0.0
  0
LINE
  5
C91B
330
1E
100
AcDbEntity
  8
10
  6
CONTINOUS
100
AcDbLine
 10
490.0
 20
296.5
 30
0.0
 11
490.0
 21
399.5000000000002
 31
0.0
  0
LINE
  5
C91C
330
1E
100
AcDbEntity
  8
10
  6
CONTINOUS
100
AcDbLine
 10
478.0
 20
292.5000000000001
 30
0.0
 11
478.0
 21
296.5
 31
0.0
  0
LINE
  5
C91D
330
1E
100
AcDbEntity
  8
24
  6
CONTINOUS
100
AcDbLine
 10
473.8999452034628
 20
354.6
 30
0.0
 11
473.8999452034628
 21
361.0
 31
0.0
  0
LINE
  5
C91E
330
1E
100
AcDbEntity
  8
24
  6
CONTINOUS
100
AcDbLine
 10
456.0999452034629
 20
354.6
 30
0.0
 11
473.8999452034628
 21
354.6
 31
0.0
  0
LINE
  5
C91F
330
1E
100
AcDbEntity
  8
24
  6
CONTINOUS
100
AcDbLine
 10
455.7999452034628
 20
361.0
 30
0.0
 11
474.1999452034628
 21
361.0
 31
0.0
  0
LINE
  5
C920
330
1E
100
AcDbEntity
  8
24
  6
CONTINOUS
100
AcDbLine
 10
474.1999452034628
 20
361.0
 30
0.0
 11
474.1999452034628
 21
363.5000000000002
 31
0.0
  0
LINE
  5
C921
330
1E
100
AcDbEntity
  8
24
  6
CONTINOUS
100
AcDbLine
 10
456.0999452034629
 20
354.6
 30
0.0
 11
456.0999452034629
 21
361.0
 31
0.0
  0
LINE
  5
C922
330
1E
100
AcDbEntity
  8
24
  6
CONTINOUS
100
AcDbLine
 10
455.7999452034628
 20
361.0
 30
0.0
 11
455.7999452034628
 21
363.5000000000002
 31
0.0
  0
LEADER
  5
C923
330
1E
100
AcDbEntity
  8
30
  6
Continuous
100
AcDbLeader
  3
STANDARD
 76
     3
 10
730.5032591696682
 20
133.1879450447892
 30
0.0
 10
726.400935541442
 20
148.8087179895957
 30
0.0
 10
710.0
 20
148.8087179895957
 30
0.0
213
471.3911129906764
223
11.99999999999971
233
0.0
1001
ACAD
1000
DSTYLE
1002
{
1070
     5
1000
OPEN
1070
    77
1070
     0
1070
    79
1070
     3
1070
   147
1040
1.0
1070
   342
1005
3B2
1002
}
  0
TEXT
  5
C924
330
1E
100
AcDbEntity
  8
30
  6
Continuous
100
AcDbText
 10
710.7608230663855
 20
149.833032726024
 30
0.0
 40
5.0
  1
M10
  7
STANDARD1
100
AcDbText
  0
DIMENSION
  5
C925
330
1E
100
AcDbEntity
  8
30
  6
Continuous
100
AcDbDimension
  2
*D31
 10
375.0
 20
415.0
 30
0.0
 11
362.5
 21
420.0
 31
0.0
 70
    32
 71
     5
 42
25.0
  3
STANDARD1
100
AcDbAlignedDimension
 13
350.0
 23
399.5000000000002
 33
0.0
 14
375.0
 24
366.5665648324822
 34
0.0
100
AcDbRotatedDimension
  0
DIMENSION
  5
C926
330
1E
100
AcDbEntity
  8
30
  6
Continuous
100
AcDbDimension
  2
*D32
 10
420.0000062386229
 20
415.0
 30
0.0
 11
397.500006238623
 21
420.0
 31
0.0
 70
    32
 71
     5
 42
45.0
  3
STANDARD1
100
AcDbAlignedDimension
 13
375.000006238623
 23
369.5819837500784
 33
0.0
 14
420.0000062386229
 24
366.5665648324822
 34
0.0
100
AcDbRotatedDimension
  0
DIMENSION
  5
C927
330
1E
100
AcDbEntity
  8
30
  6
Continuous
100
AcDbDimension
  2
*D33
 10
465.0000062386229
 20
415.0
 30
0.0
 11
442.500006238623
 21
420.0
 31
0.0
 70
    32
 71
     5
 42
45.0
  3
STANDARD1
100
AcDbAlignedDimension
 13
420.0000062386229
 23
366.5665648324822
 33
0.0
 14
465.0000062386229
 24
366.5665648324822
 34
0.0
100
AcDbRotatedDimension
  0
DIMENSION
  5
C928
330
1E
100
AcDbEntity
  8
30
  6
Continuous
100
AcDbDimension
  2
*D34
 10
490.0
 20
415.0
 30
0.0
 11
477.5
 21
420.0
 31
0.0
 70
    32
 71
     5
 42
25.00000000000006
  3
STANDARD1
100
AcDbAlignedDimension
 13
465.0
 23
366.5665648324822
 33
0.0
 14
490.0
 24
399.5000000000002
 34
0.0
100
AcDbRotatedDimension
  0
LWPOLYLINE
  5
C929
330
1E
100
AcDbEntity
  8
10
  6
CONTINOUS
100
AcDbPolyline
 90
        4
 70
     0
 43
0.0
 10
450.9999452034628
 20
364.5665648324821
 10
450.9999452034628
 20
308.5
 10
478.9999452034628
 20
308.5
 10
478.9999452034629
 20
364.5665648324821
  0
LWPOLYLINE
  5
C92A
330
1E
100
AcDbEntity
  8
10
  6
CONTINOUS
100
AcDbPolyline
 90
        4
 70
     0
 43
0.0
 10
405.9999452034629
 20
364.5665648324821
 10
405.9999452034629
 20
308.5
 10
433.9999452034629
 20
308.5
 10
433.9999452034629
 20
364.5665648324821
  0
LWPOLYLINE
  5
C92B
330
1E
100
AcDbEntity
  8
10
  6
CONTINOUS
100
AcDbPolyline
 90
        4
 70
     0
 43
0.0
 10
360.9999389648399
 20
364.5665648324821
 10
360.9999389648399
 20
308.5
 10
388.9999389648399
 20
308.5
 10
388.9999389648399
 20
364.5665648324821
  0
LWPOLYLINE
  5
C92C
330
1E
100
AcDbEntity
  8
24
  6
CONTINOUS
100
AcDbPolyline
 90
        2
 70
     0
 43
0.001
 10
360.9999389648399
 20
363.5000000000002
 10
388.9999389648399
 20
363.5000000000002
  0
LINE
  5
C92D
330
1E
100
AcDbEntity
  8
24
  6
CONTINOUS
100
AcDbLine
 10
360.9999389648399
 20
366.5665648324822
 30
0.0
 11
388.9999389648399
 21
366.5665648324822
 31
0.0
  0
LWPOLYLINE
  5
C92E
330
1E
100
AcDbEntity
  8
24
  6
CONTINOUS
100
AcDbPolyline
 90
        2
 70
     0
 43
0.001
 10
360.9999389648399
 20
366.5665648324822
 10
360.9999389648399
 20
363.5000000000002
  0
LINE
  5
C92F
330
1E
100
AcDbEntity
  8
24
  6
CONTINOUS
100
AcDbLine
 10
369.3169288355172
 20
366.5665648324822
 30
0.0
 11
369.3169288355172
 21
363.5000000000002
 31
0.0
  0
LINE
  5
C930
330
1E
100
AcDbEntity
  8
24
  6
CONTINOUS
100
AcDbLine
 10
380.9514499914828
 20
366.5665648324822
 30
0.0
 11
380.9514499914828
 21
363.5000000000002
 31
0.0
  0
LWPOLYLINE
  5
C931
330
1E
100
AcDbEntity
  8
24
  6
CONTINOUS
100
AcDbPolyline
 90
        2
 70
     0
 43
0.001
 10
388.9999389648399
 20
366.5665648324822
 10
388.9999389648399
 20
363.5000000000002
  0
LWPOLYLINE
  5
C932
330
1E
100
AcDbEntity
  8
24
  6
CONTINOUS
100
AcDbPolyline
 90
        2
 70
     0
 43
0.001
 10
405.9999452034629
 20
363.5000000000002
 10
433.9999452034629
 20
363.5000000000002
  0
LINE
  5
C933
330
1E
100
AcDbEntity
  8
24
  6
CONTINOUS
100
AcDbLine
 10
405.9999452034629
 20
366.5665648324822
 30
0.0
 11
433.9999452034629
 21
366.5665648324822
 31
0.0
  0
LWPOLYLINE
  5
C934
330
1E
100
AcDbEntity
  8
24
  6
CONTINOUS
100
AcDbPolyline
 90
        2
 70
     0
 43
0.001
 10
405.9999452034629
 20
366.5665648324822
 10
405.9999452034629
 20
363.5000000000002
  0
LINE
  5
C935
330
1E
100
AcDbEntity
  8
24
  6
CONTINOUS
100
AcDbLine
 10
414.31693507414
 20
366.5665648324822
 30
0.0
 11
414.31693507414
 21
363.5000000000002
 31
0.0
  0
LINE
  5
C936
330
1E
100
AcDbEntity
  8
24
  6
CONTINOUS
100
AcDbLine
 10
425.9514562301056
 20
366.5665648324822
 30
0.0
 11
425.9514562301056
 21
363.5000000000002
 31
0.0
  0
LWPOLYLINE
  5
C937
330
1E
100
AcDbEntity
  8
24
  6
CONTINOUS
100
AcDbPolyline
 90
        2
 70
     0
 43
0.001
 10
433.9999452034629
 20
366.5665648324822
 10
433.9999452034629
 20
363.5000000000002
  0
LWPOLYLINE
  5
C938
330
1E
100
AcDbEntity
  8
24
  6
CONTINOUS
100
AcDbPolyline
 90
        2
 70
     0
 43
0.001
 10
450.9999452034628
 20
363.5000000000002
 10
478.9999452034629
 20
363.5000000000002
  0
LINE
  5
C939
330
1E
100
AcDbEntity
  8
24
  6
CONTINOUS
100
AcDbLine
 10
450.9999452034628
 20
366.5665648324822
 30
0.0
 11
478.9999452034629
 21
366.5665648324822
 31
0.0
  0
LWPOLYLINE
  5
C93A
330
1E
100
AcDbEntity
  8
24
  6
CONTINOUS
100
AcDbPolyline
 90
        2
 70
     0
 43
0.001
 10
450.9999452034628
 20
366.5665648324822
 10
450.9999452034628
 20
363.5000000000002
  0
LINE
  5
C93B
330
1E
100
AcDbEntity
  8
24
  6
CONTINOUS
100
AcDbLine
 10
459.31693507414
 20
366.5665648324822
 30
0.0
 11
459.31693507414
 21
363.5000000000002
 31
0.0
  0
LINE
  5
C93C
330
1E
100
AcDbEntity
  8
24
  6
CONTINOUS
100
AcDbLine
 10
470.9514562301056
 20
366.5665648324822
 30
0.0
 11
470.9514562301056
 21
363.5000000000002
 31
0.0
  0
LWPOLYLINE
  5
C93D
330
1E
100
AcDbEntity
  8
24
  6
CONTINOUS
100
AcDbPolyline
 90
        2
 70
     0
 43
0.001
 10
478.9999452034629
 20
366.5665648324822
 10
478.9999452034629
 20
363.5000000000002
  0
LINE
  5
C93E
330
1E
100
AcDbEntity
  8
24
  6
CONTINOUS
100
AcDbLine
 10
410.7999452034629
 20
361.0
 30
0.0
 11
429.1999452034628
 21
361.0
 31
0.0
  0
LINE
  5
C93F
330
1E
100
AcDbEntity
  8
24
  6
CONTINOUS
100
AcDbLine
 10
411.0999452034628
 20
354.6
 30
0.0
 11
428.8999452034628
 21
354.6
 31
0.0
  0
LINE
  5
C940
330
1E
100
AcDbEntity
  8
24
  6
CONTINOUS
100
AcDbLine
 10
410.7999452034629
 20
361.0
 30
0.0
 11
410.7999452034629
 21
363.5000000000002
 31
0.0
  0
LINE
  5
C941
330
1E
100
AcDbEntity
  8
24
  6
CONTINOUS
100
AcDbLine
 10
411.0999452034628
 20
354.6
 30
0.0
 11
411.0999452034628
 21
361.0
 31
0.0
  0
LINE
  5
C942
330
1E
100
AcDbEntity
  8
24
  6
CONTINOUS
100
AcDbLine
 10
429.1999452034628
 20
361.0
 30
0.0
 11
429.1999452034628
 21
363.5000000000002
 31
0.0
  0
LINE
  5
C943
330
1E
100
AcDbEntity
  8
24
  6
CONTINOUS
100
AcDbLine
 10
428.8999452034628
 20
354.6
 30
0.0
 11
428.8999452034628
 21
361.0
 31
0.0
  0
LINE
  5
C944
330
1E
100
AcDbEntity
  8
24
  6
CONTINOUS
100
AcDbLine
 10
365.7999389648399
 20
361.0
 30
0.0
 11
384.1999389648399
 21
361.0
 31
0.0
  0
LINE
  5
C945
330
1E
100
AcDbEntity
  8
24
  6
CONTINOUS
100
AcDbLine
 10
366.09993896484
 20
354.6
 30
0.0
 11
383.8999389648399
 21
354.6
 31
0.0
  0
LINE
  5
C946
330
1E
100
AcDbEntity
  8
24
  6
CONTINOUS
100
AcDbLine
 10
365.7999389648399
 20
361.0
 30
0.0
 11
365.7999389648399
 21
363.5000000000002
 31
0.0
  0
LINE
  5
C947
330
1E
100
AcDbEntity
  8
24
  6
CONTINOUS
100
AcDbLine
 10
366.09993896484
 20
354.6
 30
0.0
 11
366.09993896484
 21
361.0
 31
0.0
  0
LINE
  5
C948
330
1E
100
AcDbEntity
  8
24
  6
CONTINOUS
100
AcDbLine
 10
384.1999389648399
 20
361.0
 30
0.0
 11
384.1999389648399
 21
363.5000000000002
 31
0.0
  0
LINE
  5
C949
330
1E
100
AcDbEntity
  8
24
  6
CONTINOUS
100
AcDbLine
 10
383.8999389648399
 20
354.6
 30
0.0
 11
383.8999389648399
 21
361.0
 31
0.0
  0
LINE
  5
C94A
330
1E
100
AcDbEntity
  8
24
  6
CONTINOUS
100
AcDbLine
 10
721.0999999999996
 20
-103.9999999999999
 30
0.0
 11
743.9999999999996
 21
-103.9999999999999
 31
0.0
  0
LINE
  5
C94B
330
1E
100
AcDbEntity
  8
24
  6
CONTINOUS
100
AcDbLine
 10
726.0999999999998
 20
-95.10000000000013
 30
0.0
 11
732.5
 21
-95.10000000000013
 31
0.0
  0
LINE
  5
C94C
330
1E
100
AcDbEntity
  8
24
  6
CONTINOUS
100
AcDbLine
 10
726.0999999999998
 20
-112.8999999999997
 30
0.0
 11
726.0999999999998
 21
-95.10000000000013
 31
0.0
  0
LINE
  5
C94D
330
1E
100
AcDbEntity
  8
24
  6
CONTINOUS
100
AcDbLine
 10
739.0
 20
-120.0
 30
0.0
 11
739.0
 21
-88.00000000000011
 31
0.0
  0
LINE
  5
C94E
330
1E
100
AcDbEntity
  8
24
  6
CONTINOUS
100
AcDbLine
 10
735.0
 20
-120.0
 30
0.0
 11
735.0
 21
-88.00000000000011
 31
0.0
  0
LINE
  5
C94F
330
1E
100
AcDbEntity
  8
24
  6
CONTINOUS
100
AcDbLine
 10
732.5
 20
-113.1999999999997
 30
0.0
 11
732.5
 21
-94.79999999999979
 31
0.0
  0
LINE
  5
C950
330
1E
100
AcDbEntity
  8
24
  6
CONTINOUS
100
AcDbLine
 10
732.5
 20
-94.79999999999979
 30
0.0
 11
735.0
 21
-94.79999999999979
 31
0.0
  0
LINE
  5
C951
330
1E
100
AcDbEntity
  8
24
  6
CONTINOUS
100
AcDbLine
 10
735.0
 20
-88.00000000000011
 30
0.0
 11
739.0
 21
-88.00000000000011
 31
0.0
  0
LINE
  5
C952
330
1E
100
AcDbEntity
  8
24
  6
CONTINOUS
100
AcDbLine
 10
726.0999999999998
 20
-112.8999999999997
 30
0.0
 11
732.5
 21
-112.8999999999997
 31
0.0
  0
LINE
  5
C953
330
1E
100
AcDbEntity
  8
24
  6
CONTINOUS
100
AcDbLine
 10
732.5
 20
-113.1999999999997
 30
0.0
 11
735.0
 21
-113.1999999999997
 31
0.0
  0
DIMENSION
  5
C954
330
1E
100
AcDbEntity
  8
30
  6
Continuous
100
AcDbDimension
  2
*D35
 10
735.0
 20
-130.0
 30
0.0
 11
753.2999999999998
 21
-125.0
 31
0.0
 70
    32
 71
     5
 42
36.60000000000002
  3
STANDARD1
100
AcDbAlignedDimension
 13
771.6
 23
-120.0
 33
0.0
 14
735.0
 24
-120.0
 34
0.0
100
AcDbRotatedDimension
  0
LINE
  5
C955
330
1E
100
AcDbEntity
  8
10
  6
CONTINOUS
100
AcDbLine
 10
369.5000000000009
 20
-104.0
 30
0.0
 11
369.5000000000009
 21
-120.0
 31
0.0
  0
LINE
  5
C956
330
1E
100
AcDbEntity
  8
10
  6
CONTINOUS
100
AcDbLine
 10
461.0000000000008
 20
121.6906000000001
 30
0.0
 11
465.0
 21
119.3812
 31
0.0
  0
LINE
  5
C957
330
1E
100
AcDbEntity
  8
10
  6
CONTINOUS
100
AcDbLine
 10
350.0000000000008
 20
61.0
 30
0.0
 11
490.0
 21
61.0
 31
0.0
  0
LINE
  5
C958
330
1E
100
AcDbEntity
  8
12
  6
DASHED
100
AcDbLine
 10
442.4999999999998
 20
125.0
 30
0.0
 11
442.4999999999998
 21
109.0
 31
0.0
  0
LINE
  5
C959
330
1E
100
AcDbEntity
  8
10
  6
CONTINOUS
100
AcDbLine
 10
465.0
 20
128.6188049999998
 30
0.0
 11
461.0000000000008
 21
126.3093999999998
 31
0.0
  0
LINE
  5
C95A
330
1E
100
AcDbEntity
  8
10
  6
CONTINOUS
100
AcDbLine
 10
411.0000000000008
 20
-104.0
 30
0.0
 11
429.0000000000008
 21
-104.0
 31
0.0
  0
LINE
  5
C95B
330
1E
100
AcDbEntity
  8
10
  6
CONTINOUS
100
AcDbLine
 10
371.0000000000008
 20
-101.6906000000001
 30
0.0
 11
375.0
 21
-99.38119499999992
 31
0.0
  0
LINE
  5
C95C
330
1E
100
AcDbEntity
  8
12
  6
DASHED
100
AcDbLine
 10
397.5
 20
125.0
 30
0.0
 11
397.5
 21
109.0
 31
0.0
  0
LINE
  5
C95D
330
1E
100
AcDbEntity
  8
10
  6
CONTINOUS
100
AcDbLine
 10
469.0000000000008
 20
-106.3094000000001
 30
0.0
 11
465.0
 21
-108.6188000000002
 31
0.0
  0
LINE
  5
C95E
330
1E
100
AcDbEntity
  8
10
  6
CONTINOUS
100
AcDbLine
 10
459.5000000000008
 20
-104.0
 30
0.0
 11
459.5000000000008
 21
-120.0
 31
0.0
  0
LINE
  5
C95F
330
1E
100
AcDbEntity
  8
10
  6
CONTINOUS
100
AcDbLine
 10
394.5000000000009
 20
-35.0
 30
0.0
 11
394.5000000000009
 21
55.0
 31
0.0
  0
LINE
  5
C960
330
1E
100
AcDbEntity
  8
10
  6
CONTINOUS
100
AcDbLine
 10
478.0
 20
50.0
 30
0.0
 11
478.0
 21
-30.0
 31
0.0
  0
LINE
  5
C961
330
1E
100
AcDbEntity
  8
10
  6
CONTINOUS
100
AcDbLine
 10
439.0000000000008
 20
-23.84999999999991
 30
0.0
 11
444.3000000000001
 21
-23.84999999999991
 31
0.0
  0
LINE
  5
C962
330
1E
100
AcDbEntity
  8
10
  6
CONTINOUS
100
AcDbLine
 10
470.5
 20
124.0
 30
0.0
 11
470.5
 21
140.0
 31
0.0
  0
LINE
  5
C963
330
1E
100
AcDbEntity
  8
10
  6
CONTINOUS
100
AcDbLine
 10
420.0
 20
-108.6188000000002
 30
0.0
 11
416.0000000000009
 21
-106.3094000000001
 31
0.0
  0
LINE
  5
C964
330
1E
100
AcDbEntity
  8
12
  6
DASHED
100
AcDbLine
 10
405.4999999999997
 20
-96.99999999999977
 30
0.0
 11
389.5000000000008
 21
-96.99999999999977
 31
0.0
  0
LINE
  5
C965
330
1E
100
AcDbEntity
  8
10
  6
CONTINOUS
100
AcDbLine
 10
461.0000000000008
 20
-106.3094000000001
 30
0.0
 11
461.0000000000008
 21
-101.6906000000001
 31
0.0
  0
LINE
  5
C966
330
1E
100
AcDbEntity
  8
10
  6
CONTINOUS
100
AcDbLine
 10
456.0000000000008
 20
-104.0
 30
0.0
 11
474.0000000000008
 21
-104.0
 31
0.0
  0
LINE
  5
C967
330
1E
100
AcDbEntity
  8
10
  6
CONTINOUS
100
AcDbLine
 10
379.0000000000008
 20
-101.6906000000001
 30
0.0
 11
379.0000000000008
 21
-106.3094000000001
 31
0.0
  0
LINE
  5
C968
330
1E
100
AcDbEntity
  8
10
  6
CONTINOUS
100
AcDbLine
 10
459.5000000000008
 20
124.0
 30
0.0
 11
459.5000000000008
 21
140.0
 31
0.0
  0
LINE
  5
C969
330
1E
100
AcDbEntity
  8
12
  6
DASHED
100
AcDbLine
 10
397.5
 20
-89.0
 30
0.0
 11
397.5
 21
-105.0
 31
0.0
  0
LINE
  5
C96A
330
1E
100
AcDbEntity
  8
10
  6
CONTINOUS
100
AcDbLine
 10
420.0
 20
115.0
 30
0.0
 11
420.0
 21
133.0
 31
0.0
  0
LINE
  5
C96B
330
1E
100
AcDbEntity
  8
10
  6
CONTINOUS
100
AcDbLine
 10
469.0000000000008
 20
126.3093999999998
 30
0.0
 11
465.0
 21
128.6188049999998
 31
0.0
  0
LINE
  5
C96C
330
1E
100
AcDbEntity
  8
10
  6
CONTINOUS
100
AcDbLine
 10
379.0000000000008
 20
126.3093999999998
 30
0.0
 11
375.0
 21
128.6188049999998
 31
0.0
  0
LINE
  5
C96D
330
1E
100
AcDbEntity
  8
10
  6
CONTINOUS
100
AcDbLine
 10
437.0000000000008
 20
27.03370499999983
 30
0.0
 11
437.0000000000008
 21
49.33264499999996
 31
0.0
  0
LINE
  5
C96E
330
1E
100
AcDbEntity
  8
10
  6
CONTINOUS
100
AcDbLine
 10
367.0000000000009
 20
-35.0
 30
0.0
 11
473.0
 21
-35.0
 31
0.0
  0
LINE
  5
C96F
330
1E
100
AcDbEntity
  8
10
  6
CONTINOUS
100
AcDbLine
 10
416.0000000000009
 20
126.3093999999998
 30
0.0
 11
416.0000000000009
 21
121.6906000000001
 31
0.0
  0
LINE
  5
C970
330
1E
100
AcDbEntity
  8
10
  6
CONTINOUS
100
AcDbLine
 10
403.0
 20
41.0
 30
0.0
 11
402.0000000000008
 21
41.0
 31
0.0
  0
LINE
  5
C971
330
1E
100
AcDbEntity
  8
10
  6
CONTINOUS
100
AcDbLine
 10
465.0
 20
115.0
 30
0.0
 11
465.0
 21
133.0
 31
0.0
  0
LINE
  5
C972
330
1E
100
AcDbEntity
  8
10
  6
CONTINOUS
100
AcDbLine
 10
469.0000000000008
 20
121.6906000000001
 30
0.0
 11
469.0000000000008
 21
126.3093999999998
 31
0.0
  0
LINE
  5
C973
330
1E
100
AcDbEntity
  8
10
  6
CONTINOUS
100
AcDbLine
 10
371.0000000000008
 20
121.6906000000001
 30
0.0
 11
375.0
 21
119.3812
 31
0.0
  0
LINE
  5
C974
330
1E
100
AcDbEntity
  8
10
  6
CONTINOUS
100
AcDbLine
 10
438.0
 20
-21.00000000000023
 30
0.0
 11
438.0
 21
41.0
 31
0.0
  0
LINE
  5
C975
330
1E
100
AcDbEntity
  8
10
  6
CONTINOUS
100
AcDbLine
 10
437.0000000000008
 20
38.0385349999999
 30
0.0
 11
403.0
 21
38.0385349999999
 31
0.0
  0
LINE
  5
C976
330
1E
100
AcDbEntity
  8
10
  6
CONTINOUS
100
AcDbLine
 10
439.0000000000008
 20
-23.84999999999991
 30
0.0
 11
439.0000000000008
 21
-30.45000000000005
 31
0.0
  0
LINE
  5
C977
330
1E
100
AcDbEntity
  8
10
  6
CONTINOUS
100
AcDbLine
 10
416.0000000000009
 20
121.6906000000001
 30
0.0
 11
420.0
 21
119.3812
 31
0.0
  0
LINE
  5
C978
330
1E
100
AcDbEntity
  8
10
  6
CONTINOUS
100
AcDbLine
 10
411.0000000000008
 20
124.0
 30
0.0
 11
429.0000000000008
 21
124.0
 31
0.0
  0
LINE
  5
C979
330
1E
100
AcDbEntity
  8
10
  6
CONTINOUS
100
AcDbLine
 10
438.0
 20
41.0
 30
0.0
 11
437.0000000000008
 21
41.0
 31
0.0
  0
LINE
  5
C97A
330
1E
100
AcDbEntity
  8
10
  6
CONTINOUS
100
AcDbLine
 10
490.0
 20
140.0
 30
0.0
 11
350.0000000000008
 21
140.0
 31
0.0
  0
LINE
  5
C97B
330
1E
100
AcDbEntity
  8
10
  6
CONTINOUS
100
AcDbLine
 10
369.5000000000009
 20
124.0
 30
0.0
 11
369.5000000000009
 21
140.0
 31
0.0
  0
LINE
  5
C97C
330
1E
100
AcDbEntity
  8
10
  6
CONTINOUS
100
AcDbLine
 10
375.0
 20
128.6188049999998
 30
0.0
 11
371.0000000000008
 21
126.3093999999998
 31
0.0
  0
LINE
  5
C97D
330
1E
100
AcDbEntity
  8
10
  6
CONTINOUS
100
AcDbLine
 10
380.5
 20
-104.0
 30
0.0
 11
380.5
 21
-120.0
 31
0.0
  0
LINE
  5
C97E
330
1E
100
AcDbEntity
  8
10
  6
CONTINOUS
100
AcDbLine
 10
461.0000000000008
 20
126.3093999999998
 30
0.0
 11
461.0000000000008
 21
121.6906000000001
 31
0.0
  0
LINE
  5
C97F
330
1E
100
AcDbEntity
  8
10
  6
CONTINOUS
100
AcDbLine
 10
465.0
 20
-99.38119499999992
 30
0.0
 11
469.0000000000008
 21
-101.6906000000001
 31
0.0
  0
LINE
  5
C980
330
1E
100
AcDbEntity
  8
10
  6
CONTINOUS
100
AcDbLine
 10
420.0
 20
-99.38119499999992
 30
0.0
 11
424.0000000000008
 21
-101.6906000000001
 31
0.0
  0
LINE
  5
C981
330
1E
100
AcDbEntity
  8
10
  6
CONTINOUS
100
AcDbLine
 10
424.0000000000008
 20
126.3093999999998
 30
0.0
 11
420.0
 21
128.6188049999998
 31
0.0
  0
LINE
  5
C982
330
1E
100
AcDbEntity
  8
10
  6
CONTINOUS
100
AcDbLine
 10
375.0
 20
-108.6188000000002
 30
0.0
 11
371.0000000000008
 21
-106.3094000000001
 31
0.0
  0
LINE
  5
C983
330
1E
100
AcDbEntity
  8
10
  6
CONTINOUS
100
AcDbLine
 10
444.3000000000001
 20
-23.84999999999991
 30
0.0
 11
444.3000000000001
 21
-30.45000000000005
 31
0.0
  0
LINE
  5
C984
330
1E
100
AcDbEntity
  8
10
  6
CONTINOUS
100
AcDbLine
 10
375.0
 20
119.3812
 30
0.0
 11
379.0000000000008
 21
121.6906000000001
 31
0.0
  0
LINE
  5
C985
330
1E
100
AcDbEntity
  8
10
  6
CONTINOUS
100
AcDbLine
 10
437.0000000000008
 20
49.33264499999996
 30
0.0
 11
403.0
 21
49.33264499999996
 31
0.0
  0
LINE
  5
C986
330
1E
100
AcDbEntity
  8
10
  6
CONTINOUS
100
AcDbLine
 10
445.5
 20
-35.0
 30
0.0
 11
445.5
 21
55.0
 31
0.0
  0
LINE
  5
C987
330
1E
100
AcDbEntity
  8
12
  6
DASHED
100
AcDbLine
 10
450.4999999999998
 20
117.0
 30
0.0
 11
434.5000000000008
 21
117.0
 31
0.0
  0
LINE
  5
C988
330
1E
100
AcDbEntity
  8
10
  6
CONTINOUS
100
AcDbLine
 10
416.0000000000009
 20
-101.6906000000001
 30
0.0
 11
420.0
 21
-99.38119499999992
 31
0.0
  0
LINE
  5
C989
330
1E
100
AcDbEntity
  8
10
  6
CONTINOUS
100
AcDbLine
 10
461.0000000000008
 20
-101.6906000000001
 30
0.0
 11
465.0
 21
-99.38119499999992
 31
0.0
  0
LINE
  5
C98A
330
1E
100
AcDbEntity
  8
10
  6
CONTINOUS
100
AcDbLine
 10
469.0000000000008
 20
-101.6906000000001
 30
0.0
 11
469.0000000000008
 21
-106.3094000000001
 31
0.0
  0
LINE
  5
C98B
330
1E
100
AcDbEntity
  8
16
100
AcDbLine
 10
280.0
 20
10.0
 30
0.0
 11
560.0
 21
10.0
 31
0.0
  0
LINE
  5
C98C
330
1E
100
AcDbEntity
  8
10
  6
CONTINOUS
100
AcDbLine
 10
465.0
 20
-113.0000000000002
 30
0.0
 11
465.0
 21
-95.0
 31
0.0
  0
LINE
  5
C98D
330
1E
100
AcDbEntity
  8
10
  6
CONTINOUS
100
AcDbLine
 10
416.0000000000009
 20
-106.3094000000001
 30
0.0
 11
416.0000000000009
 21
-101.6906000000001
 31
0.0
  0
LINE
  5
C98E
330
1E
100
AcDbEntity
  8
10
  6
CONTINOUS
100
AcDbLine
 10
379.0000000000008
 20
121.6906000000001
 30
0.0
 11
379.0000000000008
 21
126.3093999999998
 31
0.0
  0
LINE
  5
C98F
330
1E
100
AcDbEntity
  8
10
  6
CONTINOUS
100
AcDbLine
 10
350.0000000000008
 20
140.0
 30
0.0
 11
350.0000000000008
 21
-120.0
 31
0.0
  0
LINE
  5
C990
330
1E
100
AcDbEntity
  8
10
  6
CONTINOUS
100
AcDbLine
 10
424.0000000000008
 20
-106.3094000000001
 30
0.0
 11
420.0
 21
-108.6188000000002
 31
0.0
  0
LINE
  5
C991
330
1E
100
AcDbEntity
  8
10
  6
CONTINOUS
100
AcDbLine
 10
414.5000000000008
 20
124.0
 30
0.0
 11
414.5000000000008
 21
140.0
 31
0.0
  0
LINE
  5
C992
330
1E
100
AcDbEntity
  8
10
  6
CONTINOUS
100
AcDbLine
 10
414.5000000000008
 20
-104.0
 30
0.0
 11
414.5000000000008
 21
-120.0
 31
0.0
  0
LINE
  5
C993
330
1E
100
AcDbEntity
  8
10
  6
CONTINOUS
100
AcDbLine
 10
379.0000000000008
 20
-106.3094000000001
 30
0.0
 11
375.0
 21
-108.6188000000002
 31
0.0
  0
LINE
  5
C994
330
1E
100
AcDbEntity
  8
10
  6
CONTINOUS
100
AcDbLine
 10
367.0000000000009
 20
55.0
 30
0.0
 11
473.0
 21
55.0
 31
0.0
  0
LINE
  5
C995
330
1E
100
AcDbEntity
  8
10
  6
CONTINOUS
100
AcDbLine
 10
403.0
 20
27.03370499999983
 30
0.0
 11
403.0
 21
49.33264499999996
 31
0.0
  0
LINE
  5
C996
330
1E
100
AcDbEntity
  8
10
  6
CONTINOUS
100
AcDbLine
 10
439.0000000000008
 20
-30.45000000000005
 30
0.0
 11
444.3000000000001
 21
-30.45000000000005
 31
0.0
  0
LINE
  5
C997
330
1E
100
AcDbEntity
  8
10
  6
CONTINOUS
100
AcDbLine
 10
420.0
 20
119.3812
 30
0.0
 11
424.0000000000008
 21
121.6906000000001
 31
0.0
  0
LINE
  5
C998
330
1E
100
AcDbEntity
  8
10
  6
CONTINOUS
100
AcDbLine
 10
490.0
 20
-120.0
 30
0.0
 11
490.0
 21
140.0
 31
0.0
  0
LINE
  5
C999
330
1E
100
AcDbEntity
  8
10
  6
CONTINOUS
100
AcDbLine
 10
420.0
 20
-113.0000000000002
 30
0.0
 11
420.0
 21
-95.0
 31
0.0
  0
LINE
  5
C99A
330
1E
100
AcDbEntity
  8
10
  6
CONTINOUS
100
AcDbLine
 10
375.0
 20
-99.38119499999992
 30
0.0
 11
379.0000000000008
 21
-101.6906000000001
 31
0.0
  0
LINE
  5
C99B
330
1E
100
AcDbEntity
  8
10
  6
CONTINOUS
100
AcDbLine
 10
465.0
 20
-108.6188000000002
 30
0.0
 11
461.0000000000008
 21
-106.3094000000001
 31
0.0
  0
LINE
  5
C99C
330
1E
100
AcDbEntity
  8
12
  6
DASHED
100
AcDbLine
 10
450.4999999999998
 20
-96.99999999999977
 30
0.0
 11
434.5000000000008
 21
-96.99999999999977
 31
0.0
  0
LINE
  5
C99D
330
1E
100
AcDbEntity
  8
12
  6
DASHED
100
AcDbLine
 10
442.4999999999998
 20
-89.0
 30
0.0
 11
442.4999999999998
 21
-105.0
 31
0.0
  0
LINE
  5
C99E
330
1E
100
AcDbEntity
  8
10
  6
CONTINOUS
100
AcDbLine
 10
425.4999999999998
 20
124.0
 30
0.0
 11
425.4999999999998
 21
140.0
 31
0.0
  0
LINE
  5
C99F
330
1E
100
AcDbEntity
  8
12
  6
DASHED
100
AcDbLine
 10
405.4999999999997
 20
117.0
 30
0.0
 11
389.5000000000008
 21
117.0
 31
0.0
  0
LINE
  5
C9A0
330
1E
100
AcDbEntity
  8
10
  6
CONTINOUS
100
AcDbLine
 10
350.0000000000008
 20
-41.00000000000021
 30
0.0
 11
490.0
 21
-41.00000000000021
 31
0.0
  0
LINE
  5
C9A1
330
1E
100
AcDbEntity
  8
10
  6
CONTINOUS
100
AcDbLine
 10
437.0000000000008
 20
27.03370499999983
 30
0.0
 11
403.0
 21
27.03370499999983
 31
0.0
  0
LINE
  5
C9A2
330
1E
100
AcDbEntity
  8
10
  6
CONTINOUS
100
AcDbLine
 10
402.0000000000008
 20
-21.00000000000023
 30
0.0
 11
402.0000000000008
 21
41.0
 31
0.0
  0
LINE
  5
C9A3
330
1E
100
AcDbEntity
  8
10
  6
CONTINOUS
100
AcDbLine
 10
420.0
 20
128.6188049999998
 30
0.0
 11
416.0000000000009
 21
126.3093999999998
 31
0.0
  0
LINE
  5
C9A4
330
1E
100
AcDbEntity
  8
10
  6
CONTINOUS
100
AcDbLine
 10
375.0
 20
115.0
 30
0.0
 11
375.0
 21
133.0
 31
0.0
  0
LINE
  5
C9A5
330
1E
100
AcDbEntity
  8
10
  6
CONTINOUS
100
AcDbLine
 10
366.0000000000009
 20
-104.0
 30
0.0
 11
384.0000000000009
 21
-104.0
 31
0.0
  0
LINE
  5
C9A6
330
1E
100
AcDbEntity
  8
10
  6
CONTINOUS
100
AcDbLine
 10
375.0
 20
-113.0000000000002
 30
0.0
 11
375.0
 21
-95.0
 31
0.0
  0
LINE
  5
C9A7
330
1E
100
AcDbEntity
  8
10
  6
CONTINOUS
100
AcDbLine
 10
371.0000000000008
 20
-106.3094000000001
 30
0.0
 11
371.0000000000008
 21
-101.6906000000001
 31
0.0
  0
LINE
  5
C9A8
330
1E
100
AcDbEntity
  8
10
  6
CONTINOUS
100
AcDbLine
 10
424.0000000000008
 20
-101.6906000000001
 30
0.0
 11
424.0000000000008
 21
-106.3094000000001
 31
0.0
  0
LINE
  5
C9A9
330
1E
100
AcDbEntity
  8
10
  6
CONTINOUS
100
AcDbLine
 10
366.0000000000009
 20
124.0
 30
0.0
 11
384.0000000000009
 21
124.0
 31
0.0
  0
LINE
  5
C9AA
330
1E
100
AcDbEntity
  8
10
  6
CONTINOUS
100
AcDbLine
 10
424.0000000000008
 20
121.6906000000001
 30
0.0
 11
424.0000000000008
 21
126.3093999999998
 31
0.0
  0
LINE
  5
C9AB
330
1E
100
AcDbEntity
  8
10
  6
CONTINOUS
100
AcDbLine
 10
470.5
 20
-104.0
 30
0.0
 11
470.5
 21
-120.0
 31
0.0
  0
LINE
  5
C9AC
330
1E
100
AcDbEntity
  8
10
  6
CONTINOUS
100
AcDbLine
 10
380.5
 20
124.0
 30
0.0
 11
380.5
 21
140.0
 31
0.0
  0
LINE
  5
C9AD
330
1E
100
AcDbEntity
  8
10
  6
CONTINOUS
100
AcDbLine
 10
350.0000000000008
 20
-120.0
 30
0.0
 11
490.0
 21
-120.0
 31
0.0
  0
LINE
  5
C9AE
330
1E
100
AcDbEntity
  8
10
  6
CONTINOUS
100
AcDbLine
 10
425.4999999999998
 20
-104.0
 30
0.0
 11
425.4999999999998
 21
-120.0
 31
0.0
  0
LINE
  5
C9AF
330
1E
100
AcDbEntity
  8
10
  6
CONTINOUS
100
AcDbLine
 10
362.0000000000008
 20
50.0
 30
0.0
 11
362.0000000000008
 21
-30.0
 31
0.0
  0
LINE
  5
C9B0
330
1E
100
AcDbEntity
  8
10
  6
CONTINOUS
100
AcDbLine
 10
438.0
 20
-21.00000000000023
 30
0.0
 11
402.0000000000008
 21
-21.00000000000023
 31
0.0
  0
LINE
  5
C9B1
330
1E
100
AcDbEntity
  8
10
  6
CONTINOUS
100
AcDbLine
 10
371.0000000000008
 20
126.3093999999998
 30
0.0
 11
371.0000000000008
 21
121.6906000000001
 31
0.0
  0
LINE
  5
C9B2
330
1E
100
AcDbEntity
  8
10
  6
CONTINOUS
100
AcDbLine
 10
465.0
 20
119.3812
 30
0.0
 11
469.0000000000008
 21
121.6906000000001
 31
0.0
  0
LINE
  5
C9B3
330
1E
100
AcDbEntity
  8
10
  6
CONTINOUS
100
AcDbLine
 10
456.0000000000008
 20
124.0
 30
0.0
 11
474.0000000000008
 21
124.0
 31
0.0
  0
ARC
  5
C9B4
330
1E
100
AcDbEntity
  8
10
  6
CONTINOUS
100
AcDbCircle
 10
473.0
 20
-30.0
 30
0.0
 40
5.0
100
AcDbArc
 50
270.0
 51
0.0
  0
CIRCLE
  5
C9B5
330
1E
100
AcDbEntity
  8
10
  6
CONTINOUS
100
AcDbCircle
 10
420.0
 20
-104.0
 30
0.0
 40
5.0
  0
ARC
  5
C9B6
330
1E
100
AcDbEntity
  8
10
  6
CONTINOUS
100
AcDbCircle
 10
-420.0
 20
-104.0
 30
0.0
 40
8.0
210
0.0
220
0.0
230
-1.0
100
AcDbArc
 50
226.5674629999957
 51
313.4325370000042
  0
ARC
  5
C9B7
330
1E
100
AcDbEntity
  8
10
  6
CONTINOUS
100
AcDbCircle
 10
473.0
 20
50.0
 30
0.0
 40
5.0
100
AcDbArc
 50
0.0
 51
90.0
  0
CIRCLE
  5
C9B8
330
1E
100
AcDbEntity
  8
10
  6
CONTINOUS
100
AcDbCircle
 10
-465.0
 20
124.0
 30
0.0
 40
5.0
210
0.0
220
0.0
230
-1.0
  0
CIRCLE
  5
C9B9
330
1E
100
AcDbEntity
  8
12
  6
DASHED
100
AcDbCircle
 10
442.4999999999998
 20
-96.99999999999977
 30
0.0
 40
4.0
  0
ARC
  5
C9BA
330
1E
100
AcDbEntity
  8
10
  6
CONTINOUS
100
AcDbCircle
 10
465.0
 20
124.0
 30
0.0
 40
5.5
100
AcDbArc
 50
180.0
 51
0.0
  0
CIRCLE
  5
C9BB
330
1E
100
AcDbEntity
  8
10
  6
CONTINOUS
100
AcDbCircle
 10
-375.0
 20
124.0
 30
0.0
 40
5.0
210
0.0
220
0.0
230
-1.0
  0
CIRCLE
  5
C9BC
330
1E
100
AcDbEntity
  8
10
  6
CONTINOUS
100
AcDbCircle
 10
465.0
 20
-104.0
 30
0.0
 40
5.0
  0
ARC
  5
C9BD
330
1E
100
AcDbEntity
  8
10
  6
CONTINOUS
100
AcDbCircle
 10
-420.0
 20
-104.0
 30
0.0
 40
5.5
210
0.0
220
0.0
230
-1.0
100
AcDbArc
 50
0.0
 51
180.0
  0
ARC
  5
C9BE
330
1E
100
AcDbEntity
  8
10
  6
CONTINOUS
100
AcDbCircle
 10
-375.0
 20
-104.0
 30
0.0
 40
5.5
210
0.0
220
0.0
230
-1.0
100
AcDbArc
 50
0.0
 51
180.0
  0
ARC
  5
C9BF
330
1E
100
AcDbEntity
  8
10
  6
CONTINOUS
100
AcDbCircle
 10
420.0
 20
124.0
 30
0.0
 40
5.5
100
AcDbArc
 50
180.0
 51
0.0
  0
CIRCLE
  5
C9C0
330
1E
100
AcDbEntity
  8
10
  6
CONTINOUS
100
AcDbCircle
 10
-420.0
 20
124.0
 30
0.0
 40
5.0
210
0.0
220
0.0
230
-1.0
  0
ARC
  5
C9C1
330
1E
100
AcDbEntity
  8
10
  6
CONTINOUS
100
AcDbCircle
 10
465.0
 20
124.0
 30
0.0
 40
8.0
100
AcDbArc
 50
46.56746299999572
 51
133.4325370000042
  0
ARC
  5
C9C2
330
1E
100
AcDbEntity
  8
10
  6
CONTINOUS
100
AcDbCircle
 10
-465.0
 20
-104.0
 30
0.0
 40
5.5
210
0.0
220
0.0
230
-1.0
100
AcDbArc
 50
0.0
 51
180.0
  0
ARC
  5
C9C3
330
1E
100
AcDbEntity
  8
10
  6
CONTINOUS
100
AcDbCircle
 10
420.0
 20
124.0
 30
0.0
 40
8.0
100
AcDbArc
 50
46.56746299999572
 51
133.4325370000042
  0
ARC
  5
C9C4
330
1E
100
AcDbEntity
  8
10
  6
CONTINOUS
100
AcDbCircle
 10
375.0
 20
124.0
 30
0.0
 40
8.0
100
AcDbArc
 50
46.56746299999572
 51
133.4325370000042
  0
ARC
  5
C9C5
330
1E
100
AcDbEntity
  8
10
  6
CONTINOUS
100
AcDbCircle
 10
-465.0
 20
-104.0
 30
0.0
 40
8.0
210
0.0
220
0.0
230
-1.0
100
AcDbArc
 50
226.5674629999957
 51
313.4325370000042
  0
CIRCLE
  5
C9C6
330
1E
100
AcDbEntity
  8
10
  6
CONTINOUS
100
AcDbCircle
 10
375.0
 20
-104.0
 30
0.0
 40
5.0
  0
CIRCLE
  5
C9C7
330
1E
100
AcDbEntity
  8
12
  6
DASHED
100
AcDbCircle
 10
397.5
 20
-96.99999999999977
 30
0.0
 40
4.0
  0
ARC
  5
C9C8
330
1E
100
AcDbEntity
  8
10
  6
CONTINOUS
100
AcDbCircle
 10
367.0000000000009
 20
50.0
 30
0.0
 40
5.0
100
AcDbArc
 50
90.0
 51
180.0
  0
ARC
  5
C9C9
330
1E
100
AcDbEntity
  8
10
  6
CONTINOUS
100
AcDbCircle
 10
367.0000000000009
 20
-30.0
 30
0.0
 40
5.0
100
AcDbArc
 50
180.0
 51
270.0
  0
ARC
  5
C9CA
330
1E
100
AcDbEntity
  8
10
  6
CONTINOUS
100
AcDbCircle
 10
-375.0
 20
-104.0
 30
0.0
 40
8.0
210
0.0
220
0.0
230
-1.0
100
AcDbArc
 50
226.5674629999957
 51
313.4325370000042
  0
ARC
  5
C9CB
330
1E
100
AcDbEntity
  8
10
  6
CONTINOUS
100
AcDbCircle
 10
375.0
 20
124.0
 30
0.0
 40
5.5
100
AcDbArc
 50
180.0
 51
0.0
  0
CIRCLE
  5
C9CC
330
1E
100
AcDbEntity
  8
12
  6
DASHED
100
AcDbCircle
 10
-442.4999999999998
 20
117.0
 30
0.0
 40
4.0
210
0.0
220
0.0
230
-1.0
  0
CIRCLE
  5
C9CD
330
1E
100
AcDbEntity
  8
12
  6
DASHED
100
AcDbCircle
 10
-397.5
 20
117.0
 30
0.0
 40
4.0
210
0.0
220
0.0
230
-1.0
  0
LINE
  5
C9CE
330
1E
100
AcDbEntity
  8
16
100
AcDbLine
 10
420.0
 20
220.0
 30
0.0
 11
420.0
 21
-202.0
 31
0.0
  0
LWPOLYLINE
  5
C9CF
330
1E
100
AcDbEntity
  8
17
100
AcDbPolyline
 90
        4
 70
     1
 43
0.75
 10
290.0000000000009
 20
-198.0000000000003
 10
550.0
 20
-198.0000000000003
 10
550.0
 20
218.0
 10
290.0000000000009
 20
218.0
  0
LWPOLYLINE
  5
C9D0
330
1E
100
AcDbEntity
  8
17
100
AcDbPolyline
 90
        4
 70
     1
 43
0.75
 10
290.0000000000009
 20
399.5000000000002
 10
550.0
 20
399.5000000000002
 10
550.0
 20
401.1000000000001
 10
290.0000000000009
 20
401.1000000000001
  0
LWPOLYLINE
  5
C9D1
330
1E
100
AcDbEntity
  8
17
100
AcDbPolyline
 90
        4
 70
     1
 43
0.75
 10
770.0
 20
-198.0000000000003
 10
771.6
 20
-198.0000000000003
 10
771.6
 20
218.0
 10
770.0
 20
218.0
  0
DIMENSION
  5
C9D2
330
1E
100
AcDbEntity
  8
30
  6
Continuous
100
AcDbDimension
  2
*D3
 10
490.0
 20
-220.0
 30
0.0
 11
420.0000000000003
 21
-215.0
 31
0.0
 70
    32
 71
     5
 42
139.9999999999991
  3
STANDARD1
100
AcDbAlignedDimension
 13
350.0000000000008
 23
-120.0
 33
0.0
 14
490.0
 24
-120.0
 34
0.0
100
AcDbRotatedDimension
  0
DIMENSION
  5
C9D3
330
1E
100
AcDbEntity
  8
30
  6
Continuous
100
AcDbDimension
  2
*D4
 10
550.0
 20
-230.0
 30
0.0
 11
420.0000000000003
 21
-225.0
 31
0.0
 70
    32
 71
     5
 42
259.9999999999991
  3
STANDARD1
100
AcDbAlignedDimension
 13
290.0000000000009
 23
-198.0000000000003
 33
0.0
 14
550.0
 24
-198.0000000000003
 34
0.0
100
AcDbRotatedDimension
  0
DIMENSION
  5
C9D4
330
1E
100
AcDbEntity
  8
30
  6
Continuous
100
AcDbDimension
  2
*D5
 10
570.0
 20
366.5665648324822
 30
0.0
 11
606.4224256543098
 21
382.4104650120816
 31
0.0
 70
   160
  1
ON SIDE 37.6\POFF SIDE 36.6
 71
     5
 42
34.53343516751806
  3
STANDARD
100
AcDbAlignedDimension
 13
549.9999452034626
 23
401.1000000000001
 33
0.0
 14
478.9999452034629
 24
366.5665648324822
 34
0.0
 50
90.0
100
AcDbRotatedDimension
1001
ACAD
1000
DSTYLE
1002
{
1070
   140
1040
6.0
1070
   287
1070
     5
1070
   287
1070
     5
1070
   287
1070
     5
1070
   287
1070
     5
1070
   287
1070
     5
1070
   287
1070
     5
1070
   287
1070
     5
1070
   279
1070
     2
1070
    79
1070
     3
1002
}
  0
MTEXT
  5
C9D5
330
1E
100
AcDbEntity
  8
30
  6
Continuous
100
AcDbMText
 10
720.0000000000003
 20
290.5
 30
0.0
 40
6.0
 41
0.0
 71
     7
 72
     5
  1
PVS400-NDL 3P FC
 73
     1
 44
1.0
1001
ACAD
1000
MTEXTBEGIN
1070
    73
1070
     1
1070
    44
1040
1.0
1070
    74
1070
     0
1000
MTEXTEND
  0
INSERT
  5
C9D6
330
1E
100
AcDbEntity
  8
30
100
AcDbBlockReference
  2
*U1
 10
-82.5
 20
-60.0
 30
0.0
  0
INSERT
  5
C9D7
330
1E
100
AcDbEntity
  8
30
100
AcDbBlockReference
  2
*U2
 10
-82.5
 20
-60.0
 30
0.0
  0
INSERT
  5
C9D8
330
1E
100
AcDbEntity
  8
30
100
AcDbBlockReference
  2
*U1
 10
251.7286236157303
 20
-60.0000000000001
 30
0.0
  0
INSERT
  5
C9D9
330
1E
100
AcDbEntity
  8
30
100
AcDbBlockReference
  2
*U2
 10
251.7286236157303
 20
-60.0000000000001
 30
0.0
  0
INSERT
  5
C9DA
330
1E
100
AcDbEntity
  8
30
100
AcDbBlockReference
  2
*U1
 10
-22.5
 20
-470.0
 30
0.0
  0
INSERT
  5
C9DB
330
1E
100
AcDbEntity
  8
30
100
AcDbBlockReference
  2
*U2
 10
-22.5
 20
-470.0
 30
0.0
  0
INSERT
  5
C9DC
330
1E
100
AcDbEntity
  8
30
100
AcDbBlockReference
  2
*U1
 10
267.5
 20
-470.0
 30
0.0
  0
INSERT
  5
C9DD
330
1E
100
AcDbEntity
  8
30
100
AcDbBlockReference
  2
*U2
 10
267.5
 20
-470.0
 30
0.0
  0
MTEXT
  5
C9DE
330
1E
100
AcDbEntity
  8
16
100
AcDbMText
 10
420.8825424999993
 20
219.3995025000002
 30
0.0
 40
8.0
 41
0.0
 71
     7
 72
     5
  1
\W01.000;\fsimplex.shx;L
  7
blockfont
 73
     2
 44
0.9036139999999999
1001
ACAD
1000
MTEXTBEGIN
1070
    73
1070
     2
1070
    44
1040
0.9036139999999999
1070
    74
1070
     0
1000
MTEXTEND
  0
MTEXT
  5
C9DF
330
1E
100
AcDbEntity
  8
16
100
AcDbMText
 10
418.1117099999991
 20
223.6758200000001
 30
0.0
 40
8.0
 41
0.0
 71
     7
 72
     5
  1
\W01.000;\fsimplex.shx;H
  7
blockfont
 73
     2
 44
0.9036139999999999
1001
ACAD
1000
MTEXTBEGIN
1070
    73
1070
     2
1070
    44
1040
0.9036139999999999
1070
    74
1070
     0
1000
MTEXTEND
  0
MTEXT
  5
C9E0
330
1E
100
AcDbEntity
  8
16
100
AcDbMText
 10
420.8825424999993
 20
414.3995025000001
 30
0.0
 40
8.0
 41
0.0
 71
     7
 72
     5
  1
\W01.000;\fsimplex.shx;L
  7
blockfont
 73
     2
 44
0.9036139999999999
1001
ACAD
1000
MTEXTBEGIN
1070
    73
1070
     2
1070
    44
1040
0.9036139999999999
1070
    74
1070
     0
1000
MTEXTEND
  0
MTEXT
  5
C9E1
330
1E
100
AcDbEntity
  8
16
100
AcDbMText
 10
418.1117099999991
 20
418.6758200000001
 30
0.0
 40
8.0
 41
0.0
 71
     7
 72
     5
  1
\W01.000;\fsimplex.shx;H
  7
blockfont
 73
     2
 44
0.9036139999999999
1001
ACAD
1000
MTEXTBEGIN
1070
    73
1070
     2
1070
    44
1040
0.9036139999999999
1070
    74
1070
     0
1000
MTEXTEND
  0
MTEXT
  5
C9E2
330
1E
100
AcDbEntity
  8
16
100
AcDbMText
 10
420.8825424999993
 20
-260.6004974999998
 30
0.0
 40
8.0
 41
0.0
 71
     7
 72
     5
  1
\W01.000;\fsimplex.shx;L
  7
blockfont
 73
     2
 44
0.9036139999999999
1001
ACAD
1000
MTEXTBEGIN
1070
    73
1070
     2
1070
    44
1040
0.9036139999999999
1070
    74
1070
     0
1000
MTEXTEND
  0
MTEXT
  5
C9E3
330
1E
100
AcDbEntity
  8
16
100
AcDbMText
 10
418.1117099999991
 20
-256.3241799999998
 30
0.0
 40
8.0
 41
0.0
 71
     7
 72
     5
  1
\W01.000;\fsimplex.shx;H
  7
blockfont
 73
     2
 44
0.9036139999999999
1001
ACAD
1000
MTEXTBEGIN
1070
    73
1070
     2
1070
    44
1040
0.9036139999999999
1070
    74
1070
     0
1000
MTEXTEND
  0
MTEXT
  5
C9E4
330
1E
100
AcDbEntity
  8
16
100
AcDbMText
 10
710.8825424999992
 20
-260.6004974999998
 30
0.0
 40
8.0
 41
0.0
 71
     7
 72
     5
  1
\W01.000;\fsimplex.shx;L
  7
blockfont
 73
     2
 44
0.9036139999999999
1001
ACAD
1000
MTEXTBEGIN
1070
    73
1070
     2
1070
    44
1040
0.9036139999999999
1070
    74
1070
     0
1000
MTEXTEND
  0
MTEXT
  5
C9E5
330
1E
100
AcDbEntity
  8
16
100
AcDbMText
 10
708.1117099999992
 20
-256.3241799999998
 30
0.0
 40
8.0
 41
0.0
 71
     7
 72
     5
  1
\W01.000;\fsimplex.shx;H
  7
blockfont
 73
     2
 44
0.9036139999999999
1001
ACAD
1000
MTEXTBEGIN
1070
    73
1070
     2
1070
    44
1040
0.9036139999999999
1070
    74
1070
     0
1000
MTEXTEND
  0
DIMENSION
  5
C9E6
330
1E
100
AcDbEntity
  8
30
100
AcDbDimension
  2
*D6
 10
600.0
 20
55.00000000000002
 30
0.0
 11
595.0
 21
10.00000000000006
 31
0.0
 70
    32
  1
 <> 
 71
     5
 42
90.00000000000012
  3
STANDARD1
100
AcDbAlignedDimension
 13
659.0
 23
-35.00000000000011
 33
0.0
 14
659.0
 24
55.0
 34
0.0
 50
90.0
100
AcDbRotatedDimension
  0
DIMENSION
  5
C9E7
330
1E
100
AcDbEntity
  8
30
100
AcDbDimension
  2
*D7
 10
590.0
 20
61.00000000000003
 30
0.0
 11
585.0
 21
10.00000000000012
 31
0.0
 70
    32
  1
 <> 
 71
     5
 42
102.0
  3
STANDARD1
100
AcDbAlignedDimension
 13
667.0
 23
-41.0
 33
0.0
 14
667.0
 24
61.0
 34
0.0
 50
90.0
100
AcDbRotatedDimension
  0
DIMENSION
  5
C9E8
330
1E
100
AcDbEntity
  8
30
  6
Continuous
100
AcDbDimension
  2
*D8
 10
240.0
 20
-120.0
 30
0.0
 11
235.0
 21
-158.9999999999999
 31
0.0
 70
    32
 71
     5
 42
77.99999999999996
  3
STANDARD1
100
AcDbAlignedDimension
 13
290.0000000000009
 23
-197.9999999999999
 33
0.0
 14
350.0000000000008
 24
-120.0
 34
0.0
 50
270.0
100
AcDbRotatedDimension
  0
DIMENSION
  5
C9E9
330
1E
100
AcDbEntity
  8
30
  6
Continuous
100
AcDbDimension
  2
*D9
 10
771.6
 20
-170.0
 30
0.0
 11
722.2999999999998
 21
-165.0
 31
0.0
 70
    32
 71
     5
 42
98.60000000000027
  3
STANDARD1
100
AcDbAlignedDimension
 13
672.9999999999997
 23
-120.0
 33
0.0
 14
771.6
 24
-170.0
 34
0.0
100
AcDbRotatedDimension
  0
DIMENSION
  5
C9EA
330
1E
100
AcDbEntity
  8
30
100
AcDbDimension
  2
*D10
 10
771.6
 20
-150.0
 30
0.0
 11
757.2000000000001
 21
-150.0
 31
0.0
 70
   160
  1
 <> 
 71
     5
 42
1.59999999999968
  3
STANDARD1
100
AcDbAlignedDimension
 13
770.0000000000003
 23
-150.5000000000004
 33
0.0
 14
771.6
 24
-150.0
 34
0.0
100
AcDbRotatedDimension
  0
DIMENSION
  5
C9EB
330
1E
100
AcDbEntity
  8
30
  6
Continuous
100
AcDbDimension
  2
*D11
 10
771.6
 20
-210.0
 30
0.0
 11
707.05
 21
-205.0
 31
0.0
 70
    32
 71
     5
 42
129.1
  3
STANDARD1
100
AcDbAlignedDimension
 13
642.4999999999998
 23
9.999999999999886
 33
0.0
 14
771.6
 24
-198.0000000000003
 34
0.0
100
AcDbRotatedDimension
  0
ARC
  5
C9EC
330
1E
100
AcDbEntity
  8
30
  6
Continuous
100
AcDbCircle
 10
-395.1754247083853
 20
151.6625849334405
 30
0.0
 40
1047.300613488674
100
AcDbArc
 50
352.2260855765429
 51
353.5496938535667
  0
LINE
  5
C9ED
330
1E
100
AcDbEntity
  8
16
100
AcDbLine
 10
420.0
 20
220.0
 30
0.0
 11
420.0
 21
-202.0
 31
0.0
  0
DIMENSION
  5
C9EE
330
1E
100
AcDbEntity
  8
30
100
AcDbDimension
  2
*D12
 10
478.0
 20
70.0
 30
0.0
 11
440.0000000000003
 21
70.0
 31
0.0
 70
   160
  1
 <> 
 71
     5
 42
115.9999999999991
  3
STANDARD1
100
AcDbAlignedDimension
 13
362.0000000000008
 23
50.0
 33
0.0
 14
478.0
 24
50.0
 34
0.0
100
AcDbRotatedDimension
  0
DIMENSION
  5
C9EF
330
1E
100
AcDbEntity
  8
30
100
AcDbDimension
  2
*D13
 10
445.5
 20
-60.0
 30
0.0
 11
430.0000000000004
 21
-60.0
 31
0.0
 70
   160
  1
 <> 
 71
     5
 42
50.99999999999909
  3
STANDARD1
100
AcDbAlignedDimension
 13
394.5000000000009
 23
-35.0
 33
0.0
 14
445.5
 24
-35.0
 34
0.0
100
AcDbRotatedDimension
  0
LINE
  5
CCC8
330
1E
100
AcDbEntity
  8
240
  6
PHANTOM
 62
     5
 48
0.05
100
AcDbLine
 10
440.5
 20
140.0
 30
0.0
 11
440.5
 21
250.0
 31
0.0
  0
LINE
  5
CCC9
330
1E
100
AcDbEntity
  8
240
  6
PHANTOM
 62
     5
 48
0.05
100
AcDbLine
 10
444.5000000000008
 20
140.0
 30
0.0
 11
444.5000000000008
 21
250.0
 31
0.0
  0
LINE
  5
CCCA
330
1E
100
AcDbEntity
  8
240
  6
PHANTOM
 62
     5
 48
0.05
100
AcDbLine
 10
395.5
 20
250.0
 30
0.0
 11
399.5000000000008
 21
250.0
 31
0.0
  0
LINE
  5
CCCB
330
1E
100
AcDbEntity
  8
240
  6
PHANTOM
 62
     5
 48
0.05
100
AcDbLine
 10
440.5
 20
250.0
 30
0.0
 11
444.5000000000008
 21
250.0
 31
0.0
  0
LINE
  5
CCCC
330
1E
100
AcDbEntity
  8
240
  6
PHANTOM
 62
     5
 48
0.05
100
AcDbLine
 10
444.5000000000008
 20
140.0
 30
0.0
 11
444.5000000000008
 21
250.0
 31
0.0
  0
LINE
  5
CCCD
330
1E
100
AcDbEntity
  8
240
  6
PHANTOM
 62
     5
 48
0.05
100
AcDbLine
 10
440.5
 20
250.0
 30
0.0
 11
444.5000000000008
 21
250.0
 31
0.0
  0
LINE
  5
CCCE
330
1E
100
AcDbEntity
  8
21
  6
PHANTOM
 62
     5
 48
0.05
100
AcDbLine
 10
395.5
 20
250.0
 30
0.0
 11
399.5000000000008
 21
250.0
 31
0.0
  0
LINE
  5
CCCF
330
1E
100
AcDbEntity
  8
240
  6
PHANTOM
 62
     5
 48
0.05
100
AcDbLine
 10
440.5
 20
140.0
 30
0.0
 11
440.5
 21
250.0
 31
0.0
  0
LINE
  5
CCD0
330
1E
100
AcDbEntity
  8
240
  6
PHANTOM
 62
     5
 48
0.05
100
AcDbLine
 10
395.5
 20
140.0
 30
0.0
 11
395.5
 21
250.0
 31
0.0
  0
LINE
  5
CCD1
330
1E
100
AcDbEntity
  8
240
  6
PHANTOM
 62
     5
 48
0.05
100
AcDbLine
 10
399.5000000000008
 20
140.0
 30
0.0
 11
399.5000000000008
 21
250.0
 31
0.0
  0
LINE
  5
CCD2
330
1E
100
AcDbEntity
  8
240
  6
PHANTOM
 62
     5
 48
0.05
100
AcDbLine
 10
440.5
 20
250.0
 30
0.0
 11
444.5000000000008
 21
250.0
 31
0.0
  0
DIMENSION
  5
CD83
330
1E
100
AcDbEntity
  8
30
  6
Continuous
100
AcDbDimension
  2
*D36
 10
570.0
 20
-120.0
 30
0.0
 11
565.0
 21
10.00000000000008
 31
0.0
 70
    32
 71
     5
 42
260.0
  3
STANDARD1
100
AcDbAlignedDimension
 13
490.0
 23
140.0
 33
0.0
 14
490.0
 24
-120.0
 34
0.0
 50
90.0
100
AcDbRotatedDimension
  0
DIMENSION
  5
CD84
330
1E
100
AcDbEntity
  8
30
  6
Continuous
100
AcDbDimension
  2
*D37
 10
570.0
 20
140.0
 30
0.0
 11
565.0
 21
195.0000000000001
 31
0.0
 70
    32
 71
     5
 42
109.9999999999999
  3
STANDARD1
100
AcDbAlignedDimension
 13
444.5000000000008
 23
250.0
 33
0.0
 14
490.0
 24
140.0
 34
0.0
 50
90.0
100
AcDbRotatedDimension
  0
DIMENSION
  5
CDD1
330
1E
100
AcDbEntity
  8
30
100
AcDbDimension
  2
*D38
 10
771.6
 20
-160.0
 30
0.0
 11
728.1499999999997
 21
-155.0
 31
0.0
 70
    32
  1
 <> 
 71
     5
 42
86.90000000000067
  3
STANDARD1
100
AcDbAlignedDimension
 13
684.6999999999994
 23
-101.2499999999997
 33
0.0
 14
771.6
 24
-160.0
 34
0.0
100
AcDbRotatedDimension
  0
DIMENSION
  5
CDD2
330
1E
100
AcDbEntity
  8
30
100
AcDbDimension
  2
*D39
 10
784.7
 20
-160.0
 30
0.0
 11
797.5
 21
-155.0
 31
0.0
 70
    32
  1
 <> 
 71
     5
 42
13.10000000000002
  3
STANDARD1
100
AcDbAlignedDimension
 13
771.6
 23
-160.0
 33
0.0
 14
784.7
 24
-99.2499999999999
 34
0.0
100
AcDbRotatedDimension
  0
DIMENSION
  5
CFE9
330
1E
100
AcDbEntity
  8
30
  6
Continuous
100
AcDbDimension
  2
*D40
 10
250.0
 20
-104.0
 30
0.0
 11
245.0
 21
10.00000000000007
 31
0.0
 70
    32
 71
     5
 42
228.0
  3
STANDARD1
100
AcDbAlignedDimension
 13
366.0000000000009
 23
124.0
 33
0.0
 14
366.0000000000009
 24
-104.0
 34
0.0
 50
90.0
100
AcDbRotatedDimension
  0
VIEWPORT
  5
9AC
102
{ACAD_XDICTIONARY
360
D0A9
102
}
330
1A
100
AcDbEntity
 67
     1
  8
0
  6
Continuous
100
AcDbViewport
 10
171.999535
 20
144.1384739999999
 30
0.0
 40
488.867686
 41
292.351491
 68
    -1
 69
     1
 12
171.999535
 22
144.1384739999999
 13
0.0
 23
0.0
 14
10.0
 24
10.0
 15
10.0
 25
10.0
 16
0.0
 26
0.0
 36
1.0
 17
0.0
 27
0.0
 37
0.0
 42
50.0
 43
0.0
 44
0.0
 45
292.351491
 50
0.0
 51
0.0
 72
   100
 90
    32800
  1

281
     0
 71
     1
 74
     0
110
0.0
120
0.0
130
0.0
111
1.0
121
0.0
131
0.0
112
0.0
122
1.0
132
0.0
 79
     0
146
0.0
  0
ENDSEC
  0
SECTION
  2
OBJECTS
  0
DICTIONARY
  5
C
330
0
100
AcDbDictionary
281
     1
  3
ACAD_COLOR
350
8055
  3
ACAD_GROUP
350
D
  3
ACAD_LAYOUT
350
19
  3
ACAD_MATERIAL
350
8028
  3
ACAD_MLEADERSTYLE
350
807A
  3
ACAD_MLINESTYLE
350
16
  3
ACAD_PLOTSETTINGS
350
18
  3
ACAD_PLOTSTYLENAME
350
E
  3
ACAD_SCALELIST
350
8058
  3
ACAD_TABLESTYLE
350
8056
  3
ACAD_VISUALSTYLE
350
8041
  3
ACADDIM
350
6D5E
  3
ACDB_RECOMPOSE_DATA
350
D0A7
  3
ACDBVARIABLEDICTIONARY
350
5697
  3
AEC_PROPERTY_SET_DEFS
350
9411
  3
ASE_INDEX_DICTIONARY
350
809A
  3
BNS_VARIABLES
350
A288
  3
DWGPROPS
350
D0A8
  0
DICTIONARY
  5
9409
330
2
100
AcDbDictionary
280
     1
281
     1
  3
ACAD_LAYERSTATES
360
940A
  0
DICTIONARY
  5
8081
330
10
100
AcDbDictionary
280
     1
281
     1
  3
ADSK_XREC_LAYER_RECONCILED
360
8082
  0
DICTIONARY
  5
8083
330
2F
100
AcDbDictionary
280
     1
281
     1
  3
ADSK_XREC_LAYER_RECONCILED
360
8084
  0
DICTIONARY
  5
8085
330
31
100
AcDbDictionary
280
     1
281
     1
  3
ADSK_XREC_LAYER_RECONCILED
360
8086
  0
DICTIONARY
  5
8087
330
35
100
AcDbDictionary
280
     1
281
     1
  3
ADSK_XREC_LAYER_RECONCILED
360
8088
  0
DICTIONARY
  5
808B
330
3D
100
AcDbDictionary
280
     1
281
     1
  3
ADSK_XREC_LAYER_RECONCILED
360
808C
  0
DICTIONARY
  5
808D
330
3A2
100
AcDbDictionary
280
     1
281
     1
  3
ADSK_XREC_LAYER_RECONCILED
360
808E
  0
DICTIONARY
  5
808F
330
3BBA
100
AcDbDictionary
280
     1
281
     1
  3
ADSK_XREC_LAYER_RECONCILED
360
8090
  0
DICTIONARY
  5
8091
330
67A8
100
AcDbDictionary
280
     1
281
     1
  3
ADSK_XREC_LAYER_RECONCILED
360
8092
  0
DICTIONARY
  5
8093
330
7837
100
AcDbDictionary
280
     1
281
     1
  3
ADSK_XREC_LAYER_RECONCILED
360
8094
  0
DICTIONARY
  5
178
330
1E
100
AcDbDictionary
280
     1
281
     1
  3
ACAD_LAYOUTSELFREF
360
7FF1
  0
DICTIONARY
  5
17A
330
1A
100
AcDbDictionary
280
     1
281
     1
  3
ACAD_LAYOUTSELFREF
360
7FF0
  0
DICTIONARY
  5
D0D6
330
CD02
100
AcDbDictionary
280
     1
281
     1
  3
ACAD_MTEXT_RT
360
D0D7
  0
DICTIONARY
  5
D0A9
330
9AC
100
AcDbDictionary
280
     1
281
     1
  3
ACAD_XREC_ROUNDTRIP
360
D0AA
  0
DICTIONARY
  5
8055
102
{ACAD_REACTORS
330
C
102
}
330
C
100
AcDbDictionary
281
     1
  0
DICTIONARY
  5
D
102
{ACAD_REACTORS
330
C
102
}
330
C
100
AcDbDictionary
281
     1
  0
DICTIONARY
  5
19
102
{ACAD_REACTORS
330
C
102
}
330
C
100
AcDbDictionary
281
     1
  3
Model
350
801C
  3
ﾚｲｱｳﾄ1
350
801D
  0
DICTIONARY
  5
8028
102
{ACAD_REACTORS
330
C
102
}
330
C
100
AcDbDictionary
281
     1
  3
ByBlock
350
8031
  3
ByLayer
350
8029
  3
Global
350
8039
  0
DICTIONARY
  5
807A
102
{ACAD_REACTORS
330
C
102
}
330
C
100
AcDbDictionary
281
     1
  3
Standard
350
807B
  0
DICTIONARY
  5
16
102
{ACAD_REACTORS
330
C
102
}
330
C
100
AcDbDictionary
281
     1
  3
STANDARD
350
17
  0
DICTIONARY
  5
18
102
{ACAD_REACTORS
330
C
102
}
330
C
100
AcDbDictionary
281
     1
  0
ACDBDICTIONARYWDFLT
  5
E
102
{ACAD_REACTORS
330
C
102
}
330
C
100
AcDbDictionary
281
     1
  3
Normal
350
F
100
AcDbDictionaryWithDefault
340
F
  0
DICTIONARY
  5
8058
102
{ACAD_REACTORS
330
C
102
}
330
C
100
AcDbDictionary
281
     1
  3
A0
350
8059
  3
A1
350
805A
  3
A2
350
805B
  3
A3
350
805C
  3
A4
350
805D
  3
A5
350
805E
  3
A6
350
805F
  3
A7
350
8060
  3
A8
350
8061
  3
A9
350
8062
  3
B0
350
8063
  3
B1
350
8064
  3
B2
350
8065
  3
B3
350
8066
  3
B4
350
8067
  3
B5
350
8068
  3
B6
350
8069
  3
B7
350
806A
  3
B8
350
806B
  3
B9
350
806C
  3
C0
350
806D
  3
C1
350
806E
  3
C2
350
806F
  3
C3
350
8070
  3
C4
350
8071
  3
C5
350
8072
  3
C6
350
8073
  3
C7
350
8074
  3
C8
350
8075
  3
C9
350
8076
  3
D0
350
8077
  3
D1
350
8078
  3
D2
350
8079
  0
DICTIONARY
  5
8056
102
{ACAD_REACTORS
330
C
102
}
330
C
100
AcDbDictionary
281
     1
  3
Standard
350
8057
  0
DICTIONARY
  5
8041
102
{ACAD_REACTORS
330
C
102
}
330
C
100
AcDbDictionary
281
     1
  3
2dWireframe
350
8047
  3
3D Hidden
350
8049
  3
3dWireframe
350
8048
  3
Basic
350
8046
  3
Brighten
350
804D
  3
ColorChange
350
8051
  3
Conceptual
350
804A
  3
Dim
350
804C
  3
EdgeColorOff
350
8054
  3
Facepattern
350
8050
  3
Flat
350
8042
  3
FlatWithEdges
350
8043
  3
Gouraud
350
8044
  3
GouraudWithEdges
350
8045
  3
JitterOff
350
8052
  3
Linepattern
350
804F
  3
OverhangOff
350
8053
  3
Realistic
350
804B
  3
Thicken
350
804E
  3
Wireframe
350
9C8E
  0
XRECORD
  5
6D5E
102
{ACAD_REACTORS
330
C
102
}
330
C
100
AcDbXrecord
280
     1
 90
   990106
  3

 60
     0
 61
     0
 62
     1
 63
     3
 64
     0
 65
     0
 66
     0
 67
     3
 68
     1
 69
     0
 70
     0
 71
     0
 72
     0
 40
0.0
170
     0
340
7CA9
  0
XRECORD
  5
D0A7
102
{ACAD_REACTORS
330
C
102
}
330
C
100
AcDbXrecord
280
     1
 90
        1
330
8057
  0
DICTIONARY
  5
5697
102
{ACAD_REACTORS
330
C
102
}
330
C
100
AcDbDictionary
281
     1
  3
CANNOSCALE
350
809F
  3
CMLEADERSTYLE
350
809E
  3
CTABLESTYLE
350
809D
  3
DIMASSOC
350
5698
  3
INDEXCTL
350
80A1
  3
SORTENTS
350
80A0
  3
XCLIPFRAME
350
D0A5
  0
DICTIONARY
  5
9411
102
{ACAD_REACTORS
330
C
102
}
330
C
100
AcDbDictionary
281
     1
  0
DICTIONARY
  5
809A
102
{ACAD_REACTORS
330
C
102
}
330
C
100
AcDbDictionary
281
     1
  3
ASEBlockHierarchyIndexRecord
350
809C
1001
DCO15
1040
1853561501.39
  0
DICTIONARY
  5
A288
102
{ACAD_REACTORS
330
C
102
}
330
C
100
AcDbDictionary
281
     1
  3
ACET-OVERKILL-FUZZ
350
A28D
  3
ACET-OVERKILL-NO-ENDTOEND
350
A290
  3
ACET-OVERKILL-NO-PARTIAL
350
A28F
  3
ACET-OVERKILL-NO-PLINES
350
A28E
  0
XRECORD
  5
D0A8
102
{ACAD_REACTORS
330
C
102
}
330
C
100
AcDbXrecord
280
     1
  1
DWGPROPS COOKIE
  2

  3

  4

  6

  7

  8
CAD-PC
  9

300
=
301
=
302
=
303
=
304
=
305
=
306
=
307
=
308
=
309
=
 40
1.427150358796296
 41
2452286.555658658
 42
2457256.469969792
  1

 90
        0
  0
DICTIONARY
  5
940A
102
{ACAD_REACTORS
330
9409
102
}
330
9409
100
AcDbDictionary
281
     1
  0
XRECORD
  5
8082
102
{ACAD_REACTORS
330
8081
102
}
330
8081
100
AcDbXrecord
280
     1
290
     1
  0
XRECORD
  5
8084
102
{ACAD_REACTORS
330
8083
102
}
330
8083
100
AcDbXrecord
280
     1
290
     1
  0
XRECORD
  5
8086
102
{ACAD_REACTORS
330
8085
102
}
330
8085
100
AcDbXrecord
280
     1
290
     1
  0
XRECORD
  5
8088
102
{ACAD_REACTORS
330
8087
102
}
330
8087
100
AcDbXrecord
280
     1
290
     1
  0
XRECORD
  5
808C
102
{ACAD_REACTORS
330
808B
102
}
330
808B
100
AcDbXrecord
280
     1
290
     1
  0
XRECORD
  5
808E
102
{ACAD_REACTORS
330
808D
102
}
330
808D
100
AcDbXrecord
280
     1
290
     1
  0
XRECORD
  5
8090
102
{ACAD_REACTORS
330
808F
102
}
330
808F
100
AcDbXrecord
280
     1
290
     1
  0
XRECORD
  5
8092
102
{ACAD_REACTORS
330
8091
102
}
330
8091
100
AcDbXrecord
280
     1
290
     1
  0
XRECORD
  5
8094
102
{ACAD_REACTORS
330
8093
102
}
330
8093
100
AcDbXrecord
280
     1
290
     1
  0
XRECORD
  5
7FF1
102
{ACAD_REACTORS
330
178
102
}
330
178
100
AcDbXrecord
280
     1
340
1E
  0
XRECORD
  5
7FF0
102
{ACAD_REACTORS
330
17A
102
}
330
17A
100
AcDbXrecord
280
     1
340
1A
  0
XRECORD
  5
D0D7
102
{ACAD_REACTORS
330
D0D6
102
}
330
D0D6
100
AcDbXrecord
280
     1
 40
5014.0
  1
\A1;\U+220511
  0
XRECORD
  5
D0AA
102
{ACAD_REACTORS
330
D0A9
102
}
330
D0A9
100
AcDbXrecord
280
     1
102
SHADEPLOT
 70
     0
  0
LAYOUT
  5
801C
102
{ACAD_XDICTIONARY
360
D0AB
102
}
102
{ACAD_REACTORS
330
19
102
}
330
19
100
AcDbPlotSettings
  1

  2
Canon LBP3800 LIPSLX
  4
A4
  6

 40
5.873749732971191
 41
5.873747825622557
 42
5.873748779296875
 43
5.873748779296875
 44
209.9733276367186
 45
296.9259948730469
 46
31.91758398562551
 47
9.793724410554148
 48
0.0
 49
0.0
140
0.0
141
0.0
142
1.0
143
3.5
 70
 11940
 72
     1
 73
     0
 74
     1
  7
monochrome.ctb
 75
     0
147
0.3067858314630609
148
120.5887787465562
149
519.2607932775501
100
AcDbLayout
  1
Model
 70
     1
 71
     0
 10
0.0
 20
0.0
 11
12.0
 21
9.0
 12
0.0
 22
0.0
 32
0.0
 14
0.0
 24
0.0
 34
0.0
 15
0.0
 25
0.0
 35
0.0
146
0.0
 13
0.0
 23
0.0
 33
0.0
 16
1.0
 26
0.0
 36
0.0
 17
0.0
 27
1.0
 37
0.0
 76
     0
330
1E
331
8021
1001
ACAD_PSEXT
1000
Canon LBP3800 LIPSLX
1000
Canon LBP3800 LIPSLX
1000
IP_192.168.54.50
1000

1070
     0
  0
LAYOUT
  5
801D
102
{ACAD_XDICTIONARY
360
D0AD
102
}
102
{ACAD_REACTORS
330
19
102
}
330
19
100
AcDbPlotSettings
  1

  2
Canon LBP3800 LIPSLX
  4

  6

 40
0.0
 41
0.0
 42
0.0
 43
0.0
 44
0.0
 45
0.0
 46
0.0
 47
0.0
 48
0.0
 49
0.0
140
0.0
141
0.0
142
1.0
143
1.0
 70
   688
 72
     0
 73
     0
 74
     5
  7
monochrome.ctb
 75
    16
147
1.0
148
0.0
149
0.0
100
AcDbLayout
  1
ﾚｲｱｳﾄ1
 70
     1
 71
     1
 10
-5.873749
 20
-5.87375
 11
204.099579
 21
291.1369009999999
 12
0.0
 22
0.0
 32
0.0
 14
4.273573
 24
5.205245999999998
 34
0.0
 15
194.610095
 25
283.0697009999996
 35
0.0
146
0.0
 13
0.0
 23
0.0
 33
0.0
 16
1.0
 26
0.0
 36
0.0
 17
0.0
 27
1.0
 37
0.0
 76
     0
330
1A
  0
MATERIAL
  5
8031
102
{ACAD_XDICTIONARY
360
8032
102
}
102
{ACAD_REACTORS
330
8028
102
}
330
8028
100
AcDbMaterial
  1
ByBlock
 72
     0
 43
0.0208333333333333
 43
0.0
 43
0.0
 43
0.0
 43
0.0
 43
0.0208333333333333
 43
0.0
 43
0.0
 43
0.0
 43
0.0
 43
1.0
 43
0.0
 43
0.0
 43
0.0
 43
0.0
 43
1.0
 77
     0
 47
0.0208333333333333
 47
0.0
 47
0.0
 47
0.0
 47
0.0
 47
0.0208333333333333
 47
0.0
 47
0.0
 47
0.0
 47
0.0
 47
1.0
 47
0.0
 47
0.0
 47
0.0
 47
0.0
 47
1.0
171
     0
 49
0.0208333333333333
 49
0.0
 49
0.0
 49
0.0
 49
0.0
 49
0.0208333333333333
 49
0.0
 49
0.0
 49
0.0
 49
0.0
 49
1.0
 49
0.0
 49
0.0
 49
0.0
 49
0.0
 49
1.0
175
     0
142
0.0208333333333333
142
0.0
142
0.0
142
0.0
142
0.0
142
0.0208333333333333
142
0.0
142
0.0
142
0.0
142
0.0
142
1.0
142
0.0
142
0.0
142
0.0
142
0.0
142
1.0
179
     0
144
0.0208333333333333
144
0.0
144
0.0
144
0.0
144
0.0
144
0.0208333333333333
144
0.0
144
0.0
144
0.0
144
0.0
144
1.0
144
0.0
144
0.0
144
0.0
144
0.0
144
1.0
147
0.0208333333333333
147
0.0
147
0.0
147
0.0
147
0.0
147
0.0208333333333333
147
0.0
147
0.0
147
0.0
147
0.0
147
1.0
147
0.0
147
0.0
147
0.0
147
0.0
147
1.0
  0
MATERIAL
  5
8029
102
{ACAD_XDICTIONARY
360
802A
102
}
102
{ACAD_REACTORS
330
8028
102
}
330
8028
100
AcDbMaterial
  1
ByLayer
 72
     0
 43
0.0208333333333333
 43
0.0
 43
0.0
 43
0.0
 43
0.0
 43
0.0208333333333333
 43
0.0
 43
0.0
 43
0.0
 43
0.0
 43
1.0
 43
0.0
 43
0.0
 43
0.0
 43
0.0
 43
1.0
 77
     0
 47
0.0208333333333333
 47
0.0
 47
0.0
 47
0.0
 47
0.0
 47
0.0208333333333333
 47
0.0
 47
0.0
 47
0.0
 47
0.0
 47
1.0
 47
0.0
 47
0.0
 47
0.0
 47
0.0
 47
1.0
171
     0
 49
0.0208333333333333
 49
0.0
 49
0.0
 49
0.0
 49
0.0
 49
0.0208333333333333
 49
0.0
 49
0.0
 49
0.0
 49
0.0
 49
1.0
 49
0.0
 49
0.0
 49
0.0
 49
0.0
 49
1.0
175
     0
142
0.0208333333333333
142
0.0
142
0.0
142
0.0
142
0.0
142
0.0208333333333333
142
0.0
142
0.0
142
0.0
142
0.0
142
1.0
142
0.0
142
0.0
142
0.0
142
0.0
142
1.0
179
     0
144
0.0208333333333333
144
0.0
144
0.0
144
0.0
144
0.0
144
0.0208333333333333
144
0.0
144
0.0
144
0.0
144
0.0
144
1.0
144
0.0
144
0.0
144
0.0
144
0.0
144
1.0
147
0.0208333333333333
147
0.0
147
0.0
147
0.0
147
0.0
147
0.0208333333333333
147
0.0
147
0.0
147
0.0
147
0.0
147
1.0
147
0.0
147
0.0
147
0.0
147
0.0
147
1.0
  0
MATERIAL
  5
8039
102
{ACAD_XDICTIONARY
360
803A
102
}
102
{ACAD_REACTORS
330
8028
102
}
330
8028
100
AcDbMaterial
  1
Global
 72
     0
 43
0.0208333333333333
 43
0.0
 43
0.0
 43
0.0
 43
0.0
 43
0.0208333333333333
 43
0.0
 43
0.0
 43
0.0
 43
0.0
 43
1.0
 43
0.0
 43
0.0
 43
0.0
 43
0.0
 43
1.0
 77
     0
 47
0.0208333333333333
 47
0.0
 47
0.0
 47
0.0
 47
0.0
 47
0.0208333333333333
 47
0.0
 47
0.0
 47
0.0
 47
0.0
 47
1.0
 47
0.0
 47
0.0
 47
0.0
 47
0.0
 47
1.0
171
     0
 49
0.0208333333333333
 49
0.0
 49
0.0
 49
0.0
 49
0.0
 49
0.0208333333333333
 49
0.0
 49
0.0
 49
0.0
 49
0.0
 49
1.0
 49
0.0
 49
0.0
 49
0.0
 49
0.0
 49
1.0
175
     0
142
0.0208333333333333
142
0.0
142
0.0
142
0.0
142
0.0
142
0.0208333333333333
142
0.0
142
0.0
142
0.0
142
0.0
142
1.0
142
0.0
142
0.0
142
0.0
142
0.0
142
1.0
179
     0
144
0.0208333333333333
144
0.0
144
0.0
144
0.0
144
0.0
144
0.0208333333333333
144
0.0
144
0.0
144
0.0
144
0.0
144
1.0
144
0.0
144
0.0
144
0.0
144
0.0
144
1.0
147
0.0208333333333333
147
0.0
147
0.0
147
0.0
147
0.0
147
0.0208333333333333
147
0.0
147
0.0
147
0.0
147
0.0
147
1.0
147
0.0
147
0.0
147
0.0
147
0.0
147
1.0
  0
MLEADERSTYLE
  5
807B
102
{ACAD_REACTORS
330
807A
102
}
330
807A
100
AcDbMLeaderStyle
170
     2
171
     1
172
     0
 90
        2
 40
0.0
 41
0.0
173
     1
 91
-1056964608
340
13
 92
       -2
290
     1
 42
0.09
291
     1
 43
0.36
  3
Standard
 44
0.18
300

342
11
174
     1
178
     6
175
     1
176
     0
 93
-1056964608
 45
0.18
292
     0
297
     0
 46
0.18
 94
-1056964608
 47
1.0
 49
1.0
140
1.0
293
     1
141
0.0
294
     1
177
     0
142
1.0
295
     0
296
     0
143
0.125
1001
ACAD_MLEADERVER
1070
     2
  0
MLINESTYLE
  5
17
102
{ACAD_REACTORS
330
16
102
}
330
16
100
AcDbMlineStyle
  2
STANDARD
 70
     0
  3

 62
   256
 51
90.0
 52
90.0
 71
     2
 49
0.5
 62
   256
  6
BYLAYER
 49
-0.5
 62
   256
  6
BYLAYER
  0
ACDBPLACEHOLDER
  5
F
102
{ACAD_REACTORS
330
E
102
}
330
E
  0
SCALE
  5
8059
102
{ACAD_REACTORS
330
8058
102
}
330
8058
100
AcDbScale
 70
     0
300
1:1
140
1.0
141
1.0
290
     1
  0
SCALE
  5
805A
102
{ACAD_REACTORS
330
8058
102
}
330
8058
100
AcDbScale
 70
     0
300
1:2
140
1.0
141
2.0
290
     0
  0
SCALE
  5
805B
102
{ACAD_REACTORS
330
8058
102
}
330
8058
100
AcDbScale
 70
     0
300
1:4
140
1.0
141
4.0
290
     0
  0
SCALE
  5
805C
102
{ACAD_REACTORS
330
8058
102
}
330
8058
100
AcDbScale
 70
     0
300
1:5
140
1.0
141
5.0
290
     0
  0
SCALE
  5
805D
102
{ACAD_REACTORS
330
8058
102
}
330
8058
100
AcDbScale
 70
     0
300
1:8
140
1.0
141
8.0
290
     0
  0
SCALE
  5
805E
102
{ACAD_REACTORS
330
8058
102
}
330
8058
100
AcDbScale
 70
     0
300
1:10
140
1.0
141
10.0
290
     0
  0
SCALE
  5
805F
102
{ACAD_REACTORS
330
8058
102
}
330
8058
100
AcDbScale
 70
     0
300
1:16
140
1.0
141
16.0
290
     0
  0
SCALE
  5
8060
102
{ACAD_REACTORS
330
8058
102
}
330
8058
100
AcDbScale
 70
     0
300
1:20
140
1.0
141
20.0
290
     0
  0
SCALE
  5
8061
102
{ACAD_REACTORS
330
8058
102
}
330
8058
100
AcDbScale
 70
     0
300
1:30
140
1.0
141
30.0
290
     0
  0
SCALE
  5
8062
102
{ACAD_REACTORS
330
8058
102
}
330
8058
100
AcDbScale
 70
     0
300
1:40
140
1.0
141
40.0
290
     0
  0
SCALE
  5
8063
102
{ACAD_REACTORS
330
8058
102
}
330
8058
100
AcDbScale
 70
     0
300
1:50
140
1.0
141
50.0
290
     0
  0
SCALE
  5
8064
102
{ACAD_REACTORS
330
8058
102
}
330
8058
100
AcDbScale
 70
     0
300
1:100
140
1.0
141
100.0
290
     0
  0
SCALE
  5
8065
102
{ACAD_REACTORS
330
8058
102
}
330
8058
100
AcDbScale
 70
     0
300
2:1
140
2.0
141
1.0
290
     0
  0
SCALE
  5
8066
102
{ACAD_REACTORS
330
8058
102
}
330
8058
100
AcDbScale
 70
     0
300
4:1
140
4.0
141
1.0
290
     0
  0
SCALE
  5
8067
102
{ACAD_REACTORS
330
8058
102
}
330
8058
100
AcDbScale
 70
     0
300
8:1
140
8.0
141
1.0
290
     0
  0
SCALE
  5
8068
102
{ACAD_REACTORS
330
8058
102
}
330
8058
100
AcDbScale
 70
     0
300
10:1
140
10.0
141
1.0
290
     0
  0
SCALE
  5
8069
102
{ACAD_REACTORS
330
8058
102
}
330
8058
100
AcDbScale
 70
     0
300
100:1
140
100.0
141
1.0
290
     0
  0
SCALE
  5
806A
102
{ACAD_REACTORS
330
8058
102
}
330
8058
100
AcDbScale
 70
     0
300
1/128" = 1'-0"
140
0.0078125
141
12.0
290
     0
  0
SCALE
  5
806B
102
{ACAD_REACTORS
330
8058
102
}
330
8058
100
AcDbScale
 70
     0
300
1/64" = 1'-0"
140
0.015625
141
12.0
290
     0
  0
SCALE
  5
806C
102
{ACAD_REACTORS
330
8058
102
}
330
8058
100
AcDbScale
 70
     0
300
1/32" = 1'-0"
140
0.03125
141
12.0
290
     0
  0
SCALE
  5
806D
102
{ACAD_REACTORS
330
8058
102
}
330
8058
100
AcDbScale
 70
     0
300
1/16" = 1'-0"
140
0.0625
141
12.0
290
     0
  0
SCALE
  5
806E
102
{ACAD_REACTORS
330
8058
102
}
330
8058
100
AcDbScale
 70
     0
300
3/32" = 1'-0"
140
0.09375
141
12.0
290
     0
  0
SCALE
  5
806F
102
{ACAD_REACTORS
330
8058
102
}
330
8058
100
AcDbScale
 70
     0
300
1/8" = 1'-0"
140
0.125
141
12.0
290
     0
  0
SCALE
  5
8070
102
{ACAD_REACTORS
330
8058
102
}
330
8058
100
AcDbScale
 70
     0
300
3/16" = 1'-0"
140
0.1875
141
12.0
290
     0
  0
SCALE
  5
8071
102
{ACAD_REACTORS
330
8058
102
}
330
8058
100
AcDbScale
 70
     0
300
1/4" = 1'-0"
140
0.25
141
12.0
290
     0
  0
SCALE
  5
8072
102
{ACAD_REACTORS
330
8058
102
}
330
8058
100
AcDbScale
 70
     0
300
3/8" = 1'-0"
140
0.375
141
12.0
290
     0
  0
SCALE
  5
8073
102
{ACAD_REACTORS
330
8058
102
}
330
8058
100
AcDbScale
 70
     0
300
1/2" = 1'-0"
140
0.5
141
12.0
290
     0
  0
SCALE
  5
8074
102
{ACAD_REACTORS
330
8058
102
}
330
8058
100
AcDbScale
 70
     0
300
3/4" = 1'-0"
140
0.75
141
12.0
290
     0
  0
SCALE
  5
8075
102
{ACAD_REACTORS
330
8058
102
}
330
8058
100
AcDbScale
 70
     0
300
1" = 1'-0"
140
1.0
141
12.0
290
     0
  0
SCALE
  5
8076
102
{ACAD_REACTORS
330
8058
102
}
330
8058
100
AcDbScale
 70
     0
300
1-1/2" = 1'-0"
140
1.5
141
12.0
290
     0
  0
SCALE
  5
8077
102
{ACAD_REACTORS
330
8058
102
}
330
8058
100
AcDbScale
 70
     0
300
3" = 1'-0"
140
3.0
141
12.0
290
     0
  0
SCALE
  5
8078
102
{ACAD_REACTORS
330
8058
102
}
330
8058
100
AcDbScale
 70
     0
300
6" = 1'-0"
140
6.0
141
12.0
290
     0
  0
SCALE
  5
8079
102
{ACAD_REACTORS
330
8058
102
}
330
8058
100
AcDbScale
 70
     0
300
1'-0" = 1'-0"
140
12.0
141
12.0
290
     0
  0
TABLESTYLE
  5
8057
102
{ACAD_XDICTIONARY
360
80A3
102
}
102
{ACAD_REACTORS
330
8056
102
}
330
8056
100
AcDbTableStyle
  3
Standard
 70
     0
 71
     0
 40
0.06
 41
0.06
280
     0
281
     0
  7
STANDARD
140
0.18
170
     2
 62
     0
 63
     7
283
     0
274
    -2
284
     1
 64
     0
275
    -2
285
     1
 65
     0
276
    -2
286
     1
 66
     0
277
    -2
287
     1
 67
     0
278
    -2
288
     1
 68
     0
279
    -2
289
     1
 69
     0
  7
STANDARD
140
0.25
170
     5
 62
     0
 63
     7
283
     0
274
    -2
284
     1
 64
     0
275
    -2
285
     1
 65
     0
276
    -2
286
     1
 66
     0
277
    -2
287
     1
 67
     0
278
    -2
288
     1
 68
     0
279
    -2
289
     1
 69
     0
  7
STANDARD
140
0.18
170
     5
 62
     0
 63
     7
283
     0
274
    -2
284
     1
 64
     0
275
    -2
285
     1
 65
     0
276
    -2
286
     1
 66
     0
277
    -2
287
     1
 67
     0
278
    -2
288
     1
 68
     0
279
    -2
289
     1
 69
     0
  0
VISUALSTYLE
  5
8047
102
{ACAD_XDICTIONARY
360
D0B9
102
}
102
{ACAD_REACTORS
330
8041
102
}
330
8041
100
AcDbVisualStyle
  2

 70
     4
 71
     0
 72
     2
 73
     0
 90
        0
 40
-0.6
 41
-30.0
 62
     5
 63
     7
 74
     1
 91
        4
 64
     7
 65
   257
 75
     1
175
     1
 42
1.0
 92
        0
 66
   257
 43
1.0
 76
     1
 77
     6
 78
     2
 67
     7
 79
     5
170
     0
171
     0
290
     0
174
     0
 93
        1
 44
0.0
173
     0
291
     0
 45
0.0
1001
ACAD
1000
AcDbSavedByObjectVersion
1070
     0
  0
VISUALSTYLE
  5
8049
102
{ACAD_XDICTIONARY
360
D0BD
102
}
102
{ACAD_REACTORS
330
8041
102
}
330
8041
100
AcDbVisualStyle
  2

 70
     6
 71
     1
 72
     2
 73
     2
 90
        0
 40
-0.6
 41
-30.0
 62
     5
 63
     7
 74
     2
 91
        2
 64
     7
 65
   257
 75
     2
175
     1
 42
179.0
 92
        0
 66
   257
 43
1.0
 76
     1
 77
     6
 78
     2
 67
     7
 79
     3
170
     0
171
     0
290
     0
174
     0
 93
        1
 44
0.0
173
     0
291
     0
 45
0.0
1001
ACAD
1000
AcDbSavedByObjectVersion
1070
     0
  0
VISUALSTYLE
  5
8048
102
{ACAD_XDICTIONARY
360
D0BB
102
}
102
{ACAD_REACTORS
330
8041
102
}
330
8041
100
AcDbVisualStyle
  2

 70
     5
 71
     0
 72
     2
 73
     0
 90
        0
 40
-0.6
 41
-30.0
 62
     5
 63
     7
 74
     1
 91
        4
 64
     7
 65
   257
 75
     1
175
     1
 42
1.0
 92
        0
 66
   257
 43
1.0
 76
     1
 77
     6
 78
     2
 67
     7
 79
     5
170
     0
171
     0
290
     0
174
     0
 93
        1
 44
0.0
173
     0
291
     0
 45
0.0
1001
ACAD
1000
AcDbSavedByObjectVersion
1070
     0
  0
VISUALSTYLE
  5
8046
102
{ACAD_XDICTIONARY
360
D0B7
102
}
102
{ACAD_REACTORS
330
8041
102
}
330
8041
100
AcDbVisualStyle
  2

 70
     7
 71
     1
 72
     0
 73
     1
 90
        0
 40
-0.6
 41
-30.0
 62
     5
 63
     7
 74
     0
 91
        4
 64
     7
 65
   257
 75
     1
175
     1
 42
1.0
 92
        8
 66
     7
 43
1.0
 76
     1
 77
     6
 78
     2
 67
     7
 79
     5
170
     0
171
     0
290
     0
174
     0
 93
        1
 44
0.0
173
     0
291
     1
 45
0.0
1001
ACAD
1000
AcDbSavedByObjectVersion
1070
     0
  0
VISUALSTYLE
  5
804D
102
{ACAD_XDICTIONARY
360
D0C5
102
}
102
{ACAD_REACTORS
330
8041
102
}
330
8041
100
AcDbVisualStyle
  2

 70
    12
 71
     2
 72
     2
 73
     0
 90
        0
 40
-0.6
 41
-30.0
 62
     5
 63
     7
 74
     1
 91
        4
 64
     7
 65
   257
 75
     1
175
     1
 42
1.0
 92
        8
 66
     7
 43
1.0
 76
     1
 77
     6
 78
     2
 67
     7
 79
     5
170
     0
171
     0
290
     0
174
     0
 93
        1
 44
50.0
173
     0
291
     1
 45
0.0
1001
ACAD
1000
AcDbSavedByObjectVersion
1070
     0
  0
VISUALSTYLE
  5
8051
102
{ACAD_XDICTIONARY
360
D0CD
102
}
102
{ACAD_REACTORS
330
8041
102
}
330
8041
100
AcDbVisualStyle
  2

 70
    16
 71
     2
 72
     2
 73
     3
 90
        0
 40
-0.6
 41
-30.0
 62
     5
 63
     8
 74
     1
 91
        4
 64
     7
 65
   257
 75
     1
175
     1
 42
1.0
 92
        8
 66
     8
 43
1.0
 76
     1
 77
     6
 78
     2
 67
     7
 79
     5
170
     0
171
     0
290
     0
174
     0
 93
        1
 44
0.0
173
     0
291
     1
 45
0.0
1001
ACAD
1000
AcDbSavedByObjectVersion
1070
     0
  0
VISUALSTYLE
  5
804A
102
{ACAD_XDICTIONARY
360
D0BF
102
}
102
{ACAD_REACTORS
330
8041
102
}
330
8041
100
AcDbVisualStyle
  2

 70
     9
 71
     3
 72
     2
 73
     0
 90
        0
 40
-0.6
 41
-30.0
 62
     5
 63
     7
 74
     2
 91
        2
 64
     7
 65
   257
 75
     1
175
     1
 42
179.0
 92
        8
 66
     7
 43
1.0
 76
     1
 77
     6
 78
     2
 67
     7
 79
     3
170
     0
171
     0
290
     0
174
     0
 93
        1
 44
0.0
173
     0
291
     0
 45
0.0
1001
ACAD
1000
AcDbSavedByObjectVersion
1070
     0
  0
VISUALSTYLE
  5
804C
102
{ACAD_XDICTIONARY
360
D0C3
102
}
102
{ACAD_REACTORS
330
8041
102
}
330
8041
100
AcDbVisualStyle
  2

 70
    11
 71
     2
 72
     2
 73
     0
 90
        0
 40
-0.6
 41
-30.0
 62
     5
 63
     7
 74
     1
 91
        4
 64
     7
 65
   257
 75
     1
175
     1
 42
1.0
 92
        8
 66
     7
 43
1.0
 76
     1
 77
     6
 78
     2
 67
     7
 79
     5
170
     0
171
     0
290
     0
174
     0
 93
        1
 44
-50.0
173
     0
291
     1
 45
0.0
1001
ACAD
1000
AcDbSavedByObjectVersion
1070
     0
  0
VISUALSTYLE
  5
8054
102
{ACAD_XDICTIONARY
360
D0D3
102
}
102
{ACAD_REACTORS
330
8041
102
}
330
8041
100
AcDbVisualStyle
  2

 70
    22
 71
     2
 72
     2
 73
     0
 90
        0
 40
-0.6
 41
-30.0
 62
     5
 63
     7
 74
     1
 91
        4
 64
     7
 65
   257
 75
     1
175
     1
 42
1.0
 92
        8
 66
     7
 43
1.0
 76
     1
 77
     6
 78
     2
 67
     7
 79
     5
170
     0
171
     0
290
     0
174
     0
 93
        1
 44
0.0
173
     0
291
     1
 45
0.0
1001
ACAD
1000
AcDbSavedByObjectVersion
1070
     0
  0
VISUALSTYLE
  5
8050
102
{ACAD_XDICTIONARY
360
D0CB
102
}
102
{ACAD_REACTORS
330
8041
102
}
330
8041
100
AcDbVisualStyle
  2

 70
    15
 71
     2
 72
     2
 73
     0
 90
        0
 40
-0.6
 41
-30.0
 62
     5
 63
     7
 74
     1
 91
        4
 64
     7
 65
   257
 75
     1
175
     1
 42
1.0
 92
        8
 66
     7
 43
1.0
 76
     1
 77
     6
 78
     2
 67
     7
 79
     5
170
     0
171
     0
290
     0
174
     0
 93
        1
 44
0.0
173
     0
291
     1
 45
0.0
1001
ACAD
1000
AcDbSavedByObjectVersion
1070
     0
  0
VISUALSTYLE
  5
8042
102
{ACAD_XDICTIONARY
360
D0AF
102
}
102
{ACAD_REACTORS
330
8041
102
}
330
8041
100
AcDbVisualStyle
  2

 70
     0
 71
     2
 72
     1
 73
     1
 90
        2
 40
-0.6
 41
30.0
 62
     5
 63
     7
 74
     0
 91
        4
 64
     7
 65
   257
 75
     1
175
     1
 42
1.0
 92
        8
 66
     7
 43
1.0
 76
     1
 77
     6
 78
     2
 67
     7
 79
     5
170
     0
171
     0
290
     0
174
     0
 93
       13
 44
0.0
173
     0
291
     1
 45
0.0
1001
ACAD
1000
AcDbSavedByObjectVersion
1070
     0
  0
VISUALSTYLE
  5
8043
102
{ACAD_XDICTIONARY
360
D0B1
102
}
102
{ACAD_REACTORS
330
8041
102
}
330
8041
100
AcDbVisualStyle
  2

 70
     1
 71
     2
 72
     1
 73
     1
 90
        2
 40
-0.6
 41
30.0
 62
     5
 63
     7
 74
     1
 91
        4
 64
     7
 65
   257
 75
     1
175
     1
 42
1.0
 92
        0
 66
   257
 43
1.0
 76
     1
 77
     6
 78
     2
 67
     7
 79
     5
170
     0
171
     0
290
     0
174
     0
 93
       13
 44
0.0
173
     0
291
     1
 45
0.0
1001
ACAD
1000
AcDbSavedByObjectVersion
1070
     0
  0
VISUALSTYLE
  5
8044
102
{ACAD_XDICTIONARY
360
D0B3
102
}
102
{ACAD_REACTORS
330
8041
102
}
330
8041
100
AcDbVisualStyle
  2

 70
     2
 71
     2
 72
     2
 73
     1
 90
        2
 40
-0.6
 41
30.0
 62
     5
 63
     7
 74
     0
 91
        4
 64
     7
 65
   257
 75
     1
175
     1
 42
1.0
 92
        0
 66
     7
 43
1.0
 76
     1
 77
     6
 78
     2
 67
     7
 79
     5
170
     0
171
     0
290
     0
174
     0
 93
       13
 44
0.0
173
     0
291
     1
 45
0.0
1001
ACAD
1000
AcDbSavedByObjectVersion
1070
     0
  0
VISUALSTYLE
  5
8045
102
{ACAD_XDICTIONARY
360
D0B5
102
}
102
{ACAD_REACTORS
330
8041
102
}
330
8041
100
AcDbVisualStyle
  2

 70
     3
 71
     2
 72
     2
 73
     1
 90
        2
 40
-0.6
 41
30.0
 62
     5
 63
     7
 74
     1
 91
        4
 64
     7
 65
   257
 75
     1
175
     1
 42
1.0
 92
        0
 66
   257
 43
1.0
 76
     1
 77
     6
 78
     2
 67
     7
 79
     5
170
     0
171
     0
290
     0
174
     0
 93
       13
 44
0.0
173
     0
291
     1
 45
0.0
1001
ACAD
1000
AcDbSavedByObjectVersion
1070
     0
  0
VISUALSTYLE
  5
8052
102
{ACAD_XDICTIONARY
360
D0CF
102
}
102
{ACAD_REACTORS
330
8041
102
}
330
8041
100
AcDbVisualStyle
  2

 70
    20
 71
     2
 72
     2
 73
     0
 90
        0
 40
-0.6
 41
-30.0
 62
     5
 63
     7
 74
     1
 91
        4
 64
     7
 65
   257
 75
     1
175
     1
 42
1.0
 92
       10
 66
     7
 43
1.0
 76
     1
 77
     6
 78
     2
 67
     7
 79
     5
170
     0
171
     0
290
     0
174
     0
 93
        1
 44
0.0
173
     0
291
     1
 45
0.0
1001
ACAD
1000
AcDbSavedByObjectVersion
1070
     0
  0
VISUALSTYLE
  5
804F
102
{ACAD_XDICTIONARY
360
D0C9
102
}
102
{ACAD_REACTORS
330
8041
102
}
330
8041
100
AcDbVisualStyle
  2

 70
    14
 71
     2
 72
     2
 73
     0
 90
        0
 40
-0.6
 41
-30.0
 62
     5
 63
     7
 74
     1
 91
        4
 64
     7
 65
   257
 75
     7
175
     7
 42
1.0
 92
        8
 66
     7
 43
1.0
 76
     1
 77
     6
 78
     2
 67
     7
 79
     5
170
     0
171
     0
290
     0
174
     0
 93
        1
 44
0.0
173
     0
291
     1
 45
0.0
1001
ACAD
1000
AcDbSavedByObjectVersion
1070
     0
  0
VISUALSTYLE
  5
8053
102
{ACAD_XDICTIONARY
360
D0D1
102
}
102
{ACAD_REACTORS
330
8041
102
}
330
8041
100
AcDbVisualStyle
  2

 70
    21
 71
     2
 72
     2
 73
     0
 90
        0
 40
-0.6
 41
-30.0
 62
     5
 63
     7
 74
     1
 91
        4
 64
     7
 65
   257
 75
     1
175
     1
 42
1.0
 92
        9
 66
     7
 43
1.0
 76
     1
 77
     6
 78
     2
 67
     7
 79
     5
170
     0
171
     0
290
     0
174
     0
 93
        1
 44
0.0
173
     0
291
     1
 45
0.0
1001
ACAD
1000
AcDbSavedByObjectVersion
1070
     0
  0
VISUALSTYLE
  5
804B
102
{ACAD_XDICTIONARY
360
D0C1
102
}
102
{ACAD_REACTORS
330
8041
102
}
330
8041
100
AcDbVisualStyle
  2

 70
     8
 71
     2
 72
     2
 73
     0
 90
        0
 40
-0.6
 41
-30.0
 62
     5
 63
     7
 74
     1
 91
        0
 64
     7
 65
   257
 75
     1
175
     1
 42
1.0
 92
        8
 66
     8
 43
1.0
 76
     1
 77
     6
 78
     2
 67
     7
 79
     5
170
     0
171
     0
290
     0
174
     0
 93
       13
 44
0.0
173
     0
291
     0
 45
0.0
1001
ACAD
1000
AcDbSavedByObjectVersion
1070
     0
  0
VISUALSTYLE
  5
804E
102
{ACAD_XDICTIONARY
360
D0C7
102
}
102
{ACAD_REACTORS
330
8041
102
}
330
8041
100
AcDbVisualStyle
  2

 70
    13
 71
     2
 72
     2
 73
     0
 90
        0
 40
-0.6
 41
-30.0
 62
     5
 63
     7
 74
     1
 91
        4
 64
     7
 65
   257
 75
     1
175
     1
 42
1.0
 92
       12
 66
     7
 43
1.0
 76
     1
 77
     6
 78
     2
 67
     7
 79
     5
170
     0
171
     0
290
     0
174
     0
 93
        1
 44
0.0
173
     0
291
     1
 45
0.0
1001
ACAD
1000
AcDbSavedByObjectVersion
1070
     0
  0
VISUALSTYLE
  5
9C8E
102
{ACAD_XDICTIONARY
360
9C8F
102
}
102
{ACAD_REACTORS
330
8041
102
}
330
8041
100
AcDbVisualStyle
  2

 70
     5
 71
     0
 72
     2
 73
     0
 90
        0
 40
-0.6
 41
-30.0
 62
     5
 63
     7
 74
     1
 91
        4
 64
     7
 65
   257
 75
     1
175
     1
 42
1.0
 92
        0
 66
   257
 43
1.0
 76
     1
 77
     6
 78
     2
 67
     7
 79
     3
170
     0
171
     0
290
     0
174
     0
 93
        1
 44
0.0
173
     0
291
     0
 45
0.0
1001
ACAD
1000
AcDbSavedByObjectVersion
1070
     0
  0
DICTIONARYVAR
  5
809F
102
{ACAD_REACTORS
330
5697
102
}
330
5697
100
DictionaryVariables
280
     0
  1
1:1
  0
DICTIONARYVAR
  5
809E
102
{ACAD_REACTORS
330
5697
102
}
330
5697
100
DictionaryVariables
280
     0
  1
STANDARD
  0
DICTIONARYVAR
  5
809D
102
{ACAD_REACTORS
330
5697
102
}
330
5697
100
DictionaryVariables
280
     0
  1
STANDARD
  0
DICTIONARYVAR
  5
5698
102
{ACAD_REACTORS
330
5697
102
}
330
5697
100
DictionaryVariables
280
     0
  1
1
  0
DICTIONARYVAR
  5
80A1
102
{ACAD_REACTORS
330
5697
102
}
330
5697
100
DictionaryVariables
280
     0
  1
0
  0
DICTIONARYVAR
  5
80A0
102
{ACAD_REACTORS
330
5697
102
}
330
5697
100
DictionaryVariables
280
     0
  1
127
  0
DICTIONARYVAR
  5
D0A5
102
{ACAD_REACTORS
330
5697
102
}
330
5697
100
DictionaryVariables
280
     0
  1
2
  0
XRECORD
  5
809C
102
{ACAD_REACTORS
330
809A
102
}
330
809A
100
AcDbXrecord
280
     1
330
C9D8
330
C9D9
330
C9DA
330
C9DB
330
C9DC
330
C9DD
330
C9D6
330
C9D7
330
CB8A
330
CB8B
330
CB93
330
CB94
330
CF84
330
CF85
330
CD38
330
CD39
330
CD41
330
CD42
330
CFE3
330
CFE4
330
CE16
330
CE17
330
CD55
330
CD56
330
CD5E
330
CD5F
330
CBDD
330
CBDE
330
CF56
330
CF57
330
CF8C
330
CF8D
330
CF95
330
CF96
330
CF9E
330
CFA6
330
CFA7
330
CFAF
330
CFB0
330
CCF0
330
CCF1
330
CCFA
330
CCFB
330
CD03
330
CFC8
330
CFC9
330
CFD1
330
CFD2
330
CFDA
330
CFDB
330
CC51
330
CC52
330
CE04
330
CE05
330
CE0D
330
CE0E
330
CD1D
330
CD1E
330
CFB8
330
CD26
330
CD27
330
CF5F
330
CF60
330
CF68
330
CF69
330
CF71
330
CF72
330
CF7A
330
CF7B
330
CD2F
330
CD30
330
CDA0
330
CDA1
330
CDA9
330
CDAA
330
CE51
330
CE52
330
CE48
330
CE49
330
D00B
330
D00C
  0
XRECORD
  5
A28D
102
{ACAD_REACTORS
330
A288
102
}
330
A288
100
AcDbXrecord
280
     1
 40
0.000001
  0
XRECORD
  5
A290
102
{ACAD_REACTORS
330
A288
102
}
330
A288
100
AcDbXrecord
280
     1
 70
     0
  0
XRECORD
  5
A28F
102
{ACAD_REACTORS
330
A288
102
}
330
A288
100
AcDbXrecord
280
     1
 70
     0
  0
XRECORD
  5
A28E
102
{ACAD_REACTORS
330
A288
102
}
330
A288
100
AcDbXrecord
280
     1
 70
     0
  0
DICTIONARY
  5
D0AB
330
801C
100
AcDbDictionary
280
     1
281
     1
  3
ACAD_XREC_ROUNDTRIP
360
D0AC
  0
DICTIONARY
  5
D0AD
330
801D
100
AcDbDictionary
280
     1
281
     1
  3
ACAD_XREC_ROUNDTRIP
360
D0AE
  0
DICTIONARY
  5
8032
330
8031
100
AcDbDictionary
280
     1
281
     1
  3
ACAD_XREC_ROUNDTRIP
360
80B4
  3
BUMPTILE
360
8034
  3
DIFFUSETILE
360
8033
  3
OPACITYTILE
360
8037
  3
REFLECTIONTILE
360
8036
  3
REFRACTIONTILE
360
8038
  3
SPECULARTILE
360
8035
  0
DICTIONARY
  5
802A
330
8029
100
AcDbDictionary
280
     1
281
     1
  3
ACAD_XREC_ROUNDTRIP
360
80B3
  3
BUMPTILE
360
802C
  3
DIFFUSETILE
360
802B
  3
OPACITYTILE
360
802F
  3
REFLECTIONTILE
360
802E
  3
REFRACTIONTILE
360
8030
  3
SPECULARTILE
360
802D
  0
DICTIONARY
  5
803A
330
8039
100
AcDbDictionary
280
     1
281
     1
  3
ACAD_XREC_ROUNDTRIP
360
80B5
  3
BUMPTILE
360
803C
  3
DIFFUSETILE
360
803B
  3
OPACITYTILE
360
803F
  3
REFLECTIONTILE
360
803E
  3
REFRACTIONTILE
360
8040
  3
SPECULARTILE
360
803D
  0
DICTIONARY
  5
80A3
330
8057
100
AcDbDictionary
280
     1
281
     1
  3
ACAD_ROUNDTRIP_2008_TABLESTYLE_CELLSTYLEMAP
360
D0A6
  3
ACAD_XREC_ROUNDTRIP
360
D0D5
  0
DICTIONARY
  5
D0B9
330
8047
100
AcDbDictionary
280
     1
281
     1
  3
ACAD_XREC_ROUNDTRIP
360
D0BA
  0
DICTIONARY
  5
D0BD
330
8049
100
AcDbDictionary
280
     1
281
     1
  3
ACAD_XREC_ROUNDTRIP
360
D0BE
  0
DICTIONARY
  5
D0BB
330
8048
100
AcDbDictionary
280
     1
281
     1
  3
ACAD_XREC_ROUNDTRIP
360
D0BC
  0
DICTIONARY
  5
D0B7
330
8046
100
AcDbDictionary
280
     1
281
     1
  3
ACAD_XREC_ROUNDTRIP
360
D0B8
  0
DICTIONARY
  5
D0C5
330
804D
100
AcDbDictionary
280
     1
281
     1
  3
ACAD_XREC_ROUNDTRIP
360
D0C6
  0
DICTIONARY
  5
D0CD
330
8051
100
AcDbDictionary
280
     1
281
     1
  3
ACAD_XREC_ROUNDTRIP
360
D0CE
  0
DICTIONARY
  5
D0BF
330
804A
100
AcDbDictionary
280
     1
281
     1
  3
ACAD_XREC_ROUNDTRIP
360
D0C0
  0
DICTIONARY
  5
D0C3
330
804C
100
AcDbDictionary
280
     1
281
     1
  3
ACAD_XREC_ROUNDTRIP
360
D0C4
  0
DICTIONARY
  5
D0D3
330
8054
100
AcDbDictionary
280
     1
281
     1
  3
ACAD_XREC_ROUNDTRIP
360
D0D4
  0
DICTIONARY
  5
D0CB
330
8050
100
AcDbDictionary
280
     1
281
     1
  3
ACAD_XREC_ROUNDTRIP
360
D0CC
  0
DICTIONARY
  5
D0AF
330
8042
100
AcDbDictionary
280
     1
281
     1
  3
ACAD_XREC_ROUNDTRIP
360
D0B0
  0
DICTIONARY
  5
D0B1
330
8043
100
AcDbDictionary
280
     1
281
     1
  3
ACAD_XREC_ROUNDTRIP
360
D0B2
  0
DICTIONARY
  5
D0B3
330
8044
100
AcDbDictionary
280
     1
281
     1
  3
ACAD_XREC_ROUNDTRIP
360
D0B4
  0
DICTIONARY
  5
D0B5
330
8045
100
AcDbDictionary
280
     1
281
     1
  3
ACAD_XREC_ROUNDTRIP
360
D0B6
  0
DICTIONARY
  5
D0CF
330
8052
100
AcDbDictionary
280
     1
281
     1
  3
ACAD_XREC_ROUNDTRIP
360
D0D0
  0
DICTIONARY
  5
D0C9
330
804F
100
AcDbDictionary
280
     1
281
     1
  3
ACAD_XREC_ROUNDTRIP
360
D0CA
  0
DICTIONARY
  5
D0D1
330
8053
100
AcDbDictionary
280
     1
281
     1
  3
ACAD_XREC_ROUNDTRIP
360
D0D2
  0
DICTIONARY
  5
D0C1
330
804B
100
AcDbDictionary
280
     1
281
     1
  3
ACAD_XREC_ROUNDTRIP
360
D0C2
  0
DICTIONARY
  5
D0C7
330
804E
100
AcDbDictionary
280
     1
281
     1
  3
ACAD_XREC_ROUNDTRIP
360
D0C8
  0
DICTIONARY
  5
9C8F
330
9C8E
100
AcDbDictionary
280
     1
281
     1
  3
ACAD_XREC_ROUNDTRIP
360
9C90
  0
XRECORD
  5
D0AC
102
{ACAD_REACTORS
330
D0AB
102
}
330
D0AB
100
AcDbXrecord
280
     1
102
SHADEPLOT
 70
     0
102
SHADEPLOTRESLEVEL
 70
     2
102
SHADEPLOTCUSTOMDPI
 70
   300
  0
XRECORD
  5
D0AE
102
{ACAD_REACTORS
330
D0AD
102
}
330
D0AD
100
AcDbXrecord
280
     1
102
SHADEPLOT
 70
     0
102
SHADEPLOTRESLEVEL
 70
     2
102
SHADEPLOTCUSTOMDPI
 70
   300
  0
XRECORD
  5
80B4
102
{ACAD_REACTORS
330
8032
102
}
330
8032
100
AcDbXrecord
280
     1
102
MATERIAL
148
0.0
149
0.0
149
0.0
 93
        0
 94
      127
282
     0
 72
     0
 77
     0
171
     0
175
     0
179
     0
273
     0
  0
XRECORD
  5
8034
102
{ACAD_REACTORS
330
8032
102
}
330
8032
100
AcDbXrecord
280
     1
270
     1
271
     1
  0
XRECORD
  5
8033
102
{ACAD_REACTORS
330
8032
102
}
330
8032
100
AcDbXrecord
280
     1
270
     1
271
     1
  0
XRECORD
  5
8037
102
{ACAD_REACTORS
330
8032
102
}
330
8032
100
AcDbXrecord
280
     1
270
     1
271
     1
  0
XRECORD
  5
8036
102
{ACAD_REACTORS
330
8032
102
}
330
8032
100
AcDbXrecord
280
     1
270
     1
271
     1
  0
XRECORD
  5
8038
102
{ACAD_REACTORS
330
8032
102
}
330
8032
100
AcDbXrecord
280
     1
270
     1
271
     1
  0
XRECORD
  5
8035
102
{ACAD_REACTORS
330
8032
102
}
330
8032
100
AcDbXrecord
280
     1
270
     1
271
     1
  0
XRECORD
  5
80B3
102
{ACAD_REACTORS
330
802A
102
}
330
802A
100
AcDbXrecord
280
     1
102
MATERIAL
148
0.0
149
0.0
149
0.0
 93
        0
 94
      127
282
     0
 72
     0
 77
     0
171
     0
175
     0
179
     0
273
     0
  0
XRECORD
  5
802C
102
{ACAD_REACTORS
330
802A
102
}
330
802A
100
AcDbXrecord
280
     1
270
     1
271
     1
  0
XRECORD
  5
802B
102
{ACAD_REACTORS
330
802A
102
}
330
802A
100
AcDbXrecord
280
     1
270
     1
271
     1
  0
XRECORD
  5
802F
102
{ACAD_REACTORS
330
802A
102
}
330
802A
100
AcDbXrecord
280
     1
270
     1
271
     1
  0
XRECORD
  5
802E
102
{ACAD_REACTORS
330
802A
102
}
330
802A
100
AcDbXrecord
280
     1
270
     1
271
     1
  0
XRECORD
  5
8030
102
{ACAD_REACTORS
330
802A
102
}
330
802A
100
AcDbXrecord
280
     1
270
     1
271
     1
  0
XRECORD
  5
802D
102
{ACAD_REACTORS
330
802A
102
}
330
802A
100
AcDbXrecord
280
     1
270
     1
271
     1
  0
XRECORD
  5
80B5
102
{ACAD_REACTORS
330
803A
102
}
330
803A
100
AcDbXrecord
280
     1
102
MATERIAL
148
0.0
149
0.0
149
0.0
 93
        0
 94
      127
282
     0
 72
     0
 77
     0
171
     0
175
     0
179
     0
273
     0
  0
XRECORD
  5
803C
102
{ACAD_REACTORS
330
803A
102
}
330
803A
100
AcDbXrecord
280
     1
270
     1
271
     1
  0
XRECORD
  5
803B
102
{ACAD_REACTORS
330
803A
102
}
330
803A
100
AcDbXrecord
280
     1
270
     1
271
     1
  0
XRECORD
  5
803F
102
{ACAD_REACTORS
330
803A
102
}
330
803A
100
AcDbXrecord
280
     1
270
     1
271
     1
  0
XRECORD
  5
803E
102
{ACAD_REACTORS
330
803A
102
}
330
803A
100
AcDbXrecord
280
     1
270
     1
271
     1
  0
XRECORD
  5
8040
102
{ACAD_REACTORS
330
803A
102
}
330
803A
100
AcDbXrecord
280
     1
270
     1
271
     1
  0
XRECORD
  5
803D
102
{ACAD_REACTORS
330
803A
102
}
330
803A
100
AcDbXrecord
280
     1
270
     1
271
     1
  0
CELLSTYLEMAP
  5
D0A6
102
{ACAD_REACTORS
330
80A3
102
}
330
80A3
100
AcDbCellStyleMap
 90
        3
300
CELLSTYLE
  1
TABLEFORMAT_BEGIN
 90
        5
170
     1
 91
        0
 92
    32768
 62
   257
 93
        1
300
CONTENTFORMAT
  1
CONTENTFORMAT_BEGIN
 90
        0
 91
        0
 92
      512
 93
        0
300

 40
0.0
140
1.0
 94
        5
 62
     0
340
11
144
0.25
309
CONTENTFORMAT_END
171
     1
301
MARGIN
  1
CELLMARGIN_BEGIN
 40
0.06
 40
0.06
 40
0.06
 40
0.06
 40
0.18
 40
0.18
309
CELLMARGIN_END
 94
        6
 95
        1
302
GRIDFORMAT
  1
GRIDFORMAT_BEGIN
 90
        0
 91
        1
 62
     0
 92
       -2
340
0
 93
        0
 40
0.045
309
GRIDFORMAT_END
 95
        2
302
GRIDFORMAT
  1
GRIDFORMAT_BEGIN
 90
        0
 91
        1
 62
     0
 92
       -2
340
0
 93
        0
 40
0.045
309
GRIDFORMAT_END
 95
        4
302
GRIDFORMAT
  1
GRIDFORMAT_BEGIN
 90
        0
 91
        1
 62
     0
 92
       -2
340
0
 93
        0
 40
0.045
309
GRIDFORMAT_END
 95
        8
302
GRIDFORMAT
  1
GRIDFORMAT_BEGIN
 90
        0
 91
        1
 62
     0
 92
       -2
340
0
 93
        0
 40
0.045
309
GRIDFORMAT_END
 95
       16
302
GRIDFORMAT
  1
GRIDFORMAT_BEGIN
 90
        0
 91
        1
 62
     0
 92
       -2
340
0
 93
        0
 40
0.045
309
GRIDFORMAT_END
 95
       32
302
GRIDFORMAT
  1
GRIDFORMAT_BEGIN
 90
        0
 91
        1
 62
     0
 92
       -2
340
0
 93
        0
 40
0.045
309
GRIDFORMAT_END
309
TABLEFORMAT_END
  1
CELLSTYLE_BEGIN
 90
        1
 91
        1
300
_TITLE
309
CELLSTYLE_END
300
CELLSTYLE
  1
TABLEFORMAT_BEGIN
 90
        5
170
     1
 91
        0
 92
        0
 62
   257
 93
        1
300
CONTENTFORMAT
  1
CONTENTFORMAT_BEGIN
 90
        0
 91
        0
 92
      512
 93
        0
300

 40
0.0
140
1.0
 94
        5
 62
     0
340
11
144
0.18
309
CONTENTFORMAT_END
171
     1
301
MARGIN
  1
CELLMARGIN_BEGIN
 40
0.06
 40
0.06
 40
0.06
 40
0.06
 40
0.18
 40
0.18
309
CELLMARGIN_END
 94
        6
 95
        1
302
GRIDFORMAT
  1
GRIDFORMAT_BEGIN
 90
        0
 91
        1
 62
     0
 92
       -2
340
0
 93
        0
 40
0.045
309
GRIDFORMAT_END
 95
        2
302
GRIDFORMAT
  1
GRIDFORMAT_BEGIN
 90
        0
 91
        1
 62
     0
 92
       -2
340
0
 93
        0
 40
0.045
309
GRIDFORMAT_END
 95
        4
302
GRIDFORMAT
  1
GRIDFORMAT_BEGIN
 90
        0
 91
        1
 62
     0
 92
       -2
340
0
 93
        0
 40
0.045
309
GRIDFORMAT_END
 95
        8
302
GRIDFORMAT
  1
GRIDFORMAT_BEGIN
 90
        0
 91
        1
 62
     0
 92
       -2
340
0
 93
        0
 40
0.045
309
GRIDFORMAT_END
 95
       16
302
GRIDFORMAT
  1
GRIDFORMAT_BEGIN
 90
        0
 91
        1
 62
     0
 92
       -2
340
0
 93
        0
 40
0.045
309
GRIDFORMAT_END
 95
       32
302
GRIDFORMAT
  1
GRIDFORMAT_BEGIN
 90
        0
 91
        1
 62
     0
 92
       -2
340
0
 93
        0
 40
0.045
309
GRIDFORMAT_END
309
TABLEFORMAT_END
  1
CELLSTYLE_BEGIN
 90
        2
 91
        1
300
_HEADER
309
CELLSTYLE_END
300
CELLSTYLE
  1
TABLEFORMAT_BEGIN
 90
        5
170
     1
 91
        0
 92
        0
 62
   257
 93
        1
300
CONTENTFORMAT
  1
CONTENTFORMAT_BEGIN
 90
        0
 91
        0
 92
      512
 93
        0
300

 40
0.0
140
1.0
 94
        2
 62
     0
340
11
144
0.18
309
CONTENTFORMAT_END
171
     1
301
MARGIN
  1
CELLMARGIN_BEGIN
 40
0.06
 40
0.06
 40
0.06
 40
0.06
 40
0.18
 40
0.18
309
CELLMARGIN_END
 94
        6
 95
        1
302
GRIDFORMAT
  1
GRIDFORMAT_BEGIN
 90
        0
 91
        1
 62
     0
 92
       -2
340
0
 93
        0
 40
0.045
309
GRIDFORMAT_END
 95
        2
302
GRIDFORMAT
  1
GRIDFORMAT_BEGIN
 90
        0
 91
        1
 62
     0
 92
       -2
340
0
 93
        0
 40
0.045
309
GRIDFORMAT_END
 95
        4
302
GRIDFORMAT
  1
GRIDFORMAT_BEGIN
 90
        0
 91
        1
 62
     0
 92
       -2
340
0
 93
        0
 40
0.045
309
GRIDFORMAT_END
 95
        8
302
GRIDFORMAT
  1
GRIDFORMAT_BEGIN
 90
        0
 91
        1
 62
     0
 92
       -2
340
0
 93
        0
 40
0.045
309
GRIDFORMAT_END
 95
       16
302
GRIDFORMAT
  1
GRIDFORMAT_BEGIN
 90
        0
 91
        1
 62
     0
 92
       -2
340
0
 93
        0
 40
0.045
309
GRIDFORMAT_END
 95
       32
302
GRIDFORMAT
  1
GRIDFORMAT_BEGIN
 90
        0
 91
        1
 62
     0
 92
       -2
340
0
 93
        0
 40
0.045
309
GRIDFORMAT_END
309
TABLEFORMAT_END
  1
CELLSTYLE_BEGIN
 90
        3
 91
        2
300
_DATA
309
CELLSTYLE_END
  0
XRECORD
  5
D0D5
102
{ACAD_REACTORS
330
80A3
102
}
330
80A3
100
AcDbXrecord
280
     1
102
ACAD_ROUNDTRIP_PRE2007_TABLESTYLE
 90
      512
 91
        0
  1

 92
      512
 93
        0
  2

 94
      512
 95
        0
  3

  0
XRECORD
  5
D0BA
102
{ACAD_REACTORS
330
D0B9
102
}
330
D0B9
100
AcDbXrecord
280
     1
102
RTVSPropertyOp0
 70
     1
102
RTVSPropertyOp1
 70
     1
102
RTVSPropertyOp2
 70
     1
102
RTVSPropertyOp3
 70
     1
102
RTVSPropertyOp4
 70
     1
102
RTVSPropertyOp5
 70
     1
102
RTVSPropertyOp6
 70
     1
102
RTVSPropertyOp7
 70
     1
102
RTVSPropertyOp8
 70
     1
102
RTVSPropertyOp9
 70
     1
102
RTVSPropertyOp10
 70
     1
102
RTVSPropertyOp11
 70
     1
102
RTVSPropertyOp12
 70
     1
102
RTVSPropertyOp13
 70
     1
102
RTVSPropertyOp14
 70
     1
102
RTVSPropertyOp15
 70
     1
102
RTVSPropertyOp16
 70
     1
102
RTVSPropertyOp17
 70
     1
102
RTVSPropertyOp18
 70
     1
102
RTVSPropertyOp19
 70
     1
102
RTVSPropertyOp20
 70
     1
102
RTVSPropertyOp21
 70
     1
102
RTVSPropertyOp22
 70
     1
102
RTVSPropertyOp23
 70
     1
102
RTVSPropertyOp24
 70
     1
102
RTVSPropertyOp25
 70
     1
102
RTVSPropertyOp26
 70
     1
102
RTVSPropertyOp27
 70
     1
  0
XRECORD
  5
D0BE
102
{ACAD_REACTORS
330
D0BD
102
}
330
D0BD
100
AcDbXrecord
280
     1
102
RTVSPropertyOp0
 70
     1
102
RTVSPropertyOp1
 70
     1
102
RTVSPropertyOp2
 70
     1
102
RTVSPropertyOp3
 70
     1
102
RTVSPropertyOp4
 70
     1
102
RTVSPropertyOp5
 70
     1
102
RTVSPropertyOp6
 70
     1
102
RTVSPropertyOp7
 70
     1
102
RTVSPropertyOp8
 70
     1
102
RTVSPropertyOp9
 70
     1
102
RTVSPropertyOp10
 70
     1
102
RTVSPropertyOp11
 70
     1
102
RTVSPropertyOp12
 70
     1
102
RTVSPropertyOp13
 70
     1
102
RTVSPropertyOp14
 70
     1
102
RTVSPropertyOp15
 70
     1
102
RTVSPropertyOp16
 70
     1
102
RTVSPropertyOp17
 70
     1
102
RTVSPropertyOp18
 70
     1
102
RTVSPropertyOp19
 70
     1
102
RTVSPropertyOp20
 70
     1
102
RTVSPropertyOp21
 70
     1
102
RTVSPropertyOp22
 70
     1
102
RTVSPropertyOp23
 70
     1
102
RTVSPropertyOp24
 70
     1
102
RTVSPropertyOp25
 70
     1
102
RTVSPropertyOp26
 70
     1
102
RTVSPropertyOp27
 70
     1
  0
XRECORD
  5
D0BC
102
{ACAD_REACTORS
330
D0BB
102
}
330
D0BB
100
AcDbXrecord
280
     1
102
RTVSPropertyOp0
 70
     1
102
RTVSPropertyOp1
 70
     1
102
RTVSPropertyOp2
 70
     1
102
RTVSPropertyOp3
 70
     1
102
RTVSPropertyOp4
 70
     1
102
RTVSPropertyOp5
 70
     1
102
RTVSPropertyOp6
 70
     1
102
RTVSPropertyOp7
 70
     1
102
RTVSPropertyOp8
 70
     1
102
RTVSPropertyOp9
 70
     1
102
RTVSPropertyOp10
 70
     1
102
RTVSPropertyOp11
 70
     1
102
RTVSPropertyOp12
 70
     1
102
RTVSPropertyOp13
 70
     1
102
RTVSPropertyOp14
 70
     1
102
RTVSPropertyOp15
 70
     1
102
RTVSPropertyOp16
 70
     1
102
RTVSPropertyOp17
 70
     1
102
RTVSPropertyOp18
 70
     1
102
RTVSPropertyOp19
 70
     1
102
RTVSPropertyOp20
 70
     1
102
RTVSPropertyOp21
 70
     1
102
RTVSPropertyOp22
 70
     1
102
RTVSPropertyOp23
 70
     1
102
RTVSPropertyOp24
 70
     1
102
RTVSPropertyOp25
 70
     1
102
RTVSPropertyOp26
 70
     1
102
RTVSPropertyOp27
 70
     1
  0
XRECORD
  5
D0B8
102
{ACAD_REACTORS
330
D0B7
102
}
330
D0B7
100
AcDbXrecord
280
     1
102
RTVSPropertyOp0
 70
     1
102
RTVSPropertyOp1
 70
     1
102
RTVSPropertyOp2
 70
     1
102
RTVSPropertyOp3
 70
     1
102
RTVSPropertyOp4
 70
     1
102
RTVSPropertyOp5
 70
     1
102
RTVSPropertyOp6
 70
     1
102
RTVSPropertyOp7
 70
     1
102
RTVSPropertyOp8
 70
     1
102
RTVSPropertyOp9
 70
     1
102
RTVSPropertyOp10
 70
     1
102
RTVSPropertyOp11
 70
     1
102
RTVSPropertyOp12
 70
     1
102
RTVSPropertyOp13
 70
     1
102
RTVSPropertyOp14
 70
     1
102
RTVSPropertyOp15
 70
     1
102
RTVSPropertyOp16
 70
     1
102
RTVSPropertyOp17
 70
     1
102
RTVSPropertyOp18
 70
     1
102
RTVSPropertyOp19
 70
     1
102
RTVSPropertyOp20
 70
     1
102
RTVSPropertyOp21
 70
     1
102
RTVSPropertyOp22
 70
     1
102
RTVSPropertyOp23
 70
     1
102
RTVSPropertyOp24
 70
     1
102
RTVSPropertyOp25
 70
     1
102
RTVSPropertyOp26
 70
     1
102
RTVSPropertyOp27
 70
     1
  0
XRECORD
  5
D0C6
102
{ACAD_REACTORS
330
D0C5
102
}
330
D0C5
100
AcDbXrecord
280
     1
102
RTVSPropertyOp0
 70
     1
102
RTVSPropertyOp1
 70
     1
102
RTVSPropertyOp2
 70
     1
102
RTVSPropertyOp3
 70
     1
102
RTVSPropertyOp4
 70
     1
102
RTVSPropertyOp5
 70
     1
102
RTVSPropertyOp6
 70
     1
102
RTVSPropertyOp7
 70
     1
102
RTVSPropertyOp8
 70
     1
102
RTVSPropertyOp9
 70
     1
102
RTVSPropertyOp10
 70
     1
102
RTVSPropertyOp11
 70
     1
102
RTVSPropertyOp12
 70
     1
102
RTVSPropertyOp13
 70
     1
102
RTVSPropertyOp14
 70
     1
102
RTVSPropertyOp15
 70
     1
102
RTVSPropertyOp16
 70
     1
102
RTVSPropertyOp17
 70
     1
102
RTVSPropertyOp18
 70
     1
102
RTVSPropertyOp19
 70
     1
102
RTVSPropertyOp20
 70
     1
102
RTVSPropertyOp21
 70
     1
102
RTVSPropertyOp22
 70
     1
102
RTVSPropertyOp23
 70
     1
102
RTVSPropertyOp24
 70
     1
102
RTVSPropertyOp25
 70
     1
102
RTVSPropertyOp26
 70
     1
102
RTVSPropertyOp27
 70
     1
  0
XRECORD
  5
D0CE
102
{ACAD_REACTORS
330
D0CD
102
}
330
D0CD
100
AcDbXrecord
280
     1
102
RTVSPropertyOp0
 70
     1
102
RTVSPropertyOp1
 70
     1
102
RTVSPropertyOp2
 70
     1
102
RTVSPropertyOp3
 70
     1
102
RTVSPropertyOp4
 70
     1
102
RTVSPropertyOp5
 70
     1
102
RTVSPropertyOp6
 70
     1
102
RTVSPropertyOp7
 70
     1
102
RTVSPropertyOp8
 70
     1
102
RTVSPropertyOp9
 70
     1
102
RTVSPropertyOp10
 70
     1
102
RTVSPropertyOp11
 70
     1
102
RTVSPropertyOp12
 70
     1
102
RTVSPropertyOp13
 70
     1
102
RTVSPropertyOp14
 70
     1
102
RTVSPropertyOp15
 70
     1
102
RTVSPropertyOp16
 70
     1
102
RTVSPropertyOp17
 70
     1
102
RTVSPropertyOp18
 70
     1
102
RTVSPropertyOp19
 70
     1
102
RTVSPropertyOp20
 70
     1
102
RTVSPropertyOp21
 70
     1
102
RTVSPropertyOp22
 70
     1
102
RTVSPropertyOp23
 70
     1
102
RTVSPropertyOp24
 70
     1
102
RTVSPropertyOp25
 70
     1
102
RTVSPropertyOp26
 70
     1
102
RTVSPropertyOp27
 70
     1
  0
XRECORD
  5
D0C0
102
{ACAD_REACTORS
330
D0BF
102
}
330
D0BF
100
AcDbXrecord
280
     1
102
RTVSPropertyOp0
 70
     1
102
RTVSPropertyOp1
 70
     1
102
RTVSPropertyOp2
 70
     1
102
RTVSPropertyOp3
 70
     1
102
RTVSPropertyOp4
 70
     1
102
RTVSPropertyOp5
 70
     1
102
RTVSPropertyOp6
 70
     1
102
RTVSPropertyOp7
 70
     1
102
RTVSPropertyOp8
 70
     1
102
RTVSPropertyOp9
 70
     1
102
RTVSPropertyOp10
 70
     1
102
RTVSPropertyOp11
 70
     1
102
RTVSPropertyOp12
 70
     1
102
RTVSPropertyOp13
 70
     1
102
RTVSPropertyOp14
 70
     1
102
RTVSPropertyOp15
 70
     1
102
RTVSPropertyOp16
 70
     1
102
RTVSPropertyOp17
 70
     1
102
RTVSPropertyOp18
 70
     1
102
RTVSPropertyOp19
 70
     1
102
RTVSPropertyOp20
 70
     1
102
RTVSPropertyOp21
 70
     1
102
RTVSPropertyOp22
 70
     1
102
RTVSPropertyOp23
 70
     1
102
RTVSPropertyOp24
 70
     1
102
RTVSPropertyOp25
 70
     1
102
RTVSPropertyOp26
 70
     1
102
RTVSPropertyOp27
 70
     1
  0
XRECORD
  5
D0C4
102
{ACAD_REACTORS
330
D0C3
102
}
330
D0C3
100
AcDbXrecord
280
     1
102
RTVSPropertyOp0
 70
     1
102
RTVSPropertyOp1
 70
     1
102
RTVSPropertyOp2
 70
     1
102
RTVSPropertyOp3
 70
     1
102
RTVSPropertyOp4
 70
     1
102
RTVSPropertyOp5
 70
     1
102
RTVSPropertyOp6
 70
     1
102
RTVSPropertyOp7
 70
     1
102
RTVSPropertyOp8
 70
     1
102
RTVSPropertyOp9
 70
     1
102
RTVSPropertyOp10
 70
     1
102
RTVSPropertyOp11
 70
     1
102
RTVSPropertyOp12
 70
     1
102
RTVSPropertyOp13
 70
     1
102
RTVSPropertyOp14
 70
     1
102
RTVSPropertyOp15
 70
     1
102
RTVSPropertyOp16
 70
     1
102
RTVSPropertyOp17
 70
     1
102
RTVSPropertyOp18
 70
     1
102
RTVSPropertyOp19
 70
     1
102
RTVSPropertyOp20
 70
     1
102
RTVSPropertyOp21
 70
     1
102
RTVSPropertyOp22
 70
     1
102
RTVSPropertyOp23
 70
     1
102
RTVSPropertyOp24
 70
     1
102
RTVSPropertyOp25
 70
     1
102
RTVSPropertyOp26
 70
     1
102
RTVSPropertyOp27
 70
     1
  0
XRECORD
  5
D0D4
102
{ACAD_REACTORS
330
D0D3
102
}
330
D0D3
100
AcDbXrecord
280
     1
102
RTVSPropertyOp0
 70
     0
102
RTVSPropertyOp1
 70
     0
102
RTVSPropertyOp2
 70
     0
102
RTVSPropertyOp3
 70
     0
102
RTVSPropertyOp4
 70
     0
102
RTVSPropertyOp5
 70
     0
102
RTVSPropertyOp6
 70
     0
102
RTVSPropertyOp7
 70
     0
102
RTVSPropertyOp8
 70
     0
102
RTVSPropertyOp9
 70
     0
102
RTVSPropertyOp10
 70
     0
102
RTVSPropertyOp11
 70
     0
102
RTVSPropertyOp12
 70
     0
102
RTVSPropertyOp13
 70
     0
102
RTVSPropertyOp14
 70
     2
102
RTVSPropertyOp15
 70
     0
102
RTVSPropertyOp16
 70
     0
102
RTVSPropertyOp17
 70
     0
102
RTVSPropertyOp18
 70
     0
102
RTVSPropertyOp19
 70
     0
102
RTVSPropertyOp20
 70
     0
102
RTVSPropertyOp21
 70
     0
102
RTVSPropertyOp22
 70
     0
102
RTVSPropertyOp23
 70
     0
102
RTVSPropertyOp24
 70
     0
102
RTVSPropertyOp25
 70
     0
102
RTVSPropertyOp26
 70
     0
102
RTVSPropertyOp27
 70
     0
  0
XRECORD
  5
D0CC
102
{ACAD_REACTORS
330
D0CB
102
}
330
D0CB
100
AcDbXrecord
280
     1
102
RTVSPropertyOp0
 70
     1
102
RTVSPropertyOp1
 70
     1
102
RTVSPropertyOp2
 70
     1
102
RTVSPropertyOp3
 70
     1
102
RTVSPropertyOp4
 70
     1
102
RTVSPropertyOp5
 70
     1
102
RTVSPropertyOp6
 70
     1
102
RTVSPropertyOp7
 70
     1
102
RTVSPropertyOp8
 70
     1
102
RTVSPropertyOp9
 70
     1
102
RTVSPropertyOp10
 70
     1
102
RTVSPropertyOp11
 70
     1
102
RTVSPropertyOp12
 70
     1
102
RTVSPropertyOp13
 70
     1
102
RTVSPropertyOp14
 70
     1
102
RTVSPropertyOp15
 70
     1
102
RTVSPropertyOp16
 70
     1
102
RTVSPropertyOp17
 70
     1
102
RTVSPropertyOp18
 70
     1
102
RTVSPropertyOp19
 70
     1
102
RTVSPropertyOp20
 70
     1
102
RTVSPropertyOp21
 70
     1
102
RTVSPropertyOp22
 70
     1
102
RTVSPropertyOp23
 70
     1
102
RTVSPropertyOp24
 70
     1
102
RTVSPropertyOp25
 70
     1
102
RTVSPropertyOp26
 70
     1
102
RTVSPropertyOp27
 70
     1
  0
XRECORD
  5
D0B0
102
{ACAD_REACTORS
330
D0AF
102
}
330
D0AF
100
AcDbXrecord
280
     1
102
RTVSPropertyOp0
 70
     1
102
RTVSPropertyOp1
 70
     1
102
RTVSPropertyOp2
 70
     1
102
RTVSPropertyOp3
 70
     1
102
RTVSPropertyOp4
 70
     1
102
RTVSPropertyOp5
 70
     1
102
RTVSPropertyOp6
 70
     1
102
RTVSPropertyOp7
 70
     1
102
RTVSPropertyOp8
 70
     1
102
RTVSPropertyOp9
 70
     1
102
RTVSPropertyOp10
 70
     1
102
RTVSPropertyOp11
 70
     1
102
RTVSPropertyOp12
 70
     1
102
RTVSPropertyOp13
 70
     1
102
RTVSPropertyOp14
 70
     1
102
RTVSPropertyOp15
 70
     1
102
RTVSPropertyOp16
 70
     1
102
RTVSPropertyOp17
 70
     1
102
RTVSPropertyOp18
 70
     1
102
RTVSPropertyOp19
 70
     1
102
RTVSPropertyOp20
 70
     1
102
RTVSPropertyOp21
 70
     1
102
RTVSPropertyOp22
 70
     1
102
RTVSPropertyOp23
 70
     1
102
RTVSPropertyOp24
 70
     1
102
RTVSPropertyOp25
 70
     1
102
RTVSPropertyOp26
 70
     1
102
RTVSPropertyOp27
 70
     1
  0
XRECORD
  5
D0B2
102
{ACAD_REACTORS
330
D0B1
102
}
330
D0B1
100
AcDbXrecord
280
     1
102
RTVSPropertyOp0
 70
     1
102
RTVSPropertyOp1
 70
     1
102
RTVSPropertyOp2
 70
     1
102
RTVSPropertyOp3
 70
     1
102
RTVSPropertyOp4
 70
     1
102
RTVSPropertyOp5
 70
     1
102
RTVSPropertyOp6
 70
     1
102
RTVSPropertyOp7
 70
     1
102
RTVSPropertyOp8
 70
     1
102
RTVSPropertyOp9
 70
     1
102
RTVSPropertyOp10
 70
     1
102
RTVSPropertyOp11
 70
     1
102
RTVSPropertyOp12
 70
     1
102
RTVSPropertyOp13
 70
     1
102
RTVSPropertyOp14
 70
     1
102
RTVSPropertyOp15
 70
     1
102
RTVSPropertyOp16
 70
     1
102
RTVSPropertyOp17
 70
     1
102
RTVSPropertyOp18
 70
     1
102
RTVSPropertyOp19
 70
     1
102
RTVSPropertyOp20
 70
     1
102
RTVSPropertyOp21
 70
     1
102
RTVSPropertyOp22
 70
     1
102
RTVSPropertyOp23
 70
     1
102
RTVSPropertyOp24
 70
     1
102
RTVSPropertyOp25
 70
     1
102
RTVSPropertyOp26
 70
     1
102
RTVSPropertyOp27
 70
     1
  0
XRECORD
  5
D0B4
102
{ACAD_REACTORS
330
D0B3
102
}
330
D0B3
100
AcDbXrecord
280
     1
102
RTVSPropertyOp0
 70
     1
102
RTVSPropertyOp1
 70
     1
102
RTVSPropertyOp2
 70
     1
102
RTVSPropertyOp3
 70
     1
102
RTVSPropertyOp4
 70
     1
102
RTVSPropertyOp5
 70
     1
102
RTVSPropertyOp6
 70
     1
102
RTVSPropertyOp7
 70
     1
102
RTVSPropertyOp8
 70
     1
102
RTVSPropertyOp9
 70
     1
102
RTVSPropertyOp10
 70
     1
102
RTVSPropertyOp11
 70
     1
102
RTVSPropertyOp12
 70
     1
102
RTVSPropertyOp13
 70
     1
102
RTVSPropertyOp14
 70
     1
102
RTVSPropertyOp15
 70
     1
102
RTVSPropertyOp16
 70
     1
102
RTVSPropertyOp17
 70
     1
102
RTVSPropertyOp18
 70
     1
102
RTVSPropertyOp19
 70
     1
102
RTVSPropertyOp20
 70
     1
102
RTVSPropertyOp21
 70
     1
102
RTVSPropertyOp22
 70
     1
102
RTVSPropertyOp23
 70
     1
102
RTVSPropertyOp24
 70
     1
102
RTVSPropertyOp25
 70
     1
102
RTVSPropertyOp26
 70
     1
102
RTVSPropertyOp27
 70
     1
  0
XRECORD
  5
D0B6
102
{ACAD_REACTORS
330
D0B5
102
}
330
D0B5
100
AcDbXrecord
280
     1
102
RTVSPropertyOp0
 70
     1
102
RTVSPropertyOp1
 70
     1
102
RTVSPropertyOp2
 70
     1
102
RTVSPropertyOp3
 70
     1
102
RTVSPropertyOp4
 70
     1
102
RTVSPropertyOp5
 70
     1
102
RTVSPropertyOp6
 70
     1
102
RTVSPropertyOp7
 70
     1
102
RTVSPropertyOp8
 70
     1
102
RTVSPropertyOp9
 70
     1
102
RTVSPropertyOp10
 70
     1
102
RTVSPropertyOp11
 70
     1
102
RTVSPropertyOp12
 70
     1
102
RTVSPropertyOp13
 70
     1
102
RTVSPropertyOp14
 70
     1
102
RTVSPropertyOp15
 70
     1
102
RTVSPropertyOp16
 70
     1
102
RTVSPropertyOp17
 70
     1
102
RTVSPropertyOp18
 70
     1
102
RTVSPropertyOp19
 70
     1
102
RTVSPropertyOp20
 70
     1
102
RTVSPropertyOp21
 70
     1
102
RTVSPropertyOp22
 70
     1
102
RTVSPropertyOp23
 70
     1
102
RTVSPropertyOp24
 70
     1
102
RTVSPropertyOp25
 70
     1
102
RTVSPropertyOp26
 70
     1
102
RTVSPropertyOp27
 70
     1
  0
XRECORD
  5
D0D0
102
{ACAD_REACTORS
330
D0CF
102
}
330
D0CF
100
AcDbXrecord
280
     1
102
RTVSPropertyOp0
 70
     0
102
RTVSPropertyOp1
 70
     0
102
RTVSPropertyOp2
 70
     0
102
RTVSPropertyOp3
 70
     0
102
RTVSPropertyOp4
 70
     0
102
RTVSPropertyOp5
 70
     0
102
RTVSPropertyOp6
 70
     0
102
RTVSPropertyOp7
 70
     0
102
RTVSPropertyOp8
 70
     0
102
RTVSPropertyOp9
 70
     0
102
RTVSPropertyOp10
 70
     0
102
RTVSPropertyOp11
 70
     0
102
RTVSPropertyOp12
 70
     0
102
RTVSPropertyOp13
 70
     0
102
RTVSPropertyOp14
 70
     2
102
RTVSPropertyOp15
 70
     0
102
RTVSPropertyOp16
 70
     0
102
RTVSPropertyOp17
 70
     0
102
RTVSPropertyOp18
 70
     0
102
RTVSPropertyOp19
 70
     0
102
RTVSPropertyOp20
 70
     0
102
RTVSPropertyOp21
 70
     0
102
RTVSPropertyOp22
 70
     0
102
RTVSPropertyOp23
 70
     0
102
RTVSPropertyOp24
 70
     0
102
RTVSPropertyOp25
 70
     0
102
RTVSPropertyOp26
 70
     0
102
RTVSPropertyOp27
 70
     0
  0
XRECORD
  5
D0CA
102
{ACAD_REACTORS
330
D0C9
102
}
330
D0C9
100
AcDbXrecord
280
     1
102
RTVSPropertyOp0
 70
     1
102
RTVSPropertyOp1
 70
     1
102
RTVSPropertyOp2
 70
     1
102
RTVSPropertyOp3
 70
     1
102
RTVSPropertyOp4
 70
     1
102
RTVSPropertyOp5
 70
     1
102
RTVSPropertyOp6
 70
     1
102
RTVSPropertyOp7
 70
     1
102
RTVSPropertyOp8
 70
     1
102
RTVSPropertyOp9
 70
     1
102
RTVSPropertyOp10
 70
     1
102
RTVSPropertyOp11
 70
     1
102
RTVSPropertyOp12
 70
     1
102
RTVSPropertyOp13
 70
     1
102
RTVSPropertyOp14
 70
     1
102
RTVSPropertyOp15
 70
     1
102
RTVSPropertyOp16
 70
     1
102
RTVSPropertyOp17
 70
     1
102
RTVSPropertyOp18
 70
     1
102
RTVSPropertyOp19
 70
     1
102
RTVSPropertyOp20
 70
     1
102
RTVSPropertyOp21
 70
     1
102
RTVSPropertyOp22
 70
     1
102
RTVSPropertyOp23
 70
     1
102
RTVSPropertyOp24
 70
     1
102
RTVSPropertyOp25
 70
     1
102
RTVSPropertyOp26
 70
     1
102
RTVSPropertyOp27
 70
     1
  0
XRECORD
  5
D0D2
102
{ACAD_REACTORS
330
D0D1
102
}
330
D0D1
100
AcDbXrecord
280
     1
102
RTVSPropertyOp0
 70
     0
102
RTVSPropertyOp1
 70
     0
102
RTVSPropertyOp2
 70
     0
102
RTVSPropertyOp3
 70
     0
102
RTVSPropertyOp4
 70
     0
102
RTVSPropertyOp5
 70
     0
102
RTVSPropertyOp6
 70
     0
102
RTVSPropertyOp7
 70
     0
102
RTVSPropertyOp8
 70
     0
102
RTVSPropertyOp9
 70
     0
102
RTVSPropertyOp10
 70
     0
102
RTVSPropertyOp11
 70
     0
102
RTVSPropertyOp12
 70
     0
102
RTVSPropertyOp13
 70
     0
102
RTVSPropertyOp14
 70
     2
102
RTVSPropertyOp15
 70
     0
102
RTVSPropertyOp16
 70
     0
102
RTVSPropertyOp17
 70
     0
102
RTVSPropertyOp18
 70
     0
102
RTVSPropertyOp19
 70
     0
102
RTVSPropertyOp20
 70
     0
102
RTVSPropertyOp21
 70
     0
102
RTVSPropertyOp22
 70
     0
102
RTVSPropertyOp23
 70
     0
102
RTVSPropertyOp24
 70
     0
102
RTVSPropertyOp25
 70
     0
102
RTVSPropertyOp26
 70
     0
102
RTVSPropertyOp27
 70
     0
  0
XRECORD
  5
D0C2
102
{ACAD_REACTORS
330
D0C1
102
}
330
D0C1
100
AcDbXrecord
280
     1
102
RTVSPropertyOp0
 70
     1
102
RTVSPropertyOp1
 70
     1
102
RTVSPropertyOp2
 70
     1
102
RTVSPropertyOp3
 70
     1
102
RTVSPropertyOp4
 70
     1
102
RTVSPropertyOp5
 70
     1
102
RTVSPropertyOp6
 70
     1
102
RTVSPropertyOp7
 70
     1
102
RTVSPropertyOp8
 70
     1
102
RTVSPropertyOp9
 70
     1
102
RTVSPropertyOp10
 70
     1
102
RTVSPropertyOp11
 70
     1
102
RTVSPropertyOp12
 70
     1
102
RTVSPropertyOp13
 70
     1
102
RTVSPropertyOp14
 70
     1
102
RTVSPropertyOp15
 70
     1
102
RTVSPropertyOp16
 70
     1
102
RTVSPropertyOp17
 70
     1
102
RTVSPropertyOp18
 70
     1
102
RTVSPropertyOp19
 70
     1
102
RTVSPropertyOp20
 70
     1
102
RTVSPropertyOp21
 70
     1
102
RTVSPropertyOp22
 70
     1
102
RTVSPropertyOp23
 70
     1
102
RTVSPropertyOp24
 70
     1
102
RTVSPropertyOp25
 70
     1
102
RTVSPropertyOp26
 70
     1
102
RTVSPropertyOp27
 70
     1
  0
XRECORD
  5
D0C8
102
{ACAD_REACTORS
330
D0C7
102
}
330
D0C7
100
AcDbXrecord
280
     1
102
RTVSPropertyOp0
 70
     1
102
RTVSPropertyOp1
 70
     1
102
RTVSPropertyOp2
 70
     1
102
RTVSPropertyOp3
 70
     1
102
RTVSPropertyOp4
 70
     1
102
RTVSPropertyOp5
 70
     1
102
RTVSPropertyOp6
 70
     1
102
RTVSPropertyOp7
 70
     1
102
RTVSPropertyOp8
 70
     1
102
RTVSPropertyOp9
 70
     1
102
RTVSPropertyOp10
 70
     1
102
RTVSPropertyOp11
 70
     1
102
RTVSPropertyOp12
 70
     1
102
RTVSPropertyOp13
 70
     1
102
RTVSPropertyOp14
 70
     1
102
RTVSPropertyOp15
 70
     1
102
RTVSPropertyOp16
 70
     1
102
RTVSPropertyOp17
 70
     1
102
RTVSPropertyOp18
 70
     1
102
RTVSPropertyOp19
 70
     1
102
RTVSPropertyOp20
 70
     1
102
RTVSPropertyOp21
 70
     1
102
RTVSPropertyOp22
 70
     1
102
RTVSPropertyOp23
 70
     1
102
RTVSPropertyOp24
 70
     1
102
RTVSPropertyOp25
 70
     1
102
RTVSPropertyOp26
 70
     1
102
RTVSPropertyOp27
 70
     1
  0
XRECORD
  5
9C90
102
{ACAD_REACTORS
330
9C8F
102
}
330
9C8F
100
AcDbXrecord
280
     1
102
RTVSPost2010Prop28
280
     0
102
RTVSPost2010PropOp28
 70
     1
102
RTVSPost2010Prop29
280
     1
102
RTVSPost2010PropOp29
 70
     1
102
RTVSPost2010Prop30
280
     1
102
RTVSPost2010PropOp30
 70
     1
102
RTVSPost2010Prop31
280
     0
102
RTVSPost2010PropOp31
 70
     1
102
RTVSPost2010Prop32
280
     0
102
RTVSPost2010PropOp32
 70
     1
102
RTVSPost2010Prop33
280
     0
102
RTVSPost2010PropOp33
 70
     1
102
RTVSPost2010Prop34
280
     0
102
RTVSPost2010PropOp34
 70
     1
102
RTVSPost2010Prop35
280
     0
102
RTVSPost2010PropOp35
 70
     1
102
RTVSPost2010Prop36
280
     0
102
RTVSPost2010PropOp36
 70
     1
102
RTVSPost2010Prop37
 90
       50
102
RTVSPost2010PropOp37
 70
     1
102
RTVSPost2010Prop38
140
0.0
102
RTVSPost2010PropOp38
 70
     1
102
RTVSPost2010Prop39
140
1.0
102
RTVSPost2010PropOp39
 70
     1
102
RTVSPost2010Prop40
 90
        0
102
RTVSPost2010PropOp40
 70
     1
102
RTVSPost2010Prop41ColorIndex
 90
       18
102
RTVSPost2010Prop41ColorRGB
 90
-16777216
102
RTVSPost2010PropOp41
 70
     1
102
RTVSPost2010Prop42
 90
       50
102
RTVSPost2010PropOp42
 70
     1
102
RTVSPost2010Prop43
 90
        3
102
RTVSPost2010PropOp43
 70
     1
102
RTVSPost2010Prop44ColorIndex
 90
        5
102
RTVSPost2010Prop44ColorRGB
 90
      255
102
RTVSPost2010PropOp44
 70
     1
102
RTVSPost2010Prop45
280
     0
102
RTVSPost2010PropOp45
 70
     1
102
RTVSPost2010Prop46
 90
       50
102
RTVSPost2010PropOp46
 70
     1
102
RTVSPost2010Prop47
 90
       50
102
RTVSPost2010PropOp47
 70
     1
102
RTVSPost2010Prop48
 90
       50
102
RTVSPost2010PropOp48
 70
     1
102
RTVSPost2010Prop49
280
     0
102
RTVSPost2010PropOp49
 70
     1
102
RTVSPost2010Prop50
 90
       50
102
RTVSPost2010PropOp50
 70
     1
102
RTVSPost2010Prop51ColorIndex
 90
      256
102
RTVSPost2010Prop51ColorRGB
 90
-16777216
102
RTVSPost2010PropOp51
 70
     0
102
RTVSPost2010Prop52
140
1.0
102
RTVSPost2010PropOp52
 70
     0
102
RTVSPost2010Prop53
 90
        2
102
RTVSPost2010PropOp53
 70
     1
102
RTVSPost2010Prop54
  1
strokes_ogs.tif
102
RTVSPost2010PropOp54
 70
     1
102
RTVSPost2010Prop55
280
     0
102
RTVSPost2010PropOp55
 70
     1
102
RTVSPost2010Prop56
140
1.0
102
RTVSPost2010PropOp56
 70
     1
102
RTVSPost2010Prop57
140
1.0
102
RTVSPost2010PropOp57
 70
     1
102
RTVSPropertyOp0
 70
     1
102
RTVSPropertyOp1
 70
     1
102
RTVSPropertyOp2
 70
     1
102
RTVSPropertyOp3
 70
     1
102
RTVSPropertyOp4
 70
     1
102
RTVSPropertyOp5
 70
     1
102
RTVSPropertyOp6
 70
     1
102
RTVSPropertyOp7
 70
     1
102
RTVSPropertyOp8
 70
     1
102
RTVSPropertyOp9
 70
     1
102
RTVSPropertyOp10
 70
     1
102
RTVSPropertyOp11
 70
     1
102
RTVSPropertyOp12
 70
     1
102
RTVSPropertyOp13
 70
     1
102
RTVSPropertyOp14
 70
     1
102
RTVSPropertyOp15
 70
     1
102
RTVSPropertyOp16
 70
     1
102
RTVSPropertyOp17
 70
     1
102
RTVSPropertyOp18
 70
     1
102
RTVSPropertyOp19
 70
     1
102
RTVSPropertyOp20
 70
     1
102
RTVSPropertyOp21
 70
     1
102
RTVSPropertyOp22
 70
     1
102
RTVSPropertyOp23
 70
     1
102
RTVSPropertyOp24
 70
     1
102
RTVSPropertyOp25
 70
     1
102
RTVSPropertyOp26
 70
     1
102
RTVSPropertyOp27
 70
     1
  0
ENDSEC
  0
EOF
