  0
SECTION
  2
HEADER
  9
$ACADVER
  1
AC1015
  9
$ACADMAINTVER
 70
    20
  9
$DWGCODEPAGE
  3
ANSI_932
  9
$INSBASE
 10
0.0
 20
0.0
 30
0.0
  9
$EXTMIN
 10
321.9123934188938
 20
-400.5923413608598
 30
-0.000000000000013
  9
$EXTMAX
 10
780.3024486985287
 20
313.4704624622482
 30
0.0000000000000023
  9
$LIMMIN
 10
-1176.0
 20
-798.0
  9
$LIMMAX
 10
594.0
 20
1078.0
  9
$ORTHOMODE
 70
     0
  9
$REGENMODE
 70
     1
  9
$FILLMODE
 70
     1
  9
$QTEXTMODE
 70
     0
  9
$MIRRTEXT
 70
     1
  9
$LTSCALE
 40
10.0
  9
$ATTMODE
 70
     1
  9
$TEXTSIZE
 40
2.0
  9
$TRACEWID
 40
0.05
  9
$TEXTSTYLE
  7
STANDARD
  9
$CLAYER
  8
0
  9
$CELTYPE
  6
ByLayer
  9
$CECOLOR
 62
   256
  9
$CELTSCALE
 40
1.0
  9
$DISPSILH
 70
     0
  9
$DIMSCALE
 40
1.0
  9
$DIMASZ
 40
2.0
  9
$DIMEXO
 40
1.0
  9
$DIMDLI
 40
0.5
  9
$DIMRND
 40
0.0
  9
$DIMDLE
 40
0.0
  9
$DIMEXE
 40
0.5
  9
$DIMTP
 40
0.0
  9
$DIMTM
 40
0.0
  9
$DIMTXT
 40
4.0
  9
$DIMCEN
 40
0.09
  9
$DIMTSZ
 40
0.0
  9
$DIMTOL
 70
     0
  9
$DIMLIM
 70
     0
  9
$DIMTIH
 70
     0
  9
$DIMTOH
 70
     1
  9
$DIMSE1
 70
     0
  9
$DIMSE2
 70
     0
  9
$DIMTAD
 70
     3
  9
$DIMZIN
 70
    12
  9
$DIMBLK
  1

  9
$DIMASO
 70
     1
  9
$DIMSHO
 70
     1
  9
$DIMPOST
  1

  9
$DIMAPOST
  1

  9
$DIMALT
 70
     0
  9
$DIMALTD
 70
     2
  9
$DIMALTF
 40
25.4
  9
$DIMLFAC
 40
1.0
  9
$DIMTOFL
 70
     0
  9
$DIMTVP
 40
0.0
  9
$DIMTIX
 70
     0
  9
$DIMSOXD
 70
     0
  9
$DIMSAH
 70
     0
  9
$DIMBLK1
  1

  9
$DIMBLK2
  1

  9
$DIMSTYLE
  2
STANDARD
  9
$DIMCLRD
 70
     0
  9
$DIMCLRE
 70
     0
  9
$DIMCLRT
 70
     0
  9
$DIMTFAC
 40
1.0
  9
$DIMGAP
 40
1.0
  9
$DIMJUST
 70
     0
  9
$DIMSD1
 70
     0
  9
$DIMSD2
 70
     0
  9
$DIMTOLJ
 70
     1
  9
$DIMTZIN
 70
    12
  9
$DIMALTZ
 70
    12
  9
$DIMALTTZ
 70
    12
  9
$DIMUPT
 70
     0
  9
$DIMDEC
 70
     8
  9
$DIMTDEC
 70
     8
  9
$DIMALTU
 70
     2
  9
$DIMALTTD
 70
     2
  9
$DIMTXSTY
  7
BLOCKFONT
  9
$DIMAUNIT
 70
     0
  9
$DIMADEC
 70
     0
  9
$DIMALTRND
 40
0.0
  9
$DIMAZIN
 70
     0
  9
$DIMDSEP
 70
    46
  9
$DIMATFIT
 70
     3
  9
$DIMFRAC
 70
     0
  9
$DIMLDRBLK
  1

  9
$DIMLUNIT
 70
     2
  9
$DIMLWD
 70
    -2
  9
$DIMLWE
 70
    -2
  9
$DIMTMOVE
 70
     2
  9
$LUNITS
 70
     2
  9
$LUPREC
 70
     8
  9
$SKETCHINC
 40
0.1
  9
$FILLETRAD
 40
0.0
  9
$AUNITS
 70
     0
  9
$AUPREC
 70
     0
  9
$MENU
  1
.
  9
$ELEVATION
 40
0.0
  9
$PELEVATION
 40
0.0
  9
$THICKNESS
 40
0.0
  9
$LIMCHECK
 70
     0
  9
$CHAMFERA
 40
0.0
  9
$CHAMFERB
 40
0.0
  9
$CHAMFERC
 40
0.0
  9
$CHAMFERD
 40
0.0
  9
$SKPOLY
 70
     0
  9
$TDCREATE
 40
2452286.555658658
  9
$TDUCREATE
 40
2452286.180658658
  9
$TDUPDATE
 40
2457255.421630151
  9
$TDUUPDATE
 40
2457255.046630151
  9
$TDINDWG
 40
2.6743397338
  9
$TDUSRTIMER
 40
2.6743313773
  9
$USRTIMER
 70
     1
  9
$ANGBASE
 50
0.0
  9
$ANGDIR
 70
     0
  9
$PDMODE
 70
     0
  9
$PDSIZE
 40
0.0
  9
$PLINEWID
 40
0.0
  9
$SPLFRAME
 70
     0
  9
$SPLINETYPE
 70
     6
  9
$SPLINESEGS
 70
     8
  9
$HANDSEED
  5
1BEC2
  9
$SURFTAB1
 70
     6
  9
$SURFTAB2
 70
     6
  9
$SURFTYPE
 70
     6
  9
$SURFU
 70
     6
  9
$SURFV
 70
     6
  9
$UCSBASE
  2

  9
$UCSNAME
  2

  9
$UCSORG
 10
0.0
 20
0.0
 30
0.0
  9
$UCSXDIR
 10
1.0
 20
0.0
 30
0.0
  9
$UCSYDIR
 10
0.0
 20
1.0
 30
0.0
  9
$UCSORTHOREF
  2

  9
$UCSORTHOVIEW
 70
     0
  9
$UCSORGTOP
 10
0.0
 20
0.0
 30
0.0
  9
$UCSORGBOTTOM
 10
0.0
 20
0.0
 30
0.0
  9
$UCSORGLEFT
 10
0.0
 20
0.0
 30
0.0
  9
$UCSORGRIGHT
 10
0.0
 20
0.0
 30
0.0
  9
$UCSORGFRONT
 10
0.0
 20
0.0
 30
0.0
  9
$UCSORGBACK
 10
0.0
 20
0.0
 30
0.0
  9
$PUCSBASE
  2

  9
$PUCSNAME
  2

  9
$PUCSORG
 10
0.0
 20
0.0
 30
0.0
  9
$PUCSXDIR
 10
1.0
 20
0.0
 30
0.0
  9
$PUCSYDIR
 10
0.0
 20
1.0
 30
0.0
  9
$PUCSORTHOREF
  2

  9
$PUCSORTHOVIEW
 70
     0
  9
$PUCSORGTOP
 10
0.0
 20
0.0
 30
0.0
  9
$PUCSORGBOTTOM
 10
0.0
 20
0.0
 30
0.0
  9
$PUCSORGLEFT
 10
0.0
 20
0.0
 30
0.0
  9
$PUCSORGRIGHT
 10
0.0
 20
0.0
 30
0.0
  9
$PUCSORGFRONT
 10
0.0
 20
0.0
 30
0.0
  9
$PUCSORGBACK
 10
0.0
 20
0.0
 30
0.0
  9
$USERI1
 70
     0
  9
$USERI2
 70
     0
  9
$USERI3
 70
     0
  9
$USERI4
 70
     0
  9
$USERI5
 70
     0
  9
$USERR1
 40
0.0
  9
$USERR2
 40
0.0
  9
$USERR3
 40
0.0
  9
$USERR4
 40
0.0
  9
$USERR5
 40
0.0
  9
$WORLDVIEW
 70
     1
  9
$SHADEDGE
 70
     3
  9
$SHADEDIF
 70
    70
  9
$TILEMODE
 70
     1
  9
$MAXACTVP
 70
    48
  9
$PINSBASE
 10
0.0
 20
0.0
 30
0.0
  9
$PLIMCHECK
 70
     0
  9
$PEXTMIN
 10
0.0
 20
0.0
 30
0.0
  9
$PEXTMAX
 10
0.0
 20
0.0
 30
0.0
  9
$PLIMMIN
 10
0.0
 20
0.0
  9
$PLIMMAX
 10
0.0
 20
0.0
  9
$UNITMODE
 70
     0
  9
$VISRETAIN
 70
     1
  9
$PLINEGEN
 70
     0
  9
$PSLTSCALE
 70
     1
  9
$TREEDEPTH
 70
  3020
  9
$CMLSTYLE
  2
Standard
  9
$CMLJUST
 70
     0
  9
$CMLSCALE
 40
1.0
  9
$PROXYGRAPHICS
 70
     1
  9
$MEASUREMENT
 70
     0
  9
$CELWEIGHT
370
    -1
  9
$ENDCAPS
280
     0
  9
$JOINSTYLE
280
     0
  9
$LWDISPLAY
290
     0
  9
$INSUNITS
 70
     0
  9
$HYPERLINKBASE
  1

  9
$STYLESHEET
  1
MONOCHROME.CTB
  9
$XEDIT
290
     1
  9
$CEPSNTYPE
380
     0
  9
$PSTYLEMODE
290
     1
  9
$FINGERPRINTGUID
  2
{C86C0576-647C-4041-9E6C-48CC7796F617}
  9
$VERSIONGUID
  2
{F952DAF6-E95C-468B-B5A4-4031AC0463E5}
  9
$EXTNAMES
290
     1
  9
$PSVPSCALE
 40
0.0
  9
$OLESTARTUP
290
     0
  0
ENDSEC
  0
SECTION
  2
CLASSES
  0
CLASS
  1
ACDBDICTIONARYWDFLT
  2
AcDbDictionaryWithDefault
  3
ObjectDBX Classes
 90
        0
280
     0
281
     0
  0
CLASS
  1
MATERIAL
  2
AcDbMaterial
  3
ObjectDBX Classes
 90
     1153
280
     0
281
     0
  0
CLASS
  1
VISUALSTYLE
  2
AcDbVisualStyle
  3
ObjectDBX Classes
 90
     4095
280
     0
281
     0
  0
CLASS
  1
SCALE
  2
AcDbScale
  3
ObjectDBX Classes
 90
     1153
280
     0
281
     0
  0
CLASS
  1
TABLESTYLE
  2
AcDbTableStyle
  3
ObjectDBX Classes
 90
     4095
280
     0
281
     0
  0
CLASS
  1
MLEADERSTYLE
  2
AcDbMLeaderStyle
  3
ACDB_MLEADERSTYLE_CLASS
 90
     4095
280
     0
281
     0
  0
CLASS
  1
SORTENTSTABLE
  2
AcDbSortentsTable
  3
ObjectDBX Classes
 90
        0
280
     0
281
     0
  0
CLASS
  1
DICTIONARYVAR
  2
AcDbDictionaryVar
  3
ObjectDBX Classes
 90
        0
280
     0
281
     0
  0
CLASS
  1
CELLSTYLEMAP
  2
AcDbCellStyleMap
  3
ObjectDBX Classes
 90
     1152
280
     0
281
     0
  0
CLASS
  1
ACDBPLACEHOLDER
  2
AcDbPlaceHolder
  3
ObjectDBX Classes
 90
        0
280
     0
281
     0
  0
CLASS
  1
LAYOUT
  2
AcDbLayout
  3
ObjectDBX Classes
 90
        0
280
     0
281
     0
  0
CLASS
  1
AEC_REFEDIT_STATUS_TRACKER
  2
AecDbRefEditStatusTracker
  3
AecArchBase60|Product Desc: Autodesk Architectural Desktop 2007 |Company: Autodesk,Inc. |WEB Address: www.autodesk.com
 90
      129
280
     0
281
     0
  0
CLASS
  1
NPOCOLLECTION
  2
AcDbImpNonPersistentObjectsCollection
  3
ObjectDBX Classes
 90
     1153
280
     0
281
     0
  0
ENDSEC
  0
SECTION
  2
TABLES
  0
TABLE
  2
VPORT
  5
179A1
330
0
100
AcDbSymbolTable
 70
     1
  0
VPORT
  5
17A15
330
179A1
100
AcDbSymbolTableRecord
100
AcDbViewportTableRecord
  2
*ACTIVE
 70
     0
 10
0.0
 20
0.0
 11
1.0
 21
1.0
 12
551.1074210587111
 22
-43.5609394493058
 13
0.0
 23
0.0
 14
1.0
 24
1.0
 15
10.0
 25
10.0
 16
0.0
 26
0.0
 36
1.0
 17
0.0
 27
0.0
 37
0.0
 40
718.9648368012986
 41
1.75028636884307
 42
50.0
 43
0.0
 44
0.0
 50
0.0
 51
0.0
 71
     0
 72
   100
 73
     1
 74
     1
 75
     1
 76
     1
 77
     0
 78
     1
281
     0
 65
     1
110
0.0
120
0.0
130
0.0
111
1.0
121
0.0
131
0.0
112
0.0
122
1.0
132
0.0
 79
     0
146
0.0
  0
ENDTAB
  0
TABLE
  2
LTYPE
  5
1799E
330
0
100
AcDbSymbolTable
 70
     9
  0
LTYPE
  5
179FE
330
1799E
100
AcDbSymbolTableRecord
100
AcDbLinetypeTableRecord
  2
ByBlock
 70
     0
  3

 72
    65
 73
     0
 40
0.0
  0
LTYPE
  5
179FF
330
1799E
100
AcDbSymbolTableRecord
100
AcDbLinetypeTableRecord
  2
ByLayer
 70
     0
  3

 72
    65
 73
     0
 40
0.0
  0
LTYPE
  5
17A00
330
1799E
100
AcDbSymbolTableRecord
100
AcDbLinetypeTableRecord
  2
CONTINUOUS
 70
     0
  3
Solid line
 72
    65
 73
     0
 40
0.0
  0
LTYPE
  5
17A16
330
1799E
100
AcDbSymbolTableRecord
100
AcDbLinetypeTableRecord
  2
CONTINOUS
 70
     0
  3
Solid line
 72
    65
 73
     0
 40
0.0
  0
LTYPE
  5
17A18
330
1799E
100
AcDbSymbolTableRecord
100
AcDbLinetypeTableRecord
  2
DASHDOT
 70
     0
  3
__ . __ . __ . __ . __ . __ . __ . __ . __ . __
 72
    65
 73
     4
 40
1.0
 49
0.5
 74
     0
 49
-0.25
 74
     0
 49
0.0
 74
     0
 49
-0.25
 74
     0
  0
LTYPE
  5
17A19
330
1799E
100
AcDbSymbolTableRecord
100
AcDbLinetypeTableRecord
  2
DIVIDE
 70
     0
  3
Divide ____ . . ____ . . ____ . . ____ . . ____
 72
    65
 73
     6
 40
1.25
 49
0.5
 74
     0
 49
-0.25
 74
     0
 49
0.0
 74
     0
 49
-0.25
 74
     0
 49
0.0
 74
     0
 49
-0.25
 74
     0
  0
LTYPE
  5
17A1C
330
1799E
100
AcDbSymbolTableRecord
100
AcDbLinetypeTableRecord
  2
HIDDEN
 70
     0
  3
_ _ _ _ _ _ _ _ _ _ _ _ _ _ _ _ _ _ _ _ _ _ _
 72
    65
 73
     2
 40
0.5
 49
0.25
 74
     0
 49
-0.25
 74
     0
  0
ENDTAB
  0
TABLE
  2
LAYER
  5
1799B
102
{ACAD_XDICTIONARY
360
1B483
102
}
330
0
100
AcDbSymbolTable
 70
    24
  0
LAYER
  5
179F8
102
{ACAD_XDICTIONARY
360
1838A
102
}
330
1799B
100
AcDbSymbolTableRecord
100
AcDbLayerTableRecord
  2
0
 70
     0
 62
     7
  6
CONTINOUS
370
    -3
390
179A8
  0
LAYER
  5
17A13
102
{ACAD_XDICTIONARY
360
1838C
102
}
330
1799B
100
AcDbSymbolTableRecord
100
AcDbLayerTableRecord
  2
30
 70
     0
 62
     9
  6
CONTINUOUS
370
    -3
390
179A8
  0
LAYER
  5
17A1D
102
{ACAD_XDICTIONARY
360
1838E
102
}
330
1799B
100
AcDbSymbolTableRecord
100
AcDbLayerTableRecord
  2
10
 70
     0
 62
     1
  6
CONTINOUS
370
    -3
390
179A8
  0
LAYER
  5
17A1F
102
{ACAD_XDICTIONARY
360
18392
102
}
330
1799B
100
AcDbSymbolTableRecord
100
AcDbLayerTableRecord
  2
16
 70
     0
 62
     6
  6
DASHDOT
370
    -3
390
179A8
  0
LAYER
  5
17A21
102
{ACAD_XDICTIONARY
360
18396
102
}
330
1799B
100
AcDbSymbolTableRecord
100
AcDbLayerTableRecord
  2
24
 70
     0
 62
     2
  6
CONTINOUS
370
    -3
390
179A8
  0
LAYER
  5
17A22
330
1799B
100
AcDbSymbolTableRecord
100
AcDbLayerTableRecord
  2
DEFPOINTS
 70
     0
 62
     7
  6
CONTINUOUS
290
     0
370
    -3
390
179A8
  0
LAYER
  5
17A23
102
{ACAD_XDICTIONARY
360
18398
102
}
330
1799B
100
AcDbSymbolTableRecord
100
AcDbLayerTableRecord
  2
18
 70
     0
 62
     5
  6
DIVIDE
370
    -3
390
179A8
  0
LAYER
  5
17A25
102
{ACAD_XDICTIONARY
360
1839C
102
}
330
1799B
100
AcDbSymbolTableRecord
100
AcDbLayerTableRecord
  2
17
 70
     0
 62
     2
  6
DASHDOT
370
    -3
390
179A8
  0
LAYER
  5
17A26
102
{ACAD_XDICTIONARY
360
1839E
102
}
330
1799B
100
AcDbSymbolTableRecord
100
AcDbLayerTableRecord
  2
1
 70
     0
 62
     7
  6
CONTINUOUS
370
    -3
390
179A8
  0
LAYER
  5
17A2D
102
{ACAD_XDICTIONARY
360
183AC
102
}
330
1799B
100
AcDbSymbolTableRecord
100
AcDbLayerTableRecord
  2
130
 70
     0
 62
     4
  6
CONTINUOUS
370
    -3
390
179A8
  0
LAYER
  5
199FC
330
1799B
100
AcDbSymbolTableRecord
100
AcDbLayerTableRecord
  2
5
 70
     0
 62
     7
  6
CONTINUOUS
370
    -3
390
179A8
  0
ENDTAB
  0
TABLE
  2
STYLE
  5
1799C
330
0
100
AcDbSymbolTable
 70
     9
  0
STYLE
  5
179F9
330
1799C
100
AcDbSymbolTableRecord
100
AcDbTextStyleTableRecord
  2
STANDARD
 70
     0
 40
0.0
 41
1.0
 50
0.0
 71
     0
 42
2.0
  3
txt.shx
  4
bigfont.shx
  0
STYLE
  5
17A14
330
1799C
100
AcDbSymbolTableRecord
100
AcDbTextStyleTableRecord
  2
BLOCKFONT
 70
     0
 40
0.0
 41
1.0
 50
0.0
 71
     0
 42
0.2
  3
simplex.shx
  4
bigfont
  0
ENDTAB
  0
TABLE
  2
VIEW
  5
1799F
330
0
100
AcDbSymbolTable
 70
     3
  0
VIEW
  5
17A34
330
1799F
100
AcDbSymbolTableRecord
100
AcDbViewTableRecord
  2
OLE1
 70
     0
 40
148.912488
 10
429.497628
 20
2.560627
 41
103.145806
 11
0.0
 21
0.0
 31
1.0
 12
0.0
 22
0.0
 32
0.0
 42
50.0
 43
0.0
 44
0.0
 50
0.0
 71
     0
281
     0
 72
     1
110
0.0
120
0.0
130
0.0
111
1.0
121
0.0
131
0.0
112
0.0
122
1.0
132
0.0
 79
     0
146
0.0
  0
VIEW
  5
17A35
330
1799F
100
AcDbSymbolTableRecord
100
AcDbViewTableRecord
  2
OLE2
 70
     0
 40
170.778692
 10
322.66497
 20
-5.978303999999997
 41
102.467215
 11
0.0
 21
0.0
 31
1.0
 12
0.0
 22
0.0
 32
0.0
 42
50.0
 43
0.0
 44
0.0
 50
0.0
 71
     0
281
     0
 72
     1
110
0.0
120
0.0
130
0.0
111
1.0
121
0.0
131
0.0
112
0.0
122
1.0
132
0.0
 79
     0
146
0.0
  0
VIEW
  5
17A36
330
1799F
100
AcDbSymbolTableRecord
100
AcDbViewTableRecord
  2
OLE3
 70
     0
 40
591.7897389999998
 10
84.79698199999999
 20
-46.09335999999998
 41
388.792096
 11
0.0
 21
0.0
 31
1.0
 12
0.0
 22
0.0
 32
0.0
 42
50.0
 43
0.0
 44
0.0
 50
0.0
 71
     0
281
     0
 72
     1
110
0.0
120
0.0
130
0.0
111
1.0
121
0.0
131
0.0
112
0.0
122
1.0
132
0.0
 79
     0
146
0.0
  0
ENDTAB
  0
TABLE
  2
UCS
  5
179A0
330
0
100
AcDbSymbolTable
 70
     0
  0
ENDTAB
  0
TABLE
  2
APPID
  5
179A2
330
0
100
AcDbSymbolTable
 70
    10
  0
APPID
  5
179FA
330
179A2
100
AcDbSymbolTableRecord
100
AcDbRegAppTableRecord
  2
ACAD
 70
     0
  0
APPID
  5
17A01
330
179A2
100
AcDbSymbolTableRecord
100
AcDbRegAppTableRecord
  2
AcadAnnotative
 70
     0
  0
APPID
  5
17A37
330
179A2
100
AcDbSymbolTableRecord
100
AcDbRegAppTableRecord
  2
CONTENTBLOCKICON
 70
     0
  0
APPID
  5
17A38
330
179A2
100
AcDbSymbolTableRecord
100
AcDbRegAppTableRecord
  2
DCO15
 70
     0
  0
APPID
  5
17A39
330
179A2
100
AcDbSymbolTableRecord
100
AcDbRegAppTableRecord
  2
ACAD_MLEADERVER
 70
     0
  0
APPID
  5
17A3A
330
179A2
100
AcDbSymbolTableRecord
100
AcDbRegAppTableRecord
  2
ACAD_PSEXT
 70
     0
  0
APPID
  5
17A3B
330
179A2
100
AcDbSymbolTableRecord
100
AcDbRegAppTableRecord
  2
ACAD_EXEMPT_FROM_CAD_STANDARDS
 70
     0
  0
APPID
  5
1AF2B
330
179A2
100
AcDbSymbolTableRecord
100
AcDbRegAppTableRecord
  2
ACAD_DSTYLE_DIMJAG
 70
     0
  0
APPID
  5
1AF2C
330
179A2
100
AcDbSymbolTableRecord
100
AcDbRegAppTableRecord
  2
ACAD_DSTYLE_DIMTALN
 70
     0
  0
APPID
  5
1B493
330
179A2
100
AcDbSymbolTableRecord
100
AcDbRegAppTableRecord
  2
ACAD_NAV_VCDISPLAY
 70
     0
  0
ENDTAB
  0
TABLE
  2
DIMSTYLE
  5
179A3
330
0
100
AcDbSymbolTable
 70
     7
100
AcDbDimStyleTable
 71
     2
340
1A529
340
179FB
  0
DIMSTYLE
105
179FB
102
{ACAD_REACTORS
330
14D9F
330
156C1
102
}
330
179A3
100
AcDbSymbolTableRecord
100
AcDbDimStyleTableRecord
  2
STANDARD
 70
     0
 41
2.0
 42
1.0
 43
0.5
 44
0.5
 73
     0
 77
     3
 78
    12
140
4.0
147
1.0
271
     8
272
     8
279
     2
284
    12
285
    12
286
    12
340
17A14
  0
DIMSTYLE
105
1A529
102
{ACAD_REACTORS
330
14D9C
330
14D9B
330
14D99
330
14D98
330
14D97
330
14D96
330
14D95
330
14D94
330
14D93
330
14D92
330
14D91
330
14D90
330
14D8F
330
14D8E
330
14D8B
330
14D8A
330
14D88
330
14D87
330
14D86
330
14D85
330
14D82
330
14D81
330
14D7F
330
14D7E
330
14D7D
330
1B05B
330
1B0B9
330
1B177
330
1B224
330
1B24C
330
1B7EE
330
1B7EF
330
1BDD8
330
1BDDC
102
}
330
179A3
100
AcDbSymbolTableRecord
100
AcDbDimStyleTableRecord
  2
STANDARD1
 70
     0
 41
2.0
 42
3.0
 43
0.5
 44
0.5
 73
     0
 74
     0
 77
     3
 78
    12
140
6.0
147
2.0
172
     1
271
     8
272
     8
289
     2
340
179F9
341
17A46
342
17A46
1001
ACAD_DSTYLE_DIMJAG
1070
   388
1040
1.5
1001
ACAD_DSTYLE_DIMTALN
1070
   392
1070
     0
  0
ENDTAB
  0
TABLE
  2
BLOCK_RECORD
  5
1799A
330
0
100
AcDbSymbolTable
 70
   314
  0
BLOCK_RECORD
  5
17A0F
102
{ACAD_XDICTIONARY
360
1B4A2
102
}
330
1799A
100
AcDbSymbolTableRecord
100
AcDbBlockTableRecord
  2
*Model_Space
340
17A12
  0
BLOCK_RECORD
  5
17A0B
330
1799A
100
AcDbSymbolTableRecord
100
AcDbBlockTableRecord
  2
*Paper_Space
340
17A0E
  0
BLOCK_RECORD
  5
17A46
330
1799A
100
AcDbSymbolTableRecord
100
AcDbBlockTableRecord
  2
_OPEN
340
0
102
{BLKREFS
331
1BA8F
331
1BA90
331
1BA98
331
1BA99
331
1BB46
331
1BB47
331
1BB4F
331
1BB50
331
1BB58
331
1BB59
331
1BB98
331
1BB99
331
1BBA1
331
1BBA2
331
1BBC9
331
1BBCA
331
1BBD2
331
1BBD3
331
1BBE4
331
1BBE5
331
1BBED
331
1BBEE
331
1BBF6
331
1BBF7
331
1BBFF
331
1BC00
331
1BC0A
331
1BC0B
331
1BC13
331
1BC14
331
1BC2F
331
1BC30
331
1BC38
331
1BC39
331
1BC4A
331
1BC4B
331
1BC53
331
1BC54
331
1BC65
331
1BC66
331
1BC6E
331
1BC6F
331
1BC90
331
1BC91
331
1BC99
331
1BC9A
331
1BCA5
331
1BCA6
331
1BCBF
331
1BCC0
331
1BCCD
331
1BCCE
331
1BD66
331
1BD67
331
1BD6F
331
1BD70
331
1BD78
331
1BD79
331
1BD8A
331
1BD8B
331
1BD93
331
1BD94
331
1BE36
331
1BE37
331
1BE3F
331
1BE40
331
1BE48
331
1BE49
102
}
  0
BLOCK_RECORD
  5
17F26
330
1799A
100
AcDbSymbolTableRecord
100
AcDbBlockTableRecord
  2
*U64
340
0
102
{BLKREFS
331
14D4F
102
}
  0
BLOCK_RECORD
  5
17F28
330
1799A
100
AcDbSymbolTableRecord
100
AcDbBlockTableRecord
  2
*U65
340
0
102
{BLKREFS
331
14D6E
102
}
  0
BLOCK_RECORD
  5
17F2A
330
1799A
100
AcDbSymbolTableRecord
100
AcDbBlockTableRecord
  2
*U66
340
0
102
{BLKREFS
331
14D6F
102
}
  0
BLOCK_RECORD
  5
17F2C
330
1799A
100
AcDbSymbolTableRecord
100
AcDbBlockTableRecord
  2
*U67
340
0
102
{BLKREFS
331
14D70
102
}
  0
BLOCK_RECORD
  5
17F2E
330
1799A
100
AcDbSymbolTableRecord
100
AcDbBlockTableRecord
  2
*U68
340
0
102
{BLKREFS
331
14D71
102
}
  0
BLOCK_RECORD
  5
17F30
330
1799A
100
AcDbSymbolTableRecord
100
AcDbBlockTableRecord
  2
*U69
340
0
102
{BLKREFS
331
14D72
102
}
  0
BLOCK_RECORD
  5
17F32
330
1799A
100
AcDbSymbolTableRecord
100
AcDbBlockTableRecord
  2
*U70
340
0
102
{BLKREFS
331
14D73
102
}
  0
BLOCK_RECORD
  5
17F34
330
1799A
100
AcDbSymbolTableRecord
100
AcDbBlockTableRecord
  2
*U71
340
0
102
{BLKREFS
331
14D74
102
}
  0
BLOCK_RECORD
  5
17F36
330
1799A
100
AcDbSymbolTableRecord
100
AcDbBlockTableRecord
  2
*U72
340
0
102
{BLKREFS
331
14D75
102
}
  0
BLOCK_RECORD
  5
17F38
330
1799A
100
AcDbSymbolTableRecord
100
AcDbBlockTableRecord
  2
*U73
340
0
102
{BLKREFS
331
14D76
102
}
  0
BLOCK_RECORD
  5
17F3A
330
1799A
100
AcDbSymbolTableRecord
100
AcDbBlockTableRecord
  2
*U74
340
0
102
{BLKREFS
331
14D77
102
}
  0
BLOCK_RECORD
  5
17F3C
330
1799A
100
AcDbSymbolTableRecord
100
AcDbBlockTableRecord
  2
*U75
340
0
102
{BLKREFS
331
14D78
102
}
  0
BLOCK_RECORD
  5
17F3E
330
1799A
100
AcDbSymbolTableRecord
100
AcDbBlockTableRecord
  2
*U76
340
0
102
{BLKREFS
331
14D79
102
}
  0
BLOCK_RECORD
  5
17F40
330
1799A
100
AcDbSymbolTableRecord
100
AcDbBlockTableRecord
  2
*U77
340
0
102
{BLKREFS
331
14D7A
102
}
  0
BLOCK_RECORD
  5
17F42
330
1799A
100
AcDbSymbolTableRecord
100
AcDbBlockTableRecord
  2
*U78
340
0
102
{BLKREFS
331
14D7B
102
}
  0
BLOCK_RECORD
  5
17F44
330
1799A
100
AcDbSymbolTableRecord
100
AcDbBlockTableRecord
  2
*U79
340
0
102
{BLKREFS
331
14D7C
102
}
  0
BLOCK_RECORD
  5
17F48
330
1799A
100
AcDbSymbolTableRecord
100
AcDbBlockTableRecord
  2
*U80
340
0
102
{BLKREFS
331
1567E
102
}
  0
BLOCK_RECORD
  5
18326
330
1799A
100
AcDbSymbolTableRecord
100
AcDbBlockTableRecord
  2
*D81
340
0
  0
BLOCK_RECORD
  5
18368
330
1799A
100
AcDbSymbolTableRecord
100
AcDbBlockTableRecord
  2
*D82
340
0
  0
BLOCK_RECORD
  5
18469
330
1799A
100
AcDbSymbolTableRecord
100
AcDbBlockTableRecord
  2
*D83
340
0
  0
BLOCK_RECORD
  5
1AD49
330
1799A
100
AcDbSymbolTableRecord
100
AcDbBlockTableRecord
  2
*D243
340
0
  0
BLOCK_RECORD
  5
1AD55
330
1799A
100
AcDbSymbolTableRecord
100
AcDbBlockTableRecord
  2
*D244
340
0
  0
BLOCK_RECORD
  5
1AD6E
330
1799A
100
AcDbSymbolTableRecord
100
AcDbBlockTableRecord
  2
*D246
340
0
  0
BLOCK_RECORD
  5
1AD7A
330
1799A
100
AcDbSymbolTableRecord
100
AcDbBlockTableRecord
  2
*D247
340
0
  0
BLOCK_RECORD
  5
1AD86
330
1799A
100
AcDbSymbolTableRecord
100
AcDbBlockTableRecord
  2
*D248
340
0
  0
BLOCK_RECORD
  5
1AD92
330
1799A
100
AcDbSymbolTableRecord
100
AcDbBlockTableRecord
  2
*D249
340
0
  0
BLOCK_RECORD
  5
1AD9E
330
1799A
100
AcDbSymbolTableRecord
100
AcDbBlockTableRecord
  2
*D250
340
0
  0
BLOCK_RECORD
  5
1ADAA
330
1799A
100
AcDbSymbolTableRecord
100
AcDbBlockTableRecord
  2
*D251
340
0
  0
BLOCK_RECORD
  5
1ADB6
330
1799A
100
AcDbSymbolTableRecord
100
AcDbBlockTableRecord
  2
*D252
340
0
  0
BLOCK_RECORD
  5
1ADC2
330
1799A
100
AcDbSymbolTableRecord
100
AcDbBlockTableRecord
  2
*D253
340
0
  0
BLOCK_RECORD
  5
1ADCE
330
1799A
100
AcDbSymbolTableRecord
100
AcDbBlockTableRecord
  2
*D254
340
0
  0
BLOCK_RECORD
  5
1ADDA
330
1799A
100
AcDbSymbolTableRecord
100
AcDbBlockTableRecord
  2
*D255
340
0
  0
BLOCK_RECORD
  5
1ADE6
330
1799A
100
AcDbSymbolTableRecord
100
AcDbBlockTableRecord
  2
*D256
340
0
  0
BLOCK_RECORD
  5
1ADF2
330
1799A
100
AcDbSymbolTableRecord
100
AcDbBlockTableRecord
  2
*D257
340
0
  0
BLOCK_RECORD
  5
1AE17
330
1799A
100
AcDbSymbolTableRecord
100
AcDbBlockTableRecord
  2
*D260
340
0
  0
BLOCK_RECORD
  5
1AE23
330
1799A
100
AcDbSymbolTableRecord
100
AcDbBlockTableRecord
  2
*D261
340
0
  0
BLOCK_RECORD
  5
1AE2F
330
1799A
100
AcDbSymbolTableRecord
100
AcDbBlockTableRecord
  2
*D262
340
0
  0
BLOCK_RECORD
  5
1AE3D
330
1799A
100
AcDbSymbolTableRecord
100
AcDbBlockTableRecord
  2
*D263
340
0
  0
BLOCK_RECORD
  5
1AE49
330
1799A
100
AcDbSymbolTableRecord
100
AcDbBlockTableRecord
  2
*D264
340
0
  0
BLOCK_RECORD
  5
1AE55
330
1799A
100
AcDbSymbolTableRecord
100
AcDbBlockTableRecord
  2
*D265
340
0
  0
BLOCK_RECORD
  5
1AE61
330
1799A
100
AcDbSymbolTableRecord
100
AcDbBlockTableRecord
  2
*D266
340
0
  0
BLOCK_RECORD
  5
1AE6D
330
1799A
100
AcDbSymbolTableRecord
100
AcDbBlockTableRecord
  2
*D267
340
0
  0
BLOCK_RECORD
  5
1B05C
330
1799A
100
AcDbSymbolTableRecord
100
AcDbBlockTableRecord
  2
*D271
340
0
  0
BLOCK_RECORD
  5
1B0BA
330
1799A
100
AcDbSymbolTableRecord
100
AcDbBlockTableRecord
  2
*D272
340
0
  0
BLOCK_RECORD
  5
1B178
330
1799A
100
AcDbSymbolTableRecord
100
AcDbBlockTableRecord
  2
*D273
340
0
  0
BLOCK_RECORD
  5
1B225
330
1799A
100
AcDbSymbolTableRecord
100
AcDbBlockTableRecord
  2
*D275
340
0
  0
BLOCK_RECORD
  5
1B24D
330
1799A
100
AcDbSymbolTableRecord
100
AcDbBlockTableRecord
  2
*D276
340
0
  0
BLOCK_RECORD
  5
1B7F0
330
1799A
100
AcDbSymbolTableRecord
100
AcDbBlockTableRecord
  2
*D293
340
0
  0
BLOCK_RECORD
  5
1B7FC
330
1799A
100
AcDbSymbolTableRecord
100
AcDbBlockTableRecord
  2
*D294
340
0
  0
BLOCK_RECORD
  5
1BB83
330
1799A
100
AcDbSymbolTableRecord
100
AcDbBlockTableRecord
  2
*D297
340
0
  0
BLOCK_RECORD
  5
1BB8B
330
1799A
100
AcDbSymbolTableRecord
100
AcDbBlockTableRecord
  2
*D298
340
0
  0
BLOCK_RECORD
  5
1BDDD
330
1799A
100
AcDbSymbolTableRecord
100
AcDbBlockTableRecord
  2
*D311
340
0
  0
BLOCK_RECORD
  5
1BDE9
330
1799A
100
AcDbSymbolTableRecord
100
AcDbBlockTableRecord
  2
*D312
340
0
  0
ENDTAB
  0
ENDSEC
  0
SECTION
  2
BLOCKS
  0
BLOCK
  5
17A10
330
17A0F
100
AcDbEntity
  8
0
100
AcDbBlockBegin
  2
*Model_Space
 70
     0
 10
0.0
 20
0.0
 30
0.0
  3
*Model_Space
  1

  0
ENDBLK
  5
17A11
330
17A0F
100
AcDbEntity
  8
0
100
AcDbBlockEnd
  0
BLOCK
  5
17A0C
330
17A0B
100
AcDbEntity
 67
     1
  8
0
100
AcDbBlockBegin
  2
*Paper_Space
 70
     0
 10
0.0
 20
0.0
 30
0.0
  3
*Paper_Space
  1

  0
ENDBLK
  5
17A0D
330
17A0B
100
AcDbEntity
 67
     1
  8
0
100
AcDbBlockEnd
  0
BLOCK
  5
17A47
330
17A46
100
AcDbEntity
  8
0
100
AcDbBlockBegin
  2
_OPEN
 70
     0
 10
0.0
 20
0.0
 30
0.0
  3
_OPEN
  1

  0
LINE
  5
3B3
330
17A46
100
AcDbEntity
  8
30
  6
Continuous
 62
     0
100
AcDbLine
 10
-1.0
 20
0.166667
 30
0.0
 11
0.0
 21
0.0
 31
0.0
  0
LINE
  5
3B4
330
17A46
100
AcDbEntity
  8
30
  6
Continuous
 62
     0
100
AcDbLine
 10
-1.0
 20
-0.166667
 30
0.0
 11
0.0
 21
0.0
 31
0.0
  0
LINE
  5
3B5
330
17A46
100
AcDbEntity
  8
30
  6
Continuous
 62
     0
100
AcDbLine
 10
0.0
 20
0.0
 30
0.0
 11
-1.0
 21
0.0
 31
0.0
  0
ENDBLK
  5
3B7
330
17A46
100
AcDbEntity
  8
0
100
AcDbBlockEnd
  0
BLOCK
  5
17F27
330
17F26
100
AcDbEntity
  8
0
100
AcDbBlockBegin
  2
*U64
 70
     1
 10
0.0
 20
0.0
 30
0.0
  3
*U64
  1

  0
TEXT
  5
16B42
330
17F26
100
AcDbEntity
  8
16
100
AcDbText
 10
418.5867849999998
 20
-118.3999841666667
 30
0.0
 40
6.25
  1
H
  7
BLOCKFONT
100
AcDbText
  0
ENDBLK
  5
16B44
330
17F26
100
AcDbEntity
  8
0
100
AcDbBlockEnd
  0
BLOCK
  5
17F29
330
17F28
100
AcDbEntity
  8
0
100
AcDbBlockBegin
  2
*U65
 70
     1
 10
0.0
 20
0.0
 30
0.0
  3
*U65
  1

  0
TEXT
  5
16B46
330
17F28
100
AcDbEntity
  8
16
100
AcDbText
 10
351.6754600000002
 20
69.06337833333329
 30
0.0
 40
6.25
  1
C
  7
BLOCKFONT
100
AcDbText
  0
ENDBLK
  5
16B48
330
17F28
100
AcDbEntity
  8
0
100
AcDbBlockEnd
  0
BLOCK
  5
17F2B
330
17F2A
100
AcDbEntity
  8
0
100
AcDbBlockBegin
  2
*U66
 70
     1
 10
0.0
 20
0.0
 30
0.0
  3
*U66
  1

  0
TEXT
  5
16B4A
330
17F2A
100
AcDbEntity
  8
16
100
AcDbText
 10
420.2425900000001
 20
223.3803933333333
 30
0.0
 40
6.25
  1
L
  7
BLOCKFONT
100
AcDbText
  0
ENDBLK
  5
16B4C
330
17F2A
100
AcDbEntity
  8
0
100
AcDbBlockEnd
  0
BLOCK
  5
17F2D
330
17F2C
100
AcDbEntity
  8
0
100
AcDbBlockBegin
  2
*U67
 70
     1
 10
0.0
 20
0.0
 30
0.0
  3
*U67
  1

  0
TEXT
  5
16B4E
330
17F2C
100
AcDbEntity
  8
16
100
AcDbText
 10
353.3824625
 20
66.65349083333332
 30
0.0
 40
6.25
  1
L
  7
BLOCKFONT
100
AcDbText
  0
ENDBLK
  5
16B50
330
17F2C
100
AcDbEntity
  8
0
100
AcDbBlockEnd
  0
BLOCK
  5
17F2F
330
17F2E
100
AcDbEntity
  8
0
100
AcDbBlockBegin
  2
*U68
 70
     1
 10
0.0
 20
0.0
 30
0.0
  3
*U68
  1

  0
TEXT
  5
16B52
330
17F2E
100
AcDbEntity
  8
16
100
AcDbText
 10
418.5867849999998
 20
226.6000158333334
 30
0.0
 40
6.25
  1
H
  7
BLOCKFONT
100
AcDbText
  0
ENDBLK
  5
16B54
330
17F2E
100
AcDbEntity
  8
0
100
AcDbBlockEnd
  0
BLOCK
  5
17F31
330
17F30
100
AcDbEntity
  8
0
100
AcDbBlockBegin
  2
*U69
 70
     1
 10
0.0
 20
0.0
 30
0.0
  3
*U69
  1

  0
TEXT
  5
16B56
330
17F30
100
AcDbEntity
  8
16
100
AcDbText
 10
576.9153099999997
 20
69.06337833333329
 30
0.0
 40
6.25
  1
C
  7
BLOCKFONT
100
AcDbText
  0
ENDBLK
  5
16B58
330
17F30
100
AcDbEntity
  8
0
100
AcDbBlockEnd
  0
BLOCK
  5
17F33
330
17F32
100
AcDbEntity
  8
0
100
AcDbBlockBegin
  2
*U70
 70
     1
 10
0.0
 20
0.0
 30
0.0
  3
*U70
  1

  0
TEXT
  5
16B5A
330
17F32
100
AcDbEntity
  8
16
100
AcDbText
 10
578.6223124999998
 20
66.65349083333332
 30
0.0
 40
6.25
  1
L
  7
BLOCKFONT
100
AcDbText
  0
ENDBLK
  5
16B5C
330
17F32
100
AcDbEntity
  8
0
100
AcDbBlockEnd
  0
BLOCK
  5
17F35
330
17F34
100
AcDbEntity
  8
0
100
AcDbBlockBegin
  2
*U71
 70
     1
 10
0.0
 20
0.0
 30
0.0
  3
*U71
  1

  0
TEXT
  5
16B5E
330
17F34
100
AcDbEntity
  8
16
100
AcDbText
 10
351.6754600000002
 20
-220.9366216666666
 30
0.0
 40
6.25
  1
C
  7
BLOCKFONT
100
AcDbText
  0
ENDBLK
  5
16B60
330
17F34
100
AcDbEntity
  8
0
100
AcDbBlockEnd
  0
BLOCK
  5
17F37
330
17F36
100
AcDbEntity
  8
0
100
AcDbBlockBegin
  2
*U72
 70
     1
 10
0.0
 20
0.0
 30
0.0
  3
*U72
  1

  0
TEXT
  5
16B62
330
17F36
100
AcDbEntity
  8
16
100
AcDbText
 10
353.3824624999998
 20
-223.3465091666666
 30
0.0
 40
6.25
  1
L
  7
BLOCKFONT
100
AcDbText
  0
ENDBLK
  5
16B64
330
17F36
100
AcDbEntity
  8
0
100
AcDbBlockEnd
  0
BLOCK
  5
17F39
330
17F38
100
AcDbEntity
  8
0
100
AcDbBlockBegin
  2
*U73
 70
     1
 10
0.0
 20
0.0
 30
0.0
  3
*U73
  1

  0
TEXT
  5
16B66
330
17F38
100
AcDbEntity
  8
16
100
AcDbText
 10
563.3824624999997
 20
-223.3465091666666
 30
0.0
 40
6.25
  1
L
  7
BLOCKFONT
100
AcDbText
  0
ENDBLK
  5
16B68
330
17F38
100
AcDbEntity
  8
0
100
AcDbBlockEnd
  0
BLOCK
  5
17F3B
330
17F3A
100
AcDbEntity
  8
0
100
AcDbBlockBegin
  2
*U74
 70
     1
 10
0.0
 20
0.0
 30
0.0
  3
*U74
  1

  0
TEXT
  5
16B6A
330
17F3A
100
AcDbEntity
  8
16
100
AcDbText
 10
561.6754599999998
 20
-220.9366216666666
 30
0.0
 40
6.25
  1
C
  7
BLOCKFONT
100
AcDbText
  0
ENDBLK
  5
16B6C
330
17F3A
100
AcDbEntity
  8
0
100
AcDbBlockEnd
  0
BLOCK
  5
17F3D
330
17F3C
100
AcDbEntity
  8
0
100
AcDbBlockBegin
  2
*U75
 70
     1
 10
0.0
 20
0.0
 30
0.0
  3
*U75
  1

  0
TEXT
  5
16B6E
330
17F3C
100
AcDbEntity
  8
16
100
AcDbText
 10
628.5867849999996
 20
-120.1499841666668
 30
0.0
 40
6.25
  1
H
  7
BLOCKFONT
100
AcDbText
  0
ENDBLK
  5
16B70
330
17F3C
100
AcDbEntity
  8
0
100
AcDbBlockEnd
  0
BLOCK
  5
17F3F
330
17F3E
100
AcDbEntity
  8
0
100
AcDbBlockBegin
  2
*U76
 70
     1
 10
0.0
 20
0.0
 30
0.0
  3
*U76
  1

  0
TEXT
  5
16B72
330
17F3E
100
AcDbEntity
  8
16
100
AcDbText
 10
630.2425900000002
 20
-123.3696066666668
 30
0.0
 40
6.25
  1
L
  7
BLOCKFONT
100
AcDbText
  0
ENDBLK
  5
16B74
330
17F3E
100
AcDbEntity
  8
0
100
AcDbBlockEnd
  0
BLOCK
  5
17F41
330
17F40
100
AcDbEntity
  8
0
100
AcDbBlockBegin
  2
*U77
 70
     1
 10
0.0
 20
0.0
 30
0.0
  3
*U77
  1

  0
TEXT
  5
16B76
330
17F40
100
AcDbEntity
  8
16
100
AcDbText
 10
420.2425900000001
 20
-121.6196066666666
 30
0.0
 40
6.25
  1
L
  7
BLOCKFONT
100
AcDbText
  0
ENDBLK
  5
16B78
330
17F40
100
AcDbEntity
  8
0
100
AcDbBlockEnd
  0
BLOCK
  5
17F43
330
17F42
100
AcDbEntity
  8
0
100
AcDbBlockBegin
  2
*U78
 70
     1
 10
0.0
 20
0.0
 30
0.0
  3
*U78
  1

  0
TEXT
  5
16B7A
330
17F42
100
AcDbEntity
  8
16
100
AcDbText
 10
420.5030549999996
 20
356.1574358333332
 30
0.0
 40
6.25
  1
L
  7
BLOCKFONT
100
AcDbText
  0
ENDBLK
  5
16B7C
330
17F42
100
AcDbEntity
  8
0
100
AcDbBlockEnd
  0
BLOCK
  5
17F45
330
17F44
100
AcDbEntity
  8
0
100
AcDbBlockBegin
  2
*U79
 70
     1
 10
0.0
 20
0.0
 30
0.0
  3
*U79
  1

  0
TEXT
  5
16B7E
330
17F44
100
AcDbEntity
  8
16
100
AcDbText
 10
418.8472500000001
 20
359.3770608333331
 30
0.0
 40
6.25
  1
H
  7
BLOCKFONT
100
AcDbText
  0
ENDBLK
  5
16B80
330
17F44
100
AcDbEntity
  8
0
100
AcDbBlockEnd
  0
BLOCK
  5
17F49
330
17F48
100
AcDbEntity
  8
0
100
AcDbBlockBegin
  2
*U80
 70
     1
 10
0.0
 20
0.0
 30
0.0
  3
*U80
  1

  0
TEXT
  5
16B8A
330
17F48
100
AcDbEntity
  8
30
100
AcDbText
 10
482.2614334736855
 20
-324.4710429908642
 30
0.0
 40
6.0
  1
M4
100
AcDbText
  0
TEXT
  5
16B8B
330
17F48
100
AcDbEntity
  8
30
100
AcDbText
 10
494.2614334736855
 20
-324.4710429908642
 30
0.0
 40
6.0
  1
\U+00D7
100
AcDbText
  0
TEXT
  5
16B8C
330
17F48
100
AcDbEntity
  8
30
100
AcDbText
 10
501.4614334736855
 20
-324.4710429908642
 30
0.0
 40
6.0
  1
0.7
100
AcDbText
  0
ENDBLK
  5
16B8E
330
17F48
100
AcDbEntity
  8
0
100
AcDbBlockEnd
  0
BLOCK
  5
18327
330
18326
100
AcDbEntity
  8
0
100
AcDbBlockBegin
  2
*D81
 70
     1
 10
0.0
 20
0.0
 30
0.0
  3
*D81
  1

  0
LINE
  5
1BA95
330
18326
100
AcDbEntity
  8
30
 62
     0
370
    -2
100
AcDbLine
 10
367.5
 20
-75.49999999999994
 30
0.0
 11
367.5
 21
-155.5
 31
0.0
  0
LINE
  5
1BA96
330
18326
100
AcDbEntity
  8
30
 62
     0
370
    -2
100
AcDbLine
 10
472.5
 20
-75.49999999999994
 30
0.0
 11
472.5
 21
-155.5
 31
0.0
  0
LINE
  5
1BA97
330
18326
100
AcDbEntity
  8
30
 62
     0
370
    -2
100
AcDbLine
 10
369.5
 20
-155.0
 30
0.0
 11
470.5
 21
-155.0
 31
0.0
  0
INSERT
  5
1BA98
330
18326
100
AcDbEntity
  8
30
 62
     0
370
    -2
100
AcDbBlockReference
  2
_OPEN
 10
367.5
 20
-155.0
 30
0.0
 41
2.0
 42
2.0
 43
2.0
 50
180.0
  0
INSERT
  5
1BA99
330
18326
100
AcDbEntity
  8
30
 62
     0
370
    -2
100
AcDbBlockReference
  2
_OPEN
 10
472.5
 20
-155.0
 30
0.0
 41
2.0
 42
2.0
 43
2.0
  0
MTEXT
  5
1BA9A
330
18326
100
AcDbEntity
  8
30
 62
     0
100
AcDbMText
 10
420.0
 20
-150.0
 30
0.0
 40
6.0
 41
0.0
 71
     5
 72
     1
  1
\A1; 105 
 73
     1
 44
1.0
1001
ACAD
1000
MTEXTBEGIN
1070
    73
1070
     1
1070
    44
1040
1.0
1070
    74
1070
     0
1000
MTEXTEND
  0
POINT
  5
1BA9B
330
18326
100
AcDbEntity
  8
DEFPOINTS
 62
     0
100
AcDbPoint
 10
367.5
 20
-72.49999999999994
 30
0.0
  0
POINT
  5
1BA9C
330
18326
100
AcDbEntity
  8
DEFPOINTS
 62
     0
100
AcDbPoint
 10
472.5
 20
-72.49999999999994
 30
0.0
  0
POINT
  5
1BA9D
330
18326
100
AcDbEntity
  8
DEFPOINTS
 62
     0
100
AcDbPoint
 10
472.5
 20
-155.0
 30
0.0
  0
ENDBLK
  5
18328
330
18326
100
AcDbEntity
  8
0
100
AcDbBlockEnd
  0
BLOCK
  5
18369
330
18368
100
AcDbEntity
  8
0
100
AcDbBlockBegin
  2
*D82
 70
     1
 10
0.0
 20
0.0
 30
0.0
  3
*D82
  1

  0
LINE
  5
1BA8C
330
18368
100
AcDbEntity
  8
30
 62
     0
370
    -2
100
AcDbLine
 10
385.0
 20
-71.99999999999997
 30
0.0
 11
385.0
 21
-140.5
 31
0.0
  0
LINE
  5
1BA8D
330
18368
100
AcDbEntity
  8
30
 62
     0
370
    -2
100
AcDbLine
 10
455.0
 20
-71.99999999999997
 30
0.0
 11
455.0
 21
-140.5
 31
0.0
  0
LINE
  5
1BA8E
330
18368
100
AcDbEntity
  8
30
 62
     0
370
    -2
100
AcDbLine
 10
387.0
 20
-140.0
 30
0.0
 11
453.0
 21
-140.0
 31
0.0
  0
INSERT
  5
1BA8F
330
18368
100
AcDbEntity
  8
30
 62
     0
370
    -2
100
AcDbBlockReference
  2
_OPEN
 10
385.0
 20
-140.0
 30
0.0
 41
2.0
 42
2.0
 43
2.0
 50
180.0
  0
INSERT
  5
1BA90
330
18368
100
AcDbEntity
  8
30
 62
     0
370
    -2
100
AcDbBlockReference
  2
_OPEN
 10
455.0
 20
-140.0
 30
0.0
 41
2.0
 42
2.0
 43
2.0
  0
MTEXT
  5
1BA91
330
18368
100
AcDbEntity
  8
30
 62
     0
100
AcDbMText
 10
420.0
 20
-135.0
 30
0.0
 40
6.0
 41
0.0
 71
     5
 72
     1
  1
\A1; 70 
 73
     1
 44
1.0
1001
ACAD
1000
MTEXTBEGIN
1070
    73
1070
     1
1070
    44
1040
1.0
1070
    74
1070
     0
1000
MTEXTEND
  0
POINT
  5
1BA92
330
18368
100
AcDbEntity
  8
DEFPOINTS
 62
     0
100
AcDbPoint
 10
385.0
 20
-68.99999999999997
 30
0.0
  0
POINT
  5
1BA93
330
18368
100
AcDbEntity
  8
DEFPOINTS
 62
     0
100
AcDbPoint
 10
455.0
 20
-68.99999999999997
 30
0.0
  0
POINT
  5
1BA94
330
18368
100
AcDbEntity
  8
DEFPOINTS
 62
     0
100
AcDbPoint
 10
455.0
 20
-140.0
 30
0.0
  0
ENDBLK
  5
1836A
330
18368
100
AcDbEntity
  8
0
100
AcDbBlockEnd
  0
BLOCK
  5
1846A
330
18469
100
AcDbEntity
  8
0
100
AcDbBlockBegin
  2
*D83
 70
     1
 10
0.0
 20
0.0
 30
0.0
  3
*D83
  1

  0
LINE
  5
1BD63
330
18469
100
AcDbEntity
  8
30
 62
     0
370
    -2
100
AcDbLine
 10
590.0
 20
-310.5000000000001
 30
0.0
 11
590.0
 21
-380.5
 31
0.0
  0
LINE
  5
1BD64
330
18469
100
AcDbEntity
  8
30
 62
     0
370
    -2
100
AcDbLine
 10
640.0
 20
-377.0931775000002
 30
0.0
 11
640.0
 21
-380.5
 31
0.0
  0
LINE
  5
1BD65
330
18469
100
AcDbEntity
  8
30
 62
     0
370
    -2
100
AcDbLine
 10
592.0
 20
-380.0
 30
0.0
 11
638.0
 21
-380.0
 31
0.0
  0
INSERT
  5
1BD66
330
18469
100
AcDbEntity
  8
30
 62
     0
370
    -2
100
AcDbBlockReference
  2
_OPEN
 10
590.0
 20
-380.0
 30
0.0
 41
2.0
 42
2.0
 43
2.0
 50
180.0
  0
INSERT
  5
1BD67
330
18469
100
AcDbEntity
  8
30
 62
     0
370
    -2
100
AcDbBlockReference
  2
_OPEN
 10
640.0
 20
-380.0
 30
0.0
 41
2.0
 42
2.0
 43
2.0
  0
MTEXT
  5
1BD68
330
18469
100
AcDbEntity
  8
30
 62
     0
100
AcDbMText
 10
615.0
 20
-375.0
 30
0.0
 40
6.0
 41
0.0
 71
     5
 72
     1
  1
\A1; 50 
 73
     1
 44
1.0
1001
ACAD
1000
MTEXTBEGIN
1070
    73
1070
     1
1070
    44
1040
1.0
1070
    74
1070
     0
1000
MTEXTEND
  0
POINT
  5
1BD69
330
18469
100
AcDbEntity
  8
DEFPOINTS
 62
     0
100
AcDbPoint
 10
590.0
 20
-307.5000000000001
 30
0.0
  0
POINT
  5
1BD6A
330
18469
100
AcDbEntity
  8
DEFPOINTS
 62
     0
100
AcDbPoint
 10
640.0
 20
-374.0931775000002
 30
0.0
  0
POINT
  5
1BD6B
330
18469
100
AcDbEntity
  8
DEFPOINTS
 62
     0
100
AcDbPoint
 10
640.0
 20
-380.0
 30
0.0
  0
ENDBLK
  5
1846B
330
18469
100
AcDbEntity
  8
0
100
AcDbBlockEnd
  0
BLOCK
  5
1AD4A
330
1AD49
100
AcDbEntity
  8
0
100
AcDbBlockBegin
  2
*D243
 70
     1
 10
0.0
 20
0.0
 30
0.0
  3
*D243
  1

  0
LINE
  5
1BCBC
330
1AD49
100
AcDbEntity
  8
30
 62
     0
370
    -2
100
AcDbLine
 10
359.5
 20
274.6999999999998
 30
0.0
 11
339.5
 21
274.6999999999998
 31
0.0
  0
LINE
  5
1BCBD
330
1AD49
100
AcDbEntity
  8
30
 62
     0
370
    -2
100
AcDbLine
 10
379.5
 20
221.0999999999999
 30
0.0
 11
339.5
 21
221.0999999999999
 31
0.0
  0
LINE
  5
1BCBE
330
1AD49
100
AcDbEntity
  8
30
 62
     0
370
    -2
100
AcDbLine
 10
340.0
 20
272.6999999999998
 30
0.0
 11
340.0
 21
223.0999999999999
 31
0.0
  0
INSERT
  5
1BCBF
330
1AD49
100
AcDbEntity
  8
30
 62
     0
370
    -2
100
AcDbBlockReference
  2
_OPEN
 10
340.0
 20
274.6999999999998
 30
0.0
 41
2.0
 42
2.0
 43
2.0
 50
90.0
  0
INSERT
  5
1BCC0
330
1AD49
100
AcDbEntity
  8
30
 62
     0
370
    -2
100
AcDbBlockReference
  2
_OPEN
 10
340.0
 20
221.0999999999999
 30
0.0
 41
2.0
 42
2.0
 43
2.0
 50
270.0
  0
MTEXT
  5
1BCC1
330
1AD49
100
AcDbEntity
  8
30
 62
     0
100
AcDbMText
 10
335.0
 20
247.8999999999999
 30
0.0
 40
6.0
 41
0.0
 71
     5
 72
     1
  1
\A1; 53.6 
 11
0.0000000000000001
 21
1.0
 31
0.0
 73
     1
 44
1.0
1001
ACAD
1000
MTEXTBEGIN
1070
    73
1070
     1
1070
    44
1040
1.0
1070
    74
1070
     0
1000
MTEXTEND
  0
POINT
  5
1BCC2
330
1AD49
100
AcDbEntity
  8
DEFPOINTS
 62
     0
100
AcDbPoint
 10
362.5
 20
274.6999999999998
 30
0.0
  0
POINT
  5
1BCC3
330
1AD49
100
AcDbEntity
  8
DEFPOINTS
 62
     0
100
AcDbPoint
 10
382.5
 20
221.0999999999999
 30
0.0
  0
POINT
  5
1BCC4
330
1AD49
100
AcDbEntity
  8
DEFPOINTS
 62
     0
100
AcDbPoint
 10
340.0
 20
221.0999999999999
 30
0.0
  0
ENDBLK
  5
1AD4B
330
1AD49
100
AcDbEntity
  8
0
100
AcDbBlockEnd
  0
BLOCK
  5
1AD56
330
1AD55
100
AcDbEntity
  8
0
100
AcDbBlockBegin
  2
*D244
 70
     1
 10
0.0
 20
0.0
 30
0.0
  3
*D244
  1

  0
LINE
  5
1BD90
330
1AD55
100
AcDbEntity
  8
30
 62
     0
370
    -2
100
AcDbLine
 10
393.9999999999998
 20
-217.0
 30
0.0
 11
339.5
 21
-217.0
 31
0.0
  0
LINE
  5
1BD91
330
1AD55
100
AcDbEntity
  8
30
 62
     0
370
    -2
100
AcDbLine
 10
393.9999999999998
 20
-343.0
 30
0.0
 11
339.5
 21
-343.0
 31
0.0
  0
LINE
  5
1BD92
330
1AD55
100
AcDbEntity
  8
30
 62
     0
370
    -2
100
AcDbLine
 10
340.0
 20
-219.0
 30
0.0
 11
340.0
 21
-341.0
 31
0.0
  0
INSERT
  5
1BD93
330
1AD55
100
AcDbEntity
  8
30
 62
     0
370
    -2
100
AcDbBlockReference
  2
_OPEN
 10
340.0
 20
-217.0
 30
0.0
 41
2.0
 42
2.0
 43
2.0
 50
90.0
  0
INSERT
  5
1BD94
330
1AD55
100
AcDbEntity
  8
30
 62
     0
370
    -2
100
AcDbBlockReference
  2
_OPEN
 10
340.0
 20
-343.0
 30
0.0
 41
2.0
 42
2.0
 43
2.0
 50
270.0
  0
MTEXT
  5
1BD95
330
1AD55
100
AcDbEntity
  8
30
 62
     0
100
AcDbMText
 10
335.0
 20
-279.9999999999999
 30
0.0
 40
6.0
 41
0.0
 71
     5
 72
     1
  1
\A1; 126 
 11
0.0000000000000001
 21
1.0
 31
0.0
 73
     1
 44
1.0
1001
ACAD
1000
MTEXTBEGIN
1070
    73
1070
     1
1070
    44
1040
1.0
1070
    74
1070
     0
1000
MTEXTEND
  0
POINT
  5
1BD96
330
1AD55
100
AcDbEntity
  8
DEFPOINTS
 62
     0
100
AcDbPoint
 10
396.9999999999998
 20
-217.0
 30
0.0
  0
POINT
  5
1BD97
330
1AD55
100
AcDbEntity
  8
DEFPOINTS
 62
     0
100
AcDbPoint
 10
396.9999999999998
 20
-343.0
 30
0.0
  0
POINT
  5
1BD98
330
1AD55
100
AcDbEntity
  8
DEFPOINTS
 62
     0
100
AcDbPoint
 10
340.0
 20
-343.0
 30
0.0
  0
ENDBLK
  5
1AD57
330
1AD55
100
AcDbEntity
  8
0
100
AcDbBlockEnd
  0
BLOCK
  5
1AD6F
330
1AD6E
100
AcDbEntity
  8
0
100
AcDbBlockBegin
  2
*D246
 70
     1
 10
0.0
 20
0.0
 30
0.0
  3
*D246
  1

  0
LINE
  5
1BB55
330
1AD6E
100
AcDbEntity
  8
30
 62
     0
370
    -2
100
AcDbLine
 10
375.0
 20
82.0
 30
0.0
 11
339.5
 21
82.00000000000001
 31
0.0
  0
LINE
  5
1BB56
330
1AD6E
100
AcDbEntity
  8
30
 62
     0
370
    -2
100
AcDbLine
 10
375.0
 20
-61.99999999999994
 30
0.0
 11
339.5
 21
-61.99999999999993
 31
0.0
  0
LINE
  5
1BB57
330
1AD6E
100
AcDbEntity
  8
30
 62
     0
370
    -2
100
AcDbLine
 10
340.0
 20
80.00000000000001
 30
0.0
 11
340.0
 21
-59.99999999999993
 31
0.0
  0
INSERT
  5
1BB58
330
1AD6E
100
AcDbEntity
  8
30
 62
     0
370
    -2
100
AcDbBlockReference
  2
_OPEN
 10
340.0
 20
82.00000000000001
 30
0.0
 41
2.0
 42
2.0
 43
2.0
 50
90.0
  0
INSERT
  5
1BB59
330
1AD6E
100
AcDbEntity
  8
30
 62
     0
370
    -2
100
AcDbBlockReference
  2
_OPEN
 10
340.0
 20
-61.99999999999993
 30
0.0
 41
2.0
 42
2.0
 43
2.0
 50
270.0
  0
MTEXT
  5
1BB5A
330
1AD6E
100
AcDbEntity
  8
30
 62
     0
100
AcDbMText
 10
335.0
 20
10.00000000000009
 30
0.0
 40
6.0
 41
0.0
 71
     5
 72
     1
  1
\A1; 144 
 11
0.0000000000000001
 21
1.0
 31
0.0
 73
     1
 44
1.0
1001
ACAD
1000
MTEXTBEGIN
1070
    73
1070
     1
1070
    44
1040
1.0
1070
    74
1070
     0
1000
MTEXTEND
  0
POINT
  5
1BB5B
330
1AD6E
100
AcDbEntity
  8
DEFPOINTS
 62
     0
100
AcDbPoint
 10
378.0
 20
82.0
 30
0.0
  0
POINT
  5
1BB5C
330
1AD6E
100
AcDbEntity
  8
DEFPOINTS
 62
     0
100
AcDbPoint
 10
378.0
 20
-61.99999999999994
 30
0.0
  0
POINT
  5
1BB5D
330
1AD6E
100
AcDbEntity
  8
DEFPOINTS
 62
     0
100
AcDbPoint
 10
340.0
 20
-61.99999999999993
 30
0.0
  0
ENDBLK
  5
1AD70
330
1AD6E
100
AcDbEntity
  8
0
100
AcDbBlockEnd
  0
BLOCK
  5
1AD7B
330
1AD7A
100
AcDbEntity
  8
0
100
AcDbBlockBegin
  2
*D247
 70
     1
 10
0.0
 20
0.0
 30
0.0
  3
*D247
  1

  0
LINE
  5
1BB4C
330
1AD7A
100
AcDbEntity
  8
30
 62
     0
370
    -2
100
AcDbLine
 10
359.6026250000006
 20
147.4999999999999
 30
0.0
 11
329.5000000000001
 21
147.4999999999999
 31
0.0
  0
LINE
  5
1BB4D
330
1AD7A
100
AcDbEntity
  8
30
 62
     0
370
    -2
100
AcDbLine
 10
364.5
 20
92.5
 30
0.0
 11
329.5
 21
92.50000000000001
 31
0.0
  0
LINE
  5
1BB4E
330
1AD7A
100
AcDbEntity
  8
30
 62
     0
370
    -2
100
AcDbLine
 10
330.0000000000001
 20
145.4999999999999
 30
0.0
 11
330.0
 21
94.50000000000001
 31
0.0
  0
INSERT
  5
1BB4F
330
1AD7A
100
AcDbEntity
  8
30
 62
     0
370
    -2
100
AcDbBlockReference
  2
_OPEN
 10
330.0000000000001
 20
147.4999999999999
 30
0.0
 41
2.0
 42
2.0
 43
2.0
 50
90.0
  0
INSERT
  5
1BB50
330
1AD7A
100
AcDbEntity
  8
30
 62
     0
370
    -2
100
AcDbBlockReference
  2
_OPEN
 10
330.0
 20
92.50000000000001
 30
0.0
 41
2.0
 42
2.0
 43
2.0
 50
270.0
  0
MTEXT
  5
1BB51
330
1AD7A
100
AcDbEntity
  8
30
 62
     0
100
AcDbMText
 10
325.0
 20
120.0
 30
0.0
 40
6.0
 41
0.0
 71
     5
 72
     1
  1
\A1; 55 
 11
0.0000000000000001
 21
1.0
 31
0.0
 73
     1
 44
1.0
1001
ACAD
1000
MTEXTBEGIN
1070
    73
1070
     1
1070
    44
1040
1.0
1070
    74
1070
     0
1000
MTEXTEND
  0
POINT
  5
1BB52
330
1AD7A
100
AcDbEntity
  8
DEFPOINTS
 62
     0
100
AcDbPoint
 10
362.6026250000006
 20
147.4999999999999
 30
0.0
  0
POINT
  5
1BB53
330
1AD7A
100
AcDbEntity
  8
DEFPOINTS
 62
     0
100
AcDbPoint
 10
367.5
 20
92.5
 30
0.0
  0
POINT
  5
1BB54
330
1AD7A
100
AcDbEntity
  8
DEFPOINTS
 62
     0
100
AcDbPoint
 10
330.0
 20
92.50000000000001
 30
0.0
  0
ENDBLK
  5
1AD7C
330
1AD7A
100
AcDbEntity
  8
0
100
AcDbBlockEnd
  0
BLOCK
  5
1AD87
330
1AD86
100
AcDbEntity
  8
0
100
AcDbBlockBegin
  2
*D248
 70
     1
 10
0.0
 20
0.0
 30
0.0
  3
*D248
  1

  0
LINE
  5
1BB43
330
1AD86
100
AcDbEntity
  8
30
 62
     0
370
    -2
100
AcDbLine
 10
364.5
 20
92.5
 30
0.0
 11
329.5
 21
92.50000000000001
 31
0.0
  0
LINE
  5
1BB44
330
1AD86
100
AcDbEntity
  8
30
 62
     0
370
    -2
100
AcDbLine
 10
364.5
 20
-72.5
 30
0.0
 11
329.5
 21
-72.49999999999999
 31
0.0
  0
LINE
  5
1BB45
330
1AD86
100
AcDbEntity
  8
30
 62
     0
370
    -2
100
AcDbLine
 10
330.0
 20
90.50000000000002
 30
0.0
 11
330.0
 21
-70.49999999999998
 31
0.0
  0
INSERT
  5
1BB46
330
1AD86
100
AcDbEntity
  8
30
 62
     0
370
    -2
100
AcDbBlockReference
  2
_OPEN
 10
330.0
 20
92.50000000000001
 30
0.0
 41
2.0
 42
2.0
 43
2.0
 50
90.0
  0
INSERT
  5
1BB47
330
1AD86
100
AcDbEntity
  8
30
 62
     0
370
    -2
100
AcDbBlockReference
  2
_OPEN
 10
330.0
 20
-72.49999999999999
 30
0.0
 41
2.0
 42
2.0
 43
2.0
 50
270.0
  0
MTEXT
  5
1BB48
330
1AD86
100
AcDbEntity
  8
30
 62
     0
100
AcDbMText
 10
325.0
 20
10.00000000000006
 30
0.0
 40
6.0
 41
0.0
 71
     5
 72
     1
  1
\A1; 165 
 11
0.0000000000000001
 21
1.0
 31
0.0
 73
     1
 44
1.0
1001
ACAD
1000
MTEXTBEGIN
1070
    73
1070
     1
1070
    44
1040
1.0
1070
    74
1070
     0
1000
MTEXTEND
  0
POINT
  5
1BB49
330
1AD86
100
AcDbEntity
  8
DEFPOINTS
 62
     0
100
AcDbPoint
 10
367.5
 20
92.5
 30
0.0
  0
POINT
  5
1BB4A
330
1AD86
100
AcDbEntity
  8
DEFPOINTS
 62
     0
100
AcDbPoint
 10
367.5
 20
-72.5
 30
0.0
  0
POINT
  5
1BB4B
330
1AD86
100
AcDbEntity
  8
DEFPOINTS
 62
     0
100
AcDbPoint
 10
330.0
 20
-72.49999999999999
 30
0.0
  0
ENDBLK
  5
1AD88
330
1AD86
100
AcDbEntity
  8
0
100
AcDbBlockEnd
  0
BLOCK
  5
1AD93
330
1AD92
100
AcDbEntity
  8
0
100
AcDbBlockBegin
  2
*D249
 70
     1
 10
0.0
 20
0.0
 30
0.0
  3
*D249
  1

  0
LINE
  5
1BC6B
330
1AD92
100
AcDbEntity
  8
30
 62
     0
370
    -2
100
AcDbLine
 10
621.2398499999998
 20
-41.00000000000004
 30
0.0
 11
549.5
 21
-41.00000000000001
 31
0.0
  0
LINE
  5
1BC6C
330
1AD92
100
AcDbEntity
  8
30
 62
     0
370
    -2
100
AcDbLine
 10
621.2398499999998
 20
60.9999999999999
 30
0.0
 11
549.5
 21
60.99999999999993
 31
0.0
  0
LINE
  5
1BC6D
330
1AD92
100
AcDbEntity
  8
30
 62
     0
370
    -2
100
AcDbLine
 10
550.0
 20
-39.00000000000002
 30
0.0
 11
550.0
 21
58.99999999999993
 31
0.0
  0
INSERT
  5
1BC6E
330
1AD92
100
AcDbEntity
  8
30
 62
     0
370
    -2
100
AcDbBlockReference
  2
_OPEN
 10
550.0
 20
-41.00000000000001
 30
0.0
 41
2.0
 42
2.0
 43
2.0
 50
270.0
  0
INSERT
  5
1BC6F
330
1AD92
100
AcDbEntity
  8
30
 62
     0
370
    -2
100
AcDbBlockReference
  2
_OPEN
 10
550.0
 20
60.99999999999993
 30
0.0
 41
2.0
 42
2.0
 43
2.0
 50
90.0
  0
MTEXT
  5
1BC70
330
1AD92
100
AcDbEntity
  8
30
 62
     0
100
AcDbMText
 10
545.0
 20
10.00000000000004
 30
0.0
 40
6.0
 41
0.0
 71
     5
 72
     1
  1
\A1; 102 
 11
0.0000000000000001
 21
1.0
 31
0.0
 73
     1
 44
1.0
1001
ACAD
1000
MTEXTBEGIN
1070
    73
1070
     1
1070
    44
1040
1.0
1070
    74
1070
     0
1000
MTEXTEND
  0
POINT
  5
1BC71
330
1AD92
100
AcDbEntity
  8
DEFPOINTS
 62
     0
100
AcDbPoint
 10
624.2398499999998
 20
-41.00000000000004
 30
0.0
  0
POINT
  5
1BC72
330
1AD92
100
AcDbEntity
  8
DEFPOINTS
 62
     0
100
AcDbPoint
 10
624.2398499999998
 20
60.9999999999999
 30
0.0
  0
POINT
  5
1BC73
330
1AD92
100
AcDbEntity
  8
DEFPOINTS
 62
     0
100
AcDbPoint
 10
550.0
 20
60.99999999999993
 30
0.0
  0
ENDBLK
  5
1AD94
330
1AD92
100
AcDbEntity
  8
0
100
AcDbBlockEnd
  0
BLOCK
  5
1AD9F
330
1AD9E
100
AcDbEntity
  8
0
100
AcDbBlockBegin
  2
*D250
 70
     1
 10
0.0
 20
0.0
 30
0.0
  3
*D250
  1

  0
LINE
  5
1BC62
330
1AD9E
100
AcDbEntity
  8
30
 62
     0
370
    -2
100
AcDbLine
 10
612.4999999999994
 20
-15.0
 30
0.0
 11
559.4999999999999
 21
-14.99999999999998
 31
0.0
  0
LINE
  5
1BC63
330
1AD9E
100
AcDbEntity
  8
30
 62
     0
370
    -2
100
AcDbLine
 10
612.4999999999994
 20
34.99999999999999
 30
0.0
 11
559.4999999999999
 21
35.0
 31
0.0
  0
LINE
  5
1BC64
330
1AD9E
100
AcDbEntity
  8
30
 62
     0
370
    -2
100
AcDbLine
 10
560.0
 20
-12.99999999999998
 30
0.0
 11
560.0
 21
33.0
 31
0.0
  0
INSERT
  5
1BC65
330
1AD9E
100
AcDbEntity
  8
30
 62
     0
370
    -2
100
AcDbBlockReference
  2
_OPEN
 10
560.0
 20
-14.99999999999998
 30
0.0
 41
2.0
 42
2.0
 43
2.0
 50
270.0
  0
INSERT
  5
1BC66
330
1AD9E
100
AcDbEntity
  8
30
 62
     0
370
    -2
100
AcDbBlockReference
  2
_OPEN
 10
560.0
 20
35.0
 30
0.0
 41
2.0
 42
2.0
 43
2.0
 50
90.0
  0
MTEXT
  5
1BC67
330
1AD9E
100
AcDbEntity
  8
30
 62
     0
100
AcDbMText
 10
555.0
 20
10.00000000000009
 30
0.0
 40
6.0
 41
0.0
 71
     5
 72
     1
  1
\A1; 50 
 11
0.0000000000000001
 21
1.0
 31
0.0
 73
     1
 44
1.0
1001
ACAD
1000
MTEXTBEGIN
1070
    73
1070
     1
1070
    44
1040
1.0
1070
    74
1070
     0
1000
MTEXTEND
  0
POINT
  5
1BC68
330
1AD9E
100
AcDbEntity
  8
DEFPOINTS
 62
     0
100
AcDbPoint
 10
615.4999999999994
 20
-15.0
 30
0.0
  0
POINT
  5
1BC69
330
1AD9E
100
AcDbEntity
  8
DEFPOINTS
 62
     0
100
AcDbPoint
 10
615.4999999999994
 20
34.99999999999999
 30
0.0
  0
POINT
  5
1BC6A
330
1AD9E
100
AcDbEntity
  8
DEFPOINTS
 62
     0
100
AcDbPoint
 10
560.0
 20
35.0
 30
0.0
  0
ENDBLK
  5
1ADA0
330
1AD9E
100
AcDbEntity
  8
0
100
AcDbBlockEnd
  0
BLOCK
  5
1ADAB
330
1ADAA
100
AcDbEntity
  8
0
100
AcDbBlockBegin
  2
*D251
 70
     1
 10
0.0
 20
0.0
 30
0.0
  3
*D251
  1

  0
LINE
  5
1BD87
330
1ADAA
100
AcDbEntity
  8
30
 62
     0
370
    -2
100
AcDbLine
 10
585.5000000000001
 20
-306.0
 30
0.0
 11
554.26015
 21
-306.0
 31
0.0
  0
LINE
  5
1BD88
330
1ADAA
100
AcDbEntity
  8
30
 62
     0
370
    -2
100
AcDbLine
 10
585.5000000000001
 20
-253.9999999999999
 30
0.0
 11
554.2601500000001
 21
-253.9999999999999
 31
0.0
  0
LINE
  5
1BD89
330
1ADAA
100
AcDbEntity
  8
30
 62
     0
370
    -2
100
AcDbLine
 10
554.76015
 20
-304.0
 30
0.0
 11
554.7601500000001
 21
-255.9999999999999
 31
0.0
  0
INSERT
  5
1BD8A
330
1ADAA
100
AcDbEntity
  8
30
 62
     0
370
    -2
100
AcDbBlockReference
  2
_OPEN
 10
554.76015
 20
-306.0
 30
0.0
 41
2.0
 42
2.0
 43
2.0
 50
270.0
  0
INSERT
  5
1BD8B
330
1ADAA
100
AcDbEntity
  8
30
 62
     0
370
    -2
100
AcDbBlockReference
  2
_OPEN
 10
554.7601500000001
 20
-253.9999999999999
 30
0.0
 41
2.0
 42
2.0
 43
2.0
 50
90.0
  0
MTEXT
  5
1BD8C
330
1ADAA
100
AcDbEntity
  8
30
 62
     0
100
AcDbMText
 10
549.7601500000001
 20
-279.9999999999999
 30
0.0
 40
6.0
 41
0.0
 71
     5
 72
     1
  1
\A1; 52 
 11
0.0000000000000001
 21
1.0
 31
0.0
 73
     1
 44
1.0
1001
ACAD
1000
MTEXTBEGIN
1070
    73
1070
     1
1070
    44
1040
1.0
1070
    74
1070
     0
1000
MTEXTEND
  0
POINT
  5
1BD8D
330
1ADAA
100
AcDbEntity
  8
DEFPOINTS
 62
     0
100
AcDbPoint
 10
588.5000000000001
 20
-306.0
 30
0.0
  0
POINT
  5
1BD8E
330
1ADAA
100
AcDbEntity
  8
DEFPOINTS
 62
     0
100
AcDbPoint
 10
588.5000000000001
 20
-253.9999999999999
 30
0.0
  0
POINT
  5
1BD8F
330
1ADAA
100
AcDbEntity
  8
DEFPOINTS
 62
     0
100
AcDbPoint
 10
554.7601500000001
 20
-253.9999999999999
 30
0.0
  0
ENDBLK
  5
1ADAC
330
1ADAA
100
AcDbEntity
  8
0
100
AcDbBlockEnd
  0
BLOCK
  5
1ADB7
330
1ADB6
100
AcDbEntity
  8
0
100
AcDbBlockBegin
  2
*D252
 70
     1
 10
0.0
 20
0.0
 30
0.0
  3
*D252
  1

  0
LINE
  5
1BC50
330
1ADB6
100
AcDbEntity
  8
30
 62
     0
370
    -2
100
AcDbLine
 10
605.9999999999994
 20
-12.5
 30
0.0
 11
569.5
 21
-12.49999999999999
 31
0.0
  0
LINE
  5
1BC51
330
1ADB6
100
AcDbEntity
  8
30
 62
     0
370
    -2
100
AcDbLine
 10
605.9999999999994
 20
32.49999999999999
 30
0.0
 11
569.5
 21
32.5
 31
0.0
  0
LINE
  5
1BC52
330
1ADB6
100
AcDbEntity
  8
30
 62
     0
370
    -2
100
AcDbLine
 10
570.0
 20
-10.49999999999999
 30
0.0
 11
570.0
 21
30.49999999999999
 31
0.0
  0
INSERT
  5
1BC53
330
1ADB6
100
AcDbEntity
  8
30
 62
     0
370
    -2
100
AcDbBlockReference
  2
_OPEN
 10
570.0
 20
-12.49999999999999
 30
0.0
 41
2.0
 42
2.0
 43
2.0
 50
270.0
  0
INSERT
  5
1BC54
330
1ADB6
100
AcDbEntity
  8
30
 62
     0
370
    -2
100
AcDbBlockReference
  2
_OPEN
 10
570.0
 20
32.5
 30
0.0
 41
2.0
 42
2.0
 43
2.0
 50
90.0
  0
MTEXT
  5
1BC55
330
1ADB6
100
AcDbEntity
  8
30
 62
     0
100
AcDbMText
 10
565.0
 20
10.00000000000009
 30
0.0
 40
6.0
 41
0.0
 71
     5
 72
     1
  1
\A1; 45 
 11
0.0000000000000001
 21
1.0
 31
0.0
 73
     1
 44
1.0
1001
ACAD
1000
MTEXTBEGIN
1070
    73
1070
     1
1070
    44
1040
1.0
1070
    74
1070
     0
1000
MTEXTEND
  0
POINT
  5
1BC56
330
1ADB6
100
AcDbEntity
  8
DEFPOINTS
 62
     0
100
AcDbPoint
 10
608.9999999999994
 20
-12.5
 30
0.0
  0
POINT
  5
1BC57
330
1ADB6
100
AcDbEntity
  8
DEFPOINTS
 62
     0
100
AcDbPoint
 10
608.9999999999994
 20
32.49999999999999
 30
0.0
  0
POINT
  5
1BC58
330
1ADB6
100
AcDbEntity
  8
DEFPOINTS
 62
     0
100
AcDbPoint
 10
570.0
 20
32.5
 30
0.0
  0
ENDBLK
  5
1ADB8
330
1ADB6
100
AcDbEntity
  8
0
100
AcDbBlockEnd
  0
BLOCK
  5
1ADC3
330
1ADC2
100
AcDbEntity
  8
0
100
AcDbBlockBegin
  2
*D253
 70
     1
 10
0.0
 20
0.0
 30
0.0
  3
*D253
  1

  0
LINE
  5
1BCCA
330
1ADC2
100
AcDbEntity
  8
30
 62
     0
370
    -2
100
AcDbLine
 10
440.0000000000002
 20
277.0945174999996
 30
0.0
 11
440.0000000000002
 21
290.4999999999997
 31
0.0
  0
LINE
  5
1BCCB
330
1ADC2
100
AcDbEntity
  8
30
 62
     0
370
    -2
100
AcDbLine
 10
469.9999999999998
 20
276.0999999999999
 30
0.0
 11
469.9999999999998
 21
290.4999999999997
 31
0.0
  0
LINE
  5
1BCCC
330
1ADC2
100
AcDbEntity
  8
30
 62
     0
370
    -2
100
AcDbLine
 10
442.0000000000001
 20
289.9999999999998
 30
0.0
 11
467.9999999999998
 21
289.9999999999998
 31
0.0
  0
INSERT
  5
1BCCD
330
1ADC2
100
AcDbEntity
  8
30
 62
     0
370
    -2
100
AcDbBlockReference
  2
_OPEN
 10
440.0000000000002
 20
289.9999999999998
 30
0.0
 41
2.0
 42
2.0
 43
2.0
 50
180.0
  0
INSERT
  5
1BCCE
330
1ADC2
100
AcDbEntity
  8
30
 62
     0
370
    -2
100
AcDbBlockReference
  2
_OPEN
 10
469.9999999999998
 20
289.9999999999998
 30
0.0
 41
2.0
 42
2.0
 43
2.0
  0
MTEXT
  5
1BCCF
330
1ADC2
100
AcDbEntity
  8
30
 62
     0
100
AcDbMText
 10
455.0
 20
294.9999999999998
 30
0.0
 40
6.0
 41
0.0
 71
     5
 72
     1
  1
\A1; 30 
 73
     1
 44
1.0
1001
ACAD
1000
MTEXTBEGIN
1070
    73
1070
     1
1070
    44
1040
1.0
1070
    74
1070
     0
1000
MTEXTEND
  0
POINT
  5
1BCD0
330
1ADC2
100
AcDbEntity
  8
DEFPOINTS
 62
     0
100
AcDbPoint
 10
440.0000000000002
 20
274.0945174999996
 30
0.0
  0
POINT
  5
1BCD1
330
1ADC2
100
AcDbEntity
  8
DEFPOINTS
 62
     0
100
AcDbPoint
 10
469.9999999999998
 20
273.0999999999999
 30
0.0
  0
POINT
  5
1BCD2
330
1ADC2
100
AcDbEntity
  8
DEFPOINTS
 62
     0
100
AcDbPoint
 10
469.9999999999998
 20
289.9999999999998
 30
0.0
  0
ENDBLK
  5
1ADC4
330
1ADC2
100
AcDbEntity
  8
0
100
AcDbBlockEnd
  0
BLOCK
  5
1ADCF
330
1ADCE
100
AcDbEntity
  8
0
100
AcDbBlockBegin
  2
*D254
 70
     1
 10
0.0
 20
0.0
 30
0.0
  3
*D254
  1

  0
LINE
  5
1BC47
330
1ADCE
100
AcDbEntity
  8
30
 62
     0
370
    -2
100
AcDbLine
 10
630.9999999999998
 20
151.010445
 30
0.0
 11
630.9999999999998
 21
185.5
 31
0.0
  0
LINE
  5
1BC48
330
1ADCE
100
AcDbEntity
  8
30
 62
     0
370
    -2
100
AcDbLine
 10
691.5999999999997
 20
150.5
 30
0.0
 11
691.5999999999997
 21
185.5
 31
0.0
  0
LINE
  5
1BC49
330
1ADCE
100
AcDbEntity
  8
30
 62
     0
370
    -2
100
AcDbLine
 10
632.9999999999999
 20
185.0
 30
0.0
 11
689.5999999999998
 21
185.0
 31
0.0
  0
INSERT
  5
1BC4A
330
1ADCE
100
AcDbEntity
  8
30
 62
     0
370
    -2
100
AcDbBlockReference
  2
_OPEN
 10
630.9999999999998
 20
185.0
 30
0.0
 41
2.0
 42
2.0
 43
2.0
 50
180.0
  0
INSERT
  5
1BC4B
330
1ADCE
100
AcDbEntity
  8
30
 62
     0
370
    -2
100
AcDbBlockReference
  2
_OPEN
 10
691.5999999999997
 20
185.0
 30
0.0
 41
2.0
 42
2.0
 43
2.0
  0
MTEXT
  5
1BC4C
330
1ADCE
100
AcDbEntity
  8
30
 62
     0
100
AcDbMText
 10
661.2999999999998
 20
190.0
 30
0.0
 40
6.0
 41
0.0
 71
     5
 72
     1
  1
\A1; 60.6 
 73
     1
 44
1.0
1001
ACAD
1000
MTEXTBEGIN
1070
    73
1070
     1
1070
    44
1040
1.0
1070
    74
1070
     0
1000
MTEXTEND
  0
POINT
  5
1BC4D
330
1ADCE
100
AcDbEntity
  8
DEFPOINTS
 62
     0
100
AcDbPoint
 10
630.9999999999998
 20
148.010445
 30
0.0
  0
POINT
  5
1BC4E
330
1ADCE
100
AcDbEntity
  8
DEFPOINTS
 62
     0
100
AcDbPoint
 10
691.5999999999997
 20
147.5
 30
0.0
  0
POINT
  5
1BC4F
330
1ADCE
100
AcDbEntity
  8
DEFPOINTS
 62
     0
100
AcDbPoint
 10
691.5999999999997
 20
185.0
 30
0.0
  0
ENDBLK
  5
1ADD0
330
1ADCE
100
AcDbEntity
  8
0
100
AcDbBlockEnd
  0
BLOCK
  5
1ADDB
330
1ADDA
100
AcDbEntity
  8
0
100
AcDbBlockBegin
  2
*D255
 70
     1
 10
0.0
 20
0.0
 30
0.0
  3
*D255
  1

  0
LINE
  5
1BE45
330
1ADDA
100
AcDbEntity
  8
30
 62
     0
370
    -2
100
AcDbLine
 10
587.5
 20
-194.5000000000001
 30
0.0
 11
587.5
 21
-189.5
 31
0.0
  0
LINE
  5
1BE46
330
1ADDA
100
AcDbEntity
  8
30
 62
     0
370
    -2
100
AcDbLine
 10
640.0
 20
-194.5000000000001
 30
0.0
 11
640.0
 21
-189.5
 31
0.0
  0
LINE
  5
1BE47
330
1ADDA
100
AcDbEntity
  8
30
 62
     0
370
    -2
100
AcDbLine
 10
589.5
 20
-190.0
 30
0.0
 11
638.0
 21
-190.0
 31
0.0
  0
INSERT
  5
1BE48
330
1ADDA
100
AcDbEntity
  8
30
 62
     0
370
    -2
100
AcDbBlockReference
  2
_OPEN
 10
587.5
 20
-190.0
 30
0.0
 41
2.0
 42
2.0
 43
2.0
 50
180.0
  0
INSERT
  5
1BE49
330
1ADDA
100
AcDbEntity
  8
30
 62
     0
370
    -2
100
AcDbBlockReference
  2
_OPEN
 10
640.0
 20
-190.0
 30
0.0
 41
2.0
 42
2.0
 43
2.0
  0
MTEXT
  5
1BE4A
330
1ADDA
100
AcDbEntity
  8
30
 62
     0
100
AcDbMText
 10
613.75
 20
-185.0
 30
0.0
 40
6.0
 41
0.0
 71
     5
 72
     1
  1
\A1; 52.5 
 73
     1
 44
1.0
1001
ACAD
1000
MTEXTBEGIN
1070
    73
1070
     1
1070
    44
1040
1.0
1070
    74
1070
     0
1000
MTEXTEND
  0
POINT
  5
1BE4B
330
1ADDA
100
AcDbEntity
  8
DEFPOINTS
 62
     0
100
AcDbPoint
 10
587.5
 20
-197.5000000000001
 30
0.0
  0
POINT
  5
1BE4C
330
1ADDA
100
AcDbEntity
  8
DEFPOINTS
 62
     0
100
AcDbPoint
 10
640.0
 20
-197.5000000000001
 30
0.0
  0
POINT
  5
1BE4D
330
1ADDA
100
AcDbEntity
  8
DEFPOINTS
 62
     0
100
AcDbPoint
 10
640.0
 20
-190.0
 30
0.0
  0
ENDBLK
  5
1ADDC
330
1ADDA
100
AcDbEntity
  8
0
100
AcDbBlockEnd
  0
BLOCK
  5
1ADE7
330
1ADE6
100
AcDbEntity
  8
0
100
AcDbBlockBegin
  2
*D256
 70
     1
 10
0.0
 20
0.0
 30
0.0
  3
*D256
  1

  0
LINE
  5
1BC35
330
1ADE6
100
AcDbEntity
  8
30
 62
     0
370
    -2
100
AcDbLine
 10
624.5
 20
94.799395
 30
0.0
 11
624.5
 21
200.5
 31
0.0
  0
LINE
  5
1BC36
330
1ADE6
100
AcDbEntity
  8
30
 62
     0
370
    -2
100
AcDbLine
 10
691.5999999999997
 20
150.5
 30
0.0
 11
691.5999999999997
 21
200.5
 31
0.0
  0
LINE
  5
1BC37
330
1ADE6
100
AcDbEntity
  8
30
 62
     0
370
    -2
100
AcDbLine
 10
626.5
 20
200.0
 30
0.0
 11
689.5999999999998
 21
200.0
 31
0.0
  0
INSERT
  5
1BC38
330
1ADE6
100
AcDbEntity
  8
30
 62
     0
370
    -2
100
AcDbBlockReference
  2
_OPEN
 10
624.5
 20
200.0
 30
0.0
 41
2.0
 42
2.0
 43
2.0
 50
180.0
  0
INSERT
  5
1BC39
330
1ADE6
100
AcDbEntity
  8
30
 62
     0
370
    -2
100
AcDbBlockReference
  2
_OPEN
 10
691.5999999999997
 20
200.0
 30
0.0
 41
2.0
 42
2.0
 43
2.0
  0
MTEXT
  5
1BC3A
330
1ADE6
100
AcDbEntity
  8
30
 62
     0
100
AcDbMText
 10
658.0499999999999
 20
205.0
 30
0.0
 40
6.0
 41
0.0
 71
     5
 72
     1
  1
\A1; 67.1 
 73
     1
 44
1.0
1001
ACAD
1000
MTEXTBEGIN
1070
    73
1070
     1
1070
    44
1040
1.0
1070
    74
1070
     0
1000
MTEXTEND
  0
POINT
  5
1BC3B
330
1ADE6
100
AcDbEntity
  8
DEFPOINTS
 62
     0
100
AcDbPoint
 10
624.5
 20
91.79939500000001
 30
0.0
  0
POINT
  5
1BC3C
330
1ADE6
100
AcDbEntity
  8
DEFPOINTS
 62
     0
100
AcDbPoint
 10
691.5999999999997
 20
147.5
 30
0.0
  0
POINT
  5
1BC3D
330
1ADE6
100
AcDbEntity
  8
DEFPOINTS
 62
     0
100
AcDbPoint
 10
691.5999999999997
 20
200.0
 30
0.0
  0
ENDBLK
  5
1ADE8
330
1ADE6
100
AcDbEntity
  8
0
100
AcDbBlockEnd
  0
BLOCK
  5
1ADF3
330
1ADF2
100
AcDbEntity
  8
0
100
AcDbBlockBegin
  2
*D257
 70
     1
 10
0.0
 20
0.0
 30
0.0
  3
*D257
  1

  0
LINE
  5
1BC2C
330
1ADF2
100
AcDbEntity
  8
30
 62
     0
370
    -2
100
AcDbLine
 10
688.8400224999992
 20
152.4986974999999
 30
0.0
 11
688.8400224999992
 21
170.5
 31
0.0
  0
LINE
  5
1BC2D
330
1ADF2
100
AcDbEntity
  8
30
 62
     0
370
    -2
100
AcDbLine
 10
631.3400224999992
 20
151.010445
 30
0.0
 11
631.3400224999992
 21
170.5
 31
0.0
  0
LINE
  5
1BC2E
330
1ADF2
100
AcDbEntity
  8
30
 62
     0
370
    -2
100
AcDbLine
 10
686.8400224999992
 20
170.0
 30
0.0
 11
633.3400224999992
 21
170.0
 31
0.0
  0
INSERT
  5
1BC2F
330
1ADF2
100
AcDbEntity
  8
30
 62
     0
370
    -2
100
AcDbBlockReference
  2
_OPEN
 10
688.8400224999992
 20
170.0
 30
0.0
 41
2.0
 42
2.0
 43
2.0
  0
INSERT
  5
1BC30
330
1ADF2
100
AcDbEntity
  8
30
 62
     0
370
    -2
100
AcDbBlockReference
  2
_OPEN
 10
631.3400224999992
 20
170.0
 30
0.0
 41
2.0
 42
2.0
 43
2.0
 50
180.0
  0
MTEXT
  5
1BC31
330
1ADF2
100
AcDbEntity
  8
30
 62
     0
100
AcDbMText
 10
660.0900224999992
 20
175.0
 30
0.0
 40
6.0
 41
0.0
 71
     5
 72
     1
  1
\A1; 57.5 
 73
     1
 44
1.0
1001
ACAD
1000
MTEXTBEGIN
1070
    73
1070
     1
1070
    44
1040
1.0
1070
    74
1070
     0
1000
MTEXTEND
  0
POINT
  5
1BC32
330
1ADF2
100
AcDbEntity
  8
DEFPOINTS
 62
     0
100
AcDbPoint
 10
688.8400224999992
 20
149.4986974999999
 30
0.0
  0
POINT
  5
1BC33
330
1ADF2
100
AcDbEntity
  8
DEFPOINTS
 62
     0
100
AcDbPoint
 10
631.3400224999992
 20
148.010445
 30
0.0
  0
POINT
  5
1BC34
330
1ADF2
100
AcDbEntity
  8
DEFPOINTS
 62
     0
100
AcDbPoint
 10
631.3400224999992
 20
170.0
 30
0.0
  0
ENDBLK
  5
1ADF4
330
1ADF2
100
AcDbEntity
  8
0
100
AcDbBlockEnd
  0
BLOCK
  5
1AE18
330
1AE17
100
AcDbEntity
  8
0
100
AcDbBlockBegin
  2
*D260
 70
     1
 10
0.0
 20
0.0
 30
0.0
  3
*D260
  1

  0
LINE
  5
1BD75
330
1AE17
100
AcDbEntity
  8
30
 62
     0
370
    -2
100
AcDbLine
 10
590.0
 20
-310.5000000000001
 30
0.0
 11
590.0
 21
-400.4999999999999
 31
0.0
  0
LINE
  5
1BD76
330
1AE17
100
AcDbEntity
  8
30
 62
     0
370
    -2
100
AcDbLine
 10
690.0
 20
-310.5000000000001
 30
0.0
 11
690.0
 21
-400.4999999999999
 31
0.0
  0
LINE
  5
1BD77
330
1AE17
100
AcDbEntity
  8
30
 62
     0
370
    -2
100
AcDbLine
 10
592.0
 20
-400.0
 30
0.0
 11
688.0
 21
-400.0
 31
0.0
  0
INSERT
  5
1BD78
330
1AE17
100
AcDbEntity
  8
30
 62
     0
370
    -2
100
AcDbBlockReference
  2
_OPEN
 10
590.0
 20
-400.0
 30
0.0
 41
2.0
 42
2.0
 43
2.0
 50
180.0
  0
INSERT
  5
1BD79
330
1AE17
100
AcDbEntity
  8
30
 62
     0
370
    -2
100
AcDbBlockReference
  2
_OPEN
 10
690.0
 20
-400.0
 30
0.0
 41
2.0
 42
2.0
 43
2.0
  0
MTEXT
  5
1BD7A
330
1AE17
100
AcDbEntity
  8
30
 62
     0
100
AcDbMText
 10
640.0
 20
-395.0
 30
0.0
 40
6.0
 41
0.0
 71
     5
 72
     1
  1
\A1; 100 
 73
     1
 44
1.0
1001
ACAD
1000
MTEXTBEGIN
1070
    73
1070
     1
1070
    44
1040
1.0
1070
    74
1070
     0
1000
MTEXTEND
  0
POINT
  5
1BD7B
330
1AE17
100
AcDbEntity
  8
DEFPOINTS
 62
     0
100
AcDbPoint
 10
590.0
 20
-307.5000000000001
 30
0.0
  0
POINT
  5
1BD7C
330
1AE17
100
AcDbEntity
  8
DEFPOINTS
 62
     0
100
AcDbPoint
 10
690.0
 20
-307.5000000000001
 30
0.0
  0
POINT
  5
1BD7D
330
1AE17
100
AcDbEntity
  8
DEFPOINTS
 62
     0
100
AcDbPoint
 10
690.0
 20
-400.0
 30
0.0
  0
ENDBLK
  5
1AE19
330
1AE17
100
AcDbEntity
  8
0
100
AcDbBlockEnd
  0
BLOCK
  5
1AE24
330
1AE23
100
AcDbEntity
  8
0
100
AcDbBlockBegin
  2
*D261
 70
     1
 10
0.0
 20
0.0
 30
0.0
  3
*D261
  1

  0
LINE
  5
1BC10
330
1AE23
100
AcDbEntity
  8
30
 62
     0
370
    -2
100
AcDbLine
 10
594.9999999999997
 20
7.0
 30
0.0
 11
594.9999999999997
 21
-170.5
 31
0.0
  0
LINE
  5
1BC11
330
1AE23
100
AcDbEntity
  8
30
 62
     0
370
    -2
100
AcDbLine
 10
691.5999999999997
 20
-130.4999999999999
 30
0.0
 11
691.5999999999997
 21
-170.5
 31
0.0
  0
LINE
  5
1BC12
330
1AE23
100
AcDbEntity
  8
30
 62
     0
370
    -2
100
AcDbLine
 10
596.9999999999997
 20
-170.0
 30
0.0
 11
689.5999999999998
 21
-170.0
 31
0.0
  0
INSERT
  5
1BC13
330
1AE23
100
AcDbEntity
  8
30
 62
     0
370
    -2
100
AcDbBlockReference
  2
_OPEN
 10
594.9999999999997
 20
-170.0
 30
0.0
 41
2.0
 42
2.0
 43
2.0
 50
180.0
  0
INSERT
  5
1BC14
330
1AE23
100
AcDbEntity
  8
30
 62
     0
370
    -2
100
AcDbBlockReference
  2
_OPEN
 10
691.5999999999997
 20
-170.0
 30
0.0
 41
2.0
 42
2.0
 43
2.0
  0
MTEXT
  5
1BC15
330
1AE23
100
AcDbEntity
  8
30
 62
     0
100
AcDbMText
 10
643.2999999999997
 20
-165.0
 30
0.0
 40
6.0
 41
0.0
 71
     5
 72
     1
  1
\A1; 96.6 
 73
     1
 44
1.0
1001
ACAD
1000
MTEXTBEGIN
1070
    73
1070
     1
1070
    44
1040
1.0
1070
    74
1070
     0
1000
MTEXTEND
  0
POINT
  5
1BC16
330
1AE23
100
AcDbEntity
  8
DEFPOINTS
 62
     0
100
AcDbPoint
 10
594.9999999999997
 20
10.0
 30
0.0
  0
POINT
  5
1BC17
330
1AE23
100
AcDbEntity
  8
DEFPOINTS
 62
     0
100
AcDbPoint
 10
691.5999999999997
 20
-127.4999999999999
 30
0.0
  0
POINT
  5
1BC18
330
1AE23
100
AcDbEntity
  8
DEFPOINTS
 62
     0
100
AcDbPoint
 10
691.5999999999997
 20
-170.0
 30
0.0
  0
ENDBLK
  5
1AE25
330
1AE23
100
AcDbEntity
  8
0
100
AcDbBlockEnd
  0
BLOCK
  5
1AE30
330
1AE2F
100
AcDbEntity
  8
0
100
AcDbBlockBegin
  2
*D262
 70
     1
 10
0.0
 20
0.0
 30
0.0
  3
*D262
  1

  0
LINE
  5
1BC05
330
1AE2F
100
AcDbEntity
  8
30
 62
     0
370
    -2
100
AcDbLine
 10
691.5999999999997
 20
-97.0
 30
0.0
 11
691.5999999999997
 21
-99.50000000000001
 31
0.0
  0
LINE
  5
1BC06
330
1AE2F
100
AcDbEntity
  8
30
 62
     0
370
    -2
100
AcDbLine
 10
696.9999999999994
 20
-58.25000000000002
 30
0.0
 11
696.9999999999994
 21
-100.5
 31
0.0
  0
LINE
  5
1BC07
330
1AE2F
100
AcDbEntity
  8
30
 62
     0
370
    -2
100
AcDbLine
 10
689.5999999999998
 20
-100.0
 30
0.0
 11
687.5999999999997
 21
-100.0
 31
0.0
  0
LINE
  5
1BC08
330
1AE2F
100
AcDbEntity
  8
30
 62
     0
370
    -2
100
AcDbLine
 10
698.9999999999994
 20
-100.0
 30
0.0
 11
720.5999999999995
 21
-100.0
 31
0.0
  0
LINE
  5
1BC09
330
1AE2F
100
AcDbEntity
  8
30
 62
     0
370
    -2
100
AcDbLine
 10
691.5999999999997
 20
-100.0
 30
0.0
 11
696.9999999999994
 21
-100.0
 31
0.0
  0
INSERT
  5
1BC0A
330
1AE2F
100
AcDbEntity
  8
30
 62
     0
370
    -2
100
AcDbBlockReference
  2
_OPEN
 10
691.5999999999997
 20
-100.0
 30
0.0
 41
2.0
 42
2.0
 43
2.0
  0
INSERT
  5
1BC0B
330
1AE2F
100
AcDbEntity
  8
30
 62
     0
370
    -2
100
AcDbBlockReference
  2
_OPEN
 10
696.9999999999994
 20
-100.0
 30
0.0
 41
2.0
 42
2.0
 43
2.0
 50
180.0
  0
MTEXT
  5
1BC0C
330
1AE2F
100
AcDbEntity
  8
30
 62
     0
100
AcDbMText
 10
710.7999999999994
 20
-95.0
 30
0.0
 40
6.0
 41
0.0
 71
     5
 72
     1
  1
\A1; 5.4 
 73
     1
 44
1.0
1001
ACAD
1000
MTEXTBEGIN
1070
    73
1070
     1
1070
    44
1040
1.0
1070
    74
1070
     0
1000
MTEXTEND
  0
POINT
  5
1BC0D
330
1AE2F
100
AcDbEntity
  8
DEFPOINTS
 62
     0
100
AcDbPoint
 10
691.5999999999997
 20
-100.0
 30
0.0
  0
POINT
  5
1BC0E
330
1AE2F
100
AcDbEntity
  8
DEFPOINTS
 62
     0
100
AcDbPoint
 10
696.9999999999994
 20
-55.25000000000002
 30
0.0
  0
POINT
  5
1BC0F
330
1AE2F
100
AcDbEntity
  8
DEFPOINTS
 62
     0
100
AcDbPoint
 10
696.9999999999994
 20
-100.0
 30
0.0
  0
ENDBLK
  5
1AE31
330
1AE2F
100
AcDbEntity
  8
0
100
AcDbBlockEnd
  0
BLOCK
  5
1AE3E
330
1AE3D
100
AcDbEntity
  8
0
100
AcDbBlockBegin
  2
*D263
 70
     1
 10
0.0
 20
0.0
 30
0.0
  3
*D263
  1

  0
LINE
  5
1BBFC
330
1AE3D
100
AcDbEntity
  8
30
 62
     0
370
    -2
100
AcDbLine
 10
618.0000000000003
 20
-18.0
 30
0.0
 11
618.0000000000003
 21
-155.5
 31
0.0
  0
LINE
  5
1BBFD
330
1AE3D
100
AcDbEntity
  8
30
 62
     0
370
    -2
100
AcDbLine
 10
691.5999999999997
 20
-130.4999999999999
 30
0.0
 11
691.5999999999997
 21
-155.5
 31
0.0
  0
LINE
  5
1BBFE
330
1AE3D
100
AcDbEntity
  8
30
 62
     0
370
    -2
100
AcDbLine
 10
620.0000000000003
 20
-155.0
 30
0.0
 11
689.5999999999998
 21
-155.0
 31
0.0
  0
INSERT
  5
1BBFF
330
1AE3D
100
AcDbEntity
  8
30
 62
     0
370
    -2
100
AcDbBlockReference
  2
_OPEN
 10
618.0000000000003
 20
-155.0
 30
0.0
 41
2.0
 42
2.0
 43
2.0
 50
180.0
  0
INSERT
  5
1BC00
330
1AE3D
100
AcDbEntity
  8
30
 62
     0
370
    -2
100
AcDbBlockReference
  2
_OPEN
 10
691.5999999999997
 20
-155.0
 30
0.0
 41
2.0
 42
2.0
 43
2.0
  0
MTEXT
  5
1BC01
330
1AE3D
100
AcDbEntity
  8
30
 62
     0
100
AcDbMText
 10
654.8
 20
-150.0
 30
0.0
 40
6.0
 41
0.0
 71
     5
 72
     1
  1
\A1; 73.6 
 73
     1
 44
1.0
1001
ACAD
1000
MTEXTBEGIN
1070
    73
1070
     1
1070
    44
1040
1.0
1070
    74
1070
     0
1000
MTEXTEND
  0
POINT
  5
1BC02
330
1AE3D
100
AcDbEntity
  8
DEFPOINTS
 62
     0
100
AcDbPoint
 10
618.0000000000003
 20
-15.0
 30
0.0
  0
POINT
  5
1BC03
330
1AE3D
100
AcDbEntity
  8
DEFPOINTS
 62
     0
100
AcDbPoint
 10
691.5999999999997
 20
-127.4999999999999
 30
0.0
  0
POINT
  5
1BC04
330
1AE3D
100
AcDbEntity
  8
DEFPOINTS
 62
     0
100
AcDbPoint
 10
691.5999999999997
 20
-155.0
 30
0.0
  0
ENDBLK
  5
1AE3F
330
1AE3D
100
AcDbEntity
  8
0
100
AcDbBlockEnd
  0
BLOCK
  5
1AE4A
330
1AE49
100
AcDbEntity
  8
0
100
AcDbBlockBegin
  2
*D264
 70
     1
 10
0.0
 20
0.0
 30
0.0
  3
*D264
  1

  0
LINE
  5
1BD6C
330
1AE49
100
AcDbEntity
  8
30
 62
     0
370
    -2
100
AcDbLine
 10
402.5
 20
-351.5
 30
0.0
 11
402.5
 21
-380.5
 31
0.0
  0
LINE
  5
1BD6D
330
1AE49
100
AcDbEntity
  8
30
 62
     0
370
    -2
100
AcDbLine
 10
437.5
 20
-348.5
 30
0.0
 11
437.5
 21
-380.5
 31
0.0
  0
LINE
  5
1BD6E
330
1AE49
100
AcDbEntity
  8
30
 62
     0
370
    -2
100
AcDbLine
 10
404.4999999999999
 20
-380.0
 30
0.0
 11
435.5
 21
-380.0
 31
0.0
  0
INSERT
  5
1BD6F
330
1AE49
100
AcDbEntity
  8
30
 62
     0
370
    -2
100
AcDbBlockReference
  2
_OPEN
 10
402.5
 20
-380.0
 30
0.0
 41
2.0
 42
2.0
 43
2.0
 50
180.0
  0
INSERT
  5
1BD70
330
1AE49
100
AcDbEntity
  8
30
 62
     0
370
    -2
100
AcDbBlockReference
  2
_OPEN
 10
437.5
 20
-380.0
 30
0.0
 41
2.0
 42
2.0
 43
2.0
  0
MTEXT
  5
1BD71
330
1AE49
100
AcDbEntity
  8
30
 62
     0
100
AcDbMText
 10
420.0
 20
-375.0
 30
0.0
 40
6.0
 41
0.0
 71
     5
 72
     1
  1
\A1; 35 
 73
     1
 44
1.0
1001
ACAD
1000
MTEXTBEGIN
1070
    73
1070
     1
1070
    44
1040
1.0
1070
    74
1070
     0
1000
MTEXTEND
  0
POINT
  5
1BD72
330
1AE49
100
AcDbEntity
  8
DEFPOINTS
 62
     0
100
AcDbPoint
 10
402.5
 20
-348.5
 30
0.0
  0
POINT
  5
1BD73
330
1AE49
100
AcDbEntity
  8
DEFPOINTS
 62
     0
100
AcDbPoint
 10
437.5
 20
-345.5
 30
0.0
  0
POINT
  5
1BD74
330
1AE49
100
AcDbEntity
  8
DEFPOINTS
 62
     0
100
AcDbPoint
 10
437.5
 20
-380.0
 30
0.0
  0
ENDBLK
  5
1AE4B
330
1AE49
100
AcDbEntity
  8
0
100
AcDbBlockEnd
  0
BLOCK
  5
1AE56
330
1AE55
100
AcDbEntity
  8
0
100
AcDbBlockBegin
  2
*D265
 70
     1
 10
0.0
 20
0.0
 30
0.0
  3
*D265
  1

  0
LINE
  5
1BBF3
330
1AE55
100
AcDbEntity
  8
30
 62
     0
370
    -2
100
AcDbLine
 10
666.0000000000003
 20
68.5
 30
0.0
 11
666.0000000000003
 21
49.5
 31
0.0
  0
LINE
  5
1BBF4
330
1AE55
100
AcDbEntity
  8
30
 62
     0
370
    -2
100
AcDbLine
 10
691.6000000000003
 20
50.4400975
 30
0.0
 11
691.6000000000003
 21
49.5
 31
0.0
  0
LINE
  5
1BBF5
330
1AE55
100
AcDbEntity
  8
30
 62
     0
370
    -2
100
AcDbLine
 10
668.0000000000003
 20
50.0
 30
0.0
 11
689.6000000000002
 21
50.0
 31
0.0
  0
INSERT
  5
1BBF6
330
1AE55
100
AcDbEntity
  8
30
 62
     0
370
    -2
100
AcDbBlockReference
  2
_OPEN
 10
666.0000000000003
 20
50.0
 30
0.0
 41
2.0
 42
2.0
 43
2.0
 50
180.0
  0
INSERT
  5
1BBF7
330
1AE55
100
AcDbEntity
  8
30
 62
     0
370
    -2
100
AcDbBlockReference
  2
_OPEN
 10
691.6000000000003
 20
50.0
 30
0.0
 41
2.0
 42
2.0
 43
2.0
  0
MTEXT
  5
1BBF8
330
1AE55
100
AcDbEntity
  8
30
 62
     0
100
AcDbMText
 10
675.8000000000005
 20
55.0
 30
0.0
 40
6.0
 41
0.0
 71
     5
 72
     1
  1
\A1; 25.6 
 73
     1
 44
1.0
1001
ACAD
1000
MTEXTBEGIN
1070
    73
1070
     1
1070
    44
1040
1.0
1070
    74
1070
     0
1000
MTEXTEND
  0
POINT
  5
1BBF9
330
1AE55
100
AcDbEntity
  8
DEFPOINTS
 62
     0
100
AcDbPoint
 10
666.0000000000003
 20
71.5
 30
0.0
  0
POINT
  5
1BBFA
330
1AE55
100
AcDbEntity
  8
DEFPOINTS
 62
     0
100
AcDbPoint
 10
691.6000000000003
 20
53.44009750000001
 30
0.0
  0
POINT
  5
1BBFB
330
1AE55
100
AcDbEntity
  8
DEFPOINTS
 62
     0
100
AcDbPoint
 10
691.6000000000003
 20
50.0
 30
0.0
  0
ENDBLK
  5
1AE57
330
1AE55
100
AcDbEntity
  8
0
100
AcDbBlockEnd
  0
BLOCK
  5
1AE62
330
1AE61
100
AcDbEntity
  8
0
100
AcDbBlockBegin
  2
*D266
 70
     1
 10
0.0
 20
0.0
 30
0.0
  3
*D266
  1

  0
LINE
  5
1BBEA
330
1AE61
100
AcDbEntity
  8
30
 62
     0
370
    -2
100
AcDbLine
 10
629.9999999999998
 20
-78.0
 30
0.0
 11
629.9999999999998
 21
-110.5
 31
0.0
  0
LINE
  5
1BBEB
330
1AE61
100
AcDbEntity
  8
30
 62
     0
370
    -2
100
AcDbLine
 10
691.5999999999997
 20
-107.0
 30
0.0
 11
691.5999999999997
 21
-109.5
 31
0.0
  0
LINE
  5
1BBEC
330
1AE61
100
AcDbEntity
  8
30
 62
     0
370
    -2
100
AcDbLine
 10
631.9999999999999
 20
-110.0
 30
0.0
 11
689.5999999999998
 21
-110.0
 31
0.0
  0
INSERT
  5
1BBED
330
1AE61
100
AcDbEntity
  8
30
 62
     0
370
    -2
100
AcDbBlockReference
  2
_OPEN
 10
629.9999999999998
 20
-110.0
 30
0.0
 41
2.0
 42
2.0
 43
2.0
 50
180.0
  0
INSERT
  5
1BBEE
330
1AE61
100
AcDbEntity
  8
30
 62
     0
370
    -2
100
AcDbBlockReference
  2
_OPEN
 10
691.5999999999997
 20
-110.0
 30
0.0
 41
2.0
 42
2.0
 43
2.0
  0
MTEXT
  5
1BBEF
330
1AE61
100
AcDbEntity
  8
30
 62
     0
100
AcDbMText
 10
660.7999999999998
 20
-105.0
 30
0.0
 40
6.0
 41
0.0
 71
     5
 72
     1
  1
\A1; 61.6 
 73
     1
 44
1.0
1001
ACAD
1000
MTEXTBEGIN
1070
    73
1070
     1
1070
    44
1040
1.0
1070
    74
1070
     0
1000
MTEXTEND
  0
POINT
  5
1BBF0
330
1AE61
100
AcDbEntity
  8
DEFPOINTS
 62
     0
100
AcDbPoint
 10
629.9999999999998
 20
-75.0
 30
0.0
  0
POINT
  5
1BBF1
330
1AE61
100
AcDbEntity
  8
DEFPOINTS
 62
     0
100
AcDbPoint
 10
691.5999999999997
 20
-110.0
 30
0.0
  0
POINT
  5
1BBF2
330
1AE61
100
AcDbEntity
  8
DEFPOINTS
 62
     0
100
AcDbPoint
 10
691.5999999999997
 20
-110.0
 30
0.0
  0
ENDBLK
  5
1AE63
330
1AE61
100
AcDbEntity
  8
0
100
AcDbBlockEnd
  0
BLOCK
  5
1AE6E
330
1AE6D
100
AcDbEntity
  8
0
100
AcDbBlockBegin
  2
*D267
 70
     1
 10
0.0
 20
0.0
 30
0.0
  3
*D267
  1

  0
LINE
  5
1BBE1
330
1AE6D
100
AcDbEntity
  8
30
 62
     0
370
    -2
100
AcDbLine
 10
643.9999999999992
 20
-62.75000000000002
 30
0.0
 11
643.9999999999992
 21
-100.5
 31
0.0
  0
LINE
  5
1BBE2
330
1AE6D
100
AcDbEntity
  8
30
 62
     0
370
    -2
100
AcDbLine
 10
691.5999999999997
 20
-97.0
 30
0.0
 11
691.5999999999997
 21
-99.50000000000001
 31
0.0
  0
LINE
  5
1BBE3
330
1AE6D
100
AcDbEntity
  8
30
 62
     0
370
    -2
100
AcDbLine
 10
645.9999999999991
 20
-100.0
 30
0.0
 11
689.5999999999998
 21
-100.0
 31
0.0
  0
INSERT
  5
1BBE4
330
1AE6D
100
AcDbEntity
  8
30
 62
     0
370
    -2
100
AcDbBlockReference
  2
_OPEN
 10
643.9999999999992
 20
-100.0
 30
0.0
 41
2.0
 42
2.0
 43
2.0
 50
180.0
  0
INSERT
  5
1BBE5
330
1AE6D
100
AcDbEntity
  8
30
 62
     0
370
    -2
100
AcDbBlockReference
  2
_OPEN
 10
691.5999999999997
 20
-100.0
 30
0.0
 41
2.0
 42
2.0
 43
2.0
  0
MTEXT
  5
1BBE6
330
1AE6D
100
AcDbEntity
  8
30
 62
     0
100
AcDbMText
 10
667.7999999999995
 20
-95.0
 30
0.0
 40
6.0
 41
0.0
 71
     5
 72
     1
  1
\A1; 47.6 
 73
     1
 44
1.0
1001
ACAD
1000
MTEXTBEGIN
1070
    73
1070
     1
1070
    44
1040
1.0
1070
    74
1070
     0
1000
MTEXTEND
  0
POINT
  5
1BBE7
330
1AE6D
100
AcDbEntity
  8
DEFPOINTS
 62
     0
100
AcDbPoint
 10
643.9999999999992
 20
-59.75000000000001
 30
0.0
  0
POINT
  5
1BBE8
330
1AE6D
100
AcDbEntity
  8
DEFPOINTS
 62
     0
100
AcDbPoint
 10
691.5999999999997
 20
-100.0
 30
0.0
  0
POINT
  5
1BBE9
330
1AE6D
100
AcDbEntity
  8
DEFPOINTS
 62
     0
100
AcDbPoint
 10
691.5999999999997
 20
-100.0
 30
0.0
  0
ENDBLK
  5
1AE6F
330
1AE6D
100
AcDbEntity
  8
0
100
AcDbBlockEnd
  0
BLOCK
  5
1B05D
330
1B05C
100
AcDbEntity
  8
0
100
AcDbBlockBegin
  2
*D271
 70
     1
 10
0.0
 20
0.0
 30
0.0
  3
*D271
  1

  0
LINE
  5
1BB95
330
1B05C
100
AcDbEntity
  8
30
 62
     0
370
    -2
100
AcDbLine
 10
362.5
 20
-130.4999999999999
 30
0.0
 11
362.5
 21
-170.5
 31
0.0
  0
LINE
  5
1BB96
330
1B05C
100
AcDbEntity
  8
30
 62
     0
370
    -2
100
AcDbLine
 10
477.5
 20
-130.4999999999999
 30
0.0
 11
477.5
 21
-170.5
 31
0.0
  0
LINE
  5
1BB97
330
1B05C
100
AcDbEntity
  8
30
 62
     0
370
    -2
100
AcDbLine
 10
364.5
 20
-170.0
 30
0.0
 11
475.4999999999999
 21
-170.0
 31
0.0
  0
INSERT
  5
1BB98
330
1B05C
100
AcDbEntity
  8
30
 62
     0
370
    -2
100
AcDbBlockReference
  2
_OPEN
 10
362.5
 20
-170.0
 30
0.0
 41
2.0
 42
2.0
 43
2.0
 50
180.0
  0
INSERT
  5
1BB99
330
1B05C
100
AcDbEntity
  8
30
 62
     0
370
    -2
100
AcDbBlockReference
  2
_OPEN
 10
477.5
 20
-170.0
 30
0.0
 41
2.0
 42
2.0
 43
2.0
  0
MTEXT
  5
1BB9A
330
1B05C
100
AcDbEntity
  8
30
 62
     0
100
AcDbMText
 10
420.0
 20
-165.0
 30
0.0
 40
6.0
 41
0.0
 71
     5
 72
     1
  1
\A1; 115 
 73
     1
 44
1.0
1001
ACAD
1000
MTEXTBEGIN
1070
    73
1070
     1
1070
    44
1040
1.0
1070
    74
1070
     0
1000
MTEXTEND
  0
POINT
  5
1BB9B
330
1B05C
100
AcDbEntity
  8
DEFPOINTS
 62
     0
100
AcDbPoint
 10
362.5
 20
-127.4999999999999
 30
0.0
  0
POINT
  5
1BB9C
330
1B05C
100
AcDbEntity
  8
DEFPOINTS
 62
     0
100
AcDbPoint
 10
477.5
 20
-127.4999999999999
 30
0.0
  0
POINT
  5
1BB9D
330
1B05C
100
AcDbEntity
  8
DEFPOINTS
 62
     0
100
AcDbPoint
 10
477.5
 20
-170.0
 30
0.0
  0
ENDBLK
  5
1B05E
330
1B05C
100
AcDbEntity
  8
0
100
AcDbBlockEnd
  0
BLOCK
  5
1B0BB
330
1B0BA
100
AcDbEntity
  8
0
100
AcDbBlockBegin
  2
*D272
 70
     1
 10
0.0
 20
0.0
 30
0.0
  3
*D272
  1

  0
LINE
  5
1BB9E
330
1B0BA
100
AcDbEntity
  8
30
 62
     0
370
    -2
100
AcDbLine
 10
359.6026250000008
 20
-127.4999999999998
 30
0.0
 11
329.5000000000002
 21
-127.4999999999998
 31
0.0
  0
LINE
  5
1BB9F
330
1B0BA
100
AcDbEntity
  8
30
 62
     0
370
    -2
100
AcDbLine
 10
364.5000000000002
 20
-72.49999999999994
 30
0.0
 11
329.5000000000002
 21
-72.49999999999992
 31
0.0
  0
LINE
  5
1BBA0
330
1B0BA
100
AcDbEntity
  8
30
 62
     0
370
    -2
100
AcDbLine
 10
330.0000000000002
 20
-125.4999999999998
 30
0.0
 11
330.0000000000002
 21
-74.49999999999993
 31
0.0
  0
INSERT
  5
1BBA1
330
1B0BA
100
AcDbEntity
  8
30
 62
     0
370
    -2
100
AcDbBlockReference
  2
_OPEN
 10
330.0000000000002
 20
-127.4999999999998
 30
0.0
 41
2.0
 42
2.0
 43
2.0
 50
270.0
  0
INSERT
  5
1BBA2
330
1B0BA
100
AcDbEntity
  8
30
 62
     0
370
    -2
100
AcDbBlockReference
  2
_OPEN
 10
330.0000000000002
 20
-72.49999999999992
 30
0.0
 41
2.0
 42
2.0
 43
2.0
 50
90.0
  0
MTEXT
  5
1BBA3
330
1B0BA
100
AcDbEntity
  8
30
 62
     0
100
AcDbMText
 10
325.0000000000002
 20
-99.99999999999982
 30
0.0
 40
6.0
 41
0.0
 71
     5
 72
     1
  1
\A1; 55 
 11
0.0000000000000001
 21
1.0
 31
0.0
 73
     1
 44
1.0
1001
ACAD
1000
MTEXTBEGIN
1070
    73
1070
     1
1070
    44
1040
1.0
1070
    74
1070
     0
1000
MTEXTEND
  0
POINT
  5
1BBA4
330
1B0BA
100
AcDbEntity
  8
DEFPOINTS
 62
     0
100
AcDbPoint
 10
362.6026250000009
 20
-127.4999999999998
 30
0.0
  0
POINT
  5
1BBA5
330
1B0BA
100
AcDbEntity
  8
DEFPOINTS
 62
     0
100
AcDbPoint
 10
367.5000000000002
 20
-72.49999999999994
 30
0.0
  0
POINT
  5
1BBA6
330
1B0BA
100
AcDbEntity
  8
DEFPOINTS
 62
     0
100
AcDbPoint
 10
330.0000000000002
 20
-72.49999999999992
 30
0.0
  0
ENDBLK
  5
1B0BC
330
1B0BA
100
AcDbEntity
  8
0
100
AcDbBlockEnd
  0
BLOCK
  5
1B179
330
1B178
100
AcDbEntity
  8
0
100
AcDbBlockBegin
  2
*D273
 70
     1
 10
0.0
 20
0.0
 30
0.0
  3
*D273
  1

  0
LINE
  5
1BC8B
330
1B178
100
AcDbEntity
  8
30
 62
     0
370
    -2
100
AcDbLine
 10
690.0
 20
-87.0
 30
0.0
 11
690.0
 21
-89.50000000000001
 31
0.0
  0
LINE
  5
1BC8C
330
1B178
100
AcDbEntity
  8
30
 62
     0
370
    -2
100
AcDbLine
 10
691.5999999999997
 20
-68.0
 30
0.0
 11
691.5999999999997
 21
-90.5
 31
0.0
  0
LINE
  5
1BC8D
330
1B178
100
AcDbEntity
  8
30
 62
     0
370
    -2
100
AcDbLine
 10
693.5999999999998
 20
-90.0
 30
0.0
 11
695.5999999999997
 21
-90.0
 31
0.0
  0
LINE
  5
1BC8E
330
1B178
100
AcDbEntity
  8
30
 62
     0
370
    -2
100
AcDbLine
 10
688.0
 20
-90.0
 30
0.0
 11
668.3999999999997
 21
-90.0
 31
0.0
  0
LINE
  5
1BC8F
330
1B178
100
AcDbEntity
  8
30
 62
     0
370
    -2
100
AcDbLine
 10
691.5999999999997
 20
-90.0
 30
0.0
 11
690.0
 21
-90.0
 31
0.0
  0
INSERT
  5
1BC90
330
1B178
100
AcDbEntity
  8
30
 62
     0
370
    -2
100
AcDbBlockReference
  2
_OPEN
 10
691.5999999999997
 20
-90.0
 30
0.0
 41
2.0
 42
2.0
 43
2.0
 50
180.0
  0
INSERT
  5
1BC91
330
1B178
100
AcDbEntity
  8
30
 62
     0
370
    -2
100
AcDbBlockReference
  2
_OPEN
 10
690.0
 20
-90.0
 30
0.0
 41
2.0
 42
2.0
 43
2.0
  0
MTEXT
  5
1BC92
330
1B178
100
AcDbEntity
  8
30
 62
     0
100
AcDbMText
 10
677.1999999999998
 20
-85.0
 30
0.0
 40
6.0
 41
0.0
 71
     5
 72
     1
  1
\A1; 1.6 
 73
     1
 44
1.0
1001
ACAD
1000
MTEXTBEGIN
1070
    73
1070
     1
1070
    44
1040
1.0
1070
    74
1070
     0
1000
MTEXTEND
  0
POINT
  5
1BC93
330
1B178
100
AcDbEntity
  8
DEFPOINTS
 62
     0
100
AcDbPoint
 10
690.0
 20
-90.0
 30
0.0
  0
POINT
  5
1BC94
330
1B178
100
AcDbEntity
  8
DEFPOINTS
 62
     0
100
AcDbPoint
 10
691.5999999999997
 20
-65.0
 30
0.0
  0
POINT
  5
1BC95
330
1B178
100
AcDbEntity
  8
DEFPOINTS
 62
     0
100
AcDbPoint
 10
691.5999999999997
 20
-90.0
 30
0.0
  0
ENDBLK
  5
1B17A
330
1B178
100
AcDbEntity
  8
0
100
AcDbBlockEnd
  0
BLOCK
  5
1B226
330
1B225
100
AcDbEntity
  8
0
100
AcDbBlockBegin
  2
*D275
 70
     1
 10
0.0
 20
0.0
 30
0.0
  3
*D275
  1

  0
LINE
  5
1BC96
330
1B225
100
AcDbEntity
  8
30
 62
     0
370
    -2
100
AcDbLine
 10
622.0000000000003
 20
-43.99999999999997
 30
0.0
 11
622.0000000000003
 21
-140.5
 31
0.0
  0
LINE
  5
1BC97
330
1B225
100
AcDbEntity
  8
30
 62
     0
370
    -2
100
AcDbLine
 10
691.5999999999997
 20
-120.5
 30
0.0
 11
691.5999999999997
 21
-140.5
 31
0.0
  0
LINE
  5
1BC98
330
1B225
100
AcDbEntity
  8
30
 62
     0
370
    -2
100
AcDbLine
 10
624.0000000000003
 20
-140.0
 30
0.0
 11
689.5999999999998
 21
-140.0
 31
0.0
  0
INSERT
  5
1BC99
330
1B225
100
AcDbEntity
  8
30
 62
     0
370
    -2
100
AcDbBlockReference
  2
_OPEN
 10
622.0000000000003
 20
-140.0
 30
0.0
 41
2.0
 42
2.0
 43
2.0
 50
180.0
  0
INSERT
  5
1BC9A
330
1B225
100
AcDbEntity
  8
30
 62
     0
370
    -2
100
AcDbBlockReference
  2
_OPEN
 10
691.5999999999997
 20
-140.0
 30
0.0
 41
2.0
 42
2.0
 43
2.0
  0
MTEXT
  5
1BC9B
330
1B225
100
AcDbEntity
  8
30
 62
     0
100
AcDbMText
 10
656.8
 20
-135.0
 30
0.0
 40
6.0
 41
0.0
 71
     5
 72
     1
  1
\A1; 69.6 
 73
     1
 44
1.0
1001
ACAD
1000
MTEXTBEGIN
1070
    73
1070
     1
1070
    44
1040
1.0
1070
    74
1070
     0
1000
MTEXTEND
  0
POINT
  5
1BC9C
330
1B225
100
AcDbEntity
  8
DEFPOINTS
 62
     0
100
AcDbPoint
 10
622.0000000000003
 20
-40.99999999999996
 30
0.0
  0
POINT
  5
1BC9D
330
1B225
100
AcDbEntity
  8
DEFPOINTS
 62
     0
100
AcDbPoint
 10
691.5999999999997
 20
-117.5
 30
0.0
  0
POINT
  5
1BC9E
330
1B225
100
AcDbEntity
  8
DEFPOINTS
 62
     0
100
AcDbPoint
 10
691.5999999999997
 20
-140.0
 30
0.0
  0
ENDBLK
  5
1B227
330
1B225
100
AcDbEntity
  8
0
100
AcDbBlockEnd
  0
BLOCK
  5
1B24E
330
1B24D
100
AcDbEntity
  8
0
100
AcDbBlockBegin
  2
*D276
 70
     1
 10
0.0
 20
0.0
 30
0.0
  3
*D276
  1

  0
LINE
  5
1BC9F
330
1B24D
100
AcDbEntity
  8
30
 62
     0
370
    -2
100
AcDbLine
 10
611.5000000000005
 20
-15.5
 30
0.0
 11
611.5000000000005
 21
-155.5
 31
0.0
  0
LINE
  5
1BCA0
330
1B24D
100
AcDbEntity
  8
30
 62
     0
370
    -2
100
AcDbLine
 10
618.0000000000003
 20
-18.0
 30
0.0
 11
618.0000000000003
 21
-155.5
 31
0.0
  0
LINE
  5
1BCA1
330
1B24D
100
AcDbEntity
  8
30
 62
     0
370
    -2
100
AcDbLine
 10
609.5000000000005
 20
-155.0
 30
0.0
 11
607.5000000000005
 21
-155.0
 31
0.0
  0
LINE
  5
1BCA2
330
1B24D
100
AcDbEntity
  8
30
 62
     0
370
    -2
100
AcDbLine
 10
620.0000000000003
 20
-155.0
 30
0.0
 11
622.0000000000003
 21
-155.0
 31
0.0
  0
MTEXT
  5
1BCA3
330
1B24D
100
AcDbEntity
  8
30
 62
     0
100
AcDbMText
 10
602.2601499999997
 20
-150.0
 30
0.0
 40
6.0
 41
0.0
 71
     5
 72
     1
  1
\A1; 6.5 
 73
     1
 44
1.0
1001
ACAD
1000
MTEXTBEGIN
1070
    73
1070
     1
1070
    44
1040
1.0
1070
    74
1070
     0
1000
MTEXTEND
  0
LINE
  5
1BCA4
330
1B24D
100
AcDbEntity
  8
30
 62
     0
370
    -2
100
AcDbLine
 10
611.5000000000005
 20
-155.0
 30
0.0
 11
618.0000000000003
 21
-155.0
 31
0.0
  0
INSERT
  5
1BCA5
330
1B24D
100
AcDbEntity
  8
30
 62
     0
370
    -2
100
AcDbBlockReference
  2
_OPEN
 10
611.5000000000005
 20
-155.0
 30
0.0
 41
2.0
 42
2.0
 43
2.0
  0
INSERT
  5
1BCA6
330
1B24D
100
AcDbEntity
  8
30
 62
     0
370
    -2
100
AcDbBlockReference
  2
_OPEN
 10
618.0000000000003
 20
-155.0
 30
0.0
 41
2.0
 42
2.0
 43
2.0
 50
180.0
  0
POINT
  5
1BCA7
330
1B24D
100
AcDbEntity
  8
DEFPOINTS
 62
     0
100
AcDbPoint
 10
611.5000000000005
 20
-12.5
 30
0.0
  0
POINT
  5
1BCA8
330
1B24D
100
AcDbEntity
  8
DEFPOINTS
 62
     0
100
AcDbPoint
 10
618.0000000000003
 20
-15.0
 30
0.0
  0
POINT
  5
1BCA9
330
1B24D
100
AcDbEntity
  8
DEFPOINTS
 62
     0
100
AcDbPoint
 10
618.0000000000003
 20
-155.0
 30
0.0
  0
ENDBLK
  5
1B24F
330
1B24D
100
AcDbEntity
  8
0
100
AcDbBlockEnd
  0
BLOCK
  5
1B7F1
330
1B7F0
100
AcDbEntity
  8
0
100
AcDbBlockBegin
  2
*D293
 70
     1
 10
0.0
 20
0.0
 30
0.0
  3
*D293
  1

  0
LINE
  5
1BBC6
330
1B7F0
100
AcDbEntity
  8
30
 62
     0
370
    -2
100
AcDbLine
 10
371.0000000000008
 20
37.99999999999994
 30
0.0
 11
371.0000000000008
 21
40.49999999999994
 31
0.0
  0
LINE
  5
1BBC7
330
1B7F0
100
AcDbEntity
  8
30
 62
     0
370
    -2
100
AcDbLine
 10
469.0000000000003
 20
37.99999999999994
 30
0.0
 11
469.0000000000003
 21
40.49999999999994
 31
0.0
  0
LINE
  5
1BBC8
330
1B7F0
100
AcDbEntity
  8
30
 62
     0
370
    -2
100
AcDbLine
 10
373.0000000000008
 20
39.99999999999995
 30
0.0
 11
467.0000000000002
 21
39.99999999999995
 31
0.0
  0
INSERT
  5
1BBC9
330
1B7F0
100
AcDbEntity
  8
30
 62
     0
370
    -2
100
AcDbBlockReference
  2
_OPEN
 10
371.0000000000008
 20
39.99999999999995
 30
0.0
 41
2.0
 42
2.0
 43
2.0
 50
180.0
  0
INSERT
  5
1BBCA
330
1B7F0
100
AcDbEntity
  8
30
 62
     0
370
    -2
100
AcDbBlockReference
  2
_OPEN
 10
469.0000000000003
 20
39.99999999999995
 30
0.0
 41
2.0
 42
2.0
 43
2.0
  0
MTEXT
  5
1BBCB
330
1B7F0
100
AcDbEntity
  8
30
 62
     0
100
AcDbMText
 10
440.0
 20
44.99999999999994
 30
0.0
 40
6.0
 41
0.0
 71
     5
 72
     1
  1
\A1; 98 
 73
     1
 44
1.0
1001
ACAD
1000
MTEXTBEGIN
1070
    73
1070
     1
1070
    44
1040
1.0
1070
    74
1070
     0
1000
MTEXTEND
  0
POINT
  5
1BBCC
330
1B7F0
100
AcDbEntity
  8
DEFPOINTS
 62
     0
100
AcDbPoint
 10
371.0000000000008
 20
34.99999999999995
 30
0.0
  0
POINT
  5
1BBCD
330
1B7F0
100
AcDbEntity
  8
DEFPOINTS
 62
     0
100
AcDbPoint
 10
469.0000000000003
 20
34.99999999999995
 30
0.0
  0
POINT
  5
1BBCE
330
1B7F0
100
AcDbEntity
  8
DEFPOINTS
 62
     0
100
AcDbPoint
 10
469.0000000000003
 20
39.99999999999995
 30
0.0
  0
ENDBLK
  5
1B7F2
330
1B7F0
100
AcDbEntity
  8
0
100
AcDbBlockEnd
  0
BLOCK
  5
1B7FD
330
1B7FC
100
AcDbEntity
  8
0
100
AcDbBlockBegin
  2
*D294
 70
     1
 10
0.0
 20
0.0
 30
0.0
  3
*D294
  1

  0
LINE
  5
1BBCF
330
1B7FC
100
AcDbEntity
  8
30
 62
     0
370
    -2
100
AcDbLine
 10
409.0000000000002
 20
-18.00000000000006
 30
0.0
 11
409.0000000000002
 21
-30.50000000000004
 31
0.0
  0
LINE
  5
1BBD0
330
1B7FC
100
AcDbEntity
  8
30
 62
     0
370
    -2
100
AcDbLine
 10
431.0000000000003
 20
-18.00000000000006
 30
0.0
 11
431.0000000000003
 21
-30.50000000000004
 31
0.0
  0
LINE
  5
1BBD1
330
1B7FC
100
AcDbEntity
  8
30
 62
     0
370
    -2
100
AcDbLine
 10
411.0000000000002
 20
-30.00000000000004
 30
0.0
 11
429.0000000000002
 21
-30.00000000000004
 31
0.0
  0
INSERT
  5
1BBD2
330
1B7FC
100
AcDbEntity
  8
30
 62
     0
370
    -2
100
AcDbBlockReference
  2
_OPEN
 10
409.0000000000002
 20
-30.00000000000004
 30
0.0
 41
2.0
 42
2.0
 43
2.0
 50
180.0
  0
INSERT
  5
1BBD3
330
1B7FC
100
AcDbEntity
  8
30
 62
     0
370
    -2
100
AcDbBlockReference
  2
_OPEN
 10
431.0000000000003
 20
-30.00000000000004
 30
0.0
 41
2.0
 42
2.0
 43
2.0
  0
MTEXT
  5
1BBD4
330
1B7FC
100
AcDbEntity
  8
30
 62
     0
100
AcDbMText
 10
420.0000000000002
 20
-25.00000000000004
 30
0.0
 40
6.0
 41
0.0
 71
     5
 72
     1
  1
\A1; 22 
 73
     1
 44
1.0
1001
ACAD
1000
MTEXTBEGIN
1070
    73
1070
     1
1070
    44
1040
1.0
1070
    74
1070
     0
1000
MTEXTEND
  0
POINT
  5
1BBD5
330
1B7FC
100
AcDbEntity
  8
DEFPOINTS
 62
     0
100
AcDbPoint
 10
409.0000000000002
 20
-15.00000000000006
 30
0.0
  0
POINT
  5
1BBD6
330
1B7FC
100
AcDbEntity
  8
DEFPOINTS
 62
     0
100
AcDbPoint
 10
431.0000000000003
 20
-15.00000000000006
 30
0.0
  0
POINT
  5
1BBD7
330
1B7FC
100
AcDbEntity
  8
DEFPOINTS
 62
     0
100
AcDbPoint
 10
431.0000000000003
 20
-30.00000000000004
 30
0.0
  0
ENDBLK
  5
1B7FE
330
1B7FC
100
AcDbEntity
  8
0
100
AcDbBlockEnd
  0
BLOCK
  5
1BB84
330
1BB83
100
AcDbEntity
  8
0
100
AcDbBlockBegin
  2
*D297
 70
     1
 10
0.0
 20
0.0
 30
0.0
  3
*D297
  1

  0
LINE
  5
1BCC5
330
1BB83
100
AcDbEntity
  8
30
 62
     0
370
    -2
100
AcDbLine
 10
490.6432764285713
 20
232.7377999999999
 30
0.0
 11
471.2147049999998
 21
232.7377999999999
 31
0.0
  0
MTEXT
  5
1BCC6
330
1BB83
100
AcDbEntity
  8
30
 62
     0
100
AcDbMText
 10
481.9289907142856
 20
235.7377999999999
 30
0.0
 40
4.0
 41
0.0
 71
     5
 72
     1
  1
\A1;R14.5
  7
BLOCKFONT
 73
     1
 44
1.0
1001
ACAD
1000
MTEXTBEGIN
1070
    73
1070
     1
1070
    44
1040
1.0
1070
    74
1070
     0
1000
MTEXTEND
  0
SOLID
  5
1BCC7
330
1BB83
100
AcDbEntity
  8
30
 62
     0
100
AcDbTrace
 10
467.2147049999998
 20
233.0711333333332
 30
0.0
 11
467.2147049999998
 21
232.4044666666665
 31
0.0
 12
469.2147049999999
 22
232.7377999999999
 32
0.0
 13
469.2147049999999
 23
232.7377999999999
 33
0.0
  0
POINT
  5
1BCC8
330
1BB83
100
AcDbEntity
  8
DEFPOINTS
 62
     0
100
AcDbPoint
 10
469.2147049999999
 20
232.7377999999999
 30
0.0
  0
POINT
  5
1BCC9
330
1BB83
100
AcDbEntity
  8
DEFPOINTS
 62
     0
100
AcDbPoint
 10
469.2147049999999
 20
232.7377999999999
 30
0.0
  0
ENDBLK
  5
1BB85
330
1BB83
100
AcDbEntity
  8
0
100
AcDbBlockEnd
  0
BLOCK
  5
1BB8C
330
1BB8B
100
AcDbEntity
  8
0
100
AcDbBlockBegin
  2
*D298
 70
     1
 10
0.0
 20
0.0
 30
0.0
  3
*D298
  1

  0
LINE
  5
1BD99
330
1BB8B
100
AcDbEntity
  8
30
  6
Continuous
 62
     0
370
    -2
100
AcDbLine
 10
588.3194220773748
 20
-253.6529654790109
 30
0.0
 11
586.5323701289583
 21
-252.7549424650178
 31
0.0
  0
MTEXT
  5
1BD9A
330
1BB8B
100
AcDbEntity
  8
30
  6
Continuous
 62
     0
100
AcDbMText
 10
578.0000000000005
 20
-248.4672860560933
 30
0.0
 40
4.0
 41
0.0
 71
     5
 72
     1
  1
\A1;R1
  7
BLOCKFONT
 11
0.8935259742081999
 21
-0.4490115069965214
 31
0.0
 73
     1
 44
1.0
1001
ACAD
1000
MTEXTBEGIN
1070
    73
1070
     1
1070
    44
1040
1.0
1070
    74
1070
     0
1000
MTEXTEND
  0
SOLID
  5
1BD9B
330
1BB8B
100
AcDbEntity
  8
30
  6
Continuous
 62
     0
100
AcDbTrace
 10
588.469092579707
 20
-253.3551234876081
 30
0.0
 11
588.1697515750427
 21
-253.9508074704136
 31
0.0
 12
590.1064740257911
 22
-254.5509884930039
 32
0.0
 13
590.1064740257911
 23
-254.5509884930039
 33
0.0
  0
LINE
  5
1BD9C
330
1BB8B
100
AcDbEntity
  8
30
  6
Continuous
 62
     0
370
    -2
100
AcDbLine
 10
590.9099999999985
 20
-255.0000000000001
 30
0.0
 11
591.0899999999985
 21
-255.0
 31
0.0
  0
LINE
  5
1BD9D
330
1BB8B
100
AcDbEntity
  8
30
  6
Continuous
 62
     0
370
    -2
100
AcDbLine
 10
590.9999999999985
 20
-255.0900000000001
 30
0.0
 11
590.9999999999984
 21
-254.91
 31
0.0
  0
POINT
  5
1BD9E
330
1BB8B
100
AcDbEntity
  8
DEFPOINTS
  6
Continuous
 62
     0
100
AcDbPoint
 10
590.1064740257911
 20
-254.5509884930039
 30
0.0
  0
POINT
  5
1BD9F
330
1BB8B
100
AcDbEntity
  8
DEFPOINTS
  6
Continuous
 62
     0
100
AcDbPoint
 10
590.9999999999985
 20
-255.0
 30
0.0
  0
ENDBLK
  5
1BB8D
330
1BB8B
100
AcDbEntity
  8
0
100
AcDbBlockEnd
  0
BLOCK
  5
1BDDE
330
1BDDD
100
AcDbEntity
  8
0
100
AcDbBlockBegin
  2
*D311
 70
     1
 10
0.0
 20
0.0
 30
0.0
  3
*D311
  1

  0
LINE
  5
1BE33
330
1BDDD
100
AcDbEntity
  8
30
 62
     0
370
    -2
100
AcDbLine
 10
607.5
 20
266.0
 30
0.0
 11
607.5
 21
248.5
 31
0.0
  0
LINE
  5
1BE34
330
1BDDD
100
AcDbEntity
  8
30
 62
     0
370
    -2
100
AcDbLine
 10
632.5
 20
266.0
 30
0.0
 11
632.5
 21
248.5
 31
0.0
  0
LINE
  5
1BE35
330
1BDDD
100
AcDbEntity
  8
30
 62
     0
370
    -2
100
AcDbLine
 10
609.4999999999999
 20
249.0
 30
0.0
 11
630.4999999999999
 21
249.0
 31
0.0
  0
INSERT
  5
1BE36
330
1BDDD
100
AcDbEntity
  8
30
 62
     0
370
    -2
100
AcDbBlockReference
  2
_OPEN
 10
607.5
 20
249.0
 30
0.0
 41
2.0
 42
2.0
 43
2.0
 50
180.0
  0
INSERT
  5
1BE37
330
1BDDD
100
AcDbEntity
  8
30
 62
     0
370
    -2
100
AcDbBlockReference
  2
_OPEN
 10
632.5
 20
249.0
 30
0.0
 41
2.0
 42
2.0
 43
2.0
  0
MTEXT
  5
1BE38
330
1BDDD
100
AcDbEntity
  8
30
 62
     0
100
AcDbMText
 10
620.0
 20
254.0
 30
0.0
 40
6.0
 41
0.0
 71
     5
 72
     1
  1
\A1;25
 73
     1
 44
1.0
1001
ACAD
1000
MTEXTBEGIN
1070
    73
1070
     1
1070
    44
1040
1.0
1070
    74
1070
     0
1000
MTEXTEND
  0
POINT
  5
1BE39
330
1BDDD
100
AcDbEntity
  8
DEFPOINTS
 62
     0
100
AcDbPoint
 10
607.5
 20
269.0
 30
0.0
  0
POINT
  5
1BE3A
330
1BDDD
100
AcDbEntity
  8
DEFPOINTS
 62
     0
100
AcDbPoint
 10
632.5
 20
269.0
 30
0.0
  0
POINT
  5
1BE3B
330
1BDDD
100
AcDbEntity
  8
DEFPOINTS
 62
     0
100
AcDbPoint
 10
632.5
 20
249.0
 30
0.0
  0
ENDBLK
  5
1BDDF
330
1BDDD
100
AcDbEntity
  8
0
100
AcDbBlockEnd
  0
BLOCK
  5
1BDEA
330
1BDE9
100
AcDbEntity
  8
0
100
AcDbBlockBegin
  2
*D312
 70
     1
 10
0.0
 20
0.0
 30
0.0
  3
*D312
  1

  0
LINE
  5
1BE3C
330
1BDE9
100
AcDbEntity
  8
30
 62
     0
370
    -2
100
AcDbLine
 10
629.25
 20
280.0000000000002
 30
0.0
 11
648.0
 21
280.0000000000001
 31
0.0
  0
LINE
  5
1BE3D
330
1BDE9
100
AcDbEntity
  8
30
 62
     0
370
    -2
100
AcDbLine
 10
635.5
 20
269.0
 30
0.0
 11
648.0
 21
268.9999999999999
 31
0.0
  0
LINE
  5
1BE3E
330
1BDE9
100
AcDbEntity
  8
30
 62
     0
370
    -2
100
AcDbLine
 10
647.5
 20
278.0000000000001
 30
0.0
 11
647.5
 21
270.9999999999999
 31
0.0
  0
INSERT
  5
1BE3F
330
1BDE9
100
AcDbEntity
  8
30
 62
     0
370
    -2
100
AcDbBlockReference
  2
_OPEN
 10
647.5
 20
280.0000000000001
 30
0.0
 41
2.0
 42
2.0
 43
2.0
 50
90.0
  0
INSERT
  5
1BE40
330
1BDE9
100
AcDbEntity
  8
30
 62
     0
370
    -2
100
AcDbBlockReference
  2
_OPEN
 10
647.5
 20
268.9999999999999
 30
0.0
 41
2.0
 42
2.0
 43
2.0
 50
270.0
  0
MTEXT
  5
1BE41
330
1BDE9
100
AcDbEntity
  8
30
 62
     0
100
AcDbMText
 10
642.4999999999998
 20
274.5000000000002
 30
0.0
 40
6.0
 41
0.0
 71
     5
 72
     1
  1
\A1;11
 11
0.0000000000000001
 21
1.0
 31
0.0
 73
     1
 44
1.0
1001
ACAD
1000
MTEXTBEGIN
1070
    73
1070
     1
1070
    44
1040
1.0
1070
    74
1070
     0
1000
MTEXTEND
  0
POINT
  5
1BE42
330
1BDE9
100
AcDbEntity
  8
DEFPOINTS
 62
     0
100
AcDbPoint
 10
626.25
 20
280.0000000000002
 30
0.0
  0
POINT
  5
1BE43
330
1BDE9
100
AcDbEntity
  8
DEFPOINTS
 62
     0
100
AcDbPoint
 10
632.5
 20
269.0
 30
0.0
  0
POINT
  5
1BE44
330
1BDE9
100
AcDbEntity
  8
DEFPOINTS
 62
     0
100
AcDbPoint
 10
647.5
 20
268.9999999999999
 30
0.0
  0
ENDBLK
  5
1BDEB
330
1BDE9
100
AcDbEntity
  8
0
100
AcDbBlockEnd
  0
ENDSEC
  0
SECTION
  2
ENTITIES
  0
LINE
  5
14BC9
330
17A0F
100
AcDbEntity
  8
17
100
AcDbLine
 10
402.5
 20
-211.5
 30
0.0
 11
402.5
 21
-222.5
 31
0.0
  0
LINE
  5
14BCB
330
17A0F
100
AcDbEntity
  8
16
100
AcDbLine
 10
640.0
 20
-187.2499999999999
 30
0.0
 11
640.0
 21
-374.0931775000002
 31
0.0
  0
LINE
  5
14BCC
330
17A0F
100
AcDbEntity
  8
18
100
AcDbLine
 10
367.5
 20
-197.5
 30
0.0
 11
367.5
 21
-362.5
 31
0.0
  0
LINE
  5
14BCF
330
17A0F
100
AcDbEntity
  8
17
100
AcDbLine
 10
397.0000000000005
 20
-217.0
 30
0.0
 11
408.0
 21
-217.0
 31
0.0
  0
LINE
  5
14BDA
330
17A0F
100
AcDbEntity
  8
18
100
AcDbLine
 10
692.4999999999999
 20
-362.5000000000001
 30
0.0
 11
692.4999999999999
 21
-197.5000000000001
 31
0.0
  0
LINE
  5
14BDF
330
17A0F
100
AcDbEntity
  8
16
100
AcDbLine
 10
352.5
 20
10.0
 30
0.0
 11
487.5
 21
10.0
 31
0.0
  0
LINE
  5
14BE2
330
17A0F
100
AcDbEntity
  8
16
100
AcDbLine
 10
590.2601499999997
 20
10.0
 30
0.0
 11
695.2601499999997
 21
10.0
 31
0.0
  0
LINE
  5
14C05
330
17A0F
100
AcDbEntity
  8
18
100
AcDbLine
 10
587.5
 20
-362.5000000000001
 30
0.0
 11
692.4999999999999
 21
-362.5000000000001
 31
0.0
  0
LINE
  5
14C13
330
17A0F
100
AcDbEntity
  8
16
100
AcDbLine
 10
362.5
 20
-280.0
 30
0.0
 11
477.5
 21
-280.0
 31
0.0
  0
LINE
  5
14C14
330
17A0F
100
AcDbEntity
  8
17
100
AcDbLine
 10
432.0000000000002
 20
-343.0
 30
0.0
 11
443.0000000000001
 21
-343.0
 31
0.0
  0
LINE
  5
14C23
330
17A0F
100
AcDbEntity
  8
10
100
AcDbLine
 10
690.0
 20
-254.9999999999999
 30
0.0
 11
690.0
 21
-305.0
 31
0.0
  0
LINE
  5
14C3D
330
17A0F
100
AcDbEntity
  8
18
100
AcDbLine
 10
587.5
 20
-197.5000000000001
 30
0.0
 11
587.5
 21
-362.5000000000001
 31
0.0
  0
LINE
  5
14C3E
330
17A0F
100
AcDbEntity
  8
16
100
AcDbLine
 10
582.5
 20
-280.0
 30
0.0
 11
697.5
 21
-280.0
 31
0.0
  0
LINE
  5
14C40
330
17A0F
100
AcDbEntity
  8
16
100
AcDbLine
 10
420.0
 20
-187.5
 30
0.0
 11
420.0
 21
-372.5
 31
0.0
  0
LINE
  5
14C41
330
17A0F
100
AcDbEntity
  8
17
100
AcDbLine
 10
437.5
 20
-337.5
 30
0.0
 11
437.5
 21
-348.5
 31
0.0
  0
LINE
  5
14C50
330
17A0F
100
AcDbEntity
  8
10
100
AcDbLine
 10
591.0000000000001
 20
-253.9999999999999
 30
0.0
 11
689.0
 21
-253.9999999999999
 31
0.0
  0
LINE
  5
14C72
330
17A0F
100
AcDbEntity
  8
18
100
AcDbLine
 10
472.5
 20
-197.5
 30
0.0
 11
367.5
 21
-197.5
 31
0.0
  0
LINE
  5
14C78
330
17A0F
100
AcDbEntity
  8
10
100
AcDbLine
 10
591.0000000000001
 20
-306.0
 30
0.0
 11
689.0
 21
-306.0
 31
0.0
  0
LINE
  5
14C7E
330
17A0F
100
AcDbEntity
  8
16
100
AcDbLine
 10
420.0
 20
157.4999999999999
 30
0.0
 11
420.0
 21
-130.0
 31
0.0
  0
LINE
  5
14C9E
330
17A0F
100
AcDbEntity
  8
18
100
AcDbLine
 10
472.5
 20
-362.5
 30
0.0
 11
472.5
 21
-197.5
 31
0.0
  0
LINE
  5
14CA4
330
17A0F
100
AcDbEntity
  8
10
100
AcDbLine
 10
590.0
 20
-254.9999999999999
 30
0.0
 11
590.0
 21
-305.0
 31
0.0
  0
LINE
  5
14CA5
330
17A0F
100
AcDbEntity
  8
18
100
AcDbLine
 10
692.4999999999999
 20
-197.5000000000001
 30
0.0
 11
587.5
 21
-197.5000000000001
 31
0.0
  0
LINE
  5
14CBF
330
17A0F
100
AcDbEntity
  8
16
100
AcDbLine
 10
420.0
 20
283.0999999999996
 30
0.0
 11
420.0
 21
180.0
 31
0.0
  0
LINE
  5
14CCB
330
17A0F
100
AcDbEntity
  8
18
100
AcDbLine
 10
367.5
 20
-362.5
 30
0.0
 11
472.5
 21
-362.5
 31
0.0
  0
LINE
  5
14CD2
330
17A0F
100
AcDbEntity
  8
16
100
AcDbLine
 10
640.0
 20
-187.2499999999999
 30
0.0
 11
640.0
 21
-374.0931775000002
 31
0.0
  0
CIRCLE
  5
14CFF
330
17A0F
100
AcDbEntity
  8
24
100
AcDbCircle
 10
402.5
 20
-217.0
 30
0.0
 40
2.0
  0
ARC
  5
14D00
330
17A0F
100
AcDbEntity
  8
10
100
AcDbCircle
 10
689.0
 20
-254.9999999999999
 30
0.0
 40
1.0
100
AcDbArc
 50
0.0
 51
90.0
  0
ARC
  5
14D0B
330
17A0F
100
AcDbEntity
  8
10
100
AcDbCircle
 10
591.0000000000001
 20
-305.0
 30
0.0
 40
1.0
100
AcDbArc
 50
180.0
 51
270.0
  0
CIRCLE
  5
14D0C
330
17A0F
100
AcDbEntity
  8
24
100
AcDbCircle
 10
437.5
 20
-343.0
 30
0.0
 40
2.0
  0
ARC
  5
14D19
330
17A0F
100
AcDbEntity
  8
10
100
AcDbCircle
 10
689.0
 20
-305.0
 30
0.0
 40
1.0
100
AcDbArc
 50
270.0
 51
0.0
  0
ARC
  5
14D1F
330
17A0F
100
AcDbEntity
  8
10
100
AcDbCircle
 10
591.0000000000001
 20
-254.9999999999999
 30
0.0
 40
1.0
100
AcDbArc
 50
90.0
 51
180.0
  0
INSERT
  5
14D4F
330
17A0F
100
AcDbEntity
  8
30
100
AcDbBlockReference
  2
*U64
 10
0.0
 20
-60.0
 30
0.0
  0
LINE
  5
14D62
330
17A0F
100
AcDbEntity
  8
30
100
AcDbLine
 10
514.819368366082
 20
-386.455415
 30
0.0
 11
480.7517325
 21
-386.455415
 31
0.0
  0
LINE
  5
14D63
330
17A0F
100
AcDbEntity
  8
1
  6
Continuous
 62
     3
100
AcDbLine
 10
439.0410274999997
 20
-344.2748475
 30
0.0
 11
480.7517325
 21
-386.455415
 31
0.0
  0
LINE
  5
14D66
330
17A0F
100
AcDbEntity
  8
30
100
AcDbLine
 10
439.0410274999997
 20
-344.2748475
 30
0.0
 11
480.7517325
 21
-386.455415
 31
0.0
  0
SOLID
  5
14D67
330
17A0F
100
AcDbEntity
  8
30
100
AcDbTrace
 10
439.0410274999997
 20
-344.2748475
 30
0.0
 11
443.1612225000002
 21
-347.2323375000001
 31
0.0
 12
441.9521825000002
 22
-348.42792
 32
0.0
 13
439.0410274999997
 23
-344.2748475
 33
0.0
  0
INSERT
  5
14D6E
330
17A0F
100
AcDbEntity
  8
30
100
AcDbBlockReference
  2
*U65
 10
-10.0
 20
-60.0
 30
0.0
  0
INSERT
  5
14D6F
330
17A0F
100
AcDbEntity
  8
30
100
AcDbBlockReference
  2
*U66
 10
0.0
 20
-60.0
 30
0.0
  0
INSERT
  5
14D70
330
17A0F
100
AcDbEntity
  8
30
100
AcDbBlockReference
  2
*U67
 10
-10.0
 20
-60.0
 30
0.0
  0
INSERT
  5
14D71
330
17A0F
100
AcDbEntity
  8
30
100
AcDbBlockReference
  2
*U68
 10
0.0
 20
-60.0
 30
0.0
  0
INSERT
  5
14D72
330
17A0F
100
AcDbEntity
  8
30
100
AcDbBlockReference
  2
*U69
 10
5.260149999999726
 20
-60.0
 30
0.0
  0
INSERT
  5
14D73
330
17A0F
100
AcDbEntity
  8
30
100
AcDbBlockReference
  2
*U70
 10
5.260149999999726
 20
-60.0
 30
0.0
  0
INSERT
  5
14D74
330
17A0F
100
AcDbEntity
  8
30
100
AcDbBlockReference
  2
*U71
 10
0.0
 20
-60.0
 30
0.0
  0
INSERT
  5
14D75
330
17A0F
100
AcDbEntity
  8
30
100
AcDbBlockReference
  2
*U72
 10
0.0
 20
-60.0
 30
0.0
  0
INSERT
  5
14D76
330
17A0F
100
AcDbEntity
  8
30
100
AcDbBlockReference
  2
*U73
 10
10.0
 20
-60.0
 30
0.0
  0
INSERT
  5
14D77
330
17A0F
100
AcDbEntity
  8
30
100
AcDbBlockReference
  2
*U74
 10
10.0
 20
-60.0
 30
0.0
  0
INSERT
  5
14D78
330
17A0F
100
AcDbEntity
  8
30
100
AcDbBlockReference
  2
*U75
 10
10.0
 20
-60.0
 30
0.0
  0
INSERT
  5
14D79
330
17A0F
100
AcDbEntity
  8
30
100
AcDbBlockReference
  2
*U76
 10
10.0
 20
-60.0
 30
0.0
  0
INSERT
  5
14D7A
330
17A0F
100
AcDbEntity
  8
30
100
AcDbBlockReference
  2
*U77
 10
0.0
 20
-60.0
 30
0.0
  0
INSERT
  5
14D7B
330
17A0F
100
AcDbEntity
  8
30
100
AcDbBlockReference
  2
*U78
 10
0.0
 20
-60.0
 30
0.0
  0
INSERT
  5
14D7C
330
17A0F
100
AcDbEntity
  8
30
100
AcDbBlockReference
  2
*U79
 10
0.0
 20
-60.0
 30
0.0
  0
DIMENSION
  5
14D7D
330
17A0F
100
AcDbEntity
  8
30
100
AcDbDimension
  2
*D83
 10
640.0
 20
-380.0
 30
0.0
 11
615.0
 21
-375.0
 31
0.0
 70
    32
  1
 <> 
 71
     5
 42
50.0
  3
STANDARD1
100
AcDbAlignedDimension
 13
590.0
 23
-307.5000000000001
 33
0.0
 14
640.0
 24
-374.0931775000002
 34
0.0
100
AcDbRotatedDimension
  0
DIMENSION
  5
14D7E
330
17A0F
100
AcDbEntity
  8
30
100
AcDbDimension
  2
*D82
 10
455.0
 20
-140.0
 30
0.0
 11
420.0
 21
-135.0
 31
0.0
 70
    32
  1
 <> 
 71
     5
 42
70.0
  3
STANDARD1
100
AcDbAlignedDimension
 13
385.0
 23
-68.99999999999997
 33
0.0
 14
455.0
 24
-68.99999999999997
 34
0.0
100
AcDbRotatedDimension
  0
DIMENSION
  5
14D7F
330
17A0F
100
AcDbEntity
  8
30
100
AcDbDimension
  2
*D81
 10
472.5
 20
-155.0
 30
0.0
 11
420.0
 21
-150.0
 31
0.0
 70
    32
  1
 <> 
 71
     5
 42
105.0
  3
STANDARD1
100
AcDbAlignedDimension
 13
367.5
 23
-72.49999999999994
 33
0.0
 14
472.5
 24
-72.49999999999994
 34
0.0
100
AcDbRotatedDimension
  0
DIMENSION
  5
14D81
330
17A0F
100
AcDbEntity
  8
30
100
AcDbDimension
  2
*D267
 10
691.5999999999997
 20
-100.0
 30
0.0
 11
667.7999999999995
 21
-95.0
 31
0.0
 70
    32
  1
 <> 
 71
     5
 42
47.60000000000059
  3
STANDARD1
100
AcDbAlignedDimension
 13
643.9999999999992
 23
-59.75000000000001
 33
0.0
 14
691.5999999999997
 24
-100.0
 34
0.0
100
AcDbRotatedDimension
  0
DIMENSION
  5
14D82
330
17A0F
100
AcDbEntity
  8
30
100
AcDbDimension
  2
*D266
 10
691.5999999999997
 20
-110.0
 30
0.0
 11
660.7999999999998
 21
-105.0
 31
0.0
 70
    32
  1
 <> 
 71
     5
 42
61.59999999999991
  3
STANDARD1
100
AcDbAlignedDimension
 13
629.9999999999998
 23
-75.0
 33
0.0
 14
691.5999999999997
 24
-110.0
 34
0.0
100
AcDbRotatedDimension
  0
DIMENSION
  5
14D85
330
17A0F
100
AcDbEntity
  8
30
100
AcDbDimension
  2
*D265
 10
691.6000000000003
 20
50.0
 30
0.0
 11
675.8000000000005
 21
50.0
 31
0.0
 70
   160
  1
 <> 
 71
     5
 42
25.59999999999991
  3
STANDARD1
100
AcDbAlignedDimension
 13
666.0000000000003
 23
71.5
 33
0.0
 14
691.6000000000003
 24
53.44009750000001
 34
0.0
100
AcDbRotatedDimension
  0
DIMENSION
  5
14D86
330
17A0F
100
AcDbEntity
  8
30
100
AcDbDimension
  2
*D264
 10
437.5
 20
-380.0
 30
0.0
 11
420.0
 21
-375.0
 31
0.0
 70
    32
  1
 <> 
 71
     5
 42
35.0
  3
STANDARD1
100
AcDbAlignedDimension
 13
402.5
 23
-348.5
 33
0.0
 14
437.5
 24
-345.5
 34
0.0
100
AcDbRotatedDimension
  0
DIMENSION
  5
14D87
330
17A0F
100
AcDbEntity
  8
30
100
AcDbDimension
  2
*D263
 10
691.5999999999997
 20
-155.0
 30
0.0
 11
654.8
 21
-150.0
 31
0.0
 70
    32
  1
 <> 
 71
     5
 42
73.59999999999946
  3
STANDARD1
100
AcDbAlignedDimension
 13
618.0000000000003
 23
-15.0
 33
0.0
 14
691.5999999999997
 24
-127.4999999999999
 34
0.0
100
AcDbRotatedDimension
  0
DIMENSION
  5
14D88
330
17A0F
100
AcDbEntity
  8
30
100
AcDbDimension
  2
*D262
 10
696.9999999999994
 20
-100.0
 30
0.0
 11
710.7999999999994
 21
-95.0
 31
0.0
 70
    32
  1
 <> 
 71
     5
 42
5.399999999999636
  3
STANDARD1
100
AcDbAlignedDimension
 13
691.5999999999997
 23
-100.0
 33
0.0
 14
696.9999999999994
 24
-55.25000000000002
 34
0.0
100
AcDbRotatedDimension
  0
DIMENSION
  5
14D8A
330
17A0F
100
AcDbEntity
  8
30
100
AcDbDimension
  2
*D261
 10
691.5999999999997
 20
-170.0
 30
0.0
 11
643.2999999999997
 21
-165.0
 31
0.0
 70
    32
  1
 <> 
 71
     5
 42
96.60000000000003
  3
STANDARD1
100
AcDbAlignedDimension
 13
594.9999999999997
 23
10.0
 33
0.0
 14
691.5999999999997
 24
-127.4999999999999
 34
0.0
100
AcDbRotatedDimension
  0
DIMENSION
  5
14D8B
330
17A0F
100
AcDbEntity
  8
30
100
AcDbDimension
  2
*D260
 10
690.0
 20
-400.0
 30
0.0
 11
640.0
 21
-395.0
 31
0.0
 70
    32
  1
 <> 
 71
     5
 42
100.0
  3
STANDARD1
100
AcDbAlignedDimension
 13
590.0
 23
-307.5000000000001
 33
0.0
 14
690.0
 24
-307.5000000000001
 34
0.0
100
AcDbRotatedDimension
  0
DIMENSION
  5
14D8E
330
17A0F
100
AcDbEntity
  8
30
100
AcDbDimension
  2
*D257
 10
631.3400224999992
 20
170.0
 30
0.0
 11
660.0900224999992
 21
175.0
 31
0.0
 70
    32
  1
 <> 
 71
     5
 42
57.5
  3
STANDARD1
100
AcDbAlignedDimension
 13
688.8400224999992
 23
149.4986974999999
 33
0.0
 14
631.3400224999992
 24
148.010445
 34
0.0
100
AcDbRotatedDimension
  0
DIMENSION
  5
14D8F
330
17A0F
100
AcDbEntity
  8
30
100
AcDbDimension
  2
*D256
 10
691.5999999999997
 20
200.0
 30
0.0
 11
658.0499999999999
 21
205.0
 31
0.0
 70
    32
  1
 <> 
 71
     5
 42
67.09999999999979
  3
STANDARD1
100
AcDbAlignedDimension
 13
624.5
 23
91.79939500000001
 33
0.0
 14
691.5999999999997
 24
147.5
 34
0.0
100
AcDbRotatedDimension
  0
DIMENSION
  5
14D90
330
17A0F
100
AcDbEntity
  8
30
100
AcDbDimension
  2
*D255
 10
640.0
 20
-190.0
 30
0.0
 11
613.75
 21
-185.0
 31
0.0
 70
    32
  1
 <> 
 71
     5
 42
52.5
  3
STANDARD1
100
AcDbAlignedDimension
 13
587.5
 23
-197.5000000000001
 33
0.0
 14
640.0
 24
-197.5000000000001
 34
0.0
100
AcDbRotatedDimension
  0
DIMENSION
  5
14D91
330
17A0F
100
AcDbEntity
  8
30
100
AcDbDimension
  2
*D254
 10
691.5999999999997
 20
185.0
 30
0.0
 11
661.2999999999998
 21
190.0
 31
0.0
 70
    32
  1
 <> 
 71
     5
 42
60.59999999999991
  3
STANDARD1
100
AcDbAlignedDimension
 13
630.9999999999998
 23
148.010445
 33
0.0
 14
691.5999999999997
 24
147.5
 34
0.0
100
AcDbRotatedDimension
  0
DIMENSION
  5
14D92
330
17A0F
100
AcDbEntity
  8
30
100
AcDbDimension
  2
*D253
 10
469.9999999999998
 20
289.9999999999998
 30
0.0
 11
455.0
 21
294.9999999999998
 31
0.0
 70
    32
  1
 <> 
 71
     5
 42
29.99999999999966
  3
STANDARD1
100
AcDbAlignedDimension
 13
440.0000000000002
 23
274.0945174999996
 33
0.0
 14
469.9999999999998
 24
273.0999999999999
 34
0.0
100
AcDbRotatedDimension
  0
DIMENSION
  5
14D93
330
17A0F
100
AcDbEntity
  8
30
100
AcDbDimension
  2
*D252
 10
570.0
 20
32.5
 30
0.0
 11
565.0
 21
10.00000000000009
 31
0.0
 70
    32
  1
 <> 
 71
     5
 42
44.99999999999999
  3
STANDARD1
100
AcDbAlignedDimension
 13
608.9999999999994
 23
-12.5
 33
0.0
 14
608.9999999999994
 24
32.49999999999999
 34
0.0
 50
90.0
100
AcDbRotatedDimension
  0
DIMENSION
  5
14D94
330
17A0F
100
AcDbEntity
  8
30
100
AcDbDimension
  2
*D251
 10
554.7601500000001
 20
-253.9999999999999
 30
0.0
 11
549.7601500000001
 21
-279.9999999999999
 31
0.0
 70
    32
  1
 <> 
 71
     5
 42
52.00000000000014
  3
STANDARD1
100
AcDbAlignedDimension
 13
588.5000000000001
 23
-306.0
 33
0.0
 14
588.5000000000001
 24
-253.9999999999999
 34
0.0
 50
90.0
100
AcDbRotatedDimension
  0
DIMENSION
  5
14D95
330
17A0F
100
AcDbEntity
  8
30
100
AcDbDimension
  2
*D250
 10
560.0
 20
35.0
 30
0.0
 11
555.0
 21
10.00000000000009
 31
0.0
 70
    32
  1
 <> 
 71
     5
 42
49.99999999999999
  3
STANDARD1
100
AcDbAlignedDimension
 13
615.4999999999994
 23
-15.0
 33
0.0
 14
615.4999999999994
 24
34.99999999999999
 34
0.0
 50
90.0
100
AcDbRotatedDimension
  0
DIMENSION
  5
14D96
330
17A0F
100
AcDbEntity
  8
30
100
AcDbDimension
  2
*D249
 10
550.0
 20
60.99999999999993
 30
0.0
 11
545.0
 21
10.00000000000004
 31
0.0
 70
    32
  1
 <> 
 71
     5
 42
101.9999999999999
  3
STANDARD1
100
AcDbAlignedDimension
 13
624.2398499999998
 23
-41.00000000000004
 33
0.0
 14
624.2398499999998
 24
60.9999999999999
 34
0.0
 50
90.0
100
AcDbRotatedDimension
  0
DIMENSION
  5
14D97
330
17A0F
100
AcDbEntity
  8
30
100
AcDbDimension
  2
*D248
 10
330.0
 20
-72.49999999999999
 30
0.0
 11
325.0
 21
10.00000000000006
 31
0.0
 70
    32
  1
 <> 
 71
     5
 42
165.0
  3
STANDARD1
100
AcDbAlignedDimension
 13
367.5
 23
92.5
 33
0.0
 14
367.5
 24
-72.5
 34
0.0
 50
90.0
100
AcDbRotatedDimension
  0
DIMENSION
  5
14D98
330
17A0F
100
AcDbEntity
  8
30
100
AcDbDimension
  2
*D247
 10
330.0
 20
92.50000000000001
 30
0.0
 11
325.0
 21
120.0
 31
0.0
 70
    32
  1
 <> 
 71
     5
 42
54.99999999999992
  3
STANDARD1
100
AcDbAlignedDimension
 13
362.6026250000006
 23
147.4999999999999
 33
0.0
 14
367.5
 24
92.5
 34
0.0
 50
90.0
100
AcDbRotatedDimension
  0
DIMENSION
  5
14D99
330
17A0F
100
AcDbEntity
  8
30
100
AcDbDimension
  2
*D246
 10
340.0
 20
-61.99999999999993
 30
0.0
 11
335.0
 21
10.00000000000009
 31
0.0
 70
    32
  1
 <> 
 71
     5
 42
143.9999999999999
  3
STANDARD1
100
AcDbAlignedDimension
 13
378.0
 23
82.0
 33
0.0
 14
378.0
 24
-61.99999999999994
 34
0.0
 50
90.0
100
AcDbRotatedDimension
  0
DIMENSION
  5
14D9B
330
17A0F
100
AcDbEntity
  8
30
100
AcDbDimension
  2
*D244
 10
340.0
 20
-343.0
 30
0.0
 11
335.0
 21
-279.9999999999999
 31
0.0
 70
    32
  1
 <> 
 71
     5
 42
126.0
  3
STANDARD1
100
AcDbAlignedDimension
 13
396.9999999999998
 23
-217.0
 33
0.0
 14
396.9999999999998
 24
-343.0
 34
0.0
 50
90.0
100
AcDbRotatedDimension
  0
DIMENSION
  5
14D9C
330
17A0F
100
AcDbEntity
  8
30
100
AcDbDimension
  2
*D243
 10
340.0
 20
221.0999999999999
 30
0.0
 11
335.0
 21
247.8999999999999
 31
0.0
 70
    32
  1
 <> 
 71
     5
 42
53.59999999999982
  3
STANDARD1
100
AcDbAlignedDimension
 13
362.5
 23
274.6999999999998
 33
0.0
 14
382.5
 24
221.0999999999999
 34
0.0
 50
90.0
100
AcDbRotatedDimension
  0
DIMENSION
  5
14D9F
330
17A0F
100
AcDbEntity
  8
30
100
AcDbDimension
  2
*D297
 10
469.2147049999999
 20
232.7377999999999
 30
0.0
 11
481.9289907142856
 21
235.7377999999999
 31
0.0
 70
    36
  1
R14.5
 71
     5
 42
0.0
  3
STANDARD
100
AcDbRadialDimension
 15
469.2147049999999
 25
232.7377999999999
 35
0.0
 40
0.0
  0
INSERT
  5
1567E
330
17A0F
100
AcDbEntity
  8
30
100
AcDbBlockReference
  2
*U80
 10
0.0
 20
-60.0
 30
0.0
  0
DIMENSION
  5
156C1
330
17A0F
100
AcDbEntity
  8
30
  6
Continuous
100
AcDbDimension
  2
*D298
 10
590.9999999999985
 20
-255.0
 30
0.0
 11
578.0000000000005
 21
-248.4672860560933
 31
0.0
 70
   164
 71
     5
 42
0.9999999999990905
  3
STANDARD
100
AcDbRadialDimension
 15
590.1064740257911
 25
-254.5509884930039
 35
0.0
 40
0.0
  0
LINE
  5
19CD9
330
17A0F
100
AcDbEntity
  8
130
100
AcDbLine
 10
416.8000000000001
 20
47.75
 30
0.0
 11
419.2499999999998
 21
47.75
 31
0.0
  0
LINE
  5
19CDA
330
17A0F
100
AcDbEntity
  8
130
100
AcDbLine
 10
472.1052600000001
 20
89.2955375
 30
0.0
 11
472.0941099999998
 21
74.15316999999999
 31
0.0
  0
LINE
  5
19CDB
330
17A0F
100
AcDbEntity
  8
24
100
AcDbLine
 10
384.25
 20
84.1686524999999
 30
0.0
 11
384.25
 21
80.4606025
 31
0.0
  0
LINE
  5
19CDC
330
17A0F
100
AcDbEntity
  8
24
100
AcDbLine
 10
455.75
 20
-64.16865249999995
 30
0.0
 11
455.75
 21
-64.69944499999995
 31
0.0
  0
LINE
  5
19CDE
330
17A0F
100
AcDbEntity
  8
1
  6
Continuous
 62
     4
100
AcDbLine
 10
626.0173025000007
 20
85.52809999999999
 30
0.0
 11
628.0172750000005
 21
85.51762999999999
 31
0.0
  0
LINE
  5
19CDF
330
17A0F
100
AcDbEntity
  8
1
  6
Continuous
 62
     4
100
AcDbLine
 10
629.6879925000001
 20
70.37113249999999
 30
0.0
 11
628.6882800000001
 21
70.428775
 31
0.0
  0
LINE
  5
19CE0
330
17A0F
100
AcDbEntity
  8
130
  6
HIDDEN
100
AcDbLine
 10
639.0000000000003
 20
-48.74999999999997
 30
0.0
 11
639.0000000000003
 21
-57.24999999999997
 31
0.0
  0
LINE
  5
19CE1
330
17A0F
100
AcDbEntity
  8
1
  6
Continuous
 62
     4
100
AcDbLine
 10
628.7335200000001
 20
79.06901499999989
 30
0.0
 11
631.0673150000002
 21
95.06659500000001
 31
0.0
  0
LINE
  5
19CE2
330
17A0F
100
AcDbEntity
  8
1
  6
Continuous
 62
     4
100
AcDbLine
 10
685.8350950000008
 20
146.065525
 30
0.0
 11
685.8217449999999
 21
143.5157625
 31
0.0
  0
LINE
  5
19CE3
330
17A0F
100
AcDbEntity
  8
24
100
AcDbLine
 10
385.7237949999998
 20
84.73750749999998
 30
0.0
 11
385.7237949999998
 21
85.40863999999999
 31
0.0
  0
LINE
  5
19CE4
330
17A0F
100
AcDbEntity
  8
130
100
AcDbLine
 10
472.5
 20
-72.49999999999994
 30
0.0
 11
472.5
 21
88.49999999999999
 31
0.0
  0
LINE
  5
19CE7
330
17A0F
100
AcDbEntity
  8
17
100
AcDbLine
 10
432.0
 20
73.0
 30
0.0
 11
443.0
 21
73.0
 31
0.0
  0
LINE
  5
19CE8
330
17A0F
100
AcDbEntity
  8
24
100
AcDbLine
 10
420.75
 20
79.92981249999999
 30
0.0
 11
420.75
 21
80.4606025
 31
0.0
  0
LINE
  5
19CE9
330
17A0F
100
AcDbEntity
  8
130
100
AcDbLine
 10
420.75
 20
50.2
 30
0.0
 11
420.75
 21
47.75
 31
0.0
  0
LINE
  5
19CEA
330
17A0F
100
AcDbEntity
  8
130
100
AcDbLine
 10
471.8973749999993
 20
147.5
 30
0.0
 11
368.1026250000004
 21
147.5
 31
0.0
  0
LINE
  5
19CEB
330
17A0F
100
AcDbEntity
  8
130
100
AcDbLine
 10
443.0
 20
92.5
 30
0.0
 11
443.0
 21
75.0
 31
0.0
  0
LINE
  5
19CEC
330
17A0F
100
AcDbEntity
  8
130
100
AcDbLine
 10
472.5
 20
61.0
 30
0.0
 11
367.5
 21
61.0
 31
0.0
  0
LINE
  5
19CED
330
17A0F
100
AcDbEntity
  8
1
  6
Continuous
 62
     4
100
AcDbLine
 10
630.0
 20
-53.89579499999999
 30
0.0
 11
630.0
 21
-72.49999999999996
 31
0.0
  0
LINE
  5
19CEF
330
17A0F
100
AcDbEntity
  8
1
  6
Continuous
 62
     4
100
AcDbLine
 10
697.0000000000003
 20
-50.74999999999995
 30
0.0
 11
697.0000000000003
 21
-55.24999999999998
 31
0.0
  0
LINE
  5
19CF0
330
17A0F
100
AcDbEntity
  8
130
100
AcDbLine
 10
396.25
 20
80.39786499999991
 30
0.0
 11
408.75
 21
80.39786499999991
 31
0.0
  0
LINE
  5
19CF1
330
17A0F
100
AcDbEntity
  8
24
100
AcDbLine
 10
455.7237949999998
 20
84.73750749999998
 30
0.0
 11
455.7237949999998
 21
85.40863999999999
 31
0.0
  0
LINE
  5
19CF3
330
17A0F
100
AcDbEntity
  8
130
100
AcDbLine
 10
441.7604725000002
 20
95.3287725000001
 30
0.0
 11
443.2395274999998
 21
95.3287725000001
 31
0.0
  0
LINE
  5
19CF4
330
17A0F
100
AcDbEntity
  8
17
100
AcDbLine
 10
413.0
 20
82.0
 30
0.0
 11
427.0
 21
82.0
 31
0.0
  0
LINE
  5
19CF6
330
17A0F
100
AcDbEntity
  8
130
  6
HIDDEN
100
AcDbLine
 10
630.0
 20
-57.24999999999997
 30
0.0
 11
644.0000000000003
 21
-57.24999999999997
 31
0.0
  0
LINE
  5
19CF7
330
17A0F
100
AcDbEntity
  8
17
100
AcDbLine
 10
666.0000000000003
 20
92.5
 30
0.0
 11
666.0000000000003
 21
71.5
 31
0.0
  0
LINE
  5
19CF8
330
17A0F
100
AcDbEntity
  8
130
100
AcDbLine
 10
471.0933249999998
 20
-53.10767999999997
 30
0.0
 11
466.25
 21
-53.10767999999997
 31
0.0
  0
LINE
  5
19CF9
330
17A0F
100
AcDbEntity
  8
17
100
AcDbLine
 10
378.0
 20
-61.99999999999994
 30
0.0
 11
392.0
 21
-61.99999999999994
 31
0.0
  0
LINE
  5
19CFA
330
17A0F
100
AcDbEntity
  8
24
100
AcDbLine
 10
455.75
 20
-64.16865249999995
 30
0.0
 11
455.75
 21
-60.46060499999997
 31
0.0
  0
LINE
  5
19CFF
330
17A0F
100
AcDbEntity
  8
130
  6
HIDDEN
100
AcDbLine
 10
690.0
 20
92.5
 30
0.0
 11
630.0
 21
92.5
 31
0.0
  0
LINE
  5
19D00
330
17A0F
100
AcDbEntity
  8
130
100
AcDbLine
 10
443.0
 20
-72.49999999999994
 30
0.0
 11
443.0
 21
-54.99999999999994
 31
0.0
  0
LINE
  5
19D02
330
17A0F
100
AcDbEntity
  8
24
100
AcDbLine
 10
454.5654975000001
 20
-65.81719749999996
 30
0.0
 11
455.4345024999998
 21
-65.81719749999996
 31
0.0
  0
LINE
  5
19D04
330
17A0F
100
AcDbEntity
  8
130
100
AcDbLine
 10
443.75
 20
80.39786499999991
 30
0.0
 11
443.75
 21
73.19812749999991
 31
0.0
  0
LINE
  5
19D05
330
17A0F
100
AcDbEntity
  8
130
100
AcDbLine
 10
406.7604724999998
 20
-63.03512249999996
 30
0.0
 11
408.2395274999998
 21
-63.03512249999996
 31
0.0
  0
LINE
  5
19D06
330
17A0F
100
AcDbEntity
  8
24
100
AcDbLine
 10
419.2762050000001
 20
-59.22585249999996
 30
0.0
 11
419.2762050000001
 21
-59.89698499999997
 31
0.0
  0
LINE
  5
19D07
330
17A0F
100
AcDbEntity
  8
130
100
AcDbLine
 10
376.5499999999997
 20
-50.39812749999994
 30
0.0
 11
393.4499999999999
 21
-50.39812749999994
 31
0.0
  0
LINE
  5
19D08
330
17A0F
100
AcDbEntity
  8
1
  6
Continuous
 62
     4
100
AcDbLine
 10
618.0000000000003
 20
34.99999999999999
 30
0.0
 11
622.0000000000003
 21
34.99999999999999
 31
0.0
  0
LINE
  5
19D0D
330
17A0F
100
AcDbEntity
  8
1
  6
Continuous
 62
     4
100
AcDbLine
 10
628.7029200000004
 20
73.22489999999999
 30
0.0
 11
628.7054250000003
 21
73.7032125
 31
0.0
  0
LINE
  5
19D0E
330
17A0F
100
AcDbEntity
  8
1
  6
Continuous
 62
     4
100
AcDbLine
 10
631.0673150000002
 20
95.06659500000001
 30
0.0
 11
631.3314425000002
 21
145.510445
 31
0.0
  0
LINE
  5
19D0F
330
17A0F
100
AcDbEntity
  8
1
  6
Continuous
 62
     4
100
AcDbLine
 10
690.0
 20
91.0
 30
0.0
 11
690.0
 21
92.5
 31
0.0
  0
LINE
  5
19D10
330
17A0F
100
AcDbEntity
  8
1
  6
Continuous
 62
     4
100
AcDbLine
 10
686.8775250000002
 20
147.5
 30
0.0
 11
652.5890900000002
 21
147.5
 31
0.0
  0
LINE
  5
19D12
330
17A0F
100
AcDbEntity
  8
1
  6
Continuous
 62
     4
100
AcDbLine
 10
690.0
 20
-50.74999999999995
 30
0.0
 11
697.0000000000003
 21
-50.74999999999995
 31
0.0
  0
LINE
  5
19D14
330
17A0F
100
AcDbEntity
  8
1
  6
Continuous
 62
     4
100
AcDbLine
 10
629.6879925000001
 20
-50.37113499999996
 30
0.0
 11
628.6882800000001
 21
-50.42877749999995
 31
0.0
  0
LINE
  5
19D15
330
17A0F
100
AcDbEntity
  8
1
  6
Continuous
 62
     4
100
AcDbLine
 10
685.5936175000006
 20
-69.94732749999997
 30
0.0
 11
632.2465800000003
 21
-69.29553749999996
 31
0.0
  0
LINE
  5
19D16
330
17A0F
100
AcDbEntity
  8
1
  6
Continuous
 62
     4
100
AcDbLine
 10
611.5000000000005
 20
21.66263499999997
 30
0.0
 11
598.9216500000003
 21
26.24078000000002
 31
0.0
  0
LINE
  5
19D17
330
17A0F
100
AcDbEntity
  8
1
  6
Continuous
 62
     4
100
AcDbLine
 10
624.5570575000004
 20
-73.12423249999998
 30
0.0
 11
624.5170025000003
 21
-65.47455750000001
 31
0.0
  0
LINE
  5
19D18
330
17A0F
100
AcDbEntity
  8
1
  6
Continuous
 62
     4
100
AcDbLine
 10
639.3419700000005
 20
147.5
 30
0.0
 11
633.3314149999999
 21
147.5
 31
0.0
  0
LINE
  5
19D19
330
17A0F
100
AcDbEntity
  8
1
  6
Continuous
 62
     4
100
AcDbLine
 10
639.3419700000005
 20
-127.4999999999999
 30
0.0
 11
633.3314149999999
 21
-127.4999999999999
 31
0.0
  0
LINE
  5
19D1A
330
17A0F
100
AcDbEntity
  8
130
100
AcDbLine
 10
396.7604725000001
 20
-75.32877249999997
 30
0.0
 11
396.7604725000001
 21
-63.03512249999996
 31
0.0
  0
LINE
  5
19D1B
330
17A0F
100
AcDbEntity
  8
130
100
AcDbLine
 10
367.5
 20
-51.49999999999997
 30
0.0
 11
367.5
 21
-40.99999999999996
 31
0.0
  0
LINE
  5
19D1C
330
17A0F
100
AcDbEntity
  8
24
100
AcDbLine
 10
384.2762050000002
 20
-64.73750749999995
 30
0.0
 11
384.2762050000002
 21
-65.40863999999998
 31
0.0
  0
LINE
  5
19D1D
330
17A0F
100
AcDbEntity
  8
1
  6
Continuous
 62
     4
100
AcDbLine
 10
622.0000000000003
 20
61.0
 30
0.0
 11
622.0000000000003
 21
-40.99999999999996
 31
0.0
  0
LINE
  5
19D1E
330
17A0F
100
AcDbEntity
  8
24
100
AcDbLine
 10
454.2762050000002
 20
79.896985
 30
0.0
 11
454.2762050000002
 21
79.22585000000001
 31
0.0
  0
LINE
  5
19D21
330
17A0F
100
AcDbEntity
  8
1
  6
Continuous
 62
     4
100
AcDbLine
 10
652.5890900000002
 20
147.5
 30
0.0
 11
638.3419550000001
 21
147.5
 31
0.0
  0
LINE
  5
19D22
330
17A0F
100
AcDbEntity
  8
1
  6
Continuous
 62
     4
100
AcDbLine
 10
690.0
 20
88.49999999999999
 30
0.0
 11
690.0
 21
11.24999999999998
 31
0.0
  0
LINE
  5
19D24
330
17A0F
100
AcDbEntity
  8
1
  6
Continuous
 62
     4
100
AcDbLine
 10
629.8921250000002
 20
-53.15633249999997
 30
0.0
 11
629.6955200000001
 21
-51.80865499999995
 31
0.0
  0
LINE
  5
19D25
330
17A0F
100
AcDbEntity
  8
130
100
AcDbLine
 10
367.5999999999998
 20
-126.9986974999999
 30
0.0
 11
367.5999999999998
 21
-72.93139499999996
 31
0.0
  0
LINE
  5
19D26
330
17A0F
100
AcDbEntity
  8
24
100
AcDbLine
 10
384.2762050000002
 20
-59.22585249999996
 30
0.0
 11
384.2762050000002
 21
-59.89698499999997
 31
0.0
  0
LINE
  5
19D27
330
17A0F
100
AcDbEntity
  8
1
  6
Continuous
 62
     4
100
AcDbLine
 10
629.2198250000001
 20
-50.39812749999995
 30
0.0
 11
629.6879925000001
 21
-50.37113499999996
 31
0.0
  0
LINE
  5
19D28
330
17A0F
100
AcDbEntity
  8
24
100
AcDbLine
 10
420.75
 20
80.4606025
 30
0.0
 11
420.75
 21
84.1686524999999
 31
0.0
  0
LINE
  5
19D29
330
17A0F
100
AcDbEntity
  8
130
100
AcDbLine
 10
420.75
 20
46.25
 30
0.0
 11
420.75
 21
43.79999999999999
 31
0.0
  0
LINE
  5
19D2B
330
17A0F
100
AcDbEntity
  8
130
100
AcDbLine
 10
367.6157074999996
 20
-69.94732749999996
 30
0.0
 11
367.6157074999996
 21
-72.93139499999996
 31
0.0
  0
LINE
  5
19D2C
330
17A0F
100
AcDbEntity
  8
130
100
AcDbLine
 10
368.3906474999998
 20
-127.4999999999999
 30
0.0
 11
368.1026250000004
 21
-127.4999999999999
 31
0.0
  0
LINE
  5
19D2D
330
17A0F
100
AcDbEntity
  8
130
100
AcDbLine
 10
463.4499999999999
 20
70.39812749999999
 30
0.0
 11
446.5499999999996
 21
70.39812749999999
 31
0.0
  0
LINE
  5
19D30
330
17A0F
100
AcDbEntity
  8
130
100
AcDbLine
 10
373.0
 20
-72.49999999999994
 30
0.0
 11
373.0
 21
-54.99999999999994
 31
0.0
  0
LINE
  5
19D31
330
17A0F
100
AcDbEntity
  8
1
  6
Continuous
 62
     4
100
AcDbLine
 10
626.0570975000005
 20
93.12799750000001
 30
0.0
 11
626.0173025000007
 21
85.52809999999999
 31
0.0
  0
LINE
  5
19D32
330
17A0F
100
AcDbEntity
  8
24
100
AcDbLine
 10
420.4345024999994
 20
-58.81729499999997
 30
0.0
 11
419.5654975000001
 21
-58.81729499999997
 31
0.0
  0
LINE
  5
19D33
330
17A0F
100
AcDbEntity
  8
24
100
AcDbLine
 10
420.7237949999997
 20
-59.89698499999997
 30
0.0
 11
420.7237949999997
 21
-59.22585249999996
 31
0.0
  0
LINE
  5
19D34
330
17A0F
100
AcDbEntity
  8
24
100
AcDbLine
 10
454.25
 20
-60.46060499999997
 30
0.0
 11
454.25
 21
-64.16865249999995
 31
0.0
  0
LINE
  5
19D35
330
17A0F
100
AcDbEntity
  8
1
  6
Continuous
 62
     4
100
AcDbLine
 10
626.2282625000002
 20
-63.48500749999995
 30
0.0
 11
627.0876875000006
 21
-63.35962999999996
 31
0.0
  0
LINE
  5
19D36
330
17A0F
100
AcDbEntity
  8
1
  6
Continuous
 62
     4
100
AcDbLine
 10
681.3218049999997
 20
-123.539325
 30
0.0
 11
681.3349100000003
 21
-126.0419649999999
 31
0.0
  0
LINE
  5
19D37
330
17A0F
100
AcDbEntity
  8
1
  6
Continuous
 62
     4
100
AcDbLine
 10
628.0822175000001
 20
82.31724499999989
 30
0.0
 11
628.1215025000003
 21
89.820085
 31
0.0
  0
LINE
  5
19D38
330
17A0F
100
AcDbEntity
  8
1
  6
Continuous
 62
     4
100
AcDbLine
 10
685.5936175000006
 20
89.94732500000001
 30
0.0
 11
632.2465800000003
 21
89.2955375
 31
0.0
  0
LINE
  5
19D39
330
17A0F
100
AcDbEntity
  8
130
100
AcDbLine
 10
431.7604725000001
 20
95.3287725000001
 30
0.0
 11
433.2395274999998
 21
95.3287725000001
 31
0.0
  0
LINE
  5
19D3C
330
17A0F
100
AcDbEntity
  8
17
100
AcDbLine
 10
625.0
 20
-52.99999999999997
 30
0.0
 11
707.0000000000004
 21
-52.99999999999997
 31
0.0
  0
LINE
  5
19D3D
330
17A0F
100
AcDbEntity
  8
17
100
AcDbLine
 10
656.0000000000003
 20
75.49999999999991
 30
0.0
 11
664.0000000000003
 21
75.49999999999991
 31
0.0
  0
LINE
  5
19D40
330
17A0F
100
AcDbEntity
  8
17
100
AcDbLine
 10
437.5
 20
-47.49999999999995
 30
0.0
 11
437.5
 21
-58.49999999999996
 31
0.0
  0
LINE
  5
19D41
330
17A0F
100
AcDbEntity
  8
130
100
AcDbLine
 10
430.9999999999995
 20
35.0
 30
0.0
 11
430.9999999999995
 21
-14.99999999999998
 31
0.0
  0
LINE
  5
19D42
330
17A0F
100
AcDbEntity
  8
130
100
AcDbLine
 10
373.0
 20
92.5
 30
0.0
 11
373.0
 21
75.0
 31
0.0
  0
LINE
  5
19D43
330
17A0F
100
AcDbEntity
  8
1
  6
Continuous
 62
     4
100
AcDbLine
 10
629.8921250000002
 20
73.15633
 30
0.0
 11
629.8926800000003
 21
73.16013749999999
 31
0.0
  0
LINE
  5
19D44
330
17A0F
100
AcDbEntity
  8
24
100
AcDbLine
 10
455.75
 20
79.92981249999999
 30
0.0
 11
455.75
 21
80.4606025
 31
0.0
  0
LINE
  5
19D45
330
17A0F
100
AcDbEntity
  8
24
100
AcDbLine
 10
454.5654975000001
 20
78.8172925000001
 30
0.0
 11
455.4345024999998
 21
78.8172925000001
 31
0.0
  0
LINE
  5
19D46
330
17A0F
100
AcDbEntity
  8
24
100
AcDbLine
 10
420.7237949999997
 20
79.22585000000001
 30
0.0
 11
420.7237949999997
 21
79.896985
 31
0.0
  0
LINE
  5
19D47
330
17A0F
100
AcDbEntity
  8
130
100
AcDbLine
 10
367.5999999999998
 20
146.9986975
 30
0.0
 11
367.5999999999998
 21
92.931395
 31
0.0
  0
LINE
  5
19D49
330
17A0F
100
AcDbEntity
  8
1
  6
Continuous
 62
     4
100
AcDbLine
 10
628.5439425000005
 20
95.20955749999989
 30
0.0
 11
629.6408150000002
 21
95.26093500000001
 31
0.0
  0
LINE
  5
19D4A
330
17A0F
100
AcDbEntity
  8
1
  6
Continuous
 62
     4
100
AcDbLine
 10
681.3218049999997
 20
143.539325
 30
0.0
 11
681.3349100000003
 21
146.0419625
 31
0.0
  0
LINE
  5
19D4C
330
17A0F
100
AcDbEntity
  8
1
  6
Continuous
 62
     4
100
AcDbLine
 10
633.3314400000002
 20
-127.4999999999999
 30
0.0
 11
688.3400225000003
 21
-127.4999999999999
 31
0.0
  0
LINE
  5
19D4D
330
17A0F
100
AcDbEntity
  8
24
100
AcDbLine
 10
384.25
 20
-60.46060499999997
 30
0.0
 11
384.25
 21
-64.16865249999995
 31
0.0
  0
LINE
  5
19D4E
330
17A0F
100
AcDbEntity
  8
24
100
AcDbLine
 10
454.25
 20
-64.16865249999995
 30
0.0
 11
454.25
 21
-64.69944499999995
 31
0.0
  0
LINE
  5
19D50
330
17A0F
100
AcDbEntity
  8
130
100
AcDbLine
 10
443.75
 20
80.39786499999991
 30
0.0
 11
431.25
 21
80.39786499999991
 31
0.0
  0
LINE
  5
19D51
330
17A0F
100
AcDbEntity
  8
130
100
AcDbLine
 10
419.2499999999998
 20
47.75
 30
0.0
 11
419.2499999999998
 21
50.2
 31
0.0
  0
LINE
  5
19D52
330
17A0F
100
AcDbEntity
  8
24
100
AcDbLine
 10
384.5654975000002
 20
-65.81719749999996
 30
0.0
 11
385.4345024999998
 21
-65.81719749999996
 31
0.0
  0
LINE
  5
19D53
330
17A0F
100
AcDbEntity
  8
130
100
AcDbLine
 10
427.0
 20
30.15486750000003
 30
0.0
 11
413.0
 21
30.15486750000003
 31
0.0
  0
LINE
  5
19D54
330
17A0F
100
AcDbEntity
  8
130
100
AcDbLine
 10
408.75
 20
-53.19812749999996
 30
0.0
 11
408.75
 21
-60.39786749999996
 31
0.0
  0
LINE
  5
19D55
330
17A0F
100
AcDbEntity
  8
130
100
AcDbLine
 10
472.5
 20
-68.49999999999996
 30
0.0
 11
472.5
 21
-51.49999999999997
 31
0.0
  0
LINE
  5
19D56
330
17A0F
100
AcDbEntity
  8
1
  6
Continuous
 62
     4
100
AcDbLine
 10
628.0172750000005
 20
85.51762999999999
 30
0.0
 11
628.0628025000005
 21
94.21255999999999
 31
0.0
  0
LINE
  5
19D57
330
17A0F
100
AcDbEntity
  8
1
  6
Continuous
 62
     4
100
AcDbLine
 10
690.0
 20
-70.99999999999997
 30
0.0
 11
690.0
 21
-72.49999999999996
 31
0.0
  0
LINE
  5
19D58
330
17A0F
100
AcDbEntity
  8
130
100
AcDbLine
 10
443.2395274999998
 20
95.3287725000001
 30
0.0
 11
443.2395274999998
 21
83.03512000000001
 31
0.0
  0
LINE
  5
19D59
330
17A0F
100
AcDbEntity
  8
1
  6
Continuous
 62
     4
100
AcDbLine
 10
628.6955325000003
 20
-51.81389249999998
 30
0.0
 11
628.0272400000002
 21
-51.81738999999996
 31
0.0
  0
LINE
  5
19D5A
330
17A0F
100
AcDbEntity
  8
130
100
AcDbLine
 10
427.0
 20
25.23995500000007
 30
0.0
 11
413.0
 21
25.23995500000007
 31
0.0
  0
LINE
  5
19D5C
330
17A0F
100
AcDbEntity
  8
130
100
AcDbLine
 10
423.1999999999998
 20
46.25
 30
0.0
 11
420.75
 21
46.25
 31
0.0
  0
LINE
  5
19D5D
330
17A0F
100
AcDbEntity
  8
1
  6
Continuous
 62
     4
100
AcDbLine
 10
631.0686600000003
 20
95.3287699999999
 30
0.0
 11
628.0690350000002
 21
95.18731
 31
0.0
  0
LINE
  5
19D60
330
17A0F
100
AcDbEntity
  8
130
100
AcDbLine
 10
427.0
 20
-49.99999999999995
 30
0.0
 11
413.0
 21
-49.99999999999995
 31
0.0
  0
LINE
  5
19D62
330
17A0F
100
AcDbEntity
  8
130
100
AcDbLine
 10
433.2395274999998
 20
95.3287725000001
 30
0.0
 11
433.2395274999998
 21
83.03512000000001
 31
0.0
  0
LINE
  5
19D63
330
17A0F
100
AcDbEntity
  8
130
100
AcDbLine
 10
392.0
 20
70.0
 30
0.0
 11
378.0
 21
70.0
 31
0.0
  0
LINE
  5
19D65
330
17A0F
100
AcDbEntity
  8
17
100
AcDbLine
 10
385.0
 20
89.0
 30
0.0
 11
385.0
 21
75.0
 31
0.0
  0
LINE
  5
19D66
330
17A0F
100
AcDbEntity
  8
130
100
AcDbLine
 10
367.5
 20
88.49999999999999
 30
0.0
 11
367.5
 21
-72.49999999999994
 31
0.0
  0
LINE
  5
19D67
330
17A0F
100
AcDbEntity
  8
130
  6
HIDDEN
100
AcDbLine
 10
630.0
 20
-72.49999999999996
 30
0.0
 11
690.0
 21
-72.49999999999996
 31
0.0
  0
LINE
  5
19D68
330
17A0F
100
AcDbEntity
  8
1
  6
Continuous
 62
     4
100
AcDbLine
 10
631.0686875000003
 20
95.3287725000001
 30
0.0
 11
628.5418625000004
 21
95.2096075
 31
0.0
  0
LINE
  5
19D6C
330
17A0F
100
AcDbEntity
  8
130
100
AcDbLine
 10
431.25
 20
73.19812749999991
 30
0.0
 11
431.25
 21
80.39786499999991
 31
0.0
  0
LINE
  5
19D6D
330
17A0F
100
AcDbEntity
  8
130
100
AcDbLine
 10
471.0933249999998
 20
73.1076799999999
 30
0.0
 11
466.25
 21
73.1076799999999
 31
0.0
  0
LINE
  5
19D6F
330
17A0F
100
AcDbEntity
  8
130
100
AcDbLine
 10
408.2395274999998
 20
-75.32877249999997
 30
0.0
 11
406.7604724999998
 21
-75.32877249999997
 31
0.0
  0
LINE
  5
19D70
330
17A0F
100
AcDbEntity
  8
130
100
AcDbLine
 10
472.3845649999998
 20
-69.94732749999996
 30
0.0
 11
472.1052600000001
 21
-69.29553749999995
 31
0.0
  0
LINE
  5
19D71
330
17A0F
100
AcDbEntity
  8
24
100
AcDbLine
 10
455.4345024999998
 20
-58.81729499999997
 30
0.0
 11
454.5654975000001
 21
-58.81729499999997
 31
0.0
  0
LINE
  5
19D72
330
17A0F
100
AcDbEntity
  8
130
100
AcDbLine
 10
431.25
 20
-53.19812749999996
 30
0.0
 11
431.25
 21
-60.39786749999996
 31
0.0
  0
LINE
  5
19D73
330
17A0F
100
AcDbEntity
  8
24
100
AcDbLine
 10
420.75
 20
-64.16865249999995
 30
0.0
 11
420.75
 21
-64.69944499999995
 31
0.0
  0
LINE
  5
19D74
330
17A0F
100
AcDbEntity
  8
24
100
AcDbLine
 10
419.2499999999998
 20
-60.46060499999997
 30
0.0
 11
419.2499999999998
 21
-64.16865249999995
 31
0.0
  0
LINE
  5
19D75
330
17A0F
100
AcDbEntity
  8
130
100
AcDbLine
 10
367.5
 20
-51.49999999999997
 30
0.0
 11
367.5
 21
-68.49999999999996
 31
0.0
  0
LINE
  5
19D76
330
17A0F
100
AcDbEntity
  8
24
100
AcDbLine
 10
385.4345024999998
 20
-58.81729499999997
 30
0.0
 11
384.5654975000002
 21
-58.81729499999997
 31
0.0
  0
LINE
  5
19D77
330
17A0F
100
AcDbEntity
  8
24
100
AcDbLine
 10
384.25
 20
-59.92981249999994
 30
0.0
 11
384.25
 21
-60.46060499999997
 31
0.0
  0
LINE
  5
19D78
330
17A0F
100
AcDbEntity
  8
130
100
AcDbLine
 10
406.7604724999998
 20
-75.32877249999997
 30
0.0
 11
406.7604724999998
 21
-63.03512249999996
 31
0.0
  0
LINE
  5
19D79
330
17A0F
100
AcDbEntity
  8
1
  6
Continuous
 62
     4
100
AcDbLine
 10
628.7080475000003
 20
-54.20375749999998
 30
0.0
 11
628.7335200000001
 21
-59.069015
 31
0.0
  0
LINE
  5
19D7A
330
17A0F
100
AcDbEntity
  8
1
  6
Continuous
 62
     4
100
AcDbLine
 10
628.0392825000002
 20
-54.11735999999997
 30
0.0
 11
628.0403300000003
 21
-54.31735499999998
 31
0.0
  0
LINE
  5
19D7B
330
17A0F
100
AcDbEntity
  8
1
  6
Continuous
 62
     4
100
AcDbLine
 10
628.0571250000003
 20
-73.12799749999996
 30
0.0
 11
626.0570975000005
 21
-73.12799749999996
 31
0.0
  0
LINE
  5
19D7C
330
17A0F
100
AcDbEntity
  8
1
  6
Continuous
 62
     4
100
AcDbLine
 10
628.7335200000001
 20
-59.069015
 30
0.0
 11
631.0673150000002
 21
-75.06659749999997
 31
0.0
  0
LINE
  5
19D7D
330
17A0F
100
AcDbEntity
  8
1
  6
Continuous
 62
     4
100
AcDbLine
 10
685.8350950000008
 20
-126.0655275
 30
0.0
 11
685.8217449999999
 21
-123.5157624999999
 31
0.0
  0
LINE
  5
19D7E
330
17A0F
100
AcDbEntity
  8
1
  6
Continuous
 62
     4
100
AcDbLine
 10
628.7054250000003
 20
-53.70321499999995
 30
0.0
 11
628.7054750000004
 21
-53.71262249999997
 31
0.0
  0
LINE
  5
19D7F
330
17A0F
100
AcDbEntity
  8
1
  6
Continuous
 62
     4
100
AcDbLine
 10
626.0173025000007
 20
-65.52810249999996
 30
0.0
 11
628.0172750000005
 21
-65.51762999999997
 31
0.0
  0
LINE
  5
19D80
330
17A0F
100
AcDbEntity
  8
24
100
AcDbLine
 10
385.75
 20
79.92981249999999
 30
0.0
 11
385.75
 21
80.4606025
 31
0.0
  0
LINE
  5
19D81
330
17A0F
100
AcDbEntity
  8
130
100
AcDbLine
 10
471.6093525000001
 20
147.5
 30
0.0
 11
471.8973749999993
 21
147.5
 31
0.0
  0
LINE
  5
19D82
330
17A0F
100
AcDbEntity
  8
130
100
AcDbLine
 10
416.8000000000001
 20
46.25
 30
0.0
 11
416.8000000000001
 21
47.75
 31
0.0
  0
LINE
  5
19D83
330
17A0F
100
AcDbEntity
  8
24
100
AcDbLine
 10
420.7237949999997
 20
84.73750749999998
 30
0.0
 11
420.7237949999997
 21
85.40863999999999
 31
0.0
  0
LINE
  5
19D84
330
17A0F
100
AcDbEntity
  8
130
100
AcDbLine
 10
420.75
 20
47.75
 30
0.0
 11
423.1999999999998
 21
47.75
 31
0.0
  0
LINE
  5
19D85
330
17A0F
100
AcDbEntity
  8
130
100
AcDbLine
 10
367.5
 20
61.0
 30
0.0
 11
367.5
 21
71.5
 31
0.0
  0
LINE
  5
19D86
330
17A0F
100
AcDbEntity
  8
17
100
AcDbLine
 10
448.0
 20
-61.99999999999994
 30
0.0
 11
462.0
 21
-61.99999999999994
 31
0.0
  0
LINE
  5
19D87
330
17A0F
100
AcDbEntity
  8
130
100
AcDbLine
 10
432.0
 20
92.5
 30
0.0
 11
432.0
 21
75.0
 31
0.0
  0
LINE
  5
19D88
330
17A0F
100
AcDbEntity
  8
1
  6
Continuous
 62
     4
100
AcDbLine
 10
626.2282625000002
 20
83.48500749999999
 30
0.0
 11
627.0876875000006
 21
83.35963000000001
 31
0.0
  0
LINE
  5
19D8A
330
17A0F
100
AcDbEntity
  8
1
  6
Continuous
 62
     4
100
AcDbLine
 10
611.5000000000005
 20
32.49999999999999
 30
0.0
 11
618.0000000000003
 21
32.49999999999999
 31
0.0
  0
LINE
  5
19D8B
330
17A0F
100
AcDbEntity
  8
1
  6
Continuous
 62
     4
100
AcDbLine
 10
630.0
 20
92.5
 30
0.0
 11
630.0
 21
73.8957925
 31
0.0
  0
LINE
  5
19D8C
330
17A0F
100
AcDbEntity
  8
17
100
AcDbLine
 10
651.0000000000003
 20
82.0
 30
0.0
 11
675.0
 21
82.0
 31
0.0
  0
LINE
  5
19D8D
330
17A0F
100
AcDbEntity
  8
17
100
AcDbLine
 10
666.0000000000003
 20
71.5
 30
0.0
 11
670.0
 21
71.5
 31
0.0
  0
LINE
  5
19D90
330
17A0F
100
AcDbEntity
  8
130
100
AcDbLine
 10
441.7604725000002
 20
83.03512000000001
 30
0.0
 11
441.7604725000002
 21
95.3287725000001
 31
0.0
  0
LINE
  5
19D92
330
17A0F
100
AcDbEntity
  8
130
100
AcDbLine
 10
420.75
 20
43.79999999999999
 30
0.0
 11
419.2499999999998
 21
43.79999999999999
 31
0.0
  0
LINE
  5
19D94
330
17A0F
100
AcDbEntity
  8
130
  6
HIDDEN
100
AcDbLine
 10
644.0000000000003
 20
-50.74999999999995
 30
0.0
 11
690.0
 21
-50.74999999999995
 31
0.0
  0
LINE
  5
19D95
330
17A0F
100
AcDbEntity
  8
24
100
AcDbLine
 10
385.75
 20
80.4606025
 30
0.0
 11
385.75
 21
84.1686524999999
 31
0.0
  0
LINE
  5
19D97
330
17A0F
100
AcDbEntity
  8
1
  6
Continuous
 62
     4
100
AcDbLine
 10
611.5000000000005
 20
32.49999999999999
 30
0.0
 11
611.5000000000005
 21
-12.5
 31
0.0
  0
LINE
  5
19D98
330
17A0F
100
AcDbEntity
  8
1
  6
Continuous
 62
     4
100
AcDbLine
 10
628.0272400000002
 20
71.81738999999999
 30
0.0
 11
628.0392825000002
 21
74.1173575
 31
0.0
  0
LINE
  5
19D99
330
17A0F
100
AcDbEntity
  8
24
100
AcDbLine
 10
455.7237949999998
 20
79.22585000000001
 30
0.0
 11
455.7237949999998
 21
79.896985
 31
0.0
  0
LINE
  5
19D9A
330
17A0F
100
AcDbEntity
  8
24
100
AcDbLine
 10
419.2762050000001
 20
85.40863999999999
 30
0.0
 11
419.2762050000001
 21
84.73750749999998
 31
0.0
  0
LINE
  5
19D9B
330
17A0F
100
AcDbEntity
  8
130
100
AcDbLine
 10
419.2499999999998
 20
43.79999999999999
 30
0.0
 11
419.2499999999998
 21
46.25
 31
0.0
  0
LINE
  5
19D9C
330
17A0F
100
AcDbEntity
  8
1
  6
Continuous
 62
     4
100
AcDbLine
 10
611.5000000000005
 20
15.27756750000001
 30
0.0
 11
596.8695300000002
 21
20.60262499999998
 31
0.0
  0
LINE
  5
19D9D
330
17A0F
100
AcDbEntity
  8
24
100
AcDbLine
 10
419.2762050000001
 20
79.896985
 30
0.0
 11
419.2762050000001
 21
79.22585000000001
 31
0.0
  0
LINE
  5
19DA4
330
17A0F
100
AcDbEntity
  8
130
100
AcDbLine
 10
398.2395274999999
 20
-75.32877249999997
 30
0.0
 11
396.7604725000001
 21
-75.32877249999997
 31
0.0
  0
LINE
  5
19DA5
330
17A0F
100
AcDbEntity
  8
130
100
AcDbLine
 10
472.3842925000004
 20
-72.93139499999996
 30
0.0
 11
472.3842925000004
 21
-69.94732749999996
 31
0.0
  0
LINE
  5
19DA6
330
17A0F
100
AcDbEntity
  8
130
100
AcDbLine
 10
443.75
 20
-60.39786749999996
 30
0.0
 11
431.25
 21
-60.39786749999996
 31
0.0
  0
LINE
  5
19DA7
330
17A0F
100
AcDbEntity
  8
130
100
AcDbLine
 10
443.75
 20
-60.39786749999996
 30
0.0
 11
443.75
 21
-53.19812749999996
 31
0.0
  0
LINE
  5
19DA8
330
17A0F
100
AcDbEntity
  8
24
100
AcDbLine
 10
420.75
 20
-59.92981249999994
 30
0.0
 11
420.75
 21
-60.46060499999997
 31
0.0
  0
LINE
  5
19DA9
330
17A0F
100
AcDbEntity
  8
24
100
AcDbLine
 10
419.2762050000001
 20
-64.73750749999995
 30
0.0
 11
419.2762050000001
 21
-65.40863999999998
 31
0.0
  0
LINE
  5
19DAA
330
17A0F
100
AcDbEntity
  8
130
100
AcDbLine
 10
367.8953449999998
 20
-68.49999999999996
 30
0.0
 11
367.5
 21
-68.49999999999996
 31
0.0
  0
LINE
  5
19DAC
330
17A0F
100
AcDbEntity
  8
24
100
AcDbLine
 10
385.75
 20
-64.16865249999995
 30
0.0
 11
385.75
 21
-64.69944499999995
 31
0.0
  0
LINE
  5
19DAD
330
17A0F
100
AcDbEntity
  8
130
100
AcDbLine
 10
408.2395274999998
 20
-63.03512249999996
 30
0.0
 11
408.2395274999998
 21
-75.32877249999997
 31
0.0
  0
LINE
  5
19DAE
330
17A0F
100
AcDbEntity
  8
24
100
AcDbLine
 10
454.25
 20
79.92981249999999
 30
0.0
 11
454.25
 21
80.4606025
 31
0.0
  0
LINE
  5
19DAF
330
17A0F
100
AcDbEntity
  8
1
  6
Continuous
 62
     4
100
AcDbLine
 10
628.0403300000003
 20
-54.31735499999998
 30
0.0
 11
628.7335200000001
 21
-59.069015
 31
0.0
  0
LINE
  5
19DB0
330
17A0F
100
AcDbEntity
  8
1
  6
Continuous
 62
     4
100
AcDbLine
 10
628.0690350000002
 20
-75.18731249999998
 30
0.0
 11
626.4628175000003
 21
-75.11156499999998
 31
0.0
  0
LINE
  5
19DB1
330
17A0F
100
AcDbEntity
  8
1
  6
Continuous
 62
     4
100
AcDbLine
 10
630.0375475000005
 20
-54.15317249999997
 30
0.0
 11
629.8926800000003
 21
-53.16013749999999
 31
0.0
  0
LINE
  5
19DB2
330
17A0F
100
AcDbEntity
  8
1
  6
Continuous
 62
     4
100
AcDbLine
 10
652.5890900000002
 20
-127.4999999999999
 30
0.0
 11
638.3419550000001
 21
-127.4999999999999
 31
0.0
  0
LINE
  5
19DB3
330
17A0F
100
AcDbEntity
  8
1
  6
Continuous
 62
     4
100
AcDbLine
 10
628.0172750000005
 20
-65.51762999999997
 30
0.0
 11
628.0628025000005
 21
-74.21256249999995
 31
0.0
  0
LINE
  5
19DB4
330
17A0F
100
AcDbEntity
  8
130
  6
HIDDEN
100
AcDbLine
 10
644.0000000000003
 20
-48.74999999999997
 30
0.0
 11
644.0000000000003
 21
-57.24999999999997
 31
0.0
  0
LINE
  5
19DB5
330
17A0F
100
AcDbEntity
  8
130
100
AcDbLine
 10
462.0
 20
70.0
 30
0.0
 11
448.0
 21
70.0
 31
0.0
  0
LINE
  5
19DB6
330
17A0F
100
AcDbEntity
  8
130
  6
HIDDEN
100
AcDbLine
 10
644.0000000000003
 20
-55.24999999999998
 30
0.0
 11
644.0000000000003
 21
-57.24999999999997
 31
0.0
  0
LINE
  5
19DB7
330
17A0F
100
AcDbEntity
  8
1
  6
Continuous
 62
     4
100
AcDbLine
 10
630.0375475000005
 20
74.15316999999999
 30
0.0
 11
629.8926800000003
 21
73.16013749999999
 31
0.0
  0
LINE
  5
19DB8
330
17A0F
100
AcDbEntity
  8
1
  6
Continuous
 62
     4
100
AcDbLine
 10
688.8400225000004
 20
146.9986975
 30
0.0
 11
688.5569250000002
 21
92.931395
 31
0.0
  0
LINE
  5
19DB9
330
17A0F
100
AcDbEntity
  8
1
  6
Continuous
 62
     4
100
AcDbLine
 10
628.6882800000001
 20
70.428775
 30
0.0
 11
628.7029200000004
 21
73.22489999999999
 31
0.0
  0
LINE
  5
19DBA
330
17A0F
100
AcDbEntity
  8
1
  6
Continuous
 62
     4
100
AcDbLine
 10
622.0000000000003
 20
61.0
 30
0.0
 11
630.0
 21
61.0
 31
0.0
  0
LINE
  5
19DBE
330
17A0F
100
AcDbEntity
  8
130
100
AcDbLine
 10
472.5
 20
92.5
 30
0.0
 11
367.5
 21
92.5
 31
0.0
  0
LINE
  5
19DBF
330
17A0F
100
AcDbEntity
  8
24
100
AcDbLine
 10
384.2762050000002
 20
85.40863999999999
 30
0.0
 11
384.2762050000002
 21
84.73750749999998
 31
0.0
  0
LINE
  5
19DC0
330
17A0F
100
AcDbEntity
  8
130
100
AcDbLine
 10
419.2499999999998
 20
50.2
 30
0.0
 11
420.75
 21
50.2
 31
0.0
  0
LINE
  5
19DC1
330
17A0F
100
AcDbEntity
  8
130
100
AcDbLine
 10
432.0
 20
-72.49999999999994
 30
0.0
 11
432.0
 21
-54.99999999999994
 31
0.0
  0
LINE
  5
19DC2
330
17A0F
100
AcDbEntity
  8
24
100
AcDbLine
 10
420.4345024999994
 20
85.8171974999999
 30
0.0
 11
419.5654975000001
 21
85.8171974999999
 31
0.0
  0
LINE
  5
19DC3
330
17A0F
100
AcDbEntity
  8
130
100
AcDbLine
 10
472.3845649999998
 20
89.94732500000001
 30
0.0
 11
472.1052600000001
 21
89.2955375
 31
0.0
  0
LINE
  5
19DC4
330
17A0F
100
AcDbEntity
  8
130
100
AcDbLine
 10
367.8953449999998
 20
88.49999999999999
 30
0.0
 11
367.5
 21
88.49999999999999
 31
0.0
  0
LINE
  5
19DC5
330
17A0F
100
AcDbEntity
  8
1
  6
Continuous
 62
     4
100
AcDbLine
 10
628.7080475000003
 20
74.203755
 30
0.0
 11
628.7335200000001
 21
79.06901499999989
 31
0.0
  0
LINE
  5
19DC6
330
17A0F
100
AcDbEntity
  8
1
  6
Continuous
 62
     4
100
AcDbLine
 10
628.0392825000002
 20
74.1173575
 30
0.0
 11
628.0403300000003
 21
74.31735499999999
 31
0.0
  0
LINE
  5
19DC7
330
17A0F
100
AcDbEntity
  8
1
  6
Continuous
 62
     4
100
AcDbLine
 10
628.0571250000003
 20
93.12799750000001
 30
0.0
 11
626.0570975000005
 21
93.12799750000001
 31
0.0
  0
LINE
  5
19DC9
330
17A0F
100
AcDbEntity
  8
17
100
AcDbLine
 10
385.0
 20
-54.99999999999994
 30
0.0
 11
385.0
 21
-68.99999999999997
 31
0.0
  0
LINE
  5
19DCB
330
17A0F
100
AcDbEntity
  8
17
100
AcDbLine
 10
664.0000000000003
 20
89.69999999999998
 30
0.0
 11
664.0000000000003
 21
74.30000000000001
 31
0.0
  0
LINE
  5
19DCC
330
17A0F
100
AcDbEntity
  8
17
100
AcDbLine
 10
664.0000000000003
 20
89.69999999999998
 30
0.0
 11
666.0000000000003
 21
89.69999999999998
 31
0.0
  0
LINE
  5
19DCD
330
17A0F
100
AcDbEntity
  8
1
  6
Continuous
 62
     4
100
AcDbLine
 10
598.9216500000003
 20
26.24078000000002
 30
0.0
 11
596.8695300000002
 21
20.60262499999998
 31
0.0
  0
LINE
  5
19DCF
330
17A0F
100
AcDbEntity
  8
130
100
AcDbLine
 10
427.0
 20
16.84078750000003
 30
0.0
 11
413.0
 21
16.84078750000003
 31
0.0
  0
LINE
  5
19DD0
330
17A0F
100
AcDbEntity
  8
130
100
AcDbLine
 10
433.2395274999998
 20
83.03512000000001
 30
0.0
 11
431.7604725000001
 21
83.03512000000001
 31
0.0
  0
LINE
  5
19DD1
330
17A0F
100
AcDbEntity
  8
130
100
AcDbLine
 10
472.4000000000001
 20
146.9986975
 30
0.0
 11
472.4000000000001
 21
92.931395
 31
0.0
  0
LINE
  5
19DD3
330
17A0F
100
AcDbEntity
  8
17
100
AcDbLine
 10
402.5
 20
78.5
 30
0.0
 11
402.5
 21
67.5
 31
0.0
  0
LINE
  5
19DD4
330
17A0F
100
AcDbEntity
  8
1
  6
Continuous
 62
     4
100
AcDbLine
 10
628.0403300000003
 20
74.31735499999999
 30
0.0
 11
628.7335200000001
 21
79.06901499999989
 31
0.0
  0
LINE
  5
19DD5
330
17A0F
100
AcDbEntity
  8
130
100
AcDbLine
 10
368.1026250000004
 20
147.5
 30
0.0
 11
368.3906474999998
 21
147.5
 31
0.0
  0
LINE
  5
19DD6
330
17A0F
100
AcDbEntity
  8
17
100
AcDbLine
 10
656.0000000000003
 20
88.49999999999999
 30
0.0
 11
664.0000000000003
 21
88.49999999999999
 31
0.0
  0
LINE
  5
19DD8
330
17A0F
100
AcDbEntity
  8
130
100
AcDbLine
 10
462.0
 20
-49.99999999999995
 30
0.0
 11
448.0
 21
-49.99999999999995
 31
0.0
  0
LINE
  5
19DD9
330
17A0F
100
AcDbEntity
  8
130
  6
HIDDEN
100
AcDbLine
 10
630.0
 20
-48.74999999999997
 30
0.0
 11
644.0000000000003
 21
-48.74999999999997
 31
0.0
  0
LINE
  5
19DDA
330
17A0F
100
AcDbEntity
  8
1
  6
Continuous
 62
     4
100
AcDbLine
 10
622.0000000000003
 20
-40.99999999999996
 30
0.0
 11
630.0
 21
-40.99999999999996
 31
0.0
  0
LINE
  5
19DDB
330
17A0F
100
AcDbEntity
  8
24
100
AcDbLine
 10
385.4345024999998
 20
85.8171974999999
 30
0.0
 11
384.5654975000002
 21
85.8171974999999
 31
0.0
  0
LINE
  5
19DDC
330
17A0F
100
AcDbEntity
  8
130
100
AcDbLine
 10
397.0
 20
-72.49999999999994
 30
0.0
 11
397.0
 21
-54.99999999999994
 31
0.0
  0
LINE
  5
19DDD
330
17A0F
100
AcDbEntity
  8
130
100
AcDbLine
 10
393.4499999999999
 20
70.39812749999999
 30
0.0
 11
376.5499999999997
 21
70.39812749999999
 31
0.0
  0
LINE
  5
19DDE
330
17A0F
100
AcDbEntity
  8
130
100
AcDbLine
 10
427.0
 20
70.0
 30
0.0
 11
413.0
 21
70.0
 31
0.0
  0
LINE
  5
19DDF
330
17A0F
100
AcDbEntity
  8
130
100
AcDbLine
 10
371.0
 20
35.0
 30
0.0
 11
371.0
 21
-14.99999999999998
 31
0.0
  0
LINE
  5
19DE2
330
17A0F
100
AcDbEntity
  8
130
100
AcDbLine
 10
428.4499999999998
 20
70.39812749999999
 30
0.0
 11
411.5499999999996
 21
70.39812749999999
 31
0.0
  0
LINE
  5
19DE3
330
17A0F
100
AcDbEntity
  8
130
100
AcDbLine
 10
368.9066750000002
 20
73.1076799999999
 30
0.0
 11
373.75
 21
73.1076799999999
 31
0.0
  0
LINE
  5
19DE5
330
17A0F
100
AcDbEntity
  8
130
100
AcDbLine
 10
367.6157074999996
 20
-123.5157624999999
 30
0.0
 11
367.6392700000002
 21
-123.539325
 31
0.0
  0
LINE
  5
19DE6
330
17A0F
100
AcDbEntity
  8
24
100
AcDbLine
 10
454.25
 20
-59.92981249999994
 30
0.0
 11
454.25
 21
-60.46060499999997
 31
0.0
  0
LINE
  5
19DE7
330
17A0F
100
AcDbEntity
  8
24
100
AcDbLine
 10
454.2762050000002
 20
-59.22585249999996
 30
0.0
 11
454.2762050000002
 21
-59.89698499999997
 31
0.0
  0
LINE
  5
19DE8
330
17A0F
100
AcDbEntity
  8
130
100
AcDbLine
 10
472.5
 20
-40.99999999999996
 30
0.0
 11
472.5
 21
-51.49999999999997
 31
0.0
  0
LINE
  5
19DE9
330
17A0F
100
AcDbEntity
  8
24
100
AcDbLine
 10
420.7237949999997
 20
-65.40863999999998
 30
0.0
 11
420.7237949999997
 21
-64.73750749999995
 31
0.0
  0
LINE
  5
19DEA
330
17A0F
100
AcDbEntity
  8
130
100
AcDbLine
 10
396.25
 20
-60.39786749999996
 30
0.0
 11
396.25
 21
-53.19812749999996
 31
0.0
  0
LINE
  5
19DEB
330
17A0F
100
AcDbEntity
  8
130
100
AcDbLine
 10
367.8947399999997
 20
-69.29553749999995
 30
0.0
 11
367.90589
 21
-54.15317249999995
 31
0.0
  0
LINE
  5
19DEC
330
17A0F
100
AcDbEntity
  8
24
100
AcDbLine
 10
385.75
 20
-64.16865249999995
 30
0.0
 11
385.75
 21
-60.46060499999997
 31
0.0
  0
LINE
  5
19DED
330
17A0F
100
AcDbEntity
  8
24
100
AcDbLine
 10
385.7237949999998
 20
-65.40863999999998
 30
0.0
 11
385.7237949999998
 21
-64.73750749999995
 31
0.0
  0
LINE
  5
19DEE
330
17A0F
100
AcDbEntity
  8
130
100
AcDbLine
 10
368.1026250000004
 20
-127.4999999999999
 30
0.0
 11
471.8973749999993
 21
-127.4999999999999
 31
0.0
  0
LINE
  5
19DEF
330
17A0F
100
AcDbEntity
  8
24
100
AcDbLine
 10
419.5654975000001
 20
-65.81719749999996
 30
0.0
 11
420.4345024999994
 21
-65.81719749999996
 31
0.0
  0
LINE
  5
19DF0
330
17A0F
100
AcDbEntity
  8
1
  6
Continuous
 62
     4
100
AcDbLine
 10
628.0272400000002
 20
-51.81738999999996
 30
0.0
 11
628.0392825000002
 21
-54.11735999999997
 31
0.0
  0
LINE
  5
19DF1
330
17A0F
100
AcDbEntity
  8
1
  6
Continuous
 62
     4
100
AcDbLine
 10
631.0686875000003
 20
-75.32877249999998
 30
0.0
 11
628.5418625000004
 21
-75.20960999999999
 31
0.0
  0
LINE
  5
19DF2
330
17A0F
100
AcDbEntity
  8
24
100
AcDbLine
 10
455.75
 20
80.4606025
 30
0.0
 11
455.75
 21
84.1686524999999
 31
0.0
  0
LINE
  5
19DF3
330
17A0F
100
AcDbEntity
  8
1
  6
Continuous
 62
     4
100
AcDbLine
 10
685.8217449999999
 20
-123.5157624999999
 30
0.0
 11
681.3218049999997
 21
-123.539325
 31
0.0
  0
LINE
  5
19DF4
330
17A0F
100
AcDbEntity
  8
1
  6
Continuous
 62
     4
100
AcDbLine
 10
631.0673150000002
 20
-75.06659749999997
 30
0.0
 11
631.3314425000002
 21
-125.5104474999999
 31
0.0
  0
LINE
  5
19DF5
330
17A0F
100
AcDbEntity
  8
1
  6
Continuous
 62
     4
100
AcDbLine
 10
628.7029200000004
 20
-53.22490249999997
 30
0.0
 11
628.7054250000003
 21
-53.70321499999995
 31
0.0
  0
LINE
  5
19DF6
330
17A0F
100
AcDbEntity
  8
1
  6
Continuous
 62
     4
100
AcDbLine
 10
630.0
 20
-40.99999999999996
 30
0.0
 11
630.0
 21
-53.89579499999999
 31
0.0
  0
LINE
  5
19DF7
330
17A0F
100
AcDbEntity
  8
17
100
AcDbLine
 10
437.5
 20
78.5
 30
0.0
 11
437.5
 21
67.5
 31
0.0
  0
LINE
  5
19DF9
330
17A0F
100
AcDbEntity
  8
1
  6
Continuous
 62
     4
100
AcDbLine
 10
630.0
 20
71.5
 30
0.0
 11
630.0
 21
61.0
 31
0.0
  0
LINE
  5
19DFA
330
17A0F
100
AcDbEntity
  8
1
  6
Continuous
 62
     4
100
AcDbLine
 10
685.8217449999999
 20
143.5157625
 30
0.0
 11
681.3218049999997
 21
143.539325
 31
0.0
  0
LINE
  5
19DFB
330
17A0F
100
AcDbEntity
  8
1
  6
Continuous
 62
     4
100
AcDbLine
 10
629.6955200000001
 20
71.80865500000002
 30
0.0
 11
629.6879925000001
 21
70.37113249999999
 31
0.0
  0
LINE
  5
19DFC
330
17A0F
100
AcDbEntity
  8
1
  6
Continuous
 62
     4
100
AcDbLine
 10
630.0
 20
73.8957925
 30
0.0
 11
630.0
 21
61.0
 31
0.0
  0
LINE
  5
19E01
330
17A0F
100
AcDbEntity
  8
24
100
AcDbLine
 10
384.2762050000002
 20
79.896985
 30
0.0
 11
384.2762050000002
 21
79.22585000000001
 31
0.0
  0
LINE
  5
19E02
330
17A0F
100
AcDbEntity
  8
130
100
AcDbLine
 10
472.3842925000004
 20
89.94732500000001
 30
0.0
 11
472.3842925000004
 21
92.931395
 31
0.0
  0
LINE
  5
19E03
330
17A0F
100
AcDbEntity
  8
130
100
AcDbLine
 10
423.1999999999998
 20
47.75
 30
0.0
 11
423.1999999999998
 21
46.25
 31
0.0
  0
LINE
  5
19E04
330
17A0F
100
AcDbEntity
  8
24
100
AcDbLine
 10
384.25
 20
84.1686524999999
 30
0.0
 11
384.25
 21
84.69944249999992
 31
0.0
  0
LINE
  5
19E05
330
17A0F
100
AcDbEntity
  8
130
100
AcDbLine
 10
472.3842925000004
 20
143.5157625
 30
0.0
 11
472.3607299999998
 21
143.539325
 31
0.0
  0
LINE
  5
19E06
330
17A0F
100
AcDbEntity
  8
24
100
AcDbLine
 10
455.4345024999998
 20
85.8171974999999
 30
0.0
 11
454.5654975000001
 21
85.8171974999999
 31
0.0
  0
LINE
  5
19E07
330
17A0F
100
AcDbEntity
  8
24
100
AcDbLine
 10
454.25
 20
84.1686524999999
 30
0.0
 11
454.25
 21
84.69944249999992
 31
0.0
  0
LINE
  5
19E08
330
17A0F
100
AcDbEntity
  8
1
  6
Continuous
 62
     4
100
AcDbLine
 10
628.6955325000003
 20
71.81388999999999
 30
0.0
 11
628.0272400000002
 21
71.81738999999999
 31
0.0
  0
LINE
  5
19E09
330
17A0F
100
AcDbEntity
  8
1
  6
Continuous
 62
     4
100
AcDbLine
 10
629.2198250000001
 20
70.39812749999999
 30
0.0
 11
629.6879925000001
 21
70.37113249999999
 31
0.0
  0
LINE
  5
19E0A
330
17A0F
100
AcDbEntity
  8
130
100
AcDbLine
 10
469.0
 20
-14.99999999999998
 30
0.0
 11
469.0
 21
35.0
 31
0.0
  0
LINE
  5
19E0B
330
17A0F
100
AcDbEntity
  8
17
100
AcDbLine
 10
455.0
 20
89.0
 30
0.0
 11
455.0
 21
75.0
 31
0.0
  0
LINE
  5
19E0C
330
17A0F
100
AcDbEntity
  8
1
  6
Continuous
 62
     4
100
AcDbLine
 10
618.0000000000003
 20
34.99999999999999
 30
0.0
 11
618.0000000000003
 21
-15.0
 31
0.0
  0
LINE
  5
19E0E
330
17A0F
100
AcDbEntity
  8
17
100
AcDbLine
 10
656.0000000000003
 20
88.49999999999999
 30
0.0
 11
656.0000000000003
 21
75.49999999999991
 31
0.0
  0
LINE
  5
19E11
330
17A0F
100
AcDbEntity
  8
17
100
AcDbLine
 10
455.0
 20
-54.99999999999994
 30
0.0
 11
455.0
 21
-68.99999999999997
 31
0.0
  0
LINE
  5
19E12
330
17A0F
100
AcDbEntity
  8
130
100
AcDbLine
 10
443.2395274999998
 20
83.03512000000001
 30
0.0
 11
441.7604725000002
 21
83.03512000000001
 31
0.0
  0
LINE
  5
19E13
330
17A0F
100
AcDbEntity
  8
24
100
AcDbLine
 10
419.5654975000001
 20
78.8172925000001
 30
0.0
 11
420.4345024999994
 21
78.8172925000001
 31
0.0
  0
LINE
  5
19E14
330
17A0F
100
AcDbEntity
  8
1
  6
Continuous
 62
     4
100
AcDbLine
 10
681.3349100000003
 20
-126.0419649999999
 30
0.0
 11
685.8350950000008
 21
-126.0655275
 31
0.0
  0
LINE
  5
19E15
330
17A0F
100
AcDbEntity
  8
1
  6
Continuous
 62
     4
100
AcDbLine
 10
630.7541275000009
 20
92.91976
 30
0.0
 11
628.4774125000003
 21
90.6667625
 31
0.0
  0
LINE
  5
19E16
330
17A0F
100
AcDbEntity
  8
130
100
AcDbLine
 10
467.0
 20
-72.49999999999994
 30
0.0
 11
467.0
 21
-54.99999999999994
 31
0.0
  0
LINE
  5
19E17
330
17A0F
100
AcDbEntity
  8
130
100
AcDbLine
 10
467.0
 20
92.5
 30
0.0
 11
467.0
 21
75.0
 31
0.0
  0
LINE
  5
19E19
330
17A0F
100
AcDbEntity
  8
1
  6
Continuous
 62
     4
100
AcDbLine
 10
631.0686600000003
 20
-75.32877249999998
 30
0.0
 11
628.0690350000002
 21
-75.18731249999998
 31
0.0
  0
LINE
  5
19E1B
330
17A0F
100
AcDbEntity
  8
24
100
AcDbLine
 10
384.25
 20
79.92981249999999
 30
0.0
 11
384.25
 21
80.4606025
 31
0.0
  0
LINE
  5
19E1C
330
17A0F
100
AcDbEntity
  8
1
  6
Continuous
 62
     4
100
AcDbLine
 10
633.3314400000002
 20
147.5
 30
0.0
 11
688.3400225000003
 21
147.5
 31
0.0
  0
LINE
  5
19E1D
330
17A0F
100
AcDbEntity
  8
1
  6
Continuous
 62
     4
100
AcDbLine
 10
630.0
 20
-51.49999999999998
 30
0.0
 11
630.0
 21
-40.99999999999996
 31
0.0
  0
LINE
  5
19E1E
330
17A0F
100
AcDbEntity
  8
1
  6
Continuous
 62
     4
100
AcDbLine
 10
628.6882800000001
 20
-50.42877749999995
 30
0.0
 11
628.7029200000004
 21
-53.22490249999997
 31
0.0
  0
LINE
  5
19E24
330
17A0F
100
AcDbEntity
  8
130
100
AcDbLine
 10
471.8973749999993
 20
-127.4999999999999
 30
0.0
 11
471.6093525000001
 21
-127.4999999999999
 31
0.0
  0
LINE
  5
19E25
330
17A0F
100
AcDbEntity
  8
24
100
AcDbLine
 10
455.7237949999998
 20
-65.40863999999998
 30
0.0
 11
455.7237949999998
 21
-64.73750749999995
 31
0.0
  0
LINE
  5
19E26
330
17A0F
100
AcDbEntity
  8
24
100
AcDbLine
 10
454.2762050000002
 20
-64.73750749999995
 30
0.0
 11
454.2762050000002
 21
-65.40863999999998
 31
0.0
  0
LINE
  5
19E27
330
17A0F
100
AcDbEntity
  8
130
100
AcDbLine
 10
472.1046574999994
 20
-68.49999999999996
 30
0.0
 11
472.5
 21
-68.49999999999996
 31
0.0
  0
LINE
  5
19E28
330
17A0F
100
AcDbEntity
  8
24
100
AcDbLine
 10
420.75
 20
-64.16865249999995
 30
0.0
 11
420.75
 21
-60.46060499999997
 31
0.0
  0
LINE
  5
19E29
330
17A0F
100
AcDbEntity
  8
130
100
AcDbLine
 10
396.25
 20
-60.39786749999996
 30
0.0
 11
408.75
 21
-60.39786749999996
 31
0.0
  0
LINE
  5
19E2A
330
17A0F
100
AcDbEntity
  8
24
100
AcDbLine
 10
419.2499999999998
 20
-59.92981249999994
 30
0.0
 11
419.2499999999998
 21
-60.46060499999997
 31
0.0
  0
LINE
  5
19E2B
330
17A0F
100
AcDbEntity
  8
130
100
AcDbLine
 10
368.9066750000002
 20
-53.10767999999997
 30
0.0
 11
373.75
 21
-53.10767999999997
 31
0.0
  0
LINE
  5
19E2C
330
17A0F
100
AcDbEntity
  8
24
100
AcDbLine
 10
384.25
 20
-64.16865249999995
 30
0.0
 11
384.25
 21
-64.69944499999995
 31
0.0
  0
LINE
  5
19E2D
330
17A0F
100
AcDbEntity
  8
130
100
AcDbLine
 10
472.4000000000001
 20
-126.9986974999999
 30
0.0
 11
472.4000000000001
 21
-72.93139499999996
 31
0.0
  0
LINE
  5
19E2E
330
17A0F
100
AcDbEntity
  8
130
100
AcDbLine
 10
411.5499999999996
 20
-50.39812749999994
 30
0.0
 11
428.4499999999998
 21
-50.39812749999994
 31
0.0
  0
LINE
  5
19E2F
330
17A0F
100
AcDbEntity
  8
1
  6
Continuous
 62
     4
100
AcDbLine
 10
629.8921250000002
 20
-53.15633249999997
 30
0.0
 11
629.8926800000003
 21
-53.16013749999999
 31
0.0
  0
LINE
  5
19E30
330
17A0F
100
AcDbEntity
  8
1
  6
Continuous
 62
     4
100
AcDbLine
 10
628.0822175000001
 20
-62.31724749999997
 30
0.0
 11
628.1215025000003
 21
-69.82008749999998
 31
0.0
  0
LINE
  5
19E31
330
17A0F
100
AcDbEntity
  8
1
  6
Continuous
 62
     4
100
AcDbLine
 10
686.8775250000002
 20
-127.4999999999999
 30
0.0
 11
652.5890900000002
 21
-127.4999999999999
 31
0.0
  0
LINE
  5
19E32
330
17A0F
100
AcDbEntity
  8
24
100
AcDbLine
 10
419.2499999999998
 20
84.1686524999999
 30
0.0
 11
419.2499999999998
 21
80.4606025
 31
0.0
  0
LINE
  5
19E33
330
17A0F
100
AcDbEntity
  8
1
  6
Continuous
 62
     4
100
AcDbLine
 10
632.2465800000003
 20
-69.29553749999996
 30
0.0
 11
630.0375475000005
 21
-54.15317249999997
 31
0.0
  0
LINE
  5
19E36
330
17A0F
100
AcDbEntity
  8
1
  6
Continuous
 62
     4
100
AcDbLine
 10
690.0
 20
-55.24999999999998
 30
0.0
 11
697.0000000000003
 21
-55.24999999999998
 31
0.0
  0
LINE
  5
19E38
330
17A0F
100
AcDbEntity
  8
1
  6
Continuous
 62
     4
100
AcDbLine
 10
626.2282625000002
 20
83.48500749999999
 30
0.0
 11
627.0876875000006
 21
83.35963000000001
 31
0.0
  0
LINE
  5
19E39
330
17A0F
100
AcDbEntity
  8
1
  6
Continuous
 62
     4
100
AcDbLine
 10
681.3349100000003
 20
146.0419625
 30
0.0
 11
685.8350950000008
 21
146.065525
 31
0.0
  0
LINE
  5
19E3A
330
17A0F
100
AcDbEntity
  8
1
  6
Continuous
 62
     4
100
AcDbLine
 10
628.7054250000003
 20
73.7032125
 30
0.0
 11
628.7054750000004
 21
73.71261999999998
 31
0.0
  0
LINE
  5
19E3B
330
17A0F
100
AcDbEntity
  8
1
  6
Continuous
 62
     4
100
AcDbLine
 10
628.0647250000005
 20
94.21222249999999
 30
0.0
 11
628.0673450000007
 21
94.71272250000001
 31
0.0
  0
LINE
  5
19E3E
330
17A0F
100
AcDbEntity
  8
1
  6
Continuous
 62
     4
100
AcDbLine
 10
628.0822175000001
 20
-62.31724749999997
 30
0.0
 11
628.0403300000003
 21
-54.31735499999998
 31
0.0
  0
LINE
  5
19E40
330
17A0F
100
AcDbEntity
  8
1
  6
Continuous
 62
     4
100
AcDbLine
 10
618.0000000000003
 20
-15.0
 30
0.0
 11
622.0000000000003
 21
-15.0
 31
0.0
  0
LINE
  5
19E41
330
17A0F
100
AcDbEntity
  8
130
100
AcDbLine
 10
367.6154350000002
 20
89.94732500000001
 30
0.0
 11
367.8947399999997
 21
89.2955375
 31
0.0
  0
LINE
  5
19E42
330
17A0F
100
AcDbEntity
  8
130
100
AcDbLine
 10
472.5
 20
71.5
 30
0.0
 11
472.5
 21
61.0
 31
0.0
  0
LINE
  5
19E43
330
17A0F
100
AcDbEntity
  8
130
100
AcDbLine
 10
472.1046574999994
 20
88.49999999999999
 30
0.0
 11
472.5
 21
88.49999999999999
 31
0.0
  0
LINE
  5
19E44
330
17A0F
100
AcDbEntity
  8
24
100
AcDbLine
 10
420.75
 20
84.1686524999999
 30
0.0
 11
420.75
 21
84.69944249999992
 31
0.0
  0
LINE
  5
19E45
330
17A0F
100
AcDbEntity
  8
24
100
AcDbLine
 10
454.25
 20
84.1686524999999
 30
0.0
 11
454.25
 21
80.4606025
 31
0.0
  0
LINE
  5
19E46
330
17A0F
100
AcDbEntity
  8
130
100
AcDbLine
 10
419.2499999999998
 20
46.25
 30
0.0
 11
416.8000000000001
 21
46.25
 31
0.0
  0
LINE
  5
19E47
330
17A0F
100
AcDbEntity
  8
130
100
AcDbLine
 10
371.0
 20
35.0
 30
0.0
 11
469.0
 21
35.0
 31
0.0
  0
LINE
  5
19E49
330
17A0F
100
AcDbEntity
  8
130
100
AcDbLine
 10
408.0
 20
-72.49999999999994
 30
0.0
 11
408.0
 21
-54.99999999999994
 31
0.0
  0
LINE
  5
19E4A
330
17A0F
100
AcDbEntity
  8
17
100
AcDbLine
 10
432.0
 20
-52.99999999999996
 30
0.0
 11
443.0
 21
-52.99999999999996
 31
0.0
  0
LINE
  5
19E50
330
17A0F
100
AcDbEntity
  8
130
100
AcDbLine
 10
413.0
 20
-8.5
 30
0.0
 11
413.0
 21
30.15486750000003
 31
0.0
  0
LINE
  5
19E51
330
17A0F
100
AcDbEntity
  8
24
100
AcDbLine
 10
454.2762050000002
 20
85.40863999999999
 30
0.0
 11
454.2762050000002
 21
84.73750749999998
 31
0.0
  0
LINE
  5
19E52
330
17A0F
100
AcDbEntity
  8
1
  6
Continuous
 62
     4
100
AcDbLine
 10
688.8400225000004
 20
-126.9986975
 30
0.0
 11
688.5569250000002
 21
-72.93139499999998
 31
0.0
  0
LINE
  5
19E53
330
17A0F
100
AcDbEntity
  8
130
100
AcDbLine
 10
371.0
 20
-14.99999999999998
 30
0.0
 11
469.0
 21
-14.99999999999998
 31
0.0
  0
LINE
  5
19E55
330
17A0F
100
AcDbEntity
  8
130
  6
HIDDEN
100
AcDbLine
 10
644.0000000000003
 20
-48.74999999999997
 30
0.0
 11
644.0000000000003
 21
-50.74999999999995
 31
0.0
  0
LINE
  5
19E56
330
17A0F
100
AcDbEntity
  8
24
100
AcDbLine
 10
419.2499999999998
 20
84.1686524999999
 30
0.0
 11
419.2499999999998
 21
84.69944249999992
 31
0.0
  0
LINE
  5
19E57
330
17A0F
100
AcDbEntity
  8
1
  6
Continuous
 62
     4
100
AcDbLine
 10
632.2465800000003
 20
89.2955375
 30
0.0
 11
630.0375475000005
 21
74.15316999999999
 31
0.0
  0
LINE
  5
19E58
330
17A0F
100
AcDbEntity
  8
17
100
AcDbLine
 10
397.0
 20
73.0
 30
0.0
 11
408.0
 21
73.0
 31
0.0
  0
LINE
  5
19E59
330
17A0F
100
AcDbEntity
  8
130
100
AcDbLine
 10
431.7604725000001
 20
83.03512000000001
 30
0.0
 11
431.7604725000001
 21
95.3287725000001
 31
0.0
  0
LINE
  5
19E5B
330
17A0F
100
AcDbEntity
  8
130
100
AcDbLine
 10
367.5
 20
88.49999999999999
 30
0.0
 11
367.5
 21
71.5
 31
0.0
  0
LINE
  5
19E5D
330
17A0F
100
AcDbEntity
  8
130
100
AcDbLine
 10
367.5
 20
-72.49999999999994
 30
0.0
 11
472.5
 21
-72.49999999999994
 31
0.0
  0
LINE
  5
19E5E
330
17A0F
100
AcDbEntity
  8
17
100
AcDbLine
 10
378.0
 20
82.0
 30
0.0
 11
392.0
 21
82.0
 31
0.0
  0
LINE
  5
19E5F
330
17A0F
100
AcDbEntity
  8
1
  6
Continuous
 62
     4
100
AcDbLine
 10
628.0822175000001
 20
82.31724499999989
 30
0.0
 11
628.0403300000003
 21
74.31735499999999
 31
0.0
  0
LINE
  5
19E60
330
17A0F
100
AcDbEntity
  8
130
100
AcDbLine
 10
427.0
 20
-8.5
 30
0.0
 11
427.0
 21
30.15486750000003
 31
0.0
  0
LINE
  5
19E61
330
17A0F
100
AcDbEntity
  8
17
100
AcDbLine
 10
397.0
 20
-52.99999999999996
 30
0.0
 11
408.0
 21
-52.99999999999996
 31
0.0
  0
LINE
  5
19E65
330
17A0F
100
AcDbEntity
  8
130
100
AcDbLine
 10
396.25
 20
80.39786499999991
 30
0.0
 11
396.25
 21
73.19812749999991
 31
0.0
  0
LINE
  5
19E68
330
17A0F
100
AcDbEntity
  8
24
100
AcDbLine
 10
455.7237949999998
 20
-59.89698499999997
 30
0.0
 11
455.7237949999998
 21
-59.22585249999996
 31
0.0
  0
LINE
  5
19E69
330
17A0F
100
AcDbEntity
  8
24
100
AcDbLine
 10
455.75
 20
-59.92981249999994
 30
0.0
 11
455.75
 21
-60.46060499999997
 31
0.0
  0
LINE
  5
19E6A
330
17A0F
100
AcDbEntity
  8
130
100
AcDbLine
 10
472.1052600000001
 20
-69.29553749999995
 30
0.0
 11
472.0940749999998
 21
-54.10693249999996
 31
0.0
  0
LINE
  5
19E6B
330
17A0F
100
AcDbEntity
  8
130
100
AcDbLine
 10
446.5499999999996
 20
-50.39812749999994
 30
0.0
 11
463.4499999999999
 21
-50.39812749999994
 31
0.0
  0
LINE
  5
19E6C
330
17A0F
100
AcDbEntity
  8
130
100
AcDbLine
 10
396.7604725000001
 20
-63.03512249999996
 30
0.0
 11
398.2395274999999
 21
-63.03512249999996
 31
0.0
  0
LINE
  5
19E6D
330
17A0F
100
AcDbEntity
  8
24
100
AcDbLine
 10
419.2499999999998
 20
-64.16865249999995
 30
0.0
 11
419.2499999999998
 21
-64.69944499999995
 31
0.0
  0
LINE
  5
19E6E
330
17A0F
100
AcDbEntity
  8
130
100
AcDbLine
 10
367.6154350000002
 20
-69.94732749999996
 30
0.0
 11
367.8947399999997
 21
-69.29553749999995
 31
0.0
  0
LINE
  5
19E6F
330
17A0F
100
AcDbEntity
  8
24
100
AcDbLine
 10
385.7237949999998
 20
-59.89698499999997
 30
0.0
 11
385.7237949999998
 21
-59.22585249999996
 31
0.0
  0
LINE
  5
19E70
330
17A0F
100
AcDbEntity
  8
24
100
AcDbLine
 10
385.75
 20
-59.92981249999994
 30
0.0
 11
385.75
 21
-60.46060499999997
 31
0.0
  0
LINE
  5
19E71
330
17A0F
100
AcDbEntity
  8
130
100
AcDbLine
 10
398.2395274999999
 20
-63.03512249999996
 30
0.0
 11
398.2395274999999
 21
-75.32877249999997
 31
0.0
  0
LINE
  5
19E72
330
17A0F
100
AcDbEntity
  8
1
  6
Continuous
 62
     4
100
AcDbLine
 10
626.0570975000005
 20
-73.12799749999996
 30
0.0
 11
626.0173025000007
 21
-65.52810249999996
 31
0.0
  0
LINE
  5
19E73
330
17A0F
100
AcDbEntity
  8
1
  6
Continuous
 62
     4
100
AcDbLine
 10
630.7541275000009
 20
-72.91975999999998
 30
0.0
 11
628.4774125000003
 21
-70.66676249999996
 31
0.0
  0
LINE
  5
19E74
330
17A0F
100
AcDbEntity
  8
1
  6
Continuous
 62
     4
100
AcDbLine
 10
626.2282625000002
 20
-63.48500749999995
 30
0.0
 11
627.0876875000006
 21
-63.35962999999996
 31
0.0
  0
LINE
  5
19E75
330
17A0F
100
AcDbEntity
  8
1
  6
Continuous
 62
     4
100
AcDbLine
 10
688.5231324999998
 20
-72.49999999999996
 30
0.0
 11
690.0
 21
-72.49999999999996
 31
0.0
  0
LINE
  5
19E76
330
17A0F
100
AcDbEntity
  8
1
  6
Continuous
 62
     4
100
AcDbLine
 10
631.3314425000002
 20
-125.5104724999999
 30
0.0
 11
631.3306624999999
 21
-125.3614625
 31
0.0
  0
LINE
  5
19E77
330
17A0F
100
AcDbEntity
  8
1
  6
Continuous
 62
     4
100
AcDbLine
 10
629.6955200000001
 20
-51.80865499999995
 30
0.0
 11
629.6879925000001
 21
-50.37113499999996
 31
0.0
  0
LINE
  5
19E79
330
17A0F
100
AcDbEntity
  8
24
100
AcDbLine
 10
384.5654975000002
 20
78.8172925000001
 30
0.0
 11
385.4345024999998
 21
78.8172925000001
 31
0.0
  0
LINE
  5
19E7A
330
17A0F
100
AcDbEntity
  8
17
100
AcDbLine
 10
402.5
 20
-47.49999999999995
 30
0.0
 11
402.5
 21
-58.49999999999996
 31
0.0
  0
LINE
  5
19E7B
330
17A0F
100
AcDbEntity
  8
1
  6
Continuous
 62
     4
100
AcDbLine
 10
624.5570575000004
 20
93.1242325
 30
0.0
 11
624.5170025000003
 21
85.47455749999992
 31
0.0
  0
LINE
  5
19E7C
330
17A0F
100
AcDbEntity
  8
1
  6
Continuous
 62
     4
100
AcDbLine
 10
688.5231324999998
 20
92.5
 30
0.0
 11
690.0
 21
92.5
 31
0.0
  0
LINE
  5
19E7D
330
17A0F
100
AcDbEntity
  8
1
  6
Continuous
 62
     4
100
AcDbLine
 10
631.3314425000002
 20
145.5104725
 30
0.0
 11
631.3306624999999
 21
145.36146
 31
0.0
  0
LINE
  5
19E7E
330
17A0F
100
AcDbEntity
  8
1
  6
Continuous
 62
     4
100
AcDbLine
 10
629.8921250000002
 20
73.15633
 30
0.0
 11
629.6955200000001
 21
71.80865500000002
 31
0.0
  0
LINE
  5
19E7F
330
17A0F
100
AcDbEntity
  8
1
  6
Continuous
 62
     4
100
AcDbLine
 10
627.0876875000006
 20
83.35963000000001
 30
0.0
 11
628.0822175000001
 21
83.35963000000001
 31
0.0
  0
LINE
  5
19E83
330
17A0F
100
AcDbEntity
  8
130
100
AcDbLine
 10
409.0
 20
35.0
 30
0.0
 11
409.0
 21
-14.99999999999998
 31
0.0
  0
LINE
  5
19E84
330
17A0F
100
AcDbEntity
  8
24
100
AcDbLine
 10
385.75
 20
84.1686524999999
 30
0.0
 11
385.75
 21
84.69944249999992
 31
0.0
  0
LINE
  5
19E85
330
17A0F
100
AcDbEntity
  8
130
100
AcDbLine
 10
472.5
 20
71.5
 30
0.0
 11
472.5
 21
88.49999999999999
 31
0.0
  0
LINE
  5
19E86
330
17A0F
100
AcDbEntity
  8
130
100
AcDbLine
 10
367.6157074999996
 20
92.931395
 30
0.0
 11
367.6157074999996
 21
89.94732500000001
 31
0.0
  0
LINE
  5
19E87
330
17A0F
100
AcDbEntity
  8
24
100
AcDbLine
 10
385.7237949999998
 20
79.22585000000001
 30
0.0
 11
385.7237949999998
 21
79.896985
 31
0.0
  0
LINE
  5
19E88
330
17A0F
100
AcDbEntity
  8
24
100
AcDbLine
 10
419.2499999999998
 20
79.92981249999999
 30
0.0
 11
419.2499999999998
 21
80.4606025
 31
0.0
  0
LINE
  5
19E89
330
17A0F
100
AcDbEntity
  8
24
100
AcDbLine
 10
455.75
 20
84.1686524999999
 30
0.0
 11
455.75
 21
84.69944249999992
 31
0.0
  0
LINE
  5
19E8A
330
17A0F
100
AcDbEntity
  8
17
100
AcDbLine
 10
448.0
 20
82.0
 30
0.0
 11
462.0
 21
82.0
 31
0.0
  0
LINE
  5
19E8B
330
17A0F
100
AcDbEntity
  8
130
100
AcDbLine
 10
408.0
 20
92.5
 30
0.0
 11
408.0
 21
75.0
 31
0.0
  0
LINE
  5
19E8C
330
17A0F
100
AcDbEntity
  8
1
  6
Continuous
 62
     4
100
AcDbLine
 10
628.0690350000002
 20
95.1873125
 30
0.0
 11
626.4628175000003
 21
95.11156249999999
 31
0.0
  0
LINE
  5
19E8D
330
17A0F
100
AcDbEntity
  8
130
100
AcDbLine
 10
367.5
 20
61.0
 30
0.0
 11
472.5
 21
61.0
 31
0.0
  0
LINE
  5
19E8F
330
17A0F
100
AcDbEntity
  8
1
  6
Continuous
 62
     4
100
AcDbLine
 10
690.0
 20
92.5
 30
0.0
 11
690.0
 21
-72.49999999999996
 31
0.0
  0
LINE
  5
19E90
330
17A0F
100
AcDbEntity
  8
17
100
AcDbLine
 10
670.0
 20
92.5
 30
0.0
 11
670.0
 21
71.5
 31
0.0
  0
LINE
  5
19E91
330
17A0F
100
AcDbEntity
  8
17
100
AcDbLine
 10
664.0000000000003
 20
74.30000000000001
 30
0.0
 11
666.0000000000003
 21
74.30000000000001
 31
0.0
  0
LINE
  5
19E92
330
17A0F
100
AcDbEntity
  8
130
  6
HIDDEN
100
AcDbLine
 10
644.0000000000003
 20
-55.24999999999998
 30
0.0
 11
690.0
 21
-55.24999999999998
 31
0.0
  0
LINE
  5
19E94
330
17A0F
100
AcDbEntity
  8
130
100
AcDbLine
 10
413.0
 20
-8.5
 30
0.0
 11
427.0
 21
-8.5
 31
0.0
  0
LINE
  5
19E95
330
17A0F
100
AcDbEntity
  8
130
100
AcDbLine
 10
408.75
 20
73.19812749999991
 30
0.0
 11
408.75
 21
80.39786499999991
 31
0.0
  0
LINE
  5
19E96
330
17A0F
100
AcDbEntity
  8
17
100
AcDbLine
 10
413.0
 20
-61.99999999999994
 30
0.0
 11
427.0
 21
-61.99999999999994
 31
0.0
  0
LINE
  5
19E97
330
17A0F
100
AcDbEntity
  8
130
100
AcDbLine
 10
392.0
 20
-49.99999999999995
 30
0.0
 11
378.0
 21
-49.99999999999995
 31
0.0
  0
LINE
  5
19E9A
330
17A0F
100
AcDbEntity
  8
130
100
AcDbLine
 10
367.5
 20
-40.99999999999996
 30
0.0
 11
472.5
 21
-40.99999999999996
 31
0.0
  0
LINE
  5
19E9B
330
17A0F
100
AcDbEntity
  8
130
100
AcDbLine
 10
397.0
 20
92.5
 30
0.0
 11
397.0
 21
75.0
 31
0.0
  0
LINE
  5
19E9D
330
17A0F
100
AcDbEntity
  8
130
100
AcDbLine
 10
367.8947399999997
 20
89.2955375
 30
0.0
 11
367.905925
 21
74.10693000000001
 31
0.0
  0
LINE
  5
19E9E
330
17A0F
100
AcDbEntity
  8
1
  6
Continuous
 62
     4
100
AcDbLine
 10
611.5000000000005
 20
-12.5
 30
0.0
 11
618.0000000000003
 21
-12.5
 31
0.0
  0
ARC
  5
19EBB
330
17A0F
100
AcDbEntity
  8
130
100
AcDbCircle
 10
-378.0
 20
-54.99999999999994
 30
0.0
 40
5.0
210
0.0
220
0.0
230
-1.0
100
AcDbArc
 50
0.0
 51
90.0
  0
ARC
  5
19EBC
330
17A0F
100
AcDbEntity
  8
130
100
AcDbCircle
 10
427.0
 20
75.0
 30
0.0
 40
5.0
100
AcDbArc
 50
270.0
 51
0.0
  0
CIRCLE
  5
19EBD
330
17A0F
100
AcDbEntity
  8
24
100
AcDbCircle
 10
437.5
 20
-52.99999999999996
 30
0.0
 40
4.0
  0
ARC
  5
19EBE
330
17A0F
100
AcDbEntity
  8
1
  6
Continuous
 62
     4
100
AcDbCircle
 10
629.3214850000002
 20
89.81380249999999
 30
0.0
 40
1.199999999999999
100
AcDbArc
 50
134.7000009999995
 51
179.7000000000005
  0
ARC
  5
19EC1
330
17A0F
100
AcDbEntity
  8
130
100
AcDbCircle
 10
393.4499999999999
 20
-53.19812749999996
 30
0.0
 40
2.799999999999998
100
AcDbArc
 50
0.0
 51
90.0
  0
ARC
  5
19EC2
330
17A0F
100
AcDbEntity
  8
130
100
AcDbCircle
 10
-420.0
 20
47.0
 30
0.0
 40
5.0
210
0.0
220
0.0
230
-1.0
100
AcDbArc
 50
180.0
 51
0.0
  0
CIRCLE
  5
19EC6
330
17A0F
100
AcDbEntity
  8
24
100
AcDbCircle
 10
455.0
 20
82.0
 30
0.0
 40
5.0
  0
ARC
  5
19EC7
330
17A0F
100
AcDbEntity
  8
130
100
AcDbCircle
 10
-413.0
 20
-54.99999999999994
 30
0.0
 40
5.0
210
0.0
220
0.0
230
-1.0
100
AcDbArc
 50
0.0
 51
90.0
  0
ARC
  5
19EC8
330
17A0F
100
AcDbEntity
  8
130
100
AcDbCircle
 10
462.0
 20
75.0
 30
0.0
 40
5.0
100
AcDbArc
 50
270.0
 51
0.0
  0
ARC
  5
19EC9
330
17A0F
100
AcDbEntity
  8
130
100
AcDbCircle
 10
376.5499999999997
 20
73.19812749999991
 30
0.0
 40
2.799999999999998
100
AcDbArc
 50
181.8511280000003
 51
270.0
  0
ARC
  5
19ECA
330
17A0F
100
AcDbEntity
  8
130
100
AcDbCircle
 10
446.5499999999996
 20
-53.19812749999996
 30
0.0
 40
2.799999999999998
100
AcDbArc
 50
90.0
 51
180.0
  0
CIRCLE
  5
19ECB
330
17A0F
100
AcDbEntity
  8
24
100
AcDbCircle
 10
437.5
 20
73.0
 30
0.0
 40
4.0
  0
CIRCLE
  5
19ECC
330
17A0F
100
AcDbEntity
  8
24
100
AcDbCircle
 10
420.0
 20
-61.99999999999994
 30
0.0
 40
5.0
  0
ARC
  5
19ECD
330
17A0F
100
AcDbEntity
  8
130
100
AcDbCircle
 10
393.4499999999999
 20
73.19812749999991
 30
0.0
 40
2.799999999999998
100
AcDbArc
 50
270.0
 51
0.0
  0
CIRCLE
  5
19ECF
330
17A0F
100
AcDbEntity
  8
24
100
AcDbCircle
 10
455.0
 20
-61.99999999999994
 30
0.0
 40
5.0
  0
ARC
  5
19ED0
330
17A0F
100
AcDbEntity
  8
130
100
AcDbCircle
 10
-448.0
 20
-54.99999999999994
 30
0.0
 40
5.0
210
0.0
220
0.0
230
-1.0
100
AcDbArc
 50
0.0
 51
90.0
  0
ARC
  5
19ED1
330
17A0F
100
AcDbEntity
  8
130
100
AcDbCircle
 10
-420.0
 20
47.0
 30
0.0
 40
5.0
210
0.0
220
0.0
230
-1.0
100
AcDbArc
 50
0.0
 51
180.0
  0
ARC
  5
19ED3
330
17A0F
100
AcDbEntity
  8
1
  6
Continuous
 62
     4
100
AcDbCircle
 10
688.3400225000003
 20
-126.9999999999999
 30
0.0
 40
0.5
100
AcDbArc
 50
270.0
 51
0.149214000000176
  0
ARC
  5
19ED4
330
17A0F
100
AcDbEntity
  8
30
100
AcDbCircle
 10
626.0000000000003
 20
9.999999999999985
 30
0.0
 40
31.0
100
AcDbArc
 50
160.0000000000012
 51
180.0
  0
ARC
  5
19ED6
330
17A0F
100
AcDbEntity
  8
130
100
AcDbCircle
 10
428.4499999999998
 20
73.19812749999991
 30
0.0
 40
2.799999999999998
100
AcDbArc
 50
270.0
 51
0.0
  0
ARC
  5
19ED8
330
17A0F
100
AcDbEntity
  8
130
100
AcDbCircle
 10
378.0
 20
75.0
 30
0.0
 40
5.0
100
AcDbArc
 50
180.0
 51
270.0
  0
ARC
  5
19ED9
330
17A0F
100
AcDbEntity
  8
130
100
AcDbCircle
 10
-392.0
 20
-54.99999999999994
 30
0.0
 40
5.0
210
0.0
220
0.0
230
-1.0
100
AcDbArc
 50
90.0
 51
180.0
  0
ARC
  5
19EDA
330
17A0F
100
AcDbEntity
  8
130
100
AcDbCircle
 10
376.5499999999997
 20
-53.19812749999996
 30
0.0
 40
2.799999999999998
100
AcDbArc
 50
90.0
 51
178.1488719999996
  0
ARC
  5
19EDD
330
17A0F
100
AcDbEntity
  8
130
100
AcDbCircle
 10
420.0
 20
47.0
 30
0.0
 40
5.25
100
AcDbArc
 50
180.0
 51
0.0
  0
CIRCLE
  5
19EDE
330
17A0F
100
AcDbEntity
  8
24
100
AcDbCircle
 10
385.0
 20
82.0
 30
0.0
 40
5.0
  0
ARC
  5
19EDF
330
17A0F
100
AcDbEntity
  8
1
  6
Continuous
 62
     4
100
AcDbCircle
 10
-688.3400225000003
 20
147.0
 30
0.0
 40
0.5
210
0.0
220
0.0
230
-1.0
100
AcDbArc
 50
90.0
 51
180.1492140000001
  0
CIRCLE
  5
19EE0
330
17A0F
100
AcDbEntity
  8
24
100
AcDbCircle
 10
402.5
 20
73.0
 30
0.0
 40
4.0
  0
ARC
  5
19EE1
330
17A0F
100
AcDbEntity
  8
130
100
AcDbCircle
 10
413.0
 20
75.0
 30
0.0
 40
5.0
100
AcDbArc
 50
180.0
 51
270.0
  0
ARC
  5
19EE2
330
17A0F
100
AcDbEntity
  8
130
100
AcDbCircle
 10
-427.0
 20
-54.99999999999994
 30
0.0
 40
5.0
210
0.0
220
0.0
230
-1.0
100
AcDbArc
 50
90.0
 51
180.0
  0
ARC
  5
19EE3
330
17A0F
100
AcDbEntity
  8
130
100
AcDbCircle
 10
411.5499999999996
 20
-53.19812749999996
 30
0.0
 40
2.799999999999998
100
AcDbArc
 50
90.0
 51
180.0
  0
ARC
  5
19EE4
330
17A0F
100
AcDbEntity
  8
130
100
AcDbCircle
 10
463.4499999999999
 20
-53.19812749999996
 30
0.0
 40
2.799999999999998
100
AcDbArc
 50
1.851128000000358
 51
90.0
  0
ARC
  5
19EE5
330
17A0F
100
AcDbEntity
  8
130
100
AcDbCircle
 10
420.0
 20
47.0
 30
0.0
 40
5.25
100
AcDbArc
 50
0.0
 51
180.0
  0
ARC
  5
19EE6
330
17A0F
100
AcDbEntity
  8
130
100
AcDbCircle
 10
463.4499999999999
 20
73.19812749999991
 30
0.0
 40
2.799999999999998
100
AcDbArc
 50
270.0
 51
358.1488719999996
  0
ARC
  5
19EE8
330
17A0F
100
AcDbEntity
  8
130
100
AcDbCircle
 10
448.0
 20
75.0
 30
0.0
 40
5.0
100
AcDbArc
 50
180.0
 51
270.0
  0
CIRCLE
  5
19EE9
330
17A0F
100
AcDbEntity
  8
24
100
AcDbCircle
 10
420.0
 20
82.0
 30
0.0
 40
5.0
  0
ARC
  5
19EEA
330
17A0F
100
AcDbEntity
  8
130
100
AcDbCircle
 10
446.5499999999996
 20
73.19812749999991
 30
0.0
 40
2.799999999999998
100
AcDbArc
 50
180.0
 51
270.0
  0
CIRCLE
  5
19EEB
330
17A0F
100
AcDbEntity
  8
24
100
AcDbCircle
 10
402.5
 20
-52.99999999999996
 30
0.0
 40
4.0
  0
ARC
  5
19EEC
330
17A0F
100
AcDbEntity
  8
130
100
AcDbCircle
 10
428.4499999999998
 20
-53.19812749999996
 30
0.0
 40
2.799999999999998
100
AcDbArc
 50
0.0
 51
90.0
  0
ARC
  5
19EED
330
17A0F
100
AcDbEntity
  8
1
  6
Continuous
 62
     4
100
AcDbCircle
 10
-629.3214850000002
 20
-69.813805
 30
0.0
 40
1.199999999999999
210
0.0
220
0.0
230
-1.0
100
AcDbArc
 50
314.7000009999997
 51
359.7000000000005
  0
ARC
  5
19EEE
330
17A0F
100
AcDbEntity
  8
130
100
AcDbCircle
 10
411.5499999999996
 20
73.19812749999991
 30
0.0
 40
2.799999999999998
100
AcDbArc
 50
180.0
 51
270.0
  0
ARC
  5
19EF1
330
17A0F
100
AcDbEntity
  8
130
100
AcDbCircle
 10
392.0
 20
75.0
 30
0.0
 40
5.0
100
AcDbArc
 50
270.0
 51
0.0
  0
CIRCLE
  5
19EF2
330
17A0F
100
AcDbEntity
  8
24
100
AcDbCircle
 10
385.0
 20
-61.99999999999994
 30
0.0
 40
5.0
  0
ARC
  5
19EF3
330
17A0F
100
AcDbEntity
  8
130
100
AcDbCircle
 10
-462.0
 20
-54.99999999999994
 30
0.0
 40
5.0
210
0.0
220
0.0
230
-1.0
100
AcDbArc
 50
90.0
 51
180.0
  0
ARC
  5
19EF4
330
17A0F
100
AcDbEntity
  8
1
  6
Continuous
 62
     4
100
AcDbCircle
 10
628.5673375000003
 20
94.710105
 30
0.0
 40
0.5
100
AcDbArc
 50
92.68180200000415
 51
179.7000000000005
  0
ELLIPSE
  5
19F05
330
17A0F
100
AcDbEntity
  8
24
100
AcDbEllipse
 10
385.0
 20
-62.31462749999997
 30
0.0
 11
-2.500000000000029
 21
0.0
 31
0.0
210
0.0
220
0.0
230
1.0
 40
0.9999859999999999
 41
1.87548898081035
 42
4.407696326369235
  0
ELLIPSE
  5
19F06
330
17A0F
100
AcDbEntity
  8
24
100
AcDbEllipse
 10
420.0
 20
-62.31462749999997
 30
0.0
 11
-1.999999999998958
 21
0.0
 31
0.0
210
0.0
220
0.0
230
1.0
 40
0.9999859999999999
 41
1.955193101290203
 42
3.141592653589792
  0
ELLIPSE
  5
19F07
330
17A0F
100
AcDbEntity
  8
24
100
AcDbEllipse
 10
385.0
 20
82.31462749999991
 30
0.0
 11
2.500000000000029
 21
0.0
 31
0.0
210
0.0
220
0.0
230
1.0
 40
0.9999859999999999
 41
1.87548898081035
 42
4.407696326369235
  0
ELLIPSE
  5
19F08
330
17A0F
100
AcDbEntity
  8
24
100
AcDbEllipse
 10
385.0
 20
82.31462749999991
 30
0.0
 11
1.999999999999753
 21
0.0
 31
0.0
210
0.0
220
0.0
230
1.0
 40
0.9999859999999999
 41
5.096785754880237
 42
6.283185307179584
  0
ELLIPSE
  5
19F09
330
17A0F
100
AcDbEntity
  8
130
100
AcDbEllipse
 10
471.8973749999993
 20
-126.9999999999999
 30
0.0
 11
-0.5026248356981805
 21
0.0
 31
0.0
210
0.0
220
0.0
230
-1.0
 40
0.9947779999999999
 41
3.138988386068108
 42
4.712388980384688
  0
ELLIPSE
  5
19F0A
330
17A0F
100
AcDbEntity
  8
24
100
AcDbEllipse
 10
455.0
 20
82.31462749999991
 30
0.0
 11
2.500000000000029
 21
0.0
 31
0.0
210
0.0
220
0.0
230
1.0
 40
0.9999859999999999
 41
5.017081634400143
 42
7.549288979959027
  0
ELLIPSE
  5
19F0B
330
17A0F
100
AcDbEntity
  8
24
100
AcDbEllipse
 10
419.5766149999998
 20
79.24155249999998
 30
0.0
 11
0.022220112782725
 21
0.4239676053302536
 31
0.0
210
0.0
220
0.0
230
-1.0
 40
0.7066310000000005
 41
3.104575069493698
 42
4.638355834485161
  0
ELLIPSE
  5
19F0C
330
17A0F
100
AcDbEntity
  8
24
100
AcDbEllipse
 10
420.0
 20
82.31462749999991
 30
0.0
 11
2.500000000000029
 21
0.0
 31
0.0
210
0.0
220
0.0
230
1.0
 40
0.9999859999999999
 41
1.87548898081035
 42
4.407696326369235
  0
ELLIPSE
  5
19F0D
330
17A0F
100
AcDbEntity
  8
24
100
AcDbEllipse
 10
455.0
 20
-62.31462749999997
 30
0.0
 11
-2.500000000000029
 21
0.0
 31
0.0
210
0.0
220
0.0
230
1.0
 40
0.9999859999999999
 41
1.87548898081035
 42
4.407696326369235
  0
ELLIPSE
  5
19F0E
330
17A0F
100
AcDbEntity
  8
24
100
AcDbEllipse
 10
455.4233849999993
 20
-59.24155249999997
 30
0.0
 11
-0.022220112782725
 21
-0.4239676053302536
 31
0.0
210
0.0
220
0.0
230
-1.0
 40
0.7066310000000005
 41
3.104575069493698
 42
4.638355834485161
  0
ELLIPSE
  5
19F0F
330
17A0F
100
AcDbEntity
  8
24
100
AcDbEllipse
 10
385.4233849999996
 20
-65.39293999999997
 30
0.0
 11
0.022220112781077
 21
-0.423967605328958
 31
0.0
210
0.0
220
0.0
230
-1.0
 40
0.7066309999999999
 41
4.786422126275656
 42
6.320202891283789
  0
ELLIPSE
  5
19F10
330
17A0F
100
AcDbEntity
  8
130
100
AcDbEllipse
 10
471.0940625000001
 20
74.10693000000001
 30
0.0
 11
0.9275576936963002
 21
0.3741139704086083
 31
0.0
210
0.0
220
0.0
230
1.0
 40
0.9989399999999998
 41
4.328645169049051
 42
5.899441495843067
  0
ELLIPSE
  5
19F11
330
17A0F
100
AcDbEntity
  8
24
100
AcDbEllipse
 10
420.0
 20
-62.31462749999997
 30
0.0
 11
-2.500000000000029
 21
0.0
 31
0.0
210
0.0
220
0.0
230
1.0
 40
0.9999859999999999
 41
1.87548898081035
 42
4.407696326369235
  0
ELLIPSE
  5
19F12
330
17A0F
100
AcDbEntity
  8
24
100
AcDbEllipse
 10
384.576615
 20
79.24155249999998
 30
0.0
 11
0.022220112782725
 21
0.4239676053302536
 31
0.0
210
0.0
220
0.0
230
-1.0
 40
0.7066310000000005
 41
3.104575069493698
 42
4.638355834485161
  0
ELLIPSE
  5
19F13
330
17A0F
100
AcDbEntity
  8
24
100
AcDbEllipse
 10
455.0
 20
82.31462749999991
 30
0.0
 11
1.999999999999753
 21
0.0
 31
0.0
210
0.0
220
0.0
230
1.0
 40
0.9999859999999999
 41
5.096785754880237
 42
6.283185307179584
  0
ELLIPSE
  5
19F14
330
17A0F
100
AcDbEntity
  8
24
100
AcDbEllipse
 10
455.4233849999993
 20
85.39293999999989
 30
0.0
 11
0.0222201127826568
 21
0.423967605328947
 31
0.0
210
0.0
220
0.0
230
-1.0
 40
0.706631
 41
6.246167723085222
 42
7.77994848808035
  0
ELLIPSE
  5
19F15
330
17A0F
100
AcDbEntity
  8
24
100
AcDbEllipse
 10
420.0
 20
-62.31462749999997
 30
0.0
 11
-2.500000000000029
 21
0.0
 31
0.0
210
0.0
220
0.0
230
1.0
 40
0.9999859999999999
 41
5.017081634400143
 42
7.549288979959027
  0
ELLIPSE
  5
19F16
330
17A0F
100
AcDbEntity
  8
24
100
AcDbEllipse
 10
385.0
 20
-62.31462749999997
 30
0.0
 11
-1.999999999998958
 21
0.0
 31
0.0
210
0.0
220
0.0
230
1.0
 40
0.9999859999999999
 41
1.955193101290203
 42
3.141592653589792
  0
ELLIPSE
  5
19F17
330
17A0F
100
AcDbEntity
  8
24
100
AcDbEllipse
 10
455.0
 20
-62.31462749999997
 30
0.0
 11
-1.999999999999755
 21
0.0
 31
0.0
210
0.0
220
0.0
230
1.0
 40
0.9999859999999999
 41
0.0
 42
1.186399552299344
  0
ELLIPSE
  5
19F18
330
17A0F
100
AcDbEntity
  8
24
100
AcDbEllipse
 10
420.4233849999996
 20
-65.39293999999997
 30
0.0
 11
0.022220112781077
 21
-0.423967605328958
 31
0.0
210
0.0
220
0.0
230
-1.0
 40
0.7066309999999999
 41
4.786422126275656
 42
6.320202891283789
  0
ELLIPSE
  5
19F19
330
17A0F
100
AcDbEntity
  8
24
100
AcDbEllipse
 10
420.0
 20
82.31462749999991
 30
0.0
 11
1.999999999998959
 21
0.0
 31
0.0
210
0.0
220
0.0
230
1.0
 40
0.9999859999999999
 41
1.955193101290203
 42
3.141592653589792
  0
ELLIPSE
  5
19F1A
330
17A0F
100
AcDbEntity
  8
24
100
AcDbEllipse
 10
455.0
 20
82.31462749999991
 30
0.0
 11
2.500000000000029
 21
0.0
 31
0.0
210
0.0
220
0.0
230
1.0
 40
0.9999859999999999
 41
1.87548898081035
 42
4.407696326369235
  0
ELLIPSE
  5
19F1B
330
17A0F
100
AcDbEntity
  8
24
100
AcDbEllipse
 10
454.5766149999998
 20
79.24155249999998
 30
0.0
 11
0.022220112782725
 21
0.4239676053302536
 31
0.0
210
0.0
220
0.0
230
-1.0
 40
0.7066310000000005
 41
3.104575069493698
 42
4.638355834485161
  0
ELLIPSE
  5
19F1C
330
17A0F
100
AcDbEntity
  8
24
100
AcDbEllipse
 10
455.0
 20
-62.31462749999997
 30
0.0
 11
-1.999999999999753
 21
0.0
 31
0.0
210
0.0
220
0.0
230
1.0
 40
0.9999859999999999
 41
5.096785754880237
 42
6.283185307179584
  0
ELLIPSE
  5
19F1D
330
17A0F
100
AcDbEntity
  8
24
100
AcDbEllipse
 10
385.4233849999996
 20
79.24155249999998
 30
0.0
 11
-0.0222201127824573
 21
0.4239676053300406
 31
0.0
210
0.0
220
0.0
230
-1.0
 40
0.706631
 41
1.644829472690537
 42
3.178610237695626
  0
ELLIPSE
  5
19F1E
330
17A0F
100
AcDbEntity
  8
130
100
AcDbEllipse
 10
471.8973749999993
 20
147.0
 30
0.0
 11
0.5026248356989115
 21
0.0
 31
0.0
210
0.0
220
0.0
230
-1.0
 40
0.9947780000000001
 41
4.712388980384688
 42
6.285789575597027
  0
ELLIPSE
  5
19F1F
330
17A0F
100
AcDbEntity
  8
24
100
AcDbEllipse
 10
385.0
 20
-62.31462749999997
 30
0.0
 11
-1.999999999999753
 21
0.0
 31
0.0
210
0.0
220
0.0
230
1.0
 40
0.9999859999999999
 41
5.096785754880237
 42
6.283185307179584
  0
ELLIPSE
  5
19F20
330
17A0F
100
AcDbEntity
  8
24
100
AcDbEllipse
 10
419.5766149999998
 20
-59.24155249999997
 30
0.0
 11
0.0222201127811375
 21
-0.4239676053301101
 31
0.0
210
0.0
220
0.0
230
-1.0
 40
0.7066310000000004
 41
1.644829472690537
 42
3.178610237695626
  0
ELLIPSE
  5
19F21
330
17A0F
100
AcDbEntity
  8
24
100
AcDbEllipse
 10
455.4233849999993
 20
-65.39293999999997
 30
0.0
 11
0.022220112781077
 21
-0.423967605328958
 31
0.0
210
0.0
220
0.0
230
-1.0
 40
0.7066309999999999
 41
4.786422126275656
 42
6.320202891283789
  0
ELLIPSE
  5
19F22
330
17A0F
100
AcDbEntity
  8
24
100
AcDbEllipse
 10
385.0
 20
-62.31462749999997
 30
0.0
 11
-1.999999999999754
 21
0.0
 31
0.0
210
0.0
220
0.0
230
1.0
 40
0.9999859999999999
 41
3.141592653589792
 42
4.327992205889136
  0
ELLIPSE
  5
19F23
330
17A0F
100
AcDbEntity
  8
24
100
AcDbEllipse
 10
419.5766149999998
 20
85.39293999999989
 30
0.0
 11
-0.0222201127823968
 21
0.4239676053288888
 31
0.0
210
0.0
220
0.0
230
-1.0
 40
0.7066309999999999
 41
4.786422126275656
 42
6.320202891283789
  0
ELLIPSE
  5
19F24
330
17A0F
100
AcDbEntity
  8
24
100
AcDbEllipse
 10
420.0
 20
82.31462749999991
 30
0.0
 11
1.999999999999754
 21
0.0
 31
0.0
210
0.0
220
0.0
230
1.0
 40
0.9999859999999999
 41
3.141592653589792
 42
4.327992205889136
  0
ELLIPSE
  5
19F25
330
17A0F
100
AcDbEntity
  8
24
100
AcDbEllipse
 10
455.0
 20
82.31462749999991
 30
0.0
 11
1.999999999999755
 21
0.0
 31
0.0
210
0.0
220
0.0
230
1.0
 40
0.9999859999999999
 41
0.0
 42
1.186399552299344
  0
ELLIPSE
  5
19F26
330
17A0F
100
AcDbEntity
  8
24
100
AcDbEllipse
 10
385.0
 20
82.31462749999991
 30
0.0
 11
2.500000000000029
 21
0.0
 31
0.0
210
0.0
220
0.0
230
1.0
 40
0.9999859999999999
 41
5.017081634400143
 42
7.549288979959027
  0
ELLIPSE
  5
19F27
330
17A0F
100
AcDbEntity
  8
24
100
AcDbEllipse
 10
454.5766149999998
 20
-59.24155249999997
 30
0.0
 11
0.0222201127811375
 21
-0.4239676053301101
 31
0.0
210
0.0
220
0.0
230
-1.0
 40
0.7066310000000004
 41
1.644829472690537
 42
3.178610237695626
  0
ELLIPSE
  5
19F28
330
17A0F
100
AcDbEntity
  8
130
100
AcDbEllipse
 10
368.9059374999997
 20
-54.10693249999996
 30
0.0
 11
-0.9275576936963002
 21
-0.3741139704086083
 31
0.0
210
0.0
220
0.0
230
1.0
 40
0.9989399999999998
 41
4.328645169049051
 42
5.899441495843067
  0
ELLIPSE
  5
19F29
330
17A0F
100
AcDbEntity
  8
24
100
AcDbEllipse
 10
419.5766149999998
 20
-65.39293999999997
 30
0.0
 11
-0.0222201127826568
 21
-0.423967605328947
 31
0.0
210
0.0
220
0.0
230
-1.0
 40
0.706631
 41
6.246167723085222
 42
7.77994848808035
  0
ELLIPSE
  5
19F2A
330
17A0F
100
AcDbEntity
  8
1
  6
Continuous
 62
     4
100
AcDbEllipse
 10
685.5569650000002
 20
-72.94710249999997
 30
0.0
 11
-3.000000001074373
 21
-0.0157079017014028
 31
0.0
210
0.0
220
0.0
230
-1.0
 40
0.9999859999999999
 41
1.58824962271501
 42
3.141592656990133
  0
ELLIPSE
  5
19F2B
330
17A0F
100
AcDbEntity
  8
24
100
AcDbEllipse
 10
384.576615
 20
-65.39293999999997
 30
0.0
 11
-0.0222201127826568
 21
-0.423967605328947
 31
0.0
210
0.0
220
0.0
230
-1.0
 40
0.706631
 41
6.246167723085222
 42
7.77994848808035
  0
ELLIPSE
  5
19F2C
330
17A0F
100
AcDbEntity
  8
24
100
AcDbEllipse
 10
385.4233849999996
 20
-59.24155249999997
 30
0.0
 11
-0.022220112782725
 21
-0.4239676053302536
 31
0.0
210
0.0
220
0.0
230
-1.0
 40
0.7066310000000005
 41
3.104575069493698
 42
4.638355834485161
  0
ELLIPSE
  5
19F2D
330
17A0F
100
AcDbEntity
  8
24
100
AcDbEllipse
 10
420.4233849999996
 20
-59.24155249999997
 30
0.0
 11
-0.022220112782725
 21
-0.4239676053302536
 31
0.0
210
0.0
220
0.0
230
-1.0
 40
0.7066310000000005
 41
3.104575069493698
 42
4.638355834485161
  0
ELLIPSE
  5
19F2E
330
17A0F
100
AcDbEntity
  8
24
100
AcDbEllipse
 10
420.4233849999996
 20
79.24155249999998
 30
0.0
 11
-0.0222201127824573
 21
0.4239676053300406
 31
0.0
210
0.0
220
0.0
230
-1.0
 40
0.706631
 41
1.644829472690537
 42
3.178610237695626
  0
ELLIPSE
  5
19F2F
330
17A0F
100
AcDbEntity
  8
24
100
AcDbEllipse
 10
455.0
 20
82.31462749999991
 30
0.0
 11
1.999999999998959
 21
0.0
 31
0.0
210
0.0
220
0.0
230
1.0
 40
0.9999859999999999
 41
1.955193101290203
 42
3.141592653589792
  0
ELLIPSE
  5
19F30
330
17A0F
100
AcDbEntity
  8
1
  6
Continuous
 62
     4
100
AcDbEllipse
 10
685.5569650000002
 20
92.94710249999999
 30
0.0
 11
-3.000000001074373
 21
0.0157079017014028
 31
0.0
210
0.0
220
0.0
230
1.0
 40
0.9999859999999999
 41
1.58824962271501
 42
3.141592656990133
  0
ELLIPSE
  5
19F31
330
17A0F
100
AcDbEntity
  8
24
100
AcDbEllipse
 10
385.0
 20
82.31462749999991
 30
0.0
 11
1.999999999998959
 21
0.0
 31
0.0
210
0.0
220
0.0
230
1.0
 40
0.9999859999999999
 41
1.955193101290203
 42
3.141592653589792
  0
ELLIPSE
  5
19F32
330
17A0F
100
AcDbEntity
  8
24
100
AcDbEllipse
 10
385.4233849999996
 20
85.39293999999989
 30
0.0
 11
0.0222201127826568
 21
0.423967605328947
 31
0.0
210
0.0
220
0.0
230
-1.0
 40
0.706631
 41
6.246167723085222
 42
7.77994848808035
  0
ELLIPSE
  5
19F33
330
17A0F
100
AcDbEntity
  8
24
100
AcDbEllipse
 10
420.0
 20
82.31462749999991
 30
0.0
 11
1.999999999999755
 21
0.0
 31
0.0
210
0.0
220
0.0
230
1.0
 40
0.9999859999999999
 41
0.0
 42
1.186399552299344
  0
ELLIPSE
  5
19F34
330
17A0F
100
AcDbEntity
  8
24
100
AcDbEllipse
 10
420.0
 20
-62.31462749999997
 30
0.0
 11
-1.999999999999753
 21
0.0
 31
0.0
210
0.0
220
0.0
230
1.0
 40
0.9999859999999999
 41
5.096785754880237
 42
6.283185307179584
  0
ELLIPSE
  5
19F35
330
17A0F
100
AcDbEntity
  8
130
100
AcDbEllipse
 10
368.1026250000004
 20
-126.9999999999999
 30
0.0
 11
-0.5026248356989115
 21
0.0
 31
0.0
210
0.0
220
0.0
230
-1.0
 40
0.9947780000000001
 41
4.712388980384688
 42
6.285789575597027
  0
ELLIPSE
  5
19F36
330
17A0F
100
AcDbEntity
  8
24
100
AcDbEllipse
 10
420.0
 20
-62.31462749999997
 30
0.0
 11
-1.999999999999755
 21
0.0
 31
0.0
210
0.0
220
0.0
230
1.0
 40
0.9999859999999999
 41
0.0
 42
1.186399552299344
  0
ELLIPSE
  5
19F37
330
17A0F
100
AcDbEntity
  8
24
100
AcDbEllipse
 10
420.0
 20
-62.31462749999997
 30
0.0
 11
-1.999999999999754
 21
0.0
 31
0.0
210
0.0
220
0.0
230
1.0
 40
0.9999859999999999
 41
3.141592653589792
 42
4.327992205889136
  0
ELLIPSE
  5
19F38
330
17A0F
100
AcDbEntity
  8
24
100
AcDbEllipse
 10
420.0
 20
82.31462749999991
 30
0.0
 11
2.500000000000029
 21
0.0
 31
0.0
210
0.0
220
0.0
230
1.0
 40
0.9999859999999999
 41
5.017081634400143
 42
7.549288979959027
  0
ELLIPSE
  5
19F39
330
17A0F
100
AcDbEntity
  8
24
100
AcDbEllipse
 10
454.5766149999998
 20
85.39293999999989
 30
0.0
 11
-0.0222201127823968
 21
0.4239676053288888
 31
0.0
210
0.0
220
0.0
230
-1.0
 40
0.7066309999999999
 41
4.786422126275656
 42
6.320202891283789
  0
ELLIPSE
  5
19F3A
330
17A0F
100
AcDbEntity
  8
24
100
AcDbEllipse
 10
455.0
 20
82.31462749999991
 30
0.0
 11
1.999999999999754
 21
0.0
 31
0.0
210
0.0
220
0.0
230
1.0
 40
0.9999859999999999
 41
3.141592653589792
 42
4.327992205889136
  0
ELLIPSE
  5
19F3B
330
17A0F
100
AcDbEntity
  8
24
100
AcDbEllipse
 10
384.576615
 20
85.39293999999989
 30
0.0
 11
-0.0222201127823968
 21
0.4239676053288888
 31
0.0
210
0.0
220
0.0
230
-1.0
 40
0.7066309999999999
 41
4.786422126275656
 42
6.320202891283789
  0
ELLIPSE
  5
19F3C
330
17A0F
100
AcDbEntity
  8
24
100
AcDbEllipse
 10
385.0
 20
-62.31462749999997
 30
0.0
 11
-2.500000000000029
 21
0.0
 31
0.0
210
0.0
220
0.0
230
1.0
 40
0.9999859999999999
 41
5.017081634400143
 42
7.549288979959027
  0
ELLIPSE
  5
19F3D
330
17A0F
100
AcDbEntity
  8
130
100
AcDbEllipse
 10
368.1026250000004
 20
147.0
 30
0.0
 11
0.5026248356981805
 21
0.0
 31
0.0
210
0.0
220
0.0
230
-1.0
 40
0.9947779999999999
 41
3.138988386068108
 42
4.712388980384688
  0
ELLIPSE
  5
19F3E
330
17A0F
100
AcDbEntity
  8
24
100
AcDbEllipse
 10
454.5766149999998
 20
-65.39293999999997
 30
0.0
 11
-0.0222201127826568
 21
-0.423967605328947
 31
0.0
210
0.0
220
0.0
230
-1.0
 40
0.706631
 41
6.246167723085222
 42
7.77994848808035
  0
ELLIPSE
  5
19F3F
330
17A0F
100
AcDbEntity
  8
24
100
AcDbEllipse
 10
385.0
 20
-62.31462749999997
 30
0.0
 11
-1.999999999999755
 21
0.0
 31
0.0
210
0.0
220
0.0
230
1.0
 40
0.9999859999999999
 41
0.0
 42
1.186399552299344
  0
ELLIPSE
  5
19F40
330
17A0F
100
AcDbEntity
  8
24
100
AcDbEllipse
 10
455.0
 20
-62.31462749999997
 30
0.0
 11
-1.999999999999754
 21
0.0
 31
0.0
210
0.0
220
0.0
230
1.0
 40
0.9999859999999999
 41
3.141592653589792
 42
4.327992205889136
  0
ELLIPSE
  5
19F41
330
17A0F
100
AcDbEntity
  8
24
100
AcDbEllipse
 10
420.4233849999996
 20
85.39293999999989
 30
0.0
 11
0.0222201127826568
 21
0.423967605328947
 31
0.0
210
0.0
220
0.0
230
-1.0
 40
0.706631
 41
6.246167723085222
 42
7.77994848808035
  0
ELLIPSE
  5
19F42
330
17A0F
100
AcDbEntity
  8
24
100
AcDbEllipse
 10
420.0
 20
82.31462749999991
 30
0.0
 11
1.999999999999753
 21
0.0
 31
0.0
210
0.0
220
0.0
230
1.0
 40
0.9999859999999999
 41
5.096785754880237
 42
6.283185307179584
  0
ELLIPSE
  5
19F43
330
17A0F
100
AcDbEntity
  8
24
100
AcDbEllipse
 10
455.4233849999993
 20
79.24155249999998
 30
0.0
 11
-0.0222201127824573
 21
0.4239676053300406
 31
0.0
210
0.0
220
0.0
230
-1.0
 40
0.706631
 41
1.644829472690537
 42
3.178610237695626
  0
ELLIPSE
  5
19F44
330
17A0F
100
AcDbEntity
  8
24
100
AcDbEllipse
 10
455.0
 20
-62.31462749999997
 30
0.0
 11
-1.999999999998958
 21
0.0
 31
0.0
210
0.0
220
0.0
230
1.0
 40
0.9999859999999999
 41
1.955193101290203
 42
3.141592653589792
  0
ELLIPSE
  5
19F45
330
17A0F
100
AcDbEntity
  8
24
100
AcDbEllipse
 10
385.0
 20
82.31462749999991
 30
0.0
 11
1.999999999999755
 21
0.0
 31
0.0
210
0.0
220
0.0
230
1.0
 40
0.9999859999999999
 41
0.0
 42
1.186399552299344
  0
ELLIPSE
  5
19F46
330
17A0F
100
AcDbEntity
  8
24
100
AcDbEllipse
 10
385.0
 20
82.31462749999991
 30
0.0
 11
1.999999999999754
 21
0.0
 31
0.0
210
0.0
220
0.0
230
1.0
 40
0.9999859999999999
 41
3.141592653589792
 42
4.327992205889136
  0
ELLIPSE
  5
19F47
330
17A0F
100
AcDbEntity
  8
24
100
AcDbEllipse
 10
384.576615
 20
-59.24155249999997
 30
0.0
 11
0.0222201127811375
 21
-0.4239676053301101
 31
0.0
210
0.0
220
0.0
230
-1.0
 40
0.7066310000000004
 41
1.644829472690537
 42
3.178610237695626
  0
ELLIPSE
  5
19F48
330
17A0F
100
AcDbEntity
  8
24
100
AcDbEllipse
 10
455.0
 20
-62.31462749999997
 30
0.0
 11
-2.500000000000029
 21
0.0
 31
0.0
210
0.0
220
0.0
230
1.0
 40
0.9999859999999999
 41
5.017081634400143
 42
7.549288979959027
  0
SPLINE
  5
19F49
330
17A0F
100
AcDbEntity
  8
130
100
AcDbSpline
210
0.0
220
0.0
230
1.0
 70
     8
 71
     3
 72
    13
 73
     9
 74
     0
 42
0.0000000001
 43
0.0000000001
 40
0.0
 40
0.0
 40
0.0
 40
0.0
 40
0.1521082907784013
 40
0.2964793975841051
 40
0.4331080687875526
 40
0.5014942348995676
 40
0.6829653050032926
 40
1.0
 40
1.0
 40
1.0
 40
1.0
 10
367.9102493441883
 20
74.1112541752081
 30
0.0
 10
367.9157219284484
 20
74.0318034739958
 30
0.0
 10
367.9263887269262
 20
73.87694343374071
 30
0.0
 10
368.0077298207084
 20
73.66336043936939
 30
0.0
 10
368.1063694616091
 20
73.50877998820059
 30
0.0
 10
368.2412440085436
 20
73.35936531351419
 30
0.0
 10
368.4803683890363
 20
73.17258561311769
 30
0.0
 10
368.7431363649516
 20
73.1350955333082
 30
0.0
 10
368.9102489059314
 20
73.11125296848757
 30
0.0
  0
SPLINE
  5
19F4A
330
17A0F
100
AcDbEntity
  8
1
  6
Continuous
 62
     4
100
AcDbSpline
210
0.0
220
0.0
230
1.0
 70
     8
 71
     3
 72
    12
 73
     8
 74
     0
 42
0.0000000001
 43
0.0000000001
 40
0.0
 40
0.0
 40
0.0
 40
0.0
 40
0.1611631348236338
 40
0.3271009802806453
 40
0.4978116247037487
 40
0.721814222335529
 40
1.0
 40
1.0
 40
1.0
 40
1.0
 10
624.5170016683094
 20
-65.47455844878232
 30
0.0
 10
624.5264692183327
 20
-65.32105355253722
 30
0.0
 10
624.5456848093988
 20
-65.00949593674295
 30
0.0
 10
624.7127399750229
 20
-64.55921264058044
 30
0.0
 10
625.0078047250918
 20
-64.11293588403761
 30
0.0
 10
625.5018977295508
 20
-63.6778978676261
 30
0.0
 10
625.9693299095853
 20
-63.55376831087188
 30
0.0
 10
626.2282625948186
 20
-63.48500710695816
 30
0.0
  0
SPLINE
  5
19F4B
330
17A0F
100
AcDbEntity
  8
1
  6
Continuous
 62
     4
100
AcDbSpline
210
0.0
220
0.0
230
1.0
 70
     8
 71
     3
 72
    11
 73
     7
 74
     0
 42
0.0000000001
 43
0.0000000001
 40
0.0
 40
0.0
 40
0.0
 40
0.0
 40
0.2497572937020031
 40
0.4996763808776538
 40
0.7497572776516293
 40
1.0
 40
1.0
 40
1.0
 40
1.0
 10
628.7160791024888
 20
74.20937806889151
 30
0.0
 10
628.7157865821053
 20
74.1491081115968
 30
0.0
 10
628.7152307667187
 20
74.03412986788001
 30
0.0
 10
628.7144514922633
 20
73.87200579144471
 30
0.0
 10
628.7138273610926
 20
73.73945179538669
 30
0.0
 10
628.7135622648123
 20
73.67988238595109
 30
0.0
 10
628.7134635396751
 20
73.6565473525884
 30
0.0
  0
SPLINE
  5
19F4C
330
17A0F
100
AcDbEntity
  8
1
  6
Continuous
 62
     4
100
AcDbSpline
210
0.0
220
0.0
230
1.0
 70
     8
 71
     3
 72
     8
 73
     4
 74
     0
 42
0.0000000001
 43
0.0000000001
 40
0.0
 40
0.0
 40
0.0
 40
0.0
 40
1.0
 40
1.0
 40
1.0
 40
1.0
 10
628.7054256455726
 20
-53.70321431511772
 30
0.0
 10
628.7052707831608
 20
-53.67327140841869
 30
0.0
 10
628.7078758104188
 20
-53.64212393917519
 30
0.0
 10
628.713632415604
 20
-53.61063697149937
 30
0.0
  0
SPLINE
  5
19F4D
330
17A0F
100
AcDbEntity
  8
1
  6
Continuous
 62
     4
100
AcDbSpline
210
0.0
220
0.0
230
1.0
 70
     8
 71
     3
 72
     8
 73
     4
 74
     0
 42
0.0000000001
 43
0.0000000001
 40
0.0
 40
0.0
 40
0.0
 40
0.0
 40
1.0
 40
1.0
 40
1.0
 40
1.0
 10
628.7054256455726
 20
73.70321301339171
 30
0.0
 10
628.7052707831608
 20
73.6732701066926
 30
0.0
 10
628.7078758104188
 20
73.64212263744909
 30
0.0
 10
628.713632415604
 20
73.61063566977319
 30
0.0
  0
SPLINE
  5
19F4E
330
17A0F
100
AcDbEntity
  8
1
  6
Continuous
 62
     4
100
AcDbSpline
210
0.0
220
0.0
230
1.0
 70
     8
 71
     3
 72
    11
 73
     7
 74
     0
 42
0.0000000001
 43
0.0000000001
 40
0.0
 40
0.0
 40
0.0
 40
0.0
 40
0.2497572937020031
 40
0.4996763808776538
 40
0.7497572776516293
 40
1.0
 40
1.0
 40
1.0
 40
1.0
 10
628.7160791024888
 20
-54.20937937061765
 30
0.0
 10
628.7157865821053
 20
-54.14910941332294
 30
0.0
 10
628.7152307667187
 20
-54.0341311696061
 30
0.0
 10
628.7144514922633
 20
-53.87200709317085
 30
0.0
 10
628.7138273610926
 20
-53.73945309711277
 30
0.0
 10
628.7135622648123
 20
-53.67988368767736
 30
0.0
 10
628.7134635396751
 20
-53.65654865431444
 30
0.0
  0
SPLINE
  5
19F4F
330
17A0F
100
AcDbEntity
  8
1
  6
Continuous
 62
     4
100
AcDbSpline
210
0.0
220
0.0
230
1.0
 70
     8
 71
     3
 72
    45
 73
    41
 74
     0
 42
0.0000000001
 43
0.0000000001
 40
0.0
 40
0.0
 40
0.0
 40
0.0
 40
0.0243258593723909
 40
0.0482442510995415
 40
0.0717551727880157
 40
0.0948586220982139
 40
0.1175545967435503
 40
0.1398430944896247
 40
0.1617241131534557
 40
0.1831976506027148
 40
0.2042637047549512
 40
0.2249222735768896
 40
0.2451733550837085
 40
0.2650169473383364
 40
0.2844530484508021
 40
0.3034816565775626
 40
0.3221027699208757
 40
0.3403163867281817
 40
0.35812250529152
 40
0.3755211239469452
 40
0.3925122410739638
 40
0.4090958550950117
 40
0.4252719644749524
 40
0.4410405677205498
 40
0.45640166338003
 40
0.4713552500426184
 40
0.4859013263380896
 40
0.5000398909364056
 40
0.5030402505627693
 40
0.5502094527732197
 40
0.5969804568729538
 40
0.6433532591271735
 40
0.6893278559346409
 40
0.7349042438128528
 40
0.7800824193837287
 40
0.8248623793597232
 40
0.8692441205305303
 40
0.9132276397501604
 40
0.9568129339246159
 40
1.0
 40
1.0
 40
1.0
 40
1.0
 10
626.4628165138357
 20
95.111560512631
 30
0.0
 10
626.4382327645001
 20
95.11013882723782
 30
0.0
 10
626.3894770532301
 20
95.10731927023559
 30
0.0
 10
626.3172185662864
 20
95.09975634085231
 30
0.0
 10
626.246491068329
 20
95.08995735562681
 30
0.0
 10
626.1773777499563
 20
95.07782636308681
 30
0.0
 10
626.1099382134447
 20
95.06356915298288
 30
0.0
 10
626.0442268546828
 20
95.0473114950579
 30
0.0
 10
625.9802885618673
 20
95.02919823348419
 30
0.0
 10
625.9181603473829
 20
95.009366925036
 30
0.0
 10
625.8578714408939
 20
94.98795425638817
 30
0.0
 10
625.7994437894667
 20
94.96509396161631
 30
0.0
 10
625.7428924543278
 20
94.94091700085169
 30
0.0
 10
625.6882260344822
 20
94.91555119385116
 30
0.0
 10
625.6354470807171
 20
94.88912103743533
 30
0.0
 10
625.5845525072025
 20
94.86174751494269
 30
0.0
 10
625.535533996748
 20
94.8335479455231
 30
0.0
 10
625.4883783989019
 20
94.80463585869939
 30
0.0
 10
625.4430681195161
 20
94.7751208958393
 30
0.0
 10
625.3995815006501
 20
94.74510873591631
 30
0.0
 10
625.3578931901293
 20
94.7147010443364
 30
0.0
 10
625.317974499099
 20
94.68399544217351
 30
0.0
 10
625.2797937500465
 20
94.65308549761131
 30
0.0
 10
625.2433166035551
 20
94.62206072562048
 30
0.0
 10
625.2085064036358
 20
94.59100663882191
 30
0.0
 10
625.1753243969107
 20
94.5600046881931
 30
0.0
 10
625.1437303433085
 20
94.52913266529909
 30
0.0
 10
625.1212836405933
 20
94.5062224618681
 30
0.0
 10
625.0763388071694
 20
94.45913959080318
 30
0.0
 10
625.0112732888638
 20
94.3855623491313
 30
0.0
 10
624.9249444546939
 20
94.27264651183349
 30
0.0
 10
624.8474723096808
 20
94.1549197022346
 30
0.0
 10
624.7790332702755
 20
94.03311252259531
 30
0.0
 10
624.7197393899839
 20
93.907940901761
 30
0.0
 10
624.6696436447191
 20
93.78011224883682
 30
0.0
 10
624.628765729716
 20
93.65031867842342
 30
0.0
 10
624.597000379725
 20
93.51923467320039
 30
0.0
 10
624.5744706372009
 20
93.38751187254851
 30
0.0
 10
624.5602406154047
 20
93.25578294798701
 30
0.0
 10
624.5581166015053
 20
93.16794753142719
 30
0.0
 10
624.5570594684694
 20
93.124231376561
 30
0.0
  0
SPLINE
  5
19F50
330
17A0F
100
AcDbEntity
  8
1
  6
Continuous
 62
     4
100
AcDbSpline
210
0.0
220
0.0
230
1.0
 70
    24
 71
     1
 72
     4
 73
     2
 74
     0
 42
0.0000000001
 43
0.0000000001
 40
0.0
 40
0.0
 40
1.0
 40
1.0
 10
631.0856754620774
 20
98.5721469218283
 30
0.0
 10
631.0855076235278
 20
98.54091237826601
 30
0.0
  0
SPLINE
  5
19F51
330
17A0F
100
AcDbEntity
  8
1
  6
Continuous
 62
     4
100
AcDbSpline
210
0.0
220
0.0
230
1.0
 70
     8
 71
     3
 72
    13
 73
     9
 74
     0
 42
0.0000000001
 43
0.0000000001
 40
0.0
 40
0.0
 40
0.0
 40
0.0
 40
0.1202431364461705
 40
0.2438769692453134
 40
0.3709006893739483
 40
0.5013134590458101
 40
0.7118906196211025
 40
1.0
 40
1.0
 40
1.0
 40
1.0
 10
631.331441712018
 20
-125.5104464949713
 30
0.0
 10
631.3389125384081
 20
-125.6355695333863
 30
0.0
 10
631.3540648585452
 20
-125.8893439133067
 30
0.0
 10
631.4689293679553
 20
-126.2609459682093
 30
0.0
 10
631.6537377168548
 20
-126.614112425193
 30
0.0
 10
631.9641924571568
 20
-126.9906975316885
 30
0.0
 10
632.506229831215
 20
-127.3923947450234
 30
0.0
 10
633.0292642998747
 20
-127.4605974586224
 30
0.0
 10
633.3314403650115
 20
-127.500000650692
 30
0.0
  0
SPLINE
  5
19F52
330
17A0F
100
AcDbEntity
  8
1
  6
Continuous
 62
     4
100
AcDbSpline
210
0.0
220
0.0
230
1.0
 70
     8
 71
     3
 72
     8
 73
     4
 74
     0
 42
0.0000000001
 43
0.0000000001
 40
0.0
 40
0.0
 40
0.0
 40
0.0
 40
1.0
 40
1.0
 40
1.0
 40
1.0
 10
628.0658470889124
 20
-74.28382126030509
 30
0.0
 10
628.0654606081452
 20
-74.25858167862084
 30
0.0
 10
628.0650871056093
 20
-74.23465568165145
 30
0.0
 10
628.0647240249894
 20
-74.21222307000832
 30
0.0
  0
SPLINE
  5
19F53
330
17A0F
100
AcDbEntity
  8
1
  6
Continuous
 62
     4
100
AcDbSpline
210
0.0
220
0.0
230
1.0
 70
     8
 71
     3
 72
    13
 73
     9
 74
     0
 42
0.0000000001
 43
0.0000000001
 40
0.0
 40
0.0
 40
0.0
 40
0.0
 40
0.1202431364461705
 40
0.2438769692453134
 40
0.3709006893739483
 40
0.5013134590458101
 40
0.7118906196211025
 40
1.0
 40
1.0
 40
1.0
 40
1.0
 10
631.331441712018
 20
145.5104451932453
 30
0.0
 10
631.3389125384081
 20
145.6355682316603
 30
0.0
 10
631.3540648585452
 20
145.8893426115807
 30
0.0
 10
631.4689293679553
 20
146.2609446664833
 30
0.0
 10
631.6537377168548
 20
146.6141111234671
 30
0.0
 10
631.9641924571568
 20
146.9906962299625
 30
0.0
 10
632.506229831215
 20
147.3923934432975
 30
0.0
 10
633.0292642998747
 20
147.4605961568964
 30
0.0
 10
633.3314403650115
 20
147.4999993489661
 30
0.0
  0
SPLINE
  5
19F54
330
17A0F
100
AcDbEntity
  8
130
100
AcDbSpline
210
0.0
220
0.0
230
1.0
 70
     8
 71
     3
 72
    13
 73
     9
 74
     0
 42
0.0000000001
 43
0.0000000001
 40
0.0
 40
0.0
 40
0.0
 40
0.0
 40
0.1521082907784013
 40
0.2964793975841051
 40
0.4331080687875526
 40
0.5014942348995676
 40
0.6829653050032926
 40
1.0
 40
1.0
 40
1.0
 40
1.0
 10
472.0897508324123
 20
-54.11125547693457
 30
0.0
 10
472.0842782481521
 20
-54.03180477572212
 30
0.0
 10
472.0736114496735
 20
-53.8769447354671
 30
0.0
 10
471.9922703558913
 20
-53.66336174109576
 30
0.0
 10
471.8936307149915
 20
-53.50878128992696
 30
0.0
 10
471.758756168056
 20
-53.35936661524053
 30
0.0
 10
471.5196317875638
 20
-53.17258691484403
 30
0.0
 10
471.256863811649
 20
-53.13509683503463
 30
0.0
 10
471.0897512706692
 20
-53.11125427021403
 30
0.0
  0
SPLINE
  5
19F55
330
17A0F
100
AcDbEntity
  8
1
  6
Continuous
 62
     4
100
AcDbSpline
210
0.0
220
0.0
230
1.0
 70
     8
 71
     3
 72
    12
 73
     8
 74
     0
 42
0.0000000001
 43
0.0000000001
 40
0.0
 40
0.0
 40
0.0
 40
0.0
 40
0.1611631348236338
 40
0.3271009802806453
 40
0.4978116247037487
 40
0.721814222335529
 40
1.0
 40
1.0
 40
1.0
 40
1.0
 10
624.5170016683094
 20
85.47455714705609
 30
0.0
 10
624.5264692183327
 20
85.32105225081119
 30
0.0
 10
624.5456848093988
 20
85.00949463501688
 30
0.0
 10
624.7127399750229
 20
84.5592113388543
 30
0.0
 10
625.0078047250918
 20
84.11293458231151
 30
0.0
 10
625.5018977295508
 20
83.6778965659
 30
0.0
 10
625.9693299095853
 20
83.55376700914581
 30
0.0
 10
626.2282625948186
 20
83.48500580523198
 30
0.0
  0
SPLINE
  5
19F56
330
17A0F
100
AcDbEntity
  8
1
  6
Continuous
 62
     4
100
AcDbSpline
210
0.0
220
0.0
230
1.0
 70
     8
 71
     3
 72
    45
 73
    41
 74
     0
 42
0.0000000001
 43
0.0000000001
 40
0.0
 40
0.0
 40
0.0
 40
0.0
 40
0.0243258593723909
 40
0.0482442510995415
 40
0.0717551727880157
 40
0.0948586220982139
 40
0.1175545967435503
 40
0.1398430944896247
 40
0.1617241131534557
 40
0.1831976506027148
 40
0.2042637047549512
 40
0.2249222735768896
 40
0.2451733550837085
 40
0.2650169473383364
 40
0.2844530484508021
 40
0.3034816565775626
 40
0.3221027699208757
 40
0.3403163867281817
 40
0.35812250529152
 40
0.3755211239469452
 40
0.3925122410739638
 40
0.4090958550950117
 40
0.4252719644749524
 40
0.4410405677205498
 40
0.45640166338003
 40
0.4713552500426184
 40
0.4859013263380896
 40
0.5000398909364056
 40
0.5030402505627693
 40
0.5502094527732197
 40
0.5969804568729538
 40
0.6433532591271735
 40
0.6893278559346409
 40
0.7349042438128528
 40
0.7800824193837287
 40
0.8248623793597232
 40
0.8692441205305303
 40
0.9132276397501604
 40
0.9568129339246159
 40
1.0
 40
1.0
 40
1.0
 40
1.0
 10
626.4628165138357
 20
-75.11156181435715
 30
0.0
 10
626.4382327645001
 20
-75.11014012896385
 30
0.0
 10
626.3894770532301
 20
-75.10732057196175
 30
0.0
 10
626.3172185662864
 20
-75.09975764257838
 30
0.0
 10
626.246491068329
 20
-75.08995865735278
 30
0.0
 10
626.1773777499563
 20
-75.07782766481295
 30
0.0
 10
626.1099382134447
 20
-75.06357045470892
 30
0.0
 10
626.0442268546828
 20
-75.04731279678388
 30
0.0
 10
625.9802885618673
 20
-75.02919953521035
 30
0.0
 10
625.9181603473829
 20
-75.00936822676202
 30
0.0
 10
625.8578714408939
 20
-74.98795555811422
 30
0.0
 10
625.7994437894667
 20
-74.96509526334236
 30
0.0
 10
625.7428924543278
 20
-74.94091830257771
 30
0.0
 10
625.6882260344822
 20
-74.91555249557723
 30
0.0
 10
625.6354470807171
 20
-74.88912233916149
 30
0.0
 10
625.5845525072025
 20
-74.86174881666872
 30
0.0
 10
625.535533996748
 20
-74.83354924724924
 30
0.0
 10
625.4883783989019
 20
-74.80463716042546
 30
0.0
 10
625.4430681195161
 20
-74.77512219756544
 30
0.0
 10
625.3995815006501
 20
-74.74511003764241
 30
0.0
 10
625.3578931901293
 20
-74.71470234606242
 30
0.0
 10
625.317974499099
 20
-74.68399674389956
 30
0.0
 10
625.2797937500465
 20
-74.65308679933745
 30
0.0
 10
625.2433166035551
 20
-74.62206202734655
 30
0.0
 10
625.2085064036358
 20
-74.59100794054798
 30
0.0
 10
625.1753243969107
 20
-74.56000598991924
 30
0.0
 10
625.1437303433085
 20
-74.5291339670252
 30
0.0
 10
625.1212836405933
 20
-74.50622376359433
 30
0.0
 10
625.0763388071694
 20
-74.45914089252941
 30
0.0
 10
625.0112732888638
 20
-74.38556365085734
 30
0.0
 10
624.9249444546939
 20
-74.27264781355962
 30
0.0
 10
624.8474723096808
 20
-74.15492100396065
 30
0.0
 10
624.7790332702755
 20
-74.03311382432139
 30
0.0
 10
624.7197393899839
 20
-73.90794220348695
 30
0.0
 10
624.6696436447191
 20
-73.78011355056287
 30
0.0
 10
624.628765729716
 20
-73.65031998014959
 30
0.0
 10
624.597000379725
 20
-73.51923597492667
 30
0.0
 10
624.5744706372009
 20
-73.38751317427472
 30
0.0
 10
624.5602406154047
 20
-73.25578424971308
 30
0.0
 10
624.5581166015053
 20
-73.16794883315335
 30
0.0
 10
624.5570594684694
 20
-73.12423267828712
 30
0.0
  0
SPLINE
  5
19F57
330
17A0F
100
AcDbEntity
  8
1
  6
Continuous
 62
     4
100
AcDbSpline
210
0.0
220
0.0
230
1.0
 70
    24
 71
     1
 72
     4
 73
     2
 74
     0
 42
0.0000000001
 43
0.0000000001
 40
0.0
 40
0.0
 40
1.0
 40
1.0
 10
631.0856754620774
 20
-78.57214822355448
 30
0.0
 10
631.0855076235278
 20
-78.54091367999217
 30
0.0
  0
SPLINE
  5
19F58
330
17A0F
100
AcDbEntity
  8
1
  6
Continuous
 62
     4
100
AcDbSpline
210
0.0
220
0.0
230
1.0
 70
     8
 71
     3
 72
     8
 73
     4
 74
     0
 42
0.0000000001
 43
0.0000000001
 40
0.0
 40
0.0
 40
0.0
 40
0.0
 40
1.0
 40
1.0
 40
1.0
 40
1.0
 10
628.0658470889124
 20
94.28381995857902
 30
0.0
 10
628.0654606081452
 20
94.25858037689469
 30
0.0
 10
628.0650871056093
 20
94.23465437992541
 30
0.0
 10
628.0647240249894
 20
94.21222176828232
 30
0.0
  0
LWPOLYLINE
  5
1A532
330
17A0F
100
AcDbEntity
  8
17
100
AcDbPolyline
 90
        4
 70
     1
 43
0.75
 10
477.5
 20
147.5
 10
362.5
 20
147.5
 10
362.5
 20
-127.4999999999999
 10
477.5
 20
-127.4999999999999
  0
DIMENSION
  5
1B05B
330
17A0F
100
AcDbEntity
  8
30
100
AcDbDimension
  2
*D271
 10
477.5
 20
-170.0
 30
0.0
 11
420.0
 21
-165.0
 31
0.0
 70
    32
  1
 <> 
 71
     5
 42
115.0
  3
STANDARD1
100
AcDbAlignedDimension
 13
362.5
 23
-127.4999999999999
 33
0.0
 14
477.5
 24
-127.4999999999999
 34
0.0
100
AcDbRotatedDimension
  0
DIMENSION
  5
1B0B9
330
17A0F
100
AcDbEntity
  8
30
100
AcDbDimension
  2
*D272
 10
330.0000000000002
 20
-72.49999999999992
 30
0.0
 11
325.0000000000002
 21
-99.99999999999982
 31
0.0
 70
    32
  1
 <> 
 71
     5
 42
54.9999999999999
  3
STANDARD1
100
AcDbAlignedDimension
 13
362.6026250000009
 23
-127.4999999999998
 33
0.0
 14
367.5000000000002
 24
-72.49999999999994
 34
0.0
 50
270.0
100
AcDbRotatedDimension
  0
LWPOLYLINE
  5
1B0D8
330
17A0F
100
AcDbEntity
  8
17
100
AcDbPolyline
 90
        4
 70
     1
 43
0.75
 10
691.5999999999997
 20
147.5
 10
690.0
 20
147.5
 10
690.0
 20
-127.4999999999999
 10
691.5999999999997
 20
-127.4999999999999
  0
DIMENSION
  5
1B177
330
17A0F
100
AcDbEntity
  8
30
100
AcDbDimension
  2
*D273
 10
691.5999999999997
 20
-90.0
 30
0.0
 11
677.1999999999998
 21
-90.0
 31
0.0
 70
   160
  1
 <> 
 71
     5
 42
1.599999999999795
  3
STANDARD1
100
AcDbAlignedDimension
 13
690.0
 23
-90.0
 33
0.0
 14
691.5999999999997
 24
-65.0
 34
0.0
100
AcDbRotatedDimension
  0
DIMENSION
  5
1B224
330
17A0F
100
AcDbEntity
  8
30
100
AcDbDimension
  2
*D275
 10
691.5999999999997
 20
-140.0
 30
0.0
 11
656.8
 21
-135.0
 31
0.0
 70
    32
  1
 <> 
 71
     5
 42
69.59999999999945
  3
STANDARD1
100
AcDbAlignedDimension
 13
622.0000000000003
 23
-40.99999999999996
 33
0.0
 14
691.5999999999997
 24
-117.5
 34
0.0
100
AcDbRotatedDimension
  0
DIMENSION
  5
1B24C
330
17A0F
100
AcDbEntity
  8
30
100
AcDbDimension
  2
*D276
 10
618.0000000000003
 20
-155.0
 30
0.0
 11
602.2601499999997
 21
-150.0
 31
0.0
 70
   160
  1
 <> 
 71
     5
 42
6.499999999999772
  3
STANDARD1
100
AcDbAlignedDimension
 13
611.5000000000005
 23
-12.5
 33
0.0
 14
618.0000000000003
 24
-15.0
 34
0.0
100
AcDbRotatedDimension
1001
ACAD
1000
DSTYLE
1002
{
1070
   279
1070
     2
1002
}
  0
LINE
  5
1B2F4
330
17A0F
100
AcDbEntity
  8
17
100
AcDbLine
 10
402.5
 20
-348.5
 30
0.0
 11
402.5
 21
-337.5
 31
0.0
  0
LINE
  5
1B2F5
330
17A0F
100
AcDbEntity
  8
17
100
AcDbLine
 10
397.0000000000005
 20
-343.0
 30
0.0
 11
408.0
 21
-343.0
 31
0.0
  0
LINE
  5
1B2F6
330
17A0F
100
AcDbEntity
  8
17
100
AcDbLine
 10
432.0000000000002
 20
-217.0
 30
0.0
 11
443.0000000000001
 21
-217.0
 31
0.0
  0
LINE
  5
1B2F7
330
17A0F
100
AcDbEntity
  8
17
100
AcDbLine
 10
437.5
 20
-222.5
 30
0.0
 11
437.5
 21
-211.5
 31
0.0
  0
CIRCLE
  5
1B2F8
330
17A0F
100
AcDbEntity
  8
24
100
AcDbCircle
 10
402.5
 20
-343.0
 30
0.0
 40
2.0
  0
CIRCLE
  5
1B2F9
330
17A0F
100
AcDbEntity
  8
24
100
AcDbCircle
 10
437.5
 20
-217.0
 30
0.0
 40
2.0
  0
LWPOLYLINE
  5
1B316
330
17A0F
100
AcDbEntity
  8
17
100
AcDbPolyline
 90
        4
 70
     1
 43
0.75
 10
477.5
 20
274.6999999999998
 10
362.5
 20
274.6999999999998
 10
362.5
 20
273.0999999999998
 10
477.5
 20
273.0999999999998
  0
LINE
  5
1B395
330
17A0F
100
AcDbEntity
  8
130
100
AcDbLine
 10
367.5999999999998
 20
213.0999999999998
 30
0.0
 11
431.7604725000001
 21
213.0999999999998
 31
0.0
  0
LINE
  5
1B396
330
17A0F
100
AcDbEntity
  8
130
100
AcDbLine
 10
472.4000000000001
 20
271.5999999999998
 30
0.0
 11
472.4000000000001
 21
214.0999999999998
 31
0.0
  0
LINE
  5
1B398
330
17A0F
100
AcDbEntity
  8
17
 62
     2
100
AcDbLine
 10
445.0
 20
235.5999999999998
 30
0.0
 11
465.0
 21
235.5999999999998
 31
0.0
  0
LINE
  5
1B399
330
17A0F
100
AcDbEntity
  8
130
100
AcDbLine
 10
404.4999999999998
 20
273.0999999999998
 30
0.0
 11
404.4999999999998
 21
280.0999999999998
 31
0.0
  0
LINE
  5
1B39A
330
17A0F
100
AcDbEntity
  8
1
  6
Continuous
 62
     2
100
AcDbLine
 10
405.4999999999997
 20
235.5999999999998
 30
0.0
 11
404.8717125000003
 21
271.5945174999998
 31
0.0
  0
LINE
  5
1B39B
330
17A0F
100
AcDbEntity
  8
130
100
AcDbLine
 10
413.0
 20
179.9999999999998
 30
0.0
 11
427.0
 21
179.9999999999998
 31
0.0
  0
LINE
  5
1B39C
330
17A0F
100
AcDbEntity
  8
130
100
AcDbLine
 10
367.5999999999998
 20
205.0999999999998
 30
0.0
 11
472.4000000000001
 21
205.0999999999998
 31
0.0
  0
LINE
  5
1B39E
330
17A0F
100
AcDbEntity
  8
130
100
AcDbLine
 10
367.5999999999998
 20
205.0999999999998
 30
0.0
 11
367.5999999999998
 21
273.0999999999998
 31
0.0
  0
LINE
  5
1B39F
330
17A0F
100
AcDbEntity
  8
130
100
AcDbLine
 10
409.0
 20
194.5999999999998
 30
0.0
 11
430.9999999999995
 21
194.5999999999998
 31
0.0
  0
LINE
  5
1B3A2
330
17A0F
100
AcDbEntity
  8
17
 62
     2
100
AcDbLine
 10
385.0
 20
283.0999999999998
 30
0.0
 11
385.0
 21
211.0999999999998
 31
0.0
  0
LINE
  5
1B3A3
330
17A0F
100
AcDbEntity
  8
1
  6
Continuous
 62
     2
100
AcDbLine
 10
440.5
 20
235.5999999999998
 30
0.0
 11
439.8717125000001
 21
271.5945174999998
 31
0.0
  0
LINE
  5
1B3A4
330
17A0F
100
AcDbEntity
  8
130
100
AcDbLine
 10
435.5
 20
273.0999999999998
 30
0.0
 11
435.5
 21
280.0999999999998
 31
0.0
  0
LINE
  5
1B3A5
330
17A0F
100
AcDbEntity
  8
1
  6
Continuous
 62
     2
100
AcDbLine
 10
407.5
 20
252.0999999999998
 30
0.0
 11
432.5
 21
252.0999999999998
 31
0.0
  0
LINE
  5
1B3A6
330
17A0F
100
AcDbEntity
  8
1
  6
Continuous
 62
     2
100
AcDbLine
 10
442.4999999999998
 20
252.0999999999998
 30
0.0
 11
467.4999999999998
 21
252.0999999999998
 31
0.0
  0
LINE
  5
1B3A7
330
17A0F
100
AcDbEntity
  8
1
  6
Continuous
 62
     2
100
AcDbLine
 10
435.1283825
 20
271.5999999999998
 30
0.0
 11
439.8716174999998
 21
271.5999999999998
 31
0.0
  0
LINE
  5
1B3A8
330
17A0F
100
AcDbEntity
  8
16
100
AcDbLine
 10
420.0
 20
283.0999999999998
 30
0.0
 11
420.0
 21
180.0
 31
0.0
  0
LINE
  5
1B3AA
330
17A0F
100
AcDbEntity
  8
130
100
AcDbLine
 10
404.4999999999998
 20
280.0999999999998
 30
0.0
 11
400.4999999999998
 21
280.0999999999998
 31
0.0
  0
LINE
  5
1B3AB
330
17A0F
100
AcDbEntity
  8
1
  6
Continuous
 62
     2
100
AcDbLine
 10
367.5999999999998
 20
271.5999999999998
 30
0.0
 11
369.8716174999999
 21
271.5999999999998
 31
0.0
  0
LINE
  5
1B3AC
330
17A0F
100
AcDbEntity
  8
1
  6
Continuous
 62
     2
100
AcDbLine
 10
372.5
 20
252.0999999999998
 30
0.0
 11
397.5
 21
252.0999999999998
 31
0.0
  0
LINE
  5
1B3AD
330
17A0F
100
AcDbEntity
  8
17
 62
     2
100
AcDbLine
 10
375.0
 20
235.5999999999998
 30
0.0
 11
395.0
 21
235.5999999999998
 31
0.0
  0
LINE
  5
1B3AF
330
17A0F
100
AcDbEntity
  8
1
  6
Continuous
 62
     2
100
AcDbLine
 10
407.5
 20
249.0999999999998
 30
0.0
 11
432.5
 21
249.0999999999998
 31
0.0
  0
LINE
  5
1B3B0
330
17A0F
100
AcDbEntity
  8
1
  6
Continuous
 62
     2
100
AcDbLine
 10
442.4999999999998
 20
252.0999999999998
 30
0.0
 11
442.4999999999998
 21
228.2515299999999
 31
0.0
  0
LINE
  5
1B3B1
330
17A0F
100
AcDbEntity
  8
130
100
AcDbLine
 10
439.5
 20
273.0999999999998
 30
0.0
 11
439.5
 21
280.0999999999998
 31
0.0
  0
LINE
  5
1B3B2
330
17A0F
100
AcDbEntity
  8
130
100
AcDbLine
 10
367.5999999999998
 20
214.0999999999998
 30
0.0
 11
472.4000000000001
 21
214.0999999999998
 31
0.0
  0
LINE
  5
1B3B3
330
17A0F
100
AcDbEntity
  8
130
100
AcDbLine
 10
469.0
 20
201.0999999999998
 30
0.0
 11
469.0
 21
205.0999999999998
 31
0.0
  0
LINE
  5
1B3B4
330
17A0F
100
AcDbEntity
  8
130
100
AcDbLine
 10
413.0
 20
179.9999999999998
 30
0.0
 11
413.0
 21
194.5999999999998
 31
0.0
  0
LINE
  5
1B3B5
330
17A0F
100
AcDbEntity
  8
1
  6
Continuous
 62
     2
100
AcDbLine
 10
370.5
 20
235.5999999999998
 30
0.0
 11
369.8717125000003
 21
271.5945174999998
 31
0.0
  0
LINE
  5
1B3B6
330
17A0F
100
AcDbEntity
  8
1
  6
Continuous
 62
     2
100
AcDbLine
 10
432.5
 20
252.0999999999998
 30
0.0
 11
432.5
 21
228.2515299999999
 31
0.0
  0
LINE
  5
1B3B7
330
17A0F
100
AcDbEntity
  8
17
 62
     2
100
AcDbLine
 10
455.0
 20
283.0999999999998
 30
0.0
 11
455.0
 21
211.0999999999998
 31
0.0
  0
LINE
  5
1B3B9
330
17A0F
100
AcDbEntity
  8
130
100
AcDbLine
 10
439.5
 20
280.0999999999998
 30
0.0
 11
435.5
 21
280.0999999999998
 31
0.0
  0
LINE
  5
1B3BB
330
17A0F
100
AcDbEntity
  8
130
100
AcDbLine
 10
371.0
 20
201.0999999999998
 30
0.0
 11
469.0
 21
201.0999999999998
 31
0.0
  0
LINE
  5
1B3BC
330
17A0F
100
AcDbEntity
  8
130
100
AcDbLine
 10
409.0
 20
194.5999999999998
 30
0.0
 11
409.0
 21
201.0999999999998
 31
0.0
  0
LINE
  5
1B3BD
330
17A0F
100
AcDbEntity
  8
130
100
AcDbLine
 10
367.5999999999998
 20
271.5999999999998
 30
0.0
 11
367.5999999999998
 21
214.0999999999998
 31
0.0
  0
LINE
  5
1B3BE
330
17A0F
100
AcDbEntity
  8
1
  6
Continuous
 62
     2
100
AcDbLine
 10
469.5
 20
235.5999999999998
 30
0.0
 11
470.1282874999995
 21
271.5945174999998
 31
0.0
  0
LINE
  5
1B3BF
330
17A0F
100
AcDbEntity
  8
1
  6
Continuous
 62
     2
100
AcDbLine
 10
407.5
 20
252.0999999999998
 30
0.0
 11
407.5
 21
228.2515299999999
 31
0.0
  0
LINE
  5
1B3C1
330
17A0F
100
AcDbEntity
  8
130
100
AcDbLine
 10
443.2604724999998
 20
213.0999999999998
 30
0.0
 11
472.4000000000001
 21
213.0999999999998
 31
0.0
  0
LINE
  5
1B3C2
330
17A0F
100
AcDbEntity
  8
1
  6
Continuous
 62
     2
100
AcDbLine
 10
397.5
 20
252.0999999999998
 30
0.0
 11
397.5
 21
228.2515299999999
 31
0.0
  0
LINE
  5
1B3C3
330
17A0F
100
AcDbEntity
  8
130
100
AcDbLine
 10
400.4999999999998
 20
273.0999999999998
 30
0.0
 11
400.4999999999998
 21
280.0999999999998
 31
0.0
  0
LINE
  5
1B3C4
330
17A0F
100
AcDbEntity
  8
1
  6
Continuous
 62
     2
100
AcDbLine
 10
372.5
 20
252.0999999999998
 30
0.0
 11
372.5
 21
228.2515299999999
 31
0.0
  0
LINE
  5
1B3C6
330
17A0F
100
AcDbEntity
  8
130
100
AcDbLine
 10
367.5999999999998
 20
273.0999999999998
 30
0.0
 11
472.4000000000001
 21
273.0999999999998
 31
0.0
  0
LINE
  5
1B3C7
330
17A0F
100
AcDbEntity
  8
130
100
AcDbLine
 10
472.4000000000001
 20
273.0999999999998
 30
0.0
 11
472.4000000000001
 21
205.0999999999998
 31
0.0
  0
LINE
  5
1B3C8
330
17A0F
100
AcDbEntity
  8
1
  6
Continuous
 62
     2
100
AcDbLine
 10
434.4999999999997
 20
235.5999999999998
 30
0.0
 11
435.1282874999997
 21
271.5945174999998
 31
0.0
  0
LINE
  5
1B3C9
330
17A0F
100
AcDbEntity
  8
1
  6
Continuous
 62
     2
100
AcDbLine
 10
470.1283825
 20
271.5999999999998
 30
0.0
 11
472.4000000000001
 21
271.5999999999998
 31
0.0
  0
LINE
  5
1B3CA
330
17A0F
100
AcDbEntity
  8
1
  6
Continuous
 62
     2
100
AcDbLine
 10
372.5
 20
249.0999999999998
 30
0.0
 11
397.5
 21
249.0999999999998
 31
0.0
  0
LINE
  5
1B3CB
330
17A0F
100
AcDbEntity
  8
130
100
AcDbLine
 10
430.9999999999995
 20
194.5999999999998
 30
0.0
 11
430.9999999999995
 21
201.0999999999998
 31
0.0
  0
LINE
  5
1B3CC
330
17A0F
100
AcDbEntity
  8
17
 62
     2
100
AcDbLine
 10
410.0
 20
235.5999999999998
 30
0.0
 11
430.0
 21
235.5999999999998
 31
0.0
  0
LINE
  5
1B3CE
330
17A0F
100
AcDbEntity
  8
1
  6
Continuous
 62
     2
100
AcDbLine
 10
467.4999999999998
 20
252.0999999999998
 30
0.0
 11
467.4999999999998
 21
228.2515299999999
 31
0.0
  0
LINE
  5
1B3CF
330
17A0F
100
AcDbEntity
  8
17
 62
     2
100
AcDbLine
 10
402.5
 20
290.0999999999998
 30
0.0
 11
402.5
 21
263.0999999999998
 31
0.0
  0
LINE
  5
1B3D0
330
17A0F
100
AcDbEntity
  8
130
100
AcDbLine
 10
371.0
 20
201.0999999999998
 30
0.0
 11
371.0
 21
205.0999999999998
 31
0.0
  0
LINE
  5
1B3D1
330
17A0F
100
AcDbEntity
  8
130
100
AcDbLine
 10
427.0
 20
179.9999999999998
 30
0.0
 11
427.0
 21
194.5999999999998
 31
0.0
  0
LINE
  5
1B3D2
330
17A0F
100
AcDbEntity
  8
1
  6
Continuous
 62
     2
100
AcDbLine
 10
400.1283825
 20
271.5999999999998
 30
0.0
 11
404.8716175
 21
271.5999999999998
 31
0.0
  0
LINE
  5
1B3D3
330
17A0F
100
AcDbEntity
  8
1
  6
Continuous
 62
     2
100
AcDbLine
 10
399.5
 20
235.5999999999998
 30
0.0
 11
400.1282874999997
 21
271.5945174999998
 31
0.0
  0
LINE
  5
1B3D4
330
17A0F
100
AcDbEntity
  8
1
  6
Continuous
 62
     2
100
AcDbLine
 10
442.4999999999998
 20
249.0999999999998
 30
0.0
 11
467.4999999999998
 21
249.0999999999998
 31
0.0
  0
ARC
  5
1B3D5
330
17A0F
100
AcDbEntity
  8
1
  6
Continuous
 62
     2
100
AcDbCircle
 10
455.0
 20
235.5999999999998
 30
0.0
 40
14.5
100
AcDbArc
 50
180.0
 51
0.0
  0
ARC
  5
1B3D6
330
17A0F
100
AcDbEntity
  8
1
  6
Continuous
 62
     2
100
AcDbCircle
 10
420.0
 20
235.5999999999998
 30
0.0
 40
14.5
100
AcDbArc
 50
180.0
 51
0.0
  0
ARC
  5
1B3D7
330
17A0F
100
AcDbEntity
  8
1
  6
Continuous
 62
     2
100
AcDbCircle
 10
385.0
 20
235.5999999999998
 30
0.0
 40
14.5
100
AcDbArc
 50
180.0
 51
0.0
  0
MTEXT
  5
1B49E
330
17A0F
100
AcDbEntity
  8
30
  6
Continuous
100
AcDbMText
 10
690.0
 20
219.9999999999998
 30
0.0
 40
6.0
 41
0.0
 71
     7
 72
     5
  1
PVS125-SDL 3P FC\PPVS250-SDL 3P FC
 73
     1
 44
1.0
1001
ACAD
1000
MTEXTBEGIN
1070
    73
1070
     1
1070
    44
1040
1.0
1070
    74
1070
     0
1000
MTEXTEND
  0
LINE
  5
1B4A5
330
17A0F
100
AcDbEntity
  8
130
100
AcDbLine
 10
433.2604725000002
 20
213.0999999999998
 30
0.0
 11
441.7604725000002
 21
213.0999999999998
 31
0.0
  0
LINE
  5
1B4A6
330
17A0F
100
AcDbEntity
  8
130
100
AcDbLine
 10
431.7604725000001
 20
207.5999999999998
 30
0.0
 11
431.7604725000001
 21
214.0999999999998
 31
0.0
  0
LINE
  5
1B4A7
330
17A0F
100
AcDbEntity
  8
130
100
AcDbLine
 10
433.2604725000002
 20
207.5999999999998
 30
0.0
 11
433.2604725000002
 21
214.0999999999998
 31
0.0
  0
LINE
  5
1B4A8
330
17A0F
100
AcDbEntity
  8
130
100
AcDbLine
 10
443.2604725000001
 20
207.5999999999998
 30
0.0
 11
443.2604725000001
 21
214.0999999999998
 31
0.0
  0
LINE
  5
1B4A9
330
17A0F
100
AcDbEntity
  8
130
100
AcDbLine
 10
441.7604725000002
 20
207.5999999999998
 30
0.0
 11
441.7604725000002
 21
214.0999999999998
 31
0.0
  0
LINE
  5
1B4AA
330
17A0F
100
AcDbEntity
  8
130
100
AcDbLine
 10
431.7604725000001
 20
207.5999999999998
 30
0.0
 11
433.2604725000002
 21
207.5999999999998
 31
0.0
  0
LINE
  5
1B4AB
330
17A0F
100
AcDbEntity
  8
130
100
AcDbLine
 10
441.7604725000002
 20
207.5999999999998
 30
0.0
 11
443.2604725000001
 21
207.5999999999998
 31
0.0
  0
LINE
  5
1B4AC
330
17A0F
100
AcDbEntity
  8
17
 62
     2
100
AcDbLine
 10
437.5
 20
290.0999999999998
 30
0.0
 11
437.5
 21
263.0999999999998
 31
0.0
  0
DIMENSION
  5
1B7EE
330
17A0F
100
AcDbEntity
  8
30
100
AcDbDimension
  2
*D293
 10
469.0000000000003
 20
39.99999999999995
 30
0.0
 11
440.0
 21
39.99999999999995
 31
0.0
 70
   160
  1
 <> 
 71
     5
 42
97.99999999999943
  3
STANDARD1
100
AcDbAlignedDimension
 13
371.0000000000008
 23
34.99999999999995
 33
0.0
 14
469.0000000000003
 24
34.99999999999995
 34
0.0
100
AcDbRotatedDimension
  0
DIMENSION
  5
1B7EF
330
17A0F
100
AcDbEntity
  8
30
100
AcDbDimension
  2
*D294
 10
431.0000000000003
 20
-30.00000000000004
 30
0.0
 11
420.0000000000002
 21
-25.00000000000004
 31
0.0
 70
    32
  1
 <> 
 71
     5
 42
22.0
  3
STANDARD1
100
AcDbAlignedDimension
 13
409.0000000000002
 23
-15.00000000000006
 33
0.0
 14
431.0000000000003
 24
-15.00000000000006
 34
0.0
100
AcDbRotatedDimension
  0
ARC
  5
1BDCD
330
17A0F
100
AcDbEntity
  8
24
100
AcDbCircle
 10
623.4875825
 20
305.9959175000002
 30
0.0
 40
7.5
100
AcDbArc
 50
238.8948889999942
 51
294.2039970000057
  0
LINE
  5
1BDCE
330
17A0F
100
AcDbEntity
  8
24
100
AcDbLine
 10
626.5624825000002
 20
299.1552300000001
 30
0.0
 11
632.5
 21
301.1499025
 31
0.0
  0
LINE
  5
1BDCF
330
17A0F
100
AcDbEntity
  8
24
100
AcDbLine
 10
607.5
 20
301.0
 30
0.0
 11
607.5
 21
269.0
 31
0.0
  0
LINE
  5
1BDD0
330
17A0F
100
AcDbEntity
  8
24
100
AcDbLine
 10
632.5
 20
301.1499025
 30
0.0
 11
632.5
 21
269.0
 31
0.0
  0
LINE
  5
1BDD1
330
17A0F
100
AcDbEntity
  8
17
100
AcDbLine
 10
613.75
 20
280.0000000000002
 30
0.0
 11
626.25
 21
280.0000000000002
 31
0.0
  0
LINE
  5
1BDD2
330
17A0F
100
AcDbEntity
  8
24
100
AcDbLine
 10
607.5
 20
269.0
 30
0.0
 11
632.5
 21
269.0
 31
0.0
  0
LINE
  5
1BDD3
330
17A0F
100
AcDbEntity
  8
17
100
AcDbLine
 10
620.0
 20
286.2500000000002
 30
0.0
 11
620.0
 21
273.7499999999999
 31
0.0
  0
CIRCLE
  5
1BDD4
330
17A0F
100
AcDbEntity
  8
24
100
AcDbCircle
 10
620.0
 20
280.0000000000002
 30
0.0
 40
4.5
  0
ARC
  5
1BDD5
330
17A0F
100
AcDbEntity
  8
24
100
AcDbCircle
 10
611.6250000000002
 20
294.1454850000003
 30
0.0
 40
8.0
100
AcDbArc
 50
58.96076000000242
 51
121.0392399999975
  0
LINE
  5
1BDD6
330
17A0F
100
AcDbEntity
  8
24
100
AcDbLine
 10
615.7578774999999
 20
300.9952525
 30
0.0
 11
619.6130099999997
 21
299.5742600000002
 31
0.0
  0
MTEXT
  5
1BDD7
330
17A0F
100
AcDbEntity
  8
5
  6
Continuous
 62
     7
100
AcDbMText
 10
620.0
 20
246.0
 30
0.0
 40
8.0
 41
0.0
 71
     2
 72
     5
  1
25(max.)\Pmax.t7
  7
BLOCKFONT
 73
     1
 44
1.0
1001
ACAD
1000
MTEXTBEGIN
1070
    73
1070
     1
1070
    44
1040
1.0
1070
    74
1070
     0
1000
MTEXTEND
  0
DIMENSION
  5
1BDD8
330
17A0F
100
AcDbEntity
  8
30
100
AcDbDimension
  2
*D311
 10
632.5
 20
249.0
 30
0.0
 11
620.0
 21
254.0
 31
0.0
 70
    32
 71
     5
 42
25.0
  3
STANDARD1
100
AcDbAlignedDimension
 13
607.5
 23
269.0
 33
0.0
 14
632.5
 24
269.0
 34
0.0
100
AcDbRotatedDimension
  0
LEADER
  5
1BDD9
330
17A0F
100
AcDbEntity
  8
30
100
AcDbLeader
  3
STANDARD1
 76
     3
 10
620.0
 20
280.0
 30
0.0
 10
597.5
 20
288.9999999999998
 30
0.0
 10
585.5
 20
288.9999999999998
 30
0.0
1001
ACAD
1000
DSTYLE
1002
{
1070
   147
1040
2.0
1070
    77
1070
     0
1002
}
  0
MTEXT
  5
1BDDA
330
17A0F
100
AcDbEntity
  8
30
  6
Continuous
100
AcDbMText
 10
586.5
 20
294.9999999999998
 30
0.0
 40
5.0
 41
10.0
 71
     1
 72
     5
  1
%%c9
  7
BLOCKFONT
 73
     1
 44
1.0
1001
ACAD
1000
MTEXTBEGIN
1070
    73
1070
     1
1070
    44
1040
1.0
1070
    74
1070
     0
1000
MTEXTEND
  0
MTEXT
  5
1BDDB
330
17A0F
100
AcDbEntity
  8
5
  6
Continuous
 62
     7
100
AcDbMText
 10
649.5
 20
285.07495125
 30
0.0
 40
8.0
 41
0.0
 71
     2
 72
     5
  1
11(max.)
  7
BLOCKFONT
 11
0.0000000000000001
 21
1.0
 31
0.0
 73
     1
 44
1.0
1001
ACAD
1000
MTEXTBEGIN
1070
    73
1070
     1
1070
    44
1040
1.0
1070
    74
1070
     0
1000
MTEXTEND
  0
DIMENSION
  5
1BDDC
330
17A0F
100
AcDbEntity
  8
30
100
AcDbDimension
  2
*D312
 10
647.5
 20
268.9999999999999
 30
0.0
 11
642.4999999999998
 21
274.5000000000002
 31
0.0
 70
    32
 71
     5
 42
11.00000000000017
  3
STANDARD1
100
AcDbAlignedDimension
 13
626.25
 23
280.0000000000002
 33
0.0
 14
632.5
 24
269.0
 34
0.0
 50
90.0
100
AcDbRotatedDimension
  0
MTEXT
  5
1BE55
330
17A0F
100
AcDbEntity
  8
1
  6
Continuous
 62
     7
100
AcDbMText
 10
510.0906774999999
 20
305.1047474999998
 30
0.0
 40
6.25
 41
0.0
 71
     7
 72
     5
  1
{\Ftxt|c128;M4x0.7}
  7
BLOCKFONT
 73
     2
 44
0.9036139999999999
1001
ACAD
1000
MTEXTBEGIN
1070
    73
1070
     2
1070
    44
1040
0.9036139999999999
1070
    74
1070
     0
1000
MTEXTEND
  0
LEADER
  5
1BE56
330
17A0F
100
AcDbEntity
  8
0
100
AcDbLeader
  3
STANDARD1
 76
     3
 10
437.4999999999998
 20
280.0999999999999
 30
0.0
 10
507.5
 20
305.1047474999998
 30
0.0
 10
542.0906774999999
 20
305.1047474999998
 30
0.0
1001
ACAD
1000
DSTYLE
1002
{
1070
   147
1040
2.0
1070
    77
1070
     0
1002
}
  0
VIEWPORT
  5
9AC
102
{ACAD_XDICTIONARY
360
1BE93
102
}
330
17A0B
100
AcDbEntity
 67
     1
  8
0
  6
Continuous
100
AcDbViewport
 10
0.0
 20
0.0
 30
0.0
 40
0.0
 41
0.0
 68
     1
 69
     1
 12
0.0
 22
0.0
 13
0.0
 23
0.0
 14
10.0
 24
10.0
 15
10.0
 25
10.0
 16
0.0
 26
0.0
 36
1.0
 17
0.0
 27
0.0
 37
0.0
 42
50.0
 43
0.0
 44
0.0
 45
0.0
 50
0.0
 51
0.0
 72
   100
 90
   819232
  1

281
     0
 71
     0
 74
     0
110
0.0
120
0.0
130
0.0
111
1.0
121
0.0
131
0.0
112
0.0
122
1.0
132
0.0
 79
     0
146
0.0
  0
VIEWPORT
  5
E19D
102
{ACAD_XDICTIONARY
360
1BE95
102
}
330
17A0B
100
AcDbEntity
 67
     1
  8
30
100
AcDbViewport
 10
0.0
 20
0.0
 30
0.0
 40
0.0
 41
0.0
 68
     2
 69
     2
 12
8.653370891979619
 22
137.2805829780177
 13
0.0
 23
0.0
 14
1.0
 24
1.0
 15
10.0
 25
10.0
 16
0.0
 26
0.0
 36
1.0
 17
0.0
 27
0.0
 37
0.0
 42
50.0
 43
0.0
 44
0.0
 45
689.9195596776387
 50
0.0
 51
0.0
 72
   100
 90
   824096
  1

281
     0
 71
     0
 74
     0
110
0.0
120
0.0
130
0.0
111
1.0
121
0.0
131
0.0
112
0.0
122
1.0
132
0.0
 79
     0
146
0.0
  0
ENDSEC
  0
SECTION
  2
OBJECTS
  0
DICTIONARY
  5
179A5
330
0
100
AcDbDictionary
281
     1
  3
ACAD_COLOR
350
17A06
  3
ACAD_GROUP
350
179A6
  3
ACAD_LAYOUT
350
17A05
  3
ACAD_MATERIAL
350
179A9
  3
ACAD_MLEADERSTYLE
350
17A09
  3
ACAD_MLINESTYLE
350
17A02
  3
ACAD_PLOTSETTINGS
350
17A04
  3
ACAD_PLOTSTYLENAME
350
179A7
  3
ACAD_SCALELIST
350
179D6
  3
ACAD_TABLESTYLE
350
17A07
  3
ACAD_VISUALSTYLE
350
179C2
  3
ACDB_RECOMPOSE_DATA
350
1BE91
  3
AcDbVariableDictionary
350
183BA
  3
AEC_PROPERTY_SET_DEFS
350
18E7F
  3
ASE_INDEX_DICTIONARY
350
1B441
  3
DWGPROPS
350
1BE92
  0
DICTIONARY
  5
1B483
330
1799B
100
AcDbDictionary
280
     1
281
     1
  3
ACAD_LAYERSTATES
360
1B484
  0
DICTIONARY
  5
1838A
330
179F8
100
AcDbDictionary
280
     1
281
     1
  3
ADSK_XREC_LAYER_RECONCILED
360
1838B
  0
DICTIONARY
  5
1838C
330
17A13
100
AcDbDictionary
280
     1
281
     1
  3
ADSK_XREC_LAYER_RECONCILED
360
1838D
  0
DICTIONARY
  5
1838E
330
17A1D
100
AcDbDictionary
280
     1
281
     1
  3
ADSK_XREC_LAYER_RECONCILED
360
1838F
  0
DICTIONARY
  5
18392
330
17A1F
100
AcDbDictionary
280
     1
281
     1
  3
ADSK_XREC_LAYER_RECONCILED
360
18393
  0
DICTIONARY
  5
18396
330
17A21
100
AcDbDictionary
280
     1
281
     1
  3
ADSK_XREC_LAYER_RECONCILED
360
18397
  0
DICTIONARY
  5
18398
330
17A23
100
AcDbDictionary
280
     1
281
     1
  3
ADSK_XREC_LAYER_RECONCILED
360
18399
  0
DICTIONARY
  5
1839C
330
17A25
100
AcDbDictionary
280
     1
281
     1
  3
ADSK_XREC_LAYER_RECONCILED
360
1839D
  0
DICTIONARY
  5
1839E
330
17A26
100
AcDbDictionary
280
     1
281
     1
  3
ADSK_XREC_LAYER_RECONCILED
360
1839F
  0
DICTIONARY
  5
183AC
330
17A2D
100
AcDbDictionary
280
     1
281
     1
  3
ADSK_XREC_LAYER_RECONCILED
360
183AD
  0
DICTIONARY
  5
1B4A2
330
17A0F
100
AcDbDictionary
280
     1
281
     1
  3
ACAD_SORTENTS
360
1B4A3
  0
DICTIONARY
  5
1BE93
330
9AC
100
AcDbDictionary
280
     1
281
     1
  3
ACAD_XREC_ROUNDTRIP
360
1BE94
  0
DICTIONARY
  5
1BE95
330
E19D
100
AcDbDictionary
280
     1
281
     1
  3
ACAD_XREC_ROUNDTRIP
360
1BE96
  0
DICTIONARY
  5
17A06
102
{ACAD_REACTORS
330
179A5
102
}
330
179A5
100
AcDbDictionary
281
     1
  0
DICTIONARY
  5
179A6
102
{ACAD_REACTORS
330
179A5
102
}
330
179A5
100
AcDbDictionary
281
     1
  0
DICTIONARY
  5
17A05
102
{ACAD_REACTORS
330
179A5
102
}
330
179A5
100
AcDbDictionary
281
     1
  3
Model
350
17A12
  3
レイアウト1
350
17A0E
  0
DICTIONARY
  5
179A9
102
{ACAD_REACTORS
330
179A5
102
}
330
179A5
100
AcDbDictionary
281
     1
  3
ByBlock
350
179B2
  3
ByLayer
350
179AA
  3
Global
350
179BA
  0
DICTIONARY
  5
17A09
102
{ACAD_REACTORS
330
179A5
102
}
330
179A5
100
AcDbDictionary
281
     1
  3
Standard
350
17A0A
  0
DICTIONARY
  5
17A02
102
{ACAD_REACTORS
330
179A5
102
}
330
179A5
100
AcDbDictionary
281
     1
  3
Standard
350
17A03
  0
DICTIONARY
  5
17A04
102
{ACAD_REACTORS
330
179A5
102
}
330
179A5
100
AcDbDictionary
281
     1
  0
ACDBDICTIONARYWDFLT
  5
179A7
102
{ACAD_REACTORS
330
179A5
102
}
330
179A5
100
AcDbDictionary
281
     1
  3
Normal
350
179A8
100
AcDbDictionaryWithDefault
340
179A8
  0
DICTIONARY
  5
179D6
102
{ACAD_REACTORS
330
179A5
102
}
330
179A5
100
AcDbDictionary
281
     1
  3
A0
350
179D7
  3
A1
350
179D8
  3
A2
350
179D9
  3
A3
350
179DA
  3
A4
350
179DB
  3
A5
350
179DC
  3
A6
350
179DD
  3
A7
350
179DE
  3
A8
350
179DF
  3
A9
350
179E0
  3
B0
350
179E1
  3
B1
350
179E2
  3
B2
350
179E3
  3
B3
350
179E4
  3
B4
350
179E5
  3
B5
350
179E6
  3
B6
350
179E7
  3
B7
350
179E8
  3
B8
350
179E9
  3
B9
350
179EA
  3
C0
350
179EB
  3
C1
350
179EC
  3
C2
350
179ED
  3
C3
350
179EE
  3
C4
350
179EF
  3
C5
350
179F0
  3
C6
350
179F1
  3
C7
350
179F2
  3
C8
350
179F3
  3
C9
350
179F4
  3
D0
350
179F5
  3
D1
350
179F6
  3
D2
350
179F7
  0
DICTIONARY
  5
17A07
102
{ACAD_REACTORS
330
179A5
102
}
330
179A5
100
AcDbDictionary
281
     1
  3
Standard
350
17A08
  0
DICTIONARY
  5
179C2
102
{ACAD_REACTORS
330
179A5
102
}
330
179A5
100
AcDbDictionary
281
     1
  3
2dWireframe
350
179C8
  3
3D Hidden
350
179CA
  3
3dWireframe
350
179C9
  3
Basic
350
179C7
  3
Brighten
350
179CE
  3
ColorChange
350
179D2
  3
Conceptual
350
179CB
  3
Dim
350
179CD
  3
EdgeColorOff
350
179D5
  3
Facepattern
350
179D1
  3
Flat
350
179C3
  3
FlatWithEdges
350
179C4
  3
Gouraud
350
179C5
  3
GouraudWithEdges
350
179C6
  3
JitterOff
350
179D3
  3
Linepattern
350
179D0
  3
OverhangOff
350
179D4
  3
Realistic
350
179CC
  3
Thicken
350
179CF
  3
Wireframe
350
1B494
  0
XRECORD
  5
1BE91
102
{ACAD_REACTORS
330
179A5
102
}
330
179A5
100
AcDbXrecord
280
     1
 90
        1
330
17A08
  0
DICTIONARY
  5
183BA
102
{ACAD_REACTORS
330
179A5
102
}
330
179A5
100
AcDbDictionary
281
     1
  3
CANNOSCALE
350
183BD
  3
CMLEADERSTYLE
350
183BC
  3
CTABLESTYLE
350
183BB
  3
DIMASSOC
350
183C0
  3
INDEXCTL
350
183BF
  3
SORTENTS
350
183BE
  3
XCLIPFRAME
350
1BE57
  0
DICTIONARY
  5
18E7F
102
{ACAD_REACTORS
330
179A5
102
}
330
179A5
100
AcDbDictionary
281
     1
  0
DICTIONARY
  5
1B441
102
{ACAD_REACTORS
330
179A5
102
}
330
179A5
100
AcDbDictionary
281
     1
  3
ASEBlockHierarchyIndexRecord
350
1B442
1001
DCO15
1040
1853420737.295
  0
XRECORD
  5
1BE92
102
{ACAD_REACTORS
330
179A5
102
}
330
179A5
100
AcDbXrecord
280
     1
  1
DWGPROPS COOKIE
  2

  3

  4

  6

  7

  8
CAD-PC
  9

300
=
301
=
302
=
303
=
304
=
305
=
306
=
307
=
308
=
309
=
 40
2.674338831018518
 41
2452286.555658658
 42
2457255.421630151
  1

 90
        0
  0
DICTIONARY
  5
1B484
102
{ACAD_REACTORS
330
1B483
102
}
330
1B483
100
AcDbDictionary
281
     1
  0
XRECORD
  5
1838B
102
{ACAD_REACTORS
330
1838A
102
}
330
1838A
100
AcDbXrecord
280
     1
290
     1
  0
XRECORD
  5
1838D
102
{ACAD_REACTORS
330
1838C
102
}
330
1838C
100
AcDbXrecord
280
     1
290
     1
  0
XRECORD
  5
1838F
102
{ACAD_REACTORS
330
1838E
102
}
330
1838E
100
AcDbXrecord
280
     1
290
     1
  0
XRECORD
  5
18393
102
{ACAD_REACTORS
330
18392
102
}
330
18392
100
AcDbXrecord
280
     1
290
     1
  0
XRECORD
  5
18397
102
{ACAD_REACTORS
330
18396
102
}
330
18396
100
AcDbXrecord
280
     1
290
     1
  0
XRECORD
  5
18399
102
{ACAD_REACTORS
330
18398
102
}
330
18398
100
AcDbXrecord
280
     1
290
     1
  0
XRECORD
  5
1839D
102
{ACAD_REACTORS
330
1839C
102
}
330
1839C
100
AcDbXrecord
280
     1
290
     1
  0
XRECORD
  5
1839F
102
{ACAD_REACTORS
330
1839E
102
}
330
1839E
100
AcDbXrecord
280
     1
290
     1
  0
XRECORD
  5
183AD
102
{ACAD_REACTORS
330
183AC
102
}
330
183AC
100
AcDbXrecord
280
     1
290
     1
  0
SORTENTSTABLE
  5
1B4A3
102
{ACAD_REACTORS
330
1B4A2
102
}
330
1B4A2
100
AcDbSortentsTable
330
17A0F
331
19F42
  5
19F45
331
19D2C
  5
19D31
331
19E5F
  5
19E65
331
19DAA
  5
19DAE
331
19DE9
  5
19DEC
331
19D34
  5
19D37
331
14CA5
  5
14CD2
331
19D73
  5
19D76
331
14D72
  5
14D75
331
19E28
  5
19E2B
331
19D7B
  5
19D7E
331
19DB2
  5
19DB5
331
19D05
  5
19D08
331
19D3C
  5
19D41
331
19DF1
  5
19DF4
331
19E30
  5
19E33
331
19D44
  5
19D47
331
14D66
  5
14D6F
331
19DBA
  5
19DC0
331
19E6F
  5
19E72
331
19ECC
  5
19ED0
331
19F0B
  5
19F0E
331
19E75
  5
19E79
331
19F4A
  5
19F4D
331
19F52
  5
19F55
331
19E7D
  5
19E83
331
19ED4
  5
19ED9
331
19F13
  5
19F16
331
19F1B
  5
19F1E
331
19E85
  5
19E88
331
1B3B1
  5
1B3B4
331
19F23
  5
19F26
331
19E8D
  5
19E91
331
19EE4
  5
19EE8
331
1B3B9
  5
1B3BD
331
14BCF
  5
14BE2
331
14C3E
  5
14C41
331
19DC2
  5
19DC5
331
19DF9
  5
19DFC
331
19D4C
  5
19D50
331
19D83
  5
19D86
331
19E38
  5
19E3B
331
14CBF
  5
14CFB
331
14BDF
  5
14C05
331
19D0D
  5
19D10
331
19E01
  5
19E04
331
19D15
  5
19D18
331
19D54
  5
19D57
331
19CDE
  5
19CE1
331
19D8B
  5
19D90
331
19E40
  5
19E43
331
19D1D
  5
19D22
331
19D5C
  5
19D62
331
19E09
  5
19E0C
331
19E11
  5
19E14
331
19E50
  5
19E53
331
19D9B
  5
19DA4
331
19D25
  5
19D28
331
19DDA
  5
19DDD
331
14CFF
  5
14D0C
331
14D91
  5
14D94
331
14D9B
  5
14D9F
331
14D79
  5
14D7C
331
1B0B9
  5
1B224
331
1B2F4
  5
1B2F7
331
1B3C1
  5
1B3C4
331
19EEC
  5
19EF1
331
19F2B
  5
19F2E
331
19E95
  5
19E9A
331
1B3C9
  5
1B3CC
331
19E9D
  5
19EBC
331
19EF4
  5
19F07
331
19F33
  5
19F36
331
1B39A
  5
1B39E
331
1B3D1
  5
1B3D4
331
19EBD
  5
19EC2
331
19F3B
  5
19F3E
331
19F43
  5
19F46
331
14C7E
  5
14CA5
331
19E19
  5
19E1D
331
19E58
  5
19E5D
331
19D6C
  5
19D70
331
19CF6
  5
19CF9
331
14C9E
  5
14CBF
331
19D2D
  5
19D32
331
19DE2
  5
19DE6
331
19DEA
  5
19DED
331
19D35
  5
19D38
331
19D74
  5
19D77
331
19E60
  5
19E68
331
19E68
  5
19E6B
331
14D73
  5
14D76
331
19DB3
  5
19DB6
331
19DF2
  5
19DF5
331
19D06
  5
19D0D
331
19D3D
  5
19D42
331
14D1F
  5
14D63
331
19D7C
  5
19D7F
331
19E29
  5
19E2C
331
19E31
  5
19E36
331
19D45
  5
19D49
331
14D67
  5
14D70
331
19F0C
  5
19F0F
331
19F4B
  5
19F4E
331
19E76
  5
19E7A
331
19ECD
  5
19ED1
331
1B3A2
  5
1B3A5
331
1B3AA
  5
1B3AD
331
19F14
  5
19F17
331
19E7E
  5
19E84
331
19F53
  5
19F56
331
1B3B2
  5
1B3B5
331
19EDD
  5
19EE0
331
19F1C
  5
19F1F
331
19E86
  5
19E89
331
19EE5
  5
19EE9
331
19F24
  5
19F27
331
19E39
  5
19E3E
331
19D84
  5
19D87
331
19DC3
  5
19DC6
331
19D0E
  5
19D12
331
19D4D
  5
19D51
331
19DFA
  5
19E01
331
19E02
  5
19E05
331
19E41
  5
19E44
331
19D55
  5
19D58
331
19D8C
  5
19D92
331
19CDF
  5
19CE2
331
19D16
  5
19D19
331
19DCB
  5
19DCF
331
19DD3
  5
19DD6
331
19E0A
  5
19E0E
331
19D5D
  5
19D63
331
19D94
  5
19D98
331
19E49
  5
19E51
331
19CE7
  5
19CEA
331
19D1E
  5
19D24
331
19DDB
  5
19DDE
331
19E12
  5
19E15
331
19D26
  5
19D29
331
19D65
  5
19D68
331
19CEF
  5
19CF3
331
19D9C
  5
19DA5
331
19E51
  5
19E55
331
14D92
  5
14D95
331
14D9C
  5
154FA
331
14D8E
  5
14D91
331
14D7A
  5
14D7D
331
1B2F5
  5
1B2F8
331
19F2C
  5
19F2F
331
19E96
  5
19E9B
331
19EED
  5
19EF2
331
1B3C2
  5
1B3C6
331
19F34
  5
19F37
331
19E9E
  5
19EBD
331
1B3CA
  5
1B3CD
331
1B3D2
  5
1B3D5
331
19F05
  5
19F08
331
19F3C
  5
19F3F
331
19EBE
  5
19EC6
331
1B39B
  5
1B39F
331
19EC6
  5
19EC9
331
19F44
  5
19F47
331
14D00
  5
14D0E
331
19E59
  5
19E5E
331
19DA4
  5
19DA7
331
19DE3
  5
19DE7
331
19CF7
  5
19CFA
331
19D6D
  5
19D71
331
19E61
  5
19E69
331
19D75
  5
19D78
331
19DAC
  5
19DAF
331
19CFF
  5
19D04
331
19D36
  5
19D39
331
19DEB
  5
19DEE
331
14D74
  5
14D77
331
19E2A
  5
19E2D
331
19E69
  5
19E6C
331
19D7D
  5
19D80
331
19D07
  5
19D0E
331
19DB4
  5
19DB7
331
19DF3
  5
19DF6
331
19D46
  5
19D4A
331
19E32
  5
19E38
331
1B3A3
  5
1B3A6
331
19F0D
  5
19F10
331
19E77
  5
19E7B
331
19F4C
  5
19F4F
331
19F54
  5
19F57
331
1B3AB
  5
1B3AE
331
19E7F
  5
19E85
331
19ED6
  5
19EDA
331
19F15
  5
19F18
331
19F1D
  5
19F20
331
19E87
  5
19E8A
331
19EDE
  5
19EE1
331
1B3B3
  5
1B3B6
331
1B3BB
  5
1B3BE
331
14BC9
  5
14BCC
331
19F25
  5
19F28
331
19E8F
  5
19E92
331
19EE6
  5
19EEA
331
14C40
  5
14C72
331
19DC4
  5
19DC7
331
19DFB
  5
19E02
331
14C50
  5
14C7E
331
19D0F
  5
19D14
331
19D4E
  5
19D52
331
19D85
  5
19D88
331
19E3A
  5
19E40
331
19E42
  5
19E45
331
19DCC
  5
19DD0
331
19E03
  5
19E06
331
19D17
  5
19D1A
331
19D56
  5
19D59
331
19CE0
  5
19CE3
331
19D8D
  5
19D94
331
19E4A
  5
19E52
331
19CE8
  5
19CEB
331
19D95
  5
19D99
331
19DD4
  5
19DD8
331
19E0B
  5
19E11
331
19E13
  5
19E16
331
19E52
  5
19E56
331
19D66
  5
19D6C
331
19D9D
  5
19DA6
331
19D27
  5
19D2B
331
19DDC
  5
19DDF
331
14D93
  5
14D96
331
14D7B
  5
14D7E
331
14D85
  5
14D88
331
14D8F
  5
14D92
331
1B05B
  5
1B177
331
1B2F6
  5
1B2F9
331
1B3C3
  5
1B3C7
331
19EEE
  5
19EF3
331
19F2D
  5
19F30
331
19E97
  5
19E9D
331
1B3CB
  5
1B3CE
331
19F35
  5
19F38
331
19F3D
  5
19F40
331
1B39C
  5
1B3A1
331
19F06
  5
19F09
331
1B3D3
  5
1B3D6
331
19F45
  5
19F48
331
14C78
  5
14CA4
331
19EC7
  5
19ECA
331
19CF0
  5
19CF4
331
19E1B
  5
19E1E
331
19CF8
  5
19CFF
331
19DA5
  5
19DA8
331
19DEC
  5
19DEF
331
19D37
  5
19D3C
331
19D76
  5
19D79
331
14D19
  5
14D4F
331
19D00
  5
19D05
331
19DAD
  5
19DB0
331
19E6A
  5
19E6D
331
14D75
  5
14D78
331
19DB5
  5
19DB8
331
19DF4
  5
19DF7
331
19D7E
  5
19D81
331
19E2B
  5
19E2E
331
19E33
  5
19E39
331
19D47
  5
19D4C
331
19E70
  5
19E73
331
19F0E
  5
19F11
331
19F4D
  5
19F50
331
19ECF
  5
19ED3
331
1B3A4
  5
1B3A7
331
1B3AC
  5
1B3AF
331
19F16
  5
19F19
331
19F55
  5
19F58
331
1B3B4
  5
1B3B7
331
19EDF
  5
19EE2
331
19F1E
  5
19F21
331
19E88
  5
19E8B
331
1B3BC
  5
1B3BF
331
19F26
  5
19F29
331
14C41
  5
14C78
331
19D08
  5
19D0F
331
14BDA
  5
14BE5
331
19E3B
  5
19E41
331
19D86
  5
19D8A
331
14BE2
  5
14C08
331
19CD9
  5
19CDC
331
19D10
  5
19D15
331
19DC5
  5
19DC9
331
19DFC
  5
19E03
331
19E04
  5
19E07
331
19E43
  5
19E46
331
19D57
  5
19D5A
331
14CD2
  5
14D00
331
19CE1
  5
19CE4
331
19D18
  5
19D1B
331
19DCD
  5
19DD1
331
19DD5
  5
19DD9
331
19E0C
  5
19E12
331
19CE9
  5
19CEC
331
19E53
  5
19E57
331
19DDD
  5
19DE2
331
19D67
  5
19D6D
331
19E14
  5
19E17
331
14D94
  5
14D97
331
14D6E
  5
14D71
331
14D88
  5
14D8D
331
14D7C
  5
14D7F
331
14D86
  5
14D8A
331
1B2F7
  5
1B316
331
19E90
  5
19E94
331
19F2E
  5
19F31
331
1B3C4
  5
1B3C8
331
1B3CC
  5
1B3CF
331
19F36
  5
19F39
331
1B395
  5
1B398
331
1B3D4
  5
1B3D7
331
19F07
  5
19F0A
331
19F3E
  5
19F41
331
19F46
  5
19F49
331
19D28
  5
19D2C
331
19CF1
  5
19CF6
331
19E5B
  5
19E5F
331
19DA6
  5
19DA9
331
19DE5
  5
19DE8
331
19CF9
  5
19D00
331
19D30
  5
19D33
331
19D6F
  5
19D72
331
19E1C
  5
19E24
331
19E24
  5
19E27
331
19D77
  5
19D7A
331
19DAE
  5
19DB1
331
19D38
  5
19D3D
331
19DED
  5
19DF0
331
14D76
  5
14D79
331
19DF5
  5
19DF9
331
19E2C
  5
19E2F
331
19D7F
  5
19D82
331
19DB6
  5
19DB9
331
19E6B
  5
19E6E
331
14D62
  5
14D67
331
19D40
  5
19D43
331
19DBE
  5
19DC1
331
1B224
  5
1B2F5
331
1B24C
  5
1B2F6
331
19EC8
  5
19ECB
331
19E71
  5
19E74
331
19F4E
  5
19F51
331
1B3A5
  5
1B3A8
331
19ED0
  5
19ED4
331
19F0F
  5
19F12
331
19E79
  5
19E7C
331
19F56
  5
1A532
331
1B3AD
  5
1B3B0
331
19ED8
  5
19EDD
331
19F17
  5
19F1A
331
19F1F
  5
19F22
331
19E89
  5
19E8C
331
19EE0
  5
19EE3
331
1B3B5
  5
1B3B8
331
1B3BD
  5
1B3C0
331
14BCB
  5
14BDA
331
19F27
  5
19F2A
331
19DC6
  5
19DCB
331
19D50
  5
19D53
331
14CCB
  5
14CFF
331
19CDA
  5
19CDE
331
19D87
  5
19D8B
331
19E44
  5
19E47
331
19D19
  5
19D1C
331
19D58
  5
19D5C
331
19E05
  5
19E08
331
14C72
  5
14C9E
331
19CE2
  5
19CE7
331
1567E
  5
19CDA
331
19D97
  5
19D9A
331
19DD6
  5
19DDA
331
19CEA
  5
19CED
331
19D21
  5
19D25
331
19D60
  5
19D65
331
14D4F
  5
14D66
331
19E15
  5
19E19
331
19DDE
  5
19DE3
331
14D9F
  5
156C1
331
14D6F
  5
14D72
331
14D95
  5
14D98
331
14D7D
  5
14D81
331
14D87
  5
14D8B
331
19EE8
  5
19EEB
331
19E91
  5
19E95
331
19F2F
  5
19F32
331
1B396
  5
1B399
331
1A532
  5
1B05B
331
19F37
  5
19F3A
331
19F3F
  5
19F42
331
19EC1
  5
19EC7
331
1B39E
  5
1B3A2
331
1B3D5
  5
1B49E
331
19F47
  5
19F4A
331
19D68
  5
19D6F
331
14C13
  5
14C25
331
19D29
  5
19D2D
331
19DE6
  5
19DE9
331
19E1D
  5
19E25
331
19D31
  5
19D34
331
19D70
  5
19D73
331
14D0B
  5
14D19
331
14C23
  5
14C3D
331
19CFA
  5
19D02
331
19DA7
  5
19DAA
331
19DEE
  5
19DF1
331
19E25
  5
19E28
331
19D39
  5
19D40
331
19D78
  5
19D7B
331
19D02
  5
19D06
331
19DAF
  5
19DB2
331
19E6C
  5
19E6F
331
14D77
  5
14D7A
331
19DB7
  5
19DBA
331
19D41
  5
19D44
331
19DF6
  5
19DFA
331
14D63
  5
14D6E
331
19E2D
  5
19E30
331
19DBF
  5
19DC2
331
19E72
  5
19E75
331
19EC9
  5
19ECC
331
19F08
  5
19F0B
331
19F10
  5
19F13
331
19F4F
  5
19F52
331
19E7A
  5
19E7D
331
19ED1
  5
19ED6
331
1B3A6
  5
1B3A9
331
19ED9
  5
19EDE
331
19F18
  5
19F1B
331
19F57
  5
1AEAA
331
1B3B6
  5
1B3B9
331
19EE1
  5
19EE4
331
19F20
  5
19F23
331
19E8A
  5
19E8D
331
1B3BE
  5
1B3C1
331
14BCC
  5
14BDF
331
19D80
  5
19D83
331
19D49
  5
19D4D
331
19D88
  5
19D8C
331
19DC7
  5
19DCC
331
19CDB
  5
19CDF
331
19D12
  5
19D16
331
19D51
  5
19D54
331
19E06
  5
19E09
331
19E45
  5
19E49
331
19D59
  5
19D5D
331
19D90
  5
19D95
331
19CE3
  5
19CE8
331
19D1A
  5
19D1D
331
19DCF
  5
19DD3
331
19E0E
  5
19E13
331
19D22
  5
19D26
331
19CEB
  5
19CEF
331
19D98
  5
19D9B
331
19E55
  5
19E58
331
14D98
  5
14D9B
331
19DDF
  5
19DE5
331
19E16
  5
19E1B
331
14D96
  5
14D99
331
14D8A
  5
14D8E
331
14D7E
  5
14D82
331
19E92
  5
19E96
331
19EE9
  5
19EEC
331
19F28
  5
19F2B
331
19F30
  5
19F33
331
19E9A
  5
19E9E
331
19EF1
  5
19EF4
331
1B3C6
  5
1B3C9
331
1B3CE
  5
1B3D1
331
19F38
  5
19F3B
331
1B3D6
  5
1B49F
331
19F40
  5
19F43
331
19EC2
  5
19EC8
331
1B39F
  5
1B3A3
331
1B49E
  5
1B4A1
331
14C14
  5
14C34
331
19CF3
  5
19CF7
331
19E5D
  5
19E60
331
19DA8
  5
19DAC
331
19DE7
  5
19DEA
331
19D32
  5
19D35
331
14D0C
  5
14D1A
331
19D71
  5
19D74
331
19E1E
  5
19E26
331
14D70
  5
14D73
331
19E26
  5
19E29
331
19E65
  5
19E6A
331
19D79
  5
19D7C
331
19DB0
  5
19DB3
331
19DEF
  5
19DF2
331
19DF7
  5
19DFB
331
19E2E
  5
19E31
331
19D42
  5
19D45
331
19DB8
  5
19DBE
331
19E6D
  5
19E70
331
19E36
  5
19E3A
331
19ECA
  5
19ECD
331
19F09
  5
19F0C
331
19E73
  5
19E76
331
19F48
  5
19F4B
331
19F50
  5
19F53
331
1B3A7
  5
1B3AA
331
19E7B
  5
19E7E
331
19F11
  5
19F14
331
19F58
  5
1AEAB
331
1B3AF
  5
1B3B2
331
19E83
  5
19E86
331
19EDA
  5
19EDF
331
19F19
  5
19F1C
331
19F21
  5
19F24
331
1B0D8
  5
1B24C
331
19E8B
  5
19E8F
331
19EE2
  5
19EE5
331
1B3B7
  5
1B3BB
331
1B3BF
  5
1B3C2
331
19D4A
  5
19D4E
331
19D81
  5
19D84
331
19DC0
  5
19DC3
331
19D52
  5
19D55
331
19CDC
  5
19CE0
331
19E3E
  5
19E42
331
19E46
  5
19E4A
331
19DD0
  5
19DD4
331
14C05
  5
14C14
331
19CE4
  5
19CE9
331
19D1B
  5
19D1E
331
19D5A
  5
19D60
331
19E07
  5
19E0A
331
19D99
  5
19D9C
331
19DD8
  5
19DDB
331
19CEC
  5
19CF0
331
19D62
  5
19D66
331
19E17
  5
19E1C
331
19E56
  5
19E59
331
14D99
  5
14D9C
331
156C1
  5
19CDB
331
14D97
  5
14D9A
331
14D81
  5
14D86
331
14D8B
  5
14D8F
331
14D7F
  5
14D85
331
1B177
  5
1B2F4
331
19EEA
  5
19EED
331
19F29
  5
19F2C
331
1B2F8
  5
1B395
331
1B3C7
  5
1B3CA
331
19EF2
  5
19F05
331
19F31
  5
19F34
331
19E9B
  5
19EBB
331
1B398
  5
1B39B
331
1B3CF
  5
1B3D2
331
19EBB
  5
19EBE
331
19F39
  5
19F3C
331
19F41
  5
19F44
331
1B3D7
  5
1B4A0
331
19CF4
  5
19CF8
331
19D2B
  5
19D30
331
19DE8
  5
19DEB
331
14CA4
  5
14CCB
331
19D33
  5
19D36
331
19D72
  5
19D75
331
19DA9
  5
19DAD
331
19E5E
  5
19E61
331
14D71
  5
14D74
331
19DB1
  5
19DB4
331
19DF0
  5
19DF3
331
19D7A
  5
19D7D
331
19E27
  5
19E2A
331
19D04
  5
19D07
331
19E6E
  5
19E71
331
19DB9
  5
19DBF
331
19D43
  5
19D46
331
19E2F
  5
19E32
331
1B316
  5
1B397
331
19F0A
  5
19F0D
331
19F49
  5
19F4C
331
19E74
  5
19E77
331
19ECB
  5
19ECF
331
19F12
  5
19F15
331
19F51
  5
19F54
331
19E7C
  5
19E7F
331
19ED3
  5
19ED8
331
1B3A8
  5
1B3AB
331
1B3B0
  5
1B3B3
331
19F1A
  5
19F1D
331
19E84
  5
19E87
331
19E8C
  5
19E90
331
19EE3
  5
19EE6
331
19F22
  5
19F25
331
14C3D
  5
14C40
331
19D82
  5
19D85
331
19DC1
  5
19DC4
331
19D53
  5
19D56
331
19D8A
  5
19D8D
331
19D14
  5
19D17
331
19DC9
  5
19DCD
331
19E08
  5
19E0B
331
19E47
  5
19E50
331
19D92
  5
19D97
331
19D1C
  5
19D21
331
19DD1
  5
19DD5
331
19DD9
  5
19DDC
331
19D24
  5
19D27
331
19D63
  5
19D67
331
19CED
  5
19CF1
331
19D9A
  5
19D9D
331
14D90
  5
14D93
331
19E57
  5
19E5B
331
14D78
  5
14D7B
331
14D82
  5
14D87
331
1B2F9
  5
1B396
331
19E94
  5
19E97
331
19EEB
  5
19EEE
331
19F2A
  5
19F2D
331
19F32
  5
19F35
331
19EF3
  5
19F06
331
1B3C8
  5
1B3CB
331
1B3D0
  5
1B3D3
331
19F3A
  5
19F3D
331
19EBC
  5
19EC1
331
1B399
  5
1B39C
  0
XRECORD
  5
1BE94
102
{ACAD_REACTORS
330
1BE93
102
}
330
1BE93
100
AcDbXrecord
280
     1
102
SHADEPLOT
 70
     0
  0
XRECORD
  5
1BE96
102
{ACAD_REACTORS
330
1BE95
102
}
330
1BE95
100
AcDbXrecord
280
     1
102
SHADEPLOT
 70
     0
  0
LAYOUT
  5
17A12
102
{ACAD_XDICTIONARY
360
1BEC0
102
}
102
{ACAD_REACTORS
330
17A05
102
}
330
17A05
100
AcDbPlotSettings
  1

  2
Canon LBP8620 CAD241
  4
A4
  6

 40
5.873749732971191
 41
5.873747825622557
 42
5.873748779296875
 43
5.873748779296875
 44
209.9733276367186
 45
296.9259948730469
 46
18.18155352387438
 47
0.7499549721376582
 48
0.0
 49
0.0
140
0.0
141
0.0
142
1.0
143
2.5
 70
 11940
 72
     1
 73
     0
 74
     1
  7
monochrome.ctb
 75
     0
147
0.4
148
-351.6126211798692
149
340.6219433418264
100
AcDbLayout
  1
Model
 70
     1
 71
     0
 10
0.0
 20
0.0
 11
12.0
 21
9.0
 12
0.0
 22
0.0
 32
0.0
 14
0.0
 24
0.0
 34
0.0
 15
0.0
 25
0.0
 35
0.0
146
0.0
 13
0.0
 23
0.0
 33
0.0
 16
1.0
 26
0.0
 36
0.0
 17
0.0
 27
1.0
 37
0.0
 76
     0
330
17A0F
331
17A15
1001
ACAD_PSEXT
1000
Canon LBP8620 CAD241
1000
Canon LBP8630/8620/8610 LIPSLX
1000
IP_192.168.54.241
1000

1070
     0
  0
LAYOUT
  5
17A0E
102
{ACAD_XDICTIONARY
360
1BEBE
102
}
102
{ACAD_REACTORS
330
17A05
102
}
330
17A05
100
AcDbPlotSettings
  1

  2
Canon LBP8620 CAD241
  4

  6

 40
0.0
 41
0.0
 42
0.0
 43
0.0
 44
0.0
 45
0.0
 46
0.0
 47
0.0
 48
0.0
 49
0.0
140
0.0
141
0.0
142
1.0
143
1.0
 70
   688
 72
     0
 73
     0
 74
     5
  7
acad.ctb
 75
    16
147
1.0
148
0.0
149
0.0
100
AcDbLayout
  1
レイアウト1
 70
     1
 71
     1
 10
0.0
 20
0.0
 11
0.0
 21
0.0
 12
0.0
 22
0.0
 32
0.0
 14
0.0
 24
0.0
 34
0.0
 15
0.0
 25
0.0
 35
0.0
146
0.0
 13
0.0
 23
0.0
 33
0.0
 16
1.0
 26
0.0
 36
0.0
 17
0.0
 27
1.0
 37
0.0
 76
     0
330
17A0B
331
9AC
  0
MATERIAL
  5
179B2
102
{ACAD_XDICTIONARY
360
179B3
102
}
102
{ACAD_REACTORS
330
179A9
102
}
330
179A9
100
AcDbMaterial
  1
ByBlock
 72
     0
 43
0.0208333333333333
 43
0.0
 43
0.0
 43
0.0
 43
0.0
 43
0.0208333333333333
 43
0.0
 43
0.0
 43
0.0
 43
0.0
 43
1.0
 43
0.0
 43
0.0
 43
0.0
 43
0.0
 43
1.0
 77
     0
 47
0.0208333333333333
 47
0.0
 47
0.0
 47
0.0
 47
0.0
 47
0.0208333333333333
 47
0.0
 47
0.0
 47
0.0
 47
0.0
 47
1.0
 47
0.0
 47
0.0
 47
0.0
 47
0.0
 47
1.0
171
     0
 49
0.0208333333333333
 49
0.0
 49
0.0
 49
0.0
 49
0.0
 49
0.0208333333333333
 49
0.0
 49
0.0
 49
0.0
 49
0.0
 49
1.0
 49
0.0
 49
0.0
 49
0.0
 49
0.0
 49
1.0
175
     0
142
0.0208333333333333
142
0.0
142
0.0
142
0.0
142
0.0
142
0.0208333333333333
142
0.0
142
0.0
142
0.0
142
0.0
142
1.0
142
0.0
142
0.0
142
0.0
142
0.0
142
1.0
179
     0
144
0.0208333333333333
144
0.0
144
0.0
144
0.0
144
0.0
144
0.0208333333333333
144
0.0
144
0.0
144
0.0
144
0.0
144
1.0
144
0.0
144
0.0
144
0.0
144
0.0
144
1.0
147
0.0208333333333333
147
0.0
147
0.0
147
0.0
147
0.0
147
0.0208333333333333
147
0.0
147
0.0
147
0.0
147
0.0
147
1.0
147
0.0
147
0.0
147
0.0
147
0.0
147
1.0
  0
MATERIAL
  5
179AA
102
{ACAD_XDICTIONARY
360
179AB
102
}
102
{ACAD_REACTORS
330
179A9
102
}
330
179A9
100
AcDbMaterial
  1
ByLayer
 72
     0
 43
0.0208333333333333
 43
0.0
 43
0.0
 43
0.0
 43
0.0
 43
0.0208333333333333
 43
0.0
 43
0.0
 43
0.0
 43
0.0
 43
1.0
 43
0.0
 43
0.0
 43
0.0
 43
0.0
 43
1.0
 77
     0
 47
0.0208333333333333
 47
0.0
 47
0.0
 47
0.0
 47
0.0
 47
0.0208333333333333
 47
0.0
 47
0.0
 47
0.0
 47
0.0
 47
1.0
 47
0.0
 47
0.0
 47
0.0
 47
0.0
 47
1.0
171
     0
 49
0.0208333333333333
 49
0.0
 49
0.0
 49
0.0
 49
0.0
 49
0.0208333333333333
 49
0.0
 49
0.0
 49
0.0
 49
0.0
 49
1.0
 49
0.0
 49
0.0
 49
0.0
 49
0.0
 49
1.0
175
     0
142
0.0208333333333333
142
0.0
142
0.0
142
0.0
142
0.0
142
0.0208333333333333
142
0.0
142
0.0
142
0.0
142
0.0
142
1.0
142
0.0
142
0.0
142
0.0
142
0.0
142
1.0
179
     0
144
0.0208333333333333
144
0.0
144
0.0
144
0.0
144
0.0
144
0.0208333333333333
144
0.0
144
0.0
144
0.0
144
0.0
144
1.0
144
0.0
144
0.0
144
0.0
144
0.0
144
1.0
147
0.0208333333333333
147
0.0
147
0.0
147
0.0
147
0.0
147
0.0208333333333333
147
0.0
147
0.0
147
0.0
147
0.0
147
1.0
147
0.0
147
0.0
147
0.0
147
0.0
147
1.0
  0
MATERIAL
  5
179BA
102
{ACAD_XDICTIONARY
360
179BB
102
}
102
{ACAD_REACTORS
330
179A9
102
}
330
179A9
100
AcDbMaterial
  1
Global
 72
     0
 43
0.0208333333333333
 43
0.0
 43
0.0
 43
0.0
 43
0.0
 43
0.0208333333333333
 43
0.0
 43
0.0
 43
0.0
 43
0.0
 43
1.0
 43
0.0
 43
0.0
 43
0.0
 43
0.0
 43
1.0
 77
     0
 47
0.0208333333333333
 47
0.0
 47
0.0
 47
0.0
 47
0.0
 47
0.0208333333333333
 47
0.0
 47
0.0
 47
0.0
 47
0.0
 47
1.0
 47
0.0
 47
0.0
 47
0.0
 47
0.0
 47
1.0
171
     0
 49
0.0208333333333333
 49
0.0
 49
0.0
 49
0.0
 49
0.0
 49
0.0208333333333333
 49
0.0
 49
0.0
 49
0.0
 49
0.0
 49
1.0
 49
0.0
 49
0.0
 49
0.0
 49
0.0
 49
1.0
175
     0
142
0.0208333333333333
142
0.0
142
0.0
142
0.0
142
0.0
142
0.0208333333333333
142
0.0
142
0.0
142
0.0
142
0.0
142
1.0
142
0.0
142
0.0
142
0.0
142
0.0
142
1.0
179
     0
144
0.0208333333333333
144
0.0
144
0.0
144
0.0
144
0.0
144
0.0208333333333333
144
0.0
144
0.0
144
0.0
144
0.0
144
1.0
144
0.0
144
0.0
144
0.0
144
0.0
144
1.0
147
0.0208333333333333
147
0.0
147
0.0
147
0.0
147
0.0
147
0.0208333333333333
147
0.0
147
0.0
147
0.0
147
0.0
147
1.0
147
0.0
147
0.0
147
0.0
147
0.0
147
1.0
  0
MLEADERSTYLE
  5
17A0A
102
{ACAD_REACTORS
330
17A09
102
}
330
17A09
100
AcDbMLeaderStyle
170
     2
171
     1
172
     0
 90
        2
 40
0.0
 41
0.0
173
     1
 91
-1056964608
340
179FE
 92
       -2
290
     1
 42
0.09
291
     1
 43
0.36
  3
Standard
 44
0.18
300

342
179F9
174
     1
178
     6
175
     1
176
     0
 93
-1056964608
 45
0.18
292
     0
297
     0
 46
0.18
 94
-1056964608
 47
1.0
 49
1.0
140
1.0
293
     1
141
0.0
294
     1
177
     0
142
1.0
295
     0
296
     0
143
0.125
1001
ACAD_MLEADERVER
1070
     2
  0
MLINESTYLE
  5
17A03
102
{ACAD_REACTORS
330
17A02
102
}
330
17A02
100
AcDbMlineStyle
  2
STANDARD
 70
     0
  3

 62
   256
 51
90.0
 52
90.0
 71
     2
 49
0.5
 62
   256
  6
BYLAYER
 49
-0.5
 62
   256
  6
BYLAYER
  0
ACDBPLACEHOLDER
  5
179A8
102
{ACAD_REACTORS
330
179A7
102
}
330
179A7
  0
SCALE
  5
179D7
102
{ACAD_REACTORS
330
179D6
102
}
330
179D6
100
AcDbScale
 70
     0
300
1:1
140
1.0
141
1.0
290
     1
  0
SCALE
  5
179D8
102
{ACAD_REACTORS
330
179D6
102
}
330
179D6
100
AcDbScale
 70
     0
300
1:2
140
1.0
141
2.0
290
     0
  0
SCALE
  5
179D9
102
{ACAD_REACTORS
330
179D6
102
}
330
179D6
100
AcDbScale
 70
     0
300
1:4
140
1.0
141
4.0
290
     0
  0
SCALE
  5
179DA
102
{ACAD_REACTORS
330
179D6
102
}
330
179D6
100
AcDbScale
 70
     0
300
1:5
140
1.0
141
5.0
290
     0
  0
SCALE
  5
179DB
102
{ACAD_REACTORS
330
179D6
102
}
330
179D6
100
AcDbScale
 70
     0
300
1:8
140
1.0
141
8.0
290
     0
  0
SCALE
  5
179DC
102
{ACAD_REACTORS
330
179D6
102
}
330
179D6
100
AcDbScale
 70
     0
300
1:10
140
1.0
141
10.0
290
     0
  0
SCALE
  5
179DD
102
{ACAD_REACTORS
330
179D6
102
}
330
179D6
100
AcDbScale
 70
     0
300
1:16
140
1.0
141
16.0
290
     0
  0
SCALE
  5
179DE
102
{ACAD_REACTORS
330
179D6
102
}
330
179D6
100
AcDbScale
 70
     0
300
1:20
140
1.0
141
20.0
290
     0
  0
SCALE
  5
179DF
102
{ACAD_REACTORS
330
179D6
102
}
330
179D6
100
AcDbScale
 70
     0
300
1:30
140
1.0
141
30.0
290
     0
  0
SCALE
  5
179E0
102
{ACAD_REACTORS
330
179D6
102
}
330
179D6
100
AcDbScale
 70
     0
300
1:40
140
1.0
141
40.0
290
     0
  0
SCALE
  5
179E1
102
{ACAD_REACTORS
330
179D6
102
}
330
179D6
100
AcDbScale
 70
     0
300
1:50
140
1.0
141
50.0
290
     0
  0
SCALE
  5
179E2
102
{ACAD_REACTORS
330
179D6
102
}
330
179D6
100
AcDbScale
 70
     0
300
1:100
140
1.0
141
100.0
290
     0
  0
SCALE
  5
179E3
102
{ACAD_REACTORS
330
179D6
102
}
330
179D6
100
AcDbScale
 70
     0
300
2:1
140
2.0
141
1.0
290
     0
  0
SCALE
  5
179E4
102
{ACAD_REACTORS
330
179D6
102
}
330
179D6
100
AcDbScale
 70
     0
300
4:1
140
4.0
141
1.0
290
     0
  0
SCALE
  5
179E5
102
{ACAD_REACTORS
330
179D6
102
}
330
179D6
100
AcDbScale
 70
     0
300
8:1
140
8.0
141
1.0
290
     0
  0
SCALE
  5
179E6
102
{ACAD_REACTORS
330
179D6
102
}
330
179D6
100
AcDbScale
 70
     0
300
10:1
140
10.0
141
1.0
290
     0
  0
SCALE
  5
179E7
102
{ACAD_REACTORS
330
179D6
102
}
330
179D6
100
AcDbScale
 70
     0
300
100:1
140
100.0
141
1.0
290
     0
  0
SCALE
  5
179E8
102
{ACAD_REACTORS
330
179D6
102
}
330
179D6
100
AcDbScale
 70
     0
300
1/128" = 1'-0"
140
0.0078125
141
12.0
290
     0
  0
SCALE
  5
179E9
102
{ACAD_REACTORS
330
179D6
102
}
330
179D6
100
AcDbScale
 70
     0
300
1/64" = 1'-0"
140
0.015625
141
12.0
290
     0
  0
SCALE
  5
179EA
102
{ACAD_REACTORS
330
179D6
102
}
330
179D6
100
AcDbScale
 70
     0
300
1/32" = 1'-0"
140
0.03125
141
12.0
290
     0
  0
SCALE
  5
179EB
102
{ACAD_REACTORS
330
179D6
102
}
330
179D6
100
AcDbScale
 70
     0
300
1/16" = 1'-0"
140
0.0625
141
12.0
290
     0
  0
SCALE
  5
179EC
102
{ACAD_REACTORS
330
179D6
102
}
330
179D6
100
AcDbScale
 70
     0
300
3/32" = 1'-0"
140
0.09375
141
12.0
290
     0
  0
SCALE
  5
179ED
102
{ACAD_REACTORS
330
179D6
102
}
330
179D6
100
AcDbScale
 70
     0
300
1/8" = 1'-0"
140
0.125
141
12.0
290
     0
  0
SCALE
  5
179EE
102
{ACAD_REACTORS
330
179D6
102
}
330
179D6
100
AcDbScale
 70
     0
300
3/16" = 1'-0"
140
0.1875
141
12.0
290
     0
  0
SCALE
  5
179EF
102
{ACAD_REACTORS
330
179D6
102
}
330
179D6
100
AcDbScale
 70
     0
300
1/4" = 1'-0"
140
0.25
141
12.0
290
     0
  0
SCALE
  5
179F0
102
{ACAD_REACTORS
330
179D6
102
}
330
179D6
100
AcDbScale
 70
     0
300
3/8" = 1'-0"
140
0.375
141
12.0
290
     0
  0
SCALE
  5
179F1
102
{ACAD_REACTORS
330
179D6
102
}
330
179D6
100
AcDbScale
 70
     0
300
1/2" = 1'-0"
140
0.5
141
12.0
290
     0
  0
SCALE
  5
179F2
102
{ACAD_REACTORS
330
179D6
102
}
330
179D6
100
AcDbScale
 70
     0
300
3/4" = 1'-0"
140
0.75
141
12.0
290
     0
  0
SCALE
  5
179F3
102
{ACAD_REACTORS
330
179D6
102
}
330
179D6
100
AcDbScale
 70
     0
300
1" = 1'-0"
140
1.0
141
12.0
290
     0
  0
SCALE
  5
179F4
102
{ACAD_REACTORS
330
179D6
102
}
330
179D6
100
AcDbScale
 70
     0
300
1-1/2" = 1'-0"
140
1.5
141
12.0
290
     0
  0
SCALE
  5
179F5
102
{ACAD_REACTORS
330
179D6
102
}
330
179D6
100
AcDbScale
 70
     0
300
3" = 1'-0"
140
3.0
141
12.0
290
     0
  0
SCALE
  5
179F6
102
{ACAD_REACTORS
330
179D6
102
}
330
179D6
100
AcDbScale
 70
     0
300
6" = 1'-0"
140
6.0
141
12.0
290
     0
  0
SCALE
  5
179F7
102
{ACAD_REACTORS
330
179D6
102
}
330
179D6
100
AcDbScale
 70
     0
300
1'-0" = 1'-0"
140
12.0
141
12.0
290
     0
  0
TABLESTYLE
  5
17A08
102
{ACAD_XDICTIONARY
360
183C2
102
}
102
{ACAD_REACTORS
330
17A07
102
}
330
17A07
100
AcDbTableStyle
  3
Standard
 70
     0
 71
     0
 40
0.06
 41
0.06
280
     0
281
     0
  7
STANDARD
140
0.18
170
     2
 62
     0
 63
     7
283
     0
274
    -2
284
     1
 64
     0
275
    -2
285
     1
 65
     0
276
    -2
286
     1
 66
     0
277
    -2
287
     1
 67
     0
278
    -2
288
     1
 68
     0
279
    -2
289
     1
 69
     0
  7
STANDARD
140
0.25
170
     5
 62
     0
 63
     7
283
     0
274
    -2
284
     1
 64
     0
275
    -2
285
     1
 65
     0
276
    -2
286
     1
 66
     0
277
    -2
287
     1
 67
     0
278
    -2
288
     1
 68
     0
279
    -2
289
     1
 69
     0
  7
STANDARD
140
0.18
170
     5
 62
     0
 63
     7
283
     0
274
    -2
284
     1
 64
     0
275
    -2
285
     1
 65
     0
276
    -2
286
     1
 66
     0
277
    -2
287
     1
 67
     0
278
    -2
288
     1
 68
     0
279
    -2
289
     1
 69
     0
  0
VISUALSTYLE
  5
179C8
102
{ACAD_XDICTIONARY
360
1BEA1
102
}
102
{ACAD_REACTORS
330
179C2
102
}
330
179C2
100
AcDbVisualStyle
  2

 70
     4
 71
     0
 72
     2
 73
     0
 90
        0
 40
-0.6
 41
-30.0
 62
     5
 63
     7
 74
     1
 91
        4
 64
     7
 65
   257
 75
     1
175
     1
 42
1.0
 92
        0
 66
   257
 43
1.0
 76
     1
 77
     6
 78
     2
 67
     7
 79
     5
170
     0
171
     0
290
     0
174
     0
 93
        1
 44
0.0
173
     0
291
     0
 45
0.0
1001
ACAD
1000
AcDbSavedByObjectVersion
1070
     0
  0
VISUALSTYLE
  5
179CA
102
{ACAD_XDICTIONARY
360
1BEA5
102
}
102
{ACAD_REACTORS
330
179C2
102
}
330
179C2
100
AcDbVisualStyle
  2

 70
     6
 71
     1
 72
     2
 73
     2
 90
        0
 40
-0.6
 41
-30.0
 62
     5
 63
     7
 74
     2
 91
        2
 64
     7
 65
   257
 75
     2
175
     1
 42
179.0
 92
        0
 66
   257
 43
1.0
 76
     1
 77
     6
 78
     2
 67
     7
 79
     3
170
     0
171
     0
290
     0
174
     0
 93
        1
 44
0.0
173
     0
291
     0
 45
0.0
1001
ACAD
1000
AcDbSavedByObjectVersion
1070
     0
  0
VISUALSTYLE
  5
179C9
102
{ACAD_XDICTIONARY
360
1BEA3
102
}
102
{ACAD_REACTORS
330
179C2
102
}
330
179C2
100
AcDbVisualStyle
  2

 70
     5
 71
     0
 72
     2
 73
     0
 90
        0
 40
-0.6
 41
-30.0
 62
     5
 63
     7
 74
     1
 91
        4
 64
     7
 65
   257
 75
     1
175
     1
 42
1.0
 92
        0
 66
   257
 43
1.0
 76
     1
 77
     6
 78
     2
 67
     7
 79
     5
170
     0
171
     0
290
     0
174
     0
 93
        1
 44
0.0
173
     0
291
     0
 45
0.0
1001
ACAD
1000
AcDbSavedByObjectVersion
1070
     0
  0
VISUALSTYLE
  5
179C7
102
{ACAD_XDICTIONARY
360
1BE9F
102
}
102
{ACAD_REACTORS
330
179C2
102
}
330
179C2
100
AcDbVisualStyle
  2

 70
     7
 71
     1
 72
     0
 73
     1
 90
        0
 40
-0.6
 41
-30.0
 62
     5
 63
     7
 74
     0
 91
        4
 64
     7
 65
   257
 75
     1
175
     1
 42
1.0
 92
        8
 66
     7
 43
1.0
 76
     1
 77
     6
 78
     2
 67
     7
 79
     5
170
     0
171
     0
290
     0
174
     0
 93
        1
 44
0.0
173
     0
291
     1
 45
0.0
1001
ACAD
1000
AcDbSavedByObjectVersion
1070
     0
  0
VISUALSTYLE
  5
179CE
102
{ACAD_XDICTIONARY
360
1BEAD
102
}
102
{ACAD_REACTORS
330
179C2
102
}
330
179C2
100
AcDbVisualStyle
  2

 70
    12
 71
     2
 72
     2
 73
     0
 90
        0
 40
-0.6
 41
-30.0
 62
     5
 63
     7
 74
     1
 91
        4
 64
     7
 65
   257
 75
     1
175
     1
 42
1.0
 92
        8
 66
     7
 43
1.0
 76
     1
 77
     6
 78
     2
 67
     7
 79
     5
170
     0
171
     0
290
     0
174
     0
 93
        1
 44
50.0
173
     0
291
     1
 45
0.0
1001
ACAD
1000
AcDbSavedByObjectVersion
1070
     0
  0
VISUALSTYLE
  5
179D2
102
{ACAD_XDICTIONARY
360
1BEB5
102
}
102
{ACAD_REACTORS
330
179C2
102
}
330
179C2
100
AcDbVisualStyle
  2

 70
    16
 71
     2
 72
     2
 73
     3
 90
        0
 40
-0.6
 41
-30.0
 62
     5
 63
     8
 74
     1
 91
        4
 64
     7
 65
   257
 75
     1
175
     1
 42
1.0
 92
        8
 66
     8
 43
1.0
 76
     1
 77
     6
 78
     2
 67
     7
 79
     5
170
     0
171
     0
290
     0
174
     0
 93
        1
 44
0.0
173
     0
291
     1
 45
0.0
1001
ACAD
1000
AcDbSavedByObjectVersion
1070
     0
  0
VISUALSTYLE
  5
179CB
102
{ACAD_XDICTIONARY
360
1BEA7
102
}
102
{ACAD_REACTORS
330
179C2
102
}
330
179C2
100
AcDbVisualStyle
  2

 70
     9
 71
     3
 72
     2
 73
     0
 90
        0
 40
-0.6
 41
-30.0
 62
     5
 63
     7
 74
     2
 91
        2
 64
     7
 65
   257
 75
     1
175
     1
 42
179.0
 92
        8
 66
     7
 43
1.0
 76
     1
 77
     6
 78
     2
 67
     7
 79
     3
170
     0
171
     0
290
     0
174
     0
 93
        1
 44
0.0
173
     0
291
     0
 45
0.0
1001
ACAD
1000
AcDbSavedByObjectVersion
1070
     0
  0
VISUALSTYLE
  5
179CD
102
{ACAD_XDICTIONARY
360
1BEAB
102
}
102
{ACAD_REACTORS
330
179C2
102
}
330
179C2
100
AcDbVisualStyle
  2

 70
    11
 71
     2
 72
     2
 73
     0
 90
        0
 40
-0.6
 41
-30.0
 62
     5
 63
     7
 74
     1
 91
        4
 64
     7
 65
   257
 75
     1
175
     1
 42
1.0
 92
        8
 66
     7
 43
1.0
 76
     1
 77
     6
 78
     2
 67
     7
 79
     5
170
     0
171
     0
290
     0
174
     0
 93
        1
 44
-50.0
173
     0
291
     1
 45
0.0
1001
ACAD
1000
AcDbSavedByObjectVersion
1070
     0
  0
VISUALSTYLE
  5
179D5
102
{ACAD_XDICTIONARY
360
1BEBB
102
}
102
{ACAD_REACTORS
330
179C2
102
}
330
179C2
100
AcDbVisualStyle
  2

 70
    22
 71
     2
 72
     2
 73
     0
 90
        0
 40
-0.6
 41
-30.0
 62
     5
 63
     7
 74
     1
 91
        4
 64
     7
 65
   257
 75
     1
175
     1
 42
1.0
 92
        8
 66
     7
 43
1.0
 76
     1
 77
     6
 78
     2
 67
     7
 79
     5
170
     0
171
     0
290
     0
174
     0
 93
        1
 44
0.0
173
     0
291
     1
 45
0.0
1001
ACAD
1000
AcDbSavedByObjectVersion
1070
     0
  0
VISUALSTYLE
  5
179D1
102
{ACAD_XDICTIONARY
360
1BEB3
102
}
102
{ACAD_REACTORS
330
179C2
102
}
330
179C2
100
AcDbVisualStyle
  2

 70
    15
 71
     2
 72
     2
 73
     0
 90
        0
 40
-0.6
 41
-30.0
 62
     5
 63
     7
 74
     1
 91
        4
 64
     7
 65
   257
 75
     1
175
     1
 42
1.0
 92
        8
 66
     7
 43
1.0
 76
     1
 77
     6
 78
     2
 67
     7
 79
     5
170
     0
171
     0
290
     0
174
     0
 93
        1
 44
0.0
173
     0
291
     1
 45
0.0
1001
ACAD
1000
AcDbSavedByObjectVersion
1070
     0
  0
VISUALSTYLE
  5
179C3
102
{ACAD_XDICTIONARY
360
1BE97
102
}
102
{ACAD_REACTORS
330
179C2
102
}
330
179C2
100
AcDbVisualStyle
  2

 70
     0
 71
     2
 72
     1
 73
     1
 90
        2
 40
-0.6
 41
30.0
 62
     5
 63
     7
 74
     0
 91
        4
 64
     7
 65
   257
 75
     1
175
     1
 42
1.0
 92
        8
 66
     7
 43
1.0
 76
     1
 77
     6
 78
     2
 67
     7
 79
     5
170
     0
171
     0
290
     0
174
     0
 93
       13
 44
0.0
173
     0
291
     1
 45
0.0
1001
ACAD
1000
AcDbSavedByObjectVersion
1070
     0
  0
VISUALSTYLE
  5
179C4
102
{ACAD_XDICTIONARY
360
1BE99
102
}
102
{ACAD_REACTORS
330
179C2
102
}
330
179C2
100
AcDbVisualStyle
  2

 70
     1
 71
     2
 72
     1
 73
     1
 90
        2
 40
-0.6
 41
30.0
 62
     5
 63
     7
 74
     1
 91
        4
 64
     7
 65
   257
 75
     1
175
     1
 42
1.0
 92
        0
 66
   257
 43
1.0
 76
     1
 77
     6
 78
     2
 67
     7
 79
     5
170
     0
171
     0
290
     0
174
     0
 93
       13
 44
0.0
173
     0
291
     1
 45
0.0
1001
ACAD
1000
AcDbSavedByObjectVersion
1070
     0
  0
VISUALSTYLE
  5
179C5
102
{ACAD_XDICTIONARY
360
1BE9B
102
}
102
{ACAD_REACTORS
330
179C2
102
}
330
179C2
100
AcDbVisualStyle
  2

 70
     2
 71
     2
 72
     2
 73
     1
 90
        2
 40
-0.6
 41
30.0
 62
     5
 63
     7
 74
     0
 91
        4
 64
     7
 65
   257
 75
     1
175
     1
 42
1.0
 92
        0
 66
     7
 43
1.0
 76
     1
 77
     6
 78
     2
 67
     7
 79
     5
170
     0
171
     0
290
     0
174
     0
 93
       13
 44
0.0
173
     0
291
     1
 45
0.0
1001
ACAD
1000
AcDbSavedByObjectVersion
1070
     0
  0
VISUALSTYLE
  5
179C6
102
{ACAD_XDICTIONARY
360
1BE9D
102
}
102
{ACAD_REACTORS
330
179C2
102
}
330
179C2
100
AcDbVisualStyle
  2

 70
     3
 71
     2
 72
     2
 73
     1
 90
        2
 40
-0.6
 41
30.0
 62
     5
 63
     7
 74
     1
 91
        4
 64
     7
 65
   257
 75
     1
175
     1
 42
1.0
 92
        0
 66
   257
 43
1.0
 76
     1
 77
     6
 78
     2
 67
     7
 79
     5
170
     0
171
     0
290
     0
174
     0
 93
       13
 44
0.0
173
     0
291
     1
 45
0.0
1001
ACAD
1000
AcDbSavedByObjectVersion
1070
     0
  0
VISUALSTYLE
  5
179D3
102
{ACAD_XDICTIONARY
360
1BEB7
102
}
102
{ACAD_REACTORS
330
179C2
102
}
330
179C2
100
AcDbVisualStyle
  2

 70
    20
 71
     2
 72
     2
 73
     0
 90
        0
 40
-0.6
 41
-30.0
 62
     5
 63
     7
 74
     1
 91
        4
 64
     7
 65
   257
 75
     1
175
     1
 42
1.0
 92
       10
 66
     7
 43
1.0
 76
     1
 77
     6
 78
     2
 67
     7
 79
     5
170
     0
171
     0
290
     0
174
     0
 93
        1
 44
0.0
173
     0
291
     1
 45
0.0
1001
ACAD
1000
AcDbSavedByObjectVersion
1070
     0
  0
VISUALSTYLE
  5
179D0
102
{ACAD_XDICTIONARY
360
1BEB1
102
}
102
{ACAD_REACTORS
330
179C2
102
}
330
179C2
100
AcDbVisualStyle
  2

 70
    14
 71
     2
 72
     2
 73
     0
 90
        0
 40
-0.6
 41
-30.0
 62
     5
 63
     7
 74
     1
 91
        4
 64
     7
 65
   257
 75
     7
175
     7
 42
1.0
 92
        8
 66
     7
 43
1.0
 76
     1
 77
     6
 78
     2
 67
     7
 79
     5
170
     0
171
     0
290
     0
174
     0
 93
        1
 44
0.0
173
     0
291
     1
 45
0.0
1001
ACAD
1000
AcDbSavedByObjectVersion
1070
     0
  0
VISUALSTYLE
  5
179D4
102
{ACAD_XDICTIONARY
360
1BEB9
102
}
102
{ACAD_REACTORS
330
179C2
102
}
330
179C2
100
AcDbVisualStyle
  2

 70
    21
 71
     2
 72
     2
 73
     0
 90
        0
 40
-0.6
 41
-30.0
 62
     5
 63
     7
 74
     1
 91
        4
 64
     7
 65
   257
 75
     1
175
     1
 42
1.0
 92
        9
 66
     7
 43
1.0
 76
     1
 77
     6
 78
     2
 67
     7
 79
     5
170
     0
171
     0
290
     0
174
     0
 93
        1
 44
0.0
173
     0
291
     1
 45
0.0
1001
ACAD
1000
AcDbSavedByObjectVersion
1070
     0
  0
VISUALSTYLE
  5
179CC
102
{ACAD_XDICTIONARY
360
1BEA9
102
}
102
{ACAD_REACTORS
330
179C2
102
}
330
179C2
100
AcDbVisualStyle
  2

 70
     8
 71
     2
 72
     2
 73
     0
 90
        0
 40
-0.6
 41
-30.0
 62
     5
 63
     7
 74
     1
 91
        0
 64
     7
 65
   257
 75
     1
175
     1
 42
1.0
 92
        8
 66
     8
 43
1.0
 76
     1
 77
     6
 78
     2
 67
     7
 79
     5
170
     0
171
     0
290
     0
174
     0
 93
       13
 44
0.0
173
     0
291
     0
 45
0.0
1001
ACAD
1000
AcDbSavedByObjectVersion
1070
     0
  0
VISUALSTYLE
  5
179CF
102
{ACAD_XDICTIONARY
360
1BEAF
102
}
102
{ACAD_REACTORS
330
179C2
102
}
330
179C2
100
AcDbVisualStyle
  2

 70
    13
 71
     2
 72
     2
 73
     0
 90
        0
 40
-0.6
 41
-30.0
 62
     5
 63
     7
 74
     1
 91
        4
 64
     7
 65
   257
 75
     1
175
     1
 42
1.0
 92
       12
 66
     7
 43
1.0
 76
     1
 77
     6
 78
     2
 67
     7
 79
     5
170
     0
171
     0
290
     0
174
     0
 93
        1
 44
0.0
173
     0
291
     1
 45
0.0
1001
ACAD
1000
AcDbSavedByObjectVersion
1070
     0
  0
VISUALSTYLE
  5
1B494
102
{ACAD_XDICTIONARY
360
1B495
102
}
102
{ACAD_REACTORS
330
179C2
102
}
330
179C2
100
AcDbVisualStyle
  2

 70
     5
 71
     0
 72
     2
 73
     0
 90
        0
 40
-0.6
 41
-30.0
 62
     5
 63
     7
 74
     1
 91
        4
 64
     7
 65
   257
 75
     1
175
     1
 42
1.0
 92
        0
 66
   257
 43
1.0
 76
     1
 77
     6
 78
     2
 67
     7
 79
     3
170
     0
171
     0
290
     0
174
     0
 93
        1
 44
0.0
173
     0
291
     0
 45
0.0
1001
ACAD
1000
AcDbSavedByObjectVersion
1070
     0
  0
DICTIONARYVAR
  5
183BD
102
{ACAD_REACTORS
330
183BA
102
}
330
183BA
100
DictionaryVariables
280
     0
  1
1:1
  0
DICTIONARYVAR
  5
183BC
102
{ACAD_REACTORS
330
183BA
102
}
330
183BA
100
DictionaryVariables
280
     0
  1
STANDARD
  0
DICTIONARYVAR
  5
183BB
102
{ACAD_REACTORS
330
183BA
102
}
330
183BA
100
DictionaryVariables
280
     0
  1
STANDARD
  0
DICTIONARYVAR
  5
183C0
102
{ACAD_REACTORS
330
183BA
102
}
330
183BA
100
DictionaryVariables
280
     0
  1
1
  0
DICTIONARYVAR
  5
183BF
102
{ACAD_REACTORS
330
183BA
102
}
330
183BA
100
DictionaryVariables
280
     0
  1
0
  0
DICTIONARYVAR
  5
183BE
102
{ACAD_REACTORS
330
183BA
102
}
330
183BA
100
DictionaryVariables
280
     0
  1
127
  0
DICTIONARYVAR
  5
1BE57
102
{ACAD_REACTORS
330
183BA
102
}
330
183BA
100
DictionaryVariables
280
     0
  1
2
  0
XRECORD
  5
1B442
102
{ACAD_REACTORS
330
1B441
102
}
330
1B441
100
AcDbXrecord
280
     1
330
14D4F
330
14D6E
330
14D6F
330
14D70
330
14D71
330
14D72
330
14D73
330
14D74
330
14D75
330
14D76
330
14D77
330
1567E
330
14D78
330
14D79
330
14D7A
330
14D7B
330
14D7C
330
16289
330
1628A
330
1628B
330
1650C
330
1650D
330
1650E
330
16515
330
16516
330
16517
330
16520
330
1651E
330
1651F
330
16529
330
1652A
330
1652B
330
16532
330
16533
330
16534
330
16473
330
16474
330
16475
330
1653B
330
1653C
330
1653D
330
16546
330
16547
330
16548
330
1654F
330
16550
330
16551
330
16558
330
16559
330
1655A
330
162E7
330
162E8
330
162E9
330
166D2
330
166D3
330
166D4
330
1656B
330
1656C
330
1656D
330
16574
330
16575
330
16576
330
1657D
330
1657E
330
1657F
330
16588
330
16586
330
16587
330
164C9
330
164CA
330
164CB
330
1658F
330
16590
330
16591
330
16598
330
16599
330
1659A
330
165A1
330
165A2
330
165A3
330
165AA
330
165AB
330
165AC
330
164F1
330
164F2
330
164F3
330
164FA
330
164FB
330
164FC
330
164E8
330
164E9
330
164EA
330
166DC
330
166DD
330
166DE
330
16497
330
16498
330
16499
330
164D2
330
164D3
330
164D4
330
166E4
330
166E5
330
166E6
330
164D9
330
164DA
330
165C3
330
165C4
330
1B2DC
330
1B2DD
330
1B04C
330
1B04D
330
1B01E
330
1B01F
330
18784
330
18785
330
1878F
330
18790
330
18799
330
1879A
330
187A3
330
187A4
330
187AD
330
187AE
330
187B7
330
187B8
330
187C1
330
187C2
330
187CB
330
187CC
330
187D7
330
187D8
330
187E1
330
187E2
330
187EB
330
187EC
330
187F5
330
187F6
330
187FF
330
18800
330
18809
330
1880A
330
18813
330
18814
330
1881D
330
1881E
330
18825
330
1882E
330
1882F
330
18838
330
18839
330
18845
330
18846
330
18852
330
18853
330
1885C
330
18865
330
18866
330
1886F
330
18870
330
18879
330
1887A
330
18881
330
1888A
330
1888B
330
18894
330
18895
330
1889E
330
1889F
330
188A8
330
188A9
330
188B2
330
188B3
330
188BC
330
188BD
330
188C8
330
188C9
330
188D4
330
188D5
330
188DE
330
188DF
330
188EB
330
188EC
330
188F5
330
188F6
330
188FF
330
18900
330
18909
330
1890A
330
1AEA4
330
1AEA5
330
1B7C7
330
1B7C8
330
1B7B5
330
1B7B6
330
1AF43
330
1AF44
330
1B79A
330
1B79B
330
1B791
330
1B792
330
1B788
330
1B789
330
1B8CE
330
1B8CF
330
1B8BC
330
1B8BD
330
1AF79
330
1AF7A
330
1B8B3
330
1B8B4
330
1B421
330
1B422
330
1B879
330
1B87A
330
1AF9D
330
1AF9E
330
1B870
330
1B871
330
1B867
330
1B868
330
1AFB9
330
1AFBA
330
1AE11
330
1AE12
330
1AFC2
330
1AFC3
330
1B85E
330
1B85F
330
1B855
330
1B856
330
1B84A
330
1B84B
330
1B310
330
1B311
330
1B841
330
1B842
330
1B838
330
1B839
330
1B82F
330
1B830
330
1AE80
330
1AE81
330
1B028
330
1B029
330
1B031
330
1B032
330
1B2EE
330
1B2EF
330
1B7A3
330
1B7A4
330
1B896
330
1B897
330
1B20C
330
1B20D
330
1B89F
330
1B8A0
330
1B8AB
330
1B8AC
330
1B43B
330
1B43C
330
1B6F3
330
1B6F4
330
1B6E3
330
1B71C
330
1B71D
330
1B826
330
1B827
330
1B814
330
1B815
  0
DICTIONARY
  5
1BEC0
330
17A12
100
AcDbDictionary
280
     1
281
     1
  3
ACAD_XREC_ROUNDTRIP
360
1BEC1
  0
DICTIONARY
  5
1BEBE
330
17A0E
100
AcDbDictionary
280
     1
281
     1
  3
ACAD_XREC_ROUNDTRIP
360
1BEBF
  0
DICTIONARY
  5
179B3
330
179B2
100
AcDbDictionary
280
     1
281
     1
  3
ACAD_XREC_ROUNDTRIP
360
183CB
  3
BUMPTILE
360
179B5
  3
DIFFUSETILE
360
179B4
  3
OPACITYTILE
360
179B8
  3
REFLECTIONTILE
360
179B7
  3
REFRACTIONTILE
360
179B9
  3
SPECULARTILE
360
179B6
  0
DICTIONARY
  5
179AB
330
179AA
100
AcDbDictionary
280
     1
281
     1
  3
ACAD_XREC_ROUNDTRIP
360
183CA
  3
BUMPTILE
360
179AD
  3
DIFFUSETILE
360
179AC
  3
OPACITYTILE
360
179B0
  3
REFLECTIONTILE
360
179AF
  3
REFRACTIONTILE
360
179B1
  3
SPECULARTILE
360
179AE
  0
DICTIONARY
  5
179BB
330
179BA
100
AcDbDictionary
280
     1
281
     1
  3
ACAD_XREC_ROUNDTRIP
360
183CC
  3
BUMPTILE
360
179BD
  3
DIFFUSETILE
360
179BC
  3
OPACITYTILE
360
179C0
  3
REFLECTIONTILE
360
179BF
  3
REFRACTIONTILE
360
179C1
  3
SPECULARTILE
360
179BE
  0
DICTIONARY
  5
183C2
330
17A08
100
AcDbDictionary
280
     1
281
     1
  3
ACAD_ROUNDTRIP_2008_TABLESTYLE_CELLSTYLEMAP
360
1BE90
  3
ACAD_XREC_ROUNDTRIP
360
1BEBD
  0
DICTIONARY
  5
1BEA1
330
179C8
100
AcDbDictionary
280
     1
281
     1
  3
ACAD_XREC_ROUNDTRIP
360
1BEA2
  0
DICTIONARY
  5
1BEA5
330
179CA
100
AcDbDictionary
280
     1
281
     1
  3
ACAD_XREC_ROUNDTRIP
360
1BEA6
  0
DICTIONARY
  5
1BEA3
330
179C9
100
AcDbDictionary
280
     1
281
     1
  3
ACAD_XREC_ROUNDTRIP
360
1BEA4
  0
DICTIONARY
  5
1BE9F
330
179C7
100
AcDbDictionary
280
     1
281
     1
  3
ACAD_XREC_ROUNDTRIP
360
1BEA0
  0
DICTIONARY
  5
1BEAD
330
179CE
100
AcDbDictionary
280
     1
281
     1
  3
ACAD_XREC_ROUNDTRIP
360
1BEAE
  0
DICTIONARY
  5
1BEB5
330
179D2
100
AcDbDictionary
280
     1
281
     1
  3
ACAD_XREC_ROUNDTRIP
360
1BEB6
  0
DICTIONARY
  5
1BEA7
330
179CB
100
AcDbDictionary
280
     1
281
     1
  3
ACAD_XREC_ROUNDTRIP
360
1BEA8
  0
DICTIONARY
  5
1BEAB
330
179CD
100
AcDbDictionary
280
     1
281
     1
  3
ACAD_XREC_ROUNDTRIP
360
1BEAC
  0
DICTIONARY
  5
1BEBB
330
179D5
100
AcDbDictionary
280
     1
281
     1
  3
ACAD_XREC_ROUNDTRIP
360
1BEBC
  0
DICTIONARY
  5
1BEB3
330
179D1
100
AcDbDictionary
280
     1
281
     1
  3
ACAD_XREC_ROUNDTRIP
360
1BEB4
  0
DICTIONARY
  5
1BE97
330
179C3
100
AcDbDictionary
280
     1
281
     1
  3
ACAD_XREC_ROUNDTRIP
360
1BE98
  0
DICTIONARY
  5
1BE99
330
179C4
100
AcDbDictionary
280
     1
281
     1
  3
ACAD_XREC_ROUNDTRIP
360
1BE9A
  0
DICTIONARY
  5
1BE9B
330
179C5
100
AcDbDictionary
280
     1
281
     1
  3
ACAD_XREC_ROUNDTRIP
360
1BE9C
  0
DICTIONARY
  5
1BE9D
330
179C6
100
AcDbDictionary
280
     1
281
     1
  3
ACAD_XREC_ROUNDTRIP
360
1BE9E
  0
DICTIONARY
  5
1BEB7
330
179D3
100
AcDbDictionary
280
     1
281
     1
  3
ACAD_XREC_ROUNDTRIP
360
1BEB8
  0
DICTIONARY
  5
1BEB1
330
179D0
100
AcDbDictionary
280
     1
281
     1
  3
ACAD_XREC_ROUNDTRIP
360
1BEB2
  0
DICTIONARY
  5
1BEB9
330
179D4
100
AcDbDictionary
280
     1
281
     1
  3
ACAD_XREC_ROUNDTRIP
360
1BEBA
  0
DICTIONARY
  5
1BEA9
330
179CC
100
AcDbDictionary
280
     1
281
     1
  3
ACAD_XREC_ROUNDTRIP
360
1BEAA
  0
DICTIONARY
  5
1BEAF
330
179CF
100
AcDbDictionary
280
     1
281
     1
  3
ACAD_XREC_ROUNDTRIP
360
1BEB0
  0
DICTIONARY
  5
1B495
330
1B494
100
AcDbDictionary
280
     1
281
     1
  3
ACAD_XREC_ROUNDTRIP
360
1B496
  0
XRECORD
  5
1BEC1
102
{ACAD_REACTORS
330
1BEC0
102
}
330
1BEC0
100
AcDbXrecord
280
     1
102
SHADEPLOT
 70
     0
102
SHADEPLOTRESLEVEL
 70
     2
102
SHADEPLOTCUSTOMDPI
 70
   300
  0
XRECORD
  5
1BEBF
102
{ACAD_REACTORS
330
1BEBE
102
}
330
1BEBE
100
AcDbXrecord
280
     1
102
SHADEPLOT
 70
     0
102
SHADEPLOTRESLEVEL
 70
     2
102
SHADEPLOTCUSTOMDPI
 70
   300
  0
XRECORD
  5
183CB
102
{ACAD_REACTORS
330
179B3
102
}
330
179B3
100
AcDbXrecord
280
     1
102
MATERIAL
148
0.0
149
0.0
149
0.0
 93
        0
 94
      127
282
     0
 72
     0
 77
     0
171
     0
175
     0
179
     0
273
     0
  0
XRECORD
  5
179B5
102
{ACAD_REACTORS
330
179B3
102
}
330
179B3
100
AcDbXrecord
280
     1
270
     1
271
     1
  0
XRECORD
  5
179B4
102
{ACAD_REACTORS
330
179B3
102
}
330
179B3
100
AcDbXrecord
280
     1
270
     1
271
     1
  0
XRECORD
  5
179B8
102
{ACAD_REACTORS
330
179B3
102
}
330
179B3
100
AcDbXrecord
280
     1
270
     1
271
     1
  0
XRECORD
  5
179B7
102
{ACAD_REACTORS
330
179B3
102
}
330
179B3
100
AcDbXrecord
280
     1
270
     1
271
     1
  0
XRECORD
  5
179B9
102
{ACAD_REACTORS
330
179B3
102
}
330
179B3
100
AcDbXrecord
280
     1
270
     1
271
     1
  0
XRECORD
  5
179B6
102
{ACAD_REACTORS
330
179B3
102
}
330
179B3
100
AcDbXrecord
280
     1
270
     1
271
     1
  0
XRECORD
  5
183CA
102
{ACAD_REACTORS
330
179AB
102
}
330
179AB
100
AcDbXrecord
280
     1
102
MATERIAL
148
0.0
149
0.0
149
0.0
 93
        0
 94
      127
282
     0
 72
     0
 77
     0
171
     0
175
     0
179
     0
273
     0
  0
XRECORD
  5
179AD
102
{ACAD_REACTORS
330
179AB
102
}
330
179AB
100
AcDbXrecord
280
     1
270
     1
271
     1
  0
XRECORD
  5
179AC
102
{ACAD_REACTORS
330
179AB
102
}
330
179AB
100
AcDbXrecord
280
     1
270
     1
271
     1
  0
XRECORD
  5
179B0
102
{ACAD_REACTORS
330
179AB
102
}
330
179AB
100
AcDbXrecord
280
     1
270
     1
271
     1
  0
XRECORD
  5
179AF
102
{ACAD_REACTORS
330
179AB
102
}
330
179AB
100
AcDbXrecord
280
     1
270
     1
271
     1
  0
XRECORD
  5
179B1
102
{ACAD_REACTORS
330
179AB
102
}
330
179AB
100
AcDbXrecord
280
     1
270
     1
271
     1
  0
XRECORD
  5
179AE
102
{ACAD_REACTORS
330
179AB
102
}
330
179AB
100
AcDbXrecord
280
     1
270
     1
271
     1
  0
XRECORD
  5
183CC
102
{ACAD_REACTORS
330
179BB
102
}
330
179BB
100
AcDbXrecord
280
     1
102
MATERIAL
148
0.0
149
0.0
149
0.0
 93
        0
 94
      127
282
     0
 72
     0
 77
     0
171
     0
175
     0
179
     0
273
     0
  0
XRECORD
  5
179BD
102
{ACAD_REACTORS
330
179BB
102
}
330
179BB
100
AcDbXrecord
280
     1
270
     1
271
     1
  0
XRECORD
  5
179BC
102
{ACAD_REACTORS
330
179BB
102
}
330
179BB
100
AcDbXrecord
280
     1
270
     1
271
     1
  0
XRECORD
  5
179C0
102
{ACAD_REACTORS
330
179BB
102
}
330
179BB
100
AcDbXrecord
280
     1
270
     1
271
     1
  0
XRECORD
  5
179BF
102
{ACAD_REACTORS
330
179BB
102
}
330
179BB
100
AcDbXrecord
280
     1
270
     1
271
     1
  0
XRECORD
  5
179C1
102
{ACAD_REACTORS
330
179BB
102
}
330
179BB
100
AcDbXrecord
280
     1
270
     1
271
     1
  0
XRECORD
  5
179BE
102
{ACAD_REACTORS
330
179BB
102
}
330
179BB
100
AcDbXrecord
280
     1
270
     1
271
     1
  0
CELLSTYLEMAP
  5
1BE90
102
{ACAD_REACTORS
330
183C2
102
}
330
183C2
100
AcDbCellStyleMap
 90
        3
300
CELLSTYLE
  1
TABLEFORMAT_BEGIN
 90
        5
170
     1
 91
        0
 92
    32768
 62
   257
 93
        1
300
CONTENTFORMAT
  1
CONTENTFORMAT_BEGIN
 90
        0
 91
        0
 92
      512
 93
        0
300

 40
0.0
140
1.0
 94
        5
 62
     0
340
179F9
144
0.25
309
CONTENTFORMAT_END
171
     1
301
MARGIN
  1
CELLMARGIN_BEGIN
 40
0.06
 40
0.06
 40
0.06
 40
0.06
 40
0.18
 40
0.18
309
CELLMARGIN_END
 94
        6
 95
        1
302
GRIDFORMAT
  1
GRIDFORMAT_BEGIN
 90
        0
 91
        1
 62
     0
 92
       -2
340
0
 93
        0
 40
0.045
309
GRIDFORMAT_END
 95
        2
302
GRIDFORMAT
  1
GRIDFORMAT_BEGIN
 90
        0
 91
        1
 62
     0
 92
       -2
340
0
 93
        0
 40
0.045
309
GRIDFORMAT_END
 95
        4
302
GRIDFORMAT
  1
GRIDFORMAT_BEGIN
 90
        0
 91
        1
 62
     0
 92
       -2
340
0
 93
        0
 40
0.045
309
GRIDFORMAT_END
 95
        8
302
GRIDFORMAT
  1
GRIDFORMAT_BEGIN
 90
        0
 91
        1
 62
     0
 92
       -2
340
0
 93
        0
 40
0.045
309
GRIDFORMAT_END
 95
       16
302
GRIDFORMAT
  1
GRIDFORMAT_BEGIN
 90
        0
 91
        1
 62
     0
 92
       -2
340
0
 93
        0
 40
0.045
309
GRIDFORMAT_END
 95
       32
302
GRIDFORMAT
  1
GRIDFORMAT_BEGIN
 90
        0
 91
        1
 62
     0
 92
       -2
340
0
 93
        0
 40
0.045
309
GRIDFORMAT_END
309
TABLEFORMAT_END
  1
CELLSTYLE_BEGIN
 90
        1
 91
        1
300
_TITLE
309
CELLSTYLE_END
300
CELLSTYLE
  1
TABLEFORMAT_BEGIN
 90
        5
170
     1
 91
        0
 92
        0
 62
   257
 93
        1
300
CONTENTFORMAT
  1
CONTENTFORMAT_BEGIN
 90
        0
 91
        0
 92
      512
 93
        0
300

 40
0.0
140
1.0
 94
        5
 62
     0
340
179F9
144
0.18
309
CONTENTFORMAT_END
171
     1
301
MARGIN
  1
CELLMARGIN_BEGIN
 40
0.06
 40
0.06
 40
0.06
 40
0.06
 40
0.18
 40
0.18
309
CELLMARGIN_END
 94
        6
 95
        1
302
GRIDFORMAT
  1
GRIDFORMAT_BEGIN
 90
        0
 91
        1
 62
     0
 92
       -2
340
0
 93
        0
 40
0.045
309
GRIDFORMAT_END
 95
        2
302
GRIDFORMAT
  1
GRIDFORMAT_BEGIN
 90
        0
 91
        1
 62
     0
 92
       -2
340
0
 93
        0
 40
0.045
309
GRIDFORMAT_END
 95
        4
302
GRIDFORMAT
  1
GRIDFORMAT_BEGIN
 90
        0
 91
        1
 62
     0
 92
       -2
340
0
 93
        0
 40
0.045
309
GRIDFORMAT_END
 95
        8
302
GRIDFORMAT
  1
GRIDFORMAT_BEGIN
 90
        0
 91
        1
 62
     0
 92
       -2
340
0
 93
        0
 40
0.045
309
GRIDFORMAT_END
 95
       16
302
GRIDFORMAT
  1
GRIDFORMAT_BEGIN
 90
        0
 91
        1
 62
     0
 92
       -2
340
0
 93
        0
 40
0.045
309
GRIDFORMAT_END
 95
       32
302
GRIDFORMAT
  1
GRIDFORMAT_BEGIN
 90
        0
 91
        1
 62
     0
 92
       -2
340
0
 93
        0
 40
0.045
309
GRIDFORMAT_END
309
TABLEFORMAT_END
  1
CELLSTYLE_BEGIN
 90
        2
 91
        1
300
_HEADER
309
CELLSTYLE_END
300
CELLSTYLE
  1
TABLEFORMAT_BEGIN
 90
        5
170
     1
 91
        0
 92
        0
 62
   257
 93
        1
300
CONTENTFORMAT
  1
CONTENTFORMAT_BEGIN
 90
        0
 91
        0
 92
      512
 93
        0
300

 40
0.0
140
1.0
 94
        2
 62
     0
340
179F9
144
0.18
309
CONTENTFORMAT_END
171
     1
301
MARGIN
  1
CELLMARGIN_BEGIN
 40
0.06
 40
0.06
 40
0.06
 40
0.06
 40
0.18
 40
0.18
309
CELLMARGIN_END
 94
        6
 95
        1
302
GRIDFORMAT
  1
GRIDFORMAT_BEGIN
 90
        0
 91
        1
 62
     0
 92
       -2
340
0
 93
        0
 40
0.045
309
GRIDFORMAT_END
 95
        2
302
GRIDFORMAT
  1
GRIDFORMAT_BEGIN
 90
        0
 91
        1
 62
     0
 92
       -2
340
0
 93
        0
 40
0.045
309
GRIDFORMAT_END
 95
        4
302
GRIDFORMAT
  1
GRIDFORMAT_BEGIN
 90
        0
 91
        1
 62
     0
 92
       -2
340
0
 93
        0
 40
0.045
309
GRIDFORMAT_END
 95
        8
302
GRIDFORMAT
  1
GRIDFORMAT_BEGIN
 90
        0
 91
        1
 62
     0
 92
       -2
340
0
 93
        0
 40
0.045
309
GRIDFORMAT_END
 95
       16
302
GRIDFORMAT
  1
GRIDFORMAT_BEGIN
 90
        0
 91
        1
 62
     0
 92
       -2
340
0
 93
        0
 40
0.045
309
GRIDFORMAT_END
 95
       32
302
GRIDFORMAT
  1
GRIDFORMAT_BEGIN
 90
        0
 91
        1
 62
     0
 92
       -2
340
0
 93
        0
 40
0.045
309
GRIDFORMAT_END
309
TABLEFORMAT_END
  1
CELLSTYLE_BEGIN
 90
        3
 91
        2
300
_DATA
309
CELLSTYLE_END
  0
XRECORD
  5
1BEBD
102
{ACAD_REACTORS
330
183C2
102
}
330
183C2
100
AcDbXrecord
280
     1
102
ACAD_ROUNDTRIP_PRE2007_TABLESTYLE
 90
      512
 91
        0
  1

 92
      512
 93
        0
  2

 94
      512
 95
        0
  3

  0
XRECORD
  5
1BEA2
102
{ACAD_REACTORS
330
1BEA1
102
}
330
1BEA1
100
AcDbXrecord
280
     1
102
RTVSPropertyOp0
 70
     1
102
RTVSPropertyOp1
 70
     1
102
RTVSPropertyOp2
 70
     1
102
RTVSPropertyOp3
 70
     1
102
RTVSPropertyOp4
 70
     1
102
RTVSPropertyOp5
 70
     1
102
RTVSPropertyOp6
 70
     1
102
RTVSPropertyOp7
 70
     1
102
RTVSPropertyOp8
 70
     1
102
RTVSPropertyOp9
 70
     1
102
RTVSPropertyOp10
 70
     1
102
RTVSPropertyOp11
 70
     1
102
RTVSPropertyOp12
 70
     1
102
RTVSPropertyOp13
 70
     1
102
RTVSPropertyOp14
 70
     1
102
RTVSPropertyOp15
 70
     1
102
RTVSPropertyOp16
 70
     1
102
RTVSPropertyOp17
 70
     1
102
RTVSPropertyOp18
 70
     1
102
RTVSPropertyOp19
 70
     1
102
RTVSPropertyOp20
 70
     1
102
RTVSPropertyOp21
 70
     1
102
RTVSPropertyOp22
 70
     1
102
RTVSPropertyOp23
 70
     1
102
RTVSPropertyOp24
 70
     1
102
RTVSPropertyOp25
 70
     1
102
RTVSPropertyOp26
 70
     1
102
RTVSPropertyOp27
 70
     1
  0
XRECORD
  5
1BEA6
102
{ACAD_REACTORS
330
1BEA5
102
}
330
1BEA5
100
AcDbXrecord
280
     1
102
RTVSPropertyOp0
 70
     1
102
RTVSPropertyOp1
 70
     1
102
RTVSPropertyOp2
 70
     1
102
RTVSPropertyOp3
 70
     1
102
RTVSPropertyOp4
 70
     1
102
RTVSPropertyOp5
 70
     1
102
RTVSPropertyOp6
 70
     1
102
RTVSPropertyOp7
 70
     1
102
RTVSPropertyOp8
 70
     1
102
RTVSPropertyOp9
 70
     1
102
RTVSPropertyOp10
 70
     1
102
RTVSPropertyOp11
 70
     1
102
RTVSPropertyOp12
 70
     1
102
RTVSPropertyOp13
 70
     1
102
RTVSPropertyOp14
 70
     1
102
RTVSPropertyOp15
 70
     1
102
RTVSPropertyOp16
 70
     1
102
RTVSPropertyOp17
 70
     1
102
RTVSPropertyOp18
 70
     1
102
RTVSPropertyOp19
 70
     1
102
RTVSPropertyOp20
 70
     1
102
RTVSPropertyOp21
 70
     1
102
RTVSPropertyOp22
 70
     1
102
RTVSPropertyOp23
 70
     1
102
RTVSPropertyOp24
 70
     1
102
RTVSPropertyOp25
 70
     1
102
RTVSPropertyOp26
 70
     1
102
RTVSPropertyOp27
 70
     1
  0
XRECORD
  5
1BEA4
102
{ACAD_REACTORS
330
1BEA3
102
}
330
1BEA3
100
AcDbXrecord
280
     1
102
RTVSPropertyOp0
 70
     1
102
RTVSPropertyOp1
 70
     1
102
RTVSPropertyOp2
 70
     1
102
RTVSPropertyOp3
 70
     1
102
RTVSPropertyOp4
 70
     1
102
RTVSPropertyOp5
 70
     1
102
RTVSPropertyOp6
 70
     1
102
RTVSPropertyOp7
 70
     1
102
RTVSPropertyOp8
 70
     1
102
RTVSPropertyOp9
 70
     1
102
RTVSPropertyOp10
 70
     1
102
RTVSPropertyOp11
 70
     1
102
RTVSPropertyOp12
 70
     1
102
RTVSPropertyOp13
 70
     1
102
RTVSPropertyOp14
 70
     1
102
RTVSPropertyOp15
 70
     1
102
RTVSPropertyOp16
 70
     1
102
RTVSPropertyOp17
 70
     1
102
RTVSPropertyOp18
 70
     1
102
RTVSPropertyOp19
 70
     1
102
RTVSPropertyOp20
 70
     1
102
RTVSPropertyOp21
 70
     1
102
RTVSPropertyOp22
 70
     1
102
RTVSPropertyOp23
 70
     1
102
RTVSPropertyOp24
 70
     1
102
RTVSPropertyOp25
 70
     1
102
RTVSPropertyOp26
 70
     1
102
RTVSPropertyOp27
 70
     1
  0
XRECORD
  5
1BEA0
102
{ACAD_REACTORS
330
1BE9F
102
}
330
1BE9F
100
AcDbXrecord
280
     1
102
RTVSPropertyOp0
 70
     1
102
RTVSPropertyOp1
 70
     1
102
RTVSPropertyOp2
 70
     1
102
RTVSPropertyOp3
 70
     1
102
RTVSPropertyOp4
 70
     1
102
RTVSPropertyOp5
 70
     1
102
RTVSPropertyOp6
 70
     1
102
RTVSPropertyOp7
 70
     1
102
RTVSPropertyOp8
 70
     1
102
RTVSPropertyOp9
 70
     1
102
RTVSPropertyOp10
 70
     1
102
RTVSPropertyOp11
 70
     1
102
RTVSPropertyOp12
 70
     1
102
RTVSPropertyOp13
 70
     1
102
RTVSPropertyOp14
 70
     1
102
RTVSPropertyOp15
 70
     1
102
RTVSPropertyOp16
 70
     1
102
RTVSPropertyOp17
 70
     1
102
RTVSPropertyOp18
 70
     1
102
RTVSPropertyOp19
 70
     1
102
RTVSPropertyOp20
 70
     1
102
RTVSPropertyOp21
 70
     1
102
RTVSPropertyOp22
 70
     1
102
RTVSPropertyOp23
 70
     1
102
RTVSPropertyOp24
 70
     1
102
RTVSPropertyOp25
 70
     1
102
RTVSPropertyOp26
 70
     1
102
RTVSPropertyOp27
 70
     1
  0
XRECORD
  5
1BEAE
102
{ACAD_REACTORS
330
1BEAD
102
}
330
1BEAD
100
AcDbXrecord
280
     1
102
RTVSPropertyOp0
 70
     1
102
RTVSPropertyOp1
 70
     1
102
RTVSPropertyOp2
 70
     1
102
RTVSPropertyOp3
 70
     1
102
RTVSPropertyOp4
 70
     1
102
RTVSPropertyOp5
 70
     1
102
RTVSPropertyOp6
 70
     1
102
RTVSPropertyOp7
 70
     1
102
RTVSPropertyOp8
 70
     1
102
RTVSPropertyOp9
 70
     1
102
RTVSPropertyOp10
 70
     1
102
RTVSPropertyOp11
 70
     1
102
RTVSPropertyOp12
 70
     1
102
RTVSPropertyOp13
 70
     1
102
RTVSPropertyOp14
 70
     1
102
RTVSPropertyOp15
 70
     1
102
RTVSPropertyOp16
 70
     1
102
RTVSPropertyOp17
 70
     1
102
RTVSPropertyOp18
 70
     1
102
RTVSPropertyOp19
 70
     1
102
RTVSPropertyOp20
 70
     1
102
RTVSPropertyOp21
 70
     1
102
RTVSPropertyOp22
 70
     1
102
RTVSPropertyOp23
 70
     1
102
RTVSPropertyOp24
 70
     1
102
RTVSPropertyOp25
 70
     1
102
RTVSPropertyOp26
 70
     1
102
RTVSPropertyOp27
 70
     1
  0
XRECORD
  5
1BEB6
102
{ACAD_REACTORS
330
1BEB5
102
}
330
1BEB5
100
AcDbXrecord
280
     1
102
RTVSPropertyOp0
 70
     1
102
RTVSPropertyOp1
 70
     1
102
RTVSPropertyOp2
 70
     1
102
RTVSPropertyOp3
 70
     1
102
RTVSPropertyOp4
 70
     1
102
RTVSPropertyOp5
 70
     1
102
RTVSPropertyOp6
 70
     1
102
RTVSPropertyOp7
 70
     1
102
RTVSPropertyOp8
 70
     1
102
RTVSPropertyOp9
 70
     1
102
RTVSPropertyOp10
 70
     1
102
RTVSPropertyOp11
 70
     1
102
RTVSPropertyOp12
 70
     1
102
RTVSPropertyOp13
 70
     1
102
RTVSPropertyOp14
 70
     1
102
RTVSPropertyOp15
 70
     1
102
RTVSPropertyOp16
 70
     1
102
RTVSPropertyOp17
 70
     1
102
RTVSPropertyOp18
 70
     1
102
RTVSPropertyOp19
 70
     1
102
RTVSPropertyOp20
 70
     1
102
RTVSPropertyOp21
 70
     1
102
RTVSPropertyOp22
 70
     1
102
RTVSPropertyOp23
 70
     1
102
RTVSPropertyOp24
 70
     1
102
RTVSPropertyOp25
 70
     1
102
RTVSPropertyOp26
 70
     1
102
RTVSPropertyOp27
 70
     1
  0
XRECORD
  5
1BEA8
102
{ACAD_REACTORS
330
1BEA7
102
}
330
1BEA7
100
AcDbXrecord
280
     1
102
RTVSPropertyOp0
 70
     1
102
RTVSPropertyOp1
 70
     1
102
RTVSPropertyOp2
 70
     1
102
RTVSPropertyOp3
 70
     1
102
RTVSPropertyOp4
 70
     1
102
RTVSPropertyOp5
 70
     1
102
RTVSPropertyOp6
 70
     1
102
RTVSPropertyOp7
 70
     1
102
RTVSPropertyOp8
 70
     1
102
RTVSPropertyOp9
 70
     1
102
RTVSPropertyOp10
 70
     1
102
RTVSPropertyOp11
 70
     1
102
RTVSPropertyOp12
 70
     1
102
RTVSPropertyOp13
 70
     1
102
RTVSPropertyOp14
 70
     1
102
RTVSPropertyOp15
 70
     1
102
RTVSPropertyOp16
 70
     1
102
RTVSPropertyOp17
 70
     1
102
RTVSPropertyOp18
 70
     1
102
RTVSPropertyOp19
 70
     1
102
RTVSPropertyOp20
 70
     1
102
RTVSPropertyOp21
 70
     1
102
RTVSPropertyOp22
 70
     1
102
RTVSPropertyOp23
 70
     1
102
RTVSPropertyOp24
 70
     1
102
RTVSPropertyOp25
 70
     1
102
RTVSPropertyOp26
 70
     1
102
RTVSPropertyOp27
 70
     1
  0
XRECORD
  5
1BEAC
102
{ACAD_REACTORS
330
1BEAB
102
}
330
1BEAB
100
AcDbXrecord
280
     1
102
RTVSPropertyOp0
 70
     1
102
RTVSPropertyOp1
 70
     1
102
RTVSPropertyOp2
 70
     1
102
RTVSPropertyOp3
 70
     1
102
RTVSPropertyOp4
 70
     1
102
RTVSPropertyOp5
 70
     1
102
RTVSPropertyOp6
 70
     1
102
RTVSPropertyOp7
 70
     1
102
RTVSPropertyOp8
 70
     1
102
RTVSPropertyOp9
 70
     1
102
RTVSPropertyOp10
 70
     1
102
RTVSPropertyOp11
 70
     1
102
RTVSPropertyOp12
 70
     1
102
RTVSPropertyOp13
 70
     1
102
RTVSPropertyOp14
 70
     1
102
RTVSPropertyOp15
 70
     1
102
RTVSPropertyOp16
 70
     1
102
RTVSPropertyOp17
 70
     1
102
RTVSPropertyOp18
 70
     1
102
RTVSPropertyOp19
 70
     1
102
RTVSPropertyOp20
 70
     1
102
RTVSPropertyOp21
 70
     1
102
RTVSPropertyOp22
 70
     1
102
RTVSPropertyOp23
 70
     1
102
RTVSPropertyOp24
 70
     1
102
RTVSPropertyOp25
 70
     1
102
RTVSPropertyOp26
 70
     1
102
RTVSPropertyOp27
 70
     1
  0
XRECORD
  5
1BEBC
102
{ACAD_REACTORS
330
1BEBB
102
}
330
1BEBB
100
AcDbXrecord
280
     1
102
RTVSPropertyOp0
 70
     0
102
RTVSPropertyOp1
 70
     0
102
RTVSPropertyOp2
 70
     0
102
RTVSPropertyOp3
 70
     0
102
RTVSPropertyOp4
 70
     0
102
RTVSPropertyOp5
 70
     0
102
RTVSPropertyOp6
 70
     0
102
RTVSPropertyOp7
 70
     0
102
RTVSPropertyOp8
 70
     0
102
RTVSPropertyOp9
 70
     0
102
RTVSPropertyOp10
 70
     0
102
RTVSPropertyOp11
 70
     0
102
RTVSPropertyOp12
 70
     0
102
RTVSPropertyOp13
 70
     0
102
RTVSPropertyOp14
 70
     2
102
RTVSPropertyOp15
 70
     0
102
RTVSPropertyOp16
 70
     0
102
RTVSPropertyOp17
 70
     0
102
RTVSPropertyOp18
 70
     0
102
RTVSPropertyOp19
 70
     0
102
RTVSPropertyOp20
 70
     0
102
RTVSPropertyOp21
 70
     0
102
RTVSPropertyOp22
 70
     0
102
RTVSPropertyOp23
 70
     0
102
RTVSPropertyOp24
 70
     0
102
RTVSPropertyOp25
 70
     0
102
RTVSPropertyOp26
 70
     0
102
RTVSPropertyOp27
 70
     0
  0
XRECORD
  5
1BEB4
102
{ACAD_REACTORS
330
1BEB3
102
}
330
1BEB3
100
AcDbXrecord
280
     1
102
RTVSPropertyOp0
 70
     1
102
RTVSPropertyOp1
 70
     1
102
RTVSPropertyOp2
 70
     1
102
RTVSPropertyOp3
 70
     1
102
RTVSPropertyOp4
 70
     1
102
RTVSPropertyOp5
 70
     1
102
RTVSPropertyOp6
 70
     1
102
RTVSPropertyOp7
 70
     1
102
RTVSPropertyOp8
 70
     1
102
RTVSPropertyOp9
 70
     1
102
RTVSPropertyOp10
 70
     1
102
RTVSPropertyOp11
 70
     1
102
RTVSPropertyOp12
 70
     1
102
RTVSPropertyOp13
 70
     1
102
RTVSPropertyOp14
 70
     1
102
RTVSPropertyOp15
 70
     1
102
RTVSPropertyOp16
 70
     1
102
RTVSPropertyOp17
 70
     1
102
RTVSPropertyOp18
 70
     1
102
RTVSPropertyOp19
 70
     1
102
RTVSPropertyOp20
 70
     1
102
RTVSPropertyOp21
 70
     1
102
RTVSPropertyOp22
 70
     1
102
RTVSPropertyOp23
 70
     1
102
RTVSPropertyOp24
 70
     1
102
RTVSPropertyOp25
 70
     1
102
RTVSPropertyOp26
 70
     1
102
RTVSPropertyOp27
 70
     1
  0
XRECORD
  5
1BE98
102
{ACAD_REACTORS
330
1BE97
102
}
330
1BE97
100
AcDbXrecord
280
     1
102
RTVSPropertyOp0
 70
     1
102
RTVSPropertyOp1
 70
     1
102
RTVSPropertyOp2
 70
     1
102
RTVSPropertyOp3
 70
     1
102
RTVSPropertyOp4
 70
     1
102
RTVSPropertyOp5
 70
     1
102
RTVSPropertyOp6
 70
     1
102
RTVSPropertyOp7
 70
     1
102
RTVSPropertyOp8
 70
     1
102
RTVSPropertyOp9
 70
     1
102
RTVSPropertyOp10
 70
     1
102
RTVSPropertyOp11
 70
     1
102
RTVSPropertyOp12
 70
     1
102
RTVSPropertyOp13
 70
     1
102
RTVSPropertyOp14
 70
     1
102
RTVSPropertyOp15
 70
     1
102
RTVSPropertyOp16
 70
     1
102
RTVSPropertyOp17
 70
     1
102
RTVSPropertyOp18
 70
     1
102
RTVSPropertyOp19
 70
     1
102
RTVSPropertyOp20
 70
     1
102
RTVSPropertyOp21
 70
     1
102
RTVSPropertyOp22
 70
     1
102
RTVSPropertyOp23
 70
     1
102
RTVSPropertyOp24
 70
     1
102
RTVSPropertyOp25
 70
     1
102
RTVSPropertyOp26
 70
     1
102
RTVSPropertyOp27
 70
     1
  0
XRECORD
  5
1BE9A
102
{ACAD_REACTORS
330
1BE99
102
}
330
1BE99
100
AcDbXrecord
280
     1
102
RTVSPropertyOp0
 70
     1
102
RTVSPropertyOp1
 70
     1
102
RTVSPropertyOp2
 70
     1
102
RTVSPropertyOp3
 70
     1
102
RTVSPropertyOp4
 70
     1
102
RTVSPropertyOp5
 70
     1
102
RTVSPropertyOp6
 70
     1
102
RTVSPropertyOp7
 70
     1
102
RTVSPropertyOp8
 70
     1
102
RTVSPropertyOp9
 70
     1
102
RTVSPropertyOp10
 70
     1
102
RTVSPropertyOp11
 70
     1
102
RTVSPropertyOp12
 70
     1
102
RTVSPropertyOp13
 70
     1
102
RTVSPropertyOp14
 70
     1
102
RTVSPropertyOp15
 70
     1
102
RTVSPropertyOp16
 70
     1
102
RTVSPropertyOp17
 70
     1
102
RTVSPropertyOp18
 70
     1
102
RTVSPropertyOp19
 70
     1
102
RTVSPropertyOp20
 70
     1
102
RTVSPropertyOp21
 70
     1
102
RTVSPropertyOp22
 70
     1
102
RTVSPropertyOp23
 70
     1
102
RTVSPropertyOp24
 70
     1
102
RTVSPropertyOp25
 70
     1
102
RTVSPropertyOp26
 70
     1
102
RTVSPropertyOp27
 70
     1
  0
XRECORD
  5
1BE9C
102
{ACAD_REACTORS
330
1BE9B
102
}
330
1BE9B
100
AcDbXrecord
280
     1
102
RTVSPropertyOp0
 70
     1
102
RTVSPropertyOp1
 70
     1
102
RTVSPropertyOp2
 70
     1
102
RTVSPropertyOp3
 70
     1
102
RTVSPropertyOp4
 70
     1
102
RTVSPropertyOp5
 70
     1
102
RTVSPropertyOp6
 70
     1
102
RTVSPropertyOp7
 70
     1
102
RTVSPropertyOp8
 70
     1
102
RTVSPropertyOp9
 70
     1
102
RTVSPropertyOp10
 70
     1
102
RTVSPropertyOp11
 70
     1
102
RTVSPropertyOp12
 70
     1
102
RTVSPropertyOp13
 70
     1
102
RTVSPropertyOp14
 70
     1
102
RTVSPropertyOp15
 70
     1
102
RTVSPropertyOp16
 70
     1
102
RTVSPropertyOp17
 70
     1
102
RTVSPropertyOp18
 70
     1
102
RTVSPropertyOp19
 70
     1
102
RTVSPropertyOp20
 70
     1
102
RTVSPropertyOp21
 70
     1
102
RTVSPropertyOp22
 70
     1
102
RTVSPropertyOp23
 70
     1
102
RTVSPropertyOp24
 70
     1
102
RTVSPropertyOp25
 70
     1
102
RTVSPropertyOp26
 70
     1
102
RTVSPropertyOp27
 70
     1
  0
XRECORD
  5
1BE9E
102
{ACAD_REACTORS
330
1BE9D
102
}
330
1BE9D
100
AcDbXrecord
280
     1
102
RTVSPropertyOp0
 70
     1
102
RTVSPropertyOp1
 70
     1
102
RTVSPropertyOp2
 70
     1
102
RTVSPropertyOp3
 70
     1
102
RTVSPropertyOp4
 70
     1
102
RTVSPropertyOp5
 70
     1
102
RTVSPropertyOp6
 70
     1
102
RTVSPropertyOp7
 70
     1
102
RTVSPropertyOp8
 70
     1
102
RTVSPropertyOp9
 70
     1
102
RTVSPropertyOp10
 70
     1
102
RTVSPropertyOp11
 70
     1
102
RTVSPropertyOp12
 70
     1
102
RTVSPropertyOp13
 70
     1
102
RTVSPropertyOp14
 70
     1
102
RTVSPropertyOp15
 70
     1
102
RTVSPropertyOp16
 70
     1
102
RTVSPropertyOp17
 70
     1
102
RTVSPropertyOp18
 70
     1
102
RTVSPropertyOp19
 70
     1
102
RTVSPropertyOp20
 70
     1
102
RTVSPropertyOp21
 70
     1
102
RTVSPropertyOp22
 70
     1
102
RTVSPropertyOp23
 70
     1
102
RTVSPropertyOp24
 70
     1
102
RTVSPropertyOp25
 70
     1
102
RTVSPropertyOp26
 70
     1
102
RTVSPropertyOp27
 70
     1
  0
XRECORD
  5
1BEB8
102
{ACAD_REACTORS
330
1BEB7
102
}
330
1BEB7
100
AcDbXrecord
280
     1
102
RTVSPropertyOp0
 70
     0
102
RTVSPropertyOp1
 70
     0
102
RTVSPropertyOp2
 70
     0
102
RTVSPropertyOp3
 70
     0
102
RTVSPropertyOp4
 70
     0
102
RTVSPropertyOp5
 70
     0
102
RTVSPropertyOp6
 70
     0
102
RTVSPropertyOp7
 70
     0
102
RTVSPropertyOp8
 70
     0
102
RTVSPropertyOp9
 70
     0
102
RTVSPropertyOp10
 70
     0
102
RTVSPropertyOp11
 70
     0
102
RTVSPropertyOp12
 70
     0
102
RTVSPropertyOp13
 70
     0
102
RTVSPropertyOp14
 70
     2
102
RTVSPropertyOp15
 70
     0
102
RTVSPropertyOp16
 70
     0
102
RTVSPropertyOp17
 70
     0
102
RTVSPropertyOp18
 70
     0
102
RTVSPropertyOp19
 70
     0
102
RTVSPropertyOp20
 70
     0
102
RTVSPropertyOp21
 70
     0
102
RTVSPropertyOp22
 70
     0
102
RTVSPropertyOp23
 70
     0
102
RTVSPropertyOp24
 70
     0
102
RTVSPropertyOp25
 70
     0
102
RTVSPropertyOp26
 70
     0
102
RTVSPropertyOp27
 70
     0
  0
XRECORD
  5
1BEB2
102
{ACAD_REACTORS
330
1BEB1
102
}
330
1BEB1
100
AcDbXrecord
280
     1
102
RTVSPropertyOp0
 70
     1
102
RTVSPropertyOp1
 70
     1
102
RTVSPropertyOp2
 70
     1
102
RTVSPropertyOp3
 70
     1
102
RTVSPropertyOp4
 70
     1
102
RTVSPropertyOp5
 70
     1
102
RTVSPropertyOp6
 70
     1
102
RTVSPropertyOp7
 70
     1
102
RTVSPropertyOp8
 70
     1
102
RTVSPropertyOp9
 70
     1
102
RTVSPropertyOp10
 70
     1
102
RTVSPropertyOp11
 70
     1
102
RTVSPropertyOp12
 70
     1
102
RTVSPropertyOp13
 70
     1
102
RTVSPropertyOp14
 70
     1
102
RTVSPropertyOp15
 70
     1
102
RTVSPropertyOp16
 70
     1
102
RTVSPropertyOp17
 70
     1
102
RTVSPropertyOp18
 70
     1
102
RTVSPropertyOp19
 70
     1
102
RTVSPropertyOp20
 70
     1
102
RTVSPropertyOp21
 70
     1
102
RTVSPropertyOp22
 70
     1
102
RTVSPropertyOp23
 70
     1
102
RTVSPropertyOp24
 70
     1
102
RTVSPropertyOp25
 70
     1
102
RTVSPropertyOp26
 70
     1
102
RTVSPropertyOp27
 70
     1
  0
XRECORD
  5
1BEBA
102
{ACAD_REACTORS
330
1BEB9
102
}
330
1BEB9
100
AcDbXrecord
280
     1
102
RTVSPropertyOp0
 70
     0
102
RTVSPropertyOp1
 70
     0
102
RTVSPropertyOp2
 70
     0
102
RTVSPropertyOp3
 70
     0
102
RTVSPropertyOp4
 70
     0
102
RTVSPropertyOp5
 70
     0
102
RTVSPropertyOp6
 70
     0
102
RTVSPropertyOp7
 70
     0
102
RTVSPropertyOp8
 70
     0
102
RTVSPropertyOp9
 70
     0
102
RTVSPropertyOp10
 70
     0
102
RTVSPropertyOp11
 70
     0
102
RTVSPropertyOp12
 70
     0
102
RTVSPropertyOp13
 70
     0
102
RTVSPropertyOp14
 70
     2
102
RTVSPropertyOp15
 70
     0
102
RTVSPropertyOp16
 70
     0
102
RTVSPropertyOp17
 70
     0
102
RTVSPropertyOp18
 70
     0
102
RTVSPropertyOp19
 70
     0
102
RTVSPropertyOp20
 70
     0
102
RTVSPropertyOp21
 70
     0
102
RTVSPropertyOp22
 70
     0
102
RTVSPropertyOp23
 70
     0
102
RTVSPropertyOp24
 70
     0
102
RTVSPropertyOp25
 70
     0
102
RTVSPropertyOp26
 70
     0
102
RTVSPropertyOp27
 70
     0
  0
XRECORD
  5
1BEAA
102
{ACAD_REACTORS
330
1BEA9
102
}
330
1BEA9
100
AcDbXrecord
280
     1
102
RTVSPropertyOp0
 70
     1
102
RTVSPropertyOp1
 70
     1
102
RTVSPropertyOp2
 70
     1
102
RTVSPropertyOp3
 70
     1
102
RTVSPropertyOp4
 70
     1
102
RTVSPropertyOp5
 70
     1
102
RTVSPropertyOp6
 70
     1
102
RTVSPropertyOp7
 70
     1
102
RTVSPropertyOp8
 70
     1
102
RTVSPropertyOp9
 70
     1
102
RTVSPropertyOp10
 70
     1
102
RTVSPropertyOp11
 70
     1
102
RTVSPropertyOp12
 70
     1
102
RTVSPropertyOp13
 70
     1
102
RTVSPropertyOp14
 70
     1
102
RTVSPropertyOp15
 70
     1
102
RTVSPropertyOp16
 70
     1
102
RTVSPropertyOp17
 70
     1
102
RTVSPropertyOp18
 70
     1
102
RTVSPropertyOp19
 70
     1
102
RTVSPropertyOp20
 70
     1
102
RTVSPropertyOp21
 70
     1
102
RTVSPropertyOp22
 70
     1
102
RTVSPropertyOp23
 70
     1
102
RTVSPropertyOp24
 70
     1
102
RTVSPropertyOp25
 70
     1
102
RTVSPropertyOp26
 70
     1
102
RTVSPropertyOp27
 70
     1
  0
XRECORD
  5
1BEB0
102
{ACAD_REACTORS
330
1BEAF
102
}
330
1BEAF
100
AcDbXrecord
280
     1
102
RTVSPropertyOp0
 70
     1
102
RTVSPropertyOp1
 70
     1
102
RTVSPropertyOp2
 70
     1
102
RTVSPropertyOp3
 70
     1
102
RTVSPropertyOp4
 70
     1
102
RTVSPropertyOp5
 70
     1
102
RTVSPropertyOp6
 70
     1
102
RTVSPropertyOp7
 70
     1
102
RTVSPropertyOp8
 70
     1
102
RTVSPropertyOp9
 70
     1
102
RTVSPropertyOp10
 70
     1
102
RTVSPropertyOp11
 70
     1
102
RTVSPropertyOp12
 70
     1
102
RTVSPropertyOp13
 70
     1
102
RTVSPropertyOp14
 70
     1
102
RTVSPropertyOp15
 70
     1
102
RTVSPropertyOp16
 70
     1
102
RTVSPropertyOp17
 70
     1
102
RTVSPropertyOp18
 70
     1
102
RTVSPropertyOp19
 70
     1
102
RTVSPropertyOp20
 70
     1
102
RTVSPropertyOp21
 70
     1
102
RTVSPropertyOp22
 70
     1
102
RTVSPropertyOp23
 70
     1
102
RTVSPropertyOp24
 70
     1
102
RTVSPropertyOp25
 70
     1
102
RTVSPropertyOp26
 70
     1
102
RTVSPropertyOp27
 70
     1
  0
XRECORD
  5
1B496
102
{ACAD_REACTORS
330
1B495
102
}
330
1B495
100
AcDbXrecord
280
     1
102
RTVSPost2010Prop28
280
     0
102
RTVSPost2010PropOp28
 70
     1
102
RTVSPost2010Prop29
280
     1
102
RTVSPost2010PropOp29
 70
     1
102
RTVSPost2010Prop30
280
     1
102
RTVSPost2010PropOp30
 70
     1
102
RTVSPost2010Prop31
280
     0
102
RTVSPost2010PropOp31
 70
     1
102
RTVSPost2010Prop32
280
     0
102
RTVSPost2010PropOp32
 70
     1
102
RTVSPost2010Prop33
280
     0
102
RTVSPost2010PropOp33
 70
     1
102
RTVSPost2010Prop34
280
     0
102
RTVSPost2010PropOp34
 70
     1
102
RTVSPost2010Prop35
280
     0
102
RTVSPost2010PropOp35
 70
     1
102
RTVSPost2010Prop36
280
     0
102
RTVSPost2010PropOp36
 70
     1
102
RTVSPost2010Prop37
 90
       50
102
RTVSPost2010PropOp37
 70
     1
102
RTVSPost2010Prop38
140
0.0
102
RTVSPost2010PropOp38
 70
     1
102
RTVSPost2010Prop39
140
1.0
102
RTVSPost2010PropOp39
 70
     1
102
RTVSPost2010Prop40
 90
        0
102
RTVSPost2010PropOp40
 70
     1
102
RTVSPost2010Prop41ColorIndex
 90
       18
102
RTVSPost2010Prop41ColorRGB
 90
        0
102
RTVSPost2010PropOp41
 70
     1
102
RTVSPost2010Prop42
 90
       50
102
RTVSPost2010PropOp42
 70
     1
102
RTVSPost2010Prop43
 90
        3
102
RTVSPost2010PropOp43
 70
     1
102
RTVSPost2010Prop44ColorIndex
 90
        5
102
RTVSPost2010Prop44ColorRGB
 90
      255
102
RTVSPost2010PropOp44
 70
     1
102
RTVSPost2010Prop45
280
     0
102
RTVSPost2010PropOp45
 70
     1
102
RTVSPost2010Prop46
 90
       50
102
RTVSPost2010PropOp46
 70
     1
102
RTVSPost2010Prop47
 90
       50
102
RTVSPost2010PropOp47
 70
     1
102
RTVSPost2010Prop48
 90
       50
102
RTVSPost2010PropOp48
 70
     1
102
RTVSPost2010Prop49
280
     0
102
RTVSPost2010PropOp49
 70
     1
102
RTVSPost2010Prop50
 90
       50
102
RTVSPost2010PropOp50
 70
     1
102
RTVSPost2010Prop51ColorIndex
 90
      256
102
RTVSPost2010Prop51ColorRGB
 90
-16777216
102
RTVSPost2010PropOp51
 70
     0
102
RTVSPost2010Prop52
140
1.0
102
RTVSPost2010PropOp52
 70
     0
102
RTVSPost2010Prop53
 90
        2
102
RTVSPost2010PropOp53
 70
     1
102
RTVSPost2010Prop54
  1
strokes_ogs.tif
102
RTVSPost2010PropOp54
 70
     1
102
RTVSPost2010Prop55
280
     0
102
RTVSPost2010PropOp55
 70
     1
102
RTVSPost2010Prop56
140
1.0
102
RTVSPost2010PropOp56
 70
     1
102
RTVSPost2010Prop57
140
1.0
102
RTVSPost2010PropOp57
 70
     1
102
RTVSPropertyOp0
 70
     1
102
RTVSPropertyOp1
 70
     1
102
RTVSPropertyOp2
 70
     1
102
RTVSPropertyOp3
 70
     1
102
RTVSPropertyOp4
 70
     1
102
RTVSPropertyOp5
 70
     1
102
RTVSPropertyOp6
 70
     1
102
RTVSPropertyOp7
 70
     1
102
RTVSPropertyOp8
 70
     1
102
RTVSPropertyOp9
 70
     1
102
RTVSPropertyOp10
 70
     1
102
RTVSPropertyOp11
 70
     1
102
RTVSPropertyOp12
 70
     1
102
RTVSPropertyOp13
 70
     1
102
RTVSPropertyOp14
 70
     1
102
RTVSPropertyOp15
 70
     1
102
RTVSPropertyOp16
 70
     1
102
RTVSPropertyOp17
 70
     1
102
RTVSPropertyOp18
 70
     1
102
RTVSPropertyOp19
 70
     1
102
RTVSPropertyOp20
 70
     1
102
RTVSPropertyOp21
 70
     1
102
RTVSPropertyOp22
 70
     1
102
RTVSPropertyOp23
 70
     1
102
RTVSPropertyOp24
 70
     1
102
RTVSPropertyOp25
 70
     1
102
RTVSPropertyOp26
 70
     1
102
RTVSPropertyOp27
 70
     1
  0
ENDSEC
  0
EOF
