  0
SECTION
  2
HEADER
  9
$ACADVER
  1
AC1032
  9
$ACADMAINTVER
 90
      228
  9
$DWGCODEPAGE
  3
ANSI_932
  9
$LASTSAVEDBY
  1
松田智彦
  9
$REQUIREDVERSIONS
160
                 0
  9
$INSBASE
 10
0.0
 20
0.0
 30
0.0
  9
$EXTMIN
 10
-316.9500104239522
 20
-887.0852836296467
 30
0.0
  9
$EXTMAX
 10
884.3879346682186
 20
740.7373687819853
 30
0.0
  9
$LIMMIN
 10
-184.0
 20
-675.0
  9
$LIMMAX
 10
509.0
 20
453.0
  9
$ORTHOMODE
 70
     1
  9
$REGENMODE
 70
     1
  9
$FILLMODE
 70
     1
  9
$QTEXTMODE
 70
     0
  9
$MIRRTEXT
 70
     1
  9
$LTSCALE
 40
10.0
  9
$ATTMODE
 70
     1
  9
$TEXTSIZE
 40
5.0
  9
$TRACEWID
 40
0.05
  9
$TEXTSTYLE
  7
STANDARD1
  9
$CLAYER
  8
30
  9
$CELTYPE
  6
CONTINUOUS
  9
$CECOLOR
 62
   256
  9
$CELTSCALE
 40
1.0
  9
$DISPSILH
 70
     0
  9
$DIMSCALE
 40
1.0
  9
$DIMASZ
 40
2.0
  9
$DIMEXO
 40
10.0
  9
$DIMDLI
 40
0.5
  9
$DIMRND
 40
0.0
  9
$DIMDLE
 40
0.0
  9
$DIMEXE
 40
0.5
  9
$DIMTP
 40
0.0
  9
$DIMTM
 40
0.0
  9
$DIMTXT
 40
10.0
  9
$DIMCEN
 40
0.09
  9
$DIMTSZ
 40
0.0
  9
$DIMTOL
 70
     0
  9
$DIMLIM
 70
     0
  9
$DIMTIH
 70
     0
  9
$DIMTOH
 70
     1
  9
$DIMSE1
 70
     0
  9
$DIMSE2
 70
     0
  9
$DIMTAD
 70
     3
  9
$DIMZIN
 70
    12
  9
$DIMBLK
  1
OPEN
  9
$DIMASO
 70
     1
  9
$DIMSHO
 70
     1
  9
$DIMPOST
  1

  9
$DIMAPOST
  1

  9
$DIMALT
 70
     0
  9
$DIMALTD
 70
     2
  9
$DIMALTF
 40
25.4
  9
$DIMLFAC
 40
1.0
  9
$DIMTOFL
 70
     0
  9
$DIMTVP
 40
0.0
  9
$DIMTIX
 70
     0
  9
$DIMSOXD
 70
     0
  9
$DIMSAH
 70
     0
  9
$DIMBLK1
  1

  9
$DIMBLK2
  1

  9
$DIMSTYLE
  2
STANDARD
  9
$DIMCLRD
 70
     0
  9
$DIMCLRE
 70
     0
  9
$DIMCLRT
 70
     0
  9
$DIMTFAC
 40
1.0
  9
$DIMGAP
 40
1.0
  9
$DIMJUST
 70
     0
  9
$DIMSD1
 70
     0
  9
$DIMSD2
 70
     0
  9
$DIMTOLJ
 70
     1
  9
$DIMTZIN
 70
     0
  9
$DIMALTZ
 70
     0
  9
$DIMALTTZ
 70
     0
  9
$DIMUPT
 70
     0
  9
$DIMDEC
 70
     1
  9
$DIMTDEC
 70
     1
  9
$DIMALTU
 70
     2
  9
$DIMALTTD
 70
     2
  9
$DIMTXSTY
  7
STANDARD
  9
$DIMAUNIT
 70
     0
  9
$DIMADEC
 70
     0
  9
$DIMALTRND
 40
0.0
  9
$DIMAZIN
 70
     3
  9
$DIMDSEP
 70
    46
  9
$DIMATFIT
 70
     3
  9
$DIMFRAC
 70
     0
  9
$DIMLDRBLK
  1
OPEN
  9
$DIMLUNIT
 70
     2
  9
$DIMLWD
 70
    -2
  9
$DIMLWE
 70
    -2
  9
$DIMTMOVE
 70
     0
  9
$DIMFXL
 40
1.0
  9
$DIMFXLON
 70
     0
  9
$DIMJOGANG
 40
0.7853981633974483
  9
$DIMTFILL
 70
     0
  9
$DIMTFILLCLR
 70
     0
  9
$DIMARCSYM
 70
     0
  9
$DIMLTYPE
  6

  9
$DIMLTEX1
  6

  9
$DIMLTEX2
  6

  9
$DIMTXTDIRECTION
 70
     0
  9
$LUNITS
 70
     2
  9
$LUPREC
 70
     4
  9
$SKETCHINC
 40
0.1
  9
$FILLETRAD
 40
6.5
  9
$AUNITS
 70
     0
  9
$AUPREC
 70
     0
  9
$MENU
  1
.
  9
$ELEVATION
 40
0.0
  9
$PELEVATION
 40
0.0
  9
$THICKNESS
 40
0.0
  9
$LIMCHECK
 70
     0
  9
$CHAMFERA
 40
0.0
  9
$CHAMFERB
 40
0.0
  9
$CHAMFERC
 40
0.0
  9
$CHAMFERD
 40
0.0
  9
$SKPOLY
 70
     0
  9
$TDCREATE
 40
2452286.555648148
  9
$TDUCREATE
 40
2452286.180658658
  9
$TDUPDATE
 40
2459933.543263889
  9
$TDUUPDATE
 40
2459933.168263889
  9
$TDINDWG
 40
1.5522933796
  9
$TDUSRTIMER
 40
1.5522928356
  9
$USRTIMER
 70
     1
  9
$ANGBASE
 50
0.0
  9
$ANGDIR
 70
     0
  9
$PDMODE
 70
     0
  9
$PDSIZE
 40
0.0
  9
$PLINEWID
 40
0.0
  9
$SPLFRAME
 70
     0
  9
$SPLINETYPE
 70
     6
  9
$SPLINESEGS
 70
     8
  9
$HANDSEED
  5
7ADC
  9
$SURFTAB1
 70
     6
  9
$SURFTAB2
 70
     6
  9
$SURFTYPE
 70
     6
  9
$SURFU
 70
     6
  9
$SURFV
 70
     6
  9
$UCSBASE
  2

  9
$UCSNAME
  2

  9
$UCSORG
 10
0.0
 20
0.0
 30
0.0
  9
$UCSXDIR
 10
1.0
 20
0.0
 30
0.0
  9
$UCSYDIR
 10
0.0
 20
1.0
 30
0.0
  9
$UCSORTHOREF
  2

  9
$UCSORTHOVIEW
 70
     0
  9
$UCSORGTOP
 10
0.0
 20
0.0
 30
0.0
  9
$UCSORGBOTTOM
 10
0.0
 20
0.0
 30
0.0
  9
$UCSORGLEFT
 10
0.0
 20
0.0
 30
0.0
  9
$UCSORGRIGHT
 10
0.0
 20
0.0
 30
0.0
  9
$UCSORGFRONT
 10
0.0
 20
0.0
 30
0.0
  9
$UCSORGBACK
 10
0.0
 20
0.0
 30
0.0
  9
$PUCSBASE
  2

  9
$PUCSNAME
  2

  9
$PUCSORG
 10
0.0
 20
0.0
 30
0.0
  9
$PUCSXDIR
 10
1.0
 20
0.0
 30
0.0
  9
$PUCSYDIR
 10
0.0
 20
1.0
 30
0.0
  9
$PUCSORTHOREF
  2

  9
$PUCSORTHOVIEW
 70
     0
  9
$PUCSORGTOP
 10
0.0
 20
0.0
 30
0.0
  9
$PUCSORGBOTTOM
 10
0.0
 20
0.0
 30
0.0
  9
$PUCSORGLEFT
 10
0.0
 20
0.0
 30
0.0
  9
$PUCSORGRIGHT
 10
0.0
 20
0.0
 30
0.0
  9
$PUCSORGFRONT
 10
0.0
 20
0.0
 30
0.0
  9
$PUCSORGBACK
 10
0.0
 20
0.0
 30
0.0
  9
$USERI1
 70
     0
  9
$USERI2
 70
     0
  9
$USERI3
 70
     0
  9
$USERI4
 70
     0
  9
$USERI5
 70
     0
  9
$USERR1
 40
0.0
  9
$USERR2
 40
0.0
  9
$USERR3
 40
0.0
  9
$USERR4
 40
0.0
  9
$USERR5
 40
0.0
  9
$WORLDVIEW
 70
     1
  9
$SHADEDGE
 70
     3
  9
$SHADEDIF
 70
    70
  9
$TILEMODE
 70
     1
  9
$MAXACTVP
 70
    48
  9
$PINSBASE
 10
0.0
 20
0.0
 30
0.0
  9
$PLIMCHECK
 70
     0
  9
$PEXTMIN
 10
4.273573370203961
 20
5.205246163471485
 30
0.0
  9
$PEXTMAX
 10
194.6100952986349
 20
283.0697008572913
 30
0.0
  9
$PLIMMIN
 10
-5.873748779296875
 20
-5.873749732971191
  9
$PLIMMAX
 10
204.0995788574218
 20
291.1369009017943
  9
$UNITMODE
 70
     0
  9
$VISRETAIN
 70
     1
  9
$PLINEGEN
 70
     0
  9
$PSLTSCALE
 70
     1
  9
$TREEDEPTH
 70
  3020
  9
$CMLSTYLE
  2
STANDARD
  9
$CMLJUST
 70
     0
  9
$CMLSCALE
 40
1.0
  9
$PROXYGRAPHICS
 70
     1
  9
$MEASUREMENT
 70
     0
  9
$CELWEIGHT
370
    -1
  9
$ENDCAPS
280
     0
  9
$JOINSTYLE
280
     0
  9
$LWDISPLAY
290
     0
  9
$INSUNITS
 70
     0
  9
$HYPERLINKBASE
  1

  9
$STYLESHEET
  1
ACAD.CTB
  9
$XEDIT
290
     1
  9
$CEPSNTYPE
380
     0
  9
$PSTYLEMODE
290
     1
  9
$FINGERPRINTGUID
  2

  9
$VERSIONGUID
  2
{CA003E0B-DA0F-1144-AD9B-5E041B2BE0B0}
  9
$EXTNAMES
290
     1
  9
$PSVPSCALE
 40
0.0
  9
$OLESTARTUP
290
     0
  9
$SORTENTS
280
   127
  9
$INDEXCTL
280
     0
  9
$HIDETEXT
280
     0
  9
$XCLIPFRAME
280
     2
  9
$HALOGAP
280
     0
  9
$OBSCOLOR
 70
   257
  9
$OBSLTYPE
280
     0
  9
$INTERSECTIONDISPLAY
280
     0
  9
$INTERSECTIONCOLOR
 70
   257
  9
$DIMASSOC
280
     1
  9
$PROJECTNAME
  1

  9
$CAMERADISPLAY
290
     0
  9
$LENSLENGTH
 40
50.0
  9
$CAMERAHEIGHT
 40
0.0
  9
$STEPSPERSEC
 40
2.0
  9
$STEPSIZE
 40
6.0
  9
$3DDWFPREC
 40
2.0
  9
$PSOLWIDTH
 40
0.25
  9
$PSOLHEIGHT
 40
4.0
  9
$LOFTANG1
 40
1.570796326794896
  9
$LOFTANG2
 40
1.570796326794896
  9
$LOFTMAG1
 40
0.0
  9
$LOFTMAG2
 40
0.0
  9
$LOFTPARAM
 70
     7
  9
$LOFTNORMALS
280
     1
  9
$LATITUDE
 40
37.795
  9
$LONGITUDE
 40
-122.394
  9
$NORTHDIRECTION
 40
0.0
  9
$TIMEZONE
 70
 -8000
  9
$LIGHTGLYPHDISPLAY
280
     1
  9
$TILEMODELIGHTSYNCH
280
     1
  9
$CMATERIAL
347
7A4E
  9
$SOLIDHIST
280
     0
  9
$SHOWHIST
280
     1
  9
$DWFFRAME
280
     2
  9
$DGNFRAME
280
     0
  9
$REALWORLDSCALE
290
     1
  9
$INTERFERECOLOR
 62
     1
  9
$INTERFEREOBJVS
345
7A70
  9
$INTERFEREVPVS
346
7A6D
  9
$CSHADOW
280
     0
  9
$SHADOWPLANELOCATION
 40
0.0
  0
ENDSEC
  0
SECTION
  2
CLASSES
  0
CLASS
  1
ACDBDICTIONARYWDFLT
  2
AcDbDictionaryWithDefault
  3
ObjectDBX Classes
 90
        0
 91
        1
280
     0
281
     0
  0
CLASS
  1
DICTIONARYVAR
  2
AcDbDictionaryVar
  3
ObjectDBX Classes
 90
        0
 91
       12
280
     0
281
     0
  0
CLASS
  1
MATERIAL
  2
AcDbMaterial
  3
ObjectDBX Classes
 90
     1153
 91
        3
280
     0
281
     0
  0
CLASS
  1
VISUALSTYLE
  2
AcDbVisualStyle
  3
ObjectDBX Classes
 90
     4095
 91
       24
280
     0
281
     0
  0
CLASS
  1
TABLESTYLE
  2
AcDbTableStyle
  3
ObjectDBX Classes
 90
     4095
 91
        1
280
     0
281
     0
  0
CLASS
  1
SCALE
  2
AcDbScale
  3
ObjectDBX Classes
 90
     1153
 91
       17
280
     0
281
     0
  0
CLASS
  1
MLEADERSTYLE
  2
AcDbMLeaderStyle
  3
ACDB_MLEADERSTYLE_CLASS
 90
     4095
 91
        1
280
     0
281
     0
  0
CLASS
  1
ACDBSECTIONVIEWSTYLE
  2
AcDbSectionViewStyle
  3
ObjectDBX Classes
 90
     1025
 91
        1
280
     0
281
     0
  0
CLASS
  1
ACDBDETAILVIEWSTYLE
  2
AcDbDetailViewStyle
  3
ObjectDBX Classes
 90
     1025
 91
        1
280
     0
281
     0
  0
CLASS
  1
CELLSTYLEMAP
  2
AcDbCellStyleMap
  3
ObjectDBX Classes
 90
     1152
 91
        2
280
     0
281
     0
  0
ENDSEC
  0
SECTION
  2
TABLES
  0
TABLE
  2
VPORT
  5
8
330
0
100
AcDbSymbolTable
 70
     1
  0
VPORT
  5
7A46
330
8
100
AcDbSymbolTableRecord
100
AcDbViewportTableRecord
  2
*Active
 70
     0
 10
0.0
 20
0.0
 11
1.0
 21
1.0
 12
657.2637205545952
 22
-432.6894482142954
 13
0.0
 23
0.0
 14
1.0
 24
1.0
 15
10.0
 25
10.0
 16
0.0
 26
0.0
 36
1.0
 17
0.0
 27
0.0
 37
0.0
 40
870.5789264056898
 41
2.404791929382093
 42
50.0
 43
0.0
 44
0.0
 50
0.0
 51
0.0
 71
     0
 72
   100
 73
     1
 74
     1
 75
     0
 76
     0
 77
     0
 78
     0
281
     0
 65
     1
110
0.0
120
0.0
130
0.0
111
1.0
121
0.0
131
0.0
112
0.0
122
1.0
132
0.0
 79
     0
146
0.0
348
7A6C
 60
     3
 61
     5
292
     1
282
     1
141
0.0
142
0.0
 63
   250
421
  3355443
1001
ACAD_NAV_VCDISPLAY
1070
     3
  0
ENDTAB
  0
TABLE
  2
LTYPE
  5
5
330
0
100
AcDbSymbolTable
 70
     6
  0
LTYPE
  5
13
330
5
100
AcDbSymbolTableRecord
100
AcDbLinetypeTableRecord
  2
BYBLOCK
 70
     0
  3

 72
    65
 73
     0
 40
0.0
  0
LTYPE
  5
14
330
5
100
AcDbSymbolTableRecord
100
AcDbLinetypeTableRecord
  2
BYLAYER
 70
     0
  3

 72
    65
 73
     0
 40
0.0
  0
LTYPE
  5
15
330
5
100
AcDbSymbolTableRecord
100
AcDbLinetypeTableRecord
  2
CONTINUOUS
 70
     0
  3
Solid line
 72
    65
 73
     0
 40
0.0
  0
LTYPE
  5
22
330
5
100
AcDbSymbolTableRecord
100
AcDbLinetypeTableRecord
  2
CONTINOUS
 70
     0
  3
Solid line
 72
    65
 73
     0
 40
0.0
  0
LTYPE
  5
23
330
5
100
AcDbSymbolTableRecord
100
AcDbLinetypeTableRecord
  2
DASHED
 70
     0
  3
__ __ __ __ __ __ __ __ __ __ __ __ __ __ __
 72
    65
 73
     2
 40
0.75
 49
0.5
 74
     0
 49
-0.25
 74
     0
  0
LTYPE
  5
24
330
5
100
AcDbSymbolTableRecord
100
AcDbLinetypeTableRecord
  2
DASHDOT
 70
     0
  3
__ . __ . __ . __ . __ . __ . __ . __ . __ . __
 72
    65
 73
     4
 40
1.0
 49
0.5
 74
     0
 49
-0.25
 74
     0
 49
0.0
 74
     0
 49
-0.25
 74
     0
  0
LTYPE
  5
3932
330
5
100
AcDbSymbolTableRecord
100
AcDbLinetypeTableRecord
  2
DIVIDE
 70
     0
  3
Divide ____ . . ____ . . ____ . . ____ . . ____
 72
    65
 73
     6
 40
1.25
 49
0.5
 74
     0
 49
-0.25
 74
     0
 49
0.0
 74
     0
 49
-0.25
 74
     0
 49
0.0
 74
     0
 49
-0.25
 74
     0
  0
ENDTAB
  0
TABLE
  2
LAYER
  5
2
102
{ACAD_XDICTIONARY
360
7AD3
102
}
330
0
100
AcDbSymbolTable
 70
    15
  0
LAYER
  5
10
102
{ACAD_XDICTIONARY
360
7AA6
102
}
330
2
100
AcDbSymbolTableRecord
100
AcDbLayerTableRecord
  2
0
 70
     0
 62
     7
  6
CONTINOUS
370
    -3
390
F
347
7A5E
348
0
  0
LAYER
  5
2F
102
{ACAD_XDICTIONARY
360
7AA8
102
}
330
2
100
AcDbSymbolTableRecord
100
AcDbLayerTableRecord
  2
10
 70
     0
 62
     4
  6
CONTINOUS
370
    -3
390
F
347
7A5E
348
0
  0
LAYER
  5
31
102
{ACAD_XDICTIONARY
360
7AAA
102
}
330
2
100
AcDbSymbolTableRecord
100
AcDbLayerTableRecord
  2
12
 70
     0
 62
     3
  6
CONTINOUS
370
    -3
390
F
347
7A5E
348
0
  0
LAYER
  5
35
102
{ACAD_XDICTIONARY
360
7AAC
102
}
330
2
100
AcDbSymbolTableRecord
100
AcDbLayerTableRecord
  2
16
 70
     0
 62
     6
  6
DASHDOT
370
    -3
390
F
347
7A5E
348
0
  0
LAYER
  5
38
102
{ACAD_XDICTIONARY
360
7AAE
102
}
330
2
100
AcDbSymbolTableRecord
100
AcDbLayerTableRecord
  2
19
 70
     0
 62
     7
  6
CONTINOUS
370
    -3
390
F
347
7A5E
348
0
  0
LAYER
  5
3C
102
{ACAD_XDICTIONARY
360
7AB0
102
}
330
2
100
AcDbSymbolTableRecord
100
AcDbLayerTableRecord
  2
11
 70
     0
 62
     1
  6
CONTINOUS
370
    -3
390
F
347
7A5E
348
0
  0
LAYER
  5
3D
102
{ACAD_XDICTIONARY
360
7AB2
102
}
330
2
100
AcDbSymbolTableRecord
100
AcDbLayerTableRecord
  2
24
 70
     0
 62
     7
  6
CONTINOUS
370
    -3
390
F
347
7A5E
348
0
  0
LAYER
  5
3A2
102
{ACAD_XDICTIONARY
360
7AB4
102
}
330
2
100
AcDbSymbolTableRecord
100
AcDbLayerTableRecord
  2
30
 70
     0
 62
     9
  6
CONTINUOUS
370
    -3
390
F
347
7A5E
348
0
  0
LAYER
  5
3A4
330
2
100
AcDbSymbolTableRecord
100
AcDbLayerTableRecord
  2
DEFPOINTS
 70
     0
 62
     7
  6
CONTINUOUS
290
     0
370
    -3
390
F
347
7A5E
348
0
  0
LAYER
  5
3933
102
{ACAD_XDICTIONARY
360
7AB6
102
}
330
2
100
AcDbSymbolTableRecord
100
AcDbLayerTableRecord
  2
18
 70
     0
 62
     5
  6
DIVIDE
370
    -3
390
F
347
7A5E
348
0
  0
LAYER
  5
4709
102
{ACAD_XDICTIONARY
360
7AB8
102
}
330
2
100
AcDbSymbolTableRecord
100
AcDbLayerTableRecord
  2
L0_
 70
     0
 62
     7
  6
CONTINUOUS
370
    -3
390
F
347
7A5E
348
0
  0
LAYER
  5
6615
102
{ACAD_XDICTIONARY
360
7ABA
102
}
330
2
100
AcDbSymbolTableRecord
100
AcDbLayerTableRecord
  2
L150_
 70
     0
 62
     7
  6
CONTINUOUS
370
    -3
390
F
347
7A5E
348
0
  0
LAYER
  5
6616
102
{ACAD_XDICTIONARY
360
7ABC
102
}
330
2
100
AcDbSymbolTableRecord
100
AcDbLayerTableRecord
  2
L225_
 70
     0
 62
     7
  6
CONTINUOUS
370
    -3
390
F
347
7A5E
348
0
  0
LAYER
  5
6691
102
{ACAD_XDICTIONARY
360
7ABE
102
}
330
2
100
AcDbSymbolTableRecord
100
AcDbLayerTableRecord
  2
21
 70
     0
 62
     7
  6
CONTINUOUS
370
    -3
390
F
347
7A5E
348
0
  0
LAYER
  5
7953
102
{ACAD_XDICTIONARY
360
7AC0
102
}
330
2
100
AcDbSymbolTableRecord
100
AcDbLayerTableRecord
  2
17
 70
     0
 62
     2
  6
DASHDOT
370
    -3
390
F
347
7A5E
348
0
  0
ENDTAB
  0
TABLE
  2
STYLE
  5
3
330
0
100
AcDbSymbolTable
 70
     2
  0
STYLE
  5
11
330
3
100
AcDbSymbolTableRecord
100
AcDbTextStyleTableRecord
  2
STANDARD
 70
     0
 40
0.0
 41
1.0
 50
0.0
 71
     0
 42
2.0
  3
txt.shx
  4
bigfont.shx
  0
STYLE
  5
42
330
3
100
AcDbSymbolTableRecord
100
AcDbTextStyleTableRecord
  2
STANDARD1
 70
     0
 40
0.0
 41
1.0
 50
0.0
 71
     0
 42
5.0
  3
MONOTXT
  4
BIGFONT
  0
ENDTAB
  0
TABLE
  2
VIEW
  5
6
330
0
100
AcDbSymbolTable
 70
     4
  0
VIEW
  5
230C
330
6
100
AcDbSymbolTableRecord
100
AcDbViewTableRecord
  2
OLE1
 70
     0
 40
148.9124878027714
 10
429.4976280407222
 20
2.560626997828478
 41
103.1458057716444
 11
0.0
 21
0.0
 31
1.0
 12
0.0
 22
0.0
 32
0.0
 42
50.0
 43
0.0
 44
0.0
 50
0.0
 71
     0
281
     0
 72
     0
 73
     0
348
7A6C
  0
VIEW
  5
230E
330
6
100
AcDbSymbolTableRecord
100
AcDbViewTableRecord
  2
OLE2
 70
     0
 40
170.7786920545775
 10
322.664969958371
 20
-5.978304054290276
 41
102.4672152327465
 11
0.0
 21
0.0
 31
1.0
 12
0.0
 22
0.0
 32
0.0
 42
50.0
 43
0.0
 44
0.0
 50
0.0
 71
     0
281
     0
 72
     0
 73
     0
348
7A6C
  0
VIEW
  5
23AA
330
6
100
AcDbSymbolTableRecord
100
AcDbViewTableRecord
  2
OLE3
 70
     0
 40
591.7897393182231
 10
84.79698158148218
 20
-46.09336010803995
 41
388.7920961799953
 11
0.0
 21
0.0
 31
1.0
 12
0.0
 22
0.0
 32
0.0
 42
50.0
 43
0.0
 44
0.0
 50
0.0
 71
     0
281
     0
 72
     0
 73
     0
348
7A6C
  0
ENDTAB
  0
TABLE
  2
UCS
  5
7
330
0
100
AcDbSymbolTable
 70
     0
  0
ENDTAB
  0
TABLE
  2
APPID
  5
9
330
0
100
AcDbSymbolTable
 70
     4
  0
APPID
  5
12
330
9
100
AcDbSymbolTableRecord
100
AcDbRegAppTableRecord
  2
ACAD
 70
     0
  0
APPID
  5
ECD
330
9
100
AcDbSymbolTableRecord
100
AcDbRegAppTableRecord
  2
CONTENTBLOCKICON
 70
     0
  0
APPID
  5
7A9E
330
9
100
AcDbSymbolTableRecord
100
AcDbRegAppTableRecord
  2
ACAD_EXEMPT_FROM_CAD_STANDARDS
 70
     0
  0
APPID
  5
7ACB
330
9
100
AcDbSymbolTableRecord
100
AcDbRegAppTableRecord
  2
ACAD_NAV_VCDISPLAY
 70
     0
  0
ENDTAB
  0
TABLE
  2
DIMSTYLE
  5
A
330
0
100
AcDbSymbolTable
 70
     2
100
AcDbDimStyleTable
 71
     1
340
175
  0
DIMSTYLE
105
175
102
{ACAD_REACTORS
330
6CC0
330
6D31
330
6D3E
330
6E3A
330
6E3B
330
6E3E
330
6E50
330
6E57
330
6E5A
330
6E5C
330
6F2A
330
6F37
330
71A4
330
71B3
330
71C0
330
71CD
330
71DA
330
71E7
330
71F4
330
7207
330
7214
330
72D7
330
72E4
330
72F1
330
7350
330
735D
330
7392
330
739F
330
73EF
330
6E4B
330
71B2
330
760A
102
}
330
A
100
AcDbSymbolTableRecord
100
AcDbDimStyleTableRecord
  2
STANDARD
 70
     0
 41
2.0
 42
10.0
 43
0.5
 44
0.5
 73
     0
 77
     3
 78
    12
140
10.0
147
1.0
271
     1
272
     1
340
11
341
3B2
342
3B2
  0
ENDTAB
  0
TABLE
  2
BLOCK_RECORD
  5
1
330
0
100
AcDbSymbolTable
 70
    32
  0
BLOCK_RECORD
  5
1E
102
{ACAD_XDICTIONARY
360
178
102
}
330
1
100
AcDbSymbolTableRecord
100
AcDbBlockTableRecord
  2
*MODEL_SPACE
340
7A39
 70
     0
280
     1
281
     0
  0
BLOCK_RECORD
  5
1A
102
{ACAD_XDICTIONARY
360
17A
102
}
330
1
100
AcDbSymbolTableRecord
100
AcDbBlockTableRecord
  2
*PAPER_SPACE
340
7A3A
 70
     0
280
     1
281
     0
  0
BLOCK_RECORD
  5
3B2
330
1
100
AcDbSymbolTableRecord
100
AcDbBlockTableRecord
  2
_OPEN
340
0
102
{BLKREFS
331
750F
331
7510
331
7518
331
7519
331
7A12
331
7A13
331
78C7
331
78C8
331
7533
331
7534
331
7A1B
331
7A1C
331
754E
331
754F
331
7A24
331
7A25
331
7A2D
331
7A2E
331
7610
331
75E7
331
75E8
331
75DF
331
75D6
331
75D7
331
7598
331
7599
331
75AA
331
75AB
331
7604
331
7605
331
74CF
331
74D0
331
74D8
331
74D9
331
74E1
331
74E2
331
74EB
331
74EC
331
7A00
331
7A01
331
7A09
331
7A0A
331
7506
331
7507
331
760F
331
7452
331
7453
331
77A4
331
77A5
331
79EE
331
79EF
331
758F
331
7590
331
7586
331
7587
331
79F7
331
79F8
331
75B3
331
75B4
102
}
 70
     0
280
     1
281
     0
  0
BLOCK_RECORD
  5
6CD3
330
1
100
AcDbSymbolTableRecord
100
AcDbBlockTableRecord
  2
*D1
340
0
 70
     0
280
     1
281
     0
  0
BLOCK_RECORD
  5
6D32
330
1
100
AcDbSymbolTableRecord
100
AcDbBlockTableRecord
  2
*D2
340
0
 70
     0
280
     1
281
     0
  0
BLOCK_RECORD
  5
6D3F
330
1
100
AcDbSymbolTableRecord
100
AcDbBlockTableRecord
  2
*D3
340
0
 70
     0
280
     1
281
     0
  0
BLOCK_RECORD
  5
6E64
330
1
100
AcDbSymbolTableRecord
100
AcDbBlockTableRecord
  2
*D4
340
0
 70
     0
280
     1
281
     0
  0
BLOCK_RECORD
  5
6E70
330
1
100
AcDbSymbolTableRecord
100
AcDbBlockTableRecord
  2
*D5
340
0
 70
     0
280
     1
281
     0
  0
BLOCK_RECORD
  5
6E7C
330
1
100
AcDbSymbolTableRecord
100
AcDbBlockTableRecord
  2
*D6
340
0
 70
     0
280
     1
281
     0
  0
BLOCK_RECORD
  5
6E88
330
1
100
AcDbSymbolTableRecord
100
AcDbBlockTableRecord
  2
*D7
340
0
 70
     0
280
     1
281
     0
  0
BLOCK_RECORD
  5
6E94
330
1
100
AcDbSymbolTableRecord
100
AcDbBlockTableRecord
  2
*D8
340
0
 70
     0
280
     1
281
     0
  0
BLOCK_RECORD
  5
6EA0
330
1
100
AcDbSymbolTableRecord
100
AcDbBlockTableRecord
  2
*D9
340
0
 70
     0
280
     1
281
     0
  0
BLOCK_RECORD
  5
6EAB
330
1
100
AcDbSymbolTableRecord
100
AcDbBlockTableRecord
  2
*D10
340
0
 70
     0
280
     1
281
     0
  0
BLOCK_RECORD
  5
6F2B
330
1
100
AcDbSymbolTableRecord
100
AcDbBlockTableRecord
  2
*D11
340
0
 70
     0
280
     1
281
     0
  0
BLOCK_RECORD
  5
6F38
330
1
100
AcDbSymbolTableRecord
100
AcDbBlockTableRecord
  2
*D12
340
0
 70
     0
280
     1
281
     0
  0
BLOCK_RECORD
  5
71A5
330
1
100
AcDbSymbolTableRecord
100
AcDbBlockTableRecord
  2
*D13
340
0
 70
     0
280
     1
281
     0
  0
BLOCK_RECORD
  5
71B4
330
1
100
AcDbSymbolTableRecord
100
AcDbBlockTableRecord
  2
*D14
340
0
 70
     0
280
     1
281
     0
  0
BLOCK_RECORD
  5
71C1
330
1
100
AcDbSymbolTableRecord
100
AcDbBlockTableRecord
  2
*D15
340
0
 70
     0
280
     1
281
     0
  0
BLOCK_RECORD
  5
71CE
330
1
100
AcDbSymbolTableRecord
100
AcDbBlockTableRecord
  2
*D16
340
0
 70
     0
280
     1
281
     0
  0
BLOCK_RECORD
  5
71DB
330
1
100
AcDbSymbolTableRecord
100
AcDbBlockTableRecord
  2
*D17
340
0
 70
     0
280
     1
281
     0
  0
BLOCK_RECORD
  5
71E8
330
1
100
AcDbSymbolTableRecord
100
AcDbBlockTableRecord
  2
*D18
340
0
 70
     0
280
     1
281
     0
  0
BLOCK_RECORD
  5
71F5
330
1
100
AcDbSymbolTableRecord
100
AcDbBlockTableRecord
  2
*D19
340
0
 70
     0
280
     1
281
     0
  0
BLOCK_RECORD
  5
7208
330
1
100
AcDbSymbolTableRecord
100
AcDbBlockTableRecord
  2
*D20
340
0
 70
     0
280
     1
281
     0
  0
BLOCK_RECORD
  5
7215
330
1
100
AcDbSymbolTableRecord
100
AcDbBlockTableRecord
  2
*D21
340
0
 70
     0
280
     1
281
     0
  0
BLOCK_RECORD
  5
72D8
330
1
100
AcDbSymbolTableRecord
100
AcDbBlockTableRecord
  2
*D22
340
0
 70
     0
280
     1
281
     0
  0
BLOCK_RECORD
  5
72E5
330
1
100
AcDbSymbolTableRecord
100
AcDbBlockTableRecord
  2
*D23
340
0
 70
     0
280
     1
281
     0
  0
BLOCK_RECORD
  5
72F2
330
1
100
AcDbSymbolTableRecord
100
AcDbBlockTableRecord
  2
*D24
340
0
 70
     0
280
     1
281
     0
  0
BLOCK_RECORD
  5
7351
330
1
100
AcDbSymbolTableRecord
100
AcDbBlockTableRecord
  2
*D25
340
0
 70
     0
280
     1
281
     0
  0
BLOCK_RECORD
  5
735E
330
1
100
AcDbSymbolTableRecord
100
AcDbBlockTableRecord
  2
*D26
340
0
 70
     0
280
     1
281
     0
  0
BLOCK_RECORD
  5
7393
330
1
100
AcDbSymbolTableRecord
100
AcDbBlockTableRecord
  2
*D27
340
0
 70
     0
280
     1
281
     0
  0
BLOCK_RECORD
  5
73A0
330
1
100
AcDbSymbolTableRecord
100
AcDbBlockTableRecord
  2
*D28
340
0
 70
     0
280
     1
281
     0
  0
BLOCK_RECORD
  5
73F0
330
1
100
AcDbSymbolTableRecord
100
AcDbBlockTableRecord
  2
*D29
340
0
 70
     0
280
     1
281
     0
  0
BLOCK_RECORD
  5
760B
330
1
100
AcDbSymbolTableRecord
100
AcDbBlockTableRecord
  2
*D30
340
0
 70
     0
280
     1
281
     0
  0
ENDTAB
  0
ENDSEC
  0
SECTION
  2
BLOCKS
  0
BLOCK
  5
1F
330
1E
100
AcDbEntity
  8
0
100
AcDbBlockBegin
  2
*MODEL_SPACE
 70
     0
 10
0.0
 20
0.0
 30
0.0
  3
*MODEL_SPACE
  1

  0
ENDBLK
  5
20
330
1E
100
AcDbEntity
  8
0
100
AcDbBlockEnd
  0
BLOCK
  5
1B
330
1A
100
AcDbEntity
 67
     1
  8
0
100
AcDbBlockBegin
  2
*PAPER_SPACE
 70
     0
 10
0.0
 20
0.0
 30
0.0
  3
*PAPER_SPACE
  1

  0
ENDBLK
  5
1C
330
1A
100
AcDbEntity
 67
     1
  8
0
100
AcDbBlockEnd
  0
BLOCK
  5
3B6
330
3B2
100
AcDbEntity
  8
0
100
AcDbBlockBegin
  2
_OPEN
 70
     0
 10
0.0
 20
0.0
 30
0.0
  3
_OPEN
  1

  0
LINE
  5
3B3
330
3B2
100
AcDbEntity
  8
30
  6
Continuous
 62
     0
100
AcDbLine
 10
-1.0
 20
0.1666666666666666
 30
0.0
 11
0.0
 21
0.0
 31
0.0
  0
LINE
  5
3B4
330
3B2
100
AcDbEntity
  8
30
  6
Continuous
 62
     0
100
AcDbLine
 10
-1.0
 20
-0.1666666666666666
 30
0.0
 11
0.0
 21
0.0
 31
0.0
  0
LINE
  5
3B5
330
3B2
100
AcDbEntity
  8
30
  6
Continuous
 62
     0
100
AcDbLine
 10
0.0
 20
0.0
 30
0.0
 11
-1.0
 21
0.0
 31
0.0
  0
ENDBLK
  5
3B7
330
3B2
100
AcDbEntity
  8
0
100
AcDbBlockEnd
  0
BLOCK
  5
6CDD
330
6CD3
100
AcDbEntity
  8
0
100
AcDbBlockBegin
  2
*D1
 70
     1
 10
0.0
 20
0.0
 30
0.0
  3
*D1
  1

  0
LINE
  5
744F
330
6CD3
100
AcDbEntity
  8
30
  6
Continuous
 62
     0
440
 16777216
100
AcDbLine
 10
-170.0
 20
518.4831426686018
 30
0.0
 11
-174.4999999999999
 21
518.4831426686018
 31
0.0
  0
LINE
  5
7450
330
6CD3
100
AcDbEntity
  8
30
  6
Continuous
 62
     0
440
 16777216
100
AcDbLine
 10
-170.0
 20
333.4826543873018
 30
0.0
 11
-174.5
 21
333.4826543873018
 31
0.0
  0
LINE
  5
7451
330
6CD3
100
AcDbEntity
  8
30
  6
Continuous
 62
     0
440
 16777216
100
AcDbLine
 10
-173.9999999999999
 20
516.4831426686019
 30
0.0
 11
-174.0
 21
335.4826543873018
 31
0.0
  0
INSERT
  5
7452
330
6CD3
100
AcDbEntity
  8
30
  6
Continuous
 62
     0
440
 16777216
100
AcDbBlockReference
  2
_OPEN
 10
-173.9999999999999
 20
518.4831426686018
 30
0.0
 41
2.0
 42
2.0
 43
2.0
 50
90.0
  0
INSERT
  5
7453
330
6CD3
100
AcDbEntity
  8
30
  6
Continuous
 62
     0
440
 16777216
100
AcDbBlockReference
  2
_OPEN
 10
-174.0
 20
333.4826543873018
 30
0.0
 41
2.0
 42
2.0
 43
2.0
 50
270.0
  0
MTEXT
  5
7454
330
6CD3
100
AcDbEntity
  8
30
  6
Continuous
 62
     0
440
 16777216
100
AcDbMText
 10
-180.0
 20
425.9828985279519
 30
0.0
 40
10.0
 41
0.0
 46
0.0
 71
     5
 72
     1
  1
\A1;185
 11
0.0000000000000001
 21
1.0
 31
0.0
 73
     1
 44
1.0
1001
ACAD
1000
MTEXTBEGIN
1070
    73
1070
     1
1070
    44
1040
1.0
1070
    74
1070
     0
1000
MTEXTEND
1000
MTEXTBEGIN
1070
    73
1070
     1
1070
    44
1040
1.0
1070
    74
1070
     0
1000
MTEXTEND
  0
POINT
  5
7455
330
6CD3
100
AcDbEntity
  8
DEFPOINTS
  6
Continuous
 62
     0
440
 16777216
100
AcDbPoint
 10
-160.0
 20
518.4831426686018
 30
0.0
  0
POINT
  5
7456
330
6CD3
100
AcDbEntity
  8
DEFPOINTS
  6
Continuous
 62
     0
440
 16777216
100
AcDbPoint
 10
-160.0
 20
333.4826543873018
 30
0.0
  0
POINT
  5
7457
330
6CD3
100
AcDbEntity
  8
DEFPOINTS
  6
Continuous
 62
     0
440
 16777216
100
AcDbPoint
 10
-174.0
 20
333.4826543873018
 30
0.0
  0
ENDBLK
  5
6CDE
330
6CD3
100
AcDbEntity
  8
0
100
AcDbBlockEnd
  0
BLOCK
  5
6D3C
330
6D32
100
AcDbEntity
  8
0
100
AcDbBlockBegin
  2
*D2
 70
     1
 10
0.0
 20
0.0
 30
0.0
  3
*D2
  1

  0
LINE
  5
77A1
330
6D32
100
AcDbEntity
  8
30
  6
Continuous
 62
     0
440
 16777216
100
AcDbLine
 10
-105.0002441405998
 20
678.4831426686017
 30
0.0
 11
-105.0002441405998
 21
730.2373687819852
 31
0.0
  0
LINE
  5
77A2
330
6D32
100
AcDbEntity
  8
30
  6
Continuous
 62
     0
440
 16777216
100
AcDbLine
 10
0.0000000000000006
 20
678.4831426686017
 30
0.0
 11
0.0000000000000038
 21
730.2373687819852
 31
0.0
  0
LINE
  5
77A3
330
6D32
100
AcDbEntity
  8
30
  6
Continuous
 62
     0
440
 16777216
100
AcDbLine
 10
-103.0002441405998
 20
729.7373687819852
 30
0.0
 11
-1.999999999999995
 21
729.7373687819852
 31
0.0
  0
INSERT
  5
77A4
330
6D32
100
AcDbEntity
  8
30
  6
Continuous
 62
     0
440
 16777216
100
AcDbBlockReference
  2
_OPEN
 10
-105.0002441405998
 20
729.7373687819852
 30
0.0
 41
2.0
 42
2.0
 43
2.0
 50
180.0
  0
INSERT
  5
77A5
330
6D32
100
AcDbEntity
  8
30
  6
Continuous
 62
     0
440
 16777216
100
AcDbBlockReference
  2
_OPEN
 10
0.0000000000000038
 20
729.7373687819852
 30
0.0
 41
2.0
 42
2.0
 43
2.0
  0
MTEXT
  5
77A6
330
6D32
100
AcDbEntity
  8
30
  6
Continuous
 62
     0
440
 16777216
100
AcDbMText
 10
-52.50012207029995
 20
735.7373687819853
 30
0.0
 40
10.0
 41
0.0
 46
0.0
 71
     5
 72
     1
  1
\A1;105
 73
     1
 44
1.0
1001
ACAD
1000
MTEXTBEGIN
1070
    73
1070
     1
1070
    44
1040
1.0
1070
    74
1070
     0
1000
MTEXTEND
1000
MTEXTBEGIN
1070
    73
1070
     1
1070
    44
1040
1.0
1070
    74
1070
     0
1000
MTEXTEND
  0
POINT
  5
77A7
330
6D32
100
AcDbEntity
  8
DEFPOINTS
  6
Continuous
 62
     0
440
 16777216
100
AcDbPoint
 10
-105.0002441405998
 20
668.4831426686018
 30
0.0
  0
POINT
  5
77A8
330
6D32
100
AcDbEntity
  8
DEFPOINTS
  6
Continuous
 62
     0
440
 16777216
100
AcDbPoint
 10
0.0
 20
668.4831426686018
 30
0.0
  0
POINT
  5
77A9
330
6D32
100
AcDbEntity
  8
DEFPOINTS
  6
Continuous
 62
     0
440
 16777216
100
AcDbPoint
 10
0.0000000000000038
 20
729.7373687819852
 30
0.0
  0
ENDBLK
  5
6D3D
330
6D32
100
AcDbEntity
  8
0
100
AcDbBlockEnd
  0
BLOCK
  5
6D49
330
6D3F
100
AcDbEntity
  8
0
100
AcDbBlockBegin
  2
*D3
 70
     1
 10
0.0
 20
0.0
 30
0.0
  3
*D3
  1

  0
LINE
  5
79EB
330
6D3F
100
AcDbEntity
  8
30
  6
Continuous
 62
     0
440
 16777216
100
AcDbLine
 10
0.0000000000000006
 20
488.6507035126525
 30
0.0
 11
0.0000000000000154
 21
730.2373687819852
 31
0.0
  0
LINE
  5
79EC
330
6D3F
100
AcDbEntity
  8
30
  6
Continuous
 62
     0
440
 16777216
100
AcDbLine
 10
105.0
 20
678.4831426686017
 30
0.0
 11
105.0
 21
730.2373687819852
 31
0.0
  0
LINE
  5
79ED
330
6D3F
100
AcDbEntity
  8
30
  6
Continuous
 62
     0
440
 16777216
100
AcDbLine
 10
2.000000000000015
 20
729.7373687819852
 30
0.0
 11
103.0
 21
729.7373687819852
 31
0.0
  0
INSERT
  5
79EE
330
6D3F
100
AcDbEntity
  8
30
  6
Continuous
 62
     0
440
 16777216
100
AcDbBlockReference
  2
_OPEN
 10
0.0000000000000154
 20
729.7373687819852
 30
0.0
 41
2.0
 42
2.0
 43
2.0
 50
180.0
  0
INSERT
  5
79EF
330
6D3F
100
AcDbEntity
  8
30
  6
Continuous
 62
     0
440
 16777216
100
AcDbBlockReference
  2
_OPEN
 10
105.0
 20
729.7373687819852
 30
0.0
 41
2.0
 42
2.0
 43
2.0
  0
MTEXT
  5
79F0
330
6D3F
100
AcDbEntity
  8
30
  6
Continuous
 62
     0
440
 16777216
100
AcDbMText
 10
52.5
 20
735.7373687819853
 30
0.0
 40
10.0
 41
0.0
 46
0.0
 71
     5
 72
     1
  1
\A1;105
 73
     1
 44
1.0
  0
POINT
  5
79F1
330
6D3F
100
AcDbEntity
  8
DEFPOINTS
  6
Continuous
 62
     0
440
 16777216
100
AcDbPoint
 10
0.0
 20
478.6507035126525
 30
0.0
  0
POINT
  5
79F2
330
6D3F
100
AcDbEntity
  8
DEFPOINTS
  6
Continuous
 62
     0
440
 16777216
100
AcDbPoint
 10
105.0
 20
668.4831426686018
 30
0.0
  0
POINT
  5
79F3
330
6D3F
100
AcDbEntity
  8
DEFPOINTS
  6
Continuous
 62
     0
440
 16777216
100
AcDbPoint
 10
105.0
 20
729.7373687819852
 30
0.0
  0
ENDBLK
  5
6D4A
330
6D3F
100
AcDbEntity
  8
0
100
AcDbBlockEnd
  0
BLOCK
  5
6E6E
330
6E64
100
AcDbEntity
  8
0
100
AcDbBlockBegin
  2
*D4
 70
     1
 10
0.0
 20
0.0
 30
0.0
  3
*D4
  1

  0
LINE
  5
758C
330
6E64
100
AcDbEntity
  8
30
  6
Continuous
 62
     0
440
 16777216
100
AcDbLine
 10
-86.6962890625
 20
-418.0
 30
0.0
 11
-306.4500104239523
 21
-417.9999999999997
 31
0.0
  0
LINE
  5
758D
330
6E64
100
AcDbEntity
  8
30
  6
Continuous
 62
     0
440
 16777216
100
AcDbLine
 10
-176.0
 20
-650.0
 30
0.0
 11
-306.4500104239523
 21
-649.9999999999999
 31
0.0
  0
LINE
  5
758E
330
6E64
100
AcDbEntity
  8
30
  6
Continuous
 62
     0
440
 16777216
100
AcDbLine
 10
-305.9500104239524
 20
-419.9999999999998
 30
0.0
 11
-305.9500104239524
 21
-647.9999999999997
 31
0.0
  0
INSERT
  5
758F
330
6E64
100
AcDbEntity
  8
30
  6
Continuous
 62
     0
440
 16777216
100
AcDbBlockReference
  2
_OPEN
 10
-305.9500104239524
 20
-417.9999999999997
 30
0.0
 41
2.0
 42
2.0
 43
2.0
 50
90.0
  0
INSERT
  5
7590
330
6E64
100
AcDbEntity
  8
30
  6
Continuous
 62
     0
440
 16777216
100
AcDbBlockReference
  2
_OPEN
 10
-305.9500104239524
 20
-649.9999999999999
 30
0.0
 41
2.0
 42
2.0
 43
2.0
 50
270.0
  0
MTEXT
  5
7591
330
6E64
100
AcDbEntity
  8
30
  6
Continuous
 62
     0
440
 16777216
100
AcDbMText
 10
-311.9500104239522
 20
-534.0
 30
0.0
 40
10.0
 41
0.0
 46
0.0
 71
     5
 72
     1
  1
\A1;232
 11
0.0000000000000001
 21
1.0
 31
0.0
 73
     1
 44
1.0
1001
ACAD
1000
MTEXTBEGIN
1070
    73
1070
     1
1070
    44
1040
1.0
1070
    74
1070
     0
1000
MTEXTEND
1000
MTEXTBEGIN
1070
    73
1070
     1
1070
    44
1040
1.0
1070
    74
1070
     0
1000
MTEXTEND
  0
POINT
  5
7592
330
6E64
100
AcDbEntity
  8
DEFPOINTS
  6
Continuous
 62
     0
440
 16777216
100
AcDbPoint
 10
-76.6962890625
 20
-418.0
 30
0.0
  0
POINT
  5
7593
330
6E64
100
AcDbEntity
  8
DEFPOINTS
  6
Continuous
 62
     0
440
 16777216
100
AcDbPoint
 10
-166.0
 20
-650.0
 30
0.0
  0
POINT
  5
7594
330
6E64
100
AcDbEntity
  8
DEFPOINTS
  6
Continuous
 62
     0
440
 16777216
100
AcDbPoint
 10
-305.9500104239524
 20
-649.9999999999999
 30
0.0
  0
ENDBLK
  5
6E6F
330
6E64
100
AcDbEntity
  8
0
100
AcDbBlockEnd
  0
BLOCK
  5
6E7A
330
6E70
100
AcDbEntity
  8
0
100
AcDbBlockBegin
  2
*D5
 70
     1
 10
0.0
 20
0.0
 30
0.0
  3
*D5
  1

  0
LINE
  5
7583
330
6E70
100
AcDbEntity
  8
30
  6
Continuous
 62
     0
440
 16777216
100
AcDbLine
 10
-151.0
 20
-758.8425854357208
 30
0.0
 11
-151.0
 21
-786.4304743781599
 31
0.0
  0
LINE
  5
7584
330
6E70
100
AcDbEntity
  8
30
  6
Continuous
 62
     0
440
 16777216
100
AcDbLine
 10
151.0
 20
-758.8425854357208
 30
0.0
 11
151.0
 21
-786.4304743781599
 31
0.0
  0
LINE
  5
7585
330
6E70
100
AcDbEntity
  8
30
  6
Continuous
 62
     0
440
 16777216
100
AcDbLine
 10
-149.0
 20
-785.9304743781599
 30
0.0
 11
149.0
 21
-785.9304743781599
 31
0.0
  0
INSERT
  5
7586
330
6E70
100
AcDbEntity
  8
30
  6
Continuous
 62
     0
440
 16777216
100
AcDbBlockReference
  2
_OPEN
 10
-151.0
 20
-785.9304743781599
 30
0.0
 41
2.0
 42
2.0
 43
2.0
 50
180.0
  0
INSERT
  5
7587
330
6E70
100
AcDbEntity
  8
30
  6
Continuous
 62
     0
440
 16777216
100
AcDbBlockReference
  2
_OPEN
 10
151.0
 20
-785.9304743781599
 30
0.0
 41
2.0
 42
2.0
 43
2.0
  0
MTEXT
  5
7588
330
6E70
100
AcDbEntity
  8
30
  6
Continuous
 62
     0
440
 16777216
100
AcDbMText
 10
0.0000000000000004
 20
-779.9304743781599
 30
0.0
 40
10.0
 41
0.0
 46
0.0
 71
     5
 72
     1
  1
\A1;302
 73
     1
 44
1.0
1001
ACAD
1000
MTEXTBEGIN
1070
    73
1070
     1
1070
    44
1040
1.0
1070
    74
1070
     0
1000
MTEXTEND
1000
MTEXTBEGIN
1070
    73
1070
     1
1070
    44
1040
1.0
1070
    74
1070
     0
1000
MTEXTEND
  0
POINT
  5
7589
330
6E70
100
AcDbEntity
  8
DEFPOINTS
  6
Continuous
 62
     0
440
 16777216
100
AcDbPoint
 10
-151.0
 20
-748.8425854357203
 30
0.0
  0
POINT
  5
758A
330
6E70
100
AcDbEntity
  8
DEFPOINTS
  6
Continuous
 62
     0
440
 16777216
100
AcDbPoint
 10
151.0
 20
-748.8425854357203
 30
0.0
  0
POINT
  5
758B
330
6E70
100
AcDbEntity
  8
DEFPOINTS
  6
Continuous
 62
     0
440
 16777216
100
AcDbPoint
 10
151.0
 20
-785.9304743781599
 30
0.0
  0
ENDBLK
  5
6E7B
330
6E70
100
AcDbEntity
  8
0
100
AcDbBlockEnd
  0
BLOCK
  5
6E86
330
6E7C
100
AcDbEntity
  8
0
100
AcDbBlockBegin
  2
*D6
 70
     1
 10
0.0
 20
0.0
 30
0.0
  3
*D6
  1

  0
LINE
  5
79F4
330
6E7C
100
AcDbEntity
  8
30
  6
Continuous
 62
     0
440
 16777216
100
AcDbLine
 10
-176.0
 20
-650.0
 30
0.0
 11
-306.4500104239523
 21
-649.9999999999999
 31
0.0
  0
LINE
  5
79F5
330
6E7C
100
AcDbEntity
  8
30
  6
Continuous
 62
     0
440
 16777216
100
AcDbLine
 10
-175.3988960500464
 20
-729.0
 30
0.0
 11
-306.4500104239523
 21
-728.9999999999999
 31
0.0
  0
LINE
  5
79F6
330
6E7C
100
AcDbEntity
  8
30
  6
Continuous
 62
     0
440
 16777216
100
AcDbLine
 10
-305.9500104239524
 20
-651.9999999999997
 30
0.0
 11
-305.9500104239524
 21
-726.9999999999996
 31
0.0
  0
INSERT
  5
79F7
330
6E7C
100
AcDbEntity
  8
30
  6
Continuous
 62
     0
440
 16777216
100
AcDbBlockReference
  2
_OPEN
 10
-305.9500104239524
 20
-649.9999999999999
 30
0.0
 41
2.0
 42
2.0
 43
2.0
 50
90.0
  0
INSERT
  5
79F8
330
6E7C
100
AcDbEntity
  8
30
  6
Continuous
 62
     0
440
 16777216
100
AcDbBlockReference
  2
_OPEN
 10
-305.9500104239524
 20
-728.9999999999999
 30
0.0
 41
2.0
 42
2.0
 43
2.0
 50
270.0
  0
MTEXT
  5
79F9
330
6E7C
100
AcDbEntity
  8
30
  6
Continuous
 62
     0
440
 16777216
100
AcDbMText
 10
-311.9500104239522
 20
-689.5
 30
0.0
 40
10.0
 41
0.0
 46
0.0
 71
     5
 72
     1
  1
\A1;79
 11
0.0000000000000001
 21
1.0
 31
0.0
 73
     1
 44
1.0
  0
POINT
  5
79FA
330
6E7C
100
AcDbEntity
  8
DEFPOINTS
  6
Continuous
 62
     0
440
 16777216
100
AcDbPoint
 10
-166.0
 20
-650.0
 30
0.0
  0
POINT
  5
79FB
330
6E7C
100
AcDbEntity
  8
DEFPOINTS
  6
Continuous
 62
     0
440
 16777216
100
AcDbPoint
 10
-165.3988960500464
 20
-729.0
 30
0.0
  0
POINT
  5
79FC
330
6E7C
100
AcDbEntity
  8
DEFPOINTS
  6
Continuous
 62
     0
440
 16777216
100
AcDbPoint
 10
-305.9500104239524
 20
-728.9999999999999
 30
0.0
  0
ENDBLK
  5
6E87
330
6E7C
100
AcDbEntity
  8
0
100
AcDbBlockEnd
  0
BLOCK
  5
6E92
330
6E88
100
AcDbEntity
  8
0
100
AcDbBlockBegin
  2
*D7
 70
     1
 10
0.0
 20
0.0
 30
0.0
  3
*D7
  1

  0
LINE
  5
75B0
330
6E88
100
AcDbEntity
  8
30
  6
Continuous
 62
     0
440
 16777216
100
AcDbLine
 10
-52.5
 20
-447.8425854357205
 30
0.0
 11
-52.5
 21
-496.9905511136339
 31
0.0
  0
LINE
  5
75B1
330
6E88
100
AcDbEntity
  8
30
  6
Continuous
 62
     0
440
 16777216
100
AcDbLine
 10
52.5
 20
-447.8425854357205
 30
0.0
 11
52.5
 21
-496.9905511136339
 31
0.0
  0
LINE
  5
75B2
330
6E88
100
AcDbEntity
  8
30
  6
Continuous
 62
     0
440
 16777216
100
AcDbLine
 10
-50.5
 20
-496.4905511136339
 30
0.0
 11
50.49999999999999
 21
-496.4905511136339
 31
0.0
  0
INSERT
  5
75B3
330
6E88
100
AcDbEntity
  8
30
  6
Continuous
 62
     0
440
 16777216
100
AcDbBlockReference
  2
_OPEN
 10
-52.5
 20
-496.4905511136339
 30
0.0
 41
2.0
 42
2.0
 43
2.0
 50
180.0
  0
INSERT
  5
75B4
330
6E88
100
AcDbEntity
  8
30
  6
Continuous
 62
     0
440
 16777216
100
AcDbBlockReference
  2
_OPEN
 10
52.5
 20
-496.4905511136339
 30
0.0
 41
2.0
 42
2.0
 43
2.0
  0
MTEXT
  5
75B5
330
6E88
100
AcDbEntity
  8
30
  6
Continuous
 62
     0
440
 16777216
100
AcDbMText
 10
-0.0000000000000067
 20
-490.4905511136337
 30
0.0
 40
10.0
 41
0.0
 46
0.0
 71
     5
 72
     1
  1
\A1;105
 73
     1
 44
1.0
1001
ACAD
1000
MTEXTBEGIN
1070
    73
1070
     1
1070
    44
1040
1.0
1070
    74
1070
     0
1000
MTEXTEND
1000
MTEXTBEGIN
1070
    73
1070
     1
1070
    44
1040
1.0
1070
    74
1070
     0
1000
MTEXTEND
  0
POINT
  5
75B6
330
6E88
100
AcDbEntity
  8
DEFPOINTS
  6
Continuous
 62
     0
440
 16777216
100
AcDbPoint
 10
-52.5
 20
-437.8425854357206
 30
0.0
  0
POINT
  5
75B7
330
6E88
100
AcDbEntity
  8
DEFPOINTS
  6
Continuous
 62
     0
440
 16777216
100
AcDbPoint
 10
52.5
 20
-437.8425854357206
 30
0.0
  0
POINT
  5
75B8
330
6E88
100
AcDbEntity
  8
DEFPOINTS
  6
Continuous
 62
     0
440
 16777216
100
AcDbPoint
 10
52.5
 20
-496.4905511136339
 30
0.0
  0
ENDBLK
  5
6E93
330
6E88
100
AcDbEntity
  8
0
100
AcDbBlockEnd
  0
BLOCK
  5
6E9E
330
6E94
100
AcDbEntity
  8
0
100
AcDbBlockBegin
  2
*D8
 70
     1
 10
0.0
 20
0.0
 30
0.0
  3
*D8
  1

  0
LINE
  5
75E4
330
6E94
100
AcDbEntity
  8
30
  6
Continuous
 62
     0
440
 16777216
100
AcDbLine
 10
490.4999999999998
 20
-722.0
 30
0.0
 11
490.4999999999998
 21
-750.6030481124437
 31
0.0
  0
LINE
  5
75E5
330
6E94
100
AcDbEntity
  8
30
  6
Continuous
 62
     0
440
 16777216
100
AcDbLine
 10
609.4999999999997
 20
-722.0
 30
0.0
 11
609.4999999999997
 21
-750.6030481124437
 31
0.0
  0
LINE
  5
75E6
330
6E94
100
AcDbEntity
  8
30
  6
Continuous
 62
     0
440
 16777216
100
AcDbLine
 10
492.4999999999998
 20
-750.1030481124437
 30
0.0
 11
607.5
 21
-750.1030481124437
 31
0.0
  0
INSERT
  5
75E7
330
6E94
100
AcDbEntity
  8
30
  6
Continuous
 62
     0
440
 16777216
100
AcDbBlockReference
  2
_OPEN
 10
490.4999999999998
 20
-750.1030481124437
 30
0.0
 41
2.0
 42
2.0
 43
2.0
 50
180.0
  0
INSERT
  5
75E8
330
6E94
100
AcDbEntity
  8
30
  6
Continuous
 62
     0
440
 16777216
100
AcDbBlockReference
  2
_OPEN
 10
609.4999999999997
 20
-750.1030481124437
 30
0.0
 41
2.0
 42
2.0
 43
2.0
  0
MTEXT
  5
75E9
330
6E94
100
AcDbEntity
  8
30
  6
Continuous
 62
     0
440
 16777216
100
AcDbMText
 10
550.0
 20
-744.1030481124437
 30
0.0
 40
10.0
 41
0.0
 46
0.0
 71
     5
 72
     1
  1
\A1;119
 73
     1
 44
1.0
1001
ACAD
1000
MTEXTBEGIN
1070
    73
1070
     1
1070
    44
1040
1.0
1070
    74
1070
     0
1000
MTEXTEND
1000
MTEXTBEGIN
1070
    73
1070
     1
1070
    44
1040
1.0
1070
    74
1070
     0
1000
MTEXTEND
  0
POINT
  5
75EA
330
6E94
100
AcDbEntity
  8
DEFPOINTS
  6
Continuous
 62
     0
440
 16777216
100
AcDbPoint
 10
490.4999999999998
 20
-712.0
 30
0.0
  0
POINT
  5
75EB
330
6E94
100
AcDbEntity
  8
DEFPOINTS
  6
Continuous
 62
     0
440
 16777216
100
AcDbPoint
 10
609.4999999999997
 20
-712.0
 30
0.0
  0
POINT
  5
75EC
330
6E94
100
AcDbEntity
  8
DEFPOINTS
  6
Continuous
 62
     0
440
 16777216
100
AcDbPoint
 10
609.4999999999997
 20
-750.1030481124437
 30
0.0
  0
ENDBLK
  5
6E9F
330
6E94
100
AcDbEntity
  8
0
100
AcDbBlockEnd
  0
BLOCK
  5
6EA9
330
6EA0
100
AcDbEntity
  8
0
100
AcDbBlockBegin
  2
*D9
 70
     1
 10
0.0
 20
0.0
 30
0.0
  3
*D9
  1

  0
LINE
  5
75DC
330
6EA0
100
AcDbEntity
  8
30
  6
Continuous
 62
     0
440
 16777216
100
AcDbLine
 10
628.1985257044322
 20
-555.4099999999998
 30
0.0
 11
605.5318590377652
 21
-555.4099999999998
 31
0.0
  0
LINE
  5
75DD
330
6EA0
100
AcDbEntity
  8
30
  6
Continuous
 62
     0
440
 16777216
100
AcDbLine
 10
605.5318590377652
 20
-555.4099999999998
 30
0.0
 11
599.8639844615807
 21
-586.0334000631221
 31
0.0
  0
MTEXT
  5
75DE
330
6EA0
100
AcDbEntity
  8
30
  6
Continuous
 62
     0
440
 16777216
100
AcDbMText
 10
617.3651923710988
 20
-549.4099999999998
 30
0.0
 40
10.0
 41
0.0
 46
0.0
 71
     5
 72
     1
  1
\A1;R10
 73
     1
 44
1.0
1001
ACAD
1000
MTEXTBEGIN
1070
    73
1070
     1
1070
    44
1040
1.0
1070
    74
1070
     0
1000
MTEXTEND
1000
MTEXTBEGIN
1070
    73
1070
     1
1070
    44
1040
1.0
1070
    74
1070
     0
1000
MTEXTEND
  0
INSERT
  5
75DF
330
6EA0
100
AcDbEntity
  8
30
  6
Continuous
 62
     0
440
 16777216
100
AcDbBlockReference
  2
_OPEN
 10
599.4999999999997
 20
-587.9999999999999
 30
0.0
 41
2.0
 42
2.0
 43
2.0
 50
259.5141768324705
  0
LINE
  5
75E0
330
6EA0
100
AcDbEntity
  8
30
  6
Continuous
 62
     0
440
 16777216
100
AcDbLine
 10
595.918121308915
 20
-606.8665427739512
 30
0.0
 11
596.098121308915
 21
-606.8665427739512
 31
0.0
  0
LINE
  5
75E1
330
6EA0
100
AcDbEntity
  8
30
  6
Continuous
 62
     0
440
 16777216
100
AcDbLine
 10
596.008121308915
 20
-606.9565427739512
 30
0.0
 11
596.008121308915
 21
-606.7765427739512
 31
0.0
  0
POINT
  5
75E2
330
6EA0
100
AcDbEntity
  8
DEFPOINTS
  6
Continuous
 62
     0
440
 16777216
100
AcDbPoint
 10
599.4999999999997
 20
-587.9999999999999
 30
0.0
  0
POINT
  5
75E3
330
6EA0
100
AcDbEntity
  8
DEFPOINTS
  6
Continuous
 62
     0
440
 16777216
100
AcDbPoint
 10
596.0081213089146
 20
-606.8665427739512
 30
0.0
  0
ENDBLK
  5
6EAA
330
6EA0
100
AcDbEntity
  8
0
100
AcDbBlockEnd
  0
BLOCK
  5
6EB5
330
6EAB
100
AcDbEntity
  8
0
100
AcDbBlockBegin
  2
*D10
 70
     1
 10
0.0
 20
0.0
 30
0.0
  3
*D10
  1

  0
LINE
  5
75D3
330
6EAB
100
AcDbEntity
  8
30
  6
Continuous
 62
     0
440
 16777216
100
AcDbLine
 10
490.5
 20
-578.0
 30
0.0
 11
437.6887971310578
 21
-578.0
 31
0.0
  0
LINE
  5
75D4
330
6EAB
100
AcDbEntity
  8
30
  6
Continuous
 62
     0
440
 16777216
100
AcDbLine
 10
490.4999999999998
 20
-722.0
 30
0.0
 11
437.6887971310578
 21
-722.0
 31
0.0
  0
LINE
  5
75D5
330
6EAB
100
AcDbEntity
  8
30
  6
Continuous
 62
     0
440
 16777216
100
AcDbLine
 10
438.188797131058
 20
-580.0
 30
0.0
 11
438.188797131058
 21
-720.0
 31
0.0
  0
INSERT
  5
75D6
330
6EAB
100
AcDbEntity
  8
30
  6
Continuous
 62
     0
440
 16777216
100
AcDbBlockReference
  2
_OPEN
 10
438.188797131058
 20
-578.0
 30
0.0
 41
2.0
 42
2.0
 43
2.0
 50
90.0
  0
INSERT
  5
75D7
330
6EAB
100
AcDbEntity
  8
30
  6
Continuous
 62
     0
440
 16777216
100
AcDbBlockReference
  2
_OPEN
 10
438.188797131058
 20
-722.0
 30
0.0
 41
2.0
 42
2.0
 43
2.0
 50
270.0
  0
MTEXT
  5
75D8
330
6EAB
100
AcDbEntity
  8
30
  6
Continuous
 62
     0
440
 16777216
100
AcDbMText
 10
432.1887971310578
 20
-649.9999999999999
 30
0.0
 40
10.0
 41
0.0
 46
0.0
 71
     5
 72
     1
  1
\A1;144
 11
0.0000000000000001
 21
1.0
 31
0.0
 73
     1
 44
1.0
1001
ACAD
1000
MTEXTBEGIN
1070
    73
1070
     1
1070
    44
1040
1.0
1070
    74
1070
     0
1000
MTEXTEND
1000
MTEXTBEGIN
1070
    73
1070
     1
1070
    44
1040
1.0
1070
    74
1070
     0
1000
MTEXTEND
  0
POINT
  5
75D9
330
6EAB
100
AcDbEntity
  8
DEFPOINTS
  6
Continuous
 62
     0
440
 16777216
100
AcDbPoint
 10
500.4999999999998
 20
-578.0
 30
0.0
  0
POINT
  5
75DA
330
6EAB
100
AcDbEntity
  8
DEFPOINTS
  6
Continuous
 62
     0
440
 16777216
100
AcDbPoint
 10
500.4999999999998
 20
-722.0
 30
0.0
  0
POINT
  5
75DB
330
6EAB
100
AcDbEntity
  8
DEFPOINTS
  6
Continuous
 62
     0
440
 16777216
100
AcDbPoint
 10
438.188797131058
 20
-722.0
 30
0.0
  0
ENDBLK
  5
6EB6
330
6EAB
100
AcDbEntity
  8
0
100
AcDbBlockEnd
  0
BLOCK
  5
6F35
330
6F2B
100
AcDbEntity
  8
0
100
AcDbBlockBegin
  2
*D11
 70
     1
 10
0.0
 20
0.0
 30
0.0
  3
*D11
  1

  0
LINE
  5
7595
330
6F2B
100
AcDbEntity
  8
30
  6
Continuous
 62
     0
440
 16777216
100
AcDbLine
 10
-268.2792968749999
 20
-699.0
 30
0.0
 11
-286.7243577752428
 21
-699.0
 31
0.0
  0
LINE
  5
7596
330
6F2B
100
AcDbEntity
  8
30
  6
Continuous
 62
     0
440
 16777216
100
AcDbLine
 10
-267.4864377247959
 20
-728.9999999999999
 30
0.0
 11
-286.7243577752428
 21
-728.9999999999999
 31
0.0
  0
LINE
  5
7597
330
6F2B
100
AcDbEntity
  8
30
  6
Continuous
 62
     0
440
 16777216
100
AcDbLine
 10
-286.2243577752428
 20
-701.0
 30
0.0
 11
-286.2243577752428
 21
-726.9999999999996
 31
0.0
  0
INSERT
  5
7598
330
6F2B
100
AcDbEntity
  8
30
  6
Continuous
 62
     0
440
 16777216
100
AcDbBlockReference
  2
_OPEN
 10
-286.2243577752428
 20
-699.0
 30
0.0
 41
2.0
 42
2.0
 43
2.0
 50
90.0
  0
INSERT
  5
7599
330
6F2B
100
AcDbEntity
  8
30
  6
Continuous
 62
     0
440
 16777216
100
AcDbBlockReference
  2
_OPEN
 10
-286.2243577752428
 20
-728.9999999999999
 30
0.0
 41
2.0
 42
2.0
 43
2.0
 50
270.0
  0
MTEXT
  5
759A
330
6F2B
100
AcDbEntity
  8
30
  6
Continuous
 62
     0
440
 16777216
100
AcDbMText
 10
-292.2243577752427
 20
-714.0
 30
0.0
 40
10.0
 41
0.0
 46
0.0
 71
     5
 72
     1
  1
\A1;30
 11
0.0000000000000001
 21
1.0
 31
0.0
 73
     1
 44
1.0
1001
ACAD
1000
MTEXTBEGIN
1070
    73
1070
     1
1070
    44
1040
1.0
1070
    74
1070
     0
1000
MTEXTEND
1000
MTEXTBEGIN
1070
    73
1070
     1
1070
    44
1040
1.0
1070
    74
1070
     0
1000
MTEXTEND
  0
POINT
  5
759B
330
6F2B
100
AcDbEntity
  8
DEFPOINTS
  6
Continuous
 62
     0
440
 16777216
100
AcDbPoint
 10
-258.279296875
 20
-699.0
 30
0.0
  0
POINT
  5
759C
330
6F2B
100
AcDbEntity
  8
DEFPOINTS
  6
Continuous
 62
     0
440
 16777216
100
AcDbPoint
 10
-257.4864377247958
 20
-728.9999999999999
 30
0.0
  0
POINT
  5
759D
330
6F2B
100
AcDbEntity
  8
DEFPOINTS
  6
Continuous
 62
     0
440
 16777216
100
AcDbPoint
 10
-286.2243577752428
 20
-728.9999999999999
 30
0.0
  0
ENDBLK
  5
6F36
330
6F2B
100
AcDbEntity
  8
0
100
AcDbBlockEnd
  0
BLOCK
  5
6F42
330
6F38
100
AcDbEntity
  8
0
100
AcDbBlockBegin
  2
*D12
 70
     1
 10
0.0
 20
0.0
 30
0.0
  3
*D12
  1

  0
LINE
  5
75A7
330
6F38
100
AcDbEntity
  8
30
  6
Continuous
 62
     0
440
 16777216
100
AcDbLine
 10
-270.2860800635139
 20
-417.9999999999997
 30
0.0
 11
-282.0735031517423
 21
-417.9999999999997
 31
0.0
  0
LINE
  5
75A8
330
6F38
100
AcDbEntity
  8
30
  6
Continuous
 62
     0
440
 16777216
100
AcDbLine
 10
-268.6958007811999
 20
-448.0
 30
0.0
 11
-282.0735031517423
 21
-448.0
 31
0.0
  0
LINE
  5
75A9
330
6F38
100
AcDbEntity
  8
30
  6
Continuous
 62
     0
440
 16777216
100
AcDbLine
 10
-281.5735031517423
 20
-419.9999999999998
 30
0.0
 11
-281.5735031517423
 21
-446.0
 31
0.0
  0
INSERT
  5
75AA
330
6F38
100
AcDbEntity
  8
30
  6
Continuous
 62
     0
440
 16777216
100
AcDbBlockReference
  2
_OPEN
 10
-281.5735031517423
 20
-417.9999999999997
 30
0.0
 41
2.0
 42
2.0
 43
2.0
 50
90.0
  0
INSERT
  5
75AB
330
6F38
100
AcDbEntity
  8
30
  6
Continuous
 62
     0
440
 16777216
100
AcDbBlockReference
  2
_OPEN
 10
-281.5735031517423
 20
-448.0
 30
0.0
 41
2.0
 42
2.0
 43
2.0
 50
270.0
  0
MTEXT
  5
75AC
330
6F38
100
AcDbEntity
  8
30
  6
Continuous
 62
     0
440
 16777216
100
AcDbMText
 10
-287.5735031517423
 20
-433.0
 30
0.0
 40
10.0
 41
0.0
 46
0.0
 71
     5
 72
     1
  1
\A1;30
 11
0.0000000000000001
 21
1.0
 31
0.0
 73
     1
 44
1.0
1001
ACAD
1000
MTEXTBEGIN
1070
    73
1070
     1
1070
    44
1040
1.0
1070
    74
1070
     0
1000
MTEXTEND
1000
MTEXTBEGIN
1070
    73
1070
     1
1070
    44
1040
1.0
1070
    74
1070
     0
1000
MTEXTEND
  0
POINT
  5
75AD
330
6F38
100
AcDbEntity
  8
DEFPOINTS
  6
Continuous
 62
     0
440
 16777216
100
AcDbPoint
 10
-260.2860800635139
 20
-417.9999999999997
 30
0.0
  0
POINT
  5
75AE
330
6F38
100
AcDbEntity
  8
DEFPOINTS
  6
Continuous
 62
     0
440
 16777216
100
AcDbPoint
 10
-258.6958007812
 20
-448.0
 30
0.0
  0
POINT
  5
75AF
330
6F38
100
AcDbEntity
  8
DEFPOINTS
  6
Continuous
 62
     0
440
 16777216
100
AcDbPoint
 10
-281.5735031517423
 20
-448.0
 30
0.0
  0
ENDBLK
  5
6F43
330
6F38
100
AcDbEntity
  8
0
100
AcDbBlockEnd
  0
BLOCK
  5
71AF
330
71A5
100
AcDbEntity
  8
0
100
AcDbBlockBegin
  2
*D13
 70
     1
 10
0.0
 20
0.0
 30
0.0
  3
*D13
  1

  0
LINE
  5
7601
330
71A5
100
AcDbEntity
  8
30
  6
Continuous
 62
     0
440
 16777216
100
AcDbLine
 10
731.3330945803736
 20
-0.0000000000000028
 30
0.0
 11
884.3879346682186
 21
-0.0000000000000462
 31
0.0
  0
LINE
  5
7602
330
71A5
100
AcDbEntity
  8
30
  6
Continuous
 62
     0
440
 16777216
100
AcDbLine
 10
821.3330030276187
 20
-178.0002441406
 30
0.0
 11
884.3879346682186
 21
-178.0002441406
 31
0.0
  0
LINE
  5
7603
330
71A5
100
AcDbEntity
  8
30
  6
Continuous
 62
     0
440
 16777216
100
AcDbLine
 10
883.8879346682187
 20
-2.000000000000043
 30
0.0
 11
883.8879346682187
 21
-176.0002441406
 31
0.0
  0
INSERT
  5
7604
330
71A5
100
AcDbEntity
  8
30
  6
Continuous
 62
     0
440
 16777216
100
AcDbBlockReference
  2
_OPEN
 10
883.8879346682187
 20
-0.000000000000046
 30
0.0
 41
2.0
 42
2.0
 43
2.0
 50
90.0
  0
INSERT
  5
7605
330
71A5
100
AcDbEntity
  8
30
  6
Continuous
 62
     0
440
 16777216
100
AcDbBlockReference
  2
_OPEN
 10
883.8879346682187
 20
-178.0002441406
 30
0.0
 41
2.0
 42
2.0
 43
2.0
 50
270.0
  0
MTEXT
  5
7606
330
71A5
100
AcDbEntity
  8
30
  6
Continuous
 62
     0
440
 16777216
100
AcDbMText
 10
877.8879346682186
 20
-89.00012207029991
 30
0.0
 40
10.0
 41
0.0
 46
0.0
 71
     5
 72
     1
  1
\A1;178
 11
0.0000000000000001
 21
1.0
 31
0.0
 73
     1
 44
1.0
1001
ACAD
1000
MTEXTBEGIN
1070
    73
1070
     1
1070
    44
1040
1.0
1070
    74
1070
     0
1000
MTEXTEND
1000
MTEXTBEGIN
1070
    73
1070
     1
1070
    44
1040
1.0
1070
    74
1070
     0
1000
MTEXTEND
  0
POINT
  5
7607
330
71A5
100
AcDbEntity
  8
DEFPOINTS
  6
Continuous
 62
     0
440
 16777216
100
AcDbPoint
 10
721.3330945803736
 20
0.0
 30
0.0
  0
POINT
  5
7608
330
71A5
100
AcDbEntity
  8
DEFPOINTS
  6
Continuous
 62
     0
440
 16777216
100
AcDbPoint
 10
811.3330030276186
 20
-178.0002441406
 30
0.0
  0
POINT
  5
7609
330
71A5
100
AcDbEntity
  8
DEFPOINTS
  6
Continuous
 62
     0
440
 16777216
100
AcDbPoint
 10
883.8879346682187
 20
-178.0002441406
 30
0.0
  0
ENDBLK
  5
71B0
330
71A5
100
AcDbEntity
  8
0
100
AcDbBlockEnd
  0
BLOCK
  5
71BE
330
71B4
100
AcDbEntity
  8
0
100
AcDbBlockBegin
  2
*D14
 70
     1
 10
0.0
 20
0.0
 30
0.0
  3
*D14
  1

  0
LINE
  5
74CC
330
71B4
100
AcDbEntity
  8
30
  6
Continuous
 62
     0
440
 16777216
100
AcDbLine
 10
821.3330030276187
 20
-133.0
 30
0.0
 11
863.8368570654142
 21
-133.0
 31
0.0
  0
LINE
  5
74CD
330
71B4
100
AcDbEntity
  8
30
  6
Continuous
 62
     0
440
 16777216
100
AcDbLine
 10
821.3330030276187
 20
-223.0002441406
 30
0.0
 11
863.8368570654142
 21
-223.0002441406
 31
0.0
  0
LINE
  5
74CE
330
71B4
100
AcDbEntity
  8
30
  6
Continuous
 62
     0
440
 16777216
100
AcDbLine
 10
863.3368570654141
 20
-135.0
 30
0.0
 11
863.3368570654141
 21
-221.0002441406
 31
0.0
  0
INSERT
  5
74CF
330
71B4
100
AcDbEntity
  8
30
  6
Continuous
 62
     0
440
 16777216
100
AcDbBlockReference
  2
_OPEN
 10
863.3368570654141
 20
-133.0
 30
0.0
 41
2.0
 42
2.0
 43
2.0
 50
90.0
  0
INSERT
  5
74D0
330
71B4
100
AcDbEntity
  8
30
  6
Continuous
 62
     0
440
 16777216
100
AcDbBlockReference
  2
_OPEN
 10
863.3368570654141
 20
-223.0002441406
 30
0.0
 41
2.0
 42
2.0
 43
2.0
 50
270.0
  0
MTEXT
  5
74D1
330
71B4
100
AcDbEntity
  8
30
  6
Continuous
 62
     0
440
 16777216
100
AcDbMText
 10
857.3368570654141
 20
-178.0001220702999
 30
0.0
 40
10.0
 41
0.0
 46
0.0
 71
     5
 72
     1
  1
\A1;90
 11
0.0000000000000001
 21
1.0
 31
0.0
 73
     1
 44
1.0
1001
ACAD
1000
MTEXTBEGIN
1070
    73
1070
     1
1070
    44
1040
1.0
1070
    74
1070
     0
1000
MTEXTEND
1000
MTEXTBEGIN
1070
    73
1070
     1
1070
    44
1040
1.0
1070
    74
1070
     0
1000
MTEXTEND
  0
POINT
  5
74D2
330
71B4
100
AcDbEntity
  8
DEFPOINTS
  6
Continuous
 62
     0
440
 16777216
100
AcDbPoint
 10
811.3330030276186
 20
-133.0
 30
0.0
  0
POINT
  5
74D3
330
71B4
100
AcDbEntity
  8
DEFPOINTS
  6
Continuous
 62
     0
440
 16777216
100
AcDbPoint
 10
811.3330030276186
 20
-223.0002441406
 30
0.0
  0
POINT
  5
74D4
330
71B4
100
AcDbEntity
  8
DEFPOINTS
  6
Continuous
 62
     0
440
 16777216
100
AcDbPoint
 10
863.3368570654141
 20
-223.0002441406
 30
0.0
  0
ENDBLK
  5
71BF
330
71B4
100
AcDbEntity
  8
0
100
AcDbBlockEnd
  0
BLOCK
  5
71CB
330
71C1
100
AcDbEntity
  8
0
100
AcDbBlockBegin
  2
*D15
 70
     1
 10
0.0
 20
0.0
 30
0.0
  3
*D15
  1

  0
LINE
  5
74D5
330
71C1
100
AcDbEntity
  8
30
  6
Continuous
 62
     0
440
 16777216
100
AcDbLine
 10
815.5615186526187
 20
-158.0
 30
0.0
 11
836.4658562942308
 21
-158.0
 31
0.0
  0
LINE
  5
74D6
330
71C1
100
AcDbEntity
  8
30
  6
Continuous
 62
     0
440
 16777216
100
AcDbLine
 10
815.5615186526187
 20
-198.0
 30
0.0
 11
836.4658562942308
 21
-198.0
 31
0.0
  0
LINE
  5
74D7
330
71C1
100
AcDbEntity
  8
30
  6
Continuous
 62
     0
440
 16777216
100
AcDbLine
 10
835.9658562942307
 20
-160.0
 30
0.0
 11
835.9658562942307
 21
-196.0
 31
0.0
  0
INSERT
  5
74D8
330
71C1
100
AcDbEntity
  8
30
  6
Continuous
 62
     0
440
 16777216
100
AcDbBlockReference
  2
_OPEN
 10
835.9658562942307
 20
-158.0
 30
0.0
 41
2.0
 42
2.0
 43
2.0
 50
90.0
  0
INSERT
  5
74D9
330
71C1
100
AcDbEntity
  8
30
  6
Continuous
 62
     0
440
 16777216
100
AcDbBlockReference
  2
_OPEN
 10
835.9658562942307
 20
-198.0
 30
0.0
 41
2.0
 42
2.0
 43
2.0
 50
270.0
  0
MTEXT
  5
74DA
330
71C1
100
AcDbEntity
  8
30
  6
Continuous
 62
     0
440
 16777216
100
AcDbMText
 10
829.9658562942308
 20
-177.9999999999999
 30
0.0
 40
10.0
 41
0.0
 46
0.0
 71
     5
 72
     1
  1
\A1;40
 11
0.0000000000000001
 21
1.0
 31
0.0
 73
     1
 44
1.0
1001
ACAD
1000
MTEXTBEGIN
1070
    73
1070
     1
1070
    44
1040
1.0
1070
    74
1070
     0
1000
MTEXTEND
1000
MTEXTBEGIN
1070
    73
1070
     1
1070
    44
1040
1.0
1070
    74
1070
     0
1000
MTEXTEND
  0
POINT
  5
74DB
330
71C1
100
AcDbEntity
  8
DEFPOINTS
  6
Continuous
 62
     0
440
 16777216
100
AcDbPoint
 10
805.5615186526187
 20
-158.0
 30
0.0
  0
POINT
  5
74DC
330
71C1
100
AcDbEntity
  8
DEFPOINTS
  6
Continuous
 62
     0
440
 16777216
100
AcDbPoint
 10
805.5615186526187
 20
-198.0
 30
0.0
  0
POINT
  5
74DD
330
71C1
100
AcDbEntity
  8
DEFPOINTS
  6
Continuous
 62
     0
440
 16777216
100
AcDbPoint
 10
835.9658562942307
 20
-198.0
 30
0.0
  0
ENDBLK
  5
71CC
330
71C1
100
AcDbEntity
  8
0
100
AcDbBlockEnd
  0
BLOCK
  5
71D8
330
71CE
100
AcDbEntity
  8
0
100
AcDbBlockBegin
  2
*D16
 70
     1
 10
0.0
 20
0.0
 30
0.0
  3
*D16
  1

  0
LINE
  5
74DE
330
71CE
100
AcDbEntity
  8
30
  6
Continuous
 62
     0
440
 16777216
100
AcDbLine
 10
791.3330030276187
 20
-215.0002441406
 30
0.0
 11
791.3330030276187
 21
-237.4930275793513
 31
0.0
  0
LINE
  5
74DF
330
71CE
100
AcDbEntity
  8
30
  6
Continuous
 62
     0
440
 16777216
100
AcDbLine
 10
751.3330030276185
 20
-215.0002441406
 30
0.0
 11
751.3330030276185
 21
-237.4930275793513
 31
0.0
  0
LINE
  5
74E0
330
71CE
100
AcDbEntity
  8
30
  6
Continuous
 62
     0
440
 16777216
100
AcDbLine
 10
789.3330030276187
 20
-236.9930275793513
 30
0.0
 11
753.3330030276187
 21
-236.9930275793513
 31
0.0
  0
INSERT
  5
74E1
330
71CE
100
AcDbEntity
  8
30
  6
Continuous
 62
     0
440
 16777216
100
AcDbBlockReference
  2
_OPEN
 10
791.3330030276187
 20
-236.9930275793513
 30
0.0
 41
2.0
 42
2.0
 43
2.0
  0
INSERT
  5
74E2
330
71CE
100
AcDbEntity
  8
30
  6
Continuous
 62
     0
440
 16777216
100
AcDbBlockReference
  2
_OPEN
 10
751.3330030276185
 20
-236.9930275793513
 30
0.0
 41
2.0
 42
2.0
 43
2.0
 50
180.0
  0
MTEXT
  5
74E3
330
71CE
100
AcDbEntity
  8
30
  6
Continuous
 62
     0
440
 16777216
100
AcDbMText
 10
771.3330030276186
 20
-230.9930275793513
 30
0.0
 40
10.0
 41
0.0
 46
0.0
 71
     5
 72
     1
  1
\A1;40
 73
     1
 44
1.0
1001
ACAD
1000
MTEXTBEGIN
1070
    73
1070
     1
1070
    44
1040
1.0
1070
    74
1070
     0
1000
MTEXTEND
1000
MTEXTBEGIN
1070
    73
1070
     1
1070
    44
1040
1.0
1070
    74
1070
     0
1000
MTEXTEND
  0
POINT
  5
74E4
330
71CE
100
AcDbEntity
  8
DEFPOINTS
  6
Continuous
 62
     0
440
 16777216
100
AcDbPoint
 10
791.3330030276187
 20
-205.0002441406
 30
0.0
  0
POINT
  5
74E5
330
71CE
100
AcDbEntity
  8
DEFPOINTS
  6
Continuous
 62
     0
440
 16777216
100
AcDbPoint
 10
751.3330030276185
 20
-205.0002441406
 30
0.0
  0
POINT
  5
74E6
330
71CE
100
AcDbEntity
  8
DEFPOINTS
  6
Continuous
 62
     0
440
 16777216
100
AcDbPoint
 10
751.3330030276185
 20
-236.9930275793513
 30
0.0
  0
ENDBLK
  5
71D9
330
71CE
100
AcDbEntity
  8
0
100
AcDbBlockEnd
  0
BLOCK
  5
71E5
330
71DB
100
AcDbEntity
  8
0
100
AcDbBlockBegin
  2
*D17
 70
     1
 10
0.0
 20
0.0
 30
0.0
  3
*D17
  1

  0
LINE
  5
74E7
330
71DB
100
AcDbEntity
  8
30
  6
Continuous
 62
     0
440
 16777216
100
AcDbLine
 10
466.3330030276176
 20
-15.0
 30
0.0
 11
466.3330030276176
 21
-264.9617236011327
 31
0.0
  0
LINE
  5
74E8
330
71DB
100
AcDbEntity
  8
30
  6
Continuous
 62
     0
440
 16777216
100
AcDbLine
 10
476.3330030276186
 20
-203.0002441406
 30
0.0
 11
476.3330030276186
 21
-264.9617236011327
 31
0.0
  0
LINE
  5
74E9
330
71DB
100
AcDbEntity
  8
30
  6
Continuous
 62
     0
440
 16777216
100
AcDbLine
 10
468.3330030276176
 20
-264.4617236011327
 30
0.0
 11
474.3330030276187
 21
-264.4617236011327
 31
0.0
  0
LINE
  5
74EA
330
71DB
100
AcDbEntity
  8
30
  6
Continuous
 62
     0
440
 16777216
100
AcDbLine
 10
476.3330030276186
 20
-264.4617236011327
 30
0.0
 11
491.9996696942853
 21
-264.4617236011327
 31
0.0
  0
INSERT
  5
74EB
330
71DB
100
AcDbEntity
  8
30
  6
Continuous
 62
     0
440
 16777216
100
AcDbBlockReference
  2
_OPEN
 10
466.3330030276176
 20
-264.4617236011327
 30
0.0
 41
2.0
 42
2.0
 43
2.0
 50
180.0
  0
INSERT
  5
74EC
330
71DB
100
AcDbEntity
  8
30
  6
Continuous
 62
     0
440
 16777216
100
AcDbBlockReference
  2
_OPEN
 10
476.3330030276186
 20
-264.4617236011327
 30
0.0
 41
2.0
 42
2.0
 43
2.0
  0
MTEXT
  5
74ED
330
71DB
100
AcDbEntity
  8
30
  6
Continuous
 62
     0
440
 16777216
100
AcDbMText
 10
485.166336360952
 20
-258.4617236011327
 30
0.0
 40
10.0
 41
0.0
 46
0.0
 71
     5
 72
     1
  1
\A1;10
 73
     1
 44
1.0
1001
ACAD
1000
MTEXTBEGIN
1070
    73
1070
     1
1070
    44
1040
1.0
1070
    74
1070
     0
1000
MTEXTEND
1000
MTEXTBEGIN
1070
    73
1070
     1
1070
    44
1040
1.0
1070
    74
1070
     0
1000
MTEXTEND
  0
POINT
  5
74EE
330
71DB
100
AcDbEntity
  8
DEFPOINTS
  6
Continuous
 62
     0
440
 16777216
100
AcDbPoint
 10
466.3330030276176
 20
-5.000000000000004
 30
0.0
  0
POINT
  5
74EF
330
71DB
100
AcDbEntity
  8
DEFPOINTS
  6
Continuous
 62
     0
440
 16777216
100
AcDbPoint
 10
476.3330030276186
 20
-193.0002441406
 30
0.0
  0
POINT
  5
74F0
330
71DB
100
AcDbEntity
  8
DEFPOINTS
  6
Continuous
 62
     0
440
 16777216
100
AcDbPoint
 10
476.3330030276186
 20
-264.4617236011327
 30
0.0
  0
ENDBLK
  5
71E6
330
71DB
100
AcDbEntity
  8
0
100
AcDbBlockEnd
  0
BLOCK
  5
71F2
330
71E8
100
AcDbEntity
  8
0
100
AcDbBlockBegin
  2
*D18
 70
     1
 10
0.0
 20
0.0
 30
0.0
  3
*D18
  1

  0
LINE
  5
79FD
330
71E8
100
AcDbEntity
  8
30
  6
Continuous
 62
     0
440
 16777216
100
AcDbLine
 10
476.3330030276186
 20
-203.0002441406
 30
0.0
 11
476.3330030276186
 21
-264.9617236011327
 31
0.0
  0
LINE
  5
79FE
330
71E8
100
AcDbEntity
  8
30
  6
Continuous
 62
     0
440
 16777216
100
AcDbLine
 10
661.3330030276187
 20
-203.0002441406
 30
0.0
 11
661.3330030276187
 21
-264.9617236011327
 31
0.0
  0
LINE
  5
79FF
330
71E8
100
AcDbEntity
  8
30
  6
Continuous
 62
     0
440
 16777216
100
AcDbLine
 10
478.3330030276186
 20
-264.4617236011327
 30
0.0
 11
659.3330030276185
 21
-264.4617236011327
 31
0.0
  0
INSERT
  5
7A00
330
71E8
100
AcDbEntity
  8
30
  6
Continuous
 62
     0
440
 16777216
100
AcDbBlockReference
  2
_OPEN
 10
476.3330030276186
 20
-264.4617236011327
 30
0.0
 41
2.0
 42
2.0
 43
2.0
 50
180.0
  0
INSERT
  5
7A01
330
71E8
100
AcDbEntity
  8
30
  6
Continuous
 62
     0
440
 16777216
100
AcDbBlockReference
  2
_OPEN
 10
661.3330030276187
 20
-264.4617236011327
 30
0.0
 41
2.0
 42
2.0
 43
2.0
  0
MTEXT
  5
7A02
330
71E8
100
AcDbEntity
  8
30
  6
Continuous
 62
     0
440
 16777216
100
AcDbMText
 10
568.8330030276187
 20
-258.4617236011327
 30
0.0
 40
10.0
 41
0.0
 46
0.0
 71
     5
 72
     1
  1
\A1;185
 73
     1
 44
1.0
  0
POINT
  5
7A03
330
71E8
100
AcDbEntity
  8
DEFPOINTS
  6
Continuous
 62
     0
440
 16777216
100
AcDbPoint
 10
476.3330030276186
 20
-193.0002441406
 30
0.0
  0
POINT
  5
7A04
330
71E8
100
AcDbEntity
  8
DEFPOINTS
  6
Continuous
 62
     0
440
 16777216
100
AcDbPoint
 10
661.3330030276187
 20
-193.0002441406
 30
0.0
  0
POINT
  5
7A05
330
71E8
100
AcDbEntity
  8
DEFPOINTS
  6
Continuous
 62
     0
440
 16777216
100
AcDbPoint
 10
661.3330030276187
 20
-264.4617236011327
 30
0.0
  0
ENDBLK
  5
71F3
330
71E8
100
AcDbEntity
  8
0
100
AcDbBlockEnd
  0
BLOCK
  5
71FF
330
71F5
100
AcDbEntity
  8
0
100
AcDbBlockBegin
  2
*D19
 70
     1
 10
0.0
 20
0.0
 30
0.0
  3
*D19
  1

  0
LINE
  5
7A06
330
71F5
100
AcDbEntity
  8
30
  6
Continuous
 62
     0
440
 16777216
100
AcDbLine
 10
661.3330030276187
 20
-203.0002441406
 30
0.0
 11
661.3330030276187
 21
-264.9617236011327
 31
0.0
  0
LINE
  5
7A07
330
71F5
100
AcDbEntity
  8
30
  6
Continuous
 62
     0
440
 16777216
100
AcDbLine
 10
811.3330030276186
 20
-233.0002441406
 30
0.0
 11
811.3330030276186
 21
-264.9617236011327
 31
0.0
  0
LINE
  5
7A08
330
71F5
100
AcDbEntity
  8
30
  6
Continuous
 62
     0
440
 16777216
100
AcDbLine
 10
663.3330030276185
 20
-264.4617236011327
 30
0.0
 11
809.3330030276186
 21
-264.4617236011327
 31
0.0
  0
INSERT
  5
7A09
330
71F5
100
AcDbEntity
  8
30
  6
Continuous
 62
     0
440
 16777216
100
AcDbBlockReference
  2
_OPEN
 10
661.3330030276187
 20
-264.4617236011327
 30
0.0
 41
2.0
 42
2.0
 43
2.0
 50
180.0
  0
INSERT
  5
7A0A
330
71F5
100
AcDbEntity
  8
30
  6
Continuous
 62
     0
440
 16777216
100
AcDbBlockReference
  2
_OPEN
 10
811.3330030276186
 20
-264.4617236011327
 30
0.0
 41
2.0
 42
2.0
 43
2.0
  0
MTEXT
  5
7A0B
330
71F5
100
AcDbEntity
  8
30
  6
Continuous
 62
     0
440
 16777216
100
AcDbMText
 10
736.3330030276186
 20
-258.4617236011327
 30
0.0
 40
10.0
 41
0.0
 46
0.0
 71
     5
 72
     1
  1
\A1;150
 73
     1
 44
1.0
  0
POINT
  5
7A0C
330
71F5
100
AcDbEntity
  8
DEFPOINTS
  6
Continuous
 62
     0
440
 16777216
100
AcDbPoint
 10
661.3330030276187
 20
-193.0002441406
 30
0.0
  0
POINT
  5
7A0D
330
71F5
100
AcDbEntity
  8
DEFPOINTS
  6
Continuous
 62
     0
440
 16777216
100
AcDbPoint
 10
811.3330030276186
 20
-223.0002441406
 30
0.0
  0
POINT
  5
7A0E
330
71F5
100
AcDbEntity
  8
DEFPOINTS
  6
Continuous
 62
     0
440
 16777216
100
AcDbPoint
 10
811.3330030276186
 20
-264.4617236011327
 30
0.0
  0
ENDBLK
  5
7200
330
71F5
100
AcDbEntity
  8
0
100
AcDbBlockEnd
  0
BLOCK
  5
7212
330
7208
100
AcDbEntity
  8
0
100
AcDbBlockBegin
  2
*D20
 70
     1
 10
0.0
 20
0.0
 30
0.0
  3
*D20
  1

  0
LINE
  5
7503
330
7208
100
AcDbEntity
  8
30
  6
Continuous
 62
     0
440
 16777216
100
AcDbLine
 10
321.3329877687958
 20
-8.000000000000008
 30
0.0
 11
321.3329877687958
 21
-304.9454946722466
 31
0.0
  0
LINE
  5
7504
330
7208
100
AcDbEntity
  8
30
  6
Continuous
 62
     0
440
 16777216
100
AcDbLine
 10
661.3330030276187
 20
-234.0002441406
 30
0.0
 11
661.3330030276187
 21
-304.9454946722466
 31
0.0
  0
LINE
  5
7505
330
7208
100
AcDbEntity
  8
30
  6
Continuous
 62
     0
440
 16777216
100
AcDbLine
 10
323.3329877687958
 20
-304.4454946722467
 30
0.0
 11
659.3330030276185
 21
-304.4454946722467
 31
0.0
  0
INSERT
  5
7506
330
7208
100
AcDbEntity
  8
30
  6
Continuous
 62
     0
440
 16777216
100
AcDbBlockReference
  2
_OPEN
 10
321.3329877687958
 20
-304.4454946722467
 30
0.0
 41
2.0
 42
2.0
 43
2.0
 50
180.0
  0
INSERT
  5
7507
330
7208
100
AcDbEntity
  8
30
  6
Continuous
 62
     0
440
 16777216
100
AcDbBlockReference
  2
_OPEN
 10
661.3330030276187
 20
-304.4454946722467
 30
0.0
 41
2.0
 42
2.0
 43
2.0
  0
MTEXT
  5
7508
330
7208
100
AcDbEntity
  8
30
  6
Continuous
 62
     0
440
 16777216
100
AcDbMText
 10
491.3329953982073
 20
-298.4454946722467
 30
0.0
 40
10.0
 41
0.0
 46
0.0
 71
     5
 72
     1
  1
\A1;340
 73
     1
 44
1.0
1001
ACAD
1000
MTEXTBEGIN
1070
    73
1070
     1
1070
    44
1040
1.0
1070
    74
1070
     0
1000
MTEXTEND
1000
MTEXTBEGIN
1070
    73
1070
     1
1070
    44
1040
1.0
1070
    74
1070
     0
1000
MTEXTEND
  0
POINT
  5
7509
330
7208
100
AcDbEntity
  8
DEFPOINTS
  6
Continuous
 62
     0
440
 16777216
100
AcDbPoint
 10
321.3329877687958
 20
1.999999999999992
 30
0.0
  0
POINT
  5
750A
330
7208
100
AcDbEntity
  8
DEFPOINTS
  6
Continuous
 62
     0
440
 16777216
100
AcDbPoint
 10
661.3330030276187
 20
-224.0002441406
 30
0.0
  0
POINT
  5
750B
330
7208
100
AcDbEntity
  8
DEFPOINTS
  6
Continuous
 62
     0
440
 16777216
100
AcDbPoint
 10
661.3330030276187
 20
-304.4454946722467
 30
0.0
  0
ENDBLK
  5
7213
330
7208
100
AcDbEntity
  8
0
100
AcDbBlockEnd
  0
BLOCK
  5
721F
330
7215
100
AcDbEntity
  8
0
100
AcDbBlockBegin
  2
*D21
 70
     1
 10
0.0
 20
0.0
 30
0.0
  3
*D21
  1

  0
LINE
  5
750C
330
7215
100
AcDbEntity
  8
30
  6
Continuous
 62
     0
440
 16777216
100
AcDbLine
 10
416.3329114748636
 20
-8.000000000000019
 30
0.0
 11
416.3329114748636
 21
-286.0041273832248
 31
0.0
  0
LINE
  5
750D
330
7215
100
AcDbEntity
  8
30
  6
Continuous
 62
     0
440
 16777216
100
AcDbLine
 10
661.3330030276187
 20
-233.0002441406
 30
0.0
 11
661.3330030276187
 21
-286.0041273832248
 31
0.0
  0
LINE
  5
750E
330
7215
100
AcDbEntity
  8
30
  6
Continuous
 62
     0
440
 16777216
100
AcDbLine
 10
418.3329114748636
 20
-285.5041273832248
 30
0.0
 11
659.3330030276185
 21
-285.5041273832248
 31
0.0
  0
INSERT
  5
750F
330
7215
100
AcDbEntity
  8
30
  6
Continuous
 62
     0
440
 16777216
100
AcDbBlockReference
  2
_OPEN
 10
416.3329114748636
 20
-285.5041273832248
 30
0.0
 41
2.0
 42
2.0
 43
2.0
 50
180.0
  0
INSERT
  5
7510
330
7215
100
AcDbEntity
  8
30
  6
Continuous
 62
     0
440
 16777216
100
AcDbBlockReference
  2
_OPEN
 10
661.3330030276187
 20
-285.5041273832248
 30
0.0
 41
2.0
 42
2.0
 43
2.0
  0
MTEXT
  5
7511
330
7215
100
AcDbEntity
  8
30
  6
Continuous
 62
     0
440
 16777216
100
AcDbMText
 10
538.8329572512411
 20
-279.5041273832249
 30
0.0
 40
10.0
 41
0.0
 46
0.0
 71
     5
 72
     1
  1
\A1;245
 73
     1
 44
1.0
1001
ACAD
1000
MTEXTBEGIN
1070
    73
1070
     1
1070
    44
1040
1.0
1070
    74
1070
     0
1000
MTEXTEND
1000
MTEXTBEGIN
1070
    73
1070
     1
1070
    44
1040
1.0
1070
    74
1070
     0
1000
MTEXTEND
  0
POINT
  5
7512
330
7215
100
AcDbEntity
  8
DEFPOINTS
  6
Continuous
 62
     0
440
 16777216
100
AcDbPoint
 10
416.3329114748636
 20
1.99999999999998
 30
0.0
  0
POINT
  5
7513
330
7215
100
AcDbEntity
  8
DEFPOINTS
  6
Continuous
 62
     0
440
 16777216
100
AcDbPoint
 10
661.3330030276187
 20
-223.0002441406
 30
0.0
  0
POINT
  5
7514
330
7215
100
AcDbEntity
  8
DEFPOINTS
  6
Continuous
 62
     0
440
 16777216
100
AcDbPoint
 10
661.3330030276187
 20
-285.5041273832248
 30
0.0
  0
ENDBLK
  5
7220
330
7215
100
AcDbEntity
  8
0
100
AcDbBlockEnd
  0
BLOCK
  5
72E2
330
72D8
100
AcDbEntity
  8
0
100
AcDbBlockBegin
  2
*D22
 70
     1
 10
0.0
 20
0.0
 30
0.0
  3
*D22
  1

  0
LINE
  5
7515
330
72D8
100
AcDbEntity
  8
30
  6
Continuous
 62
     0
440
 16777216
100
AcDbLine
 10
-160.0
 20
-203.0002441405998
 30
0.0
 11
-160.0
 21
-302.7470477013541
 31
0.0
  0
LINE
  5
7516
330
72D8
100
AcDbEntity
  8
30
  6
Continuous
 62
     0
440
 16777216
100
AcDbLine
 10
-0.0000000000000027
 20
-241.0
 30
0.0
 11
-0.0000000000000065
 21
-302.7470477013541
 31
0.0
  0
LINE
  5
7517
330
72D8
100
AcDbEntity
  8
30
  6
Continuous
 62
     0
440
 16777216
100
AcDbLine
 10
-158.0
 20
-302.2470477013543
 30
0.0
 11
-2.000000000000003
 21
-302.2470477013543
 31
0.0
  0
INSERT
  5
7518
330
72D8
100
AcDbEntity
  8
30
  6
Continuous
 62
     0
440
 16777216
100
AcDbBlockReference
  2
_OPEN
 10
-160.0
 20
-302.2470477013543
 30
0.0
 41
2.0
 42
2.0
 43
2.0
 50
180.0
  0
INSERT
  5
7519
330
72D8
100
AcDbEntity
  8
30
  6
Continuous
 62
     0
440
 16777216
100
AcDbBlockReference
  2
_OPEN
 10
-0.0000000000000064
 20
-302.2470477013543
 30
0.0
 41
2.0
 42
2.0
 43
2.0
  0
MTEXT
  5
751A
330
72D8
100
AcDbEntity
  8
30
  6
Continuous
 62
     0
440
 16777216
100
AcDbMText
 10
-80.0
 20
-296.2470477013543
 30
0.0
 40
10.0
 41
0.0
 46
0.0
 71
     5
 72
     1
  1
\A1;160
 73
     1
 44
1.0
1001
ACAD
1000
MTEXTBEGIN
1070
    73
1070
     1
1070
    44
1040
1.0
1070
    74
1070
     0
1000
MTEXTEND
1000
MTEXTBEGIN
1070
    73
1070
     1
1070
    44
1040
1.0
1070
    74
1070
     0
1000
MTEXTEND
  0
POINT
  5
751B
330
72D8
100
AcDbEntity
  8
DEFPOINTS
  6
Continuous
 62
     0
440
 16777216
100
AcDbPoint
 10
-160.0
 20
-193.0002441405999
 30
0.0
  0
POINT
  5
751C
330
72D8
100
AcDbEntity
  8
DEFPOINTS
  6
Continuous
 62
     0
440
 16777216
100
AcDbPoint
 10
-0.0000000000000021
 20
-231.0
 30
0.0
  0
POINT
  5
751D
330
72D8
100
AcDbEntity
  8
DEFPOINTS
  6
Continuous
 62
     0
440
 16777216
100
AcDbPoint
 10
-0.0000000000000064
 20
-302.2470477013543
 30
0.0
  0
ENDBLK
  5
72E3
330
72D8
100
AcDbEntity
  8
0
100
AcDbBlockEnd
  0
BLOCK
  5
72EF
330
72E5
100
AcDbEntity
  8
0
100
AcDbBlockBegin
  2
*D23
 70
     1
 10
0.0
 20
0.0
 30
0.0
  3
*D23
  1

  0
LINE
  5
7A0F
330
72E5
100
AcDbEntity
  8
30
  6
Continuous
 62
     0
440
 16777216
100
AcDbLine
 10
-0.0000000000000027
 20
-241.0
 30
0.0
 11
-0.0000000000000065
 21
-302.7470477013541
 31
0.0
  0
LINE
  5
7A10
330
72E5
100
AcDbEntity
  8
30
  6
Continuous
 62
     0
440
 16777216
100
AcDbLine
 10
160.0
 20
-203.0002441405998
 30
0.0
 11
160.0
 21
-302.7470477013541
 31
0.0
  0
LINE
  5
7A11
330
72E5
100
AcDbEntity
  8
30
  6
Continuous
 62
     0
440
 16777216
100
AcDbLine
 10
1.999999999999993
 20
-302.2470477013543
 30
0.0
 11
158.0
 21
-302.2470477013543
 31
0.0
  0
INSERT
  5
7A12
330
72E5
100
AcDbEntity
  8
30
  6
Continuous
 62
     0
440
 16777216
100
AcDbBlockReference
  2
_OPEN
 10
-0.0000000000000065
 20
-302.2470477013543
 30
0.0
 41
2.0
 42
2.0
 43
2.0
 50
180.0
  0
INSERT
  5
7A13
330
72E5
100
AcDbEntity
  8
30
  6
Continuous
 62
     0
440
 16777216
100
AcDbBlockReference
  2
_OPEN
 10
160.0
 20
-302.2470477013543
 30
0.0
 41
2.0
 42
2.0
 43
2.0
  0
MTEXT
  5
7A14
330
72E5
100
AcDbEntity
  8
30
  6
Continuous
 62
     0
440
 16777216
100
AcDbMText
 10
80.0
 20
-296.2470477013543
 30
0.0
 40
10.0
 41
0.0
 46
0.0
 71
     5
 72
     1
  1
\A1;160
 73
     1
 44
1.0
  0
POINT
  5
7A15
330
72E5
100
AcDbEntity
  8
DEFPOINTS
  6
Continuous
 62
     0
440
 16777216
100
AcDbPoint
 10
-0.0000000000000021
 20
-231.0
 30
0.0
  0
POINT
  5
7A16
330
72E5
100
AcDbEntity
  8
DEFPOINTS
  6
Continuous
 62
     0
440
 16777216
100
AcDbPoint
 10
160.0
 20
-193.0002441405999
 30
0.0
  0
POINT
  5
7A17
330
72E5
100
AcDbEntity
  8
DEFPOINTS
  6
Continuous
 62
     0
440
 16777216
100
AcDbPoint
 10
160.0
 20
-302.2470477013543
 30
0.0
  0
ENDBLK
  5
72F0
330
72E5
100
AcDbEntity
  8
0
100
AcDbBlockEnd
  0
BLOCK
  5
72FC
330
72F2
100
AcDbEntity
  8
0
100
AcDbBlockBegin
  2
*D24
 70
     1
 10
0.0
 20
0.0
 30
0.0
  3
*D24
  1

  0
LINE
  5
78C4
330
72F2
100
AcDbEntity
  8
30
  6
Continuous
 62
     0
440
 16777216
100
AcDbLine
 10
-160.0
 20
-203.0002441405998
 30
0.0
 11
-160.0
 21
-334.8666137431486
 31
0.0
  0
LINE
  5
78C5
330
72F2
100
AcDbEntity
  8
30
  6
Continuous
 62
     0
440
 16777216
100
AcDbLine
 10
160.0
 20
-204.0002441405999
 30
0.0
 11
160.0
 21
-334.8666137431486
 31
0.0
  0
LINE
  5
78C6
330
72F2
100
AcDbEntity
  8
30
  6
Continuous
 62
     0
440
 16777216
100
AcDbLine
 10
-158.0
 20
-334.3666137431485
 30
0.0
 11
158.0
 21
-334.3666137431485
 31
0.0
  0
INSERT
  5
78C7
330
72F2
100
AcDbEntity
  8
30
  6
Continuous
 62
     0
440
 16777216
100
AcDbBlockReference
  2
_OPEN
 10
-160.0
 20
-334.3666137431485
 30
0.0
 41
2.0
 42
2.0
 43
2.0
 50
180.0
  0
INSERT
  5
78C8
330
72F2
100
AcDbEntity
  8
30
  6
Continuous
 62
     0
440
 16777216
100
AcDbBlockReference
  2
_OPEN
 10
160.0
 20
-334.3666137431485
 30
0.0
 41
2.0
 42
2.0
 43
2.0
  0
MTEXT
  5
78C9
330
72F2
100
AcDbEntity
  8
30
  6
Continuous
 62
     0
440
 16777216
100
AcDbMText
 10
0.0000000000000004
 20
-328.3666137431485
 30
0.0
 40
10.0
 41
0.0
 46
0.0
 71
     5
 72
     1
  1
\A1;320
 73
     1
 44
1.0
1001
ACAD
1000
MTEXTBEGIN
1070
    73
1070
     1
1070
    44
1040
1.0
1070
    74
1070
     0
1000
MTEXTEND
1000
MTEXTBEGIN
1070
    73
1070
     1
1070
    44
1040
1.0
1070
    74
1070
     0
1000
MTEXTEND
  0
POINT
  5
78CA
330
72F2
100
AcDbEntity
  8
DEFPOINTS
  6
Continuous
 62
     0
440
 16777216
100
AcDbPoint
 10
-160.0
 20
-193.0002441405999
 30
0.0
  0
POINT
  5
78CB
330
72F2
100
AcDbEntity
  8
DEFPOINTS
  6
Continuous
 62
     0
440
 16777216
100
AcDbPoint
 10
160.0
 20
-194.0002441405999
 30
0.0
  0
POINT
  5
78CC
330
72F2
100
AcDbEntity
  8
DEFPOINTS
  6
Continuous
 62
     0
440
 16777216
100
AcDbPoint
 10
160.0
 20
-334.3666137431485
 30
0.0
  0
ENDBLK
  5
72FD
330
72F2
100
AcDbEntity
  8
0
100
AcDbBlockEnd
  0
BLOCK
  5
735B
330
7351
100
AcDbEntity
  8
0
100
AcDbBlockBegin
  2
*D25
 70
     1
 10
0.0
 20
0.0
 30
0.0
  3
*D25
  1

  0
LINE
  5
7530
330
7351
100
AcDbEntity
  8
30
  6
Continuous
 62
     0
440
 16777216
100
AcDbLine
 10
-105.0
 20
-175.7812724788081
 30
0.0
 11
-105.0
 21
-258.0058619334863
 31
0.0
  0
LINE
  5
7531
330
7351
100
AcDbEntity
  8
30
  6
Continuous
 62
     0
440
 16777216
100
AcDbLine
 10
-0.0000000000000027
 20
-233.0002441406
 30
0.0
 11
-0.0000000000000042
 21
-258.0058619334863
 31
0.0
  0
LINE
  5
7532
330
7351
100
AcDbEntity
  8
30
  6
Continuous
 62
     0
440
 16777216
100
AcDbLine
 10
-103.0
 20
-257.5058619334863
 30
0.0
 11
-2.000000000000003
 21
-257.5058619334863
 31
0.0
  0
INSERT
  5
7533
330
7351
100
AcDbEntity
  8
30
  6
Continuous
 62
     0
440
 16777216
100
AcDbBlockReference
  2
_OPEN
 10
-105.0
 20
-257.5058619334863
 30
0.0
 41
2.0
 42
2.0
 43
2.0
 50
180.0
  0
INSERT
  5
7534
330
7351
100
AcDbEntity
  8
30
  6
Continuous
 62
     0
440
 16777216
100
AcDbBlockReference
  2
_OPEN
 10
-0.0000000000000042
 20
-257.5058619334863
 30
0.0
 41
2.0
 42
2.0
 43
2.0
  0
MTEXT
  5
7535
330
7351
100
AcDbEntity
  8
30
  6
Continuous
 62
     0
440
 16777216
100
AcDbMText
 10
-52.5
 20
-251.5058619334863
 30
0.0
 40
10.0
 41
0.0
 46
0.0
 71
     5
 72
     1
  1
\A1;105
 73
     1
 44
1.0
1001
ACAD
1000
MTEXTBEGIN
1070
    73
1070
     1
1070
    44
1040
1.0
1070
    74
1070
     0
1000
MTEXTEND
1000
MTEXTBEGIN
1070
    73
1070
     1
1070
    44
1040
1.0
1070
    74
1070
     0
1000
MTEXTEND
  0
POINT
  5
7536
330
7351
100
AcDbEntity
  8
DEFPOINTS
  6
Continuous
 62
     0
440
 16777216
100
AcDbPoint
 10
-105.0
 20
-165.7812724788082
 30
0.0
  0
POINT
  5
7537
330
7351
100
AcDbEntity
  8
DEFPOINTS
  6
Continuous
 62
     0
440
 16777216
100
AcDbPoint
 10
-0.000000000000002
 20
-223.0002441406
 30
0.0
  0
POINT
  5
7538
330
7351
100
AcDbEntity
  8
DEFPOINTS
  6
Continuous
 62
     0
440
 16777216
100
AcDbPoint
 10
-0.0000000000000042
 20
-257.5058619334863
 30
0.0
  0
ENDBLK
  5
735C
330
7351
100
AcDbEntity
  8
0
100
AcDbBlockEnd
  0
BLOCK
  5
7368
330
735E
100
AcDbEntity
  8
0
100
AcDbBlockBegin
  2
*D26
 70
     1
 10
0.0
 20
0.0
 30
0.0
  3
*D26
  1

  0
LINE
  5
7A18
330
735E
100
AcDbEntity
  8
30
  6
Continuous
 62
     0
440
 16777216
100
AcDbLine
 10
-0.0000000000000026
 20
-233.0002441406
 30
0.0
 11
-0.0000000000000041
 21
-258.0058619334863
 31
0.0
  0
LINE
  5
7A19
330
735E
100
AcDbEntity
  8
30
  6
Continuous
 62
     0
440
 16777216
100
AcDbLine
 10
105.0
 20
-175.7812724788081
 30
0.0
 11
105.0
 21
-258.0058619334863
 31
0.0
  0
LINE
  5
7A1A
330
735E
100
AcDbEntity
  8
30
  6
Continuous
 62
     0
440
 16777216
100
AcDbLine
 10
1.999999999999995
 20
-257.5058619334863
 30
0.0
 11
103.0
 21
-257.5058619334863
 31
0.0
  0
INSERT
  5
7A1B
330
735E
100
AcDbEntity
  8
30
  6
Continuous
 62
     0
440
 16777216
100
AcDbBlockReference
  2
_OPEN
 10
-0.0000000000000041
 20
-257.5058619334863
 30
0.0
 41
2.0
 42
2.0
 43
2.0
 50
180.0
  0
INSERT
  5
7A1C
330
735E
100
AcDbEntity
  8
30
  6
Continuous
 62
     0
440
 16777216
100
AcDbBlockReference
  2
_OPEN
 10
105.0
 20
-257.5058619334863
 30
0.0
 41
2.0
 42
2.0
 43
2.0
  0
MTEXT
  5
7A1D
330
735E
100
AcDbEntity
  8
30
  6
Continuous
 62
     0
440
 16777216
100
AcDbMText
 10
52.5
 20
-251.5058619334863
 30
0.0
 40
10.0
 41
0.0
 46
0.0
 71
     5
 72
     1
  1
\A1;105
 73
     1
 44
1.0
  0
POINT
  5
7A1E
330
735E
100
AcDbEntity
  8
DEFPOINTS
  6
Continuous
 62
     0
440
 16777216
100
AcDbPoint
 10
-0.000000000000002
 20
-223.0002441406
 30
0.0
  0
POINT
  5
7A1F
330
735E
100
AcDbEntity
  8
DEFPOINTS
  6
Continuous
 62
     0
440
 16777216
100
AcDbPoint
 10
105.0
 20
-165.7812724788082
 30
0.0
  0
POINT
  5
7A20
330
735E
100
AcDbEntity
  8
DEFPOINTS
  6
Continuous
 62
     0
440
 16777216
100
AcDbPoint
 10
105.0
 20
-257.5058619334863
 30
0.0
  0
ENDBLK
  5
7369
330
735E
100
AcDbEntity
  8
0
100
AcDbBlockEnd
  0
BLOCK
  5
739D
330
7393
100
AcDbEntity
  8
0
100
AcDbBlockBegin
  2
*D27
 70
     1
 10
0.0
 20
0.0
 30
0.0
  3
*D27
  1

  0
LINE
  5
754B
330
7393
100
AcDbEntity
  8
30
  6
Continuous
 62
     0
440
 16777216
100
AcDbLine
 10
-170.0
 20
257.0
 30
0.0
 11
-221.6360311003208
 21
257.0
 31
0.0
  0
LINE
  5
754C
330
7393
100
AcDbEntity
  8
30
  6
Continuous
 62
     0
440
 16777216
100
AcDbLine
 10
-170.0
 20
0.0000000000000028
 30
0.0
 11
-221.6360311003209
 21
0.0000000000000175
 31
0.0
  0
LINE
  5
754D
330
7393
100
AcDbEntity
  8
30
  6
Continuous
 62
     0
440
 16777216
100
AcDbLine
 10
-221.1360311003208
 20
255.0
 30
0.0
 11
-221.1360311003208
 21
2.000000000000015
 31
0.0
  0
INSERT
  5
754E
330
7393
100
AcDbEntity
  8
30
  6
Continuous
 62
     0
440
 16777216
100
AcDbBlockReference
  2
_OPEN
 10
-221.1360311003208
 20
257.0
 30
0.0
 41
2.0
 42
2.0
 43
2.0
 50
90.0
  0
INSERT
  5
754F
330
7393
100
AcDbEntity
  8
30
  6
Continuous
 62
     0
440
 16777216
100
AcDbBlockReference
  2
_OPEN
 10
-221.1360311003208
 20
0.0000000000000173
 30
0.0
 41
2.0
 42
2.0
 43
2.0
 50
270.0
  0
MTEXT
  5
7550
330
7393
100
AcDbEntity
  8
30
  6
Continuous
 62
     0
440
 16777216
100
AcDbMText
 10
-227.1360311003209
 20
128.4999999999999
 30
0.0
 40
10.0
 41
0.0
 46
0.0
 71
     5
 72
     1
  1
\A1;257
 11
0.0000000000000001
 21
1.0
 31
0.0
 73
     1
 44
1.0
1001
ACAD
1000
MTEXTBEGIN
1070
    73
1070
     1
1070
    44
1040
1.0
1070
    74
1070
     0
1000
MTEXTEND
1000
MTEXTBEGIN
1070
    73
1070
     1
1070
    44
1040
1.0
1070
    74
1070
     0
1000
MTEXTEND
  0
POINT
  5
7551
330
7393
100
AcDbEntity
  8
DEFPOINTS
  6
Continuous
 62
     0
440
 16777216
100
AcDbPoint
 10
-160.0
 20
257.0
 30
0.0
  0
POINT
  5
7552
330
7393
100
AcDbEntity
  8
DEFPOINTS
  6
Continuous
 62
     0
440
 16777216
100
AcDbPoint
 10
-160.0
 20
0.0
 30
0.0
  0
POINT
  5
7553
330
7393
100
AcDbEntity
  8
DEFPOINTS
  6
Continuous
 62
     0
440
 16777216
100
AcDbPoint
 10
-221.1360311003208
 20
0.0000000000000173
 30
0.0
  0
ENDBLK
  5
739E
330
7393
100
AcDbEntity
  8
0
100
AcDbBlockEnd
  0
BLOCK
  5
73AA
330
73A0
100
AcDbEntity
  8
0
100
AcDbBlockBegin
  2
*D28
 70
     1
 10
0.0
 20
0.0
 30
0.0
  3
*D28
  1

  0
LINE
  5
7A21
330
73A0
100
AcDbEntity
  8
30
  6
Continuous
 62
     0
440
 16777216
100
AcDbLine
 10
-170.0
 20
0.0000000000000028
 30
0.0
 11
-221.6360311003207
 21
0.0000000000000175
 31
0.0
  0
LINE
  5
7A22
330
73A0
100
AcDbEntity
  8
30
  6
Continuous
 62
     0
440
 16777216
100
AcDbLine
 10
-170.0
 20
-193.0002441405999
 30
0.0
 11
-221.6360311003208
 21
-193.0002441405998
 31
0.0
  0
LINE
  5
7A23
330
73A0
100
AcDbEntity
  8
30
  6
Continuous
 62
     0
440
 16777216
100
AcDbLine
 10
-221.1360311003207
 20
-1.99999999999998
 30
0.0
 11
-221.1360311003208
 21
-191.0002441405998
 31
0.0
  0
INSERT
  5
7A24
330
73A0
100
AcDbEntity
  8
30
  6
Continuous
 62
     0
440
 16777216
100
AcDbBlockReference
  2
_OPEN
 10
-221.1360311003207
 20
0.0000000000000173
 30
0.0
 41
2.0
 42
2.0
 43
2.0
 50
90.0
  0
INSERT
  5
7A25
330
73A0
100
AcDbEntity
  8
30
  6
Continuous
 62
     0
440
 16777216
100
AcDbBlockReference
  2
_OPEN
 10
-221.1360311003208
 20
-193.0002441405998
 30
0.0
 41
2.0
 42
2.0
 43
2.0
 50
270.0
  0
MTEXT
  5
7A26
330
73A0
100
AcDbEntity
  8
30
  6
Continuous
 62
     0
440
 16777216
100
AcDbMText
 10
-227.1360311003207
 20
-96.50012207029995
 30
0.0
 40
10.0
 41
0.0
 46
0.0
 71
     5
 72
     1
  1
\A1;193
 11
0.0000000000000001
 21
1.0
 31
0.0
 73
     1
 44
1.0
  0
POINT
  5
7A27
330
73A0
100
AcDbEntity
  8
DEFPOINTS
  6
Continuous
 62
     0
440
 16777216
100
AcDbPoint
 10
-160.0
 20
0.0
 30
0.0
  0
POINT
  5
7A28
330
73A0
100
AcDbEntity
  8
DEFPOINTS
  6
Continuous
 62
     0
440
 16777216
100
AcDbPoint
 10
-160.0
 20
-193.0002441405999
 30
0.0
  0
POINT
  5
7A29
330
73A0
100
AcDbEntity
  8
DEFPOINTS
  6
Continuous
 62
     0
440
 16777216
100
AcDbPoint
 10
-221.1360311003208
 20
-193.0002441405998
 30
0.0
  0
ENDBLK
  5
73AB
330
73A0
100
AcDbEntity
  8
0
100
AcDbBlockEnd
  0
BLOCK
  5
73FA
330
73F0
100
AcDbEntity
  8
0
100
AcDbBlockBegin
  2
*D29
 70
     1
 10
0.0
 20
0.0
 30
0.0
  3
*D29
  1

  0
LINE
  5
7A2A
330
73F0
100
AcDbEntity
  8
30
  6
Continuous
 62
     0
440
 16777216
100
AcDbLine
 10
791.3330030276187
 20
-215.0002441406
 30
0.0
 11
791.3330030276187
 21
-237.4930275793513
 31
0.0
  0
LINE
  5
7A2B
330
73F0
100
AcDbEntity
  8
30
  6
Continuous
 62
     0
440
 16777216
100
AcDbLine
 10
811.3330030276186
 20
-208.0
 30
0.0
 11
811.3330030276186
 21
-237.4930275793513
 31
0.0
  0
LINE
  5
7A2C
330
73F0
100
AcDbEntity
  8
30
  6
Continuous
 62
     0
440
 16777216
100
AcDbLine
 10
793.3330030276187
 20
-236.9930275793513
 30
0.0
 11
809.3330030276186
 21
-236.9930275793513
 31
0.0
  0
INSERT
  5
7A2D
330
73F0
100
AcDbEntity
  8
30
  6
Continuous
 62
     0
440
 16777216
100
AcDbBlockReference
  2
_OPEN
 10
791.3330030276187
 20
-236.9930275793513
 30
0.0
 41
2.0
 42
2.0
 43
2.0
 50
180.0
  0
INSERT
  5
7A2E
330
73F0
100
AcDbEntity
  8
30
  6
Continuous
 62
     0
440
 16777216
100
AcDbBlockReference
  2
_OPEN
 10
811.3330030276186
 20
-236.9930275793513
 30
0.0
 41
2.0
 42
2.0
 43
2.0
  0
MTEXT
  5
7A2F
330
73F0
100
AcDbEntity
  8
30
  6
Continuous
 62
     0
440
 16777216
100
AcDbMText
 10
801.3330030276186
 20
-230.9930275793513
 30
0.0
 40
10.0
 41
0.0
 46
0.0
 71
     5
 72
     1
  1
\A1;20
 73
     1
 44
1.0
  0
POINT
  5
7A30
330
73F0
100
AcDbEntity
  8
DEFPOINTS
  6
Continuous
 62
     0
440
 16777216
100
AcDbPoint
 10
791.3330030276187
 20
-205.0002441406
 30
0.0
  0
POINT
  5
7A31
330
73F0
100
AcDbEntity
  8
DEFPOINTS
  6
Continuous
 62
     0
440
 16777216
100
AcDbPoint
 10
811.3330030276186
 20
-198.0
 30
0.0
  0
POINT
  5
7A32
330
73F0
100
AcDbEntity
  8
DEFPOINTS
  6
Continuous
 62
     0
440
 16777216
100
AcDbPoint
 10
811.3330030276186
 20
-236.9930275793513
 30
0.0
  0
ENDBLK
  5
73FB
330
73F0
100
AcDbEntity
  8
0
100
AcDbBlockEnd
  0
BLOCK
  5
7615
330
760B
100
AcDbEntity
  8
0
100
AcDbBlockBegin
  2
*D30
 70
     1
 10
0.0
 20
0.0
 30
0.0
  3
*D30
  1

  0
LINE
  5
760C
330
760B
100
AcDbEntity
  8
30
  6
Continuous
 62
     0
440
 16777216
100
AcDbLine
 10
821.3330030276187
 20
112.9999999999999
 30
0.0
 11
884.3879346682186
 21
112.9999999999999
 31
0.0
  0
LINE
  5
760D
330
760B
100
AcDbEntity
  8
30
  6
Continuous
 62
     0
440
 16777216
100
AcDbLine
 10
741.3330945803736
 20
-0.0000000000000057
 30
0.0
 11
884.3879346682186
 21
-0.0000000000000462
 31
0.0
  0
LINE
  5
760E
330
760B
100
AcDbEntity
  8
30
  6
Continuous
 62
     0
440
 16777216
100
AcDbLine
 10
883.8879346682187
 20
110.9999999999996
 30
0.0
 11
883.8879346682187
 21
1.999999999999953
 31
0.0
  0
INSERT
  5
760F
330
760B
100
AcDbEntity
  8
30
  6
Continuous
 62
     0
440
 16777216
100
AcDbBlockReference
  2
_OPEN
 10
883.8879346682187
 20
112.9999999999999
 30
0.0
 41
2.0
 42
2.0
 43
2.0
 50
90.0
  0
INSERT
  5
7610
330
760B
100
AcDbEntity
  8
30
  6
Continuous
 62
     0
440
 16777216
100
AcDbBlockReference
  2
_OPEN
 10
883.8879346682187
 20
-0.000000000000046
 30
0.0
 41
2.0
 42
2.0
 43
2.0
 50
270.0
  0
MTEXT
  5
7611
330
760B
100
AcDbEntity
  8
30
  6
Continuous
 62
     0
440
 16777216
100
AcDbMText
 10
877.8879346682186
 20
56.50000000000009
 30
0.0
 40
10.0
 41
0.0
 46
0.0
 71
     5
 72
     1
  1
\A1;113
 11
0.0000000000000001
 21
1.0
 31
0.0
 73
     1
 44
1.0
1001
ACAD
1000
MTEXTBEGIN
1070
    73
1070
     1
1070
    44
1040
1.0
1070
    74
1070
     0
1000
MTEXTEND
1000
MTEXTBEGIN
1070
    73
1070
     1
1070
    44
1040
1.0
1070
    74
1070
     0
1000
MTEXTEND
  0
POINT
  5
7612
330
760B
100
AcDbEntity
  8
DEFPOINTS
  6
Continuous
 62
     0
440
 16777216
100
AcDbPoint
 10
811.3330030276186
 20
112.9999999999999
 30
0.0
  0
POINT
  5
7613
330
760B
100
AcDbEntity
  8
DEFPOINTS
  6
Continuous
 62
     0
440
 16777216
100
AcDbPoint
 10
731.3330945803736
 20
-0.0000000000000028
 30
0.0
  0
POINT
  5
7614
330
760B
100
AcDbEntity
  8
DEFPOINTS
  6
Continuous
 62
     0
440
 16777216
100
AcDbPoint
 10
883.8879346682187
 20
-0.000000000000046
 30
0.0
  0
ENDBLK
  5
7616
330
760B
100
AcDbEntity
  8
0
100
AcDbBlockEnd
  0
ENDSEC
  0
SECTION
  2
ENTITIES
  0
LINE
  5
B4
330
1E
100
AcDbEntity
  8
16
100
AcDbLine
 10
-0.0000000000000021
 20
-231.0
 30
0.0
 11
0.0
 21
260.2817373766102
 31
0.0
  0
LINE
  5
B5
330
1E
100
AcDbEntity
  8
16
100
AcDbLine
 10
168.1711045943109
 20
0.0000000000000107
 30
0.0
 11
-189.1661476100052
 21
0.0
 31
0.0
  0
MTEXT
  5
BF3
330
1E
100
AcDbEntity
  8
24
  6
Continuous
100
AcDbMText
 10
142.1181906098743
 20
177.5
 30
0.0
 40
3.0
 41
0.0
 46
0.0
 71
     1
 72
     1
  1
\A1;
 73
     1
 44
1.0
1001
ACAD
1000
MTEXTBEGIN
1070
    73
1070
     1
1070
    44
1040
1.0
1070
    74
1070
     0
1000
MTEXTEND
1000
MTEXTBEGIN
1070
    73
1070
     1
1070
    44
1040
1.0
1070
    74
1070
     0
1000
MTEXTEND
  0
LINE
  5
1C9A
330
1E
100
AcDbEntity
  8
16
100
AcDbLine
 10
0.0
 20
284.4603198874711
 30
0.0
 11
0.0
 21
727.8004738743933
 31
0.0
  0
LINE
  5
1C9B
330
1E
100
AcDbEntity
  8
16
100
AcDbLine
 10
721.3330945803736
 20
0.0
 30
0.0
 11
296.0
 21
0.0
 31
0.0
  0
LINE
  5
2261
330
1E
100
AcDbEntity
  8
16
100
AcDbLine
 10
0.0
 20
-662.3645093449662
 30
0.0
 11
0.0
 21
-352.3645093449662
 31
0.0
  0
MTEXT
  5
5D8A
330
1E
100
AcDbEntity
  8
19
  6
Continuous
100
AcDbMText
 10
515.4563110512408
 20
461.1671669675801
 30
0.0
 40
9.0
 41
134.6578
 46
0.0
 71
     1
 72
     5
  1
XS2500NE 3P RC\PXS2500NN 3P RC\PXS3200NE 3P RC
  7
STANDARD1
 73
     1
 44
1.0
1001
ACAD
1000
MTEXTBEGIN
1070
    73
1070
     1
1070
    44
1040
1.0
1070
    74
1070
     0
1000
MTEXTEND
1000
MTEXTBEGIN
1070
    73
1070
     1
1070
    44
1040
1.0
1070
    74
1070
     0
1000
MTEXTEND
  0
DIMENSION
  5
6CC0
330
1E
100
AcDbEntity
  8
30
  6
Continuous
100
AcDbDimension
280
     0
  2
*D1
 10
-174.0
 20
333.4826543873018
 30
0.0
 11
-180.0
 21
425.9828985279519
 31
0.0
 70
    32
 71
     5
 42
-1.0
 73
     0
 74
     0
 75
     0
  3
STANDARD
100
AcDbAlignedDimension
 13
-160.0
 23
518.4831426686018
 33
0.0
 14
-160.0
 24
333.4826543873018
 34
0.0
 50
90.0
100
AcDbRotatedDimension
  0
LWPOLYLINE
  5
6CC9
330
1E
100
AcDbEntity
  8
10
  6
Continuous
100
AcDbPolyline
 90
        4
 70
     0
 43
0.0
 10
-33.0
 20
329.4826543873018
 10
-33.0
 20
297.4826543873017
 10
33.0
 20
297.4826543873017
 10
33.0
 20
329.4826543873018
  0
LWPOLYLINE
  5
6CCA
330
1E
100
AcDbEntity
  8
10
  6
Continuous
100
AcDbPolyline
 90
        3
 70
     0
 43
0.0
 10
-57.5
 20
333.4826543873018
 10
-57.5
 20
329.4826543873018
 10
57.5
 20
329.4826543873018
  0
LINE
  5
6CCB
330
1E
100
AcDbEntity
  8
10
  6
Continuous
100
AcDbLine
 10
-51.0
 20
333.4826543873018
 30
0.0
 11
-51.0
 21
333.4826543873018
 31
0.0
  0
LINE
  5
6CCC
330
1E
100
AcDbEntity
  8
10
  6
Continuous
100
AcDbLine
 10
57.5
 20
333.4826543873018
 30
0.0
 11
57.5
 21
333.4826543873018
 31
0.0
  0
LINE
  5
6CCD
330
1E
100
AcDbEntity
  8
10
  6
Continuous
100
AcDbLine
 10
57.5
 20
329.4826543873018
 30
0.0
 11
57.5
 21
333.4826543873018
 31
0.0
  0
LINE
  5
6D0F
330
1E
100
AcDbEntity
  8
21
100
AcDbLine
 10
10.0
 20
668.4831426686018
 30
0.0
 11
10.00000000000011
 21
518.4831426686018
 31
0.0
  0
LINE
  5
6D10
330
1E
100
AcDbEntity
  8
21
100
AcDbLine
 10
-9.999999999999886
 20
518.4831426686018
 30
0.0
 11
-10.0
 21
668.4831426686018
 31
0.0
  0
LINE
  5
6D11
330
1E
100
AcDbEntity
  8
21
100
AcDbLine
 10
-95.00024414059998
 20
668.4831426686018
 30
0.0
 11
-95.00024414059998
 21
518.4831426686018
 31
0.0
  0
LINE
  5
6D12
330
1E
100
AcDbEntity
  8
21
100
AcDbLine
 10
-115.0002441405999
 20
518.4831426686018
 30
0.0
 11
-115.0002441405999
 21
668.4831426686018
 31
0.0
  0
LINE
  5
6D13
330
1E
100
AcDbEntity
  8
21
100
AcDbLine
 10
115.0
 20
668.4831426686018
 30
0.0
 11
115.0000000000001
 21
518.4831426686018
 31
0.0
  0
LINE
  5
6D14
330
1E
100
AcDbEntity
  8
21
100
AcDbLine
 10
95.00000000000012
 20
518.4831426686018
 30
0.0
 11
95.0
 21
668.4831426686018
 31
0.0
  0
LINE
  5
6D17
330
1E
100
AcDbEntity
  8
24
  6
CONTINOUS
100
AcDbLine
 10
-126.3793945311999
 20
648.4831426686017
 30
0.0
 11
-84.79736328119996
 21
648.4831426686017
 31
0.0
  0
LINE
  5
6D18
330
1E
100
AcDbEntity
  8
21
100
AcDbLine
 10
-115.0002441405999
 20
668.4831426686018
 30
0.0
 11
-95.00024414059998
 21
668.4831426686018
 31
0.0
  0
LINE
  5
6D19
330
1E
100
AcDbEntity
  8
24
  6
CONTINOUS
100
AcDbLine
 10
-21.37939453119996
 20
648.4831426686017
 30
0.0
 11
20.20263671880001
 21
648.4831426686017
 31
0.0
  0
LINE
  5
6D1A
330
1E
100
AcDbEntity
  8
21
100
AcDbLine
 10
-10.0
 20
668.4831426686018
 30
0.0
 11
10.0
 21
668.4831426686018
 31
0.0
  0
LINE
  5
6D1B
330
1E
100
AcDbEntity
  8
24
  6
CONTINOUS
100
AcDbLine
 10
83.62060546880002
 20
648.4831426686017
 30
0.0
 11
125.2026367187999
 21
648.4831426686017
 31
0.0
  0
LINE
  5
6D1C
330
1E
100
AcDbEntity
  8
21
100
AcDbLine
 10
95.0
 20
668.4831426686018
 30
0.0
 11
115.0
 21
668.4831426686018
 31
0.0
  0
LINE
  5
6D21
330
1E
100
AcDbEntity
  8
24
  6
CONTINOUS
100
AcDbLine
 10
-125.8393554686997
 20
608.4831426686017
 30
0.0
 11
-83.71752929679994
 21
608.4831426686017
 31
0.0
  0
LINE
  5
6D24
330
1E
100
AcDbEntity
  8
24
  6
CONTINOUS
100
AcDbLine
 10
-20.83935546869985
 20
608.4831426686017
 30
0.0
 11
21.28271484380012
 21
608.4831426686017
 31
0.0
  0
LINE
  5
6D27
330
1E
100
AcDbEntity
  8
24
  6
CONTINOUS
100
AcDbLine
 10
84.1606445313001
 20
608.4831426686017
 30
0.0
 11
126.2827148438
 21
608.4831426686017
 31
0.0
  0
LWPOLYLINE
  5
6D30
330
1E
100
AcDbEntity
  8
10
  6
Continuous
100
AcDbPolyline
 90
       10
 70
     1
 43
0.0
 10
-160.0
 20
518.4831426686018
 10
-6.000000000000111
 20
518.4831426686018
 10
13.99999999999988
 20
518.4831426686018
 10
98.99999999999987
 20
518.4831426686018
 10
118.9999999999997
 20
518.4831426686018
 10
160.0002441405995
 20
518.4831426686018
 10
115.0002441405998
 20
518.4831426686018
 10
160.0002441405995
 20
518.4831426686018
 10
160.0002441405995
 20
333.4826543873018
 10
-160.0
 20
333.4826543873018
  0
DIMENSION
  5
6D31
330
1E
100
AcDbEntity
  8
30
  6
Continuous
100
AcDbDimension
280
     0
  2
*D2
 10
0.0000000000000038
 20
729.7373687819852
 30
0.0
 11
-52.50012207029995
 21
735.7373687819853
 31
0.0
 70
    32
 71
     5
 42
-1.0
 73
     0
 74
     0
 75
     0
  3
STANDARD
100
AcDbAlignedDimension
 13
-105.0002441405998
 23
668.4831426686018
 33
0.0
 14
0.0
 24
668.4831426686018
 34
0.0
100
AcDbRotatedDimension
  0
DIMENSION
  5
6D3E
330
1E
100
AcDbEntity
  8
30
  6
Continuous
100
AcDbDimension
280
     0
  2
*D3
 10
105.0
 20
729.7373687819852
 30
0.0
 11
52.5
 21
735.7373687819853
 31
0.0
 70
    32
 71
     5
 42
-1.0
 73
     0
 74
     0
 75
     0
  3
STANDARD
100
AcDbAlignedDimension
 13
0.0
 23
478.6507035126525
 33
0.0
 14
105.0
 24
668.4831426686018
 34
0.0
100
AcDbRotatedDimension
1001
ACAD
1000
DSTYLE
1002
{
1070
   287
1070
     4
1070
   287
1070
     4
1070
   287
1070
     4
1070
   287
1070
     4
1070
   279
1070
     1
1002
}
  0
LINE
  5
6E32
330
1E
100
AcDbEntity
  8
17
  6
CONTINOUS
100
AcDbLine
 10
-258.279296875
 20
-699.0
 30
0.0
 11
193.4724121093996
 21
-699.0
 31
0.0
  0
LINE
  5
6E33
330
1E
100
AcDbEntity
  8
24
  6
DASHED
 48
2.0
100
AcDbLine
 10
-254.4172363281
 20
-705.0
 30
0.0
 11
197.3344726563
 21
-705.0
 31
0.0
  0
LINE
  5
6E34
330
1E
100
AcDbEntity
  8
17
  6
CONTINOUS
100
AcDbLine
 10
-252.2651367186999
 20
-749.0
 30
0.0
 11
197.4819335938
 21
-749.0
 31
0.0
  0
LINE
  5
6E35
330
1E
100
AcDbEntity
  8
17
  6
CONTINOUS
100
AcDbLine
 10
-258.6958007812
 20
-448.0
 30
0.0
 11
193.1948242188
 21
-448.0
 31
0.0
  0
LINE
  5
6E36
330
1E
100
AcDbEntity
  8
24
  6
DASHED
 48
2.0
100
AcDbLine
 10
-260.4106445311999
 20
-442.0
 30
0.0
 11
191.3413085938
 21
-442.0
 31
0.0
  0
LINE
  5
6E37
330
1E
100
AcDbEntity
  8
17
  6
CONTINOUS
100
AcDbLine
 10
-263.2861328125
 20
-398.0
 30
0.0
 11
188.4658203125
 21
-398.0
 31
0.0
  0
LINE
  5
6E38
330
1E
100
AcDbEntity
  8
18
100
AcDbLine
 10
-160.0
 20
-843.0
 30
0.0
 11
153.5
 21
-842.9999999999999
 31
0.0
  0
LINE
  5
6E39
330
1E
100
AcDbEntity
  8
18
100
AcDbLine
 10
160.0
 20
-393.0
 30
0.0
 11
-160.0
 21
-393.0
 31
0.0
  0
DIMENSION
  5
6E3A
330
1E
100
AcDbEntity
  8
30
  6
Continuous
100
AcDbDimension
280
     0
  2
*D4
 10
-305.9500104239524
 20
-649.9999999999999
 30
0.0
 11
-311.9500104239522
 21
-534.0
 31
0.0
 70
    32
 71
     5
 42
-1.0
 73
     0
 74
     0
 75
     0
  3
STANDARD
100
AcDbAlignedDimension
 13
-76.6962890625
 23
-418.0
 33
0.0
 14
-166.0
 24
-650.0
 34
0.0
 50
90.0
100
AcDbRotatedDimension
  0
DIMENSION
  5
6E3B
330
1E
100
AcDbEntity
  8
30
  6
Continuous
100
AcDbDimension
280
     0
  2
*D5
 10
151.0
 20
-785.9304743781599
 30
0.0
 11
0.0000000000000004
 21
-779.9304743781599
 31
0.0
 70
    32
 71
     5
 42
-1.0
 73
     0
 74
     0
 75
     0
  3
STANDARD
100
AcDbAlignedDimension
 13
-151.0
 23
-748.8425854357203
 33
0.0
 14
151.0
 24
-748.8425854357203
 34
0.0
100
AcDbRotatedDimension
  0
LINE
  5
6E3C
330
1E
100
AcDbEntity
  8
16
100
AcDbLine
 10
202.1634296945399
 20
-650.0
 30
0.0
 11
-166.0
 21
-650.0
 31
0.0
  0
LINE
  5
6E3D
330
1E
100
AcDbEntity
  8
18
100
AcDbLine
 10
-160.0
 20
-393.0
 30
0.0
 11
-160.0
 21
-843.0
 31
0.0
  0
DIMENSION
  5
6E3E
330
1E
100
AcDbEntity
  8
30
  6
Continuous
100
AcDbDimension
280
     0
  2
*D6
 10
-305.9500104239524
 20
-728.9999999999999
 30
0.0
 11
-311.9500104239522
 21
-689.5
 31
0.0
 70
    32
 71
     5
 42
-1.0
 73
     0
 74
     0
 75
     0
  3
STANDARD
100
AcDbAlignedDimension
 13
-166.0
 23
-650.0
 33
0.0
 14
-165.3988960500464
 24
-729.0
 34
0.0
 50
90.0
100
AcDbRotatedDimension
1001
ACAD
1000
DSTYLE
1002
{
1070
   287
1070
     4
1070
   287
1070
     4
1070
   287
1070
     4
1070
   287
1070
     4
1070
   279
1070
     1
1002
}
  0
LINE
  5
6E3F
330
1E
100
AcDbEntity
  8
17
  6
CONTINOUS
100
AcDbLine
 10
-258.279296875
 20
-699.0
 30
0.0
 11
-251.1611328124998
 21
-717.7048339844
 31
0.0
  0
LINE
  5
6E40
330
1E
100
AcDbEntity
  8
17
  6
CONTINOUS
100
AcDbLine
 10
-251.1611328124998
 20
-717.7048339844
 30
0.0
 11
-261.5048828124999
 21
-736.17578125
 31
0.0
  0
LINE
  5
6E41
330
1E
100
AcDbEntity
  8
17
  6
CONTINOUS
100
AcDbLine
 10
-261.5048828124999
 20
-736.17578125
 30
0.0
 11
-252.2651367186999
 21
-749.0
 31
0.0
  0
LINE
  5
6E42
330
1E
100
AcDbEntity
  8
L225_
  6
Continuous
 62
     3
100
AcDbLine
 10
-151.0
 20
-711.7419144169661
 30
0.0
 11
-151.0
 21
-748.8425854357203
 31
0.0
  0
LINE
  5
6E43
330
1E
100
AcDbEntity
  8
12
100
AcDbLine
 10
-165.3988960500464
 20
-729.0
 30
0.0
 11
-131.2623136680812
 21
-729.0
 31
0.0
  0
CIRCLE
  5
6E44
330
1E
100
AcDbEntity
  8
12
100
AcDbCircle
 10
-151.0
 20
-729.0
 30
0.0
 40
6.0
  0
LINE
  5
6E45
330
1E
100
AcDbEntity
  8
12
100
AcDbLine
 10
-160.0
 20
-729.0
 30
0.0
 11
-133.544921875
 21
-729.0
 31
0.0
  0
LINE
  5
6E46
330
1E
100
AcDbEntity
  8
17
  6
CONTINOUS
100
AcDbLine
 10
-268.8933105467999
 20
-430.2958984375
 30
0.0
 11
-258.5495605467999
 21
-415.5192871094
 31
0.0
  0
LINE
  5
6E47
330
1E
100
AcDbEntity
  8
17
  6
CONTINOUS
100
AcDbLine
 10
-258.6958007812
 20
-448.0
 30
0.0
 11
-268.8933105467999
 21
-430.2958984375
 31
0.0
  0
LINE
  5
6E48
330
1E
100
AcDbEntity
  8
17
  6
CONTINOUS
100
AcDbLine
 10
-258.5495605467999
 20
-415.5192871094
 30
0.0
 11
-263.2861328125
 21
-398.0
 31
0.0
  0
LINE
  5
6E49
330
1E
100
AcDbEntity
  8
18
100
AcDbLine
 10
160.0
 20
-836.4999999999996
 30
0.0
 11
160.0
 21
-393.0
 31
0.0
  0
LINE
  5
6E4A
330
1E
100
AcDbEntity
  8
16
100
AcDbLine
 10
-0.0000000000000011
 20
-887.0852836296467
 30
0.0
 11
-0.0000000000000011
 21
-377.7109542159318
 31
0.0
  0
LEADER
  5
6E4B
330
1E
100
AcDbEntity
  8
30
  6
Continuous
100
AcDbLeader
  3
STANDARD
 76
     3
 10
153.9976892556788
 20
-723.9419380557055
 30
0.0
 10
189.1060660123457
 20
-671.5125236015301
 30
0.0
 10
219.8787691488916
 20
-671.5688774134697
 30
0.0
1001
ACAD
1000
DSTYLE
1002
{
1070
     5
1000
OPEN
1070
   342
1005
3B2
1002
}
  0
LINE
  5
6E4C
330
1E
100
AcDbEntity
  8
12
100
AcDbLine
 10
136.6011039499535
 20
-729.0
 30
0.0
 11
170.7376863319186
 21
-729.0
 31
0.0
  0
LINE
  5
6E4D
330
1E
100
AcDbEntity
  8
L225_
  6
Continuous
 62
     3
100
AcDbLine
 10
151.0
 20
-711.7419144169661
 30
0.0
 11
151.0
 21
-748.8425854357203
 31
0.0
  0
CIRCLE
  5
6E4E
330
1E
100
AcDbEntity
  8
12
100
AcDbCircle
 10
151.0
 20
-729.0
 30
0.0
 40
6.0
  0
TEXT
  5
6E4F
330
1E
100
AcDbEntity
  8
30
  6
Continuous
100
AcDbText
 10
201.0915596357603
 20
-671.2332757408529
 30
0.0
 40
10.0
  1
%%C12
100
AcDbText
  0
DIMENSION
  5
6E50
330
1E
100
AcDbEntity
  8
30
  6
Continuous
100
AcDbDimension
280
     0
  2
*D7
 10
52.5
 20
-496.4905511136339
 30
0.0
 11
-0.0000000000000067
 21
-490.4905511136337
 31
0.0
 70
    32
 71
     5
 42
-1.0
 73
     0
 74
     0
 75
     0
  3
STANDARD
100
AcDbAlignedDimension
 13
-52.5
 23
-437.8425854357206
 33
0.0
 14
52.5
 24
-437.8425854357206
 34
0.0
100
AcDbRotatedDimension
  0
LINE
  5
6E51
330
1E
100
AcDbEntity
  8
12
100
AcDbLine
 10
-76.6962890625
 20
-418.0
 30
0.0
 11
-27.314453125
 21
-418.0
 31
0.0
  0
LINE
  5
6E52
330
1E
100
AcDbEntity
  8
L225_
  6
Continuous
 62
     3
100
AcDbLine
 10
-52.5
 20
-400.741914416966
 30
0.0
 11
-52.5
 21
-437.8425854357206
 31
0.0
  0
CIRCLE
  5
6E53
330
1E
100
AcDbEntity
  8
12
100
AcDbCircle
 10
-52.5
 20
-418.0
 30
0.0
 40
6.0
  0
LINE
  5
6E54
330
1E
100
AcDbEntity
  8
12
100
AcDbLine
 10
38.10110394995353
 20
-418.0
 30
0.0
 11
72.23768633191865
 21
-418.0
 31
0.0
  0
CIRCLE
  5
6E55
330
1E
100
AcDbEntity
  8
12
100
AcDbCircle
 10
52.5
 20
-418.0
 30
0.0
 40
6.0
  0
LINE
  5
6E56
330
1E
100
AcDbEntity
  8
L225_
  6
Continuous
 62
     3
100
AcDbLine
 10
52.5
 20
-400.741914416966
 30
0.0
 11
52.5
 21
-437.8425854357206
 31
0.0
  0
DIMENSION
  5
6E57
330
1E
100
AcDbEntity
  8
30
  6
Continuous
100
AcDbDimension
280
     0
  2
*D8
 10
609.4999999999997
 20
-750.1030481124437
 30
0.0
 11
550.0
 21
-744.1030481124437
 31
0.0
 70
    32
 71
     5
 42
-1.0
 73
     0
 74
     0
 75
     0
  3
STANDARD
100
AcDbAlignedDimension
 13
490.4999999999998
 23
-712.0
 33
0.0
 14
609.4999999999997
 24
-712.0
 34
0.0
100
AcDbRotatedDimension
  0
LWPOLYLINE
  5
6E58
330
1E
100
AcDbEntity
  8
11
  6
Continuous
100
AcDbPolyline
 90
        8
 70
     1
 43
0.0
 10
490.5
 20
-712.0
 42
0.4142135623730951
 10
500.4999999999998
 20
-722.0
 10
599.5
 20
-722.0
 42
0.4142135623730951
 10
609.4999999999997
 20
-712.0
 10
609.4999999999997
 20
-588.0
 42
0.4142135623730951
 10
599.5
 20
-578.0
 10
500.4999999999998
 20
-578.0
 42
0.4142135623730951
 10
490.5
 20
-588.0
  0
LWPOLYLINE
  5
6E59
330
1E
100
AcDbEntity
  8
18
100
AcDbPolyline
 90
        6
 70
     1
 43
0.0
 10
710.0
 20
-843.0
 10
390.0
 20
-843.0
 10
390.0
 20
-392.9995117186998
 10
710.0
 20
-392.9995117186998
 10
710.0
 20
-392.9995117186998
 10
710.0
 20
-843.0
  0
DIMENSION
  5
6E5A
330
1E
100
AcDbEntity
  8
30
  6
Continuous
100
AcDbDimension
280
     0
  2
*D9
 10
596.0081213089146
 20
-606.8665427739512
 30
0.0
 11
617.3651923710988
 21
-555.4099999999998
 31
0.0
 70
   164
  1
R10
 71
     5
 42
-1.0
 73
     0
 74
     0
 75
     0
  3
STANDARD
100
AcDbRadialDimension
 15
599.4999999999997
 25
-587.9999999999999
 35
0.0
 40
0.0
1001
ACAD
1000
DSTYLE
1002
{
1070
   288
1070
     1
1002
}
  0
LINE
  5
6E5B
330
1E
100
AcDbEntity
  8
16
100
AcDbLine
 10
728.3650554061058
 20
-650.0
 30
0.0
 11
373.5383822643398
 21
-650.0
 31
0.0
  0
DIMENSION
  5
6E5C
330
1E
100
AcDbEntity
  8
30
  6
Continuous
100
AcDbDimension
280
     0
  2
*D10
 10
438.188797131058
 20
-722.0
 30
0.0
 11
432.1887971310578
 21
-649.9999999999999
 31
0.0
 70
    32
 71
     5
 42
-1.0
 73
     0
 74
     0
 75
     0
  3
STANDARD
100
AcDbAlignedDimension
 13
500.4999999999998
 23
-578.0
 33
0.0
 14
500.4999999999998
 24
-722.0
 34
0.0
 50
90.0
100
AcDbRotatedDimension
  0
LINE
  5
6E5D
330
1E
100
AcDbEntity
  8
16
100
AcDbLine
 10
550.0
 20
-885.3603056821796
 30
0.0
 11
550.0
 21
-372.7109542159317
 31
0.0
  0
LINE
  5
6E5E
330
1E
100
AcDbEntity
  8
17
  6
CONTINOUS
100
AcDbLine
 10
193.4724121093996
 20
-699.0
 30
0.0
 11
203.5739746093997
 21
-721.3991699219
 31
0.0
  0
LINE
  5
6E5F
330
1E
100
AcDbEntity
  8
17
  6
CONTINOUS
100
AcDbLine
 10
190.2749023438
 20
-728.0485839844
 30
0.0
 11
197.4819335938
 21
-749.0
 31
0.0
  0
LINE
  5
6E60
330
1E
100
AcDbEntity
  8
17
  6
CONTINOUS
100
AcDbLine
 10
203.5739746093997
 20
-721.3991699219
 30
0.0
 11
190.2749023438
 21
-728.0485839844
 31
0.0
  0
LINE
  5
6E61
330
1E
100
AcDbEntity
  8
17
  6
CONTINOUS
100
AcDbLine
 10
193.1948242188
 20
-448.0
 30
0.0
 11
184.3642578125
 21
-428.0795898437999
 31
0.0
  0
LINE
  5
6E62
330
1E
100
AcDbEntity
  8
17
  6
CONTINOUS
100
AcDbLine
 10
193.9692382813
 20
-413.302734375
 30
0.0
 11
188.4658203125
 21
-398.0
 31
0.0
  0
LINE
  5
6E63
330
1E
100
AcDbEntity
  8
17
  6
CONTINOUS
100
AcDbLine
 10
184.3642578125
 20
-428.0795898437999
 30
0.0
 11
193.9692382813
 21
-413.302734375
 31
0.0
  0
ARC
  5
6F29
330
1E
100
AcDbEntity
  8
18
100
AcDbCircle
 10
153.5
 20
-836.4999999999996
 30
0.0
 40
6.5
100
AcDbArc
 50
270.0
 51
0.0
  0
DIMENSION
  5
6F2A
330
1E
100
AcDbEntity
  8
30
  6
Continuous
100
AcDbDimension
280
     0
  2
*D11
 10
-286.2243577752428
 20
-728.9999999999999
 30
0.0
 11
-292.2243577752427
 21
-714.0
 31
0.0
 70
    32
 71
     5
 42
-1.0
 73
     0
 74
     0
 75
     0
  3
STANDARD
100
AcDbAlignedDimension
 13
-258.279296875
 23
-699.0
 33
0.0
 14
-257.4864377247958
 24
-728.9999999999999
 34
0.0
 50
90.0
100
AcDbRotatedDimension
  0
DIMENSION
  5
6F37
330
1E
100
AcDbEntity
  8
30
  6
Continuous
100
AcDbDimension
280
     0
  2
*D12
 10
-281.5735031517423
 20
-448.0
 30
0.0
 11
-287.5735031517423
 21
-433.0
 31
0.0
 70
    32
 71
     5
 42
-1.0
 73
     0
 74
     0
 75
     0
  3
STANDARD
100
AcDbAlignedDimension
 13
-260.2860800635139
 23
-417.9999999999997
 33
0.0
 14
-258.6958007812
 24
-448.0
 34
0.0
 50
90.0
100
AcDbRotatedDimension
  0
LINE
  5
70C7
330
1E
100
AcDbEntity
  8
18
100
AcDbLine
 10
410.7551221682187
 20
30.73339843749996
 30
0.0
 11
368.7629346682186
 21
51.46874999999997
 31
0.0
  0
ARC
  5
70C8
330
1E
100
AcDbEntity
  8
10
  6
Continuous
100
AcDbCircle
 10
561.3330030276187
 20
1.999999999999971
 30
0.0
 40
240.0000152588225
100
AcDbArc
 50
166.4795499242519
 51
180.0
  0
ARC
  5
70C9
330
1E
100
AcDbEntity
  8
18
100
AcDbCircle
 10
355.3030145206625
 20
70.12154677695065
 30
0.0
 40
23.00000000004116
100
AcDbArc
 50
17.64105276142776
 51
305.7583761049976
  0
ARC
  5
70CC
330
1E
100
AcDbEntity
  8
10
  6
Continuous
100
AcDbCircle
 10
561.3330030276187
 20
1.999999999999971
 30
0.0
 40
145.0000915527549
100
AcDbArc
 50
165.6881085843864
 51
180.0
  0
ARC
  5
70CE
330
1E
100
AcDbEntity
  8
10
  6
Continuous
100
AcDbCircle
 10
726.3330030276185
 20
-5.000000000000056
 30
0.0
 40
260.0000000000346
100
AcDbArc
 50
169.9367321349441
 51
178.8980905901466
  0
LINE
  5
70D0
330
1E
100
AcDbEntity
  8
10
  6
Continuous
100
AcDbLine
 10
470.3330030276187
 20
-70.00000000000007
 30
0.0
 11
470.3330030276187
 21
-50.43164062500006
 31
0.0
  0
LINE
  5
70D1
330
1E
100
AcDbEntity
  8
10
  6
Continuous
100
AcDbLine
 10
476.3330030276186
 20
-70.00000000000007
 30
0.0
 11
470.3330030276187
 21
-70.00000000000007
 31
0.0
  0
ARC
  5
70D2
330
1E
100
AcDbEntity
  8
10
  6
Continuous
100
AcDbCircle
 10
726.3330030276185
 20
-5.000000000000056
 30
0.0
 40
260.0
100
AcDbArc
 50
180.0
 51
190.0632778829626
  0
ARC
  5
70D3
330
1E
100
AcDbEntity
  8
L0_
  6
Continuous
 62
     2
100
AcDbCircle
 10
726.3330030276185
 20
-5.000000000000056
 30
0.0
 40
260.0000000000008
100
AcDbArc
 50
178.8980905901466
 51
180.0
  0
LINE
  5
70D4
330
1E
100
AcDbEntity
  8
21
100
AcDbLine
 10
811.3330030276186
 20
-133.0
 30
0.0
 11
811.3330030276186
 21
-223.0002441406
 31
0.0
  0
LINE
  5
70D8
330
1E
100
AcDbEntity
  8
21
100
AcDbLine
 10
811.3330030276186
 20
-223.0002441406
 30
0.0
 11
633.3330030276187
 21
-223.0002441406
 31
0.0
  0
LINE
  5
70D9
330
1E
100
AcDbEntity
  8
10
  6
Continuous
100
AcDbLine
 10
618.3330030276184
 20
-223.0002441406
 30
0.0
 11
618.3330030276184
 21
-193.0002441405999
 31
0.0
  0
LINE
  5
70DA
330
1E
100
AcDbEntity
  8
10
  6
Continuous
100
AcDbLine
 10
633.3330030276187
 20
-223.0002441406
 30
0.0
 11
633.3330030276187
 21
-193.0002441405999
 31
0.0
  0
CIRCLE
  5
70DE
330
1E
100
AcDbEntity
  8
24
  6
CONTINOUS
100
AcDbCircle
 10
751.3330030276185
 20
-198.0002441406
 30
0.0
 40
7.0
  0
CIRCLE
  5
70DF
330
1E
100
AcDbEntity
  8
24
  6
CONTINOUS
100
AcDbCircle
 10
751.3330030276185
 20
-158.0
 30
0.0
 40
7.0
  0
CIRCLE
  5
70E0
330
1E
100
AcDbEntity
  8
24
  6
CONTINOUS
100
AcDbCircle
 10
791.3330030276187
 20
-158.0
 30
0.0
 40
7.0
  0
CIRCLE
  5
70E1
330
1E
100
AcDbEntity
  8
24
  6
CONTINOUS
100
AcDbCircle
 10
791.3330030276187
 20
-198.0002441406
 30
0.0
 40
7.0
  0
LINE
  5
70E3
330
1E
100
AcDbEntity
  8
21
100
AcDbLine
 10
661.3330030276187
 20
-133.0
 30
0.0
 11
811.3330030276186
 21
-133.0
 31
0.0
  0
ARC
  5
70E4
330
1E
100
AcDbEntity
  8
12
  6
DASHED
100
AcDbCircle
 10
-706.8330030276187
 20
-50.50000000000006
 30
0.0
 40
4.5
210
0.0
220
0.0
230
-1.0
100
AcDbArc
 50
180.0
 51
270.0
  0
LINE
  5
70E5
330
1E
100
AcDbEntity
  8
12
  6
DASHED
100
AcDbLine
 10
661.3330030276187
 20
-49.00000000000005
 30
0.0
 11
711.3330030276187
 21
-49.00000000000005
 31
0.0
  0
LINE
  5
70E6
330
1E
100
AcDbEntity
  8
12
  6
DASHED
100
AcDbLine
 10
740.1330518557187
 20
-79.00000000000004
 30
0.0
 11
638.3913526369187
 21
-79.00000000000004
 31
0.0
  0
LINE
  5
70E8
330
1E
100
AcDbEntity
  8
12
  6
DASHED
100
AcDbLine
 10
661.3330030276187
 20
-99.00000000000005
 30
0.0
 11
661.3330030276187
 21
-49.00000000000005
 31
0.0
  0
LINE
  5
70E9
330
1E
100
AcDbEntity
  8
12
  6
DASHED
100
AcDbLine
 10
667.3330030276185
 20
-94.50000000000006
 30
0.0
 11
667.3330030276185
 21
-61.50000000000005
 31
0.0
  0
LINE
  5
70EA
330
1E
100
AcDbEntity
  8
12
  6
DASHED
100
AcDbLine
 10
661.3330030276187
 20
-70.00000000000007
 30
0.0
 11
661.3330030276187
 21
-88.00000000000006
 31
0.0
  0
LINE
  5
70EB
330
1E
100
AcDbEntity
  8
12
  6
DASHED
100
AcDbLine
 10
662.8330030276186
 20
-99.00000000000005
 30
0.0
 11
661.3330030276187
 21
-99.00000000000005
 31
0.0
  0
ARC
  5
70EC
330
1E
100
AcDbEntity
  8
12
  6
DASHED
100
AcDbCircle
 10
-662.8330030276186
 20
-94.50000000000006
 30
0.0
 40
4.5
210
0.0
220
0.0
230
-1.0
100
AcDbArc
 50
180.0
 51
270.0
  0
LINE
  5
70ED
330
1E
100
AcDbEntity
  8
12
  6
DASHED
100
AcDbLine
 10
679.0329541994187
 20
-68.00000000000007
 30
0.0
 11
679.0329541994187
 21
-90.00000000000005
 31
0.0
  0
LINE
  5
70EE
330
1E
100
AcDbEntity
  8
12
  6
DASHED
100
AcDbLine
 10
679.0329541994187
 20
-90.00000000000005
 30
0.0
 11
667.3330030276185
 21
-90.00000000000005
 31
0.0
  0
LINE
  5
70EF
330
1E
100
AcDbEntity
  8
12
  6
DASHED
100
AcDbLine
 10
679.0329541994187
 20
-68.00000000000007
 30
0.0
 11
667.3330030276185
 21
-68.00000000000007
 31
0.0
  0
LINE
  5
70F0
330
1E
100
AcDbEntity
  8
12
  6
DASHED
100
AcDbLine
 10
690.1330518557187
 20
-84.00000000000003
 30
0.0
 11
667.3330030276185
 21
-84.00000000000003
 31
0.0
  0
LINE
  5
70F1
330
1E
100
AcDbEntity
  8
12
  6
DASHED
100
AcDbLine
 10
690.1330518557187
 20
-74.00000000000004
 30
0.0
 11
690.1330518557187
 21
-84.00000000000003
 31
0.0
  0
LINE
  5
70F2
330
1E
100
AcDbEntity
  8
12
  6
DASHED
100
AcDbLine
 10
667.3330030276185
 20
-74.00000000000004
 30
0.0
 11
690.1330518557187
 21
-74.00000000000004
 31
0.0
  0
ARC
  5
70F5
330
1E
100
AcDbEntity
  8
12
  6
DASHED
100
AcDbCircle
 10
-673.8330030276187
 20
-61.50000000000005
 30
0.0
 40
6.5
210
0.0
220
0.0
230
-1.0
100
AcDbArc
 50
0.0
 51
90.0
  0
LINE
  5
70F6
330
1E
100
AcDbEntity
  8
12
  6
DASHED
100
AcDbLine
 10
673.8330030276187
 20
-55.00000000000007
 30
0.0
 11
706.8330030276187
 21
-55.00000000000007
 31
0.0
  0
LINE
  5
70F7
330
1E
100
AcDbEntity
  8
12
  6
DASHED
100
AcDbLine
 10
711.3330030276187
 20
-50.50000000000006
 30
0.0
 11
711.3330030276187
 21
-49.00000000000005
 31
0.0
  0
LINE
  5
70F9
330
1E
100
AcDbEntity
  8
12
  6
DASHED
100
AcDbLine
 10
531.3330030276187
 20
225.9999999999999
 30
0.0
 11
661.3330030276187
 21
225.9999999999999
 31
0.0
  0
LINE
  5
70FA
330
1E
100
AcDbEntity
  8
12
  6
DASHED
100
AcDbLine
 10
531.3330030276187
 20
237.9999999999999
 30
0.0
 11
661.3330030276187
 21
237.9999999999999
 31
0.0
  0
LINE
  5
70FB
330
1E
100
AcDbEntity
  8
12
  6
DASHED
100
AcDbLine
 10
466.3330030276187
 20
231.9999999999999
 30
0.0
 11
740.1330518557187
 21
231.9999999999999
 31
0.0
  0
LINE
  5
70FE
330
1E
100
AcDbEntity
  8
10
  6
Continuous
100
AcDbLine
 10
424.2451124026187
 20
36.54101562499997
 30
0.0
 11
458.7055616213183
 21
23.38085937499996
 31
0.0
  0
LINE
  5
70FF
330
1E
100
AcDbEntity
  8
10
  6
Continuous
100
AcDbLine
 10
430.6821241213182
 20
56.00390624999997
 30
0.0
 11
466.1943311526187
 21
46.02441406249996
 31
0.0
  0
LINE
  5
7100
330
1E
100
AcDbEntity
  8
10
  6
Continuous
100
AcDbLine
 10
421.7617139651187
 20
41.77050781249996
 30
0.0
 11
425.5703077151187
 21
53.28613281249997
 31
0.0
  0
ARC
  5
7101
330
1E
100
AcDbEntity
  8
10
  6
Continuous
100
AcDbCircle
 10
429.4247999026187
 20
52.20214843749997
 30
0.0
 40
4.004088401747021
100
AcDbArc
 50
71.69926877440268
 51
164.2919086348789
  0
ARC
  5
7102
330
1E
100
AcDbEntity
  8
10
  6
Continuous
100
AcDbCircle
 10
425.5024366213183
 20
40.34277343749996
 30
0.0
 40
4.003967761941156
100
AcDbArc
 50
159.1086829798233
 51
251.6992737836257
  0
LINE
  5
7104
330
1E
100
AcDbEntity
  8
10
  6
Continuous
100
AcDbLine
 10
460.2490186526186
 20
22.79101562499997
 30
0.0
 11
467.4057569338183
 21
18.59374999999996
 31
0.0
  0
LINE
  5
7105
330
1E
100
AcDbEntity
  8
10
  6
Continuous
100
AcDbLine
 10
458.7055616213183
 20
23.38085937499996
 30
0.0
 11
460.2490186526186
 21
22.79101562499997
 31
0.0
  0
LINE
  5
7106
330
1E
100
AcDbEntity
  8
10
  6
Continuous
100
AcDbLine
 10
466.1943311526187
 20
46.02441406249996
 30
0.0
 11
467.7846631838185
 21
45.57714843749997
 31
0.0
  0
LINE
  5
7107
330
1E
100
AcDbEntity
  8
10
  6
Continuous
100
AcDbLine
 10
467.7846631838185
 20
45.57714843749997
 30
0.0
 11
470.3330030276187
 21
45.29980468749997
 31
0.0
  0
LINE
  5
7108
330
1E
100
AcDbEntity
  8
10
  6
Continuous
100
AcDbLine
 10
470.3330030276187
 20
69.99999999999992
 30
0.0
 11
470.3330030276187
 21
40.43164062499996
 31
0.0
  0
LINE
  5
7109
330
1E
100
AcDbEntity
  8
10
  6
Continuous
100
AcDbLine
 10
476.3330030276186
 20
69.99999999999992
 30
0.0
 11
470.3330030276187
 21
69.99999999999992
 31
0.0
  0
LINE
  5
710A
330
1E
100
AcDbEntity
  8
12
  6
DASHED
100
AcDbLine
 10
476.3330030276186
 20
241.7499999999999
 30
0.0
 11
531.3330030276187
 21
241.7499999999999
 31
0.0
  0
LINE
  5
710B
330
1E
100
AcDbEntity
  8
12
  6
DASHED
100
AcDbLine
 10
476.3330030276186
 20
222.2499999999999
 30
0.0
 11
531.3330030276187
 21
222.2499999999999
 31
0.0
  0
LINE
  5
710C
330
1E
100
AcDbEntity
  8
12
  6
DASHED
100
AcDbLine
 10
531.3330030276187
 20
239.9999999999999
 30
0.0
 11
531.3330030276187
 21
223.9999999999999
 31
0.0
  0
LINE
  5
710D
330
1E
100
AcDbEntity
  8
12
  6
DASHED
100
AcDbLine
 10
521.3330030276186
 20
239.9999999999999
 30
0.0
 11
521.3330030276186
 21
223.9999999999999
 31
0.0
  0
LINE
  5
710E
330
1E
100
AcDbEntity
  8
12
  6
DASHED
100
AcDbLine
 10
521.3330030276186
 20
223.9999999999999
 30
0.0
 11
531.3330030276187
 21
223.9999999999999
 31
0.0
  0
LINE
  5
710F
330
1E
100
AcDbEntity
  8
12
  6
DASHED
100
AcDbLine
 10
531.3330030276187
 20
222.2499999999999
 30
0.0
 11
531.3330030276187
 21
225.9999999999999
 31
0.0
  0
LINE
  5
7110
330
1E
100
AcDbEntity
  8
12
  6
DASHED
100
AcDbLine
 10
521.3330030276186
 20
239.9999999999999
 30
0.0
 11
531.3330030276187
 21
239.9999999999999
 31
0.0
  0
LINE
  5
7111
330
1E
100
AcDbEntity
  8
12
  6
DASHED
100
AcDbLine
 10
531.3330030276187
 20
241.7499999999999
 30
0.0
 11
531.3330030276187
 21
237.9999999999999
 31
0.0
  0
LINE
  5
7113
330
1E
100
AcDbEntity
  8
21
100
AcDbLine
 10
811.3330030276186
 20
67.99999999999993
 30
0.0
 11
661.3330030276187
 21
67.99999999999993
 31
0.0
  0
LINE
  5
7114
330
1E
100
AcDbEntity
  8
21
100
AcDbLine
 10
661.3330030276187
 20
157.9999999999999
 30
0.0
 11
811.3330030276186
 21
157.9999999999999
 31
0.0
  0
LINE
  5
7116
330
1E
100
AcDbEntity
  8
21
100
AcDbLine
 10
811.3330030276186
 20
157.9999999999999
 30
0.0
 11
811.3330030276186
 21
67.99999999999993
 31
0.0
  0
LINE
  5
7117
330
1E
100
AcDbEntity
  8
24
  6
CONTINOUS
100
AcDbLine
 10
751.3330030276185
 20
111.5546874999999
 30
0.0
 11
751.3330030276185
 21
79.66992187499993
 31
0.0
  0
LINE
  5
7118
330
1E
100
AcDbEntity
  8
24
  6
CONTINOUS
100
AcDbLine
 10
791.3330030276187
 20
108.2822265624999
 30
0.0
 11
791.3330030276187
 21
77.53613281249993
 31
0.0
  0
LINE
  5
7119
330
1E
100
AcDbEntity
  8
24
  6
CONTINOUS
100
AcDbLine
 10
732.5378370119186
 20
92.99999999999995
 30
0.0
 11
765.5615186526187
 21
92.99999999999995
 31
0.0
  0
LINE
  5
711A
330
1E
100
AcDbEntity
  8
24
  6
CONTINOUS
100
AcDbLine
 10
732.5378370119186
 20
132.9999999999999
 30
0.0
 11
765.5615186526187
 21
132.9999999999999
 31
0.0
  0
LINE
  5
711B
330
1E
100
AcDbEntity
  8
24
  6
CONTINOUS
100
AcDbLine
 10
751.3330030276185
 20
151.5546874999999
 30
0.0
 11
751.3330030276185
 21
119.6699218749996
 31
0.0
  0
CIRCLE
  5
711C
330
1E
100
AcDbEntity
  8
24
  6
CONTINOUS
100
AcDbCircle
 10
751.3330030276185
 20
132.9999999999999
 30
0.0
 40
7.0
  0
CIRCLE
  5
711D
330
1E
100
AcDbEntity
  8
24
  6
CONTINOUS
100
AcDbCircle
 10
751.3330030276185
 20
92.99999999999995
 30
0.0
 40
7.0
  0
LINE
  5
711E
330
1E
100
AcDbEntity
  8
24
  6
CONTINOUS
100
AcDbLine
 10
774.8154249026185
 20
92.99999999999995
 30
0.0
 11
805.5615186526187
 21
92.99999999999995
 31
0.0
  0
LINE
  5
711F
330
1E
100
AcDbEntity
  8
24
  6
CONTINOUS
100
AcDbLine
 10
772.5378370119186
 20
132.9999999999999
 30
0.0
 11
805.5615186526187
 21
132.9999999999999
 31
0.0
  0
LINE
  5
7120
330
1E
100
AcDbEntity
  8
24
  6
CONTINOUS
100
AcDbLine
 10
791.3330030276187
 20
151.5546874999999
 30
0.0
 11
791.3330030276187
 21
119.6699218749996
 31
0.0
  0
CIRCLE
  5
7121
330
1E
100
AcDbEntity
  8
24
  6
CONTINOUS
100
AcDbCircle
 10
791.3330030276187
 20
92.99999999999995
 30
0.0
 40
7.0
  0
CIRCLE
  5
7122
330
1E
100
AcDbEntity
  8
24
  6
CONTINOUS
100
AcDbCircle
 10
791.3330030276187
 20
132.9999999999999
 30
0.0
 40
7.0
  0
ARC
  5
7123
330
1E
100
AcDbEntity
  8
12
  6
DASHED
100
AcDbCircle
 10
706.8330030276187
 20
203.4999999999999
 30
0.0
 40
4.5
100
AcDbArc
 50
0.0
 51
90.0
  0
LINE
  5
7124
330
1E
100
AcDbEntity
  8
12
  6
DASHED
100
AcDbLine
 10
661.3330030276187
 20
201.9999999999999
 30
0.0
 11
711.3330030276187
 21
201.9999999999999
 31
0.0
  0
LINE
  5
7125
330
1E
100
AcDbEntity
  8
12
  6
DASHED
100
AcDbLine
 10
667.3330030276185
 20
247.4999999999999
 30
0.0
 11
667.3330030276185
 21
214.4999999999999
 31
0.0
  0
LINE
  5
7127
330
1E
100
AcDbEntity
  8
12
  6
DASHED
100
AcDbLine
 10
690.1330518557187
 20
235.9999999999998
 30
0.0
 11
690.1330518557187
 21
227.9999999999999
 31
0.0
  0
LINE
  5
7128
330
1E
100
AcDbEntity
  8
12
  6
DASHED
100
AcDbLine
 10
679.0329541994187
 20
242.9999999999999
 30
0.0
 11
679.0329541994187
 21
222.7998046874999
 31
0.0
  0
LINE
  5
7129
330
1E
100
AcDbEntity
  8
12
  6
DASHED
100
AcDbLine
 10
673.8330030276187
 20
207.9999999999999
 30
0.0
 11
706.8330030276187
 21
207.9999999999999
 31
0.0
  0
ARC
  5
712A
330
1E
100
AcDbEntity
  8
12
  6
DASHED
100
AcDbCircle
 10
673.8330030276187
 20
214.4999999999999
 30
0.0
 40
6.5
100
AcDbArc
 50
180.0
 51
270.0
  0
LINE
  5
712B
330
1E
100
AcDbEntity
  8
12
  6
DASHED
100
AcDbLine
 10
690.1330518557187
 20
227.9999999999999
 30
0.0
 11
667.3330030276185
 21
227.9999999999999
 31
0.0
  0
LINE
  5
712C
330
1E
100
AcDbEntity
  8
12
  6
DASHED
100
AcDbLine
 10
679.0329541994187
 20
222.7998046874999
 30
0.0
 11
667.3330030276185
 21
222.7998046874999
 31
0.0
  0
LINE
  5
712D
330
1E
100
AcDbEntity
  8
12
  6
DASHED
100
AcDbLine
 10
667.3330030276185
 20
235.9999999999998
 30
0.0
 11
690.1330518557187
 21
235.9999999999998
 31
0.0
  0
ARC
  5
712E
330
1E
100
AcDbEntity
  8
12
  6
DASHED
100
AcDbCircle
 10
662.8330030276186
 20
247.4999999999999
 30
0.0
 40
4.5
100
AcDbArc
 50
0.0
 51
90.0
  0
LINE
  5
712F
330
1E
100
AcDbEntity
  8
12
  6
DASHED
100
AcDbLine
 10
662.8330030276186
 20
251.9999999999999
 30
0.0
 11
661.3330030276187
 21
251.9999999999999
 31
0.0
  0
LINE
  5
7130
330
1E
100
AcDbEntity
  8
12
  6
DASHED
100
AcDbLine
 10
667.3330030276185
 20
242.9999999999999
 30
0.0
 11
679.0329541994187
 21
242.9999999999999
 31
0.0
  0
LINE
  5
7131
330
1E
100
AcDbEntity
  8
12
  6
DASHED
100
AcDbLine
 10
711.3330030276187
 20
203.4999999999999
 30
0.0
 11
711.3330030276187
 21
201.9999999999999
 31
0.0
  0
LWPOLYLINE
  5
7135
330
1E
100
AcDbEntity
  8
10
  6
Continuous
100
AcDbPolyline
 90
        9
 70
     1
 43
0.0
 10
661.3330030276187
 20
157.9999999999999
 10
661.3330030276187
 20
67.99999999999996
 10
661.3330030276187
 20
-49.00000000000003
 10
661.3330030276187
 20
-133.0
 10
661.3330030276187
 20
-193.0002441406
 10
638.3330030276185
 20
-193.0002441406
 10
476.3330030276186
 20
-193.0002441406
 10
476.3330030276186
 20
257.0
 10
661.3330030276187
 20
257.0
  0
LWPOLYLINE
  5
7136
330
1E
100
AcDbEntity
  8
18
100
AcDbPolyline
 90
        5
 70
     0
 43
0.0
 10
410.7558545901187
 20
30.73339843749996
 10
456.3278760744187
 20
15.66308593749996
 10
468.8881788088187
 20
53.64062499999996
 10
423.3154249026187
 20
68.71191406249995
 10
377.2409620119187
 20
77.10351562499996
  0
LINE
  5
719C
330
1E
100
AcDbEntity
  8
24
  6
CONTINOUS
100
AcDbLine
 10
732.5378370119186
 20
-158.0
 30
0.0
 11
765.5615186526187
 21
-158.0
 31
0.0
  0
LINE
  5
719D
330
1E
100
AcDbEntity
  8
24
  6
CONTINOUS
100
AcDbLine
 10
751.3330030276185
 20
-139.4453125
 30
0.0
 11
751.3330030276185
 21
-171.330078125
 31
0.0
  0
LINE
  5
719E
330
1E
100
AcDbEntity
  8
24
  6
CONTINOUS
100
AcDbLine
 10
791.3330030276187
 20
-139.4453125
 30
0.0
 11
791.3330030276187
 21
-171.330078125
 31
0.0
  0
LINE
  5
719F
330
1E
100
AcDbEntity
  8
24
  6
CONTINOUS
100
AcDbLine
 10
772.5378370119186
 20
-158.0
 30
0.0
 11
805.5615186526187
 21
-158.0
 31
0.0
  0
LINE
  5
71A0
330
1E
100
AcDbEntity
  8
24
  6
CONTINOUS
100
AcDbLine
 10
732.5378370119186
 20
-198.0
 30
0.0
 11
765.5615186526187
 21
-198.0
 31
0.0
  0
LINE
  5
71A1
330
1E
100
AcDbEntity
  8
24
  6
CONTINOUS
100
AcDbLine
 10
751.3330030276185
 20
-179.4453124999999
 30
0.0
 11
751.3330030276185
 21
-211.3300781249999
 31
0.0
  0
LINE
  5
71A2
330
1E
100
AcDbEntity
  8
24
  6
CONTINOUS
100
AcDbLine
 10
791.3330030276187
 20
-182.7177734374999
 30
0.0
 11
791.3330030276187
 21
-213.4638671874999
 31
0.0
  0
LINE
  5
71A3
330
1E
100
AcDbEntity
  8
24
  6
CONTINOUS
100
AcDbLine
 10
774.8154249026185
 20
-198.0
 30
0.0
 11
805.5615186526187
 21
-198.0
 31
0.0
  0
DIMENSION
  5
71A4
330
1E
100
AcDbEntity
  8
30
  6
Continuous
100
AcDbDimension
280
     0
  2
*D13
 10
883.8879346682187
 20
-178.0002441406
 30
0.0
 11
877.8879346682186
 21
-89.00012207029991
 31
0.0
 70
    32
 71
     5
 42
-1.0
 73
     0
 74
     0
 75
     0
  3
STANDARD
100
AcDbAlignedDimension
 13
721.3330945803736
 23
0.0
 33
0.0
 14
811.3330030276186
 24
-178.0002441406
 34
0.0
 50
90.0
100
AcDbRotatedDimension
  0
TEXT
  5
71B1
330
1E
100
AcDbEntity
  8
30
  6
Continuous
100
AcDbText
 10
776.9012156617018
 20
-124.7681493388197
 30
0.0
 40
10.0
  1
%%C14
100
AcDbText
  0
LEADER
  5
71B2
330
1E
100
AcDbEntity
  8
30
  6
Continuous
100
AcDbLeader
  3
STANDARD
 76
     3
 10
791.3330030276187
 20
-152.5
 30
0.0
 10
808.4648234828502
 20
-127.1892395125997
 30
0.0
 10
771.3397099157926
 20
-127.2205642915132
 30
0.0
211
-1.0
221
0.0
231
0.0
210
0.0
220
0.0
230
-1.0
1001
ACAD
1000
DSTYLE
1002
{
1070
     5
1000
OPEN
1070
   342
1005
3B2
1002
}
  0
DIMENSION
  5
71B3
330
1E
100
AcDbEntity
  8
30
  6
Continuous
100
AcDbDimension
280
     0
  2
*D14
 10
863.3368570654141
 20
-223.0002441406
 30
0.0
 11
857.3368570654141
 21
-178.0001220702999
 31
0.0
 70
    32
 71
     5
 42
-1.0
 73
     0
 74
     0
 75
     0
  3
STANDARD
100
AcDbAlignedDimension
 13
811.3330030276186
 23
-133.0
 33
0.0
 14
811.3330030276186
 24
-223.0002441406
 34
0.0
 50
90.0
100
AcDbRotatedDimension
  0
DIMENSION
  5
71C0
330
1E
100
AcDbEntity
  8
30
  6
Continuous
100
AcDbDimension
280
     0
  2
*D15
 10
835.9658562942307
 20
-198.0
 30
0.0
 11
829.9658562942308
 21
-177.9999999999999
 31
0.0
 70
    32
 71
     5
 42
-1.0
 73
     0
 74
     0
 75
     0
  3
STANDARD
100
AcDbAlignedDimension
 13
805.5615186526187
 23
-158.0
 33
0.0
 14
805.5615186526187
 24
-198.0
 34
0.0
 50
90.0
100
AcDbRotatedDimension
  0
DIMENSION
  5
71CD
330
1E
100
AcDbEntity
  8
30
  6
Continuous
100
AcDbDimension
280
     0
  2
*D16
 10
751.3330030276185
 20
-236.9930275793513
 30
0.0
 11
771.3330030276186
 21
-230.9930275793513
 31
0.0
 70
    32
 71
     5
 42
-1.0
 73
     0
 74
     0
 75
     0
  3
STANDARD
100
AcDbAlignedDimension
 13
791.3330030276187
 23
-205.0002441406
 33
0.0
 14
751.3330030276185
 24
-205.0002441406
 34
0.0
100
AcDbRotatedDimension
  0
DIMENSION
  5
71DA
330
1E
100
AcDbEntity
  8
30
  6
Continuous
100
AcDbDimension
280
     0
  2
*D17
 10
476.3330030276186
 20
-264.4617236011327
 30
0.0
 11
485.166336360952
 21
-258.4617236011327
 31
0.0
 70
    32
 71
     5
 42
-1.0
 73
     0
 74
     0
 75
     0
  3
STANDARD
100
AcDbAlignedDimension
 13
466.3330030276176
 23
-5.000000000000004
 33
0.0
 14
476.3330030276186
 24
-193.0002441406
 34
0.0
100
AcDbRotatedDimension
  0
DIMENSION
  5
71E7
330
1E
100
AcDbEntity
  8
30
  6
Continuous
100
AcDbDimension
280
     0
  2
*D18
 10
661.3330030276187
 20
-264.4617236011327
 30
0.0
 11
568.8330030276187
 21
-258.4617236011327
 31
0.0
 70
    32
 71
     5
 42
-1.0
 73
     0
 74
     0
 75
     0
  3
STANDARD
100
AcDbAlignedDimension
 13
476.3330030276186
 23
-193.0002441406
 33
0.0
 14
661.3330030276187
 24
-193.0002441406
 34
0.0
100
AcDbRotatedDimension
1001
ACAD
1000
DSTYLE
1002
{
1070
   287
1070
     4
1070
   287
1070
     4
1070
   287
1070
     4
1070
   287
1070
     4
1070
   279
1070
     1
1002
}
  0
DIMENSION
  5
71F4
330
1E
100
AcDbEntity
  8
30
  6
Continuous
100
AcDbDimension
280
     0
  2
*D19
 10
811.3330030276186
 20
-264.4617236011327
 30
0.0
 11
736.3330030276186
 21
-258.4617236011327
 31
0.0
 70
    32
 71
     5
 42
-1.0
 73
     0
 74
     0
 75
     0
  3
STANDARD
100
AcDbAlignedDimension
 13
661.3330030276187
 23
-193.0002441406
 33
0.0
 14
811.3330030276186
 24
-223.0002441406
 34
0.0
100
AcDbRotatedDimension
1001
ACAD
1000
DSTYLE
1002
{
1070
   287
1070
     4
1070
   287
1070
     4
1070
   287
1070
     4
1070
   287
1070
     4
1070
   279
1070
     1
1002
}
  0
DIMENSION
  5
7207
330
1E
100
AcDbEntity
  8
30
  6
Continuous
100
AcDbDimension
280
     0
  2
*D20
 10
661.3330030276187
 20
-304.4454946722467
 30
0.0
 11
491.3329953982073
 21
-298.4454946722467
 31
0.0
 70
    32
 71
     5
 42
-1.0
 73
     0
 74
     0
 75
     0
  3
STANDARD
100
AcDbAlignedDimension
 13
321.3329877687958
 23
1.999999999999992
 33
0.0
 14
661.3330030276187
 24
-224.0002441406
 34
0.0
100
AcDbRotatedDimension
  0
DIMENSION
  5
7214
330
1E
100
AcDbEntity
  8
30
  6
Continuous
100
AcDbDimension
280
     0
  2
*D21
 10
661.3330030276187
 20
-285.5041273832248
 30
0.0
 11
538.8329572512411
 21
-279.5041273832249
 31
0.0
 70
    32
 71
     5
 42
-1.0
 73
     0
 74
     0
 75
     0
  3
STANDARD
100
AcDbAlignedDimension
 13
416.3329114748636
 23
1.99999999999998
 33
0.0
 14
661.3330030276187
 24
-223.0002441406
 34
0.0
100
AcDbRotatedDimension
  0
LINE
  5
72B4
330
1E
100
AcDbEntity
  8
12
  6
DASHED
100
AcDbLine
 10
-157.0477294922
 20
-79.0
 30
0.0
 11
-145.5092773437999
 21
-79.0
 31
0.0
  0
LINE
  5
72B5
330
1E
100
AcDbEntity
  8
12
  6
DASHED
100
AcDbLine
 10
-151.0
 20
-73.6494140625
 30
0.0
 11
-151.0
 21
-84.4921875
 31
0.0
  0
CIRCLE
  5
72B6
330
1E
100
AcDbEntity
  8
12
  6
DASHED
100
AcDbCircle
 10
-151.0
 20
-79.0
 30
0.0
 40
3.25
  0
LINE
  5
72B7
330
1E
100
AcDbEntity
  8
12
  6
DASHED
100
AcDbLine
 10
-52.5
 20
246.3554687499999
 30
0.0
 11
-52.5
 21
216.1181640625
 31
0.0
  0
CIRCLE
  5
72B8
330
1E
100
AcDbEntity
  8
12
  6
DASHED
100
AcDbCircle
 10
-52.5
 20
232.0
 30
0.0
 40
5.5
  0
LINE
  5
72B9
330
1E
100
AcDbEntity
  8
12
  6
DASHED
100
AcDbLine
 10
-65.5595703125
 20
232.0
 30
0.0
 11
-42.62084960940001
 21
232.0
 31
0.0
  0
LINE
  5
72C7
330
1E
100
AcDbEntity
  8
12
  6
DASHED
100
AcDbLine
 10
137.9392089842999
 20
-79.0
 30
0.0
 11
166.1818847655995
 21
-79.0
 31
0.0
  0
LINE
  5
72C8
330
1E
100
AcDbEntity
  8
12
  6
DASHED
100
AcDbLine
 10
151.0
 20
-66.2119140625
 30
0.0
 11
151.0
 21
-91.1044921875
 31
0.0
  0
CIRCLE
  5
72C9
330
1E
100
AcDbEntity
  8
12
  6
DASHED
100
AcDbCircle
 10
151.0
 20
-79.0
 30
0.0
 40
3.25
  0
LINE
  5
72CC
330
1E
100
AcDbEntity
  8
12
  6
DASHED
100
AcDbLine
 10
52.5
 20
243.2275390625
 30
0.0
 11
52.5
 21
218.203125
 31
0.0
  0
CIRCLE
  5
72CD
330
1E
100
AcDbEntity
  8
12
  6
DASHED
100
AcDbCircle
 10
52.5
 20
232.0
 30
0.0
 40
5.5
  0
LINE
  5
72CE
330
1E
100
AcDbEntity
  8
12
  6
DASHED
100
AcDbLine
 10
40.79272460929995
 20
232.0
 30
0.0
 11
63.73156738279998
 21
232.0
 31
0.0
  0
TEXT
  5
72CF
330
1E
100
AcDbEntity
  8
L150_
  6
Continuous
 62
     7
100
AcDbText
 10
107.6938476561999
 20
202.7539062499999
 30
0.0
 40
25.0
  1
N
 41
1.8
 72
     5
 11
137.6938476561999
 21
202.7539062499999
 31
0.0
100
AcDbText
 73
     2
  0
LWPOLYLINE
  5
72D0
330
1E
100
AcDbEntity
  8
10
  6
Continuous
100
AcDbPolyline
 90
       12
 70
     1
 43
0.0
 10
70.0
 20
-193.0002441405999
 10
35.0
 20
-193.0002441405999
 10
-35.0
 20
-193.0002441405999
 10
-70.0
 20
-193.0002441405999
 10
-140.0
 20
-193.0002441405999
 10
-160.0
 20
-193.0002441405999
 10
-160.0
 20
257.0
 10
160.0
 20
257.0
 10
160.0
 20
-193.0002441405999
 10
141.0
 20
-193.0002441405999
 10
180.0
 20
-193.0002441405999
 10
140.0
 20
-193.0002441405999
  0
LWPOLYLINE
  5
72D1
330
1E
100
AcDbEntity
  8
10
  6
Continuous
100
AcDbPolyline
 90
        4
 70
     1
 43
0.0
 10
57.5001220703
 20
-70.0
 10
-57.5
 20
-70.0
 10
-57.5
 20
70.0
 10
57.5001220703
 20
70.0
  0
LWPOLYLINE
  5
72D2
330
1E
100
AcDbEntity
  8
10
  6
Continuous
100
AcDbPolyline
 90
        4
 70
     1
 43
0.0
 10
33.0
 20
-41.5
 10
-33.0
 20
-41.5
 10
-33.0
 20
42.0
 10
33.0
 20
42.0
  0
LWPOLYLINE
  5
72D4
330
1E
100
AcDbEntity
  8
10
  6
Continuous
100
AcDbPolyline
 90
        4
 70
     0
 43
0.0
 10
70.0
 20
-193.0002441405999
 10
70.0
 20
-223.0002441406
 10
140.0
 20
-223.0002441406
 10
140.0
 20
-193.0002441405999
  0
LWPOLYLINE
  5
72D5
330
1E
100
AcDbEntity
  8
10
  6
Continuous
100
AcDbPolyline
 90
        4
 70
     0
 43
0.0
 10
-35.0
 20
-193.0002441405999
 10
-35.0
 20
-223.0002441406
 10
35.0
 20
-223.0002441406
 10
35.0
 20
-193.0002441405999
  0
LWPOLYLINE
  5
72D6
330
1E
100
AcDbEntity
  8
10
  6
Continuous
100
AcDbPolyline
 90
        4
 70
     0
 43
0.0
 10
-140.0
 20
-193.0002441405999
 10
-140.0
 20
-223.0002441406
 10
-70.0
 20
-223.0002441406
 10
-70.0
 20
-193.0002441405999
  0
DIMENSION
  5
72D7
330
1E
100
AcDbEntity
  8
30
  6
Continuous
100
AcDbDimension
280
     0
  2
*D22
 10
-0.0000000000000064
 20
-302.2470477013543
 30
0.0
 11
-80.0
 21
-296.2470477013543
 31
0.0
 70
    32
 71
     5
 42
-1.0
 73
     0
 74
     0
 75
     0
  3
STANDARD
100
AcDbAlignedDimension
 13
-160.0
 23
-193.0002441405999
 33
0.0
 14
-0.0000000000000021
 24
-231.0
 34
0.0
100
AcDbRotatedDimension
  0
DIMENSION
  5
72E4
330
1E
100
AcDbEntity
  8
30
  6
Continuous
100
AcDbDimension
280
     0
  2
*D23
 10
160.0
 20
-302.2470477013543
 30
0.0
 11
80.0
 21
-296.2470477013543
 31
0.0
 70
    32
 71
     5
 42
-1.0
 73
     0
 74
     0
 75
     0
  3
STANDARD
100
AcDbAlignedDimension
 13
-0.0000000000000021
 23
-231.0
 33
0.0
 14
160.0
 24
-193.0002441405999
 34
0.0
100
AcDbRotatedDimension
1001
ACAD
1000
DSTYLE
1002
{
1070
   287
1070
     4
1070
   287
1070
     4
1070
   287
1070
     4
1070
   287
1070
     4
1070
   279
1070
     1
1002
}
  0
DIMENSION
  5
72F1
330
1E
100
AcDbEntity
  8
30
  6
Continuous
100
AcDbDimension
280
     0
  2
*D24
 10
160.0
 20
-334.3666137431485
 30
0.0
 11
0.0000000000000004
 21
-328.3666137431485
 31
0.0
 70
    32
 71
     5
 42
-1.0
 73
     0
 74
     0
 75
     0
  3
STANDARD
100
AcDbAlignedDimension
 13
-160.0
 23
-193.0002441405999
 33
0.0
 14
160.0
 24
-194.0002441405999
 34
0.0
100
AcDbRotatedDimension
  0
DIMENSION
  5
7350
330
1E
100
AcDbEntity
  8
30
  6
Continuous
100
AcDbDimension
280
     0
  2
*D25
 10
-0.0000000000000042
 20
-257.5058619334863
 30
0.0
 11
-52.5
 21
-251.5058619334863
 31
0.0
 70
    32
 71
     5
 42
-1.0
 73
     0
 74
     0
 75
     0
  3
STANDARD
100
AcDbAlignedDimension
 13
-105.0
 23
-165.7812724788082
 33
0.0
 14
-0.000000000000002
 24
-223.0002441406
 34
0.0
100
AcDbRotatedDimension
  0
DIMENSION
  5
735D
330
1E
100
AcDbEntity
  8
30
  6
Continuous
100
AcDbDimension
280
     0
  2
*D26
 10
105.0
 20
-257.5058619334863
 30
0.0
 11
52.5
 21
-251.5058619334863
 31
0.0
 70
    32
 71
     5
 42
-1.0
 73
     0
 74
     0
 75
     0
  3
STANDARD
100
AcDbAlignedDimension
 13
-0.000000000000002
 23
-223.0002441406
 33
0.0
 14
105.0
 24
-165.7812724788082
 34
0.0
100
AcDbRotatedDimension
1001
ACAD
1000
DSTYLE
1002
{
1070
   287
1070
     4
1070
   287
1070
     4
1070
   287
1070
     4
1070
   287
1070
     4
1070
   279
1070
     1
1002
}
  0
DIMENSION
  5
7392
330
1E
100
AcDbEntity
  8
30
  6
Continuous
100
AcDbDimension
280
     0
  2
*D27
 10
-221.1360311003208
 20
0.0000000000000173
 30
0.0
 11
-227.1360311003209
 21
128.4999999999999
 31
0.0
 70
    32
 71
     5
 42
-1.0
 73
     0
 74
     0
 75
     0
  3
STANDARD
100
AcDbAlignedDimension
 13
-160.0
 23
257.0
 33
0.0
 14
-160.0
 24
0.0
 34
0.0
 50
90.0
100
AcDbRotatedDimension
  0
DIMENSION
  5
739F
330
1E
100
AcDbEntity
  8
30
  6
Continuous
100
AcDbDimension
280
     0
  2
*D28
 10
-221.1360311003208
 20
-193.0002441405998
 30
0.0
 11
-227.1360311003207
 21
-96.50012207029995
 31
0.0
 70
    32
 71
     5
 42
-1.0
 73
     0
 74
     0
 75
     0
  3
STANDARD
100
AcDbAlignedDimension
 13
-160.0
 23
0.0
 33
0.0
 14
-160.0
 24
-193.0002441405999
 34
0.0
 50
90.0
100
AcDbRotatedDimension
1001
ACAD
1000
DSTYLE
1002
{
1070
   287
1070
     4
1070
   287
1070
     4
1070
   287
1070
     4
1070
   287
1070
     4
1070
   279
1070
     1
1002
}
  0
DIMENSION
  5
73EF
330
1E
100
AcDbEntity
  8
30
  6
Continuous
100
AcDbDimension
280
     0
  2
*D29
 10
811.3330030276186
 20
-236.9930275793513
 30
0.0
 11
801.3330030276186
 21
-230.9930275793513
 31
0.0
 70
    32
 71
     5
 42
-1.0
 73
     0
 74
     0
 75
     0
  3
STANDARD
100
AcDbAlignedDimension
 13
791.3330030276187
 23
-205.0002441406
 33
0.0
 14
811.3330030276186
 24
-198.0
 34
0.0
100
AcDbRotatedDimension
1001
ACAD
1000
DSTYLE
1002
{
1070
   287
1070
     4
1070
   287
1070
     4
1070
   287
1070
     4
1070
   287
1070
     4
1070
   279
1070
     1
1002
}
  0
DIMENSION
  5
760A
330
1E
100
AcDbEntity
  8
30
  6
Continuous
100
AcDbDimension
280
     0
  2
*D30
 10
883.8879346682187
 20
-0.000000000000046
 30
0.0
 11
877.8879346682186
 21
56.50000000000009
 31
0.0
 70
    32
 71
     5
 42
-1.0
 73
     0
 74
     0
 75
     0
  3
STANDARD
100
AcDbAlignedDimension
 13
811.3330030276186
 23
112.9999999999999
 33
0.0
 14
731.3330945803736
 24
-0.0000000000000028
 34
0.0
 50
90.0
100
AcDbRotatedDimension
  0
LINE
  5
7AA5
330
1E
100
AcDbEntity
  8
10
  6
Continuous
100
AcDbLine
 10
618.3330030276184
 20
-223.0002441406
 30
0.0
 11
633.3330030276187
 21
-223.0002441406
 31
0.0
  0
VIEWPORT
  5
9AC
330
1A
100
AcDbEntity
 67
     1
  8
0
  6
Continuous
100
AcDbViewport
 10
171.9995348790992
 20
144.1384735538403
 30
0.0
 40
488.8676857773511
 41
292.3514905034161
 68
     1
 69
     1
 12
171.9995348790992
 22
144.1384735538403
 13
0.0
 23
0.0
 14
10.0
 24
10.0
 15
10.0
 25
10.0
 16
0.0
 26
0.0
 36
1.0
 17
0.0
 27
0.0
 37
0.0
 42
50.0
 43
0.0
 44
0.0
 45
292.3514905034161
 50
0.0
 51
0.0
 72
   100
 90
    32800
  1

281
     0
 71
     1
 74
     0
110
0.0
120
0.0
130
0.0
111
1.0
121
0.0
131
0.0
112
0.0
122
1.0
132
0.0
 79
     0
146
0.0
170
     0
 61
     5
348
7A6C
292
     1
282
     1
141
0.0
142
0.0
 63
   250
421
  3355443
  0
ENDSEC
  0
SECTION
  2
OBJECTS
  0
DICTIONARY
  5
C
330
0
100
AcDbDictionary
281
     1
  3
ACAD_CIP_PREVIOUS_PRODUCT_INFO
350
7A9C
  3
ACAD_COLOR
350
7A7F
  3
ACAD_DETAILVIEWSTYLE
350
7A98
  3
ACAD_GROUP
350
D
  3
ACAD_LAYOUT
350
19
  3
ACAD_MATERIAL
350
7A4D
  3
ACAD_MLEADERSTYLE
350
7A94
  3
ACAD_MLINESTYLE
350
16
  3
ACAD_PLOTSETTINGS
350
18
  3
ACAD_PLOTSTYLENAME
350
E
  3
ACAD_SCALELIST
350
7A82
  3
ACAD_SECTIONVIEWSTYLE
350
7A96
  3
ACAD_TABLESTYLE
350
7A80
  3
ACAD_VISUALSTYLE
350
7A66
  3
ACDB_RECOMPOSE_DATA
350
7ADB
  3
ACDBVARIABLEDICTIONARY
350
75F9
  0
DICTIONARY
  5
7AD3
330
2
100
AcDbDictionary
280
     1
281
     1
  3
ACAD_LAYERSTATES
360
7AD4
  0
DICTIONARY
  5
7AA6
330
10
100
AcDbDictionary
280
     1
281
     1
  3
ADSK_XREC_LAYER_RECONCILED
360
7AA7
  0
DICTIONARY
  5
7AA8
330
2F
100
AcDbDictionary
280
     1
281
     1
  3
ADSK_XREC_LAYER_RECONCILED
360
7AA9
  0
DICTIONARY
  5
7AAA
330
31
100
AcDbDictionary
280
     1
281
     1
  3
ADSK_XREC_LAYER_RECONCILED
360
7AAB
  0
DICTIONARY
  5
7AAC
330
35
100
AcDbDictionary
280
     1
281
     1
  3
ADSK_XREC_LAYER_RECONCILED
360
7AAD
  0
DICTIONARY
  5
7AAE
330
38
100
AcDbDictionary
280
     1
281
     1
  3
ADSK_XREC_LAYER_RECONCILED
360
7AAF
  0
DICTIONARY
  5
7AB0
330
3C
100
AcDbDictionary
280
     1
281
     1
  3
ADSK_XREC_LAYER_RECONCILED
360
7AB1
  0
DICTIONARY
  5
7AB2
330
3D
100
AcDbDictionary
280
     1
281
     1
  3
ADSK_XREC_LAYER_RECONCILED
360
7AB3
  0
DICTIONARY
  5
7AB4
330
3A2
100
AcDbDictionary
280
     1
281
     1
  3
ADSK_XREC_LAYER_RECONCILED
360
7AB5
  0
DICTIONARY
  5
7AB6
330
3933
100
AcDbDictionary
280
     1
281
     1
  3
ADSK_XREC_LAYER_RECONCILED
360
7AB7
  0
DICTIONARY
  5
7AB8
330
4709
100
AcDbDictionary
280
     1
281
     1
  3
ADSK_XREC_LAYER_RECONCILED
360
7AB9
  0
DICTIONARY
  5
7ABA
330
6615
100
AcDbDictionary
280
     1
281
     1
  3
ADSK_XREC_LAYER_RECONCILED
360
7ABB
  0
DICTIONARY
  5
7ABC
330
6616
100
AcDbDictionary
280
     1
281
     1
  3
ADSK_XREC_LAYER_RECONCILED
360
7ABD
  0
DICTIONARY
  5
7ABE
330
6691
100
AcDbDictionary
280
     1
281
     1
  3
ADSK_XREC_LAYER_RECONCILED
360
7ABF
  0
DICTIONARY
  5
7AC0
330
7953
100
AcDbDictionary
280
     1
281
     1
  3
ADSK_XREC_LAYER_RECONCILED
360
7AC1
  0
DICTIONARY
  5
178
330
1E
100
AcDbDictionary
280
     1
281
     1
  3
ACAD_LAYOUTSELFREF
360
79EA
  0
DICTIONARY
  5
17A
330
1A
100
AcDbDictionary
280
     1
281
     1
  3
ACAD_LAYOUTSELFREF
360
79E9
  0
XRECORD
  5
7A9C
102
{ACAD_REACTORS
330
C
102
}
330
C
100
AcDbXrecord
280
     1
300
ACD
300
2023
300

  0
DICTIONARY
  5
7A7F
102
{ACAD_REACTORS
330
C
102
}
330
C
100
AcDbDictionary
281
     1
  0
DICTIONARY
  5
7A98
102
{ACAD_REACTORS
330
C
102
}
330
C
100
AcDbDictionary
281
     1
  3
Imperial24
350
7A99
  0
DICTIONARY
  5
D
102
{ACAD_REACTORS
330
C
102
}
330
C
100
AcDbDictionary
281
     1
  0
DICTIONARY
  5
19
102
{ACAD_REACTORS
330
C
102
}
330
C
100
AcDbDictionary
281
     1
  3
Model
350
7A39
  3
ﾚｲｱｳﾄ1
350
7A3A
  0
DICTIONARY
  5
7A4D
102
{ACAD_REACTORS
330
C
102
}
330
C
100
AcDbDictionary
281
     1
  3
ByBlock
350
7A56
  3
ByLayer
350
7A4E
  3
Global
350
7A5E
  0
DICTIONARY
  5
7A94
102
{ACAD_REACTORS
330
C
102
}
330
C
100
AcDbDictionary
281
     1
  3
Standard
350
7A95
  0
DICTIONARY
  5
16
102
{ACAD_REACTORS
330
C
102
}
330
C
100
AcDbDictionary
281
     1
  3
STANDARD
350
17
  0
DICTIONARY
  5
18
102
{ACAD_REACTORS
330
C
102
}
330
C
100
AcDbDictionary
281
     1
  0
ACDBDICTIONARYWDFLT
  5
E
102
{ACAD_REACTORS
330
C
102
}
330
C
100
AcDbDictionary
281
     1
  3
Normal
350
F
100
AcDbDictionaryWithDefault
340
F
  0
DICTIONARY
  5
7A82
102
{ACAD_REACTORS
330
C
102
}
330
C
100
AcDbDictionary
281
     1
  3
A0
350
7A83
  3
A1
350
7A84
  3
A2
350
7A85
  3
A3
350
7A86
  3
A4
350
7A87
  3
A5
350
7A88
  3
A6
350
7A89
  3
A7
350
7A8A
  3
A8
350
7A8B
  3
A9
350
7A8C
  3
B0
350
7A8D
  3
B1
350
7A8E
  3
B2
350
7A8F
  3
B3
350
7A90
  3
B4
350
7A91
  3
B5
350
7A92
  3
B6
350
7A93
  0
DICTIONARY
  5
7A96
102
{ACAD_REACTORS
330
C
102
}
330
C
100
AcDbDictionary
281
     1
  3
Imperial24
350
7A97
  0
DICTIONARY
  5
7A80
102
{ACAD_REACTORS
330
C
102
}
330
C
100
AcDbDictionary
281
     1
  3
Standard
350
7A81
  0
DICTIONARY
  5
7A66
102
{ACAD_REACTORS
330
C
102
}
330
C
100
AcDbDictionary
281
     1
  3
2dWireframe
350
7A6C
  3
Basic
350
7A6B
  3
Brighten
350
7A72
  3
ColorChange
350
7A76
  3
Conceptual
350
7A6F
  3
Dim
350
7A71
  3
EdgeColorOff
350
7A7E
  3
Facepattern
350
7A75
  3
Flat
350
7A67
  3
FlatWithEdges
350
7A68
  3
Gouraud
350
7A69
  3
GouraudWithEdges
350
7A6A
  3
Hidden
350
7A6E
  3
JitterOff
350
7A7C
  3
Linepattern
350
7A74
  3
OverhangOff
350
7A7D
  3
Realistic
350
7A70
  3
Shaded
350
7A7B
  3
Shaded with edges
350
7A7A
  3
Shades of Gray
350
7A77
  3
Sketchy
350
7A78
  3
Thicken
350
7A73
  3
Wireframe
350
7A6D
  3
X-Ray
350
7A79
  0
XRECORD
  5
7ADB
102
{ACAD_REACTORS
330
C
102
}
330
C
100
AcDbXrecord
280
     1
 90
        1
330
7A81
  0
DICTIONARY
  5
75F9
102
{ACAD_REACTORS
330
C
102
}
330
C
100
AcDbDictionary
281
     1
  3
CANNOSCALE
350
7AC7
  3
CMLEADERSTYLE
350
7AC3
  3
CTABLESTYLE
350
7AC2
  3
CVIEWDETAILSTYLE
350
7AC4
  3
CVIEWSECTIONSTYLE
350
7AC5
  3
DIMASSOC
350
75FA
  3
LAYEREVAL
350
7AC9
  3
LAYERNOTIFY
350
7ACA
  3
LIGHTINGUNITS
350
7AC8
  3
MSLTSCALE
350
7AC6
  0
DICTIONARY
  5
7AD4
102
{ACAD_REACTORS
330
7AD3
102
}
330
7AD3
100
AcDbDictionary
281
     1
  0
XRECORD
  5
7AA7
102
{ACAD_REACTORS
330
7AA6
102
}
330
7AA6
100
AcDbXrecord
280
     1
290
     1
  0
XRECORD
  5
7AA9
102
{ACAD_REACTORS
330
7AA8
102
}
330
7AA8
100
AcDbXrecord
280
     1
290
     1
  0
XRECORD
  5
7AAB
102
{ACAD_REACTORS
330
7AAA
102
}
330
7AAA
100
AcDbXrecord
280
     1
290
     1
  0
XRECORD
  5
7AAD
102
{ACAD_REACTORS
330
7AAC
102
}
330
7AAC
100
AcDbXrecord
280
     1
290
     1
  0
XRECORD
  5
7AAF
102
{ACAD_REACTORS
330
7AAE
102
}
330
7AAE
100
AcDbXrecord
280
     1
290
     1
  0
XRECORD
  5
7AB1
102
{ACAD_REACTORS
330
7AB0
102
}
330
7AB0
100
AcDbXrecord
280
     1
290
     1
  0
XRECORD
  5
7AB3
102
{ACAD_REACTORS
330
7AB2
102
}
330
7AB2
100
AcDbXrecord
280
     1
290
     1
  0
XRECORD
  5
7AB5
102
{ACAD_REACTORS
330
7AB4
102
}
330
7AB4
100
AcDbXrecord
280
     1
290
     1
  0
XRECORD
  5
7AB7
102
{ACAD_REACTORS
330
7AB6
102
}
330
7AB6
100
AcDbXrecord
280
     1
290
     1
  0
XRECORD
  5
7AB9
102
{ACAD_REACTORS
330
7AB8
102
}
330
7AB8
100
AcDbXrecord
280
     1
290
     1
  0
XRECORD
  5
7ABB
102
{ACAD_REACTORS
330
7ABA
102
}
330
7ABA
100
AcDbXrecord
280
     1
290
     1
  0
XRECORD
  5
7ABD
102
{ACAD_REACTORS
330
7ABC
102
}
330
7ABC
100
AcDbXrecord
280
     1
290
     1
  0
XRECORD
  5
7ABF
102
{ACAD_REACTORS
330
7ABE
102
}
330
7ABE
100
AcDbXrecord
280
     1
290
     1
  0
XRECORD
  5
7AC1
102
{ACAD_REACTORS
330
7AC0
102
}
330
7AC0
100
AcDbXrecord
280
     1
290
     1
  0
XRECORD
  5
79EA
102
{ACAD_REACTORS
330
178
102
}
330
178
100
AcDbXrecord
280
     1
340
1E
  0
XRECORD
  5
79E9
102
{ACAD_REACTORS
330
17A
102
}
330
17A
100
AcDbXrecord
280
     1
340
1A
  0
ACDBDETAILVIEWSTYLE
  5
7A99
102
{ACAD_REACTORS
330
7A98
102
}
330
7A98
100
AcDbModelDocViewStyle
 70
     0
  3
Imperial24
290
     0
300
Imperial24
 90
        0
100
AcDbDetailViewStyle
 70
     0
 71
     0
 90
        3
 71
     1
340
11
 62
   256
 40
0.24
340
0
 62
   256
 40
0.24
300

 40
0.36
280
     3
 71
     2
340
15
 90
       25
 62
   256
 71
     3
340
11
 62
   256
 40
0.24
 90
        1
 40
0.75
 90
        1
300
%<\AcVar ViewType \f "%tc1">% %<\AcVar ViewDetailId>%\PSCALE %<\AcVar ViewScale \f "%sn">%
 71
     4
340
15
 90
       25
 62
   256
340
15
 90
       25
 62
   256
280
     0
  0
LAYOUT
  5
7A39
102
{ACAD_REACTORS
330
19
102
}
330
19
100
AcDbPlotSettings
  1

  2
LBP5400
  4

  6

 40
0.0
 41
0.0
 42
0.0
 43
0.0
 44
0.0
 45
0.0
 46
0.0
 47
0.0
 48
0.0
 49
0.0
140
0.0
141
0.0
142
1.0
143
1.0
 70
  1712
 72
     0
 73
     0
 74
     0
  7
monochrome.stb
 75
     0
147
1.0
 76
     0
 77
     2
 78
   300
148
0.0
149
0.0
100
AcDbLayout
  1
Model
 70
     1
 71
     0
 10
0.0
 20
0.0
 11
12.0
 21
9.0
 12
0.0
 22
0.0
 32
0.0
 14
0.0
 24
0.0
 34
0.0
 15
0.0
 25
0.0
 35
0.0
146
0.0
 13
0.0
 23
0.0
 33
0.0
 16
1.0
 26
0.0
 36
0.0
 17
0.0
 27
1.0
 37
0.0
 76
     0
330
1E
331
7A46
  0
LAYOUT
  5
7A3A
102
{ACAD_REACTORS
330
19
102
}
330
19
100
AcDbPlotSettings
  1

  2
LBP5400
  4

  6

 40
0.0
 41
0.0
 42
0.0
 43
0.0
 44
0.0
 45
0.0
 46
0.0
 47
0.0
 48
0.0
 49
0.0
140
0.0
141
0.0
142
1.0
143
1.0
 70
   688
 72
     0
 73
     0
 74
     5
  7
monochrome.stb
 75
    16
147
1.0
 76
     0
 77
     2
 78
   300
148
0.0
149
0.0
100
AcDbLayout
  1
ﾚｲｱｳﾄ1
 70
     1
 71
     1
 10
-5.873748779296875
 20
-5.873749732971191
 11
204.0995788574218
 21
291.1369009017943
 12
0.0
 22
0.0
 32
0.0
 14
4.273573370203961
 24
5.205246163471485
 34
0.0
 15
194.6100952986349
 25
283.0697008572913
 35
0.0
146
0.0
 13
0.0
 23
0.0
 33
0.0
 16
1.0
 26
0.0
 36
0.0
 17
0.0
 27
1.0
 37
0.0
 76
     0
330
1A
331
9AC
  0
MATERIAL
  5
7A56
102
{ACAD_XDICTIONARY
360
7A57
102
}
102
{ACAD_REACTORS
330
7A4D
102
}
330
7A4D
100
AcDbMaterial
  1
ByBlock
 72
     0
 43
0.0208333333333333
 43
0.0
 43
0.0
 43
0.0
 43
0.0
 43
0.0208333333333333
 43
0.0
 43
0.0
 43
0.0
 43
0.0
 43
1.0
 43
0.0
 43
0.0
 43
0.0
 43
0.0
 43
1.0
 77
     0
 47
0.0208333333333333
 47
0.0
 47
0.0
 47
0.0
 47
0.0
 47
0.0208333333333333
 47
0.0
 47
0.0
 47
0.0
 47
0.0
 47
1.0
 47
0.0
 47
0.0
 47
0.0
 47
0.0
 47
1.0
171
     0
 49
0.0208333333333333
 49
0.0
 49
0.0
 49
0.0
 49
0.0
 49
0.0208333333333333
 49
0.0
 49
0.0
 49
0.0
 49
0.0
 49
1.0
 49
0.0
 49
0.0
 49
0.0
 49
0.0
 49
1.0
175
     0
142
0.0208333333333333
142
0.0
142
0.0
142
0.0
142
0.0
142
0.0208333333333333
142
0.0
142
0.0
142
0.0
142
0.0
142
1.0
142
0.0
142
0.0
142
0.0
142
0.0
142
1.0
179
     0
144
0.0208333333333333
144
0.0
144
0.0
144
0.0
144
0.0
144
0.0208333333333333
144
0.0
144
0.0
144
0.0
144
0.0
144
1.0
144
0.0
144
0.0
144
0.0
144
0.0
144
1.0
147
0.0208333333333333
147
0.0
147
0.0
147
0.0
147
0.0
147
0.0208333333333333
147
0.0
147
0.0
147
0.0
147
0.0
147
1.0
147
0.0
147
0.0
147
0.0
147
0.0
147
1.0
  0
MATERIAL
  5
7A4E
102
{ACAD_XDICTIONARY
360
7A4F
102
}
102
{ACAD_REACTORS
330
7A4D
102
}
330
7A4D
100
AcDbMaterial
  1
ByLayer
 72
     0
 43
0.0208333333333333
 43
0.0
 43
0.0
 43
0.0
 43
0.0
 43
0.0208333333333333
 43
0.0
 43
0.0
 43
0.0
 43
0.0
 43
1.0
 43
0.0
 43
0.0
 43
0.0
 43
0.0
 43
1.0
 77
     0
 47
0.0208333333333333
 47
0.0
 47
0.0
 47
0.0
 47
0.0
 47
0.0208333333333333
 47
0.0
 47
0.0
 47
0.0
 47
0.0
 47
1.0
 47
0.0
 47
0.0
 47
0.0
 47
0.0
 47
1.0
171
     0
 49
0.0208333333333333
 49
0.0
 49
0.0
 49
0.0
 49
0.0
 49
0.0208333333333333
 49
0.0
 49
0.0
 49
0.0
 49
0.0
 49
1.0
 49
0.0
 49
0.0
 49
0.0
 49
0.0
 49
1.0
175
     0
142
0.0208333333333333
142
0.0
142
0.0
142
0.0
142
0.0
142
0.0208333333333333
142
0.0
142
0.0
142
0.0
142
0.0
142
1.0
142
0.0
142
0.0
142
0.0
142
0.0
142
1.0
179
     0
144
0.0208333333333333
144
0.0
144
0.0
144
0.0
144
0.0
144
0.0208333333333333
144
0.0
144
0.0
144
0.0
144
0.0
144
1.0
144
0.0
144
0.0
144
0.0
144
0.0
144
1.0
147
0.0208333333333333
147
0.0
147
0.0
147
0.0
147
0.0
147
0.0208333333333333
147
0.0
147
0.0
147
0.0
147
0.0
147
1.0
147
0.0
147
0.0
147
0.0
147
0.0
147
1.0
  0
MATERIAL
  5
7A5E
102
{ACAD_XDICTIONARY
360
7A5F
102
}
102
{ACAD_REACTORS
330
7A4D
102
}
330
7A4D
100
AcDbMaterial
  1
Global
 72
     0
 43
0.0208333333333333
 43
0.0
 43
0.0
 43
0.0
 43
0.0
 43
0.0208333333333333
 43
0.0
 43
0.0
 43
0.0
 43
0.0
 43
1.0
 43
0.0
 43
0.0
 43
0.0
 43
0.0
 43
1.0
 77
     0
 47
0.0208333333333333
 47
0.0
 47
0.0
 47
0.0
 47
0.0
 47
0.0208333333333333
 47
0.0
 47
0.0
 47
0.0
 47
0.0
 47
1.0
 47
0.0
 47
0.0
 47
0.0
 47
0.0
 47
1.0
171
     0
 49
0.0208333333333333
 49
0.0
 49
0.0
 49
0.0
 49
0.0
 49
0.0208333333333333
 49
0.0
 49
0.0
 49
0.0
 49
0.0
 49
1.0
 49
0.0
 49
0.0
 49
0.0
 49
0.0
 49
1.0
175
     0
142
0.0208333333333333
142
0.0
142
0.0
142
0.0
142
0.0
142
0.0208333333333333
142
0.0
142
0.0
142
0.0
142
0.0
142
1.0
142
0.0
142
0.0
142
0.0
142
0.0
142
1.0
179
     0
144
0.0208333333333333
144
0.0
144
0.0
144
0.0
144
0.0
144
0.0208333333333333
144
0.0
144
0.0
144
0.0
144
0.0
144
1.0
144
0.0
144
0.0
144
0.0
144
0.0
144
1.0
147
0.0208333333333333
147
0.0
147
0.0
147
0.0
147
0.0
147
0.0208333333333333
147
0.0
147
0.0
147
0.0
147
0.0
147
1.0
147
0.0
147
0.0
147
0.0
147
0.0
147
1.0
  0
MLEADERSTYLE
  5
7A95
102
{ACAD_REACTORS
330
7A94
102
}
330
7A94
100
AcDbMLeaderStyle
179
     2
170
     2
171
     1
172
     0
 90
        2
 40
0.0
 41
0.0
173
     1
 91
-1056964608
340
13
 92
       -2
290
     1
 42
0.09
291
     1
 43
0.36
  3
Standard
 44
0.18
300

342
11
174
     1
178
     6
175
     1
176
     0
 93
-1056964608
 45
0.18
292
     0
297
     0
 46
0.18
 94
-1056964608
 47
1.0
 49
1.0
140
1.0
293
     1
141
0.0
294
     1
177
     0
142
1.0
295
     0
296
     0
143
0.125
271
     0
272
     9
273
     9
298
     0
  0
MLINESTYLE
  5
17
102
{ACAD_REACTORS
330
16
102
}
330
16
100
AcDbMlineStyle
  2
STANDARD
 70
     0
  3

 62
   256
 51
90.0
 52
90.0
 71
     2
 49
0.5
 62
   256
  6
BYLAYER
 49
-0.5
 62
   256
  6
BYLAYER
  0
ACDBPLACEHOLDER
  5
F
102
{ACAD_REACTORS
330
E
102
}
330
E
  0
SCALE
  5
7A83
102
{ACAD_REACTORS
330
7A82
102
}
330
7A82
100
AcDbScale
 70
     0
300
1:1
140
1.0
141
1.0
290
     1
  0
SCALE
  5
7A84
102
{ACAD_REACTORS
330
7A82
102
}
330
7A82
100
AcDbScale
 70
     0
300
1/128" = 1'-0"
140
0.0078125
141
12.0
290
     0
  0
SCALE
  5
7A85
102
{ACAD_REACTORS
330
7A82
102
}
330
7A82
100
AcDbScale
 70
     0
300
1/64" = 1'-0"
140
0.015625
141
12.0
290
     0
  0
SCALE
  5
7A86
102
{ACAD_REACTORS
330
7A82
102
}
330
7A82
100
AcDbScale
 70
     0
300
1/32" = 1'-0"
140
0.03125
141
12.0
290
     0
  0
SCALE
  5
7A87
102
{ACAD_REACTORS
330
7A82
102
}
330
7A82
100
AcDbScale
 70
     0
300
1/16" = 1'-0"
140
0.0625
141
12.0
290
     0
  0
SCALE
  5
7A88
102
{ACAD_REACTORS
330
7A82
102
}
330
7A82
100
AcDbScale
 70
     0
300
3/32" = 1'-0"
140
0.09375
141
12.0
290
     0
  0
SCALE
  5
7A89
102
{ACAD_REACTORS
330
7A82
102
}
330
7A82
100
AcDbScale
 70
     0
300
1/8" = 1'-0"
140
0.125
141
12.0
290
     0
  0
SCALE
  5
7A8A
102
{ACAD_REACTORS
330
7A82
102
}
330
7A82
100
AcDbScale
 70
     0
300
3/16" = 1'-0"
140
0.1875
141
12.0
290
     0
  0
SCALE
  5
7A8B
102
{ACAD_REACTORS
330
7A82
102
}
330
7A82
100
AcDbScale
 70
     0
300
1/4" = 1'-0"
140
0.25
141
12.0
290
     0
  0
SCALE
  5
7A8C
102
{ACAD_REACTORS
330
7A82
102
}
330
7A82
100
AcDbScale
 70
     0
300
3/8" = 1'-0"
140
0.375
141
12.0
290
     0
  0
SCALE
  5
7A8D
102
{ACAD_REACTORS
330
7A82
102
}
330
7A82
100
AcDbScale
 70
     0
300
1/2" = 1'-0"
140
0.5
141
12.0
290
     0
  0
SCALE
  5
7A8E
102
{ACAD_REACTORS
330
7A82
102
}
330
7A82
100
AcDbScale
 70
     0
300
3/4" = 1'-0"
140
0.75
141
12.0
290
     0
  0
SCALE
  5
7A8F
102
{ACAD_REACTORS
330
7A82
102
}
330
7A82
100
AcDbScale
 70
     0
300
1" = 1'-0"
140
1.0
141
12.0
290
     0
  0
SCALE
  5
7A90
102
{ACAD_REACTORS
330
7A82
102
}
330
7A82
100
AcDbScale
 70
     0
300
1-1/2" = 1'-0"
140
1.5
141
12.0
290
     0
  0
SCALE
  5
7A91
102
{ACAD_REACTORS
330
7A82
102
}
330
7A82
100
AcDbScale
 70
     0
300
3" = 1'-0"
140
3.0
141
12.0
290
     0
  0
SCALE
  5
7A92
102
{ACAD_REACTORS
330
7A82
102
}
330
7A82
100
AcDbScale
 70
     0
300
6" = 1'-0"
140
6.0
141
12.0
290
     0
  0
SCALE
  5
7A93
102
{ACAD_REACTORS
330
7A82
102
}
330
7A82
100
AcDbScale
 70
     0
300
1'-0" = 1'-0"
140
12.0
141
12.0
290
     0
  0
ACDBSECTIONVIEWSTYLE
  5
7A97
102
{ACAD_REACTORS
330
7A96
102
}
330
7A96
100
AcDbModelDocViewStyle
 70
     0
  3
Imperial24
290
     0
300
Imperial24
 90
        0
100
AcDbSectionViewStyle
 70
     0
 71
     0
 90
       78
 71
     1
340
11
 62
   256
 40
0.24
340
0
340
0
 62
   256
 40
0.24
300
I, O, Q, S, X, Z
 40
0.48
 90
        3
 40
0.18
 90
        1
 71
     2
340
15
 90
       25
 62
   256
340
15
 90
       50
 62
   256
 40
0.24
 40
0.0
 40
0.24
 71
     3
340
11
 62
   256
 40
0.24
 90
        1
 40
0.75
 90
        1
300
%<\AcVar ViewType \f "%tc1">% %<\AcVar ViewSectionStartId>%-%<\AcVar ViewSectionEndId>%\PSCALE %<\AcVar ViewScale \f "%sn">%
 71
     4
 62
   256
 62
   257
300
ANSI31
 40
1.0
 90
        0
290
     0
290
     0
 90
        6
 40
0.0
 40
1.570796326794896
 40
0.2617993877991494
 40
1.308996938995747
 40
-0.2617993877991494
 40
1.832595714594046
  0
TABLESTYLE
  5
7A81
102
{ACAD_XDICTIONARY
360
7AD9
102
}
102
{ACAD_REACTORS
330
7A80
102
}
330
7A80
100
AcDbTableStyle
280
     0
  3
Standard
 70
     0
 71
     0
 40
0.06
 41
0.06
280
     0
281
     0
  7
STANDARD
140
0.18
170
     2
 62
     0
 63
     7
283
     0
 90
      512
 91
        0
  1

274
    -2
284
     1
 64
     0
275
    -2
285
     1
 65
     0
276
    -2
286
     1
 66
     0
277
    -2
287
     1
 67
     0
278
    -2
288
     1
 68
     0
279
    -2
289
     1
 69
     0
  7
STANDARD
140
0.25
170
     5
 62
     0
 63
     7
283
     0
 90
      512
 91
        0
  1

274
    -2
284
     1
 64
     0
275
    -2
285
     1
 65
     0
276
    -2
286
     1
 66
     0
277
    -2
287
     1
 67
     0
278
    -2
288
     1
 68
     0
279
    -2
289
     1
 69
     0
  7
STANDARD
140
0.18
170
     5
 62
     0
 63
     7
283
     0
 90
      512
 91
        0
  1

274
    -2
284
     1
 64
     0
275
    -2
285
     1
 65
     0
276
    -2
286
     1
 66
     0
277
    -2
287
     1
 67
     0
278
    -2
288
     1
 68
     0
279
    -2
289
     1
 69
     0
  0
VISUALSTYLE
  5
7A6C
102
{ACAD_REACTORS
330
7A66
102
}
330
7A66
100
AcDbVisualStyle
  2
2dWireframe
 70
     4
177
     3
291
     0
 70
    58
 90
        0
176
     1
 90
        2
176
     1
 90
        0
176
     1
 90
        0
176
     1
 40
0.6
176
     1
 40
30.0
176
     1
 62
     7
420
 16777215
176
     1
 90
        1
176
     1
 90
        4
176
     1
 62
     7
176
     1
 62
   257
176
     1
 90
        1
176
     1
 90
        1
176
     1
 40
1.0
176
     1
 90
        0
176
     1
 62
   257
176
     1
 40
1.0
176
     1
 90
        1
176
     1
 90
        6
176
     1
 90
        2
176
     1
 62
     7
176
     1
 90
        5
176
     1
 90
        0
176
     1
 90
        0
176
     1
290
     0
176
     1
 90
        1
176
     1
 40
0.0
176
     1
 90
        0
176
     1
290
     1
176
     1
290
     1
176
     1
290
     0
176
     1
290
     0
176
     1
290
     0
176
     1
290
     0
176
     1
290
     0
176
     1
290
     0
176
     1
290
     0
176
     1
 90
       50
176
     1
 40
0.0
176
     1
 40
1.0
176
     1
 90
        0
176
     1
 62
    18
420
        0
176
     1
 90
       50
176
     1
 90
        3
176
     1
 62
     5
420
      255
176
     1
290
     0
176
     1
 90
       50
176
     1
 90
       50
176
     1
 90
       50
176
     1
290
     0
176
     1
 90
       50
176
     1
 62
   256
176
     0
 40
1.0
176
     0
 90
        2
176
     1
  1
strokes_ogs.tif
176
     1
290
     0
176
     1
 40
1.0
176
     1
 40
1.0
176
     1
  0
VISUALSTYLE
  5
7A6B
102
{ACAD_REACTORS
330
7A66
102
}
330
7A66
100
AcDbVisualStyle
  2
Basic
 70
     7
177
     3
291
     1
 70
    58
 90
        1
176
     1
 90
        0
176
     1
 90
        1
176
     1
 90
        0
176
     1
 40
0.6
176
     1
 40
30.0
176
     1
 62
     7
420
 16777215
176
     1
 90
        0
176
     1
 90
        4
176
     1
 62
     7
176
     1
 62
   257
176
     1
 90
        1
176
     1
 90
        1
176
     1
 40
1.0
176
     1
 90
        8
176
     1
 62
     7
176
     1
 40
1.0
176
     1
 90
        1
176
     1
 90
        6
176
     1
 90
        2
176
     1
 62
     7
176
     1
 90
        5
176
     1
 90
        0
176
     1
 90
        0
176
     1
290
     0
176
     1
 90
        1
176
     1
 40
0.0
176
     1
 90
        0
176
     1
290
     0
176
     1
290
     1
176
     1
290
     1
176
     1
290
     0
176
     1
290
     0
176
     1
290
     0
176
     1
290
     0
176
     1
290
     0
176
     1
290
     0
176
     1
 90
       50
176
     1
 40
0.0
176
     1
 40
1.0
176
     1
 90
        0
176
     1
 62
    18
420
        0
176
     1
 90
       50
176
     1
 90
        3
176
     1
 62
     5
420
      255
176
     1
290
     0
176
     1
 90
       50
176
     1
 90
       50
176
     1
 90
       50
176
     1
290
     0
176
     1
 90
       50
176
     1
 62
   256
176
     0
 40
1.0
176
     0
 90
        2
176
     1
  1
strokes_ogs.tif
176
     1
290
     0
176
     1
 40
1.0
176
     1
 40
1.0
176
     1
  0
VISUALSTYLE
  5
7A72
102
{ACAD_REACTORS
330
7A66
102
}
330
7A66
100
AcDbVisualStyle
  2
Brighten
 70
    12
177
     3
291
     1
 70
    58
 90
        2
176
     1
 90
        2
176
     1
 90
        0
176
     1
 90
        0
176
     1
 40
0.6
176
     1
 40
30.0
176
     1
 62
     7
420
 16777215
176
     1
 90
        1
176
     1
 90
        4
176
     1
 62
     7
176
     1
 62
   257
176
     1
 90
        1
176
     1
 90
        1
176
     1
 40
1.0
176
     1
 90
        8
176
     1
 62
     7
176
     1
 40
1.0
176
     1
 90
        1
176
     1
 90
        6
176
     1
 90
        2
176
     1
 62
     7
176
     1
 90
        5
176
     1
 90
        0
176
     1
 90
        0
176
     1
290
     0
176
     1
 90
        1
176
     1
 40
50.0
176
     1
 90
        0
176
     1
290
     0
176
     1
290
     1
176
     1
290
     1
176
     1
290
     0
176
     1
290
     0
176
     1
290
     0
176
     1
290
     0
176
     1
290
     0
176
     1
290
     0
176
     1
 90
       50
176
     1
 40
0.0
176
     1
 40
1.0
176
     1
 90
        0
176
     1
 62
    18
420
        0
176
     1
 90
       50
176
     1
 90
        3
176
     1
 62
     5
420
      255
176
     1
290
     0
176
     1
 90
       50
176
     1
 90
       50
176
     1
 90
       50
176
     1
290
     0
176
     1
 90
       50
176
     1
 62
   256
176
     0
 40
1.0
176
     0
 90
        2
176
     1
  1
strokes_ogs.tif
176
     1
290
     0
176
     1
 40
1.0
176
     1
 40
1.0
176
     1
  0
VISUALSTYLE
  5
7A76
102
{ACAD_REACTORS
330
7A66
102
}
330
7A66
100
AcDbVisualStyle
  2
ColorChange
 70
    16
177
     3
291
     1
 70
    58
 90
        2
176
     1
 90
        2
176
     1
 90
        3
176
     1
 90
        0
176
     1
 40
0.6
176
     1
 40
30.0
176
     1
 62
     8
420
  8421504
176
     1
 90
        1
176
     1
 90
        4
176
     1
 62
     7
176
     1
 62
   257
176
     1
 90
        1
176
     1
 90
        1
176
     1
 40
1.0
176
     1
 90
        8
176
     1
 62
     8
420
  8421504
176
     1
 40
1.0
176
     1
 90
        1
176
     1
 90
        6
176
     1
 90
        2
176
     1
 62
     7
176
     1
 90
        5
176
     1
 90
        0
176
     1
 90
        0
176
     1
290
     0
176
     1
 90
        1
176
     1
 40
0.0
176
     1
 90
        0
176
     1
290
     0
176
     1
290
     1
176
     1
290
     1
176
     1
290
     0
176
     1
290
     0
176
     1
290
     0
176
     1
290
     0
176
     1
290
     0
176
     1
290
     0
176
     1
 90
       50
176
     1
 40
0.0
176
     1
 40
1.0
176
     1
 90
        0
176
     1
 62
    18
420
        0
176
     1
 90
       50
176
     1
 90
        3
176
     1
 62
     5
420
      255
176
     1
290
     0
176
     1
 90
       50
176
     1
 90
       50
176
     1
 90
       50
176
     1
290
     0
176
     1
 90
       50
176
     1
 62
   256
176
     0
 40
1.0
176
     0
 90
        2
176
     1
  1
strokes_ogs.tif
176
     1
290
     0
176
     1
 40
1.0
176
     1
 40
1.0
176
     1
  0
VISUALSTYLE
  5
7A6F
102
{ACAD_REACTORS
330
7A66
102
}
330
7A66
100
AcDbVisualStyle
  2
Conceptual
 70
     9
177
     3
291
     0
 70
    58
 90
        3
176
     1
 90
        2
176
     1
 90
        0
176
     1
 90
        0
176
     1
 40
0.6
176
     1
 40
30.0
176
     1
 62
     7
420
 16777215
176
     1
 90
        2
176
     1
 90
        2
176
     1
 62
     7
176
     1
 62
   257
176
     1
 90
        1
176
     1
 90
        1
176
     1
 40
179.0
176
     1
 90
        8
176
     1
 62
     7
176
     1
 40
1.0
176
     1
 90
        1
176
     1
 90
        6
176
     1
 90
        2
176
     1
 62
     7
176
     1
 90
        3
176
     1
 90
        0
176
     1
 90
        0
176
     1
290
     0
176
     1
 90
        1
176
     1
 40
0.0
176
     1
 90
        0
176
     1
290
     0
176
     1
290
     1
176
     1
290
     1
176
     1
290
     0
176
     1
290
     0
176
     1
290
     0
176
     1
290
     0
176
     1
290
     0
176
     1
290
     0
176
     1
 90
       50
176
     1
 40
0.0
176
     1
 40
1.0
176
     1
 90
        0
176
     1
 62
    18
420
        0
176
     1
 90
       50
176
     1
 90
        3
176
     1
 62
     5
420
      255
176
     1
290
     0
176
     1
 90
       50
176
     1
 90
       50
176
     1
 90
       50
176
     1
290
     0
176
     1
 90
       50
176
     1
 62
   256
176
     0
 40
1.0
176
     0
 90
        2
176
     1
  1
strokes_ogs.tif
176
     1
290
     0
176
     1
 40
1.0
176
     1
 40
1.0
176
     1
  0
VISUALSTYLE
  5
7A71
102
{ACAD_REACTORS
330
7A66
102
}
330
7A66
100
AcDbVisualStyle
  2
Dim
 70
    11
177
     3
291
     1
 70
    58
 90
        2
176
     1
 90
        2
176
     1
 90
        0
176
     1
 90
        0
176
     1
 40
0.6
176
     1
 40
30.0
176
     1
 62
     7
420
 16777215
176
     1
 90
        1
176
     1
 90
        4
176
     1
 62
     7
176
     1
 62
   257
176
     1
 90
        1
176
     1
 90
        1
176
     1
 40
1.0
176
     1
 90
        8
176
     1
 62
     7
176
     1
 40
1.0
176
     1
 90
        1
176
     1
 90
        6
176
     1
 90
        2
176
     1
 62
     7
176
     1
 90
        5
176
     1
 90
        0
176
     1
 90
        0
176
     1
290
     0
176
     1
 90
        1
176
     1
 40
-50.0
176
     1
 90
        0
176
     1
290
     0
176
     1
290
     1
176
     1
290
     1
176
     1
290
     0
176
     1
290
     0
176
     1
290
     0
176
     1
290
     0
176
     1
290
     0
176
     1
290
     0
176
     1
 90
       50
176
     1
 40
0.0
176
     1
 40
1.0
176
     1
 90
        0
176
     1
 62
    18
420
        0
176
     1
 90
       50
176
     1
 90
        3
176
     1
 62
     5
420
      255
176
     1
290
     0
176
     1
 90
       50
176
     1
 90
       50
176
     1
 90
       50
176
     1
290
     0
176
     1
 90
       50
176
     1
 62
   256
176
     0
 40
1.0
176
     0
 90
        2
176
     1
  1
strokes_ogs.tif
176
     1
290
     0
176
     1
 40
1.0
176
     1
 40
1.0
176
     1
  0
VISUALSTYLE
  5
7A7E
102
{ACAD_REACTORS
330
7A66
102
}
330
7A66
100
AcDbVisualStyle
  2
EdgeColorOff
 70
    22
177
     3
291
     1
 70
    58
 90
        2
176
     0
 90
        2
176
     0
 90
        0
176
     0
 90
        0
176
     0
 40
0.6
176
     0
 40
30.0
176
     0
 62
     7
420
 16777215
176
     0
 90
        1
176
     0
 90
        4
176
     0
 62
     7
176
     0
 62
   257
176
     0
 90
        1
176
     0
 90
        1
176
     0
 40
1.0
176
     0
 90
        8
176
     2
 62
     7
176
     0
 40
1.0
176
     0
 90
        1
176
     0
 90
        6
176
     0
 90
        2
176
     0
 62
     7
176
     0
 90
        5
176
     0
 90
        0
176
     0
 90
        0
176
     0
290
     0
176
     0
 90
        1
176
     0
 40
0.0
176
     0
 90
        0
176
     0
290
     0
176
     1
290
     1
176
     1
290
     1
176
     1
290
     0
176
     1
290
     0
176
     1
290
     0
176
     1
290
     0
176
     1
290
     0
176
     1
290
     0
176
     1
 90
       50
176
     0
 40
0.0
176
     0
 40
1.0
176
     0
 90
        0
176
     0
 62
    18
420
        0
176
     0
 90
       50
176
     0
 90
        3
176
     0
 62
     5
420
      255
176
     0
290
     0
176
     1
 90
       50
176
     0
 90
       50
176
     0
 90
       50
176
     0
290
     0
176
     1
 90
       50
176
     0
 62
   256
176
     0
 40
1.0
176
     0
 90
        2
176
     0
  1
strokes_ogs.tif
176
     0
290
     0
176
     1
 40
1.0
176
     0
 40
1.0
176
     0
  0
VISUALSTYLE
  5
7A75
102
{ACAD_REACTORS
330
7A66
102
}
330
7A66
100
AcDbVisualStyle
  2
Facepattern
 70
    15
177
     3
291
     1
 70
    58
 90
        2
176
     1
 90
        2
176
     1
 90
        0
176
     1
 90
        0
176
     1
 40
0.6
176
     1
 40
30.0
176
     1
 62
     7
420
 16777215
176
     1
 90
        1
176
     1
 90
        4
176
     1
 62
     7
176
     1
 62
   257
176
     1
 90
        1
176
     1
 90
        1
176
     1
 40
1.0
176
     1
 90
        8
176
     1
 62
     7
176
     1
 40
1.0
176
     1
 90
        1
176
     1
 90
        6
176
     1
 90
        2
176
     1
 62
     7
176
     1
 90
        5
176
     1
 90
        0
176
     1
 90
        0
176
     1
290
     0
176
     1
 90
        1
176
     1
 40
0.0
176
     1
 90
        0
176
     1
290
     0
176
     1
290
     1
176
     1
290
     1
176
     1
290
     0
176
     1
290
     0
176
     1
290
     0
176
     1
290
     0
176
     1
290
     0
176
     1
290
     0
176
     1
 90
       50
176
     1
 40
0.0
176
     1
 40
1.0
176
     1
 90
        0
176
     1
 62
    18
420
        0
176
     1
 90
       50
176
     1
 90
        3
176
     1
 62
     5
420
      255
176
     1
290
     0
176
     1
 90
       50
176
     1
 90
       50
176
     1
 90
       50
176
     1
290
     0
176
     1
 90
       50
176
     1
 62
   256
176
     0
 40
1.0
176
     0
 90
        2
176
     1
  1
strokes_ogs.tif
176
     1
290
     0
176
     1
 40
1.0
176
     1
 40
1.0
176
     1
  0
VISUALSTYLE
  5
7A67
102
{ACAD_REACTORS
330
7A66
102
}
330
7A66
100
AcDbVisualStyle
  2
Flat
 70
     0
177
     3
291
     1
 70
    58
 90
        2
176
     1
 90
        1
176
     1
 90
        1
176
     1
 90
        2
176
     1
 40
0.6
176
     1
 40
30.0
176
     1
 62
     7
420
 16777215
176
     1
 90
        0
176
     1
 90
        0
176
     1
 62
     7
176
     1
 62
   257
176
     1
 90
        1
176
     1
 90
        1
176
     1
 40
1.0
176
     1
 90
        8
176
     1
 62
     7
176
     1
 40
1.0
176
     1
 90
        1
176
     1
 90
        6
176
     1
 90
        2
176
     1
 62
     7
176
     1
 90
        5
176
     1
 90
        0
176
     1
 90
        0
176
     1
290
     0
176
     1
 90
       13
176
     1
 40
0.0
176
     1
 90
        0
176
     1
290
     0
176
     1
290
     1
176
     1
290
     1
176
     1
290
     0
176
     1
290
     0
176
     1
290
     0
176
     1
290
     0
176
     1
290
     0
176
     1
290
     0
176
     1
 90
       50
176
     1
 40
0.0
176
     1
 40
1.0
176
     1
 90
        0
176
     1
 62
    18
420
        0
176
     1
 90
       50
176
     1
 90
        3
176
     1
 62
     5
420
      255
176
     1
290
     0
176
     1
 90
       50
176
     1
 90
       50
176
     1
 90
       50
176
     1
290
     0
176
     1
 90
       50
176
     1
 62
   256
176
     0
 40
1.0
176
     0
 90
        2
176
     1
  1
strokes_ogs.tif
176
     1
290
     0
176
     1
 40
1.0
176
     1
 40
1.0
176
     1
  0
VISUALSTYLE
  5
7A68
102
{ACAD_REACTORS
330
7A66
102
}
330
7A66
100
AcDbVisualStyle
  2
FlatWithEdges
 70
     1
177
     3
291
     1
 70
    58
 90
        2
176
     1
 90
        1
176
     1
 90
        1
176
     1
 90
        2
176
     1
 40
0.6
176
     1
 40
30.0
176
     1
 62
     7
420
 16777215
176
     1
 90
        1
176
     1
 90
        0
176
     1
 62
     7
176
     1
 62
   257
176
     1
 90
        1
176
     1
 90
        1
176
     1
 40
1.0
176
     1
 90
        0
176
     1
 62
   257
176
     1
 40
1.0
176
     1
 90
        1
176
     1
 90
        6
176
     1
 90
        2
176
     1
 62
     7
176
     1
 90
        5
176
     1
 90
        0
176
     1
 90
        0
176
     1
290
     0
176
     1
 90
       13
176
     1
 40
0.0
176
     1
 90
        0
176
     1
290
     0
176
     1
290
     1
176
     1
290
     1
176
     1
290
     0
176
     1
290
     0
176
     1
290
     0
176
     1
290
     0
176
     1
290
     0
176
     1
290
     0
176
     1
 90
       50
176
     1
 40
0.0
176
     1
 40
1.0
176
     1
 90
        0
176
     1
 62
    18
420
        0
176
     1
 90
       50
176
     1
 90
        3
176
     1
 62
     5
420
      255
176
     1
290
     0
176
     1
 90
       50
176
     1
 90
       50
176
     1
 90
       50
176
     1
290
     0
176
     1
 90
       50
176
     1
 62
   256
176
     0
 40
1.0
176
     0
 90
        2
176
     1
  1
strokes_ogs.tif
176
     1
290
     0
176
     1
 40
1.0
176
     1
 40
1.0
176
     1
  0
VISUALSTYLE
  5
7A69
102
{ACAD_REACTORS
330
7A66
102
}
330
7A66
100
AcDbVisualStyle
  2
Gouraud
 70
     2
177
     3
291
     1
 70
    58
 90
        2
176
     1
 90
        2
176
     1
 90
        1
176
     1
 90
        2
176
     1
 40
0.6
176
     1
 40
30.0
176
     1
 62
     7
420
 16777215
176
     1
 90
        0
176
     1
 90
        0
176
     1
 62
     7
176
     1
 62
   257
176
     1
 90
        1
176
     1
 90
        1
176
     1
 40
1.0
176
     1
 90
        0
176
     1
 62
     7
176
     1
 40
1.0
176
     1
 90
        1
176
     1
 90
        6
176
     1
 90
        2
176
     1
 62
     7
176
     1
 90
        5
176
     1
 90
        0
176
     1
 90
        0
176
     1
290
     0
176
     1
 90
       13
176
     1
 40
0.0
176
     1
 90
        0
176
     1
290
     0
176
     1
290
     1
176
     1
290
     1
176
     1
290
     0
176
     1
290
     0
176
     1
290
     0
176
     1
290
     0
176
     1
290
     0
176
     1
290
     0
176
     1
 90
       50
176
     1
 40
0.0
176
     1
 40
1.0
176
     1
 90
        0
176
     1
 62
    18
420
        0
176
     1
 90
       50
176
     1
 90
        3
176
     1
 62
     5
420
      255
176
     1
290
     0
176
     1
 90
       50
176
     1
 90
       50
176
     1
 90
       50
176
     1
290
     0
176
     1
 90
       50
176
     1
 62
   256
176
     0
 40
1.0
176
     0
 90
        2
176
     1
  1
strokes_ogs.tif
176
     1
290
     0
176
     1
 40
1.0
176
     1
 40
1.0
176
     1
  0
VISUALSTYLE
  5
7A6A
102
{ACAD_REACTORS
330
7A66
102
}
330
7A66
100
AcDbVisualStyle
  2
GouraudWithEdges
 70
     3
177
     3
291
     1
 70
    58
 90
        2
176
     1
 90
        2
176
     1
 90
        1
176
     1
 90
        2
176
     1
 40
0.6
176
     1
 40
30.0
176
     1
 62
     7
420
 16777215
176
     1
 90
        1
176
     1
 90
        0
176
     1
 62
     7
176
     1
 62
   257
176
     1
 90
        1
176
     1
 90
        1
176
     1
 40
1.0
176
     1
 90
        0
176
     1
 62
   257
176
     1
 40
1.0
176
     1
 90
        1
176
     1
 90
        6
176
     1
 90
        2
176
     1
 62
     7
176
     1
 90
        5
176
     1
 90
        0
176
     1
 90
        0
176
     1
290
     0
176
     1
 90
       13
176
     1
 40
0.0
176
     1
 90
        0
176
     1
290
     0
176
     1
290
     1
176
     1
290
     1
176
     1
290
     0
176
     1
290
     0
176
     1
290
     0
176
     1
290
     0
176
     1
290
     0
176
     1
290
     0
176
     1
 90
       50
176
     1
 40
0.0
176
     1
 40
1.0
176
     1
 90
        0
176
     1
 62
    18
420
        0
176
     1
 90
       50
176
     1
 90
        3
176
     1
 62
     5
420
      255
176
     1
290
     0
176
     1
 90
       50
176
     1
 90
       50
176
     1
 90
       50
176
     1
290
     0
176
     1
 90
       50
176
     1
 62
   256
176
     0
 40
1.0
176
     0
 90
        2
176
     1
  1
strokes_ogs.tif
176
     1
290
     0
176
     1
 40
1.0
176
     1
 40
1.0
176
     1
  0
VISUALSTYLE
  5
7A6E
102
{ACAD_REACTORS
330
7A66
102
}
330
7A66
100
AcDbVisualStyle
  2
Hidden
 70
     6
177
     3
291
     0
 70
    58
 90
        1
176
     1
 90
        2
176
     1
 90
        2
176
     1
 90
        0
176
     1
 40
0.6
176
     1
 40
30.0
176
     1
 62
     7
420
 16777215
176
     1
 90
        2
176
     1
 90
        2
176
     1
 62
     7
176
     1
 62
   257
176
     1
 90
        2
176
     1
 90
        1
176
     1
 40
40.0
176
     1
 90
        0
176
     1
 62
   257
176
     1
 40
1.0
176
     1
 90
        1
176
     1
 90
        6
176
     1
 90
        2
176
     1
 62
     7
176
     1
 90
        3
176
     1
 90
        0
176
     1
 90
        0
176
     1
290
     0
176
     1
 90
        1
176
     1
 40
0.0
176
     1
 90
        0
176
     1
290
     0
176
     1
290
     1
176
     1
290
     1
176
     1
290
     0
176
     1
290
     0
176
     1
290
     0
176
     1
290
     0
176
     1
290
     0
176
     1
290
     0
176
     1
 90
       50
176
     1
 40
0.0
176
     1
 40
1.0
176
     1
 90
        0
176
     1
 62
    18
420
        0
176
     1
 90
       50
176
     1
 90
        3
176
     1
 62
     5
420
      255
176
     1
290
     0
176
     1
 90
       50
176
     1
 90
       50
176
     1
 90
       50
176
     1
290
     0
176
     1
 90
       50
176
     1
 62
   256
176
     0
 40
1.0
176
     0
 90
        2
176
     1
  1
strokes_ogs.tif
176
     1
290
     0
176
     1
 40
1.0
176
     1
 40
1.0
176
     1
  0
VISUALSTYLE
  5
7A7C
102
{ACAD_REACTORS
330
7A66
102
}
330
7A66
100
AcDbVisualStyle
  2
JitterOff
 70
    20
177
     3
291
     1
 70
    58
 90
        2
176
     0
 90
        2
176
     0
 90
        0
176
     0
 90
        0
176
     0
 40
0.6
176
     0
 40
30.0
176
     0
 62
     7
420
 16777215
176
     0
 90
        1
176
     0
 90
        4
176
     0
 62
     7
176
     0
 62
   257
176
     0
 90
        1
176
     0
 90
        1
176
     0
 40
1.0
176
     0
 90
       10
176
     2
 62
     7
176
     0
 40
1.0
176
     0
 90
        1
176
     0
 90
        6
176
     0
 90
        2
176
     0
 62
     7
176
     0
 90
        5
176
     0
 90
        0
176
     0
 90
        0
176
     0
290
     0
176
     0
 90
        1
176
     0
 40
0.0
176
     0
 90
        0
176
     0
290
     0
176
     1
290
     1
176
     1
290
     1
176
     1
290
     0
176
     1
290
     0
176
     1
290
     0
176
     1
290
     0
176
     1
290
     0
176
     1
290
     0
176
     1
 90
       50
176
     0
 40
0.0
176
     0
 40
1.0
176
     0
 90
        0
176
     0
 62
    18
420
        0
176
     0
 90
       50
176
     0
 90
        3
176
     0
 62
     5
420
      255
176
     0
290
     0
176
     1
 90
       50
176
     0
 90
       50
176
     0
 90
       50
176
     0
290
     0
176
     1
 90
       50
176
     0
 62
   256
176
     0
 40
1.0
176
     0
 90
        2
176
     0
  1
strokes_ogs.tif
176
     0
290
     0
176
     1
 40
1.0
176
     0
 40
1.0
176
     0
  0
VISUALSTYLE
  5
7A74
102
{ACAD_REACTORS
330
7A66
102
}
330
7A66
100
AcDbVisualStyle
  2
Linepattern
 70
    14
177
     3
291
     1
 70
    58
 90
        2
176
     1
 90
        2
176
     1
 90
        0
176
     1
 90
        0
176
     1
 40
0.6
176
     1
 40
30.0
176
     1
 62
     7
420
 16777215
176
     1
 90
        1
176
     1
 90
        4
176
     1
 62
     7
176
     1
 62
   257
176
     1
 90
        7
176
     1
 90
        7
176
     1
 40
1.0
176
     1
 90
        8
176
     1
 62
     7
176
     1
 40
1.0
176
     1
 90
        1
176
     1
 90
        6
176
     1
 90
        2
176
     1
 62
     7
176
     1
 90
        5
176
     1
 90
        0
176
     1
 90
        0
176
     1
290
     0
176
     1
 90
        1
176
     1
 40
0.0
176
     1
 90
        0
176
     1
290
     0
176
     1
290
     1
176
     1
290
     1
176
     1
290
     0
176
     1
290
     0
176
     1
290
     0
176
     1
290
     0
176
     1
290
     0
176
     1
290
     0
176
     1
 90
       50
176
     1
 40
0.0
176
     1
 40
1.0
176
     1
 90
        0
176
     1
 62
    18
420
        0
176
     1
 90
       50
176
     1
 90
        3
176
     1
 62
     5
420
      255
176
     1
290
     0
176
     1
 90
       50
176
     1
 90
       50
176
     1
 90
       50
176
     1
290
     0
176
     1
 90
       50
176
     1
 62
   256
176
     0
 40
1.0
176
     0
 90
        2
176
     1
  1
strokes_ogs.tif
176
     1
290
     0
176
     1
 40
1.0
176
     1
 40
1.0
176
     1
  0
VISUALSTYLE
  5
7A7D
102
{ACAD_REACTORS
330
7A66
102
}
330
7A66
100
AcDbVisualStyle
  2
OverhangOff
 70
    21
177
     3
291
     1
 70
    58
 90
        2
176
     0
 90
        2
176
     0
 90
        0
176
     0
 90
        0
176
     0
 40
0.6
176
     0
 40
30.0
176
     0
 62
     7
420
 16777215
176
     0
 90
        1
176
     0
 90
        4
176
     0
 62
     7
176
     0
 62
   257
176
     0
 90
        1
176
     0
 90
        1
176
     0
 40
1.0
176
     0
 90
        9
176
     2
 62
     7
176
     0
 40
1.0
176
     0
 90
        1
176
     0
 90
        6
176
     0
 90
        2
176
     0
 62
     7
176
     0
 90
        5
176
     0
 90
        0
176
     0
 90
        0
176
     0
290
     0
176
     0
 90
        1
176
     0
 40
0.0
176
     0
 90
        0
176
     0
290
     0
176
     1
290
     1
176
     1
290
     1
176
     1
290
     0
176
     1
290
     0
176
     1
290
     0
176
     1
290
     0
176
     1
290
     0
176
     1
290
     0
176
     1
 90
       50
176
     0
 40
0.0
176
     0
 40
1.0
176
     0
 90
        0
176
     0
 62
    18
420
        0
176
     0
 90
       50
176
     0
 90
        3
176
     0
 62
     5
420
      255
176
     0
290
     0
176
     1
 90
       50
176
     0
 90
       50
176
     0
 90
       50
176
     0
290
     0
176
     1
 90
       50
176
     0
 62
   256
176
     0
 40
1.0
176
     0
 90
        2
176
     0
  1
strokes_ogs.tif
176
     0
290
     0
176
     1
 40
1.0
176
     0
 40
1.0
176
     0
  0
VISUALSTYLE
  5
7A70
102
{ACAD_REACTORS
330
7A66
102
}
330
7A66
100
AcDbVisualStyle
  2
Realistic
 70
     8
177
     3
291
     0
 70
    58
 90
        2
176
     1
 90
        3
176
     1
 90
        0
176
     1
 90
        2
176
     1
 40
0.6
176
     1
 40
30.0
176
     1
 62
     7
420
 16777215
176
     1
 90
        0
176
     1
 90
        0
176
     1
 62
     7
176
     1
 62
   257
176
     1
 90
        1
176
     1
 90
        1
176
     1
 40
1.0
176
     1
 90
        8
176
     1
 62
   257
176
     1
 40
1.0
176
     1
 90
        1
176
     1
 90
        6
176
     1
 90
        2
176
     1
 62
     7
176
     1
 90
        3
176
     1
 90
        0
176
     1
 90
        0
176
     1
290
     0
176
     1
 90
       13
176
     1
 40
0.0
176
     1
 90
        0
176
     1
290
     0
176
     1
290
     1
176
     1
290
     1
176
     1
290
     0
176
     1
290
     0
176
     1
290
     0
176
     1
290
     0
176
     1
290
     0
176
     1
290
     0
176
     1
 90
       50
176
     1
 40
0.0
176
     1
 40
1.0
176
     1
 90
        0
176
     1
 62
    18
420
        0
176
     1
 90
       50
176
     1
 90
        3
176
     1
 62
     5
420
      255
176
     1
290
     0
176
     1
 90
       50
176
     1
 90
       50
176
     1
 90
       50
176
     1
290
     0
176
     1
 90
       50
176
     1
 62
   256
176
     0
 40
1.0
176
     0
 90
        2
176
     1
  1
strokes_ogs.tif
176
     1
290
     0
176
     1
 40
1.0
176
     1
 40
1.0
176
     1
  0
VISUALSTYLE
  5
7A7B
102
{ACAD_REACTORS
330
7A66
102
}
330
7A66
100
AcDbVisualStyle
  2
Shaded
 70
    27
177
     3
291
     0
 70
    58
 90
        2
176
     1
 90
        2
176
     1
 90
        1
176
     1
 90
        2
176
     1
 40
0.6
176
     1
 40
30.0
176
     1
 62
     7
420
 16777215
176
     1
 90
        0
176
     1
 90
        4
176
     1
 62
     7
176
     1
 62
   257
176
     1
 90
        1
176
     1
 90
        1
176
     1
 40
1.0
176
     1
 90
        8
176
     1
 62
   257
176
     1
 40
1.0
176
     1
 90
        1
176
     1
 90
        6
176
     1
 90
        2
176
     1
 62
     8
420
  7895160
176
     1
 90
        3
176
     1
 90
        0
176
     1
 90
        0
176
     1
290
     0
176
     1
 90
        5
176
     1
 40
0.0
176
     1
 90
        0
176
     1
290
     0
176
     1
290
     1
176
     1
290
     1
176
     1
290
     0
176
     1
290
     0
176
     1
290
     0
176
     1
290
     0
176
     1
290
     0
176
     1
290
     0
176
     1
 90
       50
176
     1
 40
0.0
176
     1
 40
1.0
176
     1
 90
        0
176
     1
 62
    18
420
        0
176
     1
 90
       50
176
     1
 90
        3
176
     1
 62
     5
420
      255
176
     1
290
     0
176
     1
 90
       50
176
     1
 90
       50
176
     1
 90
       50
176
     1
290
     0
176
     1
 90
       50
176
     1
 62
   256
176
     0
 40
1.0
176
     0
 90
        2
176
     1
  1
strokes_ogs.tif
176
     1
290
     0
176
     1
 40
1.0
176
     1
 40
1.0
176
     1
  0
VISUALSTYLE
  5
7A7A
102
{ACAD_REACTORS
330
7A66
102
}
330
7A66
100
AcDbVisualStyle
  2
Shaded with edges
 70
    26
177
     3
291
     0
 70
    58
 90
        2
176
     1
 90
        2
176
     1
 90
        1
176
     1
 90
        2
176
     1
 40
0.6
176
     1
 40
30.0
176
     1
 62
     7
420
 16777215
176
     1
 90
        1
176
     1
 90
        2
176
     1
 62
     7
176
     1
 62
   257
176
     1
 90
        2
176
     1
 90
        1
176
     1
 40
1.0
176
     1
 90
        8
176
     1
 62
   257
176
     1
 40
1.0
176
     1
 90
        1
176
     1
 90
        6
176
     1
 90
        2
176
     1
 62
     7
176
     1
 90
        3
176
     1
 90
        0
176
     1
 90
        0
176
     1
290
     0
176
     1
 90
        5
176
     1
 40
0.0
176
     1
 90
        0
176
     1
290
     0
176
     1
290
     1
176
     1
290
     1
176
     1
290
     0
176
     1
290
     0
176
     1
290
     0
176
     1
290
     0
176
     1
290
     0
176
     1
290
     0
176
     1
 90
       50
176
     1
 40
0.0
176
     1
 40
1.0
176
     1
 90
        0
176
     1
 62
    18
420
        0
176
     1
 90
       50
176
     1
 90
        3
176
     1
 62
     5
420
      255
176
     1
290
     0
176
     1
 90
       50
176
     1
 90
       50
176
     1
 90
       50
176
     1
290
     0
176
     1
 90
       50
176
     1
 62
   256
176
     0
 40
1.0
176
     0
 90
        2
176
     1
  1
strokes_ogs.tif
176
     1
290
     0
176
     1
 40
1.0
176
     1
 40
1.0
176
     1
  0
VISUALSTYLE
  5
7A77
102
{ACAD_REACTORS
330
7A66
102
}
330
7A66
100
AcDbVisualStyle
  2
Shades of Gray
 70
    23
177
     3
291
     0
 70
    58
 90
        2
176
     1
 90
        2
176
     1
 90
        3
176
     1
 90
        0
176
     1
 40
0.6
176
     1
 40
30.0
176
     1
 62
     7
420
 16777215
176
     1
 90
        2
176
     1
 90
        2
176
     1
 62
     7
176
     1
 62
     7
176
     1
 90
        1
176
     1
 90
        1
176
     1
 40
40.0
176
     1
 90
        8
176
     1
 62
     7
176
     1
 40
1.0
176
     1
 90
        1
176
     1
 90
        6
176
     1
 90
        2
176
     1
 62
     7
176
     1
 90
        3
176
     1
 90
        0
176
     1
 90
        0
176
     1
290
     0
176
     1
 90
        1
176
     1
 40
0.0
176
     1
 90
        0
176
     1
290
     0
176
     1
290
     1
176
     1
290
     1
176
     1
290
     0
176
     1
290
     0
176
     1
290
     0
176
     1
290
     0
176
     1
290
     0
176
     1
290
     0
176
     1
 90
       50
176
     1
 40
0.0
176
     1
 40
1.0
176
     1
 90
        0
176
     1
 62
    18
420
        0
176
     1
 90
       50
176
     1
 90
        3
176
     1
 62
     5
420
      255
176
     1
290
     0
176
     1
 90
       50
176
     1
 90
       50
176
     1
 90
       50
176
     1
290
     0
176
     1
 90
       50
176
     1
 62
   256
176
     0
 40
1.0
176
     0
 90
        2
176
     1
  1
strokes_ogs.tif
176
     1
290
     0
176
     1
 40
1.0
176
     1
 40
1.0
176
     1
  0
VISUALSTYLE
  5
7A78
102
{ACAD_REACTORS
330
7A66
102
}
330
7A66
100
AcDbVisualStyle
  2
Sketchy
 70
    24
177
     3
291
     0
 70
    58
 90
        1
176
     1
 90
        2
176
     1
 90
        2
176
     1
 90
        0
176
     1
 40
0.6
176
     1
 40
30.0
176
     1
 62
     7
420
 16777215
176
     1
 90
        2
176
     1
 90
        2
176
     1
 62
     7
176
     1
 62
     7
176
     1
 90
        1
176
     1
 90
        1
176
     1
 40
40.0
176
     1
 90
       11
176
     1
 62
     7
176
     1
 40
1.0
176
     1
 90
        1
176
     1
 90
        6
176
     1
 90
        2
176
     1
 62
     7
176
     1
 90
        6
176
     1
 90
        0
176
     1
 90
        0
176
     1
290
     0
176
     1
 90
        1
176
     1
 40
0.0
176
     1
 90
        0
176
     1
290
     0
176
     1
290
     1
176
     1
290
     1
176
     1
290
     0
176
     1
290
     0
176
     1
290
     0
176
     1
290
     0
176
     1
290
     0
176
     1
290
     0
176
     1
 90
       50
176
     1
 40
0.0
176
     1
 40
1.0
176
     1
 90
        0
176
     1
 62
    18
420
        0
176
     1
 90
       50
176
     1
 90
        3
176
     1
 62
     5
420
      255
176
     1
290
     0
176
     1
 90
       50
176
     1
 90
       50
176
     1
 90
       50
176
     1
290
     0
176
     1
 90
       50
176
     1
 62
   256
176
     0
 40
1.0
176
     0
 90
        2
176
     1
  1
strokes_ogs.tif
176
     1
290
     0
176
     1
 40
1.0
176
     1
 40
1.0
176
     1
  0
VISUALSTYLE
  5
7A73
102
{ACAD_REACTORS
330
7A66
102
}
330
7A66
100
AcDbVisualStyle
  2
Thicken
 70
    13
177
     3
291
     1
 70
    58
 90
        2
176
     1
 90
        2
176
     1
 90
        0
176
     1
 90
        0
176
     1
 40
0.6
176
     1
 40
30.0
176
     1
 62
     7
420
 16777215
176
     1
 90
        1
176
     1
 90
        4
176
     1
 62
     7
176
     1
 62
   257
176
     1
 90
        1
176
     1
 90
        1
176
     1
 40
1.0
176
     1
 90
       12
176
     1
 62
     7
176
     1
 40
1.0
176
     1
 90
        1
176
     1
 90
        6
176
     1
 90
        2
176
     1
 62
     7
176
     1
 90
        5
176
     1
 90
        0
176
     1
 90
        0
176
     1
290
     0
176
     1
 90
        1
176
     1
 40
0.0
176
     1
 90
        0
176
     1
290
     0
176
     1
290
     1
176
     1
290
     1
176
     1
290
     0
176
     1
290
     0
176
     1
290
     0
176
     1
290
     0
176
     1
290
     0
176
     1
290
     0
176
     1
 90
       50
176
     1
 40
0.0
176
     1
 40
1.0
176
     1
 90
        0
176
     1
 62
    18
420
        0
176
     1
 90
       50
176
     1
 90
        3
176
     1
 62
     5
420
      255
176
     1
290
     0
176
     1
 90
       50
176
     1
 90
       50
176
     1
 90
       50
176
     1
290
     0
176
     1
 90
       50
176
     1
 62
   256
176
     0
 40
1.0
176
     0
 90
        2
176
     1
  1
strokes_ogs.tif
176
     1
290
     0
176
     1
 40
1.0
176
     1
 40
1.0
176
     1
  0
VISUALSTYLE
  5
7A6D
102
{ACAD_REACTORS
330
7A66
102
}
330
7A66
100
AcDbVisualStyle
  2
Wireframe
 70
     5
177
     3
291
     0
 70
    58
 90
        0
176
     1
 90
        2
176
     1
 90
        0
176
     1
 90
        0
176
     1
 40
0.6
176
     1
 40
30.0
176
     1
 62
     7
420
 16777215
176
     1
 90
        1
176
     1
 90
        4
176
     1
 62
     7
176
     1
 62
   257
176
     1
 90
        1
176
     1
 90
        1
176
     1
 40
1.0
176
     1
 90
        0
176
     1
 62
   257
176
     1
 40
1.0
176
     1
 90
        1
176
     1
 90
        6
176
     1
 90
        2
176
     1
 62
     7
176
     1
 90
        3
176
     1
 90
        0
176
     1
 90
        0
176
     1
290
     0
176
     1
 90
        1
176
     1
 40
0.0
176
     1
 90
        0
176
     1
290
     0
176
     1
290
     1
176
     1
290
     1
176
     1
290
     0
176
     1
290
     0
176
     1
290
     0
176
     1
290
     0
176
     1
290
     0
176
     1
290
     0
176
     1
 90
       50
176
     1
 40
0.0
176
     1
 40
1.0
176
     1
 90
        0
176
     1
 62
    18
420
        0
176
     1
 90
       50
176
     1
 90
        3
176
     1
 62
     5
420
      255
176
     1
290
     0
176
     1
 90
       50
176
     1
 90
       50
176
     1
 90
       50
176
     1
290
     0
176
     1
 90
       50
176
     1
 62
   256
176
     0
 40
1.0
176
     0
 90
        2
176
     1
  1
strokes_ogs.tif
176
     1
290
     0
176
     1
 40
1.0
176
     1
 40
1.0
176
     1
  0
VISUALSTYLE
  5
7A79
102
{ACAD_REACTORS
330
7A66
102
}
330
7A66
100
AcDbVisualStyle
  2
X-Ray
 70
    25
177
     3
291
     0
 70
    58
 90
        2
176
     1
 90
        2
176
     1
 90
        1
176
     1
 90
        1
176
     1
 40
0.5
176
     1
 40
30.0
176
     1
 62
     7
420
 16777215
176
     1
 90
        1
176
     1
 90
        0
176
     1
 62
     7
176
     1
 62
   257
176
     1
 90
        1
176
     1
 90
        1
176
     1
 40
1.0
176
     1
 90
        8
176
     1
 62
     7
176
     1
 40
1.0
176
     1
 90
        1
176
     1
 90
        6
176
     1
 90
        2
176
     1
 62
     7
176
     1
 90
        3
176
     1
 90
        0
176
     1
 90
        0
176
     1
290
     0
176
     1
 90
       13
176
     1
 40
0.0
176
     1
 90
        0
176
     1
290
     0
176
     1
290
     1
176
     1
290
     1
176
     1
290
     0
176
     1
290
     0
176
     1
290
     0
176
     1
290
     0
176
     1
290
     0
176
     1
290
     0
176
     1
 90
       50
176
     1
 40
0.0
176
     1
 40
1.0
176
     1
 90
        0
176
     1
 62
    18
420
        0
176
     1
 90
       50
176
     1
 90
        3
176
     1
 62
     5
420
      255
176
     1
290
     0
176
     1
 90
       50
176
     1
 90
       50
176
     1
 90
       50
176
     1
290
     0
176
     1
 90
       50
176
     1
 62
   256
176
     0
 40
1.0
176
     0
 90
        2
176
     1
  1
strokes_ogs.tif
176
     1
290
     0
176
     1
 40
1.0
176
     1
 40
1.0
176
     1
  0
DICTIONARYVAR
  5
7AC7
102
{ACAD_REACTORS
330
75F9
102
}
330
75F9
100
DictionaryVariables
280
     0
  1
1:1
  0
DICTIONARYVAR
  5
7AC3
102
{ACAD_REACTORS
330
75F9
102
}
330
75F9
100
DictionaryVariables
280
     0
  1
STANDARD
  0
DICTIONARYVAR
  5
7AC2
102
{ACAD_REACTORS
330
75F9
102
}
330
75F9
100
DictionaryVariables
280
     0
  1
STANDARD
  0
DICTIONARYVAR
  5
7AC4
102
{ACAD_REACTORS
330
75F9
102
}
330
75F9
100
DictionaryVariables
280
     0
  1
Imperial24
  0
DICTIONARYVAR
  5
7AC5
102
{ACAD_REACTORS
330
75F9
102
}
330
75F9
100
DictionaryVariables
280
     0
  1
Imperial24
  0
DICTIONARYVAR
  5
75FA
102
{ACAD_REACTORS
330
75F9
102
}
330
75F9
100
DictionaryVariables
280
     0
  1
1
  0
DICTIONARYVAR
  5
7AC9
102
{ACAD_REACTORS
330
75F9
102
}
330
75F9
100
DictionaryVariables
280
     0
  1
1
  0
DICTIONARYVAR
  5
7ACA
102
{ACAD_REACTORS
330
75F9
102
}
330
75F9
100
DictionaryVariables
280
     0
  1
15
  0
DICTIONARYVAR
  5
7AC8
102
{ACAD_REACTORS
330
75F9
102
}
330
75F9
100
DictionaryVariables
280
     0
  1
0
  0
DICTIONARYVAR
  5
7AC6
102
{ACAD_REACTORS
330
75F9
102
}
330
75F9
100
DictionaryVariables
280
     0
  1
0
  0
DICTIONARY
  5
7A57
330
7A56
100
AcDbDictionary
280
     1
281
     1
  3
BUMPTILE
360
7A59
  3
DIFFUSETILE
360
7A58
  3
OPACITYTILE
360
7A5C
  3
REFLECTIONTILE
360
7A5B
  3
REFRACTIONTILE
360
7A5D
  3
SPECULARTILE
360
7A5A
  0
DICTIONARY
  5
7A4F
330
7A4E
100
AcDbDictionary
280
     1
281
     1
  3
BUMPTILE
360
7A51
  3
DIFFUSETILE
360
7A50
  3
OPACITYTILE
360
7A54
  3
REFLECTIONTILE
360
7A53
  3
REFRACTIONTILE
360
7A55
  3
SPECULARTILE
360
7A52
  0
DICTIONARY
  5
7A5F
330
7A5E
100
AcDbDictionary
280
     1
281
     1
  3
BUMPTILE
360
7A61
  3
DIFFUSETILE
360
7A60
  3
OPACITYTILE
360
7A64
  3
REFLECTIONTILE
360
7A63
  3
REFRACTIONTILE
360
7A65
  3
SPECULARTILE
360
7A62
  0
DICTIONARY
  5
7AD9
330
7A81
100
AcDbDictionary
280
     1
281
     1
  3
ACAD_ROUNDTRIP_2008_TABLESTYLE_CELLSTYLEMAP
360
7ADA
  0
XRECORD
  5
7A59
102
{ACAD_REACTORS
330
7A57
102
}
330
7A57
100
AcDbXrecord
280
     1
270
     1
271
     1
  0
XRECORD
  5
7A58
102
{ACAD_REACTORS
330
7A57
102
}
330
7A57
100
AcDbXrecord
280
     1
270
     1
271
     1
  0
XRECORD
  5
7A5C
102
{ACAD_REACTORS
330
7A57
102
}
330
7A57
100
AcDbXrecord
280
     1
270
     1
271
     1
  0
XRECORD
  5
7A5B
102
{ACAD_REACTORS
330
7A57
102
}
330
7A57
100
AcDbXrecord
280
     1
270
     1
271
     1
  0
XRECORD
  5
7A5D
102
{ACAD_REACTORS
330
7A57
102
}
330
7A57
100
AcDbXrecord
280
     1
270
     1
271
     1
  0
XRECORD
  5
7A5A
102
{ACAD_REACTORS
330
7A57
102
}
330
7A57
100
AcDbXrecord
280
     1
270
     1
271
     1
  0
XRECORD
  5
7A51
102
{ACAD_REACTORS
330
7A4F
102
}
330
7A4F
100
AcDbXrecord
280
     1
270
     1
271
     1
  0
XRECORD
  5
7A50
102
{ACAD_REACTORS
330
7A4F
102
}
330
7A4F
100
AcDbXrecord
280
     1
270
     1
271
     1
  0
XRECORD
  5
7A54
102
{ACAD_REACTORS
330
7A4F
102
}
330
7A4F
100
AcDbXrecord
280
     1
270
     1
271
     1
  0
XRECORD
  5
7A53
102
{ACAD_REACTORS
330
7A4F
102
}
330
7A4F
100
AcDbXrecord
280
     1
270
     1
271
     1
  0
XRECORD
  5
7A55
102
{ACAD_REACTORS
330
7A4F
102
}
330
7A4F
100
AcDbXrecord
280
     1
270
     1
271
     1
  0
XRECORD
  5
7A52
102
{ACAD_REACTORS
330
7A4F
102
}
330
7A4F
100
AcDbXrecord
280
     1
270
     1
271
     1
  0
XRECORD
  5
7A61
102
{ACAD_REACTORS
330
7A5F
102
}
330
7A5F
100
AcDbXrecord
280
     1
270
     1
271
     1
  0
XRECORD
  5
7A60
102
{ACAD_REACTORS
330
7A5F
102
}
330
7A5F
100
AcDbXrecord
280
     1
270
     1
271
     1
  0
XRECORD
  5
7A64
102
{ACAD_REACTORS
330
7A5F
102
}
330
7A5F
100
AcDbXrecord
280
     1
270
     1
271
     1
  0
XRECORD
  5
7A63
102
{ACAD_REACTORS
330
7A5F
102
}
330
7A5F
100
AcDbXrecord
280
     1
270
     1
271
     1
  0
XRECORD
  5
7A65
102
{ACAD_REACTORS
330
7A5F
102
}
330
7A5F
100
AcDbXrecord
280
     1
270
     1
271
     1
  0
XRECORD
  5
7A62
102
{ACAD_REACTORS
330
7A5F
102
}
330
7A5F
100
AcDbXrecord
280
     1
270
     1
271
     1
  0
CELLSTYLEMAP
  5
7ADA
102
{ACAD_REACTORS
330
7AD9
102
}
330
7AD9
100
AcDbCellStyleMap
 90
        3
300
CELLSTYLE
  1
TABLEFORMAT_BEGIN
 90
        5
170
     1
 91
        0
 92
    32768
 62
   257
 93
        1
300
CONTENTFORMAT
  1
CONTENTFORMAT_BEGIN
 90
        0
 91
        0
 92
      512
 93
        0
300

 40
0.0
140
1.0
 94
        5
 62
     0
340
11
144
0.25
309
CONTENTFORMAT_END
171
     0
 94
        0
309
TABLEFORMAT_END
  1
CELLSTYLE_BEGIN
 90
        1
 91
        1
300
_TITLE
309
CELLSTYLE_END
300
CELLSTYLE
  1
TABLEFORMAT_BEGIN
 90
        5
170
     1
 91
        0
 92
        0
 62
   257
 93
        1
300
CONTENTFORMAT
  1
CONTENTFORMAT_BEGIN
 90
        0
 91
        0
 92
      512
 93
        0
300

 40
0.0
140
1.0
 94
        5
 62
     0
340
11
144
0.18
309
CONTENTFORMAT_END
171
     0
 94
        0
309
TABLEFORMAT_END
  1
CELLSTYLE_BEGIN
 90
        2
 91
        1
300
_HEADER
309
CELLSTYLE_END
300
CELLSTYLE
  1
TABLEFORMAT_BEGIN
 90
        5
170
     1
 91
        0
 92
        0
 62
   257
 93
        1
300
CONTENTFORMAT
  1
CONTENTFORMAT_BEGIN
 90
        0
 91
        0
 92
      512
 93
        0
300

 40
0.0
140
1.0
 94
        2
 62
     0
340
11
144
0.18
309
CONTENTFORMAT_END
171
     0
 94
        0
309
TABLEFORMAT_END
  1
CELLSTYLE_BEGIN
 90
        3
 91
        2
300
_DATA
309
CELLSTYLE_END
  0
ENDSEC
  0
SECTION
  2
ACDSDATA
 70
     2
 71
     8
  0
ACDSSCHEMA
 90
        0
  1
AcDb_Thumbnail_Schema
  2
AcDbDs::ID
280
    10
 91
        8
  2
Thumbnail_Data
280
    15
 91
        0
101
ACDSRECORD
 95
        0
 90
        1
  2
AcDbDs::TreatedAsObjectData
280
     1
291
     1
101
ACDSRECORD
 95
        0
 90
        2
  2
AcDbDs::Legacy
280
     1
291
     1
101
ACDSRECORD
  1
AcDbDs::ID
 90
        3
  2
AcDs:Indexable
280
     1
291
     1
101
ACDSRECORD
  1
AcDbDs::ID
 90
        4
  2
AcDbDs::HandleAttribute
280
     7
282
     1
  0
ACDSSCHEMA
 90
        1
  1
AcDbDs::TreatedAsObjectDataSchema
  2
AcDbDs::TreatedAsObjectData
280
     1
 91
        0
  0
ACDSSCHEMA
 90
        2
  1
AcDbDs::LegacySchema
  2
AcDbDs::Legacy
280
     1
 91
        0
  0
ACDSSCHEMA
 90
        3
  1
AcDbDs::IndexedPropertySchema
  2
AcDs:Indexable
280
     1
 91
        0
  0
ACDSSCHEMA
 90
        4
  1
AcDbDs::HandleAttributeSchema
  2
AcDbDs::HandleAttribute
280
     7
 91
        1
284
     1
  0
ACDSRECORD
 90
        0
  2
AcDbDs::ID
280
    10
320
7A39
  2
Thumbnail_Data
280
    15
 94
     1659
310
89504E470D0A1A0A0000000D49484452000001000000006A080300000064B47FDC00000300504C5445212830FFFFFF2128300000000000000000000000000000000000000000000000000000330000660000990000CC0000FF0033000033330033660033990033CC0033FF0066000066330066660066990066CC0066FF0099
310
000099330099660099990099CC0099FF00CC0000CC3300CC6600CC9900CCCC00CCFF00FF0000FF3300FF6600FF9900FFCC00FFFF3300003300333300663300993300CC3300FF3333003333333333663333993333CC3333FF3366003366333366663366993366CC3366FF3399003399333399663399993399CC3399FF33CC00
310
33CC3333CC6633CC9933CCCC33CCFF33FF0033FF3333FF6633FF9933FFCC33FFFF6600006600336600666600996600CC6600FF6633006633336633666633996633CC6633FF6666006666336666666666996666CC6666FF6699006699336699666699996699CC6699FF66CC0066CC3366CC6666CC9966CCCC66CCFF66FF0066
310
FF3366FF6666FF9966FFCC66FFFF9900009900339900669900999900CC9900FF9933009933339933669933999933CC9933FF9966009966339966669966999966CC9966FF9999009999339999669999999999CC9999FF99CC0099CC3399CC6699CC9999CCCC99CCFF99FF0099FF3399FF6699FF9999FFCC99FFFFCC0000CC00
310
33CC0066CC0099CC00CCCC00FFCC3300CC3333CC3366CC3399CC33CCCC33FFCC6600CC6633CC6666CC6699CC66CCCC66FFCC9900CC9933CC9966CC9999CC99CCCC99FFCCCC00CCCC33CCCC66CCCC99CCCCCCCCCCFFCCFF00CCFF33CCFF66CCFF99CCFFCCCCFFFFFF0000FF0033FF0066FF0099FF00CCFF00FFFF3300FF3333
310
FF3366FF3399FF33CCFF33FFFF6600FF6633FF6666FF6699FF66CCFF66FFFF9900FF9933FF9966FF9999FF99CCFF99FFFFCC00FFCC33FFCC66FFCC99FFCCCCFFCCFFFFFF00FFFF33FFFF66FFFF99FFFFCCFFFFFF0000000D0D0D1A1A1A2828283535354343435050505D5D5D6B6B6B787878868686939393A1A1A1AEAEAEBB
310
BBBBC9C9C9D6D6D6E4E4E4F1F1F1FFFFFF0000000000000000000000000000000000000000000000000000000000002E4550F1000003364944415478DAED9C3B9684201045D981DB3061FF59276CC345BCC47C5A452D10143FD30255EFCC714491864B1522A04A05845966951EFFFC5D1B762F1F8E914BA1E7AB42B287B1FE
310
E82AF596E69FD6E4989E8266DDA5A7B649F8BBD0E1DFD23BD950EF1110000240000400CC7A1E405B0400652D403D0AA09DC417808A95BF1800ED4D0B08DB7F1E0048D6B4AB070144EA3F0F009BAC19FFC037FBD7010C17B78B22DDB1373A82010B880178C0020EFAA36F025029006E3582AD6E156B00E574847E03E08B1ECC
310
01801D809EC81D0D606701FDB8413F5FC61300D80298BDA0B7ED404600100380FF7081E11F18BBC00000E310295B0BC86F54F80D1778B3F8645E607AF4858E683D9F0020920ABC46B05F1BC1F785A97E602B6A1E145D02F604922C0081CAD7DB888BEB0B803C002C966E0785A0FDC00D005A0FF7FDD5F6D77E00DE6D03BC52
310
20F688BA53572900361181B75BBFF701205B003663509BC06300543ECEEF0188EA14800541F0A19F9CCE0EC051F5240348549D0082633E79D5F74F00A04C00010725E53802508AC1C74B8130009CB38A7069F30670BDD52AB1C9BB5C3B5997E16100C12A1300F502A8C08D450FCB080001C09BA100A81D4047D56C6502C79A
310
6FD4587AA949644480E69E9E6869F5392B9B1AEF32154B226E010220CF7E5FB3EC2D4B19C7DC7BCB1AAB01308CDC76EA9205C4DB80D200B07681C90BC8A2ADC659C1356E0D0D90689500D8CB1668EE919A7B01200004405500E04E8BF202101D056302E05AEE054039002000048000F82500E75EC2B1111400DC6F83AC00CC
310
FDC7CF20336E3FBC008CDB0F4DE24B83378025C8D6020480B88000600300CC01A01400DBB94193A4295A2849FBA93CE7BB7C31956E0191E5724559C00D00D1F58205358277C60350C35D40005C07806AFA017BD3E33D9D1EEFFD89F3AE06005333468AD2A47D4A6B2C5E7716C0A71E00CD3180C080883322925347A8735746
310
1D01B091525688C04D223B00939C3542E916900E00065903B8E802A700206F0064A96CDBF9329B235D3B2C954D0260BFD71D9862CF09C0FE0D3E6001A8657A5C002400581C980B808D4CE0A5B18A013C34242600048000A81940C31C4053B305A4BDF2752E85DCDF1A3B90BC3829002A03F0078D92B28A0E12182A00000000
310
49454E44AE426082
  0
ENDSEC
  0
EOF
