  0
SECTION
  2
HEADER
  9
$ACADVER
  1
AC1032
  9
$ACADMAINTVER
 90
      228
  9
$DWGCODEPAGE
  3
ANSI_932
  9
$LASTSAVEDBY
  1
松田智彦
  9
$REQUIREDVERSIONS
160
                 0
  9
$INSBASE
 10
0.0
 20
0.0
 30
0.0
  9
$EXTMIN
 10
-317.4271250344877
 20
-940.1152932376781
 30
-0.0015258207003583
  9
$EXTMAX
 10
917.1422433168414
 20
742.5986936746367
 30
0.0000000349246037
  9
$LIMMIN
 10
-302.0
 20
-689.0
  9
$LIMMAX
 10
615.0
 20
462.0
  9
$ORTHOMODE
 70
     1
  9
$REGENMODE
 70
     1
  9
$FILLMODE
 70
     1
  9
$QTEXTMODE
 70
     0
  9
$MIRRTEXT
 70
     1
  9
$LTSCALE
 40
20.0
  9
$ATTMODE
 70
     1
  9
$TEXTSIZE
 40
5.0
  9
$TRACEWID
 40
0.05
  9
$TEXTSTYLE
  7
STANDARD1
  9
$CLAYER
  8
30
  9
$CELTYPE
  6
CONTINUOUS
  9
$CECOLOR
 62
   256
  9
$CELTSCALE
 40
1.0
  9
$DISPSILH
 70
     0
  9
$DIMSCALE
 40
1.0
  9
$DIMASZ
 40
2.0
  9
$DIMEXO
 40
10.0
  9
$DIMDLI
 40
0.5
  9
$DIMRND
 40
0.0
  9
$DIMDLE
 40
0.0
  9
$DIMEXE
 40
0.5
  9
$DIMTP
 40
0.0
  9
$DIMTM
 40
0.0
  9
$DIMTXT
 40
10.0
  9
$DIMCEN
 40
0.09
  9
$DIMTSZ
 40
0.0
  9
$DIMTOL
 70
     0
  9
$DIMLIM
 70
     0
  9
$DIMTIH
 70
     0
  9
$DIMTOH
 70
     1
  9
$DIMSE1
 70
     0
  9
$DIMSE2
 70
     0
  9
$DIMTAD
 70
     3
  9
$DIMZIN
 70
    12
  9
$DIMBLK
  1
OPEN
  9
$DIMASO
 70
     1
  9
$DIMSHO
 70
     1
  9
$DIMPOST
  1

  9
$DIMAPOST
  1

  9
$DIMALT
 70
     0
  9
$DIMALTD
 70
     2
  9
$DIMALTF
 40
25.4
  9
$DIMLFAC
 40
1.0
  9
$DIMTOFL
 70
     0
  9
$DIMTVP
 40
0.0
  9
$DIMTIX
 70
     0
  9
$DIMSOXD
 70
     0
  9
$DIMSAH
 70
     0
  9
$DIMBLK1
  1

  9
$DIMBLK2
  1

  9
$DIMSTYLE
  2
STANDARD
  9
$DIMCLRD
 70
     0
  9
$DIMCLRE
 70
     0
  9
$DIMCLRT
 70
     0
  9
$DIMTFAC
 40
1.0
  9
$DIMGAP
 40
1.0
  9
$DIMJUST
 70
     0
  9
$DIMSD1
 70
     0
  9
$DIMSD2
 70
     0
  9
$DIMTOLJ
 70
     1
  9
$DIMTZIN
 70
     0
  9
$DIMALTZ
 70
     0
  9
$DIMALTTZ
 70
     0
  9
$DIMUPT
 70
     0
  9
$DIMDEC
 70
     1
  9
$DIMTDEC
 70
     1
  9
$DIMALTU
 70
     2
  9
$DIMALTTD
 70
     2
  9
$DIMTXSTY
  7
STANDARD
  9
$DIMAUNIT
 70
     0
  9
$DIMADEC
 70
     0
  9
$DIMALTRND
 40
0.0
  9
$DIMAZIN
 70
     3
  9
$DIMDSEP
 70
    46
  9
$DIMATFIT
 70
     3
  9
$DIMFRAC
 70
     0
  9
$DIMLDRBLK
  1
OPEN
  9
$DIMLUNIT
 70
     2
  9
$DIMLWD
 70
    -2
  9
$DIMLWE
 70
    -2
  9
$DIMTMOVE
 70
     0
  9
$DIMFXL
 40
1.0
  9
$DIMFXLON
 70
     0
  9
$DIMJOGANG
 40
0.7853981633974483
  9
$DIMTFILL
 70
     0
  9
$DIMTFILLCLR
 70
     0
  9
$DIMARCSYM
 70
     0
  9
$DIMLTYPE
  6

  9
$DIMLTEX1
  6

  9
$DIMLTEX2
  6

  9
$DIMTXTDIRECTION
 70
     0
  9
$LUNITS
 70
     2
  9
$LUPREC
 70
     4
  9
$SKETCHINC
 40
0.1
  9
$FILLETRAD
 40
0.0
  9
$AUNITS
 70
     0
  9
$AUPREC
 70
     0
  9
$MENU
  1
.
  9
$ELEVATION
 40
0.0
  9
$PELEVATION
 40
0.0
  9
$THICKNESS
 40
0.0
  9
$LIMCHECK
 70
     0
  9
$CHAMFERA
 40
0.0
  9
$CHAMFERB
 40
0.0
  9
$CHAMFERC
 40
0.0
  9
$CHAMFERD
 40
0.0
  9
$SKPOLY
 70
     0
  9
$TDCREATE
 40
2452286.555648148
  9
$TDUCREATE
 40
2452286.180658658
  9
$TDUPDATE
 40
2459933.545335648
  9
$TDUUPDATE
 40
2459933.170335649
  9
$TDINDWG
 40
1.5147606829
  9
$TDUSRTIMER
 40
1.5147603356
  9
$USRTIMER
 70
     1
  9
$ANGBASE
 50
0.0
  9
$ANGDIR
 70
     0
  9
$PDMODE
 70
     0
  9
$PDSIZE
 40
0.0
  9
$PLINEWID
 40
0.0
  9
$SPLFRAME
 70
     0
  9
$SPLINETYPE
 70
     6
  9
$SPLINESEGS
 70
     8
  9
$HANDSEED
  5
8374
  9
$SURFTAB1
 70
     6
  9
$SURFTAB2
 70
     6
  9
$SURFTYPE
 70
     6
  9
$SURFU
 70
     6
  9
$SURFV
 70
     6
  9
$UCSBASE
  2

  9
$UCSNAME
  2

  9
$UCSORG
 10
0.0
 20
0.0
 30
0.0
  9
$UCSXDIR
 10
1.0
 20
0.0
 30
0.0
  9
$UCSYDIR
 10
0.0
 20
1.0
 30
0.0
  9
$UCSORTHOREF
  2

  9
$UCSORTHOVIEW
 70
     0
  9
$UCSORGTOP
 10
0.0
 20
0.0
 30
0.0
  9
$UCSORGBOTTOM
 10
0.0
 20
0.0
 30
0.0
  9
$UCSORGLEFT
 10
0.0
 20
0.0
 30
0.0
  9
$UCSORGRIGHT
 10
0.0
 20
0.0
 30
0.0
  9
$UCSORGFRONT
 10
0.0
 20
0.0
 30
0.0
  9
$UCSORGBACK
 10
0.0
 20
0.0
 30
0.0
  9
$PUCSBASE
  2

  9
$PUCSNAME
  2

  9
$PUCSORG
 10
0.0
 20
0.0
 30
0.0
  9
$PUCSXDIR
 10
1.0
 20
0.0
 30
0.0
  9
$PUCSYDIR
 10
0.0
 20
1.0
 30
0.0
  9
$PUCSORTHOREF
  2

  9
$PUCSORTHOVIEW
 70
     0
  9
$PUCSORGTOP
 10
0.0
 20
0.0
 30
0.0
  9
$PUCSORGBOTTOM
 10
0.0
 20
0.0
 30
0.0
  9
$PUCSORGLEFT
 10
0.0
 20
0.0
 30
0.0
  9
$PUCSORGRIGHT
 10
0.0
 20
0.0
 30
0.0
  9
$PUCSORGFRONT
 10
0.0
 20
0.0
 30
0.0
  9
$PUCSORGBACK
 10
0.0
 20
0.0
 30
0.0
  9
$USERI1
 70
     0
  9
$USERI2
 70
     0
  9
$USERI3
 70
     0
  9
$USERI4
 70
     0
  9
$USERI5
 70
     0
  9
$USERR1
 40
0.0
  9
$USERR2
 40
0.0
  9
$USERR3
 40
0.0
  9
$USERR4
 40
0.0
  9
$USERR5
 40
0.0
  9
$WORLDVIEW
 70
     1
  9
$SHADEDGE
 70
     3
  9
$SHADEDIF
 70
    70
  9
$TILEMODE
 70
     1
  9
$MAXACTVP
 70
    48
  9
$PINSBASE
 10
0.0
 20
0.0
 30
0.0
  9
$PLIMCHECK
 70
     0
  9
$PEXTMIN
 10
4.273573370203961
 20
5.205246163471485
 30
0.0
  9
$PEXTMAX
 10
194.6100952986349
 20
283.0697008572913
 30
0.0
  9
$PLIMMIN
 10
-5.873748779296875
 20
-5.873749732971191
  9
$PLIMMAX
 10
204.0995788574218
 20
291.1369009017943
  9
$UNITMODE
 70
     0
  9
$VISRETAIN
 70
     1
  9
$PLINEGEN
 70
     0
  9
$PSLTSCALE
 70
     1
  9
$TREEDEPTH
 70
  3020
  9
$CMLSTYLE
  2
STANDARD
  9
$CMLJUST
 70
     0
  9
$CMLSCALE
 40
1.0
  9
$PROXYGRAPHICS
 70
     1
  9
$MEASUREMENT
 70
     0
  9
$CELWEIGHT
370
    -1
  9
$ENDCAPS
280
     0
  9
$JOINSTYLE
280
     0
  9
$LWDISPLAY
290
     0
  9
$INSUNITS
 70
     0
  9
$HYPERLINKBASE
  1

  9
$STYLESHEET
  1
ACAD.CTB
  9
$XEDIT
290
     1
  9
$CEPSNTYPE
380
     0
  9
$PSTYLEMODE
290
     1
  9
$FINGERPRINTGUID
  2

  9
$VERSIONGUID
  2
{68827995-AE75-A944-8754-003B38355CC3}
  9
$EXTNAMES
290
     1
  9
$PSVPSCALE
 40
0.0
  9
$OLESTARTUP
290
     0
  9
$SORTENTS
280
   127
  9
$INDEXCTL
280
     0
  9
$HIDETEXT
280
     0
  9
$XCLIPFRAME
280
     2
  9
$HALOGAP
280
     0
  9
$OBSCOLOR
 70
   257
  9
$OBSLTYPE
280
     0
  9
$INTERSECTIONDISPLAY
280
     0
  9
$INTERSECTIONCOLOR
 70
   257
  9
$DIMASSOC
280
     1
  9
$PROJECTNAME
  1

  9
$CAMERADISPLAY
290
     0
  9
$LENSLENGTH
 40
50.0
  9
$CAMERAHEIGHT
 40
0.0
  9
$STEPSPERSEC
 40
2.0
  9
$STEPSIZE
 40
6.0
  9
$3DDWFPREC
 40
2.0
  9
$PSOLWIDTH
 40
0.25
  9
$PSOLHEIGHT
 40
4.0
  9
$LOFTANG1
 40
1.570796326794896
  9
$LOFTANG2
 40
1.570796326794896
  9
$LOFTMAG1
 40
0.0
  9
$LOFTMAG2
 40
0.0
  9
$LOFTPARAM
 70
     7
  9
$LOFTNORMALS
280
     1
  9
$LATITUDE
 40
37.795
  9
$LONGITUDE
 40
-122.394
  9
$NORTHDIRECTION
 40
0.0
  9
$TIMEZONE
 70
 -8000
  9
$LIGHTGLYPHDISPLAY
280
     1
  9
$TILEMODELIGHTSYNCH
280
     1
  9
$CMATERIAL
347
82E8
  9
$SOLIDHIST
280
     0
  9
$SHOWHIST
280
     1
  9
$DWFFRAME
280
     2
  9
$DGNFRAME
280
     0
  9
$REALWORLDSCALE
290
     1
  9
$INTERFERECOLOR
 62
     1
  9
$INTERFEREOBJVS
345
830A
  9
$INTERFEREVPVS
346
8307
  9
$CSHADOW
280
     0
  9
$SHADOWPLANELOCATION
 40
0.0
  0
ENDSEC
  0
SECTION
  2
CLASSES
  0
CLASS
  1
ACDBDICTIONARYWDFLT
  2
AcDbDictionaryWithDefault
  3
ObjectDBX Classes
 90
        0
 91
        1
280
     0
281
     0
  0
CLASS
  1
DICTIONARYVAR
  2
AcDbDictionaryVar
  3
ObjectDBX Classes
 90
        0
 91
       11
280
     0
281
     0
  0
CLASS
  1
MATERIAL
  2
AcDbMaterial
  3
ObjectDBX Classes
 90
     1153
 91
        3
280
     0
281
     0
  0
CLASS
  1
VISUALSTYLE
  2
AcDbVisualStyle
  3
ObjectDBX Classes
 90
     4095
 91
       24
280
     0
281
     0
  0
CLASS
  1
TABLESTYLE
  2
AcDbTableStyle
  3
ObjectDBX Classes
 90
     4095
 91
        1
280
     0
281
     0
  0
CLASS
  1
SCALE
  2
AcDbScale
  3
ObjectDBX Classes
 90
     1153
 91
       17
280
     0
281
     0
  0
CLASS
  1
MLEADERSTYLE
  2
AcDbMLeaderStyle
  3
ACDB_MLEADERSTYLE_CLASS
 90
     4095
 91
        1
280
     0
281
     0
  0
CLASS
  1
ACDBSECTIONVIEWSTYLE
  2
AcDbSectionViewStyle
  3
ObjectDBX Classes
 90
     1025
 91
        1
280
     0
281
     0
  0
CLASS
  1
ACDBDETAILVIEWSTYLE
  2
AcDbDetailViewStyle
  3
ObjectDBX Classes
 90
     1025
 91
        1
280
     0
281
     0
  0
CLASS
  1
CELLSTYLEMAP
  2
AcDbCellStyleMap
  3
ObjectDBX Classes
 90
     1152
 91
        1
280
     0
281
     0
  0
ENDSEC
  0
SECTION
  2
TABLES
  0
TABLE
  2
VPORT
  5
8
330
0
100
AcDbSymbolTable
 70
     1
  0
VPORT
  5
82DF
330
8
100
AcDbSymbolTableRecord
100
AcDbViewportTableRecord
  2
*Active
 70
     0
 10
0.0
 20
0.0
 11
1.0
 21
1.0
 12
299.857559141177
 22
-98.75829978152069
 13
0.0
 23
0.0
 14
1.0
 24
1.0
 15
10.0
 25
10.0
 16
0.0
 26
0.0
 36
1.0
 17
0.0
 27
0.0
 37
0.0
 40
1695.42970973533
 41
2.404791929382093
 42
50.0
 43
0.0
 44
0.0
 50
0.0
 51
0.0
 71
     0
 72
   100
 73
     1
 74
     1
 75
     0
 76
     0
 77
     0
 78
     0
281
     0
 65
     1
110
0.0
120
0.0
130
0.0
111
1.0
121
0.0
131
0.0
112
0.0
122
1.0
132
0.0
 79
     0
146
0.0
348
8306
 60
     3
 61
     5
292
     1
282
     1
141
0.0
142
0.0
 63
   250
421
  3355443
1001
ACAD_NAV_VCDISPLAY
1070
     3
  0
ENDTAB
  0
TABLE
  2
LTYPE
  5
5
330
0
100
AcDbSymbolTable
 70
    18
  0
LTYPE
  5
13
330
5
100
AcDbSymbolTableRecord
100
AcDbLinetypeTableRecord
  2
BYBLOCK
 70
     0
  3

 72
    65
 73
     0
 40
0.0
  0
LTYPE
  5
14
330
5
100
AcDbSymbolTableRecord
100
AcDbLinetypeTableRecord
  2
BYLAYER
 70
     0
  3

 72
    65
 73
     0
 40
0.0
  0
LTYPE
  5
15
330
5
100
AcDbSymbolTableRecord
100
AcDbLinetypeTableRecord
  2
CONTINUOUS
 70
     0
  3
Solid line
 72
    65
 73
     0
 40
0.0
  0
LTYPE
  5
22
330
5
100
AcDbSymbolTableRecord
100
AcDbLinetypeTableRecord
  2
CONTINOUS
 70
     0
  3
Solid line
 72
    65
 73
     0
 40
0.0
  0
LTYPE
  5
23
330
5
100
AcDbSymbolTableRecord
100
AcDbLinetypeTableRecord
  2
DASHED
 70
     0
  3
__ __ __ __ __ __ __ __ __ __ __ __ __ __ __
 72
    65
 73
     2
 40
0.75
 49
0.5
 74
     0
 49
-0.25
 74
     0
  0
LTYPE
  5
24
330
5
100
AcDbSymbolTableRecord
100
AcDbLinetypeTableRecord
  2
DASHDOT
 70
     0
  3
__ . __ . __ . __ . __ . __ . __ . __ . __ . __
 72
    65
 73
     4
 40
1.0
 49
0.5
 74
     0
 49
-0.25
 74
     0
 49
0.0
 74
     0
 49
-0.25
 74
     0
  0
LTYPE
  5
4C47
330
5
100
AcDbSymbolTableRecord
100
AcDbLinetypeTableRecord
  2
DIVIDE
 70
     0
  3
Divide ____ . . ____ . . ____ . . ____ . . ____
 72
    65
 73
     6
 40
1.25
 49
0.5
 74
     0
 49
-0.25
 74
     0
 49
0.0
 74
     0
 49
-0.25
 74
     0
 49
0.0
 74
     0
 49
-0.25
 74
     0
  0
LTYPE
  5
4F58
330
5
100
AcDbSymbolTableRecord
100
AcDbLinetypeTableRecord
  2
D329
 70
     0
  3
IGESIN-LineFont-D329
 72
    65
 73
     2
 40
1.35
 49
0.75
 74
     0
 49
-0.6
 74
     0
  0
LTYPE
  5
5061
330
5
100
AcDbSymbolTableRecord
100
AcDbLinetypeTableRecord
  2
D341
 70
     0
  3
IGESIN-LineFont-D341
 72
    65
 73
     4
 40
9.449999999999999
 49
7.5
 74
     0
 49
-0.6
 74
     0
 49
0.75
 74
     0
 49
-0.6
 74
     0
  0
LTYPE
  5
60FF
330
5
100
AcDbSymbolTableRecord
100
AcDbLinetypeTableRecord
  2
D325
 70
     0
  3
IGESIN-LineFont-D325
 72
    65
 73
     2
 40
1.35
 49
0.75
 74
     0
 49
-0.6
 74
     0
  0
LTYPE
  5
6314
330
5
100
AcDbSymbolTableRecord
100
AcDbLinetypeTableRecord
  2
D131
 70
     0
  3
IGESIN-LineFont-D131
 72
    65
 73
     6
 40
11.29999999999999
 49
8.0
 74
     0
 49
-0.6
 74
     0
 49
0.75
 74
     0
 49
-0.6
 74
     0
 49
0.75
 74
     0
 49
-0.6
 74
     0
  0
LTYPE
  5
6795
330
5
100
AcDbSymbolTableRecord
100
AcDbLinetypeTableRecord
  2
D1559
 70
     0
  3
IGESIN-LineFont-D1559
 72
    65
 73
     2
 40
1.35
 49
0.75
 74
     0
 49
-0.6
 74
     0
  0
LTYPE
  5
68E2
330
5
100
AcDbSymbolTableRecord
100
AcDbLinetypeTableRecord
  2
D1101
 70
     0
  3
IGESIN-LineFont-D1101
 72
    65
 73
     6
 40
11.29999999999999
 49
8.0
 74
     0
 49
-0.6
 74
     0
 49
0.75
 74
     0
 49
-0.6
 74
     0
 49
0.75
 74
     0
 49
-0.6
 74
     0
  0
LTYPE
  5
7068
330
5
100
AcDbSymbolTableRecord
100
AcDbLinetypeTableRecord
  2
D159
 70
     0
  3
IGESIN-LineFont-D159
 72
    65
 73
     6
 40
11.29999999999999
 49
8.0
 74
     0
 49
-0.6
 74
     0
 49
0.75
 74
     0
 49
-0.6
 74
     0
 49
0.75
 74
     0
 49
-0.6
 74
     0
  0
LTYPE
  5
7069
330
5
100
AcDbSymbolTableRecord
100
AcDbLinetypeTableRecord
  2
D1485
 70
     0
  3
IGESIN-LineFont-D1485
 72
    65
 73
     2
 40
1.35
 49
0.75
 74
     0
 49
-0.6
 74
     0
  0
LTYPE
  5
7523
330
5
100
AcDbSymbolTableRecord
100
AcDbLinetypeTableRecord
  2
D501
 70
     0
  3
IGESIN-LineFont-D501
 72
    65
 73
     6
 40
11.29999999999999
 49
8.0
 74
     0
 49
-0.6
 74
     0
 49
0.75
 74
     0
 49
-0.6
 74
     0
 49
0.75
 74
     0
 49
-0.6
 74
     0
  0
LTYPE
  5
7524
330
5
100
AcDbSymbolTableRecord
100
AcDbLinetypeTableRecord
  2
D533
 70
     0
  3
IGESIN-LineFont-D533
 72
    65
 73
     2
 40
1.35
 49
0.75
 74
     0
 49
-0.6
 74
     0
  0
LTYPE
  5
7C91
330
5
100
AcDbSymbolTableRecord
100
AcDbLinetypeTableRecord
  2
D125
 70
     0
  3
IGESIN-LineFont-D125
 72
    65
 73
     2
 40
1.35
 49
0.75
 74
     0
 49
-0.6
 74
     0
  0
LTYPE
  5
7C92
330
5
100
AcDbSymbolTableRecord
100
AcDbLinetypeTableRecord
  2
D267
 70
     0
  3
IGESIN-LineFont-D267
 72
    65
 73
     6
 40
11.29999999999999
 49
8.0
 74
     0
 49
-0.6
 74
     0
 49
0.75
 74
     0
 49
-0.6
 74
     0
 49
0.75
 74
     0
 49
-0.6
 74
     0
  0
ENDTAB
  0
TABLE
  2
LAYER
  5
2
330
0
100
AcDbSymbolTable
 70
    20
  0
LAYER
  5
10
102
{ACAD_XDICTIONARY
360
8341
102
}
330
2
100
AcDbSymbolTableRecord
100
AcDbLayerTableRecord
  2
0
 70
     0
 62
     7
  6
CONTINOUS
370
    -3
390
F
347
82F8
348
0
  0
LAYER
  5
2F
102
{ACAD_XDICTIONARY
360
8343
102
}
330
2
100
AcDbSymbolTableRecord
100
AcDbLayerTableRecord
  2
10
 70
     0
 62
     4
  6
CONTINOUS
370
    -3
390
F
347
82F8
348
0
  0
LAYER
  5
31
102
{ACAD_XDICTIONARY
360
8345
102
}
330
2
100
AcDbSymbolTableRecord
100
AcDbLayerTableRecord
  2
12
 70
     0
 62
     3
  6
CONTINOUS
370
    -3
390
F
347
82F8
348
0
  0
LAYER
  5
35
102
{ACAD_XDICTIONARY
360
8347
102
}
330
2
100
AcDbSymbolTableRecord
100
AcDbLayerTableRecord
  2
16
 70
     0
 62
     6
  6
DASHDOT
370
    -3
390
F
347
82F8
348
0
  0
LAYER
  5
38
102
{ACAD_XDICTIONARY
360
8349
102
}
330
2
100
AcDbSymbolTableRecord
100
AcDbLayerTableRecord
  2
19
 70
     0
 62
     7
  6
CONTINOUS
370
    -3
390
F
347
82F8
348
0
  0
LAYER
  5
3C
102
{ACAD_XDICTIONARY
360
834B
102
}
330
2
100
AcDbSymbolTableRecord
100
AcDbLayerTableRecord
  2
11
 70
     0
 62
     1
  6
CONTINOUS
370
    -3
390
F
347
82F8
348
0
  0
LAYER
  5
3D
102
{ACAD_XDICTIONARY
360
834D
102
}
330
2
100
AcDbSymbolTableRecord
100
AcDbLayerTableRecord
  2
24
 70
     0
 62
     2
  6
CONTINOUS
370
    -3
390
F
347
82F8
348
0
  0
LAYER
  5
3A2
102
{ACAD_XDICTIONARY
360
834F
102
}
330
2
100
AcDbSymbolTableRecord
100
AcDbLayerTableRecord
  2
30
 70
     0
 62
     9
  6
CONTINUOUS
370
    -3
390
F
347
82F8
348
0
  0
LAYER
  5
3A4
330
2
100
AcDbSymbolTableRecord
100
AcDbLayerTableRecord
  2
DEFPOINTS
 70
     0
 62
     7
  6
CONTINUOUS
290
     0
370
    -3
390
F
347
82F8
348
0
  0
LAYER
  5
3BBA
102
{ACAD_XDICTIONARY
360
8351
102
}
330
2
100
AcDbSymbolTableRecord
100
AcDbLayerTableRecord
  2
18
 70
     0
 62
     5
  6
DIVIDE
370
    -3
390
F
347
82F8
348
0
  0
LAYER
  5
3BBB
102
{ACAD_XDICTIONARY
360
8353
102
}
330
2
100
AcDbSymbolTableRecord
100
AcDbLayerTableRecord
  2
21
 70
     0
 62
     7
  6
CONTINUOUS
370
    -3
390
F
347
82F8
348
0
  0
LAYER
  5
5797
102
{ACAD_XDICTIONARY
360
8355
102
}
330
2
100
AcDbSymbolTableRecord
100
AcDbLayerTableRecord
  2
L210_
 70
     0
 62
     7
  6
CONTINUOUS
370
    -3
390
F
347
82F8
348
0
  0
LAYER
  5
5D4D
102
{ACAD_XDICTIONARY
360
8357
102
}
330
2
100
AcDbSymbolTableRecord
100
AcDbLayerTableRecord
  2
17
 70
     0
 62
     2
  6
DASHDOT
370
    -3
390
F
347
82F8
348
0
  0
LAYER
  5
6100
102
{ACAD_XDICTIONARY
360
8359
102
}
330
2
100
AcDbSymbolTableRecord
100
AcDbLayerTableRecord
  2
L10_
 70
     0
 62
     7
  6
CONTINUOUS
370
    -3
390
F
347
82F8
348
0
  0
LAYER
  5
6796
102
{ACAD_XDICTIONARY
360
835B
102
}
330
2
100
AcDbSymbolTableRecord
100
AcDbLayerTableRecord
  2
L0_
 70
     0
 62
     7
  6
CONTINUOUS
370
    -3
390
F
347
82F8
348
0
  0
LAYER
  5
6797
102
{ACAD_XDICTIONARY
360
835D
102
}
330
2
100
AcDbSymbolTableRecord
100
AcDbLayerTableRecord
  2
L150_
 70
     0
 62
     7
  6
CONTINUOUS
370
    -3
390
F
347
82F8
348
0
  0
LAYER
  5
6798
102
{ACAD_XDICTIONARY
360
835F
102
}
330
2
100
AcDbSymbolTableRecord
100
AcDbLayerTableRecord
  2
L225_
 70
     0
 62
     7
  6
CONTINUOUS
370
    -3
390
F
347
82F8
348
0
  0
LAYER
  5
6B44
102
{ACAD_XDICTIONARY
360
8361
102
}
330
2
100
AcDbSymbolTableRecord
100
AcDbLayerTableRecord
  2
L170_
 70
     0
 62
     7
  6
CONTINUOUS
370
    -3
390
F
347
82F8
348
0
  0
LAYER
  5
706A
102
{ACAD_XDICTIONARY
360
8363
102
}
330
2
100
AcDbSymbolTableRecord
100
AcDbLayerTableRecord
  2
L230_
 70
     0
 62
     7
  6
CONTINUOUS
370
    -3
390
F
347
82F8
348
0
  0
LAYER
  5
7525
102
{ACAD_XDICTIONARY
360
8365
102
}
330
2
100
AcDbSymbolTableRecord
100
AcDbLayerTableRecord
  2
L100_
 70
     0
 62
     7
  6
CONTINUOUS
370
    -3
390
F
347
82F8
348
0
  0
ENDTAB
  0
TABLE
  2
STYLE
  5
3
330
0
100
AcDbSymbolTable
 70
     5
  0
STYLE
  5
11
330
3
100
AcDbSymbolTableRecord
100
AcDbTextStyleTableRecord
  2
STANDARD
 70
     0
 40
0.0
 41
1.0
 50
0.0
 71
     0
 42
2.0
  3
txt.shx
  4
bigfont.shx
  0
STYLE
  5
42
330
3
100
AcDbSymbolTableRecord
100
AcDbTextStyleTableRecord
  2
STANDARD1
 70
     0
 40
0.0
 41
1.0
 50
0.0
 71
     0
 42
5.0
  3
MONOTXT
  4
BIGFONT
  0
STYLE
  5
4C46
330
3
100
AcDbSymbolTableRecord
100
AcDbTextStyleTableRecord
  2

 70
     1
 40
0.0
 41
1.0
 50
0.0
 71
     0
 42
5.0
  3
ltypeshp.shx
  4

  0
STYLE
  5
4F59
330
3
100
AcDbSymbolTableRecord
100
AcDbTextStyleTableRecord
  2
SYMBOL3
 70
     0
 40
0.0
 41
1.0
 50
0.0
 71
     0
 42
0.2
  3
iges1003
  4

  0
STYLE
  5
706B
330
3
100
AcDbSymbolTableRecord
100
AcDbTextStyleTableRecord
  2
LEROY
 70
     0
 40
0.0
 41
1.0
 50
0.0
 71
     0
 42
0.2
  3
txt
  4

  0
ENDTAB
  0
TABLE
  2
VIEW
  5
6
330
0
100
AcDbSymbolTable
 70
     3
  0
VIEW
  5
230C
330
6
100
AcDbSymbolTableRecord
100
AcDbViewTableRecord
  2
OLE1
 70
     0
 40
148.9124878027714
 10
429.4976280407222
 20
2.560626997828478
 41
103.1458057716444
 11
0.0
 21
0.0
 31
1.0
 12
0.0
 22
0.0
 32
0.0
 42
50.0
 43
0.0
 44
0.0
 50
0.0
 71
     0
281
     0
 72
     0
 73
     0
348
8306
  0
VIEW
  5
230E
330
6
100
AcDbSymbolTableRecord
100
AcDbViewTableRecord
  2
OLE2
 70
     0
 40
170.7786920545775
 10
322.664969958371
 20
-5.978304054290276
 41
102.4672152327465
 11
0.0
 21
0.0
 31
1.0
 12
0.0
 22
0.0
 32
0.0
 42
50.0
 43
0.0
 44
0.0
 50
0.0
 71
     0
281
     0
 72
     0
 73
     0
348
8306
  0
VIEW
  5
23AA
330
6
100
AcDbSymbolTableRecord
100
AcDbViewTableRecord
  2
OLE3
 70
     0
 40
591.7897393182231
 10
84.79698158148218
 20
-46.09336010803995
 41
388.7920961799953
 11
0.0
 21
0.0
 31
1.0
 12
0.0
 22
0.0
 32
0.0
 42
50.0
 43
0.0
 44
0.0
 50
0.0
 71
     0
281
     0
 72
     0
 73
     0
348
8306
  0
ENDTAB
  0
TABLE
  2
UCS
  5
7
330
0
100
AcDbSymbolTable
 70
     0
  0
ENDTAB
  0
TABLE
  2
APPID
  5
9
330
0
100
AcDbSymbolTable
 70
     4
  0
APPID
  5
12
330
9
100
AcDbSymbolTableRecord
100
AcDbRegAppTableRecord
  2
ACAD
 70
     0
  0
APPID
  5
ECD
330
9
100
AcDbSymbolTableRecord
100
AcDbRegAppTableRecord
  2
CONTENTBLOCKICON
 70
     0
  0
APPID
  5
8339
330
9
100
AcDbSymbolTableRecord
100
AcDbRegAppTableRecord
  2
ACAD_EXEMPT_FROM_CAD_STANDARDS
 70
     0
  0
APPID
  5
8370
330
9
100
AcDbSymbolTableRecord
100
AcDbRegAppTableRecord
  2
ACAD_NAV_VCDISPLAY
 70
     0
  0
ENDTAB
  0
TABLE
  2
DIMSTYLE
  5
A
330
0
100
AcDbSymbolTable
 70
     2
100
AcDbDimStyleTable
 71
     1
340
175
  0
DIMSTYLE
105
175
102
{ACAD_REACTORS
330
53C7
330
53C8
330
53C9
330
53CB
330
53CC
330
53D2
330
53D3
330
5F77
330
78DB
330
78E8
330
78F5
330
7902
330
7929
330
793F
330
794C
330
7959
330
7E52
330
7E5F
330
7E6C
330
7E81
330
7E8E
330
7E9B
330
7EA7
330
7EB4
330
7EC1
330
7ECE
330
7EDB
330
7EE8
330
7F3E
330
7FF0
330
7FFD
330
8122
330
812F
330
81E1
330
81E3
330
5739
102
}
330
A
100
AcDbSymbolTableRecord
100
AcDbDimStyleTableRecord
  2
STANDARD
 70
     0
 41
2.0
 42
10.0
 43
0.5
 44
0.5
 73
     0
 77
     3
 78
    12
140
10.0
147
1.0
271
     1
272
     1
340
11
341
3B2
342
3B2
  0
ENDTAB
  0
TABLE
  2
BLOCK_RECORD
  5
1
330
0
100
AcDbSymbolTable
 70
    48
  0
BLOCK_RECORD
  5
1E
102
{ACAD_XDICTIONARY
360
178
102
}
330
1
100
AcDbSymbolTableRecord
100
AcDbBlockTableRecord
  2
*MODEL_SPACE
340
82D1
 70
     0
280
     1
281
     0
  0
BLOCK_RECORD
  5
1A
102
{ACAD_XDICTIONARY
360
17A
102
}
330
1
100
AcDbSymbolTableRecord
100
AcDbBlockTableRecord
  2
*PAPER_SPACE
340
82D2
 70
     0
280
     1
281
     0
  0
BLOCK_RECORD
  5
3B2
330
1
100
AcDbSymbolTableRecord
100
AcDbBlockTableRecord
  2
_OPEN
340
0
102
{BLKREFS
331
81EE
331
81EF
331
82C4
331
82C5
331
8134
331
8135
331
81BC
331
81BD
331
81C8
331
81C9
331
8127
331
8128
331
805B
331
805C
331
8064
331
8065
331
8298
331
8299
331
8078
331
8079
331
82A0
331
82A1
331
808A
331
8092
331
8093
331
82A9
331
82AA
331
80A4
331
80A5
331
82B2
331
82B3
331
82BB
331
82BC
331
80C0
331
80C1
331
80C9
331
80CA
331
8105
331
8106
331
80DD
331
80DE
331
5F6E
331
5F6F
331
8014
331
8015
331
801D
331
801E
331
8026
331
8027
331
802F
331
8030
331
8038
331
8039
331
8041
331
8042
331
828C
331
828D
331
8053
102
}
 70
     0
280
     1
281
     0
  0
BLOCK_RECORD
  5
5372
330
1
100
AcDbSymbolTableRecord
100
AcDbBlockTableRecord
  2
*D1
340
0
 70
     0
280
     1
281
     0
  0
BLOCK_RECORD
  5
537E
330
1
100
AcDbSymbolTableRecord
100
AcDbBlockTableRecord
  2
*D2
340
0
 70
     0
280
     1
281
     0
  0
BLOCK_RECORD
  5
538A
330
1
100
AcDbSymbolTableRecord
100
AcDbBlockTableRecord
  2
*D3
340
0
 70
     0
280
     1
281
     0
  0
BLOCK_RECORD
  5
5396
330
1
100
AcDbSymbolTableRecord
100
AcDbBlockTableRecord
  2
*D4
340
0
 70
     0
280
     1
281
     0
  0
BLOCK_RECORD
  5
53A2
330
1
100
AcDbSymbolTableRecord
100
AcDbBlockTableRecord
  2
*D5
340
0
 70
     0
280
     1
281
     0
  0
BLOCK_RECORD
  5
53AE
330
1
100
AcDbSymbolTableRecord
100
AcDbBlockTableRecord
  2
*D6
340
0
 70
     0
280
     1
281
     0
  0
BLOCK_RECORD
  5
53BA
330
1
100
AcDbSymbolTableRecord
100
AcDbBlockTableRecord
  2
*D7
340
0
 70
     0
280
     1
281
     0
  0
BLOCK_RECORD
  5
53C6
330
1
100
AcDbSymbolTableRecord
100
AcDbBlockTableRecord
  2
A$C18746642
340
0
 70
     0
280
     1
281
     0
  0
BLOCK_RECORD
  5
572B
330
1
100
AcDbSymbolTableRecord
100
AcDbBlockTableRecord
  2
B2383
340
0
102
{BLKREFS
331
573A
102
}
 70
     0
280
     1
281
     0
  0
BLOCK_RECORD
  5
5730
330
1
100
AcDbSymbolTableRecord
100
AcDbBlockTableRecord
  2
*D10
340
0
 70
     0
280
     1
281
     0
  0
BLOCK_RECORD
  5
5738
330
1
100
AcDbSymbolTableRecord
100
AcDbBlockTableRecord
  2
B2387
340
0
 70
     0
280
     1
281
     0
  0
BLOCK_RECORD
  5
5F6A
330
1
100
AcDbSymbolTableRecord
100
AcDbBlockTableRecord
  2
*D12
340
0
 70
     0
280
     1
281
     0
  0
BLOCK_RECORD
  5
5F76
330
1
100
AcDbSymbolTableRecord
100
AcDbBlockTableRecord
  2
A$C59C36ED1
340
0
 70
     0
280
     1
281
     0
  0
BLOCK_RECORD
  5
6CB9
330
1
100
AcDbSymbolTableRecord
100
AcDbBlockTableRecord
  2
REVDATE
340
0
 70
     0
280
     1
281
     0
  0
BLOCK_RECORD
  5
7519
330
1
100
AcDbSymbolTableRecord
100
AcDbBlockTableRecord
  2
B4617
340
0
102
{BLKREFS
331
751F
102
}
 70
     0
280
     1
281
     0
  0
BLOCK_RECORD
  5
751E
330
1
100
AcDbSymbolTableRecord
100
AcDbBlockTableRecord
  2
B4619
340
0
 70
     0
280
     1
281
     0
  0
BLOCK_RECORD
  5
78DC
330
1
100
AcDbSymbolTableRecord
100
AcDbBlockTableRecord
  2
*D17
340
0
 70
     0
280
     1
281
     0
  0
BLOCK_RECORD
  5
78E9
330
1
100
AcDbSymbolTableRecord
100
AcDbBlockTableRecord
  2
*D18
340
0
 70
     0
280
     1
281
     0
  0
BLOCK_RECORD
  5
78F6
330
1
100
AcDbSymbolTableRecord
100
AcDbBlockTableRecord
  2
*D19
340
0
 70
     0
280
     1
281
     0
  0
BLOCK_RECORD
  5
7903
330
1
100
AcDbSymbolTableRecord
100
AcDbBlockTableRecord
  2
*D20
340
0
 70
     0
280
     1
281
     0
  0
BLOCK_RECORD
  5
792A
330
1
100
AcDbSymbolTableRecord
100
AcDbBlockTableRecord
  2
*D21
340
0
 70
     0
280
     1
281
     0
  0
BLOCK_RECORD
  5
7940
330
1
100
AcDbSymbolTableRecord
100
AcDbBlockTableRecord
  2
*D22
340
0
 70
     0
280
     1
281
     0
  0
BLOCK_RECORD
  5
794D
330
1
100
AcDbSymbolTableRecord
100
AcDbBlockTableRecord
  2
*D23
340
0
 70
     0
280
     1
281
     0
  0
BLOCK_RECORD
  5
795A
330
1
100
AcDbSymbolTableRecord
100
AcDbBlockTableRecord
  2
*D24
340
0
 70
     0
280
     1
281
     0
  0
BLOCK_RECORD
  5
7E53
330
1
100
AcDbSymbolTableRecord
100
AcDbBlockTableRecord
  2
*D25
340
0
 70
     0
280
     1
281
     0
  0
BLOCK_RECORD
  5
7E60
330
1
100
AcDbSymbolTableRecord
100
AcDbBlockTableRecord
  2
*D26
340
0
 70
     0
280
     1
281
     0
  0
BLOCK_RECORD
  5
7E6D
330
1
100
AcDbSymbolTableRecord
100
AcDbBlockTableRecord
  2
*D27
340
0
 70
     0
280
     1
281
     0
  0
BLOCK_RECORD
  5
7E82
330
1
100
AcDbSymbolTableRecord
100
AcDbBlockTableRecord
  2
*D28
340
0
 70
     0
280
     1
281
     0
  0
BLOCK_RECORD
  5
7E8F
330
1
100
AcDbSymbolTableRecord
100
AcDbBlockTableRecord
  2
*D29
340
0
 70
     0
280
     1
281
     0
  0
BLOCK_RECORD
  5
7E9C
330
1
100
AcDbSymbolTableRecord
100
AcDbBlockTableRecord
  2
*D30
340
0
 70
     0
280
     1
281
     0
  0
BLOCK_RECORD
  5
7EA8
330
1
100
AcDbSymbolTableRecord
100
AcDbBlockTableRecord
  2
*D31
340
0
 70
     0
280
     1
281
     0
  0
BLOCK_RECORD
  5
7EB5
330
1
100
AcDbSymbolTableRecord
100
AcDbBlockTableRecord
  2
*D32
340
0
 70
     0
280
     1
281
     0
  0
BLOCK_RECORD
  5
7EC2
330
1
100
AcDbSymbolTableRecord
100
AcDbBlockTableRecord
  2
*D33
340
0
 70
     0
280
     1
281
     0
  0
BLOCK_RECORD
  5
7ECF
330
1
100
AcDbSymbolTableRecord
100
AcDbBlockTableRecord
  2
*D34
340
0
 70
     0
280
     1
281
     0
  0
BLOCK_RECORD
  5
7EDC
330
1
100
AcDbSymbolTableRecord
100
AcDbBlockTableRecord
  2
*D35
340
0
 70
     0
280
     1
281
     0
  0
BLOCK_RECORD
  5
7EE9
330
1
100
AcDbSymbolTableRecord
100
AcDbBlockTableRecord
  2
*D36
340
0
 70
     0
280
     1
281
     0
  0
BLOCK_RECORD
  5
7F3F
330
1
100
AcDbSymbolTableRecord
100
AcDbBlockTableRecord
  2
*D37
340
0
 70
     0
280
     1
281
     0
  0
BLOCK_RECORD
  5
7FD7
330
1
100
AcDbSymbolTableRecord
100
AcDbBlockTableRecord
  2
*D38
340
0
 70
     0
280
     1
281
     0
  0
BLOCK_RECORD
  5
7FE4
330
1
100
AcDbSymbolTableRecord
100
AcDbBlockTableRecord
  2
*D39
340
0
 70
     0
280
     1
281
     0
  0
BLOCK_RECORD
  5
7FF1
330
1
100
AcDbSymbolTableRecord
100
AcDbBlockTableRecord
  2
*D40
340
0
 70
     0
280
     1
281
     0
  0
BLOCK_RECORD
  5
7FFE
330
1
100
AcDbSymbolTableRecord
100
AcDbBlockTableRecord
  2
*D41
340
0
 70
     0
280
     1
281
     0
  0
BLOCK_RECORD
  5
8123
330
1
100
AcDbSymbolTableRecord
100
AcDbBlockTableRecord
  2
*D42
340
0
 70
     0
280
     1
281
     0
  0
BLOCK_RECORD
  5
8130
330
1
100
AcDbSymbolTableRecord
100
AcDbBlockTableRecord
  2
*D43
340
0
 70
     0
280
     1
281
     0
  0
BLOCK_RECORD
  5
81B8
330
1
100
AcDbSymbolTableRecord
100
AcDbBlockTableRecord
  2
*D44
340
0
 70
     0
280
     1
281
     0
  0
BLOCK_RECORD
  5
81C4
330
1
100
AcDbSymbolTableRecord
100
AcDbBlockTableRecord
  2
*D45
340
0
 70
     0
280
     1
281
     0
  0
BLOCK_RECORD
  5
81D0
330
1
100
AcDbSymbolTableRecord
100
AcDbBlockTableRecord
  2
A$C50D02821
340
0
 70
     0
280
     1
281
     0
  0
ENDTAB
  0
ENDSEC
  0
SECTION
  2
BLOCKS
  0
BLOCK
  5
1F
330
1E
100
AcDbEntity
  8
0
100
AcDbBlockBegin
  2
*MODEL_SPACE
 70
     0
 10
0.0
 20
0.0
 30
0.0
  3
*MODEL_SPACE
  1

  0
ENDBLK
  5
20
330
1E
100
AcDbEntity
  8
0
100
AcDbBlockEnd
  0
BLOCK
  5
1B
330
1A
100
AcDbEntity
 67
     1
  8
0
100
AcDbBlockBegin
  2
*PAPER_SPACE
 70
     0
 10
0.0
 20
0.0
 30
0.0
  3
*PAPER_SPACE
  1

  0
ENDBLK
  5
1C
330
1A
100
AcDbEntity
 67
     1
  8
0
100
AcDbBlockEnd
  0
BLOCK
  5
3B6
330
3B2
100
AcDbEntity
  8
0
100
AcDbBlockBegin
  2
_OPEN
 70
     0
 10
0.0
 20
0.0
 30
0.0
  3
_OPEN
  1

  0
LINE
  5
3B3
330
3B2
100
AcDbEntity
  8
30
  6
Continuous
 62
     0
100
AcDbLine
 10
-1.0
 20
0.1666666666666666
 30
0.0
 11
0.0
 21
0.0
 31
0.0
  0
LINE
  5
3B4
330
3B2
100
AcDbEntity
  8
30
  6
Continuous
 62
     0
100
AcDbLine
 10
-1.0
 20
-0.1666666666666666
 30
0.0
 11
0.0
 21
0.0
 31
0.0
  0
LINE
  5
3B5
330
3B2
100
AcDbEntity
  8
30
  6
Continuous
 62
     0
100
AcDbLine
 10
0.0
 20
0.0
 30
0.0
 11
-1.0
 21
0.0
 31
0.0
  0
ENDBLK
  5
3B7
330
3B2
100
AcDbEntity
  8
0
100
AcDbBlockEnd
  0
BLOCK
  5
537C
330
5372
100
AcDbEntity
  8
0
100
AcDbBlockBegin
  2
*D1
 70
     1
 10
0.0
 20
0.0
 30
0.0
  3
*D1
  1

  0
LINE
  5
5373
330
5372
100
AcDbEntity
  8
10
 62
     0
100
AcDbLine
 10
1408.1479492188
 20
471.74888305664
 30
0.0
 11
1408.1479492188
 21
574.0164868164099
 31
0.0
  0
LINE
  5
5374
330
5372
100
AcDbEntity
  8
10
 62
     0
100
AcDbLine
 10
1515.6480712891
 20
408.7488525390599
 30
0.0
 11
1515.6480712891
 21
574.0164868164099
 31
0.0
  0
LINE
  5
5375
330
5372
100
AcDbEntity
  8
10
 62
     0
100
AcDbLine
 10
1408.3279492188
 20
573.83648681641
 30
0.0
 11
1515.4680712891
 21
573.83648681641
 31
0.0
  0
MTEXT
  5
5376
330
5372
100
AcDbEntity
  8
10
 62
     0
100
AcDbMText
 10
1456.951817203369
 20
587.33648681641
 30
0.0
 40
0.18
 41
0.0
 46
0.0
 71
     5
 72
     1
  1
\A1;107.5
  7
SYMBOL3
 73
     1
 44
1.0
1001
ACAD
1000
MTEXTBEGIN
1070
    73
1070
     1
1070
    44
1040
1.0
1070
    74
1070
     0
1000
MTEXTEND
1000
MTEXTBEGIN
1070
    73
1070
     1
1070
    44
1040
1.0
1070
    74
1070
     0
1000
MTEXTEND
  0
SOLID
  5
5377
330
5372
100
AcDbEntity
  8
10
 62
     0
100
AcDbTrace
 10
1408.3279492188
 20
573.8664868164097
 30
0.0
 11
1408.3279492188
 21
573.80648681641
 31
0.0
 12
1408.1479492188
 22
573.83648681641
 32
0.0
 13
1408.1479492188
 23
573.83648681641
 33
0.0
  0
SOLID
  5
5378
330
5372
100
AcDbEntity
  8
10
 62
     0
100
AcDbTrace
 10
1515.4680712891
 20
573.8664868164097
 30
0.0
 11
1515.4680712891
 21
573.80648681641
 31
0.0
 12
1515.6480712891
 22
573.83648681641
 32
0.0
 13
1515.6480712891
 23
573.83648681641
 33
0.0
  0
POINT
  5
5379
330
5372
100
AcDbEntity
  8
DEFPOINTS
 62
     0
100
AcDbPoint
 10
1408.1479492188
 20
471.68638305664
 30
0.0
  0
POINT
  5
537A
330
5372
100
AcDbEntity
  8
DEFPOINTS
 62
     0
100
AcDbPoint
 10
1515.6480712891
 20
408.68635253906
 30
0.0
  0
POINT
  5
537B
330
5372
100
AcDbEntity
  8
DEFPOINTS
 62
     0
100
AcDbPoint
 10
1515.6480712891
 20
573.83648681641
 30
0.0
  0
ENDBLK
  5
537D
330
5372
100
AcDbEntity
  8
0
100
AcDbBlockEnd
  0
BLOCK
  5
5388
330
537E
100
AcDbEntity
  8
0
100
AcDbBlockBegin
  2
*D2
 70
     1
 10
0.0
 20
0.0
 30
0.0
  3
*D2
  1

  0
LINE
  5
537F
330
537E
100
AcDbEntity
  8
10
 62
     0
100
AcDbLine
 10
1408.1479492188
 20
471.74888305664
 30
0.0
 11
1408.1479492188
 21
523.8737255859398
 31
0.0
  0
LINE
  5
5380
330
537E
100
AcDbEntity
  8
10
 62
     0
100
AcDbLine
 10
1495.1480712891
 20
448.62861328125
 30
0.0
 11
1495.1480712891
 21
523.87372558594
 31
0.0
  0
LINE
  5
5381
330
537E
100
AcDbEntity
  8
10
 62
     0
100
AcDbLine
 10
1408.3279492188
 20
523.69372558594
 30
0.0
 11
1494.9680712891
 21
523.69372558594
 31
0.0
  0
MTEXT
  5
5382
330
537E
100
AcDbEntity
  8
10
 62
     0
100
AcDbMText
 10
1451.607153789425
 20
537.19372558594
 30
0.0
 40
0.18
 41
0.0
 46
0.0
 71
     5
 72
     1
  1
\A1;87
  7
SYMBOL3
 73
     1
 44
1.0
1001
ACAD
1000
MTEXTBEGIN
1070
    73
1070
     1
1070
    44
1040
1.0
1070
    74
1070
     0
1000
MTEXTEND
1000
MTEXTBEGIN
1070
    73
1070
     1
1070
    44
1040
1.0
1070
    74
1070
     0
1000
MTEXTEND
  0
SOLID
  5
5383
330
537E
100
AcDbEntity
  8
10
 62
     0
100
AcDbTrace
 10
1408.3279492188
 20
523.7237255859397
 30
0.0
 11
1408.3279492188
 21
523.66372558594
 31
0.0
 12
1408.1479492188
 22
523.69372558594
 32
0.0
 13
1408.1479492188
 23
523.69372558594
 33
0.0
  0
SOLID
  5
5384
330
537E
100
AcDbEntity
  8
10
 62
     0
100
AcDbTrace
 10
1494.9680712891
 20
523.7237255859397
 30
0.0
 11
1494.9680712891
 21
523.66372558594
 31
0.0
 12
1495.1480712891
 22
523.69372558594
 32
0.0
 13
1495.1480712891
 23
523.69372558594
 33
0.0
  0
POINT
  5
5385
330
537E
100
AcDbEntity
  8
DEFPOINTS
 62
     0
100
AcDbPoint
 10
1408.1479492188
 20
471.68638305664
 30
0.0
  0
POINT
  5
5386
330
537E
100
AcDbEntity
  8
DEFPOINTS
 62
     0
100
AcDbPoint
 10
1495.1480712891
 20
448.56611328125
 30
0.0
  0
POINT
  5
5387
330
537E
100
AcDbEntity
  8
DEFPOINTS
 62
     0
100
AcDbPoint
 10
1495.1480712891
 20
523.69372558594
 30
0.0
  0
ENDBLK
  5
5389
330
537E
100
AcDbEntity
  8
0
100
AcDbBlockEnd
  0
BLOCK
  5
5394
330
538A
100
AcDbEntity
  8
0
100
AcDbBlockBegin
  2
*D3
 70
     1
 10
0.0
 20
0.0
 30
0.0
  3
*D3
  1

  0
LINE
  5
538B
330
538A
100
AcDbEntity
  8
10
 62
     0
100
AcDbLine
 10
1408.1479492188
 20
225.8366577148398
 30
0.0
 11
1408.1479492188
 21
164.2525866699199
 31
0.0
  0
LINE
  5
538C
330
538A
100
AcDbEntity
  8
10
 62
     0
100
AcDbLine
 10
1393.1479492188
 20
259.83665771484
 30
0.0
 11
1393.1479492188
 21
164.2525866699199
 31
0.0
  0
LINE
  5
538D
330
538A
100
AcDbEntity
  8
10
 62
     0
100
AcDbLine
 10
1407.967949218799
 20
164.4325866699199
 30
0.0
 11
1393.3279492188
 21
164.4325866699199
 31
0.0
  0
MTEXT
  5
538E
330
538A
100
AcDbEntity
  8
10
 62
     0
100
AcDbMText
 10
1360.43980773724
 20
177.93258666992
 30
0.0
 40
0.18
 41
0.0
 46
0.0
 71
     5
 72
     1
  1
\A1;15
  7
SYMBOL3
 73
     1
 44
1.0
1001
ACAD
1000
MTEXTBEGIN
1070
    73
1070
     1
1070
    44
1040
1.0
1070
    74
1070
     0
1000
MTEXTEND
1000
MTEXTBEGIN
1070
    73
1070
     1
1070
    44
1040
1.0
1070
    74
1070
     0
1000
MTEXTEND
  0
SOLID
  5
538F
330
538A
100
AcDbEntity
  8
10
 62
     0
100
AcDbTrace
 10
1407.967949218799
 20
164.4625866699199
 30
0.0
 11
1407.967949218799
 21
164.40258666992
 31
0.0
 12
1408.1479492188
 22
164.4325866699199
 32
0.0
 13
1408.1479492188
 23
164.4325866699199
 33
0.0
  0
SOLID
  5
5390
330
538A
100
AcDbEntity
  8
10
 62
     0
100
AcDbTrace
 10
1393.3279492188
 20
164.4625866699199
 30
0.0
 11
1393.3279492188
 21
164.40258666992
 31
0.0
 12
1393.1479492188
 22
164.4325866699199
 32
0.0
 13
1393.1479492188
 23
164.4325866699199
 33
0.0
  0
POINT
  5
5391
330
538A
100
AcDbEntity
  8
DEFPOINTS
 62
     0
100
AcDbPoint
 10
1408.1479492188
 20
225.8991577148399
 30
0.0
  0
POINT
  5
5392
330
538A
100
AcDbEntity
  8
DEFPOINTS
 62
     0
100
AcDbPoint
 10
1393.1479492188
 20
259.89915771484
 30
0.0
  0
POINT
  5
5393
330
538A
100
AcDbEntity
  8
DEFPOINTS
 62
     0
100
AcDbPoint
 10
1393.1479492188
 20
164.4325866699199
 30
0.0
  0
ENDBLK
  5
5395
330
538A
100
AcDbEntity
  8
0
100
AcDbBlockEnd
  0
BLOCK
  5
53A0
330
5396
100
AcDbEntity
  8
0
100
AcDbBlockBegin
  2
*D4
 70
     1
 10
0.0
 20
0.0
 30
0.0
  3
*D4
  1

  0
LINE
  5
5397
330
5396
100
AcDbEntity
  8
10
 62
     0
100
AcDbLine
 10
1377.1479492188
 20
367.6677734375
 30
0.0
 11
1377.1479492188
 21
115.7286914062499
 31
0.0
  0
LINE
  5
5398
330
5396
100
AcDbEntity
  8
10
 62
     0
100
AcDbLine
 10
1408.1479492188
 20
225.8366577148398
 30
0.0
 11
1408.1479492188
 21
115.7286914062499
 31
0.0
  0
LINE
  5
5399
330
5396
100
AcDbEntity
  8
10
 62
     0
100
AcDbLine
 10
1377.3279492188
 20
115.9086914062499
 30
0.0
 11
1407.967949218799
 21
115.9086914062499
 31
0.0
  0
MTEXT
  5
539A
330
5396
100
AcDbEntity
  8
10
 62
     0
100
AcDbMText
 10
1390.672659997064
 20
129.4086914062499
 30
0.0
 40
0.18
 41
0.0
 46
0.0
 71
     5
 72
     1
  1
\A1;31
  7
SYMBOL3
 73
     1
 44
1.0
1001
ACAD
1000
MTEXTBEGIN
1070
    73
1070
     1
1070
    44
1040
1.0
1070
    74
1070
     0
1000
MTEXTEND
1000
MTEXTBEGIN
1070
    73
1070
     1
1070
    44
1040
1.0
1070
    74
1070
     0
1000
MTEXTEND
  0
SOLID
  5
539B
330
5396
100
AcDbEntity
  8
10
 62
     0
100
AcDbTrace
 10
1377.3279492188
 20
115.9386914062499
 30
0.0
 11
1377.3279492188
 21
115.87869140625
 31
0.0
 12
1377.1479492188
 22
115.9086914062499
 32
0.0
 13
1377.1479492188
 23
115.9086914062499
 33
0.0
  0
SOLID
  5
539C
330
5396
100
AcDbEntity
  8
10
 62
     0
100
AcDbTrace
 10
1407.967949218799
 20
115.9386914062499
 30
0.0
 11
1407.967949218799
 21
115.87869140625
 31
0.0
 12
1408.1479492188
 22
115.9086914062499
 32
0.0
 13
1408.1479492188
 23
115.9086914062499
 33
0.0
  0
POINT
  5
539D
330
5396
100
AcDbEntity
  8
DEFPOINTS
 62
     0
100
AcDbPoint
 10
1377.1479492188
 20
367.7302734374999
 30
0.0
  0
POINT
  5
539E
330
5396
100
AcDbEntity
  8
DEFPOINTS
 62
     0
100
AcDbPoint
 10
1408.1479492188
 20
225.8991577148399
 30
0.0
  0
POINT
  5
539F
330
5396
100
AcDbEntity
  8
DEFPOINTS
 62
     0
100
AcDbPoint
 10
1408.1479492188
 20
115.9086914062499
 30
0.0
  0
ENDBLK
  5
53A1
330
5396
100
AcDbEntity
  8
0
100
AcDbBlockEnd
  0
BLOCK
  5
53AC
330
53A2
100
AcDbEntity
  8
0
100
AcDbBlockBegin
  2
*D5
 70
     1
 10
0.0
 20
0.0
 30
0.0
  3
*D5
  1

  0
LINE
  5
53A3
330
53A2
100
AcDbEntity
  8
10
 62
     0
100
AcDbLine
 10
1542.604077148399
 20
415.792755129682
 30
0.0
 11
1629.719178712973
 21
415.7927589376051
 31
0.0
  0
LINE
  5
53A4
330
53A2
100
AcDbEntity
  8
10
 62
     0
100
AcDbLine
 10
1542.604077148399
 20
281.792755129682
 30
0.0
 11
1629.7191845703
 21
281.7927589376052
 31
0.0
  0
LINE
  5
53A5
330
53A2
100
AcDbEntity
  8
10
 62
     0
100
AcDbLine
 10
1629.539178720841
 20
415.612758929737
 30
0.0
 11
1629.539184562432
 21
281.9727589297373
 31
0.0
  0
MTEXT
  5
53A6
330
53A2
100
AcDbEntity
  8
10
 62
     0
100
AcDbMText
 10
1616.039184719544
 20
342.9059393539333
 30
0.0
 40
0.18
 41
0.0
 46
0.0
 71
     5
 72
     1
  1
\A1;134
  7
SYMBOL3
 11
-0.0000000437114009
 21
0.9999999999999989
 31
0.0
 73
     1
 44
1.0
1001
ACAD
1000
MTEXTBEGIN
1070
    73
1070
     1
1070
    44
1040
1.0
1070
    74
1070
     0
1000
MTEXTEND
1000
MTEXTBEGIN
1070
    73
1070
     1
1070
    44
1040
1.0
1070
    74
1070
     0
1000
MTEXTEND
  0
SOLID
  5
53A7
330
53A2
100
AcDbEntity
  8
10
 62
     0
100
AcDbTrace
 10
1629.509178720841
 20
415.6127589284258
 30
0.0
 11
1629.56917872084
 21
415.6127589310485
 31
0.0
 12
1629.539178712973
 22
415.792758929737
 32
0.0
 13
1629.539178712973
 23
415.792758929737
 33
0.0
  0
SOLID
  5
53A8
330
53A2
100
AcDbEntity
  8
10
 62
     0
100
AcDbTrace
 10
1629.509184562432
 20
281.9727589284259
 30
0.0
 11
1629.569184562432
 21
281.9727589310486
 31
0.0
 12
1629.5391845703
 22
281.7927589297373
 32
0.0
 13
1629.5391845703
 23
281.7927589297373
 33
0.0
  0
POINT
  5
53A9
330
53A2
100
AcDbEntity
  8
DEFPOINTS
 62
     0
100
AcDbPoint
 10
1542.5415771484
 20
415.7927551269501
 30
0.0
  0
POINT
  5
53AA
330
53A2
100
AcDbEntity
  8
DEFPOINTS
 62
     0
100
AcDbPoint
 10
1542.5415771484
 20
281.7927551269501
 30
0.0
  0
POINT
  5
53AB
330
53A2
100
AcDbEntity
  8
DEFPOINTS
 62
     0
100
AcDbPoint
 10
1629.5391845703
 20
281.7927589297373
 30
0.0
  0
ENDBLK
  5
53AD
330
53A2
100
AcDbEntity
  8
0
100
AcDbBlockEnd
  0
BLOCK
  5
53B8
330
53AE
100
AcDbEntity
  8
0
100
AcDbBlockBegin
  2
*D6
 70
     1
 10
0.0
 20
0.0
 30
0.0
  3
*D6
  1

  0
LINE
  5
53AF
330
53AE
100
AcDbEntity
  8
10
 62
     0
100
AcDbLine
 10
1408.1479492188
 20
225.8366577148398
 30
0.0
 11
1408.1479492188
 21
116.1434558105499
 31
0.0
  0
LINE
  5
53B0
330
53AE
100
AcDbEntity
  8
10
 62
     0
100
AcDbLine
 10
1565.6480712891
 20
288.8366577148398
 30
0.0
 11
1565.6480712891
 21
116.1434558105499
 31
0.0
  0
LINE
  5
53B1
330
53AE
100
AcDbEntity
  8
10
 62
     0
100
AcDbLine
 10
1408.3279492188
 20
116.3234558105499
 30
0.0
 11
1565.4680712891
 21
116.3234558105499
 31
0.0
  0
MTEXT
  5
53B2
330
53AE
100
AcDbEntity
  8
10
 62
     0
100
AcDbMText
 10
1483.783238101872
 20
129.82345581055
 30
0.0
 40
0.18
 41
0.0
 46
0.0
 71
     5
 72
     1
  1
\A1;157.5
  7
SYMBOL3
 73
     1
 44
1.0
1001
ACAD
1000
MTEXTBEGIN
1070
    73
1070
     1
1070
    44
1040
1.0
1070
    74
1070
     0
1000
MTEXTEND
1000
MTEXTBEGIN
1070
    73
1070
     1
1070
    44
1040
1.0
1070
    74
1070
     0
1000
MTEXTEND
  0
SOLID
  5
53B3
330
53AE
100
AcDbEntity
  8
10
 62
     0
100
AcDbTrace
 10
1408.3279492188
 20
116.3534558105496
 30
0.0
 11
1408.3279492188
 21
116.2934558105499
 31
0.0
 12
1408.1479492188
 22
116.3234558105499
 32
0.0
 13
1408.1479492188
 23
116.3234558105499
 33
0.0
  0
SOLID
  5
53B4
330
53AE
100
AcDbEntity
  8
10
 62
     0
100
AcDbTrace
 10
1565.4680712891
 20
116.3534558105496
 30
0.0
 11
1565.4680712891
 21
116.2934558105499
 31
0.0
 12
1565.6480712891
 22
116.3234558105499
 32
0.0
 13
1565.6480712891
 23
116.3234558105499
 33
0.0
  0
POINT
  5
53B5
330
53AE
100
AcDbEntity
  8
DEFPOINTS
 62
     0
100
AcDbPoint
 10
1408.1479492188
 20
225.8991577148399
 30
0.0
  0
POINT
  5
53B6
330
53AE
100
AcDbEntity
  8
DEFPOINTS
 62
     0
100
AcDbPoint
 10
1565.6480712891
 20
288.89915771484
 30
0.0
  0
POINT
  5
53B7
330
53AE
100
AcDbEntity
  8
DEFPOINTS
 62
     0
100
AcDbPoint
 10
1565.6480712891
 20
116.3234558105499
 30
0.0
  0
ENDBLK
  5
53B9
330
53AE
100
AcDbEntity
  8
0
100
AcDbBlockEnd
  0
BLOCK
  5
53C4
330
53BA
100
AcDbEntity
  8
0
100
AcDbBlockBegin
  2
*D7
 70
     1
 10
0.0
 20
0.0
 30
0.0
  3
*D7
  1

  0
LINE
  5
53BB
330
53BA
100
AcDbEntity
  8
10
 62
     0
100
AcDbLine
 10
1408.1479492188
 20
225.8366577148398
 30
0.0
 11
1408.1479492188
 21
164.2525866699199
 31
0.0
  0
LINE
  5
53BC
330
53BA
100
AcDbEntity
  8
10
 62
     0
100
AcDbLine
 10
1545.148193359399
 20
248.9568664550799
 30
0.0
 11
1545.148193359399
 21
164.2525866699199
 31
0.0
  0
LINE
  5
53BD
330
53BA
100
AcDbEntity
  8
10
 62
     0
100
AcDbLine
 10
1408.3279492188
 20
164.4325866699199
 30
0.0
 11
1544.9681933594
 21
164.4325866699199
 31
0.0
  0
MTEXT
  5
53BE
330
53BA
100
AcDbEntity
  8
10
 62
     0
100
AcDbMText
 10
1472.349887305842
 20
177.9325866699198
 30
0.0
 40
0.18
 41
0.0
 46
0.0
 71
     5
 72
     1
  1
\A1;137
  7
SYMBOL3
 73
     1
 44
1.0
1001
ACAD
1000
MTEXTBEGIN
1070
    73
1070
     1
1070
    44
1040
1.0
1070
    74
1070
     0
1000
MTEXTEND
1000
MTEXTBEGIN
1070
    73
1070
     1
1070
    44
1040
1.0
1070
    74
1070
     0
1000
MTEXTEND
  0
SOLID
  5
53BF
330
53BA
100
AcDbEntity
  8
10
 62
     0
100
AcDbTrace
 10
1408.3279492188
 20
164.4625866699199
 30
0.0
 11
1408.3279492188
 21
164.40258666992
 31
0.0
 12
1408.1479492188
 22
164.4325866699199
 32
0.0
 13
1408.1479492188
 23
164.4325866699199
 33
0.0
  0
SOLID
  5
53C0
330
53BA
100
AcDbEntity
  8
10
 62
     0
100
AcDbTrace
 10
1544.9681933594
 20
164.4625866699199
 30
0.0
 11
1544.9681933594
 21
164.40258666992
 31
0.0
 12
1545.148193359399
 22
164.4325866699199
 32
0.0
 13
1545.148193359399
 23
164.4325866699199
 33
0.0
  0
POINT
  5
53C1
330
53BA
100
AcDbEntity
  8
DEFPOINTS
 62
     0
100
AcDbPoint
 10
1408.1479492188
 20
225.8991577148399
 30
0.0
  0
POINT
  5
53C2
330
53BA
100
AcDbEntity
  8
DEFPOINTS
 62
     0
100
AcDbPoint
 10
1545.148193359399
 20
249.0193664550798
 30
0.0
  0
POINT
  5
53C3
330
53BA
100
AcDbEntity
  8
DEFPOINTS
 62
     0
100
AcDbPoint
 10
1545.148193359399
 20
164.4325866699199
 30
0.0
  0
ENDBLK
  5
53C5
330
53BA
100
AcDbEntity
  8
0
100
AcDbBlockEnd
  0
BLOCK
  5
5452
330
53C6
100
AcDbEntity
  8
0
100
AcDbBlockBegin
  2
A$C18746642
 70
     0
 10
0.0
 20
0.0
 30
0.0
  3
A$C18746642
  1

  0
DIMENSION
  5
53C7
330
53C6
100
AcDbEntity
  8
10
100
AcDbDimension
280
     0
  2
*D1
 10
122.5001220702999
 20
225.0437622070299
 30
0.0
 11
63.80386798457243
 21
238.54376220703
 31
0.0
 12
-1393.1479492188
 22
-348.7927246093799
 32
0.0
 70
   128
  1
107.5
 71
     5
 42
-1.0
 73
     0
 74
     0
 75
     0
  3
STANDARD
100
AcDbAlignedDimension
 13
15.0
 23
122.89365844726
 33
0.0
 14
122.5001220702999
 24
59.89362792968006
 34
0.0
 50
180.0
100
AcDbRotatedDimension
1001
ACAD
1000
DSTYLE
1002
{
1070
   287
1070
     5
1070
   287
1070
     5
1070
   279
1070
     2
1002
}
  0
DIMENSION
  5
53C8
330
53C6
100
AcDbEntity
  8
10
100
AcDbDimension
280
     0
  2
*D2
 10
102.0001220703
 20
174.90100097656
 30
0.0
 11
58.45920457062696
 21
188.40100097656
 31
0.0
 12
-1393.1479492188
 22
-348.7927246093799
 32
0.0
 70
   128
  1
87
 71
     5
 42
-1.0
 73
     0
 74
     0
 75
     0
  3
STANDARD
100
AcDbAlignedDimension
 13
15.0
 23
122.89365844726
 33
0.0
 14
102.0001220703
 24
99.77338867187008
 34
0.0
 50
180.0
100
AcDbRotatedDimension
1001
ACAD
1000
DSTYLE
1002
{
1070
   287
1070
     5
1070
   287
1070
     5
1070
   279
1070
     2
1002
}
  0
DIMENSION
  5
53C9
330
53C6
100
AcDbEntity
  8
10
100
AcDbDimension
280
     0
  2
*D3
 10
0.0
 20
-184.3601379394599
 30
0.0
 11
-32.70814148155931
 21
-170.8601379394599
 31
0.0
 12
-1393.1479492188
 22
-348.7927246093799
 32
0.0
 70
   128
  1
15
 71
     5
 42
-1.0
 73
     0
 74
     0
 75
     0
  3
STANDARD
100
AcDbAlignedDimension
 13
15.0
 23
-122.8935668945399
 33
0.0
 14
0.0
 24
-88.89356689453995
 34
0.0
 50
180.0
100
AcDbRotatedDimension
1001
ACAD
1000
DSTYLE
1002
{
1070
   287
1070
     5
1070
   287
1070
     5
1070
   279
1070
     2
1002
}
  0
LWPOLYLINE
  5
53CA
330
53C6
100
AcDbEntity
  8
10
  6
Continuous
100
AcDbPolyline
 90
        2
 70
     0
 43
0.001
 10
-51.9998779297
 20
0.0
 10
126.8000488280998
 20
0.0
  0
DIMENSION
  5
53CB
330
53C6
100
AcDbEntity
  8
10
100
AcDbDimension
280
     0
  2
*D4
 10
15.0
 20
-232.8840332031299
 30
0.0
 11
-2.475289221735462
 21
-219.3840332031299
 31
0.0
 12
-1393.1479492188
 22
-348.7927246093799
 32
0.0
 70
   128
  1
31
 71
     5
 42
-1.0
 73
     0
 74
     0
 75
     0
  3
STANDARD
100
AcDbAlignedDimension
 13
-16.0
 23
18.93754882812004
 33
0.0
 14
15.0
 24
-122.8935668945399
 34
0.0
 50
180.0
100
AcDbRotatedDimension
1001
ACAD
1000
DSTYLE
1002
{
1070
   287
1070
     5
1070
   287
1070
     5
1070
   279
1070
     2
1002
}
  0
DIMENSION
  5
53CC
330
53C6
100
AcDbEntity
  8
10
100
AcDbDimension
280
     0
  2
*D5
 10
236.3912353515003
 20
-66.99996567964257
 30
0.0
 11
222.8912355007444
 21
-5.886785255446341
 31
0.0
 12
-1393.1479492188
 22
-348.7927246093799
 32
0.0
 70
   128
  1
134
 71
     5
 42
-1.0
 73
     0
 74
     0
 75
     0
 51
269.9999974955212
  3
STANDARD
100
AcDbAlignedDimension
 13
149.3936279295999
 23
67.00003051757005
 33
0.0
 14
149.3936279295999
 24
-66.99996948242993
 34
0.0
 50
90.0
100
AcDbRotatedDimension
1001
ACAD
1000
DSTYLE
1002
{
1070
   287
1070
     5
1070
   287
1070
     5
1070
   279
1070
     2
1002
}
  0
LWPOLYLINE
  5
53CD
330
53C6
100
AcDbEntity
  8
10
  6
Continuous
100
AcDbPolyline
 90
        2
 70
     0
 43
0.001
 10
0.0
 20
-24.99999999999995
 10
0.0
 20
-95.99996948242994
  0
LWPOLYLINE
  5
53CE
330
53C6
100
AcDbEntity
  8
10
  6
Continuous
100
AcDbPolyline
 90
        2
 70
     0
 43
0.001
 10
70.0001220703
 20
-50.00003051757992
 10
70.0001220703
 20
-58.99996948242995
  0
LWPOLYLINE
  5
53CF
330
53C6
100
AcDbEntity
  8
10
  6
Continuous
100
AcDbPolyline
 90
        2
 70
     0
 43
0.001
 10
19.0
 20
77.50015258789011
 10
19.0
 20
-77.49996948242993
  0
LWPOLYLINE
  5
53D0
330
53C6
100
AcDbEntity
  8
10
  6
Continuous
100
AcDbPolyline
 90
        2
 70
     0
 43
0.001
 10
15.0
 20
96.00006103514999
 10
15.0
 20
-95.99996948242994
  0
LWPOLYLINE
  5
53D1
330
53C6
100
AcDbEntity
  8
10
  6
Continuous
100
AcDbPolyline
 90
        2
 70
     0
 43
0.001
 10
25.80004882809999
 20
-50.00003051757992
 10
25.80004882809999
 20
-77.49996948242993
  0
DIMENSION
  5
53D2
330
53C6
100
AcDbEntity
  8
10
100
AcDbDimension
280
     0
  2
*D6
 10
172.5001220702999
 20
-232.4692687988299
 30
0.0
 11
90.63528888307244
 21
-218.9692687988299
 31
0.0
 12
-1393.1479492188
 22
-348.7927246093799
 32
0.0
 70
   128
  1
157.5
 71
     5
 42
-1.0
 73
     0
 74
     0
 75
     0
  3
STANDARD
100
AcDbAlignedDimension
 13
15.0
 23
-122.8935668945399
 33
0.0
 14
172.5001220702999
 24
-59.89356689453996
 34
0.0
 50
180.0
100
AcDbRotatedDimension
1001
ACAD
1000
DSTYLE
1002
{
1070
   287
1070
     5
1070
   287
1070
     5
1070
   279
1070
     2
1002
}
  0
DIMENSION
  5
53D3
330
53C6
100
AcDbEntity
  8
10
100
AcDbDimension
280
     0
  2
*D7
 10
152.0002441405999
 20
-184.3601379394599
 30
0.0
 11
79.20193808704221
 21
-170.8601379394599
 31
0.0
 12
-1393.1479492188
 22
-348.7927246093799
 32
0.0
 70
   128
  1
137
 71
     5
 42
-1.0
 73
     0
 74
     0
 75
     0
  3
STANDARD
100
AcDbAlignedDimension
 13
15.0
 23
-122.8935668945399
 33
0.0
 14
152.0002441405999
 24
-99.77335815429995
 34
0.0
 50
180.0
100
AcDbRotatedDimension
1001
ACAD
1000
DSTYLE
1002
{
1070
   287
1070
     5
1070
   287
1070
     5
1070
   279
1070
     2
1002
}
  0
LWPOLYLINE
  5
53D4
330
53C6
100
AcDbEntity
  8
10
  6
Continuous
100
AcDbPolyline
 90
        2
 70
     0
 43
0.001
 10
239.8000488280998
 20
-66.99996948242993
 10
60.0001220703
 20
-66.99996948242993
  0
LWPOLYLINE
  5
53D5
330
53C6
100
AcDbEntity
  8
10
  6
Continuous
100
AcDbPolyline
 90
        2
 70
     0
 43
0.001
 10
70.0001220703
 20
-77.49996948242993
 10
19.0
 20
-77.49996948242993
  0
LWPOLYLINE
  5
53D6
330
53C6
100
AcDbEntity
  8
10
  6
D329
100
AcDbPolyline
 90
        2
 70
     0
 43
0.001
 10
15.0
 20
-95.99996948242994
 10
15.0
 20
-129.9999694824299
  0
LWPOLYLINE
  5
53D7
330
53C6
100
AcDbEntity
  8
10
  6
D329
100
AcDbPolyline
 90
        2
 70
     0
 43
0.001
 10
19.0
 20
-77.49996948242993
 10
19.0
 20
-129.9999694824299
  0
LWPOLYLINE
  5
53D8
330
53C6
100
AcDbEntity
  8
10
  6
D329
100
AcDbPolyline
 90
        2
 70
     0
 43
0.001
 10
19.0
 20
-129.9999694824299
 10
15.0
 20
-129.9999694824299
  0
LWPOLYLINE
  5
53D9
330
53C6
100
AcDbEntity
  8
10
  6
Continuous
100
AcDbPolyline
 90
        2
 70
     0
 43
0.001
 10
15.0
 20
-95.99996948242994
 10
0.0
 20
-95.99996948242994
  0
LWPOLYLINE
  5
53DA
330
53C6
100
AcDbEntity
  8
10
  6
D341
100
AcDbPolyline
 90
        2
 70
     0
 43
0.001
 10
102.0002441405999
 20
-55.76306152343994
 10
102.0002441405999
 20
-106.8797607421897
  0
LWPOLYLINE
  5
53DB
330
53C6
100
AcDbEntity
  8
10
  6
D341
100
AcDbPolyline
 90
        2
 70
     0
 43
0.001
 10
104.3001708983999
 20
-55.76303100585993
 10
104.3001708983999
 20
-106.8797302246099
  0
LWPOLYLINE
  5
53DC
330
53C6
100
AcDbEntity
  8
10
  6
Continuous
100
AcDbPolyline
 90
        2
 70
     0
 43
0.001
 10
70.0001220703
 20
-58.99996948242995
 10
97.00012207030001
 20
-58.99996948242995
  0
LWPOLYLINE
  5
53DD
330
53C6
100
AcDbEntity
  8
10
  6
Continuous
100
AcDbPolyline
 90
        2
 70
     0
 43
0.001
 10
70.0001220703
 20
-74.99996948242993
 10
97.00012207030001
 20
-74.99996948242993
  0
LWPOLYLINE
  5
53DE
330
53C6
100
AcDbEntity
  8
10
  6
Continuous
100
AcDbPolyline
 90
        2
 70
     0
 43
0.001
 10
70.0001220703
 20
-74.99996948242993
 10
70.0001220703
 20
-77.49996948242993
  0
LWPOLYLINE
  5
53DF
330
53C6
100
AcDbEntity
  8
10
  6
Continuous
100
AcDbPolyline
 90
        2
 70
     0
 43
0.001
 10
70.0001220703
 20
-58.99996948242995
 10
70.0001220703
 20
-74.99996948242993
  0
LWPOLYLINE
  5
53E0
330
53C6
100
AcDbEntity
  8
10
  6
Continuous
100
AcDbPolyline
 90
        2
 70
     0
 43
0.001
 10
113.8001708983999
 20
-70.99996948242995
 10
113.8001708983999
 20
-74.99996948242993
  0
LWPOLYLINE
  5
53E1
330
53C6
100
AcDbEntity
  8
10
  6
Continuous
100
AcDbPolyline
 90
        2
 70
     0
 43
0.001
 10
113.8001708983999
 20
-62.99996948242995
 10
113.8001708983999
 20
-70.99996948242995
  0
LWPOLYLINE
  5
53E2
330
53C6
100
AcDbEntity
  8
10
  6
Continuous
100
AcDbPolyline
 90
        2
 70
     0
 43
0.001
 10
97.00012207030001
 20
-74.49996948242993
 10
97.00012207030001
 20
-74.99996948242993
  0
LWPOLYLINE
  5
53E3
330
53C6
100
AcDbEntity
  8
10
  6
Continuous
100
AcDbPolyline
 90
        2
 70
     0
 43
0.001
 10
97.00012207030001
 20
-59.49996948242993
 10
97.00012207030001
 20
-74.49996948242993
  0
LWPOLYLINE
  5
53E4
330
53C6
100
AcDbEntity
  8
10
  6
Continuous
100
AcDbPolyline
 90
        2
 70
     0
 43
0.001
 10
102.0001220703
 20
-55.76303100585993
 10
104.3001708983999
 20
-55.76303100585993
  0
LWPOLYLINE
  5
53E5
330
53C6
100
AcDbEntity
  8
10
  6
Continuous
100
AcDbPolyline
 90
        2
 70
     0
 43
0.001
 10
121.4283245110997
 20
-70.99997084972994
 42
0.2679492641254716
 10
121.4283250196998
 20
-62.99996899601989
 42
0.2679492641254716
  0
LWPOLYLINE
  5
53E6
330
53C6
100
AcDbEntity
  8
10
  6
Continuous
100
AcDbPolyline
 90
        2
 70
     0
 43
0.001
 10
102.0001220703
 20
-59.49996948242993
 10
102.0001220703
 20
-74.49996948242993
  0
LWPOLYLINE
  5
53E7
330
53C6
100
AcDbEntity
  8
10
  6
Continuous
100
AcDbPolyline
 90
        2
 70
     0
 43
0.001
 10
104.3001708983999
 20
-70.99996948242995
 10
97.00012207030001
 20
-70.99996948242995
  0
LWPOLYLINE
  5
53E8
330
53C6
100
AcDbEntity
  8
10
  6
Continuous
100
AcDbPolyline
 90
        2
 70
     0
 43
0.001
 10
104.3001708983999
 20
-62.99996948242995
 10
97.00012207030001
 20
-62.99996948242995
  0
LWPOLYLINE
  5
53E9
330
53C6
100
AcDbEntity
  8
10
  6
Continuous
100
AcDbPolyline
 90
        2
 70
     0
 43
0.001
 10
104.3001708983999
 20
-70.75277709960994
 10
113.8001708983999
 20
-70.75277709960994
  0
LWPOLYLINE
  5
53EA
330
53C6
100
AcDbEntity
  8
10
  6
Continuous
100
AcDbPolyline
 90
        2
 70
     0
 43
0.001
 10
104.3001708983999
 20
-63.24716186523993
 10
113.8001708983999
 20
-63.24716186523993
  0
LWPOLYLINE
  5
53EB
330
53C6
100
AcDbEntity
  8
10
  6
Continuous
100
AcDbPolyline
 90
        2
 70
     0
 43
0.001
 10
113.8001708983999
 20
-58.99996948242995
 10
113.8001708983999
 20
-62.99996948242995
  0
LWPOLYLINE
  5
53EC
330
53C6
100
AcDbEntity
  8
10
  6
Continuous
100
AcDbPolyline
 90
        2
 70
     0
 43
0.001
 10
102.0001220703
 20
-59.49996948242993
 10
97.00012207030001
 20
-59.49996948242993
  0
LWPOLYLINE
  5
53ED
330
53C6
100
AcDbEntity
  8
10
  6
Continuous
100
AcDbPolyline
 90
        2
 70
     0
 43
0.001
 10
97.00012207030001
 20
-58.99996948242995
 10
97.00012207030001
 20
-59.49996948242993
  0
LWPOLYLINE
  5
53EE
330
53C6
100
AcDbEntity
  8
10
  6
Continuous
100
AcDbPolyline
 90
        2
 70
     0
 43
0.001
 10
102.0001220703
 20
-74.49996948242993
 10
97.00012207030001
 20
-74.49996948242993
  0
LWPOLYLINE
  5
53EF
330
53C6
100
AcDbEntity
  8
10
  6
Continuous
100
AcDbPolyline
 90
        2
 70
     0
 43
0.001
 10
121.4283447264999
 20
-62.99996948242995
 10
113.8001708983999
 20
-62.99996948242995
  0
LWPOLYLINE
  5
53F0
330
53C6
100
AcDbEntity
  8
10
  6
Continuous
100
AcDbPolyline
 90
        2
 70
     0
 43
0.001
 10
121.4283447264999
 20
-70.99996948242995
 10
113.8001708983999
 20
-70.99996948242995
  0
LWPOLYLINE
  5
53F1
330
53C6
100
AcDbEntity
  8
10
  6
Continuous
100
AcDbPolyline
 90
        2
 70
     0
 43
0.001
 10
113.8001708983999
 20
-74.99996948242993
 10
104.3001708983999
 20
-74.99996948242993
  0
LWPOLYLINE
  5
53F2
330
53C6
100
AcDbEntity
  8
10
  6
Continuous
100
AcDbPolyline
 90
        2
 70
     0
 43
0.001
 10
113.8001708983999
 20
-58.99996948242995
 10
104.3001708983999
 20
-58.99996948242995
  0
LWPOLYLINE
  5
53F3
330
53C6
100
AcDbEntity
  8
10
  6
D341
100
AcDbPolyline
 90
        2
 70
     0
 43
0.001
 10
152.0002441405999
 20
-55.76306152343994
 10
152.0002441405999
 20
-106.8797607421897
  0
LWPOLYLINE
  5
53F4
330
53C6
100
AcDbEntity
  8
10
  6
D341
100
AcDbPolyline
 90
        2
 70
     0
 43
0.001
 10
154.3001708983998
 20
-55.76303100585993
 10
154.3001708983998
 20
-106.8797302246099
  0
LWPOLYLINE
  5
53F5
330
53C6
100
AcDbEntity
  8
10
  6
Continuous
100
AcDbPolyline
 90
        2
 70
     0
 43
0.001
 10
164.3001708983998
 20
-74.99996948242993
 10
154.3001708983998
 20
-74.99996948242993
  0
LWPOLYLINE
  5
53F6
330
53C6
100
AcDbEntity
  8
10
  6
Continuous
100
AcDbPolyline
 90
        2
 70
     0
 43
0.001
 10
164.3001708983998
 20
-58.99996948242995
 10
154.3001708983998
 20
-58.99996948242995
  0
LWPOLYLINE
  5
53F7
330
53C6
100
AcDbEntity
  8
10
  6
Continuous
100
AcDbPolyline
 90
        2
 70
     0
 43
0.001
 10
154.3001708983998
 20
-63.24716186523993
 10
164.3001708983998
 20
-63.24716186523993
  0
LWPOLYLINE
  5
53F8
330
53C6
100
AcDbEntity
  8
10
  6
Continuous
100
AcDbPolyline
 90
        2
 70
     0
 43
0.001
 10
154.3001708983998
 20
-70.75277709960994
 10
164.3001708983998
 20
-70.75277709960994
  0
LWPOLYLINE
  5
53F9
330
53C6
100
AcDbEntity
  8
10
  6
Continuous
100
AcDbPolyline
 90
        2
 70
     0
 43
0.001
 10
147.0001220702999
 20
-74.49996948242993
 10
147.0001220702999
 20
-74.99996948242993
  0
LWPOLYLINE
  5
53FA
330
53C6
100
AcDbEntity
  8
10
  6
Continuous
100
AcDbPolyline
 90
        2
 70
     0
 43
0.001
 10
147.0001220702999
 20
-59.49996948242993
 10
147.0001220702999
 20
-74.49996948242993
  0
LWPOLYLINE
  5
53FB
330
53C6
100
AcDbEntity
  8
10
  6
Continuous
100
AcDbPolyline
 90
        2
 70
     0
 43
0.001
 10
152.0001220703
 20
-55.76303100585993
 10
154.3001708983998
 20
-55.76303100585993
  0
LWPOLYLINE
  5
53FC
330
53C6
100
AcDbEntity
  8
10
  6
Continuous
100
AcDbPolyline
 90
        2
 70
     0
 43
0.001
 10
154.3001708983998
 20
-70.99996948242995
 10
147.0001220702999
 20
-70.99996948242995
  0
LWPOLYLINE
  5
53FD
330
53C6
100
AcDbEntity
  8
10
  6
Continuous
100
AcDbPolyline
 90
        2
 70
     0
 43
0.001
 10
154.3001708983998
 20
-62.99996948242995
 10
147.0001220702999
 20
-62.99996948242995
  0
LWPOLYLINE
  5
53FE
330
53C6
100
AcDbEntity
  8
10
  6
Continuous
100
AcDbPolyline
 90
        2
 70
     0
 43
0.001
 10
147.0001220702999
 20
-59.49996948242993
 10
152.0001220703
 20
-59.49996948242993
  0
LWPOLYLINE
  5
53FF
330
53C6
100
AcDbEntity
  8
10
  6
Continuous
100
AcDbPolyline
 90
        2
 70
     0
 43
0.001
 10
152.0001220703
 20
-59.49996948242993
 10
152.0001220703
 20
-74.49996948242993
  0
LWPOLYLINE
  5
5400
330
53C6
100
AcDbEntity
  8
10
  6
Continuous
100
AcDbPolyline
 90
        2
 70
     0
 43
0.001
 10
147.0001220702999
 20
-74.49996948242993
 10
152.0001220703
 20
-74.49996948242993
  0
LWPOLYLINE
  5
5401
330
53C6
100
AcDbEntity
  8
10
  6
Continuous
100
AcDbPolyline
 90
        2
 70
     0
 43
0.001
 10
147.0001220702999
 20
-58.99996948242995
 10
147.0001220702999
 20
-59.49996948242993
  0
LWPOLYLINE
  5
5402
330
53C6
100
AcDbEntity
  8
10
  6
Continuous
100
AcDbPolyline
 90
        2
 70
     0
 43
0.001
 10
147.0001220702999
 20
-74.99996948242993
 10
127.5001220702999
 20
-74.99996948242993
  0
LWPOLYLINE
  5
5403
330
53C6
100
AcDbEntity
  8
10
  6
Continuous
100
AcDbPolyline
 90
        2
 70
     0
 43
0.001
 10
147.0001220702999
 20
-58.99996948242995
 10
127.5001220702999
 20
-58.99996948242995
  0
LWPOLYLINE
  5
5404
330
53C6
100
AcDbEntity
  8
10
  6
Continuous
100
AcDbPolyline
 90
        2
 70
     0
 43
0.001
 10
164.3001708983998
 20
-70.99996948242995
 10
164.3001708983998
 20
-74.99996948242993
  0
LWPOLYLINE
  5
5405
330
53C6
100
AcDbEntity
  8
10
  6
Continuous
100
AcDbPolyline
 90
        2
 70
     0
 43
0.001
 10
164.3001708983998
 20
-62.99996948242995
 10
164.3001708983998
 20
-70.99996948242995
  0
LWPOLYLINE
  5
5406
330
53C6
100
AcDbEntity
  8
10
  6
Continuous
100
AcDbPolyline
 90
        2
 70
     0
 43
0.001
 10
171.4283245110998
 20
-70.99997084972994
 42
0.2679492641254716
 10
171.4283250196998
 20
-62.99996899601989
 42
0.2679492641254716
  0
LWPOLYLINE
  5
5407
330
53C6
100
AcDbEntity
  8
10
  6
Continuous
100
AcDbPolyline
 90
        2
 70
     0
 43
0.001
 10
171.4283447264998
 20
-70.99996948242995
 10
164.3001708983998
 20
-70.99996948242995
  0
LWPOLYLINE
  5
5408
330
53C6
100
AcDbEntity
  8
10
  6
Continuous
100
AcDbPolyline
 90
        2
 70
     0
 43
0.001
 10
171.4283447264998
 20
-62.99996948242995
 10
164.3001708983998
 20
-62.99996948242995
  0
LWPOLYLINE
  5
5409
330
53C6
100
AcDbEntity
  8
10
  6
Continuous
100
AcDbPolyline
 90
        2
 70
     0
 43
0.001
 10
164.3001708983998
 20
-58.99996948242995
 10
164.3001708983998
 20
-62.99996948242995
  0
LWPOLYLINE
  5
540A
330
53C6
100
AcDbEntity
  8
10
  6
Continuous
100
AcDbPolyline
 90
        2
 70
     0
 43
0.001
 10
60.0001220703
 20
67.00003051757005
 10
239.8000488280998
 20
67.00003051757005
  0
LWPOLYLINE
  5
540B
330
53C6
100
AcDbEntity
  8
10
  6
Continuous
100
AcDbPolyline
 90
        2
 70
     0
 43
0.001
 10
70.0001220703
 20
59.00003051757003
 10
70.0001220703
 20
50.0
  0
LWPOLYLINE
  5
540C
330
53C6
100
AcDbEntity
  8
10
  6
Continuous
100
AcDbPolyline
 90
        2
 70
     0
 43
0.001
 10
25.80004882809999
 20
77.50015258789011
 10
25.80004882809999
 20
50.0
  0
LWPOLYLINE
  5
540D
330
53C6
100
AcDbEntity
  8
10
  6
Continuous
100
AcDbPolyline
 90
        2
 70
     0
 43
0.001
 10
0.0
 20
96.00006103514999
 10
0.0
 20
25.00012207031005
  0
LWPOLYLINE
  5
540E
330
53C6
100
AcDbEntity
  8
10
  6
Continuous
100
AcDbPolyline
 90
        2
 70
     0
 43
0.001
 10
70.0001220703
 20
50.0
 10
25.80004882809999
 20
50.0
  0
LWPOLYLINE
  5
540F
330
53C6
100
AcDbEntity
  8
10
  6
Continuous
100
AcDbPolyline
 90
        2
 70
     0
 43
0.001
 10
70.0001220703
 20
-50.00003051757992
 10
25.80004882809999
 20
-50.00003051757992
  0
LWPOLYLINE
  5
5410
330
53C6
100
AcDbEntity
  8
10
  6
Continuous
100
AcDbPolyline
 90
        2
 70
     0
 43
0.001
 10
0.0
 20
25.00012207031005
 10
0.0
 20
-24.99999999999995
  0
LWPOLYLINE
  5
5411
330
53C6
100
AcDbEntity
  8
10
  6
Continuous
100
AcDbPolyline
 90
        2
 70
     0
 43
0.001
 10
-1.999877929700004
 20
6.505249023430052
 10
-1.999877929700004
 20
-24.99999999999995
  0
LWPOLYLINE
  5
5412
330
53C6
100
AcDbEntity
  8
10
  6
Continuous
100
AcDbPolyline
 90
        2
 70
     0
 43
0.001
 10
0.0
 20
-24.99999999999995
 10
-1.999877929700004
 20
-24.99999999999995
  0
LWPOLYLINE
  5
5413
330
53C6
100
AcDbEntity
  8
10
  6
Continuous
100
AcDbPolyline
 90
        2
 70
     0
 43
0.001
 10
-1.999877929700004
 20
14.87072753906005
 10
-1.999877929700004
 20
6.505249023430052
  0
LWPOLYLINE
  5
5414
330
53C6
100
AcDbEntity
  8
10
  6
Continuous
100
AcDbPolyline
 90
        2
 70
     0
 43
0.001
 10
-1.999877929700004
 20
6.505249023430052
 10
-16.0
 20
11.83114624023005
  0
LWPOLYLINE
  5
5415
330
53C6
100
AcDbEntity
  8
10
  6
Continuous
100
AcDbPolyline
 90
        2
 70
     0
 43
0.001
 10
-13.80603027350002
 20
17.59851074218005
 10
-16.0
 20
11.83114624023005
  0
LWPOLYLINE
  5
5416
330
53C6
100
AcDbEntity
  8
10
  6
Continuous
100
AcDbPolyline
 90
        2
 70
     0
 43
0.001
 10
-1.999877929700004
 20
14.87072753906005
 10
-13.80603027350002
 20
17.59851074218005
  0
LWPOLYLINE
  5
5417
330
53C6
100
AcDbEntity
  8
10
  6
Continuous
100
AcDbPolyline
 90
        2
 70
     0
 43
0.001
 10
-1.999877929700004
 20
25.00012207031005
 10
0.0
 20
25.00012207031005
  0
LWPOLYLINE
  5
5418
330
53C6
100
AcDbEntity
  8
10
  6
Continuous
100
AcDbPolyline
 90
        2
 70
     0
 43
0.001
 10
-1.999877929700004
 20
25.00012207031005
 10
-1.999877929700004
 20
14.87072753906005
  0
LWPOLYLINE
  5
5419
330
53C6
100
AcDbEntity
  8
10
  6
Continuous
100
AcDbPolyline
 90
        2
 70
     0
 43
0.001
 10
70.0001220703
 20
50.0
 10
70.0001220703
 20
-50.00003051757992
  0
LWPOLYLINE
  5
541A
330
53C6
100
AcDbEntity
  8
10
  6
Continuous
100
AcDbPolyline
 90
        2
 70
     0
 43
0.001
 10
72.70007324209995
 20
50.0
 10
72.70007324209995
 20
-50.00003051757992
  0
LWPOLYLINE
  5
541B
330
53C6
100
AcDbEntity
  8
10
  6
Continuous
100
AcDbPolyline
 90
        2
 70
     0
 43
0.001
 10
72.70007324209995
 20
-50.00003051757992
 10
70.0001220703
 20
-50.00003051757992
  0
LWPOLYLINE
  5
541C
330
53C6
100
AcDbEntity
  8
10
  6
Continuous
100
AcDbPolyline
 90
        2
 70
     0
 43
0.001
 10
72.70007324209995
 20
50.0
 10
70.0001220703
 20
50.0
  0
LWPOLYLINE
  5
541D
330
53C6
100
AcDbEntity
  8
10
  6
Continuous
100
AcDbPolyline
 90
        2
 70
     0
 43
0.001
 10
70.0001220703
 20
77.50015258789011
 10
19.0
 20
77.50015258789011
  0
LWPOLYLINE
  5
541E
330
53C6
100
AcDbEntity
  8
10
  6
D329
100
AcDbPolyline
 90
        2
 70
     0
 43
0.001
 10
15.0
 20
130.00006103515
 10
15.0
 20
96.00006103514999
  0
LWPOLYLINE
  5
541F
330
53C6
100
AcDbEntity
  8
10
  6
D329
100
AcDbPolyline
 90
        2
 70
     0
 43
0.001
 10
19.0
 20
130.00006103515
 10
19.0
 20
77.50015258789011
  0
LWPOLYLINE
  5
5420
330
53C6
100
AcDbEntity
  8
10
  6
Continuous
100
AcDbPolyline
 90
        2
 70
     0
 43
0.001
 10
0.0
 20
96.00006103514999
 10
15.0
 20
96.00006103514999
  0
LWPOLYLINE
  5
5421
330
53C6
100
AcDbEntity
  8
10
  6
D329
100
AcDbPolyline
 90
        2
 70
     0
 43
0.001
 10
19.0
 20
130.00006103515
 10
15.0
 20
130.00006103515
  0
LWPOLYLINE
  5
5422
330
53C6
100
AcDbEntity
  8
10
  6
D341
100
AcDbPolyline
 90
        2
 70
     0
 43
0.001
 10
102.0001220703
 20
55.76309204101002
 10
102.0001220703
 20
106.8797912597599
  0
LWPOLYLINE
  5
5423
330
53C6
100
AcDbEntity
  8
10
  6
D341
100
AcDbPolyline
 90
        2
 70
     0
 43
0.001
 10
104.3001708983999
 20
55.76309204101002
 10
104.3001708983999
 20
106.8797912597599
  0
LWPOLYLINE
  5
5424
330
53C6
100
AcDbEntity
  8
10
  6
Continuous
100
AcDbPolyline
 90
        2
 70
     0
 43
0.001
 10
70.0001220703
 20
75.00003051757005
 10
97.00012207030001
 20
75.00003051757005
  0
LWPOLYLINE
  5
5425
330
53C6
100
AcDbEntity
  8
10
  6
Continuous
100
AcDbPolyline
 90
        2
 70
     0
 43
0.001
 10
70.0001220703
 20
59.00003051757003
 10
97.00012207030001
 20
59.00003051757003
  0
LWPOLYLINE
  5
5426
330
53C6
100
AcDbEntity
  8
10
  6
Continuous
100
AcDbPolyline
 90
        2
 70
     0
 43
0.001
 10
70.0001220703
 20
75.00003051757005
 10
70.0001220703
 20
59.00003051757003
  0
LWPOLYLINE
  5
5427
330
53C6
100
AcDbEntity
  8
10
  6
Continuous
100
AcDbPolyline
 90
        2
 70
     0
 43
0.001
 10
70.0001220703
 20
77.50015258789011
 10
70.0001220703
 20
75.00003051757005
  0
LWPOLYLINE
  5
5428
330
53C6
100
AcDbEntity
  8
10
  6
Continuous
100
AcDbPolyline
 90
        2
 70
     0
 43
0.001
 10
113.8001708983999
 20
63.00003051757006
 10
113.8001708983999
 20
59.00003051757003
  0
LWPOLYLINE
  5
5429
330
53C6
100
AcDbEntity
  8
10
  6
Continuous
100
AcDbPolyline
 90
        2
 70
     0
 43
0.001
 10
113.8001708983999
 20
71.00003051757005
 10
113.8001708983999
 20
63.00003051757006
  0
LWPOLYLINE
  5
542A
330
53C6
100
AcDbEntity
  8
10
  6
Continuous
100
AcDbPolyline
 90
        2
 70
     0
 43
0.001
 10
97.00012207030001
 20
59.50003051757004
 10
97.00012207030001
 20
59.00003051757003
  0
LWPOLYLINE
  5
542B
330
53C6
100
AcDbEntity
  8
10
  6
Continuous
100
AcDbPolyline
 90
        2
 70
     0
 43
0.001
 10
97.00012207030001
 20
74.50003051757005
 10
97.00012207030001
 20
59.50003051757004
  0
LWPOLYLINE
  5
542C
330
53C6
100
AcDbEntity
  8
10
  6
Continuous
100
AcDbPolyline
 90
        2
 70
     0
 43
0.001
 10
121.4283245110997
 20
63.00002915027
 42
0.2679492641254716
 10
121.4283250196998
 20
71.00003100398004
 42
0.2679492641254716
  0
LWPOLYLINE
  5
542D
330
53C6
100
AcDbEntity
  8
10
  6
Continuous
100
AcDbPolyline
 90
        2
 70
     0
 43
0.001
 10
102.0001220703
 20
74.50003051757005
 10
102.0001220703
 20
59.50003051757004
  0
LWPOLYLINE
  5
542E
330
53C6
100
AcDbEntity
  8
10
  6
Continuous
100
AcDbPolyline
 90
        2
 70
     0
 43
0.001
 10
104.3001708983999
 20
63.00003051757006
 10
97.00012207030001
 20
63.00003051757006
  0
LWPOLYLINE
  5
542F
330
53C6
100
AcDbEntity
  8
10
  6
Continuous
100
AcDbPolyline
 90
        2
 70
     0
 43
0.001
 10
104.3001708983999
 20
71.00003051757005
 10
97.00012207030001
 20
71.00003051757005
  0
LWPOLYLINE
  5
5430
330
53C6
100
AcDbEntity
  8
10
  6
Continuous
100
AcDbPolyline
 90
        2
 70
     0
 43
0.001
 10
104.3001708983999
 20
63.24722290039011
 10
113.8001708983999
 20
63.24722290039011
  0
LWPOLYLINE
  5
5431
330
53C6
100
AcDbEntity
  8
10
  6
Continuous
100
AcDbPolyline
 90
        2
 70
     0
 43
0.001
 10
104.3001708983999
 20
70.75283813476004
 10
113.8001708983999
 20
70.75283813476004
  0
LWPOLYLINE
  5
5432
330
53C6
100
AcDbEntity
  8
10
  6
Continuous
100
AcDbPolyline
 90
        2
 70
     0
 43
0.001
 10
113.8001708983999
 20
75.00003051757005
 10
113.8001708983999
 20
71.00003051757005
  0
LWPOLYLINE
  5
5433
330
53C6
100
AcDbEntity
  8
10
  6
Continuous
100
AcDbPolyline
 90
        2
 70
     0
 43
0.001
 10
102.0001220703
 20
74.50003051757005
 10
97.00012207030001
 20
74.50003051757005
  0
LWPOLYLINE
  5
5434
330
53C6
100
AcDbEntity
  8
10
  6
Continuous
100
AcDbPolyline
 90
        2
 70
     0
 43
0.001
 10
97.00012207030001
 20
75.00003051757005
 10
97.00012207030001
 20
74.50003051757005
  0
LWPOLYLINE
  5
5435
330
53C6
100
AcDbEntity
  8
10
  6
Continuous
100
AcDbPolyline
 90
        2
 70
     0
 43
0.001
 10
102.0001220703
 20
59.50003051757004
 10
97.00012207030001
 20
59.50003051757004
  0
LWPOLYLINE
  5
5436
330
53C6
100
AcDbEntity
  8
10
  6
Continuous
100
AcDbPolyline
 90
        2
 70
     0
 43
0.001
 10
121.4283447264999
 20
71.00003051757005
 10
113.8001708983999
 20
71.00003051757005
  0
LWPOLYLINE
  5
5437
330
53C6
100
AcDbEntity
  8
10
  6
Continuous
100
AcDbPolyline
 90
        2
 70
     0
 43
0.001
 10
121.4283447264999
 20
63.00003051757006
 10
113.8001708983999
 20
63.00003051757006
  0
LWPOLYLINE
  5
5438
330
53C6
100
AcDbEntity
  8
10
  6
Continuous
100
AcDbPolyline
 90
        2
 70
     0
 43
0.001
 10
113.8001708983999
 20
59.00003051757003
 10
104.3001708983999
 20
59.00003051757003
  0
LWPOLYLINE
  5
5439
330
53C6
100
AcDbEntity
  8
10
  6
Continuous
100
AcDbPolyline
 90
        2
 70
     0
 43
0.001
 10
104.3001708983999
 20
75.00003051757005
 10
113.8001708983999
 20
75.00003051757005
  0
LWPOLYLINE
  5
543A
330
53C6
100
AcDbEntity
  8
10
  6
Continuous
100
AcDbPolyline
 90
        2
 70
     0
 43
0.001
 10
102.0001220703
 20
55.76309204101002
 10
104.3001708983999
 20
55.76309204101002
  0
LWPOLYLINE
  5
543B
330
53C6
100
AcDbEntity
  8
10
  6
D341
100
AcDbPolyline
 90
        2
 70
     0
 43
0.001
 10
154.3001708983998
 20
55.76309204101002
 10
154.3001708983998
 20
106.8797912597599
  0
LWPOLYLINE
  5
543C
330
53C6
100
AcDbEntity
  8
10
  6
D341
100
AcDbPolyline
 90
        2
 70
     0
 43
0.001
 10
152.0001220703
 20
55.76309204101002
 10
152.0001220703
 20
106.8797912597599
  0
LWPOLYLINE
  5
543D
330
53C6
100
AcDbEntity
  8
10
  6
Continuous
100
AcDbPolyline
 90
        2
 70
     0
 43
0.001
 10
164.3001708983998
 20
59.00003051757003
 10
154.3001708983998
 20
59.00003051757003
  0
LWPOLYLINE
  5
543E
330
53C6
100
AcDbEntity
  8
10
  6
Continuous
100
AcDbPolyline
 90
        2
 70
     0
 43
0.001
 10
164.3001708983998
 20
75.00003051757005
 10
154.3001708983998
 20
75.00003051757005
  0
LWPOLYLINE
  5
543F
330
53C6
100
AcDbEntity
  8
10
  6
Continuous
100
AcDbPolyline
 90
        2
 70
     0
 43
0.001
 10
154.3001708983998
 20
70.75283813476004
 10
164.3001708983998
 20
70.75283813476004
  0
LWPOLYLINE
  5
5440
330
53C6
100
AcDbEntity
  8
10
  6
Continuous
100
AcDbPolyline
 90
        2
 70
     0
 43
0.001
 10
154.3001708983998
 20
63.24722290039011
 10
164.3001708983998
 20
63.24722290039011
  0
LWPOLYLINE
  5
5441
330
53C6
100
AcDbEntity
  8
10
  6
Continuous
100
AcDbPolyline
 90
        2
 70
     0
 43
0.001
 10
147.0001220702999
 20
59.50003051757004
 10
147.0001220702999
 20
59.00003051757003
  0
LWPOLYLINE
  5
5442
330
53C6
100
AcDbEntity
  8
10
  6
Continuous
100
AcDbPolyline
 90
        2
 70
     0
 43
0.001
 10
147.0001220702999
 20
74.50003051757005
 10
147.0001220702999
 20
59.50003051757004
  0
LWPOLYLINE
  5
5443
330
53C6
100
AcDbEntity
  8
10
  6
Continuous
100
AcDbPolyline
 90
        2
 70
     0
 43
0.001
 10
154.3001708983998
 20
63.00003051757006
 10
147.0001220702999
 20
63.00003051757006
  0
LWPOLYLINE
  5
5444
330
53C6
100
AcDbEntity
  8
10
  6
Continuous
100
AcDbPolyline
 90
        2
 70
     0
 43
0.001
 10
154.3001708983998
 20
71.00003051757005
 10
147.0001220702999
 20
71.00003051757005
  0
LWPOLYLINE
  5
5445
330
53C6
100
AcDbEntity
  8
10
  6
Continuous
100
AcDbPolyline
 90
        2
 70
     0
 43
0.001
 10
147.0001220702999
 20
74.50003051757005
 10
152.0001220703
 20
74.50003051757005
  0
LWPOLYLINE
  5
5446
330
53C6
100
AcDbEntity
  8
10
  6
Continuous
100
AcDbPolyline
 90
        2
 70
     0
 43
0.001
 10
152.0001220703
 20
74.50003051757005
 10
152.0001220703
 20
59.50003051757004
  0
LWPOLYLINE
  5
5447
330
53C6
100
AcDbEntity
  8
10
  6
Continuous
100
AcDbPolyline
 90
        2
 70
     0
 43
0.001
 10
147.0001220702999
 20
59.50003051757004
 10
152.0001220703
 20
59.50003051757004
  0
LWPOLYLINE
  5
5448
330
53C6
100
AcDbEntity
  8
10
  6
Continuous
100
AcDbPolyline
 90
        2
 70
     0
 43
0.001
 10
147.0001220702999
 20
75.00003051757005
 10
147.0001220702999
 20
74.50003051757005
  0
LWPOLYLINE
  5
5449
330
53C6
100
AcDbEntity
  8
10
  6
Continuous
100
AcDbPolyline
 90
        2
 70
     0
 43
0.001
 10
147.0001220702999
 20
59.00003051757003
 10
127.5001220702999
 20
59.00003051757003
  0
LWPOLYLINE
  5
544A
330
53C6
100
AcDbEntity
  8
10
  6
Continuous
100
AcDbPolyline
 90
        2
 70
     0
 43
0.001
 10
147.0001220702999
 20
75.00003051757005
 10
127.5001220702999
 20
75.00003051757005
  0
LWPOLYLINE
  5
544B
330
53C6
100
AcDbEntity
  8
10
  6
Continuous
100
AcDbPolyline
 90
        2
 70
     0
 43
0.001
 10
152.0001220703
 20
55.76309204101002
 10
154.3001708983998
 20
55.76309204101002
  0
LWPOLYLINE
  5
544C
330
53C6
100
AcDbEntity
  8
10
  6
Continuous
100
AcDbPolyline
 90
        2
 70
     0
 43
0.001
 10
164.3001708983998
 20
63.00003051757006
 10
164.3001708983998
 20
59.00003051757003
  0
LWPOLYLINE
  5
544D
330
53C6
100
AcDbEntity
  8
10
  6
Continuous
100
AcDbPolyline
 90
        2
 70
     0
 43
0.001
 10
164.3001708983998
 20
71.00003051757005
 10
164.3001708983998
 20
63.00003051757006
  0
LWPOLYLINE
  5
544E
330
53C6
100
AcDbEntity
  8
10
  6
Continuous
100
AcDbPolyline
 90
        2
 70
     0
 43
0.001
 10
171.4283245110998
 20
63.00002915027
 42
0.2679492641254716
 10
171.4283250196998
 20
71.00003100398004
 42
0.2679492641254716
  0
LWPOLYLINE
  5
544F
330
53C6
100
AcDbEntity
  8
10
  6
Continuous
100
AcDbPolyline
 90
        2
 70
     0
 43
0.001
 10
171.4283447264998
 20
63.00003051757006
 10
164.3001708983998
 20
63.00003051757006
  0
LWPOLYLINE
  5
5450
330
53C6
100
AcDbEntity
  8
10
  6
Continuous
100
AcDbPolyline
 90
        2
 70
     0
 43
0.001
 10
171.4283447264998
 20
71.00003051757005
 10
164.3001708983998
 20
71.00003051757005
  0
LWPOLYLINE
  5
5451
330
53C6
100
AcDbEntity
  8
10
  6
Continuous
100
AcDbPolyline
 90
        2
 70
     0
 43
0.001
 10
164.3001708983998
 20
75.00003051757005
 10
164.3001708983998
 20
71.00003051757005
  0
ENDBLK
  5
5453
330
53C6
100
AcDbEntity
  8
0
100
AcDbBlockEnd
  0
BLOCK
  5
572E
330
572B
100
AcDbEntity
  8
L210_
  6
Continuous
 62
     4
100
AcDbBlockBegin
  2
B2383
 70
     0
 10
0.0
 20
0.0
 30
0.0
  3
B2383
  1

  0
TEXT
  5
572C
330
572B
100
AcDbEntity
  8
L210_
  6
Continuous
 62
     4
100
AcDbText
 10
1634.50866699219
 20
455.024810791016
 30
0.0
 40
12.0
  1
n
  7
SYMBOL3
 72
     5
 11
1646.50866699219
 21
455.024810791016
 31
0.0
100
AcDbText
 73
     2
  0
TEXT
  5
572D
330
572B
100
AcDbEntity
  8
L210_
  6
Continuous
 62
     4
100
AcDbText
 10
1652.50866699219
 20
455.024810791016
 30
0.0
 40
12.0
  1
9
 41
1.049999999999982
 72
     5
 11
1660.90866699219
 21
455.024810791016
 31
0.0
100
AcDbText
 73
     2
  0
ENDBLK
  5
572F
330
572B
100
AcDbEntity
  8
L210_
  6
Continuous
 62
     4
100
AcDbBlockEnd
  0
BLOCK
  5
5736
330
5730
100
AcDbEntity
  8
0
100
AcDbBlockBegin
  2
*D10
 70
     1
 10
0.0
 20
0.0
 30
0.0
  3
*D10
  1

  0
LINE
  5
5731
330
5730
100
AcDbEntity
  8
0
  6
ByBlock
 62
     4
440
 16777216
100
AcDbLine
 10
1588.251651067948
 20
494.6908712885527
 30
0.0
 11
1628.550785128841
 21
449.4601341890538
 31
0.0
  0
LINE
  5
5732
330
5730
100
AcDbEntity
  8
0
  6
ByBlock
 62
     4
440
 16777216
100
AcDbLine
 10
1628.550785128841
 20
449.4601341890538
 30
0.0
 11
1628.64078512884
 21
449.4601341890538
 31
0.0
  0
SOLID
  5
5733
330
5730
100
AcDbEntity
  8
0
  6
ByBlock
 62
     4
440
 16777216
100
AcDbTrace
 10
1586.385055966953
 20
493.0277950037911
 30
0.0
 11
1590.118246168946
 21
496.3539475733141
 31
0.0
 12
1578.27319335938
 22
505.890441894531
 32
0.0
 13
1578.27319335938
 23
505.890441894531
 33
0.0
  0
POINT
  5
5734
330
5730
100
AcDbEntity
  8
DEFPOINTS
  6
ByBlock
 62
     0
440
 16777216
100
AcDbPoint
 10
1578.27319335938
 20
505.890441894531
 30
0.0
  0
POINT
  5
5735
330
5730
100
AcDbEntity
  8
DEFPOINTS
  6
ByBlock
 62
     0
440
 16777216
100
AcDbPoint
 10
1572.286132812499
 20
512.6101684570311
 30
0.0
  0
ENDBLK
  5
5737
330
5730
100
AcDbEntity
  8
0
100
AcDbBlockEnd
  0
BLOCK
  5
573B
330
5738
100
AcDbEntity
  8
L210_
100
AcDbBlockBegin
  2
B2387
 70
     0
 10
0.0
 20
0.0
 30
0.0
  3
B2387
  1

  0
DIMENSION
  5
5739
330
5738
100
AcDbEntity
  8
L210_
100
AcDbDimension
280
     0
  2
*D10
 10
1572.286132812499
 20
512.610168457031
 30
0.0
 11
1389.58799470825
 21
376.195648193359
 31
0.0
 70
     3
  1
 
 71
     5
 42
-1.0
 73
     0
 74
     0
 75
     0
  3
STANDARD
100
AcDbDiametricDimension
 15
1578.27319335938
 25
505.890441894531
 35
0.0
 40
75.57920257499124
  0
INSERT
  5
573A
330
5738
100
AcDbEntity
  8
L210_
  6
Continuous
 62
     4
100
AcDbBlockReference
  2
B2383
 10
0.0
 20
0.0
 30
0.0
  0
ENDBLK
  5
573C
330
5738
100
AcDbEntity
  8
L210_
100
AcDbBlockEnd
  0
BLOCK
  5
5F74
330
5F6A
100
AcDbEntity
  8
0
100
AcDbBlockBegin
  2
*D12
 70
     1
 10
0.0
 20
0.0
 30
0.0
  3
*D12
  1

  0
LINE
  5
5F6B
330
5F6A
100
AcDbEntity
  8
30
  6
Continuous
 62
     0
100
AcDbLine
 10
0.1181906098743895
 20
311.8005361318753
 30
0.0
 11
0.1181906098743913
 21
340.6194088241316
 31
0.0
  0
LINE
  5
5F6C
330
5F6A
100
AcDbEntity
  8
30
  6
Continuous
 62
     0
100
AcDbLine
 10
35.11819060987439
 20
276.8005361318753
 30
0.0
 11
35.1181906098744
 21
340.6194088241316
 31
0.0
  0
LINE
  5
5F6D
330
5F6A
100
AcDbEntity
  8
30
  6
Continuous
 62
     0
100
AcDbLine
 10
2.118190609874389
 20
340.1194088241313
 30
0.0
 11
33.11819060987438
 21
340.1194088241313
 31
0.0
  0
INSERT
  5
5F6E
330
5F6A
100
AcDbEntity
  8
30
  6
Continuous
 62
     0
100
AcDbBlockReference
  2
_OPEN
 10
0.1181906098743912
 20
340.1194088241313
 30
0.0
 41
2.0
 42
2.0
 43
2.0
 50
180.0
  0
INSERT
  5
5F6F
330
5F6A
100
AcDbEntity
  8
30
  6
Continuous
 62
     0
100
AcDbBlockReference
  2
_OPEN
 10
35.1181906098744
 20
340.1194088241313
 30
0.0
 41
2.0
 42
2.0
 43
2.0
  0
MTEXT
  5
5F70
330
5F6A
100
AcDbEntity
  8
30
  6
Continuous
 62
     0
100
AcDbMText
 10
17.61819060987439
 20
343.1194088241316
 30
0.0
 40
4.0
 41
0.0
 46
0.0
 71
     5
 72
     1
  1
\A1;35
 73
     1
 44
1.0
1001
ACAD
1000
MTEXTBEGIN
1070
    73
1070
     1
1070
    44
1040
1.0
1070
    74
1070
     0
1000
MTEXTEND
1000
MTEXTBEGIN
1070
    73
1070
     1
1070
    44
1040
1.0
1070
    74
1070
     0
1000
MTEXTEND
  0
POINT
  5
5F71
330
5F6A
100
AcDbEntity
  8
DEFPOINTS
  6
Continuous
 62
     0
100
AcDbPoint
 10
0.1181906098743894
 20
310.8005361318753
 30
0.0
  0
POINT
  5
5F72
330
5F6A
100
AcDbEntity
  8
DEFPOINTS
  6
Continuous
 62
     0
100
AcDbPoint
 10
35.11819060987439
 20
275.8005361318753
 30
0.0
  0
POINT
  5
5F73
330
5F6A
100
AcDbEntity
  8
DEFPOINTS
  6
Continuous
 62
     0
100
AcDbPoint
 10
35.1181906098744
 20
340.1194088241313
 30
0.0
  0
ENDBLK
  5
5F75
330
5F6A
100
AcDbEntity
  8
0
100
AcDbBlockEnd
  0
BLOCK
  5
5F7A
330
5F76
100
AcDbEntity
  8
0
100
AcDbBlockBegin
  2
A$C59C36ED1
 70
     0
 10
0.0
 20
0.0
 30
0.0
  3
A$C59C36ED1
  1

  0
DIMENSION
  5
5F77
330
5F76
100
AcDbEntity
  8
30
  6
Continuous
100
AcDbDimension
280
     0
  2
*D12
 10
0.0000000000000071
 20
64.31887269225626
 30
0.0
 11
-17.49999999999999
 21
67.31887269225627
 31
0.0
 12
-35.11819060987439
 22
-275.8005361318753
 32
0.0
 71
     5
 42
-1.0
 73
     0
 74
     0
 75
     0
  3
STANDARD
100
AcDbAlignedDimension
 13
-35.0
 23
35.0
 33
0.0
 14
0.0
 24
0.0
 34
0.0
100
AcDbRotatedDimension
1001
ACAD
1000
DSTYLE
1002
{
1070
   287
1070
     4
1070
   287
1070
     4
1070
   279
1070
     1
1002
}
  0
LINE
  5
5F78
330
5F76
100
AcDbEntity
  8
17
  6
CONTINOUS
100
AcDbLine
 10
8.0
 20
0.0
 30
0.0
 11
-8.0
 21
0.0
 31
0.0
  0
LINE
  5
5F79
330
5F76
100
AcDbEntity
  8
17
  6
CONTINOUS
100
AcDbLine
 10
0.0
 20
-8.0
 30
0.0
 11
0.0
 21
8.0
 31
0.0
  0
ENDBLK
  5
5F7B
330
5F76
100
AcDbEntity
  8
0
100
AcDbBlockEnd
  0
BLOCK
  5
6CBA
330
6CB9
100
AcDbEntity
  8
0
100
AcDbBlockBegin
  2
REVDATE
 70
     2
 10
0.0
 20
0.0
 30
0.0
  3
REVDATE
  1
REVDATE
  0
ATTDEF
  5
6CBB
330
6CB9
100
AcDbEntity
  8
0
  6
Continuous
 62
     0
100
AcDbText
 10
0.0
 20
0.0
 30
0.0
 40
19.18333333333332
  1

100
AcDbAttributeDefinition
280
     0
  3

  2
USER
 70
     8
280
     0
  0
ATTDEF
  5
6CBC
330
6CB9
100
AcDbEntity
  8
0
  6
Continuous
 62
     0
100
AcDbText
 10
0.0
 20
0.0
 30
0.0
 40
19.18333333333332
  1

100
AcDbAttributeDefinition
280
     0
  3

  2
REVDATE
 70
     8
280
     0
  0
ATTDEF
  5
6CBD
330
6CB9
100
AcDbEntity
  8
0
  6
Continuous
 62
     0
100
AcDbText
 10
0.0
 20
0.0
 30
0.0
 40
19.18333333333332
  1

100
AcDbAttributeDefinition
280
     0
  3

  2
FNAME
 70
     8
280
     0
  0
ENDBLK
  5
6CBE
330
6CB9
100
AcDbEntity
  8
0
100
AcDbBlockEnd
  0
BLOCK
  5
751C
330
7519
100
AcDbEntity
  8
L0_
  6
Continuous
100
AcDbBlockBegin
  2
B4617
 70
     0
 10
0.0
 20
0.0
 30
0.0
  3
B4617
  1

  0
LWPOLYLINE
  5
751A
330
7519
100
AcDbEntity
  8
L0_
  6
Continuous
100
AcDbPolyline
 90
        3
 70
     0
 43
0.0
 10
1552.262422971515
 20
720.8670526469212
 10
1539.470703125
 20
712.64379882813
 10
1554.237979894014
 20
716.2738865443332
  0
LWPOLYLINE
  5
751B
330
7519
100
AcDbEntity
  8
L0_
  6
Continuous
100
AcDbPolyline
 90
        4
 70
     0
 43
0.0
 10
1539.470703125
 20
712.64379882813
 10
1638.7316894531
 20
755.3367309570298
 10
1640.025390625
 20
755.3367309570298
 10
1699.4254150391
 20
755.3367309570298
  0
ENDBLK
  5
751D
330
7519
100
AcDbEntity
  8
L0_
  6
Continuous
100
AcDbBlockEnd
  0
BLOCK
  5
7521
330
751E
100
AcDbEntity
  8
L230_
  6
Continuous
 62
     6
100
AcDbBlockBegin
  2
B4619
 70
     0
 10
0.0
 20
0.0
 30
0.0
  3
B4619
  1

  0
INSERT
  5
751F
330
751E
100
AcDbEntity
  8
L0_
  6
Continuous
100
AcDbBlockReference
  2
B4617
 10
0.0
 20
0.0
 30
0.0
  0
TEXT
  5
7520
330
751E
100
AcDbEntity
  8
L0_
  6
Continuous
100
AcDbText
 10
1647.525390624999
 20
762.8367309570299
 30
0.0
 40
12.0
  1
Panel
 41
1.008000000000019
  7
LEROY
 72
     5
 11
1697.925390625
 21
762.8367309570299
 31
0.0
100
AcDbText
 73
     2
  0
ENDBLK
  5
7522
330
751E
100
AcDbEntity
  8
L230_
  6
Continuous
 62
     6
100
AcDbBlockEnd
  0
BLOCK
  5
78E6
330
78DC
100
AcDbEntity
  8
0
100
AcDbBlockBegin
  2
*D17
 70
     1
 10
0.0
 20
0.0
 30
0.0
  3
*D17
  1

  0
LINE
  5
8011
330
78DC
100
AcDbEntity
  8
30
  6
Continuous
 62
     0
440
 16777216
100
AcDbLine
 10
447.3404576618277
 20
-881.1905703767266
 30
0.0
 11
447.3404576618277
 21
-940.0639479338034
 31
0.0
  0
LINE
  5
8012
330
78DC
100
AcDbEntity
  8
30
  6
Continuous
 62
     0
440
 16777216
100
AcDbLine
 10
797.3404576618277
 20
-881.1905703767266
 30
0.0
 11
797.3404576618277
 21
-940.0639479338034
 31
0.0
  0
LINE
  5
8013
330
78DC
100
AcDbEntity
  8
30
  6
Continuous
 62
     0
440
 16777216
100
AcDbLine
 10
449.3404576618277
 20
-939.5639479338031
 30
0.0
 11
795.3404576618277
 21
-939.5639479338031
 31
0.0
  0
INSERT
  5
8014
330
78DC
100
AcDbEntity
  8
30
  6
Continuous
 62
     0
440
 16777216
100
AcDbBlockReference
  2
_OPEN
 10
447.3404576618277
 20
-939.5639479338031
 30
0.0
 41
2.0
 42
2.0
 43
2.0
 50
180.0
  0
INSERT
  5
8015
330
78DC
100
AcDbEntity
  8
30
  6
Continuous
 62
     0
440
 16777216
100
AcDbBlockReference
  2
_OPEN
 10
797.3404576618277
 20
-939.5639479338031
 30
0.0
 41
2.0
 42
2.0
 43
2.0
  0
MTEXT
  5
8016
330
78DC
100
AcDbEntity
  8
30
  6
Continuous
 62
     0
440
 16777216
100
AcDbMText
 10
622.3404576618278
 20
-933.5639479338032
 30
0.0
 40
10.0
 41
0.0
 46
0.0
 71
     5
 72
     1
  1
\A1;350
 73
     1
 44
1.0
1001
ACAD
1000
MTEXTBEGIN
1070
    73
1070
     1
1070
    44
1040
1.0
1070
    74
1070
     0
1000
MTEXTEND
1000
MTEXTBEGIN
1070
    73
1070
     1
1070
    44
1040
1.0
1070
    74
1070
     0
1000
MTEXTEND
  0
POINT
  5
8017
330
78DC
100
AcDbEntity
  8
DEFPOINTS
  6
Continuous
 62
     0
440
 16777216
100
AcDbPoint
 10
447.3404576618277
 20
-871.1905703767266
 30
0.0
  0
POINT
  5
8018
330
78DC
100
AcDbEntity
  8
DEFPOINTS
  6
Continuous
 62
     0
440
 16777216
100
AcDbPoint
 10
797.3404576618277
 20
-871.1905703767266
 30
0.0
  0
POINT
  5
8019
330
78DC
100
AcDbEntity
  8
DEFPOINTS
  6
Continuous
 62
     0
440
 16777216
100
AcDbPoint
 10
797.3404576618277
 20
-939.5639479338031
 30
0.0
  0
ENDBLK
  5
78E7
330
78DC
100
AcDbEntity
  8
0
100
AcDbBlockEnd
  0
BLOCK
  5
78F3
330
78E9
100
AcDbEntity
  8
0
100
AcDbBlockBegin
  2
*D18
 70
     1
 10
0.0
 20
0.0
 30
0.0
  3
*D18
  1

  0
LINE
  5
801A
330
78E9
100
AcDbEntity
  8
30
  6
Continuous
 62
     0
440
 16777216
100
AcDbLine
 10
807.3404576618276
 20
-405.1905398591467
 30
0.0
 11
917.1045666747923
 21
-405.1905398591467
 31
0.0
  0
LINE
  5
801B
330
78E9
100
AcDbEntity
  8
30
  6
Continuous
 62
     0
440
 16777216
100
AcDbLine
 10
807.3404576618276
 20
-871.1905703767266
 30
0.0
 11
917.1045666747923
 21
-871.1905703767266
 31
0.0
  0
LINE
  5
801C
330
78E9
100
AcDbEntity
  8
30
  6
Continuous
 62
     0
440
 16777216
100
AcDbLine
 10
916.6045666747923
 20
-407.1905398591466
 30
0.0
 11
916.6045666747923
 21
-869.1905703767266
 31
0.0
  0
INSERT
  5
801D
330
78E9
100
AcDbEntity
  8
30
  6
Continuous
 62
     0
440
 16777216
100
AcDbBlockReference
  2
_OPEN
 10
916.6045666747923
 20
-405.1905398591467
 30
0.0
 41
2.0
 42
2.0
 43
2.0
 50
90.0
  0
INSERT
  5
801E
330
78E9
100
AcDbEntity
  8
30
  6
Continuous
 62
     0
440
 16777216
100
AcDbBlockReference
  2
_OPEN
 10
916.6045666747923
 20
-871.1905703767266
 30
0.0
 41
2.0
 42
2.0
 43
2.0
 50
270.0
  0
MTEXT
  5
801F
330
78E9
100
AcDbEntity
  8
30
  6
Continuous
 62
     0
440
 16777216
100
AcDbMText
 10
910.6045666747926
 20
-638.1905551179364
 30
0.0
 40
10.0
 41
0.0
 46
0.0
 71
     5
 72
     1
  1
\A1;466
 11
0.0000000000000001
 21
1.0
 31
0.0
 73
     1
 44
1.0
1001
ACAD
1000
MTEXTBEGIN
1070
    73
1070
     1
1070
    44
1040
1.0
1070
    74
1070
     0
1000
MTEXTEND
1000
MTEXTBEGIN
1070
    73
1070
     1
1070
    44
1040
1.0
1070
    74
1070
     0
1000
MTEXTEND
  0
POINT
  5
8020
330
78E9
100
AcDbEntity
  8
DEFPOINTS
  6
Continuous
 62
     0
440
 16777216
100
AcDbPoint
 10
797.3404576618277
 20
-405.1905398591467
 30
0.0
  0
POINT
  5
8021
330
78E9
100
AcDbEntity
  8
DEFPOINTS
  6
Continuous
 62
     0
440
 16777216
100
AcDbPoint
 10
797.3404576618277
 20
-871.1905703767266
 30
0.0
  0
POINT
  5
8022
330
78E9
100
AcDbEntity
  8
DEFPOINTS
  6
Continuous
 62
     0
440
 16777216
100
AcDbPoint
 10
916.6045666747923
 20
-871.1905703767266
 30
0.0
  0
ENDBLK
  5
78F4
330
78E9
100
AcDbEntity
  8
0
100
AcDbBlockEnd
  0
BLOCK
  5
7900
330
78F6
100
AcDbEntity
  8
0
100
AcDbBlockBegin
  2
*D19
 70
     1
 10
0.0
 20
0.0
 30
0.0
  3
*D19
  1

  0
LINE
  5
8023
330
78F6
100
AcDbEntity
  8
30
  6
Continuous
 62
     0
440
 16777216
100
AcDbLine
 10
-151.0932617187993
 20
-774.1905707701294
 30
0.0
 11
-151.0932617187993
 21
-922.2098398427323
 31
0.0
  0
LINE
  5
8024
330
78F6
100
AcDbEntity
  8
30
  6
Continuous
 62
     0
440
 16777216
100
AcDbLine
 10
150.9064941406005
 20
-774.1905707701294
 30
0.0
 11
150.9064941406005
 21
-922.2098398427323
 31
0.0
  0
LINE
  5
8025
330
78F6
100
AcDbEntity
  8
30
  6
Continuous
 62
     0
440
 16777216
100
AcDbLine
 10
-149.0932617187993
 20
-921.7098398427324
 30
0.0
 11
148.9064941406005
 21
-921.7098398427324
 31
0.0
  0
INSERT
  5
8026
330
78F6
100
AcDbEntity
  8
30
  6
Continuous
 62
     0
440
 16777216
100
AcDbBlockReference
  2
_OPEN
 10
-151.0932617187993
 20
-921.7098398427324
 30
0.0
 41
2.0
 42
2.0
 43
2.0
 50
180.0
  0
INSERT
  5
8027
330
78F6
100
AcDbEntity
  8
30
  6
Continuous
 62
     0
440
 16777216
100
AcDbBlockReference
  2
_OPEN
 10
150.9064941406005
 20
-921.7098398427324
 30
0.0
 41
2.0
 42
2.0
 43
2.0
  0
MTEXT
  5
8028
330
78F6
100
AcDbEntity
  8
30
  6
Continuous
 62
     0
440
 16777216
100
AcDbMText
 10
-0.0933837890995047
 20
-915.7098398427324
 30
0.0
 40
10.0
 41
0.0
 46
0.0
 71
     5
 72
     1
  1
\A1;302
 73
     1
 44
1.0
1001
ACAD
1000
MTEXTBEGIN
1070
    73
1070
     1
1070
    44
1040
1.0
1070
    74
1070
     0
1000
MTEXTEND
1000
MTEXTBEGIN
1070
    73
1070
     1
1070
    44
1040
1.0
1070
    74
1070
     0
1000
MTEXTEND
  0
POINT
  5
8029
330
78F6
100
AcDbEntity
  8
DEFPOINTS
  6
Continuous
 62
     0
440
 16777216
100
AcDbPoint
 10
-151.0932617187993
 20
-764.1905707701294
 30
0.0
  0
POINT
  5
802A
330
78F6
100
AcDbEntity
  8
DEFPOINTS
  6
Continuous
 62
     0
440
 16777216
100
AcDbPoint
 10
150.9064941406005
 20
-764.1905707701294
 30
0.0
  0
POINT
  5
802B
330
78F6
100
AcDbEntity
  8
DEFPOINTS
  6
Continuous
 62
     0
440
 16777216
100
AcDbPoint
 10
150.9064941406005
 20
-921.7098398427324
 30
0.0
  0
ENDBLK
  5
7901
330
78F6
100
AcDbEntity
  8
0
100
AcDbBlockEnd
  0
BLOCK
  5
790D
330
7903
100
AcDbEntity
  8
0
100
AcDbBlockBegin
  2
*D20
 70
     1
 10
0.0
 20
0.0
 30
0.0
  3
*D20
  1

  0
LINE
  5
802C
330
7903
100
AcDbEntity
  8
30
  6
Continuous
 62
     0
440
 16777216
100
AcDbLine
 10
-52.5935058593995
 20
-433.1905402525491
 30
0.0
 11
-52.59350585939951
 21
-511.7699266146074
 31
0.0
  0
LINE
  5
802D
330
7903
100
AcDbEntity
  8
30
  6
Continuous
 62
     0
440
 16777216
100
AcDbLine
 10
52.4064941406005
 20
-433.1905402525491
 30
0.0
 11
52.40649414060049
 21
-511.7699266146074
 31
0.0
  0
LINE
  5
802E
330
7903
100
AcDbEntity
  8
30
  6
Continuous
 62
     0
440
 16777216
100
AcDbLine
 10
-50.59350585939951
 20
-511.2699266146073
 30
0.0
 11
50.40649414060049
 21
-511.2699266146073
 31
0.0
  0
INSERT
  5
802F
330
7903
100
AcDbEntity
  8
30
  6
Continuous
 62
     0
440
 16777216
100
AcDbBlockReference
  2
_OPEN
 10
-52.59350585939951
 20
-511.2699266146073
 30
0.0
 41
2.0
 42
2.0
 43
2.0
 50
180.0
  0
INSERT
  5
8030
330
7903
100
AcDbEntity
  8
30
  6
Continuous
 62
     0
440
 16777216
100
AcDbBlockReference
  2
_OPEN
 10
52.40649414060049
 20
-511.2699266146073
 30
0.0
 41
2.0
 42
2.0
 43
2.0
  0
MTEXT
  5
8031
330
7903
100
AcDbEntity
  8
30
  6
Continuous
 62
     0
440
 16777216
100
AcDbMText
 10
-0.0935058593995063
 20
-505.2699266146071
 30
0.0
 40
10.0
 41
0.0
 46
0.0
 71
     5
 72
     1
  1
\A1;105
 73
     1
 44
1.0
1001
ACAD
1000
MTEXTBEGIN
1070
    73
1070
     1
1070
    44
1040
1.0
1070
    74
1070
     0
1000
MTEXTEND
1000
MTEXTBEGIN
1070
    73
1070
     1
1070
    44
1040
1.0
1070
    74
1070
     0
1000
MTEXTEND
  0
POINT
  5
8032
330
7903
100
AcDbEntity
  8
DEFPOINTS
  6
Continuous
 62
     0
440
 16777216
100
AcDbPoint
 10
-52.5935058593995
 20
-423.1905402525493
 30
0.0
  0
POINT
  5
8033
330
7903
100
AcDbEntity
  8
DEFPOINTS
  6
Continuous
 62
     0
440
 16777216
100
AcDbPoint
 10
52.4064941406005
 20
-423.1905402525493
 30
0.0
  0
POINT
  5
8034
330
7903
100
AcDbEntity
  8
DEFPOINTS
  6
Continuous
 62
     0
440
 16777216
100
AcDbPoint
 10
52.40649414060049
 20
-511.2699266146073
 30
0.0
  0
ENDBLK
  5
790E
330
7903
100
AcDbEntity
  8
0
100
AcDbBlockEnd
  0
BLOCK
  5
7934
330
792A
100
AcDbEntity
  8
0
100
AcDbBlockBegin
  2
*D21
 70
     1
 10
0.0
 20
0.0
 30
0.0
  3
*D21
  1

  0
LINE
  5
8035
330
792A
100
AcDbEntity
  8
30
  6
Continuous
 62
     0
440
 16777216
100
AcDbLine
 10
311.4580078125005
 20
-719.1905707701293
 30
0.0
 11
319.8207301457713
 21
-719.1905707701293
 31
0.0
  0
LINE
  5
8036
330
792A
100
AcDbEntity
  8
30
  6
Continuous
 62
     0
440
 16777216
100
AcDbLine
 10
278.9064941406004
 20
-749.1905707701294
 30
0.0
 11
319.8207301457713
 21
-749.1905707701294
 31
0.0
  0
LINE
  5
8037
330
792A
100
AcDbEntity
  8
30
  6
Continuous
 62
     0
440
 16777216
100
AcDbLine
 10
319.3207301457714
 20
-721.1905707701292
 30
0.0
 11
319.3207301457714
 21
-747.1905707701294
 31
0.0
  0
INSERT
  5
8038
330
792A
100
AcDbEntity
  8
30
  6
Continuous
 62
     0
440
 16777216
100
AcDbBlockReference
  2
_OPEN
 10
319.3207301457714
 20
-719.1905707701293
 30
0.0
 41
2.0
 42
2.0
 43
2.0
 50
90.0
  0
INSERT
  5
8039
330
792A
100
AcDbEntity
  8
30
  6
Continuous
 62
     0
440
 16777216
100
AcDbBlockReference
  2
_OPEN
 10
319.3207301457714
 20
-749.1905707701294
 30
0.0
 41
2.0
 42
2.0
 43
2.0
 50
270.0
  0
MTEXT
  5
803A
330
792A
100
AcDbEntity
  8
30
  6
Continuous
 62
     0
440
 16777216
100
AcDbMText
 10
313.3207301457715
 20
-734.1905707701291
 30
0.0
 40
10.0
 41
0.0
 46
0.0
 71
     5
 72
     1
  1
\A1;30
 11
0.0000000000000001
 21
1.0
 31
0.0
 73
     1
 44
1.0
1001
ACAD
1000
MTEXTBEGIN
1070
    73
1070
     1
1070
    44
1040
1.0
1070
    74
1070
     0
1000
MTEXTEND
1000
MTEXTBEGIN
1070
    73
1070
     1
1070
    44
1040
1.0
1070
    74
1070
     0
1000
MTEXTEND
  0
POINT
  5
803B
330
792A
100
AcDbEntity
  8
DEFPOINTS
  6
Continuous
 62
     0
440
 16777216
100
AcDbPoint
 10
301.4580078125005
 20
-719.1905707701293
 30
0.0
  0
POINT
  5
803C
330
792A
100
AcDbEntity
  8
DEFPOINTS
  6
Continuous
 62
     0
440
 16777216
100
AcDbPoint
 10
268.9064941406005
 20
-749.1905707701294
 30
0.0
  0
POINT
  5
803D
330
792A
100
AcDbEntity
  8
DEFPOINTS
  6
Continuous
 62
     0
440
 16777216
100
AcDbPoint
 10
319.3207301457714
 20
-749.1905707701294
 30
0.0
  0
ENDBLK
  5
7935
330
792A
100
AcDbEntity
  8
0
100
AcDbBlockEnd
  0
BLOCK
  5
794A
330
7940
100
AcDbEntity
  8
0
100
AcDbBlockBegin
  2
*D22
 70
     1
 10
0.0
 20
0.0
 30
0.0
  3
*D22
  1

  0
LINE
  5
803E
330
7940
100
AcDbEntity
  8
30
  6
Continuous
 62
     0
440
 16777216
100
AcDbLine
 10
77.4064941406005
 20
-438.1905402525492
 30
0.0
 11
358.0838054076048
 21
-438.1905402525492
 31
0.0
  0
LINE
  5
803F
330
7940
100
AcDbEntity
  8
30
  6
Continuous
 62
     0
440
 16777216
100
AcDbLine
 10
278.9064941406004
 20
-638.1905093415666
 30
0.0
 11
358.0838054076048
 21
-638.1905093415666
 31
0.0
  0
LINE
  5
8040
330
7940
100
AcDbEntity
  8
30
  6
Continuous
 62
     0
440
 16777216
100
AcDbLine
 10
357.5838054076048
 20
-440.1905402525493
 30
0.0
 11
357.5838054076048
 21
-636.1905093415666
 31
0.0
  0
INSERT
  5
8041
330
7940
100
AcDbEntity
  8
30
  6
Continuous
 62
     0
440
 16777216
100
AcDbBlockReference
  2
_OPEN
 10
357.5838054076048
 20
-438.1905402525492
 30
0.0
 41
2.0
 42
2.0
 43
2.0
 50
90.0
  0
INSERT
  5
8042
330
7940
100
AcDbEntity
  8
30
  6
Continuous
 62
     0
440
 16777216
100
AcDbBlockReference
  2
_OPEN
 10
357.5838054076048
 20
-638.1905093415666
 30
0.0
 41
2.0
 42
2.0
 43
2.0
 50
270.0
  0
MTEXT
  5
8043
330
7940
100
AcDbEntity
  8
30
  6
Continuous
 62
     0
440
 16777216
100
AcDbMText
 10
351.5838054076048
 20
-538.1905247970578
 30
0.0
 40
10.0
 41
0.0
 46
0.0
 71
     5
 72
     1
  1
\A1;200
 11
0.0000000000000001
 21
1.0
 31
0.0
 73
     1
 44
1.0
1001
ACAD
1000
MTEXTBEGIN
1070
    73
1070
     1
1070
    44
1040
1.0
1070
    74
1070
     0
1000
MTEXTEND
1000
MTEXTBEGIN
1070
    73
1070
     1
1070
    44
1040
1.0
1070
    74
1070
     0
1000
MTEXTEND
  0
POINT
  5
8044
330
7940
100
AcDbEntity
  8
DEFPOINTS
  6
Continuous
 62
     0
440
 16777216
100
AcDbPoint
 10
67.4064941406005
 20
-438.1905402525492
 30
0.0
  0
POINT
  5
8045
330
7940
100
AcDbEntity
  8
DEFPOINTS
  6
Continuous
 62
     0
440
 16777216
100
AcDbPoint
 10
268.9064941406005
 20
-638.1905093415666
 30
0.0
  0
POINT
  5
8046
330
7940
100
AcDbEntity
  8
DEFPOINTS
  6
Continuous
 62
     0
440
 16777216
100
AcDbPoint
 10
357.5838054076048
 20
-638.1905093415666
 30
0.0
  0
ENDBLK
  5
794B
330
7940
100
AcDbEntity
  8
0
100
AcDbBlockEnd
  0
BLOCK
  5
7957
330
794D
100
AcDbEntity
  8
0
100
AcDbBlockBegin
  2
*D23
 70
     1
 10
0.0
 20
0.0
 30
0.0
  3
*D23
  1

  0
LINE
  5
8289
330
794D
100
AcDbEntity
  8
30
  6
Continuous
 62
     0
440
 16777216
100
AcDbLine
 10
278.9064941406004
 20
-638.1905093415666
 30
0.0
 11
358.0838054076047
 21
-638.1905093415666
 31
0.0
  0
LINE
  5
828A
330
794D
100
AcDbEntity
  8
30
  6
Continuous
 62
     0
440
 16777216
100
AcDbLine
 10
175.9064941406005
 20
-749.1905707701293
 30
0.0
 11
358.0838054076047
 21
-749.1905707701294
 31
0.0
  0
LINE
  5
828B
330
794D
100
AcDbEntity
  8
30
  6
Continuous
 62
     0
440
 16777216
100
AcDbLine
 10
357.5838054076047
 20
-640.1905093415666
 30
0.0
 11
357.5838054076047
 21
-747.1905707701294
 31
0.0
  0
INSERT
  5
828C
330
794D
100
AcDbEntity
  8
30
  6
Continuous
 62
     0
440
 16777216
100
AcDbBlockReference
  2
_OPEN
 10
357.5838054076047
 20
-638.1905093415666
 30
0.0
 41
2.0
 42
2.0
 43
2.0
 50
90.0
  0
INSERT
  5
828D
330
794D
100
AcDbEntity
  8
30
  6
Continuous
 62
     0
440
 16777216
100
AcDbBlockReference
  2
_OPEN
 10
357.5838054076047
 20
-749.1905707701294
 30
0.0
 41
2.0
 42
2.0
 43
2.0
 50
270.0
  0
MTEXT
  5
828E
330
794D
100
AcDbEntity
  8
30
  6
Continuous
 62
     0
440
 16777216
100
AcDbMText
 10
351.5838054076048
 20
-693.6905400558479
 30
0.0
 40
10.0
 41
0.0
 46
0.0
 71
     5
 72
     1
  1
\A1;111
 11
0.0000000000000001
 21
1.0
 31
0.0
 73
     1
 44
1.0
  0
POINT
  5
828F
330
794D
100
AcDbEntity
  8
DEFPOINTS
  6
Continuous
 62
     0
440
 16777216
100
AcDbPoint
 10
268.9064941406005
 20
-638.1905093415666
 30
0.0
  0
POINT
  5
8290
330
794D
100
AcDbEntity
  8
DEFPOINTS
  6
Continuous
 62
     0
440
 16777216
100
AcDbPoint
 10
165.9064941406005
 20
-749.1905707701293
 30
0.0
  0
POINT
  5
8291
330
794D
100
AcDbEntity
  8
DEFPOINTS
  6
Continuous
 62
     0
440
 16777216
100
AcDbPoint
 10
357.5838054076047
 20
-749.1905707701294
 30
0.0
  0
ENDBLK
  5
7958
330
794D
100
AcDbEntity
  8
0
100
AcDbBlockEnd
  0
BLOCK
  5
7963
330
795A
100
AcDbEntity
  8
0
100
AcDbBlockBegin
  2
*D24
 70
     1
 10
0.0
 20
0.0
 30
0.0
  3
*D24
  1

  0
LINE
  5
8050
330
795A
100
AcDbEntity
  8
30
  6
Continuous
 62
     0
440
 16777216
100
AcDbLine
 10
223.1690229296379
 20
-827.7730790820276
 30
0.0
 11
198.8356895963045
 21
-827.7730790820276
 31
0.0
  0
LINE
  5
8051
330
795A
100
AcDbEntity
  8
30
  6
Continuous
 62
     0
440
 16777216
100
AcDbLine
 10
198.8356895963045
 20
-827.7730790820276
 30
0.0
 11
155.0721791634473
 21
-756.0204366758722
 31
0.0
  0
MTEXT
  5
8052
330
795A
100
AcDbEntity
  8
30
  6
Continuous
 62
     0
440
 16777216
100
AcDbMText
 10
211.5023562629712
 20
-821.7730790820278
 30
0.0
 40
10.0
 41
0.0
 46
0.0
 71
     5
 72
     1
  1
\A1;%%c12
 73
     1
 44
1.0
1001
ACAD
1000
MTEXTBEGIN
1070
    73
1070
     1
1070
    44
1040
1.0
1070
    74
1070
     0
1000
MTEXTEND
1000
MTEXTBEGIN
1070
    73
1070
     1
1070
    44
1040
1.0
1070
    74
1070
     0
1000
MTEXTEND
  0
INSERT
  5
8053
330
795A
100
AcDbEntity
  8
30
  6
Continuous
 62
     0
440
 16777216
100
AcDbBlockReference
  2
_OPEN
 10
154.0307579077357
 20
-754.3129701994362
 30
0.0
 41
2.0
 42
2.0
 43
2.0
 50
121.3799310883816
  0
LINE
  5
8054
330
795A
100
AcDbEntity
  8
30
  6
Continuous
 62
     0
440
 16777216
100
AcDbLine
 10
150.8164941406004
 20
-749.1905707701294
 30
0.0
 11
150.9964941406004
 21
-749.1905707701293
 31
0.0
  0
LINE
  5
8055
330
795A
100
AcDbEntity
  8
30
  6
Continuous
 62
     0
440
 16777216
100
AcDbLine
 10
150.9064941406005
 20
-749.2805707701291
 30
0.0
 11
150.9064941406005
 21
-749.1005707701292
 31
0.0
  0
POINT
  5
8056
330
795A
100
AcDbEntity
  8
DEFPOINTS
  6
Continuous
 62
     0
440
 16777216
100
AcDbPoint
 10
154.0307579077357
 20
-754.3129701994362
 30
0.0
  0
POINT
  5
8057
330
795A
100
AcDbEntity
  8
DEFPOINTS
  6
Continuous
 62
     0
440
 16777216
100
AcDbPoint
 10
150.9064941406005
 20
-749.1905707701293
 30
0.0
  0
ENDBLK
  5
7964
330
795A
100
AcDbEntity
  8
0
100
AcDbBlockEnd
  0
BLOCK
  5
7E5D
330
7E53
100
AcDbEntity
  8
0
100
AcDbBlockBegin
  2
*D25
 70
     1
 10
0.0
 20
0.0
 30
0.0
  3
*D25
  1

  0
LINE
  5
8058
330
7E53
100
AcDbEntity
  8
30
  6
Continuous
 62
     0
440
 16777216
100
AcDbLine
 10
212.9998779296998
 20
0.0000000000000256
 30
0.0
 11
271.1662686973858
 21
0.0000000000000091
 31
0.0
  0
LINE
  5
8059
330
7E53
100
AcDbEntity
  8
30
  6
Continuous
 62
     0
440
 16777216
100
AcDbLine
 10
212.9998779296998
 20
-32.00000000000002
 30
0.0
 11
271.1662686973858
 21
-32.00000000000004
 31
0.0
  0
LINE
  5
805A
330
7E53
100
AcDbEntity
  8
30
  6
Continuous
 62
     0
440
 16777216
100
AcDbLine
 10
270.6662686973858
 20
-1.999999999999986
 30
0.0
 11
270.6662686973858
 21
-30.00000000000003
 31
0.0
  0
INSERT
  5
805B
330
7E53
100
AcDbEntity
  8
30
  6
Continuous
 62
     0
440
 16777216
100
AcDbBlockReference
  2
_OPEN
 10
270.6662686973858
 20
0.0000000000000093
 30
0.0
 41
2.0
 42
2.0
 43
2.0
 50
90.0
  0
INSERT
  5
805C
330
7E53
100
AcDbEntity
  8
30
  6
Continuous
 62
     0
440
 16777216
100
AcDbBlockReference
  2
_OPEN
 10
270.6662686973858
 20
-32.00000000000004
 30
0.0
 41
2.0
 42
2.0
 43
2.0
 50
270.0
  0
MTEXT
  5
805D
330
7E53
100
AcDbEntity
  8
30
  6
Continuous
 62
     0
440
 16777216
100
AcDbMText
 10
264.6662686973858
 20
-15.99999999999997
 30
0.0
 40
10.0
 41
0.0
 46
0.0
 71
     5
 72
     1
  1
\A1;32
 11
0.0000000000000001
 21
1.0
 31
0.0
 73
     1
 44
1.0
1001
ACAD
1000
MTEXTBEGIN
1070
    73
1070
     1
1070
    44
1040
1.0
1070
    74
1070
     0
1000
MTEXTEND
1000
MTEXTBEGIN
1070
    73
1070
     1
1070
    44
1040
1.0
1070
    74
1070
     0
1000
MTEXTEND
  0
POINT
  5
805E
330
7E53
100
AcDbEntity
  8
DEFPOINTS
  6
Continuous
 62
     0
440
 16777216
100
AcDbPoint
 10
202.9998779297
 20
0.0000000000000284
 30
0.0
  0
POINT
  5
805F
330
7E53
100
AcDbEntity
  8
DEFPOINTS
  6
Continuous
 62
     0
440
 16777216
100
AcDbPoint
 10
202.9998779297
 20
-32.00000000000002
 30
0.0
  0
POINT
  5
8060
330
7E53
100
AcDbEntity
  8
DEFPOINTS
  6
Continuous
 62
     0
440
 16777216
100
AcDbPoint
 10
270.6662686973858
 20
-32.00000000000004
 30
0.0
  0
ENDBLK
  5
7E5E
330
7E53
100
AcDbEntity
  8
0
100
AcDbBlockEnd
  0
BLOCK
  5
7E6A
330
7E60
100
AcDbEntity
  8
0
100
AcDbBlockBegin
  2
*D26
 70
     1
 10
0.0
 20
0.0
 30
0.0
  3
*D26
  1

  0
LINE
  5
8061
330
7E60
100
AcDbEntity
  8
30
  6
Continuous
 62
     0
440
 16777216
100
AcDbLine
 10
212.9998779296998
 20
239.9999999999999
 30
0.0
 11
292.3433748282315
 21
239.9999999999999
 31
0.0
  0
LINE
  5
8062
330
7E60
100
AcDbEntity
  8
30
  6
Continuous
 62
     0
440
 16777216
100
AcDbLine
 10
212.9998779296998
 20
-240.0
 30
0.0
 11
292.3433748282313
 21
-240.0
 31
0.0
  0
LINE
  5
8063
330
7E60
100
AcDbEntity
  8
30
  6
Continuous
 62
     0
440
 16777216
100
AcDbLine
 10
291.8433748282314
 20
237.9999999999999
 30
0.0
 11
291.8433748282314
 21
-238.0
 31
0.0
  0
INSERT
  5
8064
330
7E60
100
AcDbEntity
  8
30
  6
Continuous
 62
     0
440
 16777216
100
AcDbBlockReference
  2
_OPEN
 10
291.8433748282314
 20
239.9999999999999
 30
0.0
 41
2.0
 42
2.0
 43
2.0
 50
90.0
  0
INSERT
  5
8065
330
7E60
100
AcDbEntity
  8
30
  6
Continuous
 62
     0
440
 16777216
100
AcDbBlockReference
  2
_OPEN
 10
291.8433748282314
 20
-240.0
 30
0.0
 41
2.0
 42
2.0
 43
2.0
 50
270.0
  0
MTEXT
  5
8066
330
7E60
100
AcDbEntity
  8
30
  6
Continuous
 62
     0
440
 16777216
100
AcDbMText
 10
285.8433748282314
 20
0.0000000000000113
 30
0.0
 40
10.0
 41
0.0
 46
0.0
 71
     5
 72
     1
  1
\A1;480
 11
0.0000000000000001
 21
1.0
 31
0.0
 73
     1
 44
1.0
1001
ACAD
1000
MTEXTBEGIN
1070
    73
1070
     1
1070
    44
1040
1.0
1070
    74
1070
     0
1000
MTEXTEND
1000
MTEXTBEGIN
1070
    73
1070
     1
1070
    44
1040
1.0
1070
    74
1070
     0
1000
MTEXTEND
  0
POINT
  5
8067
330
7E60
100
AcDbEntity
  8
DEFPOINTS
  6
Continuous
 62
     0
440
 16777216
100
AcDbPoint
 10
202.9998779297
 20
239.9999999999999
 30
0.0
  0
POINT
  5
8068
330
7E60
100
AcDbEntity
  8
DEFPOINTS
  6
Continuous
 62
     0
440
 16777216
100
AcDbPoint
 10
202.9998779297
 20
-240.0
 30
0.0
  0
POINT
  5
8069
330
7E60
100
AcDbEntity
  8
DEFPOINTS
  6
Continuous
 62
     0
440
 16777216
100
AcDbPoint
 10
291.8433748282314
 20
-240.0
 30
0.0
  0
ENDBLK
  5
7E6B
330
7E60
100
AcDbEntity
  8
0
100
AcDbBlockEnd
  0
BLOCK
  5
7E77
330
7E6D
100
AcDbEntity
  8
0
100
AcDbBlockBegin
  2
*D27
 70
     1
 10
0.0
 20
0.0
 30
0.0
  3
*D27
  1

  0
LINE
  5
8292
330
7E6D
100
AcDbEntity
  8
30
  6
Continuous
 62
     0
440
 16777216
100
AcDbLine
 10
212.9998779296998
 20
-240.0
 30
0.0
 11
292.3433748282313
 21
-240.0
 31
0.0
  0
LINE
  5
8293
330
7E6D
100
AcDbEntity
  8
30
  6
Continuous
 62
     0
440
 16777216
100
AcDbLine
 10
151.0
 20
-255.0
 30
0.0
 11
292.3433748282313
 21
-255.0
 31
0.0
  0
LINE
  5
8294
330
7E6D
100
AcDbEntity
  8
30
  6
Continuous
 62
     0
440
 16777216
100
AcDbLine
 10
291.8433748282314
 20
-242.0
 30
0.0
 11
291.8433748282314
 21
-253.0
 31
0.0
  0
LINE
  5
8295
330
7E6D
100
AcDbEntity
  8
30
  6
Continuous
 62
     0
440
 16777216
100
AcDbLine
 10
291.8433748282314
 20
-247.5
 30
0.0
 11
312.8433748282314
 21
-247.5
 31
0.0
  0
LINE
  5
8296
330
7E6D
100
AcDbEntity
  8
30
  6
Continuous
 62
     0
440
 16777216
100
AcDbLine
 10
312.8433748282314
 20
-247.5
 30
0.0
 11
328.1767081615647
 21
-247.5
 31
0.0
  0
MTEXT
  5
8297
330
7E6D
100
AcDbEntity
  8
30
  6
Continuous
 62
     0
440
 16777216
100
AcDbMText
 10
320.5100414948981
 20
-241.4999999999999
 30
0.0
 40
10.0
 41
0.0
 46
0.0
 71
     5
 72
     1
  1
\A1;15
 73
     1
 44
1.0
  0
INSERT
  5
8298
330
7E6D
100
AcDbEntity
  8
30
  6
Continuous
 62
     0
440
 16777216
100
AcDbBlockReference
  2
_OPEN
 10
291.8433748282314
 20
-240.0
 30
0.0
 41
2.0
 42
2.0
 43
2.0
 50
90.0
  0
INSERT
  5
8299
330
7E6D
100
AcDbEntity
  8
30
  6
Continuous
 62
     0
440
 16777216
100
AcDbBlockReference
  2
_OPEN
 10
291.8433748282314
 20
-255.0
 30
0.0
 41
2.0
 42
2.0
 43
2.0
 50
270.0
  0
POINT
  5
829A
330
7E6D
100
AcDbEntity
  8
DEFPOINTS
  6
Continuous
 62
     0
440
 16777216
100
AcDbPoint
 10
202.9998779297
 20
-240.0
 30
0.0
  0
POINT
  5
829B
330
7E6D
100
AcDbEntity
  8
DEFPOINTS
  6
Continuous
 62
     0
440
 16777216
100
AcDbPoint
 10
141.0
 20
-255.0
 30
0.0
  0
POINT
  5
829C
330
7E6D
100
AcDbEntity
  8
DEFPOINTS
  6
Continuous
 62
     0
440
 16777216
100
AcDbPoint
 10
291.8433748282314
 20
-255.0
 30
0.0
  0
ENDBLK
  5
7E78
330
7E6D
100
AcDbEntity
  8
0
100
AcDbBlockEnd
  0
BLOCK
  5
7E8C
330
7E82
100
AcDbEntity
  8
0
100
AcDbBlockBegin
  2
*D28
 70
     1
 10
0.0
 20
0.0
 30
0.0
  3
*D28
  1

  0
LINE
  5
8075
330
7E82
100
AcDbEntity
  8
30
  6
Continuous
 62
     0
440
 16777216
100
AcDbLine
 10
810.9518059636352
 20
80.99999999999997
 30
0.0
 11
879.0535765878994
 21
80.99999999999996
 31
0.0
  0
LINE
  5
8076
330
7E82
100
AcDbEntity
  8
30
  6
Continuous
 62
     0
440
 16777216
100
AcDbLine
 10
754.2565815759544
 20
-0.0000000000000031
 30
0.0
 11
879.0535765878994
 21
-0.0000000000000385
 31
0.0
  0
LINE
  5
8077
330
7E82
100
AcDbEntity
  8
30
  6
Continuous
 62
     0
440
 16777216
100
AcDbLine
 10
878.5535765878995
 20
78.99999999999995
 30
0.0
 11
878.5535765878995
 21
1.99999999999996
 31
0.0
  0
INSERT
  5
8078
330
7E82
100
AcDbEntity
  8
30
  6
Continuous
 62
     0
440
 16777216
100
AcDbBlockReference
  2
_OPEN
 10
878.5535765878995
 20
80.99999999999996
 30
0.0
 41
2.0
 42
2.0
 43
2.0
 50
90.0
  0
INSERT
  5
8079
330
7E82
100
AcDbEntity
  8
30
  6
Continuous
 62
     0
440
 16777216
100
AcDbBlockReference
  2
_OPEN
 10
878.5535765878995
 20
-0.0000000000000383
 30
0.0
 41
2.0
 42
2.0
 43
2.0
 50
270.0
  0
MTEXT
  5
807A
330
7E82
100
AcDbEntity
  8
30
  6
Continuous
 62
     0
440
 16777216
100
AcDbMText
 10
872.5535765878992
 20
40.5000000000001
 30
0.0
 40
10.0
 41
0.0
 46
0.0
 71
     5
 72
     1
  1
\A1;81
 11
0.0000000000000001
 21
1.0
 31
0.0
 73
     1
 44
1.0
1001
ACAD
1000
MTEXTBEGIN
1070
    73
1070
     1
1070
    44
1040
1.0
1070
    74
1070
     0
1000
MTEXTEND
1000
MTEXTBEGIN
1070
    73
1070
     1
1070
    44
1040
1.0
1070
    74
1070
     0
1000
MTEXTEND
  0
POINT
  5
807B
330
7E82
100
AcDbEntity
  8
DEFPOINTS
  6
Continuous
 62
     0
440
 16777216
100
AcDbPoint
 10
800.9518059636352
 20
80.99999999999997
 30
0.0
  0
POINT
  5
807C
330
7E82
100
AcDbEntity
  8
DEFPOINTS
  6
Continuous
 62
     0
440
 16777216
100
AcDbPoint
 10
744.2565815759544
 20
-0.0000000000000003
 30
0.0
  0
POINT
  5
807D
330
7E82
100
AcDbEntity
  8
DEFPOINTS
  6
Continuous
 62
     0
440
 16777216
100
AcDbPoint
 10
878.5535765878995
 20
-0.0000000000000383
 30
0.0
  0
ENDBLK
  5
7E8D
330
7E82
100
AcDbEntity
  8
0
100
AcDbBlockEnd
  0
BLOCK
  5
7E99
330
7E8F
100
AcDbEntity
  8
0
100
AcDbBlockBegin
  2
*D29
 70
     1
 10
0.0
 20
0.0
 30
0.0
  3
*D29
  1

  0
LINE
  5
829D
330
7E8F
100
AcDbEntity
  8
30
  6
Continuous
 62
     0
440
 16777216
100
AcDbLine
 10
754.2565815759544
 20
-0.0000000000000031
 30
0.0
 11
879.0535765878994
 21
-0.0000000000000385
 31
0.0
  0
LINE
  5
829E
330
7E8F
100
AcDbEntity
  8
30
  6
Continuous
 62
     0
440
 16777216
100
AcDbLine
 10
847.42856066705
 20
-210.0
 30
0.0
 11
879.0535765878994
 21
-210.0
 31
0.0
  0
LINE
  5
829F
330
7E8F
100
AcDbEntity
  8
30
  6
Continuous
 62
     0
440
 16777216
100
AcDbLine
 10
878.5535765878995
 20
-2.000000000000038
 30
0.0
 11
878.5535765878995
 21
-208.0
 31
0.0
  0
INSERT
  5
82A0
330
7E8F
100
AcDbEntity
  8
30
  6
Continuous
 62
     0
440
 16777216
100
AcDbBlockReference
  2
_OPEN
 10
878.5535765878995
 20
-0.0000000000000383
 30
0.0
 41
2.0
 42
2.0
 43
2.0
 50
90.0
  0
INSERT
  5
82A1
330
7E8F
100
AcDbEntity
  8
30
  6
Continuous
 62
     0
440
 16777216
100
AcDbBlockReference
  2
_OPEN
 10
878.5535765878995
 20
-210.0
 30
0.0
 41
2.0
 42
2.0
 43
2.0
 50
270.0
  0
MTEXT
  5
82A2
330
7E8F
100
AcDbEntity
  8
30
  6
Continuous
 62
     0
440
 16777216
100
AcDbMText
 10
872.5535765878992
 20
-104.9999999999996
 30
0.0
 40
10.0
 41
0.0
 46
0.0
 71
     5
 72
     1
  1
\A1;210
 11
0.0000000000000001
 21
1.0
 31
0.0
 73
     1
 44
1.0
  0
POINT
  5
82A3
330
7E8F
100
AcDbEntity
  8
DEFPOINTS
  6
Continuous
 62
     0
440
 16777216
100
AcDbPoint
 10
744.2565815759544
 20
-0.0000000000000003
 30
0.0
  0
POINT
  5
82A4
330
7E8F
100
AcDbEntity
  8
DEFPOINTS
  6
Continuous
 62
     0
440
 16777216
100
AcDbPoint
 10
837.4285606670499
 20
-210.0
 30
0.0
  0
POINT
  5
82A5
330
7E8F
100
AcDbEntity
  8
DEFPOINTS
  6
Continuous
 62
     0
440
 16777216
100
AcDbPoint
 10
878.5535765878995
 20
-210.0
 30
0.0
  0
ENDBLK
  5
7E9A
330
7E8F
100
AcDbEntity
  8
0
100
AcDbBlockEnd
  0
BLOCK
  5
7EA5
330
7E9C
100
AcDbEntity
  8
0
100
AcDbBlockBegin
  2
*D30
 70
     1
 10
0.0
 20
0.0
 30
0.0
  3
*D30
  1

  0
LINE
  5
8087
330
7E9C
100
AcDbEntity
  8
30
  6
Continuous
 62
     0
440
 16777216
100
AcDbLine
 10
879.7356529208117
 20
-296.84266728662
 30
0.0
 11
855.4023195874785
 21
-296.8426672866198
 31
0.0
  0
LINE
  5
8088
330
7E9C
100
AcDbEntity
  8
30
  6
Continuous
 62
     0
440
 16777216
100
AcDbLine
 10
855.4023195874785
 20
-296.8426672866198
 30
0.0
 11
787.6487297490367
 21
-236.0125877800268
 31
0.0
  0
MTEXT
  5
8089
330
7E9C
100
AcDbEntity
  8
30
  6
Continuous
 62
     0
440
 16777216
100
AcDbMText
 10
868.0689862541454
 20
-290.8426672866198
 30
0.0
 40
10.0
 41
0.0
 46
0.0
 71
     5
 72
     1
  1
\A1;∅14
 73
     1
 44
1.0
1001
ACAD
1000
MTEXTBEGIN
1070
    73
1070
     1
1070
    44
1040
1.0
1070
    74
1070
     0
1000
MTEXTEND
1000
MTEXTBEGIN
1070
    73
1070
     1
1070
    44
1040
1.0
1070
    74
1070
     0
1000
MTEXTEND
  0
INSERT
  5
808A
330
7E9C
100
AcDbEntity
  8
30
  6
Continuous
 62
     0
440
 16777216
100
AcDbBlockReference
  2
_OPEN
 10
786.160524463392
 20
-234.6764571622431
 30
0.0
 41
2.0
 42
2.0
 43
2.0
 50
138.0820805409288
  0
LINE
  5
808B
330
7E9C
100
AcDbEntity
  8
30
  6
Continuous
 62
     0
440
 16777216
100
AcDbLine
 10
780.8618059636352
 20
-230.0
 30
0.0
 11
781.0418059636353
 21
-230.0
 31
0.0
  0
LINE
  5
808C
330
7E9C
100
AcDbEntity
  8
30
  6
Continuous
 62
     0
440
 16777216
100
AcDbLine
 10
780.9518059636354
 20
-230.0899999999999
 30
0.0
 11
780.9518059636354
 21
-229.9100000000001
 31
0.0
  0
POINT
  5
808D
330
7E9C
100
AcDbEntity
  8
DEFPOINTS
  6
Continuous
 62
     0
440
 16777216
100
AcDbPoint
 10
786.160524463392
 20
-234.6764571622431
 30
0.0
  0
POINT
  5
808E
330
7E9C
100
AcDbEntity
  8
DEFPOINTS
  6
Continuous
 62
     0
440
 16777216
100
AcDbPoint
 10
775.7430874638787
 20
-225.3235428377569
 30
0.0
  0
ENDBLK
  5
7EA6
330
7E9C
100
AcDbEntity
  8
0
100
AcDbBlockEnd
  0
BLOCK
  5
7EB2
330
7EA8
100
AcDbEntity
  8
0
100
AcDbBlockBegin
  2
*D31
 70
     1
 10
0.0
 20
0.0
 30
0.0
  3
*D31
  1

  0
LINE
  5
808F
330
7EA8
100
AcDbEntity
  8
30
  6
Continuous
 62
     0
440
 16777216
100
AcDbLine
 10
800.9518059636352
 20
-265.0
 30
0.0
 11
800.9518059636352
 21
-310.3427064991806
 31
0.0
  0
LINE
  5
8090
330
7EA8
100
AcDbEntity
  8
30
  6
Continuous
 62
     0
440
 16777216
100
AcDbLine
 10
780.9518059636352
 20
-255.4638671875
 30
0.0
 11
780.9518059636352
 21
-310.3427064991806
 31
0.0
  0
LINE
  5
8091
330
7EA8
100
AcDbEntity
  8
30
  6
Continuous
 62
     0
440
 16777216
100
AcDbLine
 10
798.9518059636353
 20
-309.8427064991806
 30
0.0
 11
782.9518059636352
 21
-309.8427064991806
 31
0.0
  0
INSERT
  5
8092
330
7EA8
100
AcDbEntity
  8
30
  6
Continuous
 62
     0
440
 16777216
100
AcDbBlockReference
  2
_OPEN
 10
800.9518059636352
 20
-309.8427064991806
 30
0.0
 41
2.0
 42
2.0
 43
2.0
  0
INSERT
  5
8093
330
7EA8
100
AcDbEntity
  8
30
  6
Continuous
 62
     0
440
 16777216
100
AcDbBlockReference
  2
_OPEN
 10
780.9518059636352
 20
-309.8427064991806
 30
0.0
 41
2.0
 42
2.0
 43
2.0
 50
180.0
  0
MTEXT
  5
8094
330
7EA8
100
AcDbEntity
  8
30
  6
Continuous
 62
     0
440
 16777216
100
AcDbMText
 10
790.9518059636353
 20
-303.8427064991806
 30
0.0
 40
10.0
 41
0.0
 46
0.0
 71
     5
 72
     1
  1
\A1;20
 73
     1
 44
1.0
1001
ACAD
1000
MTEXTBEGIN
1070
    73
1070
     1
1070
    44
1040
1.0
1070
    74
1070
     0
1000
MTEXTEND
1000
MTEXTBEGIN
1070
    73
1070
     1
1070
    44
1040
1.0
1070
    74
1070
     0
1000
MTEXTEND
  0
POINT
  5
8095
330
7EA8
100
AcDbEntity
  8
DEFPOINTS
  6
Continuous
 62
     0
440
 16777216
100
AcDbPoint
 10
800.9518059636352
 20
-255.0
 30
0.0
  0
POINT
  5
8096
330
7EA8
100
AcDbEntity
  8
DEFPOINTS
  6
Continuous
 62
     0
440
 16777216
100
AcDbPoint
 10
780.9518059636352
 20
-245.4638671875
 30
0.0
  0
POINT
  5
8097
330
7EA8
100
AcDbEntity
  8
DEFPOINTS
  6
Continuous
 62
     0
440
 16777216
100
AcDbPoint
 10
780.9518059636352
 20
-309.8427064991806
 30
0.0
  0
ENDBLK
  5
7EB3
330
7EA8
100
AcDbEntity
  8
0
100
AcDbBlockEnd
  0
BLOCK
  5
7EBF
330
7EB5
100
AcDbEntity
  8
0
100
AcDbBlockBegin
  2
*D32
 70
     1
 10
0.0
 20
0.0
 30
0.0
  3
*D32
  1

  0
LINE
  5
82A6
330
7EB5
100
AcDbEntity
  8
30
  6
Continuous
 62
     0
440
 16777216
100
AcDbLine
 10
780.9518059636352
 20
-255.4638671875
 30
0.0
 11
780.9518059636352
 21
-310.3427064991806
 31
0.0
  0
LINE
  5
82A7
330
7EB5
100
AcDbEntity
  8
30
  6
Continuous
 62
     0
440
 16777216
100
AcDbLine
 10
740.9518059636353
 20
-253.3300781249999
 30
0.0
 11
740.9518059636353
 21
-310.3427064991806
 31
0.0
  0
LINE
  5
82A8
330
7EB5
100
AcDbEntity
  8
30
  6
Continuous
 62
     0
440
 16777216
100
AcDbLine
 10
778.9518059636352
 20
-309.8427064991806
 30
0.0
 11
742.9518059636352
 21
-309.8427064991806
 31
0.0
  0
INSERT
  5
82A9
330
7EB5
100
AcDbEntity
  8
30
  6
Continuous
 62
     0
440
 16777216
100
AcDbBlockReference
  2
_OPEN
 10
780.9518059636352
 20
-309.8427064991806
 30
0.0
 41
2.0
 42
2.0
 43
2.0
  0
INSERT
  5
82AA
330
7EB5
100
AcDbEntity
  8
30
  6
Continuous
 62
     0
440
 16777216
100
AcDbBlockReference
  2
_OPEN
 10
740.9518059636353
 20
-309.8427064991806
 30
0.0
 41
2.0
 42
2.0
 43
2.0
 50
180.0
  0
MTEXT
  5
82AB
330
7EB5
100
AcDbEntity
  8
30
  6
Continuous
 62
     0
440
 16777216
100
AcDbMText
 10
760.9518059636352
 20
-303.8427064991806
 30
0.0
 40
10.0
 41
0.0
 46
0.0
 71
     5
 72
     1
  1
\A1;40
 73
     1
 44
1.0
  0
POINT
  5
82AC
330
7EB5
100
AcDbEntity
  8
DEFPOINTS
  6
Continuous
 62
     0
440
 16777216
100
AcDbPoint
 10
780.9518059636352
 20
-245.4638671875
 30
0.0
  0
POINT
  5
82AD
330
7EB5
100
AcDbEntity
  8
DEFPOINTS
  6
Continuous
 62
     0
440
 16777216
100
AcDbPoint
 10
740.9518059636353
 20
-243.330078125
 30
0.0
  0
POINT
  5
82AE
330
7EB5
100
AcDbEntity
  8
DEFPOINTS
  6
Continuous
 62
     0
440
 16777216
100
AcDbPoint
 10
740.9518059636353
 20
-309.8427064991806
 30
0.0
  0
ENDBLK
  5
7EC0
330
7EB5
100
AcDbEntity
  8
0
100
AcDbBlockEnd
  0
BLOCK
  5
7ECC
330
7EC2
100
AcDbEntity
  8
0
100
AcDbBlockBegin
  2
*D33
 70
     1
 10
0.0
 20
0.0
 30
0.0
  3
*D33
  1

  0
LINE
  5
80A1
330
7EC2
100
AcDbEntity
  8
30
  6
Continuous
 62
     0
440
 16777216
100
AcDbLine
 10
405.9517144109525
 20
-40.0
 30
0.0
 11
405.9517144109525
 21
-353.6761718249495
 31
0.0
  0
LINE
  5
80A2
330
7EC2
100
AcDbEntity
  8
30
  6
Continuous
 62
     0
440
 16777216
100
AcDbLine
 10
480.9518059636352
 20
-250.0
 30
0.0
 11
480.9518059636352
 21
-353.6761718249495
 31
0.0
  0
LINE
  5
80A3
330
7EC2
100
AcDbEntity
  8
30
  6
Continuous
 62
     0
440
 16777216
100
AcDbLine
 10
407.9517144109526
 20
-353.1761718249494
 30
0.0
 11
478.9518059636352
 21
-353.1761718249494
 31
0.0
  0
INSERT
  5
80A4
330
7EC2
100
AcDbEntity
  8
30
  6
Continuous
 62
     0
440
 16777216
100
AcDbBlockReference
  2
_OPEN
 10
405.9517144109525
 20
-353.1761718249494
 30
0.0
 41
2.0
 42
2.0
 43
2.0
 50
180.0
  0
INSERT
  5
80A5
330
7EC2
100
AcDbEntity
  8
30
  6
Continuous
 62
     0
440
 16777216
100
AcDbBlockReference
  2
_OPEN
 10
480.9518059636352
 20
-353.1761718249494
 30
0.0
 41
2.0
 42
2.0
 43
2.0
  0
MTEXT
  5
80A6
330
7EC2
100
AcDbEntity
  8
30
  6
Continuous
 62
     0
440
 16777216
100
AcDbMText
 10
443.4517601872936
 20
-347.1761718249495
 30
0.0
 40
10.0
 41
0.0
 46
0.0
 71
     5
 72
     1
  1
\A1;75
 73
     1
 44
1.0
1001
ACAD
1000
MTEXTBEGIN
1070
    73
1070
     1
1070
    44
1040
1.0
1070
    74
1070
     0
1000
MTEXTEND
1000
MTEXTBEGIN
1070
    73
1070
     1
1070
    44
1040
1.0
1070
    74
1070
     0
1000
MTEXTEND
  0
POINT
  5
80A7
330
7EC2
100
AcDbEntity
  8
DEFPOINTS
  6
Continuous
 62
     0
440
 16777216
100
AcDbPoint
 10
405.9517144109525
 20
-30.00000000000001
 30
0.0
  0
POINT
  5
80A8
330
7EC2
100
AcDbEntity
  8
DEFPOINTS
  6
Continuous
 62
     0
440
 16777216
100
AcDbPoint
 10
480.9518059636352
 20
-240.0
 30
0.0
  0
POINT
  5
80A9
330
7EC2
100
AcDbEntity
  8
DEFPOINTS
  6
Continuous
 62
     0
440
 16777216
100
AcDbPoint
 10
480.9518059636352
 20
-353.1761718249494
 30
0.0
  0
ENDBLK
  5
7ECD
330
7EC2
100
AcDbEntity
  8
0
100
AcDbBlockEnd
  0
BLOCK
  5
7ED9
330
7ECF
100
AcDbEntity
  8
0
100
AcDbBlockBegin
  2
*D34
 70
     1
 10
0.0
 20
0.0
 30
0.0
  3
*D34
  1

  0
LINE
  5
82AF
330
7ECF
100
AcDbEntity
  8
30
  6
Continuous
 62
     0
440
 16777216
100
AcDbLine
 10
480.9518059636352
 20
-250.0
 30
0.0
 11
480.9518059636352
 21
-353.6761718249493
 31
0.0
  0
LINE
  5
82B0
330
7ECF
100
AcDbEntity
  8
30
  6
Continuous
 62
     0
440
 16777216
100
AcDbLine
 10
650.9518059636352
 20
-235.0
 30
0.0
 11
650.9518059636352
 21
-353.6761718249493
 31
0.0
  0
LINE
  5
82B1
330
7ECF
100
AcDbEntity
  8
30
  6
Continuous
 62
     0
440
 16777216
100
AcDbLine
 10
482.9518059636352
 20
-353.1761718249494
 30
0.0
 11
648.9518059636353
 21
-353.1761718249494
 31
0.0
  0
INSERT
  5
82B2
330
7ECF
100
AcDbEntity
  8
30
  6
Continuous
 62
     0
440
 16777216
100
AcDbBlockReference
  2
_OPEN
 10
480.9518059636352
 20
-353.1761718249494
 30
0.0
 41
2.0
 42
2.0
 43
2.0
 50
180.0
  0
INSERT
  5
82B3
330
7ECF
100
AcDbEntity
  8
30
  6
Continuous
 62
     0
440
 16777216
100
AcDbBlockReference
  2
_OPEN
 10
650.9518059636352
 20
-353.1761718249494
 30
0.0
 41
2.0
 42
2.0
 43
2.0
  0
MTEXT
  5
82B4
330
7ECF
100
AcDbEntity
  8
30
  6
Continuous
 62
     0
440
 16777216
100
AcDbMText
 10
565.9518059636353
 20
-347.1761718249493
 30
0.0
 40
10.0
 41
0.0
 46
0.0
 71
     5
 72
     1
  1
\A1;170
 73
     1
 44
1.0
  0
POINT
  5
82B5
330
7ECF
100
AcDbEntity
  8
DEFPOINTS
  6
Continuous
 62
     0
440
 16777216
100
AcDbPoint
 10
480.9518059636352
 20
-240.0
 30
0.0
  0
POINT
  5
82B6
330
7ECF
100
AcDbEntity
  8
DEFPOINTS
  6
Continuous
 62
     0
440
 16777216
100
AcDbPoint
 10
650.9518059636352
 20
-225.0
 30
0.0
  0
POINT
  5
82B7
330
7ECF
100
AcDbEntity
  8
DEFPOINTS
  6
Continuous
 62
     0
440
 16777216
100
AcDbPoint
 10
650.9518059636352
 20
-353.1761718249494
 30
0.0
  0
ENDBLK
  5
7EDA
330
7ECF
100
AcDbEntity
  8
0
100
AcDbBlockEnd
  0
BLOCK
  5
7EE6
330
7EDC
100
AcDbEntity
  8
0
100
AcDbBlockBegin
  2
*D35
 70
     1
 10
0.0
 20
0.0
 30
0.0
  3
*D35
  1

  0
LINE
  5
82B8
330
7EDC
100
AcDbEntity
  8
30
  6
Continuous
 62
     0
440
 16777216
100
AcDbLine
 10
650.9518059636352
 20
-235.0
 30
0.0
 11
650.9518059636352
 21
-353.6761718249493
 31
0.0
  0
LINE
  5
82B9
330
7EDC
100
AcDbEntity
  8
30
  6
Continuous
 62
     0
440
 16777216
100
AcDbLine
 10
800.9518059636352
 20
-265.0
 30
0.0
 11
800.9518059636352
 21
-353.6761718249493
 31
0.0
  0
LINE
  5
82BA
330
7EDC
100
AcDbEntity
  8
30
  6
Continuous
 62
     0
440
 16777216
100
AcDbLine
 10
652.9518059636352
 20
-353.1761718249494
 30
0.0
 11
798.9518059636353
 21
-353.1761718249494
 31
0.0
  0
INSERT
  5
82BB
330
7EDC
100
AcDbEntity
  8
30
  6
Continuous
 62
     0
440
 16777216
100
AcDbBlockReference
  2
_OPEN
 10
650.9518059636352
 20
-353.1761718249494
 30
0.0
 41
2.0
 42
2.0
 43
2.0
 50
180.0
  0
INSERT
  5
82BC
330
7EDC
100
AcDbEntity
  8
30
  6
Continuous
 62
     0
440
 16777216
100
AcDbBlockReference
  2
_OPEN
 10
800.9518059636352
 20
-353.1761718249494
 30
0.0
 41
2.0
 42
2.0
 43
2.0
  0
MTEXT
  5
82BD
330
7EDC
100
AcDbEntity
  8
30
  6
Continuous
 62
     0
440
 16777216
100
AcDbMText
 10
725.9518059636352
 20
-347.1761718249493
 30
0.0
 40
10.0
 41
0.0
 46
0.0
 71
     5
 72
     1
  1
\A1;150
 73
     1
 44
1.0
  0
POINT
  5
82BE
330
7EDC
100
AcDbEntity
  8
DEFPOINTS
  6
Continuous
 62
     0
440
 16777216
100
AcDbPoint
 10
650.9518059636352
 20
-225.0
 30
0.0
  0
POINT
  5
82BF
330
7EDC
100
AcDbEntity
  8
DEFPOINTS
  6
Continuous
 62
     0
440
 16777216
100
AcDbPoint
 10
800.9518059636352
 20
-255.0
 30
0.0
  0
POINT
  5
82C0
330
7EDC
100
AcDbEntity
  8
DEFPOINTS
  6
Continuous
 62
     0
440
 16777216
100
AcDbPoint
 10
800.9518059636352
 20
-353.1761718249494
 30
0.0
  0
ENDBLK
  5
7EE7
330
7EDC
100
AcDbEntity
  8
0
100
AcDbBlockEnd
  0
BLOCK
  5
7EF3
330
7EE9
100
AcDbEntity
  8
0
100
AcDbBlockBegin
  2
*D36
 70
     1
 10
0.0
 20
0.0
 30
0.0
  3
*D36
  1

  0
LINE
  5
80BC
330
7EE9
100
AcDbEntity
  8
30
  6
Continuous
 62
     0
440
 16777216
100
AcDbLine
 10
462.4518059636351
 20
-250.0
 30
0.0
 11
462.4518059636351
 21
-343.5650272194133
 31
0.0
  0
LINE
  5
80BD
330
7EE9
100
AcDbEntity
  8
30
  6
Continuous
 62
     0
440
 16777216
100
AcDbLine
 10
480.9518059636352
 20
-339.2084960936998
 30
0.0
 11
480.9518059636352
 21
-343.5650272194133
 31
0.0
  0
LINE
  5
80BE
330
7EE9
100
AcDbEntity
  8
30
  6
Continuous
 62
     0
440
 16777216
100
AcDbLine
 10
464.4518059636352
 20
-343.0650272194132
 30
0.0
 11
478.9518059636352
 21
-343.0650272194132
 31
0.0
  0
LINE
  5
80BF
330
7EE9
100
AcDbEntity
  8
30
  6
Continuous
 62
     0
440
 16777216
100
AcDbLine
 10
480.9518059636352
 20
-343.0650272194132
 30
0.0
 11
511.6184726303019
 21
-343.0650272194132
 31
0.0
  0
INSERT
  5
80C0
330
7EE9
100
AcDbEntity
  8
30
  6
Continuous
 62
     0
440
 16777216
100
AcDbBlockReference
  2
_OPEN
 10
462.4518059636351
 20
-343.0650272194132
 30
0.0
 41
2.0
 42
2.0
 43
2.0
 50
180.0
  0
INSERT
  5
80C1
330
7EE9
100
AcDbEntity
  8
30
  6
Continuous
 62
     0
440
 16777216
100
AcDbBlockReference
  2
_OPEN
 10
480.9518059636352
 20
-343.0650272194132
 30
0.0
 41
2.0
 42
2.0
 43
2.0
  0
MTEXT
  5
80C2
330
7EE9
100
AcDbEntity
  8
30
  6
Continuous
 62
     0
440
 16777216
100
AcDbMText
 10
497.2851392969685
 20
-337.0650272194133
 30
0.0
 40
10.0
 41
0.0
 46
0.0
 71
     5
 72
     1
  1
\A1;18.5
 73
     1
 44
1.0
1001
ACAD
1000
MTEXTBEGIN
1070
    73
1070
     1
1070
    44
1040
1.0
1070
    74
1070
     0
1000
MTEXTEND
1000
MTEXTBEGIN
1070
    73
1070
     1
1070
    44
1040
1.0
1070
    74
1070
     0
1000
MTEXTEND
  0
POINT
  5
80C3
330
7EE9
100
AcDbEntity
  8
DEFPOINTS
  6
Continuous
 62
     0
440
 16777216
100
AcDbPoint
 10
462.4518059636351
 20
-240.0
 30
0.0
  0
POINT
  5
80C4
330
7EE9
100
AcDbEntity
  8
DEFPOINTS
  6
Continuous
 62
     0
440
 16777216
100
AcDbPoint
 10
480.9518059636352
 20
-329.2084960936997
 30
0.0
  0
POINT
  5
80C5
330
7EE9
100
AcDbEntity
  8
DEFPOINTS
  6
Continuous
 62
     0
440
 16777216
100
AcDbPoint
 10
480.9518059636352
 20
-343.0650272194132
 30
0.0
  0
ENDBLK
  5
7EF4
330
7EE9
100
AcDbEntity
  8
0
100
AcDbBlockEnd
  0
BLOCK
  5
7F49
330
7F3F
100
AcDbEntity
  8
0
100
AcDbBlockBegin
  2
*D37
 70
     1
 10
0.0
 20
0.0
 30
0.0
  3
*D37
  1

  0
LINE
  5
80C6
330
7F3F
100
AcDbEntity
  8
30
  6
Continuous
 62
     0
440
 16777216
100
AcDbLine
 10
-203.0
 20
-250.0
 30
0.0
 11
-203.0
 21
-302.8969384821596
 31
0.0
  0
LINE
  5
80C7
330
7F3F
100
AcDbEntity
  8
30
  6
Continuous
 62
     0
440
 16777216
100
AcDbLine
 10
202.9998779297
 20
-250.0
 30
0.0
 11
202.9998779297
 21
-302.8969384821596
 31
0.0
  0
LINE
  5
80C8
330
7F3F
100
AcDbEntity
  8
30
  6
Continuous
 62
     0
440
 16777216
100
AcDbLine
 10
-201.0
 20
-302.3969384821596
 30
0.0
 11
200.9998779297
 21
-302.3969384821596
 31
0.0
  0
INSERT
  5
80C9
330
7F3F
100
AcDbEntity
  8
30
  6
Continuous
 62
     0
440
 16777216
100
AcDbBlockReference
  2
_OPEN
 10
-203.0
 20
-302.3969384821596
 30
0.0
 41
2.0
 42
2.0
 43
2.0
 50
180.0
  0
INSERT
  5
80CA
330
7F3F
100
AcDbEntity
  8
30
  6
Continuous
 62
     0
440
 16777216
100
AcDbBlockReference
  2
_OPEN
 10
202.9998779297
 20
-302.3969384821596
 30
0.0
 41
2.0
 42
2.0
 43
2.0
  0
MTEXT
  5
80CB
330
7F3F
100
AcDbEntity
  8
30
  6
Continuous
 62
     0
440
 16777216
100
AcDbMText
 10
-0.0000610351499969
 20
-296.3969384821595
 30
0.0
 40
10.0
 41
0.0
 46
0.0
 71
     5
 72
     1
  1
\A1;406
 73
     1
 44
1.0
1001
ACAD
1000
MTEXTBEGIN
1070
    73
1070
     1
1070
    44
1040
1.0
1070
    74
1070
     0
1000
MTEXTEND
1000
MTEXTBEGIN
1070
    73
1070
     1
1070
    44
1040
1.0
1070
    74
1070
     0
1000
MTEXTEND
  0
POINT
  5
80CC
330
7F3F
100
AcDbEntity
  8
DEFPOINTS
  6
Continuous
 62
     0
440
 16777216
100
AcDbPoint
 10
-203.0
 20
-240.0
 30
0.0
  0
POINT
  5
80CD
330
7F3F
100
AcDbEntity
  8
DEFPOINTS
  6
Continuous
 62
     0
440
 16777216
100
AcDbPoint
 10
202.9998779297
 20
-240.0
 30
0.0
  0
POINT
  5
80CE
330
7F3F
100
AcDbEntity
  8
DEFPOINTS
  6
Continuous
 62
     0
440
 16777216
100
AcDbPoint
 10
202.9998779297
 20
-302.3969384821596
 30
0.0
  0
ENDBLK
  5
7F4A
330
7F3F
100
AcDbEntity
  8
0
100
AcDbBlockEnd
  0
BLOCK
  5
7FE1
330
7FD7
100
AcDbEntity
  8
0
100
AcDbBlockBegin
  2
*D38
 70
     1
 10
0.0
 20
0.0
 30
0.0
  3
*D38
  1

  0
LINE
  5
8100
330
7FD7
100
AcDbEntity
  8
30
  6
Continuous
 62
     0
100
AcDbLine
 10
122.5
 20
688.0
 30
0.0
 11
159.474585003826
 21
688.0
 31
0.0
  0
LINE
  5
8101
330
7FD7
100
AcDbEntity
  8
30
  6
Continuous
 62
     0
100
AcDbLine
 10
122.5
 20
673.0
 30
0.0
 11
159.474585003826
 21
673.0
 31
0.0
  0
LINE
  5
8102
330
7FD7
100
AcDbEntity
  8
30
  6
Continuous
 62
     0
100
AcDbLine
 10
158.974585003826
 20
675.0
 30
0.0
 11
158.974585003826
 21
686.0
 31
0.0
  0
LINE
  5
8103
330
7FD7
100
AcDbEntity
  8
30
  6
Continuous
 62
     0
100
AcDbLine
 10
158.974585003826
 20
688.0
 30
0.0
 11
158.974585003826
 21
700.5044141352191
 31
0.0
  0
LINE
  5
8104
330
7FD7
100
AcDbEntity
  8
30
  6
Continuous
 62
     0
100
AcDbLine
 10
158.974585003826
 20
700.5044141352191
 30
0.0
 11
173.3079183371595
 21
700.5044141352191
 31
0.0
  0
INSERT
  5
8105
330
7FD7
100
AcDbEntity
  8
30
  6
Continuous
 62
     0
100
AcDbBlockReference
  2
_OPEN
 10
158.974585003826
 20
673.0
 30
0.0
 41
2.0
 42
2.0
 43
2.0
 50
270.0
  0
INSERT
  5
8106
330
7FD7
100
AcDbEntity
  8
30
  6
Continuous
 62
     0
100
AcDbBlockReference
  2
_OPEN
 10
158.974585003826
 20
688.0
 30
0.0
 41
2.0
 42
2.0
 43
2.0
 50
90.0
  0
MTEXT
  5
8107
330
7FD7
100
AcDbEntity
  8
30
  6
Continuous
 62
     0
100
AcDbMText
 10
166.6412516704927
 20
706.5044141352191
 30
0.0
 40
10.0
 41
0.0
 46
0.0
 71
     5
 72
     1
  1
\A1;15
 73
     1
 44
1.0
1001
ACAD
1000
MTEXTBEGIN
1070
    73
1070
     1
1070
    44
1040
1.0
1070
    74
1070
     0
1000
MTEXTEND
1000
MTEXTBEGIN
1070
    73
1070
     1
1070
    44
1040
1.0
1070
    74
1070
     0
1000
MTEXTEND
  0
POINT
  5
8108
330
7FD7
100
AcDbEntity
  8
DEFPOINTS
  6
Continuous
 62
     0
100
AcDbPoint
 10
112.5
 20
688.0
 30
0.0
  0
POINT
  5
8109
330
7FD7
100
AcDbEntity
  8
DEFPOINTS
  6
Continuous
 62
     0
100
AcDbPoint
 10
112.5
 20
673.0
 30
0.0
  0
POINT
  5
810A
330
7FD7
100
AcDbEntity
  8
DEFPOINTS
  6
Continuous
 62
     0
100
AcDbPoint
 10
158.974585003826
 20
673.0
 30
0.0
  0
ENDBLK
  5
7FE2
330
7FD7
100
AcDbEntity
  8
0
100
AcDbBlockEnd
  0
BLOCK
  5
7FEE
330
7FE4
100
AcDbEntity
  8
0
100
AcDbBlockBegin
  2
*D39
 70
     1
 10
0.0
 20
0.0
 30
0.0
  3
*D39
  1

  0
LINE
  5
80DA
330
7FE4
100
AcDbEntity
  8
30
  6
Continuous
 62
     0
100
AcDbLine
 10
122.5
 20
673.0
 30
0.0
 11
159.474585003826
 21
673.0
 31
0.0
  0
LINE
  5
80DB
330
7FE4
100
AcDbEntity
  8
30
  6
Continuous
 62
     0
100
AcDbLine
 10
122.5
 20
557.9999996065971
 30
0.0
 11
159.474585003826
 21
557.9999996065971
 31
0.0
  0
LINE
  5
80DC
330
7FE4
100
AcDbEntity
  8
30
  6
Continuous
 62
     0
100
AcDbLine
 10
158.974585003826
 20
671.0
 30
0.0
 11
158.974585003826
 21
559.9999996065971
 31
0.0
  0
INSERT
  5
80DD
330
7FE4
100
AcDbEntity
  8
30
  6
Continuous
 62
     0
100
AcDbBlockReference
  2
_OPEN
 10
158.974585003826
 20
673.0
 30
0.0
 41
2.0
 42
2.0
 43
2.0
 50
90.0
  0
INSERT
  5
80DE
330
7FE4
100
AcDbEntity
  8
30
  6
Continuous
 62
     0
100
AcDbBlockReference
  2
_OPEN
 10
158.974585003826
 20
557.9999996065971
 30
0.0
 41
2.0
 42
2.0
 43
2.0
 50
270.0
  0
MTEXT
  5
80DF
330
7FE4
100
AcDbEntity
  8
30
  6
Continuous
 62
     0
100
AcDbMText
 10
152.974585003826
 20
615.4999998032987
 30
0.0
 40
10.0
 41
0.0
 46
0.0
 71
     5
 72
     1
  1
\A1;115
 11
0.0000000000000001
 21
1.0
 31
0.0
 73
     1
 44
1.0
1001
ACAD
1000
MTEXTBEGIN
1070
    73
1070
     1
1070
    44
1040
1.0
1070
    74
1070
     0
1000
MTEXTEND
1000
MTEXTBEGIN
1070
    73
1070
     1
1070
    44
1040
1.0
1070
    74
1070
     0
1000
MTEXTEND
  0
POINT
  5
80E0
330
7FE4
100
AcDbEntity
  8
DEFPOINTS
  6
Continuous
 62
     0
100
AcDbPoint
 10
112.5
 20
673.0
 30
0.0
  0
POINT
  5
80E1
330
7FE4
100
AcDbEntity
  8
DEFPOINTS
  6
Continuous
 62
     0
100
AcDbPoint
 10
112.5
 20
557.9999996065971
 30
0.0
  0
POINT
  5
80E2
330
7FE4
100
AcDbEntity
  8
DEFPOINTS
  6
Continuous
 62
     0
100
AcDbPoint
 10
158.974585003826
 20
557.9999996065971
 30
0.0
  0
ENDBLK
  5
7FEF
330
7FE4
100
AcDbEntity
  8
0
100
AcDbBlockEnd
  0
BLOCK
  5
7FFB
330
7FF1
100
AcDbEntity
  8
0
100
AcDbBlockBegin
  2
*D40
 70
     1
 10
0.0
 20
0.0
 30
0.0
  3
*D40
  1

  0
LINE
  5
81EB
330
7FF1
100
AcDbEntity
  8
30
  6
Continuous
 62
     0
440
 16777216
100
AcDbLine
 10
-104.9999999999996
 20
718.0
 30
0.0
 11
-104.9999999999996
 21
732.0473405354922
 31
0.0
  0
LINE
  5
81EC
330
7FF1
100
AcDbEntity
  8
30
  6
Continuous
 62
     0
440
 16777216
100
AcDbLine
 10
0.0000000000000006
 20
718.0
 30
0.0
 11
0.0000000000000015
 21
732.0473405354922
 31
0.0
  0
LINE
  5
81ED
330
7FF1
100
AcDbEntity
  8
30
  6
Continuous
 62
     0
440
 16777216
100
AcDbLine
 10
-102.9999999999997
 20
731.5473405354922
 30
0.0
 11
-1.999999999999998
 21
731.5473405354922
 31
0.0
  0
INSERT
  5
81EE
330
7FF1
100
AcDbEntity
  8
30
  6
Continuous
 62
     0
440
 16777216
100
AcDbBlockReference
  2
_OPEN
 10
-104.9999999999996
 20
731.5473405354922
 30
0.0
 41
2.0
 42
2.0
 43
2.0
 50
180.0
  0
INSERT
  5
81EF
330
7FF1
100
AcDbEntity
  8
30
  6
Continuous
 62
     0
440
 16777216
100
AcDbBlockReference
  2
_OPEN
 10
0.0000000000000014
 20
731.5473405354922
 30
0.0
 41
2.0
 42
2.0
 43
2.0
  0
MTEXT
  5
81F0
330
7FF1
100
AcDbEntity
  8
30
  6
Continuous
 62
     0
440
 16777216
100
AcDbMText
 10
-52.49999999999995
 20
737.5473405354922
 30
0.0
 40
10.0
 41
0.0
 46
0.0
 71
     5
 72
     1
  1
\A1;105
 73
     1
 44
1.0
1001
ACAD
1000
MTEXTBEGIN
1070
    73
1070
     1
1070
    44
1040
1.0
1070
    74
1070
     0
1000
MTEXTEND
  0
POINT
  5
81F1
330
7FF1
100
AcDbEntity
  8
DEFPOINTS
  6
Continuous
 62
     0
440
 16777216
100
AcDbPoint
 10
-104.9999999999996
 20
708.0
 30
0.0
  0
POINT
  5
81F2
330
7FF1
100
AcDbEntity
  8
DEFPOINTS
  6
Continuous
 62
     0
440
 16777216
100
AcDbPoint
 10
0.0
 20
708.0
 30
0.0
  0
POINT
  5
81F3
330
7FF1
100
AcDbEntity
  8
DEFPOINTS
  6
Continuous
 62
     0
440
 16777216
100
AcDbPoint
 10
0.0000000000000014
 20
731.5473405354922
 30
0.0
  0
ENDBLK
  5
7FFC
330
7FF1
100
AcDbEntity
  8
0
100
AcDbBlockEnd
  0
BLOCK
  5
8008
330
7FFE
100
AcDbEntity
  8
0
100
AcDbBlockBegin
  2
*D41
 70
     1
 10
0.0
 20
0.0
 30
0.0
  3
*D41
  1

  0
LINE
  5
82C1
330
7FFE
100
AcDbEntity
  8
30
  6
Continuous
 62
     0
440
 16777216
100
AcDbLine
 10
0.0000000000000006
 20
718.0
 30
0.0
 11
0.0000000000000015
 21
732.0473405354922
 31
0.0
  0
LINE
  5
82C2
330
7FFE
100
AcDbEntity
  8
30
  6
Continuous
 62
     0
440
 16777216
100
AcDbLine
 10
105.0
 20
718.0
 30
0.0
 11
105.0
 21
732.0473405354922
 31
0.0
  0
LINE
  5
82C3
330
7FFE
100
AcDbEntity
  8
30
  6
Continuous
 62
     0
440
 16777216
100
AcDbLine
 10
2.0
 20
731.5473405354922
 30
0.0
 11
103.0
 21
731.5473405354922
 31
0.0
  0
INSERT
  5
82C4
330
7FFE
100
AcDbEntity
  8
30
  6
Continuous
 62
     0
440
 16777216
100
AcDbBlockReference
  2
_OPEN
 10
0.0000000000000014
 20
731.5473405354922
 30
0.0
 41
2.0
 42
2.0
 43
2.0
 50
180.0
  0
INSERT
  5
82C5
330
7FFE
100
AcDbEntity
  8
30
  6
Continuous
 62
     0
440
 16777216
100
AcDbBlockReference
  2
_OPEN
 10
105.0
 20
731.5473405354922
 30
0.0
 41
2.0
 42
2.0
 43
2.0
  0
MTEXT
  5
82C6
330
7FFE
100
AcDbEntity
  8
30
  6
Continuous
 62
     0
440
 16777216
100
AcDbMText
 10
52.5
 20
737.5473405354922
 30
0.0
 40
10.0
 41
0.0
 46
0.0
 71
     5
 72
     1
  1
\A1;105
 73
     1
 44
1.0
  0
POINT
  5
82C7
330
7FFE
100
AcDbEntity
  8
DEFPOINTS
  6
Continuous
 62
     0
440
 16777216
100
AcDbPoint
 10
0.0
 20
708.0
 30
0.0
  0
POINT
  5
82C8
330
7FFE
100
AcDbEntity
  8
DEFPOINTS
  6
Continuous
 62
     0
440
 16777216
100
AcDbPoint
 10
105.0
 20
708.0
 30
0.0
  0
POINT
  5
82C9
330
7FFE
100
AcDbEntity
  8
DEFPOINTS
  6
Continuous
 62
     0
440
 16777216
100
AcDbPoint
 10
105.0
 20
731.5473405354922
 30
0.0
  0
ENDBLK
  5
8009
330
7FFE
100
AcDbEntity
  8
0
100
AcDbBlockEnd
  0
BLOCK
  5
812D
330
8123
100
AcDbEntity
  8
0
100
AcDbBlockBegin
  2
*D42
 70
     1
 10
0.0
 20
0.0
 30
0.0
  3
*D42
  1

  0
LINE
  5
8124
330
8123
100
AcDbEntity
  8
30
  6
Continuous
 62
     0
440
 16777216
100
AcDbLine
 10
805.1803215886351
 20
-190.0
 30
0.0
 11
818.957322482036
 21
-190.0
 31
0.0
  0
LINE
  5
8125
330
8123
100
AcDbEntity
  8
30
  6
Continuous
 62
     0
440
 16777216
100
AcDbLine
 10
805.1803215886351
 20
-230.0
 30
0.0
 11
818.957322482036
 21
-230.0
 31
0.0
  0
LINE
  5
8126
330
8123
100
AcDbEntity
  8
30
  6
Continuous
 62
     0
440
 16777216
100
AcDbLine
 10
818.4573224820356
 20
-192.0
 30
0.0
 11
818.4573224820356
 21
-228.0
 31
0.0
  0
INSERT
  5
8127
330
8123
100
AcDbEntity
  8
30
  6
Continuous
 62
     0
440
 16777216
100
AcDbBlockReference
  2
_OPEN
 10
818.4573224820356
 20
-190.0
 30
0.0
 41
2.0
 42
2.0
 43
2.0
 50
90.0
  0
INSERT
  5
8128
330
8123
100
AcDbEntity
  8
30
  6
Continuous
 62
     0
440
 16777216
100
AcDbBlockReference
  2
_OPEN
 10
818.4573224820356
 20
-230.0
 30
0.0
 41
2.0
 42
2.0
 43
2.0
 50
270.0
  0
MTEXT
  5
8129
330
8123
100
AcDbEntity
  8
30
  6
Continuous
 62
     0
440
 16777216
100
AcDbMText
 10
812.4573224820361
 20
-209.9999999999999
 30
0.0
 40
10.0
 41
0.0
 46
0.0
 71
     5
 72
     1
  1
\A1;40
 11
0.0000000000000001
 21
1.0
 31
0.0
 73
     1
 44
1.0
1001
ACAD
1000
MTEXTBEGIN
1070
    73
1070
     1
1070
    44
1040
1.0
1070
    74
1070
     0
1000
MTEXTEND
1000
MTEXTBEGIN
1070
    73
1070
     1
1070
    44
1040
1.0
1070
    74
1070
     0
1000
MTEXTEND
  0
POINT
  5
812A
330
8123
100
AcDbEntity
  8
DEFPOINTS
  6
Continuous
 62
     0
440
 16777216
100
AcDbPoint
 10
795.1803215886352
 20
-190.0
 30
0.0
  0
POINT
  5
812B
330
8123
100
AcDbEntity
  8
DEFPOINTS
  6
Continuous
 62
     0
440
 16777216
100
AcDbPoint
 10
795.1803215886352
 20
-230.0
 30
0.0
  0
POINT
  5
812C
330
8123
100
AcDbEntity
  8
DEFPOINTS
  6
Continuous
 62
     0
440
 16777216
100
AcDbPoint
 10
818.4573224820356
 20
-230.0
 30
0.0
  0
ENDBLK
  5
812E
330
8123
100
AcDbEntity
  8
0
100
AcDbBlockEnd
  0
BLOCK
  5
813A
330
8130
100
AcDbEntity
  8
0
100
AcDbBlockBegin
  2
*D43
 70
     1
 10
0.0
 20
0.0
 30
0.0
  3
*D43
  1

  0
LINE
  5
8131
330
8130
100
AcDbEntity
  8
30
  6
Continuous
 62
     0
440
 16777216
100
AcDbLine
 10
810.9518059636352
 20
-165.0
 30
0.0
 11
837.9285606670501
 21
-165.0
 31
0.0
  0
LINE
  5
8132
330
8130
100
AcDbEntity
  8
30
  6
Continuous
 62
     0
440
 16777216
100
AcDbLine
 10
810.9518059636352
 20
-255.0
 30
0.0
 11
837.9285606670501
 21
-255.0
 31
0.0
  0
LINE
  5
8133
330
8130
100
AcDbEntity
  8
30
  6
Continuous
 62
     0
440
 16777216
100
AcDbLine
 10
837.4285606670499
 20
-167.0
 30
0.0
 11
837.4285606670499
 21
-253.0
 31
0.0
  0
INSERT
  5
8134
330
8130
100
AcDbEntity
  8
30
  6
Continuous
 62
     0
440
 16777216
100
AcDbBlockReference
  2
_OPEN
 10
837.4285606670499
 20
-165.0
 30
0.0
 41
2.0
 42
2.0
 43
2.0
 50
90.0
  0
INSERT
  5
8135
330
8130
100
AcDbEntity
  8
30
  6
Continuous
 62
     0
440
 16777216
100
AcDbBlockReference
  2
_OPEN
 10
837.4285606670499
 20
-255.0
 30
0.0
 41
2.0
 42
2.0
 43
2.0
 50
270.0
  0
MTEXT
  5
8136
330
8130
100
AcDbEntity
  8
30
  6
Continuous
 62
     0
440
 16777216
100
AcDbMText
 10
831.42856066705
 20
-209.9999999999999
 30
0.0
 40
10.0
 41
0.0
 46
0.0
 71
     5
 72
     1
  1
\A1;90
 11
0.0000000000000001
 21
1.0
 31
0.0
 73
     1
 44
1.0
1001
ACAD
1000
MTEXTBEGIN
1070
    73
1070
     1
1070
    44
1040
1.0
1070
    74
1070
     0
1000
MTEXTEND
1000
MTEXTBEGIN
1070
    73
1070
     1
1070
    44
1040
1.0
1070
    74
1070
     0
1000
MTEXTEND
  0
POINT
  5
8137
330
8130
100
AcDbEntity
  8
DEFPOINTS
  6
Continuous
 62
     0
440
 16777216
100
AcDbPoint
 10
800.9518059636352
 20
-165.0
 30
0.0
  0
POINT
  5
8138
330
8130
100
AcDbEntity
  8
DEFPOINTS
  6
Continuous
 62
     0
440
 16777216
100
AcDbPoint
 10
800.9518059636352
 20
-255.0
 30
0.0
  0
POINT
  5
8139
330
8130
100
AcDbEntity
  8
DEFPOINTS
  6
Continuous
 62
     0
440
 16777216
100
AcDbPoint
 10
837.4285606670499
 20
-255.0
 30
0.0
  0
ENDBLK
  5
813B
330
8130
100
AcDbEntity
  8
0
100
AcDbBlockEnd
  0
BLOCK
  5
81C2
330
81B8
100
AcDbEntity
  8
0
100
AcDbBlockBegin
  2
*D44
 70
     1
 10
0.0
 20
0.0
 30
0.0
  3
*D44
  1

  0
LINE
  5
81B9
330
81B8
100
AcDbEntity
  8
30
  6
Continuous
 62
     0
100
AcDbLine
 10
805.1803215886351
 20
-190.0
 30
0.0
 11
818.957322482036
 21
-190.0
 31
0.0
  0
LINE
  5
81BA
330
81B8
100
AcDbEntity
  8
30
  6
Continuous
 62
     0
100
AcDbLine
 10
805.1803215886351
 20
-230.0
 30
0.0
 11
818.957322482036
 21
-230.0
 31
0.0
  0
LINE
  5
81BB
330
81B8
100
AcDbEntity
  8
30
  6
Continuous
 62
     0
100
AcDbLine
 10
818.4573224820356
 20
-192.0
 30
0.0
 11
818.4573224820356
 21
-228.0
 31
0.0
  0
INSERT
  5
81BC
330
81B8
100
AcDbEntity
  8
30
  6
Continuous
 62
     0
100
AcDbBlockReference
  2
_OPEN
 10
818.4573224820356
 20
-190.0
 30
0.0
 41
2.0
 42
2.0
 43
2.0
 50
90.0
  0
INSERT
  5
81BD
330
81B8
100
AcDbEntity
  8
30
  6
Continuous
 62
     0
100
AcDbBlockReference
  2
_OPEN
 10
818.4573224820356
 20
-230.0
 30
0.0
 41
2.0
 42
2.0
 43
2.0
 50
270.0
  0
MTEXT
  5
81BE
330
81B8
100
AcDbEntity
  8
30
  6
Continuous
 62
     0
100
AcDbMText
 10
812.4573224820361
 20
-209.9999999999999
 30
0.0
 40
10.0
 41
0.0
 46
0.0
 71
     5
 72
     1
  1
\A1;40
 11
0.0000000000000001
 21
1.0
 31
0.0
 73
     1
 44
1.0
1001
ACAD
1000
MTEXTBEGIN
1070
    73
1070
     1
1070
    44
1040
1.0
1070
    74
1070
     0
1000
MTEXTEND
1000
MTEXTBEGIN
1070
    73
1070
     1
1070
    44
1040
1.0
1070
    74
1070
     0
1000
MTEXTEND
  0
POINT
  5
81BF
330
81B8
100
AcDbEntity
  8
DEFPOINTS
  6
Continuous
 62
     0
100
AcDbPoint
 10
795.1803215886352
 20
-190.0
 30
0.0
  0
POINT
  5
81C0
330
81B8
100
AcDbEntity
  8
DEFPOINTS
  6
Continuous
 62
     0
100
AcDbPoint
 10
795.1803215886352
 20
-230.0
 30
0.0
  0
POINT
  5
81C1
330
81B8
100
AcDbEntity
  8
DEFPOINTS
  6
Continuous
 62
     0
100
AcDbPoint
 10
818.4573224820356
 20
-230.0
 30
0.0
  0
ENDBLK
  5
81C3
330
81B8
100
AcDbEntity
  8
0
100
AcDbBlockEnd
  0
BLOCK
  5
81CE
330
81C4
100
AcDbEntity
  8
0
100
AcDbBlockBegin
  2
*D45
 70
     1
 10
0.0
 20
0.0
 30
0.0
  3
*D45
  1

  0
LINE
  5
81C5
330
81C4
100
AcDbEntity
  8
30
  6
Continuous
 62
     0
100
AcDbLine
 10
810.9518059636352
 20
-165.0
 30
0.0
 11
837.9285606670501
 21
-165.0
 31
0.0
  0
LINE
  5
81C6
330
81C4
100
AcDbEntity
  8
30
  6
Continuous
 62
     0
100
AcDbLine
 10
810.9518059636352
 20
-255.0
 30
0.0
 11
837.9285606670501
 21
-255.0
 31
0.0
  0
LINE
  5
81C7
330
81C4
100
AcDbEntity
  8
30
  6
Continuous
 62
     0
100
AcDbLine
 10
837.4285606670499
 20
-167.0
 30
0.0
 11
837.4285606670499
 21
-253.0
 31
0.0
  0
INSERT
  5
81C8
330
81C4
100
AcDbEntity
  8
30
  6
Continuous
 62
     0
100
AcDbBlockReference
  2
_OPEN
 10
837.4285606670499
 20
-165.0
 30
0.0
 41
2.0
 42
2.0
 43
2.0
 50
90.0
  0
INSERT
  5
81C9
330
81C4
100
AcDbEntity
  8
30
  6
Continuous
 62
     0
100
AcDbBlockReference
  2
_OPEN
 10
837.4285606670499
 20
-255.0
 30
0.0
 41
2.0
 42
2.0
 43
2.0
 50
270.0
  0
MTEXT
  5
81CA
330
81C4
100
AcDbEntity
  8
30
  6
Continuous
 62
     0
100
AcDbMText
 10
831.42856066705
 20
-209.9999999999999
 30
0.0
 40
10.0
 41
0.0
 46
0.0
 71
     5
 72
     1
  1
\A1;90
 11
0.0000000000000001
 21
1.0
 31
0.0
 73
     1
 44
1.0
1001
ACAD
1000
MTEXTBEGIN
1070
    73
1070
     1
1070
    44
1040
1.0
1070
    74
1070
     0
1000
MTEXTEND
1000
MTEXTBEGIN
1070
    73
1070
     1
1070
    44
1040
1.0
1070
    74
1070
     0
1000
MTEXTEND
  0
POINT
  5
81CB
330
81C4
100
AcDbEntity
  8
DEFPOINTS
  6
Continuous
 62
     0
100
AcDbPoint
 10
800.9518059636352
 20
-165.0
 30
0.0
  0
POINT
  5
81CC
330
81C4
100
AcDbEntity
  8
DEFPOINTS
  6
Continuous
 62
     0
100
AcDbPoint
 10
800.9518059636352
 20
-255.0
 30
0.0
  0
POINT
  5
81CD
330
81C4
100
AcDbEntity
  8
DEFPOINTS
  6
Continuous
 62
     0
100
AcDbPoint
 10
837.4285606670499
 20
-255.0
 30
0.0
  0
ENDBLK
  5
81CF
330
81C4
100
AcDbEntity
  8
0
100
AcDbBlockEnd
  0
BLOCK
  5
81E4
330
81D0
100
AcDbEntity
  8
0
100
AcDbBlockBegin
  2
A$C50D02821
 70
     0
 10
0.0
 20
0.0
 30
0.0
  3
A$C50D02821
  1

  0
LINE
  5
81D1
330
81D0
100
AcDbEntity
  8
21
  6
Continuous
100
AcDbLine
 10
0.0
 20
0.0
 30
0.0
 11
150.0
 21
0.0
 31
0.0
  0
LINE
  5
81D2
330
81D0
100
AcDbEntity
  8
21
  6
Continuous
100
AcDbLine
 10
150.0
 20
-90.0
 30
0.0
 11
-23.0
 21
-90.0
 31
0.0
  0
LINE
  5
81D3
330
81D0
100
AcDbEntity
  8
10
  6
Continuous
100
AcDbLine
 10
-23.0
 20
-90.0
 30
0.0
 11
-23.0
 21
-60.0
 31
0.0
  0
LINE
  5
81D4
330
81D0
100
AcDbEntity
  8
10
  6
Continuous
100
AcDbLine
 10
-8.0
 20
-90.0
 30
0.0
 11
-8.0
 21
-60.0
 31
0.0
  0
LINE
  5
81D5
330
81D0
100
AcDbEntity
  8
24
  6
CONTINOUS
100
AcDbLine
 10
113.4824218749999
 20
-65.0
 30
0.0
 11
144.228515625
 21
-65.0
 31
0.0
  0
LINE
  5
81D6
330
81D0
100
AcDbEntity
  8
24
  6
CONTINOUS
100
AcDbLine
 10
111.2048339844
 20
-25.0
 30
0.0
 11
144.228515625
 21
-25.0
 31
0.0
  0
CIRCLE
  5
81D7
330
81D0
100
AcDbEntity
  8
24
  6
CONTINOUS
100
AcDbCircle
 10
130.0
 20
-25.0
 30
0.0
 40
7.0
  0
CIRCLE
  5
81D8
330
81D0
100
AcDbEntity
  8
24
  6
CONTINOUS
100
AcDbCircle
 10
130.0
 20
-65.0
 30
0.0
 40
7.0
  0
LINE
  5
81D9
330
81D0
100
AcDbEntity
  8
24
  6
CONTINOUS
100
AcDbLine
 10
90.0
 20
-46.4453125
 30
0.0
 11
90.0
 21
-78.330078125
 31
0.0
  0
LINE
  5
81DA
330
81D0
100
AcDbEntity
  8
24
  6
CONTINOUS
100
AcDbLine
 10
130.0
 20
-49.7177734375
 30
0.0
 11
130.0
 21
-80.4638671875
 31
0.0
  0
LINE
  5
81DB
330
81D0
100
AcDbEntity
  8
24
  6
CONTINOUS
100
AcDbLine
 10
71.20483398440001
 20
-65.0
 30
0.0
 11
104.2285156249999
 21
-65.0
 31
0.0
  0
LINE
  5
81DC
330
81D0
100
AcDbEntity
  8
24
  6
CONTINOUS
100
AcDbLine
 10
71.20483398440001
 20
-25.0
 30
0.0
 11
104.2285156249999
 21
-25.0
 31
0.0
  0
LINE
  5
81DD
330
81D0
100
AcDbEntity
  8
24
  6
CONTINOUS
100
AcDbLine
 10
130.0
 20
-6.4453125
 30
0.0
 11
130.0
 21
-38.330078125
 31
0.0
  0
LINE
  5
81DE
330
81D0
100
AcDbEntity
  8
24
  6
CONTINOUS
100
AcDbLine
 10
90.0
 20
-6.4453125
 30
0.0
 11
90.0
 21
-38.330078125
 31
0.0
  0
CIRCLE
  5
81DF
330
81D0
100
AcDbEntity
  8
24
  6
CONTINOUS
100
AcDbCircle
 10
90.0
 20
-65.0
 30
0.0
 40
7.0
  0
CIRCLE
  5
81E0
330
81D0
100
AcDbEntity
  8
24
  6
CONTINOUS
100
AcDbCircle
 10
90.0
 20
-25.0
 30
0.0
 40
7.0
  0
DIMENSION
  5
81E1
330
81D0
100
AcDbEntity
  8
30
  6
Continuous
100
AcDbDimension
280
     0
  2
*D45
 10
186.4767547034146
 20
-90.0
 30
0.0
 11
180.4767547034145
 21
-44.99999999999992
 31
0.0
 12
-650.9518059636352
 22
165.0
 32
0.0
 71
     5
 42
-1.0
 73
     0
 74
     0
 75
     0
  3
STANDARD
100
AcDbAlignedDimension
 13
150.0
 23
0.0
 33
0.0
 14
150.0
 24
-90.0
 34
0.0
 50
90.0
100
AcDbRotatedDimension
  0
LINE
  5
81E2
330
81D0
100
AcDbEntity
  8
21
  6
Continuous
100
AcDbLine
 10
150.0
 20
0.0
 30
0.0
 11
150.0
 21
-90.0
 31
0.0
  0
DIMENSION
  5
81E3
330
81D0
100
AcDbEntity
  8
30
  6
Continuous
100
AcDbDimension
280
     0
  2
*D44
 10
167.5055165184005
 20
-65.0
 30
0.0
 11
161.5055165184009
 21
-44.99999999999992
 31
0.0
 12
-650.9518059636352
 22
165.0
 32
0.0
 71
     5
 42
-1.0
 73
     0
 74
     0
 75
     0
  3
STANDARD
100
AcDbAlignedDimension
 13
144.228515625
 23
-25.0
 33
0.0
 14
144.228515625
 24
-65.0
 34
0.0
 50
90.0
100
AcDbRotatedDimension
  0
ENDBLK
  5
81E5
330
81D0
100
AcDbEntity
  8
0
100
AcDbBlockEnd
  0
ENDSEC
  0
SECTION
  2
ENTITIES
  0
LINE
  5
B4
330
1E
100
AcDbEntity
  8
16
100
AcDbLine
 10
0.0
 20
-246.7320067941299
 30
0.0
 11
0.0
 21
217.0
 31
0.0
  0
MTEXT
  5
BF3
330
1E
100
AcDbEntity
  8
24
  6
Continuous
100
AcDbMText
 10
142.1181906098743
 20
177.5
 30
0.0
 40
3.0
 41
0.0
 46
0.0
 71
     1
 72
     1
  1
\A1;
 73
     1
 44
1.0
1001
ACAD
1000
MTEXTBEGIN
1070
    73
1070
     1
1070
    44
1040
1.0
1070
    74
1070
     0
1000
MTEXTEND
1000
MTEXTBEGIN
1070
    73
1070
     1
1070
    44
1040
1.0
1070
    74
1070
     0
1000
MTEXTEND
  0
LINE
  5
1C9A
330
1E
100
AcDbEntity
  8
16
100
AcDbLine
 10
0.0
 20
197.0
 30
0.0
 11
0.0
 21
679.0650252640321
 31
0.0
  0
LINE
  5
1C9B
330
1E
100
AcDbEntity
  8
16
100
AcDbLine
 10
744.2565815759544
 20
0.0
 30
0.0
 11
380.5436835995641
 21
0.0
 31
0.0
  0
LINE
  5
2260
330
1E
100
AcDbEntity
  8
16
100
AcDbLine
 10
357.5838054076048
 20
-638.1905093415666
 30
0.0
 11
-214.7860284702828
 21
-638.1905093415666
 31
0.0
  0
LINE
  5
4C5A
330
1E
100
AcDbEntity
  8
16
100
AcDbLine
 10
254.8736803911003
 20
0.0
 30
0.0
 11
-317.389454140999
 21
0.0
 31
0.0
  0
LWPOLYLINE
  5
62AB
330
1E
100
AcDbEntity
  8
16
100
AcDbPolyline
 90
        2
 70
     0
 43
0.0
 10
0.0000000000000284
 20
-896.8056808897237
 10
0.0000000000000284
 20
-369.5733133676644
  0
LWPOLYLINE
  5
6462
330
1E
100
AcDbEntity
  8
10
  6
Continuous
100
AcDbPolyline
 90
        6
 70
     0
 43
0.0
 10
202.9999389648597
 20
388.0
 10
-203.0
 20
388.0
 10
202.9999389648597
 20
388.0
 10
202.9999389648597
 20
370.0
 10
-203.0
 20
370.0
 10
-203.0
 20
388.0
  0
LINE
  5
6463
330
1E
100
AcDbEntity
  8
18
100
AcDbLine
 10
-279.0
 20
396.0000000000007
 30
0.0
 11
282.9999389648599
 21
396.0000000000007
 31
0.0
  0
LWPOLYLINE
  5
6467
330
1E
100
AcDbEntity
  8
10
  6
Continuous
100
AcDbPolyline
 90
        4
 70
     0
 43
0.0
 10
-160.0
 20
388.0
 10
-160.0
 20
558.0
 10
159.9999389648598
 20
558.0
 10
159.9999389648598
 20
388.0
  0
LINE
  5
6469
330
1E
100
AcDbEntity
  8
18
100
AcDbLine
 10
282.9999389648599
 20
388.0
 30
0.0
 11
202.9999389648597
 21
388.0
 31
0.0
  0
LINE
  5
646A
330
1E
100
AcDbEntity
  8
18
100
AcDbLine
 10
282.9999389648599
 20
392.0
 30
0.0
 11
282.9999389648599
 21
388.0
 31
0.0
  0
LINE
  5
6480
330
1E
100
AcDbEntity
  8
18
100
AcDbLine
 10
-279.0
 20
388.0
 30
0.0
 11
-203.0
 21
388.0
 31
0.0
  0
LINE
  5
6481
330
1E
100
AcDbEntity
  8
18
100
AcDbLine
 10
-279.0
 20
388.0
 30
0.0
 11
-279.0
 21
392.0
 31
0.0
  0
MTEXT
  5
678B
330
1E
100
AcDbEntity
  8
19
  6
Continuous
100
AcDbMText
 10
530.160495945234
 20
525.0
 30
0.0
 40
9.0
 41
153.868
 46
0.0
 71
     1
 72
     5
  1
XS2500NE 3P FP\PXS2500NN 3P FP\PXS3200NE 3P FP
  7
STANDARD1
 73
     1
 44
1.0
1001
ACAD
1000
MTEXTBEGIN
1070
    73
1070
     1
1070
    44
1040
1.0
1070
    74
1070
     0
1000
MTEXTEND
1000
MTEXTBEGIN
1070
    73
1070
     1
1070
    44
1040
1.0
1070
    74
1070
     0
1000
MTEXTEND
  0
LINE
  5
72EC
330
1E
100
AcDbEntity
  8
21
  6
Continuous
100
AcDbLine
 10
-7.5
 20
557.9997554658971
 30
0.0
 11
-7.5
 21
708.0
 31
0.0
  0
LINE
  5
72ED
330
1E
100
AcDbEntity
  8
21
  6
Continuous
100
AcDbLine
 10
7.5
 20
557.9999996065971
 30
0.0
 11
7.5
 21
708.0
 31
0.0
  0
LINE
  5
72EE
330
1E
100
AcDbEntity
  8
21
  6
Continuous
100
AcDbLine
 10
7.5
 20
708.0
 30
0.0
 11
-7.5
 21
708.0
 31
0.0
  0
LINE
  5
7317
330
1E
100
AcDbEntity
  8
24
  6
CONTINOUS
100
AcDbLine
 10
22.5
 20
688.0
 30
0.0
 11
-22.5
 21
688.0
 31
0.0
  0
LINE
  5
77F6
330
1E
100
AcDbEntity
  8
16
100
AcDbLine
 10
358.3072696106392
 20
-638.1905093415666
 30
0.0
 11
884.053481934192
 21
-638.1905093415666
 31
0.0
  0
LINE
  5
7869
330
1E
100
AcDbEntity
  8
18
  6
DASHED
 48
2.0
100
AcDbLine
 10
-194.9799804687995
 20
-719.1905707701293
 30
0.0
 11
301.4580078125005
 21
-719.1905707701293
 31
0.0
  0
LINE
  5
786A
330
1E
100
AcDbEntity
  8
18
  6
DASHED
 48
2.0
100
AcDbLine
 10
-179.4548339843994
 20
-468.1905402525493
 30
0.0
 11
308.3088378906005
 21
-468.1905402525493
 31
0.0
  0
LINE
  5
786B
330
1E
100
AcDbEntity
  8
18
  6
DASHED
 48
2.0
100
AcDbLine
 10
-160.0935058593995
 20
-863.1905707701292
 30
0.0
 11
159.9064941406004
 21
-863.1905707701292
 31
0.0
  0
LINE
  5
786C
330
1E
100
AcDbEntity
  8
18
  6
DASHED
 48
2.0
100
AcDbLine
 10
-160.0935058593995
 20
-413.1905402525492
 30
0.0
 11
159.9064941406004
 21
-413.1905402525492
 31
0.0
  0
LINE
  5
786D
330
1E
100
AcDbEntity
  8
18
  6
DASHED
 48
2.0
100
AcDbLine
 10
-182.0559082031994
 20
-769.1905707701293
 30
0.0
 11
303.0952148437005
 21
-769.1905707701293
 31
0.0
  0
LINE
  5
786E
330
1E
100
AcDbEntity
  8
18
  6
DASHED
 48
2.0
100
AcDbLine
 10
-200.0932617187995
 20
-418.1905402525492
 30
0.0
 11
301.4580078125005
 21
-418.1905402525492
 31
0.0
  0
LINE
  5
786F
330
1E
100
AcDbEntity
  8
18
  6
DASHED
 48
2.0
100
AcDbLine
 10
309.0979003906005
 20
-462.1905402525491
 30
0.0
 11
-189.5373535156995
 21
-462.1905402525491
 31
0.0
  0
LINE
  5
7870
330
1E
100
AcDbEntity
  8
18
  6
DASHED
 48
2.0
100
AcDbLine
 10
296.8317871093002
 20
-725.1905707701292
 30
0.0
 11
-198.5012207031994
 21
-725.1905707701292
 31
0.0
  0
LINE
  5
7871
330
1E
100
AcDbEntity
  8
18
  6
DASHED
 48
2.0
100
AcDbLine
 10
-160.0935058593995
 20
-863.1905707701292
 30
0.0
 11
-160.0935058593995
 21
-413.1905402525492
 31
0.0
  0
LINE
  5
7872
330
1E
100
AcDbEntity
  8
18
  6
DASHED
 48
2.0
100
AcDbLine
 10
-194.5024414062995
 20
-752.6513251646592
 30
0.0
 11
-197.3959960937995
 21
-769.1905707701293
 31
0.0
  0
LINE
  5
7873
330
1E
100
AcDbEntity
  8
18
  6
DASHED
 48
2.0
100
AcDbLine
 10
-202.0977783203995
 20
-738.4099311216893
 30
0.0
 11
-194.5024414062995
 21
-752.6513251646592
 31
0.0
  0
LINE
  5
7874
330
1E
100
AcDbEntity
  8
18
  6
DASHED
 48
2.0
100
AcDbLine
 10
-194.9799804687995
 20
-719.1905707701293
 30
0.0
 11
-202.0977783203995
 21
-738.4099311216893
 31
0.0
  0
LINE
  5
7875
330
1E
100
AcDbEntity
  8
18
  6
DASHED
 48
2.0
100
AcDbLine
 10
-182.0559082031994
 20
-769.1905707701293
 30
0.0
 11
-197.3959960937995
 21
-769.1905707701293
 31
0.0
  0
LINE
  5
7876
330
1E
100
AcDbEntity
  8
12
  6
Continuous
 62
     3
100
AcDbLine
 10
-171.0932617187993
 20
-749.1905707701293
 30
0.0
 11
-131.0932617187994
 21
-749.1905707701293
 31
0.0
  0
CIRCLE
  5
7877
330
1E
100
AcDbEntity
  8
12
  6
Continuous
 62
     3
100
AcDbCircle
 10
-151.0932617187993
 20
-749.1905707701293
 30
0.0
 40
6.0
  0
LINE
  5
787E
330
1E
100
AcDbEntity
  8
18
  6
DASHED
 48
2.0
100
AcDbLine
 10
-186.9069824218994
 20
-430.7961921080193
 30
0.0
 11
-200.0932617187995
 21
-418.1905402525492
 31
0.0
  0
LINE
  5
787F
330
1E
100
AcDbEntity
  8
18
  6
DASHED
 48
2.0
100
AcDbLine
 10
-196.4012451171995
 20
-451.6835822447393
 30
0.0
 11
-186.9069824218994
 21
-430.7961921080193
 31
0.0
  0
LINE
  5
7880
330
1E
100
AcDbEntity
  8
18
  6
DASHED
 48
2.0
100
AcDbLine
 10
-179.4548339843994
 20
-468.1905402525493
 30
0.0
 11
-196.4012451171995
 21
-451.6835822447393
 31
0.0
  0
CIRCLE
  5
7881
330
1E
100
AcDbEntity
  8
12
  6
Continuous
 62
     3
100
AcDbCircle
 10
-52.5935058593995
 20
-438.1905402525492
 30
0.0
 40
6.0
  0
LINE
  5
7882
330
1E
100
AcDbEntity
  8
12
  6
Continuous
 62
     3
100
AcDbLine
 10
-67.5935058593995
 20
-438.1905402525492
 30
0.0
 11
-37.5935058593995
 21
-438.1905402525492
 31
0.0
  0
CIRCLE
  5
7883
330
1E
100
AcDbEntity
  8
12
  6
Continuous
 62
     3
100
AcDbCircle
 10
52.4064941406005
 20
-438.1905402525492
 30
0.0
 40
6.0
  0
LINE
  5
7885
330
1E
100
AcDbEntity
  8
18
  6
DASHED
 48
2.0
100
AcDbLine
 10
159.9064941406004
 20
-863.1905707701292
 30
0.0
 11
159.9064941406004
 21
-413.1905402525492
 31
0.0
  0
CIRCLE
  5
7887
330
1E
100
AcDbEntity
  8
12
  6
Continuous
 62
     3
100
AcDbCircle
 10
150.9064941406005
 20
-749.1905707701293
 30
0.0
 40
6.0
  0
LINE
  5
7888
330
1E
100
AcDbEntity
  8
18
  6
DASHED
 48
2.0
100
AcDbLine
 10
301.4580078125005
 20
-719.1905707701293
 30
0.0
 11
293.5019531250005
 21
-736.5110968931793
 31
0.0
  0
LINE
  5
7889
330
1E
100
AcDbEntity
  8
18
  6
DASHED
 48
2.0
100
AcDbLine
 10
293.5019531250005
 20
-736.5110968931793
 30
0.0
 11
302.0468750000005
 21
-748.8536261900493
 31
0.0
  0
LINE
  5
788A
330
1E
100
AcDbEntity
  8
18
  6
DASHED
 48
2.0
100
AcDbLine
 10
302.0468750000005
 20
-748.8536261900493
 30
0.0
 11
303.0952148437005
 21
-769.1905707701293
 31
0.0
  0
LINE
  5
788C
330
1E
100
AcDbEntity
  8
18
  6
DASHED
 48
2.0
100
AcDbLine
 10
310.5917968750005
 20
-450.7341193541089
 30
0.0
 11
295.4008789062005
 21
-432.6950568541091
 31
0.0
  0
LINE
  5
788D
330
1E
100
AcDbEntity
  8
18
  6
DASHED
 48
2.0
100
AcDbLine
 10
308.3088378906005
 20
-468.1905402525493
 30
0.0
 11
310.5917968750005
 21
-450.7341193541089
 31
0.0
  0
LINE
  5
788E
330
1E
100
AcDbEntity
  8
18
  6
DASHED
 48
2.0
100
AcDbLine
 10
295.4008789062005
 20
-432.6950568541091
 30
0.0
 11
301.4580078125005
 21
-418.1905402525492
 31
0.0
  0
LWPOLYLINE
  5
788F
330
1E
100
AcDbEntity
  8
18
100
AcDbPolyline
 90
        4
 70
     1
 43
0.0
 10
825.3404576618276
 20
-878.1905703767266
 10
825.3404576618276
 20
-398.1905398591467
 10
419.3404576618275
 20
-398.1905398591467
 10
419.3404576618275
 20
-878.1905703767266
  0
LWPOLYLINE
  5
7890
330
1E
100
AcDbEntity
  8
11
  6
Continuous
100
AcDbPolyline
 90
        4
 70
     1
 43
0.0
 10
797.3404576618277
 20
-871.1905703767266
 10
797.3404576618277
 20
-405.1905398591467
 10
447.3404576618277
 20
-405.1905398591467
 10
447.3404576618277
 20
-871.1905703767266
  0
LINE
  5
78C7
330
1E
100
AcDbEntity
  8
12
  6
Continuous
 62
     3
100
AcDbLine
 10
-52.5935058593995
 20
-453.1905402525493
 30
0.0
 11
-52.5935058593995
 21
-423.1905402525493
 31
0.0
  0
LINE
  5
78C8
330
1E
100
AcDbEntity
  8
12
  6
Continuous
 62
     3
100
AcDbLine
 10
52.4064941406005
 20
-453.1905402525493
 30
0.0
 11
52.4064941406005
 21
-423.1905402525493
 31
0.0
  0
LINE
  5
78C9
330
1E
100
AcDbEntity
  8
12
  6
Continuous
 62
     3
100
AcDbLine
 10
37.4064941406005
 20
-438.1905402525492
 30
0.0
 11
67.4064941406005
 21
-438.1905402525492
 31
0.0
  0
LINE
  5
78CA
330
1E
100
AcDbEntity
  8
12
  6
Continuous
 62
     3
100
AcDbLine
 10
150.9064941406005
 20
-764.1905707701294
 30
0.0
 11
150.9064941406005
 21
-734.1905707701292
 31
0.0
  0
LINE
  5
78CB
330
1E
100
AcDbEntity
  8
12
  6
Continuous
 62
     3
100
AcDbLine
 10
135.9064941406004
 20
-749.1905707701293
 30
0.0
 11
165.9064941406005
 21
-749.1905707701293
 31
0.0
  0
LINE
  5
78CC
330
1E
100
AcDbEntity
  8
12
  6
Continuous
 62
     3
100
AcDbLine
 10
-151.0932617187993
 20
-764.1905707701294
 30
0.0
 11
-151.0932617187993
 21
-734.1905707701292
 31
0.0
  0
LINE
  5
78CD
330
1E
100
AcDbEntity
  8
12
  6
Continuous
 62
     3
100
AcDbLine
 10
-166.0932617187993
 20
-749.1905707701293
 30
0.0
 11
-136.0932617187994
 21
-749.1905707701293
 31
0.0
  0
LINE
  5
78CE
330
1E
100
AcDbEntity
  8
24
  6
CONTINOUS
100
AcDbLine
 10
127.5
 20
688.0
 30
0.0
 11
82.5
 21
688.0
 31
0.0
  0
LINE
  5
78CF
330
1E
100
AcDbEntity
  8
21
  6
Continuous
100
AcDbLine
 10
112.5
 20
557.9999996065971
 30
0.0
 11
112.5
 21
708.0
 31
0.0
  0
LINE
  5
78D0
330
1E
100
AcDbEntity
  8
21
  6
Continuous
100
AcDbLine
 10
97.5
 20
557.9997554658971
 30
0.0
 11
97.5
 21
708.0
 31
0.0
  0
LINE
  5
78D1
330
1E
100
AcDbEntity
  8
21
  6
Continuous
100
AcDbLine
 10
112.5
 20
708.0
 30
0.0
 11
97.5
 21
708.0
 31
0.0
  0
LINE
  5
78D2
330
1E
100
AcDbEntity
  8
24
  6
CONTINOUS
100
AcDbLine
 10
-82.5
 20
688.0
 30
0.0
 11
-127.4999999999997
 21
688.0
 31
0.0
  0
LINE
  5
78D3
330
1E
100
AcDbEntity
  8
21
  6
Continuous
100
AcDbLine
 10
-97.5
 20
557.9999996065971
 30
0.0
 11
-97.5
 21
708.0
 31
0.0
  0
LINE
  5
78D4
330
1E
100
AcDbEntity
  8
21
  6
Continuous
100
AcDbLine
 10
-112.4999999999999
 20
557.9997554658971
 30
0.0
 11
-112.4999999999999
 21
708.0
 31
0.0
  0
LINE
  5
78D5
330
1E
100
AcDbEntity
  8
21
  6
Continuous
100
AcDbLine
 10
-97.5
 20
708.0
 30
0.0
 11
-112.4999999999999
 21
708.0
 31
0.0
  0
LWPOLYLINE
  5
78DA
330
1E
100
AcDbEntity
  8
16
100
AcDbPolyline
 90
        2
 70
     0
 43
0.0
 10
676.8404576618276
 20
-888.8056804963207
 10
676.8404576618276
 20
-361.5733129742618
  0
DIMENSION
  5
78DB
330
1E
100
AcDbEntity
  8
30
  6
Continuous
100
AcDbDimension
280
     0
  2
*D17
 10
797.3404576618277
 20
-939.5639479338031
 30
0.0
 11
622.3404576618278
 21
-933.5639479338032
 31
0.0
 70
    32
 71
     5
 42
-1.0
 73
     0
 74
     0
 75
     0
  3
STANDARD
100
AcDbAlignedDimension
 13
447.3404576618277
 23
-871.1905703767266
 33
0.0
 14
797.3404576618277
 24
-871.1905703767266
 34
0.0
100
AcDbRotatedDimension
  0
DIMENSION
  5
78E8
330
1E
100
AcDbEntity
  8
30
  6
Continuous
100
AcDbDimension
280
     0
  2
*D18
 10
916.6045666747923
 20
-871.1905703767266
 30
0.0
 11
910.6045666747926
 21
-638.1905551179364
 31
0.0
 70
    32
 71
     5
 42
-1.0
 73
     0
 74
     0
 75
     0
  3
STANDARD
100
AcDbAlignedDimension
 13
797.3404576618277
 23
-405.1905398591467
 33
0.0
 14
797.3404576618277
 24
-871.1905703767266
 34
0.0
 50
90.0
100
AcDbRotatedDimension
  0
DIMENSION
  5
78F5
330
1E
100
AcDbEntity
  8
30
  6
Continuous
100
AcDbDimension
280
     0
  2
*D19
 10
150.9064941406005
 20
-921.7098398427324
 30
0.0
 11
-0.0933837890995047
 21
-915.7098398427324
 31
0.0
 70
    32
 71
     5
 42
-1.0
 73
     0
 74
     0
 75
     0
  3
STANDARD
100
AcDbAlignedDimension
 13
-151.0932617187993
 23
-764.1905707701294
 33
0.0
 14
150.9064941406005
 24
-764.1905707701294
 34
0.0
100
AcDbRotatedDimension
  0
DIMENSION
  5
7902
330
1E
100
AcDbEntity
  8
30
  6
Continuous
100
AcDbDimension
280
     0
  2
*D20
 10
52.40649414060049
 20
-511.2699266146073
 30
0.0
 11
-0.0935058593995063
 21
-505.2699266146071
 31
0.0
 70
    32
 71
     5
 42
-1.0
 73
     0
 74
     0
 75
     0
  3
STANDARD
100
AcDbAlignedDimension
 13
-52.5935058593995
 23
-423.1905402525493
 33
0.0
 14
52.4064941406005
 24
-423.1905402525493
 34
0.0
100
AcDbRotatedDimension
  0
DIMENSION
  5
7929
330
1E
100
AcDbEntity
  8
30
  6
Continuous
100
AcDbDimension
280
     0
  2
*D21
 10
319.3207301457714
 20
-749.1905707701294
 30
0.0
 11
313.3207301457715
 21
-734.1905707701291
 31
0.0
 70
    32
 71
     5
 42
-1.0
 73
     0
 74
     0
 75
     0
  3
STANDARD
100
AcDbAlignedDimension
 13
301.4580078125005
 23
-719.1905707701293
 33
0.0
 14
268.9064941406005
 24
-749.1905707701294
 34
0.0
 50
90.0
100
AcDbRotatedDimension
  0
DIMENSION
  5
793F
330
1E
100
AcDbEntity
  8
30
  6
Continuous
100
AcDbDimension
280
     0
  2
*D22
 10
357.5838054076048
 20
-638.1905093415666
 30
0.0
 11
351.5838054076048
 21
-538.1905247970578
 31
0.0
 70
    32
 71
     5
 42
-1.0
 73
     0
 74
     0
 75
     0
  3
STANDARD
100
AcDbAlignedDimension
 13
67.4064941406005
 23
-438.1905402525492
 33
0.0
 14
268.9064941406005
 24
-638.1905093415666
 34
0.0
 50
90.0
100
AcDbRotatedDimension
  0
DIMENSION
  5
794C
330
1E
100
AcDbEntity
  8
30
  6
Continuous
100
AcDbDimension
280
     0
  2
*D23
 10
357.5838054076047
 20
-749.1905707701294
 30
0.0
 11
351.5838054076048
 21
-693.6905400558479
 31
0.0
 70
    32
 71
     5
 42
-1.0
 73
     0
 74
     0
 75
     0
  3
STANDARD
100
AcDbAlignedDimension
 13
268.9064941406005
 23
-638.1905093415666
 33
0.0
 14
165.9064941406005
 24
-749.1905707701293
 34
0.0
 50
90.0
100
AcDbRotatedDimension
1001
ACAD
1000
DSTYLE
1002
{
1070
   287
1070
     4
1070
   287
1070
     4
1070
   279
1070
     1
1002
}
  0
DIMENSION
  5
7959
330
1E
100
AcDbEntity
  8
30
  6
Continuous
100
AcDbDimension
280
     0
  2
*D24
 10
150.9064941406005
 20
-749.1905707701293
 30
0.0
 11
211.5023562629712
 21
-827.7730790820276
 31
0.0
 70
   164
  1
%%c12
 71
     5
 42
-1.0
 73
     0
 74
     0
 75
     0
  3
STANDARD
100
AcDbRadialDimension
 15
154.0307579077357
 25
-754.3129701994362
 35
0.0
 40
0.0
1001
ACAD
1000
DSTYLE
1002
{
1070
   288
1070
     1
1002
}
  0
LINE
  5
7D36
330
1E
100
AcDbEntity
  8
18
100
AcDbLine
 10
480.9518059636352
 20
-329.2084960936997
 30
0.0
 11
486.9518059636352
 21
-329.2746582031
 31
0.0
  0
LINE
  5
7D38
330
1E
100
AcDbEntity
  8
18
100
AcDbLine
 10
486.9518059636352
 20
-230.0
 30
0.0
 11
480.9518059636352
 21
-230.0
 31
0.0
  0
LINE
  5
7D39
330
1E
100
AcDbEntity
  8
18
100
AcDbLine
 10
486.9518059636352
 20
229.9999999999999
 30
0.0
 11
480.9518059636352
 21
229.9999999999999
 31
0.0
  0
LINE
  5
7D3A
330
1E
100
AcDbEntity
  8
10
  6
Continuous
100
AcDbLine
 10
480.9518059636352
 20
224.9999999999999
 30
0.0
 11
650.9518059636352
 21
224.9999999999999
 31
0.0
  0
LINE
  5
7D3E
330
1E
100
AcDbEntity
  8
16
100
AcDbLine
 10
-223.1776123047
 20
-32.00000000000002
 30
0.0
 11
202.9998779297
 21
-32.00000000000002
 31
0.0
  0
LINE
  5
7D47
330
1E
100
AcDbEntity
  8
10
  6
Continuous
100
AcDbLine
 10
-70.0
 20
-255.0
 30
0.0
 11
-70.0
 21
-240.0
 31
0.0
  0
LINE
  5
7D48
330
1E
100
AcDbEntity
  8
10
  6
Continuous
100
AcDbLine
 10
-140.0
 20
-240.0
 30
0.0
 11
-140.0
 21
-255.0
 31
0.0
  0
LINE
  5
7D49
330
1E
100
AcDbEntity
  8
10
  6
Continuous
100
AcDbLine
 10
-140.0
 20
-255.0
 30
0.0
 11
-70.0
 21
-255.0
 31
0.0
  0
LINE
  5
7D4B
330
1E
100
AcDbEntity
  8
10
  6
D329
100
AcDbLine
 10
-140.0
 20
-240.0
 30
0.0
 11
-140.0
 21
-225.0
 31
0.0
  0
LINE
  5
7D4C
330
1E
100
AcDbEntity
  8
10
  6
D329
100
AcDbLine
 10
-70.0
 20
-240.0
 30
0.0
 11
-70.0
 21
-225.0
 31
0.0
  0
LINE
  5
7D4D
330
1E
100
AcDbEntity
  8
10
  6
Continuous
100
AcDbLine
 10
35.0
 20
-255.0
 30
0.0
 11
35.0
 21
-240.0
 31
0.0
  0
LINE
  5
7D4E
330
1E
100
AcDbEntity
  8
10
  6
Continuous
100
AcDbLine
 10
-35.0
 20
-240.0
 30
0.0
 11
-35.0
 21
-255.0
 31
0.0
  0
LINE
  5
7D4F
330
1E
100
AcDbEntity
  8
10
  6
Continuous
100
AcDbLine
 10
-35.0
 20
-255.0
 30
0.0
 11
35.0
 21
-255.0
 31
0.0
  0
LINE
  5
7D51
330
1E
100
AcDbEntity
  8
10
  6
D329
100
AcDbLine
 10
-35.0
 20
-240.0
 30
0.0
 11
-35.0
 21
-225.0
 31
0.0
  0
LINE
  5
7D52
330
1E
100
AcDbEntity
  8
10
  6
D329
100
AcDbLine
 10
35.0
 20
-240.0
 30
0.0
 11
35.0
 21
-225.0
 31
0.0
  0
LINE
  5
7D54
330
1E
100
AcDbEntity
  8
10
  6
Continuous
100
AcDbLine
 10
140.0
 20
-255.0
 30
0.0
 11
140.0
 21
-240.0
 31
0.0
  0
LINE
  5
7D55
330
1E
100
AcDbEntity
  8
10
  6
Continuous
100
AcDbLine
 10
70.0
 20
-240.0
 30
0.0
 11
70.0
 21
-255.0
 31
0.0
  0
LINE
  5
7D56
330
1E
100
AcDbEntity
  8
10
  6
Continuous
100
AcDbLine
 10
70.0
 20
-255.0
 30
0.0
 11
140.0
 21
-255.0
 31
0.0
  0
LINE
  5
7D58
330
1E
100
AcDbEntity
  8
10
  6
D329
100
AcDbLine
 10
70.0
 20
-240.0
 30
0.0
 11
70.0
 21
-225.0
 31
0.0
  0
LINE
  5
7D59
330
1E
100
AcDbEntity
  8
10
  6
D329
100
AcDbLine
 10
140.0
 20
-240.0
 30
0.0
 11
140.0
 21
-225.0
 31
0.0
  0
LINE
  5
7D6A
330
1E
100
AcDbEntity
  8
10
  6
Continuous
100
AcDbLine
 10
462.4518059636351
 20
240.0
 30
0.0
 11
462.4518059636351
 21
-240.0
 31
0.0
  0
LINE
  5
7D6C
330
1E
100
AcDbEntity
  8
10
  6
Continuous
100
AcDbLine
 10
480.9518059636352
 20
-240.0
 30
0.0
 11
480.9518059636352
 21
240.0
 31
0.0
  0
LINE
  5
7D6D
330
1E
100
AcDbEntity
  8
18
100
AcDbLine
 10
480.9518059636352
 20
-230.0
 30
0.0
 11
480.9518059636352
 21
-329.2084960936997
 31
0.0
  0
LINE
  5
7D6E
330
1E
100
AcDbEntity
  8
10
  6
Continuous
100
AcDbLine
 10
462.4518059636351
 20
-240.0
 30
0.0
 11
480.9518059636352
 21
-240.0
 31
0.0
  0
ARC
  5
7D71
330
1E
100
AcDbEntity
  8
21
  6
Continuous
100
AcDbCircle
 10
550.9518059636351
 20
-30.00000000000003
 30
0.0
 40
145.0000915526825
100
AcDbArc
 50
165.6881085843444
 51
180.0
  0
ARC
  5
7D72
330
1E
100
AcDbEntity
  8
10
  6
Continuous
100
AcDbCircle
 10
715.9518059636353
 20
-37.00000000000002
 30
0.0
 40
259.9999999999361
100
AcDbArc
 50
169.936732134929
 51
178.8980905901464
  0
LINE
  5
7D73
330
1E
100
AcDbEntity
  8
10
  6
Continuous
100
AcDbLine
 10
459.951805963635
 20
-102.0
 30
0.0
 11
459.951805963635
 21
-82.43164062500003
 31
0.0
  0
LINE
  5
7D74
330
1E
100
AcDbEntity
  8
10
  6
Continuous
100
AcDbLine
 10
462.4518059636351
 20
-102.0
 30
0.0
 11
459.951805963635
 21
-102.0
 31
0.0
  0
ARC
  5
7D75
330
1E
100
AcDbEntity
  8
10
  6
Continuous
100
AcDbCircle
 10
715.9518059636353
 20
-37.00000000000002
 30
0.0
 40
260.0
100
AcDbArc
 50
180.0
 51
190.0632778829624
  0
ARC
  5
7D76
330
1E
100
AcDbEntity
  8
10
  6
Continuous
100
AcDbCircle
 10
715.9518059636353
 20
-37.00000000000002
 30
0.0
 40
260.0000000000006
100
AcDbArc
 50
178.8980905901464
 51
180.0
  0
LINE
  5
7D7E
330
1E
100
AcDbEntity
  8
10
  6
Continuous
100
AcDbLine
 10
413.8639153386352
 20
4.541015624999971
 30
0.0
 11
448.4796379949353
 21
-8.678222656200006
 31
0.0
  0
LINE
  5
7D7F
330
1E
100
AcDbEntity
  8
10
  6
Continuous
100
AcDbLine
 10
455.973290338635
 20
13.97949218749997
 30
0.0
 11
420.3009270574352
 21
24.00390624999996
 31
0.0
  0
LINE
  5
7D80
330
1E
100
AcDbEntity
  8
10
  6
Continuous
100
AcDbLine
 10
415.1891106511348
 20
21.28613281249996
 30
0.0
 11
411.3805169011348
 21
9.770507812499973
 31
0.0
  0
ARC
  5
7D81
330
1E
100
AcDbEntity
  8
10
  6
Continuous
100
AcDbCircle
 10
419.0436028386351
 20
20.20214843749996
 30
0.0
 40
4.00408840184179
100
AcDbArc
 50
71.69926877486742
 51
164.2919086348797
  0
ARC
  5
7D82
330
1E
100
AcDbEntity
  8
10
  6
Continuous
100
AcDbCircle
 10
415.1212395574352
 20
8.342773437499971
 30
0.0
 40
4.003967762069954
100
AcDbArc
 50
159.1086829789915
 51
251.6992737822662
  0
LINE
  5
7D84
330
1E
100
AcDbEntity
  8
10
  6
Continuous
100
AcDbLine
 10
455.973290338635
 20
13.97949218749997
 30
0.0
 11
459.951805963635
 21
13.48388671879998
 31
0.0
  0
LINE
  5
7D85
330
1E
100
AcDbEntity
  8
10
  6
Continuous
100
AcDbLine
 10
448.4796379949353
 20
-8.678222656200006
 30
0.0
 11
457.0152825261351
 21
-13.50976562500002
 31
0.0
  0
LINE
  5
7D86
330
1E
100
AcDbEntity
  8
10
  6
Continuous
100
AcDbLine
 10
459.951805963635
 20
37.99999999999997
 30
0.0
 11
459.951805963635
 21
8.431640624999971
 31
0.0
  0
LINE
  5
7D87
330
1E
100
AcDbEntity
  8
10
  6
Continuous
100
AcDbLine
 10
462.4518059636351
 20
37.99999999999997
 30
0.0
 11
459.951805963635
 21
37.99999999999997
 31
0.0
  0
LINE
  5
7D88
330
1E
100
AcDbEntity
  8
10
  6
Continuous
100
AcDbLine
 10
480.9518059636352
 20
240.0
 30
0.0
 11
462.4518059636351
 21
240.0
 31
0.0
  0
LINE
  5
7D89
330
1E
100
AcDbEntity
  8
21
  6
Continuous
100
AcDbLine
 10
800.9518059636352
 20
-165.0
 30
0.0
 11
800.9518059636352
 21
-255.0
 31
0.0
  0
LINE
  5
7D8E
330
1E
100
AcDbEntity
  8
21
  6
Continuous
100
AcDbLine
 10
800.9518059636352
 20
-255.0
 30
0.0
 11
622.9518059636352
 21
-255.0
 31
0.0
  0
LINE
  5
7D8F
330
1E
100
AcDbEntity
  8
18
100
AcDbLine
 10
486.9518059636352
 20
-329.2746582031
 30
0.0
 11
486.9518059636352
 21
-230.0
 31
0.0
  0
LINE
  5
7D90
330
1E
100
AcDbEntity
  8
10
  6
Continuous
100
AcDbLine
 10
622.9518059636352
 20
-255.0
 30
0.0
 11
622.9518059636352
 21
-225.0
 31
0.0
  0
LINE
  5
7D91
330
1E
100
AcDbEntity
  8
10
  6
Continuous
100
AcDbLine
 10
607.9518059636352
 20
-255.0
 30
0.0
 11
607.9518059636352
 21
-225.0
 31
0.0
  0
CIRCLE
  5
7D93
330
1E
100
AcDbEntity
  8
24
  6
CONTINOUS
100
AcDbCircle
 10
740.9518059636353
 20
-230.0
 30
0.0
 40
7.0
  0
CIRCLE
  5
7D96
330
1E
100
AcDbEntity
  8
24
  6
CONTINOUS
100
AcDbCircle
 10
740.9518059636353
 20
-190.0
 30
0.0
 40
7.0
  0
CIRCLE
  5
7D97
330
1E
100
AcDbEntity
  8
24
  6
CONTINOUS
100
AcDbCircle
 10
780.9518059636352
 20
-230.0
 30
0.0
 40
7.0
  0
CIRCLE
  5
7D98
330
1E
100
AcDbEntity
  8
24
  6
CONTINOUS
100
AcDbCircle
 10
780.9518059636352
 20
-190.0
 30
0.0
 40
7.0
  0
LINE
  5
7D9D
330
1E
100
AcDbEntity
  8
21
  6
Continuous
100
AcDbLine
 10
650.9518059636352
 20
-165.0
 30
0.0
 11
800.9518059636352
 21
-165.0
 31
0.0
  0
LINE
  5
7D9E
330
1E
100
AcDbEntity
  8
21
  6
Continuous
100
AcDbLine
 10
650.9518059636352
 20
125.9999999999999
 30
0.0
 11
800.9518059636352
 21
125.9999999999999
 31
0.0
  0
LINE
  5
7D9F
330
1E
100
AcDbEntity
  8
21
  6
Continuous
100
AcDbLine
 10
800.9518059636352
 20
35.99999999999996
 30
0.0
 11
650.9518059636352
 21
35.99999999999996
 31
0.0
  0
LINE
  5
7DA0
330
1E
100
AcDbEntity
  8
L10_
  6
Continuous
 62
     3
100
AcDbLine
 10
709.6043938543352
 20
-111.0
 30
0.0
 11
621.8546379949352
 21
-111.0
 31
0.0
  0
LINE
  5
7DA3
330
1E
100
AcDbEntity
  8
L10_
  6
Continuous
 62
     3
100
AcDbLine
 10
650.9518059636352
 20
-131.0
 30
0.0
 11
650.9518059636352
 21
-81.00000000000003
 31
0.0
  0
LINE
  5
7DA4
330
1E
100
AcDbEntity
  8
L10_
  6
Continuous
 62
     3
100
AcDbLine
 10
656.9518059636352
 20
-126.5
 30
0.0
 11
656.9518059636352
 21
-93.50000000000004
 31
0.0
  0
LINE
  5
7DA5
330
1E
100
AcDbEntity
  8
L10_
  6
Continuous
 62
     3
100
AcDbLine
 10
650.9518059636352
 20
-97.00000000000002
 30
0.0
 11
650.9518059636352
 21
-115.0
 31
0.0
  0
ARC
  5
7DA6
330
1E
100
AcDbEntity
  8
L10_
  6
Continuous
 62
     3
100
AcDbCircle
 10
-652.4518059636352
 20
-126.5
 30
0.0
 40
4.5
210
0.0
220
0.0
230
-1.0
100
AcDbArc
 50
180.0
 51
270.0
  0
LINE
  5
7DA7
330
1E
100
AcDbEntity
  8
L10_
  6
Continuous
 62
     3
100
AcDbLine
 10
652.4518059636352
 20
-131.0
 30
0.0
 11
650.9518059636352
 21
-131.0
 31
0.0
  0
LINE
  5
7DA8
330
1E
100
AcDbEntity
  8
L10_
  6
Continuous
 62
     3
100
AcDbLine
 10
656.9518059636352
 20
-106.0
 30
0.0
 11
680.9518059636352
 21
-106.0
 31
0.0
  0
LINE
  5
7DA9
330
1E
100
AcDbEntity
  8
L10_
  6
Continuous
 62
     3
100
AcDbLine
 10
668.6517571355352
 20
-100.0
 30
0.0
 11
668.6517571355352
 21
-122.0
 31
0.0
  0
LINE
  5
7DAA
330
1E
100
AcDbEntity
  8
L10_
  6
Continuous
 62
     3
100
AcDbLine
 10
680.9518059636352
 20
-106.0
 30
0.0
 11
680.9518059636352
 21
-116.0
 31
0.0
  0
LINE
  5
7DAB
330
1E
100
AcDbEntity
  8
L10_
  6
Continuous
 62
     3
100
AcDbLine
 10
680.9518059636352
 20
-116.0
 30
0.0
 11
656.9518059636352
 21
-116.0
 31
0.0
  0
LINE
  5
7DAC
330
1E
100
AcDbEntity
  8
L10_
  6
Continuous
 62
     3
100
AcDbLine
 10
668.6517571355352
 20
-122.0
 30
0.0
 11
656.9518059636352
 21
-122.0
 31
0.0
  0
LINE
  5
7DAD
330
1E
100
AcDbEntity
  8
L10_
  6
Continuous
 62
     3
100
AcDbLine
 10
668.6517571355352
 20
-100.0
 30
0.0
 11
656.9518059636352
 21
-100.0
 31
0.0
  0
LINE
  5
7DAE
330
1E
100
AcDbEntity
  8
L10_
  6
Continuous
 62
     3
100
AcDbLine
 10
650.9518059636352
 20
-81.00000000000003
 30
0.0
 11
700.9518059636352
 21
-81.00000000000003
 31
0.0
  0
LINE
  5
7DAF
330
1E
100
AcDbEntity
  8
L10_
  6
Continuous
 62
     3
100
AcDbLine
 10
663.4518059636352
 20
-87.00000000000001
 30
0.0
 11
696.4518059636352
 21
-87.00000000000001
 31
0.0
  0
ARC
  5
7DB0
330
1E
100
AcDbEntity
  8
L10_
  6
Continuous
 62
     3
100
AcDbCircle
 10
-663.4518059636352
 20
-93.50000000000004
 30
0.0
 40
6.5
210
0.0
220
0.0
230
-1.0
100
AcDbArc
 50
0.0
 51
90.0
  0
ARC
  5
7DB1
330
1E
100
AcDbEntity
  8
L10_
  6
Continuous
 62
     3
100
AcDbCircle
 10
-696.4518059636352
 20
-82.50000000000003
 30
0.0
 40
4.5
210
0.0
220
0.0
230
-1.0
100
AcDbArc
 50
180.0
 51
270.0
  0
LINE
  5
7DB2
330
1E
100
AcDbEntity
  8
L10_
  6
Continuous
 62
     3
100
AcDbLine
 10
700.9518059636352
 20
-82.50000000000003
 30
0.0
 11
700.9518059636352
 21
-81.00000000000003
 31
0.0
  0
LINE
  5
7DB5
330
1E
100
AcDbEntity
  8
21
  6
Continuous
100
AcDbLine
 10
800.9518059636352
 20
125.9999999999999
 30
0.0
 11
800.9518059636352
 21
35.99999999999996
 31
0.0
  0
LINE
  5
7DB6
330
1E
100
AcDbEntity
  8
24
  6
CONTINOUS
100
AcDbLine
 10
740.9518059636353
 20
79.55468749999997
 30
0.0
 11
740.9518059636353
 21
47.66992187499996
 31
0.0
  0
LINE
  5
7DB7
330
1E
100
AcDbEntity
  8
24
  6
CONTINOUS
100
AcDbLine
 10
780.9518059636352
 20
76.28222656249997
 30
0.0
 11
780.9518059636352
 21
45.53613281249996
 31
0.0
  0
LINE
  5
7DB8
330
1E
100
AcDbEntity
  8
24
  6
CONTINOUS
100
AcDbLine
 10
722.1566399480352
 20
60.99999999999997
 30
0.0
 11
755.1803215886352
 21
60.99999999999997
 31
0.0
  0
LINE
  5
7DB9
330
1E
100
AcDbEntity
  8
24
  6
CONTINOUS
100
AcDbLine
 10
722.1566399480352
 20
100.9999999999999
 30
0.0
 11
755.1803215886352
 21
100.9999999999999
 31
0.0
  0
LINE
  5
7DBA
330
1E
100
AcDbEntity
  8
24
  6
CONTINOUS
100
AcDbLine
 10
740.9518059636353
 20
119.5546874999999
 30
0.0
 11
740.9518059636353
 21
87.66992187499996
 31
0.0
  0
CIRCLE
  5
7DBB
330
1E
100
AcDbEntity
  8
24
  6
CONTINOUS
100
AcDbCircle
 10
740.9518059636353
 20
100.9999999999999
 30
0.0
 40
7.0
  0
CIRCLE
  5
7DBC
330
1E
100
AcDbEntity
  8
24
  6
CONTINOUS
100
AcDbCircle
 10
740.9518059636353
 20
60.99999999999997
 30
0.0
 40
7.0
  0
CIRCLE
  5
7DBD
330
1E
100
AcDbEntity
  8
24
  6
CONTINOUS
100
AcDbCircle
 10
780.9518059636352
 20
60.99999999999997
 30
0.0
 40
7.0
  0
CIRCLE
  5
7DBE
330
1E
100
AcDbEntity
  8
24
  6
CONTINOUS
100
AcDbCircle
 10
780.9518059636352
 20
100.9999999999999
 30
0.0
 40
7.0
  0
LINE
  5
7DBF
330
1E
100
AcDbEntity
  8
24
  6
CONTINOUS
100
AcDbLine
 10
762.1566399480352
 20
100.9999999999999
 30
0.0
 11
795.1803215886352
 21
100.9999999999999
 31
0.0
  0
LINE
  5
7DC0
330
1E
100
AcDbEntity
  8
24
  6
CONTINOUS
100
AcDbLine
 10
764.4342278386353
 20
60.99999999999997
 30
0.0
 11
795.1803215886352
 21
60.99999999999997
 31
0.0
  0
LINE
  5
7DC1
330
1E
100
AcDbEntity
  8
24
  6
CONTINOUS
100
AcDbLine
 10
780.9518059636352
 20
119.5546874999999
 30
0.0
 11
780.9518059636352
 21
87.66992187499996
 31
0.0
  0
LINE
  5
7DC2
330
1E
100
AcDbEntity
  8
L10_
  6
Continuous
 62
     3
100
AcDbLine
 10
621.8546379949352
 20
199.9999999999999
 30
0.0
 11
709.6043938543352
 21
199.9999999999999
 31
0.0
  0
LINE
  5
7DC4
330
1E
100
AcDbEntity
  8
L10_
  6
Continuous
 62
     3
100
AcDbLine
 10
656.9518059636352
 20
215.4999999999999
 30
0.0
 11
656.9518059636352
 21
182.4999999999999
 31
0.0
  0
LINE
  5
7DC5
330
1E
100
AcDbEntity
  8
L10_
  6
Continuous
 62
     3
100
AcDbLine
 10
668.6517571355352
 20
210.9999999999998
 30
0.0
 11
668.6517571355352
 21
188.9999999999999
 31
0.0
  0
LINE
  5
7DC6
330
1E
100
AcDbEntity
  8
L10_
  6
Continuous
 62
     3
100
AcDbLine
 10
680.9518059636352
 20
203.9999999999999
 30
0.0
 11
680.9518059636352
 21
195.9999999999999
 31
0.0
  0
LINE
  5
7DC7
330
1E
100
AcDbEntity
  8
L10_
  6
Continuous
 62
     3
100
AcDbLine
 10
663.4518059636352
 20
175.9999999999999
 30
0.0
 11
696.4518059636352
 21
175.9999999999999
 31
0.0
  0
ARC
  5
7DC8
330
1E
100
AcDbEntity
  8
L10_
  6
Continuous
 62
     3
100
AcDbCircle
 10
663.4518059636352
 20
182.4999999999999
 30
0.0
 40
6.5
100
AcDbArc
 50
180.0
 51
270.0
  0
ARC
  5
7DC9
330
1E
100
AcDbEntity
  8
L10_
  6
Continuous
 62
     3
100
AcDbCircle
 10
696.4518059636352
 20
171.4999999999999
 30
0.0
 40
4.5
100
AcDbArc
 50
0.0
 51
90.0
  0
LINE
  5
7DCA
330
1E
100
AcDbEntity
  8
L10_
  6
Continuous
 62
     3
100
AcDbLine
 10
700.9518059636352
 20
171.4999999999999
 30
0.0
 11
700.9518059636352
 21
169.9999999999999
 31
0.0
  0
LINE
  5
7DCB
330
1E
100
AcDbEntity
  8
L10_
  6
Continuous
 62
     3
100
AcDbLine
 10
650.9518059636352
 20
169.9999999999999
 30
0.0
 11
700.9518059636352
 21
169.9999999999999
 31
0.0
  0
LINE
  5
7DCC
330
1E
100
AcDbEntity
  8
L10_
  6
Continuous
 62
     3
100
AcDbLine
 10
680.9518059636352
 20
195.9999999999999
 30
0.0
 11
656.9518059636352
 21
195.9999999999999
 31
0.0
  0
LINE
  5
7DCD
330
1E
100
AcDbEntity
  8
L10_
  6
Continuous
 62
     3
100
AcDbLine
 10
668.6517571355352
 20
188.9999999999999
 30
0.0
 11
656.9518059636352
 21
188.9999999999999
 31
0.0
  0
LINE
  5
7DCE
330
1E
100
AcDbEntity
  8
L10_
  6
Continuous
 62
     3
100
AcDbLine
 10
656.9518059636352
 20
203.9999999999999
 30
0.0
 11
680.9518059636352
 21
203.9999999999999
 31
0.0
  0
ARC
  5
7DD0
330
1E
100
AcDbEntity
  8
L10_
  6
Continuous
 62
     3
100
AcDbCircle
 10
652.4518059636352
 20
215.4999999999999
 30
0.0
 40
4.5
100
AcDbArc
 50
0.0
 51
90.0
  0
LINE
  5
7DD1
330
1E
100
AcDbEntity
  8
L10_
  6
Continuous
 62
     3
100
AcDbLine
 10
668.6517571355352
 20
210.9999999999998
 30
0.0
 11
656.9518059636352
 21
210.9999999999998
 31
0.0
  0
LINE
  5
7DD2
330
1E
100
AcDbEntity
  8
18
100
AcDbLine
 10
480.9518059636352
 20
328.3956298827998
 30
0.0
 11
486.9518059636352
 21
328.4837646484997
 31
0.0
  0
LINE
  5
7DD3
330
1E
100
AcDbEntity
  8
18
100
AcDbLine
 10
480.9518059636352
 20
229.9999999999999
 30
0.0
 11
480.9518059636352
 21
328.3956298827998
 31
0.0
  0
LINE
  5
7DD4
330
1E
100
AcDbEntity
  8
18
100
AcDbLine
 10
486.9518059636352
 20
328.4837646484997
 30
0.0
 11
486.9518059636352
 21
229.9999999999999
 31
0.0
  0
LWPOLYLINE
  5
7E1A
330
1E
100
AcDbEntity
  8
10
  6
Continuous
100
AcDbPolyline
 90
       12
 70
     1
 43
0.0
 10
202.9998779297
 20
239.9999999999999
 10
-203.0
 20
239.9999999999999
 10
-203.0
 20
-240.0
 10
-140.0
 20
-240.0
 10
-70.0
 20
-240.0
 10
-35.0
 20
-240.0
 10
35.0
 20
-240.0
 10
70.0
 20
-240.0
 10
140.0
 20
-240.0
 10
71.0
 20
-240.0
 10
141.0
 20
-240.0
 10
202.9998779297
 20
-240.0
  0
LWPOLYLINE
  5
7E1B
330
1E
100
AcDbEntity
  8
10
  6
D329
100
AcDbPolyline
 90
        4
 70
     1
 43
0.0
 10
159.9998779297
 20
-225.0
 10
159.9998779297
 20
224.9999999999999
 10
-160.0
 20
224.9999999999999
 10
-160.0
 20
-225.0
  0
LWPOLYLINE
  5
7E1C
330
1E
100
AcDbEntity
  8
10
  6
Continuous
100
AcDbPolyline
 90
        4
 70
     1
 43
0.0
 10
57.5
 20
-102.0
 10
-57.5
 20
-102.0
 10
-57.5
 20
37.99999999999997
 10
57.5
 20
37.99999999999997
  0
LWPOLYLINE
  5
7E1D
330
1E
100
AcDbEntity
  8
10
  6
Continuous
100
AcDbPolyline
 90
        4
 70
     1
 43
0.0
 10
33.0
 20
-73.50000000000003
 10
-33.0
 20
-73.50000000000003
 10
-33.0
 20
9.999999999999973
 10
33.0
 20
9.999999999999973
  0
LWPOLYLINE
  5
7E1E
330
1E
100
AcDbEntity
  8
10
  6
Continuous
100
AcDbPolyline
 90
        6
 70
     0
 43
0.0
 10
650.9518059636352
 20
224.9999999999999
 10
650.9518059636352
 20
-81.00000000000003
 10
650.9518059636352
 20
-165.0
 10
650.9518059636352
 20
-225.0
 10
628.3805169011352
 20
-225.0
 10
480.9518059636352
 20
-225.0
  0
LINE
  5
7E34
330
1E
100
AcDbEntity
  8
18
  6
DASHED
 48
2.0
100
AcDbLine
 10
139.9064941406005
 20
-863.1905707701292
 30
0.0
 11
159.9064941406004
 21
-863.1905707701292
 31
0.0
  0
LINE
  5
7E35
330
1E
100
AcDbEntity
  8
18
  6
DASHED
 48
2.0
100
AcDbLine
 10
-70.0935058593995
 20
-863.1905707701292
 30
0.0
 11
-35.0935058593995
 21
-863.1905707701292
 31
0.0
  0
LINE
  5
7E36
330
1E
100
AcDbEntity
  8
18
  6
DASHED
 48
2.0
100
AcDbLine
 10
-140.0932617187993
 20
-893.1905707701293
 30
0.0
 11
-70.0935058593995
 21
-893.1905707701293
 31
0.0
  0
LINE
  5
7E37
330
1E
100
AcDbEntity
  8
18
  6
DASHED
 48
2.0
100
AcDbLine
 10
-160.0932617187994
 20
-863.1905707701292
 30
0.0
 11
-140.0932617187993
 21
-863.1905707701292
 31
0.0
  0
LINE
  5
7E38
330
1E
100
AcDbEntity
  8
18
  6
DASHED
 48
2.0
100
AcDbLine
 10
-140.0932617187993
 20
-863.1905707701292
 30
0.0
 11
-140.0932617187993
 21
-893.1905707701293
 31
0.0
  0
LINE
  5
7E39
330
1E
100
AcDbEntity
  8
18
  6
DASHED
 48
2.0
100
AcDbLine
 10
-70.0935058593995
 20
-893.1905707701293
 30
0.0
 11
-70.0935058593995
 21
-863.1905707701292
 31
0.0
  0
LINE
  5
7E3A
330
1E
100
AcDbEntity
  8
18
  6
DASHED
 48
2.0
100
AcDbLine
 10
34.9064941406005
 20
-863.1905707701292
 30
0.0
 11
69.9064941406005
 21
-863.1905707701292
 31
0.0
  0
LINE
  5
7E3B
330
1E
100
AcDbEntity
  8
18
  6
DASHED
 48
2.0
100
AcDbLine
 10
-35.0935058593995
 20
-893.1905707701293
 30
0.0
 11
34.9064941406005
 21
-893.1905707701293
 31
0.0
  0
LINE
  5
7E3C
330
1E
100
AcDbEntity
  8
18
  6
DASHED
 48
2.0
100
AcDbLine
 10
-35.0935058593995
 20
-863.1905707701292
 30
0.0
 11
-35.0935058593995
 21
-893.1905707701293
 31
0.0
  0
LINE
  5
7E3D
330
1E
100
AcDbEntity
  8
18
  6
DASHED
 48
2.0
100
AcDbLine
 10
34.9064941406005
 20
-893.1905707701293
 30
0.0
 11
34.9064941406005
 21
-863.1905707701292
 31
0.0
  0
LINE
  5
7E3E
330
1E
100
AcDbEntity
  8
18
  6
DASHED
 48
2.0
100
AcDbLine
 10
69.9064941406005
 20
-893.1905707701293
 30
0.0
 11
139.9064941406005
 21
-893.1905707701293
 31
0.0
  0
LINE
  5
7E3F
330
1E
100
AcDbEntity
  8
18
  6
DASHED
 48
2.0
100
AcDbLine
 10
69.9064941406005
 20
-863.1905707701292
 30
0.0
 11
69.9064941406005
 21
-893.1905707701293
 31
0.0
  0
LINE
  5
7E40
330
1E
100
AcDbEntity
  8
18
  6
DASHED
 48
2.0
100
AcDbLine
 10
139.9064941406005
 20
-893.1905707701293
 30
0.0
 11
139.9064941406005
 21
-863.1905707701292
 31
0.0
  0
DIMENSION
  5
7E52
330
1E
100
AcDbEntity
  8
30
  6
Continuous
100
AcDbDimension
280
     0
  2
*D25
 10
270.6662686973858
 20
-32.00000000000004
 30
0.0
 11
264.6662686973858
 21
-15.99999999999997
 31
0.0
 70
    32
 71
     5
 42
-1.0
 73
     0
 74
     0
 75
     0
  3
STANDARD
100
AcDbAlignedDimension
 13
202.9998779297
 23
0.0000000000000284
 33
0.0
 14
202.9998779297
 24
-32.00000000000002
 34
0.0
 50
90.0
100
AcDbRotatedDimension
  0
DIMENSION
  5
7E5F
330
1E
100
AcDbEntity
  8
30
  6
Continuous
100
AcDbDimension
280
     0
  2
*D26
 10
291.8433748282314
 20
-240.0
 30
0.0
 11
285.8433748282314
 21
0.0000000000000113
 31
0.0
 70
    32
 71
     5
 42
-1.0
 73
     0
 74
     0
 75
     0
  3
STANDARD
100
AcDbAlignedDimension
 13
202.9998779297
 23
239.9999999999999
 33
0.0
 14
202.9998779297
 24
-240.0
 34
0.0
 50
90.0
100
AcDbRotatedDimension
  0
DIMENSION
  5
7E6C
330
1E
100
AcDbEntity
  8
30
  6
Continuous
100
AcDbDimension
280
     0
  2
*D27
 10
291.8433748282314
 20
-255.0
 30
0.0
 11
313.8433748282313
 21
-241.4999999999999
 31
0.0
 70
    32
 71
     5
 42
-1.0
 73
     0
 74
     0
 75
     0
  3
STANDARD
100
AcDbAlignedDimension
 13
202.9998779297
 23
-240.0
 33
0.0
 14
141.0
 24
-255.0
 34
0.0
 50
90.0
100
AcDbRotatedDimension
1001
ACAD
1000
DSTYLE
1002
{
1070
   287
1070
     4
1070
   287
1070
     4
1070
   279
1070
     1
1002
}
  0
LINE
  5
7E79
330
1E
100
AcDbEntity
  8
24
  6
CONTINOUS
100
AcDbLine
 10
722.1566399480352
 20
-190.0
 30
0.0
 11
755.1803215886352
 21
-190.0
 31
0.0
  0
LINE
  5
7E7A
330
1E
100
AcDbEntity
  8
24
  6
CONTINOUS
100
AcDbLine
 10
740.9518059636353
 20
-171.4453125
 30
0.0
 11
740.9518059636353
 21
-203.3300781249999
 31
0.0
  0
LINE
  5
7E7B
330
1E
100
AcDbEntity
  8
24
  6
CONTINOUS
100
AcDbLine
 10
780.9518059636352
 20
-171.4453125
 30
0.0
 11
780.9518059636352
 21
-203.3300781249999
 31
0.0
  0
LINE
  5
7E7C
330
1E
100
AcDbEntity
  8
24
  6
CONTINOUS
100
AcDbLine
 10
762.1566399480352
 20
-190.0
 30
0.0
 11
795.1803215886352
 21
-190.0
 31
0.0
  0
LINE
  5
7E7D
330
1E
100
AcDbEntity
  8
24
  6
CONTINOUS
100
AcDbLine
 10
764.4342278386353
 20
-230.0
 30
0.0
 11
795.1803215886352
 21
-230.0
 31
0.0
  0
LINE
  5
7E7E
330
1E
100
AcDbEntity
  8
24
  6
CONTINOUS
100
AcDbLine
 10
780.9518059636352
 20
-214.7177734375
 30
0.0
 11
780.9518059636352
 21
-245.4638671875
 31
0.0
  0
LINE
  5
7E7F
330
1E
100
AcDbEntity
  8
24
  6
CONTINOUS
100
AcDbLine
 10
740.9518059636353
 20
-211.4453124999999
 30
0.0
 11
740.9518059636353
 21
-243.330078125
 31
0.0
  0
LINE
  5
7E80
330
1E
100
AcDbEntity
  8
24
  6
CONTINOUS
100
AcDbLine
 10
722.1566399480352
 20
-230.0
 30
0.0
 11
755.1803215886352
 21
-230.0
 31
0.0
  0
DIMENSION
  5
7E81
330
1E
100
AcDbEntity
  8
30
  6
Continuous
100
AcDbDimension
280
     0
  2
*D28
 10
878.5535765878995
 20
-0.0000000000000383
 30
0.0
 11
872.5535765878992
 21
40.5000000000001
 31
0.0
 70
    32
 71
     5
 42
-1.0
 73
     0
 74
     0
 75
     0
  3
STANDARD
100
AcDbAlignedDimension
 13
800.9518059636352
 23
80.99999999999997
 33
0.0
 14
744.2565815759544
 24
-0.0000000000000003
 34
0.0
 50
90.0
100
AcDbRotatedDimension
  0
DIMENSION
  5
7E8E
330
1E
100
AcDbEntity
  8
30
  6
Continuous
100
AcDbDimension
280
     0
  2
*D29
 10
878.5535765878995
 20
-210.0
 30
0.0
 11
872.5535765878992
 21
-104.9999999999996
 31
0.0
 70
    32
 71
     5
 42
-1.0
 73
     0
 74
     0
 75
     0
  3
STANDARD
100
AcDbAlignedDimension
 13
744.2565815759544
 23
-0.0000000000000003
 33
0.0
 14
837.4285606670499
 24
-210.0
 34
0.0
 50
90.0
100
AcDbRotatedDimension
1001
ACAD
1000
DSTYLE
1002
{
1070
   287
1070
     4
1070
   287
1070
     4
1070
   279
1070
     1
1002
}
  0
DIMENSION
  5
7E9B
330
1E
100
AcDbEntity
  8
30
  6
Continuous
100
AcDbDimension
280
     0
  2
*D30
 10
775.7430874638787
 20
-225.3235428377569
 30
0.0
 11
868.0689862541454
 21
-296.8426672866198
 31
0.0
 70
   163
 71
     5
 42
-1.0
 73
     0
 74
     0
 75
     0
  3
STANDARD
100
AcDbDiametricDimension
 15
786.160524463392
 25
-234.6764571622431
 35
0.0
 40
0.0
1001
ACAD
1000
DSTYLE
1002
{
1070
   288
1070
     1
1002
}
  0
DIMENSION
  5
7EA7
330
1E
100
AcDbEntity
  8
30
  6
Continuous
100
AcDbDimension
280
     0
  2
*D31
 10
780.9518059636352
 20
-309.8427064991806
 30
0.0
 11
790.9518059636353
 21
-303.8427064991806
 31
0.0
 70
    32
 71
     5
 42
-1.0
 73
     0
 74
     0
 75
     0
  3
STANDARD
100
AcDbAlignedDimension
 13
800.9518059636352
 23
-255.0
 33
0.0
 14
780.9518059636352
 24
-245.4638671875
 34
0.0
100
AcDbRotatedDimension
  0
DIMENSION
  5
7EB4
330
1E
100
AcDbEntity
  8
30
  6
Continuous
100
AcDbDimension
280
     0
  2
*D32
 10
740.9518059636353
 20
-309.8427064991806
 30
0.0
 11
760.9518059636352
 21
-303.8427064991806
 31
0.0
 70
    32
 71
     5
 42
-1.0
 73
     0
 74
     0
 75
     0
  3
STANDARD
100
AcDbAlignedDimension
 13
780.9518059636352
 23
-245.4638671875
 33
0.0
 14
740.9518059636353
 24
-243.330078125
 34
0.0
100
AcDbRotatedDimension
1001
ACAD
1000
DSTYLE
1002
{
1070
   287
1070
     4
1070
   287
1070
     4
1070
   279
1070
     1
1002
}
  0
DIMENSION
  5
7EC1
330
1E
100
AcDbEntity
  8
30
  6
Continuous
100
AcDbDimension
280
     0
  2
*D33
 10
480.9518059636352
 20
-353.1761718249494
 30
0.0
 11
443.4517601872936
 21
-347.1761718249495
 31
0.0
 70
    32
 71
     5
 42
-1.0
 73
     0
 74
     0
 75
     0
  3
STANDARD
100
AcDbAlignedDimension
 13
405.9517144109525
 23
-30.00000000000001
 33
0.0
 14
480.9518059636352
 24
-240.0
 34
0.0
100
AcDbRotatedDimension
  0
DIMENSION
  5
7ECE
330
1E
100
AcDbEntity
  8
30
  6
Continuous
100
AcDbDimension
280
     0
  2
*D34
 10
650.9518059636352
 20
-353.1761718249494
 30
0.0
 11
565.9518059636353
 21
-347.1761718249493
 31
0.0
 70
    32
 71
     5
 42
-1.0
 73
     0
 74
     0
 75
     0
  3
STANDARD
100
AcDbAlignedDimension
 13
480.9518059636352
 23
-240.0
 33
0.0
 14
650.9518059636352
 24
-225.0
 34
0.0
100
AcDbRotatedDimension
1001
ACAD
1000
DSTYLE
1002
{
1070
   287
1070
     4
1070
   287
1070
     4
1070
   279
1070
     1
1002
}
  0
DIMENSION
  5
7EDB
330
1E
100
AcDbEntity
  8
30
  6
Continuous
100
AcDbDimension
280
     0
  2
*D35
 10
800.9518059636352
 20
-353.1761718249494
 30
0.0
 11
725.9518059636352
 21
-347.1761718249493
 31
0.0
 70
    32
 71
     5
 42
-1.0
 73
     0
 74
     0
 75
     0
  3
STANDARD
100
AcDbAlignedDimension
 13
650.9518059636352
 23
-225.0
 33
0.0
 14
800.9518059636352
 24
-255.0
 34
0.0
100
AcDbRotatedDimension
1001
ACAD
1000
DSTYLE
1002
{
1070
   287
1070
     4
1070
   287
1070
     4
1070
   279
1070
     1
1002
}
  0
DIMENSION
  5
7EE8
330
1E
100
AcDbEntity
  8
30
  6
Continuous
100
AcDbDimension
280
     0
  2
*D36
 10
480.9518059636352
 20
-343.0650272194132
 30
0.0
 11
497.2851392969685
 21
-337.0650272194133
 31
0.0
 70
    32
 71
     5
 42
-1.0
 73
     0
 74
     0
 75
     0
  3
STANDARD
100
AcDbAlignedDimension
 13
462.4518059636351
 23
-240.0
 33
0.0
 14
480.9518059636352
 24
-329.2084960936997
 34
0.0
100
AcDbRotatedDimension
  0
DIMENSION
  5
7F3E
330
1E
100
AcDbEntity
  8
30
  6
Continuous
100
AcDbDimension
280
     0
  2
*D37
 10
202.9998779297
 20
-302.3969384821596
 30
0.0
 11
-0.0000610351499969
 21
-296.3969384821595
 31
0.0
 70
    32
 71
     5
 42
-1.0
 73
     0
 74
     0
 75
     0
  3
STANDARD
100
AcDbAlignedDimension
 13
-203.0
 23
-240.0
 33
0.0
 14
202.9998779297
 24
-240.0
 34
0.0
100
AcDbRotatedDimension
  0
DIMENSION
  5
7FF0
330
1E
100
AcDbEntity
  8
30
  6
Continuous
100
AcDbDimension
280
     0
  2
*D40
 10
0.0000000000000014
 20
731.5473405354922
 30
0.0
 11
-52.49999999999995
 21
737.5473405354922
 31
0.0
 70
    32
 71
     5
 42
-1.0
 73
     0
 74
     0
 75
     0
  3
STANDARD
100
AcDbAlignedDimension
 13
-104.9999999999996
 23
708.0
 33
0.0
 14
0.0
 24
708.0
 34
0.0
100
AcDbRotatedDimension
  0
DIMENSION
  5
7FFD
330
1E
100
AcDbEntity
  8
30
  6
Continuous
100
AcDbDimension
280
     0
  2
*D41
 10
105.0
 20
731.5473405354922
 30
0.0
 11
52.5
 21
737.5473405354922
 31
0.0
 70
    32
 71
     5
 42
-1.0
 73
     0
 74
     0
 75
     0
  3
STANDARD
100
AcDbAlignedDimension
 13
0.0
 23
708.0
 33
0.0
 14
105.0
 24
708.0
 34
0.0
100
AcDbRotatedDimension
1001
ACAD
1000
DSTYLE
1002
{
1070
   287
1070
     4
1070
   287
1070
     4
1070
   279
1070
     1
1002
}
  0
LWPOLYLINE
  5
811D
330
1E
100
AcDbEntity
  8
10
  6
Continuous
100
AcDbPolyline
 90
        3
 70
     0
 43
0.0
 10
-57.50003051757005
 20
370.0
 10
-57.50003051757005
 20
366.0
 10
57.49996948242993
 20
365.9999999999998
  0
LWPOLYLINE
  5
811E
330
1E
100
AcDbEntity
  8
10
  6
Continuous
100
AcDbPolyline
 90
        4
 70
     0
 43
0.0
 10
-33.00003051757006
 20
366.0
 10
-33.00003051757006
 20
334.0
 10
32.99996948242994
 20
333.9999999999998
 10
32.99996948242994
 20
365.9999999999998
  0
LINE
  5
811F
330
1E
100
AcDbEntity
  8
10
  6
Continuous
100
AcDbLine
 10
-51.00003051757004
 20
370.0
 30
0.0
 11
-51.00003051757004
 21
370.0
 31
0.0
  0
LINE
  5
8120
330
1E
100
AcDbEntity
  8
10
  6
Continuous
100
AcDbLine
 10
57.49996948242993
 20
365.9999999999998
 30
0.0
 11
57.49996948242993
 21
369.9999999999998
 31
0.0
  0
LINE
  5
8121
330
1E
100
AcDbEntity
  8
10
  6
Continuous
100
AcDbLine
 10
57.49996948242993
 20
369.9999999999998
 30
0.0
 11
57.49996948242993
 21
369.9999999999998
 31
0.0
  0
DIMENSION
  5
8122
330
1E
100
AcDbEntity
  8
30
  6
Continuous
100
AcDbDimension
280
     0
  2
*D42
 10
818.4573224820356
 20
-230.0
 30
0.0
 11
812.4573224820361
 21
-209.9999999999999
 31
0.0
 70
    32
 71
     5
 42
-1.0
 73
     0
 74
     0
 75
     0
  3
STANDARD
100
AcDbAlignedDimension
 13
795.1803215886352
 23
-190.0
 33
0.0
 14
795.1803215886352
 24
-230.0
 34
0.0
 50
90.0
100
AcDbRotatedDimension
  0
DIMENSION
  5
812F
330
1E
100
AcDbEntity
  8
30
  6
Continuous
100
AcDbDimension
280
     0
  2
*D43
 10
837.4285606670499
 20
-255.0
 30
0.0
 11
831.42856066705
 21
-209.9999999999999
 31
0.0
 70
    32
 71
     5
 42
-1.0
 73
     0
 74
     0
 75
     0
  3
STANDARD
100
AcDbAlignedDimension
 13
800.9518059636352
 23
-165.0
 33
0.0
 14
800.9518059636352
 24
-255.0
 34
0.0
 50
90.0
100
AcDbRotatedDimension
  0
LINE
  5
81FD
330
1E
100
AcDbEntity
  8
24
  6
CONTINOUS
100
AcDbLine
 10
-82.5
 20
648.0
 30
0.0
 11
-127.4999999999997
 21
648.0
 31
0.0
  0
LINE
  5
81FE
330
1E
100
AcDbEntity
  8
24
  6
CONTINOUS
100
AcDbLine
 10
127.5
 20
648.0
 30
0.0
 11
82.5
 21
648.0
 31
0.0
  0
LINE
  5
81FF
330
1E
100
AcDbEntity
  8
24
  6
CONTINOUS
100
AcDbLine
 10
22.5
 20
648.0
 30
0.0
 11
-22.5
 21
648.0
 31
0.0
  0
LINE
  5
8340
330
1E
100
AcDbEntity
  8
10
  6
Continuous
100
AcDbLine
 10
607.9518059636352
 20
-255.0
 30
0.0
 11
622.9518059636352
 21
-255.0
 31
0.0
  0
VIEWPORT
  5
9AC
330
1A
100
AcDbEntity
 67
     1
  8
0
  6
Continuous
100
AcDbViewport
 10
171.9995348790992
 20
144.1384735538403
 30
0.0
 40
488.8676857773511
 41
292.3514905034161
 68
     1
 69
     1
 12
171.9995348790992
 22
144.1384735538403
 13
0.0
 23
0.0
 14
10.0
 24
10.0
 15
10.0
 25
10.0
 16
0.0
 26
0.0
 36
1.0
 17
0.0
 27
0.0
 37
0.0
 42
50.0
 43
0.0
 44
0.0
 45
292.3514905034161
 50
0.0
 51
0.0
 72
   100
 90
    32800
  1

281
     0
 71
     1
 74
     0
110
0.0
120
0.0
130
0.0
111
1.0
121
0.0
131
0.0
112
0.0
122
1.0
132
0.0
 79
     0
146
0.0
170
     0
 61
     5
348
8306
292
     1
282
     1
141
0.0
142
0.0
 63
   250
421
  3355443
  0
ENDSEC
  0
SECTION
  2
OBJECTS
  0
DICTIONARY
  5
C
330
0
100
AcDbDictionary
281
     1
  3
ACAD_CIP_PREVIOUS_PRODUCT_INFO
350
8337
  3
ACAD_COLOR
350
8319
  3
ACAD_DETAILVIEWSTYLE
350
8332
  3
ACAD_GROUP
350
D
  3
ACAD_LAYOUT
350
19
  3
ACAD_MATERIAL
350
82E7
  3
ACAD_MLEADERSTYLE
350
832E
  3
ACAD_MLINESTYLE
350
16
  3
ACAD_PLOTSETTINGS
350
18
  3
ACAD_PLOTSTYLENAME
350
E
  3
ACAD_SCALELIST
350
831C
  3
ACAD_SECTIONVIEWSTYLE
350
8330
  3
ACAD_TABLESTYLE
350
831A
  3
ACAD_VISUALSTYLE
350
8300
  3
ACDB_RECOMPOSE_DATA
350
8373
  3
ACDBVARIABLEDICTIONARY
350
810C
  0
DICTIONARY
  5
8341
330
10
100
AcDbDictionary
280
     1
281
     1
  3
ADSK_XREC_LAYER_RECONCILED
360
8342
  0
DICTIONARY
  5
8343
330
2F
100
AcDbDictionary
280
     1
281
     1
  3
ADSK_XREC_LAYER_RECONCILED
360
8344
  0
DICTIONARY
  5
8345
330
31
100
AcDbDictionary
280
     1
281
     1
  3
ADSK_XREC_LAYER_RECONCILED
360
8346
  0
DICTIONARY
  5
8347
330
35
100
AcDbDictionary
280
     1
281
     1
  3
ADSK_XREC_LAYER_RECONCILED
360
8348
  0
DICTIONARY
  5
8349
330
38
100
AcDbDictionary
280
     1
281
     1
  3
ADSK_XREC_LAYER_RECONCILED
360
834A
  0
DICTIONARY
  5
834B
330
3C
100
AcDbDictionary
280
     1
281
     1
  3
ADSK_XREC_LAYER_RECONCILED
360
834C
  0
DICTIONARY
  5
834D
330
3D
100
AcDbDictionary
280
     1
281
     1
  3
ADSK_XREC_LAYER_RECONCILED
360
834E
  0
DICTIONARY
  5
834F
330
3A2
100
AcDbDictionary
280
     1
281
     1
  3
ADSK_XREC_LAYER_RECONCILED
360
8350
  0
DICTIONARY
  5
8351
330
3BBA
100
AcDbDictionary
280
     1
281
     1
  3
ADSK_XREC_LAYER_RECONCILED
360
8352
  0
DICTIONARY
  5
8353
330
3BBB
100
AcDbDictionary
280
     1
281
     1
  3
ADSK_XREC_LAYER_RECONCILED
360
8354
  0
DICTIONARY
  5
8355
330
5797
100
AcDbDictionary
280
     1
281
     1
  3
ADSK_XREC_LAYER_RECONCILED
360
8356
  0
DICTIONARY
  5
8357
330
5D4D
100
AcDbDictionary
280
     1
281
     1
  3
ADSK_XREC_LAYER_RECONCILED
360
8358
  0
DICTIONARY
  5
8359
330
6100
100
AcDbDictionary
280
     1
281
     1
  3
ADSK_XREC_LAYER_RECONCILED
360
835A
  0
DICTIONARY
  5
835B
330
6796
100
AcDbDictionary
280
     1
281
     1
  3
ADSK_XREC_LAYER_RECONCILED
360
835C
  0
DICTIONARY
  5
835D
330
6797
100
AcDbDictionary
280
     1
281
     1
  3
ADSK_XREC_LAYER_RECONCILED
360
835E
  0
DICTIONARY
  5
835F
330
6798
100
AcDbDictionary
280
     1
281
     1
  3
ADSK_XREC_LAYER_RECONCILED
360
8360
  0
DICTIONARY
  5
8361
330
6B44
100
AcDbDictionary
280
     1
281
     1
  3
ADSK_XREC_LAYER_RECONCILED
360
8362
  0
DICTIONARY
  5
8363
330
706A
100
AcDbDictionary
280
     1
281
     1
  3
ADSK_XREC_LAYER_RECONCILED
360
8364
  0
DICTIONARY
  5
8365
330
7525
100
AcDbDictionary
280
     1
281
     1
  3
ADSK_XREC_LAYER_RECONCILED
360
8366
  0
DICTIONARY
  5
178
330
1E
100
AcDbDictionary
280
     1
281
     1
  3
ACAD_LAYOUTSELFREF
360
8288
  0
DICTIONARY
  5
17A
330
1A
100
AcDbDictionary
280
     1
281
     1
  3
ACAD_LAYOUTSELFREF
360
8287
  0
XRECORD
  5
8337
102
{ACAD_REACTORS
330
C
102
}
330
C
100
AcDbXrecord
280
     1
300
ACD
300
2023
300

  0
DICTIONARY
  5
8319
102
{ACAD_REACTORS
330
C
102
}
330
C
100
AcDbDictionary
281
     1
  0
DICTIONARY
  5
8332
102
{ACAD_REACTORS
330
C
102
}
330
C
100
AcDbDictionary
281
     1
  3
Imperial24
350
8333
  0
DICTIONARY
  5
D
102
{ACAD_REACTORS
330
C
102
}
330
C
100
AcDbDictionary
281
     1
  0
DICTIONARY
  5
19
102
{ACAD_REACTORS
330
C
102
}
330
C
100
AcDbDictionary
281
     1
  3
Model
350
82D1
  3
ﾚｲｱｳﾄ1
350
82D2
  0
DICTIONARY
  5
82E7
102
{ACAD_REACTORS
330
C
102
}
330
C
100
AcDbDictionary
281
     1
  3
ByBlock
350
82F0
  3
ByLayer
350
82E8
  3
Global
350
82F8
  0
DICTIONARY
  5
832E
102
{ACAD_REACTORS
330
C
102
}
330
C
100
AcDbDictionary
281
     1
  3
Standard
350
832F
  0
DICTIONARY
  5
16
102
{ACAD_REACTORS
330
C
102
}
330
C
100
AcDbDictionary
281
     1
  3
STANDARD
350
17
  0
DICTIONARY
  5
18
102
{ACAD_REACTORS
330
C
102
}
330
C
100
AcDbDictionary
281
     1
  0
ACDBDICTIONARYWDFLT
  5
E
102
{ACAD_REACTORS
330
C
102
}
330
C
100
AcDbDictionary
281
     1
  3
Normal
350
F
100
AcDbDictionaryWithDefault
340
F
  0
DICTIONARY
  5
831C
102
{ACAD_REACTORS
330
C
102
}
330
C
100
AcDbDictionary
281
     1
  3
A0
350
831D
  3
A1
350
831E
  3
A2
350
831F
  3
A3
350
8320
  3
A4
350
8321
  3
A5
350
8322
  3
A6
350
8323
  3
A7
350
8324
  3
A8
350
8325
  3
A9
350
8326
  3
B0
350
8327
  3
B1
350
8328
  3
B2
350
8329
  3
B3
350
832A
  3
B4
350
832B
  3
B5
350
832C
  3
B6
350
832D
  0
DICTIONARY
  5
8330
102
{ACAD_REACTORS
330
C
102
}
330
C
100
AcDbDictionary
281
     1
  3
Imperial24
350
8331
  0
DICTIONARY
  5
831A
102
{ACAD_REACTORS
330
C
102
}
330
C
100
AcDbDictionary
281
     1
  3
Standard
350
831B
  0
DICTIONARY
  5
8300
102
{ACAD_REACTORS
330
C
102
}
330
C
100
AcDbDictionary
281
     1
  3
2dWireframe
350
8306
  3
Basic
350
8305
  3
Brighten
350
830C
  3
ColorChange
350
8310
  3
Conceptual
350
8309
  3
Dim
350
830B
  3
EdgeColorOff
350
8318
  3
Facepattern
350
830F
  3
Flat
350
8301
  3
FlatWithEdges
350
8302
  3
Gouraud
350
8303
  3
GouraudWithEdges
350
8304
  3
Hidden
350
8308
  3
JitterOff
350
8316
  3
Linepattern
350
830E
  3
OverhangOff
350
8317
  3
Realistic
350
830A
  3
Shaded
350
8315
  3
Shaded with edges
350
8314
  3
Shades of Gray
350
8311
  3
Sketchy
350
8312
  3
Thicken
350
830D
  3
Wireframe
350
8307
  3
X-Ray
350
8313
  0
XRECORD
  5
8373
102
{ACAD_REACTORS
330
C
102
}
330
C
100
AcDbXrecord
280
     1
 90
        1
330
831B
  0
DICTIONARY
  5
810C
102
{ACAD_REACTORS
330
C
102
}
330
C
100
AcDbDictionary
281
     1
  3
CANNOSCALE
350
836C
  3
CMLEADERSTYLE
350
8368
  3
CTABLESTYLE
350
8367
  3
CVIEWDETAILSTYLE
350
8369
  3
CVIEWSECTIONSTYLE
350
836A
  3
DIMASSOC
350
810D
  3
LAYEREVAL
350
836E
  3
LAYERNOTIFY
350
836F
  3
LIGHTINGUNITS
350
836D
  3
MSLTSCALE
350
836B
  0
XRECORD
  5
8342
102
{ACAD_REACTORS
330
8341
102
}
330
8341
100
AcDbXrecord
280
     1
290
     1
  0
XRECORD
  5
8344
102
{ACAD_REACTORS
330
8343
102
}
330
8343
100
AcDbXrecord
280
     1
290
     1
  0
XRECORD
  5
8346
102
{ACAD_REACTORS
330
8345
102
}
330
8345
100
AcDbXrecord
280
     1
290
     1
  0
XRECORD
  5
8348
102
{ACAD_REACTORS
330
8347
102
}
330
8347
100
AcDbXrecord
280
     1
290
     1
  0
XRECORD
  5
834A
102
{ACAD_REACTORS
330
8349
102
}
330
8349
100
AcDbXrecord
280
     1
290
     1
  0
XRECORD
  5
834C
102
{ACAD_REACTORS
330
834B
102
}
330
834B
100
AcDbXrecord
280
     1
290
     1
  0
XRECORD
  5
834E
102
{ACAD_REACTORS
330
834D
102
}
330
834D
100
AcDbXrecord
280
     1
290
     1
  0
XRECORD
  5
8350
102
{ACAD_REACTORS
330
834F
102
}
330
834F
100
AcDbXrecord
280
     1
290
     1
  0
XRECORD
  5
8352
102
{ACAD_REACTORS
330
8351
102
}
330
8351
100
AcDbXrecord
280
     1
290
     1
  0
XRECORD
  5
8354
102
{ACAD_REACTORS
330
8353
102
}
330
8353
100
AcDbXrecord
280
     1
290
     1
  0
XRECORD
  5
8356
102
{ACAD_REACTORS
330
8355
102
}
330
8355
100
AcDbXrecord
280
     1
290
     1
  0
XRECORD
  5
8358
102
{ACAD_REACTORS
330
8357
102
}
330
8357
100
AcDbXrecord
280
     1
290
     1
  0
XRECORD
  5
835A
102
{ACAD_REACTORS
330
8359
102
}
330
8359
100
AcDbXrecord
280
     1
290
     1
  0
XRECORD
  5
835C
102
{ACAD_REACTORS
330
835B
102
}
330
835B
100
AcDbXrecord
280
     1
290
     1
  0
XRECORD
  5
835E
102
{ACAD_REACTORS
330
835D
102
}
330
835D
100
AcDbXrecord
280
     1
290
     1
  0
XRECORD
  5
8360
102
{ACAD_REACTORS
330
835F
102
}
330
835F
100
AcDbXrecord
280
     1
290
     1
  0
XRECORD
  5
8362
102
{ACAD_REACTORS
330
8361
102
}
330
8361
100
AcDbXrecord
280
     1
290
     1
  0
XRECORD
  5
8364
102
{ACAD_REACTORS
330
8363
102
}
330
8363
100
AcDbXrecord
280
     1
290
     1
  0
XRECORD
  5
8366
102
{ACAD_REACTORS
330
8365
102
}
330
8365
100
AcDbXrecord
280
     1
290
     1
  0
XRECORD
  5
8288
102
{ACAD_REACTORS
330
178
102
}
330
178
100
AcDbXrecord
280
     1
340
1E
  0
XRECORD
  5
8287
102
{ACAD_REACTORS
330
17A
102
}
330
17A
100
AcDbXrecord
280
     1
340
1A
  0
ACDBDETAILVIEWSTYLE
  5
8333
102
{ACAD_REACTORS
330
8332
102
}
330
8332
100
AcDbModelDocViewStyle
 70
     0
  3
Imperial24
290
     0
300
Imperial24
 90
        0
100
AcDbDetailViewStyle
 70
     0
 71
     0
 90
        3
 71
     1
340
11
 62
   256
 40
0.24
340
0
 62
   256
 40
0.24
300

 40
0.36
280
     3
 71
     2
340
15
 90
       25
 62
   256
 71
     3
340
11
 62
   256
 40
0.24
 90
        1
 40
0.75
 90
        1
300
%<\AcVar ViewType \f "%tc1">% %<\AcVar ViewDetailId>%\PSCALE %<\AcVar ViewScale \f "%sn">%
 71
     4
340
15
 90
       25
 62
   256
340
15
 90
       25
 62
   256
280
     0
  0
LAYOUT
  5
82D1
102
{ACAD_REACTORS
330
19
102
}
330
19
100
AcDbPlotSettings
  1

  2
LBP5400
  4

  6

 40
0.0
 41
0.0
 42
0.0
 43
0.0
 44
0.0
 45
0.0
 46
0.0
 47
0.0
 48
0.0
 49
0.0
140
0.0
141
0.0
142
1.0
143
1.0
 70
  1712
 72
     0
 73
     0
 74
     0
  7
monochrome.stb
 75
     0
147
1.0
 76
     0
 77
     2
 78
   300
148
0.0
149
0.0
100
AcDbLayout
  1
Model
 70
     1
 71
     0
 10
0.0
 20
0.0
 11
12.0
 21
9.0
 12
0.0
 22
0.0
 32
0.0
 14
0.0
 24
0.0
 34
0.0
 15
0.0
 25
0.0
 35
0.0
146
0.0
 13
0.0
 23
0.0
 33
0.0
 16
1.0
 26
0.0
 36
0.0
 17
0.0
 27
1.0
 37
0.0
 76
     0
330
1E
331
82DF
  0
LAYOUT
  5
82D2
102
{ACAD_REACTORS
330
19
102
}
330
19
100
AcDbPlotSettings
  1

  2
LBP5400
  4

  6

 40
0.0
 41
0.0
 42
0.0
 43
0.0
 44
0.0
 45
0.0
 46
0.0
 47
0.0
 48
0.0
 49
0.0
140
0.0
141
0.0
142
1.0
143
1.0
 70
   688
 72
     0
 73
     0
 74
     5
  7
monochrome.stb
 75
    16
147
1.0
 76
     0
 77
     2
 78
   300
148
0.0
149
0.0
100
AcDbLayout
  1
ﾚｲｱｳﾄ1
 70
     1
 71
     1
 10
-5.873748779296875
 20
-5.873749732971191
 11
204.0995788574218
 21
291.1369009017943
 12
0.0
 22
0.0
 32
0.0
 14
4.273573370203961
 24
5.205246163471485
 34
0.0
 15
194.6100952986349
 25
283.0697008572913
 35
0.0
146
0.0
 13
0.0
 23
0.0
 33
0.0
 16
1.0
 26
0.0
 36
0.0
 17
0.0
 27
1.0
 37
0.0
 76
     0
330
1A
331
9AC
  0
MATERIAL
  5
82F0
102
{ACAD_XDICTIONARY
360
82F1
102
}
102
{ACAD_REACTORS
330
82E7
102
}
330
82E7
100
AcDbMaterial
  1
ByBlock
 72
     0
 43
0.0208333333333333
 43
0.0
 43
0.0
 43
0.0
 43
0.0
 43
0.0208333333333333
 43
0.0
 43
0.0
 43
0.0
 43
0.0
 43
1.0
 43
0.0
 43
0.0
 43
0.0
 43
0.0
 43
1.0
 77
     0
 47
0.0208333333333333
 47
0.0
 47
0.0
 47
0.0
 47
0.0
 47
0.0208333333333333
 47
0.0
 47
0.0
 47
0.0
 47
0.0
 47
1.0
 47
0.0
 47
0.0
 47
0.0
 47
0.0
 47
1.0
171
     0
 49
0.0208333333333333
 49
0.0
 49
0.0
 49
0.0
 49
0.0
 49
0.0208333333333333
 49
0.0
 49
0.0
 49
0.0
 49
0.0
 49
1.0
 49
0.0
 49
0.0
 49
0.0
 49
0.0
 49
1.0
175
     0
142
0.0208333333333333
142
0.0
142
0.0
142
0.0
142
0.0
142
0.0208333333333333
142
0.0
142
0.0
142
0.0
142
0.0
142
1.0
142
0.0
142
0.0
142
0.0
142
0.0
142
1.0
179
     0
144
0.0208333333333333
144
0.0
144
0.0
144
0.0
144
0.0
144
0.0208333333333333
144
0.0
144
0.0
144
0.0
144
0.0
144
1.0
144
0.0
144
0.0
144
0.0
144
0.0
144
1.0
147
0.0208333333333333
147
0.0
147
0.0
147
0.0
147
0.0
147
0.0208333333333333
147
0.0
147
0.0
147
0.0
147
0.0
147
1.0
147
0.0
147
0.0
147
0.0
147
0.0
147
1.0
  0
MATERIAL
  5
82E8
102
{ACAD_XDICTIONARY
360
82E9
102
}
102
{ACAD_REACTORS
330
82E7
102
}
330
82E7
100
AcDbMaterial
  1
ByLayer
 72
     0
 43
0.0208333333333333
 43
0.0
 43
0.0
 43
0.0
 43
0.0
 43
0.0208333333333333
 43
0.0
 43
0.0
 43
0.0
 43
0.0
 43
1.0
 43
0.0
 43
0.0
 43
0.0
 43
0.0
 43
1.0
 77
     0
 47
0.0208333333333333
 47
0.0
 47
0.0
 47
0.0
 47
0.0
 47
0.0208333333333333
 47
0.0
 47
0.0
 47
0.0
 47
0.0
 47
1.0
 47
0.0
 47
0.0
 47
0.0
 47
0.0
 47
1.0
171
     0
 49
0.0208333333333333
 49
0.0
 49
0.0
 49
0.0
 49
0.0
 49
0.0208333333333333
 49
0.0
 49
0.0
 49
0.0
 49
0.0
 49
1.0
 49
0.0
 49
0.0
 49
0.0
 49
0.0
 49
1.0
175
     0
142
0.0208333333333333
142
0.0
142
0.0
142
0.0
142
0.0
142
0.0208333333333333
142
0.0
142
0.0
142
0.0
142
0.0
142
1.0
142
0.0
142
0.0
142
0.0
142
0.0
142
1.0
179
     0
144
0.0208333333333333
144
0.0
144
0.0
144
0.0
144
0.0
144
0.0208333333333333
144
0.0
144
0.0
144
0.0
144
0.0
144
1.0
144
0.0
144
0.0
144
0.0
144
0.0
144
1.0
147
0.0208333333333333
147
0.0
147
0.0
147
0.0
147
0.0
147
0.0208333333333333
147
0.0
147
0.0
147
0.0
147
0.0
147
1.0
147
0.0
147
0.0
147
0.0
147
0.0
147
1.0
  0
MATERIAL
  5
82F8
102
{ACAD_XDICTIONARY
360
82F9
102
}
102
{ACAD_REACTORS
330
82E7
102
}
330
82E7
100
AcDbMaterial
  1
Global
 72
     0
 43
0.0208333333333333
 43
0.0
 43
0.0
 43
0.0
 43
0.0
 43
0.0208333333333333
 43
0.0
 43
0.0
 43
0.0
 43
0.0
 43
1.0
 43
0.0
 43
0.0
 43
0.0
 43
0.0
 43
1.0
 77
     0
 47
0.0208333333333333
 47
0.0
 47
0.0
 47
0.0
 47
0.0
 47
0.0208333333333333
 47
0.0
 47
0.0
 47
0.0
 47
0.0
 47
1.0
 47
0.0
 47
0.0
 47
0.0
 47
0.0
 47
1.0
171
     0
 49
0.0208333333333333
 49
0.0
 49
0.0
 49
0.0
 49
0.0
 49
0.0208333333333333
 49
0.0
 49
0.0
 49
0.0
 49
0.0
 49
1.0
 49
0.0
 49
0.0
 49
0.0
 49
0.0
 49
1.0
175
     0
142
0.0208333333333333
142
0.0
142
0.0
142
0.0
142
0.0
142
0.0208333333333333
142
0.0
142
0.0
142
0.0
142
0.0
142
1.0
142
0.0
142
0.0
142
0.0
142
0.0
142
1.0
179
     0
144
0.0208333333333333
144
0.0
144
0.0
144
0.0
144
0.0
144
0.0208333333333333
144
0.0
144
0.0
144
0.0
144
0.0
144
1.0
144
0.0
144
0.0
144
0.0
144
0.0
144
1.0
147
0.0208333333333333
147
0.0
147
0.0
147
0.0
147
0.0
147
0.0208333333333333
147
0.0
147
0.0
147
0.0
147
0.0
147
1.0
147
0.0
147
0.0
147
0.0
147
0.0
147
1.0
  0
MLEADERSTYLE
  5
832F
102
{ACAD_REACTORS
330
832E
102
}
330
832E
100
AcDbMLeaderStyle
179
     2
170
     2
171
     1
172
     0
 90
        2
 40
0.0
 41
0.0
173
     1
 91
-1056964608
340
13
 92
       -2
290
     1
 42
0.09
291
     1
 43
0.36
  3
Standard
 44
0.18
300

342
11
174
     1
178
     6
175
     1
176
     0
 93
-1056964608
 45
0.18
292
     0
297
     0
 46
0.18
 94
-1056964608
 47
1.0
 49
1.0
140
1.0
293
     1
141
0.0
294
     1
177
     0
142
1.0
295
     0
296
     0
143
0.125
271
     0
272
     9
273
     9
298
     0
  0
MLINESTYLE
  5
17
102
{ACAD_REACTORS
330
16
102
}
330
16
100
AcDbMlineStyle
  2
STANDARD
 70
     0
  3

 62
   256
 51
90.0
 52
90.0
 71
     2
 49
0.5
 62
   256
  6
BYLAYER
 49
-0.5
 62
   256
  6
BYLAYER
  0
ACDBPLACEHOLDER
  5
F
102
{ACAD_REACTORS
330
E
102
}
330
E
  0
SCALE
  5
831D
102
{ACAD_REACTORS
330
831C
102
}
330
831C
100
AcDbScale
 70
     0
300
1:1
140
1.0
141
1.0
290
     1
  0
SCALE
  5
831E
102
{ACAD_REACTORS
330
831C
102
}
330
831C
100
AcDbScale
 70
     0
300
1/128" = 1'-0"
140
0.0078125
141
12.0
290
     0
  0
SCALE
  5
831F
102
{ACAD_REACTORS
330
831C
102
}
330
831C
100
AcDbScale
 70
     0
300
1/64" = 1'-0"
140
0.015625
141
12.0
290
     0
  0
SCALE
  5
8320
102
{ACAD_REACTORS
330
831C
102
}
330
831C
100
AcDbScale
 70
     0
300
1/32" = 1'-0"
140
0.03125
141
12.0
290
     0
  0
SCALE
  5
8321
102
{ACAD_REACTORS
330
831C
102
}
330
831C
100
AcDbScale
 70
     0
300
1/16" = 1'-0"
140
0.0625
141
12.0
290
     0
  0
SCALE
  5
8322
102
{ACAD_REACTORS
330
831C
102
}
330
831C
100
AcDbScale
 70
     0
300
3/32" = 1'-0"
140
0.09375
141
12.0
290
     0
  0
SCALE
  5
8323
102
{ACAD_REACTORS
330
831C
102
}
330
831C
100
AcDbScale
 70
     0
300
1/8" = 1'-0"
140
0.125
141
12.0
290
     0
  0
SCALE
  5
8324
102
{ACAD_REACTORS
330
831C
102
}
330
831C
100
AcDbScale
 70
     0
300
3/16" = 1'-0"
140
0.1875
141
12.0
290
     0
  0
SCALE
  5
8325
102
{ACAD_REACTORS
330
831C
102
}
330
831C
100
AcDbScale
 70
     0
300
1/4" = 1'-0"
140
0.25
141
12.0
290
     0
  0
SCALE
  5
8326
102
{ACAD_REACTORS
330
831C
102
}
330
831C
100
AcDbScale
 70
     0
300
3/8" = 1'-0"
140
0.375
141
12.0
290
     0
  0
SCALE
  5
8327
102
{ACAD_REACTORS
330
831C
102
}
330
831C
100
AcDbScale
 70
     0
300
1/2" = 1'-0"
140
0.5
141
12.0
290
     0
  0
SCALE
  5
8328
102
{ACAD_REACTORS
330
831C
102
}
330
831C
100
AcDbScale
 70
     0
300
3/4" = 1'-0"
140
0.75
141
12.0
290
     0
  0
SCALE
  5
8329
102
{ACAD_REACTORS
330
831C
102
}
330
831C
100
AcDbScale
 70
     0
300
1" = 1'-0"
140
1.0
141
12.0
290
     0
  0
SCALE
  5
832A
102
{ACAD_REACTORS
330
831C
102
}
330
831C
100
AcDbScale
 70
     0
300
1-1/2" = 1'-0"
140
1.5
141
12.0
290
     0
  0
SCALE
  5
832B
102
{ACAD_REACTORS
330
831C
102
}
330
831C
100
AcDbScale
 70
     0
300
3" = 1'-0"
140
3.0
141
12.0
290
     0
  0
SCALE
  5
832C
102
{ACAD_REACTORS
330
831C
102
}
330
831C
100
AcDbScale
 70
     0
300
6" = 1'-0"
140
6.0
141
12.0
290
     0
  0
SCALE
  5
832D
102
{ACAD_REACTORS
330
831C
102
}
330
831C
100
AcDbScale
 70
     0
300
1'-0" = 1'-0"
140
12.0
141
12.0
290
     0
  0
ACDBSECTIONVIEWSTYLE
  5
8331
102
{ACAD_REACTORS
330
8330
102
}
330
8330
100
AcDbModelDocViewStyle
 70
     0
  3
Imperial24
290
     0
300
Imperial24
 90
        0
100
AcDbSectionViewStyle
 70
     0
 71
     0
 90
       78
 71
     1
340
11
 62
   256
 40
0.24
340
0
340
0
 62
   256
 40
0.24
300
I, O, Q, S, X, Z
 40
0.48
 90
        3
 40
0.18
 90
        1
 71
     2
340
15
 90
       25
 62
   256
340
15
 90
       50
 62
   256
 40
0.24
 40
0.0
 40
0.24
 71
     3
340
11
 62
   256
 40
0.24
 90
        1
 40
0.75
 90
        1
300
%<\AcVar ViewType \f "%tc1">% %<\AcVar ViewSectionStartId>%-%<\AcVar ViewSectionEndId>%\PSCALE %<\AcVar ViewScale \f "%sn">%
 71
     4
 62
   256
 62
   257
300
ANSI31
 40
1.0
 90
        0
290
     0
290
     0
 90
        6
 40
0.0
 40
1.570796326794896
 40
0.2617993877991494
 40
1.308996938995747
 40
-0.2617993877991494
 40
1.832595714594046
  0
TABLESTYLE
  5
831B
102
{ACAD_XDICTIONARY
360
8371
102
}
102
{ACAD_REACTORS
330
831A
102
}
330
831A
100
AcDbTableStyle
280
     0
  3
Standard
 70
     0
 71
     0
 40
0.06
 41
0.06
280
     0
281
     0
  7
STANDARD
140
0.18
170
     2
 62
     0
 63
     7
283
     0
 90
      512
 91
        0
  1

274
    -2
284
     1
 64
     0
275
    -2
285
     1
 65
     0
276
    -2
286
     1
 66
     0
277
    -2
287
     1
 67
     0
278
    -2
288
     1
 68
     0
279
    -2
289
     1
 69
     0
  7
STANDARD
140
0.25
170
     5
 62
     0
 63
     7
283
     0
 90
      512
 91
        0
  1

274
    -2
284
     1
 64
     0
275
    -2
285
     1
 65
     0
276
    -2
286
     1
 66
     0
277
    -2
287
     1
 67
     0
278
    -2
288
     1
 68
     0
279
    -2
289
     1
 69
     0
  7
STANDARD
140
0.18
170
     5
 62
     0
 63
     7
283
     0
 90
      512
 91
        0
  1

274
    -2
284
     1
 64
     0
275
    -2
285
     1
 65
     0
276
    -2
286
     1
 66
     0
277
    -2
287
     1
 67
     0
278
    -2
288
     1
 68
     0
279
    -2
289
     1
 69
     0
  0
VISUALSTYLE
  5
8306
102
{ACAD_REACTORS
330
8300
102
}
330
8300
100
AcDbVisualStyle
  2
2dWireframe
 70
     4
177
     3
291
     0
 70
    58
 90
        0
176
     1
 90
        2
176
     1
 90
        0
176
     1
 90
        0
176
     1
 40
0.6
176
     1
 40
30.0
176
     1
 62
     7
420
 16777215
176
     1
 90
        1
176
     1
 90
        4
176
     1
 62
     7
176
     1
 62
   257
176
     1
 90
        1
176
     1
 90
        1
176
     1
 40
1.0
176
     1
 90
        0
176
     1
 62
   257
176
     1
 40
1.0
176
     1
 90
        1
176
     1
 90
        6
176
     1
 90
        2
176
     1
 62
     7
176
     1
 90
        5
176
     1
 90
        0
176
     1
 90
        0
176
     1
290
     0
176
     1
 90
        1
176
     1
 40
0.0
176
     1
 90
        0
176
     1
290
     1
176
     1
290
     1
176
     1
290
     0
176
     1
290
     0
176
     1
290
     0
176
     1
290
     0
176
     1
290
     0
176
     1
290
     0
176
     1
290
     0
176
     1
 90
       50
176
     1
 40
0.0
176
     1
 40
1.0
176
     1
 90
        0
176
     1
 62
    18
420
        0
176
     1
 90
       50
176
     1
 90
        3
176
     1
 62
     5
420
      255
176
     1
290
     0
176
     1
 90
       50
176
     1
 90
       50
176
     1
 90
       50
176
     1
290
     0
176
     1
 90
       50
176
     1
 62
   256
176
     0
 40
1.0
176
     0
 90
        2
176
     1
  1
strokes_ogs.tif
176
     1
290
     0
176
     1
 40
1.0
176
     1
 40
1.0
176
     1
  0
VISUALSTYLE
  5
8305
102
{ACAD_REACTORS
330
8300
102
}
330
8300
100
AcDbVisualStyle
  2
Basic
 70
     7
177
     3
291
     1
 70
    58
 90
        1
176
     1
 90
        0
176
     1
 90
        1
176
     1
 90
        0
176
     1
 40
0.6
176
     1
 40
30.0
176
     1
 62
     7
420
 16777215
176
     1
 90
        0
176
     1
 90
        4
176
     1
 62
     7
176
     1
 62
   257
176
     1
 90
        1
176
     1
 90
        1
176
     1
 40
1.0
176
     1
 90
        8
176
     1
 62
     7
176
     1
 40
1.0
176
     1
 90
        1
176
     1
 90
        6
176
     1
 90
        2
176
     1
 62
     7
176
     1
 90
        5
176
     1
 90
        0
176
     1
 90
        0
176
     1
290
     0
176
     1
 90
        1
176
     1
 40
0.0
176
     1
 90
        0
176
     1
290
     0
176
     1
290
     1
176
     1
290
     1
176
     1
290
     0
176
     1
290
     0
176
     1
290
     0
176
     1
290
     0
176
     1
290
     0
176
     1
290
     0
176
     1
 90
       50
176
     1
 40
0.0
176
     1
 40
1.0
176
     1
 90
        0
176
     1
 62
    18
420
        0
176
     1
 90
       50
176
     1
 90
        3
176
     1
 62
     5
420
      255
176
     1
290
     0
176
     1
 90
       50
176
     1
 90
       50
176
     1
 90
       50
176
     1
290
     0
176
     1
 90
       50
176
     1
 62
   256
176
     0
 40
1.0
176
     0
 90
        2
176
     1
  1
strokes_ogs.tif
176
     1
290
     0
176
     1
 40
1.0
176
     1
 40
1.0
176
     1
  0
VISUALSTYLE
  5
830C
102
{ACAD_REACTORS
330
8300
102
}
330
8300
100
AcDbVisualStyle
  2
Brighten
 70
    12
177
     3
291
     1
 70
    58
 90
        2
176
     1
 90
        2
176
     1
 90
        0
176
     1
 90
        0
176
     1
 40
0.6
176
     1
 40
30.0
176
     1
 62
     7
420
 16777215
176
     1
 90
        1
176
     1
 90
        4
176
     1
 62
     7
176
     1
 62
   257
176
     1
 90
        1
176
     1
 90
        1
176
     1
 40
1.0
176
     1
 90
        8
176
     1
 62
     7
176
     1
 40
1.0
176
     1
 90
        1
176
     1
 90
        6
176
     1
 90
        2
176
     1
 62
     7
176
     1
 90
        5
176
     1
 90
        0
176
     1
 90
        0
176
     1
290
     0
176
     1
 90
        1
176
     1
 40
50.0
176
     1
 90
        0
176
     1
290
     0
176
     1
290
     1
176
     1
290
     1
176
     1
290
     0
176
     1
290
     0
176
     1
290
     0
176
     1
290
     0
176
     1
290
     0
176
     1
290
     0
176
     1
 90
       50
176
     1
 40
0.0
176
     1
 40
1.0
176
     1
 90
        0
176
     1
 62
    18
420
        0
176
     1
 90
       50
176
     1
 90
        3
176
     1
 62
     5
420
      255
176
     1
290
     0
176
     1
 90
       50
176
     1
 90
       50
176
     1
 90
       50
176
     1
290
     0
176
     1
 90
       50
176
     1
 62
   256
176
     0
 40
1.0
176
     0
 90
        2
176
     1
  1
strokes_ogs.tif
176
     1
290
     0
176
     1
 40
1.0
176
     1
 40
1.0
176
     1
  0
VISUALSTYLE
  5
8310
102
{ACAD_REACTORS
330
8300
102
}
330
8300
100
AcDbVisualStyle
  2
ColorChange
 70
    16
177
     3
291
     1
 70
    58
 90
        2
176
     1
 90
        2
176
     1
 90
        3
176
     1
 90
        0
176
     1
 40
0.6
176
     1
 40
30.0
176
     1
 62
     8
420
  8421504
176
     1
 90
        1
176
     1
 90
        4
176
     1
 62
     7
176
     1
 62
   257
176
     1
 90
        1
176
     1
 90
        1
176
     1
 40
1.0
176
     1
 90
        8
176
     1
 62
     8
420
  8421504
176
     1
 40
1.0
176
     1
 90
        1
176
     1
 90
        6
176
     1
 90
        2
176
     1
 62
     7
176
     1
 90
        5
176
     1
 90
        0
176
     1
 90
        0
176
     1
290
     0
176
     1
 90
        1
176
     1
 40
0.0
176
     1
 90
        0
176
     1
290
     0
176
     1
290
     1
176
     1
290
     1
176
     1
290
     0
176
     1
290
     0
176
     1
290
     0
176
     1
290
     0
176
     1
290
     0
176
     1
290
     0
176
     1
 90
       50
176
     1
 40
0.0
176
     1
 40
1.0
176
     1
 90
        0
176
     1
 62
    18
420
        0
176
     1
 90
       50
176
     1
 90
        3
176
     1
 62
     5
420
      255
176
     1
290
     0
176
     1
 90
       50
176
     1
 90
       50
176
     1
 90
       50
176
     1
290
     0
176
     1
 90
       50
176
     1
 62
   256
176
     0
 40
1.0
176
     0
 90
        2
176
     1
  1
strokes_ogs.tif
176
     1
290
     0
176
     1
 40
1.0
176
     1
 40
1.0
176
     1
  0
VISUALSTYLE
  5
8309
102
{ACAD_REACTORS
330
8300
102
}
330
8300
100
AcDbVisualStyle
  2
Conceptual
 70
     9
177
     3
291
     0
 70
    58
 90
        3
176
     1
 90
        2
176
     1
 90
        0
176
     1
 90
        0
176
     1
 40
0.6
176
     1
 40
30.0
176
     1
 62
     7
420
 16777215
176
     1
 90
        2
176
     1
 90
        2
176
     1
 62
     7
176
     1
 62
   257
176
     1
 90
        1
176
     1
 90
        1
176
     1
 40
179.0
176
     1
 90
        8
176
     1
 62
     7
176
     1
 40
1.0
176
     1
 90
        1
176
     1
 90
        6
176
     1
 90
        2
176
     1
 62
     7
176
     1
 90
        3
176
     1
 90
        0
176
     1
 90
        0
176
     1
290
     0
176
     1
 90
        1
176
     1
 40
0.0
176
     1
 90
        0
176
     1
290
     0
176
     1
290
     1
176
     1
290
     1
176
     1
290
     0
176
     1
290
     0
176
     1
290
     0
176
     1
290
     0
176
     1
290
     0
176
     1
290
     0
176
     1
 90
       50
176
     1
 40
0.0
176
     1
 40
1.0
176
     1
 90
        0
176
     1
 62
    18
420
        0
176
     1
 90
       50
176
     1
 90
        3
176
     1
 62
     5
420
      255
176
     1
290
     0
176
     1
 90
       50
176
     1
 90
       50
176
     1
 90
       50
176
     1
290
     0
176
     1
 90
       50
176
     1
 62
   256
176
     0
 40
1.0
176
     0
 90
        2
176
     1
  1
strokes_ogs.tif
176
     1
290
     0
176
     1
 40
1.0
176
     1
 40
1.0
176
     1
  0
VISUALSTYLE
  5
830B
102
{ACAD_REACTORS
330
8300
102
}
330
8300
100
AcDbVisualStyle
  2
Dim
 70
    11
177
     3
291
     1
 70
    58
 90
        2
176
     1
 90
        2
176
     1
 90
        0
176
     1
 90
        0
176
     1
 40
0.6
176
     1
 40
30.0
176
     1
 62
     7
420
 16777215
176
     1
 90
        1
176
     1
 90
        4
176
     1
 62
     7
176
     1
 62
   257
176
     1
 90
        1
176
     1
 90
        1
176
     1
 40
1.0
176
     1
 90
        8
176
     1
 62
     7
176
     1
 40
1.0
176
     1
 90
        1
176
     1
 90
        6
176
     1
 90
        2
176
     1
 62
     7
176
     1
 90
        5
176
     1
 90
        0
176
     1
 90
        0
176
     1
290
     0
176
     1
 90
        1
176
     1
 40
-50.0
176
     1
 90
        0
176
     1
290
     0
176
     1
290
     1
176
     1
290
     1
176
     1
290
     0
176
     1
290
     0
176
     1
290
     0
176
     1
290
     0
176
     1
290
     0
176
     1
290
     0
176
     1
 90
       50
176
     1
 40
0.0
176
     1
 40
1.0
176
     1
 90
        0
176
     1
 62
    18
420
        0
176
     1
 90
       50
176
     1
 90
        3
176
     1
 62
     5
420
      255
176
     1
290
     0
176
     1
 90
       50
176
     1
 90
       50
176
     1
 90
       50
176
     1
290
     0
176
     1
 90
       50
176
     1
 62
   256
176
     0
 40
1.0
176
     0
 90
        2
176
     1
  1
strokes_ogs.tif
176
     1
290
     0
176
     1
 40
1.0
176
     1
 40
1.0
176
     1
  0
VISUALSTYLE
  5
8318
102
{ACAD_REACTORS
330
8300
102
}
330
8300
100
AcDbVisualStyle
  2
EdgeColorOff
 70
    22
177
     3
291
     1
 70
    58
 90
        2
176
     0
 90
        2
176
     0
 90
        0
176
     0
 90
        0
176
     0
 40
0.6
176
     0
 40
30.0
176
     0
 62
     7
420
 16777215
176
     0
 90
        1
176
     0
 90
        4
176
     0
 62
     7
176
     0
 62
   257
176
     0
 90
        1
176
     0
 90
        1
176
     0
 40
1.0
176
     0
 90
        8
176
     2
 62
     7
176
     0
 40
1.0
176
     0
 90
        1
176
     0
 90
        6
176
     0
 90
        2
176
     0
 62
     7
176
     0
 90
        5
176
     0
 90
        0
176
     0
 90
        0
176
     0
290
     0
176
     0
 90
        1
176
     0
 40
0.0
176
     0
 90
        0
176
     0
290
     0
176
     1
290
     1
176
     1
290
     1
176
     1
290
     0
176
     1
290
     0
176
     1
290
     0
176
     1
290
     0
176
     1
290
     0
176
     1
290
     0
176
     1
 90
       50
176
     0
 40
0.0
176
     0
 40
1.0
176
     0
 90
        0
176
     0
 62
    18
420
        0
176
     0
 90
       50
176
     0
 90
        3
176
     0
 62
     5
420
      255
176
     0
290
     0
176
     1
 90
       50
176
     0
 90
       50
176
     0
 90
       50
176
     0
290
     0
176
     1
 90
       50
176
     0
 62
   256
176
     0
 40
1.0
176
     0
 90
        2
176
     0
  1
strokes_ogs.tif
176
     0
290
     0
176
     1
 40
1.0
176
     0
 40
1.0
176
     0
  0
VISUALSTYLE
  5
830F
102
{ACAD_REACTORS
330
8300
102
}
330
8300
100
AcDbVisualStyle
  2
Facepattern
 70
    15
177
     3
291
     1
 70
    58
 90
        2
176
     1
 90
        2
176
     1
 90
        0
176
     1
 90
        0
176
     1
 40
0.6
176
     1
 40
30.0
176
     1
 62
     7
420
 16777215
176
     1
 90
        1
176
     1
 90
        4
176
     1
 62
     7
176
     1
 62
   257
176
     1
 90
        1
176
     1
 90
        1
176
     1
 40
1.0
176
     1
 90
        8
176
     1
 62
     7
176
     1
 40
1.0
176
     1
 90
        1
176
     1
 90
        6
176
     1
 90
        2
176
     1
 62
     7
176
     1
 90
        5
176
     1
 90
        0
176
     1
 90
        0
176
     1
290
     0
176
     1
 90
        1
176
     1
 40
0.0
176
     1
 90
        0
176
     1
290
     0
176
     1
290
     1
176
     1
290
     1
176
     1
290
     0
176
     1
290
     0
176
     1
290
     0
176
     1
290
     0
176
     1
290
     0
176
     1
290
     0
176
     1
 90
       50
176
     1
 40
0.0
176
     1
 40
1.0
176
     1
 90
        0
176
     1
 62
    18
420
        0
176
     1
 90
       50
176
     1
 90
        3
176
     1
 62
     5
420
      255
176
     1
290
     0
176
     1
 90
       50
176
     1
 90
       50
176
     1
 90
       50
176
     1
290
     0
176
     1
 90
       50
176
     1
 62
   256
176
     0
 40
1.0
176
     0
 90
        2
176
     1
  1
strokes_ogs.tif
176
     1
290
     0
176
     1
 40
1.0
176
     1
 40
1.0
176
     1
  0
VISUALSTYLE
  5
8301
102
{ACAD_REACTORS
330
8300
102
}
330
8300
100
AcDbVisualStyle
  2
Flat
 70
     0
177
     3
291
     1
 70
    58
 90
        2
176
     1
 90
        1
176
     1
 90
        1
176
     1
 90
        2
176
     1
 40
0.6
176
     1
 40
30.0
176
     1
 62
     7
420
 16777215
176
     1
 90
        0
176
     1
 90
        0
176
     1
 62
     7
176
     1
 62
   257
176
     1
 90
        1
176
     1
 90
        1
176
     1
 40
1.0
176
     1
 90
        8
176
     1
 62
     7
176
     1
 40
1.0
176
     1
 90
        1
176
     1
 90
        6
176
     1
 90
        2
176
     1
 62
     7
176
     1
 90
        5
176
     1
 90
        0
176
     1
 90
        0
176
     1
290
     0
176
     1
 90
       13
176
     1
 40
0.0
176
     1
 90
        0
176
     1
290
     0
176
     1
290
     1
176
     1
290
     1
176
     1
290
     0
176
     1
290
     0
176
     1
290
     0
176
     1
290
     0
176
     1
290
     0
176
     1
290
     0
176
     1
 90
       50
176
     1
 40
0.0
176
     1
 40
1.0
176
     1
 90
        0
176
     1
 62
    18
420
        0
176
     1
 90
       50
176
     1
 90
        3
176
     1
 62
     5
420
      255
176
     1
290
     0
176
     1
 90
       50
176
     1
 90
       50
176
     1
 90
       50
176
     1
290
     0
176
     1
 90
       50
176
     1
 62
   256
176
     0
 40
1.0
176
     0
 90
        2
176
     1
  1
strokes_ogs.tif
176
     1
290
     0
176
     1
 40
1.0
176
     1
 40
1.0
176
     1
  0
VISUALSTYLE
  5
8302
102
{ACAD_REACTORS
330
8300
102
}
330
8300
100
AcDbVisualStyle
  2
FlatWithEdges
 70
     1
177
     3
291
     1
 70
    58
 90
        2
176
     1
 90
        1
176
     1
 90
        1
176
     1
 90
        2
176
     1
 40
0.6
176
     1
 40
30.0
176
     1
 62
     7
420
 16777215
176
     1
 90
        1
176
     1
 90
        0
176
     1
 62
     7
176
     1
 62
   257
176
     1
 90
        1
176
     1
 90
        1
176
     1
 40
1.0
176
     1
 90
        0
176
     1
 62
   257
176
     1
 40
1.0
176
     1
 90
        1
176
     1
 90
        6
176
     1
 90
        2
176
     1
 62
     7
176
     1
 90
        5
176
     1
 90
        0
176
     1
 90
        0
176
     1
290
     0
176
     1
 90
       13
176
     1
 40
0.0
176
     1
 90
        0
176
     1
290
     0
176
     1
290
     1
176
     1
290
     1
176
     1
290
     0
176
     1
290
     0
176
     1
290
     0
176
     1
290
     0
176
     1
290
     0
176
     1
290
     0
176
     1
 90
       50
176
     1
 40
0.0
176
     1
 40
1.0
176
     1
 90
        0
176
     1
 62
    18
420
        0
176
     1
 90
       50
176
     1
 90
        3
176
     1
 62
     5
420
      255
176
     1
290
     0
176
     1
 90
       50
176
     1
 90
       50
176
     1
 90
       50
176
     1
290
     0
176
     1
 90
       50
176
     1
 62
   256
176
     0
 40
1.0
176
     0
 90
        2
176
     1
  1
strokes_ogs.tif
176
     1
290
     0
176
     1
 40
1.0
176
     1
 40
1.0
176
     1
  0
VISUALSTYLE
  5
8303
102
{ACAD_REACTORS
330
8300
102
}
330
8300
100
AcDbVisualStyle
  2
Gouraud
 70
     2
177
     3
291
     1
 70
    58
 90
        2
176
     1
 90
        2
176
     1
 90
        1
176
     1
 90
        2
176
     1
 40
0.6
176
     1
 40
30.0
176
     1
 62
     7
420
 16777215
176
     1
 90
        0
176
     1
 90
        0
176
     1
 62
     7
176
     1
 62
   257
176
     1
 90
        1
176
     1
 90
        1
176
     1
 40
1.0
176
     1
 90
        0
176
     1
 62
     7
176
     1
 40
1.0
176
     1
 90
        1
176
     1
 90
        6
176
     1
 90
        2
176
     1
 62
     7
176
     1
 90
        5
176
     1
 90
        0
176
     1
 90
        0
176
     1
290
     0
176
     1
 90
       13
176
     1
 40
0.0
176
     1
 90
        0
176
     1
290
     0
176
     1
290
     1
176
     1
290
     1
176
     1
290
     0
176
     1
290
     0
176
     1
290
     0
176
     1
290
     0
176
     1
290
     0
176
     1
290
     0
176
     1
 90
       50
176
     1
 40
0.0
176
     1
 40
1.0
176
     1
 90
        0
176
     1
 62
    18
420
        0
176
     1
 90
       50
176
     1
 90
        3
176
     1
 62
     5
420
      255
176
     1
290
     0
176
     1
 90
       50
176
     1
 90
       50
176
     1
 90
       50
176
     1
290
     0
176
     1
 90
       50
176
     1
 62
   256
176
     0
 40
1.0
176
     0
 90
        2
176
     1
  1
strokes_ogs.tif
176
     1
290
     0
176
     1
 40
1.0
176
     1
 40
1.0
176
     1
  0
VISUALSTYLE
  5
8304
102
{ACAD_REACTORS
330
8300
102
}
330
8300
100
AcDbVisualStyle
  2
GouraudWithEdges
 70
     3
177
     3
291
     1
 70
    58
 90
        2
176
     1
 90
        2
176
     1
 90
        1
176
     1
 90
        2
176
     1
 40
0.6
176
     1
 40
30.0
176
     1
 62
     7
420
 16777215
176
     1
 90
        1
176
     1
 90
        0
176
     1
 62
     7
176
     1
 62
   257
176
     1
 90
        1
176
     1
 90
        1
176
     1
 40
1.0
176
     1
 90
        0
176
     1
 62
   257
176
     1
 40
1.0
176
     1
 90
        1
176
     1
 90
        6
176
     1
 90
        2
176
     1
 62
     7
176
     1
 90
        5
176
     1
 90
        0
176
     1
 90
        0
176
     1
290
     0
176
     1
 90
       13
176
     1
 40
0.0
176
     1
 90
        0
176
     1
290
     0
176
     1
290
     1
176
     1
290
     1
176
     1
290
     0
176
     1
290
     0
176
     1
290
     0
176
     1
290
     0
176
     1
290
     0
176
     1
290
     0
176
     1
 90
       50
176
     1
 40
0.0
176
     1
 40
1.0
176
     1
 90
        0
176
     1
 62
    18
420
        0
176
     1
 90
       50
176
     1
 90
        3
176
     1
 62
     5
420
      255
176
     1
290
     0
176
     1
 90
       50
176
     1
 90
       50
176
     1
 90
       50
176
     1
290
     0
176
     1
 90
       50
176
     1
 62
   256
176
     0
 40
1.0
176
     0
 90
        2
176
     1
  1
strokes_ogs.tif
176
     1
290
     0
176
     1
 40
1.0
176
     1
 40
1.0
176
     1
  0
VISUALSTYLE
  5
8308
102
{ACAD_REACTORS
330
8300
102
}
330
8300
100
AcDbVisualStyle
  2
Hidden
 70
     6
177
     3
291
     0
 70
    58
 90
        1
176
     1
 90
        2
176
     1
 90
        2
176
     1
 90
        0
176
     1
 40
0.6
176
     1
 40
30.0
176
     1
 62
     7
420
 16777215
176
     1
 90
        2
176
     1
 90
        2
176
     1
 62
     7
176
     1
 62
   257
176
     1
 90
        2
176
     1
 90
        1
176
     1
 40
40.0
176
     1
 90
        0
176
     1
 62
   257
176
     1
 40
1.0
176
     1
 90
        1
176
     1
 90
        6
176
     1
 90
        2
176
     1
 62
     7
176
     1
 90
        3
176
     1
 90
        0
176
     1
 90
        0
176
     1
290
     0
176
     1
 90
        1
176
     1
 40
0.0
176
     1
 90
        0
176
     1
290
     0
176
     1
290
     1
176
     1
290
     1
176
     1
290
     0
176
     1
290
     0
176
     1
290
     0
176
     1
290
     0
176
     1
290
     0
176
     1
290
     0
176
     1
 90
       50
176
     1
 40
0.0
176
     1
 40
1.0
176
     1
 90
        0
176
     1
 62
    18
420
        0
176
     1
 90
       50
176
     1
 90
        3
176
     1
 62
     5
420
      255
176
     1
290
     0
176
     1
 90
       50
176
     1
 90
       50
176
     1
 90
       50
176
     1
290
     0
176
     1
 90
       50
176
     1
 62
   256
176
     0
 40
1.0
176
     0
 90
        2
176
     1
  1
strokes_ogs.tif
176
     1
290
     0
176
     1
 40
1.0
176
     1
 40
1.0
176
     1
  0
VISUALSTYLE
  5
8316
102
{ACAD_REACTORS
330
8300
102
}
330
8300
100
AcDbVisualStyle
  2
JitterOff
 70
    20
177
     3
291
     1
 70
    58
 90
        2
176
     0
 90
        2
176
     0
 90
        0
176
     0
 90
        0
176
     0
 40
0.6
176
     0
 40
30.0
176
     0
 62
     7
420
 16777215
176
     0
 90
        1
176
     0
 90
        4
176
     0
 62
     7
176
     0
 62
   257
176
     0
 90
        1
176
     0
 90
        1
176
     0
 40
1.0
176
     0
 90
       10
176
     2
 62
     7
176
     0
 40
1.0
176
     0
 90
        1
176
     0
 90
        6
176
     0
 90
        2
176
     0
 62
     7
176
     0
 90
        5
176
     0
 90
        0
176
     0
 90
        0
176
     0
290
     0
176
     0
 90
        1
176
     0
 40
0.0
176
     0
 90
        0
176
     0
290
     0
176
     1
290
     1
176
     1
290
     1
176
     1
290
     0
176
     1
290
     0
176
     1
290
     0
176
     1
290
     0
176
     1
290
     0
176
     1
290
     0
176
     1
 90
       50
176
     0
 40
0.0
176
     0
 40
1.0
176
     0
 90
        0
176
     0
 62
    18
420
        0
176
     0
 90
       50
176
     0
 90
        3
176
     0
 62
     5
420
      255
176
     0
290
     0
176
     1
 90
       50
176
     0
 90
       50
176
     0
 90
       50
176
     0
290
     0
176
     1
 90
       50
176
     0
 62
   256
176
     0
 40
1.0
176
     0
 90
        2
176
     0
  1
strokes_ogs.tif
176
     0
290
     0
176
     1
 40
1.0
176
     0
 40
1.0
176
     0
  0
VISUALSTYLE
  5
830E
102
{ACAD_REACTORS
330
8300
102
}
330
8300
100
AcDbVisualStyle
  2
Linepattern
 70
    14
177
     3
291
     1
 70
    58
 90
        2
176
     1
 90
        2
176
     1
 90
        0
176
     1
 90
        0
176
     1
 40
0.6
176
     1
 40
30.0
176
     1
 62
     7
420
 16777215
176
     1
 90
        1
176
     1
 90
        4
176
     1
 62
     7
176
     1
 62
   257
176
     1
 90
        7
176
     1
 90
        7
176
     1
 40
1.0
176
     1
 90
        8
176
     1
 62
     7
176
     1
 40
1.0
176
     1
 90
        1
176
     1
 90
        6
176
     1
 90
        2
176
     1
 62
     7
176
     1
 90
        5
176
     1
 90
        0
176
     1
 90
        0
176
     1
290
     0
176
     1
 90
        1
176
     1
 40
0.0
176
     1
 90
        0
176
     1
290
     0
176
     1
290
     1
176
     1
290
     1
176
     1
290
     0
176
     1
290
     0
176
     1
290
     0
176
     1
290
     0
176
     1
290
     0
176
     1
290
     0
176
     1
 90
       50
176
     1
 40
0.0
176
     1
 40
1.0
176
     1
 90
        0
176
     1
 62
    18
420
        0
176
     1
 90
       50
176
     1
 90
        3
176
     1
 62
     5
420
      255
176
     1
290
     0
176
     1
 90
       50
176
     1
 90
       50
176
     1
 90
       50
176
     1
290
     0
176
     1
 90
       50
176
     1
 62
   256
176
     0
 40
1.0
176
     0
 90
        2
176
     1
  1
strokes_ogs.tif
176
     1
290
     0
176
     1
 40
1.0
176
     1
 40
1.0
176
     1
  0
VISUALSTYLE
  5
8317
102
{ACAD_REACTORS
330
8300
102
}
330
8300
100
AcDbVisualStyle
  2
OverhangOff
 70
    21
177
     3
291
     1
 70
    58
 90
        2
176
     0
 90
        2
176
     0
 90
        0
176
     0
 90
        0
176
     0
 40
0.6
176
     0
 40
30.0
176
     0
 62
     7
420
 16777215
176
     0
 90
        1
176
     0
 90
        4
176
     0
 62
     7
176
     0
 62
   257
176
     0
 90
        1
176
     0
 90
        1
176
     0
 40
1.0
176
     0
 90
        9
176
     2
 62
     7
176
     0
 40
1.0
176
     0
 90
        1
176
     0
 90
        6
176
     0
 90
        2
176
     0
 62
     7
176
     0
 90
        5
176
     0
 90
        0
176
     0
 90
        0
176
     0
290
     0
176
     0
 90
        1
176
     0
 40
0.0
176
     0
 90
        0
176
     0
290
     0
176
     1
290
     1
176
     1
290
     1
176
     1
290
     0
176
     1
290
     0
176
     1
290
     0
176
     1
290
     0
176
     1
290
     0
176
     1
290
     0
176
     1
 90
       50
176
     0
 40
0.0
176
     0
 40
1.0
176
     0
 90
        0
176
     0
 62
    18
420
        0
176
     0
 90
       50
176
     0
 90
        3
176
     0
 62
     5
420
      255
176
     0
290
     0
176
     1
 90
       50
176
     0
 90
       50
176
     0
 90
       50
176
     0
290
     0
176
     1
 90
       50
176
     0
 62
   256
176
     0
 40
1.0
176
     0
 90
        2
176
     0
  1
strokes_ogs.tif
176
     0
290
     0
176
     1
 40
1.0
176
     0
 40
1.0
176
     0
  0
VISUALSTYLE
  5
830A
102
{ACAD_REACTORS
330
8300
102
}
330
8300
100
AcDbVisualStyle
  2
Realistic
 70
     8
177
     3
291
     0
 70
    58
 90
        2
176
     1
 90
        3
176
     1
 90
        0
176
     1
 90
        2
176
     1
 40
0.6
176
     1
 40
30.0
176
     1
 62
     7
420
 16777215
176
     1
 90
        0
176
     1
 90
        0
176
     1
 62
     7
176
     1
 62
   257
176
     1
 90
        1
176
     1
 90
        1
176
     1
 40
1.0
176
     1
 90
        8
176
     1
 62
   257
176
     1
 40
1.0
176
     1
 90
        1
176
     1
 90
        6
176
     1
 90
        2
176
     1
 62
     7
176
     1
 90
        3
176
     1
 90
        0
176
     1
 90
        0
176
     1
290
     0
176
     1
 90
       13
176
     1
 40
0.0
176
     1
 90
        0
176
     1
290
     0
176
     1
290
     1
176
     1
290
     1
176
     1
290
     0
176
     1
290
     0
176
     1
290
     0
176
     1
290
     0
176
     1
290
     0
176
     1
290
     0
176
     1
 90
       50
176
     1
 40
0.0
176
     1
 40
1.0
176
     1
 90
        0
176
     1
 62
    18
420
        0
176
     1
 90
       50
176
     1
 90
        3
176
     1
 62
     5
420
      255
176
     1
290
     0
176
     1
 90
       50
176
     1
 90
       50
176
     1
 90
       50
176
     1
290
     0
176
     1
 90
       50
176
     1
 62
   256
176
     0
 40
1.0
176
     0
 90
        2
176
     1
  1
strokes_ogs.tif
176
     1
290
     0
176
     1
 40
1.0
176
     1
 40
1.0
176
     1
  0
VISUALSTYLE
  5
8315
102
{ACAD_REACTORS
330
8300
102
}
330
8300
100
AcDbVisualStyle
  2
Shaded
 70
    27
177
     3
291
     0
 70
    58
 90
        2
176
     1
 90
        2
176
     1
 90
        1
176
     1
 90
        2
176
     1
 40
0.6
176
     1
 40
30.0
176
     1
 62
     7
420
 16777215
176
     1
 90
        0
176
     1
 90
        4
176
     1
 62
     7
176
     1
 62
   257
176
     1
 90
        1
176
     1
 90
        1
176
     1
 40
1.0
176
     1
 90
        8
176
     1
 62
   257
176
     1
 40
1.0
176
     1
 90
        1
176
     1
 90
        6
176
     1
 90
        2
176
     1
 62
     8
420
  7895160
176
     1
 90
        3
176
     1
 90
        0
176
     1
 90
        0
176
     1
290
     0
176
     1
 90
        5
176
     1
 40
0.0
176
     1
 90
        0
176
     1
290
     0
176
     1
290
     1
176
     1
290
     1
176
     1
290
     0
176
     1
290
     0
176
     1
290
     0
176
     1
290
     0
176
     1
290
     0
176
     1
290
     0
176
     1
 90
       50
176
     1
 40
0.0
176
     1
 40
1.0
176
     1
 90
        0
176
     1
 62
    18
420
        0
176
     1
 90
       50
176
     1
 90
        3
176
     1
 62
     5
420
      255
176
     1
290
     0
176
     1
 90
       50
176
     1
 90
       50
176
     1
 90
       50
176
     1
290
     0
176
     1
 90
       50
176
     1
 62
   256
176
     0
 40
1.0
176
     0
 90
        2
176
     1
  1
strokes_ogs.tif
176
     1
290
     0
176
     1
 40
1.0
176
     1
 40
1.0
176
     1
  0
VISUALSTYLE
  5
8314
102
{ACAD_REACTORS
330
8300
102
}
330
8300
100
AcDbVisualStyle
  2
Shaded with edges
 70
    26
177
     3
291
     0
 70
    58
 90
        2
176
     1
 90
        2
176
     1
 90
        1
176
     1
 90
        2
176
     1
 40
0.6
176
     1
 40
30.0
176
     1
 62
     7
420
 16777215
176
     1
 90
        1
176
     1
 90
        2
176
     1
 62
     7
176
     1
 62
   257
176
     1
 90
        2
176
     1
 90
        1
176
     1
 40
1.0
176
     1
 90
        8
176
     1
 62
   257
176
     1
 40
1.0
176
     1
 90
        1
176
     1
 90
        6
176
     1
 90
        2
176
     1
 62
     7
176
     1
 90
        3
176
     1
 90
        0
176
     1
 90
        0
176
     1
290
     0
176
     1
 90
        5
176
     1
 40
0.0
176
     1
 90
        0
176
     1
290
     0
176
     1
290
     1
176
     1
290
     1
176
     1
290
     0
176
     1
290
     0
176
     1
290
     0
176
     1
290
     0
176
     1
290
     0
176
     1
290
     0
176
     1
 90
       50
176
     1
 40
0.0
176
     1
 40
1.0
176
     1
 90
        0
176
     1
 62
    18
420
        0
176
     1
 90
       50
176
     1
 90
        3
176
     1
 62
     5
420
      255
176
     1
290
     0
176
     1
 90
       50
176
     1
 90
       50
176
     1
 90
       50
176
     1
290
     0
176
     1
 90
       50
176
     1
 62
   256
176
     0
 40
1.0
176
     0
 90
        2
176
     1
  1
strokes_ogs.tif
176
     1
290
     0
176
     1
 40
1.0
176
     1
 40
1.0
176
     1
  0
VISUALSTYLE
  5
8311
102
{ACAD_REACTORS
330
8300
102
}
330
8300
100
AcDbVisualStyle
  2
Shades of Gray
 70
    23
177
     3
291
     0
 70
    58
 90
        2
176
     1
 90
        2
176
     1
 90
        3
176
     1
 90
        0
176
     1
 40
0.6
176
     1
 40
30.0
176
     1
 62
     7
420
 16777215
176
     1
 90
        2
176
     1
 90
        2
176
     1
 62
     7
176
     1
 62
     7
176
     1
 90
        1
176
     1
 90
        1
176
     1
 40
40.0
176
     1
 90
        8
176
     1
 62
     7
176
     1
 40
1.0
176
     1
 90
        1
176
     1
 90
        6
176
     1
 90
        2
176
     1
 62
     7
176
     1
 90
        3
176
     1
 90
        0
176
     1
 90
        0
176
     1
290
     0
176
     1
 90
        1
176
     1
 40
0.0
176
     1
 90
        0
176
     1
290
     0
176
     1
290
     1
176
     1
290
     1
176
     1
290
     0
176
     1
290
     0
176
     1
290
     0
176
     1
290
     0
176
     1
290
     0
176
     1
290
     0
176
     1
 90
       50
176
     1
 40
0.0
176
     1
 40
1.0
176
     1
 90
        0
176
     1
 62
    18
420
        0
176
     1
 90
       50
176
     1
 90
        3
176
     1
 62
     5
420
      255
176
     1
290
     0
176
     1
 90
       50
176
     1
 90
       50
176
     1
 90
       50
176
     1
290
     0
176
     1
 90
       50
176
     1
 62
   256
176
     0
 40
1.0
176
     0
 90
        2
176
     1
  1
strokes_ogs.tif
176
     1
290
     0
176
     1
 40
1.0
176
     1
 40
1.0
176
     1
  0
VISUALSTYLE
  5
8312
102
{ACAD_REACTORS
330
8300
102
}
330
8300
100
AcDbVisualStyle
  2
Sketchy
 70
    24
177
     3
291
     0
 70
    58
 90
        1
176
     1
 90
        2
176
     1
 90
        2
176
     1
 90
        0
176
     1
 40
0.6
176
     1
 40
30.0
176
     1
 62
     7
420
 16777215
176
     1
 90
        2
176
     1
 90
        2
176
     1
 62
     7
176
     1
 62
     7
176
     1
 90
        1
176
     1
 90
        1
176
     1
 40
40.0
176
     1
 90
       11
176
     1
 62
     7
176
     1
 40
1.0
176
     1
 90
        1
176
     1
 90
        6
176
     1
 90
        2
176
     1
 62
     7
176
     1
 90
        6
176
     1
 90
        0
176
     1
 90
        0
176
     1
290
     0
176
     1
 90
        1
176
     1
 40
0.0
176
     1
 90
        0
176
     1
290
     0
176
     1
290
     1
176
     1
290
     1
176
     1
290
     0
176
     1
290
     0
176
     1
290
     0
176
     1
290
     0
176
     1
290
     0
176
     1
290
     0
176
     1
 90
       50
176
     1
 40
0.0
176
     1
 40
1.0
176
     1
 90
        0
176
     1
 62
    18
420
        0
176
     1
 90
       50
176
     1
 90
        3
176
     1
 62
     5
420
      255
176
     1
290
     0
176
     1
 90
       50
176
     1
 90
       50
176
     1
 90
       50
176
     1
290
     0
176
     1
 90
       50
176
     1
 62
   256
176
     0
 40
1.0
176
     0
 90
        2
176
     1
  1
strokes_ogs.tif
176
     1
290
     0
176
     1
 40
1.0
176
     1
 40
1.0
176
     1
  0
VISUALSTYLE
  5
830D
102
{ACAD_REACTORS
330
8300
102
}
330
8300
100
AcDbVisualStyle
  2
Thicken
 70
    13
177
     3
291
     1
 70
    58
 90
        2
176
     1
 90
        2
176
     1
 90
        0
176
     1
 90
        0
176
     1
 40
0.6
176
     1
 40
30.0
176
     1
 62
     7
420
 16777215
176
     1
 90
        1
176
     1
 90
        4
176
     1
 62
     7
176
     1
 62
   257
176
     1
 90
        1
176
     1
 90
        1
176
     1
 40
1.0
176
     1
 90
       12
176
     1
 62
     7
176
     1
 40
1.0
176
     1
 90
        1
176
     1
 90
        6
176
     1
 90
        2
176
     1
 62
     7
176
     1
 90
        5
176
     1
 90
        0
176
     1
 90
        0
176
     1
290
     0
176
     1
 90
        1
176
     1
 40
0.0
176
     1
 90
        0
176
     1
290
     0
176
     1
290
     1
176
     1
290
     1
176
     1
290
     0
176
     1
290
     0
176
     1
290
     0
176
     1
290
     0
176
     1
290
     0
176
     1
290
     0
176
     1
 90
       50
176
     1
 40
0.0
176
     1
 40
1.0
176
     1
 90
        0
176
     1
 62
    18
420
        0
176
     1
 90
       50
176
     1
 90
        3
176
     1
 62
     5
420
      255
176
     1
290
     0
176
     1
 90
       50
176
     1
 90
       50
176
     1
 90
       50
176
     1
290
     0
176
     1
 90
       50
176
     1
 62
   256
176
     0
 40
1.0
176
     0
 90
        2
176
     1
  1
strokes_ogs.tif
176
     1
290
     0
176
     1
 40
1.0
176
     1
 40
1.0
176
     1
  0
VISUALSTYLE
  5
8307
102
{ACAD_REACTORS
330
8300
102
}
330
8300
100
AcDbVisualStyle
  2
Wireframe
 70
     5
177
     3
291
     0
 70
    58
 90
        0
176
     1
 90
        2
176
     1
 90
        0
176
     1
 90
        0
176
     1
 40
0.6
176
     1
 40
30.0
176
     1
 62
     7
420
 16777215
176
     1
 90
        1
176
     1
 90
        4
176
     1
 62
     7
176
     1
 62
   257
176
     1
 90
        1
176
     1
 90
        1
176
     1
 40
1.0
176
     1
 90
        0
176
     1
 62
   257
176
     1
 40
1.0
176
     1
 90
        1
176
     1
 90
        6
176
     1
 90
        2
176
     1
 62
     7
176
     1
 90
        3
176
     1
 90
        0
176
     1
 90
        0
176
     1
290
     0
176
     1
 90
        1
176
     1
 40
0.0
176
     1
 90
        0
176
     1
290
     0
176
     1
290
     1
176
     1
290
     1
176
     1
290
     0
176
     1
290
     0
176
     1
290
     0
176
     1
290
     0
176
     1
290
     0
176
     1
290
     0
176
     1
 90
       50
176
     1
 40
0.0
176
     1
 40
1.0
176
     1
 90
        0
176
     1
 62
    18
420
        0
176
     1
 90
       50
176
     1
 90
        3
176
     1
 62
     5
420
      255
176
     1
290
     0
176
     1
 90
       50
176
     1
 90
       50
176
     1
 90
       50
176
     1
290
     0
176
     1
 90
       50
176
     1
 62
   256
176
     0
 40
1.0
176
     0
 90
        2
176
     1
  1
strokes_ogs.tif
176
     1
290
     0
176
     1
 40
1.0
176
     1
 40
1.0
176
     1
  0
VISUALSTYLE
  5
8313
102
{ACAD_REACTORS
330
8300
102
}
330
8300
100
AcDbVisualStyle
  2
X-Ray
 70
    25
177
     3
291
     0
 70
    58
 90
        2
176
     1
 90
        2
176
     1
 90
        1
176
     1
 90
        1
176
     1
 40
0.5
176
     1
 40
30.0
176
     1
 62
     7
420
 16777215
176
     1
 90
        1
176
     1
 90
        0
176
     1
 62
     7
176
     1
 62
   257
176
     1
 90
        1
176
     1
 90
        1
176
     1
 40
1.0
176
     1
 90
        8
176
     1
 62
     7
176
     1
 40
1.0
176
     1
 90
        1
176
     1
 90
        6
176
     1
 90
        2
176
     1
 62
     7
176
     1
 90
        3
176
     1
 90
        0
176
     1
 90
        0
176
     1
290
     0
176
     1
 90
       13
176
     1
 40
0.0
176
     1
 90
        0
176
     1
290
     0
176
     1
290
     1
176
     1
290
     1
176
     1
290
     0
176
     1
290
     0
176
     1
290
     0
176
     1
290
     0
176
     1
290
     0
176
     1
290
     0
176
     1
 90
       50
176
     1
 40
0.0
176
     1
 40
1.0
176
     1
 90
        0
176
     1
 62
    18
420
        0
176
     1
 90
       50
176
     1
 90
        3
176
     1
 62
     5
420
      255
176
     1
290
     0
176
     1
 90
       50
176
     1
 90
       50
176
     1
 90
       50
176
     1
290
     0
176
     1
 90
       50
176
     1
 62
   256
176
     0
 40
1.0
176
     0
 90
        2
176
     1
  1
strokes_ogs.tif
176
     1
290
     0
176
     1
 40
1.0
176
     1
 40
1.0
176
     1
  0
DICTIONARYVAR
  5
836C
102
{ACAD_REACTORS
330
810C
102
}
330
810C
100
DictionaryVariables
280
     0
  1
1:1
  0
DICTIONARYVAR
  5
8368
102
{ACAD_REACTORS
330
810C
102
}
330
810C
100
DictionaryVariables
280
     0
  1
STANDARD
  0
DICTIONARYVAR
  5
8367
102
{ACAD_REACTORS
330
810C
102
}
330
810C
100
DictionaryVariables
280
     0
  1
STANDARD
  0
DICTIONARYVAR
  5
8369
102
{ACAD_REACTORS
330
810C
102
}
330
810C
100
DictionaryVariables
280
     0
  1
Imperial24
  0
DICTIONARYVAR
  5
836A
102
{ACAD_REACTORS
330
810C
102
}
330
810C
100
DictionaryVariables
280
     0
  1
Imperial24
  0
DICTIONARYVAR
  5
810D
102
{ACAD_REACTORS
330
810C
102
}
330
810C
100
DictionaryVariables
280
     0
  1
1
  0
DICTIONARYVAR
  5
836E
102
{ACAD_REACTORS
330
810C
102
}
330
810C
100
DictionaryVariables
280
     0
  1
1
  0
DICTIONARYVAR
  5
836F
102
{ACAD_REACTORS
330
810C
102
}
330
810C
100
DictionaryVariables
280
     0
  1
15
  0
DICTIONARYVAR
  5
836D
102
{ACAD_REACTORS
330
810C
102
}
330
810C
100
DictionaryVariables
280
     0
  1
0
  0
DICTIONARYVAR
  5
836B
102
{ACAD_REACTORS
330
810C
102
}
330
810C
100
DictionaryVariables
280
     0
  1
0
  0
DICTIONARY
  5
82F1
330
82F0
100
AcDbDictionary
280
     1
281
     1
  3
BUMPTILE
360
82F3
  3
DIFFUSETILE
360
82F2
  3
OPACITYTILE
360
82F6
  3
REFLECTIONTILE
360
82F5
  3
REFRACTIONTILE
360
82F7
  3
SPECULARTILE
360
82F4
  0
DICTIONARY
  5
82E9
330
82E8
100
AcDbDictionary
280
     1
281
     1
  3
BUMPTILE
360
82EB
  3
DIFFUSETILE
360
82EA
  3
OPACITYTILE
360
82EE
  3
REFLECTIONTILE
360
82ED
  3
REFRACTIONTILE
360
82EF
  3
SPECULARTILE
360
82EC
  0
DICTIONARY
  5
82F9
330
82F8
100
AcDbDictionary
280
     1
281
     1
  3
BUMPTILE
360
82FB
  3
DIFFUSETILE
360
82FA
  3
OPACITYTILE
360
82FE
  3
REFLECTIONTILE
360
82FD
  3
REFRACTIONTILE
360
82FF
  3
SPECULARTILE
360
82FC
  0
DICTIONARY
  5
8371
330
831B
100
AcDbDictionary
280
     1
281
     1
  3
ACAD_ROUNDTRIP_2008_TABLESTYLE_CELLSTYLEMAP
360
8372
  0
XRECORD
  5
82F3
102
{ACAD_REACTORS
330
82F1
102
}
330
82F1
100
AcDbXrecord
280
     1
270
     1
271
     1
  0
XRECORD
  5
82F2
102
{ACAD_REACTORS
330
82F1
102
}
330
82F1
100
AcDbXrecord
280
     1
270
     1
271
     1
  0
XRECORD
  5
82F6
102
{ACAD_REACTORS
330
82F1
102
}
330
82F1
100
AcDbXrecord
280
     1
270
     1
271
     1
  0
XRECORD
  5
82F5
102
{ACAD_REACTORS
330
82F1
102
}
330
82F1
100
AcDbXrecord
280
     1
270
     1
271
     1
  0
XRECORD
  5
82F7
102
{ACAD_REACTORS
330
82F1
102
}
330
82F1
100
AcDbXrecord
280
     1
270
     1
271
     1
  0
XRECORD
  5
82F4
102
{ACAD_REACTORS
330
82F1
102
}
330
82F1
100
AcDbXrecord
280
     1
270
     1
271
     1
  0
XRECORD
  5
82EB
102
{ACAD_REACTORS
330
82E9
102
}
330
82E9
100
AcDbXrecord
280
     1
270
     1
271
     1
  0
XRECORD
  5
82EA
102
{ACAD_REACTORS
330
82E9
102
}
330
82E9
100
AcDbXrecord
280
     1
270
     1
271
     1
  0
XRECORD
  5
82EE
102
{ACAD_REACTORS
330
82E9
102
}
330
82E9
100
AcDbXrecord
280
     1
270
     1
271
     1
  0
XRECORD
  5
82ED
102
{ACAD_REACTORS
330
82E9
102
}
330
82E9
100
AcDbXrecord
280
     1
270
     1
271
     1
  0
XRECORD
  5
82EF
102
{ACAD_REACTORS
330
82E9
102
}
330
82E9
100
AcDbXrecord
280
     1
270
     1
271
     1
  0
XRECORD
  5
82EC
102
{ACAD_REACTORS
330
82E9
102
}
330
82E9
100
AcDbXrecord
280
     1
270
     1
271
     1
  0
XRECORD
  5
82FB
102
{ACAD_REACTORS
330
82F9
102
}
330
82F9
100
AcDbXrecord
280
     1
270
     1
271
     1
  0
XRECORD
  5
82FA
102
{ACAD_REACTORS
330
82F9
102
}
330
82F9
100
AcDbXrecord
280
     1
270
     1
271
     1
  0
XRECORD
  5
82FE
102
{ACAD_REACTORS
330
82F9
102
}
330
82F9
100
AcDbXrecord
280
     1
270
     1
271
     1
  0
XRECORD
  5
82FD
102
{ACAD_REACTORS
330
82F9
102
}
330
82F9
100
AcDbXrecord
280
     1
270
     1
271
     1
  0
XRECORD
  5
82FF
102
{ACAD_REACTORS
330
82F9
102
}
330
82F9
100
AcDbXrecord
280
     1
270
     1
271
     1
  0
XRECORD
  5
82FC
102
{ACAD_REACTORS
330
82F9
102
}
330
82F9
100
AcDbXrecord
280
     1
270
     1
271
     1
  0
CELLSTYLEMAP
  5
8372
102
{ACAD_REACTORS
330
8371
102
}
330
8371
100
AcDbCellStyleMap
 90
        3
300
CELLSTYLE
  1
TABLEFORMAT_BEGIN
 90
        5
170
     1
 91
        0
 92
    32768
 62
   257
 93
        1
300
CONTENTFORMAT
  1
CONTENTFORMAT_BEGIN
 90
        0
 91
        0
 92
      512
 93
        0
300

 40
0.0
140
1.0
 94
        5
 62
     0
340
11
144
0.25
309
CONTENTFORMAT_END
171
     0
 94
        0
309
TABLEFORMAT_END
  1
CELLSTYLE_BEGIN
 90
        1
 91
        1
300
_TITLE
309
CELLSTYLE_END
300
CELLSTYLE
  1
TABLEFORMAT_BEGIN
 90
        5
170
     1
 91
        0
 92
        0
 62
   257
 93
        1
300
CONTENTFORMAT
  1
CONTENTFORMAT_BEGIN
 90
        0
 91
        0
 92
      512
 93
        0
300

 40
0.0
140
1.0
 94
        5
 62
     0
340
11
144
0.18
309
CONTENTFORMAT_END
171
     0
 94
        0
309
TABLEFORMAT_END
  1
CELLSTYLE_BEGIN
 90
        2
 91
        1
300
_HEADER
309
CELLSTYLE_END
300
CELLSTYLE
  1
TABLEFORMAT_BEGIN
 90
        5
170
     1
 91
        0
 92
        0
 62
   257
 93
        1
300
CONTENTFORMAT
  1
CONTENTFORMAT_BEGIN
 90
        0
 91
        0
 92
      512
 93
        0
300

 40
0.0
140
1.0
 94
        2
 62
     0
340
11
144
0.18
309
CONTENTFORMAT_END
171
     0
 94
        0
309
TABLEFORMAT_END
  1
CELLSTYLE_BEGIN
 90
        3
 91
        2
300
_DATA
309
CELLSTYLE_END
  0
ENDSEC
  0
EOF
