  0
SECTION
  2
HEADER
  9
$ACADVER
  1
AC1015
  9
$ACADMAINTVER
 70
    10
  9
$DWGCODEPAGE
  3
ANSI_932
  9
$INSBASE
 10
0.0
 20
0.0
 30
0.0
  9
$EXTMIN
 10
-317.9500104239521
 20
-887.0852836296467
 30
0.0
  9
$EXTMAX
 10
837.3650554061057
 20
741.7373687819853
 30
0.0
  9
$LIMMIN
 10
-184.0
 20
-675.0
  9
$LIMMAX
 10
509.0
 20
453.0
  9
$ORTHOMODE
 70
     0
  9
$REGENMODE
 70
     1
  9
$FILLMODE
 70
     1
  9
$QTEXTMODE
 70
     0
  9
$MIRRTEXT
 70
     1
  9
$LTSCALE
 40
10.0
  9
$ATTMODE
 70
     1
  9
$TEXTSIZE
 40
5.0
  9
$TRACEWID
 40
0.05
  9
$TEXTSTYLE
  7
STANDARD1
  9
$CLAYER
  8
30
  9
$CELTYPE
  6
CONTINUOUS
  9
$CECOLOR
 62
   256
  9
$CELTSCALE
 40
1.0
  9
$DISPSILH
 70
     0
  9
$DIMSCALE
 40
1.0
  9
$DIMASZ
 40
2.0
  9
$DIMEXO
 40
10.0
  9
$DIMDLI
 40
0.5
  9
$DIMRND
 40
0.0
  9
$DIMDLE
 40
0.0
  9
$DIMEXE
 40
0.5
  9
$DIMTP
 40
0.0
  9
$DIMTM
 40
0.0
  9
$DIMTXT
 40
10.0
  9
$DIMCEN
 40
0.09
  9
$DIMTSZ
 40
0.0
  9
$DIMTOL
 70
     0
  9
$DIMLIM
 70
     0
  9
$DIMTIH
 70
     0
  9
$DIMTOH
 70
     0
  9
$DIMSE1
 70
     0
  9
$DIMSE2
 70
     0
  9
$DIMTAD
 70
     3
  9
$DIMZIN
 70
    12
  9
$DIMBLK
  1
OPEN
  9
$DIMASO
 70
     1
  9
$DIMSHO
 70
     1
  9
$DIMPOST
  1

  9
$DIMAPOST
  1

  9
$DIMALT
 70
     0
  9
$DIMALTD
 70
     2
  9
$DIMALTF
 40
25.4
  9
$DIMLFAC
 40
1.0
  9
$DIMTOFL
 70
     0
  9
$DIMTVP
 40
0.0
  9
$DIMTIX
 70
     0
  9
$DIMSOXD
 70
     0
  9
$DIMSAH
 70
     0
  9
$DIMBLK1
  1

  9
$DIMBLK2
  1

  9
$DIMSTYLE
  2
STANDARD
  9
$DIMCLRD
 70
     0
  9
$DIMCLRE
 70
     0
  9
$DIMCLRT
 70
     0
  9
$DIMTFAC
 40
1.0
  9
$DIMGAP
 40
2.0
  9
$DIMJUST
 70
     0
  9
$DIMSD1
 70
     0
  9
$DIMSD2
 70
     0
  9
$DIMTOLJ
 70
     1
  9
$DIMTZIN
 70
     0
  9
$DIMALTZ
 70
     0
  9
$DIMALTTZ
 70
     0
  9
$DIMUPT
 70
     0
  9
$DIMDEC
 70
     1
  9
$DIMTDEC
 70
     1
  9
$DIMALTU
 70
     2
  9
$DIMALTTD
 70
     2
  9
$DIMTXSTY
  7
STANDARD
  9
$DIMAUNIT
 70
     0
  9
$DIMADEC
 70
     0
  9
$DIMALTRND
 40
0.0
  9
$DIMAZIN
 70
     3
  9
$DIMDSEP
 70
    46
  9
$DIMATFIT
 70
     3
  9
$DIMFRAC
 70
     0
  9
$DIMLDRBLK
  1
OPEN
  9
$DIMLUNIT
 70
     2
  9
$DIMLWD
 70
    -2
  9
$DIMLWE
 70
    -2
  9
$DIMTMOVE
 70
     0
  9
$LUNITS
 70
     2
  9
$LUPREC
 70
     4
  9
$SKETCHINC
 40
0.1
  9
$FILLETRAD
 40
6.5
  9
$AUNITS
 70
     0
  9
$AUPREC
 70
     0
  9
$MENU
  1
.
  9
$ELEVATION
 40
0.0
  9
$PELEVATION
 40
0.0
  9
$THICKNESS
 40
0.0
  9
$LIMCHECK
 70
     0
  9
$CHAMFERA
 40
0.0
  9
$CHAMFERB
 40
0.0
  9
$CHAMFERC
 40
0.0
  9
$CHAMFERD
 40
0.0
  9
$SKPOLY
 70
     0
  9
$TDCREATE
 40
2452286.555658657
  9
$TDUCREATE
 40
2452286.180658657
  9
$TDUPDATE
 40
2454670.453138923
  9
$TDUUPDATE
 40
2454670.078138923
  9
$TDINDWG
 40
1.6915628356
  9
$TDUSRTIMER
 40
1.6915628356
  9
$USRTIMER
 70
     1
  9
$ANGBASE
 50
0.0
  9
$ANGDIR
 70
     0
  9
$PDMODE
 70
     0
  9
$PDSIZE
 40
0.0
  9
$PLINEWID
 40
0.0
  9
$SPLFRAME
 70
     0
  9
$SPLINETYPE
 70
     6
  9
$SPLINESEGS
 70
     8
  9
$HANDSEED
  5
76C9
  9
$SURFTAB1
 70
     6
  9
$SURFTAB2
 70
     6
  9
$SURFTYPE
 70
     6
  9
$SURFU
 70
     6
  9
$SURFV
 70
     6
  9
$UCSBASE
  2

  9
$UCSNAME
  2

  9
$UCSORG
 10
0.0
 20
0.0
 30
0.0
  9
$UCSXDIR
 10
1.0
 20
0.0
 30
0.0
  9
$UCSYDIR
 10
0.0
 20
1.0
 30
0.0
  9
$UCSORTHOREF
  2

  9
$UCSORTHOVIEW
 70
     0
  9
$UCSORGTOP
 10
0.0
 20
0.0
 30
0.0
  9
$UCSORGBOTTOM
 10
0.0
 20
0.0
 30
0.0
  9
$UCSORGLEFT
 10
0.0
 20
0.0
 30
0.0
  9
$UCSORGRIGHT
 10
0.0
 20
0.0
 30
0.0
  9
$UCSORGFRONT
 10
0.0
 20
0.0
 30
0.0
  9
$UCSORGBACK
 10
0.0
 20
0.0
 30
0.0
  9
$PUCSBASE
  2

  9
$PUCSNAME
  2

  9
$PUCSORG
 10
0.0
 20
0.0
 30
0.0
  9
$PUCSXDIR
 10
1.0
 20
0.0
 30
0.0
  9
$PUCSYDIR
 10
0.0
 20
1.0
 30
0.0
  9
$PUCSORTHOREF
  2

  9
$PUCSORTHOVIEW
 70
     0
  9
$PUCSORGTOP
 10
0.0
 20
0.0
 30
0.0
  9
$PUCSORGBOTTOM
 10
0.0
 20
0.0
 30
0.0
  9
$PUCSORGLEFT
 10
0.0
 20
0.0
 30
0.0
  9
$PUCSORGRIGHT
 10
0.0
 20
0.0
 30
0.0
  9
$PUCSORGFRONT
 10
0.0
 20
0.0
 30
0.0
  9
$PUCSORGBACK
 10
0.0
 20
0.0
 30
0.0
  9
$USERI1
 70
     0
  9
$USERI2
 70
     0
  9
$USERI3
 70
     0
  9
$USERI4
 70
     0
  9
$USERI5
 70
     0
  9
$USERR1
 40
0.0
  9
$USERR2
 40
0.0
  9
$USERR3
 40
0.0
  9
$USERR4
 40
0.0
  9
$USERR5
 40
0.0
  9
$WORLDVIEW
 70
     1
  9
$SHADEDGE
 70
     3
  9
$SHADEDIF
 70
    70
  9
$TILEMODE
 70
     1
  9
$MAXACTVP
 70
    48
  9
$PINSBASE
 10
0.0
 20
0.0
 30
0.0
  9
$PLIMCHECK
 70
     0
  9
$PEXTMIN
 10
4.273573370203961
 20
5.205246163471485
 30
0.0
  9
$PEXTMAX
 10
194.6100952986349
 20
283.0697008572913
 30
0.0
  9
$PLIMMIN
 10
-5.873748779296875
 20
-5.873749732971191
  9
$PLIMMAX
 10
204.0995788574218
 20
291.1369009017943
  9
$UNITMODE
 70
     0
  9
$VISRETAIN
 70
     1
  9
$PLINEGEN
 70
     0
  9
$PSLTSCALE
 70
     1
  9
$TREEDEPTH
 70
  3020
  9
$CMLSTYLE
  2
STANDARD
  9
$CMLJUST
 70
     0
  9
$CMLSCALE
 40
1.0
  9
$PROXYGRAPHICS
 70
     1
  9
$MEASUREMENT
 70
     0
  9
$CELWEIGHT
370
    -1
  9
$ENDCAPS
280
     0
  9
$JOINSTYLE
280
     0
  9
$LWDISPLAY
290
     0
  9
$INSUNITS
 70
     0
  9
$HYPERLINKBASE
  1

  9
$STYLESHEET
  1
KIKI.ctb
  9
$XEDIT
290
     1
  9
$CEPSNTYPE
380
     0
  9
$PSTYLEMODE
290
     1
  9
$FINGERPRINTGUID
  2

  9
$VERSIONGUID
  2
{39D63701-72EF-4994-8E81-505B501239F3}
  9
$EXTNAMES
290
     1
  9
$PSVPSCALE
 40
0.0
  9
$OLESTARTUP
290
     0
  0
ENDSEC
  0
SECTION
  2
CLASSES
  0
CLASS
  1
ACDBDICTIONARYWDFLT
  2
AcDbDictionaryWithDefault
  3
AutoCAD 2000
 90
        0
280
     0
281
     0
  0
CLASS
  1
ACDBPLACEHOLDER
  2
AcDbPlaceHolder
  3
AutoCAD 2000
 90
        0
280
     0
281
     0
  0
CLASS
  1
LAYOUT
  2
AcDbLayout
  3
AutoCAD 2000
 90
        0
280
     0
281
     0
  0
CLASS
  1
LONG_TRANSACTION
  2
AcDbLongTransaction
  3
AutoCAD 2000
 90
    32768
280
     0
281
     0
  0
CLASS
  1
LWPOLYLINE
  2
AcDbPolyline
  3
AutoCAD 2000
 90
    32768
280
     0
281
     1
  0
CLASS
  1
HATCH
  2
AcDbHatch
  3
AutoCAD 2000
 90
    32768
280
     0
281
     1
  0
CLASS
  1
XRECORD
  2
AcDbXrecord
  3
AutoCAD 2000
 90
    32768
280
     0
281
     0
  0
CLASS
  1
LONG_TRANSACTION
  2
AcDbLongTransaction
  3
AutoCAD 2000
 90
    32768
280
     0
281
     0
  0
CLASS
  1
LWPOLYLINE
  2
AcDbPolyline
  3
AutoCAD 2000
 90
    32768
280
     0
281
     1
  0
CLASS
  1
HATCH
  2
AcDbHatch
  3
AutoCAD 2000
 90
    32768
280
     0
281
     1
  0
CLASS
  1
XRECORD
  2
AcDbXrecord
  3
AutoCAD 2000
 90
    32768
280
     0
281
     0
  0
CLASS
  1
LONG_TRANSACTION
  2
AcDbLongTransaction
  3
AutoCAD 2000
 90
    32768
280
     0
281
     0
  0
CLASS
  1
LWPOLYLINE
  2
AcDbPolyline
  3
AutoCAD 2000
 90
    32768
280
     0
281
     1
  0
CLASS
  1
HATCH
  2
AcDbHatch
  3
AutoCAD 2000
 90
    32768
280
     0
281
     1
  0
CLASS
  1
XRECORD
  2
AcDbXrecord
  3
AutoCAD 2000
 90
    32768
280
     0
281
     0
  0
CLASS
  1
LONG_TRANSACTION
  2
AcDbLongTransaction
  3
AutoCAD 2000
 90
    32768
280
     0
281
     0
  0
CLASS
  1
LWPOLYLINE
  2
AcDbPolyline
  3
AutoCAD 2000
 90
    32768
280
     0
281
     1
  0
CLASS
  1
HATCH
  2
AcDbHatch
  3
AutoCAD 2000
 90
    32768
280
     0
281
     1
  0
CLASS
  1
XRECORD
  2
AcDbXrecord
  3
AutoCAD 2000
 90
    32768
280
     0
281
     0
  0
CLASS
  1
LONG_TRANSACTION
  2
AcDbLongTransaction
  3
AutoCAD 2000
 90
    32768
280
     0
281
     0
  0
CLASS
  1
LWPOLYLINE
  2
AcDbPolyline
  3
AutoCAD 2000
 90
    32768
280
     0
281
     1
  0
CLASS
  1
HATCH
  2
AcDbHatch
  3
AutoCAD 2000
 90
    32768
280
     0
281
     1
  0
CLASS
  1
XRECORD
  2
AcDbXrecord
  3
AutoCAD 2000
 90
    32768
280
     0
281
     0
  0
CLASS
  1
LONG_TRANSACTION
  2
AcDbLongTransaction
  3
AutoCAD 2000
 90
    32768
280
     0
281
     0
  0
CLASS
  1
LWPOLYLINE
  2
AcDbPolyline
  3
AutoCAD 2000
 90
    32768
280
     0
281
     1
  0
CLASS
  1
HATCH
  2
AcDbHatch
  3
AutoCAD 2000
 90
    32768
280
     0
281
     1
  0
CLASS
  1
XRECORD
  2
AcDbXrecord
  3
AutoCAD 2000
 90
    32768
280
     0
281
     0
  0
CLASS
  1
LONG_TRANSACTION
  2
AcDbLongTransaction
  3
AutoCAD 2000
 90
    32768
280
     0
281
     0
  0
CLASS
  1
LWPOLYLINE
  2
AcDbPolyline
  3
AutoCAD 2000
 90
    32768
280
     0
281
     1
  0
CLASS
  1
HATCH
  2
AcDbHatch
  3
AutoCAD 2000
 90
    32768
280
     0
281
     1
  0
CLASS
  1
XRECORD
  2
AcDbXrecord
  3
AutoCAD 2000
 90
    32768
280
     0
281
     0
  0
CLASS
  1
LONG_TRANSACTION
  2
AcDbLongTransaction
  3
AutoCAD 2000
 90
    32768
280
     0
281
     0
  0
CLASS
  1
LWPOLYLINE
  2
AcDbPolyline
  3
AutoCAD 2000
 90
    32768
280
     0
281
     1
  0
CLASS
  1
HATCH
  2
AcDbHatch
  3
AutoCAD 2000
 90
    32768
280
     0
281
     1
  0
CLASS
  1
XRECORD
  2
AcDbXrecord
  3
AutoCAD 2000
 90
    32768
280
     0
281
     0
  0
CLASS
  1
LONG_TRANSACTION
  2
AcDbLongTransaction
  3
AutoCAD 2000
 90
    32768
280
     0
281
     0
  0
CLASS
  1
LWPOLYLINE
  2
AcDbPolyline
  3
AutoCAD 2000
 90
    32768
280
     0
281
     1
  0
CLASS
  1
HATCH
  2
AcDbHatch
  3
AutoCAD 2000
 90
    32768
280
     0
281
     1
  0
CLASS
  1
XRECORD
  2
AcDbXrecord
  3
AutoCAD 2000
 90
    32768
280
     0
281
     0
  0
CLASS
  1
LONG_TRANSACTION
  2
AcDbLongTransaction
  3
AutoCAD 2000
 90
    32768
280
     0
281
     0
  0
CLASS
  1
LWPOLYLINE
  2
AcDbPolyline
  3
AutoCAD 2000
 90
    32768
280
     0
281
     1
  0
CLASS
  1
HATCH
  2
AcDbHatch
  3
AutoCAD 2000
 90
    32768
280
     0
281
     1
  0
CLASS
  1
XRECORD
  2
AcDbXrecord
  3
AutoCAD 2000
 90
    32768
280
     0
281
     0
  0
CLASS
  1
LONG_TRANSACTION
  2
AcDbLongTransaction
  3
AutoCAD 2000
 90
    32768
280
     0
281
     0
  0
CLASS
  1
LWPOLYLINE
  2
AcDbPolyline
  3
AutoCAD 2000
 90
    32768
280
     0
281
     1
  0
CLASS
  1
HATCH
  2
AcDbHatch
  3
AutoCAD 2000
 90
    32768
280
     0
281
     1
  0
CLASS
  1
XRECORD
  2
AcDbXrecord
  3
AutoCAD 2000
 90
    32768
280
     0
281
     0
  0
CLASS
  1
LONG_TRANSACTION
  2
AcDbLongTransaction
  3
AutoCAD 2000
 90
    32768
280
     0
281
     0
  0
CLASS
  1
LWPOLYLINE
  2
AcDbPolyline
  3
AutoCAD 2000
 90
    32768
280
     0
281
     1
  0
CLASS
  1
HATCH
  2
AcDbHatch
  3
AutoCAD 2000
 90
    32768
280
     0
281
     1
  0
CLASS
  1
XRECORD
  2
AcDbXrecord
  3
AutoCAD 2000
 90
    32768
280
     0
281
     0
  0
CLASS
  1
LONG_TRANSACTION
  2
AcDbLongTransaction
  3
AutoCAD 2000
 90
    32768
280
     0
281
     0
  0
CLASS
  1
LWPOLYLINE
  2
AcDbPolyline
  3
AutoCAD 2000
 90
    32768
280
     0
281
     1
  0
CLASS
  1
HATCH
  2
AcDbHatch
  3
AutoCAD 2000
 90
    32768
280
     0
281
     1
  0
CLASS
  1
XRECORD
  2
AcDbXrecord
  3
AutoCAD 2000
 90
    32768
280
     0
281
     0
  0
CLASS
  1
LONG_TRANSACTION
  2
AcDbLongTransaction
  3
AutoCAD 2000
 90
    32768
280
     0
281
     0
  0
CLASS
  1
LWPOLYLINE
  2
AcDbPolyline
  3
AutoCAD 2000
 90
    32768
280
     0
281
     1
  0
CLASS
  1
HATCH
  2
AcDbHatch
  3
AutoCAD 2000
 90
    32768
280
     0
281
     1
  0
CLASS
  1
XRECORD
  2
AcDbXrecord
  3
AutoCAD 2000
 90
    32768
280
     0
281
     0
  0
CLASS
  1
LONG_TRANSACTION
  2
AcDbLongTransaction
  3
AutoCAD 2000
 90
    32768
280
     0
281
     0
  0
CLASS
  1
LWPOLYLINE
  2
AcDbPolyline
  3
AutoCAD 2000
 90
    32768
280
     0
281
     1
  0
CLASS
  1
HATCH
  2
AcDbHatch
  3
AutoCAD 2000
 90
    32768
280
     0
281
     1
  0
CLASS
  1
XRECORD
  2
AcDbXrecord
  3
AutoCAD 2000
 90
    32768
280
     0
281
     0
  0
CLASS
  1
LONG_TRANSACTION
  2
AcDbLongTransaction
  3
AutoCAD 2000
 90
    32768
280
     0
281
     0
  0
CLASS
  1
LWPOLYLINE
  2
AcDbPolyline
  3
AutoCAD 2000
 90
    32768
280
     0
281
     1
  0
CLASS
  1
HATCH
  2
AcDbHatch
  3
AutoCAD 2000
 90
    32768
280
     0
281
     1
  0
CLASS
  1
XRECORD
  2
AcDbXrecord
  3
AutoCAD 2000
 90
    32768
280
     0
281
     0
  0
CLASS
  1
LONG_TRANSACTION
  2
AcDbLongTransaction
  3
AutoCAD 2000
 90
    32768
280
     0
281
     0
  0
CLASS
  1
LWPOLYLINE
  2
AcDbPolyline
  3
AutoCAD 2000
 90
    32768
280
     0
281
     1
  0
CLASS
  1
HATCH
  2
AcDbHatch
  3
AutoCAD 2000
 90
    32768
280
     0
281
     1
  0
CLASS
  1
XRECORD
  2
AcDbXrecord
  3
AutoCAD 2000
 90
    32768
280
     0
281
     0
  0
CLASS
  1
LONG_TRANSACTION
  2
AcDbLongTransaction
  3
AutoCAD 2000
 90
    32768
280
     0
281
     0
  0
CLASS
  1
LWPOLYLINE
  2
AcDbPolyline
  3
AutoCAD 2000
 90
    32768
280
     0
281
     1
  0
CLASS
  1
HATCH
  2
AcDbHatch
  3
AutoCAD 2000
 90
    32768
280
     0
281
     1
  0
CLASS
  1
XRECORD
  2
AcDbXrecord
  3
AutoCAD 2000
 90
    32768
280
     0
281
     0
  0
CLASS
  1
LONG_TRANSACTION
  2
AcDbLongTransaction
  3
AutoCAD 2000
 90
    32768
280
     0
281
     0
  0
CLASS
  1
LWPOLYLINE
  2
AcDbPolyline
  3
AutoCAD 2000
 90
    32768
280
     0
281
     1
  0
CLASS
  1
HATCH
  2
AcDbHatch
  3
AutoCAD 2000
 90
    32768
280
     0
281
     1
  0
CLASS
  1
XRECORD
  2
AcDbXrecord
  3
AutoCAD 2000
 90
    32768
280
     0
281
     0
  0
CLASS
  1
LONG_TRANSACTION
  2
AcDbLongTransaction
  3
AutoCAD 2000
 90
    32768
280
     0
281
     0
  0
CLASS
  1
LWPOLYLINE
  2
AcDbPolyline
  3
AutoCAD 2000
 90
    32768
280
     0
281
     1
  0
CLASS
  1
HATCH
  2
AcDbHatch
  3
AutoCAD 2000
 90
    32768
280
     0
281
     1
  0
CLASS
  1
XRECORD
  2
AcDbXrecord
  3
AutoCAD 2000
 90
    32768
280
     0
281
     0
  0
CLASS
  1
LONG_TRANSACTION
  2
AcDbLongTransaction
  3
AutoCAD 2000
 90
    32768
280
     0
281
     0
  0
CLASS
  1
LWPOLYLINE
  2
AcDbPolyline
  3
AutoCAD 2000
 90
    32768
280
     0
281
     1
  0
CLASS
  1
HATCH
  2
AcDbHatch
  3
AutoCAD 2000
 90
    32768
280
     0
281
     1
  0
CLASS
  1
XRECORD
  2
AcDbXrecord
  3
AutoCAD 2000
 90
    32768
280
     0
281
     0
  0
CLASS
  1
LONG_TRANSACTION
  2
AcDbLongTransaction
  3
AutoCAD 2000
 90
    32768
280
     0
281
     0
  0
CLASS
  1
LWPOLYLINE
  2
AcDbPolyline
  3
AutoCAD 2000
 90
    32768
280
     0
281
     1
  0
CLASS
  1
HATCH
  2
AcDbHatch
  3
AutoCAD 2000
 90
    32768
280
     0
281
     1
  0
CLASS
  1
XRECORD
  2
AcDbXrecord
  3
AutoCAD 2000
 90
    32768
280
     0
281
     0
  0
CLASS
  1
LONG_TRANSACTION
  2
AcDbLongTransaction
  3
AutoCAD 2000
 90
    32768
280
     0
281
     0
  0
CLASS
  1
LWPOLYLINE
  2
AcDbPolyline
  3
AutoCAD 2000
 90
    32768
280
     0
281
     1
  0
CLASS
  1
HATCH
  2
AcDbHatch
  3
AutoCAD 2000
 90
    32768
280
     0
281
     1
  0
CLASS
  1
XRECORD
  2
AcDbXrecord
  3
AutoCAD 2000
 90
    32768
280
     0
281
     0
  0
CLASS
  1
LONG_TRANSACTION
  2
AcDbLongTransaction
  3
AutoCAD 2000
 90
    32768
280
     0
281
     0
  0
CLASS
  1
LWPOLYLINE
  2
AcDbPolyline
  3
AutoCAD 2000
 90
    32768
280
     0
281
     1
  0
CLASS
  1
HATCH
  2
AcDbHatch
  3
AutoCAD 2000
 90
    32768
280
     0
281
     1
  0
CLASS
  1
XRECORD
  2
AcDbXrecord
  3
AutoCAD 2000
 90
    32768
280
     0
281
     0
  0
CLASS
  1
LONG_TRANSACTION
  2
AcDbLongTransaction
  3
AutoCAD 2000
 90
    32768
280
     0
281
     0
  0
CLASS
  1
LWPOLYLINE
  2
AcDbPolyline
  3
AutoCAD 2000
 90
    32768
280
     0
281
     1
  0
CLASS
  1
HATCH
  2
AcDbHatch
  3
AutoCAD 2000
 90
    32768
280
     0
281
     1
  0
CLASS
  1
XRECORD
  2
AcDbXrecord
  3
AutoCAD 2000
 90
    32768
280
     0
281
     0
  0
CLASS
  1
LONG_TRANSACTION
  2
AcDbLongTransaction
  3
AutoCAD 2000
 90
    32768
280
     0
281
     0
  0
CLASS
  1
LWPOLYLINE
  2
AcDbPolyline
  3
AutoCAD 2000
 90
    32768
280
     0
281
     1
  0
CLASS
  1
HATCH
  2
AcDbHatch
  3
AutoCAD 2000
 90
    32768
280
     0
281
     1
  0
CLASS
  1
XRECORD
  2
AcDbXrecord
  3
AutoCAD 2000
 90
    32768
280
     0
281
     0
  0
CLASS
  1
LONG_TRANSACTION
  2
AcDbLongTransaction
  3
AutoCAD 2000
 90
    32768
280
     0
281
     0
  0
CLASS
  1
LWPOLYLINE
  2
AcDbPolyline
  3
AutoCAD 2000
 90
    32768
280
     0
281
     1
  0
CLASS
  1
HATCH
  2
AcDbHatch
  3
AutoCAD 2000
 90
    32768
280
     0
281
     1
  0
CLASS
  1
XRECORD
  2
AcDbXrecord
  3
AutoCAD 2000
 90
    32768
280
     0
281
     0
  0
CLASS
  1
DICTIONARYVAR
  2
AcDbDictionaryVar
  3
AutoCAD 2000
 90
        0
280
     0
281
     0
  0
CLASS
  1
LONG_TRANSACTION
  2
AcDbLongTransaction
  3
AutoCAD 2000
 90
    32768
280
     0
281
     0
  0
CLASS
  1
LWPOLYLINE
  2
AcDbPolyline
  3
AutoCAD 2000
 90
    32768
280
     0
281
     1
  0
CLASS
  1
HATCH
  2
AcDbHatch
  3
AutoCAD 2000
 90
    32768
280
     0
281
     1
  0
CLASS
  1
XRECORD
  2
AcDbXrecord
  3
AutoCAD 2000
 90
    32768
280
     0
281
     0
  0
ENDSEC
  0
SECTION
  2
TABLES
  0
TABLE
  2
VPORT
  5
8
330
0
100
AcDbSymbolTable
 70
     4
  0
VPORT
  5
76C8
330
8
100
AcDbSymbolTableRecord
100
AcDbViewportTableRecord
  2
*Active
 70
     0
 10
0.0
 20
0.0
 11
1.0
 21
1.0
 12
423.2551035229962
 22
-72.70770660865105
 13
0.0
 23
0.0
 14
1.0
 24
1.0
 15
10.0
 25
10.0
 16
0.0
 26
0.0
 36
1.0
 17
0.0
 27
0.0
 37
0.0
 40
1647.261389785523
 41
1.661996497373029
 42
50.0
 43
0.0
 44
0.0
 50
0.0
 51
0.0
 71
     0
 72
   100
 73
     1
 74
     1
 75
     0
 76
     0
 77
     0
 78
     0
281
     0
 65
     1
110
0.0
120
0.0
130
0.0
111
1.0
121
0.0
131
0.0
112
0.0
122
1.0
132
0.0
 79
     0
146
0.0
  0
ENDTAB
  0
TABLE
  2
LTYPE
  5
5
330
0
100
AcDbSymbolTable
 70
     7
  0
LTYPE
  5
13
330
5
100
AcDbSymbolTableRecord
100
AcDbLinetypeTableRecord
  2
BYBLOCK
 70
     0
  3

 72
    65
 73
     0
 40
0.0
  0
LTYPE
  5
14
330
5
100
AcDbSymbolTableRecord
100
AcDbLinetypeTableRecord
  2
BYLAYER
 70
     0
  3

 72
    65
 73
     0
 40
0.0
  0
LTYPE
  5
15
330
5
100
AcDbSymbolTableRecord
100
AcDbLinetypeTableRecord
  2
CONTINUOUS
 70
     0
  3
Solid line
 72
    65
 73
     0
 40
0.0
  0
LTYPE
  5
22
330
5
100
AcDbSymbolTableRecord
100
AcDbLinetypeTableRecord
  2
CONTINOUS
 70
     0
  3
Solid line
 72
    65
 73
     0
 40
0.0
  0
LTYPE
  5
23
330
5
100
AcDbSymbolTableRecord
100
AcDbLinetypeTableRecord
  2
DASHED
 70
     0
  3
__ __ __ __ __ __ __ __ __ __ __ __ __ __ __
 72
    65
 73
     2
 40
0.75
 49
0.5
 74
     0
 49
-0.25
 74
     0
  0
LTYPE
  5
24
330
5
100
AcDbSymbolTableRecord
100
AcDbLinetypeTableRecord
  2
DASHDOT
 70
     0
  3
__ . __ . __ . __ . __ . __ . __ . __ . __ . __
 72
    65
 73
     4
 40
1.0
 49
0.5
 74
     0
 49
-0.25
 74
     0
 49
0.0
 74
     0
 49
-0.25
 74
     0
  0
LTYPE
  5
3932
330
5
100
AcDbSymbolTableRecord
100
AcDbLinetypeTableRecord
  2
DIVIDE
 70
     0
  3
Divide ____ . . ____ . . ____ . . ____ . . ____
 72
    65
 73
     6
 40
1.25
 49
0.5
 74
     0
 49
-0.25
 74
     0
 49
0.0
 74
     0
 49
-0.25
 74
     0
 49
0.0
 74
     0
 49
-0.25
 74
     0
  0
LTYPE
  5
6614
330
5
100
AcDbSymbolTableRecord
100
AcDbLinetypeTableRecord
  2
D1101
 70
     0
  3
IGESIN-LineFont-D1101
 72
    65
 73
     6
 40
11.29999999999999
 49
8.0
 74
     0
 49
-0.6
 74
     0
 49
0.75
 74
     0
 49
-0.6
 74
     0
 49
0.75
 74
     0
 49
-0.6
 74
     0
  0
LTYPE
  5
6A90
330
5
100
AcDbSymbolTableRecord
100
AcDbLinetypeTableRecord
  2
D533
 70
     0
  3
IGESIN-LineFont-D533
 72
    65
 73
     2
 40
1.35
 49
0.75
 74
     0
 49
-0.6
 74
     0
  0
ENDTAB
  0
TABLE
  2
LAYER
  5
2
330
0
100
AcDbSymbolTable
 70
    20
  0
LAYER
  5
10
330
2
100
AcDbSymbolTableRecord
100
AcDbLayerTableRecord
  2
0
 70
     0
 62
     7
  6
CONTINOUS
370
    -3
390
F
  0
LAYER
  5
2F
330
2
100
AcDbSymbolTableRecord
100
AcDbLayerTableRecord
  2
10
 70
     0
 62
     4
  6
CONTINOUS
370
    -3
390
F
  0
LAYER
  5
31
330
2
100
AcDbSymbolTableRecord
100
AcDbLayerTableRecord
  2
12
 70
     0
 62
     3
  6
CONTINOUS
370
    -3
390
F
  0
LAYER
  5
35
330
2
100
AcDbSymbolTableRecord
100
AcDbLayerTableRecord
  2
16
 70
     0
 62
     6
  6
DASHDOT
370
    -3
390
F
  0
LAYER
  5
36
330
2
100
AcDbSymbolTableRecord
100
AcDbLayerTableRecord
  2
17
 70
     0
 62
     2
  6
DASHDOT
370
    -3
390
F
  0
LAYER
  5
38
330
2
100
AcDbSymbolTableRecord
100
AcDbLayerTableRecord
  2
19
 70
     0
 62
     7
  6
CONTINOUS
370
    -3
390
F
  0
LAYER
  5
3C
330
2
100
AcDbSymbolTableRecord
100
AcDbLayerTableRecord
  2
11
 70
     0
 62
     1
  6
CONTINOUS
370
    -3
390
F
  0
LAYER
  5
3D
330
2
100
AcDbSymbolTableRecord
100
AcDbLayerTableRecord
  2
24
 70
     0
 62
     2
  6
CONTINOUS
370
    -3
390
F
  0
LAYER
  5
3A2
330
2
100
AcDbSymbolTableRecord
100
AcDbLayerTableRecord
  2
30
 70
     0
 62
     9
  6
CONTINUOUS
370
    -3
390
F
  0
LAYER
  5
3A4
330
2
100
AcDbSymbolTableRecord
100
AcDbLayerTableRecord
  2
DEFPOINTS
 70
     0
 62
     7
  6
CONTINUOUS
290
     0
370
    -3
390
F
  0
LAYER
  5
3933
330
2
100
AcDbSymbolTableRecord
100
AcDbLayerTableRecord
  2
18
 70
     0
 62
     5
  6
DIVIDE
370
    -3
390
F
  0
LAYER
  5
4709
330
2
100
AcDbSymbolTableRecord
100
AcDbLayerTableRecord
  2
L0_
 70
     0
 62
     7
  6
CONTINUOUS
370
    -3
390
F
  0
LAYER
  5
470B
330
2
100
AcDbSymbolTableRecord
100
AcDbLayerTableRecord
  2
L210_
 70
     0
 62
     7
  6
CONTINUOUS
370
    -3
390
F
  0
LAYER
  5
6615
330
2
100
AcDbSymbolTableRecord
100
AcDbLayerTableRecord
  2
L150_
 70
     0
 62
     7
  6
CONTINUOUS
370
    -3
390
F
  0
LAYER
  5
6616
330
2
100
AcDbSymbolTableRecord
100
AcDbLayerTableRecord
  2
L225_
 70
     0
 62
     7
  6
CONTINUOUS
370
    -3
390
F
  0
LAYER
  5
6617
330
2
100
AcDbSymbolTableRecord
100
AcDbLayerTableRecord
  2
L230_
 70
     0
 62
     7
  6
CONTINUOUS
370
    -3
390
F
  0
LAYER
  5
6691
330
2
100
AcDbSymbolTableRecord
100
AcDbLayerTableRecord
  2
21
 70
     0
 62
     7
  6
CONTINUOUS
370
    -3
390
F
  0
LAYER
  5
678F
330
2
100
AcDbSymbolTableRecord
100
AcDbLayerTableRecord
  2
L10_
 70
     0
 62
     7
  6
CONTINUOUS
370
    -3
390
F
  0
LAYER
  5
6790
330
2
100
AcDbSymbolTableRecord
100
AcDbLayerTableRecord
  2
L170_
 70
     0
 62
     7
  6
CONTINUOUS
370
    -3
390
F
  0
LAYER
  5
680B
330
2
100
AcDbSymbolTableRecord
100
AcDbLayerTableRecord
  2
22
 70
     0
 62
     3
  6
CONTINUOUS
370
    -3
390
F
  0
ENDTAB
  0
TABLE
  2
STYLE
  5
3
330
0
100
AcDbSymbolTable
 70
     3
  0
STYLE
  5
11
330
3
100
AcDbSymbolTableRecord
100
AcDbTextStyleTableRecord
  2
STANDARD
 70
     0
 40
0.0
 41
1.0
 50
0.0
 71
     0
 42
2.0
  3
txt.shx
  4
bigfont.shx
  0
STYLE
  5
42
330
3
100
AcDbSymbolTableRecord
100
AcDbTextStyleTableRecord
  2
STANDARD1
 70
     0
 40
0.0
 41
1.0
 50
0.0
 71
     0
 42
5.0
  3
MONOTXT
  4
BIGFONT
  0
STYLE
  5
3ACF
330
3
100
AcDbSymbolTableRecord
100
AcDbTextStyleTableRecord
  2
SYMBOL3
 70
     0
 40
0.0
 41
1.0
 50
0.0
 71
     0
 42
0.2
  3
iges1003
  4

  0
ENDTAB
  0
TABLE
  2
VIEW
  5
6
330
0
100
AcDbSymbolTable
 70
     3
  0
VIEW
  5
230C
330
6
100
AcDbSymbolTableRecord
100
AcDbViewTableRecord
  2
OLE1
 70
     0
 40
148.9124878027714
 10
429.4976280407223
 20
2.560626997828478
 41
103.1458057716444
 11
0.0
 21
0.0
 31
1.0
 12
0.0
 22
0.0
 32
0.0
 42
50.0
 43
0.0
 44
0.0
 50
0.0
 71
     0
281
     0
 72
     0
  0
VIEW
  5
230E
330
6
100
AcDbSymbolTableRecord
100
AcDbViewTableRecord
  2
OLE2
 70
     0
 40
170.7786920545775
 10
322.664969958371
 20
-5.978304054290276
 41
102.4672152327465
 11
0.0
 21
0.0
 31
1.0
 12
0.0
 22
0.0
 32
0.0
 42
50.0
 43
0.0
 44
0.0
 50
0.0
 71
     0
281
     0
 72
     0
  0
VIEW
  5
23AA
330
6
100
AcDbSymbolTableRecord
100
AcDbViewTableRecord
  2
OLE3
 70
     0
 40
591.7897393182231
 10
84.79698158148218
 20
-46.09336010803996
 41
388.7920961799953
 11
0.0
 21
0.0
 31
1.0
 12
0.0
 22
0.0
 32
0.0
 42
50.0
 43
0.0
 44
0.0
 50
0.0
 71
     0
281
     0
 72
     0
  0
ENDTAB
  0
TABLE
  2
UCS
  5
7
330
0
100
AcDbSymbolTable
 70
     0
  0
ENDTAB
  0
TABLE
  2
APPID
  5
9
330
0
100
AcDbSymbolTable
 70
     2
  0
APPID
  5
12
330
9
100
AcDbSymbolTableRecord
100
AcDbRegAppTableRecord
  2
ACAD
 70
     0
  0
APPID
  5
ECD
330
9
100
AcDbSymbolTableRecord
100
AcDbRegAppTableRecord
  2
CONTENTBLOCKICON
 70
     0
  0
ENDTAB
  0
TABLE
  2
DIMSTYLE
  5
A
330
0
100
AcDbSymbolTable
 70
     1
100
AcDbDimStyleTable
 71
     0
  0
DIMSTYLE
105
175
102
{ACAD_REACTORS
330
6C06
330
6C13
330
6C20
330
6C2D
330
6C3A
330
6C47
330
6C54
330
6C61
330
6C7B
330
6C88
330
6CC0
330
6D31
330
6D3E
330
6D4B
330
6E3A
330
6E3B
330
6E3E
330
6E50
330
6E57
330
6E5A
330
6E5C
330
6F02
330
6F0F
330
6F1C
330
6F2A
330
6F37
330
6F59
330
6F66
330
6F73
330
6950
330
6E4B
330
681B
330
681C
330
6C6E
330
7630
102
}
330
A
100
AcDbSymbolTableRecord
100
AcDbDimStyleTableRecord
  2
STANDARD
 70
     0
 41
2.0
 42
10.0
 43
0.5
 44
0.5
 73
     0
 74
     0
 77
     3
 78
    12
140
10.0
147
2.0
271
     1
272
     1
340
11
341
3B2
342
3B2
  0
ENDTAB
  0
TABLE
  2
BLOCK_RECORD
  5
1
330
0
100
AcDbSymbolTable
 70
    35
  0
BLOCK_RECORD
  5
1E
102
{ACAD_XDICTIONARY
360
178
102
}
330
1
100
AcDbSymbolTableRecord
100
AcDbBlockTableRecord
  2
*MODEL_SPACE
340
76C3
  0
BLOCK_RECORD
  5
1A
102
{ACAD_XDICTIONARY
360
17A
102
}
330
1
100
AcDbSymbolTableRecord
100
AcDbBlockTableRecord
  2
*PAPER_SPACE
340
76C4
  0
BLOCK_RECORD
  5
3B2
330
1
100
AcDbSymbolTableRecord
100
AcDbBlockTableRecord
  2
_OPEN
340
0
102
{BLKREFS
331
747D
331
747E
331
75CF
331
75D0
331
7665
331
7666
331
75C6
331
75C7
331
766E
331
766F
331
75EB
331
75EC
331
7677
331
7678
331
7680
331
7681
331
760F
331
7610
331
74D0
331
74D1
331
762A
331
762B
331
74E2
331
74E3
331
74EB
331
74EC
331
7689
331
768A
331
7692
331
7693
331
7506
331
7507
331
750F
331
7510
331
769B
331
769C
331
7521
331
7522
331
752A
331
752B
331
7532
331
753A
331
753B
331
7543
331
7544
331
754C
331
754D
331
76A4
331
76A5
331
755E
331
755F
331
7567
331
7568
331
758D
331
758E
331
76AD
331
76AE
331
76B6
331
76B7
331
7635
331
7636
102
}
  0
BLOCK_RECORD
  5
46F7
330
1
100
AcDbSymbolTableRecord
100
AcDbBlockTableRecord
  2
B837
340
0
  0
BLOCK_RECORD
  5
67FE
330
1
100
AcDbSymbolTableRecord
100
AcDbBlockTableRecord
  2
A$C33A80D96
340
0
  0
BLOCK_RECORD
  5
6818
330
1
100
AcDbSymbolTableRecord
100
AcDbBlockTableRecord
  2
A$C02AA2CCA
340
0
  0
BLOCK_RECORD
  5
6C07
330
1
100
AcDbSymbolTableRecord
100
AcDbBlockTableRecord
  2
*D4
340
0
  0
BLOCK_RECORD
  5
6C14
330
1
100
AcDbSymbolTableRecord
100
AcDbBlockTableRecord
  2
*D5
340
0
  0
BLOCK_RECORD
  5
6C21
330
1
100
AcDbSymbolTableRecord
100
AcDbBlockTableRecord
  2
*D6
340
0
  0
BLOCK_RECORD
  5
6C2E
330
1
100
AcDbSymbolTableRecord
100
AcDbBlockTableRecord
  2
*D7
340
0
  0
BLOCK_RECORD
  5
6C3B
330
1
100
AcDbSymbolTableRecord
100
AcDbBlockTableRecord
  2
*D8
340
0
  0
BLOCK_RECORD
  5
6C48
330
1
100
AcDbSymbolTableRecord
100
AcDbBlockTableRecord
  2
*D9
340
0
  0
BLOCK_RECORD
  5
6C55
330
1
100
AcDbSymbolTableRecord
100
AcDbBlockTableRecord
  2
*D10
340
0
  0
BLOCK_RECORD
  5
6C62
330
1
100
AcDbSymbolTableRecord
100
AcDbBlockTableRecord
  2
*D11
340
0
  0
BLOCK_RECORD
  5
6C6F
330
1
100
AcDbSymbolTableRecord
100
AcDbBlockTableRecord
  2
*D12
340
0
  0
BLOCK_RECORD
  5
6C7C
330
1
100
AcDbSymbolTableRecord
100
AcDbBlockTableRecord
  2
*D13
340
0
  0
BLOCK_RECORD
  5
6C89
330
1
100
AcDbSymbolTableRecord
100
AcDbBlockTableRecord
  2
*D14
340
0
  0
BLOCK_RECORD
  5
6CD3
330
1
100
AcDbSymbolTableRecord
100
AcDbBlockTableRecord
  2
*D15
340
0
  0
BLOCK_RECORD
  5
6D32
330
1
100
AcDbSymbolTableRecord
100
AcDbBlockTableRecord
  2
*D16
340
0
  0
BLOCK_RECORD
  5
6D3F
330
1
100
AcDbSymbolTableRecord
100
AcDbBlockTableRecord
  2
*D17
340
0
  0
BLOCK_RECORD
  5
6D4C
330
1
100
AcDbSymbolTableRecord
100
AcDbBlockTableRecord
  2
*D18
340
0
  0
BLOCK_RECORD
  5
6E64
330
1
100
AcDbSymbolTableRecord
100
AcDbBlockTableRecord
  2
*D19
340
0
  0
BLOCK_RECORD
  5
6E70
330
1
100
AcDbSymbolTableRecord
100
AcDbBlockTableRecord
  2
*D20
340
0
  0
BLOCK_RECORD
  5
6E7C
330
1
100
AcDbSymbolTableRecord
100
AcDbBlockTableRecord
  2
*D21
340
0
  0
BLOCK_RECORD
  5
6E88
330
1
100
AcDbSymbolTableRecord
100
AcDbBlockTableRecord
  2
*D22
340
0
  0
BLOCK_RECORD
  5
6E94
330
1
100
AcDbSymbolTableRecord
100
AcDbBlockTableRecord
  2
*D23
340
0
  0
BLOCK_RECORD
  5
6EA0
330
1
100
AcDbSymbolTableRecord
100
AcDbBlockTableRecord
  2
*D24
340
0
  0
BLOCK_RECORD
  5
6EAB
330
1
100
AcDbSymbolTableRecord
100
AcDbBlockTableRecord
  2
*D25
340
0
  0
BLOCK_RECORD
  5
6F03
330
1
100
AcDbSymbolTableRecord
100
AcDbBlockTableRecord
  2
*D26
340
0
  0
BLOCK_RECORD
  5
6F10
330
1
100
AcDbSymbolTableRecord
100
AcDbBlockTableRecord
  2
*D27
340
0
  0
BLOCK_RECORD
  5
6F1D
330
1
100
AcDbSymbolTableRecord
100
AcDbBlockTableRecord
  2
*D28
340
0
  0
BLOCK_RECORD
  5
6F2B
330
1
100
AcDbSymbolTableRecord
100
AcDbBlockTableRecord
  2
*D29
340
0
  0
BLOCK_RECORD
  5
6F38
330
1
100
AcDbSymbolTableRecord
100
AcDbBlockTableRecord
  2
*D30
340
0
  0
BLOCK_RECORD
  5
6F5A
330
1
100
AcDbSymbolTableRecord
100
AcDbBlockTableRecord
  2
*D31
340
0
  0
BLOCK_RECORD
  5
6F67
330
1
100
AcDbSymbolTableRecord
100
AcDbBlockTableRecord
  2
*D32
340
0
  0
BLOCK_RECORD
  5
6F74
330
1
100
AcDbSymbolTableRecord
100
AcDbBlockTableRecord
  2
*D33
340
0
  0
BLOCK_RECORD
  5
7631
330
1
100
AcDbSymbolTableRecord
100
AcDbBlockTableRecord
  2
*D34
340
0
  0
ENDTAB
  0
ENDSEC
  0
SECTION
  2
BLOCKS
  0
BLOCK
  5
1F
330
1E
100
AcDbEntity
  8
0
100
AcDbBlockBegin
  2
*MODEL_SPACE
 70
     0
 10
0.0
 20
0.0
 30
0.0
  3
*MODEL_SPACE
  1

  0
ENDBLK
  5
20
330
1E
100
AcDbEntity
  8
0
100
AcDbBlockEnd
  0
BLOCK
  5
1B
330
1A
100
AcDbEntity
 67
     1
  8
0
100
AcDbBlockBegin
  2
*PAPER_SPACE
 70
     0
 10
0.0
 20
0.0
 30
0.0
  3
*PAPER_SPACE
  1

  0
ENDBLK
  5
1C
330
1A
100
AcDbEntity
 67
     1
  8
0
100
AcDbBlockEnd
  0
BLOCK
  5
3B6
330
3B2
100
AcDbEntity
  8
0
100
AcDbBlockBegin
  2
_OPEN
 70
     0
 10
0.0
 20
0.0
 30
0.0
  3
_OPEN
  1

  0
LINE
  5
3B3
330
3B2
100
AcDbEntity
  8
30
  6
Continuous
 62
     0
100
AcDbLine
 10
-1.0
 20
0.1666666666666666
 30
0.0
 11
0.0
 21
0.0
 31
0.0
  0
LINE
  5
3B4
330
3B2
100
AcDbEntity
  8
30
  6
Continuous
 62
     0
100
AcDbLine
 10
-1.0
 20
-0.1666666666666666
 30
0.0
 11
0.0
 21
0.0
 31
0.0
  0
LINE
  5
3B5
330
3B2
100
AcDbEntity
  8
30
  6
Continuous
 62
     0
100
AcDbLine
 10
0.0
 20
0.0
 30
0.0
 11
-1.0
 21
0.0
 31
0.0
  0
ENDBLK
  5
3B7
330
3B2
100
AcDbEntity
  8
0
100
AcDbBlockEnd
  0
BLOCK
  5
46FA
330
46F7
100
AcDbEntity
  8
L0_
  6
Continuous
100
AcDbBlockBegin
  2
B837
 70
     0
 10
0.0
 20
0.0
 30
0.0
  3
B837
  1

  0
TEXT
  5
46F8
330
46F7
100
AcDbEntity
  8
L0_
  6
Continuous
100
AcDbText
 10
1984.080078125
 20
1307.4332275391
 30
0.0
 40
12.0
  1
n
 41
2.863636363636363
  7
SYMBOL3
 72
     5
 11
2002.080078125
 21
1307.4332275391
 31
0.0
100
AcDbText
 73
     2
  0
TEXT
  5
46F9
330
46F7
100
AcDbEntity
  8
L0_
  6
Continuous
100
AcDbText
 10
2002.080078125
 20
1307.4332275391
 30
0.0
 40
12.0
  1
11
 41
1.399999999999996
  7
SYMBOL3
 72
     5
 11
2018.880078125
 21
1307.4332275391
 31
0.0
100
AcDbText
 73
     2
  0
ENDBLK
  5
46FB
330
46F7
100
AcDbEntity
  8
L0_
  6
Continuous
100
AcDbBlockEnd
  0
BLOCK
  5
6809
330
67FE
100
AcDbEntity
  8
0
100
AcDbBlockBegin
  2
A$C33A80D96
 70
     0
 10
0.0
 20
0.0
 30
0.0
  3
A$C33A80D96
  1

  0
LINE
  5
67FF
330
67FE
100
AcDbEntity
  8
L170_
  6
D1101
100
AcDbLine
 10
-105.0
 20
141.0
 30
0.0
 11
-105.0
 21
-135.9997558594
 31
0.0
  0
LINE
  5
6800
330
67FE
100
AcDbEntity
  8
L10_
  6
Continuous
100
AcDbLine
 10
31.99975585940001
 20
39.5
 30
0.0
 11
31.99975585940001
 21
-39.49975585940001
 31
0.0
  0
LINE
  5
6801
330
67FE
100
AcDbEntity
  8
L10_
  6
Continuous
100
AcDbLine
 10
-32.0
 20
39.5
 30
0.0
 11
-32.0
 21
-39.49975585940001
 31
0.0
  0
ARC
  5
6802
330
67FE
100
AcDbEntity
  8
L10_
  6
Continuous
100
AcDbCircle
 10
-25.5
 20
-39.49975585940001
 30
0.0
 40
6.5
100
AcDbArc
 50
180.0
 51
270.0
  0
ARC
  5
6803
330
67FE
100
AcDbEntity
  8
L10_
  6
Continuous
100
AcDbCircle
 10
25.5
 20
-39.49975585940001
 30
0.0
 40
6.5
100
AcDbArc
 50
270.0
 51
0.0
  0
LINE
  5
6804
330
67FE
100
AcDbEntity
  8
L10_
  6
Continuous
100
AcDbLine
 10
-25.5
 20
-45.9997558594
 30
0.0
 11
25.5
 21
-45.9997558594
 31
0.0
  0
ARC
  5
6805
330
67FE
100
AcDbEntity
  8
L10_
  6
Continuous
100
AcDbCircle
 10
-25.5
 20
39.5
 30
0.0
 40
6.5
100
AcDbArc
 50
90.0
 51
180.0
  0
ARC
  5
6806
330
67FE
100
AcDbEntity
  8
L10_
  6
Continuous
100
AcDbCircle
 10
25.5
 20
39.5
 30
0.0
 40
6.5
100
AcDbArc
 50
0.0
 51
90.0
  0
LINE
  5
6807
330
67FE
100
AcDbEntity
  8
L10_
  6
Continuous
100
AcDbLine
 10
-25.5
 20
46.0
 30
0.0
 11
25.5
 21
46.0
 31
0.0
  0
LINE
  5
6808
330
67FE
100
AcDbEntity
  8
L170_
  6
D1101
100
AcDbLine
 10
104.9997558594
 20
141.0
 30
0.0
 11
104.9997558594
 21
-135.9997558594
 31
0.0
  0
ENDBLK
  5
680A
330
67FE
100
AcDbEntity
  8
0
100
AcDbBlockEnd
  0
BLOCK
  5
681D
330
6818
100
AcDbEntity
  8
0
100
AcDbBlockBegin
  2
A$C02AA2CCA
 70
     0
 10
0.0
 20
0.0
 30
0.0
  3
A$C02AA2CCA
  1

  0
TEXT
  5
6819
330
6818
100
AcDbEntity
  8
30
  6
Continuous
100
AcDbText
 10
-16.26575368057832
 20
20.24771181220211
 30
0.0
 40
5.0
  1
M6
100
AcDbText
  0
TEXT
  5
681A
330
6818
100
AcDbEntity
  8
30
  6
Continuous
100
AcDbText
 10
24.62249335110151
 20
29.24046914997386
 30
0.0
 40
5.0
  1
%%c36
100
AcDbText
  0
LEADER
  5
681B
330
6818
100
AcDbEntity
  8
30
  6
Continuous
100
AcDbLeader
  3
STANDARD
 76
     3
 10
0.0
 20
0.0
 30
0.0
 10
12.63699972768687
 20
27.54131258563637
 30
0.0
 10
43.4097028642327
 20
27.48495877369673
 30
0.0
1001
ACAD
1000
DSTYLE
1002
{
1070
     5
1000
OPEN
1070
   342
1005
3B2
1002
}
  0
LEADER
  5
681C
330
6818
100
AcDbEntity
  8
30
  6
Continuous
100
AcDbLeader
  3
STANDARD
 76
     3
 10
-30.0066066714519
 20
-6.901172279919307
 30
0.0
 10
-25.40981255440478
 20
18.07525179299744
 30
0.0
 10
5.362890582141047
 20
18.0188979810578
 30
0.0
1001
ACAD
1000
DSTYLE
1002
{
1070
     5
1000
OPEN
1070
   342
1005
3B2
1002
}
  0
ENDBLK
  5
681E
330
6818
100
AcDbEntity
  8
0
100
AcDbBlockEnd
  0
BLOCK
  5
6C11
330
6C07
100
AcDbEntity
  8
0
100
AcDbBlockBegin
  2
*D4
 70
     1
 10
0.0
 20
0.0
 30
0.0
  3
*D4
  1

  0
LINE
  5
747A
330
6C07
100
AcDbEntity
  8
30
  6
Continuous
 62
     0
100
AcDbLine
 10
309.9974960925496
 20
-7.501142633859168
 30
0.0
 11
309.9974960925496
 21
-266.7694826747438
 31
0.0
  0
LINE
  5
747B
330
6C07
100
AcDbEntity
  8
30
  6
Continuous
 62
     0
100
AcDbLine
 10
649.9975113513487
 20
-202.5011426338592
 30
0.0
 11
649.9975113513487
 21
-266.7694826747438
 31
0.0
  0
LINE
  5
747C
330
6C07
100
AcDbEntity
  8
30
  6
Continuous
 62
     0
100
AcDbLine
 10
311.9974960925496
 20
-266.2694826747438
 30
0.0
 11
647.9975113513487
 21
-266.2694826747438
 31
0.0
  0
INSERT
  5
747D
330
6C07
100
AcDbEntity
  8
30
  6
Continuous
 62
     0
100
AcDbBlockReference
  2
_OPEN
 10
309.9974960925496
 20
-266.2694826747438
 30
0.0
 41
2.0
 42
2.0
 43
2.0
 50
180.0
  0
INSERT
  5
747E
330
6C07
100
AcDbEntity
  8
30
  6
Continuous
 62
     0
100
AcDbBlockReference
  2
_OPEN
 10
649.9975113513487
 20
-266.2694826747438
 30
0.0
 41
2.0
 42
2.0
 43
2.0
  0
MTEXT
  5
747F
330
6C07
100
AcDbEntity
  8
30
  6
Continuous
 62
     0
100
AcDbMText
 10
479.9975037219493
 20
-259.2694826747438
 30
0.0
 40
10.0
 41
0.0
 71
     5
 72
     1
  1
\A1;340
 73
     1
 44
1.0
1001
ACAD
1000
MTEXTBEGIN
1070
    73
1070
     1
1070
    44
1040
1.0
1070
    74
1070
     0
1000
MTEXTEND
  0
POINT
  5
7480
330
6C07
100
AcDbEntity
  8
DEFPOINTS
  6
Continuous
 62
     0
100
AcDbPoint
 10
309.9974960925496
 20
2.498857366140831
 30
0.0
  0
POINT
  5
7481
330
6C07
100
AcDbEntity
  8
DEFPOINTS
  6
Continuous
 62
     0
100
AcDbPoint
 10
649.9975113513487
 20
-192.5011426338592
 30
0.0
  0
POINT
  5
7482
330
6C07
100
AcDbEntity
  8
DEFPOINTS
  6
Continuous
 62
     0
100
AcDbPoint
 10
649.9975113513487
 20
-266.2694826747438
 30
0.0
  0
ENDBLK
  5
6C12
330
6C07
100
AcDbEntity
  8
0
100
AcDbBlockEnd
  0
BLOCK
  5
6C1E
330
6C14
100
AcDbEntity
  8
0
100
AcDbBlockBegin
  2
*D5
 70
     1
 10
0.0
 20
0.0
 30
0.0
  3
*D5
  1

  0
LINE
  5
75CC
330
6C14
100
AcDbEntity
  8
30
  6
Continuous
 62
     0
100
AcDbLine
 10
404.9975113635871
 20
-7.338189093136231
 30
0.0
 11
404.9975113635871
 21
-240.8532557087101
 31
0.0
  0
LINE
  5
75CD
330
6C14
100
AcDbEntity
  8
30
  6
Continuous
 62
     0
100
AcDbLine
 10
649.9975113513487
 20
-203.5011426338591
 30
0.0
 11
649.9975113513487
 21
-240.8532557087101
 31
0.0
  0
LINE
  5
75CE
330
6C14
100
AcDbEntity
  8
30
  6
Continuous
 62
     0
100
AcDbLine
 10
406.9975113635871
 20
-240.3532557087101
 30
0.0
 11
647.9975113513487
 21
-240.3532557087101
 31
0.0
  0
INSERT
  5
75CF
330
6C14
100
AcDbEntity
  8
30
  6
Continuous
 62
     0
100
AcDbBlockReference
  2
_OPEN
 10
404.9975113635871
 20
-240.3532557087101
 30
0.0
 41
2.0
 42
2.0
 43
2.0
 50
180.0
  0
INSERT
  5
75D0
330
6C14
100
AcDbEntity
  8
30
  6
Continuous
 62
     0
100
AcDbBlockReference
  2
_OPEN
 10
649.9975113513487
 20
-240.3532557087101
 30
0.0
 41
2.0
 42
2.0
 43
2.0
  0
MTEXT
  5
75D1
330
6C14
100
AcDbEntity
  8
30
  6
Continuous
 62
     0
100
AcDbMText
 10
527.4975113574678
 20
-233.3532557087099
 30
0.0
 40
10.0
 41
0.0
 71
     5
 72
     1
  1
\A1;245
 73
     1
 44
1.0
1001
ACAD
1000
MTEXTBEGIN
1070
    73
1070
     1
1070
    44
1040
1.0
1070
    74
1070
     0
1000
MTEXTEND
  0
POINT
  5
75D2
330
6C14
100
AcDbEntity
  8
DEFPOINTS
  6
Continuous
 62
     0
100
AcDbPoint
 10
404.9975113635871
 20
2.661810906863765
 30
0.0
  0
POINT
  5
75D3
330
6C14
100
AcDbEntity
  8
DEFPOINTS
  6
Continuous
 62
     0
100
AcDbPoint
 10
649.9975113513487
 20
-193.5011426338592
 30
0.0
  0
POINT
  5
75D4
330
6C14
100
AcDbEntity
  8
DEFPOINTS
  6
Continuous
 62
     0
100
AcDbPoint
 10
649.9975113513487
 20
-240.3532557087101
 30
0.0
  0
ENDBLK
  5
6C1F
330
6C14
100
AcDbEntity
  8
0
100
AcDbBlockEnd
  0
BLOCK
  5
6C2B
330
6C21
100
AcDbEntity
  8
0
100
AcDbBlockBegin
  2
*D6
 70
     1
 10
0.0
 20
0.0
 30
0.0
  3
*D6
  1

  0
LINE
  5
7662
330
6C21
100
AcDbEntity
  8
30
  6
Continuous
 62
     0
100
AcDbLine
 10
649.9975113513487
 20
-203.5011426338591
 30
0.0
 11
649.9975113513487
 21
-240.8532557087101
 31
0.0
  0
LINE
  5
7663
330
6C21
100
AcDbEntity
  8
30
  6
Continuous
 62
     0
100
AcDbLine
 10
779.9975113513487
 20
-202.0016309151591
 30
0.0
 11
779.9975113513487
 21
-240.8532557087101
 31
0.0
  0
LINE
  5
7664
330
6C21
100
AcDbEntity
  8
30
  6
Continuous
 62
     0
100
AcDbLine
 10
651.9975113513488
 20
-240.3532557087101
 30
0.0
 11
777.9975113513487
 21
-240.3532557087101
 31
0.0
  0
INSERT
  5
7665
330
6C21
100
AcDbEntity
  8
30
  6
Continuous
 62
     0
100
AcDbBlockReference
  2
_OPEN
 10
649.9975113513487
 20
-240.3532557087101
 30
0.0
 41
2.0
 42
2.0
 43
2.0
 50
180.0
  0
INSERT
  5
7666
330
6C21
100
AcDbEntity
  8
30
  6
Continuous
 62
     0
100
AcDbBlockReference
  2
_OPEN
 10
779.9975113513487
 20
-240.3532557087101
 30
0.0
 41
2.0
 42
2.0
 43
2.0
  0
MTEXT
  5
7667
330
6C21
100
AcDbEntity
  8
30
  6
Continuous
 62
     0
100
AcDbMText
 10
714.9975113513487
 20
-233.3532557087099
 30
0.0
 40
10.0
 41
0.0
 71
     5
 72
     1
  1
\A1;130
 73
     1
 44
1.0
  0
POINT
  5
7668
330
6C21
100
AcDbEntity
  8
DEFPOINTS
  6
Continuous
 62
     0
100
AcDbPoint
 10
649.9975113513487
 20
-193.5011426338592
 30
0.0
  0
POINT
  5
7669
330
6C21
100
AcDbEntity
  8
DEFPOINTS
  6
Continuous
 62
     0
100
AcDbPoint
 10
779.9975113513487
 20
-192.0016309151591
 30
0.0
  0
POINT
  5
766A
330
6C21
100
AcDbEntity
  8
DEFPOINTS
  6
Continuous
 62
     0
100
AcDbPoint
 10
779.9975113513487
 20
-240.3532557087101
 30
0.0
  0
ENDBLK
  5
6C2C
330
6C21
100
AcDbEntity
  8
0
100
AcDbBlockEnd
  0
BLOCK
  5
6C38
330
6C2E
100
AcDbEntity
  8
0
100
AcDbBlockBegin
  2
*D7
 70
     1
 10
0.0
 20
0.0
 30
0.0
  3
*D7
  1

  0
LINE
  5
75C2
330
6C2E
100
AcDbEntity
  8
30
  6
Continuous
 62
     0
100
AcDbLine
 10
455.0364763576612
 20
-10.0
 30
0.0
 11
455.0364763576612
 21
-217.1470063740606
 31
0.0
  0
LINE
  5
75C3
330
6C2E
100
AcDbEntity
  8
30
  6
Continuous
 62
     0
100
AcDbLine
 10
464.9975113513487
 20
-202.5011426338592
 30
0.0
 11
464.9975113513487
 21
-217.1470063740606
 31
0.0
  0
LINE
  5
75C4
330
6C2E
100
AcDbEntity
  8
30
  6
Continuous
 62
     0
100
AcDbLine
 10
457.0364763576612
 20
-216.6470063740606
 30
0.0
 11
462.9975113513487
 21
-216.6470063740606
 31
0.0
  0
LINE
  5
75C5
330
6C2E
100
AcDbEntity
  8
30
  6
Continuous
 62
     0
100
AcDbLine
 10
464.9975113513487
 20
-216.6470063740606
 30
0.0
 11
482.6641780180153
 21
-216.6470063740606
 31
0.0
  0
INSERT
  5
75C6
330
6C2E
100
AcDbEntity
  8
30
  6
Continuous
 62
     0
100
AcDbBlockReference
  2
_OPEN
 10
455.0364763576612
 20
-216.6470063740606
 30
0.0
 41
2.0
 42
2.0
 43
2.0
 50
180.0
  0
INSERT
  5
75C7
330
6C2E
100
AcDbEntity
  8
30
  6
Continuous
 62
     0
100
AcDbBlockReference
  2
_OPEN
 10
464.9975113513487
 20
-216.6470063740606
 30
0.0
 41
2.0
 42
2.0
 43
2.0
  0
MTEXT
  5
75C8
330
6C2E
100
AcDbEntity
  8
30
  6
Continuous
 62
     0
100
AcDbMText
 10
474.8308446846819
 20
-209.6470063740606
 30
0.0
 40
10.0
 41
0.0
 71
     5
 72
     1
  1
\A1;10
 73
     1
 44
1.0
1001
ACAD
1000
MTEXTBEGIN
1070
    73
1070
     1
1070
    44
1040
1.0
1070
    74
1070
     0
1000
MTEXTEND
  0
POINT
  5
75C9
330
6C2E
100
AcDbEntity
  8
DEFPOINTS
  6
Continuous
 62
     0
100
AcDbPoint
 10
455.0364763576612
 20
0.0
 30
0.0
  0
POINT
  5
75CA
330
6C2E
100
AcDbEntity
  8
DEFPOINTS
  6
Continuous
 62
     0
100
AcDbPoint
 10
464.9975113513487
 20
-192.5011426338592
 30
0.0
  0
POINT
  5
75CB
330
6C2E
100
AcDbEntity
  8
DEFPOINTS
  6
Continuous
 62
     0
100
AcDbPoint
 10
464.9975113513487
 20
-216.6470063740606
 30
0.0
  0
ENDBLK
  5
6C39
330
6C2E
100
AcDbEntity
  8
0
100
AcDbBlockEnd
  0
BLOCK
  5
6C45
330
6C3B
100
AcDbEntity
  8
0
100
AcDbBlockBegin
  2
*D8
 70
     1
 10
0.0
 20
0.0
 30
0.0
  3
*D8
  1

  0
LINE
  5
766B
330
6C3B
100
AcDbEntity
  8
30
  6
Continuous
 62
     0
100
AcDbLine
 10
464.9975113513487
 20
-202.5011426338592
 30
0.0
 11
464.9975113513487
 21
-217.1470063740606
 31
0.0
  0
LINE
  5
766C
330
6C3B
100
AcDbEntity
  8
30
  6
Continuous
 62
     0
100
AcDbLine
 10
649.9975113513487
 20
-202.0016309151591
 30
0.0
 11
649.9975113513487
 21
-217.1470063740606
 31
0.0
  0
LINE
  5
766D
330
6C3B
100
AcDbEntity
  8
30
  6
Continuous
 62
     0
100
AcDbLine
 10
466.9975113513487
 20
-216.6470063740606
 30
0.0
 11
647.9975113513487
 21
-216.6470063740606
 31
0.0
  0
INSERT
  5
766E
330
6C3B
100
AcDbEntity
  8
30
  6
Continuous
 62
     0
100
AcDbBlockReference
  2
_OPEN
 10
464.9975113513487
 20
-216.6470063740606
 30
0.0
 41
2.0
 42
2.0
 43
2.0
 50
180.0
  0
INSERT
  5
766F
330
6C3B
100
AcDbEntity
  8
30
  6
Continuous
 62
     0
100
AcDbBlockReference
  2
_OPEN
 10
649.9975113513487
 20
-216.6470063740606
 30
0.0
 41
2.0
 42
2.0
 43
2.0
  0
MTEXT
  5
7670
330
6C3B
100
AcDbEntity
  8
30
  6
Continuous
 62
     0
100
AcDbMText
 10
557.4975113513487
 20
-209.6470063740606
 30
0.0
 40
10.0
 41
0.0
 71
     5
 72
     1
  1
\A1;185
 73
     1
 44
1.0
  0
POINT
  5
7671
330
6C3B
100
AcDbEntity
  8
DEFPOINTS
  6
Continuous
 62
     0
100
AcDbPoint
 10
464.9975113513487
 20
-192.5011426338592
 30
0.0
  0
POINT
  5
7672
330
6C3B
100
AcDbEntity
  8
DEFPOINTS
  6
Continuous
 62
     0
100
AcDbPoint
 10
649.9975113513487
 20
-192.0016309151591
 30
0.0
  0
POINT
  5
7673
330
6C3B
100
AcDbEntity
  8
DEFPOINTS
  6
Continuous
 62
     0
100
AcDbPoint
 10
649.9975113513487
 20
-216.6470063740606
 30
0.0
  0
ENDBLK
  5
6C46
330
6C3B
100
AcDbEntity
  8
0
100
AcDbBlockEnd
  0
BLOCK
  5
6C52
330
6C48
100
AcDbEntity
  8
0
100
AcDbBlockBegin
  2
*D9
 70
     1
 10
0.0
 20
0.0
 30
0.0
  3
*D9
  1

  0
LINE
  5
75E7
330
6C48
100
AcDbEntity
  8
30
  6
Continuous
 62
     0
100
AcDbLine
 10
779.9975113513487
 20
-203.0016309151591
 30
0.0
 11
779.9975113513487
 21
-216.7548262255785
 31
0.0
  0
LINE
  5
75E8
330
6C48
100
AcDbEntity
  8
30
  6
Continuous
 62
     0
100
AcDbLine
 10
764.9975113513487
 20
-196.2897168526591
 30
0.0
 11
764.9975113513487
 21
-216.7548262255785
 31
0.0
  0
LINE
  5
75E9
330
6C48
100
AcDbEntity
  8
30
  6
Continuous
 62
     0
100
AcDbLine
 10
766.9975113513487
 20
-216.2548262255785
 30
0.0
 11
777.9975113513487
 21
-216.2548262255785
 31
0.0
  0
LINE
  5
75EA
330
6C48
100
AcDbEntity
  8
30
  6
Continuous
 62
     0
100
AcDbLine
 10
779.9975113513487
 20
-216.2548262255785
 30
0.0
 11
799.5773783384181
 21
-216.2548262255785
 31
0.0
  0
INSERT
  5
75EB
330
6C48
100
AcDbEntity
  8
30
  6
Continuous
 62
     0
100
AcDbBlockReference
  2
_OPEN
 10
764.9975113513487
 20
-216.2548262255785
 30
0.0
 41
2.0
 42
2.0
 43
2.0
 50
180.0
  0
INSERT
  5
75EC
330
6C48
100
AcDbEntity
  8
30
  6
Continuous
 62
     0
100
AcDbBlockReference
  2
_OPEN
 10
779.9975113513487
 20
-216.2548262255785
 30
0.0
 41
2.0
 42
2.0
 43
2.0
  0
MTEXT
  5
75ED
330
6C48
100
AcDbEntity
  8
30
  6
Continuous
 62
     0
100
AcDbMText
 10
790.9107116717514
 20
-209.2548262255785
 30
0.0
 40
10.0
 41
0.0
 71
     5
 72
     1
  1
\A1;15
 73
     1
 44
1.0
1001
ACAD
1000
MTEXTBEGIN
1070
    73
1070
     1
1070
    44
1040
1.0
1070
    74
1070
     0
1000
MTEXTEND
  0
POINT
  5
75EE
330
6C48
100
AcDbEntity
  8
DEFPOINTS
  6
Continuous
 62
     0
100
AcDbPoint
 10
779.9975113513487
 20
-193.0016309151591
 30
0.0
  0
POINT
  5
75EF
330
6C48
100
AcDbEntity
  8
DEFPOINTS
  6
Continuous
 62
     0
100
AcDbPoint
 10
764.9975113513487
 20
-186.2897168526591
 30
0.0
  0
POINT
  5
75F0
330
6C48
100
AcDbEntity
  8
DEFPOINTS
  6
Continuous
 62
     0
100
AcDbPoint
 10
764.9975113513487
 20
-216.2548262255785
 30
0.0
  0
ENDBLK
  5
6C53
330
6C48
100
AcDbEntity
  8
0
100
AcDbBlockEnd
  0
BLOCK
  5
6C5F
330
6C55
100
AcDbEntity
  8
0
100
AcDbBlockBegin
  2
*D10
 70
     1
 10
0.0
 20
0.0
 30
0.0
  3
*D10
  1

  0
LINE
  5
7674
330
6C55
100
AcDbEntity
  8
30
  6
Continuous
 62
     0
100
AcDbLine
 10
764.9975113513487
 20
-196.2897168526591
 30
0.0
 11
764.9975113513487
 21
-217.1470063740606
 31
0.0
  0
LINE
  5
7675
330
6C55
100
AcDbEntity
  8
30
  6
Continuous
 62
     0
100
AcDbLine
 10
734.9975113513487
 20
-196.2897168526591
 30
0.0
 11
734.9975113513487
 21
-217.1470063740606
 31
0.0
  0
LINE
  5
7676
330
6C55
100
AcDbEntity
  8
30
  6
Continuous
 62
     0
100
AcDbLine
 10
762.9975113513487
 20
-216.6470063740606
 30
0.0
 11
736.9975113513487
 21
-216.6470063740606
 31
0.0
  0
INSERT
  5
7677
330
6C55
100
AcDbEntity
  8
30
  6
Continuous
 62
     0
100
AcDbBlockReference
  2
_OPEN
 10
764.9975113513487
 20
-216.6470063740606
 30
0.0
 41
2.0
 42
2.0
 43
2.0
  0
INSERT
  5
7678
330
6C55
100
AcDbEntity
  8
30
  6
Continuous
 62
     0
100
AcDbBlockReference
  2
_OPEN
 10
734.9975113513487
 20
-216.6470063740606
 30
0.0
 41
2.0
 42
2.0
 43
2.0
 50
180.0
  0
MTEXT
  5
7679
330
6C55
100
AcDbEntity
  8
30
  6
Continuous
 62
     0
100
AcDbMText
 10
749.9975113513487
 20
-209.6470063740606
 30
0.0
 40
10.0
 41
0.0
 71
     5
 72
     1
  1
\A1;30
 73
     1
 44
1.0
  0
POINT
  5
767A
330
6C55
100
AcDbEntity
  8
DEFPOINTS
  6
Continuous
 62
     0
100
AcDbPoint
 10
764.9975113513487
 20
-186.2897168526591
 30
0.0
  0
POINT
  5
767B
330
6C55
100
AcDbEntity
  8
DEFPOINTS
  6
Continuous
 62
     0
100
AcDbPoint
 10
734.9975113513487
 20
-186.2897168526591
 30
0.0
  0
POINT
  5
767C
330
6C55
100
AcDbEntity
  8
DEFPOINTS
  6
Continuous
 62
     0
100
AcDbPoint
 10
734.9975113513487
 20
-216.6470063740606
 30
0.0
  0
ENDBLK
  5
6C60
330
6C55
100
AcDbEntity
  8
0
100
AcDbBlockEnd
  0
BLOCK
  5
6C6C
330
6C62
100
AcDbEntity
  8
0
100
AcDbBlockBegin
  2
*D11
 70
     1
 10
0.0
 20
0.0
 30
0.0
  3
*D11
  1

  0
LINE
  5
767D
330
6C62
100
AcDbEntity
  8
30
  6
Continuous
 62
     0
100
AcDbLine
 10
734.9975113513487
 20
-196.2897168526591
 30
0.0
 11
734.9975113513487
 21
-217.1470063740606
 31
0.0
  0
LINE
  5
767E
330
6C62
100
AcDbEntity
  8
30
  6
Continuous
 62
     0
100
AcDbLine
 10
714.9975113513487
 20
-202.0016309151591
 30
0.0
 11
714.9975113513487
 21
-217.1470063740606
 31
0.0
  0
LINE
  5
767F
330
6C62
100
AcDbEntity
  8
30
  6
Continuous
 62
     0
100
AcDbLine
 10
732.9975113513487
 20
-216.6470063740606
 30
0.0
 11
716.9975113513487
 21
-216.6470063740606
 31
0.0
  0
INSERT
  5
7680
330
6C62
100
AcDbEntity
  8
30
  6
Continuous
 62
     0
100
AcDbBlockReference
  2
_OPEN
 10
734.9975113513487
 20
-216.6470063740606
 30
0.0
 41
2.0
 42
2.0
 43
2.0
  0
INSERT
  5
7681
330
6C62
100
AcDbEntity
  8
30
  6
Continuous
 62
     0
100
AcDbBlockReference
  2
_OPEN
 10
714.9975113513487
 20
-216.6470063740606
 30
0.0
 41
2.0
 42
2.0
 43
2.0
 50
180.0
  0
MTEXT
  5
7682
330
6C62
100
AcDbEntity
  8
30
  6
Continuous
 62
     0
100
AcDbMText
 10
724.9975113513487
 20
-209.6470063740606
 30
0.0
 40
10.0
 41
0.0
 71
     5
 72
     1
  1
\A1;20
 73
     1
 44
1.0
  0
POINT
  5
7683
330
6C62
100
AcDbEntity
  8
DEFPOINTS
  6
Continuous
 62
     0
100
AcDbPoint
 10
734.9975113513487
 20
-186.2897168526591
 30
0.0
  0
POINT
  5
7684
330
6C62
100
AcDbEntity
  8
DEFPOINTS
  6
Continuous
 62
     0
100
AcDbPoint
 10
714.9975113513487
 20
-192.0016309151591
 30
0.0
  0
POINT
  5
7685
330
6C62
100
AcDbEntity
  8
DEFPOINTS
  6
Continuous
 62
     0
100
AcDbPoint
 10
714.9975113513487
 20
-216.6470063740606
 30
0.0
  0
ENDBLK
  5
6C6D
330
6C62
100
AcDbEntity
  8
0
100
AcDbBlockEnd
  0
BLOCK
  5
6C79
330
6C6F
100
AcDbEntity
  8
0
100
AcDbBlockBegin
  2
*D12
 70
     1
 10
0.0
 20
0.0
 30
0.0
  3
*D12
  1

  0
LINE
  5
760C
330
6C6F
100
AcDbEntity
  8
30
  6
Continuous
 62
     0
100
AcDbLine
 10
789.9975113513487
 20
-127.0016309151592
 30
0.0
 11
817.6242699738182
 21
-127.0016309151592
 31
0.0
  0
LINE
  5
760D
330
6C6F
100
AcDbEntity
  8
30
  6
Continuous
 62
     0
100
AcDbLine
 10
789.9975113513487
 20
-192.0016309151591
 30
0.0
 11
817.6242699738182
 21
-192.0016309151591
 31
0.0
  0
LINE
  5
760E
330
6C6F
100
AcDbEntity
  8
30
  6
Continuous
 62
     0
100
AcDbLine
 10
817.1242699738181
 20
-129.0016309151592
 30
0.0
 11
817.1242699738181
 21
-190.0016309151591
 31
0.0
  0
INSERT
  5
760F
330
6C6F
100
AcDbEntity
  8
30
  6
Continuous
 62
     0
100
AcDbBlockReference
  2
_OPEN
 10
817.1242699738181
 20
-127.0016309151592
 30
0.0
 41
2.0
 42
2.0
 43
2.0
 50
90.0
  0
INSERT
  5
7610
330
6C6F
100
AcDbEntity
  8
30
  6
Continuous
 62
     0
100
AcDbBlockReference
  2
_OPEN
 10
817.1242699738181
 20
-192.0016309151591
 30
0.0
 41
2.0
 42
2.0
 43
2.0
 50
270.0
  0
MTEXT
  5
7611
330
6C6F
100
AcDbEntity
  8
30
  6
Continuous
 62
     0
100
AcDbMText
 10
810.1242699738181
 20
-159.501630915159
 30
0.0
 40
10.0
 41
0.0
 71
     5
 72
     1
  1
\A1;65
 11
0.0000000000000001
 21
1.0
 31
0.0
 73
     1
 44
1.0
1001
ACAD
1000
MTEXTBEGIN
1070
    73
1070
     1
1070
    44
1040
1.0
1070
    74
1070
     0
1000
MTEXTEND
  0
POINT
  5
7612
330
6C6F
100
AcDbEntity
  8
DEFPOINTS
  6
Continuous
 62
     0
100
AcDbPoint
 10
779.9975113513487
 20
-127.0016309151592
 30
0.0
  0
POINT
  5
7613
330
6C6F
100
AcDbEntity
  8
DEFPOINTS
  6
Continuous
 62
     0
100
AcDbPoint
 10
779.9975113513487
 20
-192.0016309151591
 30
0.0
  0
POINT
  5
7614
330
6C6F
100
AcDbEntity
  8
DEFPOINTS
  6
Continuous
 62
     0
100
AcDbPoint
 10
817.1242699738181
 20
-192.0016309151591
 30
0.0
  0
ENDBLK
  5
6C7A
330
6C6F
100
AcDbEntity
  8
0
100
AcDbBlockEnd
  0
BLOCK
  5
6C86
330
6C7C
100
AcDbEntity
  8
0
100
AcDbBlockBegin
  2
*D13
 70
     1
 10
0.0
 20
0.0
 30
0.0
  3
*D13
  1

  0
LINE
  5
74CD
330
6C7C
100
AcDbEntity
  8
30
  6
Continuous
 62
     0
100
AcDbLine
 10
790.7433609607488
 20
-144.5016309151592
 30
0.0
 11
799.7053972335443
 21
-144.5016309151592
 31
0.0
  0
LINE
  5
74CE
330
6C7C
100
AcDbEntity
  8
30
  6
Continuous
 62
     0
100
AcDbLine
 10
790.7433609607488
 20
-174.5016309151591
 30
0.0
 11
799.7053972335443
 21
-174.5016309151591
 31
0.0
  0
LINE
  5
74CF
330
6C7C
100
AcDbEntity
  8
30
  6
Continuous
 62
     0
100
AcDbLine
 10
799.2053972335443
 20
-146.5016309151591
 30
0.0
 11
799.2053972335443
 21
-172.5016309151591
 31
0.0
  0
INSERT
  5
74D0
330
6C7C
100
AcDbEntity
  8
30
  6
Continuous
 62
     0
100
AcDbBlockReference
  2
_OPEN
 10
799.2053972335443
 20
-144.5016309151592
 30
0.0
 41
2.0
 42
2.0
 43
2.0
 50
90.0
  0
INSERT
  5
74D1
330
6C7C
100
AcDbEntity
  8
30
  6
Continuous
 62
     0
100
AcDbBlockReference
  2
_OPEN
 10
799.2053972335443
 20
-174.5016309151591
 30
0.0
 41
2.0
 42
2.0
 43
2.0
 50
270.0
  0
MTEXT
  5
74D2
330
6C7C
100
AcDbEntity
  8
30
  6
Continuous
 62
     0
100
AcDbMText
 10
792.2053972335443
 20
-159.501630915159
 30
0.0
 40
10.0
 41
0.0
 71
     5
 72
     1
  1
\A1;30
 11
0.0000000000000001
 21
1.0
 31
0.0
 73
     1
 44
1.0
1001
ACAD
1000
MTEXTBEGIN
1070
    73
1070
     1
1070
    44
1040
1.0
1070
    74
1070
     0
1000
MTEXTEND
  0
POINT
  5
74D3
330
6C7C
100
AcDbEntity
  8
DEFPOINTS
  6
Continuous
 62
     0
100
AcDbPoint
 10
780.7433609607487
 20
-144.5016309151592
 30
0.0
  0
POINT
  5
74D4
330
6C7C
100
AcDbEntity
  8
DEFPOINTS
  6
Continuous
 62
     0
100
AcDbPoint
 10
780.7433609607487
 20
-174.5016309151591
 30
0.0
  0
POINT
  5
74D5
330
6C7C
100
AcDbEntity
  8
DEFPOINTS
  6
Continuous
 62
     0
100
AcDbPoint
 10
799.2053972335443
 20
-174.5016309151591
 30
0.0
  0
ENDBLK
  5
6C87
330
6C7C
100
AcDbEntity
  8
0
100
AcDbBlockEnd
  0
BLOCK
  5
6C93
330
6C89
100
AcDbEntity
  8
0
100
AcDbBlockBegin
  2
*D14
 70
     1
 10
0.0
 20
0.0
 30
0.0
  3
*D14
  1

  0
LINE
  5
7627
330
6C89
100
AcDbEntity
  8
30
  6
Continuous
 62
     0
100
AcDbLine
 10
731.3330945803736
 20
-0.0000000000000028
 30
0.0
 11
830.8115536296819
 21
-0.000000000000031
 31
0.0
  0
LINE
  5
7628
330
6C89
100
AcDbEntity
  8
30
  6
Continuous
 62
     0
100
AcDbLine
 10
789.9975113513487
 20
-159.5016309151591
 30
0.0
 11
830.8115536296819
 21
-159.5016309151591
 31
0.0
  0
LINE
  5
7629
330
6C89
100
AcDbEntity
  8
30
  6
Continuous
 62
     0
100
AcDbLine
 10
830.3115536296816
 20
-2.000000000000031
 30
0.0
 11
830.3115536296816
 21
-157.5016309151591
 31
0.0
  0
INSERT
  5
762A
330
6C89
100
AcDbEntity
  8
30
  6
Continuous
 62
     0
100
AcDbBlockReference
  2
_OPEN
 10
830.3115536296816
 20
-0.0000000000000309
 30
0.0
 41
2.0
 42
2.0
 43
2.0
 50
90.0
  0
INSERT
  5
762B
330
6C89
100
AcDbEntity
  8
30
  6
Continuous
 62
     0
100
AcDbBlockReference
  2
_OPEN
 10
830.3115536296816
 20
-159.5016309151591
 30
0.0
 41
2.0
 42
2.0
 43
2.0
 50
270.0
  0
MTEXT
  5
762C
330
6C89
100
AcDbEntity
  8
30
  6
Continuous
 62
     0
100
AcDbMText
 10
823.3115536296818
 20
-79.75081545757952
 30
0.0
 40
10.0
 41
0.0
 71
     5
 72
     1
  1
\A1;159.5
 11
0.0000000000000001
 21
1.0
 31
0.0
 73
     1
 44
1.0
1001
ACAD
1000
MTEXTBEGIN
1070
    73
1070
     1
1070
    44
1040
1.0
1070
    74
1070
     0
1000
MTEXTEND
  0
POINT
  5
762D
330
6C89
100
AcDbEntity
  8
DEFPOINTS
  6
Continuous
 62
     0
100
AcDbPoint
 10
721.3330945803736
 20
0.0
 30
0.0
  0
POINT
  5
762E
330
6C89
100
AcDbEntity
  8
DEFPOINTS
  6
Continuous
 62
     0
100
AcDbPoint
 10
779.9975113513487
 20
-159.5016309151591
 30
0.0
  0
POINT
  5
762F
330
6C89
100
AcDbEntity
  8
DEFPOINTS
  6
Continuous
 62
     0
100
AcDbPoint
 10
830.3115536296816
 20
-159.5016309151591
 30
0.0
  0
ENDBLK
  5
6C94
330
6C89
100
AcDbEntity
  8
0
100
AcDbBlockEnd
  0
BLOCK
  5
6CDD
330
6CD3
100
AcDbEntity
  8
0
100
AcDbBlockBegin
  2
*D15
 70
     1
 10
0.0
 20
0.0
 30
0.0
  3
*D15
  1

  0
LINE
  5
74DF
330
6CD3
100
AcDbEntity
  8
30
  6
Continuous
 62
     0
100
AcDbLine
 10
-170.0
 20
518.4831426686018
 30
0.0
 11
-183.782805956117
 21
518.4831426686018
 31
0.0
  0
LINE
  5
74E0
330
6CD3
100
AcDbEntity
  8
30
  6
Continuous
 62
     0
100
AcDbLine
 10
-170.0
 20
333.4826543873018
 30
0.0
 11
-183.782805956117
 21
333.4826543873018
 31
0.0
  0
LINE
  5
74E1
330
6CD3
100
AcDbEntity
  8
30
  6
Continuous
 62
     0
100
AcDbLine
 10
-183.2828059561169
 20
516.4831426686019
 30
0.0
 11
-183.2828059561169
 21
335.4826543873018
 31
0.0
  0
INSERT
  5
74E2
330
6CD3
100
AcDbEntity
  8
30
  6
Continuous
 62
     0
100
AcDbBlockReference
  2
_OPEN
 10
-183.2828059561169
 20
518.4831426686018
 30
0.0
 41
2.0
 42
2.0
 43
2.0
 50
90.0
  0
INSERT
  5
74E3
330
6CD3
100
AcDbEntity
  8
30
  6
Continuous
 62
     0
100
AcDbBlockReference
  2
_OPEN
 10
-183.2828059561169
 20
333.4826543873018
 30
0.0
 41
2.0
 42
2.0
 43
2.0
 50
270.0
  0
MTEXT
  5
74E4
330
6CD3
100
AcDbEntity
  8
30
  6
Continuous
 62
     0
100
AcDbMText
 10
-190.2828059561171
 20
425.9828985279519
 30
0.0
 40
10.0
 41
0.0
 71
     5
 72
     1
  1
\A1;185
 11
0.0000000000000001
 21
1.0
 31
0.0
 73
     1
 44
1.0
1001
ACAD
1000
MTEXTBEGIN
1070
    73
1070
     1
1070
    44
1040
1.0
1070
    74
1070
     0
1000
MTEXTEND
  0
POINT
  5
74E5
330
6CD3
100
AcDbEntity
  8
DEFPOINTS
  6
Continuous
 62
     0
100
AcDbPoint
 10
-160.0
 20
518.4831426686018
 30
0.0
  0
POINT
  5
74E6
330
6CD3
100
AcDbEntity
  8
DEFPOINTS
  6
Continuous
 62
     0
100
AcDbPoint
 10
-160.0
 20
333.4826543873018
 30
0.0
  0
POINT
  5
74E7
330
6CD3
100
AcDbEntity
  8
DEFPOINTS
  6
Continuous
 62
     0
100
AcDbPoint
 10
-183.2828059561169
 20
333.4826543873018
 30
0.0
  0
ENDBLK
  5
6CDE
330
6CD3
100
AcDbEntity
  8
0
100
AcDbBlockEnd
  0
BLOCK
  5
6D3C
330
6D32
100
AcDbEntity
  8
0
100
AcDbBlockBegin
  2
*D16
 70
     1
 10
0.0
 20
0.0
 30
0.0
  3
*D16
  1

  0
LINE
  5
74E8
330
6D32
100
AcDbEntity
  8
30
  6
Continuous
 62
     0
100
AcDbLine
 10
-105.0002441405998
 20
658.4831426686019
 30
0.0
 11
-105.0002441405998
 21
730.2373687819852
 31
0.0
  0
LINE
  5
74E9
330
6D32
100
AcDbEntity
  8
30
  6
Continuous
 62
     0
100
AcDbLine
 10
0.0000000000000006
 20
658.4831426686019
 30
0.0
 11
0.0000000000000049
 21
730.2373687819852
 31
0.0
  0
LINE
  5
74EA
330
6D32
100
AcDbEntity
  8
30
  6
Continuous
 62
     0
100
AcDbLine
 10
-103.0002441405998
 20
729.7373687819852
 30
0.0
 11
-1.999999999999995
 21
729.7373687819852
 31
0.0
  0
INSERT
  5
74EB
330
6D32
100
AcDbEntity
  8
30
  6
Continuous
 62
     0
100
AcDbBlockReference
  2
_OPEN
 10
-105.0002441405998
 20
729.7373687819852
 30
0.0
 41
2.0
 42
2.0
 43
2.0
 50
180.0
  0
INSERT
  5
74EC
330
6D32
100
AcDbEntity
  8
30
  6
Continuous
 62
     0
100
AcDbBlockReference
  2
_OPEN
 10
0.0000000000000049
 20
729.7373687819852
 30
0.0
 41
2.0
 42
2.0
 43
2.0
  0
MTEXT
  5
74ED
330
6D32
100
AcDbEntity
  8
30
  6
Continuous
 62
     0
100
AcDbMText
 10
-52.5001220703
 20
736.7373687819853
 30
0.0
 40
10.0
 41
0.0
 71
     5
 72
     1
  1
\A1;105
 73
     1
 44
1.0
1001
ACAD
1000
MTEXTBEGIN
1070
    73
1070
     1
1070
    44
1040
1.0
1070
    74
1070
     0
1000
MTEXTEND
  0
POINT
  5
74EE
330
6D32
100
AcDbEntity
  8
DEFPOINTS
  6
Continuous
 62
     0
100
AcDbPoint
 10
-105.0002441405998
 20
648.4831426686017
 30
0.0
  0
POINT
  5
74EF
330
6D32
100
AcDbEntity
  8
DEFPOINTS
  6
Continuous
 62
     0
100
AcDbPoint
 10
-0.0000000000000001
 20
648.4831426686017
 30
0.0
  0
POINT
  5
74F0
330
6D32
100
AcDbEntity
  8
DEFPOINTS
  6
Continuous
 62
     0
100
AcDbPoint
 10
0.0000000000000049
 20
729.7373687819852
 30
0.0
  0
ENDBLK
  5
6D3D
330
6D32
100
AcDbEntity
  8
0
100
AcDbBlockEnd
  0
BLOCK
  5
6D49
330
6D3F
100
AcDbEntity
  8
0
100
AcDbBlockBegin
  2
*D17
 70
     1
 10
0.0
 20
0.0
 30
0.0
  3
*D17
  1

  0
LINE
  5
7686
330
6D3F
100
AcDbEntity
  8
30
  6
Continuous
 62
     0
100
AcDbLine
 10
0.0000000000000006
 20
488.6507035126528
 30
0.0
 11
0.0000000000000153
 21
730.2373687819852
 31
0.0
  0
LINE
  5
7687
330
6D3F
100
AcDbEntity
  8
30
  6
Continuous
 62
     0
100
AcDbLine
 10
105.0
 20
658.4831426686019
 30
0.0
 11
105.0
 21
730.2373687819852
 31
0.0
  0
LINE
  5
7688
330
6D3F
100
AcDbEntity
  8
30
  6
Continuous
 62
     0
100
AcDbLine
 10
2.000000000000015
 20
729.7373687819852
 30
0.0
 11
103.0
 21
729.7373687819852
 31
0.0
  0
INSERT
  5
7689
330
6D3F
100
AcDbEntity
  8
30
  6
Continuous
 62
     0
100
AcDbBlockReference
  2
_OPEN
 10
0.0000000000000153
 20
729.7373687819852
 30
0.0
 41
2.0
 42
2.0
 43
2.0
 50
180.0
  0
INSERT
  5
768A
330
6D3F
100
AcDbEntity
  8
30
  6
Continuous
 62
     0
100
AcDbBlockReference
  2
_OPEN
 10
105.0
 20
729.7373687819852
 30
0.0
 41
2.0
 42
2.0
 43
2.0
  0
MTEXT
  5
768B
330
6D3F
100
AcDbEntity
  8
30
  6
Continuous
 62
     0
100
AcDbMText
 10
52.5
 20
736.7373687819853
 30
0.0
 40
10.0
 41
0.0
 71
     5
 72
     1
  1
\A1;105
 73
     1
 44
1.0
  0
POINT
  5
768C
330
6D3F
100
AcDbEntity
  8
DEFPOINTS
  6
Continuous
 62
     0
100
AcDbPoint
 10
-0.0000000000000001
 20
478.6507035126527
 30
0.0
  0
POINT
  5
768D
330
6D3F
100
AcDbEntity
  8
DEFPOINTS
  6
Continuous
 62
     0
100
AcDbPoint
 10
105.0
 20
648.4831426686017
 30
0.0
  0
POINT
  5
768E
330
6D3F
100
AcDbEntity
  8
DEFPOINTS
  6
Continuous
 62
     0
100
AcDbPoint
 10
105.0
 20
729.7373687819852
 30
0.0
  0
ENDBLK
  5
6D4A
330
6D3F
100
AcDbEntity
  8
0
100
AcDbBlockEnd
  0
BLOCK
  5
6D56
330
6D4C
100
AcDbEntity
  8
0
100
AcDbBlockBegin
  2
*D18
 70
     1
 10
0.0
 20
0.0
 30
0.0
  3
*D18
  1

  0
LINE
  5
768F
330
6D4C
100
AcDbEntity
  8
30
  6
Continuous
 62
     0
100
AcDbLine
 10
105.0
 20
658.4831426686019
 30
0.0
 11
105.0
 21
730.2373687819852
 31
0.0
  0
LINE
  5
7690
330
6D4C
100
AcDbEntity
  8
30
  6
Continuous
 62
     0
100
AcDbLine
 10
215.0
 20
658.4831426686019
 30
0.0
 11
215.0
 21
730.2373687819852
 31
0.0
  0
LINE
  5
7691
330
6D4C
100
AcDbEntity
  8
30
  6
Continuous
 62
     0
100
AcDbLine
 10
107.0
 20
729.7373687819852
 30
0.0
 11
213.0
 21
729.7373687819852
 31
0.0
  0
INSERT
  5
7692
330
6D4C
100
AcDbEntity
  8
30
  6
Continuous
 62
     0
100
AcDbBlockReference
  2
_OPEN
 10
105.0
 20
729.7373687819852
 30
0.0
 41
2.0
 42
2.0
 43
2.0
 50
180.0
  0
INSERT
  5
7693
330
6D4C
100
AcDbEntity
  8
30
  6
Continuous
 62
     0
100
AcDbBlockReference
  2
_OPEN
 10
215.0
 20
729.7373687819852
 30
0.0
 41
2.0
 42
2.0
 43
2.0
  0
MTEXT
  5
7694
330
6D4C
100
AcDbEntity
  8
30
  6
Continuous
 62
     0
100
AcDbMText
 10
160.0
 20
736.7373687819853
 30
0.0
 40
10.0
 41
0.0
 71
     5
 72
     1
  1
\A1;110
 73
     1
 44
1.0
  0
POINT
  5
7695
330
6D4C
100
AcDbEntity
  8
DEFPOINTS
  6
Continuous
 62
     0
100
AcDbPoint
 10
105.0
 20
648.4831426686017
 30
0.0
  0
POINT
  5
7696
330
6D4C
100
AcDbEntity
  8
DEFPOINTS
  6
Continuous
 62
     0
100
AcDbPoint
 10
215.0
 20
648.4831426686017
 30
0.0
  0
POINT
  5
7697
330
6D4C
100
AcDbEntity
  8
DEFPOINTS
  6
Continuous
 62
     0
100
AcDbPoint
 10
215.0
 20
729.7373687819852
 30
0.0
  0
ENDBLK
  5
6D57
330
6D4C
100
AcDbEntity
  8
0
100
AcDbBlockEnd
  0
BLOCK
  5
6E6E
330
6E64
100
AcDbEntity
  8
0
100
AcDbBlockBegin
  2
*D19
 70
     1
 10
0.0
 20
0.0
 30
0.0
  3
*D19
  1

  0
LINE
  5
7503
330
6E64
100
AcDbEntity
  8
30
  6
Continuous
 62
     0
100
AcDbLine
 10
-86.6962890625
 20
-418.0
 30
0.0
 11
-306.4500104239523
 21
-417.9999999999997
 31
0.0
  0
LINE
  5
7504
330
6E64
100
AcDbEntity
  8
30
  6
Continuous
 62
     0
100
AcDbLine
 10
-176.0
 20
-650.0
 30
0.0
 11
-306.4500104239523
 21
-649.9999999999999
 31
0.0
  0
LINE
  5
7505
330
6E64
100
AcDbEntity
  8
30
  6
Continuous
 62
     0
100
AcDbLine
 10
-305.9500104239523
 20
-419.9999999999998
 30
0.0
 11
-305.9500104239524
 21
-647.9999999999997
 31
0.0
  0
INSERT
  5
7506
330
6E64
100
AcDbEntity
  8
30
  6
Continuous
 62
     0
100
AcDbBlockReference
  2
_OPEN
 10
-305.9500104239523
 20
-417.9999999999997
 30
0.0
 41
2.0
 42
2.0
 43
2.0
 50
90.0
  0
INSERT
  5
7507
330
6E64
100
AcDbEntity
  8
30
  6
Continuous
 62
     0
100
AcDbBlockReference
  2
_OPEN
 10
-305.9500104239524
 20
-649.9999999999999
 30
0.0
 41
2.0
 42
2.0
 43
2.0
 50
270.0
  0
MTEXT
  5
7508
330
6E64
100
AcDbEntity
  8
30
  6
Continuous
 62
     0
100
AcDbMText
 10
-312.9500104239521
 20
-534.0
 30
0.0
 40
10.0
 41
0.0
 71
     5
 72
     1
  1
\A1;232
 11
0.0000000000000001
 21
1.0
 31
0.0
 73
     1
 44
1.0
1001
ACAD
1000
MTEXTBEGIN
1070
    73
1070
     1
1070
    44
1040
1.0
1070
    74
1070
     0
1000
MTEXTEND
  0
POINT
  5
7509
330
6E64
100
AcDbEntity
  8
DEFPOINTS
  6
Continuous
 62
     0
100
AcDbPoint
 10
-76.6962890625
 20
-418.0
 30
0.0
  0
POINT
  5
750A
330
6E64
100
AcDbEntity
  8
DEFPOINTS
  6
Continuous
 62
     0
100
AcDbPoint
 10
-166.0
 20
-650.0
 30
0.0
  0
POINT
  5
750B
330
6E64
100
AcDbEntity
  8
DEFPOINTS
  6
Continuous
 62
     0
100
AcDbPoint
 10
-305.9500104239524
 20
-649.9999999999999
 30
0.0
  0
ENDBLK
  5
6E6F
330
6E64
100
AcDbEntity
  8
0
100
AcDbBlockEnd
  0
BLOCK
  5
6E7A
330
6E70
100
AcDbEntity
  8
0
100
AcDbBlockBegin
  2
*D20
 70
     1
 10
0.0
 20
0.0
 30
0.0
  3
*D20
  1

  0
LINE
  5
750C
330
6E70
100
AcDbEntity
  8
30
  6
Continuous
 62
     0
100
AcDbLine
 10
-151.0
 20
-758.8425854357207
 30
0.0
 11
-151.0
 21
-786.4304743781599
 31
0.0
  0
LINE
  5
750D
330
6E70
100
AcDbEntity
  8
30
  6
Continuous
 62
     0
100
AcDbLine
 10
151.0
 20
-758.8425854357207
 30
0.0
 11
151.0
 21
-786.4304743781599
 31
0.0
  0
LINE
  5
750E
330
6E70
100
AcDbEntity
  8
30
  6
Continuous
 62
     0
100
AcDbLine
 10
-149.0
 20
-785.9304743781599
 30
0.0
 11
149.0
 21
-785.9304743781599
 31
0.0
  0
INSERT
  5
750F
330
6E70
100
AcDbEntity
  8
30
  6
Continuous
 62
     0
100
AcDbBlockReference
  2
_OPEN
 10
-151.0
 20
-785.9304743781599
 30
0.0
 41
2.0
 42
2.0
 43
2.0
 50
180.0
  0
INSERT
  5
7510
330
6E70
100
AcDbEntity
  8
30
  6
Continuous
 62
     0
100
AcDbBlockReference
  2
_OPEN
 10
151.0
 20
-785.9304743781599
 30
0.0
 41
2.0
 42
2.0
 43
2.0
  0
MTEXT
  5
7511
330
6E70
100
AcDbEntity
  8
30
  6
Continuous
 62
     0
100
AcDbMText
 10
0.0000000000000004
 20
-778.9304743781599
 30
0.0
 40
10.0
 41
0.0
 71
     5
 72
     1
  1
\A1;302
 73
     1
 44
1.0
1001
ACAD
1000
MTEXTBEGIN
1070
    73
1070
     1
1070
    44
1040
1.0
1070
    74
1070
     0
1000
MTEXTEND
  0
POINT
  5
7512
330
6E70
100
AcDbEntity
  8
DEFPOINTS
  6
Continuous
 62
     0
100
AcDbPoint
 10
-151.0
 20
-748.8425854357204
 30
0.0
  0
POINT
  5
7513
330
6E70
100
AcDbEntity
  8
DEFPOINTS
  6
Continuous
 62
     0
100
AcDbPoint
 10
151.0
 20
-748.8425854357204
 30
0.0
  0
POINT
  5
7514
330
6E70
100
AcDbEntity
  8
DEFPOINTS
  6
Continuous
 62
     0
100
AcDbPoint
 10
151.0
 20
-785.9304743781599
 30
0.0
  0
ENDBLK
  5
6E7B
330
6E70
100
AcDbEntity
  8
0
100
AcDbBlockEnd
  0
BLOCK
  5
6E86
330
6E7C
100
AcDbEntity
  8
0
100
AcDbBlockBegin
  2
*D21
 70
     1
 10
0.0
 20
0.0
 30
0.0
  3
*D21
  1

  0
LINE
  5
7698
330
6E7C
100
AcDbEntity
  8
30
  6
Continuous
 62
     0
100
AcDbLine
 10
-176.0
 20
-650.0
 30
0.0
 11
-306.4500104239523
 21
-649.9999999999999
 31
0.0
  0
LINE
  5
7699
330
6E7C
100
AcDbEntity
  8
30
  6
Continuous
 62
     0
100
AcDbLine
 10
-175.3988960500464
 20
-729.0
 30
0.0
 11
-306.4500104239523
 21
-728.9999999999999
 31
0.0
  0
LINE
  5
769A
330
6E7C
100
AcDbEntity
  8
30
  6
Continuous
 62
     0
100
AcDbLine
 10
-305.9500104239524
 20
-651.9999999999997
 30
0.0
 11
-305.9500104239524
 21
-726.9999999999996
 31
0.0
  0
INSERT
  5
769B
330
6E7C
100
AcDbEntity
  8
30
  6
Continuous
 62
     0
100
AcDbBlockReference
  2
_OPEN
 10
-305.9500104239524
 20
-649.9999999999999
 30
0.0
 41
2.0
 42
2.0
 43
2.0
 50
90.0
  0
INSERT
  5
769C
330
6E7C
100
AcDbEntity
  8
30
  6
Continuous
 62
     0
100
AcDbBlockReference
  2
_OPEN
 10
-305.9500104239524
 20
-728.9999999999999
 30
0.0
 41
2.0
 42
2.0
 43
2.0
 50
270.0
  0
MTEXT
  5
769D
330
6E7C
100
AcDbEntity
  8
30
  6
Continuous
 62
     0
100
AcDbMText
 10
-312.9500104239521
 20
-689.5
 30
0.0
 40
10.0
 41
0.0
 71
     5
 72
     1
  1
\A1;79
 11
0.0000000000000001
 21
1.0
 31
0.0
 73
     1
 44
1.0
  0
POINT
  5
769E
330
6E7C
100
AcDbEntity
  8
DEFPOINTS
  6
Continuous
 62
     0
100
AcDbPoint
 10
-166.0
 20
-650.0
 30
0.0
  0
POINT
  5
769F
330
6E7C
100
AcDbEntity
  8
DEFPOINTS
  6
Continuous
 62
     0
100
AcDbPoint
 10
-165.3988960500464
 20
-729.0
 30
0.0
  0
POINT
  5
76A0
330
6E7C
100
AcDbEntity
  8
DEFPOINTS
  6
Continuous
 62
     0
100
AcDbPoint
 10
-305.9500104239524
 20
-728.9999999999999
 30
0.0
  0
ENDBLK
  5
6E87
330
6E7C
100
AcDbEntity
  8
0
100
AcDbBlockEnd
  0
BLOCK
  5
6E92
330
6E88
100
AcDbEntity
  8
0
100
AcDbBlockBegin
  2
*D22
 70
     1
 10
0.0
 20
0.0
 30
0.0
  3
*D22
  1

  0
LINE
  5
751E
330
6E88
100
AcDbEntity
  8
30
  6
Continuous
 62
     0
100
AcDbLine
 10
-52.5
 20
-447.8425854357205
 30
0.0
 11
-52.5
 21
-496.9905511136339
 31
0.0
  0
LINE
  5
751F
330
6E88
100
AcDbEntity
  8
30
  6
Continuous
 62
     0
100
AcDbLine
 10
52.5
 20
-447.8425854357205
 30
0.0
 11
52.5
 21
-496.9905511136339
 31
0.0
  0
LINE
  5
7520
330
6E88
100
AcDbEntity
  8
30
  6
Continuous
 62
     0
100
AcDbLine
 10
-50.5
 20
-496.4905511136339
 30
0.0
 11
50.49999999999999
 21
-496.4905511136339
 31
0.0
  0
INSERT
  5
7521
330
6E88
100
AcDbEntity
  8
30
  6
Continuous
 62
     0
100
AcDbBlockReference
  2
_OPEN
 10
-52.5
 20
-496.4905511136339
 30
0.0
 41
2.0
 42
2.0
 43
2.0
 50
180.0
  0
INSERT
  5
7522
330
6E88
100
AcDbEntity
  8
30
  6
Continuous
 62
     0
100
AcDbBlockReference
  2
_OPEN
 10
52.5
 20
-496.4905511136339
 30
0.0
 41
2.0
 42
2.0
 43
2.0
  0
MTEXT
  5
7523
330
6E88
100
AcDbEntity
  8
30
  6
Continuous
 62
     0
100
AcDbMText
 10
-0.0000000000000067
 20
-489.4905511136339
 30
0.0
 40
10.0
 41
0.0
 71
     5
 72
     1
  1
\A1;105
 73
     1
 44
1.0
1001
ACAD
1000
MTEXTBEGIN
1070
    73
1070
     1
1070
    44
1040
1.0
1070
    74
1070
     0
1000
MTEXTEND
  0
POINT
  5
7524
330
6E88
100
AcDbEntity
  8
DEFPOINTS
  6
Continuous
 62
     0
100
AcDbPoint
 10
-52.5
 20
-437.8425854357206
 30
0.0
  0
POINT
  5
7525
330
6E88
100
AcDbEntity
  8
DEFPOINTS
  6
Continuous
 62
     0
100
AcDbPoint
 10
52.5
 20
-437.8425854357206
 30
0.0
  0
POINT
  5
7526
330
6E88
100
AcDbEntity
  8
DEFPOINTS
  6
Continuous
 62
     0
100
AcDbPoint
 10
52.5
 20
-496.4905511136339
 30
0.0
  0
ENDBLK
  5
6E93
330
6E88
100
AcDbEntity
  8
0
100
AcDbBlockEnd
  0
BLOCK
  5
6E9E
330
6E94
100
AcDbEntity
  8
0
100
AcDbBlockBegin
  2
*D23
 70
     1
 10
0.0
 20
0.0
 30
0.0
  3
*D23
  1

  0
LINE
  5
7527
330
6E94
100
AcDbEntity
  8
30
  6
Continuous
 62
     0
100
AcDbLine
 10
490.4999999999998
 20
-722.0
 30
0.0
 11
490.4999999999998
 21
-750.6030481124438
 31
0.0
  0
LINE
  5
7528
330
6E94
100
AcDbEntity
  8
30
  6
Continuous
 62
     0
100
AcDbLine
 10
609.4999999999998
 20
-722.0
 30
0.0
 11
609.4999999999998
 21
-750.6030481124438
 31
0.0
  0
LINE
  5
7529
330
6E94
100
AcDbEntity
  8
30
  6
Continuous
 62
     0
100
AcDbLine
 10
492.4999999999998
 20
-750.1030481124438
 30
0.0
 11
607.5
 21
-750.1030481124438
 31
0.0
  0
INSERT
  5
752A
330
6E94
100
AcDbEntity
  8
30
  6
Continuous
 62
     0
100
AcDbBlockReference
  2
_OPEN
 10
490.4999999999998
 20
-750.1030481124438
 30
0.0
 41
2.0
 42
2.0
 43
2.0
 50
180.0
  0
INSERT
  5
752B
330
6E94
100
AcDbEntity
  8
30
  6
Continuous
 62
     0
100
AcDbBlockReference
  2
_OPEN
 10
609.4999999999998
 20
-750.1030481124438
 30
0.0
 41
2.0
 42
2.0
 43
2.0
  0
MTEXT
  5
752C
330
6E94
100
AcDbEntity
  8
30
  6
Continuous
 62
     0
100
AcDbMText
 10
550.0
 20
-743.1030481124438
 30
0.0
 40
10.0
 41
0.0
 71
     5
 72
     1
  1
\A1;119
 73
     1
 44
1.0
1001
ACAD
1000
MTEXTBEGIN
1070
    73
1070
     1
1070
    44
1040
1.0
1070
    74
1070
     0
1000
MTEXTEND
  0
POINT
  5
752D
330
6E94
100
AcDbEntity
  8
DEFPOINTS
  6
Continuous
 62
     0
100
AcDbPoint
 10
490.4999999999998
 20
-712.0
 30
0.0
  0
POINT
  5
752E
330
6E94
100
AcDbEntity
  8
DEFPOINTS
  6
Continuous
 62
     0
100
AcDbPoint
 10
609.4999999999998
 20
-712.0
 30
0.0
  0
POINT
  5
752F
330
6E94
100
AcDbEntity
  8
DEFPOINTS
  6
Continuous
 62
     0
100
AcDbPoint
 10
609.4999999999998
 20
-750.1030481124438
 30
0.0
  0
ENDBLK
  5
6E9F
330
6E94
100
AcDbEntity
  8
0
100
AcDbBlockEnd
  0
BLOCK
  5
6EA9
330
6EA0
100
AcDbEntity
  8
0
100
AcDbBlockBegin
  2
*D24
 70
     1
 10
0.0
 20
0.0
 30
0.0
  3
*D24
  1

  0
LINE
  5
7530
330
6EA0
100
AcDbEntity
  8
30
  6
Continuous
 62
     0
100
AcDbLine
 10
608.2924810411176
 20
-540.4944208185313
 30
0.0
 11
599.8639844615807
 21
-586.0334000631221
 31
0.0
  0
MTEXT
  5
7531
330
6EA0
100
AcDbEntity
  8
30
  6
Continuous
 62
     0
100
AcDbMText
 10
599.0738143002337
 20
-551.8394914646299
 30
0.0
 40
10.0
 41
0.0
 71
     5
 72
     1
  1
\A1;R10
 11
0.1819922307905109
 21
0.9832999684388756
 31
0.0
 73
     1
 44
1.0
1001
ACAD
1000
MTEXTBEGIN
1070
    73
1070
     1
1070
    44
1040
1.0
1070
    74
1070
     0
1000
MTEXTEND
  0
INSERT
  5
7532
330
6EA0
100
AcDbEntity
  8
30
  6
Continuous
 62
     0
100
AcDbBlockReference
  2
_OPEN
 10
599.4999999999996
 20
-587.9999999999999
 30
0.0
 41
2.0
 42
2.0
 43
2.0
 50
259.5141768324704
  0
LINE
  5
7533
330
6EA0
100
AcDbEntity
  8
30
  6
Continuous
 62
     0
100
AcDbLine
 10
595.9181213089149
 20
-606.8665427739509
 30
0.0
 11
596.0981213089147
 21
-606.8665427739509
 31
0.0
  0
LINE
  5
7534
330
6EA0
100
AcDbEntity
  8
30
  6
Continuous
 62
     0
100
AcDbLine
 10
596.0081213089148
 20
-606.9565427739512
 30
0.0
 11
596.008121308915
 21
-606.776542773951
 31
0.0
  0
POINT
  5
7535
330
6EA0
100
AcDbEntity
  8
DEFPOINTS
  6
Continuous
 62
     0
100
AcDbPoint
 10
599.4999999999996
 20
-587.9999999999999
 30
0.0
  0
POINT
  5
7536
330
6EA0
100
AcDbEntity
  8
DEFPOINTS
  6
Continuous
 62
     0
100
AcDbPoint
 10
596.0081213089148
 20
-606.8665427739509
 30
0.0
  0
ENDBLK
  5
6EAA
330
6EA0
100
AcDbEntity
  8
0
100
AcDbBlockEnd
  0
BLOCK
  5
6EB5
330
6EAB
100
AcDbEntity
  8
0
100
AcDbBlockBegin
  2
*D25
 70
     1
 10
0.0
 20
0.0
 30
0.0
  3
*D25
  1

  0
LINE
  5
7537
330
6EAB
100
AcDbEntity
  8
30
  6
Continuous
 62
     0
100
AcDbLine
 10
490.5
 20
-578.0
 30
0.0
 11
437.6887971310579
 21
-578.0
 31
0.0
  0
LINE
  5
7538
330
6EAB
100
AcDbEntity
  8
30
  6
Continuous
 62
     0
100
AcDbLine
 10
490.4999999999998
 20
-722.0
 30
0.0
 11
437.6887971310578
 21
-722.0
 31
0.0
  0
LINE
  5
7539
330
6EAB
100
AcDbEntity
  8
30
  6
Continuous
 62
     0
100
AcDbLine
 10
438.188797131058
 20
-580.0
 30
0.0
 11
438.188797131058
 21
-720.0
 31
0.0
  0
INSERT
  5
753A
330
6EAB
100
AcDbEntity
  8
30
  6
Continuous
 62
     0
100
AcDbBlockReference
  2
_OPEN
 10
438.188797131058
 20
-578.0
 30
0.0
 41
2.0
 42
2.0
 43
2.0
 50
90.0
  0
INSERT
  5
753B
330
6EAB
100
AcDbEntity
  8
30
  6
Continuous
 62
     0
100
AcDbBlockReference
  2
_OPEN
 10
438.188797131058
 20
-722.0
 30
0.0
 41
2.0
 42
2.0
 43
2.0
 50
270.0
  0
MTEXT
  5
753C
330
6EAB
100
AcDbEntity
  8
30
  6
Continuous
 62
     0
100
AcDbMText
 10
431.1887971310579
 20
-649.9999999999999
 30
0.0
 40
10.0
 41
0.0
 71
     5
 72
     1
  1
\A1;144
 11
0.0000000000000001
 21
1.0
 31
0.0
 73
     1
 44
1.0
1001
ACAD
1000
MTEXTBEGIN
1070
    73
1070
     1
1070
    44
1040
1.0
1070
    74
1070
     0
1000
MTEXTEND
  0
POINT
  5
753D
330
6EAB
100
AcDbEntity
  8
DEFPOINTS
  6
Continuous
 62
     0
100
AcDbPoint
 10
500.4999999999998
 20
-578.0
 30
0.0
  0
POINT
  5
753E
330
6EAB
100
AcDbEntity
  8
DEFPOINTS
  6
Continuous
 62
     0
100
AcDbPoint
 10
500.4999999999998
 20
-722.0
 30
0.0
  0
POINT
  5
753F
330
6EAB
100
AcDbEntity
  8
DEFPOINTS
  6
Continuous
 62
     0
100
AcDbPoint
 10
438.188797131058
 20
-722.0
 30
0.0
  0
ENDBLK
  5
6EB6
330
6EAB
100
AcDbEntity
  8
0
100
AcDbBlockEnd
  0
BLOCK
  5
6F0D
330
6F03
100
AcDbEntity
  8
0
100
AcDbBlockBegin
  2
*D26
 70
     1
 10
0.0
 20
0.0
 30
0.0
  3
*D26
  1

  0
LINE
  5
7540
330
6F03
100
AcDbEntity
  8
30
  6
Continuous
 62
     0
100
AcDbLine
 10
-160.0
 20
-203.0
 30
0.0
 11
-160.0
 21
-264.8072214134745
 31
0.0
  0
LINE
  5
7541
330
6F03
100
AcDbEntity
  8
30
  6
Continuous
 62
     0
100
AcDbLine
 10
269.0
 20
-203.0
 30
0.0
 11
269.0
 21
-264.8072214134745
 31
0.0
  0
LINE
  5
7542
330
6F03
100
AcDbEntity
  8
30
  6
Continuous
 62
     0
100
AcDbLine
 10
-158.0
 20
-264.3072214134745
 30
0.0
 11
267.0
 21
-264.3072214134745
 31
0.0
  0
INSERT
  5
7543
330
6F03
100
AcDbEntity
  8
30
  6
Continuous
 62
     0
100
AcDbBlockReference
  2
_OPEN
 10
-160.0
 20
-264.3072214134745
 30
0.0
 41
2.0
 42
2.0
 43
2.0
 50
180.0
  0
INSERT
  5
7544
330
6F03
100
AcDbEntity
  8
30
  6
Continuous
 62
     0
100
AcDbBlockReference
  2
_OPEN
 10
269.0
 20
-264.3072214134745
 30
0.0
 41
2.0
 42
2.0
 43
2.0
  0
MTEXT
  5
7545
330
6F03
100
AcDbEntity
  8
30
  6
Continuous
 62
     0
100
AcDbMText
 10
54.5
 20
-257.3072214134745
 30
0.0
 40
10.0
 41
0.0
 71
     5
 72
     1
  1
\A1;429
 73
     1
 44
1.0
1001
ACAD
1000
MTEXTBEGIN
1070
    73
1070
     1
1070
    44
1040
1.0
1070
    74
1070
     0
1000
MTEXTEND
  0
POINT
  5
7546
330
6F03
100
AcDbEntity
  8
DEFPOINTS
  6
Continuous
 62
     0
100
AcDbPoint
 10
-160.0
 20
-193.0
 30
0.0
  0
POINT
  5
7547
330
6F03
100
AcDbEntity
  8
DEFPOINTS
  6
Continuous
 62
     0
100
AcDbPoint
 10
269.0
 20
-193.0
 30
0.0
  0
POINT
  5
7548
330
6F03
100
AcDbEntity
  8
DEFPOINTS
  6
Continuous
 62
     0
100
AcDbPoint
 10
269.0
 20
-264.3072214134745
 30
0.0
  0
ENDBLK
  5
6F0E
330
6F03
100
AcDbEntity
  8
0
100
AcDbBlockEnd
  0
BLOCK
  5
6F1A
330
6F10
100
AcDbEntity
  8
0
100
AcDbBlockBegin
  2
*D27
 70
     1
 10
0.0
 20
0.0
 30
0.0
  3
*D27
  1

  0
LINE
  5
7549
330
6F10
100
AcDbEntity
  8
30
  6
Continuous
 62
     0
100
AcDbLine
 10
-170.0
 20
257.0
 30
0.0
 11
-203.2523894811419
 21
257.0
 31
0.0
  0
LINE
  5
754A
330
6F10
100
AcDbEntity
  8
30
  6
Continuous
 62
     0
100
AcDbLine
 10
-170.0
 20
0.0000000000000028
 30
0.0
 11
-203.252389481142
 21
0.0000000000000123
 31
0.0
  0
LINE
  5
754B
330
6F10
100
AcDbEntity
  8
30
  6
Continuous
 62
     0
100
AcDbLine
 10
-202.7523894811419
 20
255.0
 30
0.0
 11
-202.752389481142
 21
2.000000000000011
 31
0.0
  0
INSERT
  5
754C
330
6F10
100
AcDbEntity
  8
30
  6
Continuous
 62
     0
100
AcDbBlockReference
  2
_OPEN
 10
-202.7523894811419
 20
257.0
 30
0.0
 41
2.0
 42
2.0
 43
2.0
 50
90.0
  0
INSERT
  5
754D
330
6F10
100
AcDbEntity
  8
30
  6
Continuous
 62
     0
100
AcDbBlockReference
  2
_OPEN
 10
-202.752389481142
 20
0.0000000000000121
 30
0.0
 41
2.0
 42
2.0
 43
2.0
 50
270.0
  0
MTEXT
  5
754E
330
6F10
100
AcDbEntity
  8
30
  6
Continuous
 62
     0
100
AcDbMText
 10
-209.752389481142
 20
128.4999999999999
 30
0.0
 40
10.0
 41
0.0
 71
     5
 72
     1
  1
\A1;257
 11
0.0000000000000001
 21
1.0
 31
0.0
 73
     1
 44
1.0
1001
ACAD
1000
MTEXTBEGIN
1070
    73
1070
     1
1070
    44
1040
1.0
1070
    74
1070
     0
1000
MTEXTEND
  0
POINT
  5
754F
330
6F10
100
AcDbEntity
  8
DEFPOINTS
  6
Continuous
 62
     0
100
AcDbPoint
 10
-160.0
 20
257.0
 30
0.0
  0
POINT
  5
7550
330
6F10
100
AcDbEntity
  8
DEFPOINTS
  6
Continuous
 62
     0
100
AcDbPoint
 10
-160.0
 20
0.0
 30
0.0
  0
POINT
  5
7551
330
6F10
100
AcDbEntity
  8
DEFPOINTS
  6
Continuous
 62
     0
100
AcDbPoint
 10
-202.752389481142
 20
0.0000000000000121
 30
0.0
  0
ENDBLK
  5
6F1B
330
6F10
100
AcDbEntity
  8
0
100
AcDbBlockEnd
  0
BLOCK
  5
6F27
330
6F1D
100
AcDbEntity
  8
0
100
AcDbBlockBegin
  2
*D28
 70
     1
 10
0.0
 20
0.0
 30
0.0
  3
*D28
  1

  0
LINE
  5
76A1
330
6F1D
100
AcDbEntity
  8
30
  6
Continuous
 62
     0
100
AcDbLine
 10
-170.0
 20
0.0000000000000028
 30
0.0
 11
-203.252389481142
 21
0.0000000000000123
 31
0.0
  0
LINE
  5
76A2
330
6F1D
100
AcDbEntity
  8
30
  6
Continuous
 62
     0
100
AcDbLine
 10
-170.0
 20
-193.0
 30
0.0
 11
-203.252389481142
 21
-192.9999999999999
 31
0.0
  0
LINE
  5
76A3
330
6F1D
100
AcDbEntity
  8
30
  6
Continuous
 62
     0
100
AcDbLine
 10
-202.752389481142
 20
-1.999999999999986
 30
0.0
 11
-202.752389481142
 21
-190.9999999999999
 31
0.0
  0
INSERT
  5
76A4
330
6F1D
100
AcDbEntity
  8
30
  6
Continuous
 62
     0
100
AcDbBlockReference
  2
_OPEN
 10
-202.752389481142
 20
0.0000000000000121
 30
0.0
 41
2.0
 42
2.0
 43
2.0
 50
90.0
  0
INSERT
  5
76A5
330
6F1D
100
AcDbEntity
  8
30
  6
Continuous
 62
     0
100
AcDbBlockReference
  2
_OPEN
 10
-202.752389481142
 20
-192.9999999999999
 30
0.0
 41
2.0
 42
2.0
 43
2.0
 50
270.0
  0
MTEXT
  5
76A6
330
6F1D
100
AcDbEntity
  8
30
  6
Continuous
 62
     0
100
AcDbMText
 10
-209.752389481142
 20
-96.50000000000002
 30
0.0
 40
10.0
 41
0.0
 71
     5
 72
     1
  1
\A1;193
 11
0.0000000000000001
 21
1.0
 31
0.0
 73
     1
 44
1.0
  0
POINT
  5
76A7
330
6F1D
100
AcDbEntity
  8
DEFPOINTS
  6
Continuous
 62
     0
100
AcDbPoint
 10
-160.0
 20
0.0
 30
0.0
  0
POINT
  5
76A8
330
6F1D
100
AcDbEntity
  8
DEFPOINTS
  6
Continuous
 62
     0
100
AcDbPoint
 10
-160.0
 20
-193.0
 30
0.0
  0
POINT
  5
76A9
330
6F1D
100
AcDbEntity
  8
DEFPOINTS
  6
Continuous
 62
     0
100
AcDbPoint
 10
-202.752389481142
 20
-192.9999999999999
 30
0.0
  0
ENDBLK
  5
6F28
330
6F1D
100
AcDbEntity
  8
0
100
AcDbBlockEnd
  0
BLOCK
  5
6F35
330
6F2B
100
AcDbEntity
  8
0
100
AcDbBlockBegin
  2
*D29
 70
     1
 10
0.0
 20
0.0
 30
0.0
  3
*D29
  1

  0
LINE
  5
755B
330
6F2B
100
AcDbEntity
  8
30
  6
Continuous
 62
     0
100
AcDbLine
 10
-268.2792968749999
 20
-699.0
 30
0.0
 11
-286.7243577752428
 21
-699.0
 31
0.0
  0
LINE
  5
755C
330
6F2B
100
AcDbEntity
  8
30
  6
Continuous
 62
     0
100
AcDbLine
 10
-267.4864377247959
 20
-728.9999999999999
 30
0.0
 11
-286.7243577752428
 21
-728.9999999999999
 31
0.0
  0
LINE
  5
755D
330
6F2B
100
AcDbEntity
  8
30
  6
Continuous
 62
     0
100
AcDbLine
 10
-286.2243577752428
 20
-701.0
 30
0.0
 11
-286.2243577752428
 21
-726.9999999999996
 31
0.0
  0
INSERT
  5
755E
330
6F2B
100
AcDbEntity
  8
30
  6
Continuous
 62
     0
100
AcDbBlockReference
  2
_OPEN
 10
-286.2243577752428
 20
-699.0
 30
0.0
 41
2.0
 42
2.0
 43
2.0
 50
90.0
  0
INSERT
  5
755F
330
6F2B
100
AcDbEntity
  8
30
  6
Continuous
 62
     0
100
AcDbBlockReference
  2
_OPEN
 10
-286.2243577752428
 20
-728.9999999999999
 30
0.0
 41
2.0
 42
2.0
 43
2.0
 50
270.0
  0
MTEXT
  5
7560
330
6F2B
100
AcDbEntity
  8
30
  6
Continuous
 62
     0
100
AcDbMText
 10
-293.2243577752426
 20
-714.0
 30
0.0
 40
10.0
 41
0.0
 71
     5
 72
     1
  1
\A1;30
 11
0.0000000000000001
 21
1.0
 31
0.0
 73
     1
 44
1.0
1001
ACAD
1000
MTEXTBEGIN
1070
    73
1070
     1
1070
    44
1040
1.0
1070
    74
1070
     0
1000
MTEXTEND
  0
POINT
  5
7561
330
6F2B
100
AcDbEntity
  8
DEFPOINTS
  6
Continuous
 62
     0
100
AcDbPoint
 10
-258.279296875
 20
-699.0
 30
0.0
  0
POINT
  5
7562
330
6F2B
100
AcDbEntity
  8
DEFPOINTS
  6
Continuous
 62
     0
100
AcDbPoint
 10
-257.4864377247959
 20
-728.9999999999999
 30
0.0
  0
POINT
  5
7563
330
6F2B
100
AcDbEntity
  8
DEFPOINTS
  6
Continuous
 62
     0
100
AcDbPoint
 10
-286.2243577752428
 20
-728.9999999999999
 30
0.0
  0
ENDBLK
  5
6F36
330
6F2B
100
AcDbEntity
  8
0
100
AcDbBlockEnd
  0
BLOCK
  5
6F42
330
6F38
100
AcDbEntity
  8
0
100
AcDbBlockBegin
  2
*D30
 70
     1
 10
0.0
 20
0.0
 30
0.0
  3
*D30
  1

  0
LINE
  5
7564
330
6F38
100
AcDbEntity
  8
30
  6
Continuous
 62
     0
100
AcDbLine
 10
-270.2860800635139
 20
-417.9999999999997
 30
0.0
 11
-282.0735031517423
 21
-417.9999999999997
 31
0.0
  0
LINE
  5
7565
330
6F38
100
AcDbEntity
  8
30
  6
Continuous
 62
     0
100
AcDbLine
 10
-268.6958007811999
 20
-448.0
 30
0.0
 11
-282.0735031517423
 21
-448.0
 31
0.0
  0
LINE
  5
7566
330
6F38
100
AcDbEntity
  8
30
  6
Continuous
 62
     0
100
AcDbLine
 10
-281.5735031517423
 20
-419.9999999999998
 30
0.0
 11
-281.5735031517423
 21
-446.0
 31
0.0
  0
INSERT
  5
7567
330
6F38
100
AcDbEntity
  8
30
  6
Continuous
 62
     0
100
AcDbBlockReference
  2
_OPEN
 10
-281.5735031517423
 20
-417.9999999999997
 30
0.0
 41
2.0
 42
2.0
 43
2.0
 50
90.0
  0
INSERT
  5
7568
330
6F38
100
AcDbEntity
  8
30
  6
Continuous
 62
     0
100
AcDbBlockReference
  2
_OPEN
 10
-281.5735031517423
 20
-448.0
 30
0.0
 41
2.0
 42
2.0
 43
2.0
 50
270.0
  0
MTEXT
  5
7569
330
6F38
100
AcDbEntity
  8
30
  6
Continuous
 62
     0
100
AcDbMText
 10
-288.5735031517423
 20
-433.0
 30
0.0
 40
10.0
 41
0.0
 71
     5
 72
     1
  1
\A1;30
 11
0.0000000000000001
 21
1.0
 31
0.0
 73
     1
 44
1.0
1001
ACAD
1000
MTEXTBEGIN
1070
    73
1070
     1
1070
    44
1040
1.0
1070
    74
1070
     0
1000
MTEXTEND
  0
POINT
  5
756A
330
6F38
100
AcDbEntity
  8
DEFPOINTS
  6
Continuous
 62
     0
100
AcDbPoint
 10
-260.2860800635139
 20
-417.9999999999997
 30
0.0
  0
POINT
  5
756B
330
6F38
100
AcDbEntity
  8
DEFPOINTS
  6
Continuous
 62
     0
100
AcDbPoint
 10
-258.6958007812
 20
-448.0
 30
0.0
  0
POINT
  5
756C
330
6F38
100
AcDbEntity
  8
DEFPOINTS
  6
Continuous
 62
     0
100
AcDbPoint
 10
-281.5735031517423
 20
-448.0
 30
0.0
  0
ENDBLK
  5
6F43
330
6F38
100
AcDbEntity
  8
0
100
AcDbBlockEnd
  0
BLOCK
  5
6F64
330
6F5A
100
AcDbEntity
  8
0
100
AcDbBlockBegin
  2
*D31
 70
     1
 10
0.0
 20
0.0
 30
0.0
  3
*D31
  1

  0
LINE
  5
7589
330
6F5A
100
AcDbEntity
  8
30
  6
Continuous
 62
     0
100
AcDbLine
 10
235.0
 20
648.4831426686017
 30
0.0
 11
255.8762147249654
 21
648.4831426686017
 31
0.0
  0
LINE
  5
758A
330
6F5A
100
AcDbEntity
  8
30
  6
Continuous
 62
     0
100
AcDbLine
 10
235.0
 20
633.4831426686019
 30
0.0
 11
255.8762147249654
 21
633.4831426686019
 31
0.0
  0
LINE
  5
758B
330
6F5A
100
AcDbEntity
  8
30
  6
Continuous
 62
     0
100
AcDbLine
 10
255.3762147249654
 20
635.4831426686017
 30
0.0
 11
255.3762147249654
 21
646.4831426686019
 31
0.0
  0
LINE
  5
758C
330
6F5A
100
AcDbEntity
  8
30
  6
Continuous
 62
     0
100
AcDbLine
 10
255.3762147249654
 20
648.4831426686017
 30
0.0
 11
255.3762147249654
 21
667.8164760019352
 31
0.0
  0
INSERT
  5
758D
330
6F5A
100
AcDbEntity
  8
30
  6
Continuous
 62
     0
100
AcDbBlockReference
  2
_OPEN
 10
255.3762147249654
 20
633.4831426686019
 30
0.0
 41
2.0
 42
2.0
 43
2.0
 50
270.0
  0
INSERT
  5
758E
330
6F5A
100
AcDbEntity
  8
30
  6
Continuous
 62
     0
100
AcDbBlockReference
  2
_OPEN
 10
255.3762147249654
 20
648.4831426686017
 30
0.0
 41
2.0
 42
2.0
 43
2.0
 50
90.0
  0
MTEXT
  5
758F
330
6F5A
100
AcDbEntity
  8
30
  6
Continuous
 62
     0
100
AcDbMText
 10
248.3762147249653
 20
659.1498093352686
 30
0.0
 40
10.0
 41
0.0
 71
     5
 72
     1
  1
\A1;15
 11
0.0000000000000001
 21
1.0
 31
0.0
 73
     1
 44
1.0
1001
ACAD
1000
MTEXTBEGIN
1070
    73
1070
     1
1070
    44
1040
1.0
1070
    74
1070
     0
1000
MTEXTEND
  0
POINT
  5
7590
330
6F5A
100
AcDbEntity
  8
DEFPOINTS
  6
Continuous
 62
     0
100
AcDbPoint
 10
225.0
 20
648.4831426686017
 30
0.0
  0
POINT
  5
7591
330
6F5A
100
AcDbEntity
  8
DEFPOINTS
  6
Continuous
 62
     0
100
AcDbPoint
 10
225.0
 20
633.4831426686019
 30
0.0
  0
POINT
  5
7592
330
6F5A
100
AcDbEntity
  8
DEFPOINTS
  6
Continuous
 62
     0
100
AcDbPoint
 10
255.3762147249654
 20
633.4831426686019
 30
0.0
  0
ENDBLK
  5
6F65
330
6F5A
100
AcDbEntity
  8
0
100
AcDbBlockEnd
  0
BLOCK
  5
6F71
330
6F67
100
AcDbEntity
  8
0
100
AcDbBlockBegin
  2
*D32
 70
     1
 10
0.0
 20
0.0
 30
0.0
  3
*D32
  1

  0
LINE
  5
76AA
330
6F67
100
AcDbEntity
  8
30
  6
Continuous
 62
     0
100
AcDbLine
 10
235.0
 20
633.4831426686019
 30
0.0
 11
255.8762147249654
 21
633.4831426686019
 31
0.0
  0
LINE
  5
76AB
330
6F67
100
AcDbEntity
  8
30
  6
Continuous
 62
     0
100
AcDbLine
 10
246.2827148438
 20
603.4831426686017
 30
0.0
 11
255.8762147249654
 21
603.4831426686017
 31
0.0
  0
LINE
  5
76AC
330
6F67
100
AcDbEntity
  8
30
  6
Continuous
 62
     0
100
AcDbLine
 10
255.3762147249654
 20
631.4831426686017
 30
0.0
 11
255.3762147249654
 21
605.4831426686019
 31
0.0
  0
INSERT
  5
76AD
330
6F67
100
AcDbEntity
  8
30
  6
Continuous
 62
     0
100
AcDbBlockReference
  2
_OPEN
 10
255.3762147249654
 20
633.4831426686019
 30
0.0
 41
2.0
 42
2.0
 43
2.0
 50
90.0
  0
INSERT
  5
76AE
330
6F67
100
AcDbEntity
  8
30
  6
Continuous
 62
     0
100
AcDbBlockReference
  2
_OPEN
 10
255.3762147249654
 20
603.4831426686017
 30
0.0
 41
2.0
 42
2.0
 43
2.0
 50
270.0
  0
MTEXT
  5
76AF
330
6F67
100
AcDbEntity
  8
30
  6
Continuous
 62
     0
100
AcDbMText
 10
248.3762147249651
 20
618.4831426686018
 30
0.0
 40
10.0
 41
0.0
 71
     5
 72
     1
  1
\A1;30
 11
0.0000000000000001
 21
1.0
 31
0.0
 73
     1
 44
1.0
  0
POINT
  5
76B0
330
6F67
100
AcDbEntity
  8
DEFPOINTS
  6
Continuous
 62
     0
100
AcDbPoint
 10
225.0
 20
633.4831426686019
 30
0.0
  0
POINT
  5
76B1
330
6F67
100
AcDbEntity
  8
DEFPOINTS
  6
Continuous
 62
     0
100
AcDbPoint
 10
236.2827148438
 20
603.4831426686017
 30
0.0
  0
POINT
  5
76B2
330
6F67
100
AcDbEntity
  8
DEFPOINTS
  6
Continuous
 62
     0
100
AcDbPoint
 10
255.3762147249654
 20
603.4831426686017
 30
0.0
  0
ENDBLK
  5
6F72
330
6F67
100
AcDbEntity
  8
0
100
AcDbBlockEnd
  0
BLOCK
  5
6F7E
330
6F74
100
AcDbEntity
  8
0
100
AcDbBlockBegin
  2
*D33
 70
     1
 10
0.0
 20
0.0
 30
0.0
  3
*D33
  1

  0
LINE
  5
76B3
330
6F74
100
AcDbEntity
  8
30
  6
Continuous
 62
     0
100
AcDbLine
 10
246.2827148438
 20
603.4831426686017
 30
0.0
 11
255.8762147249654
 21
603.4831426686017
 31
0.0
  0
LINE
  5
76B4
330
6F74
100
AcDbEntity
  8
30
  6
Continuous
 62
     0
100
AcDbLine
 10
235.0
 20
518.4831426686018
 30
0.0
 11
255.8762147249653
 21
518.4831426686018
 31
0.0
  0
LINE
  5
76B5
330
6F74
100
AcDbEntity
  8
30
  6
Continuous
 62
     0
100
AcDbLine
 10
255.3762147249654
 20
601.4831426686019
 30
0.0
 11
255.3762147249653
 21
520.4831426686019
 31
0.0
  0
INSERT
  5
76B6
330
6F74
100
AcDbEntity
  8
30
  6
Continuous
 62
     0
100
AcDbBlockReference
  2
_OPEN
 10
255.3762147249654
 20
603.4831426686017
 30
0.0
 41
2.0
 42
2.0
 43
2.0
 50
90.0
  0
INSERT
  5
76B7
330
6F74
100
AcDbEntity
  8
30
  6
Continuous
 62
     0
100
AcDbBlockReference
  2
_OPEN
 10
255.3762147249653
 20
518.4831426686018
 30
0.0
 41
2.0
 42
2.0
 43
2.0
 50
270.0
  0
MTEXT
  5
76B8
330
6F74
100
AcDbEntity
  8
30
  6
Continuous
 62
     0
100
AcDbMText
 10
248.3762147249651
 20
560.9831426686018
 30
0.0
 40
10.0
 41
0.0
 71
     5
 72
     1
  1
\A1;85
 11
0.0000000000000001
 21
1.0
 31
0.0
 73
     1
 44
1.0
  0
POINT
  5
76B9
330
6F74
100
AcDbEntity
  8
DEFPOINTS
  6
Continuous
 62
     0
100
AcDbPoint
 10
236.2827148438
 20
603.4831426686017
 30
0.0
  0
POINT
  5
76BA
330
6F74
100
AcDbEntity
  8
DEFPOINTS
  6
Continuous
 62
     0
100
AcDbPoint
 10
225.0
 20
518.4831426686018
 30
0.0
  0
POINT
  5
76BB
330
6F74
100
AcDbEntity
  8
DEFPOINTS
  6
Continuous
 62
     0
100
AcDbPoint
 10
255.3762147249653
 20
518.4831426686018
 30
0.0
  0
ENDBLK
  5
6F7F
330
6F74
100
AcDbEntity
  8
0
100
AcDbBlockEnd
  0
BLOCK
  5
763B
330
7631
100
AcDbEntity
  8
0
100
AcDbBlockBegin
  2
*D34
 70
     1
 10
0.0
 20
0.0
 30
0.0
  3
*D34
  1

  0
LINE
  5
7632
330
7631
100
AcDbEntity
  8
30
  6
Continuous
 62
     0
100
AcDbLine
 10
789.9975113513487
 20
95.49861322549075
 30
0.0
 11
830.8115536296819
 21
95.49861322549075
 31
0.0
  0
LINE
  5
7633
330
7631
100
AcDbEntity
  8
30
  6
Continuous
 62
     0
100
AcDbLine
 10
731.3330945803736
 20
-0.0000000000000028
 30
0.0
 11
830.8115536296819
 21
-0.000000000000031
 31
0.0
  0
LINE
  5
7634
330
7631
100
AcDbEntity
  8
30
  6
Continuous
 62
     0
100
AcDbLine
 10
830.3115536296816
 20
93.49861322549076
 30
0.0
 11
830.3115536296816
 21
1.999999999999968
 31
0.0
  0
INSERT
  5
7635
330
7631
100
AcDbEntity
  8
30
  6
Continuous
 62
     0
100
AcDbBlockReference
  2
_OPEN
 10
830.3115536296816
 20
95.49861322549075
 30
0.0
 41
2.0
 42
2.0
 43
2.0
 50
90.0
  0
INSERT
  5
7636
330
7631
100
AcDbEntity
  8
30
  6
Continuous
 62
     0
100
AcDbBlockReference
  2
_OPEN
 10
830.3115536296816
 20
-0.0000000000000309
 30
0.0
 41
2.0
 42
2.0
 43
2.0
 50
270.0
  0
MTEXT
  5
7637
330
7631
100
AcDbEntity
  8
30
  6
Continuous
 62
     0
100
AcDbMText
 10
823.3115536296818
 20
47.74930661274551
 30
0.0
 40
10.0
 41
0.0
 71
     5
 72
     1
  1
\A1;95.5
 11
0.0000000000000001
 21
1.0
 31
0.0
 73
     1
 44
1.0
1001
ACAD
1000
MTEXTBEGIN
1070
    73
1070
     1
1070
    44
1040
1.0
1070
    74
1070
     0
1000
MTEXTEND
  0
POINT
  5
7638
330
7631
100
AcDbEntity
  8
DEFPOINTS
  6
Continuous
 62
     0
100
AcDbPoint
 10
779.9975113513487
 20
95.49861322549075
 30
0.0
  0
POINT
  5
7639
330
7631
100
AcDbEntity
  8
DEFPOINTS
  6
Continuous
 62
     0
100
AcDbPoint
 10
721.3330945803736
 20
0.0
 30
0.0
  0
POINT
  5
763A
330
7631
100
AcDbEntity
  8
DEFPOINTS
  6
Continuous
 62
     0
100
AcDbPoint
 10
830.3115536296816
 20
-0.0000000000000309
 30
0.0
  0
ENDBLK
  5
763C
330
7631
100
AcDbEntity
  8
0
100
AcDbBlockEnd
  0
ENDSEC
  0
SECTION
  2
ENTITIES
  0
LINE
  5
B4
330
1E
100
AcDbEntity
  8
16
100
AcDbLine
 10
-0.0000000000000021
 20
-231.0
 30
0.0
 11
0.0
 21
245.0
 31
0.0
  0
LINE
  5
B5
330
1E
100
AcDbEntity
  8
16
100
AcDbLine
 10
277.171104594311
 20
0.0000000000000107
 30
0.0
 11
-189.1661476100052
 21
0.0
 31
0.0
  0
MTEXT
  5
BF3
330
1E
100
AcDbEntity
  8
24
  6
Continuous
100
AcDbMText
 10
142.1181906098743
 20
177.5
 30
0.0
 40
3.0
 41
0.0
 71
     1
 72
     1
  1
\A1;
 73
     1
 44
1.0
1001
ACAD
1000
MTEXTBEGIN
1070
    73
1070
     1
1070
    44
1040
1.0
1070
    74
1070
     0
1000
MTEXTEND
  0
LINE
  5
1C9A
330
1E
100
AcDbEntity
  8
16
100
AcDbLine
 10
-0.2145881026626739
 20
280.0815313955581
 30
0.0
 11
0.0
 21
727.8004738743933
 31
0.0
  0
LINE
  5
1C9B
330
1E
100
AcDbEntity
  8
16
100
AcDbLine
 10
721.3330945803736
 20
0.0
 30
0.0
 11
296.0
 21
0.0
 31
0.0
  0
MTEXT
  5
5D8A
330
1E
100
AcDbEntity
  8
19
  6
Continuous
100
AcDbMText
 10
498.532786048534
 20
498.1719818922814
 30
0.0
 40
10.0
 41
140.1359999999999
 71
     1
 72
     5
  1
XS2000NE 4P RC\PXS2000NN 4P RC
  7
STANDARD1
 73
     1
 44
1.0
1001
ACAD
1000
MTEXTBEGIN
1070
    73
1070
     1
1070
    44
1040
1.0
1070
    74
1070
     0
1000
MTEXTEND
  0
TEXT
  5
694F
330
1E
100
AcDbEntity
  8
30
  6
Continuous
100
AcDbText
 10
763.3687443967218
 20
-110.609303563034
 30
0.0
 40
10.0
  1
%%C11
100
AcDbText
  0
LEADER
  5
6950
330
1E
100
AcDbEntity
  8
30
  6
Continuous
100
AcDbLeader
  3
STANDARD
 76
     3
 10
764.9975113513487
 20
-139.0016309151592
 30
0.0
 10
782.1293318065803
 20
-113.6908704277589
 30
0.0
 10
765.7845542682694
 20
-113.6908712084943
 30
0.0
211
-1.0
221
0.0
231
0.0
210
0.0
220
0.0
230
-1.0
1001
ACAD
1000
DSTYLE
1002
{
1070
     5
1000
OPEN
1070
   342
1005
3B2
1002
}
  0
LINE
  5
6B12
330
1E
100
AcDbEntity
  8
12
  6
DASHED
100
AcDbLine
 10
-157.0
 20
-79.0
 30
0.0
 11
-145.0
 21
-79.0
 31
0.0
  0
CIRCLE
  5
6B13
330
1E
100
AcDbEntity
  8
12
  6
DASHED
100
AcDbCircle
 10
-151.0
 20
-79.0
 30
0.0
 40
3.25
  0
LINE
  5
6B14
330
1E
100
AcDbEntity
  8
12
  6
DASHED
100
AcDbLine
 10
-151.0
 20
-73.0
 30
0.0
 11
-151.0
 21
-85.0
 31
0.0
  0
LINE
  5
6B17
330
1E
100
AcDbEntity
  8
12
  6
DASHED
100
AcDbLine
 10
145.0
 20
-79.0
 30
0.0
 11
157.0
 21
-79.0
 31
0.0
  0
LINE
  5
6B18
330
1E
100
AcDbEntity
  8
12
  6
DASHED
100
AcDbLine
 10
151.0
 20
-73.0
 30
0.0
 11
151.0
 21
-85.0
 31
0.0
  0
CIRCLE
  5
6B19
330
1E
100
AcDbEntity
  8
12
  6
DASHED
100
AcDbCircle
 10
151.0
 20
-79.0
 30
0.0
 40
3.25
  0
LINE
  5
6B1C
330
1E
100
AcDbEntity
  8
12
  6
DASHED
100
AcDbLine
 10
-67.5
 20
232.0
 30
0.0
 11
-37.5
 21
232.0
 31
0.0
  0
LINE
  5
6B1D
330
1E
100
AcDbEntity
  8
12
  6
DASHED
100
AcDbLine
 10
-52.5
 20
247.0
 30
0.0
 11
-52.5
 21
217.0
 31
0.0
  0
CIRCLE
  5
6B1E
330
1E
100
AcDbEntity
  8
12
  6
DASHED
100
AcDbCircle
 10
-52.5
 20
232.0
 30
0.0
 40
5.5
  0
LINE
  5
6B1F
330
1E
100
AcDbEntity
  8
12
  6
DASHED
100
AcDbLine
 10
37.5
 20
232.0
 30
0.0
 11
67.5
 21
232.0
 31
0.0
  0
LINE
  5
6B20
330
1E
100
AcDbEntity
  8
12
  6
DASHED
100
AcDbLine
 10
52.5
 20
247.0
 30
0.0
 11
52.5
 21
217.0
 31
0.0
  0
CIRCLE
  5
6B21
330
1E
100
AcDbEntity
  8
12
  6
DASHED
100
AcDbCircle
 10
52.5
 20
232.0
 30
0.0
 40
5.5
  0
LINE
  5
6B44
330
1E
100
AcDbEntity
  8
12
  6
DASHED
100
AcDbLine
 10
655.9975113513488
 20
-98.50163091515923
 30
0.0
 11
655.9975113513488
 21
-61.00163091515923
 31
0.0
  0
LINE
  5
6B45
330
1E
100
AcDbEntity
  8
12
  6
DASHED
100
AcDbLine
 10
679.9975113513487
 20
-73.50163091515923
 30
0.0
 11
679.9975113513487
 21
-83.50163091515923
 31
0.0
  0
LINE
  5
6B46
330
1E
100
AcDbEntity
  8
12
  6
DASHED
100
AcDbLine
 10
667.6974625232487
 20
-67.50163091515924
 30
0.0
 11
667.6974625232487
 21
-89.50163091515923
 31
0.0
  0
LINE
  5
6B47
330
1E
100
AcDbEntity
  8
12
  6
DASHED
100
AcDbLine
 10
649.9975113513487
 20
-64.50163091515924
 30
0.0
 11
649.9975113513487
 21
-82.50163091515924
 31
0.0
  0
LINE
  5
6B48
330
1E
100
AcDbEntity
  8
12
  6
DASHED
100
AcDbLine
 10
679.9975113513487
 20
-83.50163091515923
 30
0.0
 11
655.9975113513488
 21
-83.50163091515923
 31
0.0
  0
LINE
  5
6B49
330
1E
100
AcDbEntity
  8
12
  6
DASHED
100
AcDbLine
 10
667.6974625232487
 20
-89.50163091515923
 30
0.0
 11
655.9975113513488
 21
-89.50163091515923
 31
0.0
  0
LINE
  5
6B4A
330
1E
100
AcDbEntity
  8
12
  6
DASHED
100
AcDbLine
 10
655.9975113513488
 20
-98.50163091515923
 30
0.0
 11
649.9975113513487
 21
-98.50163091515923
 31
0.0
  0
ARC
  5
6B4B
330
1E
100
AcDbEntity
  8
12
  6
DASHED
100
AcDbCircle
 10
-662.4975113513487
 20
-61.00163091515923
 30
0.0
 40
6.5
210
0.0
220
0.0
230
-1.0
100
AcDbArc
 50
0.0
 51
90.0
  0
LINE
  5
6B4C
330
1E
100
AcDbEntity
  8
12
  6
DASHED
100
AcDbLine
 10
649.9975113513487
 20
-48.50163091515923
 30
0.0
 11
699.9975113513487
 21
-48.50163091515923
 31
0.0
  0
LINE
  5
6B4D
330
1E
100
AcDbEntity
  8
12
  6
DASHED
100
AcDbLine
 10
655.9975113513488
 20
-73.50163091515923
 30
0.0
 11
679.9975113513487
 21
-73.50163091515923
 31
0.0
  0
LINE
  5
6B4E
330
1E
100
AcDbEntity
  8
12
  6
DASHED
100
AcDbLine
 10
689.9975113513487
 20
-78.50163091515923
 30
0.0
 11
620.9003433825487
 21
-78.50163091515923
 31
0.0
  0
LINE
  5
6B4F
330
1E
100
AcDbEntity
  8
12
  6
DASHED
100
AcDbLine
 10
667.6974625232487
 20
-67.50163091515924
 30
0.0
 11
655.9975113513488
 21
-67.50163091515924
 31
0.0
  0
LINE
  5
6B52
330
1E
100
AcDbEntity
  8
12
  6
DASHED
100
AcDbLine
 10
662.4975113513487
 20
-54.50163091515925
 30
0.0
 11
699.9975113513487
 21
-54.50163091515925
 31
0.0
  0
LINE
  5
6B53
330
1E
100
AcDbEntity
  8
12
  6
DASHED
100
AcDbLine
 10
699.9975113513487
 20
-54.50163091515925
 30
0.0
 11
699.9975113513487
 21
-48.50163091515923
 31
0.0
  0
LINE
  5
6B55
330
1E
100
AcDbEntity
  8
21
100
AcDbLine
 10
714.9975113513487
 20
-127.0016309151592
 30
0.0
 11
714.9975113513487
 21
-192.0016309151591
 31
0.0
  0
LINE
  5
6B57
330
1E
100
AcDbEntity
  8
24
  6
CONTINOUS
100
AcDbLine
 10
764.9975113513487
 20
-128.8995801338591
 30
0.0
 11
764.9975113513487
 21
-156.2897168526591
 31
0.0
  0
LINE
  5
6B58
330
1E
100
AcDbEntity
  8
24
  6
CONTINOUS
100
AcDbLine
 10
734.9975113513487
 20
-128.5987988838591
 30
0.0
 11
734.9975113513487
 21
-156.2897168526591
 31
0.0
  0
CIRCLE
  5
6B59
330
1E
100
AcDbEntity
  8
24
  6
CONTINOUS
100
AcDbCircle
 10
764.9975113513487
 20
-174.5016309151591
 30
0.0
 40
5.5
  0
CIRCLE
  5
6B5A
330
1E
100
AcDbEntity
  8
24
  6
CONTINOUS
100
AcDbCircle
 10
734.9975113513487
 20
-174.5016309151591
 30
0.0
 40
5.5
  0
CIRCLE
  5
6B5C
330
1E
100
AcDbEntity
  8
24
  6
CONTINOUS
100
AcDbCircle
 10
764.9975113513487
 20
-144.5016309151592
 30
0.0
 40
5.5
  0
LINE
  5
6B5D
330
1E
100
AcDbEntity
  8
24
  6
CONTINOUS
100
AcDbLine
 10
719.9975113513487
 20
-144.5016309151592
 30
0.0
 11
750.7433609607487
 21
-144.5016309151592
 31
0.0
  0
CIRCLE
  5
6B5E
330
1E
100
AcDbEntity
  8
24
  6
CONTINOUS
100
AcDbCircle
 10
734.9975113513487
 20
-144.5016309151592
 30
0.0
 40
5.5
  0
LINE
  5
6B60
330
1E
100
AcDbEntity
  8
24
  6
CONTINOUS
100
AcDbLine
 10
764.9975113513487
 20
93.59309564734077
 30
0.0
 11
764.9975113513487
 21
65.90217767864078
 31
0.0
  0
LINE
  5
6B61
330
1E
100
AcDbEntity
  8
24
  6
CONTINOUS
100
AcDbLine
 10
734.9975113513487
 20
92.99104486614078
 30
0.0
 11
734.9975113513487
 21
66.80500970984076
 31
0.0
  0
LINE
  5
6B64
330
1E
100
AcDbEntity
  8
24
  6
CONTINOUS
100
AcDbLine
 10
753.1513199450487
 20
80.49836908484076
 30
0.0
 11
777.8324722888487
 21
80.49836908484076
 31
0.0
  0
LINE
  5
6B65
330
1E
100
AcDbEntity
  8
24
  6
CONTINOUS
100
AcDbLine
 10
753.1513199450487
 20
110.4983690848406
 30
0.0
 11
777.8324722888487
 21
110.4983690848406
 31
0.0
  0
CIRCLE
  5
6B66
330
1E
100
AcDbEntity
  8
24
  6
CONTINOUS
100
AcDbCircle
 10
764.9975113513487
 20
80.49836908484076
 30
0.0
 40
5.5
  0
CIRCLE
  5
6B67
330
1E
100
AcDbEntity
  8
24
  6
CONTINOUS
100
AcDbCircle
 10
764.9975113513487
 20
110.4983690848406
 30
0.0
 40
5.5
  0
LINE
  5
6B68
330
1E
100
AcDbEntity
  8
24
  6
CONTINOUS
100
AcDbLine
 10
719.9975113513487
 20
80.49836908484076
 30
0.0
 11
750.7433609607487
 21
80.49836908484076
 31
0.0
  0
LINE
  5
6B69
330
1E
100
AcDbEntity
  8
24
  6
CONTINOUS
100
AcDbLine
 10
764.9975113513487
 20
126.1009081473406
 30
0.0
 11
764.9975113513487
 21
98.71028314734077
 31
0.0
  0
LINE
  5
6B6A
330
1E
100
AcDbEntity
  8
24
  6
CONTINOUS
100
AcDbLine
 10
734.9975113513487
 20
126.4016893973407
 30
0.0
 11
734.9975113513487
 21
98.71028314734077
 31
0.0
  0
LINE
  5
6B6B
330
1E
100
AcDbEntity
  8
24
  6
CONTINOUS
100
AcDbLine
 10
719.9975113513487
 20
110.4983690848406
 30
0.0
 11
750.7433609607487
 21
110.4983690848406
 31
0.0
  0
CIRCLE
  5
6B6C
330
1E
100
AcDbEntity
  8
24
  6
CONTINOUS
100
AcDbCircle
 10
734.9975113513487
 20
110.4983690848406
 30
0.0
 40
5.5
  0
CIRCLE
  5
6B6D
330
1E
100
AcDbEntity
  8
24
  6
CONTINOUS
100
AcDbCircle
 10
734.9975113513487
 20
80.49836908484076
 30
0.0
 40
5.5
  0
LINE
  5
6B6F
330
1E
100
AcDbEntity
  8
12
  6
DASHED
100
AcDbLine
 10
655.9975113513488
 20
252.4988573661406
 30
0.0
 11
655.9975113513488
 21
214.9988573661406
 31
0.0
  0
LINE
  5
6B70
330
1E
100
AcDbEntity
  8
12
  6
DASHED
100
AcDbLine
 10
649.9975113513487
 20
202.4988573661406
 30
0.0
 11
699.9975113513487
 21
202.4988573661406
 31
0.0
  0
LINE
  5
6B71
330
1E
100
AcDbEntity
  8
12
  6
DASHED
100
AcDbLine
 10
671.9975113513487
 20
202.4988573661406
 30
0.0
 11
649.9975113513487
 21
202.4988573661406
 31
0.0
  0
ARC
  5
6B72
330
1E
100
AcDbEntity
  8
12
  6
DASHED
100
AcDbCircle
 10
662.4975113513487
 20
214.9988573661406
 30
0.0
 40
6.5
100
AcDbArc
 50
180.0
 51
270.0
  0
LINE
  5
6B73
330
1E
100
AcDbEntity
  8
12
  6
DASHED
100
AcDbLine
 10
662.4975113513487
 20
208.4988573661406
 30
0.0
 11
699.9975113513487
 21
208.4988573661406
 31
0.0
  0
LINE
  5
6B74
330
1E
100
AcDbEntity
  8
12
  6
DASHED
100
AcDbLine
 10
699.9975113513487
 20
208.4988573661406
 30
0.0
 11
699.9975113513487
 21
202.4988573661406
 31
0.0
  0
LINE
  5
6B75
330
1E
100
AcDbEntity
  8
12
  6
DASHED
100
AcDbLine
 10
655.9975113513488
 20
236.4988573661408
 30
0.0
 11
679.9975113513487
 21
236.4988573661408
 31
0.0
  0
LINE
  5
6B76
330
1E
100
AcDbEntity
  8
12
  6
DASHED
100
AcDbLine
 10
679.9975113513487
 20
228.4988573661406
 30
0.0
 11
655.9975113513488
 21
228.4988573661406
 31
0.0
  0
LINE
  5
6B77
330
1E
100
AcDbEntity
  8
12
  6
DASHED
100
AcDbLine
 10
667.6974625232487
 20
221.4988573661406
 30
0.0
 11
655.9975113513488
 21
221.4988573661406
 31
0.0
  0
LINE
  5
6B78
330
1E
100
AcDbEntity
  8
12
  6
DASHED
100
AcDbLine
 10
667.6974625232487
 20
243.4988573661406
 30
0.0
 11
655.9975113513488
 21
243.4988573661406
 31
0.0
  0
LINE
  5
6B79
330
1E
100
AcDbEntity
  8
12
  6
DASHED
100
AcDbLine
 10
620.9003433825487
 20
232.4988573661406
 30
0.0
 11
689.9975113513487
 21
232.4988573661406
 31
0.0
  0
LINE
  5
6B7A
330
1E
100
AcDbEntity
  8
12
  6
DASHED
100
AcDbLine
 10
655.9975113513488
 20
252.4988573661406
 30
0.0
 11
649.9975113513487
 21
252.4988573661406
 31
0.0
  0
LINE
  5
6B7B
330
1E
100
AcDbEntity
  8
12
  6
DASHED
100
AcDbLine
 10
679.9975113513487
 20
236.4988573661408
 30
0.0
 11
679.9975113513487
 21
228.4988573661406
 31
0.0
  0
LINE
  5
6B7C
330
1E
100
AcDbEntity
  8
12
  6
DASHED
100
AcDbLine
 10
667.6974625232487
 20
243.4988573661406
 30
0.0
 11
667.6974625232487
 21
221.4988573661406
 31
0.0
  0
LWPOLYLINE
  5
6B7D
330
1E
100
AcDbEntity
  8
10
  6
Continuous
100
AcDbPolyline
 90
        4
 70
     1
 43
0.0
 10
269.0
 20
-193.0
 10
269.0
 20
257.0
 10
-160.0
 20
257.0
 10
-160.0
 20
-193.0
  0
LWPOLYLINE
  5
6B7E
330
1E
100
AcDbEntity
  8
10
  6
Continuous
100
AcDbPolyline
 90
        4
 70
     1
 43
0.0
 10
-57.5
 20
-70.0
 10
-57.5
 20
70.0
 10
57.5001220703
 20
70.0
 10
57.5001220703
 20
-70.0
  0
LWPOLYLINE
  5
6B7F
330
1E
100
AcDbEntity
  8
10
  6
Continuous
100
AcDbPolyline
 90
        4
 70
     1
 43
0.0
 10
-33.0
 20
-41.5
 10
-33.0
 20
42.0
 10
33.0
 20
42.0
 10
33.0
 20
-41.5
  0
LINE
  5
6B9B
330
1E
100
AcDbEntity
  8
18
100
AcDbLine
 10
399.4196304919487
 20
31.2322558036408
 30
0.0
 11
357.4276871325486
 21
51.96760736614081
 31
0.0
  0
LINE
  5
6B9C
330
1E
100
AcDbEntity
  8
18
100
AcDbLine
 10
365.9059586169486
 20
77.6023729911408
 30
0.0
 11
411.9799332263487
 21
69.2107714286408
 31
0.0
  0
ARC
  5
6B9D
330
1E
100
AcDbEntity
  8
10
  6
Continuous
100
AcDbCircle
 10
549.9975113513487
 20
2.498857366140801
 30
0.0
 40
240.0000152587988
100
AcDbArc
 50
166.4795499242773
 51
180.0
  0
ARC
  5
6B9E
330
1E
100
AcDbEntity
  8
18
100
AcDbCircle
 10
343.9676425458139
 20
70.62065680828801
 30
0.0
 40
23.00000000001662
100
AcDbArc
 50
17.64105276145911
 51
305.7583761049281
  0
LINE
  5
6B9F
330
1E
100
AcDbEntity
  8
10
  6
Continuous
100
AcDbLine
 10
458.9975113513487
 20
70.49885736614079
 30
0.0
 11
458.9975113513487
 21
40.93049799114079
 31
0.0
  0
LINE
  5
6BA0
330
1E
100
AcDbEntity
  8
10
  6
Continuous
100
AcDbLine
 10
410.3693375232486
 20
42.09749017864079
 30
0.0
 11
414.2917008044486
 21
53.95710931924079
 31
0.0
  0
LINE
  5
6BA1
330
1E
100
AcDbEntity
  8
10
  6
Continuous
100
AcDbLine
 10
419.1715836169486
 20
56.55208002234078
 30
0.0
 11
454.8588394763487
 21
46.5232714286408
 31
0.0
  0
LINE
  5
6BA2
330
1E
100
AcDbEntity
  8
18
100
AcDbLine
 10
444.9923843982486
 20
16.1619433036408
 30
0.0
 11
457.5526871325486
 21
54.13948236614079
 31
0.0
  0
LINE
  5
6BA3
330
1E
100
AcDbEntity
  8
10
  6
Continuous
100
AcDbLine
 10
412.7399429919487
 20
37.10457025674079
 30
0.0
 11
447.3700699450486
 21
23.87971674114079
 31
0.0
  0
LINE
  5
6BA4
330
1E
100
AcDbEntity
  8
18
100
AcDbLine
 10
444.9923843982486
 20
16.1619433036408
 30
0.0
 11
399.4203629138487
 21
31.2322558036408
 31
0.0
  0
ARC
  5
6BA5
330
1E
100
AcDbEntity
  8
10
  6
Continuous
100
AcDbCircle
 10
549.9975113513487
 20
2.498857366140801
 30
0.0
 40
145.0000915527549
100
AcDbArc
 50
165.6881085843854
 51
179.9356100261354
  0
ARC
  5
6BA6
330
1E
100
AcDbEntity
  8
10
  6
Continuous
100
AcDbCircle
 10
414.1671890857486
 20
40.84138666294077
 30
0.0
 40
4.000000000009923
100
AcDbArc
 50
161.6995376560453
 51
249.0985563122713
  0
ARC
  5
6BA7
330
1E
100
AcDbEntity
  8
10
  6
Continuous
100
AcDbCircle
 10
714.9975113513487
 20
-4.501142633859197
 30
0.0
 40
260.0000000000172
100
AcDbArc
 50
169.9367321349694
 51
178.8980905901724
  0
ARC
  5
6BA8
330
1E
100
AcDbEntity
  8
10
  6
Continuous
100
AcDbCircle
 10
714.9975113513487
 20
-4.501142633859197
 30
0.0
 40
259.999999999999
100
AcDbArc
 50
178.8980905901724
 51
180.0
  0
LINE
  5
6BA9
330
1E
100
AcDbEntity
  8
10
  6
Continuous
100
AcDbLine
 10
448.9135269763487
 20
23.2898729911408
 30
0.0
 11
456.0702652575487
 21
19.0926073661408
 31
0.0
  0
LINE
  5
6BAA
330
1E
100
AcDbEntity
  8
10
  6
Continuous
100
AcDbLine
 10
447.3700699450486
 20
23.87971674114079
 30
0.0
 11
448.9135269763487
 21
23.2898729911408
 31
0.0
  0
LINE
  5
6BAB
330
1E
100
AcDbEntity
  8
10
  6
Continuous
100
AcDbLine
 10
456.4491715075487
 20
46.07600580354075
 30
0.0
 11
458.9975113513487
 21
45.79866205364079
 31
0.0
  0
LINE
  5
6BAC
330
1E
100
AcDbEntity
  8
10
  6
Continuous
100
AcDbLine
 10
454.8588394763487
 20
46.5232714286408
 30
0.0
 11
456.4491715075487
 21
46.07600580354075
 31
0.0
  0
LINE
  5
6BAD
330
1E
100
AcDbEntity
  8
18
100
AcDbLine
 10
457.5526871325486
 20
54.13948236614079
 30
0.0
 11
411.9799332263487
 21
69.2107714286408
 31
0.0
  0
ARC
  5
6BAE
330
1E
100
AcDbEntity
  8
10
  6
Continuous
100
AcDbCircle
 10
418.0893082263487
 20
52.7012499442408
 30
0.0
 40
3.999999999971957
100
AcDbArc
 50
74.30378382940933
 51
161.699496675462
  0
LINE
  5
6BAF
330
1E
100
AcDbEntity
  8
10
  6
Continuous
100
AcDbLine
 10
464.9975113513487
 20
70.49885736614079
 30
0.0
 11
458.9975113513487
 21
70.49885736614079
 31
0.0
  0
LWPOLYLINE
  5
6BB0
330
1E
100
AcDbEntity
  8
10
  6
Continuous
100
AcDbPolyline
 90
        5
 70
     0
 43
0.0
 10
649.9975113513487
 20
-192.5011426338592
 10
606.9975113513487
 20
-192.5011426338592
 10
464.9975113513487
 20
-192.5011426338592
 10
464.9975113513487
 20
257.4988573661406
 10
649.9975113513487
 20
257.4988573661406
  0
LWPOLYLINE
  5
6BB1
330
1E
100
AcDbEntity
  8
10
  6
Continuous
100
AcDbPolyline
 90
        6
 70
     0
 43
0.0
 10
649.9975113513487
 20
-192.5011426338592
 10
649.9975113513487
 20
-186.5011426338591
 10
649.9975113513487
 20
-87.50114263385919
 10
649.9975113513487
 20
-69.5011426338592
 10
649.9975113513487
 20
67.99885736614078
 10
649.9975113513487
 20
257.4988573661406
  0
LWPOLYLINE
  5
6BF2
330
1E
100
AcDbEntity
  8
21
100
AcDbPolyline
 90
        5
 70
     0
 43
0.0
 10
649.9975113513487
 20
127.9988573661407
 10
714.9975113513487
 20
127.9988573661407
 10
779.9975113513487
 20
127.9988573661407
 10
779.9975113513487
 20
62.99836908484075
 10
649.9975113513487
 20
62.99836908484075
  0
LWPOLYLINE
  5
6BF3
330
1E
100
AcDbEntity
  8
21
100
AcDbPolyline
 90
        4
 70
     0
 43
0.0
 10
649.9975113513487
 20
-127.0016309151592
 10
779.9975113513487
 20
-127.0016309151592
 10
779.9975113513487
 20
-192.0016309151591
 10
649.9975113513487
 20
-192.0016309151591
  0
ARC
  5
6BFD
330
1E
100
AcDbEntity
  8
10
  6
Continuous
100
AcDbCircle
 10
714.9975113513487
 20
-4.501142633859188
 30
0.0
 40
260.0
100
AcDbArc
 50
180.0
 51
190.0632778829904
  0
LINE
  5
6BFE
330
1E
100
AcDbEntity
  8
10
  6
Continuous
100
AcDbLine
 10
458.9975113513487
 20
-69.50114263385919
 30
0.0
 11
458.9975113513487
 21
-49.93278325885919
 31
0.0
  0
LINE
  5
6BFF
330
1E
100
AcDbEntity
  8
10
  6
Continuous
100
AcDbLine
 10
464.9975113513487
 20
-69.50114263385919
 30
0.0
 11
458.9975113513487
 21
-69.50114263385919
 31
0.0
  0
LINE
  5
6C00
330
1E
100
AcDbEntity
  8
24
  6
CONTINOUS
100
AcDbLine
 10
749.9975113513487
 20
-144.5016309151592
 30
0.0
 11
780.7433609607487
 21
-144.5016309151592
 31
0.0
  0
LINE
  5
6C01
330
1E
100
AcDbEntity
  8
24
  6
CONTINOUS
100
AcDbLine
 10
764.9975113513487
 20
-128.5987988838591
 30
0.0
 11
764.9975113513487
 21
-156.2897168526591
 31
0.0
  0
LINE
  5
6C02
330
1E
100
AcDbEntity
  8
24
  6
CONTINOUS
100
AcDbLine
 10
719.9975113513487
 20
-174.5016309151591
 30
0.0
 11
750.7433609607487
 21
-174.5016309151591
 31
0.0
  0
LINE
  5
6C03
330
1E
100
AcDbEntity
  8
24
  6
CONTINOUS
100
AcDbLine
 10
734.9975113513487
 20
-158.5987988838591
 30
0.0
 11
734.9975113513487
 21
-186.2897168526591
 31
0.0
  0
LINE
  5
6C04
330
1E
100
AcDbEntity
  8
24
  6
CONTINOUS
100
AcDbLine
 10
764.9975113513487
 20
-158.5987988838591
 30
0.0
 11
764.9975113513487
 21
-186.2897168526591
 31
0.0
  0
LINE
  5
6C05
330
1E
100
AcDbEntity
  8
24
  6
CONTINOUS
100
AcDbLine
 10
749.9975113513487
 20
-174.5016309151591
 30
0.0
 11
780.7433609607487
 21
-174.5016309151591
 31
0.0
  0
DIMENSION
  5
6C06
330
1E
100
AcDbEntity
  8
30
  6
Continuous
100
AcDbDimension
  2
*D4
 10
649.9975113513487
 20
-266.2694826747438
 30
0.0
 11
479.9975037219493
 21
-259.2694826747438
 31
0.0
 70
    32
 71
     5
 42
-1.0
  3
STANDARD
100
AcDbAlignedDimension
 13
309.9974960925496
 23
2.498857366140831
 33
0.0
 14
649.9975113513487
 24
-192.5011426338592
 34
0.0
100
AcDbRotatedDimension
  0
DIMENSION
  5
6C13
330
1E
100
AcDbEntity
  8
30
  6
Continuous
100
AcDbDimension
  2
*D5
 10
649.9975113513487
 20
-240.3532557087101
 30
0.0
 11
527.4975113574678
 21
-233.3532557087099
 31
0.0
 70
    32
 71
     5
 42
-1.0
  3
STANDARD
100
AcDbAlignedDimension
 13
404.9975113635871
 23
2.661810906863765
 33
0.0
 14
649.9975113513487
 24
-193.5011426338592
 34
0.0
100
AcDbRotatedDimension
  0
DIMENSION
  5
6C20
330
1E
100
AcDbEntity
  8
30
  6
Continuous
100
AcDbDimension
  2
*D6
 10
779.9975113513487
 20
-240.3532557087101
 30
0.0
 11
714.9975113513487
 21
-233.3532557087099
 31
0.0
 70
    32
 71
     5
 42
-1.0
  3
STANDARD
100
AcDbAlignedDimension
 13
649.9975113513487
 23
-193.5011426338592
 33
0.0
 14
779.9975113513487
 24
-192.0016309151591
 34
0.0
100
AcDbRotatedDimension
1001
ACAD
1000
DSTYLE
1002
{
1070
   287
1070
     4
1070
   279
1070
     1
1002
}
  0
DIMENSION
  5
6C2D
330
1E
100
AcDbEntity
  8
30
  6
Continuous
100
AcDbDimension
  2
*D7
 10
464.9975113513487
 20
-216.6470063740606
 30
0.0
 11
474.8308446846819
 21
-209.6470063740606
 31
0.0
 70
    32
 71
     5
 42
-1.0
  3
STANDARD
100
AcDbAlignedDimension
 13
455.0364763576612
 23
0.0
 33
0.0
 14
464.9975113513487
 24
-192.5011426338592
 34
0.0
100
AcDbRotatedDimension
  0
DIMENSION
  5
6C3A
330
1E
100
AcDbEntity
  8
30
  6
Continuous
100
AcDbDimension
  2
*D8
 10
649.9975113513487
 20
-216.6470063740606
 30
0.0
 11
557.4975113513487
 21
-209.6470063740606
 31
0.0
 70
    32
 71
     5
 42
-1.0
  3
STANDARD
100
AcDbAlignedDimension
 13
464.9975113513487
 23
-192.5011426338592
 33
0.0
 14
649.9975113513487
 24
-192.0016309151591
 34
0.0
100
AcDbRotatedDimension
1001
ACAD
1000
DSTYLE
1002
{
1070
   287
1070
     4
1070
   279
1070
     1
1002
}
  0
DIMENSION
  5
6C47
330
1E
100
AcDbEntity
  8
30
  6
Continuous
100
AcDbDimension
  2
*D9
 10
764.9975113513487
 20
-216.2548262255785
 30
0.0
 11
790.9107116717514
 21
-216.2548262255785
 31
0.0
 70
   160
 71
     5
 42
-1.0
  3
STANDARD
100
AcDbAlignedDimension
 13
779.9975113513487
 23
-193.0016309151591
 33
0.0
 14
764.9975113513487
 24
-186.2897168526591
 34
0.0
100
AcDbRotatedDimension
  0
DIMENSION
  5
6C54
330
1E
100
AcDbEntity
  8
30
  6
Continuous
100
AcDbDimension
  2
*D10
 10
734.9975113513487
 20
-216.6470063740606
 30
0.0
 11
749.9975113513487
 21
-209.6470063740606
 31
0.0
 70
    32
 71
     5
 42
-1.0
  3
STANDARD
100
AcDbAlignedDimension
 13
764.9975113513487
 23
-186.2897168526591
 33
0.0
 14
734.9975113513487
 24
-186.2897168526591
 34
0.0
100
AcDbRotatedDimension
1001
ACAD
1000
DSTYLE
1002
{
1070
   287
1070
     4
1070
   279
1070
     1
1002
}
  0
DIMENSION
  5
6C61
330
1E
100
AcDbEntity
  8
30
  6
Continuous
100
AcDbDimension
  2
*D11
 10
714.9975113513487
 20
-216.6470063740606
 30
0.0
 11
724.9975113513487
 21
-209.6470063740606
 31
0.0
 70
    32
 71
     5
 42
-1.0
  3
STANDARD
100
AcDbAlignedDimension
 13
734.9975113513487
 23
-186.2897168526591
 33
0.0
 14
714.9975113513487
 24
-192.0016309151591
 34
0.0
100
AcDbRotatedDimension
1001
ACAD
1000
DSTYLE
1002
{
1070
   287
1070
     4
1070
   279
1070
     1
1002
}
  0
DIMENSION
  5
6C6E
330
1E
100
AcDbEntity
  8
30
  6
Continuous
100
AcDbDimension
  2
*D12
 10
817.1242699738181
 20
-192.0016309151591
 30
0.0
 11
810.1242699738181
 21
-159.501630915159
 31
0.0
 70
    32
 71
     5
 42
-1.0
  3
STANDARD
100
AcDbAlignedDimension
 13
779.9975113513487
 23
-127.0016309151592
 33
0.0
 14
779.9975113513487
 24
-192.0016309151591
 34
0.0
 50
90.0
100
AcDbRotatedDimension
  0
DIMENSION
  5
6C7B
330
1E
100
AcDbEntity
  8
30
  6
Continuous
100
AcDbDimension
  2
*D13
 10
799.2053972335443
 20
-174.5016309151591
 30
0.0
 11
792.2053972335443
 21
-159.501630915159
 31
0.0
 70
    32
 71
     5
 42
-1.0
  3
STANDARD
100
AcDbAlignedDimension
 13
780.7433609607487
 23
-144.5016309151592
 33
0.0
 14
780.7433609607487
 24
-174.5016309151591
 34
0.0
 50
90.0
100
AcDbRotatedDimension
  0
DIMENSION
  5
6C88
330
1E
100
AcDbEntity
  8
30
  6
Continuous
100
AcDbDimension
  2
*D14
 10
830.3115536296816
 20
-159.5016309151591
 30
0.0
 11
823.3115536296818
 21
-79.75081545757952
 31
0.0
 70
    32
 71
     5
 42
-1.0
  3
STANDARD
100
AcDbAlignedDimension
 13
721.3330945803736
 23
0.0
 33
0.0
 14
779.9975113513487
 24
-159.5016309151591
 34
0.0
 50
90.0
100
AcDbRotatedDimension
  0
DIMENSION
  5
6CC0
330
1E
100
AcDbEntity
  8
30
  6
Continuous
100
AcDbDimension
  2
*D15
 10
-183.2828059561169
 20
333.4826543873018
 30
0.0
 11
-190.2828059561171
 21
425.9828985279519
 31
0.0
 70
    32
 71
     5
 42
-1.0
  3
STANDARD
100
AcDbAlignedDimension
 13
-160.0
 23
518.4831426686018
 33
0.0
 14
-160.0
 24
333.4826543873018
 34
0.0
 50
90.0
100
AcDbRotatedDimension
  0
LWPOLYLINE
  5
6CC9
330
1E
100
AcDbEntity
  8
10
  6
Continuous
100
AcDbPolyline
 90
        4
 70
     0
 43
0.0
 10
-33.0
 20
329.4826543873018
 10
-33.0
 20
297.4826543873017
 10
33.0
 20
297.4826543873017
 10
33.0
 20
329.4826543873018
  0
LWPOLYLINE
  5
6CCA
330
1E
100
AcDbEntity
  8
10
  6
Continuous
100
AcDbPolyline
 90
        3
 70
     0
 43
0.0
 10
-57.5
 20
333.4826543873018
 10
-57.5
 20
329.4826543873018
 10
57.5
 20
329.4826543873018
  0
LINE
  5
6CCB
330
1E
100
AcDbEntity
  8
10
  6
Continuous
100
AcDbLine
 10
-51.0
 20
333.4826543873018
 30
0.0
 11
-51.0
 21
333.4826543873018
 31
0.0
  0
LINE
  5
6CCC
330
1E
100
AcDbEntity
  8
10
  6
Continuous
100
AcDbLine
 10
57.5
 20
333.4826543873018
 30
0.0
 11
57.5
 21
333.4826543873018
 31
0.0
  0
LINE
  5
6CCD
330
1E
100
AcDbEntity
  8
10
  6
Continuous
100
AcDbLine
 10
57.5
 20
329.4826543873018
 30
0.0
 11
57.5
 21
333.4826543873018
 31
0.0
  0
LINE
  5
6D0F
330
1E
100
AcDbEntity
  8
21
100
AcDbLine
 10
10.0
 20
648.4831426686017
 30
0.0
 11
10.00000000000011
 21
518.4831426686018
 31
0.0
  0
LINE
  5
6D10
330
1E
100
AcDbEntity
  8
21
100
AcDbLine
 10
-9.999999999999886
 20
518.4831426686018
 30
0.0
 11
-10.0
 21
648.4831426686017
 31
0.0
  0
LINE
  5
6D11
330
1E
100
AcDbEntity
  8
21
100
AcDbLine
 10
-95.00024414059998
 20
648.4831426686017
 30
0.0
 11
-95.00024414059998
 21
518.4831426686018
 31
0.0
  0
LINE
  5
6D12
330
1E
100
AcDbEntity
  8
21
100
AcDbLine
 10
-115.0002441405999
 20
518.4831426686018
 30
0.0
 11
-115.0002441405999
 21
648.4831426686017
 31
0.0
  0
LINE
  5
6D13
330
1E
100
AcDbEntity
  8
21
100
AcDbLine
 10
115.0
 20
648.4831426686017
 30
0.0
 11
115.0000000000001
 21
518.4831426686018
 31
0.0
  0
LINE
  5
6D14
330
1E
100
AcDbEntity
  8
21
100
AcDbLine
 10
95.00000000000012
 20
518.4831426686018
 30
0.0
 11
95.0
 21
648.4831426686017
 31
0.0
  0
LINE
  5
6D15
330
1E
100
AcDbEntity
  8
21
100
AcDbLine
 10
225.0
 20
648.4831426686017
 30
0.0
 11
225.0
 21
518.4831426686018
 31
0.0
  0
LINE
  5
6D16
330
1E
100
AcDbEntity
  8
21
100
AcDbLine
 10
205.0
 20
518.4831426686018
 30
0.0
 11
205.0
 21
648.4831426686017
 31
0.0
  0
LINE
  5
6D17
330
1E
100
AcDbEntity
  8
24
  6
CONTINOUS
100
AcDbLine
 10
-126.3793945311999
 20
633.4831426686019
 30
0.0
 11
-84.79736328119996
 21
633.4831426686019
 31
0.0
  0
LINE
  5
6D18
330
1E
100
AcDbEntity
  8
21
100
AcDbLine
 10
-115.0002441405999
 20
648.4831426686017
 30
0.0
 11
-95.00024414059998
 21
648.4831426686017
 31
0.0
  0
LINE
  5
6D19
330
1E
100
AcDbEntity
  8
24
  6
CONTINOUS
100
AcDbLine
 10
-21.37939453119996
 20
633.4831426686019
 30
0.0
 11
20.20263671880001
 21
633.4831426686019
 31
0.0
  0
LINE
  5
6D1A
330
1E
100
AcDbEntity
  8
21
100
AcDbLine
 10
-10.0
 20
648.4831426686017
 30
0.0
 11
10.0
 21
648.4831426686017
 31
0.0
  0
LINE
  5
6D1B
330
1E
100
AcDbEntity
  8
24
  6
CONTINOUS
100
AcDbLine
 10
83.62060546880002
 20
633.4831426686019
 30
0.0
 11
125.2026367187999
 21
633.4831426686019
 31
0.0
  0
LINE
  5
6D1C
330
1E
100
AcDbEntity
  8
21
100
AcDbLine
 10
95.0
 20
648.4831426686017
 30
0.0
 11
115.0
 21
648.4831426686017
 31
0.0
  0
LINE
  5
6D1D
330
1E
100
AcDbEntity
  8
24
  6
CONTINOUS
100
AcDbLine
 10
193.6206054688
 20
633.4831426686019
 30
0.0
 11
235.2026367188
 21
633.4831426686019
 31
0.0
  0
LINE
  5
6D1E
330
1E
100
AcDbEntity
  8
21
100
AcDbLine
 10
205.0
 20
648.4831426686017
 30
0.0
 11
225.0
 21
648.4831426686017
 31
0.0
  0
LINE
  5
6D21
330
1E
100
AcDbEntity
  8
24
  6
CONTINOUS
100
AcDbLine
 10
-125.8393554686999
 20
603.4831426686017
 30
0.0
 11
-83.71752929679997
 21
603.4831426686017
 31
0.0
  0
LINE
  5
6D24
330
1E
100
AcDbEntity
  8
24
  6
CONTINOUS
100
AcDbLine
 10
-20.83935546869985
 20
603.4831426686017
 30
0.0
 11
21.28271484380012
 21
603.4831426686017
 31
0.0
  0
LINE
  5
6D27
330
1E
100
AcDbEntity
  8
24
  6
CONTINOUS
100
AcDbLine
 10
84.16064453130012
 20
603.4831426686017
 30
0.0
 11
126.2827148438
 21
603.4831426686017
 31
0.0
  0
LINE
  5
6D29
330
1E
100
AcDbEntity
  8
24
  6
CONTINOUS
100
AcDbLine
 10
194.1606445313
 20
603.4831426686017
 30
0.0
 11
236.2827148438
 21
603.4831426686017
 31
0.0
  0
LWPOLYLINE
  5
6D30
330
1E
100
AcDbEntity
  8
10
  6
Continuous
100
AcDbPolyline
 90
       10
 70
     1
 43
0.0
 10
-160.0
 20
518.4831426686018
 10
-6.000000000000111
 20
518.4831426686018
 10
13.99999999999988
 20
518.4831426686018
 10
98.99999999999987
 20
518.4831426686018
 10
118.9999999999997
 20
518.4831426686018
 10
204.0002441406
 20
518.4831426686018
 10
224.0002441405998
 20
518.4831426686018
 10
269.0002441405998
 20
518.4831426686018
 10
269.0002441405998
 20
333.4826543873018
 10
-160.0
 20
333.4826543873018
  0
DIMENSION
  5
6D31
330
1E
100
AcDbEntity
  8
30
  6
Continuous
100
AcDbDimension
  2
*D16
 10
0.0000000000000049
 20
729.7373687819852
 30
0.0
 11
-52.5001220703
 21
736.7373687819853
 31
0.0
 70
    32
 71
     5
 42
-1.0
  3
STANDARD
100
AcDbAlignedDimension
 13
-105.0002441405998
 23
648.4831426686017
 33
0.0
 14
-0.0000000000000001
 24
648.4831426686017
 34
0.0
100
AcDbRotatedDimension
  0
DIMENSION
  5
6D3E
330
1E
100
AcDbEntity
  8
30
  6
Continuous
100
AcDbDimension
  2
*D17
 10
105.0
 20
729.7373687819852
 30
0.0
 11
52.5
 21
736.7373687819853
 31
0.0
 70
    32
 71
     5
 42
-1.0
  3
STANDARD
100
AcDbAlignedDimension
 13
-0.0000000000000001
 23
478.6507035126527
 33
0.0
 14
105.0
 24
648.4831426686017
 34
0.0
100
AcDbRotatedDimension
1001
ACAD
1000
DSTYLE
1002
{
1070
   287
1070
     4
1070
   279
1070
     1
1002
}
  0
DIMENSION
  5
6D4B
330
1E
100
AcDbEntity
  8
30
  6
Continuous
100
AcDbDimension
  2
*D18
 10
215.0
 20
729.7373687819852
 30
0.0
 11
160.0
 21
736.7373687819853
 31
0.0
 70
    32
 71
     5
 42
-1.0
  3
STANDARD
100
AcDbAlignedDimension
 13
105.0
 23
648.4831426686017
 33
0.0
 14
215.0
 24
648.4831426686017
 34
0.0
100
AcDbRotatedDimension
1001
ACAD
1000
DSTYLE
1002
{
1070
   287
1070
     4
1070
   279
1070
     1
1002
}
  0
LINE
  5
6E32
330
1E
100
AcDbEntity
  8
L0_
  6
Continuous
 62
     2
100
AcDbLine
 10
-258.279296875
 20
-699.0
 30
0.0
 11
302.4724121094
 21
-699.0
 31
0.0
  0
LINE
  5
6E33
330
1E
100
AcDbEntity
  8
L150_
  6
D533
 62
     7
100
AcDbLine
 10
-254.4172363281
 20
-705.0
 30
0.0
 11
306.3344726563
 21
-705.0
 31
0.0
  0
LINE
  5
6E34
330
1E
100
AcDbEntity
  8
L0_
  6
Continuous
 62
     2
100
AcDbLine
 10
-252.2651367186999
 20
-749.0
 30
0.0
 11
306.4819335938
 21
-749.0
 31
0.0
  0
LINE
  5
6E35
330
1E
100
AcDbEntity
  8
L0_
  6
Continuous
 62
     2
100
AcDbLine
 10
-258.6958007812
 20
-448.0
 30
0.0
 11
302.1948242188
 21
-448.0
 31
0.0
  0
LINE
  5
6E36
330
1E
100
AcDbEntity
  8
L150_
  6
D533
 62
     7
100
AcDbLine
 10
-260.4106445311999
 20
-442.0
 30
0.0
 11
300.3413085938
 21
-442.0
 31
0.0
  0
LINE
  5
6E37
330
1E
100
AcDbEntity
  8
L0_
  6
Continuous
 62
     2
100
AcDbLine
 10
-263.2861328125
 20
-398.0
 30
0.0
 11
297.4658203125
 21
-398.0
 31
0.0
  0
LINE
  5
6E38
330
1E
100
AcDbEntity
  8
18
100
AcDbLine
 10
-160.0
 20
-843.0
 30
0.0
 11
262.5000000000001
 21
-842.9999999999999
 31
0.0
  0
LINE
  5
6E39
330
1E
100
AcDbEntity
  8
18
100
AcDbLine
 10
269.0000000000001
 20
-393.0
 30
0.0
 11
-160.0
 21
-393.0
 31
0.0
  0
DIMENSION
  5
6E3A
330
1E
100
AcDbEntity
  8
30
  6
Continuous
100
AcDbDimension
  2
*D19
 10
-305.9500104239524
 20
-649.9999999999999
 30
0.0
 11
-312.9500104239521
 21
-534.0
 31
0.0
 70
    32
 71
     5
 42
-1.0
  3
STANDARD
100
AcDbAlignedDimension
 13
-76.6962890625
 23
-418.0
 33
0.0
 14
-166.0
 24
-650.0
 34
0.0
 50
90.0
100
AcDbRotatedDimension
  0
DIMENSION
  5
6E3B
330
1E
100
AcDbEntity
  8
30
  6
Continuous
100
AcDbDimension
  2
*D20
 10
151.0
 20
-785.9304743781599
 30
0.0
 11
0.0000000000000004
 21
-778.9304743781599
 31
0.0
 70
    32
 71
     5
 42
-1.0
  3
STANDARD
100
AcDbAlignedDimension
 13
-151.0
 23
-748.8425854357204
 33
0.0
 14
151.0
 24
-748.8425854357204
 34
0.0
100
AcDbRotatedDimension
  0
LINE
  5
6E3C
330
1E
100
AcDbEntity
  8
16
100
AcDbLine
 10
202.1634296945399
 20
-650.0
 30
0.0
 11
-166.0
 21
-650.0
 31
0.0
  0
LINE
  5
6E3D
330
1E
100
AcDbEntity
  8
18
100
AcDbLine
 10
-160.0
 20
-393.0
 30
0.0
 11
-160.0
 21
-843.0
 31
0.0
  0
DIMENSION
  5
6E3E
330
1E
100
AcDbEntity
  8
30
  6
Continuous
100
AcDbDimension
  2
*D21
 10
-305.9500104239524
 20
-728.9999999999999
 30
0.0
 11
-312.9500104239521
 21
-689.5
 31
0.0
 70
    32
 71
     5
 42
-1.0
  3
STANDARD
100
AcDbAlignedDimension
 13
-166.0
 23
-650.0
 33
0.0
 14
-165.3988960500464
 24
-729.0
 34
0.0
 50
90.0
100
AcDbRotatedDimension
1001
ACAD
1000
DSTYLE
1002
{
1070
   287
1070
     4
1070
   279
1070
     1
1002
}
  0
LINE
  5
6E3F
330
1E
100
AcDbEntity
  8
L0_
  6
Continuous
 62
     2
100
AcDbLine
 10
-258.279296875
 20
-699.0
 30
0.0
 11
-251.1611328124998
 21
-717.7048339844
 31
0.0
  0
LINE
  5
6E40
330
1E
100
AcDbEntity
  8
L0_
  6
Continuous
 62
     2
100
AcDbLine
 10
-251.1611328124998
 20
-717.7048339844
 30
0.0
 11
-261.5048828124999
 21
-736.17578125
 31
0.0
  0
LINE
  5
6E41
330
1E
100
AcDbEntity
  8
L0_
  6
Continuous
 62
     2
100
AcDbLine
 10
-261.5048828124999
 20
-736.17578125
 30
0.0
 11
-252.2651367186999
 21
-749.0
 31
0.0
  0
LINE
  5
6E42
330
1E
100
AcDbEntity
  8
L225_
  6
Continuous
 62
     3
100
AcDbLine
 10
-151.0
 20
-711.7419144169661
 30
0.0
 11
-151.0
 21
-748.8425854357204
 31
0.0
  0
LINE
  5
6E43
330
1E
100
AcDbEntity
  8
12
100
AcDbLine
 10
-165.3988960500464
 20
-729.0
 30
0.0
 11
-131.2623136680812
 21
-729.0
 31
0.0
  0
CIRCLE
  5
6E44
330
1E
100
AcDbEntity
  8
12
100
AcDbCircle
 10
-151.0
 20
-729.0
 30
0.0
 40
6.0
  0
LINE
  5
6E45
330
1E
100
AcDbEntity
  8
12
100
AcDbLine
 10
-160.0
 20
-729.0
 30
0.0
 11
-133.544921875
 21
-729.0
 31
0.0
  0
LINE
  5
6E46
330
1E
100
AcDbEntity
  8
L0_
  6
Continuous
 62
     2
100
AcDbLine
 10
-268.8933105467999
 20
-430.2958984375
 30
0.0
 11
-258.5495605467999
 21
-415.5192871094
 31
0.0
  0
LINE
  5
6E47
330
1E
100
AcDbEntity
  8
L0_
  6
Continuous
 62
     2
100
AcDbLine
 10
-258.6958007812
 20
-448.0
 30
0.0
 11
-268.8933105467999
 21
-430.2958984375
 31
0.0
  0
LINE
  5
6E48
330
1E
100
AcDbEntity
  8
L0_
  6
Continuous
 62
     2
100
AcDbLine
 10
-258.5495605467999
 20
-415.5192871094
 30
0.0
 11
-263.2861328125
 21
-398.0
 31
0.0
  0
LINE
  5
6E49
330
1E
100
AcDbEntity
  8
18
100
AcDbLine
 10
269.0000000000001
 20
-836.4999999999996
 30
0.0
 11
269.0000000000001
 21
-393.0
 31
0.0
  0
LINE
  5
6E4A
330
1E
100
AcDbEntity
  8
16
100
AcDbLine
 10
-0.0000000000000011
 20
-887.0852836296467
 30
0.0
 11
-0.0000000000000011
 21
-377.7109542159318
 31
0.0
  0
LEADER
  5
6E4B
330
1E
100
AcDbEntity
  8
30
  6
Continuous
100
AcDbLeader
  3
STANDARD
 76
     3
 10
153.9976892556788
 20
-723.9419380557056
 30
0.0
 10
189.1060660123457
 20
-671.5125236015301
 30
0.0
 10
219.8787691488916
 20
-671.5688774134697
 30
0.0
1001
ACAD
1000
DSTYLE
1002
{
1070
     5
1000
OPEN
1070
   342
1005
3B2
1002
}
  0
LINE
  5
6E4C
330
1E
100
AcDbEntity
  8
12
100
AcDbLine
 10
136.6011039499535
 20
-729.0
 30
0.0
 11
170.7376863319186
 21
-729.0
 31
0.0
  0
LINE
  5
6E4D
330
1E
100
AcDbEntity
  8
L225_
  6
Continuous
 62
     3
100
AcDbLine
 10
151.0
 20
-711.7419144169661
 30
0.0
 11
151.0
 21
-748.8425854357204
 31
0.0
  0
CIRCLE
  5
6E4E
330
1E
100
AcDbEntity
  8
12
100
AcDbCircle
 10
151.0
 20
-729.0
 30
0.0
 40
6.0
  0
TEXT
  5
6E4F
330
1E
100
AcDbEntity
  8
30
  6
Continuous
100
AcDbText
 10
197.6235871368558
 20
-667.7685357674536
 30
0.0
 40
8.0
  1
%%C12
100
AcDbText
  0
DIMENSION
  5
6E50
330
1E
100
AcDbEntity
  8
30
  6
Continuous
100
AcDbDimension
  2
*D22
 10
52.5
 20
-496.4905511136339
 30
0.0
 11
-0.0000000000000067
 21
-489.4905511136339
 31
0.0
 70
    32
 71
     5
 42
-1.0
  3
STANDARD
100
AcDbAlignedDimension
 13
-52.5
 23
-437.8425854357206
 33
0.0
 14
52.5
 24
-437.8425854357206
 34
0.0
100
AcDbRotatedDimension
  0
LINE
  5
6E51
330
1E
100
AcDbEntity
  8
12
100
AcDbLine
 10
-76.6962890625
 20
-418.0
 30
0.0
 11
-27.314453125
 21
-418.0
 31
0.0
  0
LINE
  5
6E52
330
1E
100
AcDbEntity
  8
L225_
  6
Continuous
 62
     3
100
AcDbLine
 10
-52.5
 20
-400.7419144169661
 30
0.0
 11
-52.5
 21
-437.8425854357206
 31
0.0
  0
CIRCLE
  5
6E53
330
1E
100
AcDbEntity
  8
12
100
AcDbCircle
 10
-52.5
 20
-418.0
 30
0.0
 40
6.0
  0
LINE
  5
6E54
330
1E
100
AcDbEntity
  8
12
100
AcDbLine
 10
38.10110394995353
 20
-418.0
 30
0.0
 11
72.23768633191865
 21
-418.0
 31
0.0
  0
CIRCLE
  5
6E55
330
1E
100
AcDbEntity
  8
12
100
AcDbCircle
 10
52.5
 20
-418.0
 30
0.0
 40
6.0
  0
LINE
  5
6E56
330
1E
100
AcDbEntity
  8
L225_
  6
Continuous
 62
     3
100
AcDbLine
 10
52.5
 20
-400.7419144169661
 30
0.0
 11
52.5
 21
-437.8425854357206
 31
0.0
  0
DIMENSION
  5
6E57
330
1E
100
AcDbEntity
  8
30
  6
Continuous
100
AcDbDimension
  2
*D23
 10
609.4999999999998
 20
-750.1030481124438
 30
0.0
 11
550.0
 21
-743.1030481124438
 31
0.0
 70
    32
 71
     5
 42
-1.0
  3
STANDARD
100
AcDbAlignedDimension
 13
490.4999999999998
 23
-712.0
 33
0.0
 14
609.4999999999998
 24
-712.0
 34
0.0
100
AcDbRotatedDimension
  0
LWPOLYLINE
  5
6E58
330
1E
100
AcDbEntity
  8
11
  6
Continuous
100
AcDbPolyline
 90
        8
 70
     1
 43
0.0
 10
490.5
 20
-712.0
 42
0.4142135623730951
 10
500.4999999999998
 20
-722.0
 10
599.5
 20
-722.0
 42
0.4142135623730951
 10
609.4999999999998
 20
-712.0
 10
609.4999999999998
 20
-588.0
 42
0.4142135623730951
 10
599.5
 20
-578.0
 10
500.4999999999998
 20
-578.0
 42
0.4142135623730951
 10
490.5
 20
-588.0
  0
LWPOLYLINE
  5
6E59
330
1E
100
AcDbEntity
  8
18
100
AcDbPolyline
 90
        6
 70
     1
 43
0.0
 10
819.0
 20
-843.0
 10
390.0
 20
-843.0
 10
390.0
 20
-392.9995117186998
 10
819.0
 20
-392.9995117186998
 10
819.0
 20
-392.9995117186998
 10
819.0
 20
-843.0
  0
DIMENSION
  5
6E5A
330
1E
100
AcDbEntity
  8
30
  6
Continuous
100
AcDbDimension
  2
*D24
 10
596.0081213089148
 20
-606.8665427739509
 30
0.0
 11
605.9569140793058
 21
-553.1134370801636
 31
0.0
 70
   164
  1
R10
 71
     5
 42
-1.0
  3
STANDARD
100
AcDbRadialDimension
 15
599.4999999999996
 25
-587.9999999999999
 35
0.0
 40
0.0
1001
ACAD
1000
DSTYLE
1002
{
1070
   288
1070
     1
1002
}
  0
LINE
  5
6E5B
330
1E
100
AcDbEntity
  8
16
100
AcDbLine
 10
837.3650554061057
 20
-650.0
 30
0.0
 11
373.5383822643398
 21
-650.0
 31
0.0
  0
DIMENSION
  5
6E5C
330
1E
100
AcDbEntity
  8
30
  6
Continuous
100
AcDbDimension
  2
*D25
 10
438.188797131058
 20
-722.0
 30
0.0
 11
431.1887971310579
 21
-649.9999999999999
 31
0.0
 70
    32
 71
     5
 42
-1.0
  3
STANDARD
100
AcDbAlignedDimension
 13
500.4999999999998
 23
-578.0
 33
0.0
 14
500.4999999999998
 24
-722.0
 34
0.0
 50
90.0
100
AcDbRotatedDimension
  0
LINE
  5
6E5D
330
1E
100
AcDbEntity
  8
16
100
AcDbLine
 10
550.0
 20
-885.3603056821796
 30
0.0
 11
550.0
 21
-372.7109542159318
 31
0.0
  0
LINE
  5
6E5E
330
1E
100
AcDbEntity
  8
L0_
  6
Continuous
 62
     2
100
AcDbLine
 10
302.4724121094
 20
-699.0
 30
0.0
 11
312.5739746094
 21
-721.3991699219
 31
0.0
  0
LINE
  5
6E5F
330
1E
100
AcDbEntity
  8
L0_
  6
Continuous
 62
     2
100
AcDbLine
 10
299.2749023438
 20
-728.0485839844
 30
0.0
 11
306.4819335938
 21
-749.0
 31
0.0
  0
LINE
  5
6E60
330
1E
100
AcDbEntity
  8
L0_
  6
Continuous
 62
     2
100
AcDbLine
 10
312.5739746094
 20
-721.3991699219
 30
0.0
 11
299.2749023438
 21
-728.0485839844
 31
0.0
  0
LINE
  5
6E61
330
1E
100
AcDbEntity
  8
L0_
  6
Continuous
 62
     2
100
AcDbLine
 10
302.1948242188
 20
-448.0
 30
0.0
 11
293.3642578125
 21
-428.0795898437999
 31
0.0
  0
LINE
  5
6E62
330
1E
100
AcDbEntity
  8
L0_
  6
Continuous
 62
     2
100
AcDbLine
 10
302.9692382813
 20
-413.302734375
 30
0.0
 11
297.4658203125
 21
-398.0
 31
0.0
  0
LINE
  5
6E63
330
1E
100
AcDbEntity
  8
L0_
  6
Continuous
 62
     2
100
AcDbLine
 10
293.3642578125
 20
-428.0795898437999
 30
0.0
 11
302.9692382813
 21
-413.302734375
 31
0.0
  0
DIMENSION
  5
6F02
330
1E
100
AcDbEntity
  8
30
  6
Continuous
100
AcDbDimension
  2
*D26
 10
269.0
 20
-264.3072214134745
 30
0.0
 11
54.5
 21
-257.3072214134745
 31
0.0
 70
    32
 71
     5
 42
-1.0
  3
STANDARD
100
AcDbAlignedDimension
 13
-160.0
 23
-193.0
 33
0.0
 14
269.0
 24
-193.0
 34
0.0
100
AcDbRotatedDimension
  0
DIMENSION
  5
6F0F
330
1E
100
AcDbEntity
  8
30
  6
Continuous
100
AcDbDimension
  2
*D27
 10
-202.752389481142
 20
0.0000000000000121
 30
0.0
 11
-209.752389481142
 21
128.4999999999999
 31
0.0
 70
    32
 71
     5
 42
-1.0
  3
STANDARD
100
AcDbAlignedDimension
 13
-160.0
 23
257.0
 33
0.0
 14
-160.0
 24
0.0
 34
0.0
 50
90.0
100
AcDbRotatedDimension
  0
DIMENSION
  5
6F1C
330
1E
100
AcDbEntity
  8
30
  6
Continuous
100
AcDbDimension
  2
*D28
 10
-202.752389481142
 20
-192.9999999999999
 30
0.0
 11
-209.752389481142
 21
-96.50000000000002
 31
0.0
 70
    32
 71
     5
 42
-1.0
  3
STANDARD
100
AcDbAlignedDimension
 13
-160.0
 23
0.0
 33
0.0
 14
-160.0
 24
-193.0
 34
0.0
 50
90.0
100
AcDbRotatedDimension
1001
ACAD
1000
DSTYLE
1002
{
1070
   287
1070
     4
1070
   279
1070
     1
1002
}
  0
ARC
  5
6F29
330
1E
100
AcDbEntity
  8
18
100
AcDbCircle
 10
262.5000000000001
 20
-836.4999999999996
 30
0.0
 40
6.5
100
AcDbArc
 50
270.0
 51
0.0
  0
DIMENSION
  5
6F2A
330
1E
100
AcDbEntity
  8
30
  6
Continuous
100
AcDbDimension
  2
*D29
 10
-286.2243577752428
 20
-728.9999999999999
 30
0.0
 11
-293.2243577752426
 21
-714.0
 31
0.0
 70
    32
 71
     5
 42
-1.0
  3
STANDARD
100
AcDbAlignedDimension
 13
-258.279296875
 23
-699.0
 33
0.0
 14
-257.4864377247959
 24
-728.9999999999999
 34
0.0
 50
90.0
100
AcDbRotatedDimension
  0
DIMENSION
  5
6F37
330
1E
100
AcDbEntity
  8
30
  6
Continuous
100
AcDbDimension
  2
*D30
 10
-281.5735031517423
 20
-448.0
 30
0.0
 11
-288.5735031517423
 21
-433.0
 31
0.0
 70
    32
 71
     5
 42
-1.0
  3
STANDARD
100
AcDbAlignedDimension
 13
-260.2860800635139
 23
-417.9999999999997
 33
0.0
 14
-258.6958007812
 24
-448.0
 34
0.0
 50
90.0
100
AcDbRotatedDimension
  0
DIMENSION
  5
6F59
330
1E
100
AcDbEntity
  8
30
  6
Continuous
100
AcDbDimension
  2
*D31
 10
255.3762147249654
 20
633.4831426686019
 30
0.0
 11
255.3762147249653
 21
659.1498093352686
 31
0.0
 70
   160
 71
     5
 42
-1.0
  3
STANDARD
100
AcDbAlignedDimension
 13
225.0
 23
648.4831426686017
 33
0.0
 14
225.0
 24
633.4831426686019
 34
0.0
 50
90.0
100
AcDbRotatedDimension
  0
DIMENSION
  5
6F66
330
1E
100
AcDbEntity
  8
30
  6
Continuous
100
AcDbDimension
  2
*D32
 10
255.3762147249654
 20
603.4831426686017
 30
0.0
 11
248.3762147249651
 21
618.4831426686018
 31
0.0
 70
    32
 71
     5
 42
-1.0
  3
STANDARD
100
AcDbAlignedDimension
 13
225.0
 23
633.4831426686019
 33
0.0
 14
236.2827148438
 24
603.4831426686017
 34
0.0
 50
90.0
100
AcDbRotatedDimension
1001
ACAD
1000
DSTYLE
1002
{
1070
   287
1070
     4
1070
   279
1070
     1
1002
}
  0
DIMENSION
  5
6F73
330
1E
100
AcDbEntity
  8
30
  6
Continuous
100
AcDbDimension
  2
*D33
 10
255.3762147249653
 20
518.4831426686018
 30
0.0
 11
248.3762147249651
 21
560.9831426686018
 31
0.0
 70
    32
 71
     5
 42
-1.0
  3
STANDARD
100
AcDbAlignedDimension
 13
236.2827148438
 23
603.4831426686017
 33
0.0
 14
225.0
 24
518.4831426686018
 34
0.0
 50
90.0
100
AcDbRotatedDimension
1001
ACAD
1000
DSTYLE
1002
{
1070
   287
1070
     4
1070
   279
1070
     1
1002
}
  0
DIMENSION
  5
7630
330
1E
100
AcDbEntity
  8
30
  6
Continuous
100
AcDbDimension
  2
*D34
 10
830.3115536296816
 20
-0.0000000000000309
 30
0.0
 11
823.3115536296818
 21
47.74930661274551
 31
0.0
 70
    32
 71
     5
 42
-1.0
  3
STANDARD
100
AcDbAlignedDimension
 13
779.9975113513487
 23
95.49861322549075
 33
0.0
 14
721.3330945803736
 24
0.0
 34
0.0
 50
90.0
100
AcDbRotatedDimension
  0
VIEWPORT
  5
9AC
330
1A
100
AcDbEntity
 67
     1
  8
0
  6
Continuous
100
AcDbViewport
 10
171.9995348790992
 20
144.1384735538403
 30
0.0
 40
488.8676857773513
 41
292.3514905034161
 68
     1
 69
     1
 12
171.9995348790992
 22
144.1384735538403
 13
0.0
 23
0.0
 14
10.0
 24
10.0
 15
10.0
 25
10.0
 16
0.0
 26
0.0
 36
1.0
 17
0.0
 27
0.0
 37
0.0
 42
50.0
 43
0.0
 44
0.0
 45
292.3514905034161
 50
0.0
 51
0.0
 72
   100
 90
    32800
  1

281
     0
 71
     1
 74
     0
110
0.0
120
0.0
130
0.0
111
1.0
121
0.0
131
0.0
112
0.0
122
1.0
132
0.0
 79
     0
146
0.0
  0
ENDSEC
  0
SECTION
  2
OBJECTS
  0
DICTIONARY
  5
C
330
0
100
AcDbDictionary
281
     1
  3
ACAD_GROUP
350
D
  3
ACAD_LAYOUT
350
19
  3
ACAD_MLINESTYLE
350
16
  3
ACAD_PLOTSETTINGS
350
18
  3
ACAD_PLOTSTYLENAME
350
E
  3
ACDBVARIABLEDICTIONARY
350
734C
  0
DICTIONARY
  5
178
330
1E
100
AcDbDictionary
280
     1
281
     1
  3
ACAD_LAYOUTSELFREF
360
7661
  0
DICTIONARY
  5
17A
330
1A
100
AcDbDictionary
280
     1
281
     1
  3
ACAD_LAYOUTSELFREF
360
7660
  0
DICTIONARY
  5
D
102
{ACAD_REACTORS
330
C
102
}
330
C
100
AcDbDictionary
281
     1
  0
DICTIONARY
  5
19
102
{ACAD_REACTORS
330
C
102
}
330
C
100
AcDbDictionary
281
     1
  3
Model
350
76C3
  3
ﾚｲｱｳﾄ1
350
76C4
  0
DICTIONARY
  5
16
102
{ACAD_REACTORS
330
C
102
}
330
C
100
AcDbDictionary
281
     1
  3
STANDARD
350
17
  0
DICTIONARY
  5
18
102
{ACAD_REACTORS
330
C
102
}
330
C
100
AcDbDictionary
281
     1
  0
ACDBDICTIONARYWDFLT
  5
E
102
{ACAD_REACTORS
330
C
102
}
330
C
100
AcDbDictionary
281
     1
  3
Normal
350
F
100
AcDbDictionaryWithDefault
340
F
  0
DICTIONARY
  5
734C
102
{ACAD_REACTORS
330
C
102
}
330
C
100
AcDbDictionary
281
     1
  3
DIMASSOC
350
734D
  0
XRECORD
  5
7661
102
{ACAD_REACTORS
330
178
102
}
330
178
100
AcDbXrecord
280
     1
340
1E
  0
XRECORD
  5
7660
102
{ACAD_REACTORS
330
17A
102
}
330
17A
100
AcDbXrecord
280
     1
340
1A
  0
LAYOUT
  5
76C3
102
{ACAD_REACTORS
330
19
102
}
330
19
100
AcDbPlotSettings
  1

  2
LBP5400
  4

  6

 40
0.0
 41
0.0
 42
0.0
 43
0.0
 44
0.0
 45
0.0
 46
0.0
 47
0.0
 48
0.0
 49
0.0
140
0.0
141
0.0
142
1.0
143
1.0
 70
  1712
 72
     0
 73
     0
 74
     0
  7
monochrome.stb
 75
     0
147
1.0
148
0.0
149
0.0
100
AcDbLayout
  1
Model
 70
     1
 71
     0
 10
0.0
 20
0.0
 11
12.0
 21
9.0
 12
0.0
 22
0.0
 32
0.0
 14
0.0
 24
0.0
 34
0.0
 15
0.0
 25
0.0
 35
0.0
146
0.0
 13
0.0
 23
0.0
 33
0.0
 16
1.0
 26
0.0
 36
0.0
 17
0.0
 27
1.0
 37
0.0
 76
     0
330
1E
  0
LAYOUT
  5
76C4
102
{ACAD_REACTORS
330
19
102
}
330
19
100
AcDbPlotSettings
  1

  2
LBP5400
  4

  6

 40
0.0
 41
0.0
 42
0.0
 43
0.0
 44
0.0
 45
0.0
 46
0.0
 47
0.0
 48
0.0
 49
0.0
140
0.0
141
0.0
142
1.0
143
1.0
 70
   688
 72
     0
 73
     0
 74
     5
  7
monochrome.stb
 75
    16
147
1.0
148
0.0
149
0.0
100
AcDbLayout
  1
ﾚｲｱｳﾄ1
 70
     1
 71
     1
 10
-5.873748779296875
 20
-5.873749732971191
 11
204.0995788574218
 21
291.1369009017943
 12
0.0
 22
0.0
 32
0.0
 14
4.273573370203961
 24
5.205246163471485
 34
0.0
 15
194.6100952986349
 25
283.0697008572913
 35
0.0
146
0.0
 13
0.0
 23
0.0
 33
0.0
 16
1.0
 26
0.0
 36
0.0
 17
0.0
 27
1.0
 37
0.0
 76
     0
330
1A
331
9AC
  0
MLINESTYLE
  5
17
102
{ACAD_REACTORS
330
16
102
}
330
16
100
AcDbMlineStyle
  2
STANDARD
 70
     0
  3

 62
   256
 51
90.0
 52
90.0
 71
     2
 49
0.5
 62
   256
  6
BYLAYER
 49
-0.5
 62
   256
  6
BYLAYER
  0
ACDBPLACEHOLDER
  5
F
102
{ACAD_REACTORS
330
E
102
}
330
E
  0
DICTIONARYVAR
  5
734D
102
{ACAD_REACTORS
330
734C
102
}
330
734C
100
DictionaryVariables
280
     0
  1
1
  0
ENDSEC
  0
EOF
