  0
SECTION
  2
HEADER
  9
$ACADVER
  1
AC1015
  9
$ACADMAINTVER
 70
    10
  9
$DWGCODEPAGE
  3
ANSI_932
  9
$INSBASE
 10
0.0
 20
0.0
 30
0.0
  9
$EXTMIN
 10
-279.4999999999999
 20
-1334.99371337891
 30
0.0
  9
$EXTMAX
 10
1287.406019890612
 20
1092.0
 30
0.0
  9
$LIMMIN
 10
-184.0
 20
-675.0
  9
$LIMMAX
 10
509.0
 20
453.0
  9
$ORTHOMODE
 70
     1
  9
$REGENMODE
 70
     1
  9
$FILLMODE
 70
     1
  9
$QTEXTMODE
 70
     0
  9
$MIRRTEXT
 70
     1
  9
$LTSCALE
 40
20.0
  9
$ATTMODE
 70
     1
  9
$TEXTSIZE
 40
5.0
  9
$TRACEWID
 40
0.05
  9
$TEXTSTYLE
  7
STANDARD1
  9
$CLAYER
  8
30
  9
$CELTYPE
  6
CONTINUOUS
  9
$CECOLOR
 62
   256
  9
$CELTSCALE
 40
1.0
  9
$DISPSILH
 70
     0
  9
$DIMSCALE
 40
1.0
  9
$DIMASZ
 40
5.0
  9
$DIMEXO
 40
5.0
  9
$DIMDLI
 40
0.5
  9
$DIMRND
 40
0.0
  9
$DIMDLE
 40
0.0
  9
$DIMEXE
 40
0.5
  9
$DIMTP
 40
0.0
  9
$DIMTM
 40
0.0
  9
$DIMTXT
 40
10.0
  9
$DIMCEN
 40
0.09
  9
$DIMTSZ
 40
0.0
  9
$DIMTOL
 70
     0
  9
$DIMLIM
 70
     0
  9
$DIMTIH
 70
     0
  9
$DIMTOH
 70
     0
  9
$DIMSE1
 70
     0
  9
$DIMSE2
 70
     0
  9
$DIMTAD
 70
     3
  9
$DIMZIN
 70
    12
  9
$DIMBLK
  1
OPEN
  9
$DIMASO
 70
     1
  9
$DIMSHO
 70
     1
  9
$DIMPOST
  1

  9
$DIMAPOST
  1

  9
$DIMALT
 70
     0
  9
$DIMALTD
 70
     2
  9
$DIMALTF
 40
25.4
  9
$DIMLFAC
 40
1.0
  9
$DIMTOFL
 70
     0
  9
$DIMTVP
 40
0.0
  9
$DIMTIX
 70
     0
  9
$DIMSOXD
 70
     0
  9
$DIMSAH
 70
     0
  9
$DIMBLK1
  1

  9
$DIMBLK2
  1

  9
$DIMSTYLE
  2
STANDARD
  9
$DIMCLRD
 70
     0
  9
$DIMCLRE
 70
     0
  9
$DIMCLRT
 70
     0
  9
$DIMTFAC
 40
1.0
  9
$DIMGAP
 40
3.0
  9
$DIMJUST
 70
     0
  9
$DIMSD1
 70
     0
  9
$DIMSD2
 70
     0
  9
$DIMTOLJ
 70
     1
  9
$DIMTZIN
 70
     0
  9
$DIMALTZ
 70
     0
  9
$DIMALTTZ
 70
     0
  9
$DIMUPT
 70
     0
  9
$DIMDEC
 70
     1
  9
$DIMTDEC
 70
     1
  9
$DIMALTU
 70
     2
  9
$DIMALTTD
 70
     2
  9
$DIMTXSTY
  7
STANDARD
  9
$DIMAUNIT
 70
     0
  9
$DIMADEC
 70
     0
  9
$DIMALTRND
 40
0.0
  9
$DIMAZIN
 70
     3
  9
$DIMDSEP
 70
    46
  9
$DIMATFIT
 70
     3
  9
$DIMFRAC
 70
     0
  9
$DIMLDRBLK
  1
OPEN
  9
$DIMLUNIT
 70
     2
  9
$DIMLWD
 70
    -2
  9
$DIMLWE
 70
    -2
  9
$DIMTMOVE
 70
     0
  9
$LUNITS
 70
     2
  9
$LUPREC
 70
     4
  9
$SKETCHINC
 40
0.1
  9
$FILLETRAD
 40
5.0
  9
$AUNITS
 70
     0
  9
$AUPREC
 70
     0
  9
$MENU
  1
.
  9
$ELEVATION
 40
0.0
  9
$PELEVATION
 40
0.0
  9
$THICKNESS
 40
0.0
  9
$LIMCHECK
 70
     0
  9
$CHAMFERA
 40
0.0
  9
$CHAMFERB
 40
0.0
  9
$CHAMFERC
 40
0.0
  9
$CHAMFERD
 40
0.0
  9
$SKPOLY
 70
     0
  9
$TDCREATE
 40
2452286.555658657
  9
$TDUCREATE
 40
2452286.180658657
  9
$TDUPDATE
 40
2454670.454263055
  9
$TDUUPDATE
 40
2454670.079263055
  9
$TDINDWG
 40
1.6920973727
  9
$TDUSRTIMER
 40
1.6920973727
  9
$USRTIMER
 70
     1
  9
$ANGBASE
 50
0.0
  9
$ANGDIR
 70
     0
  9
$PDMODE
 70
     0
  9
$PDSIZE
 40
0.0
  9
$PLINEWID
 40
0.0
  9
$SPLFRAME
 70
     0
  9
$SPLINETYPE
 70
     6
  9
$SPLINESEGS
 70
     8
  9
$HANDSEED
  5
A6CA
  9
$SURFTAB1
 70
     6
  9
$SURFTAB2
 70
     6
  9
$SURFTYPE
 70
     6
  9
$SURFU
 70
     6
  9
$SURFV
 70
     6
  9
$UCSBASE
  2

  9
$UCSNAME
  2

  9
$UCSORG
 10
0.0
 20
0.0
 30
0.0
  9
$UCSXDIR
 10
1.0
 20
0.0
 30
0.0
  9
$UCSYDIR
 10
0.0
 20
1.0
 30
0.0
  9
$UCSORTHOREF
  2

  9
$UCSORTHOVIEW
 70
     0
  9
$UCSORGTOP
 10
0.0
 20
0.0
 30
0.0
  9
$UCSORGBOTTOM
 10
0.0
 20
0.0
 30
0.0
  9
$UCSORGLEFT
 10
0.0
 20
0.0
 30
0.0
  9
$UCSORGRIGHT
 10
0.0
 20
0.0
 30
0.0
  9
$UCSORGFRONT
 10
0.0
 20
0.0
 30
0.0
  9
$UCSORGBACK
 10
0.0
 20
0.0
 30
0.0
  9
$PUCSBASE
  2

  9
$PUCSNAME
  2

  9
$PUCSORG
 10
0.0
 20
0.0
 30
0.0
  9
$PUCSXDIR
 10
1.0
 20
0.0
 30
0.0
  9
$PUCSYDIR
 10
0.0
 20
1.0
 30
0.0
  9
$PUCSORTHOREF
  2

  9
$PUCSORTHOVIEW
 70
     0
  9
$PUCSORGTOP
 10
0.0
 20
0.0
 30
0.0
  9
$PUCSORGBOTTOM
 10
0.0
 20
0.0
 30
0.0
  9
$PUCSORGLEFT
 10
0.0
 20
0.0
 30
0.0
  9
$PUCSORGRIGHT
 10
0.0
 20
0.0
 30
0.0
  9
$PUCSORGFRONT
 10
0.0
 20
0.0
 30
0.0
  9
$PUCSORGBACK
 10
0.0
 20
0.0
 30
0.0
  9
$USERI1
 70
     0
  9
$USERI2
 70
     0
  9
$USERI3
 70
     0
  9
$USERI4
 70
     0
  9
$USERI5
 70
     0
  9
$USERR1
 40
0.0
  9
$USERR2
 40
0.0
  9
$USERR3
 40
0.0
  9
$USERR4
 40
0.0
  9
$USERR5
 40
0.0
  9
$WORLDVIEW
 70
     1
  9
$SHADEDGE
 70
     3
  9
$SHADEDIF
 70
    70
  9
$TILEMODE
 70
     1
  9
$MAXACTVP
 70
    48
  9
$PINSBASE
 10
0.0
 20
0.0
 30
0.0
  9
$PLIMCHECK
 70
     0
  9
$PEXTMIN
 10
4.273573370203961
 20
5.205246163471485
 30
0.0
  9
$PEXTMAX
 10
194.6100952986349
 20
283.0697008572913
 30
0.0
  9
$PLIMMIN
 10
-5.873748779296875
 20
-5.873749732971191
  9
$PLIMMAX
 10
204.0995788574218
 20
291.1369009017943
  9
$UNITMODE
 70
     0
  9
$VISRETAIN
 70
     1
  9
$PLINEGEN
 70
     0
  9
$PSLTSCALE
 70
     1
  9
$TREEDEPTH
 70
  3020
  9
$CMLSTYLE
  2
STANDARD
  9
$CMLJUST
 70
     0
  9
$CMLSCALE
 40
1.0
  9
$PROXYGRAPHICS
 70
     1
  9
$MEASUREMENT
 70
     0
  9
$CELWEIGHT
370
    -1
  9
$ENDCAPS
280
     0
  9
$JOINSTYLE
280
     0
  9
$LWDISPLAY
290
     0
  9
$INSUNITS
 70
     0
  9
$HYPERLINKBASE
  1

  9
$STYLESHEET
  1
kiki.ctb
  9
$XEDIT
290
     1
  9
$CEPSNTYPE
380
     0
  9
$PSTYLEMODE
290
     1
  9
$FINGERPRINTGUID
  2

  9
$VERSIONGUID
  2
{A5AEA5DB-4DAC-4177-AF14-4FFDF3E1E456}
  9
$EXTNAMES
290
     1
  9
$PSVPSCALE
 40
0.0
  9
$OLESTARTUP
290
     0
  0
ENDSEC
  0
SECTION
  2
CLASSES
  0
CLASS
  1
ACDBDICTIONARYWDFLT
  2
AcDbDictionaryWithDefault
  3
AutoCAD 2000
 90
        0
280
     0
281
     0
  0
CLASS
  1
ACDBPLACEHOLDER
  2
AcDbPlaceHolder
  3
AutoCAD 2000
 90
        0
280
     0
281
     0
  0
CLASS
  1
LAYOUT
  2
AcDbLayout
  3
AutoCAD 2000
 90
        0
280
     0
281
     0
  0
CLASS
  1
LONG_TRANSACTION
  2
AcDbLongTransaction
  3
AutoCAD 2000
 90
    32768
280
     0
281
     0
  0
CLASS
  1
LWPOLYLINE
  2
AcDbPolyline
  3
AutoCAD 2000
 90
    32768
280
     0
281
     1
  0
CLASS
  1
HATCH
  2
AcDbHatch
  3
AutoCAD 2000
 90
    32768
280
     0
281
     1
  0
CLASS
  1
XRECORD
  2
AcDbXrecord
  3
AutoCAD 2000
 90
    32768
280
     0
281
     0
  0
CLASS
  1
LONG_TRANSACTION
  2
AcDbLongTransaction
  3
AutoCAD 2000
 90
    32768
280
     0
281
     0
  0
CLASS
  1
LWPOLYLINE
  2
AcDbPolyline
  3
AutoCAD 2000
 90
    32768
280
     0
281
     1
  0
CLASS
  1
HATCH
  2
AcDbHatch
  3
AutoCAD 2000
 90
    32768
280
     0
281
     1
  0
CLASS
  1
XRECORD
  2
AcDbXrecord
  3
AutoCAD 2000
 90
    32768
280
     0
281
     0
  0
CLASS
  1
LONG_TRANSACTION
  2
AcDbLongTransaction
  3
AutoCAD 2000
 90
    32768
280
     0
281
     0
  0
CLASS
  1
LWPOLYLINE
  2
AcDbPolyline
  3
AutoCAD 2000
 90
    32768
280
     0
281
     1
  0
CLASS
  1
HATCH
  2
AcDbHatch
  3
AutoCAD 2000
 90
    32768
280
     0
281
     1
  0
CLASS
  1
XRECORD
  2
AcDbXrecord
  3
AutoCAD 2000
 90
    32768
280
     0
281
     0
  0
CLASS
  1
LONG_TRANSACTION
  2
AcDbLongTransaction
  3
AutoCAD 2000
 90
    32768
280
     0
281
     0
  0
CLASS
  1
LWPOLYLINE
  2
AcDbPolyline
  3
AutoCAD 2000
 90
    32768
280
     0
281
     1
  0
CLASS
  1
HATCH
  2
AcDbHatch
  3
AutoCAD 2000
 90
    32768
280
     0
281
     1
  0
CLASS
  1
XRECORD
  2
AcDbXrecord
  3
AutoCAD 2000
 90
    32768
280
     0
281
     0
  0
CLASS
  1
LONG_TRANSACTION
  2
AcDbLongTransaction
  3
AutoCAD 2000
 90
    32768
280
     0
281
     0
  0
CLASS
  1
LWPOLYLINE
  2
AcDbPolyline
  3
AutoCAD 2000
 90
    32768
280
     0
281
     1
  0
CLASS
  1
HATCH
  2
AcDbHatch
  3
AutoCAD 2000
 90
    32768
280
     0
281
     1
  0
CLASS
  1
XRECORD
  2
AcDbXrecord
  3
AutoCAD 2000
 90
    32768
280
     0
281
     0
  0
CLASS
  1
LONG_TRANSACTION
  2
AcDbLongTransaction
  3
AutoCAD 2000
 90
    32768
280
     0
281
     0
  0
CLASS
  1
LWPOLYLINE
  2
AcDbPolyline
  3
AutoCAD 2000
 90
    32768
280
     0
281
     1
  0
CLASS
  1
HATCH
  2
AcDbHatch
  3
AutoCAD 2000
 90
    32768
280
     0
281
     1
  0
CLASS
  1
XRECORD
  2
AcDbXrecord
  3
AutoCAD 2000
 90
    32768
280
     0
281
     0
  0
CLASS
  1
LONG_TRANSACTION
  2
AcDbLongTransaction
  3
AutoCAD 2000
 90
    32768
280
     0
281
     0
  0
CLASS
  1
LWPOLYLINE
  2
AcDbPolyline
  3
AutoCAD 2000
 90
    32768
280
     0
281
     1
  0
CLASS
  1
HATCH
  2
AcDbHatch
  3
AutoCAD 2000
 90
    32768
280
     0
281
     1
  0
CLASS
  1
XRECORD
  2
AcDbXrecord
  3
AutoCAD 2000
 90
    32768
280
     0
281
     0
  0
CLASS
  1
LONG_TRANSACTION
  2
AcDbLongTransaction
  3
AutoCAD 2000
 90
    32768
280
     0
281
     0
  0
CLASS
  1
LWPOLYLINE
  2
AcDbPolyline
  3
AutoCAD 2000
 90
    32768
280
     0
281
     1
  0
CLASS
  1
HATCH
  2
AcDbHatch
  3
AutoCAD 2000
 90
    32768
280
     0
281
     1
  0
CLASS
  1
XRECORD
  2
AcDbXrecord
  3
AutoCAD 2000
 90
    32768
280
     0
281
     0
  0
CLASS
  1
LONG_TRANSACTION
  2
AcDbLongTransaction
  3
AutoCAD 2000
 90
    32768
280
     0
281
     0
  0
CLASS
  1
LWPOLYLINE
  2
AcDbPolyline
  3
AutoCAD 2000
 90
    32768
280
     0
281
     1
  0
CLASS
  1
HATCH
  2
AcDbHatch
  3
AutoCAD 2000
 90
    32768
280
     0
281
     1
  0
CLASS
  1
XRECORD
  2
AcDbXrecord
  3
AutoCAD 2000
 90
    32768
280
     0
281
     0
  0
CLASS
  1
LONG_TRANSACTION
  2
AcDbLongTransaction
  3
AutoCAD 2000
 90
    32768
280
     0
281
     0
  0
CLASS
  1
LWPOLYLINE
  2
AcDbPolyline
  3
AutoCAD 2000
 90
    32768
280
     0
281
     1
  0
CLASS
  1
HATCH
  2
AcDbHatch
  3
AutoCAD 2000
 90
    32768
280
     0
281
     1
  0
CLASS
  1
XRECORD
  2
AcDbXrecord
  3
AutoCAD 2000
 90
    32768
280
     0
281
     0
  0
CLASS
  1
LONG_TRANSACTION
  2
AcDbLongTransaction
  3
AutoCAD 2000
 90
    32768
280
     0
281
     0
  0
CLASS
  1
LWPOLYLINE
  2
AcDbPolyline
  3
AutoCAD 2000
 90
    32768
280
     0
281
     1
  0
CLASS
  1
HATCH
  2
AcDbHatch
  3
AutoCAD 2000
 90
    32768
280
     0
281
     1
  0
CLASS
  1
XRECORD
  2
AcDbXrecord
  3
AutoCAD 2000
 90
    32768
280
     0
281
     0
  0
CLASS
  1
LONG_TRANSACTION
  2
AcDbLongTransaction
  3
AutoCAD 2000
 90
    32768
280
     0
281
     0
  0
CLASS
  1
LWPOLYLINE
  2
AcDbPolyline
  3
AutoCAD 2000
 90
    32768
280
     0
281
     1
  0
CLASS
  1
HATCH
  2
AcDbHatch
  3
AutoCAD 2000
 90
    32768
280
     0
281
     1
  0
CLASS
  1
XRECORD
  2
AcDbXrecord
  3
AutoCAD 2000
 90
    32768
280
     0
281
     0
  0
CLASS
  1
LONG_TRANSACTION
  2
AcDbLongTransaction
  3
AutoCAD 2000
 90
    32768
280
     0
281
     0
  0
CLASS
  1
LWPOLYLINE
  2
AcDbPolyline
  3
AutoCAD 2000
 90
    32768
280
     0
281
     1
  0
CLASS
  1
HATCH
  2
AcDbHatch
  3
AutoCAD 2000
 90
    32768
280
     0
281
     1
  0
CLASS
  1
XRECORD
  2
AcDbXrecord
  3
AutoCAD 2000
 90
    32768
280
     0
281
     0
  0
CLASS
  1
LONG_TRANSACTION
  2
AcDbLongTransaction
  3
AutoCAD 2000
 90
    32768
280
     0
281
     0
  0
CLASS
  1
LWPOLYLINE
  2
AcDbPolyline
  3
AutoCAD 2000
 90
    32768
280
     0
281
     1
  0
CLASS
  1
HATCH
  2
AcDbHatch
  3
AutoCAD 2000
 90
    32768
280
     0
281
     1
  0
CLASS
  1
XRECORD
  2
AcDbXrecord
  3
AutoCAD 2000
 90
    32768
280
     0
281
     0
  0
CLASS
  1
LONG_TRANSACTION
  2
AcDbLongTransaction
  3
AutoCAD 2000
 90
    32768
280
     0
281
     0
  0
CLASS
  1
LWPOLYLINE
  2
AcDbPolyline
  3
AutoCAD 2000
 90
    32768
280
     0
281
     1
  0
CLASS
  1
HATCH
  2
AcDbHatch
  3
AutoCAD 2000
 90
    32768
280
     0
281
     1
  0
CLASS
  1
XRECORD
  2
AcDbXrecord
  3
AutoCAD 2000
 90
    32768
280
     0
281
     0
  0
CLASS
  1
LONG_TRANSACTION
  2
AcDbLongTransaction
  3
AutoCAD 2000
 90
    32768
280
     0
281
     0
  0
CLASS
  1
LWPOLYLINE
  2
AcDbPolyline
  3
AutoCAD 2000
 90
    32768
280
     0
281
     1
  0
CLASS
  1
HATCH
  2
AcDbHatch
  3
AutoCAD 2000
 90
    32768
280
     0
281
     1
  0
CLASS
  1
XRECORD
  2
AcDbXrecord
  3
AutoCAD 2000
 90
    32768
280
     0
281
     0
  0
CLASS
  1
LONG_TRANSACTION
  2
AcDbLongTransaction
  3
AutoCAD 2000
 90
    32768
280
     0
281
     0
  0
CLASS
  1
LWPOLYLINE
  2
AcDbPolyline
  3
AutoCAD 2000
 90
    32768
280
     0
281
     1
  0
CLASS
  1
HATCH
  2
AcDbHatch
  3
AutoCAD 2000
 90
    32768
280
     0
281
     1
  0
CLASS
  1
XRECORD
  2
AcDbXrecord
  3
AutoCAD 2000
 90
    32768
280
     0
281
     0
  0
CLASS
  1
LONG_TRANSACTION
  2
AcDbLongTransaction
  3
AutoCAD 2000
 90
    32768
280
     0
281
     0
  0
CLASS
  1
LWPOLYLINE
  2
AcDbPolyline
  3
AutoCAD 2000
 90
    32768
280
     0
281
     1
  0
CLASS
  1
HATCH
  2
AcDbHatch
  3
AutoCAD 2000
 90
    32768
280
     0
281
     1
  0
CLASS
  1
XRECORD
  2
AcDbXrecord
  3
AutoCAD 2000
 90
    32768
280
     0
281
     0
  0
CLASS
  1
LONG_TRANSACTION
  2
AcDbLongTransaction
  3
AutoCAD 2000
 90
    32768
280
     0
281
     0
  0
CLASS
  1
LWPOLYLINE
  2
AcDbPolyline
  3
AutoCAD 2000
 90
    32768
280
     0
281
     1
  0
CLASS
  1
HATCH
  2
AcDbHatch
  3
AutoCAD 2000
 90
    32768
280
     0
281
     1
  0
CLASS
  1
XRECORD
  2
AcDbXrecord
  3
AutoCAD 2000
 90
    32768
280
     0
281
     0
  0
CLASS
  1
LONG_TRANSACTION
  2
AcDbLongTransaction
  3
AutoCAD 2000
 90
    32768
280
     0
281
     0
  0
CLASS
  1
LWPOLYLINE
  2
AcDbPolyline
  3
AutoCAD 2000
 90
    32768
280
     0
281
     1
  0
CLASS
  1
HATCH
  2
AcDbHatch
  3
AutoCAD 2000
 90
    32768
280
     0
281
     1
  0
CLASS
  1
XRECORD
  2
AcDbXrecord
  3
AutoCAD 2000
 90
    32768
280
     0
281
     0
  0
CLASS
  1
LONG_TRANSACTION
  2
AcDbLongTransaction
  3
AutoCAD 2000
 90
    32768
280
     0
281
     0
  0
CLASS
  1
LWPOLYLINE
  2
AcDbPolyline
  3
AutoCAD 2000
 90
    32768
280
     0
281
     1
  0
CLASS
  1
HATCH
  2
AcDbHatch
  3
AutoCAD 2000
 90
    32768
280
     0
281
     1
  0
CLASS
  1
XRECORD
  2
AcDbXrecord
  3
AutoCAD 2000
 90
    32768
280
     0
281
     0
  0
CLASS
  1
LONG_TRANSACTION
  2
AcDbLongTransaction
  3
AutoCAD 2000
 90
    32768
280
     0
281
     0
  0
CLASS
  1
LWPOLYLINE
  2
AcDbPolyline
  3
AutoCAD 2000
 90
    32768
280
     0
281
     1
  0
CLASS
  1
HATCH
  2
AcDbHatch
  3
AutoCAD 2000
 90
    32768
280
     0
281
     1
  0
CLASS
  1
XRECORD
  2
AcDbXrecord
  3
AutoCAD 2000
 90
    32768
280
     0
281
     0
  0
CLASS
  1
LONG_TRANSACTION
  2
AcDbLongTransaction
  3
AutoCAD 2000
 90
    32768
280
     0
281
     0
  0
CLASS
  1
LWPOLYLINE
  2
AcDbPolyline
  3
AutoCAD 2000
 90
    32768
280
     0
281
     1
  0
CLASS
  1
HATCH
  2
AcDbHatch
  3
AutoCAD 2000
 90
    32768
280
     0
281
     1
  0
CLASS
  1
XRECORD
  2
AcDbXrecord
  3
AutoCAD 2000
 90
    32768
280
     0
281
     0
  0
CLASS
  1
LONG_TRANSACTION
  2
AcDbLongTransaction
  3
AutoCAD 2000
 90
    32768
280
     0
281
     0
  0
CLASS
  1
LWPOLYLINE
  2
AcDbPolyline
  3
AutoCAD 2000
 90
    32768
280
     0
281
     1
  0
CLASS
  1
HATCH
  2
AcDbHatch
  3
AutoCAD 2000
 90
    32768
280
     0
281
     1
  0
CLASS
  1
XRECORD
  2
AcDbXrecord
  3
AutoCAD 2000
 90
    32768
280
     0
281
     0
  0
CLASS
  1
LONG_TRANSACTION
  2
AcDbLongTransaction
  3
AutoCAD 2000
 90
    32768
280
     0
281
     0
  0
CLASS
  1
LWPOLYLINE
  2
AcDbPolyline
  3
AutoCAD 2000
 90
    32768
280
     0
281
     1
  0
CLASS
  1
HATCH
  2
AcDbHatch
  3
AutoCAD 2000
 90
    32768
280
     0
281
     1
  0
CLASS
  1
XRECORD
  2
AcDbXrecord
  3
AutoCAD 2000
 90
    32768
280
     0
281
     0
  0
CLASS
  1
LONG_TRANSACTION
  2
AcDbLongTransaction
  3
AutoCAD 2000
 90
    32768
280
     0
281
     0
  0
CLASS
  1
LWPOLYLINE
  2
AcDbPolyline
  3
AutoCAD 2000
 90
    32768
280
     0
281
     1
  0
CLASS
  1
HATCH
  2
AcDbHatch
  3
AutoCAD 2000
 90
    32768
280
     0
281
     1
  0
CLASS
  1
XRECORD
  2
AcDbXrecord
  3
AutoCAD 2000
 90
    32768
280
     0
281
     0
  0
CLASS
  1
LONG_TRANSACTION
  2
AcDbLongTransaction
  3
AutoCAD 2000
 90
    32768
280
     0
281
     0
  0
CLASS
  1
LWPOLYLINE
  2
AcDbPolyline
  3
AutoCAD 2000
 90
    32768
280
     0
281
     1
  0
CLASS
  1
HATCH
  2
AcDbHatch
  3
AutoCAD 2000
 90
    32768
280
     0
281
     1
  0
CLASS
  1
XRECORD
  2
AcDbXrecord
  3
AutoCAD 2000
 90
    32768
280
     0
281
     0
  0
CLASS
  1
DICTIONARYVAR
  2
AcDbDictionaryVar
  3
AutoCAD 2000
 90
        0
280
     0
281
     0
  0
CLASS
  1
LONG_TRANSACTION
  2
AcDbLongTransaction
  3
AutoCAD 2000
 90
    32768
280
     0
281
     0
  0
CLASS
  1
LWPOLYLINE
  2
AcDbPolyline
  3
AutoCAD 2000
 90
    32768
280
     0
281
     1
  0
CLASS
  1
HATCH
  2
AcDbHatch
  3
AutoCAD 2000
 90
    32768
280
     0
281
     1
  0
CLASS
  1
XRECORD
  2
AcDbXrecord
  3
AutoCAD 2000
 90
    32768
280
     0
281
     0
  0
CLASS
  1
LONG_TRANSACTION
  2
AcDbLongTransaction
  3
AutoCAD 2000
 90
    32768
280
     0
281
     0
  0
CLASS
  1
LWPOLYLINE
  2
AcDbPolyline
  3
AutoCAD 2000
 90
    32768
280
     0
281
     1
  0
CLASS
  1
HATCH
  2
AcDbHatch
  3
AutoCAD 2000
 90
    32768
280
     0
281
     1
  0
CLASS
  1
XRECORD
  2
AcDbXrecord
  3
AutoCAD 2000
 90
    32768
280
     0
281
     0
  0
CLASS
  1
LONG_TRANSACTION
  2
AcDbLongTransaction
  3
AutoCAD 2000
 90
    32768
280
     0
281
     0
  0
CLASS
  1
LWPOLYLINE
  2
AcDbPolyline
  3
AutoCAD 2000
 90
    32768
280
     0
281
     1
  0
CLASS
  1
HATCH
  2
AcDbHatch
  3
AutoCAD 2000
 90
    32768
280
     0
281
     1
  0
CLASS
  1
XRECORD
  2
AcDbXrecord
  3
AutoCAD 2000
 90
    32768
280
     0
281
     0
  0
ENDSEC
  0
SECTION
  2
TABLES
  0
TABLE
  2
VPORT
  5
8
330
0
100
AcDbSymbolTable
 70
     2
  0
VPORT
  5
A6C9
330
8
100
AcDbSymbolTableRecord
100
AcDbViewportTableRecord
  2
*Active
 70
     0
 10
0.0
 20
0.0
 11
1.0
 21
1.0
 12
503.9489734006847
 22
347.1679111654107
 13
0.0
 23
0.0
 14
1.0
 24
1.0
 15
50.0
 25
50.0
 16
0.0
 26
0.0
 36
1.0
 17
0.0
 27
0.0
 37
0.0
 40
3399.320738749244
 41
1.661996497373029
 42
50.0
 43
0.0
 44
0.0
 50
0.0
 51
0.0
 71
     0
 72
   100
 73
     1
 74
     1
 75
     1
 76
     0
 77
     0
 78
     0
281
     0
 65
     1
110
0.0
120
0.0
130
0.0
111
1.0
121
0.0
131
0.0
112
0.0
122
1.0
132
0.0
 79
     0
146
0.0
  0
ENDTAB
  0
TABLE
  2
LTYPE
  5
5
330
0
100
AcDbSymbolTable
 70
     5
  0
LTYPE
  5
13
330
5
100
AcDbSymbolTableRecord
100
AcDbLinetypeTableRecord
  2
BYBLOCK
 70
     0
  3

 72
    65
 73
     0
 40
0.0
  0
LTYPE
  5
14
330
5
100
AcDbSymbolTableRecord
100
AcDbLinetypeTableRecord
  2
BYLAYER
 70
     0
  3

 72
    65
 73
     0
 40
0.0
  0
LTYPE
  5
15
330
5
100
AcDbSymbolTableRecord
100
AcDbLinetypeTableRecord
  2
CONTINUOUS
 70
     0
  3
Solid line
 72
    65
 73
     0
 40
0.0
  0
LTYPE
  5
22
330
5
100
AcDbSymbolTableRecord
100
AcDbLinetypeTableRecord
  2
CONTINOUS
 70
     0
  3
Solid line
 72
    65
 73
     0
 40
0.0
  0
LTYPE
  5
23
330
5
100
AcDbSymbolTableRecord
100
AcDbLinetypeTableRecord
  2
DASHED
 70
     0
  3
__ __ __ __ __ __ __ __ __ __ __ __ __ __ __
 72
    65
 73
     2
 40
0.75
 49
0.5
 74
     0
 49
-0.25
 74
     0
  0
LTYPE
  5
24
330
5
100
AcDbSymbolTableRecord
100
AcDbLinetypeTableRecord
  2
DASHDOT
 70
     0
  3
__ . __ . __ . __ . __ . __ . __ . __ . __ . __
 72
    65
 73
     4
 40
1.0
 49
0.5
 74
     0
 49
-0.25
 74
     0
 49
0.0
 74
     0
 49
-0.25
 74
     0
  0
LTYPE
  5
3932
330
5
100
AcDbSymbolTableRecord
100
AcDbLinetypeTableRecord
  2
DIVIDE
 70
     0
  3
Divide ____ . . ____ . . ____ . . ____ . . ____
 72
    65
 73
     6
 40
1.25
 49
0.5
 74
     0
 49
-0.25
 74
     0
 49
0.0
 74
     0
 49
-0.25
 74
     0
 49
0.0
 74
     0
 49
-0.25
 74
     0
  0
ENDTAB
  0
TABLE
  2
LAYER
  5
2
330
0
100
AcDbSymbolTable
 70
    11
  0
LAYER
  5
10
330
2
100
AcDbSymbolTableRecord
100
AcDbLayerTableRecord
  2
0
 70
     0
 62
     7
  6
CONTINOUS
370
    -3
390
F
  0
LAYER
  5
2F
330
2
100
AcDbSymbolTableRecord
100
AcDbLayerTableRecord
  2
10
 70
     0
 62
     4
  6
CONTINOUS
370
    -3
390
F
  0
LAYER
  5
31
330
2
100
AcDbSymbolTableRecord
100
AcDbLayerTableRecord
  2
12
 70
     0
 62
     3
  6
CONTINOUS
370
    -3
390
F
  0
LAYER
  5
35
330
2
100
AcDbSymbolTableRecord
100
AcDbLayerTableRecord
  2
16
 70
     0
 62
     6
  6
DASHDOT
370
    -3
390
F
  0
LAYER
  5
36
330
2
100
AcDbSymbolTableRecord
100
AcDbLayerTableRecord
  2
17
 70
     0
 62
     2
  6
DASHDOT
370
    -3
390
F
  0
LAYER
  5
38
330
2
100
AcDbSymbolTableRecord
100
AcDbLayerTableRecord
  2
19
 70
     0
 62
     7
  6
CONTINOUS
370
    -3
390
F
  0
LAYER
  5
3D
330
2
100
AcDbSymbolTableRecord
100
AcDbLayerTableRecord
  2
24
 70
     0
 62
     2
  6
CONTINOUS
370
    -3
390
F
  0
LAYER
  5
3A2
330
2
100
AcDbSymbolTableRecord
100
AcDbLayerTableRecord
  2
30
 70
     0
 62
     9
  6
CONTINUOUS
370
    -3
390
F
  0
LAYER
  5
3A4
330
2
100
AcDbSymbolTableRecord
100
AcDbLayerTableRecord
  2
DEFPOINTS
 70
     0
 62
     7
  6
CONTINUOUS
290
     0
370
    -3
390
F
  0
LAYER
  5
3933
330
2
100
AcDbSymbolTableRecord
100
AcDbLayerTableRecord
  2
18
 70
     0
 62
     5
  6
DIVIDE
370
    -3
390
F
  0
LAYER
  5
6877
330
2
100
AcDbSymbolTableRecord
100
AcDbLayerTableRecord
  2
L225_
 70
     0
 62
     7
  6
CONTINUOUS
370
    -3
390
F
  0
ENDTAB
  0
TABLE
  2
STYLE
  5
3
330
0
100
AcDbSymbolTable
 70
     2
  0
STYLE
  5
11
330
3
100
AcDbSymbolTableRecord
100
AcDbTextStyleTableRecord
  2
STANDARD
 70
     0
 40
0.0
 41
1.0
 50
0.0
 71
     0
 42
2.0
  3
txt.shx
  4
bigfont.shx
  0
STYLE
  5
42
330
3
100
AcDbSymbolTableRecord
100
AcDbTextStyleTableRecord
  2
STANDARD1
 70
     0
 40
0.0
 41
1.0
 50
0.0
 71
     0
 42
5.0
  3
MONOTXT
  4
BIGFONT
  0
ENDTAB
  0
TABLE
  2
VIEW
  5
6
330
0
100
AcDbSymbolTable
 70
     3
  0
VIEW
  5
230C
330
6
100
AcDbSymbolTableRecord
100
AcDbViewTableRecord
  2
OLE1
 70
     0
 40
148.9124878027714
 10
429.4976280407223
 20
2.560626997828478
 41
103.1458057716444
 11
0.0
 21
0.0
 31
1.0
 12
0.0
 22
0.0
 32
0.0
 42
50.0
 43
0.0
 44
0.0
 50
0.0
 71
     0
281
     0
 72
     0
  0
VIEW
  5
230E
330
6
100
AcDbSymbolTableRecord
100
AcDbViewTableRecord
  2
OLE2
 70
     0
 40
170.7786920545775
 10
322.664969958371
 20
-5.978304054290276
 41
102.4672152327465
 11
0.0
 21
0.0
 31
1.0
 12
0.0
 22
0.0
 32
0.0
 42
50.0
 43
0.0
 44
0.0
 50
0.0
 71
     0
281
     0
 72
     0
  0
VIEW
  5
23AA
330
6
100
AcDbSymbolTableRecord
100
AcDbViewTableRecord
  2
OLE3
 70
     0
 40
591.7897393182231
 10
84.79698158148218
 20
-46.09336010803996
 41
388.7920961799953
 11
0.0
 21
0.0
 31
1.0
 12
0.0
 22
0.0
 32
0.0
 42
50.0
 43
0.0
 44
0.0
 50
0.0
 71
     0
281
     0
 72
     0
  0
ENDTAB
  0
TABLE
  2
UCS
  5
7
330
0
100
AcDbSymbolTable
 70
     0
  0
ENDTAB
  0
TABLE
  2
APPID
  5
9
330
0
100
AcDbSymbolTable
 70
     2
  0
APPID
  5
12
330
9
100
AcDbSymbolTableRecord
100
AcDbRegAppTableRecord
  2
ACAD
 70
     0
  0
APPID
  5
ECD
330
9
100
AcDbSymbolTableRecord
100
AcDbRegAppTableRecord
  2
CONTENTBLOCKICON
 70
     0
  0
ENDTAB
  0
TABLE
  2
DIMSTYLE
  5
A
330
0
100
AcDbSymbolTable
 70
     1
100
AcDbDimStyleTable
 71
     0
  0
DIMSTYLE
105
175
102
{ACAD_REACTORS
330
8E39
330
8E3A
330
8E3B
330
8E41
330
8E53
330
9195
330
93F5
330
9402
330
9418
330
94E4
330
94FE
330
94F1
330
950B
330
9579
330
955D
330
956C
330
953C
330
8E38
330
8E36
330
8E37
330
8EAC
330
8E73
330
8EC4
330
9C1C
330
9C39
330
90E2
330
90D6
330
90D1
330
90D0
330
9D5D
330
9D78
330
9D5A
330
9D77
330
9D6C
330
9F37
330
9F5B
330
9FB4
330
9FB5
330
9FB6
330
9FB7
330
A00E
102
}
330
A
100
AcDbSymbolTableRecord
100
AcDbDimStyleTableRecord
  2
STANDARD
 70
     0
 41
5.0
 42
5.0
 43
0.5
 44
0.5
 73
     0
 74
     0
 77
     3
 78
    12
140
10.0
147
3.0
271
     1
272
     1
340
11
341
3B2
342
3B2
  0
ENDTAB
  0
TABLE
  2
BLOCK_RECORD
  5
1
330
0
100
AcDbSymbolTable
 70
    42
  0
BLOCK_RECORD
  5
1E
102
{ACAD_XDICTIONARY
360
178
102
}
330
1
100
AcDbSymbolTableRecord
100
AcDbBlockTableRecord
  2
*MODEL_SPACE
340
A6C5
  0
BLOCK_RECORD
  5
1A
102
{ACAD_XDICTIONARY
360
17A
102
}
330
1
100
AcDbSymbolTableRecord
100
AcDbBlockTableRecord
  2
*PAPER_SPACE
340
A6C6
  0
BLOCK_RECORD
  5
3B2
330
1
100
AcDbSymbolTableRecord
100
AcDbBlockTableRecord
  2
_OPEN
340
0
102
{BLKREFS
331
A620
331
A621
331
A629
331
A62A
331
A632
331
A633
331
A63C
331
A63D
331
A645
331
A646
331
A64E
331
A64F
331
A657
331
A658
331
A660
331
A661
331
A669
331
A66A
331
A672
331
A673
331
A67B
331
A67C
331
9CD7
331
9CD8
331
9CB3
331
9CB4
331
A684
331
A685
331
A68D
331
A68E
331
9B29
331
9B2A
331
9B32
331
9B33
331
9B3B
331
9B3C
331
9B44
331
9B45
331
9B4D
331
9B4E
331
9B5F
331
9B60
331
9B56
331
9B57
331
9B68
331
9B69
331
9B8D
331
9B8E
331
9B7B
331
9B7C
331
9B84
331
9B85
331
9B72
331
9B73
331
9C20
331
9C3D
331
A696
331
A697
331
A69F
331
A6A0
331
A6A8
331
A6A9
331
A6B1
331
A6B2
331
A6BA
331
A6BB
331
9F74
331
9F75
331
9F6B
331
9F6C
331
9FED
331
9FEE
331
9FF6
331
9FF7
331
9FFF
331
A000
331
A008
331
A009
331
A012
102
}
  0
BLOCK_RECORD
  5
8ED3
330
1
100
AcDbSymbolTableRecord
100
AcDbBlockTableRecord
  2
*D1
340
0
  0
BLOCK_RECORD
  5
8EDF
330
1
100
AcDbSymbolTableRecord
100
AcDbBlockTableRecord
  2
*D2
340
0
  0
BLOCK_RECORD
  5
8EEB
330
1
100
AcDbSymbolTableRecord
100
AcDbBlockTableRecord
  2
*D3
340
0
  0
BLOCK_RECORD
  5
8EF7
330
1
100
AcDbSymbolTableRecord
100
AcDbBlockTableRecord
  2
*D4
340
0
  0
BLOCK_RECORD
  5
8F03
330
1
100
AcDbSymbolTableRecord
100
AcDbBlockTableRecord
  2
*D5
340
0
  0
BLOCK_RECORD
  5
8F0F
330
1
100
AcDbSymbolTableRecord
100
AcDbBlockTableRecord
  2
*D6
340
0
  0
BLOCK_RECORD
  5
8F1B
330
1
100
AcDbSymbolTableRecord
100
AcDbBlockTableRecord
  2
*D7
340
0
  0
BLOCK_RECORD
  5
8F27
330
1
100
AcDbSymbolTableRecord
100
AcDbBlockTableRecord
  2
*D8
340
0
  0
BLOCK_RECORD
  5
8F33
330
1
100
AcDbSymbolTableRecord
100
AcDbBlockTableRecord
  2
*D9
340
0
  0
BLOCK_RECORD
  5
8F6F
330
1
100
AcDbSymbolTableRecord
100
AcDbBlockTableRecord
  2
*D10
340
0
  0
BLOCK_RECORD
  5
8F7B
330
1
100
AcDbSymbolTableRecord
100
AcDbBlockTableRecord
  2
*D11
340
0
  0
BLOCK_RECORD
  5
9117
330
1
100
AcDbSymbolTableRecord
100
AcDbBlockTableRecord
  2
*D12
340
0
  0
BLOCK_RECORD
  5
9123
330
1
100
AcDbSymbolTableRecord
100
AcDbBlockTableRecord
  2
*D13
340
0
  0
BLOCK_RECORD
  5
912F
330
1
100
AcDbSymbolTableRecord
100
AcDbBlockTableRecord
  2
*D14
340
0
  0
BLOCK_RECORD
  5
9147
330
1
100
AcDbSymbolTableRecord
100
AcDbBlockTableRecord
  2
*D15
340
0
  0
BLOCK_RECORD
  5
9196
330
1
100
AcDbSymbolTableRecord
100
AcDbBlockTableRecord
  2
*D16
340
0
  0
BLOCK_RECORD
  5
93F6
330
1
100
AcDbSymbolTableRecord
100
AcDbBlockTableRecord
  2
*D17
340
0
  0
BLOCK_RECORD
  5
9403
330
1
100
AcDbSymbolTableRecord
100
AcDbBlockTableRecord
  2
*D18
340
0
  0
BLOCK_RECORD
  5
9419
330
1
100
AcDbSymbolTableRecord
100
AcDbBlockTableRecord
  2
*D19
340
0
  0
BLOCK_RECORD
  5
94E5
330
1
100
AcDbSymbolTableRecord
100
AcDbBlockTableRecord
  2
*D20
340
0
  0
BLOCK_RECORD
  5
94F2
330
1
100
AcDbSymbolTableRecord
100
AcDbBlockTableRecord
  2
*D21
340
0
  0
BLOCK_RECORD
  5
94FF
330
1
100
AcDbSymbolTableRecord
100
AcDbBlockTableRecord
  2
*D22
340
0
  0
BLOCK_RECORD
  5
950C
330
1
100
AcDbSymbolTableRecord
100
AcDbBlockTableRecord
  2
*D23
340
0
  0
BLOCK_RECORD
  5
953D
330
1
100
AcDbSymbolTableRecord
100
AcDbBlockTableRecord
  2
*D24
340
0
  0
BLOCK_RECORD
  5
955E
330
1
100
AcDbSymbolTableRecord
100
AcDbBlockTableRecord
  2
*D25
340
0
  0
BLOCK_RECORD
  5
956D
330
1
100
AcDbSymbolTableRecord
100
AcDbBlockTableRecord
  2
*D26
340
0
  0
BLOCK_RECORD
  5
957A
330
1
100
AcDbSymbolTableRecord
100
AcDbBlockTableRecord
  2
*D27
340
0
  0
BLOCK_RECORD
  5
9C1D
330
1
100
AcDbSymbolTableRecord
100
AcDbBlockTableRecord
  2
*D28
340
0
  0
BLOCK_RECORD
  5
9C3A
330
1
100
AcDbSymbolTableRecord
100
AcDbBlockTableRecord
  2
*D29
340
0
  0
BLOCK_RECORD
  5
9D83
330
1
100
AcDbSymbolTableRecord
100
AcDbBlockTableRecord
  2
*D30
340
0
  0
BLOCK_RECORD
  5
9D8F
330
1
100
AcDbSymbolTableRecord
100
AcDbBlockTableRecord
  2
*D31
340
0
  0
BLOCK_RECORD
  5
9D9B
330
1
100
AcDbSymbolTableRecord
100
AcDbBlockTableRecord
  2
*D32
340
0
  0
BLOCK_RECORD
  5
9DA7
330
1
100
AcDbSymbolTableRecord
100
AcDbBlockTableRecord
  2
*D33
340
0
  0
BLOCK_RECORD
  5
9DB3
330
1
100
AcDbSymbolTableRecord
100
AcDbBlockTableRecord
  2
*D34
340
0
  0
BLOCK_RECORD
  5
9F38
330
1
100
AcDbSymbolTableRecord
100
AcDbBlockTableRecord
  2
*D35
340
0
  0
BLOCK_RECORD
  5
9F5C
330
1
100
AcDbSymbolTableRecord
100
AcDbBlockTableRecord
  2
*D36
340
0
  0
BLOCK_RECORD
  5
9FBA
330
1
100
AcDbSymbolTableRecord
100
AcDbBlockTableRecord
  2
*D37
340
0
  0
BLOCK_RECORD
  5
9FC6
330
1
100
AcDbSymbolTableRecord
100
AcDbBlockTableRecord
  2
*D38
340
0
  0
BLOCK_RECORD
  5
9FD2
330
1
100
AcDbSymbolTableRecord
100
AcDbBlockTableRecord
  2
*D39
340
0
  0
BLOCK_RECORD
  5
9FDE
330
1
100
AcDbSymbolTableRecord
100
AcDbBlockTableRecord
  2
*D40
340
0
  0
BLOCK_RECORD
  5
A00F
330
1
100
AcDbSymbolTableRecord
100
AcDbBlockTableRecord
  2
*D41
340
0
  0
ENDTAB
  0
ENDSEC
  0
SECTION
  2
BLOCKS
  0
BLOCK
  5
1F
330
1E
100
AcDbEntity
  8
0
100
AcDbBlockBegin
  2
*MODEL_SPACE
 70
     0
 10
0.0
 20
0.0
 30
0.0
  3
*MODEL_SPACE
  1

  0
ENDBLK
  5
20
330
1E
100
AcDbEntity
  8
0
100
AcDbBlockEnd
  0
BLOCK
  5
1B
330
1A
100
AcDbEntity
 67
     1
  8
0
100
AcDbBlockBegin
  2
*PAPER_SPACE
 70
     0
 10
0.0
 20
0.0
 30
0.0
  3
*PAPER_SPACE
  1

  0
ENDBLK
  5
1C
330
1A
100
AcDbEntity
 67
     1
  8
0
100
AcDbBlockEnd
  0
BLOCK
  5
3B6
330
3B2
100
AcDbEntity
  8
0
100
AcDbBlockBegin
  2
_OPEN
 70
     0
 10
0.0
 20
0.0
 30
0.0
  3
_OPEN
  1

  0
LINE
  5
3B3
330
3B2
100
AcDbEntity
  8
30
  6
Continuous
 62
     0
100
AcDbLine
 10
-1.0
 20
0.1666666666666666
 30
0.0
 11
0.0
 21
0.0
 31
0.0
  0
LINE
  5
3B4
330
3B2
100
AcDbEntity
  8
30
  6
Continuous
 62
     0
100
AcDbLine
 10
-1.0
 20
-0.1666666666666666
 30
0.0
 11
0.0
 21
0.0
 31
0.0
  0
LINE
  5
3B5
330
3B2
100
AcDbEntity
  8
30
  6
Continuous
 62
     0
100
AcDbLine
 10
0.0
 20
0.0
 30
0.0
 11
-1.0
 21
0.0
 31
0.0
  0
ENDBLK
  5
3B7
330
3B2
100
AcDbEntity
  8
0
100
AcDbBlockEnd
  0
BLOCK
  5
8EDD
330
8ED3
100
AcDbEntity
  8
0
100
AcDbBlockBegin
  2
*D1
 70
     1
 10
0.0
 20
0.0
 30
0.0
  3
*D1
  1

  0
LINE
  5
A61C
330
8ED3
100
AcDbEntity
  8
30
 62
     0
100
AcDbLine
 10
1086.499525750012
 20
-99.0
 30
0.0
 11
1139.34742614061
 21
-99.00000000000002
 31
0.0
  0
LINE
  5
A61D
330
8ED3
100
AcDbEntity
  8
30
 62
     0
100
AcDbLine
 10
1282.406019890612
 20
0.0000000000000014
 30
0.0
 11
1138.347426140611
 21
0.0000000000000422
 31
0.0
  0
LINE
  5
A61E
330
8ED3
100
AcDbEntity
  8
30
 62
     0
100
AcDbLine
 10
1138.84742614061
 20
-94.00000000000002
 30
0.0
 11
1138.84742614061
 21
-4.999999999999958
 31
0.0
  0
MTEXT
  5
A61F
330
8ED3
100
AcDbEntity
  8
30
 62
     0
100
AcDbMText
 10
1121.972426069578
 20
-44.9681403860352
 30
0.0
 40
10.0
 41
0.0
 71
     5
 72
     1
  1
\A1;99
 11
0.0000000000000001
 21
1.0
 31
0.0
 73
     1
 44
1.0
  0
INSERT
  5
A620
330
8ED3
100
AcDbEntity
  8
30
 62
     0
100
AcDbBlockReference
  2
_OPEN
 10
1138.84742614061
 20
-99.00000000000002
 30
0.0
 41
5.0
 42
5.0
 43
5.0
 50
270.0
  0
INSERT
  5
A621
330
8ED3
100
AcDbEntity
  8
30
 62
     0
100
AcDbBlockReference
  2
_OPEN
 10
1138.84742614061
 20
0.0000000000000421
 30
0.0
 41
5.0
 42
5.0
 43
5.0
 50
90.0
  0
POINT
  5
A622
330
8ED3
100
AcDbEntity
  8
DEFPOINTS
 62
     0
100
AcDbPoint
 10
1081.499525750012
 20
-99.0
 30
0.0
  0
POINT
  5
A623
330
8ED3
100
AcDbEntity
  8
DEFPOINTS
 62
     0
100
AcDbPoint
 10
1287.406019890612
 20
0.0
 30
0.0
  0
POINT
  5
A624
330
8ED3
100
AcDbEntity
  8
DEFPOINTS
 62
     0
100
AcDbPoint
 10
1138.84742614061
 20
0.0000000000000421
 30
0.0
  0
ENDBLK
  5
8EDE
330
8ED3
100
AcDbEntity
  8
0
100
AcDbBlockEnd
  0
BLOCK
  5
8EE9
330
8EDF
100
AcDbEntity
  8
0
100
AcDbBlockBegin
  2
*D2
 70
     1
 10
0.0
 20
0.0
 30
0.0
  3
*D2
  1

  0
LINE
  5
A625
330
8EDF
100
AcDbEntity
  8
30
 62
     0
100
AcDbLine
 10
1041.499525750012
 20
-81.4063720703
 30
0.0
 11
1041.499525750012
 21
-52.2917480469
 31
0.0
  0
LINE
  5
A626
330
8EDF
100
AcDbEntity
  8
30
 62
     0
100
AcDbLine
 10
1081.499525750012
 20
-94.0
 30
0.0
 11
1081.499525750012
 21
-52.2917480469
 31
0.0
  0
LINE
  5
A627
330
8EDF
100
AcDbEntity
  8
30
 62
     0
100
AcDbLine
 10
1046.499525750012
 20
-52.79174804690001
 30
0.0
 11
1076.499525750012
 21
-52.79174804690001
 31
0.0
  0
MTEXT
  5
A628
330
8EDF
100
AcDbEntity
  8
30
 62
     0
100
AcDbMText
 10
1061.478094162175
 20
-35.91674804690251
 30
0.0
 40
10.0
 41
0.0
 71
     5
 72
     1
  1
\A1;40
 73
     1
 44
1.0
  0
INSERT
  5
A629
330
8EDF
100
AcDbEntity
  8
30
 62
     0
100
AcDbBlockReference
  2
_OPEN
 10
1041.499525750012
 20
-52.79174804690001
 30
0.0
 41
5.0
 42
5.0
 43
5.0
 50
180.0
  0
INSERT
  5
A62A
330
8EDF
100
AcDbEntity
  8
30
 62
     0
100
AcDbBlockReference
  2
_OPEN
 10
1081.499525750012
 20
-52.79174804690001
 30
0.0
 41
5.0
 42
5.0
 43
5.0
  0
POINT
  5
A62B
330
8EDF
100
AcDbEntity
  8
DEFPOINTS
 62
     0
100
AcDbPoint
 10
1041.499525750012
 20
-86.40637207030001
 30
0.0
  0
POINT
  5
A62C
330
8EDF
100
AcDbEntity
  8
DEFPOINTS
 62
     0
100
AcDbPoint
 10
1081.499525750012
 20
-99.0
 30
0.0
  0
POINT
  5
A62D
330
8EDF
100
AcDbEntity
  8
DEFPOINTS
 62
     0
100
AcDbPoint
 10
1081.499525750012
 20
-52.79174804690001
 30
0.0
  0
ENDBLK
  5
8EEA
330
8EDF
100
AcDbEntity
  8
0
100
AcDbBlockEnd
  0
BLOCK
  5
8EF5
330
8EEB
100
AcDbEntity
  8
0
100
AcDbBlockBegin
  2
*D3
 70
     1
 10
0.0
 20
0.0
 30
0.0
  3
*D3
  1

  0
LINE
  5
A62E
330
8EEB
100
AcDbEntity
  8
30
 62
     0
100
AcDbLine
 10
1218.499525750009
 20
-160.0
 30
0.0
 11
1273.56104918751
 21
-160.0
 31
0.0
  0
LINE
  5
A62F
330
8EEB
100
AcDbEntity
  8
30
 62
     0
100
AcDbLine
 10
1030.086928093812
 20
-0.0000000000000014
 30
0.0
 11
1273.56104918751
 21
-0.0000000000000704
 31
0.0
  0
LINE
  5
A630
330
8EEB
100
AcDbEntity
  8
30
 62
     0
100
AcDbLine
 10
1273.061049187512
 20
-155.0
 30
0.0
 11
1273.061049187512
 21
-5.00000000000007
 31
0.0
  0
MTEXT
  5
A631
330
8EEB
100
AcDbEntity
  8
30
 62
     0
100
AcDbMText
 10
1265.0
 20
-88.0
 30
0.0
 40
10.0
 41
0.0
 71
     5
 72
     1
  1
\A1;160
 11
0.0000000000000001
 21
1.0
 31
0.0
 73
     1
 44
1.0
  0
INSERT
  5
A632
330
8EEB
100
AcDbEntity
  8
30
 62
     0
100
AcDbBlockReference
  2
_OPEN
 10
1273.061049187512
 20
-160.0
 30
0.0
 41
5.0
 42
5.0
 43
5.0
 50
270.0
  0
INSERT
  5
A633
330
8EEB
100
AcDbEntity
  8
30
 62
     0
100
AcDbBlockReference
  2
_OPEN
 10
1273.061049187512
 20
-0.0000000000000702
 30
0.0
 41
5.0
 42
5.0
 43
5.0
 50
90.0
  0
POINT
  5
A634
330
8EEB
100
AcDbEntity
  8
DEFPOINTS
 62
     0
100
AcDbPoint
 10
1213.499525750009
 20
-160.0
 30
0.0
  0
POINT
  5
A635
330
8EEB
100
AcDbEntity
  8
DEFPOINTS
 62
     0
100
AcDbPoint
 10
1025.086928093812
 20
0.0
 30
0.0
  0
POINT
  5
A636
330
8EEB
100
AcDbEntity
  8
DEFPOINTS
 62
     0
100
AcDbPoint
 10
1273.061049187512
 20
-0.0000000000000702
 30
0.0
  0
ENDBLK
  5
8EF6
330
8EEB
100
AcDbEntity
  8
0
100
AcDbBlockEnd
  0
BLOCK
  5
8F01
330
8EF7
100
AcDbEntity
  8
0
100
AcDbBlockBegin
  2
*D4
 70
     1
 10
0.0
 20
0.0
 30
0.0
  3
*D4
  1

  0
LINE
  5
A637
330
8EF7
100
AcDbEntity
  8
30
 62
     0
100
AcDbLine
 10
733.4992816094122
 20
-315.4112548827999
 30
0.0
 11
733.4992816094122
 21
-390.81762695312
 31
0.0
  0
LINE
  5
A638
330
8EF7
100
AcDbEntity
  8
30
 62
     0
100
AcDbLine
 10
720.4995257500122
 20
-10.09362792969999
 30
0.0
 11
720.4995257500122
 21
-390.81762695312
 31
0.0
  0
LINE
  5
A639
330
8EF7
100
AcDbEntity
  8
30
 62
     0
100
AcDbLine
 10
738.4992816094122
 20
-390.31762695312
 30
0.0
 11
743.4992816094123
 21
-390.31762695312
 31
0.0
  0
LINE
  5
A63A
330
8EF7
100
AcDbEntity
  8
30
 62
     0
100
AcDbLine
 10
715.4995257500122
 20
-390.31762695312
 30
0.0
 11
710.4995257500122
 21
-390.31762695312
 31
0.0
  0
MTEXT
  5
A63B
330
8EF7
100
AcDbEntity
  8
30
 62
     0
100
AcDbMText
 10
704.0
 20
-382.0
 30
0.0
 40
10.0
 41
0.0
 71
     5
 72
     1
  1
\A1;13
 73
     1
 44
1.0
  0
INSERT
  5
A63C
330
8EF7
100
AcDbEntity
  8
30
 62
     0
100
AcDbBlockReference
  2
_OPEN
 10
733.4992816094122
 20
-390.31762695312
 30
0.0
 41
5.0
 42
5.0
 43
5.0
 50
180.0
  0
INSERT
  5
A63D
330
8EF7
100
AcDbEntity
  8
30
 62
     0
100
AcDbBlockReference
  2
_OPEN
 10
720.4995257500122
 20
-390.31762695312
 30
0.0
 41
5.0
 42
5.0
 43
5.0
  0
POINT
  5
A63E
330
8EF7
100
AcDbEntity
  8
DEFPOINTS
 62
     0
100
AcDbPoint
 10
733.4992816094122
 20
-310.4112548828
 30
0.0
  0
POINT
  5
A63F
330
8EF7
100
AcDbEntity
  8
DEFPOINTS
 62
     0
100
AcDbPoint
 10
720.4995257500122
 20
-5.093627929700004
 30
0.0
  0
POINT
  5
A640
330
8EF7
100
AcDbEntity
  8
DEFPOINTS
 62
     0
100
AcDbPoint
 10
720.4995257500122
 20
-390.31762695312
 30
0.0
  0
ENDBLK
  5
8F02
330
8EF7
100
AcDbEntity
  8
0
100
AcDbBlockEnd
  0
BLOCK
  5
8F0D
330
8F03
100
AcDbEntity
  8
0
100
AcDbBlockBegin
  2
*D5
 70
     1
 10
0.0
 20
0.0
 30
0.0
  3
*D5
  1

  0
LINE
  5
A641
330
8F03
100
AcDbEntity
  8
30
 62
     0
100
AcDbLine
 10
1041.499525750012
 20
-315.4112548827999
 30
0.0
 11
1041.499525750012
 21
-440.8176269531201
 31
0.0
  0
LINE
  5
A642
330
8F03
100
AcDbEntity
  8
30
 62
     0
100
AcDbLine
 10
670.4992816094122
 20
-8.093627929700005
 30
0.0
 11
670.4992816094122
 21
-440.8176269531201
 31
0.0
  0
LINE
  5
A643
330
8F03
100
AcDbEntity
  8
30
 62
     0
100
AcDbLine
 10
1036.499525750012
 20
-440.31762695312
 30
0.0
 11
675.4992816094122
 21
-440.31762695312
 31
0.0
  0
MTEXT
  5
A644
330
8F03
100
AcDbEntity
  8
30
 62
     0
100
AcDbMText
 10
855.0
 20
-430.0
 30
0.0
 40
10.0
 41
0.0
 71
     5
 72
     1
  1
\A1;371
 73
     1
 44
1.0
  0
INSERT
  5
A645
330
8F03
100
AcDbEntity
  8
30
 62
     0
100
AcDbBlockReference
  2
_OPEN
 10
1041.499525750012
 20
-440.31762695312
 30
0.0
 41
5.0
 42
5.0
 43
5.0
  0
INSERT
  5
A646
330
8F03
100
AcDbEntity
  8
30
 62
     0
100
AcDbBlockReference
  2
_OPEN
 10
670.4992816094122
 20
-440.31762695312
 30
0.0
 41
5.0
 42
5.0
 43
5.0
 50
180.0
  0
POINT
  5
A647
330
8F03
100
AcDbEntity
  8
DEFPOINTS
 62
     0
100
AcDbPoint
 10
1041.499525750012
 20
-310.4112548828
 30
0.0
  0
POINT
  5
A648
330
8F03
100
AcDbEntity
  8
DEFPOINTS
 62
     0
100
AcDbPoint
 10
670.4992816094122
 20
-3.093627929700005
 30
0.0
  0
POINT
  5
A649
330
8F03
100
AcDbEntity
  8
DEFPOINTS
 62
     0
100
AcDbPoint
 10
670.4992816094122
 20
-440.31762695312
 30
0.0
  0
ENDBLK
  5
8F0E
330
8F03
100
AcDbEntity
  8
0
100
AcDbBlockEnd
  0
BLOCK
  5
8F19
330
8F0F
100
AcDbEntity
  8
0
100
AcDbBlockBegin
  2
*D6
 70
     1
 10
0.0
 20
0.0
 30
0.0
  3
*D6
  1

  0
LINE
  5
A64A
330
8F0F
100
AcDbEntity
  8
30
 62
     0
100
AcDbLine
 10
1041.499525750012
 20
-315.4112548827999
 30
0.0
 11
1041.499525750012
 21
-490.8176269531201
 31
0.0
  0
LINE
  5
A64B
330
8F0F
100
AcDbEntity
  8
30
 62
     0
100
AcDbLine
 10
575.4992816094122
 20
-8.093627929700005
 30
0.0
 11
575.4992816094122
 21
-490.8176269531201
 31
0.0
  0
LINE
  5
A64C
330
8F0F
100
AcDbEntity
  8
30
 62
     0
100
AcDbLine
 10
1036.499525750012
 20
-490.31762695312
 30
0.0
 11
580.4992816094122
 21
-490.31762695312
 31
0.0
  0
MTEXT
  5
A64D
330
8F0F
100
AcDbEntity
  8
30
 62
     0
100
AcDbMText
 10
808.0
 20
-481.0
 30
0.0
 40
10.0
 41
0.0
 71
     5
 72
     1
  1
\A1;466
 73
     1
 44
1.0
  0
INSERT
  5
A64E
330
8F0F
100
AcDbEntity
  8
30
 62
     0
100
AcDbBlockReference
  2
_OPEN
 10
1041.499525750012
 20
-490.31762695312
 30
0.0
 41
5.0
 42
5.0
 43
5.0
  0
INSERT
  5
A64F
330
8F0F
100
AcDbEntity
  8
30
 62
     0
100
AcDbBlockReference
  2
_OPEN
 10
575.4992816094122
 20
-490.31762695312
 30
0.0
 41
5.0
 42
5.0
 43
5.0
 50
180.0
  0
POINT
  5
A650
330
8F0F
100
AcDbEntity
  8
DEFPOINTS
 62
     0
100
AcDbPoint
 10
1041.499525750012
 20
-310.4112548828
 30
0.0
  0
POINT
  5
A651
330
8F0F
100
AcDbEntity
  8
DEFPOINTS
 62
     0
100
AcDbPoint
 10
575.4992816094122
 20
-3.093627929700005
 30
0.0
  0
POINT
  5
A652
330
8F0F
100
AcDbEntity
  8
DEFPOINTS
 62
     0
100
AcDbPoint
 10
575.4992816094122
 20
-490.31762695312
 30
0.0
  0
ENDBLK
  5
8F1A
330
8F0F
100
AcDbEntity
  8
0
100
AcDbBlockEnd
  0
BLOCK
  5
8F25
330
8F1B
100
AcDbEntity
  8
0
100
AcDbBlockBegin
  2
*D7
 70
     1
 10
0.0
 20
0.0
 30
0.0
  3
*D7
  1

  0
LINE
  5
A653
330
8F1B
100
AcDbEntity
  8
30
 62
     0
100
AcDbLine
 10
1041.499525750012
 20
-315.4112548827999
 30
0.0
 11
1041.499525750012
 21
-390.81762695312
 31
0.0
  0
LINE
  5
A654
330
8F1B
100
AcDbEntity
  8
30
 62
     0
100
AcDbLine
 10
733.4992816094122
 20
-315.4112548827999
 30
0.0
 11
733.4992816094122
 21
-390.81762695312
 31
0.0
  0
LINE
  5
A655
330
8F1B
100
AcDbEntity
  8
30
 62
     0
100
AcDbLine
 10
1036.499525750012
 20
-390.31762695312
 30
0.0
 11
738.4992816094122
 21
-390.31762695312
 31
0.0
  0
MTEXT
  5
A656
330
8F1B
100
AcDbEntity
  8
30
 62
     0
100
AcDbMText
 10
892.0
 20
-381.0
 30
0.0
 40
10.0
 41
0.0
 71
     5
 72
     1
  1
\A1;308
 73
     1
 44
1.0
  0
INSERT
  5
A657
330
8F1B
100
AcDbEntity
  8
30
 62
     0
100
AcDbBlockReference
  2
_OPEN
 10
1041.499525750012
 20
-390.31762695312
 30
0.0
 41
5.0
 42
5.0
 43
5.0
  0
INSERT
  5
A658
330
8F1B
100
AcDbEntity
  8
30
 62
     0
100
AcDbBlockReference
  2
_OPEN
 10
733.4992816094122
 20
-390.31762695312
 30
0.0
 41
5.0
 42
5.0
 43
5.0
 50
180.0
  0
POINT
  5
A659
330
8F1B
100
AcDbEntity
  8
DEFPOINTS
 62
     0
100
AcDbPoint
 10
1041.499525750012
 20
-310.4112548828
 30
0.0
  0
POINT
  5
A65A
330
8F1B
100
AcDbEntity
  8
DEFPOINTS
 62
     0
100
AcDbPoint
 10
733.4992816094122
 20
-310.4112548828
 30
0.0
  0
POINT
  5
A65B
330
8F1B
100
AcDbEntity
  8
DEFPOINTS
 62
     0
100
AcDbPoint
 10
733.4992816094122
 20
-390.31762695312
 30
0.0
  0
ENDBLK
  5
8F26
330
8F1B
100
AcDbEntity
  8
0
100
AcDbBlockEnd
  0
BLOCK
  5
8F31
330
8F27
100
AcDbEntity
  8
0
100
AcDbBlockBegin
  2
*D8
 70
     1
 10
0.0
 20
0.0
 30
0.0
  3
*D8
  1

  0
LINE
  5
A65C
330
8F27
100
AcDbEntity
  8
30
 62
     0
100
AcDbLine
 10
1041.499525750012
 20
-315.4112548827999
 30
0.0
 11
1041.499525750012
 21
-390.81762695312
 31
0.0
  0
LINE
  5
A65D
330
8F27
100
AcDbEntity
  8
30
 62
     0
100
AcDbLine
 10
1066.499525750012
 20
-235.0936279297
 30
0.0
 11
1066.499525750012
 21
-390.81762695312
 31
0.0
  0
LINE
  5
A65E
330
8F27
100
AcDbEntity
  8
30
 62
     0
100
AcDbLine
 10
1046.499525750012
 20
-390.31762695312
 30
0.0
 11
1061.499525750012
 21
-390.31762695312
 31
0.0
  0
MTEXT
  5
A65F
330
8F27
100
AcDbEntity
  8
30
 62
     0
100
AcDbMText
 10
1056.0
 20
-380.0
 30
0.0
 40
10.0
 41
0.0
 71
     5
 72
     1
  1
\A1;25
 73
     1
 44
1.0
  0
INSERT
  5
A660
330
8F27
100
AcDbEntity
  8
30
 62
     0
100
AcDbBlockReference
  2
_OPEN
 10
1041.499525750012
 20
-390.31762695312
 30
0.0
 41
5.0
 42
5.0
 43
5.0
 50
180.0
  0
INSERT
  5
A661
330
8F27
100
AcDbEntity
  8
30
 62
     0
100
AcDbBlockReference
  2
_OPEN
 10
1066.499525750012
 20
-390.31762695312
 30
0.0
 41
5.0
 42
5.0
 43
5.0
  0
POINT
  5
A662
330
8F27
100
AcDbEntity
  8
DEFPOINTS
 62
     0
100
AcDbPoint
 10
1041.499525750012
 20
-310.4112548828
 30
0.0
  0
POINT
  5
A663
330
8F27
100
AcDbEntity
  8
DEFPOINTS
 62
     0
100
AcDbPoint
 10
1066.499525750012
 20
-230.0936279297
 30
0.0
  0
POINT
  5
A664
330
8F27
100
AcDbEntity
  8
DEFPOINTS
 62
     0
100
AcDbPoint
 10
1066.499525750012
 20
-390.31762695312
 30
0.0
  0
ENDBLK
  5
8F32
330
8F27
100
AcDbEntity
  8
0
100
AcDbBlockEnd
  0
BLOCK
  5
8F3D
330
8F33
100
AcDbEntity
  8
0
100
AcDbBlockBegin
  2
*D9
 70
     1
 10
0.0
 20
0.0
 30
0.0
  3
*D9
  1

  0
LINE
  5
A665
330
8F33
100
AcDbEntity
  8
30
 62
     0
100
AcDbLine
 10
1134.593031609412
 20
-145.0
 30
0.0
 11
1213.999525750009
 21
-145.0
 31
0.0
  0
LINE
  5
A666
330
8F33
100
AcDbEntity
  8
30
 62
     0
100
AcDbLine
 10
1134.593031609412
 20
-175.0
 30
0.0
 11
1213.999525750009
 21
-175.0
 31
0.0
  0
LINE
  5
A667
330
8F33
100
AcDbEntity
  8
30
 62
     0
100
AcDbLine
 10
1213.499525750009
 20
-150.0
 30
0.0
 11
1213.499525750009
 21
-170.0
 31
0.0
  0
MTEXT
  5
A668
330
8F33
100
AcDbEntity
  8
30
 62
     0
100
AcDbMText
 10
1201.0
 20
-161.0
 30
0.0
 40
10.0
 41
0.0
 71
     5
 72
     1
  1
\A1;30
 11
0.0000000000000001
 21
1.0
 31
0.0
 73
     1
 44
1.0
  0
INSERT
  5
A669
330
8F33
100
AcDbEntity
  8
30
 62
     0
100
AcDbBlockReference
  2
_OPEN
 10
1213.499525750009
 20
-145.0
 30
0.0
 41
5.0
 42
5.0
 43
5.0
 50
90.0
  0
INSERT
  5
A66A
330
8F33
100
AcDbEntity
  8
30
 62
     0
100
AcDbBlockReference
  2
_OPEN
 10
1213.499525750009
 20
-175.0
 30
0.0
 41
5.0
 42
5.0
 43
5.0
 50
270.0
  0
POINT
  5
A66B
330
8F33
100
AcDbEntity
  8
DEFPOINTS
 62
     0
100
AcDbPoint
 10
1129.593031609412
 20
-145.0
 30
0.0
  0
POINT
  5
A66C
330
8F33
100
AcDbEntity
  8
DEFPOINTS
 62
     0
100
AcDbPoint
 10
1129.593031609412
 20
-175.0
 30
0.0
  0
POINT
  5
A66D
330
8F33
100
AcDbEntity
  8
DEFPOINTS
 62
     0
100
AcDbPoint
 10
1213.499525750009
 20
-175.0
 30
0.0
  0
ENDBLK
  5
8F3E
330
8F33
100
AcDbEntity
  8
0
100
AcDbBlockEnd
  0
BLOCK
  5
8F79
330
8F6F
100
AcDbEntity
  8
0
100
AcDbBlockBegin
  2
*D10
 70
     1
 10
0.0
 20
0.0
 30
0.0
  3
*D10
  1

  0
LINE
  5
A66E
330
8F6F
100
AcDbEntity
  8
30
 62
     0
100
AcDbLine
 10
1030.086928093812
 20
-0.0000000000000014
 30
0.0
 11
1273.56104918751
 21
-0.0000000000000704
 31
0.0
  0
LINE
  5
A66F
330
8F6F
100
AcDbEntity
  8
30
 62
     0
100
AcDbLine
 10
1218.499525750011
 20
94.99999999999998
 30
0.0
 11
1273.56104918751
 21
94.99999999999998
 31
0.0
  0
LINE
  5
A670
330
8F6F
100
AcDbEntity
  8
30
 62
     0
100
AcDbLine
 10
1273.061049187512
 20
4.999999999999928
 30
0.0
 11
1273.061049187512
 21
89.99999999999998
 31
0.0
  0
MTEXT
  5
A671
330
8F6F
100
AcDbEntity
  8
30
 62
     0
100
AcDbMText
 10
1264.0
 20
39.0
 30
0.0
 40
10.0
 41
0.0
 71
     5
 72
     1
  1
\A1;95
 11
0.0000000000000001
 21
1.0
 31
0.0
 73
     1
 44
1.0
  0
INSERT
  5
A672
330
8F6F
100
AcDbEntity
  8
30
 62
     0
100
AcDbBlockReference
  2
_OPEN
 10
1273.061049187512
 20
-0.0000000000000702
 30
0.0
 41
5.0
 42
5.0
 43
5.0
 50
270.0
  0
INSERT
  5
A673
330
8F6F
100
AcDbEntity
  8
30
 62
     0
100
AcDbBlockReference
  2
_OPEN
 10
1273.061049187512
 20
94.99999999999998
 30
0.0
 41
5.0
 42
5.0
 43
5.0
 50
90.0
  0
POINT
  5
A674
330
8F6F
100
AcDbEntity
  8
DEFPOINTS
 62
     0
100
AcDbPoint
 10
1025.086928093812
 20
0.0
 30
0.0
  0
POINT
  5
A675
330
8F6F
100
AcDbEntity
  8
DEFPOINTS
 62
     0
100
AcDbPoint
 10
1213.49952575001
 20
94.99999999999998
 30
0.0
  0
POINT
  5
A676
330
8F6F
100
AcDbEntity
  8
DEFPOINTS
 62
     0
100
AcDbPoint
 10
1273.061049187512
 20
94.99999999999998
 30
0.0
  0
ENDBLK
  5
8F7A
330
8F6F
100
AcDbEntity
  8
0
100
AcDbBlockEnd
  0
BLOCK
  5
8F85
330
8F7B
100
AcDbEntity
  8
0
100
AcDbBlockBegin
  2
*D11
 70
     1
 10
0.0
 20
0.0
 30
0.0
  3
*D11
  1

  0
LINE
  5
A677
330
8F7B
100
AcDbEntity
  8
30
 62
     0
100
AcDbLine
 10
1149.593031609412
 20
127.5
 30
0.0
 11
1213.99952575001
 21
127.4999999999999
 31
0.0
  0
LINE
  5
A678
330
8F7B
100
AcDbEntity
  8
30
 62
     0
100
AcDbLine
 10
1149.593031609412
 20
62.5
 30
0.0
 11
1213.99952575001
 21
62.49999999999998
 31
0.0
  0
LINE
  5
A679
330
8F7B
100
AcDbEntity
  8
30
 62
     0
100
AcDbLine
 10
1213.49952575001
 20
122.4999999999998
 30
0.0
 11
1213.49952575001
 21
67.49999999999999
 31
0.0
  0
MTEXT
  5
A67A
330
8F7B
100
AcDbEntity
  8
30
 62
     0
100
AcDbMText
 10
1203.0
 20
95.0
 30
0.0
 40
10.0
 41
0.0
 71
     5
 72
     1
  1
\A1;65
 11
0.0000000000000001
 21
1.0
 31
0.0
 73
     1
 44
1.0
  0
INSERT
  5
A67B
330
8F7B
100
AcDbEntity
  8
30
 62
     0
100
AcDbBlockReference
  2
_OPEN
 10
1213.49952575001
 20
127.4999999999999
 30
0.0
 41
5.0
 42
5.0
 43
5.0
 50
90.0
  0
INSERT
  5
A67C
330
8F7B
100
AcDbEntity
  8
30
 62
     0
100
AcDbBlockReference
  2
_OPEN
 10
1213.49952575001
 20
62.49999999999998
 30
0.0
 41
5.0
 42
5.0
 43
5.0
 50
270.0
  0
POINT
  5
A67D
330
8F7B
100
AcDbEntity
  8
DEFPOINTS
 62
     0
100
AcDbPoint
 10
1144.593031609412
 20
127.5
 30
0.0
  0
POINT
  5
A67E
330
8F7B
100
AcDbEntity
  8
DEFPOINTS
 62
     0
100
AcDbPoint
 10
1144.593031609412
 20
62.5
 30
0.0
  0
POINT
  5
A67F
330
8F7B
100
AcDbEntity
  8
DEFPOINTS
 62
     0
100
AcDbPoint
 10
1213.49952575001
 20
62.49999999999998
 30
0.0
  0
ENDBLK
  5
8F86
330
8F7B
100
AcDbEntity
  8
0
100
AcDbBlockEnd
  0
BLOCK
  5
9121
330
9117
100
AcDbEntity
  8
0
100
AcDbBlockBegin
  2
*D12
 70
     1
 10
0.0
 20
0.0
 30
0.0
  3
*D12
  1

  0
LINE
  5
9CD4
330
9117
100
AcDbEntity
  8
30
  6
Continuous
 62
     0
100
AcDbLine
 10
0.0000000000000571
 20
-638.0
 30
0.0
 11
0.0000000000000653
 21
-504.1025390625
 31
0.0
  0
LINE
  5
9CD5
330
9117
100
AcDbEntity
  8
30
  6
Continuous
 62
     0
100
AcDbLine
 10
279.0
 20
-662.9063720702998
 30
0.0
 11
279.0
 21
-504.1025390625
 31
0.0
  0
LINE
  5
9CD6
330
9117
100
AcDbEntity
  8
30
  6
Continuous
 62
     0
100
AcDbLine
 10
5.000000000000065
 20
-504.6025390625
 30
0.0
 11
274.0
 21
-504.6025390625
 31
0.0
  0
INSERT
  5
9CD7
330
9117
100
AcDbEntity
  8
30
  6
Continuous
 62
     0
100
AcDbBlockReference
  2
_OPEN
 10
0.0000000000000653
 20
-504.6025390625
 30
0.0
 41
5.0
 42
5.0
 43
5.0
 50
180.0
  0
INSERT
  5
9CD8
330
9117
100
AcDbEntity
  8
30
  6
Continuous
 62
     0
100
AcDbBlockReference
  2
_OPEN
 10
279.0
 20
-504.6025390625
 30
0.0
 41
5.0
 42
5.0
 43
5.0
  0
MTEXT
  5
9CD9
330
9117
100
AcDbEntity
  8
30
  6
Continuous
 62
     0
100
AcDbMText
 10
138.2142857142852
 20
-496.6025390625
 30
0.0
 40
10.0
 41
0.0
 71
     5
 72
     5
  1
\A1;279
 73
     1
 44
1.0
1001
ACAD
1000
MTEXTBEGIN
1070
    73
1070
     1
1070
    44
1040
1.0
1070
    74
1070
     0
1000
MTEXTEND
  0
POINT
  5
9CDA
330
9117
100
AcDbEntity
  8
DEFPOINTS
  6
Continuous
 62
     0
100
AcDbPoint
 10
0.0000000000000568
 20
-643.0
 30
0.0
  0
POINT
  5
9CDB
330
9117
100
AcDbEntity
  8
DEFPOINTS
  6
Continuous
 62
     0
100
AcDbPoint
 10
279.0
 20
-667.9063720702998
 30
0.0
  0
POINT
  5
9CDC
330
9117
100
AcDbEntity
  8
DEFPOINTS
  6
Continuous
 62
     0
100
AcDbPoint
 10
279.0
 20
-504.6025390625
 30
0.0
  0
ENDBLK
  5
9122
330
9117
100
AcDbEntity
  8
0
100
AcDbBlockEnd
  0
BLOCK
  5
912D
330
9123
100
AcDbEntity
  8
0
100
AcDbBlockBegin
  2
*D13
 70
     1
 10
0.0
 20
0.0
 30
0.0
  3
*D13
  1

  0
LINE
  5
9CB0
330
9123
100
AcDbEntity
  8
30
  6
Continuous
 62
     0
100
AcDbLine
 10
-170.0002441406
 20
-662.9063720702998
 30
0.0
 11
-170.0002441406
 21
-504.1025390625
 31
0.0
  0
LINE
  5
9CB1
330
9123
100
AcDbEntity
  8
30
  6
Continuous
 62
     0
100
AcDbLine
 10
0.0000000000000003
 20
-622.7109542159317
 30
0.0
 11
0.0000000000000076
 21
-504.1025390625
 31
0.0
  0
LINE
  5
9CB2
330
9123
100
AcDbEntity
  8
30
  6
Continuous
 62
     0
100
AcDbLine
 10
-165.0002441405999
 20
-504.6025390625
 30
0.0
 11
-4.999999999999992
 21
-504.6025390625
 31
0.0
  0
INSERT
  5
9CB3
330
9123
100
AcDbEntity
  8
30
  6
Continuous
 62
     0
100
AcDbBlockReference
  2
_OPEN
 10
-170.0002441406
 20
-504.6025390625
 30
0.0
 41
5.0
 42
5.0
 43
5.0
 50
180.0
  0
INSERT
  5
9CB4
330
9123
100
AcDbEntity
  8
30
  6
Continuous
 62
     0
100
AcDbBlockReference
  2
_OPEN
 10
0.0000000000000075
 20
-504.6025390625
 30
0.0
 41
5.0
 42
5.0
 43
5.0
  0
MTEXT
  5
9CB5
330
9123
100
AcDbEntity
  8
30
  6
Continuous
 62
     0
100
AcDbMText
 10
-92.52775493421042
 20
-496.6025390625
 30
0.0
 40
10.0
 41
0.0
 71
     5
 72
     5
  1
\A1;170
 73
     1
 44
1.0
1001
ACAD
1000
MTEXTBEGIN
1070
    73
1070
     1
1070
    44
1040
1.0
1070
    74
1070
     0
1000
MTEXTEND
  0
POINT
  5
9CB6
330
9123
100
AcDbEntity
  8
DEFPOINTS
  6
Continuous
 62
     0
100
AcDbPoint
 10
-170.0002441406
 20
-667.9063720702998
 30
0.0
  0
POINT
  5
9CB7
330
9123
100
AcDbEntity
  8
DEFPOINTS
  6
Continuous
 62
     0
100
AcDbPoint
 10
0.0
 20
-627.7109542159319
 30
0.0
  0
POINT
  5
9CB8
330
9123
100
AcDbEntity
  8
DEFPOINTS
  6
Continuous
 62
     0
100
AcDbPoint
 10
0.0000000000000075
 20
-504.6025390625
 30
0.0
  0
ENDBLK
  5
912E
330
9123
100
AcDbEntity
  8
0
100
AcDbBlockEnd
  0
BLOCK
  5
9139
330
912F
100
AcDbEntity
  8
0
100
AcDbBlockBegin
  2
*D14
 70
     1
 10
0.0
 20
0.0
 30
0.0
  3
*D14
  1

  0
LINE
  5
A680
330
912F
100
AcDbEntity
  8
30
 62
     0
100
AcDbLine
 10
0.0000000000000003
 20
-1329.993713378909
 30
0.0
 11
0.0000000000000004
 21
-1328.547485351559
 31
0.0
  0
LINE
  5
A681
330
912F
100
AcDbEntity
  8
30
 62
     0
100
AcDbLine
 10
254.0
 20
-1265.09362792969
 30
0.0
 11
254.0
 21
-1329.547485351559
 31
0.0
  0
LINE
  5
A682
330
912F
100
AcDbEntity
  8
30
 62
     0
100
AcDbLine
 10
5.0
 20
-1329.047485351559
 30
0.0
 11
249.0
 21
-1329.047485351559
 31
0.0
  0
MTEXT
  5
A683
330
912F
100
AcDbEntity
  8
30
 62
     0
100
AcDbMText
 10
125.7586206896553
 20
-1312.172485351559
 30
0.0
 40
10.0
 41
0.0
 71
     5
 72
     1
  1
\A1;254
 73
     1
 44
1.0
  0
INSERT
  5
A684
330
912F
100
AcDbEntity
  8
30
 62
     0
100
AcDbBlockReference
  2
_OPEN
 10
0.0000000000000004
 20
-1329.047485351559
 30
0.0
 41
5.0
 42
5.0
 43
5.0
 50
180.0
  0
INSERT
  5
A685
330
912F
100
AcDbEntity
  8
30
 62
     0
100
AcDbBlockReference
  2
_OPEN
 10
254.0
 20
-1329.047485351559
 30
0.0
 41
5.0
 42
5.0
 43
5.0
  0
POINT
  5
A686
330
912F
100
AcDbEntity
  8
DEFPOINTS
 62
     0
100
AcDbPoint
 10
0.0
 20
-1334.99371337891
 30
0.0
  0
POINT
  5
A687
330
912F
100
AcDbEntity
  8
DEFPOINTS
 62
     0
100
AcDbPoint
 10
254.0
 20
-1260.09362792969
 30
0.0
  0
POINT
  5
A688
330
912F
100
AcDbEntity
  8
DEFPOINTS
 62
     0
100
AcDbPoint
 10
254.0
 20
-1329.047485351559
 30
0.0
  0
ENDBLK
  5
913A
330
912F
100
AcDbEntity
  8
0
100
AcDbBlockEnd
  0
BLOCK
  5
9151
330
9147
100
AcDbEntity
  8
0
100
AcDbBlockBegin
  2
*D15
 70
     1
 10
0.0
 20
0.0
 30
0.0
  3
*D15
  1

  0
LINE
  5
A689
330
9147
100
AcDbEntity
  8
30
 62
     0
100
AcDbLine
 10
-145.0002441406
 20
-1262.26013183594
 30
0.0
 11
-145.0002441406
 21
-1329.547485351559
 31
0.0
  0
LINE
  5
A68A
330
9147
100
AcDbEntity
  8
30
 62
     0
100
AcDbLine
 10
-0.0000000000000003
 20
-1142.085283629646
 30
0.0
 11
-0.0000000000000118
 21
-1329.547485351559
 31
0.0
  0
LINE
  5
A68B
330
9147
100
AcDbEntity
  8
30
 62
     0
100
AcDbLine
 10
-140.0002441405999
 20
-1329.047485351559
 30
0.0
 11
-5.000000000000011
 21
-1329.047485351559
 31
0.0
  0
MTEXT
  5
A68C
330
9147
100
AcDbEntity
  8
30
 62
     0
100
AcDbMText
 10
-85.53385844981042
 20
-1312.172485351559
 30
0.0
 40
10.0
 41
0.0
 71
     5
 72
     1
  1
\A1;145
 73
     1
 44
1.0
  0
INSERT
  5
A68D
330
9147
100
AcDbEntity
  8
30
 62
     0
100
AcDbBlockReference
  2
_OPEN
 10
-145.0002441406
 20
-1329.047485351559
 30
0.0
 41
5.0
 42
5.0
 43
5.0
 50
180.0
  0
INSERT
  5
A68E
330
9147
100
AcDbEntity
  8
30
 62
     0
100
AcDbBlockReference
  2
_OPEN
 10
-0.0000000000000118
 20
-1329.047485351559
 30
0.0
 41
5.0
 42
5.0
 43
5.0
  0
POINT
  5
A68F
330
9147
100
AcDbEntity
  8
DEFPOINTS
 62
     0
100
AcDbPoint
 10
-145.0002441406
 20
-1257.260131835939
 30
0.0
  0
POINT
  5
A690
330
9147
100
AcDbEntity
  8
DEFPOINTS
 62
     0
100
AcDbPoint
 10
0.0
 20
-1137.085283629646
 30
0.0
  0
POINT
  5
A691
330
9147
100
AcDbEntity
  8
DEFPOINTS
 62
     0
100
AcDbPoint
 10
-0.0000000000000118
 20
-1329.047485351559
 30
0.0
  0
ENDBLK
  5
9152
330
9147
100
AcDbEntity
  8
0
100
AcDbBlockEnd
  0
BLOCK
  5
91A0
330
9196
100
AcDbEntity
  8
0
100
AcDbBlockBegin
  2
*D16
 70
     1
 10
0.0
 20
0.0
 30
0.0
  3
*D16
  1

  0
LINE
  5
9B26
330
9196
100
AcDbEntity
  8
30
  6
Continuous
 62
     0
100
AcDbLine
 10
-202.4999999999999
 20
-315.0
 30
0.0
 11
-202.4999999999999
 21
-358.4999999999998
 31
0.0
  0
LINE
  5
9B27
330
9196
100
AcDbEntity
  8
30
  6
Continuous
 62
     0
100
AcDbLine
 10
311.5
 20
-315.0
 30
0.0
 11
311.5
 21
-358.4999999999998
 31
0.0
  0
LINE
  5
9B28
330
9196
100
AcDbEntity
  8
30
  6
Continuous
 62
     0
100
AcDbLine
 10
-197.5
 20
-358.0
 30
0.0
 11
306.4999999999999
 21
-358.0
 31
0.0
  0
INSERT
  5
9B29
330
9196
100
AcDbEntity
  8
30
  6
Continuous
 62
     0
100
AcDbBlockReference
  2
_OPEN
 10
-202.4999999999999
 20
-358.0
 30
0.0
 41
5.0
 42
5.0
 43
5.0
 50
180.0
  0
INSERT
  5
9B2A
330
9196
100
AcDbEntity
  8
30
  6
Continuous
 62
     0
100
AcDbBlockReference
  2
_OPEN
 10
311.5
 20
-358.0
 30
0.0
 41
5.0
 42
5.0
 43
5.0
  0
MTEXT
  5
9B2B
330
9196
100
AcDbEntity
  8
30
  6
Continuous
 62
     0
100
AcDbMText
 10
54.5
 20
-350.0
 30
0.0
 40
10.0
 41
0.0
 71
     5
 72
     5
  1
\A1;514(MAX.)
 73
     1
 44
1.0
1001
ACAD
1000
MTEXTBEGIN
1070
    73
1070
     1
1070
    44
1040
1.0
1070
    74
1070
     0
1000
MTEXTEND
  0
POINT
  5
9B2C
330
9196
100
AcDbEntity
  8
DEFPOINTS
  6
Continuous
 62
     0
100
AcDbPoint
 10
-202.4999999999999
 20
-310.0
 30
0.0
  0
POINT
  5
9B2D
330
9196
100
AcDbEntity
  8
DEFPOINTS
  6
Continuous
 62
     0
100
AcDbPoint
 10
311.5
 20
-310.0
 30
0.0
  0
POINT
  5
9B2E
330
9196
100
AcDbEntity
  8
DEFPOINTS
  6
Continuous
 62
     0
100
AcDbPoint
 10
311.5
 20
-358.0
 30
0.0
  0
ENDBLK
  5
91A1
330
9196
100
AcDbEntity
  8
0
100
AcDbBlockEnd
  0
BLOCK
  5
9400
330
93F6
100
AcDbEntity
  8
0
100
AcDbBlockBegin
  2
*D17
 70
     1
 10
0.0
 20
0.0
 30
0.0
  3
*D17
  1

  0
LINE
  5
9B2F
330
93F6
100
AcDbEntity
  8
30
  6
Continuous
 62
     0
100
AcDbLine
 10
-207.5
 20
-310.0
 30
0.0
 11
-266.5
 21
-310.0
 31
0.0
  0
LINE
  5
9B30
330
93F6
100
AcDbEntity
  8
30
  6
Continuous
 62
     0
100
AcDbLine
 10
-209.221691388151
 20
0.0000000000000014
 30
0.0
 11
-266.5
 21
0.0000000000000176
 31
0.0
  0
LINE
  5
9B31
330
93F6
100
AcDbEntity
  8
30
  6
Continuous
 62
     0
100
AcDbLine
 10
-266.0
 20
-305.0
 30
0.0
 11
-266.0
 21
-4.999999999999981
 31
0.0
  0
INSERT
  5
9B32
330
93F6
100
AcDbEntity
  8
30
  6
Continuous
 62
     0
100
AcDbBlockReference
  2
_OPEN
 10
-266.0
 20
-310.0
 30
0.0
 41
5.0
 42
5.0
 43
5.0
 50
270.0
  0
INSERT
  5
9B33
330
93F6
100
AcDbEntity
  8
30
  6
Continuous
 62
     0
100
AcDbBlockReference
  2
_OPEN
 10
-266.0
 20
0.0000000000000175
 30
0.0
 41
5.0
 42
5.0
 43
5.0
 50
90.0
  0
MTEXT
  5
9B34
330
93F6
100
AcDbEntity
  8
30
  6
Continuous
 62
     0
100
AcDbMText
 10
-274.0
 20
-155.0
 30
0.0
 40
10.0
 41
0.0
 71
     5
 72
     5
  1
\A1;310
 11
0.0000000000000001
 21
1.0
 31
0.0
 73
     1
 44
1.0
1001
ACAD
1000
MTEXTBEGIN
1070
    73
1070
     1
1070
    44
1040
1.0
1070
    74
1070
     0
1000
MTEXTEND
  0
POINT
  5
9B35
330
93F6
100
AcDbEntity
  8
DEFPOINTS
  6
Continuous
 62
     0
100
AcDbPoint
 10
-202.4999999999999
 20
-310.0
 30
0.0
  0
POINT
  5
9B36
330
93F6
100
AcDbEntity
  8
DEFPOINTS
  6
Continuous
 62
     0
100
AcDbPoint
 10
-204.2216913881511
 20
0.0
 30
0.0
  0
POINT
  5
9B37
330
93F6
100
AcDbEntity
  8
DEFPOINTS
  6
Continuous
 62
     0
100
AcDbPoint
 10
-266.0
 20
0.0000000000000175
 30
0.0
  0
ENDBLK
  5
9401
330
93F6
100
AcDbEntity
  8
0
100
AcDbBlockEnd
  0
BLOCK
  5
940D
330
9403
100
AcDbEntity
  8
0
100
AcDbBlockBegin
  2
*D18
 70
     1
 10
0.0
 20
0.0
 30
0.0
  3
*D18
  1

  0
LINE
  5
9B38
330
9403
100
AcDbEntity
  8
30
  6
Continuous
 62
     0
100
AcDbLine
 10
-177.2996826172
 20
314.0
 30
0.0
 11
-266.9999999999999
 21
314.0
 31
0.0
  0
LINE
  5
9B39
330
9403
100
AcDbEntity
  8
30
  6
Continuous
 62
     0
100
AcDbLine
 10
-214.2216913881511
 20
0.0000000000000028
 30
0.0
 11
-267.0
 21
0.0000000000000178
 31
0.0
  0
LINE
  5
9B3A
330
9403
100
AcDbEntity
  8
30
  6
Continuous
 62
     0
100
AcDbLine
 10
-266.4999999999999
 20
309.0
 30
0.0
 11
-266.5
 21
5.000000000000016
 31
0.0
  0
INSERT
  5
9B3B
330
9403
100
AcDbEntity
  8
30
  6
Continuous
 62
     0
100
AcDbBlockReference
  2
_OPEN
 10
-266.4999999999999
 20
314.0
 30
0.0
 41
5.0
 42
5.0
 43
5.0
 50
90.0
  0
INSERT
  5
9B3C
330
9403
100
AcDbEntity
  8
30
  6
Continuous
 62
     0
100
AcDbBlockReference
  2
_OPEN
 10
-266.5
 20
0.0000000000000176
 30
0.0
 41
5.0
 42
5.0
 43
5.0
 50
270.0
  0
MTEXT
  5
9B3D
330
9403
100
AcDbEntity
  8
30
  6
Continuous
 62
     0
100
AcDbMText
 10
-274.5
 20
156.9999999999999
 30
0.0
 40
10.0
 41
0.0
 71
     5
 72
     5
  1
\A1;314
 11
0.0000000000000001
 21
1.0
 31
0.0
 73
     1
 44
1.0
1001
ACAD
1000
MTEXTBEGIN
1070
    73
1070
     1
1070
    44
1040
1.0
1070
    74
1070
     0
1000
MTEXTEND
  0
POINT
  5
9B3E
330
9403
100
AcDbEntity
  8
DEFPOINTS
  6
Continuous
 62
     0
100
AcDbPoint
 10
-172.2996826172
 20
314.0
 30
0.0
  0
POINT
  5
9B3F
330
9403
100
AcDbEntity
  8
DEFPOINTS
  6
Continuous
 62
     0
100
AcDbPoint
 10
-209.221691388151
 20
0.0000000000000014
 30
0.0
  0
POINT
  5
9B40
330
9403
100
AcDbEntity
  8
DEFPOINTS
  6
Continuous
 62
     0
100
AcDbPoint
 10
-266.5
 20
0.0000000000000176
 30
0.0
  0
ENDBLK
  5
940E
330
9403
100
AcDbEntity
  8
0
100
AcDbBlockEnd
  0
BLOCK
  5
9423
330
9419
100
AcDbEntity
  8
0
100
AcDbBlockBegin
  2
*D19
 70
     1
 10
0.0
 20
0.0
 30
0.0
  3
*D19
  1

  0
LINE
  5
9B41
330
9419
100
AcDbEntity
  8
30
  6
Continuous
 62
     0
100
AcDbLine
 10
-131.4999999999999
 20
348.0
 30
0.0
 11
-266.9999999999999
 21
348.0
 31
0.0
  0
LINE
  5
9B42
330
9419
100
AcDbEntity
  8
30
  6
Continuous
 62
     0
100
AcDbLine
 10
-182.2996826171998
 20
314.0
 30
0.0
 11
-266.9999999999999
 21
314.0
 31
0.0
  0
LINE
  5
9B43
330
9419
100
AcDbEntity
  8
30
  6
Continuous
 62
     0
100
AcDbLine
 10
-266.4999999999999
 20
343.0
 30
0.0
 11
-266.4999999999999
 21
319.0
 31
0.0
  0
INSERT
  5
9B44
330
9419
100
AcDbEntity
  8
30
  6
Continuous
 62
     0
100
AcDbBlockReference
  2
_OPEN
 10
-266.4999999999999
 20
348.0
 30
0.0
 41
5.0
 42
5.0
 43
5.0
 50
90.0
  0
INSERT
  5
9B45
330
9419
100
AcDbEntity
  8
30
  6
Continuous
 62
     0
100
AcDbBlockReference
  2
_OPEN
 10
-266.4999999999999
 20
314.0
 30
0.0
 41
5.0
 42
5.0
 43
5.0
 50
270.0
  0
MTEXT
  5
9B46
330
9419
100
AcDbEntity
  8
30
  6
Continuous
 62
     0
100
AcDbMText
 10
-274.5
 20
331.0
 30
0.0
 40
10.0
 41
0.0
 71
     5
 72
     5
  1
\A1;34
 11
0.0000000000000001
 21
1.0
 31
0.0
 73
     1
 44
1.0
1001
ACAD
1000
MTEXTBEGIN
1070
    73
1070
     1
1070
    44
1040
1.0
1070
    74
1070
     0
1000
MTEXTEND
  0
POINT
  5
9B47
330
9419
100
AcDbEntity
  8
DEFPOINTS
  6
Continuous
 62
     0
100
AcDbPoint
 10
-126.5
 20
348.0
 30
0.0
  0
POINT
  5
9B48
330
9419
100
AcDbEntity
  8
DEFPOINTS
  6
Continuous
 62
     0
100
AcDbPoint
 10
-177.2996826172
 20
314.0
 30
0.0
  0
POINT
  5
9B49
330
9419
100
AcDbEntity
  8
DEFPOINTS
  6
Continuous
 62
     0
100
AcDbPoint
 10
-266.4999999999999
 20
314.0
 30
0.0
  0
ENDBLK
  5
9424
330
9419
100
AcDbEntity
  8
0
100
AcDbBlockEnd
  0
BLOCK
  5
94EF
330
94E5
100
AcDbEntity
  8
0
100
AcDbBlockBegin
  2
*D20
 70
     1
 10
0.0
 20
0.0
 30
0.0
  3
*D20
  1

  0
LINE
  5
9B4A
330
94E5
100
AcDbEntity
  8
30
  6
Continuous
 62
     0
100
AcDbLine
 10
-105.0
 20
1052.359026501384
 30
0.0
 11
-105.0
 21
1079.5
 31
0.0
  0
LINE
  5
9B4B
330
94E5
100
AcDbEntity
  8
30
  6
Continuous
 62
     0
100
AcDbLine
 10
0.0000000000000003
 20
1052.359026501384
 30
0.0
 11
0.000000000000002
 21
1079.5
 31
0.0
  0
LINE
  5
9B4C
330
94E5
100
AcDbEntity
  8
30
  6
Continuous
 62
     0
100
AcDbLine
 10
-100.0
 20
1079.0
 30
0.0
 11
-4.999999999999998
 21
1079.0
 31
0.0
  0
INSERT
  5
9B4D
330
94E5
100
AcDbEntity
  8
30
  6
Continuous
 62
     0
100
AcDbBlockReference
  2
_OPEN
 10
-105.0
 20
1079.0
 30
0.0
 41
5.0
 42
5.0
 43
5.0
 50
180.0
  0
INSERT
  5
9B4E
330
94E5
100
AcDbEntity
  8
30
  6
Continuous
 62
     0
100
AcDbBlockReference
  2
_OPEN
 10
0.0000000000000019
 20
1079.0
 30
0.0
 41
5.0
 42
5.0
 43
5.0
  0
MTEXT
  5
9B4F
330
94E5
100
AcDbEntity
  8
30
  6
Continuous
 62
     0
100
AcDbMText
 10
-52.5
 20
1087.0
 30
0.0
 40
10.0
 41
0.0
 71
     5
 72
     5
  1
\A1;105
 73
     1
 44
1.0
1001
ACAD
1000
MTEXTBEGIN
1070
    73
1070
     1
1070
    44
1040
1.0
1070
    74
1070
     0
1000
MTEXTEND
  0
POINT
  5
9B50
330
94E5
100
AcDbEntity
  8
DEFPOINTS
  6
Continuous
 62
     0
100
AcDbPoint
 10
-105.0
 20
1047.359026501385
 30
0.0
  0
POINT
  5
9B51
330
94E5
100
AcDbEntity
  8
DEFPOINTS
  6
Continuous
 62
     0
100
AcDbPoint
 10
0.0
 20
1047.359026501385
 30
0.0
  0
POINT
  5
9B52
330
94E5
100
AcDbEntity
  8
DEFPOINTS
  6
Continuous
 62
     0
100
AcDbPoint
 10
0.0000000000000019
 20
1079.0
 30
0.0
  0
ENDBLK
  5
94F0
330
94E5
100
AcDbEntity
  8
0
100
AcDbBlockEnd
  0
BLOCK
  5
94FC
330
94F2
100
AcDbEntity
  8
0
100
AcDbBlockBegin
  2
*D21
 70
     1
 10
0.0
 20
0.0
 30
0.0
  3
*D21
  1

  0
LINE
  5
9B5C
330
94F2
100
AcDbEntity
  8
30
  6
Continuous
 62
     0
100
AcDbLine
 10
0.0000000000000003
 20
1052.359026501384
 30
0.0
 11
0.000000000000002
 21
1079.5
 31
0.0
  0
LINE
  5
9B5D
330
94F2
100
AcDbEntity
  8
30
  6
Continuous
 62
     0
100
AcDbLine
 10
105.0
 20
1052.359026501384
 30
0.0
 11
105.0
 21
1079.5
 31
0.0
  0
LINE
  5
9B5E
330
94F2
100
AcDbEntity
  8
30
  6
Continuous
 62
     0
100
AcDbLine
 10
5.0
 20
1079.0
 30
0.0
 11
100.0
 21
1079.0
 31
0.0
  0
INSERT
  5
9B5F
330
94F2
100
AcDbEntity
  8
30
  6
Continuous
 62
     0
100
AcDbBlockReference
  2
_OPEN
 10
0.0000000000000019
 20
1079.0
 30
0.0
 41
5.0
 42
5.0
 43
5.0
 50
180.0
  0
INSERT
  5
9B60
330
94F2
100
AcDbEntity
  8
30
  6
Continuous
 62
     0
100
AcDbBlockReference
  2
_OPEN
 10
105.0
 20
1079.0
 30
0.0
 41
5.0
 42
5.0
 43
5.0
  0
MTEXT
  5
9B61
330
94F2
100
AcDbEntity
  8
30
  6
Continuous
 62
     0
100
AcDbMText
 10
52.5
 20
1087.0
 30
0.0
 40
10.0
 41
0.0
 71
     5
 72
     5
  1
\A1;105
 73
     1
 44
1.0
1001
ACAD
1000
MTEXTBEGIN
1070
    73
1070
     1
1070
    44
1040
1.0
1070
    74
1070
     0
1000
MTEXTEND
  0
POINT
  5
9B62
330
94F2
100
AcDbEntity
  8
DEFPOINTS
  6
Continuous
 62
     0
100
AcDbPoint
 10
0.0
 20
1047.359026501385
 30
0.0
  0
POINT
  5
9B63
330
94F2
100
AcDbEntity
  8
DEFPOINTS
  6
Continuous
 62
     0
100
AcDbPoint
 10
105.0
 20
1047.359026501385
 30
0.0
  0
POINT
  5
9B64
330
94F2
100
AcDbEntity
  8
DEFPOINTS
  6
Continuous
 62
     0
100
AcDbPoint
 10
105.0
 20
1079.0
 30
0.0
  0
ENDBLK
  5
94FD
330
94F2
100
AcDbEntity
  8
0
100
AcDbBlockEnd
  0
BLOCK
  5
9509
330
94FF
100
AcDbEntity
  8
0
100
AcDbBlockBegin
  2
*D22
 70
     1
 10
0.0
 20
0.0
 30
0.0
  3
*D22
  1

  0
LINE
  5
9B53
330
94FF
100
AcDbEntity
  8
30
  6
Continuous
 62
     0
100
AcDbLine
 10
105.0
 20
1052.359026501384
 30
0.0
 11
105.0
 21
1079.5
 31
0.0
  0
LINE
  5
9B54
330
94FF
100
AcDbEntity
  8
30
  6
Continuous
 62
     0
100
AcDbLine
 10
215.0
 20
1052.359026501384
 30
0.0
 11
215.0
 21
1079.5
 31
0.0
  0
LINE
  5
9B55
330
94FF
100
AcDbEntity
  8
30
  6
Continuous
 62
     0
100
AcDbLine
 10
110.0
 20
1079.0
 30
0.0
 11
210.0
 21
1079.0
 31
0.0
  0
INSERT
  5
9B56
330
94FF
100
AcDbEntity
  8
30
  6
Continuous
 62
     0
100
AcDbBlockReference
  2
_OPEN
 10
105.0
 20
1079.0
 30
0.0
 41
5.0
 42
5.0
 43
5.0
 50
180.0
  0
INSERT
  5
9B57
330
94FF
100
AcDbEntity
  8
30
  6
Continuous
 62
     0
100
AcDbBlockReference
  2
_OPEN
 10
215.0
 20
1079.0
 30
0.0
 41
5.0
 42
5.0
 43
5.0
  0
MTEXT
  5
9B58
330
94FF
100
AcDbEntity
  8
30
  6
Continuous
 62
     0
100
AcDbMText
 10
160.0
 20
1087.0
 30
0.0
 40
10.0
 41
0.0
 71
     5
 72
     5
  1
\A1;110
 73
     1
 44
1.0
1001
ACAD
1000
MTEXTBEGIN
1070
    73
1070
     1
1070
    44
1040
1.0
1070
    74
1070
     0
1000
MTEXTEND
  0
POINT
  5
9B59
330
94FF
100
AcDbEntity
  8
DEFPOINTS
  6
Continuous
 62
     0
100
AcDbPoint
 10
105.0
 20
1047.359026501385
 30
0.0
  0
POINT
  5
9B5A
330
94FF
100
AcDbEntity
  8
DEFPOINTS
  6
Continuous
 62
     0
100
AcDbPoint
 10
215.0
 20
1047.359026501385
 30
0.0
  0
POINT
  5
9B5B
330
94FF
100
AcDbEntity
  8
DEFPOINTS
  6
Continuous
 62
     0
100
AcDbPoint
 10
215.0
 20
1079.0
 30
0.0
  0
ENDBLK
  5
950A
330
94FF
100
AcDbEntity
  8
0
100
AcDbBlockEnd
  0
BLOCK
  5
9516
330
950C
100
AcDbEntity
  8
0
100
AcDbBlockBegin
  2
*D23
 70
     1
 10
0.0
 20
0.0
 30
0.0
  3
*D23
  1

  0
LINE
  5
9B65
330
950C
100
AcDbEntity
  8
30
  6
Continuous
 62
     0
100
AcDbLine
 10
-161.5
 20
935.3590265013856
 30
0.0
 11
-215.5
 21
935.3590265013856
 31
0.0
  0
LINE
  5
9B66
330
950C
100
AcDbEntity
  8
30
  6
Continuous
 62
     0
100
AcDbLine
 10
-161.5
 20
960.3590265013856
 30
0.0
 11
-215.4999999999999
 21
960.3590265013856
 31
0.0
  0
LINE
  5
9B67
330
950C
100
AcDbEntity
  8
30
  6
Continuous
 62
     0
100
AcDbLine
 10
-215.0
 20
940.3590265013857
 30
0.0
 11
-215.0
 21
955.3590265013855
 31
0.0
  0
INSERT
  5
9B68
330
950C
100
AcDbEntity
  8
30
  6
Continuous
 62
     0
100
AcDbBlockReference
  2
_OPEN
 10
-215.0
 20
935.3590265013856
 30
0.0
 41
5.0
 42
5.0
 43
5.0
 50
270.0
  0
INSERT
  5
9B69
330
950C
100
AcDbEntity
  8
30
  6
Continuous
 62
     0
100
AcDbBlockReference
  2
_OPEN
 10
-214.9999999999999
 20
960.3590265013856
 30
0.0
 41
5.0
 42
5.0
 43
5.0
 50
90.0
  0
MTEXT
  5
9B6A
330
950C
100
AcDbEntity
  8
30
  6
Continuous
 62
     0
100
AcDbMText
 10
-223.0
 20
947.8590265013856
 30
0.0
 40
10.0
 41
0.0
 71
     5
 72
     5
  1
\A1;25
 11
0.0000000000000001
 21
1.0
 31
0.0
 73
     1
 44
1.0
1001
ACAD
1000
MTEXTBEGIN
1070
    73
1070
     1
1070
    44
1040
1.0
1070
    74
1070
     0
1000
MTEXTEND
  0
POINT
  5
9B6B
330
950C
100
AcDbEntity
  8
DEFPOINTS
  6
Continuous
 62
     0
100
AcDbPoint
 10
-156.4999999999999
 20
935.3590265013856
 30
0.0
  0
POINT
  5
9B6C
330
950C
100
AcDbEntity
  8
DEFPOINTS
  6
Continuous
 62
     0
100
AcDbPoint
 10
-156.4999999999999
 20
960.3590265013856
 30
0.0
  0
POINT
  5
9B6D
330
950C
100
AcDbEntity
  8
DEFPOINTS
  6
Continuous
 62
     0
100
AcDbPoint
 10
-214.9999999999999
 20
960.3590265013856
 30
0.0
  0
ENDBLK
  5
9517
330
950C
100
AcDbEntity
  8
0
100
AcDbBlockEnd
  0
BLOCK
  5
9549
330
953D
100
AcDbEntity
  8
0
100
AcDbBlockBegin
  2
*D24
 70
     1
 10
0.0
 20
0.0
 30
0.0
  3
*D24
  1

  0
LINE
  5
9B8A
330
953D
100
AcDbEntity
  8
30
  6
Continuous
 62
     0
100
AcDbLine
 10
-161.5
 20
960.3590265013856
 30
0.0
 11
-215.833333333333
 21
960.3590265013856
 31
0.0
  0
LINE
  5
9B8B
330
953D
100
AcDbEntity
  8
30
  6
Continuous
 62
     0
100
AcDbLine
 10
-135.0
 20
982.3590265013857
 30
0.0
 11
-215.833333333333
 21
982.3590265013857
 31
0.0
  0
LINE
  5
9B8C
330
953D
100
AcDbEntity
  8
30
  6
Continuous
 62
     0
100
AcDbLine
 10
-215.3333333333331
 20
965.3590265013857
 30
0.0
 11
-215.3333333333331
 21
977.3590265013856
 31
0.0
  0
INSERT
  5
9B8D
330
953D
100
AcDbEntity
  8
30
  6
Continuous
 62
     0
100
AcDbBlockReference
  2
_OPEN
 10
-215.3333333333331
 20
960.3590265013856
 30
0.0
 41
5.0
 42
5.0
 43
5.0
 50
270.0
  0
INSERT
  5
9B8E
330
953D
100
AcDbEntity
  8
30
  6
Continuous
 62
     0
100
AcDbBlockReference
  2
_OPEN
 10
-215.3333333333331
 20
982.3590265013857
 30
0.0
 41
5.0
 42
5.0
 43
5.0
 50
90.0
  0
MTEXT
  5
9B8F
330
953D
100
AcDbEntity
  8
30
  6
Continuous
 62
     0
100
AcDbMText
 10
-223.3333333333333
 20
973.3590265013857
 30
0.0
 40
10.0
 41
0.0
 71
     5
 72
     5
  1
\A1;22
 11
0.0000000000000001
 21
1.0
 31
0.0
 73
     1
 44
1.0
1001
ACAD
1000
MTEXTBEGIN
1070
    73
1070
     1
1070
    44
1040
1.0
1070
    74
1070
     0
1000
MTEXTEND
  0
POINT
  5
9B90
330
953D
100
AcDbEntity
  8
DEFPOINTS
  6
Continuous
 62
     0
100
AcDbPoint
 10
-156.4999999999999
 20
960.3590265013856
 30
0.0
  0
POINT
  5
9B91
330
953D
100
AcDbEntity
  8
DEFPOINTS
  6
Continuous
 62
     0
100
AcDbPoint
 10
-130.0
 20
982.3590265013857
 30
0.0
  0
POINT
  5
9B92
330
953D
100
AcDbEntity
  8
DEFPOINTS
  6
Continuous
 62
     0
100
AcDbPoint
 10
-215.3333333333331
 20
982.3590265013857
 30
0.0
  0
ENDBLK
  5
954A
330
953D
100
AcDbEntity
  8
0
100
AcDbBlockEnd
  0
BLOCK
  5
956A
330
955E
100
AcDbEntity
  8
0
100
AcDbBlockBegin
  2
*D25
 70
     1
 10
0.0
 20
0.0
 30
0.0
  3
*D25
  1

  0
LINE
  5
9B78
330
955E
100
AcDbEntity
  8
30
  6
Continuous
 62
     0
100
AcDbLine
 10
-135.0
 20
982.3590265013857
 30
0.0
 11
-215.8333333333328
 21
982.3590265013857
 31
0.0
  0
LINE
  5
9B79
330
955E
100
AcDbEntity
  8
30
  6
Continuous
 62
     0
100
AcDbLine
 10
-135.0
 20
1002.359026501385
 30
0.0
 11
-215.8333333333328
 21
1002.359026501385
 31
0.0
  0
LINE
  5
9B7A
330
955E
100
AcDbEntity
  8
30
  6
Continuous
 62
     0
100
AcDbLine
 10
-215.3333333333328
 20
987.3590265013856
 30
0.0
 11
-215.3333333333328
 21
997.3590265013855
 31
0.0
  0
INSERT
  5
9B7B
330
955E
100
AcDbEntity
  8
30
  6
Continuous
 62
     0
100
AcDbBlockReference
  2
_OPEN
 10
-215.3333333333328
 20
982.3590265013857
 30
0.0
 41
5.0
 42
5.0
 43
5.0
 50
270.0
  0
INSERT
  5
9B7C
330
955E
100
AcDbEntity
  8
30
  6
Continuous
 62
     0
100
AcDbBlockReference
  2
_OPEN
 10
-215.3333333333328
 20
1002.359026501385
 30
0.0
 41
5.0
 42
5.0
 43
5.0
 50
90.0
  0
MTEXT
  5
9B7D
330
955E
100
AcDbEntity
  8
30
  6
Continuous
 62
     0
100
AcDbMText
 10
-223.333333333333
 20
992.3590265013856
 30
0.0
 40
10.0
 41
0.0
 71
     5
 72
     5
  1
\A1;20
 11
0.0000000000000001
 21
1.0
 31
0.0
 73
     1
 44
1.0
1001
ACAD
1000
MTEXTBEGIN
1070
    73
1070
     1
1070
    44
1040
1.0
1070
    74
1070
     0
1000
MTEXTEND
  0
POINT
  5
9B7E
330
955E
100
AcDbEntity
  8
DEFPOINTS
  6
Continuous
 62
     0
100
AcDbPoint
 10
-130.0
 20
982.3590265013857
 30
0.0
  0
POINT
  5
9B7F
330
955E
100
AcDbEntity
  8
DEFPOINTS
  6
Continuous
 62
     0
100
AcDbPoint
 10
-130.0
 20
1002.359026501385
 30
0.0
  0
POINT
  5
9B80
330
955E
100
AcDbEntity
  8
DEFPOINTS
  6
Continuous
 62
     0
100
AcDbPoint
 10
-215.3333333333328
 20
1002.359026501385
 30
0.0
  0
ENDBLK
  5
956B
330
955E
100
AcDbEntity
  8
0
100
AcDbBlockEnd
  0
BLOCK
  5
9577
330
956D
100
AcDbEntity
  8
0
100
AcDbBlockBegin
  2
*D26
 70
     1
 10
0.0
 20
0.0
 30
0.0
  3
*D26
  1

  0
LINE
  5
9B81
330
956D
100
AcDbEntity
  8
30
  6
Continuous
 62
     0
100
AcDbLine
 10
-135.0
 20
1002.359026501385
 30
0.0
 11
-215.833333333333
 21
1002.359026501385
 31
0.0
  0
LINE
  5
9B82
330
956D
100
AcDbEntity
  8
30
  6
Continuous
 62
     0
100
AcDbLine
 10
-135.0
 20
1032.359026501385
 30
0.0
 11
-215.833333333333
 21
1032.359026501385
 31
0.0
  0
LINE
  5
9B83
330
956D
100
AcDbEntity
  8
30
  6
Continuous
 62
     0
100
AcDbLine
 10
-215.3333333333331
 20
1007.359026501384
 30
0.0
 11
-215.3333333333331
 21
1027.359026501384
 31
0.0
  0
INSERT
  5
9B84
330
956D
100
AcDbEntity
  8
30
  6
Continuous
 62
     0
100
AcDbBlockReference
  2
_OPEN
 10
-215.3333333333331
 20
1002.359026501385
 30
0.0
 41
5.0
 42
5.0
 43
5.0
 50
270.0
  0
INSERT
  5
9B85
330
956D
100
AcDbEntity
  8
30
  6
Continuous
 62
     0
100
AcDbBlockReference
  2
_OPEN
 10
-215.3333333333331
 20
1032.359026501385
 30
0.0
 41
5.0
 42
5.0
 43
5.0
 50
90.0
  0
MTEXT
  5
9B86
330
956D
100
AcDbEntity
  8
30
  6
Continuous
 62
     0
100
AcDbMText
 10
-223.3333333333333
 20
1017.359026501385
 30
0.0
 40
10.0
 41
0.0
 71
     5
 72
     5
  1
\A1;30
 11
0.0000000000000001
 21
1.0
 31
0.0
 73
     1
 44
1.0
1001
ACAD
1000
MTEXTBEGIN
1070
    73
1070
     1
1070
    44
1040
1.0
1070
    74
1070
     0
1000
MTEXTEND
  0
POINT
  5
9B87
330
956D
100
AcDbEntity
  8
DEFPOINTS
  6
Continuous
 62
     0
100
AcDbPoint
 10
-130.0
 20
1002.359026501385
 30
0.0
  0
POINT
  5
9B88
330
956D
100
AcDbEntity
  8
DEFPOINTS
  6
Continuous
 62
     0
100
AcDbPoint
 10
-130.0
 20
1032.359026501385
 30
0.0
  0
POINT
  5
9B89
330
956D
100
AcDbEntity
  8
DEFPOINTS
  6
Continuous
 62
     0
100
AcDbPoint
 10
-215.3333333333331
 20
1032.359026501385
 30
0.0
  0
ENDBLK
  5
9578
330
956D
100
AcDbEntity
  8
0
100
AcDbBlockEnd
  0
BLOCK
  5
9586
330
957A
100
AcDbEntity
  8
0
100
AcDbBlockBegin
  2
*D27
 70
     1
 10
0.0
 20
0.0
 30
0.0
  3
*D27
  1

  0
LINE
  5
9B6E
330
957A
100
AcDbEntity
  8
30
  6
Continuous
 62
     0
100
AcDbLine
 10
-135.0
 20
1032.359026501385
 30
0.0
 11
-215.8333333333328
 21
1032.359026501385
 31
0.0
  0
LINE
  5
9B6F
330
957A
100
AcDbEntity
  8
30
  6
Continuous
 62
     0
100
AcDbLine
 10
-120.0
 20
1047.359026501385
 30
0.0
 11
-215.8333333333328
 21
1047.359026501385
 31
0.0
  0
LINE
  5
9B70
330
957A
100
AcDbEntity
  8
30
  6
Continuous
 62
     0
100
AcDbLine
 10
-215.3333333333328
 20
1027.359026501384
 30
0.0
 11
-215.3333333333328
 21
1022.359026501385
 31
0.0
  0
LINE
  5
9B71
330
957A
100
AcDbEntity
  8
30
  6
Continuous
 62
     0
100
AcDbLine
 10
-215.3333333333328
 20
1052.359026501384
 30
0.0
 11
-215.3333333333328
 21
1057.359026501385
 31
0.0
  0
INSERT
  5
9B72
330
957A
100
AcDbEntity
  8
30
  6
Continuous
 62
     0
100
AcDbBlockReference
  2
_OPEN
 10
-215.3333333333328
 20
1032.359026501385
 30
0.0
 41
5.0
 42
5.0
 43
5.0
 50
90.0
  0
INSERT
  5
9B73
330
957A
100
AcDbEntity
  8
30
  6
Continuous
 62
     0
100
AcDbBlockReference
  2
_OPEN
 10
-215.3333333333328
 20
1047.359026501385
 30
0.0
 41
5.0
 42
5.0
 43
5.0
 50
270.0
  0
MTEXT
  5
9B74
330
957A
100
AcDbEntity
  8
30
  6
Continuous
 62
     0
100
AcDbMText
 10
-223.333333333333
 20
1039.859026501384
 30
0.0
 40
10.0
 41
0.0
 71
     5
 72
     5
  1
\A1;15
 11
0.0000000000000001
 21
1.0
 31
0.0
 73
     1
 44
1.0
1001
ACAD
1000
MTEXTBEGIN
1070
    73
1070
     1
1070
    44
1040
1.0
1070
    74
1070
     0
1000
MTEXTEND
  0
POINT
  5
9B75
330
957A
100
AcDbEntity
  8
DEFPOINTS
  6
Continuous
 62
     0
100
AcDbPoint
 10
-130.0
 20
1032.359026501385
 30
0.0
  0
POINT
  5
9B76
330
957A
100
AcDbEntity
  8
DEFPOINTS
  6
Continuous
 62
     0
100
AcDbPoint
 10
-115.0
 20
1047.359026501385
 30
0.0
  0
POINT
  5
9B77
330
957A
100
AcDbEntity
  8
DEFPOINTS
  6
Continuous
 62
     0
100
AcDbPoint
 10
-215.3333333333328
 20
1047.359026501385
 30
0.0
  0
ENDBLK
  5
9587
330
957A
100
AcDbEntity
  8
0
100
AcDbBlockEnd
  0
BLOCK
  5
9C25
330
9C1D
100
AcDbEntity
  8
0
100
AcDbBlockBegin
  2
*D28
 70
     1
 10
0.0
 20
0.0
 30
0.0
  3
*D28
  1

  0
LINE
  5
9C1E
330
9C1D
100
AcDbEntity
  8
30
  6
Continuous
 62
     0
100
AcDbLine
 10
1164.702353742296
 20
163.682600814789
 30
0.0
 11
1143.105273003405
 21
119.435946811945
 31
0.0
  0
MTEXT
  5
9C1F
330
9C1D
100
AcDbEntity
  8
30
  6
Continuous
 62
     0
100
AcDbMText
 10
1151.810707190898
 20
155.5091407644903
 30
0.0
 40
10.0
 41
0.0
 71
     5
 72
     5
  1
\A1;\U+220511
 11
0.4386425955613042
 21
0.8986616011376263
 31
0.0
 73
     1
 44
1.0
1001
ACAD
1000
MTEXTBEGIN
1070
    73
1070
     1
1070
    44
1040
1.0
1070
    74
1070
     0
1000
MTEXTEND
  0
INSERT
  5
9C20
330
9C1D
100
AcDbEntity
  8
30
  6
Continuous
 62
     0
100
AcDbBlockReference
  2
_OPEN
 10
1140.912060025599
 20
114.9426388062567
 30
0.0
 41
5.0
 42
5.0
 43
5.0
 50
243.9826945728463
  0
LINE
  5
9C21
330
9C1D
100
AcDbEntity
  8
30
  6
Continuous
 62
     0
100
AcDbLine
 10
1138.409525750012
 20
109.9999999999998
 30
0.0
 11
1138.589525750012
 21
109.9999999999998
 31
0.0
  0
LINE
  5
9C22
330
9C1D
100
AcDbEntity
  8
30
  6
Continuous
 62
     0
100
AcDbLine
 10
1138.499525750012
 20
109.9099999999999
 30
0.0
 11
1138.499525750012
 21
110.0899999999999
 31
0.0
  0
POINT
  5
9C23
330
9C1D
100
AcDbEntity
  8
DEFPOINTS
  6
Continuous
 62
     0
100
AcDbPoint
 10
1140.912060025599
 20
114.9426388062567
 30
0.0
  0
POINT
  5
9C24
330
9C1D
100
AcDbEntity
  8
DEFPOINTS
  6
Continuous
 62
     0
100
AcDbPoint
 10
1136.086991474425
 20
105.057361193743
 30
0.0
  0
ENDBLK
  5
9C26
330
9C1D
100
AcDbEntity
  8
0
100
AcDbBlockEnd
  0
BLOCK
  5
9C42
330
9C3A
100
AcDbEntity
  8
0
100
AcDbBlockBegin
  2
*D29
 70
     1
 10
0.0
 20
0.0
 30
0.0
  3
*D29
  1

  0
LINE
  5
9C3B
330
9C3A
100
AcDbEntity
  8
30
  6
Continuous
 62
     0
100
AcDbLine
 10
980.0714911625622
 20
-152.3834722052183
 30
0.0
 11
1073.446779699951
 21
-103.2383109037617
 31
0.0
  0
MTEXT
  5
9C3C
330
9C3A
100
AcDbEntity
  8
30
  6
Continuous
 62
     0
100
AcDbMText
 10
992.2740123532353
 20
-136.9206627389158
 30
0.0
 40
10.0
 41
0.0
 71
     5
 72
     5
  1
\A1;\U+22058.2
 11
0.8849171576354017
 21
0.4657484558455155
 31
0.0
 73
     1
 44
1.0
1001
ACAD
1000
MTEXTBEGIN
1070
    73
1070
     1
1070
    44
1040
1.0
1070
    74
1070
     0
1000
MTEXTEND
  0
INSERT
  5
9C3D
330
9C3A
100
AcDbEntity
  8
30
  6
Continuous
 62
     0
100
AcDbBlockReference
  2
_OPEN
 10
1077.871365488128
 20
-100.9095686245341
 30
0.0
 41
5.0
 42
5.0
 43
5.0
 50
27.75867158510743
  0
LINE
  5
9C3E
330
9C3A
100
AcDbEntity
  8
30
  6
Continuous
 62
     0
100
AcDbLine
 10
1081.409525750012
 20
-99.00000000000005
 30
0.0
 11
1081.589525750012
 21
-99.0
 31
0.0
  0
LINE
  5
9C3F
330
9C3A
100
AcDbEntity
  8
30
  6
Continuous
 62
     0
100
AcDbLine
 10
1081.499525750012
 20
-99.09000000000004
 30
0.0
 11
1081.499525750012
 21
-98.91000000000014
 31
0.0
  0
POINT
  5
9C40
330
9C3A
100
AcDbEntity
  8
DEFPOINTS
  6
Continuous
 62
     0
100
AcDbPoint
 10
1077.871365488128
 20
-100.9095686245341
 30
0.0
  0
POINT
  5
9C41
330
9C3A
100
AcDbEntity
  8
DEFPOINTS
  6
Continuous
 62
     0
100
AcDbPoint
 10
1085.127686011895
 20
-97.09043137546586
 30
0.0
  0
ENDBLK
  5
9C43
330
9C3A
100
AcDbEntity
  8
0
100
AcDbBlockEnd
  0
BLOCK
  5
9D8D
330
9D83
100
AcDbEntity
  8
0
100
AcDbBlockBegin
  2
*D30
 70
     1
 10
0.0
 20
0.0
 30
0.0
  3
*D30
  1

  0
LINE
  5
A692
330
9D83
100
AcDbEntity
  8
30
 62
     0
100
AcDbLine
 10
1037.593031609411
 20
-900.0
 30
0.0
 11
1174.5
 21
-900.0
 31
0.0
  0
LINE
  5
A693
330
9D83
100
AcDbEntity
  8
30
 62
     0
100
AcDbLine
 10
1045.405531609411
 20
-1180.0
 30
0.0
 11
1174.5
 21
-1180.0
 31
0.0
  0
LINE
  5
A694
330
9D83
100
AcDbEntity
  8
30
 62
     0
100
AcDbLine
 10
1174.0
 20
-905.0
 30
0.0
 11
1174.0
 21
-1175.0
 31
0.0
  0
MTEXT
  5
A695
330
9D83
100
AcDbEntity
  8
30
 62
     0
100
AcDbMText
 10
1162.0
 20
-1023.0
 30
0.0
 40
10.0
 41
0.0
 71
     5
 72
     1
  1
\A1;280
 11
0.0000000000000001
 21
1.0
 31
0.0
 73
     1
 44
1.0
  0
INSERT
  5
A696
330
9D83
100
AcDbEntity
  8
30
 62
     0
100
AcDbBlockReference
  2
_OPEN
 10
1174.0
 20
-900.0
 30
0.0
 41
5.0
 42
5.0
 43
5.0
 50
90.0
  0
INSERT
  5
A697
330
9D83
100
AcDbEntity
  8
30
 62
     0
100
AcDbBlockReference
  2
_OPEN
 10
1174.0
 20
-1180.0
 30
0.0
 41
5.0
 42
5.0
 43
5.0
 50
270.0
  0
POINT
  5
A698
330
9D83
100
AcDbEntity
  8
DEFPOINTS
 62
     0
100
AcDbPoint
 10
1032.593031609412
 20
-900.0
 30
0.0
  0
POINT
  5
A699
330
9D83
100
AcDbEntity
  8
DEFPOINTS
 62
     0
100
AcDbPoint
 10
1040.405531609412
 20
-1180.0
 30
0.0
  0
POINT
  5
A69A
330
9D83
100
AcDbEntity
  8
DEFPOINTS
 62
     0
100
AcDbPoint
 10
1174.0
 20
-1180.0
 30
0.0
  0
ENDBLK
  5
9D8E
330
9D83
100
AcDbEntity
  8
0
100
AcDbBlockEnd
  0
BLOCK
  5
9D99
330
9D8F
100
AcDbEntity
  8
0
100
AcDbBlockBegin
  2
*D31
 70
     1
 10
0.0
 20
0.0
 30
0.0
  3
*D31
  1

  0
LINE
  5
A69B
330
9D8F
100
AcDbEntity
  8
30
 62
     0
100
AcDbLine
 10
773.4992816094123
 20
-1196.0
 30
0.0
 11
773.4992816094123
 21
-1295.5
 31
0.0
  0
LINE
  5
A69C
330
9D8F
100
AcDbEntity
  8
30
 62
     0
100
AcDbLine
 10
1041.499281609411
 20
-1215.093627929698
 30
0.0
 11
1041.499281609411
 21
-1295.5
 31
0.0
  0
LINE
  5
A69D
330
9D8F
100
AcDbEntity
  8
30
 62
     0
100
AcDbLine
 10
778.4992816094122
 20
-1295.0
 30
0.0
 11
1036.499281609412
 21
-1295.0
 31
0.0
  0
MTEXT
  5
A69E
330
9D8F
100
AcDbEntity
  8
30
 62
     0
100
AcDbMText
 10
909.0
 20
-1286.0
 30
0.0
 40
10.0
 41
0.0
 71
     5
 72
     1
  1
\A1;268
 73
     1
 44
1.0
  0
INSERT
  5
A69F
330
9D8F
100
AcDbEntity
  8
30
 62
     0
100
AcDbBlockReference
  2
_OPEN
 10
773.4992816094123
 20
-1295.0
 30
0.0
 41
5.0
 42
5.0
 43
5.0
 50
180.0
  0
INSERT
  5
A6A0
330
9D8F
100
AcDbEntity
  8
30
 62
     0
100
AcDbBlockReference
  2
_OPEN
 10
1041.499281609411
 20
-1295.0
 30
0.0
 41
5.0
 42
5.0
 43
5.0
  0
POINT
  5
A6A1
330
9D8F
100
AcDbEntity
  8
DEFPOINTS
 62
     0
100
AcDbPoint
 10
773.4992816094123
 20
-1191.0
 30
0.0
  0
POINT
  5
A6A2
330
9D8F
100
AcDbEntity
  8
DEFPOINTS
 62
     0
100
AcDbPoint
 10
1041.499281609411
 20
-1210.0936279297
 30
0.0
  0
POINT
  5
A6A3
330
9D8F
100
AcDbEntity
  8
DEFPOINTS
 62
     0
100
AcDbPoint
 10
1041.499281609411
 20
-1295.0
 30
0.0
  0
ENDBLK
  5
9D9A
330
9D8F
100
AcDbEntity
  8
0
100
AcDbBlockEnd
  0
BLOCK
  5
9DA5
330
9D9B
100
AcDbEntity
  8
0
100
AcDbBlockBegin
  2
*D32
 70
     1
 10
0.0
 20
0.0
 30
0.0
  3
*D32
  1

  0
LINE
  5
A6A4
330
9D9B
100
AcDbEntity
  8
30
 62
     0
100
AcDbLine
 10
1012.593031609412
 20
-1180.0
 30
0.0
 11
1145.149672234412
 21
-1180.0
 31
0.0
  0
LINE
  5
A6A5
330
9D9B
100
AcDbEntity
  8
30
 62
     0
100
AcDbLine
 10
1043.593031609412
 20
-1160.0
 30
0.0
 11
1145.149672234412
 21
-1160.0
 31
0.0
  0
LINE
  5
A6A6
330
9D9B
100
AcDbEntity
  8
30
 62
     0
100
AcDbLine
 10
1144.649672234412
 20
-1175.0
 30
0.0
 11
1144.649672234412
 21
-1165.0
 31
0.0
  0
MTEXT
  5
A6A7
330
9D9B
100
AcDbEntity
  8
30
 62
     0
100
AcDbMText
 10
1134.0
 20
-1171.0
 30
0.0
 40
10.0
 41
0.0
 71
     5
 72
     1
  1
\A1;20
 11
0.0000000000000001
 21
1.0
 31
0.0
 73
     1
 44
1.0
  0
INSERT
  5
A6A8
330
9D9B
100
AcDbEntity
  8
30
 62
     0
100
AcDbBlockReference
  2
_OPEN
 10
1144.649672234412
 20
-1180.0
 30
0.0
 41
5.0
 42
5.0
 43
5.0
 50
270.0
  0
INSERT
  5
A6A9
330
9D9B
100
AcDbEntity
  8
30
 62
     0
100
AcDbBlockReference
  2
_OPEN
 10
1144.649672234412
 20
-1160.0
 30
0.0
 41
5.0
 42
5.0
 43
5.0
 50
90.0
  0
POINT
  5
A6AA
330
9D9B
100
AcDbEntity
  8
DEFPOINTS
 62
     0
100
AcDbPoint
 10
1007.593031609411
 20
-1180.0
 30
0.0
  0
POINT
  5
A6AB
330
9D9B
100
AcDbEntity
  8
DEFPOINTS
 62
     0
100
AcDbPoint
 10
1038.593031609412
 20
-1160.0
 30
0.0
  0
POINT
  5
A6AC
330
9D9B
100
AcDbEntity
  8
DEFPOINTS
 62
     0
100
AcDbPoint
 10
1144.649672234412
 20
-1160.0
 30
0.0
  0
ENDBLK
  5
9DA6
330
9D9B
100
AcDbEntity
  8
0
100
AcDbBlockEnd
  0
BLOCK
  5
9DB1
330
9DA7
100
AcDbEntity
  8
0
100
AcDbBlockBegin
  2
*D33
 70
     1
 10
0.0
 20
0.0
 30
0.0
  3
*D33
  1

  0
LINE
  5
A6AD
330
9DA7
100
AcDbEntity
  8
30
 62
     0
100
AcDbLine
 10
1043.593031609412
 20
-687.9995117186999
 30
0.0
 11
1145.149672234414
 21
-687.9995117186999
 31
0.0
  0
LINE
  5
A6AE
330
9DA7
100
AcDbEntity
  8
30
 62
     0
100
AcDbLine
 10
1052.499281609412
 20
-667.9995117186998
 30
0.0
 11
1145.149672234414
 21
-667.9995117186998
 31
0.0
  0
LINE
  5
A6AF
330
9DA7
100
AcDbEntity
  8
30
 62
     0
100
AcDbLine
 10
1144.649672234415
 20
-682.9995117186999
 30
0.0
 11
1144.649672234415
 21
-672.9995117187
 31
0.0
  0
MTEXT
  5
A6B0
330
9DA7
100
AcDbEntity
  8
30
 62
     0
100
AcDbMText
 10
1135.0
 20
-679.0
 30
0.0
 40
10.0
 41
0.0
 71
     5
 72
     1
  1
\A1;20
 11
0.0000000000000001
 21
1.0
 31
0.0
 73
     1
 44
1.0
  0
INSERT
  5
A6B1
330
9DA7
100
AcDbEntity
  8
30
 62
     0
100
AcDbBlockReference
  2
_OPEN
 10
1144.649672234415
 20
-687.9995117186999
 30
0.0
 41
5.0
 42
5.0
 43
5.0
 50
270.0
  0
INSERT
  5
A6B2
330
9DA7
100
AcDbEntity
  8
30
 62
     0
100
AcDbBlockReference
  2
_OPEN
 10
1144.649672234415
 20
-667.9995117186998
 30
0.0
 41
5.0
 42
5.0
 43
5.0
 50
90.0
  0
POINT
  5
A6B3
330
9DA7
100
AcDbEntity
  8
DEFPOINTS
 62
     0
100
AcDbPoint
 10
1038.593031609412
 20
-687.9995117186999
 30
0.0
  0
POINT
  5
A6B4
330
9DA7
100
AcDbEntity
  8
DEFPOINTS
 62
     0
100
AcDbPoint
 10
1047.499281609412
 20
-667.9995117186998
 30
0.0
  0
POINT
  5
A6B5
330
9DA7
100
AcDbEntity
  8
DEFPOINTS
 62
     0
100
AcDbPoint
 10
1144.649672234415
 20
-667.9995117186998
 30
0.0
  0
ENDBLK
  5
9DB2
330
9DA7
100
AcDbEntity
  8
0
100
AcDbBlockEnd
  0
BLOCK
  5
9DBD
330
9DB3
100
AcDbEntity
  8
0
100
AcDbBlockBegin
  2
*D34
 70
     1
 10
0.0
 20
0.0
 30
0.0
  3
*D34
  1

  0
LINE
  5
A6B6
330
9DB3
100
AcDbEntity
  8
30
 62
     0
100
AcDbLine
 10
1037.593031609411
 20
-900.0
 30
0.0
 11
1174.5
 21
-900.0
 31
0.0
  0
LINE
  5
A6B7
330
9DB3
100
AcDbEntity
  8
30
 62
     0
100
AcDbLine
 10
1045.405531609411
 20
-667.9995117186998
 30
0.0
 11
1174.5
 21
-667.9995117186998
 31
0.0
  0
LINE
  5
A6B8
330
9DB3
100
AcDbEntity
  8
30
 62
     0
100
AcDbLine
 10
1174.0
 20
-895.0
 30
0.0
 11
1174.0
 21
-672.9995117187
 31
0.0
  0
MTEXT
  5
A6B9
330
9DB3
100
AcDbEntity
  8
30
 62
     0
100
AcDbMText
 10
1162.0
 20
-784.0
 30
0.0
 40
10.0
 41
0.0
 71
     5
 72
     1
  1
\A1;232
 11
0.0000000000000001
 21
1.0
 31
0.0
 73
     1
 44
1.0
  0
INSERT
  5
A6BA
330
9DB3
100
AcDbEntity
  8
30
 62
     0
100
AcDbBlockReference
  2
_OPEN
 10
1174.0
 20
-900.0
 30
0.0
 41
5.0
 42
5.0
 43
5.0
 50
270.0
  0
INSERT
  5
A6BB
330
9DB3
100
AcDbEntity
  8
30
 62
     0
100
AcDbBlockReference
  2
_OPEN
 10
1174.0
 20
-667.9995117186998
 30
0.0
 41
5.0
 42
5.0
 43
5.0
 50
90.0
  0
POINT
  5
A6BC
330
9DB3
100
AcDbEntity
  8
DEFPOINTS
 62
     0
100
AcDbPoint
 10
1032.593031609412
 20
-900.0
 30
0.0
  0
POINT
  5
A6BD
330
9DB3
100
AcDbEntity
  8
DEFPOINTS
 62
     0
100
AcDbPoint
 10
1040.405531609412
 20
-667.9995117186998
 30
0.0
  0
POINT
  5
A6BE
330
9DB3
100
AcDbEntity
  8
DEFPOINTS
 62
     0
100
AcDbPoint
 10
1174.0
 20
-667.9995117186998
 30
0.0
  0
ENDBLK
  5
9DBE
330
9DB3
100
AcDbEntity
  8
0
100
AcDbBlockEnd
  0
BLOCK
  5
9F42
330
9F38
100
AcDbEntity
  8
0
100
AcDbBlockBegin
  2
*D35
 70
     1
 10
0.0
 20
0.0
 30
0.0
  3
*D35
  1

  0
LINE
  5
9F71
330
9F38
100
AcDbEntity
  8
30
  6
Continuous
 62
     0
100
AcDbLine
 10
-145.0
 20
655.3590265013856
 30
0.0
 11
-145.0
 21
441.5
 31
0.0
  0
LINE
  5
9F72
330
9F38
100
AcDbEntity
  8
30
  6
Continuous
 62
     0
100
AcDbLine
 10
-0.0000000000000003
 20
464.3590265013706
 30
0.0
 11
-0.0000000000000017
 21
441.5
 31
0.0
  0
LINE
  5
9F73
330
9F38
100
AcDbEntity
  8
30
  6
Continuous
 62
     0
100
AcDbLine
 10
-140.0
 20
442.0
 30
0.0
 11
-5.0
 21
442.0
 31
0.0
  0
INSERT
  5
9F74
330
9F38
100
AcDbEntity
  8
30
  6
Continuous
 62
     0
100
AcDbBlockReference
  2
_OPEN
 10
-145.0
 20
442.0
 30
0.0
 41
5.0
 42
5.0
 43
5.0
 50
180.0
  0
INSERT
  5
9F75
330
9F38
100
AcDbEntity
  8
30
  6
Continuous
 62
     0
100
AcDbBlockReference
  2
_OPEN
 10
-0.0000000000000017
 20
442.0
 30
0.0
 41
5.0
 42
5.0
 43
5.0
  0
MTEXT
  5
9F76
330
9F38
100
AcDbEntity
  8
30
  6
Continuous
 62
     0
100
AcDbMText
 10
-72.5
 20
450.0
 30
0.0
 40
10.0
 41
0.0
 71
     5
 72
     5
  1
\A1;145
 73
     1
 44
1.0
1001
ACAD
1000
MTEXTBEGIN
1070
    73
1070
     1
1070
    44
1040
1.0
1070
    74
1070
     0
1000
MTEXTEND
  0
POINT
  5
9F77
330
9F38
100
AcDbEntity
  8
DEFPOINTS
  6
Continuous
 62
     0
100
AcDbPoint
 10
-145.0
 20
660.3590265013856
 30
0.0
  0
POINT
  5
9F78
330
9F38
100
AcDbEntity
  8
DEFPOINTS
  6
Continuous
 62
     0
100
AcDbPoint
 10
0.0
 20
469.3590265013707
 30
0.0
  0
POINT
  5
9F79
330
9F38
100
AcDbEntity
  8
DEFPOINTS
  6
Continuous
 62
     0
100
AcDbPoint
 10
-0.0000000000000017
 20
442.0
 30
0.0
  0
ENDBLK
  5
9F43
330
9F38
100
AcDbEntity
  8
0
100
AcDbBlockEnd
  0
BLOCK
  5
9F66
330
9F5C
100
AcDbEntity
  8
0
100
AcDbBlockBegin
  2
*D36
 70
     1
 10
0.0
 20
0.0
 30
0.0
  3
*D36
  1

  0
LINE
  5
9F68
330
9F5C
100
AcDbEntity
  8
30
  6
Continuous
 62
     0
100
AcDbLine
 10
-0.0000000000000005
 20
464.3590265013706
 30
0.0
 11
-0.000000000000002
 21
441.0
 31
0.0
  0
LINE
  5
9F69
330
9F5C
100
AcDbEntity
  8
30
  6
Continuous
 62
     0
100
AcDbLine
 10
254.0
 20
642.8700128294856
 30
0.0
 11
254.0
 21
441.0
 31
0.0
  0
LINE
  5
9F6A
330
9F5C
100
AcDbEntity
  8
30
  6
Continuous
 62
     0
100
AcDbLine
 10
4.999999999999998
 20
441.5
 30
0.0
 11
249.0
 21
441.5
 31
0.0
  0
INSERT
  5
9F6B
330
9F5C
100
AcDbEntity
  8
30
  6
Continuous
 62
     0
100
AcDbBlockReference
  2
_OPEN
 10
-0.0000000000000019
 20
441.5
 30
0.0
 41
5.0
 42
5.0
 43
5.0
 50
180.0
  0
INSERT
  5
9F6C
330
9F5C
100
AcDbEntity
  8
30
  6
Continuous
 62
     0
100
AcDbBlockReference
  2
_OPEN
 10
254.0
 20
441.5
 30
0.0
 41
5.0
 42
5.0
 43
5.0
  0
MTEXT
  5
9F6D
330
9F5C
100
AcDbEntity
  8
30
  6
Continuous
 62
     0
100
AcDbMText
 10
127.0
 20
449.5
 30
0.0
 40
10.0
 41
0.0
 71
     5
 72
     5
  1
\A1;254
 73
     1
 44
1.0
1001
ACAD
1000
MTEXTBEGIN
1070
    73
1070
     1
1070
    44
1040
1.0
1070
    74
1070
     0
1000
MTEXTEND
  0
POINT
  5
9F6E
330
9F5C
100
AcDbEntity
  8
DEFPOINTS
  6
Continuous
 62
     0
100
AcDbPoint
 10
-0.0000000000000002
 20
469.3590265013707
 30
0.0
  0
POINT
  5
9F6F
330
9F5C
100
AcDbEntity
  8
DEFPOINTS
  6
Continuous
 62
     0
100
AcDbPoint
 10
254.0
 20
647.8700128294856
 30
0.0
  0
POINT
  5
9F70
330
9F5C
100
AcDbEntity
  8
DEFPOINTS
  6
Continuous
 62
     0
100
AcDbPoint
 10
254.0
 20
441.5
 30
0.0
  0
ENDBLK
  5
9F67
330
9F5C
100
AcDbEntity
  8
0
100
AcDbBlockEnd
  0
BLOCK
  5
9FC4
330
9FBA
100
AcDbEntity
  8
0
100
AcDbBlockBegin
  2
*D37
 70
     1
 10
0.0
 20
0.0
 30
0.0
  3
*D37
  1

  0
LINE
  5
9FEA
330
9FBA
100
AcDbEntity
  8
30
  6
Continuous
 62
     0
100
AcDbLine
 10
1041.499525750012
 20
447.0
 30
0.0
 11
1041.499525750012
 21
480.4999999999998
 31
0.0
  0
LINE
  5
9FEB
330
9FBA
100
AcDbEntity
  8
30
  6
Continuous
 62
     0
100
AcDbLine
 10
480.4995257500122
 20
261.6823730469
 30
0.0
 11
480.4995257500122
 21
480.4999999999998
 31
0.0
  0
LINE
  5
9FEC
330
9FBA
100
AcDbEntity
  8
30
  6
Continuous
 62
     0
100
AcDbLine
 10
1036.499525750012
 20
480.0
 30
0.0
 11
485.4995257500122
 21
480.0
 31
0.0
  0
INSERT
  5
9FED
330
9FBA
100
AcDbEntity
  8
30
  6
Continuous
 62
     0
100
AcDbBlockReference
  2
_OPEN
 10
1041.499525750012
 20
480.0
 30
0.0
 41
5.0
 42
5.0
 43
5.0
  0
INSERT
  5
9FEE
330
9FBA
100
AcDbEntity
  8
30
  6
Continuous
 62
     0
100
AcDbBlockReference
  2
_OPEN
 10
480.4995257500122
 20
480.0
 30
0.0
 41
5.0
 42
5.0
 43
5.0
 50
180.0
  0
MTEXT
  5
9FEF
330
9FBA
100
AcDbEntity
  8
30
  6
Continuous
 62
     0
100
AcDbMText
 10
760.9995257500123
 20
488.0
 30
0.0
 40
10.0
 41
0.0
 71
     5
 72
     5
  1
\A1;561
 73
     1
 44
1.0
1001
ACAD
1000
MTEXTBEGIN
1070
    73
1070
     1
1070
    44
1040
1.0
1070
    74
1070
     0
1000
MTEXTEND
  0
POINT
  5
9FF0
330
9FBA
100
AcDbEntity
  8
DEFPOINTS
  6
Continuous
 62
     0
100
AcDbPoint
 10
1041.499525750012
 20
442.0
 30
0.0
  0
POINT
  5
9FF1
330
9FBA
100
AcDbEntity
  8
DEFPOINTS
  6
Continuous
 62
     0
100
AcDbPoint
 10
480.4995257500122
 20
256.6823730469
 30
0.0
  0
POINT
  5
9FF2
330
9FBA
100
AcDbEntity
  8
DEFPOINTS
  6
Continuous
 62
     0
100
AcDbPoint
 10
480.4995257500122
 20
480.0
 30
0.0
  0
ENDBLK
  5
9FC5
330
9FBA
100
AcDbEntity
  8
0
100
AcDbBlockEnd
  0
BLOCK
  5
9FD0
330
9FC6
100
AcDbEntity
  8
0
100
AcDbBlockBegin
  2
*D38
 70
     1
 10
0.0
 20
0.0
 30
0.0
  3
*D38
  1

  0
LINE
  5
9FF3
330
9FC6
100
AcDbEntity
  8
30
  6
Continuous
 62
     0
100
AcDbLine
 10
1041.499525750012
 20
397.0
 30
0.0
 11
1041.499525750012
 21
442.4999999999998
 31
0.0
  0
LINE
  5
9FF4
330
9FC6
100
AcDbEntity
  8
30
  6
Continuous
 62
     0
100
AcDbLine
 10
670.4992816094122
 20
261.0827636719
 30
0.0
 11
670.4992816094122
 21
442.4999999999998
 31
0.0
  0
LINE
  5
9FF5
330
9FC6
100
AcDbEntity
  8
30
  6
Continuous
 62
     0
100
AcDbLine
 10
1036.499525750012
 20
442.0
 30
0.0
 11
675.4992816094122
 21
442.0
 31
0.0
  0
INSERT
  5
9FF6
330
9FC6
100
AcDbEntity
  8
30
  6
Continuous
 62
     0
100
AcDbBlockReference
  2
_OPEN
 10
1041.499525750012
 20
442.0
 30
0.0
 41
5.0
 42
5.0
 43
5.0
  0
INSERT
  5
9FF7
330
9FC6
100
AcDbEntity
  8
30
  6
Continuous
 62
     0
100
AcDbBlockReference
  2
_OPEN
 10
670.4992816094122
 20
442.0
 30
0.0
 41
5.0
 42
5.0
 43
5.0
 50
180.0
  0
MTEXT
  5
9FF8
330
9FC6
100
AcDbEntity
  8
30
  6
Continuous
 62
     0
100
AcDbMText
 10
855.9994036797123
 20
450.0
 30
0.0
 40
10.0
 41
0.0
 71
     5
 72
     5
  1
\A1;371
 73
     1
 44
1.0
1001
ACAD
1000
MTEXTBEGIN
1070
    73
1070
     1
1070
    44
1040
1.0
1070
    74
1070
     0
1000
MTEXTEND
  0
POINT
  5
9FF9
330
9FC6
100
AcDbEntity
  8
DEFPOINTS
  6
Continuous
 62
     0
100
AcDbPoint
 10
1041.499525750012
 20
392.0
 30
0.0
  0
POINT
  5
9FFA
330
9FC6
100
AcDbEntity
  8
DEFPOINTS
  6
Continuous
 62
     0
100
AcDbPoint
 10
670.4992816094122
 20
256.0827636719
 30
0.0
  0
POINT
  5
9FFB
330
9FC6
100
AcDbEntity
  8
DEFPOINTS
  6
Continuous
 62
     0
100
AcDbPoint
 10
670.4992816094122
 20
442.0
 30
0.0
  0
ENDBLK
  5
9FD1
330
9FC6
100
AcDbEntity
  8
0
100
AcDbBlockEnd
  0
BLOCK
  5
9FDC
330
9FD2
100
AcDbEntity
  8
0
100
AcDbBlockBegin
  2
*D39
 70
     1
 10
0.0
 20
0.0
 30
0.0
  3
*D39
  1

  0
LINE
  5
9FFC
330
9FD2
100
AcDbEntity
  8
30
  6
Continuous
 62
     0
100
AcDbLine
 10
1041.499525750012
 20
350.0
 30
0.0
 11
1041.499525750012
 21
392.5
 31
0.0
  0
LINE
  5
9FFD
330
9FD2
100
AcDbEntity
  8
30
  6
Continuous
 62
     0
100
AcDbLine
 10
700.4992816094122
 20
261.0827636719
 30
0.0
 11
700.4992816094122
 21
392.5
 31
0.0
  0
LINE
  5
9FFE
330
9FD2
100
AcDbEntity
  8
30
  6
Continuous
 62
     0
100
AcDbLine
 10
1036.499525750012
 20
392.0
 30
0.0
 11
705.4992816094122
 21
392.0
 31
0.0
  0
INSERT
  5
9FFF
330
9FD2
100
AcDbEntity
  8
30
  6
Continuous
 62
     0
100
AcDbBlockReference
  2
_OPEN
 10
1041.499525750012
 20
392.0
 30
0.0
 41
5.0
 42
5.0
 43
5.0
  0
INSERT
  5
A000
330
9FD2
100
AcDbEntity
  8
30
  6
Continuous
 62
     0
100
AcDbBlockReference
  2
_OPEN
 10
700.4992816094122
 20
392.0
 30
0.0
 41
5.0
 42
5.0
 43
5.0
 50
180.0
  0
MTEXT
  5
A001
330
9FD2
100
AcDbEntity
  8
30
  6
Continuous
 62
     0
100
AcDbMText
 10
870.9994036797123
 20
400.0
 30
0.0
 40
10.0
 41
0.0
 71
     5
 72
     5
  1
\A1;341
 73
     1
 44
1.0
1001
ACAD
1000
MTEXTBEGIN
1070
    73
1070
     1
1070
    44
1040
1.0
1070
    74
1070
     0
1000
MTEXTEND
  0
POINT
  5
A002
330
9FD2
100
AcDbEntity
  8
DEFPOINTS
  6
Continuous
 62
     0
100
AcDbPoint
 10
1041.499525750012
 20
345.0
 30
0.0
  0
POINT
  5
A003
330
9FD2
100
AcDbEntity
  8
DEFPOINTS
  6
Continuous
 62
     0
100
AcDbPoint
 10
700.4992816094122
 20
256.0827636719
 30
0.0
  0
POINT
  5
A004
330
9FD2
100
AcDbEntity
  8
DEFPOINTS
  6
Continuous
 62
     0
100
AcDbPoint
 10
700.4992816094122
 20
392.0
 30
0.0
  0
ENDBLK
  5
9FDD
330
9FD2
100
AcDbEntity
  8
0
100
AcDbBlockEnd
  0
BLOCK
  5
9FE8
330
9FDE
100
AcDbEntity
  8
0
100
AcDbBlockBegin
  2
*D40
 70
     1
 10
0.0
 20
0.0
 30
0.0
  3
*D40
  1

  0
LINE
  5
A005
330
9FDE
100
AcDbEntity
  8
30
  6
Continuous
 62
     0
100
AcDbLine
 10
1041.499525750012
 20
261.6823730469
 30
0.0
 11
1041.499525750012
 21
345.5
 31
0.0
  0
LINE
  5
A006
330
9FDE
100
AcDbEntity
  8
30
  6
Continuous
 62
     0
100
AcDbLine
 10
730.4995257500122
 20
261.6823730469
 30
0.0
 11
730.4995257500122
 21
345.5
 31
0.0
  0
LINE
  5
A007
330
9FDE
100
AcDbEntity
  8
30
  6
Continuous
 62
     0
100
AcDbLine
 10
1036.499525750012
 20
345.0
 30
0.0
 11
735.4995257500122
 21
345.0
 31
0.0
  0
INSERT
  5
A008
330
9FDE
100
AcDbEntity
  8
30
  6
Continuous
 62
     0
100
AcDbBlockReference
  2
_OPEN
 10
1041.499525750012
 20
345.0
 30
0.0
 41
5.0
 42
5.0
 43
5.0
  0
INSERT
  5
A009
330
9FDE
100
AcDbEntity
  8
30
  6
Continuous
 62
     0
100
AcDbBlockReference
  2
_OPEN
 10
730.4995257500122
 20
345.0
 30
0.0
 41
5.0
 42
5.0
 43
5.0
 50
180.0
  0
MTEXT
  5
A00A
330
9FDE
100
AcDbEntity
  8
30
  6
Continuous
 62
     0
100
AcDbMText
 10
885.9995257500122
 20
353.0
 30
0.0
 40
10.0
 41
0.0
 71
     5
 72
     5
  1
\A1;311
 73
     1
 44
1.0
1001
ACAD
1000
MTEXTBEGIN
1070
    73
1070
     1
1070
    44
1040
1.0
1070
    74
1070
     0
1000
MTEXTEND
  0
POINT
  5
A00B
330
9FDE
100
AcDbEntity
  8
DEFPOINTS
  6
Continuous
 62
     0
100
AcDbPoint
 10
1041.499525750012
 20
256.6823730469
 30
0.0
  0
POINT
  5
A00C
330
9FDE
100
AcDbEntity
  8
DEFPOINTS
  6
Continuous
 62
     0
100
AcDbPoint
 10
730.4995257500122
 20
256.6823730469
 30
0.0
  0
POINT
  5
A00D
330
9FDE
100
AcDbEntity
  8
DEFPOINTS
  6
Continuous
 62
     0
100
AcDbPoint
 10
730.4995257500122
 20
345.0
 30
0.0
  0
ENDBLK
  5
9FE9
330
9FDE
100
AcDbEntity
  8
0
100
AcDbBlockEnd
  0
BLOCK
  5
A017
330
A00F
100
AcDbEntity
  8
0
100
AcDbBlockBegin
  2
*D41
 70
     1
 10
0.0
 20
0.0
 30
0.0
  3
*D41
  1

  0
LINE
  5
A010
330
A00F
100
AcDbEntity
  8
30
  6
Continuous
 62
     0
100
AcDbLine
 10
335.834581815199
 20
-605.1191860768016
 30
0.0
 11
287.0464760306171
 21
-659.0975158810192
 31
0.0
  0
MTEXT
  5
A011
330
A00F
100
AcDbEntity
  8
30
  6
Continuous
 62
     0
100
AcDbMText
 10
320.0650105873463
 20
-610.6356826462553
 30
0.0
 40
10.0
 41
0.0
 71
     5
 72
     5
  1
\A1;\U+220514
 11
0.6705396692181007
 21
0.7418736765817213
 31
0.0
 73
     1
 44
1.0
1001
ACAD
1000
MTEXTBEGIN
1070
    73
1070
     1
1070
    44
1040
1.0
1070
    74
1070
     0
1000
MTEXTEND
  0
INSERT
  5
A012
330
A00F
100
AcDbEntity
  8
30
  6
Continuous
 62
     0
100
AcDbBlockReference
  2
_OPEN
 10
283.6937776845266
 20
-662.8068842639278
 30
0.0
 41
5.0
 42
5.0
 43
5.0
 50
227.8912695962203
  0
LINE
  5
A013
330
A00F
100
AcDbEntity
  8
30
  6
Continuous
 62
     0
100
AcDbLine
 10
278.9099999999998
 20
-668.0
 30
0.0
 11
279.0899999999999
 21
-668.0
 31
0.0
  0
LINE
  5
A014
330
A00F
100
AcDbEntity
  8
30
  6
Continuous
 62
     0
100
AcDbLine
 10
278.9999999999998
 20
-668.0899999999998
 30
0.0
 11
278.9999999999999
 21
-667.9099999999997
 31
0.0
  0
POINT
  5
A015
330
A00F
100
AcDbEntity
  8
DEFPOINTS
  6
Continuous
 62
     0
100
AcDbPoint
 10
283.6937776845266
 20
-662.8068842639278
 30
0.0
  0
POINT
  5
A016
330
A00F
100
AcDbEntity
  8
DEFPOINTS
  6
Continuous
 62
     0
100
AcDbPoint
 10
274.3062223154731
 20
-673.193115736072
 30
0.0
  0
ENDBLK
  5
A018
330
A00F
100
AcDbEntity
  8
0
100
AcDbBlockEnd
  0
ENDSEC
  0
SECTION
  2
ENTITIES
  0
LINE
  5
B4
330
1E
100
AcDbEntity
  8
16
100
AcDbLine
 10
-0.0000000000000021
 20
-239.0
 30
0.0
 11
0.0
 21
350.4479057911321
 31
0.0
  0
LINE
  5
B5
330
1E
100
AcDbEntity
  8
16
100
AcDbLine
 10
192.9676601005867
 20
0.0000000000000107
 30
0.0
 11
-204.2216913881511
 21
0.0
 31
0.0
  0
MTEXT
  5
BF3
330
1E
100
AcDbEntity
  8
24
  6
Continuous
100
AcDbMText
 10
142.1181906098743
 20
177.5
 30
0.0
 40
3.0
 41
0.0
 71
     1
 72
     5
  1
\A1;
 73
     1
 44
1.0
1001
ACAD
1000
MTEXTBEGIN
1070
    73
1070
     1
1070
    44
1040
1.0
1070
    74
1070
     0
1000
MTEXTEND
  0
LINE
  5
1C9B
330
1E
100
AcDbEntity
  8
16
100
AcDbLine
 10
744.4939146889918
 20
0.0
 30
0.0
 11
387.0
 21
0.0
 31
0.0
  0
LINE
  5
2260
330
1E
100
AcDbEntity
  8
16
100
AcDbLine
 10
202.1634296945399
 20
-900.0
 30
0.0
 11
-166.0
 21
-900.0
 31
0.0
  0
LINE
  5
2261
330
1E
100
AcDbEntity
  8
16
100
AcDbLine
 10
0.0
 20
-1137.085283629646
 30
0.0
 11
0.0
 21
-627.7109542159319
 31
0.0
  0
MTEXT
  5
5D8A
330
1E
100
AcDbEntity
  8
19
  6
Continuous
100
AcDbMText
 10
758.0939981048366
 20
807.8208392807663
 30
0.0
 40
8.0
 41
186.1271999999999
 71
     1
 72
     5
  1
XS2000NE 4P DO\PXS2000NN 4P DO
  7
STANDARD1
 73
     1
 44
1.0
1001
ACAD
1000
MTEXTBEGIN
1070
    73
1070
     1
1070
    44
1040
1.0
1070
    74
1070
     0
1000
MTEXTEND
  0
LINE
  5
889D
330
1E
100
AcDbEntity
  8
10
  6
Continuous
100
AcDbLine
 10
311.5
 20
257.0
 30
0.0
 11
311.5
 21
-310.0
 31
0.0
  0
LINE
  5
889E
330
1E
100
AcDbEntity
  8
10
  6
Continuous
100
AcDbLine
 10
-202.4999999999999
 20
-310.0
 30
0.0
 11
-202.4999999999999
 21
257.0
 31
0.0
  0
LINE
  5
889F
330
1E
100
AcDbEntity
  8
10
  6
Continuous
100
AcDbLine
 10
57.5001220703
 20
70.00000000000003
 30
0.0
 11
57.5001220703
 21
-69.99999999999997
 31
0.0
  0
LINE
  5
88A0
330
1E
100
AcDbEntity
  8
10
  6
Continuous
100
AcDbLine
 10
-57.5
 20
-69.99999999999997
 30
0.0
 11
-57.5
 21
70.00000000000003
 31
0.0
  0
LINE
  5
88A1
330
1E
100
AcDbEntity
  8
10
  6
Continuous
100
AcDbLine
 10
33.0
 20
42.00000000000001
 30
0.0
 11
33.0
 21
-41.49999999999996
 31
0.0
  0
LINE
  5
88A2
330
1E
100
AcDbEntity
  8
10
  6
Continuous
100
AcDbLine
 10
-33.0
 20
-41.49999999999996
 30
0.0
 11
-33.0
 21
42.00000000000001
 31
0.0
  0
LINE
  5
88A4
330
1E
100
AcDbEntity
  8
10
  6
Continuous
100
AcDbLine
 10
-169.099975586
 20
-299.0
 30
0.0
 11
-169.099975586
 21
314.0
 31
0.0
  0
LINE
  5
88A5
330
1E
100
AcDbEntity
  8
10
  6
Continuous
100
AcDbLine
 10
-172.2996826172
 20
257.0
 30
0.0
 11
-172.2996826172
 21
-299.0
 31
0.0
  0
LINE
  5
88A6
330
1E
100
AcDbEntity
  8
10
  6
Continuous
100
AcDbLine
 10
281.3002929686999
 20
257.0
 30
0.0
 11
281.3002929686999
 21
-299.0
 31
0.0
  0
LINE
  5
88A7
330
1E
100
AcDbEntity
  8
10
  6
Continuous
100
AcDbLine
 10
278.1000976561999
 20
-299.0
 30
0.0
 11
278.1000976561999
 21
314.0
 31
0.0
  0
LINE
  5
88A8
330
1E
100
AcDbEntity
  8
10
  6
Continuous
100
AcDbLine
 10
-199.2998046875
 20
257.0
 30
0.0
 11
-199.2998046875
 21
-306.7998046875
 31
0.0
  0
LINE
  5
88A9
330
1E
100
AcDbEntity
  8
10
  6
Continuous
100
AcDbLine
 10
308.3002929686998
 20
257.0
 30
0.0
 11
308.3002929686998
 21
-306.7998046875
 31
0.0
  0
LINE
  5
88AB
330
1E
100
AcDbEntity
  8
10
  6
Continuous
100
AcDbLine
 10
308.3002929686998
 20
-192.9999999999999
 30
0.0
 11
-199.2998046875
 21
-192.9999999999999
 31
0.0
  0
LINE
  5
88AC
330
1E
100
AcDbEntity
  8
10
  6
Continuous
100
AcDbLine
 10
246.796875
 20
-306.7998046875
 30
0.0
 11
-138.2996826172
 21
-306.7998046875
 31
0.0
  0
LINE
  5
88AE
330
1E
100
AcDbEntity
  8
10
  6
Continuous
100
AcDbLine
 10
57.5001220703
 20
-69.99999999999997
 30
0.0
 11
-57.5
 21
-69.99999999999997
 31
0.0
  0
LINE
  5
88AF
330
1E
100
AcDbEntity
  8
10
  6
Continuous
100
AcDbLine
 10
-138.2996826172
 20
-310.0
 30
0.0
 11
-202.4999999999999
 21
-310.0
 31
0.0
  0
LINE
  5
88B0
330
1E
100
AcDbEntity
  8
10
  6
Continuous
100
AcDbLine
 10
-199.2998046875
 20
-306.7998046875
 30
0.0
 11
-138.2996826172
 21
-306.7998046875
 31
0.0
  0
ARC
  5
88B1
330
1E
100
AcDbEntity
  8
10
  6
Continuous
100
AcDbCircle
 10
-178.2996826172
 20
-270.0
 30
0.0
 40
7.050000190683037
100
AcDbArc
 50
31.67243754029276
 51
328.3275758928748
  0
LINE
  5
88B2
330
1E
100
AcDbEntity
  8
10
  6
Continuous
100
AcDbLine
 10
-172.2996826172
 20
-299.0
 30
0.0
 11
-169.099975586
 21
-299.0
 31
0.0
  0
LINE
  5
88B3
330
1E
100
AcDbEntity
  8
10
  6
Continuous
100
AcDbLine
 10
-172.2996826172
 20
-300.0
 30
0.0
 11
-199.2998046875
 21
-300.0
 31
0.0
  0
LINE
  5
88B4
330
1E
100
AcDbEntity
  8
10
  6
Continuous
100
AcDbLine
 10
-138.2996826172
 20
-306.7998046875
 30
0.0
 11
-138.2996826172
 21
-310.0
 31
0.0
  0
LINE
  5
88B5
330
1E
100
AcDbEntity
  8
10
  6
Continuous
100
AcDbLine
 10
33.0
 20
-41.49999999999996
 30
0.0
 11
-33.0
 21
-41.49999999999996
 31
0.0
  0
LINE
  5
88B6
330
1E
100
AcDbEntity
  8
10
  6
Continuous
100
AcDbLine
 10
246.796875
 20
-310.0
 30
0.0
 11
311.5
 21
-310.0
 31
0.0
  0
ARC
  5
88B7
330
1E
100
AcDbEntity
  8
10
  6
Continuous
100
AcDbCircle
 10
287.5922851561998
 20
-270.0
 30
0.0
 40
7.050000190741474
100
AcDbArc
 50
211.6724391337772
 51
148.3275399208627
  0
LINE
  5
88B8
330
1E
100
AcDbEntity
  8
10
  6
Continuous
100
AcDbLine
 10
308.3002929686998
 20
-306.7998046875
 30
0.0
 11
246.796875
 21
-306.7998046875
 31
0.0
  0
LINE
  5
88B9
330
1E
100
AcDbEntity
  8
10
  6
Continuous
100
AcDbLine
 10
281.3002929686999
 20
-300.0
 30
0.0
 11
308.3002929686998
 21
-300.0
 31
0.0
  0
LINE
  5
88BA
330
1E
100
AcDbEntity
  8
10
  6
Continuous
100
AcDbLine
 10
281.3002929686999
 20
-299.0
 30
0.0
 11
278.1000976561999
 21
-299.0
 31
0.0
  0
LINE
  5
88BB
330
1E
100
AcDbEntity
  8
10
  6
Continuous
100
AcDbLine
 10
246.796875
 20
-306.7998046875
 30
0.0
 11
246.796875
 21
-310.0
 31
0.0
  0
LINE
  5
88BC
330
1E
100
AcDbEntity
  8
10
  6
Continuous
100
AcDbLine
 10
-172.2996826172
 20
257.0
 30
0.0
 11
281.3002929686999
 21
257.0
 31
0.0
  0
LINE
  5
88BD
330
1E
100
AcDbEntity
  8
10
  6
Continuous
100
AcDbLine
 10
-172.2996826172
 20
272.0
 30
0.0
 11
281.3002929686999
 21
272.0
 31
0.0
  0
LINE
  5
88BE
330
1E
100
AcDbEntity
  8
10
  6
Continuous
100
AcDbLine
 10
126.5
 20
314.0
 30
0.0
 11
281.3002929686999
 21
314.0
 31
0.0
  0
LINE
  5
88BF
330
1E
100
AcDbEntity
  8
10
  6
Continuous
100
AcDbLine
 10
-172.2996826172
 20
314.0
 30
0.0
 11
-172.2996826172
 21
257.0
 31
0.0
  0
LINE
  5
88C0
330
1E
100
AcDbEntity
  8
10
  6
Continuous
100
AcDbLine
 10
-57.5
 20
70.00000000000003
 30
0.0
 11
57.5001220703
 21
70.00000000000003
 31
0.0
  0
ARC
  5
88C1
330
1E
100
AcDbEntity
  8
10
  6
Continuous
100
AcDbCircle
 10
-178.2998046874999
 20
232.0
 30
0.0
 40
7.039999961815571
100
AcDbArc
 50
31.67243754026374
 51
328.3275758925711
  0
LINE
  5
88C2
330
1E
100
AcDbEntity
  8
10
  6
Continuous
100
AcDbLine
 10
-172.2996826172
 20
257.0
 30
0.0
 11
-202.4999999999999
 21
257.0
 31
0.0
  0
LINE
  5
88C3
330
1E
100
AcDbEntity
  8
10
  6
Continuous
100
AcDbLine
 10
-202.4999999999999
 20
257.0
 30
0.0
 11
-172.2996826172
 21
257.0
 31
0.0
  0
LINE
  5
88C4
330
1E
100
AcDbEntity
  8
10
  6
Continuous
100
AcDbLine
 10
-33.0
 20
42.00000000000001
 30
0.0
 11
33.0
 21
42.00000000000001
 31
0.0
  0
LINE
  5
88C5
330
1E
100
AcDbEntity
  8
10
  6
Continuous
100
AcDbLine
 10
-126.5
 20
348.0
 30
0.0
 11
126.5
 21
348.0
 31
0.0
  0
LINE
  5
88C6
330
1E
100
AcDbEntity
  8
10
  6
Continuous
100
AcDbLine
 10
-126.5
 20
314.0
 30
0.0
 11
-172.2996826172
 21
314.0
 31
0.0
  0
LINE
  5
88C7
330
1E
100
AcDbEntity
  8
10
  6
Continuous
100
AcDbLine
 10
-126.5
 20
314.0
 30
0.0
 11
-126.5
 21
348.0
 31
0.0
  0
LINE
  5
88CA
330
1E
100
AcDbEntity
  8
10
  6
Continuous
100
AcDbLine
 10
126.5
 20
348.0
 30
0.0
 11
126.5
 21
314.0
 31
0.0
  0
LINE
  5
88CC
330
1E
100
AcDbEntity
  8
10
  6
Continuous
100
AcDbLine
 10
281.3002929686999
 20
257.0
 30
0.0
 11
281.3002929686999
 21
314.0
 31
0.0
  0
LINE
  5
88CD
330
1E
100
AcDbEntity
  8
10
  6
Continuous
100
AcDbLine
 10
281.3002929686999
 20
257.0
 30
0.0
 11
311.5
 21
257.0
 31
0.0
  0
ARC
  5
88CE
330
1E
100
AcDbEntity
  8
10
  6
Continuous
100
AcDbCircle
 10
287.3002929686998
 20
232.0
 30
0.0
 40
7.050000190741474
100
AcDbArc
 50
211.6724391337772
 51
148.3275399208627
  0
TEXT
  5
88CF
330
1E
100
AcDbEntity
  8
10
  6
Continuous
100
AcDbText
 10
206.8746337889999
 20
206.078125
 30
0.0
 40
20.0
  1
N
 41
1.8
 72
     5
 11
230.8746337889998
 21
206.078125
 31
0.0
100
AcDbText
 73
     2
  0
CIRCLE
  5
8A8D
330
1E
100
AcDbEntity
  8
12
  6
DASHED
100
AcDbCircle
 10
-145.0
 20
667.3590265013856
 30
0.0
 40
7.0
  0
CIRCLE
  5
8AAF
330
1E
100
AcDbEntity
  8
12
  6
DASHED
100
AcDbCircle
 10
254.0
 20
667.3590265013856
 30
0.0
 40
7.0
  0
DIMENSION
  5
8E36
330
1E
100
AcDbEntity
  8
30
100
AcDbDimension
  2
*D1
 10
1138.84742614061
 20
0.0000000000000421
 30
0.0
 11
1121.972426069578
 21
-44.9681403860352
 31
0.0
 70
   160
 71
     5
 42
-1.0
  3
STANDARD
100
AcDbAlignedDimension
 13
1081.499525750012
 23
-99.0
 33
0.0
 14
1287.406019890612
 24
0.0
 34
0.0
 50
90.0
100
AcDbRotatedDimension
1001
ACAD
1000
DSTYLE
1002
{
1070
   287
1070
     5
1070
   287
1070
     5
1070
   279
1070
     2
1002
}
  0
DIMENSION
  5
8E37
330
1E
100
AcDbEntity
  8
30
100
AcDbDimension
  2
*D2
 10
1081.499525750012
 20
-52.79174804690001
 30
0.0
 11
1061.478094162175
 21
-35.91674804690251
 31
0.0
 70
   160
 71
     5
 42
-1.0
  3
STANDARD
100
AcDbAlignedDimension
 13
1041.499525750012
 23
-86.40637207030001
 33
0.0
 14
1081.499525750012
 24
-99.0
 34
0.0
100
AcDbRotatedDimension
1001
ACAD
1000
DSTYLE
1002
{
1070
   287
1070
     5
1070
   287
1070
     5
1070
   279
1070
     2
1002
}
  0
DIMENSION
  5
8E38
330
1E
100
AcDbEntity
  8
30
100
AcDbDimension
  2
*D3
 10
1273.061049187512
 20
-0.0000000000000702
 30
0.0
 11
1265.0
 21
-88.0
 31
0.0
 70
   160
 71
     5
 42
-1.0
  3
STANDARD
100
AcDbAlignedDimension
 13
1213.499525750009
 23
-160.0
 33
0.0
 14
1025.086928093812
 24
0.0
 34
0.0
 50
90.0
100
AcDbRotatedDimension
1001
ACAD
1000
DSTYLE
1002
{
1070
   287
1070
     5
1070
   287
1070
     5
1070
   279
1070
     2
1002
}
  0
DIMENSION
  5
8E39
330
1E
100
AcDbEntity
  8
30
100
AcDbDimension
  2
*D4
 10
720.4995257500122
 20
-390.31762695312
 30
0.0
 11
704.0
 21
-382.0
 31
0.0
 70
   160
 71
     5
 42
-1.0
  3
STANDARD
100
AcDbAlignedDimension
 13
733.4992816094122
 23
-310.4112548828
 33
0.0
 14
720.4995257500122
 24
-5.093627929700004
 34
0.0
 50
180.0
100
AcDbRotatedDimension
1001
ACAD
1000
DSTYLE
1002
{
1070
   287
1070
     5
1070
   287
1070
     5
1070
   279
1070
     2
1002
}
  0
DIMENSION
  5
8E3A
330
1E
100
AcDbEntity
  8
30
100
AcDbDimension
  2
*D5
 10
670.4992816094122
 20
-440.31762695312
 30
0.0
 11
855.0
 21
-430.0
 31
0.0
 70
   160
 71
     5
 42
-1.0
  3
STANDARD
100
AcDbAlignedDimension
 13
1041.499525750012
 23
-310.4112548828
 33
0.0
 14
670.4992816094122
 24
-3.093627929700005
 34
0.0
 50
180.0
100
AcDbRotatedDimension
1001
ACAD
1000
DSTYLE
1002
{
1070
   287
1070
     5
1070
   287
1070
     5
1070
   279
1070
     2
1002
}
  0
DIMENSION
  5
8E3B
330
1E
100
AcDbEntity
  8
30
100
AcDbDimension
  2
*D6
 10
575.4992816094122
 20
-490.31762695312
 30
0.0
 11
808.0
 21
-481.0
 31
0.0
 70
   160
 71
     5
 42
-1.0
  3
STANDARD
100
AcDbAlignedDimension
 13
1041.499525750012
 23
-310.4112548828
 33
0.0
 14
575.4992816094122
 24
-3.093627929700005
 34
0.0
 50
180.0
100
AcDbRotatedDimension
1001
ACAD
1000
DSTYLE
1002
{
1070
   287
1070
     5
1070
   287
1070
     5
1070
   279
1070
     2
1002
}
  0
LINE
  5
8E3D
330
1E
100
AcDbEntity
  8
10
  6
Continuous
100
AcDbLine
 10
1041.499525750012
 20
25.0
 30
0.0
 11
1041.499525750012
 21
-86.5
 31
0.0
  0
LINE
  5
8E3E
330
1E
100
AcDbEntity
  8
10
  6
Continuous
100
AcDbLine
 10
733.4992816094122
 20
-106.3176269530998
 30
0.0
 11
733.4992816094122
 21
-18.91723632809998
 31
0.0
  0
DIMENSION
  5
8E41
330
1E
100
AcDbEntity
  8
30
100
AcDbDimension
  2
*D7
 10
733.4992816094122
 20
-390.31762695312
 30
0.0
 11
892.0
 21
-381.0
 31
0.0
 70
   160
 71
     5
 42
-1.0
  3
STANDARD
100
AcDbAlignedDimension
 13
1041.499525750012
 23
-310.4112548828
 33
0.0
 14
733.4992816094122
 24
-310.4112548828
 34
0.0
 50
180.0
100
AcDbRotatedDimension
1001
ACAD
1000
DSTYLE
1002
{
1070
   287
1070
     5
1070
   287
1070
     5
1070
   279
1070
     2
1002
}
  0
LINE
  5
8E42
330
1E
100
AcDbEntity
  8
10
  6
Continuous
100
AcDbLine
 10
1041.499525750012
 20
-310.3176269531
 30
0.0
 11
733.4992816094122
 21
-310.3176269531
 31
0.0
  0
LINE
  5
8E43
330
1E
100
AcDbEntity
  8
12
  6
DASHED
100
AcDbLine
 10
797.4992816094123
 20
-360.3176269531199
 30
0.0
 11
797.4992816094123
 21
-322.8176269531
 31
0.0
  0
LINE
  5
8E44
330
1E
100
AcDbEntity
  8
12
  6
DASHED
100
AcDbLine
 10
803.4992816094122
 20
-360.3176269531199
 30
0.0
 11
803.4992816094122
 21
-310.3176269531
 31
0.0
  0
LINE
  5
8E45
330
1E
100
AcDbEntity
  8
12
  6
DASHED
100
AcDbLine
 10
773.4992816094123
 20
-295.3176269530998
 30
0.0
 11
773.4992816094123
 21
-345.0283203125
 31
0.0
  0
LINE
  5
8E46
330
1E
100
AcDbEntity
  8
12
  6
DASHED
100
AcDbLine
 10
797.4992816094123
 20
-360.3176269531199
 30
0.0
 11
803.4992816094122
 21
-360.3176269531199
 31
0.0
  0
LINE
  5
8E47
330
1E
100
AcDbEntity
  8
10
  6
Continuous
100
AcDbLine
 10
763.4992816094122
 20
-193.3176269530999
 30
0.0
 11
763.4992816094122
 21
-136.3176269530999
 31
0.0
  0
LINE
  5
8E49
330
1E
100
AcDbEntity
  8
12
  6
DASHED
100
AcDbLine
 10
790.9992816094122
 20
-316.3176269531
 30
0.0
 11
753.4992816094122
 21
-316.3176269531
 31
0.0
  0
LINE
  5
8E4A
330
1E
100
AcDbEntity
  8
10
  6
Continuous
100
AcDbLine
 10
733.4992816094122
 20
-310.3176269531
 30
0.0
 11
733.4992816094122
 21
-256.3176269531
 31
0.0
  0
LINE
  5
8E4B
330
1E
100
AcDbEntity
  8
12
  6
DASHED
100
AcDbLine
 10
753.4992816094122
 20
-316.3176269531
 30
0.0
 11
753.4992816094122
 21
-310.3176269531
 31
0.0
  0
LINE
  5
8E4C
330
1E
100
AcDbEntity
  8
10
  6
Continuous
100
AcDbLine
 10
730.4992816094122
 20
-193.3176269530999
 30
0.0
 11
763.4992816094122
 21
-193.3176269530999
 31
0.0
  0
LINE
  5
8E4D
330
1E
100
AcDbEntity
  8
10
  6
Continuous
100
AcDbLine
 10
733.4992816094122
 20
-256.3176269531
 30
0.0
 11
763.4992816094122
 21
-256.3176269531
 31
0.0
  0
LINE
  5
8E4E
330
1E
100
AcDbEntity
  8
10
  6
Continuous
100
AcDbLine
 10
763.4992816094122
 20
-193.3176269530999
 30
0.0
 11
763.4992816094122
 21
-256.3176269531
 31
0.0
  0
ARC
  5
8E4F
330
1E
100
AcDbEntity
  8
12
  6
DASHED
100
AcDbCircle
 10
790.9992816094122
 20
-322.8176269531
 30
0.0
 40
6.5
100
AcDbArc
 50
0.0
 51
90.0
  0
LINE
  5
8E50
330
1E
100
AcDbEntity
  8
10
  6
Continuous
100
AcDbLine
 10
763.4992816094122
 20
-136.3176269530999
 30
0.0
 11
733.4992816094122
 21
-106.3176269530998
 31
0.0
  0
DIMENSION
  5
8E53
330
1E
100
AcDbEntity
  8
30
100
AcDbDimension
  2
*D8
 10
1066.499525750012
 20
-390.31762695312
 30
0.0
 11
1056.0
 21
-380.0
 31
0.0
 70
   160
 71
     5
 42
-1.0
  3
STANDARD
100
AcDbAlignedDimension
 13
1041.499525750012
 23
-310.4112548828
 33
0.0
 14
1066.499525750012
 24
-230.0936279297
 34
0.0
100
AcDbRotatedDimension
1001
ACAD
1000
DSTYLE
1002
{
1070
   287
1070
     5
1070
   287
1070
     5
1070
   279
1070
     2
1002
}
  0
LINE
  5
8E56
330
1E
100
AcDbEntity
  8
17
  6
CONTINOUS
100
AcDbLine
 10
1153.499525750012
 20
-192.5
 30
0.0
 11
1066.499525750012
 21
-192.5
 31
0.0
  0
LINE
  5
8E57
330
1E
100
AcDbEntity
  8
17
  6
CONTINOUS
100
AcDbLine
 10
1066.499525750012
 20
-127.5
 30
0.0
 11
1153.499525750012
 21
-127.5
 31
0.0
  0
CIRCLE
  5
8E58
330
1E
100
AcDbEntity
  8
17
  6
CONTINOUS
100
AcDbCircle
 10
1108.499525750012
 20
-175.0
 30
0.0
 40
5.5
  0
CIRCLE
  5
8E59
330
1E
100
AcDbEntity
  8
17
  6
CONTINOUS
100
AcDbCircle
 10
1108.499525750012
 20
-145.0
 30
0.0
 40
5.5
  0
LINE
  5
8E5A
330
1E
100
AcDbEntity
  8
17
  6
CONTINOUS
100
AcDbLine
 10
1097.849135125012
 20
-175.0
 30
0.0
 11
1118.809584343811
 21
-175.0
 31
0.0
  0
LINE
  5
8E5B
330
1E
100
AcDbEntity
  8
17
  6
CONTINOUS
100
AcDbLine
 10
1097.849135125012
 20
-145.0
 30
0.0
 11
1118.809584343811
 21
-145.0
 31
0.0
  0
LINE
  5
8E5F
330
1E
100
AcDbEntity
  8
10
  6
Continuous
100
AcDbLine
 10
1041.499525750012
 20
-230.3176269530998
 30
0.0
 11
1041.499525750012
 21
-310.3176269531
 31
0.0
  0
LINE
  5
8E60
330
1E
100
AcDbEntity
  8
12
  6
DASHED
100
AcDbLine
 10
1047.499525750012
 20
-260.3176269531
 30
0.0
 11
1047.499525750012
 21
-297.8176269531
 31
0.0
  0
LINE
  5
8E61
330
1E
100
AcDbEntity
  8
12
  6
DASHED
100
AcDbLine
 10
1041.499525750012
 20
-310.3176269531
 30
0.0
 11
1091.499525750011
 21
-310.3176269531
 31
0.0
  0
ARC
  5
8E62
330
1E
100
AcDbEntity
  8
12
  6
DASHED
100
AcDbCircle
 10
1053.999525750012
 20
-297.8176269531
 30
0.0
 40
6.5
100
AcDbArc
 50
180.0
 51
270.0
  0
LINE
  5
8E63
330
1E
100
AcDbEntity
  8
12
  6
DASHED
100
AcDbLine
 10
1026.499525750012
 20
-280.3176269530998
 30
0.0
 11
1078.212904656312
 21
-280.3176269530998
 31
0.0
  0
LINE
  5
8E64
330
1E
100
AcDbEntity
  8
12
  6
DASHED
100
AcDbLine
 10
1091.499525750011
 20
-304.3176269531
 30
0.0
 11
1091.499525750011
 21
-310.3176269531
 31
0.0
  0
LINE
  5
8E65
330
1E
100
AcDbEntity
  8
12
  6
DASHED
100
AcDbLine
 10
1053.999525750012
 20
-304.3176269531
 30
0.0
 11
1091.499525750011
 21
-304.3176269531
 31
0.0
  0
LINE
  5
8E67
330
1E
100
AcDbEntity
  8
12
  6
DASHED
100
AcDbLine
 10
1041.499525750012
 20
-260.3176269531
 30
0.0
 11
1047.499525750012
 21
-260.3176269531
 31
0.0
  0
LINE
  5
8E69
330
1E
100
AcDbEntity
  8
17
  6
CONTINOUS
100
AcDbLine
 10
1066.499525750012
 20
-111.4999999999999
 30
0.0
 11
978.4995257500122
 21
-111.4999999999999
 31
0.0
  0
LINE
  5
8E6A
330
1E
100
AcDbEntity
  8
17
  6
CONTINOUS
100
AcDbLine
 10
1041.499525750012
 20
-86.5
 30
0.0
 11
978.4995257500122
 21
-86.5
 31
0.0
  0
LINE
  5
8E6B
330
1E
100
AcDbEntity
  8
17
  6
CONTINOUS
100
AcDbLine
 10
978.4995257500122
 20
-86.5
 30
0.0
 11
978.4995257500122
 21
-111.4999999999999
 31
0.0
  0
LINE
  5
8E6D
330
1E
100
AcDbEntity
  8
17
  6
CONTINOUS
100
AcDbLine
 10
1041.499525750012
 20
-86.5
 30
0.0
 11
1094.499525750012
 21
-86.5
 31
0.0
  0
CIRCLE
  5
8E6E
330
1E
100
AcDbEntity
  8
17
  6
CONTINOUS
100
AcDbCircle
 10
1081.499525750012
 20
-99.0
 30
0.0
 40
4.099999904599826
  0
LINE
  5
8E70
330
1E
100
AcDbEntity
  8
17
  6
CONTINOUS
100
AcDbLine
 10
1066.499525750012
 20
-111.4999999999999
 30
0.0
 11
1094.499525750012
 21
-111.4999999999999
 31
0.0
  0
LINE
  5
8E71
330
1E
100
AcDbEntity
  8
17
  6
CONTINOUS
100
AcDbLine
 10
1094.499525750012
 20
-86.5
 30
0.0
 11
1094.499525750012
 21
-111.4999999999999
 31
0.0
  0
LINE
  5
8E72
330
1E
100
AcDbEntity
  8
17
  6
CONTINOUS
100
AcDbLine
 10
1153.499525750012
 20
-127.5
 30
0.0
 11
1153.499525750012
 21
-192.5
 31
0.0
  0
DIMENSION
  5
8E73
330
1E
100
AcDbEntity
  8
30
100
AcDbDimension
  2
*D9
 10
1213.499525750009
 20
-175.0
 30
0.0
 11
1201.0
 21
-161.0
 31
0.0
 70
   160
 71
     5
 42
-1.0
  3
STANDARD
100
AcDbAlignedDimension
 13
1129.593031609412
 23
-145.0
 33
0.0
 14
1129.593031609412
 24
-175.0
 34
0.0
 50
270.0
100
AcDbRotatedDimension
1001
ACAD
1000
DSTYLE
1002
{
1070
   287
1070
     5
1070
   287
1070
     5
1070
   279
1070
     2
1002
}
  0
CIRCLE
  5
8E76
330
1E
100
AcDbEntity
  8
17
  6
CONTINOUS
100
AcDbCircle
 10
1138.499525750012
 20
-175.0
 30
0.0
 40
5.5
  0
CIRCLE
  5
8E77
330
1E
100
AcDbEntity
  8
17
  6
CONTINOUS
100
AcDbCircle
 10
1138.499525750012
 20
-145.0
 30
0.0
 40
5.5
  0
LINE
  5
8E78
330
1E
100
AcDbEntity
  8
17
  6
CONTINOUS
100
AcDbLine
 10
1138.499525750012
 20
-133.6618652344
 30
0.0
 11
1138.499525750012
 21
-155.5861816405998
 31
0.0
  0
LINE
  5
8E79
330
1E
100
AcDbEntity
  8
17
  6
CONTINOUS
100
AcDbLine
 10
1138.499525750012
 20
-163.5368652344
 30
0.0
 11
1138.499525750012
 21
-187.1474609375
 31
0.0
  0
LINE
  5
8E7A
330
1E
100
AcDbEntity
  8
17
  6
CONTINOUS
100
AcDbLine
 10
1108.499525750012
 20
-163.5368652344
 30
0.0
 11
1108.499525750012
 21
-187.1474609375
 31
0.0
  0
LINE
  5
8E7B
330
1E
100
AcDbEntity
  8
17
  6
CONTINOUS
100
AcDbLine
 10
1108.499525750012
 20
-133.5368652344
 30
0.0
 11
1108.499525750012
 21
-157.1474609375
 31
0.0
  0
LINE
  5
8E86
330
1E
100
AcDbEntity
  8
10
  6
Continuous
100
AcDbLine
 10
564.0551898125123
 20
256.0827636719
 30
0.0
 11
572.4995257500122
 21
313.0827636719
 31
0.0
  0
LINE
  5
8E87
330
1E
100
AcDbEntity
  8
18
100
AcDbLine
 10
666.3811175469122
 20
29.93286132809998
 30
0.0
 11
624.3891741875122
 21
50.66821289059999
 31
0.0
  0
LINE
  5
8E88
330
1E
100
AcDbEntity
  8
18
100
AcDbLine
 10
632.8667132500122
 20
76.30395507809999
 30
0.0
 11
678.9406878594122
 21
67.91137695309998
 31
0.0
  0
LINE
  5
8E8A
330
1E
100
AcDbEntity
  8
10
  6
Continuous
100
AcDbLine
 10
480.4995257500122
 20
69.68237304690001
 30
0.0
 11
480.4995257500122
 21
256.6823730469
 31
0.0
  0
LINE
  5
8E8B
330
1E
100
AcDbEntity
  8
10
  6
Continuous
100
AcDbLine
 10
474.4995257500121
 20
69.68237304690001
 30
0.0
 11
474.4995257500121
 21
40.11401367190001
 31
0.0
  0
LINE
  5
8E8C
330
1E
100
AcDbEntity
  8
10
  6
Continuous
100
AcDbLine
 10
480.4995257500122
 20
69.68237304690001
 30
0.0
 11
474.4995257500121
 21
69.68237304690001
 31
0.0
  0
ARC
  5
8E8D
330
1E
100
AcDbEntity
  8
30
100
AcDbCircle
 10
815.4992816094122
 20
-3.0
 30
0.0
 40
239.999999999985
100
AcDbArc
 50
165.4157069799004
 51
180.0
  0
ARC
  5
8E8E
330
1E
100
AcDbEntity
  8
18
100
AcDbCircle
 10
610.9438889173425
 20
69.33489526592278
 30
0.0
 40
23.00000000004103
100
AcDbArc
 50
17.64105276141451
 51
305.7583761049897
  0
LINE
  5
8E8F
330
1E
100
AcDbEntity
  8
10
  6
Continuous
100
AcDbLine
 10
480.4995257500122
 20
256.6823730469
 30
0.0
 11
564.1440570000122
 21
256.6823730469
 31
0.0
  0
LINE
  5
8E91
330
1E
100
AcDbEntity
  8
10
  6
Continuous
100
AcDbLine
 10
801.4992816094123
 20
98.08276367190003
 30
0.0
 11
801.4992816094123
 21
178.0827636718999
 31
0.0
  0
LINE
  5
8E92
330
1E
100
AcDbEntity
  8
10
  6
Continuous
100
AcDbLine
 10
733.4992816094122
 20
-18.91723632809998
 30
0.0
 11
801.4992816094123
 21
98.08276367190003
 31
0.0
  0
ARC
  5
8E93
330
1E
100
AcDbEntity
  8
30
100
AcDbCircle
 10
815.4992816094122
 20
-3.0
 30
0.0
 40
145.0000000000132
100
AcDbArc
 50
163.9234199292665
 51
180.0
  0
LINE
  5
8E96
330
1E
100
AcDbEntity
  8
10
  6
Continuous
100
AcDbLine
 10
716.3967425469122
 20
21.79931640630001
 30
0.0
 11
679.8723284844122
 21
35.74047851559999
 31
0.0
  0
LINE
  5
8E98
330
1E
100
AcDbEntity
  8
18
100
AcDbLine
 10
711.9533831719122
 20
14.86254882809999
 30
0.0
 11
666.3820941094122
 21
29.93383789059999
 31
0.0
  0
LINE
  5
8E9A
330
1E
100
AcDbEntity
  8
18
100
AcDbLine
 10
724.5139300469122
 20
52.84008789059999
 30
0.0
 11
678.9406878594122
 21
67.91137695309998
 31
0.0
  0
LINE
  5
8E9B
330
1E
100
AcDbEntity
  8
10
  6
Continuous
100
AcDbLine
 10
723.6638323906121
 20
44.6979980469
 30
0.0
 11
686.3098284844122
 21
55.20336914059999
 31
0.0
  0
ARC
  5
8E9C
330
1E
100
AcDbEntity
  8
10
  6
Continuous
100
AcDbCircle
 10
681.1301409844122
 20
39.54223632809997
 30
0.0
 40
4.003967762069954
100
AcDbArc
 50
159.1086829789921
 51
251.6992737822538
  0
ARC
  5
8E9D
330
1E
100
AcDbEntity
  8
10
  6
Continuous
100
AcDbCircle
 10
685.0520159844123
 20
51.4016113281
 30
0.0
 40
4.00408840184179
100
AcDbArc
 50
71.69926877486911
 51
164.2919086348789
  0
LINE
  5
8E9E
330
1E
100
AcDbEntity
  8
10
  6
Continuous
100
AcDbLine
 10
677.3889300469122
 20
40.96997070309997
 30
0.0
 11
681.1975237969122
 21
52.4855957031
 31
0.0
  0
LINE
  5
8EA3
330
1E
100
AcDbEntity
  8
10
  6
Continuous
100
AcDbLine
 10
730.4992816094122
 20
256.6823730469
 30
0.0
 11
814.1438128594122
 21
256.6823730469
 31
0.0
  0
LINE
  5
8EA6
330
1E
100
AcDbEntity
  8
10
  6
Continuous
100
AcDbLine
 10
801.4992816094123
 20
178.0827636718999
 30
0.0
 11
813.4992816094122
 21
256.0827636719
 31
0.0
  0
LINE
  5
8EA7
330
1E
100
AcDbEntity
  8
10
  6
Continuous
100
AcDbLine
 10
572.4995257500122
 20
313.0827636719
 30
0.0
 11
665.4992816094122
 21
313.0827636719
 31
0.0
  0
CIRCLE
  5
8EA8
330
1E
100
AcDbEntity
  8
10
  6
Continuous
100
AcDbCircle
 10
860.4992816094123
 20
281.0827636719
 30
0.0
 40
10.0500001907003
  0
DIMENSION
  5
8EAC
330
1E
100
AcDbEntity
  8
30
100
AcDbDimension
  2
*D10
 10
1273.061049187512
 20
94.99999999999998
 30
0.0
 11
1264.0
 21
39.0
 31
0.0
 70
   160
 71
     5
 42
-1.0
  3
STANDARD
100
AcDbAlignedDimension
 13
1025.086928093812
 23
0.0
 33
0.0
 14
1213.49952575001
 24
94.99999999999998
 34
0.0
 50
90.0
100
AcDbRotatedDimension
1001
ACAD
1000
DSTYLE
1002
{
1070
   287
1070
     5
1070
   287
1070
     5
1070
   279
1070
     2
1002
}
  0
LINE
  5
8EAD
330
1E
100
AcDbEntity
  8
17
  6
CONTINOUS
100
AcDbLine
 10
1153.499525750012
 20
62.5
 30
0.0
 11
1066.499525750012
 21
62.5
 31
0.0
  0
LINE
  5
8EAE
330
1E
100
AcDbEntity
  8
17
  6
CONTINOUS
100
AcDbLine
 10
1066.499525750012
 20
127.5
 30
0.0
 11
1153.499525750012
 21
127.5
 31
0.0
  0
CIRCLE
  5
8EB0
330
1E
100
AcDbEntity
  8
17
  6
CONTINOUS
100
AcDbCircle
 10
1108.499525750012
 20
110.0
 30
0.0
 40
5.5
  0
CIRCLE
  5
8EB1
330
1E
100
AcDbEntity
  8
17
  6
CONTINOUS
100
AcDbCircle
 10
1108.499525750012
 20
80.0
 30
0.0
 40
5.5
  0
LINE
  5
8EB2
330
1E
100
AcDbEntity
  8
17
  6
CONTINOUS
100
AcDbLine
 10
1097.849135125012
 20
80.0
 30
0.0
 11
1118.809584343811
 21
80.0
 31
0.0
  0
LINE
  5
8EB3
330
1E
100
AcDbEntity
  8
17
  6
CONTINOUS
100
AcDbLine
 10
1097.849135125012
 20
110.0
 30
0.0
 11
1118.809584343811
 21
110.0
 31
0.0
  0
LINE
  5
8EB8
330
1E
100
AcDbEntity
  8
10
  6
Continuous
100
AcDbLine
 10
915.4995257500122
 20
256.6823730469
 30
0.0
 11
1005.499525750012
 21
256.6823730469
 31
0.0
  0
LINE
  5
8EB9
330
1E
100
AcDbEntity
  8
10
  6
Continuous
100
AcDbLine
 10
1041.499525750012
 20
256.0827636719
 30
0.0
 11
1041.499525750012
 21
165.0
 31
0.0
  0
LINE
  5
8EBC
330
1E
100
AcDbEntity
  8
12
  6
DASHED
100
AcDbLine
 10
1041.499525750012
 20
256.0827636719
 30
0.0
 11
1091.499525750011
 21
256.0827636719
 31
0.0
  0
ARC
  5
8EBD
330
1E
100
AcDbEntity
  8
L225_
  6
Continuous
 62
     3
100
AcDbCircle
 10
-1053.999525750012
 20
243.5827636718999
 30
0.0
 40
6.5
210
0.0
220
0.0
230
-1.0
100
AcDbArc
 50
0.0
 51
90.0
  0
LINE
  5
8EBE
330
1E
100
AcDbEntity
  8
12
  6
DASHED
100
AcDbLine
 10
1026.499525750012
 20
226.0827636718999
 30
0.0
 11
1076.306654656312
 21
226.0827636718999
 31
0.0
  0
LINE
  5
8EBF
330
1E
100
AcDbEntity
  8
10
  6
Continuous
100
AcDbLine
 10
1005.499525750012
 20
256.6823730469
 30
0.0
 11
1041.499525750012
 21
256.6823730469
 31
0.0
  0
LINE
  5
8EC0
330
1E
100
AcDbEntity
  8
L225_
  6
Continuous
 62
     3
100
AcDbLine
 10
1047.499525750012
 20
206.0827636718999
 30
0.0
 11
1047.499525750012
 21
243.5827636718999
 31
0.0
  0
LINE
  5
8EC1
330
1E
100
AcDbEntity
  8
12
  6
DASHED
100
AcDbLine
 10
1047.499525750012
 20
206.0827636718999
 30
0.0
 11
1041.499525750012
 21
206.0827636718999
 31
0.0
  0
LINE
  5
8EC2
330
1E
100
AcDbEntity
  8
12
  6
DASHED
100
AcDbLine
 10
1053.999525750012
 20
250.0827636718999
 30
0.0
 11
1091.499525750011
 21
250.0827636718999
 31
0.0
  0
LINE
  5
8EC3
330
1E
100
AcDbEntity
  8
12
  6
DASHED
100
AcDbLine
 10
1091.499525750011
 20
256.0827636719
 30
0.0
 11
1091.499525750011
 21
250.0827636718999
 31
0.0
  0
DIMENSION
  5
8EC4
330
1E
100
AcDbEntity
  8
30
100
AcDbDimension
  2
*D11
 10
1213.49952575001
 20
62.49999999999998
 30
0.0
 11
1203.0
 21
95.0
 31
0.0
 70
   160
 71
     5
 42
-1.0
  3
STANDARD
100
AcDbAlignedDimension
 13
1144.593031609412
 23
127.5
 33
0.0
 14
1144.593031609412
 24
62.5
 34
0.0
 50
270.0
100
AcDbRotatedDimension
1001
ACAD
1000
DSTYLE
1002
{
1070
   287
1070
     5
1070
   287
1070
     5
1070
   279
1070
     2
1002
}
  0
CIRCLE
  5
8EC5
330
1E
100
AcDbEntity
  8
17
  6
CONTINOUS
100
AcDbCircle
 10
1138.499525750012
 20
110.0
 30
0.0
 40
5.5
  0
LINE
  5
8EC6
330
1E
100
AcDbEntity
  8
17
  6
CONTINOUS
100
AcDbLine
 10
1153.499525750012
 20
127.5
 30
0.0
 11
1153.499525750012
 21
62.5
 31
0.0
  0
LINE
  5
8EC7
330
1E
100
AcDbEntity
  8
17
  6
CONTINOUS
100
AcDbLine
 10
1138.499525750012
 20
121.3381347655999
 30
0.0
 11
1138.499525750012
 21
99.41381835940001
 31
0.0
  0
LINE
  5
8EC8
330
1E
100
AcDbEntity
  8
17
  6
CONTINOUS
100
AcDbLine
 10
1108.499525750012
 20
121.4631347656
 30
0.0
 11
1108.499525750012
 21
97.8525390625
 31
0.0
  0
CIRCLE
  5
8EC9
330
1E
100
AcDbEntity
  8
17
  6
CONTINOUS
100
AcDbCircle
 10
1138.499525750012
 20
80.0
 30
0.0
 40
5.5
  0
LINE
  5
8ECA
330
1E
100
AcDbEntity
  8
17
  6
CONTINOUS
100
AcDbLine
 10
1138.499525750012
 20
91.46313476559999
 30
0.0
 11
1138.499525750012
 21
67.8525390625
 31
0.0
  0
LINE
  5
8ECB
330
1E
100
AcDbEntity
  8
17
  6
CONTINOUS
100
AcDbLine
 10
1127.849135125012
 20
80.0
 30
0.0
 11
1148.809584343812
 21
80.0
 31
0.0
  0
LINE
  5
8ECC
330
1E
100
AcDbEntity
  8
17
  6
CONTINOUS
100
AcDbLine
 10
1108.499525750012
 20
91.46313476559999
 30
0.0
 11
1108.499525750012
 21
67.8525390625
 31
0.0
  0
LINE
  5
8ECD
330
1E
100
AcDbEntity
  8
0
100
AcDbLine
 10
1217.212416375012
 20
95.0
 30
0.0
 11
1278.499525750012
 21
95.0
 31
0.0
  0
LINE
  5
8ECE
330
1E
100
AcDbEntity
  8
17
  6
CONTINOUS
100
AcDbLine
 10
1128.331068718811
 20
110.0
 30
0.0
 11
1149.050795281312
 21
110.0
 31
0.0
  0
DIMENSION
  5
90D0
330
1E
100
AcDbEntity
  8
30
  6
Continuous
100
AcDbDimension
  2
*D12
 10
279.0
 20
-504.6025390625
 30
0.0
 11
138.2142857142852
 21
-504.6025390625
 31
0.0
 70
   160
  1
279
 71
     5
 42
-1.0
  3
STANDARD
100
AcDbAlignedDimension
 13
0.0000000000000568
 23
-643.0
 33
0.0
 14
279.0
 24
-667.9063720702998
 34
0.0
100
AcDbRotatedDimension
1001
ACAD
1000
DSTYLE
1002
{
1070
   288
1070
     1
1002
}
  0
DIMENSION
  5
90D1
330
1E
100
AcDbEntity
  8
30
  6
Continuous
100
AcDbDimension
  2
*D13
 10
0.0000000000000075
 20
-504.6025390625
 30
0.0
 11
-92.52775493421042
 21
-504.6025390625
 31
0.0
 70
   160
  1
170
 71
     5
 42
-1.0
  3
STANDARD
100
AcDbAlignedDimension
 13
-170.0002441406
 23
-667.9063720702998
 33
0.0
 14
0.0
 24
-627.7109542159319
 34
0.0
100
AcDbRotatedDimension
1001
ACAD
1000
DSTYLE
1002
{
1070
   288
1070
     1
1002
}
  0
LINE
  5
90D3
330
1E
100
AcDbEntity
  8
18
100
AcDbLine
 10
-194.2004394530999
 20
-643.0
 30
0.0
 11
-194.2004394530999
 21
-1210.0
 31
0.0
  0
LINE
  5
90D4
330
1E
100
AcDbEntity
  8
18
100
AcDbLine
 10
304.2001953125
 20
-1210.0
 30
0.0
 11
304.2001953125
 21
-643.0
 31
0.0
  0
DIMENSION
  5
90D6
330
1E
100
AcDbEntity
  8
30
100
AcDbDimension
  2
*D14
 10
254.0
 20
-1329.047485351559
 30
0.0
 11
125.7586206896553
 21
-1312.172485351559
 31
0.0
 70
   160
  1
254
 71
     5
 42
-1.0
  3
STANDARD
100
AcDbAlignedDimension
 13
0.0
 23
-1334.99371337891
 33
0.0
 14
254.0
 24
-1260.09362792969
 34
0.0
100
AcDbRotatedDimension
1001
ACAD
1000
DSTYLE
1002
{
1070
   287
1070
     5
1070
   287
1070
     5
1070
   279
1070
     2
1002
}
  0
LINE
  5
90D7
330
1E
100
AcDbEntity
  8
18
100
AcDbLine
 10
304.2001953125
 20
-1210.0
 30
0.0
 11
-194.2004394530999
 21
-1210.0
 31
0.0
  0
LINE
  5
90D8
330
1E
100
AcDbEntity
  8
24
  6
DASHDOT
100
AcDbLine
 10
-244.2004394531
 20
-1260.0
 30
0.0
 11
344.2001953125
 21
-1260.0
 31
0.0
  0
LINE
  5
90D9
330
1E
100
AcDbEntity
  8
24
  6
DASHDOT
100
AcDbLine
 10
-262.8049316405998
 20
-1204.0
 30
0.0
 11
354.3574218749998
 21
-1204.0
 31
0.0
  0
LINE
  5
90DA
330
1E
100
AcDbEntity
  8
24
  6
DASHDOT
100
AcDbLine
 10
-259.6691894530998
 20
-1160.0
 30
0.0
 11
354.0
 21
-1160.0
 31
0.0
  0
LINE
  5
90DC
330
1E
100
AcDbEntity
  8
24
  6
DASHDOT
100
AcDbLine
 10
-259.6691894530998
 20
-1210.0
 30
0.0
 11
354.0
 21
-1210.0
 31
0.0
  0
LINE
  5
90DD
330
1E
100
AcDbEntity
  8
24
  6
DASHDOT
100
AcDbLine
 10
-241.3610839843999
 20
-1216.0
 30
0.0
 11
344.021484375
 21
-1216.0
 31
0.0
  0
LINE
  5
90DE
330
1E
100
AcDbEntity
  8
24
  6
DASHDOT
100
AcDbLine
 10
-244.2004394531
 20
-1260.0
 30
0.0
 11
-251.0673828124999
 21
-1237.077331543
 31
0.0
  0
DIMENSION
  5
90E2
330
1E
100
AcDbEntity
  8
30
100
AcDbDimension
  2
*D15
 10
-0.0000000000000118
 20
-1329.047485351559
 30
0.0
 11
-85.53385844981042
 21
-1312.172485351559
 31
0.0
 70
   160
  1
145
 71
     5
 42
-1.0
  3
STANDARD
100
AcDbAlignedDimension
 13
-145.0002441406
 23
-1257.260131835939
 33
0.0
 14
0.0
 24
-1137.085283629646
 34
0.0
100
AcDbRotatedDimension
1001
ACAD
1000
DSTYLE
1002
{
1070
   287
1070
     5
1070
   287
1070
     5
1070
   279
1070
     2
1002
}
  0
CIRCLE
  5
90E6
330
1E
100
AcDbEntity
  8
12
100
AcDbCircle
 10
-170.0002441406
 20
-1180.0
 30
0.0
 40
7.0
  0
LINE
  5
90E7
330
1E
100
AcDbEntity
  8
12
100
AcDbLine
 10
-197.5764160155998
 20
-1180.0
 30
0.0
 11
-143.2453613280999
 21
-1180.0
 31
0.0
  0
LINE
  5
90E8
330
1E
100
AcDbEntity
  8
24
  6
DASHDOT
100
AcDbLine
 10
-253.6652832030998
 20
-1178.62109375
 30
0.0
 11
-259.6691894530998
 21
-1160.0
 31
0.0
  0
LINE
  5
90E9
330
1E
100
AcDbEntity
  8
24
  6
DASHDOT
100
AcDbLine
 10
-239.3759765625
 20
-1226.6851806641
 30
0.0
 11
-247.1701660156
 21
-1210.0
 31
0.0
  0
LINE
  5
90EA
330
1E
100
AcDbEntity
  8
24
  6
DASHDOT
100
AcDbLine
 10
-251.0673828124999
 20
-1237.077331543
 30
0.0
 11
-239.3759765625
 21
-1226.6851806641
 31
0.0
  0
LINE
  5
90EB
330
1E
100
AcDbEntity
  8
24
  6
DASHDOT
100
AcDbLine
 10
-269.2536621094
 20
-1194.2094726562
 30
0.0
 11
-253.6652832030998
 21
-1178.62109375
 31
0.0
  0
LINE
  5
90EC
330
1E
100
AcDbEntity
  8
24
  6
DASHDOT
100
AcDbLine
 10
-259.6691894530998
 20
-1210.0
 30
0.0
 11
-269.2536621094
 21
-1194.2094726562
 31
0.0
  0
LINE
  5
90ED
330
1E
100
AcDbEntity
  8
12
100
AcDbLine
 10
-170.0002441406
 20
-1162.4028320312
 30
0.0
 11
-170.0002441406
 21
-1203.4282226562
 31
0.0
  0
LINE
  5
90EE
330
1E
100
AcDbEntity
  8
24
  6
DASHDOT
100
AcDbLine
 10
338.6909179688
 20
-1240.9744262695
 30
0.0
 11
346.4848632812999
 21
-1227.9841308594
 31
0.0
  0
LINE
  5
90F1
330
1E
100
AcDbEntity
  8
24
  6
DASHDOT
100
AcDbLine
 10
344.2001953125
 20
-1260.0
 30
0.0
 11
338.6909179688
 21
-1240.9744262695
 31
0.0
  0
LINE
  5
90F2
330
1E
100
AcDbEntity
  8
12
100
AcDbLine
 10
255.9208984375
 20
-1180.0
 30
0.0
 11
305.8173828125
 21
-1180.0
 31
0.0
  0
LINE
  5
90F5
330
1E
100
AcDbEntity
  8
24
  6
DASHDOT
100
AcDbLine
 10
342.5878906249999
 20
-1178.62109375
 30
0.0
 11
354.0
 21
-1160.0
 31
0.0
  0
CIRCLE
  5
90F6
330
1E
100
AcDbEntity
  8
12
100
AcDbCircle
 10
279.0
 20
-1180.0
 30
0.0
 40
7.0
  0
LINE
  5
90F7
330
1E
100
AcDbEntity
  8
12
100
AcDbLine
 10
279.0
 20
-1167.9467773437
 30
0.0
 11
279.0
 21
-1201.2104492187
 31
0.0
  0
LINE
  5
90F8
330
1E
100
AcDbEntity
  8
24
  6
DASHDOT
100
AcDbLine
 10
346.4848632812999
 20
-1227.9841308594
 30
0.0
 11
341.2885742188
 21
-1210.0
 31
0.0
  0
LINE
  5
90F9
330
1E
100
AcDbEntity
  8
24
  6
DASHDOT
100
AcDbLine
 10
360.7744140624998
 20
-1190.3123779297
 30
0.0
 11
342.5878906249999
 21
-1178.62109375
 31
0.0
  0
LINE
  5
90FA
330
1E
100
AcDbEntity
  8
24
  6
DASHDOT
100
AcDbLine
 10
354.0
 20
-1210.0
 30
0.0
 11
360.7744140624998
 21
-1190.3123779297
 31
0.0
  0
LINE
  5
90FC
330
1E
100
AcDbEntity
  8
18
100
AcDbLine
 10
304.2001953125
 20
-643.0
 30
0.0
 11
-194.2004394530999
 21
-643.0
 31
0.0
  0
LINE
  5
90FD
330
1E
100
AcDbEntity
  8
24
  6
DASHDOT
100
AcDbLine
 10
-265.2131347655998
 20
-688.0
 30
0.0
 11
354.0
 21
-688.0
 31
0.0
  0
LINE
  5
90FF
330
1E
100
AcDbEntity
  8
24
  6
DASHDOT
100
AcDbLine
 10
-260.7785644530998
 20
-638.0
 30
0.0
 11
354.0
 21
-638.0
 31
0.0
  0
LINE
  5
9100
330
1E
100
AcDbEntity
  8
24
100
AcDbLine
 10
-270.552734375
 20
-656.4124755858999
 30
0.0
 11
-260.7785644530998
 21
-638.0
 31
0.0
  0
LINE
  5
9101
330
1E
100
AcDbEntity
  8
12
100
AcDbLine
 10
-170.0002441406
 20
-661.0
 30
0.0
 11
-170.0002441406
 21
-683.4023437499999
 31
0.0
  0
CIRCLE
  5
9103
330
1E
100
AcDbEntity
  8
12
100
AcDbCircle
 10
-170.0002441406
 20
-668.0
 30
0.0
 40
7.0
  0
LINE
  5
9104
330
1E
100
AcDbEntity
  8
12
100
AcDbLine
 10
-192.0324707030999
 20
-668.0
 30
0.0
 11
-139.9191894531
 21
-668.0
 31
0.0
  0
LINE
  5
9105
330
1E
100
AcDbEntity
  8
24
100
AcDbLine
 10
-253.6652832030998
 20
-666.8046874999999
 30
0.0
 11
-270.552734375
 21
-656.4124755858999
 31
0.0
  0
LINE
  5
9106
330
1E
100
AcDbEntity
  8
24
100
AcDbLine
 10
-265.2131347655998
 20
-688.0
 30
0.0
 11
-253.6652832030998
 21
-666.8046874999999
 31
0.0
  0
LINE
  5
9108
330
1E
100
AcDbEntity
  8
0
100
AcDbLine
 10
0.0
 20
-517.2237548827999
 30
0.0
 11
0.0
 21
-508.0
 31
0.0
  0
LINE
  5
910D
330
1E
100
AcDbEntity
  8
24
  6
DASHDOT
100
AcDbLine
 10
354.0
 20
-638.0
 30
0.0
 11
360.7744140624998
 21
-655.1134033202998
 31
0.0
  0
LINE
  5
910E
330
1E
100
AcDbEntity
  8
12
100
AcDbLine
 10
279.0
 20
-661.0
 30
0.0
 11
279.0
 21
-683.4023437499999
 31
0.0
  0
LINE
  5
9110
330
1E
100
AcDbEntity
  8
12
100
AcDbLine
 10
259.248046875
 20
-668.0
 30
0.0
 11
311.361328125
 21
-668.0
 31
0.0
  0
CIRCLE
  5
9112
330
1E
100
AcDbEntity
  8
12
100
AcDbCircle
 10
279.0
 20
-668.0
 30
0.0
 40
7.0
  0
LINE
  5
9113
330
1E
100
AcDbEntity
  8
24
  6
DASHDOT
100
AcDbLine
 10
342.5878906249999
 20
-668.1037597656
 30
0.0
 11
354.0
 21
-688.0
 31
0.0
  0
LINE
  5
9114
330
1E
100
AcDbEntity
  8
24
  6
DASHDOT
100
AcDbLine
 10
360.7744140624998
 20
-655.1134033202998
 30
0.0
 11
342.5878906249999
 21
-668.1037597656
 31
0.0
  0
DIMENSION
  5
9195
330
1E
100
AcDbEntity
  8
30
  6
Continuous
100
AcDbDimension
  2
*D16
 10
311.5
 20
-358.0
 30
0.0
 11
54.5
 21
-350.0
 31
0.0
 70
    32
  1
514(MAX.)
 71
     5
 42
-1.0
  3
STANDARD
100
AcDbAlignedDimension
 13
-202.4999999999999
 23
-310.0
 33
0.0
 14
311.5
 24
-310.0
 34
0.0
100
AcDbRotatedDimension
  0
DIMENSION
  5
93F5
330
1E
100
AcDbEntity
  8
30
  6
Continuous
100
AcDbDimension
  2
*D17
 10
-266.0
 20
0.0000000000000175
 30
0.0
 11
-274.0
 21
-155.0
 31
0.0
 70
    32
 71
     5
 42
-1.0
  3
STANDARD
100
AcDbAlignedDimension
 13
-202.4999999999999
 23
-310.0
 33
0.0
 14
-204.2216913881511
 24
0.0
 34
0.0
 50
90.0
100
AcDbRotatedDimension
  0
DIMENSION
  5
9402
330
1E
100
AcDbEntity
  8
30
  6
Continuous
100
AcDbDimension
  2
*D18
 10
-266.5
 20
0.0000000000000176
 30
0.0
 11
-274.5
 21
156.9999999999999
 31
0.0
 70
    32
 71
     5
 42
-1.0
  3
STANDARD
100
AcDbAlignedDimension
 13
-172.2996826172
 23
314.0
 33
0.0
 14
-209.221691388151
 24
0.0000000000000014
 34
0.0
 50
90.0
100
AcDbRotatedDimension
  0
DIMENSION
  5
9418
330
1E
100
AcDbEntity
  8
30
  6
Continuous
100
AcDbDimension
  2
*D19
 10
-266.4999999999999
 20
314.0
 30
0.0
 11
-274.5
 21
331.0
 31
0.0
 70
    32
 71
     5
 42
-1.0
  3
STANDARD
100
AcDbAlignedDimension
 13
-126.5
 23
348.0
 33
0.0
 14
-177.2996826172
 24
314.0
 34
0.0
 50
90.0
100
AcDbRotatedDimension
  0
LWPOLYLINE
  5
945D
330
1E
100
AcDbEntity
  8
10
  6
Continuous
100
AcDbPolyline
 90
       13
 70
     1
 43
0.0
 10
304.2001953125
 20
627.3590265013856
 10
304.2001953125
 20
935.3590265013856
 10
266.5
 20
935.3590265013856
 10
156.4999999999999
 20
935.3590265013856
 10
-156.4999999999999
 20
935.3590265013856
 10
-194.2001953125
 20
935.3590265013856
 10
-194.2001953125
 20
627.3590265013856
 10
-160.0
 20
627.3590265013856
 10
-160.0
 20
624.3590265013856
 10
160.0
 20
624.3590265013856
 10
269.0
 20
624.3590265013856
 10
269.0
 20
627.3590265013856
 10
270.0
 20
627.3590265013856
  0
LWPOLYLINE
  5
945F
330
1E
100
AcDbEntity
  8
12
  6
DASHED
100
AcDbPolyline
 90
        2
 70
     0
 43
0.0
 10
254.0
 20
647.8700128294856
 10
254.0
 20
684.9635186888856
  0
LWPOLYLINE
  5
9461
330
1E
100
AcDbEntity
  8
12
  6
DASHED
100
AcDbPolyline
 90
        2
 70
     0
 43
0.0
 10
-145.0
 20
647.8700128294856
 10
-145.0
 20
684.9635186888856
  0
LWPOLYLINE
  5
9464
330
1E
100
AcDbEntity
  8
10
  6
Continuous
100
AcDbPolyline
 90
        4
 70
     0
 43
0.0
 10
-57.5
 20
624.3590265013856
 10
-57.5
 20
614.3590265013856
 10
57.5
 20
614.3590265013856
 10
57.5
 20
624.3590265013856
  0
LWPOLYLINE
  5
9467
330
1E
100
AcDbEntity
  8
12
  6
DASHED
100
AcDbPolyline
 90
        2
 70
     0
 43
0.0
 10
-129.04296875
 20
667.3590265013856
 10
-165.0
 20
667.3590265013856
  0
LWPOLYLINE
  5
9470
330
1E
100
AcDbEntity
  8
18
100
AcDbPolyline
 90
        2
 70
     0
 43
0.0
 10
-15.50277462973539
 20
509.3491406499226
 42
2.579545223961849
 10
15.50277800559692
 20
509.3491375695883
  0
LWPOLYLINE
  5
9471
330
1E
100
AcDbEntity
  8
18
100
AcDbPolyline
 90
        2
 70
     0
 43
0.0
 10
15.5027050917392
 20
509.3492041001248
 42
0.3876628149296077
 10
-15.50270468649747
 20
509.3492044698883
  0
LWPOLYLINE
  5
9472
330
1E
100
AcDbEntity
  8
18
100
AcDbPolyline
 90
        2
 70
     0
 43
0.0
 10
-15.69482421869997
 20
552.6842218138856
 10
-13.23583984369997
 20
514.9757257200856
  0
LWPOLYLINE
  5
9473
330
1E
100
AcDbEntity
  8
18
100
AcDbPolyline
 90
        2
 70
     0
 43
0.0
 10
-15.50246568321001
 20
509.3492565451971
 42
0.2278926734499888
 10
-13.23554178950005
 20
514.9757041715851
  0
LWPOLYLINE
  5
9474
330
1E
100
AcDbEntity
  8
18
100
AcDbPolyline
 90
       12
 70
     0
 43
0.0
 10
-20.68457031249999
 20
557.3590265013856
 42
-0.3952649206514862
 10
-15.69516982406276
 20
552.684422822788
 42
0.3952649206510883
 10
-20.68457031249999
 20
557.3590265013856
 10
-34.5
 20
557.3590265013856
 42
-0.4142135623730951
 10
-39.5
 20
562.3590265013856
 10
-39.5
 20
605.3590265013856
 10
39.5
 20
605.3590265013856
 10
39.5
 20
562.3590265013856
 42
-0.4142135623730951
 10
34.5
 20
557.3590265013856
 10
20.68472609898483
 20
557.3590265013856
 42
0.3952632559110944
 10
15.69532748464688
 20
552.6844515576467
 10
13.23583984380002
 20
514.9757257200856
  0
LWPOLYLINE
  5
9475
330
1E
100
AcDbEntity
  8
18
100
AcDbPolyline
 90
        2
 70
     0
 43
0.0
 10
13.23603008164543
 20
514.9757043381887
 42
0.2278926734517517
 10
15.5029538412006
 20
509.349256657685
  0
LWPOLYLINE
  5
9476
330
1E
100
AcDbEntity
  8
10
  6
Continuous
100
AcDbPolyline
 90
        6
 70
     0
 43
0.0
 10
-30.884765625
 20
614.3590265013856
 10
-30.7255859375
 20
605.3590265013856
 10
-30.00048828119997
 20
564.3590265013856
 10
29.99926757820002
 20
564.3590265013856
 10
30.7255859375
 20
605.3590265013856
 10
30.884765625
 20
614.3590265013856
  0
LWPOLYLINE
  5
9480
330
1E
100
AcDbEntity
  8
12
  6
DASHED
100
AcDbPolyline
 90
        2
 70
     0
 43
0.0
 10
269.95703125
 20
667.3590265013856
 10
234.0
 20
667.3590265013856
  0
LWPOLYLINE
  5
9483
330
1E
100
AcDbEntity
  8
10
  6
Continuous
100
AcDbPolyline
 90
        6
 70
     0
 43
0.0
 10
-51.5
 20
935.3590265013856
 10
-51.5
 20
960.3590265013856
 10
-10.0
 20
960.3590265013856
 10
10.0
 20
960.3590265013856
 10
51.5
 20
960.3590265013856
 10
51.5
 20
935.3590265013856
  0
LWPOLYLINE
  5
9485
330
1E
100
AcDbEntity
  8
17
  6
CONTINOUS
100
AcDbPolyline
 90
        2
 70
     0
 43
0.0
 10
-130.0
 20
1032.359026501385
 10
-80.0
 20
1032.359026501385
  0
LWPOLYLINE
  5
9486
330
1E
100
AcDbEntity
  8
17
  6
CONTINOUS
100
AcDbPolyline
 90
        2
 70
     0
 43
0.0
 10
-130.0
 20
1002.359026501385
 10
-80.0
 20
1002.359026501385
  0
LWPOLYLINE
  5
9487
330
1E
100
AcDbEntity
  8
17
  6
CONTINOUS
100
AcDbPolyline
 90
        2
 70
     0
 43
0.0
 10
-130.0
 20
982.3590265013857
 10
-80.0
 20
982.3590265013857
  0
LWPOLYLINE
  5
9488
330
1E
100
AcDbEntity
  8
10
  6
Continuous
100
AcDbPolyline
 90
        6
 70
     0
 43
0.0
 10
-156.4999999999999
 20
935.3590265013856
 10
-156.4999999999999
 20
960.3590265013856
 10
-115.0
 20
960.3590265013856
 10
-95.0
 20
960.3590265013856
 10
-53.5
 20
960.3590265013856
 10
-53.5
 20
935.3590265013856
  0
LWPOLYLINE
  5
9489
330
1E
100
AcDbEntity
  8
17
  6
CONTINOUS
100
AcDbPolyline
 90
        4
 70
     0
 43
0.0
 10
-115.0
 20
960.3590265013856
 10
-115.0
 20
1047.359026501385
 10
-95.0
 20
1047.359026501385
 10
-95.0
 20
960.3590265013856
  0
LWPOLYLINE
  5
9492
330
1E
100
AcDbEntity
  8
17
  6
CONTINOUS
100
AcDbPolyline
 90
        2
 70
     0
 43
0.0
 10
80.0
 20
1002.359026501385
 10
130.0
 20
1002.359026501385
  0
LWPOLYLINE
  5
9493
330
1E
100
AcDbEntity
  8
17
  6
CONTINOUS
100
AcDbPolyline
 90
        2
 70
     0
 43
0.0
 10
80.0
 20
1032.359026501385
 10
130.0
 20
1032.359026501385
  0
LWPOLYLINE
  5
9495
330
1E
100
AcDbEntity
  8
17
  6
CONTINOUS
100
AcDbPolyline
 90
        2
 70
     0
 43
0.0
 10
80.0
 20
982.3590265013857
 10
130.0
 20
982.3590265013857
  0
LWPOLYLINE
  5
9497
330
1E
100
AcDbEntity
  8
17
  6
CONTINOUS
100
AcDbPolyline
 90
        4
 70
     0
 43
0.0
 10
-10.0
 20
960.3590265013856
 10
-10.0
 20
1047.359026501385
 10
10.0
 20
1047.359026501385
 10
10.0
 20
960.3590265013856
  0
LWPOLYLINE
  5
9499
330
1E
100
AcDbEntity
  8
17
  6
CONTINOUS
100
AcDbPolyline
 90
        2
 70
     0
 43
0.0
 10
-25.0
 20
982.3590265013857
 10
25.0
 20
982.3590265013857
  0
LWPOLYLINE
  5
949A
330
1E
100
AcDbEntity
  8
17
  6
CONTINOUS
100
AcDbPolyline
 90
        2
 70
     0
 43
0.0
 10
-25.0
 20
1002.359026501385
 10
25.0
 20
1002.359026501385
  0
LWPOLYLINE
  5
949B
330
1E
100
AcDbEntity
  8
17
  6
CONTINOUS
100
AcDbPolyline
 90
        2
 70
     0
 43
0.0
 10
-25.0
 20
1032.359026501385
 10
25.0
 20
1032.359026501385
  0
LWPOLYLINE
  5
94A7
330
1E
100
AcDbEntity
  8
17
  6
CONTINOUS
100
AcDbPolyline
 90
        2
 70
     0
 43
0.0
 10
190.0
 20
982.3590265013857
 10
240.0
 20
982.3590265013857
  0
LWPOLYLINE
  5
94A8
330
1E
100
AcDbEntity
  8
17
  6
CONTINOUS
100
AcDbPolyline
 90
        4
 70
     0
 43
0.0
 10
205.0
 20
960.3590265013856
 10
205.0
 20
1047.359026501385
 10
225.0
 20
1047.359026501385
 10
225.0
 20
960.3590265013856
  0
LWPOLYLINE
  5
94A9
330
1E
100
AcDbEntity
  8
17
  6
CONTINOUS
100
AcDbPolyline
 90
        2
 70
     0
 43
0.0
 10
190.0
 20
1002.359026501385
 10
240.0
 20
1002.359026501385
  0
LWPOLYLINE
  5
94AA
330
1E
100
AcDbEntity
  8
17
  6
CONTINOUS
100
AcDbPolyline
 90
        2
 70
     0
 43
0.0
 10
190.0
 20
1032.359026501385
 10
240.0
 20
1032.359026501385
  0
LWPOLYLINE
  5
94AC
330
1E
100
AcDbEntity
  8
10
  6
Continuous
100
AcDbPolyline
 90
        2
 70
     0
 43
0.0
 10
156.4999999999999
 20
960.3590265013856
 10
156.4999999999999
 20
935.3590265013856
  0
LINE
  5
94B2
330
1E
100
AcDbEntity
  8
10
  6
Continuous
100
AcDbLine
 10
53.5
 20
935.3590265013856
 30
0.0
 11
53.5
 21
960.3590265013856
 31
0.0
  0
LINE
  5
94B3
330
1E
100
AcDbEntity
  8
10
  6
Continuous
100
AcDbLine
 10
53.5
 20
960.3590265013856
 30
0.0
 11
115.0
 21
960.3590265013856
 31
0.0
  0
LINE
  5
94B4
330
1E
100
AcDbEntity
  8
17
  6
CONTINOUS
100
AcDbLine
 10
95.0
 20
960.3590265013856
 30
0.0
 11
95.0
 21
1047.359026501385
 31
0.0
  0
LINE
  5
94B5
330
1E
100
AcDbEntity
  8
17
  6
CONTINOUS
100
AcDbLine
 10
95.0
 20
1047.359026501385
 30
0.0
 11
115.0
 21
1047.359026501385
 31
0.0
  0
LINE
  5
94B6
330
1E
100
AcDbEntity
  8
17
  6
CONTINOUS
100
AcDbLine
 10
115.0
 20
1047.359026501385
 30
0.0
 11
115.0
 21
960.3590265013856
 31
0.0
  0
LINE
  5
94B7
330
1E
100
AcDbEntity
  8
10
  6
Continuous
100
AcDbLine
 10
115.0
 20
960.3590265013856
 30
0.0
 11
156.4999999999999
 21
960.3590265013856
 31
0.0
  0
LINE
  5
94B8
330
1E
100
AcDbEntity
  8
10
  6
Continuous
100
AcDbLine
 10
156.4999999999999
 20
960.3590265013856
 30
0.0
 11
225.0
 21
960.3590265013856
 31
0.0
  0
LINE
  5
94BA
330
1E
100
AcDbEntity
  8
10
  6
Continuous
100
AcDbLine
 10
225.0
 20
960.3590265013856
 30
0.0
 11
266.5
 21
960.3590265013856
 31
0.0
  0
LINE
  5
94BB
330
1E
100
AcDbEntity
  8
10
  6
Continuous
100
AcDbLine
 10
266.5
 20
960.3590265013856
 30
0.0
 11
266.5
 21
935.3590265013856
 31
0.0
  0
DIMENSION
  5
94E4
330
1E
100
AcDbEntity
  8
30
  6
Continuous
100
AcDbDimension
  2
*D20
 10
0.0000000000000019
 20
1079.0
 30
0.0
 11
-52.5
 21
1087.0
 31
0.0
 70
    32
 71
     5
 42
-1.0
  3
STANDARD
100
AcDbAlignedDimension
 13
-105.0
 23
1047.359026501385
 33
0.0
 14
0.0
 24
1047.359026501385
 34
0.0
100
AcDbRotatedDimension
  0
DIMENSION
  5
94F1
330
1E
100
AcDbEntity
  8
30
  6
Continuous
100
AcDbDimension
  2
*D21
 10
105.0
 20
1079.0
 30
0.0
 11
52.5
 21
1087.0
 31
0.0
 70
    32
 71
     5
 42
-1.0
  3
STANDARD
100
AcDbAlignedDimension
 13
0.0
 23
1047.359026501385
 33
0.0
 14
105.0
 24
1047.359026501385
 34
0.0
100
AcDbRotatedDimension
  0
DIMENSION
  5
94FE
330
1E
100
AcDbEntity
  8
30
  6
Continuous
100
AcDbDimension
  2
*D22
 10
215.0
 20
1079.0
 30
0.0
 11
160.0
 21
1087.0
 31
0.0
 70
    32
 71
     5
 42
-1.0
  3
STANDARD
100
AcDbAlignedDimension
 13
105.0
 23
1047.359026501385
 33
0.0
 14
215.0
 24
1047.359026501385
 34
0.0
100
AcDbRotatedDimension
  0
DIMENSION
  5
950B
330
1E
100
AcDbEntity
  8
30
  6
Continuous
100
AcDbDimension
  2
*D23
 10
-214.9999999999999
 20
960.3590265013856
 30
0.0
 11
-223.0
 21
947.8590265013856
 31
0.0
 70
    32
 71
     5
 42
-1.0
  3
STANDARD
100
AcDbAlignedDimension
 13
-156.4999999999999
 23
935.3590265013856
 33
0.0
 14
-156.4999999999999
 24
960.3590265013856
 34
0.0
 50
90.0
100
AcDbRotatedDimension
  0
DIMENSION
  5
953C
330
1E
100
AcDbEntity
  8
30
  6
Continuous
100
AcDbDimension
  2
*D24
 10
-215.3333333333331
 20
982.3590265013857
 30
0.0
 11
-215.3333333333333
 21
973.3590265013857
 31
0.0
 70
   160
 71
     5
 42
-1.0
  3
STANDARD
100
AcDbAlignedDimension
 13
-156.4999999999999
 23
960.3590265013856
 33
0.0
 14
-130.0
 24
982.3590265013857
 34
0.0
 50
90.0
100
AcDbRotatedDimension
  0
DIMENSION
  5
955D
330
1E
100
AcDbEntity
  8
30
  6
Continuous
100
AcDbDimension
  2
*D25
 10
-215.3333333333328
 20
1002.359026501385
 30
0.0
 11
-215.3333333333331
 21
992.3590265013856
 31
0.0
 70
   160
 71
     5
 42
-1.0
  3
STANDARD
100
AcDbAlignedDimension
 13
-130.0
 23
982.3590265013857
 33
0.0
 14
-130.0
 24
1002.359026501385
 34
0.0
 50
90.0
100
AcDbRotatedDimension
  0
DIMENSION
  5
956C
330
1E
100
AcDbEntity
  8
30
  6
Continuous
100
AcDbDimension
  2
*D26
 10
-215.3333333333331
 20
1032.359026501385
 30
0.0
 11
-223.3333333333333
 21
1017.359026501385
 31
0.0
 70
    32
 71
     5
 42
-1.0
  3
STANDARD
100
AcDbAlignedDimension
 13
-130.0
 23
1002.359026501385
 33
0.0
 14
-130.0
 24
1032.359026501385
 34
0.0
 50
90.0
100
AcDbRotatedDimension
  0
DIMENSION
  5
9579
330
1E
100
AcDbEntity
  8
30
  6
Continuous
100
AcDbDimension
  2
*D27
 10
-215.3333333333328
 20
1047.359026501385
 30
0.0
 11
-215.3333333333331
 21
1039.859026501384
 31
0.0
 70
   160
 71
     5
 42
-1.0
  3
STANDARD
100
AcDbAlignedDimension
 13
-130.0
 23
1032.359026501385
 33
0.0
 14
-115.0
 24
1047.359026501385
 34
0.0
 50
90.0
100
AcDbRotatedDimension
  0
LWPOLYLINE
  5
9600
330
1E
100
AcDbEntity
  8
18
100
AcDbPolyline
 90
        2
 70
     0
 43
0.0
 10
723.8635763268316
 20
36.68920080405428
 10
384.9218890313121
 20
100.8764648437999
  0
LWPOLYLINE
  5
9601
330
1E
100
AcDbEntity
  8
18
100
AcDbPolyline
 90
        2
 70
     0
 43
0.0
 10
384.9218890313121
 20
100.8764648437999
 10
377.8510882500122
 20
63.5400390625
  0
LWPOLYLINE
  5
9602
330
1E
100
AcDbEntity
  8
18
100
AcDbPolyline
 90
        2
 70
     0
 43
0.0
 10
719.9729144219122
 20
-1.249755859400011
 10
377.8510882500122
 20
63.5400390625
  0
LWPOLYLINE
  5
96DC
330
1E
100
AcDbEntity
  8
10
  6
Continuous
100
AcDbPolyline
 90
        2
 70
     0
 43
0.0
 10
814.1438128594122
 20
256.6823730469
 10
915.4995257500122
 20
256.6823730469
  0
LWPOLYLINE
  5
96DD
330
1E
100
AcDbEntity
  8
10
  6
Continuous
100
AcDbPolyline
 90
        2
 70
     0
 43
0.0
 10
822.4992816094122
 20
313.0827636719
 10
897.4995257500122
 20
313.0827636719
  0
LWPOLYLINE
  5
96DE
330
1E
100
AcDbEntity
  8
10
  6
Continuous
100
AcDbPolyline
 90
        2
 70
     0
 43
0.0
 10
814.0549456719123
 20
256.0827636719
 10
822.4992816094122
 20
313.0827636719
  0
LWPOLYLINE
  5
96DF
330
1E
100
AcDbEntity
  8
10
  6
Continuous
100
AcDbPolyline
 90
        2
 70
     0
 43
0.0
 10
915.4995257500122
 20
313.0827636719
 10
915.4995257500122
 20
256.6823730469
  0
LWPOLYLINE
  5
96E0
330
1E
100
AcDbEntity
  8
10
  6
Continuous
100
AcDbPolyline
 90
        2
 70
     0
 43
0.0
 10
897.4995257500122
 20
313.0827636719
 10
915.4995257500122
 20
313.0827636719
  0
LWPOLYLINE
  5
96E1
330
1E
100
AcDbEntity
  8
10
  6
Continuous
100
AcDbPolyline
 90
        6
 70
     0
 43
0.0
 10
724.4992816094122
 20
40.11401367190001
 10
724.4992816094122
 20
69.68237304690001
 10
730.4992816094122
 20
69.68237304690001
 10
730.4992816094122
 20
-70.31762695309999
 10
724.4992816094122
 20
-70.31762695309999
 10
724.4992816094122
 20
-50.7492675781
  0
LWPOLYLINE
  5
96E2
330
1E
100
AcDbEntity
  8
10
  6
Continuous
100
AcDbPolyline
 90
        2
 70
     0
 43
0.0
 10
711.9533831719122
 20
14.86254882809999
 10
724.5139300469122
 20
52.84008789059999
  0
LWPOLYLINE
  5
96E3
330
1E
100
AcDbEntity
  8
10
  6
Continuous
100
AcDbPolyline
 90
        4
 70
     0
 43
0.0
 10
724.4995205338151
 20
40.43123737391615
 42
0.039121242300089
 10
720.5476070814128
 20
-0.0000019485751412
 42
0.004808023863827
 10
720.4995257500122
 20
-4.999999999999968
 42
0.0439375744275103
 10
724.499528477289
 20
-50.43128213429215
  0
LWPOLYLINE
  5
96E8
330
1E
100
AcDbEntity
  8
10
  6
Continuous
100
AcDbPolyline
 90
        2
 70
     0
 43
0.0
 10
716.0324847344123
 20
21.93872070309998
 10
721.5803362969122
 20
18.68481445309998
  0
LWPOLYLINE
  5
96EA
330
1E
100
AcDbEntity
  8
10
  6
Continuous
100
AcDbPolyline
 90
        2
 70
     0
 43
0.0
 10
720.3606097344122
 20
45.7067871094
 10
721.9504534844122
 20
45.2595214844
  0
LWPOLYLINE
  5
96EB
330
1E
100
AcDbEntity
  8
10
  6
Continuous
100
AcDbPolyline
 90
        2
 70
     0
 43
0.0
 10
723.5676409844122
 20
44.72485351559997
 10
724.4992816094122
 20
44.62353515630002
  0
LWPOLYLINE
  5
96ED
330
1E
100
AcDbEntity
  8
10
  6
Continuous
100
AcDbPolyline
 90
        2
 70
     0
 43
0.0
 10
730.4992816094122
 20
-193.3176269530999
 10
730.4992816094122
 20
-70.31762695309999
  0
LWPOLYLINE
  5
96EE
330
1E
100
AcDbEntity
  8
10
  6
Continuous
100
AcDbPolyline
 90
        2
 70
     0
 43
0.0
 10
730.4992816094122
 20
69.68237304690001
 10
730.4992816094122
 20
256.6823730469
  0
LWPOLYLINE
  5
9C11
330
1E
100
AcDbEntity
  8
10
  6
Continuous
100
AcDbPolyline
 90
        6
 70
     1
 43
0.0
 10
1066.499525750012
 20
165.0
 10
1041.499525750012
 20
165.0
 10
1041.499525750012
 20
25.0
 10
1066.499525750012
 20
25.0
 10
1066.499525750012
 20
62.5
 10
1066.499525750012
 20
127.5
  0
LWPOLYLINE
  5
9C17
330
1E
100
AcDbEntity
  8
10
  6
Continuous
100
AcDbPolyline
 90
        6
 70
     0
 43
0.0
 10
1041.499525750012
 20
-111.4999999999999
 10
1041.499525750012
 20
-230.0
 10
1066.499525750012
 20
-230.0
 10
1066.499525750012
 20
-192.5
 10
1066.499525750012
 20
-127.5
 10
1066.499525750012
 20
-111.4999999999999
  0
DIMENSION
  5
9C1C
330
1E
100
AcDbEntity
  8
30
  6
Continuous
100
AcDbDimension
  2
*D28
 10
1136.086991474425
 20
105.057361193743
 30
0.0
 11
1159.0
 21
151.9999999999999
 31
0.0
 70
   163
 71
     5
 42
-1.0
  3
STANDARD
100
AcDbDiametricDimension
 15
1140.912060025599
 25
114.9426388062567
 35
0.0
 40
0.0
1001
ACAD
1000
DSTYLE
1002
{
1070
   288
1070
     1
1002
}
  0
DIMENSION
  5
9C39
330
1E
100
AcDbEntity
  8
30
  6
Continuous
100
AcDbDimension
  2
*D29
 10
1085.127686011895
 20
-97.09043137546586
 30
0.0
 11
995.9999999999997
 21
-143.999999999999
 31
0.0
 70
   163
 71
     5
 42
-1.0
  3
STANDARD
100
AcDbDiametricDimension
 15
1077.871365488128
 25
-100.9095686245341
 35
0.0
 40
0.0
1001
ACAD
1000
DSTYLE
1002
{
1070
   288
1070
     1
1002
}
  0
LINE
  5
9D57
330
1E
100
AcDbEntity
  8
10
  6
Continuous
100
AcDbLine
 10
1041.499281609411
 20
-1210.0
 30
0.0
 11
733.4992816094122
 21
-1210.0
 31
0.0
  0
LINE
  5
9D58
330
1E
100
AcDbEntity
  8
10
  6
Continuous
100
AcDbLine
 10
730.4992816094122
 20
-1210.0
 30
0.0
 11
730.499281609412
 21
-643.599609375
 31
0.0
  0
DIMENSION
  5
9D5A
330
1E
100
AcDbEntity
  8
30
100
AcDbDimension
  2
*D30
 10
1174.0
 20
-1180.0
 30
0.0
 11
1162.0
 21
-1023.0
 31
0.0
 70
   160
 71
     5
 42
-1.0
  3
STANDARD
100
AcDbAlignedDimension
 13
1032.593031609412
 23
-900.0
 33
0.0
 14
1040.405531609412
 24
-1180.0
 34
0.0
 50
270.0
100
AcDbRotatedDimension
1001
ACAD
1000
DSTYLE
1002
{
1070
   287
1070
     5
1070
   287
1070
     5
1070
   279
1070
     2
1002
}
  0
LINE
  5
9D5B
330
1E
100
AcDbEntity
  8
10
  6
Continuous
100
AcDbLine
 10
1041.499281609411
 20
-643.599609375
 30
0.0
 11
1041.499281609411
 21
-1210.0
 31
0.0
  0
DIMENSION
  5
9D5D
330
1E
100
AcDbEntity
  8
30
100
AcDbDimension
  2
*D31
 10
1041.499281609411
 20
-1295.0
 30
0.0
 11
909.0
 21
-1286.0
 31
0.0
 70
   160
 71
     5
 42
-1.0
  3
STANDARD
100
AcDbAlignedDimension
 13
773.4992816094123
 23
-1191.0
 33
0.0
 14
1041.499281609411
 24
-1210.0936279297
 34
0.0
100
AcDbRotatedDimension
1001
ACAD
1000
DSTYLE
1002
{
1070
   287
1070
     5
1070
   287
1070
     5
1070
   279
1070
     2
1002
}
  0
LINE
  5
9D5F
330
1E
100
AcDbEntity
  8
12
  6
DASHED
100
AcDbLine
 10
797.4992816094123
 20
-1260.0
 30
0.0
 11
797.4992816094123
 21
-1222.5
 31
0.0
  0
LINE
  5
9D60
330
1E
100
AcDbEntity
  8
12
  6
DASHED
100
AcDbLine
 10
803.4992816094122
 20
-1210.0
 30
0.0
 11
803.4992816094122
 21
-1260.0
 31
0.0
  0
LINE
  5
9D61
330
1E
100
AcDbEntity
  8
12
  6
DASHED
100
AcDbLine
 10
797.4992816094123
 20
-1260.0
 30
0.0
 11
803.4992816094122
 21
-1260.0
 31
0.0
  0
LINE
  5
9D64
330
1E
100
AcDbEntity
  8
12
  6
DASHED
100
AcDbLine
 10
803.4992816094122
 20
-1210.0
 30
0.0
 11
753.4992816094122
 21
-1210.0
 31
0.0
  0
ARC
  5
9D65
330
1E
100
AcDbEntity
  8
12
  6
DASHED
100
AcDbCircle
 10
790.9992816094122
 20
-1222.5
 30
0.0
 40
6.5
100
AcDbArc
 50
0.0
 51
90.0
  0
LINE
  5
9D66
330
1E
100
AcDbEntity
  8
12
  6
DASHED
100
AcDbLine
 10
790.9992816094122
 20
-1216.0
 30
0.0
 11
753.4992816094122
 21
-1216.0
 31
0.0
  0
LINE
  5
9D67
330
1E
100
AcDbEntity
  8
12
  6
DASHED
100
AcDbLine
 10
753.4992816094122
 20
-1216.0
 30
0.0
 11
753.4992816094122
 21
-1210.0
 31
0.0
  0
LINE
  5
9D68
330
1E
100
AcDbEntity
  8
12
  6
DASHED
100
AcDbLine
 10
753.4992816094122
 20
-1211.5
 30
0.0
 11
753.4992816094122
 21
-1210.0
 31
0.0
  0
DIMENSION
  5
9D6C
330
1E
100
AcDbEntity
  8
30
100
AcDbDimension
  2
*D32
 10
1144.649672234412
 20
-1160.0
 30
0.0
 11
1134.0
 21
-1171.0
 31
0.0
 70
   160
 71
     5
 42
-1.0
  3
STANDARD
100
AcDbAlignedDimension
 13
1007.593031609411
 23
-1180.0
 33
0.0
 14
1038.593031609412
 24
-1160.0
 34
0.0
 50
90.0
100
AcDbRotatedDimension
1001
ACAD
1000
DSTYLE
1002
{
1070
   287
1070
     5
1070
   287
1070
     5
1070
   279
1070
     2
1002
}
  0
LINE
  5
9D6D
330
1E
100
AcDbEntity
  8
12
  6
DASHED
100
AcDbLine
 10
1053.999281609412
 20
-1204.0
 30
0.0
 11
1091.499281609412
 21
-1204.0
 31
0.0
  0
LINE
  5
9D6E
330
1E
100
AcDbEntity
  8
12
  6
DASHED
100
AcDbLine
 10
1091.499281609412
 20
-1210.0
 30
0.0
 11
1041.499281609411
 21
-1210.0
 31
0.0
  0
LINE
  5
9D6F
330
1E
100
AcDbEntity
  8
12
  6
DASHED
100
AcDbLine
 10
1047.499281609412
 20
-1160.0
 30
0.0
 11
1047.499281609412
 21
-1197.5
 31
0.0
  0
LINE
  5
9D70
330
1E
100
AcDbEntity
  8
12
  6
DASHED
100
AcDbLine
 10
1041.499281609411
 20
-1210.0
 30
0.0
 11
1041.499281609411
 21
-1160.0
 31
0.0
  0
ARC
  5
9D71
330
1E
100
AcDbEntity
  8
12
  6
DASHED
100
AcDbCircle
 10
1053.999281609412
 20
-1197.5
 30
0.0
 40
6.5
100
AcDbArc
 50
180.0
 51
270.0
  0
LINE
  5
9D72
330
1E
100
AcDbEntity
  8
12
  6
DASHED
100
AcDbLine
 10
1047.499281609412
 20
-1160.0
 30
0.0
 11
1041.499281609411
 21
-1160.0
 31
0.0
  0
LINE
  5
9D73
330
1E
100
AcDbEntity
  8
12
  6
DASHED
100
AcDbLine
 10
1041.499281609411
 20
-1160.0
 30
0.0
 11
1042.999281609412
 21
-1160.0
 31
0.0
  0
LINE
  5
9D74
330
1E
100
AcDbEntity
  8
12
  6
DASHED
100
AcDbLine
 10
1091.499281609412
 20
-1204.0
 30
0.0
 11
1091.499281609412
 21
-1210.0
 31
0.0
  0
DIMENSION
  5
9D77
330
1E
100
AcDbEntity
  8
30
100
AcDbDimension
  2
*D33
 10
1144.649672234415
 20
-667.9995117186998
 30
0.0
 11
1135.0
 21
-679.0
 31
0.0
 70
   160
 71
     5
 42
-1.0
  3
STANDARD
100
AcDbAlignedDimension
 13
1038.593031609412
 23
-687.9995117186999
 33
0.0
 14
1047.499281609412
 24
-667.9995117186998
 34
0.0
 50
90.0
100
AcDbRotatedDimension
1001
ACAD
1000
DSTYLE
1002
{
1070
   287
1070
     5
1070
   287
1070
     5
1070
   279
1070
     2
1002
}
  0
DIMENSION
  5
9D78
330
1E
100
AcDbEntity
  8
30
100
AcDbDimension
  2
*D34
 10
1174.0
 20
-667.9995117186998
 30
0.0
 11
1162.0
 21
-784.0
 31
0.0
 70
   160
 71
     5
 42
-1.0
  3
STANDARD
100
AcDbAlignedDimension
 13
1032.593031609412
 23
-900.0
 33
0.0
 14
1040.405531609412
 24
-667.9995117186998
 34
0.0
 50
90.0
100
AcDbRotatedDimension
1001
ACAD
1000
DSTYLE
1002
{
1070
   287
1070
     5
1070
   287
1070
     5
1070
   279
1070
     2
1002
}
  0
LINE
  5
9D7A
330
1E
100
AcDbEntity
  8
12
  6
DASHED
100
AcDbLine
 10
1041.499281609411
 20
-637.9995117186998
 30
0.0
 11
1041.499281609411
 21
-687.9995117186999
 31
0.0
  0
LINE
  5
9D7B
330
1E
100
AcDbEntity
  8
12
  6
DASHED
100
AcDbLine
 10
1091.499281609412
 20
-637.9995117186998
 30
0.0
 11
1091.499281609412
 21
-643.9995117187
 31
0.0
  0
LINE
  5
9D7C
330
1E
100
AcDbEntity
  8
10
  6
Continuous
100
AcDbLine
 10
730.499281609412
 20
-643.599609375
 30
0.0
 11
1041.499281609411
 21
-643.599609375
 31
0.0
  0
LINE
  5
9D7E
330
1E
100
AcDbEntity
  8
12
  6
DASHED
100
AcDbLine
 10
1091.499281609412
 20
-643.9995117187
 30
0.0
 11
1053.999281609412
 21
-643.9995117187
 31
0.0
  0
LINE
  5
9D7F
330
1E
100
AcDbEntity
  8
12
  6
DASHED
100
AcDbLine
 10
1047.499281609412
 20
-650.4995117186998
 30
0.0
 11
1047.499281609412
 21
-687.9995117186999
 31
0.0
  0
ARC
  5
9D80
330
1E
100
AcDbEntity
  8
12
  6
DASHED
100
AcDbCircle
 10
-1053.999281609412
 20
-650.4995117186998
 30
0.0
 40
6.5
210
0.0
220
0.0
230
-1.0
100
AcDbArc
 50
0.0
 51
90.0
  0
LINE
  5
9D81
330
1E
100
AcDbEntity
  8
12
  6
DASHED
100
AcDbLine
 10
1047.499281609412
 20
-687.9995117186999
 30
0.0
 11
1041.499281609411
 21
-687.9995117186999
 31
0.0
  0
LINE
  5
9D82
330
1E
100
AcDbEntity
  8
12
  6
DASHED
100
AcDbLine
 10
1041.499281609411
 20
-637.9995117186998
 30
0.0
 11
1091.499281609412
 21
-637.9995117186998
 31
0.0
  0
LINE
  5
9E22
330
1E
100
AcDbEntity
  8
16
100
AcDbLine
 10
1041.499281609411
 20
-900.0
 30
0.0
 11
663.0
 21
-900.0
 31
0.0
  0
DIMENSION
  5
9F37
330
1E
100
AcDbEntity
  8
30
  6
Continuous
100
AcDbDimension
  2
*D35
 10
-0.0000000000000017
 20
442.0
 30
0.0
 11
-72.5
 21
450.0
 31
0.0
 70
    32
 71
     5
 42
-1.0
  3
STANDARD
100
AcDbAlignedDimension
 13
-145.0
 23
660.3590265013856
 33
0.0
 14
0.0
 24
469.3590265013707
 34
0.0
100
AcDbRotatedDimension
  0
DIMENSION
  5
9F5B
330
1E
100
AcDbEntity
  8
30
  6
Continuous
100
AcDbDimension
  2
*D36
 10
254.0
 20
441.5
 30
0.0
 11
127.0
 21
449.5
 31
0.0
 70
    32
 71
     5
 42
-1.0
  3
STANDARD
100
AcDbAlignedDimension
 13
-0.0000000000000002
 23
469.3590265013707
 33
0.0
 14
254.0
 24
647.8700128294856
 34
0.0
100
AcDbRotatedDimension
  0
DIMENSION
  5
9FB4
330
1E
100
AcDbEntity
  8
30
  6
Continuous
100
AcDbDimension
  2
*D37
 10
480.4995257500122
 20
480.0
 30
0.0
 11
760.9995257500123
 21
488.0
 31
0.0
 70
    32
 71
     5
 42
-1.0
  3
STANDARD
100
AcDbAlignedDimension
 13
1041.499525750012
 23
442.0
 33
0.0
 14
480.4995257500122
 24
256.6823730469
 34
0.0
100
AcDbRotatedDimension
  0
DIMENSION
  5
9FB5
330
1E
100
AcDbEntity
  8
30
  6
Continuous
100
AcDbDimension
  2
*D38
 10
670.4992816094122
 20
442.0
 30
0.0
 11
855.9994036797123
 21
450.0
 31
0.0
 70
    32
 71
     5
 42
-1.0
  3
STANDARD
100
AcDbAlignedDimension
 13
1041.499525750012
 23
392.0
 33
0.0
 14
670.4992816094122
 24
256.0827636719
 34
0.0
100
AcDbRotatedDimension
  0
DIMENSION
  5
9FB6
330
1E
100
AcDbEntity
  8
30
  6
Continuous
100
AcDbDimension
  2
*D39
 10
700.4992816094122
 20
392.0
 30
0.0
 11
870.9994036797123
 21
400.0
 31
0.0
 70
    32
 71
     5
 42
-1.0
  3
STANDARD
100
AcDbAlignedDimension
 13
1041.499525750012
 23
345.0
 33
0.0
 14
700.4992816094122
 24
256.0827636719
 34
0.0
100
AcDbRotatedDimension
  0
DIMENSION
  5
9FB7
330
1E
100
AcDbEntity
  8
30
  6
Continuous
100
AcDbDimension
  2
*D40
 10
730.4995257500122
 20
345.0
 30
0.0
 11
885.9995257500122
 21
353.0
 31
0.0
 70
    32
 71
     5
 42
-1.0
  3
STANDARD
100
AcDbAlignedDimension
 13
1041.499525750012
 23
256.6823730469
 33
0.0
 14
730.4995257500122
 24
256.6823730469
 34
0.0
100
AcDbRotatedDimension
  0
LWPOLYLINE
  5
9FB8
330
1E
100
AcDbEntity
  8
10
  6
Continuous
100
AcDbPolyline
 90
        3
 70
     0
 43
0.0
 10
670.4992816094122
 20
226.6823730468999
 10
670.4992816094122
 20
256.0827636719
 10
690.4992816094122
 20
256.0827636719
  0
LWPOLYLINE
  5
9FB9
330
1E
100
AcDbEntity
  8
10
  6
Continuous
100
AcDbPolyline
 90
        3
 70
     0
 43
0.0
 10
700.4992816094122
 20
226.6823730468999
 10
700.4992816094122
 20
256.0827636719
 10
720.4992816094122
 20
256.0827636719
  0
DIMENSION
  5
A00E
330
1E
100
AcDbEntity
  8
30
  6
Continuous
100
AcDbDimension
  2
*D41
 10
274.3062223154731
 20
-673.193115736072
 30
0.0
 11
326.0000000000001
 21
-616.0000000000002
 31
0.0
 70
   163
 71
     5
 42
-1.0
  3
STANDARD
100
AcDbDiametricDimension
 15
283.6937776845266
 25
-662.8068842639278
 35
0.0
 40
0.0
1001
ACAD
1000
DSTYLE
1002
{
1070
   288
1070
     1
1002
}
  0
VIEWPORT
  5
9AC
330
1A
100
AcDbEntity
 67
     1
  8
0
  6
Continuous
100
AcDbViewport
 10
171.9995348790992
 20
144.1384735538403
 30
0.0
 40
488.8676857773513
 41
292.3514905034161
 68
     1
 69
     1
 12
171.9995348790992
 22
144.1384735538403
 13
0.0
 23
0.0
 14
10.0
 24
10.0
 15
10.0
 25
10.0
 16
0.0
 26
0.0
 36
1.0
 17
0.0
 27
0.0
 37
0.0
 42
50.0
 43
0.0
 44
0.0
 45
292.3514905034161
 50
0.0
 51
0.0
 72
   100
 90
    32800
  1

281
     0
 71
     1
 74
     0
110
0.0
120
0.0
130
0.0
111
1.0
121
0.0
131
0.0
112
0.0
122
1.0
132
0.0
 79
     0
146
0.0
  0
ENDSEC
  0
SECTION
  2
OBJECTS
  0
DICTIONARY
  5
C
330
0
100
AcDbDictionary
281
     1
  3
ACAD_GROUP
350
D
  3
ACAD_LAYOUT
350
19
  3
ACAD_MLINESTYLE
350
16
  3
ACAD_PLOTSETTINGS
350
18
  3
ACAD_PLOTSTYLENAME
350
E
  3
ACDBVARIABLEDICTIONARY
350
6C1E
  0
DICTIONARY
  5
178
330
1E
100
AcDbDictionary
280
     1
281
     1
  3
ACAD_LAYOUTSELFREF
360
A61B
  0
DICTIONARY
  5
17A
330
1A
100
AcDbDictionary
280
     1
281
     1
  3
ACAD_LAYOUTSELFREF
360
A61A
  0
DICTIONARY
  5
D
102
{ACAD_REACTORS
330
C
102
}
330
C
100
AcDbDictionary
281
     1
  0
DICTIONARY
  5
19
102
{ACAD_REACTORS
330
C
102
}
330
C
100
AcDbDictionary
281
     1
  3
Model
350
A6C5
  3
ﾚｲｱｳﾄ1
350
A6C6
  0
DICTIONARY
  5
16
102
{ACAD_REACTORS
330
C
102
}
330
C
100
AcDbDictionary
281
     1
  3
STANDARD
350
17
  0
DICTIONARY
  5
18
102
{ACAD_REACTORS
330
C
102
}
330
C
100
AcDbDictionary
281
     1
  0
ACDBDICTIONARYWDFLT
  5
E
102
{ACAD_REACTORS
330
C
102
}
330
C
100
AcDbDictionary
281
     1
  3
Normal
350
F
100
AcDbDictionaryWithDefault
340
F
1001
ACAD
1000
TREAT_AS_HARD
1070
     0
  0
DICTIONARY
  5
6C1E
102
{ACAD_REACTORS
330
C
102
}
330
C
100
AcDbDictionary
281
     1
  3
DIMASSOC
350
878E
  3
SORTENTS
350
6C1F
  0
XRECORD
  5
A61B
102
{ACAD_REACTORS
330
178
102
}
330
178
100
AcDbXrecord
280
     1
340
1E
  0
XRECORD
  5
A61A
102
{ACAD_REACTORS
330
17A
102
}
330
17A
100
AcDbXrecord
280
     1
340
1A
  0
LAYOUT
  5
A6C5
102
{ACAD_REACTORS
330
19
102
}
330
19
100
AcDbPlotSettings
  1

  2
LBP5400
  4

  6

 40
0.0
 41
0.0
 42
0.0
 43
0.0
 44
0.0
 45
0.0
 46
0.0
 47
0.0
 48
0.0
 49
0.0
140
0.0
141
0.0
142
1.0
143
1.0
 70
  1712
 72
     0
 73
     0
 74
     0
  7
monochrome.stb
 75
     0
147
1.0
148
0.0
149
0.0
100
AcDbLayout
  1
Model
 70
     1
 71
     0
 10
0.0
 20
0.0
 11
12.0
 21
9.0
 12
0.0
 22
0.0
 32
0.0
 14
0.0
 24
0.0
 34
0.0
 15
0.0
 25
0.0
 35
0.0
146
0.0
 13
0.0
 23
0.0
 33
0.0
 16
1.0
 26
0.0
 36
0.0
 17
0.0
 27
1.0
 37
0.0
 76
     0
330
1E
  0
LAYOUT
  5
A6C6
102
{ACAD_REACTORS
330
19
102
}
330
19
100
AcDbPlotSettings
  1

  2
LBP5400
  4

  6

 40
0.0
 41
0.0
 42
0.0
 43
0.0
 44
0.0
 45
0.0
 46
0.0
 47
0.0
 48
0.0
 49
0.0
140
0.0
141
0.0
142
1.0
143
1.0
 70
   688
 72
     0
 73
     0
 74
     5
  7
monochrome.stb
 75
    16
147
1.0
148
0.0
149
0.0
100
AcDbLayout
  1
ﾚｲｱｳﾄ1
 70
     1
 71
     1
 10
-5.873748779296875
 20
-5.873749732971191
 11
204.0995788574218
 21
291.1369009017943
 12
0.0
 22
0.0
 32
0.0
 14
4.273573370203961
 24
5.205246163471485
 34
0.0
 15
194.6100952986349
 25
283.0697008572913
 35
0.0
146
0.0
 13
0.0
 23
0.0
 33
0.0
 16
1.0
 26
0.0
 36
0.0
 17
0.0
 27
1.0
 37
0.0
 76
     0
330
1A
331
9AC
  0
MLINESTYLE
  5
17
102
{ACAD_REACTORS
330
16
102
}
330
16
100
AcDbMlineStyle
  2
STANDARD
 70
     0
  3

 62
   256
 51
90.0
 52
90.0
 71
     2
 49
0.5
 62
   256
  6
BYLAYER
 49
-0.5
 62
   256
  6
BYLAYER
  0
ACDBPLACEHOLDER
  5
F
102
{ACAD_REACTORS
330
E
102
}
330
E
  0
DICTIONARYVAR
  5
878E
102
{ACAD_REACTORS
330
6C1E
102
}
330
6C1E
100
DictionaryVariables
280
     0
  1
1
  0
DICTIONARYVAR
  5
6C1F
102
{ACAD_REACTORS
330
6C1E
102
}
330
6C1E
100
DictionaryVariables
280
     0
  1
96
  0
ENDSEC
  0
EOF
