  0
SECTION
  2
HEADER
  9
$ACADVER
  1
AC1014
  9
$ACADMAINTVER
 70
     9
  9
$DWGCODEPAGE
  3
ANSI_932
  9
$INSBASE
 10
0.0
 20
0.0
 30
0.0
  9
$EXTMIN
 10
-89.49585045986021
 20
-364.8292258129242
 30
-0.000000000000013
  9
$EXTMAX
 10
361.7854990253636
 20
326.5785389791622
 30
0.0000000000000023
  9
$LIMMIN
 10
-111.6607628231322
 20
-393.6846650918833
  9
$LIMMAX
 10
267.0001487158915
 20
364.8672605553396
  9
$ORTHOMODE
 70
     1
  9
$REGENMODE
 70
     1
  9
$FILLMODE
 70
     1
  9
$QTEXTMODE
 70
     0
  9
$MIRRTEXT
 70
     1
  9
$DRAGMODE
 70
     2
  9
$LTSCALE
 40
5.0
  9
$OSMODE
 70
    37
  9
$ATTMODE
 70
     1
  9
$TEXTSIZE
 40
5.0
  9
$TRACEWID
 40
0.05
  9
$TEXTSTYLE
  7
STANDARD1
  9
$CLAYER
  8
30
  9
$CELTYPE
  6
CONTINUOUS
  9
$CECOLOR
 62
   256
  9
$CELTSCALE
 40
1.0
  9
$DELOBJ
 70
     1
  9
$DISPSILH
 70
     0
  9
$DIMSCALE
 40
1.0
  9
$DIMASZ
 40
2.0
  9
$DIMEXO
 40
1.0
  9
$DIMDLI
 40
0.5
  9
$DIMRND
 40
0.0
  9
$DIMDLE
 40
0.0
  9
$DIMEXE
 40
0.5
  9
$DIMTP
 40
0.0
  9
$DIMTM
 40
0.0
  9
$DIMTXT
 40
4.0
  9
$DIMCEN
 40
0.09
  9
$DIMTSZ
 40
0.0
  9
$DIMTOL
 70
     0
  9
$DIMLIM
 70
     0
  9
$DIMTIH
 70
     0
  9
$DIMTOH
 70
     0
  9
$DIMSE1
 70
     0
  9
$DIMSE2
 70
     0
  9
$DIMTAD
 70
     3
  9
$DIMZIN
 70
    12
  9
$DIMBLK
  1
OPEN
  9
$DIMASO
 70
     1
  9
$DIMSHO
 70
     1
  9
$DIMPOST
  1

  9
$DIMAPOST
  1

  9
$DIMALT
 70
     0
  9
$DIMALTD
 70
     2
  9
$DIMALTF
 40
25.4
  9
$DIMLFAC
 40
1.0
  9
$DIMTOFL
 70
     0
  9
$DIMTVP
 40
0.0
  9
$DIMTIX
 70
     0
  9
$DIMSOXD
 70
     0
  9
$DIMSAH
 70
     0
  9
$DIMBLK1
  1

  9
$DIMBLK2
  1

  9
$DIMSTYLE
  2
STANDARD
  9
$DIMCLRD
 70
     0
  9
$DIMCLRE
 70
     0
  9
$DIMCLRT
 70
     0
  9
$DIMTFAC
 40
1.0
  9
$DIMGAP
 40
1.0
  9
$DIMJUST
 70
     0
  9
$DIMSD1
 70
     0
  9
$DIMSD2
 70
     0
  9
$DIMTOLJ
 70
     1
  9
$DIMTZIN
 70
     0
  9
$DIMALTZ
 70
     0
  9
$DIMALTTZ
 70
     0
  9
$DIMFIT
 70
     3
  9
$DIMUPT
 70
     0
  9
$DIMUNIT
 70
     2
  9
$DIMDEC
 70
     1
  9
$DIMTDEC
 70
     1
  9
$DIMALTU
 70
     2
  9
$DIMALTTD
 70
     2
  9
$DIMTXSTY
  7
STANDARD
  9
$DIMAUNIT
 70
     0
  9
$LUNITS
 70
     2
  9
$LUPREC
 70
     4
  9
$SKETCHINC
 40
0.1
  9
$FILLETRAD
 40
2.75
  9
$AUNITS
 70
     0
  9
$AUPREC
 70
     0
  9
$MENU
  1
.
  9
$ELEVATION
 40
0.0
  9
$PELEVATION
 40
0.0
  9
$THICKNESS
 40
0.0
  9
$LIMCHECK
 70
     0
  9
$BLIPMODE
 70
     0
  9
$CHAMFERA
 40
0.0
  9
$CHAMFERB
 40
0.0
  9
$CHAMFERC
 40
0.0
  9
$CHAMFERD
 40
0.0
  9
$SKPOLY
 70
     0
  9
$TDCREATE
 40
2452286.555658657
  9
$TDUPDATE
 40
2453165.452763125
  9
$TDINDWG
 40
1.3052299884
  9
$TDUSRTIMER
 40
1.3052294560
  9
$USRTIMER
 70
     1
  9
$ANGBASE
 50
0.0
  9
$ANGDIR
 70
     0
  9
$PDMODE
 70
     0
  9
$PDSIZE
 40
0.0
  9
$PLINEWID
 40
0.0
  9
$COORDS
 70
     2
  9
$SPLFRAME
 70
     0
  9
$SPLINETYPE
 70
     6
  9
$SPLINESEGS
 70
     8
  9
$ATTDIA
 70
     0
  9
$ATTREQ
 70
     1
  9
$HANDLING
 70
 22529
  9
$HANDSEED
  5
7E59
  9
$SURFTAB1
 70
     6
  9
$SURFTAB2
 70
     6
  9
$SURFTYPE
 70
     6
  9
$SURFU
 70
     6
  9
$SURFV
 70
     6
  9
$UCSNAME
  2

  9
$UCSORG
 10
0.0
 20
0.0
 30
0.0
  9
$UCSXDIR
 10
1.0
 20
0.0
 30
0.0
  9
$UCSYDIR
 10
0.0
 20
1.0
 30
0.0
  9
$PUCSNAME
  2

  9
$PUCSORG
 10
0.0
 20
0.0
 30
0.0
  9
$PUCSXDIR
 10
1.0
 20
0.0
 30
0.0
  9
$PUCSYDIR
 10
0.0
 20
1.0
 30
0.0
  9
$USERI1
 70
     0
  9
$USERI2
 70
     0
  9
$USERI3
 70
     0
  9
$USERI4
 70
     0
  9
$USERI5
 70
     0
  9
$USERR1
 40
0.0
  9
$USERR2
 40
0.0
  9
$USERR3
 40
0.0
  9
$USERR4
 40
0.0
  9
$USERR5
 40
0.0
  9
$WORLDVIEW
 70
     1
  9
$SHADEDGE
 70
     3
  9
$SHADEDIF
 70
    70
  9
$TILEMODE
 70
     1
  9
$MAXACTVP
 70
    48
  9
$PINSBASE
 10
0.0
 20
0.0
 30
0.0
  9
$PLIMCHECK
 70
     0
  9
$PEXTMIN
 10
4.273573370203961
 20
5.205246163471485
 30
0.0
  9
$PEXTMAX
 10
194.6100952986349
 20
283.0697008572913
 30
0.0
  9
$PLIMMIN
 10
-5.873748779296875
 20
-5.873749732971191
  9
$PLIMMAX
 10
204.0995788574218
 20
291.1369009017943
  9
$UNITMODE
 70
     0
  9
$VISRETAIN
 70
     1
  9
$PLINEGEN
 70
     0
  9
$PSLTSCALE
 70
     1
  9
$TREEDEPTH
 70
  3020
  9
$PICKSTYLE
 70
     1
  9
$CMLSTYLE
  2
STANDARD
  9
$CMLJUST
 70
     0
  9
$CMLSCALE
 40
1.0
  9
$PROXYGRAPHICS
 70
     1
  9
$MEASUREMENT
 70
     0
  0
ENDSEC
  0
SECTION
  2
CLASSES
  0
CLASS
  1
ACDBDICTIONARYWDFLT
  2
AcDbDictionaryWithDefault
  3
AutoCAD 2000
 90
        0
280
     0
281
     0
  0
CLASS
  1
ACDBPLACEHOLDER
  2
AcDbPlaceHolder
  3
AutoCAD 2000
 90
        0
280
     0
281
     0
  0
CLASS
  1
LAYOUT
  2
AcDbLayout
  3
AutoCAD 2000
 90
        0
280
     0
281
     0
  0
CLASS
  1
LONG_TRANSACTION
  2
AcDbLongTransaction
  3
AutoCAD 2000
 90
        0
280
     0
281
     0
  0
CLASS
  1
LWPOLYLINE
  2
AcDbPolyline
  3
AutoCAD 2000
 90
        0
280
     0
281
     1
  0
CLASS
  1
HATCH
  2
AcDbHatch
  3
AutoCAD 2000
 90
        0
280
     0
281
     1
  0
CLASS
  1
XRECORD
  2
AcDbXrecord
  3
AutoCAD 2000
 90
        0
280
     0
281
     0
  0
CLASS
  1
LONG_TRANSACTION
  2
AcDbLongTransaction
  3
AutoCAD 2000
 90
        0
280
     0
281
     0
  0
CLASS
  1
LWPOLYLINE
  2
AcDbPolyline
  3
AutoCAD 2000
 90
        0
280
     0
281
     1
  0
CLASS
  1
HATCH
  2
AcDbHatch
  3
AutoCAD 2000
 90
        0
280
     0
281
     1
  0
CLASS
  1
XRECORD
  2
AcDbXrecord
  3
AutoCAD 2000
 90
        0
280
     0
281
     0
  0
CLASS
  1
LONG_TRANSACTION
  2
AcDbLongTransaction
  3
AutoCAD 2000
 90
        0
280
     0
281
     0
  0
CLASS
  1
LWPOLYLINE
  2
AcDbPolyline
  3
AutoCAD 2000
 90
        0
280
     0
281
     1
  0
CLASS
  1
HATCH
  2
AcDbHatch
  3
AutoCAD 2000
 90
        0
280
     0
281
     1
  0
CLASS
  1
XRECORD
  2
AcDbXrecord
  3
AutoCAD 2000
 90
        0
280
     0
281
     0
  0
CLASS
  1
LONG_TRANSACTION
  2
AcDbLongTransaction
  3
AutoCAD 2000
 90
        0
280
     0
281
     0
  0
CLASS
  1
LWPOLYLINE
  2
AcDbPolyline
  3
AutoCAD 2000
 90
        0
280
     0
281
     1
  0
CLASS
  1
HATCH
  2
AcDbHatch
  3
AutoCAD 2000
 90
        0
280
     0
281
     1
  0
CLASS
  1
XRECORD
  2
AcDbXrecord
  3
AutoCAD 2000
 90
        0
280
     0
281
     0
  0
CLASS
  1
LONG_TRANSACTION
  2
AcDbLongTransaction
  3
AutoCAD 2000
 90
        0
280
     0
281
     0
  0
CLASS
  1
LWPOLYLINE
  2
AcDbPolyline
  3
AutoCAD 2000
 90
        0
280
     0
281
     1
  0
CLASS
  1
HATCH
  2
AcDbHatch
  3
AutoCAD 2000
 90
        0
280
     0
281
     1
  0
CLASS
  1
XRECORD
  2
AcDbXrecord
  3
AutoCAD 2000
 90
        0
280
     0
281
     0
  0
CLASS
  1
LONG_TRANSACTION
  2
AcDbLongTransaction
  3
AutoCAD 2000
 90
        0
280
     0
281
     0
  0
CLASS
  1
LWPOLYLINE
  2
AcDbPolyline
  3
AutoCAD 2000
 90
        0
280
     0
281
     1
  0
CLASS
  1
HATCH
  2
AcDbHatch
  3
AutoCAD 2000
 90
        0
280
     0
281
     1
  0
CLASS
  1
XRECORD
  2
AcDbXrecord
  3
AutoCAD 2000
 90
        0
280
     0
281
     0
  0
CLASS
  1
LONG_TRANSACTION
  2
AcDbLongTransaction
  3
AutoCAD 2000
 90
        0
280
     0
281
     0
  0
CLASS
  1
LWPOLYLINE
  2
AcDbPolyline
  3
AutoCAD 2000
 90
        0
280
     0
281
     1
  0
CLASS
  1
HATCH
  2
AcDbHatch
  3
AutoCAD 2000
 90
        0
280
     0
281
     1
  0
CLASS
  1
XRECORD
  2
AcDbXrecord
  3
AutoCAD 2000
 90
        0
280
     0
281
     0
  0
CLASS
  1
LONG_TRANSACTION
  2
AcDbLongTransaction
  3
AutoCAD 2000
 90
        0
280
     0
281
     0
  0
CLASS
  1
LWPOLYLINE
  2
AcDbPolyline
  3
AutoCAD 2000
 90
        0
280
     0
281
     1
  0
CLASS
  1
HATCH
  2
AcDbHatch
  3
AutoCAD 2000
 90
        0
280
     0
281
     1
  0
CLASS
  1
XRECORD
  2
AcDbXrecord
  3
AutoCAD 2000
 90
        0
280
     0
281
     0
  0
CLASS
  1
LONG_TRANSACTION
  2
AcDbLongTransaction
  3
AutoCAD 2000
 90
        0
280
     0
281
     0
  0
CLASS
  1
LWPOLYLINE
  2
AcDbPolyline
  3
AutoCAD 2000
 90
        0
280
     0
281
     1
  0
CLASS
  1
HATCH
  2
AcDbHatch
  3
AutoCAD 2000
 90
        0
280
     0
281
     1
  0
CLASS
  1
XRECORD
  2
AcDbXrecord
  3
AutoCAD 2000
 90
        0
280
     0
281
     0
  0
CLASS
  1
LONG_TRANSACTION
  2
AcDbLongTransaction
  3
AutoCAD 2000
 90
        0
280
     0
281
     0
  0
CLASS
  1
LWPOLYLINE
  2
AcDbPolyline
  3
AutoCAD 2000
 90
        0
280
     0
281
     1
  0
CLASS
  1
HATCH
  2
AcDbHatch
  3
AutoCAD 2000
 90
        0
280
     0
281
     1
  0
CLASS
  1
XRECORD
  2
AcDbXrecord
  3
AutoCAD 2000
 90
        0
280
     0
281
     0
  0
CLASS
  1
LONG_TRANSACTION
  2
AcDbLongTransaction
  3
AutoCAD 2000
 90
        0
280
     0
281
     0
  0
CLASS
  1
LWPOLYLINE
  2
AcDbPolyline
  3
AutoCAD 2000
 90
        0
280
     0
281
     1
  0
CLASS
  1
HATCH
  2
AcDbHatch
  3
AutoCAD 2000
 90
        0
280
     0
281
     1
  0
CLASS
  1
XRECORD
  2
AcDbXrecord
  3
AutoCAD 2000
 90
        0
280
     0
281
     0
  0
CLASS
  1
LONG_TRANSACTION
  2
AcDbLongTransaction
  3
AutoCAD 2000
 90
        0
280
     0
281
     0
  0
CLASS
  1
LWPOLYLINE
  2
AcDbPolyline
  3
AutoCAD 2000
 90
        0
280
     0
281
     1
  0
CLASS
  1
HATCH
  2
AcDbHatch
  3
AutoCAD 2000
 90
        0
280
     0
281
     1
  0
CLASS
  1
XRECORD
  2
AcDbXrecord
  3
AutoCAD 2000
 90
        0
280
     0
281
     0
  0
CLASS
  1
LONG_TRANSACTION
  2
AcDbLongTransaction
  3
AutoCAD 2000
 90
        0
280
     0
281
     0
  0
CLASS
  1
LWPOLYLINE
  2
AcDbPolyline
  3
AutoCAD 2000
 90
        0
280
     0
281
     1
  0
CLASS
  1
HATCH
  2
AcDbHatch
  3
AutoCAD 2000
 90
        0
280
     0
281
     1
  0
CLASS
  1
XRECORD
  2
AcDbXrecord
  3
AutoCAD 2000
 90
        0
280
     0
281
     0
  0
CLASS
  1
LONG_TRANSACTION
  2
AcDbLongTransaction
  3
AutoCAD 2000
 90
        0
280
     0
281
     0
  0
CLASS
  1
LWPOLYLINE
  2
AcDbPolyline
  3
AutoCAD 2000
 90
        0
280
     0
281
     1
  0
CLASS
  1
HATCH
  2
AcDbHatch
  3
AutoCAD 2000
 90
        0
280
     0
281
     1
  0
CLASS
  1
XRECORD
  2
AcDbXrecord
  3
AutoCAD 2000
 90
        0
280
     0
281
     0
  0
CLASS
  1
LONG_TRANSACTION
  2
AcDbLongTransaction
  3
AutoCAD 2000
 90
        0
280
     0
281
     0
  0
CLASS
  1
LWPOLYLINE
  2
AcDbPolyline
  3
AutoCAD 2000
 90
        0
280
     0
281
     1
  0
CLASS
  1
HATCH
  2
AcDbHatch
  3
AutoCAD 2000
 90
        0
280
     0
281
     1
  0
CLASS
  1
XRECORD
  2
AcDbXrecord
  3
AutoCAD 2000
 90
        0
280
     0
281
     0
  0
CLASS
  1
LONG_TRANSACTION
  2
AcDbLongTransaction
  3
AutoCAD 2000
 90
        0
280
     0
281
     0
  0
CLASS
  1
LWPOLYLINE
  2
AcDbPolyline
  3
AutoCAD 2000
 90
        0
280
     0
281
     1
  0
CLASS
  1
HATCH
  2
AcDbHatch
  3
AutoCAD 2000
 90
        0
280
     0
281
     1
  0
CLASS
  1
XRECORD
  2
AcDbXrecord
  3
AutoCAD 2000
 90
        0
280
     0
281
     0
  0
CLASS
  1
LONG_TRANSACTION
  2
AcDbLongTransaction
  3
AutoCAD 2000
 90
        0
280
     0
281
     0
  0
CLASS
  1
LWPOLYLINE
  2
AcDbPolyline
  3
AutoCAD 2000
 90
        0
280
     0
281
     1
  0
CLASS
  1
HATCH
  2
AcDbHatch
  3
AutoCAD 2000
 90
        0
280
     0
281
     1
  0
CLASS
  1
XRECORD
  2
AcDbXrecord
  3
AutoCAD 2000
 90
        0
280
     0
281
     0
  0
CLASS
  1
LONG_TRANSACTION
  2
AcDbLongTransaction
  3
AutoCAD 2000
 90
        0
280
     0
281
     0
  0
CLASS
  1
LWPOLYLINE
  2
AcDbPolyline
  3
AutoCAD 2000
 90
        0
280
     0
281
     1
  0
CLASS
  1
HATCH
  2
AcDbHatch
  3
AutoCAD 2000
 90
        0
280
     0
281
     1
  0
CLASS
  1
XRECORD
  2
AcDbXrecord
  3
AutoCAD 2000
 90
        0
280
     0
281
     0
  0
CLASS
  1
LONG_TRANSACTION
  2
AcDbLongTransaction
  3
AutoCAD 2000
 90
        0
280
     0
281
     0
  0
CLASS
  1
LWPOLYLINE
  2
AcDbPolyline
  3
AutoCAD 2000
 90
        0
280
     0
281
     1
  0
CLASS
  1
HATCH
  2
AcDbHatch
  3
AutoCAD 2000
 90
        0
280
     0
281
     1
  0
CLASS
  1
XRECORD
  2
AcDbXrecord
  3
AutoCAD 2000
 90
        0
280
     0
281
     0
  0
CLASS
  1
LONG_TRANSACTION
  2
AcDbLongTransaction
  3
AutoCAD 2000
 90
        0
280
     0
281
     0
  0
CLASS
  1
LWPOLYLINE
  2
AcDbPolyline
  3
AutoCAD 2000
 90
        0
280
     0
281
     1
  0
CLASS
  1
HATCH
  2
AcDbHatch
  3
AutoCAD 2000
 90
        0
280
     0
281
     1
  0
CLASS
  1
XRECORD
  2
AcDbXrecord
  3
AutoCAD 2000
 90
        0
280
     0
281
     0
  0
CLASS
  1
LONG_TRANSACTION
  2
AcDbLongTransaction
  3
AutoCAD 2000
 90
        0
280
     0
281
     0
  0
CLASS
  1
LWPOLYLINE
  2
AcDbPolyline
  3
AutoCAD 2000
 90
        0
280
     0
281
     1
  0
CLASS
  1
HATCH
  2
AcDbHatch
  3
AutoCAD 2000
 90
        0
280
     0
281
     1
  0
CLASS
  1
XRECORD
  2
AcDbXrecord
  3
AutoCAD 2000
 90
        0
280
     0
281
     0
  0
CLASS
  1
LONG_TRANSACTION
  2
AcDbLongTransaction
  3
AutoCAD 2000
 90
        0
280
     0
281
     0
  0
CLASS
  1
LWPOLYLINE
  2
AcDbPolyline
  3
AutoCAD 2000
 90
        0
280
     0
281
     1
  0
CLASS
  1
HATCH
  2
AcDbHatch
  3
AutoCAD 2000
 90
        0
280
     0
281
     1
  0
CLASS
  1
XRECORD
  2
AcDbXrecord
  3
AutoCAD 2000
 90
        0
280
     0
281
     0
  0
CLASS
  1
LONG_TRANSACTION
  2
AcDbLongTransaction
  3
AutoCAD 2000
 90
        0
280
     0
281
     0
  0
CLASS
  1
LWPOLYLINE
  2
AcDbPolyline
  3
AutoCAD 2000
 90
        0
280
     0
281
     1
  0
CLASS
  1
HATCH
  2
AcDbHatch
  3
AutoCAD 2000
 90
        0
280
     0
281
     1
  0
CLASS
  1
XRECORD
  2
AcDbXrecord
  3
AutoCAD 2000
 90
        0
280
     0
281
     0
  0
CLASS
  1
LONG_TRANSACTION
  2
AcDbLongTransaction
  3
AutoCAD 2000
 90
        0
280
     0
281
     0
  0
CLASS
  1
LWPOLYLINE
  2
AcDbPolyline
  3
AutoCAD 2000
 90
        0
280
     0
281
     1
  0
CLASS
  1
HATCH
  2
AcDbHatch
  3
AutoCAD 2000
 90
        0
280
     0
281
     1
  0
CLASS
  1
XRECORD
  2
AcDbXrecord
  3
AutoCAD 2000
 90
        0
280
     0
281
     0
  0
CLASS
  1
LONG_TRANSACTION
  2
AcDbLongTransaction
  3
AutoCAD 2000
 90
        0
280
     0
281
     0
  0
CLASS
  1
LWPOLYLINE
  2
AcDbPolyline
  3
AutoCAD 2000
 90
        0
280
     0
281
     1
  0
CLASS
  1
HATCH
  2
AcDbHatch
  3
AutoCAD 2000
 90
        0
280
     0
281
     1
  0
CLASS
  1
XRECORD
  2
AcDbXrecord
  3
AutoCAD 2000
 90
        0
280
     0
281
     0
  0
CLASS
  1
LONG_TRANSACTION
  2
AcDbLongTransaction
  3
AutoCAD 2000
 90
        0
280
     0
281
     0
  0
CLASS
  1
LWPOLYLINE
  2
AcDbPolyline
  3
AutoCAD 2000
 90
        0
280
     0
281
     1
  0
CLASS
  1
HATCH
  2
AcDbHatch
  3
AutoCAD 2000
 90
        0
280
     0
281
     1
  0
CLASS
  1
XRECORD
  2
AcDbXrecord
  3
AutoCAD 2000
 90
        0
280
     0
281
     0
  0
CLASS
  1
LONG_TRANSACTION
  2
AcDbLongTransaction
  3
AutoCAD 2000
 90
        0
280
     0
281
     0
  0
CLASS
  1
LWPOLYLINE
  2
AcDbPolyline
  3
AutoCAD 2000
 90
        0
280
     0
281
     1
  0
CLASS
  1
HATCH
  2
AcDbHatch
  3
AutoCAD 2000
 90
        0
280
     0
281
     1
  0
CLASS
  1
XRECORD
  2
AcDbXrecord
  3
AutoCAD 2000
 90
        0
280
     0
281
     0
  0
CLASS
  1
LONG_TRANSACTION
  2
AcDbLongTransaction
  3
AutoCAD 2000
 90
        0
280
     0
281
     0
  0
CLASS
  1
LWPOLYLINE
  2
AcDbPolyline
  3
AutoCAD 2000
 90
        0
280
     0
281
     1
  0
CLASS
  1
HATCH
  2
AcDbHatch
  3
AutoCAD 2000
 90
        0
280
     0
281
     1
  0
CLASS
  1
XRECORD
  2
AcDbXrecord
  3
AutoCAD 2000
 90
        0
280
     0
281
     0
  0
CLASS
  1
LONG_TRANSACTION
  2
AcDbLongTransaction
  3
AutoCAD 2000
 90
        0
280
     0
281
     0
  0
CLASS
  1
LWPOLYLINE
  2
AcDbPolyline
  3
AutoCAD 2000
 90
        0
280
     0
281
     1
  0
CLASS
  1
HATCH
  2
AcDbHatch
  3
AutoCAD 2000
 90
        0
280
     0
281
     1
  0
CLASS
  1
XRECORD
  2
AcDbXrecord
  3
AutoCAD 2000
 90
        0
280
     0
281
     0
  0
CLASS
  1
LONG_TRANSACTION
  2
AcDbLongTransaction
  3
AutoCAD 2000
 90
        0
280
     0
281
     0
  0
CLASS
  1
LWPOLYLINE
  2
AcDbPolyline
  3
AutoCAD 2000
 90
        0
280
     0
281
     1
  0
CLASS
  1
HATCH
  2
AcDbHatch
  3
AutoCAD 2000
 90
        0
280
     0
281
     1
  0
CLASS
  1
XRECORD
  2
AcDbXrecord
  3
AutoCAD 2000
 90
        0
280
     0
281
     0
  0
CLASS
  1
LONG_TRANSACTION
  2
AcDbLongTransaction
  3
AutoCAD 2000
 90
        0
280
     0
281
     0
  0
CLASS
  1
LWPOLYLINE
  2
AcDbPolyline
  3
AutoCAD 2000
 90
        0
280
     0
281
     1
  0
CLASS
  1
HATCH
  2
AcDbHatch
  3
AutoCAD 2000
 90
        0
280
     0
281
     1
  0
CLASS
  1
XRECORD
  2
AcDbXrecord
  3
AutoCAD 2000
 90
        0
280
     0
281
     0
  0
CLASS
  1
LONG_TRANSACTION
  2
AcDbLongTransaction
  3
AutoCAD 2000
 90
        0
280
     0
281
     0
  0
CLASS
  1
LWPOLYLINE
  2
AcDbPolyline
  3
AutoCAD 2000
 90
        0
280
     0
281
     1
  0
CLASS
  1
HATCH
  2
AcDbHatch
  3
AutoCAD 2000
 90
        0
280
     0
281
     1
  0
CLASS
  1
XRECORD
  2
AcDbXrecord
  3
AutoCAD 2000
 90
        0
280
     0
281
     0
  0
CLASS
  1
DICTIONARYVAR
  2
AcDbDictionaryVar
  3
AutoCAD 2000
 90
        0
280
     0
281
     0
  0
CLASS
  1
LONG_TRANSACTION
  2
AcDbLongTransaction
  3
AutoCAD 2000
 90
        0
280
     0
281
     0
  0
CLASS
  1
LWPOLYLINE
  2
AcDbPolyline
  3
AutoCAD 2000
 90
        0
280
     0
281
     1
  0
CLASS
  1
HATCH
  2
AcDbHatch
  3
AutoCAD 2000
 90
        0
280
     0
281
     1
  0
CLASS
  1
XRECORD
  2
AcDbXrecord
  3
AutoCAD 2000
 90
        0
280
     0
281
     0
  0
CLASS
  1
LONG_TRANSACTION
  2
AcDbLongTransaction
  3
AutoCAD 2000
 90
        0
280
     0
281
     0
  0
CLASS
  1
LWPOLYLINE
  2
AcDbPolyline
  3
AutoCAD 2000
 90
        0
280
     0
281
     1
  0
CLASS
  1
HATCH
  2
AcDbHatch
  3
AutoCAD 2000
 90
        0
280
     0
281
     1
  0
CLASS
  1
XRECORD
  2
AcDbXrecord
  3
AutoCAD 2000
 90
        0
280
     0
281
     0
  0
CLASS
  1
LONG_TRANSACTION
  2
AcDbLongTransaction
  3
AutoCAD 2000
 90
        0
280
     0
281
     0
  0
CLASS
  1
LWPOLYLINE
  2
AcDbPolyline
  3
AutoCAD 2000
 90
        0
280
     0
281
     1
  0
CLASS
  1
HATCH
  2
AcDbHatch
  3
AutoCAD 2000
 90
        0
280
     0
281
     1
  0
CLASS
  1
XRECORD
  2
AcDbXrecord
  3
AutoCAD 2000
 90
        0
280
     0
281
     0
  0
CLASS
  1
LONG_TRANSACTION
  2
AcDbLongTransaction
  3
AutoCAD 2000
 90
        0
280
     0
281
     0
  0
CLASS
  1
LWPOLYLINE
  2
AcDbPolyline
  3
AutoCAD 2000
 90
        0
280
     0
281
     1
  0
CLASS
  1
HATCH
  2
AcDbHatch
  3
AutoCAD 2000
 90
        0
280
     0
281
     1
  0
CLASS
  1
XRECORD
  2
AcDbXrecord
  3
AutoCAD 2000
 90
        0
280
     0
281
     0
  0
ENDSEC
  0
SECTION
  2
TABLES
  0
TABLE
  2
VPORT
  5
8
330
0
100
AcDbSymbolTable
 70
     3
  0
VPORT
  5
7DFF
330
8
100
AcDbSymbolTableRecord
100
AcDbViewportTableRecord
  2
*ACTIVE
 70
     0
 10
0.0
 20
0.0
 11
1.0
 21
1.0
 12
136.1448242827517
 22
-19.12534341688103
 13
0.0
 23
0.0
 14
1.0
 24
1.0
 15
10.0
 25
10.0
 16
0.0
 26
0.0
 36
1.0
 17
0.0
 27
0.0
 37
0.0
 40
701.0106504141988
 41
2.290023201856148
 42
50.0
 43
0.0
 44
0.0
 50
0.0
 51
0.0
 71
     0
 72
   100
 73
     1
 74
     1
 75
     0
 76
     0
 77
     0
 78
     0
  0
ENDTAB
  0
TABLE
  2
LTYPE
  5
5
330
0
100
AcDbSymbolTable
 70
     9
  0
LTYPE
  5
13
330
5
100
AcDbSymbolTableRecord
100
AcDbLinetypeTableRecord
  2
BYBLOCK
 70
     0
  3

 72
    65
 73
     0
 40
0.0
  0
LTYPE
  5
14
330
5
100
AcDbSymbolTableRecord
100
AcDbLinetypeTableRecord
  2
BYLAYER
 70
     0
  3

 72
    65
 73
     0
 40
0.0
  0
LTYPE
  5
15
330
5
100
AcDbSymbolTableRecord
100
AcDbLinetypeTableRecord
  2
CONTINUOUS
 70
     0
  3
Solid line
 72
    65
 73
     0
 40
0.0
  0
LTYPE
  5
22
330
5
100
AcDbSymbolTableRecord
100
AcDbLinetypeTableRecord
  2
CONTINOUS
 70
     0
  3
Solid line
 72
    65
 73
     0
 40
0.0
  0
LTYPE
  5
23
330
5
100
AcDbSymbolTableRecord
100
AcDbLinetypeTableRecord
  2
DASHED
 70
     0
  3
__ __ __ __ __ __ __ __ __ __ __ __ __ __ __
 72
    65
 73
     2
 40
0.75
 49
0.5
 74
     0
 49
-0.25
 74
     0
  0
LTYPE
  5
24
330
5
100
AcDbSymbolTableRecord
100
AcDbLinetypeTableRecord
  2
DASHDOT
 70
     0
  3
__ . __ . __ . __ . __ . __ . __ . __ . __ . __
 72
    65
 73
     4
 40
1.0
 49
0.5
 74
     0
 49
-0.25
 74
     0
 49
0.0
 74
     0
 49
-0.25
 74
     0
  0
LTYPE
  5
429E
330
5
100
AcDbSymbolTableRecord
100
AcDbLinetypeTableRecord
  2
DIVIDE
 70
     0
  3
Divide ____ . . ____ . . ____ . . ____ . . ____
 72
    65
 73
     6
 40
1.25
 49
0.5
 74
     0
 49
-0.25
 74
     0
 49
0.0
 74
     0
 49
-0.25
 74
     0
 49
0.0
 74
     0
 49
-0.25
 74
     0
  0
LTYPE
  5
4953
330
5
100
AcDbSymbolTableRecord
100
AcDbLinetypeTableRecord
  2
D329
 70
     0
  3
IGESIN-LineFont-D329
 72
    65
 73
     2
 40
1.35
 49
0.75
 74
     0
 49
-0.6
 74
     0
  0
LTYPE
  5
4954
330
5
100
AcDbSymbolTableRecord
100
AcDbLinetypeTableRecord
  2
D341
 70
     0
  3
IGESIN-LineFont-D341
 72
    65
 73
     4
 40
9.449999999999999
 49
7.5
 74
     0
 49
-0.6
 74
     0
 49
0.75
 74
     0
 49
-0.6
 74
     0
  0
LTYPE
  5
5D1E
330
5
100
AcDbSymbolTableRecord
100
AcDbLinetypeTableRecord
  2
CENTER
 70
     0
  3
Center ____ _ ____ _ ____ _ ____ _ ____ _ ____
 72
    65
 73
     4
 40
50.8
 49
31.75
 74
     0
 49
-6.349999999999997
 74
     0
 49
6.349999999999997
 74
     0
 49
-6.349999999999997
 74
     0
  0
LTYPE
  5
6214
330
5
100
AcDbSymbolTableRecord
100
AcDbLinetypeTableRecord
  2
PHANTOM
 70
     0
  3
Phantom ______  __  __  ______  __  __  ______
 72
    65
 73
     6
 40
63.5
 49
31.75
 74
     0
 49
-6.349999999999997
 74
     0
 49
6.349999999999997
 74
     0
 49
-6.349999999999997
 74
     0
 49
6.349999999999997
 74
     0
 49
-6.349999999999997
 74
     0
  0
ENDTAB
  0
TABLE
  2
LAYER
  5
2
330
0
100
AcDbSymbolTable
 70
    21
  0
LAYER
  5
10
330
2
100
AcDbSymbolTableRecord
100
AcDbLayerTableRecord
  2
0
 70
     0
 62
     7
  6
CONTINOUS
  0
LAYER
  5
2F
330
2
100
AcDbSymbolTableRecord
100
AcDbLayerTableRecord
  2
10
 70
     0
 62
     4
  6
CONTINOUS
  0
LAYER
  5
31
330
2
100
AcDbSymbolTableRecord
100
AcDbLayerTableRecord
  2
12
 70
     0
 62
     3
  6
CONTINOUS
  0
LAYER
  5
35
330
2
100
AcDbSymbolTableRecord
100
AcDbLayerTableRecord
  2
16
 70
     0
 62
     6
  6
DASHDOT
  0
LAYER
  5
36
330
2
100
AcDbSymbolTableRecord
100
AcDbLayerTableRecord
  2
17
 70
     0
 62
     2
  6
DASHDOT
  0
LAYER
  5
38
330
2
100
AcDbSymbolTableRecord
100
AcDbLayerTableRecord
  2
19
 70
     0
 62
     7
  6
CONTINOUS
  0
LAYER
  5
3C
330
2
100
AcDbSymbolTableRecord
100
AcDbLayerTableRecord
  2
11
 70
     0
 62
     1
  6
CONTINOUS
  0
LAYER
  5
3D
330
2
100
AcDbSymbolTableRecord
100
AcDbLayerTableRecord
  2
24
 70
     0
 62
     2
  6
CONTINOUS
  0
LAYER
  5
3A2
330
2
100
AcDbSymbolTableRecord
100
AcDbLayerTableRecord
  2
30
 70
     0
 62
     9
  6
CONTINUOUS
  0
LAYER
  5
3A4
330
2
100
AcDbSymbolTableRecord
100
AcDbLayerTableRecord
  2
DEFPOINTS
 70
     0
 62
     7
  6
CONTINUOUS
  0
LAYER
  5
3BBA
330
2
100
AcDbSymbolTableRecord
100
AcDbLayerTableRecord
  2
18
 70
     0
 62
     5
  6
DIVIDE
  0
LAYER
  5
3BBB
330
2
100
AcDbSymbolTableRecord
100
AcDbLayerTableRecord
  2
21
 70
     0
 62
     7
  6
CONTINUOUS
  0
LAYER
  5
40E3
330
2
100
AcDbSymbolTableRecord
100
AcDbLayerTableRecord
  2
22
 70
     0
 62
     3
  6
CONTINUOUS
  0
LAYER
  5
50DB
330
2
100
AcDbSymbolTableRecord
100
AcDbLayerTableRecord
  2
L210_
 70
     0
 62
     7
  6
CONTINUOUS
  0
LAYER
  5
5CBF
330
2
100
AcDbSymbolTableRecord
100
AcDbLayerTableRecord
  2
1F
 70
     0
 62
     6
  6
CONTINUOUS
  0
LAYER
  5
7419
330
2
100
AcDbSymbolTableRecord
100
AcDbLayerTableRecord
  2
1
 70
     0
 62
   130
  6
CONTINUOUS
  0
LAYER
  5
7D34
330
2
100
AcDbSymbolTableRecord
100
AcDbLayerTableRecord
  2
63
 70
     0
 62
    10
  6
CONTINUOUS
  0
LAYER
  5
7D35
330
2
100
AcDbSymbolTableRecord
100
AcDbLayerTableRecord
  2
88
 70
     0
 62
   190
  6
CONTINUOUS
  0
LAYER
  5
7D36
330
2
100
AcDbSymbolTableRecord
100
AcDbLayerTableRecord
  2
159
 70
     0
 62
   232
  6
CONTINUOUS
  0
LAYER
  5
7D37
330
2
100
AcDbSymbolTableRecord
100
AcDbLayerTableRecord
  2
LY_256
 70
     0
 62
     7
  6
CONTINUOUS
  0
LAYER
  5
7D8B
330
2
100
AcDbSymbolTableRecord
100
AcDbLayerTableRecord
  2
151
 70
     0
 62
   130
  6
CONTINUOUS
  0
ENDTAB
  0
TABLE
  2
STYLE
  5
3
330
0
100
AcDbSymbolTable
 70
     7
  0
STYLE
  5
11
330
3
100
AcDbSymbolTableRecord
100
AcDbTextStyleTableRecord
  2
STANDARD
 70
     0
 40
0.0
 41
1.0
 50
0.0
 71
     0
 42
2.0
  3
txt.shx
  4
bigfont.shx
  0
STYLE
  5
42
330
3
100
AcDbSymbolTableRecord
100
AcDbTextStyleTableRecord
  2
STANDARD1
 70
     0
 40
0.0
 41
1.0
 50
0.0
 71
     0
 42
5.0
  3
MONOTXT
  4
BIGFONT
  0
STYLE
  5
429D
330
3
100
AcDbSymbolTableRecord
100
AcDbTextStyleTableRecord
  2

 70
     1
 40
0.0
 41
1.0
 50
0.0
 71
     0
 42
5.0
  3
ltypeshp.shx
  4

  0
STYLE
  5
4955
330
3
100
AcDbSymbolTableRecord
100
AcDbTextStyleTableRecord
  2
SYMBOL3
 70
     0
 40
0.0
 41
1.0
 50
0.0
 71
     0
 42
0.2
  3
iges1003
  4

  0
STYLE
  5
4DA3
330
3
100
AcDbSymbolTableRecord
100
AcDbTextStyleTableRecord
  2
LEROY
 70
     0
 40
0.0
 41
1.0
 50
0.0
 71
     0
 42
0.2
  3
txt
  4

  0
STYLE
  5
5CC0
330
3
100
AcDbSymbolTableRecord
100
AcDbTextStyleTableRecord
  2
SMP-SET
 70
     0
 40
0.0
 41
1.0
 50
0.0
 71
     0
 42
3.0
  3
SIMPLEX
  4
BIGFONT
  0
STYLE
  5
5FC4
330
3
100
AcDbSymbolTableRecord
100
AcDbTextStyleTableRecord
  2
MX_NOTE_STANDARD
 70
     0
 40
0.0
 41
1.0
 50
0.0
 71
     0
 42
8.3312
  3
txt.shx
  4
extfont.shx
  0
ENDTAB
  0
TABLE
  2
VIEW
  5
6
330
0
100
AcDbSymbolTable
 70
     4
  0
VIEW
  5
230C
330
6
100
AcDbSymbolTableRecord
100
AcDbViewTableRecord
  2
OLE1
 70
     0
 40
148.9124878027714
 10
429.4976280407222
 20
2.560626997828478
 41
103.1458057716444
 11
0.0
 21
0.0
 31
1.0
 12
0.0
 22
0.0
 32
0.0
 42
50.0
 43
0.0
 44
0.0
 50
0.0
 71
     0
  0
VIEW
  5
230E
330
6
100
AcDbSymbolTableRecord
100
AcDbViewTableRecord
  2
OLE2
 70
     0
 40
170.7786920545775
 10
322.664969958371
 20
-5.978304054290276
 41
102.4672152327465
 11
0.0
 21
0.0
 31
1.0
 12
0.0
 22
0.0
 32
0.0
 42
50.0
 43
0.0
 44
0.0
 50
0.0
 71
     0
  0
VIEW
  5
23AA
330
6
100
AcDbSymbolTableRecord
100
AcDbViewTableRecord
  2
OLE3
 70
     0
 40
591.7897393182231
 10
84.79698158148218
 20
-46.09336010803995
 41
388.7920961799953
 11
0.0
 21
0.0
 31
1.0
 12
0.0
 22
0.0
 32
0.0
 42
50.0
 43
0.0
 44
0.0
 50
0.0
 71
     0
  0
VIEW
  5
4402
330
6
100
AcDbSymbolTableRecord
100
AcDbViewTableRecord
  2
OLE4
 70
     0
 40
151.7917771380923
 10
15.38766885376364
 20
-193.752550173716
 41
398.5527551557765
 11
0.0
 21
0.0
 31
1.0
 12
0.0
 22
0.0
 32
0.0
 42
50.0
 43
0.0
 44
0.0
 50
0.0
 71
     0
  0
ENDTAB
  0
TABLE
  2
UCS
  5
7
330
0
100
AcDbSymbolTable
 70
     0
  0
ENDTAB
  0
TABLE
  2
APPID
  5
9
330
0
100
AcDbSymbolTable
 70
     2
  0
APPID
  5
12
330
9
100
AcDbSymbolTableRecord
100
AcDbRegAppTableRecord
  2
ACAD
 70
     0
  0
APPID
  5
ECD
330
9
100
AcDbSymbolTableRecord
100
AcDbRegAppTableRecord
  2
CONTENTBLOCKICON
 70
     0
  0
ENDTAB
  0
TABLE
  2
DIMSTYLE
  5
A
330
0
100
AcDbSymbolTable
 70
     4
  0
DIMSTYLE
105
175
102
{ACAD_REACTORS
330
79C9
330
79C8
330
79CA
330
79CB
330
79CC
330
79C7
330
79CD
330
7A67
330
7A66
330
7A65
330
7A69
330
7A68
330
7B09
330
7B0A
330
7B40
330
7B42
330
7B41
330
7B52
330
7BB2
330
7BB3
330
7C03
330
7C06
102
}
330
A
100
AcDbSymbolTableRecord
100
AcDbDimStyleTableRecord
  2
STANDARD
 70
     0
  3

  4

  5
OPEN
  6

  7

 40
1.0
 41
2.0
 42
1.0
 43
0.5
 44
0.5
 45
0.0
 46
0.0
 47
0.0
 48
0.0
140
4.0
141
0.09
142
0.0
143
25.4
144
1.0
145
0.0
146
1.0
147
1.0
 71
     0
 72
     0
 73
     0
 74
     0
 75
     0
 76
     0
 77
     3
 78
    12
170
     0
171
     2
172
     0
173
     0
174
     0
175
     0
176
     0
177
     0
178
     0
270
     2
271
     1
272
     1
273
     2
274
     2
340
11
275
     0
280
     0
281
     0
282
     0
283
     1
284
     0
285
     0
286
     0
287
     3
288
     0
  0
DIMSTYLE
105
5CC1
330
A
100
AcDbSymbolTableRecord
100
AcDbDimStyleTableRecord
  2
FSTD1
 70
     0
  3

  4

  5

  6
OPEN
  7
OPEN
 40
1.0
 41
4.0
 42
1.0
 43
0.38
 44
1.0
 45
0.0
 46
0.0
 47
0.0
 48
0.0
140
5.0
141
0.09
142
0.0
143
25.4
144
1.0
145
0.0
146
1.0
147
1.5
 71
     0
 72
     0
 73
     0
 74
     0
 75
     0
 76
     0
 77
     1
 78
     0
170
     0
171
     2
172
     1
173
     1
174
     0
175
     0
176
     0
177
     0
178
     0
270
     2
271
     4
272
     4
273
     2
274
     2
340
11
275
     0
280
     0
281
     0
282
     0
283
     1
284
     0
285
     0
286
     0
287
     3
288
     0
  0
DIMSTYLE
105
5D1F
330
A
100
AcDbSymbolTableRecord
100
AcDbDimStyleTableRecord
  2
1
 70
     0
  3

  4

  5

  6
OPEN
  7
OPEN
 40
1.0
 41
4.0
 42
1.0
 43
3.75
 44
1.0
 45
0.0
 46
0.0
 47
0.0
 48
0.0
140
5.0
141
2.5
142
0.0
143
0.0394
144
1.0
145
0.0
146
1.0
147
1.5
 71
     0
 72
     0
 73
     0
 74
     0
 75
     0
 76
     0
 77
     1
 78
     8
170
     0
171
     4
172
     1
173
     1
174
     0
175
     0
176
     0
177
     0
178
     0
270
     2
271
     4
272
     4
273
     2
274
     2
340
11
275
     0
280
     0
281
     0
282
     0
283
     1
284
     0
285
     0
286
     0
287
     3
288
     0
  0
DIMSTYLE
105
741A
330
A
100
AcDbSymbolTableRecord
100
AcDbDimStyleTableRecord
  2
MXDIMSTYLE
 70
     0
  3

  4

  5

  6

  7

 40
1.0
 41
2.5
 42
0.5
 43
3.75
 44
1.0
 45
0.0
 46
0.0
 47
0.0
 48
0.0
140
4.1656
141
2.5
142
0.0
143
0.03937
144
1.0
145
0.0
146
1.0
147
1.0
 71
     0
 72
     0
 73
     0
 74
     0
 75
     0
 76
     0
 77
     1
 78
     8
170
     0
171
     4
172
     1
173
     0
174
     0
175
     0
176
     0
177
     0
178
     0
270
     2
271
     4
272
     4
273
     2
274
     4
340
5FC4
275
     0
280
     0
281
     0
282
     0
283
     1
284
     0
285
     0
286
     0
287
     3
288
     1
  0
ENDTAB
  0
TABLE
  2
BLOCK_RECORD
  5
1
330
0
100
AcDbSymbolTable
 70
    25
  0
BLOCK_RECORD
  5
1E
102
{ACAD_XDICTIONARY
360
178
102
}
330
1
100
AcDbSymbolTableRecord
100
AcDbBlockTableRecord
  2
*MODEL_SPACE
  0
BLOCK_RECORD
  5
1A
102
{ACAD_XDICTIONARY
360
17A
102
}
330
1
100
AcDbSymbolTableRecord
100
AcDbBlockTableRecord
  2
*PAPER_SPACE
  0
BLOCK_RECORD
  5
3B2
330
1
100
AcDbSymbolTableRecord
100
AcDbBlockTableRecord
  2
_OPEN
  0
BLOCK_RECORD
  5
79D2
330
1
100
AcDbSymbolTableRecord
100
AcDbBlockTableRecord
  2
*D1
  0
BLOCK_RECORD
  5
79DE
330
1
100
AcDbSymbolTableRecord
100
AcDbBlockTableRecord
  2
*D2
  0
BLOCK_RECORD
  5
79EA
330
1
100
AcDbSymbolTableRecord
100
AcDbBlockTableRecord
  2
*D3
  0
BLOCK_RECORD
  5
79F6
330
1
100
AcDbSymbolTableRecord
100
AcDbBlockTableRecord
  2
*D4
  0
BLOCK_RECORD
  5
7A02
330
1
100
AcDbSymbolTableRecord
100
AcDbBlockTableRecord
  2
*D5
  0
BLOCK_RECORD
  5
7A0E
330
1
100
AcDbSymbolTableRecord
100
AcDbBlockTableRecord
  2
*D6
  0
BLOCK_RECORD
  5
7A1A
330
1
100
AcDbSymbolTableRecord
100
AcDbBlockTableRecord
  2
*D7
  0
BLOCK_RECORD
  5
7A6A
330
1
100
AcDbSymbolTableRecord
100
AcDbBlockTableRecord
  2
*D8
  0
BLOCK_RECORD
  5
7A76
330
1
100
AcDbSymbolTableRecord
100
AcDbBlockTableRecord
  2
*D9
  0
BLOCK_RECORD
  5
7A82
330
1
100
AcDbSymbolTableRecord
100
AcDbBlockTableRecord
  2
*D10
  0
BLOCK_RECORD
  5
7A8E
330
1
100
AcDbSymbolTableRecord
100
AcDbBlockTableRecord
  2
*D11
  0
BLOCK_RECORD
  5
7A9A
330
1
100
AcDbSymbolTableRecord
100
AcDbBlockTableRecord
  2
*D12
  0
BLOCK_RECORD
  5
7B0B
330
1
100
AcDbSymbolTableRecord
100
AcDbBlockTableRecord
  2
*D13
  0
BLOCK_RECORD
  5
7B17
330
1
100
AcDbSymbolTableRecord
100
AcDbBlockTableRecord
  2
*D14
  0
BLOCK_RECORD
  5
7B53
330
1
100
AcDbSymbolTableRecord
100
AcDbBlockTableRecord
  2
*D15
  0
BLOCK_RECORD
  5
7B5F
330
1
100
AcDbSymbolTableRecord
100
AcDbBlockTableRecord
  2
*D16
  0
BLOCK_RECORD
  5
7B6B
330
1
100
AcDbSymbolTableRecord
100
AcDbBlockTableRecord
  2
*D17
  0
BLOCK_RECORD
  5
7B77
330
1
100
AcDbSymbolTableRecord
100
AcDbBlockTableRecord
  2
*D18
  0
BLOCK_RECORD
  5
7BB5
330
1
100
AcDbSymbolTableRecord
100
AcDbBlockTableRecord
  2
*D19
  0
BLOCK_RECORD
  5
7BC1
330
1
100
AcDbSymbolTableRecord
100
AcDbBlockTableRecord
  2
*D20
  0
BLOCK_RECORD
  5
7C08
330
1
100
AcDbSymbolTableRecord
100
AcDbBlockTableRecord
  2
*D21
  0
BLOCK_RECORD
  5
7C14
330
1
100
AcDbSymbolTableRecord
100
AcDbBlockTableRecord
  2
*D22
  0
BLOCK_RECORD
  5
7D38
330
1
100
AcDbSymbolTableRecord
100
AcDbBlockTableRecord
  2
A$C7E487736
  0
ENDTAB
  0
ENDSEC
  0
SECTION
  2
BLOCKS
  0
BLOCK
  5
1F
330
1E
100
AcDbEntity
  8
0
100
AcDbBlockBegin
  2
*MODEL_SPACE
 70
     0
 10
0.0
 20
0.0
 30
0.0
  3
*MODEL_SPACE
  1

  0
ENDBLK
  5
20
330
1E
100
AcDbEntity
  8
0
100
AcDbBlockEnd
  0
BLOCK
  5
1B
330
1A
100
AcDbEntity
 67
     1
  8
0
100
AcDbBlockBegin
  2
*PAPER_SPACE
 70
     0
 10
0.0
 20
0.0
 30
0.0
  3
*PAPER_SPACE
  1

  0
ENDBLK
  5
1C
330
1A
100
AcDbEntity
 67
     1
  8
0
100
AcDbBlockEnd
  0
BLOCK
  5
3B6
330
3B2
100
AcDbEntity
  8
0
100
AcDbBlockBegin
  2
_OPEN
 70
     0
 10
0.0
 20
0.0
 30
0.0
  3
_OPEN
  1

  0
LINE
  5
3B3
330
3B2
100
AcDbEntity
  8
30
  6
CONTINUOUS
 62
     0
100
AcDbLine
 10
-1.0
 20
0.1666666666666666
 30
0.0
 11
0.0
 21
0.0
 31
0.0
  0
LINE
  5
3B4
330
3B2
100
AcDbEntity
  8
30
  6
CONTINUOUS
 62
     0
100
AcDbLine
 10
-1.0
 20
-0.1666666666666666
 30
0.0
 11
0.0
 21
0.0
 31
0.0
  0
LINE
  5
3B5
330
3B2
100
AcDbEntity
  8
30
  6
CONTINUOUS
 62
     0
100
AcDbLine
 10
0.0
 20
0.0
 30
0.0
 11
-1.0
 21
0.0
 31
0.0
  0
ENDBLK
  5
3B7
330
3B2
100
AcDbEntity
  8
0
100
AcDbBlockEnd
  0
BLOCK
  5
79DC
330
79D2
100
AcDbEntity
  8
0
100
AcDbBlockBegin
  2
*D1
 70
     1
 10
0.0
 20
0.0
 30
0.0
  3
*D1
  1

  0
LINE
  5
7E35
330
79D2
100
AcDbEntity
  8
30
  6
CONTINUOUS
 62
     0
100
AcDbLine
 10
329.4098376938626
 20
-95.88342753323003
 30
0.0
 11
329.4098376938626
 21
-138.9136948112074
 31
0.0
  0
LINE
  5
7E36
330
79D2
100
AcDbEntity
  8
30
  6
CONTINUOUS
 62
     0
100
AcDbLine
 10
337.4098376938627
 20
-90.95513553323003
 30
0.0
 11
337.4098376938627
 21
-138.9136948112074
 31
0.0
  0
LINE
  5
7E37
330
79D2
100
AcDbEntity
  8
30
  6
CONTINUOUS
 62
     0
100
AcDbLine
 10
331.4098376938626
 20
-138.4136948112074
 30
0.0
 11
335.4098376938627
 21
-138.4136948112074
 31
0.0
  0
INSERT
  5
7E38
330
79D2
100
AcDbEntity
  8
30
  6
CONTINUOUS
 62
     0
100
AcDbBlockReference
  2
_OPEN
 10
329.4098376938626
 20
-138.4136948112074
 30
0.0
 41
2.0
 42
2.0
 43
2.0
 50
180.0
  0
INSERT
  5
7E39
330
79D2
100
AcDbEntity
  8
30
  6
CONTINUOUS
 62
     0
100
AcDbBlockReference
  2
_OPEN
 10
337.4098376938627
 20
-138.4136948112074
 30
0.0
 41
2.0
 42
2.0
 43
2.0
  0
MTEXT
  5
7E3A
330
79D2
100
AcDbEntity
  8
30
  6
CONTINUOUS
 62
     0
100
AcDbMText
 10
333.4098376938626
 20
-135.4136948112074
 30
0.0
 40
4.0
 41
0.0
 71
     5
 72
     1
  1
\A1;8
  0
POINT
  5
7E3B
330
79D2
100
AcDbEntity
  8
DEFPOINTS
  6
CONTINUOUS
 62
     0
100
AcDbPoint
 10
329.4098376938626
 20
-94.88342753322999
 30
0.0
  0
POINT
  5
7E3C
330
79D2
100
AcDbEntity
  8
DEFPOINTS
  6
CONTINUOUS
 62
     0
100
AcDbPoint
 10
337.4098376938627
 20
-89.95513553322998
 30
0.0
  0
POINT
  5
7E3D
330
79D2
100
AcDbEntity
  8
DEFPOINTS
  6
CONTINUOUS
 62
     0
100
AcDbPoint
 10
337.4098376938627
 20
-138.4136948112074
 30
0.0
  0
ENDBLK
  5
79DD
330
79D2
100
AcDbEntity
  8
0
100
AcDbBlockEnd
  0
BLOCK
  5
79E8
330
79DE
100
AcDbEntity
  8
0
100
AcDbBlockBegin
  2
*D2
 70
     1
 10
0.0
 20
0.0
 30
0.0
  3
*D2
  1

  0
LINE
  5
7E2C
330
79DE
100
AcDbEntity
  8
30
  6
CONTINUOUS
 62
     0
100
AcDbLine
 10
234.4098516938626
 20
-117.009506
 30
0.0
 11
234.4098516938626
 21
-138.9136948112074
 31
0.0
  0
LINE
  5
7E2D
330
79DE
100
AcDbEntity
  8
30
  6
CONTINUOUS
 62
     0
100
AcDbLine
 10
329.4098376938626
 20
-95.88342753323003
 30
0.0
 11
329.4098376938626
 21
-138.9136948112074
 31
0.0
  0
LINE
  5
7E2E
330
79DE
100
AcDbEntity
  8
30
  6
CONTINUOUS
 62
     0
100
AcDbLine
 10
236.4098516938626
 20
-138.4136948112074
 30
0.0
 11
327.4098376938626
 21
-138.4136948112074
 31
0.0
  0
INSERT
  5
7E2F
330
79DE
100
AcDbEntity
  8
30
  6
CONTINUOUS
 62
     0
100
AcDbBlockReference
  2
_OPEN
 10
234.4098516938626
 20
-138.4136948112074
 30
0.0
 41
2.0
 42
2.0
 43
2.0
 50
180.0
  0
INSERT
  5
7E30
330
79DE
100
AcDbEntity
  8
30
  6
CONTINUOUS
 62
     0
100
AcDbBlockReference
  2
_OPEN
 10
329.4098376938626
 20
-138.4136948112074
 30
0.0
 41
2.0
 42
2.0
 43
2.0
  0
MTEXT
  5
7E31
330
79DE
100
AcDbEntity
  8
30
  6
CONTINUOUS
 62
     0
100
AcDbMText
 10
281.9098446938627
 20
-135.4136948112074
 30
0.0
 40
4.0
 41
0.0
 71
     5
 72
     1
  1
\A1;95
  0
POINT
  5
7E32
330
79DE
100
AcDbEntity
  8
DEFPOINTS
  6
CONTINUOUS
 62
     0
100
AcDbPoint
 10
234.4098516938627
 20
-116.009506
 30
0.0
  0
POINT
  5
7E33
330
79DE
100
AcDbEntity
  8
DEFPOINTS
  6
CONTINUOUS
 62
     0
100
AcDbPoint
 10
329.4098376938626
 20
-94.88342753322999
 30
0.0
  0
POINT
  5
7E34
330
79DE
100
AcDbEntity
  8
DEFPOINTS
  6
CONTINUOUS
 62
     0
100
AcDbPoint
 10
329.4098376938626
 20
-138.4136948112074
 30
0.0
  0
ENDBLK
  5
79E9
330
79DE
100
AcDbEntity
  8
0
100
AcDbBlockEnd
  0
BLOCK
  5
79F4
330
79EA
100
AcDbEntity
  8
0
100
AcDbBlockBegin
  2
*D3
 70
     1
 10
0.0
 20
0.0
 30
0.0
  3
*D3
  1

  0
LINE
  5
7E3E
330
79EA
100
AcDbEntity
  8
30
  6
CONTINUOUS
 62
     0
100
AcDbLine
 10
279.4098376938626
 20
-95.26587500000005
 30
0.0
 11
279.4098376938626
 21
-122.945965
 31
0.0
  0
LINE
  5
7E3F
330
79EA
100
AcDbEntity
  8
30
  6
CONTINUOUS
 62
     0
100
AcDbLine
 10
287.4098376938627
 20
-91.33758600000005
 30
0.0
 11
287.4098376938627
 21
-122.945965
 31
0.0
  0
LINE
  5
7E40
330
79EA
100
AcDbEntity
  8
30
  6
CONTINUOUS
 62
     0
100
AcDbLine
 10
281.4098376938627
 20
-122.445965
 30
0.0
 11
285.4098376938626
 21
-122.445965
 31
0.0
  0
INSERT
  5
7E41
330
79EA
100
AcDbEntity
  8
30
  6
CONTINUOUS
 62
     0
100
AcDbBlockReference
  2
_OPEN
 10
279.4098376938626
 20
-122.445965
 30
0.0
 41
2.0
 42
2.0
 43
2.0
 50
180.0
  0
INSERT
  5
7E42
330
79EA
100
AcDbEntity
  8
30
  6
CONTINUOUS
 62
     0
100
AcDbBlockReference
  2
_OPEN
 10
287.4098376938627
 20
-122.445965
 30
0.0
 41
2.0
 42
2.0
 43
2.0
  0
MTEXT
  5
7E43
330
79EA
100
AcDbEntity
  8
30
  6
CONTINUOUS
 62
     0
100
AcDbMText
 10
283.4098376938626
 20
-119.445965
 30
0.0
 40
4.0
 41
0.0
 71
     5
 72
     1
  1
\A1;8
  0
POINT
  5
7E44
330
79EA
100
AcDbEntity
  8
DEFPOINTS
  6
CONTINUOUS
 62
     0
100
AcDbPoint
 10
279.4098376938626
 20
-94.26587500000001
 30
0.0
  0
POINT
  5
7E45
330
79EA
100
AcDbEntity
  8
DEFPOINTS
  6
CONTINUOUS
 62
     0
100
AcDbPoint
 10
287.4098376938627
 20
-90.33758600000002
 30
0.0
  0
POINT
  5
7E46
330
79EA
100
AcDbEntity
  8
DEFPOINTS
  6
CONTINUOUS
 62
     0
100
AcDbPoint
 10
287.4098376938627
 20
-122.445965
 30
0.0
  0
ENDBLK
  5
79F5
330
79EA
100
AcDbEntity
  8
0
100
AcDbBlockEnd
  0
BLOCK
  5
7A00
330
79F6
100
AcDbEntity
  8
0
100
AcDbBlockBegin
  2
*D4
 70
     1
 10
0.0
 20
0.0
 30
0.0
  3
*D4
  1

  0
LINE
  5
7E47
330
79F6
100
AcDbEntity
  8
30
  6
CONTINUOUS
 62
     0
100
AcDbLine
 10
-0.0003059999999858
 20
306.0902740622458
 30
0.0
 11
-0.0003059999999828
 21
322.0729320289361
 31
0.0
  0
LINE
  5
7E48
330
79F6
100
AcDbEntity
  8
30
  6
CONTINUOUS
 62
     0
100
AcDbLine
 10
24.99969400000001
 20
255.3167070622456
 30
0.0
 11
24.99969400000002
 21
322.0729320289361
 31
0.0
  0
LINE
  5
7E49
330
79F6
100
AcDbEntity
  8
30
  6
CONTINUOUS
 62
     0
100
AcDbLine
 10
1.999694000000017
 20
321.5729320289361
 30
0.0
 11
22.99969400000001
 21
321.5729320289361
 31
0.0
  0
INSERT
  5
7E4A
330
79F6
100
AcDbEntity
  8
30
  6
CONTINUOUS
 62
     0
100
AcDbBlockReference
  2
_OPEN
 10
-0.0003059999999829
 20
321.5729320289361
 30
0.0
 41
2.0
 42
2.0
 43
2.0
 50
180.0
  0
INSERT
  5
7E4B
330
79F6
100
AcDbEntity
  8
30
  6
CONTINUOUS
 62
     0
100
AcDbBlockReference
  2
_OPEN
 10
24.99969400000002
 20
321.5729320289361
 30
0.0
 41
2.0
 42
2.0
 43
2.0
  0
MTEXT
  5
7E4C
330
79F6
100
AcDbEntity
  8
30
  6
CONTINUOUS
 62
     0
100
AcDbMText
 10
12.49969400000001
 20
324.5729320289362
 30
0.0
 40
4.0
 41
0.0
 71
     5
 72
     1
  1
\A1;25
  0
POINT
  5
7E4D
330
79F6
100
AcDbEntity
  8
DEFPOINTS
  6
CONTINUOUS
 62
     0
100
AcDbPoint
 10
-0.0003060000000232
 20
305.0902740622458
 30
0.0
  0
POINT
  5
7E4E
330
79F6
100
AcDbEntity
  8
DEFPOINTS
  6
CONTINUOUS
 62
     0
100
AcDbPoint
 10
24.99969399999997
 20
254.3167070622457
 30
0.0
  0
POINT
  5
7E4F
330
79F6
100
AcDbEntity
  8
DEFPOINTS
  6
CONTINUOUS
 62
     0
100
AcDbPoint
 10
24.99969399999998
 20
321.5729320289361
 30
0.0
  0
ENDBLK
  5
7A01
330
79F6
100
AcDbEntity
  8
0
100
AcDbBlockEnd
  0
BLOCK
  5
7A0C
330
7A02
100
AcDbEntity
  8
0
100
AcDbBlockBegin
  2
*D5
 70
     1
 10
0.0
 20
0.0
 30
0.0
  3
*D5
  1

  0
LINE
  5
7E50
330
7A02
100
AcDbEntity
  8
30
  6
CONTINUOUS
 62
     0
100
AcDbLine
 10
-25.00030599999993
 20
255.4854080622454
 30
0.0
 11
-25.00030599999992
 21
322.0729320289361
 31
0.0
  0
LINE
  5
7E51
330
7A02
100
AcDbEntity
  8
30
  6
CONTINUOUS
 62
     0
100
AcDbLine
 10
-0.0003059999999858
 20
306.0902740622458
 30
0.0
 11
-0.0003059999999828
 21
322.0729320289361
 31
0.0
  0
LINE
  5
7E52
330
7A02
100
AcDbEntity
  8
30
  6
CONTINUOUS
 62
     0
100
AcDbLine
 10
-23.00030599999992
 20
321.5729320289361
 30
0.0
 11
-2.000305999999983
 21
321.5729320289361
 31
0.0
  0
INSERT
  5
7E53
330
7A02
100
AcDbEntity
  8
30
  6
CONTINUOUS
 62
     0
100
AcDbBlockReference
  2
_OPEN
 10
-25.00030599999992
 20
321.5729320289361
 30
0.0
 41
2.0
 42
2.0
 43
2.0
 50
180.0
  0
INSERT
  5
7E54
330
7A02
100
AcDbEntity
  8
30
  6
CONTINUOUS
 62
     0
100
AcDbBlockReference
  2
_OPEN
 10
-0.0003059999999829
 20
321.5729320289361
 30
0.0
 41
2.0
 42
2.0
 43
2.0
  0
MTEXT
  5
7E55
330
7A02
100
AcDbEntity
  8
30
  6
CONTINUOUS
 62
     0
100
AcDbMText
 10
-12.50030599999995
 20
324.5729320289362
 30
0.0
 40
4.0
 41
0.0
 71
     5
 72
     1
  1
\A1;25
  0
POINT
  5
7E56
330
7A02
100
AcDbEntity
  8
DEFPOINTS
  6
CONTINUOUS
 62
     0
100
AcDbPoint
 10
-25.00030599999996
 20
254.4854080622454
 30
0.0
  0
POINT
  5
7E57
330
7A02
100
AcDbEntity
  8
DEFPOINTS
  6
CONTINUOUS
 62
     0
100
AcDbPoint
 10
-0.0003060000000232
 20
305.0902740622458
 30
0.0
  0
POINT
  5
7E58
330
7A02
100
AcDbEntity
  8
DEFPOINTS
  6
CONTINUOUS
 62
     0
100
AcDbPoint
 10
-0.0003060000000222
 20
321.5729320289361
 30
0.0
  0
ENDBLK
  5
7A0D
330
7A02
100
AcDbEntity
  8
0
100
AcDbBlockEnd
  0
BLOCK
  5
7A18
330
7A0E
100
AcDbEntity
  8
0
100
AcDbBlockBegin
  2
*D6
 70
     1
 10
0.0
 20
0.0
 30
0.0
  3
*D6
  1

  0
LINE
  5
7E23
330
7A0E
100
AcDbEntity
  8
30
  6
CONTINUOUS
 62
     0
100
AcDbLine
 10
234.4098516938626
 20
-117.009508
 30
0.0
 11
234.4098516938626
 21
-122.945965
 31
0.0
  0
LINE
  5
7E24
330
7A0E
100
AcDbEntity
  8
30
  6
CONTINUOUS
 62
     0
100
AcDbLine
 10
279.4098376938626
 20
-95.26587500000005
 30
0.0
 11
279.4098376938626
 21
-122.945965
 31
0.0
  0
LINE
  5
7E25
330
7A0E
100
AcDbEntity
  8
30
  6
CONTINUOUS
 62
     0
100
AcDbLine
 10
236.4098516938626
 20
-122.445965
 30
0.0
 11
277.4098376938626
 21
-122.445965
 31
0.0
  0
INSERT
  5
7E26
330
7A0E
100
AcDbEntity
  8
30
  6
CONTINUOUS
 62
     0
100
AcDbBlockReference
  2
_OPEN
 10
234.4098516938626
 20
-122.445965
 30
0.0
 41
2.0
 42
2.0
 43
2.0
 50
180.0
  0
INSERT
  5
7E27
330
7A0E
100
AcDbEntity
  8
30
  6
CONTINUOUS
 62
     0
100
AcDbBlockReference
  2
_OPEN
 10
279.4098376938626
 20
-122.445965
 30
0.0
 41
2.0
 42
2.0
 43
2.0
  0
MTEXT
  5
7E28
330
7A0E
100
AcDbEntity
  8
30
  6
CONTINUOUS
 62
     0
100
AcDbMText
 10
256.9098446938627
 20
-119.445965
 30
0.0
 40
4.0
 41
0.0
 71
     5
 72
     1
  1
\A1;45
  0
POINT
  5
7E29
330
7A0E
100
AcDbEntity
  8
DEFPOINTS
  6
CONTINUOUS
 62
     0
100
AcDbPoint
 10
234.4098516938627
 20
-116.009508
 30
0.0
  0
POINT
  5
7E2A
330
7A0E
100
AcDbEntity
  8
DEFPOINTS
  6
CONTINUOUS
 62
     0
100
AcDbPoint
 10
279.4098376938626
 20
-94.26587500000001
 30
0.0
  0
POINT
  5
7E2B
330
7A0E
100
AcDbEntity
  8
DEFPOINTS
  6
CONTINUOUS
 62
     0
100
AcDbPoint
 10
279.4098376938626
 20
-122.445965
 30
0.0
  0
ENDBLK
  5
7A19
330
7A0E
100
AcDbEntity
  8
0
100
AcDbBlockEnd
  0
BLOCK
  5
7A24
330
7A1A
100
AcDbEntity
  8
0
100
AcDbBlockBegin
  2
*D7
 70
     1
 10
0.0
 20
0.0
 30
0.0
  3
*D7
  1

  0
LINE
  5
7A5C
330
7A1A
100
AcDbEntity
  8
30
  6
CONTINUOUS
 62
     0
100
AcDbLine
 10
-7.000306000000023
 20
287.9811530622458
 30
0.0
 11
-7.000306000000022
 21
300.9110248765916
 31
0.0
  0
LINE
  5
7A5D
330
7A1A
100
AcDbEntity
  8
30
  6
CONTINUOUS
 62
     0
100
AcDbLine
 10
6.999694000000033
 20
287.9811530622458
 30
0.0
 11
6.999694000000034
 21
300.9110248765916
 31
0.0
  0
LINE
  5
7A5E
330
7A1A
100
AcDbEntity
  8
30
  6
CONTINUOUS
 62
     0
100
AcDbLine
 10
-5.000306000000022
 20
300.4110248765916
 30
0.0
 11
4.999694000000034
 21
300.4110248765916
 31
0.0
  0
INSERT
  5
7A5F
330
7A1A
100
AcDbEntity
  8
30
  6
CONTINUOUS
 62
     0
100
AcDbBlockReference
  2
_OPEN
 10
-7.000306000000022
 20
300.4110248765916
 30
0.0
 41
2.0
 42
2.0
 43
2.0
 50
180.0
  0
INSERT
  5
7A60
330
7A1A
100
AcDbEntity
  8
30
  6
CONTINUOUS
 62
     0
100
AcDbBlockReference
  2
_OPEN
 10
6.999694000000034
 20
300.4110248765916
 30
0.0
 41
2.0
 42
2.0
 43
2.0
  0
MTEXT
  5
7A61
330
7A1A
100
AcDbEntity
  8
30
  6
CONTINUOUS
 62
     0
100
AcDbMText
 10
-0.0003059999999937
 20
303.4110248765916
 30
0.0
 40
4.0
 41
0.0
 71
     5
 72
     1
  1
\A1;14
1001
ACAD
1000
MTEXTBEGIN
1070
    73
1070
     1
1070
    44
1040
1.0
1070
    74
1070
     0
1000
MTEXTEND
  0
POINT
  5
7A62
330
7A1A
100
AcDbEntity
  8
DEFPOINTS
  6
CONTINUOUS
 62
     0
100
AcDbPoint
 10
-7.000306000000023
 20
286.9811530622458
 30
0.0
  0
POINT
  5
7A63
330
7A1A
100
AcDbEntity
  8
DEFPOINTS
  6
CONTINUOUS
 62
     0
100
AcDbPoint
 10
6.999694000000033
 20
286.9811530622458
 30
0.0
  0
POINT
  5
7A64
330
7A1A
100
AcDbEntity
  8
DEFPOINTS
  6
CONTINUOUS
 62
     0
100
AcDbPoint
 10
6.999694000000034
 20
300.4110248765916
 30
0.0
  0
ENDBLK
  5
7A25
330
7A1A
100
AcDbEntity
  8
0
100
AcDbBlockEnd
  0
BLOCK
  5
7A74
330
7A6A
100
AcDbEntity
  8
0
100
AcDbBlockBegin
  2
*D8
 70
     1
 10
0.0
 20
0.0
 30
0.0
  3
*D8
  1

  0
LINE
  5
7D5E
330
7A6A
100
AcDbEntity
  8
30
  6
CONTINUOUS
 62
     0
100
AcDbLine
 10
38.40012200000007
 20
68.49986899999987
 30
0.0
 11
96.52572735558727
 21
68.49986899999986
 31
0.0
  0
LINE
  5
7D5F
330
7A6A
100
AcDbEntity
  8
30
  6
CONTINUOUS
 62
     0
100
AcDbLine
 10
38.40012200000006
 20
-98.49986900000004
 30
0.0
 11
96.52572735558722
 21
-98.49986900000006
 31
0.0
  0
LINE
  5
7D60
330
7A6A
100
AcDbEntity
  8
30
  6
CONTINUOUS
 62
     0
100
AcDbLine
 10
96.02572735558727
 20
66.49986899999986
 30
0.0
 11
96.02572735558723
 21
-96.49986900000007
 31
0.0
  0
INSERT
  5
7D61
330
7A6A
100
AcDbEntity
  8
30
  6
CONTINUOUS
 62
     0
100
AcDbBlockReference
  2
_OPEN
 10
96.02572735558727
 20
68.49986899999986
 30
0.0
 41
2.0
 42
2.0
 43
2.0
 50
90.0
  0
INSERT
  5
7D62
330
7A6A
100
AcDbEntity
  8
30
  6
CONTINUOUS
 62
     0
100
AcDbBlockReference
  2
_OPEN
 10
96.02572735558723
 20
-98.49986900000006
 30
0.0
 41
2.0
 42
2.0
 43
2.0
 50
270.0
  0
MTEXT
  5
7D63
330
7A6A
100
AcDbEntity
  8
30
  6
CONTINUOUS
 62
     0
100
AcDbMText
 10
93.02572735558724
 20
-15.00000000000007
 30
0.0
 40
4.0
 41
0.0
 71
     5
 72
     1
  1
\A1;167
 11
0.0000000000000001
 21
1.0
 31
0.0
1001
ACAD
1000
MTEXTBEGIN
1070
    73
1070
     1
1070
    44
1040
1.0
1070
    74
1070
     0
1000
MTEXTEND
  0
POINT
  5
7D64
330
7A6A
100
AcDbEntity
  8
DEFPOINTS
  6
CONTINUOUS
 62
     0
100
AcDbPoint
 10
37.40012200000006
 20
68.49986899999987
 30
0.0
  0
POINT
  5
7D65
330
7A6A
100
AcDbEntity
  8
DEFPOINTS
  6
CONTINUOUS
 62
     0
100
AcDbPoint
 10
37.40012200000006
 20
-98.49986900000004
 30
0.0
  0
POINT
  5
7D66
330
7A6A
100
AcDbEntity
  8
DEFPOINTS
  6
CONTINUOUS
 62
     0
100
AcDbPoint
 10
96.02572735558723
 20
-98.49986900000006
 30
0.0
  0
ENDBLK
  5
7A75
330
7A6A
100
AcDbEntity
  8
0
100
AcDbBlockEnd
  0
BLOCK
  5
7A80
330
7A76
100
AcDbEntity
  8
0
100
AcDbBlockBegin
  2
*D9
 70
     1
 10
0.0
 20
0.0
 30
0.0
  3
*D9
  1

  0
LINE
  5
7DF5
330
7A76
100
AcDbEntity
  8
30
  6
CONTINUOUS
 62
     0
100
AcDbLine
 10
39.00000700000012
 20
49.99972600000012
 30
0.0
 11
84.58698332648692
 21
49.99972600000011
 31
0.0
  0
LINE
  5
7DF6
330
7A76
100
AcDbEntity
  8
30
  6
CONTINUOUS
 62
     0
100
AcDbLine
 10
38.50002900000001
 20
-80.00027500000005
 30
0.0
 11
84.5869833264869
 21
-80.00027500000005
 31
0.0
  0
LINE
  5
7DF7
330
7A76
100
AcDbEntity
  8
30
  6
CONTINUOUS
 62
     0
100
AcDbLine
 10
84.08698332648693
 20
47.9997260000001
 30
0.0
 11
84.0869833264869
 21
-78.00027500000004
 31
0.0
  0
INSERT
  5
7DF8
330
7A76
100
AcDbEntity
  8
30
  6
CONTINUOUS
 62
     0
100
AcDbBlockReference
  2
_OPEN
 10
84.08698332648693
 20
49.99972600000011
 30
0.0
 41
2.0
 42
2.0
 43
2.0
 50
90.0
  0
INSERT
  5
7DF9
330
7A76
100
AcDbEntity
  8
30
  6
CONTINUOUS
 62
     0
100
AcDbBlockReference
  2
_OPEN
 10
84.0869833264869
 20
-80.00027500000005
 30
0.0
 41
2.0
 42
2.0
 43
2.0
 50
270.0
  0
MTEXT
  5
7DFA
330
7A76
100
AcDbEntity
  8
30
  6
CONTINUOUS
 62
     0
100
AcDbMText
 10
81.08698332648691
 20
-15.00027449999995
 30
0.0
 40
4.0
 41
0.0
 71
     5
 72
     1
  1
\A1;130
 11
0.0000000000000001
 21
1.0
 31
0.0
1001
ACAD
1000
MTEXTBEGIN
1070
    73
1070
     1
1070
    44
1040
1.0
1070
    74
1070
     0
1000
MTEXTEND
  0
POINT
  5
7DFB
330
7A76
100
AcDbEntity
  8
DEFPOINTS
  6
CONTINUOUS
 62
     0
100
AcDbPoint
 10
38.00000700000012
 20
49.99972600000012
 30
0.0
  0
POINT
  5
7DFC
330
7A76
100
AcDbEntity
  8
DEFPOINTS
  6
CONTINUOUS
 62
     0
100
AcDbPoint
 10
37.50002900000001
 20
-80.00027500000005
 30
0.0
  0
POINT
  5
7DFD
330
7A76
100
AcDbEntity
  8
DEFPOINTS
  6
CONTINUOUS
 62
     0
100
AcDbPoint
 10
84.0869833264869
 20
-80.00027500000005
 30
0.0
  0
ENDBLK
  5
7A81
330
7A76
100
AcDbEntity
  8
0
100
AcDbBlockEnd
  0
BLOCK
  5
7A8C
330
7A82
100
AcDbEntity
  8
0
100
AcDbBlockBegin
  2
*D10
 70
     1
 10
0.0
 20
0.0
 30
0.0
  3
*D10
  1

  0
LINE
  5
7DEC
330
7A82
100
AcDbEntity
  8
30
  6
CONTINUOUS
 62
     0
100
AcDbLine
 10
-5.499932999999828
 20
41.99966500000011
 30
0.0
 11
75.86895731362395
 21
41.99966500000008
 31
0.0
  0
LINE
  5
7DED
330
7A82
100
AcDbEntity
  8
30
  6
CONTINUOUS
 62
     0
100
AcDbLine
 10
32.0
 20
-71.99966400000007
 30
0.0
 11
75.86895731362393
 21
-71.99966400000007
 31
0.0
  0
LINE
  5
7DEE
330
7A82
100
AcDbEntity
  8
30
  6
CONTINUOUS
 62
     0
100
AcDbLine
 10
75.36895731362395
 20
39.99966500000008
 30
0.0
 11
75.36895731362392
 21
-69.99966400000007
 31
0.0
  0
INSERT
  5
7DEF
330
7A82
100
AcDbEntity
  8
30
  6
CONTINUOUS
 62
     0
100
AcDbBlockReference
  2
_OPEN
 10
75.36895731362395
 20
41.99966500000008
 30
0.0
 41
2.0
 42
2.0
 43
2.0
 50
90.0
  0
INSERT
  5
7DF0
330
7A82
100
AcDbEntity
  8
30
  6
CONTINUOUS
 62
     0
100
AcDbBlockReference
  2
_OPEN
 10
75.36895731362392
 20
-71.99966400000007
 30
0.0
 41
2.0
 42
2.0
 43
2.0
 50
270.0
  0
MTEXT
  5
7DF1
330
7A82
100
AcDbEntity
  8
30
  6
CONTINUOUS
 62
     0
100
AcDbMText
 10
72.36895731362394
 20
-14.99999949999998
 30
0.0
 40
4.0
 41
0.0
 71
     5
 72
     1
  1
\A1;114
 11
0.0000000000000001
 21
1.0
 31
0.0
1001
ACAD
1000
MTEXTBEGIN
1070
    73
1070
     1
1070
    44
1040
1.0
1070
    74
1070
     0
1000
MTEXTEND
  0
POINT
  5
7DF2
330
7A82
100
AcDbEntity
  8
DEFPOINTS
  6
CONTINUOUS
 62
     0
100
AcDbPoint
 10
-6.499932999999828
 20
41.99966500000011
 30
0.0
  0
POINT
  5
7DF3
330
7A82
100
AcDbEntity
  8
DEFPOINTS
  6
CONTINUOUS
 62
     0
100
AcDbPoint
 10
31.0
 20
-71.99966400000005
 30
0.0
  0
POINT
  5
7DF4
330
7A82
100
AcDbEntity
  8
DEFPOINTS
  6
CONTINUOUS
 62
     0
100
AcDbPoint
 10
75.36895731362392
 20
-71.99966400000007
 30
0.0
  0
ENDBLK
  5
7A8D
330
7A82
100
AcDbEntity
  8
0
100
AcDbBlockEnd
  0
BLOCK
  5
7A98
330
7A8E
100
AcDbEntity
  8
0
100
AcDbBlockBegin
  2
*D11
 70
     1
 10
0.0
 20
0.0
 30
0.0
  3
*D11
  1

  0
LINE
  5
7AD3
330
7A8E
100
AcDbEntity
  8
30
  6
CONTINUOUS
 62
     0
100
AcDbLine
 10
-37.49991699999986
 20
-51.49972599999999
 30
0.0
 11
-37.49991699999987
 21
-117.5698401907866
 31
0.0
  0
LINE
  5
7AD4
330
7A8E
100
AcDbEntity
  8
30
  6
CONTINUOUS
 62
     0
100
AcDbLine
 10
37.40012200000006
 20
-51.50016900000003
 30
0.0
 11
37.40012200000006
 21
-117.5698401907866
 31
0.0
  0
LINE
  5
7AD5
330
7A8E
100
AcDbEntity
  8
30
  6
CONTINUOUS
 62
     0
100
AcDbLine
 10
-35.49991699999987
 20
-117.0698401907866
 30
0.0
 11
35.40012200000006
 21
-117.0698401907866
 31
0.0
  0
INSERT
  5
7AD6
330
7A8E
100
AcDbEntity
  8
30
  6
CONTINUOUS
 62
     0
100
AcDbBlockReference
  2
_OPEN
 10
-37.49991699999987
 20
-117.0698401907866
 30
0.0
 41
2.0
 42
2.0
 43
2.0
 50
180.0
  0
INSERT
  5
7AD7
330
7A8E
100
AcDbEntity
  8
30
  6
CONTINUOUS
 62
     0
100
AcDbBlockReference
  2
_OPEN
 10
37.40012200000006
 20
-117.0698401907866
 30
0.0
 41
2.0
 42
2.0
 43
2.0
  0
MTEXT
  5
7AD8
330
7A8E
100
AcDbEntity
  8
30
  6
CONTINUOUS
 62
     0
100
AcDbMText
 10
-0.0498974999999003
 20
-114.0698401907866
 30
0.0
 40
4.0
 41
0.0
 71
     5
 72
     1
  1
\A1;75
1001
ACAD
1000
MTEXTBEGIN
1070
    73
1070
     1
1070
    44
1040
1.0
1070
    74
1070
     0
1000
MTEXTEND
  0
POINT
  5
7AD9
330
7A8E
100
AcDbEntity
  8
DEFPOINTS
  6
CONTINUOUS
 62
     0
100
AcDbPoint
 10
-37.49991699999986
 20
-50.49972599999999
 30
0.0
  0
POINT
  5
7ADA
330
7A8E
100
AcDbEntity
  8
DEFPOINTS
  6
CONTINUOUS
 62
     0
100
AcDbPoint
 10
37.40012200000006
 20
-50.50016900000002
 30
0.0
  0
POINT
  5
7ADB
330
7A8E
100
AcDbEntity
  8
DEFPOINTS
  6
CONTINUOUS
 62
     0
100
AcDbPoint
 10
37.40012200000006
 20
-117.0698401907866
 30
0.0
  0
ENDBLK
  5
7A99
330
7A8E
100
AcDbEntity
  8
0
100
AcDbBlockEnd
  0
BLOCK
  5
7AA4
330
7A9A
100
AcDbEntity
  8
0
100
AcDbBlockBegin
  2
*D12
 70
     1
 10
0.0
 20
0.0
 30
0.0
  3
*D12
  1

  0
LINE
  5
7ADC
330
7A9A
100
AcDbEntity
  8
30
  6
CONTINUOUS
 62
     0
100
AcDbLine
 10
-35.99991699999987
 20
-25.00030500000001
 30
0.0
 11
-35.99991699999987
 21
-109.3598946293907
 31
0.0
  0
LINE
  5
7ADD
330
7A9A
100
AcDbEntity
  8
30
  6
CONTINUOUS
 62
     0
100
AcDbLine
 10
36.00006700000011
 20
-25.00030500000001
 30
0.0
 11
36.0000670000001
 21
-109.3598946293907
 31
0.0
  0
LINE
  5
7ADE
330
7A9A
100
AcDbEntity
  8
30
  6
CONTINUOUS
 62
     0
100
AcDbLine
 10
-33.99991699999987
 20
-108.8598946293907
 30
0.0
 11
34.00006700000011
 21
-108.8598946293907
 31
0.0
  0
INSERT
  5
7ADF
330
7A9A
100
AcDbEntity
  8
30
  6
CONTINUOUS
 62
     0
100
AcDbBlockReference
  2
_OPEN
 10
-35.99991699999987
 20
-108.8598946293907
 30
0.0
 41
2.0
 42
2.0
 43
2.0
 50
180.0
  0
INSERT
  5
7AE0
330
7A9A
100
AcDbEntity
  8
30
  6
CONTINUOUS
 62
     0
100
AcDbBlockReference
  2
_OPEN
 10
36.0000670000001
 20
-108.8598946293907
 30
0.0
 41
2.0
 42
2.0
 43
2.0
  0
MTEXT
  5
7AE1
330
7A9A
100
AcDbEntity
  8
30
  6
CONTINUOUS
 62
     0
100
AcDbMText
 10
-0.3665619730786032
 20
-105.8598946293907
 30
0.0
 40
4.0
 41
0.0
 71
     5
 72
     1
  1
\A1;72
1001
ACAD
1000
MTEXTBEGIN
1070
    73
1070
     1
1070
    44
1040
1.0
1070
    74
1070
     0
1000
MTEXTEND
  0
POINT
  5
7AE2
330
7A9A
100
AcDbEntity
  8
DEFPOINTS
  6
CONTINUOUS
 62
     0
100
AcDbPoint
 10
-35.99991699999987
 20
-24.00030500000001
 30
0.0
  0
POINT
  5
7AE3
330
7A9A
100
AcDbEntity
  8
DEFPOINTS
  6
CONTINUOUS
 62
     0
100
AcDbPoint
 10
36.00006700000011
 20
-24.00030500000001
 30
0.0
  0
POINT
  5
7AE4
330
7A9A
100
AcDbEntity
  8
DEFPOINTS
  6
CONTINUOUS
 62
     0
100
AcDbPoint
 10
36.0000670000001
 20
-108.8598946293907
 30
0.0
  0
ENDBLK
  5
7AA5
330
7A9A
100
AcDbEntity
  8
0
100
AcDbBlockEnd
  0
BLOCK
  5
7B15
330
7B0B
100
AcDbEntity
  8
0
100
AcDbBlockBegin
  2
*D13
 70
     1
 10
0.0
 20
0.0
 30
0.0
  3
*D13
  1

  0
LINE
  5
7D82
330
7B0B
100
AcDbEntity
  8
30
  6
CONTINUOUS
 62
     0
100
AcDbLine
 10
342.9622736938628
 20
54.99999999999983
 30
0.0
 11
361.7720401938628
 21
54.99999999999983
 31
0.0
  0
LINE
  5
7D83
330
7B0B
100
AcDbEntity
  8
30
  6
CONTINUOUS
 62
     0
100
AcDbLine
 10
343.9622736938627
 20
-84.99977400000005
 30
0.0
 11
361.7720401938628
 21
-84.99977400000007
 31
0.0
  0
LINE
  5
7D84
330
7B0B
100
AcDbEntity
  8
30
  6
CONTINUOUS
 62
     0
100
AcDbLine
 10
361.2720401938628
 20
52.99999999999982
 30
0.0
 11
361.2720401938628
 21
-82.99977400000008
 31
0.0
  0
INSERT
  5
7D85
330
7B0B
100
AcDbEntity
  8
30
  6
CONTINUOUS
 62
     0
100
AcDbBlockReference
  2
_OPEN
 10
361.2720401938628
 20
54.99999999999983
 30
0.0
 41
2.0
 42
2.0
 43
2.0
 50
90.0
  0
INSERT
  5
7D86
330
7B0B
100
AcDbEntity
  8
30
  6
CONTINUOUS
 62
     0
100
AcDbBlockReference
  2
_OPEN
 10
361.2720401938628
 20
-84.99977400000007
 30
0.0
 41
2.0
 42
2.0
 43
2.0
 50
270.0
  0
MTEXT
  5
7D87
330
7B0B
100
AcDbEntity
  8
30
  6
CONTINUOUS
 62
     0
100
AcDbMText
 10
358.2720401938629
 20
-14.99988700000006
 30
0.0
 40
4.0
 41
0.0
 71
     5
 72
     1
  1
\A1;140
 11
0.0000000000000001
 21
1.0
 31
0.0
1001
ACAD
1000
MTEXTBEGIN
1070
    73
1070
     1
1070
    44
1040
1.0
1070
    74
1070
     0
1000
MTEXTEND
  0
POINT
  5
7D88
330
7B0B
100
AcDbEntity
  8
DEFPOINTS
  6
CONTINUOUS
 62
     0
100
AcDbPoint
 10
341.9622736938628
 20
54.99999999999983
 30
0.0
  0
POINT
  5
7D89
330
7B0B
100
AcDbEntity
  8
DEFPOINTS
  6
CONTINUOUS
 62
     0
100
AcDbPoint
 10
342.9622736938627
 20
-84.99977400000005
 30
0.0
  0
POINT
  5
7D8A
330
7B0B
100
AcDbEntity
  8
DEFPOINTS
  6
CONTINUOUS
 62
     0
100
AcDbPoint
 10
361.2720401938628
 20
-84.99977400000007
 30
0.0
  0
ENDBLK
  5
7B16
330
7B0B
100
AcDbEntity
  8
0
100
AcDbBlockEnd
  0
BLOCK
  5
7B22
330
7B17
100
AcDbEntity
  8
0
100
AcDbBlockBegin
  2
*D14
 70
     1
 10
0.0
 20
0.0
 30
0.0
  3
*D14
  1

  0
LINE
  5
7C88
330
7B17
100
AcDbEntity
  8
30
  6
CONTINUOUS
 62
     0
100
AcDbLine
 10
337.4098376938627
 20
53.49885099999983
 30
0.0
 11
349.1025329072201
 21
53.49885099999982
 31
0.0
  0
LINE
  5
7C89
330
7B17
100
AcDbEntity
  8
30
  6
CONTINUOUS
 62
     0
100
AcDbLine
 10
337.4098376938627
 20
56.498851
 30
0.0
 11
349.1025329072201
 21
56.49885099999999
 31
0.0
  0
LINE
  5
7C8A
330
7B17
100
AcDbEntity
  8
30
  6
CONTINUOUS
 62
     0
100
AcDbLine
 10
348.6025329072201
 20
51.49885099999982
 30
0.0
 11
348.6025329072201
 21
49.49885099999982
 31
0.0
  0
LINE
  5
7C8B
330
7B17
100
AcDbEntity
  8
30
  6
CONTINUOUS
 62
     0
100
AcDbLine
 10
348.6025329072201
 20
58.49885099999999
 30
0.0
 11
348.6025329072201
 21
65.16551766666667
 31
0.0
  0
INSERT
  5
7C8C
330
7B17
100
AcDbEntity
  8
30
  6
CONTINUOUS
 62
     0
100
AcDbBlockReference
  2
_OPEN
 10
348.6025329072201
 20
53.49885099999982
 30
0.0
 41
2.0
 42
2.0
 43
2.0
 50
90.0
  0
INSERT
  5
7C8D
330
7B17
100
AcDbEntity
  8
30
  6
CONTINUOUS
 62
     0
100
AcDbBlockReference
  2
_OPEN
 10
348.6025329072201
 20
56.49885099999999
 30
0.0
 41
2.0
 42
2.0
 43
2.0
 50
270.0
  0
MTEXT
  5
7C8E
330
7B17
100
AcDbEntity
  8
30
  6
CONTINUOUS
 62
     0
100
AcDbMText
 10
345.60253290722
 20
62.83218433333337
 30
0.0
 40
4.0
 41
0.0
 71
     5
 72
     1
  1
\A1;3
 11
0.0000000000000001
 21
1.0
 31
0.0
1001
ACAD
1000
MTEXTBEGIN
1070
    73
1070
     1
1070
    44
1040
1.0
1070
    74
1070
     0
1000
MTEXTEND
  0
POINT
  5
7C8F
330
7B17
100
AcDbEntity
  8
DEFPOINTS
  6
CONTINUOUS
 62
     0
100
AcDbPoint
 10
336.4098376938627
 20
53.49885099999983
 30
0.0
  0
POINT
  5
7C90
330
7B17
100
AcDbEntity
  8
DEFPOINTS
  6
CONTINUOUS
 62
     0
100
AcDbPoint
 10
336.4098376938627
 20
56.498851
 30
0.0
  0
POINT
  5
7C91
330
7B17
100
AcDbEntity
  8
DEFPOINTS
  6
CONTINUOUS
 62
     0
100
AcDbPoint
 10
348.6025329072201
 20
56.49885099999999
 30
0.0
  0
ENDBLK
  5
7B23
330
7B17
100
AcDbEntity
  8
0
100
AcDbBlockEnd
  0
BLOCK
  5
7B5D
330
7B53
100
AcDbEntity
  8
0
100
AcDbBlockBegin
  2
*D15
 70
     1
 10
0.0
 20
0.0
 30
0.0
  3
*D15
  1

  0
LINE
  5
7C5B
330
7B53
100
AcDbEntity
  8
30
  6
CONTINUOUS
 62
     0
100
AcDbLine
 10
142.4263976938626
 20
-14.55750452446688
 30
0.0
 11
142.4263976938626
 21
-169.9167560505427
 31
0.0
  0
LINE
  5
7C5C
330
7B53
100
AcDbEntity
  8
30
  6
CONTINUOUS
 62
     0
100
AcDbLine
 10
234.4098516938627
 20
-99.49986900000006
 30
0.0
 11
234.4098516938627
 21
-169.9167560505427
 31
0.0
  0
LINE
  5
7C5D
330
7B53
100
AcDbEntity
  8
30
  6
CONTINUOUS
 62
     0
100
AcDbLine
 10
144.4263976938626
 20
-169.4167560505428
 30
0.0
 11
232.4098516938627
 21
-169.4167560505428
 31
0.0
  0
INSERT
  5
7C5E
330
7B53
100
AcDbEntity
  8
30
  6
CONTINUOUS
 62
     0
100
AcDbBlockReference
  2
_OPEN
 10
142.4263976938626
 20
-169.4167560505428
 30
0.0
 41
2.0
 42
2.0
 43
2.0
 50
180.0
  0
INSERT
  5
7C5F
330
7B53
100
AcDbEntity
  8
30
  6
CONTINUOUS
 62
     0
100
AcDbBlockReference
  2
_OPEN
 10
234.4098516938627
 20
-169.4167560505428
 30
0.0
 41
2.0
 42
2.0
 43
2.0
  0
MTEXT
  5
7C60
330
7B53
100
AcDbEntity
  8
30
  6
CONTINUOUS
 62
     0
100
AcDbMText
 10
188.4181246938626
 20
-166.4167560505427
 30
0.0
 40
4.0
 41
0.0
 71
     5
 72
     1
  1
\A1;92
1001
ACAD
1000
MTEXTBEGIN
1070
    73
1070
     1
1070
    44
1040
1.0
1070
    74
1070
     0
1000
MTEXTEND
  0
POINT
  5
7C61
330
7B53
100
AcDbEntity
  8
DEFPOINTS
  6
CONTINUOUS
 62
     0
100
AcDbPoint
 10
142.4263976938626
 20
-13.55750452446687
 30
0.0
  0
POINT
  5
7C62
330
7B53
100
AcDbEntity
  8
DEFPOINTS
  6
CONTINUOUS
 62
     0
100
AcDbPoint
 10
234.4098516938627
 20
-98.49986900000004
 30
0.0
  0
POINT
  5
7C63
330
7B53
100
AcDbEntity
  8
DEFPOINTS
  6
CONTINUOUS
 62
     0
100
AcDbPoint
 10
234.4098516938627
 20
-169.4167560505428
 30
0.0
  0
ENDBLK
  5
7B5E
330
7B53
100
AcDbEntity
  8
0
100
AcDbBlockEnd
  0
BLOCK
  5
7B69
330
7B5F
100
AcDbEntity
  8
0
100
AcDbBlockBegin
  2
*D16
 70
     1
 10
0.0
 20
0.0
 30
0.0
  3
*D16
  1

  0
LINE
  5
7C76
330
7B5F
100
AcDbEntity
  8
30
  6
CONTINUOUS
 62
     0
100
AcDbLine
 10
166.4098826938626
 20
-68.89991800000013
 30
0.0
 11
166.4098826938626
 21
-152.4597228718594
 31
0.0
  0
LINE
  5
7C77
330
7B5F
100
AcDbEntity
  8
30
  6
CONTINUOUS
 62
     0
100
AcDbLine
 10
234.4098516938627
 20
-99.49986900000006
 30
0.0
 11
234.4098516938627
 21
-152.4597228718594
 31
0.0
  0
LINE
  5
7C78
330
7B5F
100
AcDbEntity
  8
30
  6
CONTINUOUS
 62
     0
100
AcDbLine
 10
168.4098826938626
 20
-151.9597228718595
 30
0.0
 11
232.4098516938627
 21
-151.9597228718595
 31
0.0
  0
INSERT
  5
7C79
330
7B5F
100
AcDbEntity
  8
30
  6
CONTINUOUS
 62
     0
100
AcDbBlockReference
  2
_OPEN
 10
166.4098826938626
 20
-151.9597228718595
 30
0.0
 41
2.0
 42
2.0
 43
2.0
 50
180.0
  0
INSERT
  5
7C7A
330
7B5F
100
AcDbEntity
  8
30
  6
CONTINUOUS
 62
     0
100
AcDbBlockReference
  2
_OPEN
 10
234.4098516938627
 20
-151.9597228718595
 30
0.0
 41
2.0
 42
2.0
 43
2.0
  0
MTEXT
  5
7C7B
330
7B5F
100
AcDbEntity
  8
30
  6
CONTINUOUS
 62
     0
100
AcDbMText
 10
200.4098671938627
 20
-148.9597228718595
 30
0.0
 40
4.0
 41
0.0
 71
     5
 72
     1
  1
\A1;68
1001
ACAD
1000
MTEXTBEGIN
1070
    73
1070
     1
1070
    44
1040
1.0
1070
    74
1070
     0
1000
MTEXTEND
  0
POINT
  5
7C7C
330
7B5F
100
AcDbEntity
  8
DEFPOINTS
  6
CONTINUOUS
 62
     0
100
AcDbPoint
 10
166.4098826938626
 20
-67.89991800000013
 30
0.0
  0
POINT
  5
7C7D
330
7B5F
100
AcDbEntity
  8
DEFPOINTS
  6
CONTINUOUS
 62
     0
100
AcDbPoint
 10
234.4098516938627
 20
-98.49986900000004
 30
0.0
  0
POINT
  5
7C7E
330
7B5F
100
AcDbEntity
  8
DEFPOINTS
  6
CONTINUOUS
 62
     0
100
AcDbPoint
 10
234.4098516938627
 20
-151.9597228718595
 30
0.0
  0
ENDBLK
  5
7B6A
330
7B5F
100
AcDbEntity
  8
0
100
AcDbBlockEnd
  0
BLOCK
  5
7B75
330
7B6B
100
AcDbEntity
  8
0
100
AcDbBlockBegin
  2
*D17
 70
     1
 10
0.0
 20
0.0
 30
0.0
  3
*D17
  1

  0
LINE
  5
7D19
330
7B6B
100
AcDbEntity
  8
30
  6
CONTINUOUS
 62
     0
100
AcDbLine
 10
175.4098516938624
 20
-78.74278300000014
 30
0.0
 11
175.4098516938624
 21
-138.9136948112074
 31
0.0
  0
LINE
  5
7D1A
330
7B6B
100
AcDbEntity
  8
30
  6
CONTINUOUS
 62
     0
100
AcDbLine
 10
234.4098516938627
 20
-100.4998690000001
 30
0.0
 11
234.4098516938627
 21
-138.9136948112074
 31
0.0
  0
LINE
  5
7D1B
330
7B6B
100
AcDbEntity
  8
30
  6
CONTINUOUS
 62
     0
100
AcDbLine
 10
177.4098516938624
 20
-138.4136948112074
 30
0.0
 11
232.4098516938627
 21
-138.4136948112074
 31
0.0
  0
INSERT
  5
7D1C
330
7B6B
100
AcDbEntity
  8
30
  6
CONTINUOUS
 62
     0
100
AcDbBlockReference
  2
_OPEN
 10
175.4098516938624
 20
-138.4136948112074
 30
0.0
 41
2.0
 42
2.0
 43
2.0
 50
180.0
  0
INSERT
  5
7D1D
330
7B6B
100
AcDbEntity
  8
30
  6
CONTINUOUS
 62
     0
100
AcDbBlockReference
  2
_OPEN
 10
234.4098516938627
 20
-138.4136948112074
 30
0.0
 41
2.0
 42
2.0
 43
2.0
  0
MTEXT
  5
7D1E
330
7B6B
100
AcDbEntity
  8
30
  6
CONTINUOUS
 62
     0
100
AcDbMText
 10
204.9098516938625
 20
-135.4136948112074
 30
0.0
 40
4.0
 41
0.0
 71
     5
 72
     1
  1
\A1;59
1001
ACAD
1000
MTEXTBEGIN
1070
    73
1070
     1
1070
    44
1040
1.0
1070
    74
1070
     0
1000
MTEXTEND
  0
POINT
  5
7D1F
330
7B6B
100
AcDbEntity
  8
DEFPOINTS
  6
CONTINUOUS
 62
     0
100
AcDbPoint
 10
175.4098516938624
 20
-77.74278300000014
 30
0.0
  0
POINT
  5
7D20
330
7B6B
100
AcDbEntity
  8
DEFPOINTS
  6
CONTINUOUS
 62
     0
100
AcDbPoint
 10
234.4098516938627
 20
-99.49986900000016
 30
0.0
  0
POINT
  5
7D21
330
7B6B
100
AcDbEntity
  8
DEFPOINTS
  6
CONTINUOUS
 62
     0
100
AcDbPoint
 10
234.4098516938627
 20
-138.4136948112074
 30
0.0
  0
ENDBLK
  5
7B76
330
7B6B
100
AcDbEntity
  8
0
100
AcDbBlockEnd
  0
BLOCK
  5
7B81
330
7B77
100
AcDbEntity
  8
0
100
AcDbBlockBegin
  2
*D18
 70
     1
 10
0.0
 20
0.0
 30
0.0
  3
*D18
  1

  0
LINE
  5
7D22
330
7B77
100
AcDbEntity
  8
30
  6
CONTINUOUS
 62
     0
100
AcDbLine
 10
183.9138826938626
 20
-98.49975600000005
 30
0.0
 11
183.9138826938626
 21
-122.945965
 31
0.0
  0
LINE
  5
7D23
330
7B77
100
AcDbEntity
  8
30
  6
CONTINUOUS
 62
     0
100
AcDbLine
 10
234.4098516938627
 20
-99.49986900000006
 30
0.0
 11
234.4098516938627
 21
-122.945965
 31
0.0
  0
LINE
  5
7D24
330
7B77
100
AcDbEntity
  8
30
  6
CONTINUOUS
 62
     0
100
AcDbLine
 10
185.9138826938625
 20
-122.445965
 30
0.0
 11
232.4098516938627
 21
-122.445965
 31
0.0
  0
INSERT
  5
7D25
330
7B77
100
AcDbEntity
  8
30
  6
CONTINUOUS
 62
     0
100
AcDbBlockReference
  2
_OPEN
 10
183.9138826938626
 20
-122.445965
 30
0.0
 41
2.0
 42
2.0
 43
2.0
 50
180.0
  0
INSERT
  5
7D26
330
7B77
100
AcDbEntity
  8
30
  6
CONTINUOUS
 62
     0
100
AcDbBlockReference
  2
_OPEN
 10
234.4098516938627
 20
-122.445965
 30
0.0
 41
2.0
 42
2.0
 43
2.0
  0
MTEXT
  5
7D27
330
7B77
100
AcDbEntity
  8
30
  6
CONTINUOUS
 62
     0
100
AcDbMText
 10
209.1618671938626
 20
-119.445965
 30
0.0
 40
4.0
 41
0.0
 71
     5
 72
     1
  1
\A1;50.5
1001
ACAD
1000
MTEXTBEGIN
1070
    73
1070
     1
1070
    44
1040
1.0
1070
    74
1070
     0
1000
MTEXTEND
  0
POINT
  5
7D28
330
7B77
100
AcDbEntity
  8
DEFPOINTS
  6
CONTINUOUS
 62
     0
100
AcDbPoint
 10
183.9138826938626
 20
-97.49975600000006
 30
0.0
  0
POINT
  5
7D29
330
7B77
100
AcDbEntity
  8
DEFPOINTS
  6
CONTINUOUS
 62
     0
100
AcDbPoint
 10
234.4098516938627
 20
-98.49986900000004
 30
0.0
  0
POINT
  5
7D2A
330
7B77
100
AcDbEntity
  8
DEFPOINTS
  6
CONTINUOUS
 62
     0
100
AcDbPoint
 10
234.4098516938627
 20
-122.445965
 30
0.0
  0
ENDBLK
  5
7B82
330
7B77
100
AcDbEntity
  8
0
100
AcDbBlockEnd
  0
BLOCK
  5
7BBF
330
7BB5
100
AcDbEntity
  8
0
100
AcDbBlockBegin
  2
*D19
 70
     1
 10
0.0
 20
0.0
 30
0.0
  3
*D19
  1

  0
LINE
  5
7D79
330
7BB5
100
AcDbEntity
  8
30
  6
CONTINUOUS
 62
     0
100
AcDbLine
 10
42.59254299999997
 20
-180.0001130000001
 30
0.0
 11
75.33912800086906
 21
-180.0001130000001
 31
0.0
  0
LINE
  5
7D7A
330
7BB5
100
AcDbEntity
  8
30
  6
CONTINUOUS
 62
     0
100
AcDbLine
 10
42.59254299999997
 20
-319.999887
 30
0.0
 11
75.33912800086904
 21
-319.999887
 31
0.0
  0
LINE
  5
7D7B
330
7BB5
100
AcDbEntity
  8
30
  6
CONTINUOUS
 62
     0
100
AcDbLine
 10
74.83912800086907
 20
-182.0001130000001
 30
0.0
 11
74.83912800086904
 21
-317.999887
 31
0.0
  0
INSERT
  5
7D7C
330
7BB5
100
AcDbEntity
  8
30
  6
CONTINUOUS
 62
     0
100
AcDbBlockReference
  2
_OPEN
 10
74.83912800086907
 20
-180.0001130000001
 30
0.0
 41
2.0
 42
2.0
 43
2.0
 50
90.0
  0
INSERT
  5
7D7D
330
7BB5
100
AcDbEntity
  8
30
  6
CONTINUOUS
 62
     0
100
AcDbBlockReference
  2
_OPEN
 10
74.83912800086904
 20
-319.999887
 30
0.0
 41
2.0
 42
2.0
 43
2.0
 50
270.0
  0
MTEXT
  5
7D7E
330
7BB5
100
AcDbEntity
  8
30
  6
CONTINUOUS
 62
     0
100
AcDbMText
 10
71.83912800086909
 20
-239.5595752538408
 30
0.0
 40
4.0
 41
0.0
 71
     5
 72
     1
  1
\A1;140
 11
0.0000000000000001
 21
1.0
 31
0.0
1001
ACAD
1000
MTEXTBEGIN
1070
    73
1070
     1
1070
    44
1040
1.0
1070
    74
1070
     0
1000
MTEXTEND
  0
POINT
  5
7D7F
330
7BB5
100
AcDbEntity
  8
DEFPOINTS
  6
CONTINUOUS
 62
     0
100
AcDbPoint
 10
41.59254299999997
 20
-180.0001130000001
 30
0.0
  0
POINT
  5
7D80
330
7BB5
100
AcDbEntity
  8
DEFPOINTS
  6
CONTINUOUS
 62
     0
100
AcDbPoint
 10
41.59254299999997
 20
-319.999887
 30
0.0
  0
POINT
  5
7D81
330
7BB5
100
AcDbEntity
  8
DEFPOINTS
  6
CONTINUOUS
 62
     0
100
AcDbPoint
 10
74.83912800086904
 20
-319.999887
 30
0.0
  0
ENDBLK
  5
7BC0
330
7BB5
100
AcDbEntity
  8
0
100
AcDbBlockEnd
  0
BLOCK
  5
7BCB
330
7BC1
100
AcDbEntity
  8
0
100
AcDbBlockBegin
  2
*D20
 70
     1
 10
0.0
 20
0.0
 30
0.0
  3
*D20
  1

  0
LINE
  5
7D70
330
7BC1
100
AcDbEntity
  8
30
  6
CONTINUOUS
 62
     0
100
AcDbLine
 10
-6.828283999999939
 20
-193.000335
 30
0.0
 11
62.86635223917002
 21
-193.000335
 31
0.0
  0
LINE
  5
7D71
330
7BC1
100
AcDbEntity
  8
30
  6
CONTINUOUS
 62
     0
100
AcDbLine
 10
18.171874
 20
-306.999664
 30
0.0
 11
62.86635223917
 21
-306.999664
 31
0.0
  0
LINE
  5
7D72
330
7BC1
100
AcDbEntity
  8
30
  6
CONTINUOUS
 62
     0
100
AcDbLine
 10
62.36635223917002
 20
-195.000335
 30
0.0
 11
62.36635223917
 21
-304.999664
 31
0.0
  0
INSERT
  5
7D73
330
7BC1
100
AcDbEntity
  8
30
  6
CONTINUOUS
 62
     0
100
AcDbBlockReference
  2
_OPEN
 10
62.36635223917002
 20
-193.000335
 30
0.0
 41
2.0
 42
2.0
 43
2.0
 50
90.0
  0
INSERT
  5
7D74
330
7BC1
100
AcDbEntity
  8
30
  6
CONTINUOUS
 62
     0
100
AcDbBlockReference
  2
_OPEN
 10
62.36635223917
 20
-306.999664
 30
0.0
 41
2.0
 42
2.0
 43
2.0
 50
270.0
  0
MTEXT
  5
7D75
330
7BC1
100
AcDbEntity
  8
30
  6
CONTINUOUS
 62
     0
100
AcDbMText
 10
59.36635223917005
 20
-239.5595747538408
 30
0.0
 40
4.0
 41
0.0
 71
     5
 72
     1
  1
\A1;114
 11
0.0000000000000001
 21
1.0
 31
0.0
1001
ACAD
1000
MTEXTBEGIN
1070
    73
1070
     1
1070
    44
1040
1.0
1070
    74
1070
     0
1000
MTEXTEND
  0
POINT
  5
7D76
330
7BC1
100
AcDbEntity
  8
DEFPOINTS
  6
CONTINUOUS
 62
     0
100
AcDbPoint
 10
-7.828283999999939
 20
-193.000335
 30
0.0
  0
POINT
  5
7D77
330
7BC1
100
AcDbEntity
  8
DEFPOINTS
  6
CONTINUOUS
 62
     0
100
AcDbPoint
 10
17.171874
 20
-306.999664
 30
0.0
  0
POINT
  5
7D78
330
7BC1
100
AcDbEntity
  8
DEFPOINTS
  6
CONTINUOUS
 62
     0
100
AcDbPoint
 10
62.36635223917
 20
-306.999664
 30
0.0
  0
ENDBLK
  5
7BCC
330
7BC1
100
AcDbEntity
  8
0
100
AcDbBlockEnd
  0
BLOCK
  5
7C12
330
7C08
100
AcDbEntity
  8
0
100
AcDbBlockBegin
  2
*D21
 70
     1
 10
0.0
 20
0.0
 30
0.0
  3
*D21
  1

  0
LINE
  5
7C32
330
7C08
100
AcDbEntity
  8
30
  6
CONTINUOUS
 62
     0
100
AcDbLine
 10
-12.49988699999994
 20
-198.9533340000001
 30
0.0
 11
-12.49988699999995
 21
-352.100702027078
 31
0.0
  0
LINE
  5
7C33
330
7C08
100
AcDbEntity
  8
30
  6
CONTINUOUS
 62
     0
100
AcDbLine
 10
12.50027099999999
 20
-313.952665
 30
0.0
 11
12.50027099999999
 21
-352.100702027078
 31
0.0
  0
LINE
  5
7C34
330
7C08
100
AcDbEntity
  8
30
  6
CONTINUOUS
 62
     0
100
AcDbLine
 10
-10.49988699999995
 20
-351.600702027078
 30
0.0
 11
10.50027099999999
 21
-351.600702027078
 31
0.0
  0
INSERT
  5
7C35
330
7C08
100
AcDbEntity
  8
30
  6
CONTINUOUS
 62
     0
100
AcDbBlockReference
  2
_OPEN
 10
-12.49988699999995
 20
-351.600702027078
 30
0.0
 41
2.0
 42
2.0
 43
2.0
 50
180.0
  0
INSERT
  5
7C36
330
7C08
100
AcDbEntity
  8
30
  6
CONTINUOUS
 62
     0
100
AcDbBlockReference
  2
_OPEN
 10
12.50027099999999
 20
-351.600702027078
 30
0.0
 41
2.0
 42
2.0
 43
2.0
  0
MTEXT
  5
7C37
330
7C08
100
AcDbEntity
  8
30
  6
CONTINUOUS
 62
     0
100
AcDbMText
 10
0.0001920000000839
 20
-348.600702027078
 30
0.0
 40
4.0
 41
0.0
 71
     5
 72
     1
  1
\A1;25
1001
ACAD
1000
MTEXTBEGIN
1070
    73
1070
     1
1070
    44
1040
1.0
1070
    74
1070
     0
1000
MTEXTEND
  0
POINT
  5
7C38
330
7C08
100
AcDbEntity
  8
DEFPOINTS
  6
CONTINUOUS
 62
     0
100
AcDbPoint
 10
-12.49988699999994
 20
-197.9533340000001
 30
0.0
  0
POINT
  5
7C39
330
7C08
100
AcDbEntity
  8
DEFPOINTS
  6
CONTINUOUS
 62
     0
100
AcDbPoint
 10
12.50027099999999
 20
-312.952665
 30
0.0
  0
POINT
  5
7C3A
330
7C08
100
AcDbEntity
  8
DEFPOINTS
  6
CONTINUOUS
 62
     0
100
AcDbPoint
 10
12.50027099999999
 20
-351.600702027078
 30
0.0
  0
ENDBLK
  5
7C13
330
7C08
100
AcDbEntity
  8
0
100
AcDbBlockEnd
  0
BLOCK
  5
7C1E
330
7C14
100
AcDbEntity
  8
0
100
AcDbBlockBegin
  2
*D22
 70
     1
 10
0.0
 20
0.0
 30
0.0
  3
*D22
  1

  0
LINE
  5
7C29
330
7C14
100
AcDbEntity
  8
30
  6
CONTINUOUS
 62
     0
100
AcDbLine
 10
-25.0
 20
-338.918739
 30
0.0
 11
-25.0
 21
-363.0664153927877
 31
0.0
  0
LINE
  5
7C2A
330
7C14
100
AcDbEntity
  8
30
  6
CONTINUOUS
 62
     0
100
AcDbLine
 10
25.0
 20
-338.918739
 30
0.0
 11
25.0
 21
-363.0664153927877
 31
0.0
  0
LINE
  5
7C2B
330
7C14
100
AcDbEntity
  8
30
  6
CONTINUOUS
 62
     0
100
AcDbLine
 10
-23.0
 20
-362.5664153927877
 30
0.0
 11
23.0
 21
-362.5664153927877
 31
0.0
  0
INSERT
  5
7C2C
330
7C14
100
AcDbEntity
  8
30
  6
CONTINUOUS
 62
     0
100
AcDbBlockReference
  2
_OPEN
 10
-25.0
 20
-362.5664153927877
 30
0.0
 41
2.0
 42
2.0
 43
2.0
 50
180.0
  0
INSERT
  5
7C2D
330
7C14
100
AcDbEntity
  8
30
  6
CONTINUOUS
 62
     0
100
AcDbBlockReference
  2
_OPEN
 10
25.0
 20
-362.5664153927877
 30
0.0
 41
2.0
 42
2.0
 43
2.0
  0
MTEXT
  5
7C2E
330
7C14
100
AcDbEntity
  8
30
  6
CONTINUOUS
 62
     0
100
AcDbMText
 10
0.0000000000000002
 20
-359.5664153927877
 30
0.0
 40
4.0
 41
0.0
 71
     5
 72
     1
  1
\A1;50
1001
ACAD
1000
MTEXTBEGIN
1070
    73
1070
     1
1070
    44
1040
1.0
1070
    74
1070
     0
1000
MTEXTEND
  0
POINT
  5
7C2F
330
7C14
100
AcDbEntity
  8
DEFPOINTS
  6
CONTINUOUS
 62
     0
100
AcDbPoint
 10
-25.0
 20
-337.918739
 30
0.0
  0
POINT
  5
7C30
330
7C14
100
AcDbEntity
  8
DEFPOINTS
  6
CONTINUOUS
 62
     0
100
AcDbPoint
 10
25.0
 20
-337.918739
 30
0.0
  0
POINT
  5
7C31
330
7C14
100
AcDbEntity
  8
DEFPOINTS
  6
CONTINUOUS
 62
     0
100
AcDbPoint
 10
25.0
 20
-362.5664153927877
 30
0.0
  0
ENDBLK
  5
7C1F
330
7C14
100
AcDbEntity
  8
0
100
AcDbBlockEnd
  0
BLOCK
  5
7D41
330
7D38
100
AcDbEntity
  8
0
100
AcDbBlockBegin
  2
A$C7E487736
 70
     0
 10
0.0
 20
0.0
 30
0.0
  3
A$C7E487736
  1

  0
CIRCLE
  5
7D39
330
7D38
100
AcDbEntity
  8
159
  6
CONTINUOUS
 62
   232
100
AcDbCircle
 10
-27.39973599999996
 20
1.669810999999924
 30
0.0
 40
2.5
  0
CIRCLE
  5
7D3A
330
7D38
100
AcDbEntity
  8
159
  6
CONTINUOUS
 62
   232
100
AcDbCircle
 10
-27.39973599999996
 20
10.66981099999992
 30
0.0
 40
2.5
  0
CIRCLE
  5
7D3B
330
7D38
100
AcDbEntity
  8
88
  6
CONTINUOUS
 62
   190
100
AcDbCircle
 10
-27.39973599999996
 20
1.669810999999924
 30
0.0
 40
2.799999999999999
  0
CIRCLE
  5
7D3C
330
7D38
100
AcDbEntity
  8
88
  6
CONTINUOUS
 62
   190
100
AcDbCircle
 10
-27.39973599999996
 20
10.66981099999992
 30
0.0
 40
2.799999999999999
  0
CIRCLE
  5
7D3D
330
7D38
100
AcDbEntity
  8
88
  6
CONTINUOUS
 62
   190
100
AcDbCircle
 10
24.20000800000002
 20
-6.200275000000033
 30
0.0
 40
3.75
  0
CIRCLE
  5
7D3E
330
7D38
100
AcDbEntity
  8
LY_256
  6
CONTINUOUS
 62
   251
100
AcDbCircle
 10
24.20000800000002
 20
-6.200275000000033
 30
0.0
 40
3.1
  0
CIRCLE
  5
7D3F
330
7D38
100
AcDbEntity
  8
63
  6
CONTINUOUS
 62
    10
100
AcDbCircle
 10
32.70000000000001
 20
1.49972699999995
 30
0.0
 40
1.8
  0
CIRCLE
  5
7D40
330
7D38
100
AcDbEntity
  8
88
  6
CONTINUOUS
 62
   190
100
AcDbCircle
 10
25.70013100000002
 20
8.299724999999966
 30
0.0
 40
2.85
  0
ENDBLK
  5
7D42
330
7D38
100
AcDbEntity
  8
0
100
AcDbBlockEnd
  0
ENDSEC
  0
SECTION
  2
ENTITIES
  0
LINE
  5
B4
330
1E
100
AcDbEntity
  8
16
100
AcDbLine
 10
0.0
 20
-68.69789102999789
 30
0.0
 11
0.0
 21
71.25
 31
0.0
  0
LINE
  5
B5
330
1E
100
AcDbEntity
  8
16
100
AcDbLine
 10
48.42412760807778
 20
-14.99999999999999
 30
0.0
 11
-56.60868885537141
 21
-15.0
 31
0.0
  0
MTEXT
  5
BF3
330
1E
100
AcDbEntity
  8
24
  6
CONTINUOUS
100
AcDbMText
 10
142.1181906098743
 20
177.5
 30
0.0
 40
3.0
 41
0.0
 71
     1
 72
     1
  1
\A1;
1001
ACAD
1000
MTEXTBEGIN
1070
    73
1070
     1
1070
    44
1040
1.0
1070
    74
1070
     0
1000
MTEXTEND
  0
LINE
  5
1C9A
330
1E
100
AcDbEntity
  8
16
100
AcDbLine
 10
0.0
 20
111.8811670622458
 30
0.0
 11
0.0
 21
254.3811670622458
 31
0.0
  0
LINE
  5
1C9B
330
1E
100
AcDbEntity
  8
16
100
AcDbLine
 10
280.529464512613
 20
-15.0
 30
0.0
 11
146.0415450433536
 21
-15.0
 31
0.0
  0
LINE
  5
2260
330
1E
100
AcDbEntity
  8
16
100
AcDbLine
 10
61.16892857569928
 20
-250.0
 30
0.0
 11
-67.93042662644572
 21
-250.0
 31
0.0
  0
LINE
  5
2261
330
1E
100
AcDbEntity
  8
16
100
AcDbLine
 10
0.0
 20
-332.4374692359974
 30
0.0
 11
0.0
 21
-164.5
 31
0.0
  0
TEXT
  5
70DC
330
1E
100
AcDbEntity
  8
0
  6
CONTINUOUS
100
AcDbText
 10
118.551617021593
 20
242.3160103257695
 30
0.0
 40
5.0
  1
ZAE50-NF 3P RC
  7
SMP-SET
100
AcDbText
  0
LINE
  5
7579
330
1E
100
AcDbEntity
  8
10
  6
CONTINUOUS
100
AcDbLine
 10
-35.99991699999998
 20
24.0
 30
0.0
 11
-35.99991699999998
 21
-24.00030500000008
 31
0.0
  0
LINE
  5
757A
330
1E
100
AcDbEntity
  8
10
  6
CONTINUOUS
100
AcDbLine
 10
36.000067
 20
24.0
 30
0.0
 11
36.000067
 21
-24.00030500000008
 31
0.0
  0
LINE
  5
757C
330
1E
100
AcDbEntity
  8
10
  6
CONTINUOUS
100
AcDbLine
 10
-37.49991699999998
 20
31.09968299999991
 30
0.0
 11
-37.49991699999998
 21
-45.75027400000005
 31
0.0
  0
LINE
  5
757D
330
1E
100
AcDbEntity
  8
10
  6
CONTINUOUS
100
AcDbLine
 10
11.00006700000003
 20
25.0
 30
0.0
 11
11.00006700000003
 21
-24.50030500000008
 31
0.0
  0
LINE
  5
757E
330
1E
100
AcDbEntity
  8
10
  6
CONTINUOUS
100
AcDbLine
 10
-10.99991699999998
 20
25.0
 30
0.0
 11
-10.99991699999998
 21
-24.50030500000008
 31
0.0
  0
LINE
  5
757F
330
1E
100
AcDbEntity
  8
10
  6
CONTINUOUS
100
AcDbLine
 10
6.0
 20
2.638105999999936
 30
0.0
 11
6.0
 21
21.38528899999994
 31
0.0
  0
LINE
  5
7580
330
1E
100
AcDbEntity
  8
10
  6
CONTINUOUS
100
AcDbLine
 10
-6.0
 20
21.38528899999994
 30
0.0
 11
-6.0
 21
2.638105999999936
 31
0.0
  0
LINE
  5
7581
330
1E
100
AcDbEntity
  8
10
  6
CONTINUOUS
100
AcDbLine
 10
-37.49995699999996
 20
-43.81224600000007
 30
0.0
 11
-34.99992199999997
 21
-43.81224600000007
 31
0.0
  0
LINE
  5
7582
330
1E
100
AcDbEntity
  8
10
  6
CONTINUOUS
100
AcDbLine
 10
-37.00006799999997
 20
-67.90030700000006
 30
0.0
 11
-33.00006799999997
 21
-67.90030700000006
 31
0.0
  0
LINE
  5
7583
330
1E
100
AcDbEntity
  8
10
  6
CONTINUOUS
100
AcDbLine
 10
-33.00006799999997
 20
-80.00027500000005
 30
0.0
 11
-36.99995699999997
 21
-80.00027500000005
 31
0.0
  0
LINE
  5
7586
330
1E
100
AcDbEntity
  8
10
  6
CONTINUOUS
100
AcDbLine
 10
-37.399878
 20
-98.49986900000004
 30
0.0
 11
37.40012200000004
 21
-98.49986900000004
 31
0.0
  0
LINE
  5
7587
330
1E
100
AcDbEntity
  8
10
  6
CONTINUOUS
100
AcDbLine
 10
-37.399878
 20
-80.50016900000008
 30
0.0
 11
-32.0
 21
-80.50016900000008
 31
0.0
  0
LINE
  5
7588
330
1E
100
AcDbEntity
  8
10
  6
CONTINUOUS
100
AcDbLine
 10
-32.49993299999997
 20
-37.90003200000006
 30
0.0
 11
-37.49991699999998
 21
-37.90003200000006
 31
0.0
  0
LINE
  5
7589
330
1E
100
AcDbEntity
  8
10
  6
CONTINUOUS
100
AcDbLine
 10
-37.49995699999996
 20
-43.81224600000007
 30
0.0
 11
-37.49995699999996
 21
-79.50027500000004
 31
0.0
  0
LINE
  5
758A
330
1E
100
AcDbEntity
  8
10
  6
CONTINUOUS
100
AcDbLine
 10
-37.399878
 20
-80.50016900000008
 30
0.0
 11
-37.399878
 21
-98.49986900000004
 31
0.0
  0
ARC
  5
758B
330
1E
100
AcDbEntity
  8
10
  6
CONTINUOUS
100
AcDbCircle
 10
-36.99995699999997
 20
-79.50027500000004
 30
0.0
 40
0.5
100
AcDbArc
 50
180.0
 51
270.0
  0
LINE
  5
758C
330
1E
100
AcDbEntity
  8
10
  6
CONTINUOUS
100
AcDbLine
 10
-37.50006799999997
 20
-68.90020100000004
 30
0.0
 11
-37.50008399999996
 21
-68.90020100000004
 31
0.0
  0
ARC
  5
758D
330
1E
100
AcDbEntity
  8
10
  6
CONTINUOUS
100
AcDbCircle
 10
-37.00006799999997
 20
-67.40030700000005
 30
0.0
 40
0.5
100
AcDbArc
 50
180.0
 51
270.0
  0
LINE
  5
758F
330
1E
100
AcDbEntity
  8
10
  6
CONTINUOUS
100
AcDbLine
 10
-37.49991699999998
 20
-49.49972500000007
 30
0.0
 11
-37.49991699999998
 21
-31.09968300000002
 31
0.0
  0
LINE
  5
7591
330
1E
100
AcDbEntity
  8
10
  6
CONTINUOUS
100
AcDbLine
 10
37.50002900000001
 20
-43.81224600000007
 30
0.0
 11
37.50002900000001
 21
-52.65027500000008
 31
0.0
  0
LINE
  5
7592
330
1E
100
AcDbEntity
  8
10
  6
CONTINUOUS
100
AcDbLine
 10
7.999901000000022
 20
-67.90030700000006
 30
0.0
 11
16.99990100000005
 21
-67.90030700000006
 31
0.0
  0
LINE
  5
7593
330
1E
100
AcDbEntity
  8
10
  6
CONTINUOUS
100
AcDbLine
 10
8.999901000000022
 20
-80.00027500000005
 30
0.0
 11
16.99990100000005
 21
-80.00027500000005
 31
0.0
  0
CIRCLE
  5
7594
330
1E
100
AcDbEntity
  8
10
  6
CONTINUOUS
100
AcDbCircle
 10
12.49996200000003
 20
-72.00021400000008
 30
0.0
 40
3.9
  0
LINE
  5
7595
330
1E
100
AcDbEntity
  8
10
  6
CONTINUOUS
100
AcDbLine
 10
9.324962000000027
 20
-72.00021400000008
 30
0.0
 11
8.549962000000022
 21
-72.00021400000008
 31
0.0
  0
LINE
  5
7596
330
1E
100
AcDbEntity
  8
10
  6
CONTINUOUS
100
AcDbLine
 10
7.0
 20
-80.50016900000008
 30
0.0
 11
18.0
 21
-80.50016900000008
 31
0.0
  0
LINE
  5
7597
330
1E
100
AcDbEntity
  8
10
  6
CONTINUOUS
100
AcDbLine
 10
-17.00009899999997
 20
-67.90030700000006
 30
0.0
 11
-8.000098999999977
 21
-67.90030700000006
 31
0.0
  0
LINE
  5
7598
330
1E
100
AcDbEntity
  8
10
  6
CONTINUOUS
100
AcDbLine
 10
-17.00009899999997
 20
-80.00027500000005
 30
0.0
 11
-8.000098999999977
 21
-80.00027500000005
 31
0.0
  0
LINE
  5
7599
330
1E
100
AcDbEntity
  8
10
  6
CONTINUOUS
100
AcDbLine
 10
-18.0
 20
-80.50016900000008
 30
0.0
 11
-7.0
 21
-80.50016900000008
 31
0.0
  0
ARC
  5
759A
330
1E
100
AcDbEntity
  8
10
  6
CONTINUOUS
100
AcDbCircle
 10
-25.00008399999996
 20
-72.00021400000008
 30
0.0
 40
7.75
100
AcDbArc
 50
165.4070019999997
 51
194.5929980000002
  0
ARC
  5
759B
330
1E
100
AcDbEntity
  8
10
  6
CONTINUOUS
100
AcDbCircle
 10
-25.00008399999996
 20
-72.00021400000008
 30
0.0
 40
7.75
100
AcDbArc
 50
345.4070019999997
 51
14.59299800000026
  0
LINE
  5
759C
330
1E
100
AcDbEntity
  8
17
  6
CONTINOUS
100
AcDbLine
 10
-25.00001599999999
 20
-65.92526200000008
 30
0.0
 11
-25.00001599999999
 21
-78.07528700000005
 31
0.0
  0
ARC
  5
759D
330
1E
100
AcDbEntity
  8
10
  6
CONTINUOUS
100
AcDbCircle
 10
-25.0
 20
-71.99966400000005
 30
0.0
 40
6.0
100
AcDbArc
 50
0.0
 51
180.0
  0
LINE
  5
759E
330
1E
100
AcDbEntity
  8
17
  6
CONTINOUS
100
AcDbLine
 10
-31.07499799999999
 20
-72.00027500000004
 30
0.0
 11
-18.92500299999997
 21
-72.00027500000004
 31
0.0
  0
LINE
  5
759F
330
1E
100
AcDbEntity
  8
10
  6
CONTINUOUS
100
AcDbLine
 10
-32.50006799999997
 20
-79.50027500000004
 30
0.0
 11
-32.50006799999997
 21
-73.95283500000005
 31
0.0
  0
LINE
  5
75A0
330
1E
100
AcDbEntity
  8
10
  6
CONTINUOUS
100
AcDbLine
 10
-31.0
 20
-71.99966400000005
 30
0.0
 11
-31.0
 21
-79.50016900000008
 31
0.0
  0
ARC
  5
75A1
330
1E
100
AcDbEntity
  8
10
  6
CONTINUOUS
100
AcDbCircle
 10
-32.0
 20
-79.50016900000008
 30
0.0
 40
1.0
100
AcDbArc
 50
270.0
 51
0.0
  0
LINE
  5
75A2
330
1E
100
AcDbEntity
  8
10
  6
CONTINUOUS
100
AcDbLine
 10
-32.96821799999998
 20
-80.00027500000005
 30
0.0
 11
-31.13403599999998
 21
-80.00027500000005
 31
0.0
  0
LINE
  5
75A3
330
1E
100
AcDbEntity
  8
10
  6
CONTINUOUS
100
AcDbLine
 10
-33.00006799999997
 20
-80.00027500000005
 30
0.0
 11
-32.96821799999998
 21
-80.00027500000005
 31
0.0
  0
ARC
  5
75A4
330
1E
100
AcDbEntity
  8
10
  6
CONTINUOUS
100
AcDbCircle
 10
-33.00006799999997
 20
-79.50027500000004
 30
0.0
 40
0.5
100
AcDbArc
 50
270.0
 51
0.0
  0
LINE
  5
75A5
330
1E
100
AcDbEntity
  8
10
  6
CONTINUOUS
100
AcDbLine
 10
-17.50009899999997
 20
-79.50027500000004
 30
0.0
 11
-17.50009899999997
 21
-73.95283500000005
 31
0.0
  0
LINE
  5
75A6
330
1E
100
AcDbEntity
  8
10
  6
CONTINUOUS
100
AcDbLine
 10
-19.0
 20
-71.99966400000005
 30
0.0
 11
-19.0
 21
-79.50016900000008
 31
0.0
  0
LINE
  5
75A7
330
1E
100
AcDbEntity
  8
10
  6
CONTINUOUS
100
AcDbLine
 10
-18.86596399999996
 20
-80.00027500000005
 30
0.0
 11
-17.03178099999999
 21
-80.00027500000005
 31
0.0
  0
LINE
  5
75A8
330
1E
100
AcDbEntity
  8
10
  6
CONTINUOUS
100
AcDbLine
 10
-17.03178099999999
 20
-80.00027500000005
 30
0.0
 11
-17.00009899999997
 21
-80.00027500000005
 31
0.0
  0
ARC
  5
75A9
330
1E
100
AcDbEntity
  8
10
  6
CONTINUOUS
100
AcDbCircle
 10
-17.00009899999997
 20
-79.50027500000004
 30
0.0
 40
0.5
100
AcDbArc
 50
180.0
 51
270.0
  0
ARC
  5
75AA
330
1E
100
AcDbEntity
  8
10
  6
CONTINUOUS
100
AcDbCircle
 10
-18.0
 20
-79.50016900000008
 30
0.0
 40
1.0
100
AcDbArc
 50
180.0
 51
270.0
  0
LINE
  5
75AB
330
1E
100
AcDbEntity
  8
10
  6
CONTINUOUS
100
AcDbLine
 10
-18.50009899999997
 20
-64.50027500000004
 30
0.0
 11
-31.50009899999997
 21
-64.50027500000004
 31
0.0
  0
LINE
  5
75AC
330
1E
100
AcDbEntity
  8
10
  6
CONTINUOUS
100
AcDbLine
 10
-32.50006799999997
 20
-70.04759300000007
 30
0.0
 11
-32.50006799999997
 21
-65.50027500000004
 31
0.0
  0
ARC
  5
75AD
330
1E
100
AcDbEntity
  8
10
  6
CONTINUOUS
100
AcDbCircle
 10
-33.00006799999997
 20
-67.40030700000005
 30
0.0
 40
0.5
100
AcDbArc
 50
270.0
 51
0.0
  0
ARC
  5
75AE
330
1E
100
AcDbEntity
  8
10
  6
CONTINUOUS
100
AcDbCircle
 10
-31.50006799999997
 20
-65.50027500000004
 30
0.0
 40
1.0
100
AcDbArc
 50
90.0
 51
180.0
  0
LINE
  5
75AF
330
1E
100
AcDbEntity
  8
10
  6
CONTINUOUS
100
AcDbLine
 10
-17.50009899999997
 20
-70.04759300000007
 30
0.0
 11
-17.50009899999997
 21
-65.50027500000004
 31
0.0
  0
ARC
  5
75B0
330
1E
100
AcDbEntity
  8
10
  6
CONTINUOUS
100
AcDbCircle
 10
-17.00009899999997
 20
-67.40030700000005
 30
0.0
 40
0.5
100
AcDbArc
 50
180.0
 51
270.0
  0
ARC
  5
75B1
330
1E
100
AcDbEntity
  8
10
  6
CONTINUOUS
100
AcDbCircle
 10
-18.50009899999997
 20
-65.50027500000004
 30
0.0
 40
1.0
100
AcDbArc
 50
0.0
 51
90.0
  0
ARC
  5
75B2
330
1E
100
AcDbEntity
  8
10
  6
CONTINUOUS
100
AcDbCircle
 10
-0.0000839999999585
 20
-72.00021400000008
 30
0.0
 40
7.75
100
AcDbArc
 50
345.4070019999997
 51
14.59299800000026
  0
ARC
  5
75B3
330
1E
100
AcDbEntity
  8
10
  6
CONTINUOUS
100
AcDbCircle
 10
-0.0000839999999585
 20
-72.00021400000008
 30
0.0
 40
7.75
100
AcDbArc
 50
165.4078969999993
 51
194.5921030000006
  0
ARC
  5
75B4
330
1E
100
AcDbEntity
  8
10
  6
CONTINUOUS
100
AcDbCircle
 10
0.0
 20
-71.99966400000005
 30
0.0
 40
6.0
100
AcDbArc
 50
0.0
 51
180.0
  0
LINE
  5
75B5
330
1E
100
AcDbEntity
  8
17
  6
CONTINOUS
100
AcDbLine
 10
-6.074997999999993
 20
-72.00027500000004
 30
0.0
 11
6.074997000000024
 21
-72.00027500000004
 31
0.0
  0
LINE
  5
75B6
330
1E
100
AcDbEntity
  8
10
  6
CONTINUOUS
100
AcDbLine
 10
-4.0
 20
-80.50016900000008
 30
0.0
 11
4.0
 21
-80.50016900000008
 31
0.0
  0
LINE
  5
75B7
330
1E
100
AcDbEntity
  8
10
  6
CONTINUOUS
100
AcDbLine
 10
-4.0
 20
-85.50016900000008
 30
0.0
 11
4.0
 21
-85.50016900000008
 31
0.0
  0
LINE
  5
75B8
330
1E
100
AcDbEntity
  8
10
  6
CONTINUOUS
100
AcDbLine
 10
-4.0
 20
-72.50016900000009
 30
0.0
 11
4.0
 21
-72.50016900000009
 31
0.0
  0
LINE
  5
75B9
330
1E
100
AcDbEntity
  8
10
  6
CONTINUOUS
100
AcDbLine
 10
-7.500098999999977
 20
-73.95271700000006
 30
0.0
 11
-7.500098999999977
 21
-79.50027500000004
 31
0.0
  0
LINE
  5
75BA
330
1E
100
AcDbEntity
  8
10
  6
CONTINUOUS
100
AcDbLine
 10
-5.0
 20
-73.50016900000008
 30
0.0
 11
-5.0
 21
-84.50016900000008
 31
0.0
  0
LINE
  5
75BB
330
1E
100
AcDbEntity
  8
10
  6
CONTINUOUS
100
AcDbLine
 10
-6.0
 20
-71.99966400000005
 30
0.0
 11
-6.0
 21
-79.50016900000008
 31
0.0
  0
LINE
  5
75BC
330
1E
100
AcDbEntity
  8
10
  6
CONTINUOUS
100
AcDbLine
 10
-8.000098999999977
 20
-80.00027500000005
 30
0.0
 11
-7.968217999999978
 21
-80.00027500000005
 31
0.0
  0
ARC
  5
75BD
330
1E
100
AcDbEntity
  8
10
  6
CONTINUOUS
100
AcDbCircle
 10
-8.000098999999977
 20
-79.50027500000004
 30
0.0
 40
0.5
100
AcDbArc
 50
270.0
 51
0.0
  0
LINE
  5
75BE
330
1E
100
AcDbEntity
  8
10
  6
CONTINUOUS
100
AcDbLine
 10
-7.968217999999978
 20
-80.00027500000005
 30
0.0
 11
-6.13403599999998
 21
-80.00027500000005
 31
0.0
  0
ARC
  5
75BF
330
1E
100
AcDbEntity
  8
10
  6
CONTINUOUS
100
AcDbCircle
 10
-4.0
 20
-84.50016900000008
 30
0.0
 40
1.0
100
AcDbArc
 50
180.0
 51
270.0
  0
ARC
  5
75C0
330
1E
100
AcDbEntity
  8
10
  6
CONTINUOUS
100
AcDbCircle
 10
-4.0
 20
-81.50016900000009
 30
0.0
 40
1.0
100
AcDbArc
 50
90.0
 51
180.0
  0
ARC
  5
75C1
330
1E
100
AcDbEntity
  8
10
  6
CONTINUOUS
100
AcDbCircle
 10
-7.0
 20
-79.50016900000008
 30
0.0
 40
1.0
100
AcDbArc
 50
270.0
 51
0.0
  0
ARC
  5
75C2
330
1E
100
AcDbEntity
  8
10
  6
CONTINUOUS
100
AcDbCircle
 10
-4.0
 20
-73.50016900000008
 30
0.0
 40
1.0
100
AcDbArc
 50
90.0
 51
180.0
  0
LINE
  5
75C3
330
1E
100
AcDbEntity
  8
10
  6
CONTINUOUS
100
AcDbLine
 10
7.499901000000022
 20
-79.50027500000004
 30
0.0
 11
7.499901000000022
 21
-73.95283500000005
 31
0.0
  0
LINE
  5
75C4
330
1E
100
AcDbEntity
  8
10
  6
CONTINUOUS
100
AcDbLine
 10
5.0
 20
-73.50016900000008
 30
0.0
 11
5.0
 21
-84.50016900000008
 31
0.0
  0
LINE
  5
75C5
330
1E
100
AcDbEntity
  8
10
  6
CONTINUOUS
100
AcDbLine
 10
6.0
 20
-71.99966400000005
 30
0.0
 11
6.0
 21
-79.50016900000008
 31
0.0
  0
LINE
  5
75C6
330
1E
100
AcDbEntity
  8
10
  6
CONTINUOUS
100
AcDbLine
 10
6.134036000000037
 20
-80.00027500000005
 30
0.0
 11
7.968219000000004
 21
-80.00027500000005
 31
0.0
  0
LINE
  5
75C7
330
1E
100
AcDbEntity
  8
10
  6
CONTINUOUS
100
AcDbLine
 10
8.999901000000022
 20
-80.00027500000005
 30
0.0
 11
7.999901000000022
 21
-80.00027500000005
 31
0.0
  0
LINE
  5
75C8
330
1E
100
AcDbEntity
  8
10
  6
CONTINUOUS
100
AcDbLine
 10
7.968219000000004
 20
-80.00027500000005
 30
0.0
 11
7.999901000000022
 21
-80.00027500000005
 31
0.0
  0
ARC
  5
75C9
330
1E
100
AcDbEntity
  8
10
  6
CONTINUOUS
100
AcDbCircle
 10
7.999901000000022
 20
-79.50027500000004
 30
0.0
 40
0.5
100
AcDbArc
 50
180.0
 51
270.0
  0
ARC
  5
75CA
330
1E
100
AcDbEntity
  8
10
  6
CONTINUOUS
100
AcDbCircle
 10
4.0
 20
-84.50016900000008
 30
0.0
 40
1.0
100
AcDbArc
 50
270.0
 51
0.0
  0
ARC
  5
75CB
330
1E
100
AcDbEntity
  8
10
  6
CONTINUOUS
100
AcDbCircle
 10
4.0
 20
-81.50016900000009
 30
0.0
 40
1.0
100
AcDbArc
 50
0.0
 51
90.0
  0
ARC
  5
75CC
330
1E
100
AcDbEntity
  8
10
  6
CONTINUOUS
100
AcDbCircle
 10
7.0
 20
-79.50016900000008
 30
0.0
 40
1.0
100
AcDbArc
 50
180.0
 51
270.0
  0
LINE
  5
75CD
330
1E
100
AcDbEntity
  8
10
  6
CONTINUOUS
100
AcDbLine
 10
8.599962000000033
 20
-71.99632000000008
 30
0.0
 11
8.599962000000033
 21
-72.01118700000006
 31
0.0
  0
ARC
  5
75CE
330
1E
100
AcDbEntity
  8
10
  6
CONTINUOUS
100
AcDbCircle
 10
4.0
 20
-73.50016900000008
 30
0.0
 40
1.0
100
AcDbArc
 50
0.0
 51
90.0
  0
LINE
  5
75CF
330
1E
100
AcDbEntity
  8
10
  6
CONTINUOUS
100
AcDbLine
 10
6.499901000000022
 20
-64.50027500000004
 30
0.0
 11
-6.500098999999977
 21
-64.50027500000004
 31
0.0
  0
ARC
  5
75D0
330
1E
100
AcDbEntity
  8
10
  6
CONTINUOUS
100
AcDbCircle
 10
-8.000098999999977
 20
-67.40030700000005
 30
0.0
 40
0.5
100
AcDbArc
 50
270.0
 51
0.0
  0
LINE
  5
75D1
330
1E
100
AcDbEntity
  8
10
  6
CONTINUOUS
100
AcDbLine
 10
-7.500098999999977
 20
-65.50027500000004
 30
0.0
 11
-7.500098999999977
 21
-70.04771000000005
 31
0.0
  0
ARC
  5
75D2
330
1E
100
AcDbEntity
  8
10
  6
CONTINUOUS
100
AcDbCircle
 10
-6.500098999999977
 20
-65.50027500000004
 30
0.0
 40
1.0
100
AcDbArc
 50
90.0
 51
180.0
  0
LINE
  5
75D3
330
1E
100
AcDbEntity
  8
10
  6
CONTINUOUS
100
AcDbLine
 10
7.499901000000022
 20
-70.04759300000007
 30
0.0
 11
7.499901000000022
 21
-65.50027500000004
 31
0.0
  0
ARC
  5
75D4
330
1E
100
AcDbEntity
  8
10
  6
CONTINUOUS
100
AcDbCircle
 10
6.499901000000022
 20
-65.50027500000004
 30
0.0
 40
1.0
100
AcDbArc
 50
0.0
 51
90.0
  0
ARC
  5
75D5
330
1E
100
AcDbEntity
  8
10
  6
CONTINUOUS
100
AcDbCircle
 10
7.999901000000022
 20
-67.40030700000005
 30
0.0
 40
0.5
100
AcDbArc
 50
180.0
 51
270.0
  0
LINE
  5
75D6
330
1E
100
AcDbEntity
  8
10
  6
CONTINUOUS
100
AcDbLine
 10
37.40012200000004
 20
-80.50016900000008
 30
0.0
 11
37.40012200000004
 21
-98.49986900000004
 31
0.0
  0
LINE
  5
75D7
330
1E
100
AcDbEntity
  8
10
  6
CONTINUOUS
100
AcDbLine
 10
31.13403600000001
 20
-80.00027500000005
 30
0.0
 11
32.968219
 21
-80.00027500000005
 31
0.0
  0
ARC
  5
75D8
330
1E
100
AcDbEntity
  8
10
  6
CONTINUOUS
100
AcDbCircle
 10
31.49990100000005
 20
-65.50027500000004
 30
0.0
 40
1.0
100
AcDbArc
 50
0.0
 51
90.0
  0
LINE
  5
75D9
330
1E
100
AcDbEntity
  8
10
  6
CONTINUOUS
100
AcDbLine
 10
32.0
 20
-80.50016900000008
 30
0.0
 11
37.40012200000004
 21
-80.50016900000008
 31
0.0
  0
ARC
  5
75DA
330
1E
100
AcDbEntity
  8
10
  6
CONTINUOUS
100
AcDbCircle
 10
24.99991600000004
 20
-72.00021400000008
 30
0.0
 40
7.75
100
AcDbArc
 50
165.4078969999993
 51
194.5921030000006
  0
CIRCLE
  5
75DB
330
1E
100
AcDbEntity
  8
10
  6
CONTINUOUS
100
AcDbCircle
 10
12.49996200000003
 20
-72.00021400000008
 30
0.0
 40
2.45
  0
LINE
  5
75DC
330
1E
100
AcDbEntity
  8
17
  6
CONTINOUS
100
AcDbLine
 10
24.999986
 20
-65.92526200000008
 30
0.0
 11
24.999986
 21
-78.07528700000005
 31
0.0
  0
ARC
  5
75DD
330
1E
100
AcDbEntity
  8
10
  6
CONTINUOUS
100
AcDbCircle
 10
25.0
 20
-71.99966400000005
 30
0.0
 40
6.0
100
AcDbArc
 50
0.0
 51
180.0
  0
LINE
  5
75DE
330
1E
100
AcDbEntity
  8
17
  6
CONTINOUS
100
AcDbLine
 10
18.92500300000003
 20
-72.00027500000004
 30
0.0
 11
31.07499700000002
 21
-72.00027500000004
 31
0.0
  0
LINE
  5
75DF
330
1E
100
AcDbEntity
  8
10
  6
CONTINUOUS
100
AcDbLine
 10
17.49990100000005
 20
-73.95271700000006
 30
0.0
 11
17.49990100000005
 21
-79.50027500000004
 31
0.0
  0
LINE
  5
75E0
330
1E
100
AcDbEntity
  8
10
  6
CONTINUOUS
100
AcDbLine
 10
19.0
 20
-71.99966400000005
 30
0.0
 11
19.0
 21
-79.50016900000008
 31
0.0
  0
LINE
  5
75E1
330
1E
100
AcDbEntity
  8
10
  6
CONTINUOUS
100
AcDbLine
 10
17.03178199999999
 20
-80.00027500000005
 30
0.0
 11
18.86596400000001
 21
-80.00027500000005
 31
0.0
  0
LINE
  5
75E2
330
1E
100
AcDbEntity
  8
10
  6
CONTINUOUS
100
AcDbLine
 10
16.99990100000005
 20
-80.00027500000005
 30
0.0
 11
17.03178199999999
 21
-80.00027500000005
 31
0.0
  0
ARC
  5
75E3
330
1E
100
AcDbEntity
  8
10
  6
CONTINUOUS
100
AcDbCircle
 10
16.99990100000005
 20
-79.50027500000004
 30
0.0
 40
0.5
100
AcDbArc
 50
270.0
 51
0.0
  0
ARC
  5
75E4
330
1E
100
AcDbEntity
  8
10
  6
CONTINUOUS
100
AcDbCircle
 10
18.0
 20
-79.50016900000008
 30
0.0
 40
1.0
100
AcDbArc
 50
270.0
 51
0.0
  0
LINE
  5
75E5
330
1E
100
AcDbEntity
  8
10
  6
CONTINUOUS
100
AcDbLine
 10
14.08746200000001
 20
-72.00021400000008
 30
0.0
 11
10.91246200000003
 21
-72.00021400000008
 31
0.0
  0
LINE
  5
75E6
330
1E
100
AcDbEntity
  8
10
  6
CONTINUOUS
100
AcDbLine
 10
12.49996200000003
 20
-70.4127140000001
 30
0.0
 11
12.49996200000003
 21
-73.58771400000006
 31
0.0
  0
LINE
  5
75E7
330
1E
100
AcDbEntity
  8
10
  6
CONTINUOUS
100
AcDbLine
 10
12.49996200000003
 20
-75.1752140000001
 30
0.0
 11
12.49996200000003
 21
-75.95021400000007
 31
0.0
  0
LINE
  5
75E8
330
1E
100
AcDbEntity
  8
10
  6
CONTINUOUS
100
AcDbLine
 10
16.44996200000002
 20
-72.00021400000008
 30
0.0
 11
15.67496200000002
 21
-72.00021400000008
 31
0.0
  0
LINE
  5
75E9
330
1E
100
AcDbEntity
  8
10
  6
CONTINUOUS
100
AcDbLine
 10
31.0
 20
-71.99966400000005
 30
0.0
 11
31.0
 21
-79.50016900000008
 31
0.0
  0
ARC
  5
75EA
330
1E
100
AcDbEntity
  8
10
  6
CONTINUOUS
100
AcDbCircle
 10
32.0
 20
-79.50016900000008
 30
0.0
 40
1.0
100
AcDbArc
 50
180.0
 51
270.0
  0
LINE
  5
75EB
330
1E
100
AcDbEntity
  8
10
  6
CONTINUOUS
100
AcDbLine
 10
18.49990100000005
 20
-64.50027500000004
 30
0.0
 11
31.49990100000005
 21
-64.50027500000004
 31
0.0
  0
LINE
  5
75EC
330
1E
100
AcDbEntity
  8
10
  6
CONTINUOUS
100
AcDbLine
 10
12.49996200000003
 20
-68.05021400000009
 30
0.0
 11
12.49996200000003
 21
-68.82521400000007
 31
0.0
  0
LINE
  5
75ED
330
1E
100
AcDbEntity
  8
10
  6
CONTINUOUS
100
AcDbLine
 10
17.49990100000005
 20
-65.50027500000004
 30
0.0
 11
17.49990100000005
 21
-70.04771000000005
 31
0.0
  0
ARC
  5
75EE
330
1E
100
AcDbEntity
  8
10
  6
CONTINUOUS
100
AcDbCircle
 10
18.49990100000005
 20
-65.50027500000004
 30
0.0
 40
1.0
100
AcDbArc
 50
90.0
 51
180.0
  0
ARC
  5
75EF
330
1E
100
AcDbEntity
  8
10
  6
CONTINUOUS
100
AcDbCircle
 10
16.99990100000005
 20
-67.40030700000005
 30
0.0
 40
0.5
100
AcDbArc
 50
270.0
 51
0.0
  0
LINE
  5
75F0
330
1E
100
AcDbEntity
  8
10
  6
CONTINUOUS
100
AcDbLine
 10
37.50002900000001
 20
-55.65032700000006
 30
0.0
 11
37.50002900000001
 21
-79.50027500000004
 31
0.0
  0
ARC
  5
75F1
330
1E
100
AcDbEntity
  8
10
  6
CONTINUOUS
100
AcDbCircle
 10
24.99991600000004
 20
-72.00021400000008
 30
0.0
 40
7.75
100
AcDbArc
 50
345.4070019999997
 51
14.59299800000026
  0
LINE
  5
75F2
330
1E
100
AcDbEntity
  8
10
  6
CONTINUOUS
100
AcDbLine
 10
32.49990100000005
 20
-79.50027500000004
 30
0.0
 11
32.49990100000005
 21
-73.95283500000005
 31
0.0
  0
LINE
  5
75F3
330
1E
100
AcDbEntity
  8
10
  6
CONTINUOUS
100
AcDbLine
 10
32.968219
 20
-80.00027500000005
 30
0.0
 11
32.99990100000005
 21
-80.00027500000005
 31
0.0
  0
LINE
  5
75F4
330
1E
100
AcDbEntity
  8
10
  6
CONTINUOUS
100
AcDbLine
 10
32.99990100000005
 20
-80.00027500000005
 30
0.0
 11
37.00002900000001
 21
-80.00027500000005
 31
0.0
  0
ARC
  5
75F5
330
1E
100
AcDbEntity
  8
10
  6
CONTINUOUS
100
AcDbCircle
 10
37.00002900000001
 20
-79.50027500000004
 30
0.0
 40
0.5
100
AcDbArc
 50
270.0
 51
0.0
  0
ARC
  5
75F6
330
1E
100
AcDbEntity
  8
10
  6
CONTINUOUS
100
AcDbCircle
 10
32.99990100000005
 20
-79.50027500000004
 30
0.0
 40
0.5
100
AcDbArc
 50
180.0
 51
270.0
  0
LINE
  5
75F7
330
1E
100
AcDbEntity
  8
10
  6
CONTINUOUS
100
AcDbLine
 10
32.49990100000005
 20
-70.04759300000007
 30
0.0
 11
32.49990100000005
 21
-65.50027500000004
 31
0.0
  0
LINE
  5
75F8
330
1E
100
AcDbEntity
  8
10
  6
CONTINUOUS
100
AcDbLine
 10
36.99990100000005
 20
-67.90030700000006
 30
0.0
 11
32.99990100000005
 21
-67.90030700000006
 31
0.0
  0
ARC
  5
75F9
330
1E
100
AcDbEntity
  8
10
  6
CONTINUOUS
100
AcDbCircle
 10
36.99990100000005
 20
-67.40030700000005
 30
0.0
 40
0.5
100
AcDbArc
 50
270.0
 51
0.0
  0
ARC
  5
75FA
330
1E
100
AcDbEntity
  8
10
  6
CONTINUOUS
100
AcDbCircle
 10
32.99990100000005
 20
-67.40030700000005
 30
0.0
 40
0.5
100
AcDbArc
 50
180.0
 51
270.0
  0
LINE
  5
75FB
330
1E
100
AcDbEntity
  8
10
  6
CONTINUOUS
100
AcDbLine
 10
37.50002900000001
 20
-52.65027500000008
 30
0.0
 11
37.50002900000001
 21
-58.10032700000005
 31
0.0
  0
LINE
  5
75FC
330
1E
100
AcDbEntity
  8
10
  6
CONTINUOUS
100
AcDbLine
 10
7.800013000000035
 20
-38.10036900000005
 30
0.0
 11
17.19961499999999
 21
-38.10036900000005
 31
0.0
  0
LINE
  5
75FD
330
1E
100
AcDbEntity
  8
10
  6
CONTINUOUS
100
AcDbLine
 10
-34.99991699999998
 20
-25.00030500000008
 30
0.0
 11
35.000067
 21
-25.00030500000008
 31
0.0
  0
LINE
  5
75FE
330
1E
100
AcDbEntity
  8
10
  6
CONTINUOUS
100
AcDbLine
 10
17.500067
 20
-37.90003200000006
 30
0.0
 11
7.500067000000029
 21
-37.90003200000006
 31
0.0
  0
LINE
  5
75FF
330
1E
100
AcDbEntity
  8
10
  6
CONTINUOUS
100
AcDbLine
 10
-17.19998699999996
 20
-38.10036900000005
 30
0.0
 11
-7.800384999999977
 21
-38.10036900000005
 31
0.0
  0
LINE
  5
7600
330
1E
100
AcDbEntity
  8
10
  6
CONTINUOUS
100
AcDbLine
 10
-7.49993299999997
 20
-37.90003200000006
 30
0.0
 11
-17.49993299999997
 21
-37.90003200000006
 31
0.0
  0
ARC
  5
7601
330
1E
100
AcDbEntity
  8
10
  6
CONTINUOUS
100
AcDbCircle
 10
-18.69998699999996
 20
-35.80027499999999
 30
0.0
 40
1.0
100
AcDbArc
 50
0.0
 51
90.0
  0
ARC
  5
7602
330
1E
100
AcDbEntity
  8
10
  6
CONTINUOUS
100
AcDbCircle
 10
-31.29995599999998
 20
-35.80027499999999
 30
0.0
 40
1.0
100
AcDbArc
 50
90.0
 51
180.0
  0
ARC
  5
7603
330
1E
100
AcDbEntity
  8
10
  6
CONTINUOUS
100
AcDbCircle
 10
-18.99993299999997
 20
-34.99972500000001
 30
0.0
 40
1.5
100
AcDbArc
 50
0.0
 51
90.0
  0
ARC
  5
7604
330
1E
100
AcDbEntity
  8
10
  6
CONTINUOUS
100
AcDbCircle
 10
-30.99993299999997
 20
-34.99972500000001
 30
0.0
 40
1.5
100
AcDbArc
 50
90.0
 51
180.0
  0
LINE
  5
7605
330
1E
100
AcDbEntity
  8
10
  6
CONTINUOUS
100
AcDbLine
 10
-34.99992199999997
 20
-38.20036900000008
 30
0.0
 11
-34.99992199999997
 21
-43.81224600000007
 31
0.0
  0
LINE
  5
7606
330
1E
100
AcDbEntity
  8
10
  6
CONTINUOUS
100
AcDbLine
 10
-34.99992199999997
 20
-38.20036900000008
 30
0.0
 11
-32.79995599999998
 21
-38.20036900000008
 31
0.0
  0
LINE
  5
7607
330
1E
100
AcDbEntity
  8
10
  6
CONTINUOUS
100
AcDbLine
 10
-32.29995599999998
 20
-35.80027499999999
 30
0.0
 11
-32.29995599999998
 21
-37.70036900000008
 31
0.0
  0
ARC
  5
7608
330
1E
100
AcDbEntity
  8
10
  6
CONTINUOUS
100
AcDbCircle
 10
-32.79995599999998
 20
-37.70036900000008
 30
0.0
 40
0.5
100
AcDbArc
 50
270.0
 51
0.0
  0
LINE
  5
7609
330
1E
100
AcDbEntity
  8
10
  6
CONTINUOUS
100
AcDbLine
 10
-32.49993299999997
 20
-38.04716300000007
 30
0.0
 11
-32.49993299999997
 21
-34.99972500000001
 31
0.0
  0
LINE
  5
760A
330
1E
100
AcDbEntity
  8
10
  6
CONTINUOUS
100
AcDbLine
 10
-17.69998699999996
 20
-35.80027499999999
 30
0.0
 11
-17.69998699999996
 21
-37.60036900000006
 31
0.0
  0
LINE
  5
760B
330
1E
100
AcDbEntity
  8
10
  6
CONTINUOUS
100
AcDbLine
 10
-17.69998699999996
 20
-35.80027499999999
 30
0.0
 11
-17.69998699999996
 21
-37.60036900000006
 31
0.0
  0
ARC
  5
760C
330
1E
100
AcDbEntity
  8
10
  6
CONTINUOUS
100
AcDbCircle
 10
-17.19998699999996
 20
-37.60036900000006
 30
0.0
 40
0.5
100
AcDbArc
 50
180.0
 51
270.0
  0
LINE
  5
760D
330
1E
100
AcDbEntity
  8
10
  6
CONTINUOUS
100
AcDbLine
 10
-17.49993299999997
 20
-34.99972500000001
 30
0.0
 11
-17.49993299999997
 21
-38.04716300000007
 31
0.0
  0
LINE
  5
760E
330
1E
100
AcDbEntity
  8
10
  6
CONTINUOUS
100
AcDbLine
 10
-31.29995599999998
 20
-34.800275
 30
0.0
 11
-18.69998699999996
 21
-34.800275
 31
0.0
  0
LINE
  5
760F
330
1E
100
AcDbEntity
  8
10
  6
CONTINUOUS
100
AcDbLine
 10
-18.99993299999997
 20
-33.49972500000001
 30
0.0
 11
-30.99993299999997
 21
-33.49972500000001
 31
0.0
  0
ARC
  5
7610
330
1E
100
AcDbEntity
  8
10
  6
CONTINUOUS
100
AcDbCircle
 10
-34.99991699999998
 20
-24.00030500000008
 30
0.0
 40
1.0
100
AcDbArc
 50
180.0000010000013
 51
270.0
  0
ARC
  5
7611
330
1E
100
AcDbEntity
  8
10
  6
CONTINUOUS
100
AcDbCircle
 10
-6.299986999999987
 20
-35.80027499999999
 30
0.0
 40
1.0
100
AcDbArc
 50
90.0
 51
180.0
  0
ARC
  5
7612
330
1E
100
AcDbEntity
  8
10
  6
CONTINUOUS
100
AcDbCircle
 10
6.300013000000035
 20
-35.80027499999999
 30
0.0
 40
1.0
100
AcDbArc
 50
0.0
 51
90.0
  0
ARC
  5
7613
330
1E
100
AcDbEntity
  8
10
  6
CONTINUOUS
100
AcDbCircle
 10
-5.99993299999997
 20
-34.99972500000001
 30
0.0
 40
1.5
100
AcDbArc
 50
90.0
 51
180.0
  0
ARC
  5
7614
330
1E
100
AcDbEntity
  8
10
  6
CONTINUOUS
100
AcDbCircle
 10
6.000067000000029
 20
-34.99972500000001
 30
0.0
 40
1.5
100
AcDbArc
 50
0.0
 51
90.0
  0
LINE
  5
7615
330
1E
100
AcDbEntity
  8
10
  6
CONTINUOUS
100
AcDbLine
 10
-7.300384999999977
 20
-35.80027499999999
 30
0.0
 11
-7.300384999999977
 21
-37.60036900000006
 31
0.0
  0
ARC
  5
7616
330
1E
100
AcDbEntity
  8
10
  6
CONTINUOUS
100
AcDbCircle
 10
-7.800384999999977
 20
-37.60036900000006
 30
0.0
 40
0.5
100
AcDbArc
 50
270.0
 51
0.0
  0
LINE
  5
7617
330
1E
100
AcDbEntity
  8
10
  6
CONTINUOUS
100
AcDbLine
 10
-7.49993299999997
 20
-38.04716300000007
 30
0.0
 11
-7.49993299999997
 21
-34.99972500000001
 31
0.0
  0
LINE
  5
7618
330
1E
100
AcDbEntity
  8
10
  6
CONTINUOUS
100
AcDbLine
 10
7.300013000000035
 20
-35.80027499999999
 30
0.0
 11
7.300013000000035
 21
-37.60036900000006
 31
0.0
  0
ARC
  5
7619
330
1E
100
AcDbEntity
  8
10
  6
CONTINUOUS
100
AcDbCircle
 10
7.800013000000035
 20
-37.60036900000006
 30
0.0
 40
0.5
100
AcDbArc
 50
180.0
 51
270.0
  0
LINE
  5
761A
330
1E
100
AcDbEntity
  8
10
  6
CONTINUOUS
100
AcDbLine
 10
7.500067000000029
 20
-34.99972500000001
 30
0.0
 11
7.500067000000029
 21
-38.04716300000007
 31
0.0
  0
LINE
  5
761B
330
1E
100
AcDbEntity
  8
10
  6
CONTINUOUS
100
AcDbLine
 10
-6.299986999999987
 20
-34.800275
 30
0.0
 11
6.300013000000035
 21
-34.800275
 31
0.0
  0
LINE
  5
761C
330
1E
100
AcDbEntity
  8
10
  6
CONTINUOUS
100
AcDbLine
 10
6.000067000000029
 20
-33.49972500000001
 30
0.0
 11
-5.99993299999997
 21
-33.49972500000001
 31
0.0
  0
ARC
  5
761D
330
1E
100
AcDbEntity
  8
10
  6
CONTINUOUS
100
AcDbCircle
 10
-10.49991699999998
 20
-24.50030500000008
 30
0.0
 40
0.5
100
AcDbArc
 50
180.0
 51
270.0
  0
LINE
  5
7622
330
1E
100
AcDbEntity
  8
10
  6
CONTINUOUS
100
AcDbLine
 10
-6.499916999999982
 20
1.799725999999964
 30
0.0
 11
6.500067000000029
 21
1.799725999999964
 31
0.0
  0
LINE
  5
7623
330
1E
100
AcDbEntity
  8
10
  6
CONTINUOUS
100
AcDbLine
 10
4.962555000000008
 20
17.27750299999991
 30
0.0
 11
-4.944045999999985
 21
17.27750299999991
 31
0.0
  0
LINE
  5
7624
330
1E
100
AcDbEntity
  8
10
  6
CONTINUOUS
100
AcDbLine
 10
6.0
 20
9.953375999999934
 30
0.0
 11
-6.0
 21
9.953375999999934
 31
0.0
  0
LINE
  5
7625
330
1E
100
AcDbEntity
  8
10
  6
CONTINUOUS
100
AcDbLine
 10
-6.0
 20
2.638105999999936
 30
0.0
 11
6.0
 21
2.638105999999936
 31
0.0
  0
LINE
  5
7626
330
1E
100
AcDbEntity
  8
10
  6
CONTINUOUS
100
AcDbLine
 10
-6.499916999999982
 20
17.19972599999994
 30
0.0
 11
-6.499916999999982
 21
1.799725999999964
 31
0.0
  0
LINE
  5
7627
330
1E
100
AcDbEntity
  8
10
  6
CONTINUOUS
100
AcDbLine
 10
-6.499916999999982
 20
17.19972599999994
 30
0.0
 11
-6.0
 21
17.19972599999994
 31
0.0
  0
LINE
  5
7628
330
1E
100
AcDbEntity
  8
10
  6
CONTINUOUS
100
AcDbLine
 10
-6.499916999999982
 20
15.09972599999997
 30
0.0
 11
-6.0
 21
15.09972599999997
 31
0.0
  0
LINE
  5
7629
330
1E
100
AcDbEntity
  8
10
  6
CONTINUOUS
100
AcDbLine
 10
6.500067000000029
 20
17.19972599999994
 30
0.0
 11
6.500067000000029
 21
1.799725999999964
 31
0.0
  0
LINE
  5
762A
330
1E
100
AcDbEntity
  8
10
  6
CONTINUOUS
100
AcDbLine
 10
6.0
 20
17.19972599999994
 30
0.0
 11
6.500067000000029
 21
17.19972599999994
 31
0.0
  0
LINE
  5
762B
330
1E
100
AcDbEntity
  8
10
  6
CONTINUOUS
100
AcDbLine
 10
6.0
 20
15.09972599999997
 30
0.0
 11
6.500067000000029
 21
15.09972599999997
 31
0.0
  0
ARC
  5
762C
330
1E
100
AcDbEntity
  8
10
  6
CONTINUOUS
100
AcDbCircle
 10
32.79958400000001
 20
-37.70036900000008
 30
0.0
 40
0.5
100
AcDbArc
 50
180.0
 51
270.0
  0
ARC
  5
762D
330
1E
100
AcDbEntity
  8
10
  6
CONTINUOUS
100
AcDbCircle
 10
31.29958400000001
 20
-35.80027499999999
 30
0.0
 40
1.0
100
AcDbArc
 50
0.0
 51
90.0
  0
ARC
  5
762E
330
1E
100
AcDbEntity
  8
10
  6
CONTINUOUS
100
AcDbCircle
 10
31.000067
 20
-34.99972500000001
 30
0.0
 40
1.5
100
AcDbArc
 50
0.0
 51
90.0
  0
ARC
  5
762F
330
1E
100
AcDbEntity
  8
10
  6
CONTINUOUS
100
AcDbCircle
 10
18.69961499999999
 20
-35.80027499999999
 30
0.0
 40
1.0
100
AcDbArc
 50
90.0
 51
180.0
  0
ARC
  5
7630
330
1E
100
AcDbEntity
  8
10
  6
CONTINUOUS
100
AcDbCircle
 10
19.000067
 20
-34.99972500000001
 30
0.0
 40
1.5
100
AcDbArc
 50
90.0
 51
180.0
  0
LINE
  5
7631
330
1E
100
AcDbEntity
  8
10
  6
CONTINUOUS
100
AcDbLine
 10
17.69961499999999
 20
-35.80027499999999
 30
0.0
 11
17.69961499999999
 21
-37.60036900000006
 31
0.0
  0
ARC
  5
7632
330
1E
100
AcDbEntity
  8
10
  6
CONTINUOUS
100
AcDbCircle
 10
17.19961499999999
 20
-37.60036900000006
 30
0.0
 40
0.5
100
AcDbArc
 50
270.0
 51
0.0
  0
LINE
  5
7633
330
1E
100
AcDbEntity
  8
10
  6
CONTINUOUS
100
AcDbLine
 10
17.500067
 20
-38.04716300000007
 30
0.0
 11
17.500067
 21
-34.99972500000001
 31
0.0
  0
LINE
  5
7634
330
1E
100
AcDbEntity
  8
10
  6
CONTINUOUS
100
AcDbLine
 10
31.29958400000001
 20
-34.800275
 30
0.0
 11
18.69961499999999
 21
-34.800275
 31
0.0
  0
LINE
  5
7635
330
1E
100
AcDbEntity
  8
10
  6
CONTINUOUS
100
AcDbLine
 10
31.000067
 20
-33.49972500000001
 30
0.0
 11
19.000067
 21
-33.49972500000001
 31
0.0
  0
ARC
  5
7637
330
1E
100
AcDbEntity
  8
10
  6
CONTINUOUS
100
AcDbCircle
 10
10.50006700000003
 20
-24.50030500000008
 30
0.0
 40
0.5
100
AcDbArc
 50
270.0
 51
0.0000030000009533
  0
LINE
  5
7639
330
1E
100
AcDbEntity
  8
10
  6
CONTINUOUS
100
AcDbLine
 10
37.500067
 20
-49.49972500000007
 30
0.0
 11
37.500067
 21
33.19968299999988
 31
0.0
  0
LINE
  5
763A
330
1E
100
AcDbEntity
  8
10
  6
CONTINUOUS
100
AcDbLine
 10
34.99955100000002
 20
-38.20036900000008
 30
0.0
 11
34.99955100000002
 21
-43.81224600000007
 31
0.0
  0
LINE
  5
763B
330
1E
100
AcDbEntity
  8
10
  6
CONTINUOUS
100
AcDbLine
 10
37.50002900000001
 20
-43.81224600000007
 30
0.0
 11
34.99955100000002
 21
-43.81224600000007
 31
0.0
  0
LINE
  5
763C
330
1E
100
AcDbEntity
  8
10
  6
CONTINUOUS
100
AcDbLine
 10
34.99955100000002
 20
-38.20036900000008
 30
0.0
 11
32.79958400000001
 21
-38.20036900000008
 31
0.0
  0
LINE
  5
763D
330
1E
100
AcDbEntity
  8
10
  6
CONTINUOUS
100
AcDbLine
 10
32.29958400000001
 20
-35.80027499999999
 30
0.0
 11
32.29958400000001
 21
-37.70036900000008
 31
0.0
  0
LINE
  5
763E
330
1E
100
AcDbEntity
  8
10
  6
CONTINUOUS
100
AcDbLine
 10
37.500067
 20
-37.90003200000006
 30
0.0
 11
32.500067
 21
-37.90003200000006
 31
0.0
  0
LINE
  5
763F
330
1E
100
AcDbEntity
  8
10
  6
CONTINUOUS
100
AcDbLine
 10
32.500067
 20
-38.04716300000007
 30
0.0
 11
32.500067
 21
-34.99972500000001
 31
0.0
  0
ARC
  5
7640
330
1E
100
AcDbEntity
  8
10
  6
CONTINUOUS
100
AcDbCircle
 10
35.000067
 20
-24.00030500000008
 30
0.0
 40
1.0
100
AcDbArc
 50
270.0
 51
359.9999989999985
  0
LINE
  5
7643
330
1E
100
AcDbEntity
  8
10
  6
CONTINUOUS
100
AcDbLine
 10
-37.399878
 20
68.49986899999987
 30
0.0
 11
37.40012200000004
 21
68.49986899999987
 31
0.0
  0
LINE
  5
7644
330
1E
100
AcDbEntity
  8
10
  6
CONTINUOUS
100
AcDbLine
 10
-37.399878
 20
50.50016899999992
 30
0.0
 11
-32.0
 21
50.50016899999992
 31
0.0
  0
LINE
  5
7645
330
1E
100
AcDbEntity
  8
10
  6
CONTINUOUS
100
AcDbLine
 10
-36.99991699999998
 20
49.99972599999995
 30
0.0
 11
-33.86640299999999
 21
49.99972599999995
 31
0.0
  0
LINE
  5
7646
330
1E
100
AcDbEntity
  8
10
  6
CONTINUOUS
100
AcDbLine
 10
-32.49993299999997
 20
37.90003199999989
 30
0.0
 11
-37.49991699999998
 21
37.90003199999989
 31
0.0
  0
LINE
  5
7647
330
1E
100
AcDbEntity
  8
10
  6
CONTINUOUS
100
AcDbLine
 10
-37.399878
 20
50.50016899999992
 30
0.0
 11
-37.399878
 21
68.49986899999987
 31
0.0
  0
LINE
  5
7648
330
1E
100
AcDbEntity
  8
10
  6
CONTINUOUS
100
AcDbLine
 10
-37.49991699999998
 20
49.49972599999995
 30
0.0
 11
-37.49991699999998
 21
31.09968299999991
 31
0.0
  0
ARC
  5
7649
330
1E
100
AcDbEntity
  8
10
  6
CONTINUOUS
100
AcDbCircle
 10
-36.99991699999998
 20
49.49972599999995
 30
0.0
 40
0.5
100
AcDbArc
 50
90.0
 51
180.0
  0
LINE
  5
764A
330
1E
100
AcDbEntity
  8
10
  6
CONTINUOUS
100
AcDbLine
 10
7.999878000000023
 20
50.50016899999992
 30
0.0
 11
16.99987800000005
 21
50.50016899999992
 31
0.0
  0
LINE
  5
764B
330
1E
100
AcDbEntity
  8
10
  6
CONTINUOUS
100
AcDbLine
 10
7.0
 20
50.50016899999992
 30
0.0
 11
18.0
 21
50.50016899999992
 31
0.0
  0
LINE
  5
764C
330
1E
100
AcDbEntity
  8
10
  6
CONTINUOUS
100
AcDbLine
 10
-34.99998499999998
 20
24.99980799999991
 30
0.0
 11
35.0
 21
24.99980799999991
 31
0.0
  0
LINE
  5
764D
330
1E
100
AcDbEntity
  8
10
  6
CONTINUOUS
100
AcDbLine
 10
35.000067
 20
25.0
 30
0.0
 11
-34.99991699999998
 21
25.0
 31
0.0
  0
LINE
  5
764E
330
1E
100
AcDbEntity
  8
10
  6
CONTINUOUS
100
AcDbLine
 10
17.500067
 20
37.90003199999989
 30
0.0
 11
7.500067000000029
 21
37.90003199999989
 31
0.0
  0
LINE
  5
764F
330
1E
100
AcDbEntity
  8
10
  6
CONTINUOUS
100
AcDbLine
 10
8.86615900000001
 20
49.99972599999995
 30
0.0
 11
16.13359700000003
 21
49.99972599999995
 31
0.0
  0
LINE
  5
7650
330
1E
100
AcDbEntity
  8
10
  6
CONTINUOUS
100
AcDbLine
 10
5.0
 20
43.50016899999991
 30
0.0
 11
5.0
 21
54.50016899999991
 31
0.0
  0
LINE
  5
7651
330
1E
100
AcDbEntity
  8
10
  6
CONTINUOUS
100
AcDbLine
 10
-5.0
 20
43.50016899999991
 30
0.0
 11
-5.0
 21
54.50016899999991
 31
0.0
  0
LINE
  5
7652
330
1E
100
AcDbEntity
  8
10
  6
CONTINUOUS
100
AcDbLine
 10
-19.51746299999996
 20
41.99966499999994
 30
0.0
 11
-5.486330999999978
 21
41.99966499999994
 31
0.0
  0
LINE
  5
7653
330
1E
100
AcDbEntity
  8
10
  6
CONTINUOUS
100
AcDbLine
 10
-17.00012199999997
 20
50.50016899999992
 30
0.0
 11
-8.000121999999976
 21
50.50016899999992
 31
0.0
  0
LINE
  5
7654
330
1E
100
AcDbEntity
  8
10
  6
CONTINUOUS
100
AcDbLine
 10
-18.0
 20
50.50016899999992
 30
0.0
 11
-7.0
 21
50.50016899999992
 31
0.0
  0
LINE
  5
7655
330
1E
100
AcDbEntity
  8
10
  6
CONTINUOUS
100
AcDbLine
 10
-17.13371899999998
 20
49.99972599999995
 30
0.0
 11
-8.866402999999991
 21
49.99972599999995
 31
0.0
  0
LINE
  5
7656
330
1E
100
AcDbEntity
  8
10
  6
CONTINUOUS
100
AcDbLine
 10
-7.49993299999997
 20
37.90003199999989
 30
0.0
 11
-17.49993299999997
 21
37.90003199999989
 31
0.0
  0
CIRCLE
  5
7657
330
1E
100
AcDbEntity
  8
10
  6
CONTINUOUS
100
AcDbCircle
 10
-12.49988699999997
 20
41.99966499999994
 30
0.0
 40
2.45
  0
CIRCLE
  5
7658
330
1E
100
AcDbEntity
  8
10
  6
CONTINUOUS
100
AcDbCircle
 10
-12.49988699999997
 20
41.99966499999994
 30
0.0
 40
3.9
  0
LINE
  5
7659
330
1E
100
AcDbEntity
  8
17
  6
CONTINOUS
100
AcDbLine
 10
-25.0
 20
46.07501299999995
 30
0.0
 11
-25.0
 21
33.92498799999998
 31
0.0
  0
LINE
  5
765A
330
1E
100
AcDbEntity
  8
10
  6
CONTINUOUS
100
AcDbLine
 10
-32.49993299999997
 20
38.04716299999995
 30
0.0
 11
-32.49993299999997
 21
34.99972599999995
 31
0.0
  0
LINE
  5
765B
330
1E
100
AcDbEntity
  8
10
  6
CONTINUOUS
100
AcDbLine
 10
-17.49993299999997
 20
34.99972599999995
 30
0.0
 11
-17.49993299999997
 21
38.04716299999995
 31
0.0
  0
LINE
  5
765C
330
1E
100
AcDbEntity
  8
10
  6
CONTINUOUS
100
AcDbLine
 10
-18.99993299999997
 20
33.49972599999995
 30
0.0
 11
-30.99993299999997
 21
33.49972599999995
 31
0.0
  0
ARC
  5
765D
330
1E
100
AcDbEntity
  8
10
  6
CONTINUOUS
100
AcDbCircle
 10
-34.99991699999998
 20
24.0
 30
0.0
 40
1.0
100
AcDbArc
 50
90.0
 51
180.0
  0
ARC
  5
765E
330
1E
100
AcDbEntity
  8
10
  6
CONTINUOUS
100
AcDbCircle
 10
-30.99993299999997
 20
34.99972599999995
 30
0.0
 40
1.5
100
AcDbArc
 50
180.0
 51
270.0
  0
ARC
  5
765F
330
1E
100
AcDbEntity
  8
10
  6
CONTINUOUS
100
AcDbCircle
 10
-18.99993299999997
 20
34.99972599999995
 30
0.0
 40
1.5
100
AcDbArc
 50
270.0
 51
0.0
  0
LINE
  5
7660
330
1E
100
AcDbEntity
  8
17
  6
CONTINOUS
100
AcDbLine
 10
-31.07498199999997
 20
40.0
 30
0.0
 11
-18.92498699999998
 21
40.0
 31
0.0
  0
ARC
  5
7661
330
1E
100
AcDbEntity
  8
10
  6
CONTINUOUS
100
AcDbCircle
 10
-25.0
 20
41.99966499999994
 30
0.0
 40
6.0
100
AcDbArc
 50
180.0
 51
0.0
  0
LINE
  5
7662
330
1E
100
AcDbEntity
  8
10
  6
CONTINUOUS
100
AcDbLine
 10
-31.0
 20
41.99966499999994
 30
0.0
 11
-31.0
 21
49.50016899999991
 31
0.0
  0
LINE
  5
7663
330
1E
100
AcDbEntity
  8
10
  6
CONTINUOUS
100
AcDbLine
 10
-32.49993299999997
 20
48.99972599999995
 30
0.0
 11
-32.49993299999997
 21
41.95228799999995
 31
0.0
  0
ARC
  5
7664
330
1E
100
AcDbEntity
  8
10
  6
CONTINUOUS
100
AcDbCircle
 10
-24.99993299999997
 20
39.99972599999995
 30
0.0
 40
7.75
100
AcDbArc
 50
165.4074490000001
 51
194.5925509999998
  0
ARC
  5
7665
330
1E
100
AcDbEntity
  8
10
  6
CONTINUOUS
100
AcDbCircle
 10
-32.0
 20
49.50016899999991
 30
0.0
 40
1.0
100
AcDbArc
 50
0.0
 51
90.0
  0
LINE
  5
7666
330
1E
100
AcDbEntity
  8
10
  6
CONTINUOUS
100
AcDbLine
 10
-32.86628099999998
 20
49.99972599999995
 30
0.0
 11
-31.13371899999998
 21
49.99972599999995
 31
0.0
  0
LINE
  5
7667
330
1E
100
AcDbEntity
  8
10
  6
CONTINUOUS
100
AcDbLine
 10
-33.86640299999999
 20
49.99972599999995
 30
0.0
 11
-32.86628099999998
 21
49.99972599999995
 31
0.0
  0
ARC
  5
7668
330
1E
100
AcDbEntity
  8
10
  6
CONTINUOUS
100
AcDbCircle
 10
-33.49993299999997
 20
48.99972599999995
 30
0.0
 40
1.0
100
AcDbArc
 50
0.0
 51
90.0
  0
LINE
  5
7669
330
1E
100
AcDbEntity
  8
10
  6
CONTINUOUS
100
AcDbLine
 10
-19.0
 20
41.99966499999994
 30
0.0
 11
-19.0
 21
49.50016899999991
 31
0.0
  0
LINE
  5
766A
330
1E
100
AcDbEntity
  8
10
  6
CONTINUOUS
100
AcDbLine
 10
-17.49993299999997
 20
41.95228799999995
 30
0.0
 11
-17.49993299999997
 21
49.00524999999999
 31
0.0
  0
ARC
  5
766B
330
1E
100
AcDbEntity
  8
10
  6
CONTINUOUS
100
AcDbCircle
 10
-24.99993299999997
 20
39.99972599999995
 30
0.0
 40
7.75
100
AcDbArc
 50
345.4074490000001
 51
14.59255099999982
  0
ARC
  5
766C
330
1E
100
AcDbEntity
  8
10
  6
CONTINUOUS
100
AcDbCircle
 10
-18.0
 20
49.50016899999991
 30
0.0
 40
1.0
100
AcDbArc
 50
90.0
 51
180.0
  0
ARC
  5
766D
330
1E
100
AcDbEntity
  8
10
  6
CONTINUOUS
100
AcDbCircle
 10
-16.49994799999999
 20
48.99972599999995
 30
0.0
 40
1.0
100
AcDbArc
 50
90.0
 51
180.3165180000011
  0
LINE
  5
766E
330
1E
100
AcDbEntity
  8
10
  6
CONTINUOUS
100
AcDbLine
 10
-18.86628099999998
 20
49.99972599999995
 30
0.0
 11
-17.13371899999998
 21
49.99972599999995
 31
0.0
  0
LINE
  5
766F
330
1E
100
AcDbEntity
  8
10
  6
CONTINUOUS
100
AcDbLine
 10
-7.49993299999997
 20
38.04716299999995
 30
0.0
 11
-7.49993299999997
 21
34.99972599999995
 31
0.0
  0
LINE
  5
7670
330
1E
100
AcDbEntity
  8
10
  6
CONTINUOUS
100
AcDbLine
 10
7.500067000000029
 20
34.99972599999995
 30
0.0
 11
7.500067000000029
 21
38.04716299999995
 31
0.0
  0
LINE
  5
7671
330
1E
100
AcDbEntity
  8
10
  6
CONTINUOUS
100
AcDbLine
 10
6.000067000000029
 20
33.49972599999995
 30
0.0
 11
-5.99993299999997
 21
33.49972599999995
 31
0.0
  0
LINE
  5
7672
330
1E
100
AcDbEntity
  8
10
  6
CONTINUOUS
100
AcDbLine
 10
6.0
 20
21.38528899999994
 30
0.0
 11
-6.0
 21
21.38528899999994
 31
0.0
  0
ARC
  5
7673
330
1E
100
AcDbEntity
  8
10
  6
CONTINUOUS
100
AcDbCircle
 10
-5.99993299999997
 20
34.99972599999995
 30
0.0
 40
1.5
100
AcDbArc
 50
180.0
 51
270.0
  0
ARC
  5
7674
330
1E
100
AcDbEntity
  8
10
  6
CONTINUOUS
100
AcDbCircle
 10
6.000067000000029
 20
34.99972599999995
 30
0.0
 40
1.5
100
AcDbArc
 50
270.0
 51
0.0
  0
LINE
  5
7675
330
1E
100
AcDbEntity
  8
17
  6
CONTINOUS
100
AcDbLine
 10
-6.074981999999977
 20
40.0
 30
0.0
 11
6.075013000000012
 21
40.0
 31
0.0
  0
LINE
  5
7676
330
1E
100
AcDbEntity
  8
10
  6
CONTINUOUS
100
AcDbLine
 10
-4.0
 20
42.50016899999991
 30
0.0
 11
4.0
 21
42.50016899999991
 31
0.0
  0
LINE
  5
7677
330
1E
100
AcDbEntity
  8
10
  6
CONTINUOUS
100
AcDbLine
 10
-4.0
 20
50.50016899999992
 30
0.0
 11
4.0
 21
50.50016899999992
 31
0.0
  0
ARC
  5
7678
330
1E
100
AcDbEntity
  8
10
  6
CONTINUOUS
100
AcDbCircle
 10
0.0
 20
41.99966499999994
 30
0.0
 40
6.0
100
AcDbArc
 50
180.0
 51
0.0
  0
LINE
  5
7679
330
1E
100
AcDbEntity
  8
10
  6
CONTINUOUS
100
AcDbLine
 10
-12.49988699999997
 20
46.93135299999989
 30
0.0
 11
-12.49988699999997
 21
36.12069899999989
 31
0.0
  0
LINE
  5
767A
330
1E
100
AcDbEntity
  8
10
  6
CONTINUOUS
100
AcDbLine
 10
-6.0
 20
41.99966499999994
 30
0.0
 11
-6.0
 21
49.50016899999991
 31
0.0
  0
LINE
  5
767B
330
1E
100
AcDbEntity
  8
10
  6
CONTINUOUS
100
AcDbLine
 10
-7.49993299999997
 20
48.99972599999995
 30
0.0
 11
-7.49993299999997
 21
41.95228799999995
 31
0.0
  0
ARC
  5
767C
330
1E
100
AcDbEntity
  8
10
  6
CONTINUOUS
100
AcDbCircle
 10
-4.0
 20
43.50016899999991
 30
0.0
 40
1.0
100
AcDbArc
 50
180.0
 51
270.0
  0
ARC
  5
767D
330
1E
100
AcDbEntity
  8
10
  6
CONTINUOUS
100
AcDbCircle
 10
0.0000670000000298
 20
39.99972599999995
 30
0.0
 40
7.75
100
AcDbArc
 50
165.4074490000001
 51
194.5925509999998
  0
LINE
  5
767E
330
1E
100
AcDbEntity
  8
10
  6
CONTINUOUS
100
AcDbLine
 10
-8.866402999999991
 20
49.99972599999995
 30
0.0
 11
-7.866280999999986
 21
49.99972599999995
 31
0.0
  0
ARC
  5
767F
330
1E
100
AcDbEntity
  8
10
  6
CONTINUOUS
100
AcDbCircle
 10
-8.499947999999989
 20
48.99972599999995
 30
0.0
 40
1.0
100
AcDbArc
 50
0.0
 51
90.0
  0
ARC
  5
7680
330
1E
100
AcDbEntity
  8
10
  6
CONTINUOUS
100
AcDbCircle
 10
-4.0
 20
51.50016899999991
 30
0.0
 40
1.0
100
AcDbArc
 50
180.0
 51
270.0
  0
ARC
  5
7681
330
1E
100
AcDbEntity
  8
10
  6
CONTINUOUS
100
AcDbCircle
 10
-7.0
 20
49.50016899999991
 30
0.0
 40
1.0
100
AcDbArc
 50
0.0
 51
90.0
  0
LINE
  5
7682
330
1E
100
AcDbEntity
  8
10
  6
CONTINUOUS
100
AcDbLine
 10
-7.866280999999986
 20
49.99972599999995
 30
0.0
 11
-6.133718999999985
 21
49.99972599999995
 31
0.0
  0
LINE
  5
7683
330
1E
100
AcDbEntity
  8
10
  6
CONTINUOUS
100
AcDbLine
 10
6.0
 20
41.99966499999994
 30
0.0
 11
6.0
 21
49.50016899999991
 31
0.0
  0
LINE
  5
7684
330
1E
100
AcDbEntity
  8
10
  6
CONTINUOUS
100
AcDbLine
 10
7.500067000000029
 20
41.95228799999995
 30
0.0
 11
7.500067000000029
 21
48.99972599999995
 31
0.0
  0
ARC
  5
7685
330
1E
100
AcDbEntity
  8
10
  6
CONTINUOUS
100
AcDbCircle
 10
4.0
 20
43.50016899999991
 30
0.0
 40
1.0
100
AcDbArc
 50
270.0
 51
0.0
  0
ARC
  5
7686
330
1E
100
AcDbEntity
  8
10
  6
CONTINUOUS
100
AcDbCircle
 10
0.0000670000000298
 20
39.99972599999995
 30
0.0
 40
7.75
100
AcDbArc
 50
345.4074490000001
 51
14.59255099999982
  0
ARC
  5
7687
330
1E
100
AcDbEntity
  8
10
  6
CONTINUOUS
100
AcDbCircle
 10
4.0
 20
51.50016899999991
 30
0.0
 40
1.0
100
AcDbArc
 50
270.0
 51
0.0
  0
ARC
  5
7688
330
1E
100
AcDbEntity
  8
10
  6
CONTINUOUS
100
AcDbCircle
 10
7.0
 20
49.50016899999991
 30
0.0
 40
1.0
100
AcDbArc
 50
90.0
 51
180.0
  0
LINE
  5
7689
330
1E
100
AcDbEntity
  8
10
  6
CONTINUOUS
100
AcDbLine
 10
6.133719000000013
 20
49.99972599999995
 30
0.0
 11
7.866281000000014
 21
49.99972599999995
 31
0.0
  0
LINE
  5
768A
330
1E
100
AcDbEntity
  8
10
  6
CONTINUOUS
100
AcDbLine
 10
7.866281000000014
 20
49.99972599999995
 30
0.0
 11
8.86615900000001
 21
49.99972599999995
 31
0.0
  0
ARC
  5
768B
330
1E
100
AcDbEntity
  8
10
  6
CONTINUOUS
100
AcDbCircle
 10
8.500067000000029
 20
48.99972599999995
 30
0.0
 40
1.0
100
AcDbArc
 50
90.0
 51
180.0
  0
LINE
  5
768C
330
1E
100
AcDbEntity
  8
10
  6
CONTINUOUS
100
AcDbLine
 10
-4.0
 20
55.50016899999992
 30
0.0
 11
4.0
 21
55.50016899999992
 31
0.0
  0
ARC
  5
768D
330
1E
100
AcDbEntity
  8
10
  6
CONTINUOUS
100
AcDbCircle
 10
-4.0
 20
54.50016899999991
 30
0.0
 40
1.0
100
AcDbArc
 50
90.0
 51
180.0
  0
ARC
  5
768E
330
1E
100
AcDbEntity
  8
10
  6
CONTINUOUS
100
AcDbCircle
 10
4.0
 20
54.50016899999991
 30
0.0
 40
1.0
100
AcDbArc
 50
0.0
 51
90.0
  0
LINE
  5
768F
330
1E
100
AcDbEntity
  8
10
  6
CONTINUOUS
100
AcDbLine
 10
37.40012200000004
 20
50.50016899999992
 30
0.0
 11
37.40012200000004
 21
68.49986899999987
 31
0.0
  0
LINE
  5
7690
330
1E
100
AcDbEntity
  8
10
  6
CONTINUOUS
100
AcDbLine
 10
32.0
 20
50.50016899999992
 30
0.0
 11
37.40012200000004
 21
50.50016899999992
 31
0.0
  0
LINE
  5
7691
330
1E
100
AcDbEntity
  8
10
  6
CONTINUOUS
100
AcDbLine
 10
31.13371900000001
 20
49.99972599999995
 30
0.0
 11
32.86628100000001
 21
49.99972599999995
 31
0.0
  0
ARC
  5
7692
330
1E
100
AcDbEntity
  8
10
  6
CONTINUOUS
100
AcDbCircle
 10
33.500067
 20
48.99972599999995
 30
0.0
 40
1.0
100
AcDbArc
 50
90.0
 51
180.0
  0
ARC
  5
7693
330
1E
100
AcDbEntity
  8
10
  6
CONTINUOUS
100
AcDbCircle
 10
31.000067
 20
34.99972599999995
 30
0.0
 40
1.5
100
AcDbArc
 50
270.0
 51
0.0
  0
LINE
  5
7694
330
1E
100
AcDbEntity
  8
17
  6
CONTINOUS
100
AcDbLine
 10
25.00000100000002
 20
46.07501299999995
 30
0.0
 11
25.00000100000002
 21
33.92498799999998
 31
0.0
  0
LINE
  5
7695
330
1E
100
AcDbEntity
  8
10
  6
CONTINUOUS
100
AcDbLine
 10
17.500067
 20
38.04716299999995
 30
0.0
 11
17.500067
 21
34.99972599999995
 31
0.0
  0
LINE
  5
7696
330
1E
100
AcDbEntity
  8
10
  6
CONTINUOUS
100
AcDbLine
 10
31.000067
 20
33.49972599999995
 30
0.0
 11
19.000067
 21
33.49972599999995
 31
0.0
  0
ARC
  5
7697
330
1E
100
AcDbEntity
  8
10
  6
CONTINUOUS
100
AcDbCircle
 10
19.000067
 20
34.99972599999995
 30
0.0
 40
1.5
100
AcDbArc
 50
180.0
 51
270.0
  0
LINE
  5
7698
330
1E
100
AcDbEntity
  8
17
  6
CONTINOUS
100
AcDbLine
 10
18.92501900000002
 20
40.0
 30
0.0
 11
31.07501300000001
 21
40.0
 31
0.0
  0
ARC
  5
7699
330
1E
100
AcDbEntity
  8
10
  6
CONTINUOUS
100
AcDbCircle
 10
25.0
 20
41.99966499999994
 30
0.0
 40
6.0
100
AcDbArc
 50
180.0
 51
0.0
  0
LINE
  5
769A
330
1E
100
AcDbEntity
  8
10
  6
CONTINUOUS
100
AcDbLine
 10
19.0
 20
41.99966499999994
 30
0.0
 11
19.0
 21
49.50016899999991
 31
0.0
  0
LINE
  5
769B
330
1E
100
AcDbEntity
  8
10
  6
CONTINUOUS
100
AcDbLine
 10
17.500067
 20
48.99972599999995
 30
0.0
 11
17.500067
 21
41.95228799999995
 31
0.0
  0
ARC
  5
769C
330
1E
100
AcDbEntity
  8
10
  6
CONTINUOUS
100
AcDbCircle
 10
25.000067
 20
39.99972599999995
 30
0.0
 40
7.75
100
AcDbArc
 50
165.4074490000001
 51
194.5925509999998
  0
ARC
  5
769D
330
1E
100
AcDbEntity
  8
10
  6
CONTINUOUS
100
AcDbCircle
 10
18.0
 20
49.50016899999991
 30
0.0
 40
1.0
100
AcDbArc
 50
0.0
 51
90.0
  0
ARC
  5
769E
330
1E
100
AcDbEntity
  8
10
  6
CONTINUOUS
100
AcDbCircle
 10
16.500067
 20
48.99972599999995
 30
0.0
 40
1.0
100
AcDbArc
 50
0.0
 51
90.0
  0
LINE
  5
769F
330
1E
100
AcDbEntity
  8
10
  6
CONTINUOUS
100
AcDbLine
 10
16.13359700000003
 20
49.99972599999995
 30
0.0
 11
17.13371900000001
 21
49.99972599999995
 31
0.0
  0
LINE
  5
76A0
330
1E
100
AcDbEntity
  8
10
  6
CONTINUOUS
100
AcDbLine
 10
17.13371900000001
 20
49.99972599999995
 30
0.0
 11
18.86628100000001
 21
49.99972599999995
 31
0.0
  0
LINE
  5
76A1
330
1E
100
AcDbEntity
  8
10
  6
CONTINUOUS
100
AcDbLine
 10
31.0
 20
41.99966499999994
 30
0.0
 11
31.0
 21
49.50016899999991
 31
0.0
  0
ARC
  5
76A2
330
1E
100
AcDbEntity
  8
10
  6
CONTINUOUS
100
AcDbCircle
 10
32.0
 20
49.50016899999991
 30
0.0
 40
1.0
100
AcDbArc
 50
90.0
 51
180.0
  0
LINE
  5
76A3
330
1E
100
AcDbEntity
  8
10
  6
CONTINUOUS
100
AcDbLine
 10
37.500067
 20
49.49972599999995
 30
0.0
 11
37.500067
 21
33.19968299999988
 31
0.0
  0
LINE
  5
76A4
330
1E
100
AcDbEntity
  8
10
  6
CONTINUOUS
100
AcDbLine
 10
32.500067
 20
38.04716299999995
 30
0.0
 11
32.500067
 21
34.99972599999995
 31
0.0
  0
ARC
  5
76A5
330
1E
100
AcDbEntity
  8
10
  6
CONTINUOUS
100
AcDbCircle
 10
35.0
 20
23.99980799999991
 30
0.0
 40
1.0
100
AcDbArc
 50
0.0
 51
90.0
  0
ARC
  5
76A6
330
1E
100
AcDbEntity
  8
10
  6
CONTINUOUS
100
AcDbCircle
 10
35.000067
 20
24.0
 30
0.0
 40
1.0
100
AcDbArc
 50
0.0
 51
90.0
  0
LINE
  5
76A7
330
1E
100
AcDbEntity
  8
10
  6
CONTINUOUS
100
AcDbLine
 10
32.500067
 20
48.99972599999995
 30
0.0
 11
32.500067
 21
41.95228799999995
 31
0.0
  0
LINE
  5
76A8
330
1E
100
AcDbEntity
  8
10
  6
CONTINUOUS
100
AcDbLine
 10
37.500067
 20
37.90003199999989
 30
0.0
 11
32.500067
 21
37.90003199999989
 31
0.0
  0
ARC
  5
76A9
330
1E
100
AcDbEntity
  8
10
  6
CONTINUOUS
100
AcDbCircle
 10
25.000067
 20
39.99972599999995
 30
0.0
 40
7.75
100
AcDbArc
 50
345.4074490000001
 51
14.59255099999982
  0
LINE
  5
76AA
330
1E
100
AcDbEntity
  8
10
  6
CONTINUOUS
100
AcDbLine
 10
32.86628100000001
 20
49.99972599999995
 30
0.0
 11
33.86615900000001
 21
49.99972599999995
 31
0.0
  0
ARC
  5
76AB
330
1E
100
AcDbEntity
  8
10
  6
CONTINUOUS
100
AcDbCircle
 10
37.00000600000001
 20
49.49972599999995
 30
0.0
 40
0.5
100
AcDbArc
 50
0.0
 51
90.0
  0
LINE
  5
76AC
330
1E
100
AcDbEntity
  8
10
  6
CONTINUOUS
100
AcDbLine
 10
33.86615900000001
 20
49.99972599999995
 30
0.0
 11
37.00000600000001
 21
49.99972599999995
 31
0.0
  0
LINE
  5
779A
330
1E
100
AcDbEntity
  8
10
  6
CONTINUOUS
100
AcDbLine
 10
186.7097616938627
 20
-51.74988800000005
 30
0.0
 11
206.7097616938627
 21
-51.74988800000005
 31
0.0
  0
LINE
  5
779B
330
1E
100
AcDbEntity
  8
10
  6
CONTINUOUS
100
AcDbLine
 10
186.7097616938627
 20
-79.74988800000005
 30
0.0
 11
223.5413426938626
 21
-79.74988800000005
 31
0.0
  0
LINE
  5
779C
330
1E
100
AcDbEntity
  8
10
  6
CONTINUOUS
100
AcDbLine
 10
186.7097616938627
 20
-59.94988800000005
 30
0.0
 11
206.7097616938627
 21
-59.94988800000005
 31
0.0
  0
LINE
  5
779D
330
1E
100
AcDbEntity
  8
10
  6
CONTINUOUS
100
AcDbLine
 10
186.7097616938627
 20
-46.74988800000005
 30
0.0
 11
207.7097616938627
 21
-46.74988800000005
 31
0.0
  0
LINE
  5
779F
330
1E
100
AcDbEntity
  8
10
  6
CONTINUOUS
100
AcDbLine
 10
184.9138826938627
 20
68.49998199999987
 30
0.0
 11
234.4098516938627
 21
68.49998199999987
 31
0.0
  0
LINE
  5
77A0
330
1E
100
AcDbEntity
  8
10
  6
CONTINUOUS
100
AcDbLine
 10
183.9138826938627
 20
-79.74985300000009
 30
0.0
 11
226.4098516938627
 21
-79.74985300000009
 31
0.0
  0
LINE
  5
77A1
330
1E
100
AcDbEntity
  8
10
  6
CONTINUOUS
100
AcDbLine
 10
183.9138826938627
 20
49.750113
 30
0.0
 11
226.4098516938627
 21
49.750113
 31
0.0
  0
LINE
  5
77A2
330
1E
100
AcDbEntity
  8
10
  6
CONTINUOUS
100
AcDbLine
 10
184.9138826938627
 20
-98.49986900000004
 30
0.0
 11
234.4098516938627
 21
-98.49986900000004
 31
0.0
  0
LINE
  5
77A3
330
1E
100
AcDbEntity
  8
10
  6
CONTINUOUS
100
AcDbLine
 10
186.4098826938627
 20
49.75007999999997
 30
0.0
 11
224.0805496938627
 21
49.75007999999997
 31
0.0
  0
LINE
  5
77A4
330
1E
100
AcDbEntity
  8
10
  6
CONTINUOUS
100
AcDbLine
 10
166.4098826938627
 20
36.30007699999993
 30
0.0
 11
166.4098826938627
 21
-36.89991900000006
 31
0.0
  0
LINE
  5
77A5
330
1E
100
AcDbEntity
  8
10
  6
CONTINUOUS
100
AcDbLine
 10
158.4099506938627
 20
-24.59988700000002
 30
0.0
 11
158.4099506938627
 21
24.50011299999999
 31
0.0
  0
LINE
  5
77A6
330
1E
100
AcDbEntity
  8
10
  6
CONTINUOUS
100
AcDbLine
 10
154.4098516938627
 20
24.02449599999988
 30
0.0
 11
154.4098516938627
 21
-24.59988700000002
 31
0.0
  0
LINE
  5
77A7
330
1E
100
AcDbEntity
  8
10
  6
CONTINUOUS
100
AcDbLine
 10
186.4098826938627
 20
49.75007999999997
 30
0.0
 11
186.4098826938627
 21
-46.54988800000007
 31
0.0
  0
LINE
  5
77A8
330
1E
100
AcDbEntity
  8
10
  6
CONTINUOUS
100
AcDbLine
 10
155.4098516938627
 20
-25.09988700000002
 30
0.0
 11
155.4098516938627
 21
24.2440039999999
 31
0.0
  0
ARC
  5
77A9
330
1E
100
AcDbEntity
  8
10
  6
CONTINUOUS
100
AcDbCircle
 10
146.2140466938627
 20
18.24463499999995
 30
0.0
 40
1.75
100
AcDbArc
 50
158.0000009999985
 51
248.0000009999987
  0
LINE
  5
77AA
330
1E
100
AcDbEntity
  8
10
  6
CONTINUOUS
100
AcDbLine
 10
186.7097616938627
 20
-79.74988800000005
 30
0.0
 11
186.7097616938627
 21
-46.54988800000007
 31
0.0
  0
LINE
  5
77AB
330
1E
100
AcDbEntity
  8
10
  6
CONTINUOUS
100
AcDbLine
 10
166.4097616938627
 20
-35.29988800000007
 30
0.0
 11
166.4097616938627
 21
-66.89988800000003
 31
0.0
  0
LINE
  5
77AC
330
1E
100
AcDbEntity
  8
10
  6
CONTINUOUS
100
AcDbLine
 10
183.9138826938627
 20
-79.74988700000006
 30
0.0
 11
183.9138826938627
 21
-97.49975600000006
 31
0.0
  0
ARC
  5
77AD
330
1E
100
AcDbEntity
  8
10
  6
CONTINUOUS
100
AcDbCircle
 10
184.9138826938627
 20
-97.49975600000006
 30
0.0
 40
1.0
100
AcDbArc
 50
180.0
 51
270.0
  0
LINE
  5
77AE
330
1E
100
AcDbEntity
  8
10
  6
CONTINUOUS
100
AcDbLine
 10
178.4097006938627
 20
-79.74988800000005
 30
0.0
 11
186.7097616938627
 21
-79.74988800000005
 31
0.0
  0
LINE
  5
77AF
330
1E
100
AcDbEntity
  8
10
  6
CONTINUOUS
100
AcDbLine
 10
186.7097616938627
 20
-76.24988800000005
 30
0.0
 11
175.4097006938627
 21
-76.24988800000005
 31
0.0
  0
LINE
  5
77B0
330
1E
100
AcDbEntity
  8
10
  6
CONTINUOUS
100
AcDbLine
 10
182.3572576938627
 20
-82.50005600000008
 30
0.0
 11
183.9138826938627
 21
-82.50005600000008
 31
0.0
  0
LINE
  5
77B1
330
1E
100
AcDbEntity
  8
10
  6
CONTINUOUS
100
AcDbLine
 10
181.2025576938627
 20
-85.50005600000009
 30
0.0
 11
183.4138826938627
 21
-85.50005600000009
 31
0.0
  0
LINE
  5
77B2
330
1E
100
AcDbEntity
  8
10
  6
CONTINUOUS
100
AcDbLine
 10
175.4097006938627
 20
-67.89988800000003
 30
0.0
 11
175.4097006938627
 21
-76.74982000000006
 31
0.0
  0
LINE
  5
77B3
330
1E
100
AcDbEntity
  8
10
  6
CONTINUOUS
100
AcDbLine
 10
178.0561476938627
 20
-79.60337300000003
 30
0.0
 11
175.5561476938627
 21
-77.10337300000003
 31
0.0
  0
ARC
  5
77B4
330
1E
100
AcDbEntity
  8
10
  6
CONTINUOUS
100
AcDbCircle
 10
178.4097006938627
 20
-79.24982000000006
 30
0.0
 40
0.5
100
AcDbArc
 50
224.9999999999997
 51
270.0
  0
LINE
  5
77B5
330
1E
100
AcDbEntity
  8
10
  6
CONTINUOUS
100
AcDbLine
 10
180.7695446938627
 20
-85.25005600000008
 30
0.0
 11
178.4601416938627
 21
-81.25005200000003
 31
0.0
  0
LINE
  5
77B6
330
1E
100
AcDbEntity
  8
10
  6
CONTINUOUS
100
AcDbLine
 10
181.9242456938626
 20
-82.25005600000008
 30
0.0
 11
180.9138826938627
 21
-80.50005600000009
 31
0.0
  0
LINE
  5
77B7
330
1E
100
AcDbEntity
  8
10
  6
CONTINUOUS
100
AcDbLine
 10
178.8931566938627
 20
-80.50005600000009
 30
0.0
 11
180.9138826938627
 21
-80.50005600000009
 31
0.0
  0
ARC
  5
77B8
330
1E
100
AcDbEntity
  8
10
  6
CONTINUOUS
100
AcDbCircle
 10
181.2025576938627
 20
-85.00005600000008
 30
0.0
 40
0.5
100
AcDbArc
 50
210.0000000000009
 51
270.0
  0
ARC
  5
77B9
330
1E
100
AcDbEntity
  8
10
  6
CONTINUOUS
100
AcDbCircle
 10
178.8931566938627
 20
-81.00005600000008
 30
0.0
 40
0.5
100
AcDbArc
 50
90.0
 51
210.0000000000009
  0
ARC
  5
77BA
330
1E
100
AcDbEntity
  8
10
  6
CONTINUOUS
100
AcDbCircle
 10
182.3572576938627
 20
-82.00005600000009
 30
0.0
 40
0.5
100
AcDbArc
 50
210.0000000000009
 51
270.0
  0
ARC
  5
77BB
330
1E
100
AcDbEntity
  8
10
  6
CONTINUOUS
100
AcDbCircle
 10
175.9097006938627
 20
-76.74982000000006
 30
0.0
 40
0.5
100
AcDbArc
 50
180.0
 51
224.9999999999997
  0
LINE
  5
77BC
330
1E
100
AcDbEntity
  8
10
  6
CONTINUOUS
100
AcDbLine
 10
167.4097616938627
 20
-67.89988800000003
 30
0.0
 11
175.5097006938627
 21
-67.89988800000003
 31
0.0
  0
ARC
  5
77BD
330
1E
100
AcDbEntity
  8
10
  6
CONTINUOUS
100
AcDbCircle
 10
167.4097616938627
 20
-66.89988800000003
 30
0.0
 40
1.0
100
AcDbArc
 50
180.0
 51
270.0
  0
ARC
  5
77BE
330
1E
100
AcDbEntity
  8
10
  6
CONTINUOUS
100
AcDbCircle
 10
183.4138826938627
 20
-86.00005600000008
 30
0.0
 40
0.5
100
AcDbArc
 50
0.0
 51
90.0
  0
CIRCLE
  5
77BF
330
1E
100
AcDbEntity
  8
10
  6
CONTINUOUS
100
AcDbCircle
 10
187.5347616938627
 20
-58.42488800000007
 30
0.0
 40
0.825
  0
CIRCLE
  5
77C0
330
1E
100
AcDbEntity
  8
10
  6
CONTINUOUS
100
AcDbCircle
 10
187.5347616938627
 20
-56.77488800000003
 30
0.0
 40
0.825
  0
CIRCLE
  5
77C1
330
1E
100
AcDbEntity
  8
10
  6
CONTINUOUS
100
AcDbCircle
 10
187.5347616938627
 20
-55.12488800000006
 30
0.0
 40
0.825
  0
CIRCLE
  5
77C2
330
1E
100
AcDbEntity
  8
10
  6
CONTINUOUS
100
AcDbCircle
 10
187.5347616938627
 20
-53.47488800000002
 30
0.0
 40
0.825
  0
LINE
  5
77C3
330
1E
100
AcDbEntity
  8
10
  6
CONTINUOUS
100
AcDbLine
 10
166.4098826938627
 20
-25.09988700000002
 30
0.0
 11
154.9098516938627
 21
-25.09988700000002
 31
0.0
  0
LINE
  5
77C9
330
1E
100
AcDbEntity
  8
10
  6
CONTINUOUS
100
AcDbLine
 10
158.4098826938627
 20
-24.999887
 30
0.0
 11
158.6099506938627
 21
-24.999887
 31
0.0
  0
LINE
  5
77CC
330
1E
100
AcDbEntity
  8
10
  6
CONTINUOUS
100
AcDbLine
 10
156.4098826938627
 20
-24.94988700000004
 30
0.0
 11
158.5528796938627
 21
-24.94988700000004
 31
0.0
  0
ARC
  5
77CD
330
1E
100
AcDbEntity
  8
10
  6
CONTINUOUS
100
AcDbCircle
 10
154.9098516938627
 20
-24.59988700000002
 30
0.0
 40
0.5
100
AcDbArc
 50
180.0
 51
270.0
  0
ARC
  5
77CE
330
1E
100
AcDbEntity
  8
10
  6
CONTINUOUS
100
AcDbCircle
 10
158.9099506938627
 20
-24.59988700000002
 30
0.0
 40
0.5
100
AcDbArc
 50
180.0
 51
270.0
  0
ARC
  5
77CF
330
1E
100
AcDbEntity
  8
10
  6
CONTINUOUS
100
AcDbCircle
 10
156.4098826938627
 20
-24.44988700000005
 30
0.0
 40
0.5
100
AcDbArc
 50
180.0
 51
270.0
  0
ARC
  5
77D2
330
1E
100
AcDbEntity
  8
30
  6
CONTINUOUS
100
AcDbCircle
 10
272.0578524722021
 20
-4.664493874757795
 30
0.0
 40
130.0084063730647
100
AcDbArc
 50
171.0578005758244
 51
184.3641502623079
  0
LINE
  5
77D3
330
1E
100
AcDbEntity
  8
10
  6
CONTINUOUS
100
AcDbLine
 10
145.5584756938627
 20
16.62205399999987
 30
0.0
 11
154.4098516938627
 21
13.04586599999993
 31
0.0
  0
LINE
  5
77D4
330
1E
100
AcDbEntity
  8
10
  6
CONTINUOUS
100
AcDbLine
 10
186.7097616938627
 20
-46.54988800000007
 30
0.0
 11
175.5097006938627
 21
-46.54988800000007
 31
0.0
  0
LINE
  5
77D5
330
1E
100
AcDbEntity
  8
10
  6
CONTINUOUS
100
AcDbLine
 10
166.4097616938627
 20
-38.19986200000005
 30
0.0
 11
175.5097006938627
 21
-38.19986200000005
 31
0.0
  0
LINE
  5
77D6
330
1E
100
AcDbEntity
  8
10
  6
CONTINUOUS
100
AcDbLine
 10
166.4097616938627
 20
-43.81173800000005
 30
0.0
 11
175.5097006938627
 21
-43.81173800000005
 31
0.0
  0
LINE
  5
77D7
330
1E
100
AcDbEntity
  8
10
  6
CONTINUOUS
100
AcDbLine
 10
175.4098516938627
 20
-37.89991900000007
 30
0.0
 11
167.4098826938627
 21
-37.89991900000007
 31
0.0
  0
ARC
  5
77D8
330
1E
100
AcDbEntity
  8
10
  6
CONTINUOUS
100
AcDbCircle
 10
167.4098826938627
 20
-36.89991900000006
 30
0.0
 40
1.0
100
AcDbArc
 50
179.999996999999
 51
270.0
  0
LINE
  5
77D9
330
1E
100
AcDbEntity
  8
10
  6
CONTINUOUS
100
AcDbLine
 10
175.4097906938627
 20
-46.54988800000007
 30
0.0
 11
175.4097906938627
 21
-37.8998590000001
 31
0.0
  0
ARC
  5
77DA
330
1E
100
AcDbEntity
  8
10
  6
CONTINUOUS
100
AcDbCircle
 10
165.9098826938627
 20
-25.499887
 30
0.0
 40
0.5
100
AcDbArc
 50
0.0
 51
53.13010200000001
  0
LINE
  5
77DB
330
1E
100
AcDbEntity
  8
10
  6
CONTINUOUS
100
AcDbLine
 10
166.4098826938627
 20
25.000113
 30
0.0
 11
158.4099506938627
 21
25.000113
 31
0.0
  0
LINE
  5
77DD
330
1E
100
AcDbEntity
  8
10
  6
CONTINUOUS
100
AcDbLine
 10
147.4315086938627
 20
21.25797299999993
 30
0.0
 11
154.4098516938627
 21
18.43853999999993
 31
0.0
  0
ARC
  5
77DE
330
1E
100
AcDbEntity
  8
10
  6
CONTINUOUS
100
AcDbCircle
 10
146.7759566938627
 20
19.63541099999991
 30
0.0
 40
1.75
100
AcDbArc
 50
68.00000099999869
 51
158.0000009999985
  0
LINE
  5
77DF
330
1E
100
AcDbEntity
  8
10
  6
CONTINUOUS
100
AcDbLine
 10
145.1533756938627
 20
20.29096299999997
 30
0.0
 11
144.5914656938627
 21
18.9001869999999
 31
0.0
  0
LINE
  5
77E0
330
1E
100
AcDbEntity
  8
10
  6
CONTINUOUS
100
AcDbLine
 10
158.4099506938627
 20
25.000113
 30
0.0
 11
154.4098516938627
 21
24.02449599999988
 31
0.0
  0
ARC
  5
77E1
330
1E
100
AcDbEntity
  8
10
  6
CONTINUOUS
100
AcDbCircle
 10
158.9099506938627
 20
24.50011299999999
 30
0.0
 40
0.5
100
AcDbArc
 50
90.0
 51
180.0
  0
LINE
  5
77E2
330
1E
100
AcDbEntity
  8
10
  6
CONTINUOUS
100
AcDbLine
 10
183.9138826938627
 20
49.750113
 30
0.0
 11
183.9138826938627
 21
67.49998199999987
 31
0.0
  0
LINE
  5
77E3
330
1E
100
AcDbEntity
  8
10
  6
CONTINUOUS
100
AcDbLine
 10
180.7695446938627
 20
55.25028199999991
 30
0.0
 11
178.4601416938627
 21
51.25027899999992
 31
0.0
  0
LINE
  5
77E4
330
1E
100
AcDbEntity
  8
10
  6
CONTINUOUS
100
AcDbLine
 10
182.3572576938627
 20
52.50028199999992
 30
0.0
 11
183.9138826938627
 21
52.50028199999992
 31
0.0
  0
LINE
  5
77E5
330
1E
100
AcDbEntity
  8
10
  6
CONTINUOUS
100
AcDbLine
 10
178.4169586938627
 20
49.750113
 30
0.0
 11
186.4098826938627
 21
49.750113
 31
0.0
  0
LINE
  5
77E6
330
1E
100
AcDbEntity
  8
10
  6
CONTINUOUS
100
AcDbLine
 10
175.4098516938627
 20
37.90007699999995
 30
0.0
 11
168.0098826938627
 21
37.90007699999995
 31
0.0
  0
ARC
  5
77E7
330
1E
100
AcDbEntity
  8
10
  6
CONTINUOUS
100
AcDbCircle
 10
168.0098516938627
 20
36.30007699999993
 30
0.0
 40
1.6
100
AcDbArc
 50
90.0
 51
180.3538779999987
  0
LINE
  5
77E8
330
1E
100
AcDbEntity
  8
10
  6
CONTINUOUS
100
AcDbLine
 10
175.4098516938627
 20
46.74300599999992
 30
0.0
 11
175.4098516938627
 21
37.90007699999995
 31
0.0
  0
LINE
  5
77E9
330
1E
100
AcDbEntity
  8
10
  6
CONTINUOUS
100
AcDbLine
 10
175.5562986938627
 20
47.09655999999995
 30
0.0
 11
178.0634056938627
 21
49.60366699999991
 31
0.0
  0
ARC
  5
77EA
330
1E
100
AcDbEntity
  8
10
  6
CONTINUOUS
100
AcDbCircle
 10
175.9098516938627
 20
46.74300599999992
 30
0.0
 40
0.5
100
AcDbArc
 50
135.0000000000002
 51
180.0
  0
LINE
  5
77EB
330
1E
100
AcDbEntity
  8
10
  6
CONTINUOUS
100
AcDbLine
 10
178.8931566938627
 20
50.50028199999991
 30
0.0
 11
180.9138826938627
 21
50.50028199999991
 31
0.0
  0
LINE
  5
77EC
330
1E
100
AcDbEntity
  8
10
  6
CONTINUOUS
100
AcDbLine
 10
181.9242456938626
 20
52.25028199999991
 30
0.0
 11
180.9138826938627
 21
50.50028199999991
 31
0.0
  0
ARC
  5
77ED
330
1E
100
AcDbEntity
  8
10
  6
CONTINUOUS
100
AcDbCircle
 10
182.3572576938627
 20
52.00028199999991
 30
0.0
 40
0.5
100
AcDbArc
 50
90.0
 51
149.999999999999
  0
ARC
  5
77EE
330
1E
100
AcDbEntity
  8
10
  6
CONTINUOUS
100
AcDbCircle
 10
178.8931566938627
 20
51.00028199999991
 30
0.0
 40
0.5
100
AcDbArc
 50
149.999999999999
 51
270.0
  0
ARC
  5
77EF
330
1E
100
AcDbEntity
  8
10
  6
CONTINUOUS
100
AcDbCircle
 10
178.4169586938627
 20
49.250113
 30
0.0
 40
0.5
100
AcDbArc
 50
90.0
 51
135.0000000000002
  0
LINE
  5
77F0
330
1E
100
AcDbEntity
  8
10
  6
CONTINUOUS
100
AcDbLine
 10
181.2025576938627
 20
55.50028199999991
 30
0.0
 11
183.4138826938627
 21
55.50028199999991
 31
0.0
  0
ARC
  5
77F1
330
1E
100
AcDbEntity
  8
10
  6
CONTINUOUS
100
AcDbCircle
 10
181.2025576938627
 20
55.00028199999992
 30
0.0
 40
0.5
100
AcDbArc
 50
90.0
 51
149.999999999999
  0
ARC
  5
77F2
330
1E
100
AcDbEntity
  8
10
  6
CONTINUOUS
100
AcDbCircle
 10
183.4138826938627
 20
56.00028199999991
 30
0.0
 40
0.5
100
AcDbArc
 50
270.0
 51
0.0
  0
ARC
  5
77F3
330
1E
100
AcDbEntity
  8
10
  6
CONTINUOUS
100
AcDbCircle
 10
184.9138826938627
 20
67.49998199999987
 30
0.0
 40
1.0
100
AcDbArc
 50
90.0
 51
180.0
  0
LINE
  5
77F4
330
1E
100
AcDbEntity
  8
18
100
AcDbLine
 10
234.4098516938627
 20
-117.172377
 30
0.0
 11
234.4098516938627
 21
97.17203699999988
 31
0.0
  0
LINE
  5
77F5
330
1E
100
AcDbEntity
  8
18
100
AcDbLine
 10
237.6098516938627
 20
-114.873686
 30
0.0
 11
237.6098516938627
 21
94.87334599999991
 31
0.0
  0
LINE
  5
77F6
330
1E
100
AcDbEntity
  8
10
  6
CONTINUOUS
100
AcDbLine
 10
226.1098516938627
 20
43.00010099999997
 30
0.0
 11
226.1098516938627
 21
15.8001319999999
 31
0.0
  0
LINE
  5
77F7
330
1E
100
AcDbEntity
  8
0
100
AcDbLine
 10
342.9622736938627
 20
-84.99977400000005
 30
0.0
 11
230.4005436938628
 21
-84.99977400000005
 31
0.0
  0
LINE
  5
77F8
330
1E
100
AcDbEntity
  8
0
100
AcDbLine
 10
307.4098376938627
 20
-93.49977400000005
 30
0.0
 11
266.5242456938627
 21
-93.49977400000005
 31
0.0
  0
LINE
  5
77F9
330
1E
100
AcDbEntity
  8
0
100
AcDbLine
 10
307.4098376938627
 20
-76.49977400000006
 30
0.0
 11
266.5242456938627
 21
-76.49977400000006
 31
0.0
  0
LINE
  5
77FA
330
1E
100
AcDbEntity
  8
10
  6
CONTINUOUS
100
AcDbLine
 10
226.4097616938627
 20
-46.74988800000005
 30
0.0
 11
226.4097616938627
 21
-72.99981800000006
 31
0.0
  0
LINE
  5
77FB
330
1E
100
AcDbEntity
  8
10
  6
CONTINUOUS
100
AcDbLine
 10
226.4098516938627
 20
-50.50018600000004
 30
0.0
 11
226.4098516938627
 21
-79.74985300000009
 31
0.0
  0
LINE
  5
77FC
330
1E
100
AcDbEntity
  8
10
  6
CONTINUOUS
100
AcDbLine
 10
234.4098516938627
 20
-50.0000720000001
 30
0.0
 11
234.4098516938627
 21
-98.49986900000004
 31
0.0
  0
LINE
  5
77FD
330
1E
100
AcDbEntity
  8
0
100
AcDbLine
 10
249.4098516938627
 20
-93.79977400000006
 30
0.0
 11
255.9098746938627
 21
-93.79977400000006
 31
0.0
  0
LINE
  5
77FE
330
1E
100
AcDbEntity
  8
0
100
AcDbLine
 10
249.4098516938627
 20
-76.1997740000001
 30
0.0
 11
255.9098746938627
 21
-76.1997740000001
 31
0.0
  0
LINE
  5
77FF
330
1E
100
AcDbEntity
  8
0
100
AcDbLine
 10
249.4098516938627
 20
-94.99977400000005
 30
0.0
 11
249.4098516938627
 21
-74.99977400000005
 31
0.0
  0
SPLINE
  5
7800
330
1E
100
AcDbEntity
  8
18
100
AcDbSpline
210
0.0
220
0.0
230
1.0
 70
     8
 71
     3
 72
    31
 73
    27
 74
    25
 42
0.0000000001
 43
0.0000000001
 44
0.000001
 12
0.5189781342420446
 22
-0.8547875152215587
 32
0.0
 13
0.722641857147853
 23
-0.6912226459672035
 33
0.0
 40
0.0
 40
0.0
 40
0.0
 40
0.0
 40
0.6685357804839384
 40
1.336997794490683
 40
1.940537183246925
 40
2.543588146324559
 40
3.033594057507008
 40
3.520959780568341
 40
3.913542982673505
 40
4.301630603130248
 40
4.746146461091163
 40
5.197083276485071
 40
5.754853708512814
 40
6.313249360237733
 40
6.893562255663883
 40
7.473363271936513
 40
7.985782826762255
 40
8.494264018805267
 40
8.950773573253094
 40
9.409337819753098
 40
9.925398682611652
 40
10.4434007745552
 40
11.04400361922125
 40
11.64511882436022
 40
12.29663075973633
 40
12.94823383362375
 40
12.94823383362375
 40
12.94823383362375
 40
12.94823383362375
 10
231.8189698309967
 20
-114.261035482474
 30
0.0
 10
231.9346216483399
 20
-114.4515208286862
 30
0.0
 10
232.1656245655449
 20
-114.8326521437004
 30
0.0
 10
232.5110524680395
 20
-115.3796163425785
 30
0.0
 10
232.8618587052741
 20
-115.8971198621151
 30
0.0
 10
233.2095622095571
 20
-116.3440438004059
 30
0.0
 10
233.5699515886961
 20
-116.7291906503855
 30
0.0
 10
233.9326401021726
 20
-117.0133453496333
 30
0.0
 10
234.3287330934789
 20
-117.1769221527854
 30
0.0
 10
234.7489720004032
 20
-117.1945642853299
 30
0.0
 10
235.150136799499
 20
-117.0173581271723
 30
0.0
 10
235.5403573150212
 20
-116.7301693022627
 30
0.0
 10
235.9284106093582
 20
-116.3791449207306
 30
0.0
 10
236.3269059022341
 20
-115.9780285528926
 30
0.0
 10
236.7316849138486
 20
-115.5726812009792
 30
0.0
 10
237.1446457882038
 20
-115.1972496249213
 30
0.0
 10
237.572399017381
 20
-114.8770439297597
 30
0.0
 10
238.0196069759878
 20
-114.655354425758
 30
0.0
 10
238.4979472556091
 20
-114.5931708465578
 30
0.0
 10
238.9746933215694
 20
-114.6637120083349
 30
0.0
 10
239.4393071568051
 20
-114.8512617182291
 30
0.0
 10
239.9089335290451
 20
-115.1295871661527
 30
0.0
 10
240.3709177272772
 20
-115.4702796043055
 30
0.0
 10
240.8414314990299
 20
-115.8709271871514
 30
0.0
 10
241.3087807875016
 20
-116.3005650088637
 30
0.0
 10
241.6224855874854
 20
-116.6010197925982
 30
0.0
 10
241.7794441392978
 20
-116.7511540595491
 30
0.0
 11
231.8189698309967
 21
-114.261035482474
 31
0.0
 11
232.1673850208838
 21
-114.8316034930819
 31
0.0
 11
232.5258003645938
 21
-115.3958551465054
 31
0.0
 11
232.8673387421265
 21
-115.8934607655036
 31
0.0
 11
233.240412518744
 21
-116.3672607789166
 31
0.0
 11
233.5795721617922
 21
-116.720922423142
 31
0.0
 11
233.970587914001
 21
-117.0118383480867
 31
0.0
 11
234.3361848960185
 21
-117.154878421278
 31
0.0
 11
234.724108170918
 21
-117.1661738223952
 31
0.0
 11
235.1384153389119
 21
-117.0051025083118
 31
0.0
 11
235.5074579732895
 21
-116.7459663125139
 31
0.0
 11
235.9247079160684
 21
-116.3758172427835
 31
0.0
 11
236.3219342578746
 21
-115.9833674982847
 31
0.0
 11
236.7351045405764
 21
-115.5758696143708
 31
0.0
 11
237.1675370246729
 21
-115.189642201842
 31
0.0
 11
237.5825737008594
 21
-114.8891119585735
 31
0.0
 11
238.0442662736847
 21
-114.6760552453201
 31
0.0
 11
238.4965977638669
 21
-114.6144333171781
 31
0.0
 11
238.950825068151
 21
-114.6773521820788
 31
0.0
 11
239.4325268511291
 21
-114.8625068827134
 31
0.0
 11
239.8807287242774
 21
-115.1222014903792
 31
0.0
 11
240.3663524496991
 21
-115.4756041161597
 31
0.0
 11
240.8261956215107
 21
-115.8627523797071
 31
0.0
 11
241.3072301508342
 21
-116.3021538071379
 31
0.0
 11
241.7794441392978
 21
-116.7511540595491
 31
0.0
  0
LINE
  5
7801
330
1E
100
AcDbEntity
  8
0
100
AcDbLine
 10
249.4098516938627
 20
-94.99977400000005
 30
0.0
 11
234.4098516938627
 21
-94.99977400000005
 31
0.0
  0
LINE
  5
7802
330
1E
100
AcDbEntity
  8
10
  6
CONTINUOUS
100
AcDbLine
 10
208.7097616938627
 20
-61.94988800000004
 30
0.0
 11
208.7097616938627
 21
-79.74985300000009
 31
0.0
  0
ARC
  5
7803
330
1E
100
AcDbEntity
  8
10
  6
CONTINUOUS
100
AcDbCircle
 10
223.5413426938626
 20
-77.74988800000006
 30
0.0
 40
2.0
100
AcDbArc
 50
270.0
 51
350.0000000000013
  0
LINE
  5
7804
330
1E
100
AcDbEntity
  8
10
  6
CONTINUOUS
100
AcDbLine
 10
225.5109586938627
 20
-78.09718400000008
 30
0.0
 11
226.4097616938627
 21
-72.99981800000006
 31
0.0
  0
ARC
  5
7805
330
1E
100
AcDbEntity
  8
10
  6
CONTINUOUS
100
AcDbCircle
 10
206.7097616938627
 20
-61.94988800000004
 30
0.0
 40
2.0
100
AcDbArc
 50
0.0
 51
90.0
  0
LINE
  5
7806
330
1E
100
AcDbEntity
  8
0
100
AcDbLine
 10
249.4098516938627
 20
-74.99977400000005
 30
0.0
 11
234.4098516938627
 21
-74.99977400000005
 31
0.0
  0
LINE
  5
7807
330
1E
100
AcDbEntity
  8
17
  6
CONTINOUS
100
AcDbLine
 10
279.4098376938626
 20
-73.57148200000006
 30
0.0
 11
279.4098376938626
 21
-95.26587500000005
 31
0.0
  0
LINE
  5
7808
330
1E
100
AcDbEntity
  8
0
100
AcDbLine
 10
287.4098376938627
 20
-91.49977400000006
 30
0.0
 11
287.4098376938627
 21
-78.49977400000006
 31
0.0
  0
CIRCLE
  5
7809
330
1E
100
AcDbEntity
  8
24
  6
CONTINOUS
100
AcDbCircle
 10
279.4098376938626
 20
-84.99977400000005
 30
0.0
 40
3.25
  0
LINE
  5
780A
330
1E
100
AcDbEntity
  8
0
100
AcDbLine
 10
261.4098516938627
 20
-93.35916300000002
 30
0.0
 11
261.4098516938627
 21
-76.64038400000009
 31
0.0
  0
LINE
  5
780B
330
1E
100
AcDbEntity
  8
0
100
AcDbLine
 10
261.4098516938627
 20
-91.99977400000006
 30
0.0
 11
286.9098376938627
 21
-91.99977400000006
 31
0.0
  0
LINE
  5
780C
330
1E
100
AcDbEntity
  8
0
100
AcDbLine
 10
262.4193996938627
 20
-94.85916300000003
 30
0.0
 11
266.5242456938627
 21
-93.49977400000005
 31
0.0
  0
LINE
  5
780D
330
1E
100
AcDbEntity
  8
0
100
AcDbLine
 10
256.4098626938627
 20
-94.85916300000003
 30
0.0
 11
262.4193996938627
 21
-94.85916300000003
 31
0.0
  0
LINE
  5
780E
330
1E
100
AcDbEntity
  8
0
100
AcDbLine
 10
261.4098516938627
 20
-93.35916300000002
 30
0.0
 11
255.9098746938627
 21
-93.35916300000002
 31
0.0
  0
LINE
  5
780F
330
1E
100
AcDbEntity
  8
0
100
AcDbLine
 10
256.4098626938627
 20
-93.35916300000002
 30
0.0
 11
256.4098626938627
 21
-94.85916300000003
 31
0.0
  0
LINE
  5
7810
330
1E
100
AcDbEntity
  8
0
100
AcDbLine
 10
255.9098746938627
 20
-93.35916300000002
 30
0.0
 11
255.9098746938627
 21
-93.79977400000006
 31
0.0
  0
ARC
  5
7811
330
1E
100
AcDbEntity
  8
0
100
AcDbCircle
 10
286.9098376938627
 20
-91.49977400000006
 30
0.0
 40
0.5
100
AcDbArc
 50
270.0
 51
0.0
  0
LINE
  5
7812
330
1E
100
AcDbEntity
  8
0
100
AcDbLine
 10
261.4098516938627
 20
-77.99977400000006
 30
0.0
 11
286.9098376938627
 21
-77.99977400000006
 31
0.0
  0
LINE
  5
7813
330
1E
100
AcDbEntity
  8
0
100
AcDbLine
 10
262.4193996938627
 20
-75.1403840000001
 30
0.0
 11
266.5242456938627
 21
-76.49977400000006
 31
0.0
  0
LINE
  5
7814
330
1E
100
AcDbEntity
  8
0
100
AcDbLine
 10
256.4098626938627
 20
-75.1403840000001
 30
0.0
 11
262.4193996938627
 21
-75.1403840000001
 31
0.0
  0
LINE
  5
7815
330
1E
100
AcDbEntity
  8
0
100
AcDbLine
 10
261.4098516938627
 20
-76.64038400000009
 30
0.0
 11
255.9098746938627
 21
-76.64038400000009
 31
0.0
  0
LINE
  5
7816
330
1E
100
AcDbEntity
  8
0
100
AcDbLine
 10
256.4098626938627
 20
-75.1403840000001
 30
0.0
 11
256.4098626938627
 21
-76.64038400000009
 31
0.0
  0
LINE
  5
7817
330
1E
100
AcDbEntity
  8
0
100
AcDbLine
 10
255.9098746938627
 20
-76.64038400000009
 30
0.0
 11
255.9098746938627
 21
-76.1997740000001
 31
0.0
  0
ARC
  5
7818
330
1E
100
AcDbEntity
  8
0
100
AcDbCircle
 10
286.9098376938627
 20
-78.49977400000006
 30
0.0
 40
0.5
100
AcDbArc
 50
0.0
 51
90.0
  0
LINE
  5
7819
330
1E
100
AcDbEntity
  8
10
  6
CONTINUOUS
100
AcDbLine
 10
222.4098216938626
 20
17.80007099999989
 30
0.0
 11
222.4098216938626
 21
-17.34651300000007
 31
0.0
  0
LINE
  5
781A
330
1E
100
AcDbEntity
  8
10
  6
CONTINUOUS
100
AcDbLine
 10
226.9098516938627
 20
-50.0000720000001
 30
0.0
 11
234.4098516938627
 21
-50.0000720000001
 31
0.0
  0
LINE
  5
781B
330
1E
100
AcDbEntity
  8
10
  6
CONTINUOUS
100
AcDbLine
 10
226.1098516938627
 20
-27.49997800000005
 30
0.0
 11
226.1098516938627
 21
-42.99987800000008
 31
0.0
  0
LINE
  5
781C
330
1E
100
AcDbEntity
  8
10
  6
CONTINUOUS
100
AcDbLine
 10
208.7097616938627
 20
-49.74985300000009
 30
0.0
 11
224.0805496938627
 21
-49.74985300000009
 31
0.0
  0
LINE
  5
781D
330
1E
100
AcDbEntity
  8
10
  6
CONTINUOUS
100
AcDbLine
 10
208.7097616938627
 20
-49.84988800000002
 30
0.0
 11
208.7097616938627
 21
-47.74988800000005
 31
0.0
  0
ARC
  5
781E
330
1E
100
AcDbEntity
  8
10
  6
CONTINUOUS
100
AcDbCircle
 10
206.7097616938627
 20
-49.74988800000005
 30
0.0
 40
2.0
100
AcDbArc
 50
270.0
 51
0.0
  0
ARC
  5
781F
330
1E
100
AcDbEntity
  8
10
  6
CONTINUOUS
100
AcDbCircle
 10
207.7097616938627
 20
-47.74988800000005
 30
0.0
 40
1.0
100
AcDbArc
 50
0.0
 51
90.0
  0
LINE
  5
7820
330
1E
100
AcDbEntity
  8
10
  6
CONTINUOUS
100
AcDbLine
 10
225.0653576938627
 20
-48.9235010000001
 30
0.0
 11
226.1098516938627
 21
-42.99987800000008
 31
0.0
  0
LINE
  5
7821
330
1E
100
AcDbEntity
  8
10
  6
CONTINUOUS
100
AcDbLine
 10
223.5722086938626
 20
-49.74988800000005
 30
0.0
 11
226.4097616938627
 21
-49.74988800000005
 31
0.0
  0
LINE
  5
7822
330
1E
100
AcDbEntity
  8
10
  6
CONTINUOUS
100
AcDbLine
 10
225.1841336938626
 20
-48.24988800000006
 30
0.0
 11
226.4097616938627
 21
-48.24988800000006
 31
0.0
  0
LINE
  5
7823
330
1E
100
AcDbEntity
  8
10
  6
CONTINUOUS
100
AcDbLine
 10
226.4097616938627
 20
-46.74988800000005
 30
0.0
 11
225.4486236938627
 21
-46.74988800000005
 31
0.0
  0
ARC
  5
7824
330
1E
100
AcDbEntity
  8
10
  6
CONTINUOUS
100
AcDbCircle
 10
226.9098516938627
 20
-50.50018600000004
 30
0.0
 40
0.5
100
AcDbArc
 50
90.0
 51
180.0
  0
ARC
  5
7825
330
1E
100
AcDbEntity
  8
10
  6
CONTINUOUS
100
AcDbCircle
 10
224.0805496938627
 20
-48.74985300000009
 30
0.0
 40
1.0
100
AcDbArc
 50
270.0
 51
350.0000000000013
  0
LINE
  5
7826
330
1E
100
AcDbEntity
  8
10
  6
CONTINUOUS
100
AcDbLine
 10
226.4098516938627
 20
-37.29981700000007
 30
0.0
 11
226.4098516938627
 21
-42.99987500000002
 31
0.0
  0
LINE
  5
7827
330
1E
100
AcDbEntity
  8
10
  6
CONTINUOUS
100
AcDbLine
 10
226.1098516938627
 20
-38.99992900000006
 30
0.0
 11
226.4101266938627
 21
-38.99992900000006
 31
0.0
  0
LINE
  5
7828
330
1E
100
AcDbEntity
  8
10
  6
CONTINUOUS
100
AcDbLine
 10
226.1098516938627
 20
-37.29981700000007
 30
0.0
 11
226.4101266938627
 21
-37.29981700000007
 31
0.0
  0
LINE
  5
7829
330
1E
100
AcDbEntity
  8
10
  6
CONTINUOUS
100
AcDbLine
 10
226.1098516938627
 20
-42.99987500000002
 30
0.0
 11
226.4101266938627
 21
-42.99987500000002
 31
0.0
  0
LINE
  5
782A
330
1E
100
AcDbEntity
  8
10
  6
CONTINUOUS
100
AcDbLine
 10
226.0097676938627
 20
-26.93237400000004
 30
0.0
 11
226.0097676938627
 21
-18.99991000000005
 31
0.0
  0
LINE
  5
782B
330
1E
100
AcDbEntity
  8
10
  6
CONTINUOUS
100
AcDbLine
 10
226.1098516938627
 20
-27.49997800000005
 30
0.0
 11
224.6638776938627
 21
-19.29945000000009
 31
0.0
  0
LINE
  5
782C
330
1E
100
AcDbEntity
  8
10
  6
CONTINUOUS
100
AcDbLine
 10
222.5580576938627
 20
-17.53969800000004
 30
0.0
 11
223.2118996938627
 21
-17.71489500000001
 31
0.0
  0
ARC
  5
782D
330
1E
100
AcDbEntity
  8
10
  6
CONTINUOUS
100
AcDbCircle
 10
222.6098216938627
 20
-17.34651300000007
 30
0.0
 40
0.2
100
AcDbArc
 50
180.0
 51
254.9999999999988
  0
LINE
  5
782E
330
1E
100
AcDbEntity
  8
10
  6
CONTINUOUS
100
AcDbLine
 10
225.0097676938627
 20
-17.99991000000005
 30
0.0
 11
226.0097676938627
 21
-18.99991000000005
 31
0.0
  0
LINE
  5
782F
330
1E
100
AcDbEntity
  8
10
  6
CONTINUOUS
100
AcDbLine
 10
223.8291316938627
 20
-17.99991000000005
 30
0.0
 11
225.0097676938627
 21
-17.99991000000005
 31
0.0
  0
ARC
  5
7830
330
1E
100
AcDbEntity
  8
10
  6
CONTINUOUS
100
AcDbCircle
 10
222.6942616938627
 20
-19.64674600000012
 30
0.0
 40
2.0
100
AcDbArc
 50
9.999999999998676
 51
74.99999999999882
  0
LINE
  5
7831
330
1E
100
AcDbEntity
  8
10
  6
CONTINUOUS
100
AcDbLine
 10
222.4098216938626
 20
17.80007099999989
 30
0.0
 11
226.1098516938627
 21
17.80007099999989
 31
0.0
  0
ARC
  5
7832
330
1E
100
AcDbEntity
  8
10
  6
CONTINUOUS
100
AcDbCircle
 10
218.7098216938626
 20
14.6000709999999
 30
0.0
 40
4.2
100
AcDbArc
 50
331.7574629999996
 51
28.24253700000034
  0
LINE
  5
7833
330
1E
100
AcDbEntity
  8
10
  6
CONTINUOUS
100
AcDbLine
 10
225.3168106938627
 20
15.3001319999999
 30
0.0
 11
225.6098216938627
 21
15.3001319999999
 31
0.0
  0
LINE
  5
7834
330
1E
100
AcDbEntity
  8
10
  6
CONTINUOUS
100
AcDbLine
 10
223.6098216938627
 20
17.80007099999989
 30
0.0
 11
223.8029686938627
 21
16.70467999999999
 31
0.0
  0
LINE
  5
7835
330
1E
100
AcDbEntity
  8
10
  6
CONTINUOUS
100
AcDbLine
 10
223.9015926938626
 20
16.53036199999991
 30
0.0
 11
225.3168106938627
 21
15.3001319999999
 31
0.0
  0
ARC
  5
7836
330
1E
100
AcDbEntity
  8
10
  6
CONTINUOUS
100
AcDbCircle
 10
224.0984106938627
 20
16.75677399999989
 30
0.0
 40
0.3
100
AcDbArc
 50
189.9999999999987
 51
228.9999999999996
  0
ARC
  5
7837
330
1E
100
AcDbEntity
  8
10
  6
CONTINUOUS
100
AcDbCircle
 10
225.6098216938627
 20
15.8001319999999
 30
0.0
 40
0.5
100
AcDbArc
 50
270.0
 51
0.0
  0
LINE
  5
7838
330
1E
100
AcDbEntity
  8
17
  6
CONTINOUS
100
AcDbLine
 10
329.4098376938626
 20
-73.57148200000006
 30
0.0
 11
329.4098376938626
 21
-95.26587500000005
 31
0.0
  0
LINE
  5
7839
330
1E
100
AcDbEntity
  8
0
100
AcDbLine
 10
307.4098376938627
 20
-76.49977400000006
 30
0.0
 11
307.4098376938627
 21
-93.49977400000005
 31
0.0
  0
LINE
  5
783A
330
1E
100
AcDbEntity
  8
0
100
AcDbLine
 10
337.4098376938627
 20
-78.49977400000006
 30
0.0
 11
337.4098376938627
 21
-91.49977400000006
 31
0.0
  0
CIRCLE
  5
783B
330
1E
100
AcDbEntity
  8
24
  6
CONTINOUS
100
AcDbCircle
 10
329.4098376938626
 20
-84.99977400000005
 30
0.0
 40
3.25
  0
LINE
  5
783C
330
1E
100
AcDbEntity
  8
0
100
AcDbLine
 10
307.4098376938627
 20
-91.99977400000006
 30
0.0
 11
336.9098376938627
 21
-91.99977400000006
 31
0.0
  0
ARC
  5
783D
330
1E
100
AcDbEntity
  8
0
100
AcDbCircle
 10
336.9098376938627
 20
-91.49977400000006
 30
0.0
 40
0.5
100
AcDbArc
 50
270.0
 51
0.0
  0
LINE
  5
783E
330
1E
100
AcDbEntity
  8
0
100
AcDbLine
 10
307.4098376938627
 20
-77.99977400000006
 30
0.0
 11
336.9098376938627
 21
-77.99977400000006
 31
0.0
  0
ARC
  5
783F
330
1E
100
AcDbEntity
  8
0
100
AcDbCircle
 10
336.9098376938627
 20
-78.49977400000006
 30
0.0
 40
0.5
100
AcDbArc
 50
0.0
 51
90.0
  0
LINE
  5
7840
330
1E
100
AcDbEntity
  8
0
100
AcDbLine
 10
342.9622736938627
 20
54.99999999999989
 30
0.0
 11
230.4005436938628
 21
54.99999999999989
 31
0.0
  0
LINE
  5
7841
330
1E
100
AcDbEntity
  8
0
100
AcDbLine
 10
266.5242456938627
 20
51.99970099999996
 30
0.0
 11
307.4098376938627
 21
51.99970099999996
 31
0.0
  0
LINE
  5
7842
330
1E
100
AcDbEntity
  8
0
100
AcDbLine
 10
266.5242456938627
 20
57.99970100000002
 30
0.0
 11
307.4098376938627
 21
57.99970100000002
 31
0.0
  0
LINE
  5
7843
330
1E
100
AcDbEntity
  8
0
100
AcDbLine
 10
249.4098516938627
 20
46.20011299999998
 30
0.0
 11
255.9098746938627
 21
46.20011299999998
 31
0.0
  0
LINE
  5
7844
330
1E
100
AcDbEntity
  8
0
100
AcDbLine
 10
249.4098516938627
 20
63.80011299999996
 30
0.0
 11
255.9098746938627
 21
63.80011299999996
 31
0.0
  0
LINE
  5
7845
330
1E
100
AcDbEntity
  8
10
  6
CONTINUOUS
100
AcDbLine
 10
234.4098516938627
 20
20.00029899999992
 30
0.0
 11
234.4098516938627
 21
68.49998199999987
 31
0.0
  0
LINE
  5
7846
330
1E
100
AcDbEntity
  8
0
100
AcDbLine
 10
249.4098516938627
 20
64.99999999999994
 30
0.0
 11
249.4098516938627
 21
44.99999999999988
 31
0.0
  0
LINE
  5
7847
330
1E
100
AcDbEntity
  8
10
  6
CONTINUOUS
100
AcDbLine
 10
226.9098516938627
 20
20.00029899999992
 30
0.0
 11
234.4098516938627
 21
20.00029899999992
 31
0.0
  0
LINE
  5
7848
330
1E
100
AcDbEntity
  8
10
  6
CONTINUOUS
100
AcDbLine
 10
226.4098516938627
 20
20.50029899999992
 30
0.0
 11
226.4098516938627
 21
49.750113
 31
0.0
  0
ARC
  5
7849
330
1E
100
AcDbEntity
  8
10
  6
CONTINUOUS
100
AcDbCircle
 10
226.9098516938627
 20
20.50029899999992
 30
0.0
 40
0.5
100
AcDbArc
 50
180.0
 51
270.0
  0
LINE
  5
784A
330
1E
100
AcDbEntity
  8
10
  6
CONTINUOUS
100
AcDbLine
 10
225.0653576938627
 20
48.92372799999993
 30
0.0
 11
226.1098516938627
 21
43.0001039999999
 31
0.0
  0
LINE
  5
784B
330
1E
100
AcDbEntity
  8
10
  6
CONTINUOUS
100
AcDbLine
 10
226.1098516938627
 20
39.00010099999997
 30
0.0
 11
226.4101266938627
 21
39.00010099999997
 31
0.0
  0
LINE
  5
784C
330
1E
100
AcDbEntity
  8
10
  6
CONTINUOUS
100
AcDbLine
 10
226.1098516938627
 20
37.30010099999998
 30
0.0
 11
226.4101266938627
 21
37.30010099999998
 31
0.0
  0
ARC
  5
784D
330
1E
100
AcDbEntity
  8
10
  6
CONTINUOUS
100
AcDbCircle
 10
224.0805496938627
 20
48.75007999999997
 30
0.0
 40
1.0
100
AcDbArc
 50
9.999999999998676
 51
90.0
  0
LINE
  5
784E
330
1E
100
AcDbEntity
  8
0
100
AcDbLine
 10
234.4098516938627
 20
44.99999999999988
 30
0.0
 11
249.4098516938627
 21
44.99999999999988
 31
0.0
  0
LINE
  5
784F
330
1E
100
AcDbEntity
  8
0
100
AcDbLine
 10
234.4098516938627
 20
64.99999999999994
 30
0.0
 11
249.4098516938627
 21
64.99999999999994
 31
0.0
  0
LINE
  5
7850
330
1E
100
AcDbEntity
  8
17
  6
CONTINOUS
100
AcDbLine
 10
279.4098376938626
 20
47.70419299999997
 30
0.0
 11
279.4098376938626
 21
61.31706199999991
 31
0.0
  0
LINE
  5
7851
330
1E
100
AcDbEntity
  8
0
100
AcDbLine
 10
269.3840176938627
 20
51.99970099999996
 30
0.0
 11
269.3840176938627
 21
53.49885099999994
 31
0.0
  0
LINE
  5
7852
330
1E
100
AcDbEntity
  8
0
100
AcDbLine
 10
261.4098376938627
 20
46.64072399999992
 30
0.0
 11
261.4098376938627
 21
63.35950299999996
 31
0.0
  0
LINE
  5
7853
330
1E
100
AcDbEntity
  8
0
100
AcDbLine
 10
262.4193996938627
 20
45.3898999999999
 30
0.0
 11
266.0912326938627
 21
51.74970099999995
 31
0.0
  0
LINE
  5
7854
330
1E
100
AcDbEntity
  8
0
100
AcDbLine
 10
262.0150796938627
 20
45.14072399999991
 30
0.0
 11
256.4098626938627
 21
45.14072399999991
 31
0.0
  0
LINE
  5
7855
330
1E
100
AcDbEntity
  8
0
100
AcDbLine
 10
261.4098376938627
 20
46.64072399999992
 30
0.0
 11
255.9098746938627
 21
46.64072399999992
 31
0.0
  0
LINE
  5
7856
330
1E
100
AcDbEntity
  8
0
100
AcDbLine
 10
256.4098626938627
 20
45.14072399999991
 30
0.0
 11
256.4098626938627
 21
46.64072399999992
 31
0.0
  0
LINE
  5
7857
330
1E
100
AcDbEntity
  8
0
100
AcDbLine
 10
255.9098746938627
 20
46.64072399999992
 30
0.0
 11
255.9098746938627
 21
46.20011299999998
 31
0.0
  0
ARC
  5
7858
330
1E
100
AcDbEntity
  8
0
100
AcDbCircle
 10
261.9863866938627
 20
45.63989999999989
 30
0.0
 40
0.5
100
AcDbArc
 50
270.0
 51
329.999999999999
  0
ARC
  5
7859
330
1E
100
AcDbEntity
  8
0
100
AcDbCircle
 10
266.5242456938627
 20
51.49970099999996
 30
0.0
 40
0.5
100
AcDbArc
 50
90.0
 51
149.999999999999
  0
LINE
  5
785A
330
1E
100
AcDbEntity
  8
0
100
AcDbLine
 10
261.4098376938627
 20
53.49885099999994
 30
0.0
 11
287.4098376938627
 21
53.49885099999994
 31
0.0
  0
LINE
  5
785B
330
1E
100
AcDbEntity
  8
0
100
AcDbLine
 10
261.4098376938627
 20
56.498851
 30
0.0
 11
287.4098376938627
 21
56.498851
 31
0.0
  0
LINE
  5
785C
330
1E
100
AcDbEntity
  8
0
100
AcDbLine
 10
262.4193996938627
 20
64.60950299999996
 30
0.0
 11
266.0912326938627
 21
58.24970100000001
 31
0.0
  0
LINE
  5
785D
330
1E
100
AcDbEntity
  8
0
100
AcDbLine
 10
261.9863866938627
 20
64.85950299999996
 30
0.0
 11
256.4098626938627
 21
64.85950299999996
 31
0.0
  0
LINE
  5
785E
330
1E
100
AcDbEntity
  8
0
100
AcDbLine
 10
261.4098376938627
 20
63.35950299999996
 30
0.0
 11
255.9098746938627
 21
63.35950299999996
 31
0.0
  0
LINE
  5
785F
330
1E
100
AcDbEntity
  8
0
100
AcDbLine
 10
256.4098626938627
 20
63.35950299999996
 30
0.0
 11
256.4098626938627
 21
64.85950299999996
 31
0.0
  0
LINE
  5
7860
330
1E
100
AcDbEntity
  8
0
100
AcDbLine
 10
255.9098746938627
 20
63.35950299999996
 30
0.0
 11
255.9098746938627
 21
63.80011299999996
 31
0.0
  0
ARC
  5
7861
330
1E
100
AcDbEntity
  8
0
100
AcDbCircle
 10
261.9863866938627
 20
64.35950299999996
 30
0.0
 40
0.5
100
AcDbArc
 50
30.00000000000095
 51
90.0
  0
ARC
  5
7862
330
1E
100
AcDbEntity
  8
0
100
AcDbCircle
 10
266.5242456938627
 20
58.49970100000001
 30
0.0
 40
0.5
100
AcDbArc
 50
210.0000000000009
 51
270.0
  0
LINE
  5
7863
330
1E
100
AcDbEntity
  8
0
100
AcDbLine
 10
269.3840176938627
 20
56.498851
 30
0.0
 11
269.3840176938627
 21
57.99970100000002
 31
0.0
  0
LINE
  5
7864
330
1E
100
AcDbEntity
  8
0
100
AcDbLine
 10
287.4098376938627
 20
53.49885099999994
 30
0.0
 11
287.4098376938627
 21
56.498851
 31
0.0
  0
SPLINE
  5
7865
330
1E
100
AcDbEntity
  8
18
100
AcDbSpline
210
0.0
220
0.0
230
1.0
 70
     8
 71
     3
 72
    31
 73
    27
 74
    25
 42
0.0000000001
 43
0.0000000001
 44
0.000001
 12
0.5189781342420446
 22
0.8547875152215587
 32
0.0
 13
0.7226418571478531
 23
0.6912226459672035
 33
0.0
 40
0.0
 40
0.0
 40
0.0
 40
0.0
 40
0.6685357804839384
 40
1.336997794490635
 40
1.940537183246783
 40
2.543588146324328
 40
3.033594057506818
 40
3.520959780567947
 40
3.913542982673197
 40
4.301630603129821
 40
4.746146461090776
 40
5.197083276484717
 40
5.75485370851246
 40
6.31324936023734
 40
6.893562255663529
 40
7.473363271936122
 40
7.985782826761931
 40
8.494264018804873
 40
8.950773573252686
 40
9.409337819752719
 40
9.925398682611314
 40
10.44340077455487
 40
11.04400361922108
 40
11.64511882436005
 40
12.29663075973612
 40
12.94823383362354
 40
12.94823383362354
 40
12.94823383362354
 40
12.94823383362354
 10
231.8189698309967
 20
94.26069498002886
 30
0.0
 10
231.9346216483399
 20
94.45118032624105
 30
0.0
 10
232.1656245655448
 20
94.83231164125518
 30
0.0
 10
232.5110524680395
 20
95.37927584013329
 30
0.0
 10
232.8618587052741
 20
95.89677935966983
 30
0.0
 10
233.2095622095571
 20
96.34370329796045
 30
0.0
 10
233.569951588696
 20
96.72885014794022
 30
0.0
 10
233.9326401021728
 20
97.0130048471876
 30
0.0
 10
234.3287330934789
 20
97.1765816503397
 30
0.0
 10
234.7489720004032
 20
97.19422378288394
 30
0.0
 10
235.1501367994991
 20
97.01701762472628
 30
0.0
 10
235.5403573150212
 20
96.72982879981658
 30
0.0
 10
235.9284106093582
 20
96.37880441828444
 30
0.0
 10
236.3269059022342
 20
95.97768805044664
 30
0.0
 10
236.7316849138484
 20
95.57234069853304
 30
0.0
 10
237.1446457882039
 20
95.19690912247536
 30
0.0
 10
237.572399017381
 20
94.87670342731346
 30
0.0
 10
238.0196069759879
 20
94.65501392331198
 30
0.0
 10
238.497947255609
 20
94.59283034411196
 30
0.0
 10
238.9746933215694
 20
94.66337150588932
 30
0.0
 10
239.4393071568051
 20
94.85092121578356
 30
0.0
 10
239.9089335290452
 20
95.12924666370716
 30
0.0
 10
240.3709177272772
 20
95.46993910186031
 30
0.0
 10
240.8414314990299
 20
95.87058668470611
 30
0.0
 10
241.3087807875016
 20
96.30022450641854
 30
0.0
 10
241.6224855874853
 20
96.60067929015292
 30
0.0
 10
241.7794441392977
 20
96.75081355710387
 30
0.0
 11
231.8189698309967
 21
94.26069498002886
 31
0.0
 11
232.1673850208838
 21
94.83126299063673
 31
0.0
 11
232.5258003645938
 21
95.39551464406025
 31
0.0
 11
232.8673387421265
 21
95.89312026305828
 31
0.0
 11
233.240412518744
 21
96.36692027647114
 31
0.0
 11
233.5795721617922
 21
96.7205819206967
 31
0.0
 11
233.970587914001
 21
97.01149784564103
 31
0.0
 11
234.3361848960186
 21
97.1545379188322
 31
0.0
 11
234.724108170918
 21
97.16583331994929
 31
0.0
 11
235.1384153389119
 21
97.00476200586576
 31
0.0
 11
235.5074579732895
 21
96.7456258100678
 31
0.0
 11
235.9247079160684
 21
96.37547674033744
 31
0.0
 11
236.3219342578746
 21
95.98302699583866
 31
0.0
 11
236.7351045405764
 21
95.57552911192471
 31
0.0
 11
237.1675370246729
 21
95.18930169939592
 31
0.0
 11
237.5825737008594
 21
94.88877145612736
 31
0.0
 11
238.0442662736847
 21
94.67571474287415
 31
0.0
 11
238.4965977638669
 21
94.61409281473226
 31
0.0
 11
238.950825068151
 21
94.67701167963316
 31
0.0
 11
239.4325268511291
 21
94.86216638026787
 31
0.0
 11
239.8807287242774
 21
95.12186098793364
 31
0.0
 11
240.3663524496991
 21
95.47526361371451
 31
0.0
 11
240.8261956215107
 21
95.86241187726187
 31
0.0
 11
241.3072301508341
 21
96.30181330469264
 31
0.0
 11
241.7794441392977
 21
96.75081355710387
 31
0.0
  0
LINE
  5
7866
330
1E
100
AcDbEntity
  8
17
  6
CONTINOUS
100
AcDbLine
 10
329.4098376938626
 20
47.70419299999997
 30
0.0
 11
329.4098376938626
 21
61.5366249999999
 31
0.0
  0
LINE
  5
7867
330
1E
100
AcDbEntity
  8
0
100
AcDbLine
 10
307.4098376938627
 20
51.99970099999996
 30
0.0
 11
307.4098376938627
 21
57.99970100000002
 31
0.0
  0
LINE
  5
7868
330
1E
100
AcDbEntity
  8
0
100
AcDbLine
 10
307.4098376938627
 20
56.498851
 30
0.0
 11
337.4098376938627
 21
56.498851
 31
0.0
  0
LINE
  5
7869
330
1E
100
AcDbEntity
  8
0
100
AcDbLine
 10
307.4098376938627
 20
53.49885099999994
 30
0.0
 11
337.4098376938627
 21
53.49885099999994
 31
0.0
  0
LINE
  5
786A
330
1E
100
AcDbEntity
  8
0
100
AcDbLine
 10
337.4098376938627
 20
53.49885099999994
 30
0.0
 11
337.4098376938627
 21
56.498851
 31
0.0
  0
ARC
  5
78FD
330
1E
100
AcDbEntity
  8
24
  6
CONTINOUS
100
AcDbCircle
 10
0.0
 20
286.9811530622458
 30
0.0
 40
3.25
100
AcDbArc
 50
62.53641099999955
 51
117.5092680000007
  0
LINE
  5
78FE
330
1E
100
AcDbEntity
  8
21
100
AcDbLine
 10
-1.501149000000026
 20
264.9811530622457
 30
0.0
 11
-1.501149000000026
 21
294.9811530622458
 31
0.0
  0
LINE
  5
78FF
330
1E
100
AcDbEntity
  8
21
100
AcDbLine
 10
1.498850999999973
 20
264.9811530622457
 30
0.0
 11
1.498850999999973
 21
294.9811530622458
 31
0.0
  0
LINE
  5
7900
330
1E
100
AcDbEntity
  8
21
100
AcDbLine
 10
7.0
 20
264.9811530622457
 30
0.0
 11
7.0
 21
294.4811530622459
 31
0.0
  0
LINE
  5
7901
330
1E
100
AcDbEntity
  8
21
100
AcDbLine
 10
-7.0
 20
264.9811530622457
 30
0.0
 11
-7.0
 21
294.4811530622459
 31
0.0
  0
LINE
  5
7903
330
1E
100
AcDbEntity
  8
10
  6
CONTINUOUS
100
AcDbLine
 10
-37.40015300000004
 20
123.9811970622458
 30
0.0
 11
-37.40015300000004
 21
191.9811670622458
 31
0.0
  0
LINE
  5
7904
330
1E
100
AcDbEntity
  8
0
100
AcDbLine
 10
-37.40006099999999
 20
139.9851970622458
 30
0.0
 11
-37.40006099999999
 21
191.9811670622458
 31
0.0
  0
LINE
  5
7905
330
1E
100
AcDbEntity
  8
10
  6
CONTINUOUS
100
AcDbLine
 10
37.39984699999999
 20
123.9811970622457
 30
0.0
 11
37.39984699999999
 21
191.9811670622458
 31
0.0
  0
LINE
  5
7906
330
1E
100
AcDbEntity
  8
0
100
AcDbLine
 10
37.39993899999999
 20
139.9851970622458
 30
0.0
 11
37.39993899999999
 21
191.9811670622458
 31
0.0
  0
LINE
  5
7907
330
1E
100
AcDbEntity
  8
0
100
AcDbLine
 10
-37.40015300000004
 20
141.4851970622458
 30
0.0
 11
37.39984699999999
 21
141.4851970622458
 31
0.0
  0
LINE
  5
7908
330
1E
100
AcDbEntity
  8
10
  6
CONTINUOUS
100
AcDbLine
 10
37.39984699999999
 20
123.9811970622457
 30
0.0
 11
-37.40015300000004
 21
123.9811970622458
 31
0.0
  0
LINE
  5
7909
330
1E
100
AcDbEntity
  8
10
  6
CONTINUOUS
100
AcDbLine
 10
-37.40015300000004
 20
132.9811670622458
 30
0.0
 11
37.39984699999999
 21
132.9811670622458
 31
0.0
  0
LINE
  5
790A
330
1E
100
AcDbEntity
  8
10
  6
CONTINUOUS
100
AcDbLine
 10
-37.40006099999999
 20
135.7811670622458
 30
0.0
 11
37.39993899999999
 21
135.7811670622458
 31
0.0
  0
LINE
  5
790B
330
1E
100
AcDbEntity
  8
10
  6
CONTINUOUS
100
AcDbLine
 10
37.39993899999999
 20
141.4851970622458
 30
0.0
 11
-37.40006099999999
 21
141.4851970622458
 31
0.0
  0
LINE
  5
7916
330
1E
100
AcDbEntity
  8
10
  6
CONTINUOUS
100
AcDbLine
 10
-35.99991800000003
 20
115.9812660622458
 30
0.0
 11
35.99991699999998
 21
115.9812660622457
 31
0.0
  0
LINE
  5
7917
330
1E
100
AcDbEntity
  8
10
  6
CONTINUOUS
100
AcDbLine
 10
-10.99991800000003
 20
111.8811670622458
 30
0.0
 11
10.99991699999998
 21
111.8811670622458
 31
0.0
  0
LINE
  5
7918
330
1E
100
AcDbEntity
  8
10
  6
CONTINUOUS
100
AcDbLine
 10
21.10000800000003
 20
112.9811670622458
 30
0.0
 11
21.10000800000003
 21
113.4811670622458
 31
0.0
  0
LINE
  5
7919
330
1E
100
AcDbEntity
  8
10
  6
CONTINUOUS
100
AcDbLine
 10
27.30000800000002
 20
112.9811670622458
 30
0.0
 11
27.30000800000002
 21
113.4811670622458
 31
0.0
  0
LINE
  5
791A
330
1E
100
AcDbEntity
  8
10
  6
CONTINUOUS
100
AcDbLine
 10
-10.99991800000003
 20
111.8811670622458
 30
0.0
 11
-10.99991800000003
 21
115.9812660622457
 31
0.0
  0
LINE
  5
791B
330
1E
100
AcDbEntity
  8
10
  6
CONTINUOUS
100
AcDbLine
 10
26.30000800000002
 20
111.9811670622458
 30
0.0
 11
22.10000800000003
 21
111.9811670622458
 31
0.0
  0
ARC
  5
791C
330
1E
100
AcDbEntity
  8
10
  6
CONTINUOUS
100
AcDbCircle
 10
26.30000800000002
 20
112.9811670622458
 30
0.0
 40
1.0
100
AcDbArc
 50
270.0
 51
0.000000000000007
  0
ARC
  5
791D
330
1E
100
AcDbEntity
  8
10
  6
CONTINUOUS
100
AcDbCircle
 10
22.10000800000003
 20
112.9811670622458
 30
0.0
 40
1.0
100
AcDbArc
 50
180.0
 51
270.0
  0
LINE
  5
7920
330
1E
100
AcDbEntity
  8
10
  6
CONTINUOUS
100
AcDbLine
 10
-6.0
 20
101.9353530622458
 30
0.0
 11
6.0
 21
101.9353530622458
 31
0.0
  0
LINE
  5
7921
330
1E
100
AcDbEntity
  8
10
  6
CONTINUOUS
100
AcDbLine
 10
-6.0
 20
101.9353530622458
 30
0.0
 11
-6.0
 21
111.8811670622458
 31
0.0
  0
LINE
  5
7922
330
1E
100
AcDbEntity
  8
10
  6
CONTINUOUS
100
AcDbLine
 10
6.0
 20
101.9353530622458
 30
0.0
 11
6.0
 21
111.8811670622458
 31
0.0
  0
LINE
  5
7923
330
1E
100
AcDbEntity
  8
10
  6
CONTINUOUS
100
AcDbLine
 10
27.45000800000002
 20
113.4811970622457
 30
0.0
 11
20.95000800000002
 21
113.4811970622457
 31
0.0
  0
LINE
  5
7924
330
1E
100
AcDbEntity
  8
10
  6
CONTINUOUS
100
AcDbLine
 10
-35.99991800000003
 20
115.9812660622458
 30
0.0
 11
-35.99991800000003
 21
123.9811970622458
 31
0.0
  0
ARC
  5
7925
330
1E
100
AcDbEntity
  8
10
  6
CONTINUOUS
100
AcDbCircle
 10
27.45000800000002
 20
113.9812660622458
 30
0.0
 40
0.5
100
AcDbArc
 50
270.0
 51
0.000000000000007
  0
LINE
  5
7926
330
1E
100
AcDbEntity
  8
10
  6
CONTINUOUS
100
AcDbLine
 10
27.95000800000002
 20
115.9812660622457
 30
0.0
 11
27.95000800000002
 21
113.9812660622457
 31
0.0
  0
LINE
  5
7927
330
1E
100
AcDbEntity
  8
10
  6
CONTINUOUS
100
AcDbLine
 10
20.45000800000002
 20
115.9812660622457
 30
0.0
 11
20.45000800000002
 21
113.9812660622457
 31
0.0
  0
ARC
  5
7928
330
1E
100
AcDbEntity
  8
10
  6
CONTINUOUS
100
AcDbCircle
 10
20.95000800000002
 20
113.9812660622458
 30
0.0
 40
0.5
100
AcDbArc
 50
180.0
 51
270.0
  0
LINE
  5
7929
330
1E
100
AcDbEntity
  8
10
  6
CONTINUOUS
100
AcDbLine
 10
-6.0
 20
135.9644710622458
 30
0.0
 11
6.0
 21
135.9644710622458
 31
0.0
  0
LINE
  5
792A
330
1E
100
AcDbEntity
  8
10
  6
CONTINUOUS
100
AcDbLine
 10
-6.0
 20
141.4851970622458
 30
0.0
 11
-6.0
 21
135.9644710622458
 31
0.0
  0
LINE
  5
792B
330
1E
100
AcDbEntity
  8
10
  6
CONTINUOUS
100
AcDbLine
 10
6.0
 20
141.4851970622458
 30
0.0
 11
6.0
 21
135.9644710622458
 31
0.0
  0
LINE
  5
792C
330
1E
100
AcDbEntity
  8
10
  6
CONTINUOUS
100
AcDbLine
 10
10.99991699999998
 20
111.8811670622458
 30
0.0
 11
10.99991699999998
 21
115.9812660622457
 31
0.0
  0
LINE
  5
792D
330
1E
100
AcDbEntity
  8
10
  6
CONTINUOUS
100
AcDbLine
 10
-29.39973599999996
 20
113.9812660622457
 30
0.0
 11
-25.39973599999996
 21
113.9812660622457
 31
0.0
  0
LINE
  5
792E
330
1E
100
AcDbEntity
  8
10
  6
CONTINUOUS
100
AcDbLine
 10
-24.89973599999996
 20
114.4812660622458
 30
0.0
 11
-24.89973599999996
 21
115.9812660622457
 31
0.0
  0
ARC
  5
792F
330
1E
100
AcDbEntity
  8
10
  6
CONTINUOUS
100
AcDbCircle
 10
-25.39973599999996
 20
114.4812660622458
 30
0.0
 40
0.5
100
AcDbArc
 50
270.0
 51
0.000000000000007
  0
ARC
  5
7930
330
1E
100
AcDbEntity
  8
10
  6
CONTINUOUS
100
AcDbCircle
 10
-29.39973599999996
 20
114.4812660622458
 30
0.0
 40
0.5
100
AcDbArc
 50
180.0
 51
270.0
  0
LINE
  5
7931
330
1E
100
AcDbEntity
  8
10
  6
CONTINUOUS
100
AcDbLine
 10
-29.89973599999996
 20
114.4812660622458
 30
0.0
 11
-29.89973599999996
 21
115.9812660622457
 31
0.0
  0
LINE
  5
7932
330
1E
100
AcDbEntity
  8
10
  6
CONTINUOUS
100
AcDbLine
 10
35.99991699999998
 20
115.9812660622457
 30
0.0
 11
35.99991699999998
 21
123.9811970622457
 31
0.0
  0
LINE
  5
7933
330
1E
100
AcDbEntity
  8
10
  6
CONTINUOUS
100
AcDbLine
 10
37.39993899999999
 20
191.9811670622458
 30
0.0
 11
-37.40006099999999
 21
191.9811670622458
 31
0.0
  0
LINE
  5
7934
330
1E
100
AcDbEntity
  8
10
  6
CONTINUOUS
100
AcDbLine
 10
-37.40015300000004
 20
183.9811670622458
 30
0.0
 11
37.39984699999999
 21
183.9811670622458
 31
0.0
  0
LINE
  5
7935
330
1E
100
AcDbEntity
  8
10
  6
CONTINUOUS
100
AcDbLine
 10
37.39984699999999
 20
191.9811670622458
 30
0.0
 11
-37.40015300000004
 21
191.9811670622458
 31
0.0
  0
LINE
  5
7936
330
1E
100
AcDbEntity
  8
18
100
AcDbLine
 10
52.87379899999999
 20
195.1811670622458
 30
0.0
 11
-54.87323300000003
 21
195.1811670622458
 31
0.0
  0
LINE
  5
7937
330
1E
100
AcDbEntity
  8
18
100
AcDbLine
 10
55.17248999999998
 20
191.9811670622458
 30
0.0
 11
-57.17192400000005
 21
191.9811670622458
 31
0.0
  0
SPLINE
  5
7938
330
1E
100
AcDbEntity
  8
18
100
AcDbSpline
210
0.0
220
0.0
230
1.0
 70
     8
 71
     3
 72
    31
 73
    27
 74
    25
 42
0.0000000001
 43
0.0000000001
 44
0.000001
 12
-0.8547875152218017
 22
0.5189781342416441
 32
0.0
 13
-0.6912226459674815
 23
0.7226418571475872
 33
0.0
 40
0.0
 40
0.0
 40
0.0
 40
0.0
 40
0.6685357804837505
 40
1.336997794490246
 40
1.940537183246384
 40
2.543588146323907
 40
3.033594057506136
 40
3.52095978056732
 40
3.913542982672543
 40
4.301630603129112
 40
4.746146461090125
 40
5.197083276484029
 40
5.75485370851181
 40
6.313249360236725
 40
6.893562255662921
 40
7.473363271935577
 40
7.985782826761262
 40
8.494264018804415
 40
8.950773573252307
 40
9.409337819752391
 40
9.92539868261112
 40
10.44340077455481
 40
11.04400361922098
 40
11.6451188243599
 40
12.29663075973572
 40
12.94823383362297
 40
12.94823383362297
 40
12.94823383362297
 40
12.94823383362297
 10
-54.26058191792401
 20
189.3902847533088
 30
0.0
 10
-54.4510672641362
 20
189.5059365706519
 30
0.0
 10
-54.83219857915023
 20
189.7369394878567
 30
0.0
 10
-55.37916277802843
 20
190.082367390351
 30
0.0
 10
-55.89666629756499
 20
190.4331736275854
 30
0.0
 10
-56.34359023585554
 20
190.7808771318685
 30
0.0
 10
-56.72873708583516
 20
191.1412665110072
 30
0.0
 10
-57.01289178508272
 20
191.5039550244838
 30
0.0
 10
-57.17646858823475
 20
191.9000480157899
 30
0.0
 10
-57.19411072077909
 20
192.3202869227143
 30
0.0
 10
-57.01690456262141
 20
192.7214517218101
 30
0.0
 10
-56.72971573771178
 20
193.1116722373323
 30
0.0
 10
-56.37869135617957
 20
193.4997255316692
 30
0.0
 10
-55.97757498834166
 20
193.8982208245452
 30
0.0
 10
-55.5722276364283
 20
194.3029998361598
 30
0.0
 10
-55.19679606037043
 20
194.7159607105149
 30
0.0
 10
-54.87659036520876
 20
195.1437139396923
 30
0.0
 10
-54.65490086120712
 20
195.5909218982991
 30
0.0
 10
-54.59271728200716
 20
196.0692621779205
 30
0.0
 10
-54.66325844378447
 20
196.5460082438809
 30
0.0
 10
-54.85080815367857
 20
197.0106220791168
 30
0.0
 10
-55.12913360160235
 20
197.4802484513569
 30
0.0
 10
-55.46982603975539
 20
197.942232649589
 30
0.0
 10
-55.87047362260119
 20
198.4127464213415
 30
0.0
 10
-56.3001114443136
 20
198.880095709813
 30
0.0
 10
-56.60056622804805
 20
199.1938005097965
 30
0.0
 10
-56.75070049499902
 20
199.3507590616088
 30
0.0
 11
-54.26058191792401
 21
189.3902847533088
 31
0.0
 11
-54.83114992853183
 21
189.7386999431956
 31
0.0
 11
-55.39540158195532
 21
190.0971152869053
 31
0.0
 11
-55.89300720095343
 21
190.4386536644378
 31
0.0
 11
-56.36680721436627
 21
190.8117274410553
 31
0.0
 11
-56.72046885859163
 21
191.1508870841034
 31
0.0
 11
-57.01138478353612
 21
191.5419028363121
 31
0.0
 11
-57.1544248567273
 21
191.9074998183297
 31
0.0
 11
-57.16572025784441
 21
192.295423093229
 31
0.0
 11
-57.00464894376088
 21
192.709730261223
 31
0.0
 11
-56.74551274796297
 21
193.0787728956006
 31
0.0
 11
-56.37536367823256
 21
193.4960228383795
 31
0.0
 11
-55.98291393373372
 21
193.8932491801856
 31
0.0
 11
-55.57541604981989
 21
194.3064194628876
 31
0.0
 11
-55.18918863729104
 21
194.7388519469841
 31
0.0
 11
-54.88865839402265
 21
195.1538886231706
 31
0.0
 11
-54.67560168076932
 21
195.6155811959961
 31
0.0
 11
-54.61397975262745
 21
196.0679126861784
 31
0.0
 11
-54.67689861752828
 21
196.5221399904625
 31
0.0
 11
-54.86205331816293
 21
197.0038417734407
 31
0.0
 11
-55.12174792582882
 21
197.4520436465892
 31
0.0
 11
-55.4751505516096
 21
197.9376673720109
 31
0.0
 11
-55.862298815157
 21
198.3975105438224
 31
0.0
 11
-56.30170024258771
 21
198.8785450731455
 31
0.0
 11
-56.75070049499902
 21
199.3507590616088
 31
0.0
  0
LINE
  5
7939
330
1E
100
AcDbEntity
  8
21
100
AcDbLine
 10
26.501149
 20
218.9811530622458
 30
0.0
 11
26.501149
 21
244.9811530622457
 31
0.0
  0
LINE
  5
793A
330
1E
100
AcDbEntity
  8
21
100
AcDbLine
 10
23.50114899999999
 20
218.9811530622458
 30
0.0
 11
23.50114899999999
 21
244.9811530622457
 31
0.0
  0
LINE
  5
793B
330
1E
100
AcDbEntity
  8
21
100
AcDbLine
 10
-23.50114900000002
 20
218.9811530622458
 30
0.0
 11
-23.50114900000002
 21
244.9811530622457
 31
0.0
  0
LINE
  5
793C
330
1E
100
AcDbEntity
  8
21
100
AcDbLine
 10
-26.50114900000002
 20
218.9811530622458
 30
0.0
 11
-26.50114900000002
 21
244.9811530622457
 31
0.0
  0
LINE
  5
793D
330
1E
100
AcDbEntity
  8
21
100
AcDbLine
 10
-18.0
 20
218.9811670622458
 30
0.0
 11
-18.0
 21
244.4811530622458
 31
0.0
  0
LINE
  5
793E
330
1E
100
AcDbEntity
  8
21
100
AcDbLine
 10
-32.0
 20
218.9811670622458
 30
0.0
 11
-32.0
 21
244.4811530622458
 31
0.0
  0
LINE
  5
793F
330
1E
100
AcDbEntity
  8
21
100
AcDbLine
 10
18.0
 20
218.9811670622458
 30
0.0
 11
18.0
 21
244.4811530622458
 31
0.0
  0
LINE
  5
7940
330
1E
100
AcDbEntity
  8
21
100
AcDbLine
 10
32.0
 20
218.9811670622458
 30
0.0
 11
32.0
 21
244.4811530622458
 31
0.0
  0
LINE
  5
7941
330
1E
100
AcDbEntity
  8
21
100
AcDbLine
 10
9.859388999999964
 20
213.9811770622458
 30
0.0
 11
9.859388999999964
 21
219.9907140622458
 31
0.0
  0
LINE
  5
7942
330
1E
100
AcDbEntity
  8
21
100
AcDbLine
 10
-9.859390000000018
 20
213.9811770622458
 30
0.0
 11
-9.859390000000018
 21
219.9907140622458
 31
0.0
  0
LINE
  5
7943
330
1E
100
AcDbEntity
  8
0
100
AcDbLine
 10
-25.0
 20
253.3167070622457
 30
0.0
 11
-25.0
 21
177.3678560622458
 31
0.0
  0
LINE
  5
7944
330
1E
100
AcDbEntity
  8
0
100
AcDbLine
 10
25.0
 20
253.4854050622458
 30
0.0
 11
25.0
 21
177.0609770622458
 31
0.0
  0
LINE
  5
7945
330
1E
100
AcDbEntity
  8
21
100
AcDbLine
 10
10.0
 20
206.9811670622458
 30
0.0
 11
-10.0
 21
206.9811670622458
 31
0.0
  0
LINE
  5
7946
330
1E
100
AcDbEntity
  8
21
100
AcDbLine
 10
-9.859390000000018
 20
213.9811770622458
 30
0.0
 11
9.859388999999964
 21
213.9811770622458
 31
0.0
  0
LINE
  5
7947
330
1E
100
AcDbEntity
  8
21
100
AcDbLine
 10
-35.0
 20
206.9811670622458
 30
0.0
 11
-35.0
 21
191.9811670622458
 31
0.0
  0
LINE
  5
7948
330
1E
100
AcDbEntity
  8
21
100
AcDbLine
 10
-15.0
 20
206.9811670622458
 30
0.0
 11
-15.0
 21
191.9811670622458
 31
0.0
  0
LINE
  5
7949
330
1E
100
AcDbEntity
  8
21
100
AcDbLine
 10
-16.640611
 20
218.9811670622458
 30
0.0
 11
-33.35938999999999
 21
218.9811670622458
 31
0.0
  0
LINE
  5
794A
330
1E
100
AcDbEntity
  8
21
100
AcDbLine
 10
-15.0
 20
206.9811670622458
 30
0.0
 11
-35.0
 21
206.9811670622458
 31
0.0
  0
LINE
  5
794B
330
1E
100
AcDbEntity
  8
21
100
AcDbLine
 10
-33.80000000000001
 20
206.9811670622458
 30
0.0
 11
-33.80000000000001
 21
213.4811900622458
 31
0.0
  0
LINE
  5
794C
330
1E
100
AcDbEntity
  8
21
100
AcDbLine
 10
-33.35938999999999
 20
213.4811900622458
 30
0.0
 11
-33.80000000000001
 21
213.4811900622458
 31
0.0
  0
LINE
  5
794D
330
1E
100
AcDbEntity
  8
21
100
AcDbLine
 10
-33.35938999999999
 20
218.9811670622458
 30
0.0
 11
-33.35938999999999
 21
213.4811900622458
 31
0.0
  0
LINE
  5
794E
330
1E
100
AcDbEntity
  8
21
100
AcDbLine
 10
-16.20000000000001
 20
206.9811670622458
 30
0.0
 11
-16.20000000000001
 21
213.4811900622458
 31
0.0
  0
LINE
  5
794F
330
1E
100
AcDbEntity
  8
21
100
AcDbLine
 10
-16.640611
 20
213.4811900622458
 30
0.0
 11
-16.20000000000001
 21
213.4811900622458
 31
0.0
  0
LINE
  5
7950
330
1E
100
AcDbEntity
  8
21
100
AcDbLine
 10
-16.640611
 20
218.9811670622458
 30
0.0
 11
-16.640611
 21
213.4811900622458
 31
0.0
  0
LINE
  5
7951
330
1E
100
AcDbEntity
  8
21
100
AcDbLine
 10
-10.0
 20
206.9811670622458
 30
0.0
 11
-10.0
 21
191.9811670622458
 31
0.0
  0
LINE
  5
7952
330
1E
100
AcDbEntity
  8
21
100
AcDbLine
 10
-8.800000000000011
 20
206.9811670622458
 30
0.0
 11
-8.800000000000011
 21
213.4811900622458
 31
0.0
  0
LINE
  5
7953
330
1E
100
AcDbEntity
  8
21
100
AcDbLine
 10
-8.359390000000018
 20
213.4811900622458
 30
0.0
 11
-8.800000000000011
 21
213.4811900622458
 31
0.0
  0
LINE
  5
7954
330
1E
100
AcDbEntity
  8
21
100
AcDbLine
 10
-8.359390000000018
 20
213.9811770622458
 30
0.0
 11
-8.359390000000018
 21
213.4811900622458
 31
0.0
  0
LINE
  5
7955
330
1E
100
AcDbEntity
  8
21
100
AcDbLine
 10
8.799999999999982
 20
206.9811670622458
 30
0.0
 11
8.799999999999982
 21
213.4811900622458
 31
0.0
  0
LINE
  5
7956
330
1E
100
AcDbEntity
  8
21
100
AcDbLine
 10
8.359388999999964
 20
213.4811900622458
 30
0.0
 11
8.799999999999982
 21
213.4811900622458
 31
0.0
  0
LINE
  5
7957
330
1E
100
AcDbEntity
  8
21
100
AcDbLine
 10
8.359388999999964
 20
213.9811770622458
 30
0.0
 11
8.359388999999964
 21
213.4811900622458
 31
0.0
  0
LINE
  5
7958
330
1E
100
AcDbEntity
  8
21
100
AcDbLine
 10
16.64060999999998
 20
218.9811670622458
 30
0.0
 11
33.35938899999996
 21
218.9811670622458
 31
0.0
  0
LINE
  5
7959
330
1E
100
AcDbEntity
  8
21
100
AcDbLine
 10
35.0
 20
206.9811670622458
 30
0.0
 11
15.0
 21
206.9811670622458
 31
0.0
  0
LINE
  5
795A
330
1E
100
AcDbEntity
  8
21
100
AcDbLine
 10
10.0
 20
206.9811670622458
 30
0.0
 11
10.0
 21
191.9811670622458
 31
0.0
  0
LINE
  5
795B
330
1E
100
AcDbEntity
  8
21
100
AcDbLine
 10
15.0
 20
206.9811670622458
 30
0.0
 11
15.0
 21
191.9811670622458
 31
0.0
  0
LINE
  5
795C
330
1E
100
AcDbEntity
  8
21
100
AcDbLine
 10
16.19999999999999
 20
206.9811670622458
 30
0.0
 11
16.19999999999999
 21
213.4811900622458
 31
0.0
  0
LINE
  5
795D
330
1E
100
AcDbEntity
  8
21
100
AcDbLine
 10
16.64060999999998
 20
218.9811670622458
 30
0.0
 11
16.64060999999998
 21
213.4811900622458
 31
0.0
  0
LINE
  5
795E
330
1E
100
AcDbEntity
  8
21
100
AcDbLine
 10
16.64060999999998
 20
213.4811900622458
 30
0.0
 11
16.19999999999999
 21
213.4811900622458
 31
0.0
  0
LINE
  5
795F
330
1E
100
AcDbEntity
  8
21
100
AcDbLine
 10
35.0
 20
206.9811670622458
 30
0.0
 11
35.0
 21
191.9811670622458
 31
0.0
  0
SPLINE
  5
7960
330
1E
100
AcDbEntity
  8
18
100
AcDbSpline
210
0.0
220
0.0
230
1.0
 70
     8
 71
     3
 72
    31
 73
    27
 74
    25
 42
0.0000000001
 43
0.0000000001
 44
0.000001
 12
0.8547875152217935
 22
0.5189781342416579
 32
0.0
 13
0.6912226459674815
 23
0.7226418571475872
 33
0.0
 40
0.0
 40
0.0
 40
0.0
 40
0.0
 40
0.6685357804837505
 40
1.33699779449027
 40
1.940537183246361
 40
2.543588146323906
 40
3.033594057506217
 40
3.520959780567401
 40
3.913542982672624
 40
4.301630603129195
 40
4.746146461090157
 40
5.197083276484045
 40
5.754853708511826
 40
6.313249360236681
 40
6.893562255662836
 40
7.473363271935435
 40
7.98578282676115
 40
8.494264018804241
 40
8.950773573252146
 40
9.409337819752222
 40
9.925398682610911
 40
10.44340077455456
 40
11.04400361922063
 40
11.64511882435949
 40
12.29663075973537
 40
12.9482338336225
 40
12.9482338336225
 40
12.9482338336225
 40
12.9482338336225
 10
52.26114854457896
 20
189.3902847533088
 30
0.0
 10
52.45163389079115
 20
189.5059365706519
 30
0.0
 10
52.83276520580518
 20
189.7369394878567
 30
0.0
 10
53.3797294046834
 20
190.0823673903509
 30
0.0
 10
53.89723292421993
 20
190.4331736275854
 30
0.0
 10
54.34415686251047
 20
190.7808771318685
 30
0.0
 10
54.72930371249021
 20
191.1412665110072
 30
0.0
 10
55.01345841173779
 20
191.5039550244838
 30
0.0
 10
55.17703521488979
 20
191.9000480157899
 30
0.0
 10
55.19467734743424
 20
192.3202869227142
 30
0.0
 10
55.01747118927669
 20
192.7214517218101
 30
0.0
 10
54.73028236436709
 20
193.1116722373323
 30
0.0
 10
54.3792579828349
 20
193.4997255316692
 30
0.0
 10
53.97814161499704
 20
193.8982208245452
 30
0.0
 10
53.57279426308378
 20
194.3029998361598
 30
0.0
 10
53.19736268702595
 20
194.715960710515
 30
0.0
 10
52.87715699186437
 20
195.1437139396923
 30
0.0
 10
52.65546748786273
 20
195.5909218982992
 30
0.0
 10
52.59328390866266
 20
196.0692621779204
 30
0.0
 10
52.66382507043994
 20
196.5460082438809
 30
0.0
 10
52.85137478033389
 20
197.0106220791167
 30
0.0
 10
53.12970022825763
 20
197.4802484513569
 30
0.0
 10
53.47039266641047
 20
197.942232649589
 30
0.0
 10
53.87104024925618
 20
198.4127464213415
 30
0.0
 10
54.30067807096871
 20
198.880095709813
 30
0.0
 10
54.60113285470303
 20
199.1938005097965
 30
0.0
 10
54.75126712165397
 20
199.3507590616088
 30
0.0
 11
52.26114854457896
 21
189.3902847533088
 31
0.0
 11
52.83171655518677
 21
189.7386999431956
 31
0.0
 11
53.3959682086103
 21
190.0971152869053
 31
0.0
 11
53.89357382760834
 21
190.4386536644378
 31
0.0
 11
54.36737384102122
 21
190.8117274410553
 31
0.0
 11
54.72103548524668
 21
191.1508870841034
 31
0.0
 11
55.01195141019119
 21
191.5419028363121
 31
0.0
 11
55.15499148338236
 21
191.9074998183297
 31
0.0
 11
55.16628688449955
 21
192.295423093229
 31
0.0
 11
55.00521557041617
 21
192.709730261223
 31
0.0
 11
54.74607937461829
 21
193.0787728956006
 31
0.0
 11
54.37593030488788
 21
193.4960228383795
 31
0.0
 11
53.98348056038912
 21
193.8932491801856
 31
0.0
 11
53.57598267647535
 21
194.3064194628876
 31
0.0
 11
53.18975526394658
 21
194.7388519469841
 31
0.0
 11
52.88922502067823
 21
195.1538886231707
 31
0.0
 11
52.67616830742491
 21
195.6155811959961
 31
0.0
 11
52.61454637928295
 21
196.0679126861784
 31
0.0
 11
52.67746524418374
 21
196.5221399904625
 31
0.0
 11
52.86261994481828
 21
197.0038417734407
 31
0.0
 11
53.12231455248408
 21
197.4520436465892
 31
0.0
 11
53.47571717826468
 21
197.9376673720109
 31
0.0
 11
53.862865441812
 21
198.3975105438224
 31
0.0
 11
54.3022668692428
 21
198.8785450731455
 31
0.0
 11
54.75126712165397
 21
199.3507590616088
 31
0.0
  0
LINE
  5
7961
330
1E
100
AcDbEntity
  8
21
100
AcDbLine
 10
33.79999999999998
 20
206.9811670622458
 30
0.0
 11
33.79999999999998
 21
213.4811900622458
 31
0.0
  0
LINE
  5
7962
330
1E
100
AcDbEntity
  8
21
100
AcDbLine
 10
33.35938899999996
 20
218.9811670622458
 30
0.0
 11
33.35938899999996
 21
213.4811900622458
 31
0.0
  0
LINE
  5
7963
330
1E
100
AcDbEntity
  8
21
100
AcDbLine
 10
33.35938899999996
 20
213.4811900622458
 30
0.0
 11
33.79999999999998
 21
213.4811900622458
 31
0.0
  0
LINE
  5
7964
330
1E
100
AcDbEntity
  8
21
100
AcDbLine
 10
9.859388999999964
 20
219.9907140622458
 30
0.0
 11
8.5
 21
224.0955600622458
 31
0.0
  0
LINE
  5
7965
330
1E
100
AcDbEntity
  8
21
100
AcDbLine
 10
9.609502999999989
 20
219.9907140622458
 30
0.0
 11
3.249700999999987
 21
223.6625480622458
 31
0.0
  0
LINE
  5
7966
330
1E
100
AcDbEntity
  8
21
100
AcDbLine
 10
-11.42829100000003
 20
286.9811530622458
 30
0.0
 11
10.26610099999999
 21
286.9811530622458
 31
0.0
  0
LINE
  5
7967
330
1E
100
AcDbEntity
  8
21
100
AcDbLine
 10
2.999700999999987
 20
224.0955600622458
 30
0.0
 11
2.999700999999987
 21
264.9811530622457
 31
0.0
  0
LINE
  5
7968
330
1E
100
AcDbEntity
  8
21
100
AcDbLine
 10
-3.000299000000012
 20
224.0955600622458
 30
0.0
 11
-3.000299000000012
 21
264.9811530622457
 31
0.0
  0
LINE
  5
7969
330
1E
100
AcDbEntity
  8
21
100
AcDbLine
 10
8.5
 20
264.9811530622457
 30
0.0
 11
8.5
 21
224.0955600622458
 31
0.0
  0
LINE
  5
796A
330
1E
100
AcDbEntity
  8
21
100
AcDbLine
 10
-8.5
 20
264.9811530622457
 30
0.0
 11
-8.5
 21
224.0955600622458
 31
0.0
  0
ARC
  5
796B
330
1E
100
AcDbEntity
  8
24
  6
CONTINOUS
100
AcDbCircle
 10
-25.0
 20
236.9811530622458
 30
0.0
 40
3.25
100
AcDbArc
 50
117.5092680000007
 51
242.4907319999991
  0
ARC
  5
796C
330
1E
100
AcDbEntity
  8
24
  6
CONTINOUS
100
AcDbCircle
 10
-25.0
 20
236.9811530622458
 30
0.0
 40
3.25
100
AcDbArc
 50
297.4635890000005
 51
62.53641099999955
  0
ARC
  5
796D
330
1E
100
AcDbEntity
  8
24
  6
CONTINOUS
100
AcDbCircle
 10
-25.0
 20
236.9811530622458
 30
0.0
 40
3.25
100
AcDbArc
 50
242.4907319999991
 51
297.4635890000005
  0
LINE
  5
796E
330
1E
100
AcDbEntity
  8
21
100
AcDbLine
 10
-36.42829100000003
 20
236.9811530622457
 30
0.0
 11
-14.73389900000003
 21
236.9811530622457
 31
0.0
  0
ARC
  5
796F
330
1E
100
AcDbEntity
  8
24
  6
CONTINOUS
100
AcDbCircle
 10
-25.0
 20
236.9811530622458
 30
0.0
 40
3.25
100
AcDbArc
 50
62.53641099999955
 51
117.5092680000007
  0
LINE
  5
7970
330
1E
100
AcDbEntity
  8
21
100
AcDbLine
 10
-26.50114900000002
 20
244.9811530622457
 30
0.0
 11
-23.50114900000002
 21
244.9811530622457
 31
0.0
  0
LINE
  5
7971
330
1E
100
AcDbEntity
  8
21
100
AcDbLine
 10
-18.5
 20
244.9811530622457
 30
0.0
 11
-31.5
 21
244.9811530622457
 31
0.0
  0
ARC
  5
7972
330
1E
100
AcDbEntity
  8
21
100
AcDbCircle
 10
-31.5
 20
244.4811530622458
 30
0.0
 40
0.5
100
AcDbArc
 50
90.0
 51
180.0
  0
ARC
  5
7973
330
1E
100
AcDbEntity
  8
21
100
AcDbCircle
 10
-18.5
 20
244.4811530622458
 30
0.0
 40
0.5
100
AcDbArc
 50
0.0
 51
90.0
  0
LINE
  5
7974
330
1E
100
AcDbEntity
  8
21
100
AcDbLine
 10
-9.610100000000016
 20
219.9907140622458
 30
0.0
 11
-3.250299000000012
 21
223.6625480622458
 31
0.0
  0
ARC
  5
7975
330
1E
100
AcDbEntity
  8
21
100
AcDbCircle
 10
-9.360100000000016
 20
219.5577020622458
 30
0.0
 40
0.5
100
AcDbArc
 50
119.9999999999999
 51
180.0
  0
LINE
  5
7976
330
1E
100
AcDbEntity
  8
21
100
AcDbLine
 10
-9.859390000000018
 20
219.9907140622458
 30
0.0
 11
-8.5
 21
224.0955600622458
 31
0.0
  0
ARC
  5
7977
330
1E
100
AcDbEntity
  8
21
100
AcDbCircle
 10
-3.500299000000012
 20
224.0955600622458
 30
0.0
 40
0.5
100
AcDbArc
 50
299.9999999999995
 51
0.0
  0
ARC
  5
7978
330
1E
100
AcDbEntity
  8
21
100
AcDbCircle
 10
3.499700999999987
 20
224.0955600622458
 30
0.0
 40
0.5
100
AcDbArc
 50
180.0
 51
240.0
  0
LINE
  5
7979
330
1E
100
AcDbEntity
  8
21
100
AcDbLine
 10
-8.5
 20
264.9811530622457
 30
0.0
 11
8.5
 21
264.9811530622457
 31
0.0
  0
ARC
  5
797A
330
1E
100
AcDbEntity
  8
24
  6
CONTINOUS
100
AcDbCircle
 10
0.0
 20
286.9811530622458
 30
0.0
 40
3.25
100
AcDbArc
 50
117.5092680000007
 51
242.4907319999991
  0
ARC
  5
797B
330
1E
100
AcDbEntity
  8
24
  6
CONTINOUS
100
AcDbCircle
 10
0.0
 20
286.9811530622458
 30
0.0
 40
3.25
100
AcDbArc
 50
242.4907319999991
 51
297.4635890000005
  0
ARC
  5
797C
330
1E
100
AcDbEntity
  8
24
  6
CONTINOUS
100
AcDbCircle
 10
0.0
 20
286.9811530622458
 30
0.0
 40
3.25
100
AcDbArc
 50
297.4635890000005
 51
62.53641099999955
  0
LINE
  5
797D
330
1E
100
AcDbEntity
  8
21
100
AcDbLine
 10
13.57170899999997
 20
236.9811530622457
 30
0.0
 11
35.26610099999999
 21
236.9811530622457
 31
0.0
  0
ARC
  5
797E
330
1E
100
AcDbEntity
  8
24
  6
CONTINOUS
100
AcDbCircle
 10
25.0
 20
236.9811530622458
 30
0.0
 40
3.25
100
AcDbArc
 50
117.4635890000004
 51
242.5364109999995
  0
ARC
  5
797F
330
1E
100
AcDbEntity
  8
24
  6
CONTINOUS
100
AcDbCircle
 10
25.0
 20
236.9811530622458
 30
0.0
 40
3.25
100
AcDbArc
 50
297.5092680000008
 51
62.49073199999923
  0
ARC
  5
7980
330
1E
100
AcDbEntity
  8
21
100
AcDbCircle
 10
9.359502999999989
 20
219.5577020622458
 30
0.0
 40
0.5
100
AcDbArc
 50
0.0
 51
60.00000000000047
  0
ARC
  5
7981
330
1E
100
AcDbEntity
  8
24
  6
CONTINOUS
100
AcDbCircle
 10
25.0
 20
236.9811530622458
 30
0.0
 40
3.25
100
AcDbArc
 50
242.5364109999995
 51
297.5092680000008
  0
LINE
  5
7982
330
1E
100
AcDbEntity
  8
21
100
AcDbLine
 10
18.5
 20
244.9811530622457
 30
0.0
 11
31.5
 21
244.9811530622457
 31
0.0
  0
ARC
  5
7983
330
1E
100
AcDbEntity
  8
21
100
AcDbCircle
 10
18.5
 20
244.4811530622458
 30
0.0
 40
0.5
100
AcDbArc
 50
90.0
 51
180.0
  0
ARC
  5
7984
330
1E
100
AcDbEntity
  8
24
  6
CONTINOUS
100
AcDbCircle
 10
25.0
 20
236.9811530622458
 30
0.0
 40
3.25
100
AcDbArc
 50
62.49073199999923
 51
117.4635890000004
  0
LINE
  5
7985
330
1E
100
AcDbEntity
  8
21
100
AcDbLine
 10
26.501149
 20
244.9811530622457
 30
0.0
 11
23.50114899999999
 21
244.9811530622457
 31
0.0
  0
ARC
  5
7986
330
1E
100
AcDbEntity
  8
21
100
AcDbCircle
 10
31.5
 20
244.4811530622458
 30
0.0
 40
0.5
100
AcDbArc
 50
0.0
 51
90.0
  0
LINE
  5
7987
330
1E
100
AcDbEntity
  8
21
100
AcDbLine
 10
-6.5
 20
294.9811530622458
 30
0.0
 11
6.5
 21
294.9811530622458
 31
0.0
  0
ARC
  5
7988
330
1E
100
AcDbEntity
  8
21
100
AcDbCircle
 10
-6.5
 20
294.4811530622459
 30
0.0
 40
0.5
100
AcDbArc
 50
90.0
 51
180.0
  0
LINE
  5
7989
330
1E
100
AcDbEntity
  8
21
100
AcDbLine
 10
-1.501149000000026
 20
294.9811530622458
 30
0.0
 11
1.498850999999973
 21
294.9811530622458
 31
0.0
  0
ARC
  5
798A
330
1E
100
AcDbEntity
  8
21
100
AcDbCircle
 10
6.5
 20
294.4811530622459
 30
0.0
 40
0.5
100
AcDbArc
 50
0.0
 51
90.0
  0
LINE
  5
79A8
330
1E
100
AcDbEntity
  8
18
  6
DIVIDE
 48
2.0
100
AcDbLine
 10
37.50006800000005
 20
-332.999982
 30
0.0
 11
37.50006800000005
 21
-167.000017
 31
0.0
  0
LINE
  5
79A9
330
1E
100
AcDbEntity
  8
18
  6
DIVIDE
 48
2.0
100
AcDbLine
 10
-37.50006699999994
 20
-332.999982
 30
0.0
 11
-37.50006699999994
 21
-167.000017
 31
0.0
  0
CIRCLE
  5
79AA
330
1E
100
AcDbEntity
  8
22
  6
CONTINUOUS
100
AcDbCircle
 10
25.0
 20
-319.999887
 30
0.0
 40
11.0
  0
LINE
  5
79AB
330
1E
100
AcDbEntity
  8
22
  6
DASHDOT
100
AcDbLine
 10
-43.46909599999992
 20
-319.999887
 30
0.0
 11
41.59254299999997
 21
-319.999887
 31
0.0
  0
LINE
  5
79AC
330
1E
100
AcDbEntity
  8
18
  6
DIVIDE
 48
2.0
100
AcDbLine
 10
-37.50006699999994
 20
-332.999982
 30
0.0
 11
37.50006800000005
 21
-332.999982
 31
0.0
  0
CIRCLE
  5
79AD
330
1E
100
AcDbEntity
  8
22
  6
CONTINUOUS
100
AcDbCircle
 10
-25.0
 20
-319.999887
 30
0.0
 40
11.0
  0
LINE
  5
79AE
330
1E
100
AcDbEntity
  8
22
  6
DASHDOT
100
AcDbLine
 10
-25.0
 20
-307.660321
 30
0.0
 11
-25.0
 21
-337.918739
 31
0.0
  0
LINE
  5
79AF
330
1E
100
AcDbEntity
  8
22
  6
DASHDOT
100
AcDbLine
 10
25.0
 20
-307.660321
 30
0.0
 11
25.0
 21
-337.918739
 31
0.0
  0
CIRCLE
  5
79B0
330
1E
100
AcDbEntity
  8
22
  6
CONTINUOUS
100
AcDbCircle
 10
0.0
 20
-319.999887
 30
0.0
 40
11.0
  0
LINE
  5
79B1
330
1E
100
AcDbEntity
  8
12
  6
DASHDOT
100
AcDbLine
 10
17.171874
 20
-306.999664
 30
0.0
 11
7.278383000000076
 21
-306.999664
 31
0.0
  0
CIRCLE
  5
79B2
330
1E
100
AcDbEntity
  8
12
  6
DASHDOT
100
AcDbCircle
 10
12.22512900000003
 20
-306.999664
 30
0.0
 40
2.45
  0
LINE
  5
79B3
330
1E
100
AcDbEntity
  8
12
  6
DASHDOT
100
AcDbLine
 10
12.50027099999999
 20
-311.9526640000001
 30
0.0
 11
12.50027099999999
 21
-302.1313880000001
 31
0.0
  0
CIRCLE
  5
79B4
330
1E
100
AcDbEntity
  8
22
  6
CONTINUOUS
100
AcDbCircle
 10
25.0
 20
-180.0001130000001
 30
0.0
 40
11.0
  0
LINE
  5
79B5
330
1E
100
AcDbEntity
  8
22
  6
DASHDOT
100
AcDbLine
 10
-43.46909599999992
 20
-180.0001130000001
 30
0.0
 11
41.59254299999997
 21
-180.0001130000001
 31
0.0
  0
LINE
  5
79B6
330
1E
100
AcDbEntity
  8
18
  6
DIVIDE
 48
2.0
100
AcDbLine
 10
-37.50006699999994
 20
-167.000017
 30
0.0
 11
37.50006800000005
 21
-167.000017
 31
0.0
  0
LINE
  5
79B7
330
1E
100
AcDbEntity
  8
12
  6
DASHDOT
100
AcDbLine
 10
-7.828283999999939
 20
-193.000335
 30
0.0
 11
-17.72177399999998
 21
-193.000335
 31
0.0
  0
CIRCLE
  5
79B8
330
1E
100
AcDbEntity
  8
12
  6
DASHDOT
100
AcDbCircle
 10
-12.49988699999994
 20
-193.000335
 30
0.0
 40
2.45
  0
CIRCLE
  5
79B9
330
1E
100
AcDbEntity
  8
22
  6
CONTINUOUS
100
AcDbCircle
 10
-25.0
 20
-180.0001130000001
 30
0.0
 40
11.0
  0
LINE
  5
79BA
330
1E
100
AcDbEntity
  8
22
  6
DASHDOT
100
AcDbLine
 10
-25.0
 20
-162.0602999999999
 30
0.0
 11
-25.0
 21
-192.0123340000001
 31
0.0
  0
CIRCLE
  5
79BB
330
1E
100
AcDbEntity
  8
22
  6
CONTINUOUS
100
AcDbCircle
 10
0.0
 20
-180.0001130000001
 30
0.0
 40
11.0
  0
LINE
  5
79BC
330
1E
100
AcDbEntity
  8
22
  6
DASHDOT
100
AcDbLine
 10
25.0
 20
-162.0602999999999
 30
0.0
 11
25.0
 21
-192.0123340000001
 31
0.0
  0
LINE
  5
79BD
330
1E
100
AcDbEntity
  8
12
  6
DASHDOT
100
AcDbLine
 10
-12.49988699999994
 20
-197.9533340000001
 30
0.0
 11
-12.49988699999994
 21
-188.1320590000001
 31
0.0
  0
DIMENSION
  5
79C7
330
1E
100
AcDbEntity
  8
30
  6
CONTINUOUS
100
AcDbDimension
  2
*D6
 10
279.4098376938626
 20
-122.445965
 30
0.0
 11
256.9098446938627
 21
-119.445965
 31
0.0
 70
    32
  1
45
 51
0.000000000000007
  3
STANDARD
100
AcDbAlignedDimension
 13
234.4098516938627
 23
-116.009508
 33
0.0
 14
279.4098376938626
 24
-94.26587500000001
 34
0.0
 50
180.0
100
AcDbRotatedDimension
1001
ACAD
1000
DSTYLE
1002
{
1070
   287
1070
     4
1070
   287
1070
     4
1070
   287
1070
     4
1070
   287
1070
     4
1070
   279
1070
     1
1002
}
  0
DIMENSION
  5
79C8
330
1E
100
AcDbEntity
  8
30
  6
CONTINUOUS
100
AcDbDimension
  2
*D2
 10
329.4098376938626
 20
-138.4136948112074
 30
0.0
 11
281.9098446938627
 21
-135.4136948112074
 31
0.0
 70
    32
  1
95
 51
0.000000000000007
  3
STANDARD
100
AcDbAlignedDimension
 13
234.4098516938627
 23
-116.009506
 33
0.0
 14
329.4098376938626
 24
-94.88342753322999
 34
0.0
 50
180.0
100
AcDbRotatedDimension
1001
ACAD
1000
DSTYLE
1002
{
1070
   287
1070
     4
1070
   287
1070
     4
1070
   287
1070
     4
1070
   287
1070
     4
1070
   279
1070
     1
1002
}
  0
DIMENSION
  5
79C9
330
1E
100
AcDbEntity
  8
30
  6
CONTINUOUS
100
AcDbDimension
  2
*D1
 10
337.4098376938627
 20
-138.4136948112074
 30
0.0
 11
333.4098376938626
 21
-135.4136948112074
 31
0.0
 70
    32
  1
8
 51
0.000000000000007
  3
STANDARD
100
AcDbAlignedDimension
 13
329.4098376938626
 23
-94.88342753322999
 33
0.0
 14
337.4098376938627
 24
-89.95513553322998
 34
0.0
 50
180.0
100
AcDbRotatedDimension
1001
ACAD
1000
DSTYLE
1002
{
1070
   287
1070
     4
1070
   287
1070
     4
1070
   287
1070
     4
1070
   287
1070
     4
1070
   279
1070
     1
1002
}
  0
DIMENSION
  5
79CA
330
1E
100
AcDbEntity
  8
30
  6
CONTINUOUS
100
AcDbDimension
  2
*D3
 10
287.4098376938627
 20
-122.445965
 30
0.0
 11
283.4098376938626
 21
-119.445965
 31
0.0
 70
    32
  1
8
 51
0.000000000000007
  3
STANDARD
100
AcDbAlignedDimension
 13
279.4098376938626
 23
-94.26587500000001
 33
0.0
 14
287.4098376938627
 24
-90.33758600000002
 34
0.0
 50
180.0
100
AcDbRotatedDimension
1001
ACAD
1000
DSTYLE
1002
{
1070
   287
1070
     4
1070
   287
1070
     4
1070
   287
1070
     4
1070
   287
1070
     4
1070
   279
1070
     1
1002
}
  0
DIMENSION
  5
79CB
330
1E
100
AcDbEntity
  8
30
  6
CONTINUOUS
100
AcDbDimension
  2
*D4
 10
24.99969399999998
 20
321.5729320289361
 30
0.0
 11
12.49969399999997
 21
324.5729320289362
 31
0.0
 70
    32
  1
25
 51
0.000000000000007
  3
STANDARD
100
AcDbAlignedDimension
 13
-0.0003060000000232
 23
305.0902740622458
 33
0.0
 14
24.99969399999997
 24
254.3167070622457
 34
0.0
100
AcDbRotatedDimension
1001
ACAD
1000
DSTYLE
1002
{
1070
   287
1070
     4
1070
   287
1070
     4
1070
   287
1070
     4
1070
   287
1070
     4
1070
   279
1070
     1
1002
}
  0
DIMENSION
  5
79CC
330
1E
100
AcDbEntity
  8
30
  6
CONTINUOUS
100
AcDbDimension
  2
*D5
 10
-0.0003060000000222
 20
321.5729320289361
 30
0.0
 11
-12.50030599999999
 21
324.5729320289362
 31
0.0
 70
    32
  1
25
 51
0.000000000000007
  3
STANDARD
100
AcDbAlignedDimension
 13
-25.00030599999996
 23
254.4854080622454
 33
0.0
 14
-0.0003060000000232
 24
305.0902740622458
 34
0.0
100
AcDbRotatedDimension
1001
ACAD
1000
DSTYLE
1002
{
1070
   287
1070
     4
1070
   287
1070
     4
1070
   287
1070
     4
1070
   287
1070
     4
1070
   279
1070
     1
1002
}
  0
DIMENSION
  5
79CD
330
1E
100
AcDbEntity
  8
30
  6
CONTINUOUS
100
AcDbDimension
  2
*D7
 10
6.999694000000034
 20
300.4110248765916
 30
0.0
 11
-0.0003059999999937
 21
303.4110248765916
 31
0.0
 70
    32
  3
STANDARD
100
AcDbAlignedDimension
 13
-7.000306000000023
 23
286.9811530622458
 33
0.0
 14
6.999694000000033
 24
286.9811530622458
 34
0.0
100
AcDbRotatedDimension
  0
LINE
  5
79CE
330
1E
100
AcDbEntity
  8
30
  6
CONTINUOUS
100
AcDbLine
 10
-5.847932158115611
 20
291.1032358480173
 30
0.0
 11
-37.77052820475194
 21
307.2251207620773
 31
0.0
1001
ACAD
1000
R13OBJECT
1002
{
1005
6F0D
1002
}
  0
LINE
  5
79CF
330
1E
100
AcDbEntity
  8
30
  6
CONTINUOUS
100
AcDbLine
 10
-37.77052820475194
 20
307.2251207620773
 30
0.0
 11
-67.88099746562477
 21
307.1913418058234
 31
0.0
  0
TEXT
  5
79D0
330
1E
100
AcDbEntity
  8
30
  6
CONTINUOUS
100
AcDbText
 10
-72.63180571177793
 20
302.3572846194573
 30
0.0
 40
4.0
  1
（Ｍ６ｘ１８）
 50
180.0
 71
     6
100
AcDbText
  0
TEXT
  5
79D1
330
1E
100
AcDbEntity
  8
30
  6
CONTINUOUS
100
AcDbText
 10
-64.47171200000003
 20
309.0769052774361
 30
0.0
 40
5.0
  1
%%C6.5
 50
180.0
 71
     6
100
AcDbText
  0
DIMENSION
  5
7A65
330
1E
100
AcDbEntity
  8
30
  6
CONTINUOUS
100
AcDbDimension
  2
*D10
 10
75.36895731362392
 20
-71.99966400000007
 30
0.0
 11
72.36895731362394
 21
-14.99999949999998
 31
0.0
 70
    32
  3
STANDARD
100
AcDbAlignedDimension
 13
-6.499932999999828
 23
41.99966500000011
 33
0.0
 14
31.0
 24
-71.99966400000005
 34
0.0
 50
90.0
100
AcDbRotatedDimension
  0
DIMENSION
  5
7A66
330
1E
100
AcDbEntity
  8
30
  6
CONTINUOUS
100
AcDbDimension
  2
*D9
 10
84.0869833264869
 20
-80.00027500000005
 30
0.0
 11
81.08698332648691
 21
-15.00027449999995
 31
0.0
 70
    32
  3
STANDARD
100
AcDbAlignedDimension
 13
38.00000700000012
 23
49.99972600000012
 33
0.0
 14
37.50002900000001
 24
-80.00027500000005
 34
0.0
 50
90.0
100
AcDbRotatedDimension
  0
DIMENSION
  5
7A67
330
1E
100
AcDbEntity
  8
30
  6
CONTINUOUS
100
AcDbDimension
  2
*D8
 10
96.02572735558723
 20
-98.49986900000006
 30
0.0
 11
93.02572735558724
 21
-15.00000000000007
 31
0.0
 70
    32
  3
STANDARD
100
AcDbAlignedDimension
 13
37.40012200000006
 23
68.49986899999987
 33
0.0
 14
37.40012200000006
 24
-98.49986900000004
 34
0.0
 50
90.0
100
AcDbRotatedDimension
  0
DIMENSION
  5
7A68
330
1E
100
AcDbEntity
  8
30
  6
CONTINUOUS
100
AcDbDimension
  2
*D12
 10
36.0000670000001
 20
-108.8598946293907
 30
0.0
 11
-0.3665619730786034
 21
-108.8598946293907
 31
0.0
 70
   160
  1
72
  3
STANDARD
100
AcDbAlignedDimension
 13
-35.99991699999987
 23
-24.00030500000001
 33
0.0
 14
36.00006700000011
 24
-24.00030500000001
 34
0.0
100
AcDbRotatedDimension
  0
DIMENSION
  5
7A69
330
1E
100
AcDbEntity
  8
30
  6
CONTINUOUS
100
AcDbDimension
  2
*D11
 10
37.40012200000006
 20
-117.0698401907866
 30
0.0
 11
-0.0498974999999005
 21
-117.0698401907866
 31
0.0
 70
   160
  1
75
  3
STANDARD
100
AcDbAlignedDimension
 13
-37.49991699999986
 23
-50.49972599999999
 33
0.0
 14
37.40012200000006
 24
-50.50016900000002
 34
0.0
100
AcDbRotatedDimension
  0
DIMENSION
  5
7B09
330
1E
100
AcDbEntity
  8
30
  6
CONTINUOUS
100
AcDbDimension
  2
*D13
 10
361.2720401938628
 20
-84.99977400000007
 30
0.0
 11
358.2720401938629
 21
-14.99988700000006
 31
0.0
 70
    32
  3
STANDARD
100
AcDbAlignedDimension
 13
341.9622736938628
 23
54.99999999999983
 33
0.0
 14
342.9622736938627
 24
-84.99977400000005
 34
0.0
 50
90.0
100
AcDbRotatedDimension
  0
DIMENSION
  5
7B0A
330
1E
100
AcDbEntity
  8
30
  6
CONTINUOUS
100
AcDbDimension
  2
*D14
 10
348.6025329072201
 20
56.49885099999999
 30
0.0
 11
345.60253290722
 21
62.83218433333337
 31
0.0
 70
    32
  1
3
  3
STANDARD
100
AcDbAlignedDimension
 13
336.4098376938627
 23
53.49885099999983
 33
0.0
 14
336.4098376938627
 24
56.498851
 34
0.0
 50
90.0
100
AcDbRotatedDimension
  0
DIMENSION
  5
7B40
330
1E
100
AcDbEntity
  8
30
  6
CONTINUOUS
100
AcDbDimension
  2
*D15
 10
234.4098516938627
 20
-169.4167560505428
 30
0.0
 11
188.4181246938626
 21
-166.4167560505427
 31
0.0
 70
    32
  1
92
  3
STANDARD
100
AcDbAlignedDimension
 13
142.4263976938626
 23
-13.55750452446687
 33
0.0
 14
234.4098516938627
 24
-98.49986900000004
 34
0.0
100
AcDbRotatedDimension
  0
DIMENSION
  5
7B41
330
1E
100
AcDbEntity
  8
30
  6
CONTINUOUS
100
AcDbDimension
  2
*D17
 10
234.4098516938627
 20
-138.4136948112074
 30
0.0
 11
204.9098516938625
 21
-135.4136948112074
 31
0.0
 70
    32
  1
59
  3
STANDARD
100
AcDbAlignedDimension
 13
175.4098516938624
 23
-77.74278300000014
 33
0.0
 14
234.4098516938627
 24
-99.49986900000016
 34
0.0
100
AcDbRotatedDimension
  0
DIMENSION
  5
7B42
330
1E
100
AcDbEntity
  8
30
  6
CONTINUOUS
100
AcDbDimension
  2
*D16
 10
234.4098516938627
 20
-151.9597228718595
 30
0.0
 11
200.4098671938627
 21
-148.9597228718595
 31
0.0
 70
    32
  1
68
  3
STANDARD
100
AcDbAlignedDimension
 13
166.4098826938626
 23
-67.89991800000013
 33
0.0
 14
234.4098516938627
 24
-98.49986900000004
 34
0.0
100
AcDbRotatedDimension
  0
LINE
  5
7B43
330
1E
100
AcDbEntity
  8
30
  6
CONTINUOUS
100
AcDbLine
 10
166.4098826938626
 20
-68.89991800000013
 30
0.0
 11
166.4098826938626
 21
-152.9597228718595
 31
0.0
  0
LINE
  5
7B44
330
1E
100
AcDbEntity
  8
30
  6
CONTINUOUS
100
AcDbLine
 10
158.4099506938626
 20
-56.59988500000011
 30
0.0
 11
158.4099506938626
 21
-152.9597228718595
 31
0.0
  0
LINE
  5
7B45
330
1E
100
AcDbEntity
  8
30
  6
CONTINUOUS
100
AcDbLine
 10
158.4098826938627
 20
-24.999887
 30
0.0
 11
158.4099506938626
 21
-152.9597228718595
 31
0.0
  0
LINE
  5
7B46
330
1E
100
AcDbEntity
  8
30
  6
CONTINUOUS
100
AcDbLine
 10
154.4098516938627
 20
-24.59988700000002
 30
0.0
 11
154.4098516938624
 21
-152.9597228718595
 31
0.0
  0
LINE
  5
7B47
330
1E
100
AcDbEntity
  8
30
  6
CONTINUOUS
100
AcDbLine
 10
150.4098516938624
 20
-151.9597228718595
 30
0.0
 11
133.949500087076
 21
-151.9597228718595
 31
0.0
  0
TEXT
  5
7B48
330
1E
100
AcDbEntity
  8
30
  6
CONTINUOUS
100
AcDbText
 10
135.449500087076
 20
-150.4597228718592
 30
0.0
 40
5.0
  1
4
100
AcDbText
  0
LINE
  5
7B49
330
1E
100
AcDbEntity
  8
30
  6
CONTINUOUS
100
AcDbLine
 10
166.4098826938626
 20
-151.9597228718595
 30
0.0
 11
158.4099506938626
 21
-151.9597228718595
 31
0.0
  0
TEXT
  5
7B4A
330
1E
100
AcDbEntity
  8
30
  6
CONTINUOUS
100
AcDbText
 10
160.7432500271959
 20
-150.4597228718592
 30
0.0
 40
5.0
  1
8
100
AcDbText
  0
LINE
  5
7B4B
330
1E
100
AcDbEntity
  8
30
  6
CONTINUOUS
100
AcDbLine
 10
158.4099506938626
 20
-151.9597228718595
 30
0.0
 11
154.4098516938624
 21
-151.9597228718595
 31
0.0
  0
LINE
  5
7B4C
330
1E
100
AcDbEntity
  8
30
  6
CONTINUOUS
100
AcDbLine
 10
154.4099506938626
 20
-151.9597228718595
 30
0.0
 11
150.4099506938626
 21
-151.9597228718595
 31
0.0
  0
INSERT
  5
7B4D
330
1E
100
AcDbEntity
  8
30
  6
CONTINUOUS
100
AcDbBlockReference
  2
_OPEN
 10
154.4098516938624
 20
-151.9597228718595
 30
0.0
 41
4.0
 42
4.0
 43
4.0
  0
POINT
  5
7B4E
330
1E
100
AcDbEntity
  8
30
  6
CONTINUOUS
100
AcDbPoint
 10
154.4098516938624
 20
-151.9597228718595
 30
0.0
  0
POINT
  5
7B4F
330
1E
100
AcDbEntity
  8
30
  6
CONTINUOUS
100
AcDbPoint
 10
158.4099506938626
 20
-151.9597228718595
 30
0.0
  0
LINE
  5
7B50
330
1E
100
AcDbEntity
  8
30
  6
CONTINUOUS
100
AcDbLine
 10
170.4098826938626
 20
-151.9597228718595
 30
0.0
 11
174.4098826938626
 21
-151.9597228718595
 31
0.0
  0
INSERT
  5
7B51
330
1E
100
AcDbEntity
  8
30
  6
CONTINUOUS
100
AcDbBlockReference
  2
_OPEN
 10
166.4098826938626
 20
-151.9597228718595
 30
0.0
 41
4.0
 42
4.0
 43
4.0
 50
180.0
  0
DIMENSION
  5
7B52
330
1E
100
AcDbEntity
  8
30
  6
CONTINUOUS
100
AcDbDimension
  2
*D18
 10
234.4098516938627
 20
-122.445965
 30
0.0
 11
209.1618671938626
 21
-119.445965
 31
0.0
 70
    32
  1
50.5
  3
STANDARD
100
AcDbAlignedDimension
 13
183.9138826938626
 23
-97.49975600000006
 33
0.0
 14
234.4098516938627
 24
-98.49986900000004
 34
0.0
100
AcDbRotatedDimension
  0
TEXT
  5
7BB0
330
1E
100
AcDbEntity
  8
30
  6
CONTINUOUS
100
AcDbText
 10
-88.2005877028364
 20
-151.1631662538407
 30
0.0
 40
6.0
  1
Ｍ４ or %%C５
100
AcDbText
  0
LINE
  5
7BB1
330
1E
100
AcDbEntity
  8
30
  6
CONTINUOUS
100
AcDbLine
 10
-43.57116994838214
 20
-152.7338071014932
 30
0.0
 11
-89.48840270674054
 21
-152.7338071014932
 31
0.0
  0
DIMENSION
  5
7BB2
330
1E
100
AcDbEntity
  8
30
  6
CONTINUOUS
100
AcDbDimension
  2
*D19
 10
74.83912800086904
 20
-319.999887
 30
0.0
 11
74.83912800086909
 21
-239.5595752538408
 31
0.0
 70
   160
  3
STANDARD
100
AcDbAlignedDimension
 13
41.59254299999997
 23
-180.0001130000001
 33
0.0
 14
41.59254299999997
 24
-319.999887
 34
0.0
 50
90.0
100
AcDbRotatedDimension
  0
DIMENSION
  5
7BB3
330
1E
100
AcDbEntity
  8
30
  6
CONTINUOUS
100
AcDbDimension
  2
*D20
 10
62.36635223917
 20
-306.999664
 30
0.0
 11
62.36635223917005
 21
-239.5595747538408
 31
0.0
 70
   160
  3
STANDARD
100
AcDbAlignedDimension
 13
-7.828283999999939
 23
-193.000335
 33
0.0
 14
17.171874
 24
-306.999664
 34
0.0
 50
90.0
100
AcDbRotatedDimension
  0
LINE
  5
7BB4
330
1E
100
AcDbEntity
  8
30
  6
CONTINUOUS
100
AcDbLine
 10
-12.49988699999994
 20
-193.000335
 30
0.0
 11
-43.57116994838214
 21
-152.7338071014932
 31
0.0
1001
ACAD
1000
R13OBJECT
1002
{
1005
6E53
1002
}
  0
DIMENSION
  5
7C03
330
1E
100
AcDbEntity
  8
30
  6
CONTINUOUS
100
AcDbDimension
  2
*D21
 10
12.50027099999999
 20
-351.600702027078
 30
0.0
 11
0.0001920000000837
 21
-351.600702027078
 31
0.0
 70
   160
  1
25
  3
STANDARD
100
AcDbAlignedDimension
 13
-12.49988699999994
 23
-197.9533340000001
 33
0.0
 14
12.50027099999999
 24
-312.952665
 34
0.0
100
AcDbRotatedDimension
  0
DIMENSION
  5
7C06
330
1E
100
AcDbEntity
  8
30
  6
CONTINUOUS
100
AcDbDimension
  2
*D22
 10
25.0
 20
-362.5664153927877
 30
0.0
 11
0.0000000000000002
 21
-359.5664153927877
 31
0.0
 70
    32
  1
50
  3
STANDARD
100
AcDbAlignedDimension
 13
-25.0
 23
-337.918739
 33
0.0
 14
25.0
 24
-337.918739
 34
0.0
100
AcDbRotatedDimension
  0
TEXT
  5
7C3B
330
1E
100
AcDbEntity
  8
30
  6
CONTINUOUS
100
AcDbText
 10
-72.98231577575734
 20
-363.1636370000001
 30
0.0
 40
6.0
  1
%%C２２
100
AcDbText
  0
LINE
  5
7C3C
330
1E
100
AcDbEntity
  8
30
  6
CONTINUOUS
100
AcDbLine
 10
-52.06354958262682
 20
-364.7970153325287
 30
0.0
 11
-76.2005900549243
 21
-364.7970153325287
 31
0.0
  0
LINE
  5
7C3D
330
1E
100
AcDbEntity
  8
30
  6
CONTINUOUS
100
AcDbLine
 10
-33.86666923748498
 20
-334.3368929427074
 30
0.0
 11
-52.06354958262682
 21
-364.7970153325287
 31
0.0
1001
ACAD
1000
R13OBJECT
1002
{
1005
6E48
1002
}
  0
INSERT
  5
7C3E
330
1E
100
AcDbEntity
  8
0
100
AcDbBlockReference
  2
_OPEN
 10
-31.81525453396159
 20
-330.9029887923025
 30
0.0
 41
3.999999999999982
 42
4.0
 43
4.0
 50
59.1459006947669
  0
INSERT
  5
7C3F
330
1E
100
AcDbEntity
  8
30
  6
CONTINUOUS
100
AcDbBlockReference
  2
_OPEN
 10
-14.22828700000013
 20
-191.255633
 30
0.0
 41
3.999999999999973
 42
4.0
 43
4.0
 50
304.2589050556971
  0
TEXT
  5
7D33
330
1E
100
AcDbEntity
  8
0
  6
CONTINUOUS
100
AcDbText
 10
118.551617021593
 20
233.9524667083495
 30
0.0
 40
5.0
  1
ZAE100-NF 3P RC
  7
SMP-SET
100
AcDbText
  0
CIRCLE
  5
7D44
330
1E
100
AcDbEntity
  8
10
  6
CONTINUOUS
100
AcDbCircle
 10
-27.39973599999996
 20
-13.33018900000007
 30
0.0
 40
2.5
  0
CIRCLE
  5
7D45
330
1E
100
AcDbEntity
  8
10
  6
CONTINUOUS
100
AcDbCircle
 10
-27.39973599999996
 20
-4.330189000000075
 30
0.0
 40
2.5
  0
CIRCLE
  5
7D46
330
1E
100
AcDbEntity
  8
10
  6
CONTINUOUS
100
AcDbCircle
 10
-27.39973599999996
 20
-13.33018900000007
 30
0.0
 40
2.799999999999999
  0
CIRCLE
  5
7D47
330
1E
100
AcDbEntity
  8
10
  6
CONTINUOUS
100
AcDbCircle
 10
-27.39973599999996
 20
-4.330189000000075
 30
0.0
 40
2.799999999999999
  0
CIRCLE
  5
7D48
330
1E
100
AcDbEntity
  8
10
  6
CONTINUOUS
100
AcDbCircle
 10
24.20000800000002
 20
-21.20027500000003
 30
0.0
 40
3.75
  0
CIRCLE
  5
7D49
330
1E
100
AcDbEntity
  8
10
  6
CONTINUOUS
100
AcDbCircle
 10
24.20000800000002
 20
-21.20027500000003
 30
0.0
 40
3.1
  0
CIRCLE
  5
7D4A
330
1E
100
AcDbEntity
  8
10
  6
CONTINUOUS
100
AcDbCircle
 10
32.70000000000001
 20
-13.50027300000005
 30
0.0
 40
1.8
  0
CIRCLE
  5
7D4B
330
1E
100
AcDbEntity
  8
10
  6
CONTINUOUS
100
AcDbCircle
 10
25.70013100000002
 20
-6.700275000000033
 30
0.0
 40
2.85
  0
LINE
  5
7D9E
330
1E
100
AcDbEntity
  8
10
  6
CONTINUOUS
100
AcDbLine
 10
155.4098516938627
 20
-18.10000000000002
 30
0.0
 11
155.9098516938627
 21
-18.10000000000002
 31
0.0
  0
LINE
  5
7D9F
330
1E
100
AcDbEntity
  8
10
  6
CONTINUOUS
100
AcDbLine
 10
154.4098516938627
 20
-19.10000000000002
 30
0.0
 11
154.4098516938627
 21
-23.30000000000001
 31
0.0
  0
LINE
  5
7DA0
330
1E
100
AcDbEntity
  8
10
  6
CONTINUOUS
100
AcDbLine
 10
155.4098516938627
 20
-24.30000000000001
 30
0.0
 11
155.9098516938627
 21
-24.30000000000001
 31
0.0
  0
ARC
  5
7DA1
330
1E
100
AcDbEntity
  8
10
  6
CONTINUOUS
100
AcDbCircle
 10
155.4098516938627
 20
-19.10000000000002
 30
0.0
 40
1.0
100
AcDbArc
 50
90.0
 51
180.0
  0
ARC
  5
7DA2
330
1E
100
AcDbEntity
  8
10
  6
CONTINUOUS
100
AcDbCircle
 10
155.4098516938627
 20
-23.30000000000001
 30
0.0
 40
1.0
100
AcDbArc
 50
180.0
 51
270.0
  0
LINE
  5
7DA3
330
1E
100
AcDbEntity
  8
10
  6
CONTINUOUS
100
AcDbLine
 10
158.4098826938627
 20
-25.0
 30
0.0
 11
158.6099506938627
 21
-25.0
 31
0.0
  0
LINE
  5
7DA4
330
1E
100
AcDbEntity
  8
10
  6
CONTINUOUS
100
AcDbLine
 10
154.4098516938627
 20
-21.95058200000005
 30
0.0
 11
154.4098516938627
 21
-24.60000000000002
 31
0.0
  0
LINE
  5
7DA5
330
1E
100
AcDbEntity
  8
10
  6
CONTINUOUS
100
AcDbLine
 10
155.9098826938627
 20
-17.95000000000004
 30
0.0
 11
155.9098826938627
 21
-24.45000000000004
 31
0.0
  0
LINE
  5
7DA6
330
1E
100
AcDbEntity
  8
10
  6
CONTINUOUS
100
AcDbLine
 10
156.4098826938627
 20
-17.45000000000004
 30
0.0
 11
158.4099506938627
 21
-17.45000000000004
 31
0.0
  0
LINE
  5
7DA7
330
1E
100
AcDbEntity
  8
10
  6
CONTINUOUS
100
AcDbLine
 10
156.4098826938627
 20
-24.95000000000004
 30
0.0
 11
158.5528796938627
 21
-24.95000000000004
 31
0.0
  0
ARC
  5
7DA8
330
1E
100
AcDbEntity
  8
10
  6
CONTINUOUS
100
AcDbCircle
 10
154.9098516938627
 20
-24.60000000000002
 30
0.0
 40
0.5
100
AcDbArc
 50
180.0
 51
270.0
  0
ARC
  5
7DA9
330
1E
100
AcDbEntity
  8
10
  6
CONTINUOUS
100
AcDbCircle
 10
158.9099506938627
 20
-24.60000000000002
 30
0.0
 40
0.5
100
AcDbArc
 50
180.0
 51
270.0
  0
ARC
  5
7DAA
330
1E
100
AcDbEntity
  8
10
  6
CONTINUOUS
100
AcDbCircle
 10
156.4098826938627
 20
-24.45000000000004
 30
0.0
 40
0.5
100
AcDbArc
 50
180.0
 51
270.0
  0
ARC
  5
7DAB
330
1E
100
AcDbEntity
  8
10
  6
CONTINUOUS
100
AcDbCircle
 10
156.4098826938627
 20
-17.95000000000004
 30
0.0
 40
0.5
100
AcDbArc
 50
90.0
 51
180.0
  0
LINE
  5
7DD2
330
1E
100
AcDbEntity
  8
18
100
AcDbLine
 10
37.50002900000001
 20
-55.95027500000008
 30
0.0
 11
59.12279800000002
 21
-55.95027500000008
 31
0.0
  0
LINE
  5
7DD3
330
1E
100
AcDbEntity
  8
18
100
AcDbLine
 10
37.50002900000001
 20
-57.60027500000006
 30
0.0
 11
58.65708500000002
 21
-57.60027500000006
 31
0.0
  0
LINE
  5
7DD4
330
1E
100
AcDbEntity
  8
18
100
AcDbLine
 10
37.50002900000001
 20
-54.30027500000004
 30
0.0
 11
59.38067100000001
 21
-54.30027500000004
 31
0.0
  0
LINE
  5
7DD5
330
1E
100
AcDbEntity
  8
18
100
AcDbLine
 10
37.50002900000001
 20
-59.25027500000004
 30
0.0
 11
59.50532100000001
 21
-59.25027500000004
 31
0.0
  0
LINE
  5
7DD6
330
1E
100
AcDbEntity
  8
18
100
AcDbLine
 10
37.50002900000001
 20
-52.65027500000007
 30
0.0
 11
58.12923700000002
 21
-52.65027500000007
 31
0.0
  0
SPLINE
  5
7DD7
330
1E
100
AcDbEntity
  8
18
100
AcDbSpline
210
0.0
220
0.0
230
1.0
 70
     8
 71
     3
 72
    87
 73
    83
 74
    81
 42
0.0000000001
 43
0.0000000001
 44
0.000001
 12
0.2426581112069816
 22
-0.9701118703868436
 32
0.0
 13
-0.6507913734548168
 23
-0.7592566023662838
 33
0.0
 40
0.0
 40
0.0
 40
0.0
 40
0.0
 40
0.1255431072402427
 40
0.2511269969231638
 40
0.3839024650057872
 40
0.5167054937998246
 40
0.6570174880263675
 40
0.7973457869502126
 40
0.9443722598966081
 40
1.091407705448932
 40
1.243648881243741
 40
1.395894469435926
 40
1.551540750170503
 40
1.707189016120102
 40
1.864243005436218
 40
2.021297271112119
 40
2.177682715434707
 40
2.334066829372392
 40
2.487479342051809
 40
2.640884439585785
 40
2.788215043044359
 40
2.9355272527504
 40
3.074193840372887
 40
3.212820851634585
 40
3.341840283566773
 40
3.470785858720494
 40
3.592177629148182
 40
3.713561721971195
 40
3.832521465735593
 40
3.951501595424763
 40
4.072666054293497
 40
4.193862121061308
 40
4.320363008756279
 40
4.446892611284479
 40
4.580090452956572
 40
4.713319024125966
 40
4.85187928179723
 40
4.990452016150715
 40
5.131461119324166
 40
5.272472174601317
 40
5.412524634284974
 40
5.552569795738968
 40
5.688372575419703
 40
5.824149734485373
 40
5.953138789480755
 40
6.082069389294365
 40
6.20407491768573
 40
6.325981557417569
 40
6.445215143796768
 40
6.564373394739359
 40
6.689588957364076
 40
6.814992378289289
 40
6.950709179302625
 40
7.086505378725409
 40
7.229860454446012
 40
7.373238090393877
 40
7.518262641621173
 40
7.663280399564371
 40
7.804167203038052
 40
7.945042545923376
 40
8.079615931208667
 40
8.214168470956499
 40
8.341935309688782
 40
8.469668073174293
 40
8.591574124564404
 40
8.71343493153089
 40
8.83244780263578
 40
8.951467293302027
 40
9.071921336912934
 40
9.192398541146213
 40
9.31801122427576
 40
9.443651947669057
 40
9.577122760986231
 40
9.710618434358732
 40
9.853270735784935
 40
9.995951296354029
 40
10.14641836130753
 40
10.29689822043663
 40
10.45231410938941
 40
10.60773471966231
 40
10.76467115198168
 40
10.92160673161809
 40
10.92160673161809
 40
10.92160673161809
 40
10.92160673161809
 10
59.04860102231902
 20
-51.65027471299605
 30
0.0
 10
59.05875570674501
 20
-51.69087166585573
 30
0.0
 10
59.08275469621028
 20
-51.77119087143285
 30
0.0
 10
59.12879824665735
 20
-51.89069304167506
 30
0.0
 10
59.18376945252255
 20
-52.00902537167137
 30
0.0
 10
59.24778185920844
 20
-52.1282889434622
 30
0.0
 10
59.31880685409694
 20
-52.24644791742399
 30
0.0
 10
59.39726140331811
 20
-52.36551143667654
 30
0.0
 10
59.48100500903588
 20
-52.48366391175951
 30
0.0
 10
59.57043879944107
 20
-52.60256701380643
 30
0.0
 10
59.663575453832
 20
-52.72080867838745
 30
0.0
 10
59.76062491661266
 20
-52.83958557594361
 30
0.0
 10
59.85996258497106
 20
-52.95793840461223
 30
0.0
 10
59.96143173525415
 20
-53.07658355923614
 30
0.0
 10
60.06381952063161
 20
-53.19505646316649
 30
0.0
 10
60.16653069527915
 20
-53.31357408147072
 30
0.0
 10
60.26880755965056
 20
-53.43217278846402
 30
0.0
 10
60.36953492645331
 20
-53.55050180116444
 30
0.0
 10
60.46842186546619
 20
-53.66908657707316
 30
0.0
 10
60.5632731248534
 20
-53.78708452821586
 30
0.0
 10
60.65386948675509
 20
-53.90584470057281
 30
0.0
 10
60.73739138012748
 20
-54.02373148924699
 30
0.0
 10
60.81402306331779
 20
-54.14279404810515
 30
0.0
 10
60.88070875523695
 20
-54.26078854572907
 30
0.0
 10
60.93754061548398
 20
-54.3802820605385
 30
0.0
 10
60.98186546131787
 20
-54.49893703147239
 30
0.0
 10
61.01280453802583
 20
-54.61915265363671
 30
0.0
 10
61.03056429881781
 20
-54.73864677432611
 30
0.0
 10
61.0355397436563
 20
-54.85852720439994
 30
0.0
 10
61.02871908935539
 20
-54.97821938915333
 30
0.0
 10
61.01046993204217
 20
-55.09744514601591
 30
0.0
 10
60.98154605982123
 20
-55.21708494968815
 30
0.0
 10
60.94277630807336
 20
-55.33577362406575
 30
0.0
 10
60.89434980043293
 20
-55.45515816771895
 30
0.0
 10
60.83770790194991
 20
-55.57334024879081
 30
0.0
 10
60.77356722212768
 20
-55.69216533995279
 30
0.0
 10
60.70442534029814
 20
-55.81021459365757
 30
0.0
 10
60.63105380248215
 20
-55.9287295305798
 30
0.0
 10
60.55562663439762
 20
-56.04690962456082
 30
0.0
 10
60.47942846936936
 20
-56.16517903525974
 30
0.0
 10
60.40402438308133
 20
-56.28357858496877
 30
0.0
 10
60.3313524857962
 20
-56.40164830252977
 30
0.0
 10
60.26236478505807
 20
-56.5202769463906
 30
0.0
 10
60.19974576519139
 20
-56.63825885906225
 30
0.0
 10
60.14432396810104
 20
-56.75729648709858
 30
0.0
 10
60.09891701575771
 20
-56.87566431683363
 30
0.0
 10
60.06473978170089
 20
-56.99534393155798
 30
0.0
 10
60.04403930533263
 20
-57.11491227376673
 30
0.0
 10
60.03927124732919
 20
-57.2352893865815
 30
0.0
 10
60.05184011115993
 20
-57.35632416867799
 30
0.0
 10
60.08405381688837
 20
-57.47576835887399
 30
0.0
 10
60.1324245450403
 20
-57.5953402012227
 30
0.0
 10
60.19301097417728
 20
-57.7131200264051
 30
0.0
 10
60.26430048321699
 20
-57.83168826490071
 30
0.0
 10
60.34195660765512
 20
-57.94921997544878
 30
0.0
 10
60.42435083433954
 20
-58.06722641414174
 30
0.0
 10
60.50798620071502
 20
-58.1850279093058
 30
0.0
 10
60.59018186580309
 20
-58.30283796547266
 30
0.0
 10
60.66866379130586
 20
-58.42151439151386
 30
0.0
 10
60.74147604384982
 20
-58.53969219627607
 30
0.0
 10
60.80861460416306
 20
-58.65877763162206
 30
0.0
 10
60.86807380466062
 20
-58.77702906897596
 30
0.0
 10
60.91990751367446
 20
-58.89635093639115
 30
0.0
 10
60.96232668468586
 20
-59.01490478320556
 30
0.0
 10
60.9949456688335
 20
-59.13450249047405
 30
0.0
 10
61.01648112730017
 20
-59.2536866055603
 30
0.0
 10
61.02587518973993
 20
-59.37348096664309
 30
0.0
 10
61.02362983620407
 20
-59.49314161131623
 30
0.0
 10
61.00978417139806
 20
-59.61250243478872
 30
0.0
 10
60.98486554741295
 20
-59.73227103987548
 30
0.0
 10
60.94928477896772
 20
-59.85111321422949
 30
0.0
 10
60.90300708085436
 20
-59.97083624318138
 30
0.0
 10
60.84710639829161
 20
-60.08928449042143
 30
0.0
 10
60.78087581110489
 20
-60.20878103835714
 30
0.0
 10
60.70613414185792
 20
-60.32678045145255
 30
0.0
 10
60.62267771485178
 20
-60.44572848885433
 30
0.0
 10
60.53341563934565
 20
-60.56365717104668
 30
0.0
 10
60.43823673776945
 20
-60.68234103836588
 30
0.0
 10
60.33972000262872
 20
-60.80041840411701
 30
0.0
 10
60.23832396761733
 20
-60.91887451318534
 30
0.0
 10
60.1359445289699
 20
-61.03714966425807
 30
0.0
 10
60.06755036283957
 20
-61.11632360886504
 30
0.0
 10
60.03350625570107
 20
-61.15604173386008
 30
0.0
 11
59.04860102231902
 21
-51.65027471299605
 31
0.0
 11
59.08428128014262
 21
-51.77064079742791
 31
0.0
 11
59.12919402430564
 21
-51.88791888851795
 31
0.0
 11
59.18490665528401
 21
-52.00844034064658
 31
0.0
 11
59.24750782100073
 21
-52.12556306403973
 31
0.0
 11
59.31962287610372
 21
-52.24592447254627
 31
0.0
 11
59.39667337232762
 21
-52.36320723956145
 31
0.0
 11
59.48156315242187
 21
-52.48325099910976
 31
0.0
 11
59.56982163820962
 21
-52.60085141508312
 31
0.0
 11
59.66392890878328
 21
-52.72052260410481
 31
0.0
 11
59.76016346800872
 21
-52.83849559060456
 31
0.0
 11
59.86014600649207
 21
-52.95778202693662
 31
0.0
 11
59.96122926884118
 21
-53.07613976612605
 31
0.0
 11
60.06384750688283
 21
-53.1950323682555
 31
0.0
 11
60.16662933726241
 21
-53.31378394164755
 31
0.0
 11
60.26868180943416
 21
-53.43228161669093
 31
0.0
 11
60.36997396982719
 21
-53.5514281171691
 31
0.0
 11
60.46806914294331
 21
-53.66938037732915
 31
0.0
 11
60.56402209671023
 21
-53.78907229269054
 31
0.0
 11
60.65317798859661
 21
-53.90636480736997
 31
0.0
 11
60.73812718256374
 21
-54.02671646821204
 31
0.0
 11
60.81289710186957
 21
-54.14349781342599
 31
0.0
 11
60.88079132565917
 21
-54.26436064373365
 31
0.0
 11
60.93584477307292
 21
-54.38104454490712
 31
0.0
 11
60.98051662426843
 21
-54.50200481925525
 31
0.0
 11
61.01073409422673
 21
-54.61957550779521
 31
0.0
 11
61.02852328504946
 21
-54.73964899477692
 31
0.0
 11
61.03358718634314
 21
-54.85850090296275
 31
0.0
 11
61.02690394820775
 21
-54.97729317029853
 31
0.0
 11
61.00878177528011
 21
-55.09709470760247
 31
0.0
 11
60.98046936233533
 21
-55.21493734582014
 31
0.0
 11
60.94140244758626
 21
-55.33525459945496
 31
0.0
 11
60.89403027602401
 21
-55.45258152134198
 31
0.0
 11
60.83676513681291
 21
-55.5728410585683
 31
0.0
 11
60.77375171686748
 21
-55.69022569686353
 31
0.0
 11
60.70394415766429
 21
-55.80991637184177
 31
0.0
 11
60.631215828466
 21
-55.92786987238502
 31
0.0
 11
60.55554219624588
 21
-56.04685359764283
 31
0.0
 11
60.47935903342147
 21
-56.16551404790663
 31
0.0
 11
60.40432539913547
 21
-56.28377093955486
 31
0.0
 11
60.33111775433582
 21
-56.40315822342802
 31
0.0
 11
60.26312519888387
 21
-56.52071430609725
 31
0.0
 11
60.19976664454015
 21
-56.64080239894974
 31
0.0
 11
60.14568613335018
 21
-56.75790700515698
 31
0.0
 11
60.09993328028184
 21
-56.87844657447111
 31
0.0
 11
60.06684520893822
 21
-56.99587969331115
 31
0.0
 11
60.04658346853756
 21
-57.11609074999267
 31
0.0
 11
60.04211993143565
 21
-57.23524078402436
 31
0.0
 11
60.05468301628383
 21
-57.35373492551405
 31
0.0
 11
60.0864192711615
 21
-57.47486192204422
 31
0.0
 11
60.13278482950108
 21
-57.59137910103561
 31
0.0
 11
60.19429998017466
 21
-57.71235403397121
 31
0.0
 11
60.26379021018488
 21
-57.82902327655715
 31
0.0
 11
60.34245650398919
 21
-57.94886603376999
 31
0.0
 11
60.42418755933443
 21
-58.06666745207871
 31
0.0
 11
60.50782523235165
 21
-58.1851446721124
 31
0.0
 11
60.59046527794919
 21
-58.30431162760015
 31
0.0
 11
60.66803073325025
 21
-58.42192404776721
 31
0.0
 11
60.74177508356388
 21
-58.54195580312187
 31
0.0
 11
60.80767931247914
 21
-58.65928704090668
 31
0.0
 11
60.86792195985606
 21
-58.77959997864354
 31
0.0
 11
60.91860245346845
 21
-58.89688532786254
 31
0.0
 11
60.96137420703843
 21
-59.01724415416526
 31
0.0
 11
60.99321595529284
 21
-59.13491832191215
 31
0.0
 11
61.01460012532402
 21
-59.25488832968687
 31
0.0
 11
61.02394971768354
 21
-59.37353350863349
 31
0.0
 11
61.0217347155575
 21
-59.49253250520842
 31
0.0
 11
61.00800833807233
 21
-59.61220200344643
 31
0.0
 11
60.98357978111045
 21
-59.73017668073003
 31
0.0
 11
60.94774533274772
 21
-59.85056961649547
 31
0.0
 11
60.90260382598614
 21
-59.96782085625164
 31
0.0
 11
60.8458227063557
 21
-60.08861149837827
 31
0.0
 11
60.78127535418804
 21
-60.20546503177319
 31
0.0
 11
60.70520964032778
 21
-60.32614518611159
 31
0.0
 11
60.62349568027219
 21
-60.44310920729468
 31
0.0
 11
60.53286625517273
 21
-60.5632202208768
 31
0.0
 11
60.43889736100578
 21
-60.68075338281635
 31
0.0
 11
60.33947274719048
 21
-60.80020568910089
 31
0.0
 11
60.23854576370871
 21
-60.91839755833813
 31
0.0
 11
60.13596512644887
 21
-61.03716735233279
 31
0.0
 11
60.03350625570107
 21
-61.15604173386008
 31
0.0
  0
SPLINE
  5
7DD8
330
1E
100
AcDbEntity
  8
18
100
AcDbSpline
210
0.0
220
0.0
230
1.0
 70
     8
 71
     3
 72
   103
 73
    99
 74
    97
 42
0.0000000001
 43
0.0000000001
 44
0.000001
 12
-0.1460598731509081
 22
-0.9892757519797704
 32
0.0
 13
-0.6507913734556547
 23
-0.7592566023655657
 33
0.0
 40
0.0
 40
0.0
 40
0.0
 40
0.0
 40
0.0992148049619462
 40
0.1984508552743752
 40
0.299191844917656
 40
0.3999707082525988
 40
0.5055226260209716
 40
0.6111074689322072
 40
0.7229832868374034
 40
0.834881078176952
 40
0.9532329816867154
 40
1.071598448427714
 40
1.195560466579633
 40
1.319529684239875
 40
1.447624425079454
 40
1.575722656264059
 40
1.706139080341696
 40
1.836556709620402
 40
1.967319775321019
 40
2.098082250560842
 40
2.227175107473702
 40
2.356265290537218
 40
2.481779205108605
 40
2.607287235309328
 40
2.727589743030787
 40
2.847880855543508
 40
2.96200198216919
 40
3.076112305781385
 40
3.184358283760896
 40
3.292590400752911
 40
3.395963251857468
 40
3.499320453465099
 40
3.599434287607471
 40
3.69953430587978
 40
3.798644495691444
 40
3.897762018578044
 40
3.998322440707479
 40
4.098895379829781
 40
4.202881361596343
 40
4.306880821112001
 40
4.415697995214596
 40
4.52452701648482
 40
4.638720956551623
 40
4.752932096021281
 40
4.871056166222201
 40
4.989186932195604
 40
5.108762578628331
 40
5.228338385967221
 40
5.346650867975773
 40
5.464957107350927
 40
5.579512484712355
 40
5.694052170576283
 40
5.803115987365369
 40
5.912147381374396
 40
6.015399359949809
 40
6.11859649872234
 40
6.218087423711784
 40
6.317519389540231
 40
6.418155387201521
 40
6.518871388050262
 40
6.624883584407775
 40
6.730949513324024
 40
6.842957611970581
 40
6.954991486461572
 40
7.071327186492861
 40
7.18767247977551
 40
7.305753166103412
 40
7.42383483503684
 40
7.541530943804509
 40
7.659224707889888
 40
7.774652355269684
 40
7.890073277760891
 40
8.001654483969094
 40
8.113221956146801
 40
8.220140322919476
 40
8.327046616758755
 40
8.429821994415085
 40
8.532583017929143
 40
8.632529891938053
 40
8.732463018464862
 40
8.831604253796818
 40
8.930737586309829
 40
9.031674516945976
 40
9.132630294658717
 40
9.237655907697307
 40
9.342700025650238
 40
9.453253790295001
 40
9.563822326997378
 40
9.680626525642203
 40
9.79744132387187
 40
9.920449251963912
 40
10.04346762082158
 40
10.17127138228045
 40
10.29908004362804
 40
10.42961237722088
 40
10.56014638154144
 40
10.69112022020397
 40
10.82209282240811
 40
10.82209282240811
 40
10.82209282240811
 40
10.82209282240811
 10
57.78611406366801
 20
-51.65027471299605
 30
0.0
 10
57.78128362972553
 20
-51.68299164659147
 30
0.0
 10
57.77553681753083
 20
-51.74906804465383
 30
0.0
 10
57.77809157266507
 20
-51.84895806636349
 30
0.0
 10
57.79152417507964
 20
-51.94848956648865
 30
0.0
 10
57.81487322309537
 20
-52.04828741376926
 30
0.0
 10
57.84728969227912
 20
-52.14720171827032
 30
0.0
 10
57.88844565615474
 20
-52.24678683718398
 30
0.0
 10
57.93694206461363
 20
-52.34535941597751
 30
0.0
 10
57.99298125068529
 20
-52.44473831105795
 30
0.0
 10
58.05481410558066
 20
-52.54317208434436
 30
0.0
 10
58.12280063176567
 20
-52.64235989999214
 30
0.0
 10
58.19506506114199
 20
-52.74079963503785
 30
0.0
 10
58.27190380379398
 20
-52.83984105163828
 30
0.0
 10
58.35161611206245
 20
-52.93835918067638
 30
0.0
 10
58.43423047177568
 20
-53.03726923636021
 30
0.0
 10
58.51837959531646
 20
-53.1358941673835
 30
0.0
 10
58.60370508076412
 20
-53.23467840906284
 30
0.0
 10
58.68925718685471
 20
-53.33341872105229
 30
0.0
 10
58.77422773446592
 20
-53.4320786053059
 30
0.0
 10
58.85810379786206
 20
-53.53094246599658
 30
0.0
 10
58.93963846213408
 20
-53.62948897088011
 30
0.0
 10
59.01873393255153
 20
-53.72848328163622
 30
0.0
 10
59.0937693770862
 20
-53.82693785404245
 30
0.0
 10
59.16496543169088
 20
-53.92607500351516
 30
0.0
 10
59.23049423007194
 20
-54.0245318737589
 30
0.0
 10
59.290693951687
 20
-54.12393666678834
 30
0.0
 10
59.34419126328436
 20
-54.22257010755227
 30
0.0
 10
59.39161307860989
 20
-54.32209905334289
 30
0.0
 10
59.43190153775854
 20
-54.42088308219596
 30
0.0
 10
59.46536672128456
 20
-54.52047027136696
 30
0.0
 10
59.49131450164481
 20
-54.61949713841768
 30
0.0
 10
59.50966463330673
 20
-54.71910599840405
 30
0.0
 10
59.52007752773905
 20
-54.81844760667097
 30
0.0
 10
59.52217345002804
 20
-54.91797980026486
 30
0.0
 10
59.51633756247532
 20
-55.01750696524502
 30
0.0
 10
59.5027071798497
 20
-55.11675540614347
 30
0.0
 10
59.4815758226586
 20
-55.21632729748845
 30
0.0
 10
59.45330788607369
 20
-55.31530011657427
 30
0.0
 10
59.4178917579256
 20
-55.41485278893012
 30
0.0
 10
59.37602802751284
 20
-55.51362126625193
 30
0.0
 10
59.32739096849481
 20
-55.61302192231564
 30
0.0
 10
59.27306172158841
 20
-55.71147570587411
 30
0.0
 10
59.21344431089493
 20
-55.81043312604992
 30
0.0
 10
59.1504782976455
 20
-55.90884527245297
 30
0.0
 10
59.08475323461285
 20
-56.00758414915382
 30
0.0
 10
59.01787867780331
 20
-56.1061297661775
 30
0.0
 10
58.95091297910451
 20
-56.20468647198104
 30
0.0
 10
58.88495004136682
 20
-56.30341190699956
 30
0.0
 10
58.82156498005965
 20
-56.40183408873862
 30
0.0
 10
58.76137247782814
 20
-56.50078191731999
 30
0.0
 10
58.70630757390168
 20
-56.59917375655035
 30
0.0
 10
58.65669854514869
 20
-56.69838966496279
 30
0.0
 10
58.61456990408939
 20
-56.79696239916135
 30
0.0
 10
58.58042093914566
 20
-56.89653719391587
 30
0.0
 10
58.55594586486031
 20
-56.99571038643775
 30
0.0
 10
58.54234034740073
 20
-57.09570059835193
 30
0.0
 10
58.54070185495524
 20
-57.19582534831493
 30
0.0
 10
58.55269505577163
 20
-57.29564774891053
 30
0.0
 10
58.57638357324782
 20
-57.39550535424236
 30
0.0
 10
58.61010599392606
 20
-57.49430963056322
 30
0.0
 10
58.65277646624344
 20
-57.59363851985133
 30
0.0
 10
58.70219516212587
 20
-57.69201178819524
 30
0.0
 10
58.75775772454748
 20
-57.79096607820467
 30
0.0
 10
58.81721841430408
 20
-57.88930561374347
 30
0.0
 10
58.87984095602639
 20
-57.98804684317552
 30
0.0
 10
58.94376824553052
 20
-58.08663833869418
 30
0.0
 10
59.00832624694758
 20
-58.18535571544826
 30
0.0
 10
59.07256782594365
 20
-58.28412614041948
 30
0.0
 10
59.13544204071183
 20
-58.38272759998528
 30
0.0
 10
59.19639405517179
 20
-58.48164368569106
 30
0.0
 10
59.25405029333937
 20
-58.58017021248965
 30
0.0
 10
59.30812156573871
 20
-58.6792540190288
 30
0.0
 10
59.35706805710164
 20
-58.77782886451392
 30
0.0
 10
59.40065407197874
 20
-58.87719877988215
 30
0.0
 10
59.43789730696464
 20
-58.97600190958585
 30
0.0
 10
59.46889654452231
 20
-59.07549451383664
 30
0.0
 10
59.49296890060937
 20
-59.17451565935541
 30
0.0
 10
59.50992262366078
 20
-59.27404738381335
 30
0.0
 10
59.51936543608876
 20
-59.37337319499285
 30
0.0
 10
59.52084165941525
 20
-59.47287301326511
 30
0.0
 10
59.51413600595387
 20
-59.57250393033016
 30
0.0
 10
59.49878250377446
 20
-59.67178463264996
 30
0.0
 10
59.47518914245796
 20
-59.77143198750379
 30
0.0
 10
59.44388635195029
 20
-59.87036172273128
 30
0.0
 10
59.40488792490497
 20
-59.96994146265882
 30
0.0
 10
59.35912954814121
 20
-60.06863471223531
 30
0.0
 10
59.30620860855773
 20
-60.16812573334807
 30
0.0
 10
59.24741338010484
 20
-60.26669412508993
 30
0.0
 10
59.18206639273893
 20
-60.36603706551112
 30
0.0
 10
59.11171353488033
 20
-60.46444934898222
 30
0.0
 10
59.03607880616996
 20
-60.56349885004622
 30
0.0
 10
58.95707992687988
 20
-60.66193977922562
 30
0.0
 10
58.87468564020044
 20
-60.76083343230024
 30
0.0
 10
58.79048952161356
 20
-60.85939384353895
 30
0.0
 10
58.70489734433684
 20
-60.95814280558734
 30
0.0
 10
58.61902095447092
 20
-61.05683857295729
 30
0.0
 10
58.56191820225888
 20
-61.12289446287592
 30
0.0
 10
58.53350625570104
 20
-61.15604173386008
 30
0.0
 11
57.78611406366801
 21
-51.65027471299605
 31
0.0
 11
57.77739836008939
 21
-51.74910602736553
 31
0.0
 11
57.77985862635327
 21
-51.84831152593084
 31
0.0
 11
57.79310355600623
 21
-51.94817798679281
 31
0.0
 11
57.81588410646739
 21
-52.04634833886586
 31
0.0
 11
57.84852656472105
 21
-52.14672597435758
 31
0.0
 11
57.8886618044724
 21
-52.24438515180082
 31
0.0
 11
57.9378656243812
 21
-52.34485990589024
 31
0.0
 11
57.99266302083012
 21
-52.44242196473572
 31
0.0
 11
58.05547120210545
 21
-52.54273298019643
 31
0.0
 11
58.12225478769281
 21
-52.64045877767034
 31
0.0
 11
58.19550222197364
 21
-52.74046573031409
 31
0.0
 11
58.27138706397306
 21
-52.83849559060501
 31
0.0
 11
58.35187316772962
 21
-52.93814620929015
 31
0.0
 11
58.43390554027391
 21
-53.03653240353969
 31
0.0
 11
58.51848018328564
 21
-53.13580762833105
 31
0.0
 11
58.6036559071984
 21
-53.2345692164743
 31
0.0
 11
58.68920934100785
 21
-53.33346101017178
 31
0.0
 11
58.77446828755018
 21
-53.43260602940892
 31
0.0
 11
58.85790186066472
 21
-53.53111391140338
 31
0.0
 11
58.94011053293744
 21
-53.6306428423436
 31
0.0
 11
59.01835897317678
 21
-53.72878010964456
 31
0.0
 11
59.09433492716892
 21
-53.82867965527839
 31
0.0
 11
59.16438305683172
 21
-53.92648534210013
 31
0.0
 11
59.23089375405329
 21
-54.02671646821294
 31
0.0
 11
59.28991294944083
 21
-54.12439126592147
 31
0.0
 11
59.34421425742645
 21
-54.2247532811475
 31
0.0
 11
59.39066953686057
 21
-54.3225239265049
 31
0.0
 11
59.43142352123075
 21
-54.42279009408206
 31
0.0
 11
59.46424828321844
 21
-54.52081295788434
 31
0.0
 11
59.49032358943577
 21
-54.62082690701668
 31
0.0
 11
59.50838190199258
 21
-54.71929861631315
 31
0.0
 11
59.51871650601089
 21
-54.81886371995124
 31
0.0
 11
59.52085835103909
 21
-54.91795076355236
 31
0.0
 11
59.51509414004161
 21
-55.01690053288603
 31
0.0
 11
59.50150912521255
 21
-55.11653910494731
 31
0.0
 11
59.48070766107915
 21
-55.21493734582065
 31
0.0
 11
59.45226094905362
 21
-55.31495667819364
 31
0.0
 11
59.41749806379064
 21
-55.41297415875533
 31
0.0
 11
59.3751375517393
 21
-55.5132076875077
 31
0.0
 11
59.32740634284349
 21
-55.61101097168989
 31
0.0
 11
59.2724408563667
 21
-55.71110614788005
 31
0.0
 11
59.21369043500348
 21
-55.80904778462456
 31
0.0
 11
59.15018235265847
 21
-55.90864703044126
 31
0.0
 11
59.08487604543125
 21
-56.00708459755912
 31
0.0
 11
59.01786977162553
 21
-56.10612240794722
 31
0.0
 11
58.95080582138587
 21
-56.20512141049368
 31
0.0
 11
58.88522670171332
 21
-56.30359597507833
 31
0.0
 11
58.82132241012647
 21
-56.40315822342824
 31
0.0
 11
58.76196673203745
 21
-56.50113718408032
 31
0.0
 11
58.70621905933683
 21
-56.60119503636291
 31
0.0
 11
58.65767694374162
 21
-56.69886083251605
 31
0.0
 11
58.61509141839826
 21
-56.79923184929753
 31
0.0
 11
58.58187276978441
 21
-56.89699436253783
 31
0.0
 11
58.5574857371169
 21
-56.99726866223232
 31
0.0
 11
58.54430554345743
 21
-57.09588273867723
 31
0.0
 11
58.54294826529863
 21
-57.19530547516683
 31
0.0
 11
58.55456190178561
 21
-57.29526912885495
 31
0.0
 11
58.5774828698585
 21
-57.39334228810156
 31
0.0
 11
58.6113633753977
 21
-57.49379475467588
 31
0.0
 11
58.65292388614725
 21
-57.59137910103606
 31
0.0
 11
58.70294824892411
 21
-57.69159574303733
 31
0.0
 11
58.75756326662457
 21
-57.78941591397067
 31
0.0
 11
58.81756725931632
 21
-57.88908291840225
 31
0.0
 11
58.87969296375041
 21
-57.98745272690529
 31
0.0
 11
58.94383163430569
 21
-58.08659542172483
 31
0.0
 11
59.00835471850683
 21
-58.18548953983985
 31
0.0
 11
59.07241912356361
 21
-58.28422211368057
 31
0.0
 11
59.13558942596719
 21
-58.38352635277459
 31
0.0
 11
59.19601945825291
 21
-58.48187142603313
 31
0.0
 11
59.25418776972728
 21
-58.5815631657092
 31
0.0
 11
59.30748691208407
 21
-58.67959162919429
 31
0.0
 11
59.35694043338262
 21
-58.77959997864399
 31
0.0
 11
59.39978378261111
 21
-58.87755919409954
 31
0.0
 11
59.43737973971559
 21
-58.97763679157844
 31
0.0
 11
59.46784941025774
 21
-59.07579177875827
 31
0.0
 11
59.49200456825403
 21
-59.17567360451306
 31
0.0
 11
59.50870272306213
 21
-59.274215823767
 31
0.0
 11
59.51805543771238
 21
-59.37371041744773
 31
0.0
 11
59.51948620316347
 21
-59.47284140559918
 31
0.0
 11
59.51277286680488
 21
-59.57174723038229
 31
0.0
 11
59.4974790146557
 21
-59.67151884018584
 31
0.0
 11
59.47432670559916
 21
-59.76978404331685
 31
0.0
 11
59.44278707881849
 21
-59.8699620912547
 31
0.0
 11
59.40460412957574
 21
-59.96782085625159
 31
0.0
 11
59.3582309191857
 21
-60.06817856087769
 31
0.0
 11
59.30642164556861
 21
-60.16585766918638
 31
0.0
 11
59.24669127520338
 21
-60.26623451615057
 31
0.0
 11
59.18259576041132
 21
-60.36389448212105
 31
0.0
 11
59.11119813805988
 21
-60.46406102646801
 31
0.0
 11
59.0366666982932
 21
-60.56193129505589
 31
0.0
 11
58.95677949725225
 21
-60.66169021587352
 31
0.0
 11
58.87506955282484
 21
-60.75996810799057
 31
0.0
 11
58.79037255040763
 21
-60.85929138259097
 31
0.0
 11
58.7049631349721
 21
-60.95800492092529
 31
0.0
 11
58.61907473158948
 21
-61.05688531790314
 31
0.0
 11
58.53350625570104
 21
-61.15604173386008
 31
0.0
  0
LINE
  5
7DD9
330
1E
100
AcDbEntity
  8
18
100
AcDbLine
 10
60.14314900000005
 20
-57.60027500000006
 30
0.0
 11
67.50002900000004
 21
-57.60027500000006
 31
0.0
  0
LINE
  5
7DDA
330
1E
100
AcDbEntity
  8
18
100
AcDbLine
 10
60.88051800000005
 20
-54.30027500000004
 30
0.0
 11
67.50002900000004
 21
-54.30027500000004
 31
0.0
  0
LINE
  5
7DDB
330
1E
100
AcDbEntity
  8
18
100
AcDbLine
 10
61.04901699999999
 20
-59.25027500000004
 30
0.0
 11
67.50002900000004
 21
-59.25027500000004
 31
0.0
  0
LINE
  5
7DDC
330
1E
100
AcDbEntity
  8
18
100
AcDbLine
 10
60.62379400000003
 20
-55.95027500000008
 30
0.0
 11
67.50002900000004
 21
-55.95027500000008
 31
0.0
  0
LINE
  5
7DDD
330
1E
100
AcDbEntity
  8
18
100
AcDbLine
 10
59.60821000000001
 20
-52.65027500000007
 30
0.0
 11
67.50002900000004
 21
-52.65027500000007
 31
0.0
  0
LINE
  5
7DDE
330
1E
100
AcDbEntity
  8
18
100
AcDbLine
 10
67.50002900000004
 20
-52.65027500000007
 30
0.0
 11
67.50002900000004
 21
-54.30027500000004
 31
0.0
  0
LINE
  5
7DDF
330
1E
100
AcDbEntity
  8
18
100
AcDbLine
 10
67.50002900000004
 20
-54.30027500000004
 30
0.0
 11
67.50002900000004
 21
-59.25027500000004
 31
0.0
  0
LINE
  5
7DE0
330
1E
100
AcDbEntity
  8
18
100
AcDbLine
 10
67.50002900000004
 20
-55.32527500000008
 30
0.0
 11
72.50002900000004
 21
-55.32527500000008
 31
0.0
  0
LINE
  5
7DE1
330
1E
100
AcDbEntity
  8
18
100
AcDbLine
 10
67.50002900000004
 20
-55.12527500000004
 30
0.0
 11
72.50002900000004
 21
-55.12527500000004
 31
0.0
  0
LINE
  5
7DE2
330
1E
100
AcDbEntity
  8
18
100
AcDbLine
 10
67.50002900000004
 20
-54.92527500000004
 30
0.0
 11
72.50002900000004
 21
-54.92527500000004
 31
0.0
  0
LINE
  5
7DE3
330
1E
100
AcDbEntity
  8
18
100
AcDbLine
 10
67.50002900000004
 20
-56.57527500000008
 30
0.0
 11
72.50002900000004
 21
-56.57527500000008
 31
0.0
  0
LINE
  5
7DE4
330
1E
100
AcDbEntity
  8
18
100
AcDbLine
 10
67.50002900000004
 20
-56.77527500000007
 30
0.0
 11
72.50002900000004
 21
-56.77527500000007
 31
0.0
  0
LINE
  5
7DE5
330
1E
100
AcDbEntity
  8
18
100
AcDbLine
 10
67.50002900000004
 20
-56.97527500000006
 30
0.0
 11
72.50002900000004
 21
-56.97527500000006
 31
0.0
  0
LINE
  5
7DE6
330
1E
100
AcDbEntity
  8
18
100
AcDbLine
 10
67.50002900000004
 20
-58.22527500000006
 30
0.0
 11
72.50002900000004
 21
-58.22527500000006
 31
0.0
  0
LINE
  5
7DE7
330
1E
100
AcDbEntity
  8
18
100
AcDbLine
 10
67.50002900000004
 20
-58.42527500000005
 30
0.0
 11
72.50002900000004
 21
-58.42527500000005
 31
0.0
  0
LINE
  5
7DE8
330
1E
100
AcDbEntity
  8
18
100
AcDbLine
 10
67.50002900000004
 20
-58.62527500000004
 30
0.0
 11
72.50002900000004
 21
-58.62527500000004
 31
0.0
  0
LINE
  5
7DE9
330
1E
100
AcDbEntity
  8
18
100
AcDbLine
 10
67.50002900000004
 20
-53.27527500000007
 30
0.0
 11
72.50002900000004
 21
-53.27527500000007
 31
0.0
  0
LINE
  5
7DEA
330
1E
100
AcDbEntity
  8
18
100
AcDbLine
 10
67.50002900000004
 20
-53.47527500000006
 30
0.0
 11
72.50002900000004
 21
-53.47527500000006
 31
0.0
  0
LINE
  5
7DEB
330
1E
100
AcDbEntity
  8
18
100
AcDbLine
 10
67.50002900000004
 20
-53.67527500000004
 30
0.0
 11
72.50002900000004
 21
-53.67527500000004
 31
0.0
  0
VIEWPORT
  5
9AC
330
1A
100
AcDbEntity
 67
     1
  8
0
  6
CONTINUOUS
100
AcDbViewport
 10
171.9995348790992
 20
144.1384735538403
 30
0.0
 40
488.8676857773511
 41
292.3514905034161
 68
     1
 69
     1
1001
ACAD
1000
MVIEW
1002
{
1070
    16
1010
0.0
1020
0.0
1030
0.0
1010
0.0
1020
0.0
1030
1.0
1040
0.0
1040
292.3514905034161
1040
171.9995348790992
1040
144.1384735538403
1040
50.0
1040
0.0
1040
0.0
1070
     0
1070
   100
1070
     1
1070
     1
1070
     0
1070
     0
1070
     0
1070
     0
1040
0.0
1040
0.0
1040
0.0
1040
10.0
1040
10.0
1040
10.0
1040
10.0
1070
     0
1002
{
1002
}
1002
}
  0
ENDSEC
  0
SECTION
  2
OBJECTS
  0
DICTIONARY
  5
C
330
0
100
AcDbDictionary
  3
ACAD_GROUP
350
D
  3
ACAD_LAYOUT
350
19
  3
ACAD_MLINESTYLE
350
16
  3
ACAD_PLOTSETTINGS
350
18
  3
ACAD_PLOTSTYLENAME
350
E
  3
ACDBHEADERROUNDTRIPXREC
350
7E00
  3
ACDBVARIABLEDICTIONARY
350
5B5E
  0
DICTIONARY
  5
178
330
1E
100
AcDbDictionary
280
     1
  3
ACAD_LAYOUTSELFREF
360
7E22
  0
DICTIONARY
  5
17A
330
1A
100
AcDbDictionary
280
     1
  3
ACAD_LAYOUTSELFREF
360
7E21
  0
DICTIONARY
  5
D
102
{ACAD_REACTORS
330
C
102
}
330
C
100
AcDbDictionary
  0
DICTIONARY
  5
19
102
{ACAD_REACTORS
330
C
102
}
330
C
100
AcDbDictionary
  0
DICTIONARY
  5
16
102
{ACAD_REACTORS
330
C
102
}
330
C
100
AcDbDictionary
  3
STANDARD
350
17
  0
DICTIONARY
  5
18
102
{ACAD_REACTORS
330
C
102
}
330
C
100
AcDbDictionary
  0
ACDBDICTIONARYWDFLT
  5
E
102
{ACAD_REACTORS
330
C
102
}
330
C
100
AcDbDictionary
281
     1
  3
Normal
350
F
100
AcDbDictionaryWithDefault
340
F
  0
DICTIONARY
  5
7E00
102
{ACAD_REACTORS
330
C
102
}
330
C
100
AcDbDictionary
  3
CEPSNTYPE
350
7E0A
  3
DIMSTYLEDATA
350
7E0E
  3
FINGERPRINTGUID
350
7E0B
  3
HYPERLINKBASE
350
7E03
  3
INSUNITS
350
7E09
  3
LAYOUTDICT
350
7E05
  3
LWETCUNION
350
7E08
  3
PLOTSETDICT
350
7E06
  3
PLOTSTYLNAMDICT
350
7E07
  3
PSVPSCALE
350
7E0D
  3
PUCSBASE
350
7E11
  3
PUCSORGBACK
350
7E17
  3
PUCSORGBOTTOM
350
7E13
  3
PUCSORGFRONT
350
7E16
  3
PUCSORGLEFT
350
7E14
  3
PUCSORGRIGHT
350
7E15
  3
PUCSORGTOP
350
7E12
  3
PUCSORTHOREF
350
7E0F
  3
PUCSORTHOVIEW
350
7E10
  3
STYLESHEET
350
7E04
  3
TSTACKALIGN
350
7E01
  3
TSTACKSIZE
350
7E02
  3
UCSBASE
350
7E1A
  3
UCSORGBACK
350
7E20
  3
UCSORGBOTTOM
350
7E1C
  3
UCSORGFRONT
350
7E1F
  3
UCSORGLEFT
350
7E1D
  3
UCSORGRIGHT
350
7E1E
  3
UCSORGTOP
350
7E1B
  3
UCSORTHOREF
350
7E18
  3
UCSORTHOVIEW
350
7E19
  3
VERSIONGUID
350
7E0C
  0
DICTIONARY
  5
5B5E
102
{ACAD_REACTORS
330
C
102
}
330
C
100
AcDbDictionary
  3
DIMASSOC
350
5B5F
  0
XRECORD
  5
7E22
102
{ACAD_REACTORS
330
178
102
}
330
178
100
AcDbXrecord
340
1E
  0
XRECORD
  5
7E21
102
{ACAD_REACTORS
330
17A
102
}
330
17A
100
AcDbXrecord
340
1A
  0
MLINESTYLE
  5
17
102
{ACAD_REACTORS
330
16
102
}
330
16
100
AcDbMlineStyle
  2
STANDARD
 70
     0
  3

 62
   256
 51
90.0
 52
90.0
 71
     2
 49
0.5
 62
   256
  6
BYLAYER
 49
-0.5
 62
   256
  6
BYLAYER
  0
ACDBPLACEHOLDER
  5
F
102
{ACAD_REACTORS
330
E
102
}
330
E
100
AcDbPlaceHolder
280
     0
  0
XRECORD
  5
7E0A
102
{ACAD_REACTORS
330
7E00
102
}
330
7E00
100
AcDbXrecord
 90
        0
  0
XRECORD
  5
7E0E
102
{ACAD_REACTORS
330
7E00
102
}
330
7E00
100
AcDbXrecord
1000
DSTYLE
1002
{
1070
    79
 70
     3
1070
   341
340
3B2
1070
   342
340
3B2
1002
}
  0
XRECORD
  5
7E0B
102
{ACAD_REACTORS
330
7E00
102
}
330
7E00
100
AcDbXrecord
  1

  0
XRECORD
  5
7E03
102
{ACAD_REACTORS
330
7E00
102
}
330
7E00
100
AcDbXrecord
  1

  0
XRECORD
  5
7E09
102
{ACAD_REACTORS
330
7E00
102
}
330
7E00
100
AcDbXrecord
 90
        0
  0
XRECORD
  5
7E05
102
{ACAD_REACTORS
330
7E00
102
}
330
7E00
100
AcDbXrecord
340
19
  0
XRECORD
  5
7E08
102
{ACAD_REACTORS
330
7E00
102
}
330
7E00
100
AcDbXrecord
 90
    10781
  0
XRECORD
  5
7E06
102
{ACAD_REACTORS
330
7E00
102
}
330
7E00
100
AcDbXrecord
340
18
  0
XRECORD
  5
7E07
102
{ACAD_REACTORS
330
7E00
102
}
330
7E00
100
AcDbXrecord
340
E
  0
XRECORD
  5
7E0D
102
{ACAD_REACTORS
330
7E00
102
}
330
7E00
100
AcDbXrecord
 40
0.0
  0
XRECORD
  5
7E11
102
{ACAD_REACTORS
330
7E00
102
}
330
7E00
100
AcDbXrecord
340
0
  0
XRECORD
  5
7E17
102
{ACAD_REACTORS
330
7E00
102
}
330
7E00
100
AcDbXrecord
 10
0.0
 20
0.0
 30
0.0
  0
XRECORD
  5
7E13
102
{ACAD_REACTORS
330
7E00
102
}
330
7E00
100
AcDbXrecord
 10
0.0
 20
0.0
 30
0.0
  0
XRECORD
  5
7E16
102
{ACAD_REACTORS
330
7E00
102
}
330
7E00
100
AcDbXrecord
 10
0.0
 20
0.0
 30
0.0
  0
XRECORD
  5
7E14
102
{ACAD_REACTORS
330
7E00
102
}
330
7E00
100
AcDbXrecord
 10
0.0
 20
0.0
 30
0.0
  0
XRECORD
  5
7E15
102
{ACAD_REACTORS
330
7E00
102
}
330
7E00
100
AcDbXrecord
 10
0.0
 20
0.0
 30
0.0
  0
XRECORD
  5
7E12
102
{ACAD_REACTORS
330
7E00
102
}
330
7E00
100
AcDbXrecord
 10
0.0
 20
0.0
 30
0.0
  0
XRECORD
  5
7E0F
102
{ACAD_REACTORS
330
7E00
102
}
330
7E00
100
AcDbXrecord
340
0
  0
XRECORD
  5
7E10
102
{ACAD_REACTORS
330
7E00
102
}
330
7E00
100
AcDbXrecord
 70
     0
  0
XRECORD
  5
7E04
102
{ACAD_REACTORS
330
7E00
102
}
330
7E00
100
AcDbXrecord
  1
kiki.ctb
  0
XRECORD
  5
7E01
102
{ACAD_REACTORS
330
7E00
102
}
330
7E00
100
AcDbXrecord
 90
        1
  0
XRECORD
  5
7E02
102
{ACAD_REACTORS
330
7E00
102
}
330
7E00
100
AcDbXrecord
 90
       70
  0
XRECORD
  5
7E1A
102
{ACAD_REACTORS
330
7E00
102
}
330
7E00
100
AcDbXrecord
340
0
  0
XRECORD
  5
7E20
102
{ACAD_REACTORS
330
7E00
102
}
330
7E00
100
AcDbXrecord
 10
0.0
 20
0.0
 30
0.0
  0
XRECORD
  5
7E1C
102
{ACAD_REACTORS
330
7E00
102
}
330
7E00
100
AcDbXrecord
 10
0.0
 20
0.0
 30
0.0
  0
XRECORD
  5
7E1F
102
{ACAD_REACTORS
330
7E00
102
}
330
7E00
100
AcDbXrecord
 10
0.0
 20
0.0
 30
0.0
  0
XRECORD
  5
7E1D
102
{ACAD_REACTORS
330
7E00
102
}
330
7E00
100
AcDbXrecord
 10
0.0
 20
0.0
 30
0.0
  0
XRECORD
  5
7E1E
102
{ACAD_REACTORS
330
7E00
102
}
330
7E00
100
AcDbXrecord
 10
0.0
 20
0.0
 30
0.0
  0
XRECORD
  5
7E1B
102
{ACAD_REACTORS
330
7E00
102
}
330
7E00
100
AcDbXrecord
 10
0.0
 20
0.0
 30
0.0
  0
XRECORD
  5
7E18
102
{ACAD_REACTORS
330
7E00
102
}
330
7E00
100
AcDbXrecord
340
0
  0
XRECORD
  5
7E19
102
{ACAD_REACTORS
330
7E00
102
}
330
7E00
100
AcDbXrecord
 70
     0
  0
XRECORD
  5
7E0C
102
{ACAD_REACTORS
330
7E00
102
}
330
7E00
100
AcDbXrecord
  1
{FC1C2137-F428-417F-AB64-2ED4E0D1BEBC}
  0
DICTIONARYVAR
  5
5B5F
102
{ACAD_REACTORS
330
5B5E
102
}
330
5B5E
100
DictionaryVariables
280
     0
  1
1
  0
ENDSEC
  0
EOF
