  0
SECTION
  2
HEADER
  9
$ACADVER
  1
AC1014
  9
$ACADMAINTVER
 70
     9
  9
$DWGCODEPAGE
  3
ANSI_932
  9
$INSBASE
 10
0.0
 20
0.0
 30
0.0
  9
$EXTMIN
 10
-83.96411608460175
 20
-348.6359603755261
 30
-0.0000000000000053
  9
$EXTMAX
 10
252.3232547581196
 20
191.6862071976417
 30
0.00000000000001
  9
$LIMMIN
 10
-296.316999476111
 20
-370.7034300441653
  9
$LIMMAX
 10
623.3128432133979
 20
328.6261559379898
  9
$ORTHOMODE
 70
     0
  9
$REGENMODE
 70
     1
  9
$FILLMODE
 70
     1
  9
$QTEXTMODE
 70
     0
  9
$MIRRTEXT
 70
     1
  9
$DRAGMODE
 70
     2
  9
$LTSCALE
 40
8.0
  9
$OSMODE
 70
    37
  9
$ATTMODE
 70
     1
  9
$TEXTSIZE
 40
5.0
  9
$TRACEWID
 40
0.05
  9
$TEXTSTYLE
  7
STANDARD1
  9
$CLAYER
  8
30
  9
$CELTYPE
  6
CONTINUOUS
  9
$CECOLOR
 62
   256
  9
$CELTSCALE
 40
1.0
  9
$DELOBJ
 70
     1
  9
$DISPSILH
 70
     0
  9
$DIMSCALE
 40
1.0
  9
$DIMASZ
 40
2.0
  9
$DIMEXO
 40
1.0
  9
$DIMDLI
 40
0.5
  9
$DIMRND
 40
0.0
  9
$DIMDLE
 40
0.0
  9
$DIMEXE
 40
0.5
  9
$DIMTP
 40
0.0
  9
$DIMTM
 40
0.0
  9
$DIMTXT
 40
4.0
  9
$DIMCEN
 40
0.09
  9
$DIMTSZ
 40
0.0
  9
$DIMTOL
 70
     0
  9
$DIMLIM
 70
     0
  9
$DIMTIH
 70
     0
  9
$DIMTOH
 70
     1
  9
$DIMSE1
 70
     0
  9
$DIMSE2
 70
     0
  9
$DIMTAD
 70
     3
  9
$DIMZIN
 70
    12
  9
$DIMBLK
  1
OPEN
  9
$DIMASO
 70
     1
  9
$DIMSHO
 70
     1
  9
$DIMPOST
  1

  9
$DIMAPOST
  1

  9
$DIMALT
 70
     0
  9
$DIMALTD
 70
     2
  9
$DIMALTF
 40
25.4
  9
$DIMLFAC
 40
1.0
  9
$DIMTOFL
 70
     0
  9
$DIMTVP
 40
0.0
  9
$DIMTIX
 70
     0
  9
$DIMSOXD
 70
     0
  9
$DIMSAH
 70
     0
  9
$DIMBLK1
  1

  9
$DIMBLK2
  1

  9
$DIMSTYLE
  2
STANDARD
  9
$DIMCLRD
 70
     0
  9
$DIMCLRE
 70
     0
  9
$DIMCLRT
 70
     0
  9
$DIMTFAC
 40
1.0
  9
$DIMGAP
 40
1.0
  9
$DIMJUST
 70
     0
  9
$DIMSD1
 70
     0
  9
$DIMSD2
 70
     0
  9
$DIMTOLJ
 70
     1
  9
$DIMTZIN
 70
     0
  9
$DIMALTZ
 70
     0
  9
$DIMALTTZ
 70
     0
  9
$DIMFIT
 70
     3
  9
$DIMUPT
 70
     0
  9
$DIMUNIT
 70
     2
  9
$DIMDEC
 70
     1
  9
$DIMTDEC
 70
     1
  9
$DIMALTU
 70
     2
  9
$DIMALTTD
 70
     2
  9
$DIMTXSTY
  7
STANDARD
  9
$DIMAUNIT
 70
     0
  9
$LUNITS
 70
     2
  9
$LUPREC
 70
     4
  9
$SKETCHINC
 40
0.1
  9
$FILLETRAD
 40
0.0
  9
$AUNITS
 70
     0
  9
$AUPREC
 70
     0
  9
$MENU
  1
.
  9
$ELEVATION
 40
0.0
  9
$PELEVATION
 40
0.0
  9
$THICKNESS
 40
0.0
  9
$LIMCHECK
 70
     0
  9
$BLIPMODE
 70
     0
  9
$CHAMFERA
 40
0.0
  9
$CHAMFERB
 40
0.0
  9
$CHAMFERC
 40
0.0
  9
$CHAMFERD
 40
0.0
  9
$SKPOLY
 70
     0
  9
$TDCREATE
 40
2452286.555658657
  9
$TDUPDATE
 40
2453167.512594212
  9
$TDINDWG
 40
1.2956571528
  9
$TDUSRTIMER
 40
1.2956560532
  9
$USRTIMER
 70
     1
  9
$ANGBASE
 50
0.0
  9
$ANGDIR
 70
     0
  9
$PDMODE
 70
     0
  9
$PDSIZE
 40
0.0
  9
$PLINEWID
 40
0.0
  9
$COORDS
 70
     2
  9
$SPLFRAME
 70
     0
  9
$SPLINETYPE
 70
     6
  9
$SPLINESEGS
 70
     8
  9
$ATTDIA
 70
     0
  9
$ATTREQ
 70
     1
  9
$HANDLING
 70
 22529
  9
$HANDSEED
  5
8A7C
  9
$SURFTAB1
 70
     6
  9
$SURFTAB2
 70
     6
  9
$SURFTYPE
 70
     6
  9
$SURFU
 70
     6
  9
$SURFV
 70
     6
  9
$UCSNAME
  2

  9
$UCSORG
 10
0.0
 20
0.0
 30
0.0
  9
$UCSXDIR
 10
1.0
 20
0.0
 30
0.0
  9
$UCSYDIR
 10
0.0
 20
1.0
 30
0.0
  9
$PUCSNAME
  2

  9
$PUCSORG
 10
0.0
 20
0.0
 30
0.0
  9
$PUCSXDIR
 10
1.0
 20
0.0
 30
0.0
  9
$PUCSYDIR
 10
0.0
 20
1.0
 30
0.0
  9
$USERI1
 70
     0
  9
$USERI2
 70
     0
  9
$USERI3
 70
     0
  9
$USERI4
 70
     0
  9
$USERI5
 70
     0
  9
$USERR1
 40
0.0
  9
$USERR2
 40
0.0
  9
$USERR3
 40
0.0
  9
$USERR4
 40
0.0
  9
$USERR5
 40
0.0
  9
$WORLDVIEW
 70
     1
  9
$SHADEDGE
 70
     3
  9
$SHADEDIF
 70
    70
  9
$TILEMODE
 70
     1
  9
$MAXACTVP
 70
    48
  9
$PINSBASE
 10
0.0
 20
0.0
 30
0.0
  9
$PLIMCHECK
 70
     0
  9
$PEXTMIN
 10
4.273573
 20
5.205245999999998
 30
0.0
  9
$PEXTMAX
 10
194.610095
 20
283.0697009999996
 30
0.0
  9
$PLIMMIN
 10
-5.873749
 20
-5.87375
  9
$PLIMMAX
 10
204.099579
 20
291.1369009999999
  9
$UNITMODE
 70
     0
  9
$VISRETAIN
 70
     1
  9
$PLINEGEN
 70
     0
  9
$PSLTSCALE
 70
     1
  9
$TREEDEPTH
 70
  3020
  9
$PICKSTYLE
 70
     1
  9
$CMLSTYLE
  2
STANDARD
  9
$CMLJUST
 70
     0
  9
$CMLSCALE
 40
1.0
  9
$PROXYGRAPHICS
 70
     1
  9
$MEASUREMENT
 70
     0
  0
ENDSEC
  0
SECTION
  2
CLASSES
  0
CLASS
  1
ACDBDICTIONARYWDFLT
  2
AcDbDictionaryWithDefault
  3
AutoCAD 2000
 90
        0
280
     0
281
     0
  0
CLASS
  1
ACDBPLACEHOLDER
  2
AcDbPlaceHolder
  3
AutoCAD 2000
 90
        0
280
     0
281
     0
  0
CLASS
  1
LAYOUT
  2
AcDbLayout
  3
AutoCAD 2000
 90
        0
280
     0
281
     0
  0
CLASS
  1
LONG_TRANSACTION
  2
AcDbLongTransaction
  3
AutoCAD 2000
 90
        0
280
     0
281
     0
  0
CLASS
  1
LWPOLYLINE
  2
AcDbPolyline
  3
AutoCAD 2000
 90
        0
280
     0
281
     1
  0
CLASS
  1
HATCH
  2
AcDbHatch
  3
AutoCAD 2000
 90
        0
280
     0
281
     1
  0
CLASS
  1
XRECORD
  2
AcDbXrecord
  3
AutoCAD 2000
 90
        0
280
     0
281
     0
  0
CLASS
  1
LONG_TRANSACTION
  2
AcDbLongTransaction
  3
AutoCAD 2000
 90
        0
280
     0
281
     0
  0
CLASS
  1
LWPOLYLINE
  2
AcDbPolyline
  3
AutoCAD 2000
 90
        0
280
     0
281
     1
  0
CLASS
  1
HATCH
  2
AcDbHatch
  3
AutoCAD 2000
 90
        0
280
     0
281
     1
  0
CLASS
  1
XRECORD
  2
AcDbXrecord
  3
AutoCAD 2000
 90
        0
280
     0
281
     0
  0
CLASS
  1
LONG_TRANSACTION
  2
AcDbLongTransaction
  3
AutoCAD 2000
 90
        0
280
     0
281
     0
  0
CLASS
  1
LWPOLYLINE
  2
AcDbPolyline
  3
AutoCAD 2000
 90
        0
280
     0
281
     1
  0
CLASS
  1
HATCH
  2
AcDbHatch
  3
AutoCAD 2000
 90
        0
280
     0
281
     1
  0
CLASS
  1
XRECORD
  2
AcDbXrecord
  3
AutoCAD 2000
 90
        0
280
     0
281
     0
  0
CLASS
  1
LONG_TRANSACTION
  2
AcDbLongTransaction
  3
AutoCAD 2000
 90
        0
280
     0
281
     0
  0
CLASS
  1
LWPOLYLINE
  2
AcDbPolyline
  3
AutoCAD 2000
 90
        0
280
     0
281
     1
  0
CLASS
  1
HATCH
  2
AcDbHatch
  3
AutoCAD 2000
 90
        0
280
     0
281
     1
  0
CLASS
  1
XRECORD
  2
AcDbXrecord
  3
AutoCAD 2000
 90
        0
280
     0
281
     0
  0
CLASS
  1
LONG_TRANSACTION
  2
AcDbLongTransaction
  3
AutoCAD 2000
 90
        0
280
     0
281
     0
  0
CLASS
  1
LWPOLYLINE
  2
AcDbPolyline
  3
AutoCAD 2000
 90
        0
280
     0
281
     1
  0
CLASS
  1
HATCH
  2
AcDbHatch
  3
AutoCAD 2000
 90
        0
280
     0
281
     1
  0
CLASS
  1
XRECORD
  2
AcDbXrecord
  3
AutoCAD 2000
 90
        0
280
     0
281
     0
  0
CLASS
  1
LONG_TRANSACTION
  2
AcDbLongTransaction
  3
AutoCAD 2000
 90
        0
280
     0
281
     0
  0
CLASS
  1
LWPOLYLINE
  2
AcDbPolyline
  3
AutoCAD 2000
 90
        0
280
     0
281
     1
  0
CLASS
  1
HATCH
  2
AcDbHatch
  3
AutoCAD 2000
 90
        0
280
     0
281
     1
  0
CLASS
  1
XRECORD
  2
AcDbXrecord
  3
AutoCAD 2000
 90
        0
280
     0
281
     0
  0
CLASS
  1
LONG_TRANSACTION
  2
AcDbLongTransaction
  3
AutoCAD 2000
 90
        0
280
     0
281
     0
  0
CLASS
  1
LWPOLYLINE
  2
AcDbPolyline
  3
AutoCAD 2000
 90
        0
280
     0
281
     1
  0
CLASS
  1
HATCH
  2
AcDbHatch
  3
AutoCAD 2000
 90
        0
280
     0
281
     1
  0
CLASS
  1
XRECORD
  2
AcDbXrecord
  3
AutoCAD 2000
 90
        0
280
     0
281
     0
  0
CLASS
  1
LONG_TRANSACTION
  2
AcDbLongTransaction
  3
AutoCAD 2000
 90
        0
280
     0
281
     0
  0
CLASS
  1
LWPOLYLINE
  2
AcDbPolyline
  3
AutoCAD 2000
 90
        0
280
     0
281
     1
  0
CLASS
  1
HATCH
  2
AcDbHatch
  3
AutoCAD 2000
 90
        0
280
     0
281
     1
  0
CLASS
  1
XRECORD
  2
AcDbXrecord
  3
AutoCAD 2000
 90
        0
280
     0
281
     0
  0
CLASS
  1
LONG_TRANSACTION
  2
AcDbLongTransaction
  3
AutoCAD 2000
 90
        0
280
     0
281
     0
  0
CLASS
  1
LWPOLYLINE
  2
AcDbPolyline
  3
AutoCAD 2000
 90
        0
280
     0
281
     1
  0
CLASS
  1
HATCH
  2
AcDbHatch
  3
AutoCAD 2000
 90
        0
280
     0
281
     1
  0
CLASS
  1
XRECORD
  2
AcDbXrecord
  3
AutoCAD 2000
 90
        0
280
     0
281
     0
  0
CLASS
  1
LONG_TRANSACTION
  2
AcDbLongTransaction
  3
AutoCAD 2000
 90
        0
280
     0
281
     0
  0
CLASS
  1
LWPOLYLINE
  2
AcDbPolyline
  3
AutoCAD 2000
 90
        0
280
     0
281
     1
  0
CLASS
  1
HATCH
  2
AcDbHatch
  3
AutoCAD 2000
 90
        0
280
     0
281
     1
  0
CLASS
  1
XRECORD
  2
AcDbXrecord
  3
AutoCAD 2000
 90
        0
280
     0
281
     0
  0
CLASS
  1
LONG_TRANSACTION
  2
AcDbLongTransaction
  3
AutoCAD 2000
 90
        0
280
     0
281
     0
  0
CLASS
  1
LWPOLYLINE
  2
AcDbPolyline
  3
AutoCAD 2000
 90
        0
280
     0
281
     1
  0
CLASS
  1
HATCH
  2
AcDbHatch
  3
AutoCAD 2000
 90
        0
280
     0
281
     1
  0
CLASS
  1
XRECORD
  2
AcDbXrecord
  3
AutoCAD 2000
 90
        0
280
     0
281
     0
  0
CLASS
  1
LONG_TRANSACTION
  2
AcDbLongTransaction
  3
AutoCAD 2000
 90
        0
280
     0
281
     0
  0
CLASS
  1
LWPOLYLINE
  2
AcDbPolyline
  3
AutoCAD 2000
 90
        0
280
     0
281
     1
  0
CLASS
  1
HATCH
  2
AcDbHatch
  3
AutoCAD 2000
 90
        0
280
     0
281
     1
  0
CLASS
  1
XRECORD
  2
AcDbXrecord
  3
AutoCAD 2000
 90
        0
280
     0
281
     0
  0
CLASS
  1
LONG_TRANSACTION
  2
AcDbLongTransaction
  3
AutoCAD 2000
 90
        0
280
     0
281
     0
  0
CLASS
  1
LWPOLYLINE
  2
AcDbPolyline
  3
AutoCAD 2000
 90
        0
280
     0
281
     1
  0
CLASS
  1
HATCH
  2
AcDbHatch
  3
AutoCAD 2000
 90
        0
280
     0
281
     1
  0
CLASS
  1
XRECORD
  2
AcDbXrecord
  3
AutoCAD 2000
 90
        0
280
     0
281
     0
  0
CLASS
  1
LONG_TRANSACTION
  2
AcDbLongTransaction
  3
AutoCAD 2000
 90
        0
280
     0
281
     0
  0
CLASS
  1
LWPOLYLINE
  2
AcDbPolyline
  3
AutoCAD 2000
 90
        0
280
     0
281
     1
  0
CLASS
  1
HATCH
  2
AcDbHatch
  3
AutoCAD 2000
 90
        0
280
     0
281
     1
  0
CLASS
  1
XRECORD
  2
AcDbXrecord
  3
AutoCAD 2000
 90
        0
280
     0
281
     0
  0
CLASS
  1
LONG_TRANSACTION
  2
AcDbLongTransaction
  3
AutoCAD 2000
 90
        0
280
     0
281
     0
  0
CLASS
  1
LWPOLYLINE
  2
AcDbPolyline
  3
AutoCAD 2000
 90
        0
280
     0
281
     1
  0
CLASS
  1
HATCH
  2
AcDbHatch
  3
AutoCAD 2000
 90
        0
280
     0
281
     1
  0
CLASS
  1
XRECORD
  2
AcDbXrecord
  3
AutoCAD 2000
 90
        0
280
     0
281
     0
  0
CLASS
  1
LONG_TRANSACTION
  2
AcDbLongTransaction
  3
AutoCAD 2000
 90
        0
280
     0
281
     0
  0
CLASS
  1
LWPOLYLINE
  2
AcDbPolyline
  3
AutoCAD 2000
 90
        0
280
     0
281
     1
  0
CLASS
  1
HATCH
  2
AcDbHatch
  3
AutoCAD 2000
 90
        0
280
     0
281
     1
  0
CLASS
  1
XRECORD
  2
AcDbXrecord
  3
AutoCAD 2000
 90
        0
280
     0
281
     0
  0
CLASS
  1
LONG_TRANSACTION
  2
AcDbLongTransaction
  3
AutoCAD 2000
 90
        0
280
     0
281
     0
  0
CLASS
  1
LWPOLYLINE
  2
AcDbPolyline
  3
AutoCAD 2000
 90
        0
280
     0
281
     1
  0
CLASS
  1
HATCH
  2
AcDbHatch
  3
AutoCAD 2000
 90
        0
280
     0
281
     1
  0
CLASS
  1
XRECORD
  2
AcDbXrecord
  3
AutoCAD 2000
 90
        0
280
     0
281
     0
  0
CLASS
  1
LONG_TRANSACTION
  2
AcDbLongTransaction
  3
AutoCAD 2000
 90
        0
280
     0
281
     0
  0
CLASS
  1
LWPOLYLINE
  2
AcDbPolyline
  3
AutoCAD 2000
 90
        0
280
     0
281
     1
  0
CLASS
  1
HATCH
  2
AcDbHatch
  3
AutoCAD 2000
 90
        0
280
     0
281
     1
  0
CLASS
  1
XRECORD
  2
AcDbXrecord
  3
AutoCAD 2000
 90
        0
280
     0
281
     0
  0
CLASS
  1
LONG_TRANSACTION
  2
AcDbLongTransaction
  3
AutoCAD 2000
 90
        0
280
     0
281
     0
  0
CLASS
  1
LWPOLYLINE
  2
AcDbPolyline
  3
AutoCAD 2000
 90
        0
280
     0
281
     1
  0
CLASS
  1
HATCH
  2
AcDbHatch
  3
AutoCAD 2000
 90
        0
280
     0
281
     1
  0
CLASS
  1
XRECORD
  2
AcDbXrecord
  3
AutoCAD 2000
 90
        0
280
     0
281
     0
  0
CLASS
  1
LONG_TRANSACTION
  2
AcDbLongTransaction
  3
AutoCAD 2000
 90
        0
280
     0
281
     0
  0
CLASS
  1
LWPOLYLINE
  2
AcDbPolyline
  3
AutoCAD 2000
 90
        0
280
     0
281
     1
  0
CLASS
  1
HATCH
  2
AcDbHatch
  3
AutoCAD 2000
 90
        0
280
     0
281
     1
  0
CLASS
  1
XRECORD
  2
AcDbXrecord
  3
AutoCAD 2000
 90
        0
280
     0
281
     0
  0
CLASS
  1
LONG_TRANSACTION
  2
AcDbLongTransaction
  3
AutoCAD 2000
 90
        0
280
     0
281
     0
  0
CLASS
  1
LWPOLYLINE
  2
AcDbPolyline
  3
AutoCAD 2000
 90
        0
280
     0
281
     1
  0
CLASS
  1
HATCH
  2
AcDbHatch
  3
AutoCAD 2000
 90
        0
280
     0
281
     1
  0
CLASS
  1
XRECORD
  2
AcDbXrecord
  3
AutoCAD 2000
 90
        0
280
     0
281
     0
  0
CLASS
  1
LONG_TRANSACTION
  2
AcDbLongTransaction
  3
AutoCAD 2000
 90
        0
280
     0
281
     0
  0
CLASS
  1
LWPOLYLINE
  2
AcDbPolyline
  3
AutoCAD 2000
 90
        0
280
     0
281
     1
  0
CLASS
  1
HATCH
  2
AcDbHatch
  3
AutoCAD 2000
 90
        0
280
     0
281
     1
  0
CLASS
  1
XRECORD
  2
AcDbXrecord
  3
AutoCAD 2000
 90
        0
280
     0
281
     0
  0
CLASS
  1
LONG_TRANSACTION
  2
AcDbLongTransaction
  3
AutoCAD 2000
 90
        0
280
     0
281
     0
  0
CLASS
  1
LWPOLYLINE
  2
AcDbPolyline
  3
AutoCAD 2000
 90
        0
280
     0
281
     1
  0
CLASS
  1
HATCH
  2
AcDbHatch
  3
AutoCAD 2000
 90
        0
280
     0
281
     1
  0
CLASS
  1
XRECORD
  2
AcDbXrecord
  3
AutoCAD 2000
 90
        0
280
     0
281
     0
  0
CLASS
  1
LONG_TRANSACTION
  2
AcDbLongTransaction
  3
AutoCAD 2000
 90
        0
280
     0
281
     0
  0
CLASS
  1
LWPOLYLINE
  2
AcDbPolyline
  3
AutoCAD 2000
 90
        0
280
     0
281
     1
  0
CLASS
  1
HATCH
  2
AcDbHatch
  3
AutoCAD 2000
 90
        0
280
     0
281
     1
  0
CLASS
  1
XRECORD
  2
AcDbXrecord
  3
AutoCAD 2000
 90
        0
280
     0
281
     0
  0
CLASS
  1
LONG_TRANSACTION
  2
AcDbLongTransaction
  3
AutoCAD 2000
 90
        0
280
     0
281
     0
  0
CLASS
  1
LWPOLYLINE
  2
AcDbPolyline
  3
AutoCAD 2000
 90
        0
280
     0
281
     1
  0
CLASS
  1
HATCH
  2
AcDbHatch
  3
AutoCAD 2000
 90
        0
280
     0
281
     1
  0
CLASS
  1
XRECORD
  2
AcDbXrecord
  3
AutoCAD 2000
 90
        0
280
     0
281
     0
  0
CLASS
  1
LONG_TRANSACTION
  2
AcDbLongTransaction
  3
AutoCAD 2000
 90
        0
280
     0
281
     0
  0
CLASS
  1
LWPOLYLINE
  2
AcDbPolyline
  3
AutoCAD 2000
 90
        0
280
     0
281
     1
  0
CLASS
  1
HATCH
  2
AcDbHatch
  3
AutoCAD 2000
 90
        0
280
     0
281
     1
  0
CLASS
  1
XRECORD
  2
AcDbXrecord
  3
AutoCAD 2000
 90
        0
280
     0
281
     0
  0
CLASS
  1
LONG_TRANSACTION
  2
AcDbLongTransaction
  3
AutoCAD 2000
 90
        0
280
     0
281
     0
  0
CLASS
  1
LWPOLYLINE
  2
AcDbPolyline
  3
AutoCAD 2000
 90
        0
280
     0
281
     1
  0
CLASS
  1
HATCH
  2
AcDbHatch
  3
AutoCAD 2000
 90
        0
280
     0
281
     1
  0
CLASS
  1
XRECORD
  2
AcDbXrecord
  3
AutoCAD 2000
 90
        0
280
     0
281
     0
  0
CLASS
  1
LONG_TRANSACTION
  2
AcDbLongTransaction
  3
AutoCAD 2000
 90
        0
280
     0
281
     0
  0
CLASS
  1
LWPOLYLINE
  2
AcDbPolyline
  3
AutoCAD 2000
 90
        0
280
     0
281
     1
  0
CLASS
  1
HATCH
  2
AcDbHatch
  3
AutoCAD 2000
 90
        0
280
     0
281
     1
  0
CLASS
  1
XRECORD
  2
AcDbXrecord
  3
AutoCAD 2000
 90
        0
280
     0
281
     0
  0
CLASS
  1
LONG_TRANSACTION
  2
AcDbLongTransaction
  3
AutoCAD 2000
 90
        0
280
     0
281
     0
  0
CLASS
  1
LWPOLYLINE
  2
AcDbPolyline
  3
AutoCAD 2000
 90
        0
280
     0
281
     1
  0
CLASS
  1
HATCH
  2
AcDbHatch
  3
AutoCAD 2000
 90
        0
280
     0
281
     1
  0
CLASS
  1
XRECORD
  2
AcDbXrecord
  3
AutoCAD 2000
 90
        0
280
     0
281
     0
  0
CLASS
  1
LONG_TRANSACTION
  2
AcDbLongTransaction
  3
AutoCAD 2000
 90
        0
280
     0
281
     0
  0
CLASS
  1
LWPOLYLINE
  2
AcDbPolyline
  3
AutoCAD 2000
 90
        0
280
     0
281
     1
  0
CLASS
  1
HATCH
  2
AcDbHatch
  3
AutoCAD 2000
 90
        0
280
     0
281
     1
  0
CLASS
  1
XRECORD
  2
AcDbXrecord
  3
AutoCAD 2000
 90
        0
280
     0
281
     0
  0
CLASS
  1
LONG_TRANSACTION
  2
AcDbLongTransaction
  3
AutoCAD 2000
 90
        0
280
     0
281
     0
  0
CLASS
  1
LWPOLYLINE
  2
AcDbPolyline
  3
AutoCAD 2000
 90
        0
280
     0
281
     1
  0
CLASS
  1
HATCH
  2
AcDbHatch
  3
AutoCAD 2000
 90
        0
280
     0
281
     1
  0
CLASS
  1
XRECORD
  2
AcDbXrecord
  3
AutoCAD 2000
 90
        0
280
     0
281
     0
  0
CLASS
  1
LONG_TRANSACTION
  2
AcDbLongTransaction
  3
AutoCAD 2000
 90
        0
280
     0
281
     0
  0
CLASS
  1
LWPOLYLINE
  2
AcDbPolyline
  3
AutoCAD 2000
 90
        0
280
     0
281
     1
  0
CLASS
  1
HATCH
  2
AcDbHatch
  3
AutoCAD 2000
 90
        0
280
     0
281
     1
  0
CLASS
  1
XRECORD
  2
AcDbXrecord
  3
AutoCAD 2000
 90
        0
280
     0
281
     0
  0
CLASS
  1
LONG_TRANSACTION
  2
AcDbLongTransaction
  3
AutoCAD 2000
 90
        0
280
     0
281
     0
  0
CLASS
  1
LWPOLYLINE
  2
AcDbPolyline
  3
AutoCAD 2000
 90
        0
280
     0
281
     1
  0
CLASS
  1
HATCH
  2
AcDbHatch
  3
AutoCAD 2000
 90
        0
280
     0
281
     1
  0
CLASS
  1
XRECORD
  2
AcDbXrecord
  3
AutoCAD 2000
 90
        0
280
     0
281
     0
  0
CLASS
  1
DICTIONARYVAR
  2
AcDbDictionaryVar
  3
AutoCAD 2000
 90
        0
280
     0
281
     0
  0
CLASS
  1
LONG_TRANSACTION
  2
AcDbLongTransaction
  3
AutoCAD 2000
 90
        0
280
     0
281
     0
  0
CLASS
  1
LWPOLYLINE
  2
AcDbPolyline
  3
AutoCAD 2000
 90
        0
280
     0
281
     1
  0
CLASS
  1
HATCH
  2
AcDbHatch
  3
AutoCAD 2000
 90
        0
280
     0
281
     1
  0
CLASS
  1
XRECORD
  2
AcDbXrecord
  3
AutoCAD 2000
 90
        0
280
     0
281
     0
  0
CLASS
  1
LONG_TRANSACTION
  2
AcDbLongTransaction
  3
AutoCAD 2000
 90
        0
280
     0
281
     0
  0
CLASS
  1
LWPOLYLINE
  2
AcDbPolyline
  3
AutoCAD 2000
 90
        0
280
     0
281
     1
  0
CLASS
  1
HATCH
  2
AcDbHatch
  3
AutoCAD 2000
 90
        0
280
     0
281
     1
  0
CLASS
  1
XRECORD
  2
AcDbXrecord
  3
AutoCAD 2000
 90
        0
280
     0
281
     0
  0
CLASS
  1
LONG_TRANSACTION
  2
AcDbLongTransaction
  3
AutoCAD 2000
 90
        0
280
     0
281
     0
  0
CLASS
  1
LWPOLYLINE
  2
AcDbPolyline
  3
AutoCAD 2000
 90
        0
280
     0
281
     1
  0
CLASS
  1
HATCH
  2
AcDbHatch
  3
AutoCAD 2000
 90
        0
280
     0
281
     1
  0
CLASS
  1
XRECORD
  2
AcDbXrecord
  3
AutoCAD 2000
 90
        0
280
     0
281
     0
  0
CLASS
  1
LONG_TRANSACTION
  2
AcDbLongTransaction
  3
AutoCAD 2000
 90
        0
280
     0
281
     0
  0
CLASS
  1
LWPOLYLINE
  2
AcDbPolyline
  3
AutoCAD 2000
 90
        0
280
     0
281
     1
  0
CLASS
  1
HATCH
  2
AcDbHatch
  3
AutoCAD 2000
 90
        0
280
     0
281
     1
  0
CLASS
  1
XRECORD
  2
AcDbXrecord
  3
AutoCAD 2000
 90
        0
280
     0
281
     0
  0
CLASS
  1
LONG_TRANSACTION
  2
AcDbLongTransaction
  3
AutoCAD 2000
 90
        0
280
     0
281
     0
  0
CLASS
  1
LWPOLYLINE
  2
AcDbPolyline
  3
AutoCAD 2000
 90
        0
280
     0
281
     1
  0
CLASS
  1
HATCH
  2
AcDbHatch
  3
AutoCAD 2000
 90
        0
280
     0
281
     1
  0
CLASS
  1
XRECORD
  2
AcDbXrecord
  3
AutoCAD 2000
 90
        0
280
     0
281
     0
  0
CLASS
  1
LONG_TRANSACTION
  2
AcDbLongTransaction
  3
AutoCAD 2000
 90
        0
280
     0
281
     0
  0
CLASS
  1
LWPOLYLINE
  2
AcDbPolyline
  3
AutoCAD 2000
 90
        0
280
     0
281
     1
  0
CLASS
  1
HATCH
  2
AcDbHatch
  3
AutoCAD 2000
 90
        0
280
     0
281
     1
  0
CLASS
  1
XRECORD
  2
AcDbXrecord
  3
AutoCAD 2000
 90
        0
280
     0
281
     0
  0
CLASS
  1
LONG_TRANSACTION
  2
AcDbLongTransaction
  3
AutoCAD 2000
 90
        0
280
     0
281
     0
  0
CLASS
  1
LWPOLYLINE
  2
AcDbPolyline
  3
AutoCAD 2000
 90
        0
280
     0
281
     1
  0
CLASS
  1
HATCH
  2
AcDbHatch
  3
AutoCAD 2000
 90
        0
280
     0
281
     1
  0
CLASS
  1
XRECORD
  2
AcDbXrecord
  3
AutoCAD 2000
 90
        0
280
     0
281
     0
  0
CLASS
  1
LONG_TRANSACTION
  2
AcDbLongTransaction
  3
AutoCAD 2000
 90
        0
280
     0
281
     0
  0
CLASS
  1
LWPOLYLINE
  2
AcDbPolyline
  3
AutoCAD 2000
 90
        0
280
     0
281
     1
  0
CLASS
  1
HATCH
  2
AcDbHatch
  3
AutoCAD 2000
 90
        0
280
     0
281
     1
  0
CLASS
  1
XRECORD
  2
AcDbXrecord
  3
AutoCAD 2000
 90
        0
280
     0
281
     0
  0
CLASS
  1
LONG_TRANSACTION
  2
AcDbLongTransaction
  3
AutoCAD 2000
 90
        0
280
     0
281
     0
  0
CLASS
  1
LWPOLYLINE
  2
AcDbPolyline
  3
AutoCAD 2000
 90
        0
280
     0
281
     1
  0
CLASS
  1
HATCH
  2
AcDbHatch
  3
AutoCAD 2000
 90
        0
280
     0
281
     1
  0
CLASS
  1
XRECORD
  2
AcDbXrecord
  3
AutoCAD 2000
 90
        0
280
     0
281
     0
  0
CLASS
  1
LONG_TRANSACTION
  2
AcDbLongTransaction
  3
AutoCAD 2000
 90
        0
280
     0
281
     0
  0
CLASS
  1
LWPOLYLINE
  2
AcDbPolyline
  3
AutoCAD 2000
 90
        0
280
     0
281
     1
  0
CLASS
  1
HATCH
  2
AcDbHatch
  3
AutoCAD 2000
 90
        0
280
     0
281
     1
  0
CLASS
  1
XRECORD
  2
AcDbXrecord
  3
AutoCAD 2000
 90
        0
280
     0
281
     0
  0
CLASS
  1
LONG_TRANSACTION
  2
AcDbLongTransaction
  3
AutoCAD 2000
 90
        0
280
     0
281
     0
  0
CLASS
  1
LWPOLYLINE
  2
AcDbPolyline
  3
AutoCAD 2000
 90
        0
280
     0
281
     1
  0
CLASS
  1
HATCH
  2
AcDbHatch
  3
AutoCAD 2000
 90
        0
280
     0
281
     1
  0
CLASS
  1
XRECORD
  2
AcDbXrecord
  3
AutoCAD 2000
 90
        0
280
     0
281
     0
  0
CLASS
  1
LONG_TRANSACTION
  2
AcDbLongTransaction
  3
AutoCAD 2000
 90
        0
280
     0
281
     0
  0
CLASS
  1
LWPOLYLINE
  2
AcDbPolyline
  3
AutoCAD 2000
 90
        0
280
     0
281
     1
  0
CLASS
  1
HATCH
  2
AcDbHatch
  3
AutoCAD 2000
 90
        0
280
     0
281
     1
  0
CLASS
  1
XRECORD
  2
AcDbXrecord
  3
AutoCAD 2000
 90
        0
280
     0
281
     0
  0
CLASS
  1
LONG_TRANSACTION
  2
AcDbLongTransaction
  3
AutoCAD 2000
 90
        0
280
     0
281
     0
  0
CLASS
  1
LWPOLYLINE
  2
AcDbPolyline
  3
AutoCAD 2000
 90
        0
280
     0
281
     1
  0
CLASS
  1
HATCH
  2
AcDbHatch
  3
AutoCAD 2000
 90
        0
280
     0
281
     1
  0
CLASS
  1
XRECORD
  2
AcDbXrecord
  3
AutoCAD 2000
 90
        0
280
     0
281
     0
  0
ENDSEC
  0
SECTION
  2
TABLES
  0
TABLE
  2
VPORT
  5
8
330
0
100
AcDbSymbolTable
 70
     4
  0
VPORT
  5
8A58
330
8
100
AcDbSymbolTableRecord
100
AcDbViewportTableRecord
  2
*ACTIVE
 70
     0
 10
0.0
 20
0.0
 11
1.0
 21
1.0
 12
84.1795693367589
 22
-78.47487658894215
 13
0.0
 23
0.0
 14
1.0
 24
1.0
 15
10.0
 25
10.0
 16
0.0
 26
0.0
 36
1.0
 17
0.0
 27
0.0
 37
0.0
 40
547.2642082700395
 41
2.152360515021459
 42
50.0
 43
0.0
 44
0.0
 50
0.0
 51
0.0
 71
     0
 72
   100
 73
     1
 74
     1
 75
     0
 76
     0
 77
     0
 78
     0
  0
ENDTAB
  0
TABLE
  2
LTYPE
  5
5
330
0
100
AcDbSymbolTable
 70
     8
  0
LTYPE
  5
13
330
5
100
AcDbSymbolTableRecord
100
AcDbLinetypeTableRecord
  2
BYBLOCK
 70
     0
  3

 72
    65
 73
     0
 40
0.0
  0
LTYPE
  5
14
330
5
100
AcDbSymbolTableRecord
100
AcDbLinetypeTableRecord
  2
BYLAYER
 70
     0
  3

 72
    65
 73
     0
 40
0.0
  0
LTYPE
  5
15
330
5
100
AcDbSymbolTableRecord
100
AcDbLinetypeTableRecord
  2
CONTINUOUS
 70
     0
  3
Solid line
 72
    65
 73
     0
 40
0.0
  0
LTYPE
  5
22
330
5
100
AcDbSymbolTableRecord
100
AcDbLinetypeTableRecord
  2
CONTINOUS
 70
     0
  3
Solid line
 72
    65
 73
     0
 40
0.0
  0
LTYPE
  5
23
330
5
100
AcDbSymbolTableRecord
100
AcDbLinetypeTableRecord
  2
DASHED
 70
     0
  3
__ __ __ __ __ __ __ __ __ __ __ __ __ __ __
 72
    65
 73
     2
 40
0.75
 49
0.5
 74
     0
 49
-0.25
 74
     0
  0
LTYPE
  5
24
330
5
100
AcDbSymbolTableRecord
100
AcDbLinetypeTableRecord
  2
DASHDOT
 70
     0
  3
__ . __ . __ . __ . __ . __ . __ . __ . __ . __
 72
    65
 73
     4
 40
1.0
 49
0.5
 74
     0
 49
-0.25
 74
     0
 49
0.0
 74
     0
 49
-0.25
 74
     0
  0
LTYPE
  5
4C47
330
5
100
AcDbSymbolTableRecord
100
AcDbLinetypeTableRecord
  2
DIVIDE
 70
     0
  3
Divide ____ . . ____ . . ____ . . ____ . . ____
 72
    65
 73
     6
 40
1.25
 49
0.5
 74
     0
 49
-0.25
 74
     0
 49
0.0
 74
     0
 49
-0.25
 74
     0
 49
0.0
 74
     0
 49
-0.25
 74
     0
  0
LTYPE
  5
6A3B
330
5
100
AcDbSymbolTableRecord
100
AcDbLinetypeTableRecord
  2
CENTER
 70
     0
  3
Center ____ _ ____ _ ____ _ ____ _ ____ _ ____
 72
    65
 73
     4
 40
50.8
 49
31.75
 74
     0
 49
-6.349999999999997
 74
     0
 49
6.349999999999997
 74
     0
 49
-6.349999999999997
 74
     0
  0
LTYPE
  5
6CFC
330
5
100
AcDbSymbolTableRecord
100
AcDbLinetypeTableRecord
  2
PHANTOM
 70
     0
  3
Phantom ______  __  __  ______  __  __  ______
 72
    65
 73
     6
 40
63.5
 49
31.75
 74
     0
 49
-6.349999999999997
 74
     0
 49
6.349999999999997
 74
     0
 49
-6.349999999999997
 74
     0
 49
6.349999999999997
 74
     0
 49
-6.349999999999997
 74
     0
  0
LTYPE
  5
70BC
330
5
100
AcDbSymbolTableRecord
100
AcDbLinetypeTableRecord
  2
HIDDEN
 70
     0
  3
Hidden __ __ __ __ __ __ __ __ __ __ __ __ __ _
 72
    65
 73
     2
 40
9.524999999999996
 49
6.349999999999997
 74
     0
 49
-3.174999999999998
 74
     0
  0
ENDTAB
  0
TABLE
  2
LAYER
  5
2
330
0
100
AcDbSymbolTable
 70
    15
  0
LAYER
  5
10
330
2
100
AcDbSymbolTableRecord
100
AcDbLayerTableRecord
  2
0
 70
     0
 62
     7
  6
CONTINOUS
  0
LAYER
  5
2F
330
2
100
AcDbSymbolTableRecord
100
AcDbLayerTableRecord
  2
10
 70
     0
 62
     4
  6
CONTINOUS
  0
LAYER
  5
31
330
2
100
AcDbSymbolTableRecord
100
AcDbLayerTableRecord
  2
12
 70
     0
 62
     3
  6
CONTINOUS
  0
LAYER
  5
35
330
2
100
AcDbSymbolTableRecord
100
AcDbLayerTableRecord
  2
16
 70
     0
 62
     6
  6
DASHDOT
  0
LAYER
  5
38
330
2
100
AcDbSymbolTableRecord
100
AcDbLayerTableRecord
  2
19
 70
     0
 62
     7
  6
CONTINOUS
  0
LAYER
  5
3C
330
2
100
AcDbSymbolTableRecord
100
AcDbLayerTableRecord
  2
11
 70
     0
 62
     1
  6
CONTINOUS
  0
LAYER
  5
3D
330
2
100
AcDbSymbolTableRecord
100
AcDbLayerTableRecord
  2
24
 70
     0
 62
     2
  6
CONTINOUS
  0
LAYER
  5
3A2
330
2
100
AcDbSymbolTableRecord
100
AcDbLayerTableRecord
  2
30
 70
     0
 62
     9
  6
CONTINUOUS
  0
LAYER
  5
3A4
330
2
100
AcDbSymbolTableRecord
100
AcDbLayerTableRecord
  2
DEFPOINTS
 70
     0
 62
     7
  6
CONTINUOUS
  0
LAYER
  5
3BBA
330
2
100
AcDbSymbolTableRecord
100
AcDbLayerTableRecord
  2
18
 70
     0
 62
     5
  6
DIVIDE
  0
LAYER
  5
6A3C
330
2
100
AcDbSymbolTableRecord
100
AcDbLayerTableRecord
  2
FF
 70
     0
 62
     4
  6
CONTINUOUS
  0
LAYER
  5
6A3D
330
2
100
AcDbSymbolTableRecord
100
AcDbLayerTableRecord
  2
43
 70
     0
 62
     6
  6
CONTINUOUS
  0
LAYER
  5
6A3E
330
2
100
AcDbSymbolTableRecord
100
AcDbLayerTableRecord
  2
44
 70
     0
 62
     3
  6
CONTINUOUS
  0
LAYER
  5
6A3F
330
2
100
AcDbSymbolTableRecord
100
AcDbLayerTableRecord
  2
48
 70
     0
 62
     6
  6
CENTER
  0
LAYER
  5
7E8E
330
2
100
AcDbSymbolTableRecord
100
AcDbLayerTableRecord
  2
102
 70
     0
 62
    50
  6
CONTINUOUS
  0
ENDTAB
  0
TABLE
  2
STYLE
  5
3
330
0
100
AcDbSymbolTable
 70
     5
  0
STYLE
  5
11
330
3
100
AcDbSymbolTableRecord
100
AcDbTextStyleTableRecord
  2
STANDARD
 70
     0
 40
0.0
 41
1.0
 50
0.0
 71
     0
 42
2.0
  3
txt.shx
  4
bigfont.shx
  0
STYLE
  5
42
330
3
100
AcDbSymbolTableRecord
100
AcDbTextStyleTableRecord
  2
STANDARD1
 70
     0
 40
0.0
 41
1.0
 50
0.0
 71
     0
 42
5.0
  3
MONOTXT
  4
BIGFONT
  0
STYLE
  5
63A9
330
3
100
AcDbSymbolTableRecord
100
AcDbTextStyleTableRecord
  2
MOJI
 70
     0
 40
0.0
 41
1.0
 50
0.0
 71
     0
 42
2.5
  3
txt.shx
  4
bigfont.shx
  0
STYLE
  5
7047
330
3
100
AcDbSymbolTableRecord
100
AcDbTextStyleTableRecord
  2
SMP-SET
 70
     0
 40
0.0
 41
1.0
 50
0.0
 71
     0
 42
3.0
  3
SIMPLEX
  4
BIGFONT
  0
STYLE
  5
7E8F
330
3
100
AcDbSymbolTableRecord
100
AcDbTextStyleTableRecord
  2
MX_NOTE_STANDARD
 70
     0
 40
0.0
 41
1.0
 50
0.0
 71
     0
 42
5.891046
  3
txt.shx
  4
extfont.shx
  0
ENDTAB
  0
TABLE
  2
VIEW
  5
6
330
0
100
AcDbSymbolTable
 70
     3
  0
VIEW
  5
230C
330
6
100
AcDbSymbolTableRecord
100
AcDbViewTableRecord
  2
OLE1
 70
     0
 40
148.912488
 10
429.497628
 20
2.560627
 41
103.145806
 11
0.0
 21
0.0
 31
1.0
 12
0.0
 22
0.0
 32
0.0
 42
50.0
 43
0.0
 44
0.0
 50
0.0
 71
     0
  0
VIEW
  5
230E
330
6
100
AcDbSymbolTableRecord
100
AcDbViewTableRecord
  2
OLE2
 70
     0
 40
170.778692
 10
322.66497
 20
-5.978304
 41
102.467215
 11
0.0
 21
0.0
 31
1.0
 12
0.0
 22
0.0
 32
0.0
 42
50.0
 43
0.0
 44
0.0
 50
0.0
 71
     0
  0
VIEW
  5
23AA
330
6
100
AcDbSymbolTableRecord
100
AcDbViewTableRecord
  2
OLE3
 70
     0
 40
591.7897389999998
 10
84.79698199999999
 20
-46.09335999999998
 41
388.792096
 11
0.0
 21
0.0
 31
1.0
 12
0.0
 22
0.0
 32
0.0
 42
50.0
 43
0.0
 44
0.0
 50
0.0
 71
     0
  0
ENDTAB
  0
TABLE
  2
UCS
  5
7
330
0
100
AcDbSymbolTable
 70
     0
  0
ENDTAB
  0
TABLE
  2
APPID
  5
9
330
0
100
AcDbSymbolTable
 70
     2
  0
APPID
  5
12
330
9
100
AcDbSymbolTableRecord
100
AcDbRegAppTableRecord
  2
ACAD
 70
     0
  0
APPID
  5
ECD
330
9
100
AcDbSymbolTableRecord
100
AcDbRegAppTableRecord
  2
CONTENTBLOCKICON
 70
     0
  0
ENDTAB
  0
TABLE
  2
DIMSTYLE
  5
A
330
0
100
AcDbSymbolTable
 70
     3
  0
DIMSTYLE
105
175
102
{ACAD_REACTORS
330
7952
330
7953
330
8367
330
8361
330
8363
330
8404
330
8403
330
8402
330
8488
330
8489
330
848C
330
848B
330
848A
330
848D
330
853A
330
8539
330
853B
330
8581
330
8580
330
857D
330
857F
330
857E
330
8789
102
}
330
A
100
AcDbSymbolTableRecord
100
AcDbDimStyleTableRecord
  2
STANDARD
 70
     0
  3

  4

  5
OPEN
  6

  7

 40
1.0
 41
2.0
 42
1.0
 43
0.5
 44
0.5
 45
0.0
 46
0.0
 47
0.0
 48
0.0
140
4.0
141
0.09
142
0.0
143
25.4
144
1.0
145
0.0
146
1.0
147
1.0
 71
     0
 72
     0
 73
     0
 74
     1
 75
     0
 76
     0
 77
     3
 78
    12
170
     0
171
     2
172
     0
173
     0
174
     0
175
     0
176
     0
177
     0
178
     0
270
     2
271
     1
272
     1
273
     2
274
     2
340
11
275
     0
280
     0
281
     0
282
     0
283
     1
284
     0
285
     0
286
     0
287
     3
288
     0
  0
DIMSTYLE
105
63AA
330
A
100
AcDbSymbolTableRecord
100
AcDbDimStyleTableRecord
  2
FSTD1
 70
     0
  3

  4

  5

  6
OPEN30
  7
OPEN30
 40
1.0
 41
5.0
 42
1.5
 43
3.75
 44
1.5
 45
0.0
 46
0.0
 47
0.0
 48
0.0
140
5.0
141
2.5
142
0.0
143
0.0394
144
1.0
145
0.0
146
1.0
147
1.5
 71
     0
 72
     0
 73
     0
 74
     0
 75
     0
 76
     0
 77
     1
 78
     8
170
     0
171
     4
172
     1
173
     1
174
     0
175
     0
176
     0
177
     0
178
     0
270
     2
271
     4
272
     4
273
     2
274
     4
340
11
275
     0
280
     0
281
     0
282
     0
283
     1
284
     8
285
     8
286
     8
287
     3
288
     0
  0
DIMSTYLE
105
7E90
330
A
100
AcDbSymbolTableRecord
100
AcDbDimStyleTableRecord
  2
MXDIMSTYLE
 70
     0
  3

  4

  5

  6

  7

 40
1.414212999999999
 41
2.5
 42
0.5
 43
3.75
 44
1.0
 45
0.0
 46
0.0
 47
0.0
 48
0.0
140
4.1656
141
2.5
142
0.0
143
0.03937
144
0.7071069999999999
145
0.0
146
1.0
147
1.0
 71
     0
 72
     0
 73
     0
 74
     0
 75
     0
 76
     0
 77
     1
 78
     8
170
     0
171
     4
172
     1
173
     0
174
     0
175
     0
176
     0
177
     0
178
     0
270
     2
271
     4
272
     4
273
     2
274
     4
340
7E8F
275
     0
280
     0
281
     0
282
     0
283
     1
284
     0
285
     0
286
     0
287
     3
288
     1
  0
ENDTAB
  0
TABLE
  2
BLOCK_RECORD
  5
1
330
0
100
AcDbSymbolTable
 70
    27
  0
BLOCK_RECORD
  5
1E
102
{ACAD_XDICTIONARY
360
178
102
}
330
1
100
AcDbSymbolTableRecord
100
AcDbBlockTableRecord
  2
*MODEL_SPACE
  0
BLOCK_RECORD
  5
1A
102
{ACAD_XDICTIONARY
360
17A
102
}
330
1
100
AcDbSymbolTableRecord
100
AcDbBlockTableRecord
  2
*PAPER_SPACE
  0
BLOCK_RECORD
  5
3B2
330
1
100
AcDbSymbolTableRecord
100
AcDbBlockTableRecord
  2
_OPEN
  0
BLOCK_RECORD
  5
632C
330
1
100
AcDbSymbolTableRecord
100
AcDbBlockTableRecord
  2
_OPEN30
  0
BLOCK_RECORD
  5
7962
330
1
100
AcDbSymbolTableRecord
100
AcDbBlockTableRecord
  2
*D2
  0
BLOCK_RECORD
  5
796E
330
1
100
AcDbSymbolTableRecord
100
AcDbBlockTableRecord
  2
*D3
  0
BLOCK_RECORD
  5
836D
330
1
100
AcDbSymbolTableRecord
100
AcDbBlockTableRecord
  2
*D4
  0
BLOCK_RECORD
  5
8379
330
1
100
AcDbSymbolTableRecord
100
AcDbBlockTableRecord
  2
*D5
  0
BLOCK_RECORD
  5
8385
330
1
100
AcDbSymbolTableRecord
100
AcDbBlockTableRecord
  2
*D6
  0
BLOCK_RECORD
  5
8405
330
1
100
AcDbSymbolTableRecord
100
AcDbBlockTableRecord
  2
*D7
  0
BLOCK_RECORD
  5
8411
330
1
100
AcDbSymbolTableRecord
100
AcDbBlockTableRecord
  2
*D8
  0
BLOCK_RECORD
  5
841D
330
1
100
AcDbSymbolTableRecord
100
AcDbBlockTableRecord
  2
*D9
  0
BLOCK_RECORD
  5
848E
330
1
100
AcDbSymbolTableRecord
100
AcDbBlockTableRecord
  2
*D10
  0
BLOCK_RECORD
  5
849A
330
1
100
AcDbSymbolTableRecord
100
AcDbBlockTableRecord
  2
*D11
  0
BLOCK_RECORD
  5
84A6
330
1
100
AcDbSymbolTableRecord
100
AcDbBlockTableRecord
  2
*D12
  0
BLOCK_RECORD
  5
84B2
330
1
100
AcDbSymbolTableRecord
100
AcDbBlockTableRecord
  2
*D13
  0
BLOCK_RECORD
  5
84BE
330
1
100
AcDbSymbolTableRecord
100
AcDbBlockTableRecord
  2
*D14
  0
BLOCK_RECORD
  5
84CA
330
1
100
AcDbSymbolTableRecord
100
AcDbBlockTableRecord
  2
*D15
  0
BLOCK_RECORD
  5
853C
330
1
100
AcDbSymbolTableRecord
100
AcDbBlockTableRecord
  2
*D16
  0
BLOCK_RECORD
  5
8549
330
1
100
AcDbSymbolTableRecord
100
AcDbBlockTableRecord
  2
*D17
  0
BLOCK_RECORD
  5
8555
330
1
100
AcDbSymbolTableRecord
100
AcDbBlockTableRecord
  2
*D18
  0
BLOCK_RECORD
  5
8582
330
1
100
AcDbSymbolTableRecord
100
AcDbBlockTableRecord
  2
*D19
  0
BLOCK_RECORD
  5
858F
330
1
100
AcDbSymbolTableRecord
100
AcDbBlockTableRecord
  2
*D20
  0
BLOCK_RECORD
  5
859B
330
1
100
AcDbSymbolTableRecord
100
AcDbBlockTableRecord
  2
*D21
  0
BLOCK_RECORD
  5
85A7
330
1
100
AcDbSymbolTableRecord
100
AcDbBlockTableRecord
  2
*D22
  0
BLOCK_RECORD
  5
85B3
330
1
100
AcDbSymbolTableRecord
100
AcDbBlockTableRecord
  2
*D23
  0
BLOCK_RECORD
  5
878A
330
1
100
AcDbSymbolTableRecord
100
AcDbBlockTableRecord
  2
*D24
  0
BLOCK_RECORD
  5
879D
330
1
100
AcDbSymbolTableRecord
100
AcDbBlockTableRecord
  2
A$C49827007
  0
ENDTAB
  0
ENDSEC
  0
SECTION
  2
BLOCKS
  0
BLOCK
  5
1F
330
1E
100
AcDbEntity
  8
0
100
AcDbBlockBegin
  2
*MODEL_SPACE
 70
     0
 10
0.0
 20
0.0
 30
0.0
  3
*MODEL_SPACE
  1

  0
ENDBLK
  5
20
330
1E
100
AcDbEntity
  8
0
100
AcDbBlockEnd
  0
BLOCK
  5
1B
330
1A
100
AcDbEntity
 67
     1
  8
0
100
AcDbBlockBegin
  2
*PAPER_SPACE
 70
     0
 10
0.0
 20
0.0
 30
0.0
  3
*PAPER_SPACE
  1

  0
ENDBLK
  5
1C
330
1A
100
AcDbEntity
 67
     1
  8
0
100
AcDbBlockEnd
  0
BLOCK
  5
3B6
330
3B2
100
AcDbEntity
  8
0
100
AcDbBlockBegin
  2
_OPEN
 70
     0
 10
0.0
 20
0.0
 30
0.0
  3
_OPEN
  1

  0
LINE
  5
3B3
330
3B2
100
AcDbEntity
  8
30
  6
CONTINUOUS
 62
     0
100
AcDbLine
 10
-1.0
 20
0.166667
 30
0.0
 11
0.0
 21
0.0
 31
0.0
  0
LINE
  5
3B4
330
3B2
100
AcDbEntity
  8
30
  6
CONTINUOUS
 62
     0
100
AcDbLine
 10
-1.0
 20
-0.166667
 30
0.0
 11
0.0
 21
0.0
 31
0.0
  0
LINE
  5
3B5
330
3B2
100
AcDbEntity
  8
30
  6
CONTINUOUS
 62
     0
100
AcDbLine
 10
0.0
 20
0.0
 30
0.0
 11
-1.0
 21
0.0
 31
0.0
  0
ENDBLK
  5
3B7
330
3B2
100
AcDbEntity
  8
0
100
AcDbBlockEnd
  0
BLOCK
  5
6330
330
632C
100
AcDbEntity
  8
0
100
AcDbBlockBegin
  2
_OPEN30
 70
     0
 10
0.0
 20
0.0
 30
0.0
  3
_OPEN30
  1

  0
LINE
  5
632D
330
632C
100
AcDbEntity
  8
0
  6
BYBLOCK
 62
     0
100
AcDbLine
 10
-1.0
 20
0.26794919
 30
0.0
 11
0.0
 21
0.0
 31
0.0
  0
LINE
  5
632E
330
632C
100
AcDbEntity
  8
0
  6
BYBLOCK
 62
     0
100
AcDbLine
 10
0.0
 20
0.0
 30
0.0
 11
-1.0
 21
-0.26794919
 31
0.0
  0
LINE
  5
632F
330
632C
100
AcDbEntity
  8
0
  6
BYBLOCK
 62
     0
100
AcDbLine
 10
0.0
 20
0.0
 30
0.0
 11
-1.0
 21
0.0
 31
0.0
  0
ENDBLK
  5
6331
330
632C
100
AcDbEntity
  8
0
100
AcDbBlockEnd
  0
BLOCK
  5
796C
330
7962
100
AcDbEntity
  8
0
100
AcDbBlockBegin
  2
*D2
 70
     1
 10
0.0
 20
0.0
 30
0.0
  3
*D2
  1

  0
LINE
  5
834D
330
7962
100
AcDbEntity
  8
30
  6
CONTINUOUS
 62
     0
100
AcDbLine
 10
-12.88009484677388
 20
-199.2473866810794
 30
0.0
 11
-12.88009484677389
 21
-328.4706243182529
 31
0.0
  0
LINE
  5
834E
330
7962
100
AcDbEntity
  8
30
  6
CONTINUOUS
 62
     0
100
AcDbLine
 10
12.11990577643121
 20
-316.5973940210349
 30
0.0
 11
12.11990577643121
 21
-328.4706243182529
 31
0.0
  0
LINE
  5
834F
330
7962
100
AcDbEntity
  8
30
  6
CONTINUOUS
 62
     0
100
AcDbLine
 10
-10.88009484677389
 20
-327.9706243182529
 30
0.0
 11
10.11990577643121
 21
-327.9706243182529
 31
0.0
  0
INSERT
  5
8350
330
7962
100
AcDbEntity
  8
30
  6
CONTINUOUS
 62
     0
100
AcDbBlockReference
  2
_OPEN
 10
-12.88009484677389
 20
-327.9706243182529
 30
0.0
 41
2.0
 42
2.0
 43
2.0
 50
180.0
  0
INSERT
  5
8351
330
7962
100
AcDbEntity
  8
30
  6
CONTINUOUS
 62
     0
100
AcDbBlockReference
  2
_OPEN
 10
12.11990577643121
 20
-327.9706243182529
 30
0.0
 41
2.0
 42
2.0
 43
2.0
  0
MTEXT
  5
8352
330
7962
100
AcDbEntity
  8
30
  6
CONTINUOUS
 62
     0
100
AcDbMText
 10
-0.3800945351713414
 20
-324.9706243182529
 30
0.0
 40
4.0
 41
0.0
 71
     5
 72
     1
  1
\A1;25
1001
ACAD
1000
MTEXTBEGIN
1070
    73
1070
     1
1070
    44
1040
1.0
1070
    74
1070
     0
1000
MTEXTEND
  0
POINT
  5
8353
330
7962
100
AcDbEntity
  8
DEFPOINTS
  6
CONTINUOUS
 62
     0
100
AcDbPoint
 10
-12.88009484677388
 20
-198.2473866810794
 30
0.0
  0
POINT
  5
8354
330
7962
100
AcDbEntity
  8
DEFPOINTS
  6
CONTINUOUS
 62
     0
100
AcDbPoint
 10
12.11990577643121
 20
-315.5973940210349
 30
0.0
  0
POINT
  5
8355
330
7962
100
AcDbEntity
  8
DEFPOINTS
  6
CONTINUOUS
 62
     0
100
AcDbPoint
 10
12.11990577643121
 20
-327.9706243182529
 30
0.0
  0
ENDBLK
  5
796D
330
7962
100
AcDbEntity
  8
0
100
AcDbBlockEnd
  0
BLOCK
  5
7978
330
796E
100
AcDbEntity
  8
0
100
AcDbBlockBegin
  2
*D3
 70
     1
 10
0.0
 20
0.0
 30
0.0
  3
*D3
  1

  0
LINE
  5
8357
330
796E
100
AcDbEntity
  8
30
  6
CONTINUOUS
 62
     0
100
AcDbLine
 10
-3.653790970728984
 20
-193.8474540210348
 30
0.0
 11
57.50154676373616
 21
-193.8474540210348
 31
0.0
  0
LINE
  5
8358
330
796E
100
AcDbEntity
  8
30
  6
CONTINUOUS
 62
     0
100
AcDbLine
 10
13.11990577643121
 20
-307.8473350210348
 30
0.0
 11
57.50154676373615
 21
-307.8473350210348
 31
0.0
  0
LINE
  5
8359
330
796E
100
AcDbEntity
  8
30
  6
CONTINUOUS
 62
     0
100
AcDbLine
 10
57.00154676373617
 20
-195.8474540210348
 30
0.0
 11
57.00154676373614
 21
-305.8473350210348
 31
0.0
  0
INSERT
  5
835A
330
796E
100
AcDbEntity
  8
30
  6
CONTINUOUS
 62
     0
100
AcDbBlockReference
  2
_OPEN
 10
57.00154676373617
 20
-193.8474540210348
 30
0.0
 41
2.0
 42
2.0
 43
2.0
 50
90.0
  0
INSERT
  5
835B
330
796E
100
AcDbEntity
  8
30
  6
CONTINUOUS
 62
     0
100
AcDbBlockReference
  2
_OPEN
 10
57.00154676373614
 20
-307.8473350210348
 30
0.0
 41
2.0
 42
2.0
 43
2.0
 50
270.0
  0
MTEXT
  5
835C
330
796E
100
AcDbEntity
  8
30
  6
CONTINUOUS
 62
     0
100
AcDbMText
 10
54.00154676373619
 20
-250.8473945210348
 30
0.0
 40
4.0
 41
0.0
 71
     5
 72
     1
  1
\A1;114
 11
0.0000000000000001
 21
1.0
 31
0.0
1001
ACAD
1000
MTEXTBEGIN
1070
    73
1070
     1
1070
    44
1040
1.0
1070
    74
1070
     0
1000
MTEXTEND
  0
POINT
  5
835D
330
796E
100
AcDbEntity
  8
DEFPOINTS
  6
CONTINUOUS
 62
     0
100
AcDbPoint
 10
-4.653790970728984
 20
-193.8474540210348
 30
0.0
  0
POINT
  5
835E
330
796E
100
AcDbEntity
  8
DEFPOINTS
  6
CONTINUOUS
 62
     0
100
AcDbPoint
 10
12.11990577643121
 20
-307.8473350210348
 30
0.0
  0
POINT
  5
835F
330
796E
100
AcDbEntity
  8
DEFPOINTS
  6
CONTINUOUS
 62
     0
100
AcDbPoint
 10
57.00154676373614
 20
-307.8473350210348
 30
0.0
  0
ENDBLK
  5
7979
330
796E
100
AcDbEntity
  8
0
100
AcDbBlockEnd
  0
BLOCK
  5
8377
330
836D
100
AcDbEntity
  8
0
100
AcDbBlockBegin
  2
*D4
 70
     1
 10
0.0
 20
0.0
 30
0.0
  3
*D4
  1

  0
LINE
  5
8390
330
836D
100
AcDbEntity
  8
30
  6
CONTINUOUS
 62
     0
100
AcDbLine
 10
135.2029339472756
 20
-260.0973958158649
 30
0.0
 11
135.2029339472756
 21
-304.3119248701384
 31
0.0
  0
LINE
  5
8391
330
836D
100
AcDbEntity
  8
30
  6
CONTINUOUS
 62
     0
100
AcDbLine
 10
205.2029356423926
 20
-260.0973958158649
 30
0.0
 11
205.2029356423926
 21
-304.3119248701384
 31
0.0
  0
LINE
  5
8392
330
836D
100
AcDbEntity
  8
30
  6
CONTINUOUS
 62
     0
100
AcDbLine
 10
137.2029339472756
 20
-303.8119248701384
 30
0.0
 11
203.2029356423926
 21
-303.8119248701384
 31
0.0
  0
INSERT
  5
8393
330
836D
100
AcDbEntity
  8
30
  6
CONTINUOUS
 62
     0
100
AcDbBlockReference
  2
_OPEN
 10
135.2029339472756
 20
-303.8119248701384
 30
0.0
 41
2.0
 42
2.0
 43
2.0
 50
180.0
  0
INSERT
  5
8394
330
836D
100
AcDbEntity
  8
30
  6
CONTINUOUS
 62
     0
100
AcDbBlockReference
  2
_OPEN
 10
205.2029356423926
 20
-303.8119248701384
 30
0.0
 41
2.0
 42
2.0
 43
2.0
  0
MTEXT
  5
8395
330
836D
100
AcDbEntity
  8
30
  6
CONTINUOUS
 62
     0
100
AcDbMText
 10
170.2029347948341
 20
-300.8119248701384
 30
0.0
 40
4.0
 41
0.0
 71
     5
 72
     1
  1
\A1;74
1001
ACAD
1000
MTEXTBEGIN
1070
    73
1070
     1
1070
    44
1040
1.0
1070
    74
1070
     0
1000
MTEXTEND
  0
POINT
  5
8396
330
836D
100
AcDbEntity
  8
DEFPOINTS
  6
CONTINUOUS
 62
     0
100
AcDbPoint
 10
135.2029339472756
 20
-259.0973958158649
 30
0.0
  0
POINT
  5
8397
330
836D
100
AcDbEntity
  8
DEFPOINTS
  6
CONTINUOUS
 62
     0
100
AcDbPoint
 10
205.2029356423926
 20
-259.0973958158649
 30
0.0
  0
POINT
  5
8398
330
836D
100
AcDbEntity
  8
DEFPOINTS
  6
CONTINUOUS
 62
     0
100
AcDbPoint
 10
205.2029356423926
 20
-303.8119248701384
 30
0.0
  0
ENDBLK
  5
8378
330
836D
100
AcDbEntity
  8
0
100
AcDbBlockEnd
  0
BLOCK
  5
8383
330
8379
100
AcDbEntity
  8
0
100
AcDbBlockBegin
  2
*D5
 70
     1
 10
0.0
 20
0.0
 30
0.0
  3
*D5
  1

  0
LINE
  5
8399
330
8379
100
AcDbEntity
  8
30
  6
CONTINUOUS
 62
     0
100
AcDbLine
 10
204.2029355925363
 20
-209.0973945694547
 30
0.0
 11
226.0217630279429
 21
-209.0973945694547
 31
0.0
  0
LINE
  5
839A
330
8379
100
AcDbEntity
  8
30
  6
CONTINUOUS
 62
     0
100
AcDbLine
 10
204.2029355925363
 20
-261.097395865721
 30
0.0
 11
226.0217630279429
 21
-261.097395865721
 31
0.0
  0
LINE
  5
839B
330
8379
100
AcDbEntity
  8
30
  6
CONTINUOUS
 62
     0
100
AcDbLine
 10
225.5217630279429
 20
-211.0973945694547
 30
0.0
 11
225.5217630279429
 21
-259.097395865721
 31
0.0
  0
INSERT
  5
839C
330
8379
100
AcDbEntity
  8
30
  6
CONTINUOUS
 62
     0
100
AcDbBlockReference
  2
_OPEN
 10
225.5217630279429
 20
-209.0973945694547
 30
0.0
 41
2.0
 42
2.0
 43
2.0
 50
90.0
  0
INSERT
  5
839D
330
8379
100
AcDbEntity
  8
30
  6
CONTINUOUS
 62
     0
100
AcDbBlockReference
  2
_OPEN
 10
225.5217630279429
 20
-261.097395865721
 30
0.0
 41
2.0
 42
2.0
 43
2.0
 50
270.0
  0
MTEXT
  5
839E
330
8379
100
AcDbEntity
  8
30
  6
CONTINUOUS
 62
     0
100
AcDbMText
 10
222.521763027943
 20
-235.0973952175878
 30
0.0
 40
4.0
 41
0.0
 71
     5
 72
     1
  1
\A1;52
 11
0.0000000000000001
 21
1.0
 31
0.0
1001
ACAD
1000
MTEXTBEGIN
1070
    73
1070
     1
1070
    44
1040
1.0
1070
    74
1070
     0
1000
MTEXTEND
  0
POINT
  5
839F
330
8379
100
AcDbEntity
  8
DEFPOINTS
  6
CONTINUOUS
 62
     0
100
AcDbPoint
 10
203.2029355925363
 20
-209.0973945694547
 30
0.0
  0
POINT
  5
83A0
330
8379
100
AcDbEntity
  8
DEFPOINTS
  6
CONTINUOUS
 62
     0
100
AcDbPoint
 10
203.2029355925363
 20
-261.097395865721
 30
0.0
  0
POINT
  5
83A1
330
8379
100
AcDbEntity
  8
DEFPOINTS
  6
CONTINUOUS
 62
     0
100
AcDbPoint
 10
225.5217630279429
 20
-261.097395865721
 30
0.0
  0
ENDBLK
  5
8384
330
8379
100
AcDbEntity
  8
0
100
AcDbBlockEnd
  0
BLOCK
  5
838E
330
8385
100
AcDbEntity
  8
0
100
AcDbBlockBegin
  2
*D6
 70
     1
 10
0.0
 20
0.0
 30
0.0
  3
*D6
  1

  0
LINE
  5
83A2
330
8385
100
AcDbEntity
  8
30
  6
CONTINUOUS
 62
     0
100
AcDbLine
 10
162.6009959540037
 20
-227.0230155245306
 30
0.0
 11
154.9343292873354
 21
-227.0230155245306
 31
0.0
  0
LINE
  5
83A3
330
8385
100
AcDbEntity
  8
30
  6
CONTINUOUS
 62
     0
100
AcDbLine
 10
154.9343292873354
 20
-227.0230155245306
 30
0.0
 11
140.1788325382423
 21
-213.7702261276299
 31
0.0
  0
MTEXT
  5
83A4
330
8385
100
AcDbEntity
  8
30
  6
CONTINUOUS
 62
     0
100
AcDbMText
 10
159.2676626206704
 20
-224.0230155245305
 30
0.0
 40
4.0
 41
0.0
 71
     5
 72
     1
  1
\A1;R2
1001
ACAD
1000
MTEXTBEGIN
1070
    73
1070
     1
1070
    44
1040
1.0
1070
    74
1070
     0
1000
MTEXTEND
  0
INSERT
  5
83A5
330
8385
100
AcDbEntity
  8
30
  6
CONTINUOUS
 62
     0
100
AcDbBlockReference
  2
_OPEN
 10
138.6908832862328
 20
-212.4338103901273
 30
0.0
 41
2.0
 42
2.0
 43
2.0
 50
138.0711025111981
  0
LINE
  5
83A6
330
8385
100
AcDbEntity
  8
30
  6
CONTINUOUS
 62
     0
100
AcDbLine
 10
137.1129339971319
 20
-211.0973946193106
 30
0.0
 11
137.2929339971319
 21
-211.0973946193106
 31
0.0
  0
LINE
  5
83A7
330
8385
100
AcDbEntity
  8
30
  6
CONTINUOUS
 62
     0
100
AcDbLine
 10
137.2029339971319
 20
-211.1873946193106
 30
0.0
 11
137.2029339971319
 21
-211.0073946193106
 31
0.0
  0
POINT
  5
83A8
330
8385
100
AcDbEntity
  8
DEFPOINTS
  6
CONTINUOUS
 62
     0
100
AcDbPoint
 10
138.6908832862328
 20
-212.4338103901273
 30
0.0
  0
POINT
  5
83A9
330
8385
100
AcDbEntity
  8
DEFPOINTS
  6
CONTINUOUS
 62
     0
100
AcDbPoint
 10
137.2029339971319
 20
-211.0973946193106
 30
0.0
  0
ENDBLK
  5
838F
330
8385
100
AcDbEntity
  8
0
100
AcDbBlockEnd
  0
BLOCK
  5
840F
330
8405
100
AcDbEntity
  8
0
100
AcDbBlockBegin
  2
*D7
 70
     1
 10
0.0
 20
0.0
 30
0.0
  3
*D7
  1

  0
LINE
  5
86F3
330
8405
100
AcDbEntity
  8
30
  6
CONTINUOUS
 62
     0
100
AcDbLine
 10
-36.000031
 20
-10.00003094764008
 30
0.0
 11
-36.00003100000001
 21
-91.37966406577334
 31
0.0
  0
LINE
  5
86F4
330
8405
100
AcDbEntity
  8
30
  6
CONTINUOUS
 62
     0
100
AcDbLine
 10
35.99994000000001
 20
-10.00003101745329
 30
0.0
 11
35.99994
 21
-91.37966406577334
 31
0.0
  0
LINE
  5
86F5
330
8405
100
AcDbEntity
  8
30
  6
CONTINUOUS
 62
     0
100
AcDbLine
 10
-34.00003100000001
 20
-90.87966406577335
 30
0.0
 11
33.99994
 21
-90.87966406577335
 31
0.0
  0
INSERT
  5
86F6
330
8405
100
AcDbEntity
  8
30
  6
CONTINUOUS
 62
     0
100
AcDbBlockReference
  2
_OPEN
 10
-36.00003100000001
 20
-90.87966406577335
 30
0.0
 41
2.0
 42
2.0
 43
2.0
 50
180.0
  0
INSERT
  5
86F7
330
8405
100
AcDbEntity
  8
30
  6
CONTINUOUS
 62
     0
100
AcDbBlockReference
  2
_OPEN
 10
35.99994
 20
-90.87966406577335
 30
0.0
 41
2.0
 42
2.0
 43
2.0
  0
MTEXT
  5
86F8
330
8405
100
AcDbEntity
  8
30
  6
CONTINUOUS
 62
     0
100
AcDbMText
 10
-0.0000455000000057
 20
-87.87966406577334
 30
0.0
 40
4.0
 41
0.0
 71
     5
 72
     1
  1
\A1;72
1001
ACAD
1000
MTEXTBEGIN
1070
    73
1070
     1
1070
    44
1040
1.0
1070
    74
1070
     0
1000
MTEXTEND
  0
POINT
  5
86F9
330
8405
100
AcDbEntity
  8
DEFPOINTS
  6
CONTINUOUS
 62
     0
100
AcDbPoint
 10
-36.000031
 20
-9.000030947640084
 30
0.0
  0
POINT
  5
86FA
330
8405
100
AcDbEntity
  8
DEFPOINTS
  6
CONTINUOUS
 62
     0
100
AcDbPoint
 10
35.99994000000001
 20
-9.000031017453295
 30
0.0
  0
POINT
  5
86FB
330
8405
100
AcDbEntity
  8
DEFPOINTS
  6
CONTINUOUS
 62
     0
100
AcDbPoint
 10
35.99994
 20
-90.87966406577335
 30
0.0
  0
ENDBLK
  5
8410
330
8405
100
AcDbEntity
  8
0
100
AcDbBlockEnd
  0
BLOCK
  5
841B
330
8411
100
AcDbEntity
  8
0
100
AcDbBlockBegin
  2
*D8
 70
     1
 10
0.0
 20
0.0
 30
0.0
  3
*D8
  1

  0
LINE
  5
86FC
330
8411
100
AcDbEntity
  8
30
  6
CONTINUOUS
 62
     0
100
AcDbLine
 10
-37.50006799999999
 20
-62.25000199999985
 30
0.0
 11
-37.50006799999999
 21
-103.8693829728197
 31
0.0
  0
LINE
  5
86FD
330
8411
100
AcDbEntity
  8
30
  6
CONTINUOUS
 62
     0
100
AcDbLine
 10
37.500029
 20
-62.25000199999985
 30
0.0
 11
37.500029
 21
-103.8693829728197
 31
0.0
  0
LINE
  5
86FE
330
8411
100
AcDbEntity
  8
30
  6
CONTINUOUS
 62
     0
100
AcDbLine
 10
-35.500068
 20
-103.3693829728197
 30
0.0
 11
35.50002899999999
 21
-103.3693829728197
 31
0.0
  0
INSERT
  5
86FF
330
8411
100
AcDbEntity
  8
30
  6
CONTINUOUS
 62
     0
100
AcDbBlockReference
  2
_OPEN
 10
-37.50006799999999
 20
-103.3693829728197
 30
0.0
 41
2.0
 42
2.0
 43
2.0
 50
180.0
  0
INSERT
  5
8700
330
8411
100
AcDbEntity
  8
30
  6
CONTINUOUS
 62
     0
100
AcDbBlockReference
  2
_OPEN
 10
37.500029
 20
-103.3693829728197
 30
0.0
 41
2.0
 42
2.0
 43
2.0
  0
MTEXT
  5
8701
330
8411
100
AcDbEntity
  8
30
  6
CONTINUOUS
 62
     0
100
AcDbMText
 10
-0.0000195000000003
 20
-100.3693829728197
 30
0.0
 40
4.0
 41
0.0
 71
     5
 72
     1
  1
\A1;75
1001
ACAD
1000
MTEXTBEGIN
1070
    73
1070
     1
1070
    44
1040
1.0
1070
    74
1070
     0
1000
MTEXTEND
  0
POINT
  5
8702
330
8411
100
AcDbEntity
  8
DEFPOINTS
  6
CONTINUOUS
 62
     0
100
AcDbPoint
 10
-37.50006799999999
 20
-61.25000199999985
 30
0.0
  0
POINT
  5
8703
330
8411
100
AcDbEntity
  8
DEFPOINTS
  6
CONTINUOUS
 62
     0
100
AcDbPoint
 10
37.500029
 20
-61.25000199999985
 30
0.0
  0
POINT
  5
8704
330
8411
100
AcDbEntity
  8
DEFPOINTS
  6
CONTINUOUS
 62
     0
100
AcDbPoint
 10
37.500029
 20
-103.3693829728197
 30
0.0
  0
ENDBLK
  5
841C
330
8411
100
AcDbEntity
  8
0
100
AcDbBlockEnd
  0
BLOCK
  5
8427
330
841D
100
AcDbEntity
  8
0
100
AcDbBlockBegin
  2
*D9
 70
     1
 10
0.0
 20
0.0
 30
0.0
  3
*D9
  1

  0
LINE
  5
8705
330
841D
100
AcDbEntity
  8
30
  6
CONTINUOUS
 62
     0
100
AcDbLine
 10
-25.000016
 20
-64.57501399999987
 30
0.0
 11
-25.000016
 21
-78.88994427182135
 31
0.0
  0
LINE
  5
8706
330
841D
100
AcDbEntity
  8
30
  6
CONTINUOUS
 62
     0
100
AcDbLine
 10
24.999986
 20
-64.57501399999987
 30
0.0
 11
24.999986
 21
-78.88994427182135
 31
0.0
  0
LINE
  5
8707
330
841D
100
AcDbEntity
  8
30
  6
CONTINUOUS
 62
     0
100
AcDbLine
 10
-23.000016
 20
-78.38994427182135
 30
0.0
 11
22.999986
 21
-78.38994427182135
 31
0.0
  0
INSERT
  5
8708
330
841D
100
AcDbEntity
  8
30
  6
CONTINUOUS
 62
     0
100
AcDbBlockReference
  2
_OPEN
 10
-25.000016
 20
-78.38994427182135
 30
0.0
 41
2.0
 42
2.0
 43
2.0
 50
180.0
  0
INSERT
  5
8709
330
841D
100
AcDbEntity
  8
30
  6
CONTINUOUS
 62
     0
100
AcDbBlockReference
  2
_OPEN
 10
24.999986
 20
-78.38994427182135
 30
0.0
 41
2.0
 42
2.0
 43
2.0
  0
MTEXT
  5
870A
330
841D
100
AcDbEntity
  8
30
  6
CONTINUOUS
 62
     0
100
AcDbMText
 10
-0.0000149999999975
 20
-75.38994427182135
 30
0.0
 40
4.0
 41
0.0
 71
     5
 72
     1
  1
\A1;50
1001
ACAD
1000
MTEXTBEGIN
1070
    73
1070
     1
1070
    44
1040
1.0
1070
    74
1070
     0
1000
MTEXTEND
  0
POINT
  5
870B
330
841D
100
AcDbEntity
  8
DEFPOINTS
  6
CONTINUOUS
 62
     0
100
AcDbPoint
 10
-25.000016
 20
-63.57501399999986
 30
0.0
  0
POINT
  5
870C
330
841D
100
AcDbEntity
  8
DEFPOINTS
  6
CONTINUOUS
 62
     0
100
AcDbPoint
 10
24.999986
 20
-63.57501399999986
 30
0.0
  0
POINT
  5
870D
330
841D
100
AcDbEntity
  8
DEFPOINTS
  6
CONTINUOUS
 62
     0
100
AcDbPoint
 10
24.999986
 20
-78.38994427182135
 30
0.0
  0
ENDBLK
  5
8428
330
841D
100
AcDbEntity
  8
0
100
AcDbBlockEnd
  0
BLOCK
  5
8498
330
848E
100
AcDbEntity
  8
0
100
AcDbBlockBegin
  2
*D10
 70
     1
 10
0.0
 20
0.0
 30
0.0
  3
*D10
  1

  0
LINE
  5
8752
330
848E
100
AcDbEntity
  8
30
  6
CONTINUOUS
 62
     0
100
AcDbLine
 10
-38.50004600000001
 20
0.0000000000000003
 30
0.0
 11
-52.36736388216262
 21
0.0000000000000042
 31
0.0
  0
LINE
  5
8753
330
848E
100
AcDbEntity
  8
30
  6
CONTINUOUS
 62
     0
100
AcDbLine
 10
-32.0749975425077
 20
54.99999934266298
 30
0.0
 11
-52.36736388216261
 21
54.99999934266299
 31
0.0
  0
LINE
  5
8754
330
848E
100
AcDbEntity
  8
30
  6
CONTINUOUS
 62
     0
100
AcDbLine
 10
-51.86736388216262
 20
2.000000000000003
 30
0.0
 11
-51.8673638821626
 21
52.99999934266299
 31
0.0
  0
INSERT
  5
8755
330
848E
100
AcDbEntity
  8
30
  6
CONTINUOUS
 62
     0
100
AcDbBlockReference
  2
_OPEN
 10
-51.86736388216262
 20
0.0000000000000041
 30
0.0
 41
2.0
 42
2.0
 43
2.0
 50
270.0
  0
INSERT
  5
8756
330
848E
100
AcDbEntity
  8
30
  6
CONTINUOUS
 62
     0
100
AcDbBlockReference
  2
_OPEN
 10
-51.8673638821626
 20
54.99999934266299
 30
0.0
 41
2.0
 42
2.0
 43
2.0
 50
90.0
  0
MTEXT
  5
8757
330
848E
100
AcDbEntity
  8
30
  6
CONTINUOUS
 62
     0
100
AcDbMText
 10
-54.86736388216262
 20
27.49999967133149
 30
0.0
 40
4.0
 41
0.0
 71
     5
 72
     1
  1
\A1;55
 11
0.0000000000000001
 21
1.0
 31
0.0
1001
ACAD
1000
MTEXTBEGIN
1070
    73
1070
     1
1070
    44
1040
1.0
1070
    74
1070
     0
1000
MTEXTEND
  0
POINT
  5
8758
330
848E
100
AcDbEntity
  8
DEFPOINTS
  6
CONTINUOUS
 62
     0
100
AcDbPoint
 10
-37.50004600000001
 20
0.0
 30
0.0
  0
POINT
  5
8759
330
848E
100
AcDbEntity
  8
DEFPOINTS
  6
CONTINUOUS
 62
     0
100
AcDbPoint
 10
-31.0749975425077
 20
54.99999934266298
 30
0.0
  0
POINT
  5
875A
330
848E
100
AcDbEntity
  8
DEFPOINTS
  6
CONTINUOUS
 62
     0
100
AcDbPoint
 10
-51.8673638821626
 20
54.99999934266299
 30
0.0
  0
ENDBLK
  5
8499
330
848E
100
AcDbEntity
  8
0
100
AcDbBlockEnd
  0
BLOCK
  5
84A4
330
849A
100
AcDbEntity
  8
0
100
AcDbBlockBegin
  2
*D11
 70
     1
 10
0.0
 20
0.0
 30
0.0
  3
*D11
  1

  0
LINE
  5
8764
330
849A
100
AcDbEntity
  8
30
  6
CONTINUOUS
 62
     0
100
AcDbLine
 10
-32.07499700000001
 20
-57.00000099999988
 30
0.0
 11
-52.36736388216262
 21
-57.00000099999988
 31
0.0
  0
LINE
  5
8765
330
849A
100
AcDbEntity
  8
30
  6
CONTINUOUS
 62
     0
100
AcDbLine
 10
-38.50004600000001
 20
0.0000000000000003
 30
0.0
 11
-52.36736388216261
 21
0.0000000000000042
 31
0.0
  0
LINE
  5
8766
330
849A
100
AcDbEntity
  8
30
  6
CONTINUOUS
 62
     0
100
AcDbLine
 10
-51.86736388216262
 20
-55.00000099999987
 30
0.0
 11
-51.8673638821626
 21
-1.999999999999996
 31
0.0
  0
INSERT
  5
8767
330
849A
100
AcDbEntity
  8
30
  6
CONTINUOUS
 62
     0
100
AcDbBlockReference
  2
_OPEN
 10
-51.86736388216262
 20
-57.00000099999988
 30
0.0
 41
2.0
 42
2.0
 43
2.0
 50
270.0
  0
INSERT
  5
8768
330
849A
100
AcDbEntity
  8
30
  6
CONTINUOUS
 62
     0
100
AcDbBlockReference
  2
_OPEN
 10
-51.8673638821626
 20
0.0000000000000041
 30
0.0
 41
2.0
 42
2.0
 43
2.0
 50
90.0
  0
MTEXT
  5
8769
330
849A
100
AcDbEntity
  8
30
  6
CONTINUOUS
 62
     0
100
AcDbMText
 10
-54.86736388216261
 20
-28.50000049999994
 30
0.0
 40
4.0
 41
0.0
 71
     5
 72
     1
  1
\A1;57
 11
0.0000000000000001
 21
1.0
 31
0.0
1001
ACAD
1000
MTEXTBEGIN
1070
    73
1070
     1
1070
    44
1040
1.0
1070
    74
1070
     0
1000
MTEXTEND
  0
POINT
  5
876A
330
849A
100
AcDbEntity
  8
DEFPOINTS
  6
CONTINUOUS
 62
     0
100
AcDbPoint
 10
-31.07499700000001
 20
-57.00000099999988
 30
0.0
  0
POINT
  5
876B
330
849A
100
AcDbEntity
  8
DEFPOINTS
  6
CONTINUOUS
 62
     0
100
AcDbPoint
 10
-37.50004600000001
 20
0.0
 30
0.0
  0
POINT
  5
876C
330
849A
100
AcDbEntity
  8
DEFPOINTS
  6
CONTINUOUS
 62
     0
100
AcDbPoint
 10
-51.8673638821626
 20
0.0000000000000041
 30
0.0
  0
ENDBLK
  5
84A5
330
849A
100
AcDbEntity
  8
0
100
AcDbBlockEnd
  0
BLOCK
  5
84B0
330
84A6
100
AcDbEntity
  8
0
100
AcDbBlockBegin
  2
*D12
 70
     1
 10
0.0
 20
0.0
 30
0.0
  3
*D12
  1

  0
LINE
  5
870E
330
84A6
100
AcDbEntity
  8
30
  6
CONTINUOUS
 62
     0
100
AcDbLine
 10
36.99987899999999
 20
64.75000099999999
 30
0.0
 11
77.38328004080841
 21
64.75000099999999
 31
0.0
  0
LINE
  5
870F
330
84A6
100
AcDbEntity
  8
30
  6
CONTINUOUS
 62
     0
100
AcDbLine
 10
33.99990099999998
 20
-65.25000199999985
 30
0.0
 11
77.38328004080838
 21
-65.25000199999985
 31
0.0
  0
LINE
  5
8710
330
84A6
100
AcDbEntity
  8
30
  6
CONTINUOUS
 62
     0
100
AcDbLine
 10
76.88328004080841
 20
62.75000099999999
 30
0.0
 11
76.88328004080839
 21
-63.25000199999985
 31
0.0
  0
INSERT
  5
8711
330
84A6
100
AcDbEntity
  8
30
  6
CONTINUOUS
 62
     0
100
AcDbBlockReference
  2
_OPEN
 10
76.88328004080841
 20
64.75000099999999
 30
0.0
 41
2.0
 42
2.0
 43
2.0
 50
90.0
  0
INSERT
  5
8712
330
84A6
100
AcDbEntity
  8
30
  6
CONTINUOUS
 62
     0
100
AcDbBlockReference
  2
_OPEN
 10
76.88328004080839
 20
-65.25000199999985
 30
0.0
 41
2.0
 42
2.0
 43
2.0
 50
270.0
  0
MTEXT
  5
8713
330
84A6
100
AcDbEntity
  8
30
  6
CONTINUOUS
 62
     0
100
AcDbMText
 10
73.8832800408084
 20
-0.2500004999999178
 30
0.0
 40
4.0
 41
0.0
 71
     5
 72
     1
  1
\A1;130
 11
0.0000000000000001
 21
1.0
 31
0.0
1001
ACAD
1000
MTEXTBEGIN
1070
    73
1070
     1
1070
    44
1040
1.0
1070
    74
1070
     0
1000
MTEXTEND
  0
POINT
  5
8714
330
84A6
100
AcDbEntity
  8
DEFPOINTS
  6
CONTINUOUS
 62
     0
100
AcDbPoint
 10
35.99987899999999
 20
64.75000099999999
 30
0.0
  0
POINT
  5
8715
330
84A6
100
AcDbEntity
  8
DEFPOINTS
  6
CONTINUOUS
 62
     0
100
AcDbPoint
 10
32.99990099999998
 20
-65.25000199999985
 30
0.0
  0
POINT
  5
8716
330
84A6
100
AcDbEntity
  8
DEFPOINTS
  6
CONTINUOUS
 62
     0
100
AcDbPoint
 10
76.88328004080839
 20
-65.25000199999985
 30
0.0
  0
ENDBLK
  5
84B1
330
84A6
100
AcDbEntity
  8
0
100
AcDbBlockEnd
  0
BLOCK
  5
84BC
330
84B2
100
AcDbEntity
  8
0
100
AcDbBlockBegin
  2
*D13
 70
     1
 10
0.0
 20
0.0
 30
0.0
  3
*D13
  1

  0
LINE
  5
877F
330
84B2
100
AcDbEntity
  8
30
  6
CONTINUOUS
 62
     0
100
AcDbLine
 10
16.91018747730046
 20
56.99993977164891
 30
0.0
 11
64.32723591670068
 21
56.9999397716489
 31
0.0
  0
LINE
  5
8780
330
84B2
100
AcDbEntity
  8
30
  6
CONTINUOUS
 62
     0
100
AcDbLine
 10
16.674962
 20
-56.99994099999987
 30
0.0
 11
64.32723591670065
 21
-56.99994099999988
 31
0.0
  0
LINE
  5
8781
330
84B2
100
AcDbEntity
  8
30
  6
CONTINUOUS
 62
     0
100
AcDbLine
 10
63.82723591670067
 20
54.99993977164891
 30
0.0
 11
63.82723591670065
 21
-54.99994099999987
 31
0.0
  0
INSERT
  5
8782
330
84B2
100
AcDbEntity
  8
30
  6
CONTINUOUS
 62
     0
100
AcDbBlockReference
  2
_OPEN
 10
63.82723591670067
 20
56.9999397716489
 30
0.0
 41
2.0
 42
2.0
 43
2.0
 50
90.0
  0
INSERT
  5
8783
330
84B2
100
AcDbEntity
  8
30
  6
CONTINUOUS
 62
     0
100
AcDbBlockReference
  2
_OPEN
 10
63.82723591670065
 20
-56.99994099999988
 30
0.0
 41
2.0
 42
2.0
 43
2.0
 50
270.0
  0
MTEXT
  5
8784
330
84B2
100
AcDbEntity
  8
30
  6
CONTINUOUS
 62
     0
100
AcDbMText
 10
60.82723591670067
 20
-0.0000006141754767
 30
0.0
 40
4.0
 41
0.0
 71
     5
 72
     1
  1
\A1;114
 11
0.0000000000000001
 21
1.0
 31
0.0
1001
ACAD
1000
MTEXTBEGIN
1070
    73
1070
     1
1070
    44
1040
1.0
1070
    74
1070
     0
1000
MTEXTEND
  0
POINT
  5
8785
330
84B2
100
AcDbEntity
  8
DEFPOINTS
  6
CONTINUOUS
 62
     0
100
AcDbPoint
 10
15.91018747730046
 20
56.99993977164892
 30
0.0
  0
POINT
  5
8786
330
84B2
100
AcDbEntity
  8
DEFPOINTS
  6
CONTINUOUS
 62
     0
100
AcDbPoint
 10
15.674962
 20
-56.99994099999987
 30
0.0
  0
POINT
  5
8787
330
84B2
100
AcDbEntity
  8
DEFPOINTS
  6
CONTINUOUS
 62
     0
100
AcDbPoint
 10
63.82723591670065
 20
-56.99994099999988
 30
0.0
  0
ENDBLK
  5
84BD
330
84B2
100
AcDbEntity
  8
0
100
AcDbBlockEnd
  0
BLOCK
  5
84C8
330
84BE
100
AcDbEntity
  8
0
100
AcDbBlockBegin
  2
*D14
 70
     1
 10
0.0
 20
0.0
 30
0.0
  3
*D14
  1

  0
LINE
  5
86B1
330
84BE
100
AcDbEntity
  8
30
  6
CONTINUOUS
 62
     0
100
AcDbLine
 10
35.99997053528699
 20
39.99996986544789
 30
0.0
 11
53.13633935493977
 21
39.99996986544788
 31
0.0
  0
LINE
  5
86B2
330
84BE
100
AcDbEntity
  8
30
  6
CONTINUOUS
 62
     0
100
AcDbLine
 10
35.99993939490036
 20
-10.00003138096206
 30
0.0
 11
53.13633935493976
 21
-10.00003138096207
 31
0.0
  0
LINE
  5
86B3
330
84BE
100
AcDbEntity
  8
30
  6
CONTINUOUS
 62
     0
100
AcDbLine
 10
52.63633935493977
 20
37.99996986544789
 30
0.0
 11
52.63633935493976
 21
-8.00003138096207
 31
0.0
  0
INSERT
  5
86B4
330
84BE
100
AcDbEntity
  8
30
  6
CONTINUOUS
 62
     0
100
AcDbBlockReference
  2
_OPEN
 10
52.63633935493977
 20
39.99996986544788
 30
0.0
 41
2.0
 42
2.0
 43
2.0
 50
90.0
  0
INSERT
  5
86B5
330
84BE
100
AcDbEntity
  8
30
  6
CONTINUOUS
 62
     0
100
AcDbBlockReference
  2
_OPEN
 10
52.63633935493976
 20
-10.00003138096207
 30
0.0
 41
2.0
 42
2.0
 43
2.0
 50
270.0
  0
MTEXT
  5
86B6
330
84BE
100
AcDbEntity
  8
30
  6
CONTINUOUS
 62
     0
100
AcDbMText
 10
49.63633935493977
 20
14.99996924224292
 30
0.0
 40
4.0
 41
0.0
 71
     5
 72
     1
  1
\A1;50
 11
0.0000000000000001
 21
1.0
 31
0.0
1001
ACAD
1000
MTEXTBEGIN
1070
    73
1070
     1
1070
    44
1040
1.0
1070
    74
1070
     0
1000
MTEXTEND
  0
POINT
  5
86B7
330
84BE
100
AcDbEntity
  8
DEFPOINTS
  6
CONTINUOUS
 62
     0
100
AcDbPoint
 10
34.99997053528699
 20
39.99996986544789
 30
0.0
  0
POINT
  5
86B8
330
84BE
100
AcDbEntity
  8
DEFPOINTS
  6
CONTINUOUS
 62
     0
100
AcDbPoint
 10
34.99993939490036
 20
-10.00003138096206
 30
0.0
  0
POINT
  5
86B9
330
84BE
100
AcDbEntity
  8
DEFPOINTS
  6
CONTINUOUS
 62
     0
100
AcDbPoint
 10
52.63633935493976
 20
-10.00003138096207
 30
0.0
  0
ENDBLK
  5
84C9
330
84BE
100
AcDbEntity
  8
0
100
AcDbBlockEnd
  0
BLOCK
  5
84D4
330
84CA
100
AcDbEntity
  8
0
100
AcDbBlockBegin
  2
*D15
 70
     1
 10
0.0
 20
0.0
 30
0.0
  3
*D15
  1

  0
LINE
  5
8717
330
84CA
100
AcDbEntity
  8
30
  6
CONTINUOUS
 62
     0
100
AcDbLine
 10
37.99987899999999
 20
64.75000099999999
 30
0.0
 11
77.38328004080837
 21
64.75000099999999
 31
0.0
  0
LINE
  5
8718
330
84CA
100
AcDbEntity
  8
30
  6
CONTINUOUS
 62
     0
100
AcDbLine
 10
16.49993953160796
 20
114.7500009999268
 30
0.0
 11
77.38328004080838
 21
114.7500009999268
 31
0.0
  0
LINE
  5
8719
330
84CA
100
AcDbEntity
  8
30
  6
CONTINUOUS
 62
     0
100
AcDbLine
 10
76.88328004080837
 20
66.750001
 30
0.0
 11
76.88328004080839
 21
112.7500009999268
 31
0.0
  0
INSERT
  5
871A
330
84CA
100
AcDbEntity
  8
30
  6
CONTINUOUS
 62
     0
100
AcDbBlockReference
  2
_OPEN
 10
76.88328004080837
 20
64.75000099999999
 30
0.0
 41
2.0
 42
2.0
 43
2.0
 50
270.0
  0
INSERT
  5
871B
330
84CA
100
AcDbEntity
  8
30
  6
CONTINUOUS
 62
     0
100
AcDbBlockReference
  2
_OPEN
 10
76.88328004080839
 20
114.7500009999268
 30
0.0
 41
2.0
 42
2.0
 43
2.0
 50
90.0
  0
MTEXT
  5
871C
330
84CA
100
AcDbEntity
  8
30
  6
CONTINUOUS
 62
     0
100
AcDbMText
 10
73.88328004080836
 20
89.75000099996345
 30
0.0
 40
4.0
 41
0.0
 71
     5
 72
     1
  1
\A1;50
 11
0.0000000000000001
 21
1.0
 31
0.0
1001
ACAD
1000
MTEXTBEGIN
1070
    73
1070
     1
1070
    44
1040
1.0
1070
    74
1070
     0
1000
MTEXTEND
  0
POINT
  5
871D
330
84CA
100
AcDbEntity
  8
DEFPOINTS
  6
CONTINUOUS
 62
     0
100
AcDbPoint
 10
36.99987899999999
 20
64.75000099999999
 30
0.0
  0
POINT
  5
871E
330
84CA
100
AcDbEntity
  8
DEFPOINTS
  6
CONTINUOUS
 62
     0
100
AcDbPoint
 10
15.49993953160796
 20
114.7500009999268
 30
0.0
  0
POINT
  5
871F
330
84CA
100
AcDbEntity
  8
DEFPOINTS
  6
CONTINUOUS
 62
     0
100
AcDbPoint
 10
76.88328004080839
 20
114.7500009999268
 30
0.0
  0
ENDBLK
  5
84D5
330
84CA
100
AcDbEntity
  8
0
100
AcDbBlockEnd
  0
BLOCK
  5
8547
330
853C
100
AcDbEntity
  8
0
100
AcDbBlockBegin
  2
*D16
 70
     1
 10
0.0
 20
0.0
 30
0.0
  3
*D16
  1

  0
LINE
  5
8729
330
853C
100
AcDbEntity
  8
30
  6
CONTINUOUS
 62
     0
100
AcDbLine
 10
200.9232747744074
 20
115.250001289352
 30
0.0
 11
200.9232747744074
 21
124.643024427814
 31
0.0
  0
LINE
  5
872A
330
853C
100
AcDbEntity
  8
30
  6
CONTINUOUS
 62
     0
100
AcDbLine
 10
203.4232747744076
 20
59.00000115624294
 30
0.0
 11
203.4232747744076
 21
124.643024427814
 31
0.0
  0
LINE
  5
872B
330
853C
100
AcDbEntity
  8
30
  6
CONTINUOUS
 62
     0
100
AcDbLine
 10
198.9232747744074
 20
124.143024427814
 30
0.0
 11
196.9232747744074
 21
124.143024427814
 31
0.0
  0
LINE
  5
872C
330
853C
100
AcDbEntity
  8
30
  6
CONTINUOUS
 62
     0
100
AcDbLine
 10
205.4232747744076
 20
124.143024427814
 30
0.0
 11
217.4232747744076
 21
124.143024427814
 31
0.0
  0
INSERT
  5
872D
330
853C
100
AcDbEntity
  8
30
  6
CONTINUOUS
 62
     0
100
AcDbBlockReference
  2
_OPEN
 10
200.9232747744074
 20
124.143024427814
 30
0.0
 41
2.0
 42
2.0
 43
2.0
  0
INSERT
  5
872E
330
853C
100
AcDbEntity
  8
30
  6
CONTINUOUS
 62
     0
100
AcDbBlockReference
  2
_OPEN
 10
203.4232747744076
 20
124.143024427814
 30
0.0
 41
2.0
 42
2.0
 43
2.0
 50
180.0
  0
MTEXT
  5
872F
330
853C
100
AcDbEntity
  8
30
  6
CONTINUOUS
 62
     0
100
AcDbMText
 10
212.4232747744076
 20
127.143024427814
 30
0.0
 40
4.0
 41
0.0
 71
     5
 72
     1
  1
\A1;2.5
1001
ACAD
1000
MTEXTBEGIN
1070
    73
1070
     1
1070
    44
1040
1.0
1070
    74
1070
     0
1000
MTEXTEND
  0
POINT
  5
8730
330
853C
100
AcDbEntity
  8
DEFPOINTS
  6
CONTINUOUS
 62
     0
100
AcDbPoint
 10
200.9232747744074
 20
114.250001289352
 30
0.0
  0
POINT
  5
8731
330
853C
100
AcDbEntity
  8
DEFPOINTS
  6
CONTINUOUS
 62
     0
100
AcDbPoint
 10
203.4232747744076
 20
58.00000115624294
 30
0.0
  0
POINT
  5
8732
330
853C
100
AcDbEntity
  8
DEFPOINTS
  6
CONTINUOUS
 62
     0
100
AcDbPoint
 10
203.4232747744076
 20
124.143024427814
 30
0.0
  0
ENDBLK
  5
8548
330
853C
100
AcDbEntity
  8
0
100
AcDbBlockEnd
  0
BLOCK
  5
8553
330
8549
100
AcDbEntity
  8
0
100
AcDbBlockBegin
  2
*D17
 70
     1
 10
0.0
 20
0.0
 30
0.0
  3
*D17
  1

  0
LINE
  5
856B
330
8549
100
AcDbEntity
  8
30
  6
CONTINUOUS
 62
     0
100
AcDbLine
 10
154.9232747744078
 20
115.250001289352
 30
0.0
 11
154.9232747744078
 21
124.643024427814
 31
0.0
  0
LINE
  5
856C
330
8549
100
AcDbEntity
  8
30
  6
CONTINUOUS
 62
     0
100
AcDbLine
 10
200.9232747744074
 20
115.250001289352
 30
0.0
 11
200.9232747744074
 21
124.643024427814
 31
0.0
  0
LINE
  5
856D
330
8549
100
AcDbEntity
  8
30
  6
CONTINUOUS
 62
     0
100
AcDbLine
 10
156.9232747744078
 20
124.143024427814
 30
0.0
 11
198.9232747744074
 21
124.143024427814
 31
0.0
  0
INSERT
  5
856E
330
8549
100
AcDbEntity
  8
30
  6
CONTINUOUS
 62
     0
100
AcDbBlockReference
  2
_OPEN
 10
154.9232747744078
 20
124.143024427814
 30
0.0
 41
2.0
 42
2.0
 43
2.0
 50
180.0
  0
INSERT
  5
856F
330
8549
100
AcDbEntity
  8
30
  6
CONTINUOUS
 62
     0
100
AcDbBlockReference
  2
_OPEN
 10
200.9232747744074
 20
124.143024427814
 30
0.0
 41
2.0
 42
2.0
 43
2.0
  0
MTEXT
  5
8570
330
8549
100
AcDbEntity
  8
30
  6
CONTINUOUS
 62
     0
100
AcDbMText
 10
177.9232747744076
 20
127.143024427814
 30
0.0
 40
4.0
 41
0.0
 71
     5
 72
     1
  1
\A1;46
1001
ACAD
1000
MTEXTBEGIN
1070
    73
1070
     1
1070
    44
1040
1.0
1070
    74
1070
     0
1000
MTEXTEND
  0
POINT
  5
8571
330
8549
100
AcDbEntity
  8
DEFPOINTS
  6
CONTINUOUS
 62
     0
100
AcDbPoint
 10
154.9232747744078
 20
114.250001289352
 30
0.0
  0
POINT
  5
8572
330
8549
100
AcDbEntity
  8
DEFPOINTS
  6
CONTINUOUS
 62
     0
100
AcDbPoint
 10
200.9232747744074
 20
114.250001289352
 30
0.0
  0
POINT
  5
8573
330
8549
100
AcDbEntity
  8
DEFPOINTS
  6
CONTINUOUS
 62
     0
100
AcDbPoint
 10
200.9232747744074
 20
124.143024427814
 30
0.0
  0
ENDBLK
  5
8554
330
8549
100
AcDbEntity
  8
0
100
AcDbBlockEnd
  0
BLOCK
  5
855F
330
8555
100
AcDbEntity
  8
0
100
AcDbBlockBegin
  2
*D18
 70
     1
 10
0.0
 20
0.0
 30
0.0
  3
*D18
  1

  0
LINE
  5
8720
330
8555
100
AcDbEntity
  8
30
  6
CONTINUOUS
 62
     0
100
AcDbLine
 10
160.4232747744074
 20
61.89987915829398
 30
0.0
 11
160.4232747744074
 21
83.05775882022256
 31
0.0
  0
LINE
  5
8721
330
8555
100
AcDbEntity
  8
30
  6
CONTINUOUS
 62
     0
100
AcDbLine
 10
203.4232747744076
 20
59.00000115624294
 30
0.0
 11
203.4232747744076
 21
83.05775882022256
 31
0.0
  0
LINE
  5
8722
330
8555
100
AcDbEntity
  8
30
  6
CONTINUOUS
 62
     0
100
AcDbLine
 10
162.4232747744074
 20
82.55775882022255
 30
0.0
 11
201.4232747744076
 21
82.55775882022255
 31
0.0
  0
INSERT
  5
8723
330
8555
100
AcDbEntity
  8
30
  6
CONTINUOUS
 62
     0
100
AcDbBlockReference
  2
_OPEN
 10
160.4232747744074
 20
82.55775882022255
 30
0.0
 41
2.0
 42
2.0
 43
2.0
 50
180.0
  0
INSERT
  5
8724
330
8555
100
AcDbEntity
  8
30
  6
CONTINUOUS
 62
     0
100
AcDbBlockReference
  2
_OPEN
 10
203.4232747744076
 20
82.55775882022255
 30
0.0
 41
2.0
 42
2.0
 43
2.0
  0
MTEXT
  5
8725
330
8555
100
AcDbEntity
  8
30
  6
CONTINUOUS
 62
     0
100
AcDbMText
 10
181.9232747744075
 20
85.55775882022256
 30
0.0
 40
4.0
 41
0.0
 71
     5
 72
     1
  1
\A1;43
1001
ACAD
1000
MTEXTBEGIN
1070
    73
1070
     1
1070
    44
1040
1.0
1070
    74
1070
     0
1000
MTEXTEND
  0
POINT
  5
8726
330
8555
100
AcDbEntity
  8
DEFPOINTS
  6
CONTINUOUS
 62
     0
100
AcDbPoint
 10
160.4232747744074
 20
60.89987915829398
 30
0.0
  0
POINT
  5
8727
330
8555
100
AcDbEntity
  8
DEFPOINTS
  6
CONTINUOUS
 62
     0
100
AcDbPoint
 10
203.4232747744076
 20
58.00000115624294
 30
0.0
  0
POINT
  5
8728
330
8555
100
AcDbEntity
  8
DEFPOINTS
  6
CONTINUOUS
 62
     0
100
AcDbPoint
 10
203.4232747744076
 20
82.55775882022255
 30
0.0
  0
ENDBLK
  5
8560
330
8555
100
AcDbEntity
  8
0
100
AcDbBlockEnd
  0
BLOCK
  5
858D
330
8582
100
AcDbEntity
  8
0
100
AcDbBlockBegin
  2
*D19
 70
     1
 10
0.0
 20
0.0
 30
0.0
  3
*D19
  1

  0
LINE
  5
8637
330
8582
100
AcDbEntity
  8
30
  6
CONTINUOUS
 62
     0
100
AcDbLine
 10
135.9233647744076
 20
-11.49993999999986
 30
0.0
 11
135.9233647744076
 21
-81.97660301854526
 31
0.0
  0
LINE
  5
8638
330
8582
100
AcDbEntity
  8
30
  6
CONTINUOUS
 62
     0
100
AcDbLine
 10
131.9233647744076
 20
-11.49993999999986
 30
0.0
 11
131.9233647744076
 21
-81.97660301854526
 31
0.0
  0
LINE
  5
8639
330
8582
100
AcDbEntity
  8
30
  6
CONTINUOUS
 62
     0
100
AcDbLine
 10
137.9233647744076
 20
-81.47660301854527
 30
0.0
 11
139.9233647744076
 21
-81.47660301854527
 31
0.0
  0
LINE
  5
863A
330
8582
100
AcDbEntity
  8
30
  6
CONTINUOUS
 62
     0
100
AcDbLine
 10
129.9233647744076
 20
-81.47660301854527
 30
0.0
 11
122.7569445030593
 21
-81.47660301854527
 31
0.0
  0
INSERT
  5
863B
330
8582
100
AcDbEntity
  8
30
  6
CONTINUOUS
 62
     0
100
AcDbBlockReference
  2
_OPEN
 10
135.9233647744076
 20
-81.47660301854527
 30
0.0
 41
2.0
 42
2.0
 43
2.0
 50
180.0
  0
INSERT
  5
863C
330
8582
100
AcDbEntity
  8
30
  6
CONTINUOUS
 62
     0
100
AcDbBlockReference
  2
_OPEN
 10
131.9233647744076
 20
-81.47660301854527
 30
0.0
 41
2.0
 42
2.0
 43
2.0
  0
MTEXT
  5
863D
330
8582
100
AcDbEntity
  8
30
  6
CONTINUOUS
 62
     0
100
AcDbMText
 10
125.0902778363927
 20
-78.47660301854526
 30
0.0
 40
4.0
 41
0.0
 71
     5
 72
     1
  1
\A1;4
1001
ACAD
1000
MTEXTBEGIN
1070
    73
1070
     1
1070
    44
1040
1.0
1070
    74
1070
     0
1000
MTEXTEND
  0
POINT
  5
863E
330
8582
100
AcDbEntity
  8
DEFPOINTS
  6
CONTINUOUS
 62
     0
100
AcDbPoint
 10
135.9233647744076
 20
-10.49993999999986
 30
0.0
  0
POINT
  5
863F
330
8582
100
AcDbEntity
  8
DEFPOINTS
  6
CONTINUOUS
 62
     0
100
AcDbPoint
 10
131.9233647744076
 20
-10.49993999999986
 30
0.0
  0
POINT
  5
8640
330
8582
100
AcDbEntity
  8
DEFPOINTS
  6
CONTINUOUS
 62
     0
100
AcDbPoint
 10
131.9233647744076
 20
-81.47660301854527
 30
0.0
  0
ENDBLK
  5
858E
330
8582
100
AcDbEntity
  8
0
100
AcDbBlockEnd
  0
BLOCK
  5
8599
330
858F
100
AcDbEntity
  8
0
100
AcDbBlockBegin
  2
*D20
 70
     1
 10
0.0
 20
0.0
 30
0.0
  3
*D20
  1

  0
LINE
  5
8624
330
858F
100
AcDbEntity
  8
30
  6
CONTINUOUS
 62
     0
100
AcDbLine
 10
135.9233647744076
 20
-12.49993999999986
 30
0.0
 11
135.9233647744076
 21
-93.81775155113627
 31
0.0
  0
LINE
  5
8625
330
858F
100
AcDbEntity
  8
30
  6
CONTINUOUS
 62
     0
100
AcDbLine
 10
143.4233343138716
 20
-52.39984997635486
 30
0.0
 11
143.4233343138716
 21
-93.81775155113627
 31
0.0
  0
LINE
  5
8626
330
858F
100
AcDbEntity
  8
30
  6
CONTINUOUS
 62
     0
100
AcDbLine
 10
137.9233647744076
 20
-93.31775155113627
 30
0.0
 11
141.4233343138716
 21
-93.31775155113627
 31
0.0
  0
INSERT
  5
8627
330
858F
100
AcDbEntity
  8
30
  6
CONTINUOUS
 62
     0
100
AcDbBlockReference
  2
_OPEN
 10
135.9233647744076
 20
-93.31775155113627
 30
0.0
 41
2.0
 42
2.0
 43
2.0
 50
180.0
  0
INSERT
  5
8628
330
858F
100
AcDbEntity
  8
30
  6
CONTINUOUS
 62
     0
100
AcDbBlockReference
  2
_OPEN
 10
143.4233343138716
 20
-93.31775155113627
 30
0.0
 41
2.0
 42
2.0
 43
2.0
  0
MTEXT
  5
8629
330
858F
100
AcDbEntity
  8
30
  6
CONTINUOUS
 62
     0
100
AcDbMText
 10
139.4233495083042
 20
-90.31775155113626
 30
0.0
 40
4.0
 41
0.0
 71
     5
 72
     1
  1
\A1;8
1001
ACAD
1000
MTEXTBEGIN
1070
    73
1070
     1
1070
    44
1040
1.0
1070
    74
1070
     0
1000
MTEXTEND
  0
POINT
  5
862A
330
858F
100
AcDbEntity
  8
DEFPOINTS
  6
CONTINUOUS
 62
     0
100
AcDbPoint
 10
135.9233647744076
 20
-11.49993999999986
 30
0.0
  0
POINT
  5
862B
330
858F
100
AcDbEntity
  8
DEFPOINTS
  6
CONTINUOUS
 62
     0
100
AcDbPoint
 10
143.4233343138716
 20
-51.39984997635487
 30
0.0
  0
POINT
  5
862C
330
858F
100
AcDbEntity
  8
DEFPOINTS
  6
CONTINUOUS
 62
     0
100
AcDbPoint
 10
143.4233343138716
 20
-93.31775155113627
 30
0.0
  0
ENDBLK
  5
859A
330
858F
100
AcDbEntity
  8
0
100
AcDbBlockEnd
  0
BLOCK
  5
85A5
330
859B
100
AcDbEntity
  8
0
100
AcDbBlockBegin
  2
*D21
 70
     1
 10
0.0
 20
0.0
 30
0.0
  3
*D21
  1

  0
LINE
  5
8641
330
859B
100
AcDbEntity
  8
30
  6
CONTINUOUS
 62
     0
100
AcDbLine
 10
119.4232777744076
 20
13.81336600000014
 30
0.0
 11
119.4232777744076
 21
-106.3692602611288
 31
0.0
  0
LINE
  5
8642
330
859B
100
AcDbEntity
  8
30
  6
CONTINUOUS
 62
     0
100
AcDbLine
 10
203.4232747744076
 20
-58.49993099999986
 30
0.0
 11
203.4232747744076
 21
-106.3692602611288
 31
0.0
  0
LINE
  5
8643
330
859B
100
AcDbEntity
  8
30
  6
CONTINUOUS
 62
     0
100
AcDbLine
 10
121.4232777744076
 20
-105.8692602611288
 30
0.0
 11
201.4232747744076
 21
-105.8692602611288
 31
0.0
  0
INSERT
  5
8644
330
859B
100
AcDbEntity
  8
30
  6
CONTINUOUS
 62
     0
100
AcDbBlockReference
  2
_OPEN
 10
119.4232777744076
 20
-105.8692602611288
 30
0.0
 41
2.0
 42
2.0
 43
2.0
 50
180.0
  0
INSERT
  5
8645
330
859B
100
AcDbEntity
  8
30
  6
CONTINUOUS
 62
     0
100
AcDbBlockReference
  2
_OPEN
 10
203.4232747744076
 20
-105.8692602611288
 30
0.0
 41
2.0
 42
2.0
 43
2.0
  0
MTEXT
  5
8646
330
859B
100
AcDbEntity
  8
30
  6
CONTINUOUS
 62
     0
100
AcDbMText
 10
161.4232762744076
 20
-102.8692602611288
 30
0.0
 40
4.0
 41
0.0
 71
     5
 72
     1
  1
\A1;84
1001
ACAD
1000
MTEXTBEGIN
1070
    73
1070
     1
1070
    44
1040
1.0
1070
    74
1070
     0
1000
MTEXTEND
  0
POINT
  5
8647
330
859B
100
AcDbEntity
  8
DEFPOINTS
  6
CONTINUOUS
 62
     0
100
AcDbPoint
 10
119.4232777744076
 20
14.81336600000014
 30
0.0
  0
POINT
  5
8648
330
859B
100
AcDbEntity
  8
DEFPOINTS
  6
CONTINUOUS
 62
     0
100
AcDbPoint
 10
203.4232747744076
 20
-57.49993099999986
 30
0.0
  0
POINT
  5
8649
330
859B
100
AcDbEntity
  8
DEFPOINTS
  6
CONTINUOUS
 62
     0
100
AcDbPoint
 10
203.4232747744076
 20
-105.8692602611288
 30
0.0
  0
ENDBLK
  5
85A6
330
859B
100
AcDbEntity
  8
0
100
AcDbBlockEnd
  0
BLOCK
  5
85B1
330
85A7
100
AcDbEntity
  8
0
100
AcDbBlockBegin
  2
*D22
 70
     1
 10
0.0
 20
0.0
 30
0.0
  3
*D22
  1

  0
LINE
  5
85ED
330
85A7
100
AcDbEntity
  8
30
  6
CONTINUOUS
 62
     0
100
AcDbLine
 10
143.4233343138716
 20
-52.39984997635486
 30
0.0
 11
143.4233343138716
 21
-93.87954135408245
 31
0.0
  0
LINE
  5
85EE
330
85A7
100
AcDbEntity
  8
30
  6
CONTINUOUS
 62
     0
100
AcDbLine
 10
203.4232747744076
 20
-58.49993099999986
 30
0.0
 11
203.4232747744076
 21
-93.87954135408245
 31
0.0
  0
LINE
  5
85EF
330
85A7
100
AcDbEntity
  8
30
  6
CONTINUOUS
 62
     0
100
AcDbLine
 10
145.4233343138715
 20
-93.37954135408244
 30
0.0
 11
201.4232747744076
 21
-93.37954135408244
 31
0.0
  0
INSERT
  5
85F0
330
85A7
100
AcDbEntity
  8
30
  6
CONTINUOUS
 62
     0
100
AcDbBlockReference
  2
_OPEN
 10
143.4233343138716
 20
-93.37954135408244
 30
0.0
 41
2.0
 42
2.0
 43
2.0
 50
180.0
  0
INSERT
  5
85F1
330
85A7
100
AcDbEntity
  8
30
  6
CONTINUOUS
 62
     0
100
AcDbBlockReference
  2
_OPEN
 10
203.4232747744076
 20
-93.37954135408244
 30
0.0
 41
2.0
 42
2.0
 43
2.0
  0
MTEXT
  5
85F2
330
85A7
100
AcDbEntity
  8
30
  6
CONTINUOUS
 62
     0
100
AcDbMText
 10
173.4233045441396
 20
-90.37954135408245
 30
0.0
 40
4.0
 41
0.0
 71
     5
 72
     1
  1
\A1;60
1001
ACAD
1000
MTEXTBEGIN
1070
    73
1070
     1
1070
    44
1040
1.0
1070
    74
1070
     0
1000
MTEXTEND
  0
POINT
  5
85F3
330
85A7
100
AcDbEntity
  8
DEFPOINTS
  6
CONTINUOUS
 62
     0
100
AcDbPoint
 10
143.4233343138716
 20
-51.39984997635487
 30
0.0
  0
POINT
  5
85F4
330
85A7
100
AcDbEntity
  8
DEFPOINTS
  6
CONTINUOUS
 62
     0
100
AcDbPoint
 10
203.4232747744076
 20
-57.49993099999986
 30
0.0
  0
POINT
  5
85F5
330
85A7
100
AcDbEntity
  8
DEFPOINTS
  6
CONTINUOUS
 62
     0
100
AcDbPoint
 10
203.4232747744076
 20
-93.37954135408244
 30
0.0
  0
ENDBLK
  5
85B2
330
85A7
100
AcDbEntity
  8
0
100
AcDbBlockEnd
  0
BLOCK
  5
85BD
330
85B3
100
AcDbEntity
  8
0
100
AcDbBlockBegin
  2
*D23
 70
     1
 10
0.0
 20
0.0
 30
0.0
  3
*D23
  1

  0
LINE
  5
85F6
330
85B3
100
AcDbEntity
  8
30
  6
CONTINUOUS
 62
     0
100
AcDbLine
 10
152.4233040206476
 20
-65.24981825322488
 30
0.0
 11
152.4233040206476
 21
-81.38982156013046
 31
0.0
  0
LINE
  5
85F7
330
85B3
100
AcDbEntity
  8
30
  6
CONTINUOUS
 62
     0
100
AcDbLine
 10
203.4232747744076
 20
-58.49993099999986
 30
0.0
 11
203.4232747744076
 21
-81.38982156013046
 31
0.0
  0
LINE
  5
85F8
330
85B3
100
AcDbEntity
  8
30
  6
CONTINUOUS
 62
     0
100
AcDbLine
 10
154.4233040206476
 20
-80.88982156013045
 30
0.0
 11
201.4232747744076
 21
-80.88982156013045
 31
0.0
  0
INSERT
  5
85F9
330
85B3
100
AcDbEntity
  8
30
  6
CONTINUOUS
 62
     0
100
AcDbBlockReference
  2
_OPEN
 10
152.4233040206476
 20
-80.88982156013045
 30
0.0
 41
2.0
 42
2.0
 43
2.0
 50
180.0
  0
INSERT
  5
85FA
330
85B3
100
AcDbEntity
  8
30
  6
CONTINUOUS
 62
     0
100
AcDbBlockReference
  2
_OPEN
 10
203.4232747744076
 20
-80.88982156013045
 30
0.0
 41
2.0
 42
2.0
 43
2.0
  0
MTEXT
  5
85FB
330
85B3
100
AcDbEntity
  8
30
  6
CONTINUOUS
 62
     0
100
AcDbMText
 10
177.9232893975276
 20
-77.88982156013045
 30
0.0
 40
4.0
 41
0.0
 71
     5
 72
     1
  1
\A1;51
1001
ACAD
1000
MTEXTBEGIN
1070
    73
1070
     1
1070
    44
1040
1.0
1070
    74
1070
     0
1000
MTEXTEND
  0
POINT
  5
85FC
330
85B3
100
AcDbEntity
  8
DEFPOINTS
  6
CONTINUOUS
 62
     0
100
AcDbPoint
 10
152.4233040206476
 20
-64.24981825322487
 30
0.0
  0
POINT
  5
85FD
330
85B3
100
AcDbEntity
  8
DEFPOINTS
  6
CONTINUOUS
 62
     0
100
AcDbPoint
 10
203.4232747744076
 20
-57.49993099999986
 30
0.0
  0
POINT
  5
85FE
330
85B3
100
AcDbEntity
  8
DEFPOINTS
  6
CONTINUOUS
 62
     0
100
AcDbPoint
 10
203.4232747744076
 20
-80.88982156013045
 30
0.0
  0
ENDBLK
  5
85BE
330
85B3
100
AcDbEntity
  8
0
100
AcDbBlockEnd
  0
BLOCK
  5
8794
330
878A
100
AcDbEntity
  8
0
100
AcDbBlockBegin
  2
*D24
 70
     1
 10
0.0
 20
0.0
 30
0.0
  3
*D24
  1

  0
LINE
  5
878B
330
878A
100
AcDbEntity
  8
30
  6
CONTINUOUS
 62
     0
100
AcDbLine
 10
206.2029356423942
 20
-235.8473940210348
 30
0.0
 11
215.7489879456688
 21
-235.8473940210348
 31
0.0
  0
LINE
  5
878C
330
878A
100
AcDbEntity
  8
30
  6
CONTINUOUS
 62
     0
100
AcDbLine
 10
206.2029356423942
 20
-250.8473940210349
 30
0.0
 11
215.7489879456688
 21
-250.8473940210349
 31
0.0
  0
LINE
  5
878D
330
878A
100
AcDbEntity
  8
30
  6
CONTINUOUS
 62
     0
100
AcDbLine
 10
215.2489879456688
 20
-237.8473940210348
 30
0.0
 11
215.2489879456688
 21
-248.8473940210349
 31
0.0
  0
INSERT
  5
878E
330
878A
100
AcDbEntity
  8
30
  6
CONTINUOUS
 62
     0
100
AcDbBlockReference
  2
_OPEN
 10
215.2489879456688
 20
-235.8473940210348
 30
0.0
 41
2.0
 42
2.0
 43
2.0
 50
90.0
  0
INSERT
  5
878F
330
878A
100
AcDbEntity
  8
30
  6
CONTINUOUS
 62
     0
100
AcDbBlockReference
  2
_OPEN
 10
215.2489879456688
 20
-250.8473940210349
 30
0.0
 41
2.0
 42
2.0
 43
2.0
 50
270.0
  0
MTEXT
  5
8790
330
878A
100
AcDbEntity
  8
30
  6
CONTINUOUS
 62
     0
100
AcDbMText
 10
212.2489879456689
 20
-243.3473940210348
 30
0.0
 40
4.0
 41
0.0
 71
     5
 72
     1
  1
\A1;15
 11
0.0000000000000001
 21
1.0
 31
0.0
1001
ACAD
1000
MTEXTBEGIN
1070
    73
1070
     1
1070
    44
1040
1.0
1070
    74
1070
     0
1000
MTEXTEND
  0
POINT
  5
8791
330
878A
100
AcDbEntity
  8
DEFPOINTS
  6
CONTINUOUS
 62
     0
100
AcDbPoint
 10
205.2029356423942
 20
-235.8473940210348
 30
0.0
  0
POINT
  5
8792
330
878A
100
AcDbEntity
  8
DEFPOINTS
  6
CONTINUOUS
 62
     0
100
AcDbPoint
 10
205.2029356423942
 20
-250.8473940210349
 30
0.0
  0
POINT
  5
8793
330
878A
100
AcDbEntity
  8
DEFPOINTS
  6
CONTINUOUS
 62
     0
100
AcDbPoint
 10
215.2489879456688
 20
-250.8473940210349
 30
0.0
  0
ENDBLK
  5
8795
330
878A
100
AcDbEntity
  8
0
100
AcDbBlockEnd
  0
BLOCK
  5
87CE
330
879D
100
AcDbEntity
  8
0
100
AcDbBlockBegin
  2
A$C49827007
 70
     0
 10
0.0
 20
0.0
 30
0.0
  3
A$C49827007
  1

  0
CIRCLE
  5
879E
330
879D
100
AcDbEntity
  8
0
  6
CONTINUOUS
100
AcDbCircle
 10
-27.4
 20
-13.35005999999998
 30
0.0
 40
1.75
  0
CIRCLE
  5
879F
330
879D
100
AcDbEntity
  8
0
  6
CONTINUOUS
100
AcDbCircle
 10
-27.4
 20
-4.350059999999984
 30
0.0
 40
1.75
  0
CIRCLE
  5
87A0
330
879D
100
AcDbEntity
  8
0
  6
CONTINUOUS
100
AcDbCircle
 10
-27.4
 20
-4.350059999999984
 30
0.0
 40
2.1
  0
CIRCLE
  5
87A1
330
879D
100
AcDbEntity
  8
0
  6
CONTINUOUS
100
AcDbCircle
 10
-27.4
 20
-13.35005999999998
 30
0.0
 40
2.1
  0
LINE
  5
87A2
330
879D
100
AcDbEntity
  8
0
  6
CONTINUOUS
100
AcDbLine
 10
-1.500070000000008
 20
-13.84987499999999
 30
0.0
 11
1.499929999999991
 21
-13.84987499999999
 31
0.0
  0
LINE
  5
87A3
330
879D
100
AcDbEntity
  8
0
  6
CONTINUOUS
100
AcDbLine
 10
-1.500070000000008
 20
-16.84987499999999
 30
0.0
 11
1.499929999999991
 21
-16.84987499999999
 31
0.0
  0
LINE
  5
87A4
330
879D
100
AcDbEntity
  8
0
  6
CONTINUOUS
100
AcDbLine
 10
-3.400070000000013
 20
-17.14987200000001
 30
0.0
 11
3.399929999999983
 21
-17.14987200000001
 31
0.0
  0
ARC
  5
87A5
330
879D
100
AcDbEntity
  8
0
  6
CONTINUOUS
100
AcDbCircle
 10
-3.400070000000013
 20
-16.64987200000001
 30
0.0
 40
0.5
100
AcDbArc
 50
180.0
 51
270.0
  0
LINE
  5
87A6
330
879D
100
AcDbEntity
  8
0
  6
CONTINUOUS
100
AcDbLine
 10
-1.500070000000008
 20
-13.84987499999999
 30
0.0
 11
-1.500070000000008
 21
-16.84987499999999
 31
0.0
  0
LINE
  5
87A7
330
879D
100
AcDbEntity
  8
0
  6
CONTINUOUS
100
AcDbLine
 10
-3.900070000000013
 20
-14.04987199999999
 30
0.0
 11
-3.900070000000013
 21
-16.64987200000001
 31
0.0
  0
LINE
  5
87A8
330
879D
100
AcDbEntity
  8
0
  6
CONTINUOUS
100
AcDbLine
 10
1.499929999999991
 20
-13.84987499999999
 30
0.0
 11
1.499929999999991
 21
-16.84987499999999
 31
0.0
  0
LINE
  5
87A9
330
879D
100
AcDbEntity
  8
0
  6
CONTINUOUS
100
AcDbLine
 10
3.899929999999983
 20
-14.04987199999999
 30
0.0
 11
3.899929999999983
 21
-16.64987200000001
 31
0.0
  0
ARC
  5
87AA
330
879D
100
AcDbEntity
  8
0
  6
CONTINUOUS
100
AcDbCircle
 10
3.399929999999983
 20
-16.64987200000001
 30
0.0
 40
0.5
100
AcDbArc
 50
270.0
 51
0.0
  0
CIRCLE
  5
87AB
330
879D
100
AcDbEntity
  8
0
  6
CONTINUOUS
100
AcDbCircle
 10
24.20000799999998
 20
-21.20000099999998
 30
0.0
 40
3.1
  0
CIRCLE
  5
87AC
330
879D
100
AcDbEntity
  8
0
  6
CONTINUOUS
100
AcDbCircle
 10
24.20000799999998
 20
-21.20000099999998
 30
0.0
 40
3.75
  0
CIRCLE
  5
87AD
330
879D
100
AcDbEntity
  8
0
  6
CONTINUOUS
100
AcDbCircle
 10
25.70013099999998
 20
-6.700000999999986
 30
0.0
 40
2.85
  0
CIRCLE
  5
87AE
330
879D
100
AcDbEntity
  8
0
  6
CONTINUOUS
100
AcDbCircle
 10
32.69999999999999
 20
-13.5
 30
0.0
 40
1.8
  0
LINE
  5
87AF
330
879D
100
AcDbEntity
  8
0
  6
PHANTOM
100
AcDbLine
 10
-13.10006100000001
 20
49.75000099999999
 30
0.0
 11
-13.10006100000001
 21
99.750001
 31
0.0
  0
LINE
  5
87B0
330
879D
100
AcDbEntity
  8
0
  6
PHANTOM
100
AcDbLine
 10
-9.500061000000016
 20
49.75000099999999
 30
0.0
 11
-9.500061000000016
 21
99.750001
 31
0.0
  0
LINE
  5
87B1
330
879D
100
AcDbEntity
  8
0
  6
PHANTOM
100
AcDbLine
 10
-13.10006100000001
 20
99.750001
 30
0.0
 11
-9.500061000000016
 21
99.750001
 31
0.0
  0
LINE
  5
87B2
330
879D
100
AcDbEntity
  8
0
  6
PHANTOM
100
AcDbLine
 10
15.49993999999999
 20
49.75000099999999
 30
0.0
 11
15.49993999999999
 21
99.750001
 31
0.0
  0
LINE
  5
87B3
330
879D
100
AcDbEntity
  8
0
  6
PHANTOM
100
AcDbLine
 10
11.89993899999999
 20
49.75000099999999
 30
0.0
 11
11.89993899999999
 21
99.750001
 31
0.0
  0
LINE
  5
87B4
330
879D
100
AcDbEntity
  8
0
  6
PHANTOM
100
AcDbLine
 10
11.89993899999999
 20
99.750001
 30
0.0
 11
15.49993999999999
 21
99.750001
 31
0.0
  0
LINE
  5
87B5
330
879D
100
AcDbEntity
  8
0
  6
CONTINUOUS
100
AcDbLine
 10
57.50002899999998
 20
-52.65000199999997
 30
0.0
 11
57.50002899999998
 21
-59.25000199999996
 31
0.0
  0
SPLINE
  5
87B6
330
879D
100
AcDbEntity
  8
0
  6
CONTINUOUS
100
AcDbSpline
210
0.0
220
0.0
230
1.0
 70
     8
 71
     3
 72
    87
 73
    83
 74
    81
 42
0.0000000001
 43
0.0000000001
 44
0.000001
 12
0.2426581112077736
 22
-0.9701118703866455
 32
0.0
 13
-0.6507913734550556
 23
-0.7592566023660794
 33
0.0
 40
0.0
 40
0.0
 40
0.0
 40
0.0
 40
0.1255431072398531
 40
0.2511269969225416
 40
0.3839024650050757
 40
0.5167054937989125
 40
0.6570174880253904
 40
0.7973457869491341
 40
0.9443722598956313
 40
1.091407705447811
 40
1.243648881242685
 40
1.395894469434874
 40
1.551540750169389
 40
1.707189016119114
 40
1.864243005435195
 40
2.021297271111124
 40
2.177682715433789
 40
2.334066829371472
 40
2.487479342050958
 40
2.640884439585024
 40
2.788215043043657
 40
2.93552725274975
 40
3.074193840372279
 40
3.212820851634016
 40
3.341840283566282
 40
3.470785858719983
 40
3.592177629147726
 40
3.713561721970659
 40
3.832521465735057
 40
3.951501595424082
 40
4.072666054292788
 40
4.193862121060579
 40
4.320363008755441
 40
4.44689261128352
 40
4.580090452955617
 40
4.713319024124949
 40
4.851879281796316
 40
4.990452016149658
 40
5.131461119322999
 40
5.272472174600236
 40
5.412524634283909
 40
5.552569795738046
 40
5.688372575418819
 40
5.824149734484417
 40
5.953138789480003
 40
6.08206938929363
 40
6.20407491768505
 40
6.325981557416973
 40
6.445215143796427
 40
6.564373394738986
 40
6.689588957363636
 40
6.814992378288986
 40
6.950709179302371
 40
7.086505378725117
 40
7.229860454445697
 40
7.373238090393531
 40
7.5182626416208
 40
7.663280399564085
 40
7.804167203037657
 40
7.945042545922906
 40
8.079615931208046
 40
8.214168470955851
 40
8.341935309688132
 40
8.469668073173544
 40
8.591574124563626
 40
8.713434931530146
 40
8.832447802635035
 40
8.951467293301341
 40
9.071921336912273
 40
9.192398541145591
 40
9.318011224275103
 40
9.443651947668426
 40
9.577122760985552
 40
9.710618434358107
 40
9.853270735784244
 40
9.995951296353364
 40
10.14641836130677
 40
10.29689822043583
 40
10.45231410938837
 40
10.60773471966132
 40
10.76467115198074
 40
10.92160673161709
 40
10.92160673161709
 40
10.92160673161709
 40
10.92160673161709
 10
49.04860106496812
 20
-51.65000161432772
 30
0.0
 10
49.05875574939411
 20
-51.69059856718726
 30
0.0
 10
49.0827547388594
 20
-51.77091777276419
 30
0.0
 10
49.12879828930639
 20
-51.8904199430061
 30
0.0
 10
49.18376949517149
 20
-52.00875227300231
 30
0.0
 10
49.24778190185752
 20
-52.12801584479294
 30
0.0
 10
49.31880689674585
 20
-52.24617481875466
 30
0.0
 10
49.39726144596722
 20
-52.36523833800706
 30
0.0
 10
49.48100505168471
 20
-52.48339081309016
 30
0.0
 10
49.57043884209017
 20
-52.60229391513689
 30
0.0
 10
49.66357549648094
 20
-52.720535579718
 30
0.0
 10
49.7606249592616
 20
-52.83931247727418
 30
0.0
 10
49.85996262762004
 20
-52.9576653059428
 30
0.0
 10
49.96143177790312
 20
-53.07631046056672
 30
0.0
 10
50.06381956328052
 20
-53.19478336449717
 30
0.0
 10
50.16653073792802
 20
-53.31330098280147
 30
0.0
 10
50.26880760229953
 20
-53.43189968979475
 30
0.0
 10
50.36953496910228
 20
-53.5502287024952
 30
0.0
 10
50.46842190811514
 20
-53.66881347840404
 30
0.0
 10
50.5632731675023
 20
-53.78681142954683
 30
0.0
 10
50.65386952940409
 20
-53.90557160190384
 30
0.0
 10
50.73739142277638
 20
-54.02345839057811
 30
0.0
 10
50.81402310596676
 20
-54.14252094943631
 30
0.0
 10
50.88070879788594
 20
-54.26051544706026
 30
0.0
 10
50.93754065813297
 20
-54.38000896186974
 30
0.0
 10
50.98186550396679
 20
-54.49866393280368
 30
0.0
 10
51.01280458067475
 20
-54.61887955496799
 30
0.0
 10
51.03056434146679
 20
-54.73837367565736
 30
0.0
 10
51.03553978630524
 20
-54.85825410573113
 30
0.0
 10
51.02871913200441
 20
-54.97794629048442
 30
0.0
 10
51.01046997469119
 20
-55.09717204734699
 30
0.0
 10
50.98154610247021
 20
-55.21681185101916
 30
0.0
 10
50.94277635072238
 20
-55.33550052539666
 30
0.0
 10
50.89434984308185
 20
-55.45488506904973
 30
0.0
 10
50.83770794459891
 20
-55.5730671501216
 30
0.0
 10
50.77356726477656
 20
-55.69189224128352
 30
0.0
 10
50.70442538294704
 20
-55.80994149498827
 30
0.0
 10
50.63105384513113
 20
-55.92845643191049
 30
0.0
 10
50.55562667704656
 20
-56.04663652589143
 30
0.0
 10
50.47942851201831
 20
-56.16490593659034
 30
0.0
 10
50.40402442573033
 20
-56.28330548629953
 30
0.0
 10
50.33135252844527
 20
-56.40137520386061
 30
0.0
 10
50.26236482770709
 20
-56.52000384772147
 30
0.0
 10
50.1997458078403
 20
-56.63798576039313
 30
0.0
 10
50.1443240107501
 20
-56.7570233884296
 30
0.0
 10
50.09891705840672
 20
-56.87539121816469
 30
0.0
 10
50.06473982434993
 20
-56.99507083288912
 30
0.0
 10
50.04403934798162
 20
-57.114639175098
 30
0.0
 10
50.03927128997828
 20
-57.23501628791286
 30
0.0
 10
50.05184015380888
 20
-57.35605107000941
 30
0.0
 10
50.08405385953754
 20
-57.47549526020538
 30
0.0
 10
50.13242458768925
 20
-57.59506710255419
 30
0.0
 10
50.19301101682628
 20
-57.71284692773665
 30
0.0
 10
50.26430052586599
 20
-57.83141516623226
 30
0.0
 10
50.34195665030409
 20
-57.94894687678031
 30
0.0
 10
50.42435087698859
 20
-58.06695331547317
 30
0.0
 10
50.50798624336395
 20
-58.1847548106373
 30
0.0
 10
50.590181908452
 20
-58.30256486680425
 30
0.0
 10
50.66866383395491
 20
-58.42124129284525
 30
0.0
 10
50.74147608649882
 20
-58.53941909760736
 30
0.0
 10
50.80861464681204
 20
-58.65850453295327
 30
0.0
 10
50.86807384730956
 20
-58.77675597030712
 30
0.0
 10
50.91990755632349
 20
-58.89607783772222
 30
0.0
 10
50.96232672733483
 20
-59.01463168453664
 30
0.0
 10
50.99494571148246
 20
-59.13422939180509
 30
0.0
 10
51.01648116994917
 20
-59.25341350689134
 30
0.0
 10
51.02587523238893
 20
-59.37320786797418
 30
0.0
 10
51.023629878853
 20
-59.49286851264729
 30
0.0
 10
51.00978421404708
 20
-59.61222933611985
 30
0.0
 10
50.98486559006186
 20
-59.73199794120661
 30
0.0
 10
50.9492848216167
 20
-59.85084011556063
 30
0.0
 10
50.90300712350331
 20
-59.97056314451251
 30
0.0
 10
50.84710644094062
 20
-60.08901139175257
 30
0.0
 10
50.78087585375386
 20
-60.20850793968826
 30
0.0
 10
50.70613418450689
 20
-60.32650735278368
 30
0.0
 10
50.62267775750078
 20
-60.44545539018542
 30
0.0
 10
50.53341568199464
 20
-60.56338407237771
 30
0.0
 10
50.43823678041846
 20
-60.68206793969673
 30
0.0
 10
50.33972004527771
 20
-60.80014530544778
 30
0.0
 10
50.23832401026632
 20
-60.91860141451604
 30
0.0
 10
50.13594457161882
 20
-61.03687656558872
 30
0.0
 10
50.06755040548851
 20
-61.1160505101957
 30
0.0
 10
50.03350629835001
 20
-61.15576863519073
 30
0.0
 11
49.04860106496812
 21
-51.65000161432772
 31
0.0
 11
49.08428132279169
 21
-51.77036769875917
 31
0.0
 11
49.12919406695465
 21
-51.88764578984899
 31
0.0
 11
49.184906697933
 21
-52.00816724197753
 31
0.0
 11
49.24750786364973
 21
-52.12528996537045
 31
0.0
 11
49.31962291875269
 21
-52.24565137387694
 31
0.0
 11
49.39667341497662
 21
-52.36293414089198
 31
0.0
 11
49.48156319507083
 21
-52.48297790044043
 31
0.0
 11
49.56982168085861
 21
-52.60057831641359
 31
0.0
 11
49.66392895143227
 21
-52.72024950543536
 31
0.0
 11
49.76016351065769
 21
-52.83822249193514
 31
0.0
 11
49.860146049141
 21
-52.95750892826714
 31
0.0
 11
49.96122931149017
 21
-53.07586666745669
 31
0.0
 11
50.06384754953174
 21
-53.19475926958617
 31
0.0
 11
50.16662937991128
 21
-53.31351084297828
 31
0.0
 11
50.26868185208312
 21
-53.43200851802169
 31
0.0
 11
50.36997401247615
 21
-53.55115501849986
 31
0.0
 11
50.46806918559224
 21
-53.66910727866002
 31
0.0
 11
50.56402213935917
 21
-53.78879919402152
 31
0.0
 11
50.65317803124557
 21
-53.90609170870101
 31
0.0
 11
50.73812722521267
 21
-54.02644336954316
 31
0.0
 11
50.81289714451853
 21
-54.14322471475713
 31
0.0
 11
50.88079136830817
 21
-54.26408754506482
 31
0.0
 11
50.9358448157219
 21
-54.38077144623838
 31
0.0
 11
50.98051666691737
 21
-54.50173172058652
 31
0.0
 11
51.01073413687567
 21
-54.61930240912653
 31
0.0
 11
51.02852332769842
 21
-54.73937589610816
 31
0.0
 11
51.0335872289921
 21
-54.85822780429399
 31
0.0
 11
51.02690399085677
 21
-54.97702007162962
 31
0.0
 11
51.00878181792913
 21
-55.09682160893354
 31
0.0
 11
50.98046940498432
 21
-55.21466424715118
 31
0.0
 11
50.94140249023524
 21
-55.33498150078589
 31
0.0
 11
50.89403031867298
 21
-55.45230842267276
 31
0.0
 11
50.83676517946187
 21
-55.57256795989909
 31
0.0
 11
50.77375175951641
 21
-55.68995259819423
 31
0.0
 11
50.70394420031317
 21
-55.80964327317255
 31
0.0
 11
50.63121587111496
 21
-55.92759677371569
 31
0.0
 11
50.55554223889487
 21
-56.04658049897338
 31
0.0
 11
50.47935907607044
 21
-56.16524094923727
 31
0.0
 11
50.40432544178449
 21
-56.28349784088555
 31
0.0
 11
50.33111779698484
 21
-56.40288512475888
 31
0.0
 11
50.26312524153286
 21
-56.52044120742814
 31
0.0
 11
50.19976668718914
 21
-56.64052930028055
 31
0.0
 11
50.14568617599917
 21
-56.75763390648802
 31
0.0
 11
50.09993332293086
 21
-56.87817347580218
 31
0.0
 11
50.06684525158724
 21
-56.99560659464228
 31
0.0
 11
50.04658351118658
 21
-57.11581765132388
 31
0.0
 11
50.0421199740847
 21
-57.23496768535582
 31
0.0
 11
50.05468305893285
 21
-57.35346182684549
 31
0.0
 11
50.08641931381058
 21
-57.47458882337557
 31
0.0
 11
50.1327848721501
 21
-57.59110600236713
 31
0.0
 11
50.19430002282368
 21
-57.7120809353028
 31
0.0
 11
50.26379025283387
 21
-57.82875017788871
 31
0.0
 11
50.34245654663817
 21
-57.94859293510151
 31
0.0
 11
50.42418760198344
 21
-58.06639435341018
 31
0.0
 11
50.50782527500058
 21
-58.1848715734439
 31
0.0
 11
50.59046532059816
 21
-58.30403852893173
 31
0.0
 11
50.66803077589927
 21
-58.42165094909862
 31
0.0
 11
50.7417751262129
 21
-58.54168270445319
 31
0.0
 11
50.8076793551281
 21
-58.65901394223786
 31
0.0
 11
50.86792200250503
 21
-58.77932687997469
 31
0.0
 11
50.91860249611747
 21
-58.89661222919366
 31
0.0
 11
50.96137424968739
 21
-59.01697105549629
 31
0.0
 11
50.9932159979418
 21
-59.13464522324315
 31
0.0
 11
51.01460016797301
 21
-59.25461523101791
 31
0.0
 11
51.02394976033252
 21
-59.37326040996453
 31
0.0
 11
51.02173475820646
 21
-59.49225940653952
 31
0.0
 11
51.00800838072132
 21
-59.61192890477756
 31
0.0
 11
50.98357982375938
 21
-59.72990358206118
 31
0.0
 11
50.94774537539669
 21
-59.85029651782659
 31
0.0
 11
50.90260386863511
 21
-59.96754775758279
 31
0.0
 11
50.84582274900473
 21
-60.08833839970939
 31
0.0
 11
50.781275396837
 21
-60.20519193310434
 31
0.0
 11
50.70520968297677
 21
-60.32587208744269
 31
0.0
 11
50.62349572292117
 21
-60.44283610862581
 31
0.0
 11
50.53286629782173
 21
-60.56294712220782
 31
0.0
 11
50.43889740365475
 21
-60.68048028414728
 31
0.0
 11
50.33947278983953
 21
-60.79993259043158
 31
0.0
 11
50.2385458063577
 21
-60.91812445966883
 31
0.0
 11
50.13596516909777
 21
-61.03689425366349
 31
0.0
 11
50.03350629835001
 21
-61.15576863519073
 31
0.0
  0
SPLINE
  5
87B7
330
879D
100
AcDbEntity
  8
0
  6
CONTINUOUS
100
AcDbSpline
210
0.0
220
0.0
230
1.0
 70
     8
 71
     3
 72
   103
 73
    99
 74
    97
 42
0.0000000001
 43
0.0000000001
 44
0.000001
 12
-0.1460598731528251
 22
-0.9892757519794875
 32
0.0
 13
-0.6507913734557392
 23
-0.7592566023654931
 33
0.0
 40
0.0
 40
0.0
 40
0.0
 40
0.0
 40
0.0992148049618737
 40
0.1984508552742701
 40
0.2991918449174913
 40
0.3999707082522202
 40
0.505522626020556
 40
0.6111074689316676
 40
0.7229832868367337
 40
0.8348810781762391
 40
0.9532329816860649
 40
1.071598448427095
 40
1.195560466578948
 40
1.3195296842393
 40
1.447624425078857
 40
1.57572265626353
 40
1.706139080341103
 40
1.836556709619789
 40
1.967319775320524
 40
2.098082250560343
 40
2.227175107473183
 40
2.356265290536665
 40
2.481779205107968
 40
2.607287235308592
 40
2.727589743030084
 40
2.847880855542895
 40
2.962001982168462
 40
3.076112305780757
 40
3.184358283760368
 40
3.292590400752437
 40
3.395963251857055
 40
3.49932045346468
 40
3.599434287607132
 40
3.699534305879495
 40
3.798644495691046
 40
3.897762018577534
 40
3.998322440707001
 40
4.098895379829221
 40
4.202881361595783
 40
4.306880821111386
 40
4.415697995214017
 40
4.524527016484203
 40
4.638720956551073
 40
4.752932096020629
 40
4.871056166221658
 40
4.98918693219509
 40
5.108762578627827
 40
5.228338385966842
 40
5.346650867975465
 40
5.464957107350617
 40
5.579512484712047
 40
5.694052170575994
 40
5.803115987365051
 40
5.912147381374026
 40
6.015399359949296
 40
6.118596498721765
 40
6.218087423711234
 40
6.317519389539794
 40
6.418155387201031
 40
6.518871388049711
 40
6.624883584407276
 40
6.730949513323688
 40
6.842957611970204
 40
6.954991486461308
 40
7.071327186492634
 40
7.187672479775241
 40
7.305753166103134
 40
7.423834835036648
 40
7.541530943804158
 40
7.659224707889602
 40
7.774652355269358
 40
7.890073277760556
 40
8.001654483968568
 40
8.113221956146327
 40
8.220140322919132
 40
8.327046616758464
 40
8.429821994414821
 40
8.532583017928823
 40
8.63252989193784
 40
8.732463018464651
 40
8.831604253796635
 40
8.93073758630971
 40
9.031674516945825
 40
9.132630294658621
 40
9.237655907697059
 40
9.342700025649927
 40
9.453253790294569
 40
9.563822326996847
 40
9.680626525641647
 40
9.797441323871288
 40
9.920449251963409
 40
10.04346762082084
 40
10.17127138227983
 40
10.29908004362731
 40
10.42961237722013
 40
10.56014638154075
 40
10.69112022020317
 40
10.82209282240741
 40
10.82209282240741
 40
10.82209282240741
 40
10.82209282240741
 10
47.78611410631748
 20
-51.65000161432772
 30
0.0
 10
47.78128367237495
 20
-51.68271854792311
 30
0.0
 10
47.77553686018019
 20
-51.74879494598543
 30
0.0
 10
47.77809161531421
 20
-51.84868496769504
 30
0.0
 10
47.79152421772879
 20
-51.9482164678201
 30
0.0
 10
47.81487326574442
 20
-52.0480143151006
 30
0.0
 10
47.84728973492812
 20
-52.14692861960156
 30
0.0
 10
47.8884456988037
 20
-52.24651373851512
 30
0.0
 10
47.93694210726251
 20
-52.34508631730858
 30
0.0
 10
47.99298129333434
 20
-52.44446521238891
 30
0.0
 10
48.05481414822955
 20
-52.54289898567539
 30
0.0
 10
48.12280067441439
 20
-52.64208680132334
 30
0.0
 10
48.19506510379085
 20
-52.74052653636893
 30
0.0
 10
48.27190384644271
 20
-52.83956795296951
 30
0.0
 10
48.35161615471129
 20
-52.93808608200759
 30
0.0
 10
48.43423051442442
 20
-53.03699613769147
 30
0.0
 10
48.51837963796525
 20
-53.13562106871478
 30
0.0
 10
48.60370512341291
 20
-53.23440531039405
 30
0.0
 10
48.68925722950351
 20
-53.3331456223836
 30
0.0
 10
48.77422777711486
 20
-53.4318055066371
 30
0.0
 10
48.85810384051088
 20
-53.53066936732784
 30
0.0
 10
48.93963850478305
 20
-53.62921587221119
 30
0.0
 10
49.01873397520042
 20
-53.72821018296727
 30
0.0
 10
49.09376941973524
 20
-53.82666475537332
 30
0.0
 10
49.16496547433994
 20
-53.92580190484605
 30
0.0
 10
49.23049427272105
 20
-54.02425877508974
 30
0.0
 10
49.29069399433609
 20
-54.12366356811925
 30
0.0
 10
49.3441913059334
 20
-54.22229700888324
 30
0.0
 10
49.39161312125898
 20
-54.3218259546739
 30
0.0
 10
49.43190158040768
 20
-54.42060998352705
 30
0.0
 10
49.46536676393357
 20
-54.52019717269812
 30
0.0
 10
49.49131454429384
 20
-54.61922403974887
 30
0.0
 10
49.50966467595574
 20
-54.7188328997353
 30
0.0
 10
49.52007757038797
 20
-54.81817450800224
 30
0.0
 10
49.52217349267709
 20
-54.91770670159606
 30
0.0
 10
49.5163376051243
 20
-55.01723386657618
 30
0.0
 10
49.50270722249868
 20
-55.11648230747454
 30
0.0
 10
49.48157586530752
 20
-55.21605419881951
 30
0.0
 10
49.45330792872269
 20
-55.31502701790532
 30
0.0
 10
49.41789180057454
 20
-55.41457969026112
 30
0.0
 10
49.37602807016181
 20
-55.51334816758291
 30
0.0
 10
49.3273910111437
 20
-55.61274882364663
 30
0.0
 10
49.2730617642373
 20
-55.71120260720508
 30
0.0
 10
49.21344435354381
 20
-55.81016002738089
 30
0.0
 10
49.15047834029446
 20
-55.908572173784
 30
0.0
 10
49.08475327726167
 20
-56.00731105048482
 30
0.0
 10
49.01787872045218
 20
-56.10585666750861
 30
0.0
 10
48.95091302175334
 20
-56.20441337331221
 30
0.0
 10
48.88495008401569
 20
-56.30313880833083
 30
0.0
 10
48.82156502270845
 20
-56.40156099006986
 30
0.0
 10
48.761372520477
 20
-56.50050881865129
 30
0.0
 10
48.70630761655039
 20
-56.59890065788157
 30
0.0
 10
48.65669858779745
 20
-56.69811656629399
 30
0.0
 10
48.61456994673813
 20
-56.79668930049247
 30
0.0
 10
48.58042098179446
 20
-56.89626409524691
 30
0.0
 10
48.55594590750893
 20
-56.99543728776871
 30
0.0
 10
48.54234039004946
 20
-57.09542749968291
 30
0.0
 10
48.54070189760395
 20
-57.19555224964596
 30
0.0
 10
48.55269509842043
 20
-57.29537465024153
 30
0.0
 10
48.57638361589654
 20
-57.39523225557339
 30
0.0
 10
48.61010603657495
 20
-57.49403653189418
 30
0.0
 10
48.65277650889209
 20
-57.5933654211825
 30
0.0
 10
48.7021952047748
 20
-57.69173868952634
 30
0.0
 10
48.75775776719632
 20
-57.79069297953588
 30
0.0
 10
48.81721845695292
 20
-57.88903251507472
 30
0.0
 10
48.87984099867518
 20
-57.98777374450679
 30
0.0
 10
48.94376828817953
 20
-58.08636524002531
 30
0.0
 10
49.00832628959647
 20
-58.18508261677947
 30
0.0
 10
49.07256786859265
 20
-58.28385304175061
 30
0.0
 10
49.13544208336077
 20
-58.38245450131636
 30
0.0
 10
49.19639409782071
 20
-58.48137058702217
 30
0.0
 10
49.2540503359883
 20
-58.57989711382066
 30
0.0
 10
49.30812160838768
 20
-58.67898092035973
 30
0.0
 10
49.35706809975068
 20
-58.77755576584483
 30
0.0
 10
49.40065411462771
 20
-58.87692568121316
 30
0.0
 10
49.43789734961362
 20
-58.97572881091694
 30
0.0
 10
49.46889658717129
 20
-59.07522141516775
 30
0.0
 10
49.49296894325839
 20
-59.17424256068652
 30
0.0
 10
49.5099226663097
 20
-59.2737742851445
 30
0.0
 10
49.51936547873775
 20
-59.37310009632401
 30
0.0
 10
49.52084170206429
 20
-59.47259991459635
 30
0.0
 10
49.51413604860274
 20
-59.57223083166138
 30
0.0
 10
49.4987825464234
 20
-59.67151153398122
 30
0.0
 10
49.47518918510691
 20
-59.77115888883505
 30
0.0
 10
49.44388639459927
 20
-59.87008862406245
 30
0.0
 10
49.40488796755401
 20
-59.96966836398989
 30
0.0
 10
49.3591295907902
 20
-60.06836161356628
 30
0.0
 10
49.30620865120669
 20
-60.16785263467888
 30
0.0
 10
49.24741342275392
 20
-60.26642102642079
 30
0.0
 10
49.18206643538795
 20
-60.36576396684194
 30
0.0
 10
49.11171357752942
 20
-60.46417625031304
 30
0.0
 10
49.03607884881889
 20
-60.56322575137689
 30
0.0
 10
48.95707996952902
 20
-60.66166668055636
 30
0.0
 10
48.87468568284937
 20
-60.76056033363082
 30
0.0
 10
48.79048956426255
 20
-60.85912074486952
 30
0.0
 10
48.70489738698598
 20
-60.95786970691803
 30
0.0
 10
48.61902099711993
 20
-61.05656547428785
 30
0.0
 10
48.56191824490792
 20
-61.12262136420653
 30
0.0
 10
48.53350629835006
 20
-61.15576863519073
 30
0.0
 11
47.78611410631748
 21
-51.65000161432772
 31
0.0
 11
47.77739840273873
 21
-51.74883292869711
 31
0.0
 11
47.77985866900244
 21
-51.84803842726239
 31
0.0
 11
47.79310359865536
 21
-51.94790488812429
 31
0.0
 11
47.81588414911644
 21
-52.04607524019715
 31
0.0
 11
47.84852660737008
 21
-52.14645287568885
 31
0.0
 11
47.88866184712136
 21
-52.24411205313197
 31
0.0
 11
47.93786566703011
 21
-52.34458680722127
 31
0.0
 11
47.99266306347909
 21
-52.44214886606667
 31
0.0
 11
48.05547124475435
 21
-52.54245988152749
 31
0.0
 11
48.1222548303416
 21
-52.64018567900151
 31
0.0
 11
48.19550226462244
 21
-52.74019263164518
 31
0.0
 11
48.27138710662186
 21
-52.83822249193625
 31
0.0
 11
48.35187321037841
 21
-52.93787311062136
 31
0.0
 11
48.4339055829227
 21
-53.03625930487098
 31
0.0
 11
48.51848022593441
 21
-53.13553452966229
 31
0.0
 11
48.60365594984717
 21
-53.23429611780551
 31
0.0
 11
48.6892093836567
 21
-53.33318791150308
 31
0.0
 11
48.77446833019909
 21
-53.43233293074016
 31
0.0
 11
48.8579019033136
 21
-53.53084081273462
 31
0.0
 11
48.9401105755864
 21
-53.63036974367472
 31
0.0
 11
49.01835901582572
 21
-53.72850701097559
 31
0.0
 11
49.0943349698179
 21
-53.82840655660925
 31
0.0
 11
49.16438309948077
 21
-53.92621224343099
 31
0.0
 11
49.23089379670241
 21
-54.02644336954387
 31
0.0
 11
49.28991299208988
 21
-54.12411816725231
 31
0.0
 11
49.34421430007549
 21
-54.22448018247846
 31
0.0
 11
49.39066957950967
 21
-54.32225082783594
 31
0.0
 11
49.43142356387986
 21
-54.42251699541316
 31
0.0
 11
49.46424832586749
 21
-54.52053985921551
 31
0.0
 11
49.4903236320848
 21
-54.62055380834787
 31
0.0
 11
49.50838194464157
 21
-54.71902551764441
 31
0.0
 11
49.51871654865986
 21
-54.81859062128257
 31
0.0
 11
49.52085839368812
 21
-54.91767766488357
 31
0.0
 11
49.5150941826906
 21
-55.01662743421713
 31
0.0
 11
49.50150916786151
 21
-55.11626600627844
 31
0.0
 11
49.48070770372812
 21
-55.21466424715169
 31
0.0
 11
49.45226099170259
 21
-55.31468357952468
 31
0.0
 11
49.41749810643961
 21
-55.41270106008631
 31
0.0
 11
49.37513759438823
 21
-55.5129345888387
 31
0.0
 11
49.3274063854924
 21
-55.61073787302084
 31
0.0
 11
49.27244089901558
 21
-55.71083304921106
 31
0.0
 11
49.21369047765242
 21
-55.80877468595549
 31
0.0
 11
49.15018239530738
 21
-55.9083739317723
 31
0.0
 11
49.08487608808011
 21
-56.00681149889016
 31
0.0
 11
49.01786981427441
 21
-56.10584930927828
 31
0.0
 11
48.95080586403469
 21
-56.20484831182486
 31
0.0
 11
48.88522674436214
 21
-56.3033228764096
 31
0.0
 11
48.82132245277529
 21
-56.40288512475951
 31
0.0
 11
48.76196677468627
 21
-56.50086408541159
 31
0.0
 11
48.70621910198557
 21
-56.60092193769415
 31
0.0
 11
48.65767698639036
 21
-56.69858773384726
 31
0.0
 11
48.615091461047
 21
-56.79895875062868
 31
0.0
 11
48.58187281243317
 21
-56.89672126386884
 31
0.0
 11
48.55748577976559
 21
-56.99699556356325
 31
0.0
 11
48.54430558610613
 21
-57.09560964000818
 31
0.0
 11
48.54294830794737
 21
-57.19503237649789
 31
0.0
 11
48.55456194443437
 21
-57.29499603018595
 31
0.0
 11
48.57748291250723
 21
-57.39306918943251
 31
0.0
 11
48.61136341804652
 21
-57.49352165600686
 31
0.0
 11
48.65292392879601
 21
-57.59110600236724
 31
0.0
 11
48.70294829157296
 21
-57.69132264436843
 31
0.0
 11
48.75756330927345
 21
-57.78914281530188
 31
0.0
 11
48.81756730196517
 21
-57.88880981973353
 31
0.0
 11
48.87969300639923
 21
-57.98717962823653
 31
0.0
 11
48.94383167695463
 21
-58.08632232305598
 31
0.0
 11
49.0083547611558
 21
-58.18521644117109
 31
0.0
 11
49.07241916621254
 21
-58.28394901501164
 31
0.0
 11
49.13558946861616
 21
-58.38325325410571
 31
0.0
 11
49.19601950090186
 21
-58.48159832736422
 31
0.0
 11
49.25418781237624
 21
-58.58129006704027
 31
0.0
 11
49.30748695473301
 21
-58.67931853052517
 31
0.0
 11
49.35694047603161
 21
-58.77932687997489
 31
0.0
 11
49.3997838252601
 21
-58.87728609543057
 31
0.0
 11
49.43737978236459
 21
-58.97736369290953
 31
0.0
 11
49.46784945290673
 21
-59.0755186800894
 31
0.0
 11
49.49200461090303
 21
-59.17540050584412
 31
0.0
 11
49.50870276571109
 21
-59.27394272509818
 31
0.0
 11
49.51805548036137
 21
-59.37343731877891
 31
0.0
 11
49.51948624581246
 21
-59.47256830693039
 31
0.0
 11
49.51277290945379
 21
-59.57147413171355
 31
0.0
 11
49.49747905730465
 21
-59.67124574151708
 31
0.0
 11
49.4743267482481
 21
-59.76951094464815
 31
0.0
 11
49.44278712146749
 21
-59.86968899258584
 31
0.0
 11
49.40460417222476
 21
-59.96754775758268
 31
0.0
 11
49.35823096183469
 21
-60.06790546220864
 31
0.0
 11
49.30642168821759
 21
-60.16558457051721
 31
0.0
 11
49.24669131785242
 21
-60.2659614174814
 31
0.0
 11
49.18259580306036
 21
-60.36362138345186
 31
0.0
 11
49.11119818070886
 21
-60.46378792779887
 31
0.0
 11
49.03666674094225
 21
-60.5616581963865
 31
0.0
 11
48.95677953990127
 21
-60.66141711720428
 31
0.0
 11
48.87506959547383
 21
-60.75969500932115
 31
0.0
 11
48.79037259305665
 21
-60.85901828392156
 31
0.0
 11
48.70496317762115
 21
-60.95773182225596
 31
0.0
 11
48.61907477423855
 21
-61.05661221923369
 31
0.0
 11
48.53350629835006
 21
-61.15576863519073
 31
0.0
  0
LINE
  5
87B8
330
879D
100
AcDbEntity
  8
0
  6
CONTINUOUS
100
AcDbLine
 10
51.04901699999999
 20
-59.25000199999996
 30
0.0
 11
57.50002899999998
 21
-59.25000199999996
 31
0.0
  0
LINE
  5
87B9
330
879D
100
AcDbEntity
  8
0
  6
CONTINUOUS
100
AcDbLine
 10
37.50002899999998
 20
-59.25000199999996
 30
0.0
 11
49.54901699999999
 21
-59.25000199999996
 31
0.0
  0
LINE
  5
87BA
330
879D
100
AcDbEntity
  8
0
  6
CONTINUOUS
100
AcDbLine
 10
50.88051799999999
 20
-54.30000199999998
 30
0.0
 11
57.50002899999998
 21
-54.30000199999998
 31
0.0
  0
LINE
  5
87BB
330
879D
100
AcDbEntity
  8
0
  6
CONTINUOUS
100
AcDbLine
 10
49.60820999999999
 20
-52.65000199999997
 30
0.0
 11
57.50002899999998
 21
-52.65000199999997
 31
0.0
  0
LINE
  5
87BC
330
879D
100
AcDbEntity
  8
0
  6
CONTINUOUS
100
AcDbLine
 10
50.14314899999999
 20
-57.60000199999999
 30
0.0
 11
57.50002899999998
 21
-57.60000199999999
 31
0.0
  0
LINE
  5
87BD
330
879D
100
AcDbEntity
  8
0
  6
CONTINUOUS
100
AcDbLine
 10
50.62379400000001
 20
-55.95000199999998
 30
0.0
 11
57.50002899999998
 21
-55.95000199999998
 31
0.0
  0
LINE
  5
87BE
330
879D
100
AcDbEntity
  8
0
  6
CONTINUOUS
100
AcDbLine
 10
37.50002899999998
 20
-54.30000199999998
 30
0.0
 11
49.380518
 21
-54.30000199999998
 31
0.0
  0
LINE
  5
87BF
330
879D
100
AcDbEntity
  8
0
  6
CONTINUOUS
100
AcDbLine
 10
37.50002899999998
 20
-52.65000199999997
 30
0.0
 11
48.12923699999998
 21
-52.65000199999997
 31
0.0
  0
LINE
  5
87C0
330
879D
100
AcDbEntity
  8
0
  6
CONTINUOUS
100
AcDbLine
 10
37.50002899999998
 20
-55.95000199999998
 30
0.0
 11
49.123794
 21
-55.95000199999998
 31
0.0
  0
LINE
  5
87C1
330
879D
100
AcDbEntity
  8
0
  6
CONTINUOUS
100
AcDbLine
 10
37.50002899999998
 20
-57.60000199999999
 30
0.0
 11
48.643149
 21
-57.60000199999999
 31
0.0
  0
LINE
  5
87C2
330
879D
100
AcDbEntity
  8
0
  6
CONTINUOUS
100
AcDbLine
 10
57.50002899999998
 20
-56.97500199999999
 30
0.0
 11
62.50002899999998
 21
-56.97500199999999
 31
0.0
  0
LINE
  5
87C3
330
879D
100
AcDbEntity
  8
0
  6
CONTINUOUS
100
AcDbLine
 10
57.50002899999998
 20
-58.22500199999999
 30
0.0
 11
62.50002899999998
 21
-58.22500199999999
 31
0.0
  0
LINE
  5
87C4
330
879D
100
AcDbEntity
  8
0
  6
CONTINUOUS
100
AcDbLine
 10
57.50002899999998
 20
-58.42500199999998
 30
0.0
 11
62.50002899999998
 21
-58.42500199999998
 31
0.0
  0
LINE
  5
87C5
330
879D
100
AcDbEntity
  8
0
  6
CONTINUOUS
100
AcDbLine
 10
57.50002899999998
 20
-58.62500199999996
 30
0.0
 11
62.50002899999998
 21
-58.62500199999996
 31
0.0
  0
LINE
  5
87C6
330
879D
100
AcDbEntity
  8
0
  6
CONTINUOUS
100
AcDbLine
 10
57.50002899999998
 20
-53.27500199999997
 30
0.0
 11
62.50002899999998
 21
-53.27500199999997
 31
0.0
  0
LINE
  5
87C7
330
879D
100
AcDbEntity
  8
0
  6
CONTINUOUS
100
AcDbLine
 10
57.50002899999998
 20
-53.47500199999998
 30
0.0
 11
62.50002899999998
 21
-53.47500199999998
 31
0.0
  0
LINE
  5
87C8
330
879D
100
AcDbEntity
  8
0
  6
CONTINUOUS
100
AcDbLine
 10
57.50002899999998
 20
-53.67500199999998
 30
0.0
 11
62.50002899999998
 21
-53.67500199999998
 31
0.0
  0
LINE
  5
87C9
330
879D
100
AcDbEntity
  8
0
  6
CONTINUOUS
100
AcDbLine
 10
57.50002899999998
 20
-55.32500199999998
 30
0.0
 11
62.50002899999998
 21
-55.32500199999998
 31
0.0
  0
LINE
  5
87CA
330
879D
100
AcDbEntity
  8
0
  6
CONTINUOUS
100
AcDbLine
 10
57.50002899999998
 20
-55.12500199999997
 30
0.0
 11
62.50002899999998
 21
-55.12500199999997
 31
0.0
  0
LINE
  5
87CB
330
879D
100
AcDbEntity
  8
0
  6
CONTINUOUS
100
AcDbLine
 10
57.50002899999998
 20
-54.92500199999998
 30
0.0
 11
62.50002899999998
 21
-54.92500199999998
 31
0.0
  0
LINE
  5
87CC
330
879D
100
AcDbEntity
  8
0
  6
CONTINUOUS
100
AcDbLine
 10
57.50002899999998
 20
-56.57500199999998
 30
0.0
 11
62.50002899999998
 21
-56.57500199999998
 31
0.0
  0
LINE
  5
87CD
330
879D
100
AcDbEntity
  8
0
  6
CONTINUOUS
100
AcDbLine
 10
57.50002899999998
 20
-56.77500199999997
 30
0.0
 11
62.50002899999998
 21
-56.77500199999997
 31
0.0
  0
ENDBLK
  5
87CF
330
879D
100
AcDbEntity
  8
0
100
AcDbBlockEnd
  0
ENDSEC
  0
SECTION
  2
ENTITIES
  0
LINE
  5
B4
330
1E
100
AcDbEntity
  8
16
100
AcDbLine
 10
0.0
 20
-101.8246001220914
 30
0.0
 11
0.0
 21
105.6073578546832
 31
0.0
  0
LINE
  5
B5
330
1E
100
AcDbEntity
  8
16
100
AcDbLine
 10
71.77465564206305
 20
-0.0000000000000027
 30
0.0
 11
-83.90588178115756
 21
-0.0000000000000027
 31
0.0
  0
MTEXT
  5
BF3
330
1E
100
AcDbEntity
  8
24
  6
CONTINUOUS
100
AcDbMText
 10
140.9820964648283
 20
176.3476821548369
 30
0.0
 40
3.0
 41
0.0
 71
     1
 72
     1
  1
\A1;
1001
ACAD
1000
MTEXTBEGIN
1070
    73
1070
     1
1070
    44
1040
1.0
1070
    74
1070
     0
1000
MTEXTEND
  0
LINE
  5
1C9B
330
1E
100
AcDbEntity
  8
16
100
AcDbLine
 10
252.2681462467815
 20
0.0000000000000999
 30
0.0
 11
120.102898634612
 21
0.0000000000000999
 31
0.0
  0
LINE
  5
2260
330
1E
100
AcDbEntity
  8
16
100
AcDbLine
 10
68.52380301423583
 20
-250.8473940210349
 30
0.0
 11
-80.93000773675209
 21
-250.8473940210349
 31
0.0
  0
LINE
  5
2261
330
1E
100
AcDbEntity
  8
16
100
AcDbLine
 10
-0.3800945351711884
 20
-348.5993337838806
 30
0.0
 11
-0.3800945351711884
 21
-149.4639948115489
 31
0.0
  0
MTEXT
  5
5C78
330
1E
100
AcDbEntity
  8
30
  6
CONTINUOUS
100
AcDbMText
 10
162.3297648581359
 20
88.99793930010117
 30
0.0
 40
4.0
 41
0.0
 71
     9
 72
     1
  1

1001
ACAD
1000
MTEXTBEGIN
1070
    73
1070
     1
1070
    44
1040
1.0
1070
    74
1070
     0
1000
MTEXTEND
  0
LINE
  5
6173
330
1E
100
AcDbEntity
  8
16
100
AcDbLine
 10
170.2029347948343
 20
-348.5993337838806
 30
0.0
 11
170.2029347948343
 21
-149.4639948115489
 31
0.0
  0
LINE
  5
6177
330
1E
100
AcDbEntity
  8
16
100
AcDbLine
 10
239.1068323442413
 20
-250.8473940210349
 30
0.0
 11
89.65302159325338
 21
-250.8473940210349
 31
0.0
  0
MTEXT
  5
6200
330
1E
100
AcDbEntity
  8
30
  6
CONTINUOUS
100
AcDbMText
 10
160.6290066227675
 20
91.2377397662035
 30
0.0
 40
4.0
 41
0.0
 71
     9
 72
     1
  1

1001
ACAD
1000
MTEXTBEGIN
1070
    73
1070
     1
1070
    44
1040
1.0
1070
    74
1070
     0
1000
MTEXTEND
  0
TEXT
  5
7337
330
1E
100
AcDbEntity
  8
0
  6
CONTINUOUS
100
AcDbText
 10
150.2736027495826
 20
186.6773592415845
 30
0.0
 40
5.0
  1
ZAE50-NF 3P FC
  7
SMP-SET
100
AcDbText
  0
LINE
  5
794D
330
1E
100
AcDbEntity
  8
30
  6
CONTINUOUS
100
AcDbLine
 10
-12.88010953517139
 20
-189.847453921322
 30
0.0
 11
9.685634252276109
 21
-162.9546476930712
 31
0.0
  0
LINE
  5
7950
330
1E
100
AcDbEntity
  8
12
  6
CONTINUOUS
 62
     3
100
AcDbLine
 10
3.666357286236319
 20
-307.8473350210348
 30
0.0
 11
19.71220638073282
 21
-307.8473350210348
 31
0.0
  0
DIMENSION
  5
7952
330
1E
100
AcDbEntity
  8
30
  6
CONTINUOUS
100
AcDbDimension
  2
*D2
 10
12.11990577643121
 20
-327.9706243182529
 30
0.0
 11
-0.3800945351713414
 21
-324.9706243182529
 31
0.0
 70
    32
  1
25
  3
STANDARD
100
AcDbAlignedDimension
 13
-12.88009484677388
 23
-198.2473866810794
 33
0.0
 14
12.11990577643121
 24
-315.5973940210349
 34
0.0
100
AcDbRotatedDimension
1001
ACAD
1000
DSTYLE
1002
{
1070
    79
1070
     3
1002
}
  0
DIMENSION
  5
7953
330
1E
100
AcDbEntity
  8
30
  6
CONTINUOUS
100
AcDbDimension
  2
*D3
 10
57.00154676373614
 20
-307.8473350210348
 30
0.0
 11
54.00154676373619
 21
-250.8473945210348
 31
0.0
 70
    32
  3
STANDARD
100
AcDbAlignedDimension
 13
-4.653790970728984
 23
-193.8474540210348
 33
0.0
 14
12.11990577643121
 24
-307.8473350210348
 34
0.0
 50
90.0
100
AcDbRotatedDimension
1001
ACAD
1000
DSTYLE
1002
{
1070
    79
1070
     3
1002
}
  0
CIRCLE
  5
7956
330
1E
100
AcDbEntity
  8
12
  6
CONTINUOUS
 62
     3
100
AcDbCircle
 10
-12.88010953517139
 20
-193.8474540210348
 30
0.0
 40
4.000000099712798
  0
CIRCLE
  5
7957
330
1E
100
AcDbEntity
  8
12
  6
CONTINUOUS
 62
     3
100
AcDbCircle
 10
-12.88010953517139
 20
-193.8474540210348
 30
0.0
 40
2.500000062320419
  0
LINE
  5
7958
330
1E
100
AcDbEntity
  8
12
  6
CONTINUOUS
 62
     3
100
AcDbLine
 10
-20.75556544911268
 20
-193.8474540210348
 30
0.0
 11
-4.653790970728985
 21
-193.8474540210348
 31
0.0
  0
LINE
  5
7959
330
1E
100
AcDbEntity
  8
12
  6
CONTINUOUS
 62
     3
100
AcDbLine
 10
-12.88009484677388
 20
-198.2473866810794
 30
0.0
 11
-12.88009484677388
 21
-216.3970984263773
 31
0.0
  0
LINE
  5
795A
330
1E
100
AcDbEntity
  8
30
  6
CONTINUOUS
100
AcDbLine
 10
-12.88010953517139
 20
-189.847453921322
 30
0.0
 11
-8.639866546550116
 21
-186.878403802515
 31
0.0
  0
LINE
  5
795B
330
1E
100
AcDbEntity
  8
30
  6
CONTINUOUS
100
AcDbLine
 10
-12.88010953517139
 20
-189.847453921322
 30
0.0
 11
-10.69247642692742
 21
-185.1560596089396
 31
0.0
  0
LINE
  5
795D
330
1E
100
AcDbEntity
  8
12
  6
CONTINUOUS
 62
     3
100
AcDbLine
 10
12.11990577643121
 20
-298.647337843453
 30
0.0
 11
12.11990577643121
 21
-318.2967704654929
 31
0.0
  0
CIRCLE
  5
795E
330
1E
100
AcDbEntity
  8
12
  6
CONTINUOUS
 62
     3
100
AcDbCircle
 10
12.11990577643115
 20
-307.8473350210348
 30
0.0
 40
4.000000099712798
  0
CIRCLE
  5
795F
330
1E
100
AcDbEntity
  8
12
  6
CONTINUOUS
 62
     3
100
AcDbCircle
 10
12.11990577643115
 20
-307.8473350210348
 30
0.0
 40
2.5000000623206
  0
TEXT
  5
7960
330
1E
100
AcDbEntity
  8
30
  6
CONTINUOUS
100
AcDbText
 10
11.396316662384
 20
-161.4546476930712
 30
0.0
 40
5.0
  1
M4 or %%c5
  7
MOJI
100
AcDbText
  0
LINE
  5
7961
330
1E
100
AcDbEntity
  8
30
  6
CONTINUOUS
100
AcDbLine
 10
9.685634252276109
 20
-162.9546476930712
 30
0.0
 11
50.97610162980711
 21
-162.9546476930712
 31
0.0
  0
TEXT
  5
7C4F
330
1E
100
AcDbEntity
  8
30
  6
CONTINUOUS
100
AcDbText
 10
211.5212023668698
 20
168.5346411246783
 30
0.0
 40
5.0
  1
M5×14
  7
MOJI
100
AcDbText
  0
LINE
  5
804A
330
1E
100
AcDbEntity
  8
10
  6
CONTINOUS
100
AcDbLine
 10
35.99994000000001
 20
38.99997000000002
 30
0.0
 11
35.99994000000001
 21
-9.000030999999978
 31
0.0
  0
LINE
  5
804B
330
1E
100
AcDbEntity
  8
10
  6
CONTINOUS
100
AcDbLine
 10
37.49994
 20
61.250001
 30
0.0
 11
37.49994
 21
-28.81197299999996
 31
0.0
  0
LINE
  5
804C
330
1E
100
AcDbEntity
  8
10
  6
CONTINOUS
100
AcDbLine
 10
10.99993899999998
 20
39.64641600000004
 30
0.0
 11
10.99993899999998
 21
-9.646478000000001
 31
0.0
  0
LINE
  5
804D
330
1E
100
AcDbEntity
  8
10
  6
CONTINOUS
100
AcDbLine
 10
-37.50004600000001
 20
61.250001
 30
0.0
 11
-37.50004600000001
 21
-28.81197299999996
 31
0.0
  0
LINE
  5
804E
330
1E
100
AcDbEntity
  8
10
  6
CONTINOUS
100
AcDbLine
 10
-11.00004600000001
 20
39.64641600000004
 30
0.0
 11
-11.00004600000001
 21
-9.646478000000001
 31
0.0
  0
LINE
  5
804F
330
1E
100
AcDbEntity
  8
10
  6
CONTINOUS
100
AcDbLine
 10
-36.000031
 20
38.99997000000002
 30
0.0
 11
-36.000031
 21
-9.000030999999978
 31
0.0
  0
LINE
  5
8050
330
1E
100
AcDbEntity
  8
10
  6
CONTINOUS
100
AcDbLine
 10
-8.000099000000005
 20
-65.25000199999985
 30
0.0
 11
7.999900999999994
 21
-65.25000199999985
 31
0.0
  0
LINE
  5
8051
330
1E
100
AcDbEntity
  8
10
  6
CONTINOUS
100
AcDbLine
 10
-6.299987000000001
 20
-19.80000199999994
 30
0.0
 11
6.300012999999992
 21
-19.80000199999994
 31
0.0
  0
LINE
  5
8052
330
1E
100
AcDbEntity
  8
24
  6
CONTINOUS
100
AcDbLine
 10
6.499900999999994
 20
-49.50000199999985
 30
0.0
 11
-6.500099000000005
 21
-49.50000199999985
 31
0.0
  0
LINE
  5
8053
330
1E
100
AcDbEntity
  8
24
  6
CONTINOUS
100
AcDbLine
 10
-6.074996999999996
 20
-57.00000099999988
 30
0.0
 11
6.07499700000001
 21
-57.00000099999988
 31
0.0
  0
LINE
  5
8054
330
1E
100
AcDbEntity
  8
10
  6
CONTINOUS
100
AcDbLine
 10
-35.000031
 20
-10.00003200000003
 30
0.0
 11
34.99994
 21
-10.00003200000003
 31
0.0
  0
LINE
  5
8055
330
1E
100
AcDbEntity
  8
10
  6
CONTINOUS
100
AcDbLine
 10
7.499938999999983
 20
-18.70000899999996
 30
0.0
 11
-7.500061000000016
 21
-18.70000899999996
 31
0.0
  0
ARC
  5
8056
330
1E
100
AcDbEntity
  8
10
  6
CONTINOUS
100
AcDbCircle
 10
-35.000031
 20
-9.000030999999978
 30
0.0
 40
1.0
100
AcDbArc
 50
179.999996999999
 51
270.0
  0
LINE
  5
8057
330
1E
100
AcDbEntity
  8
10
  6
CONTINOUS
100
AcDbLine
 10
-37.49995700000001
 20
-28.81197299999996
 30
0.0
 11
-34.99992200000001
 21
-28.81197299999996
 31
0.0
  0
LINE
  5
8058
330
1E
100
AcDbEntity
  8
10
  6
CONTINOUS
100
AcDbLine
 10
-37.000068
 20
-52.90003399999983
 30
0.0
 11
-33.000068
 21
-52.90003399999983
 31
0.0
  0
LINE
  5
8059
330
1E
100
AcDbEntity
  8
10
  6
CONTINOUS
100
AcDbLine
 10
-33.000068
 20
-65.25000199999985
 30
0.0
 11
-35.200007
 21
-65.25000199999985
 31
0.0
  0
LINE
  5
805A
330
1E
100
AcDbEntity
  8
10
  6
CONTINOUS
100
AcDbLine
 10
-32.50006799999999
 20
-62.45000199999987
 30
0.0
 11
-35.700007
 21
-62.45000199999987
 31
0.0
  0
LINE
  5
805B
330
1E
100
AcDbEntity
  8
10
  6
CONTINOUS
100
AcDbLine
 10
-32.50006200000001
 20
-22.900033
 30
0.0
 11
-37.50004600000001
 21
-22.900033
 31
0.0
  0
LINE
  5
805C
330
1E
100
AcDbEntity
  8
10
  6
CONTINOUS
100
AcDbLine
 10
-37.49995700000001
 20
-28.81197299999996
 30
0.0
 11
-37.499957
 21
-61.25000199999985
 31
0.0
  0
LINE
  5
805D
330
1E
100
AcDbEntity
  8
10
  6
CONTINOUS
100
AcDbLine
 10
-35.700007
 20
-62.25000199999985
 30
0.0
 11
-35.700007
 21
-64.75000199999985
 31
0.0
  0
ARC
  5
805E
330
1E
100
AcDbEntity
  8
10
  6
CONTINOUS
100
AcDbCircle
 10
-35.200007
 20
-64.75000199999985
 30
0.0
 40
0.5
100
AcDbArc
 50
180.0
 51
270.0
  0
ARC
  5
805F
330
1E
100
AcDbEntity
  8
10
  6
CONTINOUS
100
AcDbCircle
 10
-37.000068
 20
-61.25000199999985
 30
0.0
 40
0.5
100
AcDbArc
 50
180.0
 51
270.0
  0
LINE
  5
8060
330
1E
100
AcDbEntity
  8
10
  6
CONTINOUS
100
AcDbLine
 10
-36.200007
 20
-61.75000199999985
 30
0.0
 11
-37.000068
 21
-61.75000199999985
 31
0.0
  0
ARC
  5
8061
330
1E
100
AcDbEntity
  8
10
  6
CONTINOUS
100
AcDbCircle
 10
-36.200007
 20
-62.25000199999985
 30
0.0
 40
0.5
100
AcDbArc
 50
0.0
 51
90.0
  0
LINE
  5
8062
330
1E
100
AcDbEntity
  8
10
  6
CONTINOUS
100
AcDbLine
 10
-37.50006799999999
 20
-53.89992799999987
 30
0.0
 11
-37.500084
 21
-53.89992799999987
 31
0.0
  0
ARC
  5
8063
330
1E
100
AcDbEntity
  8
10
  6
CONTINOUS
100
AcDbCircle
 10
-37.000068
 20
-52.40003399999983
 30
0.0
 40
0.5
100
AcDbArc
 50
180.0
 51
270.0
  0
LINE
  5
8064
330
1E
100
AcDbEntity
  8
10
  6
CONTINOUS
100
AcDbLine
 10
-33.000068
 20
-65.25000199999985
 30
0.0
 11
-17.000099
 21
-65.25000199999985
 31
0.0
  0
ARC
  5
8065
330
1E
100
AcDbEntity
  8
24
  6
CONTINOUS
100
AcDbCircle
 10
-17.000099
 20
-64.75000199999985
 30
0.0
 40
0.5
100
AcDbArc
 50
180.0
 51
270.0
  0
ARC
  5
8066
330
1E
100
AcDbEntity
  8
10
  6
CONTINOUS
100
AcDbCircle
 10
-17.000099
 20
-52.40003399999983
 30
0.0
 40
0.5
100
AcDbArc
 50
180.0
 51
270.0
  0
LINE
  5
8067
330
1E
100
AcDbEntity
  8
24
  6
CONTINOUS
100
AcDbLine
 10
-32.50006799999999
 20
-64.75000199999985
 30
0.0
 11
-32.50006799999999
 21
-59.45256199999988
 31
0.0
  0
LINE
  5
8068
330
1E
100
AcDbEntity
  8
24
  6
CONTINOUS
100
AcDbLine
 10
-17.500099
 20
-64.75000199999985
 30
0.0
 11
-17.500099
 21
-59.45256199999988
 31
0.0
  0
LINE
  5
8069
330
1E
100
AcDbEntity
  8
24
  6
CONTINOUS
100
AcDbLine
 10
-25.000016
 20
-50.92498899999987
 30
0.0
 11
-25.000016
 21
-63.57501399999986
 31
0.0
  0
ARC
  5
806A
330
1E
100
AcDbEntity
  8
24
  6
CONTINOUS
100
AcDbCircle
 10
-33.000068
 20
-64.75000199999985
 30
0.0
 40
0.5
100
AcDbArc
 50
270.0
 51
0.0
  0
LINE
  5
806B
330
1E
100
AcDbEntity
  8
24
  6
CONTINOUS
100
AcDbLine
 10
-18.500099
 20
-49.50000199999985
 30
0.0
 11
-31.500099
 21
-49.50000199999985
 31
0.0
  0
LINE
  5
806C
330
1E
100
AcDbEntity
  8
24
  6
CONTINOUS
100
AcDbLine
 10
-31.07499700000001
 20
-57.00000099999988
 30
0.0
 11
-18.92500299999999
 21
-57.00000099999988
 31
0.0
  0
LINE
  5
806D
330
1E
100
AcDbEntity
  8
24
  6
CONTINOUS
100
AcDbLine
 10
-32.50006799999999
 20
-55.04731999999987
 30
0.0
 11
-32.50006799999999
 21
-50.50000199999985
 31
0.0
  0
ARC
  5
806E
330
1E
100
AcDbEntity
  8
24
  6
CONTINOUS
100
AcDbCircle
 10
-22.92258971858403
 20
-57.24994099999986
 30
0.0
 40
9.827494281415964
100
AcDbArc
 50
167.0483672722335
 51
192.9516327277664
  0
ARC
  5
806F
330
1E
100
AcDbEntity
  8
10
  6
CONTINOUS
100
AcDbCircle
 10
-33.000068
 20
-52.40003399999983
 30
0.0
 40
0.5
100
AcDbArc
 50
270.0
 51
0.0
  0
ARC
  5
8070
330
1E
100
AcDbEntity
  8
24
  6
CONTINOUS
100
AcDbCircle
 10
-31.50006799999999
 20
-50.50000199999985
 30
0.0
 40
1.0
100
AcDbArc
 50
90.0
 51
180.0
  0
LINE
  5
8071
330
1E
100
AcDbEntity
  8
24
  6
CONTINOUS
100
AcDbLine
 10
-17.500099
 20
-55.04731999999987
 30
0.0
 11
-17.500099
 21
-50.50000199999985
 31
0.0
  0
ARC
  5
8072
330
1E
100
AcDbEntity
  8
24
  6
CONTINOUS
100
AcDbCircle
 10
-27.07757828141597
 20
-57.24994099999985
 30
0.0
 40
9.827494281415972
100
AcDbArc
 50
347.0483672722335
 51
12.95163272776637
  0
ARC
  5
8073
330
1E
100
AcDbEntity
  8
24
  6
CONTINOUS
100
AcDbCircle
 10
-18.500099
 20
-50.50000199999985
 30
0.0
 40
1.0
100
AcDbArc
 50
0.0
 51
90.0
  0
LINE
  5
8074
330
1E
100
AcDbEntity
  8
24
  6
CONTINOUS
100
AcDbLine
 10
-7.500099000000005
 20
-59.45244399999984
 30
0.0
 11
-7.500099000000005
 21
-64.75000199999985
 31
0.0
  0
LINE
  5
8075
330
1E
100
AcDbEntity
  8
10
  6
CONTINOUS
100
AcDbLine
 10
-11.90011399999998
 20
-61.76023799999985
 30
0.0
 11
-11.90011399999998
 21
-64.75000199999985
 31
0.0
  0
LINE
  5
8076
330
1E
100
AcDbEntity
  8
10
  6
CONTINOUS
100
AcDbLine
 10
-15.50011399999999
 20
-60.16631899999985
 30
0.0
 11
-15.50011399999999
 21
-64.75000199999985
 31
0.0
  0
LINE
  5
8077
330
1E
100
AcDbEntity
  8
10
  6
CONTINOUS
100
AcDbLine
 10
-11.40011399999998
 20
-65.25000199999985
 30
0.0
 11
-8.000099000000005
 21
-65.25000199999985
 31
0.0
  0
LINE
  5
8078
330
1E
100
AcDbEntity
  8
10
  6
CONTINOUS
100
AcDbLine
 10
-16.00011399999999
 20
-65.25000199999985
 30
0.0
 11
-17.000099
 21
-65.25000199999985
 31
0.0
  0
ARC
  5
8079
330
1E
100
AcDbEntity
  8
10
  6
CONTINOUS
100
AcDbCircle
 10
-16.00011399999999
 20
-64.75000199999985
 30
0.0
 40
0.5
100
AcDbArc
 50
270.0
 51
0.0
  0
ARC
  5
807A
330
1E
100
AcDbEntity
  8
10
  6
CONTINOUS
100
AcDbCircle
 10
-11.40011399999998
 20
-64.75000199999985
 30
0.0
 40
0.5
100
AcDbArc
 50
180.0
 51
270.0
  0
ARC
  5
807B
330
1E
100
AcDbEntity
  8
24
  6
CONTINOUS
100
AcDbCircle
 10
-8.000099000000005
 20
-64.75000199999985
 30
0.0
 40
0.5
100
AcDbArc
 50
270.0
 51
0.0
  0
LINE
  5
807C
330
1E
100
AcDbEntity
  8
10
  6
CONTINOUS
100
AcDbLine
 10
-17.000099
 20
-52.90003399999983
 30
0.0
 11
-8.000099000000005
 21
-52.90003399999983
 31
0.0
  0
ARC
  5
807D
330
1E
100
AcDbEntity
  8
12
  6
DASHED
100
AcDbCircle
 10
-12.50005299999999
 20
-57.49994099999987
 30
0.0
 40
3.9
100
AcDbArc
 50
284.476691
 51
217.3004790000006
  0
LINE
  5
807E
330
1E
100
AcDbEntity
  8
12
  6
DASHED
100
AcDbLine
 10
-15.00011399999999
 20
-61.75000199999985
 30
0.0
 11
-12.40011399999998
 21
-61.75000199999985
 31
0.0
  0
ARC
  5
807F
330
1E
100
AcDbEntity
  8
12
  6
DASHED
100
AcDbCircle
 10
-15.00011399999999
 20
-62.25000199999985
 30
0.0
 40
0.5
100
AcDbArc
 50
90.0
 51
180.0
  0
ARC
  5
8080
330
1E
100
AcDbEntity
  8
12
  6
DASHED
100
AcDbCircle
 10
-16.00011399999999
 20
-60.16631899999985
 30
0.0
 40
0.5
100
AcDbArc
 50
0.0
 51
37.30047900000063
  0
ARC
  5
8081
330
1E
100
AcDbEntity
  8
12
  6
DASHED
100
AcDbCircle
 10
-11.40011399999998
 20
-61.76023799999985
 30
0.0
 40
0.5
100
AcDbArc
 50
104.476691
 51
180.0
  0
ARC
  5
8082
330
1E
100
AcDbEntity
  8
12
  6
DASHED
100
AcDbCircle
 10
-12.40011399999998
 20
-62.25000199999985
 30
0.0
 40
0.5
100
AcDbArc
 50
0.0
 51
90.0
  0
LINE
  5
8083
330
1E
100
AcDbEntity
  8
24
  6
CONTINOUS
100
AcDbLine
 10
-7.500099000000005
 20
-50.50000199999985
 30
0.0
 11
-7.500099000000005
 21
-55.04743699999986
 31
0.0
  0
ARC
  5
8084
330
1E
100
AcDbEntity
  8
24
  6
CONTINOUS
100
AcDbCircle
 10
2.077546592010992
 20
-57.24994099999986
 30
0.0
 40
9.827630592010994
100
AcDbArc
 50
167.0492508884331
 51
192.9507491115668
  0
ARC
  5
8085
330
1E
100
AcDbEntity
  8
24
  6
CONTINOUS
100
AcDbCircle
 10
-6.500099000000005
 20
-50.50000199999985
 30
0.0
 40
1.0
100
AcDbArc
 50
90.0
 51
180.0
  0
ARC
  5
8086
330
1E
100
AcDbEntity
  8
10
  6
CONTINOUS
100
AcDbCircle
 10
-8.000099000000005
 20
-52.40003399999983
 30
0.0
 40
0.5
100
AcDbArc
 50
270.0
 51
0.0
  0
ARC
  5
8087
330
1E
100
AcDbEntity
  8
10
  6
CONTINOUS
100
AcDbCircle
 10
-17.199987
 20
-22.60009599999995
 30
0.0
 40
0.5
100
AcDbArc
 50
180.0
 51
270.0
  0
LINE
  5
8088
330
1E
100
AcDbEntity
  8
10
  6
CONTINOUS
100
AcDbLine
 10
-7.500061000000016
 20
-22.900033
 30
0.0
 11
-17.50006100000001
 21
-22.900033
 31
0.0
  0
LINE
  5
8089
330
1E
100
AcDbEntity
  8
10
  6
CONTINOUS
100
AcDbLine
 10
-34.99992200000001
 20
-23.20009599999997
 30
0.0
 11
-34.99992200000001
 21
-28.81197299999996
 31
0.0
  0
LINE
  5
808A
330
1E
100
AcDbEntity
  8
10
  6
CONTINOUS
100
AcDbLine
 10
-31.299956
 20
-19.80000199999994
 30
0.0
 11
-18.699987
 21
-19.80000199999994
 31
0.0
  0
LINE
  5
808B
330
1E
100
AcDbEntity
  8
10
  6
CONTINOUS
100
AcDbLine
 10
-17.50006100000001
 20
-18.70000899999996
 30
0.0
 11
-32.50006200000001
 21
-18.70000899999996
 31
0.0
  0
LINE
  5
808C
330
1E
100
AcDbEntity
  8
10
  6
CONTINOUS
100
AcDbLine
 10
-32.50006200000001
 20
-22.30001699999996
 30
0.0
 11
-32.50006200000001
 21
-18.70000899999996
 31
0.0
  0
ARC
  5
808D
330
1E
100
AcDbEntity
  8
10
  6
CONTINOUS
100
AcDbCircle
 10
-31.299956
 20
-20.80000199999994
 30
0.0
 40
1.0
100
AcDbArc
 50
90.0
 51
180.0
  0
ARC
  5
808E
330
1E
100
AcDbEntity
  8
10
  6
CONTINOUS
100
AcDbCircle
 10
-32.79995600000001
 20
-22.70009599999997
 30
0.0
 40
0.5
100
AcDbArc
 50
270.0
 51
0.0
  0
LINE
  5
808F
330
1E
100
AcDbEntity
  8
10
  6
CONTINOUS
100
AcDbLine
 10
-34.99992200000001
 20
-23.20009599999997
 30
0.0
 11
-32.79995600000001
 21
-23.20009599999997
 31
0.0
  0
LINE
  5
8090
330
1E
100
AcDbEntity
  8
10
  6
CONTINOUS
100
AcDbLine
 10
-32.50006200000001
 20
-23.10017499999998
 30
0.0
 11
-32.50006200000001
 21
-22.30001699999996
 31
0.0
  0
LINE
  5
8091
330
1E
100
AcDbEntity
  8
10
  6
CONTINOUS
100
AcDbLine
 10
-32.299956
 20
-20.80000199999994
 30
0.0
 11
-32.299956
 21
-22.70009599999997
 31
0.0
  0
LINE
  5
8092
330
1E
100
AcDbEntity
  8
10
  6
CONTINOUS
100
AcDbLine
 10
-17.50006100000001
 20
-22.900033
 30
0.0
 11
-17.50006100000001
 21
-18.70000899999996
 31
0.0
  0
ARC
  5
8093
330
1E
100
AcDbEntity
  8
10
  6
CONTINOUS
100
AcDbCircle
 10
-18.699987
 20
-20.80000199999994
 30
0.0
 40
1.0
100
AcDbArc
 50
0.0
 51
90.0
  0
LINE
  5
8094
330
1E
100
AcDbEntity
  8
10
  6
CONTINOUS
100
AcDbLine
 10
-17.699987
 20
-20.80000199999994
 30
0.0
 11
-17.699987
 21
-22.60009599999995
 31
0.0
  0
LINE
  5
8095
330
1E
100
AcDbEntity
  8
10
  6
CONTINOUS
100
AcDbLine
 10
-17.699987
 20
-20.80000199999994
 30
0.0
 11
-17.699987
 21
-22.60009599999995
 31
0.0
  0
LINE
  5
8096
330
1E
100
AcDbEntity
  8
10
  6
CONTINOUS
100
AcDbLine
 10
-17.199987
 20
-23.10009599999995
 30
0.0
 11
-7.800385000000019
 21
-23.10009599999995
 31
0.0
  0
ARC
  5
8097
330
1E
100
AcDbEntity
  8
10
  6
CONTINOUS
100
AcDbCircle
 10
-10.646492
 20
-9.646478000000001
 30
0.0
 40
0.353553
100
AcDbArc
 50
180.0
 51
270.0
  0
ARC
  5
8098
330
1E
100
AcDbEntity
  8
10
  6
CONTINOUS
100
AcDbCircle
 10
-6.299987000000001
 20
-20.80000199999994
 30
0.0
 40
1.0
100
AcDbArc
 50
90.0
 51
180.0
  0
LINE
  5
8099
330
1E
100
AcDbEntity
  8
10
  6
CONTINOUS
100
AcDbLine
 10
-7.500061000000016
 20
-18.70000899999996
 30
0.0
 11
-7.500061000000016
 21
-22.900033
 31
0.0
  0
LINE
  5
809A
330
1E
100
AcDbEntity
  8
10
  6
CONTINOUS
100
AcDbLine
 10
-7.300385000000019
 20
-20.80000199999994
 30
0.0
 11
-7.300385000000019
 21
-22.60009599999995
 31
0.0
  0
ARC
  5
809B
330
1E
100
AcDbEntity
  8
10
  6
CONTINOUS
100
AcDbCircle
 10
-7.800385000000019
 20
-22.60009599999995
 30
0.0
 40
0.5
100
AcDbArc
 50
270.0
 51
0.0
  0
LINE
  5
809D
330
1E
100
AcDbEntity
  8
10
  6
CONTINOUS
100
AcDbLine
 10
37.50002899999998
 20
-28.81197299999996
 30
0.0
 11
34.99955099999999
 21
-28.81197299999996
 31
0.0
  0
LINE
  5
809E
330
1E
100
AcDbEntity
  8
10
  6
CONTINOUS
100
AcDbLine
 10
36.999901
 20
-52.90003399999983
 30
0.0
 11
32.99990099999998
 21
-52.90003399999983
 31
0.0
  0
ARC
  5
809F
330
1E
100
AcDbEntity
  8
10
  6
CONTINOUS
100
AcDbCircle
 10
36.19984
 20
-62.25000199999985
 30
0.0
 40
0.5
100
AcDbArc
 50
90.0
 51
180.0
  0
LINE
  5
80A0
330
1E
100
AcDbEntity
  8
10
  6
CONTINOUS
100
AcDbLine
 10
37.49994
 20
-22.900033
 30
0.0
 11
32.49993999999998
 21
-22.900033
 31
0.0
  0
LINE
  5
80A1
330
1E
100
AcDbEntity
  8
10
  6
CONTINOUS
100
AcDbLine
 10
16.99990099999999
 20
-65.25000199999985
 30
0.0
 11
32.99990099999998
 21
-65.25000199999985
 31
0.0
  0
ARC
  5
80A2
330
1E
100
AcDbEntity
  8
24
  6
CONTINOUS
100
AcDbCircle
 10
18.49990099999999
 20
-50.50000199999985
 30
0.0
 40
1.0
100
AcDbArc
 50
90.0
 51
180.0
  0
LINE
  5
80A3
330
1E
100
AcDbEntity
  8
24
  6
CONTINOUS
100
AcDbLine
 10
17.49990099999999
 20
-59.45244399999984
 30
0.0
 11
17.49990099999999
 21
-64.75000199999985
 31
0.0
  0
LINE
  5
80A4
330
1E
100
AcDbEntity
  8
24
  6
CONTINOUS
100
AcDbLine
 10
7.499900999999994
 20
-64.75000199999985
 30
0.0
 11
7.499900999999994
 21
-59.45256199999988
 31
0.0
  0
LINE
  5
80A5
330
1E
100
AcDbEntity
  8
10
  6
CONTINOUS
100
AcDbLine
 10
9.499900999999994
 20
-60.16631899999985
 30
0.0
 11
9.499900999999994
 21
-64.75000199999985
 31
0.0
  0
LINE
  5
80A6
330
1E
100
AcDbEntity
  8
10
  6
CONTINOUS
100
AcDbLine
 10
13.099901
 20
-61.76023799999985
 30
0.0
 11
13.099901
 21
-64.75000199999985
 31
0.0
  0
ARC
  5
80A7
330
1E
100
AcDbEntity
  8
10
  6
CONTINOUS
100
AcDbCircle
 10
8.999900999999994
 20
-64.75000199999985
 30
0.0
 40
0.5
100
AcDbArc
 50
270.0
 51
0.0
  0
LINE
  5
80A8
330
1E
100
AcDbEntity
  8
10
  6
CONTINOUS
100
AcDbLine
 10
8.999900999999994
 20
-65.25000199999985
 30
0.0
 11
7.999900999999994
 21
-65.25000199999985
 31
0.0
  0
ARC
  5
80A9
330
1E
100
AcDbEntity
  8
24
  6
CONTINOUS
100
AcDbCircle
 10
7.999900999999994
 20
-64.75000199999985
 30
0.0
 40
0.5
100
AcDbArc
 50
180.0
 51
270.0
  0
LINE
  5
80AA
330
1E
100
AcDbEntity
  8
10
  6
CONTINOUS
100
AcDbLine
 10
13.599901
 20
-65.25000199999985
 30
0.0
 11
16.99990099999999
 21
-65.25000199999985
 31
0.0
  0
ARC
  5
80AB
330
1E
100
AcDbEntity
  8
10
  6
CONTINOUS
100
AcDbCircle
 10
13.599901
 20
-64.75000199999985
 30
0.0
 40
0.5
100
AcDbArc
 50
180.0
 51
270.0
  0
ARC
  5
80AC
330
1E
100
AcDbEntity
  8
24
  6
CONTINOUS
100
AcDbCircle
 10
16.99990099999999
 20
-64.75000199999985
 30
0.0
 40
0.5
100
AcDbArc
 50
270.0
 51
0.0
  0
LINE
  5
80AD
330
1E
100
AcDbEntity
  8
10
  6
CONTINOUS
100
AcDbLine
 10
7.999900999999994
 20
-52.90003399999983
 30
0.0
 11
16.99990099999999
 21
-52.90003399999983
 31
0.0
  0
ARC
  5
80AE
330
1E
100
AcDbEntity
  8
12
  6
DASHED
100
AcDbCircle
 10
12.49996200000001
 20
-57.49994099999987
 30
0.0
 40
3.9
100
AcDbArc
 50
284.4766919999997
 51
217.3004790000006
  0
ARC
  5
80AF
330
1E
100
AcDbEntity
  8
10
  6
CONTINOUS
100
AcDbCircle
 10
8.999900999999994
 20
-60.16631899999985
 30
0.0
 40
0.5
100
AcDbArc
 50
0.0
 51
37.30047900000063
  0
ARC
  5
80B0
330
1E
100
AcDbEntity
  8
12
  6
DASHED
100
AcDbCircle
 10
9.999900999999994
 20
-62.25000199999985
 30
0.0
 40
0.5
100
AcDbArc
 50
90.0
 51
180.0
  0
LINE
  5
80B1
330
1E
100
AcDbEntity
  8
24
  6
CONTINOUS
100
AcDbLine
 10
7.499900999999994
 20
-55.04731999999987
 30
0.0
 11
7.499900999999994
 21
-50.50000199999985
 31
0.0
  0
ARC
  5
80B2
330
1E
100
AcDbEntity
  8
24
  6
CONTINOUS
100
AcDbCircle
 10
-2.077578281415972
 20
-57.24994099999986
 30
0.0
 40
9.827494281415971
100
AcDbArc
 50
347.0483672722335
 51
12.95163272776641
  0
LINE
  5
80B3
330
1E
100
AcDbEntity
  8
10
  6
CONTINOUS
100
AcDbLine
 10
8.599962000000004
 20
-56.99604699999989
 30
0.0
 11
8.599962000000004
 21
-57.01091399999987
 31
0.0
  0
LINE
  5
80B4
330
1E
100
AcDbEntity
  8
10
  6
CONTINOUS
100
AcDbLine
 10
9.324962000000013
 20
-56.99994099999987
 30
0.0
 11
8.549962000000007
 21
-56.99994099999987
 31
0.0
  0
ARC
  5
80B5
330
1E
100
AcDbEntity
  8
24
  6
CONTINOUS
100
AcDbCircle
 10
6.499900999999994
 20
-50.50000199999985
 30
0.0
 40
1.0
100
AcDbArc
 50
0.0
 51
90.0
  0
ARC
  5
80B6
330
1E
100
AcDbEntity
  8
10
  6
CONTINOUS
100
AcDbCircle
 10
7.999900999999994
 20
-52.40003399999983
 30
0.0
 40
0.5
100
AcDbArc
 50
180.0
 51
270.0
  0
LINE
  5
80B7
330
1E
100
AcDbEntity
  8
24
  6
CONTINOUS
100
AcDbLine
 10
17.49990099999999
 20
-50.50000199999985
 30
0.0
 11
17.49990099999999
 21
-55.04743699999986
 31
0.0
  0
LINE
  5
80B8
330
1E
100
AcDbEntity
  8
10
  6
CONTINOUS
100
AcDbLine
 10
12.49996200000001
 20
-53.04994099999987
 30
0.0
 11
12.49996200000001
 21
-53.82494099999988
 31
0.0
  0
LINE
  5
80B9
330
1E
100
AcDbEntity
  8
12
  6
DASHED
100
AcDbLine
 10
14.087462
 20
-56.99994099999987
 30
0.0
 11
10.912462
 21
-56.99994099999987
 31
0.0
  0
CIRCLE
  5
80BA
330
1E
100
AcDbEntity
  8
12
  6
DASHED
100
AcDbCircle
 10
12.49996200000001
 20
-56.99994099999987
 30
0.0
 40
2.45
  0
LINE
  5
80BB
330
1E
100
AcDbEntity
  8
12
  6
DASHED
100
AcDbLine
 10
12.49996200000001
 20
-55.41244099999989
 30
0.0
 11
12.49996200000001
 21
-58.58744099999987
 31
0.0
  0
LINE
  5
80BC
330
1E
100
AcDbEntity
  8
12
  6
DASHED
100
AcDbLine
 10
9.999900999999994
 20
-61.75000199999985
 30
0.0
 11
12.599901
 21
-61.75000199999985
 31
0.0
  0
LINE
  5
80BD
330
1E
100
AcDbEntity
  8
10
  6
CONTINOUS
100
AcDbLine
 10
12.49996200000001
 20
-60.67494099999987
 30
0.0
 11
12.49996200000001
 21
-61.44994099999988
 31
0.0
  0
ARC
  5
80BE
330
1E
100
AcDbEntity
  8
12
  6
DASHED
100
AcDbCircle
 10
13.599901
 20
-61.76023799999985
 30
0.0
 40
0.5
100
AcDbArc
 50
104.4766919999997
 51
179.9999910000003
  0
ARC
  5
80BF
330
1E
100
AcDbEntity
  8
12
  6
DASHED
100
AcDbCircle
 10
12.599901
 20
-62.25000199999985
 30
0.0
 40
0.5
100
AcDbArc
 50
0.0
 51
90.0
  0
ARC
  5
80C0
330
1E
100
AcDbEntity
  8
24
  6
CONTINOUS
100
AcDbCircle
 10
27.077546592011
 20
-57.24994099999986
 30
0.0
 40
9.827630592010992
100
AcDbArc
 50
167.0492508884331
 51
192.9507491115668
  0
LINE
  5
80C1
330
1E
100
AcDbEntity
  8
10
  6
CONTINOUS
100
AcDbLine
 10
16.44996200000001
 20
-56.99994099999987
 30
0.0
 11
15.674962
 21
-56.99994099999987
 31
0.0
  0
ARC
  5
80C2
330
1E
100
AcDbEntity
  8
10
  6
CONTINOUS
100
AcDbCircle
 10
16.99990099999999
 20
-52.40003399999983
 30
0.0
 40
0.5
100
AcDbArc
 50
270.0
 51
0.0
  0
LINE
  5
80C3
330
1E
100
AcDbEntity
  8
24
  6
CONTINOUS
100
AcDbLine
 10
32.49990099999997
 20
-64.75000199999985
 30
0.0
 11
32.49990099999997
 21
-59.45256199999988
 31
0.0
  0
LINE
  5
80C4
330
1E
100
AcDbEntity
  8
10
  6
CONTINOUS
100
AcDbLine
 10
35.69984000000001
 20
-62.25000199999985
 30
0.0
 11
35.69984000000001
 21
-64.75000199999985
 31
0.0
  0
LINE
  5
80C5
330
1E
100
AcDbEntity
  8
24
  6
CONTINOUS
100
AcDbLine
 10
24.999986
 20
-50.92498899999987
 30
0.0
 11
24.999986
 21
-63.57501399999986
 31
0.0
  0
LINE
  5
80C6
330
1E
100
AcDbEntity
  8
10
  6
CONTINOUS
100
AcDbLine
 10
32.99990099999998
 20
-65.25000199999985
 30
0.0
 11
35.19984
 21
-65.25000199999985
 31
0.0
  0
ARC
  5
80C7
330
1E
100
AcDbEntity
  8
24
  6
CONTINOUS
100
AcDbCircle
 10
32.99990099999998
 20
-64.75000199999985
 30
0.0
 40
0.5
100
AcDbArc
 50
180.0
 51
270.0
  0
ARC
  5
80C8
330
1E
100
AcDbEntity
  8
10
  6
CONTINOUS
100
AcDbCircle
 10
35.19984
 20
-64.75000199999985
 30
0.0
 40
0.5
100
AcDbArc
 50
270.0
 51
0.0
  0
LINE
  5
80C9
330
1E
100
AcDbEntity
  8
24
  6
CONTINOUS
100
AcDbLine
 10
31.49990099999998
 20
-49.50000199999985
 30
0.0
 11
18.49990099999999
 21
-49.50000199999985
 31
0.0
  0
LINE
  5
80CA
330
1E
100
AcDbEntity
  8
24
  6
CONTINOUS
100
AcDbLine
 10
32.49990099999997
 20
-55.04731999999987
 30
0.0
 11
32.49990099999997
 21
-50.50000199999985
 31
0.0
  0
ARC
  5
80CB
330
1E
100
AcDbEntity
  8
24
  6
CONTINOUS
100
AcDbCircle
 10
22.92242171858404
 20
-57.24994099999986
 30
0.0
 40
9.827494281415971
100
AcDbArc
 50
347.0483672722335
 51
12.95163272776641
  0
LINE
  5
80CC
330
1E
100
AcDbEntity
  8
10
  6
CONTINOUS
100
AcDbLine
 10
32.49990099999997
 20
-62.45000199999987
 30
0.0
 11
35.69984000000001
 21
-62.45000199999987
 31
0.0
  0
ARC
  5
80CD
330
1E
100
AcDbEntity
  8
24
  6
CONTINOUS
100
AcDbCircle
 10
31.49990099999998
 20
-50.50000199999985
 30
0.0
 40
1.0
100
AcDbArc
 50
0.0
 51
90.0
  0
ARC
  5
80CE
330
1E
100
AcDbEntity
  8
10
  6
CONTINOUS
100
AcDbCircle
 10
32.99990099999998
 20
-52.40003399999983
 30
0.0
 40
0.5
100
AcDbArc
 50
180.0
 51
270.0
  0
ARC
  5
80CF
330
1E
100
AcDbEntity
  8
10
  6
CONTINOUS
100
AcDbCircle
 10
18.69961499999999
 20
-20.80000199999994
 30
0.0
 40
1.0
100
AcDbArc
 50
90.0
 51
180.0
  0
LINE
  5
80D0
330
1E
100
AcDbEntity
  8
10
  6
CONTINOUS
100
AcDbLine
 10
32.49993999999998
 20
-18.70000899999996
 30
0.0
 11
17.49993999999999
 21
-18.70000899999996
 31
0.0
  0
LINE
  5
80D1
330
1E
100
AcDbEntity
  8
10
  6
CONTINOUS
100
AcDbLine
 10
7.800012999999992
 20
-23.10009599999995
 30
0.0
 11
17.19961499999999
 21
-23.10009599999995
 31
0.0
  0
LINE
  5
80D2
330
1E
100
AcDbEntity
  8
10
  6
CONTINOUS
100
AcDbLine
 10
17.49993999999999
 20
-22.900033
 30
0.0
 11
7.499938999999983
 21
-22.900033
 31
0.0
  0
LINE
  5
80D3
330
1E
100
AcDbEntity
  8
10
  6
CONTINOUS
100
AcDbLine
 10
7.499938999999983
 20
-22.200152
 30
0.0
 11
7.499938999999983
 21
-18.70000899999996
 31
0.0
  0
ARC
  5
80D4
330
1E
100
AcDbEntity
  8
10
  6
CONTINOUS
100
AcDbCircle
 10
6.300012999999992
 20
-20.80000199999994
 30
0.0
 40
1.0
100
AcDbArc
 50
0.0
 51
90.0
  0
ARC
  5
80D5
330
1E
100
AcDbEntity
  8
10
  6
CONTINOUS
100
AcDbCircle
 10
7.800012999999992
 20
-22.60009599999995
 30
0.0
 40
0.5
100
AcDbArc
 50
180.0
 51
270.0
  0
LINE
  5
80D6
330
1E
100
AcDbEntity
  8
10
  6
CONTINOUS
100
AcDbLine
 10
7.499938999999983
 20
-23.00004100000001
 30
0.0
 11
7.499938999999983
 21
-22.200152
 31
0.0
  0
LINE
  5
80D7
330
1E
100
AcDbEntity
  8
10
  6
CONTINOUS
100
AcDbLine
 10
7.300012999999992
 20
-20.80000199999994
 30
0.0
 11
7.300012999999992
 21
-22.60009599999995
 31
0.0
  0
LINE
  5
80D8
330
1E
100
AcDbEntity
  8
10
  6
CONTINOUS
100
AcDbLine
 10
17.49993999999999
 20
-18.70000899999996
 30
0.0
 11
17.49993999999999
 21
-22.20033999999998
 31
0.0
  0
LINE
  5
80D9
330
1E
100
AcDbEntity
  8
10
  6
CONTINOUS
100
AcDbLine
 10
17.49993999999999
 20
-22.20033999999998
 30
0.0
 11
17.49993999999999
 21
-22.99985199999997
 31
0.0
  0
LINE
  5
80DA
330
1E
100
AcDbEntity
  8
10
  6
CONTINOUS
100
AcDbLine
 10
17.69961499999999
 20
-20.80000199999994
 30
0.0
 11
17.69961499999999
 21
-22.60009599999995
 31
0.0
  0
ARC
  5
80DB
330
1E
100
AcDbEntity
  8
10
  6
CONTINOUS
100
AcDbCircle
 10
17.19961499999999
 20
-22.60009599999995
 30
0.0
 40
0.5
100
AcDbArc
 50
270.0
 51
0.0
  0
ARC
  5
80DC
330
1E
100
AcDbEntity
  8
10
  6
CONTINOUS
100
AcDbCircle
 10
10.64638599999999
 20
-9.646478000000001
 30
0.0
 40
0.353553
100
AcDbArc
 50
270.0
 51
0.0
  0
LINE
  5
80DD
330
1E
100
AcDbEntity
  8
10
  6
CONTINOUS
100
AcDbLine
 10
34.99955099999999
 20
-23.20009599999997
 30
0.0
 11
34.99955099999999
 21
-28.81197299999996
 31
0.0
  0
LINE
  5
80DE
330
1E
100
AcDbEntity
  8
10
  6
CONTINOUS
100
AcDbLine
 10
31.29958399999998
 20
-19.80000199999994
 30
0.0
 11
18.69961499999999
 21
-19.80000199999994
 31
0.0
  0
ARC
  5
80DF
330
1E
100
AcDbEntity
  8
10
  6
CONTINOUS
100
AcDbCircle
 10
31.29958399999998
 20
-20.80000199999994
 30
0.0
 40
1.0
100
AcDbArc
 50
0.0
 51
90.0
  0
LINE
  5
80E0
330
1E
100
AcDbEntity
  8
10
  6
CONTINOUS
100
AcDbLine
 10
32.49993999999998
 20
-22.29982999999998
 30
0.0
 11
32.49993999999998
 21
-18.70000899999996
 31
0.0
  0
LINE
  5
80E1
330
1E
100
AcDbEntity
  8
10
  6
CONTINOUS
100
AcDbLine
 10
34.99955099999999
 20
-23.20009599999997
 30
0.0
 11
32.79958399999998
 21
-23.20009599999997
 31
0.0
  0
LINE
  5
80E2
330
1E
100
AcDbEntity
  8
10
  6
CONTINOUS
100
AcDbLine
 10
32.49993999999998
 20
-23.10036299999996
 30
0.0
 11
32.49993999999998
 21
-22.29982999999998
 31
0.0
  0
LINE
  5
80E3
330
1E
100
AcDbEntity
  8
10
  6
CONTINOUS
100
AcDbLine
 10
32.29958399999998
 20
-20.80000199999994
 30
0.0
 11
32.29958399999998
 21
-22.70009599999997
 31
0.0
  0
ARC
  5
80E4
330
1E
100
AcDbEntity
  8
10
  6
CONTINOUS
100
AcDbCircle
 10
32.79958399999998
 20
-22.70009599999997
 30
0.0
 40
0.5
100
AcDbArc
 50
180.0
 51
270.0
  0
LINE
  5
80EB
330
1E
100
AcDbEntity
  8
10
  6
CONTINOUS
100
AcDbLine
 10
36.19984
 20
-61.75000199999985
 30
0.0
 11
36.999901
 21
-61.75000199999985
 31
0.0
  0
ARC
  5
80EC
330
1E
100
AcDbEntity
  8
10
  6
CONTINOUS
100
AcDbCircle
 10
36.999901
 20
-61.25000199999985
 30
0.0
 40
0.5
100
AcDbArc
 50
270.0
 51
0.0
  0
ARC
  5
80ED
330
1E
100
AcDbEntity
  8
10
  6
CONTINOUS
100
AcDbCircle
 10
36.999901
 20
-52.40003399999983
 30
0.0
 40
0.5
100
AcDbArc
 50
270.0
 51
0.0
  0
LINE
  5
80F6
330
1E
100
AcDbEntity
  8
10
  6
CONTINOUS
100
AcDbLine
 10
37.50002899999998
 20
-28.81197299999996
 30
0.0
 11
37.49990100000001
 21
-61.25000199999985
 31
0.0
  0
LINE
  5
80F8
330
1E
100
AcDbEntity
  8
10
  6
CONTINOUS
100
AcDbLine
 10
37.49994
 20
-28.81197299999996
 30
0.0
 11
37.49994
 21
-31.25000199999997
 31
0.0
  0
LINE
  5
8107
330
1E
100
AcDbEntity
  8
10
  6
CONTINOUS
100
AcDbLine
 10
-6.000053000000008
 20
34.88189899999997
 30
0.0
 11
5.999946999999991
 21
34.88189899999997
 31
0.0
  0
LINE
  5
8108
330
1E
100
AcDbEntity
  8
10
  6
CONTINOUS
100
AcDbLine
 10
5.999946999999991
 20
30.39686200000005
 30
0.0
 11
-6.000053000000008
 21
30.39686200000005
 31
0.0
  0
LINE
  5
8109
330
1E
100
AcDbEntity
  8
10
  6
CONTINOUS
100
AcDbLine
 10
5.999946999999991
 20
23.94915800000001
 30
0.0
 11
-6.000053000000008
 21
23.94915800000001
 31
0.0
  0
LINE
  5
810C
330
1E
100
AcDbEntity
  8
24
  6
CONTINOUS
100
AcDbLine
 10
-6.07499700000001
 20
54.999999
 30
0.0
 11
6.074996999999996
 21
54.999999
 31
0.0
  0
LINE
  5
810D
330
1E
100
AcDbEntity
  8
10
  6
CONTINOUS
100
AcDbLine
 10
-7.500061000000016
 20
64.75000099999999
 30
0.0
 11
7.499938999999983
 21
64.75000099999999
 31
0.0
  0
LINE
  5
8110
330
1E
100
AcDbEntity
  8
10
  6
CONTINOUS
100
AcDbLine
 10
-6.500046000000011
 20
15.82588600000002
 30
0.0
 11
6.499938999999983
 21
15.82588600000002
 31
0.0
  0
LINE
  5
8111
330
1E
100
AcDbEntity
  8
10
  6
CONTINOUS
100
AcDbLine
 10
-6.500046000000011
 20
17.90000000000003
 30
0.0
 11
6.499938999999983
 21
17.90000000000003
 31
0.0
  0
LINE
  5
8112
330
1E
100
AcDbEntity
  8
24
  6
CONTINOUS
100
AcDbLine
 10
7.499938999999983
 20
48.70000000000004
 30
0.0
 11
-7.500061000000016
 21
48.70000000000004
 31
0.0
  0
LINE
  5
8113
330
1E
100
AcDbEntity
  8
10
  6
CONTINOUS
100
AcDbLine
 10
34.99997099999998
 20
39.99997000000002
 30
0.0
 11
-35.000031
 21
39.99997000000002
 31
0.0
  0
LINE
  5
8114
330
1E
100
AcDbEntity
  8
18
100
AcDbLine
 10
-13.10006100000001
 20
64.75000099999999
 30
0.0
 11
-13.10006100000001
 21
114.7500009999999
 31
0.0
  0
LINE
  5
8115
330
1E
100
AcDbEntity
  8
18
100
AcDbLine
 10
-9.500061000000016
 20
64.75000099999999
 30
0.0
 11
-9.500061000000016
 21
114.7500009999999
 31
0.0
  0
ARC
  5
8116
330
1E
100
AcDbEntity
  8
10
  6
CONTINOUS
100
AcDbCircle
 10
-35.000031
 20
38.99997000000002
 30
0.0
 40
1.0
100
AcDbArc
 50
90.0
 51
179.999996999999
  0
LINE
  5
8117
330
1E
100
AcDbEntity
  8
10
  6
CONTINOUS
100
AcDbLine
 10
-36.00000099999999
 20
64.75000099999999
 30
0.0
 11
-32.50006200000001
 21
64.75000099999999
 31
0.0
  0
LINE
  5
8118
330
1E
100
AcDbEntity
  8
10
  6
CONTINOUS
100
AcDbLine
 10
-32.50006200000001
 20
52.89996400000001
 30
0.0
 11
-37.50004600000001
 21
52.89996400000001
 31
0.0
  0
LINE
  5
8119
330
1E
100
AcDbEntity
  8
10
  6
CONTINOUS
100
AcDbLine
 10
-36.00000099999999
 20
61.250001
 30
0.0
 11
-36.00000099999999
 21
64.75000099999999
 31
0.0
  0
LINE
  5
811A
330
1E
100
AcDbEntity
  8
10
  6
CONTINOUS
100
AcDbLine
 10
-36.00000099999999
 20
61.250001
 30
0.0
 11
-37.50004600000001
 21
61.250001
 31
0.0
  0
LINE
  5
811B
330
1E
100
AcDbEntity
  8
10
  6
CONTINOUS
100
AcDbLine
 10
-6.000053000000008
 20
34.88189899999997
 30
0.0
 11
-6.000053000000008
 21
17.90000000000003
 31
0.0
  0
LINE
  5
8124
330
1E
100
AcDbEntity
  8
10
  6
CONTINOUS
100
AcDbLine
 10
-6.500046000000011
 20
31.17330000000004
 30
0.0
 11
-6.500046000000011
 21
15.82588600000002
 31
0.0
  0
LINE
  5
8125
330
1E
100
AcDbEntity
  8
10
  6
CONTINOUS
100
AcDbLine
 10
-6.500046000000011
 20
29.10000000000002
 30
0.0
 11
-6.000053000000008
 21
29.10000000000002
 31
0.0
  0
LINE
  5
8126
330
1E
100
AcDbEntity
  8
10
  6
CONTINOUS
100
AcDbLine
 10
-6.500046000000011
 20
31.17330000000004
 30
0.0
 11
-6.000053000000008
 21
31.17330000000004
 31
0.0
  0
LINE
  5
8127
330
1E
100
AcDbEntity
  8
10
  6
CONTINOUS
100
AcDbLine
 10
-17.50006100000001
 20
64.75000099999999
 30
0.0
 11
-13.10006100000001
 21
64.75000099999999
 31
0.0
  0
LINE
  5
8128
330
1E
100
AcDbEntity
  8
10
  6
CONTINOUS
100
AcDbLine
 10
-7.500061000000016
 20
52.89996400000001
 30
0.0
 11
-17.50006100000001
 21
52.89996400000001
 31
0.0
  0
LINE
  5
8129
330
1E
100
AcDbEntity
  8
24
  6
CONTINOUS
100
AcDbLine
 10
-25.00001600000001
 20
61.07501200000001
 30
0.0
 11
-25.00001600000001
 21
48.92498700000004
 31
0.0
  0
LINE
  5
812A
330
1E
100
AcDbEntity
  8
24
  6
CONTINOUS
100
AcDbLine
 10
-32.50006200000001
 20
64.75000099999999
 30
0.0
 11
-32.50006200000001
 21
48.70000000000004
 31
0.0
  0
LINE
  5
812B
330
1E
100
AcDbEntity
  8
24
  6
CONTINOUS
100
AcDbLine
 10
-17.50006100000001
 20
48.70000000000004
 30
0.0
 11
-17.50006100000001
 21
64.75000099999999
 31
0.0
  0
LINE
  5
812C
330
1E
100
AcDbEntity
  8
24
  6
CONTINOUS
100
AcDbLine
 10
-17.50006100000001
 20
48.70000000000004
 30
0.0
 11
-32.50006200000001
 21
48.70000000000004
 31
0.0
  0
LINE
  5
812D
330
1E
100
AcDbEntity
  8
24
  6
CONTINOUS
100
AcDbLine
 10
-31.07499700000002
 20
54.999999
 30
0.0
 11
-18.925003
 21
54.999999
 31
0.0
  0
LINE
  5
812E
330
1E
100
AcDbEntity
  8
10
  6
CONTINOUS
100
AcDbLine
 10
-32.50006200000001
 20
64.75000099999999
 30
0.0
 11
-17.50006100000001
 21
64.75000099999999
 31
0.0
  0
LINE
  5
812F
330
1E
100
AcDbEntity
  8
24
  6
CONTINOUS
100
AcDbLine
 10
-7.500061000000016
 20
64.75000099999999
 30
0.0
 11
-7.500061000000016
 21
48.70000000000004
 31
0.0
  0
ARC
  5
8130
330
1E
100
AcDbEntity
  8
10
  6
CONTINOUS
100
AcDbCircle
 10
-10.646492
 20
39.64641600000004
 30
0.0
 40
0.353553
100
AcDbArc
 50
90.0
 51
180.0
  0
LINE
  5
8131
330
1E
100
AcDbEntity
  8
10
  6
CONTINOUS
100
AcDbLine
 10
-9.500061000000016
 20
64.75000099999999
 30
0.0
 11
-7.500061000000016
 21
64.75000099999999
 31
0.0
  0
ARC
  5
8132
330
1E
100
AcDbEntity
  8
12
  6
DASHED
100
AcDbCircle
 10
-12.500015
 20
56.99994000000003
 30
0.0
 40
3.9
100
AcDbArc
 50
104.4781280000003
 51
37.30277299999978
  0
LINE
  5
8133
330
1E
100
AcDbEntity
  8
10
  6
CONTINOUS
100
AcDbLine
 10
-9.500061000000016
 20
59.66645800000003
 30
0.0
 11
-9.500061000000016
 21
64.75000099999999
 31
0.0
  0
CIRCLE
  5
8134
330
1E
100
AcDbEntity
  8
12
  6
DASHED
100
AcDbCircle
 10
-12.500015
 20
56.99994000000003
 30
0.0
 40
2.45
  0
LINE
  5
8135
330
1E
100
AcDbEntity
  8
10
  6
CONTINOUS
100
AcDbLine
 10
-10.91251500000001
 20
56.99994000000003
 30
0.0
 11
-14.08751500000001
 21
56.99994000000003
 31
0.0
  0
LINE
  5
8136
330
1E
100
AcDbEntity
  8
10
  6
CONTINOUS
100
AcDbLine
 10
-15.675015
 20
56.99994000000003
 30
0.0
 11
-16.450015
 21
56.99994000000003
 31
0.0
  0
LINE
  5
8137
330
1E
100
AcDbEntity
  8
10
  6
CONTINOUS
100
AcDbLine
 10
-12.500015
 20
53.82494000000002
 30
0.0
 11
-12.500015
 21
53.04993999999999
 31
0.0
  0
LINE
  5
8138
330
1E
100
AcDbEntity
  8
10
  6
CONTINOUS
100
AcDbLine
 10
-12.500015
 20
58.58744000000001
 30
0.0
 11
-12.500015
 21
55.41244
 31
0.0
  0
ARC
  5
8139
330
1E
100
AcDbEntity
  8
10
  6
CONTINOUS
100
AcDbCircle
 10
-9.000061000000016
 20
59.66645800000003
 30
0.0
 40
0.5
100
AcDbArc
 50
180.0000010000013
 51
217.3027729999998
  0
LINE
  5
813A
330
1E
100
AcDbEntity
  8
10
  6
CONTINOUS
100
AcDbLine
 10
-8.550015000000001
 20
56.99994000000003
 30
0.0
 11
-9.325015000000007
 21
56.99994000000003
 31
0.0
  0
LINE
  5
813B
330
1E
100
AcDbEntity
  8
12
  6
DASHED
100
AcDbLine
 10
-13.10006100000001
 20
61.250001
 30
0.0
 11
-9.500061000000016
 21
61.250001
 31
0.0
  0
LINE
  5
813C
330
1E
100
AcDbEntity
  8
10
  6
CONTINOUS
100
AcDbLine
 10
-13.10006100000001
 20
61.26021000000003
 30
0.0
 11
-13.10006100000001
 21
64.75000099999999
 31
0.0
  0
ARC
  5
813D
330
1E
100
AcDbEntity
  8
10
  6
CONTINOUS
100
AcDbCircle
 10
-13.60006100000001
 20
61.26021000000003
 30
0.0
 40
0.5
100
AcDbArc
 50
284.4781280000003
 51
0.0000010000014034
  0
LINE
  5
813E
330
1E
100
AcDbEntity
  8
18
100
AcDbLine
 10
-12.500015
 20
60.94994000000003
 30
0.0
 11
-12.500015
 21
60.17493999999999
 31
0.0
  0
LINE
  5
813F
330
1E
100
AcDbEntity
  8
18
100
AcDbLine
 10
-13.10006100000001
 20
114.7500009999999
 30
0.0
 11
-9.500061000000016
 21
114.7500009999999
 31
0.0
  0
LINE
  5
8140
330
1E
100
AcDbEntity
  8
18
100
AcDbLine
 10
15.49993999999999
 20
64.75000099999999
 30
0.0
 11
15.49993999999999
 21
114.7500009999999
 31
0.0
  0
LINE
  5
8141
330
1E
100
AcDbEntity
  8
18
100
AcDbLine
 10
11.89993899999999
 20
64.75000099999999
 30
0.0
 11
11.89993899999999
 21
114.7500009999999
 31
0.0
  0
ARC
  5
8142
330
1E
100
AcDbEntity
  8
10
  6
CONTINOUS
100
AcDbCircle
 10
34.99997099999998
 20
38.99997000000002
 30
0.0
 40
1.0
100
AcDbArc
 50
0.0
 51
90.0
  0
LINE
  5
8143
330
1E
100
AcDbEntity
  8
10
  6
CONTINOUS
100
AcDbLine
 10
35.99987899999999
 20
61.250001
 30
0.0
 11
37.49994
 21
61.250001
 31
0.0
  0
LINE
  5
8144
330
1E
100
AcDbEntity
  8
10
  6
CONTINOUS
100
AcDbLine
 10
37.49994
 20
52.89996400000001
 30
0.0
 11
32.49993999999998
 21
52.89996400000001
 31
0.0
  0
LINE
  5
8145
330
1E
100
AcDbEntity
  8
10
  6
CONTINOUS
100
AcDbLine
 10
5.999946999999991
 20
34.88189899999997
 30
0.0
 11
5.999946999999991
 21
17.90000000000003
 31
0.0
  0
LINE
  5
814A
330
1E
100
AcDbEntity
  8
10
  6
CONTINOUS
100
AcDbLine
 10
6.499938999999983
 20
31.17330000000004
 30
0.0
 11
6.499938999999983
 21
15.82588600000002
 31
0.0
  0
LINE
  5
814B
330
1E
100
AcDbEntity
  8
10
  6
CONTINOUS
100
AcDbLine
 10
5.999946999999991
 20
29.10000000000002
 30
0.0
 11
6.499938999999983
 21
29.10000000000002
 31
0.0
  0
LINE
  5
814C
330
1E
100
AcDbEntity
  8
10
  6
CONTINOUS
100
AcDbLine
 10
5.999946999999991
 20
31.17330000000004
 30
0.0
 11
6.499938999999983
 21
31.17330000000004
 31
0.0
  0
LINE
  5
814F
330
1E
100
AcDbEntity
  8
10
  6
CONTINOUS
100
AcDbLine
 10
17.49993999999999
 20
64.75000099999999
 30
0.0
 11
32.49993999999998
 21
64.75000099999999
 31
0.0
  0
LINE
  5
8150
330
1E
100
AcDbEntity
  8
24
  6
CONTINOUS
100
AcDbLine
 10
32.49993999999998
 20
48.70000000000004
 30
0.0
 11
17.49993999999999
 21
48.70000000000004
 31
0.0
  0
LINE
  5
8151
330
1E
100
AcDbEntity
  8
24
  6
CONTINOUS
100
AcDbLine
 10
17.49993999999999
 20
64.75000099999999
 30
0.0
 11
17.49993999999999
 21
48.70000000000004
 31
0.0
  0
LINE
  5
8152
330
1E
100
AcDbEntity
  8
24
  6
CONTINOUS
100
AcDbLine
 10
7.499938999999983
 20
48.70000000000004
 30
0.0
 11
7.499938999999983
 21
64.75000099999999
 31
0.0
  0
ARC
  5
8153
330
1E
100
AcDbEntity
  8
10
  6
CONTINOUS
100
AcDbCircle
 10
10.64638599999999
 20
39.64641600000004
 30
0.0
 40
0.353553
100
AcDbArc
 50
0.0
 51
90.0
  0
ARC
  5
8154
330
1E
100
AcDbEntity
  8
12
  6
DASHED
100
AcDbCircle
 10
12.50000099999998
 20
56.99994000000003
 30
0.0
 40
3.9
100
AcDbArc
 50
104.4783329999995
 51
37.30310200000103
  0
LINE
  5
8155
330
1E
100
AcDbEntity
  8
12
  6
DASHED
100
AcDbLine
 10
9.232092999999991
 20
56.99994000000003
 30
0.0
 11
15.91018799999999
 21
56.99994000000003
 31
0.0
  0
LINE
  5
8156
330
1E
100
AcDbEntity
  8
10
  6
CONTINOUS
100
AcDbLine
 10
7.499938999999983
 20
64.75000099999999
 30
0.0
 11
11.89993899999999
 21
64.75000099999999
 31
0.0
  0
LINE
  5
8157
330
1E
100
AcDbEntity
  8
10
  6
CONTINOUS
100
AcDbLine
 10
17.49993999999999
 20
52.89996400000001
 30
0.0
 11
7.499938999999983
 21
52.89996400000001
 31
0.0
  0
LINE
  5
8158
330
1E
100
AcDbEntity
  8
10
  6
CONTINOUS
100
AcDbLine
 10
15.49993999999999
 20
59.66647799999998
 30
0.0
 11
15.49993999999999
 21
64.75000099999999
 31
0.0
  0
ARC
  5
8159
330
1E
100
AcDbEntity
  8
10
  6
CONTINOUS
100
AcDbCircle
 10
15.99993999999999
 20
59.66647799999998
 30
0.0
 40
0.5
100
AcDbArc
 50
180.0
 51
217.303102000001
  0
LINE
  5
815A
330
1E
100
AcDbEntity
  8
12
  6
DASHED
100
AcDbLine
 10
11.89993899999999
 20
61.250001
 30
0.0
 11
15.49993999999999
 21
61.250001
 31
0.0
  0
LINE
  5
815B
330
1E
100
AcDbEntity
  8
10
  6
CONTINOUS
100
AcDbLine
 10
11.89993899999999
 20
61.26020600000003
 30
0.0
 11
11.89993899999999
 21
64.75000099999999
 31
0.0
  0
ARC
  5
815C
330
1E
100
AcDbEntity
  8
10
  6
CONTINOUS
100
AcDbCircle
 10
11.39993899999999
 20
61.26020600000003
 30
0.0
 40
0.5
100
AcDbArc
 50
284.4783329999995
 51
0.0
  0
LINE
  5
815D
330
1E
100
AcDbEntity
  8
10
  6
CONTINOUS
100
AcDbLine
 10
15.49993999999999
 20
64.75000099999999
 30
0.0
 11
17.49993999999999
 21
64.75000099999999
 31
0.0
  0
LINE
  5
815E
330
1E
100
AcDbEntity
  8
24
  6
CONTINOUS
100
AcDbLine
 10
24.99998599999999
 20
61.07501200000001
 30
0.0
 11
24.99998599999999
 21
48.92498700000004
 31
0.0
  0
LINE
  5
815F
330
1E
100
AcDbEntity
  8
24
  6
CONTINOUS
100
AcDbLine
 10
32.49993999999998
 20
64.75000099999999
 30
0.0
 11
32.49993999999998
 21
48.70000000000004
 31
0.0
  0
LINE
  5
8160
330
1E
100
AcDbEntity
  8
24
  6
CONTINOUS
100
AcDbLine
 10
18.92500399999998
 20
54.999999
 30
0.0
 11
31.07499799999999
 21
54.999999
 31
0.0
  0
LINE
  5
8161
330
1E
100
AcDbEntity
  8
10
  6
CONTINOUS
100
AcDbLine
 10
35.99987899999999
 20
61.250001
 30
0.0
 11
35.99987899999999
 21
64.75000099999999
 31
0.0
  0
LINE
  5
8162
330
1E
100
AcDbEntity
  8
10
  6
CONTINOUS
100
AcDbLine
 10
32.49993999999998
 20
64.75000099999999
 30
0.0
 11
35.99987899999999
 21
64.75000099999999
 31
0.0
  0
LINE
  5
8163
330
1E
100
AcDbEntity
  8
18
100
AcDbLine
 10
11.89993899999999
 20
114.7500009999999
 30
0.0
 11
15.49993999999999
 21
114.7500009999999
 31
0.0
  0
LINE
  5
8164
330
1E
100
AcDbEntity
  8
10
  6
CONTINOUS
100
AcDbLine
 10
203.0232807744076
 20
-10.7315529999999
 30
0.0
 11
203.0232807744076
 21
-4.500023999999882
 31
0.0
  0
LINE
  5
8165
330
1E
100
AcDbEntity
  8
10
  6
CONTINOUS
100
AcDbLine
 10
143.4233337744076
 20
51.89996400000001
 30
0.0
 11
143.4233337744076
 21
-22.39997199999987
 31
0.0
  0
LINE
  5
8166
330
1E
100
AcDbEntity
  8
10
  6
CONTINOUS
100
AcDbLine
 10
135.4233647744076
 20
39.14641600000015
 30
0.0
 11
135.4233647744076
 21
-9.999939999999867
 31
0.0
  0
LINE
  5
8167
330
1E
100
AcDbEntity
  8
10
  6
CONTINOUS
100
AcDbLine
 10
163.4233037744076
 20
64.75000099999999
 30
0.0
 11
163.4233037744076
 21
-32.05000199999986
 31
0.0
  0
LINE
  5
816A
330
1E
100
AcDbEntity
  8
10
  6
CONTINOUS
100
AcDbLine
 10
203.4232747744076
 20
-13.00003199999991
 30
0.0
 11
202.0417667744076
 21
-5.165110999999853
 31
0.0
  0
LINE
  5
816B
330
1E
100
AcDbEntity
  8
10
  6
CONTINOUS
100
AcDbLine
 10
131.4233647744076
 20
39.14641600000015
 30
0.0
 11
131.4233647744076
 21
-9.999939999999867
 31
0.0
  0
LINE
  5
816D
330
1E
100
AcDbEntity
  8
10
  6
CONTINOUS
100
AcDbLine
 10
163.7232747744076
 20
-37.25000199999985
 30
0.0
 11
183.7232747744075
 21
-37.25000199999985
 31
0.0
  0
LINE
  5
816E
330
1E
100
AcDbEntity
  8
10
  6
CONTINOUS
100
AcDbLine
 10
163.7232747744076
 20
-65.25000199999985
 30
0.0
 11
200.5548557744076
 21
-65.25000199999985
 31
0.0
  0
LINE
  5
816F
330
1E
100
AcDbEntity
  8
10
  6
CONTINOUS
100
AcDbLine
 10
202.0111117744075
 20
-61.74993099999986
 30
0.0
 11
163.7232747744076
 21
-61.74993099999986
 31
0.0
  0
LINE
  5
8170
330
1E
100
AcDbEntity
  8
10
  6
CONTINOUS
100
AcDbLine
 10
163.7232747744076
 20
-45.45000199999987
 30
0.0
 11
183.7232747744075
 21
-45.45000199999987
 31
0.0
  0
LINE
  5
8171
330
1E
100
AcDbEntity
  8
10
  6
CONTINOUS
100
AcDbLine
 10
163.7232747744076
 20
-32.25000199999985
 30
0.0
 11
184.7232747744076
 21
-32.25000199999985
 31
0.0
  0
LINE
  5
8173
330
1E
100
AcDbEntity
  8
10
  6
CONTINOUS
100
AcDbLine
 10
202.8810777744076
 20
-31.74993099999986
 30
0.0
 11
163.4233037744076
 21
-31.74993099999986
 31
0.0
  0
LINE
  5
8180
330
1E
100
AcDbEntity
  8
10
  6
CONTINOUS
100
AcDbLine
 10
131.9233647744076
 20
-10.49993999999986
 30
0.0
 11
143.4233337744076
 21
-10.49993999999986
 31
0.0
  0
LINE
  5
8185
330
1E
100
AcDbEntity
  8
10
  6
CONTINOUS
100
AcDbLine
 10
163.7232747744076
 20
-65.25000199999985
 30
0.0
 11
163.7232747744076
 21
-32.05000199999986
 31
0.0
  0
LINE
  5
8186
330
1E
100
AcDbEntity
  8
10
  6
CONTINOUS
100
AcDbLine
 10
143.4232747744076
 20
-20.80000199999983
 30
0.0
 11
143.4232747744076
 21
-52.40000199999986
 31
0.0
  0
CIRCLE
  5
8187
330
1E
100
AcDbEntity
  8
10
  6
CONTINOUS
100
AcDbCircle
 10
164.5482747744076
 20
-43.92500199999986
 30
0.0
 40
0.825
  0
LINE
  5
8188
330
1E
100
AcDbEntity
  8
10
  6
CONTINOUS
100
AcDbLine
 10
163.7232747744076
 20
-32.25000199999985
 30
0.0
 11
163.7232747744076
 21
-65.25000199999985
 31
0.0
  0
LINE
  5
8189
330
1E
100
AcDbEntity
  8
10
  6
CONTINOUS
100
AcDbLine
 10
144.4232747744076
 20
-53.40000199999986
 30
0.0
 11
152.7232137744076
 21
-53.40000199999986
 31
0.0
  0
ARC
  5
818A
330
1E
100
AcDbEntity
  8
10
  6
CONTINOUS
100
AcDbCircle
 10
144.4232747744076
 20
-52.40000199999986
 30
0.0
 40
1.0
100
AcDbArc
 50
180.0
 51
270.0
  0
LINE
  5
818B
330
1E
100
AcDbEntity
  8
10
  6
CONTINOUS
100
AcDbLine
 10
155.3696597744076
 20
-65.10348699999986
 30
0.0
 11
152.8696597744076
 21
-62.60348699999986
 31
0.0
  0
LINE
  5
818C
330
1E
100
AcDbEntity
  8
10
  6
CONTINOUS
100
AcDbLine
 10
155.7232747744075
 20
-65.25000199999985
 30
0.0
 11
163.7232747744076
 21
-65.25000199999985
 31
0.0
  0
ARC
  5
818D
330
1E
100
AcDbEntity
  8
10
  6
CONTINOUS
100
AcDbCircle
 10
155.7232137744076
 20
-64.74993299999986
 30
0.0
 40
0.5
100
AcDbArc
 50
225.0
 51
270.0
  0
LINE
  5
818E
330
1E
100
AcDbEntity
  8
10
  6
CONTINOUS
100
AcDbLine
 10
163.7232747744076
 20
-61.75000199999985
 30
0.0
 11
152.7232137744076
 21
-61.75000199999985
 31
0.0
  0
LINE
  5
818F
330
1E
100
AcDbEntity
  8
10
  6
CONTINOUS
100
AcDbLine
 10
163.7232747744076
 20
-61.74986299999986
 30
0.0
 11
152.7232737744076
 21
-61.74986299999986
 31
0.0
  0
LINE
  5
8190
330
1E
100
AcDbEntity
  8
10
  6
CONTINOUS
100
AcDbLine
 10
152.7232137744076
 20
-53.40000199999986
 30
0.0
 11
152.7232137744076
 21
-62.24993299999986
 31
0.0
  0
ARC
  5
8191
330
1E
100
AcDbEntity
  8
10
  6
CONTINOUS
100
AcDbCircle
 10
153.2232137744076
 20
-62.24993299999986
 30
0.0
 40
0.5
100
AcDbArc
 50
180.0
 51
225.0
  0
LINE
  5
8192
330
1E
100
AcDbEntity
  8
10
  6
CONTINOUS
100
AcDbLine
 10
143.4232747744076
 20
-23.69997599999988
 30
0.0
 11
152.5232137744076
 21
-23.69997599999988
 31
0.0
  0
LINE
  5
8193
330
1E
100
AcDbEntity
  8
10
  6
CONTINOUS
100
AcDbLine
 10
143.4232747744076
 20
-29.31185199999987
 30
0.0
 11
152.5232137744076
 21
-29.31185199999987
 31
0.0
  0
LINE
  5
8194
330
1E
100
AcDbEntity
  8
10
  6
CONTINOUS
100
AcDbLine
 10
152.4233037744076
 20
-23.39997199999988
 30
0.0
 11
144.4233337744076
 21
-23.39997199999988
 31
0.0
  0
ARC
  5
8195
330
1E
100
AcDbEntity
  8
10
  6
CONTINOUS
100
AcDbCircle
 10
144.4233337744076
 20
-22.39997199999987
 30
0.0
 40
1.0
100
AcDbArc
 50
179.999996999999
 51
270.0
  0
LINE
  5
8197
330
1E
100
AcDbEntity
  8
10
  6
CONTINOUS
100
AcDbLine
 10
152.4233037744076
 20
-32.05000199999986
 30
0.0
 11
152.4233037744076
 21
-23.39997199999988
 31
0.0
  0
LINE
  5
8198
330
1E
100
AcDbEntity
  8
10
  6
CONTINOUS
100
AcDbLine
 10
163.7232747744076
 20
-32.05000199999986
 30
0.0
 11
152.5232137744076
 21
-32.05000199999986
 31
0.0
  0
LINE
  5
8199
330
1E
100
AcDbEntity
  8
10
  6
CONTINOUS
100
AcDbLine
 10
152.4233037744076
 20
-31.74993999999983
 30
0.0
 11
163.4233037744076
 21
-31.74993999999983
 31
0.0
  0
CIRCLE
  5
819A
330
1E
100
AcDbEntity
  8
10
  6
CONTINOUS
100
AcDbCircle
 10
164.5482747744076
 20
-38.97500199999987
 30
0.0
 40
0.825
  0
CIRCLE
  5
819B
330
1E
100
AcDbEntity
  8
10
  6
CONTINOUS
100
AcDbCircle
 10
164.5482747744076
 20
-40.62500199999985
 30
0.0
 40
0.825
  0
CIRCLE
  5
819C
330
1E
100
AcDbEntity
  8
10
  6
CONTINOUS
100
AcDbCircle
 10
164.5482747744076
 20
-42.27500199999986
 30
0.0
 40
0.825
  0
LINE
  5
81B5
330
1E
100
AcDbEntity
  8
10
  6
CONTINOUS
100
AcDbLine
 10
203.4232747744076
 20
-32.25000199999985
 30
0.0
 11
203.4232747744076
 21
-58.49993099999986
 31
0.0
  0
LINE
  5
81B6
330
1E
100
AcDbEntity
  8
10
  6
CONTINOUS
100
AcDbLine
 10
185.7232747744076
 20
-47.45000199999987
 30
0.0
 11
185.7232747744076
 21
-60.74993099999986
 31
0.0
  0
ARC
  5
81B7
330
1E
100
AcDbEntity
  8
10
  6
CONTINOUS
100
AcDbCircle
 10
184.7232747744076
 20
-60.74993099999986
 30
0.0
 40
1.0
100
AcDbArc
 50
270.0
 51
0.0
  0
ARC
  5
81B8
330
1E
100
AcDbEntity
  8
10
  6
CONTINOUS
100
AcDbCircle
 10
183.7232747744075
 20
-47.45000199999987
 30
0.0
 40
2.0
100
AcDbArc
 50
0.0
 51
90.0
  0
LINE
  5
81B9
330
1E
100
AcDbEntity
  8
10
  6
CONTINOUS
100
AcDbLine
 10
202.5244707744076
 20
-63.59729799999985
 30
0.0
 11
203.4232747744076
 21
-58.49993099999986
 31
0.0
  0
ARC
  5
81BA
330
1E
100
AcDbEntity
  8
10
  6
CONTINOUS
100
AcDbCircle
 10
200.5548557744076
 20
-63.25000199999985
 30
0.0
 40
2.0
100
AcDbArc
 50
270.0
 51
350.0000000000013
  0
ARC
  5
81BB
330
1E
100
AcDbEntity
  8
10
  6
CONTINOUS
100
AcDbCircle
 10
202.0111117744075
 20
-60.74993099999986
 30
0.0
 40
1.0
100
AcDbArc
 50
270.0
 51
350.0000000000013
  0
LINE
  5
81BC
330
1E
100
AcDbEntity
  8
10
  6
CONTINOUS
100
AcDbLine
 10
185.7232747744076
 20
-35.25000199999985
 30
0.0
 11
200.5857207744075
 21
-35.25000199999985
 31
0.0
  0
LINE
  5
81BD
330
1E
100
AcDbEntity
  8
10
  6
CONTINOUS
100
AcDbLine
 10
185.7232747744076
 20
-35.35000199999987
 30
0.0
 11
185.7232747744076
 21
-33.25000199999985
 31
0.0
  0
ARC
  5
81BE
330
1E
100
AcDbEntity
  8
10
  6
CONTINOUS
100
AcDbCircle
 10
183.7232747744075
 20
-35.25000199999985
 30
0.0
 40
2.0
100
AcDbArc
 50
270.0
 51
0.0
  0
ARC
  5
81BF
330
1E
100
AcDbEntity
  8
10
  6
CONTINOUS
100
AcDbCircle
 10
184.7232747744076
 20
-33.25000199999985
 30
0.0
 40
1.0
100
AcDbArc
 50
0.0
 51
90.0
  0
LINE
  5
81C0
330
1E
100
AcDbEntity
  8
10
  6
CONTINOUS
100
AcDbLine
 10
203.4232747744076
 20
-13.00003199999991
 30
0.0
 11
203.4232747744076
 21
-28.50005299999989
 31
0.0
  0
ARC
  5
81C1
330
1E
100
AcDbEntity
  8
10
  6
CONTINOUS
100
AcDbCircle
 10
200.5857207744075
 20
-33.25000199999985
 30
0.0
 40
2.0
100
AcDbArc
 50
270.0
 51
350.0000000000013
  0
LINE
  5
81C2
330
1E
100
AcDbEntity
  8
10
  6
CONTINOUS
100
AcDbLine
 10
200.5857207744075
 20
-35.25000199999985
 30
0.0
 11
203.4232747744076
 21
-35.25000199999985
 31
0.0
  0
LINE
  5
81C3
330
1E
100
AcDbEntity
  8
10
  6
CONTINOUS
100
AcDbLine
 10
202.5553367744076
 20
-33.59729799999985
 30
0.0
 11
203.3928897744076
 21
-28.84729799999985
 31
0.0
  0
LINE
  5
81C4
330
1E
100
AcDbEntity
  8
10
  6
CONTINOUS
100
AcDbLine
 10
203.4232747744076
 20
-32.25000199999985
 30
0.0
 11
202.9741127744076
 21
-32.25000199999985
 31
0.0
  0
LINE
  5
81C5
330
1E
100
AcDbEntity
  8
10
  6
CONTINOUS
100
AcDbLine
 10
202.5222127744076
 20
-33.75000199999985
 30
0.0
 11
203.4232747744076
 21
-33.75000199999985
 31
0.0
  0
ARC
  5
81C6
330
1E
100
AcDbEntity
  8
10
  6
CONTINOUS
100
AcDbCircle
 10
201.4232747744076
 20
-28.50000099999988
 30
0.0
 40
2.0
100
AcDbArc
 50
350.0000000000013
 51
0.0
  0
LINE
  5
81C7
330
1E
100
AcDbEntity
  8
10
  6
CONTINOUS
100
AcDbLine
 10
160.4232747744076
 20
54.54987899999998
 30
0.0
 11
203.4232747744076
 21
54.54987899999998
 31
0.0
  0
LINE
  5
81C8
330
1E
100
AcDbEntity
  8
10
  6
CONTINOUS
100
AcDbLine
 10
160.4232747744076
 20
59.449879
 30
0.0
 11
203.1984747744075
 21
59.449879
 31
0.0
  0
LINE
  5
81C9
330
1E
100
AcDbEntity
  8
18
100
AcDbLine
 10
154.9232747744076
 20
114.2500010000001
 30
0.0
 11
200.9232747744076
 21
114.2500010000001
 31
0.0
  0
LINE
  5
81CB
330
1E
100
AcDbEntity
  8
10
  6
CONTINOUS
100
AcDbLine
 10
202.0419817744076
 20
61.24990699999995
 30
0.0
 11
163.4233037744076
 21
61.24990699999995
 31
0.0
  0
LINE
  5
81CC
330
1E
100
AcDbEntity
  8
10
  6
CONTINOUS
100
AcDbLine
 10
163.4233037744076
 20
64.75000099999999
 30
0.0
 11
200.5857207744075
 21
64.75000099999999
 31
0.0
  0
LINE
  5
81CD
330
1E
100
AcDbEntity
  8
18
100
AcDbLine
 10
154.9232747744076
 20
114.2500010000001
 30
0.0
 11
154.9232747744076
 21
64.75000099999999
 31
0.0
  0
LINE
  5
81CE
330
1E
100
AcDbEntity
  8
10
  6
CONTINOUS
100
AcDbLine
 10
131.7769177744076
 20
39.49997000000013
 30
0.0
 11
143.4233337744076
 21
39.49997000000013
 31
0.0
  0
LINE
  5
81D0
330
1E
100
AcDbEntity
  8
10
  6
CONTINOUS
100
AcDbLine
 10
131.4233647744076
 20
29.17098400000014
 30
0.0
 11
125.6521547744076
 21
31.62071000000014
 31
0.0
  0
ARC
  5
81D1
330
1E
100
AcDbEntity
  8
10
  6
CONTINOUS
100
AcDbCircle
 10
123.4202017744076
 20
31.48117100000013
 30
0.0
 40
0.5
100
AcDbArc
 50
156.9999980000015
 51
247.0000009999998
  0
LINE
  5
81D5
330
1E
100
AcDbEntity
  8
10
  6
CONTINOUS
100
AcDbLine
 10
123.2248307744076
 20
31.02090600000014
 30
0.0
 11
131.4233647744076
 21
27.54084300000011
 31
0.0
  0
ARC
  5
81D6
330
1E
100
AcDbEntity
  8
30
  6
CONTINUOUS
100
AcDbCircle
 10
151.3590907744076
 20
17.8125470000001
 30
0.0
 40
31.93581299999999
100
AcDbArc
 50
158.0705149999988
 51
180.0
  0
LINE
  5
81D7
330
1E
100
AcDbEntity
  8
0
  6
CONTINUOUS
100
AcDbLine
 10
119.4232777744076
 20
17.8125470000001
 30
0.0
 11
119.4232777744076
 21
14.81336600000014
 31
0.0
  0
LINE
  5
81D8
330
1E
100
AcDbEntity
  8
10
  6
CONTINOUS
100
AcDbLine
 10
125.1784877744076
 20
35.62343600000014
 30
0.0
 11
131.4233647744076
 21
32.97264700000011
 31
0.0
  0
CIRCLE
  5
81D9
330
1E
100
AcDbEntity
  8
10
  6
CONTINOUS
100
AcDbCircle
 10
126.0428887744076
 20
32.54122400000011
 30
0.0
 40
1.0
  0
LINE
  5
81DA
330
1E
100
AcDbEntity
  8
10
  6
CONTINOUS
100
AcDbLine
 10
124.5228657744076
 20
35.35854900000009
 30
0.0
 11
122.9599547744076
 21
31.67652500000014
 31
0.0
  0
ARC
  5
81DB
330
1E
100
AcDbEntity
  8
10
  6
CONTINOUS
100
AcDbCircle
 10
124.9831267744076
 20
35.16319100000015
 30
0.0
 40
0.5
100
AcDbArc
 50
67.00002300000004
 51
156.9999980000015
  0
LINE
  5
81DC
330
1E
100
AcDbEntity
  8
10
  6
CONTINOUS
100
AcDbLine
 10
126.4360387744076
 20
33.46069100000017
 30
0.0
 11
131.4233647744076
 21
31.34370400000011
 31
0.0
  0
ARC
  5
81DD
330
1E
100
AcDbEntity
  8
10
  6
CONTINOUS
100
AcDbCircle
 10
131.7769177744076
 20
39.14641600000015
 30
0.0
 40
0.353553
100
AcDbArc
 50
90.0
 51
180.0
  0
LINE
  5
81DE
330
1E
100
AcDbEntity
  8
10
  6
CONTINOUS
100
AcDbLine
 10
152.4233037744076
 20
52.89996400000001
 30
0.0
 11
144.4233337744076
 21
52.89996400000001
 31
0.0
  0
ARC
  5
81DF
330
1E
100
AcDbEntity
  8
10
  6
CONTINOUS
100
AcDbCircle
 10
135.7769177744076
 20
39.14641600000015
 30
0.0
 40
0.353553
100
AcDbArc
 50
90.0
 51
180.0
  0
ARC
  5
81E0
330
1E
100
AcDbEntity
  8
10
  6
CONTINOUS
100
AcDbCircle
 10
144.4233337744076
 20
51.89996400000001
 30
0.0
 40
1.0
100
AcDbArc
 50
90.0
 51
180.0
  0
LINE
  5
81E1
330
1E
100
AcDbEntity
  8
10
  6
CONTINOUS
100
AcDbLine
 10
152.4233037744076
 20
64.75000099999999
 30
0.0
 11
163.4233037744076
 21
64.75000099999999
 31
0.0
  0
LINE
  5
81E2
330
1E
100
AcDbEntity
  8
10
  6
CONTINOUS
100
AcDbLine
 10
152.4233037744076
 20
61.250001
 30
0.0
 11
163.4233037744076
 21
61.250001
 31
0.0
  0
LINE
  5
81E3
330
1E
100
AcDbEntity
  8
10
  6
CONTINOUS
100
AcDbLine
 10
160.4232747744076
 20
60.899879
 30
0.0
 11
160.4232747744076
 21
53.09987899999999
 31
0.0
  0
LINE
  5
81E4
330
1E
100
AcDbEntity
  8
10
  6
CONTINOUS
100
AcDbLine
 10
152.4233037744076
 20
64.75000099999999
 30
0.0
 11
152.4233037744076
 21
52.89996400000001
 31
0.0
  0
LINE
  5
81E5
330
1E
100
AcDbEntity
  8
10
  6
CONTINOUS
100
AcDbLine
 10
152.4233037744076
 20
53.09987899999999
 30
0.0
 11
160.4232747744076
 21
53.09987899999999
 31
0.0
  0
LINE
  5
81E6
330
1E
100
AcDbEntity
  8
10
  6
CONTINOUS
100
AcDbLine
 10
152.4233037744076
 20
60.899879
 30
0.0
 11
160.4232747744076
 21
60.899879
 31
0.0
  0
LINE
  5
81E7
330
1E
100
AcDbEntity
  8
18
100
AcDbLine
 10
200.9232747744076
 20
114.2500010000001
 30
0.0
 11
200.9232747744076
 21
64.75000099999999
 31
0.0
  0
LINE
  5
81E8
330
1E
100
AcDbEntity
  8
10
  6
CONTINOUS
100
AcDbLine
 10
203.4232747744076
 20
58.000001
 30
0.0
 11
203.4232747744076
 21
30.30007900000015
 31
0.0
  0
LINE
  5
81E9
330
1E
100
AcDbEntity
  8
10
  6
CONTINOUS
100
AcDbLine
 10
199.6232437744076
 20
32.30001800000013
 30
0.0
 11
199.8348377744076
 21
31.10000600000012
 31
0.0
  0
LINE
  5
81EA
330
1E
100
AcDbEntity
  8
10
  6
CONTINOUS
100
AcDbLine
 10
198.4232437744076
 20
32.30001800000013
 30
0.0
 11
198.4232437744076
 21
-3.000030999999864
 31
0.0
  0
LINE
  5
81EB
330
1E
100
AcDbEntity
  8
10
  6
CONTINOUS
100
AcDbLine
 10
200.2892407744075
 20
-3.500023999999882
 30
0.0
 11
202.0232807744076
 21
-3.500023999999882
 31
0.0
  0
ARC
  5
81EC
330
1E
100
AcDbEntity
  8
10
  6
CONTINOUS
100
AcDbCircle
 10
200.0721507744076
 20
-5.512406999999882
 30
0.0
 40
2.0
100
AcDbArc
 50
9.999999999998609
 51
74.99999999999961
  0
LINE
  5
81ED
330
1E
100
AcDbEntity
  8
10
  6
CONTINOUS
100
AcDbLine
 10
198.4232437744076
 20
-3.000030999999864
 30
0.0
 11
200.5897887744076
 21
-3.58055499999989
 31
0.0
  0
LINE
  5
81EE
330
1E
100
AcDbEntity
  8
10
  6
CONTINOUS
100
AcDbLine
 10
202.0232807744076
 20
-3.500023999999882
 30
0.0
 11
203.0232807744076
 21
-4.500023999999882
 31
0.0
  0
LINE
  5
81EF
330
1E
100
AcDbEntity
  8
10
  6
CONTINOUS
100
AcDbLine
 10
199.8348377744076
 20
31.10000600000012
 30
0.0
 11
202.3320917744076
 21
29.80007900000015
 31
0.0
  0
ARC
  5
81F0
330
1E
100
AcDbEntity
  8
10
  6
CONTINOUS
100
AcDbCircle
 10
194.7232437744076
 20
29.10001800000009
 30
0.0
 40
4.2
100
AcDbArc
 50
331.7574629999995
 51
28.2425370000004
  0
ARC
  5
81F1
330
1E
100
AcDbEntity
  8
10
  6
CONTINOUS
100
AcDbCircle
 10
202.9232437744076
 20
30.30007900000015
 30
0.0
 40
0.5
100
AcDbArc
 50
270.0
 51
0.0
  0
LINE
  5
81F2
330
1E
100
AcDbEntity
  8
10
  6
CONTINOUS
100
AcDbLine
 10
202.3320917744076
 20
29.80007900000015
 30
0.0
 11
202.9232437744076
 21
29.80007900000015
 31
0.0
  0
LINE
  5
81F3
330
1E
100
AcDbEntity
  8
10
  6
CONTINOUS
100
AcDbLine
 10
198.4232437744076
 20
32.30001800000013
 30
0.0
 11
199.6232437744076
 21
32.30001800000013
 31
0.0
  0
LINE
  5
81F4
330
1E
100
AcDbEntity
  8
10
  6
CONTINOUS
100
AcDbLine
 10
202.5553367744076
 20
63.09729700000002
 30
0.0
 11
203.3928897744076
 21
58.34729700000003
 31
0.0
  0
ARC
  5
81F5
330
1E
100
AcDbEntity
  8
10
  6
CONTINOUS
100
AcDbCircle
 10
201.4232747744076
 20
58.000001
 30
0.0
 40
2.0
100
AcDbArc
 50
0.0
 51
9.999999999998609
  0
ARC
  5
81F6
330
1E
100
AcDbEntity
  8
10
  6
CONTINOUS
100
AcDbCircle
 10
200.5857207744075
 20
62.75000099999999
 30
0.0
 40
2.0
100
AcDbArc
 50
9.999999999998609
 51
90.0
  0
ARC
  5
81F7
330
1E
100
AcDbEntity
  8
10
  6
CONTINOUS
100
AcDbCircle
 10
202.0419817744076
 20
60.24990699999995
 30
0.0
 40
1.0
100
AcDbArc
 50
9.999999999998609
 51
90.0
  0
LWPOLYLINE
  5
82B4
330
1E
100
AcDbEntity
  8
18
  6
DIVIDE
100
AcDbPolyline
 90
        4
 70
     1
 43
0.0
 10
-36.85547622668924
 20
-186.0973940210348
 10
37.64452377331076
 20
-186.0973940210348
 10
37.64452377331076
 20
-315.5973940210349
 10
-36.85547622668924
 20
-315.5973940210349
  0
LINE
  5
8356
330
1E
100
AcDbEntity
  8
12
  6
CONTINUOUS
 62
     3
100
AcDbLine
 10
-12.88010953517139
 20
-201.8983412602266
 30
0.0
 11
-12.88010953517139
 21
-185.7965667818429
 31
0.0
  0
LWPOLYLINE
  5
8360
330
1E
100
AcDbEntity
  8
18
  6
DIVIDE
100
AcDbPolyline
 90
        4
 70
     1
 43
0.0
 10
133.7275531033162
 20
-186.0973940210348
 10
208.2275531033162
 20
-186.0973940210348
 10
208.2275531033162
 20
-315.5973940210349
 10
133.7275531033162
 20
-315.5973940210349
  0
DIMENSION
  5
8361
330
1E
100
AcDbEntity
  8
30
  6
CONTINUOUS
100
AcDbDimension
  2
*D5
 10
225.5217630279429
 20
-261.097395865721
 30
0.0
 11
222.521763027943
 21
-235.0973952175878
 31
0.0
 70
    32
  1
52
  3
STANDARD
100
AcDbAlignedDimension
 13
203.2029355925363
 23
-209.0973945694547
 33
0.0
 14
203.2029355925363
 24
-261.097395865721
 34
0.0
 50
90.0
100
AcDbRotatedDimension
1001
ACAD
1000
DSTYLE
1002
{
1070
    79
1070
     3
1002
}
  0
LINE
  5
8362
330
1E
100
AcDbEntity
  8
11
 48
2.0
100
AcDbLine
 10
205.2029356423942
 20
-259.0973958158649
 30
0.0
 11
205.2029356423942
 21
-211.0973946193108
 31
0.0
  0
DIMENSION
  5
8363
330
1E
100
AcDbEntity
  8
30
  6
CONTINUOUS
100
AcDbDimension
  2
*D6
 10
137.2029339971319
 20
-211.0973946193106
 30
0.0
 11
159.2676626206704
 21
-227.0230155245306
 31
0.0
 70
   164
  1
R2
  3
STANDARD
100
AcDbRadialDimension
 15
138.6908832862328
 25
-212.4338103901273
 35
0.0
 40
0.0
1001
ACAD
1000
DSTYLE
1002
{
1070
    79
1070
     3
1002
}
  0
LINE
  5
8364
330
1E
100
AcDbEntity
  8
11
 48
2.0
100
AcDbLine
 10
135.2029339472754
 20
-259.0973958158649
 30
0.0
 11
135.2029339472754
 21
-211.0973945694547
 31
0.0
  0
LINE
  5
8365
330
1E
100
AcDbEntity
  8
11
 48
2.0
100
AcDbLine
 10
137.2029339971319
 20
-261.097395865721
 30
0.0
 11
203.2029355925363
 21
-261.097395865721
 31
0.0
  0
LINE
  5
8366
330
1E
100
AcDbEntity
  8
18
  6
DIVIDE
100
AcDbLine
 10
132.7029338600265
 20
-286.0973964141419
 30
0.0
 11
207.702935729642
 21
-286.0973964141419
 31
0.0
  0
DIMENSION
  5
8367
330
1E
100
AcDbEntity
  8
30
  6
CONTINUOUS
100
AcDbDimension
  2
*D4
 10
205.2029356423926
 20
-303.8119248701384
 30
0.0
 11
170.2029347948341
 21
-300.8119248701384
 31
0.0
 70
    32
  1
74
  3
STANDARD
100
AcDbAlignedDimension
 13
135.2029339472756
 23
-259.0973958158649
 33
0.0
 14
205.2029356423926
 24
-259.0973958158649
 34
0.0
100
AcDbRotatedDimension
1001
ACAD
1000
DSTYLE
1002
{
1070
    79
1070
     3
1002
}
  0
ARC
  5
8368
330
1E
100
AcDbEntity
  8
11
 48
2.0
100
AcDbCircle
 10
137.2029339971319
 20
-259.0973958158649
 30
0.0
 40
2.000000049856379
100
AcDbArc
 50
180.0
 51
270.0
  0
LINE
  5
836A
330
1E
100
AcDbEntity
  8
11
 48
2.0
100
AcDbLine
 10
137.2029339971319
 20
-209.0973945694547
 30
0.0
 11
203.2029355925363
 21
-209.0973945694547
 31
0.0
  0
ARC
  5
836B
330
1E
100
AcDbEntity
  8
11
 48
2.0
100
AcDbCircle
 10
137.2029339971319
 20
-211.0973946193108
 30
0.0
 40
2.000000049855997
100
AcDbArc
 50
90.0
 51
179.9999985717308
  0
ARC
  5
836C
330
1E
100
AcDbEntity
  8
11
 48
2.0
100
AcDbCircle
 10
203.2029355925363
 20
-211.0973946193108
 30
0.0
 40
2.00000004985658
100
AcDbArc
 50
0.0
 51
90.0
  0
CIRCLE
  5
83EC
330
1E
100
AcDbEntity
  8
12
  6
DASHED
100
AcDbCircle
 10
12.499986
 20
56.99994000000003
 30
0.0
 40
2.45
  0
LINE
  5
83ED
330
1E
100
AcDbEntity
  8
10
  6
CONTINOUS
100
AcDbLine
 10
12.499986
 20
58.58744000000001
 30
0.0
 11
12.499986
 21
55.41244
 31
0.0
  0
LINE
  5
83EE
330
1E
100
AcDbEntity
  8
10
  6
CONTINOUS
100
AcDbLine
 10
14.087486
 20
56.99994000000003
 30
0.0
 11
10.912486
 21
56.99994000000003
 31
0.0
  0
LINE
  5
83EF
330
1E
100
AcDbEntity
  8
24
  6
CONTINOUS
100
AcDbLine
 10
0.0
 20
61.075012
 30
0.0
 11
0.0
 21
48.92498700000003
 31
0.0
  0
DIMENSION
  5
8402
330
1E
100
AcDbEntity
  8
30
  6
CONTINUOUS
100
AcDbDimension
  2
*D9
 10
24.999986
 20
-78.38994427182135
 30
0.0
 11
-0.0000149999999975
 21
-75.38994427182135
 31
0.0
 70
    32
  1
50
  3
STANDARD
100
AcDbAlignedDimension
 13
-25.000016
 23
-63.57501399999986
 33
0.0
 14
24.999986
 24
-63.57501399999986
 34
0.0
100
AcDbRotatedDimension
1001
ACAD
1000
DSTYLE
1002
{
1070
    79
1070
     3
1002
}
  0
DIMENSION
  5
8403
330
1E
100
AcDbEntity
  8
30
  6
CONTINUOUS
100
AcDbDimension
  2
*D8
 10
37.500029
 20
-103.3693829728197
 30
0.0
 11
-0.0000195000000003
 21
-100.3693829728197
 31
0.0
 70
    32
  1
75
  3
STANDARD
100
AcDbAlignedDimension
 13
-37.50006799999999
 23
-61.25000199999985
 33
0.0
 14
37.500029
 24
-61.25000199999985
 34
0.0
100
AcDbRotatedDimension
1001
ACAD
1000
DSTYLE
1002
{
1070
    79
1070
     3
1002
}
  0
DIMENSION
  5
8404
330
1E
100
AcDbEntity
  8
30
  6
CONTINUOUS
100
AcDbDimension
  2
*D7
 10
35.99994
 20
-90.87966406577335
 30
0.0
 11
-0.0000455000000057
 21
-87.87966406577334
 31
0.0
 70
    32
  1
72
  3
STANDARD
100
AcDbAlignedDimension
 13
-36.000031
 23
-9.000030947640084
 33
0.0
 14
35.99994000000001
 24
-9.000031017453295
 34
0.0
100
AcDbRotatedDimension
1001
ACAD
1000
DSTYLE
1002
{
1070
    79
1070
     3
1002
}
  0
LINE
  5
8483
330
1E
100
AcDbEntity
  8
24
  6
CONTINOUS
100
AcDbLine
 10
18.924935
 20
-56.99994099999987
 30
0.0
 11
31.07492900000002
 21
-56.99994099999987
 31
0.0
  0
ARC
  5
8484
330
1E
100
AcDbEntity
  8
24
  6
CONTINOUS
100
AcDbCircle
 10
27.07734228141598
 20
-57.24988099999984
 30
0.0
 40
9.827494281415965
100
AcDbArc
 50
167.0483672722336
 51
192.9516327277664
  0
ARC
  5
8485
330
1E
100
AcDbEntity
  8
24
  6
CONTINOUS
100
AcDbCircle
 10
22.92235371858404
 20
-57.24988099999984
 30
0.0
 40
9.827494281415971
100
AcDbArc
 50
347.0483672722335
 51
12.95163272776641
  0
LINE
  5
8486
330
1E
100
AcDbEntity
  8
24
  6
CONTINOUS
100
AcDbLine
 10
-6.075050999999987
 20
-56.99994099999987
 30
0.0
 11
6.074943000000033
 21
-56.99994099999987
 31
0.0
  0
LINE
  5
8487
330
1E
100
AcDbEntity
  8
24
  6
CONTINOUS
100
AcDbLine
 10
0.0000000000000142
 20
-50.92498899999987
 30
0.0
 11
0.0000000000000142
 21
-63.57501399999986
 31
0.0
  0
DIMENSION
  5
8488
330
1E
100
AcDbEntity
  8
30
  6
CONTINUOUS
100
AcDbDimension
  2
*D10
 10
-51.8673638821626
 20
54.99999934266299
 30
0.0
 11
-54.86736388216262
 21
27.49999967133149
 31
0.0
 70
    32
  1
<>
  3
STANDARD
100
AcDbAlignedDimension
 13
-37.50004600000001
 23
0.0
 33
0.0
 14
-31.0749975425077
 24
54.99999934266298
 34
0.0
 50
90.0
100
AcDbRotatedDimension
1001
ACAD
1000
DSTYLE
1002
{
1070
    79
1070
     3
1002
}
  0
DIMENSION
  5
8489
330
1E
100
AcDbEntity
  8
30
  6
CONTINUOUS
100
AcDbDimension
  2
*D11
 10
-51.8673638821626
 20
0.0000000000000041
 30
0.0
 11
-54.86736388216261
 21
-28.50000049999994
 31
0.0
 70
    32
  1
<>
  3
STANDARD
100
AcDbAlignedDimension
 13
-31.07499700000001
 23
-57.00000099999988
 33
0.0
 14
-37.50004600000001
 24
0.0
 34
0.0
 50
90.0
100
AcDbRotatedDimension
1001
ACAD
1000
DSTYLE
1002
{
1070
    79
1070
     3
1002
}
  0
DIMENSION
  5
848A
330
1E
100
AcDbEntity
  8
30
  6
CONTINUOUS
100
AcDbDimension
  2
*D14
 10
52.63633935493976
 20
-10.00003138096207
 30
0.0
 11
49.63633935493977
 21
14.99996924224292
 31
0.0
 70
    32
  1
<>
  3
STANDARD
100
AcDbAlignedDimension
 13
34.99997053528699
 23
39.99996986544789
 33
0.0
 14
34.99993939490036
 24
-10.00003138096206
 34
0.0
 50
90.0
100
AcDbRotatedDimension
1001
ACAD
1000
DSTYLE
1002
{
1070
    79
1070
     3
1002
}
  0
DIMENSION
  5
848B
330
1E
100
AcDbEntity
  8
30
  6
CONTINUOUS
100
AcDbDimension
  2
*D13
 10
63.82723591670065
 20
-56.99994099999988
 30
0.0
 11
60.82723591670067
 21
-0.0000006141754767
 31
0.0
 70
    32
  1
<>
  3
STANDARD
100
AcDbAlignedDimension
 13
15.91018747730046
 23
56.99993977164892
 33
0.0
 14
15.674962
 24
-56.99994099999987
 34
0.0
 50
90.0
100
AcDbRotatedDimension
1001
ACAD
1000
DSTYLE
1002
{
1070
    79
1070
     3
1002
}
  0
DIMENSION
  5
848C
330
1E
100
AcDbEntity
  8
30
  6
CONTINUOUS
100
AcDbDimension
  2
*D12
 10
76.88328004080839
 20
-65.25000199999985
 30
0.0
 11
73.8832800408084
 21
-0.2500004999999178
 31
0.0
 70
    32
  1
<>
  3
STANDARD
100
AcDbAlignedDimension
 13
35.99987899999999
 23
64.75000099999999
 33
0.0
 14
32.99990099999998
 24
-65.25000199999985
 34
0.0
 50
90.0
100
AcDbRotatedDimension
1001
ACAD
1000
DSTYLE
1002
{
1070
    79
1070
     3
1002
}
  0
DIMENSION
  5
848D
330
1E
100
AcDbEntity
  8
30
  6
CONTINUOUS
100
AcDbDimension
  2
*D15
 10
76.88328004080839
 20
114.7500009999268
 30
0.0
 11
73.88328004080836
 21
89.75000099996345
 31
0.0
 70
    32
  1
50
  3
STANDARD
100
AcDbAlignedDimension
 13
36.99987899999999
 23
64.75000099999999
 33
0.0
 14
15.49993953160796
 24
114.7500009999268
 34
0.0
 50
90.0
100
AcDbRotatedDimension
1001
ACAD
1000
DSTYLE
1002
{
1070
    79
1070
     3
1002
}
  0
DIMENSION
  5
8539
330
1E
100
AcDbEntity
  8
30
  6
CONTINUOUS
100
AcDbDimension
  2
*D17
 10
200.9232747744074
 20
124.143024427814
 30
0.0
 11
177.9232747744076
 21
127.143024427814
 31
0.0
 70
    32
  1
46
  3
STANDARD
100
AcDbAlignedDimension
 13
154.9232747744078
 23
114.250001289352
 33
0.0
 14
200.9232747744074
 24
114.250001289352
 34
0.0
100
AcDbRotatedDimension
1001
ACAD
1000
DSTYLE
1002
{
1070
    79
1070
     3
1002
}
  0
DIMENSION
  5
853A
330
1E
100
AcDbEntity
  8
30
  6
CONTINUOUS
100
AcDbDimension
  2
*D16
 10
203.4232747744076
 20
124.143024427814
 30
0.0
 11
212.4232747744076
 21
127.143024427814
 31
0.0
 70
    32
  1
2.5
  3
STANDARD
100
AcDbAlignedDimension
 13
200.9232747744074
 23
114.250001289352
 33
0.0
 14
203.4232747744076
 24
58.00000115624294
 34
0.0
100
AcDbRotatedDimension
1001
ACAD
1000
DSTYLE
1002
{
1070
    79
1070
     3
1002
}
  0
DIMENSION
  5
853B
330
1E
100
AcDbEntity
  8
30
  6
CONTINUOUS
100
AcDbDimension
  2
*D18
 10
203.4232747744076
 20
82.55775882022255
 30
0.0
 11
181.9232747744075
 21
85.55775882022256
 31
0.0
 70
    32
  1
43
  3
STANDARD
100
AcDbAlignedDimension
 13
160.4232747744074
 23
60.89987915829398
 33
0.0
 14
203.4232747744076
 24
58.00000115624294
 34
0.0
100
AcDbRotatedDimension
1001
ACAD
1000
DSTYLE
1002
{
1070
    79
1070
     3
1002
}
  0
DIMENSION
  5
857D
330
1E
100
AcDbEntity
  8
30
  6
CONTINUOUS
100
AcDbDimension
  2
*D21
 10
203.4232747744076
 20
-105.8692602611288
 30
0.0
 11
161.4232762744076
 21
-102.8692602611288
 31
0.0
 70
    32
  1
84
  3
STANDARD
100
AcDbAlignedDimension
 13
119.4232777744076
 23
14.81336600000014
 33
0.0
 14
203.4232747744076
 24
-57.49993099999986
 34
0.0
100
AcDbRotatedDimension
1001
ACAD
1000
DSTYLE
1002
{
1070
    79
1070
     3
1002
}
  0
DIMENSION
  5
857E
330
1E
100
AcDbEntity
  8
30
  6
CONTINUOUS
100
AcDbDimension
  2
*D23
 10
203.4232747744076
 20
-80.88982156013045
 30
0.0
 11
177.9232893975276
 21
-77.88982156013045
 31
0.0
 70
    32
  1
51
  3
STANDARD
100
AcDbAlignedDimension
 13
152.4233040206476
 23
-64.24981825322487
 33
0.0
 14
203.4232747744076
 24
-57.49993099999986
 34
0.0
100
AcDbRotatedDimension
1001
ACAD
1000
DSTYLE
1002
{
1070
    79
1070
     3
1002
}
  0
DIMENSION
  5
857F
330
1E
100
AcDbEntity
  8
30
  6
CONTINUOUS
100
AcDbDimension
  2
*D22
 10
203.4232747744076
 20
-93.37954135408244
 30
0.0
 11
173.4233045441396
 21
-90.37954135408245
 31
0.0
 70
    32
  1
60
  3
STANDARD
100
AcDbAlignedDimension
 13
143.4233343138716
 23
-51.39984997635487
 33
0.0
 14
203.4232747744076
 24
-57.49993099999986
 34
0.0
100
AcDbRotatedDimension
1001
ACAD
1000
DSTYLE
1002
{
1070
    79
1070
     3
1002
}
  0
DIMENSION
  5
8580
330
1E
100
AcDbEntity
  8
30
  6
CONTINUOUS
100
AcDbDimension
  2
*D20
 10
143.4233343138716
 20
-93.31775155113627
 30
0.0
 11
139.4233495083042
 21
-93.31775155113627
 31
0.0
 70
   160
  1
8
  3
STANDARD
100
AcDbAlignedDimension
 13
135.9233647744076
 23
-11.49993999999986
 33
0.0
 14
143.4233343138716
 24
-51.39984997635487
 34
0.0
100
AcDbRotatedDimension
1001
ACAD
1000
DSTYLE
1002
{
1070
    79
1070
     3
1002
}
  0
DIMENSION
  5
8581
330
1E
100
AcDbEntity
  8
30
  6
CONTINUOUS
100
AcDbDimension
  2
*D19
 10
131.9233647744076
 20
-81.47660301854527
 30
0.0
 11
125.0902778363927
 21
-81.47660301854527
 31
0.0
 70
   160
  1
4
  3
STANDARD
100
AcDbAlignedDimension
 13
135.9233647744076
 23
-10.49993999999986
 33
0.0
 14
131.9233647744076
 24
-10.49993999999986
 34
0.0
100
AcDbRotatedDimension
1001
ACAD
1000
DSTYLE
1002
{
1070
    79
1070
     3
1002
}
  0
CIRCLE
  5
873C
330
1E
100
AcDbEntity
  8
12
  6
DASHED
100
AcDbCircle
 10
-12.50005299999999
 20
-56.99994099999987
 30
0.0
 40
2.45
  0
LINE
  5
873D
330
1E
100
AcDbEntity
  8
10
  6
CONTINOUS
100
AcDbLine
 10
-12.50005299999999
 20
-53.04994099999987
 30
0.0
 11
-12.50005299999999
 21
-53.82494099999988
 31
0.0
  0
LINE
  5
873E
330
1E
100
AcDbEntity
  8
12
  6
DASHED
100
AcDbLine
 10
-10.912553
 20
-56.99994099999987
 30
0.0
 11
-14.087553
 21
-56.99994099999987
 31
0.0
  0
LINE
  5
873F
330
1E
100
AcDbEntity
  8
12
  6
DASHED
100
AcDbLine
 10
-12.50005299999999
 20
-55.41244099999989
 30
0.0
 11
-12.50005299999999
 21
-58.58744099999987
 31
0.0
  0
LINE
  5
8788
330
1E
100
AcDbEntity
  8
16
100
AcDbLine
 10
220.2022120126633
 20
-235.8473940210348
 30
0.0
 11
106.7990733865071
 21
-235.8473940210348
 31
0.0
  0
DIMENSION
  5
8789
330
1E
100
AcDbEntity
  8
30
  6
CONTINUOUS
100
AcDbDimension
  2
*D24
 10
215.2489879456688
 20
-250.8473940210349
 30
0.0
 11
212.2489879456689
 21
-243.3473940210348
 31
0.0
 70
    32
  3
STANDARD
100
AcDbAlignedDimension
 13
205.2029356423942
 23
-235.8473940210348
 33
0.0
 14
205.2029356423942
 24
-250.8473940210349
 34
0.0
 50
90.0
100
AcDbRotatedDimension
1001
ACAD
1000
DSTYLE
1002
{
1070
    79
1070
     3
1002
}
  0
CIRCLE
  5
880D
330
1E
100
AcDbEntity
  8
10
  6
CONTINOUS
100
AcDbCircle
 10
-27.4
 20
1.649940000000015
 30
0.0
 40
1.75
  0
CIRCLE
  5
880E
330
1E
100
AcDbEntity
  8
10
  6
CONTINOUS
100
AcDbCircle
 10
-27.4
 20
10.64994000000001
 30
0.0
 40
1.75
  0
CIRCLE
  5
880F
330
1E
100
AcDbEntity
  8
10
  6
CONTINOUS
100
AcDbCircle
 10
-27.4
 20
10.64994000000001
 30
0.0
 40
2.1
  0
CIRCLE
  5
8810
330
1E
100
AcDbEntity
  8
10
  6
CONTINOUS
100
AcDbCircle
 10
-27.4
 20
1.649940000000015
 30
0.0
 40
2.1
  0
CIRCLE
  5
881D
330
1E
100
AcDbEntity
  8
10
  6
CONTINOUS
100
AcDbCircle
 10
24.20000799999998
 20
-6.200000999999986
 30
0.0
 40
3.1
  0
CIRCLE
  5
881E
330
1E
100
AcDbEntity
  8
10
  6
CONTINOUS
100
AcDbCircle
 10
24.20000799999998
 20
-6.200000999999986
 30
0.0
 40
3.75
  0
CIRCLE
  5
881F
330
1E
100
AcDbEntity
  8
10
  6
CONTINOUS
100
AcDbCircle
 10
25.70013099999998
 20
8.299999000000013
 30
0.0
 40
2.85
  0
CIRCLE
  5
8820
330
1E
100
AcDbEntity
  8
10
  6
CONTINOUS
100
AcDbCircle
 10
32.69999999999999
 20
1.5
 30
0.0
 40
1.8
  0
LINE
  5
8821
330
1E
100
AcDbEntity
  8
18
100
AcDbLine
 10
57.50002899999998
 20
-37.65000199999997
 30
0.0
 11
57.50002899999998
 21
-44.25000199999996
 31
0.0
  0
SPLINE
  5
8822
330
1E
100
AcDbEntity
  8
18
100
AcDbSpline
210
0.0
220
0.0
230
1.0
 70
     8
 71
     3
 72
    87
 73
    83
 74
    81
 42
0.0000000001
 43
0.0000000001
 44
0.000001
 12
0.2426581112077736
 22
-0.9701118703866455
 32
0.0
 13
-0.6507913734550554
 23
-0.7592566023660793
 33
0.0
 40
0.0
 40
0.0
 40
0.0
 40
0.0
 40
0.1255431072398531
 40
0.2511269969225416
 40
0.3839024650050757
 40
0.5167054937989125
 40
0.6570174880253904
 40
0.7973457869491341
 40
0.9443722598956313
 40
1.091407705447811
 40
1.243648881242685
 40
1.395894469434874
 40
1.551540750169389
 40
1.707189016119114
 40
1.864243005435195
 40
2.021297271111124
 40
2.177682715433789
 40
2.334066829371472
 40
2.487479342050958
 40
2.640884439585024
 40
2.788215043043657
 40
2.93552725274975
 40
3.074193840372279
 40
3.212820851634016
 40
3.341840283566282
 40
3.470785858719983
 40
3.592177629147726
 40
3.713561721970659
 40
3.832521465735057
 40
3.951501595424082
 40
4.072666054292788
 40
4.193862121060579
 40
4.320363008755441
 40
4.44689261128352
 40
4.580090452955617
 40
4.713319024124949
 40
4.851879281796316
 40
4.990452016149658
 40
5.131461119322999
 40
5.272472174600236
 40
5.412524634283909
 40
5.552569795738046
 40
5.688372575418819
 40
5.824149734484417
 40
5.953138789480003
 40
6.08206938929363
 40
6.20407491768505
 40
6.325981557416973
 40
6.445215143796427
 40
6.564373394738986
 40
6.689588957363636
 40
6.814992378288986
 40
6.950709179302371
 40
7.086505378725117
 40
7.229860454445697
 40
7.373238090393531
 40
7.5182626416208
 40
7.663280399564085
 40
7.804167203037657
 40
7.945042545922906
 40
8.079615931208046
 40
8.214168470955851
 40
8.341935309688132
 40
8.469668073173544
 40
8.591574124563626
 40
8.713434931530146
 40
8.832447802635035
 40
8.951467293301341
 40
9.071921336912273
 40
9.192398541145591
 40
9.318011224275103
 40
9.443651947668426
 40
9.577122760985552
 40
9.710618434358107
 40
9.853270735784244
 40
9.995951296353364
 40
10.14641836130677
 40
10.29689822043583
 40
10.45231410938837
 40
10.60773471966132
 40
10.76467115198074
 40
10.92160673161709
 40
10.92160673161709
 40
10.92160673161709
 40
10.92160673161709
 10
49.04860106496812
 20
-36.65000161432772
 30
0.0
 10
49.05875574939411
 20
-36.69059856718726
 30
0.0
 10
49.0827547388594
 20
-36.77091777276418
 30
0.0
 10
49.12879828930639
 20
-36.89041994300611
 30
0.0
 10
49.18376949517149
 20
-37.0087522730023
 30
0.0
 10
49.24778190185752
 20
-37.12801584479294
 30
0.0
 10
49.31880689674585
 20
-37.24617481875468
 30
0.0
 10
49.39726144596722
 20
-37.36523833800706
 30
0.0
 10
49.48100505168471
 20
-37.48339081309016
 30
0.0
 10
49.57043884209017
 20
-37.6022939151369
 30
0.0
 10
49.66357549648094
 20
-37.720535579718
 30
0.0
 10
49.7606249592616
 20
-37.83931247727418
 30
0.0
 10
49.85996262762004
 20
-37.9576653059428
 30
0.0
 10
49.96143177790312
 20
-38.07631046056672
 30
0.0
 10
50.06381956328052
 20
-38.19478336449716
 30
0.0
 10
50.16653073792802
 20
-38.31330098280147
 30
0.0
 10
50.26880760229953
 20
-38.43189968979473
 30
0.0
 10
50.36953496910228
 20
-38.5502287024952
 30
0.0
 10
50.46842190811514
 20
-38.66881347840404
 30
0.0
 10
50.5632731675023
 20
-38.78681142954682
 30
0.0
 10
50.65386952940409
 20
-38.90557160190384
 30
0.0
 10
50.73739142277638
 20
-39.02345839057811
 30
0.0
 10
50.81402310596676
 20
-39.1425209494363
 30
0.0
 10
50.88070879788594
 20
-39.26051544706025
 30
0.0
 10
50.93754065813297
 20
-39.38000896186974
 30
0.0
 10
50.98186550396679
 20
-39.49866393280368
 30
0.0
 10
51.01280458067475
 20
-39.61887955496798
 30
0.0
 10
51.03056434146679
 20
-39.73837367565735
 30
0.0
 10
51.03553978630524
 20
-39.85825410573113
 30
0.0
 10
51.02871913200441
 20
-39.97794629048444
 30
0.0
 10
51.01046997469119
 20
-40.09717204734698
 30
0.0
 10
50.98154610247021
 20
-40.21681185101916
 30
0.0
 10
50.94277635072238
 20
-40.33550052539666
 30
0.0
 10
50.89434984308185
 20
-40.45488506904975
 30
0.0
 10
50.83770794459891
 20
-40.57306715012159
 30
0.0
 10
50.77356726477656
 20
-40.69189224128352
 30
0.0
 10
50.70442538294704
 20
-40.80994149498828
 30
0.0
 10
50.63105384513113
 20
-40.9284564319105
 30
0.0
 10
50.55562667704656
 20
-41.04663652589141
 30
0.0
 10
50.47942851201831
 20
-41.16490593659034
 30
0.0
 10
50.40402442573033
 20
-41.28330548629952
 30
0.0
 10
50.33135252844527
 20
-41.40137520386061
 30
0.0
 10
50.26236482770709
 20
-41.52000384772148
 30
0.0
 10
50.1997458078403
 20
-41.63798576039313
 30
0.0
 10
50.1443240107501
 20
-41.7570233884296
 30
0.0
 10
50.09891705840672
 20
-41.87539121816469
 30
0.0
 10
50.06473982434993
 20
-41.99507083288912
 30
0.0
 10
50.04403934798162
 20
-42.11463917509798
 30
0.0
 10
50.03927128997828
 20
-42.23501628791285
 30
0.0
 10
50.05184015380888
 20
-42.35605107000941
 30
0.0
 10
50.08405385953754
 20
-42.47549526020537
 30
0.0
 10
50.13242458768925
 20
-42.59506710255421
 30
0.0
 10
50.19301101682628
 20
-42.71284692773665
 30
0.0
 10
50.26430052586599
 20
-42.83141516623225
 30
0.0
 10
50.34195665030409
 20
-42.94894687678031
 30
0.0
 10
50.42435087698859
 20
-43.06695331547318
 30
0.0
 10
50.50798624336395
 20
-43.18475481063731
 30
0.0
 10
50.590181908452
 20
-43.30256486680422
 30
0.0
 10
50.66866383395491
 20
-43.42124129284527
 30
0.0
 10
50.74147608649882
 20
-43.53941909760735
 30
0.0
 10
50.80861464681204
 20
-43.65850453295327
 30
0.0
 10
50.86807384730956
 20
-43.77675597030711
 30
0.0
 10
50.91990755632349
 20
-43.89607783772223
 30
0.0
 10
50.96232672733483
 20
-44.01463168453662
 30
0.0
 10
50.99494571148246
 20
-44.13422939180509
 30
0.0
 10
51.01648116994917
 20
-44.25341350689132
 30
0.0
 10
51.02587523238893
 20
-44.37320786797417
 30
0.0
 10
51.023629878853
 20
-44.49286851264729
 30
0.0
 10
51.00978421404708
 20
-44.61222933611985
 30
0.0
 10
50.98486559006186
 20
-44.7319979412066
 30
0.0
 10
50.9492848216167
 20
-44.85084011556063
 30
0.0
 10
50.90300712350331
 20
-44.97056314451251
 30
0.0
 10
50.84710644094062
 20
-45.08901139175258
 30
0.0
 10
50.78087585375386
 20
-45.20850793968826
 30
0.0
 10
50.70613418450689
 20
-45.32650735278368
 30
0.0
 10
50.62267775750078
 20
-45.44545539018542
 30
0.0
 10
50.53341568199464
 20
-45.56338407237771
 30
0.0
 10
50.43823678041846
 20
-45.68206793969673
 30
0.0
 10
50.33972004527771
 20
-45.80014530544779
 30
0.0
 10
50.23832401026632
 20
-45.91860141451605
 30
0.0
 10
50.13594457161882
 20
-46.03687656558872
 30
0.0
 10
50.06755040548851
 20
-46.1160505101957
 30
0.0
 10
50.03350629835001
 20
-46.15576863519073
 30
0.0
 11
49.04860106496812
 21
-36.65000161432772
 31
0.0
 11
49.08428132279169
 21
-36.77036769875917
 31
0.0
 11
49.12919406695465
 21
-36.88764578984899
 31
0.0
 11
49.184906697933
 21
-37.00816724197753
 31
0.0
 11
49.24750786364973
 21
-37.12528996537045
 31
0.0
 11
49.31962291875269
 21
-37.24565137387694
 31
0.0
 11
49.39667341497662
 21
-37.36293414089198
 31
0.0
 11
49.48156319507083
 21
-37.48297790044043
 31
0.0
 11
49.56982168085861
 21
-37.60057831641359
 31
0.0
 11
49.66392895143227
 21
-37.72024950543536
 31
0.0
 11
49.76016351065769
 21
-37.83822249193514
 31
0.0
 11
49.860146049141
 21
-37.95750892826714
 31
0.0
 11
49.96122931149017
 21
-38.07586666745669
 31
0.0
 11
50.06384754953174
 21
-38.19475926958617
 31
0.0
 11
50.16662937991128
 21
-38.31351084297827
 31
0.0
 11
50.26868185208312
 21
-38.43200851802169
 31
0.0
 11
50.36997401247615
 21
-38.55115501849985
 31
0.0
 11
50.46806918559224
 21
-38.66910727866002
 31
0.0
 11
50.56402213935917
 21
-38.78879919402152
 31
0.0
 11
50.65317803124557
 21
-38.90609170870101
 31
0.0
 11
50.73812722521267
 21
-39.02644336954315
 31
0.0
 11
50.81289714451853
 21
-39.14322471475713
 31
0.0
 11
50.88079136830817
 21
-39.26408754506482
 31
0.0
 11
50.9358448157219
 21
-39.38077144623838
 31
0.0
 11
50.98051666691737
 21
-39.50173172058652
 31
0.0
 11
51.01073413687567
 21
-39.61930240912653
 31
0.0
 11
51.02852332769842
 21
-39.73937589610816
 31
0.0
 11
51.0335872289921
 21
-39.85822780429399
 31
0.0
 11
51.02690399085677
 21
-39.97702007162962
 31
0.0
 11
51.00878181792913
 21
-40.09682160893354
 31
0.0
 11
50.98046940498432
 21
-40.21466424715117
 31
0.0
 11
50.94140249023524
 21
-40.33498150078588
 31
0.0
 11
50.89403031867298
 21
-40.45230842267275
 31
0.0
 11
50.83676517946187
 21
-40.57256795989909
 31
0.0
 11
50.77375175951641
 21
-40.68995259819423
 31
0.0
 11
50.70394420031317
 21
-40.80964327317255
 31
0.0
 11
50.63121587111496
 21
-40.92759677371569
 31
0.0
 11
50.55554223889487
 21
-41.04658049897338
 31
0.0
 11
50.47935907607044
 21
-41.16524094923727
 31
0.0
 11
50.40432544178449
 21
-41.28349784088555
 31
0.0
 11
50.33111779698484
 21
-41.40288512475888
 31
0.0
 11
50.26312524153286
 21
-41.52044120742814
 31
0.0
 11
50.19976668718914
 21
-41.64052930028055
 31
0.0
 11
50.14568617599917
 21
-41.75763390648802
 31
0.0
 11
50.09993332293086
 21
-41.87817347580218
 31
0.0
 11
50.06684525158724
 21
-41.99560659464228
 31
0.0
 11
50.04658351118658
 21
-42.11581765132388
 31
0.0
 11
50.0421199740847
 21
-42.23496768535582
 31
0.0
 11
50.05468305893285
 21
-42.35346182684549
 31
0.0
 11
50.08641931381058
 21
-42.47458882337556
 31
0.0
 11
50.1327848721501
 21
-42.59110600236712
 31
0.0
 11
50.19430002282368
 21
-42.71208093530279
 31
0.0
 11
50.26379025283387
 21
-42.8287501778887
 31
0.0
 11
50.34245654663817
 21
-42.94859293510151
 31
0.0
 11
50.42418760198344
 21
-43.06639435341018
 31
0.0
 11
50.50782527500058
 21
-43.1848715734439
 31
0.0
 11
50.59046532059816
 21
-43.30403852893172
 31
0.0
 11
50.66803077589927
 21
-43.42165094909861
 31
0.0
 11
50.7417751262129
 21
-43.54168270445319
 31
0.0
 11
50.8076793551281
 21
-43.65901394223786
 31
0.0
 11
50.86792200250503
 21
-43.77932687997469
 31
0.0
 11
50.91860249611747
 21
-43.89661222919366
 31
0.0
 11
50.96137424968739
 21
-44.01697105549629
 31
0.0
 11
50.9932159979418
 21
-44.13464522324315
 31
0.0
 11
51.01460016797301
 21
-44.2546152310179
 31
0.0
 11
51.02394976033252
 21
-44.37326040996453
 31
0.0
 11
51.02173475820646
 21
-44.49225940653952
 31
0.0
 11
51.00800838072132
 21
-44.61192890477756
 31
0.0
 11
50.98357982375938
 21
-44.72990358206118
 31
0.0
 11
50.94774537539669
 21
-44.85029651782659
 31
0.0
 11
50.90260386863511
 21
-44.96754775758279
 31
0.0
 11
50.84582274900473
 21
-45.08833839970939
 31
0.0
 11
50.781275396837
 21
-45.20519193310434
 31
0.0
 11
50.70520968297677
 21
-45.32587208744269
 31
0.0
 11
50.62349572292117
 21
-45.44283610862581
 31
0.0
 11
50.53286629782173
 21
-45.56294712220782
 31
0.0
 11
50.43889740365475
 21
-45.68048028414728
 31
0.0
 11
50.33947278983953
 21
-45.79993259043158
 31
0.0
 11
50.2385458063577
 21
-45.91812445966882
 31
0.0
 11
50.13596516909777
 21
-46.03689425366349
 31
0.0
 11
50.03350629835001
 21
-46.15576863519073
 31
0.0
  0
SPLINE
  5
8823
330
1E
100
AcDbEntity
  8
18
100
AcDbSpline
210
0.0
220
0.0
230
1.0
 70
     8
 71
     3
 72
   103
 73
    99
 74
    97
 42
0.0000000001
 43
0.0000000001
 44
0.000001
 12
-0.1460598731528251
 22
-0.9892757519794875
 32
0.0
 13
-0.6507913734557392
 23
-0.7592566023654931
 33
0.0
 40
0.0
 40
0.0
 40
0.0
 40
0.0
 40
0.0992148049618737
 40
0.1984508552742701
 40
0.2991918449174913
 40
0.3999707082522202
 40
0.505522626020556
 40
0.6111074689316676
 40
0.7229832868367337
 40
0.8348810781762391
 40
0.9532329816860649
 40
1.071598448427095
 40
1.195560466578948
 40
1.3195296842393
 40
1.447624425078857
 40
1.57572265626353
 40
1.706139080341103
 40
1.836556709619789
 40
1.967319775320524
 40
2.098082250560343
 40
2.227175107473183
 40
2.356265290536665
 40
2.481779205107968
 40
2.607287235308592
 40
2.727589743030084
 40
2.847880855542895
 40
2.962001982168462
 40
3.076112305780757
 40
3.184358283760368
 40
3.292590400752437
 40
3.395963251857055
 40
3.49932045346468
 40
3.599434287607132
 40
3.699534305879495
 40
3.798644495691046
 40
3.897762018577534
 40
3.998322440707001
 40
4.098895379829221
 40
4.202881361595783
 40
4.306880821111386
 40
4.415697995214017
 40
4.524527016484203
 40
4.638720956551073
 40
4.752932096020629
 40
4.871056166221658
 40
4.98918693219509
 40
5.108762578627827
 40
5.228338385966842
 40
5.346650867975465
 40
5.464957107350617
 40
5.579512484712047
 40
5.694052170575994
 40
5.803115987365051
 40
5.912147381374026
 40
6.015399359949296
 40
6.118596498721765
 40
6.218087423711234
 40
6.317519389539794
 40
6.418155387201031
 40
6.518871388049711
 40
6.624883584407276
 40
6.730949513323688
 40
6.842957611970204
 40
6.954991486461308
 40
7.071327186492634
 40
7.187672479775241
 40
7.305753166103134
 40
7.423834835036648
 40
7.541530943804158
 40
7.659224707889602
 40
7.774652355269358
 40
7.890073277760556
 40
8.001654483968568
 40
8.113221956146327
 40
8.220140322919132
 40
8.327046616758464
 40
8.429821994414821
 40
8.532583017928823
 40
8.63252989193784
 40
8.732463018464651
 40
8.831604253796635
 40
8.93073758630971
 40
9.031674516945825
 40
9.132630294658621
 40
9.237655907697059
 40
9.342700025649927
 40
9.453253790294569
 40
9.563822326996847
 40
9.680626525641647
 40
9.797441323871288
 40
9.920449251963409
 40
10.04346762082084
 40
10.17127138227983
 40
10.29908004362731
 40
10.42961237722013
 40
10.56014638154075
 40
10.69112022020317
 40
10.82209282240741
 40
10.82209282240741
 40
10.82209282240741
 40
10.82209282240741
 10
47.78611410631748
 20
-36.65000161432772
 30
0.0
 10
47.78128367237495
 20
-36.6827185479231
 30
0.0
 10
47.77553686018019
 20
-36.74879494598542
 30
0.0
 10
47.77809161531421
 20
-36.84868496769503
 30
0.0
 10
47.79152421772879
 20
-36.9482164678201
 30
0.0
 10
47.81487326574442
 20
-37.04801431510061
 30
0.0
 10
47.84728973492812
 20
-37.14692861960155
 30
0.0
 10
47.8884456988037
 20
-37.24651373851511
 30
0.0
 10
47.93694210726251
 20
-37.3450863173086
 30
0.0
 10
47.99298129333434
 20
-37.44446521238891
 30
0.0
 10
48.05481414822955
 20
-37.5428989856754
 30
0.0
 10
48.12280067441439
 20
-37.64208680132333
 30
0.0
 10
48.19506510379085
 20
-37.74052653636895
 30
0.0
 10
48.27190384644271
 20
-37.83956795296951
 30
0.0
 10
48.35161615471129
 20
-37.93808608200758
 30
0.0
 10
48.43423051442442
 20
-38.03699613769147
 30
0.0
 10
48.51837963796525
 20
-38.13562106871476
 30
0.0
 10
48.60370512341291
 20
-38.23440531039405
 30
0.0
 10
48.68925722950351
 20
-38.3331456223836
 30
0.0
 10
48.77422777711486
 20
-38.43180550663709
 30
0.0
 10
48.85810384051088
 20
-38.53066936732783
 30
0.0
 10
48.93963850478305
 20
-38.62921587221119
 30
0.0
 10
49.01873397520042
 20
-38.72821018296727
 30
0.0
 10
49.09376941973524
 20
-38.82666475537332
 30
0.0
 10
49.16496547433994
 20
-38.92580190484604
 30
0.0
 10
49.23049427272105
 20
-39.02425877508974
 30
0.0
 10
49.29069399433609
 20
-39.12366356811924
 30
0.0
 10
49.3441913059334
 20
-39.22229700888324
 30
0.0
 10
49.39161312125898
 20
-39.3218259546739
 30
0.0
 10
49.43190158040768
 20
-39.42060998352707
 30
0.0
 10
49.46536676393357
 20
-39.52019717269811
 30
0.0
 10
49.49131454429384
 20
-39.61922403974888
 30
0.0
 10
49.50966467595574
 20
-39.7188328997353
 30
0.0
 10
49.52007757038797
 20
-39.81817450800223
 30
0.0
 10
49.52217349267709
 20
-39.91770670159607
 30
0.0
 10
49.5163376051243
 20
-40.01723386657617
 30
0.0
 10
49.50270722249868
 20
-40.11648230747455
 30
0.0
 10
49.48157586530752
 20
-40.21605419881949
 30
0.0
 10
49.45330792872269
 20
-40.31502701790532
 30
0.0
 10
49.41789180057454
 20
-40.41457969026111
 30
0.0
 10
49.37602807016181
 20
-40.51334816758294
 30
0.0
 10
49.3273910111437
 20
-40.61274882364661
 30
0.0
 10
49.2730617642373
 20
-40.71120260720509
 30
0.0
 10
49.21344435354381
 20
-40.81016002738088
 30
0.0
 10
49.15047834029446
 20
-40.90857217378399
 30
0.0
 10
49.08475327726167
 20
-41.00731105048482
 30
0.0
 10
49.01787872045218
 20
-41.1058566675086
 30
0.0
 10
48.95091302175334
 20
-41.2044133733122
 30
0.0
 10
48.88495008401569
 20
-41.30313880833083
 30
0.0
 10
48.82156502270845
 20
-41.40156099006986
 30
0.0
 10
48.761372520477
 20
-41.50050881865129
 30
0.0
 10
48.70630761655039
 20
-41.59890065788156
 30
0.0
 10
48.65669858779745
 20
-41.69811656629399
 30
0.0
 10
48.61456994673813
 20
-41.79668930049247
 30
0.0
 10
48.58042098179446
 20
-41.89626409524691
 30
0.0
 10
48.55594590750893
 20
-41.99543728776871
 30
0.0
 10
48.54234039004946
 20
-42.0954274996829
 30
0.0
 10
48.54070189760395
 20
-42.19555224964596
 30
0.0
 10
48.55269509842043
 20
-42.29537465024153
 30
0.0
 10
48.57638361589654
 20
-42.39523225557339
 30
0.0
 10
48.61010603657495
 20
-42.49403653189418
 30
0.0
 10
48.65277650889209
 20
-42.5933654211825
 30
0.0
 10
48.7021952047748
 20
-42.69173868952633
 30
0.0
 10
48.75775776719632
 20
-42.79069297953587
 30
0.0
 10
48.81721845695292
 20
-42.88903251507471
 30
0.0
 10
48.87984099867518
 20
-42.9877737445068
 30
0.0
 10
48.94376828817953
 20
-43.08636524002531
 30
0.0
 10
49.00832628959647
 20
-43.18508261677947
 30
0.0
 10
49.07256786859265
 20
-43.2838530417506
 30
0.0
 10
49.13544208336077
 20
-43.38245450131636
 30
0.0
 10
49.19639409782071
 20
-43.48137058702216
 30
0.0
 10
49.2540503359883
 20
-43.57989711382066
 30
0.0
 10
49.30812160838768
 20
-43.67898092035973
 30
0.0
 10
49.35706809975068
 20
-43.77755576584482
 30
0.0
 10
49.40065411462771
 20
-43.87692568121318
 30
0.0
 10
49.43789734961362
 20
-43.97572881091693
 30
0.0
 10
49.46889658717129
 20
-44.07522141516774
 30
0.0
 10
49.49296894325839
 20
-44.17424256068652
 30
0.0
 10
49.5099226663097
 20
-44.27377428514449
 30
0.0
 10
49.51936547873775
 20
-44.37310009632401
 30
0.0
 10
49.52084170206429
 20
-44.47259991459634
 30
0.0
 10
49.51413604860274
 20
-44.57223083166138
 30
0.0
 10
49.4987825464234
 20
-44.67151153398122
 30
0.0
 10
49.47518918510691
 20
-44.77115888883504
 30
0.0
 10
49.44388639459927
 20
-44.87008862406244
 30
0.0
 10
49.40488796755401
 20
-44.96966836398989
 30
0.0
 10
49.3591295907902
 20
-45.06836161356627
 30
0.0
 10
49.30620865120669
 20
-45.16785263467889
 30
0.0
 10
49.24741342275392
 20
-45.26642102642078
 30
0.0
 10
49.18206643538795
 20
-45.36576396684194
 30
0.0
 10
49.11171357752942
 20
-45.46417625031302
 30
0.0
 10
49.03607884881889
 20
-45.5632257513769
 30
0.0
 10
48.95707996952902
 20
-45.66166668055635
 30
0.0
 10
48.87468568284937
 20
-45.76056033363083
 30
0.0
 10
48.79048956426255
 20
-45.85912074486951
 30
0.0
 10
48.70489738698598
 20
-45.95786970691801
 30
0.0
 10
48.61902099711993
 20
-46.05656547428787
 30
0.0
 10
48.56191824490792
 20
-46.12262136420653
 30
0.0
 10
48.53350629835006
 20
-46.15576863519073
 30
0.0
 11
47.78611410631748
 21
-36.65000161432772
 31
0.0
 11
47.77739840273873
 21
-36.74883292869711
 31
0.0
 11
47.77985866900244
 21
-36.84803842726239
 31
0.0
 11
47.79310359865536
 21
-36.94790488812429
 31
0.0
 11
47.81588414911644
 21
-37.04607524019715
 31
0.0
 11
47.84852660737008
 21
-37.14645287568885
 31
0.0
 11
47.88866184712136
 21
-37.24411205313197
 31
0.0
 11
47.93786566703011
 21
-37.34458680722127
 31
0.0
 11
47.99266306347909
 21
-37.44214886606667
 31
0.0
 11
48.05547124475435
 21
-37.54245988152749
 31
0.0
 11
48.1222548303416
 21
-37.64018567900151
 31
0.0
 11
48.19550226462244
 21
-37.74019263164518
 31
0.0
 11
48.27138710662186
 21
-37.83822249193625
 31
0.0
 11
48.35187321037841
 21
-37.93787311062135
 31
0.0
 11
48.4339055829227
 21
-38.03625930487098
 31
0.0
 11
48.51848022593441
 21
-38.13553452966229
 31
0.0
 11
48.60365594984717
 21
-38.23429611780551
 31
0.0
 11
48.6892093836567
 21
-38.33318791150307
 31
0.0
 11
48.77446833019909
 21
-38.43233293074016
 31
0.0
 11
48.8579019033136
 21
-38.53084081273462
 31
0.0
 11
48.9401105755864
 21
-38.63036974367472
 31
0.0
 11
49.01835901582572
 21
-38.72850701097559
 31
0.0
 11
49.0943349698179
 21
-38.82840655660925
 31
0.0
 11
49.16438309948077
 21
-38.92621224343099
 31
0.0
 11
49.23089379670241
 21
-39.02644336954386
 31
0.0
 11
49.28991299208988
 21
-39.1241181672523
 31
0.0
 11
49.34421430007549
 21
-39.22448018247846
 31
0.0
 11
49.39066957950967
 21
-39.32225082783594
 31
0.0
 11
49.43142356387986
 21
-39.42251699541316
 31
0.0
 11
49.46424832586749
 21
-39.52053985921551
 31
0.0
 11
49.4903236320848
 21
-39.62055380834786
 31
0.0
 11
49.50838194464157
 21
-39.71902551764441
 31
0.0
 11
49.51871654865986
 21
-39.81859062128256
 31
0.0
 11
49.52085839368812
 21
-39.91767766488356
 31
0.0
 11
49.5150941826906
 21
-40.01662743421713
 31
0.0
 11
49.50150916786151
 21
-40.11626600627844
 31
0.0
 11
49.48070770372812
 21
-40.21466424715169
 31
0.0
 11
49.45226099170259
 21
-40.31468357952468
 31
0.0
 11
49.41749810643961
 21
-40.41270106008631
 31
0.0
 11
49.37513759438823
 21
-40.5129345888387
 31
0.0
 11
49.3274063854924
 21
-40.61073787302084
 31
0.0
 11
49.27244089901558
 21
-40.71083304921105
 31
0.0
 11
49.21369047765242
 21
-40.80877468595548
 31
0.0
 11
49.15018239530738
 21
-40.9083739317723
 31
0.0
 11
49.08487608808011
 21
-41.00681149889015
 31
0.0
 11
49.01786981427441
 21
-41.10584930927828
 31
0.0
 11
48.95080586403469
 21
-41.20484831182486
 31
0.0
 11
48.88522674436214
 21
-41.3033228764096
 31
0.0
 11
48.82132245277529
 21
-41.4028851247595
 31
0.0
 11
48.76196677468627
 21
-41.50086408541159
 31
0.0
 11
48.70621910198557
 21
-41.60092193769415
 31
0.0
 11
48.65767698639036
 21
-41.69858773384726
 31
0.0
 11
48.615091461047
 21
-41.79895875062868
 31
0.0
 11
48.58187281243317
 21
-41.89672126386883
 31
0.0
 11
48.55748577976559
 21
-41.99699556356324
 31
0.0
 11
48.54430558610613
 21
-42.09560964000817
 31
0.0
 11
48.54294830794737
 21
-42.19503237649789
 31
0.0
 11
48.55456194443437
 21
-42.29499603018595
 31
0.0
 11
48.57748291250723
 21
-42.39306918943251
 31
0.0
 11
48.61136341804652
 21
-42.49352165600686
 31
0.0
 11
48.65292392879601
 21
-42.59110600236724
 31
0.0
 11
48.70294829157296
 21
-42.69132264436843
 31
0.0
 11
48.75756330927345
 21
-42.78914281530188
 31
0.0
 11
48.81756730196517
 21
-42.88880981973352
 31
0.0
 11
48.87969300639923
 21
-42.98717962823653
 31
0.0
 11
48.94383167695463
 21
-43.08632232305598
 31
0.0
 11
49.0083547611558
 21
-43.18521644117109
 31
0.0
 11
49.07241916621254
 21
-43.28394901501164
 31
0.0
 11
49.13558946861616
 21
-43.38325325410571
 31
0.0
 11
49.19601950090186
 21
-43.48159832736422
 31
0.0
 11
49.25418781237624
 21
-43.58129006704027
 31
0.0
 11
49.30748695473301
 21
-43.67931853052517
 31
0.0
 11
49.35694047603161
 21
-43.77932687997488
 31
0.0
 11
49.3997838252601
 21
-43.87728609543057
 31
0.0
 11
49.43737978236459
 21
-43.97736369290953
 31
0.0
 11
49.46784945290673
 21
-44.0755186800894
 31
0.0
 11
49.49200461090303
 21
-44.17540050584412
 31
0.0
 11
49.50870276571109
 21
-44.27394272509817
 31
0.0
 11
49.51805548036137
 21
-44.3734373187789
 31
0.0
 11
49.51948624581246
 21
-44.47256830693038
 31
0.0
 11
49.51277290945379
 21
-44.57147413171355
 31
0.0
 11
49.49747905730465
 21
-44.67124574151708
 31
0.0
 11
49.4743267482481
 21
-44.76951094464815
 31
0.0
 11
49.44278712146749
 21
-44.86968899258584
 31
0.0
 11
49.40460417222476
 21
-44.96754775758268
 31
0.0
 11
49.35823096183469
 21
-45.06790546220864
 31
0.0
 11
49.30642168821759
 21
-45.16558457051721
 31
0.0
 11
49.24669131785242
 21
-45.2659614174814
 31
0.0
 11
49.18259580306036
 21
-45.36362138345185
 31
0.0
 11
49.11119818070886
 21
-45.46378792779887
 31
0.0
 11
49.03666674094225
 21
-45.5616581963865
 31
0.0
 11
48.95677953990127
 21
-45.66141711720428
 31
0.0
 11
48.87506959547383
 21
-45.75969500932115
 31
0.0
 11
48.79037259305665
 21
-45.85901828392155
 31
0.0
 11
48.70496317762115
 21
-45.95773182225596
 31
0.0
 11
48.61907477423855
 21
-46.05661221923369
 31
0.0
 11
48.53350629835006
 21
-46.15576863519073
 31
0.0
  0
LINE
  5
8824
330
1E
100
AcDbEntity
  8
18
100
AcDbLine
 10
51.04901699999999
 20
-44.25000199999996
 30
0.0
 11
57.50002899999998
 21
-44.25000199999996
 31
0.0
  0
LINE
  5
8825
330
1E
100
AcDbEntity
  8
18
100
AcDbLine
 10
37.50002899999998
 20
-44.25000199999996
 30
0.0
 11
49.54901699999999
 21
-44.25000199999996
 31
0.0
  0
LINE
  5
8826
330
1E
100
AcDbEntity
  8
18
100
AcDbLine
 10
50.88051799999999
 20
-39.30000199999998
 30
0.0
 11
57.50002899999998
 21
-39.30000199999998
 31
0.0
  0
LINE
  5
8827
330
1E
100
AcDbEntity
  8
18
100
AcDbLine
 10
49.60820999999999
 20
-37.65000199999997
 30
0.0
 11
57.50002899999998
 21
-37.65000199999997
 31
0.0
  0
LINE
  5
8828
330
1E
100
AcDbEntity
  8
18
100
AcDbLine
 10
50.14314899999999
 20
-42.60000199999999
 30
0.0
 11
57.50002899999998
 21
-42.60000199999999
 31
0.0
  0
LINE
  5
8829
330
1E
100
AcDbEntity
  8
18
100
AcDbLine
 10
50.62379400000001
 20
-40.95000199999998
 30
0.0
 11
57.50002899999998
 21
-40.95000199999998
 31
0.0
  0
LINE
  5
882A
330
1E
100
AcDbEntity
  8
18
100
AcDbLine
 10
37.50002899999998
 20
-39.30000199999998
 30
0.0
 11
49.380518
 21
-39.30000199999998
 31
0.0
  0
LINE
  5
882B
330
1E
100
AcDbEntity
  8
18
100
AcDbLine
 10
37.50002899999998
 20
-37.65000199999997
 30
0.0
 11
48.12923699999998
 21
-37.65000199999997
 31
0.0
  0
LINE
  5
882C
330
1E
100
AcDbEntity
  8
18
100
AcDbLine
 10
37.50002899999998
 20
-40.95000199999998
 30
0.0
 11
49.123794
 21
-40.95000199999998
 31
0.0
  0
LINE
  5
882D
330
1E
100
AcDbEntity
  8
18
100
AcDbLine
 10
37.50002899999998
 20
-42.60000199999999
 30
0.0
 11
48.643149
 21
-42.60000199999999
 31
0.0
  0
LINE
  5
882E
330
1E
100
AcDbEntity
  8
18
100
AcDbLine
 10
57.50002899999998
 20
-41.97500199999999
 30
0.0
 11
62.50002899999998
 21
-41.97500199999999
 31
0.0
  0
LINE
  5
882F
330
1E
100
AcDbEntity
  8
18
100
AcDbLine
 10
57.50002899999998
 20
-43.22500199999999
 30
0.0
 11
62.50002899999998
 21
-43.22500199999999
 31
0.0
  0
LINE
  5
8830
330
1E
100
AcDbEntity
  8
18
100
AcDbLine
 10
57.50002899999998
 20
-43.42500199999998
 30
0.0
 11
62.50002899999998
 21
-43.42500199999998
 31
0.0
  0
LINE
  5
8831
330
1E
100
AcDbEntity
  8
18
100
AcDbLine
 10
57.50002899999998
 20
-43.62500199999996
 30
0.0
 11
62.50002899999998
 21
-43.62500199999996
 31
0.0
  0
LINE
  5
8832
330
1E
100
AcDbEntity
  8
18
100
AcDbLine
 10
57.50002899999998
 20
-38.27500199999997
 30
0.0
 11
62.50002899999998
 21
-38.27500199999997
 31
0.0
  0
LINE
  5
8833
330
1E
100
AcDbEntity
  8
18
100
AcDbLine
 10
57.50002899999998
 20
-38.47500199999998
 30
0.0
 11
62.50002899999998
 21
-38.47500199999998
 31
0.0
  0
LINE
  5
8834
330
1E
100
AcDbEntity
  8
18
100
AcDbLine
 10
57.50002899999998
 20
-38.67500199999998
 30
0.0
 11
62.50002899999998
 21
-38.67500199999998
 31
0.0
  0
LINE
  5
8835
330
1E
100
AcDbEntity
  8
18
100
AcDbLine
 10
57.50002899999998
 20
-40.32500199999998
 30
0.0
 11
62.50002899999998
 21
-40.32500199999998
 31
0.0
  0
LINE
  5
8836
330
1E
100
AcDbEntity
  8
18
100
AcDbLine
 10
57.50002899999998
 20
-40.12500199999997
 30
0.0
 11
62.50002899999998
 21
-40.12500199999997
 31
0.0
  0
LINE
  5
8837
330
1E
100
AcDbEntity
  8
18
100
AcDbLine
 10
57.50002899999998
 20
-39.92500199999998
 30
0.0
 11
62.50002899999998
 21
-39.92500199999998
 31
0.0
  0
LINE
  5
8838
330
1E
100
AcDbEntity
  8
18
100
AcDbLine
 10
57.50002899999998
 20
-41.57500199999998
 30
0.0
 11
62.50002899999998
 21
-41.57500199999998
 31
0.0
  0
LINE
  5
8839
330
1E
100
AcDbEntity
  8
18
100
AcDbLine
 10
57.50002899999998
 20
-41.77500199999997
 30
0.0
 11
62.50002899999998
 21
-41.77500199999997
 31
0.0
  0
LINE
  5
883A
330
1E
100
AcDbEntity
  8
18
100
AcDbLine
 10
-13.10006100000001
 20
64.75000099999999
 30
0.0
 11
-13.10006100000001
 21
114.7500009999999
 31
0.0
  0
LINE
  5
883B
330
1E
100
AcDbEntity
  8
18
100
AcDbLine
 10
-9.500061000000016
 20
64.75000099999999
 30
0.0
 11
-9.500061000000016
 21
114.7500009999999
 31
0.0
  0
LINE
  5
883C
330
1E
100
AcDbEntity
  8
18
100
AcDbLine
 10
-13.10006100000001
 20
114.7500009999999
 30
0.0
 11
-9.500061000000016
 21
114.7500009999999
 31
0.0
  0
LINE
  5
883D
330
1E
100
AcDbEntity
  8
18
100
AcDbLine
 10
15.49993999999999
 20
64.75000099999999
 30
0.0
 11
15.49993999999999
 21
114.7500009999999
 31
0.0
  0
LINE
  5
883E
330
1E
100
AcDbEntity
  8
18
100
AcDbLine
 10
11.89993899999999
 20
64.75000099999999
 30
0.0
 11
11.89993899999999
 21
114.7500009999999
 31
0.0
  0
LINE
  5
883F
330
1E
100
AcDbEntity
  8
18
100
AcDbLine
 10
11.89993899999999
 20
114.7500009999999
 30
0.0
 11
15.49993999999999
 21
114.7500009999999
 31
0.0
  0
LINE
  5
8851
330
1E
100
AcDbEntity
  8
10
  6
CONTINOUS
100
AcDbLine
 10
131.4233647744076
 20
-4.599999999999866
 30
0.0
 11
131.4233647744076
 21
-8.799999999999855
 31
0.0
  0
LINE
  5
8852
330
1E
100
AcDbEntity
  8
10
  6
CONTINOUS
100
AcDbLine
 10
132.9233647744076
 20
-3.449999999999888
 30
0.0
 11
132.9233647744076
 21
-9.949999999999889
 31
0.0
  0
LINE
  5
8853
330
1E
100
AcDbEntity
  8
10
  6
CONTINOUS
100
AcDbLine
 10
133.4233647744076
 20
-10.44999999999989
 30
0.0
 11
135.7055447744076
 21
-10.44999999999989
 31
0.0
  0
ARC
  5
8854
330
1E
100
AcDbEntity
  8
10
  6
CONTINOUS
100
AcDbCircle
 10
132.4233647744076
 20
-8.799999999999855
 30
0.0
 40
1.0
100
AcDbArc
 50
180.0
 51
270.0
  0
ARC
  5
8855
330
1E
100
AcDbEntity
  8
10
  6
CONTINOUS
100
AcDbCircle
 10
131.9233647744076
 20
-9.999939999999881
 30
0.0
 40
0.5
100
AcDbArc
 50
180.0
 51
270.0
  0
LINE
  5
8856
330
1E
100
AcDbEntity
  8
10
  6
CONTINOUS
100
AcDbLine
 10
132.4233647744076
 20
-9.799999999999855
 30
0.0
 11
132.9233647744076
 21
-9.799999999999855
 31
0.0
  0
ARC
  5
8857
330
1E
100
AcDbEntity
  8
10
  6
CONTINOUS
100
AcDbCircle
 10
133.4233647744076
 20
-9.949999999999889
 30
0.0
 40
0.5
100
AcDbArc
 50
180.0
 51
270.0
  0
ARC
  5
8858
330
1E
100
AcDbEntity
  8
10
  6
CONTINOUS
100
AcDbCircle
 10
135.9233647744076
 20
-9.999939999999881
 30
0.0
 40
0.5
100
AcDbArc
 50
180.0
 51
270.0
  0
LINE
  5
8859
330
1E
100
AcDbEntity
  8
10
  6
CONTINOUS
100
AcDbLine
 10
133.4233647744076
 20
-2.949999999999888
 30
0.0
 11
135.4233647744076
 21
-2.949999999999888
 31
0.0
  0
ARC
  5
885A
330
1E
100
AcDbEntity
  8
10
  6
CONTINOUS
100
AcDbCircle
 10
132.4233647744076
 20
-4.599999999999866
 30
0.0
 40
1.0
100
AcDbArc
 50
90.0
 51
180.0
  0
LINE
  5
885B
330
1E
100
AcDbEntity
  8
10
  6
CONTINOUS
100
AcDbLine
 10
132.4233647744076
 20
-3.599999999999865
 30
0.0
 11
132.9233647744076
 21
-3.599999999999865
 31
0.0
  0
ARC
  5
885C
330
1E
100
AcDbEntity
  8
10
  6
CONTINOUS
100
AcDbCircle
 10
133.4233647744076
 20
-3.449999999999888
 30
0.0
 40
0.5
100
AcDbArc
 50
90.0
 51
180.0
  0
LINE
  5
88C4
330
1E
100
AcDbEntity
  8
10
  6
CONTINOUS
100
AcDbLine
 10
-4.000061000000016
 20
1.999999999999997
 30
0.0
 11
3.999938999999982
 21
1.999999999999997
 31
0.0
  0
LINE
  5
88C5
330
1E
100
AcDbEntity
  8
10
  6
CONTINOUS
100
AcDbLine
 10
-4.000061000000016
 20
-2.000000000000002
 30
0.0
 11
3.999938999999982
 21
-2.000000000000002
 31
0.0
  0
LINE
  5
88C6
330
1E
100
AcDbEntity
  8
10
  6
CONTINOUS
100
AcDbLine
 10
-1.000061000000015
 20
1.499999999999997
 30
0.0
 11
-1.000061000000015
 21
-1.500000000000002
 31
0.0
  0
LINE
  5
88C7
330
1E
100
AcDbEntity
  8
10
  6
CONTINOUS
100
AcDbLine
 10
-2.000061000000015
 20
0.9999999999999973
 30
0.0
 11
-2.000061000000015
 21
-1.000000000000002
 31
0.0
  0
LINE
  5
88C8
330
1E
100
AcDbEntity
  8
10
  6
CONTINOUS
100
AcDbLine
 10
-2.500061000000015
 20
0.9999999999999973
 30
0.0
 11
-2.500061000000015
 21
-1.000000000000002
 31
0.0
  0
LINE
  5
88C9
330
1E
100
AcDbEntity
  8
10
  6
CONTINOUS
100
AcDbLine
 10
-1.500061000000015
 20
-1.000000000000002
 30
0.0
 11
-1.000061000000015
 21
-1.500000000000002
 31
0.0
  0
LINE
  5
88CA
330
1E
100
AcDbEntity
  8
10
  6
CONTINOUS
100
AcDbLine
 10
-1.500061000000015
 20
0.9999999999999973
 30
0.0
 11
-1.000061000000015
 21
1.499999999999997
 31
0.0
  0
LINE
  5
88CB
330
1E
100
AcDbEntity
  8
10
  6
CONTINOUS
100
AcDbLine
 10
-1.500061000000015
 20
0.9999999999999973
 30
0.0
 11
-1.500061000000015
 21
-1.000000000000002
 31
0.0
  0
LINE
  5
88CC
330
1E
100
AcDbEntity
  8
10
  6
CONTINOUS
100
AcDbLine
 10
-3.500061000000015
 20
0.9999999999999973
 30
0.0
 11
-3.500061000000015
 21
-1.000000000000002
 31
0.0
  0
LINE
  5
88CD
330
1E
100
AcDbEntity
  8
10
  6
CONTINOUS
100
AcDbLine
 10
-3.500061000000015
 20
-1.000000000000002
 30
0.0
 11
-4.000061000000016
 21
-1.500000000000002
 31
0.0
  0
LINE
  5
88CE
330
1E
100
AcDbEntity
  8
10
  6
CONTINOUS
100
AcDbLine
 10
-3.500061000000015
 20
0.9999999999999973
 30
0.0
 11
-4.000061000000016
 21
1.499999999999997
 31
0.0
  0
LINE
  5
88CF
330
1E
100
AcDbEntity
  8
10
  6
CONTINOUS
100
AcDbLine
 10
-3.000061000000015
 20
0.9999999999999973
 30
0.0
 11
-3.000061000000015
 21
-1.000000000000002
 31
0.0
  0
LINE
  5
88D0
330
1E
100
AcDbEntity
  8
10
  6
CONTINOUS
100
AcDbLine
 10
-3.500061000000015
 20
0.9999999999999973
 30
0.0
 11
-1.500061000000015
 21
0.9999999999999973
 31
0.0
  0
LINE
  5
88D1
330
1E
100
AcDbEntity
  8
10
  6
CONTINOUS
100
AcDbLine
 10
-4.000061000000016
 20
-1.500000000000002
 30
0.0
 11
-1.000061000000015
 21
-1.500000000000002
 31
0.0
  0
LINE
  5
88D2
330
1E
100
AcDbEntity
  8
10
  6
CONTINOUS
100
AcDbLine
 10
-3.500061000000015
 20
-1.000000000000002
 30
0.0
 11
-1.500061000000015
 21
-1.000000000000002
 31
0.0
  0
LINE
  5
88D3
330
1E
100
AcDbEntity
  8
10
  6
CONTINOUS
100
AcDbLine
 10
-4.000061000000016
 20
1.499999999999997
 30
0.0
 11
-1.000061000000015
 21
1.499999999999997
 31
0.0
  0
LINE
  5
88D4
330
1E
100
AcDbEntity
  8
10
  6
CONTINOUS
100
AcDbLine
 10
-4.000061000000016
 20
-2.000000000000002
 30
0.0
 11
-4.000061000000016
 21
1.999999999999997
 31
0.0
  0
LINE
  5
88D5
330
1E
100
AcDbEntity
  8
10
  6
CONTINOUS
100
AcDbLine
 10
3.999938999999982
 20
-2.000000000000002
 30
0.0
 11
3.999938999999982
 21
1.999999999999997
 31
0.0
  0
LINE
  5
8989
330
1E
100
AcDbEntity
  8
0
  6
CONTINUOUS
100
AcDbLine
 10
167.9564507064541
 20
159.2265084627901
 30
0.0
 11
164.9512467064542
 21
156.2213044627901
 31
0.0
  0
LINE
  5
898A
330
1E
100
AcDbEntity
  8
0
  6
CONTINUOUS
100
AcDbLine
 10
164.9512467064542
 20
150.5644444627901
 30
0.0
 11
167.9512467064542
 21
153.5644444627901
 31
0.0
  0
LINE
  5
898B
330
1E
100
AcDbEntity
  8
0
  6
CONTINUOUS
100
AcDbLine
 10
164.9512467064542
 20
153.3928744627901
 30
0.0
 11
167.9512467064542
 21
156.3928744627901
 31
0.0
  0
LINE
  5
898C
330
1E
100
AcDbEntity
  8
0
  6
CONTINUOUS
100
AcDbLine
 10
165.5316607064541
 20
142.6595674627901
 30
0.0
 11
168.5316457064541
 21
145.6595674627901
 31
0.0
  0
LINE
  5
898D
330
1E
100
AcDbEntity
  8
0
  6
CONTINUOUS
100
AcDbLine
 10
164.9512467064542
 20
144.9075834627901
 30
0.0
 11
167.9512467064542
 21
147.9075844627901
 31
0.0
  0
LINE
  5
898E
330
1E
100
AcDbEntity
  8
0
  6
CONTINUOUS
100
AcDbLine
 10
164.9512467064542
 20
147.7360144627901
 30
0.0
 11
167.9512467064542
 21
150.7360144627901
 31
0.0
  0
LINE
  5
898F
330
1E
100
AcDbEntity
  8
0
  6
CONTINUOUS
100
AcDbLine
 10
141.1583537064541
 20
142.6595674627901
 30
0.0
 11
169.1583537064541
 21
142.6595674627901
 31
0.0
  0
LINE
  5
8990
330
1E
100
AcDbEntity
  8
0
  6
CONTINUOUS
100
AcDbLine
 10
148.2012467064541
 20
153.8595674627901
 30
0.0
 11
151.0012467064542
 21
156.6595674627901
 31
0.0
  0
LINE
  5
8991
330
1E
100
AcDbEntity
  8
0
  6
CONTINUOUS
100
AcDbLine
 10
148.2012467064541
 20
151.6595674627901
 30
0.0
 11
152.0637647064542
 21
151.6595674627901
 31
0.0
  0
LINE
  5
8992
330
1E
100
AcDbEntity
  8
0
  6
CONTINUOUS
100
AcDbLine
 10
148.2012467064541
 20
153.6595674627901
 30
0.0
 11
152.9012467064541
 21
153.6595674627901
 31
0.0
  0
LINE
  5
8993
330
1E
100
AcDbEntity
  8
0
  6
CONTINUOUS
100
AcDbLine
 10
152.5883497064541
 20
160.6647714627901
 30
0.0
 11
149.5831457064542
 21
157.6595674627901
 31
0.0
  0
LINE
  5
8994
330
1E
100
AcDbEntity
  8
0
  6
CONTINUOUS
100
AcDbLine
 10
164.2012467064542
 20
156.6595674627901
 30
0.0
 11
148.7012467064541
 21
156.6595674627901
 31
0.0
  0
LINE
  5
8995
330
1E
100
AcDbEntity
  8
0
  6
CENTER
100
AcDbLine
 10
149.1583537064542
 20
150.6595674627901
 30
0.0
 11
163.6786457064541
 21
150.6595674627901
 31
0.0
  0
LINE
  5
8996
330
1E
100
AcDbEntity
  8
0
  6
CENTER
100
AcDbLine
 10
149.1583537064542
 20
150.6595674627901
 30
0.0
 11
163.6786457064541
 21
150.6595674627901
 31
0.0
  0
LINE
  5
8997
330
1E
100
AcDbEntity
  8
0
  6
CONTINUOUS
100
AcDbLine
 10
147.9512467064541
 20
157.6595674627901
 30
0.0
 11
164.9512467064542
 21
157.6595674627901
 31
0.0
  0
LINE
  5
8998
330
1E
100
AcDbEntity
  8
0
  6
CONTINUOUS
100
AcDbLine
 10
148.2012467064541
 20
147.4595674627901
 30
0.0
 11
151.0012467064542
 21
144.6595674627901
 31
0.0
  0
LINE
  5
8999
330
1E
100
AcDbEntity
  8
0
  6
CONTINUOUS
100
AcDbLine
 10
148.2012467064541
 20
149.6595674627901
 30
0.0
 11
152.0637647064542
 21
149.6595674627901
 31
0.0
  0
LINE
  5
899A
330
1E
100
AcDbEntity
  8
0
  6
CONTINUOUS
100
AcDbLine
 10
148.2012467064541
 20
147.6595674627901
 30
0.0
 11
152.9012467064541
 21
147.6595674627901
 31
0.0
  0
LINE
  5
899B
330
1E
100
AcDbEntity
  8
0
  6
CONTINUOUS
100
AcDbLine
 10
164.2012467064542
 20
144.6595674627901
 30
0.0
 11
148.7012467064541
 21
144.6595674627901
 31
0.0
  0
LINE
  5
899C
330
1E
100
AcDbEntity
  8
0
  6
CONTINUOUS
100
AcDbLine
 10
150.7525627064541
 20
160.6647714627901
 30
0.0
 11
144.9512467064541
 21
154.8634554627901
 31
0.0
  0
LINE
  5
899D
330
1E
100
AcDbEntity
  8
0
  6
CONTINUOUS
100
AcDbLine
 10
147.9512467064541
 20
157.6595674627901
 30
0.0
 11
147.9512467064541
 21
142.6595674627901
 31
0.0
  0
LINE
  5
899E
330
1E
100
AcDbEntity
  8
0
  6
CONTINUOUS
100
AcDbLine
 10
148.2012467064541
 20
145.1595674627901
 30
0.0
 11
148.2012467064541
 21
156.1595674627901
 31
0.0
  0
LINE
  5
899F
330
1E
100
AcDbEntity
  8
0
  6
CONTINUOUS
100
AcDbLine
 10
147.9512467064541
 20
155.0350254627901
 30
0.0
 11
144.9512467064541
 21
152.0350564627901
 31
0.0
  0
ARC
  5
89A0
330
1E
100
AcDbEntity
  8
0
  6
CONTINUOUS
100
AcDbCircle
 10
148.7012467064541
 20
145.1595674627901
 30
0.0
 40
0.5
100
AcDbArc
 50
180.0
 51
270.0
  0
LINE
  5
89A1
330
1E
100
AcDbEntity
  8
0
  6
CONTINUOUS
100
AcDbLine
 10
145.0684357064541
 20
145.6595674627901
 30
0.0
 11
142.0684507064541
 21
142.6595674627901
 31
0.0
  0
LINE
  5
89A2
330
1E
100
AcDbEntity
  8
0
  6
CONTINUOUS
100
AcDbLine
 10
146.8895097064542
 20
142.6595674627901
 30
0.0
 11
147.9512467064541
 21
143.7213044627901
 31
0.0
  0
LINE
  5
89A3
330
1E
100
AcDbEntity
  8
0
  6
CONTINUOUS
100
AcDbLine
 10
144.0610797064542
 20
142.6595674627901
 30
0.0
 11
147.9512467064541
 21
146.5497344627901
 31
0.0
  0
LINE
  5
89A4
330
1E
100
AcDbEntity
  8
0
  6
CONTINUOUS
100
AcDbLine
 10
144.9512467064541
 20
146.3781654627901
 30
0.0
 11
147.9512467064541
 21
149.3781654627901
 31
0.0
  0
LINE
  5
89A5
330
1E
100
AcDbEntity
  8
0
  6
CONTINUOUS
100
AcDbLine
 10
144.9512467064541
 20
149.2065954627901
 30
0.0
 11
147.9512467064541
 21
152.2065954627901
 31
0.0
  0
ARC
  5
89A6
330
1E
100
AcDbEntity
  8
0
  6
CONTINUOUS
100
AcDbCircle
 10
148.7012467064541
 20
156.1595674627901
 30
0.0
 40
0.5
100
AcDbArc
 50
90.0
 51
180.0
  0
LINE
  5
89A7
330
1E
100
AcDbEntity
  8
0
  6
CONTINUOUS
100
AcDbLine
 10
147.6241327064542
 20
160.6647714627901
 30
0.0
 11
144.9512467064541
 21
157.9918864627901
 31
0.0
  0
LINE
  5
89A8
330
1E
100
AcDbEntity
  8
0
  6
CONTINUOUS
100
AcDbLine
 10
157.1012467064542
 20
155.1123754627901
 30
0.0
 11
157.1012467064542
 21
151.8095674627901
 31
0.0
  0
LINE
  5
89A9
330
1E
100
AcDbEntity
  8
0
  6
CONTINUOUS
100
AcDbLine
 10
155.8012467064541
 20
151.8095674627901
 30
0.0
 11
155.8012467064541
 21
155.1123754627901
 31
0.0
  0
LINE
  5
89AA
330
1E
100
AcDbEntity
  8
0
  6
CONTINUOUS
100
AcDbLine
 10
164.9512467064542
 20
157.6595674627901
 30
0.0
 11
164.9512467064542
 21
142.6595674627901
 31
0.0
  0
LINE
  5
89AB
330
1E
100
AcDbEntity
  8
0
  6
CONTINUOUS
100
AcDbLine
 10
164.7012467064542
 20
145.1595674627901
 30
0.0
 11
164.7012467064542
 21
156.1595674627901
 31
0.0
  0
CIRCLE
  5
89AC
330
1E
100
AcDbEntity
  8
0
  6
CONTINUOUS
100
AcDbCircle
 10
156.4512467064541
 20
150.6595674627901
 30
0.0
 40
4.5
  0
LINE
  5
89AD
330
1E
100
AcDbEntity
  8
0
  6
CENTER
100
AcDbLine
 10
156.4512467064541
 20
158.0595614627901
 30
0.0
 11
156.4512467064541
 21
143.0595614627901
 31
0.0
  0
LINE
  5
89AE
330
1E
100
AcDbEntity
  8
0
  6
CENTER
100
AcDbLine
 10
156.4512467064541
 20
158.0595614627901
 30
0.0
 11
156.4512467064541
 21
143.0595614627901
 31
0.0
  0
LINE
  5
89AF
330
1E
100
AcDbEntity
  8
0
  6
CONTINUOUS
100
AcDbLine
 10
157.6012467064542
 20
151.3095674627901
 30
0.0
 11
158.9012467064541
 21
151.3095674627901
 31
0.0
  0
LINE
  5
89B0
330
1E
100
AcDbEntity
  8
0
  6
CONTINUOUS
100
AcDbLine
 10
157.6012467064542
 20
150.0095674627901
 30
0.0
 11
158.9012467064541
 21
150.0095674627901
 31
0.0
  0
ARC
  5
89B1
330
1E
100
AcDbEntity
  8
0
  6
CONTINUOUS
100
AcDbCircle
 10
157.6012467064542
 20
151.8095674627901
 30
0.0
 40
0.5
100
AcDbArc
 50
180.0
 51
270.0
  0
ARC
  5
89B2
330
1E
100
AcDbEntity
  8
0
  6
CONTINUOUS
100
AcDbCircle
 10
155.3012467064541
 20
151.8095674627901
 30
0.0
 40
0.5
100
AcDbArc
 50
270.0
 51
0.0
  0
LINE
  5
89B3
330
1E
100
AcDbEntity
  8
0
  6
CONTINUOUS
100
AcDbLine
 10
154.0012467064542
 20
151.3095674627901
 30
0.0
 11
155.3012467064541
 21
151.3095674627901
 31
0.0
  0
ARC
  5
89B4
330
1E
100
AcDbEntity
  8
0
  6
CONTINUOUS
100
AcDbCircle
 10
157.6012467064542
 20
149.5095674627901
 30
0.0
 40
0.5
100
AcDbArc
 50
90.0
 51
180.0
  0
LINE
  5
89B5
330
1E
100
AcDbEntity
  8
0
  6
CONTINUOUS
100
AcDbLine
 10
157.1012467064542
 20
146.2067594627901
 30
0.0
 11
157.1012467064542
 21
149.5095674627901
 31
0.0
  0
LINE
  5
89B6
330
1E
100
AcDbEntity
  8
0
  6
CONTINUOUS
100
AcDbLine
 10
157.4512467064541
 20
144.6595674627901
 30
0.0
 11
157.4512467064541
 21
146.2720854627901
 31
0.0
  0
ARC
  5
89B7
330
1E
100
AcDbEntity
  8
0
  6
CONTINUOUS
100
AcDbCircle
 10
155.3012467064541
 20
149.5095674627901
 30
0.0
 40
0.5
100
AcDbArc
 50
0.0
 51
90.0
  0
LINE
  5
89B8
330
1E
100
AcDbEntity
  8
0
  6
CONTINUOUS
100
AcDbLine
 10
155.8012467064541
 20
146.2067594627901
 30
0.0
 11
155.8012467064541
 21
149.5095674627901
 31
0.0
  0
ARC
  5
89B9
330
1E
100
AcDbEntity
  8
0
  6
CONTINUOUS
100
AcDbCircle
 10
152.9012467064541
 20
147.9595674627901
 30
0.0
 40
0.3
100
AcDbArc
 50
270.0
 51
301.5184010000008
  0
LINE
  5
89BA
330
1E
100
AcDbEntity
  8
0
  6
CONTINUOUS
100
AcDbLine
 10
154.0012467064542
 20
150.0095674627901
 30
0.0
 11
155.3012467064541
 21
150.0095674627901
 31
0.0
  0
LINE
  5
89BB
330
1E
100
AcDbEntity
  8
0
  6
CONTINUOUS
100
AcDbLine
 10
155.4512467064541
 20
144.6595674627901
 30
0.0
 11
155.4512467064541
 21
146.2720854627901
 31
0.0
  0
LINE
  5
89BC
330
1E
100
AcDbEntity
  8
0
  6
CONTINUOUS
100
AcDbLine
 10
154.0012467064542
 20
150.0095674627901
 30
0.0
 11
154.0012467064542
 21
151.3095674627901
 31
0.0
  0
LINE
  5
89BD
330
1E
100
AcDbEntity
  8
0
  6
CONTINUOUS
100
AcDbLine
 10
164.7012467064542
 20
151.6595674627901
 30
0.0
 11
160.8387297064542
 21
151.6595674627901
 31
0.0
  0
LINE
  5
89BE
330
1E
100
AcDbEntity
  8
0
  6
CONTINUOUS
100
AcDbLine
 10
164.7012467064542
 20
149.6595674627901
 30
0.0
 11
160.8387297064542
 21
149.6595674627901
 31
0.0
  0
ARC
  5
89BF
330
1E
100
AcDbEntity
  8
0
  6
CONTINUOUS
100
AcDbCircle
 10
164.2012467064542
 20
145.1595674627901
 30
0.0
 40
0.5
100
AcDbArc
 50
270.0
 51
0.0
  0
LINE
  5
89C0
330
1E
100
AcDbEntity
  8
0
  6
CONTINUOUS
100
AcDbLine
 10
161.9012467064541
 20
144.6595674627901
 30
0.0
 11
164.7012467064542
 21
147.4595674627901
 31
0.0
  0
ARC
  5
89C1
330
1E
100
AcDbEntity
  8
0
  6
CONTINUOUS
100
AcDbCircle
 10
160.0012467064541
 20
147.9595674627901
 30
0.0
 40
0.3
100
AcDbArc
 50
238.4815989999991
 51
270.0
  0
LINE
  5
89C2
330
1E
100
AcDbEntity
  8
0
  6
CONTINUOUS
100
AcDbLine
 10
164.7012467064542
 20
147.6595674627901
 30
0.0
 11
160.0012467064541
 21
147.6595674627901
 31
0.0
  0
LINE
  5
89C3
330
1E
100
AcDbEntity
  8
0
  6
CONTINUOUS
100
AcDbLine
 10
158.9012467064541
 20
150.0095674627901
 30
0.0
 11
158.9012467064541
 21
151.3095674627901
 31
0.0
  0
LINE
  5
89C4
330
1E
100
AcDbEntity
  8
0
  6
CONTINUOUS
100
AcDbLine
 10
158.0684357064541
 20
157.6595674627901
 30
0.0
 11
161.0736397064542
 21
160.6647714627901
 31
0.0
  0
LINE
  5
89C5
330
1E
100
AcDbEntity
  8
0
  6
CONTINUOUS
100
AcDbLine
 10
157.4512467064541
 20
156.6595674627901
 30
0.0
 11
157.4512467064541
 21
155.0470494627901
 31
0.0
  0
LINE
  5
89C6
330
1E
100
AcDbEntity
  8
0
  6
CONTINUOUS
100
AcDbLine
 10
155.4512467064541
 20
156.6595674627901
 30
0.0
 11
155.4512467064541
 21
155.0470494627901
 31
0.0
  0
ARC
  5
89C7
330
1E
100
AcDbEntity
  8
0
  6
CONTINUOUS
100
AcDbCircle
 10
152.9012467064541
 20
153.3595674627901
 30
0.0
 40
0.3
100
AcDbArc
 50
58.48159899999915
 51
90.0
  0
LINE
  5
89C8
330
1E
100
AcDbEntity
  8
0
  6
CONTINUOUS
100
AcDbLine
 10
155.4167797064541
 20
160.6647714627901
 30
0.0
 11
152.4115757064541
 21
157.6595674627901
 31
0.0
  0
LINE
  5
89C9
330
1E
100
AcDbEntity
  8
0
  6
CONTINUOUS
100
AcDbLine
 10
155.2400427064541
 20
157.6595674627901
 30
0.0
 11
158.2452767064541
 21
160.6647714627901
 31
0.0
  0
ARC
  5
89CA
330
1E
100
AcDbEntity
  8
0
  6
CONTINUOUS
100
AcDbCircle
 10
164.2012467064542
 20
156.1595674627901
 30
0.0
 40
0.5
100
AcDbArc
 50
0.0
 51
90.0
  0
LINE
  5
89CB
330
1E
100
AcDbEntity
  8
0
  6
CONTINUOUS
100
AcDbLine
 10
161.9012467064541
 20
156.6595674627901
 30
0.0
 11
164.7012467064542
 21
153.8595674627901
 31
0.0
  0
ARC
  5
89CC
330
1E
100
AcDbEntity
  8
0
  6
CONTINUOUS
100
AcDbCircle
 10
160.0012467064541
 20
153.3595674627901
 30
0.0
 40
0.3
100
AcDbArc
 50
90.0
 51
121.5184010000008
  0
LINE
  5
89CD
330
1E
100
AcDbEntity
  8
0
  6
CONTINUOUS
100
AcDbLine
 10
164.7012467064542
 20
153.6595674627901
 30
0.0
 11
160.0012467064541
 21
153.6595674627901
 31
0.0
  0
LINE
  5
89CE
330
1E
100
AcDbEntity
  8
0
  6
CONTINUOUS
100
AcDbLine
 10
160.8968667064542
 20
157.6595674627901
 30
0.0
 11
163.9020707064541
 21
160.6647714627901
 31
0.0
  0
LINE
  5
89CF
330
1E
100
AcDbEntity
  8
0
  6
CONTINUOUS
100
AcDbLine
 10
166.7304977064541
 20
160.6647714627901
 30
0.0
 11
163.7252937064541
 21
157.6595674627901
 31
0.0
  0
LINE
  5
89D0
330
1E
100
AcDbEntity
  8
0
  6
CONTINUOUS
100
AcDbLine
 10
205.6664567064542
 20
158.1595674627901
 30
0.0
 11
202.6664567064542
 21
155.1595674627901
 31
0.0
  0
LINE
  5
89D1
330
1E
100
AcDbEntity
  8
0
  6
CONTINUOUS
100
AcDbLine
 10
200.1654497064541
 20
155.1595674627901
 30
0.0
 11
210.1654497064541
 21
155.1595674627901
 31
0.0
  0
LINE
  5
89D2
330
1E
100
AcDbEntity
  8
0
  6
CONTINUOUS
100
AcDbLine
 10
207.4712727064541
 20
153.1595674627901
 30
0.0
 11
198.9712717064541
 21
153.1595674627901
 31
0.0
  0
LINE
  5
89D3
330
1E
100
AcDbEntity
  8
0
  6
CONTINUOUS
100
AcDbLine
 10
198.3654497064541
 20
152.6595674627901
 30
0.0
 11
207.4712727064541
 21
152.6595674627901
 31
0.0
  0
LINE
  5
89D4
330
1E
100
AcDbEntity
  8
0
  6
CENTER
100
AcDbLine
 10
184.3654607064541
 20
150.6595674627901
 30
0.0
 11
214.3654617064541
 21
150.6595674627901
 31
0.0
  0
LINE
  5
89D5
330
1E
100
AcDbEntity
  8
0
  6
CENTER
100
AcDbLine
 10
184.3654607064541
 20
150.6595674627901
 30
0.0
 11
214.3654617064541
 21
150.6595674627901
 31
0.0
  0
LINE
  5
89D6
330
1E
100
AcDbEntity
  8
0
  6
CONTINUOUS
100
AcDbLine
 10
204.9801777064542
 20
146.1595674627901
 30
0.0
 11
201.4801767064541
 21
142.6595674627901
 31
0.0
  0
LINE
  5
89D7
330
1E
100
AcDbEntity
  8
0
  6
CONTINUOUS
100
AcDbLine
 10
200.1654497064541
 20
146.1595674627901
 30
0.0
 11
210.1654497064541
 21
146.1595674627901
 31
0.0
  0
LINE
  5
89D8
330
1E
100
AcDbEntity
  8
0
  6
CONTINUOUS
100
AcDbLine
 10
198.9712717064541
 20
148.1595674627901
 30
0.0
 11
207.4712727064541
 21
148.1595674627901
 31
0.0
  0
LINE
  5
89D9
330
1E
100
AcDbEntity
  8
0
  6
CONTINUOUS
100
AcDbLine
 10
198.3654497064541
 20
148.6595674627901
 30
0.0
 11
207.4712727064541
 21
148.6595674627901
 31
0.0
  0
LINE
  5
89DA
330
1E
100
AcDbEntity
  8
0
  6
CONTINUOUS
100
AcDbLine
 10
184.8654617064541
 20
142.6595674627901
 30
0.0
 11
222.6654497064541
 21
142.6595674627901
 31
0.0
  0
LINE
  5
89DB
330
1E
100
AcDbEntity
  8
0
  6
CONTINUOUS
100
AcDbLine
 10
184.6958747064541
 20
157.6595674627901
 30
0.0
 11
187.7010787064542
 21
160.6647714627901
 31
0.0
  0
LINE
  5
89DC
330
1E
100
AcDbEntity
  8
0
  6
CONTINUOUS
100
AcDbLine
 10
177.8654607064541
 20
157.6595674627901
 30
0.0
 11
200.1654497064541
 21
157.6595674627901
 31
0.0
  0
LINE
  5
89DD
330
1E
100
AcDbEntity
  8
0
  6
CONTINUOUS
100
AcDbLine
 10
181.8674447064541
 20
157.6595674627901
 30
0.0
 11
184.8726487064541
 21
160.6647714627901
 31
0.0
  0
LINE
  5
89DE
330
1E
100
AcDbEntity
  8
0
  6
CONTINUOUS
100
AcDbLine
 10
179.0390147064541
 20
157.6595674627901
 30
0.0
 11
182.0442187064541
 21
160.6647714627901
 31
0.0
  0
LINE
  5
89DF
330
1E
100
AcDbEntity
  8
0
  6
CONTINUOUS
100
AcDbLine
 10
198.3654497064541
 20
153.3595674627901
 30
0.0
 11
198.3654497064541
 21
151.3595674627901
 31
0.0
  0
LINE
  5
89E0
330
1E
100
AcDbEntity
  8
0
  6
CONTINUOUS
100
AcDbLine
 10
196.3654497064541
 20
151.9595674627901
 30
0.0
 11
196.3654497064541
 21
153.3595674627901
 31
0.0
  0
LINE
  5
89E1
330
1E
100
AcDbEntity
  8
0
  6
CONTINUOUS
100
AcDbLine
 10
200.1654497064541
 20
157.6595674627901
 30
0.0
 11
200.1654497064541
 21
142.6595674627901
 31
0.0
  0
SPLINE
  5
89E2
330
1E
100
AcDbEntity
  8
0
  6
CONTINUOUS
100
AcDbSpline
210
0.0
220
0.0
230
1.0
 70
     8
 71
     3
 72
    79
 73
    75
 74
    73
 42
0.0000000001
 43
0.0000000001
 44
0.000001
 12
0.216930457819753
 22
0.9761870601837092
 32
0.0
 13
0.2169304578196613
 23
0.9761870601837292
 33
0.0
 40
0.0
 40
0.0
 40
0.0
 40
0.0
 40
0.1152356051513862
 40
0.2304713228570288
 40
0.3455886675656482
 40
0.4607057863457084
 40
0.5755618983185425
 40
0.6904175998100799
 40
0.8048923384915068
 40
0.9193664704323015
 40
1.03338009239118
 40
1.147393109798381
 40
1.26092873487906
 40
1.374463629316199
 40
1.487555640969604
 40
1.600646799382825
 40
1.71338373078604
 40
1.826119700543039
 40
1.938653292388751
 40
2.051187089729723
 40
2.163714936530637
 40
2.276243025951445
 40
2.388953957463713
 40
2.501665159260688
 40
2.61473132571192
 40
2.727797781106325
 40
2.841356917840346
 40
2.954917317288887
 40
3.068999216327072
 40
3.183082075707122
 40
3.297627855882728
 40
3.412174309172281
 40
3.527067813493019
 40
3.641961722514432
 40
3.757061948390959
 40
3.872162289022071
 40
3.987362235385204
 40
4.102562152992676
 40
4.217762070600443
 40
4.33296201696355
 40
4.44806235759469
 40
4.563162583471228
 40
4.678056492492658
 40
4.792949996813423
 40
4.907496450102987
 40
5.022042230278582
 40
5.136125089658716
 40
5.250206988696938
 40
5.363767388145554
 40
5.477326524879575
 40
5.590392980274024
 40
5.703459146725236
 40
5.816170348522263
 40
5.9288812800345
 40
6.041409369455248
 40
6.153937216256161
 40
6.266471013597165
 40
6.379004605442879
 40
6.49174057519988
 40
6.604477506603094
 40
6.717568665016298
 40
6.830660676669652
 40
6.944195571106819
 40
7.057731196187506
 40
7.171744213594671
 40
7.28575783555355
 40
7.400231967494401
 40
7.514706706175839
 40
7.629562407667337
 40
7.744418519640193
 40
7.859535638420189
 40
7.974652983128862
 40
8.089888700834492
 40
8.205124305985838
 40
8.205124305985838
 40
8.205124305985838
 40
8.205124305985838
 10
194.7654493500661
 20
146.6095676951967
 30
0.0
 10
194.7737820542603
 20
146.6470648640704
 30
0.0
 10
194.7904712389859
 20
146.7220539503606
 30
0.0
 10
194.8154048606879
 20
146.8345194711065
 30
0.0
 10
194.8400655697687
 20
146.9470048579581
 30
0.0
 10
194.8642650999871
 20
147.0594611616364
 30
0.0
 10
194.8878415632056
 20
147.1719609518611
 30
0.0
 10
194.9105967222563
 20
147.2844116971405
 30
0.0
 10
194.9323763657291
 20
147.3969262560463
 30
0.0
 10
194.9529768329608
 20
147.5093779586595
 30
0.0
 10
194.9722469597128
 20
147.6219097122829
 30
0.0
 10
194.9900258287417
 20
147.7343705627722
 30
0.0
 10
195.0062035274985
 20
147.846912302882
 30
0.0
 10
195.0206238934852
 20
147.95938391106
 30
0.0
 10
195.033171005773
 20
148.0719315344882
 30
0.0
 10
195.0436960346282
 20
148.1844199534011
 30
0.0
 10
195.0520745633649
 20
148.2969703826602
 30
0.0
 10
195.0581664029334
 20
148.409482714374
 30
0.0
 10
195.0618384454814
 20
148.5220326062647
 30
0.0
 10
195.0631241215525
 20
148.6345653025626
 30
0.0
 10
195.06205299085
 20
148.7470982264443
 30
0.0
 10
195.0586606248468
 20
148.8596439237931
 30
0.0
 10
195.0529780034916
 20
148.9721582231507
 30
0.0
 10
195.0450367046779
 20
149.0847152362568
 30
0.0
 10
195.034874086936
 20
149.1972122054696
 30
0.0
 10
195.0225137201952
 20
149.309773156458
 30
0.0
 10
195.0080045168548
 20
149.4222426872238
 30
0.0
 10
194.9915382492147
 20
149.5347830570128
 30
0.0
 10
194.9733506243254
 20
149.6472339153227
 30
0.0
 10
194.9536259751431
 20
149.7597578727956
 30
0.0
 10
194.9326036202559
 20
149.8722033663037
 30
0.0
 10
194.9104676027458
 20
149.9847096586195
 30
0.0
 10
194.8874539759387
 20
150.0971576350162
 30
0.0
 10
194.8637517296898
 20
150.2096507030386
 30
0.0
 10
194.8395881989784
 20
150.3221158851488
 30
0.0
 10
194.8150679619575
 20
150.434608147995
 30
0.0
 10
194.7903172178954
 20
150.5470838619586
 30
0.0
 10
194.7654493500666
 20
150.6595676951966
 30
0.0
 10
194.7405814822352
 20
150.772051528434
 30
0.0
 10
194.715830738174
 20
150.8845272423979
 30
0.0
 10
194.6913105011528
 20
150.9970195052441
 30
0.0
 10
194.6671469704414
 20
151.1094846873543
 30
0.0
 10
194.6434447241926
 20
151.2219777553767
 30
0.0
 10
194.6204310973856
 20
151.3344257317734
 30
0.0
 10
194.5982950798753
 20
151.4469320240892
 30
0.0
 10
194.5772727249883
 20
151.5593775175973
 30
0.0
 10
194.5575480758059
 20
151.6719014750703
 30
0.0
 10
194.5393604509168
 20
151.7843523333803
 30
0.0
 10
194.5228941832764
 20
151.8968927031693
 30
0.0
 10
194.5083849799361
 20
152.0093622339351
 30
0.0
 10
194.4960246131954
 20
152.1219231849236
 30
0.0
 10
194.4858619954538
 20
152.2344201541364
 30
0.0
 10
194.4779206966401
 20
152.3469771672425
 30
0.0
 10
194.4722380752849
 20
152.4594914666001
 30
0.0
 10
194.4688457092819
 20
152.5720371639489
 30
0.0
 10
194.4677745785794
 20
152.6845700878306
 30
0.0
 10
194.4690602546506
 20
152.7971027841285
 30
0.0
 10
194.4727322971987
 20
152.9096526760192
 30
0.0
 10
194.4788241367672
 20
153.0221650077329
 30
0.0
 10
194.4872026655038
 20
153.1347154369921
 30
0.0
 10
194.4977276943593
 20
153.247203855905
 30
0.0
 10
194.5102748066472
 20
153.3597514793332
 30
0.0
 10
194.5246951726337
 20
153.4722230875111
 30
0.0
 10
194.5408728713906
 20
153.5847648276209
 30
0.0
 10
194.5586517404194
 20
153.6972256781102
 30
0.0
 10
194.5779218671715
 20
153.8097574317336
 30
0.0
 10
194.5985223344032
 20
153.9222091343469
 30
0.0
 10
194.620301977876
 20
154.0347236932527
 30
0.0
 10
194.6430571369266
 20
154.147174438532
 30
0.0
 10
194.6666336001454
 20
154.2596742287567
 30
0.0
 10
194.6908331303633
 20
154.372130532435
 30
0.0
 10
194.7154938394445
 20
154.4846159192866
 30
0.0
 10
194.7404274611463
 20
154.5970814400325
 30
0.0
 10
194.7571166458719
 20
154.6720705263227
 30
0.0
 10
194.7654493500661
 20
154.7095676951964
 30
0.0
 11
194.7654493500661
 21
146.6095676951967
 31
0.0
 11
194.7904569596479
 21
146.7220572607746
 31
0.0
 11
194.8153702864132
 21
146.8345676951967
 31
0.0
 11
194.8399941832004
 21
146.9470206538045
 31
0.0
 11
194.8641833486486
 21
147.0595676951967
 31
0.0
 11
194.8877128828792
 21
147.1719878391254
 31
0.0
 11
194.9104639165652
 21
147.2845676951967
 31
0.0
 11
194.9321895123006
 21
147.3969619375593
 31
0.0
 11
194.9527873699551
 21
147.5095676951967
 31
0.0
 11
194.9720079147294
 21
147.6219495363601
 31
0.0
 11
194.9897876805061
 21
147.7345676951967
 31
0.0
 11
195.0059185799122
 21
147.8469515637701
 31
0.0
 11
195.0203331874853
 21
147.9595676951967
 31
0.0
 11
195.0328395850308
 21
148.0719660709129
 31
0.0
 11
195.043350822055
 21
148.1845676951968
 31
0.0
 11
195.0516965405969
 21
148.2969953007696
 31
0.0
 11
195.0577675153776
 21
148.4095676951968
 31
0.0
 11
195.06144208477
 21
148.5220412863028
 31
0.0
 11
195.0627323204821
 21
148.6345676951968
 31
0.0
 11
195.0616674203717
 21
148.7470905112587
 31
0.0
 11
195.058282777865
 21
148.8595676951968
 31
0.0
 11
195.0526044599837
 21
148.9721355082922
 31
0.0
 11
195.0446785498898
 21
149.0845676951968
 31
0.0
 11
195.0345135634171
 21
149.1971760104872
 31
0.0
 11
195.0221792989197
 21
149.3095676951967
 31
0.0
 11
195.0076870963277
 21
149.422198308464
 31
0.0
 11
194.9912832377865
 21
149.5345676951967
 31
0.0
 11
194.973104573932
 21
149.6471919247355
 31
0.0
 11
194.9534427811938
 21
149.7595676951966
 31
0.0
 11
194.9324274982261
 21
149.8721691809034
 31
0.0
 11
194.9103488943134
 21
149.9845676951965
 31
0.0
 11
194.8873464567523
 21
150.0971350344696
 31
0.0
 11
194.8636925423173
 21
150.2095676951965
 31
0.0
 11
194.839533332671
 21
150.3221038893845
 31
0.0
 11
194.8150388211774
 21
150.4345676951964
 31
0.0
 11
194.7902998728722
 21
150.5470799712282
 31
0.0
 11
194.7654493500656
 21
150.6595676951964
 31
0.0
 11
194.740598827259
 21
150.7720554191646
 31
0.0
 11
194.7158598789539
 21
150.8845676951964
 31
0.0
 11
194.6913653674603
 21
150.9970315010084
 31
0.0
 11
194.667206157814
 21
151.1095676951964
 31
0.0
 11
194.643552243379
 21
151.2220003559233
 31
0.0
 11
194.6205498058179
 21
151.3345676951964
 31
0.0
 11
194.5984712019051
 21
151.4469662094895
 31
0.0
 11
194.5774559189375
 21
151.5595676951964
 31
0.0
 11
194.5577941261993
 21
151.6719434656575
 31
0.0
 11
194.5396154623449
 21
151.7845676951964
 31
0.0
 11
194.5232116038035
 21
151.8969370819291
 31
0.0
 11
194.5087194012116
 21
152.0095676951964
 31
0.0
 11
194.4963851367143
 21
152.121959379906
 31
0.0
 11
194.4862201502418
 21
152.2345676951964
 31
0.0
 11
194.478294240148
 21
152.346999882101
 31
0.0
 11
194.4726159222667
 21
152.4595676951964
 31
0.0
 11
194.4692312797602
 21
152.5720448791345
 31
0.0
 11
194.4681663796498
 21
152.6845676951964
 31
0.0
 11
194.469456615362
 21
152.7970941040904
 31
0.0
 11
194.4731311847544
 21
152.9095676951964
 31
0.0
 11
194.4792021595351
 21
153.0221400896236
 31
0.0
 11
194.4875478780771
 21
153.1345676951964
 31
0.0
 11
194.4980591151013
 21
153.2471693194803
 31
0.0
 11
194.510565512647
 21
153.3595676951964
 31
0.0
 11
194.5249801202201
 21
153.472183826623
 31
0.0
 11
194.5411110196262
 21
153.5845676951964
 31
0.0
 11
194.5588907854028
 21
153.697185854033
 31
0.0
 11
194.5781113301772
 21
153.8095676951964
 31
0.0
 11
194.5987091878317
 21
153.9221734528338
 31
0.0
 11
194.6204347835671
 21
154.0345676951964
 31
0.0
 11
194.6431858172531
 21
154.1471475512677
 31
0.0
 11
194.6667153514837
 21
154.2595676951964
 31
0.0
 11
194.6909045169318
 21
154.3721147365886
 31
0.0
 11
194.7155284137192
 21
154.4845676951964
 31
0.0
 11
194.7404417404844
 21
154.5970781296185
 31
0.0
 11
194.7654493500661
 21
154.7095676951964
 31
0.0
  0
SPLINE
  5
89E3
330
1E
100
AcDbEntity
  8
0
  6
CONTINUOUS
100
AcDbSpline
210
0.0
220
0.0
230
1.0
 70
     8
 71
     3
 72
    71
 73
    67
 74
    65
 42
0.0000000001
 43
0.0000000001
 44
0.000001
 12
0.2169304578185517
 22
0.976187060183976
 32
0.0
 13
0.2169304578186796
 23
0.9761870601839476
 33
0.0
 40
0.0
 40
0.0
 40
0.0
 40
0.0
 40
0.1296676152133229
 40
0.2593353661303559
 40
0.3888620587092175
 40
0.5183882630553539
 40
0.6475267039590072
 40
0.7766641595440963
 40
0.9052195797374295
 40
1.033773477101004
 40
1.161657696846929
 40
1.289541252873641
 40
1.416833340182437
 40
1.544124711226279
 40
1.670973814695277
 40
1.797822167178573
 40
1.924426044890015
 40
2.051029163200077
 40
2.177632266838734
 40
2.304236174937271
 40
2.431082895360138
 40
2.557930403629615
 40
2.68521391997918
 40
2.812498180487709
 40
2.940360613246274
 40
3.068223728644993
 40
3.196740440945149
 40
3.325258472010621
 40
3.454367662412935
 40
3.583477762589687
 40
3.713024407423644
 40
3.84257158317588
 40
3.972349638440069
 40
4.102127800249273
 40
4.231905962058485
 40
4.361684017322644
 40
4.491231193074924
 40
4.62077783790888
 40
4.749887938085717
 40
4.878997128487991
 40
5.007515159553491
 40
5.136031871853692
 40
5.263894987252392
 40
5.391757420011021
 40
5.519041680519578
 40
5.646325196869171
 40
5.773172705138656
 40
5.900019425561529
 40
6.026623333660092
 40
6.153226437298665
 40
6.279829555608782
 40
6.406433433320196
 40
6.533281785803457
 40
6.660130889272442
 40
6.787422260316261
 40
6.914714347625008
 40
7.042597903651692
 40
7.170482123397654
 40
7.299036020761267
 40
7.42759144095467
 40
7.55672889653972
 40
7.685867337443385
 40
7.815393541789545
 40
7.944920234368431
 40
8.074587985285489
 40
8.204255600498756
 40
8.204255600498756
 40
8.204255600498756
 40
8.204255600498756
 10
195.6654493500661
 20
146.6095676951967
 30
0.0
 10
195.6748256351103
 20
146.6517609778954
 30
0.0
 10
195.6936684279202
 20
146.7361275083516
 30
0.0
 10
195.7219054451602
 20
146.8626351997512
 30
0.0
 10
195.7498184766159
 20
146.9891667654215
 30
0.0
 10
195.7770849734265
 20
147.1156592377496
 30
0.0
 10
195.8034201820013
 20
147.242217088048
 30
0.0
 10
195.8284850442512
 20
147.3687037854539
 30
0.0
 10
195.8520065902883
 20
147.495289551066
 30
0.0
 10
195.8736394241111
 20
147.6217896504624
 30
0.0
 10
195.8931108330294
 20
147.748414963138
 30
0.0
 10
195.9102896240465
 20
147.874947698636
 30
0.0
 10
195.925103946396
 20
148.001580676972
 30
0.0
 10
195.9374374477259
 20
148.1281335627961
 30
0.0
 10
195.9472061471287
 20
148.2547625173267
 30
0.0
 10
195.9543060444049
 20
148.3813403518843
 30
0.0
 10
195.958642040844
 20
148.5079615828921
 30
0.0
 10
195.960119027742
 20
148.6345676387196
 30
0.0
 10
195.9586360586195
 20
148.7611736109799
 30
0.0
 10
195.9543002866289
 20
148.887794241429
 30
0.0
 10
195.94721307423
 20
149.0143716090049
 30
0.0
 10
195.937475717217
 20
149.1409991248824
 30
0.0
 10
195.9251983610527
 20
149.2675515017916
 30
0.0
 10
195.9104714055951
 20
149.3941821065689
 30
0.0
 10
195.8934169417327
 20
149.5207145914398
 30
0.0
 10
195.8741135308775
 20
149.6473385588891
 30
0.0
 10
195.8526969754635
 20
149.7738429381301
 30
0.0
 10
195.8293987277351
 20
149.9004352157375
 30
0.0
 10
195.8045218768145
 20
150.0269273038682
 30
0.0
 10
195.77829649081
 20
150.153495936791
 30
0.0
 10
195.7510219506844
 20
150.2799912771229
 30
0.0
 10
195.7229367147614
 20
150.4065366338815
 30
0.0
 10
195.694327529802
 20
150.533043331566
 30
0.0
 10
195.6654493500659
 20
150.6595676951964
 30
0.0
 10
195.6365711703305
 20
150.7860920588271
 30
0.0
 10
195.6079619853707
 20
150.9125987565115
 30
0.0
 10
195.579876749448
 20
151.0391441132701
 30
0.0
 10
195.5526022093222
 20
151.165639453602
 30
0.0
 10
195.5263768233178
 20
151.2922080865248
 30
0.0
 10
195.5014999723972
 20
151.4187001746555
 30
0.0
 10
195.4782017246688
 20
151.545292452263
 30
0.0
 10
195.4567851692549
 20
151.6717968315041
 30
0.0
 10
195.4374817583996
 20
151.7984207989533
 30
0.0
 10
195.4204272945372
 20
151.9249532838242
 30
0.0
 10
195.4057003390795
 20
152.0515838886016
 30
0.0
 10
195.3934229829153
 20
152.1781362655108
 30
0.0
 10
195.3836856259022
 20
152.3047637813883
 30
0.0
 10
195.3765984135031
 20
152.4313411489642
 30
0.0
 10
195.3722626415127
 20
152.5579617794134
 30
0.0
 10
195.37077967239
 20
152.6845677516736
 30
0.0
 10
195.372256659288
 20
152.8111738075011
 30
0.0
 10
195.3765926557271
 20
152.9377950385089
 30
0.0
 10
195.3836925530032
 20
153.0643728730665
 30
0.0
 10
195.3934612524058
 20
153.1910018275971
 30
0.0
 10
195.4057947537359
 20
153.3175547134211
 30
0.0
 10
195.420609076085
 20
153.4441876917571
 30
0.0
 10
195.4377878671022
 20
153.5707204272551
 30
0.0
 10
195.4572592760205
 20
153.6973457399307
 30
0.0
 10
195.4788921098434
 20
153.8238458393272
 30
0.0
 10
195.5024136558808
 20
153.9504316049393
 30
0.0
 10
195.5274785181305
 20
154.0769183023452
 30
0.0
 10
195.5538137267055
 20
154.2034761526435
 30
0.0
 10
195.5810802235162
 20
154.3299686249716
 30
0.0
 10
195.608993254972
 20
154.456500190642
 30
0.0
 10
195.6372302722121
 20
154.5830078820415
 30
0.0
 10
195.656073065022
 20
154.6673744124977
 30
0.0
 10
195.6654493500661
 20
154.7095676951964
 30
0.0
 11
195.6654493500661
 21
146.6095676951967
 31
0.0
 11
195.6936665938126
 21
146.7361280296842
 31
0.0
 11
195.7218643337565
 21
146.8626926951967
 31
0.0
 11
195.7497179876331
 21
146.9891890969493
 31
0.0
 11
195.7769620229198
 21
147.1158176951967
 31
0.0
 11
195.803220207543
 21
147.2422583790377
 31
0.0
 11
195.8282715246949
 21
147.3689426951967
 31
0.0
 11
195.8517050877251
 21
147.4953443025077
 31
0.0
 11
195.8733219462198
 21
147.6220676951967
 31
0.0
 11
195.8927398426786
 21
147.7484691246487
 31
0.0
 11
195.9099253903816
 21
147.8751926951967
 31
0.0
 11
195.9246977074576
 21
148.0016247189221
 31
0.0
 11
195.9370259430614
 21
148.1283176951968
 31
0.0
 11
195.9467650161192
 21
148.254792388203
 31
0.0
 11
195.953850685889
 21
148.3814426951968
 31
0.0
 11
195.9581670092347
 21
148.5079729825802
 31
0.0
 11
195.9596267004935
 21
148.6345676951968
 31
0.0
 11
195.9581620574
 21
148.7611623357996
 31
0.0
 11
195.9538469686011
 21
148.8876926951968
 31
0.0
 11
195.9467750108033
 21
149.0143421330683
 31
0.0
 11
195.9370680723241
 21
149.1408176951968
 31
0.0
 11
195.9247971689767
 21
149.2675083439436
 31
0.0
 11
195.910112493871
 21
149.3939426951968
 31
0.0
 11
195.8930529104551
 21
149.5206619679516
 31
0.0
 11
195.8738027154507
 21
149.6470676951967
 31
0.0
 11
195.8523964458627
 21
149.773789115706
 31
0.0
 11
195.8291796271433
 21
149.9001926951967
 31
0.0
 11
195.804309438789
 21
150.0268838861674
 31
0.0
 11
195.7781577505171
 21
150.1533176951966
 31
0.0
 11
195.7508957581914
 21
150.2799633333656
 31
0.0
 11
195.7228700150114
 21
150.4064426951965
 31
0.0
 11
195.6942865237353
 21
150.5330338795616
 31
0.0
 11
195.6654493500661
 21
150.6595676951965
 31
0.0
 11
195.636612176397
 21
150.7861015108314
 31
0.0
 11
195.6080286851208
 21
150.9126926951964
 31
0.0
 11
195.5800029419409
 21
151.0391720570274
 31
0.0
 11
195.5527409496152
 21
151.1658176951964
 31
0.0
 11
195.5265892613432
 21
151.2922515042257
 31
0.0
 11
195.501719072989
 21
151.4189426951964
 31
0.0
 11
195.4785022542696
 21
151.5453462746871
 31
0.0
 11
195.4570959846817
 21
151.6720676951964
 31
0.0
 11
195.4378457896772
 21
151.7984734224416
 31
0.0
 11
195.4207862062613
 21
151.9251926951964
 31
0.0
 11
195.4061015311556
 21
152.0516270464495
 31
0.0
 11
195.3938306278081
 21
152.1783176951964
 31
0.0
 11
195.3841236893288
 21
152.3047932573249
 31
0.0
 11
195.377051731531
 21
152.4314426951964
 31
0.0
 11
195.3727366427322
 21
152.5579730545937
 31
0.0
 11
195.3712719996386
 21
152.6845676951964
 31
0.0
 11
195.3727316908973
 21
152.811162407813
 31
0.0
 11
195.377048014243
 21
152.9376926951964
 31
0.0
 11
195.3841336840126
 21
153.0643430021902
 31
0.0
 11
195.3938727570703
 21
153.1908176951964
 31
0.0
 11
195.4062009926742
 21
153.317510671471
 31
0.0
 11
195.42097330975
 21
153.4439426951964
 31
0.0
 11
195.438158857453
 21
153.5706662657444
 31
0.0
 11
195.4575767539119
 21
153.6970676951964
 31
0.0
 11
195.4791936124066
 21
153.8237910878855
 31
0.0
 11
195.5026271754371
 21
153.9501926951964
 31
0.0
 11
195.5276784925889
 21
154.0768770113554
 31
0.0
 11
195.5539366772121
 21
154.2033176951964
 31
0.0
 11
195.581180712499
 21
154.3299462934438
 31
0.0
 11
195.6090343663757
 21
154.4564426951964
 31
0.0
 11
195.6372321063197
 21
154.5830073607089
 31
0.0
 11
195.6654493500661
 21
154.7095676951964
 31
0.0
  0
LINE
  5
89E4
330
1E
100
AcDbEntity
  8
0
  6
CONTINUOUS
100
AcDbLine
 10
195.9654497064541
 20
144.6595674627901
 30
0.0
 11
195.9654497064541
 21
156.6595674627901
 31
0.0
  0
ARC
  5
89E5
330
1E
100
AcDbEntity
  8
0
  6
CONTINUOUS
100
AcDbCircle
 10
202.6712717064542
 20
150.6595674627901
 30
0.0
 40
11.5
100
AcDbArc
 50
163.1999890000002
 51
196.7999849999996
  0
LINE
  5
89E6
330
1E
100
AcDbEntity
  8
0
  6
CONTINUOUS
100
AcDbLine
 10
194.4712717064541
 20
155.1595674627901
 30
0.0
 11
194.4712717064541
 21
146.1595674627901
 31
0.0
  0
LINE
  5
89E7
330
1E
100
AcDbEntity
  8
0
  6
CONTINUOUS
100
AcDbLine
 10
198.9712717064541
 20
148.1595674627901
 30
0.0
 11
198.9712717064541
 21
153.1595674627901
 31
0.0
  0
LINE
  5
89E8
330
1E
100
AcDbEntity
  8
0
  6
CONTINUOUS
100
AcDbLine
 10
198.6654497064541
 20
157.6595674627901
 30
0.0
 11
198.6654497064541
 21
143.5989074627901
 31
0.0
  0
SPLINE
  5
89E9
330
1E
100
AcDbEntity
  8
0
  6
CONTINUOUS
100
AcDbSpline
210
0.0
220
0.0
230
1.0
 70
     8
 71
     3
 72
    55
 73
    51
 74
    49
 42
0.0000000001
 43
0.0000000001
 44
0.000001
 12
-0.2169304578162143
 22
0.9761870601844954
 32
0.0
 13
0.0046239517060956
 23
0.9999893094781661
 33
0.0
 40
0.0
 40
0.0
 40
0.0
 40
0.0
 40
0.0437569220238537
 40
0.08751353059509
 40
0.1312755701086864
 40
0.1750376094503014
 40
0.2187938241449411
 40
0.2625500362754943
 40
0.3062892585530721
 40
0.3500284758647759
 40
0.3937398216687638
 40
0.4374511601528592
 40
0.4811242574566991
 40
0.5247973450297168
 40
0.5684224514575134
 40
0.6120475457275483
 40
0.6556157063042837
 40
0.6991838522823893
 40
0.7426877102865254
 40
0.7861915579183977
 40
0.8296272735875923
 40
0.8730629775100632
 40
0.9164281475951558
 40
0.959793304701405
 40
1.003086366765943
 40
1.04637941469394
 40
1.089599731301164
 40
1.132820032890222
 40
1.175967996175416
 40
1.219115943425159
 40
1.262193000575542
 40
1.305270040784629
 40
1.348278752327285
 40
1.391287446239015
 40
1.434231893442543
 40
1.47717633385194
 40
1.52006293837549
 40
1.562949535943618
 40
1.605785576125854
 40
1.648621609266267
 40
1.691414829409326
 40
1.734208042472874
 40
1.77696665479612
 40
1.819725259758077
 40
1.862457945136652
 40
1.905190623241486
 40
1.947906558641963
 40
1.990622487063989
 40
2.03333135495819
 40
2.076039743334789
 40
2.076039743334789
 40
2.076039743334789
 40
2.076039743334789
 10
194.7654493500661
 20
146.6095676951967
 30
0.0
 10
194.762285280357
 20
146.6238060088878
 30
0.0
 10
194.7559463455385
 20
146.6522801311914
 30
0.0
 10
194.7464107874976
 20
146.6949870581754
 30
0.0
 10
194.7368636731919
 20
146.7376931497805
 30
0.0
 10
194.7273168332553
 20
146.780399168312
 30
0.0
 10
194.7177832032584
 20
146.82310614875
 30
0.0
 10
194.7082762704644
 20
146.8658112908276
 30
0.0
 10
194.6988079386586
 20
146.9085192082997
 30
0.0
 10
194.6893925532671
 20
146.9512235200854
 30
0.0
 10
194.6800412209029
 20
146.993932395327
 30
0.0
 10
194.6707689185865
 20
147.0366359521733
 30
0.0
 10
194.6615859053528
 20
147.0793457633754
 30
0.0
 10
194.6525078391512
 20
147.1220486284209
 30
0.0
 10
194.6435443398054
 20
147.1647593499829
 30
0.0
 10
194.6347116560412
 20
147.2074616133751
 30
0.0
 10
194.6260188706293
 20
147.2501732125063
 30
0.0
 10
194.6174826700521
 20
147.2928751867273
 30
0.0
 10
194.6091117287515
 20
147.3355880318873
 30
0.0
 10
194.6009180286247
 20
147.3782902935355
 30
0.0
 10
194.5929051206119
 20
147.4210037458583
 30
0.0
 10
194.5850849844392
 20
147.4637059295755
 30
0.0
 10
194.5774611626442
 20
147.5064197193907
 30
0.0
 10
194.5700455621423
 20
147.5491219053237
 30
0.0
 10
194.5628418381393
 20
147.5918359769798
 30
0.0
 10
194.5558617456002
 20
147.6345382562932
 30
0.0
 10
194.549109130265
 20
147.6772525563127
 30
0.0
 10
194.5425953972006
 20
147.7199550311198
 30
0.0
 10
194.5363245362787
 20
147.7626694796768
 30
0.0
 10
194.53030765185
 20
147.8053722401725
 30
0.0
 10
194.5245490659529
 20
147.8480867597255
 30
0.0
 10
194.519059521335
 20
147.8907899119113
 30
0.0
 10
194.5138437294876
 20
147.9335044229888
 30
0.0
 10
194.5089120064486
 20
147.9762081916484
 30
0.0
 10
194.5042695061479
 20
148.0189228316905
 30
0.0
 10
194.4999210818066
 20
148.0616275093489
 30
0.0
 10
194.4958673818965
 20
148.1043418072223
 30
0.0
 10
194.4921127416529
 20
148.1470471654733
 30
0.0
 10
194.488658282047
 20
148.1897609470161
 30
0.0
 10
194.4855078766654
 20
148.232467027082
 30
0.0
 10
194.4826630818869
 20
148.2751802519451
 30
0.0
 10
194.4801273641757
 20
148.3178870941549
 30
0.0
 10
194.4779026570228
 20
148.3605997190853
 30
0.0
 10
194.4759921996503
 20
148.4033073646423
 30
0.0
 10
194.4743983572275
 20
148.4460193535865
 30
0.0
 10
194.4731240818741
 20
148.4887278494539
 30
0.0
 10
194.4721720274117
 20
148.5314391596798
 30
0.0
 10
194.4715447476341
 20
148.5741485539375
 30
0.0
 10
194.4712458169443
 20
148.6168589665732
 30
0.0
 10
194.471265138115
 20
148.6453317179295
 30
0.0
 10
194.4713309652901
 20
148.6595676951967
 30
0.0
 11
194.7654493500661
 21
146.6095676951967
 31
0.0
 11
194.755941002693
 21
146.6522787241252
 31
0.0
 11
194.7464084597002
 21
146.6949843618634
 31
0.0
 11
194.7368628551167
 21
146.7376926470687
 31
0.0
 11
194.7273176813997
 21
146.7804010285301
 31
0.0
 11
194.7177865166499
 21
146.8231065707208
 31
0.0
 11
194.7082804099168
 21
146.8658176951967
 31
0.0
 11
194.6988153631426
 21
146.9085205356274
 31
0.0
 11
194.689400040004
 21
146.9512343618634
 31
0.0
 11
194.6800527465666
 21
146.9939345959441
 31
0.0
 11
194.6707797948403
 21
147.0366510285301
 31
0.0
 11
194.6616015298162
 21
147.0793487920867
 31
0.0
 11
194.6525222113129
 21
147.1220676951967
 31
0.0
 11
194.643564086711
 21
147.1647631520404
 31
0.0
 11
194.6347296547357
 21
147.2074843618634
 31
0.0
 11
194.6260427683437
 21
147.2501777185798
 31
0.0
 11
194.6175044904226
 21
147.2929010285301
 31
0.0
 11
194.6091389997723
 21
147.3355929979724
 31
0.0
 11
194.6009423529975
 21
147.3783176951967
 31
0.0
 11
194.5929349762491
 21
147.4210089510554
 31
0.0
 11
194.5851119543237
 21
147.4637343618634
 31
0.0
 11
194.577493622672
 21
147.506425099084
 31
0.0
 11
194.5700752755741
 21
147.5491510285301
 31
0.0
 11
194.5628769213946
 21
147.5918414609197
 31
0.0
 11
194.5558942979218
 21
147.6345676951967
 31
0.0
 11
194.5491468345703
 21
147.6772580648663
 31
0.0
 11
194.542630838852
 21
147.7199843618634
 31
0.0
 11
194.5363648576078
 21
147.762674927884
 31
0.0
 11
194.5303460610992
 21
147.8054010285301
 31
0.0
 11
194.5245920182077
 21
147.8480920591557
 31
0.0
 11
194.5191009637104
 21
147.8908176951967
 31
0.0
 11
194.5138893238966
 21
147.9335094781924
 31
0.0
 11
194.5089565457323
 21
147.9762343618634
 31
0.0
 11
194.5043169248879
 21
148.0189274485749
 31
0.0
 11
194.4999671174064
 21
148.0616510285301
 31
0.0
 11
194.4959157913442
 21
148.104345849254
 31
0.0
 11
194.4921602337527
 21
148.1470676951967
 31
0.0
 11
194.4887076712906
 21
148.1897643719799
 31
0.0
 11
194.4855567609859
 21
148.2324843618634
 31
0.0
 11
194.4827134373936
 21
148.2751830178041
 31
0.0
 11
194.4801775653206
 21
148.3179010285301
 31
0.0
 11
194.4779539823754
 21
148.360601784942
 31
0.0
 11
194.476043670586
 21
148.4033176951967
 31
0.0
 11
194.4744506520183
 21
148.446020677101
 31
0.0
 11
194.4731767310686
 21
148.4887343618634
 31
0.0
 11
194.4722252456737
 21
148.5314396983117
 31
0.0
 11
194.4715985586696
 21
148.57415102853
 31
0.0
 11
194.4712995828886
 21
148.616858847936
 31
0.0
 11
194.4713309652901
 21
148.6595676951967
 31
0.0
  0
LINE
  5
89EA
330
1E
100
AcDbEntity
  8
0
  6
CONTINUOUS
100
AcDbLine
 10
194.4712717064541
 20
148.6595674627901
 30
0.0
 11
195.0626977064541
 21
148.6595674627901
 31
0.0
  0
LINE
  5
89EB
330
1E
100
AcDbEntity
  8
0
  6
CONTINUOUS
100
AcDbLine
 10
193.2055447064541
 20
146.1595674627901
 30
0.0
 11
194.4712717064541
 21
146.1595674627901
 31
0.0
  0
ARC
  5
89EC
330
1E
100
AcDbEntity
  8
0
  6
CONTINUOUS
100
AcDbCircle
 10
193.2055447064541
 20
147.7595674627901
 30
0.0
 40
1.6
100
AcDbArc
 50
197.0334099999991
 51
270.0
  0
ARC
  5
89ED
330
1E
100
AcDbEntity
  8
0
  6
CONTINUOUS
100
AcDbCircle
 10
198.0654497064542
 20
151.3595674627901
 30
0.0
 40
0.3
100
AcDbArc
 50
270.0
 51
0.0
  0
LINE
  5
89EE
330
1E
100
AcDbEntity
  8
0
  6
CONTINUOUS
100
AcDbLine
 10
197.9654497064542
 20
150.2595674627901
 30
0.0
 11
198.0654497064542
 21
150.2595674627901
 31
0.0
  0
LINE
  5
89EF
330
1E
100
AcDbEntity
  8
0
  6
CONTINUOUS
100
AcDbLine
 10
197.9654497064542
 20
151.0595674627901
 30
0.0
 11
198.0654497064542
 21
151.0595674627901
 31
0.0
  0
LINE
  5
89F0
330
1E
100
AcDbEntity
  8
0
  6
CONTINUOUS
100
AcDbLine
 10
197.9654497064542
 20
150.2595674627901
 30
0.0
 11
197.9654497064542
 21
151.0595674627901
 31
0.0
  0
ARC
  5
89F1
330
1E
100
AcDbEntity
  8
0
  6
CONTINUOUS
100
AcDbCircle
 10
196.0654497064542
 20
151.9595674627901
 30
0.0
 40
0.3
100
AcDbArc
 50
270.0
 51
0.0
  0
LINE
  5
89F2
330
1E
100
AcDbEntity
  8
0
  6
CONTINUOUS
100
AcDbLine
 10
195.9654497064541
 20
151.6595674627901
 30
0.0
 11
196.0654497064542
 21
151.6595674627901
 31
0.0
  0
LINE
  5
89F3
330
1E
100
AcDbEntity
  8
0
  6
CONTINUOUS
100
AcDbLine
 10
202.1517467064541
 20
146.1595674627901
 30
0.0
 11
200.1654497064541
 21
144.1732694627901
 31
0.0
  0
ARC
  5
89F4
330
1E
100
AcDbEntity
  8
0
  6
CONTINUOUS
100
AcDbCircle
 10
197.8654497064541
 20
147.2024604627901
 30
0.0
 40
0.5
100
AcDbArc
 50
0.0
 51
45.0
  0
ARC
  5
89F5
330
1E
100
AcDbEntity
  8
0
  6
CONTINUOUS
100
AcDbCircle
 10
198.0654497064542
 20
147.9595674627901
 30
0.0
 40
0.3
100
AcDbArc
 50
270.0
 51
0.0
  0
LINE
  5
89F6
330
1E
100
AcDbEntity
  8
0
  6
CONTINUOUS
100
AcDbLine
 10
197.9654497064542
 20
147.4595674627901
 30
0.0
 11
197.9654497064542
 21
147.6595674627901
 31
0.0
  0
LINE
  5
89F7
330
1E
100
AcDbEntity
  8
0
  6
CONTINUOUS
100
AcDbLine
 10
198.2190027064542
 20
147.5560144627901
 30
0.0
 11
198.1118407064542
 21
147.6631764627901
 31
0.0
  0
LINE
  5
89F8
330
1E
100
AcDbEntity
  8
0
  6
CONTINUOUS
100
AcDbLine
 10
197.9654497064542
 20
147.6595674627901
 30
0.0
 11
198.0654497064542
 21
147.6595674627901
 31
0.0
  0
LINE
  5
89F9
330
1E
100
AcDbEntity
  8
0
  6
CONTINUOUS
100
AcDbLine
 10
198.3654497064541
 20
147.2024604627901
 30
0.0
 11
198.3654497064541
 21
145.8595674627901
 31
0.0
  0
LINE
  5
89FA
330
1E
100
AcDbEntity
  8
0
  6
CONTINUOUS
100
AcDbLine
 10
198.3654497064541
 20
147.9595674627901
 30
0.0
 11
198.3654497064541
 21
149.9595674627901
 31
0.0
  0
ARC
  5
89FB
330
1E
100
AcDbEntity
  8
0
  6
CONTINUOUS
100
AcDbCircle
 10
196.0654497064542
 20
149.3595674627901
 30
0.0
 40
0.3
100
AcDbArc
 50
0.0
 51
90.0
  0
ARC
  5
89FC
330
1E
100
AcDbEntity
  8
0
  6
CONTINUOUS
100
AcDbCircle
 10
196.0654497064542
 20
147.9595674627901
 30
0.0
 40
0.3
100
AcDbArc
 50
270.0
 51
0.0
  0
LINE
  5
89FD
330
1E
100
AcDbEntity
  8
0
  6
CONTINUOUS
100
AcDbLine
 10
196.3654497064541
 20
149.3595674627901
 30
0.0
 11
196.3654497064541
 21
147.9595674627901
 31
0.0
  0
LINE
  5
89FE
330
1E
100
AcDbEntity
  8
0
  6
CONTINUOUS
100
AcDbLine
 10
195.9654497064541
 20
149.6595674627901
 30
0.0
 11
196.0654497064542
 21
149.6595674627901
 31
0.0
  0
LINE
  5
89FF
330
1E
100
AcDbEntity
  8
0
  6
CONTINUOUS
100
AcDbLine
 10
195.9654497064541
 20
147.6595674627901
 30
0.0
 11
196.0654497064542
 21
147.6595674627901
 31
0.0
  0
LINE
  5
8A00
330
1E
100
AcDbEntity
  8
0
  6
CONTINUOUS
100
AcDbLine
 10
195.9654497064541
 20
144.6595674627901
 30
0.0
 11
198.6654497064541
 21
144.6595674627901
 31
0.0
  0
LINE
  5
8A01
330
1E
100
AcDbEntity
  8
0
  6
CONTINUOUS
100
AcDbLine
 10
195.9654497064541
 20
147.4595674627901
 30
0.0
 11
196.6654497064541
 21
144.6595674627901
 31
0.0
  0
LINE
  5
8A02
330
1E
100
AcDbEntity
  8
0
  6
CONTINUOUS
100
AcDbLine
 10
198.6654497064541
 20
144.6595674627901
 30
0.0
 11
197.9654497064542
 21
147.4595674627901
 31
0.0
  0
LINE
  5
8A03
330
1E
100
AcDbEntity
  8
0
  6
CONTINUOUS
100
AcDbLine
 10
194.7654497064541
 20
146.6095674627901
 30
0.0
 11
195.6654497064541
 21
146.6095674627901
 31
0.0
  0
LINE
  5
8A04
330
1E
100
AcDbEntity
  8
0
  6
CONTINUOUS
100
AcDbLine
 10
198.6654497064541
 20
143.5989074627901
 30
0.0
 11
200.1654497064541
 21
143.5989074627901
 31
0.0
  0
ARC
  5
8A05
330
1E
100
AcDbEntity
  8
0
  6
CONTINUOUS
100
AcDbCircle
 10
198.0654497064542
 20
149.9595674627901
 30
0.0
 40
0.3
100
AcDbArc
 50
0.0
 51
90.0
  0
LINE
  5
8A06
330
1E
100
AcDbEntity
  8
0
  6
CONTINUOUS
100
AcDbLine
 10
196.1863697064541
 20
160.6647714627901
 30
0.0
 11
193.1811657064542
 21
157.6595674627901
 31
0.0
  0
LINE
  5
8A07
330
1E
100
AcDbEntity
  8
0
  6
CONTINUOUS
100
AcDbLine
 10
194.4712717064541
 20
155.1595674627901
 30
0.0
 11
193.2055447064541
 21
155.1595674627901
 31
0.0
  0
ARC
  5
8A08
330
1E
100
AcDbEntity
  8
0
  6
CONTINUOUS
100
AcDbCircle
 10
193.2055447064541
 20
153.5595674627901
 30
0.0
 40
1.6
100
AcDbArc
 50
90.0
 51
162.9665900000007
  0
LINE
  5
8A09
330
1E
100
AcDbEntity
  8
0
  6
CONTINUOUS
100
AcDbLine
 10
187.5243057064541
 20
157.6595674627901
 30
0.0
 11
190.5295087064541
 21
160.6647714627901
 31
0.0
  0
LINE
  5
8A0A
330
1E
100
AcDbEntity
  8
0
  6
CONTINUOUS
100
AcDbLine
 10
190.3527357064542
 20
157.6595674627901
 30
0.0
 11
193.3579397064541
 21
160.6647714627901
 31
0.0
  0
LINE
  5
8A0B
330
1E
100
AcDbEntity
  8
0
  6
CONTINUOUS
100
AcDbLine
 10
202.8380267064541
 20
158.1595674627901
 30
0.0
 11
200.1654497064541
 21
155.4869904627901
 31
0.0
  0
LINE
  5
8A0C
330
1E
100
AcDbEntity
  8
0
  6
CONTINUOUS
100
AcDbLine
 10
195.9654497064541
 20
156.6595674627901
 30
0.0
 11
198.6654497064541
 21
156.6595674627901
 31
0.0
  0
ARC
  5
8A0D
330
1E
100
AcDbEntity
  8
0
  6
CONTINUOUS
100
AcDbCircle
 10
198.0654497064542
 20
153.3595674627901
 30
0.0
 40
0.3
100
AcDbArc
 50
0.0
 51
90.0
  0
ARC
  5
8A0E
330
1E
100
AcDbEntity
  8
0
  6
CONTINUOUS
100
AcDbCircle
 10
197.8654497064541
 20
154.1166744627901
 30
0.0
 40
0.5
100
AcDbArc
 50
315.0
 51
0.0
  0
LINE
  5
8A0F
330
1E
100
AcDbEntity
  8
0
  6
CONTINUOUS
100
AcDbLine
 10
197.9654497064542
 20
153.6595674627901
 30
0.0
 11
198.0654497064542
 21
153.6595674627901
 31
0.0
  0
LINE
  5
8A10
330
1E
100
AcDbEntity
  8
0
  6
CONTINUOUS
100
AcDbLine
 10
198.2190027064542
 20
153.7631214627901
 30
0.0
 11
198.1118407064542
 21
153.6559594627901
 31
0.0
  0
LINE
  5
8A11
330
1E
100
AcDbEntity
  8
0
  6
CONTINUOUS
100
AcDbLine
 10
197.9654497064542
 20
153.8595674627901
 30
0.0
 11
197.9654497064542
 21
153.6595674627901
 31
0.0
  0
SPLINE
  5
8A12
330
1E
100
AcDbEntity
  8
0
  6
CONTINUOUS
100
AcDbSpline
210
0.0
220
0.0
230
1.0
 70
     8
 71
     3
 72
    55
 73
    51
 74
    49
 42
0.0000000001
 43
0.0000000001
 44
0.000001
 12
0.0034274732673638
 22
0.9999941261962501
 32
0.0
 13
-0.2169304578161107
 23
0.9761870601845183
 33
0.0
 40
0.0
 40
0.0
 40
0.0
 40
0.0
 40
0.0427086049425902
 40
0.0854177080221247
 40
0.1281352723290491
 40
0.170852836691036
 40
0.2135895949018234
 40
0.2563263532965091
 40
0.2990929617673082
 40
0.3418595701321404
 40
0.3846662484938293
 40
0.4274729470213929
 40
0.4703280074135246
 40
0.5131830885103131
 40
0.5560931903518725
 40
0.5990033122573639
 40
0.6419737794884453
 40
0.6849442657658854
 40
0.7279791425818399
 40
0.7710140376813041
 40
0.8141161053717718
 40
0.857218190129582
 40
0.9003890705754136
 40
0.9435599668248977
 40
0.986800210714677
 40
1.030040469101929
 40
1.073349544004232
 40
1.11665863332876
 40
1.160034714256792
 40
1.20341080831152
 40
1.246851066592744
 40
1.290291336657852
 40
1.333792105760716
 40
1.377292885207352
 40
1.420849610857039
 40
1.464406346476302
 40
1.508013246268103
 40
1.551620154672116
 40
1.59527067254485
 40
1.638921197651848
 40
1.682608233658734
 40
1.726295275366316
 40
1.770011200883278
 40
1.81372713070159
 40
1.857463630821863
 40
1.901200133772566
 40
1.94494855476858
 40
1.988696977123454
 40
2.032448518077317
 40
2.07620074072973
 40
2.07620074072973
 40
2.07620074072973
 40
2.07620074072973
 10
195.9626931262092
 20
152.6595676951964
 30
0.0
 10
195.9627419204098
 20
152.6738038132233
 30
0.0
 10
195.9627248952623
 20
152.7022767329917
 30
0.0
 10
195.9623620903098
 20
152.7449873732032
 30
0.0
 10
195.9616592284083
 20
152.787696791113
 30
0.0
 10
195.9606174551544
 20
152.830408495693
 30
0.0
 10
195.9592369386486
 20
152.8731169973377
 30
0.0
 10
195.9575178891072
 20
152.9158295716395
 30
0.0
 10
195.955460909934
 20
152.9585371662023
 30
0.0
 10
195.9530658746124
 20
153.0012504808128
 30
0.0
 10
195.9503337550982
 20
153.043956939675
 30
0.0
 10
195.9472713459545
 20
153.0866705216692
 30
0.0
 10
195.9438873330492
 20
153.1293759946024
 30
0.0
 10
195.9401880765653
 20
153.1720898926183
 30
0.0
 10
195.9361827084603
 20
153.2147945901558
 30
0.0
 10
195.931877141929
 20
153.2575087043839
 30
0.0
 10
195.9272809559533
 20
153.3002127520546
 30
0.0
 10
195.9223996208345
 20
153.3429269836416
 30
0.0
 10
195.9172431496467
 20
153.3856304901507
 30
0.0
 10
195.9118167760745
 20
153.4283447356892
 30
0.0
 10
195.9061310966108
 20
153.4710478236166
 30
0.0
 10
195.9001909661301
 20
153.5137620095218
 30
0.0
 10
195.8940073344203
 20
153.5564647919596
 30
0.0
 10
195.8875847306646
 20
153.5991788426513
 30
0.0
 10
195.880934399457
 20
153.6418814214427
 30
0.0
 10
195.8740606111564
 20
153.6845952394781
 30
0.0
 10
195.8669748403948
 20
153.7272976528885
 30
0.0
 10
195.8596819354257
 20
153.7700110949248
 30
0.0
 10
195.8521942666714
 20
153.8127134935316
 30
0.0
 10
195.8445165949659
 20
153.8554265515821
 30
0.0
 10
195.8366613378779
 20
153.8981290511665
 30
0.0
 10
195.8286332557792
 20
153.9408416724749
 30
0.0
 10
195.8204447236514
 20
153.9835443549329
 30
0.0
 10
195.8121005945198
 20
154.0262564493779
 30
0.0
 10
195.8036131189422
 20
154.0689593007804
 30
0.0
 10
195.7949883418918
 20
154.1116707108798
 30
0.0
 10
195.7862392772794
 20
154.1543739012437
 30
0.0
 10
195.7773722695756
 20
154.1970846767993
 30
0.0
 10
195.7683999991067
 20
154.239788315521
 30
0.0
 10
195.7593291902966
 20
154.2824984302681
 30
0.0
 10
195.7501721074945
 20
154.3252025761184
 30
0.0
 10
195.7409359298721
 20
154.3679119836994
 30
0.0
 10
195.7316324430539
 20
154.4106166318935
 30
0.0
 10
195.7222699263974
 20
154.4533252506065
 30
0.0
 10
195.7128601877623
 20
154.4960305100911
 30
0.0
 10
195.7034121063508
 20
154.53873839248
 30
0.0
 10
195.6939368440912
 20
154.5814443213038
 30
0.0
 10
195.6844440694404
 20
154.6241514945783
 30
0.0
 10
195.6749436358295
 20
154.6668582623795
 30
0.0
 10
195.6686130799629
 20
154.6953309106606
 30
0.0
 10
195.6654493500661
 20
154.7095676951964
 30
0.0
 11
195.9626931262092
 21
152.6595676951964
 31
0.0
 11
195.9626695526285
 21
152.7022767971433
 31
0.0
 11
195.9623063154401
 21
152.7449843618631
 31
0.0
 11
195.9616036319721
 21
152.7876961547155
 31
0.0
 11
195.9605620587881
 21
152.8304010285299
 31
0.0
 11
195.9591814601745
 21
152.8731154918586
 31
0.0
 11
195.9574629149207
 21
152.9158176951966
 31
0.0
 11
195.955405597318
 21
152.9585348046639
 31
0.0
 11
195.9530114425049
 21
153.0012343618634
 31
0.0
 11
195.950279843921
 21
153.0439538144537
 31
0.0
 11
195.9472199495346
 21
153.0866510285301
 31
0.0
 11
195.9438360439286
 21
153.1293722991945
 31
0.0
 11
195.9401397413115
 21
153.1720676951969
 31
0.0
 11
195.936134045313
 21
153.2147904370919
 31
0.0
 11
195.9318318724641
 21
153.2574843618636
 31
0.0
 11
195.9272349187773
 21
153.3002082465288
 31
0.0
 11
195.922357397621
 21
153.3429010285303
 31
0.0
 11
195.9171997647454
 21
153.3856257346883
 31
0.0
 11
195.9117776168008
 21
153.4283176951968
 31
0.0
 11
195.9060903863019
 21
153.4710429167045
 31
0.0
 11
195.9001548115822
 21
153.5137343618634
 31
0.0
 11
195.8939692877924
 21
153.5564598223127
 31
0.0
 11
195.8875515089345
 21
153.59915102853
 31
0.0
 11
195.8808990030454
 21
153.6418764716672
 31
0.0
 11
195.8740302358263
 21
153.6845676951966
 31
0.0
 11
195.8669422031617
 21
153.7272928201856
 31
0.0
 11
195.8596545431534
 21
153.7699843618632
 31
0.0
 11
195.8521644943044
 21
153.8127088750131
 31
0.0
 11
195.8444920775181
 21
153.8554010285299
 31
0.0
 11
195.8366344111677
 21
153.8981247162749
 31
0.0
 11
195.8286115094497
 21
153.9408176951966
 31
0.0
 11
195.8204206234093
 21
153.9835403660609
 31
0.0
 11
195.8120815094773
 21
154.0262343618634
 31
0.0
 11
195.8035919896147
 21
154.0689557461886
 31
0.0
 11
195.7949721086285
 21
154.1116510285301
 31
0.0
 11
195.7862212621851
 21
154.1543708675194
 31
0.0
 11
195.7773587799254
 21
154.1970676951969
 31
0.0
 11
195.7683850804311
 21
154.2397858485649
 31
0.0
 11
195.7593183568888
 21
154.2824843618635
 31
0.0
 11
195.7501602702038
 21
154.3252007136392
 31
0.0
 11
195.7409276730395
 21
154.3679010285302
 31
0.0
 11
195.7316237683759
 21
154.4106154245975
 31
0.0
 11
195.7222643486188
 21
154.4533176951967
 31
0.0
 11
195.7128547600868
 21
154.496030002778
 31
0.0
 11
195.7034091507523
 21
154.5387343618632
 31
0.0
 11
195.6939346768526
 21
154.5814445340627
 31
0.0
 11
195.684443633286
 21
154.6241510285297
 31
0.0
 11
195.6749450609523
 21
154.6668590438239
 31
0.0
 11
195.6654493500661
 21
154.7095676951964
 31
0.0
  0
ARC
  5
8A13
330
1E
100
AcDbEntity
  8
0
  6
CONTINUOUS
100
AcDbCircle
 10
196.0654497064542
 20
153.3595674627901
 30
0.0
 40
0.3
100
AcDbArc
 50
0.0
 51
90.0
  0
LINE
  5
8A14
330
1E
100
AcDbEntity
  8
0
  6
CONTINUOUS
100
AcDbLine
 10
195.9654497064541
 20
153.6595674627901
 30
0.0
 11
196.0654497064542
 21
153.6595674627901
 31
0.0
  0
LINE
  5
8A15
330
1E
100
AcDbEntity
  8
0
  6
CONTINUOUS
100
AcDbLine
 10
195.3713297064542
 20
152.6595674627901
 30
0.0
 11
195.9654497064541
 21
152.6595674627901
 31
0.0
  0
LINE
  5
8A16
330
1E
100
AcDbEntity
  8
0
  6
CONTINUOUS
100
AcDbLine
 10
198.3654497064541
 20
154.1166744627901
 30
0.0
 11
198.3654497064541
 21
155.4595674627901
 31
0.0
  0
LINE
  5
8A17
330
1E
100
AcDbEntity
  8
0
  6
CONTINUOUS
100
AcDbLine
 10
198.6654497064541
 20
156.6595674627901
 30
0.0
 11
197.9654497064542
 21
153.8595674627901
 31
0.0
  0
LINE
  5
8A18
330
1E
100
AcDbEntity
  8
0
  6
CONTINUOUS
100
AcDbLine
 10
195.9654497064541
 20
153.8595674627901
 30
0.0
 11
196.6654497064541
 21
156.6595674627901
 31
0.0
  0
LINE
  5
8A19
330
1E
100
AcDbEntity
  8
0
  6
CONTINUOUS
100
AcDbLine
 10
194.7654497064541
 20
154.7095674627901
 30
0.0
 11
195.6654497064541
 21
154.7095674627901
 31
0.0
  0
LINE
  5
8A1A
330
1E
100
AcDbEntity
  8
0
  6
CONTINUOUS
100
AcDbLine
 10
196.0095957064541
 20
157.6595674627901
 30
0.0
 11
199.0147997064541
 21
160.6647714627901
 31
0.0
  0
LINE
  5
8A1B
330
1E
100
AcDbEntity
  8
0
  6
CONTINUOUS
100
AcDbLine
 10
198.8380267064541
 20
157.6595674627901
 30
0.0
 11
201.8432297064542
 21
160.6647714627901
 31
0.0
  0
LINE
  5
8A1C
330
1E
100
AcDbEntity
  8
0
  6
CONTINUOUS
100
AcDbLine
 10
219.6654497064542
 20
151.2026894627901
 30
0.0
 11
222.6654497064541
 21
154.2026894627901
 31
0.0
  0
LINE
  5
8A1D
330
1E
100
AcDbEntity
  8
0
  6
CONTINUOUS
100
AcDbLine
 10
219.6654497064542
 20
154.0311194627901
 30
0.0
 11
222.6654497064541
 21
157.0311194627901
 31
0.0
  0
LINE
  5
8A1E
330
1E
100
AcDbEntity
  8
0
  6
CONTINUOUS
100
AcDbLine
 10
222.6654497064541
 20
159.8595494627901
 30
0.0
 11
219.6654497064542
 21
156.8595494627901
 31
0.0
  0
LINE
  5
8A1F
330
1E
100
AcDbEntity
  8
0
  6
CONTINUOUS
100
AcDbLine
 10
222.6654497064541
 20
146.8742584627901
 30
0.0
 11
218.4507587064541
 21
142.6595674627901
 31
0.0
  0
LINE
  5
8A20
330
1E
100
AcDbEntity
  8
0
  6
CONTINUOUS
100
AcDbLine
 10
219.6654497064542
 20
148.3742584627901
 30
0.0
 11
222.6654497064541
 21
151.3742584627901
 31
0.0
  0
LINE
  5
8A21
330
1E
100
AcDbEntity
  8
0
  6
CONTINUOUS
100
AcDbLine
 10
210.1654497064541
 20
151.3448394627901
 30
0.0
 11
213.1654497064541
 21
154.3448404627901
 31
0.0
  0
LINE
  5
8A22
330
1E
100
AcDbEntity
  8
0
  6
CONTINUOUS
100
AcDbLine
 10
207.4712727064541
 20
153.1595674627901
 30
0.0
 11
208.4712727064541
 21
152.1595674627901
 31
0.0
  0
LINE
  5
8A23
330
1E
100
AcDbEntity
  8
0
  6
CONTINUOUS
100
AcDbLine
 10
210.1654497064541
 20
155.1595674627901
 30
0.0
 11
210.1654497064541
 21
146.1595674627901
 31
0.0
  0
LINE
  5
8A24
330
1E
100
AcDbEntity
  8
0
  6
CONTINUOUS
100
AcDbLine
 10
207.4712727064541
 20
153.1595674627901
 30
0.0
 11
207.4712727064541
 21
148.1595674627901
 31
0.0
  0
LINE
  5
8A25
330
1E
100
AcDbEntity
  8
0
  6
CONTINUOUS
100
AcDbLine
 10
213.1654497064541
 20
145.8595494627901
 30
0.0
 11
209.9654677064541
 21
142.6595674627901
 31
0.0
  0
LINE
  5
8A26
330
1E
100
AcDbEntity
  8
0
  6
CONTINUOUS
100
AcDbLine
 10
213.1654497064541
 20
148.6879794627901
 30
0.0
 11
207.1370377064541
 21
142.6595674627901
 31
0.0
  0
LINE
  5
8A27
330
1E
100
AcDbEntity
  8
0
  6
CONTINUOUS
100
AcDbLine
 10
210.1654497064541
 20
148.5164094627901
 30
0.0
 11
213.1654497064541
 21
151.5164094627901
 31
0.0
  0
LINE
  5
8A28
330
1E
100
AcDbEntity
  8
0
  6
CONTINUOUS
100
AcDbLine
 10
207.8086077064542
 20
146.1595674627901
 30
0.0
 11
204.3086077064542
 21
142.6595674627901
 31
0.0
  0
LINE
  5
8A29
330
1E
100
AcDbEntity
  8
0
  6
CONTINUOUS
100
AcDbLine
 10
207.4712727064541
 20
148.1595674627901
 30
0.0
 11
208.4712727064541
 21
149.1595674627901
 31
0.0
  0
LINE
  5
8A2A
330
1E
100
AcDbEntity
  8
0
  6
CONTINUOUS
100
AcDbLine
 10
208.4712727064541
 20
149.1595674627901
 30
0.0
 11
208.4712727064541
 21
152.1595674627901
 31
0.0
  0
LINE
  5
8A2B
330
1E
100
AcDbEntity
  8
0
  6
CONTINUOUS
100
AcDbLine
 10
215.7938987064542
 20
145.6595674627901
 30
0.0
 11
212.7938977064541
 21
142.6595674627901
 31
0.0
  0
LINE
  5
8A2C
330
1E
100
AcDbEntity
  8
0
  6
CONTINUOUS
100
AcDbLine
 10
218.6223287064541
 20
145.6595674627901
 30
0.0
 11
215.6223287064542
 21
142.6595674627901
 31
0.0
  0
LINE
  5
8A2D
330
1E
100
AcDbEntity
  8
0
  6
CONTINUOUS
100
AcDbLine
 10
210.1654497064541
 20
154.1732704627901
 30
0.0
 11
213.1654497064541
 21
157.1732704627901
 31
0.0
  0
LINE
  5
8A2E
330
1E
100
AcDbEntity
  8
0
  6
CONTINUOUS
100
AcDbLine
 10
211.3233167064541
 20
158.1595674627901
 30
0.0
 11
208.3233167064542
 21
155.1595674627901
 31
0.0
  0
LINE
  5
8A2F
330
1E
100
AcDbEntity
  8
0
  6
CONTINUOUS
100
AcDbLine
 10
208.4948867064541
 20
158.1595674627901
 30
0.0
 11
205.4948867064542
 21
155.1595674627901
 31
0.0
  0
LINE
  5
8A30
330
1E
100
AcDbEntity
  8
0
  6
CONTINUOUS
100
AcDbLine
 10
222.6654497064541
 20
142.6595674627901
 30
0.0
 11
222.6654497064541
 21
161.0595614627901
 31
0.0
  0
LEADER
  5
8A31
330
1E
100
AcDbEntity
  8
30
  6
CONTINUOUS
100
AcDbLeader
  3
STANDARD
 40
4.666666666666666
 41
20.66666666666666
 76
     2
 10
200.1654497064541
 20
155.1595674627901
 30
0.0
 10
214.930646657558
 20
166.6955168070451
 30
0.0
213
0.0
223
-2.0
233
0.0
1001
ACAD
1000
DSTYLE
1002
{
1070
     5
1000
OPEN
1070
    77
1070
     0
1070
    79
1070
     3
1070
   147
1040
1.0
1002
}
  0
VIEWPORT
  5
9AC
330
1A
100
AcDbEntity
 67
     1
  8
0
  6
CONTINUOUS
100
AcDbViewport
 10
171.999535
 20
144.1384739999999
 30
0.0
 40
488.867686
 41
292.351491
 68
    -1
 69
     1
1001
ACAD
1000
MVIEW
1002
{
1070
    16
1010
0.0
1020
0.0
1030
0.0
1010
0.0
1020
0.0
1030
1.0
1040
0.0
1040
292.351491
1040
171.999535
1040
144.1384739999999
1040
50.0
1040
0.0
1040
0.0
1070
     0
1070
   100
1070
     1
1070
     1
1070
     0
1070
     0
1070
     0
1070
     0
1040
0.0
1040
0.0
1040
0.0
1040
10.0
1040
10.0
1040
10.0
1040
10.0
1070
     0
1002
{
1002
}
1002
}
  0
ENDSEC
  0
SECTION
  2
OBJECTS
  0
DICTIONARY
  5
C
330
0
100
AcDbDictionary
  3
ACAD_GROUP
350
D
  3
ACAD_LAYOUT
350
19
  3
ACAD_MLINESTYLE
350
16
  3
ACAD_PLOTSETTINGS
350
18
  3
ACAD_PLOTSTYLENAME
350
E
  3
ACADDIM
350
5C76
  3
ACDBHEADERROUNDTRIPXREC
350
8A59
  3
ACDBVARIABLEDICTIONARY
350
5697
  0
DICTIONARY
  5
178
330
1E
100
AcDbDictionary
280
     1
  3
ACAD_LAYOUTSELFREF
360
8A7B
  0
DICTIONARY
  5
17A
330
1A
100
AcDbDictionary
280
     1
  3
ACAD_LAYOUTSELFREF
360
8A7A
  0
DICTIONARY
  5
D
102
{ACAD_REACTORS
330
C
102
}
330
C
100
AcDbDictionary
  0
DICTIONARY
  5
19
102
{ACAD_REACTORS
330
C
102
}
330
C
100
AcDbDictionary
  0
DICTIONARY
  5
16
102
{ACAD_REACTORS
330
C
102
}
330
C
100
AcDbDictionary
  3
STANDARD
350
17
  0
DICTIONARY
  5
18
102
{ACAD_REACTORS
330
C
102
}
330
C
100
AcDbDictionary
  0
ACDBDICTIONARYWDFLT
  5
E
102
{ACAD_REACTORS
330
C
102
}
330
C
100
AcDbDictionary
281
     1
  3
Normal
350
F
100
AcDbDictionaryWithDefault
340
F
  0
XRECORD
  5
5C76
102
{ACAD_REACTORS
330
C
102
}
330
C
100
AcDbXrecord
 90
   990106
  3

 60
     0
 61
     0
 62
     1
 63
     3
 64
     0
 65
     0
 66
     0
 67
     3
 68
     1
 69
     0
 70
     0
 71
     0
 72
     0
 40
0.0
170
     0
340
8A32
  0
DICTIONARY
  5
8A59
102
{ACAD_REACTORS
330
C
102
}
330
C
100
AcDbDictionary
  3
CEPSNTYPE
350
8A63
  3
DIMSTYLEDATA
350
8A67
  3
FINGERPRINTGUID
350
8A64
  3
HYPERLINKBASE
350
8A5C
  3
INSUNITS
350
8A62
  3
LAYOUTDICT
350
8A5E
  3
LWETCUNION
350
8A61
  3
PLOTSETDICT
350
8A5F
  3
PLOTSTYLNAMDICT
350
8A60
  3
PSVPSCALE
350
8A66
  3
PUCSBASE
350
8A6A
  3
PUCSORGBACK
350
8A70
  3
PUCSORGBOTTOM
350
8A6C
  3
PUCSORGFRONT
350
8A6F
  3
PUCSORGLEFT
350
8A6D
  3
PUCSORGRIGHT
350
8A6E
  3
PUCSORGTOP
350
8A6B
  3
PUCSORTHOREF
350
8A68
  3
PUCSORTHOVIEW
350
8A69
  3
STYLESHEET
350
8A5D
  3
TSTACKALIGN
350
8A5A
  3
TSTACKSIZE
350
8A5B
  3
UCSBASE
350
8A73
  3
UCSORGBACK
350
8A79
  3
UCSORGBOTTOM
350
8A75
  3
UCSORGFRONT
350
8A78
  3
UCSORGLEFT
350
8A76
  3
UCSORGRIGHT
350
8A77
  3
UCSORGTOP
350
8A74
  3
UCSORTHOREF
350
8A71
  3
UCSORTHOVIEW
350
8A72
  3
VERSIONGUID
350
8A65
  0
DICTIONARY
  5
5697
102
{ACAD_REACTORS
330
C
102
}
330
C
100
AcDbDictionary
  3
DIMASSOC
350
5698
  0
XRECORD
  5
8A7B
102
{ACAD_REACTORS
330
178
102
}
330
178
100
AcDbXrecord
340
1E
  0
XRECORD
  5
8A7A
102
{ACAD_REACTORS
330
17A
102
}
330
17A
100
AcDbXrecord
340
1A
  0
MLINESTYLE
  5
17
102
{ACAD_REACTORS
330
16
102
}
330
16
100
AcDbMlineStyle
  2
STANDARD
 70
     0
  3

 62
   256
 51
90.0
 52
90.0
 71
     2
 49
0.5
 62
   256
  6
BYLAYER
 49
-0.5
 62
   256
  6
BYLAYER
  0
ACDBPLACEHOLDER
  5
F
102
{ACAD_REACTORS
330
E
102
}
330
E
100
AcDbPlaceHolder
280
     0
  0
XRECORD
  5
8A63
102
{ACAD_REACTORS
330
8A59
102
}
330
8A59
100
AcDbXrecord
 90
        0
  0
XRECORD
  5
8A67
102
{ACAD_REACTORS
330
8A59
102
}
330
8A59
100
AcDbXrecord
1000
DSTYLE
1002
{
1070
    79
 70
     3
1070
   341
340
3B2
1070
   342
340
3B2
1002
}
  0
XRECORD
  5
8A64
102
{ACAD_REACTORS
330
8A59
102
}
330
8A59
100
AcDbXrecord
  1

  0
XRECORD
  5
8A5C
102
{ACAD_REACTORS
330
8A59
102
}
330
8A59
100
AcDbXrecord
  1

  0
XRECORD
  5
8A62
102
{ACAD_REACTORS
330
8A59
102
}
330
8A59
100
AcDbXrecord
 90
        0
  0
XRECORD
  5
8A5E
102
{ACAD_REACTORS
330
8A59
102
}
330
8A59
100
AcDbXrecord
340
19
  0
XRECORD
  5
8A61
102
{ACAD_REACTORS
330
8A59
102
}
330
8A59
100
AcDbXrecord
 90
    10781
  0
XRECORD
  5
8A5F
102
{ACAD_REACTORS
330
8A59
102
}
330
8A59
100
AcDbXrecord
340
18
  0
XRECORD
  5
8A60
102
{ACAD_REACTORS
330
8A59
102
}
330
8A59
100
AcDbXrecord
340
E
  0
XRECORD
  5
8A66
102
{ACAD_REACTORS
330
8A59
102
}
330
8A59
100
AcDbXrecord
 40
0.0
  0
XRECORD
  5
8A6A
102
{ACAD_REACTORS
330
8A59
102
}
330
8A59
100
AcDbXrecord
340
0
  0
XRECORD
  5
8A70
102
{ACAD_REACTORS
330
8A59
102
}
330
8A59
100
AcDbXrecord
 10
0.0
 20
0.0
 30
0.0
  0
XRECORD
  5
8A6C
102
{ACAD_REACTORS
330
8A59
102
}
330
8A59
100
AcDbXrecord
 10
0.0
 20
0.0
 30
0.0
  0
XRECORD
  5
8A6F
102
{ACAD_REACTORS
330
8A59
102
}
330
8A59
100
AcDbXrecord
 10
0.0
 20
0.0
 30
0.0
  0
XRECORD
  5
8A6D
102
{ACAD_REACTORS
330
8A59
102
}
330
8A59
100
AcDbXrecord
 10
0.0
 20
0.0
 30
0.0
  0
XRECORD
  5
8A6E
102
{ACAD_REACTORS
330
8A59
102
}
330
8A59
100
AcDbXrecord
 10
0.0
 20
0.0
 30
0.0
  0
XRECORD
  5
8A6B
102
{ACAD_REACTORS
330
8A59
102
}
330
8A59
100
AcDbXrecord
 10
0.0
 20
0.0
 30
0.0
  0
XRECORD
  5
8A68
102
{ACAD_REACTORS
330
8A59
102
}
330
8A59
100
AcDbXrecord
340
0
  0
XRECORD
  5
8A69
102
{ACAD_REACTORS
330
8A59
102
}
330
8A59
100
AcDbXrecord
 70
     0
  0
XRECORD
  5
8A5D
102
{ACAD_REACTORS
330
8A59
102
}
330
8A59
100
AcDbXrecord
  1
NX.ctb
  0
XRECORD
  5
8A5A
102
{ACAD_REACTORS
330
8A59
102
}
330
8A59
100
AcDbXrecord
 90
        1
  0
XRECORD
  5
8A5B
102
{ACAD_REACTORS
330
8A59
102
}
330
8A59
100
AcDbXrecord
 90
       70
  0
XRECORD
  5
8A73
102
{ACAD_REACTORS
330
8A59
102
}
330
8A59
100
AcDbXrecord
340
0
  0
XRECORD
  5
8A79
102
{ACAD_REACTORS
330
8A59
102
}
330
8A59
100
AcDbXrecord
 10
0.0
 20
0.0
 30
0.0
  0
XRECORD
  5
8A75
102
{ACAD_REACTORS
330
8A59
102
}
330
8A59
100
AcDbXrecord
 10
0.0
 20
0.0
 30
0.0
  0
XRECORD
  5
8A78
102
{ACAD_REACTORS
330
8A59
102
}
330
8A59
100
AcDbXrecord
 10
0.0
 20
0.0
 30
0.0
  0
XRECORD
  5
8A76
102
{ACAD_REACTORS
330
8A59
102
}
330
8A59
100
AcDbXrecord
 10
0.0
 20
0.0
 30
0.0
  0
XRECORD
  5
8A77
102
{ACAD_REACTORS
330
8A59
102
}
330
8A59
100
AcDbXrecord
 10
0.0
 20
0.0
 30
0.0
  0
XRECORD
  5
8A74
102
{ACAD_REACTORS
330
8A59
102
}
330
8A59
100
AcDbXrecord
 10
0.0
 20
0.0
 30
0.0
  0
XRECORD
  5
8A71
102
{ACAD_REACTORS
330
8A59
102
}
330
8A59
100
AcDbXrecord
340
0
  0
XRECORD
  5
8A72
102
{ACAD_REACTORS
330
8A59
102
}
330
8A59
100
AcDbXrecord
 70
     0
  0
XRECORD
  5
8A65
102
{ACAD_REACTORS
330
8A59
102
}
330
8A59
100
AcDbXrecord
  1
{33ABA1C3-BBDD-424D-BF0F-17D07735ED61}
  0
DICTIONARYVAR
  5
5698
102
{ACAD_REACTORS
330
5697
102
}
330
5697
100
DictionaryVariables
280
     0
  1
1
  0
ENDSEC
  0
EOF
