  0
SECTION
  2
HEADER
  9
$ACADVER
  1
AC1014
  9
$ACADMAINTVER
 70
     9
  9
$DWGCODEPAGE
  3
ANSI_932
  9
$INSBASE
 10
0.0
 20
0.0
 30
0.0
  9
$EXTMIN
 10
-99.25947328825305
 20
-371.7745972970003
 30
-0.0015258207003583
  9
$EXTMAX
 10
427.8690516550746
 20
366.7320056796381
 30
0.0000000349246037
  9
$LIMMIN
 10
-296.316999476111
 20
-370.7034300441653
  9
$LIMMAX
 10
623.3128432133979
 20
328.6261559379898
  9
$ORTHOMODE
 70
     1
  9
$REGENMODE
 70
     1
  9
$FILLMODE
 70
     1
  9
$QTEXTMODE
 70
     0
  9
$MIRRTEXT
 70
     1
  9
$DRAGMODE
 70
     2
  9
$LTSCALE
 40
5.0
  9
$OSMODE
 70
    47
  9
$ATTMODE
 70
     1
  9
$TEXTSIZE
 40
5.0
  9
$TRACEWID
 40
0.05
  9
$TEXTSTYLE
  7
STANDARD1
  9
$CLAYER
  8
30
  9
$CELTYPE
  6
CONTINUOUS
  9
$CECOLOR
 62
   256
  9
$CELTSCALE
 40
1.0
  9
$DELOBJ
 70
     1
  9
$DISPSILH
 70
     0
  9
$DIMSCALE
 40
1.0
  9
$DIMASZ
 40
2.0
  9
$DIMEXO
 40
1.0
  9
$DIMDLI
 40
0.5
  9
$DIMRND
 40
0.0
  9
$DIMDLE
 40
0.0
  9
$DIMEXE
 40
0.5
  9
$DIMTP
 40
0.0
  9
$DIMTM
 40
0.0
  9
$DIMTXT
 40
4.0
  9
$DIMCEN
 40
0.09
  9
$DIMTSZ
 40
0.0
  9
$DIMTOL
 70
     0
  9
$DIMLIM
 70
     0
  9
$DIMTIH
 70
     0
  9
$DIMTOH
 70
     1
  9
$DIMSE1
 70
     0
  9
$DIMSE2
 70
     0
  9
$DIMTAD
 70
     3
  9
$DIMZIN
 70
    12
  9
$DIMBLK
  1
OPEN
  9
$DIMASO
 70
     1
  9
$DIMSHO
 70
     1
  9
$DIMPOST
  1

  9
$DIMAPOST
  1

  9
$DIMALT
 70
     0
  9
$DIMALTD
 70
     2
  9
$DIMALTF
 40
25.4
  9
$DIMLFAC
 40
1.0
  9
$DIMTOFL
 70
     0
  9
$DIMTVP
 40
0.0
  9
$DIMTIX
 70
     0
  9
$DIMSOXD
 70
     0
  9
$DIMSAH
 70
     0
  9
$DIMBLK1
  1

  9
$DIMBLK2
  1

  9
$DIMSTYLE
  2
STANDARD
  9
$DIMCLRD
 70
     0
  9
$DIMCLRE
 70
     0
  9
$DIMCLRT
 70
     0
  9
$DIMTFAC
 40
1.0
  9
$DIMGAP
 40
1.0
  9
$DIMJUST
 70
     0
  9
$DIMSD1
 70
     0
  9
$DIMSD2
 70
     0
  9
$DIMTOLJ
 70
     1
  9
$DIMTZIN
 70
     0
  9
$DIMALTZ
 70
     0
  9
$DIMALTTZ
 70
     0
  9
$DIMFIT
 70
     3
  9
$DIMUPT
 70
     0
  9
$DIMUNIT
 70
     2
  9
$DIMDEC
 70
     1
  9
$DIMTDEC
 70
     1
  9
$DIMALTU
 70
     2
  9
$DIMALTTD
 70
     2
  9
$DIMTXSTY
  7
STANDARD
  9
$DIMAUNIT
 70
     0
  9
$LUNITS
 70
     2
  9
$LUPREC
 70
     4
  9
$SKETCHINC
 40
0.1
  9
$FILLETRAD
 40
0.0
  9
$AUNITS
 70
     0
  9
$AUPREC
 70
     0
  9
$MENU
  1
.
  9
$ELEVATION
 40
0.0
  9
$PELEVATION
 40
0.0
  9
$THICKNESS
 40
0.0
  9
$LIMCHECK
 70
     0
  9
$BLIPMODE
 70
     0
  9
$CHAMFERA
 40
0.0
  9
$CHAMFERB
 40
0.0
  9
$CHAMFERC
 40
0.0
  9
$CHAMFERD
 40
0.0
  9
$SKPOLY
 70
     0
  9
$TDCREATE
 40
2452286.555658657
  9
$TDUPDATE
 40
2453059.591715486
  9
$TDINDWG
 40
1.2317484606
  9
$TDUSRTIMER
 40
1.2317475463
  9
$USRTIMER
 70
     1
  9
$ANGBASE
 50
0.0
  9
$ANGDIR
 70
     0
  9
$PDMODE
 70
     0
  9
$PDSIZE
 40
0.0
  9
$PLINEWID
 40
0.0
  9
$COORDS
 70
     0
  9
$SPLFRAME
 70
     0
  9
$SPLINETYPE
 70
     6
  9
$SPLINESEGS
 70
     8
  9
$ATTDIA
 70
     0
  9
$ATTREQ
 70
     1
  9
$HANDLING
 70
 22529
  9
$HANDSEED
  5
7DA1
  9
$SURFTAB1
 70
     6
  9
$SURFTAB2
 70
     6
  9
$SURFTYPE
 70
     6
  9
$SURFU
 70
     6
  9
$SURFV
 70
     6
  9
$UCSNAME
  2

  9
$UCSORG
 10
0.0
 20
0.0
 30
0.0
  9
$UCSXDIR
 10
1.0
 20
0.0
 30
0.0
  9
$UCSYDIR
 10
0.0
 20
1.0
 30
0.0
  9
$PUCSNAME
  2

  9
$PUCSORG
 10
0.0
 20
0.0
 30
0.0
  9
$PUCSXDIR
 10
1.0
 20
0.0
 30
0.0
  9
$PUCSYDIR
 10
0.0
 20
1.0
 30
0.0
  9
$USERI1
 70
     0
  9
$USERI2
 70
     0
  9
$USERI3
 70
     0
  9
$USERI4
 70
     0
  9
$USERI5
 70
     0
  9
$USERR1
 40
0.0
  9
$USERR2
 40
0.0
  9
$USERR3
 40
0.0
  9
$USERR4
 40
0.0
  9
$USERR5
 40
0.0
  9
$WORLDVIEW
 70
     1
  9
$SHADEDGE
 70
     3
  9
$SHADEDIF
 70
    70
  9
$TILEMODE
 70
     1
  9
$MAXACTVP
 70
    48
  9
$PINSBASE
 10
0.0
 20
0.0
 30
0.0
  9
$PLIMCHECK
 70
     0
  9
$PEXTMIN
 10
4.273573
 20
5.205245999999998
 30
0.0
  9
$PEXTMAX
 10
194.610095
 20
283.0697009999996
 30
0.0
  9
$PLIMMIN
 10
-5.873749
 20
-5.87375
  9
$PLIMMAX
 10
204.099579
 20
291.1369009999999
  9
$UNITMODE
 70
     0
  9
$VISRETAIN
 70
     1
  9
$PLINEGEN
 70
     0
  9
$PSLTSCALE
 70
     1
  9
$TREEDEPTH
 70
  3020
  9
$PICKSTYLE
 70
     1
  9
$CMLSTYLE
  2
STANDARD
  9
$CMLJUST
 70
     0
  9
$CMLSCALE
 40
1.0
  9
$PROXYGRAPHICS
 70
     1
  9
$MEASUREMENT
 70
     0
  0
ENDSEC
  0
SECTION
  2
CLASSES
  0
CLASS
  1
ACDBDICTIONARYWDFLT
  2
AcDbDictionaryWithDefault
  3
AutoCAD 2000
 90
        0
280
     0
281
     0
  0
CLASS
  1
ACDBPLACEHOLDER
  2
AcDbPlaceHolder
  3
AutoCAD 2000
 90
        0
280
     0
281
     0
  0
CLASS
  1
LAYOUT
  2
AcDbLayout
  3
AutoCAD 2000
 90
        0
280
     0
281
     0
  0
CLASS
  1
LONG_TRANSACTION
  2
AcDbLongTransaction
  3
AutoCAD 2000
 90
        0
280
     0
281
     0
  0
CLASS
  1
LWPOLYLINE
  2
AcDbPolyline
  3
AutoCAD 2000
 90
        0
280
     0
281
     1
  0
CLASS
  1
HATCH
  2
AcDbHatch
  3
AutoCAD 2000
 90
        0
280
     0
281
     1
  0
CLASS
  1
XRECORD
  2
AcDbXrecord
  3
AutoCAD 2000
 90
        0
280
     0
281
     0
  0
CLASS
  1
LONG_TRANSACTION
  2
AcDbLongTransaction
  3
AutoCAD 2000
 90
        0
280
     0
281
     0
  0
CLASS
  1
LWPOLYLINE
  2
AcDbPolyline
  3
AutoCAD 2000
 90
        0
280
     0
281
     1
  0
CLASS
  1
HATCH
  2
AcDbHatch
  3
AutoCAD 2000
 90
        0
280
     0
281
     1
  0
CLASS
  1
XRECORD
  2
AcDbXrecord
  3
AutoCAD 2000
 90
        0
280
     0
281
     0
  0
CLASS
  1
LONG_TRANSACTION
  2
AcDbLongTransaction
  3
AutoCAD 2000
 90
        0
280
     0
281
     0
  0
CLASS
  1
LWPOLYLINE
  2
AcDbPolyline
  3
AutoCAD 2000
 90
        0
280
     0
281
     1
  0
CLASS
  1
HATCH
  2
AcDbHatch
  3
AutoCAD 2000
 90
        0
280
     0
281
     1
  0
CLASS
  1
XRECORD
  2
AcDbXrecord
  3
AutoCAD 2000
 90
        0
280
     0
281
     0
  0
CLASS
  1
LONG_TRANSACTION
  2
AcDbLongTransaction
  3
AutoCAD 2000
 90
        0
280
     0
281
     0
  0
CLASS
  1
LWPOLYLINE
  2
AcDbPolyline
  3
AutoCAD 2000
 90
        0
280
     0
281
     1
  0
CLASS
  1
HATCH
  2
AcDbHatch
  3
AutoCAD 2000
 90
        0
280
     0
281
     1
  0
CLASS
  1
XRECORD
  2
AcDbXrecord
  3
AutoCAD 2000
 90
        0
280
     0
281
     0
  0
CLASS
  1
LONG_TRANSACTION
  2
AcDbLongTransaction
  3
AutoCAD 2000
 90
        0
280
     0
281
     0
  0
CLASS
  1
LWPOLYLINE
  2
AcDbPolyline
  3
AutoCAD 2000
 90
        0
280
     0
281
     1
  0
CLASS
  1
HATCH
  2
AcDbHatch
  3
AutoCAD 2000
 90
        0
280
     0
281
     1
  0
CLASS
  1
XRECORD
  2
AcDbXrecord
  3
AutoCAD 2000
 90
        0
280
     0
281
     0
  0
CLASS
  1
LONG_TRANSACTION
  2
AcDbLongTransaction
  3
AutoCAD 2000
 90
        0
280
     0
281
     0
  0
CLASS
  1
LWPOLYLINE
  2
AcDbPolyline
  3
AutoCAD 2000
 90
        0
280
     0
281
     1
  0
CLASS
  1
HATCH
  2
AcDbHatch
  3
AutoCAD 2000
 90
        0
280
     0
281
     1
  0
CLASS
  1
XRECORD
  2
AcDbXrecord
  3
AutoCAD 2000
 90
        0
280
     0
281
     0
  0
CLASS
  1
LONG_TRANSACTION
  2
AcDbLongTransaction
  3
AutoCAD 2000
 90
        0
280
     0
281
     0
  0
CLASS
  1
LWPOLYLINE
  2
AcDbPolyline
  3
AutoCAD 2000
 90
        0
280
     0
281
     1
  0
CLASS
  1
HATCH
  2
AcDbHatch
  3
AutoCAD 2000
 90
        0
280
     0
281
     1
  0
CLASS
  1
XRECORD
  2
AcDbXrecord
  3
AutoCAD 2000
 90
        0
280
     0
281
     0
  0
CLASS
  1
LONG_TRANSACTION
  2
AcDbLongTransaction
  3
AutoCAD 2000
 90
        0
280
     0
281
     0
  0
CLASS
  1
LWPOLYLINE
  2
AcDbPolyline
  3
AutoCAD 2000
 90
        0
280
     0
281
     1
  0
CLASS
  1
HATCH
  2
AcDbHatch
  3
AutoCAD 2000
 90
        0
280
     0
281
     1
  0
CLASS
  1
XRECORD
  2
AcDbXrecord
  3
AutoCAD 2000
 90
        0
280
     0
281
     0
  0
CLASS
  1
LONG_TRANSACTION
  2
AcDbLongTransaction
  3
AutoCAD 2000
 90
        0
280
     0
281
     0
  0
CLASS
  1
LWPOLYLINE
  2
AcDbPolyline
  3
AutoCAD 2000
 90
        0
280
     0
281
     1
  0
CLASS
  1
HATCH
  2
AcDbHatch
  3
AutoCAD 2000
 90
        0
280
     0
281
     1
  0
CLASS
  1
XRECORD
  2
AcDbXrecord
  3
AutoCAD 2000
 90
        0
280
     0
281
     0
  0
CLASS
  1
LONG_TRANSACTION
  2
AcDbLongTransaction
  3
AutoCAD 2000
 90
        0
280
     0
281
     0
  0
CLASS
  1
LWPOLYLINE
  2
AcDbPolyline
  3
AutoCAD 2000
 90
        0
280
     0
281
     1
  0
CLASS
  1
HATCH
  2
AcDbHatch
  3
AutoCAD 2000
 90
        0
280
     0
281
     1
  0
CLASS
  1
XRECORD
  2
AcDbXrecord
  3
AutoCAD 2000
 90
        0
280
     0
281
     0
  0
CLASS
  1
LONG_TRANSACTION
  2
AcDbLongTransaction
  3
AutoCAD 2000
 90
        0
280
     0
281
     0
  0
CLASS
  1
LWPOLYLINE
  2
AcDbPolyline
  3
AutoCAD 2000
 90
        0
280
     0
281
     1
  0
CLASS
  1
HATCH
  2
AcDbHatch
  3
AutoCAD 2000
 90
        0
280
     0
281
     1
  0
CLASS
  1
XRECORD
  2
AcDbXrecord
  3
AutoCAD 2000
 90
        0
280
     0
281
     0
  0
CLASS
  1
LONG_TRANSACTION
  2
AcDbLongTransaction
  3
AutoCAD 2000
 90
        0
280
     0
281
     0
  0
CLASS
  1
LWPOLYLINE
  2
AcDbPolyline
  3
AutoCAD 2000
 90
        0
280
     0
281
     1
  0
CLASS
  1
HATCH
  2
AcDbHatch
  3
AutoCAD 2000
 90
        0
280
     0
281
     1
  0
CLASS
  1
XRECORD
  2
AcDbXrecord
  3
AutoCAD 2000
 90
        0
280
     0
281
     0
  0
CLASS
  1
LONG_TRANSACTION
  2
AcDbLongTransaction
  3
AutoCAD 2000
 90
        0
280
     0
281
     0
  0
CLASS
  1
LWPOLYLINE
  2
AcDbPolyline
  3
AutoCAD 2000
 90
        0
280
     0
281
     1
  0
CLASS
  1
HATCH
  2
AcDbHatch
  3
AutoCAD 2000
 90
        0
280
     0
281
     1
  0
CLASS
  1
XRECORD
  2
AcDbXrecord
  3
AutoCAD 2000
 90
        0
280
     0
281
     0
  0
CLASS
  1
LONG_TRANSACTION
  2
AcDbLongTransaction
  3
AutoCAD 2000
 90
        0
280
     0
281
     0
  0
CLASS
  1
LWPOLYLINE
  2
AcDbPolyline
  3
AutoCAD 2000
 90
        0
280
     0
281
     1
  0
CLASS
  1
HATCH
  2
AcDbHatch
  3
AutoCAD 2000
 90
        0
280
     0
281
     1
  0
CLASS
  1
XRECORD
  2
AcDbXrecord
  3
AutoCAD 2000
 90
        0
280
     0
281
     0
  0
CLASS
  1
LONG_TRANSACTION
  2
AcDbLongTransaction
  3
AutoCAD 2000
 90
        0
280
     0
281
     0
  0
CLASS
  1
LWPOLYLINE
  2
AcDbPolyline
  3
AutoCAD 2000
 90
        0
280
     0
281
     1
  0
CLASS
  1
HATCH
  2
AcDbHatch
  3
AutoCAD 2000
 90
        0
280
     0
281
     1
  0
CLASS
  1
XRECORD
  2
AcDbXrecord
  3
AutoCAD 2000
 90
        0
280
     0
281
     0
  0
CLASS
  1
LONG_TRANSACTION
  2
AcDbLongTransaction
  3
AutoCAD 2000
 90
        0
280
     0
281
     0
  0
CLASS
  1
LWPOLYLINE
  2
AcDbPolyline
  3
AutoCAD 2000
 90
        0
280
     0
281
     1
  0
CLASS
  1
HATCH
  2
AcDbHatch
  3
AutoCAD 2000
 90
        0
280
     0
281
     1
  0
CLASS
  1
XRECORD
  2
AcDbXrecord
  3
AutoCAD 2000
 90
        0
280
     0
281
     0
  0
CLASS
  1
LONG_TRANSACTION
  2
AcDbLongTransaction
  3
AutoCAD 2000
 90
        0
280
     0
281
     0
  0
CLASS
  1
LWPOLYLINE
  2
AcDbPolyline
  3
AutoCAD 2000
 90
        0
280
     0
281
     1
  0
CLASS
  1
HATCH
  2
AcDbHatch
  3
AutoCAD 2000
 90
        0
280
     0
281
     1
  0
CLASS
  1
XRECORD
  2
AcDbXrecord
  3
AutoCAD 2000
 90
        0
280
     0
281
     0
  0
CLASS
  1
LONG_TRANSACTION
  2
AcDbLongTransaction
  3
AutoCAD 2000
 90
        0
280
     0
281
     0
  0
CLASS
  1
LWPOLYLINE
  2
AcDbPolyline
  3
AutoCAD 2000
 90
        0
280
     0
281
     1
  0
CLASS
  1
HATCH
  2
AcDbHatch
  3
AutoCAD 2000
 90
        0
280
     0
281
     1
  0
CLASS
  1
XRECORD
  2
AcDbXrecord
  3
AutoCAD 2000
 90
        0
280
     0
281
     0
  0
CLASS
  1
LONG_TRANSACTION
  2
AcDbLongTransaction
  3
AutoCAD 2000
 90
        0
280
     0
281
     0
  0
CLASS
  1
LWPOLYLINE
  2
AcDbPolyline
  3
AutoCAD 2000
 90
        0
280
     0
281
     1
  0
CLASS
  1
HATCH
  2
AcDbHatch
  3
AutoCAD 2000
 90
        0
280
     0
281
     1
  0
CLASS
  1
XRECORD
  2
AcDbXrecord
  3
AutoCAD 2000
 90
        0
280
     0
281
     0
  0
CLASS
  1
LONG_TRANSACTION
  2
AcDbLongTransaction
  3
AutoCAD 2000
 90
        0
280
     0
281
     0
  0
CLASS
  1
LWPOLYLINE
  2
AcDbPolyline
  3
AutoCAD 2000
 90
        0
280
     0
281
     1
  0
CLASS
  1
HATCH
  2
AcDbHatch
  3
AutoCAD 2000
 90
        0
280
     0
281
     1
  0
CLASS
  1
XRECORD
  2
AcDbXrecord
  3
AutoCAD 2000
 90
        0
280
     0
281
     0
  0
CLASS
  1
LONG_TRANSACTION
  2
AcDbLongTransaction
  3
AutoCAD 2000
 90
        0
280
     0
281
     0
  0
CLASS
  1
LWPOLYLINE
  2
AcDbPolyline
  3
AutoCAD 2000
 90
        0
280
     0
281
     1
  0
CLASS
  1
HATCH
  2
AcDbHatch
  3
AutoCAD 2000
 90
        0
280
     0
281
     1
  0
CLASS
  1
XRECORD
  2
AcDbXrecord
  3
AutoCAD 2000
 90
        0
280
     0
281
     0
  0
CLASS
  1
LONG_TRANSACTION
  2
AcDbLongTransaction
  3
AutoCAD 2000
 90
        0
280
     0
281
     0
  0
CLASS
  1
LWPOLYLINE
  2
AcDbPolyline
  3
AutoCAD 2000
 90
        0
280
     0
281
     1
  0
CLASS
  1
HATCH
  2
AcDbHatch
  3
AutoCAD 2000
 90
        0
280
     0
281
     1
  0
CLASS
  1
XRECORD
  2
AcDbXrecord
  3
AutoCAD 2000
 90
        0
280
     0
281
     0
  0
CLASS
  1
LONG_TRANSACTION
  2
AcDbLongTransaction
  3
AutoCAD 2000
 90
        0
280
     0
281
     0
  0
CLASS
  1
LWPOLYLINE
  2
AcDbPolyline
  3
AutoCAD 2000
 90
        0
280
     0
281
     1
  0
CLASS
  1
HATCH
  2
AcDbHatch
  3
AutoCAD 2000
 90
        0
280
     0
281
     1
  0
CLASS
  1
XRECORD
  2
AcDbXrecord
  3
AutoCAD 2000
 90
        0
280
     0
281
     0
  0
CLASS
  1
LONG_TRANSACTION
  2
AcDbLongTransaction
  3
AutoCAD 2000
 90
        0
280
     0
281
     0
  0
CLASS
  1
LWPOLYLINE
  2
AcDbPolyline
  3
AutoCAD 2000
 90
        0
280
     0
281
     1
  0
CLASS
  1
HATCH
  2
AcDbHatch
  3
AutoCAD 2000
 90
        0
280
     0
281
     1
  0
CLASS
  1
XRECORD
  2
AcDbXrecord
  3
AutoCAD 2000
 90
        0
280
     0
281
     0
  0
CLASS
  1
LONG_TRANSACTION
  2
AcDbLongTransaction
  3
AutoCAD 2000
 90
        0
280
     0
281
     0
  0
CLASS
  1
LWPOLYLINE
  2
AcDbPolyline
  3
AutoCAD 2000
 90
        0
280
     0
281
     1
  0
CLASS
  1
HATCH
  2
AcDbHatch
  3
AutoCAD 2000
 90
        0
280
     0
281
     1
  0
CLASS
  1
XRECORD
  2
AcDbXrecord
  3
AutoCAD 2000
 90
        0
280
     0
281
     0
  0
CLASS
  1
LONG_TRANSACTION
  2
AcDbLongTransaction
  3
AutoCAD 2000
 90
        0
280
     0
281
     0
  0
CLASS
  1
LWPOLYLINE
  2
AcDbPolyline
  3
AutoCAD 2000
 90
        0
280
     0
281
     1
  0
CLASS
  1
HATCH
  2
AcDbHatch
  3
AutoCAD 2000
 90
        0
280
     0
281
     1
  0
CLASS
  1
XRECORD
  2
AcDbXrecord
  3
AutoCAD 2000
 90
        0
280
     0
281
     0
  0
CLASS
  1
LONG_TRANSACTION
  2
AcDbLongTransaction
  3
AutoCAD 2000
 90
        0
280
     0
281
     0
  0
CLASS
  1
LWPOLYLINE
  2
AcDbPolyline
  3
AutoCAD 2000
 90
        0
280
     0
281
     1
  0
CLASS
  1
HATCH
  2
AcDbHatch
  3
AutoCAD 2000
 90
        0
280
     0
281
     1
  0
CLASS
  1
XRECORD
  2
AcDbXrecord
  3
AutoCAD 2000
 90
        0
280
     0
281
     0
  0
CLASS
  1
LONG_TRANSACTION
  2
AcDbLongTransaction
  3
AutoCAD 2000
 90
        0
280
     0
281
     0
  0
CLASS
  1
LWPOLYLINE
  2
AcDbPolyline
  3
AutoCAD 2000
 90
        0
280
     0
281
     1
  0
CLASS
  1
HATCH
  2
AcDbHatch
  3
AutoCAD 2000
 90
        0
280
     0
281
     1
  0
CLASS
  1
XRECORD
  2
AcDbXrecord
  3
AutoCAD 2000
 90
        0
280
     0
281
     0
  0
CLASS
  1
LONG_TRANSACTION
  2
AcDbLongTransaction
  3
AutoCAD 2000
 90
        0
280
     0
281
     0
  0
CLASS
  1
LWPOLYLINE
  2
AcDbPolyline
  3
AutoCAD 2000
 90
        0
280
     0
281
     1
  0
CLASS
  1
HATCH
  2
AcDbHatch
  3
AutoCAD 2000
 90
        0
280
     0
281
     1
  0
CLASS
  1
XRECORD
  2
AcDbXrecord
  3
AutoCAD 2000
 90
        0
280
     0
281
     0
  0
CLASS
  1
LONG_TRANSACTION
  2
AcDbLongTransaction
  3
AutoCAD 2000
 90
        0
280
     0
281
     0
  0
CLASS
  1
LWPOLYLINE
  2
AcDbPolyline
  3
AutoCAD 2000
 90
        0
280
     0
281
     1
  0
CLASS
  1
HATCH
  2
AcDbHatch
  3
AutoCAD 2000
 90
        0
280
     0
281
     1
  0
CLASS
  1
XRECORD
  2
AcDbXrecord
  3
AutoCAD 2000
 90
        0
280
     0
281
     0
  0
CLASS
  1
LONG_TRANSACTION
  2
AcDbLongTransaction
  3
AutoCAD 2000
 90
        0
280
     0
281
     0
  0
CLASS
  1
LWPOLYLINE
  2
AcDbPolyline
  3
AutoCAD 2000
 90
        0
280
     0
281
     1
  0
CLASS
  1
HATCH
  2
AcDbHatch
  3
AutoCAD 2000
 90
        0
280
     0
281
     1
  0
CLASS
  1
XRECORD
  2
AcDbXrecord
  3
AutoCAD 2000
 90
        0
280
     0
281
     0
  0
CLASS
  1
LONG_TRANSACTION
  2
AcDbLongTransaction
  3
AutoCAD 2000
 90
        0
280
     0
281
     0
  0
CLASS
  1
LWPOLYLINE
  2
AcDbPolyline
  3
AutoCAD 2000
 90
        0
280
     0
281
     1
  0
CLASS
  1
HATCH
  2
AcDbHatch
  3
AutoCAD 2000
 90
        0
280
     0
281
     1
  0
CLASS
  1
XRECORD
  2
AcDbXrecord
  3
AutoCAD 2000
 90
        0
280
     0
281
     0
  0
CLASS
  1
LONG_TRANSACTION
  2
AcDbLongTransaction
  3
AutoCAD 2000
 90
        0
280
     0
281
     0
  0
CLASS
  1
LWPOLYLINE
  2
AcDbPolyline
  3
AutoCAD 2000
 90
        0
280
     0
281
     1
  0
CLASS
  1
HATCH
  2
AcDbHatch
  3
AutoCAD 2000
 90
        0
280
     0
281
     1
  0
CLASS
  1
XRECORD
  2
AcDbXrecord
  3
AutoCAD 2000
 90
        0
280
     0
281
     0
  0
CLASS
  1
DICTIONARYVAR
  2
AcDbDictionaryVar
  3
AutoCAD 2000
 90
        0
280
     0
281
     0
  0
CLASS
  1
LONG_TRANSACTION
  2
AcDbLongTransaction
  3
AutoCAD 2000
 90
        0
280
     0
281
     0
  0
CLASS
  1
LWPOLYLINE
  2
AcDbPolyline
  3
AutoCAD 2000
 90
        0
280
     0
281
     1
  0
CLASS
  1
HATCH
  2
AcDbHatch
  3
AutoCAD 2000
 90
        0
280
     0
281
     1
  0
CLASS
  1
XRECORD
  2
AcDbXrecord
  3
AutoCAD 2000
 90
        0
280
     0
281
     0
  0
CLASS
  1
LONG_TRANSACTION
  2
AcDbLongTransaction
  3
AutoCAD 2000
 90
        0
280
     0
281
     0
  0
CLASS
  1
LWPOLYLINE
  2
AcDbPolyline
  3
AutoCAD 2000
 90
        0
280
     0
281
     1
  0
CLASS
  1
HATCH
  2
AcDbHatch
  3
AutoCAD 2000
 90
        0
280
     0
281
     1
  0
CLASS
  1
XRECORD
  2
AcDbXrecord
  3
AutoCAD 2000
 90
        0
280
     0
281
     0
  0
CLASS
  1
LONG_TRANSACTION
  2
AcDbLongTransaction
  3
AutoCAD 2000
 90
        0
280
     0
281
     0
  0
CLASS
  1
LWPOLYLINE
  2
AcDbPolyline
  3
AutoCAD 2000
 90
        0
280
     0
281
     1
  0
CLASS
  1
HATCH
  2
AcDbHatch
  3
AutoCAD 2000
 90
        0
280
     0
281
     1
  0
CLASS
  1
XRECORD
  2
AcDbXrecord
  3
AutoCAD 2000
 90
        0
280
     0
281
     0
  0
CLASS
  1
LONG_TRANSACTION
  2
AcDbLongTransaction
  3
AutoCAD 2000
 90
        0
280
     0
281
     0
  0
CLASS
  1
LWPOLYLINE
  2
AcDbPolyline
  3
AutoCAD 2000
 90
        0
280
     0
281
     1
  0
CLASS
  1
HATCH
  2
AcDbHatch
  3
AutoCAD 2000
 90
        0
280
     0
281
     1
  0
CLASS
  1
XRECORD
  2
AcDbXrecord
  3
AutoCAD 2000
 90
        0
280
     0
281
     0
  0
CLASS
  1
LONG_TRANSACTION
  2
AcDbLongTransaction
  3
AutoCAD 2000
 90
        0
280
     0
281
     0
  0
CLASS
  1
LWPOLYLINE
  2
AcDbPolyline
  3
AutoCAD 2000
 90
        0
280
     0
281
     1
  0
CLASS
  1
HATCH
  2
AcDbHatch
  3
AutoCAD 2000
 90
        0
280
     0
281
     1
  0
CLASS
  1
XRECORD
  2
AcDbXrecord
  3
AutoCAD 2000
 90
        0
280
     0
281
     0
  0
CLASS
  1
LONG_TRANSACTION
  2
AcDbLongTransaction
  3
AutoCAD 2000
 90
        0
280
     0
281
     0
  0
CLASS
  1
LWPOLYLINE
  2
AcDbPolyline
  3
AutoCAD 2000
 90
        0
280
     0
281
     1
  0
CLASS
  1
HATCH
  2
AcDbHatch
  3
AutoCAD 2000
 90
        0
280
     0
281
     1
  0
CLASS
  1
XRECORD
  2
AcDbXrecord
  3
AutoCAD 2000
 90
        0
280
     0
281
     0
  0
CLASS
  1
LONG_TRANSACTION
  2
AcDbLongTransaction
  3
AutoCAD 2000
 90
        0
280
     0
281
     0
  0
CLASS
  1
LWPOLYLINE
  2
AcDbPolyline
  3
AutoCAD 2000
 90
        0
280
     0
281
     1
  0
CLASS
  1
HATCH
  2
AcDbHatch
  3
AutoCAD 2000
 90
        0
280
     0
281
     1
  0
CLASS
  1
XRECORD
  2
AcDbXrecord
  3
AutoCAD 2000
 90
        0
280
     0
281
     0
  0
CLASS
  1
LONG_TRANSACTION
  2
AcDbLongTransaction
  3
AutoCAD 2000
 90
        0
280
     0
281
     0
  0
CLASS
  1
LWPOLYLINE
  2
AcDbPolyline
  3
AutoCAD 2000
 90
        0
280
     0
281
     1
  0
CLASS
  1
HATCH
  2
AcDbHatch
  3
AutoCAD 2000
 90
        0
280
     0
281
     1
  0
CLASS
  1
XRECORD
  2
AcDbXrecord
  3
AutoCAD 2000
 90
        0
280
     0
281
     0
  0
CLASS
  1
LONG_TRANSACTION
  2
AcDbLongTransaction
  3
AutoCAD 2000
 90
        0
280
     0
281
     0
  0
CLASS
  1
LWPOLYLINE
  2
AcDbPolyline
  3
AutoCAD 2000
 90
        0
280
     0
281
     1
  0
CLASS
  1
HATCH
  2
AcDbHatch
  3
AutoCAD 2000
 90
        0
280
     0
281
     1
  0
CLASS
  1
XRECORD
  2
AcDbXrecord
  3
AutoCAD 2000
 90
        0
280
     0
281
     0
  0
CLASS
  1
LONG_TRANSACTION
  2
AcDbLongTransaction
  3
AutoCAD 2000
 90
        0
280
     0
281
     0
  0
CLASS
  1
LWPOLYLINE
  2
AcDbPolyline
  3
AutoCAD 2000
 90
        0
280
     0
281
     1
  0
CLASS
  1
HATCH
  2
AcDbHatch
  3
AutoCAD 2000
 90
        0
280
     0
281
     1
  0
CLASS
  1
XRECORD
  2
AcDbXrecord
  3
AutoCAD 2000
 90
        0
280
     0
281
     0
  0
ENDSEC
  0
SECTION
  2
TABLES
  0
TABLE
  2
VPORT
  5
8
330
0
100
AcDbSymbolTable
 70
     2
  0
VPORT
  5
7D7D
330
8
100
AcDbSymbolTableRecord
100
AcDbViewportTableRecord
  2
*ACTIVE
 70
     0
 10
0.0
 20
0.0
 11
1.0
 21
1.0
 12
164.3047891834107
 22
-2.521295808681088
 13
0.0
 23
0.0
 14
1.0
 24
1.0
 15
10.0
 25
10.0
 16
0.0
 26
0.0
 36
1.0
 17
0.0
 27
0.0
 37
0.0
 40
744.360023872094
 41
1.593915343915343
 42
50.0
 43
0.0
 44
0.0
 50
0.0
 51
0.0
 71
     0
 72
   100
 73
     1
 74
     1
 75
     0
 76
     0
 77
     0
 78
     0
  0
ENDTAB
  0
TABLE
  2
LTYPE
  5
5
330
0
100
AcDbSymbolTable
 70
     7
  0
LTYPE
  5
13
330
5
100
AcDbSymbolTableRecord
100
AcDbLinetypeTableRecord
  2
BYBLOCK
 70
     0
  3

 72
    65
 73
     0
 40
0.0
  0
LTYPE
  5
14
330
5
100
AcDbSymbolTableRecord
100
AcDbLinetypeTableRecord
  2
BYLAYER
 70
     0
  3

 72
    65
 73
     0
 40
0.0
  0
LTYPE
  5
15
330
5
100
AcDbSymbolTableRecord
100
AcDbLinetypeTableRecord
  2
CONTINUOUS
 70
     0
  3
Solid line
 72
    65
 73
     0
 40
0.0
  0
LTYPE
  5
22
330
5
100
AcDbSymbolTableRecord
100
AcDbLinetypeTableRecord
  2
CONTINOUS
 70
     0
  3
Solid line
 72
    65
 73
     0
 40
0.0
  0
LTYPE
  5
23
330
5
100
AcDbSymbolTableRecord
100
AcDbLinetypeTableRecord
  2
DASHED
 70
     0
  3
__ __ __ __ __ __ __ __ __ __ __ __ __ __ __
 72
    65
 73
     2
 40
0.75
 49
0.5
 74
     0
 49
-0.25
 74
     0
  0
LTYPE
  5
24
330
5
100
AcDbSymbolTableRecord
100
AcDbLinetypeTableRecord
  2
DASHDOT
 70
     0
  3
__ . __ . __ . __ . __ . __ . __ . __ . __ . __
 72
    65
 73
     4
 40
1.0
 49
0.5
 74
     0
 49
-0.25
 74
     0
 49
0.0
 74
     0
 49
-0.25
 74
     0
  0
LTYPE
  5
4C47
330
5
100
AcDbSymbolTableRecord
100
AcDbLinetypeTableRecord
  2
DIVIDE
 70
     0
  3
Divide ____ . . ____ . . ____ . . ____ . . ____
 72
    65
 73
     6
 40
1.25
 49
0.5
 74
     0
 49
-0.25
 74
     0
 49
0.0
 74
     0
 49
-0.25
 74
     0
 49
0.0
 74
     0
 49
-0.25
 74
     0
  0
LTYPE
  5
6A3B
330
5
100
AcDbSymbolTableRecord
100
AcDbLinetypeTableRecord
  2
CENTER
 70
     0
  3
Center ____ _ ____ _ ____ _ ____ _ ____ _ ____
 72
    65
 73
     4
 40
50.8
 49
31.75
 74
     0
 49
-6.349999999999997
 74
     0
 49
6.349999999999997
 74
     0
 49
-6.349999999999997
 74
     0
  0
LTYPE
  5
6F43
330
5
100
AcDbSymbolTableRecord
100
AcDbLinetypeTableRecord
  2
PHANTOM
 70
     0
  3
Phantom ______  __  __  ______  __  __  ______
 72
    65
 73
     6
 40
63.5
 49
31.75
 74
     0
 49
-6.349999999999997
 74
     0
 49
6.349999999999997
 74
     0
 49
-6.349999999999997
 74
     0
 49
6.349999999999997
 74
     0
 49
-6.349999999999997
 74
     0
  0
ENDTAB
  0
TABLE
  2
LAYER
  5
2
330
0
100
AcDbSymbolTable
 70
    16
  0
LAYER
  5
10
330
2
100
AcDbSymbolTableRecord
100
AcDbLayerTableRecord
  2
0
 70
     0
 62
     7
  6
CONTINOUS
  0
LAYER
  5
2F
330
2
100
AcDbSymbolTableRecord
100
AcDbLayerTableRecord
  2
10
 70
     0
 62
     4
  6
CONTINOUS
  0
LAYER
  5
31
330
2
100
AcDbSymbolTableRecord
100
AcDbLayerTableRecord
  2
12
 70
     0
 62
     3
  6
CONTINOUS
  0
LAYER
  5
35
330
2
100
AcDbSymbolTableRecord
100
AcDbLayerTableRecord
  2
16
 70
     4
 62
     6
  6
DASHDOT
  0
LAYER
  5
38
330
2
100
AcDbSymbolTableRecord
100
AcDbLayerTableRecord
  2
19
 70
     0
 62
     7
  6
CONTINOUS
  0
LAYER
  5
3C
330
2
100
AcDbSymbolTableRecord
100
AcDbLayerTableRecord
  2
11
 70
     0
 62
     1
  6
CONTINOUS
  0
LAYER
  5
3D
330
2
100
AcDbSymbolTableRecord
100
AcDbLayerTableRecord
  2
24
 70
     0
 62
     2
  6
CONTINOUS
  0
LAYER
  5
3A2
330
2
100
AcDbSymbolTableRecord
100
AcDbLayerTableRecord
  2
30
 70
     0
 62
     9
  6
CONTINUOUS
  0
LAYER
  5
3A4
330
2
100
AcDbSymbolTableRecord
100
AcDbLayerTableRecord
  2
DEFPOINTS
 70
     0
 62
     7
  6
CONTINUOUS
  0
LAYER
  5
3BBA
330
2
100
AcDbSymbolTableRecord
100
AcDbLayerTableRecord
  2
18
 70
     0
 62
     5
  6
DIVIDE
  0
LAYER
  5
6A3D
330
2
100
AcDbSymbolTableRecord
100
AcDbLayerTableRecord
  2
43
 70
     0
 62
     6
  6
CONTINUOUS
  0
LAYER
  5
6A3E
330
2
100
AcDbSymbolTableRecord
100
AcDbLayerTableRecord
  2
44
 70
     0
 62
     3
  6
CONTINUOUS
  0
LAYER
  5
6A3F
330
2
100
AcDbSymbolTableRecord
100
AcDbLayerTableRecord
  2
48
 70
     0
 62
     6
  6
CENTER
  0
LAYER
  5
6C7B
330
2
100
AcDbSymbolTableRecord
100
AcDbLayerTableRecord
  2
29
 70
     0
 62
     6
  6
CONTINUOUS
  0
LAYER
  5
72EB
330
2
100
AcDbSymbolTableRecord
100
AcDbLayerTableRecord
  2
1
 70
     0
 62
     7
  6
CONTINUOUS
  0
LAYER
  5
72EC
330
2
100
AcDbSymbolTableRecord
100
AcDbLayerTableRecord
  2
TOP
 70
     0
 62
     7
  6
CONTINUOUS
  0
ENDTAB
  0
TABLE
  2
STYLE
  5
3
330
0
100
AcDbSymbolTable
 70
     6
  0
STYLE
  5
11
330
3
100
AcDbSymbolTableRecord
100
AcDbTextStyleTableRecord
  2
STANDARD
 70
     0
 40
0.0
 41
1.0
 50
0.0
 71
     0
 42
2.0
  3
txt.shx
  4
bigfont.shx
  0
STYLE
  5
42
330
3
100
AcDbSymbolTableRecord
100
AcDbTextStyleTableRecord
  2
STANDARD1
 70
     0
 40
0.0
 41
1.0
 50
0.0
 71
     0
 42
5.0
  3
MONOTXT
  4
BIGFONT
  0
STYLE
  5
63A9
330
3
100
AcDbSymbolTableRecord
100
AcDbTextStyleTableRecord
  2
MOJI
 70
     0
 40
0.0
 41
1.0
 50
0.0
 71
     0
 42
2.5
  3
txt.shx
  4
bigfont.shx
  0
STYLE
  5
6D3E
330
3
100
AcDbSymbolTableRecord
100
AcDbTextStyleTableRecord
  2
MX_NOTE_STANDARD
 70
     0
 40
0.0
 41
1.0
 50
0.0
 71
     0
 42
8.3312
  3
txt.shx
  4
extfont.shx
  0
STYLE
  5
721F
330
3
100
AcDbSymbolTableRecord
100
AcDbTextStyleTableRecord
  2
SMP-SET
 70
     0
 40
0.0
 41
1.0
 50
0.0
 71
     0
 42
3.0
  3
SIMPLEX
  4
BIGFONT
  0
STYLE
  5
72ED
330
3
100
AcDbSymbolTableRecord
100
AcDbTextStyleTableRecord
  2
UGMTXT
 70
     0
 40
0.0
 41
1.0
 50
0.0
 71
     0
 42
0.2
  3
ugmtxt
  4
bigfont
  0
ENDTAB
  0
TABLE
  2
VIEW
  5
6
330
0
100
AcDbSymbolTable
 70
     3
  0
VIEW
  5
230C
330
6
100
AcDbSymbolTableRecord
100
AcDbViewTableRecord
  2
OLE1
 70
     0
 40
148.912488
 10
429.497628
 20
2.560627
 41
103.145806
 11
0.0
 21
0.0
 31
1.0
 12
0.0
 22
0.0
 32
0.0
 42
50.0
 43
0.0
 44
0.0
 50
0.0
 71
     0
  0
VIEW
  5
230E
330
6
100
AcDbSymbolTableRecord
100
AcDbViewTableRecord
  2
OLE2
 70
     0
 40
170.778692
 10
322.66497
 20
-5.978304
 41
102.467215
 11
0.0
 21
0.0
 31
1.0
 12
0.0
 22
0.0
 32
0.0
 42
50.0
 43
0.0
 44
0.0
 50
0.0
 71
     0
  0
VIEW
  5
23AA
330
6
100
AcDbSymbolTableRecord
100
AcDbViewTableRecord
  2
OLE3
 70
     0
 40
591.7897389999998
 10
84.79698199999999
 20
-46.09335999999998
 41
388.792096
 11
0.0
 21
0.0
 31
1.0
 12
0.0
 22
0.0
 32
0.0
 42
50.0
 43
0.0
 44
0.0
 50
0.0
 71
     0
  0
ENDTAB
  0
TABLE
  2
UCS
  5
7
330
0
100
AcDbSymbolTable
 70
     0
  0
ENDTAB
  0
TABLE
  2
APPID
  5
9
330
0
100
AcDbSymbolTable
 70
     2
  0
APPID
  5
12
330
9
100
AcDbSymbolTableRecord
100
AcDbRegAppTableRecord
  2
ACAD
 70
     0
  0
APPID
  5
ECD
330
9
100
AcDbSymbolTableRecord
100
AcDbRegAppTableRecord
  2
CONTENTBLOCKICON
 70
     0
  0
ENDTAB
  0
TABLE
  2
DIMSTYLE
  5
A
330
0
100
AcDbSymbolTable
 70
     3
  0
DIMSTYLE
105
175
102
{ACAD_REACTORS
330
7761
330
7762
330
77DD
330
7760
330
776E
330
776F
330
7C72
330
7B65
330
7B91
330
75FB
330
75FC
330
75EA
330
75EB
330
79C3
330
79C9
330
7A2D
330
7A59
102
}
330
A
100
AcDbSymbolTableRecord
100
AcDbDimStyleTableRecord
  2
STANDARD
 70
     0
  3

  4

  5
OPEN
  6

  7

 40
1.0
 41
2.0
 42
1.0
 43
0.5
 44
0.5
 45
0.0
 46
0.0
 47
0.0
 48
0.0
140
4.0
141
0.09
142
0.0
143
25.4
144
1.0
145
0.0
146
1.0
147
1.0
 71
     0
 72
     0
 73
     0
 74
     1
 75
     0
 76
     0
 77
     3
 78
    12
170
     0
171
     2
172
     0
173
     0
174
     0
175
     0
176
     0
177
     0
178
     0
270
     2
271
     1
272
     1
273
     2
274
     2
340
11
275
     0
280
     0
281
     0
282
     0
283
     1
284
     0
285
     0
286
     0
287
     3
288
     0
  0
DIMSTYLE
105
63AA
330
A
100
AcDbSymbolTableRecord
100
AcDbDimStyleTableRecord
  2
FSTD1
 70
     0
  3

  4

  5

  6
OPEN30
  7
OPEN30
 40
1.0
 41
5.0
 42
1.5
 43
3.75
 44
1.5
 45
0.0
 46
0.0
 47
0.0
 48
0.0
140
5.0
141
2.5
142
0.0
143
0.0394
144
1.0
145
0.0
146
1.0
147
1.5
 71
     0
 72
     0
 73
     0
 74
     0
 75
     0
 76
     0
 77
     1
 78
     8
170
     0
171
     4
172
     1
173
     1
174
     0
175
     0
176
     0
177
     0
178
     0
270
     2
271
     4
272
     4
273
     2
274
     4
340
11
275
     0
280
     0
281
     0
282
     0
283
     1
284
     8
285
     8
286
     8
287
     3
288
     0
  0
DIMSTYLE
105
6D3F
330
A
100
AcDbSymbolTableRecord
100
AcDbDimStyleTableRecord
  2
1
 70
     0
  3

  4

  5

  6
OPEN
  7
OPEN
 40
1.0
 41
4.0
 42
1.0
 43
0.38
 44
1.0
 45
0.0
 46
0.0
 47
0.0
 48
0.0
140
5.0
141
0.09
142
0.0
143
25.4
144
1.0
145
0.0
146
1.0
147
1.5
 71
     0
 72
     0
 73
     0
 74
     0
 75
     0
 76
     0
 77
     1
 78
     0
170
     0
171
     2
172
     1
173
     1
174
     0
175
     0
176
     0
177
     0
178
     0
270
     2
271
     4
272
     4
273
     2
274
     2
340
11
275
     0
280
     0
281
     0
282
     0
283
     1
284
     0
285
     0
286
     0
287
     3
288
     0
  0
ENDTAB
  0
TABLE
  2
BLOCK_RECORD
  5
1
330
0
100
AcDbSymbolTable
 70
   103
  0
BLOCK_RECORD
  5
1E
102
{ACAD_XDICTIONARY
360
178
102
}
330
1
100
AcDbSymbolTableRecord
100
AcDbBlockTableRecord
  2
*MODEL_SPACE
  0
BLOCK_RECORD
  5
1A
102
{ACAD_XDICTIONARY
360
17A
102
}
330
1
100
AcDbSymbolTableRecord
100
AcDbBlockTableRecord
  2
*PAPER_SPACE
  0
BLOCK_RECORD
  5
3B2
330
1
100
AcDbSymbolTableRecord
100
AcDbBlockTableRecord
  2
_OPEN
  0
BLOCK_RECORD
  5
632C
330
1
100
AcDbSymbolTableRecord
100
AcDbBlockTableRecord
  2
_OPEN30
  0
BLOCK_RECORD
  5
6481
330
1
100
AcDbSymbolTableRecord
100
AcDbBlockTableRecord
  2
*D2
  0
BLOCK_RECORD
  5
648D
330
1
100
AcDbSymbolTableRecord
100
AcDbBlockTableRecord
  2
*D3
  0
BLOCK_RECORD
  5
6499
330
1
100
AcDbSymbolTableRecord
100
AcDbBlockTableRecord
  2
*D4
  0
BLOCK_RECORD
  5
64A5
330
1
100
AcDbSymbolTableRecord
100
AcDbBlockTableRecord
  2
*D5
  0
BLOCK_RECORD
  5
64B1
330
1
100
AcDbSymbolTableRecord
100
AcDbBlockTableRecord
  2
*D6
  0
BLOCK_RECORD
  5
64BD
330
1
100
AcDbSymbolTableRecord
100
AcDbBlockTableRecord
  2
*D7
  0
BLOCK_RECORD
  5
64C9
330
1
100
AcDbSymbolTableRecord
100
AcDbBlockTableRecord
  2
*D8
  0
BLOCK_RECORD
  5
64D3
330
1
100
AcDbSymbolTableRecord
100
AcDbBlockTableRecord
  2
*D9
  0
BLOCK_RECORD
  5
64DF
330
1
100
AcDbSymbolTableRecord
100
AcDbBlockTableRecord
  2
*D10
  0
BLOCK_RECORD
  5
64EB
330
1
100
AcDbSymbolTableRecord
100
AcDbBlockTableRecord
  2
*D11
  0
BLOCK_RECORD
  5
6667
330
1
100
AcDbSymbolTableRecord
100
AcDbBlockTableRecord
  2
*D12
  0
BLOCK_RECORD
  5
6673
330
1
100
AcDbSymbolTableRecord
100
AcDbBlockTableRecord
  2
*D13
  0
BLOCK_RECORD
  5
667F
330
1
100
AcDbSymbolTableRecord
100
AcDbBlockTableRecord
  2
*D14
  0
BLOCK_RECORD
  5
668B
330
1
100
AcDbSymbolTableRecord
100
AcDbBlockTableRecord
  2
*D15
  0
BLOCK_RECORD
  5
6697
330
1
100
AcDbSymbolTableRecord
100
AcDbBlockTableRecord
  2
*D16
  0
BLOCK_RECORD
  5
66A3
330
1
100
AcDbSymbolTableRecord
100
AcDbBlockTableRecord
  2
*D17
  0
BLOCK_RECORD
  5
66B1
330
1
100
AcDbSymbolTableRecord
100
AcDbBlockTableRecord
  2
*D18
  0
BLOCK_RECORD
  5
66BF
330
1
100
AcDbSymbolTableRecord
100
AcDbBlockTableRecord
  2
*D19
  0
BLOCK_RECORD
  5
674F
330
1
100
AcDbSymbolTableRecord
100
AcDbBlockTableRecord
  2
*D20
  0
BLOCK_RECORD
  5
67AB
330
1
100
AcDbSymbolTableRecord
100
AcDbBlockTableRecord
  2
*D21
  0
BLOCK_RECORD
  5
67B4
330
1
100
AcDbSymbolTableRecord
100
AcDbBlockTableRecord
  2
*D22
  0
BLOCK_RECORD
  5
67C0
330
1
100
AcDbSymbolTableRecord
100
AcDbBlockTableRecord
  2
*D23
  0
BLOCK_RECORD
  5
6A60
330
1
100
AcDbSymbolTableRecord
100
AcDbBlockTableRecord
  2
*D24
  0
BLOCK_RECORD
  5
6A6B
330
1
100
AcDbSymbolTableRecord
100
AcDbBlockTableRecord
  2
*D25
  0
BLOCK_RECORD
  5
6A79
330
1
100
AcDbSymbolTableRecord
100
AcDbBlockTableRecord
  2
*D26
  0
BLOCK_RECORD
  5
6C63
330
1
100
AcDbSymbolTableRecord
100
AcDbBlockTableRecord
  2
*D27
  0
BLOCK_RECORD
  5
6C6F
330
1
100
AcDbSymbolTableRecord
100
AcDbBlockTableRecord
  2
*D28
  0
BLOCK_RECORD
  5
6CE2
330
1
100
AcDbSymbolTableRecord
100
AcDbBlockTableRecord
  2
*D29
  0
BLOCK_RECORD
  5
6CEE
330
1
100
AcDbSymbolTableRecord
100
AcDbBlockTableRecord
  2
*D30
  0
BLOCK_RECORD
  5
6D0C
330
1
100
AcDbSymbolTableRecord
100
AcDbBlockTableRecord
  2
*D31
  0
BLOCK_RECORD
  5
6D18
330
1
100
AcDbSymbolTableRecord
100
AcDbBlockTableRecord
  2
*D32
  0
BLOCK_RECORD
  5
6D24
330
1
100
AcDbSymbolTableRecord
100
AcDbBlockTableRecord
  2
*D33
  0
BLOCK_RECORD
  5
6D30
330
1
100
AcDbSymbolTableRecord
100
AcDbBlockTableRecord
  2
*D34
  0
BLOCK_RECORD
  5
6EBB
330
1
100
AcDbSymbolTableRecord
100
AcDbBlockTableRecord
  2
*D35
  0
BLOCK_RECORD
  5
6EC7
330
1
100
AcDbSymbolTableRecord
100
AcDbBlockTableRecord
  2
*D36
  0
BLOCK_RECORD
  5
6ED3
330
1
100
AcDbSymbolTableRecord
100
AcDbBlockTableRecord
  2
*D37
  0
BLOCK_RECORD
  5
6EDF
330
1
100
AcDbSymbolTableRecord
100
AcDbBlockTableRecord
  2
*D38
  0
BLOCK_RECORD
  5
6F13
330
1
100
AcDbSymbolTableRecord
100
AcDbBlockTableRecord
  2
*D39
  0
BLOCK_RECORD
  5
6F1F
330
1
100
AcDbSymbolTableRecord
100
AcDbBlockTableRecord
  2
*D40
  0
BLOCK_RECORD
  5
6F2B
330
1
100
AcDbSymbolTableRecord
100
AcDbBlockTableRecord
  2
*D41
  0
BLOCK_RECORD
  5
6F37
330
1
100
AcDbSymbolTableRecord
100
AcDbBlockTableRecord
  2
*D42
  0
BLOCK_RECORD
  5
6F8A
330
1
100
AcDbSymbolTableRecord
100
AcDbBlockTableRecord
  2
*D43
  0
BLOCK_RECORD
  5
6F96
330
1
100
AcDbSymbolTableRecord
100
AcDbBlockTableRecord
  2
*D44
  0
BLOCK_RECORD
  5
6FA2
330
1
100
AcDbSymbolTableRecord
100
AcDbBlockTableRecord
  2
*D45
  0
BLOCK_RECORD
  5
6FAE
330
1
100
AcDbSymbolTableRecord
100
AcDbBlockTableRecord
  2
*D46
  0
BLOCK_RECORD
  5
6FDF
330
1
100
AcDbSymbolTableRecord
100
AcDbBlockTableRecord
  2
*D47
  0
BLOCK_RECORD
  5
6FEB
330
1
100
AcDbSymbolTableRecord
100
AcDbBlockTableRecord
  2
*D48
  0
BLOCK_RECORD
  5
6FF8
330
1
100
AcDbSymbolTableRecord
100
AcDbBlockTableRecord
  2
*D49
  0
BLOCK_RECORD
  5
7004
330
1
100
AcDbSymbolTableRecord
100
AcDbBlockTableRecord
  2
*D50
  0
BLOCK_RECORD
  5
7010
330
1
100
AcDbSymbolTableRecord
100
AcDbBlockTableRecord
  2
*D51
  0
BLOCK_RECORD
  5
712C
330
1
100
AcDbSymbolTableRecord
100
AcDbBlockTableRecord
  2
*D52
  0
BLOCK_RECORD
  5
7138
330
1
100
AcDbSymbolTableRecord
100
AcDbBlockTableRecord
  2
*D53
  0
BLOCK_RECORD
  5
7146
330
1
100
AcDbSymbolTableRecord
100
AcDbBlockTableRecord
  2
*D54
  0
BLOCK_RECORD
  5
7152
330
1
100
AcDbSymbolTableRecord
100
AcDbBlockTableRecord
  2
*D55
  0
BLOCK_RECORD
  5
715F
330
1
100
AcDbSymbolTableRecord
100
AcDbBlockTableRecord
  2
*D56
  0
BLOCK_RECORD
  5
7299
330
1
100
AcDbSymbolTableRecord
100
AcDbBlockTableRecord
  2
*U57
  0
BLOCK_RECORD
  5
72A1
330
1
100
AcDbSymbolTableRecord
100
AcDbBlockTableRecord
  2
*D58
  0
BLOCK_RECORD
  5
72AD
330
1
100
AcDbSymbolTableRecord
100
AcDbBlockTableRecord
  2
*D59
  0
BLOCK_RECORD
  5
72B9
330
1
100
AcDbSymbolTableRecord
100
AcDbBlockTableRecord
  2
*D60
  0
BLOCK_RECORD
  5
72C5
330
1
100
AcDbSymbolTableRecord
100
AcDbBlockTableRecord
  2
*D61
  0
BLOCK_RECORD
  5
72D1
330
1
100
AcDbSymbolTableRecord
100
AcDbBlockTableRecord
  2
*D62
  0
BLOCK_RECORD
  5
72DF
330
1
100
AcDbSymbolTableRecord
100
AcDbBlockTableRecord
  2
*D63
  0
BLOCK_RECORD
  5
7354
330
1
100
AcDbSymbolTableRecord
100
AcDbBlockTableRecord
  2
*D64
  0
BLOCK_RECORD
  5
7360
330
1
100
AcDbSymbolTableRecord
100
AcDbBlockTableRecord
  2
*D65
  0
BLOCK_RECORD
  5
736C
330
1
100
AcDbSymbolTableRecord
100
AcDbBlockTableRecord
  2
*D66
  0
BLOCK_RECORD
  5
7378
330
1
100
AcDbSymbolTableRecord
100
AcDbBlockTableRecord
  2
*D67
  0
BLOCK_RECORD
  5
7384
330
1
100
AcDbSymbolTableRecord
100
AcDbBlockTableRecord
  2
*D68
  0
BLOCK_RECORD
  5
7390
330
1
100
AcDbSymbolTableRecord
100
AcDbBlockTableRecord
  2
*D69
  0
BLOCK_RECORD
  5
758E
330
1
100
AcDbSymbolTableRecord
100
AcDbBlockTableRecord
  2
*D70
  0
BLOCK_RECORD
  5
759A
330
1
100
AcDbSymbolTableRecord
100
AcDbBlockTableRecord
  2
*D71
  0
BLOCK_RECORD
  5
75A6
330
1
100
AcDbSymbolTableRecord
100
AcDbBlockTableRecord
  2
*D72
  0
BLOCK_RECORD
  5
75B2
330
1
100
AcDbSymbolTableRecord
100
AcDbBlockTableRecord
  2
*D73
  0
BLOCK_RECORD
  5
760A
330
1
100
AcDbSymbolTableRecord
100
AcDbBlockTableRecord
  2
*D74
  0
BLOCK_RECORD
  5
7616
330
1
100
AcDbSymbolTableRecord
100
AcDbBlockTableRecord
  2
*D75
  0
BLOCK_RECORD
  5
7622
330
1
100
AcDbSymbolTableRecord
100
AcDbBlockTableRecord
  2
*D76
  0
BLOCK_RECORD
  5
762E
330
1
100
AcDbSymbolTableRecord
100
AcDbBlockTableRecord
  2
*D77
  0
BLOCK_RECORD
  5
765E
330
1
100
AcDbSymbolTableRecord
100
AcDbBlockTableRecord
  2
*D78
  0
BLOCK_RECORD
  5
766C
330
1
100
AcDbSymbolTableRecord
100
AcDbBlockTableRecord
  2
*D79
  0
BLOCK_RECORD
  5
7678
330
1
100
AcDbSymbolTableRecord
100
AcDbBlockTableRecord
  2
*D80
  0
BLOCK_RECORD
  5
7686
330
1
100
AcDbSymbolTableRecord
100
AcDbBlockTableRecord
  2
*D81
  0
BLOCK_RECORD
  5
7692
330
1
100
AcDbSymbolTableRecord
100
AcDbBlockTableRecord
  2
*D82
  0
BLOCK_RECORD
  5
769E
330
1
100
AcDbSymbolTableRecord
100
AcDbBlockTableRecord
  2
*D83
  0
BLOCK_RECORD
  5
7808
330
1
100
AcDbSymbolTableRecord
100
AcDbBlockTableRecord
  2
*D84
  0
BLOCK_RECORD
  5
7816
330
1
100
AcDbSymbolTableRecord
100
AcDbBlockTableRecord
  2
*D85
  0
BLOCK_RECORD
  5
7822
330
1
100
AcDbSymbolTableRecord
100
AcDbBlockTableRecord
  2
*D86
  0
BLOCK_RECORD
  5
7830
330
1
100
AcDbSymbolTableRecord
100
AcDbBlockTableRecord
  2
*D87
  0
BLOCK_RECORD
  5
783C
330
1
100
AcDbSymbolTableRecord
100
AcDbBlockTableRecord
  2
*D88
  0
BLOCK_RECORD
  5
7848
330
1
100
AcDbSymbolTableRecord
100
AcDbBlockTableRecord
  2
*D89
  0
BLOCK_RECORD
  5
78B4
330
1
100
AcDbSymbolTableRecord
100
AcDbBlockTableRecord
  2
*D90
  0
BLOCK_RECORD
  5
78C0
330
1
100
AcDbSymbolTableRecord
100
AcDbBlockTableRecord
  2
*D91
  0
BLOCK_RECORD
  5
78CC
330
1
100
AcDbSymbolTableRecord
100
AcDbBlockTableRecord
  2
*D92
  0
BLOCK_RECORD
  5
78D8
330
1
100
AcDbSymbolTableRecord
100
AcDbBlockTableRecord
  2
*D93
  0
BLOCK_RECORD
  5
7A86
330
1
100
AcDbSymbolTableRecord
100
AcDbBlockTableRecord
  2
*D94
  0
BLOCK_RECORD
  5
7A92
330
1
100
AcDbSymbolTableRecord
100
AcDbBlockTableRecord
  2
*D95
  0
BLOCK_RECORD
  5
7A9E
330
1
100
AcDbSymbolTableRecord
100
AcDbBlockTableRecord
  2
*D96
  0
BLOCK_RECORD
  5
7AAA
330
1
100
AcDbSymbolTableRecord
100
AcDbBlockTableRecord
  2
*D97
  0
BLOCK_RECORD
  5
7B02
330
1
100
AcDbSymbolTableRecord
100
AcDbBlockTableRecord
  2
*D98
  0
BLOCK_RECORD
  5
7B0E
330
1
100
AcDbSymbolTableRecord
100
AcDbBlockTableRecord
  2
*D99
  0
BLOCK_RECORD
  5
7B9E
330
1
100
AcDbSymbolTableRecord
100
AcDbBlockTableRecord
  2
*D100
  0
BLOCK_RECORD
  5
7BAA
330
1
100
AcDbSymbolTableRecord
100
AcDbBlockTableRecord
  2
*D101
  0
BLOCK_RECORD
  5
7C73
330
1
100
AcDbSymbolTableRecord
100
AcDbBlockTableRecord
  2
*D102
  0
ENDTAB
  0
ENDSEC
  0
SECTION
  2
BLOCKS
  0
BLOCK
  5
1F
330
1E
100
AcDbEntity
  8
0
100
AcDbBlockBegin
  2
*MODEL_SPACE
 70
     0
 10
0.0
 20
0.0
 30
0.0
  3
*MODEL_SPACE
  1

  0
ENDBLK
  5
20
330
1E
100
AcDbEntity
  8
0
100
AcDbBlockEnd
  0
BLOCK
  5
1B
330
1A
100
AcDbEntity
 67
     1
  8
0
100
AcDbBlockBegin
  2
*PAPER_SPACE
 70
     0
 10
0.0
 20
0.0
 30
0.0
  3
*PAPER_SPACE
  1

  0
ENDBLK
  5
1C
330
1A
100
AcDbEntity
 67
     1
  8
0
100
AcDbBlockEnd
  0
BLOCK
  5
3B6
330
3B2
100
AcDbEntity
  8
0
100
AcDbBlockBegin
  2
_OPEN
 70
     0
 10
0.0
 20
0.0
 30
0.0
  3
_OPEN
  1

  0
LINE
  5
3B3
330
3B2
100
AcDbEntity
  8
30
  6
CONTINUOUS
 62
     0
100
AcDbLine
 10
-1.0
 20
0.166667
 30
0.0
 11
0.0
 21
0.0
 31
0.0
  0
LINE
  5
3B4
330
3B2
100
AcDbEntity
  8
30
  6
CONTINUOUS
 62
     0
100
AcDbLine
 10
-1.0
 20
-0.166667
 30
0.0
 11
0.0
 21
0.0
 31
0.0
  0
LINE
  5
3B5
330
3B2
100
AcDbEntity
  8
30
  6
CONTINUOUS
 62
     0
100
AcDbLine
 10
0.0
 20
0.0
 30
0.0
 11
-1.0
 21
0.0
 31
0.0
  0
ENDBLK
  5
3B7
330
3B2
100
AcDbEntity
  8
0
100
AcDbBlockEnd
  0
BLOCK
  5
6330
330
632C
100
AcDbEntity
  8
0
100
AcDbBlockBegin
  2
_OPEN30
 70
     0
 10
0.0
 20
0.0
 30
0.0
  3
_OPEN30
  1

  0
LINE
  5
632D
330
632C
100
AcDbEntity
  8
0
  6
BYBLOCK
 62
     0
100
AcDbLine
 10
-1.0
 20
0.26794919
 30
0.0
 11
0.0
 21
0.0
 31
0.0
  0
LINE
  5
632E
330
632C
100
AcDbEntity
  8
0
  6
BYBLOCK
 62
     0
100
AcDbLine
 10
0.0
 20
0.0
 30
0.0
 11
-1.0
 21
-0.26794919
 31
0.0
  0
LINE
  5
632F
330
632C
100
AcDbEntity
  8
0
  6
BYBLOCK
 62
     0
100
AcDbLine
 10
0.0
 20
0.0
 30
0.0
 11
-1.0
 21
0.0
 31
0.0
  0
ENDBLK
  5
6331
330
632C
100
AcDbEntity
  8
0
100
AcDbBlockEnd
  0
BLOCK
  5
648B
330
6481
100
AcDbEntity
  8
0
100
AcDbBlockBegin
  2
*D2
 70
     1
 10
0.0
 20
0.0
 30
0.0
  3
*D2
  1

  0
LINE
  5
6BCC
330
6481
100
AcDbEntity
  8
30
  6
CONTINUOUS
 62
     0
100
AcDbLine
 10
-245.0883805523931
 20
99.7500012401781
 30
0.0
 11
-184.0273311682181
 21
99.7500012401781
 31
0.0
  0
LINE
  5
6BCD
330
6481
100
AcDbEntity
  8
30
  6
CONTINUOUS
 62
     0
100
AcDbLine
 10
-224.5884410840011
 20
49.75000124025109
 30
0.0
 11
-184.0273311682181
 21
49.75000124025108
 31
0.0
  0
LINE
  5
6BCE
330
6481
100
AcDbEntity
  8
30
  6
CONTINUOUS
 62
     0
100
AcDbLine
 10
-184.5273311682181
 20
97.75000124017807
 30
0.0
 11
-184.5273311682181
 21
51.7500012402511
 31
0.0
  0
INSERT
  5
6BCF
330
6481
100
AcDbEntity
  8
30
  6
CONTINUOUS
 62
     0
100
AcDbBlockReference
  2
_OPEN
 10
-184.5273311682181
 20
99.7500012401781
 30
0.0
 41
2.0
 42
2.0
 43
2.0
 50
90.0
  0
INSERT
  5
6BD0
330
6481
100
AcDbEntity
  8
30
  6
CONTINUOUS
 62
     0
100
AcDbBlockReference
  2
_OPEN
 10
-184.5273311682181
 20
49.75000124025108
 30
0.0
 41
2.0
 42
2.0
 43
2.0
 50
270.0
  0
MTEXT
  5
6BD1
330
6481
100
AcDbEntity
  8
30
  6
CONTINUOUS
 62
     0
100
AcDbMText
 10
-187.5273311682181
 20
74.75000124021454
 30
0.0
 40
4.0
 41
0.0
 71
     5
 72
     1
  1
\A1;50
 11
0.0000000000000001
 21
1.0
 31
0.0
1001
ACAD
1000
MTEXTBEGIN
1070
    73
1070
     1
1070
    44
1040
1.0
1070
    74
1070
     0
1000
MTEXTEND
1000
MTEXTBEGIN
1070
    73
1070
     1
1070
    44
1040
1.0
1070
    74
1070
     0
1000
MTEXTEND
  0
POINT
  5
6BD2
330
6481
100
AcDbEntity
  8
DEFPOINTS
  6
CONTINUOUS
 62
     0
100
AcDbPoint
 10
-246.0883805523931
 20
99.7500012401781
 30
0.0
  0
POINT
  5
6BD3
330
6481
100
AcDbEntity
  8
DEFPOINTS
  6
CONTINUOUS
 62
     0
100
AcDbPoint
 10
-225.588441084001
 20
49.75000124025109
 30
0.0
  0
POINT
  5
6BD4
330
6481
100
AcDbEntity
  8
DEFPOINTS
  6
CONTINUOUS
 62
     0
100
AcDbPoint
 10
-184.5273311682181
 20
49.75000124025108
 30
0.0
  0
ENDBLK
  5
648C
330
6481
100
AcDbEntity
  8
0
100
AcDbBlockEnd
  0
BLOCK
  5
6497
330
648D
100
AcDbEntity
  8
0
100
AcDbBlockBegin
  2
*D3
 70
     1
 10
0.0
 20
0.0
 30
0.0
  3
*D3
  1

  0
LINE
  5
6B9F
330
648D
100
AcDbEntity
  8
30
  6
CONTINUOUS
 62
     0
100
AcDbLine
 10
-244.9282950756555
 20
42.00000104691097
 30
0.0
 11
-196.6531565001398
 21
42.00000104691096
 31
0.0
  0
LINE
  5
6BA0
330
648D
100
AcDbEntity
  8
30
  6
CONTINUOUS
 62
     0
100
AcDbLine
 10
-244.9282950756555
 20
-42.00000104691187
 30
0.0
 11
-196.6531565001398
 21
-42.00000104691189
 31
0.0
  0
LINE
  5
6BA1
330
648D
100
AcDbEntity
  8
30
  6
CONTINUOUS
 62
     0
100
AcDbLine
 10
-197.1531565001398
 20
40.00000104691096
 30
0.0
 11
-197.1531565001398
 21
-40.00000104691189
 31
0.0
  0
INSERT
  5
6BA2
330
648D
100
AcDbEntity
  8
30
  6
CONTINUOUS
 62
     0
100
AcDbBlockReference
  2
_OPEN
 10
-197.1531565001398
 20
42.00000104691096
 30
0.0
 41
2.0
 42
2.0
 43
2.0
 50
90.0
  0
INSERT
  5
6BA3
330
648D
100
AcDbEntity
  8
30
  6
CONTINUOUS
 62
     0
100
AcDbBlockReference
  2
_OPEN
 10
-197.1531565001398
 20
-42.00000104691189
 30
0.0
 41
2.0
 42
2.0
 43
2.0
 50
270.0
  0
MTEXT
  5
6BA4
330
648D
100
AcDbEntity
  8
30
  6
CONTINUOUS
 62
     0
100
AcDbMText
 10
-200.1531565001398
 20
-0.0000000000004849
 30
0.0
 40
4.0
 41
0.0
 71
     5
 72
     1
  1
\A1;84
 11
0.0000000000000001
 21
1.0
 31
0.0
1001
ACAD
1000
MTEXTBEGIN
1070
    73
1070
     1
1070
    44
1040
1.0
1070
    74
1070
     0
1000
MTEXTEND
1000
MTEXTBEGIN
1070
    73
1070
     1
1070
    44
1040
1.0
1070
    74
1070
     0
1000
MTEXTEND
  0
POINT
  5
6BA5
330
648D
100
AcDbEntity
  8
DEFPOINTS
  6
CONTINUOUS
 62
     0
100
AcDbPoint
 10
-245.9282950756557
 20
42.00000104691097
 30
0.0
  0
POINT
  5
6BA6
330
648D
100
AcDbEntity
  8
DEFPOINTS
  6
CONTINUOUS
 62
     0
100
AcDbPoint
 10
-245.9282950756557
 20
-42.00000104691187
 30
0.0
  0
POINT
  5
6BA7
330
648D
100
AcDbEntity
  8
DEFPOINTS
  6
CONTINUOUS
 62
     0
100
AcDbPoint
 10
-197.1531565001398
 20
-42.00000104691189
 30
0.0
  0
ENDBLK
  5
6498
330
648D
100
AcDbEntity
  8
0
100
AcDbBlockEnd
  0
BLOCK
  5
64A3
330
6499
100
AcDbEntity
  8
0
100
AcDbBlockBegin
  2
*D4
 70
     1
 10
0.0
 20
0.0
 30
0.0
  3
*D4
  1

  0
LINE
  5
6BBA
330
6499
100
AcDbEntity
  8
30
  6
CONTINUOUS
 62
     0
100
AcDbLine
 10
-274.0885055644544
 20
-47.25000115285697
 30
0.0
 11
-274.0885055644544
 21
-94.98966437759396
 31
0.0
  0
LINE
  5
6BBB
330
6499
100
AcDbEntity
  8
30
  6
CONTINUOUS
 62
     0
100
AcDbLine
 10
-224.0883800039723
 20
-47.25000115285697
 30
0.0
 11
-224.0883800039723
 21
-94.98966437759396
 31
0.0
  0
LINE
  5
6BBC
330
6499
100
AcDbEntity
  8
30
  6
CONTINUOUS
 62
     0
100
AcDbLine
 10
-272.0885055644544
 20
-94.48966437759395
 30
0.0
 11
-226.0883800039724
 21
-94.48966437759395
 31
0.0
  0
INSERT
  5
6BBD
330
6499
100
AcDbEntity
  8
30
  6
CONTINUOUS
 62
     0
100
AcDbBlockReference
  2
_OPEN
 10
-274.0885055644544
 20
-94.48966437759395
 30
0.0
 41
2.0
 42
2.0
 43
2.0
 50
180.0
  0
INSERT
  5
6BBE
330
6499
100
AcDbEntity
  8
30
  6
CONTINUOUS
 62
     0
100
AcDbBlockReference
  2
_OPEN
 10
-224.0883800039723
 20
-94.48966437759395
 30
0.0
 41
2.0
 42
2.0
 43
2.0
  0
MTEXT
  5
6BBF
330
6499
100
AcDbEntity
  8
30
  6
CONTINUOUS
 62
     0
100
AcDbMText
 10
-249.0884427842134
 20
-91.48966437759396
 30
0.0
 40
4.0
 41
0.0
 71
     5
 72
     1
  1
\A1;50
1001
ACAD
1000
MTEXTBEGIN
1070
    73
1070
     1
1070
    44
1040
1.0
1070
    74
1070
     0
1000
MTEXTEND
1000
MTEXTBEGIN
1070
    73
1070
     1
1070
    44
1040
1.0
1070
    74
1070
     0
1000
MTEXTEND
  0
POINT
  5
6BC0
330
6499
100
AcDbEntity
  8
DEFPOINTS
  6
CONTINUOUS
 62
     0
100
AcDbPoint
 10
-274.0885055644544
 20
-46.25000115285698
 30
0.0
  0
POINT
  5
6BC1
330
6499
100
AcDbEntity
  8
DEFPOINTS
  6
CONTINUOUS
 62
     0
100
AcDbPoint
 10
-224.0883800039723
 20
-46.25000115285698
 30
0.0
  0
POINT
  5
6BC2
330
6499
100
AcDbEntity
  8
DEFPOINTS
  6
CONTINUOUS
 62
     0
100
AcDbPoint
 10
-224.0883800039723
 20
-94.48966437759395
 30
0.0
  0
ENDBLK
  5
64A4
330
6499
100
AcDbEntity
  8
0
100
AcDbBlockEnd
  0
BLOCK
  5
64AF
330
64A5
100
AcDbEntity
  8
0
100
AcDbBlockBegin
  2
*D5
 70
     1
 10
0.0
 20
0.0
 30
0.0
  3
*D5
  1

  0
LINE
  5
6BB1
330
64A5
100
AcDbEntity
  8
30
  6
CONTINUOUS
 62
     0
100
AcDbLine
 10
-273.0884587732079
 20
-25.00003111578299
 30
0.0
 11
-273.0884587732079
 21
-81.54379696341342
 31
0.0
  0
LINE
  5
6BB2
330
64A5
100
AcDbEntity
  8
30
  6
CONTINUOUS
 62
     0
100
AcDbLine
 10
-225.5883800413648
 20
-25.00003111578299
 30
0.0
 11
-225.5883800413648
 21
-81.54379696341342
 31
0.0
  0
LINE
  5
6BB3
330
64A5
100
AcDbEntity
  8
30
  6
CONTINUOUS
 62
     0
100
AcDbLine
 10
-271.0884587732079
 20
-81.04379696341338
 30
0.0
 11
-227.5883800413648
 21
-81.04379696341338
 31
0.0
  0
INSERT
  5
6BB4
330
64A5
100
AcDbEntity
  8
30
  6
CONTINUOUS
 62
     0
100
AcDbBlockReference
  2
_OPEN
 10
-273.0884587732079
 20
-81.04379696341338
 30
0.0
 41
2.0
 42
2.0
 43
2.0
 50
180.0
  0
INSERT
  5
6BB5
330
64A5
100
AcDbEntity
  8
30
  6
CONTINUOUS
 62
     0
100
AcDbBlockReference
  2
_OPEN
 10
-225.5883800413648
 20
-81.04379696341338
 30
0.0
 41
2.0
 42
2.0
 43
2.0
  0
MTEXT
  5
6BB6
330
64A5
100
AcDbEntity
  8
30
  6
CONTINUOUS
 62
     0
100
AcDbMText
 10
-249.3384194072864
 20
-78.04379696341341
 30
0.0
 40
4.0
 41
0.0
 71
     5
 72
     1
  1
\A1;47.5
1001
ACAD
1000
MTEXTBEGIN
1070
    73
1070
     1
1070
    44
1040
1.0
1070
    74
1070
     0
1000
MTEXTEND
1000
MTEXTBEGIN
1070
    73
1070
     1
1070
    44
1040
1.0
1070
    74
1070
     0
1000
MTEXTEND
  0
POINT
  5
6BB7
330
64A5
100
AcDbEntity
  8
DEFPOINTS
  6
CONTINUOUS
 62
     0
100
AcDbPoint
 10
-273.0884587732079
 20
-24.000031115783
 30
0.0
  0
POINT
  5
6BB8
330
64A5
100
AcDbEntity
  8
DEFPOINTS
  6
CONTINUOUS
 62
     0
100
AcDbPoint
 10
-225.5883800413648
 20
-24.000031115783
 30
0.0
  0
POINT
  5
6BB9
330
64A5
100
AcDbEntity
  8
DEFPOINTS
  6
CONTINUOUS
 62
     0
100
AcDbPoint
 10
-225.5883800413648
 20
-81.04379696341338
 30
0.0
  0
ENDBLK
  5
64B0
330
64A5
100
AcDbEntity
  8
0
100
AcDbBlockEnd
  0
BLOCK
  5
64BB
330
64B1
100
AcDbEntity
  8
0
100
AcDbBlockBegin
  2
*D6
 70
     1
 10
0.0
 20
0.0
 30
0.0
  3
*D6
  1

  0
LINE
  5
6BD5
330
64B1
100
AcDbEntity
  8
30
  6
CONTINUOUS
 62
     0
100
AcDbLine
 10
-268.6633176265088
 20
39.99999958291414
 30
0.0
 11
-290.7319165072871
 21
39.99999958291414
 31
0.0
  0
LINE
  5
6BD6
330
64B1
100
AcDbEntity
  8
30
  6
CONTINUOUS
 62
     0
100
AcDbLine
 10
-281.2743008973511
 20
0.0000000000000003
 30
0.0
 11
-290.7319165072871
 21
0.000000000000003
 31
0.0
  0
LINE
  5
6BD7
330
64B1
100
AcDbEntity
  8
30
  6
CONTINUOUS
 62
     0
100
AcDbLine
 10
-290.2319165072871
 20
37.99999958291415
 30
0.0
 11
-290.2319165072871
 21
2.000000000000002
 31
0.0
  0
INSERT
  5
6BD8
330
64B1
100
AcDbEntity
  8
30
  6
CONTINUOUS
 62
     0
100
AcDbBlockReference
  2
_OPEN
 10
-290.2319165072871
 20
39.99999958291414
 30
0.0
 41
2.0
 42
2.0
 43
2.0
 50
90.0
  0
INSERT
  5
6BD9
330
64B1
100
AcDbEntity
  8
30
  6
CONTINUOUS
 62
     0
100
AcDbBlockReference
  2
_OPEN
 10
-290.2319165072871
 20
0.0000000000000028
 30
0.0
 41
2.0
 42
2.0
 43
2.0
 50
270.0
  0
MTEXT
  5
6BDA
330
64B1
100
AcDbEntity
  8
30
  6
CONTINUOUS
 62
     0
100
AcDbMText
 10
-293.231916507287
 20
19.99999979145703
 30
0.0
 40
4.0
 41
0.0
 71
     5
 72
     1
  1
\A1;40
 11
0.0000000000000001
 21
1.0
 31
0.0
1001
ACAD
1000
MTEXTBEGIN
1070
    73
1070
     1
1070
    44
1040
1.0
1070
    74
1070
     0
1000
MTEXTEND
1000
MTEXTBEGIN
1070
    73
1070
     1
1070
    44
1040
1.0
1070
    74
1070
     0
1000
MTEXTEND
  0
POINT
  5
6BDB
330
64B1
100
AcDbEntity
  8
DEFPOINTS
  6
CONTINUOUS
 62
     0
100
AcDbPoint
 10
-267.6633176265088
 20
39.99999958291414
 30
0.0
  0
POINT
  5
6BDC
330
64B1
100
AcDbEntity
  8
DEFPOINTS
  6
CONTINUOUS
 62
     0
100
AcDbPoint
 10
-280.2743008973513
 20
0.0
 30
0.0
  0
POINT
  5
6BDD
330
64B1
100
AcDbEntity
  8
DEFPOINTS
  6
CONTINUOUS
 62
     0
100
AcDbPoint
 10
-290.2319165072871
 20
0.0000000000000028
 30
0.0
  0
ENDBLK
  5
64BC
330
64B1
100
AcDbEntity
  8
0
100
AcDbBlockEnd
  0
BLOCK
  5
64C7
330
64BD
100
AcDbEntity
  8
0
100
AcDbBlockBegin
  2
*D7
 70
     1
 10
0.0
 20
0.0
 30
0.0
  3
*D7
  1

  0
LINE
  5
6BC3
330
64BD
100
AcDbEntity
  8
30
  6
CONTINUOUS
 62
     0
100
AcDbLine
 10
-261.5883052680416
 20
-49.07501340538196
 30
0.0
 11
-261.5883052680416
 21
-67.84423486139619
 31
0.0
  0
LINE
  5
6BC4
330
64BD
100
AcDbEntity
  8
30
  6
CONTINUOUS
 62
     0
100
AcDbLine
 10
-236.588334539205
 20
-49.07501340538196
 30
0.0
 11
-236.588334539205
 21
-67.84423486139619
 31
0.0
  0
LINE
  5
6BC5
330
64BD
100
AcDbEntity
  8
30
  6
CONTINUOUS
 62
     0
100
AcDbLine
 10
-259.5883052680416
 20
-67.34423486139617
 30
0.0
 11
-238.588334539205
 21
-67.34423486139617
 31
0.0
  0
INSERT
  5
6BC6
330
64BD
100
AcDbEntity
  8
30
  6
CONTINUOUS
 62
     0
100
AcDbBlockReference
  2
_OPEN
 10
-261.5883052680416
 20
-67.34423486139617
 30
0.0
 41
2.0
 42
2.0
 43
2.0
 50
180.0
  0
INSERT
  5
6BC7
330
64BD
100
AcDbEntity
  8
30
  6
CONTINUOUS
 62
     0
100
AcDbBlockReference
  2
_OPEN
 10
-236.588334539205
 20
-67.34423486139617
 30
0.0
 41
2.0
 42
2.0
 43
2.0
  0
MTEXT
  5
6BC8
330
64BD
100
AcDbEntity
  8
30
  6
CONTINUOUS
 62
     0
100
AcDbMText
 10
-249.0883199036233
 20
-64.34423486139619
 30
0.0
 40
4.0
 41
0.0
 71
     5
 72
     1
  1
\A1;25
1001
ACAD
1000
MTEXTBEGIN
1070
    73
1070
     1
1070
    44
1040
1.0
1070
    74
1070
     0
1000
MTEXTEND
1000
MTEXTBEGIN
1070
    73
1070
     1
1070
    44
1040
1.0
1070
    74
1070
     0
1000
MTEXTEND
  0
POINT
  5
6BC9
330
64BD
100
AcDbEntity
  8
DEFPOINTS
  6
CONTINUOUS
 62
     0
100
AcDbPoint
 10
-261.5883052680416
 20
-48.07501340538196
 30
0.0
  0
POINT
  5
6BCA
330
64BD
100
AcDbEntity
  8
DEFPOINTS
  6
CONTINUOUS
 62
     0
100
AcDbPoint
 10
-236.588334539205
 20
-48.07501340538196
 30
0.0
  0
POINT
  5
6BCB
330
64BD
100
AcDbEntity
  8
DEFPOINTS
  6
CONTINUOUS
 62
     0
100
AcDbPoint
 10
-236.588334539205
 20
-67.34423486139617
 30
0.0
  0
ENDBLK
  5
64C8
330
64BD
100
AcDbEntity
  8
0
100
AcDbBlockEnd
  0
BLOCK
  5
64D1
330
64C9
100
AcDbEntity
  8
0
100
AcDbBlockBegin
  2
*D8
 70
     1
 10
0.0
 20
0.0
 30
0.0
  3
*D8
  1

  0
LINE
  5
6BDE
330
64C9
100
AcDbEntity
  8
30
  6
CONTINUOUS
 62
     0
100
AcDbLine
 10
-249.0883199036232
 20
-13.85502181118508
 30
0.0
 11
-249.0883199036232
 21
-14.35502181118499
 31
0.0
  0
LINE
  5
6BDF
330
64C9
100
AcDbEntity
  8
30
  6
CONTINUOUS
 62
     0
100
AcDbLine
 10
-273.0884587732083
 20
-13.85502181118499
 30
0.0
 11
-273.0884587732083
 21
-14.35502181118499
 31
0.0
  0
LINE
  5
6BE0
330
64C9
100
AcDbEntity
  8
30
  6
CONTINUOUS
 62
     0
100
AcDbLine
 10
-251.0883199036232
 20
-14.85502181118499
 30
0.0
 11
-271.0884587732083
 21
-14.85502181118499
 31
0.0
  0
INSERT
  5
6BE1
330
64C9
100
AcDbEntity
  8
30
  6
CONTINUOUS
 62
     0
100
AcDbBlockReference
  2
_OPEN
 10
-249.0883199036232
 20
-14.85502181118499
 30
0.0
 41
2.0
 42
2.0
 43
2.0
  0
INSERT
  5
6BE2
330
64C9
100
AcDbEntity
  8
30
  6
CONTINUOUS
 62
     0
100
AcDbBlockReference
  2
_OPEN
 10
-273.0884587732083
 20
-14.85502181118499
 30
0.0
 41
2.0
 42
2.0
 43
2.0
 50
180.0
  0
MTEXT
  5
6BE3
330
64C9
100
AcDbEntity
  8
30
  6
CONTINUOUS
 62
     0
100
AcDbMText
 10
-261.0883893384158
 20
-11.85502181118499
 30
0.0
 40
4.0
 41
0.0
 71
     5
 72
     1
  1
\A1;24
1001
ACAD
1000
MTEXTBEGIN
1070
    73
1070
     1
1070
    44
1040
1.0
1070
    74
1070
     0
1000
MTEXTEND
1000
MTEXTBEGIN
1070
    73
1070
     1
1070
    44
1040
1.0
1070
    74
1070
     0
1000
MTEXTEND
  0
POINT
  5
6BE4
330
64C9
100
AcDbEntity
  8
DEFPOINTS
  6
CONTINUOUS
 62
     0
100
AcDbPoint
 10
-249.0883199036232
 20
-14.85502181118508
 30
0.0
  0
POINT
  5
6BE5
330
64C9
100
AcDbEntity
  8
DEFPOINTS
  6
CONTINUOUS
 62
     0
100
AcDbPoint
 10
-273.0884587732083
 20
-14.85502181118499
 30
0.0
  0
POINT
  5
6BE6
330
64C9
100
AcDbEntity
  8
DEFPOINTS
  6
CONTINUOUS
 62
     0
100
AcDbPoint
 10
-273.0884587732083
 20
-14.85502181118499
 30
0.0
  0
ENDBLK
  5
64D2
330
64C9
100
AcDbEntity
  8
0
100
AcDbBlockEnd
  0
BLOCK
  5
64DD
330
64D3
100
AcDbEntity
  8
0
100
AcDbBlockBegin
  2
*D9
 70
     1
 10
0.0
 20
0.0
 30
0.0
  3
*D9
  1

  0
LINE
  5
6B96
330
64D3
100
AcDbEntity
  8
30
  6
CONTINUOUS
 62
     0
100
AcDbLine
 10
-281.2743008973511
 20
0.0000000000000003
 30
0.0
 11
-290.7319165072871
 21
0.000000000000003
 31
0.0
  0
LINE
  5
6B97
330
64D3
100
AcDbEntity
  8
30
  6
CONTINUOUS
 62
     0
100
AcDbLine
 10
-268.6633176265088
 20
-42.00000104691187
 30
0.0
 11
-290.7319165072871
 21
-42.00000104691187
 31
0.0
  0
LINE
  5
6B98
330
64D3
100
AcDbEntity
  8
30
  6
CONTINUOUS
 62
     0
100
AcDbLine
 10
-290.2319165072871
 20
-1.999999999999995
 30
0.0
 11
-290.2319165072871
 21
-40.00000104691187
 31
0.0
  0
INSERT
  5
6B99
330
64D3
100
AcDbEntity
  8
30
  6
CONTINUOUS
 62
     0
100
AcDbBlockReference
  2
_OPEN
 10
-290.2319165072871
 20
0.0000000000000028
 30
0.0
 41
2.0
 42
2.0
 43
2.0
 50
90.0
  0
INSERT
  5
6B9A
330
64D3
100
AcDbEntity
  8
30
  6
CONTINUOUS
 62
     0
100
AcDbBlockReference
  2
_OPEN
 10
-290.2319165072871
 20
-42.00000104691187
 30
0.0
 41
2.0
 42
2.0
 43
2.0
 50
270.0
  0
MTEXT
  5
6B9B
330
64D3
100
AcDbEntity
  8
30
  6
CONTINUOUS
 62
     0
100
AcDbMText
 10
-293.231916507287
 20
-21.00000052345598
 30
0.0
 40
4.0
 41
0.0
 71
     5
 72
     1
  1
\A1;42
 11
0.0000000000000001
 21
1.0
 31
0.0
1001
ACAD
1000
MTEXTBEGIN
1070
    73
1070
     1
1070
    44
1040
1.0
1070
    74
1070
     0
1000
MTEXTEND
1000
MTEXTBEGIN
1070
    73
1070
     1
1070
    44
1040
1.0
1070
    74
1070
     0
1000
MTEXTEND
  0
POINT
  5
6B9C
330
64D3
100
AcDbEntity
  8
DEFPOINTS
  6
CONTINUOUS
 62
     0
100
AcDbPoint
 10
-280.2743008973513
 20
0.0
 30
0.0
  0
POINT
  5
6B9D
330
64D3
100
AcDbEntity
  8
DEFPOINTS
  6
CONTINUOUS
 62
     0
100
AcDbPoint
 10
-267.6633176265088
 20
-42.00000104691187
 30
0.0
  0
POINT
  5
6B9E
330
64D3
100
AcDbEntity
  8
DEFPOINTS
  6
CONTINUOUS
 62
     0
100
AcDbPoint
 10
-290.2319165072871
 20
-42.00000104691187
 30
0.0
  0
ENDBLK
  5
64DE
330
64D3
100
AcDbEntity
  8
0
100
AcDbBlockEnd
  0
BLOCK
  5
64E9
330
64DF
100
AcDbEntity
  8
0
100
AcDbBlockBegin
  2
*D10
 70
     1
 10
0.0
 20
0.0
 30
0.0
  3
*D10
  1

  0
LINE
  5
6B8D
330
64DF
100
AcDbEntity
  8
30
  6
CONTINUOUS
 62
     0
100
AcDbLine
 10
-224.5884410840011
 20
49.75000124025109
 30
0.0
 11
-184.0273311682181
 21
49.75000124025108
 31
0.0
  0
LINE
  5
6B8E
330
64DF
100
AcDbEntity
  8
30
  6
CONTINUOUS
 62
     0
100
AcDbLine
 10
-224.5884410840011
 20
-49.75000124010498
 30
0.0
 11
-184.0273311682181
 21
-49.75000124010499
 31
0.0
  0
LINE
  5
6B8F
330
64DF
100
AcDbEntity
  8
30
  6
CONTINUOUS
 62
     0
100
AcDbLine
 10
-184.5273311682181
 20
47.75000124025107
 30
0.0
 11
-184.5273311682181
 21
-47.75000124010499
 31
0.0
  0
INSERT
  5
6B90
330
64DF
100
AcDbEntity
  8
30
  6
CONTINUOUS
 62
     0
100
AcDbBlockReference
  2
_OPEN
 10
-184.5273311682181
 20
49.75000124025108
 30
0.0
 41
2.0
 42
2.0
 43
2.0
 50
90.0
  0
INSERT
  5
6B91
330
64DF
100
AcDbEntity
  8
30
  6
CONTINUOUS
 62
     0
100
AcDbBlockReference
  2
_OPEN
 10
-184.5273311682181
 20
-49.75000124010499
 30
0.0
 41
2.0
 42
2.0
 43
2.0
 50
270.0
  0
MTEXT
  5
6B92
330
64DF
100
AcDbEntity
  8
30
  6
CONTINUOUS
 62
     0
100
AcDbMText
 10
-187.5273311682181
 20
0.0000000000730199
 30
0.0
 40
4.0
 41
0.0
 71
     5
 72
     1
  1
\A1;100
 11
0.0000000000000001
 21
1.0
 31
0.0
1001
ACAD
1000
MTEXTBEGIN
1070
    73
1070
     1
1070
    44
1040
1.0
1070
    74
1070
     0
1000
MTEXTEND
1000
MTEXTBEGIN
1070
    73
1070
     1
1070
    44
1040
1.0
1070
    74
1070
     0
1000
MTEXTEND
  0
POINT
  5
6B93
330
64DF
100
AcDbEntity
  8
DEFPOINTS
  6
CONTINUOUS
 62
     0
100
AcDbPoint
 10
-225.588441084001
 20
49.75000124025109
 30
0.0
  0
POINT
  5
6B94
330
64DF
100
AcDbEntity
  8
DEFPOINTS
  6
CONTINUOUS
 62
     0
100
AcDbPoint
 10
-225.588441084001
 20
-49.75000124010498
 30
0.0
  0
POINT
  5
6B95
330
64DF
100
AcDbEntity
  8
DEFPOINTS
  6
CONTINUOUS
 62
     0
100
AcDbPoint
 10
-184.5273311682181
 20
-49.75000124010499
 30
0.0
  0
ENDBLK
  5
64EA
330
64DF
100
AcDbEntity
  8
0
100
AcDbBlockEnd
  0
BLOCK
  5
64F5
330
64EB
100
AcDbEntity
  8
0
100
AcDbBlockBegin
  2
*D11
 70
     1
 10
0.0
 20
0.0
 30
0.0
  3
*D11
  1

  0
LINE
  5
6B84
330
64EB
100
AcDbEntity
  8
30
  6
CONTINUOUS
 62
     0
100
AcDbLine
 10
-225.5883495487139
 20
24.9999701056991
 30
0.0
 11
-208.6917341754856
 21
24.9999701056991
 31
0.0
  0
LINE
  5
6B85
330
64EB
100
AcDbEntity
  8
30
  6
CONTINUOUS
 62
     0
100
AcDbLine
 10
-225.5883806891005
 20
-25.00003114071091
 30
0.0
 11
-208.6917341754856
 21
-25.00003114071092
 31
0.0
  0
LINE
  5
6B86
330
64EB
100
AcDbEntity
  8
30
  6
CONTINUOUS
 62
     0
100
AcDbLine
 10
-209.1917341754855
 20
22.9999701056991
 30
0.0
 11
-209.1917341754855
 21
-23.00003114071091
 31
0.0
  0
INSERT
  5
6B87
330
64EB
100
AcDbEntity
  8
30
  6
CONTINUOUS
 62
     0
100
AcDbBlockReference
  2
_OPEN
 10
-209.1917341754855
 20
24.9999701056991
 30
0.0
 41
2.0
 42
2.0
 43
2.0
 50
90.0
  0
INSERT
  5
6B88
330
64EB
100
AcDbEntity
  8
30
  6
CONTINUOUS
 62
     0
100
AcDbBlockReference
  2
_OPEN
 10
-209.1917341754855
 20
-25.00003114071092
 30
0.0
 41
2.0
 42
2.0
 43
2.0
 50
270.0
  0
MTEXT
  5
6B89
330
64EB
100
AcDbEntity
  8
30
  6
CONTINUOUS
 62
     0
100
AcDbMText
 10
-212.1917341754857
 20
-0.000030517505942
 30
0.0
 40
4.0
 41
0.0
 71
     5
 72
     1
  1
\A1;50
 11
0.0000000000000001
 21
1.0
 31
0.0
1001
ACAD
1000
MTEXTBEGIN
1070
    73
1070
     1
1070
    44
1040
1.0
1070
    74
1070
     0
1000
MTEXTEND
1000
MTEXTBEGIN
1070
    73
1070
     1
1070
    44
1040
1.0
1070
    74
1070
     0
1000
MTEXTEND
  0
POINT
  5
6B8A
330
64EB
100
AcDbEntity
  8
DEFPOINTS
  6
CONTINUOUS
 62
     0
100
AcDbPoint
 10
-226.5883495487141
 20
24.9999701056991
 30
0.0
  0
POINT
  5
6B8B
330
64EB
100
AcDbEntity
  8
DEFPOINTS
  6
CONTINUOUS
 62
     0
100
AcDbPoint
 10
-226.5883806891006
 20
-25.00003114071091
 30
0.0
  0
POINT
  5
6B8C
330
64EB
100
AcDbEntity
  8
DEFPOINTS
  6
CONTINUOUS
 62
     0
100
AcDbPoint
 10
-209.1917341754855
 20
-25.00003114071092
 30
0.0
  0
ENDBLK
  5
64F6
330
64EB
100
AcDbEntity
  8
0
100
AcDbBlockEnd
  0
BLOCK
  5
6671
330
6667
100
AcDbEntity
  8
0
100
AcDbBlockBegin
  2
*D12
 70
     1
 10
0.0
 20
0.0
 30
0.0
  3
*D12
  1

  0
LINE
  5
6BF6
330
6667
100
AcDbEntity
  8
30
  6
CONTINUOUS
 62
     0
100
AcDbLine
 10
329.657614108818
 20
2.312532077410464
 30
0.0
 11
329.657614108818
 21
-94.9896796364195
 31
0.0
  0
LINE
  5
6BF7
330
6667
100
AcDbEntity
  8
30
  6
CONTINUOUS
 62
     0
100
AcDbLine
 10
413.6576104253662
 20
-44.00006821062139
 30
0.0
 11
413.6576104253662
 21
-94.9896796364195
 31
0.0
  0
LINE
  5
6BF8
330
6667
100
AcDbEntity
  8
30
  6
CONTINUOUS
 62
     0
100
AcDbLine
 10
331.657614108818
 20
-94.48967963641948
 30
0.0
 11
411.6576104253661
 21
-94.48967963641948
 31
0.0
  0
INSERT
  5
6BF9
330
6667
100
AcDbEntity
  8
30
  6
CONTINUOUS
 62
     0
100
AcDbBlockReference
  2
_OPEN
 10
329.657614108818
 20
-94.48967963641948
 30
0.0
 41
2.0
 42
2.0
 43
2.0
 50
180.0
  0
INSERT
  5
6BFA
330
6667
100
AcDbEntity
  8
30
  6
CONTINUOUS
 62
     0
100
AcDbBlockReference
  2
_OPEN
 10
413.6576104253662
 20
-94.48967963641948
 30
0.0
 41
2.0
 42
2.0
 43
2.0
  0
MTEXT
  5
6BFB
330
6667
100
AcDbEntity
  8
30
  6
CONTINUOUS
 62
     0
100
AcDbMText
 10
371.6576122670922
 20
-91.48967963641949
 30
0.0
 40
4.0
 41
0.0
 71
     5
 72
     1
  1
\A1;84
1001
ACAD
1000
MTEXTBEGIN
1070
    73
1070
     1
1070
    44
1040
1.0
1070
    74
1070
     0
1000
MTEXTEND
1000
MTEXTBEGIN
1070
    73
1070
     1
1070
    44
1040
1.0
1070
    74
1070
     0
1000
MTEXTEND
  0
POINT
  5
6BFC
330
6667
100
AcDbEntity
  8
DEFPOINTS
  6
CONTINUOUS
 62
     0
100
AcDbPoint
 10
329.657614108818
 20
3.312532077410466
 30
0.0
  0
POINT
  5
6BFD
330
6667
100
AcDbEntity
  8
DEFPOINTS
  6
CONTINUOUS
 62
     0
100
AcDbPoint
 10
413.6576104253662
 20
-43.00006821062139
 30
0.0
  0
POINT
  5
6BFE
330
6667
100
AcDbEntity
  8
DEFPOINTS
  6
CONTINUOUS
 62
     0
100
AcDbPoint
 10
413.6576104253662
 20
-94.48967963641948
 30
0.0
  0
ENDBLK
  5
6672
330
6667
100
AcDbEntity
  8
0
100
AcDbBlockEnd
  0
BLOCK
  5
667D
330
6673
100
AcDbEntity
  8
0
100
AcDbBlockBegin
  2
*D13
 70
     1
 10
0.0
 20
0.0
 30
0.0
  3
*D13
  1

  0
LINE
  5
6C11
330
6673
100
AcDbEntity
  8
30
  6
CONTINUOUS
 62
     0
100
AcDbLine
 10
353.6576699648303
 20
-37.8999871869765
 30
0.0
 11
353.6576699648303
 21
-81.54381222223889
 31
0.0
  0
LINE
  5
6C12
330
6673
100
AcDbEntity
  8
30
  6
CONTINUOUS
 62
     0
100
AcDbLine
 10
413.6576104246935
 20
-44.00006821062139
 30
0.0
 11
413.6576104246935
 21
-81.54381222223889
 31
0.0
  0
LINE
  5
6C13
330
6673
100
AcDbEntity
  8
30
  6
CONTINUOUS
 62
     0
100
AcDbLine
 10
355.6576699648303
 20
-81.0438122222389
 30
0.0
 11
411.6576104246935
 21
-81.0438122222389
 31
0.0
  0
INSERT
  5
6C14
330
6673
100
AcDbEntity
  8
30
  6
CONTINUOUS
 62
     0
100
AcDbBlockReference
  2
_OPEN
 10
353.6576699648303
 20
-81.0438122222389
 30
0.0
 41
2.0
 42
2.0
 43
2.0
 50
180.0
  0
INSERT
  5
6C15
330
6673
100
AcDbEntity
  8
30
  6
CONTINUOUS
 62
     0
100
AcDbBlockReference
  2
_OPEN
 10
413.6576104246935
 20
-81.0438122222389
 30
0.0
 41
2.0
 42
2.0
 43
2.0
  0
MTEXT
  5
6C16
330
6673
100
AcDbEntity
  8
30
  6
CONTINUOUS
 62
     0
100
AcDbMText
 10
383.6576401947618
 20
-78.0438122222389
 30
0.0
 40
4.0
 41
0.0
 71
     5
 72
     1
  1
\A1;60
1001
ACAD
1000
MTEXTBEGIN
1070
    73
1070
     1
1070
    44
1040
1.0
1070
    74
1070
     0
1000
MTEXTEND
1000
MTEXTBEGIN
1070
    73
1070
     1
1070
    44
1040
1.0
1070
    74
1070
     0
1000
MTEXTEND
  0
POINT
  5
6C17
330
6673
100
AcDbEntity
  8
DEFPOINTS
  6
CONTINUOUS
 62
     0
100
AcDbPoint
 10
353.6576699648303
 20
-36.8999871869765
 30
0.0
  0
POINT
  5
6C18
330
6673
100
AcDbEntity
  8
DEFPOINTS
  6
CONTINUOUS
 62
     0
100
AcDbPoint
 10
413.6576104246935
 20
-43.00006821062139
 30
0.0
  0
POINT
  5
6C19
330
6673
100
AcDbEntity
  8
DEFPOINTS
  6
CONTINUOUS
 62
     0
100
AcDbPoint
 10
413.6576104246935
 20
-81.0438122222389
 30
0.0
  0
ENDBLK
  5
667E
330
6673
100
AcDbEntity
  8
0
100
AcDbBlockEnd
  0
BLOCK
  5
6689
330
667F
100
AcDbEntity
  8
0
100
AcDbBlockBegin
  2
*D14
 70
     1
 10
0.0
 20
0.0
 30
0.0
  3
*D14
  1

  0
LINE
  5
6C08
330
667F
100
AcDbEntity
  8
30
  6
CONTINUOUS
 62
     0
100
AcDbLine
 10
362.6576396716062
 20
-50.74995546384642
 30
0.0
 11
362.6576396716062
 21
-67.8442501202217
 31
0.0
  0
LINE
  5
6C09
330
667F
100
AcDbEntity
  8
30
  6
CONTINUOUS
 62
     0
100
AcDbLine
 10
413.6576104253662
 20
-44.00006821062139
 30
0.0
 11
413.6576104253662
 21
-67.8442501202217
 31
0.0
  0
LINE
  5
6C0A
330
667F
100
AcDbEntity
  8
30
  6
CONTINUOUS
 62
     0
100
AcDbLine
 10
364.6576396716062
 20
-67.3442501202217
 30
0.0
 11
411.6576104253661
 21
-67.3442501202217
 31
0.0
  0
INSERT
  5
6C0B
330
667F
100
AcDbEntity
  8
30
  6
CONTINUOUS
 62
     0
100
AcDbBlockReference
  2
_OPEN
 10
362.6576396716062
 20
-67.3442501202217
 30
0.0
 41
2.0
 42
2.0
 43
2.0
 50
180.0
  0
INSERT
  5
6C0C
330
667F
100
AcDbEntity
  8
30
  6
CONTINUOUS
 62
     0
100
AcDbBlockReference
  2
_OPEN
 10
413.6576104253662
 20
-67.3442501202217
 30
0.0
 41
2.0
 42
2.0
 43
2.0
  0
MTEXT
  5
6C0D
330
667F
100
AcDbEntity
  8
30
  6
CONTINUOUS
 62
     0
100
AcDbMText
 10
388.1576250484862
 20
-64.3442501202217
 30
0.0
 40
4.0
 41
0.0
 71
     5
 72
     1
  1
\A1;51
1001
ACAD
1000
MTEXTBEGIN
1070
    73
1070
     1
1070
    44
1040
1.0
1070
    74
1070
     0
1000
MTEXTEND
1000
MTEXTBEGIN
1070
    73
1070
     1
1070
    44
1040
1.0
1070
    74
1070
     0
1000
MTEXTEND
  0
POINT
  5
6C0E
330
667F
100
AcDbEntity
  8
DEFPOINTS
  6
CONTINUOUS
 62
     0
100
AcDbPoint
 10
362.6576396716062
 20
-49.74995546384644
 30
0.0
  0
POINT
  5
6C0F
330
667F
100
AcDbEntity
  8
DEFPOINTS
  6
CONTINUOUS
 62
     0
100
AcDbPoint
 10
413.6576104253662
 20
-43.00006821062139
 30
0.0
  0
POINT
  5
6C10
330
667F
100
AcDbEntity
  8
DEFPOINTS
  6
CONTINUOUS
 62
     0
100
AcDbPoint
 10
413.6576104253662
 20
-67.3442501202217
 30
0.0
  0
ENDBLK
  5
668A
330
667F
100
AcDbEntity
  8
0
100
AcDbBlockEnd
  0
BLOCK
  5
6695
330
668B
100
AcDbEntity
  8
0
100
AcDbBlockBegin
  2
*D15
 70
     1
 10
0.0
 20
0.0
 30
0.0
  3
*D15
  1

  0
LINE
  5
6C40
330
668B
100
AcDbEntity
  8
30
  6
CONTINUOUS
 62
     0
100
AcDbLine
 10
370.6576104253662
 20
46.89992485029463
 30
0.0
 11
370.6576104253662
 21
59.26475053604848
 31
0.0
  0
LINE
  5
6C41
330
668B
100
AcDbEntity
  8
30
  6
CONTINUOUS
 62
     0
100
AcDbLine
 10
413.6576104253662
 20
44.00004684824351
 30
0.0
 11
413.6576104253662
 21
59.26475053604848
 31
0.0
  0
LINE
  5
6C42
330
668B
100
AcDbEntity
  8
30
  6
CONTINUOUS
 62
     0
100
AcDbLine
 10
372.6576104253662
 20
58.76475053604848
 30
0.0
 11
411.6576104253661
 21
58.76475053604848
 31
0.0
  0
INSERT
  5
6C43
330
668B
100
AcDbEntity
  8
30
  6
CONTINUOUS
 62
     0
100
AcDbBlockReference
  2
_OPEN
 10
370.6576104253662
 20
58.76475053604848
 30
0.0
 41
2.0
 42
2.0
 43
2.0
 50
180.0
  0
INSERT
  5
6C44
330
668B
100
AcDbEntity
  8
30
  6
CONTINUOUS
 62
     0
100
AcDbBlockReference
  2
_OPEN
 10
413.6576104253662
 20
58.76475053604848
 30
0.0
 41
2.0
 42
2.0
 43
2.0
  0
MTEXT
  5
6C45
330
668B
100
AcDbEntity
  8
30
  6
CONTINUOUS
 62
     0
100
AcDbMText
 10
392.1576104253663
 20
61.76475053604848
 30
0.0
 40
4.0
 41
0.0
 71
     5
 72
     1
  1
\A1;43
1001
ACAD
1000
MTEXTBEGIN
1070
    73
1070
     1
1070
    44
1040
1.0
1070
    74
1070
     0
1000
MTEXTEND
1000
MTEXTBEGIN
1070
    73
1070
     1
1070
    44
1040
1.0
1070
    74
1070
     0
1000
MTEXTEND
  0
POINT
  5
6C46
330
668B
100
AcDbEntity
  8
DEFPOINTS
  6
CONTINUOUS
 62
     0
100
AcDbPoint
 10
370.6576104253662
 20
45.89992485029465
 30
0.0
  0
POINT
  5
6C47
330
668B
100
AcDbEntity
  8
DEFPOINTS
  6
CONTINUOUS
 62
     0
100
AcDbPoint
 10
413.6576104253662
 20
43.0000468482435
 30
0.0
  0
POINT
  5
6C48
330
668B
100
AcDbEntity
  8
DEFPOINTS
  6
CONTINUOUS
 62
     0
100
AcDbPoint
 10
413.6576104253662
 20
58.76475053604848
 30
0.0
  0
ENDBLK
  5
6696
330
668B
100
AcDbEntity
  8
0
100
AcDbBlockEnd
  0
BLOCK
  5
66A1
330
6697
100
AcDbEntity
  8
0
100
AcDbBlockBegin
  2
*D16
 70
     1
 10
0.0
 20
0.0
 30
0.0
  3
*D16
  1

  0
LINE
  5
6C49
330
6697
100
AcDbEntity
  8
30
  6
CONTINUOUS
 62
     0
100
AcDbLine
 10
365.1576104253662
 20
100.7499859813524
 30
0.0
 11
365.1576104253662
 21
107.8837932594371
 31
0.0
  0
LINE
  5
6C4A
330
6697
100
AcDbEntity
  8
30
  6
CONTINUOUS
 62
     0
100
AcDbLine
 10
411.1576104253662
 20
100.7499859813524
 30
0.0
 11
411.1576104253662
 21
107.8837932594371
 31
0.0
  0
LINE
  5
6C4B
330
6697
100
AcDbEntity
  8
30
  6
CONTINUOUS
 62
     0
100
AcDbLine
 10
367.1576104253662
 20
107.383793259437
 30
0.0
 11
409.1576104253662
 21
107.383793259437
 31
0.0
  0
INSERT
  5
6C4C
330
6697
100
AcDbEntity
  8
30
  6
CONTINUOUS
 62
     0
100
AcDbBlockReference
  2
_OPEN
 10
365.1576104253662
 20
107.383793259437
 30
0.0
 41
2.0
 42
2.0
 43
2.0
 50
180.0
  0
INSERT
  5
6C4D
330
6697
100
AcDbEntity
  8
30
  6
CONTINUOUS
 62
     0
100
AcDbBlockReference
  2
_OPEN
 10
411.1576104253662
 20
107.383793259437
 30
0.0
 41
2.0
 42
2.0
 43
2.0
  0
MTEXT
  5
6C4E
330
6697
100
AcDbEntity
  8
30
  6
CONTINUOUS
 62
     0
100
AcDbMText
 10
388.1576104253662
 20
110.3837932594371
 30
0.0
 40
4.0
 41
0.0
 71
     5
 72
     1
  1
\A1;46
1001
ACAD
1000
MTEXTBEGIN
1070
    73
1070
     1
1070
    44
1040
1.0
1070
    74
1070
     0
1000
MTEXTEND
1000
MTEXTBEGIN
1070
    73
1070
     1
1070
    44
1040
1.0
1070
    74
1070
     0
1000
MTEXTEND
  0
POINT
  5
6C4F
330
6697
100
AcDbEntity
  8
DEFPOINTS
  6
CONTINUOUS
 62
     0
100
AcDbPoint
 10
365.1576104253662
 20
99.74998598135259
 30
0.0
  0
POINT
  5
6C50
330
6697
100
AcDbEntity
  8
DEFPOINTS
  6
CONTINUOUS
 62
     0
100
AcDbPoint
 10
411.1576104253662
 20
99.74998598135259
 30
0.0
  0
POINT
  5
6C51
330
6697
100
AcDbEntity
  8
DEFPOINTS
  6
CONTINUOUS
 62
     0
100
AcDbPoint
 10
411.1576104253662
 20
107.383793259437
 30
0.0
  0
ENDBLK
  5
66A2
330
6697
100
AcDbEntity
  8
0
100
AcDbBlockEnd
  0
BLOCK
  5
66AF
330
66A3
100
AcDbEntity
  8
0
100
AcDbBlockBegin
  2
*D17
 70
     1
 10
0.0
 20
0.0
 30
0.0
  3
*D17
  1

  0
LINE
  5
6C23
330
66A3
100
AcDbEntity
  8
30
  6
CONTINUOUS
 62
     0
100
AcDbLine
 10
345.6577003536953
 20
-25.49995483440942
 30
0.0
 11
345.6577003536953
 21
-62.26666417942642
 31
0.0
  0
LINE
  5
6C24
330
66A3
100
AcDbEntity
  8
30
  6
CONTINUOUS
 62
     0
100
AcDbLine
 10
341.6577003954043
 20
-25.4999548344084
 30
0.0
 11
341.6577003954043
 21
-62.26666417942642
 31
0.0
  0
LINE
  5
6C25
330
66A3
100
AcDbEntity
  8
30
  6
CONTINUOUS
 62
     0
100
AcDbLine
 10
347.6577003536953
 20
-61.76666417942642
 30
0.0
 11
349.6577003536953
 21
-61.76666417942642
 31
0.0
  0
LINE
  5
6C26
330
66A3
100
AcDbEntity
  8
30
  6
CONTINUOUS
 62
     0
100
AcDbLine
 10
339.6577003954043
 20
-61.76666417942642
 30
0.0
 11
332.9910337287376
 21
-61.76666417942642
 31
0.0
  0
INSERT
  5
6C27
330
66A3
100
AcDbEntity
  8
30
  6
CONTINUOUS
 62
     0
100
AcDbBlockReference
  2
_OPEN
 10
345.6577003536953
 20
-61.76666417942642
 30
0.0
 41
2.0
 42
2.0
 43
2.0
 50
180.0
  0
INSERT
  5
6C28
330
66A3
100
AcDbEntity
  8
30
  6
CONTINUOUS
 62
     0
100
AcDbBlockReference
  2
_OPEN
 10
341.6577003954043
 20
-61.76666417942642
 30
0.0
 41
2.0
 42
2.0
 43
2.0
  0
MTEXT
  5
6C29
330
66A3
100
AcDbEntity
  8
30
  6
CONTINUOUS
 62
     0
100
AcDbMText
 10
335.324367062071
 20
-58.76666417942642
 30
0.0
 40
4.0
 41
0.0
 71
     5
 72
     1
  1
\A1;4
1001
ACAD
1000
MTEXTBEGIN
1070
    73
1070
     1
1070
    44
1040
1.0
1070
    74
1070
     0
1000
MTEXTEND
1000
MTEXTBEGIN
1070
    73
1070
     1
1070
    44
1040
1.0
1070
    74
1070
     0
1000
MTEXTEND
  0
POINT
  5
6C2A
330
66A3
100
AcDbEntity
  8
DEFPOINTS
  6
CONTINUOUS
 62
     0
100
AcDbPoint
 10
345.6577003536953
 20
-24.49995483440942
 30
0.0
  0
POINT
  5
6C2B
330
66A3
100
AcDbEntity
  8
DEFPOINTS
  6
CONTINUOUS
 62
     0
100
AcDbPoint
 10
341.6577003954043
 20
-24.4999548344084
 30
0.0
  0
POINT
  5
6C2C
330
66A3
100
AcDbEntity
  8
DEFPOINTS
  6
CONTINUOUS
 62
     0
100
AcDbPoint
 10
341.6577003954043
 20
-61.76666417942642
 30
0.0
  0
ENDBLK
  5
66B0
330
66A3
100
AcDbEntity
  8
0
100
AcDbBlockEnd
  0
BLOCK
  5
66BD
330
66B1
100
AcDbEntity
  8
0
100
AcDbBlockBegin
  2
*D18
 70
     1
 10
0.0
 20
0.0
 30
0.0
  3
*D18
  1

  0
LINE
  5
6C1A
330
66B1
100
AcDbEntity
  8
30
  6
CONTINUOUS
 62
     0
100
AcDbLine
 10
345.6577003536953
 20
-25.4999548344104
 30
0.0
 11
345.6577003536953
 21
-81.54381222223889
 31
0.0
  0
LINE
  5
6C1B
330
66B1
100
AcDbEntity
  8
30
  6
CONTINUOUS
 62
     0
100
AcDbLine
 10
353.6576699648303
 20
-37.8999871869765
 30
0.0
 11
353.6576699648303
 21
-81.54381222223889
 31
0.0
  0
LINE
  5
6C1C
330
66B1
100
AcDbEntity
  8
30
  6
CONTINUOUS
 62
     0
100
AcDbLine
 10
347.6577003536953
 20
-81.0438122222389
 30
0.0
 11
351.6576699648304
 21
-81.0438122222389
 31
0.0
  0
INSERT
  5
6C1D
330
66B1
100
AcDbEntity
  8
30
  6
CONTINUOUS
 62
     0
100
AcDbBlockReference
  2
_OPEN
 10
345.6577003536953
 20
-81.0438122222389
 30
0.0
 41
2.0
 42
2.0
 43
2.0
 50
180.0
  0
INSERT
  5
6C1E
330
66B1
100
AcDbEntity
  8
30
  6
CONTINUOUS
 62
     0
100
AcDbBlockReference
  2
_OPEN
 10
353.6576699648303
 20
-81.0438122222389
 30
0.0
 41
2.0
 42
2.0
 43
2.0
  0
MTEXT
  5
6C1F
330
66B1
100
AcDbEntity
  8
30
  6
CONTINUOUS
 62
     0
100
AcDbMText
 10
349.6576851592628
 20
-78.0438122222389
 30
0.0
 40
4.0
 41
0.0
 71
     5
 72
     1
  1
\A1;8
1001
ACAD
1000
MTEXTBEGIN
1070
    73
1070
     1
1070
    44
1040
1.0
1070
    74
1070
     0
1000
MTEXTEND
1000
MTEXTBEGIN
1070
    73
1070
     1
1070
    44
1040
1.0
1070
    74
1070
     0
1000
MTEXTEND
  0
POINT
  5
6C20
330
66B1
100
AcDbEntity
  8
DEFPOINTS
  6
CONTINUOUS
 62
     0
100
AcDbPoint
 10
345.6577003536953
 20
-24.49995483441041
 30
0.0
  0
POINT
  5
6C21
330
66B1
100
AcDbEntity
  8
DEFPOINTS
  6
CONTINUOUS
 62
     0
100
AcDbPoint
 10
353.6576699648303
 20
-36.8999871869765
 30
0.0
  0
POINT
  5
6C22
330
66B1
100
AcDbEntity
  8
DEFPOINTS
  6
CONTINUOUS
 62
     0
100
AcDbPoint
 10
353.6576699648303
 20
-81.0438122222389
 30
0.0
  0
ENDBLK
  5
66BE
330
66B1
100
AcDbEntity
  8
0
100
AcDbBlockEnd
  0
BLOCK
  5
66CB
330
66BF
100
AcDbEntity
  8
0
100
AcDbBlockBegin
  2
*D19
 70
     1
 10
0.0
 20
0.0
 30
0.0
  3
*D19
  1

  0
LINE
  5
6C36
330
66BF
100
AcDbEntity
  8
30
  6
CONTINUOUS
 62
     0
100
AcDbLine
 10
411.1576104253662
 20
100.7499859813524
 30
0.0
 11
411.1576104253662
 21
107.8837932594371
 31
0.0
  0
LINE
  5
6C37
330
66BF
100
AcDbEntity
  8
30
  6
CONTINUOUS
 62
     0
100
AcDbLine
 10
413.6576104253662
 20
44.00004684824351
 30
0.0
 11
413.6576104253662
 21
107.8837932594371
 31
0.0
  0
LINE
  5
6C38
330
66BF
100
AcDbEntity
  8
30
  6
CONTINUOUS
 62
     0
100
AcDbLine
 10
409.1576104253662
 20
107.383793259437
 30
0.0
 11
407.1576104253662
 21
107.383793259437
 31
0.0
  0
LINE
  5
6C39
330
66BF
100
AcDbEntity
  8
30
  6
CONTINUOUS
 62
     0
100
AcDbLine
 10
415.6576104253661
 20
107.383793259437
 30
0.0
 11
427.6576104253662
 21
107.383793259437
 31
0.0
  0
INSERT
  5
6C3A
330
66BF
100
AcDbEntity
  8
30
  6
CONTINUOUS
 62
     0
100
AcDbBlockReference
  2
_OPEN
 10
411.1576104253662
 20
107.383793259437
 30
0.0
 41
2.0
 42
2.0
 43
2.0
  0
INSERT
  5
6C3B
330
66BF
100
AcDbEntity
  8
30
  6
CONTINUOUS
 62
     0
100
AcDbBlockReference
  2
_OPEN
 10
413.6576104253662
 20
107.383793259437
 30
0.0
 41
2.0
 42
2.0
 43
2.0
 50
180.0
  0
MTEXT
  5
6C3C
330
66BF
100
AcDbEntity
  8
30
  6
CONTINUOUS
 62
     0
100
AcDbMText
 10
422.6576104253663
 20
110.3837932594371
 30
0.0
 40
4.0
 41
0.0
 71
     5
 72
     1
  1
\A1;2.5
1001
ACAD
1000
MTEXTBEGIN
1070
    73
1070
     1
1070
    44
1040
1.0
1070
    74
1070
     0
1000
MTEXTEND
1000
MTEXTBEGIN
1070
    73
1070
     1
1070
    44
1040
1.0
1070
    74
1070
     0
1000
MTEXTEND
  0
POINT
  5
6C3D
330
66BF
100
AcDbEntity
  8
DEFPOINTS
  6
CONTINUOUS
 62
     0
100
AcDbPoint
 10
411.1576104253662
 20
99.74998598135259
 30
0.0
  0
POINT
  5
6C3E
330
66BF
100
AcDbEntity
  8
DEFPOINTS
  6
CONTINUOUS
 62
     0
100
AcDbPoint
 10
413.6576104253662
 20
43.0000468482435
 30
0.0
  0
POINT
  5
6C3F
330
66BF
100
AcDbEntity
  8
DEFPOINTS
  6
CONTINUOUS
 62
     0
100
AcDbPoint
 10
413.6576104253662
 20
107.383793259437
 30
0.0
  0
ENDBLK
  5
66CC
330
66BF
100
AcDbEntity
  8
0
100
AcDbBlockEnd
  0
BLOCK
  5
6759
330
674F
100
AcDbEntity
  8
0
100
AcDbBlockBegin
  2
*D20
 70
     1
 10
0.0
 20
0.0
 30
0.0
  3
*D20
  1

  0
LINE
  5
6BA8
330
674F
100
AcDbEntity
  8
30
  6
CONTINUOUS
 62
     0
100
AcDbLine
 10
-240.5929582132505
 20
-208.8473930239059
 30
0.0
 11
-201.9642360890935
 21
-208.8473930239059
 31
0.0
  0
LINE
  5
6BA9
330
674F
100
AcDbEntity
  8
30
  6
CONTINUOUS
 62
     0
100
AcDbLine
 10
-240.0148662602024
 20
-292.8473950181631
 30
0.0
 11
-201.9642360890935
 21
-292.8473950181631
 31
0.0
  0
LINE
  5
6BAA
330
674F
100
AcDbEntity
  8
30
  6
CONTINUOUS
 62
     0
100
AcDbLine
 10
-202.4642360890937
 20
-210.8473930239059
 30
0.0
 11
-202.4642360890937
 21
-290.8473950181631
 31
0.0
  0
INSERT
  5
6BAB
330
674F
100
AcDbEntity
  8
30
  6
CONTINUOUS
 62
     0
100
AcDbBlockReference
  2
_OPEN
 10
-202.4642360890937
 20
-208.8473930239059
 30
0.0
 41
2.0
 42
2.0
 43
2.0
 50
90.0
  0
INSERT
  5
6BAC
330
674F
100
AcDbEntity
  8
30
  6
CONTINUOUS
 62
     0
100
AcDbBlockReference
  2
_OPEN
 10
-202.4642360890937
 20
-292.8473950181631
 30
0.0
 41
2.0
 42
2.0
 43
2.0
 50
270.0
  0
MTEXT
  5
6BAD
330
674F
100
AcDbEntity
  8
30
  6
CONTINUOUS
 62
     0
100
AcDbMText
 10
-205.4642360890936
 20
-250.8473940210345
 30
0.0
 40
4.0
 41
0.0
 71
     5
 72
     1
  1
\A1;84
 11
0.0000000000000001
 21
1.0
 31
0.0
1001
ACAD
1000
MTEXTBEGIN
1070
    73
1070
     1
1070
    44
1040
1.0
1070
    74
1070
     0
1000
MTEXTEND
1000
MTEXTBEGIN
1070
    73
1070
     1
1070
    44
1040
1.0
1070
    74
1070
     0
1000
MTEXTEND
  0
POINT
  5
6BAE
330
674F
100
AcDbEntity
  8
DEFPOINTS
  6
CONTINUOUS
 62
     0
100
AcDbPoint
 10
-241.5929582132505
 20
-208.8473930239059
 30
0.0
  0
POINT
  5
6BAF
330
674F
100
AcDbEntity
  8
DEFPOINTS
  6
CONTINUOUS
 62
     0
100
AcDbPoint
 10
-241.0148662602024
 20
-292.8473950181631
 30
0.0
  0
POINT
  5
6BB0
330
674F
100
AcDbEntity
  8
DEFPOINTS
  6
CONTINUOUS
 62
     0
100
AcDbPoint
 10
-202.4642360890937
 20
-292.8473950181631
 30
0.0
  0
ENDBLK
  5
675A
330
674F
100
AcDbEntity
  8
0
100
AcDbBlockEnd
  0
BLOCK
  5
67B2
330
67AB
100
AcDbEntity
  8
0
100
AcDbBlockBegin
  2
*D21
 70
     1
 10
0.0
 20
0.0
 30
0.0
  3
*D21
  1

  0
LINE
  5
6BF0
330
67AB
100
AcDbEntity
  8
11
 62
     0
100
AcDbLine
 10
332.2847949337774
 20
-240.0989801754509
 30
0.0
 11
319.3597570338165
 21
-228.7937940512335
 31
0.0
  0
MTEXT
  5
6BF1
330
67AB
100
AcDbEntity
  8
11
 62
     0
100
AcDbMText
 10
330.6529646243077
 20
-233.357449121439
 30
0.0
 40
5.0
 41
0.0
 71
     5
 72
     1
  1
\A1;R2
 11
0.7526985305482264
 21
-0.6583653409092407
 31
0.0
1001
ACAD
1000
MTEXTBEGIN
1070
    73
1070
     1
1070
    44
1040
1.0
1070
    74
1070
     0
1000
MTEXTEND
1000
MTEXTBEGIN
1070
    73
1070
     1
1070
    44
1040
1.0
1070
    74
1070
     0
1000
MTEXTEND
  0
LINE
  5
6BF2
330
67AB
100
AcDbEntity
  8
11
 62
     0
100
AcDbLine
 10
314.0996155181561
 20
-224.1928884806245
 30
0.0
 11
315.5962643810753
 21
-225.5019673466875
 31
0.0
  0
INSERT
  5
6BF3
330
67AB
100
AcDbEntity
  8
11
 62
     0
100
AcDbBlockReference
  2
_OPEN30
 10
315.5962643810753
 20
-225.5019673466875
 30
0.0
 41
5.0
 42
5.0
 43
5.0
 50
138.8246767612145
  0
POINT
  5
6BF4
330
67AB
100
AcDbEntity
  8
DEFPOINTS
 62
     0
100
AcDbPoint
 10
315.5962643810753
 20
-225.5019673466875
 30
0.0
  0
POINT
  5
6BF5
330
67AB
100
AcDbEntity
  8
DEFPOINTS
 62
     0
100
AcDbPoint
 10
314.0996155181561
 20
-224.1928884806245
 30
0.0
  0
ENDBLK
  5
67B3
330
67AB
100
AcDbEntity
  8
0
100
AcDbBlockEnd
  0
BLOCK
  5
67BE
330
67B4
100
AcDbEntity
  8
0
100
AcDbBlockBegin
  2
*D22
 70
     1
 10
0.0
 20
0.0
 30
0.0
  3
*D22
  1

  0
LINE
  5
6BE7
330
67B4
100
AcDbEntity
  8
30
  6
CONTINUOUS
 62
     0
100
AcDbLine
 10
315.17508147141
 20
-275.8473946193118
 30
0.0
 11
315.17508147141
 21
-320.8215689840651
 31
0.0
  0
LINE
  5
6BE8
330
67B4
100
AcDbEntity
  8
30
  6
CONTINUOUS
 62
     0
100
AcDbLine
 10
360.1750831665272
 20
-275.8473946193118
 30
0.0
 11
360.1750831665272
 21
-320.8215689840651
 31
0.0
  0
LINE
  5
6BE9
330
67B4
100
AcDbEntity
  8
30
  6
CONTINUOUS
 62
     0
100
AcDbLine
 10
317.17508147141
 20
-320.3215689840651
 30
0.0
 11
358.1750831665272
 21
-320.3215689840651
 31
0.0
  0
INSERT
  5
6BEA
330
67B4
100
AcDbEntity
  8
30
  6
CONTINUOUS
 62
     0
100
AcDbBlockReference
  2
_OPEN
 10
315.17508147141
 20
-320.3215689840651
 30
0.0
 41
2.0
 42
2.0
 43
2.0
 50
180.0
  0
INSERT
  5
6BEB
330
67B4
100
AcDbEntity
  8
30
  6
CONTINUOUS
 62
     0
100
AcDbBlockReference
  2
_OPEN
 10
360.1750831665272
 20
-320.3215689840651
 30
0.0
 41
2.0
 42
2.0
 43
2.0
  0
MTEXT
  5
6BEC
330
67B4
100
AcDbEntity
  8
30
  6
CONTINUOUS
 62
     0
100
AcDbMText
 10
337.6750823189686
 20
-317.3215689840651
 30
0.0
 40
4.0
 41
0.0
 71
     5
 72
     1
  1
\A1;50
1001
ACAD
1000
MTEXTBEGIN
1070
    73
1070
     1
1070
    44
1040
1.0
1070
    74
1070
     0
1000
MTEXTEND
1000
MTEXTBEGIN
1070
    73
1070
     1
1070
    44
1040
1.0
1070
    74
1070
     0
1000
MTEXTEND
  0
POINT
  5
6BED
330
67B4
100
AcDbEntity
  8
DEFPOINTS
  6
CONTINUOUS
 62
     0
100
AcDbPoint
 10
315.17508147141
 20
-274.8473946193118
 30
0.0
  0
POINT
  5
6BEE
330
67B4
100
AcDbEntity
  8
DEFPOINTS
  6
CONTINUOUS
 62
     0
100
AcDbPoint
 10
360.1750831665272
 20
-274.8473946193118
 30
0.0
  0
POINT
  5
6BEF
330
67B4
100
AcDbEntity
  8
DEFPOINTS
  6
CONTINUOUS
 62
     0
100
AcDbPoint
 10
360.1750831665272
 20
-320.3215689840651
 30
0.0
  0
ENDBLK
  5
67BF
330
67B4
100
AcDbEntity
  8
0
100
AcDbBlockEnd
  0
BLOCK
  5
67CA
330
67C0
100
AcDbEntity
  8
0
100
AcDbBlockBegin
  2
*D23
 70
     1
 10
0.0
 20
0.0
 30
0.0
  3
*D23
  1

  0
LINE
  5
6BFF
330
67C0
100
AcDbEntity
  8
30
  6
CONTINUOUS
 62
     0
100
AcDbLine
 10
359.1750831166708
 20
-224.8473933729012
 30
0.0
 11
385.5481778301649
 21
-224.8473933729012
 31
0.0
  0
LINE
  5
6C00
330
67C0
100
AcDbEntity
  8
30
  6
CONTINUOUS
 62
     0
100
AcDbLine
 10
359.1750831166708
 20
-276.847394669168
 30
0.0
 11
385.5481778301649
 21
-276.8473946691683
 31
0.0
  0
LINE
  5
6C01
330
67C0
100
AcDbEntity
  8
30
  6
CONTINUOUS
 62
     0
100
AcDbLine
 10
385.048177830165
 20
-226.8473933729012
 30
0.0
 11
385.048177830165
 21
-274.847394669168
 31
0.0
  0
INSERT
  5
6C02
330
67C0
100
AcDbEntity
  8
30
  6
CONTINUOUS
 62
     0
100
AcDbBlockReference
  2
_OPEN
 10
385.048177830165
 20
-224.8473933729012
 30
0.0
 41
2.0
 42
2.0
 43
2.0
 50
90.0
  0
INSERT
  5
6C03
330
67C0
100
AcDbEntity
  8
30
  6
CONTINUOUS
 62
     0
100
AcDbBlockReference
  2
_OPEN
 10
385.048177830165
 20
-276.8473946691683
 30
0.0
 41
2.0
 42
2.0
 43
2.0
 50
270.0
  0
MTEXT
  5
6C04
330
67C0
100
AcDbEntity
  8
30
  6
CONTINUOUS
 62
     0
100
AcDbMText
 10
382.0481778301651
 20
-250.8473940210345
 30
0.0
 40
4.0
 41
0.0
 71
     5
 72
     1
  1
\A1;52
 11
0.0000000000000001
 21
1.0
 31
0.0
1001
ACAD
1000
MTEXTBEGIN
1070
    73
1070
     1
1070
    44
1040
1.0
1070
    74
1070
     0
1000
MTEXTEND
1000
MTEXTBEGIN
1070
    73
1070
     1
1070
    44
1040
1.0
1070
    74
1070
     0
1000
MTEXTEND
  0
POINT
  5
6C05
330
67C0
100
AcDbEntity
  8
DEFPOINTS
  6
CONTINUOUS
 62
     0
100
AcDbPoint
 10
358.1750831166708
 20
-224.8473933729012
 30
0.0
  0
POINT
  5
6C06
330
67C0
100
AcDbEntity
  8
DEFPOINTS
  6
CONTINUOUS
 62
     0
100
AcDbPoint
 10
358.1750831166708
 20
-276.847394669168
 30
0.0
  0
POINT
  5
6C07
330
67C0
100
AcDbEntity
  8
DEFPOINTS
  6
CONTINUOUS
 62
     0
100
AcDbPoint
 10
385.048177830165
 20
-276.8473946691683
 30
0.0
  0
ENDBLK
  5
67CB
330
67C0
100
AcDbEntity
  8
0
100
AcDbBlockEnd
  0
BLOCK
  5
6A69
330
6A60
100
AcDbEntity
  8
0
100
AcDbBlockBegin
  2
*D24
 70
     1
 10
0.0
 20
0.0
 30
0.0
  3
*D24
  1

  0
LINE
  5
740E
330
6A60
100
AcDbEntity
  8
0
  6
CONTINUOUS
 62
     0
100
AcDbLine
 10
517.7091919256711
 20
28.96868912258861
 30
0.0
 11
510.0425252590039
 21
28.96868912258858
 31
0.0
  0
LINE
  5
740F
330
6A60
100
AcDbEntity
  8
0
  6
CONTINUOUS
 62
     0
100
AcDbLine
 10
510.0425252590039
 20
28.96868912258858
 30
0.0
 11
491.1321449367505
 21
19.13864155679718
 31
0.0
  0
MTEXT
  5
7410
330
6A60
100
AcDbEntity
  8
0
  6
CONTINUOUS
 62
     0
100
AcDbMText
 10
514.3758585923377
 20
31.96868912258855
 30
0.0
 40
4.0
 41
0.0
 71
     5
 72
     1
  1
\A1;%%C9
1001
ACAD
1000
MTEXTBEGIN
1070
    73
1070
     1
1070
    44
1040
1.0
1070
    74
1070
     0
1000
MTEXTEND
1000
MTEXTBEGIN
1070
    73
1070
     1
1070
    44
1040
1.0
1070
    74
1070
     0
1000
MTEXTEND
  0
INSERT
  5
7411
330
6A60
100
AcDbEntity
  8
0
  6
CONTINUOUS
 62
     0
100
AcDbBlockReference
  2
_OPEN
 10
489.3575826674631
 20
18.21618356186069
 30
0.0
 41
2.0
 42
2.0
 43
2.0
 50
207.4664409352069
  0
LINE
  5
7412
330
6A60
100
AcDbEntity
  8
0
  6
CONTINUOUS
 62
     0
100
AcDbLine
 10
485.2748175615671
 20
16.14065307325359
 30
0.0
 11
485.4548175615668
 21
16.14065307325364
 31
0.0
  0
LINE
  5
7413
330
6A60
100
AcDbEntity
  8
0
  6
CONTINUOUS
 62
     0
100
AcDbLine
 10
485.3648175615671
 20
16.05065307325361
 30
0.0
 11
485.3648175615671
 21
16.23065307325364
 31
0.0
  0
POINT
  5
7414
330
6A60
100
AcDbEntity
  8
DEFPOINTS
  6
CONTINUOUS
 62
     0
100
AcDbPoint
 10
489.3575826674631
 20
18.21618356186069
 30
0.0
  0
POINT
  5
7415
330
6A60
100
AcDbEntity
  8
DEFPOINTS
  6
CONTINUOUS
 62
     0
100
AcDbPoint
 10
481.3720524556707
 20
14.0651225846466
 30
0.0
  0
ENDBLK
  5
6A6A
330
6A60
100
AcDbEntity
  8
0
100
AcDbBlockEnd
  0
BLOCK
  5
6A77
330
6A6B
100
AcDbEntity
  8
0
100
AcDbBlockBegin
  2
*D25
 70
     1
 10
0.0
 20
0.0
 30
0.0
  3
*D25
  1

  0
LINE
  5
7416
330
6A6B
100
AcDbEntity
  8
0
  6
CONTINUOUS
 62
     0
100
AcDbLine
 10
478.3648174119981
 20
7.640652923684451
 30
0.0
 11
478.3648174119981
 21
-4.830798457326189
 31
0.0
  0
LINE
  5
7417
330
6A6B
100
AcDbEntity
  8
0
  6
CONTINUOUS
 62
     0
100
AcDbLine
 10
485.3648175615668
 20
6.320455049695558
 30
0.0
 11
485.3648175615668
 21
-4.830798457326189
 31
0.0
  0
LINE
  5
7418
330
6A6B
100
AcDbEntity
  8
0
  6
CONTINUOUS
 62
     0
100
AcDbLine
 10
480.3648174119979
 20
-4.330798457326189
 30
0.0
 11
483.3648175615668
 21
-4.330798457326189
 31
0.0
  0
INSERT
  5
7419
330
6A6B
100
AcDbEntity
  8
0
  6
CONTINUOUS
 62
     0
100
AcDbBlockReference
  2
_OPEN
 10
478.3648174119981
 20
-4.330798457326189
 30
0.0
 41
2.0
 42
2.0
 43
2.0
 50
180.0
  0
INSERT
  5
741A
330
6A6B
100
AcDbEntity
  8
0
  6
CONTINUOUS
 62
     0
100
AcDbBlockReference
  2
_OPEN
 10
485.3648175615668
 20
-4.330798457326189
 30
0.0
 41
2.0
 42
2.0
 43
2.0
  0
MTEXT
  5
741B
330
6A6B
100
AcDbEntity
  8
0
  6
CONTINUOUS
 62
     0
100
AcDbMText
 10
481.8648174867823
 20
-1.330798457326189
 30
0.0
 40
4.0
 41
0.0
 71
     5
 72
     1
  1
\A1;7
1001
ACAD
1000
MTEXTBEGIN
1070
    73
1070
     1
1070
    44
1040
1.0
1070
    74
1070
     0
1000
MTEXTEND
1000
MTEXTBEGIN
1070
    73
1070
     1
1070
    44
1040
1.0
1070
    74
1070
     0
1000
MTEXTEND
  0
POINT
  5
741C
330
6A6B
100
AcDbEntity
  8
DEFPOINTS
  6
CONTINUOUS
 62
     0
100
AcDbPoint
 10
478.3648174119981
 20
8.64065292368445
 30
0.0
  0
POINT
  5
741D
330
6A6B
100
AcDbEntity
  8
DEFPOINTS
  6
CONTINUOUS
 62
     0
100
AcDbPoint
 10
485.3648175615668
 20
7.320455049695558
 30
0.0
  0
POINT
  5
741E
330
6A6B
100
AcDbEntity
  8
DEFPOINTS
  6
CONTINUOUS
 62
     0
100
AcDbPoint
 10
485.3648175615668
 20
-4.330798457326189
 30
0.0
  0
ENDBLK
  5
6A78
330
6A6B
100
AcDbEntity
  8
0
100
AcDbBlockEnd
  0
BLOCK
  5
6A83
330
6A79
100
AcDbEntity
  8
0
100
AcDbBlockBegin
  2
*D26
 70
     1
 10
0.0
 20
0.0
 30
0.0
  3
*D26
  1

  0
LINE
  5
741F
330
6A79
100
AcDbEntity
  8
0
  6
CONTINUOUS
 62
     0
100
AcDbLine
 10
477.364817411998
 20
23.64065322282294
 30
0.0
 11
458.2236072944076
 21
23.64065322282294
 31
0.0
  0
LINE
  5
7420
330
6A79
100
AcDbEntity
  8
0
  6
CONTINUOUS
 62
     0
100
AcDbLine
 10
477.364817411998
 20
8.64065292368445
 30
0.0
 11
458.2236072944076
 21
8.640652923684458
 31
0.0
  0
LINE
  5
7421
330
6A79
100
AcDbEntity
  8
0
  6
CONTINUOUS
 62
     0
100
AcDbLine
 10
458.7236072944078
 20
21.64065322282294
 30
0.0
 11
458.7236072944078
 21
10.64065292368445
 31
0.0
  0
INSERT
  5
7422
330
6A79
100
AcDbEntity
  8
0
  6
CONTINUOUS
 62
     0
100
AcDbBlockReference
  2
_OPEN
 10
458.7236072944078
 20
23.64065322282294
 30
0.0
 41
2.0
 42
2.0
 43
2.0
 50
90.0
  0
INSERT
  5
7423
330
6A79
100
AcDbEntity
  8
0
  6
CONTINUOUS
 62
     0
100
AcDbBlockReference
  2
_OPEN
 10
458.7236072944078
 20
8.640652923684458
 30
0.0
 41
2.0
 42
2.0
 43
2.0
 50
270.0
  0
MTEXT
  5
7424
330
6A79
100
AcDbEntity
  8
0
  6
CONTINUOUS
 62
     0
100
AcDbMText
 10
455.7236072944077
 20
16.14065307325378
 30
0.0
 40
4.0
 41
0.0
 71
     5
 72
     1
  1
\A1;Max.15
 11
0.0000000000000001
 21
1.0
 31
0.0
1001
ACAD
1000
MTEXTBEGIN
1070
    73
1070
     1
1070
    44
1040
1.0
1070
    74
1070
     0
1000
MTEXTEND
1000
MTEXTBEGIN
1070
    73
1070
     1
1070
    44
1040
1.0
1070
    74
1070
     0
1000
MTEXTEND
  0
POINT
  5
7425
330
6A79
100
AcDbEntity
  8
DEFPOINTS
  6
CONTINUOUS
 62
     0
100
AcDbPoint
 10
478.3648174119981
 20
23.64065322282294
 30
0.0
  0
POINT
  5
7426
330
6A79
100
AcDbEntity
  8
DEFPOINTS
  6
CONTINUOUS
 62
     0
100
AcDbPoint
 10
478.3648174119981
 20
8.64065292368445
 30
0.0
  0
POINT
  5
7427
330
6A79
100
AcDbEntity
  8
DEFPOINTS
  6
CONTINUOUS
 62
     0
100
AcDbPoint
 10
458.7236072944078
 20
8.640652923684458
 30
0.0
  0
ENDBLK
  5
6A84
330
6A79
100
AcDbEntity
  8
0
100
AcDbBlockEnd
  0
BLOCK
  5
6C6D
330
6C63
100
AcDbEntity
  8
0
100
AcDbBlockBegin
  2
*D27
 70
     1
 10
0.0
 20
0.0
 30
0.0
  3
*D27
  1

  0
LINE
  5
6C64
330
6C63
100
AcDbEntity
  8
0
 62
     0
100
AcDbLine
 10
75.64118738792746
 20
387.6757879464797
 30
0.0
 11
75.64118738792746
 21
366.7037047452176
 31
0.0
  0
LINE
  5
6C65
330
6C63
100
AcDbEntity
  8
0
 62
     0
100
AcDbLine
 10
168.6411873879274
 20
387.6757879464797
 30
0.0
 11
168.6411873879274
 21
366.7037047452176
 31
0.0
  0
LINE
  5
6C66
330
6C63
100
AcDbEntity
  8
0
 62
     0
100
AcDbLine
 10
79.64118738792746
 20
367.7037047452177
 30
0.0
 11
164.6411873879274
 21
367.7037047452177
 31
0.0
  0
INSERT
  5
6C67
330
6C63
100
AcDbEntity
  8
0
 62
     0
100
AcDbBlockReference
  2
_OPEN
 10
75.64118738792746
 20
367.7037047452177
 30
0.0
 41
4.0
 42
4.0
 43
4.0
 50
180.0
  0
INSERT
  5
6C68
330
6C63
100
AcDbEntity
  8
0
 62
     0
100
AcDbBlockReference
  2
_OPEN
 10
168.6411873879274
 20
367.7037047452177
 30
0.0
 41
4.0
 42
4.0
 43
4.0
  0
MTEXT
  5
6C69
330
6C63
100
AcDbEntity
  8
0
 62
     0
100
AcDbMText
 10
122.1411873879274
 20
371.7037047452175
 30
0.0
 40
5.0
 41
0.0
 71
     5
 72
     1
  1
\A1;93
1001
ACAD
1000
MTEXTBEGIN
1070
    73
1070
     1
1070
    44
1040
1.0
1070
    74
1070
     0
1000
MTEXTEND
1000
MTEXTBEGIN
1070
    73
1070
     1
1070
    44
1040
1.0
1070
    74
1070
     0
1000
MTEXTEND
  0
POINT
  5
6C6A
330
6C63
100
AcDbEntity
  8
DEFPOINTS
 62
     0
100
AcDbPoint
 10
75.64118738792746
 20
388.6757879464799
 30
0.0
  0
POINT
  5
6C6B
330
6C63
100
AcDbEntity
  8
DEFPOINTS
 62
     0
100
AcDbPoint
 10
168.6411873879274
 20
388.6757879464799
 30
0.0
  0
POINT
  5
6C6C
330
6C63
100
AcDbEntity
  8
DEFPOINTS
 62
     0
100
AcDbPoint
 10
168.6411873879274
 20
367.7037047452177
 30
0.0
  0
ENDBLK
  5
6C6E
330
6C63
100
AcDbEntity
  8
0
100
AcDbBlockEnd
  0
BLOCK
  5
6C79
330
6C6F
100
AcDbEntity
  8
0
100
AcDbBlockBegin
  2
*D28
 70
     1
 10
0.0
 20
0.0
 30
0.0
  3
*D28
  1

  0
LINE
  5
6C70
330
6C6F
100
AcDbEntity
  8
0
 62
     0
100
AcDbLine
 10
167.6411873879274
 20
545.6757939464798
 30
0.0
 11
204.6890357934201
 21
545.6757939464798
 31
0.0
  0
LINE
  5
6C71
330
6C6F
100
AcDbEntity
  8
0
 62
     0
100
AcDbLine
 10
166.6411873879274
 20
385.6757879464797
 30
0.0
 11
204.6890357934201
 21
385.6757879464797
 31
0.0
  0
LINE
  5
6C72
330
6C6F
100
AcDbEntity
  8
0
 62
     0
100
AcDbLine
 10
203.6890357934201
 20
541.6757939464797
 30
0.0
 11
203.6890357934201
 21
389.6757879464797
 31
0.0
  0
INSERT
  5
6C73
330
6C6F
100
AcDbEntity
  8
0
 62
     0
100
AcDbBlockReference
  2
_OPEN
 10
203.6890357934201
 20
545.6757939464798
 30
0.0
 41
4.0
 42
4.0
 43
4.0
 50
90.0
  0
INSERT
  5
6C74
330
6C6F
100
AcDbEntity
  8
0
 62
     0
100
AcDbBlockReference
  2
_OPEN
 10
203.6890357934201
 20
385.6757879464797
 30
0.0
 41
4.0
 42
4.0
 43
4.0
 50
270.0
  0
MTEXT
  5
6C75
330
6C6F
100
AcDbEntity
  8
0
 62
     0
100
AcDbMText
 10
199.6890357934201
 20
464.7406498678883
 30
0.0
 40
5.0
 41
0.0
 71
     5
 72
     1
  1
\A1;160
 11
0.0000000000000001
 21
1.0
 31
0.0
1001
ACAD
1000
MTEXTBEGIN
1070
    73
1070
     1
1070
    44
1040
1.0
1070
    74
1070
     0
1000
MTEXTEND
1000
MTEXTBEGIN
1070
    73
1070
     1
1070
    44
1040
1.0
1070
    74
1070
     0
1000
MTEXTEND
  0
POINT
  5
6C76
330
6C6F
100
AcDbEntity
  8
DEFPOINTS
 62
     0
100
AcDbPoint
 10
166.6411873879274
 20
545.6757939464798
 30
0.0
  0
POINT
  5
6C77
330
6C6F
100
AcDbEntity
  8
DEFPOINTS
 62
     0
100
AcDbPoint
 10
165.6411873879274
 20
385.6757879464797
 30
0.0
  0
POINT
  5
6C78
330
6C6F
100
AcDbEntity
  8
DEFPOINTS
 62
     0
100
AcDbPoint
 10
203.6890357934201
 20
385.6757879464797
 30
0.0
  0
ENDBLK
  5
6C7A
330
6C6F
100
AcDbEntity
  8
0
100
AcDbBlockEnd
  0
BLOCK
  5
6CEC
330
6CE2
100
AcDbEntity
  8
0
100
AcDbBlockBegin
  2
*D29
 70
     1
 10
0.0
 20
0.0
 30
0.0
  3
*D29
  1

  0
LINE
  5
7532
330
6CE2
100
AcDbEntity
  8
30
  6
CONTINUOUS
 62
     0
100
AcDbLine
 10
-294.0301615967171
 20
-78.00000300000021
 30
0.0
 11
-294.0301615967171
 21
-98.47208620126242
 31
0.0
  0
LINE
  5
7533
330
6CE2
100
AcDbEntity
  8
30
  6
CONTINUOUS
 62
     0
100
AcDbLine
 10
-201.0301615967172
 20
-78.00000300000021
 30
0.0
 11
-201.0301615967172
 21
-98.47208620126242
 31
0.0
  0
LINE
  5
7534
330
6CE2
100
AcDbEntity
  8
30
  6
CONTINUOUS
 62
     0
100
AcDbLine
 10
-292.0301615967171
 20
-97.97208620126241
 30
0.0
 11
-203.0301615967172
 21
-97.97208620126241
 31
0.0
  0
INSERT
  5
7535
330
6CE2
100
AcDbEntity
  8
30
  6
CONTINUOUS
 62
     0
100
AcDbBlockReference
  2
_OPEN
 10
-294.0301615967171
 20
-97.97208620126241
 30
0.0
 41
2.0
 42
2.0
 43
2.0
 50
180.0
  0
INSERT
  5
7536
330
6CE2
100
AcDbEntity
  8
30
  6
CONTINUOUS
 62
     0
100
AcDbBlockReference
  2
_OPEN
 10
-201.0301615967172
 20
-97.97208620126241
 30
0.0
 41
2.0
 42
2.0
 43
2.0
  0
MTEXT
  5
7537
330
6CE2
100
AcDbEntity
  8
30
  6
CONTINUOUS
 62
     0
100
AcDbMText
 10
-247.5301615967173
 20
-94.97208620126242
 30
0.0
 40
4.0
 41
0.0
 71
     5
 72
     1
  1
\A1;93
1001
ACAD
1000
MTEXTBEGIN
1070
    73
1070
     1
1070
    44
1040
1.0
1070
    74
1070
     0
1000
MTEXTEND
1000
MTEXTBEGIN
1070
    73
1070
     1
1070
    44
1040
1.0
1070
    74
1070
     0
1000
MTEXTEND
  0
POINT
  5
7538
330
6CE2
100
AcDbEntity
  8
DEFPOINTS
  6
CONTINUOUS
 62
     0
100
AcDbPoint
 10
-294.0301615967171
 20
-77.00000300000022
 30
0.0
  0
POINT
  5
7539
330
6CE2
100
AcDbEntity
  8
DEFPOINTS
  6
CONTINUOUS
 62
     0
100
AcDbPoint
 10
-201.0301615967172
 20
-77.00000300000022
 30
0.0
  0
POINT
  5
753A
330
6CE2
100
AcDbEntity
  8
DEFPOINTS
  6
CONTINUOUS
 62
     0
100
AcDbPoint
 10
-201.0301615967172
 20
-97.97208620126241
 30
0.0
  0
ENDBLK
  5
6CED
330
6CE2
100
AcDbEntity
  8
0
100
AcDbBlockEnd
  0
BLOCK
  5
6CF8
330
6CEE
100
AcDbEntity
  8
0
100
AcDbBlockBegin
  2
*D30
 70
     1
 10
0.0
 20
0.0
 30
0.0
  3
*D30
  1

  0
LINE
  5
7505
330
6CEE
100
AcDbEntity
  8
30
  6
CONTINUOUS
 62
     0
100
AcDbLine
 10
-202.0301615967173
 20
80.00000299999966
 30
0.0
 11
-165.4823131912245
 21
80.00000299999966
 31
0.0
  0
LINE
  5
7506
330
6CEE
100
AcDbEntity
  8
30
  6
CONTINUOUS
 62
     0
100
AcDbLine
 10
-203.0301615967172
 20
-80.00000300000023
 30
0.0
 11
-165.4823131912245
 21
-80.00000300000023
 31
0.0
  0
LINE
  5
7507
330
6CEE
100
AcDbEntity
  8
30
  6
CONTINUOUS
 62
     0
100
AcDbLine
 10
-165.9823131912245
 20
78.00000299999965
 30
0.0
 11
-165.9823131912245
 21
-78.00000300000021
 31
0.0
  0
INSERT
  5
7508
330
6CEE
100
AcDbEntity
  8
30
  6
CONTINUOUS
 62
     0
100
AcDbBlockReference
  2
_OPEN
 10
-165.9823131912245
 20
80.00000299999966
 30
0.0
 41
2.0
 42
2.0
 43
2.0
 50
90.0
  0
INSERT
  5
7509
330
6CEE
100
AcDbEntity
  8
30
  6
CONTINUOUS
 62
     0
100
AcDbBlockReference
  2
_OPEN
 10
-165.9823131912245
 20
-80.00000300000023
 30
0.0
 41
2.0
 42
2.0
 43
2.0
 50
270.0
  0
MTEXT
  5
750A
330
6CEE
100
AcDbEntity
  8
30
  6
CONTINUOUS
 62
     0
100
AcDbMText
 10
-168.9823131912245
 20
-0.9351410785917547
 30
0.0
 40
4.0
 41
0.0
 71
     5
 72
     1
  1
\A1;160
 11
0.0000000000000001
 21
1.0
 31
0.0
1001
ACAD
1000
MTEXTBEGIN
1070
    73
1070
     1
1070
    44
1040
1.0
1070
    74
1070
     0
1000
MTEXTEND
1000
MTEXTBEGIN
1070
    73
1070
     1
1070
    44
1040
1.0
1070
    74
1070
     0
1000
MTEXTEND
  0
POINT
  5
750B
330
6CEE
100
AcDbEntity
  8
DEFPOINTS
  6
CONTINUOUS
 62
     0
100
AcDbPoint
 10
-203.0301615967172
 20
80.00000299999966
 30
0.0
  0
POINT
  5
750C
330
6CEE
100
AcDbEntity
  8
DEFPOINTS
  6
CONTINUOUS
 62
     0
100
AcDbPoint
 10
-204.0301615967173
 20
-80.00000300000023
 30
0.0
  0
POINT
  5
750D
330
6CEE
100
AcDbEntity
  8
DEFPOINTS
  6
CONTINUOUS
 62
     0
100
AcDbPoint
 10
-165.9823131912245
 20
-80.00000300000023
 30
0.0
  0
ENDBLK
  5
6CF9
330
6CEE
100
AcDbEntity
  8
0
100
AcDbBlockEnd
  0
BLOCK
  5
6D16
330
6D0C
100
AcDbEntity
  8
0
100
AcDbBlockBegin
  2
*D31
 70
     1
 10
0.0
 20
0.0
 30
0.0
  3
*D31
  1

  0
LINE
  5
6D0D
330
6D0C
100
AcDbEntity
  8
0
 62
     0
100
AcDbLine
 10
278.1577327392864
 20
464.6757909782068
 30
0.0
 11
278.1577327392864
 21
335.6010968880277
 31
0.0
  0
LINE
  5
6D0E
330
6D0C
100
AcDbEntity
  8
0
 62
     0
100
AcDbLine
 10
315.5426583879273
 20
383.6757869464797
 30
0.0
 11
315.5426583879273
 21
335.6010968880277
 31
0.0
  0
LINE
  5
6D0F
330
6D0C
100
AcDbEntity
  8
0
 62
     0
100
AcDbLine
 10
282.1577327392862
 20
336.6010968880277
 30
0.0
 11
311.5426583879273
 21
336.6010968880277
 31
0.0
  0
INSERT
  5
6D10
330
6D0C
100
AcDbEntity
  8
0
 62
     0
100
AcDbBlockReference
  2
_OPEN
 10
278.1577327392864
 20
336.6010968880277
 30
0.0
 41
4.0
 42
4.0
 43
4.0
 50
180.0
  0
INSERT
  5
6D11
330
6D0C
100
AcDbEntity
  8
0
 62
     0
100
AcDbBlockReference
  2
_OPEN
 10
315.5426583879273
 20
336.6010968880277
 30
0.0
 41
4.0
 42
4.0
 43
4.0
  0
MTEXT
  5
6D12
330
6D0C
100
AcDbEntity
  8
0
 62
     0
100
AcDbMText
 10
296.8501955636067
 20
340.6010968880277
 30
0.0
 40
5.0
 41
0.0
 71
     5
 72
     1
  1
\A1;37.5
1001
ACAD
1000
MTEXTBEGIN
1070
    73
1070
     1
1070
    44
1040
1.0
1070
    74
1070
     0
1000
MTEXTEND
1000
MTEXTBEGIN
1070
    73
1070
     1
1070
    44
1040
1.0
1070
    74
1070
     0
1000
MTEXTEND
  0
POINT
  5
6D13
330
6D0C
100
AcDbEntity
  8
DEFPOINTS
 62
     0
100
AcDbPoint
 10
278.1577327392864
 20
465.6757909782069
 30
0.0
  0
POINT
  5
6D14
330
6D0C
100
AcDbEntity
  8
DEFPOINTS
 62
     0
100
AcDbPoint
 10
315.5426583879273
 20
384.6757869464799
 30
0.0
  0
POINT
  5
6D15
330
6D0C
100
AcDbEntity
  8
DEFPOINTS
 62
     0
100
AcDbPoint
 10
315.5426583879273
 20
336.6010968880277
 30
0.0
  0
ENDBLK
  5
6D17
330
6D0C
100
AcDbEntity
  8
0
100
AcDbBlockEnd
  0
BLOCK
  5
6D22
330
6D18
100
AcDbEntity
  8
0
100
AcDbBlockBegin
  2
*D32
 70
     1
 10
0.0
 20
0.0
 30
0.0
  3
*D32
  1

  0
LINE
  5
6D19
330
6D18
100
AcDbEntity
  8
0
 62
     0
100
AcDbLine
 10
294.8426583879273
 20
390.6757869464799
 30
0.0
 11
294.8426583879273
 21
350.9422314464798
 31
0.0
  0
LINE
  5
6D1A
330
6D18
100
AcDbEntity
  8
0
 62
     0
100
AcDbLine
 10
315.5426583879273
 20
383.6757869464797
 30
0.0
 11
315.5426583879273
 21
350.9422314464798
 31
0.0
  0
LINE
  5
6D1B
330
6D18
100
AcDbEntity
  8
0
 62
     0
100
AcDbLine
 10
298.8426583879273
 20
351.9422314464798
 30
0.0
 11
311.5426583879273
 21
351.9422314464798
 31
0.0
  0
INSERT
  5
6D1C
330
6D18
100
AcDbEntity
  8
0
 62
     0
100
AcDbBlockReference
  2
_OPEN
 10
294.8426583879273
 20
351.9422314464798
 30
0.0
 41
4.0
 42
4.0
 43
4.0
 50
180.0
  0
INSERT
  5
6D1D
330
6D18
100
AcDbEntity
  8
0
 62
     0
100
AcDbBlockReference
  2
_OPEN
 10
315.5426583879273
 20
351.9422314464798
 30
0.0
 41
4.0
 42
4.0
 43
4.0
  0
MTEXT
  5
6D1E
330
6D18
100
AcDbEntity
  8
0
 62
     0
100
AcDbMText
 10
305.1926583879271
 20
355.9422314464798
 30
0.0
 40
5.0
 41
0.0
 71
     5
 72
     1
  1
\A1;21
1001
ACAD
1000
MTEXTBEGIN
1070
    73
1070
     1
1070
    44
1040
1.0
1070
    74
1070
     0
1000
MTEXTEND
1000
MTEXTBEGIN
1070
    73
1070
     1
1070
    44
1040
1.0
1070
    74
1070
     0
1000
MTEXTEND
  0
POINT
  5
6D1F
330
6D18
100
AcDbEntity
  8
DEFPOINTS
 62
     0
100
AcDbPoint
 10
294.8426583879273
 20
391.6757869464797
 30
0.0
  0
POINT
  5
6D20
330
6D18
100
AcDbEntity
  8
DEFPOINTS
 62
     0
100
AcDbPoint
 10
315.5426583879273
 20
384.6757869464799
 30
0.0
  0
POINT
  5
6D21
330
6D18
100
AcDbEntity
  8
DEFPOINTS
 62
     0
100
AcDbPoint
 10
315.5426583879273
 20
351.9422314464798
 30
0.0
  0
ENDBLK
  5
6D23
330
6D18
100
AcDbEntity
  8
0
100
AcDbBlockEnd
  0
BLOCK
  5
6D2E
330
6D24
100
AcDbEntity
  8
0
100
AcDbBlockBegin
  2
*D33
 70
     1
 10
0.0
 20
0.0
 30
0.0
  3
*D33
  1

  0
LINE
  5
6D25
330
6D24
100
AcDbEntity
  8
0
 62
     0
100
AcDbLine
 10
480.6619153879275
 20
520.6756779464797
 30
0.0
 11
496.7435793879274
 21
520.6756779464797
 31
0.0
  0
LINE
  5
6D26
330
6D24
100
AcDbEntity
  8
0
 62
     0
100
AcDbLine
 10
480.6619153879275
 20
410.6759039464797
 30
0.0
 11
496.7435793879274
 21
410.6759039464797
 31
0.0
  0
LINE
  5
6D27
330
6D24
100
AcDbEntity
  8
0
 62
     0
100
AcDbLine
 10
495.7435793879274
 20
516.6756779464797
 30
0.0
 11
495.7435793879274
 21
414.6759039464797
 31
0.0
  0
INSERT
  5
6D28
330
6D24
100
AcDbEntity
  8
0
 62
     0
100
AcDbBlockReference
  2
_OPEN
 10
495.7435793879274
 20
520.6756779464797
 30
0.0
 41
4.0
 42
4.0
 43
4.0
 50
90.0
  0
INSERT
  5
6D29
330
6D24
100
AcDbEntity
  8
0
 62
     0
100
AcDbBlockReference
  2
_OPEN
 10
495.7435793879274
 20
410.6759039464797
 30
0.0
 41
4.0
 42
4.0
 43
4.0
 50
270.0
  0
MTEXT
  5
6D2A
330
6D24
100
AcDbEntity
  8
0
 62
     0
100
AcDbMText
 10
491.7435793879271
 20
465.6757909464798
 30
0.0
 40
5.0
 41
0.0
 71
     5
 72
     1
  1
\A1;110
 11
0.0000000000000001
 21
1.0
 31
0.0
1001
ACAD
1000
MTEXTBEGIN
1070
    73
1070
     1
1070
    44
1040
1.0
1070
    74
1070
     0
1000
MTEXTEND
1000
MTEXTBEGIN
1070
    73
1070
     1
1070
    44
1040
1.0
1070
    74
1070
     0
1000
MTEXTEND
  0
POINT
  5
6D2B
330
6D24
100
AcDbEntity
  8
DEFPOINTS
 62
     0
100
AcDbPoint
 10
479.6619153879275
 20
520.6756779464797
 30
0.0
  0
POINT
  5
6D2C
330
6D24
100
AcDbEntity
  8
DEFPOINTS
 62
     0
100
AcDbPoint
 10
479.6619153879275
 20
410.6759039464797
 30
0.0
  0
POINT
  5
6D2D
330
6D24
100
AcDbEntity
  8
DEFPOINTS
 62
     0
100
AcDbPoint
 10
495.7435793879274
 20
410.6759039464797
 30
0.0
  0
ENDBLK
  5
6D2F
330
6D24
100
AcDbEntity
  8
0
100
AcDbBlockEnd
  0
BLOCK
  5
6D3C
330
6D30
100
AcDbEntity
  8
0
100
AcDbBlockBegin
  2
*D34
 70
     1
 10
0.0
 20
0.0
 30
0.0
  3
*D34
  1

  0
LINE
  5
6D31
330
6D30
100
AcDbEntity
  8
0
 62
     0
100
AcDbLine
 10
474.1411733879274
 20
522.1745289464799
 30
0.0
 11
486.9182323865891
 21
522.1745289464799
 31
0.0
  0
LINE
  5
6D32
330
6D30
100
AcDbEntity
  8
0
 62
     0
100
AcDbLine
 10
474.1411733879274
 20
519.1745289464797
 30
0.0
 11
486.9182323865891
 21
519.1745289464797
 31
0.0
  0
LINE
  5
6D33
330
6D30
100
AcDbEntity
  8
0
 62
     0
100
AcDbLine
 10
485.9182323865891
 20
515.1745289464797
 30
0.0
 11
485.9182323865891
 21
511.1745289464797
 31
0.0
  0
LINE
  5
6D34
330
6D30
100
AcDbEntity
  8
0
 62
     0
100
AcDbLine
 10
485.9182323865891
 20
526.1745289464799
 30
0.0
 11
485.9182323865891
 21
554.8411956131465
 31
0.0
  0
LINE
  5
6D35
330
6D30
100
AcDbEntity
  8
0
 62
     0
100
AcDbLine
 10
485.9182323865891
 20
519.1745289464797
 30
0.0
 11
485.9182323865891
 21
522.1745289464799
 31
0.0
  0
INSERT
  5
6D36
330
6D30
100
AcDbEntity
  8
0
 62
     0
100
AcDbBlockReference
  2
_OPEN
 10
485.9182323865891
 20
519.1745289464797
 30
0.0
 41
4.0
 42
4.0
 43
4.0
 50
90.0
  0
INSERT
  5
6D37
330
6D30
100
AcDbEntity
  8
0
 62
     0
100
AcDbBlockReference
  2
_OPEN
 10
485.9182323865891
 20
522.1745289464799
 30
0.0
 41
4.0
 42
4.0
 43
4.0
 50
270.0
  0
MTEXT
  5
6D38
330
6D30
100
AcDbEntity
  8
0
 62
     0
100
AcDbMText
 10
481.9182323865891
 20
542.5078622798134
 30
0.0
 40
5.0
 41
0.0
 71
     5
 72
     1
  1
\A1;3.0000
 11
0.0000000000000001
 21
1.0
 31
0.0
1001
ACAD
1000
MTEXTBEGIN
1070
    73
1070
     1
1070
    44
1040
1.0
1070
    74
1070
     0
1000
MTEXTEND
1000
MTEXTBEGIN
1070
    73
1070
     1
1070
    44
1040
1.0
1070
    74
1070
     0
1000
MTEXTEND
  0
POINT
  5
6D39
330
6D30
100
AcDbEntity
  8
DEFPOINTS
 62
     0
100
AcDbPoint
 10
473.1411733879274
 20
522.1745289464799
 30
0.0
  0
POINT
  5
6D3A
330
6D30
100
AcDbEntity
  8
DEFPOINTS
 62
     0
100
AcDbPoint
 10
473.1411733879274
 20
519.1745289464797
 30
0.0
  0
POINT
  5
6D3B
330
6D30
100
AcDbEntity
  8
DEFPOINTS
 62
     0
100
AcDbPoint
 10
485.9182323865891
 20
519.1745289464797
 30
0.0
  0
ENDBLK
  5
6D3D
330
6D30
100
AcDbEntity
  8
0
100
AcDbBlockEnd
  0
BLOCK
  5
6EC5
330
6EBB
100
AcDbEntity
  8
0
100
AcDbBlockBegin
  2
*D35
 70
     1
 10
0.0
 20
0.0
 30
0.0
  3
*D35
  1

  0
LINE
  5
7897
330
6EBB
100
AcDbEntity
  8
30
  6
CONTINUOUS
 62
     0
100
AcDbLine
 10
437.209972670547
 20
-0.9999999682731438
 30
0.0
 11
437.209972670547
 21
-129.574694058452
 31
0.0
  0
LINE
  5
7898
330
6EBB
100
AcDbEntity
  8
30
  6
CONTINUOUS
 62
     0
100
AcDbLine
 10
474.5948983191878
 20
-82.00000400000012
 30
0.0
 11
474.5948983191878
 21
-129.574694058452
 31
0.0
  0
LINE
  5
7899
330
6EBB
100
AcDbEntity
  8
30
  6
CONTINUOUS
 62
     0
100
AcDbLine
 10
439.2099726705468
 20
-129.074694058452
 30
0.0
 11
472.5948983191877
 21
-129.074694058452
 31
0.0
  0
INSERT
  5
789A
330
6EBB
100
AcDbEntity
  8
30
  6
CONTINUOUS
 62
     0
100
AcDbBlockReference
  2
_OPEN
 10
437.209972670547
 20
-129.074694058452
 30
0.0
 41
2.0
 42
2.0
 43
2.0
 50
180.0
  0
INSERT
  5
789B
330
6EBB
100
AcDbEntity
  8
30
  6
CONTINUOUS
 62
     0
100
AcDbBlockReference
  2
_OPEN
 10
474.5948983191878
 20
-129.074694058452
 30
0.0
 41
2.0
 42
2.0
 43
2.0
  0
MTEXT
  5
789C
330
6EBB
100
AcDbEntity
  8
30
  6
CONTINUOUS
 62
     0
100
AcDbMText
 10
455.9024354948673
 20
-126.0746940584522
 30
0.0
 40
4.0
 41
0.0
 71
     5
 72
     1
  1
\A1;37.5
1001
ACAD
1000
MTEXTBEGIN
1070
    73
1070
     1
1070
    44
1040
1.0
1070
    74
1070
     0
1000
MTEXTEND
1000
MTEXTBEGIN
1070
    73
1070
     1
1070
    44
1040
1.0
1070
    74
1070
     0
1000
MTEXTEND
  0
POINT
  5
789D
330
6EBB
100
AcDbEntity
  8
DEFPOINTS
  6
CONTINUOUS
 62
     0
100
AcDbPoint
 10
437.209972670547
 20
0.0000000317268562
 30
0.0
  0
POINT
  5
789E
330
6EBB
100
AcDbEntity
  8
DEFPOINTS
  6
CONTINUOUS
 62
     0
100
AcDbPoint
 10
474.5948983191878
 20
-81.00000400000011
 30
0.0
  0
POINT
  5
789F
330
6EBB
100
AcDbEntity
  8
DEFPOINTS
  6
CONTINUOUS
 62
     0
100
AcDbPoint
 10
474.5948983191878
 20
-129.074694058452
 30
0.0
  0
ENDBLK
  5
6EC6
330
6EBB
100
AcDbEntity
  8
0
100
AcDbBlockEnd
  0
BLOCK
  5
6ED1
330
6EC7
100
AcDbEntity
  8
0
100
AcDbBlockBegin
  2
*D36
 70
     1
 10
0.0
 20
0.0
 30
0.0
  3
*D36
  1

  0
LINE
  5
78A0
330
6EC7
100
AcDbEntity
  8
30
  6
CONTINUOUS
 62
     0
100
AcDbLine
 10
453.8948983191878
 20
-75.00000400000009
 30
0.0
 11
453.8948983191878
 21
-114.2335595
 31
0.0
  0
LINE
  5
78A1
330
6EC7
100
AcDbEntity
  8
30
  6
CONTINUOUS
 62
     0
100
AcDbLine
 10
474.5948983191878
 20
-82.00000400000012
 30
0.0
 11
474.5948983191878
 21
-114.2335595
 31
0.0
  0
LINE
  5
78A2
330
6EC7
100
AcDbEntity
  8
30
  6
CONTINUOUS
 62
     0
100
AcDbLine
 10
455.8948983191879
 20
-113.7335595000001
 30
0.0
 11
472.5948983191877
 21
-113.7335595000001
 31
0.0
  0
INSERT
  5
78A3
330
6EC7
100
AcDbEntity
  8
30
  6
CONTINUOUS
 62
     0
100
AcDbBlockReference
  2
_OPEN
 10
453.8948983191878
 20
-113.7335595000001
 30
0.0
 41
2.0
 42
2.0
 43
2.0
 50
180.0
  0
INSERT
  5
78A4
330
6EC7
100
AcDbEntity
  8
30
  6
CONTINUOUS
 62
     0
100
AcDbBlockReference
  2
_OPEN
 10
474.5948983191878
 20
-113.7335595000001
 30
0.0
 41
2.0
 42
2.0
 43
2.0
  0
MTEXT
  5
78A5
330
6EC7
100
AcDbEntity
  8
30
  6
CONTINUOUS
 62
     0
100
AcDbMText
 10
464.2448983191878
 20
-110.7335595000001
 30
0.0
 40
4.0
 41
0.0
 71
     5
 72
     1
  1
\A1;21
1001
ACAD
1000
MTEXTBEGIN
1070
    73
1070
     1
1070
    44
1040
1.0
1070
    74
1070
     0
1000
MTEXTEND
1000
MTEXTBEGIN
1070
    73
1070
     1
1070
    44
1040
1.0
1070
    74
1070
     0
1000
MTEXTEND
  0
POINT
  5
78A6
330
6EC7
100
AcDbEntity
  8
DEFPOINTS
  6
CONTINUOUS
 62
     0
100
AcDbPoint
 10
453.8948983191878
 20
-74.00000400000012
 30
0.0
  0
POINT
  5
78A7
330
6EC7
100
AcDbEntity
  8
DEFPOINTS
  6
CONTINUOUS
 62
     0
100
AcDbPoint
 10
474.5948983191878
 20
-81.00000400000011
 30
0.0
  0
POINT
  5
78A8
330
6EC7
100
AcDbEntity
  8
DEFPOINTS
  6
CONTINUOUS
 62
     0
100
AcDbPoint
 10
474.5948983191878
 20
-113.7335595000001
 30
0.0
  0
ENDBLK
  5
6ED2
330
6EC7
100
AcDbEntity
  8
0
100
AcDbBlockEnd
  0
BLOCK
  5
6EDD
330
6ED3
100
AcDbEntity
  8
0
100
AcDbBlockBegin
  2
*D37
 70
     1
 10
0.0
 20
0.0
 30
0.0
  3
*D37
  1

  0
LINE
  5
788E
330
6ED3
100
AcDbEntity
  8
30
  6
CONTINUOUS
 62
     0
100
AcDbLine
 10
639.7141553191882
 20
54.9998869999997
 30
0.0
 11
655.295819319188
 21
54.9998869999997
 31
0.0
  0
LINE
  5
788F
330
6ED3
100
AcDbEntity
  8
30
  6
CONTINUOUS
 62
     0
100
AcDbLine
 10
639.7141553191882
 20
-54.99988700000013
 30
0.0
 11
655.295819319188
 21
-54.99988700000013
 31
0.0
  0
LINE
  5
7890
330
6ED3
100
AcDbEntity
  8
30
  6
CONTINUOUS
 62
     0
100
AcDbLine
 10
654.795819319188
 20
52.9998869999997
 30
0.0
 11
654.795819319188
 21
-52.99988700000014
 31
0.0
  0
INSERT
  5
7891
330
6ED3
100
AcDbEntity
  8
30
  6
CONTINUOUS
 62
     0
100
AcDbBlockReference
  2
_OPEN
 10
654.795819319188
 20
54.9998869999997
 30
0.0
 41
2.0
 42
2.0
 43
2.0
 50
90.0
  0
INSERT
  5
7892
330
6ED3
100
AcDbEntity
  8
30
  6
CONTINUOUS
 62
     0
100
AcDbBlockReference
  2
_OPEN
 10
654.795819319188
 20
-54.99988700000013
 30
0.0
 41
2.0
 42
2.0
 43
2.0
 50
270.0
  0
MTEXT
  5
7893
330
6ED3
100
AcDbEntity
  8
30
  6
CONTINUOUS
 62
     0
100
AcDbMText
 10
651.795819319188
 20
-0.0000000000001108
 30
0.0
 40
4.0
 41
0.0
 71
     5
 72
     1
  1
\A1;110
 11
0.0000000000000001
 21
1.0
 31
0.0
1001
ACAD
1000
MTEXTBEGIN
1070
    73
1070
     1
1070
    44
1040
1.0
1070
    74
1070
     0
1000
MTEXTEND
1000
MTEXTBEGIN
1070
    73
1070
     1
1070
    44
1040
1.0
1070
    74
1070
     0
1000
MTEXTEND
  0
POINT
  5
7894
330
6ED3
100
AcDbEntity
  8
DEFPOINTS
  6
CONTINUOUS
 62
     0
100
AcDbPoint
 10
638.7141553191882
 20
54.9998869999997
 30
0.0
  0
POINT
  5
7895
330
6ED3
100
AcDbEntity
  8
DEFPOINTS
  6
CONTINUOUS
 62
     0
100
AcDbPoint
 10
638.7141553191882
 20
-54.99988700000013
 30
0.0
  0
POINT
  5
7896
330
6ED3
100
AcDbEntity
  8
DEFPOINTS
  6
CONTINUOUS
 62
     0
100
AcDbPoint
 10
654.795819319188
 20
-54.99988700000013
 30
0.0
  0
ENDBLK
  5
6EDE
330
6ED3
100
AcDbEntity
  8
0
100
AcDbBlockEnd
  0
BLOCK
  5
6EEB
330
6EDF
100
AcDbEntity
  8
0
100
AcDbBlockBegin
  2
*D38
 70
     1
 10
0.0
 20
0.0
 30
0.0
  3
*D38
  1

  0
LINE
  5
78A9
330
6EDF
100
AcDbEntity
  8
30
  6
CONTINUOUS
 62
     0
100
AcDbLine
 10
633.193413319188
 20
56.49873799999987
 30
0.0
 11
643.1371389845162
 21
56.49873799999987
 31
0.0
  0
LINE
  5
78AA
330
6EDF
100
AcDbEntity
  8
30
  6
CONTINUOUS
 62
     0
100
AcDbLine
 10
633.193413319188
 20
53.49873799999976
 30
0.0
 11
643.1371389845162
 21
53.49873799999976
 31
0.0
  0
LINE
  5
78AB
330
6EDF
100
AcDbEntity
  8
30
  6
CONTINUOUS
 62
     0
100
AcDbLine
 10
642.6371389845162
 20
51.49873799999976
 30
0.0
 11
642.6371389845162
 21
49.49873799999976
 31
0.0
  0
LINE
  5
78AC
330
6EDF
100
AcDbEntity
  8
30
  6
CONTINUOUS
 62
     0
100
AcDbLine
 10
642.6371389845162
 20
58.49873799999985
 30
0.0
 11
642.6371389845162
 21
76.83207133333326
 31
0.0
  0
LINE
  5
78AD
330
6EDF
100
AcDbEntity
  8
30
  6
CONTINUOUS
 62
     0
100
AcDbLine
 10
642.6371389845162
 20
76.83207133333326
 30
0.0
 11
646.3038056511829
 21
76.83207133333326
 31
0.0
  0
INSERT
  5
78AE
330
6EDF
100
AcDbEntity
  8
30
  6
CONTINUOUS
 62
     0
100
AcDbBlockReference
  2
_OPEN
 10
642.6371389845162
 20
53.49873799999976
 30
0.0
 41
2.0
 42
2.0
 43
2.0
 50
90.0
  0
INSERT
  5
78AF
330
6EDF
100
AcDbEntity
  8
30
  6
CONTINUOUS
 62
     0
100
AcDbBlockReference
  2
_OPEN
 10
642.6371389845162
 20
56.49873799999987
 30
0.0
 41
2.0
 42
2.0
 43
2.0
 50
270.0
  0
MTEXT
  5
78B0
330
6EDF
100
AcDbEntity
  8
30
  6
CONTINUOUS
 62
     0
100
AcDbMText
 10
644.9704723178497
 20
79.83207133333336
 30
0.0
 40
4.0
 41
0.0
 71
     5
 72
     1
  1
\A1;3
1001
ACAD
1000
MTEXTBEGIN
1070
    73
1070
     1
1070
    44
1040
1.0
1070
    74
1070
     0
1000
MTEXTEND
1000
MTEXTBEGIN
1070
    73
1070
     1
1070
    44
1040
1.0
1070
    74
1070
     0
1000
MTEXTEND
  0
POINT
  5
78B1
330
6EDF
100
AcDbEntity
  8
DEFPOINTS
  6
CONTINUOUS
 62
     0
100
AcDbPoint
 10
632.193413319188
 20
56.49873799999987
 30
0.0
  0
POINT
  5
78B2
330
6EDF
100
AcDbEntity
  8
DEFPOINTS
  6
CONTINUOUS
 62
     0
100
AcDbPoint
 10
632.193413319188
 20
53.49873799999976
 30
0.0
  0
POINT
  5
78B3
330
6EDF
100
AcDbEntity
  8
DEFPOINTS
  6
CONTINUOUS
 62
     0
100
AcDbPoint
 10
642.6371389845162
 20
53.49873799999976
 30
0.0
  0
ENDBLK
  5
6EEC
330
6EDF
100
AcDbEntity
  8
0
100
AcDbBlockEnd
  0
BLOCK
  5
6F1D
330
6F13
100
AcDbEntity
  8
0
100
AcDbBlockBegin
  2
*D39
 70
     1
 10
0.0
 20
0.0
 30
0.0
  3
*D39
  1

  0
LINE
  5
6F14
330
6F13
100
AcDbEntity
  8
0
 62
     0
100
AcDbLine
 10
639.9321143879275
 20
535.6759159464801
 30
0.0
 11
685.1874720789724
 21
535.6759159464801
 31
0.0
  0
LINE
  5
6F15
330
6F13
100
AcDbEntity
  8
0
 62
     0
100
AcDbLine
 10
639.9321143879275
 20
395.6756659464798
 30
0.0
 11
685.1874720789724
 21
395.6756659464798
 31
0.0
  0
LINE
  5
6F16
330
6F13
100
AcDbEntity
  8
0
 62
     0
100
AcDbLine
 10
684.1874720789724
 20
531.6759159464801
 30
0.0
 11
684.1874720789724
 21
399.6756659464797
 31
0.0
  0
INSERT
  5
6F17
330
6F13
100
AcDbEntity
  8
0
 62
     0
100
AcDbBlockReference
  2
_OPEN
 10
684.1874720789724
 20
535.6759159464801
 30
0.0
 41
4.0
 42
4.0
 43
4.0
 50
90.0
  0
INSERT
  5
6F18
330
6F13
100
AcDbEntity
  8
0
 62
     0
100
AcDbBlockReference
  2
_OPEN
 10
684.1874720789724
 20
395.6756659464798
 30
0.0
 41
4.0
 42
4.0
 43
4.0
 50
270.0
  0
MTEXT
  5
6F19
330
6F13
100
AcDbEntity
  8
0
 62
     0
100
AcDbMText
 10
680.1874720789722
 20
465.6757909464799
 30
0.0
 40
5.0
 41
0.0
 71
     5
 72
     1
  1
\A1;140
 11
0.0000000000000001
 21
1.0
 31
0.0
1001
ACAD
1000
MTEXTBEGIN
1070
    73
1070
     1
1070
    44
1040
1.0
1070
    74
1070
     0
1000
MTEXTEND
1000
MTEXTBEGIN
1070
    73
1070
     1
1070
    44
1040
1.0
1070
    74
1070
     0
1000
MTEXTEND
  0
POINT
  5
6F1A
330
6F13
100
AcDbEntity
  8
DEFPOINTS
 62
     0
100
AcDbPoint
 10
638.9321143879275
 20
535.6759159464801
 30
0.0
  0
POINT
  5
6F1B
330
6F13
100
AcDbEntity
  8
DEFPOINTS
 62
     0
100
AcDbPoint
 10
638.9321143879275
 20
395.6756659464798
 30
0.0
  0
POINT
  5
6F1C
330
6F13
100
AcDbEntity
  8
DEFPOINTS
 62
     0
100
AcDbPoint
 10
684.1874720789724
 20
395.6756659464798
 30
0.0
  0
ENDBLK
  5
6F1E
330
6F13
100
AcDbEntity
  8
0
100
AcDbBlockEnd
  0
BLOCK
  5
6F29
330
6F1F
100
AcDbEntity
  8
0
100
AcDbBlockBegin
  2
*D40
 70
     1
 10
0.0
 20
0.0
 30
0.0
  3
*D40
  1

  0
LINE
  5
6F20
330
6F1F
100
AcDbEntity
  8
0
 62
     0
100
AcDbLine
 10
650.4687263879275
 20
498.6757909464801
 30
0.0
 11
672.5261221927767
 21
498.6757909464801
 31
0.0
  0
LINE
  5
6F21
330
6F1F
100
AcDbEntity
  8
0
 62
     0
100
AcDbLine
 10
650.4687263879275
 20
432.6757909464799
 30
0.0
 11
672.5261221927767
 21
432.6757909464799
 31
0.0
  0
LINE
  5
6F22
330
6F1F
100
AcDbEntity
  8
0
 62
     0
100
AcDbLine
 10
671.5261221927767
 20
494.6757909464801
 30
0.0
 11
671.5261221927767
 21
436.6757909464799
 31
0.0
  0
INSERT
  5
6F23
330
6F1F
100
AcDbEntity
  8
0
 62
     0
100
AcDbBlockReference
  2
_OPEN
 10
671.5261221927767
 20
498.6757909464801
 30
0.0
 41
4.0
 42
4.0
 43
4.0
 50
90.0
  0
INSERT
  5
6F24
330
6F1F
100
AcDbEntity
  8
0
 62
     0
100
AcDbBlockReference
  2
_OPEN
 10
671.5261221927767
 20
432.6757909464799
 30
0.0
 41
4.0
 42
4.0
 43
4.0
 50
270.0
  0
MTEXT
  5
6F25
330
6F1F
100
AcDbEntity
  8
0
 62
     0
100
AcDbMText
 10
667.5261221927767
 20
465.3734316286139
 30
0.0
 40
5.0
 41
0.0
 71
     5
 72
     1
  1
\A1;66
 11
0.0000000000000001
 21
1.0
 31
0.0
1001
ACAD
1000
MTEXTBEGIN
1070
    73
1070
     1
1070
    44
1040
1.0
1070
    74
1070
     0
1000
MTEXTEND
1000
MTEXTBEGIN
1070
    73
1070
     1
1070
    44
1040
1.0
1070
    74
1070
     0
1000
MTEXTEND
  0
POINT
  5
6F26
330
6F1F
100
AcDbEntity
  8
DEFPOINTS
 62
     0
100
AcDbPoint
 10
649.4687263879275
 20
498.6757909464801
 30
0.0
  0
POINT
  5
6F27
330
6F1F
100
AcDbEntity
  8
DEFPOINTS
 62
     0
100
AcDbPoint
 10
649.4687263879275
 20
432.6757909464799
 30
0.0
  0
POINT
  5
6F28
330
6F1F
100
AcDbEntity
  8
DEFPOINTS
 62
     0
100
AcDbPoint
 10
671.5261221927767
 20
432.6757909464799
 30
0.0
  0
ENDBLK
  5
6F2A
330
6F1F
100
AcDbEntity
  8
0
100
AcDbBlockEnd
  0
BLOCK
  5
6F35
330
6F2B
100
AcDbEntity
  8
0
100
AcDbBlockBegin
  2
*D41
 70
     1
 10
0.0
 20
0.0
 30
0.0
  3
*D41
  1

  0
LINE
  5
6F2C
330
6F2B
100
AcDbEntity
  8
0
 62
     0
100
AcDbLine
 10
565.9320463879272
 20
424.3367539464798
 30
0.0
 11
565.9320463879272
 21
351.208376387804
 31
0.0
  0
LINE
  5
6F2D
330
6F2B
100
AcDbEntity
  8
0
 62
     0
100
AcDbLine
 10
643.9320463879274
 20
424.3367539464798
 30
0.0
 11
643.9320463879274
 21
351.208376387804
 31
0.0
  0
LINE
  5
6F2E
330
6F2B
100
AcDbEntity
  8
0
 62
     0
100
AcDbLine
 10
569.9320463879272
 20
352.208376387804
 30
0.0
 11
639.9320463879274
 21
352.208376387804
 31
0.0
  0
INSERT
  5
6F2F
330
6F2B
100
AcDbEntity
  8
0
 62
     0
100
AcDbBlockReference
  2
_OPEN
 10
565.9320463879272
 20
352.208376387804
 30
0.0
 41
4.0
 42
4.0
 43
4.0
 50
180.0
  0
INSERT
  5
6F30
330
6F2B
100
AcDbEntity
  8
0
 62
     0
100
AcDbBlockReference
  2
_OPEN
 10
643.9320463879274
 20
352.208376387804
 30
0.0
 41
4.0
 42
4.0
 43
4.0
  0
MTEXT
  5
6F31
330
6F2B
100
AcDbEntity
  8
0
 62
     0
100
AcDbMText
 10
604.1025234390501
 20
356.208376387804
 30
0.0
 40
5.0
 41
0.0
 71
     5
 72
     1
  1
\A1;78
1001
ACAD
1000
MTEXTBEGIN
1070
    73
1070
     1
1070
    44
1040
1.0
1070
    74
1070
     0
1000
MTEXTEND
1000
MTEXTBEGIN
1070
    73
1070
     1
1070
    44
1040
1.0
1070
    74
1070
     0
1000
MTEXTEND
  0
POINT
  5
6F32
330
6F2B
100
AcDbEntity
  8
DEFPOINTS
 62
     0
100
AcDbPoint
 10
565.9320463879272
 20
425.3367539464798
 30
0.0
  0
POINT
  5
6F33
330
6F2B
100
AcDbEntity
  8
DEFPOINTS
 62
     0
100
AcDbPoint
 10
643.9320463879274
 20
425.3367539464798
 30
0.0
  0
POINT
  5
6F34
330
6F2B
100
AcDbEntity
  8
DEFPOINTS
 62
     0
100
AcDbPoint
 10
643.9320463879274
 20
352.208376387804
 30
0.0
  0
ENDBLK
  5
6F36
330
6F2B
100
AcDbEntity
  8
0
100
AcDbBlockEnd
  0
BLOCK
  5
6F41
330
6F37
100
AcDbEntity
  8
0
100
AcDbBlockBegin
  2
*D42
 70
     1
 10
0.0
 20
0.0
 30
0.0
  3
*D42
  1

  0
LINE
  5
6F38
330
6F37
100
AcDbEntity
  8
0
 62
     0
100
AcDbLine
 10
570.9319793879275
 20
394.6756659464798
 30
0.0
 11
570.9319793879275
 21
364.6804072761571
 31
0.0
  0
LINE
  5
6F39
330
6F37
100
AcDbEntity
  8
0
 62
     0
100
AcDbLine
 10
638.9321143879275
 20
394.6756659464798
 30
0.0
 11
638.9321143879275
 21
364.6804072761571
 31
0.0
  0
LINE
  5
6F3A
330
6F37
100
AcDbEntity
  8
0
 62
     0
100
AcDbLine
 10
574.9319793879275
 20
365.6804072761571
 30
0.0
 11
634.9321143879275
 21
365.6804072761571
 31
0.0
  0
INSERT
  5
6F3B
330
6F37
100
AcDbEntity
  8
0
 62
     0
100
AcDbBlockReference
  2
_OPEN
 10
570.9319793879275
 20
365.6804072761571
 30
0.0
 41
4.0
 42
4.0
 43
4.0
 50
180.0
  0
INSERT
  5
6F3C
330
6F37
100
AcDbEntity
  8
0
 62
     0
100
AcDbBlockReference
  2
_OPEN
 10
638.9321143879275
 20
365.6804072761571
 30
0.0
 41
4.0
 42
4.0
 43
4.0
  0
MTEXT
  5
6F3D
330
6F37
100
AcDbEntity
  8
0
 62
     0
100
AcDbMText
 10
603.5631358174587
 20
369.6804072761571
 30
0.0
 40
5.0
 41
0.0
 71
     5
 72
     1
  1
\A1;68
1001
ACAD
1000
MTEXTBEGIN
1070
    73
1070
     1
1070
    44
1040
1.0
1070
    74
1070
     0
1000
MTEXTEND
1000
MTEXTBEGIN
1070
    73
1070
     1
1070
    44
1040
1.0
1070
    74
1070
     0
1000
MTEXTEND
  0
POINT
  5
6F3E
330
6F37
100
AcDbEntity
  8
DEFPOINTS
 62
     0
100
AcDbPoint
 10
570.9319793879275
 20
395.6756659464798
 30
0.0
  0
POINT
  5
6F3F
330
6F37
100
AcDbEntity
  8
DEFPOINTS
 62
     0
100
AcDbPoint
 10
638.9321143879275
 20
395.6756659464798
 30
0.0
  0
POINT
  5
6F40
330
6F37
100
AcDbEntity
  8
DEFPOINTS
 62
     0
100
AcDbPoint
 10
638.9321143879275
 20
365.6804072761571
 30
0.0
  0
ENDBLK
  5
6F42
330
6F37
100
AcDbEntity
  8
0
100
AcDbBlockEnd
  0
BLOCK
  5
6F94
330
6F8A
100
AcDbEntity
  8
0
100
AcDbBlockBegin
  2
*D43
 70
     1
 10
0.0
 20
0.0
 30
0.0
  3
*D43
  1

  0
LINE
  5
7517
330
6F8A
100
AcDbEntity
  8
30
  6
CONTINUOUS
 62
     0
100
AcDbLine
 10
-212.5300935967171
 20
-180.8472690210346
 30
0.0
 11
-167.7747359056723
 21
-180.8472690210349
 31
0.0
  0
LINE
  5
7518
330
6F8A
100
AcDbEntity
  8
30
  6
CONTINUOUS
 62
     0
100
AcDbLine
 10
-212.5300935967171
 20
-320.847519021035
 30
0.0
 11
-167.7747359056724
 21
-320.847519021035
 31
0.0
  0
LINE
  5
7519
330
6F8A
100
AcDbEntity
  8
30
  6
CONTINUOUS
 62
     0
100
AcDbLine
 10
-168.2747359056723
 20
-182.8472690210348
 30
0.0
 11
-168.2747359056723
 21
-318.847519021035
 31
0.0
  0
INSERT
  5
751A
330
6F8A
100
AcDbEntity
  8
30
  6
CONTINUOUS
 62
     0
100
AcDbBlockReference
  2
_OPEN
 10
-168.2747359056723
 20
-180.8472690210349
 30
0.0
 41
2.0
 42
2.0
 43
2.0
 50
90.0
  0
INSERT
  5
751B
330
6F8A
100
AcDbEntity
  8
30
  6
CONTINUOUS
 62
     0
100
AcDbBlockReference
  2
_OPEN
 10
-168.2747359056724
 20
-320.847519021035
 30
0.0
 41
2.0
 42
2.0
 43
2.0
 50
270.0
  0
MTEXT
  5
751C
330
6F8A
100
AcDbEntity
  8
30
  6
CONTINUOUS
 62
     0
100
AcDbMText
 10
-171.2747359056723
 20
-250.8473940210349
 30
0.0
 40
4.0
 41
0.0
 71
     5
 72
     1
  1
\A1;140
 11
0.0000000000000001
 21
1.0
 31
0.0
1001
ACAD
1000
MTEXTBEGIN
1070
    73
1070
     1
1070
    44
1040
1.0
1070
    74
1070
     0
1000
MTEXTEND
1000
MTEXTBEGIN
1070
    73
1070
     1
1070
    44
1040
1.0
1070
    74
1070
     0
1000
MTEXTEND
  0
POINT
  5
751D
330
6F8A
100
AcDbEntity
  8
DEFPOINTS
  6
CONTINUOUS
 62
     0
100
AcDbPoint
 10
-213.5300935967172
 20
-180.8472690210346
 30
0.0
  0
POINT
  5
751E
330
6F8A
100
AcDbEntity
  8
DEFPOINTS
  6
CONTINUOUS
 62
     0
100
AcDbPoint
 10
-213.5300935967172
 20
-320.847519021035
 30
0.0
  0
POINT
  5
751F
330
6F8A
100
AcDbEntity
  8
DEFPOINTS
  6
CONTINUOUS
 62
     0
100
AcDbPoint
 10
-168.2747359056724
 20
-320.847519021035
 30
0.0
  0
ENDBLK
  5
6F95
330
6F8A
100
AcDbEntity
  8
0
100
AcDbBlockEnd
  0
BLOCK
  5
6FA0
330
6F96
100
AcDbEntity
  8
0
100
AcDbBlockBegin
  2
*D44
 70
     1
 10
0.0
 20
0.0
 30
0.0
  3
*D44
  1

  0
LINE
  5
750E
330
6F96
100
AcDbEntity
  8
30
  6
CONTINUOUS
 62
     0
100
AcDbLine
 10
-201.9934815967173
 20
-217.8473940210349
 30
0.0
 11
-180.4360857918679
 21
-217.8473940210349
 31
0.0
  0
LINE
  5
750F
330
6F96
100
AcDbEntity
  8
30
  6
CONTINUOUS
 62
     0
100
AcDbLine
 10
-201.9934815967173
 20
-283.8473940210351
 30
0.0
 11
-180.4360857918679
 21
-283.8473940210351
 31
0.0
  0
LINE
  5
7510
330
6F96
100
AcDbEntity
  8
30
  6
CONTINUOUS
 62
     0
100
AcDbLine
 10
-180.9360857918681
 20
-219.8473940210349
 30
0.0
 11
-180.9360857918681
 21
-281.8473940210351
 31
0.0
  0
INSERT
  5
7511
330
6F96
100
AcDbEntity
  8
30
  6
CONTINUOUS
 62
     0
100
AcDbBlockReference
  2
_OPEN
 10
-180.9360857918681
 20
-217.8473940210349
 30
0.0
 41
2.0
 42
2.0
 43
2.0
 50
90.0
  0
INSERT
  5
7512
330
6F96
100
AcDbEntity
  8
30
  6
CONTINUOUS
 62
     0
100
AcDbBlockReference
  2
_OPEN
 10
-180.9360857918681
 20
-283.8473940210351
 30
0.0
 41
2.0
 42
2.0
 43
2.0
 50
270.0
  0
MTEXT
  5
7513
330
6F96
100
AcDbEntity
  8
30
  6
CONTINUOUS
 62
     0
100
AcDbMText
 10
-183.9360857918681
 20
-251.1497533389011
 30
0.0
 40
4.0
 41
0.0
 71
     5
 72
     1
  1
\A1;66
 11
0.0000000000000001
 21
1.0
 31
0.0
1001
ACAD
1000
MTEXTBEGIN
1070
    73
1070
     1
1070
    44
1040
1.0
1070
    74
1070
     0
1000
MTEXTEND
1000
MTEXTBEGIN
1070
    73
1070
     1
1070
    44
1040
1.0
1070
    74
1070
     0
1000
MTEXTEND
  0
POINT
  5
7514
330
6F96
100
AcDbEntity
  8
DEFPOINTS
  6
CONTINUOUS
 62
     0
100
AcDbPoint
 10
-202.9934815967171
 20
-217.8473940210349
 30
0.0
  0
POINT
  5
7515
330
6F96
100
AcDbEntity
  8
DEFPOINTS
  6
CONTINUOUS
 62
     0
100
AcDbPoint
 10
-202.9934815967171
 20
-283.8473940210351
 30
0.0
  0
POINT
  5
7516
330
6F96
100
AcDbEntity
  8
DEFPOINTS
  6
CONTINUOUS
 62
     0
100
AcDbPoint
 10
-180.9360857918681
 20
-283.8473940210351
 30
0.0
  0
ENDBLK
  5
6FA1
330
6F96
100
AcDbEntity
  8
0
100
AcDbBlockEnd
  0
BLOCK
  5
6FAC
330
6FA2
100
AcDbEntity
  8
0
100
AcDbBlockBegin
  2
*D45
 70
     1
 10
0.0
 20
0.0
 30
0.0
  3
*D45
  1

  0
LINE
  5
7529
330
6FA2
100
AcDbEntity
  8
30
  6
CONTINUOUS
 62
     0
100
AcDbLine
 10
-286.5301615967175
 20
-292.186431021035
 30
0.0
 11
-286.5301615967175
 21
-364.8148085797108
 31
0.0
  0
LINE
  5
752A
330
6FA2
100
AcDbEntity
  8
30
  6
CONTINUOUS
 62
     0
100
AcDbLine
 10
-208.5301615967174
 20
-292.186431021035
 30
0.0
 11
-208.5301615967174
 21
-364.8148085797108
 31
0.0
  0
LINE
  5
752B
330
6FA2
100
AcDbEntity
  8
30
  6
CONTINUOUS
 62
     0
100
AcDbLine
 10
-284.5301615967175
 20
-364.3148085797108
 30
0.0
 11
-210.5301615967174
 21
-364.3148085797108
 31
0.0
  0
INSERT
  5
752C
330
6FA2
100
AcDbEntity
  8
30
  6
CONTINUOUS
 62
     0
100
AcDbBlockReference
  2
_OPEN
 10
-286.5301615967175
 20
-364.3148085797108
 30
0.0
 41
2.0
 42
2.0
 43
2.0
 50
180.0
  0
INSERT
  5
752D
330
6FA2
100
AcDbEntity
  8
30
  6
CONTINUOUS
 62
     0
100
AcDbBlockReference
  2
_OPEN
 10
-208.5301615967174
 20
-364.3148085797108
 30
0.0
 41
2.0
 42
2.0
 43
2.0
  0
MTEXT
  5
752E
330
6FA2
100
AcDbEntity
  8
30
  6
CONTINUOUS
 62
     0
100
AcDbMText
 10
-248.3596845455946
 20
-361.314808579711
 30
0.0
 40
4.0
 41
0.0
 71
     5
 72
     1
  1
\A1;78
1001
ACAD
1000
MTEXTBEGIN
1070
    73
1070
     1
1070
    44
1040
1.0
1070
    74
1070
     0
1000
MTEXTEND
1000
MTEXTBEGIN
1070
    73
1070
     1
1070
    44
1040
1.0
1070
    74
1070
     0
1000
MTEXTEND
  0
POINT
  5
752F
330
6FA2
100
AcDbEntity
  8
DEFPOINTS
  6
CONTINUOUS
 62
     0
100
AcDbPoint
 10
-286.5301615967175
 20
-291.1864310210351
 30
0.0
  0
POINT
  5
7530
330
6FA2
100
AcDbEntity
  8
DEFPOINTS
  6
CONTINUOUS
 62
     0
100
AcDbPoint
 10
-208.5301615967174
 20
-291.1864310210351
 30
0.0
  0
POINT
  5
7531
330
6FA2
100
AcDbEntity
  8
DEFPOINTS
  6
CONTINUOUS
 62
     0
100
AcDbPoint
 10
-208.5301615967174
 20
-364.3148085797108
 30
0.0
  0
ENDBLK
  5
6FAD
330
6FA2
100
AcDbEntity
  8
0
100
AcDbBlockEnd
  0
BLOCK
  5
6FB8
330
6FAE
100
AcDbEntity
  8
0
100
AcDbBlockBegin
  2
*D46
 70
     1
 10
0.0
 20
0.0
 30
0.0
  3
*D46
  1

  0
LINE
  5
7520
330
6FAE
100
AcDbEntity
  8
30
  6
CONTINUOUS
 62
     0
100
AcDbLine
 10
-281.5302285967171
 20
-321.8475190210351
 30
0.0
 11
-281.5302285967171
 21
-351.3427776913576
 31
0.0
  0
LINE
  5
7521
330
6FAE
100
AcDbEntity
  8
30
  6
CONTINUOUS
 62
     0
100
AcDbLine
 10
-213.5300935967172
 20
-321.8475190210351
 30
0.0
 11
-213.5300935967172
 21
-351.3427776913576
 31
0.0
  0
LINE
  5
7522
330
6FAE
100
AcDbEntity
  8
30
  6
CONTINUOUS
 62
     0
100
AcDbLine
 10
-279.5302285967173
 20
-350.8427776913578
 30
0.0
 11
-215.5300935967172
 21
-350.8427776913578
 31
0.0
  0
INSERT
  5
7523
330
6FAE
100
AcDbEntity
  8
30
  6
CONTINUOUS
 62
     0
100
AcDbBlockReference
  2
_OPEN
 10
-281.5302285967171
 20
-350.8427776913578
 30
0.0
 41
2.0
 42
2.0
 43
2.0
 50
180.0
  0
INSERT
  5
7524
330
6FAE
100
AcDbEntity
  8
30
  6
CONTINUOUS
 62
     0
100
AcDbBlockReference
  2
_OPEN
 10
-213.5300935967172
 20
-350.8427776913578
 30
0.0
 41
2.0
 42
2.0
 43
2.0
  0
MTEXT
  5
7525
330
6FAE
100
AcDbEntity
  8
30
  6
CONTINUOUS
 62
     0
100
AcDbMText
 10
-248.899072167186
 20
-347.8427776913578
 30
0.0
 40
4.0
 41
0.0
 71
     5
 72
     1
  1
\A1;68
1001
ACAD
1000
MTEXTBEGIN
1070
    73
1070
     1
1070
    44
1040
1.0
1070
    74
1070
     0
1000
MTEXTEND
1000
MTEXTBEGIN
1070
    73
1070
     1
1070
    44
1040
1.0
1070
    74
1070
     0
1000
MTEXTEND
  0
POINT
  5
7526
330
6FAE
100
AcDbEntity
  8
DEFPOINTS
  6
CONTINUOUS
 62
     0
100
AcDbPoint
 10
-281.5302285967171
 20
-320.847519021035
 30
0.0
  0
POINT
  5
7527
330
6FAE
100
AcDbEntity
  8
DEFPOINTS
  6
CONTINUOUS
 62
     0
100
AcDbPoint
 10
-213.5300935967172
 20
-320.847519021035
 30
0.0
  0
POINT
  5
7528
330
6FAE
100
AcDbEntity
  8
DEFPOINTS
  6
CONTINUOUS
 62
     0
100
AcDbPoint
 10
-213.5300935967172
 20
-350.8427776913578
 30
0.0
  0
ENDBLK
  5
6FB9
330
6FAE
100
AcDbEntity
  8
0
100
AcDbBlockEnd
  0
BLOCK
  5
6FE9
330
6FDF
100
AcDbEntity
  8
0
100
AcDbBlockBegin
  2
*D47
 70
     1
 10
0.0
 20
0.0
 30
0.0
  3
*D47
  1

  0
LINE
  5
6FE0
330
6FDF
100
AcDbEntity
  8
0
 62
     0
100
AcDbLine
 10
134.6411873879274
 20
166.06783494648
 30
0.0
 11
134.6411873879274
 21
100.7338465858359
 31
0.0
  0
LINE
  5
6FE1
330
6FDF
100
AcDbEntity
  8
0
 62
     0
100
AcDbLine
 10
109.6411873879274
 20
115.29426794648
 30
0.0
 11
109.6411873879274
 21
100.7338465858359
 31
0.0
  0
LINE
  5
6FE2
330
6FDF
100
AcDbEntity
  8
0
 62
     0
100
AcDbLine
 10
130.6411873879274
 20
101.7338465858359
 30
0.0
 11
113.6411873879274
 21
101.7338465858359
 31
0.0
  0
INSERT
  5
6FE3
330
6FDF
100
AcDbEntity
  8
0
 62
     0
100
AcDbBlockReference
  2
_OPEN
 10
134.6411873879274
 20
101.7338465858359
 30
0.0
 41
4.0
 42
4.0
 43
4.0
  0
INSERT
  5
6FE4
330
6FDF
100
AcDbEntity
  8
0
 62
     0
100
AcDbBlockReference
  2
_OPEN
 10
109.6411873879274
 20
101.7338465858359
 30
0.0
 41
4.0
 42
4.0
 43
4.0
 50
180.0
  0
MTEXT
  5
6FE5
330
6FDF
100
AcDbEntity
  8
0
 62
     0
100
AcDbMText
 10
122.1411873879274
 20
105.7338465858359
 30
0.0
 40
5.0
 41
0.0
 71
     5
 72
     1
  1
\A1;25
1001
ACAD
1000
MTEXTBEGIN
1070
    73
1070
     1
1070
    44
1040
1.0
1070
    74
1070
     0
1000
MTEXTEND
1000
MTEXTBEGIN
1070
    73
1070
     1
1070
    44
1040
1.0
1070
    74
1070
     0
1000
MTEXTEND
  0
POINT
  5
6FE6
330
6FDF
100
AcDbEntity
  8
DEFPOINTS
 62
     0
100
AcDbPoint
 10
134.6411873879274
 20
167.06783494648
 30
0.0
  0
POINT
  5
6FE7
330
6FDF
100
AcDbEntity
  8
DEFPOINTS
 62
     0
100
AcDbPoint
 10
109.6411873879274
 20
116.29426794648
 30
0.0
  0
POINT
  5
6FE8
330
6FDF
100
AcDbEntity
  8
DEFPOINTS
 62
     0
100
AcDbPoint
 10
109.6411873879274
 20
101.7338465858359
 30
0.0
  0
ENDBLK
  5
6FEA
330
6FDF
100
AcDbEntity
  8
0
100
AcDbBlockEnd
  0
BLOCK
  5
6FF6
330
6FEB
100
AcDbEntity
  8
0
100
AcDbBlockBegin
  2
*D48
 70
     1
 10
0.0
 20
0.0
 30
0.0
  3
*D48
  1

  0
LINE
  5
6FEC
330
6FEB
100
AcDbEntity
  8
0
 62
     0
100
AcDbLine
 10
117.6411873879274
 20
125.90338894648
 30
0.0
 11
215.0408030383018
 21
125.9033889464797
 31
0.0
  0
LINE
  5
6FED
330
6FEB
100
AcDbEntity
  8
0
 62
     0
100
AcDbLine
 10
214.0408030383018
 20
137.4033889464799
 30
0.0
 11
214.0408030383018
 21
141.4033889464799
 31
0.0
  0
LINE
  5
6FEE
330
6FEB
100
AcDbEntity
  8
0
 62
     0
100
AcDbLine
 10
214.0408030383018
 20
121.9033889464799
 30
0.0
 11
214.0408030383018
 21
117.90338894648
 31
0.0
  0
LINE
  5
6FEF
330
6FEB
100
AcDbEntity
  8
0
 62
     0
100
AcDbLine
 10
214.0408030383018
 20
133.40338894648
 30
0.0
 11
214.0408030383018
 21
125.9033889464797
 31
0.0
  0
INSERT
  5
6FF0
330
6FEB
100
AcDbEntity
  8
0
 62
     0
100
AcDbBlockReference
  2
_OPEN
 10
214.0408030383018
 20
133.40338894648
 30
0.0
 41
4.0
 42
4.0
 43
4.0
 50
270.0
  0
INSERT
  5
6FF1
330
6FEB
100
AcDbEntity
  8
0
 62
     0
100
AcDbBlockReference
  2
_OPEN
 10
214.0408030383018
 20
125.9033889464797
 30
0.0
 41
4.0
 42
4.0
 43
4.0
 50
90.0
  0
MTEXT
  5
6FF2
330
6FEB
100
AcDbEntity
  8
0
 62
     0
100
AcDbMText
 10
210.0408030383017
 20
129.65338894648
 30
0.0
 40
5.0
 41
0.0
 71
     5
 72
     1
  1
\A1;8
 11
0.0000000000000001
 21
1.0
 31
0.0
1001
ACAD
1000
MTEXTBEGIN
1070
    73
1070
     1
1070
    44
1040
1.0
1070
    74
1070
     0
1000
MTEXTEND
1000
MTEXTBEGIN
1070
    73
1070
     1
1070
    44
1040
1.0
1070
    74
1070
     0
1000
MTEXTEND
  0
POINT
  5
6FF3
330
6FEB
100
AcDbEntity
  8
DEFPOINTS
 62
     0
100
AcDbPoint
 10
121.0694783879274
 20
133.40338894648
 30
0.0
  0
POINT
  5
6FF4
330
6FEB
100
AcDbEntity
  8
DEFPOINTS
 62
     0
100
AcDbPoint
 10
116.6411873879274
 20
125.90338894648
 30
0.0
  0
POINT
  5
6FF5
330
6FEB
100
AcDbEntity
  8
DEFPOINTS
 62
     0
100
AcDbPoint
 10
214.0408030383018
 20
125.9033889464797
 30
0.0
  0
ENDBLK
  5
6FF7
330
6FEB
100
AcDbEntity
  8
0
100
AcDbBlockEnd
  0
BLOCK
  5
7002
330
6FF8
100
AcDbEntity
  8
0
100
AcDbBlockBegin
  2
*D49
 70
     1
 10
0.0
 20
0.0
 30
0.0
  3
*D49
  1

  0
LINE
  5
6FF9
330
6FF8
100
AcDbEntity
  8
0
 62
     0
100
AcDbLine
 10
170.6411893879274
 20
283.00190394648
 30
0.0
 11
215.0408030383018
 21
283.00190394648
 31
0.0
  0
LINE
  5
6FFA
330
6FF8
100
AcDbEntity
  8
0
 62
     0
100
AcDbLine
 10
122.0694783879274
 20
133.40338894648
 30
0.0
 11
215.0408030383018
 21
133.40338894648
 31
0.0
  0
LINE
  5
6FFB
330
6FF8
100
AcDbEntity
  8
0
 62
     0
100
AcDbLine
 10
214.0408030383018
 20
279.00190394648
 30
0.0
 11
214.0408030383018
 21
137.4033889464799
 31
0.0
  0
INSERT
  5
6FFC
330
6FF8
100
AcDbEntity
  8
0
 62
     0
100
AcDbBlockReference
  2
_OPEN
 10
214.0408030383018
 20
283.00190394648
 30
0.0
 41
4.0
 42
4.0
 43
4.0
 50
90.0
  0
INSERT
  5
6FFD
330
6FF8
100
AcDbEntity
  8
0
 62
     0
100
AcDbBlockReference
  2
_OPEN
 10
214.0408030383018
 20
133.40338894648
 30
0.0
 41
4.0
 42
4.0
 43
4.0
 50
270.0
  0
MTEXT
  5
6FFE
330
6FF8
100
AcDbEntity
  8
0
 62
     0
100
AcDbMText
 10
210.0408030383017
 20
208.2026464464798
 30
0.0
 40
5.0
 41
0.0
 71
     5
 72
     1
  1
\A1;150
 11
0.0000000000000001
 21
1.0
 31
0.0
1001
ACAD
1000
MTEXTBEGIN
1070
    73
1070
     1
1070
    44
1040
1.0
1070
    74
1070
     0
1000
MTEXTEND
1000
MTEXTBEGIN
1070
    73
1070
     1
1070
    44
1040
1.0
1070
    74
1070
     0
1000
MTEXTEND
  0
POINT
  5
6FFF
330
6FF8
100
AcDbEntity
  8
DEFPOINTS
 62
     0
100
AcDbPoint
 10
169.6411893879274
 20
283.00190394648
 30
0.0
  0
POINT
  5
7000
330
6FF8
100
AcDbEntity
  8
DEFPOINTS
 62
     0
100
AcDbPoint
 10
121.0694783879274
 20
133.40338894648
 30
0.0
  0
POINT
  5
7001
330
6FF8
100
AcDbEntity
  8
DEFPOINTS
 62
     0
100
AcDbPoint
 10
214.0408030383018
 20
133.40338894648
 30
0.0
  0
ENDBLK
  5
7003
330
6FF8
100
AcDbEntity
  8
0
100
AcDbBlockEnd
  0
BLOCK
  5
700E
330
7004
100
AcDbEntity
  8
0
100
AcDbBlockBegin
  2
*D50
 70
     1
 10
0.0
 20
0.0
 30
0.0
  3
*D50
  1

  0
LINE
  5
7005
330
7004
100
AcDbEntity
  8
0
 62
     0
100
AcDbLine
 10
169.6411873879274
 20
283.00190394648
 30
0.0
 11
196.0308222925585
 21
283.00190394648
 31
0.0
  0
LINE
  5
7006
330
7004
100
AcDbEntity
  8
0
 62
     0
100
AcDbLine
 10
147.0694783879274
 20
183.40338894648
 30
0.0
 11
196.0308222925585
 21
183.4033889464799
 31
0.0
  0
LINE
  5
7007
330
7004
100
AcDbEntity
  8
0
 62
     0
100
AcDbLine
 10
195.0308222925585
 20
279.00190394648
 30
0.0
 11
195.0308222925585
 21
187.4033889464799
 31
0.0
  0
INSERT
  5
7008
330
7004
100
AcDbEntity
  8
0
 62
     0
100
AcDbBlockReference
  2
_OPEN
 10
195.0308222925585
 20
283.00190394648
 30
0.0
 41
4.0
 42
4.0
 43
4.0
 50
90.0
  0
INSERT
  5
7009
330
7004
100
AcDbEntity
  8
0
 62
     0
100
AcDbBlockReference
  2
_OPEN
 10
195.0308222925585
 20
183.4033889464799
 30
0.0
 41
4.0
 42
4.0
 43
4.0
 50
270.0
  0
MTEXT
  5
700A
330
7004
100
AcDbEntity
  8
0
 62
     0
100
AcDbMText
 10
191.0308222925585
 20
233.2026464464799
 30
0.0
 40
5.0
 41
0.0
 71
     5
 72
     1
  1
\A1;100
 11
0.0000000000000001
 21
1.0
 31
0.0
1001
ACAD
1000
MTEXTBEGIN
1070
    73
1070
     1
1070
    44
1040
1.0
1070
    74
1070
     0
1000
MTEXTEND
1000
MTEXTBEGIN
1070
    73
1070
     1
1070
    44
1040
1.0
1070
    74
1070
     0
1000
MTEXTEND
  0
POINT
  5
700B
330
7004
100
AcDbEntity
  8
DEFPOINTS
 62
     0
100
AcDbPoint
 10
168.6411873879274
 20
283.00190394648
 30
0.0
  0
POINT
  5
700C
330
7004
100
AcDbEntity
  8
DEFPOINTS
 62
     0
100
AcDbPoint
 10
146.0694783879274
 20
183.40338894648
 30
0.0
  0
POINT
  5
700D
330
7004
100
AcDbEntity
  8
DEFPOINTS
 62
     0
100
AcDbPoint
 10
195.0308222925585
 20
183.4033889464799
 30
0.0
  0
ENDBLK
  5
700F
330
7004
100
AcDbEntity
  8
0
100
AcDbBlockEnd
  0
BLOCK
  5
701C
330
7010
100
AcDbEntity
  8
0
100
AcDbBlockBegin
  2
*D51
 70
     1
 10
0.0
 20
0.0
 30
0.0
  3
*D51
  1

  0
LINE
  5
7011
330
7010
100
AcDbEntity
  8
0
 62
     0
100
AcDbLine
 10
148.0694803879273
 20
183.40338894648
 30
0.0
 11
196.0308222925585
 21
183.4033889464799
 31
0.0
  0
LINE
  5
7012
330
7010
100
AcDbEntity
  8
0
 62
     0
100
AcDbLine
 10
142.1411873879273
 20
175.40338894648
 30
0.0
 11
196.0308222925585
 21
175.4033889464799
 31
0.0
  0
LINE
  5
7013
330
7010
100
AcDbEntity
  8
0
 62
     0
100
AcDbLine
 10
195.0308222925585
 20
187.4033889464799
 30
0.0
 11
195.0308222925585
 21
191.4033889464797
 31
0.0
  0
LINE
  5
7014
330
7010
100
AcDbEntity
  8
0
 62
     0
100
AcDbLine
 10
195.0308222925585
 20
171.4033889464799
 30
0.0
 11
195.0308222925585
 21
142.7367222798133
 31
0.0
  0
LINE
  5
7015
330
7010
100
AcDbEntity
  8
0
 62
     0
100
AcDbLine
 10
195.0308222925585
 20
183.4033889464799
 30
0.0
 11
195.0308222925585
 21
175.4033889464799
 31
0.0
  0
INSERT
  5
7016
330
7010
100
AcDbEntity
  8
0
 62
     0
100
AcDbBlockReference
  2
_OPEN
 10
195.0308222925585
 20
183.4033889464799
 30
0.0
 41
4.0
 42
4.0
 43
4.0
 50
270.0
  0
INSERT
  5
7017
330
7010
100
AcDbEntity
  8
0
 62
     0
100
AcDbBlockReference
  2
_OPEN
 10
195.0308222925585
 20
175.4033889464799
 30
0.0
 41
4.0
 42
4.0
 43
4.0
 50
90.0
  0
MTEXT
  5
7018
330
7010
100
AcDbEntity
  8
0
 62
     0
100
AcDbMText
 10
191.0308222925585
 20
155.0700556131466
 30
0.0
 40
5.0
 41
0.0
 71
     5
 72
     1
  1
\A1;8.0000
 11
0.0000000000000001
 21
1.0
 31
0.0
1001
ACAD
1000
MTEXTBEGIN
1070
    73
1070
     1
1070
    44
1040
1.0
1070
    74
1070
     0
1000
MTEXTEND
1000
MTEXTBEGIN
1070
    73
1070
     1
1070
    44
1040
1.0
1070
    74
1070
     0
1000
MTEXTEND
  0
POINT
  5
7019
330
7010
100
AcDbEntity
  8
DEFPOINTS
 62
     0
100
AcDbPoint
 10
147.0694803879274
 20
183.40338894648
 30
0.0
  0
POINT
  5
701A
330
7010
100
AcDbEntity
  8
DEFPOINTS
 62
     0
100
AcDbPoint
 10
141.1411873879274
 20
175.40338894648
 30
0.0
  0
POINT
  5
701B
330
7010
100
AcDbEntity
  8
DEFPOINTS
 62
     0
100
AcDbPoint
 10
195.0308222925585
 20
175.4033889464799
 30
0.0
  0
ENDBLK
  5
701D
330
7010
100
AcDbEntity
  8
0
100
AcDbBlockEnd
  0
BLOCK
  5
7136
330
712C
100
AcDbEntity
  8
0
100
AcDbBlockBegin
  2
*D52
 70
     1
 10
0.0
 20
0.0
 30
0.0
  3
*D52
  1

  0
LINE
  5
753B
330
712C
100
AcDbEntity
  8
30
  6
CONTINUOUS
 62
     0
100
AcDbLine
 10
-200.0301615967173
 20
188.6538792918458
 30
0.0
 11
-174.1405266920861
 21
188.6538792918458
 31
0.0
  0
LINE
  5
753C
330
712C
100
AcDbEntity
  8
30
  6
CONTINUOUS
 62
     0
100
AcDbLine
 10
-222.6018705967172
 20
288.2523942918459
 30
0.0
 11
-174.1405266920861
 21
288.2523942918459
 31
0.0
  0
LINE
  5
753D
330
712C
100
AcDbEntity
  8
30
  6
CONTINUOUS
 62
     0
100
AcDbLine
 10
-174.6405266920859
 20
190.6538792918458
 30
0.0
 11
-174.6405266920859
 21
286.2523942918459
 31
0.0
  0
INSERT
  5
753E
330
712C
100
AcDbEntity
  8
30
  6
CONTINUOUS
 62
     0
100
AcDbBlockReference
  2
_OPEN
 10
-174.6405266920859
 20
188.6538792918458
 30
0.0
 41
2.0
 42
2.0
 43
2.0
 50
270.0
  0
INSERT
  5
753F
330
712C
100
AcDbEntity
  8
30
  6
CONTINUOUS
 62
     0
100
AcDbBlockReference
  2
_OPEN
 10
-174.6405266920859
 20
288.2523942918459
 30
0.0
 41
2.0
 42
2.0
 43
2.0
 50
90.0
  0
MTEXT
  5
7540
330
712C
100
AcDbEntity
  8
30
  6
CONTINUOUS
 62
     0
100
AcDbMText
 10
-177.6405266920859
 20
238.4531367918458
 30
0.0
 40
4.0
 41
0.0
 71
     5
 72
     1
  1
\A1;100
 11
0.0000000000000001
 21
1.0
 31
0.0
1001
ACAD
1000
MTEXTBEGIN
1070
    73
1070
     1
1070
    44
1040
1.0
1070
    74
1070
     0
1000
MTEXTEND
1000
MTEXTBEGIN
1070
    73
1070
     1
1070
    44
1040
1.0
1070
    74
1070
     0
1000
MTEXTEND
  0
POINT
  5
7541
330
712C
100
AcDbEntity
  8
DEFPOINTS
  6
CONTINUOUS
 62
     0
100
AcDbPoint
 10
-201.0301615967172
 20
188.6538792918458
 30
0.0
  0
POINT
  5
7542
330
712C
100
AcDbEntity
  8
DEFPOINTS
  6
CONTINUOUS
 62
     0
100
AcDbPoint
 10
-223.6018705967173
 20
288.2523942918459
 30
0.0
  0
POINT
  5
7543
330
712C
100
AcDbEntity
  8
DEFPOINTS
  6
CONTINUOUS
 62
     0
100
AcDbPoint
 10
-174.6405266920859
 20
288.2523942918459
 30
0.0
  0
ENDBLK
  5
7137
330
712C
100
AcDbEntity
  8
0
100
AcDbBlockEnd
  0
BLOCK
  5
7144
330
7138
100
AcDbEntity
  8
0
100
AcDbBlockBegin
  2
*D53
 70
     1
 10
0.0
 20
0.0
 30
0.0
  3
*D53
  1

  0
LINE
  5
754D
330
7138
100
AcDbEntity
  8
30
  6
CONTINUOUS
 62
     0
100
AcDbLine
 10
-221.6018685967173
 20
288.2523942918459
 30
0.0
 11
-174.1405266920861
 21
288.2523942918459
 31
0.0
  0
LINE
  5
754E
330
7138
100
AcDbEntity
  8
30
  6
CONTINUOUS
 62
     0
100
AcDbLine
 10
-227.5301615967173
 20
296.2523942918459
 30
0.0
 11
-174.1405266920861
 21
296.2523942918459
 31
0.0
  0
LINE
  5
754F
330
7138
100
AcDbEntity
  8
30
  6
CONTINUOUS
 62
     0
100
AcDbLine
 10
-174.6405266920859
 20
290.2523942918459
 30
0.0
 11
-174.6405266920859
 21
294.2523942918459
 31
0.0
  0
INSERT
  5
7550
330
7138
100
AcDbEntity
  8
30
  6
CONTINUOUS
 62
     0
100
AcDbBlockReference
  2
_OPEN
 10
-174.6405266920859
 20
288.2523942918459
 30
0.0
 41
2.0
 42
2.0
 43
2.0
 50
270.0
  0
INSERT
  5
7551
330
7138
100
AcDbEntity
  8
30
  6
CONTINUOUS
 62
     0
100
AcDbBlockReference
  2
_OPEN
 10
-174.6405266920859
 20
296.2523942918459
 30
0.0
 41
2.0
 42
2.0
 43
2.0
 50
90.0
  0
MTEXT
  5
7552
330
7138
100
AcDbEntity
  8
30
  6
CONTINUOUS
 62
     0
100
AcDbMText
 10
-177.6405266920859
 20
292.2523942918457
 30
0.0
 40
4.0
 41
0.0
 71
     5
 72
     1
  1
\A1;8
 11
0.0000000000000001
 21
1.0
 31
0.0
1001
ACAD
1000
MTEXTBEGIN
1070
    73
1070
     1
1070
    44
1040
1.0
1070
    74
1070
     0
1000
MTEXTEND
1000
MTEXTBEGIN
1070
    73
1070
     1
1070
    44
1040
1.0
1070
    74
1070
     0
1000
MTEXTEND
  0
POINT
  5
7553
330
7138
100
AcDbEntity
  8
DEFPOINTS
  6
CONTINUOUS
 62
     0
100
AcDbPoint
 10
-222.6018685967173
 20
288.2523942918459
 30
0.0
  0
POINT
  5
7554
330
7138
100
AcDbEntity
  8
DEFPOINTS
  6
CONTINUOUS
 62
     0
100
AcDbPoint
 10
-228.5301615967173
 20
296.2523942918459
 30
0.0
  0
POINT
  5
7555
330
7138
100
AcDbEntity
  8
DEFPOINTS
  6
CONTINUOUS
 62
     0
100
AcDbPoint
 10
-174.6405266920859
 20
296.2523942918459
 30
0.0
  0
ENDBLK
  5
7145
330
7138
100
AcDbEntity
  8
0
100
AcDbBlockEnd
  0
BLOCK
  5
7150
330
7146
100
AcDbEntity
  8
0
100
AcDbBlockBegin
  2
*D54
 70
     1
 10
0.0
 20
0.0
 30
0.0
  3
*D54
  1

  0
LINE
  5
755F
330
7146
100
AcDbEntity
  8
30
  6
CONTINUOUS
 62
     0
100
AcDbLine
 10
-235.0301615967173
 20
305.5879482918459
 30
0.0
 11
-235.0301615967173
 21
370.4219366524897
 31
0.0
  0
LINE
  5
7560
330
7146
100
AcDbEntity
  8
30
  6
CONTINUOUS
 62
     0
100
AcDbLine
 10
-260.0301615967171
 20
356.3615152918456
 30
0.0
 11
-260.0301615967171
 21
370.4219366524897
 31
0.0
  0
LINE
  5
7561
330
7146
100
AcDbEntity
  8
30
  6
CONTINUOUS
 62
     0
100
AcDbLine
 10
-237.0301615967173
 20
369.9219366524896
 30
0.0
 11
-258.0301615967171
 21
369.9219366524896
 31
0.0
  0
INSERT
  5
7562
330
7146
100
AcDbEntity
  8
30
  6
CONTINUOUS
 62
     0
100
AcDbBlockReference
  2
_OPEN
 10
-235.0301615967173
 20
369.9219366524896
 30
0.0
 41
2.0
 42
2.0
 43
2.0
  0
INSERT
  5
7563
330
7146
100
AcDbEntity
  8
30
  6
CONTINUOUS
 62
     0
100
AcDbBlockReference
  2
_OPEN
 10
-260.0301615967171
 20
369.9219366524896
 30
0.0
 41
2.0
 42
2.0
 43
2.0
 50
180.0
  0
MTEXT
  5
7564
330
7146
100
AcDbEntity
  8
30
  6
CONTINUOUS
 62
     0
100
AcDbMText
 10
-247.5301615967173
 20
372.9219366524897
 30
0.0
 40
4.0
 41
0.0
 71
     5
 72
     1
  1
\A1;25
1001
ACAD
1000
MTEXTBEGIN
1070
    73
1070
     1
1070
    44
1040
1.0
1070
    74
1070
     0
1000
MTEXTEND
1000
MTEXTBEGIN
1070
    73
1070
     1
1070
    44
1040
1.0
1070
    74
1070
     0
1000
MTEXTEND
  0
POINT
  5
7565
330
7146
100
AcDbEntity
  8
DEFPOINTS
  6
CONTINUOUS
 62
     0
100
AcDbPoint
 10
-235.0301615967173
 20
304.5879482918459
 30
0.0
  0
POINT
  5
7566
330
7146
100
AcDbEntity
  8
DEFPOINTS
  6
CONTINUOUS
 62
     0
100
AcDbPoint
 10
-260.0301615967171
 20
355.3615152918457
 30
0.0
  0
POINT
  5
7567
330
7146
100
AcDbEntity
  8
DEFPOINTS
  6
CONTINUOUS
 62
     0
100
AcDbPoint
 10
-260.0301615967171
 20
369.9219366524896
 30
0.0
  0
ENDBLK
  5
7151
330
7146
100
AcDbEntity
  8
0
100
AcDbBlockEnd
  0
BLOCK
  5
715D
330
7152
100
AcDbEntity
  8
0
100
AcDbBlockBegin
  2
*D55
 70
     1
 10
0.0
 20
0.0
 30
0.0
  3
*D55
  1

  0
LINE
  5
7556
330
7152
100
AcDbEntity
  8
30
  6
CONTINUOUS
 62
     0
100
AcDbLine
 10
-247.6018705967172
 20
338.2523942918459
 30
0.0
 11
-155.1305459463429
 21
338.2523942918459
 31
0.0
  0
LINE
  5
7557
330
7152
100
AcDbEntity
  8
30
  6
CONTINUOUS
 62
     0
100
AcDbLine
 10
-252.0301615967173
 20
345.7523942918458
 30
0.0
 11
-155.1305459463429
 21
345.7523942918458
 31
0.0
  0
LINE
  5
7558
330
7152
100
AcDbEntity
  8
30
  6
CONTINUOUS
 62
     0
100
AcDbLine
 10
-155.6305459463429
 20
340.2523942918459
 30
0.0
 11
-155.6305459463429
 21
343.7523942918458
 31
0.0
  0
INSERT
  5
7559
330
7152
100
AcDbEntity
  8
30
  6
CONTINUOUS
 62
     0
100
AcDbBlockReference
  2
_OPEN
 10
-155.6305459463429
 20
338.2523942918459
 30
0.0
 41
2.0
 42
2.0
 43
2.0
 50
270.0
  0
INSERT
  5
755A
330
7152
100
AcDbEntity
  8
30
  6
CONTINUOUS
 62
     0
100
AcDbBlockReference
  2
_OPEN
 10
-155.6305459463429
 20
345.7523942918458
 30
0.0
 41
2.0
 42
2.0
 43
2.0
 50
90.0
  0
MTEXT
  5
755B
330
7152
100
AcDbEntity
  8
30
  6
CONTINUOUS
 62
     0
100
AcDbMText
 10
-158.6305459463429
 20
342.0023942918458
 30
0.0
 40
4.0
 41
0.0
 71
     5
 72
     1
  1
\A1;8
 11
0.0000000000000001
 21
1.0
 31
0.0
1001
ACAD
1000
MTEXTBEGIN
1070
    73
1070
     1
1070
    44
1040
1.0
1070
    74
1070
     0
1000
MTEXTEND
1000
MTEXTBEGIN
1070
    73
1070
     1
1070
    44
1040
1.0
1070
    74
1070
     0
1000
MTEXTEND
  0
POINT
  5
755C
330
7152
100
AcDbEntity
  8
DEFPOINTS
  6
CONTINUOUS
 62
     0
100
AcDbPoint
 10
-248.6018705967173
 20
338.2523942918459
 30
0.0
  0
POINT
  5
755D
330
7152
100
AcDbEntity
  8
DEFPOINTS
  6
CONTINUOUS
 62
     0
100
AcDbPoint
 10
-253.0301615967172
 20
345.7523942918458
 30
0.0
  0
POINT
  5
755E
330
7152
100
AcDbEntity
  8
DEFPOINTS
  6
CONTINUOUS
 62
     0
100
AcDbPoint
 10
-155.6305459463429
 20
345.7523942918458
 30
0.0
  0
ENDBLK
  5
715E
330
7152
100
AcDbEntity
  8
0
100
AcDbBlockEnd
  0
BLOCK
  5
7169
330
715F
100
AcDbEntity
  8
0
100
AcDbBlockBegin
  2
*D56
 70
     1
 10
0.0
 20
0.0
 30
0.0
  3
*D56
  1

  0
LINE
  5
7544
330
715F
100
AcDbEntity
  8
30
  6
CONTINUOUS
 62
     0
100
AcDbLine
 10
-199.0301595967173
 20
188.6538792918458
 30
0.0
 11
-155.1305459463429
 21
188.6538792918458
 31
0.0
  0
LINE
  5
7545
330
715F
100
AcDbEntity
  8
30
  6
CONTINUOUS
 62
     0
100
AcDbLine
 10
-247.6018705967172
 20
338.2523942918459
 30
0.0
 11
-155.1305459463429
 21
338.2523942918459
 31
0.0
  0
LINE
  5
7546
330
715F
100
AcDbEntity
  8
30
  6
CONTINUOUS
 62
     0
100
AcDbLine
 10
-155.6305459463429
 20
190.6538792918458
 30
0.0
 11
-155.6305459463429
 21
336.2523942918459
 31
0.0
  0
INSERT
  5
7547
330
715F
100
AcDbEntity
  8
30
  6
CONTINUOUS
 62
     0
100
AcDbBlockReference
  2
_OPEN
 10
-155.6305459463429
 20
188.6538792918458
 30
0.0
 41
2.0
 42
2.0
 43
2.0
 50
270.0
  0
INSERT
  5
7548
330
715F
100
AcDbEntity
  8
30
  6
CONTINUOUS
 62
     0
100
AcDbBlockReference
  2
_OPEN
 10
-155.6305459463429
 20
338.2523942918459
 30
0.0
 41
2.0
 42
2.0
 43
2.0
 50
90.0
  0
MTEXT
  5
7549
330
715F
100
AcDbEntity
  8
30
  6
CONTINUOUS
 62
     0
100
AcDbMText
 10
-158.6305459463429
 20
263.4531367918456
 30
0.0
 40
4.0
 41
0.0
 71
     5
 72
     1
  1
\A1;150
 11
0.0000000000000001
 21
1.0
 31
0.0
1001
ACAD
1000
MTEXTBEGIN
1070
    73
1070
     1
1070
    44
1040
1.0
1070
    74
1070
     0
1000
MTEXTEND
1000
MTEXTBEGIN
1070
    73
1070
     1
1070
    44
1040
1.0
1070
    74
1070
     0
1000
MTEXTEND
  0
POINT
  5
754A
330
715F
100
AcDbEntity
  8
DEFPOINTS
  6
CONTINUOUS
 62
     0
100
AcDbPoint
 10
-200.0301595967173
 20
188.6538792918458
 30
0.0
  0
POINT
  5
754B
330
715F
100
AcDbEntity
  8
DEFPOINTS
  6
CONTINUOUS
 62
     0
100
AcDbPoint
 10
-248.6018705967173
 20
338.2523942918459
 30
0.0
  0
POINT
  5
754C
330
715F
100
AcDbEntity
  8
DEFPOINTS
  6
CONTINUOUS
 62
     0
100
AcDbPoint
 10
-155.6305459463429
 20
338.2523942918459
 30
0.0
  0
ENDBLK
  5
716A
330
715F
100
AcDbEntity
  8
0
100
AcDbBlockEnd
  0
BLOCK
  5
729F
330
7299
100
AcDbEntity
  8
TOP
  6
CONTINUOUS
 62
     4
100
AcDbBlockBegin
  2
*U57
 70
     1
 10
0.0
 20
0.0
 30
0.0
  3
*U57
  1

  0
LINE
  5
729A
330
7299
100
AcDbEntity
  8
1
  6
BYBLOCK
 62
     0
100
AcDbLine
 10
287.2057572385031
 20
73.79512687471603
 30
0.0
 11
276.2057572385031
 21
73.79512687471603
 31
0.0
  0
LINE
  5
729B
330
7299
100
AcDbEntity
  8
1
  6
BYBLOCK
 62
     0
100
AcDbLine
 10
296.8913158503363
 20
94.37207082491942
 30
0.0
 11
287.2057572385031
 21
73.79512687471603
 31
0.0
  0
SOLID
  5
729C
330
7299
100
AcDbEntity
  8
1
  6
BYBLOCK
 62
     0
100
AcDbTrace
 10
296.8913158503363
 20
94.37207082491942
 30
0.0
 11
296.3411501381206
 21
92.42055119794148
 31
0.0
 12
295.7379635408423
 22
92.7044708682264
 32
0.0
 13
295.7379635408423
 23
92.7044708682264
 33
0.0
  0
TEXT
  5
729D
330
7299
100
AcDbEntity
  8
TOP
  6
BYBLOCK
 62
     0
100
AcDbText
 10
274.4739864025374
 20
72.54512687281603
 30
0.0
 40
2.500000003799998
  1
 
 41
1.189062499999995
  7
UGMTXT
100
AcDbText
  0
TEXT
  5
729E
330
7299
100
AcDbEntity
  8
TOP
  6
BYBLOCK
 62
     0
100
AcDbText
 10
272.742215566572
 20
72.54512687281603
 30
0.0
 40
2.500000003799998
  1
 
 41
1.189062499999995
  7
UGMTXT
100
AcDbText
  0
ENDBLK
  5
72A0
330
7299
100
AcDbEntity
  8
0
100
AcDbBlockEnd
  0
BLOCK
  5
72AB
330
72A1
100
AcDbEntity
  8
0
100
AcDbBlockBegin
  2
*D58
 70
     1
 10
0.0
 20
0.0
 30
0.0
  3
*D58
  1

  0
LINE
  5
72A2
330
72A1
100
AcDbEntity
  8
30
  6
CONTINUOUS
 62
     0
100
AcDbLine
 10
271.9995444518525
 20
-58.99970288688223
 30
0.0
 11
271.9995444518525
 21
-34.40031878568621
 31
0.0
  0
LINE
  5
72A3
330
72A1
100
AcDbEntity
  8
30
  6
CONTINUOUS
 62
     0
100
AcDbLine
 10
286.9994701776981
 20
-63.49968060463591
 30
0.0
 11
286.9994701776981
 21
-34.40031878568621
 31
0.0
  0
LINE
  5
72A4
330
72A1
100
AcDbEntity
  8
30
  6
CONTINUOUS
 62
     0
100
AcDbLine
 10
273.9995444518525
 20
-34.90031878568621
 30
0.0
 11
284.9994701776981
 21
-34.90031878568621
 31
0.0
  0
INSERT
  5
72A5
330
72A1
100
AcDbEntity
  8
30
  6
CONTINUOUS
 62
     0
100
AcDbBlockReference
  2
_OPEN
 10
271.9995444518525
 20
-34.90031878568621
 30
0.0
 41
2.0
 42
2.0
 43
2.0
 50
180.0
  0
INSERT
  5
72A6
330
72A1
100
AcDbEntity
  8
30
  6
CONTINUOUS
 62
     0
100
AcDbBlockReference
  2
_OPEN
 10
286.9994701776981
 20
-34.90031878568621
 30
0.0
 41
2.0
 42
2.0
 43
2.0
  0
MTEXT
  5
72A7
330
72A1
100
AcDbEntity
  8
30
  6
CONTINUOUS
 62
     0
100
AcDbMText
 10
279.4995073147753
 20
-31.90031878568621
 30
0.0
 40
4.0
 41
0.0
 71
     5
 72
     1
  1
\A1;15
1001
ACAD
1000
MTEXTBEGIN
1070
    73
1070
     1
1070
    44
1040
1.0
1070
    74
1070
     0
1000
MTEXTEND
1000
MTEXTBEGIN
1070
    73
1070
     1
1070
    44
1040
1.0
1070
    74
1070
     0
1000
MTEXTEND
  0
POINT
  5
72A8
330
72A1
100
AcDbEntity
  8
DEFPOINTS
  6
CONTINUOUS
 62
     0
100
AcDbPoint
 10
271.9995444518525
 20
-59.99970288688222
 30
0.0
  0
POINT
  5
72A9
330
72A1
100
AcDbEntity
  8
DEFPOINTS
  6
CONTINUOUS
 62
     0
100
AcDbPoint
 10
286.9994701776981
 20
-64.49968060463591
 30
0.0
  0
POINT
  5
72AA
330
72A1
100
AcDbEntity
  8
DEFPOINTS
  6
CONTINUOUS
 62
     0
100
AcDbPoint
 10
286.9994701776981
 20
-34.90031878568621
 30
0.0
  0
ENDBLK
  5
72AC
330
72A1
100
AcDbEntity
  8
0
100
AcDbBlockEnd
  0
BLOCK
  5
72B7
330
72AD
100
AcDbEntity
  8
0
100
AcDbBlockBegin
  2
*D59
 70
     1
 10
0.0
 20
0.0
 30
0.0
  3
*D59
  1

  0
LINE
  5
72AE
330
72AD
100
AcDbEntity
  8
30
  6
CONTINUOUS
 62
     0
100
AcDbLine
 10
336.9992225971831
 20
-70.49965587958424
 30
0.0
 11
336.9992225971831
 21
-122.8998855197852
 31
0.0
  0
LINE
  5
72AF
330
72AD
100
AcDbEntity
  8
30
  6
CONTINUOUS
 62
     0
100
AcDbLine
 10
351.9991483230286
 20
-77.28671009944187
 30
0.0
 11
351.9991483230286
 21
-122.8998855197852
 31
0.0
  0
LINE
  5
72B0
330
72AD
100
AcDbEntity
  8
30
  6
CONTINUOUS
 62
     0
100
AcDbLine
 10
338.9992225971831
 20
-122.3998855197852
 30
0.0
 11
349.9991483230286
 21
-122.3998855197852
 31
0.0
  0
INSERT
  5
72B1
330
72AD
100
AcDbEntity
  8
30
  6
CONTINUOUS
 62
     0
100
AcDbBlockReference
  2
_OPEN
 10
336.9992225971831
 20
-122.3998855197852
 30
0.0
 41
2.0
 42
2.0
 43
2.0
 50
180.0
  0
INSERT
  5
72B2
330
72AD
100
AcDbEntity
  8
30
  6
CONTINUOUS
 62
     0
100
AcDbBlockReference
  2
_OPEN
 10
351.9991483230286
 20
-122.3998855197852
 30
0.0
 41
2.0
 42
2.0
 43
2.0
  0
MTEXT
  5
72B3
330
72AD
100
AcDbEntity
  8
30
  6
CONTINUOUS
 62
     0
100
AcDbMText
 10
344.4991854601058
 20
-119.3998855197851
 30
0.0
 40
4.0
 41
0.0
 71
     5
 72
     1
  1
\A1;15
1001
ACAD
1000
MTEXTBEGIN
1070
    73
1070
     1
1070
    44
1040
1.0
1070
    74
1070
     0
1000
MTEXTEND
1000
MTEXTBEGIN
1070
    73
1070
     1
1070
    44
1040
1.0
1070
    74
1070
     0
1000
MTEXTEND
  0
POINT
  5
72B4
330
72AD
100
AcDbEntity
  8
DEFPOINTS
  6
CONTINUOUS
 62
     0
100
AcDbPoint
 10
336.9992225971831
 20
-69.49965587958423
 30
0.0
  0
POINT
  5
72B5
330
72AD
100
AcDbEntity
  8
DEFPOINTS
  6
CONTINUOUS
 62
     0
100
AcDbPoint
 10
351.9991483230286
 20
-76.28671009944188
 30
0.0
  0
POINT
  5
72B6
330
72AD
100
AcDbEntity
  8
DEFPOINTS
  6
CONTINUOUS
 62
     0
100
AcDbPoint
 10
351.9991483230286
 20
-122.3998855197852
 30
0.0
  0
ENDBLK
  5
72B8
330
72AD
100
AcDbEntity
  8
0
100
AcDbBlockEnd
  0
BLOCK
  5
72C3
330
72B9
100
AcDbEntity
  8
0
100
AcDbBlockBegin
  2
*D60
 70
     1
 10
0.0
 20
0.0
 30
0.0
  3
*D60
  1

  0
LINE
  5
72BA
330
72B9
100
AcDbEntity
  8
30
  6
CONTINUOUS
 62
     0
100
AcDbLine
 10
286.9994701776981
 20
-70.49965587958424
 30
0.0
 11
286.9994701776981
 21
-122.8998855197852
 31
0.0
  0
LINE
  5
72BB
330
72B9
100
AcDbEntity
  8
30
  6
CONTINUOUS
 62
     0
100
AcDbLine
 10
301.9993959035433
 20
-77.28671009944187
 30
0.0
 11
301.9993959035433
 21
-122.8998855197852
 31
0.0
  0
LINE
  5
72BC
330
72B9
100
AcDbEntity
  8
30
  6
CONTINUOUS
 62
     0
100
AcDbLine
 10
288.9994701776982
 20
-122.3998855197852
 30
0.0
 11
299.9993959035433
 21
-122.3998855197852
 31
0.0
  0
INSERT
  5
72BD
330
72B9
100
AcDbEntity
  8
30
  6
CONTINUOUS
 62
     0
100
AcDbBlockReference
  2
_OPEN
 10
286.9994701776981
 20
-122.3998855197852
 30
0.0
 41
2.0
 42
2.0
 43
2.0
 50
180.0
  0
INSERT
  5
72BE
330
72B9
100
AcDbEntity
  8
30
  6
CONTINUOUS
 62
     0
100
AcDbBlockReference
  2
_OPEN
 10
301.9993959035433
 20
-122.3998855197852
 30
0.0
 41
2.0
 42
2.0
 43
2.0
  0
MTEXT
  5
72BF
330
72B9
100
AcDbEntity
  8
30
  6
CONTINUOUS
 62
     0
100
AcDbMText
 10
294.4994330406208
 20
-119.3998855197851
 30
0.0
 40
4.0
 41
0.0
 71
     5
 72
     1
  1
\A1;15
1001
ACAD
1000
MTEXTBEGIN
1070
    73
1070
     1
1070
    44
1040
1.0
1070
    74
1070
     0
1000
MTEXTEND
1000
MTEXTBEGIN
1070
    73
1070
     1
1070
    44
1040
1.0
1070
    74
1070
     0
1000
MTEXTEND
  0
POINT
  5
72C0
330
72B9
100
AcDbEntity
  8
DEFPOINTS
  6
CONTINUOUS
 62
     0
100
AcDbPoint
 10
286.9994701776981
 20
-69.49965587958423
 30
0.0
  0
POINT
  5
72C1
330
72B9
100
AcDbEntity
  8
DEFPOINTS
  6
CONTINUOUS
 62
     0
100
AcDbPoint
 10
301.9993959035433
 20
-76.28671009944188
 30
0.0
  0
POINT
  5
72C2
330
72B9
100
AcDbEntity
  8
DEFPOINTS
  6
CONTINUOUS
 62
     0
100
AcDbPoint
 10
301.9993959035433
 20
-122.3998855197852
 30
0.0
  0
ENDBLK
  5
72C4
330
72B9
100
AcDbEntity
  8
0
100
AcDbBlockEnd
  0
BLOCK
  5
72CF
330
72C5
100
AcDbEntity
  8
0
100
AcDbBlockBegin
  2
*D61
 70
     1
 10
0.0
 20
0.0
 30
0.0
  3
*D61
  1

  0
LINE
  5
72C6
330
72C5
100
AcDbEntity
  8
30
  6
CONTINUOUS
 62
     0
100
AcDbLine
 10
350.8555653978195
 20
-74.99962862922766
 30
0.0
 11
376.585751547754
 21
-74.99962862922767
 31
0.0
  0
LINE
  5
72C7
330
72C5
100
AcDbEntity
  8
30
  6
CONTINUOUS
 62
     0
100
AcDbLine
 10
350.8555653978195
 20
-58.99970785499242
 30
0.0
 11
376.585751547754
 21
-58.99970785499243
 31
0.0
  0
LINE
  5
72C8
330
72C5
100
AcDbEntity
  8
30
  6
CONTINUOUS
 62
     0
100
AcDbLine
 10
376.0857515477538
 20
-72.99962862922767
 30
0.0
 11
376.0857515477538
 21
-60.99970785499243
 31
0.0
  0
INSERT
  5
72C9
330
72C5
100
AcDbEntity
  8
30
  6
CONTINUOUS
 62
     0
100
AcDbBlockReference
  2
_OPEN
 10
376.0857515477538
 20
-74.99962862922767
 30
0.0
 41
2.0
 42
2.0
 43
2.0
 50
270.0
  0
INSERT
  5
72CA
330
72C5
100
AcDbEntity
  8
30
  6
CONTINUOUS
 62
     0
100
AcDbBlockReference
  2
_OPEN
 10
376.0857515477538
 20
-58.99970785499243
 30
0.0
 41
2.0
 42
2.0
 43
2.0
 50
90.0
  0
MTEXT
  5
72CB
330
72C5
100
AcDbEntity
  8
30
  6
CONTINUOUS
 62
     0
100
AcDbMText
 10
373.085751547754
 20
-66.99966824210999
 30
0.0
 40
4.0
 41
0.0
 71
     5
 72
     1
  1
\A1;16
 11
0.0000000000000001
 21
1.0
 31
0.0
1001
ACAD
1000
MTEXTBEGIN
1070
    73
1070
     1
1070
    44
1040
1.0
1070
    74
1070
     0
1000
MTEXTEND
1000
MTEXTBEGIN
1070
    73
1070
     1
1070
    44
1040
1.0
1070
    74
1070
     0
1000
MTEXTEND
  0
POINT
  5
72CC
330
72C5
100
AcDbEntity
  8
DEFPOINTS
  6
CONTINUOUS
 62
     0
100
AcDbPoint
 10
349.8555653978196
 20
-74.99962862922766
 30
0.0
  0
POINT
  5
72CD
330
72C5
100
AcDbEntity
  8
DEFPOINTS
  6
CONTINUOUS
 62
     0
100
AcDbPoint
 10
349.8555653978196
 20
-58.99970785499242
 30
0.0
  0
POINT
  5
72CE
330
72C5
100
AcDbEntity
  8
DEFPOINTS
  6
CONTINUOUS
 62
     0
100
AcDbPoint
 10
376.0857515477538
 20
-58.99970785499243
 30
0.0
  0
ENDBLK
  5
72D0
330
72C5
100
AcDbEntity
  8
0
100
AcDbBlockEnd
  0
BLOCK
  5
72DD
330
72D1
100
AcDbEntity
  8
0
100
AcDbBlockBegin
  2
*D62
 70
     1
 10
0.0
 20
0.0
 30
0.0
  3
*D62
  1

  0
LINE
  5
72D2
330
72D1
100
AcDbEntity
  8
30
  6
CONTINUOUS
 62
     0
100
AcDbLine
 10
352.9991483230286
 20
64.49968062113573
 30
0.0
 11
374.2524182144206
 21
64.49968062113573
 31
0.0
  0
LINE
  5
72D3
330
72D1
100
AcDbEntity
  8
30
  6
CONTINUOUS
 62
     0
100
AcDbLine
 10
352.9991483230286
 20
69.49965586308421
 30
0.0
 11
374.2524182144206
 21
69.49965586308421
 31
0.0
  0
LINE
  5
72D4
330
72D1
100
AcDbEntity
  8
30
  6
CONTINUOUS
 62
     0
100
AcDbLine
 10
373.7524182144206
 20
62.49968062113573
 30
0.0
 11
373.7524182144206
 21
60.49968062113574
 31
0.0
  0
LINE
  5
72D5
330
72D1
100
AcDbEntity
  8
30
  6
CONTINUOUS
 62
     0
100
AcDbLine
 10
373.7524182144206
 20
71.49965586308423
 30
0.0
 11
373.7524182144206
 21
73.49965586308425
 31
0.0
  0
LINE
  5
72D6
330
72D1
100
AcDbEntity
  8
30
  6
CONTINUOUS
 62
     0
100
AcDbLine
 10
373.7524182144206
 20
73.49965586308425
 30
0.0
 11
377.4190848810873
 21
73.49965586308425
 31
0.0
  0
INSERT
  5
72D7
330
72D1
100
AcDbEntity
  8
30
  6
CONTINUOUS
 62
     0
100
AcDbBlockReference
  2
_OPEN
 10
373.7524182144206
 20
64.49968062113573
 30
0.0
 41
2.0
 42
2.0
 43
2.0
 50
90.0
  0
INSERT
  5
72D8
330
72D1
100
AcDbEntity
  8
30
  6
CONTINUOUS
 62
     0
100
AcDbBlockReference
  2
_OPEN
 10
373.7524182144206
 20
69.49965586308421
 30
0.0
 41
2.0
 42
2.0
 43
2.0
 50
270.0
  0
MTEXT
  5
72D9
330
72D1
100
AcDbEntity
  8
30
  6
CONTINUOUS
 62
     0
100
AcDbMText
 10
376.0857515477538
 20
76.4996558630843
 30
0.0
 40
4.0
 41
0.0
 71
     5
 72
     1
  1
\A1;5
1001
ACAD
1000
MTEXTBEGIN
1070
    73
1070
     1
1070
    44
1040
1.0
1070
    74
1070
     0
1000
MTEXTEND
1000
MTEXTBEGIN
1070
    73
1070
     1
1070
    44
1040
1.0
1070
    74
1070
     0
1000
MTEXTEND
  0
POINT
  5
72DA
330
72D1
100
AcDbEntity
  8
DEFPOINTS
  6
CONTINUOUS
 62
     0
100
AcDbPoint
 10
351.9991483230286
 20
64.49968062113575
 30
0.0
  0
POINT
  5
72DB
330
72D1
100
AcDbEntity
  8
DEFPOINTS
  6
CONTINUOUS
 62
     0
100
AcDbPoint
 10
351.9991483230286
 20
69.49965586308424
 30
0.0
  0
POINT
  5
72DC
330
72D1
100
AcDbEntity
  8
DEFPOINTS
  6
CONTINUOUS
 62
     0
100
AcDbPoint
 10
373.7524182144206
 20
69.49965586308421
 30
0.0
  0
ENDBLK
  5
72DE
330
72D1
100
AcDbEntity
  8
0
100
AcDbBlockEnd
  0
BLOCK
  5
72E9
330
72DF
100
AcDbEntity
  8
0
100
AcDbBlockBegin
  2
*D63
 70
     1
 10
0.0
 20
0.0
 30
0.0
  3
*D63
  1

  0
LINE
  5
72E0
330
72DF
100
AcDbEntity
  8
30
  6
CONTINUOUS
 62
     0
100
AcDbLine
 10
362.9990988069256
 20
66.99966824210996
 30
0.0
 11
388.2367141808032
 21
66.99966824210996
 31
0.0
  0
LINE
  5
72E1
330
72DF
100
AcDbEntity
  8
30
  6
CONTINUOUS
 62
     0
100
AcDbLine
 10
377.085751547754
 20
-66.99966824211003
 30
0.0
 11
388.2367141808032
 21
-66.99966824211003
 31
0.0
  0
LINE
  5
72E2
330
72DF
100
AcDbEntity
  8
30
  6
CONTINUOUS
 62
     0
100
AcDbLine
 10
387.7367141808032
 20
64.99966824210996
 30
0.0
 11
387.7367141808032
 21
-64.99966824211004
 31
0.0
  0
INSERT
  5
72E3
330
72DF
100
AcDbEntity
  8
30
  6
CONTINUOUS
 62
     0
100
AcDbBlockReference
  2
_OPEN
 10
387.7367141808032
 20
66.99966824210996
 30
0.0
 41
2.0
 42
2.0
 43
2.0
 50
90.0
  0
INSERT
  5
72E4
330
72DF
100
AcDbEntity
  8
30
  6
CONTINUOUS
 62
     0
100
AcDbBlockReference
  2
_OPEN
 10
387.7367141808032
 20
-66.99966824211003
 30
0.0
 41
2.0
 42
2.0
 43
2.0
 50
270.0
  0
MTEXT
  5
72E5
330
72DF
100
AcDbEntity
  8
30
  6
CONTINUOUS
 62
     0
100
AcDbMText
 10
384.7367141808033
 20
0.0000000000000335
 30
0.0
 40
4.0
 41
0.0
 71
     5
 72
     1
  1
\A1;134
 11
0.0000000000000001
 21
1.0
 31
0.0
1001
ACAD
1000
MTEXTBEGIN
1070
    73
1070
     1
1070
    44
1040
1.0
1070
    74
1070
     0
1000
MTEXTEND
1000
MTEXTBEGIN
1070
    73
1070
     1
1070
    44
1040
1.0
1070
    74
1070
     0
1000
MTEXTEND
  0
POINT
  5
72E6
330
72DF
100
AcDbEntity
  8
DEFPOINTS
  6
CONTINUOUS
 62
     0
100
AcDbPoint
 10
361.9990988069256
 20
66.99966824210996
 30
0.0
  0
POINT
  5
72E7
330
72DF
100
AcDbEntity
  8
DEFPOINTS
  6
CONTINUOUS
 62
     0
100
AcDbPoint
 10
376.0857515477538
 20
-66.99966824211003
 30
0.0
  0
POINT
  5
72E8
330
72DF
100
AcDbEntity
  8
DEFPOINTS
  6
CONTINUOUS
 62
     0
100
AcDbPoint
 10
387.7367141808032
 20
-66.99966824211003
 30
0.0
  0
ENDBLK
  5
72EA
330
72DF
100
AcDbEntity
  8
0
100
AcDbBlockEnd
  0
BLOCK
  5
735E
330
7354
100
AcDbEntity
  8
0
100
AcDbBlockBegin
  2
*D64
 70
     1
 10
0.0
 20
0.0
 30
0.0
  3
*D64
  1

  0
LINE
  5
73E1
330
7354
100
AcDbEntity
  8
0
  6
CONTINUOUS
 62
     0
100
AcDbLine
 10
518.0227149135303
 20
-17.49876886895295
 30
0.0
 11
543.2603302874081
 21
-17.49876886895295
 31
0.0
  0
LINE
  5
73E2
330
7354
100
AcDbEntity
  8
0
  6
CONTINUOUS
 62
     0
100
AcDbLine
 10
532.1093676543587
 20
-151.4981053531729
 30
0.0
 11
543.2603302874081
 21
-151.4981053531729
 31
0.0
  0
LINE
  5
73E3
330
7354
100
AcDbEntity
  8
0
  6
CONTINUOUS
 62
     0
100
AcDbLine
 10
542.7603302874081
 20
-19.49876886895295
 30
0.0
 11
542.7603302874081
 21
-149.4981053531729
 31
0.0
  0
INSERT
  5
73E4
330
7354
100
AcDbEntity
  8
0
  6
CONTINUOUS
 62
     0
100
AcDbBlockReference
  2
_OPEN
 10
542.7603302874081
 20
-17.49876886895295
 30
0.0
 41
2.0
 42
2.0
 43
2.0
 50
90.0
  0
INSERT
  5
73E5
330
7354
100
AcDbEntity
  8
0
  6
CONTINUOUS
 62
     0
100
AcDbBlockReference
  2
_OPEN
 10
542.7603302874081
 20
-151.4981053531729
 30
0.0
 41
2.0
 42
2.0
 43
2.0
 50
270.0
  0
MTEXT
  5
73E6
330
7354
100
AcDbEntity
  8
0
  6
CONTINUOUS
 62
     0
100
AcDbMText
 10
539.7603302874081
 20
-84.49843711106286
 30
0.0
 40
4.0
 41
0.0
 71
     5
 72
     1
  1
\A1;134
 11
0.0000000000000001
 21
1.0
 31
0.0
1001
ACAD
1000
MTEXTBEGIN
1070
    73
1070
     1
1070
    44
1040
1.0
1070
    74
1070
     0
1000
MTEXTEND
1000
MTEXTBEGIN
1070
    73
1070
     1
1070
    44
1040
1.0
1070
    74
1070
     0
1000
MTEXTEND
  0
POINT
  5
73E7
330
7354
100
AcDbEntity
  8
DEFPOINTS
  6
CONTINUOUS
 62
     0
100
AcDbPoint
 10
517.0227149135302
 20
-17.49876886895295
 30
0.0
  0
POINT
  5
73E8
330
7354
100
AcDbEntity
  8
DEFPOINTS
  6
CONTINUOUS
 62
     0
100
AcDbPoint
 10
531.1093676543586
 20
-151.4981053531729
 30
0.0
  0
POINT
  5
73E9
330
7354
100
AcDbEntity
  8
DEFPOINTS
  6
CONTINUOUS
 62
     0
100
AcDbPoint
 10
542.7603302874081
 20
-151.4981053531729
 30
0.0
  0
ENDBLK
  5
735F
330
7354
100
AcDbEntity
  8
0
100
AcDbBlockEnd
  0
BLOCK
  5
736A
330
7360
100
AcDbEntity
  8
0
100
AcDbBlockBegin
  2
*D65
 70
     1
 10
0.0
 20
0.0
 30
0.0
  3
*D65
  1

  0
LINE
  5
73F3
330
7360
100
AcDbEntity
  8
0
  6
CONTINUOUS
 62
     0
100
AcDbLine
 10
427.023160558457
 20
-143.498139997945
 30
0.0
 11
427.023160558457
 21
-118.8987558967489
 31
0.0
  0
LINE
  5
73F4
330
7360
100
AcDbEntity
  8
0
  6
CONTINUOUS
 62
     0
100
AcDbLine
 10
442.0230862843029
 20
-147.9981177156988
 30
0.0
 11
442.0230862843029
 21
-118.8987558967489
 31
0.0
  0
LINE
  5
73F5
330
7360
100
AcDbEntity
  8
0
  6
CONTINUOUS
 62
     0
100
AcDbLine
 10
429.0231605584573
 20
-119.3987558967489
 30
0.0
 11
440.0230862843029
 21
-119.3987558967489
 31
0.0
  0
INSERT
  5
73F6
330
7360
100
AcDbEntity
  8
0
  6
CONTINUOUS
 62
     0
100
AcDbBlockReference
  2
_OPEN
 10
427.023160558457
 20
-119.3987558967489
 30
0.0
 41
2.0
 42
2.0
 43
2.0
 50
180.0
  0
INSERT
  5
73F7
330
7360
100
AcDbEntity
  8
0
  6
CONTINUOUS
 62
     0
100
AcDbBlockReference
  2
_OPEN
 10
442.0230862843029
 20
-119.3987558967489
 30
0.0
 41
2.0
 42
2.0
 43
2.0
  0
MTEXT
  5
73F8
330
7360
100
AcDbEntity
  8
0
  6
CONTINUOUS
 62
     0
100
AcDbMText
 10
434.5231234213801
 20
-116.3987558967491
 30
0.0
 40
4.0
 41
0.0
 71
     5
 72
     1
  1
\A1;15
1001
ACAD
1000
MTEXTBEGIN
1070
    73
1070
     1
1070
    44
1040
1.0
1070
    74
1070
     0
1000
MTEXTEND
1000
MTEXTBEGIN
1070
    73
1070
     1
1070
    44
1040
1.0
1070
    74
1070
     0
1000
MTEXTEND
  0
POINT
  5
73F9
330
7360
100
AcDbEntity
  8
DEFPOINTS
  6
CONTINUOUS
 62
     0
100
AcDbPoint
 10
427.023160558457
 20
-144.498139997945
 30
0.0
  0
POINT
  5
73FA
330
7360
100
AcDbEntity
  8
DEFPOINTS
  6
CONTINUOUS
 62
     0
100
AcDbPoint
 10
442.0230862843029
 20
-148.9981177156988
 30
0.0
  0
POINT
  5
73FB
330
7360
100
AcDbEntity
  8
DEFPOINTS
  6
CONTINUOUS
 62
     0
100
AcDbPoint
 10
442.0230862843029
 20
-119.3987558967489
 30
0.0
  0
ENDBLK
  5
736B
330
7360
100
AcDbEntity
  8
0
100
AcDbBlockEnd
  0
BLOCK
  5
7376
330
736C
100
AcDbEntity
  8
0
100
AcDbBlockBegin
  2
*D66
 70
     1
 10
0.0
 20
0.0
 30
0.0
  3
*D66
  1

  0
LINE
  5
73EA
330
736C
100
AcDbEntity
  8
0
  6
CONTINUOUS
 62
     0
100
AcDbLine
 10
442.0230862843029
 20
-154.9980929906469
 30
0.0
 11
442.0230862843029
 21
-207.398322630848
 31
0.0
  0
LINE
  5
73EB
330
736C
100
AcDbEntity
  8
0
  6
CONTINUOUS
 62
     0
100
AcDbLine
 10
457.0230120101481
 20
-161.7851472105045
 30
0.0
 11
457.0230120101481
 21
-207.398322630848
 31
0.0
  0
LINE
  5
73EC
330
736C
100
AcDbEntity
  8
0
  6
CONTINUOUS
 62
     0
100
AcDbLine
 10
444.0230862843029
 20
-206.898322630848
 30
0.0
 11
455.0230120101481
 21
-206.898322630848
 31
0.0
  0
INSERT
  5
73ED
330
736C
100
AcDbEntity
  8
0
  6
CONTINUOUS
 62
     0
100
AcDbBlockReference
  2
_OPEN
 10
442.0230862843029
 20
-206.898322630848
 30
0.0
 41
2.0
 42
2.0
 43
2.0
 50
180.0
  0
INSERT
  5
73EE
330
736C
100
AcDbEntity
  8
0
  6
CONTINUOUS
 62
     0
100
AcDbBlockReference
  2
_OPEN
 10
457.0230120101481
 20
-206.898322630848
 30
0.0
 41
2.0
 42
2.0
 43
2.0
  0
MTEXT
  5
73EF
330
736C
100
AcDbEntity
  8
0
  6
CONTINUOUS
 62
     0
100
AcDbMText
 10
449.5230491472255
 20
-203.898322630848
 30
0.0
 40
4.0
 41
0.0
 71
     5
 72
     1
  1
\A1;15
1001
ACAD
1000
MTEXTBEGIN
1070
    73
1070
     1
1070
    44
1040
1.0
1070
    74
1070
     0
1000
MTEXTEND
1000
MTEXTBEGIN
1070
    73
1070
     1
1070
    44
1040
1.0
1070
    74
1070
     0
1000
MTEXTEND
  0
POINT
  5
73F0
330
736C
100
AcDbEntity
  8
DEFPOINTS
  6
CONTINUOUS
 62
     0
100
AcDbPoint
 10
442.0230862843029
 20
-153.9980929906469
 30
0.0
  0
POINT
  5
73F1
330
736C
100
AcDbEntity
  8
DEFPOINTS
  6
CONTINUOUS
 62
     0
100
AcDbPoint
 10
457.0230120101481
 20
-160.7851472105045
 30
0.0
  0
POINT
  5
73F2
330
736C
100
AcDbEntity
  8
DEFPOINTS
  6
CONTINUOUS
 62
     0
100
AcDbPoint
 10
457.0230120101481
 20
-206.898322630848
 30
0.0
  0
ENDBLK
  5
7377
330
736C
100
AcDbEntity
  8
0
100
AcDbBlockEnd
  0
BLOCK
  5
7382
330
7378
100
AcDbEntity
  8
0
100
AcDbBlockBegin
  2
*D67
 70
     1
 10
0.0
 20
0.0
 30
0.0
  3
*D67
  1

  0
LINE
  5
7405
330
7378
100
AcDbEntity
  8
0
  6
CONTINUOUS
 62
     0
100
AcDbLine
 10
492.0228387037878
 20
-154.9980929906469
 30
0.0
 11
492.0228387037878
 21
-207.398322630848
 31
0.0
  0
LINE
  5
7406
330
7378
100
AcDbEntity
  8
0
  6
CONTINUOUS
 62
     0
100
AcDbLine
 10
507.0227644296334
 20
-161.7851472105045
 30
0.0
 11
507.0227644296334
 21
-207.398322630848
 31
0.0
  0
LINE
  5
7407
330
7378
100
AcDbEntity
  8
0
  6
CONTINUOUS
 62
     0
100
AcDbLine
 10
494.0228387037878
 20
-206.898322630848
 30
0.0
 11
505.0227644296334
 21
-206.898322630848
 31
0.0
  0
INSERT
  5
7408
330
7378
100
AcDbEntity
  8
0
  6
CONTINUOUS
 62
     0
100
AcDbBlockReference
  2
_OPEN
 10
492.0228387037878
 20
-206.898322630848
 30
0.0
 41
2.0
 42
2.0
 43
2.0
 50
180.0
  0
INSERT
  5
7409
330
7378
100
AcDbEntity
  8
0
  6
CONTINUOUS
 62
     0
100
AcDbBlockReference
  2
_OPEN
 10
507.0227644296334
 20
-206.898322630848
 30
0.0
 41
2.0
 42
2.0
 43
2.0
  0
MTEXT
  5
740A
330
7378
100
AcDbEntity
  8
0
  6
CONTINUOUS
 62
     0
100
AcDbMText
 10
499.5228015667106
 20
-203.898322630848
 30
0.0
 40
4.0
 41
0.0
 71
     5
 72
     1
  1
\A1;15
1001
ACAD
1000
MTEXTBEGIN
1070
    73
1070
     1
1070
    44
1040
1.0
1070
    74
1070
     0
1000
MTEXTEND
1000
MTEXTBEGIN
1070
    73
1070
     1
1070
    44
1040
1.0
1070
    74
1070
     0
1000
MTEXTEND
  0
POINT
  5
740B
330
7378
100
AcDbEntity
  8
DEFPOINTS
  6
CONTINUOUS
 62
     0
100
AcDbPoint
 10
492.0228387037878
 20
-153.9980929906469
 30
0.0
  0
POINT
  5
740C
330
7378
100
AcDbEntity
  8
DEFPOINTS
  6
CONTINUOUS
 62
     0
100
AcDbPoint
 10
507.0227644296334
 20
-160.7851472105045
 30
0.0
  0
POINT
  5
740D
330
7378
100
AcDbEntity
  8
DEFPOINTS
  6
CONTINUOUS
 62
     0
100
AcDbPoint
 10
507.0227644296334
 20
-206.898322630848
 30
0.0
  0
ENDBLK
  5
7383
330
7378
100
AcDbEntity
  8
0
100
AcDbBlockEnd
  0
BLOCK
  5
738E
330
7384
100
AcDbEntity
  8
0
100
AcDbBlockBegin
  2
*D68
 70
     1
 10
0.0
 20
0.0
 30
0.0
  3
*D68
  1

  0
LINE
  5
73FC
330
7384
100
AcDbEntity
  8
0
  6
CONTINUOUS
 62
     0
100
AcDbLine
 10
505.8791815044243
 20
-159.4980657402905
 30
0.0
 11
531.6093676543585
 21
-159.4980657402905
 31
0.0
  0
LINE
  5
73FD
330
7384
100
AcDbEntity
  8
0
  6
CONTINUOUS
 62
     0
100
AcDbLine
 10
505.8791815044243
 20
-143.4981449660553
 30
0.0
 11
531.6093676543585
 21
-143.4981449660553
 31
0.0
  0
LINE
  5
73FE
330
7384
100
AcDbEntity
  8
0
  6
CONTINUOUS
 62
     0
100
AcDbLine
 10
531.1093676543586
 20
-157.4980657402905
 30
0.0
 11
531.1093676543586
 21
-145.4981449660553
 31
0.0
  0
INSERT
  5
73FF
330
7384
100
AcDbEntity
  8
0
  6
CONTINUOUS
 62
     0
100
AcDbBlockReference
  2
_OPEN
 10
531.1093676543586
 20
-159.4980657402905
 30
0.0
 41
2.0
 42
2.0
 43
2.0
 50
270.0
  0
INSERT
  5
7400
330
7384
100
AcDbEntity
  8
0
  6
CONTINUOUS
 62
     0
100
AcDbBlockReference
  2
_OPEN
 10
531.1093676543586
 20
-143.4981449660553
 30
0.0
 41
2.0
 42
2.0
 43
2.0
 50
90.0
  0
MTEXT
  5
7401
330
7384
100
AcDbEntity
  8
0
  6
CONTINUOUS
 62
     0
100
AcDbMText
 10
528.1093676543587
 20
-151.4981053531728
 30
0.0
 40
4.0
 41
0.0
 71
     5
 72
     1
  1
\A1;16
 11
0.0000000000000001
 21
1.0
 31
0.0
1001
ACAD
1000
MTEXTBEGIN
1070
    73
1070
     1
1070
    44
1040
1.0
1070
    74
1070
     0
1000
MTEXTEND
1000
MTEXTBEGIN
1070
    73
1070
     1
1070
    44
1040
1.0
1070
    74
1070
     0
1000
MTEXTEND
  0
POINT
  5
7402
330
7384
100
AcDbEntity
  8
DEFPOINTS
  6
CONTINUOUS
 62
     0
100
AcDbPoint
 10
504.8791815044244
 20
-159.4980657402905
 30
0.0
  0
POINT
  5
7403
330
7384
100
AcDbEntity
  8
DEFPOINTS
  6
CONTINUOUS
 62
     0
100
AcDbPoint
 10
504.8791815044244
 20
-143.4981449660553
 30
0.0
  0
POINT
  5
7404
330
7384
100
AcDbEntity
  8
DEFPOINTS
  6
CONTINUOUS
 62
     0
100
AcDbPoint
 10
531.1093676543586
 20
-143.4981449660553
 30
0.0
  0
ENDBLK
  5
738F
330
7384
100
AcDbEntity
  8
0
100
AcDbBlockEnd
  0
BLOCK
  5
739C
330
7390
100
AcDbEntity
  8
0
100
AcDbBlockBegin
  2
*D69
 70
     1
 10
0.0
 20
0.0
 30
0.0
  3
*D69
  1

  0
LINE
  5
73D6
330
7390
100
AcDbEntity
  8
0
  6
CONTINUOUS
 62
     0
100
AcDbLine
 10
508.0227644296334
 20
-19.99875648992716
 30
0.0
 11
529.2760343210253
 21
-19.99875648992716
 31
0.0
  0
LINE
  5
73D7
330
7390
100
AcDbEntity
  8
0
  6
CONTINUOUS
 62
     0
100
AcDbLine
 10
508.0227644296334
 20
-14.99878124797866
 30
0.0
 11
529.2760343210253
 21
-14.99878124797866
 31
0.0
  0
LINE
  5
73D8
330
7390
100
AcDbEntity
  8
0
  6
CONTINUOUS
 62
     0
100
AcDbLine
 10
528.7760343210253
 20
-21.99875648992715
 30
0.0
 11
528.7760343210253
 21
-23.99875648992714
 31
0.0
  0
LINE
  5
73D9
330
7390
100
AcDbEntity
  8
0
  6
CONTINUOUS
 62
     0
100
AcDbLine
 10
528.7760343210253
 20
-12.99878124797867
 30
0.0
 11
528.7760343210253
 21
-10.99878124797867
 31
0.0
  0
LINE
  5
73DA
330
7390
100
AcDbEntity
  8
0
  6
CONTINUOUS
 62
     0
100
AcDbLine
 10
528.7760343210253
 20
-10.99878124797867
 30
0.0
 11
532.4427009876917
 21
-10.99878124797867
 31
0.0
  0
INSERT
  5
73DB
330
7390
100
AcDbEntity
  8
0
  6
CONTINUOUS
 62
     0
100
AcDbBlockReference
  2
_OPEN
 10
528.7760343210253
 20
-19.99875648992716
 30
0.0
 41
2.0
 42
2.0
 43
2.0
 50
90.0
  0
INSERT
  5
73DC
330
7390
100
AcDbEntity
  8
0
  6
CONTINUOUS
 62
     0
100
AcDbBlockReference
  2
_OPEN
 10
528.7760343210253
 20
-14.99878124797866
 30
0.0
 41
2.0
 42
2.0
 43
2.0
 50
270.0
  0
MTEXT
  5
73DD
330
7390
100
AcDbEntity
  8
0
  6
CONTINUOUS
 62
     0
100
AcDbMText
 10
531.1093676543586
 20
-7.998781247978589
 30
0.0
 40
4.0
 41
0.0
 71
     5
 72
     1
  1
\A1;5
1001
ACAD
1000
MTEXTBEGIN
1070
    73
1070
     1
1070
    44
1040
1.0
1070
    74
1070
     0
1000
MTEXTEND
1000
MTEXTBEGIN
1070
    73
1070
     1
1070
    44
1040
1.0
1070
    74
1070
     0
1000
MTEXTEND
  0
POINT
  5
73DE
330
7390
100
AcDbEntity
  8
DEFPOINTS
  6
CONTINUOUS
 62
     0
100
AcDbPoint
 10
507.0227644296334
 20
-19.99875648992716
 30
0.0
  0
POINT
  5
73DF
330
7390
100
AcDbEntity
  8
DEFPOINTS
  6
CONTINUOUS
 62
     0
100
AcDbPoint
 10
507.0227644296334
 20
-14.99878124797866
 30
0.0
  0
POINT
  5
73E0
330
7390
100
AcDbEntity
  8
DEFPOINTS
  6
CONTINUOUS
 62
     0
100
AcDbPoint
 10
528.7760343210253
 20
-14.99878124797866
 30
0.0
  0
ENDBLK
  5
739D
330
7390
100
AcDbEntity
  8
0
100
AcDbBlockEnd
  0
BLOCK
  5
7598
330
758E
100
AcDbEntity
  8
0
100
AcDbBlockBegin
  2
*D70
 70
     1
 10
0.0
 20
0.0
 30
0.0
  3
*D70
  1

  0
LINE
  5
758F
330
758E
100
AcDbEntity
  8
0
 62
     0
100
AcDbLine
 10
526.465367142065
 20
411.0641288562701
 30
0.0
 11
526.465367142065
 21
332.9898179184267
 31
0.0
  0
LINE
  5
7590
330
758E
100
AcDbEntity
  8
0
 62
     0
100
AcDbLine
 10
629.465367142065
 20
411.0641288562701
 30
0.0
 11
629.465367142065
 21
332.9898179184267
 31
0.0
  0
LINE
  5
7591
330
758E
100
AcDbEntity
  8
0
 62
     0
100
AcDbLine
 10
530.465367142065
 20
333.9898179184267
 30
0.0
 11
625.4653671420649
 21
333.9898179184267
 31
0.0
  0
INSERT
  5
7592
330
758E
100
AcDbEntity
  8
0
 62
     0
100
AcDbBlockReference
  2
_OPEN
 10
526.465367142065
 20
333.9898179184267
 30
0.0
 41
4.0
 42
4.0
 43
4.0
 50
180.0
  0
INSERT
  5
7593
330
758E
100
AcDbEntity
  8
0
 62
     0
100
AcDbBlockReference
  2
_OPEN
 10
629.465367142065
 20
333.9898179184267
 30
0.0
 41
4.0
 42
4.0
 43
4.0
  0
MTEXT
  5
7594
330
758E
100
AcDbEntity
  8
0
 62
     0
100
AcDbMText
 10
577.965367142065
 20
337.9898179184266
 30
0.0
 40
5.0
 41
0.0
 71
     5
 72
     1
  1
\A1;103
1001
ACAD
1000
MTEXTBEGIN
1070
    73
1070
     1
1070
    44
1040
1.0
1070
    74
1070
     0
1000
MTEXTEND
1000
MTEXTBEGIN
1070
    73
1070
     1
1070
    44
1040
1.0
1070
    74
1070
     0
1000
MTEXTEND
  0
POINT
  5
7595
330
758E
100
AcDbEntity
  8
DEFPOINTS
 62
     0
100
AcDbPoint
 10
526.465367142065
 20
412.0641288562701
 30
0.0
  0
POINT
  5
7596
330
758E
100
AcDbEntity
  8
DEFPOINTS
 62
     0
100
AcDbPoint
 10
629.465367142065
 20
412.0641288562701
 30
0.0
  0
POINT
  5
7597
330
758E
100
AcDbEntity
  8
DEFPOINTS
 62
     0
100
AcDbPoint
 10
629.465367142065
 20
333.9898179184267
 30
0.0
  0
ENDBLK
  5
7599
330
758E
100
AcDbEntity
  8
0
100
AcDbBlockEnd
  0
BLOCK
  5
75A4
330
759A
100
AcDbEntity
  8
0
100
AcDbBlockBegin
  2
*D71
 70
     1
 10
0.0
 20
0.0
 30
0.0
  3
*D71
  1

  0
LINE
  5
759B
330
759A
100
AcDbEntity
  8
0
 62
     0
100
AcDbLine
 10
531.4653001420651
 20
383.3943618562702
 30
0.0
 11
531.4653001420651
 21
350.9539926017279
 31
0.0
  0
LINE
  5
759C
330
759A
100
AcDbEntity
  8
0
 62
     0
100
AcDbLine
 10
624.4654351420647
 20
382.3943638562702
 30
0.0
 11
624.4654351420647
 21
350.9539926017279
 31
0.0
  0
LINE
  5
759D
330
759A
100
AcDbEntity
  8
0
 62
     0
100
AcDbLine
 10
535.4653001420651
 20
351.9539926017279
 30
0.0
 11
620.4654351420647
 21
351.9539926017279
 31
0.0
  0
INSERT
  5
759E
330
759A
100
AcDbEntity
  8
0
 62
     0
100
AcDbBlockReference
  2
_OPEN
 10
531.4653001420651
 20
351.9539926017279
 30
0.0
 41
4.0
 42
4.0
 43
4.0
 50
180.0
  0
INSERT
  5
759F
330
759A
100
AcDbEntity
  8
0
 62
     0
100
AcDbBlockReference
  2
_OPEN
 10
624.4654351420647
 20
351.9539926017279
 30
0.0
 41
4.0
 42
4.0
 43
4.0
  0
MTEXT
  5
75A0
330
759A
100
AcDbEntity
  8
0
 62
     0
100
AcDbMText
 10
577.9653676420647
 20
355.9539926017279
 30
0.0
 40
5.0
 41
0.0
 71
     5
 72
     1
  1
\A1;93
1001
ACAD
1000
MTEXTBEGIN
1070
    73
1070
     1
1070
    44
1040
1.0
1070
    74
1070
     0
1000
MTEXTEND
1000
MTEXTBEGIN
1070
    73
1070
     1
1070
    44
1040
1.0
1070
    74
1070
     0
1000
MTEXTEND
  0
POINT
  5
75A1
330
759A
100
AcDbEntity
  8
DEFPOINTS
 62
     0
100
AcDbPoint
 10
531.4653001420651
 20
384.3943618562702
 30
0.0
  0
POINT
  5
75A2
330
759A
100
AcDbEntity
  8
DEFPOINTS
 62
     0
100
AcDbPoint
 10
624.4654351420647
 20
383.3943638562702
 30
0.0
  0
POINT
  5
75A3
330
759A
100
AcDbEntity
  8
DEFPOINTS
 62
     0
100
AcDbPoint
 10
624.4654351420647
 20
351.9539926017279
 30
0.0
  0
ENDBLK
  5
75A5
330
759A
100
AcDbEntity
  8
0
100
AcDbBlockEnd
  0
BLOCK
  5
75B0
330
75A6
100
AcDbEntity
  8
0
100
AcDbBlockBegin
  2
*D72
 70
     1
 10
0.0
 20
0.0
 30
0.0
  3
*D72
  1

  0
LINE
  5
75A7
330
75A6
100
AcDbEntity
  8
0
 62
     0
100
AcDbLine
 10
625.4654351420647
 20
524.3946118562702
 30
0.0
 11
681.6255175437341
 21
524.3946118562702
 31
0.0
  0
LINE
  5
75A8
330
75A6
100
AcDbEntity
  8
0
 62
     0
100
AcDbLine
 10
626.465435142065
 20
384.3943618562702
 30
0.0
 11
681.6255175437341
 21
384.3943618562701
 31
0.0
  0
LINE
  5
75A9
330
75A6
100
AcDbEntity
  8
0
 62
     0
100
AcDbLine
 10
680.6255175437343
 20
520.3946118562702
 30
0.0
 11
680.6255175437343
 21
388.3943618562701
 31
0.0
  0
INSERT
  5
75AA
330
75A6
100
AcDbEntity
  8
0
 62
     0
100
AcDbBlockReference
  2
_OPEN
 10
680.6255175437343
 20
524.3946118562702
 30
0.0
 41
4.0
 42
4.0
 43
4.0
 50
90.0
  0
INSERT
  5
75AB
330
75A6
100
AcDbEntity
  8
0
 62
     0
100
AcDbBlockReference
  2
_OPEN
 10
680.6255175437343
 20
384.3943618562701
 30
0.0
 41
4.0
 42
4.0
 43
4.0
 50
270.0
  0
MTEXT
  5
75AC
330
75A6
100
AcDbEntity
  8
0
 62
     0
100
AcDbMText
 10
676.6255175437341
 20
454.3944868562702
 30
0.0
 40
5.0
 41
0.0
 71
     5
 72
     1
  1
\A1;140
 11
0.0000000000000001
 21
1.0
 31
0.0
1001
ACAD
1000
MTEXTBEGIN
1070
    73
1070
     1
1070
    44
1040
1.0
1070
    74
1070
     0
1000
MTEXTEND
1000
MTEXTBEGIN
1070
    73
1070
     1
1070
    44
1040
1.0
1070
    74
1070
     0
1000
MTEXTEND
  0
POINT
  5
75AD
330
75A6
100
AcDbEntity
  8
DEFPOINTS
 62
     0
100
AcDbPoint
 10
624.4654351420647
 20
524.3946118562702
 30
0.0
  0
POINT
  5
75AE
330
75A6
100
AcDbEntity
  8
DEFPOINTS
 62
     0
100
AcDbPoint
 10
625.4654351420651
 20
384.3943618562702
 30
0.0
  0
POINT
  5
75AF
330
75A6
100
AcDbEntity
  8
DEFPOINTS
 62
     0
100
AcDbPoint
 10
680.6255175437343
 20
384.3943618562701
 30
0.0
  0
ENDBLK
  5
75B1
330
75A6
100
AcDbEntity
  8
0
100
AcDbBlockEnd
  0
BLOCK
  5
75BC
330
75B2
100
AcDbEntity
  8
0
100
AcDbBlockBegin
  2
*D73
 70
     1
 10
0.0
 20
0.0
 30
0.0
  3
*D73
  1

  0
LINE
  5
75B3
330
75B2
100
AcDbEntity
  8
0
 62
     0
100
AcDbLine
 10
637.9653671420649
 20
487.3944868562703
 30
0.0
 11
663.0680215984083
 21
487.3944868562701
 31
0.0
  0
LINE
  5
75B4
330
75B2
100
AcDbEntity
  8
0
 62
     0
100
AcDbLine
 10
637.9653671420649
 20
421.3944868562703
 30
0.0
 11
663.0680215984083
 21
421.3944868562702
 31
0.0
  0
LINE
  5
75B5
330
75B2
100
AcDbEntity
  8
0
 62
     0
100
AcDbLine
 10
662.0680215984083
 20
483.3944868562702
 30
0.0
 11
662.0680215984083
 21
425.3944868562702
 31
0.0
  0
INSERT
  5
75B6
330
75B2
100
AcDbEntity
  8
0
 62
     0
100
AcDbBlockReference
  2
_OPEN
 10
662.0680215984083
 20
487.3944868562701
 30
0.0
 41
4.0
 42
4.0
 43
4.0
 50
90.0
  0
INSERT
  5
75B7
330
75B2
100
AcDbEntity
  8
0
 62
     0
100
AcDbBlockReference
  2
_OPEN
 10
662.0680215984083
 20
421.3944868562702
 30
0.0
 41
4.0
 42
4.0
 43
4.0
 50
270.0
  0
MTEXT
  5
75B8
330
75B2
100
AcDbEntity
  8
0
 62
     0
100
AcDbMText
 10
658.0680215984083
 20
454.3944868562703
 30
0.0
 40
5.0
 41
0.0
 71
     5
 72
     1
  1
\A1;66
 11
0.0000000000000001
 21
1.0
 31
0.0
1001
ACAD
1000
MTEXTBEGIN
1070
    73
1070
     1
1070
    44
1040
1.0
1070
    74
1070
     0
1000
MTEXTEND
1000
MTEXTBEGIN
1070
    73
1070
     1
1070
    44
1040
1.0
1070
    74
1070
     0
1000
MTEXTEND
  0
POINT
  5
75B9
330
75B2
100
AcDbEntity
  8
DEFPOINTS
 62
     0
100
AcDbPoint
 10
636.965367142065
 20
487.3944868562703
 30
0.0
  0
POINT
  5
75BA
330
75B2
100
AcDbEntity
  8
DEFPOINTS
 62
     0
100
AcDbPoint
 10
636.965367142065
 20
421.3944868562703
 30
0.0
  0
POINT
  5
75BB
330
75B2
100
AcDbEntity
  8
DEFPOINTS
 62
     0
100
AcDbPoint
 10
662.0680215984083
 20
421.3944868562702
 30
0.0
  0
ENDBLK
  5
75BD
330
75B2
100
AcDbEntity
  8
0
100
AcDbBlockEnd
  0
BLOCK
  5
7614
330
760A
100
AcDbEntity
  8
0
100
AcDbBlockBegin
  2
*D74
 70
     1
 10
0.0
 20
0.0
 30
0.0
  3
*D74
  1

  0
LINE
  5
7CAE
330
760A
100
AcDbEntity
  8
30
  6
CONTINUOUS
 62
     0
100
AcDbLine
 10
-51.5
 20
-294.1777520210349
 30
0.0
 11
-51.50000000000001
 21
-371.7520629588784
 31
0.0
  0
LINE
  5
7CAF
330
760A
100
AcDbEntity
  8
30
  6
CONTINUOUS
 62
     0
100
AcDbLine
 10
51.5
 20
-294.1777520210349
 30
0.0
 11
51.49999999999999
 21
-371.7520629588784
 31
0.0
  0
LINE
  5
7CB0
330
760A
100
AcDbEntity
  8
30
  6
CONTINUOUS
 62
     0
100
AcDbLine
 10
-49.50000000000001
 20
-371.2520629588784
 30
0.0
 11
49.49999999999999
 21
-371.2520629588784
 31
0.0
  0
INSERT
  5
7CB1
330
760A
100
AcDbEntity
  8
30
  6
CONTINUOUS
 62
     0
100
AcDbBlockReference
  2
_OPEN
 10
-51.50000000000001
 20
-371.2520629588784
 30
0.0
 41
2.0
 42
2.0
 43
2.0
 50
180.0
  0
INSERT
  5
7CB2
330
760A
100
AcDbEntity
  8
30
  6
CONTINUOUS
 62
     0
100
AcDbBlockReference
  2
_OPEN
 10
51.49999999999999
 20
-371.2520629588784
 30
0.0
 41
2.0
 42
2.0
 43
2.0
  0
MTEXT
  5
7CB3
330
760A
100
AcDbEntity
  8
30
  6
CONTINUOUS
 62
     0
100
AcDbMText
 10
0.0000000000000002
 20
-368.2520629588784
 30
0.0
 40
4.0
 41
0.0
 71
     5
 72
     1
  1
\A1;103
1001
ACAD
1000
MTEXTBEGIN
1070
    73
1070
     1
1070
    44
1040
1.0
1070
    74
1070
     0
1000
MTEXTEND
1000
MTEXTBEGIN
1070
    73
1070
     1
1070
    44
1040
1.0
1070
    74
1070
     0
1000
MTEXTEND
  0
POINT
  5
7CB4
330
760A
100
AcDbEntity
  8
DEFPOINTS
  6
CONTINUOUS
 62
     0
100
AcDbPoint
 10
-51.5
 20
-293.1777520210349
 30
0.0
  0
POINT
  5
7CB5
330
760A
100
AcDbEntity
  8
DEFPOINTS
  6
CONTINUOUS
 62
     0
100
AcDbPoint
 10
51.5
 20
-293.1777520210349
 30
0.0
  0
POINT
  5
7CB6
330
760A
100
AcDbEntity
  8
DEFPOINTS
  6
CONTINUOUS
 62
     0
100
AcDbPoint
 10
51.49999999999999
 20
-371.2520629588784
 30
0.0
  0
ENDBLK
  5
7615
330
760A
100
AcDbEntity
  8
0
100
AcDbBlockEnd
  0
BLOCK
  5
7620
330
7616
100
AcDbEntity
  8
0
100
AcDbBlockBegin
  2
*D75
 70
     1
 10
0.0
 20
0.0
 30
0.0
  3
*D75
  1

  0
LINE
  5
7CB7
330
7616
100
AcDbEntity
  8
30
  6
CONTINUOUS
 62
     0
100
AcDbLine
 10
-46.50006699999993
 20
-321.8475190210349
 30
0.0
 11
-46.50006699999993
 21
-353.7878882755772
 31
0.0
  0
LINE
  5
7CB8
330
7616
100
AcDbEntity
  8
30
  6
CONTINUOUS
 62
     0
100
AcDbLine
 10
46.50006799999993
 20
-322.8475170210348
 30
0.0
 11
46.50006799999993
 21
-353.7878882755772
 31
0.0
  0
LINE
  5
7CB9
330
7616
100
AcDbEntity
  8
30
  6
CONTINUOUS
 62
     0
100
AcDbLine
 10
-44.50006699999993
 20
-353.287888275577
 30
0.0
 11
44.50006799999993
 21
-353.287888275577
 31
0.0
  0
INSERT
  5
7CBA
330
7616
100
AcDbEntity
  8
30
  6
CONTINUOUS
 62
     0
100
AcDbBlockReference
  2
_OPEN
 10
-46.50006699999993
 20
-353.287888275577
 30
0.0
 41
2.0
 42
2.0
 43
2.0
 50
180.0
  0
INSERT
  5
7CBB
330
7616
100
AcDbEntity
  8
30
  6
CONTINUOUS
 62
     0
100
AcDbBlockReference
  2
_OPEN
 10
46.50006799999993
 20
-353.287888275577
 30
0.0
 41
2.0
 42
2.0
 43
2.0
  0
MTEXT
  5
7CBC
330
7616
100
AcDbEntity
  8
30
  6
CONTINUOUS
 62
     0
100
AcDbMText
 10
0.0000004999999421
 20
-350.287888275577
 30
0.0
 40
4.0
 41
0.0
 71
     5
 72
     1
  1
\A1;93
1001
ACAD
1000
MTEXTBEGIN
1070
    73
1070
     1
1070
    44
1040
1.0
1070
    74
1070
     0
1000
MTEXTEND
1000
MTEXTBEGIN
1070
    73
1070
     1
1070
    44
1040
1.0
1070
    74
1070
     0
1000
MTEXTEND
  0
POINT
  5
7CBD
330
7616
100
AcDbEntity
  8
DEFPOINTS
  6
CONTINUOUS
 62
     0
100
AcDbPoint
 10
-46.50006699999993
 20
-320.8475190210348
 30
0.0
  0
POINT
  5
7CBE
330
7616
100
AcDbEntity
  8
DEFPOINTS
  6
CONTINUOUS
 62
     0
100
AcDbPoint
 10
46.50006799999993
 20
-321.8475170210349
 30
0.0
  0
POINT
  5
7CBF
330
7616
100
AcDbEntity
  8
DEFPOINTS
  6
CONTINUOUS
 62
     0
100
AcDbPoint
 10
46.50006799999993
 20
-353.287888275577
 30
0.0
  0
ENDBLK
  5
7621
330
7616
100
AcDbEntity
  8
0
100
AcDbBlockEnd
  0
BLOCK
  5
762C
330
7622
100
AcDbEntity
  8
0
100
AcDbBlockBegin
  2
*D76
 70
     1
 10
0.0
 20
0.0
 30
0.0
  3
*D76
  1

  0
LINE
  5
7C9C
330
7622
100
AcDbEntity
  8
30
  6
CONTINUOUS
 62
     0
100
AcDbLine
 10
47.50006799999993
 20
-180.8472690210349
 30
0.0
 11
103.1601504016689
 21
-180.847269021035
 31
0.0
  0
LINE
  5
7C9D
330
7622
100
AcDbEntity
  8
30
  6
CONTINUOUS
 62
     0
100
AcDbLine
 10
48.50006800000007
 20
-320.8475190210348
 30
0.0
 11
103.1601504016689
 21
-320.8475190210348
 31
0.0
  0
LINE
  5
7C9E
330
7622
100
AcDbEntity
  8
30
  6
CONTINUOUS
 62
     0
100
AcDbLine
 10
102.660150401669
 20
-182.847269021035
 30
0.0
 11
102.660150401669
 21
-318.8475190210348
 31
0.0
  0
INSERT
  5
7C9F
330
7622
100
AcDbEntity
  8
30
  6
CONTINUOUS
 62
     0
100
AcDbBlockReference
  2
_OPEN
 10
102.660150401669
 20
-180.847269021035
 30
0.0
 41
2.0
 42
2.0
 43
2.0
 50
90.0
  0
INSERT
  5
7CA0
330
7622
100
AcDbEntity
  8
30
  6
CONTINUOUS
 62
     0
100
AcDbBlockReference
  2
_OPEN
 10
102.660150401669
 20
-320.8475190210348
 30
0.0
 41
2.0
 42
2.0
 43
2.0
 50
270.0
  0
MTEXT
  5
7CA1
330
7622
100
AcDbEntity
  8
30
  6
CONTINUOUS
 62
     0
100
AcDbMText
 10
99.66015040166906
 20
-250.8473940210349
 30
0.0
 40
4.0
 41
0.0
 71
     5
 72
     1
  1
\A1;140
 11
0.0000000000000001
 21
1.0
 31
0.0
1001
ACAD
1000
MTEXTBEGIN
1070
    73
1070
     1
1070
    44
1040
1.0
1070
    74
1070
     0
1000
MTEXTEND
1000
MTEXTBEGIN
1070
    73
1070
     1
1070
    44
1040
1.0
1070
    74
1070
     0
1000
MTEXTEND
  0
POINT
  5
7CA2
330
7622
100
AcDbEntity
  8
DEFPOINTS
  6
CONTINUOUS
 62
     0
100
AcDbPoint
 10
46.50006799999993
 20
-180.8472690210349
 30
0.0
  0
POINT
  5
7CA3
330
7622
100
AcDbEntity
  8
DEFPOINTS
  6
CONTINUOUS
 62
     0
100
AcDbPoint
 10
47.50006800000003
 20
-320.8475190210348
 30
0.0
  0
POINT
  5
7CA4
330
7622
100
AcDbEntity
  8
DEFPOINTS
  6
CONTINUOUS
 62
     0
100
AcDbPoint
 10
102.660150401669
 20
-320.8475190210348
 30
0.0
  0
ENDBLK
  5
762D
330
7622
100
AcDbEntity
  8
0
100
AcDbBlockEnd
  0
BLOCK
  5
7638
330
762E
100
AcDbEntity
  8
0
100
AcDbBlockBegin
  2
*D77
 70
     1
 10
0.0
 20
0.0
 30
0.0
  3
*D77
  1

  0
LINE
  5
7CA5
330
762E
100
AcDbEntity
  8
30
  6
CONTINUOUS
 62
     0
100
AcDbLine
 10
60.0
 20
-217.8473940210349
 30
0.0
 11
84.6026544563433
 21
-217.8473940210349
 31
0.0
  0
LINE
  5
7CA6
330
762E
100
AcDbEntity
  8
30
  6
CONTINUOUS
 62
     0
100
AcDbLine
 10
60.0
 20
-283.8473940210349
 30
0.0
 11
84.60265445634327
 21
-283.8473940210349
 31
0.0
  0
LINE
  5
7CA7
330
762E
100
AcDbEntity
  8
30
  6
CONTINUOUS
 62
     0
100
AcDbLine
 10
84.10265445634328
 20
-219.8473940210349
 30
0.0
 11
84.10265445634328
 21
-281.8473940210349
 31
0.0
  0
INSERT
  5
7CA8
330
762E
100
AcDbEntity
  8
30
  6
CONTINUOUS
 62
     0
100
AcDbBlockReference
  2
_OPEN
 10
84.10265445634328
 20
-217.8473940210349
 30
0.0
 41
2.0
 42
2.0
 43
2.0
 50
90.0
  0
INSERT
  5
7CA9
330
762E
100
AcDbEntity
  8
30
  6
CONTINUOUS
 62
     0
100
AcDbBlockReference
  2
_OPEN
 10
84.10265445634328
 20
-283.8473940210349
 30
0.0
 41
2.0
 42
2.0
 43
2.0
 50
270.0
  0
MTEXT
  5
7CAA
330
762E
100
AcDbEntity
  8
30
  6
CONTINUOUS
 62
     0
100
AcDbMText
 10
81.10265445634331
 20
-250.8473940210349
 30
0.0
 40
4.0
 41
0.0
 71
     5
 72
     1
  1
\A1;66
 11
0.0000000000000001
 21
1.0
 31
0.0
1001
ACAD
1000
MTEXTBEGIN
1070
    73
1070
     1
1070
    44
1040
1.0
1070
    74
1070
     0
1000
MTEXTEND
1000
MTEXTBEGIN
1070
    73
1070
     1
1070
    44
1040
1.0
1070
    74
1070
     0
1000
MTEXTEND
  0
POINT
  5
7CAB
330
762E
100
AcDbEntity
  8
DEFPOINTS
  6
CONTINUOUS
 62
     0
100
AcDbPoint
 10
59.0
 20
-217.8473940210349
 30
0.0
  0
POINT
  5
7CAC
330
762E
100
AcDbEntity
  8
DEFPOINTS
  6
CONTINUOUS
 62
     0
100
AcDbPoint
 10
59.0
 20
-283.8473940210349
 30
0.0
  0
POINT
  5
7CAD
330
762E
100
AcDbEntity
  8
DEFPOINTS
  6
CONTINUOUS
 62
     0
100
AcDbPoint
 10
84.10265445634328
 20
-283.8473940210349
 30
0.0
  0
ENDBLK
  5
7639
330
762E
100
AcDbEntity
  8
0
100
AcDbBlockEnd
  0
BLOCK
  5
766A
330
765E
100
AcDbEntity
  8
0
100
AcDbBlockBegin
  2
*D78
 70
     1
 10
0.0
 20
0.0
 30
0.0
  3
*D78
  1

  0
LINE
  5
765F
330
765E
100
AcDbEntity
  8
0
 62
     0
100
AcDbLine
 10
132.6027991420649
 20
172.1220848562701
 30
0.0
 11
146.572175554153
 21
172.1220848562701
 31
0.0
  0
LINE
  5
7660
330
765E
100
AcDbEntity
  8
0
 62
     0
100
AcDbLine
 10
128.6745101420649
 20
164.1220848562702
 30
0.0
 11
146.572175554153
 21
164.1220848562702
 31
0.0
  0
LINE
  5
7661
330
765E
100
AcDbEntity
  8
0
 62
     0
100
AcDbLine
 10
145.572175554153
 20
176.1220848562699
 30
0.0
 11
145.572175554153
 21
180.1220848562699
 31
0.0
  0
LINE
  5
7662
330
765E
100
AcDbEntity
  8
0
 62
     0
100
AcDbLine
 10
145.572175554153
 20
160.1220848562699
 30
0.0
 11
145.572175554153
 21
156.1220848562699
 31
0.0
  0
LINE
  5
7663
330
765E
100
AcDbEntity
  8
0
 62
     0
100
AcDbLine
 10
145.572175554153
 20
172.1220848562701
 30
0.0
 11
145.572175554153
 21
164.1220848562702
 31
0.0
  0
INSERT
  5
7664
330
765E
100
AcDbEntity
  8
0
 62
     0
100
AcDbBlockReference
  2
_OPEN
 10
145.572175554153
 20
172.1220848562701
 30
0.0
 41
4.0
 42
4.0
 43
4.0
 50
270.0
  0
INSERT
  5
7665
330
765E
100
AcDbEntity
  8
0
 62
     0
100
AcDbBlockReference
  2
_OPEN
 10
145.572175554153
 20
164.1220848562702
 30
0.0
 41
4.0
 42
4.0
 43
4.0
 50
90.0
  0
MTEXT
  5
7666
330
765E
100
AcDbEntity
  8
0
 62
     0
100
AcDbMText
 10
141.5721755541529
 20
168.1220848562702
 30
0.0
 40
5.0
 41
0.0
 71
     5
 72
     1
  1
\A1;8
 11
0.0000000000000001
 21
1.0
 31
0.0
1001
ACAD
1000
MTEXTBEGIN
1070
    73
1070
     1
1070
    44
1040
1.0
1070
    74
1070
     0
1000
MTEXTEND
1000
MTEXTBEGIN
1070
    73
1070
     1
1070
    44
1040
1.0
1070
    74
1070
     0
1000
MTEXTEND
  0
POINT
  5
7667
330
765E
100
AcDbEntity
  8
DEFPOINTS
 62
     0
100
AcDbPoint
 10
131.6027991420649
 20
172.1220848562701
 30
0.0
  0
POINT
  5
7668
330
765E
100
AcDbEntity
  8
DEFPOINTS
 62
     0
100
AcDbPoint
 10
127.6745101420649
 20
164.1220848562702
 30
0.0
  0
POINT
  5
7669
330
765E
100
AcDbEntity
  8
DEFPOINTS
 62
     0
100
AcDbPoint
 10
145.572175554153
 20
164.1220848562702
 30
0.0
  0
ENDBLK
  5
766B
330
765E
100
AcDbEntity
  8
0
100
AcDbBlockEnd
  0
BLOCK
  5
7676
330
766C
100
AcDbEntity
  8
0
100
AcDbBlockBegin
  2
*D79
 70
     1
 10
0.0
 20
0.0
 30
0.0
  3
*D79
  1

  0
LINE
  5
766D
330
766C
100
AcDbEntity
  8
0
 62
     0
100
AcDbLine
 10
172.0687426420649
 20
271.72059985627
 30
0.0
 11
193.2641078121132
 21
271.72059985627
 31
0.0
  0
LINE
  5
766E
330
766C
100
AcDbEntity
  8
0
 62
     0
100
AcDbLine
 10
109.6027971420649
 20
122.1220848562699
 30
0.0
 11
193.2641078121132
 21
122.1220848562699
 31
0.0
  0
LINE
  5
766F
330
766C
100
AcDbEntity
  8
0
 62
     0
100
AcDbLine
 10
192.2641078121132
 20
267.7205998562701
 30
0.0
 11
192.2641078121132
 21
126.1220848562699
 31
0.0
  0
INSERT
  5
7670
330
766C
100
AcDbEntity
  8
0
 62
     0
100
AcDbBlockReference
  2
_OPEN
 10
192.2641078121132
 20
271.72059985627
 30
0.0
 41
4.0
 42
4.0
 43
4.0
 50
90.0
  0
INSERT
  5
7671
330
766C
100
AcDbEntity
  8
0
 62
     0
100
AcDbBlockReference
  2
_OPEN
 10
192.2641078121132
 20
122.1220848562699
 30
0.0
 41
4.0
 42
4.0
 43
4.0
 50
270.0
  0
MTEXT
  5
7672
330
766C
100
AcDbEntity
  8
0
 62
     0
100
AcDbMText
 10
188.264107812113
 20
196.9213423562701
 30
0.0
 40
5.0
 41
0.0
 71
     5
 72
     1
  1
\A1;150
 11
0.0000000000000001
 21
1.0
 31
0.0
1001
ACAD
1000
MTEXTBEGIN
1070
    73
1070
     1
1070
    44
1040
1.0
1070
    74
1070
     0
1000
MTEXTEND
1000
MTEXTBEGIN
1070
    73
1070
     1
1070
    44
1040
1.0
1070
    74
1070
     0
1000
MTEXTEND
  0
POINT
  5
7673
330
766C
100
AcDbEntity
  8
DEFPOINTS
 62
     0
100
AcDbPoint
 10
171.0687426420649
 20
271.72059985627
 30
0.0
  0
POINT
  5
7674
330
766C
100
AcDbEntity
  8
DEFPOINTS
 62
     0
100
AcDbPoint
 10
108.602797142065
 20
122.1220848562699
 30
0.0
  0
POINT
  5
7675
330
766C
100
AcDbEntity
  8
DEFPOINTS
 62
     0
100
AcDbPoint
 10
192.2641078121132
 20
122.1220848562699
 30
0.0
  0
ENDBLK
  5
7677
330
766C
100
AcDbEntity
  8
0
100
AcDbBlockEnd
  0
BLOCK
  5
7684
330
7678
100
AcDbEntity
  8
0
100
AcDbBlockBegin
  2
*D80
 70
     1
 10
0.0
 20
0.0
 30
0.0
  3
*D80
  1

  0
LINE
  5
7679
330
7678
100
AcDbEntity
  8
0
 62
     0
100
AcDbLine
 10
108.602797142065
 20
122.1220848562699
 30
0.0
 11
193.2641078121132
 21
122.1220848562699
 31
0.0
  0
LINE
  5
767A
330
7678
100
AcDbEntity
  8
0
 62
     0
100
AcDbLine
 10
102.674508142065
 20
114.1220848562702
 30
0.0
 11
193.2641078121132
 21
114.12208485627
 31
0.0
  0
LINE
  5
767B
330
7678
100
AcDbEntity
  8
0
 62
     0
100
AcDbLine
 10
192.2641078121132
 20
126.1220848562699
 30
0.0
 11
192.2641078121132
 21
130.1220848562699
 31
0.0
  0
LINE
  5
767C
330
7678
100
AcDbEntity
  8
0
 62
     0
100
AcDbLine
 10
192.2641078121132
 20
110.1220848562699
 30
0.0
 11
192.2641078121132
 21
106.1220848562699
 31
0.0
  0
LINE
  5
767D
330
7678
100
AcDbEntity
  8
0
 62
     0
100
AcDbLine
 10
192.2641078121132
 20
122.1220848562699
 30
0.0
 11
192.2641078121132
 21
114.12208485627
 31
0.0
  0
INSERT
  5
767E
330
7678
100
AcDbEntity
  8
0
 62
     0
100
AcDbBlockReference
  2
_OPEN
 10
192.2641078121132
 20
122.1220848562699
 30
0.0
 41
4.0
 42
4.0
 43
4.0
 50
270.0
  0
INSERT
  5
767F
330
7678
100
AcDbEntity
  8
0
 62
     0
100
AcDbBlockReference
  2
_OPEN
 10
192.2641078121132
 20
114.12208485627
 30
0.0
 41
4.0
 42
4.0
 43
4.0
 50
90.0
  0
MTEXT
  5
7680
330
7678
100
AcDbEntity
  8
0
 62
     0
100
AcDbMText
 10
188.264107812113
 20
118.1220848562702
 30
0.0
 40
5.0
 41
0.0
 71
     5
 72
     1
  1
\A1;8
 11
0.0000000000000001
 21
1.0
 31
0.0
1001
ACAD
1000
MTEXTBEGIN
1070
    73
1070
     1
1070
    44
1040
1.0
1070
    74
1070
     0
1000
MTEXTEND
1000
MTEXTBEGIN
1070
    73
1070
     1
1070
    44
1040
1.0
1070
    74
1070
     0
1000
MTEXTEND
  0
POINT
  5
7681
330
7678
100
AcDbEntity
  8
DEFPOINTS
 62
     0
100
AcDbPoint
 10
107.6027971420649
 20
122.1220848562699
 30
0.0
  0
POINT
  5
7682
330
7678
100
AcDbEntity
  8
DEFPOINTS
 62
     0
100
AcDbPoint
 10
101.674508142065
 20
114.1220848562702
 30
0.0
  0
POINT
  5
7683
330
7678
100
AcDbEntity
  8
DEFPOINTS
 62
     0
100
AcDbPoint
 10
192.2641078121132
 20
114.12208485627
 30
0.0
  0
ENDBLK
  5
7685
330
7678
100
AcDbEntity
  8
0
100
AcDbBlockEnd
  0
BLOCK
  5
7690
330
7686
100
AcDbEntity
  8
0
100
AcDbBlockBegin
  2
*D81
 70
     1
 10
0.0
 20
0.0
 30
0.0
  3
*D81
  1

  0
LINE
  5
7687
330
7686
100
AcDbEntity
  8
0
 62
     0
100
AcDbLine
 10
95.17450814206499
 20
103.0129638562702
 30
0.0
 11
95.17450814206499
 21
89.21392276817757
 31
0.0
  0
LINE
  5
7688
330
7686
100
AcDbEntity
  8
0
 62
     0
100
AcDbLine
 10
120.174508142065
 20
153.7865308562699
 30
0.0
 11
120.174508142065
 21
89.21392276817757
 31
0.0
  0
LINE
  5
7689
330
7686
100
AcDbEntity
  8
0
 62
     0
100
AcDbLine
 10
99.174508142065
 20
90.21392276817756
 30
0.0
 11
116.174508142065
 21
90.21392276817756
 31
0.0
  0
INSERT
  5
768A
330
7686
100
AcDbEntity
  8
0
 62
     0
100
AcDbBlockReference
  2
_OPEN
 10
95.17450814206499
 20
90.21392276817756
 30
0.0
 41
4.0
 42
4.0
 43
4.0
 50
180.0
  0
INSERT
  5
768B
330
7686
100
AcDbEntity
  8
0
 62
     0
100
AcDbBlockReference
  2
_OPEN
 10
120.174508142065
 20
90.21392276817756
 30
0.0
 41
4.0
 42
4.0
 43
4.0
  0
MTEXT
  5
768C
330
7686
100
AcDbEntity
  8
0
 62
     0
100
AcDbMText
 10
107.674508142065
 20
94.21392276817757
 30
0.0
 40
5.0
 41
0.0
 71
     5
 72
     1
  1
\A1;25
1001
ACAD
1000
MTEXTBEGIN
1070
    73
1070
     1
1070
    44
1040
1.0
1070
    74
1070
     0
1000
MTEXTEND
1000
MTEXTBEGIN
1070
    73
1070
     1
1070
    44
1040
1.0
1070
    74
1070
     0
1000
MTEXTEND
  0
POINT
  5
768D
330
7686
100
AcDbEntity
  8
DEFPOINTS
 62
     0
100
AcDbPoint
 10
95.17450814206499
 20
104.0129638562702
 30
0.0
  0
POINT
  5
768E
330
7686
100
AcDbEntity
  8
DEFPOINTS
 62
     0
100
AcDbPoint
 10
120.174508142065
 20
154.7865308562699
 30
0.0
  0
POINT
  5
768F
330
7686
100
AcDbEntity
  8
DEFPOINTS
 62
     0
100
AcDbPoint
 10
120.174508142065
 20
90.21392276817756
 30
0.0
  0
ENDBLK
  5
7691
330
7686
100
AcDbEntity
  8
0
100
AcDbBlockEnd
  0
BLOCK
  5
769C
330
7692
100
AcDbEntity
  8
0
100
AcDbBlockBegin
  2
*D82
 70
     1
 10
0.0
 20
0.0
 30
0.0
  3
*D82
  1

  0
LINE
  5
7693
330
7692
100
AcDbEntity
  8
0
 62
     0
100
AcDbLine
 10
70.17450814206501
 20
153.6178298562699
 30
0.0
 11
70.17450814206501
 21
89.21392276817757
 31
0.0
  0
LINE
  5
7694
330
7692
100
AcDbEntity
  8
0
 62
     0
100
AcDbLine
 10
95.17450814206499
 20
103.0129638562702
 30
0.0
 11
95.17450814206499
 21
89.21392276817757
 31
0.0
  0
LINE
  5
7695
330
7692
100
AcDbEntity
  8
0
 62
     0
100
AcDbLine
 10
74.174508142065
 20
90.21392276817756
 30
0.0
 11
91.17450814206499
 21
90.21392276817756
 31
0.0
  0
INSERT
  5
7696
330
7692
100
AcDbEntity
  8
0
 62
     0
100
AcDbBlockReference
  2
_OPEN
 10
70.17450814206501
 20
90.21392276817756
 30
0.0
 41
4.0
 42
4.0
 43
4.0
 50
180.0
  0
INSERT
  5
7697
330
7692
100
AcDbEntity
  8
0
 62
     0
100
AcDbBlockReference
  2
_OPEN
 10
95.17450814206499
 20
90.21392276817756
 30
0.0
 41
4.0
 42
4.0
 43
4.0
  0
MTEXT
  5
7698
330
7692
100
AcDbEntity
  8
0
 62
     0
100
AcDbMText
 10
82.67450814206503
 20
94.21392276817757
 30
0.0
 40
5.0
 41
0.0
 71
     5
 72
     1
  1
\A1;25
1001
ACAD
1000
MTEXTBEGIN
1070
    73
1070
     1
1070
    44
1040
1.0
1070
    74
1070
     0
1000
MTEXTEND
1000
MTEXTBEGIN
1070
    73
1070
     1
1070
    44
1040
1.0
1070
    74
1070
     0
1000
MTEXTEND
  0
POINT
  5
7699
330
7692
100
AcDbEntity
  8
DEFPOINTS
 62
     0
100
AcDbPoint
 10
70.17450814206501
 20
154.6178298562699
 30
0.0
  0
POINT
  5
769A
330
7692
100
AcDbEntity
  8
DEFPOINTS
 62
     0
100
AcDbPoint
 10
95.17450814206499
 20
104.0129638562702
 30
0.0
  0
POINT
  5
769B
330
7692
100
AcDbEntity
  8
DEFPOINTS
 62
     0
100
AcDbPoint
 10
95.17450814206499
 20
90.21392276817756
 30
0.0
  0
ENDBLK
  5
769D
330
7692
100
AcDbEntity
  8
0
100
AcDbBlockEnd
  0
BLOCK
  5
76A8
330
769E
100
AcDbEntity
  8
0
100
AcDbBlockBegin
  2
*D83
 70
     1
 10
0.0
 20
0.0
 30
0.0
  3
*D83
  1

  0
LINE
  5
769F
330
769E
100
AcDbEntity
  8
0
 62
     0
100
AcDbLine
 10
172.0687426420649
 20
271.72059985627
 30
0.0
 11
183.666425227089
 21
271.72059985627
 31
0.0
  0
LINE
  5
76A0
330
769E
100
AcDbEntity
  8
0
 62
     0
100
AcDbLine
 10
132.6027991420649
 20
172.1220848562701
 30
0.0
 11
183.666425227089
 21
172.1220848562701
 31
0.0
  0
LINE
  5
76A1
330
769E
100
AcDbEntity
  8
0
 62
     0
100
AcDbLine
 10
182.6664252270889
 20
267.7205998562701
 30
0.0
 11
182.6664252270888
 21
176.1220848562699
 31
0.0
  0
INSERT
  5
76A2
330
769E
100
AcDbEntity
  8
0
 62
     0
100
AcDbBlockReference
  2
_OPEN
 10
182.6664252270889
 20
271.72059985627
 30
0.0
 41
4.0
 42
4.0
 43
4.0
 50
90.0
  0
INSERT
  5
76A3
330
769E
100
AcDbEntity
  8
0
 62
     0
100
AcDbBlockReference
  2
_OPEN
 10
182.6664252270888
 20
172.1220848562701
 30
0.0
 41
4.0
 42
4.0
 43
4.0
 50
270.0
  0
MTEXT
  5
76A4
330
769E
100
AcDbEntity
  8
0
 62
     0
100
AcDbMText
 10
178.666425227089
 20
221.9213423562701
 30
0.0
 40
5.0
 41
0.0
 71
     5
 72
     1
  1
\A1;100
 11
0.0000000000000001
 21
1.0
 31
0.0
1001
ACAD
1000
MTEXTBEGIN
1070
    73
1070
     1
1070
    44
1040
1.0
1070
    74
1070
     0
1000
MTEXTEND
1000
MTEXTBEGIN
1070
    73
1070
     1
1070
    44
1040
1.0
1070
    74
1070
     0
1000
MTEXTEND
  0
POINT
  5
76A5
330
769E
100
AcDbEntity
  8
DEFPOINTS
 62
     0
100
AcDbPoint
 10
171.0687426420649
 20
271.72059985627
 30
0.0
  0
POINT
  5
76A6
330
769E
100
AcDbEntity
  8
DEFPOINTS
 62
     0
100
AcDbPoint
 10
131.6027991420649
 20
172.1220848562701
 30
0.0
  0
POINT
  5
76A7
330
769E
100
AcDbEntity
  8
DEFPOINTS
 62
     0
100
AcDbPoint
 10
182.6664252270888
 20
172.1220848562701
 30
0.0
  0
ENDBLK
  5
76A9
330
769E
100
AcDbEntity
  8
0
100
AcDbBlockEnd
  0
BLOCK
  5
7814
330
7808
100
AcDbEntity
  8
0
100
AcDbBlockBegin
  2
*D84
 70
     1
 10
0.0
 20
0.0
 30
0.0
  3
*D84
  1

  0
LINE
  5
7C57
330
7808
100
AcDbEntity
  8
30
  6
CONTINUOUS
 62
     0
100
AcDbLine
 10
37.42829099999996
 20
279.8013058146941
 30
0.0
 11
50.89766741208801
 21
279.8013058146941
 31
0.0
  0
LINE
  5
7C58
330
7808
100
AcDbEntity
  8
30
  6
CONTINUOUS
 62
     0
100
AcDbLine
 10
33.50000199999998
 20
287.8013058146941
 30
0.0
 11
50.89766741208801
 21
287.8013058146941
 31
0.0
  0
LINE
  5
7C59
330
7808
100
AcDbEntity
  8
30
  6
CONTINUOUS
 62
     0
100
AcDbLine
 10
50.39766741208801
 20
281.8013058146941
 30
0.0
 11
50.39766741208801
 21
285.8013058146941
 31
0.0
  0
INSERT
  5
7C5A
330
7808
100
AcDbEntity
  8
30
  6
CONTINUOUS
 62
     0
100
AcDbBlockReference
  2
_OPEN
 10
50.39766741208801
 20
279.8013058146941
 30
0.0
 41
2.0
 42
2.0
 43
2.0
 50
270.0
  0
INSERT
  5
7C5B
330
7808
100
AcDbEntity
  8
30
  6
CONTINUOUS
 62
     0
100
AcDbBlockReference
  2
_OPEN
 10
50.39766741208801
 20
287.8013058146941
 30
0.0
 41
2.0
 42
2.0
 43
2.0
 50
90.0
  0
MTEXT
  5
7C5C
330
7808
100
AcDbEntity
  8
30
  6
CONTINUOUS
 62
     0
100
AcDbMText
 10
47.39766741208796
 20
283.8013058146943
 30
0.0
 40
4.0
 41
0.0
 71
     5
 72
     1
  1
\A1;8
 11
0.0000000000000001
 21
1.0
 31
0.0
1001
ACAD
1000
MTEXTBEGIN
1070
    73
1070
     1
1070
    44
1040
1.0
1070
    74
1070
     0
1000
MTEXTEND
1000
MTEXTBEGIN
1070
    73
1070
     1
1070
    44
1040
1.0
1070
    74
1070
     0
1000
MTEXTEND
  0
POINT
  5
7C5D
330
7808
100
AcDbEntity
  8
DEFPOINTS
  6
CONTINUOUS
 62
     0
100
AcDbPoint
 10
36.42829099999996
 20
279.8013058146941
 30
0.0
  0
POINT
  5
7C5E
330
7808
100
AcDbEntity
  8
DEFPOINTS
  6
CONTINUOUS
 62
     0
100
AcDbPoint
 10
32.50000199999998
 20
287.8013058146941
 30
0.0
  0
POINT
  5
7C5F
330
7808
100
AcDbEntity
  8
DEFPOINTS
  6
CONTINUOUS
 62
     0
100
AcDbPoint
 10
50.39766741208801
 20
287.8013058146941
 30
0.0
  0
ENDBLK
  5
7815
330
7808
100
AcDbEntity
  8
0
100
AcDbBlockEnd
  0
BLOCK
  5
7820
330
7816
100
AcDbEntity
  8
0
100
AcDbBlockBegin
  2
*D85
 70
     1
 10
0.0
 20
0.0
 30
0.0
  3
*D85
  1

  0
LINE
  5
7C3C
330
7816
100
AcDbEntity
  8
30
  6
CONTINUOUS
 62
     0
100
AcDbLine
 10
76.89423449999998
 20
180.2027908146943
 30
0.0
 11
97.58959967004818
 21
180.2027908146943
 31
0.0
  0
LINE
  5
7C3D
330
7816
100
AcDbEntity
  8
30
  6
CONTINUOUS
 62
     0
100
AcDbLine
 10
14.42828899999999
 20
329.8013058146941
 30
0.0
 11
97.5895996700482
 21
329.8013058146941
 31
0.0
  0
LINE
  5
7C3E
330
7816
100
AcDbEntity
  8
30
  6
CONTINUOUS
 62
     0
100
AcDbLine
 10
97.08959967004815
 20
182.2027908146941
 30
0.0
 11
97.08959967004821
 21
327.8013058146941
 31
0.0
  0
INSERT
  5
7C3F
330
7816
100
AcDbEntity
  8
30
  6
CONTINUOUS
 62
     0
100
AcDbBlockReference
  2
_OPEN
 10
97.08959967004815
 20
180.2027908146943
 30
0.0
 41
2.0
 42
2.0
 43
2.0
 50
270.0
  0
INSERT
  5
7C40
330
7816
100
AcDbEntity
  8
30
  6
CONTINUOUS
 62
     0
100
AcDbBlockReference
  2
_OPEN
 10
97.08959967004821
 20
329.8013058146941
 30
0.0
 41
2.0
 42
2.0
 43
2.0
 50
90.0
  0
MTEXT
  5
7C41
330
7816
100
AcDbEntity
  8
30
  6
CONTINUOUS
 62
     0
100
AcDbMText
 10
94.08959967004816
 20
255.0020483146943
 30
0.0
 40
4.0
 41
0.0
 71
     5
 72
     1
  1
\A1;150
 11
0.0000000000000001
 21
1.0
 31
0.0
1001
ACAD
1000
MTEXTBEGIN
1070
    73
1070
     1
1070
    44
1040
1.0
1070
    74
1070
     0
1000
MTEXTEND
1000
MTEXTBEGIN
1070
    73
1070
     1
1070
    44
1040
1.0
1070
    74
1070
     0
1000
MTEXTEND
  0
POINT
  5
7C42
330
7816
100
AcDbEntity
  8
DEFPOINTS
  6
CONTINUOUS
 62
     0
100
AcDbPoint
 10
75.89423449999998
 20
180.2027908146943
 30
0.0
  0
POINT
  5
7C43
330
7816
100
AcDbEntity
  8
DEFPOINTS
  6
CONTINUOUS
 62
     0
100
AcDbPoint
 10
13.42828899999999
 20
329.8013058146941
 30
0.0
  0
POINT
  5
7C44
330
7816
100
AcDbEntity
  8
DEFPOINTS
  6
CONTINUOUS
 62
     0
100
AcDbPoint
 10
97.08959967004821
 20
329.8013058146941
 30
0.0
  0
ENDBLK
  5
7821
330
7816
100
AcDbEntity
  8
0
100
AcDbBlockEnd
  0
BLOCK
  5
782E
330
7822
100
AcDbEntity
  8
0
100
AcDbBlockBegin
  2
*D86
 70
     1
 10
0.0
 20
0.0
 30
0.0
  3
*D86
  1

  0
LINE
  5
7C45
330
7822
100
AcDbEntity
  8
30
  6
CONTINUOUS
 62
     0
100
AcDbLine
 10
13.42828899999999
 20
329.8013058146941
 30
0.0
 11
97.5895996700482
 21
329.8013058146941
 31
0.0
  0
LINE
  5
7C46
330
7822
100
AcDbEntity
  8
30
  6
CONTINUOUS
 62
     0
100
AcDbLine
 10
7.5
 20
337.8013058146941
 30
0.0
 11
97.5895996700482
 21
337.8013058146941
 31
0.0
  0
LINE
  5
7C47
330
7822
100
AcDbEntity
  8
30
  6
CONTINUOUS
 62
     0
100
AcDbLine
 10
97.08959967004821
 20
331.8013058146941
 30
0.0
 11
97.08959967004821
 21
335.8013058146941
 31
0.0
  0
INSERT
  5
7C48
330
7822
100
AcDbEntity
  8
30
  6
CONTINUOUS
 62
     0
100
AcDbBlockReference
  2
_OPEN
 10
97.08959967004821
 20
329.8013058146941
 30
0.0
 41
2.0
 42
2.0
 43
2.0
 50
270.0
  0
INSERT
  5
7C49
330
7822
100
AcDbEntity
  8
30
  6
CONTINUOUS
 62
     0
100
AcDbBlockReference
  2
_OPEN
 10
97.08959967004821
 20
337.8013058146941
 30
0.0
 41
2.0
 42
2.0
 43
2.0
 50
90.0
  0
MTEXT
  5
7C4A
330
7822
100
AcDbEntity
  8
30
  6
CONTINUOUS
 62
     0
100
AcDbMText
 10
94.08959967004816
 20
333.8013058146941
 30
0.0
 40
4.0
 41
0.0
 71
     5
 72
     1
  1
\A1;8
 11
0.0000000000000001
 21
1.0
 31
0.0
1001
ACAD
1000
MTEXTBEGIN
1070
    73
1070
     1
1070
    44
1040
1.0
1070
    74
1070
     0
1000
MTEXTEND
1000
MTEXTBEGIN
1070
    73
1070
     1
1070
    44
1040
1.0
1070
    74
1070
     0
1000
MTEXTEND
  0
POINT
  5
7C4B
330
7822
100
AcDbEntity
  8
DEFPOINTS
  6
CONTINUOUS
 62
     0
100
AcDbPoint
 10
12.42828899999999
 20
329.8013058146941
 30
0.0
  0
POINT
  5
7C4C
330
7822
100
AcDbEntity
  8
DEFPOINTS
  6
CONTINUOUS
 62
     0
100
AcDbPoint
 10
6.5
 20
337.8013058146941
 30
0.0
  0
POINT
  5
7C4D
330
7822
100
AcDbEntity
  8
DEFPOINTS
  6
CONTINUOUS
 62
     0
100
AcDbPoint
 10
97.08959967004821
 20
337.8013058146941
 30
0.0
  0
ENDBLK
  5
782F
330
7822
100
AcDbEntity
  8
0
100
AcDbBlockEnd
  0
BLOCK
  5
783A
330
7830
100
AcDbEntity
  8
0
100
AcDbBlockBegin
  2
*D87
 70
     1
 10
0.0
 20
0.0
 30
0.0
  3
*D87
  1

  0
LINE
  5
7C60
330
7830
100
AcDbEntity
  8
30
  6
CONTINUOUS
 62
     0
100
AcDbLine
 10
0.0000000000000001
 20
348.9104268146942
 30
0.0
 11
0.0000000000000009
 21
362.2094679027867
 31
0.0
  0
LINE
  5
7C61
330
7830
100
AcDbEntity
  8
30
  6
CONTINUOUS
 62
     0
100
AcDbLine
 10
25.0
 20
298.1368598146941
 30
0.0
 11
25.0
 21
362.2094679027867
 31
0.0
  0
LINE
  5
7C62
330
7830
100
AcDbEntity
  8
30
  6
CONTINUOUS
 62
     0
100
AcDbLine
 10
2.0
 20
361.7094679027867
 30
0.0
 11
23.0
 21
361.7094679027867
 31
0.0
  0
INSERT
  5
7C63
330
7830
100
AcDbEntity
  8
30
  6
CONTINUOUS
 62
     0
100
AcDbBlockReference
  2
_OPEN
 10
0.0000000000000008
 20
361.7094679027867
 30
0.0
 41
2.0
 42
2.0
 43
2.0
 50
180.0
  0
INSERT
  5
7C64
330
7830
100
AcDbEntity
  8
30
  6
CONTINUOUS
 62
     0
100
AcDbBlockReference
  2
_OPEN
 10
25.0
 20
361.7094679027867
 30
0.0
 41
2.0
 42
2.0
 43
2.0
  0
MTEXT
  5
7C65
330
7830
100
AcDbEntity
  8
30
  6
CONTINUOUS
 62
     0
100
AcDbMText
 10
12.5
 20
364.7094679027868
 30
0.0
 40
4.0
 41
0.0
 71
     5
 72
     1
  1
\A1;25
1001
ACAD
1000
MTEXTBEGIN
1070
    73
1070
     1
1070
    44
1040
1.0
1070
    74
1070
     0
1000
MTEXTEND
1000
MTEXTBEGIN
1070
    73
1070
     1
1070
    44
1040
1.0
1070
    74
1070
     0
1000
MTEXTEND
  0
POINT
  5
7C66
330
7830
100
AcDbEntity
  8
DEFPOINTS
  6
CONTINUOUS
 62
     0
100
AcDbPoint
 10
0.0
 20
347.9104268146942
 30
0.0
  0
POINT
  5
7C67
330
7830
100
AcDbEntity
  8
DEFPOINTS
  6
CONTINUOUS
 62
     0
100
AcDbPoint
 10
25.0
 20
297.1368598146941
 30
0.0
  0
POINT
  5
7C68
330
7830
100
AcDbEntity
  8
DEFPOINTS
  6
CONTINUOUS
 62
     0
100
AcDbPoint
 10
25.0
 20
361.7094679027867
 30
0.0
  0
ENDBLK
  5
783B
330
7830
100
AcDbEntity
  8
0
100
AcDbBlockEnd
  0
BLOCK
  5
7846
330
783C
100
AcDbEntity
  8
0
100
AcDbBlockBegin
  2
*D88
 70
     1
 10
0.0
 20
0.0
 30
0.0
  3
*D88
  1

  0
LINE
  5
7C69
330
783C
100
AcDbEntity
  8
30
  6
CONTINUOUS
 62
     0
100
AcDbLine
 10
-24.99999999999998
 20
298.3055608146941
 30
0.0
 11
-24.99999999999998
 21
362.2094679027867
 31
0.0
  0
LINE
  5
7C6A
330
783C
100
AcDbEntity
  8
30
  6
CONTINUOUS
 62
     0
100
AcDbLine
 10
0.0000000000000001
 20
348.9104268146942
 30
0.0
 11
0.0000000000000009
 21
362.2094679027867
 31
0.0
  0
LINE
  5
7C6B
330
783C
100
AcDbEntity
  8
30
  6
CONTINUOUS
 62
     0
100
AcDbLine
 10
-22.99999999999998
 20
361.7094679027867
 30
0.0
 11
-1.999999999999999
 21
361.7094679027867
 31
0.0
  0
INSERT
  5
7C6C
330
783C
100
AcDbEntity
  8
30
  6
CONTINUOUS
 62
     0
100
AcDbBlockReference
  2
_OPEN
 10
-24.99999999999998
 20
361.7094679027867
 30
0.0
 41
2.0
 42
2.0
 43
2.0
 50
180.0
  0
INSERT
  5
7C6D
330
783C
100
AcDbEntity
  8
30
  6
CONTINUOUS
 62
     0
100
AcDbBlockReference
  2
_OPEN
 10
0.0000000000000008
 20
361.7094679027867
 30
0.0
 41
2.0
 42
2.0
 43
2.0
  0
MTEXT
  5
7C6E
330
783C
100
AcDbEntity
  8
30
  6
CONTINUOUS
 62
     0
100
AcDbMText
 10
-12.49999999999999
 20
364.7094679027868
 30
0.0
 40
4.0
 41
0.0
 71
     5
 72
     1
  1
\A1;25
1001
ACAD
1000
MTEXTBEGIN
1070
    73
1070
     1
1070
    44
1040
1.0
1070
    74
1070
     0
1000
MTEXTEND
1000
MTEXTBEGIN
1070
    73
1070
     1
1070
    44
1040
1.0
1070
    74
1070
     0
1000
MTEXTEND
  0
POINT
  5
7C6F
330
783C
100
AcDbEntity
  8
DEFPOINTS
  6
CONTINUOUS
 62
     0
100
AcDbPoint
 10
-24.99999999999998
 20
297.3055608146941
 30
0.0
  0
POINT
  5
7C70
330
783C
100
AcDbEntity
  8
DEFPOINTS
  6
CONTINUOUS
 62
     0
100
AcDbPoint
 10
0.0
 20
347.9104268146942
 30
0.0
  0
POINT
  5
7C71
330
783C
100
AcDbEntity
  8
DEFPOINTS
  6
CONTINUOUS
 62
     0
100
AcDbPoint
 10
0.0000000000000008
 20
361.7094679027867
 30
0.0
  0
ENDBLK
  5
7847
330
783C
100
AcDbEntity
  8
0
100
AcDbBlockEnd
  0
BLOCK
  5
7852
330
7848
100
AcDbEntity
  8
0
100
AcDbBlockBegin
  2
*D89
 70
     1
 10
0.0
 20
0.0
 30
0.0
  3
*D89
  1

  0
LINE
  5
7C4E
330
7848
100
AcDbEntity
  8
30
  6
CONTINUOUS
 62
     0
100
AcDbLine
 10
76.89423449999998
 20
180.2027908146943
 30
0.0
 11
87.99191708502409
 21
180.2027908146943
 31
0.0
  0
LINE
  5
7C4F
330
7848
100
AcDbEntity
  8
30
  6
CONTINUOUS
 62
     0
100
AcDbLine
 10
37.42829099999996
 20
279.8013058146941
 30
0.0
 11
87.99191708502409
 21
279.8013058146941
 31
0.0
  0
LINE
  5
7C50
330
7848
100
AcDbEntity
  8
30
  6
CONTINUOUS
 62
     0
100
AcDbLine
 10
87.49191708502406
 20
182.2027908146941
 30
0.0
 11
87.49191708502406
 21
277.8013058146941
 31
0.0
  0
INSERT
  5
7C51
330
7848
100
AcDbEntity
  8
30
  6
CONTINUOUS
 62
     0
100
AcDbBlockReference
  2
_OPEN
 10
87.49191708502406
 20
180.2027908146943
 30
0.0
 41
2.0
 42
2.0
 43
2.0
 50
270.0
  0
INSERT
  5
7C52
330
7848
100
AcDbEntity
  8
30
  6
CONTINUOUS
 62
     0
100
AcDbBlockReference
  2
_OPEN
 10
87.49191708502406
 20
279.8013058146941
 30
0.0
 41
2.0
 42
2.0
 43
2.0
 50
90.0
  0
MTEXT
  5
7C53
330
7848
100
AcDbEntity
  8
30
  6
CONTINUOUS
 62
     0
100
AcDbMText
 10
84.49191708502404
 20
230.0020483146943
 30
0.0
 40
4.0
 41
0.0
 71
     5
 72
     1
  1
\A1;100
 11
0.0000000000000001
 21
1.0
 31
0.0
1001
ACAD
1000
MTEXTBEGIN
1070
    73
1070
     1
1070
    44
1040
1.0
1070
    74
1070
     0
1000
MTEXTEND
1000
MTEXTBEGIN
1070
    73
1070
     1
1070
    44
1040
1.0
1070
    74
1070
     0
1000
MTEXTEND
  0
POINT
  5
7C54
330
7848
100
AcDbEntity
  8
DEFPOINTS
  6
CONTINUOUS
 62
     0
100
AcDbPoint
 10
75.89423449999998
 20
180.2027908146943
 30
0.0
  0
POINT
  5
7C55
330
7848
100
AcDbEntity
  8
DEFPOINTS
  6
CONTINUOUS
 62
     0
100
AcDbPoint
 10
36.42829099999996
 20
279.8013058146941
 30
0.0
  0
POINT
  5
7C56
330
7848
100
AcDbEntity
  8
DEFPOINTS
  6
CONTINUOUS
 62
     0
100
AcDbPoint
 10
87.49191708502406
 20
279.8013058146941
 30
0.0
  0
ENDBLK
  5
7853
330
7848
100
AcDbEntity
  8
0
100
AcDbBlockEnd
  0
BLOCK
  5
78BE
330
78B4
100
AcDbEntity
  8
0
100
AcDbBlockBegin
  2
*D90
 70
     1
 10
0.0
 20
0.0
 30
0.0
  3
*D90
  1

  0
LINE
  5
78B5
330
78B4
100
AcDbEntity
  8
0
 62
     0
100
AcDbLine
 10
251.191054142065
 20
452.3944878562702
 30
0.0
 11
251.191054142065
 21
331.4884041264318
 31
0.0
  0
LINE
  5
78B6
330
78B4
100
AcDbEntity
  8
0
 62
     0
100
AcDbLine
 10
288.575979142065
 20
373.3944838562702
 30
0.0
 11
288.575979142065
 21
331.4884041264318
 31
0.0
  0
LINE
  5
78B7
330
78B4
100
AcDbEntity
  8
0
 62
     0
100
AcDbLine
 10
255.1910541420649
 20
332.4884041264319
 30
0.0
 11
284.575979142065
 21
332.4884041264319
 31
0.0
  0
INSERT
  5
78B8
330
78B4
100
AcDbEntity
  8
0
 62
     0
100
AcDbBlockReference
  2
_OPEN
 10
251.191054142065
 20
332.4884041264319
 30
0.0
 41
4.0
 42
4.0
 43
4.0
 50
180.0
  0
INSERT
  5
78B9
330
78B4
100
AcDbEntity
  8
0
 62
     0
100
AcDbBlockReference
  2
_OPEN
 10
288.575979142065
 20
332.4884041264319
 30
0.0
 41
4.0
 42
4.0
 43
4.0
  0
MTEXT
  5
78BA
330
78B4
100
AcDbEntity
  8
0
 62
     0
100
AcDbMText
 10
270.5828294866892
 20
336.4884041264318
 30
0.0
 40
5.0
 41
0.0
 71
     5
 72
     1
  1
\A1;37.5
1001
ACAD
1000
MTEXTBEGIN
1070
    73
1070
     1
1070
    44
1040
1.0
1070
    74
1070
     0
1000
MTEXTEND
1000
MTEXTBEGIN
1070
    73
1070
     1
1070
    44
1040
1.0
1070
    74
1070
     0
1000
MTEXTEND
  0
POINT
  5
78BB
330
78B4
100
AcDbEntity
  8
DEFPOINTS
 62
     0
100
AcDbPoint
 10
251.191054142065
 20
453.3944878562702
 30
0.0
  0
POINT
  5
78BC
330
78B4
100
AcDbEntity
  8
DEFPOINTS
 62
     0
100
AcDbPoint
 10
288.575979142065
 20
374.3944838562701
 30
0.0
  0
POINT
  5
78BD
330
78B4
100
AcDbEntity
  8
DEFPOINTS
 62
     0
100
AcDbPoint
 10
288.575979142065
 20
332.4884041264319
 30
0.0
  0
ENDBLK
  5
78BF
330
78B4
100
AcDbEntity
  8
0
100
AcDbBlockEnd
  0
BLOCK
  5
78CA
330
78C0
100
AcDbEntity
  8
0
100
AcDbBlockBegin
  2
*D91
 70
     1
 10
0.0
 20
0.0
 30
0.0
  3
*D91
  1

  0
LINE
  5
78C1
330
78C0
100
AcDbEntity
  8
0
 62
     0
100
AcDbLine
 10
267.875979142065
 20
379.3944828562702
 30
0.0
 11
267.875979142065
 21
347.2420131470737
 31
0.0
  0
LINE
  5
78C2
330
78C0
100
AcDbEntity
  8
0
 62
     0
100
AcDbLine
 10
288.575979142065
 20
372.3944828562701
 30
0.0
 11
288.575979142065
 21
347.2420131470737
 31
0.0
  0
LINE
  5
78C3
330
78C0
100
AcDbEntity
  8
0
 62
     0
100
AcDbLine
 10
271.875979142065
 20
348.2420131470735
 30
0.0
 11
284.575979142065
 21
348.2420131470735
 31
0.0
  0
INSERT
  5
78C4
330
78C0
100
AcDbEntity
  8
0
 62
     0
100
AcDbBlockReference
  2
_OPEN
 10
267.875979142065
 20
348.2420131470735
 30
0.0
 41
4.0
 42
4.0
 43
4.0
 50
180.0
  0
INSERT
  5
78C5
330
78C0
100
AcDbEntity
  8
0
 62
     0
100
AcDbBlockReference
  2
_OPEN
 10
288.575979142065
 20
348.2420131470735
 30
0.0
 41
4.0
 42
4.0
 43
4.0
  0
MTEXT
  5
78C6
330
78C0
100
AcDbEntity
  8
0
 62
     0
100
AcDbMText
 10
278.225979142065
 20
352.2420131470735
 30
0.0
 40
5.0
 41
0.0
 71
     5
 72
     1
  1
\A1;21
1001
ACAD
1000
MTEXTBEGIN
1070
    73
1070
     1
1070
    44
1040
1.0
1070
    74
1070
     0
1000
MTEXTEND
1000
MTEXTBEGIN
1070
    73
1070
     1
1070
    44
1040
1.0
1070
    74
1070
     0
1000
MTEXTEND
  0
POINT
  5
78C7
330
78C0
100
AcDbEntity
  8
DEFPOINTS
 62
     0
100
AcDbPoint
 10
267.875979142065
 20
380.3944828562702
 30
0.0
  0
POINT
  5
78C8
330
78C0
100
AcDbEntity
  8
DEFPOINTS
 62
     0
100
AcDbPoint
 10
288.575979142065
 20
373.3944828562702
 30
0.0
  0
POINT
  5
78C9
330
78C0
100
AcDbEntity
  8
DEFPOINTS
 62
     0
100
AcDbPoint
 10
288.575979142065
 20
348.2420131470735
 30
0.0
  0
ENDBLK
  5
78CB
330
78C0
100
AcDbEntity
  8
0
100
AcDbBlockEnd
  0
BLOCK
  5
78D6
330
78CC
100
AcDbEntity
  8
0
100
AcDbBlockBegin
  2
*D92
 70
     1
 10
0.0
 20
0.0
 30
0.0
  3
*D92
  1

  0
LINE
  5
78CD
330
78CC
100
AcDbEntity
  8
0
 62
     0
100
AcDbLine
 10
452.7269301420647
 20
509.3943738562701
 30
0.0
 11
470.5672338511773
 21
509.3943738562701
 31
0.0
  0
LINE
  5
78CE
330
78CC
100
AcDbEntity
  8
0
 62
     0
100
AcDbLine
 10
452.7269301420647
 20
399.3945998562701
 30
0.0
 11
470.5672338511773
 21
399.3945998562701
 31
0.0
  0
LINE
  5
78CF
330
78CC
100
AcDbEntity
  8
0
 62
     0
100
AcDbLine
 10
469.5672338511772
 20
505.3943738562701
 30
0.0
 11
469.5672338511772
 21
403.3945998562701
 31
0.0
  0
INSERT
  5
78D0
330
78CC
100
AcDbEntity
  8
0
 62
     0
100
AcDbBlockReference
  2
_OPEN
 10
469.5672338511772
 20
509.3943738562701
 30
0.0
 41
4.0
 42
4.0
 43
4.0
 50
90.0
  0
INSERT
  5
78D1
330
78CC
100
AcDbEntity
  8
0
 62
     0
100
AcDbBlockReference
  2
_OPEN
 10
469.5672338511772
 20
399.3945998562701
 30
0.0
 41
4.0
 42
4.0
 43
4.0
 50
270.0
  0
MTEXT
  5
78D2
330
78CC
100
AcDbEntity
  8
0
 62
     0
100
AcDbMText
 10
465.5672338511772
 20
454.3944868562702
 30
0.0
 40
5.0
 41
0.0
 71
     5
 72
     1
  1
\A1;110
 11
0.0000000000000001
 21
1.0
 31
0.0
1001
ACAD
1000
MTEXTBEGIN
1070
    73
1070
     1
1070
    44
1040
1.0
1070
    74
1070
     0
1000
MTEXTEND
1000
MTEXTBEGIN
1070
    73
1070
     1
1070
    44
1040
1.0
1070
    74
1070
     0
1000
MTEXTEND
  0
POINT
  5
78D3
330
78CC
100
AcDbEntity
  8
DEFPOINTS
 62
     0
100
AcDbPoint
 10
451.7269301420649
 20
509.3943738562701
 30
0.0
  0
POINT
  5
78D4
330
78CC
100
AcDbEntity
  8
DEFPOINTS
 62
     0
100
AcDbPoint
 10
451.7269301420649
 20
399.3945998562701
 30
0.0
  0
POINT
  5
78D5
330
78CC
100
AcDbEntity
  8
DEFPOINTS
 62
     0
100
AcDbPoint
 10
469.5672338511772
 20
399.3945998562701
 30
0.0
  0
ENDBLK
  5
78D7
330
78CC
100
AcDbEntity
  8
0
100
AcDbBlockEnd
  0
BLOCK
  5
78E4
330
78D8
100
AcDbEntity
  8
0
100
AcDbBlockBegin
  2
*D93
 70
     1
 10
0.0
 20
0.0
 30
0.0
  3
*D93
  1

  0
LINE
  5
78D9
330
78D8
100
AcDbEntity
  8
0
 62
     0
100
AcDbLine
 10
447.174494142065
 20
507.8932248562701
 30
0.0
 11
461.1220737178022
 21
507.8932248562701
 31
0.0
  0
LINE
  5
78DA
330
78D8
100
AcDbEntity
  8
0
 62
     0
100
AcDbLine
 10
447.174494142065
 20
510.8932248562703
 30
0.0
 11
461.1220737178022
 21
510.8932248562703
 31
0.0
  0
LINE
  5
78DB
330
78D8
100
AcDbEntity
  8
0
 62
     0
100
AcDbLine
 10
460.1220737178023
 20
503.8932248562701
 30
0.0
 11
460.1220737178023
 21
499.8932248562701
 31
0.0
  0
LINE
  5
78DC
330
78D8
100
AcDbEntity
  8
0
 62
     0
100
AcDbLine
 10
460.1220737178023
 20
514.8932248562703
 30
0.0
 11
460.1220737178023
 21
525.2265581896036
 31
0.0
  0
LINE
  5
78DD
330
78D8
100
AcDbEntity
  8
0
 62
     0
100
AcDbLine
 10
460.1220737178023
 20
507.8932248562701
 30
0.0
 11
460.1220737178023
 21
510.8932248562703
 31
0.0
  0
INSERT
  5
78DE
330
78D8
100
AcDbEntity
  8
0
 62
     0
100
AcDbBlockReference
  2
_OPEN
 10
460.1220737178023
 20
507.8932248562701
 30
0.0
 41
4.0
 42
4.0
 43
4.0
 50
90.0
  0
INSERT
  5
78DF
330
78D8
100
AcDbEntity
  8
0
 62
     0
100
AcDbBlockReference
  2
_OPEN
 10
460.1220737178023
 20
510.8932248562703
 30
0.0
 41
4.0
 42
4.0
 43
4.0
 50
270.0
  0
MTEXT
  5
78E0
330
78D8
100
AcDbEntity
  8
0
 62
     0
100
AcDbMText
 10
456.1220737178022
 20
522.059891522937
 30
0.0
 40
5.0
 41
0.0
 71
     5
 72
     1
  1
\A1;3
 11
0.0000000000000001
 21
1.0
 31
0.0
1001
ACAD
1000
MTEXTBEGIN
1070
    73
1070
     1
1070
    44
1040
1.0
1070
    74
1070
     0
1000
MTEXTEND
1000
MTEXTBEGIN
1070
    73
1070
     1
1070
    44
1040
1.0
1070
    74
1070
     0
1000
MTEXTEND
  0
POINT
  5
78E1
330
78D8
100
AcDbEntity
  8
DEFPOINTS
 62
     0
100
AcDbPoint
 10
446.174494142065
 20
507.8932248562701
 30
0.0
  0
POINT
  5
78E2
330
78D8
100
AcDbEntity
  8
DEFPOINTS
 62
     0
100
AcDbPoint
 10
446.174494142065
 20
510.8932248562703
 30
0.0
  0
POINT
  5
78E3
330
78D8
100
AcDbEntity
  8
DEFPOINTS
 62
     0
100
AcDbPoint
 10
460.1220737178023
 20
510.8932248562703
 30
0.0
  0
ENDBLK
  5
78E5
330
78D8
100
AcDbEntity
  8
0
100
AcDbBlockEnd
  0
BLOCK
  5
7A90
330
7A86
100
AcDbEntity
  8
0
100
AcDbBlockBegin
  2
*D94
 70
     1
 10
0.0
 20
0.0
 30
0.0
  3
*D94
  1

  0
LINE
  5
7CD2
330
7A86
100
AcDbEntity
  8
30
  6
CONTINUOUS
 62
     0
100
AcDbLine
 10
153.1958231705566
 20
-1.999999031726758
 30
0.0
 11
153.1958231705566
 21
-122.406082761565
 31
0.0
  0
LINE
  5
7CD3
330
7A86
100
AcDbEntity
  8
30
  6
CONTINUOUS
 62
     0
100
AcDbLine
 10
190.5807481705566
 20
-81.00000303172681
 30
0.0
 11
190.5807481705566
 21
-122.406082761565
 31
0.0
  0
LINE
  5
7CD4
330
7A86
100
AcDbEntity
  8
30
  6
CONTINUOUS
 62
     0
100
AcDbLine
 10
155.1958231705565
 20
-121.906082761565
 30
0.0
 11
188.5807481705566
 21
-121.906082761565
 31
0.0
  0
INSERT
  5
7CD5
330
7A86
100
AcDbEntity
  8
30
  6
CONTINUOUS
 62
     0
100
AcDbBlockReference
  2
_OPEN
 10
153.1958231705566
 20
-121.906082761565
 30
0.0
 41
2.0
 42
2.0
 43
2.0
 50
180.0
  0
INSERT
  5
7CD6
330
7A86
100
AcDbEntity
  8
30
  6
CONTINUOUS
 62
     0
100
AcDbBlockReference
  2
_OPEN
 10
190.5807481705566
 20
-121.906082761565
 30
0.0
 41
2.0
 42
2.0
 43
2.0
  0
MTEXT
  5
7CD7
330
7A86
100
AcDbEntity
  8
30
  6
CONTINUOUS
 62
     0
100
AcDbMText
 10
172.5875985151808
 20
-118.906082761565
 30
0.0
 40
4.0
 41
0.0
 71
     5
 72
     1
  1
\A1;37.5
1001
ACAD
1000
MTEXTBEGIN
1070
    73
1070
     1
1070
    44
1040
1.0
1070
    74
1070
     0
1000
MTEXTEND
1000
MTEXTBEGIN
1070
    73
1070
     1
1070
    44
1040
1.0
1070
    74
1070
     0
1000
MTEXTEND
  0
POINT
  5
7CD8
330
7A86
100
AcDbEntity
  8
DEFPOINTS
  6
CONTINUOUS
 62
     0
100
AcDbPoint
 10
153.1958231705566
 20
-0.9999990317267586
 30
0.0
  0
POINT
  5
7CD9
330
7A86
100
AcDbEntity
  8
DEFPOINTS
  6
CONTINUOUS
 62
     0
100
AcDbPoint
 10
190.5807481705566
 20
-80.00000303172681
 30
0.0
  0
POINT
  5
7CDA
330
7A86
100
AcDbEntity
  8
DEFPOINTS
  6
CONTINUOUS
 62
     0
100
AcDbPoint
 10
190.5807481705566
 20
-121.906082761565
 30
0.0
  0
ENDBLK
  5
7A91
330
7A86
100
AcDbEntity
  8
0
100
AcDbBlockEnd
  0
BLOCK
  5
7A9C
330
7A92
100
AcDbEntity
  8
0
100
AcDbBlockBegin
  2
*D95
 70
     1
 10
0.0
 20
0.0
 30
0.0
  3
*D95
  1

  0
LINE
  5
7CDB
330
7A92
100
AcDbEntity
  8
30
  6
CONTINUOUS
 62
     0
100
AcDbLine
 10
169.8807481705566
 20
-75.00000403172681
 30
0.0
 11
169.8807481705566
 21
-106.6524737409231
 31
0.0
  0
LINE
  5
7CDC
330
7A92
100
AcDbEntity
  8
30
  6
CONTINUOUS
 62
     0
100
AcDbLine
 10
190.5807481705566
 20
-82.0000040317268
 30
0.0
 11
190.5807481705566
 21
-106.6524737409231
 31
0.0
  0
LINE
  5
7CDD
330
7A92
100
AcDbEntity
  8
30
  6
CONTINUOUS
 62
     0
100
AcDbLine
 10
171.8807481705566
 20
-106.1524737409232
 30
0.0
 11
188.5807481705566
 21
-106.1524737409232
 31
0.0
  0
INSERT
  5
7CDE
330
7A92
100
AcDbEntity
  8
30
  6
CONTINUOUS
 62
     0
100
AcDbBlockReference
  2
_OPEN
 10
169.8807481705566
 20
-106.1524737409232
 30
0.0
 41
2.0
 42
2.0
 43
2.0
 50
180.0
  0
INSERT
  5
7CDF
330
7A92
100
AcDbEntity
  8
30
  6
CONTINUOUS
 62
     0
100
AcDbBlockReference
  2
_OPEN
 10
190.5807481705566
 20
-106.1524737409232
 30
0.0
 41
2.0
 42
2.0
 43
2.0
  0
MTEXT
  5
7CE0
330
7A92
100
AcDbEntity
  8
30
  6
CONTINUOUS
 62
     0
100
AcDbMText
 10
180.2307481705566
 20
-103.1524737409232
 30
0.0
 40
4.0
 41
0.0
 71
     5
 72
     1
  1
\A1;21
1001
ACAD
1000
MTEXTBEGIN
1070
    73
1070
     1
1070
    44
1040
1.0
1070
    74
1070
     0
1000
MTEXTEND
1000
MTEXTBEGIN
1070
    73
1070
     1
1070
    44
1040
1.0
1070
    74
1070
     0
1000
MTEXTEND
  0
POINT
  5
7CE1
330
7A92
100
AcDbEntity
  8
DEFPOINTS
  6
CONTINUOUS
 62
     0
100
AcDbPoint
 10
169.8807481705566
 20
-74.0000040317268
 30
0.0
  0
POINT
  5
7CE2
330
7A92
100
AcDbEntity
  8
DEFPOINTS
  6
CONTINUOUS
 62
     0
100
AcDbPoint
 10
190.5807481705566
 20
-81.0000040317268
 30
0.0
  0
POINT
  5
7CE3
330
7A92
100
AcDbEntity
  8
DEFPOINTS
  6
CONTINUOUS
 62
     0
100
AcDbPoint
 10
190.5807481705566
 20
-106.1524737409232
 30
0.0
  0
ENDBLK
  5
7A9D
330
7A92
100
AcDbEntity
  8
0
100
AcDbBlockEnd
  0
BLOCK
  5
7AA8
330
7A9E
100
AcDbEntity
  8
0
100
AcDbBlockBegin
  2
*D96
 70
     1
 10
0.0
 20
0.0
 30
0.0
  3
*D96
  1

  0
LINE
  5
7CED
330
7A9E
100
AcDbEntity
  8
30
  6
CONTINUOUS
 62
     0
100
AcDbLine
 10
354.7316991705566
 20
54.99988696827313
 30
0.0
 11
372.0720028796686
 21
54.99988696827312
 31
0.0
  0
LINE
  5
7CEE
330
7A9E
100
AcDbEntity
  8
30
  6
CONTINUOUS
 62
     0
100
AcDbLine
 10
354.7316991705566
 20
-54.99988703172681
 30
0.0
 11
372.0720028796686
 21
-54.99988703172682
 31
0.0
  0
LINE
  5
7CEF
330
7A9E
100
AcDbEntity
  8
30
  6
CONTINUOUS
 62
     0
100
AcDbLine
 10
371.5720028796686
 20
52.99988696827313
 30
0.0
 11
371.5720028796686
 21
-52.99988703172682
 31
0.0
  0
INSERT
  5
7CF0
330
7A9E
100
AcDbEntity
  8
30
  6
CONTINUOUS
 62
     0
100
AcDbBlockReference
  2
_OPEN
 10
371.5720028796686
 20
54.99988696827312
 30
0.0
 41
2.0
 42
2.0
 43
2.0
 50
90.0
  0
INSERT
  5
7CF1
330
7A9E
100
AcDbEntity
  8
30
  6
CONTINUOUS
 62
     0
100
AcDbBlockReference
  2
_OPEN
 10
371.5720028796686
 20
-54.99988703172682
 30
0.0
 41
2.0
 42
2.0
 43
2.0
 50
270.0
  0
MTEXT
  5
7CF2
330
7A9E
100
AcDbEntity
  8
30
  6
CONTINUOUS
 62
     0
100
AcDbMText
 10
368.5720028796688
 20
-0.0000000317268128
 30
0.0
 40
4.0
 41
0.0
 71
     5
 72
     1
  1
\A1;110
 11
0.0000000000000001
 21
1.0
 31
0.0
1001
ACAD
1000
MTEXTBEGIN
1070
    73
1070
     1
1070
    44
1040
1.0
1070
    74
1070
     0
1000
MTEXTEND
1000
MTEXTBEGIN
1070
    73
1070
     1
1070
    44
1040
1.0
1070
    74
1070
     0
1000
MTEXTEND
  0
POINT
  5
7CF3
330
7A9E
100
AcDbEntity
  8
DEFPOINTS
  6
CONTINUOUS
 62
     0
100
AcDbPoint
 10
353.7316991705566
 20
54.99988696827313
 30
0.0
  0
POINT
  5
7CF4
330
7A9E
100
AcDbEntity
  8
DEFPOINTS
  6
CONTINUOUS
 62
     0
100
AcDbPoint
 10
353.7316991705566
 20
-54.99988703172681
 30
0.0
  0
POINT
  5
7CF5
330
7A9E
100
AcDbEntity
  8
DEFPOINTS
  6
CONTINUOUS
 62
     0
100
AcDbPoint
 10
371.5720028796686
 20
-54.99988703172682
 30
0.0
  0
ENDBLK
  5
7AA9
330
7A9E
100
AcDbEntity
  8
0
100
AcDbBlockEnd
  0
BLOCK
  5
7AB6
330
7AAA
100
AcDbEntity
  8
0
100
AcDbBlockBegin
  2
*D97
 70
     1
 10
0.0
 20
0.0
 30
0.0
  3
*D97
  1

  0
LINE
  5
7CF6
330
7AAA
100
AcDbEntity
  8
30
  6
CONTINUOUS
 62
     0
100
AcDbLine
 10
349.1792631705566
 20
53.49873796827319
 30
0.0
 11
362.6268427462937
 21
53.49873796827319
 31
0.0
  0
LINE
  5
7CF7
330
7AAA
100
AcDbEntity
  8
30
  6
CONTINUOUS
 62
     0
100
AcDbLine
 10
349.1792631705566
 20
56.49873796827328
 30
0.0
 11
362.6268427462937
 21
56.49873796827328
 31
0.0
  0
LINE
  5
7CF8
330
7AAA
100
AcDbEntity
  8
30
  6
CONTINUOUS
 62
     0
100
AcDbLine
 10
362.1268427462938
 20
51.49873796827319
 30
0.0
 11
362.1268427462938
 21
49.49873796827318
 31
0.0
  0
LINE
  5
7CF9
330
7AAA
100
AcDbEntity
  8
30
  6
CONTINUOUS
 62
     0
100
AcDbLine
 10
362.1268427462938
 20
58.49873796827329
 30
0.0
 11
362.1268427462938
 21
60.49873796827331
 31
0.0
  0
LINE
  5
7CFA
330
7AAA
100
AcDbEntity
  8
30
  6
CONTINUOUS
 62
     0
100
AcDbLine
 10
362.1268427462938
 20
60.49873796827331
 30
0.0
 11
365.7935094129606
 21
60.49873796827331
 31
0.0
  0
INSERT
  5
7CFB
330
7AAA
100
AcDbEntity
  8
30
  6
CONTINUOUS
 62
     0
100
AcDbBlockReference
  2
_OPEN
 10
362.1268427462938
 20
53.49873796827319
 30
0.0
 41
2.0
 42
2.0
 43
2.0
 50
90.0
  0
INSERT
  5
7CFC
330
7AAA
100
AcDbEntity
  8
30
  6
CONTINUOUS
 62
     0
100
AcDbBlockReference
  2
_OPEN
 10
362.1268427462938
 20
56.49873796827328
 30
0.0
 41
2.0
 42
2.0
 43
2.0
 50
270.0
  0
MTEXT
  5
7CFD
330
7AAA
100
AcDbEntity
  8
30
  6
CONTINUOUS
 62
     0
100
AcDbMText
 10
364.4601760796271
 20
63.49873796827336
 30
0.0
 40
4.0
 41
0.0
 71
     5
 72
     1
  1
\A1;3
1001
ACAD
1000
MTEXTBEGIN
1070
    73
1070
     1
1070
    44
1040
1.0
1070
    74
1070
     0
1000
MTEXTEND
1000
MTEXTBEGIN
1070
    73
1070
     1
1070
    44
1040
1.0
1070
    74
1070
     0
1000
MTEXTEND
  0
POINT
  5
7CFE
330
7AAA
100
AcDbEntity
  8
DEFPOINTS
  6
CONTINUOUS
 62
     0
100
AcDbPoint
 10
348.1792631705566
 20
53.49873796827319
 30
0.0
  0
POINT
  5
7CFF
330
7AAA
100
AcDbEntity
  8
DEFPOINTS
  6
CONTINUOUS
 62
     0
100
AcDbPoint
 10
348.1792631705566
 20
56.49873796827328
 30
0.0
  0
POINT
  5
7D00
330
7AAA
100
AcDbEntity
  8
DEFPOINTS
  6
CONTINUOUS
 62
     0
100
AcDbPoint
 10
362.1268427462938
 20
56.49873796827328
 30
0.0
  0
ENDBLK
  5
7AB7
330
7AAA
100
AcDbEntity
  8
0
100
AcDbBlockEnd
  0
BLOCK
  5
7B0C
330
7B02
100
AcDbEntity
  8
0
100
AcDbBlockBegin
  2
*D98
 70
     1
 10
0.0
 20
0.0
 30
0.0
  3
*D98
  1

  0
LINE
  5
7B03
330
7B02
100
AcDbEntity
  8
0
 62
     0
100
AcDbLine
 10
36.17450814206501
 20
375.3944868562701
 30
0.0
 11
36.17450814206501
 21
352.1409973585588
 31
0.0
  0
LINE
  5
7B04
330
7B02
100
AcDbEntity
  8
0
 62
     0
100
AcDbLine
 10
154.1745081420649
 20
373.3944868562701
 30
0.0
 11
154.1745081420649
 21
352.1409973585588
 31
0.0
  0
LINE
  5
7B05
330
7B02
100
AcDbEntity
  8
0
 62
     0
100
AcDbLine
 10
40.174508142065
 20
353.1409973585589
 30
0.0
 11
150.1745081420649
 21
353.1409973585589
 31
0.0
  0
INSERT
  5
7B06
330
7B02
100
AcDbEntity
  8
0
 62
     0
100
AcDbBlockReference
  2
_OPEN
 10
36.17450814206501
 20
353.1409973585589
 30
0.0
 41
4.0
 42
4.0
 43
4.0
 50
180.0
  0
INSERT
  5
7B07
330
7B02
100
AcDbEntity
  8
0
 62
     0
100
AcDbBlockReference
  2
_OPEN
 10
154.1745081420649
 20
353.1409973585589
 30
0.0
 41
4.0
 42
4.0
 43
4.0
  0
MTEXT
  5
7B08
330
7B02
100
AcDbEntity
  8
0
 62
     0
100
AcDbMText
 10
95.17450814206499
 20
357.1409973585588
 30
0.0
 40
5.0
 41
0.0
 71
     5
 72
     1
  1
\A1;118
1001
ACAD
1000
MTEXTBEGIN
1070
    73
1070
     1
1070
    44
1040
1.0
1070
    74
1070
     0
1000
MTEXTEND
1000
MTEXTBEGIN
1070
    73
1070
     1
1070
    44
1040
1.0
1070
    74
1070
     0
1000
MTEXTEND
  0
POINT
  5
7B09
330
7B02
100
AcDbEntity
  8
DEFPOINTS
 62
     0
100
AcDbPoint
 10
36.17450814206501
 20
376.3944868562702
 30
0.0
  0
POINT
  5
7B0A
330
7B02
100
AcDbEntity
  8
DEFPOINTS
 62
     0
100
AcDbPoint
 10
154.1745081420649
 20
374.3944868562702
 30
0.0
  0
POINT
  5
7B0B
330
7B02
100
AcDbEntity
  8
DEFPOINTS
 62
     0
100
AcDbPoint
 10
154.1745081420649
 20
353.1409973585589
 30
0.0
  0
ENDBLK
  5
7B0D
330
7B02
100
AcDbEntity
  8
0
100
AcDbBlockEnd
  0
BLOCK
  5
7B18
330
7B0E
100
AcDbEntity
  8
0
100
AcDbBlockBegin
  2
*D99
 70
     1
 10
0.0
 20
0.0
 30
0.0
  3
*D99
  1

  0
LINE
  5
7B0F
330
7B0E
100
AcDbEntity
  8
0
 62
     0
100
AcDbLine
 10
153.1745081420649
 20
534.3944868562703
 30
0.0
 11
175.2351028733124
 21
534.3944868562703
 31
0.0
  0
LINE
  5
7B10
330
7B0E
100
AcDbEntity
  8
0
 62
     0
100
AcDbLine
 10
153.1745081420649
 20
374.3944868562702
 30
0.0
 11
175.2351028733123
 21
374.3944868562702
 31
0.0
  0
LINE
  5
7B11
330
7B0E
100
AcDbEntity
  8
0
 62
     0
100
AcDbLine
 10
174.2351028733124
 20
530.3944868562703
 30
0.0
 11
174.2351028733123
 21
378.3944868562702
 31
0.0
  0
INSERT
  5
7B12
330
7B0E
100
AcDbEntity
  8
0
 62
     0
100
AcDbBlockReference
  2
_OPEN
 10
174.2351028733124
 20
534.3944868562703
 30
0.0
 41
4.0
 42
4.0
 43
4.0
 50
90.0
  0
INSERT
  5
7B13
330
7B0E
100
AcDbEntity
  8
0
 62
     0
100
AcDbBlockReference
  2
_OPEN
 10
174.2351028733123
 20
374.3944868562702
 30
0.0
 41
4.0
 42
4.0
 43
4.0
 50
270.0
  0
MTEXT
  5
7B14
330
7B0E
100
AcDbEntity
  8
0
 62
     0
100
AcDbMText
 10
170.2351028733123
 20
454.3944868562703
 30
0.0
 40
5.0
 41
0.0
 71
     5
 72
     1
  1
\A1;160
 11
0.0000000000000001
 21
1.0
 31
0.0
1001
ACAD
1000
MTEXTBEGIN
1070
    73
1070
     1
1070
    44
1040
1.0
1070
    74
1070
     0
1000
MTEXTEND
1000
MTEXTBEGIN
1070
    73
1070
     1
1070
    44
1040
1.0
1070
    74
1070
     0
1000
MTEXTEND
  0
POINT
  5
7B15
330
7B0E
100
AcDbEntity
  8
DEFPOINTS
 62
     0
100
AcDbPoint
 10
152.1745081420649
 20
534.3944868562703
 30
0.0
  0
POINT
  5
7B16
330
7B0E
100
AcDbEntity
  8
DEFPOINTS
 62
     0
100
AcDbPoint
 10
152.1745081420649
 20
374.3944868562702
 30
0.0
  0
POINT
  5
7B17
330
7B0E
100
AcDbEntity
  8
DEFPOINTS
 62
     0
100
AcDbPoint
 10
174.2351028733123
 20
374.3944868562702
 30
0.0
  0
ENDBLK
  5
7B19
330
7B0E
100
AcDbEntity
  8
0
100
AcDbBlockEnd
  0
BLOCK
  5
7BA8
330
7B9E
100
AcDbEntity
  8
0
100
AcDbBlockBegin
  2
*D100
 70
     1
 10
0.0
 20
0.0
 30
0.0
  3
*D100
  1

  0
LINE
  5
7C8A
330
7B9E
100
AcDbEntity
  8
30
  6
CONTINUOUS
 62
     0
100
AcDbLine
 10
-58.99999999999998
 20
-79.0000000000001
 30
0.0
 11
-58.99999999999998
 21
-101.7534894977114
 31
0.0
  0
LINE
  5
7C8B
330
7B9E
100
AcDbEntity
  8
30
  6
CONTINUOUS
 62
     0
100
AcDbLine
 10
58.99999999999998
 20
-81.00000000000013
 30
0.0
 11
58.99999999999998
 21
-101.7534894977114
 31
0.0
  0
LINE
  5
7C8C
330
7B9E
100
AcDbEntity
  8
30
  6
CONTINUOUS
 62
     0
100
AcDbLine
 10
-56.99999999999999
 20
-101.2534894977114
 30
0.0
 11
56.99999999999999
 21
-101.2534894977114
 31
0.0
  0
INSERT
  5
7C8D
330
7B9E
100
AcDbEntity
  8
30
  6
CONTINUOUS
 62
     0
100
AcDbBlockReference
  2
_OPEN
 10
-58.99999999999998
 20
-101.2534894977114
 30
0.0
 41
2.0
 42
2.0
 43
2.0
 50
180.0
  0
INSERT
  5
7C8E
330
7B9E
100
AcDbEntity
  8
30
  6
CONTINUOUS
 62
     0
100
AcDbBlockReference
  2
_OPEN
 10
58.99999999999998
 20
-101.2534894977114
 30
0.0
 41
2.0
 42
2.0
 43
2.0
  0
MTEXT
  5
7C8F
330
7B9E
100
AcDbEntity
  8
30
  6
CONTINUOUS
 62
     0
100
AcDbMText
 10
0.0000000000000002
 20
-98.25348949771143
 30
0.0
 40
4.0
 41
0.0
 71
     5
 72
     1
  1
\A1;118
1001
ACAD
1000
MTEXTBEGIN
1070
    73
1070
     1
1070
    44
1040
1.0
1070
    74
1070
     0
1000
MTEXTEND
1000
MTEXTBEGIN
1070
    73
1070
     1
1070
    44
1040
1.0
1070
    74
1070
     0
1000
MTEXTEND
  0
POINT
  5
7C90
330
7B9E
100
AcDbEntity
  8
DEFPOINTS
  6
CONTINUOUS
 62
     0
100
AcDbPoint
 10
-58.99999999999998
 20
-78.0000000000001
 30
0.0
  0
POINT
  5
7C91
330
7B9E
100
AcDbEntity
  8
DEFPOINTS
  6
CONTINUOUS
 62
     0
100
AcDbPoint
 10
58.99999999999998
 20
-80.00000000000012
 30
0.0
  0
POINT
  5
7C92
330
7B9E
100
AcDbEntity
  8
DEFPOINTS
  6
CONTINUOUS
 62
     0
100
AcDbPoint
 10
58.99999999999998
 20
-101.2534894977114
 30
0.0
  0
ENDBLK
  5
7BA9
330
7B9E
100
AcDbEntity
  8
0
100
AcDbBlockEnd
  0
BLOCK
  5
7BB4
330
7BAA
100
AcDbEntity
  8
0
100
AcDbBlockBegin
  2
*D101
 70
     1
 10
0.0
 20
0.0
 30
0.0
  3
*D101
  1

  0
LINE
  5
7C93
330
7BAA
100
AcDbEntity
  8
30
  6
CONTINUOUS
 62
     0
100
AcDbLine
 10
57.99999999999999
 20
80.0
 30
0.0
 11
79.56059473124733
 21
80.0
 31
0.0
  0
LINE
  5
7C94
330
7BAA
100
AcDbEntity
  8
30
  6
CONTINUOUS
 62
     0
100
AcDbLine
 10
57.99999999999998
 20
-80.00000000000012
 30
0.0
 11
79.56059473124731
 21
-80.00000000000012
 31
0.0
  0
LINE
  5
7C95
330
7BAA
100
AcDbEntity
  8
30
  6
CONTINUOUS
 62
     0
100
AcDbLine
 10
79.06059473124734
 20
78.0
 30
0.0
 11
79.06059473124731
 21
-78.0000000000001
 31
0.0
  0
INSERT
  5
7C96
330
7BAA
100
AcDbEntity
  8
30
  6
CONTINUOUS
 62
     0
100
AcDbBlockReference
  2
_OPEN
 10
79.06059473124734
 20
80.0
 30
0.0
 41
2.0
 42
2.0
 43
2.0
 50
90.0
  0
INSERT
  5
7C97
330
7BAA
100
AcDbEntity
  8
30
  6
CONTINUOUS
 62
     0
100
AcDbBlockReference
  2
_OPEN
 10
79.06059473124731
 20
-80.00000000000012
 30
0.0
 41
2.0
 42
2.0
 43
2.0
 50
270.0
  0
MTEXT
  5
7C98
330
7BAA
100
AcDbEntity
  8
30
  6
CONTINUOUS
 62
     0
100
AcDbMText
 10
76.0605947312473
 20
0.0000000000000004
 30
0.0
 40
4.0
 41
0.0
 71
     5
 72
     1
  1
\A1;160
 11
0.0000000000000001
 21
1.0
 31
0.0
1001
ACAD
1000
MTEXTBEGIN
1070
    73
1070
     1
1070
    44
1040
1.0
1070
    74
1070
     0
1000
MTEXTEND
1000
MTEXTBEGIN
1070
    73
1070
     1
1070
    44
1040
1.0
1070
    74
1070
     0
1000
MTEXTEND
  0
POINT
  5
7C99
330
7BAA
100
AcDbEntity
  8
DEFPOINTS
  6
CONTINUOUS
 62
     0
100
AcDbPoint
 10
56.99999999999999
 20
80.0
 30
0.0
  0
POINT
  5
7C9A
330
7BAA
100
AcDbEntity
  8
DEFPOINTS
  6
CONTINUOUS
 62
     0
100
AcDbPoint
 10
56.99999999999999
 20
-80.00000000000012
 30
0.0
  0
POINT
  5
7C9B
330
7BAA
100
AcDbEntity
  8
DEFPOINTS
  6
CONTINUOUS
 62
     0
100
AcDbPoint
 10
79.06059473124731
 20
-80.00000000000012
 30
0.0
  0
ENDBLK
  5
7BB5
330
7BAA
100
AcDbEntity
  8
0
100
AcDbBlockEnd
  0
BLOCK
  5
7C7D
330
7C73
100
AcDbEntity
  8
0
100
AcDbBlockBegin
  2
*D102
 70
     1
 10
0.0
 20
0.0
 30
0.0
  3
*D102
  1

  0
LINE
  5
7C74
330
7C73
100
AcDbEntity
  8
30
  6
CONTINUOUS
 62
     0
100
AcDbLine
 10
-7.0
 20
330.8013058146941
 30
0.0
 11
-6.999999999999999
 21
344.3608897588087
 31
0.0
  0
LINE
  5
7C75
330
7C73
100
AcDbEntity
  8
30
  6
CONTINUOUS
 62
     0
100
AcDbLine
 10
7.0
 20
330.8013058146941
 30
0.0
 11
7.0
 21
344.3608897588087
 31
0.0
  0
LINE
  5
7C76
330
7C73
100
AcDbEntity
  8
30
  6
CONTINUOUS
 62
     0
100
AcDbLine
 10
-4.999999999999999
 20
343.8608897588085
 30
0.0
 11
5.0
 21
343.8608897588085
 31
0.0
  0
INSERT
  5
7C77
330
7C73
100
AcDbEntity
  8
30
  6
CONTINUOUS
 62
     0
100
AcDbBlockReference
  2
_OPEN
 10
-6.999999999999999
 20
343.8608897588085
 30
0.0
 41
2.0
 42
2.0
 43
2.0
 50
180.0
  0
INSERT
  5
7C78
330
7C73
100
AcDbEntity
  8
30
  6
CONTINUOUS
 62
     0
100
AcDbBlockReference
  2
_OPEN
 10
7.0
 20
343.8608897588085
 30
0.0
 41
2.0
 42
2.0
 43
2.0
  0
MTEXT
  5
7C79
330
7C73
100
AcDbEntity
  8
30
  6
CONTINUOUS
 62
     0
100
AcDbMText
 10
0.0000000000000011
 20
346.8608897588087
 30
0.0
 40
4.0
 41
0.0
 71
     5
 72
     1
  1
\A1;14
1001
ACAD
1000
MTEXTBEGIN
1070
    73
1070
     1
1070
    44
1040
1.0
1070
    74
1070
     0
1000
MTEXTEND
1000
MTEXTBEGIN
1070
    73
1070
     1
1070
    44
1040
1.0
1070
    74
1070
     0
1000
MTEXTEND
  0
POINT
  5
7C7A
330
7C73
100
AcDbEntity
  8
DEFPOINTS
  6
CONTINUOUS
 62
     0
100
AcDbPoint
 10
-7.0
 20
329.8013058146941
 30
0.0
  0
POINT
  5
7C7B
330
7C73
100
AcDbEntity
  8
DEFPOINTS
  6
CONTINUOUS
 62
     0
100
AcDbPoint
 10
7.0
 20
329.8013058146941
 30
0.0
  0
POINT
  5
7C7C
330
7C73
100
AcDbEntity
  8
DEFPOINTS
  6
CONTINUOUS
 62
     0
100
AcDbPoint
 10
7.0
 20
343.8608897588085
 30
0.0
  0
ENDBLK
  5
7C7E
330
7C73
100
AcDbEntity
  8
0
100
AcDbBlockEnd
  0
ENDSEC
  0
SECTION
  2
ENTITIES
  0
LINE
  5
B4
330
1E
100
AcDbEntity
  8
16
100
AcDbLine
 10
0.0
 20
-101.8246001220914
 30
0.0
 11
0.0
 21
105.6073578546832
 31
0.0
  0
LINE
  5
B5
330
1E
100
AcDbEntity
  8
16
100
AcDbLine
 10
71.77465564206305
 20
-0.0000000000000027
 30
0.0
 11
-83.90588178115756
 21
-0.0000000000000027
 31
0.0
  0
MTEXT
  5
BF3
330
1E
100
AcDbEntity
  8
24
  6
CONTINUOUS
100
AcDbMText
 10
140.9820964648284
 20
176.3476821548369
 30
0.0
 40
3.0
 41
0.0
 71
     1
 72
     1
  1
\A1;
1001
ACAD
1000
MTEXTBEGIN
1070
    73
1070
     1
1070
    44
1040
1.0
1070
    74
1070
     0
1000
MTEXTEND
1000
MTEXTBEGIN
1070
    73
1070
     1
1070
    44
1040
1.0
1070
    74
1070
     0
1000
MTEXTEND
  0
LINE
  5
1C9B
330
1E
100
AcDbEntity
  8
16
100
AcDbLine
 10
285.3610701340853
 20
0.0000000000001137
 30
0.0
 11
153.1958225219156
 21
0.0000000000001137
 31
0.0
  0
LINE
  5
2260
330
1E
100
AcDbEntity
  8
16
100
AcDbLine
 10
68.90389754940699
 20
-250.8473940210349
 30
0.0
 11
-80.54991320158091
 21
-250.8473940210349
 31
0.0
  0
LINE
  5
2261
330
1E
100
AcDbEntity
  8
16
100
AcDbLine
 10
0.0
 20
-348.5993337838806
 30
0.0
 11
0.0
 21
-149.4639948115489
 31
0.0
  0
LINE
  5
4C5A
330
1E
100
AcDbEntity
  8
16
100
AcDbLine
 10
88.49441808474184
 20
-0.0000000000000027
 30
0.0
 11
-83.90588178115756
 21
-0.0000000000000027
 31
0.0
  0
MTEXT
  5
5C78
330
1E
100
AcDbEntity
  8
30
  6
CONTINUOUS
100
AcDbMText
 10
162.3297648581359
 20
88.99793930010117
 30
0.0
 40
4.0
 41
0.0
 71
     9
 72
     1
  1

1001
ACAD
1000
MTEXTBEGIN
1070
    73
1070
     1
1070
    44
1040
1.0
1070
    74
1070
     0
1000
MTEXTEND
1000
MTEXTBEGIN
1070
    73
1070
     1
1070
    44
1040
1.0
1070
    74
1070
     0
1000
MTEXTEND
  0
MTEXT
  5
6200
330
1E
100
AcDbEntity
  8
30
  6
CONTINUOUS
100
AcDbMText
 10
160.6290066227675
 20
91.2377397662035
 30
0.0
 40
4.0
 41
0.0
 71
     9
 72
     1
  1

1001
ACAD
1000
MTEXTBEGIN
1070
    73
1070
     1
1070
    44
1040
1.0
1070
    74
1070
     0
1000
MTEXTEND
1000
MTEXTBEGIN
1070
    73
1070
     1
1070
    44
1040
1.0
1070
    74
1070
     0
1000
MTEXTEND
  0
LINE
  5
7128
330
1E
100
AcDbEntity
  8
16
100
AcDbLine
 10
0.0
 20
126.4296562918458
 30
0.0
 11
0.0
 21
331.0371252918457
 31
0.0
  0
TEXT
  5
74C7
330
1E
100
AcDbEntity
  8
0
  6
CONTINUOUS
100
AcDbText
 10
154.7175729249133
 20
231.318963128003
 30
0.0
 40
5.0
  1
E60-NF 3P FP
  7
SMP-SET
100
AcDbText
  0
TEXT
  5
74C8
330
1E
100
AcDbEntity
  8
0
  6
CONTINUOUS
100
AcDbText
 10
154.7175729249133
 20
251.3189631280031
 30
0.0
 40
5.0
  1
S50-CF 3P FP
  7
SMP-SET
100
AcDbText
  0
TEXT
  5
74C9
330
1E
100
AcDbEntity
  8
0
  6
CONTINUOUS
100
AcDbText
 10
154.7175729249133
 20
241.318963128003
 30
0.0
 40
5.0
  1
S50-NF 3P FP
  7
SMP-SET
100
AcDbText
  0
TEXT
  5
74CA
330
1E
100
AcDbEntity
  8
0
  6
CONTINUOUS
100
AcDbText
 10
154.7175729249133
 20
221.318963128003
 30
0.0
 40
5.0
  1
S60-NF 3P FP
  7
SMP-SET
100
AcDbText
  0
TEXT
  5
74CB
330
1E
100
AcDbEntity
  8
0
  6
CONTINUOUS
100
AcDbText
 10
154.7175729249133
 20
261.318963128003
 30
0.0
 40
5.0
  1
E50-NF 3P FP
  7
SMP-SET
100
AcDbText
  0
TEXT
  5
74CC
330
1E
100
AcDbEntity
  8
0
  6
CONTINUOUS
100
AcDbText
 10
154.7175729249133
 20
281.318963128003
 30
0.0
 40
5.0
  1
E30-NF 3P FP
  7
SMP-SET
100
AcDbText
  0
TEXT
  5
74CD
330
1E
100
AcDbEntity
  8
0
  6
CONTINUOUS
100
AcDbText
 10
154.7175729249133
 20
271.318963128003
 30
0.0
 40
5.0
  1
S30-NF 3P FP
  7
SMP-SET
100
AcDbText
  0
TEXT
  5
74CE
330
1E
100
AcDbEntity
  8
0
  6
CONTINUOUS
100
AcDbText
 10
364.7175729249133
 20
221.318963128003
 30
0.0
 40
5.0
  1
ZE100-NM 3P FP
  7
SMP-SET
100
AcDbText
  0
TEXT
  5
74CF
330
1E
100
AcDbEntity
  8
0
  6
CONTINUOUS
100
AcDbText
 10
364.7175729249133
 20
251.3189631280031
 30
0.0
 40
5.0
  1
ZS30-NM 3P FP
  7
SMP-SET
100
AcDbText
  0
TEXT
  5
74D0
330
1E
100
AcDbEntity
  8
0
  6
CONTINUOUS
100
AcDbText
 10
364.7175729249133
 20
241.318963128003
 30
0.0
 40
5.0
  1
ZE50-NM 3P FP
  7
SMP-SET
100
AcDbText
  0
TEXT
  5
74D1
330
1E
100
AcDbEntity
  8
0
  6
CONTINUOUS
100
AcDbText
 10
364.7175729249133
 20
231.318963128003
 30
0.0
 40
5.0
  1
ZS50-CM 3P FP
  7
SMP-SET
100
AcDbText
  0
TEXT
  5
74D2
330
1E
100
AcDbEntity
  8
0
  6
CONTINUOUS
100
AcDbText
 10
364.7175729249133
 20
281.318963128003
 30
0.0
 40
5.0
  1
ZS60-NF 3P FP
  7
SMP-SET
100
AcDbText
  0
TEXT
  5
74D3
330
1E
100
AcDbEntity
  8
0
  6
CONTINUOUS
100
AcDbText
 10
364.7175729249133
 20
271.318963128003
 30
0.0
 40
5.0
  1
ZE100-NF 3P FP
  7
SMP-SET
100
AcDbText
  0
TEXT
  5
74D4
330
1E
100
AcDbEntity
  8
0
  6
CONTINUOUS
100
AcDbText
 10
364.7175729249133
 20
261.318963128003
 30
0.0
 40
5.0
  1
ZE30-NM 3P FP
  7
SMP-SET
100
AcDbText
  0
TEXT
  5
74D5
330
1E
100
AcDbEntity
  8
0
  6
CONTINUOUS
100
AcDbText
 10
224.7175729249133
 20
231.318963128003
 30
0.0
 40
5.0
  1
E100-NM 3P FP
  7
SMP-SET
100
AcDbText
  0
TEXT
  5
74D6
330
1E
100
AcDbEntity
  8
0
  6
CONTINUOUS
100
AcDbText
 10
224.7175729249133
 20
241.318963128003
 30
0.0
 40
5.0
  1
S50-NM 3P FP
  7
SMP-SET
100
AcDbText
  0
TEXT
  5
74D7
330
1E
100
AcDbEntity
  8
0
  6
CONTINUOUS
100
AcDbText
 10
224.7175729249133
 20
221.318963128003
 30
0.0
 40
5.0
  1
E30-NN 3P FP
  7
SMP-SET
100
AcDbText
  0
TEXT
  5
74D8
330
1E
100
AcDbEntity
  8
0
  6
CONTINUOUS
100
AcDbText
 10
224.7175729249133
 20
251.3189631280031
 30
0.0
 40
5.0
  1
E50-NM 3P FP
  7
SMP-SET
100
AcDbText
  0
TEXT
  5
74D9
330
1E
100
AcDbEntity
  8
0
  6
CONTINUOUS
100
AcDbText
 10
224.7175729249133
 20
281.318963128003
 30
0.0
 40
5.0
  1
E100-NF 3P FP
  7
SMP-SET
100
AcDbText
  0
TEXT
  5
74DA
330
1E
100
AcDbEntity
  8
0
  6
CONTINUOUS
100
AcDbText
 10
224.7175729249133
 20
271.318963128003
 30
0.0
 40
5.0
  1
E30-NM 3P FP
  7
SMP-SET
100
AcDbText
  0
TEXT
  5
74DB
330
1E
100
AcDbEntity
  8
0
  6
CONTINUOUS
100
AcDbText
 10
224.7175729249133
 20
261.318963128003
 30
0.0
 40
5.0
  1
S30-NM 3P FP
  7
SMP-SET
100
AcDbText
  0
TEXT
  5
74DC
330
1E
100
AcDbEntity
  8
0
  6
CONTINUOUS
100
AcDbText
 10
294.7175729249133
 20
221.318963128003
 30
0.0
 40
5.0
  1
ZE60-NF 3P FP
  7
SMP-SET
100
AcDbText
  0
TEXT
  5
74DD
330
1E
100
AcDbEntity
  8
0
  6
CONTINUOUS
100
AcDbText
 10
294.7175729249133
 20
241.318963128003
 30
0.0
 40
5.0
  1
ZE50-NF 3P FP
  7
SMP-SET
100
AcDbText
  0
TEXT
  5
74DE
330
1E
100
AcDbEntity
  8
0
  6
CONTINUOUS
100
AcDbText
 10
294.7175729249133
 20
231.318963128003
 30
0.0
 40
5.0
  1
ZS50-NF 3P FP
  7
SMP-SET
100
AcDbText
  0
TEXT
  5
74DF
330
1E
100
AcDbEntity
  8
0
  6
CONTINUOUS
100
AcDbText
 10
294.7175729249133
 20
251.3189631280031
 30
0.0
 40
5.0
  1
ZS30-NF 3P FP
  7
SMP-SET
100
AcDbText
  0
TEXT
  5
74E0
330
1E
100
AcDbEntity
  8
0
  6
CONTINUOUS
100
AcDbText
 10
294.7175729249133
 20
271.318963128003
 30
0.0
 40
5.0
  1
E100-NN 3P FP
  7
SMP-SET
100
AcDbText
  0
TEXT
  5
74E1
330
1E
100
AcDbEntity
  8
0
  6
CONTINUOUS
100
AcDbText
 10
294.7175729249133
 20
261.318963128003
 30
0.0
 40
5.0
  1
ZE30-NF 3P FP
  7
SMP-SET
100
AcDbText
  0
TEXT
  5
74E2
330
1E
100
AcDbEntity
  8
0
  6
CONTINUOUS
100
AcDbText
 10
294.7175729249133
 20
281.318963128003
 30
0.0
 40
5.0
  1
E50-NN 3P FP
  7
SMP-SET
100
AcDbText
  0
LINE
  5
75E6
330
1E
100
AcDbEntity
  8
11
 48
2.0
100
AcDbLine
 10
-46.50006699999993
 20
-320.8475190210348
 30
0.0
 11
46.50006799999993
 21
-320.8475190210348
 31
0.0
  0
LINE
  5
75E7
330
1E
100
AcDbEntity
  8
11
 48
2.0
100
AcDbLine
 10
-46.50006699999993
 20
-180.8472690210349
 30
0.0
 11
46.50006799999993
 21
-180.8472690210349
 31
0.0
  0
LINE
  5
75E8
330
1E
100
AcDbEntity
  8
18
  6
DIVIDE
100
AcDbLine
 10
-56.0
 20
-330.847394021035
 30
0.0
 11
55.99999999999988
 21
-330.847394021035
 31
0.0
  0
LINE
  5
75E9
330
1E
100
AcDbEntity
  8
18
  6
DIVIDE
100
AcDbLine
 10
-56.0
 20
-170.8473940210348
 30
0.0
 11
55.99999999999988
 21
-170.8473940210348
 31
0.0
  0
DIMENSION
  5
75EA
330
1E
100
AcDbEntity
  8
30
  6
CONTINUOUS
100
AcDbDimension
  2
*D74
 10
51.49999999999999
 20
-371.2520629588784
 30
0.0
 11
0.0
 21
-371.2520629588784
 31
0.0
 70
   160
  1
103
  3
STANDARD
100
AcDbAlignedDimension
 13
-51.5
 23
-293.1777520210349
 33
0.0
 14
51.5
 24
-293.1777520210349
 34
0.0
100
AcDbRotatedDimension
1001
ACAD
1000
DSTYLE
1002
{
1070
    79
1070
     3
1002
}
  0
DIMENSION
  5
75EB
330
1E
100
AcDbEntity
  8
30
  6
CONTINUOUS
100
AcDbDimension
  2
*D75
 10
46.50006799999993
 20
-353.287888275577
 30
0.0
 11
0.0000004999999419
 21
-353.287888275577
 31
0.0
 70
   160
  1
93
  3
STANDARD
100
AcDbAlignedDimension
 13
-46.50006699999993
 23
-320.8475190210348
 33
0.0
 14
46.50006799999993
 24
-321.8475170210349
 34
0.0
100
AcDbRotatedDimension
1001
ACAD
1000
DSTYLE
1002
{
1070
    79
1070
     3
1002
}
  0
LINE
  5
75EC
330
1E
100
AcDbEntity
  8
11
 48
2.0
100
AcDbLine
 10
-46.50006699999993
 20
-180.8472690210349
 30
0.0
 11
-46.50006699999993
 21
-320.8475190210348
 31
0.0
  0
LINE
  5
75ED
330
1E
100
AcDbEntity
  8
18
  6
DIVIDE
100
AcDbLine
 10
-59.0
 20
-173.8473940210347
 30
0.0
 11
-59.0
 21
-327.847394021035
 31
0.0
  0
ARC
  5
75EE
330
1E
100
AcDbEntity
  8
18
  6
DIVIDE
100
AcDbCircle
 10
-56.0
 20
-327.847394021035
 30
0.0
 40
3.0
100
AcDbArc
 50
180.0
 51
270.0
  0
POINT
  5
75EF
330
1E
100
AcDbEntity
  8
18
  6
DIVIDE
100
AcDbPoint
 10
-46.50006699999993
 20
-321.8475170210349
 30
0.0
  0
CIRCLE
  5
75F0
330
1E
100
AcDbEntity
  8
12
  6
CONTINUOUS
 62
     3
100
AcDbCircle
 10
-51.5
 20
-283.8473940210349
 30
0.0
 40
3.0
  0
LINE
  5
75F1
330
1E
100
AcDbEntity
  8
12
  6
CONTINUOUS
 62
     3
100
AcDbLine
 10
-57.99893000000007
 20
-283.8473940210349
 30
0.0
 11
-44.86079000000006
 21
-283.8473940210349
 31
0.0
  0
LINE
  5
75F2
330
1E
100
AcDbEntity
  8
12
  6
CONTINUOUS
 62
     3
100
AcDbLine
 10
-51.5
 20
-292.1777520210349
 30
0.0
 11
-51.5
 21
-276.606624021035
 31
0.0
  0
INSERT
  5
75F3
330
1E
100
AcDbEntity
  8
12
  6
CONTINUOUS
 62
     3
100
AcDbBlockReference
  2
_OPEN
 10
-53.54249600000002
 20
-286.221589021035
 30
0.0
 41
3.999999999999991
 42
4.0
 43
4.0
 50
57.75856059237646
  0
LINE
  5
75F4
330
1E
100
AcDbEntity
  8
12
  6
CONTINUOUS
 62
     3
100
AcDbLine
 10
-51.5
 20
-209.5170350210349
 30
0.0
 11
-51.5
 21
-225.088164021035
 31
0.0
  0
CIRCLE
  5
75F5
330
1E
100
AcDbEntity
  8
12
  6
CONTINUOUS
 62
     3
100
AcDbCircle
 10
-51.5
 20
-217.8473940210349
 30
0.0
 40
3.0
  0
LINE
  5
75F6
330
1E
100
AcDbEntity
  8
12
  6
CONTINUOUS
 62
     3
100
AcDbLine
 10
-57.99893000000007
 20
-217.8473940210349
 30
0.0
 11
-44.86079000000006
 21
-217.8473940210349
 31
0.0
  0
ARC
  5
75F7
330
1E
100
AcDbEntity
  8
18
  6
DIVIDE
100
AcDbCircle
 10
-56.0
 20
-173.8473940210347
 30
0.0
 40
3.0
100
AcDbArc
 50
90.0
 51
180.0
  0
LINE
  5
75F9
330
1E
100
AcDbEntity
  8
11
 48
2.0
100
AcDbLine
 10
46.50006799999993
 20
-320.8475190210348
 30
0.0
 11
46.50006799999993
 21
-180.8472690210349
 31
0.0
  0
LINE
  5
75FA
330
1E
100
AcDbEntity
  8
18
  6
DIVIDE
100
AcDbLine
 10
59.0
 20
-327.847394021035
 30
0.0
 11
59.0
 21
-173.8473940210347
 31
0.0
  0
DIMENSION
  5
75FB
330
1E
100
AcDbEntity
  8
30
  6
CONTINUOUS
100
AcDbDimension
  2
*D76
 10
102.660150401669
 20
-320.8475190210348
 30
0.0
 11
102.660150401669
 21
-250.8473940210349
 31
0.0
 70
   160
  1
140
  3
STANDARD
100
AcDbAlignedDimension
 13
46.50006799999993
 23
-180.8472690210349
 33
0.0
 14
47.50006800000003
 24
-320.8475190210348
 34
0.0
 50
90.0
100
AcDbRotatedDimension
1001
ACAD
1000
DSTYLE
1002
{
1070
    79
1070
     3
1002
}
  0
DIMENSION
  5
75FC
330
1E
100
AcDbEntity
  8
30
  6
CONTINUOUS
100
AcDbDimension
  2
*D77
 10
84.10265445634328
 20
-283.8473940210349
 30
0.0
 11
84.10265445634331
 21
-250.8473940210349
 31
0.0
 70
   160
  1
66
  3
STANDARD
100
AcDbAlignedDimension
 13
59.0
 23
-217.8473940210349
 33
0.0
 14
59.0
 24
-283.8473940210349
 34
0.0
 50
90.0
100
AcDbRotatedDimension
1001
ACAD
1000
DSTYLE
1002
{
1070
    79
1070
     3
1002
}
  0
ARC
  5
75FD
330
1E
100
AcDbEntity
  8
18
  6
DIVIDE
100
AcDbCircle
 10
55.99999999999988
 20
-327.847394021035
 30
0.0
 40
3.0
100
AcDbArc
 50
270.0
 51
0.0
  0
LINE
  5
75FE
330
1E
100
AcDbEntity
  8
12
  6
CONTINUOUS
 62
     3
100
AcDbLine
 10
57.99893099999986
 20
-283.8473940210349
 30
0.0
 11
44.86079100000007
 21
-283.8473940210349
 31
0.0
  0
LINE
  5
75FF
330
1E
100
AcDbEntity
  8
12
  6
CONTINUOUS
 62
     3
100
AcDbLine
 10
51.5
 20
-292.1777520210349
 30
0.0
 11
51.5
 21
-276.606624021035
 31
0.0
  0
CIRCLE
  5
7600
330
1E
100
AcDbEntity
  8
12
  6
CONTINUOUS
 62
     3
100
AcDbCircle
 10
51.5
 20
-283.8473940210349
 30
0.0
 40
3.0
  0
POINT
  5
7601
330
1E
100
AcDbEntity
  8
12
  6
CONTINUOUS
 62
     3
100
AcDbPoint
 10
58.99892999999997
 20
-283.8473940210349
 30
0.0
  0
LINE
  5
7602
330
1E
100
AcDbEntity
  8
12
  6
CONTINUOUS
 62
     3
100
AcDbLine
 10
51.5
 20
-209.5170350210349
 30
0.0
 11
51.5
 21
-225.088164021035
 31
0.0
  0
LINE
  5
7603
330
1E
100
AcDbEntity
  8
12
  6
CONTINUOUS
 62
     3
100
AcDbLine
 10
57.99893099999986
 20
-217.8473940210349
 30
0.0
 11
44.86079100000007
 21
-217.8473940210349
 31
0.0
  0
CIRCLE
  5
7604
330
1E
100
AcDbEntity
  8
12
  6
CONTINUOUS
 62
     3
100
AcDbCircle
 10
51.5
 20
-217.8473940210349
 30
0.0
 40
3.0
  0
POINT
  5
7605
330
1E
100
AcDbEntity
  8
12
  6
CONTINUOUS
 62
     3
100
AcDbPoint
 10
58.99892999999997
 20
-217.8473940210349
 30
0.0
  0
ARC
  5
7606
330
1E
100
AcDbEntity
  8
18
  6
DIVIDE
100
AcDbCircle
 10
55.99999999999988
 20
-173.8473940210347
 30
0.0
 40
3.0
100
AcDbArc
 50
0.0
 51
90.0
  0
LINE
  5
7607
330
1E
100
AcDbEntity
  8
30
  6
CONTINUOUS
100
AcDbLine
 10
-75.44629722289833
 20
-320.9485089160819
 30
0.0
 11
-99.2570912337937
 21
-320.9485089160819
 31
0.0
  0
TEXT
  5
7608
330
1E
100
AcDbEntity
  8
30
  6
CONTINUOUS
100
AcDbText
 10
-97.44058944595309
 20
-320.1493672955093
 30
0.0
 40
5.0
  1
４－%%C６
100
AcDbText
  0
LINE
  5
7609
330
1E
100
AcDbEntity
  8
30
  6
CONTINUOUS
100
AcDbLine
 10
-55.67644859729568
 20
-289.6048191805858
 30
0.0
 11
-75.44629722289833
 21
-320.9485089160819
 31
0.0
1001
ACAD
1000
R13OBJECT
1002
{
1005
75F3
1002
}
  0
LINE
  5
775B
330
1E
100
AcDbEntity
  8
10
  6
CONTINOUS
100
AcDbLine
 10
59.0
 20
166.5027908146942
 30
0.0
 11
59.0
 21
180.2027908146943
 31
0.0
  0
LINE
  5
775C
330
1E
100
AcDbEntity
  8
10
  6
CONTINOUS
100
AcDbLine
 10
-59.0
 20
166.5027908146942
 30
0.0
 11
-59.0
 21
180.2027908146943
 31
0.0
  0
LINE
  5
775E
330
1E
100
AcDbEntity
  8
10
  6
CONTINOUS
100
AcDbLine
 10
15.0
 20
234.8013198146943
 30
0.0
 11
35.0
 21
234.8013198146943
 31
0.0
  0
LINE
  5
775F
330
1E
100
AcDbEntity
  8
0
100
AcDbLine
 10
32.0
 20
261.8013198146943
 30
0.0
 11
33.35938999999996
 21
261.8013198146943
 31
0.0
  0
DIMENSION
  5
7760
330
1E
100
AcDbEntity
  8
30
  6
CONTINUOUS
100
AcDbDimension
  2
*D84
 10
50.39766741208801
 20
287.8013058146941
 30
0.0
 11
47.39766741208796
 21
283.8013058146943
 31
0.0
 70
    32
  1
8
  3
STANDARD
100
AcDbAlignedDimension
 13
36.42829099999996
 23
279.8013058146941
 33
0.0
 14
32.50000199999998
 24
287.8013058146941
 34
0.0
 50
270.0
100
AcDbRotatedDimension
1001
ACAD
1000
DSTYLE
1002
{
1070
    79
1070
     3
1002
}
  0
DIMENSION
  5
7761
330
1E
100
AcDbEntity
  8
30
  6
CONTINUOUS
100
AcDbDimension
  2
*D85
 10
97.08959967004821
 20
329.8013058146941
 30
0.0
 11
94.08959967004816
 21
255.0020483146943
 31
0.0
 70
    32
  1
150
  3
STANDARD
100
AcDbAlignedDimension
 13
75.89423449999998
 23
180.2027908146943
 33
0.0
 14
13.42828899999999
 24
329.8013058146941
 34
0.0
 50
270.0
100
AcDbRotatedDimension
1001
ACAD
1000
DSTYLE
1002
{
1070
    79
1070
     3
1002
}
  0
DIMENSION
  5
7762
330
1E
100
AcDbEntity
  8
30
  6
CONTINUOUS
100
AcDbDimension
  2
*D86
 10
97.08959967004821
 20
337.8013058146941
 30
0.0
 11
94.08959967004816
 21
333.8013058146941
 31
0.0
 70
    32
  1
8
  3
STANDARD
100
AcDbAlignedDimension
 13
12.42828899999999
 23
329.8013058146941
 33
0.0
 14
6.5
 24
337.8013058146941
 34
0.0
 50
270.0
100
AcDbRotatedDimension
1001
ACAD
1000
DSTYLE
1002
{
1070
    79
1070
     3
1002
}
  0
LINE
  5
7763
330
1E
100
AcDbEntity
  8
10
  6
CONTINOUS
100
AcDbLine
 10
-37.39993900000001
 20
184.3053498146943
 30
0.0
 11
37.40006100000005
 21
184.3053498146943
 31
0.0
  0
LINE
  5
7764
330
1E
100
AcDbEntity
  8
10
  6
CONTINOUS
100
AcDbLine
 10
37.40015300000004
 20
226.8013198146943
 30
0.0
 11
-37.39984700000002
 21
226.8013198146943
 31
0.0
  0
LINE
  5
7765
330
1E
100
AcDbEntity
  8
0
100
AcDbLine
 10
15.0
 20
249.8013198146943
 30
0.0
 11
35.0
 21
249.8013198146943
 31
0.0
  0
LINE
  5
7766
330
1E
100
AcDbEntity
  8
10
  6
CONTINOUS
100
AcDbLine
 10
37.40015300000004
 20
184.3053498146943
 30
0.0
 11
-37.39984700000002
 21
184.3053498146943
 31
0.0
  0
LINE
  5
7767
330
1E
100
AcDbEntity
  8
0
100
AcDbLine
 10
36.42829099999993
 20
279.8013058146941
 30
0.0
 11
-39.68735400263993
 21
279.8013058146941
 31
0.0
  0
LINE
  5
7768
330
1E
100
AcDbEntity
  8
10
  6
CONTINOUS
100
AcDbLine
 10
-59.0
 20
180.2027908146943
 30
0.0
 11
59.0
 21
180.2027908146943
 31
0.0
  0
LINE
  5
7769
330
1E
100
AcDbEntity
  8
18
100
AcDbLine
 10
-84.97777899999993
 20
183.402793814694
 30
0.0
 11
74.97777899999992
 21
183.402793814694
 31
0.0
  0
LINE
  5
776A
330
1E
100
AcDbEntity
  8
18
100
AcDbLine
 10
-83.32361300000002
 20
180.2027938146943
 30
0.0
 11
73.32361300000002
 21
180.2027938146943
 31
0.0
  0
DIMENSION
  5
776E
330
1E
100
AcDbEntity
  8
30
  6
CONTINUOUS
100
AcDbDimension
  2
*D87
 10
25.0
 20
361.7094679027867
 30
0.0
 11
12.5
 21
364.7094679027868
 31
0.0
 70
    32
  1
25
  3
STANDARD
100
AcDbAlignedDimension
 13
0.0
 23
347.9104268146942
 33
0.0
 14
25.0
 24
297.1368598146941
 34
0.0
100
AcDbRotatedDimension
1001
ACAD
1000
DSTYLE
1002
{
1070
    79
1070
     3
1002
}
  0
DIMENSION
  5
776F
330
1E
100
AcDbEntity
  8
30
  6
CONTINUOUS
100
AcDbDimension
  2
*D88
 10
0.0000000000000008
 20
361.7094679027867
 30
0.0
 11
-12.49999999999999
 21
364.7094679027868
 31
0.0
 70
    32
  1
25
  3
STANDARD
100
AcDbAlignedDimension
 13
-24.99999999999998
 23
297.3055608146941
 33
0.0
 14
0.0
 24
347.9104268146942
 34
0.0
100
AcDbRotatedDimension
1001
ACAD
1000
DSTYLE
1002
{
1070
    79
1070
     3
1002
}
  0
TEXT
  5
7772
330
1E
100
AcDbEntity
  8
30
  6
CONTINUOUS
100
AcDbText
 10
-84.96059100000001
 20
339.8982230850807
 30
0.0
 40
5.0
  1
（Ｍ６ｘ１８）
100
AcDbText
  0
POINT
  5
7776
330
1E
100
AcDbEntity
  8
0
100
AcDbPoint
 10
7.0
 20
349.6526477897587
 30
0.0
  0
LWPOLYLINE
  5
7778
330
1E
100
AcDbEntity
  8
18
100
AcDbPolyline
 90
        6
 70
   128
 43
0.0
 10
86.00146366684995
 20
178.1671960009503
 10
83.40943656021343
 20
180.083173966093
 10
83.31470649127494
 20
181.5803982606109
 10
84.39299895119928
 20
182.7837848309521
 10
85.48844203466371
 20
185.5852209044335
 10
83.51134508977498
 20
188.1276703092501
210
0.0
220
0.0
230
-1.0
  0
LINE
  5
7779
330
1E
100
AcDbEntity
  8
0
100
AcDbLine
 10
16.64061100000003
 20
261.8013198146943
 30
0.0
 11
16.64061100000003
 21
256.3013428146941
 31
0.0
  0
LINE
  5
777A
330
1E
100
AcDbEntity
  8
0
100
AcDbLine
 10
9.859389999999963
 20
256.8013298146943
 30
0.0
 11
9.859389999999963
 21
262.8108668146941
 31
0.0
  0
LINE
  5
777B
330
1E
100
AcDbEntity
  8
0
100
AcDbLine
 10
-16.64060999999992
 20
261.8013198146943
 30
0.0
 11
-16.64060999999992
 21
256.3013428146941
 31
0.0
  0
LINE
  5
777C
330
1E
100
AcDbEntity
  8
0
100
AcDbLine
 10
-9.859388999999962
 20
256.8013298146943
 30
0.0
 11
-9.859388999999962
 21
262.8108668146941
 31
0.0
  0
LINE
  5
777D
330
1E
100
AcDbEntity
  8
0
100
AcDbLine
 10
-33.35938899999996
 20
261.8013198146943
 30
0.0
 11
-33.35938899999996
 21
256.3013428146941
 31
0.0
  0
LINE
  5
777E
330
1E
100
AcDbEntity
  8
0
100
AcDbLine
 10
25.0
 20
296.1368598146941
 30
0.0
 11
25.0
 21
218.378942814694
 31
0.0
  0
LINE
  5
777F
330
1E
100
AcDbEntity
  8
0
100
AcDbLine
 10
-25.0
 20
296.3055578146941
 30
0.0
 11
-25.0
 21
219.1249468146943
 31
0.0
  0
LINE
  5
7780
330
1E
100
AcDbEntity
  8
0
100
AcDbLine
 10
-18.0
 20
261.8013198146943
 30
0.0
 11
-32.0
 21
261.8013198146943
 31
0.0
  0
LINE
  5
7781
330
1E
100
AcDbEntity
  8
0
100
AcDbLine
 10
-18.5
 20
287.8013058146941
 30
0.0
 11
-31.5
 21
287.8013058146941
 31
0.0
  0
TEXT
  5
7782
330
1E
100
AcDbEntity
  8
30
  6
CONTINUOUS
100
AcDbText
 10
-72.68179897129356
 20
348.6883100850806
 30
0.0
 40
5.0
  1
%%C６．５
100
AcDbText
  0
ARC
  5
7783
330
1E
100
AcDbEntity
  8
0
100
AcDbCircle
 10
-25.0
 20
279.8013058146941
 30
0.0
 40
3.25
100
AcDbArc
 50
117.5092679999994
 51
242.4907320000004
  0
ARC
  5
7784
330
1E
100
AcDbEntity
  8
0
100
AcDbCircle
 10
-25.0
 20
279.8013058146941
 30
0.0
 40
3.25
100
AcDbArc
 50
297.4635890000005
 51
62.53641099999956
  0
LINE
  5
7785
330
1E
100
AcDbEntity
  8
0
100
AcDbLine
 10
-26.50114899999994
 20
261.801305814694
 30
0.0
 11
-26.50114899999994
 21
287.8013058146941
 31
0.0
  0
LINE
  5
7786
330
1E
100
AcDbEntity
  8
0
100
AcDbLine
 10
-23.50114899999994
 20
261.801305814694
 30
0.0
 11
-23.50114899999994
 21
287.8013058146941
 31
0.0
  0
LINE
  5
7787
330
1E
100
AcDbEntity
  8
0
100
AcDbLine
 10
-32.0
 20
261.8013198146943
 30
0.0
 11
-32.0
 21
287.3013058146941
 31
0.0
  0
ARC
  5
7788
330
1E
100
AcDbEntity
  8
0
100
AcDbCircle
 10
-31.5
 20
287.3013058146941
 30
0.0
 40
0.5
100
AcDbArc
 50
90.00000000000005
 51
180.0
  0
ARC
  5
7789
330
1E
100
AcDbEntity
  8
0
100
AcDbCircle
 10
-25.0
 20
279.8013058146941
 30
0.0
 40
3.25
100
AcDbArc
 50
62.53641099999956
 51
117.5092679999994
  0
LINE
  5
778A
330
1E
100
AcDbEntity
  8
0
100
AcDbLine
 10
-26.50114899999994
 20
287.8013058146941
 30
0.0
 11
-23.50114899999994
 21
287.8013058146941
 31
0.0
  0
ARC
  5
778B
330
1E
100
AcDbEntity
  8
0
100
AcDbCircle
 10
-25.0
 20
279.8013058146941
 30
0.0
 40
3.25
100
AcDbArc
 50
242.4907320000004
 51
297.4635890000005
  0
LINE
  5
778C
330
1E
100
AcDbEntity
  8
0
100
AcDbLine
 10
-33.35938899999996
 20
261.8013198146943
 30
0.0
 11
-32.0
 21
261.8013198146943
 31
0.0
  0
LINE
  5
778D
330
1E
100
AcDbEntity
  8
0
100
AcDbLine
 10
-2.999700999999959
 20
266.9157128146943
 30
0.0
 11
-2.999700999999959
 21
307.8013058146941
 31
0.0
  0
LINE
  5
778E
330
1E
100
AcDbEntity
  8
0
100
AcDbLine
 10
3.00029900000004
 20
266.9157128146943
 30
0.0
 11
3.00029900000004
 21
307.8013058146941
 31
0.0
  0
LINE
  5
778F
330
1E
100
AcDbEntity
  8
0
100
AcDbLine
 10
-8.5
 20
307.8013058146941
 30
0.0
 11
-8.5
 21
266.9157128146943
 31
0.0
  0
LINE
  5
7790
330
1E
100
AcDbEntity
  8
0
100
AcDbLine
 10
8.5
 20
307.8013058146941
 30
0.0
 11
8.5
 21
266.9157128146943
 31
0.0
  0
LINE
  5
7791
330
1E
100
AcDbEntity
  8
0
100
AcDbLine
 10
6.5
 20
337.8013058146941
 30
0.0
 11
-6.5
 21
337.8013058146941
 31
0.0
  0
LINE
  5
7792
330
1E
100
AcDbEntity
  8
0
100
AcDbLine
 10
7.0
 20
307.8013058146941
 30
0.0
 11
-7.0
 21
307.8013058146941
 31
0.0
  0
LINE
  5
7793
330
1E
100
AcDbEntity
  8
0
  6
CENTER
100
AcDbLine
 10
11.42829099999994
 20
329.8013058146941
 30
0.0
 11
-10.26610099999992
 21
329.8013058146941
 31
0.0
  0
LINE
  5
7794
330
1E
100
AcDbEntity
  8
0
100
AcDbLine
 10
1.501149000000054
 20
307.8013058146941
 30
0.0
 11
1.501149000000054
 21
337.8013058146941
 31
0.0
  0
LINE
  5
7795
330
1E
100
AcDbEntity
  8
0
100
AcDbLine
 10
-1.498850999999945
 20
307.8013058146941
 30
0.0
 11
-1.498850999999945
 21
337.8013058146941
 31
0.0
  0
LINE
  5
7796
330
1E
100
AcDbEntity
  8
0
100
AcDbLine
 10
-7.0
 20
307.8013058146941
 30
0.0
 11
-7.0
 21
337.3013058146941
 31
0.0
  0
LINE
  5
7797
330
1E
100
AcDbEntity
  8
0
100
AcDbLine
 10
1.501149000000054
 20
337.8013058146941
 30
0.0
 11
-1.498850999999945
 21
337.8013058146941
 31
0.0
  0
POINT
  5
7798
330
1E
100
AcDbEntity
  8
0
  6
BYBLOCK
100
AcDbPoint
 10
-7.0
 20
337.3013058146941
 30
0.0
  0
ARC
  5
7799
330
1E
100
AcDbEntity
  8
0
100
AcDbCircle
 10
-6.5
 20
337.3013058146941
 30
0.0
 40
0.5
100
AcDbArc
 50
90.00000000000005
 51
180.0
  0
ARC
  5
779A
330
1E
100
AcDbEntity
  8
0
100
AcDbCircle
 10
0.0
 20
329.8013058146941
 30
0.0
 40
3.25
100
AcDbArc
 50
242.5364109999994
 51
297.5092679999994
  0
ARC
  5
779B
330
1E
100
AcDbEntity
  8
0
100
AcDbCircle
 10
0.0
 20
329.8013058146941
 30
0.0
 40
3.25
100
AcDbArc
 50
62.49073200000054
 51
117.4635890000004
  0
ARC
  5
779D
330
1E
100
AcDbEntity
  8
0
100
AcDbCircle
 10
0.0
 20
329.8013058146941
 30
0.0
 40
3.25
100
AcDbArc
 50
117.4635890000004
 51
242.5364109999994
  0
ARC
  5
779E
330
1E
100
AcDbEntity
  8
0
100
AcDbCircle
 10
0.0
 20
329.8013058146941
 30
0.0
 40
3.25
100
AcDbArc
 50
297.5092679999994
 51
62.49073200000054
  0
LINE
  5
779F
330
1E
100
AcDbEntity
  8
0
100
AcDbLine
 10
-8.5
 20
307.8013058146941
 30
0.0
 11
-7.0
 21
307.8013058146941
 31
0.0
  0
LINE
  5
77A0
330
1E
100
AcDbEntity
  8
0
100
AcDbLine
 10
7.0
 20
307.8013058146941
 30
0.0
 11
7.0
 21
337.3013058146941
 31
0.0
  0
POINT
  5
77A1
330
1E
100
AcDbEntity
  8
0
  6
BYBLOCK
100
AcDbPoint
 10
7.0
 20
337.3013058146941
 30
0.0
  0
ARC
  5
77A2
330
1E
100
AcDbEntity
  8
0
100
AcDbCircle
 10
6.5
 20
337.3013058146941
 30
0.0
 40
0.5
100
AcDbArc
 50
0.0
 51
90.00000000000005
  0
LINE
  5
77A3
330
1E
100
AcDbEntity
  8
0
100
AcDbLine
 10
7.0
 20
307.8013058146941
 30
0.0
 11
8.5
 21
307.8013058146941
 31
0.0
  0
LINE
  5
77A4
330
1E
100
AcDbEntity
  8
0
100
AcDbLine
 10
9.610099999999988
 20
262.8108668146941
 30
0.0
 11
3.25029900000004
 21
266.4827008146941
 31
0.0
  0
LINE
  5
77A5
330
1E
100
AcDbEntity
  8
0
100
AcDbLine
 10
-18.0
 20
261.8013198146943
 30
0.0
 11
-18.0
 21
287.3013058146941
 31
0.0
  0
ARC
  5
77A6
330
1E
100
AcDbEntity
  8
0
100
AcDbCircle
 10
-18.5
 20
287.3013058146941
 30
0.0
 40
0.5
100
AcDbArc
 50
0.0
 51
90.00000000000005
  0
LINE
  5
77A7
330
1E
100
AcDbEntity
  8
0
100
AcDbLine
 10
-9.609503000000016
 20
262.8108668146941
 30
0.0
 11
-3.249700999999959
 21
266.4827008146941
 31
0.0
  0
LINE
  5
77A8
330
1E
100
AcDbEntity
  8
0
100
AcDbLine
 10
-18.0
 20
261.8013198146943
 30
0.0
 11
-16.64060999999992
 21
261.8013198146943
 31
0.0
  0
ARC
  5
77A9
330
1E
100
AcDbEntity
  8
0
100
AcDbCircle
 10
-9.359503000000016
 20
262.377854814694
 30
0.0
 40
0.5
100
AcDbArc
 50
120.0000000000003
 51
180.0
  0
LINE
  5
77AA
330
1E
100
AcDbEntity
  8
0
100
AcDbLine
 10
-9.859388999999962
 20
262.8108668146941
 30
0.0
 11
-8.5
 21
266.9157128146943
 31
0.0
  0
ARC
  5
77AB
330
1E
100
AcDbEntity
  8
0
100
AcDbCircle
 10
-3.499700999999959
 20
266.9157128146943
 30
0.0
 40
0.5
100
AcDbArc
 50
300.0000000000003
 51
0.0
  0
ARC
  5
77AC
330
1E
100
AcDbEntity
  8
0
100
AcDbCircle
 10
3.50029900000004
 20
266.9157128146943
 30
0.0
 40
0.5
100
AcDbArc
 50
180.0
 51
239.9999999999995
  0
LINE
  5
77AD
330
1E
100
AcDbEntity
  8
0
100
AcDbLine
 10
32.0
 20
261.8013198146943
 30
0.0
 11
32.0
 21
287.3013058146941
 31
0.0
  0
ARC
  5
77AE
330
1E
100
AcDbEntity
  8
0
100
AcDbCircle
 10
25.0
 20
279.8013058146941
 30
0.0
 40
3.25
100
AcDbArc
 50
117.4635890000004
 51
242.5364109999994
  0
LINE
  5
77AF
330
1E
100
AcDbEntity
  8
0
100
AcDbLine
 10
23.50114899999994
 20
261.801305814694
 30
0.0
 11
23.50114899999994
 21
287.8013058146941
 31
0.0
  0
LINE
  5
77B0
330
1E
100
AcDbEntity
  8
0
100
AcDbLine
 10
26.50114899999994
 20
261.801305814694
 30
0.0
 11
26.50114899999994
 21
287.8013058146941
 31
0.0
  0
LINE
  5
77B1
330
1E
100
AcDbEntity
  8
0
100
AcDbLine
 10
18.0
 20
261.8013198146943
 30
0.0
 11
18.0
 21
287.3013058146941
 31
0.0
  0
ARC
  5
77B2
330
1E
100
AcDbEntity
  8
0
100
AcDbCircle
 10
25.0
 20
279.8013058146941
 30
0.0
 40
3.25
100
AcDbArc
 50
297.5092679999994
 51
62.49073200000054
  0
LINE
  5
77B3
330
1E
100
AcDbEntity
  8
0
100
AcDbLine
 10
18.5
 20
287.8013058146941
 30
0.0
 11
31.5
 21
287.8013058146941
 31
0.0
  0
ARC
  5
77B4
330
1E
100
AcDbEntity
  8
0
100
AcDbCircle
 10
18.5
 20
287.3013058146941
 30
0.0
 40
0.5
100
AcDbArc
 50
90.00000000000005
 51
180.0
  0
ARC
  5
77B5
330
1E
100
AcDbEntity
  8
0
100
AcDbCircle
 10
25.0
 20
279.8013058146941
 30
0.0
 40
3.25
100
AcDbArc
 50
62.49073200000054
 51
117.4635890000004
  0
LINE
  5
77B6
330
1E
100
AcDbEntity
  8
0
100
AcDbLine
 10
26.50114899999994
 20
287.8013058146941
 30
0.0
 11
23.50114899999994
 21
287.8013058146941
 31
0.0
  0
ARC
  5
77B7
330
1E
100
AcDbEntity
  8
0
100
AcDbCircle
 10
31.5
 20
287.3013058146941
 30
0.0
 40
0.5
100
AcDbArc
 50
0.0
 51
90.00000000000005
  0
LINE
  5
77B8
330
1E
100
AcDbEntity
  8
0
100
AcDbLine
 10
18.0
 20
261.8013198146943
 30
0.0
 11
32.0
 21
261.8013198146943
 31
0.0
  0
ARC
  5
77B9
330
1E
100
AcDbEntity
  8
0
100
AcDbCircle
 10
9.360099999999988
 20
262.377854814694
 30
0.0
 40
0.5
100
AcDbArc
 50
0.0
 51
59.99999999999968
  0
LINE
  5
77BA
330
1E
100
AcDbEntity
  8
0
100
AcDbLine
 10
9.859389999999963
 20
262.8108668146941
 30
0.0
 11
8.5
 21
266.9157128146943
 31
0.0
  0
LINE
  5
77BB
330
1E
100
AcDbEntity
  8
0
100
AcDbLine
 10
16.64061100000003
 20
261.8013198146943
 30
0.0
 11
18.0
 21
261.8013198146943
 31
0.0
  0
ARC
  5
77BC
330
1E
100
AcDbEntity
  8
0
100
AcDbCircle
 10
25.0
 20
279.8013058146941
 30
0.0
 40
3.25
100
AcDbArc
 50
242.5364109999994
 51
297.5092679999994
  0
LINE
  5
77BD
330
1E
100
AcDbEntity
  8
0
100
AcDbLine
 10
-35.0
 20
249.8013198146943
 30
0.0
 11
-15.0
 21
249.8013198146943
 31
0.0
  0
LINE
  5
77BE
330
1E
100
AcDbEntity
  8
10
  6
CONTINOUS
100
AcDbLine
 10
-35.0
 20
234.8013198146943
 30
0.0
 11
-15.0
 21
234.8013198146943
 31
0.0
  0
LINE
  5
77BF
330
1E
100
AcDbEntity
  8
10
  6
CONTINOUS
100
AcDbLine
 10
-35.0
 20
234.8013198146943
 30
0.0
 11
-15.0
 21
234.8013198146943
 31
0.0
  0
LINE
  5
77C0
330
1E
100
AcDbEntity
  8
10
  6
CONTINOUS
100
AcDbLine
 10
-37.39984700000002
 20
180.2027908146943
 30
0.0
 11
-37.39984700000002
 21
234.8013198146943
 31
0.0
  0
LINE
  5
77C1
330
1E
100
AcDbEntity
  8
10
  6
CONTINOUS
100
AcDbLine
 10
-37.39993900000001
 20
182.8053498146941
 30
0.0
 11
-37.39993900000001
 21
234.8013198146943
 31
0.0
  0
LINE
  5
77C2
330
1E
100
AcDbEntity
  8
0
100
AcDbLine
 10
-35.0
 20
249.8013198146943
 30
0.0
 11
-35.0
 21
234.8013198146943
 31
0.0
  0
LINE
  5
77C3
330
1E
100
AcDbEntity
  8
0
100
AcDbLine
 10
-33.79999999999995
 20
249.8013198146943
 30
0.0
 11
-33.79999999999995
 21
256.3013428146941
 31
0.0
  0
LINE
  5
77C4
330
1E
100
AcDbEntity
  8
0
100
AcDbLine
 10
-33.35938899999996
 20
256.3013428146941
 30
0.0
 11
-33.79999999999995
 21
256.3013428146941
 31
0.0
  0
LINE
  5
77C5
330
1E
100
AcDbEntity
  8
10
  6
CONTINOUS
100
AcDbLine
 10
-37.39984700000002
 20
234.8013198146943
 30
0.0
 11
-35.0
 21
234.8013198146943
 31
0.0
  0
LINE
  5
77C6
330
1E
100
AcDbEntity
  8
10
  6
CONTINOUS
100
AcDbLine
 10
-10.0
 20
234.8013198146943
 30
0.0
 11
10.0
 21
234.8013198146943
 31
0.0
  0
LINE
  5
77C7
330
1E
100
AcDbEntity
  8
0
100
AcDbLine
 10
-10.0
 20
249.8013198146943
 30
0.0
 11
10.0
 21
249.8013198146943
 31
0.0
  0
LINE
  5
77C8
330
1E
100
AcDbEntity
  8
0
100
AcDbLine
 10
8.359389999999963
 20
256.8013298146943
 30
0.0
 11
-8.359388999999964
 21
256.8013298146943
 31
0.0
  0
LINE
  5
77C9
330
1E
100
AcDbEntity
  8
0
100
AcDbLine
 10
-10.0
 20
249.8013198146943
 30
0.0
 11
-10.0
 21
234.8013198146943
 31
0.0
  0
LINE
  5
77CA
330
1E
100
AcDbEntity
  8
0
100
AcDbLine
 10
-15.0
 20
249.8013198146943
 30
0.0
 11
-15.0
 21
234.8013198146943
 31
0.0
  0
LINE
  5
77CB
330
1E
100
AcDbEntity
  8
0
100
AcDbLine
 10
-16.19999999999993
 20
249.8013198146943
 30
0.0
 11
-16.19999999999993
 21
256.3013428146941
 31
0.0
  0
LINE
  5
77CC
330
1E
100
AcDbEntity
  8
0
100
AcDbLine
 10
-8.799999999999952
 20
249.8013198146943
 30
0.0
 11
-8.799999999999952
 21
256.3013428146941
 31
0.0
  0
LINE
  5
77CD
330
1E
100
AcDbEntity
  8
0
100
AcDbLine
 10
-16.64060999999992
 20
256.3013428146941
 30
0.0
 11
-16.19999999999993
 21
256.3013428146941
 31
0.0
  0
LINE
  5
77CE
330
1E
100
AcDbEntity
  8
0
100
AcDbLine
 10
-9.859388999999962
 20
256.8013298146943
 30
0.0
 11
-8.359388999999964
 21
256.8013298146943
 31
0.0
  0
LINE
  5
77CF
330
1E
100
AcDbEntity
  8
0
100
AcDbLine
 10
-8.359388999999964
 20
256.3013428146941
 30
0.0
 11
-8.799999999999952
 21
256.3013428146941
 31
0.0
  0
LINE
  5
77D0
330
1E
100
AcDbEntity
  8
0
100
AcDbLine
 10
-8.359388999999964
 20
256.8013298146943
 30
0.0
 11
-8.359388999999964
 21
256.3013428146941
 31
0.0
  0
LINE
  5
77D1
330
1E
100
AcDbEntity
  8
10
  6
CONTINOUS
100
AcDbLine
 10
-15.0
 20
234.8013198146943
 30
0.0
 11
-10.0
 21
234.8013198146943
 31
0.0
  0
LINE
  5
77D2
330
1E
100
AcDbEntity
  8
0
100
AcDbLine
 10
15.0
 20
249.8013198146943
 30
0.0
 11
15.0
 21
234.8013198146943
 31
0.0
  0
LINE
  5
77D3
330
1E
100
AcDbEntity
  8
0
100
AcDbLine
 10
10.0
 20
249.8013198146943
 30
0.0
 11
10.0
 21
234.8013198146943
 31
0.0
  0
LINE
  5
77D4
330
1E
100
AcDbEntity
  8
0
100
AcDbLine
 10
16.20000000000002
 20
249.8013198146943
 30
0.0
 11
16.20000000000002
 21
256.3013428146941
 31
0.0
  0
LINE
  5
77D5
330
1E
100
AcDbEntity
  8
0
100
AcDbLine
 10
8.799999999999952
 20
249.8013198146943
 30
0.0
 11
8.799999999999952
 21
256.3013428146941
 31
0.0
  0
LINE
  5
77D6
330
1E
100
AcDbEntity
  8
0
100
AcDbLine
 10
9.859389999999963
 20
256.8013298146943
 30
0.0
 11
8.359389999999963
 21
256.8013298146943
 31
0.0
  0
LINE
  5
77D7
330
1E
100
AcDbEntity
  8
0
100
AcDbLine
 10
8.359389999999963
 20
256.3013428146941
 30
0.0
 11
8.799999999999952
 21
256.3013428146941
 31
0.0
  0
LINE
  5
77D8
330
1E
100
AcDbEntity
  8
0
100
AcDbLine
 10
8.359389999999963
 20
256.8013298146943
 30
0.0
 11
8.359389999999963
 21
256.3013428146941
 31
0.0
  0
LINE
  5
77D9
330
1E
100
AcDbEntity
  8
0
100
AcDbLine
 10
16.64061100000003
 20
256.3013428146941
 30
0.0
 11
16.20000000000002
 21
256.3013428146941
 31
0.0
  0
LINE
  5
77DA
330
1E
100
AcDbEntity
  8
10
  6
CONTINOUS
100
AcDbLine
 10
10.0
 20
234.8013198146943
 30
0.0
 11
15.0
 21
234.8013198146943
 31
0.0
  0
LINE
  5
77DB
330
1E
100
AcDbEntity
  8
10
  6
CONTINOUS
100
AcDbLine
 10
-6.0
 20
184.3053498146943
 30
0.0
 11
-6.0
 21
180.2027908146943
 31
0.0
  0
LINE
  5
77DC
330
1E
100
AcDbEntity
  8
10
  6
CONTINOUS
100
AcDbLine
 10
6.0
 20
184.3053498146943
 30
0.0
 11
6.0
 21
180.2027908146943
 31
0.0
  0
DIMENSION
  5
77DD
330
1E
100
AcDbEntity
  8
30
  6
CONTINUOUS
100
AcDbDimension
  2
*D89
 10
87.49191708502406
 20
279.8013058146941
 30
0.0
 11
84.49191708502404
 21
230.0020483146943
 31
0.0
 70
    32
  1
100
  3
STANDARD
100
AcDbAlignedDimension
 13
75.89423449999998
 23
180.2027908146943
 33
0.0
 14
36.42829099999996
 24
279.8013058146941
 34
0.0
 50
270.0
100
AcDbRotatedDimension
1001
ACAD
1000
DSTYLE
1002
{
1070
    79
1070
     3
1002
}
  0
LINE
  5
77DE
330
1E
100
AcDbEntity
  8
0
100
AcDbLine
 10
33.35938999999996
 20
261.8013198146943
 30
0.0
 11
33.35938999999996
 21
256.3013428146941
 31
0.0
  0
LINE
  5
77DF
330
1E
100
AcDbEntity
  8
10
  6
CONTINOUS
100
AcDbLine
 10
37.40015300000004
 20
180.2027908146943
 30
0.0
 11
37.40015300000004
 21
234.8013198146943
 31
0.0
  0
LINE
  5
77E0
330
1E
100
AcDbEntity
  8
10
  6
CONTINOUS
100
AcDbLine
 10
37.40006100000005
 20
182.8053498146941
 30
0.0
 11
37.40006100000005
 21
234.8013198146943
 31
0.0
  0
LINE
  5
77E1
330
1E
100
AcDbEntity
  8
0
100
AcDbLine
 10
35.0
 20
249.8013198146943
 30
0.0
 11
35.0
 21
234.8013198146943
 31
0.0
  0
LINE
  5
77E2
330
1E
100
AcDbEntity
  8
0
100
AcDbLine
 10
33.79999999999995
 20
249.8013198146943
 30
0.0
 11
33.79999999999995
 21
256.3013428146941
 31
0.0
  0
LINE
  5
77E3
330
1E
100
AcDbEntity
  8
0
100
AcDbLine
 10
33.35938999999996
 20
256.3013428146941
 30
0.0
 11
33.79999999999995
 21
256.3013428146941
 31
0.0
  0
LINE
  5
77E4
330
1E
100
AcDbEntity
  8
10
  6
CONTINOUS
100
AcDbLine
 10
35.0
 20
234.8013198146943
 30
0.0
 11
37.40006100000005
 21
234.8013198146943
 31
0.0
  0
POINT
  5
77E5
330
1E
100
AcDbEntity
  8
10
  6
CONTINOUS
100
AcDbPoint
 10
60.000001
 20
180.2027908146943
 30
0.0
  0
POINT
  5
77E6
330
1E
100
AcDbEntity
  8
10
  6
CONTINOUS
100
AcDbPoint
 10
60.0
 20
180.2027908146943
 30
0.0
  0
LWPOLYLINE
  5
77E7
330
1E
100
AcDbEntity
  8
18
100
AcDbPolyline
 90
        6
 70
   128
 43
0.0
 10
76.00146405679601
 20
178.1671960009503
 10
73.40943695015941
 20
180.083173966093
 10
73.314706881221
 20
181.5803982606109
 10
74.39299934114544
 20
182.7837848309521
 10
75.4884424246102
 20
185.585220904434
 10
73.51134547972101
 20
188.1276703092501
  0
LINE
  5
77E8
330
1E
100
AcDbEntity
  8
10
  6
CONTINOUS
100
AcDbLine
 10
30.45006699999999
 20
158.801418814694
 30
0.0
 11
35.99991799999996
 21
158.801418814694
 31
0.0
  0
LINE
  5
77E9
330
1E
100
AcDbEntity
  8
10
  6
CONTINOUS
100
AcDbLine
 10
-35.99991699999996
 20
159.5027908146943
 30
0.0
 11
35.99991799999996
 21
159.5027908146943
 31
0.0
  0
LINE
  5
77EA
330
1E
100
AcDbEntity
  8
10
  6
CONTINOUS
100
AcDbLine
 10
-35.99991699999996
 20
158.801418814694
 30
0.0
 11
-10.99991699999998
 21
158.801418814694
 31
0.0
  0
LINE
  5
77EB
330
1E
100
AcDbEntity
  8
10
  6
CONTINOUS
100
AcDbLine
 10
-52.0
 20
159.5027908146943
 30
0.0
 11
-35.99991699999996
 21
159.5027908146943
 31
0.0
  0
ARC
  5
77EC
330
1E
100
AcDbEntity
  8
10
  6
CONTINOUS
100
AcDbCircle
 10
-52.0
 20
166.5027908146942
 30
0.0
 40
7.0
100
AcDbArc
 50
180.0
 51
270.0
  0
LINE
  5
77ED
330
1E
100
AcDbEntity
  8
10
  6
CONTINOUS
100
AcDbLine
 10
-35.99991699999996
 20
158.801418814694
 30
0.0
 11
-35.99991699999996
 21
159.5027908146943
 31
0.0
  0
LINE
  5
77EE
330
1E
100
AcDbEntity
  8
10
  6
CONTINOUS
100
AcDbLine
 10
6.0
 20
154.7013198146941
 30
0.0
 11
10.99991799999997
 21
154.7013198146941
 31
0.0
  0
LINE
  5
77EF
330
1E
100
AcDbEntity
  8
10
  6
CONTINOUS
100
AcDbLine
 10
10.99991799999997
 20
158.801418814694
 30
0.0
 11
-10.99991699999998
 21
158.801418814694
 31
0.0
  0
LINE
  5
77F0
330
1E
100
AcDbEntity
  8
10
  6
CONTINOUS
100
AcDbLine
 10
6.0
 20
144.7555058146942
 30
0.0
 11
6.0
 21
154.7013198146941
 31
0.0
  0
LINE
  5
77F1
330
1E
100
AcDbEntity
  8
10
  6
CONTINOUS
100
AcDbLine
 10
-6.0
 20
144.7555058146942
 30
0.0
 11
-6.0
 21
154.7013198146941
 31
0.0
  0
LINE
  5
77F2
330
1E
100
AcDbEntity
  8
10
  6
CONTINOUS
100
AcDbLine
 10
-10.99991699999998
 20
154.7013198146941
 30
0.0
 11
-6.0
 21
154.7013198146941
 31
0.0
  0
LINE
  5
77F3
330
1E
100
AcDbEntity
  8
10
  6
CONTINOUS
100
AcDbLine
 10
-10.99991699999998
 20
154.7013198146941
 30
0.0
 11
-10.99991699999998
 21
158.801418814694
 31
0.0
  0
LINE
  5
77F4
330
1E
100
AcDbEntity
  8
10
  6
CONTINOUS
100
AcDbLine
 10
6.0
 20
154.7013198146941
 30
0.0
 11
-6.0
 21
154.7013198146941
 31
0.0
  0
LINE
  5
77F5
330
1E
100
AcDbEntity
  8
10
  6
CONTINOUS
100
AcDbLine
 10
6.0
 20
144.7555058146942
 30
0.0
 11
-6.0
 21
144.7555058146942
 31
0.0
  0
LINE
  5
77F6
330
1E
100
AcDbEntity
  8
10
  6
CONTINOUS
100
AcDbLine
 10
10.99991799999997
 20
158.801418814694
 30
0.0
 11
22.05006700000001
 21
158.801418814694
 31
0.0
  0
LINE
  5
77F7
330
1E
100
AcDbEntity
  8
10
  6
CONTINOUS
100
AcDbLine
 10
10.99991799999997
 20
154.7013198146941
 30
0.0
 11
10.99991799999997
 21
158.801418814694
 31
0.0
  0
LINE
  5
77F8
330
1E
100
AcDbEntity
  8
10
  6
CONTINOUS
100
AcDbLine
 10
22.05006700000001
 20
158.801418814694
 30
0.0
 11
30.45006699999999
 21
158.801418814694
 31
0.0
  0
LINE
  5
77F9
330
1E
100
AcDbEntity
  8
10
  6
CONTINOUS
100
AcDbLine
 10
29.40006700000003
 20
156.3013498146941
 30
0.0
 11
23.10006699999996
 21
156.3013498146941
 31
0.0
  0
LINE
  5
77FA
330
1E
100
AcDbEntity
  8
10
  6
CONTINOUS
100
AcDbLine
 10
23.40006700000003
 20
153.5013498146942
 30
0.0
 11
29.10006699999996
 21
153.5013498146942
 31
0.0
  0
LINE
  5
77FB
330
1E
100
AcDbEntity
  8
10
  6
CONTINOUS
100
AcDbLine
 10
22.550067
 20
156.3014188146941
 30
0.0
 11
23.10006699999996
 21
156.3013498146941
 31
0.0
  0
ARC
  5
77FC
330
1E
100
AcDbEntity
  8
10
  6
CONTINOUS
100
AcDbCircle
 10
23.40006700000003
 20
153.8013498146941
 30
0.0
 40
0.3
100
AcDbArc
 50
180.0
 51
270.0
  0
ARC
  5
77FD
330
1E
100
AcDbEntity
  8
10
  6
CONTINOUS
100
AcDbCircle
 10
22.550067
 20
156.8014188146941
 30
0.0
 40
0.5
100
AcDbArc
 50
180.0
 51
270.0
  0
LINE
  5
77FE
330
1E
100
AcDbEntity
  8
10
  6
CONTINOUS
100
AcDbLine
 10
23.10006699999996
 20
153.8013498146941
 30
0.0
 11
23.10006699999996
 21
156.3013498146941
 31
0.0
  0
LINE
  5
77FF
330
1E
100
AcDbEntity
  8
10
  6
CONTINOUS
100
AcDbLine
 10
22.05006700000001
 20
158.801418814694
 30
0.0
 11
22.05006700000001
 21
156.8014188146941
 31
0.0
  0
LINE
  5
7800
330
1E
100
AcDbEntity
  8
10
  6
CONTINOUS
100
AcDbLine
 10
29.40006700000003
 20
156.3013498146941
 30
0.0
 11
29.95006699999999
 21
156.3014188146941
 31
0.0
  0
ARC
  5
7801
330
1E
100
AcDbEntity
  8
10
  6
CONTINOUS
100
AcDbCircle
 10
29.95006699999999
 20
156.8014188146941
 30
0.0
 40
0.5
100
AcDbArc
 50
270.0
 51
0.0
  0
ARC
  5
7802
330
1E
100
AcDbEntity
  8
10
  6
CONTINOUS
100
AcDbCircle
 10
29.10006699999996
 20
153.8013498146941
 30
0.0
 40
0.3
100
AcDbArc
 50
270.0
 51
0.0
  0
LINE
  5
7803
330
1E
100
AcDbEntity
  8
10
  6
CONTINOUS
100
AcDbLine
 10
29.40006700000003
 20
153.8013498146941
 30
0.0
 11
29.40006700000003
 21
156.3013498146941
 31
0.0
  0
LINE
  5
7804
330
1E
100
AcDbEntity
  8
10
  6
CONTINOUS
100
AcDbLine
 10
30.45006699999999
 20
158.801418814694
 30
0.0
 11
30.45006699999999
 21
156.8014188146941
 31
0.0
  0
ARC
  5
7805
330
1E
100
AcDbEntity
  8
10
  6
CONTINOUS
100
AcDbCircle
 10
52.0
 20
166.5027908146942
 30
0.0
 40
7.0
100
AcDbArc
 50
270.0
 51
0.0
  0
LINE
  5
7806
330
1E
100
AcDbEntity
  8
10
  6
CONTINOUS
100
AcDbLine
 10
35.99991799999996
 20
159.5027908146943
 30
0.0
 11
52.0
 21
159.5027908146943
 31
0.0
  0
LINE
  5
7807
330
1E
100
AcDbEntity
  8
10
  6
CONTINOUS
100
AcDbLine
 10
35.99991799999996
 20
158.801418814694
 30
0.0
 11
35.99991799999996
 21
159.5027908146943
 31
0.0
  0
LINE
  5
79B8
330
1E
100
AcDbEntity
  8
0
  6
CONTINUOUS
100
AcDbLine
 10
353.7316991705566
 20
54.99988696827313
 30
0.0
 11
241.1699691705566
 21
54.99988696827313
 31
0.0
  0
LINE
  5
79B9
330
1E
100
AcDbEntity
  8
10
  6
CONTINOUS
100
AcDbLine
 10
237.6792771705566
 20
20.00018596827322
 30
0.0
 11
244.6792771705564
 21
20.00018596827322
 31
0.0
  0
LINE
  5
79BA
330
1E
100
AcDbEntity
  8
10
  6
CONTINOUS
100
AcDbLine
 10
237.6792771705566
 20
-20.00029903172678
 30
0.0
 11
244.6792771705564
 21
-20.00029903172678
 31
0.0
  0
LINE
  5
79BB
330
1E
100
AcDbEntity
  8
0
  6
CONTINUOUS
100
AcDbLine
 10
353.7316991705566
 20
-54.99988703172681
 30
0.0
 11
241.1699691705566
 21
-54.99988703172681
 31
0.0
  0
LINE
  5
79BC
330
1E
100
AcDbEntity
  8
10
  6
CONTINOUS
100
AcDbLine
 10
195.6833081705566
 20
-67.9999820317268
 30
0.0
 11
245.1792771705564
 21
-67.9999820317268
 31
0.0
  0
LINE
  5
79BD
330
1E
100
AcDbEntity
  8
10
  6
CONTINOUS
100
AcDbLine
 10
195.6833081705566
 20
67.99986896827317
 30
0.0
 11
245.1792771705564
 21
67.99986896827317
 31
0.0
  0
LINE
  5
79BF
330
1E
100
AcDbEntity
  8
10
  6
CONTINOUS
100
AcDbLine
 10
233.1792471705564
 20
17.79995796827319
 30
0.0
 11
233.1792471705564
 21
-17.34662603172677
 31
0.0
  0
LINE
  5
79C0
330
1E
100
AcDbEntity
  8
10
  6
CONTINOUS
100
AcDbLine
 10
166.1792771705565
 20
-15.6505820317268
 30
0.0
 11
166.1792771705565
 21
24.2438909682732
 31
0.0
  0
LINE
  5
79C1
330
1E
100
AcDbEntity
  8
10
  6
CONTINOUS
100
AcDbLine
 10
165.1792771705565
 20
13.04575296827322
 30
0.0
 11
165.1792771705565
 21
-15.6505820317268
 31
0.0
  0
LINE
  5
79C2
330
1E
100
AcDbEntity
  8
10
  6
CONTINOUS
100
AcDbLine
 10
169.1793761705566
 20
-24.60000003172678
 30
0.0
 11
169.1793761705566
 21
24.4999999682733
 31
0.0
  0
DIMENSION
  5
79C3
330
1E
100
AcDbEntity
  8
30
  6
CONTINUOUS
100
AcDbDimension
  2
*D94
 10
190.5807481705566
 20
-121.906082761565
 30
0.0
 11
172.5875985151808
 21
-121.906082761565
 31
0.0
 70
   160
  1
37.5
  3
STANDARD
100
AcDbAlignedDimension
 13
153.1958231705566
 23
-0.9999990317267586
 33
0.0
 14
190.5807481705566
 24
-80.00000303172681
 34
0.0
100
AcDbRotatedDimension
1001
ACAD
1000
DSTYLE
1002
{
1070
    79
1070
     3
1002
}
  0
LINE
  5
79C4
330
1E
100
AcDbEntity
  8
10
  6
CONTINOUS
100
AcDbLine
 10
197.1793081705564
 20
49.74996696827328
 30
0.0
 11
197.1793081705564
 21
-49.74996603172678
 31
0.0
  0
LINE
  5
79C5
330
1E
100
AcDbEntity
  8
10
  6
CONTINOUS
100
AcDbLine
 10
190.5807481705566
 20
-80.00000303172681
 30
0.0
 11
190.5807481705566
 21
80.00000296827321
 31
0.0
  0
LINE
  5
79C6
330
1E
100
AcDbEntity
  8
10
  6
CONTINOUS
100
AcDbLine
 10
169.8807481705566
 20
-25.10000003172677
 30
0.0
 11
169.8807481705566
 21
24.9999999682733
 31
0.0
  0
LINE
  5
79C7
330
1E
100
AcDbEntity
  8
18
100
AcDbLine
 10
193.7807511705566
 20
-95.07992903172681
 30
0.0
 11
193.7807511705566
 21
95.07992896827316
 31
0.0
  0
LINE
  5
79C8
330
1E
100
AcDbEntity
  8
18
100
AcDbLine
 10
190.5807511705564
 20
-97.08129903172682
 30
0.0
 11
190.5807511705564
 21
97.08129896827324
 31
0.0
  0
DIMENSION
  5
79C9
330
1E
100
AcDbEntity
  8
30
  6
CONTINUOUS
100
AcDbDimension
  2
*D95
 10
190.5807481705566
 20
-106.1524737409232
 30
0.0
 11
180.2307481705566
 21
-106.1524737409232
 31
0.0
 70
   160
  1
21
  3
STANDARD
100
AcDbAlignedDimension
 13
169.8807481705566
 23
-74.0000040317268
 33
0.0
 14
190.5807481705566
 24
-81.0000040317268
 34
0.0
100
AcDbRotatedDimension
1001
ACAD
1000
DSTYLE
1002
{
1070
    79
1070
     3
1002
}
  0
LWPOLYLINE
  5
79CA
330
1E
100
AcDbEntity
  8
18
100
AcDbPolyline
 90
        6
 70
   128
 43
0.0
 10
188.2933941745864
 20
-94.26086803842782
 10
190.2093721397295
 20
-96.85289514506385
 10
191.706596434248
 20
-96.94762521400141
 10
192.9099830045888
 20
-95.86933275407687
 10
195.7114190780708
 20
-94.77388967061337
 10
198.2538684828865
 20
-96.75098661550284
  0
LINE
  5
79CB
330
1E
100
AcDbEntity
  8
10
  6
CONTINOUS
100
AcDbLine
 10
176.8807481705566
 20
-80.00000303172681
 30
0.0
 11
190.5807481705566
 21
-80.00000303172681
 31
0.0
  0
LINE
  5
79CC
330
1E
100
AcDbEntity
  8
10
  6
CONTINOUS
100
AcDbLine
 10
169.8807481705566
 20
-25.10000003172677
 30
0.0
 11
169.8807481705566
 21
-73.0000030317268
 31
0.0
  0
ARC
  5
79CD
330
1E
100
AcDbEntity
  8
10
  6
CONTINOUS
100
AcDbCircle
 10
176.8807481705566
 20
-73.0000030317268
 30
0.0
 40
7.0
100
AcDbArc
 50
180.0
 51
270.0
  0
POINT
  5
79CE
330
1E
100
AcDbEntity
  8
10
  6
CONTINOUS
100
AcDbPoint
 10
169.8807481705566
 20
-74.0000040317268
 30
0.0
  0
LINE
  5
79CF
330
1E
100
AcDbEntity
  8
10
  6
CONTINOUS
100
AcDbLine
 10
165.1792771705565
 20
-24.02439003172668
 30
0.0
 11
169.1793081705565
 21
-25.0000000317267
 31
0.0
  0
ARC
  5
79D0
330
1E
100
AcDbEntity
  8
10
  6
CONTINOUS
100
AcDbCircle
 10
169.6793761705565
 20
-24.60000003172678
 30
0.0
 40
0.5
100
AcDbArc
 50
180.0
 51
270.0
  0
LINE
  5
79D1
330
1E
100
AcDbEntity
  8
10
  6
CONTINOUS
100
AcDbLine
 10
169.1793081705565
 20
-25.0000000317267
 30
0.0
 11
169.3793761705566
 21
-25.0000000317267
 31
0.0
  0
LINE
  5
79D2
330
1E
100
AcDbEntity
  8
10
  6
CONTINOUS
100
AcDbLine
 10
169.8807481705566
 20
-25.10000003172677
 30
0.0
 11
169.6793761705565
 21
-25.10000003172677
 31
0.0
  0
LINE
  5
79D3
330
1E
100
AcDbEntity
  8
10
  6
CONTINOUS
100
AcDbLine
 10
164.1793081705564
 20
-15.6505820317268
 30
0.0
 11
165.1792771705565
 21
-15.6505820317268
 31
0.0
  0
LINE
  5
79D4
330
1E
100
AcDbEntity
  8
10
  6
CONTINOUS
100
AcDbLine
 10
165.1792771705565
 20
-21.95058203172679
 30
0.0
 11
164.1793081705564
 21
-21.95058203172679
 31
0.0
  0
ARC
  5
79D5
330
1E
100
AcDbEntity
  8
10
  6
CONTINOUS
100
AcDbCircle
 10
164.1793081705564
 20
-15.95058203172681
 30
0.0
 40
0.3
100
AcDbArc
 50
90.0
 51
180.0
  0
ARC
  5
79D6
330
1E
100
AcDbEntity
  8
10
  6
CONTINOUS
100
AcDbCircle
 10
167.1793761705566
 20
-15.10058203172678
 30
0.0
 40
0.5
100
AcDbArc
 50
90.0
 51
180.0
  0
LINE
  5
79D7
330
1E
100
AcDbEntity
  8
10
  6
CONTINOUS
100
AcDbLine
 10
165.1792771705565
 20
-15.6505820317268
 30
0.0
 11
166.6793081705566
 21
-15.6505820317268
 31
0.0
  0
LINE
  5
79D8
330
1E
100
AcDbEntity
  8
10
  6
CONTINOUS
100
AcDbLine
 10
169.1793761705566
 20
-14.60058203172673
 30
0.0
 11
167.1793761705566
 21
-14.60058203172673
 31
0.0
  0
ARC
  5
79D9
330
1E
100
AcDbEntity
  8
10
  6
CONTINOUS
100
AcDbCircle
 10
164.1793081705564
 20
-21.6505820317268
 30
0.0
 40
0.3
100
AcDbArc
 50
180.0
 51
270.0
  0
ARC
  5
79DA
330
1E
100
AcDbEntity
  8
10
  6
CONTINOUS
100
AcDbCircle
 10
167.1793761705566
 20
-22.50058203172676
 30
0.0
 40
0.5
100
AcDbArc
 50
180.0
 51
270.0
  0
LINE
  5
79DB
330
1E
100
AcDbEntity
  8
10
  6
CONTINOUS
100
AcDbLine
 10
165.1792771705565
 20
-21.95058203172679
 30
0.0
 11
166.6793081705566
 21
-21.95058203172679
 31
0.0
  0
LINE
  5
79DC
330
1E
100
AcDbEntity
  8
10
  6
CONTINOUS
100
AcDbLine
 10
169.1793761705566
 20
-23.00058203172676
 30
0.0
 11
167.1793761705566
 21
-23.00058203172676
 31
0.0
  0
LINE
  5
79DD
330
1E
100
AcDbEntity
  8
10
  6
CONTINOUS
100
AcDbLine
 10
165.1792771705565
 20
-21.95058203172679
 30
0.0
 11
165.1792771705565
 21
-24.02439003172668
 31
0.0
  0
LINE
  5
79DE
330
1E
100
AcDbEntity
  8
10
  6
CONTINOUS
100
AcDbLine
 10
166.1792771705565
 20
-24.24390003172669
 30
0.0
 11
166.1792771705565
 21
-21.95058203172679
 31
0.0
  0
LINE
  5
79DF
330
1E
100
AcDbEntity
  8
10
  6
CONTINOUS
100
AcDbLine
 10
163.8793081705566
 20
-21.6505820317268
 30
0.0
 11
163.8793081705566
 21
-15.95058203172681
 31
0.0
  0
LINE
  5
79E0
330
1E
100
AcDbEntity
  8
10
  6
CONTINOUS
100
AcDbLine
 10
166.6793081705566
 20
-15.10058203172678
 30
0.0
 11
166.6793081705566
 21
-22.50058203172676
 31
0.0
  0
LINE
  5
79E1
330
1E
100
AcDbEntity
  8
10
  6
CONTINOUS
100
AcDbLine
 10
235.8347831705564
 20
-48.9236140317268
 30
0.0
 11
236.8792771705566
 21
-42.99999103172678
 31
0.0
  0
LINE
  5
79E2
330
1E
100
AcDbEntity
  8
10
  6
CONTINOUS
100
AcDbLine
 10
237.1792771705564
 20
-20.50029903172679
 30
0.0
 11
237.1792771705564
 21
-49.74996603172678
 31
0.0
  0
LINE
  5
79E3
330
1E
100
AcDbEntity
  8
10
  6
CONTINOUS
100
AcDbLine
 10
197.1793081705564
 20
-49.74996603172678
 30
0.0
 11
234.8499751705566
 21
-49.74996603172678
 31
0.0
  0
LINE
  5
79E4
330
1E
100
AcDbEntity
  8
10
  6
CONTINOUS
100
AcDbLine
 10
194.6833081705566
 20
-49.74996603172678
 30
0.0
 11
237.1792771705564
 21
-49.74996603172678
 31
0.0
  0
ARC
  5
79E5
330
1E
100
AcDbEntity
  8
10
  6
CONTINOUS
100
AcDbCircle
 10
195.6833081705566
 20
-66.9998690317268
 30
0.0
 40
1.0
100
AcDbArc
 50
180.0
 51
270.0
  0
POINT
  5
79E6
330
1E
100
AcDbEntity
  8
10
  6
CONTINOUS
100
AcDbPoint
 10
190.5807481705566
 20
-81.00000303172681
 30
0.0
  0
POINT
  5
79E7
330
1E
100
AcDbEntity
  8
10
  6
CONTINOUS
100
AcDbPoint
 10
190.5807481705566
 20
-81.0000040317268
 30
0.0
  0
LINE
  5
79E8
330
1E
100
AcDbEntity
  8
10
  6
CONTINOUS
100
AcDbLine
 10
194.6833081705566
 20
-49.74996603172678
 30
0.0
 11
194.6833081705566
 21
-66.9998690317268
 31
0.0
  0
LINE
  5
79E9
330
1E
100
AcDbEntity
  8
10
  6
CONTINOUS
100
AcDbLine
 10
197.1793081705564
 20
-49.75000003172681
 30
0.0
 11
190.5807481705566
 21
-49.75000003172681
 31
0.0
  0
ARC
  5
79EA
330
1E
100
AcDbEntity
  8
10
  6
CONTINOUS
100
AcDbCircle
 10
193.1266831705564
 20
-52.00016903172677
 30
0.0
 40
0.5
100
AcDbArc
 50
209.9999999999995
 51
270.0
  0
LINE
  5
79EB
330
1E
100
AcDbEntity
  8
10
  6
CONTINOUS
100
AcDbLine
 10
192.6936711705564
 20
-52.25016903172678
 30
0.0
 11
191.6833081705566
 21
-50.50016903172679
 31
0.0
  0
LINE
  5
79EC
330
1E
100
AcDbEntity
  8
10
  6
CONTINOUS
100
AcDbLine
 10
191.5389701705566
 20
-55.25016903172677
 30
0.0
 11
190.5807481705566
 21
-53.59048003172677
 31
0.0
  0
LINE
  5
79ED
330
1E
100
AcDbEntity
  8
10
  6
CONTINOUS
100
AcDbLine
 10
193.1266831705564
 20
-52.50016903172678
 30
0.0
 11
194.6833081705566
 21
-52.50016903172678
 31
0.0
  0
LINE
  5
79EE
330
1E
100
AcDbEntity
  8
10
  6
CONTINOUS
100
AcDbLine
 10
190.5807481705566
 20
-50.50016903172679
 30
0.0
 11
191.6833081705566
 21
-50.50016903172679
 31
0.0
  0
ARC
  5
79EF
330
1E
100
AcDbEntity
  8
10
  6
CONTINOUS
100
AcDbCircle
 10
194.1833081705566
 20
-56.00016903172678
 30
0.0
 40
0.5
100
AcDbArc
 50
0.0
 51
90.0
  0
LINE
  5
79F0
330
1E
100
AcDbEntity
  8
10
  6
CONTINOUS
100
AcDbLine
 10
191.9719831705564
 20
-55.50016903172679
 30
0.0
 11
194.1833081705566
 21
-55.50016903172679
 31
0.0
  0
ARC
  5
79F1
330
1E
100
AcDbEntity
  8
10
  6
CONTINOUS
100
AcDbCircle
 10
191.9719831705564
 20
-55.00016903172678
 30
0.0
 40
0.5
100
AcDbArc
 50
209.9999999999995
 51
270.0
  0
ARC
  5
79F2
330
1E
100
AcDbEntity
  8
10
  6
CONTINOUS
100
AcDbCircle
 10
234.8499751705566
 20
-48.74996603172679
 30
0.0
 40
1.0
100
AcDbArc
 50
270.0
 51
350.0000000000013
  0
LINE
  5
79F3
330
1E
100
AcDbEntity
  8
10
  6
CONTINOUS
100
AcDbLine
 10
236.8792771705566
 20
-27.5000910317268
 30
0.0
 11
235.4333031705566
 21
-19.29956303172684
 31
0.0
  0
LINE
  5
79F4
330
1E
100
AcDbEntity
  8
10
  6
CONTINOUS
100
AcDbLine
 10
236.8792771705566
 20
-27.5000910317268
 30
0.0
 11
236.8792771705566
 21
-42.99999103172678
 31
0.0
  0
LINE
  5
79F5
330
1E
100
AcDbEntity
  8
10
  6
CONTINOUS
100
AcDbLine
 10
236.8792771705566
 20
-42.99998803172679
 30
0.0
 11
237.1795521705565
 21
-42.99998803172679
 31
0.0
  0
LINE
  5
79F6
330
1E
100
AcDbEntity
  8
10
  6
CONTINOUS
100
AcDbLine
 10
236.8792771705566
 20
-37.29993003172677
 30
0.0
 11
237.1795521705565
 21
-37.29993003172677
 31
0.0
  0
LINE
  5
79F7
330
1E
100
AcDbEntity
  8
10
  6
CONTINOUS
100
AcDbLine
 10
236.8792771705566
 20
-39.00004203172676
 30
0.0
 11
237.1795521705565
 21
-39.00004203172676
 31
0.0
  0
LINE
  5
79F8
330
1E
100
AcDbEntity
  8
10
  6
CONTINOUS
100
AcDbLine
 10
237.1792771705564
 20
-37.29993003172677
 30
0.0
 11
237.1792771705564
 21
-40.00022503172681
 31
0.0
  0
ARC
  5
79F9
330
1E
100
AcDbEntity
  8
10
  6
CONTINOUS
100
AcDbCircle
 10
233.4636871705566
 20
-19.64685903172676
 30
0.0
 40
2.0
100
AcDbArc
 50
9.999999999998674
 51
75.00000000000048
  0
ARC
  5
79FA
330
1E
100
AcDbEntity
  8
10
  6
CONTINOUS
100
AcDbCircle
 10
233.3792471705566
 20
-17.34662603172677
 30
0.0
 40
0.2
100
AcDbArc
 50
180.0
 51
255.0000000000004
  0
LINE
  5
79FB
330
1E
100
AcDbEntity
  8
10
  6
CONTINOUS
100
AcDbLine
 10
233.3274831705566
 20
-17.53981103172678
 30
0.0
 11
233.9813251705566
 21
-17.71500803172676
 31
0.0
  0
ARC
  5
79FC
330
1E
100
AcDbEntity
  8
10
  6
CONTINOUS
100
AcDbCircle
 10
237.6792771705566
 20
-20.50029903172679
 30
0.0
 40
0.5
100
AcDbArc
 50
90.0
 51
180.0
  0
LINE
  5
79FD
330
1E
100
AcDbEntity
  8
10
  6
CONTINOUS
100
AcDbLine
 10
176.8807481705566
 20
80.00000296827321
 30
0.0
 11
190.5807481705566
 21
80.00000296827321
 31
0.0
  0
LINE
  5
79FE
330
1E
100
AcDbEntity
  8
10
  6
CONTINOUS
100
AcDbLine
 10
169.8807481705566
 20
24.9999999682733
 30
0.0
 11
169.8807481705566
 21
73.00000296827319
 31
0.0
  0
LINE
  5
79FF
330
1E
100
AcDbEntity
  8
10
  6
CONTINOUS
100
AcDbLine
 10
158.2009341705566
 20
21.25785996827321
 30
0.0
 11
165.1792771705565
 21
18.43842696827323
 31
0.0
  0
LINE
  5
7A00
330
1E
100
AcDbEntity
  8
10
  6
CONTINOUS
100
AcDbLine
 10
156.3279011705565
 20
16.62194096827311
 30
0.0
 11
165.1792771705565
 21
13.04575296827322
 31
0.0
  0
LINE
  5
7A01
330
1E
100
AcDbEntity
  8
10
  6
CONTINOUS
100
AcDbLine
 10
155.9228011705565
 20
20.29084996827321
 30
0.0
 11
155.3608911705566
 21
18.90007396827319
 31
0.0
  0
ARC
  5
7A02
330
1E
100
AcDbEntity
  8
0
100
AcDbCircle
 10
233.1792771705564
 20
1.626954968273194
 30
0.0
 40
80.0
100
AcDbArc
 50
169.981941999999
 51
181.1653010000004
  0
ARC
  5
7A03
330
1E
100
AcDbEntity
  8
10
  6
CONTINOUS
100
AcDbCircle
 10
156.9834711705565
 20
18.24452196827319
 30
0.0
 40
1.75
100
AcDbArc
 50
158.000000999999
 51
248.0000010000004
  0
ARC
  5
7A05
330
1E
100
AcDbEntity
  8
10
  6
CONTINOUS
100
AcDbCircle
 10
157.5453811705566
 20
19.63529796827321
 30
0.0
 40
1.75
100
AcDbArc
 50
68.0000010000004
 51
158.000000999999
  0
LINE
  5
7A06
330
1E
100
AcDbEntity
  8
10
  6
CONTINOUS
100
AcDbLine
 10
165.1792771705565
 20
18.43842696827323
 30
0.0
 11
165.1792771705565
 21
24.02438296827318
 31
0.0
  0
LINE
  5
7A07
330
1E
100
AcDbEntity
  8
10
  6
CONTINOUS
100
AcDbLine
 10
165.1792771705565
 20
13.04575296827322
 30
0.0
 11
165.1792771705565
 21
18.43842696827323
 31
0.0
  0
ARC
  5
7A08
330
1E
100
AcDbEntity
  8
10
  6
CONTINOUS
100
AcDbCircle
 10
169.6793761705565
 20
24.4999999682733
 30
0.0
 40
0.5
100
AcDbArc
 50
90.0
 51
180.0
  0
LINE
  5
7A09
330
1E
100
AcDbEntity
  8
10
  6
CONTINOUS
100
AcDbLine
 10
169.8807481705566
 20
24.9999999682733
 30
0.0
 11
169.1793761705566
 21
24.9999999682733
 31
0.0
  0
LINE
  5
7A0A
330
1E
100
AcDbEntity
  8
10
  6
CONTINOUS
100
AcDbLine
 10
169.1793761705566
 20
24.9999999682733
 30
0.0
 11
165.1792771705565
 21
24.02438296827318
 31
0.0
  0
ARC
  5
7A0B
330
1E
100
AcDbEntity
  8
10
  6
CONTINOUS
100
AcDbCircle
 10
176.8807481705566
 20
73.00000296827319
 30
0.0
 40
7.0
100
AcDbArc
 50
90.0
 51
180.0
  0
CIRCLE
  5
7A0C
330
1E
100
AcDbEntity
  8
10
  6
CONTINOUS
100
AcDbCircle
 10
172.9931651705566
 20
63.92785696827321
 30
0.0
 40
0.3
  0
LINE
  5
7A0D
330
1E
100
AcDbEntity
  8
10
  6
CONTINOUS
100
AcDbLine
 10
236.8792771705566
 20
42.99998796827321
 30
0.0
 11
236.8792771705566
 21
15.80001896827319
 31
0.0
  0
LINE
  5
7A0E
330
1E
100
AcDbEntity
  8
10
  6
CONTINOUS
100
AcDbLine
 10
237.1792771705564
 20
20.50018596827321
 30
0.0
 11
237.1792771705564
 21
49.74999996827317
 31
0.0
  0
LINE
  5
7A0F
330
1E
100
AcDbEntity
  8
10
  6
CONTINOUS
100
AcDbLine
 10
193.6792771705564
 20
49.74999996827317
 30
0.0
 11
193.6792771705564
 21
37.90003196827314
 31
0.0
  0
LINE
  5
7A10
330
1E
100
AcDbEntity
  8
10
  6
CONTINOUS
100
AcDbLine
 10
193.6792771705564
 20
37.89996396827318
 30
0.0
 11
190.5807481705566
 21
37.89996396827318
 31
0.0
  0
LINE
  5
7A11
330
1E
100
AcDbEntity
  8
10
  6
CONTINOUS
100
AcDbLine
 10
236.0862361705564
 20
15.30001896827319
 30
0.0
 11
236.3792471705564
 21
15.30001896827319
 31
0.0
  0
LINE
  5
7A12
330
1E
100
AcDbEntity
  8
10
  6
CONTINOUS
100
AcDbLine
 10
233.1792471705564
 20
17.79995796827319
 30
0.0
 11
236.8792771705566
 21
17.79995796827319
 31
0.0
  0
ARC
  5
7A13
330
1E
100
AcDbEntity
  8
10
  6
CONTINOUS
100
AcDbCircle
 10
234.8678361705565
 20
16.75666096827318
 30
0.0
 40
0.3
100
AcDbArc
 50
189.9999999999985
 51
228.9999999999995
  0
LINE
  5
7A14
330
1E
100
AcDbEntity
  8
10
  6
CONTINOUS
100
AcDbLine
 10
234.6710181705566
 20
16.53024896827321
 30
0.0
 11
236.0862361705564
 21
15.30001896827319
 31
0.0
  0
LINE
  5
7A15
330
1E
100
AcDbEntity
  8
10
  6
CONTINOUS
100
AcDbLine
 10
234.3792471705564
 20
17.79995796827319
 30
0.0
 11
234.5723941705565
 21
16.70456696827329
 31
0.0
  0
ARC
  5
7A16
330
1E
100
AcDbEntity
  8
10
  6
CONTINOUS
100
AcDbCircle
 10
229.4792471705564
 20
14.59995796827318
 30
0.0
 40
4.2
100
AcDbArc
 50
331.7574629999989
 51
28.24253700000094
  0
ARC
  5
7A17
330
1E
100
AcDbEntity
  8
10
  6
CONTINOUS
100
AcDbCircle
 10
236.3792471705564
 20
15.80001896827319
 30
0.0
 40
0.5
100
AcDbArc
 50
270.0
 51
0.0
  0
ARC
  5
7A18
330
1E
100
AcDbEntity
  8
10
  6
CONTINOUS
100
AcDbCircle
 10
237.6792771705566
 20
20.50018596827321
 30
0.0
 40
0.5
100
AcDbArc
 50
180.0
 51
270.0
  0
LINE
  5
7A19
330
1E
100
AcDbEntity
  8
0
  6
CONTINUOUS
100
AcDbLine
 10
236.8792771705566
 20
38.99998796827322
 30
0.0
 11
237.1795521705565
 21
38.99998796827322
 31
0.0
  0
LINE
  5
7A1A
330
1E
100
AcDbEntity
  8
0
  6
CONTINUOUS
100
AcDbLine
 10
236.8792771705566
 20
37.29998796827328
 30
0.0
 11
237.1795521705565
 21
37.29998796827328
 31
0.0
  0
LINE
  5
7A1B
330
1E
100
AcDbEntity
  8
10
  6
CONTINOUS
100
AcDbLine
 10
194.6833081705566
 20
49.74999996827317
 30
0.0
 11
234.8499751705566
 21
49.74996696827328
 31
0.0
  0
LINE
  5
7A1C
330
1E
100
AcDbEntity
  8
10
  6
CONTINOUS
100
AcDbLine
 10
197.1793081705564
 20
49.74996696827328
 30
0.0
 11
234.8499751705566
 21
49.74996696827328
 31
0.0
  0
LINE
  5
7A1D
330
1E
100
AcDbEntity
  8
10
  6
CONTINOUS
100
AcDbLine
 10
194.6833081705566
 20
49.74999996827317
 30
0.0
 11
194.6833081705566
 21
66.99986896827318
 31
0.0
  0
LINE
  5
7A1E
330
1E
100
AcDbEntity
  8
10
  6
CONTINOUS
100
AcDbLine
 10
192.6936711705564
 20
52.25016896827314
 30
0.0
 11
191.6833081705566
 21
50.50016896827322
 31
0.0
  0
LINE
  5
7A1F
330
1E
100
AcDbEntity
  8
10
  6
CONTINOUS
100
AcDbLine
 10
190.5807481705566
 20
49.74999996827317
 30
0.0
 11
197.1793081705564
 21
49.74999996827317
 31
0.0
  0
LINE
  5
7A20
330
1E
100
AcDbEntity
  8
10
  6
CONTINOUS
100
AcDbLine
 10
190.5807481705566
 20
50.50016896827322
 30
0.0
 11
191.6833081705566
 21
50.50016896827322
 31
0.0
  0
ARC
  5
7A21
330
1E
100
AcDbEntity
  8
10
  6
CONTINOUS
100
AcDbCircle
 10
191.9719831705564
 20
55.00016896827322
 30
0.0
 40
0.5
100
AcDbArc
 50
90.0
 51
150.0000000000003
  0
ARC
  5
7A22
330
1E
100
AcDbEntity
  8
10
  6
CONTINOUS
100
AcDbCircle
 10
194.1833081705566
 20
56.0001689682732
 30
0.0
 40
0.5
100
AcDbArc
 50
270.0
 51
0.0
  0
ARC
  5
7A23
330
1E
100
AcDbEntity
  8
10
  6
CONTINOUS
100
AcDbCircle
 10
193.1266831705564
 20
52.00016896827321
 30
0.0
 40
0.5
100
AcDbArc
 50
90.0
 51
150.0000000000003
  0
LINE
  5
7A24
330
1E
100
AcDbEntity
  8
10
  6
CONTINOUS
100
AcDbLine
 10
193.1266831705564
 20
52.50016896827322
 30
0.0
 11
194.6833081705566
 21
52.50016896827322
 31
0.0
  0
LINE
  5
7A25
330
1E
100
AcDbEntity
  8
10
  6
CONTINOUS
100
AcDbLine
 10
191.5389701705566
 20
55.2501689682732
 30
0.0
 11
190.5807481705566
 21
53.59048096827319
 31
0.0
  0
LINE
  5
7A26
330
1E
100
AcDbEntity
  8
10
  6
CONTINOUS
100
AcDbLine
 10
191.9719831705564
 20
55.50016896827322
 30
0.0
 11
194.1833081705566
 21
55.50016896827322
 31
0.0
  0
ARC
  5
7A27
330
1E
100
AcDbEntity
  8
10
  6
CONTINOUS
100
AcDbCircle
 10
195.6833081705566
 20
66.99986896827318
 30
0.0
 40
1.0
100
AcDbArc
 50
90.0
 51
180.0
  0
LINE
  5
7A28
330
1E
100
AcDbEntity
  8
10
  6
CONTINOUS
100
AcDbLine
 10
234.8499751705566
 20
49.74996696827328
 30
0.0
 11
237.1792771705564
 21
49.74999996827317
 31
0.0
  0
LINE
  5
7A29
330
1E
100
AcDbEntity
  8
0
  6
CONTINUOUS
100
AcDbLine
 10
235.8347831705564
 20
48.92361496827323
 30
0.0
 11
236.8792771705566
 21
42.9999909682732
 31
0.0
  0
ARC
  5
7A2A
330
1E
100
AcDbEntity
  8
10
  6
CONTINOUS
100
AcDbCircle
 10
234.8499751705566
 20
48.74996696827321
 30
0.0
 40
1.0
100
AcDbArc
 50
9.999999999998674
 51
90.0
  0
LWPOLYLINE
  5
7A2B
330
1E
100
AcDbEntity
  8
18
100
AcDbPolyline
 90
        6
 70
   128
 43
0.0
 10
-188.2933941745864
 20
94.26086848913021
 10
-190.2093721397295
 20
96.85289559576609
 10
-191.7065964342478
 20
96.9476256647043
 10
-192.9099830045888
 20
95.86933320477987
 10
-195.7114190780707
 20
94.77389012131595
 10
-198.2538684828865
 20
96.75098706620531
210
0.0
220
0.0
230
-1.0
  0
CIRCLE
  5
7A2C
330
1E
100
AcDbEntity
  8
10
  6
CONTINOUS
100
AcDbCircle
 10
192.0659441705566
 20
84.7901179682732
 30
0.0
 40
0.3
  0
DIMENSION
  5
7A2D
330
1E
100
AcDbEntity
  8
30
  6
CONTINUOUS
100
AcDbDimension
  2
*D96
 10
371.5720028796686
 20
-54.99988703172682
 30
0.0
 11
371.5720028796686
 21
-0.0000000317268132
 31
0.0
 70
   160
  1
110
  3
STANDARD
100
AcDbAlignedDimension
 13
353.7316991705566
 23
54.99988696827313
 33
0.0
 14
353.7316991705566
 24
-54.99988703172681
 34
0.0
 50
90.0
100
AcDbRotatedDimension
1001
ACAD
1000
DSTYLE
1002
{
1070
    79
1070
     3
1002
}
  0
LINE
  5
7A2E
330
1E
100
AcDbEntity
  8
0
  6
CONTINUOUS
100
AcDbLine
 10
272.1792771705564
 20
-47.9998870317268
 30
0.0
 11
297.6792631705566
 21
-47.9998870317268
 31
0.0
  0
LINE
  5
7A2F
330
1E
100
AcDbEntity
  8
0
  6
CONTINUOUS
100
AcDbLine
 10
272.1792771705564
 20
-61.99988703172682
 30
0.0
 11
297.6792631705566
 21
-61.99988703172682
 31
0.0
  0
LINE
  5
7A30
330
1E
100
AcDbEntity
  8
0
  6
CONTINUOUS
100
AcDbLine
 10
318.1792631705565
 20
-46.4998870317268
 30
0.0
 11
277.2936711705566
 21
-46.4998870317268
 31
0.0
  0
LINE
  5
7A31
330
1E
100
AcDbEntity
  8
0
  6
CONTINUOUS
100
AcDbLine
 10
318.1792631705565
 20
-63.4998870317268
 30
0.0
 11
277.2936711705566
 21
-63.4998870317268
 31
0.0
  0
LINE
  5
7A32
330
1E
100
AcDbEntity
  8
0
  6
CONTINUOUS
100
AcDbLine
 10
290.1792631705565
 20
-43.57159503172676
 30
0.0
 11
290.1792631705565
 21
-65.26598803172681
 31
0.0
  0
LINE
  5
7A33
330
1E
100
AcDbEntity
  8
0
  6
CONTINUOUS
100
AcDbLine
 10
273.1888251705564
 20
-45.14049703172686
 30
0.0
 11
277.2936711705566
 21
-46.4998870317268
 31
0.0
  0
LINE
  5
7A34
330
1E
100
AcDbEntity
  8
0
  6
CONTINUOUS
100
AcDbLine
 10
266.6793001705566
 20
-46.64049703172678
 30
0.0
 11
266.6793001705566
 21
-46.19988703172679
 31
0.0
  0
LINE
  5
7A35
330
1E
100
AcDbEntity
  8
0
  6
CONTINUOUS
100
AcDbLine
 10
267.1792881705566
 20
-45.14049703172686
 30
0.0
 11
267.1792881705566
 21
-46.64049703172678
 31
0.0
  0
LINE
  5
7A36
330
1E
100
AcDbEntity
  8
0
  6
CONTINUOUS
100
AcDbLine
 10
260.1792771705564
 20
-63.79988703172677
 30
0.0
 11
260.1792771705564
 21
-46.19988703172679
 31
0.0
  0
LINE
  5
7A37
330
1E
100
AcDbEntity
  8
0
  6
CONTINUOUS
100
AcDbLine
 10
245.1792771705564
 20
-64.99988703172681
 30
0.0
 11
245.1792771705564
 21
-44.99988703172681
 31
0.0
  0
LINE
  5
7A38
330
1E
100
AcDbEntity
  8
0
  6
CONTINUOUS
100
AcDbLine
 10
272.1792771705564
 20
-63.35927603172677
 30
0.0
 11
267.1792881705566
 21
-63.35927603172677
 31
0.0
  0
LINE
  5
7A39
330
1E
100
AcDbEntity
  8
0
  6
CONTINUOUS
100
AcDbLine
 10
272.1792771705564
 20
-46.64049703172678
 30
0.0
 11
267.1792881705566
 21
-46.64049703172678
 31
0.0
  0
LINE
  5
7A3A
330
1E
100
AcDbEntity
  8
0
  6
CONTINUOUS
100
AcDbLine
 10
267.1792881705566
 20
-64.85927603172678
 30
0.0
 11
273.1888251705564
 21
-64.85927603172678
 31
0.0
  0
LINE
  5
7A3B
330
1E
100
AcDbEntity
  8
0
  6
CONTINUOUS
100
AcDbLine
 10
245.1792771705564
 20
-64.99988703172681
 30
0.0
 11
245.1792771705564
 21
-67.9999820317268
 31
0.0
  0
LINE
  5
7A3C
330
1E
100
AcDbEntity
  8
0
  6
CONTINUOUS
100
AcDbLine
 10
260.1792771705564
 20
-64.99988703172681
 30
0.0
 11
245.1792771705564
 21
-64.99988703172681
 31
0.0
  0
LINE
  5
7A3D
330
1E
100
AcDbEntity
  8
0
  6
CONTINUOUS
100
AcDbLine
 10
260.1792771705564
 20
-63.79988703172677
 30
0.0
 11
266.6793001705566
 21
-63.79988703172677
 31
0.0
  0
LINE
  5
7A3E
330
1E
100
AcDbEntity
  8
0
  6
CONTINUOUS
100
AcDbLine
 10
260.1792771705564
 20
-64.99988703172681
 30
0.0
 11
260.1792771705564
 21
-63.79988703172677
 31
0.0
  0
LINE
  5
7A3F
330
1E
100
AcDbEntity
  8
0
  6
CONTINUOUS
100
AcDbLine
 10
266.6793001705566
 20
-63.35927603172677
 30
0.0
 11
267.1792881705566
 21
-63.35927603172677
 31
0.0
  0
LINE
  5
7A40
330
1E
100
AcDbEntity
  8
0
  6
CONTINUOUS
100
AcDbLine
 10
266.6793001705566
 20
-63.35927603172677
 30
0.0
 11
266.6793001705566
 21
-63.79988703172677
 31
0.0
  0
LINE
  5
7A41
330
1E
100
AcDbEntity
  8
0
  6
CONTINUOUS
100
AcDbLine
 10
267.1792881705566
 20
-63.35927603172677
 30
0.0
 11
267.1792881705566
 21
-64.85927603172678
 31
0.0
  0
LINE
  5
7A42
330
1E
100
AcDbEntity
  8
0
  6
CONTINUOUS
100
AcDbLine
 10
266.6793001705566
 20
-46.64049703172678
 30
0.0
 11
267.1792881705566
 21
-46.64049703172678
 31
0.0
  0
LINE
  5
7A43
330
1E
100
AcDbEntity
  8
0
  6
CONTINUOUS
100
AcDbLine
 10
272.1792771705564
 20
-63.35927603172677
 30
0.0
 11
272.1792771705564
 21
-46.64049703172678
 31
0.0
  0
LINE
  5
7A44
330
1E
100
AcDbEntity
  8
0
  6
CONTINUOUS
100
AcDbLine
 10
273.1888251705564
 20
-64.85927603172678
 30
0.0
 11
277.2936711705566
 21
-63.4998870317268
 31
0.0
  0
CIRCLE
  5
7A45
330
1E
100
AcDbEntity
  8
0
  6
CONTINUOUS
100
AcDbCircle
 10
290.1792631705565
 20
-54.99988703172681
 30
0.0
 40
3.25
  0
LINE
  5
7A46
330
1E
100
AcDbEntity
  8
0
  6
CONTINUOUS
100
AcDbLine
 10
267.1792881705566
 20
-45.14049703172686
 30
0.0
 11
273.1888251705564
 21
-45.14049703172686
 31
0.0
  0
LINE
  5
7A47
330
1E
100
AcDbEntity
  8
10
  6
CONTINOUS
100
AcDbLine
 10
245.1792771705564
 20
-44.99988703172681
 30
0.0
 11
245.1792771705564
 21
-20.50029903172679
 31
0.0
  0
LINE
  5
7A48
330
1E
100
AcDbEntity
  8
0
  6
CONTINUOUS
100
AcDbLine
 10
260.1792771705564
 20
-44.99988703172681
 30
0.0
 11
245.1792771705564
 21
-44.99988703172681
 31
0.0
  0
LINE
  5
7A49
330
1E
100
AcDbEntity
  8
0
  6
CONTINUOUS
100
AcDbLine
 10
260.1792771705564
 20
-46.19988703172679
 30
0.0
 11
266.6793001705566
 21
-46.19988703172679
 31
0.0
  0
LINE
  5
7A4A
330
1E
100
AcDbEntity
  8
0
  6
CONTINUOUS
100
AcDbLine
 10
260.1792771705564
 20
-46.19988703172679
 30
0.0
 11
260.1792771705564
 21
-44.99988703172681
 31
0.0
  0
ARC
  5
7A4B
330
1E
100
AcDbEntity
  8
10
  6
CONTINOUS
100
AcDbCircle
 10
244.6792771705564
 20
-20.50029903172679
 30
0.0
 40
0.5
100
AcDbArc
 50
0.0
 51
90.0
  0
LINE
  5
7A4C
330
1E
100
AcDbEntity
  8
0
  6
CONTINUOUS
100
AcDbLine
 10
340.1792631705566
 20
-43.57159503172676
 30
0.0
 11
340.1792631705566
 21
-65.26598803172681
 31
0.0
  0
LINE
  5
7A4D
330
1E
100
AcDbEntity
  8
0
  6
CONTINUOUS
100
AcDbLine
 10
318.1792631705565
 20
-47.9998870317268
 30
0.0
 11
347.6792631705566
 21
-47.9998870317268
 31
0.0
  0
LINE
  5
7A4E
330
1E
100
AcDbEntity
  8
0
  6
CONTINUOUS
100
AcDbLine
 10
318.1792631705565
 20
-61.99988703172682
 30
0.0
 11
347.6792631705566
 21
-61.99988703172682
 31
0.0
  0
LINE
  5
7A4F
330
1E
100
AcDbEntity
  8
0
  6
CONTINUOUS
100
AcDbLine
 10
298.1792631705565
 20
-61.49988703172681
 30
0.0
 11
298.1792631705565
 21
-48.4998870317268
 31
0.0
  0
ARC
  5
7A50
330
1E
100
AcDbEntity
  8
0
  6
CONTINUOUS
100
AcDbCircle
 10
297.6792631705566
 20
-61.49988703172681
 30
0.0
 40
0.5
100
AcDbArc
 50
270.0
 51
0.0
  0
ARC
  5
7A51
330
1E
100
AcDbEntity
  8
0
  6
CONTINUOUS
100
AcDbCircle
 10
297.6792631705566
 20
-48.4998870317268
 30
0.0
 40
0.5
100
AcDbArc
 50
0.0
 51
90.0
  0
LINE
  5
7A52
330
1E
100
AcDbEntity
  8
0
  6
CONTINUOUS
100
AcDbLine
 10
318.1792631705565
 20
-47.9998870317268
 30
0.0
 11
318.1792631705565
 21
-61.99988703172682
 31
0.0
  0
LINE
  5
7A53
330
1E
100
AcDbEntity
  8
0
  6
CONTINUOUS
100
AcDbLine
 10
318.1792631705565
 20
-61.99988703172682
 30
0.0
 11
318.1792631705565
 21
-63.4998870317268
 31
0.0
  0
LINE
  5
7A54
330
1E
100
AcDbEntity
  8
0
  6
CONTINUOUS
100
AcDbLine
 10
318.1792631705565
 20
-47.9998870317268
 30
0.0
 11
318.1792631705565
 21
-46.4998870317268
 31
0.0
  0
CIRCLE
  5
7A55
330
1E
100
AcDbEntity
  8
0
  6
CONTINUOUS
100
AcDbCircle
 10
340.1792631705566
 20
-54.99988703172681
 30
0.0
 40
3.25
  0
LINE
  5
7A56
330
1E
100
AcDbEntity
  8
0
  6
CONTINUOUS
100
AcDbLine
 10
348.1792631705566
 20
-48.4998870317268
 30
0.0
 11
348.1792631705566
 21
-61.49988703172681
 31
0.0
  0
ARC
  5
7A57
330
1E
100
AcDbEntity
  8
0
  6
CONTINUOUS
100
AcDbCircle
 10
347.6792631705566
 20
-61.49988703172681
 30
0.0
 40
0.5
100
AcDbArc
 50
270.0
 51
0.0
  0
ARC
  5
7A58
330
1E
100
AcDbEntity
  8
0
  6
CONTINUOUS
100
AcDbCircle
 10
347.6792631705566
 20
-48.4998870317268
 30
0.0
 40
0.5
100
AcDbArc
 50
0.0
 51
90.0
  0
DIMENSION
  5
7A59
330
1E
100
AcDbEntity
  8
30
  6
CONTINUOUS
100
AcDbDimension
  2
*D97
 10
362.1268427462938
 20
56.49873796827328
 30
0.0
 11
364.4601760796271
 21
63.49873796827336
 31
0.0
 70
    32
  1
3
  3
STANDARD
100
AcDbAlignedDimension
 13
348.1792631705566
 23
53.49873796827319
 33
0.0
 14
348.1792631705566
 24
56.49873796827328
 34
0.0
 50
90.0
100
AcDbRotatedDimension
1001
ACAD
1000
DSTYLE
1002
{
1070
    79
1070
     3
1002
}
  0
LINE
  5
7A5A
330
1E
100
AcDbEntity
  8
0
  6
CONTINUOUS
100
AcDbLine
 10
272.1792631705566
 20
56.49873796827328
 30
0.0
 11
298.1792631705565
 21
56.49873796827328
 31
0.0
  0
LINE
  5
7A5B
330
1E
100
AcDbEntity
  8
0
  6
CONTINUOUS
100
AcDbLine
 10
272.1792631705566
 20
53.49873796827319
 30
0.0
 11
298.1792631705565
 21
53.49873796827319
 31
0.0
  0
LINE
  5
7A5C
330
1E
100
AcDbEntity
  8
0
  6
CONTINUOUS
100
AcDbLine
 10
277.2936711705566
 20
57.99958796827333
 30
0.0
 11
318.1792631705565
 21
57.99958796827333
 31
0.0
  0
LINE
  5
7A5D
330
1E
100
AcDbEntity
  8
0
  6
CONTINUOUS
100
AcDbLine
 10
277.2936711705566
 20
51.99958796827331
 30
0.0
 11
318.1792631705565
 21
51.99958796827331
 31
0.0
  0
LINE
  5
7A5E
330
1E
100
AcDbEntity
  8
10
  6
CONTINOUS
100
AcDbLine
 10
245.1792771705564
 20
20.50018596827321
 30
0.0
 11
245.1792771705564
 21
44.99988696827318
 31
0.0
  0
ARC
  5
7A5F
330
1E
100
AcDbEntity
  8
10
  6
CONTINOUS
100
AcDbCircle
 10
244.6792771705564
 20
20.50018596827321
 30
0.0
 40
0.5
100
AcDbArc
 50
270.0
 51
0.0
  0
LINE
  5
7A60
330
1E
100
AcDbEntity
  8
0
  6
CONTINUOUS
100
AcDbLine
 10
272.1792631705566
 20
63.35938996827326
 30
0.0
 11
267.1792881705566
 21
63.35938996827326
 31
0.0
  0
LINE
  5
7A61
330
1E
100
AcDbEntity
  8
0
  6
CONTINUOUS
100
AcDbLine
 10
272.7558121705566
 20
64.85938996827326
 30
0.0
 11
267.1792881705566
 21
64.85938996827326
 31
0.0
  0
LINE
  5
7A62
330
1E
100
AcDbEntity
  8
0
  6
CONTINUOUS
100
AcDbLine
 10
272.1792631705566
 20
46.64061096827322
 30
0.0
 11
267.1792881705566
 21
46.64061096827322
 31
0.0
  0
LINE
  5
7A63
330
1E
100
AcDbEntity
  8
0
  6
CONTINUOUS
100
AcDbLine
 10
272.7845051705565
 20
45.14061096827322
 30
0.0
 11
267.1792881705566
 21
45.14061096827322
 31
0.0
  0
LINE
  5
7A64
330
1E
100
AcDbEntity
  8
0
  6
CONTINUOUS
100
AcDbLine
 10
260.1792771705564
 20
63.79999996827326
 30
0.0
 11
260.1792771705564
 21
46.19999996827329
 31
0.0
  0
LINE
  5
7A65
330
1E
100
AcDbEntity
  8
0
  6
CONTINUOUS
100
AcDbLine
 10
245.1792771705564
 20
64.99988696827324
 30
0.0
 11
245.1792771705564
 21
44.99988696827318
 31
0.0
  0
LINE
  5
7A66
330
1E
100
AcDbEntity
  8
0
  6
CONTINUOUS
100
AcDbLine
 10
245.1792771705564
 20
44.99988696827318
 30
0.0
 11
260.1792771705564
 21
44.99988696827318
 31
0.0
  0
LINE
  5
7A67
330
1E
100
AcDbEntity
  8
0
  6
CONTINUOUS
100
AcDbLine
 10
260.1792771705564
 20
46.19999996827329
 30
0.0
 11
266.6793001705566
 21
46.19999996827329
 31
0.0
  0
LINE
  5
7A68
330
1E
100
AcDbEntity
  8
0
  6
CONTINUOUS
100
AcDbLine
 10
260.1792771705564
 20
46.19999996827329
 30
0.0
 11
260.1792771705564
 21
44.99988696827318
 31
0.0
  0
LINE
  5
7A69
330
1E
100
AcDbEntity
  8
0
  6
CONTINUOUS
100
AcDbLine
 10
267.1792881705566
 20
46.64061096827322
 30
0.0
 11
266.6793001705566
 21
46.64061096827322
 31
0.0
  0
LINE
  5
7A6A
330
1E
100
AcDbEntity
  8
0
  6
CONTINUOUS
100
AcDbLine
 10
266.6793001705566
 20
46.64061096827322
 30
0.0
 11
266.6793001705566
 21
46.19999996827329
 31
0.0
  0
LINE
  5
7A6B
330
1E
100
AcDbEntity
  8
0
  6
CONTINUOUS
100
AcDbLine
 10
267.1792881705566
 20
45.14061096827322
 30
0.0
 11
267.1792881705566
 21
46.64061096827322
 31
0.0
  0
LINE
  5
7A6C
330
1E
100
AcDbEntity
  8
0
  6
CONTINUOUS
100
AcDbLine
 10
245.1792771705564
 20
64.99988696827324
 30
0.0
 11
260.1792771705564
 21
64.99988696827324
 31
0.0
  0
LINE
  5
7A6D
330
1E
100
AcDbEntity
  8
0
  6
CONTINUOUS
100
AcDbLine
 10
245.1792771705564
 20
64.99988696827324
 30
0.0
 11
245.1792771705564
 21
67.99986896827317
 31
0.0
  0
LINE
  5
7A6E
330
1E
100
AcDbEntity
  8
0
  6
CONTINUOUS
100
AcDbLine
 10
260.1792771705564
 20
63.79999996827326
 30
0.0
 11
266.6793001705566
 21
63.79999996827326
 31
0.0
  0
LINE
  5
7A6F
330
1E
100
AcDbEntity
  8
0
  6
CONTINUOUS
100
AcDbLine
 10
260.1792771705564
 20
63.79999996827326
 30
0.0
 11
260.1792771705564
 21
64.99988696827324
 31
0.0
  0
LINE
  5
7A70
330
1E
100
AcDbEntity
  8
0
  6
CONTINUOUS
100
AcDbLine
 10
266.6793001705566
 20
63.35938996827326
 30
0.0
 11
267.1792881705566
 21
63.35938996827326
 31
0.0
  0
LINE
  5
7A71
330
1E
100
AcDbEntity
  8
0
  6
CONTINUOUS
100
AcDbLine
 10
266.6793001705566
 20
63.35938996827326
 30
0.0
 11
266.6793001705566
 21
63.79999996827326
 31
0.0
  0
LINE
  5
7A72
330
1E
100
AcDbEntity
  8
0
  6
CONTINUOUS
100
AcDbLine
 10
267.1792881705566
 20
63.35938996827326
 30
0.0
 11
267.1792881705566
 21
64.85938996827326
 31
0.0
  0
LINE
  5
7A73
330
1E
100
AcDbEntity
  8
0
  6
CONTINUOUS
100
AcDbLine
 10
273.1888251705564
 20
64.60938996827326
 30
0.0
 11
276.8606581705564
 21
58.24958796827331
 31
0.0
  0
LINE
  5
7A74
330
1E
100
AcDbEntity
  8
0
  6
CONTINUOUS
100
AcDbLine
 10
272.1792631705566
 20
46.64061096827322
 30
0.0
 11
272.1792631705566
 21
63.35938996827326
 31
0.0
  0
LINE
  5
7A75
330
1E
100
AcDbEntity
  8
0
  6
CONTINUOUS
100
AcDbLine
 10
273.1888251705564
 20
45.3897869682732
 30
0.0
 11
276.8606581705564
 21
51.7495879682732
 31
0.0
  0
ARC
  5
7A76
330
1E
100
AcDbEntity
  8
0
  6
CONTINUOUS
100
AcDbCircle
 10
272.7558121705566
 20
45.63978696827319
 30
0.0
 40
0.5
100
AcDbArc
 50
270.0
 51
330.0000000000005
  0
LINE
  5
7A77
330
1E
100
AcDbEntity
  8
0
  6
CONTINUOUS
100
AcDbLine
 10
280.1534431705565
 20
56.49873796827328
 30
0.0
 11
280.1534431705565
 21
57.99958796827333
 31
0.0
  0
LINE
  5
7A78
330
1E
100
AcDbEntity
  8
0
  6
CONTINUOUS
100
AcDbLine
 10
280.1534431705565
 20
51.99958796827331
 30
0.0
 11
280.1534431705565
 21
53.49873796827319
 31
0.0
  0
ARC
  5
7A79
330
1E
100
AcDbEntity
  8
0
  6
CONTINUOUS
100
AcDbCircle
 10
277.2936711705566
 20
58.49958796827332
 30
0.0
 40
0.5
100
AcDbArc
 50
209.9999999999995
 51
270.0
  0
ARC
  5
7A7A
330
1E
100
AcDbEntity
  8
0
  6
CONTINUOUS
100
AcDbCircle
 10
277.2936711705566
 20
51.49958796827331
 30
0.0
 40
0.5
100
AcDbArc
 50
90.0
 51
150.0000000000003
  0
LINE
  5
7A7B
330
1E
100
AcDbEntity
  8
0
  6
CONTINUOUS
100
AcDbLine
 10
290.1792631705565
 20
47.70407996827322
 30
0.0
 11
290.1792631705565
 21
61.31694896827321
 31
0.0
  0
ARC
  5
7A7C
330
1E
100
AcDbEntity
  8
0
  6
CONTINUOUS
100
AcDbCircle
 10
272.7558121705566
 20
64.35938996827326
 30
0.0
 40
0.5
100
AcDbArc
 50
29.99999999999951
 51
90.0
  0
LINE
  5
7A7D
330
1E
100
AcDbEntity
  8
0
  6
CONTINUOUS
100
AcDbLine
 10
318.1792631705565
 20
53.49873796827319
 30
0.0
 11
348.1792631705566
 21
53.49873796827319
 31
0.0
  0
LINE
  5
7A7E
330
1E
100
AcDbEntity
  8
0
  6
CONTINUOUS
100
AcDbLine
 10
318.1792631705565
 20
56.49873796827328
 30
0.0
 11
348.1792631705566
 21
56.49873796827328
 31
0.0
  0
LINE
  5
7A7F
330
1E
100
AcDbEntity
  8
0
  6
CONTINUOUS
100
AcDbLine
 10
298.1792631705565
 20
53.49873796827319
 30
0.0
 11
298.1792631705565
 21
56.49873796827328
 31
0.0
  0
LINE
  5
7A80
330
1E
100
AcDbEntity
  8
0
  6
CONTINUOUS
100
AcDbLine
 10
318.1792631705565
 20
53.49873796827319
 30
0.0
 11
318.1792631705565
 21
51.99958796827331
 31
0.0
  0
LINE
  5
7A81
330
1E
100
AcDbEntity
  8
0
  6
CONTINUOUS
100
AcDbLine
 10
318.1792631705565
 20
56.49873796827328
 30
0.0
 11
318.1792631705565
 21
53.49873796827319
 31
0.0
  0
LINE
  5
7A82
330
1E
100
AcDbEntity
  8
0
  6
CONTINUOUS
100
AcDbLine
 10
318.1792631705565
 20
56.49873796827328
 30
0.0
 11
318.1792631705565
 21
57.99958796827333
 31
0.0
  0
LINE
  5
7A83
330
1E
100
AcDbEntity
  8
0
  6
CONTINUOUS
100
AcDbLine
 10
318.1792631705565
 20
53.49873796827319
 30
0.0
 11
318.1792631705565
 21
56.49873796827328
 31
0.0
  0
LINE
  5
7A84
330
1E
100
AcDbEntity
  8
0
  6
CONTINUOUS
100
AcDbLine
 10
340.1792631705566
 20
47.70407996827322
 30
0.0
 11
340.1792631705566
 21
61.5365119682732
 31
0.0
  0
LINE
  5
7A85
330
1E
100
AcDbEntity
  8
0
  6
CONTINUOUS
100
AcDbLine
 10
348.1792631705566
 20
53.49873796827319
 30
0.0
 11
348.1792631705566
 21
56.49873796827328
 31
0.0
  0
LINE
  5
7B5E
330
1E
100
AcDbEntity
  8
10
  6
CONTINOUS
100
AcDbLine
 10
-34.99999999999998
 20
26.99999999999988
 30
0.0
 11
34.99999999999998
 21
26.99999999999988
 31
0.0
  0
LINE
  5
7B5F
330
1E
100
AcDbEntity
  8
10
  6
CONTINOUS
100
AcDbLine
 10
-37.39987799999999
 20
67.99986899999986
 30
0.0
 11
37.40012199999997
 21
67.99986899999986
 31
0.0
  0
CIRCLE
  5
7B60
330
1E
100
AcDbEntity
  8
10
  6
CONTINOUS
100
AcDbCircle
 10
32.60015099999999
 20
-13.50033500000006
 30
0.0
 40
2.0
  0
LINE
  5
7B61
330
1E
100
AcDbEntity
  8
10
  6
CONTINOUS
100
AcDbLine
 10
35.00006699999998
 20
25.0
 30
0.0
 11
-34.99991699999997
 21
25.0
 31
0.0
  0
LINE
  5
7B62
330
1E
100
AcDbEntity
  8
10
  6
CONTINOUS
100
AcDbLine
 10
-34.99991699999997
 20
-25.00030500000007
 30
0.0
 11
35.00006699999998
 21
-25.00030500000007
 31
0.0
  0
LINE
  5
7B63
330
1E
100
AcDbEntity
  8
10
  6
CONTINOUS
100
AcDbLine
 10
-34.99998499999996
 20
24.99980799999991
 30
0.0
 11
34.99999999999998
 21
24.99980799999991
 31
0.0
  0
LINE
  5
7B64
330
1E
100
AcDbEntity
  8
10
  6
CONTINOUS
100
AcDbLine
 10
-34.99999999999998
 20
-26.99999200000019
 30
0.0
 11
34.99999999999998
 21
-26.99999200000019
 31
0.0
  0
DIMENSION
  5
7B65
330
1E
100
AcDbEntity
  8
30
  6
CONTINUOUS
100
AcDbDimension
  2
*D100
 10
58.99999999999998
 20
-101.2534894977114
 30
0.0
 11
0.0000000000000002
 21
-98.25348949771143
 31
0.0
 70
    32
  1
118
  3
STANDARD
100
AcDbAlignedDimension
 13
-58.99999999999998
 23
-78.0000000000001
 33
0.0
 14
58.99999999999998
 24
-80.00000000000012
 34
0.0
100
AcDbRotatedDimension
1001
ACAD
1000
DSTYLE
1002
{
1070
    79
1070
     3
1002
}
  0
LINE
  5
7B66
330
1E
100
AcDbEntity
  8
10
  6
CONTINOUS
100
AcDbLine
 10
-37.29987799999996
 20
-67.99986900000011
 30
0.0
 11
37.39987799999996
 21
-67.99986900000011
 31
0.0
  0
LINE
  5
7B67
330
1E
100
AcDbEntity
  8
10
  6
CONTINOUS
100
AcDbLine
 10
-55.99999999999999
 20
80.0
 30
0.0
 11
55.99999999999997
 21
80.0
 31
0.0
  0
LINE
  5
7B68
330
1E
100
AcDbEntity
  8
10
  6
CONTINOUS
100
AcDbLine
 10
-55.99999999999999
 20
-80.00000000000012
 30
0.0
 11
55.99999999999997
 21
-80.00000000000012
 31
0.0
  0
LINE
  5
7B6A
330
1E
100
AcDbEntity
  8
10
  6
CONTINOUS
100
AcDbLine
 10
-10.99991699999996
 20
25.0
 30
0.0
 11
-10.99991699999996
 21
-24.50030500000007
 31
0.0
  0
LINE
  5
7B6B
330
1E
100
AcDbEntity
  8
10
  6
CONTINOUS
100
AcDbLine
 10
11.000067
 20
25.0
 30
0.0
 11
11.000067
 21
-24.50030500000007
 31
0.0
  0
LINE
  5
7B6C
330
1E
100
AcDbEntity
  8
10
  6
CONTINOUS
100
AcDbLine
 10
-35.99991699999996
 20
24.0
 30
0.0
 11
-35.99991699999996
 21
-24.00030500000007
 31
0.0
  0
LINE
  5
7B6D
330
1E
100
AcDbEntity
  8
10
  6
CONTINOUS
100
AcDbLine
 10
-36.99999999999996
 20
-24.99999200000019
 30
0.0
 11
-36.99999999999996
 21
25.0
 31
0.0
  0
LINE
  5
7B6E
330
1E
100
AcDbEntity
  8
10
  6
CONTINOUS
100
AcDbLine
 10
-37.39987799999999
 20
67.99986899999986
 30
0.0
 11
-37.39987799999999
 21
-67.99986900000011
 31
0.0
  0
LINE
  5
7B71
330
1E
100
AcDbEntity
  8
10
  6
CONTINOUS
100
AcDbLine
 10
-58.99999999999998
 20
76.99999999999987
 30
0.0
 11
-58.99999999999998
 21
-77.00000000000009
 31
0.0
  0
ARC
  5
7B72
330
1E
100
AcDbEntity
  8
10
  6
CONTINOUS
100
AcDbCircle
 10
-55.99999999999999
 20
-77.00000000000009
 30
0.0
 40
3.0
100
AcDbArc
 50
180.0
 51
270.0
  0
POINT
  5
7B73
330
1E
100
AcDbEntity
  8
10
  6
CONTINOUS
100
AcDbPoint
 10
-58.99999999999998
 20
-78.0000000000001
 30
0.0
  0
ARC
  5
7B74
330
1E
100
AcDbEntity
  8
10
  6
CONTINOUS
100
AcDbCircle
 10
-34.99991699999997
 20
-24.00030500000007
 30
0.0
 40
1.0
100
AcDbArc
 50
180.0000010000013
 51
270.0
  0
ARC
  5
7B75
330
1E
100
AcDbEntity
  8
10
  6
CONTINOUS
100
AcDbCircle
 10
-34.99999999999998
 20
-24.99999200000019
 30
0.0
 40
2.0
100
AcDbArc
 50
180.0
 51
270.0
  0
ARC
  5
7B76
330
1E
100
AcDbEntity
  8
10
  6
CONTINOUS
100
AcDbCircle
 10
-10.49991699999996
 20
-24.50030500000007
 30
0.0
 40
0.5
100
AcDbArc
 50
180.0
 51
270.0
  0
ARC
  5
7B77
330
1E
100
AcDbEntity
  8
10
  6
CONTINOUS
100
AcDbCircle
 10
10.50006699999999
 20
-24.50030500000007
 30
0.0
 40
0.5
100
AcDbArc
 50
270.0
 51
0.0000030000009533
  0
CIRCLE
  5
7B78
330
1E
100
AcDbEntity
  8
10
  6
CONTINOUS
100
AcDbCircle
 10
26.250067
 20
-18.80058200000005
 30
0.0
 40
4.2
  0
CIRCLE
  5
7B79
330
1E
100
AcDbEntity
  8
10
  6
CONTINOUS
100
AcDbCircle
 10
26.250067
 20
-18.80058200000005
 30
0.0
 40
3.149999999999999
  0
CIRCLE
  5
7B7A
330
1E
100
AcDbEntity
  8
10
  6
CONTINOUS
100
AcDbCircle
 10
26.250067
 20
-6.20058200000011
 30
0.0
 40
2.75
  0
ARC
  5
7B7C
330
1E
100
AcDbEntity
  8
10
  6
CONTINOUS
100
AcDbCircle
 10
-34.99991699999997
 20
24.0
 30
0.0
 40
1.0
100
AcDbArc
 50
90.0
 51
180.0
  0
ARC
  5
7B7D
330
1E
100
AcDbEntity
  8
10
  6
CONTINOUS
100
AcDbCircle
 10
-34.99999999999998
 20
25.0
 30
0.0
 40
2.0
100
AcDbArc
 50
90.0
 51
180.0
  0
ARC
  5
7B7E
330
1E
100
AcDbEntity
  8
10
  6
CONTINOUS
100
AcDbCircle
 10
-55.99999999999999
 20
76.99999999999987
 30
0.0
 40
3.0
100
AcDbArc
 50
90.0
 51
180.0
  0
CIRCLE
  5
7B7F
330
1E
100
AcDbEntity
  8
10
  6
CONTINOUS
100
AcDbCircle
 10
-41.21448999999996
 20
74.31757999999979
 30
0.0
 40
0.3
  0
LINE
  5
7B80
330
1E
100
AcDbEntity
  8
10
  6
CONTINOUS
100
AcDbLine
 10
6.0
 20
15.09972599999992
 30
0.0
 11
6.500067000000001
 21
15.09972599999992
 31
0.0
  0
LINE
  5
7B81
330
1E
100
AcDbEntity
  8
10
  6
CONTINOUS
100
AcDbLine
 10
6.0
 20
17.19972599999988
 30
0.0
 11
6.500067000000001
 21
17.19972599999988
 31
0.0
  0
LINE
  5
7B82
330
1E
100
AcDbEntity
  8
10
  6
CONTINOUS
100
AcDbLine
 10
-6.499916999999982
 20
1.799725999999907
 30
0.0
 11
6.500067000000001
 21
1.799725999999907
 31
0.0
  0
LINE
  5
7B83
330
1E
100
AcDbEntity
  8
10
  6
CONTINOUS
100
AcDbLine
 10
6.0
 20
2.638105999999936
 30
0.0
 11
6.0
 21
21.38528899999987
 31
0.0
  0
LINE
  5
7B84
330
1E
100
AcDbEntity
  8
10
  6
CONTINOUS
100
AcDbLine
 10
-5.999999999999985
 20
21.38528899999987
 30
0.0
 11
-5.999999999999985
 21
2.638105999999936
 31
0.0
  0
LINE
  5
7B85
330
1E
100
AcDbEntity
  8
10
  6
CONTINOUS
100
AcDbLine
 10
-6.499916999999982
 20
17.19972599999988
 30
0.0
 11
-6.499916999999982
 21
1.799725999999907
 31
0.0
  0
LINE
  5
7B86
330
1E
100
AcDbEntity
  8
10
  6
CONTINOUS
100
AcDbLine
 10
-5.999999999999985
 20
2.638105999999936
 30
0.0
 11
6.0
 21
2.638105999999936
 31
0.0
  0
LINE
  5
7B87
330
1E
100
AcDbEntity
  8
10
  6
CONTINOUS
100
AcDbLine
 10
4.962554999999993
 20
17.27750299999985
 30
0.0
 11
-4.944045999999985
 21
17.27750299999985
 31
0.0
  0
LINE
  5
7B88
330
1E
100
AcDbEntity
  8
10
  6
CONTINOUS
100
AcDbLine
 10
6.0
 20
9.953375999999931
 30
0.0
 11
-5.999999999999985
 21
9.953375999999931
 31
0.0
  0
LINE
  5
7B89
330
1E
100
AcDbEntity
  8
10
  6
CONTINOUS
100
AcDbLine
 10
-6.499916999999982
 20
15.09972599999992
 30
0.0
 11
-5.999999999999985
 21
15.09972599999992
 31
0.0
  0
LINE
  5
7B8A
330
1E
100
AcDbEntity
  8
10
  6
CONTINOUS
100
AcDbLine
 10
-6.499916999999982
 20
17.19972599999988
 30
0.0
 11
-5.999999999999985
 21
17.19972599999988
 31
0.0
  0
LINE
  5
7B8B
330
1E
100
AcDbEntity
  8
10
  6
CONTINOUS
100
AcDbLine
 10
6.0
 20
21.38528899999987
 30
0.0
 11
-5.999999999999985
 21
21.38528899999987
 31
0.0
  0
LINE
  5
7B8C
330
1E
100
AcDbEntity
  8
10
  6
CONTINOUS
100
AcDbLine
 10
6.500067000000001
 20
17.19972599999988
 30
0.0
 11
6.500067000000001
 21
1.799725999999907
 31
0.0
  0
LINE
  5
7B8F
330
1E
100
AcDbEntity
  8
10
  6
CONTINOUS
100
AcDbLine
 10
36.00006699999996
 20
24.0
 30
0.0
 11
36.00006699999996
 21
-24.00030500000007
 31
0.0
  0
LINE
  5
7B90
330
1E
100
AcDbEntity
  8
10
  6
CONTINOUS
100
AcDbLine
 10
36.99999999999996
 20
-24.99999200000019
 30
0.0
 11
36.99999999999996
 21
25.0
 31
0.0
  0
DIMENSION
  5
7B91
330
1E
100
AcDbEntity
  8
30
  6
CONTINUOUS
100
AcDbDimension
  2
*D101
 10
79.06059473124731
 20
-80.00000000000012
 30
0.0
 11
79.06059473124731
 21
0.0
 31
0.0
 70
   160
  1
160
  3
STANDARD
100
AcDbAlignedDimension
 13
56.99999999999999
 23
80.0
 33
0.0
 14
56.99999999999999
 24
-80.00000000000012
 34
0.0
 50
90.0
100
AcDbRotatedDimension
1001
ACAD
1000
DSTYLE
1002
{
1070
    79
1070
     3
1002
}
  0
LINE
  5
7B92
330
1E
100
AcDbEntity
  8
10
  6
CONTINOUS
100
AcDbLine
 10
58.99999999999998
 20
-77.00000000000009
 30
0.0
 11
58.99999999999998
 21
76.99999999999987
 31
0.0
  0
LINE
  5
7B93
330
1E
100
AcDbEntity
  8
10
  6
CONTINOUS
100
AcDbLine
 10
37.40012199999997
 20
67.99986899999986
 30
0.0
 11
37.40012199999997
 21
-67.99986900000011
 31
0.0
  0
ARC
  5
7B94
330
1E
100
AcDbEntity
  8
10
  6
CONTINOUS
100
AcDbCircle
 10
55.99999999999997
 20
-77.00000000000009
 30
0.0
 40
3.0
100
AcDbArc
 50
270.0
 51
0.0
  0
POINT
  5
7B95
330
1E
100
AcDbEntity
  8
10
  6
CONTINOUS
100
AcDbPoint
 10
56.99999999999999
 20
-80.00000000000012
 30
0.0
  0
POINT
  5
7B96
330
1E
100
AcDbEntity
  8
10
  6
CONTINOUS
100
AcDbPoint
 10
58.99999999999998
 20
-78.0000000000001
 30
0.0
  0
ARC
  5
7B97
330
1E
100
AcDbEntity
  8
10
  6
CONTINOUS
100
AcDbCircle
 10
35.00006699999998
 20
-24.00030500000007
 30
0.0
 40
1.0
100
AcDbArc
 50
270.0
 51
359.9999989999984
  0
ARC
  5
7B98
330
1E
100
AcDbEntity
  8
10
  6
CONTINOUS
100
AcDbCircle
 10
34.99999999999998
 20
-24.99999200000019
 30
0.0
 40
2.0
100
AcDbArc
 50
270.0
 51
0.0
  0
ARC
  5
7B99
330
1E
100
AcDbEntity
  8
10
  6
CONTINOUS
100
AcDbCircle
 10
35.00006699999998
 20
24.0
 30
0.0
 40
1.0
100
AcDbArc
 50
0.0
 51
90.0
  0
ARC
  5
7B9A
330
1E
100
AcDbEntity
  8
10
  6
CONTINOUS
100
AcDbCircle
 10
34.99999999999998
 20
23.9998079999999
 30
0.0
 40
1.0
100
AcDbArc
 50
0.0
 51
90.0
  0
ARC
  5
7B9B
330
1E
100
AcDbEntity
  8
10
  6
CONTINOUS
100
AcDbCircle
 10
34.99999999999998
 20
25.0
 30
0.0
 40
2.0
100
AcDbArc
 50
0.0
 51
90.0
  0
ARC
  5
7B9C
330
1E
100
AcDbEntity
  8
10
  6
CONTINOUS
100
AcDbCircle
 10
55.99999999999997
 20
76.99999999999987
 30
0.0
 40
3.0
100
AcDbArc
 50
0.0
 51
90.0
  0
POINT
  5
7B9D
330
1E
100
AcDbEntity
  8
10
  6
CONTINOUS
100
AcDbPoint
 10
56.99999999999999
 20
80.0
 30
0.0
  0
DIMENSION
  5
7C72
330
1E
100
AcDbEntity
  8
30
  6
CONTINUOUS
100
AcDbDimension
  2
*D102
 10
7.0
 20
343.8608897588085
 30
0.0
 11
0.0000000000000011
 21
346.8608897588087
 31
0.0
 70
    32
  3
STANDARD
100
AcDbAlignedDimension
 13
-7.0
 23
329.8013058146941
 33
0.0
 14
7.0
 24
329.8013058146941
 34
0.0
100
AcDbRotatedDimension
1001
ACAD
1000
DSTYLE
1002
{
1070
    79
1070
     3
1002
}
  0
LEADER
  5
7C7F
330
1E
100
AcDbEntity
  8
30
  6
CONTINUOUS
100
AcDbLeader
  3
STANDARD
 76
     2
 10
-3.25
 20
329.8013058146941
 30
0.0
 10
-42.94423178531951
 20
347.7200739498873
 30
0.0
1001
ACAD
1000
DSTYLE
1002
{
1070
     5
1000
OPEN
1070
    77
1070
     0
1070
    79
1070
     3
1070
   147
1040
1.0
1070
   342
1005
3B2
1002
}
  0
LINE
  5
7C80
330
1E
100
AcDbEntity
  8
30
  6
CONTINUOUS
100
AcDbLine
 10
-42.94423178531951
 20
347.7200739498873
 30
0.0
 11
-84.43885882123277
 21
347.7200739498873
 31
0.0
  0
VIEWPORT
  5
9AC
330
1A
100
AcDbEntity
 67
     1
  8
0
  6
CONTINUOUS
100
AcDbViewport
 10
171.999535
 20
144.1384739999999
 30
0.0
 40
488.867686
 41
292.351491
 68
    -1
 69
     1
1001
ACAD
1000
MVIEW
1002
{
1070
    16
1010
0.0
1020
0.0
1030
0.0
1010
0.0
1020
0.0
1030
1.0
1040
0.0
1040
292.351491
1040
171.999535
1040
144.1384739999999
1040
50.0
1040
0.0
1040
0.0
1070
     0
1070
   100
1070
     1
1070
     1
1070
     0
1070
     0
1070
     0
1070
     0
1040
0.0
1040
0.0
1040
0.0
1040
10.0
1040
10.0
1040
10.0
1040
10.0
1070
     0
1002
{
1002
}
1002
}
  0
ENDSEC
  0
SECTION
  2
OBJECTS
  0
DICTIONARY
  5
C
330
0
100
AcDbDictionary
  3
ACAD_GROUP
350
D
  3
ACAD_LAYOUT
350
19
  3
ACAD_MLINESTYLE
350
16
  3
ACAD_PLOTSETTINGS
350
18
  3
ACAD_PLOTSTYLENAME
350
E
  3
ACADDIM
350
5C76
  3
ACDBHEADERROUNDTRIPXREC
350
7D7E
  3
ACDBVARIABLEDICTIONARY
350
5697
  0
DICTIONARY
  5
178
330
1E
100
AcDbDictionary
280
     1
  3
ACAD_LAYOUTSELFREF
360
7DA0
  0
DICTIONARY
  5
17A
330
1A
100
AcDbDictionary
280
     1
  3
ACAD_LAYOUTSELFREF
360
7D9F
  0
DICTIONARY
  5
D
102
{ACAD_REACTORS
330
C
102
}
330
C
100
AcDbDictionary
  0
DICTIONARY
  5
19
102
{ACAD_REACTORS
330
C
102
}
330
C
100
AcDbDictionary
  0
DICTIONARY
  5
16
102
{ACAD_REACTORS
330
C
102
}
330
C
100
AcDbDictionary
  3
STANDARD
350
17
  0
DICTIONARY
  5
18
102
{ACAD_REACTORS
330
C
102
}
330
C
100
AcDbDictionary
  0
ACDBDICTIONARYWDFLT
  5
E
102
{ACAD_REACTORS
330
C
102
}
330
C
100
AcDbDictionary
281
     1
  3
Normal
350
F
100
AcDbDictionaryWithDefault
340
F
  0
XRECORD
  5
5C76
102
{ACAD_REACTORS
330
C
102
}
330
C
100
AcDbXrecord
 90
   990106
  3

 60
     0
 61
     0
 62
     1
 63
     3
 64
     0
 65
     0
 66
     0
 67
     3
 68
     1
 69
     0
 70
     0
 71
     0
 72
     0
 40
0.0
170
     0
340
6200
  0
DICTIONARY
  5
7D7E
102
{ACAD_REACTORS
330
C
102
}
330
C
100
AcDbDictionary
  3
CEPSNTYPE
350
7D88
  3
DIMSTYLEDATA
350
7D8C
  3
FINGERPRINTGUID
350
7D89
  3
HYPERLINKBASE
350
7D81
  3
INSUNITS
350
7D87
  3
LAYOUTDICT
350
7D83
  3
LWETCUNION
350
7D86
  3
PLOTSETDICT
350
7D84
  3
PLOTSTYLNAMDICT
350
7D85
  3
PSVPSCALE
350
7D8B
  3
PUCSBASE
350
7D8F
  3
PUCSORGBACK
350
7D95
  3
PUCSORGBOTTOM
350
7D91
  3
PUCSORGFRONT
350
7D94
  3
PUCSORGLEFT
350
7D92
  3
PUCSORGRIGHT
350
7D93
  3
PUCSORGTOP
350
7D90
  3
PUCSORTHOREF
350
7D8D
  3
PUCSORTHOVIEW
350
7D8E
  3
STYLESHEET
350
7D82
  3
TSTACKALIGN
350
7D7F
  3
TSTACKSIZE
350
7D80
  3
UCSBASE
350
7D98
  3
UCSORGBACK
350
7D9E
  3
UCSORGBOTTOM
350
7D9A
  3
UCSORGFRONT
350
7D9D
  3
UCSORGLEFT
350
7D9B
  3
UCSORGRIGHT
350
7D9C
  3
UCSORGTOP
350
7D99
  3
UCSORTHOREF
350
7D96
  3
UCSORTHOVIEW
350
7D97
  3
VERSIONGUID
350
7D8A
  0
DICTIONARY
  5
5697
102
{ACAD_REACTORS
330
C
102
}
330
C
100
AcDbDictionary
  3
DIMASSOC
350
5698
  0
XRECORD
  5
7DA0
102
{ACAD_REACTORS
330
178
102
}
330
178
100
AcDbXrecord
340
1E
  0
XRECORD
  5
7D9F
102
{ACAD_REACTORS
330
17A
102
}
330
17A
100
AcDbXrecord
340
1A
  0
MLINESTYLE
  5
17
102
{ACAD_REACTORS
330
16
102
}
330
16
100
AcDbMlineStyle
  2
STANDARD
 70
     0
  3

 62
   256
 51
90.0
 52
90.0
 71
     2
 49
0.5
 62
   256
  6
BYLAYER
 49
-0.5
 62
   256
  6
BYLAYER
  0
ACDBPLACEHOLDER
  5
F
102
{ACAD_REACTORS
330
E
102
}
330
E
100
AcDbPlaceHolder
280
     0
  0
XRECORD
  5
7D88
102
{ACAD_REACTORS
330
7D7E
102
}
330
7D7E
100
AcDbXrecord
 90
        0
  0
XRECORD
  5
7D8C
102
{ACAD_REACTORS
330
7D7E
102
}
330
7D7E
100
AcDbXrecord
1000
DSTYLE
1002
{
1070
    79
 70
     3
1070
   341
340
3B2
1070
   342
340
3B2
1002
}
  0
XRECORD
  5
7D89
102
{ACAD_REACTORS
330
7D7E
102
}
330
7D7E
100
AcDbXrecord
  1

  0
XRECORD
  5
7D81
102
{ACAD_REACTORS
330
7D7E
102
}
330
7D7E
100
AcDbXrecord
  1

  0
XRECORD
  5
7D87
102
{ACAD_REACTORS
330
7D7E
102
}
330
7D7E
100
AcDbXrecord
 90
        0
  0
XRECORD
  5
7D83
102
{ACAD_REACTORS
330
7D7E
102
}
330
7D7E
100
AcDbXrecord
340
19
  0
XRECORD
  5
7D86
102
{ACAD_REACTORS
330
7D7E
102
}
330
7D7E
100
AcDbXrecord
 90
    10781
  0
XRECORD
  5
7D84
102
{ACAD_REACTORS
330
7D7E
102
}
330
7D7E
100
AcDbXrecord
340
18
  0
XRECORD
  5
7D85
102
{ACAD_REACTORS
330
7D7E
102
}
330
7D7E
100
AcDbXrecord
340
E
  0
XRECORD
  5
7D8B
102
{ACAD_REACTORS
330
7D7E
102
}
330
7D7E
100
AcDbXrecord
 40
0.0
  0
XRECORD
  5
7D8F
102
{ACAD_REACTORS
330
7D7E
102
}
330
7D7E
100
AcDbXrecord
340
0
  0
XRECORD
  5
7D95
102
{ACAD_REACTORS
330
7D7E
102
}
330
7D7E
100
AcDbXrecord
 10
0.0
 20
0.0
 30
0.0
  0
XRECORD
  5
7D91
102
{ACAD_REACTORS
330
7D7E
102
}
330
7D7E
100
AcDbXrecord
 10
0.0
 20
0.0
 30
0.0
  0
XRECORD
  5
7D94
102
{ACAD_REACTORS
330
7D7E
102
}
330
7D7E
100
AcDbXrecord
 10
0.0
 20
0.0
 30
0.0
  0
XRECORD
  5
7D92
102
{ACAD_REACTORS
330
7D7E
102
}
330
7D7E
100
AcDbXrecord
 10
0.0
 20
0.0
 30
0.0
  0
XRECORD
  5
7D93
102
{ACAD_REACTORS
330
7D7E
102
}
330
7D7E
100
AcDbXrecord
 10
0.0
 20
0.0
 30
0.0
  0
XRECORD
  5
7D90
102
{ACAD_REACTORS
330
7D7E
102
}
330
7D7E
100
AcDbXrecord
 10
0.0
 20
0.0
 30
0.0
  0
XRECORD
  5
7D8D
102
{ACAD_REACTORS
330
7D7E
102
}
330
7D7E
100
AcDbXrecord
340
0
  0
XRECORD
  5
7D8E
102
{ACAD_REACTORS
330
7D7E
102
}
330
7D7E
100
AcDbXrecord
 70
     0
  0
XRECORD
  5
7D82
102
{ACAD_REACTORS
330
7D7E
102
}
330
7D7E
100
AcDbXrecord
  1
acad.ctb
  0
XRECORD
  5
7D7F
102
{ACAD_REACTORS
330
7D7E
102
}
330
7D7E
100
AcDbXrecord
 90
        1
  0
XRECORD
  5
7D80
102
{ACAD_REACTORS
330
7D7E
102
}
330
7D7E
100
AcDbXrecord
 90
       70
  0
XRECORD
  5
7D98
102
{ACAD_REACTORS
330
7D7E
102
}
330
7D7E
100
AcDbXrecord
340
0
  0
XRECORD
  5
7D9E
102
{ACAD_REACTORS
330
7D7E
102
}
330
7D7E
100
AcDbXrecord
 10
0.0
 20
0.0
 30
0.0
  0
XRECORD
  5
7D9A
102
{ACAD_REACTORS
330
7D7E
102
}
330
7D7E
100
AcDbXrecord
 10
0.0
 20
0.0
 30
0.0
  0
XRECORD
  5
7D9D
102
{ACAD_REACTORS
330
7D7E
102
}
330
7D7E
100
AcDbXrecord
 10
0.0
 20
0.0
 30
0.0
  0
XRECORD
  5
7D9B
102
{ACAD_REACTORS
330
7D7E
102
}
330
7D7E
100
AcDbXrecord
 10
0.0
 20
0.0
 30
0.0
  0
XRECORD
  5
7D9C
102
{ACAD_REACTORS
330
7D7E
102
}
330
7D7E
100
AcDbXrecord
 10
0.0
 20
0.0
 30
0.0
  0
XRECORD
  5
7D99
102
{ACAD_REACTORS
330
7D7E
102
}
330
7D7E
100
AcDbXrecord
 10
0.0
 20
0.0
 30
0.0
  0
XRECORD
  5
7D96
102
{ACAD_REACTORS
330
7D7E
102
}
330
7D7E
100
AcDbXrecord
340
0
  0
XRECORD
  5
7D97
102
{ACAD_REACTORS
330
7D7E
102
}
330
7D7E
100
AcDbXrecord
 70
     0
  0
XRECORD
  5
7D8A
102
{ACAD_REACTORS
330
7D7E
102
}
330
7D7E
100
AcDbXrecord
  1
{1FF5CDB7-84CB-414B-93EC-B36CFFCC7182}
  0
DICTIONARYVAR
  5
5698
102
{ACAD_REACTORS
330
5697
102
}
330
5697
100
DictionaryVariables
280
     0
  1
1
  0
ENDSEC
  0
EOF
