  0
SECTION
  2
HEADER
  9
$ACADVER
  1
AC1014
  9
$ACADMAINTVER
 70
     9
  9
$DWGCODEPAGE
  3
ANSI_932
  9
$INSBASE
 10
0.0
 20
0.0
 30
0.0
  9
$EXTMIN
 10
-104.5917996528289
 20
-364.8668527838185
 30
-0.0015258207003583
  9
$EXTMAX
 10
364.302108414211
 20
374.9446930689407
 30
0.0000000349246037
  9
$LIMMIN
 10
-296.316999476111
 20
-370.7034300441653
  9
$LIMMAX
 10
623.3128432133979
 20
328.6261559379898
  9
$ORTHOMODE
 70
     1
  9
$REGENMODE
 70
     1
  9
$FILLMODE
 70
     1
  9
$QTEXTMODE
 70
     0
  9
$MIRRTEXT
 70
     1
  9
$DRAGMODE
 70
     2
  9
$LTSCALE
 40
5.0
  9
$OSMODE
 70
    37
  9
$ATTMODE
 70
     1
  9
$TEXTSIZE
 40
5.0
  9
$TRACEWID
 40
0.05
  9
$TEXTSTYLE
  7
STANDARD1
  9
$CLAYER
  8
30
  9
$CELTYPE
  6
CONTINUOUS
  9
$CECOLOR
 62
   256
  9
$CELTSCALE
 40
1.0
  9
$DELOBJ
 70
     1
  9
$DISPSILH
 70
     0
  9
$DIMSCALE
 40
1.0
  9
$DIMASZ
 40
2.0
  9
$DIMEXO
 40
1.0
  9
$DIMDLI
 40
0.5
  9
$DIMRND
 40
0.0
  9
$DIMDLE
 40
0.0
  9
$DIMEXE
 40
0.5
  9
$DIMTP
 40
0.0
  9
$DIMTM
 40
0.0
  9
$DIMTXT
 40
4.0
  9
$DIMCEN
 40
0.09
  9
$DIMTSZ
 40
0.0
  9
$DIMTOL
 70
     0
  9
$DIMLIM
 70
     0
  9
$DIMTIH
 70
     0
  9
$DIMTOH
 70
     1
  9
$DIMSE1
 70
     0
  9
$DIMSE2
 70
     0
  9
$DIMTAD
 70
     3
  9
$DIMZIN
 70
    12
  9
$DIMBLK
  1
OPEN
  9
$DIMASO
 70
     1
  9
$DIMSHO
 70
     1
  9
$DIMPOST
  1

  9
$DIMAPOST
  1

  9
$DIMALT
 70
     0
  9
$DIMALTD
 70
     2
  9
$DIMALTF
 40
25.4
  9
$DIMLFAC
 40
1.0
  9
$DIMTOFL
 70
     0
  9
$DIMTVP
 40
0.0
  9
$DIMTIX
 70
     0
  9
$DIMSOXD
 70
     0
  9
$DIMSAH
 70
     0
  9
$DIMBLK1
  1

  9
$DIMBLK2
  1

  9
$DIMSTYLE
  2
STANDARD
  9
$DIMCLRD
 70
     0
  9
$DIMCLRE
 70
     0
  9
$DIMCLRT
 70
     0
  9
$DIMTFAC
 40
1.0
  9
$DIMGAP
 40
1.0
  9
$DIMJUST
 70
     0
  9
$DIMSD1
 70
     0
  9
$DIMSD2
 70
     0
  9
$DIMTOLJ
 70
     1
  9
$DIMTZIN
 70
     0
  9
$DIMALTZ
 70
     0
  9
$DIMALTTZ
 70
     0
  9
$DIMFIT
 70
     3
  9
$DIMUPT
 70
     0
  9
$DIMUNIT
 70
     2
  9
$DIMDEC
 70
     1
  9
$DIMTDEC
 70
     1
  9
$DIMALTU
 70
     2
  9
$DIMALTTD
 70
     2
  9
$DIMTXSTY
  7
STANDARD
  9
$DIMAUNIT
 70
     0
  9
$LUNITS
 70
     2
  9
$LUPREC
 70
     4
  9
$SKETCHINC
 40
0.1
  9
$FILLETRAD
 40
0.0
  9
$AUNITS
 70
     0
  9
$AUPREC
 70
     0
  9
$MENU
  1
.
  9
$ELEVATION
 40
0.0
  9
$PELEVATION
 40
0.0
  9
$THICKNESS
 40
0.0
  9
$LIMCHECK
 70
     0
  9
$BLIPMODE
 70
     0
  9
$CHAMFERA
 40
0.0
  9
$CHAMFERB
 40
0.0
  9
$CHAMFERC
 40
0.0
  9
$CHAMFERD
 40
0.0
  9
$SKPOLY
 70
     0
  9
$TDCREATE
 40
2452286.555658657
  9
$TDUPDATE
 40
2453058.974997280
  9
$TDINDWG
 40
1.2159876389
  9
$TDUSRTIMER
 40
1.2159869097
  9
$USRTIMER
 70
     1
  9
$ANGBASE
 50
0.0
  9
$ANGDIR
 70
     0
  9
$PDMODE
 70
     0
  9
$PDSIZE
 40
0.0
  9
$PLINEWID
 40
0.0
  9
$COORDS
 70
     1
  9
$SPLFRAME
 70
     0
  9
$SPLINETYPE
 70
     6
  9
$SPLINESEGS
 70
     8
  9
$ATTDIA
 70
     0
  9
$ATTREQ
 70
     1
  9
$HANDLING
 70
 22529
  9
$HANDSEED
  5
74D4
  9
$SURFTAB1
 70
     6
  9
$SURFTAB2
 70
     6
  9
$SURFTYPE
 70
     6
  9
$SURFU
 70
     6
  9
$SURFV
 70
     6
  9
$UCSNAME
  2

  9
$UCSORG
 10
0.0
 20
0.0
 30
0.0
  9
$UCSXDIR
 10
1.0
 20
0.0
 30
0.0
  9
$UCSYDIR
 10
0.0
 20
1.0
 30
0.0
  9
$PUCSNAME
  2

  9
$PUCSORG
 10
0.0
 20
0.0
 30
0.0
  9
$PUCSXDIR
 10
1.0
 20
0.0
 30
0.0
  9
$PUCSYDIR
 10
0.0
 20
1.0
 30
0.0
  9
$USERI1
 70
     0
  9
$USERI2
 70
     0
  9
$USERI3
 70
     0
  9
$USERI4
 70
     0
  9
$USERI5
 70
     0
  9
$USERR1
 40
0.0
  9
$USERR2
 40
0.0
  9
$USERR3
 40
0.0
  9
$USERR4
 40
0.0
  9
$USERR5
 40
0.0
  9
$WORLDVIEW
 70
     1
  9
$SHADEDGE
 70
     3
  9
$SHADEDIF
 70
    70
  9
$TILEMODE
 70
     1
  9
$MAXACTVP
 70
    48
  9
$PINSBASE
 10
0.0
 20
0.0
 30
0.0
  9
$PLIMCHECK
 70
     0
  9
$PEXTMIN
 10
4.273573
 20
5.205245999999998
 30
0.0
  9
$PEXTMAX
 10
194.610095
 20
283.0697009999996
 30
0.0
  9
$PLIMMIN
 10
-5.873749
 20
-5.87375
  9
$PLIMMAX
 10
204.099579
 20
291.1369009999999
  9
$UNITMODE
 70
     0
  9
$VISRETAIN
 70
     1
  9
$PLINEGEN
 70
     0
  9
$PSLTSCALE
 70
     1
  9
$TREEDEPTH
 70
  3020
  9
$PICKSTYLE
 70
     1
  9
$CMLSTYLE
  2
STANDARD
  9
$CMLJUST
 70
     0
  9
$CMLSCALE
 40
1.0
  9
$PROXYGRAPHICS
 70
     1
  9
$MEASUREMENT
 70
     0
  0
ENDSEC
  0
SECTION
  2
CLASSES
  0
CLASS
  1
ACDBDICTIONARYWDFLT
  2
AcDbDictionaryWithDefault
  3
AutoCAD 2000
 90
        0
280
     0
281
     0
  0
CLASS
  1
ACDBPLACEHOLDER
  2
AcDbPlaceHolder
  3
AutoCAD 2000
 90
        0
280
     0
281
     0
  0
CLASS
  1
LAYOUT
  2
AcDbLayout
  3
AutoCAD 2000
 90
        0
280
     0
281
     0
  0
CLASS
  1
LONG_TRANSACTION
  2
AcDbLongTransaction
  3
AutoCAD 2000
 90
        0
280
     0
281
     0
  0
CLASS
  1
LWPOLYLINE
  2
AcDbPolyline
  3
AutoCAD 2000
 90
        0
280
     0
281
     1
  0
CLASS
  1
HATCH
  2
AcDbHatch
  3
AutoCAD 2000
 90
        0
280
     0
281
     1
  0
CLASS
  1
XRECORD
  2
AcDbXrecord
  3
AutoCAD 2000
 90
        0
280
     0
281
     0
  0
CLASS
  1
LONG_TRANSACTION
  2
AcDbLongTransaction
  3
AutoCAD 2000
 90
        0
280
     0
281
     0
  0
CLASS
  1
LWPOLYLINE
  2
AcDbPolyline
  3
AutoCAD 2000
 90
        0
280
     0
281
     1
  0
CLASS
  1
HATCH
  2
AcDbHatch
  3
AutoCAD 2000
 90
        0
280
     0
281
     1
  0
CLASS
  1
XRECORD
  2
AcDbXrecord
  3
AutoCAD 2000
 90
        0
280
     0
281
     0
  0
CLASS
  1
LONG_TRANSACTION
  2
AcDbLongTransaction
  3
AutoCAD 2000
 90
        0
280
     0
281
     0
  0
CLASS
  1
LWPOLYLINE
  2
AcDbPolyline
  3
AutoCAD 2000
 90
        0
280
     0
281
     1
  0
CLASS
  1
HATCH
  2
AcDbHatch
  3
AutoCAD 2000
 90
        0
280
     0
281
     1
  0
CLASS
  1
XRECORD
  2
AcDbXrecord
  3
AutoCAD 2000
 90
        0
280
     0
281
     0
  0
CLASS
  1
LONG_TRANSACTION
  2
AcDbLongTransaction
  3
AutoCAD 2000
 90
        0
280
     0
281
     0
  0
CLASS
  1
LWPOLYLINE
  2
AcDbPolyline
  3
AutoCAD 2000
 90
        0
280
     0
281
     1
  0
CLASS
  1
HATCH
  2
AcDbHatch
  3
AutoCAD 2000
 90
        0
280
     0
281
     1
  0
CLASS
  1
XRECORD
  2
AcDbXrecord
  3
AutoCAD 2000
 90
        0
280
     0
281
     0
  0
CLASS
  1
LONG_TRANSACTION
  2
AcDbLongTransaction
  3
AutoCAD 2000
 90
        0
280
     0
281
     0
  0
CLASS
  1
LWPOLYLINE
  2
AcDbPolyline
  3
AutoCAD 2000
 90
        0
280
     0
281
     1
  0
CLASS
  1
HATCH
  2
AcDbHatch
  3
AutoCAD 2000
 90
        0
280
     0
281
     1
  0
CLASS
  1
XRECORD
  2
AcDbXrecord
  3
AutoCAD 2000
 90
        0
280
     0
281
     0
  0
CLASS
  1
LONG_TRANSACTION
  2
AcDbLongTransaction
  3
AutoCAD 2000
 90
        0
280
     0
281
     0
  0
CLASS
  1
LWPOLYLINE
  2
AcDbPolyline
  3
AutoCAD 2000
 90
        0
280
     0
281
     1
  0
CLASS
  1
HATCH
  2
AcDbHatch
  3
AutoCAD 2000
 90
        0
280
     0
281
     1
  0
CLASS
  1
XRECORD
  2
AcDbXrecord
  3
AutoCAD 2000
 90
        0
280
     0
281
     0
  0
CLASS
  1
LONG_TRANSACTION
  2
AcDbLongTransaction
  3
AutoCAD 2000
 90
        0
280
     0
281
     0
  0
CLASS
  1
LWPOLYLINE
  2
AcDbPolyline
  3
AutoCAD 2000
 90
        0
280
     0
281
     1
  0
CLASS
  1
HATCH
  2
AcDbHatch
  3
AutoCAD 2000
 90
        0
280
     0
281
     1
  0
CLASS
  1
XRECORD
  2
AcDbXrecord
  3
AutoCAD 2000
 90
        0
280
     0
281
     0
  0
CLASS
  1
LONG_TRANSACTION
  2
AcDbLongTransaction
  3
AutoCAD 2000
 90
        0
280
     0
281
     0
  0
CLASS
  1
LWPOLYLINE
  2
AcDbPolyline
  3
AutoCAD 2000
 90
        0
280
     0
281
     1
  0
CLASS
  1
HATCH
  2
AcDbHatch
  3
AutoCAD 2000
 90
        0
280
     0
281
     1
  0
CLASS
  1
XRECORD
  2
AcDbXrecord
  3
AutoCAD 2000
 90
        0
280
     0
281
     0
  0
CLASS
  1
LONG_TRANSACTION
  2
AcDbLongTransaction
  3
AutoCAD 2000
 90
        0
280
     0
281
     0
  0
CLASS
  1
LWPOLYLINE
  2
AcDbPolyline
  3
AutoCAD 2000
 90
        0
280
     0
281
     1
  0
CLASS
  1
HATCH
  2
AcDbHatch
  3
AutoCAD 2000
 90
        0
280
     0
281
     1
  0
CLASS
  1
XRECORD
  2
AcDbXrecord
  3
AutoCAD 2000
 90
        0
280
     0
281
     0
  0
CLASS
  1
LONG_TRANSACTION
  2
AcDbLongTransaction
  3
AutoCAD 2000
 90
        0
280
     0
281
     0
  0
CLASS
  1
LWPOLYLINE
  2
AcDbPolyline
  3
AutoCAD 2000
 90
        0
280
     0
281
     1
  0
CLASS
  1
HATCH
  2
AcDbHatch
  3
AutoCAD 2000
 90
        0
280
     0
281
     1
  0
CLASS
  1
XRECORD
  2
AcDbXrecord
  3
AutoCAD 2000
 90
        0
280
     0
281
     0
  0
CLASS
  1
LONG_TRANSACTION
  2
AcDbLongTransaction
  3
AutoCAD 2000
 90
        0
280
     0
281
     0
  0
CLASS
  1
LWPOLYLINE
  2
AcDbPolyline
  3
AutoCAD 2000
 90
        0
280
     0
281
     1
  0
CLASS
  1
HATCH
  2
AcDbHatch
  3
AutoCAD 2000
 90
        0
280
     0
281
     1
  0
CLASS
  1
XRECORD
  2
AcDbXrecord
  3
AutoCAD 2000
 90
        0
280
     0
281
     0
  0
CLASS
  1
LONG_TRANSACTION
  2
AcDbLongTransaction
  3
AutoCAD 2000
 90
        0
280
     0
281
     0
  0
CLASS
  1
LWPOLYLINE
  2
AcDbPolyline
  3
AutoCAD 2000
 90
        0
280
     0
281
     1
  0
CLASS
  1
HATCH
  2
AcDbHatch
  3
AutoCAD 2000
 90
        0
280
     0
281
     1
  0
CLASS
  1
XRECORD
  2
AcDbXrecord
  3
AutoCAD 2000
 90
        0
280
     0
281
     0
  0
CLASS
  1
LONG_TRANSACTION
  2
AcDbLongTransaction
  3
AutoCAD 2000
 90
        0
280
     0
281
     0
  0
CLASS
  1
LWPOLYLINE
  2
AcDbPolyline
  3
AutoCAD 2000
 90
        0
280
     0
281
     1
  0
CLASS
  1
HATCH
  2
AcDbHatch
  3
AutoCAD 2000
 90
        0
280
     0
281
     1
  0
CLASS
  1
XRECORD
  2
AcDbXrecord
  3
AutoCAD 2000
 90
        0
280
     0
281
     0
  0
CLASS
  1
LONG_TRANSACTION
  2
AcDbLongTransaction
  3
AutoCAD 2000
 90
        0
280
     0
281
     0
  0
CLASS
  1
LWPOLYLINE
  2
AcDbPolyline
  3
AutoCAD 2000
 90
        0
280
     0
281
     1
  0
CLASS
  1
HATCH
  2
AcDbHatch
  3
AutoCAD 2000
 90
        0
280
     0
281
     1
  0
CLASS
  1
XRECORD
  2
AcDbXrecord
  3
AutoCAD 2000
 90
        0
280
     0
281
     0
  0
CLASS
  1
LONG_TRANSACTION
  2
AcDbLongTransaction
  3
AutoCAD 2000
 90
        0
280
     0
281
     0
  0
CLASS
  1
LWPOLYLINE
  2
AcDbPolyline
  3
AutoCAD 2000
 90
        0
280
     0
281
     1
  0
CLASS
  1
HATCH
  2
AcDbHatch
  3
AutoCAD 2000
 90
        0
280
     0
281
     1
  0
CLASS
  1
XRECORD
  2
AcDbXrecord
  3
AutoCAD 2000
 90
        0
280
     0
281
     0
  0
CLASS
  1
LONG_TRANSACTION
  2
AcDbLongTransaction
  3
AutoCAD 2000
 90
        0
280
     0
281
     0
  0
CLASS
  1
LWPOLYLINE
  2
AcDbPolyline
  3
AutoCAD 2000
 90
        0
280
     0
281
     1
  0
CLASS
  1
HATCH
  2
AcDbHatch
  3
AutoCAD 2000
 90
        0
280
     0
281
     1
  0
CLASS
  1
XRECORD
  2
AcDbXrecord
  3
AutoCAD 2000
 90
        0
280
     0
281
     0
  0
CLASS
  1
LONG_TRANSACTION
  2
AcDbLongTransaction
  3
AutoCAD 2000
 90
        0
280
     0
281
     0
  0
CLASS
  1
LWPOLYLINE
  2
AcDbPolyline
  3
AutoCAD 2000
 90
        0
280
     0
281
     1
  0
CLASS
  1
HATCH
  2
AcDbHatch
  3
AutoCAD 2000
 90
        0
280
     0
281
     1
  0
CLASS
  1
XRECORD
  2
AcDbXrecord
  3
AutoCAD 2000
 90
        0
280
     0
281
     0
  0
CLASS
  1
LONG_TRANSACTION
  2
AcDbLongTransaction
  3
AutoCAD 2000
 90
        0
280
     0
281
     0
  0
CLASS
  1
LWPOLYLINE
  2
AcDbPolyline
  3
AutoCAD 2000
 90
        0
280
     0
281
     1
  0
CLASS
  1
HATCH
  2
AcDbHatch
  3
AutoCAD 2000
 90
        0
280
     0
281
     1
  0
CLASS
  1
XRECORD
  2
AcDbXrecord
  3
AutoCAD 2000
 90
        0
280
     0
281
     0
  0
CLASS
  1
LONG_TRANSACTION
  2
AcDbLongTransaction
  3
AutoCAD 2000
 90
        0
280
     0
281
     0
  0
CLASS
  1
LWPOLYLINE
  2
AcDbPolyline
  3
AutoCAD 2000
 90
        0
280
     0
281
     1
  0
CLASS
  1
HATCH
  2
AcDbHatch
  3
AutoCAD 2000
 90
        0
280
     0
281
     1
  0
CLASS
  1
XRECORD
  2
AcDbXrecord
  3
AutoCAD 2000
 90
        0
280
     0
281
     0
  0
CLASS
  1
LONG_TRANSACTION
  2
AcDbLongTransaction
  3
AutoCAD 2000
 90
        0
280
     0
281
     0
  0
CLASS
  1
LWPOLYLINE
  2
AcDbPolyline
  3
AutoCAD 2000
 90
        0
280
     0
281
     1
  0
CLASS
  1
HATCH
  2
AcDbHatch
  3
AutoCAD 2000
 90
        0
280
     0
281
     1
  0
CLASS
  1
XRECORD
  2
AcDbXrecord
  3
AutoCAD 2000
 90
        0
280
     0
281
     0
  0
CLASS
  1
LONG_TRANSACTION
  2
AcDbLongTransaction
  3
AutoCAD 2000
 90
        0
280
     0
281
     0
  0
CLASS
  1
LWPOLYLINE
  2
AcDbPolyline
  3
AutoCAD 2000
 90
        0
280
     0
281
     1
  0
CLASS
  1
HATCH
  2
AcDbHatch
  3
AutoCAD 2000
 90
        0
280
     0
281
     1
  0
CLASS
  1
XRECORD
  2
AcDbXrecord
  3
AutoCAD 2000
 90
        0
280
     0
281
     0
  0
CLASS
  1
LONG_TRANSACTION
  2
AcDbLongTransaction
  3
AutoCAD 2000
 90
        0
280
     0
281
     0
  0
CLASS
  1
LWPOLYLINE
  2
AcDbPolyline
  3
AutoCAD 2000
 90
        0
280
     0
281
     1
  0
CLASS
  1
HATCH
  2
AcDbHatch
  3
AutoCAD 2000
 90
        0
280
     0
281
     1
  0
CLASS
  1
XRECORD
  2
AcDbXrecord
  3
AutoCAD 2000
 90
        0
280
     0
281
     0
  0
CLASS
  1
LONG_TRANSACTION
  2
AcDbLongTransaction
  3
AutoCAD 2000
 90
        0
280
     0
281
     0
  0
CLASS
  1
LWPOLYLINE
  2
AcDbPolyline
  3
AutoCAD 2000
 90
        0
280
     0
281
     1
  0
CLASS
  1
HATCH
  2
AcDbHatch
  3
AutoCAD 2000
 90
        0
280
     0
281
     1
  0
CLASS
  1
XRECORD
  2
AcDbXrecord
  3
AutoCAD 2000
 90
        0
280
     0
281
     0
  0
CLASS
  1
LONG_TRANSACTION
  2
AcDbLongTransaction
  3
AutoCAD 2000
 90
        0
280
     0
281
     0
  0
CLASS
  1
LWPOLYLINE
  2
AcDbPolyline
  3
AutoCAD 2000
 90
        0
280
     0
281
     1
  0
CLASS
  1
HATCH
  2
AcDbHatch
  3
AutoCAD 2000
 90
        0
280
     0
281
     1
  0
CLASS
  1
XRECORD
  2
AcDbXrecord
  3
AutoCAD 2000
 90
        0
280
     0
281
     0
  0
CLASS
  1
LONG_TRANSACTION
  2
AcDbLongTransaction
  3
AutoCAD 2000
 90
        0
280
     0
281
     0
  0
CLASS
  1
LWPOLYLINE
  2
AcDbPolyline
  3
AutoCAD 2000
 90
        0
280
     0
281
     1
  0
CLASS
  1
HATCH
  2
AcDbHatch
  3
AutoCAD 2000
 90
        0
280
     0
281
     1
  0
CLASS
  1
XRECORD
  2
AcDbXrecord
  3
AutoCAD 2000
 90
        0
280
     0
281
     0
  0
CLASS
  1
LONG_TRANSACTION
  2
AcDbLongTransaction
  3
AutoCAD 2000
 90
        0
280
     0
281
     0
  0
CLASS
  1
LWPOLYLINE
  2
AcDbPolyline
  3
AutoCAD 2000
 90
        0
280
     0
281
     1
  0
CLASS
  1
HATCH
  2
AcDbHatch
  3
AutoCAD 2000
 90
        0
280
     0
281
     1
  0
CLASS
  1
XRECORD
  2
AcDbXrecord
  3
AutoCAD 2000
 90
        0
280
     0
281
     0
  0
CLASS
  1
LONG_TRANSACTION
  2
AcDbLongTransaction
  3
AutoCAD 2000
 90
        0
280
     0
281
     0
  0
CLASS
  1
LWPOLYLINE
  2
AcDbPolyline
  3
AutoCAD 2000
 90
        0
280
     0
281
     1
  0
CLASS
  1
HATCH
  2
AcDbHatch
  3
AutoCAD 2000
 90
        0
280
     0
281
     1
  0
CLASS
  1
XRECORD
  2
AcDbXrecord
  3
AutoCAD 2000
 90
        0
280
     0
281
     0
  0
CLASS
  1
LONG_TRANSACTION
  2
AcDbLongTransaction
  3
AutoCAD 2000
 90
        0
280
     0
281
     0
  0
CLASS
  1
LWPOLYLINE
  2
AcDbPolyline
  3
AutoCAD 2000
 90
        0
280
     0
281
     1
  0
CLASS
  1
HATCH
  2
AcDbHatch
  3
AutoCAD 2000
 90
        0
280
     0
281
     1
  0
CLASS
  1
XRECORD
  2
AcDbXrecord
  3
AutoCAD 2000
 90
        0
280
     0
281
     0
  0
CLASS
  1
LONG_TRANSACTION
  2
AcDbLongTransaction
  3
AutoCAD 2000
 90
        0
280
     0
281
     0
  0
CLASS
  1
LWPOLYLINE
  2
AcDbPolyline
  3
AutoCAD 2000
 90
        0
280
     0
281
     1
  0
CLASS
  1
HATCH
  2
AcDbHatch
  3
AutoCAD 2000
 90
        0
280
     0
281
     1
  0
CLASS
  1
XRECORD
  2
AcDbXrecord
  3
AutoCAD 2000
 90
        0
280
     0
281
     0
  0
CLASS
  1
LONG_TRANSACTION
  2
AcDbLongTransaction
  3
AutoCAD 2000
 90
        0
280
     0
281
     0
  0
CLASS
  1
LWPOLYLINE
  2
AcDbPolyline
  3
AutoCAD 2000
 90
        0
280
     0
281
     1
  0
CLASS
  1
HATCH
  2
AcDbHatch
  3
AutoCAD 2000
 90
        0
280
     0
281
     1
  0
CLASS
  1
XRECORD
  2
AcDbXrecord
  3
AutoCAD 2000
 90
        0
280
     0
281
     0
  0
CLASS
  1
LONG_TRANSACTION
  2
AcDbLongTransaction
  3
AutoCAD 2000
 90
        0
280
     0
281
     0
  0
CLASS
  1
LWPOLYLINE
  2
AcDbPolyline
  3
AutoCAD 2000
 90
        0
280
     0
281
     1
  0
CLASS
  1
HATCH
  2
AcDbHatch
  3
AutoCAD 2000
 90
        0
280
     0
281
     1
  0
CLASS
  1
XRECORD
  2
AcDbXrecord
  3
AutoCAD 2000
 90
        0
280
     0
281
     0
  0
CLASS
  1
LONG_TRANSACTION
  2
AcDbLongTransaction
  3
AutoCAD 2000
 90
        0
280
     0
281
     0
  0
CLASS
  1
LWPOLYLINE
  2
AcDbPolyline
  3
AutoCAD 2000
 90
        0
280
     0
281
     1
  0
CLASS
  1
HATCH
  2
AcDbHatch
  3
AutoCAD 2000
 90
        0
280
     0
281
     1
  0
CLASS
  1
XRECORD
  2
AcDbXrecord
  3
AutoCAD 2000
 90
        0
280
     0
281
     0
  0
CLASS
  1
LONG_TRANSACTION
  2
AcDbLongTransaction
  3
AutoCAD 2000
 90
        0
280
     0
281
     0
  0
CLASS
  1
LWPOLYLINE
  2
AcDbPolyline
  3
AutoCAD 2000
 90
        0
280
     0
281
     1
  0
CLASS
  1
HATCH
  2
AcDbHatch
  3
AutoCAD 2000
 90
        0
280
     0
281
     1
  0
CLASS
  1
XRECORD
  2
AcDbXrecord
  3
AutoCAD 2000
 90
        0
280
     0
281
     0
  0
CLASS
  1
DICTIONARYVAR
  2
AcDbDictionaryVar
  3
AutoCAD 2000
 90
        0
280
     0
281
     0
  0
CLASS
  1
LONG_TRANSACTION
  2
AcDbLongTransaction
  3
AutoCAD 2000
 90
        0
280
     0
281
     0
  0
CLASS
  1
LWPOLYLINE
  2
AcDbPolyline
  3
AutoCAD 2000
 90
        0
280
     0
281
     1
  0
CLASS
  1
HATCH
  2
AcDbHatch
  3
AutoCAD 2000
 90
        0
280
     0
281
     1
  0
CLASS
  1
XRECORD
  2
AcDbXrecord
  3
AutoCAD 2000
 90
        0
280
     0
281
     0
  0
CLASS
  1
LONG_TRANSACTION
  2
AcDbLongTransaction
  3
AutoCAD 2000
 90
        0
280
     0
281
     0
  0
CLASS
  1
LWPOLYLINE
  2
AcDbPolyline
  3
AutoCAD 2000
 90
        0
280
     0
281
     1
  0
CLASS
  1
HATCH
  2
AcDbHatch
  3
AutoCAD 2000
 90
        0
280
     0
281
     1
  0
CLASS
  1
XRECORD
  2
AcDbXrecord
  3
AutoCAD 2000
 90
        0
280
     0
281
     0
  0
CLASS
  1
LONG_TRANSACTION
  2
AcDbLongTransaction
  3
AutoCAD 2000
 90
        0
280
     0
281
     0
  0
CLASS
  1
LWPOLYLINE
  2
AcDbPolyline
  3
AutoCAD 2000
 90
        0
280
     0
281
     1
  0
CLASS
  1
HATCH
  2
AcDbHatch
  3
AutoCAD 2000
 90
        0
280
     0
281
     1
  0
CLASS
  1
XRECORD
  2
AcDbXrecord
  3
AutoCAD 2000
 90
        0
280
     0
281
     0
  0
CLASS
  1
LONG_TRANSACTION
  2
AcDbLongTransaction
  3
AutoCAD 2000
 90
        0
280
     0
281
     0
  0
CLASS
  1
LWPOLYLINE
  2
AcDbPolyline
  3
AutoCAD 2000
 90
        0
280
     0
281
     1
  0
CLASS
  1
HATCH
  2
AcDbHatch
  3
AutoCAD 2000
 90
        0
280
     0
281
     1
  0
CLASS
  1
XRECORD
  2
AcDbXrecord
  3
AutoCAD 2000
 90
        0
280
     0
281
     0
  0
CLASS
  1
LONG_TRANSACTION
  2
AcDbLongTransaction
  3
AutoCAD 2000
 90
        0
280
     0
281
     0
  0
CLASS
  1
LWPOLYLINE
  2
AcDbPolyline
  3
AutoCAD 2000
 90
        0
280
     0
281
     1
  0
CLASS
  1
HATCH
  2
AcDbHatch
  3
AutoCAD 2000
 90
        0
280
     0
281
     1
  0
CLASS
  1
XRECORD
  2
AcDbXrecord
  3
AutoCAD 2000
 90
        0
280
     0
281
     0
  0
CLASS
  1
LONG_TRANSACTION
  2
AcDbLongTransaction
  3
AutoCAD 2000
 90
        0
280
     0
281
     0
  0
CLASS
  1
LWPOLYLINE
  2
AcDbPolyline
  3
AutoCAD 2000
 90
        0
280
     0
281
     1
  0
CLASS
  1
HATCH
  2
AcDbHatch
  3
AutoCAD 2000
 90
        0
280
     0
281
     1
  0
CLASS
  1
XRECORD
  2
AcDbXrecord
  3
AutoCAD 2000
 90
        0
280
     0
281
     0
  0
CLASS
  1
LONG_TRANSACTION
  2
AcDbLongTransaction
  3
AutoCAD 2000
 90
        0
280
     0
281
     0
  0
CLASS
  1
LWPOLYLINE
  2
AcDbPolyline
  3
AutoCAD 2000
 90
        0
280
     0
281
     1
  0
CLASS
  1
HATCH
  2
AcDbHatch
  3
AutoCAD 2000
 90
        0
280
     0
281
     1
  0
CLASS
  1
XRECORD
  2
AcDbXrecord
  3
AutoCAD 2000
 90
        0
280
     0
281
     0
  0
CLASS
  1
LONG_TRANSACTION
  2
AcDbLongTransaction
  3
AutoCAD 2000
 90
        0
280
     0
281
     0
  0
CLASS
  1
LWPOLYLINE
  2
AcDbPolyline
  3
AutoCAD 2000
 90
        0
280
     0
281
     1
  0
CLASS
  1
HATCH
  2
AcDbHatch
  3
AutoCAD 2000
 90
        0
280
     0
281
     1
  0
CLASS
  1
XRECORD
  2
AcDbXrecord
  3
AutoCAD 2000
 90
        0
280
     0
281
     0
  0
CLASS
  1
LONG_TRANSACTION
  2
AcDbLongTransaction
  3
AutoCAD 2000
 90
        0
280
     0
281
     0
  0
CLASS
  1
LWPOLYLINE
  2
AcDbPolyline
  3
AutoCAD 2000
 90
        0
280
     0
281
     1
  0
CLASS
  1
HATCH
  2
AcDbHatch
  3
AutoCAD 2000
 90
        0
280
     0
281
     1
  0
CLASS
  1
XRECORD
  2
AcDbXrecord
  3
AutoCAD 2000
 90
        0
280
     0
281
     0
  0
ENDSEC
  0
SECTION
  2
TABLES
  0
TABLE
  2
VPORT
  5
8
330
0
100
AcDbSymbolTable
 70
     2
  0
VPORT
  5
74B0
330
8
100
AcDbSymbolTableRecord
100
AcDbViewportTableRecord
  2
*ACTIVE
 70
     0
 10
0.0
 20
0.0
 11
1.0
 21
1.0
 12
129.855154380691
 22
5.038920142561096
 13
0.0
 23
0.0
 14
1.0
 24
1.0
 15
10.0
 25
10.0
 16
0.0
 26
0.0
 36
1.0
 17
0.0
 27
0.0
 37
0.0
 40
748.9609978733143
 41
1.710261569416499
 42
50.0
 43
0.0
 44
0.0
 50
0.0
 51
0.0
 71
     0
 72
   100
 73
     1
 74
     1
 75
     0
 76
     0
 77
     0
 78
     0
  0
ENDTAB
  0
TABLE
  2
LTYPE
  5
5
330
0
100
AcDbSymbolTable
 70
     7
  0
LTYPE
  5
13
330
5
100
AcDbSymbolTableRecord
100
AcDbLinetypeTableRecord
  2
BYBLOCK
 70
     0
  3

 72
    65
 73
     0
 40
0.0
  0
LTYPE
  5
14
330
5
100
AcDbSymbolTableRecord
100
AcDbLinetypeTableRecord
  2
BYLAYER
 70
     0
  3

 72
    65
 73
     0
 40
0.0
  0
LTYPE
  5
15
330
5
100
AcDbSymbolTableRecord
100
AcDbLinetypeTableRecord
  2
CONTINUOUS
 70
     0
  3
Solid line
 72
    65
 73
     0
 40
0.0
  0
LTYPE
  5
22
330
5
100
AcDbSymbolTableRecord
100
AcDbLinetypeTableRecord
  2
CONTINOUS
 70
     0
  3
Solid line
 72
    65
 73
     0
 40
0.0
  0
LTYPE
  5
23
330
5
100
AcDbSymbolTableRecord
100
AcDbLinetypeTableRecord
  2
DASHED
 70
     0
  3
__ __ __ __ __ __ __ __ __ __ __ __ __ __ __
 72
    65
 73
     2
 40
0.75
 49
0.5
 74
     0
 49
-0.25
 74
     0
  0
LTYPE
  5
24
330
5
100
AcDbSymbolTableRecord
100
AcDbLinetypeTableRecord
  2
DASHDOT
 70
     0
  3
__ . __ . __ . __ . __ . __ . __ . __ . __ . __
 72
    65
 73
     4
 40
1.0
 49
0.5
 74
     0
 49
-0.25
 74
     0
 49
0.0
 74
     0
 49
-0.25
 74
     0
  0
LTYPE
  5
4C47
330
5
100
AcDbSymbolTableRecord
100
AcDbLinetypeTableRecord
  2
DIVIDE
 70
     0
  3
Divide ____ . . ____ . . ____ . . ____ . . ____
 72
    65
 73
     6
 40
1.25
 49
0.5
 74
     0
 49
-0.25
 74
     0
 49
0.0
 74
     0
 49
-0.25
 74
     0
 49
0.0
 74
     0
 49
-0.25
 74
     0
  0
LTYPE
  5
6A3B
330
5
100
AcDbSymbolTableRecord
100
AcDbLinetypeTableRecord
  2
CENTER
 70
     0
  3
Center ____ _ ____ _ ____ _ ____ _ ____ _ ____
 72
    65
 73
     4
 40
50.8
 49
31.75
 74
     0
 49
-6.349999999999997
 74
     0
 49
6.349999999999997
 74
     0
 49
-6.349999999999997
 74
     0
  0
LTYPE
  5
6F43
330
5
100
AcDbSymbolTableRecord
100
AcDbLinetypeTableRecord
  2
PHANTOM
 70
     0
  3
Phantom ______  __  __  ______  __  __  ______
 72
    65
 73
     6
 40
63.5
 49
31.75
 74
     0
 49
-6.349999999999997
 74
     0
 49
6.349999999999997
 74
     0
 49
-6.349999999999997
 74
     0
 49
6.349999999999997
 74
     0
 49
-6.349999999999997
 74
     0
  0
ENDTAB
  0
TABLE
  2
LAYER
  5
2
330
0
100
AcDbSymbolTable
 70
    16
  0
LAYER
  5
10
330
2
100
AcDbSymbolTableRecord
100
AcDbLayerTableRecord
  2
0
 70
     0
 62
     7
  6
CONTINOUS
  0
LAYER
  5
2F
330
2
100
AcDbSymbolTableRecord
100
AcDbLayerTableRecord
  2
10
 70
     0
 62
     4
  6
CONTINOUS
  0
LAYER
  5
31
330
2
100
AcDbSymbolTableRecord
100
AcDbLayerTableRecord
  2
12
 70
     0
 62
     3
  6
CONTINOUS
  0
LAYER
  5
35
330
2
100
AcDbSymbolTableRecord
100
AcDbLayerTableRecord
  2
16
 70
     0
 62
     6
  6
DASHDOT
  0
LAYER
  5
38
330
2
100
AcDbSymbolTableRecord
100
AcDbLayerTableRecord
  2
19
 70
     0
 62
     7
  6
CONTINOUS
  0
LAYER
  5
3C
330
2
100
AcDbSymbolTableRecord
100
AcDbLayerTableRecord
  2
11
 70
     0
 62
     1
  6
CONTINOUS
  0
LAYER
  5
3D
330
2
100
AcDbSymbolTableRecord
100
AcDbLayerTableRecord
  2
24
 70
     0
 62
     2
  6
CONTINOUS
  0
LAYER
  5
3A2
330
2
100
AcDbSymbolTableRecord
100
AcDbLayerTableRecord
  2
30
 70
     0
 62
     9
  6
CONTINUOUS
  0
LAYER
  5
3A4
330
2
100
AcDbSymbolTableRecord
100
AcDbLayerTableRecord
  2
DEFPOINTS
 70
     0
 62
     7
  6
CONTINUOUS
  0
LAYER
  5
3BBA
330
2
100
AcDbSymbolTableRecord
100
AcDbLayerTableRecord
  2
18
 70
     0
 62
     5
  6
DIVIDE
  0
LAYER
  5
6A3D
330
2
100
AcDbSymbolTableRecord
100
AcDbLayerTableRecord
  2
43
 70
     0
 62
     6
  6
CONTINUOUS
  0
LAYER
  5
6A3E
330
2
100
AcDbSymbolTableRecord
100
AcDbLayerTableRecord
  2
44
 70
     0
 62
     3
  6
CONTINUOUS
  0
LAYER
  5
6A3F
330
2
100
AcDbSymbolTableRecord
100
AcDbLayerTableRecord
  2
48
 70
     0
 62
     6
  6
CENTER
  0
LAYER
  5
6C7B
330
2
100
AcDbSymbolTableRecord
100
AcDbLayerTableRecord
  2
29
 70
     0
 62
     6
  6
CONTINUOUS
  0
LAYER
  5
72EB
330
2
100
AcDbSymbolTableRecord
100
AcDbLayerTableRecord
  2
1
 70
     0
 62
     7
  6
CONTINUOUS
  0
LAYER
  5
72EC
330
2
100
AcDbSymbolTableRecord
100
AcDbLayerTableRecord
  2
TOP
 70
     0
 62
     7
  6
CONTINUOUS
  0
ENDTAB
  0
TABLE
  2
STYLE
  5
3
330
0
100
AcDbSymbolTable
 70
     6
  0
STYLE
  5
11
330
3
100
AcDbSymbolTableRecord
100
AcDbTextStyleTableRecord
  2
STANDARD
 70
     0
 40
0.0
 41
1.0
 50
0.0
 71
     0
 42
2.0
  3
txt.shx
  4
bigfont.shx
  0
STYLE
  5
42
330
3
100
AcDbSymbolTableRecord
100
AcDbTextStyleTableRecord
  2
STANDARD1
 70
     0
 40
0.0
 41
1.0
 50
0.0
 71
     0
 42
5.0
  3
MONOTXT
  4
BIGFONT
  0
STYLE
  5
63A9
330
3
100
AcDbSymbolTableRecord
100
AcDbTextStyleTableRecord
  2
MOJI
 70
     0
 40
0.0
 41
1.0
 50
0.0
 71
     0
 42
2.5
  3
txt.shx
  4
bigfont.shx
  0
STYLE
  5
6D3E
330
3
100
AcDbSymbolTableRecord
100
AcDbTextStyleTableRecord
  2
MX_NOTE_STANDARD
 70
     0
 40
0.0
 41
1.0
 50
0.0
 71
     0
 42
8.3312
  3
txt.shx
  4
extfont.shx
  0
STYLE
  5
721F
330
3
100
AcDbSymbolTableRecord
100
AcDbTextStyleTableRecord
  2
SMP-SET
 70
     0
 40
0.0
 41
1.0
 50
0.0
 71
     0
 42
3.0
  3
SIMPLEX
  4
BIGFONT
  0
STYLE
  5
72ED
330
3
100
AcDbSymbolTableRecord
100
AcDbTextStyleTableRecord
  2
UGMTXT
 70
     0
 40
0.0
 41
1.0
 50
0.0
 71
     0
 42
0.2
  3
ugmtxt
  4
bigfont
  0
ENDTAB
  0
TABLE
  2
VIEW
  5
6
330
0
100
AcDbSymbolTable
 70
     3
  0
VIEW
  5
230C
330
6
100
AcDbSymbolTableRecord
100
AcDbViewTableRecord
  2
OLE1
 70
     0
 40
148.912488
 10
429.497628
 20
2.560627
 41
103.145806
 11
0.0
 21
0.0
 31
1.0
 12
0.0
 22
0.0
 32
0.0
 42
50.0
 43
0.0
 44
0.0
 50
0.0
 71
     0
  0
VIEW
  5
230E
330
6
100
AcDbSymbolTableRecord
100
AcDbViewTableRecord
  2
OLE2
 70
     0
 40
170.778692
 10
322.66497
 20
-5.978304
 41
102.467215
 11
0.0
 21
0.0
 31
1.0
 12
0.0
 22
0.0
 32
0.0
 42
50.0
 43
0.0
 44
0.0
 50
0.0
 71
     0
  0
VIEW
  5
23AA
330
6
100
AcDbSymbolTableRecord
100
AcDbViewTableRecord
  2
OLE3
 70
     0
 40
591.7897389999998
 10
84.79698199999999
 20
-46.09335999999998
 41
388.792096
 11
0.0
 21
0.0
 31
1.0
 12
0.0
 22
0.0
 32
0.0
 42
50.0
 43
0.0
 44
0.0
 50
0.0
 71
     0
  0
ENDTAB
  0
TABLE
  2
UCS
  5
7
330
0
100
AcDbSymbolTable
 70
     0
  0
ENDTAB
  0
TABLE
  2
APPID
  5
9
330
0
100
AcDbSymbolTable
 70
     2
  0
APPID
  5
12
330
9
100
AcDbSymbolTableRecord
100
AcDbRegAppTableRecord
  2
ACAD
 70
     0
  0
APPID
  5
ECD
330
9
100
AcDbSymbolTableRecord
100
AcDbRegAppTableRecord
  2
CONTENTBLOCKICON
 70
     0
  0
ENDTAB
  0
TABLE
  2
DIMSTYLE
  5
A
330
0
100
AcDbSymbolTable
 70
     3
  0
DIMSTYLE
105
175
102
{ACAD_REACTORS
330
70BA
330
7103
330
70B9
330
7104
330
70B8
330
6E44
330
6EB8
330
6E0E
330
6E0F
330
6F6D
330
6F6E
330
6F6F
330
6F70
330
6CE1
330
6CBA
102
}
330
A
100
AcDbSymbolTableRecord
100
AcDbDimStyleTableRecord
  2
STANDARD
 70
     0
  3

  4

  5
OPEN
  6

  7

 40
1.0
 41
2.0
 42
1.0
 43
0.5
 44
0.5
 45
0.0
 46
0.0
 47
0.0
 48
0.0
140
4.0
141
0.09
142
0.0
143
25.4
144
1.0
145
0.0
146
1.0
147
1.0
 71
     0
 72
     0
 73
     0
 74
     1
 75
     0
 76
     0
 77
     3
 78
    12
170
     0
171
     2
172
     0
173
     0
174
     0
175
     0
176
     0
177
     0
178
     0
270
     2
271
     1
272
     1
273
     2
274
     2
340
11
275
     0
280
     0
281
     0
282
     0
283
     1
284
     0
285
     0
286
     0
287
     3
288
     0
  0
DIMSTYLE
105
63AA
330
A
100
AcDbSymbolTableRecord
100
AcDbDimStyleTableRecord
  2
FSTD1
 70
     0
  3

  4

  5

  6
OPEN30
  7
OPEN30
 40
1.0
 41
5.0
 42
1.5
 43
3.75
 44
1.5
 45
0.0
 46
0.0
 47
0.0
 48
0.0
140
5.0
141
2.5
142
0.0
143
0.0394
144
1.0
145
0.0
146
1.0
147
1.5
 71
     0
 72
     0
 73
     0
 74
     0
 75
     0
 76
     0
 77
     1
 78
     8
170
     0
171
     4
172
     1
173
     1
174
     0
175
     0
176
     0
177
     0
178
     0
270
     2
271
     4
272
     4
273
     2
274
     4
340
11
275
     0
280
     0
281
     0
282
     0
283
     1
284
     8
285
     8
286
     8
287
     3
288
     0
  0
DIMSTYLE
105
6D3F
330
A
100
AcDbSymbolTableRecord
100
AcDbDimStyleTableRecord
  2
1
 70
     0
  3

  4

  5

  6
OPEN
  7
OPEN
 40
1.0
 41
4.0
 42
1.0
 43
0.38
 44
1.0
 45
0.0
 46
0.0
 47
0.0
 48
0.0
140
5.0
141
0.09
142
0.0
143
25.4
144
1.0
145
0.0
146
1.0
147
1.5
 71
     0
 72
     0
 73
     0
 74
     0
 75
     0
 76
     0
 77
     1
 78
     0
170
     0
171
     2
172
     1
173
     1
174
     0
175
     0
176
     0
177
     0
178
     0
270
     2
271
     4
272
     4
273
     2
274
     2
340
11
275
     0
280
     0
281
     0
282
     0
283
     1
284
     0
285
     0
286
     0
287
     3
288
     0
  0
ENDTAB
  0
TABLE
  2
BLOCK_RECORD
  5
1
330
0
100
AcDbSymbolTable
 70
    70
  0
BLOCK_RECORD
  5
1E
102
{ACAD_XDICTIONARY
360
178
102
}
330
1
100
AcDbSymbolTableRecord
100
AcDbBlockTableRecord
  2
*MODEL_SPACE
  0
BLOCK_RECORD
  5
1A
102
{ACAD_XDICTIONARY
360
17A
102
}
330
1
100
AcDbSymbolTableRecord
100
AcDbBlockTableRecord
  2
*PAPER_SPACE
  0
BLOCK_RECORD
  5
3B2
330
1
100
AcDbSymbolTableRecord
100
AcDbBlockTableRecord
  2
_OPEN
  0
BLOCK_RECORD
  5
632C
330
1
100
AcDbSymbolTableRecord
100
AcDbBlockTableRecord
  2
_OPEN30
  0
BLOCK_RECORD
  5
6481
330
1
100
AcDbSymbolTableRecord
100
AcDbBlockTableRecord
  2
*D2
  0
BLOCK_RECORD
  5
648D
330
1
100
AcDbSymbolTableRecord
100
AcDbBlockTableRecord
  2
*D3
  0
BLOCK_RECORD
  5
6499
330
1
100
AcDbSymbolTableRecord
100
AcDbBlockTableRecord
  2
*D4
  0
BLOCK_RECORD
  5
64A5
330
1
100
AcDbSymbolTableRecord
100
AcDbBlockTableRecord
  2
*D5
  0
BLOCK_RECORD
  5
64B1
330
1
100
AcDbSymbolTableRecord
100
AcDbBlockTableRecord
  2
*D6
  0
BLOCK_RECORD
  5
64BD
330
1
100
AcDbSymbolTableRecord
100
AcDbBlockTableRecord
  2
*D7
  0
BLOCK_RECORD
  5
64C9
330
1
100
AcDbSymbolTableRecord
100
AcDbBlockTableRecord
  2
*D8
  0
BLOCK_RECORD
  5
64D3
330
1
100
AcDbSymbolTableRecord
100
AcDbBlockTableRecord
  2
*D9
  0
BLOCK_RECORD
  5
64DF
330
1
100
AcDbSymbolTableRecord
100
AcDbBlockTableRecord
  2
*D10
  0
BLOCK_RECORD
  5
64EB
330
1
100
AcDbSymbolTableRecord
100
AcDbBlockTableRecord
  2
*D11
  0
BLOCK_RECORD
  5
6667
330
1
100
AcDbSymbolTableRecord
100
AcDbBlockTableRecord
  2
*D12
  0
BLOCK_RECORD
  5
6673
330
1
100
AcDbSymbolTableRecord
100
AcDbBlockTableRecord
  2
*D13
  0
BLOCK_RECORD
  5
667F
330
1
100
AcDbSymbolTableRecord
100
AcDbBlockTableRecord
  2
*D14
  0
BLOCK_RECORD
  5
668B
330
1
100
AcDbSymbolTableRecord
100
AcDbBlockTableRecord
  2
*D15
  0
BLOCK_RECORD
  5
6697
330
1
100
AcDbSymbolTableRecord
100
AcDbBlockTableRecord
  2
*D16
  0
BLOCK_RECORD
  5
66A3
330
1
100
AcDbSymbolTableRecord
100
AcDbBlockTableRecord
  2
*D17
  0
BLOCK_RECORD
  5
66B1
330
1
100
AcDbSymbolTableRecord
100
AcDbBlockTableRecord
  2
*D18
  0
BLOCK_RECORD
  5
66BF
330
1
100
AcDbSymbolTableRecord
100
AcDbBlockTableRecord
  2
*D19
  0
BLOCK_RECORD
  5
674F
330
1
100
AcDbSymbolTableRecord
100
AcDbBlockTableRecord
  2
*D20
  0
BLOCK_RECORD
  5
67AB
330
1
100
AcDbSymbolTableRecord
100
AcDbBlockTableRecord
  2
*D21
  0
BLOCK_RECORD
  5
67B4
330
1
100
AcDbSymbolTableRecord
100
AcDbBlockTableRecord
  2
*D22
  0
BLOCK_RECORD
  5
67C0
330
1
100
AcDbSymbolTableRecord
100
AcDbBlockTableRecord
  2
*D23
  0
BLOCK_RECORD
  5
6A60
330
1
100
AcDbSymbolTableRecord
100
AcDbBlockTableRecord
  2
*D24
  0
BLOCK_RECORD
  5
6A6B
330
1
100
AcDbSymbolTableRecord
100
AcDbBlockTableRecord
  2
*D25
  0
BLOCK_RECORD
  5
6A79
330
1
100
AcDbSymbolTableRecord
100
AcDbBlockTableRecord
  2
*D26
  0
BLOCK_RECORD
  5
6C63
330
1
100
AcDbSymbolTableRecord
100
AcDbBlockTableRecord
  2
*D27
  0
BLOCK_RECORD
  5
6C6F
330
1
100
AcDbSymbolTableRecord
100
AcDbBlockTableRecord
  2
*D28
  0
BLOCK_RECORD
  5
6CE2
330
1
100
AcDbSymbolTableRecord
100
AcDbBlockTableRecord
  2
*D29
  0
BLOCK_RECORD
  5
6CEE
330
1
100
AcDbSymbolTableRecord
100
AcDbBlockTableRecord
  2
*D30
  0
BLOCK_RECORD
  5
6D0C
330
1
100
AcDbSymbolTableRecord
100
AcDbBlockTableRecord
  2
*D31
  0
BLOCK_RECORD
  5
6D18
330
1
100
AcDbSymbolTableRecord
100
AcDbBlockTableRecord
  2
*D32
  0
BLOCK_RECORD
  5
6D24
330
1
100
AcDbSymbolTableRecord
100
AcDbBlockTableRecord
  2
*D33
  0
BLOCK_RECORD
  5
6D30
330
1
100
AcDbSymbolTableRecord
100
AcDbBlockTableRecord
  2
*D34
  0
BLOCK_RECORD
  5
6EBB
330
1
100
AcDbSymbolTableRecord
100
AcDbBlockTableRecord
  2
*D35
  0
BLOCK_RECORD
  5
6EC7
330
1
100
AcDbSymbolTableRecord
100
AcDbBlockTableRecord
  2
*D36
  0
BLOCK_RECORD
  5
6ED3
330
1
100
AcDbSymbolTableRecord
100
AcDbBlockTableRecord
  2
*D37
  0
BLOCK_RECORD
  5
6EDF
330
1
100
AcDbSymbolTableRecord
100
AcDbBlockTableRecord
  2
*D38
  0
BLOCK_RECORD
  5
6F13
330
1
100
AcDbSymbolTableRecord
100
AcDbBlockTableRecord
  2
*D39
  0
BLOCK_RECORD
  5
6F1F
330
1
100
AcDbSymbolTableRecord
100
AcDbBlockTableRecord
  2
*D40
  0
BLOCK_RECORD
  5
6F2B
330
1
100
AcDbSymbolTableRecord
100
AcDbBlockTableRecord
  2
*D41
  0
BLOCK_RECORD
  5
6F37
330
1
100
AcDbSymbolTableRecord
100
AcDbBlockTableRecord
  2
*D42
  0
BLOCK_RECORD
  5
6F8A
330
1
100
AcDbSymbolTableRecord
100
AcDbBlockTableRecord
  2
*D43
  0
BLOCK_RECORD
  5
6F96
330
1
100
AcDbSymbolTableRecord
100
AcDbBlockTableRecord
  2
*D44
  0
BLOCK_RECORD
  5
6FA2
330
1
100
AcDbSymbolTableRecord
100
AcDbBlockTableRecord
  2
*D45
  0
BLOCK_RECORD
  5
6FAE
330
1
100
AcDbSymbolTableRecord
100
AcDbBlockTableRecord
  2
*D46
  0
BLOCK_RECORD
  5
6FDF
330
1
100
AcDbSymbolTableRecord
100
AcDbBlockTableRecord
  2
*D47
  0
BLOCK_RECORD
  5
6FEB
330
1
100
AcDbSymbolTableRecord
100
AcDbBlockTableRecord
  2
*D48
  0
BLOCK_RECORD
  5
6FF8
330
1
100
AcDbSymbolTableRecord
100
AcDbBlockTableRecord
  2
*D49
  0
BLOCK_RECORD
  5
7004
330
1
100
AcDbSymbolTableRecord
100
AcDbBlockTableRecord
  2
*D50
  0
BLOCK_RECORD
  5
7010
330
1
100
AcDbSymbolTableRecord
100
AcDbBlockTableRecord
  2
*D51
  0
BLOCK_RECORD
  5
712C
330
1
100
AcDbSymbolTableRecord
100
AcDbBlockTableRecord
  2
*D52
  0
BLOCK_RECORD
  5
7138
330
1
100
AcDbSymbolTableRecord
100
AcDbBlockTableRecord
  2
*D53
  0
BLOCK_RECORD
  5
7146
330
1
100
AcDbSymbolTableRecord
100
AcDbBlockTableRecord
  2
*D54
  0
BLOCK_RECORD
  5
7152
330
1
100
AcDbSymbolTableRecord
100
AcDbBlockTableRecord
  2
*D55
  0
BLOCK_RECORD
  5
715F
330
1
100
AcDbSymbolTableRecord
100
AcDbBlockTableRecord
  2
*D56
  0
BLOCK_RECORD
  5
7299
330
1
100
AcDbSymbolTableRecord
100
AcDbBlockTableRecord
  2
*U57
  0
BLOCK_RECORD
  5
72A1
330
1
100
AcDbSymbolTableRecord
100
AcDbBlockTableRecord
  2
*D58
  0
BLOCK_RECORD
  5
72AD
330
1
100
AcDbSymbolTableRecord
100
AcDbBlockTableRecord
  2
*D59
  0
BLOCK_RECORD
  5
72B9
330
1
100
AcDbSymbolTableRecord
100
AcDbBlockTableRecord
  2
*D60
  0
BLOCK_RECORD
  5
72C5
330
1
100
AcDbSymbolTableRecord
100
AcDbBlockTableRecord
  2
*D61
  0
BLOCK_RECORD
  5
72D1
330
1
100
AcDbSymbolTableRecord
100
AcDbBlockTableRecord
  2
*D62
  0
BLOCK_RECORD
  5
72DF
330
1
100
AcDbSymbolTableRecord
100
AcDbBlockTableRecord
  2
*D63
  0
BLOCK_RECORD
  5
7354
330
1
100
AcDbSymbolTableRecord
100
AcDbBlockTableRecord
  2
*D64
  0
BLOCK_RECORD
  5
7360
330
1
100
AcDbSymbolTableRecord
100
AcDbBlockTableRecord
  2
*D65
  0
BLOCK_RECORD
  5
736C
330
1
100
AcDbSymbolTableRecord
100
AcDbBlockTableRecord
  2
*D66
  0
BLOCK_RECORD
  5
7378
330
1
100
AcDbSymbolTableRecord
100
AcDbBlockTableRecord
  2
*D67
  0
BLOCK_RECORD
  5
7384
330
1
100
AcDbSymbolTableRecord
100
AcDbBlockTableRecord
  2
*D68
  0
BLOCK_RECORD
  5
7390
330
1
100
AcDbSymbolTableRecord
100
AcDbBlockTableRecord
  2
*D69
  0
ENDTAB
  0
ENDSEC
  0
SECTION
  2
BLOCKS
  0
BLOCK
  5
1F
330
1E
100
AcDbEntity
  8
0
100
AcDbBlockBegin
  2
*MODEL_SPACE
 70
     0
 10
0.0
 20
0.0
 30
0.0
  3
*MODEL_SPACE
  1

  0
ENDBLK
  5
20
330
1E
100
AcDbEntity
  8
0
100
AcDbBlockEnd
  0
BLOCK
  5
1B
330
1A
100
AcDbEntity
 67
     1
  8
0
100
AcDbBlockBegin
  2
*PAPER_SPACE
 70
     0
 10
0.0
 20
0.0
 30
0.0
  3
*PAPER_SPACE
  1

  0
ENDBLK
  5
1C
330
1A
100
AcDbEntity
 67
     1
  8
0
100
AcDbBlockEnd
  0
BLOCK
  5
3B6
330
3B2
100
AcDbEntity
  8
0
100
AcDbBlockBegin
  2
_OPEN
 70
     0
 10
0.0
 20
0.0
 30
0.0
  3
_OPEN
  1

  0
LINE
  5
3B3
330
3B2
100
AcDbEntity
  8
30
  6
CONTINUOUS
 62
     0
100
AcDbLine
 10
-1.0
 20
0.166667
 30
0.0
 11
0.0
 21
0.0
 31
0.0
  0
LINE
  5
3B4
330
3B2
100
AcDbEntity
  8
30
  6
CONTINUOUS
 62
     0
100
AcDbLine
 10
-1.0
 20
-0.166667
 30
0.0
 11
0.0
 21
0.0
 31
0.0
  0
LINE
  5
3B5
330
3B2
100
AcDbEntity
  8
30
  6
CONTINUOUS
 62
     0
100
AcDbLine
 10
0.0
 20
0.0
 30
0.0
 11
-1.0
 21
0.0
 31
0.0
  0
ENDBLK
  5
3B7
330
3B2
100
AcDbEntity
  8
0
100
AcDbBlockEnd
  0
BLOCK
  5
6330
330
632C
100
AcDbEntity
  8
0
100
AcDbBlockBegin
  2
_OPEN30
 70
     0
 10
0.0
 20
0.0
 30
0.0
  3
_OPEN30
  1

  0
LINE
  5
632D
330
632C
100
AcDbEntity
  8
0
  6
BYBLOCK
 62
     0
100
AcDbLine
 10
-1.0
 20
0.26794919
 30
0.0
 11
0.0
 21
0.0
 31
0.0
  0
LINE
  5
632E
330
632C
100
AcDbEntity
  8
0
  6
BYBLOCK
 62
     0
100
AcDbLine
 10
0.0
 20
0.0
 30
0.0
 11
-1.0
 21
-0.26794919
 31
0.0
  0
LINE
  5
632F
330
632C
100
AcDbEntity
  8
0
  6
BYBLOCK
 62
     0
100
AcDbLine
 10
0.0
 20
0.0
 30
0.0
 11
-1.0
 21
0.0
 31
0.0
  0
ENDBLK
  5
6331
330
632C
100
AcDbEntity
  8
0
100
AcDbBlockEnd
  0
BLOCK
  5
648B
330
6481
100
AcDbEntity
  8
0
100
AcDbBlockBegin
  2
*D2
 70
     1
 10
0.0
 20
0.0
 30
0.0
  3
*D2
  1

  0
LINE
  5
6BCC
330
6481
100
AcDbEntity
  8
30
  6
CONTINUOUS
 62
     0
100
AcDbLine
 10
-245.0883805523931
 20
99.7500012401781
 30
0.0
 11
-184.0273311682182
 21
99.7500012401781
 31
0.0
  0
LINE
  5
6BCD
330
6481
100
AcDbEntity
  8
30
  6
CONTINUOUS
 62
     0
100
AcDbLine
 10
-224.5884410840011
 20
49.75000124025109
 30
0.0
 11
-184.0273311682182
 21
49.75000124025108
 31
0.0
  0
LINE
  5
6BCE
330
6481
100
AcDbEntity
  8
30
  6
CONTINUOUS
 62
     0
100
AcDbLine
 10
-184.5273311682182
 20
97.75000124017807
 30
0.0
 11
-184.5273311682182
 21
51.7500012402511
 31
0.0
  0
INSERT
  5
6BCF
330
6481
100
AcDbEntity
  8
30
  6
CONTINUOUS
 62
     0
100
AcDbBlockReference
  2
_OPEN
 10
-184.5273311682182
 20
99.7500012401781
 30
0.0
 41
2.0
 42
2.0
 43
2.0
 50
90.0
  0
INSERT
  5
6BD0
330
6481
100
AcDbEntity
  8
30
  6
CONTINUOUS
 62
     0
100
AcDbBlockReference
  2
_OPEN
 10
-184.5273311682182
 20
49.75000124025108
 30
0.0
 41
2.0
 42
2.0
 43
2.0
 50
270.0
  0
MTEXT
  5
6BD1
330
6481
100
AcDbEntity
  8
30
  6
CONTINUOUS
 62
     0
100
AcDbMText
 10
-187.5273311682182
 20
74.75000124021454
 30
0.0
 40
4.0
 41
0.0
 71
     5
 72
     1
  1
\A1;50
 11
0.0000000000000001
 21
1.0
 31
0.0
1001
ACAD
1000
MTEXTBEGIN
1070
    73
1070
     1
1070
    44
1040
1.0
1070
    74
1070
     0
1000
MTEXTEND
  0
POINT
  5
6BD2
330
6481
100
AcDbEntity
  8
DEFPOINTS
  6
CONTINUOUS
 62
     0
100
AcDbPoint
 10
-246.0883805523931
 20
99.7500012401781
 30
0.0
  0
POINT
  5
6BD3
330
6481
100
AcDbEntity
  8
DEFPOINTS
  6
CONTINUOUS
 62
     0
100
AcDbPoint
 10
-225.588441084001
 20
49.75000124025109
 30
0.0
  0
POINT
  5
6BD4
330
6481
100
AcDbEntity
  8
DEFPOINTS
  6
CONTINUOUS
 62
     0
100
AcDbPoint
 10
-184.5273311682182
 20
49.75000124025108
 30
0.0
  0
ENDBLK
  5
648C
330
6481
100
AcDbEntity
  8
0
100
AcDbBlockEnd
  0
BLOCK
  5
6497
330
648D
100
AcDbEntity
  8
0
100
AcDbBlockBegin
  2
*D3
 70
     1
 10
0.0
 20
0.0
 30
0.0
  3
*D3
  1

  0
LINE
  5
6B9F
330
648D
100
AcDbEntity
  8
30
  6
CONTINUOUS
 62
     0
100
AcDbLine
 10
-244.9282950756556
 20
42.00000104691098
 30
0.0
 11
-196.6531565001398
 21
42.00000104691097
 31
0.0
  0
LINE
  5
6BA0
330
648D
100
AcDbEntity
  8
30
  6
CONTINUOUS
 62
     0
100
AcDbLine
 10
-244.9282950756556
 20
-42.00000104691187
 30
0.0
 11
-196.6531565001398
 21
-42.00000104691189
 31
0.0
  0
LINE
  5
6BA1
330
648D
100
AcDbEntity
  8
30
  6
CONTINUOUS
 62
     0
100
AcDbLine
 10
-197.1531565001398
 20
40.00000104691097
 30
0.0
 11
-197.1531565001398
 21
-40.00000104691189
 31
0.0
  0
INSERT
  5
6BA2
330
648D
100
AcDbEntity
  8
30
  6
CONTINUOUS
 62
     0
100
AcDbBlockReference
  2
_OPEN
 10
-197.1531565001398
 20
42.00000104691097
 30
0.0
 41
2.0
 42
2.0
 43
2.0
 50
90.0
  0
INSERT
  5
6BA3
330
648D
100
AcDbEntity
  8
30
  6
CONTINUOUS
 62
     0
100
AcDbBlockReference
  2
_OPEN
 10
-197.1531565001398
 20
-42.00000104691189
 30
0.0
 41
2.0
 42
2.0
 43
2.0
 50
270.0
  0
MTEXT
  5
6BA4
330
648D
100
AcDbEntity
  8
30
  6
CONTINUOUS
 62
     0
100
AcDbMText
 10
-200.1531565001398
 20
-0.0000000000004849
 30
0.0
 40
4.0
 41
0.0
 71
     5
 72
     1
  1
\A1;84
 11
0.0000000000000001
 21
1.0
 31
0.0
1001
ACAD
1000
MTEXTBEGIN
1070
    73
1070
     1
1070
    44
1040
1.0
1070
    74
1070
     0
1000
MTEXTEND
  0
POINT
  5
6BA5
330
648D
100
AcDbEntity
  8
DEFPOINTS
  6
CONTINUOUS
 62
     0
100
AcDbPoint
 10
-245.9282950756557
 20
42.00000104691098
 30
0.0
  0
POINT
  5
6BA6
330
648D
100
AcDbEntity
  8
DEFPOINTS
  6
CONTINUOUS
 62
     0
100
AcDbPoint
 10
-245.9282950756557
 20
-42.00000104691187
 30
0.0
  0
POINT
  5
6BA7
330
648D
100
AcDbEntity
  8
DEFPOINTS
  6
CONTINUOUS
 62
     0
100
AcDbPoint
 10
-197.1531565001398
 20
-42.00000104691189
 30
0.0
  0
ENDBLK
  5
6498
330
648D
100
AcDbEntity
  8
0
100
AcDbBlockEnd
  0
BLOCK
  5
64A3
330
6499
100
AcDbEntity
  8
0
100
AcDbBlockBegin
  2
*D4
 70
     1
 10
0.0
 20
0.0
 30
0.0
  3
*D4
  1

  0
LINE
  5
6BBA
330
6499
100
AcDbEntity
  8
30
  6
CONTINUOUS
 62
     0
100
AcDbLine
 10
-274.0885055644544
 20
-47.25000115285697
 30
0.0
 11
-274.0885055644544
 21
-94.98966437759396
 31
0.0
  0
LINE
  5
6BBB
330
6499
100
AcDbEntity
  8
30
  6
CONTINUOUS
 62
     0
100
AcDbLine
 10
-224.0883800039723
 20
-47.25000115285697
 30
0.0
 11
-224.0883800039723
 21
-94.98966437759396
 31
0.0
  0
LINE
  5
6BBC
330
6499
100
AcDbEntity
  8
30
  6
CONTINUOUS
 62
     0
100
AcDbLine
 10
-272.0885055644544
 20
-94.48966437759397
 30
0.0
 11
-226.0883800039724
 21
-94.48966437759397
 31
0.0
  0
INSERT
  5
6BBD
330
6499
100
AcDbEntity
  8
30
  6
CONTINUOUS
 62
     0
100
AcDbBlockReference
  2
_OPEN
 10
-274.0885055644544
 20
-94.48966437759397
 30
0.0
 41
2.0
 42
2.0
 43
2.0
 50
180.0
  0
INSERT
  5
6BBE
330
6499
100
AcDbEntity
  8
30
  6
CONTINUOUS
 62
     0
100
AcDbBlockReference
  2
_OPEN
 10
-224.0883800039723
 20
-94.48966437759397
 30
0.0
 41
2.0
 42
2.0
 43
2.0
  0
MTEXT
  5
6BBF
330
6499
100
AcDbEntity
  8
30
  6
CONTINUOUS
 62
     0
100
AcDbMText
 10
-249.0884427842134
 20
-91.48966437759396
 30
0.0
 40
4.0
 41
0.0
 71
     5
 72
     1
  1
\A1;50
1001
ACAD
1000
MTEXTBEGIN
1070
    73
1070
     1
1070
    44
1040
1.0
1070
    74
1070
     0
1000
MTEXTEND
  0
POINT
  5
6BC0
330
6499
100
AcDbEntity
  8
DEFPOINTS
  6
CONTINUOUS
 62
     0
100
AcDbPoint
 10
-274.0885055644544
 20
-46.25000115285698
 30
0.0
  0
POINT
  5
6BC1
330
6499
100
AcDbEntity
  8
DEFPOINTS
  6
CONTINUOUS
 62
     0
100
AcDbPoint
 10
-224.0883800039723
 20
-46.25000115285698
 30
0.0
  0
POINT
  5
6BC2
330
6499
100
AcDbEntity
  8
DEFPOINTS
  6
CONTINUOUS
 62
     0
100
AcDbPoint
 10
-224.0883800039723
 20
-94.48966437759397
 30
0.0
  0
ENDBLK
  5
64A4
330
6499
100
AcDbEntity
  8
0
100
AcDbBlockEnd
  0
BLOCK
  5
64AF
330
64A5
100
AcDbEntity
  8
0
100
AcDbBlockBegin
  2
*D5
 70
     1
 10
0.0
 20
0.0
 30
0.0
  3
*D5
  1

  0
LINE
  5
6BB1
330
64A5
100
AcDbEntity
  8
30
  6
CONTINUOUS
 62
     0
100
AcDbLine
 10
-273.0884587732079
 20
-25.00003111578299
 30
0.0
 11
-273.0884587732079
 21
-81.54379696341342
 31
0.0
  0
LINE
  5
6BB2
330
64A5
100
AcDbEntity
  8
30
  6
CONTINUOUS
 62
     0
100
AcDbLine
 10
-225.5883800413648
 20
-25.00003111578299
 30
0.0
 11
-225.5883800413648
 21
-81.54379696341342
 31
0.0
  0
LINE
  5
6BB3
330
64A5
100
AcDbEntity
  8
30
  6
CONTINUOUS
 62
     0
100
AcDbLine
 10
-271.0884587732079
 20
-81.04379696341338
 30
0.0
 11
-227.5883800413648
 21
-81.04379696341338
 31
0.0
  0
INSERT
  5
6BB4
330
64A5
100
AcDbEntity
  8
30
  6
CONTINUOUS
 62
     0
100
AcDbBlockReference
  2
_OPEN
 10
-273.0884587732079
 20
-81.04379696341338
 30
0.0
 41
2.0
 42
2.0
 43
2.0
 50
180.0
  0
INSERT
  5
6BB5
330
64A5
100
AcDbEntity
  8
30
  6
CONTINUOUS
 62
     0
100
AcDbBlockReference
  2
_OPEN
 10
-225.5883800413648
 20
-81.04379696341338
 30
0.0
 41
2.0
 42
2.0
 43
2.0
  0
MTEXT
  5
6BB6
330
64A5
100
AcDbEntity
  8
30
  6
CONTINUOUS
 62
     0
100
AcDbMText
 10
-249.3384194072864
 20
-78.04379696341341
 30
0.0
 40
4.0
 41
0.0
 71
     5
 72
     1
  1
\A1;47.5
1001
ACAD
1000
MTEXTBEGIN
1070
    73
1070
     1
1070
    44
1040
1.0
1070
    74
1070
     0
1000
MTEXTEND
  0
POINT
  5
6BB7
330
64A5
100
AcDbEntity
  8
DEFPOINTS
  6
CONTINUOUS
 62
     0
100
AcDbPoint
 10
-273.0884587732079
 20
-24.000031115783
 30
0.0
  0
POINT
  5
6BB8
330
64A5
100
AcDbEntity
  8
DEFPOINTS
  6
CONTINUOUS
 62
     0
100
AcDbPoint
 10
-225.5883800413648
 20
-24.000031115783
 30
0.0
  0
POINT
  5
6BB9
330
64A5
100
AcDbEntity
  8
DEFPOINTS
  6
CONTINUOUS
 62
     0
100
AcDbPoint
 10
-225.5883800413648
 20
-81.04379696341338
 30
0.0
  0
ENDBLK
  5
64B0
330
64A5
100
AcDbEntity
  8
0
100
AcDbBlockEnd
  0
BLOCK
  5
64BB
330
64B1
100
AcDbEntity
  8
0
100
AcDbBlockBegin
  2
*D6
 70
     1
 10
0.0
 20
0.0
 30
0.0
  3
*D6
  1

  0
LINE
  5
6BD5
330
64B1
100
AcDbEntity
  8
30
  6
CONTINUOUS
 62
     0
100
AcDbLine
 10
-268.6633176265088
 20
39.99999958291414
 30
0.0
 11
-290.7319165072871
 21
39.99999958291414
 31
0.0
  0
LINE
  5
6BD6
330
64B1
100
AcDbEntity
  8
30
  6
CONTINUOUS
 62
     0
100
AcDbLine
 10
-281.2743008973511
 20
0.0000000000000003
 30
0.0
 11
-290.7319165072871
 21
0.000000000000003
 31
0.0
  0
LINE
  5
6BD7
330
64B1
100
AcDbEntity
  8
30
  6
CONTINUOUS
 62
     0
100
AcDbLine
 10
-290.2319165072871
 20
37.99999958291415
 30
0.0
 11
-290.2319165072871
 21
2.000000000000002
 31
0.0
  0
INSERT
  5
6BD8
330
64B1
100
AcDbEntity
  8
30
  6
CONTINUOUS
 62
     0
100
AcDbBlockReference
  2
_OPEN
 10
-290.2319165072871
 20
39.99999958291414
 30
0.0
 41
2.0
 42
2.0
 43
2.0
 50
90.0
  0
INSERT
  5
6BD9
330
64B1
100
AcDbEntity
  8
30
  6
CONTINUOUS
 62
     0
100
AcDbBlockReference
  2
_OPEN
 10
-290.2319165072871
 20
0.0000000000000028
 30
0.0
 41
2.0
 42
2.0
 43
2.0
 50
270.0
  0
MTEXT
  5
6BDA
330
64B1
100
AcDbEntity
  8
30
  6
CONTINUOUS
 62
     0
100
AcDbMText
 10
-293.231916507287
 20
19.99999979145703
 30
0.0
 40
4.0
 41
0.0
 71
     5
 72
     1
  1
\A1;40
 11
0.0000000000000001
 21
1.0
 31
0.0
1001
ACAD
1000
MTEXTBEGIN
1070
    73
1070
     1
1070
    44
1040
1.0
1070
    74
1070
     0
1000
MTEXTEND
  0
POINT
  5
6BDB
330
64B1
100
AcDbEntity
  8
DEFPOINTS
  6
CONTINUOUS
 62
     0
100
AcDbPoint
 10
-267.6633176265088
 20
39.99999958291414
 30
0.0
  0
POINT
  5
6BDC
330
64B1
100
AcDbEntity
  8
DEFPOINTS
  6
CONTINUOUS
 62
     0
100
AcDbPoint
 10
-280.2743008973513
 20
0.0
 30
0.0
  0
POINT
  5
6BDD
330
64B1
100
AcDbEntity
  8
DEFPOINTS
  6
CONTINUOUS
 62
     0
100
AcDbPoint
 10
-290.2319165072871
 20
0.0000000000000028
 30
0.0
  0
ENDBLK
  5
64BC
330
64B1
100
AcDbEntity
  8
0
100
AcDbBlockEnd
  0
BLOCK
  5
64C7
330
64BD
100
AcDbEntity
  8
0
100
AcDbBlockBegin
  2
*D7
 70
     1
 10
0.0
 20
0.0
 30
0.0
  3
*D7
  1

  0
LINE
  5
6BC3
330
64BD
100
AcDbEntity
  8
30
  6
CONTINUOUS
 62
     0
100
AcDbLine
 10
-261.5883052680416
 20
-49.07501340538197
 30
0.0
 11
-261.5883052680416
 21
-67.84423486139619
 31
0.0
  0
LINE
  5
6BC4
330
64BD
100
AcDbEntity
  8
30
  6
CONTINUOUS
 62
     0
100
AcDbLine
 10
-236.588334539205
 20
-49.07501340538197
 30
0.0
 11
-236.588334539205
 21
-67.84423486139619
 31
0.0
  0
LINE
  5
6BC5
330
64BD
100
AcDbEntity
  8
30
  6
CONTINUOUS
 62
     0
100
AcDbLine
 10
-259.5883052680416
 20
-67.34423486139617
 30
0.0
 11
-238.588334539205
 21
-67.34423486139617
 31
0.0
  0
INSERT
  5
6BC6
330
64BD
100
AcDbEntity
  8
30
  6
CONTINUOUS
 62
     0
100
AcDbBlockReference
  2
_OPEN
 10
-261.5883052680416
 20
-67.34423486139617
 30
0.0
 41
2.0
 42
2.0
 43
2.0
 50
180.0
  0
INSERT
  5
6BC7
330
64BD
100
AcDbEntity
  8
30
  6
CONTINUOUS
 62
     0
100
AcDbBlockReference
  2
_OPEN
 10
-236.588334539205
 20
-67.34423486139617
 30
0.0
 41
2.0
 42
2.0
 43
2.0
  0
MTEXT
  5
6BC8
330
64BD
100
AcDbEntity
  8
30
  6
CONTINUOUS
 62
     0
100
AcDbMText
 10
-249.0883199036233
 20
-64.34423486139619
 30
0.0
 40
4.0
 41
0.0
 71
     5
 72
     1
  1
\A1;25
1001
ACAD
1000
MTEXTBEGIN
1070
    73
1070
     1
1070
    44
1040
1.0
1070
    74
1070
     0
1000
MTEXTEND
  0
POINT
  5
6BC9
330
64BD
100
AcDbEntity
  8
DEFPOINTS
  6
CONTINUOUS
 62
     0
100
AcDbPoint
 10
-261.5883052680416
 20
-48.07501340538197
 30
0.0
  0
POINT
  5
6BCA
330
64BD
100
AcDbEntity
  8
DEFPOINTS
  6
CONTINUOUS
 62
     0
100
AcDbPoint
 10
-236.588334539205
 20
-48.07501340538197
 30
0.0
  0
POINT
  5
6BCB
330
64BD
100
AcDbEntity
  8
DEFPOINTS
  6
CONTINUOUS
 62
     0
100
AcDbPoint
 10
-236.588334539205
 20
-67.34423486139617
 30
0.0
  0
ENDBLK
  5
64C8
330
64BD
100
AcDbEntity
  8
0
100
AcDbBlockEnd
  0
BLOCK
  5
64D1
330
64C9
100
AcDbEntity
  8
0
100
AcDbBlockBegin
  2
*D8
 70
     1
 10
0.0
 20
0.0
 30
0.0
  3
*D8
  1

  0
LINE
  5
6BDE
330
64C9
100
AcDbEntity
  8
30
  6
CONTINUOUS
 62
     0
100
AcDbLine
 10
-249.0883199036232
 20
-13.85502181118508
 30
0.0
 11
-249.0883199036232
 21
-14.35502181118499
 31
0.0
  0
LINE
  5
6BDF
330
64C9
100
AcDbEntity
  8
30
  6
CONTINUOUS
 62
     0
100
AcDbLine
 10
-273.0884587732083
 20
-13.85502181118499
 30
0.0
 11
-273.0884587732083
 21
-14.35502181118499
 31
0.0
  0
LINE
  5
6BE0
330
64C9
100
AcDbEntity
  8
30
  6
CONTINUOUS
 62
     0
100
AcDbLine
 10
-251.0883199036232
 20
-14.85502181118499
 30
0.0
 11
-271.0884587732083
 21
-14.85502181118499
 31
0.0
  0
INSERT
  5
6BE1
330
64C9
100
AcDbEntity
  8
30
  6
CONTINUOUS
 62
     0
100
AcDbBlockReference
  2
_OPEN
 10
-249.0883199036232
 20
-14.85502181118499
 30
0.0
 41
2.0
 42
2.0
 43
2.0
  0
INSERT
  5
6BE2
330
64C9
100
AcDbEntity
  8
30
  6
CONTINUOUS
 62
     0
100
AcDbBlockReference
  2
_OPEN
 10
-273.0884587732083
 20
-14.85502181118499
 30
0.0
 41
2.0
 42
2.0
 43
2.0
 50
180.0
  0
MTEXT
  5
6BE3
330
64C9
100
AcDbEntity
  8
30
  6
CONTINUOUS
 62
     0
100
AcDbMText
 10
-261.0883893384158
 20
-11.85502181118499
 30
0.0
 40
4.0
 41
0.0
 71
     5
 72
     1
  1
\A1;24
1001
ACAD
1000
MTEXTBEGIN
1070
    73
1070
     1
1070
    44
1040
1.0
1070
    74
1070
     0
1000
MTEXTEND
  0
POINT
  5
6BE4
330
64C9
100
AcDbEntity
  8
DEFPOINTS
  6
CONTINUOUS
 62
     0
100
AcDbPoint
 10
-249.0883199036232
 20
-14.85502181118508
 30
0.0
  0
POINT
  5
6BE5
330
64C9
100
AcDbEntity
  8
DEFPOINTS
  6
CONTINUOUS
 62
     0
100
AcDbPoint
 10
-273.0884587732083
 20
-14.85502181118499
 30
0.0
  0
POINT
  5
6BE6
330
64C9
100
AcDbEntity
  8
DEFPOINTS
  6
CONTINUOUS
 62
     0
100
AcDbPoint
 10
-273.0884587732083
 20
-14.85502181118499
 30
0.0
  0
ENDBLK
  5
64D2
330
64C9
100
AcDbEntity
  8
0
100
AcDbBlockEnd
  0
BLOCK
  5
64DD
330
64D3
100
AcDbEntity
  8
0
100
AcDbBlockBegin
  2
*D9
 70
     1
 10
0.0
 20
0.0
 30
0.0
  3
*D9
  1

  0
LINE
  5
6B96
330
64D3
100
AcDbEntity
  8
30
  6
CONTINUOUS
 62
     0
100
AcDbLine
 10
-281.2743008973511
 20
0.0000000000000003
 30
0.0
 11
-290.7319165072871
 21
0.000000000000003
 31
0.0
  0
LINE
  5
6B97
330
64D3
100
AcDbEntity
  8
30
  6
CONTINUOUS
 62
     0
100
AcDbLine
 10
-268.6633176265088
 20
-42.00000104691187
 30
0.0
 11
-290.7319165072871
 21
-42.00000104691187
 31
0.0
  0
LINE
  5
6B98
330
64D3
100
AcDbEntity
  8
30
  6
CONTINUOUS
 62
     0
100
AcDbLine
 10
-290.2319165072871
 20
-1.999999999999996
 30
0.0
 11
-290.2319165072871
 21
-40.00000104691187
 31
0.0
  0
INSERT
  5
6B99
330
64D3
100
AcDbEntity
  8
30
  6
CONTINUOUS
 62
     0
100
AcDbBlockReference
  2
_OPEN
 10
-290.2319165072871
 20
0.0000000000000028
 30
0.0
 41
2.0
 42
2.0
 43
2.0
 50
90.0
  0
INSERT
  5
6B9A
330
64D3
100
AcDbEntity
  8
30
  6
CONTINUOUS
 62
     0
100
AcDbBlockReference
  2
_OPEN
 10
-290.2319165072871
 20
-42.00000104691187
 30
0.0
 41
2.0
 42
2.0
 43
2.0
 50
270.0
  0
MTEXT
  5
6B9B
330
64D3
100
AcDbEntity
  8
30
  6
CONTINUOUS
 62
     0
100
AcDbMText
 10
-293.231916507287
 20
-21.00000052345598
 30
0.0
 40
4.0
 41
0.0
 71
     5
 72
     1
  1
\A1;42
 11
0.0000000000000001
 21
1.0
 31
0.0
1001
ACAD
1000
MTEXTBEGIN
1070
    73
1070
     1
1070
    44
1040
1.0
1070
    74
1070
     0
1000
MTEXTEND
  0
POINT
  5
6B9C
330
64D3
100
AcDbEntity
  8
DEFPOINTS
  6
CONTINUOUS
 62
     0
100
AcDbPoint
 10
-280.2743008973513
 20
0.0
 30
0.0
  0
POINT
  5
6B9D
330
64D3
100
AcDbEntity
  8
DEFPOINTS
  6
CONTINUOUS
 62
     0
100
AcDbPoint
 10
-267.6633176265088
 20
-42.00000104691187
 30
0.0
  0
POINT
  5
6B9E
330
64D3
100
AcDbEntity
  8
DEFPOINTS
  6
CONTINUOUS
 62
     0
100
AcDbPoint
 10
-290.2319165072871
 20
-42.00000104691187
 30
0.0
  0
ENDBLK
  5
64DE
330
64D3
100
AcDbEntity
  8
0
100
AcDbBlockEnd
  0
BLOCK
  5
64E9
330
64DF
100
AcDbEntity
  8
0
100
AcDbBlockBegin
  2
*D10
 70
     1
 10
0.0
 20
0.0
 30
0.0
  3
*D10
  1

  0
LINE
  5
6B8D
330
64DF
100
AcDbEntity
  8
30
  6
CONTINUOUS
 62
     0
100
AcDbLine
 10
-224.5884410840011
 20
49.75000124025109
 30
0.0
 11
-184.0273311682182
 21
49.75000124025108
 31
0.0
  0
LINE
  5
6B8E
330
64DF
100
AcDbEntity
  8
30
  6
CONTINUOUS
 62
     0
100
AcDbLine
 10
-224.5884410840011
 20
-49.75000124010498
 30
0.0
 11
-184.0273311682182
 21
-49.75000124010499
 31
0.0
  0
LINE
  5
6B8F
330
64DF
100
AcDbEntity
  8
30
  6
CONTINUOUS
 62
     0
100
AcDbLine
 10
-184.5273311682182
 20
47.75000124025107
 30
0.0
 11
-184.5273311682182
 21
-47.75000124010499
 31
0.0
  0
INSERT
  5
6B90
330
64DF
100
AcDbEntity
  8
30
  6
CONTINUOUS
 62
     0
100
AcDbBlockReference
  2
_OPEN
 10
-184.5273311682182
 20
49.75000124025108
 30
0.0
 41
2.0
 42
2.0
 43
2.0
 50
90.0
  0
INSERT
  5
6B91
330
64DF
100
AcDbEntity
  8
30
  6
CONTINUOUS
 62
     0
100
AcDbBlockReference
  2
_OPEN
 10
-184.5273311682182
 20
-49.75000124010499
 30
0.0
 41
2.0
 42
2.0
 43
2.0
 50
270.0
  0
MTEXT
  5
6B92
330
64DF
100
AcDbEntity
  8
30
  6
CONTINUOUS
 62
     0
100
AcDbMText
 10
-187.5273311682182
 20
0.0000000000730199
 30
0.0
 40
4.0
 41
0.0
 71
     5
 72
     1
  1
\A1;100
 11
0.0000000000000001
 21
1.0
 31
0.0
1001
ACAD
1000
MTEXTBEGIN
1070
    73
1070
     1
1070
    44
1040
1.0
1070
    74
1070
     0
1000
MTEXTEND
  0
POINT
  5
6B93
330
64DF
100
AcDbEntity
  8
DEFPOINTS
  6
CONTINUOUS
 62
     0
100
AcDbPoint
 10
-225.588441084001
 20
49.75000124025109
 30
0.0
  0
POINT
  5
6B94
330
64DF
100
AcDbEntity
  8
DEFPOINTS
  6
CONTINUOUS
 62
     0
100
AcDbPoint
 10
-225.588441084001
 20
-49.75000124010498
 30
0.0
  0
POINT
  5
6B95
330
64DF
100
AcDbEntity
  8
DEFPOINTS
  6
CONTINUOUS
 62
     0
100
AcDbPoint
 10
-184.5273311682182
 20
-49.75000124010499
 30
0.0
  0
ENDBLK
  5
64EA
330
64DF
100
AcDbEntity
  8
0
100
AcDbBlockEnd
  0
BLOCK
  5
64F5
330
64EB
100
AcDbEntity
  8
0
100
AcDbBlockBegin
  2
*D11
 70
     1
 10
0.0
 20
0.0
 30
0.0
  3
*D11
  1

  0
LINE
  5
6B84
330
64EB
100
AcDbEntity
  8
30
  6
CONTINUOUS
 62
     0
100
AcDbLine
 10
-225.5883495487139
 20
24.9999701056991
 30
0.0
 11
-208.6917341754856
 21
24.9999701056991
 31
0.0
  0
LINE
  5
6B85
330
64EB
100
AcDbEntity
  8
30
  6
CONTINUOUS
 62
     0
100
AcDbLine
 10
-225.5883806891006
 20
-25.00003114071091
 30
0.0
 11
-208.6917341754856
 21
-25.00003114071092
 31
0.0
  0
LINE
  5
6B86
330
64EB
100
AcDbEntity
  8
30
  6
CONTINUOUS
 62
     0
100
AcDbLine
 10
-209.1917341754855
 20
22.9999701056991
 30
0.0
 11
-209.1917341754855
 21
-23.00003114071091
 31
0.0
  0
INSERT
  5
6B87
330
64EB
100
AcDbEntity
  8
30
  6
CONTINUOUS
 62
     0
100
AcDbBlockReference
  2
_OPEN
 10
-209.1917341754855
 20
24.9999701056991
 30
0.0
 41
2.0
 42
2.0
 43
2.0
 50
90.0
  0
INSERT
  5
6B88
330
64EB
100
AcDbEntity
  8
30
  6
CONTINUOUS
 62
     0
100
AcDbBlockReference
  2
_OPEN
 10
-209.1917341754855
 20
-25.00003114071092
 30
0.0
 41
2.0
 42
2.0
 43
2.0
 50
270.0
  0
MTEXT
  5
6B89
330
64EB
100
AcDbEntity
  8
30
  6
CONTINUOUS
 62
     0
100
AcDbMText
 10
-212.1917341754857
 20
-0.000030517505942
 30
0.0
 40
4.0
 41
0.0
 71
     5
 72
     1
  1
\A1;50
 11
0.0000000000000001
 21
1.0
 31
0.0
1001
ACAD
1000
MTEXTBEGIN
1070
    73
1070
     1
1070
    44
1040
1.0
1070
    74
1070
     0
1000
MTEXTEND
  0
POINT
  5
6B8A
330
64EB
100
AcDbEntity
  8
DEFPOINTS
  6
CONTINUOUS
 62
     0
100
AcDbPoint
 10
-226.5883495487141
 20
24.9999701056991
 30
0.0
  0
POINT
  5
6B8B
330
64EB
100
AcDbEntity
  8
DEFPOINTS
  6
CONTINUOUS
 62
     0
100
AcDbPoint
 10
-226.5883806891006
 20
-25.00003114071091
 30
0.0
  0
POINT
  5
6B8C
330
64EB
100
AcDbEntity
  8
DEFPOINTS
  6
CONTINUOUS
 62
     0
100
AcDbPoint
 10
-209.1917341754855
 20
-25.00003114071092
 30
0.0
  0
ENDBLK
  5
64F6
330
64EB
100
AcDbEntity
  8
0
100
AcDbBlockEnd
  0
BLOCK
  5
6671
330
6667
100
AcDbEntity
  8
0
100
AcDbBlockBegin
  2
*D12
 70
     1
 10
0.0
 20
0.0
 30
0.0
  3
*D12
  1

  0
LINE
  5
6BF6
330
6667
100
AcDbEntity
  8
30
  6
CONTINUOUS
 62
     0
100
AcDbLine
 10
329.657614108818
 20
2.312532077410465
 30
0.0
 11
329.657614108818
 21
-94.9896796364195
 31
0.0
  0
LINE
  5
6BF7
330
6667
100
AcDbEntity
  8
30
  6
CONTINUOUS
 62
     0
100
AcDbLine
 10
413.6576104253662
 20
-44.00006821062139
 30
0.0
 11
413.6576104253662
 21
-94.9896796364195
 31
0.0
  0
LINE
  5
6BF8
330
6667
100
AcDbEntity
  8
30
  6
CONTINUOUS
 62
     0
100
AcDbLine
 10
331.657614108818
 20
-94.48967963641948
 30
0.0
 11
411.6576104253662
 21
-94.48967963641948
 31
0.0
  0
INSERT
  5
6BF9
330
6667
100
AcDbEntity
  8
30
  6
CONTINUOUS
 62
     0
100
AcDbBlockReference
  2
_OPEN
 10
329.657614108818
 20
-94.48967963641948
 30
0.0
 41
2.0
 42
2.0
 43
2.0
 50
180.0
  0
INSERT
  5
6BFA
330
6667
100
AcDbEntity
  8
30
  6
CONTINUOUS
 62
     0
100
AcDbBlockReference
  2
_OPEN
 10
413.6576104253662
 20
-94.48967963641948
 30
0.0
 41
2.0
 42
2.0
 43
2.0
  0
MTEXT
  5
6BFB
330
6667
100
AcDbEntity
  8
30
  6
CONTINUOUS
 62
     0
100
AcDbMText
 10
371.6576122670922
 20
-91.48967963641949
 30
0.0
 40
4.0
 41
0.0
 71
     5
 72
     1
  1
\A1;84
1001
ACAD
1000
MTEXTBEGIN
1070
    73
1070
     1
1070
    44
1040
1.0
1070
    74
1070
     0
1000
MTEXTEND
  0
POINT
  5
6BFC
330
6667
100
AcDbEntity
  8
DEFPOINTS
  6
CONTINUOUS
 62
     0
100
AcDbPoint
 10
329.657614108818
 20
3.312532077410466
 30
0.0
  0
POINT
  5
6BFD
330
6667
100
AcDbEntity
  8
DEFPOINTS
  6
CONTINUOUS
 62
     0
100
AcDbPoint
 10
413.6576104253662
 20
-43.00006821062139
 30
0.0
  0
POINT
  5
6BFE
330
6667
100
AcDbEntity
  8
DEFPOINTS
  6
CONTINUOUS
 62
     0
100
AcDbPoint
 10
413.6576104253662
 20
-94.48967963641948
 30
0.0
  0
ENDBLK
  5
6672
330
6667
100
AcDbEntity
  8
0
100
AcDbBlockEnd
  0
BLOCK
  5
667D
330
6673
100
AcDbEntity
  8
0
100
AcDbBlockBegin
  2
*D13
 70
     1
 10
0.0
 20
0.0
 30
0.0
  3
*D13
  1

  0
LINE
  5
6C11
330
6673
100
AcDbEntity
  8
30
  6
CONTINUOUS
 62
     0
100
AcDbLine
 10
353.6576699648303
 20
-37.8999871869765
 30
0.0
 11
353.6576699648303
 21
-81.54381222223889
 31
0.0
  0
LINE
  5
6C12
330
6673
100
AcDbEntity
  8
30
  6
CONTINUOUS
 62
     0
100
AcDbLine
 10
413.6576104246935
 20
-44.00006821062139
 30
0.0
 11
413.6576104246935
 21
-81.54381222223889
 31
0.0
  0
LINE
  5
6C13
330
6673
100
AcDbEntity
  8
30
  6
CONTINUOUS
 62
     0
100
AcDbLine
 10
355.6576699648303
 20
-81.0438122222389
 30
0.0
 11
411.6576104246935
 21
-81.0438122222389
 31
0.0
  0
INSERT
  5
6C14
330
6673
100
AcDbEntity
  8
30
  6
CONTINUOUS
 62
     0
100
AcDbBlockReference
  2
_OPEN
 10
353.6576699648303
 20
-81.0438122222389
 30
0.0
 41
2.0
 42
2.0
 43
2.0
 50
180.0
  0
INSERT
  5
6C15
330
6673
100
AcDbEntity
  8
30
  6
CONTINUOUS
 62
     0
100
AcDbBlockReference
  2
_OPEN
 10
413.6576104246935
 20
-81.0438122222389
 30
0.0
 41
2.0
 42
2.0
 43
2.0
  0
MTEXT
  5
6C16
330
6673
100
AcDbEntity
  8
30
  6
CONTINUOUS
 62
     0
100
AcDbMText
 10
383.6576401947618
 20
-78.0438122222389
 30
0.0
 40
4.0
 41
0.0
 71
     5
 72
     1
  1
\A1;60
1001
ACAD
1000
MTEXTBEGIN
1070
    73
1070
     1
1070
    44
1040
1.0
1070
    74
1070
     0
1000
MTEXTEND
  0
POINT
  5
6C17
330
6673
100
AcDbEntity
  8
DEFPOINTS
  6
CONTINUOUS
 62
     0
100
AcDbPoint
 10
353.6576699648303
 20
-36.8999871869765
 30
0.0
  0
POINT
  5
6C18
330
6673
100
AcDbEntity
  8
DEFPOINTS
  6
CONTINUOUS
 62
     0
100
AcDbPoint
 10
413.6576104246935
 20
-43.00006821062139
 30
0.0
  0
POINT
  5
6C19
330
6673
100
AcDbEntity
  8
DEFPOINTS
  6
CONTINUOUS
 62
     0
100
AcDbPoint
 10
413.6576104246935
 20
-81.0438122222389
 30
0.0
  0
ENDBLK
  5
667E
330
6673
100
AcDbEntity
  8
0
100
AcDbBlockEnd
  0
BLOCK
  5
6689
330
667F
100
AcDbEntity
  8
0
100
AcDbBlockBegin
  2
*D14
 70
     1
 10
0.0
 20
0.0
 30
0.0
  3
*D14
  1

  0
LINE
  5
6C08
330
667F
100
AcDbEntity
  8
30
  6
CONTINUOUS
 62
     0
100
AcDbLine
 10
362.6576396716062
 20
-50.74995546384642
 30
0.0
 11
362.6576396716062
 21
-67.8442501202217
 31
0.0
  0
LINE
  5
6C09
330
667F
100
AcDbEntity
  8
30
  6
CONTINUOUS
 62
     0
100
AcDbLine
 10
413.6576104253662
 20
-44.00006821062139
 30
0.0
 11
413.6576104253662
 21
-67.8442501202217
 31
0.0
  0
LINE
  5
6C0A
330
667F
100
AcDbEntity
  8
30
  6
CONTINUOUS
 62
     0
100
AcDbLine
 10
364.6576396716062
 20
-67.3442501202217
 30
0.0
 11
411.6576104253662
 21
-67.3442501202217
 31
0.0
  0
INSERT
  5
6C0B
330
667F
100
AcDbEntity
  8
30
  6
CONTINUOUS
 62
     0
100
AcDbBlockReference
  2
_OPEN
 10
362.6576396716062
 20
-67.3442501202217
 30
0.0
 41
2.0
 42
2.0
 43
2.0
 50
180.0
  0
INSERT
  5
6C0C
330
667F
100
AcDbEntity
  8
30
  6
CONTINUOUS
 62
     0
100
AcDbBlockReference
  2
_OPEN
 10
413.6576104253662
 20
-67.3442501202217
 30
0.0
 41
2.0
 42
2.0
 43
2.0
  0
MTEXT
  5
6C0D
330
667F
100
AcDbEntity
  8
30
  6
CONTINUOUS
 62
     0
100
AcDbMText
 10
388.1576250484862
 20
-64.3442501202217
 30
0.0
 40
4.0
 41
0.0
 71
     5
 72
     1
  1
\A1;51
1001
ACAD
1000
MTEXTBEGIN
1070
    73
1070
     1
1070
    44
1040
1.0
1070
    74
1070
     0
1000
MTEXTEND
  0
POINT
  5
6C0E
330
667F
100
AcDbEntity
  8
DEFPOINTS
  6
CONTINUOUS
 62
     0
100
AcDbPoint
 10
362.6576396716062
 20
-49.74995546384644
 30
0.0
  0
POINT
  5
6C0F
330
667F
100
AcDbEntity
  8
DEFPOINTS
  6
CONTINUOUS
 62
     0
100
AcDbPoint
 10
413.6576104253662
 20
-43.00006821062139
 30
0.0
  0
POINT
  5
6C10
330
667F
100
AcDbEntity
  8
DEFPOINTS
  6
CONTINUOUS
 62
     0
100
AcDbPoint
 10
413.6576104253662
 20
-67.3442501202217
 30
0.0
  0
ENDBLK
  5
668A
330
667F
100
AcDbEntity
  8
0
100
AcDbBlockEnd
  0
BLOCK
  5
6695
330
668B
100
AcDbEntity
  8
0
100
AcDbBlockBegin
  2
*D15
 70
     1
 10
0.0
 20
0.0
 30
0.0
  3
*D15
  1

  0
LINE
  5
6C40
330
668B
100
AcDbEntity
  8
30
  6
CONTINUOUS
 62
     0
100
AcDbLine
 10
370.6576104253662
 20
46.89992485029464
 30
0.0
 11
370.6576104253662
 21
59.26475053604848
 31
0.0
  0
LINE
  5
6C41
330
668B
100
AcDbEntity
  8
30
  6
CONTINUOUS
 62
     0
100
AcDbLine
 10
413.6576104253662
 20
44.00004684824351
 30
0.0
 11
413.6576104253662
 21
59.26475053604848
 31
0.0
  0
LINE
  5
6C42
330
668B
100
AcDbEntity
  8
30
  6
CONTINUOUS
 62
     0
100
AcDbLine
 10
372.6576104253662
 20
58.76475053604848
 30
0.0
 11
411.6576104253662
 21
58.76475053604848
 31
0.0
  0
INSERT
  5
6C43
330
668B
100
AcDbEntity
  8
30
  6
CONTINUOUS
 62
     0
100
AcDbBlockReference
  2
_OPEN
 10
370.6576104253662
 20
58.76475053604848
 30
0.0
 41
2.0
 42
2.0
 43
2.0
 50
180.0
  0
INSERT
  5
6C44
330
668B
100
AcDbEntity
  8
30
  6
CONTINUOUS
 62
     0
100
AcDbBlockReference
  2
_OPEN
 10
413.6576104253662
 20
58.76475053604848
 30
0.0
 41
2.0
 42
2.0
 43
2.0
  0
MTEXT
  5
6C45
330
668B
100
AcDbEntity
  8
30
  6
CONTINUOUS
 62
     0
100
AcDbMText
 10
392.1576104253663
 20
61.76475053604848
 30
0.0
 40
4.0
 41
0.0
 71
     5
 72
     1
  1
\A1;43
1001
ACAD
1000
MTEXTBEGIN
1070
    73
1070
     1
1070
    44
1040
1.0
1070
    74
1070
     0
1000
MTEXTEND
  0
POINT
  5
6C46
330
668B
100
AcDbEntity
  8
DEFPOINTS
  6
CONTINUOUS
 62
     0
100
AcDbPoint
 10
370.6576104253662
 20
45.89992485029465
 30
0.0
  0
POINT
  5
6C47
330
668B
100
AcDbEntity
  8
DEFPOINTS
  6
CONTINUOUS
 62
     0
100
AcDbPoint
 10
413.6576104253662
 20
43.0000468482435
 30
0.0
  0
POINT
  5
6C48
330
668B
100
AcDbEntity
  8
DEFPOINTS
  6
CONTINUOUS
 62
     0
100
AcDbPoint
 10
413.6576104253662
 20
58.76475053604848
 30
0.0
  0
ENDBLK
  5
6696
330
668B
100
AcDbEntity
  8
0
100
AcDbBlockEnd
  0
BLOCK
  5
66A1
330
6697
100
AcDbEntity
  8
0
100
AcDbBlockBegin
  2
*D16
 70
     1
 10
0.0
 20
0.0
 30
0.0
  3
*D16
  1

  0
LINE
  5
6C49
330
6697
100
AcDbEntity
  8
30
  6
CONTINUOUS
 62
     0
100
AcDbLine
 10
365.1576104253662
 20
100.7499859813524
 30
0.0
 11
365.1576104253662
 21
107.8837932594371
 31
0.0
  0
LINE
  5
6C4A
330
6697
100
AcDbEntity
  8
30
  6
CONTINUOUS
 62
     0
100
AcDbLine
 10
411.1576104253662
 20
100.7499859813524
 30
0.0
 11
411.1576104253662
 21
107.8837932594371
 31
0.0
  0
LINE
  5
6C4B
330
6697
100
AcDbEntity
  8
30
  6
CONTINUOUS
 62
     0
100
AcDbLine
 10
367.1576104253662
 20
107.383793259437
 30
0.0
 11
409.1576104253662
 21
107.383793259437
 31
0.0
  0
INSERT
  5
6C4C
330
6697
100
AcDbEntity
  8
30
  6
CONTINUOUS
 62
     0
100
AcDbBlockReference
  2
_OPEN
 10
365.1576104253662
 20
107.383793259437
 30
0.0
 41
2.0
 42
2.0
 43
2.0
 50
180.0
  0
INSERT
  5
6C4D
330
6697
100
AcDbEntity
  8
30
  6
CONTINUOUS
 62
     0
100
AcDbBlockReference
  2
_OPEN
 10
411.1576104253662
 20
107.383793259437
 30
0.0
 41
2.0
 42
2.0
 43
2.0
  0
MTEXT
  5
6C4E
330
6697
100
AcDbEntity
  8
30
  6
CONTINUOUS
 62
     0
100
AcDbMText
 10
388.1576104253662
 20
110.3837932594371
 30
0.0
 40
4.0
 41
0.0
 71
     5
 72
     1
  1
\A1;46
1001
ACAD
1000
MTEXTBEGIN
1070
    73
1070
     1
1070
    44
1040
1.0
1070
    74
1070
     0
1000
MTEXTEND
  0
POINT
  5
6C4F
330
6697
100
AcDbEntity
  8
DEFPOINTS
  6
CONTINUOUS
 62
     0
100
AcDbPoint
 10
365.1576104253662
 20
99.74998598135259
 30
0.0
  0
POINT
  5
6C50
330
6697
100
AcDbEntity
  8
DEFPOINTS
  6
CONTINUOUS
 62
     0
100
AcDbPoint
 10
411.1576104253662
 20
99.74998598135259
 30
0.0
  0
POINT
  5
6C51
330
6697
100
AcDbEntity
  8
DEFPOINTS
  6
CONTINUOUS
 62
     0
100
AcDbPoint
 10
411.1576104253662
 20
107.383793259437
 30
0.0
  0
ENDBLK
  5
66A2
330
6697
100
AcDbEntity
  8
0
100
AcDbBlockEnd
  0
BLOCK
  5
66AF
330
66A3
100
AcDbEntity
  8
0
100
AcDbBlockBegin
  2
*D17
 70
     1
 10
0.0
 20
0.0
 30
0.0
  3
*D17
  1

  0
LINE
  5
6C23
330
66A3
100
AcDbEntity
  8
30
  6
CONTINUOUS
 62
     0
100
AcDbLine
 10
345.6577003536953
 20
-25.49995483440942
 30
0.0
 11
345.6577003536953
 21
-62.26666417942642
 31
0.0
  0
LINE
  5
6C24
330
66A3
100
AcDbEntity
  8
30
  6
CONTINUOUS
 62
     0
100
AcDbLine
 10
341.6577003954043
 20
-25.4999548344084
 30
0.0
 11
341.6577003954043
 21
-62.26666417942642
 31
0.0
  0
LINE
  5
6C25
330
66A3
100
AcDbEntity
  8
30
  6
CONTINUOUS
 62
     0
100
AcDbLine
 10
347.6577003536953
 20
-61.76666417942642
 30
0.0
 11
349.6577003536953
 21
-61.76666417942642
 31
0.0
  0
LINE
  5
6C26
330
66A3
100
AcDbEntity
  8
30
  6
CONTINUOUS
 62
     0
100
AcDbLine
 10
339.6577003954043
 20
-61.76666417942642
 30
0.0
 11
332.9910337287376
 21
-61.76666417942642
 31
0.0
  0
INSERT
  5
6C27
330
66A3
100
AcDbEntity
  8
30
  6
CONTINUOUS
 62
     0
100
AcDbBlockReference
  2
_OPEN
 10
345.6577003536953
 20
-61.76666417942642
 30
0.0
 41
2.0
 42
2.0
 43
2.0
 50
180.0
  0
INSERT
  5
6C28
330
66A3
100
AcDbEntity
  8
30
  6
CONTINUOUS
 62
     0
100
AcDbBlockReference
  2
_OPEN
 10
341.6577003954043
 20
-61.76666417942642
 30
0.0
 41
2.0
 42
2.0
 43
2.0
  0
MTEXT
  5
6C29
330
66A3
100
AcDbEntity
  8
30
  6
CONTINUOUS
 62
     0
100
AcDbMText
 10
335.324367062071
 20
-58.76666417942642
 30
0.0
 40
4.0
 41
0.0
 71
     5
 72
     1
  1
\A1;4
1001
ACAD
1000
MTEXTBEGIN
1070
    73
1070
     1
1070
    44
1040
1.0
1070
    74
1070
     0
1000
MTEXTEND
  0
POINT
  5
6C2A
330
66A3
100
AcDbEntity
  8
DEFPOINTS
  6
CONTINUOUS
 62
     0
100
AcDbPoint
 10
345.6577003536953
 20
-24.49995483440942
 30
0.0
  0
POINT
  5
6C2B
330
66A3
100
AcDbEntity
  8
DEFPOINTS
  6
CONTINUOUS
 62
     0
100
AcDbPoint
 10
341.6577003954043
 20
-24.4999548344084
 30
0.0
  0
POINT
  5
6C2C
330
66A3
100
AcDbEntity
  8
DEFPOINTS
  6
CONTINUOUS
 62
     0
100
AcDbPoint
 10
341.6577003954043
 20
-61.76666417942642
 30
0.0
  0
ENDBLK
  5
66B0
330
66A3
100
AcDbEntity
  8
0
100
AcDbBlockEnd
  0
BLOCK
  5
66BD
330
66B1
100
AcDbEntity
  8
0
100
AcDbBlockBegin
  2
*D18
 70
     1
 10
0.0
 20
0.0
 30
0.0
  3
*D18
  1

  0
LINE
  5
6C1A
330
66B1
100
AcDbEntity
  8
30
  6
CONTINUOUS
 62
     0
100
AcDbLine
 10
345.6577003536953
 20
-25.4999548344104
 30
0.0
 11
345.6577003536953
 21
-81.54381222223889
 31
0.0
  0
LINE
  5
6C1B
330
66B1
100
AcDbEntity
  8
30
  6
CONTINUOUS
 62
     0
100
AcDbLine
 10
353.6576699648303
 20
-37.8999871869765
 30
0.0
 11
353.6576699648303
 21
-81.54381222223889
 31
0.0
  0
LINE
  5
6C1C
330
66B1
100
AcDbEntity
  8
30
  6
CONTINUOUS
 62
     0
100
AcDbLine
 10
347.6577003536953
 20
-81.0438122222389
 30
0.0
 11
351.6576699648304
 21
-81.0438122222389
 31
0.0
  0
INSERT
  5
6C1D
330
66B1
100
AcDbEntity
  8
30
  6
CONTINUOUS
 62
     0
100
AcDbBlockReference
  2
_OPEN
 10
345.6577003536953
 20
-81.0438122222389
 30
0.0
 41
2.0
 42
2.0
 43
2.0
 50
180.0
  0
INSERT
  5
6C1E
330
66B1
100
AcDbEntity
  8
30
  6
CONTINUOUS
 62
     0
100
AcDbBlockReference
  2
_OPEN
 10
353.6576699648303
 20
-81.0438122222389
 30
0.0
 41
2.0
 42
2.0
 43
2.0
  0
MTEXT
  5
6C1F
330
66B1
100
AcDbEntity
  8
30
  6
CONTINUOUS
 62
     0
100
AcDbMText
 10
349.6576851592628
 20
-78.0438122222389
 30
0.0
 40
4.0
 41
0.0
 71
     5
 72
     1
  1
\A1;8
1001
ACAD
1000
MTEXTBEGIN
1070
    73
1070
     1
1070
    44
1040
1.0
1070
    74
1070
     0
1000
MTEXTEND
  0
POINT
  5
6C20
330
66B1
100
AcDbEntity
  8
DEFPOINTS
  6
CONTINUOUS
 62
     0
100
AcDbPoint
 10
345.6577003536953
 20
-24.49995483441041
 30
0.0
  0
POINT
  5
6C21
330
66B1
100
AcDbEntity
  8
DEFPOINTS
  6
CONTINUOUS
 62
     0
100
AcDbPoint
 10
353.6576699648303
 20
-36.8999871869765
 30
0.0
  0
POINT
  5
6C22
330
66B1
100
AcDbEntity
  8
DEFPOINTS
  6
CONTINUOUS
 62
     0
100
AcDbPoint
 10
353.6576699648303
 20
-81.0438122222389
 30
0.0
  0
ENDBLK
  5
66BE
330
66B1
100
AcDbEntity
  8
0
100
AcDbBlockEnd
  0
BLOCK
  5
66CB
330
66BF
100
AcDbEntity
  8
0
100
AcDbBlockBegin
  2
*D19
 70
     1
 10
0.0
 20
0.0
 30
0.0
  3
*D19
  1

  0
LINE
  5
6C36
330
66BF
100
AcDbEntity
  8
30
  6
CONTINUOUS
 62
     0
100
AcDbLine
 10
411.1576104253662
 20
100.7499859813524
 30
0.0
 11
411.1576104253662
 21
107.8837932594371
 31
0.0
  0
LINE
  5
6C37
330
66BF
100
AcDbEntity
  8
30
  6
CONTINUOUS
 62
     0
100
AcDbLine
 10
413.6576104253662
 20
44.00004684824351
 30
0.0
 11
413.6576104253662
 21
107.8837932594371
 31
0.0
  0
LINE
  5
6C38
330
66BF
100
AcDbEntity
  8
30
  6
CONTINUOUS
 62
     0
100
AcDbLine
 10
409.1576104253662
 20
107.383793259437
 30
0.0
 11
407.1576104253662
 21
107.383793259437
 31
0.0
  0
LINE
  5
6C39
330
66BF
100
AcDbEntity
  8
30
  6
CONTINUOUS
 62
     0
100
AcDbLine
 10
415.6576104253662
 20
107.383793259437
 30
0.0
 11
427.6576104253662
 21
107.383793259437
 31
0.0
  0
INSERT
  5
6C3A
330
66BF
100
AcDbEntity
  8
30
  6
CONTINUOUS
 62
     0
100
AcDbBlockReference
  2
_OPEN
 10
411.1576104253662
 20
107.383793259437
 30
0.0
 41
2.0
 42
2.0
 43
2.0
  0
INSERT
  5
6C3B
330
66BF
100
AcDbEntity
  8
30
  6
CONTINUOUS
 62
     0
100
AcDbBlockReference
  2
_OPEN
 10
413.6576104253662
 20
107.383793259437
 30
0.0
 41
2.0
 42
2.0
 43
2.0
 50
180.0
  0
MTEXT
  5
6C3C
330
66BF
100
AcDbEntity
  8
30
  6
CONTINUOUS
 62
     0
100
AcDbMText
 10
422.6576104253663
 20
110.3837932594371
 30
0.0
 40
4.0
 41
0.0
 71
     5
 72
     1
  1
\A1;2.5
1001
ACAD
1000
MTEXTBEGIN
1070
    73
1070
     1
1070
    44
1040
1.0
1070
    74
1070
     0
1000
MTEXTEND
  0
POINT
  5
6C3D
330
66BF
100
AcDbEntity
  8
DEFPOINTS
  6
CONTINUOUS
 62
     0
100
AcDbPoint
 10
411.1576104253662
 20
99.74998598135259
 30
0.0
  0
POINT
  5
6C3E
330
66BF
100
AcDbEntity
  8
DEFPOINTS
  6
CONTINUOUS
 62
     0
100
AcDbPoint
 10
413.6576104253662
 20
43.0000468482435
 30
0.0
  0
POINT
  5
6C3F
330
66BF
100
AcDbEntity
  8
DEFPOINTS
  6
CONTINUOUS
 62
     0
100
AcDbPoint
 10
413.6576104253662
 20
107.383793259437
 30
0.0
  0
ENDBLK
  5
66CC
330
66BF
100
AcDbEntity
  8
0
100
AcDbBlockEnd
  0
BLOCK
  5
6759
330
674F
100
AcDbEntity
  8
0
100
AcDbBlockBegin
  2
*D20
 70
     1
 10
0.0
 20
0.0
 30
0.0
  3
*D20
  1

  0
LINE
  5
6BA8
330
674F
100
AcDbEntity
  8
30
  6
CONTINUOUS
 62
     0
100
AcDbLine
 10
-240.5929582132505
 20
-208.8473930239059
 30
0.0
 11
-201.9642360890935
 21
-208.8473930239059
 31
0.0
  0
LINE
  5
6BA9
330
674F
100
AcDbEntity
  8
30
  6
CONTINUOUS
 62
     0
100
AcDbLine
 10
-240.0148662602024
 20
-292.8473950181631
 30
0.0
 11
-201.9642360890935
 21
-292.8473950181631
 31
0.0
  0
LINE
  5
6BAA
330
674F
100
AcDbEntity
  8
30
  6
CONTINUOUS
 62
     0
100
AcDbLine
 10
-202.4642360890937
 20
-210.8473930239059
 30
0.0
 11
-202.4642360890937
 21
-290.8473950181631
 31
0.0
  0
INSERT
  5
6BAB
330
674F
100
AcDbEntity
  8
30
  6
CONTINUOUS
 62
     0
100
AcDbBlockReference
  2
_OPEN
 10
-202.4642360890937
 20
-208.8473930239059
 30
0.0
 41
2.0
 42
2.0
 43
2.0
 50
90.0
  0
INSERT
  5
6BAC
330
674F
100
AcDbEntity
  8
30
  6
CONTINUOUS
 62
     0
100
AcDbBlockReference
  2
_OPEN
 10
-202.4642360890937
 20
-292.8473950181631
 30
0.0
 41
2.0
 42
2.0
 43
2.0
 50
270.0
  0
MTEXT
  5
6BAD
330
674F
100
AcDbEntity
  8
30
  6
CONTINUOUS
 62
     0
100
AcDbMText
 10
-205.4642360890936
 20
-250.8473940210345
 30
0.0
 40
4.0
 41
0.0
 71
     5
 72
     1
  1
\A1;84
 11
0.0000000000000001
 21
1.0
 31
0.0
1001
ACAD
1000
MTEXTBEGIN
1070
    73
1070
     1
1070
    44
1040
1.0
1070
    74
1070
     0
1000
MTEXTEND
  0
POINT
  5
6BAE
330
674F
100
AcDbEntity
  8
DEFPOINTS
  6
CONTINUOUS
 62
     0
100
AcDbPoint
 10
-241.5929582132505
 20
-208.8473930239059
 30
0.0
  0
POINT
  5
6BAF
330
674F
100
AcDbEntity
  8
DEFPOINTS
  6
CONTINUOUS
 62
     0
100
AcDbPoint
 10
-241.0148662602024
 20
-292.8473950181631
 30
0.0
  0
POINT
  5
6BB0
330
674F
100
AcDbEntity
  8
DEFPOINTS
  6
CONTINUOUS
 62
     0
100
AcDbPoint
 10
-202.4642360890937
 20
-292.8473950181631
 30
0.0
  0
ENDBLK
  5
675A
330
674F
100
AcDbEntity
  8
0
100
AcDbBlockEnd
  0
BLOCK
  5
67B2
330
67AB
100
AcDbEntity
  8
0
100
AcDbBlockBegin
  2
*D21
 70
     1
 10
0.0
 20
0.0
 30
0.0
  3
*D21
  1

  0
LINE
  5
6BF0
330
67AB
100
AcDbEntity
  8
11
 62
     0
100
AcDbLine
 10
332.2847949337774
 20
-240.098980175451
 30
0.0
 11
319.3597570338165
 21
-228.7937940512336
 31
0.0
  0
MTEXT
  5
6BF1
330
67AB
100
AcDbEntity
  8
11
 62
     0
100
AcDbMText
 10
330.6529646243078
 20
-233.357449121439
 30
0.0
 40
5.0
 41
0.0
 71
     5
 72
     1
  1
\A1;R2
 11
0.7526985305482265
 21
-0.6583653409092408
 31
0.0
1001
ACAD
1000
MTEXTBEGIN
1070
    73
1070
     1
1070
    44
1040
1.0
1070
    74
1070
     0
1000
MTEXTEND
  0
LINE
  5
6BF2
330
67AB
100
AcDbEntity
  8
11
 62
     0
100
AcDbLine
 10
314.0996155181561
 20
-224.1928884806245
 30
0.0
 11
315.5962643810753
 21
-225.5019673466875
 31
0.0
  0
INSERT
  5
6BF3
330
67AB
100
AcDbEntity
  8
11
 62
     0
100
AcDbBlockReference
  2
_OPEN30
 10
315.5962643810753
 20
-225.5019673466875
 30
0.0
 41
5.0
 42
5.0
 43
5.0
 50
138.8246767612145
  0
POINT
  5
6BF4
330
67AB
100
AcDbEntity
  8
DEFPOINTS
 62
     0
100
AcDbPoint
 10
315.5962643810753
 20
-225.5019673466875
 30
0.0
  0
POINT
  5
6BF5
330
67AB
100
AcDbEntity
  8
DEFPOINTS
 62
     0
100
AcDbPoint
 10
314.0996155181561
 20
-224.1928884806245
 30
0.0
  0
ENDBLK
  5
67B3
330
67AB
100
AcDbEntity
  8
0
100
AcDbBlockEnd
  0
BLOCK
  5
67BE
330
67B4
100
AcDbEntity
  8
0
100
AcDbBlockBegin
  2
*D22
 70
     1
 10
0.0
 20
0.0
 30
0.0
  3
*D22
  1

  0
LINE
  5
6BE7
330
67B4
100
AcDbEntity
  8
30
  6
CONTINUOUS
 62
     0
100
AcDbLine
 10
315.17508147141
 20
-275.8473946193118
 30
0.0
 11
315.17508147141
 21
-320.8215689840651
 31
0.0
  0
LINE
  5
6BE8
330
67B4
100
AcDbEntity
  8
30
  6
CONTINUOUS
 62
     0
100
AcDbLine
 10
360.1750831665272
 20
-275.8473946193118
 30
0.0
 11
360.1750831665272
 21
-320.8215689840651
 31
0.0
  0
LINE
  5
6BE9
330
67B4
100
AcDbEntity
  8
30
  6
CONTINUOUS
 62
     0
100
AcDbLine
 10
317.17508147141
 20
-320.3215689840651
 30
0.0
 11
358.1750831665272
 21
-320.3215689840651
 31
0.0
  0
INSERT
  5
6BEA
330
67B4
100
AcDbEntity
  8
30
  6
CONTINUOUS
 62
     0
100
AcDbBlockReference
  2
_OPEN
 10
315.17508147141
 20
-320.3215689840651
 30
0.0
 41
2.0
 42
2.0
 43
2.0
 50
180.0
  0
INSERT
  5
6BEB
330
67B4
100
AcDbEntity
  8
30
  6
CONTINUOUS
 62
     0
100
AcDbBlockReference
  2
_OPEN
 10
360.1750831665272
 20
-320.3215689840651
 30
0.0
 41
2.0
 42
2.0
 43
2.0
  0
MTEXT
  5
6BEC
330
67B4
100
AcDbEntity
  8
30
  6
CONTINUOUS
 62
     0
100
AcDbMText
 10
337.6750823189686
 20
-317.3215689840651
 30
0.0
 40
4.0
 41
0.0
 71
     5
 72
     1
  1
\A1;50
1001
ACAD
1000
MTEXTBEGIN
1070
    73
1070
     1
1070
    44
1040
1.0
1070
    74
1070
     0
1000
MTEXTEND
  0
POINT
  5
6BED
330
67B4
100
AcDbEntity
  8
DEFPOINTS
  6
CONTINUOUS
 62
     0
100
AcDbPoint
 10
315.17508147141
 20
-274.8473946193118
 30
0.0
  0
POINT
  5
6BEE
330
67B4
100
AcDbEntity
  8
DEFPOINTS
  6
CONTINUOUS
 62
     0
100
AcDbPoint
 10
360.1750831665272
 20
-274.8473946193118
 30
0.0
  0
POINT
  5
6BEF
330
67B4
100
AcDbEntity
  8
DEFPOINTS
  6
CONTINUOUS
 62
     0
100
AcDbPoint
 10
360.1750831665272
 20
-320.3215689840651
 30
0.0
  0
ENDBLK
  5
67BF
330
67B4
100
AcDbEntity
  8
0
100
AcDbBlockEnd
  0
BLOCK
  5
67CA
330
67C0
100
AcDbEntity
  8
0
100
AcDbBlockBegin
  2
*D23
 70
     1
 10
0.0
 20
0.0
 30
0.0
  3
*D23
  1

  0
LINE
  5
6BFF
330
67C0
100
AcDbEntity
  8
30
  6
CONTINUOUS
 62
     0
100
AcDbLine
 10
359.1750831166708
 20
-224.8473933729012
 30
0.0
 11
385.5481778301649
 21
-224.8473933729012
 31
0.0
  0
LINE
  5
6C00
330
67C0
100
AcDbEntity
  8
30
  6
CONTINUOUS
 62
     0
100
AcDbLine
 10
359.1750831166708
 20
-276.8473946691681
 30
0.0
 11
385.5481778301649
 21
-276.8473946691683
 31
0.0
  0
LINE
  5
6C01
330
67C0
100
AcDbEntity
  8
30
  6
CONTINUOUS
 62
     0
100
AcDbLine
 10
385.048177830165
 20
-226.8473933729012
 30
0.0
 11
385.048177830165
 21
-274.8473946691681
 31
0.0
  0
INSERT
  5
6C02
330
67C0
100
AcDbEntity
  8
30
  6
CONTINUOUS
 62
     0
100
AcDbBlockReference
  2
_OPEN
 10
385.048177830165
 20
-224.8473933729012
 30
0.0
 41
2.0
 42
2.0
 43
2.0
 50
90.0
  0
INSERT
  5
6C03
330
67C0
100
AcDbEntity
  8
30
  6
CONTINUOUS
 62
     0
100
AcDbBlockReference
  2
_OPEN
 10
385.048177830165
 20
-276.8473946691683
 30
0.0
 41
2.0
 42
2.0
 43
2.0
 50
270.0
  0
MTEXT
  5
6C04
330
67C0
100
AcDbEntity
  8
30
  6
CONTINUOUS
 62
     0
100
AcDbMText
 10
382.0481778301651
 20
-250.8473940210345
 30
0.0
 40
4.0
 41
0.0
 71
     5
 72
     1
  1
\A1;52
 11
0.0000000000000001
 21
1.0
 31
0.0
1001
ACAD
1000
MTEXTBEGIN
1070
    73
1070
     1
1070
    44
1040
1.0
1070
    74
1070
     0
1000
MTEXTEND
  0
POINT
  5
6C05
330
67C0
100
AcDbEntity
  8
DEFPOINTS
  6
CONTINUOUS
 62
     0
100
AcDbPoint
 10
358.1750831166708
 20
-224.8473933729012
 30
0.0
  0
POINT
  5
6C06
330
67C0
100
AcDbEntity
  8
DEFPOINTS
  6
CONTINUOUS
 62
     0
100
AcDbPoint
 10
358.1750831166708
 20
-276.8473946691681
 30
0.0
  0
POINT
  5
6C07
330
67C0
100
AcDbEntity
  8
DEFPOINTS
  6
CONTINUOUS
 62
     0
100
AcDbPoint
 10
385.048177830165
 20
-276.8473946691683
 30
0.0
  0
ENDBLK
  5
67CB
330
67C0
100
AcDbEntity
  8
0
100
AcDbBlockEnd
  0
BLOCK
  5
6A69
330
6A60
100
AcDbEntity
  8
0
100
AcDbBlockBegin
  2
*D24
 70
     1
 10
0.0
 20
0.0
 30
0.0
  3
*D24
  1

  0
LINE
  5
740E
330
6A60
100
AcDbEntity
  8
0
  6
CONTINUOUS
 62
     0
100
AcDbLine
 10
517.7091919256711
 20
28.96868912258861
 30
0.0
 11
510.0425252590039
 21
28.96868912258858
 31
0.0
  0
LINE
  5
740F
330
6A60
100
AcDbEntity
  8
0
  6
CONTINUOUS
 62
     0
100
AcDbLine
 10
510.0425252590039
 20
28.96868912258858
 30
0.0
 11
491.1321449367505
 21
19.13864155679718
 31
0.0
  0
MTEXT
  5
7410
330
6A60
100
AcDbEntity
  8
0
  6
CONTINUOUS
 62
     0
100
AcDbMText
 10
514.3758585923377
 20
31.96868912258855
 30
0.0
 40
4.0
 41
0.0
 71
     5
 72
     1
  1
\A1;%%C9
1001
ACAD
1000
MTEXTBEGIN
1070
    73
1070
     1
1070
    44
1040
1.0
1070
    74
1070
     0
1000
MTEXTEND
  0
INSERT
  5
7411
330
6A60
100
AcDbEntity
  8
0
  6
CONTINUOUS
 62
     0
100
AcDbBlockReference
  2
_OPEN
 10
489.3575826674632
 20
18.21618356186069
 30
0.0
 41
2.0
 42
2.0
 43
2.0
 50
207.4664409352069
  0
LINE
  5
7412
330
6A60
100
AcDbEntity
  8
0
  6
CONTINUOUS
 62
     0
100
AcDbLine
 10
485.2748175615671
 20
16.1406530732536
 30
0.0
 11
485.4548175615669
 21
16.14065307325364
 31
0.0
  0
LINE
  5
7413
330
6A60
100
AcDbEntity
  8
0
  6
CONTINUOUS
 62
     0
100
AcDbLine
 10
485.3648175615671
 20
16.05065307325361
 30
0.0
 11
485.3648175615671
 21
16.23065307325364
 31
0.0
  0
POINT
  5
7414
330
6A60
100
AcDbEntity
  8
DEFPOINTS
  6
CONTINUOUS
 62
     0
100
AcDbPoint
 10
489.3575826674632
 20
18.21618356186069
 30
0.0
  0
POINT
  5
7415
330
6A60
100
AcDbEntity
  8
DEFPOINTS
  6
CONTINUOUS
 62
     0
100
AcDbPoint
 10
481.3720524556707
 20
14.0651225846466
 30
0.0
  0
ENDBLK
  5
6A6A
330
6A60
100
AcDbEntity
  8
0
100
AcDbBlockEnd
  0
BLOCK
  5
6A77
330
6A6B
100
AcDbEntity
  8
0
100
AcDbBlockBegin
  2
*D25
 70
     1
 10
0.0
 20
0.0
 30
0.0
  3
*D25
  1

  0
LINE
  5
7416
330
6A6B
100
AcDbEntity
  8
0
  6
CONTINUOUS
 62
     0
100
AcDbLine
 10
478.3648174119981
 20
7.640652923684451
 30
0.0
 11
478.3648174119981
 21
-4.830798457326189
 31
0.0
  0
LINE
  5
7417
330
6A6B
100
AcDbEntity
  8
0
  6
CONTINUOUS
 62
     0
100
AcDbLine
 10
485.3648175615668
 20
6.320455049695559
 30
0.0
 11
485.3648175615668
 21
-4.830798457326189
 31
0.0
  0
LINE
  5
7418
330
6A6B
100
AcDbEntity
  8
0
  6
CONTINUOUS
 62
     0
100
AcDbLine
 10
480.3648174119979
 20
-4.330798457326189
 30
0.0
 11
483.3648175615668
 21
-4.330798457326189
 31
0.0
  0
INSERT
  5
7419
330
6A6B
100
AcDbEntity
  8
0
  6
CONTINUOUS
 62
     0
100
AcDbBlockReference
  2
_OPEN
 10
478.3648174119981
 20
-4.330798457326189
 30
0.0
 41
2.0
 42
2.0
 43
2.0
 50
180.0
  0
INSERT
  5
741A
330
6A6B
100
AcDbEntity
  8
0
  6
CONTINUOUS
 62
     0
100
AcDbBlockReference
  2
_OPEN
 10
485.3648175615668
 20
-4.330798457326189
 30
0.0
 41
2.0
 42
2.0
 43
2.0
  0
MTEXT
  5
741B
330
6A6B
100
AcDbEntity
  8
0
  6
CONTINUOUS
 62
     0
100
AcDbMText
 10
481.8648174867823
 20
-1.330798457326189
 30
0.0
 40
4.0
 41
0.0
 71
     5
 72
     1
  1
\A1;7
1001
ACAD
1000
MTEXTBEGIN
1070
    73
1070
     1
1070
    44
1040
1.0
1070
    74
1070
     0
1000
MTEXTEND
  0
POINT
  5
741C
330
6A6B
100
AcDbEntity
  8
DEFPOINTS
  6
CONTINUOUS
 62
     0
100
AcDbPoint
 10
478.3648174119981
 20
8.64065292368445
 30
0.0
  0
POINT
  5
741D
330
6A6B
100
AcDbEntity
  8
DEFPOINTS
  6
CONTINUOUS
 62
     0
100
AcDbPoint
 10
485.3648175615668
 20
7.320455049695559
 30
0.0
  0
POINT
  5
741E
330
6A6B
100
AcDbEntity
  8
DEFPOINTS
  6
CONTINUOUS
 62
     0
100
AcDbPoint
 10
485.3648175615668
 20
-4.330798457326189
 30
0.0
  0
ENDBLK
  5
6A78
330
6A6B
100
AcDbEntity
  8
0
100
AcDbBlockEnd
  0
BLOCK
  5
6A83
330
6A79
100
AcDbEntity
  8
0
100
AcDbBlockBegin
  2
*D26
 70
     1
 10
0.0
 20
0.0
 30
0.0
  3
*D26
  1

  0
LINE
  5
741F
330
6A79
100
AcDbEntity
  8
0
  6
CONTINUOUS
 62
     0
100
AcDbLine
 10
477.364817411998
 20
23.64065322282294
 30
0.0
 11
458.2236072944076
 21
23.64065322282294
 31
0.0
  0
LINE
  5
7420
330
6A79
100
AcDbEntity
  8
0
  6
CONTINUOUS
 62
     0
100
AcDbLine
 10
477.364817411998
 20
8.64065292368445
 30
0.0
 11
458.2236072944076
 21
8.640652923684458
 31
0.0
  0
LINE
  5
7421
330
6A79
100
AcDbEntity
  8
0
  6
CONTINUOUS
 62
     0
100
AcDbLine
 10
458.7236072944078
 20
21.64065322282294
 30
0.0
 11
458.7236072944078
 21
10.64065292368445
 31
0.0
  0
INSERT
  5
7422
330
6A79
100
AcDbEntity
  8
0
  6
CONTINUOUS
 62
     0
100
AcDbBlockReference
  2
_OPEN
 10
458.7236072944078
 20
23.64065322282294
 30
0.0
 41
2.0
 42
2.0
 43
2.0
 50
90.0
  0
INSERT
  5
7423
330
6A79
100
AcDbEntity
  8
0
  6
CONTINUOUS
 62
     0
100
AcDbBlockReference
  2
_OPEN
 10
458.7236072944078
 20
8.640652923684458
 30
0.0
 41
2.0
 42
2.0
 43
2.0
 50
270.0
  0
MTEXT
  5
7424
330
6A79
100
AcDbEntity
  8
0
  6
CONTINUOUS
 62
     0
100
AcDbMText
 10
455.7236072944077
 20
16.14065307325378
 30
0.0
 40
4.0
 41
0.0
 71
     5
 72
     1
  1
\A1;Max.15
 11
0.0000000000000001
 21
1.0
 31
0.0
1001
ACAD
1000
MTEXTBEGIN
1070
    73
1070
     1
1070
    44
1040
1.0
1070
    74
1070
     0
1000
MTEXTEND
  0
POINT
  5
7425
330
6A79
100
AcDbEntity
  8
DEFPOINTS
  6
CONTINUOUS
 62
     0
100
AcDbPoint
 10
478.3648174119981
 20
23.64065322282294
 30
0.0
  0
POINT
  5
7426
330
6A79
100
AcDbEntity
  8
DEFPOINTS
  6
CONTINUOUS
 62
     0
100
AcDbPoint
 10
478.3648174119981
 20
8.64065292368445
 30
0.0
  0
POINT
  5
7427
330
6A79
100
AcDbEntity
  8
DEFPOINTS
  6
CONTINUOUS
 62
     0
100
AcDbPoint
 10
458.7236072944078
 20
8.640652923684458
 30
0.0
  0
ENDBLK
  5
6A84
330
6A79
100
AcDbEntity
  8
0
100
AcDbBlockEnd
  0
BLOCK
  5
6C6D
330
6C63
100
AcDbEntity
  8
0
100
AcDbBlockBegin
  2
*D27
 70
     1
 10
0.0
 20
0.0
 30
0.0
  3
*D27
  1

  0
LINE
  5
6C64
330
6C63
100
AcDbEntity
  8
0
 62
     0
100
AcDbLine
 10
75.64118738792746
 20
387.6757879464797
 30
0.0
 11
75.64118738792746
 21
366.7037047452176
 31
0.0
  0
LINE
  5
6C65
330
6C63
100
AcDbEntity
  8
0
 62
     0
100
AcDbLine
 10
168.6411873879274
 20
387.6757879464797
 30
0.0
 11
168.6411873879274
 21
366.7037047452176
 31
0.0
  0
LINE
  5
6C66
330
6C63
100
AcDbEntity
  8
0
 62
     0
100
AcDbLine
 10
79.64118738792746
 20
367.7037047452177
 30
0.0
 11
164.6411873879274
 21
367.7037047452177
 31
0.0
  0
INSERT
  5
6C67
330
6C63
100
AcDbEntity
  8
0
 62
     0
100
AcDbBlockReference
  2
_OPEN
 10
75.64118738792746
 20
367.7037047452177
 30
0.0
 41
4.0
 42
4.0
 43
4.0
 50
180.0
  0
INSERT
  5
6C68
330
6C63
100
AcDbEntity
  8
0
 62
     0
100
AcDbBlockReference
  2
_OPEN
 10
168.6411873879274
 20
367.7037047452177
 30
0.0
 41
4.0
 42
4.0
 43
4.0
  0
MTEXT
  5
6C69
330
6C63
100
AcDbEntity
  8
0
 62
     0
100
AcDbMText
 10
122.1411873879274
 20
371.7037047452175
 30
0.0
 40
5.0
 41
0.0
 71
     5
 72
     1
  1
\A1;93
1001
ACAD
1000
MTEXTBEGIN
1070
    73
1070
     1
1070
    44
1040
1.0
1070
    74
1070
     0
1000
MTEXTEND
  0
POINT
  5
6C6A
330
6C63
100
AcDbEntity
  8
DEFPOINTS
 62
     0
100
AcDbPoint
 10
75.64118738792746
 20
388.6757879464799
 30
0.0
  0
POINT
  5
6C6B
330
6C63
100
AcDbEntity
  8
DEFPOINTS
 62
     0
100
AcDbPoint
 10
168.6411873879274
 20
388.6757879464799
 30
0.0
  0
POINT
  5
6C6C
330
6C63
100
AcDbEntity
  8
DEFPOINTS
 62
     0
100
AcDbPoint
 10
168.6411873879274
 20
367.7037047452177
 30
0.0
  0
ENDBLK
  5
6C6E
330
6C63
100
AcDbEntity
  8
0
100
AcDbBlockEnd
  0
BLOCK
  5
6C79
330
6C6F
100
AcDbEntity
  8
0
100
AcDbBlockBegin
  2
*D28
 70
     1
 10
0.0
 20
0.0
 30
0.0
  3
*D28
  1

  0
LINE
  5
6C70
330
6C6F
100
AcDbEntity
  8
0
 62
     0
100
AcDbLine
 10
167.6411873879274
 20
545.6757939464798
 30
0.0
 11
204.6890357934201
 21
545.6757939464798
 31
0.0
  0
LINE
  5
6C71
330
6C6F
100
AcDbEntity
  8
0
 62
     0
100
AcDbLine
 10
166.6411873879274
 20
385.6757879464797
 30
0.0
 11
204.6890357934201
 21
385.6757879464797
 31
0.0
  0
LINE
  5
6C72
330
6C6F
100
AcDbEntity
  8
0
 62
     0
100
AcDbLine
 10
203.6890357934201
 20
541.6757939464797
 30
0.0
 11
203.6890357934201
 21
389.6757879464797
 31
0.0
  0
INSERT
  5
6C73
330
6C6F
100
AcDbEntity
  8
0
 62
     0
100
AcDbBlockReference
  2
_OPEN
 10
203.6890357934201
 20
545.6757939464798
 30
0.0
 41
4.0
 42
4.0
 43
4.0
 50
90.0
  0
INSERT
  5
6C74
330
6C6F
100
AcDbEntity
  8
0
 62
     0
100
AcDbBlockReference
  2
_OPEN
 10
203.6890357934201
 20
385.6757879464797
 30
0.0
 41
4.0
 42
4.0
 43
4.0
 50
270.0
  0
MTEXT
  5
6C75
330
6C6F
100
AcDbEntity
  8
0
 62
     0
100
AcDbMText
 10
199.6890357934201
 20
464.7406498678883
 30
0.0
 40
5.0
 41
0.0
 71
     5
 72
     1
  1
\A1;160
 11
0.0000000000000001
 21
1.0
 31
0.0
1001
ACAD
1000
MTEXTBEGIN
1070
    73
1070
     1
1070
    44
1040
1.0
1070
    74
1070
     0
1000
MTEXTEND
  0
POINT
  5
6C76
330
6C6F
100
AcDbEntity
  8
DEFPOINTS
 62
     0
100
AcDbPoint
 10
166.6411873879274
 20
545.6757939464798
 30
0.0
  0
POINT
  5
6C77
330
6C6F
100
AcDbEntity
  8
DEFPOINTS
 62
     0
100
AcDbPoint
 10
165.6411873879274
 20
385.6757879464797
 30
0.0
  0
POINT
  5
6C78
330
6C6F
100
AcDbEntity
  8
DEFPOINTS
 62
     0
100
AcDbPoint
 10
203.6890357934201
 20
385.6757879464797
 30
0.0
  0
ENDBLK
  5
6C7A
330
6C6F
100
AcDbEntity
  8
0
100
AcDbBlockEnd
  0
BLOCK
  5
6CEC
330
6CE2
100
AcDbEntity
  8
0
100
AcDbBlockBegin
  2
*D29
 70
     1
 10
0.0
 20
0.0
 30
0.0
  3
*D29
  1

  0
LINE
  5
7455
330
6CE2
100
AcDbEntity
  8
30
  6
CONTINUOUS
 62
     0
100
AcDbLine
 10
-46.49999999999994
 20
-78.00000300000021
 30
0.0
 11
-46.49999999999994
 21
-98.47208620126242
 31
0.0
  0
LINE
  5
7456
330
6CE2
100
AcDbEntity
  8
30
  6
CONTINUOUS
 62
     0
100
AcDbLine
 10
46.5
 20
-78.00000300000021
 30
0.0
 11
46.5
 21
-98.47208620126242
 31
0.0
  0
LINE
  5
7457
330
6CE2
100
AcDbEntity
  8
30
  6
CONTINUOUS
 62
     0
100
AcDbLine
 10
-44.49999999999993
 20
-97.97208620126241
 30
0.0
 11
44.5
 21
-97.97208620126241
 31
0.0
  0
INSERT
  5
7458
330
6CE2
100
AcDbEntity
  8
30
  6
CONTINUOUS
 62
     0
100
AcDbBlockReference
  2
_OPEN
 10
-46.49999999999994
 20
-97.97208620126241
 30
0.0
 41
2.0
 42
2.0
 43
2.0
 50
180.0
  0
INSERT
  5
7459
330
6CE2
100
AcDbEntity
  8
30
  6
CONTINUOUS
 62
     0
100
AcDbBlockReference
  2
_OPEN
 10
46.5
 20
-97.97208620126241
 30
0.0
 41
2.0
 42
2.0
 43
2.0
  0
MTEXT
  5
745A
330
6CE2
100
AcDbEntity
  8
30
  6
CONTINUOUS
 62
     0
100
AcDbMText
 10
0.0000000000000286
 20
-94.97208620126242
 30
0.0
 40
4.0
 41
0.0
 71
     5
 72
     1
  1
\A1;93
1001
ACAD
1000
MTEXTBEGIN
1070
    73
1070
     1
1070
    44
1040
1.0
1070
    74
1070
     0
1000
MTEXTEND
  0
POINT
  5
745B
330
6CE2
100
AcDbEntity
  8
DEFPOINTS
  6
CONTINUOUS
 62
     0
100
AcDbPoint
 10
-46.49999999999994
 20
-77.00000300000022
 30
0.0
  0
POINT
  5
745C
330
6CE2
100
AcDbEntity
  8
DEFPOINTS
  6
CONTINUOUS
 62
     0
100
AcDbPoint
 10
46.5
 20
-77.00000300000022
 30
0.0
  0
POINT
  5
745D
330
6CE2
100
AcDbEntity
  8
DEFPOINTS
  6
CONTINUOUS
 62
     0
100
AcDbPoint
 10
46.5
 20
-97.97208620126241
 30
0.0
  0
ENDBLK
  5
6CED
330
6CE2
100
AcDbEntity
  8
0
100
AcDbBlockEnd
  0
BLOCK
  5
6CF8
330
6CEE
100
AcDbEntity
  8
0
100
AcDbBlockBegin
  2
*D30
 70
     1
 10
0.0
 20
0.0
 30
0.0
  3
*D30
  1

  0
LINE
  5
744C
330
6CEE
100
AcDbEntity
  8
30
  6
CONTINUOUS
 62
     0
100
AcDbLine
 10
45.49999999999999
 20
80.00000299999966
 30
0.0
 11
82.04784840549278
 21
80.00000299999966
 31
0.0
  0
LINE
  5
744D
330
6CEE
100
AcDbEntity
  8
30
  6
CONTINUOUS
 62
     0
100
AcDbLine
 10
44.5
 20
-80.00000300000023
 30
0.0
 11
82.04784840549276
 21
-80.00000300000023
 31
0.0
  0
LINE
  5
744E
330
6CEE
100
AcDbEntity
  8
30
  6
CONTINUOUS
 62
     0
100
AcDbLine
 10
81.54784840549279
 20
78.00000299999965
 30
0.0
 11
81.54784840549275
 21
-78.00000300000021
 31
0.0
  0
INSERT
  5
744F
330
6CEE
100
AcDbEntity
  8
30
  6
CONTINUOUS
 62
     0
100
AcDbBlockReference
  2
_OPEN
 10
81.54784840549279
 20
80.00000299999966
 30
0.0
 41
2.0
 42
2.0
 43
2.0
 50
90.0
  0
INSERT
  5
7450
330
6CEE
100
AcDbEntity
  8
30
  6
CONTINUOUS
 62
     0
100
AcDbBlockReference
  2
_OPEN
 10
81.54784840549275
 20
-80.00000300000023
 30
0.0
 41
2.0
 42
2.0
 43
2.0
 50
270.0
  0
MTEXT
  5
7451
330
6CEE
100
AcDbEntity
  8
30
  6
CONTINUOUS
 62
     0
100
AcDbMText
 10
78.54784840549275
 20
-0.9351410785917547
 30
0.0
 40
4.0
 41
0.0
 71
     5
 72
     1
  1
\A1;160
 11
0.0000000000000001
 21
1.0
 31
0.0
1001
ACAD
1000
MTEXTBEGIN
1070
    73
1070
     1
1070
    44
1040
1.0
1070
    74
1070
     0
1000
MTEXTEND
  0
POINT
  5
7452
330
6CEE
100
AcDbEntity
  8
DEFPOINTS
  6
CONTINUOUS
 62
     0
100
AcDbPoint
 10
44.5
 20
80.00000299999966
 30
0.0
  0
POINT
  5
7453
330
6CEE
100
AcDbEntity
  8
DEFPOINTS
  6
CONTINUOUS
 62
     0
100
AcDbPoint
 10
43.5
 20
-80.00000300000023
 30
0.0
  0
POINT
  5
7454
330
6CEE
100
AcDbEntity
  8
DEFPOINTS
  6
CONTINUOUS
 62
     0
100
AcDbPoint
 10
81.54784840549275
 20
-80.00000300000023
 30
0.0
  0
ENDBLK
  5
6CF9
330
6CEE
100
AcDbEntity
  8
0
100
AcDbBlockEnd
  0
BLOCK
  5
6D16
330
6D0C
100
AcDbEntity
  8
0
100
AcDbBlockBegin
  2
*D31
 70
     1
 10
0.0
 20
0.0
 30
0.0
  3
*D31
  1

  0
LINE
  5
6D0D
330
6D0C
100
AcDbEntity
  8
0
 62
     0
100
AcDbLine
 10
278.1577327392864
 20
464.6757909782068
 30
0.0
 11
278.1577327392864
 21
335.6010968880277
 31
0.0
  0
LINE
  5
6D0E
330
6D0C
100
AcDbEntity
  8
0
 62
     0
100
AcDbLine
 10
315.5426583879273
 20
383.6757869464797
 30
0.0
 11
315.5426583879273
 21
335.6010968880277
 31
0.0
  0
LINE
  5
6D0F
330
6D0C
100
AcDbEntity
  8
0
 62
     0
100
AcDbLine
 10
282.1577327392863
 20
336.6010968880277
 30
0.0
 11
311.5426583879273
 21
336.6010968880277
 31
0.0
  0
INSERT
  5
6D10
330
6D0C
100
AcDbEntity
  8
0
 62
     0
100
AcDbBlockReference
  2
_OPEN
 10
278.1577327392864
 20
336.6010968880277
 30
0.0
 41
4.0
 42
4.0
 43
4.0
 50
180.0
  0
INSERT
  5
6D11
330
6D0C
100
AcDbEntity
  8
0
 62
     0
100
AcDbBlockReference
  2
_OPEN
 10
315.5426583879273
 20
336.6010968880277
 30
0.0
 41
4.0
 42
4.0
 43
4.0
  0
MTEXT
  5
6D12
330
6D0C
100
AcDbEntity
  8
0
 62
     0
100
AcDbMText
 10
296.8501955636067
 20
340.6010968880277
 30
0.0
 40
5.0
 41
0.0
 71
     5
 72
     1
  1
\A1;37.5
1001
ACAD
1000
MTEXTBEGIN
1070
    73
1070
     1
1070
    44
1040
1.0
1070
    74
1070
     0
1000
MTEXTEND
  0
POINT
  5
6D13
330
6D0C
100
AcDbEntity
  8
DEFPOINTS
 62
     0
100
AcDbPoint
 10
278.1577327392864
 20
465.6757909782069
 30
0.0
  0
POINT
  5
6D14
330
6D0C
100
AcDbEntity
  8
DEFPOINTS
 62
     0
100
AcDbPoint
 10
315.5426583879273
 20
384.6757869464799
 30
0.0
  0
POINT
  5
6D15
330
6D0C
100
AcDbEntity
  8
DEFPOINTS
 62
     0
100
AcDbPoint
 10
315.5426583879273
 20
336.6010968880277
 30
0.0
  0
ENDBLK
  5
6D17
330
6D0C
100
AcDbEntity
  8
0
100
AcDbBlockEnd
  0
BLOCK
  5
6D22
330
6D18
100
AcDbEntity
  8
0
100
AcDbBlockBegin
  2
*D32
 70
     1
 10
0.0
 20
0.0
 30
0.0
  3
*D32
  1

  0
LINE
  5
6D19
330
6D18
100
AcDbEntity
  8
0
 62
     0
100
AcDbLine
 10
294.8426583879273
 20
390.6757869464799
 30
0.0
 11
294.8426583879273
 21
350.9422314464798
 31
0.0
  0
LINE
  5
6D1A
330
6D18
100
AcDbEntity
  8
0
 62
     0
100
AcDbLine
 10
315.5426583879273
 20
383.6757869464797
 30
0.0
 11
315.5426583879273
 21
350.9422314464798
 31
0.0
  0
LINE
  5
6D1B
330
6D18
100
AcDbEntity
  8
0
 62
     0
100
AcDbLine
 10
298.8426583879273
 20
351.9422314464798
 30
0.0
 11
311.5426583879273
 21
351.9422314464798
 31
0.0
  0
INSERT
  5
6D1C
330
6D18
100
AcDbEntity
  8
0
 62
     0
100
AcDbBlockReference
  2
_OPEN
 10
294.8426583879273
 20
351.9422314464798
 30
0.0
 41
4.0
 42
4.0
 43
4.0
 50
180.0
  0
INSERT
  5
6D1D
330
6D18
100
AcDbEntity
  8
0
 62
     0
100
AcDbBlockReference
  2
_OPEN
 10
315.5426583879273
 20
351.9422314464798
 30
0.0
 41
4.0
 42
4.0
 43
4.0
  0
MTEXT
  5
6D1E
330
6D18
100
AcDbEntity
  8
0
 62
     0
100
AcDbMText
 10
305.1926583879271
 20
355.9422314464798
 30
0.0
 40
5.0
 41
0.0
 71
     5
 72
     1
  1
\A1;21
1001
ACAD
1000
MTEXTBEGIN
1070
    73
1070
     1
1070
    44
1040
1.0
1070
    74
1070
     0
1000
MTEXTEND
  0
POINT
  5
6D1F
330
6D18
100
AcDbEntity
  8
DEFPOINTS
 62
     0
100
AcDbPoint
 10
294.8426583879273
 20
391.6757869464797
 30
0.0
  0
POINT
  5
6D20
330
6D18
100
AcDbEntity
  8
DEFPOINTS
 62
     0
100
AcDbPoint
 10
315.5426583879273
 20
384.6757869464799
 30
0.0
  0
POINT
  5
6D21
330
6D18
100
AcDbEntity
  8
DEFPOINTS
 62
     0
100
AcDbPoint
 10
315.5426583879273
 20
351.9422314464798
 30
0.0
  0
ENDBLK
  5
6D23
330
6D18
100
AcDbEntity
  8
0
100
AcDbBlockEnd
  0
BLOCK
  5
6D2E
330
6D24
100
AcDbEntity
  8
0
100
AcDbBlockBegin
  2
*D33
 70
     1
 10
0.0
 20
0.0
 30
0.0
  3
*D33
  1

  0
LINE
  5
6D25
330
6D24
100
AcDbEntity
  8
0
 62
     0
100
AcDbLine
 10
480.6619153879275
 20
520.6756779464797
 30
0.0
 11
496.7435793879274
 21
520.6756779464797
 31
0.0
  0
LINE
  5
6D26
330
6D24
100
AcDbEntity
  8
0
 62
     0
100
AcDbLine
 10
480.6619153879275
 20
410.6759039464797
 30
0.0
 11
496.7435793879274
 21
410.6759039464797
 31
0.0
  0
LINE
  5
6D27
330
6D24
100
AcDbEntity
  8
0
 62
     0
100
AcDbLine
 10
495.7435793879274
 20
516.6756779464797
 30
0.0
 11
495.7435793879274
 21
414.6759039464797
 31
0.0
  0
INSERT
  5
6D28
330
6D24
100
AcDbEntity
  8
0
 62
     0
100
AcDbBlockReference
  2
_OPEN
 10
495.7435793879274
 20
520.6756779464797
 30
0.0
 41
4.0
 42
4.0
 43
4.0
 50
90.0
  0
INSERT
  5
6D29
330
6D24
100
AcDbEntity
  8
0
 62
     0
100
AcDbBlockReference
  2
_OPEN
 10
495.7435793879274
 20
410.6759039464797
 30
0.0
 41
4.0
 42
4.0
 43
4.0
 50
270.0
  0
MTEXT
  5
6D2A
330
6D24
100
AcDbEntity
  8
0
 62
     0
100
AcDbMText
 10
491.7435793879272
 20
465.6757909464798
 30
0.0
 40
5.0
 41
0.0
 71
     5
 72
     1
  1
\A1;110
 11
0.0000000000000001
 21
1.0
 31
0.0
1001
ACAD
1000
MTEXTBEGIN
1070
    73
1070
     1
1070
    44
1040
1.0
1070
    74
1070
     0
1000
MTEXTEND
  0
POINT
  5
6D2B
330
6D24
100
AcDbEntity
  8
DEFPOINTS
 62
     0
100
AcDbPoint
 10
479.6619153879275
 20
520.6756779464797
 30
0.0
  0
POINT
  5
6D2C
330
6D24
100
AcDbEntity
  8
DEFPOINTS
 62
     0
100
AcDbPoint
 10
479.6619153879275
 20
410.6759039464797
 30
0.0
  0
POINT
  5
6D2D
330
6D24
100
AcDbEntity
  8
DEFPOINTS
 62
     0
100
AcDbPoint
 10
495.7435793879274
 20
410.6759039464797
 30
0.0
  0
ENDBLK
  5
6D2F
330
6D24
100
AcDbEntity
  8
0
100
AcDbBlockEnd
  0
BLOCK
  5
6D3C
330
6D30
100
AcDbEntity
  8
0
100
AcDbBlockBegin
  2
*D34
 70
     1
 10
0.0
 20
0.0
 30
0.0
  3
*D34
  1

  0
LINE
  5
6D31
330
6D30
100
AcDbEntity
  8
0
 62
     0
100
AcDbLine
 10
474.1411733879274
 20
522.1745289464799
 30
0.0
 11
486.9182323865891
 21
522.1745289464799
 31
0.0
  0
LINE
  5
6D32
330
6D30
100
AcDbEntity
  8
0
 62
     0
100
AcDbLine
 10
474.1411733879274
 20
519.1745289464797
 30
0.0
 11
486.9182323865891
 21
519.1745289464797
 31
0.0
  0
LINE
  5
6D33
330
6D30
100
AcDbEntity
  8
0
 62
     0
100
AcDbLine
 10
485.9182323865891
 20
515.1745289464797
 30
0.0
 11
485.9182323865891
 21
511.1745289464797
 31
0.0
  0
LINE
  5
6D34
330
6D30
100
AcDbEntity
  8
0
 62
     0
100
AcDbLine
 10
485.9182323865891
 20
526.1745289464799
 30
0.0
 11
485.9182323865891
 21
554.8411956131465
 31
0.0
  0
LINE
  5
6D35
330
6D30
100
AcDbEntity
  8
0
 62
     0
100
AcDbLine
 10
485.9182323865891
 20
519.1745289464797
 30
0.0
 11
485.9182323865891
 21
522.1745289464799
 31
0.0
  0
INSERT
  5
6D36
330
6D30
100
AcDbEntity
  8
0
 62
     0
100
AcDbBlockReference
  2
_OPEN
 10
485.9182323865891
 20
519.1745289464797
 30
0.0
 41
4.0
 42
4.0
 43
4.0
 50
90.0
  0
INSERT
  5
6D37
330
6D30
100
AcDbEntity
  8
0
 62
     0
100
AcDbBlockReference
  2
_OPEN
 10
485.9182323865891
 20
522.1745289464799
 30
0.0
 41
4.0
 42
4.0
 43
4.0
 50
270.0
  0
MTEXT
  5
6D38
330
6D30
100
AcDbEntity
  8
0
 62
     0
100
AcDbMText
 10
481.9182323865891
 20
542.5078622798134
 30
0.0
 40
5.0
 41
0.0
 71
     5
 72
     1
  1
\A1;3.0000
 11
0.0000000000000001
 21
1.0
 31
0.0
1001
ACAD
1000
MTEXTBEGIN
1070
    73
1070
     1
1070
    44
1040
1.0
1070
    74
1070
     0
1000
MTEXTEND
  0
POINT
  5
6D39
330
6D30
100
AcDbEntity
  8
DEFPOINTS
 62
     0
100
AcDbPoint
 10
473.1411733879274
 20
522.1745289464799
 30
0.0
  0
POINT
  5
6D3A
330
6D30
100
AcDbEntity
  8
DEFPOINTS
 62
     0
100
AcDbPoint
 10
473.1411733879274
 20
519.1745289464797
 30
0.0
  0
POINT
  5
6D3B
330
6D30
100
AcDbEntity
  8
DEFPOINTS
 62
     0
100
AcDbPoint
 10
485.9182323865891
 20
519.1745289464797
 30
0.0
  0
ENDBLK
  5
6D3D
330
6D30
100
AcDbEntity
  8
0
100
AcDbBlockEnd
  0
BLOCK
  5
6EC5
330
6EBB
100
AcDbEntity
  8
0
100
AcDbBlockBegin
  2
*D35
 70
     1
 10
0.0
 20
0.0
 30
0.0
  3
*D35
  1

  0
LINE
  5
745E
330
6EBB
100
AcDbEntity
  8
30
  6
CONTINUOUS
 62
     0
100
AcDbLine
 10
141.2123678732747
 20
-0.9999999682731438
 30
0.0
 11
141.2123678732747
 21
-129.5746940584521
 31
0.0
  0
LINE
  5
745F
330
6EBB
100
AcDbEntity
  8
30
  6
CONTINUOUS
 62
     0
100
AcDbLine
 10
178.5972935219156
 20
-82.00000400000012
 30
0.0
 11
178.5972935219156
 21
-129.5746940584521
 31
0.0
  0
LINE
  5
7460
330
6EBB
100
AcDbEntity
  8
30
  6
CONTINUOUS
 62
     0
100
AcDbLine
 10
143.2123678732746
 20
-129.0746940584521
 30
0.0
 11
176.5972935219155
 21
-129.0746940584521
 31
0.0
  0
INSERT
  5
7461
330
6EBB
100
AcDbEntity
  8
30
  6
CONTINUOUS
 62
     0
100
AcDbBlockReference
  2
_OPEN
 10
141.2123678732747
 20
-129.0746940584521
 30
0.0
 41
2.0
 42
2.0
 43
2.0
 50
180.0
  0
INSERT
  5
7462
330
6EBB
100
AcDbEntity
  8
30
  6
CONTINUOUS
 62
     0
100
AcDbBlockReference
  2
_OPEN
 10
178.5972935219156
 20
-129.0746940584521
 30
0.0
 41
2.0
 42
2.0
 43
2.0
  0
MTEXT
  5
7463
330
6EBB
100
AcDbEntity
  8
30
  6
CONTINUOUS
 62
     0
100
AcDbMText
 10
159.904830697595
 20
-126.0746940584522
 30
0.0
 40
4.0
 41
0.0
 71
     5
 72
     1
  1
\A1;37.5
1001
ACAD
1000
MTEXTBEGIN
1070
    73
1070
     1
1070
    44
1040
1.0
1070
    74
1070
     0
1000
MTEXTEND
  0
POINT
  5
7464
330
6EBB
100
AcDbEntity
  8
DEFPOINTS
  6
CONTINUOUS
 62
     0
100
AcDbPoint
 10
141.2123678732747
 20
0.0000000317268562
 30
0.0
  0
POINT
  5
7465
330
6EBB
100
AcDbEntity
  8
DEFPOINTS
  6
CONTINUOUS
 62
     0
100
AcDbPoint
 10
178.5972935219156
 20
-81.00000400000011
 30
0.0
  0
POINT
  5
7466
330
6EBB
100
AcDbEntity
  8
DEFPOINTS
  6
CONTINUOUS
 62
     0
100
AcDbPoint
 10
178.5972935219156
 20
-129.0746940584521
 30
0.0
  0
ENDBLK
  5
6EC6
330
6EBB
100
AcDbEntity
  8
0
100
AcDbBlockEnd
  0
BLOCK
  5
6ED1
330
6EC7
100
AcDbEntity
  8
0
100
AcDbBlockBegin
  2
*D36
 70
     1
 10
0.0
 20
0.0
 30
0.0
  3
*D36
  1

  0
LINE
  5
7467
330
6EC7
100
AcDbEntity
  8
30
  6
CONTINUOUS
 62
     0
100
AcDbLine
 10
157.8972935219155
 20
-75.0000040000001
 30
0.0
 11
157.8972935219155
 21
-114.2335595
 31
0.0
  0
LINE
  5
7468
330
6EC7
100
AcDbEntity
  8
30
  6
CONTINUOUS
 62
     0
100
AcDbLine
 10
178.5972935219156
 20
-82.00000400000012
 30
0.0
 11
178.5972935219156
 21
-114.2335595
 31
0.0
  0
LINE
  5
7469
330
6EC7
100
AcDbEntity
  8
30
  6
CONTINUOUS
 62
     0
100
AcDbLine
 10
159.8972935219155
 20
-113.7335595000001
 30
0.0
 11
176.5972935219155
 21
-113.7335595000001
 31
0.0
  0
INSERT
  5
746A
330
6EC7
100
AcDbEntity
  8
30
  6
CONTINUOUS
 62
     0
100
AcDbBlockReference
  2
_OPEN
 10
157.8972935219155
 20
-113.7335595000001
 30
0.0
 41
2.0
 42
2.0
 43
2.0
 50
180.0
  0
INSERT
  5
746B
330
6EC7
100
AcDbEntity
  8
30
  6
CONTINUOUS
 62
     0
100
AcDbBlockReference
  2
_OPEN
 10
178.5972935219156
 20
-113.7335595000001
 30
0.0
 41
2.0
 42
2.0
 43
2.0
  0
MTEXT
  5
746C
330
6EC7
100
AcDbEntity
  8
30
  6
CONTINUOUS
 62
     0
100
AcDbMText
 10
168.2472935219156
 20
-110.7335595000001
 30
0.0
 40
4.0
 41
0.0
 71
     5
 72
     1
  1
\A1;21
1001
ACAD
1000
MTEXTBEGIN
1070
    73
1070
     1
1070
    44
1040
1.0
1070
    74
1070
     0
1000
MTEXTEND
  0
POINT
  5
746D
330
6EC7
100
AcDbEntity
  8
DEFPOINTS
  6
CONTINUOUS
 62
     0
100
AcDbPoint
 10
157.8972935219155
 20
-74.00000400000012
 30
0.0
  0
POINT
  5
746E
330
6EC7
100
AcDbEntity
  8
DEFPOINTS
  6
CONTINUOUS
 62
     0
100
AcDbPoint
 10
178.5972935219156
 20
-81.00000400000011
 30
0.0
  0
POINT
  5
746F
330
6EC7
100
AcDbEntity
  8
DEFPOINTS
  6
CONTINUOUS
 62
     0
100
AcDbPoint
 10
178.5972935219156
 20
-113.7335595000001
 30
0.0
  0
ENDBLK
  5
6ED2
330
6EC7
100
AcDbEntity
  8
0
100
AcDbBlockEnd
  0
BLOCK
  5
6EDD
330
6ED3
100
AcDbEntity
  8
0
100
AcDbBlockBegin
  2
*D37
 70
     1
 10
0.0
 20
0.0
 30
0.0
  3
*D37
  1

  0
LINE
  5
7470
330
6ED3
100
AcDbEntity
  8
30
  6
CONTINUOUS
 62
     0
100
AcDbLine
 10
343.7165505219156
 20
54.9998869999997
 30
0.0
 11
359.2982145219156
 21
54.9998869999997
 31
0.0
  0
LINE
  5
7471
330
6ED3
100
AcDbEntity
  8
30
  6
CONTINUOUS
 62
     0
100
AcDbLine
 10
343.7165505219156
 20
-54.99988700000013
 30
0.0
 11
359.2982145219156
 21
-54.99988700000013
 31
0.0
  0
LINE
  5
7472
330
6ED3
100
AcDbEntity
  8
30
  6
CONTINUOUS
 62
     0
100
AcDbLine
 10
358.7982145219156
 20
52.9998869999997
 30
0.0
 11
358.7982145219156
 21
-52.99988700000014
 31
0.0
  0
INSERT
  5
7473
330
6ED3
100
AcDbEntity
  8
30
  6
CONTINUOUS
 62
     0
100
AcDbBlockReference
  2
_OPEN
 10
358.7982145219156
 20
54.9998869999997
 30
0.0
 41
2.0
 42
2.0
 43
2.0
 50
90.0
  0
INSERT
  5
7474
330
6ED3
100
AcDbEntity
  8
30
  6
CONTINUOUS
 62
     0
100
AcDbBlockReference
  2
_OPEN
 10
358.7982145219156
 20
-54.99988700000013
 30
0.0
 41
2.0
 42
2.0
 43
2.0
 50
270.0
  0
MTEXT
  5
7475
330
6ED3
100
AcDbEntity
  8
30
  6
CONTINUOUS
 62
     0
100
AcDbMText
 10
355.7982145219156
 20
-0.0000000000001566
 30
0.0
 40
4.0
 41
0.0
 71
     5
 72
     1
  1
\A1;110
 11
0.0000000000000001
 21
1.0
 31
0.0
1001
ACAD
1000
MTEXTBEGIN
1070
    73
1070
     1
1070
    44
1040
1.0
1070
    74
1070
     0
1000
MTEXTEND
  0
POINT
  5
7476
330
6ED3
100
AcDbEntity
  8
DEFPOINTS
  6
CONTINUOUS
 62
     0
100
AcDbPoint
 10
342.7165505219158
 20
54.9998869999997
 30
0.0
  0
POINT
  5
7477
330
6ED3
100
AcDbEntity
  8
DEFPOINTS
  6
CONTINUOUS
 62
     0
100
AcDbPoint
 10
342.7165505219158
 20
-54.99988700000013
 30
0.0
  0
POINT
  5
7478
330
6ED3
100
AcDbEntity
  8
DEFPOINTS
  6
CONTINUOUS
 62
     0
100
AcDbPoint
 10
358.7982145219156
 20
-54.99988700000013
 30
0.0
  0
ENDBLK
  5
6EDE
330
6ED3
100
AcDbEntity
  8
0
100
AcDbBlockEnd
  0
BLOCK
  5
6EEB
330
6EDF
100
AcDbEntity
  8
0
100
AcDbBlockBegin
  2
*D38
 70
     1
 10
0.0
 20
0.0
 30
0.0
  3
*D38
  1

  0
LINE
  5
7479
330
6EDF
100
AcDbEntity
  8
30
  6
CONTINUOUS
 62
     0
100
AcDbLine
 10
337.1958085219156
 20
56.49873799999987
 30
0.0
 11
347.1395341872441
 21
56.49873799999987
 31
0.0
  0
LINE
  5
747A
330
6EDF
100
AcDbEntity
  8
30
  6
CONTINUOUS
 62
     0
100
AcDbLine
 10
337.1958085219156
 20
53.49873799999976
 30
0.0
 11
347.1395341872441
 21
53.49873799999976
 31
0.0
  0
LINE
  5
747B
330
6EDF
100
AcDbEntity
  8
30
  6
CONTINUOUS
 62
     0
100
AcDbLine
 10
346.6395341872441
 20
51.49873799999976
 30
0.0
 11
346.6395341872441
 21
49.49873799999976
 31
0.0
  0
LINE
  5
747C
330
6EDF
100
AcDbEntity
  8
30
  6
CONTINUOUS
 62
     0
100
AcDbLine
 10
346.6395341872441
 20
58.49873799999986
 30
0.0
 11
346.6395341872441
 21
76.83207133333332
 31
0.0
  0
LINE
  5
747D
330
6EDF
100
AcDbEntity
  8
30
  6
CONTINUOUS
 62
     0
100
AcDbLine
 10
346.6395341872441
 20
76.83207133333332
 30
0.0
 11
350.3062008539107
 21
76.83207133333332
 31
0.0
  0
INSERT
  5
747E
330
6EDF
100
AcDbEntity
  8
30
  6
CONTINUOUS
 62
     0
100
AcDbBlockReference
  2
_OPEN
 10
346.6395341872441
 20
53.49873799999976
 30
0.0
 41
2.0
 42
2.0
 43
2.0
 50
90.0
  0
INSERT
  5
747F
330
6EDF
100
AcDbEntity
  8
30
  6
CONTINUOUS
 62
     0
100
AcDbBlockReference
  2
_OPEN
 10
346.6395341872441
 20
56.49873799999987
 30
0.0
 41
2.0
 42
2.0
 43
2.0
 50
270.0
  0
MTEXT
  5
7480
330
6EDF
100
AcDbEntity
  8
30
  6
CONTINUOUS
 62
     0
100
AcDbMText
 10
348.9728675205775
 20
79.83207133333336
 30
0.0
 40
4.0
 41
0.0
 71
     5
 72
     1
  1
\A1;3
1001
ACAD
1000
MTEXTBEGIN
1070
    73
1070
     1
1070
    44
1040
1.0
1070
    74
1070
     0
1000
MTEXTEND
  0
POINT
  5
7481
330
6EDF
100
AcDbEntity
  8
DEFPOINTS
  6
CONTINUOUS
 62
     0
100
AcDbPoint
 10
336.1958085219157
 20
56.49873799999987
 30
0.0
  0
POINT
  5
7482
330
6EDF
100
AcDbEntity
  8
DEFPOINTS
  6
CONTINUOUS
 62
     0
100
AcDbPoint
 10
336.1958085219157
 20
53.49873799999976
 30
0.0
  0
POINT
  5
7483
330
6EDF
100
AcDbEntity
  8
DEFPOINTS
  6
CONTINUOUS
 62
     0
100
AcDbPoint
 10
346.6395341872441
 20
53.49873799999976
 30
0.0
  0
ENDBLK
  5
6EEC
330
6EDF
100
AcDbEntity
  8
0
100
AcDbBlockEnd
  0
BLOCK
  5
6F1D
330
6F13
100
AcDbEntity
  8
0
100
AcDbBlockBegin
  2
*D39
 70
     1
 10
0.0
 20
0.0
 30
0.0
  3
*D39
  1

  0
LINE
  5
6F14
330
6F13
100
AcDbEntity
  8
0
 62
     0
100
AcDbLine
 10
639.9321143879275
 20
535.6759159464801
 30
0.0
 11
685.1874720789724
 21
535.6759159464801
 31
0.0
  0
LINE
  5
6F15
330
6F13
100
AcDbEntity
  8
0
 62
     0
100
AcDbLine
 10
639.9321143879275
 20
395.6756659464798
 30
0.0
 11
685.1874720789724
 21
395.6756659464798
 31
0.0
  0
LINE
  5
6F16
330
6F13
100
AcDbEntity
  8
0
 62
     0
100
AcDbLine
 10
684.1874720789724
 20
531.6759159464801
 30
0.0
 11
684.1874720789724
 21
399.6756659464797
 31
0.0
  0
INSERT
  5
6F17
330
6F13
100
AcDbEntity
  8
0
 62
     0
100
AcDbBlockReference
  2
_OPEN
 10
684.1874720789724
 20
535.6759159464801
 30
0.0
 41
4.0
 42
4.0
 43
4.0
 50
90.0
  0
INSERT
  5
6F18
330
6F13
100
AcDbEntity
  8
0
 62
     0
100
AcDbBlockReference
  2
_OPEN
 10
684.1874720789724
 20
395.6756659464798
 30
0.0
 41
4.0
 42
4.0
 43
4.0
 50
270.0
  0
MTEXT
  5
6F19
330
6F13
100
AcDbEntity
  8
0
 62
     0
100
AcDbMText
 10
680.1874720789722
 20
465.6757909464799
 30
0.0
 40
5.0
 41
0.0
 71
     5
 72
     1
  1
\A1;140
 11
0.0000000000000001
 21
1.0
 31
0.0
1001
ACAD
1000
MTEXTBEGIN
1070
    73
1070
     1
1070
    44
1040
1.0
1070
    74
1070
     0
1000
MTEXTEND
  0
POINT
  5
6F1A
330
6F13
100
AcDbEntity
  8
DEFPOINTS
 62
     0
100
AcDbPoint
 10
638.9321143879275
 20
535.6759159464801
 30
0.0
  0
POINT
  5
6F1B
330
6F13
100
AcDbEntity
  8
DEFPOINTS
 62
     0
100
AcDbPoint
 10
638.9321143879275
 20
395.6756659464798
 30
0.0
  0
POINT
  5
6F1C
330
6F13
100
AcDbEntity
  8
DEFPOINTS
 62
     0
100
AcDbPoint
 10
684.1874720789724
 20
395.6756659464798
 30
0.0
  0
ENDBLK
  5
6F1E
330
6F13
100
AcDbEntity
  8
0
100
AcDbBlockEnd
  0
BLOCK
  5
6F29
330
6F1F
100
AcDbEntity
  8
0
100
AcDbBlockBegin
  2
*D40
 70
     1
 10
0.0
 20
0.0
 30
0.0
  3
*D40
  1

  0
LINE
  5
6F20
330
6F1F
100
AcDbEntity
  8
0
 62
     0
100
AcDbLine
 10
650.4687263879275
 20
498.6757909464801
 30
0.0
 11
672.5261221927767
 21
498.6757909464801
 31
0.0
  0
LINE
  5
6F21
330
6F1F
100
AcDbEntity
  8
0
 62
     0
100
AcDbLine
 10
650.4687263879275
 20
432.6757909464799
 30
0.0
 11
672.5261221927767
 21
432.6757909464799
 31
0.0
  0
LINE
  5
6F22
330
6F1F
100
AcDbEntity
  8
0
 62
     0
100
AcDbLine
 10
671.5261221927767
 20
494.6757909464801
 30
0.0
 11
671.5261221927767
 21
436.6757909464799
 31
0.0
  0
INSERT
  5
6F23
330
6F1F
100
AcDbEntity
  8
0
 62
     0
100
AcDbBlockReference
  2
_OPEN
 10
671.5261221927767
 20
498.6757909464801
 30
0.0
 41
4.0
 42
4.0
 43
4.0
 50
90.0
  0
INSERT
  5
6F24
330
6F1F
100
AcDbEntity
  8
0
 62
     0
100
AcDbBlockReference
  2
_OPEN
 10
671.5261221927767
 20
432.6757909464799
 30
0.0
 41
4.0
 42
4.0
 43
4.0
 50
270.0
  0
MTEXT
  5
6F25
330
6F1F
100
AcDbEntity
  8
0
 62
     0
100
AcDbMText
 10
667.5261221927767
 20
465.3734316286139
 30
0.0
 40
5.0
 41
0.0
 71
     5
 72
     1
  1
\A1;66
 11
0.0000000000000001
 21
1.0
 31
0.0
1001
ACAD
1000
MTEXTBEGIN
1070
    73
1070
     1
1070
    44
1040
1.0
1070
    74
1070
     0
1000
MTEXTEND
  0
POINT
  5
6F26
330
6F1F
100
AcDbEntity
  8
DEFPOINTS
 62
     0
100
AcDbPoint
 10
649.4687263879275
 20
498.6757909464801
 30
0.0
  0
POINT
  5
6F27
330
6F1F
100
AcDbEntity
  8
DEFPOINTS
 62
     0
100
AcDbPoint
 10
649.4687263879275
 20
432.6757909464799
 30
0.0
  0
POINT
  5
6F28
330
6F1F
100
AcDbEntity
  8
DEFPOINTS
 62
     0
100
AcDbPoint
 10
671.5261221927767
 20
432.6757909464799
 30
0.0
  0
ENDBLK
  5
6F2A
330
6F1F
100
AcDbEntity
  8
0
100
AcDbBlockEnd
  0
BLOCK
  5
6F35
330
6F2B
100
AcDbEntity
  8
0
100
AcDbBlockBegin
  2
*D41
 70
     1
 10
0.0
 20
0.0
 30
0.0
  3
*D41
  1

  0
LINE
  5
6F2C
330
6F2B
100
AcDbEntity
  8
0
 62
     0
100
AcDbLine
 10
565.9320463879272
 20
424.3367539464798
 30
0.0
 11
565.9320463879272
 21
351.208376387804
 31
0.0
  0
LINE
  5
6F2D
330
6F2B
100
AcDbEntity
  8
0
 62
     0
100
AcDbLine
 10
643.9320463879274
 20
424.3367539464798
 30
0.0
 11
643.9320463879274
 21
351.208376387804
 31
0.0
  0
LINE
  5
6F2E
330
6F2B
100
AcDbEntity
  8
0
 62
     0
100
AcDbLine
 10
569.9320463879272
 20
352.208376387804
 30
0.0
 11
639.9320463879274
 21
352.208376387804
 31
0.0
  0
INSERT
  5
6F2F
330
6F2B
100
AcDbEntity
  8
0
 62
     0
100
AcDbBlockReference
  2
_OPEN
 10
565.9320463879272
 20
352.208376387804
 30
0.0
 41
4.0
 42
4.0
 43
4.0
 50
180.0
  0
INSERT
  5
6F30
330
6F2B
100
AcDbEntity
  8
0
 62
     0
100
AcDbBlockReference
  2
_OPEN
 10
643.9320463879274
 20
352.208376387804
 30
0.0
 41
4.0
 42
4.0
 43
4.0
  0
MTEXT
  5
6F31
330
6F2B
100
AcDbEntity
  8
0
 62
     0
100
AcDbMText
 10
604.1025234390501
 20
356.208376387804
 30
0.0
 40
5.0
 41
0.0
 71
     5
 72
     1
  1
\A1;78
1001
ACAD
1000
MTEXTBEGIN
1070
    73
1070
     1
1070
    44
1040
1.0
1070
    74
1070
     0
1000
MTEXTEND
  0
POINT
  5
6F32
330
6F2B
100
AcDbEntity
  8
DEFPOINTS
 62
     0
100
AcDbPoint
 10
565.9320463879272
 20
425.3367539464798
 30
0.0
  0
POINT
  5
6F33
330
6F2B
100
AcDbEntity
  8
DEFPOINTS
 62
     0
100
AcDbPoint
 10
643.9320463879274
 20
425.3367539464798
 30
0.0
  0
POINT
  5
6F34
330
6F2B
100
AcDbEntity
  8
DEFPOINTS
 62
     0
100
AcDbPoint
 10
643.9320463879274
 20
352.208376387804
 30
0.0
  0
ENDBLK
  5
6F36
330
6F2B
100
AcDbEntity
  8
0
100
AcDbBlockEnd
  0
BLOCK
  5
6F41
330
6F37
100
AcDbEntity
  8
0
100
AcDbBlockBegin
  2
*D42
 70
     1
 10
0.0
 20
0.0
 30
0.0
  3
*D42
  1

  0
LINE
  5
6F38
330
6F37
100
AcDbEntity
  8
0
 62
     0
100
AcDbLine
 10
570.9319793879275
 20
394.6756659464798
 30
0.0
 11
570.9319793879275
 21
364.6804072761571
 31
0.0
  0
LINE
  5
6F39
330
6F37
100
AcDbEntity
  8
0
 62
     0
100
AcDbLine
 10
638.9321143879275
 20
394.6756659464798
 30
0.0
 11
638.9321143879275
 21
364.6804072761571
 31
0.0
  0
LINE
  5
6F3A
330
6F37
100
AcDbEntity
  8
0
 62
     0
100
AcDbLine
 10
574.9319793879275
 20
365.6804072761571
 30
0.0
 11
634.9321143879275
 21
365.6804072761571
 31
0.0
  0
INSERT
  5
6F3B
330
6F37
100
AcDbEntity
  8
0
 62
     0
100
AcDbBlockReference
  2
_OPEN
 10
570.9319793879275
 20
365.6804072761571
 30
0.0
 41
4.0
 42
4.0
 43
4.0
 50
180.0
  0
INSERT
  5
6F3C
330
6F37
100
AcDbEntity
  8
0
 62
     0
100
AcDbBlockReference
  2
_OPEN
 10
638.9321143879275
 20
365.6804072761571
 30
0.0
 41
4.0
 42
4.0
 43
4.0
  0
MTEXT
  5
6F3D
330
6F37
100
AcDbEntity
  8
0
 62
     0
100
AcDbMText
 10
603.5631358174587
 20
369.6804072761571
 30
0.0
 40
5.0
 41
0.0
 71
     5
 72
     1
  1
\A1;68
1001
ACAD
1000
MTEXTBEGIN
1070
    73
1070
     1
1070
    44
1040
1.0
1070
    74
1070
     0
1000
MTEXTEND
  0
POINT
  5
6F3E
330
6F37
100
AcDbEntity
  8
DEFPOINTS
 62
     0
100
AcDbPoint
 10
570.9319793879275
 20
395.6756659464798
 30
0.0
  0
POINT
  5
6F3F
330
6F37
100
AcDbEntity
  8
DEFPOINTS
 62
     0
100
AcDbPoint
 10
638.9321143879275
 20
395.6756659464798
 30
0.0
  0
POINT
  5
6F40
330
6F37
100
AcDbEntity
  8
DEFPOINTS
 62
     0
100
AcDbPoint
 10
638.9321143879275
 20
365.6804072761571
 30
0.0
  0
ENDBLK
  5
6F42
330
6F37
100
AcDbEntity
  8
0
100
AcDbBlockEnd
  0
BLOCK
  5
6F94
330
6F8A
100
AcDbEntity
  8
0
100
AcDbBlockBegin
  2
*D43
 70
     1
 10
0.0
 20
0.0
 30
0.0
  3
*D43
  1

  0
LINE
  5
7428
330
6F8A
100
AcDbEntity
  8
30
  6
CONTINUOUS
 62
     0
100
AcDbLine
 10
35.00006800000005
 20
-180.8472690210347
 30
0.0
 11
79.75542569104494
 21
-180.8472690210349
 31
0.0
  0
LINE
  5
7429
330
6F8A
100
AcDbEntity
  8
30
  6
CONTINUOUS
 62
     0
100
AcDbLine
 10
35.00006800000005
 20
-320.847519021035
 30
0.0
 11
79.75542569104494
 21
-320.847519021035
 31
0.0
  0
LINE
  5
742A
330
6F8A
100
AcDbEntity
  8
30
  6
CONTINUOUS
 62
     0
100
AcDbLine
 10
79.25542569104495
 20
-182.8472690210348
 30
0.0
 11
79.25542569104493
 21
-318.847519021035
 31
0.0
  0
INSERT
  5
742B
330
6F8A
100
AcDbEntity
  8
30
  6
CONTINUOUS
 62
     0
100
AcDbBlockReference
  2
_OPEN
 10
79.25542569104495
 20
-180.8472690210349
 30
0.0
 41
2.0
 42
2.0
 43
2.0
 50
90.0
  0
INSERT
  5
742C
330
6F8A
100
AcDbEntity
  8
30
  6
CONTINUOUS
 62
     0
100
AcDbBlockReference
  2
_OPEN
 10
79.25542569104493
 20
-320.847519021035
 30
0.0
 41
2.0
 42
2.0
 43
2.0
 50
270.0
  0
MTEXT
  5
742D
330
6F8A
100
AcDbEntity
  8
30
  6
CONTINUOUS
 62
     0
100
AcDbMText
 10
76.25542569104499
 20
-250.8473940210349
 30
0.0
 40
4.0
 41
0.0
 71
     5
 72
     1
  1
\A1;140
 11
0.0000000000000001
 21
1.0
 31
0.0
1001
ACAD
1000
MTEXTBEGIN
1070
    73
1070
     1
1070
    44
1040
1.0
1070
    74
1070
     0
1000
MTEXTEND
  0
POINT
  5
742E
330
6F8A
100
AcDbEntity
  8
DEFPOINTS
  6
CONTINUOUS
 62
     0
100
AcDbPoint
 10
34.00006800000005
 20
-180.8472690210347
 30
0.0
  0
POINT
  5
742F
330
6F8A
100
AcDbEntity
  8
DEFPOINTS
  6
CONTINUOUS
 62
     0
100
AcDbPoint
 10
34.00006800000005
 20
-320.847519021035
 30
0.0
  0
POINT
  5
7430
330
6F8A
100
AcDbEntity
  8
DEFPOINTS
  6
CONTINUOUS
 62
     0
100
AcDbPoint
 10
79.25542569104493
 20
-320.847519021035
 30
0.0
  0
ENDBLK
  5
6F95
330
6F8A
100
AcDbEntity
  8
0
100
AcDbBlockEnd
  0
BLOCK
  5
6FA0
330
6F96
100
AcDbEntity
  8
0
100
AcDbBlockBegin
  2
*D44
 70
     1
 10
0.0
 20
0.0
 30
0.0
  3
*D44
  1

  0
LINE
  5
7431
330
6F96
100
AcDbEntity
  8
30
  6
CONTINUOUS
 62
     0
100
AcDbLine
 10
45.53668000000004
 20
-217.8473940210349
 30
0.0
 11
67.09407580484921
 21
-217.8473940210349
 31
0.0
  0
LINE
  5
7432
330
6F96
100
AcDbEntity
  8
30
  6
CONTINUOUS
 62
     0
100
AcDbLine
 10
45.53668000000004
 20
-283.8473940210351
 30
0.0
 11
67.09407580484921
 21
-283.8473940210351
 31
0.0
  0
LINE
  5
7433
330
6F96
100
AcDbEntity
  8
30
  6
CONTINUOUS
 62
     0
100
AcDbLine
 10
66.59407580484921
 20
-219.8473940210349
 30
0.0
 11
66.59407580484921
 21
-281.8473940210351
 31
0.0
  0
INSERT
  5
7434
330
6F96
100
AcDbEntity
  8
30
  6
CONTINUOUS
 62
     0
100
AcDbBlockReference
  2
_OPEN
 10
66.59407580484921
 20
-217.8473940210349
 30
0.0
 41
2.0
 42
2.0
 43
2.0
 50
90.0
  0
INSERT
  5
7435
330
6F96
100
AcDbEntity
  8
30
  6
CONTINUOUS
 62
     0
100
AcDbBlockReference
  2
_OPEN
 10
66.59407580484921
 20
-283.8473940210351
 30
0.0
 41
2.0
 42
2.0
 43
2.0
 50
270.0
  0
MTEXT
  5
7436
330
6F96
100
AcDbEntity
  8
30
  6
CONTINUOUS
 62
     0
100
AcDbMText
 10
63.59407580484924
 20
-251.1497533389011
 30
0.0
 40
4.0
 41
0.0
 71
     5
 72
     1
  1
\A1;66
 11
0.0000000000000001
 21
1.0
 31
0.0
1001
ACAD
1000
MTEXTBEGIN
1070
    73
1070
     1
1070
    44
1040
1.0
1070
    74
1070
     0
1000
MTEXTEND
  0
POINT
  5
7437
330
6F96
100
AcDbEntity
  8
DEFPOINTS
  6
CONTINUOUS
 62
     0
100
AcDbPoint
 10
44.53668000000003
 20
-217.8473940210349
 30
0.0
  0
POINT
  5
7438
330
6F96
100
AcDbEntity
  8
DEFPOINTS
  6
CONTINUOUS
 62
     0
100
AcDbPoint
 10
44.53668000000003
 20
-283.8473940210351
 30
0.0
  0
POINT
  5
7439
330
6F96
100
AcDbEntity
  8
DEFPOINTS
  6
CONTINUOUS
 62
     0
100
AcDbPoint
 10
66.59407580484921
 20
-283.8473940210351
 30
0.0
  0
ENDBLK
  5
6FA1
330
6F96
100
AcDbEntity
  8
0
100
AcDbBlockEnd
  0
BLOCK
  5
6FAC
330
6FA2
100
AcDbEntity
  8
0
100
AcDbBlockBegin
  2
*D45
 70
     1
 10
0.0
 20
0.0
 30
0.0
  3
*D45
  1

  0
LINE
  5
743A
330
6FA2
100
AcDbEntity
  8
30
  6
CONTINUOUS
 62
     0
100
AcDbLine
 10
-39.00000000000023
 20
-292.186431021035
 30
0.0
 11
-39.00000000000023
 21
-364.8148085797108
 31
0.0
  0
LINE
  5
743B
330
6FA2
100
AcDbEntity
  8
30
  6
CONTINUOUS
 62
     0
100
AcDbLine
 10
38.99999999999987
 20
-292.186431021035
 30
0.0
 11
38.99999999999986
 21
-364.8148085797108
 31
0.0
  0
LINE
  5
743C
330
6FA2
100
AcDbEntity
  8
30
  6
CONTINUOUS
 62
     0
100
AcDbLine
 10
-37.00000000000022
 20
-364.3148085797108
 30
0.0
 11
36.99999999999988
 21
-364.3148085797108
 31
0.0
  0
INSERT
  5
743D
330
6FA2
100
AcDbEntity
  8
30
  6
CONTINUOUS
 62
     0
100
AcDbBlockReference
  2
_OPEN
 10
-39.00000000000023
 20
-364.3148085797108
 30
0.0
 41
2.0
 42
2.0
 43
2.0
 50
180.0
  0
INSERT
  5
743E
330
6FA2
100
AcDbEntity
  8
30
  6
CONTINUOUS
 62
     0
100
AcDbBlockReference
  2
_OPEN
 10
38.99999999999986
 20
-364.3148085797108
 30
0.0
 41
2.0
 42
2.0
 43
2.0
  0
MTEXT
  5
743F
330
6FA2
100
AcDbEntity
  8
30
  6
CONTINUOUS
 62
     0
100
AcDbMText
 10
-0.8295229488772973
 20
-361.314808579711
 30
0.0
 40
4.0
 41
0.0
 71
     5
 72
     1
  1
\A1;78
1001
ACAD
1000
MTEXTBEGIN
1070
    73
1070
     1
1070
    44
1040
1.0
1070
    74
1070
     0
1000
MTEXTEND
  0
POINT
  5
7440
330
6FA2
100
AcDbEntity
  8
DEFPOINTS
  6
CONTINUOUS
 62
     0
100
AcDbPoint
 10
-39.00000000000023
 20
-291.1864310210351
 30
0.0
  0
POINT
  5
7441
330
6FA2
100
AcDbEntity
  8
DEFPOINTS
  6
CONTINUOUS
 62
     0
100
AcDbPoint
 10
38.99999999999987
 20
-291.1864310210351
 30
0.0
  0
POINT
  5
7442
330
6FA2
100
AcDbEntity
  8
DEFPOINTS
  6
CONTINUOUS
 62
     0
100
AcDbPoint
 10
38.99999999999986
 20
-364.3148085797108
 30
0.0
  0
ENDBLK
  5
6FAD
330
6FA2
100
AcDbEntity
  8
0
100
AcDbBlockEnd
  0
BLOCK
  5
6FB8
330
6FAE
100
AcDbEntity
  8
0
100
AcDbBlockBegin
  2
*D46
 70
     1
 10
0.0
 20
0.0
 30
0.0
  3
*D46
  1

  0
LINE
  5
7443
330
6FAE
100
AcDbEntity
  8
30
  6
CONTINUOUS
 62
     0
100
AcDbLine
 10
-34.00006699999994
 20
-321.8475190210351
 30
0.0
 11
-34.00006699999994
 21
-351.3427776913576
 31
0.0
  0
LINE
  5
7444
330
6FAE
100
AcDbEntity
  8
30
  6
CONTINUOUS
 62
     0
100
AcDbLine
 10
34.00006800000005
 20
-321.8475190210351
 30
0.0
 11
34.00006800000005
 21
-351.3427776913576
 31
0.0
  0
LINE
  5
7445
330
6FAE
100
AcDbEntity
  8
30
  6
CONTINUOUS
 62
     0
100
AcDbLine
 10
-32.00006699999994
 20
-350.8427776913578
 30
0.0
 11
32.00006800000005
 21
-350.8427776913578
 31
0.0
  0
INSERT
  5
7446
330
6FAE
100
AcDbEntity
  8
30
  6
CONTINUOUS
 62
     0
100
AcDbBlockReference
  2
_OPEN
 10
-34.00006699999994
 20
-350.8427776913578
 30
0.0
 41
2.0
 42
2.0
 43
2.0
 50
180.0
  0
INSERT
  5
7447
330
6FAE
100
AcDbEntity
  8
30
  6
CONTINUOUS
 62
     0
100
AcDbBlockReference
  2
_OPEN
 10
34.00006800000005
 20
-350.8427776913578
 30
0.0
 41
2.0
 42
2.0
 43
2.0
  0
MTEXT
  5
7448
330
6FAE
100
AcDbEntity
  8
30
  6
CONTINUOUS
 62
     0
100
AcDbMText
 10
-1.368910570468755
 20
-347.8427776913578
 30
0.0
 40
4.0
 41
0.0
 71
     5
 72
     1
  1
\A1;68
1001
ACAD
1000
MTEXTBEGIN
1070
    73
1070
     1
1070
    44
1040
1.0
1070
    74
1070
     0
1000
MTEXTEND
  0
POINT
  5
7449
330
6FAE
100
AcDbEntity
  8
DEFPOINTS
  6
CONTINUOUS
 62
     0
100
AcDbPoint
 10
-34.00006699999994
 20
-320.847519021035
 30
0.0
  0
POINT
  5
744A
330
6FAE
100
AcDbEntity
  8
DEFPOINTS
  6
CONTINUOUS
 62
     0
100
AcDbPoint
 10
34.00006800000005
 20
-320.847519021035
 30
0.0
  0
POINT
  5
744B
330
6FAE
100
AcDbEntity
  8
DEFPOINTS
  6
CONTINUOUS
 62
     0
100
AcDbPoint
 10
34.00006800000005
 20
-350.8427776913578
 30
0.0
  0
ENDBLK
  5
6FB9
330
6FAE
100
AcDbEntity
  8
0
100
AcDbBlockEnd
  0
BLOCK
  5
6FE9
330
6FDF
100
AcDbEntity
  8
0
100
AcDbBlockBegin
  2
*D47
 70
     1
 10
0.0
 20
0.0
 30
0.0
  3
*D47
  1

  0
LINE
  5
6FE0
330
6FDF
100
AcDbEntity
  8
0
 62
     0
100
AcDbLine
 10
134.6411873879274
 20
166.06783494648
 30
0.0
 11
134.6411873879274
 21
100.733846585836
 31
0.0
  0
LINE
  5
6FE1
330
6FDF
100
AcDbEntity
  8
0
 62
     0
100
AcDbLine
 10
109.6411873879274
 20
115.29426794648
 30
0.0
 11
109.6411873879274
 21
100.733846585836
 31
0.0
  0
LINE
  5
6FE2
330
6FDF
100
AcDbEntity
  8
0
 62
     0
100
AcDbLine
 10
130.6411873879274
 20
101.733846585836
 30
0.0
 11
113.6411873879274
 21
101.733846585836
 31
0.0
  0
INSERT
  5
6FE3
330
6FDF
100
AcDbEntity
  8
0
 62
     0
100
AcDbBlockReference
  2
_OPEN
 10
134.6411873879274
 20
101.733846585836
 30
0.0
 41
4.0
 42
4.0
 43
4.0
  0
INSERT
  5
6FE4
330
6FDF
100
AcDbEntity
  8
0
 62
     0
100
AcDbBlockReference
  2
_OPEN
 10
109.6411873879274
 20
101.733846585836
 30
0.0
 41
4.0
 42
4.0
 43
4.0
 50
180.0
  0
MTEXT
  5
6FE5
330
6FDF
100
AcDbEntity
  8
0
 62
     0
100
AcDbMText
 10
122.1411873879274
 20
105.733846585836
 30
0.0
 40
5.0
 41
0.0
 71
     5
 72
     1
  1
\A1;25
1001
ACAD
1000
MTEXTBEGIN
1070
    73
1070
     1
1070
    44
1040
1.0
1070
    74
1070
     0
1000
MTEXTEND
  0
POINT
  5
6FE6
330
6FDF
100
AcDbEntity
  8
DEFPOINTS
 62
     0
100
AcDbPoint
 10
134.6411873879274
 20
167.06783494648
 30
0.0
  0
POINT
  5
6FE7
330
6FDF
100
AcDbEntity
  8
DEFPOINTS
 62
     0
100
AcDbPoint
 10
109.6411873879274
 20
116.29426794648
 30
0.0
  0
POINT
  5
6FE8
330
6FDF
100
AcDbEntity
  8
DEFPOINTS
 62
     0
100
AcDbPoint
 10
109.6411873879274
 20
101.733846585836
 30
0.0
  0
ENDBLK
  5
6FEA
330
6FDF
100
AcDbEntity
  8
0
100
AcDbBlockEnd
  0
BLOCK
  5
6FF6
330
6FEB
100
AcDbEntity
  8
0
100
AcDbBlockBegin
  2
*D48
 70
     1
 10
0.0
 20
0.0
 30
0.0
  3
*D48
  1

  0
LINE
  5
6FEC
330
6FEB
100
AcDbEntity
  8
0
 62
     0
100
AcDbLine
 10
117.6411873879274
 20
125.90338894648
 30
0.0
 11
215.0408030383018
 21
125.9033889464798
 31
0.0
  0
LINE
  5
6FED
330
6FEB
100
AcDbEntity
  8
0
 62
     0
100
AcDbLine
 10
214.0408030383018
 20
137.4033889464799
 30
0.0
 11
214.0408030383018
 21
141.4033889464799
 31
0.0
  0
LINE
  5
6FEE
330
6FEB
100
AcDbEntity
  8
0
 62
     0
100
AcDbLine
 10
214.0408030383018
 20
121.9033889464799
 30
0.0
 11
214.0408030383018
 21
117.90338894648
 31
0.0
  0
LINE
  5
6FEF
330
6FEB
100
AcDbEntity
  8
0
 62
     0
100
AcDbLine
 10
214.0408030383018
 20
133.40338894648
 30
0.0
 11
214.0408030383018
 21
125.9033889464798
 31
0.0
  0
INSERT
  5
6FF0
330
6FEB
100
AcDbEntity
  8
0
 62
     0
100
AcDbBlockReference
  2
_OPEN
 10
214.0408030383018
 20
133.40338894648
 30
0.0
 41
4.0
 42
4.0
 43
4.0
 50
270.0
  0
INSERT
  5
6FF1
330
6FEB
100
AcDbEntity
  8
0
 62
     0
100
AcDbBlockReference
  2
_OPEN
 10
214.0408030383018
 20
125.9033889464798
 30
0.0
 41
4.0
 42
4.0
 43
4.0
 50
90.0
  0
MTEXT
  5
6FF2
330
6FEB
100
AcDbEntity
  8
0
 62
     0
100
AcDbMText
 10
210.0408030383017
 20
129.65338894648
 30
0.0
 40
5.0
 41
0.0
 71
     5
 72
     1
  1
\A1;8
 11
0.0000000000000001
 21
1.0
 31
0.0
1001
ACAD
1000
MTEXTBEGIN
1070
    73
1070
     1
1070
    44
1040
1.0
1070
    74
1070
     0
1000
MTEXTEND
  0
POINT
  5
6FF3
330
6FEB
100
AcDbEntity
  8
DEFPOINTS
 62
     0
100
AcDbPoint
 10
121.0694783879274
 20
133.40338894648
 30
0.0
  0
POINT
  5
6FF4
330
6FEB
100
AcDbEntity
  8
DEFPOINTS
 62
     0
100
AcDbPoint
 10
116.6411873879274
 20
125.90338894648
 30
0.0
  0
POINT
  5
6FF5
330
6FEB
100
AcDbEntity
  8
DEFPOINTS
 62
     0
100
AcDbPoint
 10
214.0408030383018
 20
125.9033889464798
 30
0.0
  0
ENDBLK
  5
6FF7
330
6FEB
100
AcDbEntity
  8
0
100
AcDbBlockEnd
  0
BLOCK
  5
7002
330
6FF8
100
AcDbEntity
  8
0
100
AcDbBlockBegin
  2
*D49
 70
     1
 10
0.0
 20
0.0
 30
0.0
  3
*D49
  1

  0
LINE
  5
6FF9
330
6FF8
100
AcDbEntity
  8
0
 62
     0
100
AcDbLine
 10
170.6411893879274
 20
283.00190394648
 30
0.0
 11
215.0408030383018
 21
283.00190394648
 31
0.0
  0
LINE
  5
6FFA
330
6FF8
100
AcDbEntity
  8
0
 62
     0
100
AcDbLine
 10
122.0694783879274
 20
133.40338894648
 30
0.0
 11
215.0408030383018
 21
133.40338894648
 31
0.0
  0
LINE
  5
6FFB
330
6FF8
100
AcDbEntity
  8
0
 62
     0
100
AcDbLine
 10
214.0408030383018
 20
279.00190394648
 30
0.0
 11
214.0408030383018
 21
137.4033889464799
 31
0.0
  0
INSERT
  5
6FFC
330
6FF8
100
AcDbEntity
  8
0
 62
     0
100
AcDbBlockReference
  2
_OPEN
 10
214.0408030383018
 20
283.00190394648
 30
0.0
 41
4.0
 42
4.0
 43
4.0
 50
90.0
  0
INSERT
  5
6FFD
330
6FF8
100
AcDbEntity
  8
0
 62
     0
100
AcDbBlockReference
  2
_OPEN
 10
214.0408030383018
 20
133.40338894648
 30
0.0
 41
4.0
 42
4.0
 43
4.0
 50
270.0
  0
MTEXT
  5
6FFE
330
6FF8
100
AcDbEntity
  8
0
 62
     0
100
AcDbMText
 10
210.0408030383017
 20
208.2026464464799
 30
0.0
 40
5.0
 41
0.0
 71
     5
 72
     1
  1
\A1;150
 11
0.0000000000000001
 21
1.0
 31
0.0
1001
ACAD
1000
MTEXTBEGIN
1070
    73
1070
     1
1070
    44
1040
1.0
1070
    74
1070
     0
1000
MTEXTEND
  0
POINT
  5
6FFF
330
6FF8
100
AcDbEntity
  8
DEFPOINTS
 62
     0
100
AcDbPoint
 10
169.6411893879274
 20
283.00190394648
 30
0.0
  0
POINT
  5
7000
330
6FF8
100
AcDbEntity
  8
DEFPOINTS
 62
     0
100
AcDbPoint
 10
121.0694783879274
 20
133.40338894648
 30
0.0
  0
POINT
  5
7001
330
6FF8
100
AcDbEntity
  8
DEFPOINTS
 62
     0
100
AcDbPoint
 10
214.0408030383018
 20
133.40338894648
 30
0.0
  0
ENDBLK
  5
7003
330
6FF8
100
AcDbEntity
  8
0
100
AcDbBlockEnd
  0
BLOCK
  5
700E
330
7004
100
AcDbEntity
  8
0
100
AcDbBlockBegin
  2
*D50
 70
     1
 10
0.0
 20
0.0
 30
0.0
  3
*D50
  1

  0
LINE
  5
7005
330
7004
100
AcDbEntity
  8
0
 62
     0
100
AcDbLine
 10
169.6411873879274
 20
283.00190394648
 30
0.0
 11
196.0308222925585
 21
283.00190394648
 31
0.0
  0
LINE
  5
7006
330
7004
100
AcDbEntity
  8
0
 62
     0
100
AcDbLine
 10
147.0694783879274
 20
183.40338894648
 30
0.0
 11
196.0308222925585
 21
183.4033889464799
 31
0.0
  0
LINE
  5
7007
330
7004
100
AcDbEntity
  8
0
 62
     0
100
AcDbLine
 10
195.0308222925585
 20
279.00190394648
 30
0.0
 11
195.0308222925585
 21
187.4033889464799
 31
0.0
  0
INSERT
  5
7008
330
7004
100
AcDbEntity
  8
0
 62
     0
100
AcDbBlockReference
  2
_OPEN
 10
195.0308222925585
 20
283.00190394648
 30
0.0
 41
4.0
 42
4.0
 43
4.0
 50
90.0
  0
INSERT
  5
7009
330
7004
100
AcDbEntity
  8
0
 62
     0
100
AcDbBlockReference
  2
_OPEN
 10
195.0308222925585
 20
183.4033889464799
 30
0.0
 41
4.0
 42
4.0
 43
4.0
 50
270.0
  0
MTEXT
  5
700A
330
7004
100
AcDbEntity
  8
0
 62
     0
100
AcDbMText
 10
191.0308222925585
 20
233.2026464464799
 30
0.0
 40
5.0
 41
0.0
 71
     5
 72
     1
  1
\A1;100
 11
0.0000000000000001
 21
1.0
 31
0.0
1001
ACAD
1000
MTEXTBEGIN
1070
    73
1070
     1
1070
    44
1040
1.0
1070
    74
1070
     0
1000
MTEXTEND
  0
POINT
  5
700B
330
7004
100
AcDbEntity
  8
DEFPOINTS
 62
     0
100
AcDbPoint
 10
168.6411873879274
 20
283.00190394648
 30
0.0
  0
POINT
  5
700C
330
7004
100
AcDbEntity
  8
DEFPOINTS
 62
     0
100
AcDbPoint
 10
146.0694783879274
 20
183.40338894648
 30
0.0
  0
POINT
  5
700D
330
7004
100
AcDbEntity
  8
DEFPOINTS
 62
     0
100
AcDbPoint
 10
195.0308222925585
 20
183.4033889464799
 30
0.0
  0
ENDBLK
  5
700F
330
7004
100
AcDbEntity
  8
0
100
AcDbBlockEnd
  0
BLOCK
  5
701C
330
7010
100
AcDbEntity
  8
0
100
AcDbBlockBegin
  2
*D51
 70
     1
 10
0.0
 20
0.0
 30
0.0
  3
*D51
  1

  0
LINE
  5
7011
330
7010
100
AcDbEntity
  8
0
 62
     0
100
AcDbLine
 10
148.0694803879273
 20
183.40338894648
 30
0.0
 11
196.0308222925585
 21
183.4033889464799
 31
0.0
  0
LINE
  5
7012
330
7010
100
AcDbEntity
  8
0
 62
     0
100
AcDbLine
 10
142.1411873879273
 20
175.40338894648
 30
0.0
 11
196.0308222925585
 21
175.4033889464799
 31
0.0
  0
LINE
  5
7013
330
7010
100
AcDbEntity
  8
0
 62
     0
100
AcDbLine
 10
195.0308222925585
 20
187.4033889464799
 30
0.0
 11
195.0308222925585
 21
191.4033889464798
 31
0.0
  0
LINE
  5
7014
330
7010
100
AcDbEntity
  8
0
 62
     0
100
AcDbLine
 10
195.0308222925585
 20
171.4033889464799
 30
0.0
 11
195.0308222925585
 21
142.7367222798133
 31
0.0
  0
LINE
  5
7015
330
7010
100
AcDbEntity
  8
0
 62
     0
100
AcDbLine
 10
195.0308222925585
 20
183.4033889464799
 30
0.0
 11
195.0308222925585
 21
175.4033889464799
 31
0.0
  0
INSERT
  5
7016
330
7010
100
AcDbEntity
  8
0
 62
     0
100
AcDbBlockReference
  2
_OPEN
 10
195.0308222925585
 20
183.4033889464799
 30
0.0
 41
4.0
 42
4.0
 43
4.0
 50
270.0
  0
INSERT
  5
7017
330
7010
100
AcDbEntity
  8
0
 62
     0
100
AcDbBlockReference
  2
_OPEN
 10
195.0308222925585
 20
175.4033889464799
 30
0.0
 41
4.0
 42
4.0
 43
4.0
 50
90.0
  0
MTEXT
  5
7018
330
7010
100
AcDbEntity
  8
0
 62
     0
100
AcDbMText
 10
191.0308222925585
 20
155.0700556131466
 30
0.0
 40
5.0
 41
0.0
 71
     5
 72
     1
  1
\A1;8.0000
 11
0.0000000000000001
 21
1.0
 31
0.0
1001
ACAD
1000
MTEXTBEGIN
1070
    73
1070
     1
1070
    44
1040
1.0
1070
    74
1070
     0
1000
MTEXTEND
  0
POINT
  5
7019
330
7010
100
AcDbEntity
  8
DEFPOINTS
 62
     0
100
AcDbPoint
 10
147.0694803879274
 20
183.40338894648
 30
0.0
  0
POINT
  5
701A
330
7010
100
AcDbEntity
  8
DEFPOINTS
 62
     0
100
AcDbPoint
 10
141.1411873879274
 20
175.40338894648
 30
0.0
  0
POINT
  5
701B
330
7010
100
AcDbEntity
  8
DEFPOINTS
 62
     0
100
AcDbPoint
 10
195.0308222925585
 20
175.4033889464799
 30
0.0
  0
ENDBLK
  5
701D
330
7010
100
AcDbEntity
  8
0
100
AcDbBlockEnd
  0
BLOCK
  5
7136
330
712C
100
AcDbEntity
  8
0
100
AcDbBlockBegin
  2
*D52
 70
     1
 10
0.0
 20
0.0
 30
0.0
  3
*D52
  1

  0
LINE
  5
724F
330
712C
100
AcDbEntity
  8
30
  6
CONTINUOUS
 62
     0
100
AcDbLine
 10
47.5
 20
188.6538792918458
 30
0.0
 11
73.38963490463115
 21
188.6538792918458
 31
0.0
  0
LINE
  5
7250
330
712C
100
AcDbEntity
  8
30
  6
CONTINUOUS
 62
     0
100
AcDbLine
 10
24.928291
 20
288.2523942918459
 30
0.0
 11
73.38963490463118
 21
288.2523942918459
 31
0.0
  0
LINE
  5
7251
330
712C
100
AcDbEntity
  8
30
  6
CONTINUOUS
 62
     0
100
AcDbLine
 10
72.88963490463115
 20
190.6538792918458
 30
0.0
 11
72.88963490463117
 21
286.2523942918459
 31
0.0
  0
INSERT
  5
7252
330
712C
100
AcDbEntity
  8
30
  6
CONTINUOUS
 62
     0
100
AcDbBlockReference
  2
_OPEN
 10
72.88963490463115
 20
188.6538792918458
 30
0.0
 41
2.0
 42
2.0
 43
2.0
 50
270.0
  0
INSERT
  5
7253
330
712C
100
AcDbEntity
  8
30
  6
CONTINUOUS
 62
     0
100
AcDbBlockReference
  2
_OPEN
 10
72.88963490463117
 20
288.2523942918459
 30
0.0
 41
2.0
 42
2.0
 43
2.0
 50
90.0
  0
MTEXT
  5
7254
330
712C
100
AcDbEntity
  8
30
  6
CONTINUOUS
 62
     0
100
AcDbMText
 10
69.88963490463112
 20
238.4531367918459
 30
0.0
 40
4.0
 41
0.0
 71
     5
 72
     1
  1
\A1;100
 11
0.0000000000000001
 21
1.0
 31
0.0
1001
ACAD
1000
MTEXTBEGIN
1070
    73
1070
     1
1070
    44
1040
1.0
1070
    74
1070
     0
1000
MTEXTEND
  0
POINT
  5
7255
330
712C
100
AcDbEntity
  8
DEFPOINTS
  6
CONTINUOUS
 62
     0
100
AcDbPoint
 10
46.5
 20
188.6538792918458
 30
0.0
  0
POINT
  5
7256
330
712C
100
AcDbEntity
  8
DEFPOINTS
  6
CONTINUOUS
 62
     0
100
AcDbPoint
 10
23.928291
 20
288.2523942918459
 30
0.0
  0
POINT
  5
7257
330
712C
100
AcDbEntity
  8
DEFPOINTS
  6
CONTINUOUS
 62
     0
100
AcDbPoint
 10
72.88963490463117
 20
288.2523942918459
 30
0.0
  0
ENDBLK
  5
7137
330
712C
100
AcDbEntity
  8
0
100
AcDbBlockEnd
  0
BLOCK
  5
7144
330
7138
100
AcDbEntity
  8
0
100
AcDbBlockBegin
  2
*D53
 70
     1
 10
0.0
 20
0.0
 30
0.0
  3
*D53
  1

  0
LINE
  5
7261
330
7138
100
AcDbEntity
  8
30
  6
CONTINUOUS
 62
     0
100
AcDbLine
 10
25.928293
 20
288.2523942918459
 30
0.0
 11
73.38963490463118
 21
288.2523942918459
 31
0.0
  0
LINE
  5
7262
330
7138
100
AcDbEntity
  8
30
  6
CONTINUOUS
 62
     0
100
AcDbLine
 10
20.0
 20
296.2523942918459
 30
0.0
 11
73.38963490463118
 21
296.2523942918459
 31
0.0
  0
LINE
  5
7263
330
7138
100
AcDbEntity
  8
30
  6
CONTINUOUS
 62
     0
100
AcDbLine
 10
72.88963490463117
 20
290.2523942918459
 30
0.0
 11
72.88963490463117
 21
294.2523942918459
 31
0.0
  0
INSERT
  5
7264
330
7138
100
AcDbEntity
  8
30
  6
CONTINUOUS
 62
     0
100
AcDbBlockReference
  2
_OPEN
 10
72.88963490463117
 20
288.2523942918459
 30
0.0
 41
2.0
 42
2.0
 43
2.0
 50
270.0
  0
INSERT
  5
7265
330
7138
100
AcDbEntity
  8
30
  6
CONTINUOUS
 62
     0
100
AcDbBlockReference
  2
_OPEN
 10
72.88963490463117
 20
296.2523942918459
 30
0.0
 41
2.0
 42
2.0
 43
2.0
 50
90.0
  0
MTEXT
  5
7266
330
7138
100
AcDbEntity
  8
30
  6
CONTINUOUS
 62
     0
100
AcDbMText
 10
69.88963490463112
 20
292.2523942918459
 30
0.0
 40
4.0
 41
0.0
 71
     5
 72
     1
  1
\A1;8
 11
0.0000000000000001
 21
1.0
 31
0.0
1001
ACAD
1000
MTEXTBEGIN
1070
    73
1070
     1
1070
    44
1040
1.0
1070
    74
1070
     0
1000
MTEXTEND
  0
POINT
  5
7267
330
7138
100
AcDbEntity
  8
DEFPOINTS
  6
CONTINUOUS
 62
     0
100
AcDbPoint
 10
24.92829299999999
 20
288.2523942918459
 30
0.0
  0
POINT
  5
7268
330
7138
100
AcDbEntity
  8
DEFPOINTS
  6
CONTINUOUS
 62
     0
100
AcDbPoint
 10
19.0
 20
296.2523942918459
 30
0.0
  0
POINT
  5
7269
330
7138
100
AcDbEntity
  8
DEFPOINTS
  6
CONTINUOUS
 62
     0
100
AcDbPoint
 10
72.88963490463117
 20
296.2523942918459
 30
0.0
  0
ENDBLK
  5
7145
330
7138
100
AcDbEntity
  8
0
100
AcDbBlockEnd
  0
BLOCK
  5
7150
330
7146
100
AcDbEntity
  8
0
100
AcDbBlockBegin
  2
*D54
 70
     1
 10
0.0
 20
0.0
 30
0.0
  3
*D54
  1

  0
LINE
  5
726A
330
7146
100
AcDbEntity
  8
30
  6
CONTINUOUS
 62
     0
100
AcDbLine
 10
12.5
 20
305.5879482918459
 30
0.0
 11
12.5
 21
370.4219366524897
 31
0.0
  0
LINE
  5
726B
330
7146
100
AcDbEntity
  8
30
  6
CONTINUOUS
 62
     0
100
AcDbLine
 10
-12.5
 20
356.3615152918457
 30
0.0
 11
-12.5
 21
370.4219366524897
 31
0.0
  0
LINE
  5
726C
330
7146
100
AcDbEntity
  8
30
  6
CONTINUOUS
 62
     0
100
AcDbLine
 10
10.5
 20
369.9219366524896
 30
0.0
 11
-10.49999999999999
 21
369.9219366524896
 31
0.0
  0
INSERT
  5
726D
330
7146
100
AcDbEntity
  8
30
  6
CONTINUOUS
 62
     0
100
AcDbBlockReference
  2
_OPEN
 10
12.5
 20
369.9219366524896
 30
0.0
 41
2.0
 42
2.0
 43
2.0
  0
INSERT
  5
726E
330
7146
100
AcDbEntity
  8
30
  6
CONTINUOUS
 62
     0
100
AcDbBlockReference
  2
_OPEN
 10
-12.5
 20
369.9219366524896
 30
0.0
 41
2.0
 42
2.0
 43
2.0
 50
180.0
  0
MTEXT
  5
726F
330
7146
100
AcDbEntity
  8
30
  6
CONTINUOUS
 62
     0
100
AcDbMText
 10
0.0000000000000028
 20
372.9219366524897
 30
0.0
 40
4.0
 41
0.0
 71
     5
 72
     1
  1
\A1;25
1001
ACAD
1000
MTEXTBEGIN
1070
    73
1070
     1
1070
    44
1040
1.0
1070
    74
1070
     0
1000
MTEXTEND
  0
POINT
  5
7270
330
7146
100
AcDbEntity
  8
DEFPOINTS
  6
CONTINUOUS
 62
     0
100
AcDbPoint
 10
12.5
 20
304.5879482918459
 30
0.0
  0
POINT
  5
7271
330
7146
100
AcDbEntity
  8
DEFPOINTS
  6
CONTINUOUS
 62
     0
100
AcDbPoint
 10
-12.5
 20
355.3615152918457
 30
0.0
  0
POINT
  5
7272
330
7146
100
AcDbEntity
  8
DEFPOINTS
  6
CONTINUOUS
 62
     0
100
AcDbPoint
 10
-12.5
 20
369.9219366524896
 30
0.0
  0
ENDBLK
  5
7151
330
7146
100
AcDbEntity
  8
0
100
AcDbBlockEnd
  0
BLOCK
  5
715D
330
7152
100
AcDbEntity
  8
0
100
AcDbBlockBegin
  2
*D55
 70
     1
 10
0.0
 20
0.0
 30
0.0
  3
*D55
  1

  0
LINE
  5
7258
330
7152
100
AcDbEntity
  8
30
  6
CONTINUOUS
 62
     0
100
AcDbLine
 10
-0.0717089999999984
 20
338.2523942918459
 30
0.0
 11
92.39961565037441
 21
338.2523942918459
 31
0.0
  0
LINE
  5
7259
330
7152
100
AcDbEntity
  8
30
  6
CONTINUOUS
 62
     0
100
AcDbLine
 10
-4.5
 20
345.7523942918458
 30
0.0
 11
92.39961565037441
 21
345.7523942918458
 31
0.0
  0
LINE
  5
725A
330
7152
100
AcDbEntity
  8
30
  6
CONTINUOUS
 62
     0
100
AcDbLine
 10
91.89961565037441
 20
340.2523942918459
 30
0.0
 11
91.89961565037441
 21
343.7523942918458
 31
0.0
  0
INSERT
  5
725B
330
7152
100
AcDbEntity
  8
30
  6
CONTINUOUS
 62
     0
100
AcDbBlockReference
  2
_OPEN
 10
91.89961565037441
 20
338.2523942918459
 30
0.0
 41
2.0
 42
2.0
 43
2.0
 50
270.0
  0
INSERT
  5
725C
330
7152
100
AcDbEntity
  8
30
  6
CONTINUOUS
 62
     0
100
AcDbBlockReference
  2
_OPEN
 10
91.89961565037441
 20
345.7523942918458
 30
0.0
 41
2.0
 42
2.0
 43
2.0
 50
90.0
  0
MTEXT
  5
725D
330
7152
100
AcDbEntity
  8
30
  6
CONTINUOUS
 62
     0
100
AcDbMText
 10
88.89961565037436
 20
342.0023942918459
 30
0.0
 40
4.0
 41
0.0
 71
     5
 72
     1
  1
\A1;8
 11
0.0000000000000001
 21
1.0
 31
0.0
1001
ACAD
1000
MTEXTBEGIN
1070
    73
1070
     1
1070
    44
1040
1.0
1070
    74
1070
     0
1000
MTEXTEND
  0
POINT
  5
725E
330
7152
100
AcDbEntity
  8
DEFPOINTS
  6
CONTINUOUS
 62
     0
100
AcDbPoint
 10
-1.071708999999998
 20
338.2523942918459
 30
0.0
  0
POINT
  5
725F
330
7152
100
AcDbEntity
  8
DEFPOINTS
  6
CONTINUOUS
 62
     0
100
AcDbPoint
 10
-5.5
 20
345.7523942918458
 30
0.0
  0
POINT
  5
7260
330
7152
100
AcDbEntity
  8
DEFPOINTS
  6
CONTINUOUS
 62
     0
100
AcDbPoint
 10
91.89961565037441
 20
345.7523942918458
 30
0.0
  0
ENDBLK
  5
715E
330
7152
100
AcDbEntity
  8
0
100
AcDbBlockEnd
  0
BLOCK
  5
7169
330
715F
100
AcDbEntity
  8
0
100
AcDbBlockBegin
  2
*D56
 70
     1
 10
0.0
 20
0.0
 30
0.0
  3
*D56
  1

  0
LINE
  5
7246
330
715F
100
AcDbEntity
  8
30
  6
CONTINUOUS
 62
     0
100
AcDbLine
 10
48.500002
 20
188.6538792918458
 30
0.0
 11
92.39961565037438
 21
188.6538792918458
 31
0.0
  0
LINE
  5
7247
330
715F
100
AcDbEntity
  8
30
  6
CONTINUOUS
 62
     0
100
AcDbLine
 10
-0.0717089999999984
 20
338.2523942918459
 30
0.0
 11
92.39961565037441
 21
338.2523942918459
 31
0.0
  0
LINE
  5
7248
330
715F
100
AcDbEntity
  8
30
  6
CONTINUOUS
 62
     0
100
AcDbLine
 10
91.89961565037441
 20
190.6538792918458
 30
0.0
 11
91.89961565037441
 21
336.2523942918459
 31
0.0
  0
INSERT
  5
7249
330
715F
100
AcDbEntity
  8
30
  6
CONTINUOUS
 62
     0
100
AcDbBlockReference
  2
_OPEN
 10
91.89961565037441
 20
188.6538792918458
 30
0.0
 41
2.0
 42
2.0
 43
2.0
 50
270.0
  0
INSERT
  5
724A
330
715F
100
AcDbEntity
  8
30
  6
CONTINUOUS
 62
     0
100
AcDbBlockReference
  2
_OPEN
 10
91.89961565037441
 20
338.2523942918459
 30
0.0
 41
2.0
 42
2.0
 43
2.0
 50
90.0
  0
MTEXT
  5
724B
330
715F
100
AcDbEntity
  8
30
  6
CONTINUOUS
 62
     0
100
AcDbMText
 10
88.89961565037436
 20
263.4531367918459
 30
0.0
 40
4.0
 41
0.0
 71
     5
 72
     1
  1
\A1;150
 11
0.0000000000000001
 21
1.0
 31
0.0
1001
ACAD
1000
MTEXTBEGIN
1070
    73
1070
     1
1070
    44
1040
1.0
1070
    74
1070
     0
1000
MTEXTEND
  0
POINT
  5
724C
330
715F
100
AcDbEntity
  8
DEFPOINTS
  6
CONTINUOUS
 62
     0
100
AcDbPoint
 10
47.50000199999998
 20
188.6538792918458
 30
0.0
  0
POINT
  5
724D
330
715F
100
AcDbEntity
  8
DEFPOINTS
  6
CONTINUOUS
 62
     0
100
AcDbPoint
 10
-1.071708999999998
 20
338.2523942918459
 30
0.0
  0
POINT
  5
724E
330
715F
100
AcDbEntity
  8
DEFPOINTS
  6
CONTINUOUS
 62
     0
100
AcDbPoint
 10
91.89961565037441
 20
338.2523942918459
 30
0.0
  0
ENDBLK
  5
716A
330
715F
100
AcDbEntity
  8
0
100
AcDbBlockEnd
  0
BLOCK
  5
729F
330
7299
100
AcDbEntity
  8
TOP
  6
CONTINUOUS
 62
     4
100
AcDbBlockBegin
  2
*U57
 70
     1
 10
0.0
 20
0.0
 30
0.0
  3
*U57
  1

  0
LINE
  5
729A
330
7299
100
AcDbEntity
  8
1
  6
BYBLOCK
 62
     0
100
AcDbLine
 10
287.2057572385031
 20
73.79512687471603
 30
0.0
 11
276.2057572385031
 21
73.79512687471603
 31
0.0
  0
LINE
  5
729B
330
7299
100
AcDbEntity
  8
1
  6
BYBLOCK
 62
     0
100
AcDbLine
 10
296.8913158503363
 20
94.37207082491942
 30
0.0
 11
287.2057572385031
 21
73.79512687471603
 31
0.0
  0
SOLID
  5
729C
330
7299
100
AcDbEntity
  8
1
  6
BYBLOCK
 62
     0
100
AcDbTrace
 10
296.8913158503363
 20
94.37207082491942
 30
0.0
 11
296.3411501381206
 21
92.42055119794148
 31
0.0
 12
295.7379635408423
 22
92.7044708682264
 32
0.0
 13
295.7379635408423
 23
92.7044708682264
 33
0.0
  0
TEXT
  5
729D
330
7299
100
AcDbEntity
  8
TOP
  6
BYBLOCK
 62
     0
100
AcDbText
 10
274.4739864025374
 20
72.54512687281603
 30
0.0
 40
2.500000003799998
  1
 
 41
1.189062499999995
  7
UGMTXT
100
AcDbText
  0
TEXT
  5
729E
330
7299
100
AcDbEntity
  8
TOP
  6
BYBLOCK
 62
     0
100
AcDbText
 10
272.742215566572
 20
72.54512687281603
 30
0.0
 40
2.500000003799998
  1
 
 41
1.189062499999995
  7
UGMTXT
100
AcDbText
  0
ENDBLK
  5
72A0
330
7299
100
AcDbEntity
  8
0
100
AcDbBlockEnd
  0
BLOCK
  5
72AB
330
72A1
100
AcDbEntity
  8
0
100
AcDbBlockBegin
  2
*D58
 70
     1
 10
0.0
 20
0.0
 30
0.0
  3
*D58
  1

  0
LINE
  5
72A2
330
72A1
100
AcDbEntity
  8
30
  6
CONTINUOUS
 62
     0
100
AcDbLine
 10
271.9995444518525
 20
-58.99970288688223
 30
0.0
 11
271.9995444518525
 21
-34.40031878568621
 31
0.0
  0
LINE
  5
72A3
330
72A1
100
AcDbEntity
  8
30
  6
CONTINUOUS
 62
     0
100
AcDbLine
 10
286.9994701776981
 20
-63.49968060463591
 30
0.0
 11
286.9994701776981
 21
-34.40031878568621
 31
0.0
  0
LINE
  5
72A4
330
72A1
100
AcDbEntity
  8
30
  6
CONTINUOUS
 62
     0
100
AcDbLine
 10
273.9995444518525
 20
-34.90031878568621
 30
0.0
 11
284.9994701776981
 21
-34.90031878568621
 31
0.0
  0
INSERT
  5
72A5
330
72A1
100
AcDbEntity
  8
30
  6
CONTINUOUS
 62
     0
100
AcDbBlockReference
  2
_OPEN
 10
271.9995444518525
 20
-34.90031878568621
 30
0.0
 41
2.0
 42
2.0
 43
2.0
 50
180.0
  0
INSERT
  5
72A6
330
72A1
100
AcDbEntity
  8
30
  6
CONTINUOUS
 62
     0
100
AcDbBlockReference
  2
_OPEN
 10
286.9994701776981
 20
-34.90031878568621
 30
0.0
 41
2.0
 42
2.0
 43
2.0
  0
MTEXT
  5
72A7
330
72A1
100
AcDbEntity
  8
30
  6
CONTINUOUS
 62
     0
100
AcDbMText
 10
279.4995073147753
 20
-31.90031878568621
 30
0.0
 40
4.0
 41
0.0
 71
     5
 72
     1
  1
\A1;15
1001
ACAD
1000
MTEXTBEGIN
1070
    73
1070
     1
1070
    44
1040
1.0
1070
    74
1070
     0
1000
MTEXTEND
  0
POINT
  5
72A8
330
72A1
100
AcDbEntity
  8
DEFPOINTS
  6
CONTINUOUS
 62
     0
100
AcDbPoint
 10
271.9995444518525
 20
-59.99970288688222
 30
0.0
  0
POINT
  5
72A9
330
72A1
100
AcDbEntity
  8
DEFPOINTS
  6
CONTINUOUS
 62
     0
100
AcDbPoint
 10
286.9994701776981
 20
-64.49968060463591
 30
0.0
  0
POINT
  5
72AA
330
72A1
100
AcDbEntity
  8
DEFPOINTS
  6
CONTINUOUS
 62
     0
100
AcDbPoint
 10
286.9994701776981
 20
-34.90031878568621
 30
0.0
  0
ENDBLK
  5
72AC
330
72A1
100
AcDbEntity
  8
0
100
AcDbBlockEnd
  0
BLOCK
  5
72B7
330
72AD
100
AcDbEntity
  8
0
100
AcDbBlockBegin
  2
*D59
 70
     1
 10
0.0
 20
0.0
 30
0.0
  3
*D59
  1

  0
LINE
  5
72AE
330
72AD
100
AcDbEntity
  8
30
  6
CONTINUOUS
 62
     0
100
AcDbLine
 10
336.9992225971831
 20
-70.49965587958424
 30
0.0
 11
336.9992225971831
 21
-122.8998855197852
 31
0.0
  0
LINE
  5
72AF
330
72AD
100
AcDbEntity
  8
30
  6
CONTINUOUS
 62
     0
100
AcDbLine
 10
351.9991483230286
 20
-77.28671009944187
 30
0.0
 11
351.9991483230286
 21
-122.8998855197852
 31
0.0
  0
LINE
  5
72B0
330
72AD
100
AcDbEntity
  8
30
  6
CONTINUOUS
 62
     0
100
AcDbLine
 10
338.9992225971831
 20
-122.3998855197852
 30
0.0
 11
349.9991483230286
 21
-122.3998855197852
 31
0.0
  0
INSERT
  5
72B1
330
72AD
100
AcDbEntity
  8
30
  6
CONTINUOUS
 62
     0
100
AcDbBlockReference
  2
_OPEN
 10
336.9992225971831
 20
-122.3998855197852
 30
0.0
 41
2.0
 42
2.0
 43
2.0
 50
180.0
  0
INSERT
  5
72B2
330
72AD
100
AcDbEntity
  8
30
  6
CONTINUOUS
 62
     0
100
AcDbBlockReference
  2
_OPEN
 10
351.9991483230286
 20
-122.3998855197852
 30
0.0
 41
2.0
 42
2.0
 43
2.0
  0
MTEXT
  5
72B3
330
72AD
100
AcDbEntity
  8
30
  6
CONTINUOUS
 62
     0
100
AcDbMText
 10
344.4991854601058
 20
-119.3998855197851
 30
0.0
 40
4.0
 41
0.0
 71
     5
 72
     1
  1
\A1;15
1001
ACAD
1000
MTEXTBEGIN
1070
    73
1070
     1
1070
    44
1040
1.0
1070
    74
1070
     0
1000
MTEXTEND
  0
POINT
  5
72B4
330
72AD
100
AcDbEntity
  8
DEFPOINTS
  6
CONTINUOUS
 62
     0
100
AcDbPoint
 10
336.9992225971831
 20
-69.49965587958423
 30
0.0
  0
POINT
  5
72B5
330
72AD
100
AcDbEntity
  8
DEFPOINTS
  6
CONTINUOUS
 62
     0
100
AcDbPoint
 10
351.9991483230286
 20
-76.28671009944188
 30
0.0
  0
POINT
  5
72B6
330
72AD
100
AcDbEntity
  8
DEFPOINTS
  6
CONTINUOUS
 62
     0
100
AcDbPoint
 10
351.9991483230286
 20
-122.3998855197852
 30
0.0
  0
ENDBLK
  5
72B8
330
72AD
100
AcDbEntity
  8
0
100
AcDbBlockEnd
  0
BLOCK
  5
72C3
330
72B9
100
AcDbEntity
  8
0
100
AcDbBlockBegin
  2
*D60
 70
     1
 10
0.0
 20
0.0
 30
0.0
  3
*D60
  1

  0
LINE
  5
72BA
330
72B9
100
AcDbEntity
  8
30
  6
CONTINUOUS
 62
     0
100
AcDbLine
 10
286.9994701776981
 20
-70.49965587958424
 30
0.0
 11
286.9994701776981
 21
-122.8998855197852
 31
0.0
  0
LINE
  5
72BB
330
72B9
100
AcDbEntity
  8
30
  6
CONTINUOUS
 62
     0
100
AcDbLine
 10
301.9993959035433
 20
-77.28671009944187
 30
0.0
 11
301.9993959035433
 21
-122.8998855197852
 31
0.0
  0
LINE
  5
72BC
330
72B9
100
AcDbEntity
  8
30
  6
CONTINUOUS
 62
     0
100
AcDbLine
 10
288.9994701776982
 20
-122.3998855197852
 30
0.0
 11
299.9993959035433
 21
-122.3998855197852
 31
0.0
  0
INSERT
  5
72BD
330
72B9
100
AcDbEntity
  8
30
  6
CONTINUOUS
 62
     0
100
AcDbBlockReference
  2
_OPEN
 10
286.9994701776981
 20
-122.3998855197852
 30
0.0
 41
2.0
 42
2.0
 43
2.0
 50
180.0
  0
INSERT
  5
72BE
330
72B9
100
AcDbEntity
  8
30
  6
CONTINUOUS
 62
     0
100
AcDbBlockReference
  2
_OPEN
 10
301.9993959035433
 20
-122.3998855197852
 30
0.0
 41
2.0
 42
2.0
 43
2.0
  0
MTEXT
  5
72BF
330
72B9
100
AcDbEntity
  8
30
  6
CONTINUOUS
 62
     0
100
AcDbMText
 10
294.4994330406208
 20
-119.3998855197851
 30
0.0
 40
4.0
 41
0.0
 71
     5
 72
     1
  1
\A1;15
1001
ACAD
1000
MTEXTBEGIN
1070
    73
1070
     1
1070
    44
1040
1.0
1070
    74
1070
     0
1000
MTEXTEND
  0
POINT
  5
72C0
330
72B9
100
AcDbEntity
  8
DEFPOINTS
  6
CONTINUOUS
 62
     0
100
AcDbPoint
 10
286.9994701776981
 20
-69.49965587958423
 30
0.0
  0
POINT
  5
72C1
330
72B9
100
AcDbEntity
  8
DEFPOINTS
  6
CONTINUOUS
 62
     0
100
AcDbPoint
 10
301.9993959035433
 20
-76.28671009944188
 30
0.0
  0
POINT
  5
72C2
330
72B9
100
AcDbEntity
  8
DEFPOINTS
  6
CONTINUOUS
 62
     0
100
AcDbPoint
 10
301.9993959035433
 20
-122.3998855197852
 30
0.0
  0
ENDBLK
  5
72C4
330
72B9
100
AcDbEntity
  8
0
100
AcDbBlockEnd
  0
BLOCK
  5
72CF
330
72C5
100
AcDbEntity
  8
0
100
AcDbBlockBegin
  2
*D61
 70
     1
 10
0.0
 20
0.0
 30
0.0
  3
*D61
  1

  0
LINE
  5
72C6
330
72C5
100
AcDbEntity
  8
30
  6
CONTINUOUS
 62
     0
100
AcDbLine
 10
350.8555653978195
 20
-74.99962862922766
 30
0.0
 11
376.585751547754
 21
-74.99962862922767
 31
0.0
  0
LINE
  5
72C7
330
72C5
100
AcDbEntity
  8
30
  6
CONTINUOUS
 62
     0
100
AcDbLine
 10
350.8555653978195
 20
-58.99970785499242
 30
0.0
 11
376.585751547754
 21
-58.99970785499243
 31
0.0
  0
LINE
  5
72C8
330
72C5
100
AcDbEntity
  8
30
  6
CONTINUOUS
 62
     0
100
AcDbLine
 10
376.0857515477538
 20
-72.99962862922767
 30
0.0
 11
376.0857515477538
 21
-60.99970785499243
 31
0.0
  0
INSERT
  5
72C9
330
72C5
100
AcDbEntity
  8
30
  6
CONTINUOUS
 62
     0
100
AcDbBlockReference
  2
_OPEN
 10
376.0857515477538
 20
-74.99962862922767
 30
0.0
 41
2.0
 42
2.0
 43
2.0
 50
270.0
  0
INSERT
  5
72CA
330
72C5
100
AcDbEntity
  8
30
  6
CONTINUOUS
 62
     0
100
AcDbBlockReference
  2
_OPEN
 10
376.0857515477538
 20
-58.99970785499243
 30
0.0
 41
2.0
 42
2.0
 43
2.0
 50
90.0
  0
MTEXT
  5
72CB
330
72C5
100
AcDbEntity
  8
30
  6
CONTINUOUS
 62
     0
100
AcDbMText
 10
373.085751547754
 20
-66.99966824210999
 30
0.0
 40
4.0
 41
0.0
 71
     5
 72
     1
  1
\A1;16
 11
0.0000000000000001
 21
1.0
 31
0.0
1001
ACAD
1000
MTEXTBEGIN
1070
    73
1070
     1
1070
    44
1040
1.0
1070
    74
1070
     0
1000
MTEXTEND
  0
POINT
  5
72CC
330
72C5
100
AcDbEntity
  8
DEFPOINTS
  6
CONTINUOUS
 62
     0
100
AcDbPoint
 10
349.8555653978196
 20
-74.99962862922766
 30
0.0
  0
POINT
  5
72CD
330
72C5
100
AcDbEntity
  8
DEFPOINTS
  6
CONTINUOUS
 62
     0
100
AcDbPoint
 10
349.8555653978196
 20
-58.99970785499242
 30
0.0
  0
POINT
  5
72CE
330
72C5
100
AcDbEntity
  8
DEFPOINTS
  6
CONTINUOUS
 62
     0
100
AcDbPoint
 10
376.0857515477538
 20
-58.99970785499243
 30
0.0
  0
ENDBLK
  5
72D0
330
72C5
100
AcDbEntity
  8
0
100
AcDbBlockEnd
  0
BLOCK
  5
72DD
330
72D1
100
AcDbEntity
  8
0
100
AcDbBlockBegin
  2
*D62
 70
     1
 10
0.0
 20
0.0
 30
0.0
  3
*D62
  1

  0
LINE
  5
72D2
330
72D1
100
AcDbEntity
  8
30
  6
CONTINUOUS
 62
     0
100
AcDbLine
 10
352.9991483230286
 20
64.49968062113573
 30
0.0
 11
374.2524182144206
 21
64.49968062113573
 31
0.0
  0
LINE
  5
72D3
330
72D1
100
AcDbEntity
  8
30
  6
CONTINUOUS
 62
     0
100
AcDbLine
 10
352.9991483230286
 20
69.49965586308421
 30
0.0
 11
374.2524182144206
 21
69.49965586308421
 31
0.0
  0
LINE
  5
72D4
330
72D1
100
AcDbEntity
  8
30
  6
CONTINUOUS
 62
     0
100
AcDbLine
 10
373.7524182144206
 20
62.49968062113573
 30
0.0
 11
373.7524182144206
 21
60.49968062113574
 31
0.0
  0
LINE
  5
72D5
330
72D1
100
AcDbEntity
  8
30
  6
CONTINUOUS
 62
     0
100
AcDbLine
 10
373.7524182144206
 20
71.49965586308423
 30
0.0
 11
373.7524182144206
 21
73.49965586308425
 31
0.0
  0
LINE
  5
72D6
330
72D1
100
AcDbEntity
  8
30
  6
CONTINUOUS
 62
     0
100
AcDbLine
 10
373.7524182144206
 20
73.49965586308425
 30
0.0
 11
377.4190848810873
 21
73.49965586308425
 31
0.0
  0
INSERT
  5
72D7
330
72D1
100
AcDbEntity
  8
30
  6
CONTINUOUS
 62
     0
100
AcDbBlockReference
  2
_OPEN
 10
373.7524182144206
 20
64.49968062113573
 30
0.0
 41
2.0
 42
2.0
 43
2.0
 50
90.0
  0
INSERT
  5
72D8
330
72D1
100
AcDbEntity
  8
30
  6
CONTINUOUS
 62
     0
100
AcDbBlockReference
  2
_OPEN
 10
373.7524182144206
 20
69.49965586308421
 30
0.0
 41
2.0
 42
2.0
 43
2.0
 50
270.0
  0
MTEXT
  5
72D9
330
72D1
100
AcDbEntity
  8
30
  6
CONTINUOUS
 62
     0
100
AcDbMText
 10
376.0857515477538
 20
76.4996558630843
 30
0.0
 40
4.0
 41
0.0
 71
     5
 72
     1
  1
\A1;5
1001
ACAD
1000
MTEXTBEGIN
1070
    73
1070
     1
1070
    44
1040
1.0
1070
    74
1070
     0
1000
MTEXTEND
  0
POINT
  5
72DA
330
72D1
100
AcDbEntity
  8
DEFPOINTS
  6
CONTINUOUS
 62
     0
100
AcDbPoint
 10
351.9991483230286
 20
64.49968062113575
 30
0.0
  0
POINT
  5
72DB
330
72D1
100
AcDbEntity
  8
DEFPOINTS
  6
CONTINUOUS
 62
     0
100
AcDbPoint
 10
351.9991483230286
 20
69.49965586308424
 30
0.0
  0
POINT
  5
72DC
330
72D1
100
AcDbEntity
  8
DEFPOINTS
  6
CONTINUOUS
 62
     0
100
AcDbPoint
 10
373.7524182144206
 20
69.49965586308421
 30
0.0
  0
ENDBLK
  5
72DE
330
72D1
100
AcDbEntity
  8
0
100
AcDbBlockEnd
  0
BLOCK
  5
72E9
330
72DF
100
AcDbEntity
  8
0
100
AcDbBlockBegin
  2
*D63
 70
     1
 10
0.0
 20
0.0
 30
0.0
  3
*D63
  1

  0
LINE
  5
72E0
330
72DF
100
AcDbEntity
  8
30
  6
CONTINUOUS
 62
     0
100
AcDbLine
 10
362.9990988069256
 20
66.99966824210996
 30
0.0
 11
388.2367141808032
 21
66.99966824210996
 31
0.0
  0
LINE
  5
72E1
330
72DF
100
AcDbEntity
  8
30
  6
CONTINUOUS
 62
     0
100
AcDbLine
 10
377.085751547754
 20
-66.99966824211003
 30
0.0
 11
388.2367141808032
 21
-66.99966824211003
 31
0.0
  0
LINE
  5
72E2
330
72DF
100
AcDbEntity
  8
30
  6
CONTINUOUS
 62
     0
100
AcDbLine
 10
387.7367141808032
 20
64.99966824210996
 30
0.0
 11
387.7367141808032
 21
-64.99966824211004
 31
0.0
  0
INSERT
  5
72E3
330
72DF
100
AcDbEntity
  8
30
  6
CONTINUOUS
 62
     0
100
AcDbBlockReference
  2
_OPEN
 10
387.7367141808032
 20
66.99966824210996
 30
0.0
 41
2.0
 42
2.0
 43
2.0
 50
90.0
  0
INSERT
  5
72E4
330
72DF
100
AcDbEntity
  8
30
  6
CONTINUOUS
 62
     0
100
AcDbBlockReference
  2
_OPEN
 10
387.7367141808032
 20
-66.99966824211003
 30
0.0
 41
2.0
 42
2.0
 43
2.0
 50
270.0
  0
MTEXT
  5
72E5
330
72DF
100
AcDbEntity
  8
30
  6
CONTINUOUS
 62
     0
100
AcDbMText
 10
384.7367141808033
 20
0.0000000000000335
 30
0.0
 40
4.0
 41
0.0
 71
     5
 72
     1
  1
\A1;134
 11
0.0000000000000001
 21
1.0
 31
0.0
1001
ACAD
1000
MTEXTBEGIN
1070
    73
1070
     1
1070
    44
1040
1.0
1070
    74
1070
     0
1000
MTEXTEND
  0
POINT
  5
72E6
330
72DF
100
AcDbEntity
  8
DEFPOINTS
  6
CONTINUOUS
 62
     0
100
AcDbPoint
 10
361.9990988069256
 20
66.99966824210996
 30
0.0
  0
POINT
  5
72E7
330
72DF
100
AcDbEntity
  8
DEFPOINTS
  6
CONTINUOUS
 62
     0
100
AcDbPoint
 10
376.0857515477538
 20
-66.99966824211003
 30
0.0
  0
POINT
  5
72E8
330
72DF
100
AcDbEntity
  8
DEFPOINTS
  6
CONTINUOUS
 62
     0
100
AcDbPoint
 10
387.7367141808032
 20
-66.99966824211003
 30
0.0
  0
ENDBLK
  5
72EA
330
72DF
100
AcDbEntity
  8
0
100
AcDbBlockEnd
  0
BLOCK
  5
735E
330
7354
100
AcDbEntity
  8
0
100
AcDbBlockBegin
  2
*D64
 70
     1
 10
0.0
 20
0.0
 30
0.0
  3
*D64
  1

  0
LINE
  5
73E1
330
7354
100
AcDbEntity
  8
0
  6
CONTINUOUS
 62
     0
100
AcDbLine
 10
518.0227149135303
 20
-17.49876886895295
 30
0.0
 11
543.2603302874081
 21
-17.49876886895295
 31
0.0
  0
LINE
  5
73E2
330
7354
100
AcDbEntity
  8
0
  6
CONTINUOUS
 62
     0
100
AcDbLine
 10
532.1093676543587
 20
-151.4981053531729
 30
0.0
 11
543.2603302874081
 21
-151.4981053531729
 31
0.0
  0
LINE
  5
73E3
330
7354
100
AcDbEntity
  8
0
  6
CONTINUOUS
 62
     0
100
AcDbLine
 10
542.7603302874081
 20
-19.49876886895295
 30
0.0
 11
542.7603302874081
 21
-149.4981053531729
 31
0.0
  0
INSERT
  5
73E4
330
7354
100
AcDbEntity
  8
0
  6
CONTINUOUS
 62
     0
100
AcDbBlockReference
  2
_OPEN
 10
542.7603302874081
 20
-17.49876886895295
 30
0.0
 41
2.0
 42
2.0
 43
2.0
 50
90.0
  0
INSERT
  5
73E5
330
7354
100
AcDbEntity
  8
0
  6
CONTINUOUS
 62
     0
100
AcDbBlockReference
  2
_OPEN
 10
542.7603302874081
 20
-151.4981053531729
 30
0.0
 41
2.0
 42
2.0
 43
2.0
 50
270.0
  0
MTEXT
  5
73E6
330
7354
100
AcDbEntity
  8
0
  6
CONTINUOUS
 62
     0
100
AcDbMText
 10
539.7603302874081
 20
-84.49843711106286
 30
0.0
 40
4.0
 41
0.0
 71
     5
 72
     1
  1
\A1;134
 11
0.0000000000000001
 21
1.0
 31
0.0
1001
ACAD
1000
MTEXTBEGIN
1070
    73
1070
     1
1070
    44
1040
1.0
1070
    74
1070
     0
1000
MTEXTEND
  0
POINT
  5
73E7
330
7354
100
AcDbEntity
  8
DEFPOINTS
  6
CONTINUOUS
 62
     0
100
AcDbPoint
 10
517.0227149135302
 20
-17.49876886895295
 30
0.0
  0
POINT
  5
73E8
330
7354
100
AcDbEntity
  8
DEFPOINTS
  6
CONTINUOUS
 62
     0
100
AcDbPoint
 10
531.1093676543586
 20
-151.4981053531729
 30
0.0
  0
POINT
  5
73E9
330
7354
100
AcDbEntity
  8
DEFPOINTS
  6
CONTINUOUS
 62
     0
100
AcDbPoint
 10
542.7603302874081
 20
-151.4981053531729
 30
0.0
  0
ENDBLK
  5
735F
330
7354
100
AcDbEntity
  8
0
100
AcDbBlockEnd
  0
BLOCK
  5
736A
330
7360
100
AcDbEntity
  8
0
100
AcDbBlockBegin
  2
*D65
 70
     1
 10
0.0
 20
0.0
 30
0.0
  3
*D65
  1

  0
LINE
  5
73F3
330
7360
100
AcDbEntity
  8
0
  6
CONTINUOUS
 62
     0
100
AcDbLine
 10
427.0231605584571
 20
-143.498139997945
 30
0.0
 11
427.0231605584571
 21
-118.898755896749
 31
0.0
  0
LINE
  5
73F4
330
7360
100
AcDbEntity
  8
0
  6
CONTINUOUS
 62
     0
100
AcDbLine
 10
442.0230862843029
 20
-147.9981177156988
 30
0.0
 11
442.0230862843029
 21
-118.898755896749
 31
0.0
  0
LINE
  5
73F5
330
7360
100
AcDbEntity
  8
0
  6
CONTINUOUS
 62
     0
100
AcDbLine
 10
429.0231605584573
 20
-119.398755896749
 30
0.0
 11
440.0230862843029
 21
-119.398755896749
 31
0.0
  0
INSERT
  5
73F6
330
7360
100
AcDbEntity
  8
0
  6
CONTINUOUS
 62
     0
100
AcDbBlockReference
  2
_OPEN
 10
427.0231605584571
 20
-119.398755896749
 30
0.0
 41
2.0
 42
2.0
 43
2.0
 50
180.0
  0
INSERT
  5
73F7
330
7360
100
AcDbEntity
  8
0
  6
CONTINUOUS
 62
     0
100
AcDbBlockReference
  2
_OPEN
 10
442.0230862843029
 20
-119.398755896749
 30
0.0
 41
2.0
 42
2.0
 43
2.0
  0
MTEXT
  5
73F8
330
7360
100
AcDbEntity
  8
0
  6
CONTINUOUS
 62
     0
100
AcDbMText
 10
434.5231234213801
 20
-116.3987558967491
 30
0.0
 40
4.0
 41
0.0
 71
     5
 72
     1
  1
\A1;15
1001
ACAD
1000
MTEXTBEGIN
1070
    73
1070
     1
1070
    44
1040
1.0
1070
    74
1070
     0
1000
MTEXTEND
  0
POINT
  5
73F9
330
7360
100
AcDbEntity
  8
DEFPOINTS
  6
CONTINUOUS
 62
     0
100
AcDbPoint
 10
427.0231605584571
 20
-144.498139997945
 30
0.0
  0
POINT
  5
73FA
330
7360
100
AcDbEntity
  8
DEFPOINTS
  6
CONTINUOUS
 62
     0
100
AcDbPoint
 10
442.0230862843029
 20
-148.9981177156988
 30
0.0
  0
POINT
  5
73FB
330
7360
100
AcDbEntity
  8
DEFPOINTS
  6
CONTINUOUS
 62
     0
100
AcDbPoint
 10
442.0230862843029
 20
-119.398755896749
 30
0.0
  0
ENDBLK
  5
736B
330
7360
100
AcDbEntity
  8
0
100
AcDbBlockEnd
  0
BLOCK
  5
7376
330
736C
100
AcDbEntity
  8
0
100
AcDbBlockBegin
  2
*D66
 70
     1
 10
0.0
 20
0.0
 30
0.0
  3
*D66
  1

  0
LINE
  5
73EA
330
736C
100
AcDbEntity
  8
0
  6
CONTINUOUS
 62
     0
100
AcDbLine
 10
442.0230862843029
 20
-154.998092990647
 30
0.0
 11
442.0230862843029
 21
-207.398322630848
 31
0.0
  0
LINE
  5
73EB
330
736C
100
AcDbEntity
  8
0
  6
CONTINUOUS
 62
     0
100
AcDbLine
 10
457.0230120101481
 20
-161.7851472105046
 30
0.0
 11
457.0230120101481
 21
-207.398322630848
 31
0.0
  0
LINE
  5
73EC
330
736C
100
AcDbEntity
  8
0
  6
CONTINUOUS
 62
     0
100
AcDbLine
 10
444.0230862843029
 20
-206.898322630848
 30
0.0
 11
455.0230120101481
 21
-206.898322630848
 31
0.0
  0
INSERT
  5
73ED
330
736C
100
AcDbEntity
  8
0
  6
CONTINUOUS
 62
     0
100
AcDbBlockReference
  2
_OPEN
 10
442.0230862843029
 20
-206.898322630848
 30
0.0
 41
2.0
 42
2.0
 43
2.0
 50
180.0
  0
INSERT
  5
73EE
330
736C
100
AcDbEntity
  8
0
  6
CONTINUOUS
 62
     0
100
AcDbBlockReference
  2
_OPEN
 10
457.0230120101481
 20
-206.898322630848
 30
0.0
 41
2.0
 42
2.0
 43
2.0
  0
MTEXT
  5
73EF
330
736C
100
AcDbEntity
  8
0
  6
CONTINUOUS
 62
     0
100
AcDbMText
 10
449.5230491472255
 20
-203.898322630848
 30
0.0
 40
4.0
 41
0.0
 71
     5
 72
     1
  1
\A1;15
1001
ACAD
1000
MTEXTBEGIN
1070
    73
1070
     1
1070
    44
1040
1.0
1070
    74
1070
     0
1000
MTEXTEND
  0
POINT
  5
73F0
330
736C
100
AcDbEntity
  8
DEFPOINTS
  6
CONTINUOUS
 62
     0
100
AcDbPoint
 10
442.0230862843029
 20
-153.998092990647
 30
0.0
  0
POINT
  5
73F1
330
736C
100
AcDbEntity
  8
DEFPOINTS
  6
CONTINUOUS
 62
     0
100
AcDbPoint
 10
457.0230120101481
 20
-160.7851472105046
 30
0.0
  0
POINT
  5
73F2
330
736C
100
AcDbEntity
  8
DEFPOINTS
  6
CONTINUOUS
 62
     0
100
AcDbPoint
 10
457.0230120101481
 20
-206.898322630848
 30
0.0
  0
ENDBLK
  5
7377
330
736C
100
AcDbEntity
  8
0
100
AcDbBlockEnd
  0
BLOCK
  5
7382
330
7378
100
AcDbEntity
  8
0
100
AcDbBlockBegin
  2
*D67
 70
     1
 10
0.0
 20
0.0
 30
0.0
  3
*D67
  1

  0
LINE
  5
7405
330
7378
100
AcDbEntity
  8
0
  6
CONTINUOUS
 62
     0
100
AcDbLine
 10
492.0228387037878
 20
-154.998092990647
 30
0.0
 11
492.0228387037878
 21
-207.398322630848
 31
0.0
  0
LINE
  5
7406
330
7378
100
AcDbEntity
  8
0
  6
CONTINUOUS
 62
     0
100
AcDbLine
 10
507.0227644296334
 20
-161.7851472105046
 30
0.0
 11
507.0227644296334
 21
-207.398322630848
 31
0.0
  0
LINE
  5
7407
330
7378
100
AcDbEntity
  8
0
  6
CONTINUOUS
 62
     0
100
AcDbLine
 10
494.0228387037878
 20
-206.898322630848
 30
0.0
 11
505.0227644296334
 21
-206.898322630848
 31
0.0
  0
INSERT
  5
7408
330
7378
100
AcDbEntity
  8
0
  6
CONTINUOUS
 62
     0
100
AcDbBlockReference
  2
_OPEN
 10
492.0228387037878
 20
-206.898322630848
 30
0.0
 41
2.0
 42
2.0
 43
2.0
 50
180.0
  0
INSERT
  5
7409
330
7378
100
AcDbEntity
  8
0
  6
CONTINUOUS
 62
     0
100
AcDbBlockReference
  2
_OPEN
 10
507.0227644296334
 20
-206.898322630848
 30
0.0
 41
2.0
 42
2.0
 43
2.0
  0
MTEXT
  5
740A
330
7378
100
AcDbEntity
  8
0
  6
CONTINUOUS
 62
     0
100
AcDbMText
 10
499.5228015667106
 20
-203.898322630848
 30
0.0
 40
4.0
 41
0.0
 71
     5
 72
     1
  1
\A1;15
1001
ACAD
1000
MTEXTBEGIN
1070
    73
1070
     1
1070
    44
1040
1.0
1070
    74
1070
     0
1000
MTEXTEND
  0
POINT
  5
740B
330
7378
100
AcDbEntity
  8
DEFPOINTS
  6
CONTINUOUS
 62
     0
100
AcDbPoint
 10
492.0228387037878
 20
-153.998092990647
 30
0.0
  0
POINT
  5
740C
330
7378
100
AcDbEntity
  8
DEFPOINTS
  6
CONTINUOUS
 62
     0
100
AcDbPoint
 10
507.0227644296334
 20
-160.7851472105046
 30
0.0
  0
POINT
  5
740D
330
7378
100
AcDbEntity
  8
DEFPOINTS
  6
CONTINUOUS
 62
     0
100
AcDbPoint
 10
507.0227644296334
 20
-206.898322630848
 30
0.0
  0
ENDBLK
  5
7383
330
7378
100
AcDbEntity
  8
0
100
AcDbBlockEnd
  0
BLOCK
  5
738E
330
7384
100
AcDbEntity
  8
0
100
AcDbBlockBegin
  2
*D68
 70
     1
 10
0.0
 20
0.0
 30
0.0
  3
*D68
  1

  0
LINE
  5
73FC
330
7384
100
AcDbEntity
  8
0
  6
CONTINUOUS
 62
     0
100
AcDbLine
 10
505.8791815044243
 20
-159.4980657402905
 30
0.0
 11
531.6093676543585
 21
-159.4980657402905
 31
0.0
  0
LINE
  5
73FD
330
7384
100
AcDbEntity
  8
0
  6
CONTINUOUS
 62
     0
100
AcDbLine
 10
505.8791815044243
 20
-143.4981449660553
 30
0.0
 11
531.6093676543585
 21
-143.4981449660553
 31
0.0
  0
LINE
  5
73FE
330
7384
100
AcDbEntity
  8
0
  6
CONTINUOUS
 62
     0
100
AcDbLine
 10
531.1093676543586
 20
-157.4980657402905
 30
0.0
 11
531.1093676543586
 21
-145.4981449660553
 31
0.0
  0
INSERT
  5
73FF
330
7384
100
AcDbEntity
  8
0
  6
CONTINUOUS
 62
     0
100
AcDbBlockReference
  2
_OPEN
 10
531.1093676543586
 20
-159.4980657402905
 30
0.0
 41
2.0
 42
2.0
 43
2.0
 50
270.0
  0
INSERT
  5
7400
330
7384
100
AcDbEntity
  8
0
  6
CONTINUOUS
 62
     0
100
AcDbBlockReference
  2
_OPEN
 10
531.1093676543586
 20
-143.4981449660553
 30
0.0
 41
2.0
 42
2.0
 43
2.0
 50
90.0
  0
MTEXT
  5
7401
330
7384
100
AcDbEntity
  8
0
  6
CONTINUOUS
 62
     0
100
AcDbMText
 10
528.1093676543587
 20
-151.4981053531728
 30
0.0
 40
4.0
 41
0.0
 71
     5
 72
     1
  1
\A1;16
 11
0.0000000000000001
 21
1.0
 31
0.0
1001
ACAD
1000
MTEXTBEGIN
1070
    73
1070
     1
1070
    44
1040
1.0
1070
    74
1070
     0
1000
MTEXTEND
  0
POINT
  5
7402
330
7384
100
AcDbEntity
  8
DEFPOINTS
  6
CONTINUOUS
 62
     0
100
AcDbPoint
 10
504.8791815044244
 20
-159.4980657402905
 30
0.0
  0
POINT
  5
7403
330
7384
100
AcDbEntity
  8
DEFPOINTS
  6
CONTINUOUS
 62
     0
100
AcDbPoint
 10
504.8791815044244
 20
-143.4981449660553
 30
0.0
  0
POINT
  5
7404
330
7384
100
AcDbEntity
  8
DEFPOINTS
  6
CONTINUOUS
 62
     0
100
AcDbPoint
 10
531.1093676543586
 20
-143.4981449660553
 30
0.0
  0
ENDBLK
  5
738F
330
7384
100
AcDbEntity
  8
0
100
AcDbBlockEnd
  0
BLOCK
  5
739C
330
7390
100
AcDbEntity
  8
0
100
AcDbBlockBegin
  2
*D69
 70
     1
 10
0.0
 20
0.0
 30
0.0
  3
*D69
  1

  0
LINE
  5
73D6
330
7390
100
AcDbEntity
  8
0
  6
CONTINUOUS
 62
     0
100
AcDbLine
 10
508.0227644296334
 20
-19.99875648992716
 30
0.0
 11
529.2760343210253
 21
-19.99875648992716
 31
0.0
  0
LINE
  5
73D7
330
7390
100
AcDbEntity
  8
0
  6
CONTINUOUS
 62
     0
100
AcDbLine
 10
508.0227644296334
 20
-14.99878124797866
 30
0.0
 11
529.2760343210253
 21
-14.99878124797866
 31
0.0
  0
LINE
  5
73D8
330
7390
100
AcDbEntity
  8
0
  6
CONTINUOUS
 62
     0
100
AcDbLine
 10
528.7760343210253
 20
-21.99875648992715
 30
0.0
 11
528.7760343210253
 21
-23.99875648992715
 31
0.0
  0
LINE
  5
73D9
330
7390
100
AcDbEntity
  8
0
  6
CONTINUOUS
 62
     0
100
AcDbLine
 10
528.7760343210253
 20
-12.99878124797867
 30
0.0
 11
528.7760343210253
 21
-10.99878124797867
 31
0.0
  0
LINE
  5
73DA
330
7390
100
AcDbEntity
  8
0
  6
CONTINUOUS
 62
     0
100
AcDbLine
 10
528.7760343210253
 20
-10.99878124797867
 30
0.0
 11
532.4427009876918
 21
-10.99878124797867
 31
0.0
  0
INSERT
  5
73DB
330
7390
100
AcDbEntity
  8
0
  6
CONTINUOUS
 62
     0
100
AcDbBlockReference
  2
_OPEN
 10
528.7760343210253
 20
-19.99875648992716
 30
0.0
 41
2.0
 42
2.0
 43
2.0
 50
90.0
  0
INSERT
  5
73DC
330
7390
100
AcDbEntity
  8
0
  6
CONTINUOUS
 62
     0
100
AcDbBlockReference
  2
_OPEN
 10
528.7760343210253
 20
-14.99878124797866
 30
0.0
 41
2.0
 42
2.0
 43
2.0
 50
270.0
  0
MTEXT
  5
73DD
330
7390
100
AcDbEntity
  8
0
  6
CONTINUOUS
 62
     0
100
AcDbMText
 10
531.1093676543586
 20
-7.99878124797859
 30
0.0
 40
4.0
 41
0.0
 71
     5
 72
     1
  1
\A1;5
1001
ACAD
1000
MTEXTBEGIN
1070
    73
1070
     1
1070
    44
1040
1.0
1070
    74
1070
     0
1000
MTEXTEND
  0
POINT
  5
73DE
330
7390
100
AcDbEntity
  8
DEFPOINTS
  6
CONTINUOUS
 62
     0
100
AcDbPoint
 10
507.0227644296334
 20
-19.99875648992716
 30
0.0
  0
POINT
  5
73DF
330
7390
100
AcDbEntity
  8
DEFPOINTS
  6
CONTINUOUS
 62
     0
100
AcDbPoint
 10
507.0227644296334
 20
-14.99878124797866
 30
0.0
  0
POINT
  5
73E0
330
7390
100
AcDbEntity
  8
DEFPOINTS
  6
CONTINUOUS
 62
     0
100
AcDbPoint
 10
528.7760343210253
 20
-14.99878124797866
 30
0.0
  0
ENDBLK
  5
739D
330
7390
100
AcDbEntity
  8
0
100
AcDbBlockEnd
  0
ENDSEC
  0
SECTION
  2
ENTITIES
  0
LINE
  5
B4
330
1E
100
AcDbEntity
  8
16
100
AcDbLine
 10
0.0
 20
-101.8246001220914
 30
0.0
 11
0.0
 21
105.6073578546832
 31
0.0
  0
LINE
  5
B5
330
1E
100
AcDbEntity
  8
16
100
AcDbLine
 10
71.77465564206305
 20
-0.0000000000000027
 30
0.0
 11
-83.90588178115756
 21
-0.0000000000000027
 31
0.0
  0
MTEXT
  5
BF3
330
1E
100
AcDbEntity
  8
24
  6
CONTINUOUS
100
AcDbMText
 10
140.9820964648285
 20
176.3476821548369
 30
0.0
 40
3.0
 41
0.0
 71
     1
 72
     1
  1
\A1;
1001
ACAD
1000
MTEXTBEGIN
1070
    73
1070
     1
1070
    44
1040
1.0
1070
    74
1070
     0
1000
MTEXTEND
  0
LINE
  5
1C9B
330
1E
100
AcDbEntity
  8
16
100
AcDbLine
 10
285.3610701340853
 20
0.0000000000001137
 30
0.0
 11
153.1958225219156
 21
0.0000000000001137
 31
0.0
  0
LINE
  5
2260
330
1E
100
AcDbEntity
  8
16
100
AcDbLine
 10
68.90389754940699
 20
-250.8473940210349
 30
0.0
 11
-80.54991320158091
 21
-250.8473940210349
 31
0.0
  0
LINE
  5
2261
330
1E
100
AcDbEntity
  8
16
100
AcDbLine
 10
0.0
 20
-348.5993337838806
 30
0.0
 11
0.0
 21
-149.4639948115489
 31
0.0
  0
LINE
  5
4C5A
330
1E
100
AcDbEntity
  8
16
100
AcDbLine
 10
88.49441808474184
 20
-0.0000000000000027
 30
0.0
 11
-83.90588178115756
 21
-0.0000000000000027
 31
0.0
  0
MTEXT
  5
5C78
330
1E
100
AcDbEntity
  8
30
  6
CONTINUOUS
100
AcDbMText
 10
162.3297648581359
 20
88.99793930010117
 30
0.0
 40
4.0
 41
0.0
 71
     9
 72
     1
  1

1001
ACAD
1000
MTEXTBEGIN
1070
    73
1070
     1
1070
    44
1040
1.0
1070
    74
1070
     0
1000
MTEXTEND
  0
MTEXT
  5
6200
330
1E
100
AcDbEntity
  8
30
  6
CONTINUOUS
100
AcDbMText
 10
160.6290066227675
 20
91.2377397662035
 30
0.0
 40
4.0
 41
0.0
 71
     9
 72
     1
  1

1001
ACAD
1000
MTEXTBEGIN
1070
    73
1070
     1
1070
    44
1040
1.0
1070
    74
1070
     0
1000
MTEXTEND
  0
LINE
  5
6CB1
330
1E
100
AcDbEntity
  8
10
  6
CONTINOUS
100
AcDbLine
 10
-24.99991699999992
 20
67.99986899999963
 30
0.0
 11
25.000067
 21
67.99986899999963
 31
0.0
  0
LINE
  5
6CB2
330
1E
100
AcDbEntity
  8
10
  6
CONTINOUS
100
AcDbLine
 10
-24.99999999999992
 20
27.0
 30
0.0
 11
24.4999999999999
 21
27.0
 31
0.0
  0
LINE
  5
6CB3
330
1E
100
AcDbEntity
  8
10
  6
CONTINOUS
100
AcDbLine
 10
22.750067
 20
25.0
 30
0.0
 11
-22.74991699999992
 21
25.0
 31
0.0
  0
LINE
  5
6CB4
330
1E
100
AcDbEntity
  8
10
  6
CONTINOUS
100
AcDbLine
 10
-22.74998499999992
 20
24.99980799999974
 30
0.0
 11
22.74999999999999
 21
24.99980799999974
 31
0.0
  0
LINE
  5
6CB5
330
1E
100
AcDbEntity
  8
10
  6
CONTINOUS
100
AcDbLine
 10
-22.74991699999992
 20
-25.00030500000014
 30
0.0
 11
22.750067
 21
-25.00030500000014
 31
0.0
  0
LINE
  5
6CB6
330
1E
100
AcDbEntity
  8
10
  6
CONTINOUS
100
AcDbLine
 10
-24.99999999999992
 20
-27.0
 30
0.0
 11
24.4999999999999
 21
-27.0
 31
0.0
  0
LINE
  5
6CB7
330
1E
100
AcDbEntity
  8
10
  6
CONTINOUS
100
AcDbLine
 10
-24.99991699999992
 20
-67.9998690000002
 30
0.0
 11
25.000067
 21
-67.9998690000002
 31
0.0
  0
LINE
  5
6CB8
330
1E
100
AcDbEntity
  8
10
  6
CONTINOUS
100
AcDbLine
 10
43.5
 20
80.00000299999966
 30
0.0
 11
-43.49999999999993
 21
80.00000299999966
 31
0.0
  0
LINE
  5
6CB9
330
1E
100
AcDbEntity
  8
10
  6
CONTINOUS
100
AcDbLine
 10
43.5
 20
-80.00000300000023
 30
0.0
 11
-43.49999999999993
 21
-80.00000300000023
 31
0.0
  0
DIMENSION
  5
6CBA
330
1E
100
AcDbEntity
  8
30
  6
CONTINUOUS
100
AcDbDimension
  2
*D29
 10
46.5
 20
-97.97208620126241
 30
0.0
 11
0.0000000000000286
 21
-94.97208620126242
 31
0.0
 70
    32
  1
93
  3
STANDARD
100
AcDbAlignedDimension
 13
-46.49999999999994
 23
-77.00000300000022
 33
0.0
 14
46.5
 24
-77.00000300000022
 34
0.0
100
AcDbRotatedDimension
1001
ACAD
1000
DSTYLE
1002
{
1070
    79
1070
     3
1002
}
  0
LINE
  5
6CBB
330
1E
100
AcDbEntity
  8
10
  6
CONTINOUS
100
AcDbLine
 10
-23.74991699999992
 20
24.0
 30
0.0
 11
-23.74991699999992
 21
-24.00030500000025
 31
0.0
  0
LINE
  5
6CBC
330
1E
100
AcDbEntity
  8
10
  6
CONTINOUS
100
AcDbLine
 10
-1.499932999999997
 20
25.0
 30
0.0
 11
-1.499932999999997
 21
-24.50030500000025
 31
0.0
  0
LINE
  5
6CBD
330
1E
100
AcDbEntity
  8
10
  6
CONTINOUS
100
AcDbLine
 10
-24.99991699999992
 20
67.99986899999963
 30
0.0
 11
-24.99991699999992
 21
-67.9998690000002
 31
0.0
  0
LINE
  5
6CBE
330
1E
100
AcDbEntity
  8
10
  6
CONTINOUS
100
AcDbLine
 10
-24.99999999999992
 20
-27.0
 30
0.0
 11
-24.99999999999992
 21
27.0
 31
0.0
  0
LINE
  5
6CBF
330
1E
100
AcDbEntity
  8
10
  6
CONTINOUS
100
AcDbLine
 10
-46.49999999999994
 20
-77.00000300000022
 30
0.0
 11
-46.49999999999994
 21
77.00000299999965
 31
0.0
  0
POINT
  5
6CC0
330
1E
100
AcDbEntity
  8
10
  6
CONTINOUS
100
AcDbPoint
 10
-46.49999999999994
 20
-78.00000300000021
 30
0.0
  0
ARC
  5
6CC1
330
1E
100
AcDbEntity
  8
10
  6
CONTINOUS
100
AcDbCircle
 10
-43.49999999999993
 20
-77.00000300000022
 30
0.0
 40
3.0
100
AcDbArc
 50
180.0
 51
270.0
  0
ARC
  5
6CC2
330
1E
100
AcDbEntity
  8
10
  6
CONTINOUS
100
AcDbCircle
 10
-22.74991699999992
 20
-24.00030500000025
 30
0.0
 40
1.0
100
AcDbArc
 50
180.0000010000013
 51
270.0
  0
ARC
  5
6CC3
330
1E
100
AcDbEntity
  8
10
  6
CONTINOUS
100
AcDbCircle
 10
-1.999933000000098
 20
-24.50030500000025
 30
0.0
 40
0.5
100
AcDbArc
 50
270.0
 51
0.0000030000009533
  0
ARC
  5
6CC4
330
1E
100
AcDbEntity
  8
10
  6
CONTINOUS
100
AcDbCircle
 10
-22.74991699999992
 20
24.0
 30
0.0
 40
1.0
100
AcDbArc
 50
90.0
 51
180.0
  0
LINE
  5
6CC5
330
1E
100
AcDbEntity
  8
10
  6
CONTINOUS
100
AcDbLine
 10
-18.5
 20
21.38528899999977
 30
0.0
 11
-18.5
 21
2.638105999999766
 31
0.0
  0
LINE
  5
6CC6
330
1E
100
AcDbEntity
  8
10
  6
CONTINOUS
100
AcDbLine
 10
-6.5
 20
2.638105999999766
 30
0.0
 11
-6.5
 21
21.38528899999977
 31
0.0
  0
LINE
  5
6CC7
330
1E
100
AcDbEntity
  8
10
  6
CONTINOUS
100
AcDbLine
 10
-6.5
 20
9.953375999999764
 30
0.0
 11
-18.5
 21
9.953375999999764
 31
0.0
  0
LINE
  5
6CC8
330
1E
100
AcDbEntity
  8
10
  6
CONTINOUS
100
AcDbLine
 10
-18.5
 20
2.638105999999766
 30
0.0
 11
-6.5
 21
2.638105999999766
 31
0.0
  0
LINE
  5
6CC9
330
1E
100
AcDbEntity
  8
10
  6
CONTINOUS
100
AcDbLine
 10
-18.99991700000009
 20
1.799725999999793
 30
0.0
 11
-5.999932999999997
 21
1.799725999999793
 31
0.0
  0
LINE
  5
6CCA
330
1E
100
AcDbEntity
  8
10
  6
CONTINOUS
100
AcDbLine
 10
-18.99991700000009
 20
17.19972599999976
 30
0.0
 11
-18.99991700000009
 21
1.799725999999793
 31
0.0
  0
LINE
  5
6CCB
330
1E
100
AcDbEntity
  8
10
  6
CONTINOUS
100
AcDbLine
 10
-18.99991700000009
 20
15.09972599999974
 30
0.0
 11
-18.5
 21
15.09972599999974
 31
0.0
  0
LINE
  5
6CCC
330
1E
100
AcDbEntity
  8
10
  6
CONTINOUS
100
AcDbLine
 10
-18.99991700000009
 20
17.19972599999976
 30
0.0
 11
-18.5
 21
17.19972599999976
 31
0.0
  0
LINE
  5
6CCD
330
1E
100
AcDbEntity
  8
10
  6
CONTINOUS
100
AcDbLine
 10
-5.999932999999997
 20
17.19972599999976
 30
0.0
 11
-5.999932999999997
 21
1.799725999999793
 31
0.0
  0
LINE
  5
6CCE
330
1E
100
AcDbEntity
  8
10
  6
CONTINOUS
100
AcDbLine
 10
-6.5
 20
15.09972599999974
 30
0.0
 11
-5.999932999999997
 21
15.09972599999974
 31
0.0
  0
LINE
  5
6CCF
330
1E
100
AcDbEntity
  8
10
  6
CONTINOUS
100
AcDbLine
 10
-6.5
 20
17.19972599999976
 30
0.0
 11
-5.999932999999997
 21
17.19972599999976
 31
0.0
  0
LINE
  5
6CD0
330
1E
100
AcDbEntity
  8
10
  6
CONTINOUS
100
AcDbLine
 10
-6.5
 20
21.38528899999977
 30
0.0
 11
-18.5
 21
21.38528899999977
 31
0.0
  0
LINE
  5
6CD1
330
1E
100
AcDbEntity
  8
10
  6
CONTINOUS
100
AcDbLine
 10
-7.537445000000004
 20
17.27750299999974
 30
0.0
 11
-17.444046
 21
17.27750299999974
 31
0.0
  0
CIRCLE
  5
6CD2
330
1E
100
AcDbEntity
  8
10
  6
CONTINOUS
100
AcDbCircle
 10
-41.2144899999999
 20
74.31757999999968
 30
0.0
 40
0.3
  0
ARC
  5
6CD3
330
1E
100
AcDbEntity
  8
10
  6
CONTINOUS
100
AcDbCircle
 10
-43.49999999999993
 20
77.00000299999965
 30
0.0
 40
3.0
100
AcDbArc
 50
90.0
 51
180.0
  0
LINE
  5
6CD4
330
1E
100
AcDbEntity
  8
10
  6
CONTINOUS
100
AcDbLine
 10
23.750067
 20
24.0
 30
0.0
 11
23.750067
 21
-24.00030500000025
 31
0.0
  0
LINE
  5
6CD5
330
1E
100
AcDbEntity
  8
10
  6
CONTINOUS
100
AcDbLine
 10
25.000067
 20
67.99986899999963
 30
0.0
 11
25.000067
 21
-67.9998690000002
 31
0.0
  0
LINE
  5
6CD6
330
1E
100
AcDbEntity
  8
10
  6
CONTINOUS
100
AcDbLine
 10
24.4999999999999
 20
-27.0
 30
0.0
 11
24.4999999999999
 21
27.0
 31
0.0
  0
LINE
  5
6CD7
330
1E
100
AcDbEntity
  8
10
  6
CONTINOUS
100
AcDbLine
 10
46.5
 20
-77.00000300000022
 30
0.0
 11
46.5
 21
77.00000299999965
 31
0.0
  0
ARC
  5
6CD8
330
1E
100
AcDbEntity
  8
10
  6
CONTINOUS
100
AcDbCircle
 10
43.5
 20
-77.00000300000022
 30
0.0
 40
3.0
100
AcDbArc
 50
270.0
 51
0.0
  0
POINT
  5
6CD9
330
1E
100
AcDbEntity
  8
10
  6
CONTINOUS
100
AcDbPoint
 10
44.5
 20
-80.00000300000023
 30
0.0
  0
POINT
  5
6CDA
330
1E
100
AcDbEntity
  8
10
  6
CONTINOUS
100
AcDbPoint
 10
46.5
 20
-78.00000300000021
 30
0.0
  0
CIRCLE
  5
6CDB
330
1E
100
AcDbEntity
  8
10
  6
CONTINOUS
100
AcDbCircle
 10
20.10015099999989
 20
-13.50033500000023
 30
0.0
 40
2.0
  0
ARC
  5
6CDC
330
1E
100
AcDbEntity
  8
10
  6
CONTINOUS
100
AcDbCircle
 10
22.750067
 20
-24.00030500000025
 30
0.0
 40
1.0
100
AcDbArc
 50
270.0
 51
359.9999989999984
  0
ARC
  5
6CDD
330
1E
100
AcDbEntity
  8
10
  6
CONTINOUS
100
AcDbCircle
 10
22.750067
 20
24.0
 30
0.0
 40
1.0
100
AcDbArc
 50
0.0
 51
90.0
  0
ARC
  5
6CDE
330
1E
100
AcDbEntity
  8
10
  6
CONTINOUS
100
AcDbCircle
 10
22.74999999999999
 20
23.99980799999974
 30
0.0
 40
1.0
100
AcDbArc
 50
0.0
 51
90.0
  0
ARC
  5
6CDF
330
1E
100
AcDbEntity
  8
10
  6
CONTINOUS
100
AcDbCircle
 10
43.5
 20
77.00000299999965
 30
0.0
 40
3.0
100
AcDbArc
 50
0.0
 51
90.0
  0
POINT
  5
6CE0
330
1E
100
AcDbEntity
  8
10
  6
CONTINOUS
100
AcDbPoint
 10
44.5
 20
80.00000299999966
 30
0.0
  0
DIMENSION
  5
6CE1
330
1E
100
AcDbEntity
  8
30
  6
CONTINUOUS
100
AcDbDimension
  2
*D30
 10
81.54784840549275
 20
-80.00000300000023
 30
0.0
 11
81.54784840549275
 21
-0.9351410785917552
 31
0.0
 70
   160
  1
160
  3
STANDARD
100
AcDbAlignedDimension
 13
44.5
 23
80.00000299999966
 33
0.0
 14
43.5
 24
-80.00000300000023
 34
0.0
 50
90.0
100
AcDbRotatedDimension
1001
ACAD
1000
DSTYLE
1002
{
1070
    79
1070
     3
1002
}
  0
LINE
  5
6E00
330
1E
100
AcDbEntity
  8
10
  6
CONTINOUS
100
AcDbLine
 10
185.1958535219155
 20
-49.74996600000014
 30
0.0
 11
222.8665205219157
 21
-49.74996600000014
 31
0.0
  0
LINE
  5
6E01
330
1E
100
AcDbEntity
  8
10
  6
CONTINOUS
100
AcDbLine
 10
183.6998535219155
 20
-67.9999820000001
 30
0.0
 11
233.1958225219157
 21
-67.9999820000001
 31
0.0
  0
LINE
  5
6E02
330
1E
100
AcDbEntity
  8
10
  6
CONTINOUS
100
AcDbLine
 10
182.6998535219155
 20
49.75000000000011
 30
0.0
 11
225.1958225219157
 21
49.75000000000011
 31
0.0
  0
LINE
  5
6E03
330
1E
100
AcDbEntity
  8
10
  6
CONTINOUS
100
AcDbLine
 10
182.6998535219155
 20
-49.74996600000014
 30
0.0
 11
225.1958225219157
 21
-49.74996600000014
 31
0.0
  0
LINE
  5
6E04
330
1E
100
AcDbEntity
  8
10
  6
CONTINOUS
100
AcDbLine
 10
183.6998535219155
 20
67.99986899999975
 30
0.0
 11
233.1958225219157
 21
67.99986899999975
 31
0.0
  0
LINE
  5
6E05
330
1E
100
AcDbEntity
  8
10
  6
CONTINOUS
100
AcDbLine
 10
185.1958535219155
 20
49.74996699999995
 30
0.0
 11
222.8665205219157
 21
49.74996699999995
 31
0.0
  0
LINE
  5
6E06
330
1E
100
AcDbEntity
  8
10
  6
CONTINOUS
100
AcDbLine
 10
154.1958225219156
 20
-21.95058200000011
 30
0.0
 11
154.1958225219156
 21
24.24389099999989
 31
0.0
  0
LINE
  5
6E07
330
1E
100
AcDbEntity
  8
10
  6
CONTINOUS
100
AcDbLine
 10
153.1958225219156
 20
24.02438299999987
 30
0.0
 11
153.1958225219156
 21
-21.95058200000011
 31
0.0
  0
LINE
  5
6E08
330
1E
100
AcDbEntity
  8
10
  6
CONTINOUS
100
AcDbLine
 10
157.1959215219158
 20
-24.60000000000013
 30
0.0
 11
157.1959215219158
 21
24.50000000000009
 31
0.0
  0
LINE
  5
6E09
330
1E
100
AcDbEntity
  8
10
  6
CONTINOUS
100
AcDbLine
 10
185.1958535219155
 20
49.74996699999995
 30
0.0
 11
185.1958535219155
 21
-49.74996600000014
 31
0.0
  0
LINE
  5
6E0A
330
1E
100
AcDbEntity
  8
10
  6
CONTINOUS
100
AcDbLine
 10
178.5972935219156
 20
-80.00000300000008
 30
0.0
 11
178.5972935219156
 21
80.00000299999975
 31
0.0
  0
LINE
  5
6E0B
330
1E
100
AcDbEntity
  8
10
  6
CONTINOUS
100
AcDbLine
 10
157.8972935219155
 20
-73.00000300000011
 30
0.0
 11
157.8972935219155
 21
73.00000299999975
 31
0.0
  0
LINE
  5
6E0C
330
1E
100
AcDbEntity
  8
18
100
AcDbLine
 10
181.7922965219158
 20
-95.0799290000001
 30
0.0
 11
181.7922965219158
 21
95.07992899999996
 31
0.0
  0
LINE
  5
6E0D
330
1E
100
AcDbEntity
  8
18
100
AcDbLine
 10
178.5922965219155
 20
-97.08129900000013
 30
0.0
 11
178.5922965219155
 21
97.08129899999979
 31
0.0
  0
DIMENSION
  5
6E0E
330
1E
100
AcDbEntity
  8
30
  6
CONTINUOUS
100
AcDbDimension
  2
*D35
 10
178.5972935219156
 20
-129.0746940584521
 30
0.0
 11
159.904830697595
 21
-126.0746940584522
 31
0.0
 70
    32
  1
37.5
  3
STANDARD
100
AcDbAlignedDimension
 13
141.2123678732747
 23
0.0000000317268562
 33
0.0
 14
178.5972935219156
 24
-81.00000400000011
 34
0.0
100
AcDbRotatedDimension
1001
ACAD
1000
DSTYLE
1002
{
1070
    79
1070
     3
1002
}
  0
DIMENSION
  5
6E0F
330
1E
100
AcDbEntity
  8
30
  6
CONTINUOUS
100
AcDbDimension
  2
*D36
 10
178.5972935219156
 20
-113.7335595000001
 30
0.0
 11
168.2472935219156
 21
-110.7335595000001
 31
0.0
 70
    32
  1
21
  3
STANDARD
100
AcDbAlignedDimension
 13
157.8972935219155
 23
-74.00000400000012
 33
0.0
 14
178.5972935219156
 24
-81.00000400000011
 34
0.0
100
AcDbRotatedDimension
1001
ACAD
1000
DSTYLE
1002
{
1070
    79
1070
     3
1002
}
  0
LWPOLYLINE
  5
6E10
330
1E
100
AcDbEntity
  8
18
100
AcDbPolyline
 90
        6
 70
   128
 43
0.0
 10
176.3049395259455
 20
-94.26086800670102
 10
178.2209174910889
 20
-96.85289511333728
 10
179.7181417856071
 20
-96.94762518227459
 10
180.9215283559481
 20
-95.8693327223502
 10
183.72296442943
 20
-94.77388963888643
 10
186.2654138342458
 20
-96.75098658377585
  0
LINE
  5
6E11
330
1E
100
AcDbEntity
  8
10
  6
CONTINOUS
100
AcDbLine
 10
179.5555155219155
 20
-55.25016900000014
 30
0.0
 11
178.5922965219155
 21
-53.58182500000004
 31
0.0
  0
LINE
  5
6E12
330
1E
100
AcDbEntity
  8
10
  6
CONTINOUS
100
AcDbLine
 10
178.5972935219156
 20
-50.50016900000014
 30
0.0
 11
179.6998535219155
 21
-50.50016900000014
 31
0.0
  0
LINE
  5
6E13
330
1E
100
AcDbEntity
  8
10
  6
CONTINOUS
100
AcDbLine
 10
185.1958535219155
 20
-49.75000000000012
 30
0.0
 11
178.5922965219155
 21
-49.75000000000012
 31
0.0
  0
LINE
  5
6E14
330
1E
100
AcDbEntity
  8
10
  6
CONTINOUS
100
AcDbLine
 10
164.8972935219155
 20
-80.00000300000008
 30
0.0
 11
178.5972935219156
 21
-80.00000300000008
 31
0.0
  0
ARC
  5
6E15
330
1E
100
AcDbEntity
  8
10
  6
CONTINOUS
100
AcDbCircle
 10
164.8972935219155
 20
-73.00000300000011
 30
0.0
 40
7.0
100
AcDbArc
 50
180.0
 51
270.0
  0
POINT
  5
6E16
330
1E
100
AcDbEntity
  8
10
  6
CONTINOUS
100
AcDbPoint
 10
157.8972935219155
 20
-74.00000400000009
 30
0.0
  0
POINT
  5
6E17
330
1E
100
AcDbEntity
  8
10
  6
CONTINOUS
100
AcDbPoint
 10
178.5972935219156
 20
-81.0000030000001
 30
0.0
  0
POINT
  5
6E18
330
1E
100
AcDbEntity
  8
10
  6
CONTINOUS
100
AcDbPoint
 10
178.5972935219156
 20
-81.00000400000011
 30
0.0
  0
LINE
  5
6E19
330
1E
100
AcDbEntity
  8
10
  6
CONTINOUS
100
AcDbLine
 10
182.6998535219155
 20
-49.74996600000014
 30
0.0
 11
182.6998535219155
 21
-66.9998690000001
 31
0.0
  0
ARC
  5
6E1A
330
1E
100
AcDbEntity
  8
10
  6
CONTINOUS
100
AcDbCircle
 10
183.6998535219155
 20
-66.9998690000001
 30
0.0
 40
1.0
100
AcDbArc
 50
180.0
 51
270.0
  0
ARC
  5
6E1B
330
1E
100
AcDbEntity
  8
10
  6
CONTINOUS
100
AcDbCircle
 10
181.1432285219155
 20
-52.00016900000014
 30
0.0
 40
0.5
100
AcDbArc
 50
210.0000000000004
 51
270.0
  0
LINE
  5
6E1C
330
1E
100
AcDbEntity
  8
10
  6
CONTINOUS
100
AcDbLine
 10
180.7102165219155
 20
-52.25016900000014
 30
0.0
 11
179.6998535219155
 21
-50.50016900000014
 31
0.0
  0
LINE
  5
6E1D
330
1E
100
AcDbEntity
  8
10
  6
CONTINOUS
100
AcDbLine
 10
181.1432285219155
 20
-52.50016900000014
 30
0.0
 11
182.6998535219155
 21
-52.50016900000014
 31
0.0
  0
ARC
  5
6E1E
330
1E
100
AcDbEntity
  8
10
  6
CONTINOUS
100
AcDbCircle
 10
182.1998535219156
 20
-56.00016900000014
 30
0.0
 40
0.5
100
AcDbArc
 50
0.0
 51
90.0
  0
LINE
  5
6E1F
330
1E
100
AcDbEntity
  8
10
  6
CONTINOUS
100
AcDbLine
 10
179.9885285219155
 20
-55.50016900000002
 30
0.0
 11
182.1998535219156
 21
-55.50016900000002
 31
0.0
  0
ARC
  5
6E20
330
1E
100
AcDbEntity
  8
10
  6
CONTINOUS
100
AcDbCircle
 10
179.9885285219155
 20
-55.00016900000019
 30
0.0
 40
0.5
100
AcDbArc
 50
210.0000000000004
 51
270.0
  0
ARC
  5
6E21
330
1E
100
AcDbEntity
  8
10
  6
CONTINOUS
100
AcDbCircle
 10
157.6959215219155
 20
-24.60000000000013
 30
0.0
 40
0.5
100
AcDbArc
 50
180.0
 51
270.0
  0
LINE
  5
6E22
330
1E
100
AcDbEntity
  8
10
  6
CONTINOUS
100
AcDbLine
 10
153.1958225219156
 20
-21.95058200000011
 30
0.0
 11
153.1958225219156
 21
-24.02439000000009
 31
0.0
  0
LINE
  5
6E23
330
1E
100
AcDbEntity
  8
10
  6
CONTINOUS
100
AcDbLine
 10
154.1958225219156
 20
-24.24390000000011
 30
0.0
 11
154.1958225219156
 21
-21.95058200000011
 31
0.0
  0
LINE
  5
6E24
330
1E
100
AcDbEntity
  8
10
  6
CONTINOUS
100
AcDbLine
 10
157.1958535219158
 20
-24.99999999999988
 30
0.0
 11
157.3959215219155
 21
-24.99999999999988
 31
0.0
  0
LINE
  5
6E25
330
1E
100
AcDbEntity
  8
10
  6
CONTINOUS
100
AcDbLine
 10
157.8972935219155
 20
-25.10000000000013
 30
0.0
 11
157.6959215219155
 21
-25.10000000000013
 31
0.0
  0
LINE
  5
6E26
330
1E
100
AcDbEntity
  8
10
  6
CONTINOUS
100
AcDbLine
 10
153.1958225219156
 20
-24.02439000000009
 30
0.0
 11
157.1958535219158
 21
-24.99999999999988
 31
0.0
  0
LINE
  5
6E27
330
1E
100
AcDbEntity
  8
10
  6
CONTINOUS
100
AcDbLine
 10
146.2174795219155
 20
21.25785999999985
 30
0.0
 11
153.1958225219156
 21
18.43842699999985
 31
0.0
  0
LINE
  5
6E28
330
1E
100
AcDbEntity
  8
10
  6
CONTINOUS
100
AcDbLine
 10
144.3444465219155
 20
16.62194099999986
 30
0.0
 11
153.1958225219156
 21
13.04575299999986
 31
0.0
  0
ARC
  5
6E29
330
1E
100
AcDbEntity
  8
10
  6
CONTINOUS
100
AcDbCircle
 10
145.0000165219156
 20
18.24452200000011
 30
0.0
 40
1.75
100
AcDbArc
 50
158.0000009999983
 51
248.0000009999987
  0
ARC
  5
6E2A
330
1E
100
AcDbEntity
  8
30
  6
CONTINUOUS
100
AcDbCircle
 10
221.1958225219157
 20
1.626954999999895
 30
0.0
 40
80.0
100
AcDbArc
 50
169.9819419999993
 51
181.1653010000004
  0
ARC
  5
6E2C
330
1E
100
AcDbEntity
  8
10
  6
CONTINOUS
100
AcDbCircle
 10
145.5619265219155
 20
19.63529799999983
 30
0.0
 40
1.75
100
AcDbArc
 50
68.00000099999869
 51
158.0000009999983
  0
LINE
  5
6E2D
330
1E
100
AcDbEntity
  8
10
  6
CONTINOUS
100
AcDbLine
 10
143.9393465219155
 20
20.29084999999985
 30
0.0
 11
143.3774365219155
 21
18.90007399999989
 31
0.0
  0
LINE
  5
6E2E
330
1E
100
AcDbEntity
  8
10
  6
CONTINOUS
100
AcDbLine
 10
181.6958225219156
 20
49.75000000000011
 30
0.0
 11
181.6958225219156
 21
37.90003199999988
 31
0.0
  0
LINE
  5
6E2F
330
1E
100
AcDbEntity
  8
10
  6
CONTINOUS
100
AcDbLine
 10
181.6958225219156
 20
37.89996400000011
 30
0.0
 11
178.5922965219155
 21
37.89996400000011
 31
0.0
  0
ARC
  5
6E30
330
1E
100
AcDbEntity
  8
10
  6
CONTINOUS
100
AcDbCircle
 10
157.6959215219155
 20
24.50000000000009
 30
0.0
 40
0.5
100
AcDbArc
 50
90.0
 51
180.0
  0
LINE
  5
6E31
330
1E
100
AcDbEntity
  8
10
  6
CONTINOUS
100
AcDbLine
 10
157.8972935219155
 20
25.0000000000001
 30
0.0
 11
157.1959215219158
 21
25.0000000000001
 31
0.0
  0
LINE
  5
6E32
330
1E
100
AcDbEntity
  8
10
  6
CONTINOUS
100
AcDbLine
 10
157.1959215219158
 20
25.0000000000001
 30
0.0
 11
153.1958225219156
 21
24.02438299999987
 31
0.0
  0
LINE
  5
6E33
330
1E
100
AcDbEntity
  8
10
  6
CONTINOUS
100
AcDbLine
 10
179.5555155219155
 20
55.25016899999979
 30
0.0
 11
178.5922965219155
 21
53.58182500000007
 31
0.0
  0
LINE
  5
6E34
330
1E
100
AcDbEntity
  8
10
  6
CONTINOUS
100
AcDbLine
 10
178.5922965219155
 20
50.50016899999989
 30
0.0
 11
179.6998535219155
 21
50.50016899999989
 31
0.0
  0
LINE
  5
6E35
330
1E
100
AcDbEntity
  8
10
  6
CONTINOUS
100
AcDbLine
 10
178.5922965219155
 20
49.75000000000011
 30
0.0
 11
182.6998535219155
 21
49.75000000000011
 31
0.0
  0
LINE
  5
6E36
330
1E
100
AcDbEntity
  8
10
  6
CONTINOUS
100
AcDbLine
 10
164.8972935219155
 20
80.00000299999975
 30
0.0
 11
178.5972935219156
 21
80.00000299999975
 31
0.0
  0
CIRCLE
  5
6E37
330
1E
100
AcDbEntity
  8
10
  6
CONTINOUS
100
AcDbCircle
 10
161.0097105219155
 20
63.9278569999999
 30
0.0
 40
0.3
  0
ARC
  5
6E38
330
1E
100
AcDbEntity
  8
10
  6
CONTINOUS
100
AcDbCircle
 10
164.8972935219155
 20
73.00000299999975
 30
0.0
 40
7.0
100
AcDbArc
 50
90.0
 51
180.0
  0
LINE
  5
6E39
330
1E
100
AcDbEntity
  8
10
  6
CONTINOUS
100
AcDbLine
 10
182.6998535219155
 20
49.75000000000011
 30
0.0
 11
182.6998535219155
 21
66.99986899999998
 31
0.0
  0
ARC
  5
6E3A
330
1E
100
AcDbEntity
  8
10
  6
CONTINOUS
100
AcDbCircle
 10
179.9885285219155
 20
55.00016899999989
 30
0.0
 40
0.5
100
AcDbArc
 50
90.0
 51
149.9999999999993
  0
ARC
  5
6E3B
330
1E
100
AcDbEntity
  8
10
  6
CONTINOUS
100
AcDbCircle
 10
182.1998535219156
 20
56.00016899999989
 30
0.0
 40
0.5
100
AcDbArc
 50
270.0
 51
0.0
  0
ARC
  5
6E3C
330
1E
100
AcDbEntity
  8
10
  6
CONTINOUS
100
AcDbCircle
 10
181.1432285219155
 20
52.00016899999989
 30
0.0
 40
0.5
100
AcDbArc
 50
90.0
 51
149.9999999999993
  0
LINE
  5
6E3D
330
1E
100
AcDbEntity
  8
10
  6
CONTINOUS
100
AcDbLine
 10
181.1432285219155
 20
52.50016899999989
 30
0.0
 11
182.6998535219155
 21
52.50016899999989
 31
0.0
  0
LINE
  5
6E3E
330
1E
100
AcDbEntity
  8
10
  6
CONTINOUS
100
AcDbLine
 10
179.9885285219155
 20
55.50016899999989
 30
0.0
 11
182.1998535219156
 21
55.50016899999989
 31
0.0
  0
LINE
  5
6E3F
330
1E
100
AcDbEntity
  8
10
  6
CONTINOUS
100
AcDbLine
 10
180.7102165219155
 20
52.25016899999978
 30
0.0
 11
179.6998535219155
 21
50.50016899999989
 31
0.0
  0
ARC
  5
6E40
330
1E
100
AcDbEntity
  8
10
  6
CONTINOUS
100
AcDbCircle
 10
183.6998535219155
 20
66.99986899999998
 30
0.0
 40
1.0
100
AcDbArc
 50
90.0
 51
180.0
  0
LWPOLYLINE
  5
6E41
330
1E
100
AcDbEntity
  8
18
100
AcDbPolyline
 90
        6
 70
   128
 43
0.0
 10
-176.3049395259455
 20
94.26086852085687
 10
-178.2209174910888
 20
96.85289562749314
 10
-179.718141785607
 20
96.94762569643105
 10
-180.9215283559479
 20
95.86933323650681
 10
-183.7229644294298
 20
94.77389015304298
 10
-186.2654138342458
 20
96.750987097932
210
0.0
220
0.0
230
-1.0
  0
CIRCLE
  5
6E42
330
1E
100
AcDbEntity
  8
10
  6
CONTINOUS
100
AcDbCircle
 10
180.0824895219155
 20
84.790118
 30
0.0
 40
0.3
  0
LINE
  5
6E43
330
1E
100
AcDbEntity
  8
10
  6
CONTINOUS
100
AcDbLine
 10
221.1957925219157
 20
17.79995799999987
 30
0.0
 11
221.1957925219157
 21
-17.34662600000011
 31
0.0
  0
DIMENSION
  5
6E44
330
1E
100
AcDbEntity
  8
30
  6
CONTINUOUS
100
AcDbDimension
  2
*D37
 10
358.7982145219156
 20
-54.99988700000013
 30
0.0
 11
355.7982145219156
 21
-0.0000000000001566
 31
0.0
 70
    32
  1
110
  3
STANDARD
100
AcDbAlignedDimension
 13
342.7165505219158
 23
54.9998869999997
 33
0.0
 14
342.7165505219158
 24
-54.99988700000013
 34
0.0
 50
90.0
100
AcDbRotatedDimension
1001
ACAD
1000
DSTYLE
1002
{
1070
    79
1070
     3
1002
}
  0
LINE
  5
6E45
330
1E
100
AcDbEntity
  8
0
  6
CONTINUOUS
100
AcDbLine
 10
306.1958085219156
 20
-47.9998870000001
 30
0.0
 11
335.6958085219156
 21
-47.9998870000001
 31
0.0
  0
LINE
  5
6E46
330
1E
100
AcDbEntity
  8
0
  6
CONTINUOUS
100
AcDbLine
 10
306.1958085219156
 20
-61.99988700000012
 30
0.0
 11
335.6958085219156
 21
-61.99988700000012
 31
0.0
  0
LINE
  5
6E47
330
1E
100
AcDbEntity
  8
0
  6
CONTINUOUS
100
AcDbLine
 10
228.6543065219157
 20
-54.9998870000001
 30
0.0
 11
342.7165505219158
 21
-54.9998870000001
 31
0.0
  0
LINE
  5
6E48
330
1E
100
AcDbEntity
  8
0
  6
CONTINUOUS
100
AcDbLine
 10
260.1958225219157
 20
-63.3592759999999
 30
0.0
 11
255.1958335219155
 21
-63.3592759999999
 31
0.0
  0
LINE
  5
6E49
330
1E
100
AcDbEntity
  8
0
  6
CONTINUOUS
100
AcDbLine
 10
260.1958225219157
 20
-46.64049700000004
 30
0.0
 11
255.1958335219155
 21
-46.64049700000004
 31
0.0
  0
LINE
  5
6E4A
330
1E
100
AcDbEntity
  8
0
  6
CONTINUOUS
100
AcDbLine
 10
255.1958335219155
 20
-45.14049700000009
 30
0.0
 11
261.2053705219157
 21
-45.14049700000009
 31
0.0
  0
LINE
  5
6E4B
330
1E
100
AcDbEntity
  8
0
  6
CONTINUOUS
100
AcDbLine
 10
255.1958335219155
 20
-64.85927600000014
 30
0.0
 11
261.2053705219157
 21
-64.85927600000014
 31
0.0
  0
LINE
  5
6E4C
330
1E
100
AcDbEntity
  8
0
  6
CONTINUOUS
100
AcDbLine
 10
248.1958225219157
 20
-63.79988700000011
 30
0.0
 11
248.1958225219157
 21
-46.1998870000002
 31
0.0
  0
ARC
  5
6E4D
330
1E
100
AcDbEntity
  8
10
  6
CONTINOUS
100
AcDbCircle
 10
222.8665205219157
 20
-48.74996600000002
 30
0.0
 40
1.0
100
AcDbArc
 50
270.0
 51
350.0000000000013
  0
LINE
  5
6E4E
330
1E
100
AcDbEntity
  8
10
  6
CONTINOUS
100
AcDbLine
 10
225.1958225219157
 20
-20.50029900000009
 30
0.0
 11
225.1958225219157
 21
-49.74996600000014
 31
0.0
  0
LINE
  5
6E4F
330
1E
100
AcDbEntity
  8
0
  6
CONTINUOUS
100
AcDbLine
 10
233.1958225219157
 20
-64.9998870000001
 30
0.0
 11
233.1958225219157
 21
-44.9998870000001
 31
0.0
  0
LINE
  5
6E50
330
1E
100
AcDbEntity
  8
0
  6
CONTINUOUS
100
AcDbLine
 10
248.1958225219157
 20
-64.9998870000001
 30
0.0
 11
233.1958225219157
 21
-64.9998870000001
 31
0.0
  0
LINE
  5
6E51
330
1E
100
AcDbEntity
  8
0
  6
CONTINUOUS
100
AcDbLine
 10
233.1958225219157
 20
-67.9999820000001
 30
0.0
 11
233.1958225219157
 21
-64.9998870000001
 31
0.0
  0
LINE
  5
6E52
330
1E
100
AcDbEntity
  8
0
  6
CONTINUOUS
100
AcDbLine
 10
248.1958225219157
 20
-63.79988700000011
 30
0.0
 11
254.6958455219157
 21
-63.79988700000011
 31
0.0
  0
LINE
  5
6E53
330
1E
100
AcDbEntity
  8
0
  6
CONTINUOUS
100
AcDbLine
 10
248.1958225219157
 20
-64.9998870000001
 30
0.0
 11
248.1958225219157
 21
-63.79988700000011
 31
0.0
  0
LINE
  5
6E54
330
1E
100
AcDbEntity
  8
0
  6
CONTINUOUS
100
AcDbLine
 10
255.1958335219155
 20
-63.3592759999999
 30
0.0
 11
254.6958455219157
 21
-63.3592759999999
 31
0.0
  0
LINE
  5
6E55
330
1E
100
AcDbEntity
  8
0
  6
CONTINUOUS
100
AcDbLine
 10
254.6958455219157
 20
-63.3592759999999
 30
0.0
 11
254.6958455219157
 21
-63.79988700000011
 31
0.0
  0
LINE
  5
6E56
330
1E
100
AcDbEntity
  8
0
  6
CONTINUOUS
100
AcDbLine
 10
255.1958335219155
 20
-63.3592759999999
 30
0.0
 11
255.1958335219155
 21
-64.85927600000014
 31
0.0
  0
LINE
  5
6E57
330
1E
100
AcDbEntity
  8
10
  6
CONTINOUS
100
AcDbLine
 10
225.6958225219157
 20
-20.00029900000009
 30
0.0
 11
232.6958225219157
 21
-20.00029900000009
 31
0.0
  0
LINE
  5
6E58
330
1E
100
AcDbEntity
  8
10
  6
CONTINOUS
100
AcDbLine
 10
224.8958225219157
 20
-27.50009100000011
 30
0.0
 11
223.4498485219157
 21
-19.29956300000009
 31
0.0
  0
LINE
  5
6E59
330
1E
100
AcDbEntity
  8
10
  6
CONTINOUS
100
AcDbLine
 10
225.1958225219157
 20
-37.29993000000002
 30
0.0
 11
225.1958225219157
 21
-40.0002250000001
 31
0.0
  0
LINE
  5
6E5A
330
1E
100
AcDbEntity
  8
10
  6
CONTINOUS
100
AcDbLine
 10
224.8958225219157
 20
-27.50009100000011
 30
0.0
 11
224.8958225219157
 21
-42.99999100000014
 31
0.0
  0
LINE
  5
6E5B
330
1E
100
AcDbEntity
  8
10
  6
CONTINOUS
100
AcDbLine
 10
224.8958225219157
 20
-42.99998800000014
 30
0.0
 11
225.1960975219156
 21
-42.99998800000014
 31
0.0
  0
LINE
  5
6E5C
330
1E
100
AcDbEntity
  8
10
  6
CONTINOUS
100
AcDbLine
 10
224.8958225219157
 20
-39.00004200000012
 30
0.0
 11
225.1960975219156
 21
-39.00004200000012
 31
0.0
  0
LINE
  5
6E5D
330
1E
100
AcDbEntity
  8
10
  6
CONTINOUS
100
AcDbLine
 10
223.8513285219156
 20
-48.92361400000011
 30
0.0
 11
224.8958225219157
 21
-42.99999100000014
 31
0.0
  0
LINE
  5
6E5E
330
1E
100
AcDbEntity
  8
10
  6
CONTINOUS
100
AcDbLine
 10
224.8958225219157
 20
-37.29993000000002
 30
0.0
 11
225.1960975219156
 21
-37.29993000000002
 31
0.0
  0
ARC
  5
6E5F
330
1E
100
AcDbEntity
  8
10
  6
CONTINOUS
100
AcDbCircle
 10
221.4802325219157
 20
-19.6468590000001
 30
0.0
 40
2.0
100
AcDbArc
 50
9.999999999998674
 51
74.99999999999961
  0
ARC
  5
6E60
330
1E
100
AcDbEntity
  8
10
  6
CONTINOUS
100
AcDbCircle
 10
221.3957925219157
 20
-17.34662600000011
 30
0.0
 40
0.2
100
AcDbArc
 50
180.0
 51
254.9999999999995
  0
LINE
  5
6E61
330
1E
100
AcDbEntity
  8
10
  6
CONTINOUS
100
AcDbLine
 10
221.3440285219157
 20
-17.5398110000001
 30
0.0
 11
221.9978705219157
 21
-17.71500799999989
 31
0.0
  0
ARC
  5
6E62
330
1E
100
AcDbEntity
  8
10
  6
CONTINOUS
100
AcDbCircle
 10
225.6958225219157
 20
-20.50029900000009
 30
0.0
 40
0.5
100
AcDbArc
 50
90.0
 51
180.0
  0
LINE
  5
6E63
330
1E
100
AcDbEntity
  8
10
  6
CONTINOUS
100
AcDbLine
 10
233.1958225219157
 20
-44.9998870000001
 30
0.0
 11
233.1958225219157
 21
-20.50029900000009
 31
0.0
  0
LINE
  5
6E64
330
1E
100
AcDbEntity
  8
0
  6
CONTINUOUS
100
AcDbLine
 10
248.1958225219157
 20
-44.9998870000001
 30
0.0
 11
233.1958225219157
 21
-44.9998870000001
 31
0.0
  0
LINE
  5
6E65
330
1E
100
AcDbEntity
  8
0
  6
CONTINUOUS
100
AcDbLine
 10
248.1958225219157
 20
-46.1998870000002
 30
0.0
 11
254.6958455219157
 21
-46.1998870000002
 31
0.0
  0
LINE
  5
6E66
330
1E
100
AcDbEntity
  8
0
  6
CONTINUOUS
100
AcDbLine
 10
248.1958225219157
 20
-46.1998870000002
 30
0.0
 11
248.1958225219157
 21
-44.9998870000001
 31
0.0
  0
LINE
  5
6E67
330
1E
100
AcDbEntity
  8
0
  6
CONTINUOUS
100
AcDbLine
 10
254.6958455219157
 20
-46.64049700000004
 30
0.0
 11
255.1958335219155
 21
-46.64049700000004
 31
0.0
  0
LINE
  5
6E68
330
1E
100
AcDbEntity
  8
0
  6
CONTINUOUS
100
AcDbLine
 10
254.6958455219157
 20
-46.64049700000004
 30
0.0
 11
254.6958455219157
 21
-46.1998870000002
 31
0.0
  0
LINE
  5
6E69
330
1E
100
AcDbEntity
  8
0
  6
CONTINUOUS
100
AcDbLine
 10
255.1958335219155
 20
-45.14049700000009
 30
0.0
 11
255.1958335219155
 21
-46.64049700000004
 31
0.0
  0
ARC
  5
6E6A
330
1E
100
AcDbEntity
  8
10
  6
CONTINOUS
100
AcDbCircle
 10
232.6958225219157
 20
-20.50029900000009
 30
0.0
 40
0.5
100
AcDbArc
 50
0.0
 51
90.0
  0
LINE
  5
6E6B
330
1E
100
AcDbEntity
  8
0
  6
CONTINUOUS
100
AcDbLine
 10
306.1958085219156
 20
-47.9998870000001
 30
0.0
 11
306.1958085219156
 21
-61.99988700000012
 31
0.0
  0
LINE
  5
6E6C
330
1E
100
AcDbEntity
  8
0
  6
CONTINUOUS
100
AcDbLine
 10
286.1958085219157
 20
-61.49988700000012
 30
0.0
 11
286.1958085219157
 21
-48.49988700000011
 31
0.0
  0
LINE
  5
6E6D
330
1E
100
AcDbEntity
  8
0
  6
CONTINUOUS
100
AcDbLine
 10
278.1958085219155
 20
-43.5715950000001
 30
0.0
 11
278.1958085219155
 21
-65.26598800000011
 31
0.0
  0
LINE
  5
6E6E
330
1E
100
AcDbEntity
  8
0
  6
CONTINUOUS
100
AcDbLine
 10
260.1958225219157
 20
-63.3592759999999
 30
0.0
 11
260.1958225219157
 21
-46.64049700000004
 31
0.0
  0
ARC
  5
6E6F
330
1E
100
AcDbEntity
  8
0
  6
CONTINUOUS
100
AcDbCircle
 10
285.6958085219156
 20
-61.49988700000012
 30
0.0
 40
0.5
100
AcDbArc
 50
270.0
 51
0.0
  0
LINE
  5
6E70
330
1E
100
AcDbEntity
  8
0
  6
CONTINUOUS
100
AcDbLine
 10
306.1958085219156
 20
-63.49988700000011
 30
0.0
 11
265.3102165219156
 21
-63.49988700000011
 31
0.0
  0
LINE
  5
6E71
330
1E
100
AcDbEntity
  8
0
  6
CONTINUOUS
100
AcDbLine
 10
260.1958225219157
 20
-61.99988700000012
 30
0.0
 11
285.6958085219156
 21
-61.99988700000012
 31
0.0
  0
LINE
  5
6E72
330
1E
100
AcDbEntity
  8
0
  6
CONTINUOUS
100
AcDbLine
 10
261.2053705219157
 20
-64.85927600000014
 30
0.0
 11
265.3102165219156
 21
-63.49988700000011
 31
0.0
  0
CIRCLE
  5
6E73
330
1E
100
AcDbEntity
  8
0
  6
CONTINUOUS
100
AcDbCircle
 10
278.1958085219155
 20
-54.9998870000001
 30
0.0
 40
3.25
  0
LINE
  5
6E74
330
1E
100
AcDbEntity
  8
0
  6
CONTINUOUS
100
AcDbLine
 10
306.1958085219156
 20
-63.49988700000011
 30
0.0
 11
306.1958085219156
 21
-61.99988700000012
 31
0.0
  0
ARC
  5
6E75
330
1E
100
AcDbEntity
  8
0
  6
CONTINUOUS
100
AcDbCircle
 10
285.6958085219156
 20
-48.49988700000011
 30
0.0
 40
0.5
100
AcDbArc
 50
0.0
 51
90.0
  0
LINE
  5
6E76
330
1E
100
AcDbEntity
  8
0
  6
CONTINUOUS
100
AcDbLine
 10
306.1958085219156
 20
-46.49988700000011
 30
0.0
 11
265.3102165219156
 21
-46.49988700000011
 31
0.0
  0
LINE
  5
6E77
330
1E
100
AcDbEntity
  8
0
  6
CONTINUOUS
100
AcDbLine
 10
260.1958225219157
 20
-47.9998870000001
 30
0.0
 11
285.6958085219156
 21
-47.9998870000001
 31
0.0
  0
LINE
  5
6E78
330
1E
100
AcDbEntity
  8
0
  6
CONTINUOUS
100
AcDbLine
 10
261.2053705219157
 20
-45.14049700000009
 30
0.0
 11
265.3102165219156
 21
-46.49988700000011
 31
0.0
  0
LINE
  5
6E79
330
1E
100
AcDbEntity
  8
0
  6
CONTINUOUS
100
AcDbLine
 10
306.1958085219156
 20
-47.9998870000001
 30
0.0
 11
306.1958085219156
 21
-46.49988700000011
 31
0.0
  0
LINE
  5
6E7A
330
1E
100
AcDbEntity
  8
0
  6
CONTINUOUS
100
AcDbLine
 10
336.1958085219157
 20
-48.49988700000011
 30
0.0
 11
336.1958085219157
 21
-61.49988700000012
 31
0.0
  0
LINE
  5
6E7B
330
1E
100
AcDbEntity
  8
0
  6
CONTINUOUS
100
AcDbLine
 10
328.1958085219156
 20
-43.5715950000001
 30
0.0
 11
328.1958085219156
 21
-65.26598800000011
 31
0.0
  0
CIRCLE
  5
6E7C
330
1E
100
AcDbEntity
  8
0
  6
CONTINUOUS
100
AcDbCircle
 10
328.1958085219156
 20
-54.9998870000001
 30
0.0
 40
3.25
  0
ARC
  5
6E7D
330
1E
100
AcDbEntity
  8
0
  6
CONTINUOUS
100
AcDbCircle
 10
335.6958085219156
 20
-61.49988700000012
 30
0.0
 40
0.5
100
AcDbArc
 50
270.0
 51
0.0
  0
ARC
  5
6E7E
330
1E
100
AcDbEntity
  8
0
  6
CONTINUOUS
100
AcDbCircle
 10
335.6958085219156
 20
-48.49988700000011
 30
0.0
 40
0.5
100
AcDbArc
 50
0.0
 51
90.0
  0
LINE
  5
6E7F
330
1E
100
AcDbEntity
  8
0
  6
CONTINUOUS
100
AcDbLine
 10
306.1958085219156
 20
53.49873799999976
 30
0.0
 11
336.1958085219157
 21
53.49873799999976
 31
0.0
  0
LINE
  5
6E80
330
1E
100
AcDbEntity
  8
0
  6
CONTINUOUS
100
AcDbLine
 10
306.1958085219156
 20
56.49873799999987
 30
0.0
 11
336.1958085219157
 21
56.49873799999987
 31
0.0
  0
LINE
  5
6E81
330
1E
100
AcDbEntity
  8
0
  6
CONTINUOUS
100
AcDbLine
 10
228.6543065219157
 20
54.9998869999997
 30
0.0
 11
342.7165505219158
 21
54.9998869999997
 31
0.0
  0
LINE
  5
6E82
330
1E
100
AcDbEntity
  8
0
  6
CONTINUOUS
100
AcDbLine
 10
260.1958085219155
 20
63.35939000000006
 30
0.0
 11
255.1958335219155
 21
63.35939000000006
 31
0.0
  0
LINE
  5
6E83
330
1E
100
AcDbEntity
  8
0
  6
CONTINUOUS
100
AcDbLine
 10
260.7723575219155
 20
64.85938999999993
 30
0.0
 11
255.1958335219155
 21
64.85938999999993
 31
0.0
  0
LINE
  5
6E84
330
1E
100
AcDbEntity
  8
0
  6
CONTINUOUS
100
AcDbLine
 10
260.1958085219155
 20
46.64061099999989
 30
0.0
 11
255.1958335219155
 21
46.64061099999989
 31
0.0
  0
LINE
  5
6E85
330
1E
100
AcDbEntity
  8
0
  6
CONTINUOUS
100
AcDbLine
 10
260.8010505219157
 20
45.14061099999985
 30
0.0
 11
255.1958335219155
 21
45.14061099999985
 31
0.0
  0
LINE
  5
6E86
330
1E
100
AcDbEntity
  8
10
  6
CONTINOUS
100
AcDbLine
 10
233.1958225219157
 20
20.50018599999985
 30
0.0
 11
233.1958225219157
 21
44.99988699999986
 31
0.0
  0
LINE
  5
6E87
330
1E
100
AcDbEntity
  8
10
  6
CONTINOUS
100
AcDbLine
 10
224.8958225219157
 20
42.99998799999984
 30
0.0
 11
224.8958225219157
 21
15.80001899999989
 31
0.0
  0
LINE
  5
6E88
330
1E
100
AcDbEntity
  8
10
  6
CONTINOUS
100
AcDbLine
 10
225.1958225219157
 20
20.50018599999985
 30
0.0
 11
225.1958225219157
 21
49.75000000000011
 31
0.0
  0
LINE
  5
6E89
330
1E
100
AcDbEntity
  8
10
  6
CONTINOUS
100
AcDbLine
 10
225.6958225219157
 20
20.00018599999985
 30
0.0
 11
232.6958225219157
 21
20.00018599999985
 31
0.0
  0
LINE
  5
6E8A
330
1E
100
AcDbEntity
  8
10
  6
CONTINOUS
100
AcDbLine
 10
222.3957925219156
 20
17.79995799999987
 30
0.0
 11
222.5889395219156
 21
16.70456700000008
 31
0.0
  0
ARC
  5
6E8B
330
1E
100
AcDbEntity
  8
10
  6
CONTINOUS
100
AcDbCircle
 10
224.3957925219156
 20
15.80001899999989
 30
0.0
 40
0.5
100
AcDbArc
 50
270.0
 51
0.0
  0
ARC
  5
6E8C
330
1E
100
AcDbEntity
  8
10
  6
CONTINOUS
100
AcDbCircle
 10
222.8843815219156
 20
16.75666099999988
 30
0.0
 40
0.3
100
AcDbArc
 50
189.9999999999987
 51
228.9999999999995
  0
LINE
  5
6E8D
330
1E
100
AcDbEntity
  8
10
  6
CONTINOUS
100
AcDbLine
 10
222.6875635219156
 20
16.53024899999984
 30
0.0
 11
224.1027815219158
 21
15.30001899999989
 31
0.0
  0
LINE
  5
6E8E
330
1E
100
AcDbEntity
  8
10
  6
CONTINOUS
100
AcDbLine
 10
224.1027815219158
 20
15.30001899999989
 30
0.0
 11
224.3957925219156
 21
15.30001899999989
 31
0.0
  0
ARC
  5
6E8F
330
1E
100
AcDbEntity
  8
10
  6
CONTINOUS
100
AcDbCircle
 10
217.4957925219155
 20
14.59995799999988
 30
0.0
 40
4.2
100
AcDbArc
 50
331.7574629999999
 51
28.24253699999994
  0
LINE
  5
6E90
330
1E
100
AcDbEntity
  8
10
  6
CONTINOUS
100
AcDbLine
 10
221.1957925219157
 20
17.79995799999987
 30
0.0
 11
224.8958225219157
 21
17.79995799999987
 31
0.0
  0
ARC
  5
6E91
330
1E
100
AcDbEntity
  8
10
  6
CONTINOUS
100
AcDbCircle
 10
225.6958225219157
 20
20.50018599999985
 30
0.0
 40
0.5
100
AcDbArc
 50
180.0
 51
270.0
  0
LINE
  5
6E92
330
1E
100
AcDbEntity
  8
10
  6
CONTINOUS
100
AcDbLine
 10
224.8958225219157
 20
38.99998799999984
 30
0.0
 11
225.1960975219156
 21
38.99998799999984
 31
0.0
  0
LINE
  5
6E93
330
1E
100
AcDbEntity
  8
10
  6
CONTINOUS
100
AcDbLine
 10
224.8958225219157
 20
37.29998800000007
 30
0.0
 11
225.1960975219156
 21
37.29998800000007
 31
0.0
  0
ARC
  5
6E94
330
1E
100
AcDbEntity
  8
10
  6
CONTINOUS
100
AcDbCircle
 10
232.6958225219157
 20
20.50018599999985
 30
0.0
 40
0.5
100
AcDbArc
 50
270.0
 51
0.0
  0
LINE
  5
6E95
330
1E
100
AcDbEntity
  8
10
  6
CONTINOUS
100
AcDbLine
 10
223.8513285219156
 20
48.9236149999999
 30
0.0
 11
224.8958225219157
 21
42.99999099999989
 31
0.0
  0
ARC
  5
6E96
330
1E
100
AcDbEntity
  8
10
  6
CONTINOUS
100
AcDbCircle
 10
222.8665205219157
 20
48.74996700000007
 30
0.0
 40
1.0
100
AcDbArc
 50
9.999999999998674
 51
90.0
  0
LINE
  5
6E97
330
1E
100
AcDbEntity
  8
0
  6
CONTINUOUS
100
AcDbLine
 10
248.1958225219157
 20
63.79999999999983
 30
0.0
 11
248.1958225219157
 21
46.19999999999985
 31
0.0
  0
LINE
  5
6E98
330
1E
100
AcDbEntity
  8
0
  6
CONTINUOUS
100
AcDbLine
 10
233.1958225219157
 20
64.99988699999981
 30
0.0
 11
233.1958225219157
 21
44.99988699999986
 31
0.0
  0
LINE
  5
6E99
330
1E
100
AcDbEntity
  8
0
  6
CONTINUOUS
100
AcDbLine
 10
233.1958225219157
 20
44.99988699999986
 30
0.0
 11
248.1958225219157
 21
44.99988699999986
 31
0.0
  0
LINE
  5
6E9A
330
1E
100
AcDbEntity
  8
0
  6
CONTINUOUS
100
AcDbLine
 10
248.1958225219157
 20
46.19999999999985
 30
0.0
 11
254.6958455219157
 21
46.19999999999985
 31
0.0
  0
LINE
  5
6E9B
330
1E
100
AcDbEntity
  8
0
  6
CONTINUOUS
100
AcDbLine
 10
248.1958225219157
 20
44.99988699999986
 30
0.0
 11
248.1958225219157
 21
46.19999999999985
 31
0.0
  0
LINE
  5
6E9C
330
1E
100
AcDbEntity
  8
0
  6
CONTINUOUS
100
AcDbLine
 10
255.1958335219155
 20
46.64061099999989
 30
0.0
 11
254.6958455219157
 21
46.64061099999989
 31
0.0
  0
LINE
  5
6E9D
330
1E
100
AcDbEntity
  8
0
  6
CONTINUOUS
100
AcDbLine
 10
254.6958455219157
 20
46.64061099999989
 30
0.0
 11
254.6958455219157
 21
46.19999999999985
 31
0.0
  0
LINE
  5
6E9E
330
1E
100
AcDbEntity
  8
0
  6
CONTINUOUS
100
AcDbLine
 10
255.1958335219155
 20
45.14061099999985
 30
0.0
 11
255.1958335219155
 21
46.64061099999989
 31
0.0
  0
LINE
  5
6E9F
330
1E
100
AcDbEntity
  8
0
  6
CONTINUOUS
100
AcDbLine
 10
233.1958225219157
 20
64.99988699999981
 30
0.0
 11
248.1958225219157
 21
64.99988699999981
 31
0.0
  0
LINE
  5
6EA0
330
1E
100
AcDbEntity
  8
0
  6
CONTINUOUS
100
AcDbLine
 10
233.1958225219157
 20
64.99988699999981
 30
0.0
 11
233.1958225219157
 21
67.99986899999975
 31
0.0
  0
LINE
  5
6EA1
330
1E
100
AcDbEntity
  8
0
  6
CONTINUOUS
100
AcDbLine
 10
248.1958225219157
 20
63.79999999999983
 30
0.0
 11
254.6958455219157
 21
63.79999999999983
 31
0.0
  0
LINE
  5
6EA2
330
1E
100
AcDbEntity
  8
0
  6
CONTINUOUS
100
AcDbLine
 10
248.1958225219157
 20
63.79999999999983
 30
0.0
 11
248.1958225219157
 21
64.99988699999981
 31
0.0
  0
LINE
  5
6EA3
330
1E
100
AcDbEntity
  8
0
  6
CONTINUOUS
100
AcDbLine
 10
254.6958455219157
 20
63.35939000000006
 30
0.0
 11
255.1958335219155
 21
63.35939000000006
 31
0.0
  0
LINE
  5
6EA4
330
1E
100
AcDbEntity
  8
0
  6
CONTINUOUS
100
AcDbLine
 10
254.6958455219157
 20
63.35939000000006
 30
0.0
 11
254.6958455219157
 21
63.79999999999983
 31
0.0
  0
LINE
  5
6EA5
330
1E
100
AcDbEntity
  8
0
  6
CONTINUOUS
100
AcDbLine
 10
255.1958335219155
 20
63.35939000000006
 30
0.0
 11
255.1958335219155
 21
64.85938999999993
 31
0.0
  0
LINE
  5
6EA6
330
1E
100
AcDbEntity
  8
0
  6
CONTINUOUS
100
AcDbLine
 10
260.1958085219155
 20
56.49873799999987
 30
0.0
 11
286.1958085219157
 21
56.49873799999987
 31
0.0
  0
LINE
  5
6EA7
330
1E
100
AcDbEntity
  8
0
  6
CONTINUOUS
100
AcDbLine
 10
260.1958085219155
 20
53.49873799999976
 30
0.0
 11
286.1958085219157
 21
53.49873799999976
 31
0.0
  0
LINE
  5
6EA8
330
1E
100
AcDbEntity
  8
0
  6
CONTINUOUS
100
AcDbLine
 10
265.3102165219156
 20
57.99958800000012
 30
0.0
 11
306.1958085219156
 21
57.99958800000012
 31
0.0
  0
LINE
  5
6EA9
330
1E
100
AcDbEntity
  8
0
  6
CONTINUOUS
100
AcDbLine
 10
265.3102165219156
 20
51.9995880000001
 30
0.0
 11
306.1958085219156
 21
51.9995880000001
 31
0.0
  0
LINE
  5
6EAA
330
1E
100
AcDbEntity
  8
0
  6
CONTINUOUS
100
AcDbLine
 10
261.2053705219157
 20
64.60938999999983
 30
0.0
 11
264.8772035219157
 21
58.2495880000001
 31
0.0
  0
LINE
  5
6EAB
330
1E
100
AcDbEntity
  8
0
  6
CONTINUOUS
100
AcDbLine
 10
260.1958085219155
 20
46.64061099999989
 30
0.0
 11
260.1958085219155
 21
63.35939000000006
 31
0.0
  0
LINE
  5
6EAC
330
1E
100
AcDbEntity
  8
0
  6
CONTINUOUS
100
AcDbLine
 10
261.2053705219157
 20
45.38978699999977
 30
0.0
 11
264.8772035219157
 21
51.74958800000012
 31
0.0
  0
ARC
  5
6EAD
330
1E
100
AcDbEntity
  8
0
  6
CONTINUOUS
100
AcDbCircle
 10
260.7723575219155
 20
45.63978699999988
 30
0.0
 40
0.5
100
AcDbArc
 50
270.0
 51
329.9999999999993
  0
ARC
  5
6EAE
330
1E
100
AcDbEntity
  8
0
  6
CONTINUOUS
100
AcDbCircle
 10
265.3102165219156
 20
58.49958800000012
 30
0.0
 40
0.5
100
AcDbArc
 50
210.0000000000004
 51
270.0
  0
ARC
  5
6EAF
330
1E
100
AcDbEntity
  8
0
  6
CONTINUOUS
100
AcDbCircle
 10
265.3102165219156
 20
51.49958799999989
 30
0.0
 40
0.5
100
AcDbArc
 50
90.0
 51
149.9999999999993
  0
LINE
  5
6EB0
330
1E
100
AcDbEntity
  8
0
  6
CONTINUOUS
100
AcDbLine
 10
268.1699885219155
 20
56.49873799999987
 30
0.0
 11
268.1699885219155
 21
57.99958800000012
 31
0.0
  0
LINE
  5
6EB1
330
1E
100
AcDbEntity
  8
0
  6
CONTINUOUS
100
AcDbLine
 10
268.1699885219155
 20
51.9995880000001
 30
0.0
 11
268.1699885219155
 21
53.49873799999976
 31
0.0
  0
LINE
  5
6EB2
330
1E
100
AcDbEntity
  8
0
  6
CONTINUOUS
100
AcDbLine
 10
278.1958085219155
 20
47.70408000000006
 30
0.0
 11
278.1958085219155
 21
61.31694899999989
 31
0.0
  0
ARC
  5
6EB3
330
1E
100
AcDbEntity
  8
0
  6
CONTINUOUS
100
AcDbCircle
 10
260.7723575219155
 20
64.35939000000006
 30
0.0
 40
0.5
100
AcDbArc
 50
30.00000000000054
 51
90.0
  0
LINE
  5
6EB4
330
1E
100
AcDbEntity
  8
0
  6
CONTINUOUS
100
AcDbLine
 10
286.1958085219157
 20
53.49873799999976
 30
0.0
 11
286.1958085219157
 21
56.49873799999987
 31
0.0
  0
LINE
  5
6EB5
330
1E
100
AcDbEntity
  8
0
  6
CONTINUOUS
100
AcDbLine
 10
306.1958085219156
 20
56.49873799999987
 30
0.0
 11
306.1958085219156
 21
57.99958800000012
 31
0.0
  0
LINE
  5
6EB6
330
1E
100
AcDbEntity
  8
0
  6
CONTINUOUS
100
AcDbLine
 10
306.1958085219156
 20
51.9995880000001
 30
0.0
 11
306.1958085219156
 21
53.49873799999976
 31
0.0
  0
LINE
  5
6EB7
330
1E
100
AcDbEntity
  8
0
  6
CONTINUOUS
100
AcDbLine
 10
306.1958085219156
 20
53.49873799999976
 30
0.0
 11
306.1958085219156
 21
56.49873799999987
 31
0.0
  0
DIMENSION
  5
6EB8
330
1E
100
AcDbEntity
  8
30
  6
CONTINUOUS
100
AcDbDimension
  2
*D38
 10
346.6395341872441
 20
53.49873799999976
 30
0.0
 11
348.9728675205775
 21
76.83207133333336
 31
0.0
 70
   160
  3
STANDARD
100
AcDbAlignedDimension
 13
336.1958085219157
 23
56.49873799999987
 33
0.0
 14
336.1958085219157
 24
53.49873799999976
 34
0.0
 50
90.0
100
AcDbRotatedDimension
1001
ACAD
1000
DSTYLE
1002
{
1070
    79
1070
     3
1002
}
  0
LINE
  5
6EB9
330
1E
100
AcDbEntity
  8
0
  6
CONTINUOUS
100
AcDbLine
 10
328.1958085219156
 20
47.70408000000006
 30
0.0
 11
328.1958085219156
 21
61.53651199999988
 31
0.0
  0
LINE
  5
6EBA
330
1E
100
AcDbEntity
  8
0
  6
CONTINUOUS
100
AcDbLine
 10
336.1958085219157
 20
53.49873799999976
 30
0.0
 11
336.1958085219157
 21
56.49873799999987
 31
0.0
  0
LINE
  5
6F69
330
1E
100
AcDbEntity
  8
11
 48
2.0
100
AcDbLine
 10
34.00006800000005
 20
-320.847519021035
 30
0.0
 11
34.00006800000005
 21
-180.8472690210347
 31
0.0
  0
LINE
  5
6F6A
330
1E
100
AcDbEntity
  8
18
  6
DIVIDE
100
AcDbLine
 10
46.5
 20
-327.8473940210351
 30
0.0
 11
46.5
 21
-173.8473940210347
 31
0.0
  0
LINE
  5
6F6B
330
1E
100
AcDbEntity
  8
11
 48
2.0
100
AcDbLine
 10
-34.00006699999994
 20
-180.8472690210347
 30
0.0
 11
-34.00006699999994
 21
-320.847519021035
 31
0.0
  0
LINE
  5
6F6C
330
1E
100
AcDbEntity
  8
18
  6
DIVIDE
100
AcDbLine
 10
-46.50000000000011
 20
-173.8473940210347
 30
0.0
 11
-46.50000000000011
 21
-327.8473940210351
 31
0.0
  0
DIMENSION
  5
6F6D
330
1E
100
AcDbEntity
  8
30
  6
CONTINUOUS
100
AcDbDimension
  2
*D43
 10
79.25542569104493
 20
-320.847519021035
 30
0.0
 11
76.25542569104499
 21
-250.8473940210349
 31
0.0
 70
    32
  1
140
  3
STANDARD
100
AcDbAlignedDimension
 13
34.00006800000005
 23
-180.8472690210347
 33
0.0
 14
34.00006800000005
 24
-320.847519021035
 34
0.0
 50
90.0
100
AcDbRotatedDimension
1001
ACAD
1000
DSTYLE
1002
{
1070
    79
1070
     3
1002
}
  0
DIMENSION
  5
6F6E
330
1E
100
AcDbEntity
  8
30
  6
CONTINUOUS
100
AcDbDimension
  2
*D44
 10
66.59407580484921
 20
-283.8473940210351
 30
0.0
 11
66.59407580484923
 21
-251.1497533389011
 31
0.0
 70
   160
  1
66
  3
STANDARD
100
AcDbAlignedDimension
 13
44.53668000000003
 23
-217.8473940210349
 33
0.0
 14
44.53668000000003
 24
-283.8473940210351
 34
0.0
 50
90.0
100
AcDbRotatedDimension
1001
ACAD
1000
DSTYLE
1002
{
1070
    79
1070
     3
1002
}
  0
DIMENSION
  5
6F6F
330
1E
100
AcDbEntity
  8
30
  6
CONTINUOUS
100
AcDbDimension
  2
*D45
 10
38.99999999999986
 20
-364.3148085797108
 30
0.0
 11
-0.8295229488772973
 21
-364.3148085797108
 31
0.0
 70
   160
  1
78
  3
STANDARD
100
AcDbAlignedDimension
 13
-39.00000000000023
 23
-291.1864310210351
 33
0.0
 14
38.99999999999987
 24
-291.1864310210351
 34
0.0
100
AcDbRotatedDimension
1001
ACAD
1000
DSTYLE
1002
{
1070
    79
1070
     3
1002
}
  0
DIMENSION
  5
6F70
330
1E
100
AcDbEntity
  8
30
  6
CONTINUOUS
100
AcDbDimension
  2
*D46
 10
34.00006800000005
 20
-350.8427776913578
 30
0.0
 11
-1.368910570468755
 21
-350.8427776913578
 31
0.0
 70
   160
  1
68
  3
STANDARD
100
AcDbAlignedDimension
 13
-34.00006699999994
 23
-320.847519021035
 33
0.0
 14
34.00006800000005
 24
-320.847519021035
 34
0.0
100
AcDbRotatedDimension
1001
ACAD
1000
DSTYLE
1002
{
1070
    79
1070
     3
1002
}
  0
LINE
  5
6F71
330
1E
100
AcDbEntity
  8
11
 48
2.0
100
AcDbLine
 10
-34.00006699999994
 20
-320.847519021035
 30
0.0
 11
34.00006800000005
 21
-320.847519021035
 31
0.0
  0
LINE
  5
6F72
330
1E
100
AcDbEntity
  8
18
  6
DIVIDE
100
AcDbLine
 10
-43.50000000000011
 20
-330.8473940210351
 30
0.0
 11
43.49999999999977
 21
-330.8473940210351
 31
0.0
  0
ARC
  5
6F73
330
1E
100
AcDbEntity
  8
18
  6
DIVIDE
100
AcDbCircle
 10
-43.50000000000011
 20
-327.8473940210351
 30
0.0
 40
3.0
100
AcDbArc
 50
180.0
 51
270.0
  0
LINE
  5
6F74
330
1E
100
AcDbEntity
  8
12
  6
CONTINUOUS
 62
     3
100
AcDbLine
 10
-39.00000000000023
 20
-290.1864310210351
 30
0.0
 11
-39.00000000000023
 21
-276.6554190210348
 31
0.0
  0
LINE
  5
6F75
330
1E
100
AcDbEntity
  8
12
  6
CONTINUOUS
 62
     3
100
AcDbLine
 10
-33.24838399999999
 20
-283.8473940210351
 30
0.0
 11
-44.53667900000016
 21
-283.8473940210351
 31
0.0
  0
INSERT
  5
6F76
330
1E
100
AcDbEntity
  8
12
  6
CONTINUOUS
 62
     3
100
AcDbBlockReference
  2
_OPEN
 10
-40.87747148001664
 20
-286.1872873608528
 30
0.0
 41
3.999999999999986
 42
4.0
 43
4.0
 50
54.72977748779396
  0
CIRCLE
  5
6F77
330
1E
100
AcDbEntity
  8
12
  6
CONTINUOUS
 62
     3
100
AcDbCircle
 10
-39.00000000000023
 20
-283.8473940210351
 30
0.0
 40
3.0
  0
ARC
  5
6F78
330
1E
100
AcDbEntity
  8
18
  6
DIVIDE
100
AcDbCircle
 10
43.49999999999977
 20
-327.8473940210351
 30
0.0
 40
3.0
100
AcDbArc
 50
270.0
 51
0.0
  0
LINE
  5
6F79
330
1E
100
AcDbEntity
  8
12
  6
CONTINUOUS
 62
     3
100
AcDbLine
 10
38.99999999999987
 20
-290.1864310210351
 30
0.0
 11
38.99999999999987
 21
-276.6554190210348
 31
0.0
  0
CIRCLE
  5
6F7A
330
1E
100
AcDbEntity
  8
12
  6
CONTINUOUS
 62
     3
100
AcDbCircle
 10
38.99999999999987
 20
-283.8473940210351
 30
0.0
 40
3.0
  0
LINE
  5
6F7B
330
1E
100
AcDbEntity
  8
12
  6
CONTINUOUS
 62
     3
100
AcDbLine
 10
33.24838499999975
 20
-283.8473940210351
 30
0.0
 11
44.53668000000003
 21
-283.8473940210351
 31
0.0
  0
LINE
  5
6F7C
330
1E
100
AcDbEntity
  8
11
 48
2.0
100
AcDbLine
 10
-34.00006699999994
 20
-180.8472690210347
 30
0.0
 11
34.00006800000005
 21
-180.8472690210347
 31
0.0
  0
LINE
  5
6F7D
330
1E
100
AcDbEntity
  8
18
  6
DIVIDE
100
AcDbLine
 10
-43.50000000000011
 20
-170.847394021035
 30
0.0
 11
43.49999999999977
 21
-170.847394021035
 31
0.0
  0
LINE
  5
6F7E
330
1E
100
AcDbEntity
  8
12
  6
CONTINUOUS
 62
     3
100
AcDbLine
 10
-33.24838399999999
 20
-217.8473940210349
 30
0.0
 11
-44.53667900000016
 21
-217.8473940210349
 31
0.0
  0
LINE
  5
6F7F
330
1E
100
AcDbEntity
  8
12
  6
CONTINUOUS
 62
     3
100
AcDbLine
 10
-39.00000000000023
 20
-211.508356021035
 30
0.0
 11
-39.00000000000023
 21
-225.039369021035
 31
0.0
  0
CIRCLE
  5
6F80
330
1E
100
AcDbEntity
  8
12
  6
CONTINUOUS
 62
     3
100
AcDbCircle
 10
-39.00000000000023
 20
-217.8473940210349
 30
0.0
 40
3.0
  0
CIRCLE
  5
6F81
330
1E
100
AcDbEntity
  8
18
  6
DIVIDE
100
AcDbCircle
 10
-42.50246800000001
 20
-175.6526310210348
 30
0.0
 40
0.3
  0
ARC
  5
6F82
330
1E
100
AcDbEntity
  8
18
  6
DIVIDE
100
AcDbCircle
 10
-43.50000000000011
 20
-173.8473940210347
 30
0.0
 40
3.0
100
AcDbArc
 50
90.0
 51
180.0
  0
LINE
  5
6F83
330
1E
100
AcDbEntity
  8
12
  6
CONTINUOUS
 62
     3
100
AcDbLine
 10
38.99999999999987
 20
-211.508356021035
 30
0.0
 11
38.99999999999987
 21
-225.039369021035
 31
0.0
  0
CIRCLE
  5
6F84
330
1E
100
AcDbEntity
  8
12
  6
CONTINUOUS
 62
     3
100
AcDbCircle
 10
38.99999999999987
 20
-217.8473940210349
 30
0.0
 40
3.0
  0
LINE
  5
6F85
330
1E
100
AcDbEntity
  8
12
  6
CONTINUOUS
 62
     3
100
AcDbLine
 10
33.24838499999975
 20
-217.8473940210349
 30
0.0
 11
44.53668000000003
 21
-217.8473940210349
 31
0.0
  0
ARC
  5
6F86
330
1E
100
AcDbEntity
  8
18
  6
DIVIDE
100
AcDbCircle
 10
43.49999999999977
 20
-173.8473940210347
 30
0.0
 40
3.0
100
AcDbArc
 50
0.0
 51
90.0
  0
LINE
  5
6F87
330
1E
100
AcDbEntity
  8
30
  6
CONTINUOUS
100
AcDbLine
 10
-43.18720502900429
 20
-289.4530385658102
 30
0.0
 11
-65.38460455765878
 21
-320.8381237802508
 31
0.0
1001
ACAD
1000
R13OBJECT
1002
{
1005
6F76
1002
}
  0
LINE
  5
6F88
330
1E
100
AcDbEntity
  8
30
  6
CONTINUOUS
100
AcDbLine
 10
-65.38460455765878
 20
-320.8381237802508
 30
0.0
 11
-88.76880569980983
 21
-320.8381237802508
 31
0.0
  0
TEXT
  5
6F89
330
1E
100
AcDbEntity
  8
30
  6
CONTINUOUS
100
AcDbText
 10
-87.27152800000011
 20
-320.2247050662281
 30
0.0
 40
5.0
  1
４－%%C６
100
AcDbText
  0
LWPOLYLINE
  5
70A7
330
1E
100
AcDbEntity
  8
18
100
AcDbPolyline
 90
        6
 70
   128
 43
0.0
 10
66.00146405679598
 20
186.6132844781018
 10
63.40943695015917
 20
188.5292624432445
 10
63.31470688122108
 20
190.0264867377627
 10
64.39299934114552
 20
191.2298733081039
 10
65.4884424246101
 20
194.0313093815858
 10
63.5113454797209
 20
196.5737587864018
  0
LINE
  5
70A8
330
1E
100
AcDbEntity
  8
10
  6
CONTINOUS
100
AcDbLine
 10
46.5
 20
174.953879291846
 30
0.0
 11
46.5
 21
188.6538792918458
 31
0.0
  0
LINE
  5
70A9
330
1E
100
AcDbEntity
  8
10
  6
CONTINOUS
100
AcDbLine
 10
-46.49999999999994
 20
174.953879291846
 30
0.0
 11
-46.49999999999994
 21
188.6538792918458
 31
0.0
  0
LWPOLYLINE
  5
70AA
330
1E
100
AcDbEntity
  8
18
100
AcDbPolyline
 90
        6
 70
   128
 43
0.0
 10
66.00146366684993
 20
186.6132844781018
 10
63.40943656021336
 20
188.5292624432445
 10
63.31470649127489
 20
190.0264867377624
 10
64.3929989511992
 20
191.2298733081038
 10
65.48844203466369
 20
194.0313093815854
 10
63.51134508977493
 20
196.5737587864018
210
0.0
220
0.0
230
-1.0
  0
LINE
  5
70AD
330
1E
100
AcDbEntity
  8
10
  6
CONTINOUS
100
AcDbLine
 10
-24.8999389999999
 20
191.848882291846
 30
0.0
 11
24.9001530000001
 21
191.848882291846
 31
0.0
  0
LINE
  5
70AE
330
1E
100
AcDbEntity
  8
10
  6
CONTINOUS
100
AcDbLine
 10
-24.8999389999999
 20
192.756438291846
 30
0.0
 11
24.90006099999999
 21
192.756438291846
 31
0.0
  0
LINE
  5
70AF
330
1E
100
AcDbEntity
  8
10
  6
CONTINOUS
100
AcDbLine
 10
24.9001530000001
 20
192.756438291846
 30
0.0
 11
-24.89984699999991
 21
192.756438291846
 31
0.0
  0
LINE
  5
70B0
330
1E
100
AcDbEntity
  8
0
100
AcDbLine
 10
3.699999999999988
 20
258.2524082918459
 30
0.0
 11
21.29999999999989
 21
258.2524082918459
 31
0.0
  0
LINE
  5
70B1
330
1E
100
AcDbEntity
  8
10
  6
CONTINOUS
100
AcDbLine
 10
-22.49999999999994
 20
243.252408291846
 30
0.0
 11
22.49999999999988
 21
243.252408291846
 31
0.0
  0
LINE
  5
70B2
330
1E
100
AcDbEntity
  8
10
  6
CONTINOUS
100
AcDbLine
 10
24.9001530000001
 20
235.2524082918459
 30
0.0
 11
-24.89984699999991
 21
235.2524082918459
 31
0.0
  0
LINE
  5
70B3
330
1E
100
AcDbEntity
  8
0
100
AcDbLine
 10
5.5
 20
270.252408291846
 30
0.0
 11
19.5
 21
270.252408291846
 31
0.0
  0
LINE
  5
70B4
330
1E
100
AcDbEntity
  8
0
100
AcDbLine
 10
6.0
 20
296.2523942918459
 30
0.0
 11
19.0
 21
296.2523942918459
 31
0.0
  0
LINE
  5
70B5
330
1E
100
AcDbEntity
  8
0
  6
CENTER
100
AcDbLine
 10
23.928291
 20
288.2523942918459
 30
0.0
 11
2.233899000000008
 21
288.2523942918459
 31
0.0
  0
LINE
  5
70B6
330
1E
100
AcDbEntity
  8
10
  6
CONTINOUS
100
AcDbLine
 10
-46.49999999999994
 20
188.6538792918458
 30
0.0
 11
46.5
 21
188.6538792918458
 31
0.0
  0
LINE
  5
70B7
330
1E
100
AcDbEntity
  8
18
100
AcDbLine
 10
-63.3236129999999
 20
188.6488822918458
 30
0.0
 11
63.32361299999998
 21
188.6488822918458
 31
0.0
  0
DIMENSION
  5
70B8
330
1E
100
AcDbEntity
  8
30
  6
CONTINUOUS
100
AcDbDimension
  2
*D54
 10
-12.5
 20
369.9219366524896
 30
0.0
 11
0.0000000000000028
 21
372.9219366524897
 31
0.0
 70
    32
  1
25
  3
STANDARD
100
AcDbAlignedDimension
 13
12.5
 23
304.5879482918459
 33
0.0
 14
-12.5
 24
355.3615152918457
 34
0.0
100
AcDbRotatedDimension
1001
ACAD
1000
DSTYLE
1002
{
1070
    79
1070
     3
1002
}
  0
DIMENSION
  5
70B9
330
1E
100
AcDbEntity
  8
30
  6
CONTINUOUS
100
AcDbDimension
  2
*D55
 10
91.89961565037441
 20
345.7523942918458
 30
0.0
 11
88.89961565037436
 21
342.0023942918459
 31
0.0
 70
    32
  1
8
  3
STANDARD
100
AcDbAlignedDimension
 13
-1.071708999999998
 23
338.2523942918459
 33
0.0
 14
-5.5
 24
345.7523942918458
 34
0.0
 50
270.0
100
AcDbRotatedDimension
1001
ACAD
1000
DSTYLE
1002
{
1070
    79
1070
     3
1002
}
  0
DIMENSION
  5
70BA
330
1E
100
AcDbEntity
  8
30
  6
CONTINUOUS
100
AcDbDimension
  2
*D56
 10
91.89961565037441
 20
338.2523942918459
 30
0.0
 11
88.89961565037436
 21
263.4531367918459
 31
0.0
 70
    32
  1
150
  3
STANDARD
100
AcDbAlignedDimension
 13
47.50000199999998
 23
188.6538792918458
 33
0.0
 14
-1.071708999999998
 24
338.2523942918459
 34
0.0
 50
270.0
100
AcDbRotatedDimension
1001
ACAD
1000
DSTYLE
1002
{
1070
    79
1070
     3
1002
}
  0
LINE
  5
70BB
330
1E
100
AcDbEntity
  8
0
100
AcDbLine
 10
5.5
 20
270.252408291846
 30
0.0
 11
5.5
 21
295.752394291846
 31
0.0
  0
LINE
  5
70BC
330
1E
100
AcDbEntity
  8
0
100
AcDbLine
 10
-15.49970100000001
 20
275.3668012918458
 30
0.0
 11
-15.49970100000001
 21
316.2523942918459
 31
0.0
  0
LINE
  5
70BD
330
1E
100
AcDbEntity
  8
0
100
AcDbLine
 10
-9.499701000000015
 20
275.3668012918458
 30
0.0
 11
-9.499701000000015
 21
316.2523942918459
 31
0.0
  0
LINE
  5
70BE
330
1E
100
AcDbEntity
  8
0
100
AcDbLine
 10
-21.0
 20
316.2523942918459
 30
0.0
 11
-21.0
 21
275.3668012918458
 31
0.0
  0
LINE
  5
70BF
330
1E
100
AcDbEntity
  8
0
100
AcDbLine
 10
-4.0
 20
316.2523942918459
 30
0.0
 11
-4.0
 21
275.3668012918458
 31
0.0
  0
LINE
  5
70C0
330
1E
100
AcDbEntity
  8
0
  6
CENTER
100
AcDbLine
 10
-12.5
 20
355.3615152918457
 30
0.0
 11
-12.5
 21
228.9747952918459
 31
0.0
  0
LINE
  5
70C1
330
1E
100
AcDbEntity
  8
0
100
AcDbLine
 10
-18.41384919164909
 20
342.2368848293093
 30
0.0
 11
-51.40642888401089
 21
357.347484641344
 31
0.0
1001
ACAD
1000
R13OBJECT
1002
{
1005
70D5
1002
}
  0
LINE
  5
70C2
330
1E
100
AcDbEntity
  8
0
100
AcDbLine
 10
-5.5
 20
316.2523942918459
 30
0.0
 11
-5.5
 21
345.7523942918458
 31
0.0
  0
LINE
  5
70C3
330
1E
100
AcDbEntity
  8
0
100
AcDbLine
 10
-10.998851
 20
316.2523942918459
 30
0.0
 11
-10.998851
 21
346.252394291846
 31
0.0
  0
LINE
  5
70C4
330
1E
100
AcDbEntity
  8
0
100
AcDbLine
 10
-13.998851
 20
316.2523942918459
 30
0.0
 11
-13.998851
 21
346.252394291846
 31
0.0
  0
LINE
  5
70C5
330
1E
100
AcDbEntity
  8
0
100
AcDbLine
 10
-19.5
 20
316.2523942918459
 30
0.0
 11
-19.5
 21
345.7523942918458
 31
0.0
  0
LINE
  5
70C8
330
1E
100
AcDbEntity
  8
0
  6
CENTER
100
AcDbLine
 10
-1.071708999999998
 20
338.2523942918459
 30
0.0
 11
-22.76610099999992
 21
338.2523942918459
 31
0.0
  0
LINE
  5
70C9
330
1E
100
AcDbEntity
  8
0
100
AcDbLine
 10
-6.0
 20
346.252394291846
 30
0.0
 11
-19.0
 21
346.252394291846
 31
0.0
  0
LINE
  5
70CB
330
1E
100
AcDbEntity
  8
0
100
AcDbLine
 10
-10.998851
 20
346.252394291846
 30
0.0
 11
-13.998851
 21
346.252394291846
 31
0.0
  0
POINT
  5
70CC
330
1E
100
AcDbEntity
  8
0
  6
BYBLOCK
100
AcDbPoint
 10
-19.5
 20
345.7523942918458
 30
0.0
  0
ARC
  5
70CD
330
1E
100
AcDbEntity
  8
0
100
AcDbCircle
 10
-19.0
 20
345.7523942918458
 30
0.0
 40
0.5
100
AcDbArc
 50
90.00000000000005
 51
180.0
  0
POINT
  5
70D1
330
1E
100
AcDbEntity
  8
0
  6
BYBLOCK
100
AcDbPoint
 10
-5.5
 20
345.7523942918458
 30
0.0
  0
ARC
  5
70D2
330
1E
100
AcDbEntity
  8
0
100
AcDbCircle
 10
-6.0
 20
345.7523942918458
 30
0.0
 40
0.5
100
AcDbArc
 50
0.0
 51
90.00000000000005
  0
ARC
  5
70D3
330
1E
100
AcDbEntity
  8
0
100
AcDbCircle
 10
-12.5
 20
338.2523942918459
 30
0.0
 40
3.25
100
AcDbArc
 50
242.5364109999994
 51
297.5092679999988
  0
ARC
  5
70D4
330
1E
100
AcDbEntity
  8
0
100
AcDbCircle
 10
-12.5
 20
338.2523942918459
 30
0.0
 40
3.25
100
AcDbArc
 50
62.49073200000116
 51
117.4635890000004
  0
INSERT
  5
70D5
330
1E
100
AcDbEntity
  8
0
100
AcDbBlockReference
  2
_OPEN
 10
-14.77713081241381
 20
340.5712679975823
 30
0.0
 41
-3.999999999999986
 42
4.0
 43
4.0
 50
155.3922226836592
  0
ARC
  5
70D6
330
1E
100
AcDbEntity
  8
0
100
AcDbCircle
 10
-12.5
 20
338.2523942918459
 30
0.0
 40
3.25
100
AcDbArc
 50
117.4635890000004
 51
242.5364109999994
  0
ARC
  5
70D7
330
1E
100
AcDbEntity
  8
0
100
AcDbCircle
 10
-12.5
 20
338.2523942918459
 30
0.0
 40
3.25
100
AcDbArc
 50
297.5092679999988
 51
62.49073200000116
  0
LINE
  5
70D8
330
1E
100
AcDbEntity
  8
0
100
AcDbLine
 10
-21.0
 20
316.2523942918459
 30
0.0
 11
-19.5
 21
316.2523942918459
 31
0.0
  0
LINE
  5
70D9
330
1E
100
AcDbEntity
  8
0
100
AcDbLine
 10
-5.5
 20
316.2523942918459
 30
0.0
 11
-19.5
 21
316.2523942918459
 31
0.0
  0
LINE
  5
70DA
330
1E
100
AcDbEntity
  8
0
100
AcDbLine
 10
-9.499701000000015
 20
316.2523942918459
 30
0.0
 11
-15.49970100000001
 21
316.2523942918459
 31
0.0
  0
LINE
  5
70DB
330
1E
100
AcDbEntity
  8
0
100
AcDbLine
 10
-5.5
 20
316.2523942918459
 30
0.0
 11
-4.0
 21
316.2523942918459
 31
0.0
  0
ARC
  5
70DC
330
1E
100
AcDbEntity
  8
0
100
AcDbCircle
 10
6.0
 20
295.752394291846
 30
0.0
 40
0.5
100
AcDbArc
 50
90.00000000000005
 51
180.0
  0
LINE
  5
70DD
330
1E
100
AcDbEntity
  8
18
100
AcDbLine
 10
-64.97777899999992
 20
191.848882291846
 30
0.0
 11
-24.8999389999999
 21
191.848882291846
 31
0.0
  0
LINE
  5
70DE
330
1E
100
AcDbEntity
  8
10
  6
CONTINOUS
100
AcDbLine
 10
-24.89984699999991
 20
188.6538792918458
 30
0.0
 11
-24.89984699999991
 21
243.252408291846
 31
0.0
  0
LINE
  5
70DF
330
1E
100
AcDbEntity
  8
10
  6
CONTINOUS
100
AcDbLine
 10
-24.8999389999999
 20
191.256438291846
 30
0.0
 11
-24.8999389999999
 21
243.252408291846
 31
0.0
  0
LINE
  5
70E0
330
1E
100
AcDbEntity
  8
0
100
AcDbLine
 10
-21.30000000000001
 20
258.2524082918459
 30
0.0
 11
-3.700000000000101
 21
258.2524082918459
 31
0.0
  0
LINE
  5
70E1
330
1E
100
AcDbEntity
  8
0
100
AcDbLine
 10
-22.10950300000012
 20
271.261955291846
 30
0.0
 11
-15.74970100000006
 21
274.9337892918458
 31
0.0
  0
LINE
  5
70E2
330
1E
100
AcDbEntity
  8
0
100
AcDbLine
 10
-4.140610000000093
 20
265.2524182918459
 30
0.0
 11
-20.85938899999991
 21
265.2524182918459
 31
0.0
  0
LINE
  5
70E3
330
1E
100
AcDbEntity
  8
0
100
AcDbLine
 10
-22.49999999999994
 20
258.2524082918459
 30
0.0
 11
-22.49999999999994
 21
243.252408291846
 31
0.0
  0
LINE
  5
70E4
330
1E
100
AcDbEntity
  8
0
100
AcDbLine
 10
-22.3593889999999
 20
265.2524182918459
 30
0.0
 11
-22.3593889999999
 21
271.261955291846
 31
0.0
  0
ARC
  5
70E5
330
1E
100
AcDbEntity
  8
0
100
AcDbCircle
 10
-21.85950300000012
 20
270.8289432918459
 30
0.0
 40
0.5
100
AcDbArc
 50
120.0000000000009
 51
180.0
  0
LINE
  5
70E6
330
1E
100
AcDbEntity
  8
0
100
AcDbLine
 10
-22.3593889999999
 20
271.261955291846
 30
0.0
 11
-21.0
 21
275.3668012918458
 31
0.0
  0
LINE
  5
70E7
330
1E
100
AcDbEntity
  8
0
100
AcDbLine
 10
-22.49999999999994
 20
258.2524082918459
 30
0.0
 11
-21.30000000000001
 21
258.2524082918459
 31
0.0
  0
LINE
  5
70E8
330
1E
100
AcDbEntity
  8
0
100
AcDbLine
 10
-20.85938899999991
 20
265.2524182918459
 30
0.0
 11
-22.3593889999999
 21
265.2524182918459
 31
0.0
  0
LINE
  5
70E9
330
1E
100
AcDbEntity
  8
0
100
AcDbLine
 10
-20.85938899999991
 20
264.7524312918458
 30
0.0
 11
-21.30000000000001
 21
264.7524312918458
 31
0.0
  0
LINE
  5
70EA
330
1E
100
AcDbEntity
  8
0
100
AcDbLine
 10
-20.85938899999991
 20
265.2524182918459
 30
0.0
 11
-20.85938899999991
 21
264.7524312918458
 31
0.0
  0
LINE
  5
70EB
330
1E
100
AcDbEntity
  8
0
100
AcDbLine
 10
-21.30000000000001
 20
258.2524082918459
 30
0.0
 11
-21.30000000000001
 21
264.7524312918458
 31
0.0
  0
LINE
  5
70EC
330
1E
100
AcDbEntity
  8
10
  6
CONTINOUS
100
AcDbLine
 10
-22.49999999999994
 20
243.252408291846
 30
0.0
 11
-24.89984699999991
 21
243.252408291846
 31
0.0
  0
LINE
  5
70ED
330
1E
100
AcDbEntity
  8
0
100
AcDbLine
 10
2.499999999999885
 20
258.2524082918459
 30
0.0
 11
2.499999999999885
 21
243.252408291846
 31
0.0
  0
LINE
  5
70EE
330
1E
100
AcDbEntity
  8
0
100
AcDbLine
 10
-2.500000000000113
 20
258.2524082918459
 30
0.0
 11
-2.500000000000113
 21
243.252408291846
 31
0.0
  0
LINE
  5
70EF
330
1E
100
AcDbEntity
  8
0
100
AcDbLine
 10
-2.889900000000011
 20
271.261955291846
 30
0.0
 11
-9.249701000000015
 21
274.9337892918458
 31
0.0
  0
ARC
  5
70F0
330
1E
100
AcDbEntity
  8
0
100
AcDbCircle
 10
-15.99970100000007
 20
275.3668012918458
 30
0.0
 40
0.5
100
AcDbArc
 50
300.0000000000008
 51
0.0
  0
ARC
  5
70F1
330
1E
100
AcDbEntity
  8
0
100
AcDbCircle
 10
-8.999701000000015
 20
275.3668012918458
 30
0.0
 40
0.5
100
AcDbArc
 50
180.0
 51
239.999999999999
  0
LINE
  5
70F2
330
1E
100
AcDbEntity
  8
0
100
AcDbLine
 10
4.140611000000092
 20
270.252408291846
 30
0.0
 11
4.140611000000092
 21
264.7524312918458
 31
0.0
  0
LINE
  5
70F3
330
1E
100
AcDbEntity
  8
0
100
AcDbLine
 10
-2.640610000000094
 20
265.2524182918459
 30
0.0
 11
-2.640610000000094
 21
271.261955291846
 31
0.0
  0
ARC
  5
70F4
330
1E
100
AcDbEntity
  8
0
100
AcDbCircle
 10
-3.139900000000011
 20
270.8289432918459
 30
0.0
 40
0.5
100
AcDbArc
 50
0.0
 51
59.99999999999907
  0
LINE
  5
70F5
330
1E
100
AcDbEntity
  8
0
100
AcDbLine
 10
-2.640610000000094
 20
271.261955291846
 30
0.0
 11
-4.0
 21
275.3668012918458
 31
0.0
  0
LINE
  5
70F6
330
1E
100
AcDbEntity
  8
0
100
AcDbLine
 10
5.5
 20
270.252408291846
 30
0.0
 11
4.140611000000092
 21
270.252408291846
 31
0.0
  0
LINE
  5
70F7
330
1E
100
AcDbEntity
  8
0
100
AcDbLine
 10
-3.700000000000101
 20
258.2524082918459
 30
0.0
 11
-2.500000000000113
 21
258.2524082918459
 31
0.0
  0
LINE
  5
70F8
330
1E
100
AcDbEntity
  8
0
100
AcDbLine
 10
-4.140610000000093
 20
265.2524182918459
 30
0.0
 11
-2.640610000000094
 21
265.2524182918459
 31
0.0
  0
LINE
  5
70F9
330
1E
100
AcDbEntity
  8
0
100
AcDbLine
 10
-4.140610000000093
 20
264.7524312918458
 30
0.0
 11
-3.700000000000101
 21
264.7524312918458
 31
0.0
  0
LINE
  5
70FA
330
1E
100
AcDbEntity
  8
0
100
AcDbLine
 10
-4.140610000000093
 20
265.2524182918459
 30
0.0
 11
-4.140610000000093
 21
264.7524312918458
 31
0.0
  0
LINE
  5
70FB
330
1E
100
AcDbEntity
  8
0
100
AcDbLine
 10
-3.700000000000101
 20
258.2524082918459
 30
0.0
 11
-3.700000000000101
 21
264.7524312918458
 31
0.0
  0
LINE
  5
70FC
330
1E
100
AcDbEntity
  8
0
100
AcDbLine
 10
3.699999999999988
 20
258.2524082918459
 30
0.0
 11
2.499999999999885
 21
258.2524082918459
 31
0.0
  0
LINE
  5
70FD
330
1E
100
AcDbEntity
  8
0
100
AcDbLine
 10
4.140611000000092
 20
264.7524312918458
 30
0.0
 11
3.699999999999988
 21
264.7524312918458
 31
0.0
  0
LINE
  5
70FE
330
1E
100
AcDbEntity
  8
0
100
AcDbLine
 10
3.699999999999988
 20
258.2524082918459
 30
0.0
 11
3.699999999999988
 21
264.7524312918458
 31
0.0
  0
LINE
  5
70FF
330
1E
100
AcDbEntity
  8
0
100
AcDbLine
 10
11.00114899999999
 20
270.252394291846
 30
0.0
 11
11.00114899999999
 21
296.2523942918459
 31
0.0
  0
LINE
  5
7100
330
1E
100
AcDbEntity
  8
0
100
AcDbLine
 10
14.00114899999999
 20
270.252394291846
 30
0.0
 11
14.00114899999999
 21
296.2523942918459
 31
0.0
  0
LINE
  5
7101
330
1E
100
AcDbEntity
  8
0
100
AcDbLine
 10
19.5
 20
270.252408291846
 30
0.0
 11
19.5
 21
295.752394291846
 31
0.0
  0
LINE
  5
7102
330
1E
100
AcDbEntity
  8
0
  6
CENTER
100
AcDbLine
 10
12.5
 20
304.5879482918459
 30
0.0
 11
12.5
 21
228.7628622918458
 31
0.0
  0
DIMENSION
  5
7103
330
1E
100
AcDbEntity
  8
30
  6
CONTINUOUS
100
AcDbDimension
  2
*D52
 10
72.88963490463117
 20
288.2523942918459
 30
0.0
 11
69.88963490463112
 21
238.4531367918459
 31
0.0
 70
    32
  1
100
  3
STANDARD
100
AcDbAlignedDimension
 13
46.5
 23
188.6538792918458
 33
0.0
 14
23.928291
 24
288.2523942918459
 34
0.0
 50
270.0
100
AcDbRotatedDimension
1001
ACAD
1000
DSTYLE
1002
{
1070
    79
1070
     3
1002
}
  0
DIMENSION
  5
7104
330
1E
100
AcDbEntity
  8
30
  6
CONTINUOUS
100
AcDbDimension
  2
*D53
 10
72.88963490463117
 20
296.2523942918459
 30
0.0
 11
69.88963490463112
 21
292.2523942918459
 31
0.0
 70
    32
  3
STANDARD
100
AcDbAlignedDimension
 13
24.92829299999999
 23
288.2523942918459
 33
0.0
 14
19.0
 24
296.2523942918459
 34
0.0
 50
270.0
100
AcDbRotatedDimension
1001
ACAD
1000
DSTYLE
1002
{
1070
    79
1070
     3
1002
}
  0
ARC
  5
7105
330
1E
100
AcDbEntity
  8
0
100
AcDbCircle
 10
12.5
 20
288.2523942918459
 30
0.0
 40
3.25
100
AcDbArc
 50
297.5092679999988
 51
62.49073200000116
  0
ARC
  5
7106
330
1E
100
AcDbEntity
  8
0
100
AcDbCircle
 10
12.5
 20
288.2523942918459
 30
0.0
 40
3.25
100
AcDbArc
 50
117.4635890000004
 51
242.5364109999994
  0
ARC
  5
7107
330
1E
100
AcDbEntity
  8
0
100
AcDbCircle
 10
12.5
 20
288.2523942918459
 30
0.0
 40
3.25
100
AcDbArc
 50
62.49073200000116
 51
117.4635890000004
  0
LINE
  5
7108
330
1E
100
AcDbEntity
  8
0
100
AcDbLine
 10
14.00114899999999
 20
296.2523942918459
 30
0.0
 11
11.00114899999999
 21
296.2523942918459
 31
0.0
  0
ARC
  5
7109
330
1E
100
AcDbEntity
  8
0
100
AcDbCircle
 10
19.0
 20
295.752394291846
 30
0.0
 40
0.5
100
AcDbArc
 50
0.0
 51
90.00000000000005
  0
ARC
  5
710A
330
1E
100
AcDbEntity
  8
0
100
AcDbCircle
 10
12.5
 20
288.2523942918459
 30
0.0
 40
3.25
100
AcDbArc
 50
242.5364109999994
 51
297.5092679999988
  0
LINE
  5
710B
330
1E
100
AcDbEntity
  8
18
100
AcDbLine
 10
24.90006099999999
 20
191.848882291846
 30
0.0
 11
64.9777859689251
 21
191.848882291846
 31
0.0
  0
LINE
  5
710C
330
1E
100
AcDbEntity
  8
10
  6
CONTINOUS
100
AcDbLine
 10
24.9001530000001
 20
188.6538792918458
 30
0.0
 11
24.9001530000001
 21
243.252408291846
 31
0.0
  0
LINE
  5
710D
330
1E
100
AcDbEntity
  8
10
  6
CONTINOUS
100
AcDbLine
 10
24.90006099999999
 20
191.256438291846
 30
0.0
 11
24.90006099999999
 21
243.252408291846
 31
0.0
  0
LINE
  5
710E
330
1E
100
AcDbEntity
  8
0
100
AcDbLine
 10
22.49999999999988
 20
258.2524082918459
 30
0.0
 11
22.49999999999988
 21
243.252408291846
 31
0.0
  0
LINE
  5
710F
330
1E
100
AcDbEntity
  8
0
100
AcDbLine
 10
19.5
 20
270.252408291846
 30
0.0
 11
20.85938999999989
 21
270.252408291846
 31
0.0
  0
LINE
  5
7110
330
1E
100
AcDbEntity
  8
0
100
AcDbLine
 10
20.85938999999989
 20
270.252408291846
 30
0.0
 11
20.85938999999989
 21
264.7524312918458
 31
0.0
  0
LINE
  5
7111
330
1E
100
AcDbEntity
  8
0
100
AcDbLine
 10
21.29999999999989
 20
258.2524082918459
 30
0.0
 11
22.49999999999988
 21
258.2524082918459
 31
0.0
  0
LINE
  5
7112
330
1E
100
AcDbEntity
  8
0
100
AcDbLine
 10
20.85938999999989
 20
264.7524312918458
 30
0.0
 11
21.29999999999989
 21
264.7524312918458
 31
0.0
  0
LINE
  5
7113
330
1E
100
AcDbEntity
  8
0
100
AcDbLine
 10
21.29999999999989
 20
258.2524082918459
 30
0.0
 11
21.29999999999989
 21
264.7524312918458
 31
0.0
  0
LINE
  5
7114
330
1E
100
AcDbEntity
  8
10
  6
CONTINOUS
100
AcDbLine
 10
22.49999999999988
 20
243.252408291846
 30
0.0
 11
24.9001530000001
 21
243.252408291846
 31
0.0
  0
LINE
  5
7115
330
1E
100
AcDbEntity
  8
10
  6
CONTINOUS
100
AcDbLine
 10
6.5
 20
192.756438291846
 30
0.0
 11
6.5
 21
188.6538792918458
 31
0.0
  0
LINE
  5
7116
330
1E
100
AcDbEntity
  8
10
  6
CONTINOUS
100
AcDbLine
 10
18.5
 20
192.756438291846
 30
0.0
 11
18.5
 21
188.6538792918458
 31
0.0
  0
POINT
  5
7117
330
1E
100
AcDbEntity
  8
10
  6
CONTINOUS
100
AcDbPoint
 10
47.5
 20
188.6538792918458
 30
0.0
  0
POINT
  5
7118
330
1E
100
AcDbEntity
  8
10
  6
CONTINOUS
100
AcDbPoint
 10
47.50000199999998
 20
188.6538792918458
 30
0.0
  0
LINE
  5
7119
330
1E
100
AcDbEntity
  8
10
  6
CONTINOUS
100
AcDbLine
 10
-1.500082000000019
 20
167.2525072918459
 30
0.0
 11
17.95006699999987
 21
167.2525072918459
 31
0.0
  0
LINE
  5
711A
330
1E
100
AcDbEntity
  8
10
  6
CONTINOUS
100
AcDbLine
 10
-23.74991699999992
 20
167.9538792918459
 30
0.0
 11
23.749918
 21
167.9538792918459
 31
0.0
  0
ARC
  5
711B
330
1E
100
AcDbEntity
  8
10
  6
CONTINOUS
100
AcDbCircle
 10
-39.49999999999993
 20
174.953879291846
 30
0.0
 40
7.0
100
AcDbArc
 50
180.0
 51
270.0
  0
LINE
  5
711C
330
1E
100
AcDbEntity
  8
10
  6
CONTINOUS
100
AcDbLine
 10
-18.5
 20
163.1524082918459
 30
0.0
 11
-23.74991699999992
 21
163.1524082918459
 31
0.0
  0
LINE
  5
711D
330
1E
100
AcDbEntity
  8
10
  6
CONTINOUS
100
AcDbLine
 10
-1.500082000000019
 20
167.2525072918459
 30
0.0
 11
-23.74991699999992
 21
167.2525072918459
 31
0.0
  0
LINE
  5
711E
330
1E
100
AcDbEntity
  8
10
  6
CONTINOUS
100
AcDbLine
 10
-23.74991699999992
 20
163.1524082918459
 30
0.0
 11
-23.74991699999992
 21
167.2525072918459
 31
0.0
  0
LINE
  5
711F
330
1E
100
AcDbEntity
  8
10
  6
CONTINOUS
100
AcDbLine
 10
-39.49999999999993
 20
167.9538792918459
 30
0.0
 11
-23.74991699999992
 21
167.9538792918459
 31
0.0
  0
LINE
  5
7120
330
1E
100
AcDbEntity
  8
10
  6
CONTINOUS
100
AcDbLine
 10
-23.74991699999992
 20
167.2525072918459
 30
0.0
 11
-23.74991699999992
 21
167.9538792918459
 31
0.0
  0
LINE
  5
7121
330
1E
100
AcDbEntity
  8
10
  6
CONTINOUS
100
AcDbLine
 10
-1.500082000000019
 20
163.1524082918459
 30
0.0
 11
-1.500082000000019
 21
167.2525072918459
 31
0.0
  0
LINE
  5
7122
330
1E
100
AcDbEntity
  8
10
  6
CONTINOUS
100
AcDbLine
 10
-6.5
 20
163.1524082918459
 30
0.0
 11
-18.5
 21
163.1524082918459
 31
0.0
  0
LINE
  5
7123
330
1E
100
AcDbEntity
  8
10
  6
CONTINOUS
100
AcDbLine
 10
-6.5
 20
163.1524082918459
 30
0.0
 11
-1.500082000000019
 21
163.1524082918459
 31
0.0
  0
LINE
  5
7124
330
1E
100
AcDbEntity
  8
10
  6
CONTINOUS
100
AcDbLine
 10
23.749918
 20
167.9538792918459
 30
0.0
 11
39.5
 21
167.9538792918459
 31
0.0
  0
LINE
  5
7125
330
1E
100
AcDbEntity
  8
10
  6
CONTINOUS
100
AcDbLine
 10
17.95006699999987
 20
167.2525072918459
 30
0.0
 11
23.749918
 21
167.2525072918459
 31
0.0
  0
LINE
  5
7126
330
1E
100
AcDbEntity
  8
10
  6
CONTINOUS
100
AcDbLine
 10
23.749918
 20
167.2525072918459
 30
0.0
 11
23.749918
 21
167.9538792918459
 31
0.0
  0
ARC
  5
7127
330
1E
100
AcDbEntity
  8
10
  6
CONTINOUS
100
AcDbCircle
 10
39.5
 20
174.953879291846
 30
0.0
 40
7.0
100
AcDbArc
 50
270.0
 51
0.0
  0
LINE
  5
7128
330
1E
100
AcDbEntity
  8
16
100
AcDbLine
 10
0.0
 20
126.4296562918458
 30
0.0
 11
0.0
 21
331.0371252918457
 31
0.0
  0
LINE
  5
7129
330
1E
100
AcDbEntity
  8
30
  6
CONTINUOUS
100
AcDbLine
 10
-51.40642888401089
 20
357.347484641344
 30
0.0
 11
-104.5859482645596
 21
357.347484641344
 31
0.0
  0
TEXT
  5
712A
330
1E
100
AcDbEntity
  8
30
  6
CONTINUOUS
100
AcDbText
 10
-102.414203005539
 20
350.7019559908421
 30
0.0
 40
5.0
  1
（Ｍ６ｘ１８）
100
AcDbText
  0
TEXT
  5
712B
330
1E
100
AcDbEntity
  8
30
  6
CONTINUOUS
100
AcDbText
 10
-83.22804753562058
 20
358.5021902316373
 30
0.0
 40
5.0
  1
%%C６．５
100
AcDbText
  0
TEXT
  5
722C
330
1E
100
AcDbEntity
  8
19
  6
CONTINUOUS
100
AcDbText
 10
304.9633850084908
 20
220.3517613267035
 30
0.0
 40
5.0
  1
S60-NF 2P FP
  7
STANDARD1
100
AcDbText
  0
TEXT
  5
722D
330
1E
100
AcDbEntity
  8
19
  6
CONTINUOUS
100
AcDbText
 10
304.9633850084908
 20
210.3517613267035
 30
0.0
 40
5.0
  1
E100-NF 2P FP
  7
STANDARD1
100
AcDbText
  0
TEXT
  5
722E
330
1E
100
AcDbEntity
  8
19
  6
CONTINUOUS
100
AcDbText
 10
164.9633850084907
 20
220.3517613267035
 30
0.0
 40
5.0
  1
E30-NF 2P FP
  7
STANDARD1
100
AcDbText
  0
TEXT
  5
722F
330
1E
100
AcDbEntity
  8
19
  6
CONTINUOUS
100
AcDbText
 10
164.9633850084907
 20
210.3517613267035
 30
0.0
 40
5.0
  1
S30-NF 2P FP
  7
STANDARD1
100
AcDbText
  0
TEXT
  5
7230
330
1E
100
AcDbEntity
  8
19
  6
CONTINUOUS
100
AcDbText
 10
164.9633850084907
 20
200.3517613267034
 30
0.0
 40
5.0
  1
E50-NF 2P FP
  7
STANDARD1
100
AcDbText
  0
TEXT
  5
7231
330
1E
100
AcDbEntity
  8
19
  6
CONTINUOUS
100
AcDbText
 10
234.9633850084906
 20
210.3517613267035
 30
0.0
 40
5.0
  1
S50-NF 2P FP
  7
STANDARD1
100
AcDbText
  0
TEXT
  5
7232
330
1E
100
AcDbEntity
  8
19
  6
CONTINUOUS
100
AcDbText
 10
234.9633850084906
 20
220.3517613267035
 30
0.0
 40
5.0
  1
S50-CF 2P FP
  7
STANDARD1
100
AcDbText
  0
TEXT
  5
7233
330
1E
100
AcDbEntity
  8
19
  6
CONTINUOUS
100
AcDbText
 10
234.9633850084906
 20
200.3517613267034
 30
0.0
 40
5.0
  1
E60-NF 2P FP
  7
STANDARD1
100
AcDbText
  0
VIEWPORT
  5
9AC
330
1A
100
AcDbEntity
 67
     1
  8
0
  6
CONTINUOUS
100
AcDbViewport
 10
171.999535
 20
144.1384739999999
 30
0.0
 40
488.867686
 41
292.351491
 68
    -1
 69
     1
1001
ACAD
1000
MVIEW
1002
{
1070
    16
1010
0.0
1020
0.0
1030
0.0
1010
0.0
1020
0.0
1030
1.0
1040
0.0
1040
292.351491
1040
171.999535
1040
144.1384739999999
1040
50.0
1040
0.0
1040
0.0
1070
     0
1070
   100
1070
     1
1070
     1
1070
     0
1070
     0
1070
     0
1070
     0
1040
0.0
1040
0.0
1040
0.0
1040
10.0
1040
10.0
1040
10.0
1040
10.0
1070
     0
1002
{
1002
}
1002
}
  0
ENDSEC
  0
SECTION
  2
OBJECTS
  0
DICTIONARY
  5
C
330
0
100
AcDbDictionary
  3
ACAD_GROUP
350
D
  3
ACAD_LAYOUT
350
19
  3
ACAD_MLINESTYLE
350
16
  3
ACAD_PLOTSETTINGS
350
18
  3
ACAD_PLOTSTYLENAME
350
E
  3
ACADDIM
350
5C76
  3
ACDBHEADERROUNDTRIPXREC
350
74B1
  3
ACDBVARIABLEDICTIONARY
350
5697
  0
DICTIONARY
  5
178
330
1E
100
AcDbDictionary
280
     1
  3
ACAD_LAYOUTSELFREF
360
74D3
  0
DICTIONARY
  5
17A
330
1A
100
AcDbDictionary
280
     1
  3
ACAD_LAYOUTSELFREF
360
74D2
  0
DICTIONARY
  5
D
102
{ACAD_REACTORS
330
C
102
}
330
C
100
AcDbDictionary
  0
DICTIONARY
  5
19
102
{ACAD_REACTORS
330
C
102
}
330
C
100
AcDbDictionary
  0
DICTIONARY
  5
16
102
{ACAD_REACTORS
330
C
102
}
330
C
100
AcDbDictionary
  3
STANDARD
350
17
  0
DICTIONARY
  5
18
102
{ACAD_REACTORS
330
C
102
}
330
C
100
AcDbDictionary
  0
ACDBDICTIONARYWDFLT
  5
E
102
{ACAD_REACTORS
330
C
102
}
330
C
100
AcDbDictionary
281
     1
  3
Normal
350
F
100
AcDbDictionaryWithDefault
340
F
  0
XRECORD
  5
5C76
102
{ACAD_REACTORS
330
C
102
}
330
C
100
AcDbXrecord
 90
   990106
  3

 60
     0
 61
     0
 62
     1
 63
     3
 64
     0
 65
     0
 66
     0
 67
     3
 68
     1
 69
     0
 70
     0
 71
     0
 72
     0
 40
0.0
170
     0
340
6200
  0
DICTIONARY
  5
74B1
102
{ACAD_REACTORS
330
C
102
}
330
C
100
AcDbDictionary
  3
CEPSNTYPE
350
74BB
  3
DIMSTYLEDATA
350
74BF
  3
FINGERPRINTGUID
350
74BC
  3
HYPERLINKBASE
350
74B4
  3
INSUNITS
350
74BA
  3
LAYOUTDICT
350
74B6
  3
LWETCUNION
350
74B9
  3
PLOTSETDICT
350
74B7
  3
PLOTSTYLNAMDICT
350
74B8
  3
PSVPSCALE
350
74BE
  3
PUCSBASE
350
74C2
  3
PUCSORGBACK
350
74C8
  3
PUCSORGBOTTOM
350
74C4
  3
PUCSORGFRONT
350
74C7
  3
PUCSORGLEFT
350
74C5
  3
PUCSORGRIGHT
350
74C6
  3
PUCSORGTOP
350
74C3
  3
PUCSORTHOREF
350
74C0
  3
PUCSORTHOVIEW
350
74C1
  3
STYLESHEET
350
74B5
  3
TSTACKALIGN
350
74B2
  3
TSTACKSIZE
350
74B3
  3
UCSBASE
350
74CB
  3
UCSORGBACK
350
74D1
  3
UCSORGBOTTOM
350
74CD
  3
UCSORGFRONT
350
74D0
  3
UCSORGLEFT
350
74CE
  3
UCSORGRIGHT
350
74CF
  3
UCSORGTOP
350
74CC
  3
UCSORTHOREF
350
74C9
  3
UCSORTHOVIEW
350
74CA
  3
VERSIONGUID
350
74BD
  0
DICTIONARY
  5
5697
102
{ACAD_REACTORS
330
C
102
}
330
C
100
AcDbDictionary
  3
DIMASSOC
350
5698
  0
XRECORD
  5
74D3
102
{ACAD_REACTORS
330
178
102
}
330
178
100
AcDbXrecord
340
1E
  0
XRECORD
  5
74D2
102
{ACAD_REACTORS
330
17A
102
}
330
17A
100
AcDbXrecord
340
1A
  0
MLINESTYLE
  5
17
102
{ACAD_REACTORS
330
16
102
}
330
16
100
AcDbMlineStyle
  2
STANDARD
 70
     0
  3

 62
   256
 51
90.0
 52
90.0
 71
     2
 49
0.5
 62
   256
  6
BYLAYER
 49
-0.5
 62
   256
  6
BYLAYER
  0
ACDBPLACEHOLDER
  5
F
102
{ACAD_REACTORS
330
E
102
}
330
E
100
AcDbPlaceHolder
280
     0
  0
XRECORD
  5
74BB
102
{ACAD_REACTORS
330
74B1
102
}
330
74B1
100
AcDbXrecord
 90
        0
  0
XRECORD
  5
74BF
102
{ACAD_REACTORS
330
74B1
102
}
330
74B1
100
AcDbXrecord
1000
DSTYLE
1002
{
1070
    79
 70
     3
1070
   341
340
3B2
1070
   342
340
3B2
1002
}
  0
XRECORD
  5
74BC
102
{ACAD_REACTORS
330
74B1
102
}
330
74B1
100
AcDbXrecord
  1

  0
XRECORD
  5
74B4
102
{ACAD_REACTORS
330
74B1
102
}
330
74B1
100
AcDbXrecord
  1

  0
XRECORD
  5
74BA
102
{ACAD_REACTORS
330
74B1
102
}
330
74B1
100
AcDbXrecord
 90
        0
  0
XRECORD
  5
74B6
102
{ACAD_REACTORS
330
74B1
102
}
330
74B1
100
AcDbXrecord
340
19
  0
XRECORD
  5
74B9
102
{ACAD_REACTORS
330
74B1
102
}
330
74B1
100
AcDbXrecord
 90
    10781
  0
XRECORD
  5
74B7
102
{ACAD_REACTORS
330
74B1
102
}
330
74B1
100
AcDbXrecord
340
18
  0
XRECORD
  5
74B8
102
{ACAD_REACTORS
330
74B1
102
}
330
74B1
100
AcDbXrecord
340
E
  0
XRECORD
  5
74BE
102
{ACAD_REACTORS
330
74B1
102
}
330
74B1
100
AcDbXrecord
 40
0.0
  0
XRECORD
  5
74C2
102
{ACAD_REACTORS
330
74B1
102
}
330
74B1
100
AcDbXrecord
340
0
  0
XRECORD
  5
74C8
102
{ACAD_REACTORS
330
74B1
102
}
330
74B1
100
AcDbXrecord
 10
0.0
 20
0.0
 30
0.0
  0
XRECORD
  5
74C4
102
{ACAD_REACTORS
330
74B1
102
}
330
74B1
100
AcDbXrecord
 10
0.0
 20
0.0
 30
0.0
  0
XRECORD
  5
74C7
102
{ACAD_REACTORS
330
74B1
102
}
330
74B1
100
AcDbXrecord
 10
0.0
 20
0.0
 30
0.0
  0
XRECORD
  5
74C5
102
{ACAD_REACTORS
330
74B1
102
}
330
74B1
100
AcDbXrecord
 10
0.0
 20
0.0
 30
0.0
  0
XRECORD
  5
74C6
102
{ACAD_REACTORS
330
74B1
102
}
330
74B1
100
AcDbXrecord
 10
0.0
 20
0.0
 30
0.0
  0
XRECORD
  5
74C3
102
{ACAD_REACTORS
330
74B1
102
}
330
74B1
100
AcDbXrecord
 10
0.0
 20
0.0
 30
0.0
  0
XRECORD
  5
74C0
102
{ACAD_REACTORS
330
74B1
102
}
330
74B1
100
AcDbXrecord
340
0
  0
XRECORD
  5
74C1
102
{ACAD_REACTORS
330
74B1
102
}
330
74B1
100
AcDbXrecord
 70
     0
  0
XRECORD
  5
74B5
102
{ACAD_REACTORS
330
74B1
102
}
330
74B1
100
AcDbXrecord
  1
NX.ctb
  0
XRECORD
  5
74B2
102
{ACAD_REACTORS
330
74B1
102
}
330
74B1
100
AcDbXrecord
 90
        1
  0
XRECORD
  5
74B3
102
{ACAD_REACTORS
330
74B1
102
}
330
74B1
100
AcDbXrecord
 90
       70
  0
XRECORD
  5
74CB
102
{ACAD_REACTORS
330
74B1
102
}
330
74B1
100
AcDbXrecord
340
0
  0
XRECORD
  5
74D1
102
{ACAD_REACTORS
330
74B1
102
}
330
74B1
100
AcDbXrecord
 10
0.0
 20
0.0
 30
0.0
  0
XRECORD
  5
74CD
102
{ACAD_REACTORS
330
74B1
102
}
330
74B1
100
AcDbXrecord
 10
0.0
 20
0.0
 30
0.0
  0
XRECORD
  5
74D0
102
{ACAD_REACTORS
330
74B1
102
}
330
74B1
100
AcDbXrecord
 10
0.0
 20
0.0
 30
0.0
  0
XRECORD
  5
74CE
102
{ACAD_REACTORS
330
74B1
102
}
330
74B1
100
AcDbXrecord
 10
0.0
 20
0.0
 30
0.0
  0
XRECORD
  5
74CF
102
{ACAD_REACTORS
330
74B1
102
}
330
74B1
100
AcDbXrecord
 10
0.0
 20
0.0
 30
0.0
  0
XRECORD
  5
74CC
102
{ACAD_REACTORS
330
74B1
102
}
330
74B1
100
AcDbXrecord
 10
0.0
 20
0.0
 30
0.0
  0
XRECORD
  5
74C9
102
{ACAD_REACTORS
330
74B1
102
}
330
74B1
100
AcDbXrecord
340
0
  0
XRECORD
  5
74CA
102
{ACAD_REACTORS
330
74B1
102
}
330
74B1
100
AcDbXrecord
 70
     0
  0
XRECORD
  5
74BD
102
{ACAD_REACTORS
330
74B1
102
}
330
74B1
100
AcDbXrecord
  1
{8C244E3A-BA26-4C0D-AE1B-A74B8060DAF3}
  0
DICTIONARYVAR
  5
5698
102
{ACAD_REACTORS
330
5697
102
}
330
5697
100
DictionaryVariables
280
     0
  1
1
  0
ENDSEC
  0
EOF
