  0
SECTION
  2
HEADER
  9
$ACADVER
  1
AC1015
  9
$ACADMAINTVER
 70
    10
  9
$DWGCODEPAGE
  3
ANSI_932
  9
$INSBASE
 10
0.0
 20
0.0
 30
0.0
  9
$EXTMIN
 10
-122.9999999999999
 20
-573.5
 30
0.0
  9
$EXTMAX
 10
427.1634296945397
 20
469.7475094850272
 30
0.0
  9
$LIMMIN
 10
-138.0
 20
-536.0
  9
$LIMMAX
 10
435.0
 20
423.0
  9
$ORTHOMODE
 70
     1
  9
$REGENMODE
 70
     1
  9
$FILLMODE
 70
     1
  9
$QTEXTMODE
 70
     0
  9
$MIRRTEXT
 70
     1
  9
$LTSCALE
 40
10.0
  9
$ATTMODE
 70
     1
  9
$TEXTSIZE
 40
5.0
  9
$TRACEWID
 40
0.05
  9
$TEXTSTYLE
  7
STANDARD1
  9
$CLAYER
  8
30
  9
$CELTYPE
  6
CONTINUOUS
  9
$CECOLOR
 62
   256
  9
$CELTSCALE
 40
1.0
  9
$DISPSILH
 70
     0
  9
$DIMSCALE
 40
1.0
  9
$DIMASZ
 40
2.0
  9
$DIMEXO
 40
1.0
  9
$DIMDLI
 40
0.5
  9
$DIMRND
 40
0.0
  9
$DIMDLE
 40
0.0
  9
$DIMEXE
 40
0.5
  9
$DIMTP
 40
0.0
  9
$DIMTM
 40
0.0
  9
$DIMTXT
 40
5.0
  9
$DIMCEN
 40
0.09
  9
$DIMTSZ
 40
0.0
  9
$DIMTOL
 70
     0
  9
$DIMLIM
 70
     0
  9
$DIMTIH
 70
     0
  9
$DIMTOH
 70
     1
  9
$DIMSE1
 70
     0
  9
$DIMSE2
 70
     0
  9
$DIMTAD
 70
     3
  9
$DIMZIN
 70
    12
  9
$DIMBLK
  1
OPEN
  9
$DIMASO
 70
     1
  9
$DIMSHO
 70
     1
  9
$DIMPOST
  1

  9
$DIMAPOST
  1

  9
$DIMALT
 70
     0
  9
$DIMALTD
 70
     2
  9
$DIMALTF
 40
25.4
  9
$DIMLFAC
 40
1.0
  9
$DIMTOFL
 70
     0
  9
$DIMTVP
 40
0.0
  9
$DIMTIX
 70
     0
  9
$DIMSOXD
 70
     0
  9
$DIMSAH
 70
     0
  9
$DIMBLK1
  1

  9
$DIMBLK2
  1

  9
$DIMSTYLE
  2
STANDARD
  9
$DIMCLRD
 70
     0
  9
$DIMCLRE
 70
     0
  9
$DIMCLRT
 70
     0
  9
$DIMTFAC
 40
1.0
  9
$DIMGAP
 40
1.0
  9
$DIMJUST
 70
     0
  9
$DIMSD1
 70
     0
  9
$DIMSD2
 70
     0
  9
$DIMTOLJ
 70
     1
  9
$DIMTZIN
 70
     0
  9
$DIMALTZ
 70
     0
  9
$DIMALTTZ
 70
     0
  9
$DIMUPT
 70
     0
  9
$DIMDEC
 70
     1
  9
$DIMTDEC
 70
     1
  9
$DIMALTU
 70
     2
  9
$DIMALTTD
 70
     2
  9
$DIMTXSTY
  7
STANDARD
  9
$DIMAUNIT
 70
     0
  9
$DIMADEC
 70
     0
  9
$DIMALTRND
 40
0.0
  9
$DIMAZIN
 70
     3
  9
$DIMDSEP
 70
    46
  9
$DIMATFIT
 70
     3
  9
$DIMFRAC
 70
     0
  9
$DIMLDRBLK
  1
OPEN
  9
$DIMLUNIT
 70
     2
  9
$DIMLWD
 70
    -2
  9
$DIMLWE
 70
    -2
  9
$DIMTMOVE
 70
     0
  9
$LUNITS
 70
     2
  9
$LUPREC
 70
     4
  9
$SKETCHINC
 40
0.1
  9
$FILLETRAD
 40
0.0
  9
$AUNITS
 70
     0
  9
$AUPREC
 70
     0
  9
$MENU
  1
.
  9
$ELEVATION
 40
0.0
  9
$PELEVATION
 40
0.0
  9
$THICKNESS
 40
0.0
  9
$LIMCHECK
 70
     0
  9
$CHAMFERA
 40
0.0
  9
$CHAMFERB
 40
0.0
  9
$CHAMFERC
 40
0.0
  9
$CHAMFERD
 40
0.0
  9
$SKPOLY
 70
     0
  9
$TDCREATE
 40
2452286.555658657
  9
$TDUCREATE
 40
2452286.180658657
  9
$TDUPDATE
 40
2454663.625770752
  9
$TDUUPDATE
 40
2454663.250770752
  9
$TDINDWG
 40
1.4365052546
  9
$TDUSRTIMER
 40
1.4365045370
  9
$USRTIMER
 70
     1
  9
$ANGBASE
 50
0.0
  9
$ANGDIR
 70
     0
  9
$PDMODE
 70
     0
  9
$PDSIZE
 40
0.0
  9
$PLINEWID
 40
0.0
  9
$SPLFRAME
 70
     0
  9
$SPLINETYPE
 70
     6
  9
$SPLINESEGS
 70
     8
  9
$HANDSEED
  5
6FE4
  9
$SURFTAB1
 70
     6
  9
$SURFTAB2
 70
     6
  9
$SURFTYPE
 70
     6
  9
$SURFU
 70
     6
  9
$SURFV
 70
     6
  9
$UCSBASE
  2

  9
$UCSNAME
  2

  9
$UCSORG
 10
0.0
 20
0.0
 30
0.0
  9
$UCSXDIR
 10
1.0
 20
0.0
 30
0.0
  9
$UCSYDIR
 10
0.0
 20
1.0
 30
0.0
  9
$UCSORTHOREF
  2

  9
$UCSORTHOVIEW
 70
     0
  9
$UCSORGTOP
 10
0.0
 20
0.0
 30
0.0
  9
$UCSORGBOTTOM
 10
0.0
 20
0.0
 30
0.0
  9
$UCSORGLEFT
 10
0.0
 20
0.0
 30
0.0
  9
$UCSORGRIGHT
 10
0.0
 20
0.0
 30
0.0
  9
$UCSORGFRONT
 10
0.0
 20
0.0
 30
0.0
  9
$UCSORGBACK
 10
0.0
 20
0.0
 30
0.0
  9
$PUCSBASE
  2

  9
$PUCSNAME
  2

  9
$PUCSORG
 10
0.0
 20
0.0
 30
0.0
  9
$PUCSXDIR
 10
1.0
 20
0.0
 30
0.0
  9
$PUCSYDIR
 10
0.0
 20
1.0
 30
0.0
  9
$PUCSORTHOREF
  2

  9
$PUCSORTHOVIEW
 70
     0
  9
$PUCSORGTOP
 10
0.0
 20
0.0
 30
0.0
  9
$PUCSORGBOTTOM
 10
0.0
 20
0.0
 30
0.0
  9
$PUCSORGLEFT
 10
0.0
 20
0.0
 30
0.0
  9
$PUCSORGRIGHT
 10
0.0
 20
0.0
 30
0.0
  9
$PUCSORGFRONT
 10
0.0
 20
0.0
 30
0.0
  9
$PUCSORGBACK
 10
0.0
 20
0.0
 30
0.0
  9
$USERI1
 70
     0
  9
$USERI2
 70
     0
  9
$USERI3
 70
     0
  9
$USERI4
 70
     0
  9
$USERI5
 70
     0
  9
$USERR1
 40
0.0
  9
$USERR2
 40
0.0
  9
$USERR3
 40
0.0
  9
$USERR4
 40
0.0
  9
$USERR5
 40
0.0
  9
$WORLDVIEW
 70
     1
  9
$SHADEDGE
 70
     3
  9
$SHADEDIF
 70
    70
  9
$TILEMODE
 70
     1
  9
$MAXACTVP
 70
    48
  9
$PINSBASE
 10
0.0
 20
0.0
 30
0.0
  9
$PLIMCHECK
 70
     0
  9
$PEXTMIN
 10
4.273573370203961
 20
5.205246163471485
 30
0.0
  9
$PEXTMAX
 10
194.6100952986349
 20
283.0697008572913
 30
0.0
  9
$PLIMMIN
 10
-5.873748779296875
 20
-5.873749732971191
  9
$PLIMMAX
 10
204.0995788574218
 20
291.1369009017943
  9
$UNITMODE
 70
     0
  9
$VISRETAIN
 70
     1
  9
$PLINEGEN
 70
     0
  9
$PSLTSCALE
 70
     1
  9
$TREEDEPTH
 70
  3020
  9
$CMLSTYLE
  2
STANDARD
  9
$CMLJUST
 70
     0
  9
$CMLSCALE
 40
1.0
  9
$PROXYGRAPHICS
 70
     1
  9
$MEASUREMENT
 70
     0
  9
$CELWEIGHT
370
    -1
  9
$ENDCAPS
280
     0
  9
$JOINSTYLE
280
     0
  9
$LWDISPLAY
290
     0
  9
$INSUNITS
 70
     0
  9
$HYPERLINKBASE
  1

  9
$STYLESHEET
  1
kiki.ctb
  9
$XEDIT
290
     1
  9
$CEPSNTYPE
380
     0
  9
$PSTYLEMODE
290
     1
  9
$FINGERPRINTGUID
  2

  9
$VERSIONGUID
  2
{22D7A2A7-34BB-49CE-9B3A-51CF81210555}
  9
$EXTNAMES
290
     1
  9
$PSVPSCALE
 40
0.0
  9
$OLESTARTUP
290
     0
  0
ENDSEC
  0
SECTION
  2
CLASSES
  0
CLASS
  1
ACDBDICTIONARYWDFLT
  2
AcDbDictionaryWithDefault
  3
AutoCAD 2000
 90
        0
280
     0
281
     0
  0
CLASS
  1
ACDBPLACEHOLDER
  2
AcDbPlaceHolder
  3
AutoCAD 2000
 90
        0
280
     0
281
     0
  0
CLASS
  1
LAYOUT
  2
AcDbLayout
  3
AutoCAD 2000
 90
        0
280
     0
281
     0
  0
CLASS
  1
LONG_TRANSACTION
  2
AcDbLongTransaction
  3
AutoCAD 2000
 90
    32768
280
     0
281
     0
  0
CLASS
  1
LWPOLYLINE
  2
AcDbPolyline
  3
AutoCAD 2000
 90
    32768
280
     0
281
     1
  0
CLASS
  1
HATCH
  2
AcDbHatch
  3
AutoCAD 2000
 90
    32768
280
     0
281
     1
  0
CLASS
  1
XRECORD
  2
AcDbXrecord
  3
AutoCAD 2000
 90
    32768
280
     0
281
     0
  0
CLASS
  1
LONG_TRANSACTION
  2
AcDbLongTransaction
  3
AutoCAD 2000
 90
    32768
280
     0
281
     0
  0
CLASS
  1
LWPOLYLINE
  2
AcDbPolyline
  3
AutoCAD 2000
 90
    32768
280
     0
281
     1
  0
CLASS
  1
HATCH
  2
AcDbHatch
  3
AutoCAD 2000
 90
    32768
280
     0
281
     1
  0
CLASS
  1
XRECORD
  2
AcDbXrecord
  3
AutoCAD 2000
 90
    32768
280
     0
281
     0
  0
CLASS
  1
LONG_TRANSACTION
  2
AcDbLongTransaction
  3
AutoCAD 2000
 90
    32768
280
     0
281
     0
  0
CLASS
  1
LWPOLYLINE
  2
AcDbPolyline
  3
AutoCAD 2000
 90
    32768
280
     0
281
     1
  0
CLASS
  1
HATCH
  2
AcDbHatch
  3
AutoCAD 2000
 90
    32768
280
     0
281
     1
  0
CLASS
  1
XRECORD
  2
AcDbXrecord
  3
AutoCAD 2000
 90
    32768
280
     0
281
     0
  0
CLASS
  1
LONG_TRANSACTION
  2
AcDbLongTransaction
  3
AutoCAD 2000
 90
    32768
280
     0
281
     0
  0
CLASS
  1
LWPOLYLINE
  2
AcDbPolyline
  3
AutoCAD 2000
 90
    32768
280
     0
281
     1
  0
CLASS
  1
HATCH
  2
AcDbHatch
  3
AutoCAD 2000
 90
    32768
280
     0
281
     1
  0
CLASS
  1
XRECORD
  2
AcDbXrecord
  3
AutoCAD 2000
 90
    32768
280
     0
281
     0
  0
CLASS
  1
LONG_TRANSACTION
  2
AcDbLongTransaction
  3
AutoCAD 2000
 90
    32768
280
     0
281
     0
  0
CLASS
  1
LWPOLYLINE
  2
AcDbPolyline
  3
AutoCAD 2000
 90
    32768
280
     0
281
     1
  0
CLASS
  1
HATCH
  2
AcDbHatch
  3
AutoCAD 2000
 90
    32768
280
     0
281
     1
  0
CLASS
  1
XRECORD
  2
AcDbXrecord
  3
AutoCAD 2000
 90
    32768
280
     0
281
     0
  0
CLASS
  1
LONG_TRANSACTION
  2
AcDbLongTransaction
  3
AutoCAD 2000
 90
    32768
280
     0
281
     0
  0
CLASS
  1
LWPOLYLINE
  2
AcDbPolyline
  3
AutoCAD 2000
 90
    32768
280
     0
281
     1
  0
CLASS
  1
HATCH
  2
AcDbHatch
  3
AutoCAD 2000
 90
    32768
280
     0
281
     1
  0
CLASS
  1
XRECORD
  2
AcDbXrecord
  3
AutoCAD 2000
 90
    32768
280
     0
281
     0
  0
CLASS
  1
LONG_TRANSACTION
  2
AcDbLongTransaction
  3
AutoCAD 2000
 90
    32768
280
     0
281
     0
  0
CLASS
  1
LWPOLYLINE
  2
AcDbPolyline
  3
AutoCAD 2000
 90
    32768
280
     0
281
     1
  0
CLASS
  1
HATCH
  2
AcDbHatch
  3
AutoCAD 2000
 90
    32768
280
     0
281
     1
  0
CLASS
  1
XRECORD
  2
AcDbXrecord
  3
AutoCAD 2000
 90
    32768
280
     0
281
     0
  0
CLASS
  1
LONG_TRANSACTION
  2
AcDbLongTransaction
  3
AutoCAD 2000
 90
    32768
280
     0
281
     0
  0
CLASS
  1
LWPOLYLINE
  2
AcDbPolyline
  3
AutoCAD 2000
 90
    32768
280
     0
281
     1
  0
CLASS
  1
HATCH
  2
AcDbHatch
  3
AutoCAD 2000
 90
    32768
280
     0
281
     1
  0
CLASS
  1
XRECORD
  2
AcDbXrecord
  3
AutoCAD 2000
 90
    32768
280
     0
281
     0
  0
CLASS
  1
LONG_TRANSACTION
  2
AcDbLongTransaction
  3
AutoCAD 2000
 90
    32768
280
     0
281
     0
  0
CLASS
  1
LWPOLYLINE
  2
AcDbPolyline
  3
AutoCAD 2000
 90
    32768
280
     0
281
     1
  0
CLASS
  1
HATCH
  2
AcDbHatch
  3
AutoCAD 2000
 90
    32768
280
     0
281
     1
  0
CLASS
  1
XRECORD
  2
AcDbXrecord
  3
AutoCAD 2000
 90
    32768
280
     0
281
     0
  0
CLASS
  1
LONG_TRANSACTION
  2
AcDbLongTransaction
  3
AutoCAD 2000
 90
    32768
280
     0
281
     0
  0
CLASS
  1
LWPOLYLINE
  2
AcDbPolyline
  3
AutoCAD 2000
 90
    32768
280
     0
281
     1
  0
CLASS
  1
HATCH
  2
AcDbHatch
  3
AutoCAD 2000
 90
    32768
280
     0
281
     1
  0
CLASS
  1
XRECORD
  2
AcDbXrecord
  3
AutoCAD 2000
 90
    32768
280
     0
281
     0
  0
CLASS
  1
LONG_TRANSACTION
  2
AcDbLongTransaction
  3
AutoCAD 2000
 90
    32768
280
     0
281
     0
  0
CLASS
  1
LWPOLYLINE
  2
AcDbPolyline
  3
AutoCAD 2000
 90
    32768
280
     0
281
     1
  0
CLASS
  1
HATCH
  2
AcDbHatch
  3
AutoCAD 2000
 90
    32768
280
     0
281
     1
  0
CLASS
  1
XRECORD
  2
AcDbXrecord
  3
AutoCAD 2000
 90
    32768
280
     0
281
     0
  0
CLASS
  1
LONG_TRANSACTION
  2
AcDbLongTransaction
  3
AutoCAD 2000
 90
    32768
280
     0
281
     0
  0
CLASS
  1
LWPOLYLINE
  2
AcDbPolyline
  3
AutoCAD 2000
 90
    32768
280
     0
281
     1
  0
CLASS
  1
HATCH
  2
AcDbHatch
  3
AutoCAD 2000
 90
    32768
280
     0
281
     1
  0
CLASS
  1
XRECORD
  2
AcDbXrecord
  3
AutoCAD 2000
 90
    32768
280
     0
281
     0
  0
CLASS
  1
LONG_TRANSACTION
  2
AcDbLongTransaction
  3
AutoCAD 2000
 90
    32768
280
     0
281
     0
  0
CLASS
  1
LWPOLYLINE
  2
AcDbPolyline
  3
AutoCAD 2000
 90
    32768
280
     0
281
     1
  0
CLASS
  1
HATCH
  2
AcDbHatch
  3
AutoCAD 2000
 90
    32768
280
     0
281
     1
  0
CLASS
  1
XRECORD
  2
AcDbXrecord
  3
AutoCAD 2000
 90
    32768
280
     0
281
     0
  0
CLASS
  1
LONG_TRANSACTION
  2
AcDbLongTransaction
  3
AutoCAD 2000
 90
    32768
280
     0
281
     0
  0
CLASS
  1
LWPOLYLINE
  2
AcDbPolyline
  3
AutoCAD 2000
 90
    32768
280
     0
281
     1
  0
CLASS
  1
HATCH
  2
AcDbHatch
  3
AutoCAD 2000
 90
    32768
280
     0
281
     1
  0
CLASS
  1
XRECORD
  2
AcDbXrecord
  3
AutoCAD 2000
 90
    32768
280
     0
281
     0
  0
CLASS
  1
LONG_TRANSACTION
  2
AcDbLongTransaction
  3
AutoCAD 2000
 90
    32768
280
     0
281
     0
  0
CLASS
  1
LWPOLYLINE
  2
AcDbPolyline
  3
AutoCAD 2000
 90
    32768
280
     0
281
     1
  0
CLASS
  1
HATCH
  2
AcDbHatch
  3
AutoCAD 2000
 90
    32768
280
     0
281
     1
  0
CLASS
  1
XRECORD
  2
AcDbXrecord
  3
AutoCAD 2000
 90
    32768
280
     0
281
     0
  0
CLASS
  1
LONG_TRANSACTION
  2
AcDbLongTransaction
  3
AutoCAD 2000
 90
    32768
280
     0
281
     0
  0
CLASS
  1
LWPOLYLINE
  2
AcDbPolyline
  3
AutoCAD 2000
 90
    32768
280
     0
281
     1
  0
CLASS
  1
HATCH
  2
AcDbHatch
  3
AutoCAD 2000
 90
    32768
280
     0
281
     1
  0
CLASS
  1
XRECORD
  2
AcDbXrecord
  3
AutoCAD 2000
 90
    32768
280
     0
281
     0
  0
CLASS
  1
LONG_TRANSACTION
  2
AcDbLongTransaction
  3
AutoCAD 2000
 90
    32768
280
     0
281
     0
  0
CLASS
  1
LWPOLYLINE
  2
AcDbPolyline
  3
AutoCAD 2000
 90
    32768
280
     0
281
     1
  0
CLASS
  1
HATCH
  2
AcDbHatch
  3
AutoCAD 2000
 90
    32768
280
     0
281
     1
  0
CLASS
  1
XRECORD
  2
AcDbXrecord
  3
AutoCAD 2000
 90
    32768
280
     0
281
     0
  0
CLASS
  1
LONG_TRANSACTION
  2
AcDbLongTransaction
  3
AutoCAD 2000
 90
    32768
280
     0
281
     0
  0
CLASS
  1
LWPOLYLINE
  2
AcDbPolyline
  3
AutoCAD 2000
 90
    32768
280
     0
281
     1
  0
CLASS
  1
HATCH
  2
AcDbHatch
  3
AutoCAD 2000
 90
    32768
280
     0
281
     1
  0
CLASS
  1
XRECORD
  2
AcDbXrecord
  3
AutoCAD 2000
 90
    32768
280
     0
281
     0
  0
CLASS
  1
LONG_TRANSACTION
  2
AcDbLongTransaction
  3
AutoCAD 2000
 90
    32768
280
     0
281
     0
  0
CLASS
  1
LWPOLYLINE
  2
AcDbPolyline
  3
AutoCAD 2000
 90
    32768
280
     0
281
     1
  0
CLASS
  1
HATCH
  2
AcDbHatch
  3
AutoCAD 2000
 90
    32768
280
     0
281
     1
  0
CLASS
  1
XRECORD
  2
AcDbXrecord
  3
AutoCAD 2000
 90
    32768
280
     0
281
     0
  0
CLASS
  1
LONG_TRANSACTION
  2
AcDbLongTransaction
  3
AutoCAD 2000
 90
    32768
280
     0
281
     0
  0
CLASS
  1
LWPOLYLINE
  2
AcDbPolyline
  3
AutoCAD 2000
 90
    32768
280
     0
281
     1
  0
CLASS
  1
HATCH
  2
AcDbHatch
  3
AutoCAD 2000
 90
    32768
280
     0
281
     1
  0
CLASS
  1
XRECORD
  2
AcDbXrecord
  3
AutoCAD 2000
 90
    32768
280
     0
281
     0
  0
CLASS
  1
LONG_TRANSACTION
  2
AcDbLongTransaction
  3
AutoCAD 2000
 90
    32768
280
     0
281
     0
  0
CLASS
  1
LWPOLYLINE
  2
AcDbPolyline
  3
AutoCAD 2000
 90
    32768
280
     0
281
     1
  0
CLASS
  1
HATCH
  2
AcDbHatch
  3
AutoCAD 2000
 90
    32768
280
     0
281
     1
  0
CLASS
  1
XRECORD
  2
AcDbXrecord
  3
AutoCAD 2000
 90
    32768
280
     0
281
     0
  0
CLASS
  1
LONG_TRANSACTION
  2
AcDbLongTransaction
  3
AutoCAD 2000
 90
    32768
280
     0
281
     0
  0
CLASS
  1
LWPOLYLINE
  2
AcDbPolyline
  3
AutoCAD 2000
 90
    32768
280
     0
281
     1
  0
CLASS
  1
HATCH
  2
AcDbHatch
  3
AutoCAD 2000
 90
    32768
280
     0
281
     1
  0
CLASS
  1
XRECORD
  2
AcDbXrecord
  3
AutoCAD 2000
 90
    32768
280
     0
281
     0
  0
CLASS
  1
LONG_TRANSACTION
  2
AcDbLongTransaction
  3
AutoCAD 2000
 90
    32768
280
     0
281
     0
  0
CLASS
  1
LWPOLYLINE
  2
AcDbPolyline
  3
AutoCAD 2000
 90
    32768
280
     0
281
     1
  0
CLASS
  1
HATCH
  2
AcDbHatch
  3
AutoCAD 2000
 90
    32768
280
     0
281
     1
  0
CLASS
  1
XRECORD
  2
AcDbXrecord
  3
AutoCAD 2000
 90
    32768
280
     0
281
     0
  0
CLASS
  1
LONG_TRANSACTION
  2
AcDbLongTransaction
  3
AutoCAD 2000
 90
    32768
280
     0
281
     0
  0
CLASS
  1
LWPOLYLINE
  2
AcDbPolyline
  3
AutoCAD 2000
 90
    32768
280
     0
281
     1
  0
CLASS
  1
HATCH
  2
AcDbHatch
  3
AutoCAD 2000
 90
    32768
280
     0
281
     1
  0
CLASS
  1
XRECORD
  2
AcDbXrecord
  3
AutoCAD 2000
 90
    32768
280
     0
281
     0
  0
CLASS
  1
LONG_TRANSACTION
  2
AcDbLongTransaction
  3
AutoCAD 2000
 90
    32768
280
     0
281
     0
  0
CLASS
  1
LWPOLYLINE
  2
AcDbPolyline
  3
AutoCAD 2000
 90
    32768
280
     0
281
     1
  0
CLASS
  1
HATCH
  2
AcDbHatch
  3
AutoCAD 2000
 90
    32768
280
     0
281
     1
  0
CLASS
  1
XRECORD
  2
AcDbXrecord
  3
AutoCAD 2000
 90
    32768
280
     0
281
     0
  0
CLASS
  1
LONG_TRANSACTION
  2
AcDbLongTransaction
  3
AutoCAD 2000
 90
    32768
280
     0
281
     0
  0
CLASS
  1
LWPOLYLINE
  2
AcDbPolyline
  3
AutoCAD 2000
 90
    32768
280
     0
281
     1
  0
CLASS
  1
HATCH
  2
AcDbHatch
  3
AutoCAD 2000
 90
    32768
280
     0
281
     1
  0
CLASS
  1
XRECORD
  2
AcDbXrecord
  3
AutoCAD 2000
 90
    32768
280
     0
281
     0
  0
CLASS
  1
LONG_TRANSACTION
  2
AcDbLongTransaction
  3
AutoCAD 2000
 90
    32768
280
     0
281
     0
  0
CLASS
  1
LWPOLYLINE
  2
AcDbPolyline
  3
AutoCAD 2000
 90
    32768
280
     0
281
     1
  0
CLASS
  1
HATCH
  2
AcDbHatch
  3
AutoCAD 2000
 90
    32768
280
     0
281
     1
  0
CLASS
  1
XRECORD
  2
AcDbXrecord
  3
AutoCAD 2000
 90
    32768
280
     0
281
     0
  0
CLASS
  1
DICTIONARYVAR
  2
AcDbDictionaryVar
  3
AutoCAD 2000
 90
        0
280
     0
281
     0
  0
CLASS
  1
LONG_TRANSACTION
  2
AcDbLongTransaction
  3
AutoCAD 2000
 90
    32768
280
     0
281
     0
  0
CLASS
  1
LWPOLYLINE
  2
AcDbPolyline
  3
AutoCAD 2000
 90
    32768
280
     0
281
     1
  0
CLASS
  1
HATCH
  2
AcDbHatch
  3
AutoCAD 2000
 90
    32768
280
     0
281
     1
  0
CLASS
  1
XRECORD
  2
AcDbXrecord
  3
AutoCAD 2000
 90
    32768
280
     0
281
     0
  0
CLASS
  1
LONG_TRANSACTION
  2
AcDbLongTransaction
  3
AutoCAD 2000
 90
    32768
280
     0
281
     0
  0
CLASS
  1
LWPOLYLINE
  2
AcDbPolyline
  3
AutoCAD 2000
 90
    32768
280
     0
281
     1
  0
CLASS
  1
HATCH
  2
AcDbHatch
  3
AutoCAD 2000
 90
    32768
280
     0
281
     1
  0
CLASS
  1
XRECORD
  2
AcDbXrecord
  3
AutoCAD 2000
 90
    32768
280
     0
281
     0
  0
ENDSEC
  0
SECTION
  2
TABLES
  0
TABLE
  2
VPORT
  5
8
330
0
100
AcDbSymbolTable
 70
     2
  0
VPORT
  5
6FE3
330
8
100
AcDbSymbolTableRecord
100
AcDbViewportTableRecord
  2
*Active
 70
     0
 10
0.0
 20
0.0
 11
1.0
 21
1.0
 12
282.5
 22
346.0
 13
0.0
 23
0.0
 14
1.0
 24
1.0
 15
10.0
 25
10.0
 16
0.0
 26
0.0
 36
1.0
 17
0.0
 27
0.0
 37
0.0
 40
102.8883034773445
 41
1.661996497373029
 42
50.0
 43
0.0
 44
0.0
 50
0.0
 51
0.0
 71
     0
 72
   100
 73
     1
 74
     1
 75
     1
 76
     0
 77
     0
 78
     0
281
     0
 65
     1
110
0.0
120
0.0
130
0.0
111
1.0
121
0.0
131
0.0
112
0.0
122
1.0
132
0.0
 79
     0
146
0.0
  0
ENDTAB
  0
TABLE
  2
LTYPE
  5
5
330
0
100
AcDbSymbolTable
 70
     5
  0
LTYPE
  5
13
330
5
100
AcDbSymbolTableRecord
100
AcDbLinetypeTableRecord
  2
BYBLOCK
 70
     0
  3

 72
    65
 73
     0
 40
0.0
  0
LTYPE
  5
14
330
5
100
AcDbSymbolTableRecord
100
AcDbLinetypeTableRecord
  2
BYLAYER
 70
     0
  3

 72
    65
 73
     0
 40
0.0
  0
LTYPE
  5
15
330
5
100
AcDbSymbolTableRecord
100
AcDbLinetypeTableRecord
  2
CONTINUOUS
 70
     0
  3
Solid line
 72
    65
 73
     0
 40
0.0
  0
LTYPE
  5
22
330
5
100
AcDbSymbolTableRecord
100
AcDbLinetypeTableRecord
  2
CONTINOUS
 70
     0
  3
Solid line
 72
    65
 73
     0
 40
0.0
  0
LTYPE
  5
23
330
5
100
AcDbSymbolTableRecord
100
AcDbLinetypeTableRecord
  2
DASHED
 70
     0
  3
__ __ __ __ __ __ __ __ __ __ __ __ __ __ __
 72
    65
 73
     2
 40
0.75
 49
0.5
 74
     0
 49
-0.25
 74
     0
  0
LTYPE
  5
24
330
5
100
AcDbSymbolTableRecord
100
AcDbLinetypeTableRecord
  2
DASHDOT
 70
     0
  3
__ . __ . __ . __ . __ . __ . __ . __ . __ . __
 72
    65
 73
     4
 40
1.0
 49
0.5
 74
     0
 49
-0.25
 74
     0
 49
0.0
 74
     0
 49
-0.25
 74
     0
  0
LTYPE
  5
3932
330
5
100
AcDbSymbolTableRecord
100
AcDbLinetypeTableRecord
  2
DIVIDE
 70
     0
  3
Divide ____ . . ____ . . ____ . . ____ . . ____
 72
    65
 73
     6
 40
1.25
 49
0.5
 74
     0
 49
-0.25
 74
     0
 49
0.0
 74
     0
 49
-0.25
 74
     0
 49
0.0
 74
     0
 49
-0.25
 74
     0
  0
ENDTAB
  0
TABLE
  2
LAYER
  5
2
330
0
100
AcDbSymbolTable
 70
    13
  0
LAYER
  5
10
330
2
100
AcDbSymbolTableRecord
100
AcDbLayerTableRecord
  2
0
 70
     0
 62
     7
  6
CONTINOUS
370
    -3
390
F
  0
LAYER
  5
2F
330
2
100
AcDbSymbolTableRecord
100
AcDbLayerTableRecord
  2
10
 70
     0
 62
     4
  6
CONTINOUS
370
    -3
390
F
  0
LAYER
  5
31
330
2
100
AcDbSymbolTableRecord
100
AcDbLayerTableRecord
  2
12
 70
     0
 62
     3
  6
CONTINOUS
370
    -3
390
F
  0
LAYER
  5
35
330
2
100
AcDbSymbolTableRecord
100
AcDbLayerTableRecord
  2
16
 70
     0
 62
     6
  6
DASHDOT
370
    -3
390
F
  0
LAYER
  5
36
330
2
100
AcDbSymbolTableRecord
100
AcDbLayerTableRecord
  2
17
 70
     0
 62
     2
  6
DASHDOT
370
    -3
390
F
  0
LAYER
  5
38
330
2
100
AcDbSymbolTableRecord
100
AcDbLayerTableRecord
  2
19
 70
     0
 62
     7
  6
CONTINOUS
370
    -3
390
F
  0
LAYER
  5
3C
330
2
100
AcDbSymbolTableRecord
100
AcDbLayerTableRecord
  2
11
 70
     0
 62
     1
  6
CONTINOUS
370
    -3
390
F
  0
LAYER
  5
3D
330
2
100
AcDbSymbolTableRecord
100
AcDbLayerTableRecord
  2
24
 70
     0
 62
     2
  6
CONTINOUS
370
    -3
390
F
  0
LAYER
  5
3A2
330
2
100
AcDbSymbolTableRecord
100
AcDbLayerTableRecord
  2
30
 70
     0
 62
     9
  6
CONTINUOUS
370
    -3
390
F
  0
LAYER
  5
3A4
330
2
100
AcDbSymbolTableRecord
100
AcDbLayerTableRecord
  2
DEFPOINTS
 70
     0
 62
     7
  6
CONTINUOUS
290
     0
370
    -3
390
F
  0
LAYER
  5
3933
330
2
100
AcDbSymbolTableRecord
100
AcDbLayerTableRecord
  2
18
 70
     0
 62
     5
  6
DIVIDE
370
    -3
390
F
  0
LAYER
  5
4709
330
2
100
AcDbSymbolTableRecord
100
AcDbLayerTableRecord
  2
L0_
 70
     0
 62
     7
  6
CONTINUOUS
370
    -3
390
F
  0
LAYER
  5
470B
330
2
100
AcDbSymbolTableRecord
100
AcDbLayerTableRecord
  2
L210_
 70
     0
 62
     7
  6
CONTINUOUS
370
    -3
390
F
  0
ENDTAB
  0
TABLE
  2
STYLE
  5
3
330
0
100
AcDbSymbolTable
 70
     3
  0
STYLE
  5
11
330
3
100
AcDbSymbolTableRecord
100
AcDbTextStyleTableRecord
  2
STANDARD
 70
     0
 40
0.0
 41
1.0
 50
0.0
 71
     0
 42
2.0
  3
txt.shx
  4
bigfont.shx
  0
STYLE
  5
42
330
3
100
AcDbSymbolTableRecord
100
AcDbTextStyleTableRecord
  2
STANDARD1
 70
     0
 40
0.0
 41
1.0
 50
0.0
 71
     0
 42
5.0
  3
MONOTXT
  4
BIGFONT
  0
STYLE
  5
3ACF
330
3
100
AcDbSymbolTableRecord
100
AcDbTextStyleTableRecord
  2
SYMBOL3
 70
     0
 40
0.0
 41
1.0
 50
0.0
 71
     0
 42
0.2
  3
iges1003
  4

  0
ENDTAB
  0
TABLE
  2
VIEW
  5
6
330
0
100
AcDbSymbolTable
 70
     3
  0
VIEW
  5
230C
330
6
100
AcDbSymbolTableRecord
100
AcDbViewTableRecord
  2
OLE1
 70
     0
 40
148.9124878027714
 10
429.4976280407222
 20
2.560626997828478
 41
103.1458057716444
 11
0.0
 21
0.0
 31
1.0
 12
0.0
 22
0.0
 32
0.0
 42
50.0
 43
0.0
 44
0.0
 50
0.0
 71
     0
281
     0
 72
     0
  0
VIEW
  5
230E
330
6
100
AcDbSymbolTableRecord
100
AcDbViewTableRecord
  2
OLE2
 70
     0
 40
170.7786920545775
 10
322.664969958371
 20
-5.978304054290276
 41
102.4672152327465
 11
0.0
 21
0.0
 31
1.0
 12
0.0
 22
0.0
 32
0.0
 42
50.0
 43
0.0
 44
0.0
 50
0.0
 71
     0
281
     0
 72
     0
  0
VIEW
  5
23AA
330
6
100
AcDbSymbolTableRecord
100
AcDbViewTableRecord
  2
OLE3
 70
     0
 40
591.7897393182231
 10
84.79698158148218
 20
-46.09336010803995
 41
388.7920961799953
 11
0.0
 21
0.0
 31
1.0
 12
0.0
 22
0.0
 32
0.0
 42
50.0
 43
0.0
 44
0.0
 50
0.0
 71
     0
281
     0
 72
     0
  0
ENDTAB
  0
TABLE
  2
UCS
  5
7
330
0
100
AcDbSymbolTable
 70
     0
  0
ENDTAB
  0
TABLE
  2
APPID
  5
9
330
0
100
AcDbSymbolTable
 70
     2
  0
APPID
  5
12
330
9
100
AcDbSymbolTableRecord
100
AcDbRegAppTableRecord
  2
ACAD
 70
     0
  0
APPID
  5
ECD
330
9
100
AcDbSymbolTableRecord
100
AcDbRegAppTableRecord
  2
CONTENTBLOCKICON
 70
     0
  0
ENDTAB
  0
TABLE
  2
DIMSTYLE
  5
A
330
0
100
AcDbSymbolTable
 70
     1
100
AcDbDimStyleTable
 71
     0
  0
DIMSTYLE
105
175
102
{ACAD_REACTORS
330
62E9
330
62F6
330
6303
330
6483
330
6484
330
6485
330
6486
330
64EE
330
655E
330
656B
330
6588
330
657B
330
65D8
330
6782
330
678E
330
679B
330
6AB4
330
6AB5
330
6AB6
330
6C23
330
6C24
330
6C27
330
6C3F
330
6D53
330
6D54
330
6D59
330
6D5A
330
6D80
330
6DA3
330
6E68
330
6E87
330
6F6D
330
6F7A
102
}
330
A
100
AcDbSymbolTableRecord
100
AcDbDimStyleTableRecord
  2
STANDARD
 70
     0
 41
2.0
 42
1.0
 43
0.5
 44
0.5
 73
     0
 77
     3
 78
    12
140
5.0
147
1.0
271
     1
272
     1
340
11
341
3B2
342
3B2
  0
ENDTAB
  0
TABLE
  2
BLOCK_RECORD
  5
1
330
0
100
AcDbSymbolTable
 70
    36
  0
BLOCK_RECORD
  5
1E
102
{ACAD_XDICTIONARY
360
178
102
}
330
1
100
AcDbSymbolTableRecord
100
AcDbBlockTableRecord
  2
*MODEL_SPACE
340
6FE0
  0
BLOCK_RECORD
  5
1A
102
{ACAD_XDICTIONARY
360
17A
102
}
330
1
100
AcDbSymbolTableRecord
100
AcDbBlockTableRecord
  2
*PAPER_SPACE
340
6FE1
  0
BLOCK_RECORD
  5
3B2
330
1
100
AcDbSymbolTableRecord
100
AcDbBlockTableRecord
  2
_OPEN
340
0
102
{BLKREFS
331
62EE
331
62EF
331
62FB
331
62FC
331
6B29
331
6B2A
331
6519
331
651A
331
6510
331
6511
331
6507
331
6508
331
6522
331
6523
331
64FE
331
64FF
331
6563
331
6564
331
6570
331
6571
331
6EE7
331
6EE8
331
6EF0
331
6EF1
331
6EF9
331
6B4A
331
6B52
331
6B53
331
6B5B
331
6B5C
331
6B3B
331
6B3C
331
6FAF
331
6FB0
331
6B1F
331
6ECC
331
6ECD
331
6EBA
331
6EBB
331
6EB1
331
6EB2
331
6E50
331
6E51
331
6FB9
331
6FBA
331
6FC1
331
6FC2
331
6FCA
331
6FCB
331
6E0E
331
6E0F
331
6FD3
331
6FD4
331
6E20
331
6E21
331
6E81
331
6E82
331
6EDE
331
6EDF
331
6F65
331
6F66
331
6F72
331
6F73
331
6F7F
331
6F80
102
}
  0
BLOCK_RECORD
  5
46F7
330
1
100
AcDbSymbolTableRecord
100
AcDbBlockTableRecord
  2
B837
340
0
  0
BLOCK_RECORD
  5
62EA
330
1
100
AcDbSymbolTableRecord
100
AcDbBlockTableRecord
  2
*D2
340
0
  0
BLOCK_RECORD
  5
62F7
330
1
100
AcDbSymbolTableRecord
100
AcDbBlockTableRecord
  2
*D3
340
0
  0
BLOCK_RECORD
  5
6304
330
1
100
AcDbSymbolTableRecord
100
AcDbBlockTableRecord
  2
*D4
340
0
  0
BLOCK_RECORD
  5
6487
330
1
100
AcDbSymbolTableRecord
100
AcDbBlockTableRecord
  2
*D5
340
0
  0
BLOCK_RECORD
  5
6493
330
1
100
AcDbSymbolTableRecord
100
AcDbBlockTableRecord
  2
*D6
340
0
  0
BLOCK_RECORD
  5
649F
330
1
100
AcDbSymbolTableRecord
100
AcDbBlockTableRecord
  2
*D7
340
0
  0
BLOCK_RECORD
  5
64AB
330
1
100
AcDbSymbolTableRecord
100
AcDbBlockTableRecord
  2
*D8
340
0
  0
BLOCK_RECORD
  5
64EF
330
1
100
AcDbSymbolTableRecord
100
AcDbBlockTableRecord
  2
*D9
340
0
  0
BLOCK_RECORD
  5
655F
330
1
100
AcDbSymbolTableRecord
100
AcDbBlockTableRecord
  2
*D10
340
0
  0
BLOCK_RECORD
  5
656C
330
1
100
AcDbSymbolTableRecord
100
AcDbBlockTableRecord
  2
*D11
340
0
  0
BLOCK_RECORD
  5
657C
330
1
100
AcDbSymbolTableRecord
100
AcDbBlockTableRecord
  2
*D12
340
0
  0
BLOCK_RECORD
  5
6589
330
1
100
AcDbSymbolTableRecord
100
AcDbBlockTableRecord
  2
*D13
340
0
  0
BLOCK_RECORD
  5
65D9
330
1
100
AcDbSymbolTableRecord
100
AcDbBlockTableRecord
  2
*D14
340
0
  0
BLOCK_RECORD
  5
6783
330
1
100
AcDbSymbolTableRecord
100
AcDbBlockTableRecord
  2
*D15
340
0
  0
BLOCK_RECORD
  5
678F
330
1
100
AcDbSymbolTableRecord
100
AcDbBlockTableRecord
  2
*D16
340
0
  0
BLOCK_RECORD
  5
679C
330
1
100
AcDbSymbolTableRecord
100
AcDbBlockTableRecord
  2
*D17
340
0
  0
BLOCK_RECORD
  5
6AB7
330
1
100
AcDbSymbolTableRecord
100
AcDbBlockTableRecord
  2
*D18
340
0
  0
BLOCK_RECORD
  5
6AC5
330
1
100
AcDbSymbolTableRecord
100
AcDbBlockTableRecord
  2
*D19
340
0
  0
BLOCK_RECORD
  5
6AD1
330
1
100
AcDbSymbolTableRecord
100
AcDbBlockTableRecord
  2
*D20
340
0
  0
BLOCK_RECORD
  5
6C5E
330
1
100
AcDbSymbolTableRecord
100
AcDbBlockTableRecord
  2
*D21
340
0
  0
BLOCK_RECORD
  5
6C6A
330
1
100
AcDbSymbolTableRecord
100
AcDbBlockTableRecord
  2
*D22
340
0
  0
BLOCK_RECORD
  5
6C76
330
1
100
AcDbSymbolTableRecord
100
AcDbBlockTableRecord
  2
*D23
340
0
  0
BLOCK_RECORD
  5
6C82
330
1
100
AcDbSymbolTableRecord
100
AcDbBlockTableRecord
  2
*D24
340
0
  0
BLOCK_RECORD
  5
6DA8
330
1
100
AcDbSymbolTableRecord
100
AcDbBlockTableRecord
  2
*D25
340
0
  0
BLOCK_RECORD
  5
6DB4
330
1
100
AcDbSymbolTableRecord
100
AcDbBlockTableRecord
  2
*D26
340
0
  0
BLOCK_RECORD
  5
6DC0
330
1
100
AcDbSymbolTableRecord
100
AcDbBlockTableRecord
  2
*D27
340
0
  0
BLOCK_RECORD
  5
6DCC
330
1
100
AcDbSymbolTableRecord
100
AcDbBlockTableRecord
  2
*D28
340
0
  0
BLOCK_RECORD
  5
6DD8
330
1
100
AcDbSymbolTableRecord
100
AcDbBlockTableRecord
  2
*D29
340
0
  0
BLOCK_RECORD
  5
6DE4
330
1
100
AcDbSymbolTableRecord
100
AcDbBlockTableRecord
  2
*D30
340
0
  0
BLOCK_RECORD
  5
6E69
330
1
100
AcDbSymbolTableRecord
100
AcDbBlockTableRecord
  2
*D31
340
0
  0
BLOCK_RECORD
  5
6E88
330
1
100
AcDbSymbolTableRecord
100
AcDbBlockTableRecord
  2
*D32
340
0
  0
BLOCK_RECORD
  5
6F61
330
1
100
AcDbSymbolTableRecord
100
AcDbBlockTableRecord
  2
*D33
340
0
  0
BLOCK_RECORD
  5
6F6E
330
1
100
AcDbSymbolTableRecord
100
AcDbBlockTableRecord
  2
*D34
340
0
  0
BLOCK_RECORD
  5
6F7B
330
1
100
AcDbSymbolTableRecord
100
AcDbBlockTableRecord
  2
*D35
340
0
  0
ENDTAB
  0
ENDSEC
  0
SECTION
  2
BLOCKS
  0
BLOCK
  5
1F
330
1E
100
AcDbEntity
  8
0
100
AcDbBlockBegin
  2
*MODEL_SPACE
 70
     0
 10
0.0
 20
0.0
 30
0.0
  3
*MODEL_SPACE
  1

  0
ENDBLK
  5
20
330
1E
100
AcDbEntity
  8
0
100
AcDbBlockEnd
  0
BLOCK
  5
1B
330
1A
100
AcDbEntity
 67
     1
  8
0
100
AcDbBlockBegin
  2
*PAPER_SPACE
 70
     0
 10
0.0
 20
0.0
 30
0.0
  3
*PAPER_SPACE
  1

  0
ENDBLK
  5
1C
330
1A
100
AcDbEntity
 67
     1
  8
0
100
AcDbBlockEnd
  0
BLOCK
  5
3B6
330
3B2
100
AcDbEntity
  8
0
100
AcDbBlockBegin
  2
_OPEN
 70
     0
 10
0.0
 20
0.0
 30
0.0
  3
_OPEN
  1

  0
LINE
  5
3B3
330
3B2
100
AcDbEntity
  8
30
  6
Continuous
 62
     0
100
AcDbLine
 10
-1.0
 20
0.1666666666666666
 30
0.0
 11
0.0
 21
0.0
 31
0.0
  0
LINE
  5
3B4
330
3B2
100
AcDbEntity
  8
30
  6
Continuous
 62
     0
100
AcDbLine
 10
-1.0
 20
-0.1666666666666666
 30
0.0
 11
0.0
 21
0.0
 31
0.0
  0
LINE
  5
3B5
330
3B2
100
AcDbEntity
  8
30
  6
Continuous
 62
     0
100
AcDbLine
 10
0.0
 20
0.0
 30
0.0
 11
-1.0
 21
0.0
 31
0.0
  0
ENDBLK
  5
3B7
330
3B2
100
AcDbEntity
  8
0
100
AcDbBlockEnd
  0
BLOCK
  5
46FA
330
46F7
100
AcDbEntity
  8
L0_
  6
Continuous
100
AcDbBlockBegin
  2
B837
 70
     0
 10
0.0
 20
0.0
 30
0.0
  3
B837
  1

  0
TEXT
  5
46F8
330
46F7
100
AcDbEntity
  8
L0_
  6
Continuous
100
AcDbText
 10
1984.080078125
 20
1307.4332275391
 30
0.0
 40
12.0
  1
n
 41
2.863636363636363
  7
SYMBOL3
 72
     5
 11
2002.080078125
 21
1307.4332275391
 31
0.0
100
AcDbText
 73
     2
  0
TEXT
  5
46F9
330
46F7
100
AcDbEntity
  8
L0_
  6
Continuous
100
AcDbText
 10
2002.080078125
 20
1307.4332275391
 30
0.0
 40
12.0
  1
11
 41
1.399999999999996
  7
SYMBOL3
 72
     5
 11
2018.880078125
 21
1307.4332275391
 31
0.0
100
AcDbText
 73
     2
  0
ENDBLK
  5
46FB
330
46F7
100
AcDbEntity
  8
L0_
  6
Continuous
100
AcDbBlockEnd
  0
BLOCK
  5
62F4
330
62EA
100
AcDbEntity
  8
0
100
AcDbBlockBegin
  2
*D2
 70
     1
 10
0.0
 20
0.0
 30
0.0
  3
*D2
  1

  0
LINE
  5
62EB
330
62EA
100
AcDbEntity
  8
30
  6
Continuous
 62
     0
100
AcDbLine
 10
-54.0
 20
45.0
 30
0.0
 11
-92.49999999999998
 21
45.00000000000002
 31
0.0
  0
LINE
  5
62EC
330
62EA
100
AcDbEntity
  8
30
  6
Continuous
 62
     0
100
AcDbLine
 10
-54.0
 20
-44.99999999999999
 30
0.0
 11
-92.5
 21
-44.99999999999998
 31
0.0
  0
LINE
  5
62ED
330
62EA
100
AcDbEntity
  8
30
  6
Continuous
 62
     0
100
AcDbLine
 10
-91.99999999999995
 20
43.00000000000002
 30
0.0
 11
-92.0
 21
-42.99999999999998
 31
0.0
  0
INSERT
  5
62EE
330
62EA
100
AcDbEntity
  8
30
  6
Continuous
 62
     0
100
AcDbBlockReference
  2
_OPEN
 10
-91.99999999999995
 20
45.00000000000002
 30
0.0
 41
2.0
 42
2.0
 43
2.0
 50
90.0
  0
INSERT
  5
62EF
330
62EA
100
AcDbEntity
  8
30
  6
Continuous
 62
     0
100
AcDbBlockReference
  2
_OPEN
 10
-92.0
 20
-44.99999999999998
 30
0.0
 41
2.0
 42
2.0
 43
2.0
 50
270.0
  0
MTEXT
  5
62F0
330
62EA
100
AcDbEntity
  8
30
  6
Continuous
 62
     0
100
AcDbMText
 10
-95.49999999999998
 20
0.0000000000000061
 30
0.0
 40
5.0
 41
0.0
 71
     5
 72
     1
  1
\A1;90
 11
0.0000000000000001
 21
1.0
 31
0.0
 73
     1
 44
1.0
1001
ACAD
1000
MTEXTBEGIN
1070
    73
1070
     1
1070
    44
1040
1.0
1070
    74
1070
     0
1000
MTEXTEND
1000
MTEXTBEGIN
1070
    73
1070
     1
1070
    44
1040
1.0
1070
    74
1070
     0
1000
MTEXTEND
  0
POINT
  5
62F1
330
62EA
100
AcDbEntity
  8
DEFPOINTS
  6
Continuous
 62
     0
100
AcDbPoint
 10
-53.0
 20
45.0
 30
0.0
  0
POINT
  5
62F2
330
62EA
100
AcDbEntity
  8
DEFPOINTS
  6
Continuous
 62
     0
100
AcDbPoint
 10
-53.0
 20
-44.99999999999999
 30
0.0
  0
POINT
  5
62F3
330
62EA
100
AcDbEntity
  8
DEFPOINTS
  6
Continuous
 62
     0
100
AcDbPoint
 10
-92.0
 20
-44.99999999999998
 30
0.0
  0
ENDBLK
  5
62F5
330
62EA
100
AcDbEntity
  8
0
100
AcDbBlockEnd
  0
BLOCK
  5
6301
330
62F7
100
AcDbEntity
  8
0
100
AcDbBlockBegin
  2
*D3
 70
     1
 10
0.0
 20
0.0
 30
0.0
  3
*D3
  1

  0
LINE
  5
62F8
330
62F7
100
AcDbEntity
  8
30
  6
Continuous
 62
     0
100
AcDbLine
 10
-71.0
 20
50.99999999999899
 30
0.0
 11
-106.4999999999999
 21
50.999999999999
 31
0.0
  0
LINE
  5
62F9
330
62F7
100
AcDbEntity
  8
30
  6
Continuous
 62
     0
100
AcDbLine
 10
-71.0
 20
-50.99999999999997
 30
0.0
 11
-106.4999999999999
 21
-50.99999999999997
 31
0.0
  0
LINE
  5
62FA
330
62F7
100
AcDbEntity
  8
30
  6
Continuous
 62
     0
100
AcDbLine
 10
-105.9999999999997
 20
48.99999999999899
 30
0.0
 11
-106.0
 21
-48.99999999999998
 31
0.0
  0
INSERT
  5
62FB
330
62F7
100
AcDbEntity
  8
30
  6
Continuous
 62
     0
100
AcDbBlockReference
  2
_OPEN
 10
-105.9999999999997
 20
50.999999999999
 30
0.0
 41
2.0
 42
2.0
 43
2.0
 50
90.0
  0
INSERT
  5
62FC
330
62F7
100
AcDbEntity
  8
30
  6
Continuous
 62
     0
100
AcDbBlockReference
  2
_OPEN
 10
-106.0
 20
-50.99999999999997
 30
0.0
 41
2.0
 42
2.0
 43
2.0
 50
270.0
  0
MTEXT
  5
62FD
330
62F7
100
AcDbEntity
  8
30
  6
Continuous
 62
     0
100
AcDbMText
 10
-109.4999999999999
 20
-0.0000000000005047
 30
0.0
 40
5.0
 41
0.0
 71
     5
 72
     1
  1
\A1;102
 11
0.0000000000000001
 21
1.0
 31
0.0
 73
     1
 44
1.0
1001
ACAD
1000
MTEXTBEGIN
1070
    73
1070
     1
1070
    44
1040
1.0
1070
    74
1070
     0
1000
MTEXTEND
1000
MTEXTBEGIN
1070
    73
1070
     1
1070
    44
1040
1.0
1070
    74
1070
     0
1000
MTEXTEND
  0
POINT
  5
62FE
330
62F7
100
AcDbEntity
  8
DEFPOINTS
  6
Continuous
 62
     0
100
AcDbPoint
 10
-70.0
 20
50.99999999999899
 30
0.0
  0
POINT
  5
62FF
330
62F7
100
AcDbEntity
  8
DEFPOINTS
  6
Continuous
 62
     0
100
AcDbPoint
 10
-70.0
 20
-50.99999999999997
 30
0.0
  0
POINT
  5
6300
330
62F7
100
AcDbEntity
  8
DEFPOINTS
  6
Continuous
 62
     0
100
AcDbPoint
 10
-106.0
 20
-50.99999999999997
 30
0.0
  0
ENDBLK
  5
6302
330
62F7
100
AcDbEntity
  8
0
100
AcDbBlockEnd
  0
BLOCK
  5
630E
330
6304
100
AcDbEntity
  8
0
100
AcDbBlockBegin
  2
*D4
 70
     1
 10
0.0
 20
0.0
 30
0.0
  3
*D4
  1

  0
LINE
  5
6B26
330
6304
100
AcDbEntity
  8
30
  6
Continuous
 62
     0
100
AcDbLine
 10
-71.0
 20
130.0
 30
0.0
 11
-117.4999999999997
 21
130.0
 31
0.0
  0
LINE
  5
6B27
330
6304
100
AcDbEntity
  8
30
  6
Continuous
 62
     0
100
AcDbLine
 10
-71.0
 20
-130.0
 30
0.0
 11
-117.5
 21
-130.0
 31
0.0
  0
LINE
  5
6B28
330
6304
100
AcDbEntity
  8
30
  6
Continuous
 62
     0
100
AcDbLine
 10
-116.9999999999999
 20
128.0
 30
0.0
 11
-117.0
 21
-128.0
 31
0.0
  0
INSERT
  5
6B29
330
6304
100
AcDbEntity
  8
30
  6
Continuous
 62
     0
100
AcDbBlockReference
  2
_OPEN
 10
-116.9999999999999
 20
130.0
 30
0.0
 41
2.0
 42
2.0
 43
2.0
 50
90.0
  0
INSERT
  5
6B2A
330
6304
100
AcDbEntity
  8
30
  6
Continuous
 62
     0
100
AcDbBlockReference
  2
_OPEN
 10
-117.0
 20
-130.0
 30
0.0
 41
2.0
 42
2.0
 43
2.0
 50
270.0
  0
MTEXT
  5
6B2B
330
6304
100
AcDbEntity
  8
30
  6
Continuous
 62
     0
100
AcDbMText
 10
-120.4999999999997
 20
-0.0000000000000208
 30
0.0
 40
5.0
 41
0.0
 71
     5
 72
     1
  1
\A1;260
 11
0.0000000000000001
 21
1.0
 31
0.0
 73
     1
 44
1.0
1001
ACAD
1000
MTEXTBEGIN
1070
    73
1070
     1
1070
    44
1040
1.0
1070
    74
1070
     0
1000
MTEXTEND
1000
MTEXTBEGIN
1070
    73
1070
     1
1070
    44
1040
1.0
1070
    74
1070
     0
1000
MTEXTEND
  0
POINT
  5
6B2C
330
6304
100
AcDbEntity
  8
DEFPOINTS
  6
Continuous
 62
     0
100
AcDbPoint
 10
-70.0
 20
130.0
 30
0.0
  0
POINT
  5
6B2D
330
6304
100
AcDbEntity
  8
DEFPOINTS
  6
Continuous
 62
     0
100
AcDbPoint
 10
-70.0
 20
-130.0
 30
0.0
  0
POINT
  5
6B2E
330
6304
100
AcDbEntity
  8
DEFPOINTS
  6
Continuous
 62
     0
100
AcDbPoint
 10
-117.0
 20
-130.0
 30
0.0
  0
ENDBLK
  5
630F
330
6304
100
AcDbEntity
  8
0
100
AcDbBlockEnd
  0
BLOCK
  5
6491
330
6487
100
AcDbEntity
  8
0
100
AcDbBlockBegin
  2
*D5
 70
     1
 10
0.0
 20
0.0
 30
0.0
  3
*D5
  1

  0
LINE
  5
6516
330
6487
100
AcDbEntity
  8
30
  6
Continuous
 62
     0
100
AcDbLine
 10
-67.5
 20
-172.9995117188
 30
0.0
 11
-67.5
 21
-210.0004882811999
 31
0.0
  0
LINE
  5
6517
330
6487
100
AcDbEntity
  8
30
  6
Continuous
 62
     0
100
AcDbLine
 10
-7.5
 20
-172.9995117188
 30
0.0
 11
-7.500000000000002
 21
-210.0004882811999
 31
0.0
  0
LINE
  5
6518
330
6487
100
AcDbEntity
  8
30
  6
Continuous
 62
     0
100
AcDbLine
 10
-65.5
 20
-209.5004882811999
 30
0.0
 11
-9.500000000000003
 21
-209.5004882811999
 31
0.0
  0
INSERT
  5
6519
330
6487
100
AcDbEntity
  8
30
  6
Continuous
 62
     0
100
AcDbBlockReference
  2
_OPEN
 10
-67.5
 20
-209.5004882811999
 30
0.0
 41
2.0
 42
2.0
 43
2.0
 50
180.0
  0
INSERT
  5
651A
330
6487
100
AcDbEntity
  8
30
  6
Continuous
 62
     0
100
AcDbBlockReference
  2
_OPEN
 10
-7.500000000000002
 20
-209.5004882811999
 30
0.0
 41
2.0
 42
2.0
 43
2.0
  0
MTEXT
  5
651B
330
6487
100
AcDbEntity
  8
30
  6
Continuous
 62
     0
100
AcDbMText
 10
-35.0
 20
-206.0004882811999
 30
0.0
 40
5.0
 41
0.0
 71
     5
 72
     1
  1
\A1;60
 73
     1
 44
1.0
1001
ACAD
1000
MTEXTBEGIN
1070
    73
1070
     1
1070
    44
1040
1.0
1070
    74
1070
     0
1000
MTEXTEND
1000
MTEXTBEGIN
1070
    73
1070
     1
1070
    44
1040
1.0
1070
    74
1070
     0
1000
MTEXTEND
  0
POINT
  5
651C
330
6487
100
AcDbEntity
  8
DEFPOINTS
  6
Continuous
 62
     0
100
AcDbPoint
 10
-67.5
 20
-171.9995117188
 30
0.0
  0
POINT
  5
651D
330
6487
100
AcDbEntity
  8
DEFPOINTS
  6
Continuous
 62
     0
100
AcDbPoint
 10
-7.5
 20
-171.9995117188
 30
0.0
  0
POINT
  5
651E
330
6487
100
AcDbEntity
  8
DEFPOINTS
  6
Continuous
 62
     0
100
AcDbPoint
 10
-7.500000000000002
 20
-209.5004882811999
 30
0.0
  0
ENDBLK
  5
6492
330
6487
100
AcDbEntity
  8
0
100
AcDbBlockEnd
  0
BLOCK
  5
649D
330
6493
100
AcDbEntity
  8
0
100
AcDbBlockBegin
  2
*D6
 70
     1
 10
0.0
 20
0.0
 30
0.0
  3
*D6
  1

  0
LINE
  5
650D
330
6493
100
AcDbEntity
  8
30
  6
Continuous
 62
     0
100
AcDbLine
 10
-0.0000000000000001
 20
-125.9997558593999
 30
0.0
 11
-0.0000000000000046
 21
-200.4999999999999
 31
0.0
  0
LINE
  5
650E
330
6493
100
AcDbEntity
  8
30
  6
Continuous
 62
     0
100
AcDbLine
 10
52.5
 20
-172.0
 30
0.0
 11
52.5
 21
-200.4999999999999
 31
0.0
  0
LINE
  5
650F
330
6493
100
AcDbEntity
  8
30
  6
Continuous
 62
     0
100
AcDbLine
 10
1.999999999999995
 20
-200.0
 30
0.0
 11
50.5
 21
-200.0
 31
0.0
  0
INSERT
  5
6510
330
6493
100
AcDbEntity
  8
30
  6
Continuous
 62
     0
100
AcDbBlockReference
  2
_OPEN
 10
-0.0000000000000046
 20
-200.0
 30
0.0
 41
2.0
 42
2.0
 43
2.0
 50
180.0
  0
INSERT
  5
6511
330
6493
100
AcDbEntity
  8
30
  6
Continuous
 62
     0
100
AcDbBlockReference
  2
_OPEN
 10
52.5
 20
-200.0
 30
0.0
 41
2.0
 42
2.0
 43
2.0
  0
MTEXT
  5
6512
330
6493
100
AcDbEntity
  8
30
  6
Continuous
 62
     0
100
AcDbMText
 10
26.25
 20
-196.5
 30
0.0
 40
5.0
 41
0.0
 71
     5
 72
     1
  1
\A1;52.5
 73
     1
 44
1.0
1001
ACAD
1000
MTEXTBEGIN
1070
    73
1070
     1
1070
    44
1040
1.0
1070
    74
1070
     0
1000
MTEXTEND
1000
MTEXTBEGIN
1070
    73
1070
     1
1070
    44
1040
1.0
1070
    74
1070
     0
1000
MTEXTEND
  0
POINT
  5
6513
330
6493
100
AcDbEntity
  8
DEFPOINTS
  6
Continuous
 62
     0
100
AcDbPoint
 10
0.0
 20
-124.9997558593999
 30
0.0
  0
POINT
  5
6514
330
6493
100
AcDbEntity
  8
DEFPOINTS
  6
Continuous
 62
     0
100
AcDbPoint
 10
52.5
 20
-171.0
 30
0.0
  0
POINT
  5
6515
330
6493
100
AcDbEntity
  8
DEFPOINTS
  6
Continuous
 62
     0
100
AcDbPoint
 10
52.5
 20
-200.0
 30
0.0
  0
ENDBLK
  5
649E
330
6493
100
AcDbEntity
  8
0
100
AcDbBlockEnd
  0
BLOCK
  5
64A9
330
649F
100
AcDbEntity
  8
0
100
AcDbBlockBegin
  2
*D7
 70
     1
 10
0.0
 20
0.0
 30
0.0
  3
*D7
  1

  0
LINE
  5
6504
330
649F
100
AcDbEntity
  8
30
  6
Continuous
 62
     0
100
AcDbLine
 10
-7.5
 20
-173.9995117188
 30
0.0
 11
-7.500000000000002
 21
-210.0004882811999
 31
0.0
  0
LINE
  5
6505
330
649F
100
AcDbEntity
  8
30
  6
Continuous
 62
     0
100
AcDbLine
 10
52.5
 20
-172.9995117188
 30
0.0
 11
52.5
 21
-210.0004882811999
 31
0.0
  0
LINE
  5
6506
330
649F
100
AcDbEntity
  8
30
  6
Continuous
 62
     0
100
AcDbLine
 10
-5.500000000000002
 20
-209.5004882811999
 30
0.0
 11
50.5
 21
-209.5004882811999
 31
0.0
  0
INSERT
  5
6507
330
649F
100
AcDbEntity
  8
30
  6
Continuous
 62
     0
100
AcDbBlockReference
  2
_OPEN
 10
-7.500000000000002
 20
-209.5004882811999
 30
0.0
 41
2.0
 42
2.0
 43
2.0
 50
180.0
  0
INSERT
  5
6508
330
649F
100
AcDbEntity
  8
30
  6
Continuous
 62
     0
100
AcDbBlockReference
  2
_OPEN
 10
52.5
 20
-209.5004882811999
 30
0.0
 41
2.0
 42
2.0
 43
2.0
  0
MTEXT
  5
6509
330
649F
100
AcDbEntity
  8
30
  6
Continuous
 62
     0
100
AcDbMText
 10
22.5
 20
-206.0004882811999
 30
0.0
 40
5.0
 41
0.0
 71
     5
 72
     1
  1
\A1;60
 73
     1
 44
1.0
1001
ACAD
1000
MTEXTBEGIN
1070
    73
1070
     1
1070
    44
1040
1.0
1070
    74
1070
     0
1000
MTEXTEND
1000
MTEXTBEGIN
1070
    73
1070
     1
1070
    44
1040
1.0
1070
    74
1070
     0
1000
MTEXTEND
  0
POINT
  5
650A
330
649F
100
AcDbEntity
  8
DEFPOINTS
  6
Continuous
 62
     0
100
AcDbPoint
 10
-7.5
 20
-172.9995117188
 30
0.0
  0
POINT
  5
650B
330
649F
100
AcDbEntity
  8
DEFPOINTS
  6
Continuous
 62
     0
100
AcDbPoint
 10
52.5
 20
-171.9995117188
 30
0.0
  0
POINT
  5
650C
330
649F
100
AcDbEntity
  8
DEFPOINTS
  6
Continuous
 62
     0
100
AcDbPoint
 10
52.5
 20
-209.5004882811999
 30
0.0
  0
ENDBLK
  5
64AA
330
649F
100
AcDbEntity
  8
0
100
AcDbBlockEnd
  0
BLOCK
  5
64B5
330
64AB
100
AcDbEntity
  8
0
100
AcDbBlockBegin
  2
*D8
 70
     1
 10
0.0
 20
0.0
 30
0.0
  3
*D8
  1

  0
LINE
  5
651F
330
64AB
100
AcDbEntity
  8
30
  6
Continuous
 62
     0
100
AcDbLine
 10
52.5
 20
-175.9990234375998
 30
0.0
 11
52.5
 21
-210.0004882811999
 31
0.0
  0
LINE
  5
6520
330
64AB
100
AcDbEntity
  8
30
  6
Continuous
 62
     0
100
AcDbLine
 10
112.5
 20
-174.9990234375998
 30
0.0
 11
112.5
 21
-210.0004882811999
 31
0.0
  0
LINE
  5
6521
330
64AB
100
AcDbEntity
  8
30
  6
Continuous
 62
     0
100
AcDbLine
 10
54.5
 20
-209.5004882811999
 30
0.0
 11
110.4999999999999
 21
-209.5004882811999
 31
0.0
  0
INSERT
  5
6522
330
64AB
100
AcDbEntity
  8
30
  6
Continuous
 62
     0
100
AcDbBlockReference
  2
_OPEN
 10
52.5
 20
-209.5004882811999
 30
0.0
 41
2.0
 42
2.0
 43
2.0
 50
180.0
  0
INSERT
  5
6523
330
64AB
100
AcDbEntity
  8
30
  6
Continuous
 62
     0
100
AcDbBlockReference
  2
_OPEN
 10
112.5
 20
-209.5004882811999
 30
0.0
 41
2.0
 42
2.0
 43
2.0
  0
MTEXT
  5
6524
330
64AB
100
AcDbEntity
  8
30
  6
Continuous
 62
     0
100
AcDbMText
 10
82.5
 20
-206.0004882811999
 30
0.0
 40
5.0
 41
0.0
 71
     5
 72
     1
  1
\A1;60
 73
     1
 44
1.0
1001
ACAD
1000
MTEXTBEGIN
1070
    73
1070
     1
1070
    44
1040
1.0
1070
    74
1070
     0
1000
MTEXTEND
1000
MTEXTBEGIN
1070
    73
1070
     1
1070
    44
1040
1.0
1070
    74
1070
     0
1000
MTEXTEND
  0
POINT
  5
6525
330
64AB
100
AcDbEntity
  8
DEFPOINTS
  6
Continuous
 62
     0
100
AcDbPoint
 10
52.5
 20
-174.9990234375998
 30
0.0
  0
POINT
  5
6526
330
64AB
100
AcDbEntity
  8
DEFPOINTS
  6
Continuous
 62
     0
100
AcDbPoint
 10
112.5
 20
-173.9990234375999
 30
0.0
  0
POINT
  5
6527
330
64AB
100
AcDbEntity
  8
DEFPOINTS
  6
Continuous
 62
     0
100
AcDbPoint
 10
112.5
 20
-209.5004882811999
 30
0.0
  0
ENDBLK
  5
64B6
330
64AB
100
AcDbEntity
  8
0
100
AcDbBlockEnd
  0
BLOCK
  5
64F9
330
64EF
100
AcDbEntity
  8
0
100
AcDbBlockBegin
  2
*D9
 70
     1
 10
0.0
 20
0.0
 30
0.0
  3
*D9
  1

  0
LINE
  5
64FB
330
64EF
100
AcDbEntity
  8
30
  6
Continuous
 62
     0
100
AcDbLine
 10
6.5
 20
-174.5
 30
0.0
 11
6.499999999999999
 21
-186.6755559797566
 31
0.0
  0
LINE
  5
64FC
330
64EF
100
AcDbEntity
  8
30
  6
Continuous
 62
     0
100
AcDbLine
 10
-21.49999999999999
 20
-174.4063720703
 30
0.0
 11
-21.49999999999999
 21
-186.6755559797566
 31
0.0
  0
LINE
  5
64FD
330
64EF
100
AcDbEntity
  8
30
  6
Continuous
 62
     0
100
AcDbLine
 10
4.499999999999999
 20
-186.1755559797568
 30
0.0
 11
-19.5
 21
-186.1755559797568
 31
0.0
  0
INSERT
  5
64FE
330
64EF
100
AcDbEntity
  8
30
  6
Continuous
 62
     0
100
AcDbBlockReference
  2
_OPEN
 10
6.499999999999999
 20
-186.1755559797568
 30
0.0
 41
2.0
 42
2.0
 43
2.0
  0
INSERT
  5
64FF
330
64EF
100
AcDbEntity
  8
30
  6
Continuous
 62
     0
100
AcDbBlockReference
  2
_OPEN
 10
-21.49999999999999
 20
-186.1755559797568
 30
0.0
 41
2.0
 42
2.0
 43
2.0
 50
180.0
  0
MTEXT
  5
6500
330
64EF
100
AcDbEntity
  8
30
  6
Continuous
 62
     0
100
AcDbMText
 10
-7.5
 20
-182.6755559797568
 30
0.0
 40
5.0
 41
0.0
 71
     5
 72
     1
  1
\A1;28
 73
     1
 44
1.0
1001
ACAD
1000
MTEXTBEGIN
1070
    73
1070
     1
1070
    44
1040
1.0
1070
    74
1070
     0
1000
MTEXTEND
1000
MTEXTBEGIN
1070
    73
1070
     1
1070
    44
1040
1.0
1070
    74
1070
     0
1000
MTEXTEND
  0
POINT
  5
6501
330
64EF
100
AcDbEntity
  8
DEFPOINTS
  6
Continuous
 62
     0
100
AcDbPoint
 10
6.5
 20
-173.5
 30
0.0
  0
POINT
  5
6502
330
64EF
100
AcDbEntity
  8
DEFPOINTS
  6
Continuous
 62
     0
100
AcDbPoint
 10
-21.49999999999999
 20
-173.4063720703
 30
0.0
  0
POINT
  5
6503
330
64EF
100
AcDbEntity
  8
DEFPOINTS
  6
Continuous
 62
     0
100
AcDbPoint
 10
-21.49999999999999
 20
-186.1755559797568
 30
0.0
  0
ENDBLK
  5
64FA
330
64EF
100
AcDbEntity
  8
0
100
AcDbBlockEnd
  0
BLOCK
  5
6569
330
655F
100
AcDbEntity
  8
0
100
AcDbBlockBegin
  2
*D10
 70
     1
 10
0.0
 20
0.0
 30
0.0
  3
*D10
  1

  0
LINE
  5
6560
330
655F
100
AcDbEntity
  8
30
  6
Continuous
 62
     0
100
AcDbLine
 10
-30.5
 20
-293.0
 30
0.0
 11
-116.4999999999997
 21
-293.0
 31
0.0
  0
LINE
  5
6561
330
655F
100
AcDbEntity
  8
30
  6
Continuous
 62
     0
100
AcDbLine
 10
-30.5
 20
-507.0
 30
0.0
 11
-116.5
 21
-507.0
 31
0.0
  0
LINE
  5
6562
330
655F
100
AcDbEntity
  8
30
  6
Continuous
 62
     0
100
AcDbLine
 10
-115.9999999999999
 20
-295.0
 30
0.0
 11
-116.0
 21
-505.0
 31
0.0
  0
INSERT
  5
6563
330
655F
100
AcDbEntity
  8
30
  6
Continuous
 62
     0
100
AcDbBlockReference
  2
_OPEN
 10
-115.9999999999999
 20
-293.0
 30
0.0
 41
2.0
 42
2.0
 43
2.0
 50
90.0
  0
INSERT
  5
6564
330
655F
100
AcDbEntity
  8
30
  6
Continuous
 62
     0
100
AcDbBlockReference
  2
_OPEN
 10
-116.0
 20
-507.0
 30
0.0
 41
2.0
 42
2.0
 43
2.0
 50
270.0
  0
MTEXT
  5
6565
330
655F
100
AcDbEntity
  8
30
  6
Continuous
 62
     0
100
AcDbMText
 10
-119.4999999999997
 20
-400.0
 30
0.0
 40
5.0
 41
0.0
 71
     5
 72
     1
  1
\A1;214
 11
0.0000000000000001
 21
1.0
 31
0.0
 73
     1
 44
1.0
1001
ACAD
1000
MTEXTBEGIN
1070
    73
1070
     1
1070
    44
1040
1.0
1070
    74
1070
     0
1000
MTEXTEND
1000
MTEXTBEGIN
1070
    73
1070
     1
1070
    44
1040
1.0
1070
    74
1070
     0
1000
MTEXTEND
  0
POINT
  5
6566
330
655F
100
AcDbEntity
  8
DEFPOINTS
  6
Continuous
 62
     0
100
AcDbPoint
 10
-29.5
 20
-293.0
 30
0.0
  0
POINT
  5
6567
330
655F
100
AcDbEntity
  8
DEFPOINTS
  6
Continuous
 62
     0
100
AcDbPoint
 10
-29.5
 20
-507.0
 30
0.0
  0
POINT
  5
6568
330
655F
100
AcDbEntity
  8
DEFPOINTS
  6
Continuous
 62
     0
100
AcDbPoint
 10
-116.0
 20
-507.0
 30
0.0
  0
ENDBLK
  5
656A
330
655F
100
AcDbEntity
  8
0
100
AcDbBlockEnd
  0
BLOCK
  5
6576
330
656C
100
AcDbEntity
  8
0
100
AcDbBlockBegin
  2
*D11
 70
     1
 10
0.0
 20
0.0
 30
0.0
  3
*D11
  1

  0
LINE
  5
656D
330
656C
100
AcDbEntity
  8
30
  6
Continuous
 62
     0
100
AcDbLine
 10
-22.5
 20
-515.0
 30
0.0
 11
-22.5
 21
-573.5
 31
0.0
  0
LINE
  5
656E
330
656C
100
AcDbEntity
  8
30
  6
Continuous
 62
     0
100
AcDbLine
 10
22.5
 20
-515.0
 30
0.0
 11
22.49999999999999
 21
-573.5
 31
0.0
  0
LINE
  5
656F
330
656C
100
AcDbEntity
  8
30
  6
Continuous
 62
     0
100
AcDbLine
 10
-20.5
 20
-573.0
 30
0.0
 11
20.49999999999998
 21
-573.0
 31
0.0
  0
INSERT
  5
6570
330
656C
100
AcDbEntity
  8
30
  6
Continuous
 62
     0
100
AcDbBlockReference
  2
_OPEN
 10
-22.5
 20
-573.0
 30
0.0
 41
2.0
 42
2.0
 43
2.0
 50
180.0
  0
INSERT
  5
6571
330
656C
100
AcDbEntity
  8
30
  6
Continuous
 62
     0
100
AcDbBlockReference
  2
_OPEN
 10
22.49999999999999
 20
-573.0
 30
0.0
 41
2.0
 42
2.0
 43
2.0
  0
MTEXT
  5
6572
330
656C
100
AcDbEntity
  8
30
  6
Continuous
 62
     0
100
AcDbMText
 10
-0.0000000000000033
 20
-569.5
 30
0.0
 40
5.0
 41
0.0
 71
     5
 72
     1
  1
\A1;45
 73
     1
 44
1.0
1001
ACAD
1000
MTEXTBEGIN
1070
    73
1070
     1
1070
    44
1040
1.0
1070
    74
1070
     0
1000
MTEXTEND
1000
MTEXTBEGIN
1070
    73
1070
     1
1070
    44
1040
1.0
1070
    74
1070
     0
1000
MTEXTEND
  0
POINT
  5
6573
330
656C
100
AcDbEntity
  8
DEFPOINTS
  6
Continuous
 62
     0
100
AcDbPoint
 10
-22.5
 20
-514.0
 30
0.0
  0
POINT
  5
6574
330
656C
100
AcDbEntity
  8
DEFPOINTS
  6
Continuous
 62
     0
100
AcDbPoint
 10
22.5
 20
-514.0
 30
0.0
  0
POINT
  5
6575
330
656C
100
AcDbEntity
  8
DEFPOINTS
  6
Continuous
 62
     0
100
AcDbPoint
 10
22.49999999999999
 20
-573.0
 30
0.0
  0
ENDBLK
  5
6577
330
656C
100
AcDbEntity
  8
0
100
AcDbBlockEnd
  0
BLOCK
  5
6586
330
657C
100
AcDbEntity
  8
0
100
AcDbBlockBegin
  2
*D12
 70
     1
 10
0.0
 20
0.0
 30
0.0
  3
*D12
  1

  0
LINE
  5
6EE4
330
657C
100
AcDbEntity
  8
30
  6
Continuous
 62
     0
100
AcDbLine
 10
241.0
 20
-354.0
 30
0.0
 11
212.5
 21
-354.0
 31
0.0
  0
LINE
  5
6EE5
330
657C
100
AcDbEntity
  8
30
  6
Continuous
 62
     0
100
AcDbLine
 10
235.0
 20
-446.0
 30
0.0
 11
212.5
 21
-446.0
 31
0.0
  0
LINE
  5
6EE6
330
657C
100
AcDbEntity
  8
30
  6
Continuous
 62
     0
100
AcDbLine
 10
213.0
 20
-356.0
 30
0.0
 11
213.0
 21
-444.0
 31
0.0
  0
INSERT
  5
6EE7
330
657C
100
AcDbEntity
  8
30
  6
Continuous
 62
     0
100
AcDbBlockReference
  2
_OPEN
 10
213.0
 20
-354.0
 30
0.0
 41
2.0
 42
2.0
 43
2.0
 50
90.0
  0
INSERT
  5
6EE8
330
657C
100
AcDbEntity
  8
30
  6
Continuous
 62
     0
100
AcDbBlockReference
  2
_OPEN
 10
213.0
 20
-446.0
 30
0.0
 41
2.0
 42
2.0
 43
2.0
 50
270.0
  0
MTEXT
  5
6EE9
330
657C
100
AcDbEntity
  8
30
  6
Continuous
 62
     0
100
AcDbMText
 10
209.5
 20
-399.9999999999998
 30
0.0
 40
5.0
 41
0.0
 71
     5
 72
     1
  1
\A1;92
 11
0.0000000000000001
 21
1.0
 31
0.0
 73
     1
 44
1.0
1001
ACAD
1000
MTEXTBEGIN
1070
    73
1070
     1
1070
    44
1040
1.0
1070
    74
1070
     0
1000
MTEXTEND
1000
MTEXTBEGIN
1070
    73
1070
     1
1070
    44
1040
1.0
1070
    74
1070
     0
1000
MTEXTEND
  0
POINT
  5
6EEA
330
657C
100
AcDbEntity
  8
DEFPOINTS
  6
Continuous
 62
     0
100
AcDbPoint
 10
242.0
 20
-354.0
 30
0.0
  0
POINT
  5
6EEB
330
657C
100
AcDbEntity
  8
DEFPOINTS
  6
Continuous
 62
     0
100
AcDbPoint
 10
236.0
 20
-446.0
 30
0.0
  0
POINT
  5
6EEC
330
657C
100
AcDbEntity
  8
DEFPOINTS
  6
Continuous
 62
     0
100
AcDbPoint
 10
213.0
 20
-446.0
 30
0.0
  0
ENDBLK
  5
6587
330
657C
100
AcDbEntity
  8
0
100
AcDbBlockEnd
  0
BLOCK
  5
6593
330
6589
100
AcDbEntity
  8
0
100
AcDbBlockBegin
  2
*D13
 70
     1
 10
0.0
 20
0.0
 30
0.0
  3
*D13
  1

  0
LINE
  5
6EED
330
6589
100
AcDbEntity
  8
30
  6
Continuous
 62
     0
100
AcDbLine
 10
236.0
 20
-447.0
 30
0.0
 11
236.0
 21
-462.5
 31
0.0
  0
LINE
  5
6EEE
330
6589
100
AcDbEntity
  8
30
  6
Continuous
 62
     0
100
AcDbLine
 10
354.0
 20
-447.0
 30
0.0
 11
354.0
 21
-462.5
 31
0.0
  0
LINE
  5
6EEF
330
6589
100
AcDbEntity
  8
30
  6
Continuous
 62
     0
100
AcDbLine
 10
238.0
 20
-462.0
 30
0.0
 11
352.0
 21
-462.0
 31
0.0
  0
INSERT
  5
6EF0
330
6589
100
AcDbEntity
  8
30
  6
Continuous
 62
     0
100
AcDbBlockReference
  2
_OPEN
 10
236.0
 20
-462.0
 30
0.0
 41
2.0
 42
2.0
 43
2.0
 50
180.0
  0
INSERT
  5
6EF1
330
6589
100
AcDbEntity
  8
30
  6
Continuous
 62
     0
100
AcDbBlockReference
  2
_OPEN
 10
354.0
 20
-462.0
 30
0.0
 41
2.0
 42
2.0
 43
2.0
  0
MTEXT
  5
6EF2
330
6589
100
AcDbEntity
  8
30
  6
Continuous
 62
     0
100
AcDbMText
 10
295.0
 20
-458.4999999999998
 30
0.0
 40
5.0
 41
0.0
 71
     5
 72
     1
  1
\A1;118
 73
     1
 44
1.0
1001
ACAD
1000
MTEXTBEGIN
1070
    73
1070
     1
1070
    44
1040
1.0
1070
    74
1070
     0
1000
MTEXTEND
1000
MTEXTBEGIN
1070
    73
1070
     1
1070
    44
1040
1.0
1070
    74
1070
     0
1000
MTEXTEND
  0
POINT
  5
6EF3
330
6589
100
AcDbEntity
  8
DEFPOINTS
  6
Continuous
 62
     0
100
AcDbPoint
 10
236.0
 20
-446.0
 30
0.0
  0
POINT
  5
6EF4
330
6589
100
AcDbEntity
  8
DEFPOINTS
  6
Continuous
 62
     0
100
AcDbPoint
 10
354.0
 20
-446.0
 30
0.0
  0
POINT
  5
6EF5
330
6589
100
AcDbEntity
  8
DEFPOINTS
  6
Continuous
 62
     0
100
AcDbPoint
 10
354.0
 20
-462.0
 30
0.0
  0
ENDBLK
  5
6594
330
6589
100
AcDbEntity
  8
0
100
AcDbBlockEnd
  0
BLOCK
  5
65E2
330
65D9
100
AcDbEntity
  8
0
100
AcDbBlockBegin
  2
*D14
 70
     1
 10
0.0
 20
0.0
 30
0.0
  3
*D14
  1

  0
LINE
  5
6EF6
330
65D9
100
AcDbEntity
  8
30
  6
Continuous
 62
     0
100
AcDbLine
 10
201.6666666666658
 20
-465.9999999999998
 30
0.0
 11
210.9999999999994
 21
-465.9999999999998
 31
0.0
  0
LINE
  5
6EF7
330
65D9
100
AcDbEntity
  8
30
  6
Continuous
 62
     0
100
AcDbLine
 10
210.9999999999994
 20
-465.9999999999998
 30
0.0
 11
235.8704676549935
 21
-445.1408980958117
 31
0.0
  0
MTEXT
  5
6EF8
330
65D9
100
AcDbEntity
  8
30
  6
Continuous
 62
     0
100
AcDbMText
 10
205.8333333333325
 20
-462.4999999999998
 30
0.0
 40
5.0
 41
0.0
 71
     5
 72
     1
  1
\A1;R6
 73
     1
 44
1.0
1001
ACAD
1000
MTEXTBEGIN
1070
    73
1070
     1
1070
    44
1040
1.0
1070
    74
1070
     0
1000
MTEXTEND
1000
MTEXTBEGIN
1070
    73
1070
     1
1070
    44
1040
1.0
1070
    74
1070
     0
1000
MTEXTEND
  0
INSERT
  5
6EF9
330
65D9
100
AcDbEntity
  8
30
  6
Continuous
 62
     0
100
AcDbBlockReference
  2
_OPEN
 10
237.4028507412452
 20
-443.8556735718588
 30
0.0
 41
2.0
 42
2.0
 43
2.0
 50
39.9868862449635
  0
LINE
  5
6EFA
330
65D9
100
AcDbEntity
  8
30
  6
Continuous
 62
     0
100
AcDbLine
 10
241.9099999999999
 20
-440.0000000000002
 30
0.0
 11
242.09
 21
-440.0
 31
0.0
  0
LINE
  5
6EFB
330
65D9
100
AcDbEntity
  8
30
  6
Continuous
 62
     0
100
AcDbLine
 10
242.0
 20
-440.09
 30
0.0
 11
242.0
 21
-439.91
 31
0.0
  0
POINT
  5
6EFC
330
65D9
100
AcDbEntity
  8
DEFPOINTS
  6
Continuous
 62
     0
100
AcDbPoint
 10
237.4028507412452
 20
-443.8556735718588
 30
0.0
  0
POINT
  5
6EFD
330
65D9
100
AcDbEntity
  8
DEFPOINTS
  6
Continuous
 62
     0
100
AcDbPoint
 10
242.0
 20
-440.0000000000002
 30
0.0
  0
ENDBLK
  5
65E3
330
65D9
100
AcDbEntity
  8
0
100
AcDbBlockEnd
  0
BLOCK
  5
678C
330
6783
100
AcDbEntity
  8
0
100
AcDbBlockBegin
  2
*D15
 70
     1
 10
0.0
 20
0.0
 30
0.0
  3
*D15
  1

  0
LINE
  5
6B47
330
6783
100
AcDbEntity
  8
30
  6
Continuous
 62
     0
100
AcDbLine
 10
245.0
 20
282.0000000000001
 30
0.0
 11
234.0
 21
282.0000000000001
 31
0.0
  0
LINE
  5
6B48
330
6783
100
AcDbEntity
  8
30
  6
Continuous
 62
     0
100
AcDbLine
 10
234.0
 20
282.0000000000001
 30
0.0
 11
222.0730360603087
 21
264.2276184780825
 31
0.0
  0
MTEXT
  5
6B49
330
6783
100
AcDbEntity
  8
30
  6
Continuous
 62
     0
100
AcDbMText
 10
240.0
 20
285.5000000000001
 30
0.0
 40
5.0
 41
0.0
 71
     5
 72
     1
  1
\A1;\U+220511
 73
     1
 44
1.0
1001
ACAD
1000
MTEXTBEGIN
1070
    73
1070
     1
1070
    44
1040
1.0
1070
    74
1070
     0
1000
MTEXTEND
1000
MTEXTBEGIN
1070
    73
1070
     1
1070
    44
1040
1.0
1070
    74
1070
     0
1000
MTEXTEND
  0
INSERT
  5
6B4A
330
6783
100
AcDbEntity
  8
30
  6
Continuous
 62
     0
100
AcDbBlockReference
  2
_OPEN
 10
220.9585490543267
 20
262.5669202172605
 30
0.0
 41
2.0
 42
2.0
 43
2.0
 50
236.1346188546504
  0
LINE
  5
6B4B
330
6783
100
AcDbEntity
  8
30
  6
Continuous
 62
     0
100
AcDbLine
 10
217.803709787876
 20
258.0
 30
0.0
 11
217.983709787876
 21
258.0
 31
0.0
  0
LINE
  5
6B4C
330
6783
100
AcDbEntity
  8
30
  6
Continuous
 62
     0
100
AcDbLine
 10
217.893709787876
 20
257.91
 30
0.0
 11
217.893709787876
 21
258.0899999999999
 31
0.0
  0
POINT
  5
6B4D
330
6783
100
AcDbEntity
  8
DEFPOINTS
  6
Continuous
 62
     0
100
AcDbPoint
 10
220.9585490543267
 20
262.5669202172605
 30
0.0
  0
POINT
  5
6B4E
330
6783
100
AcDbEntity
  8
DEFPOINTS
  6
Continuous
 62
     0
100
AcDbPoint
 10
214.8288705214254
 20
253.4330797827395
 30
0.0
  0
ENDBLK
  5
678D
330
6783
100
AcDbEntity
  8
0
100
AcDbBlockEnd
  0
BLOCK
  5
6799
330
678F
100
AcDbEntity
  8
0
100
AcDbBlockBegin
  2
*D16
 70
     1
 10
0.0
 20
0.0
 30
0.0
  3
*D16
  1

  0
LINE
  5
6B4F
330
678F
100
AcDbEntity
  8
30
  6
Continuous
 62
     0
100
AcDbLine
 10
210.0
 20
258.0
 30
0.0
 11
197.4999999999999
 21
258.0
 31
0.0
  0
LINE
  5
6B50
330
678F
100
AcDbEntity
  8
30
  6
Continuous
 62
     0
100
AcDbLine
 10
204.0
 20
246.0
 30
0.0
 11
197.4999999999999
 21
246.0
 31
0.0
  0
LINE
  5
6B51
330
678F
100
AcDbEntity
  8
30
  6
Continuous
 62
     0
100
AcDbLine
 10
197.9999999999999
 20
256.0
 30
0.0
 11
197.9999999999999
 21
248.0
 31
0.0
  0
INSERT
  5
6B52
330
678F
100
AcDbEntity
  8
30
  6
Continuous
 62
     0
100
AcDbBlockReference
  2
_OPEN
 10
197.9999999999999
 20
258.0
 30
0.0
 41
2.0
 42
2.0
 43
2.0
 50
90.0
  0
INSERT
  5
6B53
330
678F
100
AcDbEntity
  8
30
  6
Continuous
 62
     0
100
AcDbBlockReference
  2
_OPEN
 10
197.9999999999999
 20
246.0
 30
0.0
 41
2.0
 42
2.0
 43
2.0
 50
270.0
  0
MTEXT
  5
6B54
330
678F
100
AcDbEntity
  8
30
  6
Continuous
 62
     0
100
AcDbMText
 10
190.3333333333332
 20
252.0
 30
0.0
 40
5.0
 41
0.0
 71
     5
 72
     1
  1
\A1;12\PMAX
 11
0.0000000000000001
 21
1.0
 31
0.0
 73
     1
 44
1.0
1001
ACAD
1000
MTEXTBEGIN
1070
    73
1070
     1
1070
    44
1040
1.0
1070
    74
1070
     0
1000
MTEXTEND
1000
MTEXTBEGIN
1070
    73
1070
     1
1070
    44
1040
1.0
1070
    74
1070
     0
1000
MTEXTEND
  0
POINT
  5
6B55
330
678F
100
AcDbEntity
  8
DEFPOINTS
  6
Continuous
 62
     0
100
AcDbPoint
 10
211.0
 20
258.0
 30
0.0
  0
POINT
  5
6B56
330
678F
100
AcDbEntity
  8
DEFPOINTS
  6
Continuous
 62
     0
100
AcDbPoint
 10
205.0
 20
246.0
 30
0.0
  0
POINT
  5
6B57
330
678F
100
AcDbEntity
  8
DEFPOINTS
  6
Continuous
 62
     0
100
AcDbPoint
 10
197.9999999999999
 20
246.0
 30
0.0
  0
ENDBLK
  5
679A
330
678F
100
AcDbEntity
  8
0
100
AcDbBlockEnd
  0
BLOCK
  5
67A6
330
679C
100
AcDbEntity
  8
0
100
AcDbBlockBegin
  2
*D17
 70
     1
 10
0.0
 20
0.0
 30
0.0
  3
*D17
  1

  0
LINE
  5
6B58
330
679C
100
AcDbEntity
  8
30
  6
Continuous
 62
     0
100
AcDbLine
 10
205.3937097878762
 20
245.0
 30
0.0
 11
205.3937097878762
 21
226.5
 31
0.0
  0
LINE
  5
6B59
330
679C
100
AcDbEntity
  8
30
  6
Continuous
 62
     0
100
AcDbLine
 10
230.3937097878763
 20
245.0
 30
0.0
 11
230.3937097878763
 21
226.5
 31
0.0
  0
LINE
  5
6B5A
330
679C
100
AcDbEntity
  8
30
  6
Continuous
 62
     0
100
AcDbLine
 10
207.3937097878762
 20
227.0
 30
0.0
 11
228.3937097878763
 21
227.0
 31
0.0
  0
INSERT
  5
6B5B
330
679C
100
AcDbEntity
  8
30
  6
Continuous
 62
     0
100
AcDbBlockReference
  2
_OPEN
 10
205.3937097878762
 20
227.0
 30
0.0
 41
2.0
 42
2.0
 43
2.0
 50
180.0
  0
INSERT
  5
6B5C
330
679C
100
AcDbEntity
  8
30
  6
Continuous
 62
     0
100
AcDbBlockReference
  2
_OPEN
 10
230.3937097878763
 20
227.0
 30
0.0
 41
2.0
 42
2.0
 43
2.0
  0
MTEXT
  5
6B5D
330
679C
100
AcDbEntity
  8
30
  6
Continuous
 62
     0
100
AcDbMText
 10
217.8937097878762
 20
234.6666666666666
 30
0.0
 40
5.0
 41
0.0
 71
     5
 72
     1
  1
\A1;25\PMAX
 73
     1
 44
1.0
1001
ACAD
1000
MTEXTBEGIN
1070
    73
1070
     1
1070
    44
1040
1.0
1070
    74
1070
     0
1000
MTEXTEND
1000
MTEXTBEGIN
1070
    73
1070
     1
1070
    44
1040
1.0
1070
    74
1070
     0
1000
MTEXTEND
  0
POINT
  5
6B5E
330
679C
100
AcDbEntity
  8
DEFPOINTS
  6
Continuous
 62
     0
100
AcDbPoint
 10
205.3937097878762
 20
246.0
 30
0.0
  0
POINT
  5
6B5F
330
679C
100
AcDbEntity
  8
DEFPOINTS
  6
Continuous
 62
     0
100
AcDbPoint
 10
230.3937097878763
 20
246.0
 30
0.0
  0
POINT
  5
6B60
330
679C
100
AcDbEntity
  8
DEFPOINTS
  6
Continuous
 62
     0
100
AcDbPoint
 10
230.3937097878763
 20
227.0
 30
0.0
  0
ENDBLK
  5
67A7
330
679C
100
AcDbEntity
  8
0
100
AcDbBlockEnd
  0
BLOCK
  5
6AC3
330
6AB7
100
AcDbEntity
  8
0
100
AcDbBlockBegin
  2
*D18
 70
     1
 10
0.0
 20
0.0
 30
0.0
  3
*D18
  1

  0
LINE
  5
6B38
330
6AB7
100
AcDbEntity
  8
30
  6
Continuous
 62
     0
100
AcDbLine
 10
-86.00000000000004
 20
174.4999999999995
 30
0.0
 11
-117.4999999999997
 21
174.4999999999995
 31
0.0
  0
LINE
  5
6B39
330
6AB7
100
AcDbEntity
  8
30
  6
Continuous
 62
     0
100
AcDbLine
 10
-83.00000000000004
 20
159.9999999999996
 30
0.0
 11
-117.4999999999997
 21
159.9999999999996
 31
0.0
  0
LINE
  5
6B3A
330
6AB7
100
AcDbEntity
  8
30
  6
Continuous
 62
     0
100
AcDbLine
 10
-116.9999999999999
 20
172.4999999999995
 30
0.0
 11
-116.9999999999999
 21
161.9999999999996
 31
0.0
  0
INSERT
  5
6B3B
330
6AB7
100
AcDbEntity
  8
30
  6
Continuous
 62
     0
100
AcDbBlockReference
  2
_OPEN
 10
-116.9999999999999
 20
174.4999999999995
 30
0.0
 41
2.0
 42
2.0
 43
2.0
 50
90.0
  0
INSERT
  5
6B3C
330
6AB7
100
AcDbEntity
  8
30
  6
Continuous
 62
     0
100
AcDbBlockReference
  2
_OPEN
 10
-116.9999999999999
 20
159.9999999999996
 30
0.0
 41
2.0
 42
2.0
 43
2.0
 50
270.0
  0
MTEXT
  5
6B3D
330
6AB7
100
AcDbEntity
  8
30
  6
Continuous
 62
     0
100
AcDbMText
 10
-120.4999999999997
 20
168.0
 30
0.0
 40
5.0
 41
0.0
 71
     5
 72
     1
  1
\A1;14.5
 11
0.0000000000000001
 21
1.0
 31
0.0
 73
     1
 44
1.0
1001
ACAD
1000
MTEXTBEGIN
1070
    73
1070
     1
1070
    44
1040
1.0
1070
    74
1070
     0
1000
MTEXTEND
1000
MTEXTBEGIN
1070
    73
1070
     1
1070
    44
1040
1.0
1070
    74
1070
     0
1000
MTEXTEND
  0
POINT
  5
6B3E
330
6AB7
100
AcDbEntity
  8
DEFPOINTS
  6
Continuous
 62
     0
100
AcDbPoint
 10
-85.00000000000005
 20
174.4999999999995
 30
0.0
  0
POINT
  5
6B3F
330
6AB7
100
AcDbEntity
  8
DEFPOINTS
  6
Continuous
 62
     0
100
AcDbPoint
 10
-82.00000000000004
 20
159.9999999999996
 30
0.0
  0
POINT
  5
6B40
330
6AB7
100
AcDbEntity
  8
DEFPOINTS
  6
Continuous
 62
     0
100
AcDbPoint
 10
-116.9999999999999
 20
159.9999999999996
 30
0.0
  0
ENDBLK
  5
6AC4
330
6AB7
100
AcDbEntity
  8
0
100
AcDbBlockEnd
  0
BLOCK
  5
6ACF
330
6AC5
100
AcDbEntity
  8
0
100
AcDbBlockBegin
  2
*D19
 70
     1
 10
0.0
 20
0.0
 30
0.0
  3
*D19
  1

  0
LINE
  5
6FAC
330
6AC5
100
AcDbEntity
  8
30
  6
Continuous
 62
     0
100
AcDbLine
 10
-83.00000000000004
 20
159.9999999999996
 30
0.0
 11
-117.4999999999997
 21
159.9999999999996
 31
0.0
  0
LINE
  5
6FAD
330
6AC5
100
AcDbEntity
  8
30
  6
Continuous
 62
     0
100
AcDbLine
 10
-82.00000000000008
 20
129.9999999999996
 30
0.0
 11
-117.4999999999997
 21
129.9999999999996
 31
0.0
  0
LINE
  5
6FAE
330
6AC5
100
AcDbEntity
  8
30
  6
Continuous
 62
     0
100
AcDbLine
 10
-116.9999999999999
 20
157.9999999999996
 30
0.0
 11
-116.9999999999999
 21
131.9999999999996
 31
0.0
  0
INSERT
  5
6FAF
330
6AC5
100
AcDbEntity
  8
30
  6
Continuous
 62
     0
100
AcDbBlockReference
  2
_OPEN
 10
-116.9999999999999
 20
159.9999999999996
 30
0.0
 41
2.0
 42
2.0
 43
2.0
 50
90.0
  0
INSERT
  5
6FB0
330
6AC5
100
AcDbEntity
  8
30
  6
Continuous
 62
     0
100
AcDbBlockReference
  2
_OPEN
 10
-116.9999999999999
 20
129.9999999999996
 30
0.0
 41
2.0
 42
2.0
 43
2.0
 50
270.0
  0
MTEXT
  5
6FB1
330
6AC5
100
AcDbEntity
  8
30
  6
Continuous
 62
     0
100
AcDbMText
 10
-120.4999999999998
 20
144.9999999999995
 30
0.0
 40
5.0
 41
0.0
 71
     5
 72
     1
  1
\A1;30
 11
0.0000000000000001
 21
1.0
 31
0.0
 73
     1
 44
1.0
  0
POINT
  5
6FB2
330
6AC5
100
AcDbEntity
  8
DEFPOINTS
  6
Continuous
 62
     0
100
AcDbPoint
 10
-82.00000000000004
 20
159.9999999999996
 30
0.0
  0
POINT
  5
6FB3
330
6AC5
100
AcDbEntity
  8
DEFPOINTS
  6
Continuous
 62
     0
100
AcDbPoint
 10
-81.00000000000006
 20
129.9999999999996
 30
0.0
  0
POINT
  5
6FB4
330
6AC5
100
AcDbEntity
  8
DEFPOINTS
  6
Continuous
 62
     0
100
AcDbPoint
 10
-116.9999999999999
 20
129.9999999999996
 30
0.0
  0
ENDBLK
  5
6AD0
330
6AC5
100
AcDbEntity
  8
0
100
AcDbBlockEnd
  0
BLOCK
  5
6ADA
330
6AD1
100
AcDbEntity
  8
0
100
AcDbBlockBegin
  2
*D20
 70
     1
 10
0.0
 20
0.0
 30
0.0
  3
*D20
  1

  0
LINE
  5
6B1C
330
6AD1
100
AcDbEntity
  8
30
  6
Continuous
 62
     0
100
AcDbLine
 10
-49.03630463015013
 20
184.4805147390155
 30
0.0
 11
-61.7029712968168
 21
184.4805147390155
 31
0.0
  0
LINE
  5
6B1D
330
6AD1
100
AcDbEntity
  8
30
  6
Continuous
 62
     0
100
AcDbLine
 10
-61.7029712968168
 20
184.4805147390155
 30
0.0
 11
-63.79872832906372
 21
168.9194700724088
 31
0.0
  0
MTEXT
  5
6B1E
330
6AD1
100
AcDbEntity
  8
30
  6
Continuous
 62
     0
100
AcDbMText
 10
-54.86963796348345
 20
187.9805147390155
 30
0.0
 40
5.0
 41
0.0
 71
     5
 72
     1
  1
\A1;\U+220514
 73
     1
 44
1.0
1001
ACAD
1000
MTEXTBEGIN
1070
    73
1070
     1
1070
    44
1040
1.0
1070
    74
1070
     0
1000
MTEXTEND
1000
MTEXTBEGIN
1070
    73
1070
     1
1070
    44
1040
1.0
1070
    74
1070
     0
1000
MTEXTEND
  0
INSERT
  5
6B1F
330
6AD1
100
AcDbEntity
  8
30
  6
Continuous
 62
     0
100
AcDbBlockReference
  2
_OPEN
 10
-64.06567758927178
 20
166.9373656118733
 30
0.0
 41
2.0
 42
2.0
 43
2.0
 50
262.3295756164606
  0
LINE
  5
6B20
330
6AD1
100
AcDbEntity
  8
30
  6
Continuous
 62
     0
100
AcDbLine
 10
-65.08999999999993
 20
159.9999999999995
 30
0.0
 11
-64.90999999999992
 21
159.9999999999995
 31
0.0
  0
LINE
  5
6B21
330
6AD1
100
AcDbEntity
  8
30
  6
Continuous
 62
     0
100
AcDbLine
 10
-64.99999999999992
 20
159.9099999999995
 30
0.0
 11
-64.99999999999992
 21
160.0899999999993
 31
0.0
  0
POINT
  5
6B22
330
6AD1
100
AcDbEntity
  8
DEFPOINTS
  6
Continuous
 62
     0
100
AcDbPoint
 10
-64.06567758927178
 20
166.9373656118733
 30
0.0
  0
POINT
  5
6B23
330
6AD1
100
AcDbEntity
  8
DEFPOINTS
  6
Continuous
 62
     0
100
AcDbPoint
 10
-65.93432241072811
 20
153.0626343881255
 30
0.0
  0
ENDBLK
  5
6ADB
330
6AD1
100
AcDbEntity
  8
0
100
AcDbBlockEnd
  0
BLOCK
  5
6C68
330
6C5E
100
AcDbEntity
  8
0
100
AcDbBlockBegin
  2
*D21
 70
     1
 10
0.0
 20
0.0
 30
0.0
  3
*D21
  1

  0
LINE
  5
6EC9
330
6C5E
100
AcDbEntity
  8
30
  6
Continuous
 62
     0
100
AcDbLine
 10
252.0845851566904
 20
-46.0
 30
0.0
 11
252.0845851566904
 21
-187.5
 31
0.0
  0
LINE
  5
6ECA
330
6C5E
100
AcDbEntity
  8
30
  6
Continuous
 62
     0
100
AcDbLine
 10
260.0845851566905
 20
-52.0
 30
0.0
 11
260.0845851566905
 21
-187.5
 31
0.0
  0
LINE
  5
6ECB
330
6C5E
100
AcDbEntity
  8
30
  6
Continuous
 62
     0
100
AcDbLine
 10
254.0845851566905
 20
-187.0
 30
0.0
 11
258.0845851566905
 21
-187.0
 31
0.0
  0
INSERT
  5
6ECC
330
6C5E
100
AcDbEntity
  8
30
  6
Continuous
 62
     0
100
AcDbBlockReference
  2
_OPEN
 10
252.0845851566904
 20
-187.0
 30
0.0
 41
2.0
 42
2.0
 43
2.0
 50
180.0
  0
INSERT
  5
6ECD
330
6C5E
100
AcDbEntity
  8
30
  6
Continuous
 62
     0
100
AcDbBlockReference
  2
_OPEN
 10
260.0845851566905
 20
-187.0
 30
0.0
 41
2.0
 42
2.0
 43
2.0
  0
MTEXT
  5
6ECE
330
6C5E
100
AcDbEntity
  8
30
  6
Continuous
 62
     0
100
AcDbMText
 10
256.0845851566905
 20
-183.4999999999999
 30
0.0
 40
5.0
 41
0.0
 71
     5
 72
     1
  1
\A1;8
 73
     1
 44
1.0
1001
ACAD
1000
MTEXTBEGIN
1070
    73
1070
     1
1070
    44
1040
1.0
1070
    74
1070
     0
1000
MTEXTEND
1000
MTEXTBEGIN
1070
    73
1070
     1
1070
    44
1040
1.0
1070
    74
1070
     0
1000
MTEXTEND
  0
POINT
  5
6ECF
330
6C5E
100
AcDbEntity
  8
DEFPOINTS
  6
Continuous
 62
     0
100
AcDbPoint
 10
252.0845851566904
 20
-45.0
 30
0.0
  0
POINT
  5
6ED0
330
6C5E
100
AcDbEntity
  8
DEFPOINTS
  6
Continuous
 62
     0
100
AcDbPoint
 10
260.0845851566905
 20
-51.0
 30
0.0
  0
POINT
  5
6ED1
330
6C5E
100
AcDbEntity
  8
DEFPOINTS
  6
Continuous
 62
     0
100
AcDbPoint
 10
260.0845851566905
 20
-187.0
 30
0.0
  0
ENDBLK
  5
6C69
330
6C5E
100
AcDbEntity
  8
0
100
AcDbBlockEnd
  0
BLOCK
  5
6C74
330
6C6A
100
AcDbEntity
  8
0
100
AcDbBlockBegin
  2
*D22
 70
     1
 10
0.0
 20
0.0
 30
0.0
  3
*D22
  1

  0
LINE
  5
6EB7
330
6C6A
100
AcDbEntity
  8
30
  6
Continuous
 62
     0
100
AcDbLine
 10
260.0845851566905
 20
-53.0
 30
0.0
 11
260.0845851566905
 21
-187.5
 31
0.0
  0
LINE
  5
6EB8
330
6C6A
100
AcDbEntity
  8
30
  6
Continuous
 62
     0
100
AcDbLine
 10
400.0845851566905
 20
-132.0
 30
0.0
 11
400.0845851566905
 21
-187.5
 31
0.0
  0
LINE
  5
6EB9
330
6C6A
100
AcDbEntity
  8
30
  6
Continuous
 62
     0
100
AcDbLine
 10
262.0845851566904
 20
-187.0
 30
0.0
 11
398.0845851566905
 21
-187.0
 31
0.0
  0
INSERT
  5
6EBA
330
6C6A
100
AcDbEntity
  8
30
  6
Continuous
 62
     0
100
AcDbBlockReference
  2
_OPEN
 10
260.0845851566905
 20
-187.0
 30
0.0
 41
2.0
 42
2.0
 43
2.0
 50
180.0
  0
INSERT
  5
6EBB
330
6C6A
100
AcDbEntity
  8
30
  6
Continuous
 62
     0
100
AcDbBlockReference
  2
_OPEN
 10
400.0845851566905
 20
-187.0
 30
0.0
 41
2.0
 42
2.0
 43
2.0
  0
MTEXT
  5
6EBC
330
6C6A
100
AcDbEntity
  8
30
  6
Continuous
 62
     0
100
AcDbMText
 10
330.0845851566906
 20
-183.4999999999999
 30
0.0
 40
5.0
 41
0.0
 71
     5
 72
     1
  1
\A1;140
 73
     1
 44
1.0
1001
ACAD
1000
MTEXTBEGIN
1070
    73
1070
     1
1070
    44
1040
1.0
1070
    74
1070
     0
1000
MTEXTEND
1000
MTEXTBEGIN
1070
    73
1070
     1
1070
    44
1040
1.0
1070
    74
1070
     0
1000
MTEXTEND
  0
POINT
  5
6EBD
330
6C6A
100
AcDbEntity
  8
DEFPOINTS
  6
Continuous
 62
     0
100
AcDbPoint
 10
260.0845851566905
 20
-52.0
 30
0.0
  0
POINT
  5
6EBE
330
6C6A
100
AcDbEntity
  8
DEFPOINTS
  6
Continuous
 62
     0
100
AcDbPoint
 10
400.0845851566905
 20
-131.0
 30
0.0
  0
POINT
  5
6EBF
330
6C6A
100
AcDbEntity
  8
DEFPOINTS
  6
Continuous
 62
     0
100
AcDbPoint
 10
400.0845851566905
 20
-187.0
 30
0.0
  0
ENDBLK
  5
6C75
330
6C6A
100
AcDbEntity
  8
0
100
AcDbBlockEnd
  0
BLOCK
  5
6C80
330
6C76
100
AcDbEntity
  8
0
100
AcDbBlockBegin
  2
*D23
 70
     1
 10
0.0
 20
0.0
 30
0.0
  3
*D23
  1

  0
LINE
  5
6EAE
330
6C76
100
AcDbEntity
  8
30
  6
Continuous
 62
     0
100
AcDbLine
 10
400.0845851566905
 20
-131.0
 30
0.0
 11
400.0845851566905
 21
-142.5
 31
0.0
  0
LINE
  5
6EAF
330
6C76
100
AcDbEntity
  8
30
  6
Continuous
 62
     0
100
AcDbLine
 10
328.0845851566906
 20
-131.0
 30
0.0
 11
328.0845851566906
 21
-142.5
 31
0.0
  0
LINE
  5
6EB0
330
6C76
100
AcDbEntity
  8
30
  6
Continuous
 62
     0
100
AcDbLine
 10
398.0845851566905
 20
-142.0
 30
0.0
 11
330.0845851566906
 21
-142.0
 31
0.0
  0
INSERT
  5
6EB1
330
6C76
100
AcDbEntity
  8
30
  6
Continuous
 62
     0
100
AcDbBlockReference
  2
_OPEN
 10
400.0845851566905
 20
-142.0
 30
0.0
 41
2.0
 42
2.0
 43
2.0
  0
INSERT
  5
6EB2
330
6C76
100
AcDbEntity
  8
30
  6
Continuous
 62
     0
100
AcDbBlockReference
  2
_OPEN
 10
328.0845851566906
 20
-142.0
 30
0.0
 41
2.0
 42
2.0
 43
2.0
 50
180.0
  0
MTEXT
  5
6EB3
330
6C76
100
AcDbEntity
  8
30
  6
Continuous
 62
     0
100
AcDbMText
 10
364.0845851566905
 20
-138.5
 30
0.0
 40
5.0
 41
0.0
 71
     5
 72
     1
  1
\A1;72
 73
     1
 44
1.0
1001
ACAD
1000
MTEXTBEGIN
1070
    73
1070
     1
1070
    44
1040
1.0
1070
    74
1070
     0
1000
MTEXTEND
1000
MTEXTBEGIN
1070
    73
1070
     1
1070
    44
1040
1.0
1070
    74
1070
     0
1000
MTEXTEND
  0
POINT
  5
6EB4
330
6C76
100
AcDbEntity
  8
DEFPOINTS
  6
Continuous
 62
     0
100
AcDbPoint
 10
400.0845851566905
 20
-130.0
 30
0.0
  0
POINT
  5
6EB5
330
6C76
100
AcDbEntity
  8
DEFPOINTS
  6
Continuous
 62
     0
100
AcDbPoint
 10
328.0845851566906
 20
-130.0
 30
0.0
  0
POINT
  5
6EB6
330
6C76
100
AcDbEntity
  8
DEFPOINTS
  6
Continuous
 62
     0
100
AcDbPoint
 10
328.0845851566906
 20
-142.0
 30
0.0
  0
ENDBLK
  5
6C81
330
6C76
100
AcDbEntity
  8
0
100
AcDbBlockEnd
  0
BLOCK
  5
6C8C
330
6C82
100
AcDbEntity
  8
0
100
AcDbBlockBegin
  2
*D24
 70
     1
 10
0.0
 20
0.0
 30
0.0
  3
*D24
  1

  0
LINE
  5
6E4D
330
6C82
100
AcDbEntity
  8
30
  6
Continuous
 62
     0
100
AcDbLine
 10
400.0845851566905
 20
131.0
 30
0.0
 11
400.0845851566905
 21
197.5
 31
0.0
  0
LINE
  5
6E4E
330
6C82
100
AcDbEntity
  8
30
  6
Continuous
 62
     0
100
AcDbLine
 10
325.0845851566906
 20
175.5
 30
0.0
 11
325.0845851566906
 21
197.5
 31
0.0
  0
LINE
  5
6E4F
330
6C82
100
AcDbEntity
  8
30
  6
Continuous
 62
     0
100
AcDbLine
 10
398.0845851566905
 20
197.0
 30
0.0
 11
327.0845851566906
 21
197.0
 31
0.0
  0
INSERT
  5
6E50
330
6C82
100
AcDbEntity
  8
30
  6
Continuous
 62
     0
100
AcDbBlockReference
  2
_OPEN
 10
400.0845851566905
 20
197.0
 30
0.0
 41
2.0
 42
2.0
 43
2.0
  0
INSERT
  5
6E51
330
6C82
100
AcDbEntity
  8
30
  6
Continuous
 62
     0
100
AcDbBlockReference
  2
_OPEN
 10
325.0845851566906
 20
197.0
 30
0.0
 41
2.0
 42
2.0
 43
2.0
 50
180.0
  0
MTEXT
  5
6E52
330
6C82
100
AcDbEntity
  8
30
  6
Continuous
 62
     0
100
AcDbMText
 10
362.5845851566905
 20
200.4999999999999
 30
0.0
 40
5.0
 41
0.0
 71
     5
 72
     1
  1
\A1;75
 73
     1
 44
1.0
1001
ACAD
1000
MTEXTBEGIN
1070
    73
1070
     1
1070
    44
1040
1.0
1070
    74
1070
     0
1000
MTEXTEND
1000
MTEXTBEGIN
1070
    73
1070
     1
1070
    44
1040
1.0
1070
    74
1070
     0
1000
MTEXTEND
  0
POINT
  5
6E53
330
6C82
100
AcDbEntity
  8
DEFPOINTS
  6
Continuous
 62
     0
100
AcDbPoint
 10
400.0845851566905
 20
130.0
 30
0.0
  0
POINT
  5
6E54
330
6C82
100
AcDbEntity
  8
DEFPOINTS
  6
Continuous
 62
     0
100
AcDbPoint
 10
325.0845851566906
 20
174.5
 30
0.0
  0
POINT
  5
6E55
330
6C82
100
AcDbEntity
  8
DEFPOINTS
  6
Continuous
 62
     0
100
AcDbPoint
 10
325.0845851566906
 20
197.0
 30
0.0
  0
ENDBLK
  5
6C8D
330
6C82
100
AcDbEntity
  8
0
100
AcDbBlockEnd
  0
BLOCK
  5
6DB2
330
6DA8
100
AcDbEntity
  8
0
100
AcDbBlockBegin
  2
*D25
 70
     1
 10
0.0
 20
0.0
 30
0.0
  3
*D25
  1

  0
LINE
  5
6FB5
330
6DA8
100
AcDbEntity
  8
30
  6
Continuous
 62
     0
100
AcDbLine
 10
116.0000062386228
 20
448.9333130972179
 30
0.0
 11
139.0776353808502
 21
448.9333130972177
 31
0.0
  0
LINE
  5
6FB6
330
6DA8
100
AcDbEntity
  8
30
  6
Continuous
 62
     0
100
AcDbLine
 10
109.5049008567168
 20
374.9333130972177
 30
0.0
 11
139.0776353808502
 21
374.9333130972177
 31
0.0
  0
LINE
  5
6FB7
330
6DA8
100
AcDbEntity
  8
30
  6
Continuous
 62
     0
100
AcDbLine
 10
138.5776353808503
 20
446.9333130972177
 30
0.0
 11
138.5776353808503
 21
376.9333130972177
 31
0.0
  0
MTEXT
  5
6FB8
330
6DA8
100
AcDbEntity
  8
30
  6
Continuous
 62
     0
100
AcDbMText
 10
173.0
 20
407.4676640653787
 30
0.0
 40
5.0
 41
0.0
 71
     5
 72
     1
  1
\A1;ON SIDE 75\POFF SIDE 72
 73
     1
 44
1.0
  0
INSERT
  5
6FB9
330
6DA8
100
AcDbEntity
  8
30
  6
Continuous
 62
     0
100
AcDbBlockReference
  2
_OPEN
 10
138.5776353808503
 20
448.9333130972177
 30
0.0
 41
2.0
 42
2.0
 43
2.0
 50
90.0
  0
INSERT
  5
6FBA
330
6DA8
100
AcDbEntity
  8
30
  6
Continuous
 62
     0
100
AcDbBlockReference
  2
_OPEN
 10
138.5776353808503
 20
374.9333130972177
 30
0.0
 41
2.0
 42
2.0
 43
2.0
 50
270.0
  0
POINT
  5
6FBB
330
6DA8
100
AcDbEntity
  8
DEFPOINTS
  6
Continuous
 62
     0
100
AcDbPoint
 10
115.0000062386228
 20
448.9333130972179
 30
0.0
  0
POINT
  5
6FBC
330
6DA8
100
AcDbEntity
  8
DEFPOINTS
  6
Continuous
 62
     0
100
AcDbPoint
 10
108.5049008567168
 20
374.9333130972177
 30
0.0
  0
POINT
  5
6FBD
330
6DA8
100
AcDbEntity
  8
DEFPOINTS
  6
Continuous
 62
     0
100
AcDbPoint
 10
138.5776353808503
 20
374.9333130972177
 30
0.0
  0
ENDBLK
  5
6DB3
330
6DA8
100
AcDbEntity
  8
0
100
AcDbBlockEnd
  0
BLOCK
  5
6DBE
330
6DB4
100
AcDbEntity
  8
0
100
AcDbBlockBegin
  2
*D26
 70
     1
 10
0.0
 20
0.0
 30
0.0
  3
*D26
  1

  0
LINE
  5
6FBE
330
6DB4
100
AcDbEntity
  8
30
  6
Continuous
 62
     0
100
AcDbLine
 10
0.0000404306856778
 20
382.0152968472962
 30
0.0
 11
0.0000404306856828
 21
464.2475094850271
 31
0.0
  0
LINE
  5
6FBF
330
6DB4
100
AcDbEntity
  8
30
  6
Continuous
 62
     0
100
AcDbLine
 10
45.00006103516011
 20
375.9333130972177
 30
0.0
 11
45.00006103516012
 21
464.2475094850271
 31
0.0
  0
LINE
  5
6FC0
330
6DB4
100
AcDbEntity
  8
30
  6
Continuous
 62
     0
100
AcDbLine
 10
2.000040430685682
 20
463.7475094850271
 30
0.0
 11
43.00006103516012
 21
463.7475094850271
 31
0.0
  0
INSERT
  5
6FC1
330
6DB4
100
AcDbEntity
  8
30
  6
Continuous
 62
     0
100
AcDbBlockReference
  2
_OPEN
 10
0.0000404306856828
 20
463.7475094850271
 30
0.0
 41
2.0
 42
2.0
 43
2.0
 50
180.0
  0
INSERT
  5
6FC2
330
6DB4
100
AcDbEntity
  8
30
  6
Continuous
 62
     0
100
AcDbBlockReference
  2
_OPEN
 10
45.00006103516012
 20
463.7475094850271
 30
0.0
 41
2.0
 42
2.0
 43
2.0
  0
MTEXT
  5
6FC3
330
6DB4
100
AcDbEntity
  8
30
  6
Continuous
 62
     0
100
AcDbMText
 10
22.50005073292289
 20
467.2475094850271
 30
0.0
 40
5.0
 41
0.0
 71
     5
 72
     1
  1
\A1;45
 73
     1
 44
1.0
  0
POINT
  5
6FC4
330
6DB4
100
AcDbEntity
  8
DEFPOINTS
  6
Continuous
 62
     0
100
AcDbPoint
 10
0.0000404306856777
 20
381.0152968472962
 30
0.0
  0
POINT
  5
6FC5
330
6DB4
100
AcDbEntity
  8
DEFPOINTS
  6
Continuous
 62
     0
100
AcDbPoint
 10
45.00006103516011
 20
374.9333130972177
 30
0.0
  0
POINT
  5
6FC6
330
6DB4
100
AcDbEntity
  8
DEFPOINTS
  6
Continuous
 62
     0
100
AcDbPoint
 10
45.00006103516012
 20
463.7475094850271
 30
0.0
  0
ENDBLK
  5
6DBF
330
6DB4
100
AcDbEntity
  8
0
100
AcDbBlockEnd
  0
BLOCK
  5
6DCA
330
6DC0
100
AcDbEntity
  8
0
100
AcDbBlockBegin
  2
*D27
 70
     1
 10
0.0
 20
0.0
 30
0.0
  3
*D27
  1

  0
LINE
  5
6FC7
330
6DC0
100
AcDbEntity
  8
30
  6
Continuous
 62
     0
100
AcDbLine
 10
-44.9999389648399
 20
382.0152968472962
 30
0.0
 11
-44.99993896483988
 21
464.2475094850271
 31
0.0
  0
LINE
  5
6FC8
330
6DC0
100
AcDbEntity
  8
30
  6
Continuous
 62
     0
100
AcDbLine
 10
0.0000404306856778
 20
382.0152968472962
 30
0.0
 11
0.0000404306856828
 21
464.2475094850271
 31
0.0
  0
LINE
  5
6FC9
330
6DC0
100
AcDbEntity
  8
30
  6
Continuous
 62
     0
100
AcDbLine
 10
-42.99993896483988
 20
463.7475094850271
 30
0.0
 11
-1.999959569314316
 21
463.7475094850271
 31
0.0
  0
INSERT
  5
6FCA
330
6DC0
100
AcDbEntity
  8
30
  6
Continuous
 62
     0
100
AcDbBlockReference
  2
_OPEN
 10
-44.99993896483988
 20
463.7475094850271
 30
0.0
 41
2.0
 42
2.0
 43
2.0
 50
180.0
  0
INSERT
  5
6FCB
330
6DC0
100
AcDbEntity
  8
30
  6
Continuous
 62
     0
100
AcDbBlockReference
  2
_OPEN
 10
0.0000404306856828
 20
463.7475094850271
 30
0.0
 41
2.0
 42
2.0
 43
2.0
  0
MTEXT
  5
6FCC
330
6DC0
100
AcDbEntity
  8
30
  6
Continuous
 62
     0
100
AcDbMText
 10
-22.4999492670771
 20
467.2475094850271
 30
0.0
 40
5.0
 41
0.0
 71
     5
 72
     1
  1
\A1;45
 73
     1
 44
1.0
  0
POINT
  5
6FCD
330
6DC0
100
AcDbEntity
  8
DEFPOINTS
  6
Continuous
 62
     0
100
AcDbPoint
 10
-44.9999389648399
 20
381.0152968472962
 30
0.0
  0
POINT
  5
6FCE
330
6DC0
100
AcDbEntity
  8
DEFPOINTS
  6
Continuous
 62
     0
100
AcDbPoint
 10
0.0000404306856777
 20
381.0152968472962
 30
0.0
  0
POINT
  5
6FCF
330
6DC0
100
AcDbEntity
  8
DEFPOINTS
  6
Continuous
 62
     0
100
AcDbPoint
 10
0.0000404306856828
 20
463.7475094850271
 30
0.0
  0
ENDBLK
  5
6DCB
330
6DC0
100
AcDbEntity
  8
0
100
AcDbBlockEnd
  0
BLOCK
  5
6DD6
330
6DCC
100
AcDbEntity
  8
0
100
AcDbBlockBegin
  2
*D28
 70
     1
 10
0.0
 20
0.0
 30
0.0
  3
*D28
  1

  0
LINE
  5
6E0B
330
6DCC
100
AcDbEntity
  8
30
  6
Continuous
 62
     0
100
AcDbLine
 10
-69.99994520346287
 20
449.9333130972178
 30
0.0
 11
-69.99994520346287
 21
464.2475094850271
 31
0.0
  0
LINE
  5
6E0C
330
6DCC
100
AcDbEntity
  8
30
  6
Continuous
 62
     0
100
AcDbLine
 10
-44.9999389648399
 20
382.0152968472962
 30
0.0
 11
-44.9999389648399
 21
464.2475094850271
 31
0.0
  0
LINE
  5
6E0D
330
6DCC
100
AcDbEntity
  8
30
  6
Continuous
 62
     0
100
AcDbLine
 10
-67.99994520346287
 20
463.7475094850271
 30
0.0
 11
-46.9999389648399
 21
463.7475094850271
 31
0.0
  0
INSERT
  5
6E0E
330
6DCC
100
AcDbEntity
  8
30
  6
Continuous
 62
     0
100
AcDbBlockReference
  2
_OPEN
 10
-69.99994520346287
 20
463.7475094850271
 30
0.0
 41
2.0
 42
2.0
 43
2.0
 50
180.0
  0
INSERT
  5
6E0F
330
6DCC
100
AcDbEntity
  8
30
  6
Continuous
 62
     0
100
AcDbBlockReference
  2
_OPEN
 10
-44.9999389648399
 20
463.7475094850271
 30
0.0
 41
2.0
 42
2.0
 43
2.0
  0
MTEXT
  5
6E10
330
6DCC
100
AcDbEntity
  8
30
  6
Continuous
 62
     0
100
AcDbMText
 10
-57.49994208415138
 20
467.2475094850271
 30
0.0
 40
5.0
 41
0.0
 71
     5
 72
     1
  1
\A1;25
 73
     1
 44
1.0
1001
ACAD
1000
MTEXTBEGIN
1070
    73
1070
     1
1070
    44
1040
1.0
1070
    74
1070
     0
1000
MTEXTEND
1000
MTEXTBEGIN
1070
    73
1070
     1
1070
    44
1040
1.0
1070
    74
1070
     0
1000
MTEXTEND
  0
POINT
  5
6E11
330
6DCC
100
AcDbEntity
  8
DEFPOINTS
  6
Continuous
 62
     0
100
AcDbPoint
 10
-69.99994520346287
 20
448.9333130972179
 30
0.0
  0
POINT
  5
6E12
330
6DCC
100
AcDbEntity
  8
DEFPOINTS
  6
Continuous
 62
     0
100
AcDbPoint
 10
-44.9999389648399
 20
381.0152968472962
 30
0.0
  0
POINT
  5
6E13
330
6DCC
100
AcDbEntity
  8
DEFPOINTS
  6
Continuous
 62
     0
100
AcDbPoint
 10
-44.9999389648399
 20
463.7475094850271
 30
0.0
  0
ENDBLK
  5
6DD7
330
6DCC
100
AcDbEntity
  8
0
100
AcDbBlockEnd
  0
BLOCK
  5
6DE2
330
6DD8
100
AcDbEntity
  8
0
100
AcDbBlockBegin
  2
*D29
 70
     1
 10
0.0
 20
0.0
 30
0.0
  3
*D29
  1

  0
LINE
  5
6FD0
330
6DD8
100
AcDbEntity
  8
30
  6
Continuous
 62
     0
100
AcDbLine
 10
45.00004043068567
 20
382.0152968472962
 30
0.0
 11
45.00004043068567
 21
464.2475094850271
 31
0.0
  0
LINE
  5
6FD1
330
6DD8
100
AcDbEntity
  8
30
  6
Continuous
 62
     0
100
AcDbLine
 10
90.00006103516012
 20
375.9333130972177
 30
0.0
 11
90.00006103516012
 21
464.2475094850271
 31
0.0
  0
LINE
  5
6FD2
330
6DD8
100
AcDbEntity
  8
30
  6
Continuous
 62
     0
100
AcDbLine
 10
47.00004043068568
 20
463.7475094850271
 30
0.0
 11
88.00006103516009
 21
463.7475094850271
 31
0.0
  0
INSERT
  5
6FD3
330
6DD8
100
AcDbEntity
  8
30
  6
Continuous
 62
     0
100
AcDbBlockReference
  2
_OPEN
 10
45.00004043068567
 20
463.7475094850271
 30
0.0
 41
2.0
 42
2.0
 43
2.0
 50
180.0
  0
INSERT
  5
6FD4
330
6DD8
100
AcDbEntity
  8
30
  6
Continuous
 62
     0
100
AcDbBlockReference
  2
_OPEN
 10
90.00006103516012
 20
463.7475094850271
 30
0.0
 41
2.0
 42
2.0
 43
2.0
  0
MTEXT
  5
6FD5
330
6DD8
100
AcDbEntity
  8
30
  6
Continuous
 62
     0
100
AcDbMText
 10
67.5000507329229
 20
467.2475094850271
 30
0.0
 40
5.0
 41
0.0
 71
     5
 72
     1
  1
\A1;45
 73
     1
 44
1.0
  0
POINT
  5
6FD6
330
6DD8
100
AcDbEntity
  8
DEFPOINTS
  6
Continuous
 62
     0
100
AcDbPoint
 10
45.00004043068567
 20
381.0152968472962
 30
0.0
  0
POINT
  5
6FD7
330
6DD8
100
AcDbEntity
  8
DEFPOINTS
  6
Continuous
 62
     0
100
AcDbPoint
 10
90.00006103516012
 20
374.9333130972177
 30
0.0
  0
POINT
  5
6FD8
330
6DD8
100
AcDbEntity
  8
DEFPOINTS
  6
Continuous
 62
     0
100
AcDbPoint
 10
90.00006103516012
 20
463.7475094850271
 30
0.0
  0
ENDBLK
  5
6DE3
330
6DD8
100
AcDbEntity
  8
0
100
AcDbBlockEnd
  0
BLOCK
  5
6DEE
330
6DE4
100
AcDbEntity
  8
0
100
AcDbBlockBegin
  2
*D30
 70
     1
 10
0.0
 20
0.0
 30
0.0
  3
*D30
  1

  0
LINE
  5
6E1D
330
6DE4
100
AcDbEntity
  8
30
  6
Continuous
 62
     0
100
AcDbLine
 10
90.0000610351601
 20
449.9333130972178
 30
0.0
 11
90.0000610351601
 21
464.2475094850271
 31
0.0
  0
LINE
  5
6E1E
330
6DE4
100
AcDbEntity
  8
30
  6
Continuous
 62
     0
100
AcDbLine
 10
115.00006103516
 20
449.9333130972178
 30
0.0
 11
115.00006103516
 21
464.2475094850271
 31
0.0
  0
LINE
  5
6E1F
330
6DE4
100
AcDbEntity
  8
30
  6
Continuous
 62
     0
100
AcDbLine
 10
92.0000610351601
 20
463.7475094850271
 30
0.0
 11
113.00006103516
 21
463.7475094850271
 31
0.0
  0
INSERT
  5
6E20
330
6DE4
100
AcDbEntity
  8
30
  6
Continuous
 62
     0
100
AcDbBlockReference
  2
_OPEN
 10
90.0000610351601
 20
463.7475094850271
 30
0.0
 41
2.0
 42
2.0
 43
2.0
 50
180.0
  0
INSERT
  5
6E21
330
6DE4
100
AcDbEntity
  8
30
  6
Continuous
 62
     0
100
AcDbBlockReference
  2
_OPEN
 10
115.00006103516
 20
463.7475094850271
 30
0.0
 41
2.0
 42
2.0
 43
2.0
  0
MTEXT
  5
6E22
330
6DE4
100
AcDbEntity
  8
30
  6
Continuous
 62
     0
100
AcDbMText
 10
102.5000610351599
 20
467.2475094850271
 30
0.0
 40
5.0
 41
0.0
 71
     5
 72
     1
  1
\A1;25
 73
     1
 44
1.0
1001
ACAD
1000
MTEXTBEGIN
1070
    73
1070
     1
1070
    44
1040
1.0
1070
    74
1070
     0
1000
MTEXTEND
1000
MTEXTBEGIN
1070
    73
1070
     1
1070
    44
1040
1.0
1070
    74
1070
     0
1000
MTEXTEND
  0
POINT
  5
6E23
330
6DE4
100
AcDbEntity
  8
DEFPOINTS
  6
Continuous
 62
     0
100
AcDbPoint
 10
90.0000610351601
 20
448.9333130972179
 30
0.0
  0
POINT
  5
6E24
330
6DE4
100
AcDbEntity
  8
DEFPOINTS
  6
Continuous
 62
     0
100
AcDbPoint
 10
115.00006103516
 20
448.9333130972179
 30
0.0
  0
POINT
  5
6E25
330
6DE4
100
AcDbEntity
  8
DEFPOINTS
  6
Continuous
 62
     0
100
AcDbPoint
 10
115.00006103516
 20
463.7475094850271
 30
0.0
  0
ENDBLK
  5
6DEF
330
6DE4
100
AcDbEntity
  8
0
100
AcDbBlockEnd
  0
BLOCK
  5
6E73
330
6E69
100
AcDbEntity
  8
0
100
AcDbBlockBegin
  2
*D31
 70
     1
 10
0.0
 20
0.0
 30
0.0
  3
*D31
  1

  0
LINE
  5
6E7E
330
6E69
100
AcDbEntity
  8
30
  6
Continuous
 62
     0
100
AcDbLine
 10
325.0845851566906
 20
176.5
 30
0.0
 11
325.0845851566906
 21
198.0
 31
0.0
  0
LINE
  5
6E7F
330
6E69
100
AcDbEntity
  8
30
  6
Continuous
 62
     0
100
AcDbLine
 10
317.0845851566906
 20
176.5
 30
0.0
 11
317.0845851566906
 21
198.0
 31
0.0
  0
LINE
  5
6E80
330
6E69
100
AcDbEntity
  8
30
  6
Continuous
 62
     0
100
AcDbLine
 10
323.0845851566906
 20
197.5
 30
0.0
 11
319.0845851566906
 21
197.5
 31
0.0
  0
INSERT
  5
6E81
330
6E69
100
AcDbEntity
  8
30
  6
Continuous
 62
     0
100
AcDbBlockReference
  2
_OPEN
 10
325.0845851566906
 20
197.5
 30
0.0
 41
2.0
 42
2.0
 43
2.0
  0
INSERT
  5
6E82
330
6E69
100
AcDbEntity
  8
30
  6
Continuous
 62
     0
100
AcDbBlockReference
  2
_OPEN
 10
317.0845851566906
 20
197.5
 30
0.0
 41
2.0
 42
2.0
 43
2.0
 50
180.0
  0
MTEXT
  5
6E83
330
6E69
100
AcDbEntity
  8
30
  6
Continuous
 62
     0
100
AcDbMText
 10
321.0845851566906
 20
201.0
 30
0.0
 40
5.0
 41
0.0
 71
     5
 72
     1
  1
\A1;8
 73
     1
 44
1.0
1001
ACAD
1000
MTEXTBEGIN
1070
    73
1070
     1
1070
    44
1040
1.0
1070
    74
1070
     0
1000
MTEXTEND
1000
MTEXTBEGIN
1070
    73
1070
     1
1070
    44
1040
1.0
1070
    74
1070
     0
1000
MTEXTEND
  0
POINT
  5
6E84
330
6E69
100
AcDbEntity
  8
DEFPOINTS
  6
Continuous
 62
     0
100
AcDbPoint
 10
325.0845851566906
 20
175.5
 30
0.0
  0
POINT
  5
6E85
330
6E69
100
AcDbEntity
  8
DEFPOINTS
  6
Continuous
 62
     0
100
AcDbPoint
 10
317.0845851566906
 20
175.5
 30
0.0
  0
POINT
  5
6E86
330
6E69
100
AcDbEntity
  8
DEFPOINTS
  6
Continuous
 62
     0
100
AcDbPoint
 10
317.0845851566906
 20
197.5
 30
0.0
  0
ENDBLK
  5
6E74
330
6E69
100
AcDbEntity
  8
0
100
AcDbBlockEnd
  0
BLOCK
  5
6E92
330
6E88
100
AcDbEntity
  8
0
100
AcDbBlockBegin
  2
*D32
 70
     1
 10
0.0
 20
0.0
 30
0.0
  3
*D32
  1

  0
LINE
  5
6EDB
330
6E88
100
AcDbEntity
  8
30
  6
Continuous
 62
     0
100
AcDbLine
 10
218.0845851566906
 20
-1.0
 30
0.0
 11
218.0845851566906
 21
-209.5
 31
0.0
  0
LINE
  5
6EDC
330
6E88
100
AcDbEntity
  8
30
  6
Continuous
 62
     0
100
AcDbLine
 10
400.0845851566905
 20
-162.2311689432341
 30
0.0
 11
400.0845851566905
 21
-209.5
 31
0.0
  0
LINE
  5
6EDD
330
6E88
100
AcDbEntity
  8
30
  6
Continuous
 62
     0
100
AcDbLine
 10
220.0845851566906
 20
-209.0
 30
0.0
 11
398.0845851566905
 21
-209.0
 31
0.0
  0
INSERT
  5
6EDE
330
6E88
100
AcDbEntity
  8
30
  6
Continuous
 62
     0
100
AcDbBlockReference
  2
_OPEN
 10
218.0845851566906
 20
-209.0
 30
0.0
 41
2.0
 42
2.0
 43
2.0
 50
180.0
  0
INSERT
  5
6EDF
330
6E88
100
AcDbEntity
  8
30
  6
Continuous
 62
     0
100
AcDbBlockReference
  2
_OPEN
 10
400.0845851566905
 20
-209.0
 30
0.0
 41
2.0
 42
2.0
 43
2.0
  0
MTEXT
  5
6EE0
330
6E88
100
AcDbEntity
  8
30
  6
Continuous
 62
     0
100
AcDbMText
 10
309.0845851566906
 20
-205.5
 30
0.0
 40
5.0
 41
0.0
 71
     5
 72
     1
  1
\A1;182
 73
     1
 44
1.0
1001
ACAD
1000
MTEXTBEGIN
1070
    73
1070
     1
1070
    44
1040
1.0
1070
    74
1070
     0
1000
MTEXTEND
1000
MTEXTBEGIN
1070
    73
1070
     1
1070
    44
1040
1.0
1070
    74
1070
     0
1000
MTEXTEND
  0
POINT
  5
6EE1
330
6E88
100
AcDbEntity
  8
DEFPOINTS
  6
Continuous
 62
     0
100
AcDbPoint
 10
218.0845851566906
 20
0.0
 30
0.0
  0
POINT
  5
6EE2
330
6E88
100
AcDbEntity
  8
DEFPOINTS
  6
Continuous
 62
     0
100
AcDbPoint
 10
400.0845851566905
 20
-161.2311689432341
 30
0.0
  0
POINT
  5
6EE3
330
6E88
100
AcDbEntity
  8
DEFPOINTS
  6
Continuous
 62
     0
100
AcDbPoint
 10
400.0845851566905
 20
-209.0
 30
0.0
  0
ENDBLK
  5
6E93
330
6E88
100
AcDbEntity
  8
0
100
AcDbBlockEnd
  0
BLOCK
  5
6F6B
330
6F61
100
AcDbEntity
  8
0
100
AcDbBlockBegin
  2
*D33
 70
     1
 10
0.0
 20
0.0
 30
0.0
  3
*D33
  1

  0
LINE
  5
6F62
330
6F61
100
AcDbEntity
  8
30
  6
Continuous
 62
     0
100
AcDbLine
 10
127.4999999999997
 20
174.5
 30
0.0
 11
155.4999999999999
 21
174.5
 31
0.0
  0
LINE
  5
6F63
330
6F61
100
AcDbEntity
  8
30
  6
Continuous
 62
     0
100
AcDbLine
 10
116.0
 20
130.0
 30
0.0
 11
155.4999999999999
 21
130.0
 31
0.0
  0
LINE
  5
6F64
330
6F61
100
AcDbEntity
  8
30
  6
Continuous
 62
     0
100
AcDbLine
 10
155.0
 20
172.5
 30
0.0
 11
155.0
 21
132.0
 31
0.0
  0
INSERT
  5
6F65
330
6F61
100
AcDbEntity
  8
30
  6
Continuous
 62
     0
100
AcDbBlockReference
  2
_OPEN
 10
155.0
 20
174.5
 30
0.0
 41
2.0
 42
2.0
 43
2.0
 50
90.0
  0
INSERT
  5
6F66
330
6F61
100
AcDbEntity
  8
30
  6
Continuous
 62
     0
100
AcDbBlockReference
  2
_OPEN
 10
155.0
 20
130.0
 30
0.0
 41
2.0
 42
2.0
 43
2.0
 50
270.0
  0
MTEXT
  5
6F67
330
6F61
100
AcDbEntity
  8
30
  6
Continuous
 62
     0
100
AcDbMText
 10
151.4999999999999
 20
152.2499999999999
 30
0.0
 40
5.0
 41
0.0
 71
     5
 72
     1
  1
\A1;44.5
 11
0.0000000000000001
 21
1.0
 31
0.0
 73
     1
 44
1.0
1001
ACAD
1000
MTEXTBEGIN
1070
    73
1070
     1
1070
    44
1040
1.0
1070
    74
1070
     0
1000
MTEXTEND
  0
POINT
  5
6F68
330
6F61
100
AcDbEntity
  8
DEFPOINTS
  6
Continuous
 62
     0
100
AcDbPoint
 10
126.4999999999997
 20
174.5
 30
0.0
  0
POINT
  5
6F69
330
6F61
100
AcDbEntity
  8
DEFPOINTS
  6
Continuous
 62
     0
100
AcDbPoint
 10
115.0
 20
130.0
 30
0.0
  0
POINT
  5
6F6A
330
6F61
100
AcDbEntity
  8
DEFPOINTS
  6
Continuous
 62
     0
100
AcDbPoint
 10
155.0
 20
130.0
 30
0.0
  0
ENDBLK
  5
6F6C
330
6F61
100
AcDbEntity
  8
0
100
AcDbBlockEnd
  0
BLOCK
  5
6F78
330
6F6E
100
AcDbEntity
  8
0
100
AcDbBlockBegin
  2
*D34
 70
     1
 10
0.0
 20
0.0
 30
0.0
  3
*D34
  1

  0
LINE
  5
6F6F
330
6F6E
100
AcDbEntity
  8
30
  6
Continuous
 62
     0
100
AcDbLine
 10
-81.5
 20
-175.5
 30
0.0
 11
-81.5
 21
-230.5
 31
0.0
  0
LINE
  5
6F70
330
6F6E
100
AcDbEntity
  8
30
  6
Continuous
 62
     0
100
AcDbLine
 10
-0.0000000000000001
 20
-131.0
 30
0.0
 11
-0.0000000000000062
 21
-230.5
 31
0.0
  0
LINE
  5
6F71
330
6F6E
100
AcDbEntity
  8
30
  6
Continuous
 62
     0
100
AcDbLine
 10
-79.5
 20
-230.0
 30
0.0
 11
-2.000000000000005
 21
-230.0
 31
0.0
  0
INSERT
  5
6F72
330
6F6E
100
AcDbEntity
  8
30
  6
Continuous
 62
     0
100
AcDbBlockReference
  2
_OPEN
 10
-81.5
 20
-230.0
 30
0.0
 41
2.0
 42
2.0
 43
2.0
 50
180.0
  0
INSERT
  5
6F73
330
6F6E
100
AcDbEntity
  8
30
  6
Continuous
 62
     0
100
AcDbBlockReference
  2
_OPEN
 10
-0.0000000000000061
 20
-230.0
 30
0.0
 41
2.0
 42
2.0
 43
2.0
  0
MTEXT
  5
6F74
330
6F6E
100
AcDbEntity
  8
30
  6
Continuous
 62
     0
100
AcDbMText
 10
-40.75
 20
-226.5
 30
0.0
 40
5.0
 41
0.0
 71
     5
 72
     1
  1
\A1;81.5
 73
     1
 44
1.0
1001
ACAD
1000
MTEXTBEGIN
1070
    73
1070
     1
1070
    44
1040
1.0
1070
    74
1070
     0
1000
MTEXTEND
  0
POINT
  5
6F75
330
6F6E
100
AcDbEntity
  8
DEFPOINTS
  6
Continuous
 62
     0
100
AcDbPoint
 10
-81.5
 20
-174.5
 30
0.0
  0
POINT
  5
6F76
330
6F6E
100
AcDbEntity
  8
DEFPOINTS
  6
Continuous
 62
     0
100
AcDbPoint
 10
0.0
 20
-130.0
 30
0.0
  0
POINT
  5
6F77
330
6F6E
100
AcDbEntity
  8
DEFPOINTS
  6
Continuous
 62
     0
100
AcDbPoint
 10
-0.0000000000000061
 20
-230.0
 30
0.0
  0
ENDBLK
  5
6F79
330
6F6E
100
AcDbEntity
  8
0
100
AcDbBlockEnd
  0
BLOCK
  5
6F85
330
6F7B
100
AcDbEntity
  8
0
100
AcDbBlockBegin
  2
*D35
 70
     1
 10
0.0
 20
0.0
 30
0.0
  3
*D35
  1

  0
LINE
  5
6F7C
330
6F7B
100
AcDbEntity
  8
30
  6
Continuous
 62
     0
100
AcDbLine
 10
-0.0000000000000049
 20
-210.5004882811999
 30
0.0
 11
-0.0000000000000062
 21
-230.5
 31
0.0
  0
LINE
  5
6F7D
330
6F7B
100
AcDbEntity
  8
30
  6
Continuous
 62
     0
100
AcDbLine
 10
126.4999999999997
 20
-175.5
 30
0.0
 11
126.4999999999997
 21
-230.5
 31
0.0
  0
LINE
  5
6F7E
330
6F7B
100
AcDbEntity
  8
30
  6
Continuous
 62
     0
100
AcDbLine
 10
1.999999999999993
 20
-230.0
 30
0.0
 11
124.4999999999996
 21
-230.0
 31
0.0
  0
INSERT
  5
6F7F
330
6F7B
100
AcDbEntity
  8
30
  6
Continuous
 62
     0
100
AcDbBlockReference
  2
_OPEN
 10
-0.0000000000000061
 20
-230.0
 30
0.0
 41
2.0
 42
2.0
 43
2.0
 50
180.0
  0
INSERT
  5
6F80
330
6F7B
100
AcDbEntity
  8
30
  6
Continuous
 62
     0
100
AcDbBlockReference
  2
_OPEN
 10
126.4999999999997
 20
-230.0
 30
0.0
 41
2.0
 42
2.0
 43
2.0
  0
MTEXT
  5
6F81
330
6F7B
100
AcDbEntity
  8
30
  6
Continuous
 62
     0
100
AcDbMText
 10
63.24999999999989
 20
-226.5
 30
0.0
 40
5.0
 41
0.0
 71
     5
 72
     1
  1
\A1;126.5
 73
     1
 44
1.0
1001
ACAD
1000
MTEXTBEGIN
1070
    73
1070
     1
1070
    44
1040
1.0
1070
    74
1070
     0
1000
MTEXTEND
  0
POINT
  5
6F82
330
6F7B
100
AcDbEntity
  8
DEFPOINTS
  6
Continuous
 62
     0
100
AcDbPoint
 10
-0.0000000000000049
 20
-209.5004882811999
 30
0.0
  0
POINT
  5
6F83
330
6F7B
100
AcDbEntity
  8
DEFPOINTS
  6
Continuous
 62
     0
100
AcDbPoint
 10
126.4999999999997
 20
-174.5
 30
0.0
  0
POINT
  5
6F84
330
6F7B
100
AcDbEntity
  8
DEFPOINTS
  6
Continuous
 62
     0
100
AcDbPoint
 10
126.4999999999997
 20
-230.0
 30
0.0
  0
ENDBLK
  5
6F86
330
6F7B
100
AcDbEntity
  8
0
100
AcDbBlockEnd
  0
ENDSEC
  0
SECTION
  2
ENTITIES
  0
LINE
  5
B4
330
1E
100
AcDbEntity
  8
16
100
AcDbLine
 10
0.0
 20
-103.0468365449968
 30
0.0
 11
0.0
 21
127.0131747161824
 31
0.0
  0
LINE
  5
B5
330
1E
100
AcDbEntity
  8
16
100
AcDbLine
 10
117.6361914121164
 20
0.0000000000000107
 30
0.0
 11
-84.91303328305713
 21
0.0
 31
0.0
  0
MTEXT
  5
BF3
330
1E
100
AcDbEntity
  8
24
  6
Continuous
100
AcDbMText
 10
142.1181906098743
 20
177.5
 30
0.0
 40
3.0
 41
0.0
 71
     1
 72
     1
  1
\A1;
 73
     1
 44
1.0
1001
ACAD
1000
MTEXTBEGIN
1070
    73
1070
     1
1070
    44
1040
1.0
1070
    74
1070
     0
1000
MTEXTEND
1000
MTEXTBEGIN
1070
    73
1070
     1
1070
    44
1040
1.0
1070
    74
1070
     0
1000
MTEXTEND
  0
LINE
  5
1C9A
330
1E
100
AcDbEntity
  8
16
100
AcDbLine
 10
0.0
 20
270.0
 30
0.0
 11
0.0
 21
443.4100391630391
 31
0.0
  0
LINE
  5
1C9B
330
1E
100
AcDbEntity
  8
16
100
AcDbLine
 10
418.0
 20
0.0
 30
0.0
 11
211.3937097878773
 21
0.0
 31
0.0
  0
LINE
  5
2233
330
1E
100
AcDbEntity
  8
16
100
AcDbLine
 10
295.0
 20
-523.6562038539962
 30
0.0
 11
295.0
 21
-271.75
 31
0.0
  0
LINE
  5
2234
330
1E
100
AcDbEntity
  8
16
100
AcDbLine
 10
427.1634296945397
 20
-400.0
 30
0.0
 11
193.1043600603313
 21
-400.0
 31
0.0
  0
LINE
  5
2260
330
1E
100
AcDbEntity
  8
16
100
AcDbLine
 10
132.1634296945399
 20
-400.0
 30
0.0
 11
-101.8956399396685
 21
-400.0
 31
0.0
  0
LINE
  5
2261
330
1E
100
AcDbEntity
  8
16
100
AcDbLine
 10
0.0
 20
-540.1562038539962
 30
0.0
 11
0.0
 21
-259.0
 31
0.0
  0
LINE
  5
60D4
330
1E
100
AcDbEntity
  8
10
  6
Continuous
100
AcDbLine
 10
-18.0
 20
-30.99999999999998
 30
0.0
 11
-18.0
 21
31.00000000000001
 31
0.0
  0
LINE
  5
60D5
330
1E
100
AcDbEntity
  8
10
  6
Continuous
100
AcDbLine
 10
18.0
 20
-30.99999999999998
 30
0.0
 11
18.00000000000005
 21
31.00000000000001
 31
0.0
  0
LINE
  5
60D8
330
1E
100
AcDbEntity
  8
10
  6
Continuous
100
AcDbLine
 10
-25.49999999999977
 20
-44.99999999999999
 30
0.0
 11
-25.49999999999988
 21
45.0
 31
0.0
  0
LINE
  5
60D9
330
1E
100
AcDbEntity
  8
10
  6
Continuous
100
AcDbLine
 10
25.49999999999982
 20
-44.99999999999999
 30
0.0
 11
25.49999999999988
 21
45.0
 31
0.0
  0
LINE
  5
60DA
330
1E
100
AcDbEntity
  8
10
  6
Continuous
100
AcDbLine
 10
-70.0
 20
130.0
 30
0.0
 11
-70.0
 21
-130.0
 31
0.0
  0
LINE
  5
60DB
330
1E
100
AcDbEntity
  8
10
  6
Continuous
100
AcDbLine
 10
-58.0
 20
40.0
 30
0.0
 11
-58.0
 21
-39.99999999999998
 31
0.0
  0
LINE
  5
60DC
330
1E
100
AcDbEntity
  8
10
  6
Continuous
100
AcDbLine
 10
115.0
 20
130.0
 30
0.0
 11
115.0
 21
-130.0
 31
0.0
  0
LINE
  5
60DD
330
1E
100
AcDbEntity
  8
10
  6
Continuous
100
AcDbLine
 10
58.0
 20
40.0
 30
0.0
 11
58.0
 21
-39.99999999999998
 31
0.0
  0
LINE
  5
60DE
330
1E
100
AcDbEntity
  8
12
  6
DASHED
100
AcDbLine
 10
-14.5
 20
-106.9999999999997
 30
0.0
 11
-30.5
 21
-106.9999999999997
 31
0.0
  0
CIRCLE
  5
60DF
330
1E
100
AcDbEntity
  8
12
  6
DASHED
100
AcDbCircle
 10
-22.5
 20
-106.9999999999997
 30
0.0
 40
4.0
  0
LINE
  5
60E0
330
1E
100
AcDbEntity
  8
10
  6
Continuous
100
AcDbLine
 10
-70.0
 20
-130.0
 30
0.0
 11
115.0
 21
-130.0
 31
0.0
  0
LINE
  5
60E1
330
1E
100
AcDbEntity
  8
10
  6
Continuous
100
AcDbLine
 10
-70.0
 20
-50.99999999999997
 30
0.0
 11
115.0
 21
-50.99999999999997
 31
0.0
  0
LINE
  5
60E2
330
1E
100
AcDbEntity
  8
10
  6
Continuous
100
AcDbLine
 10
-53.0
 20
-44.99999999999999
 30
0.0
 11
53.0
 21
-44.99999999999999
 31
0.0
  0
LINE
  5
60E3
330
1E
100
AcDbEntity
  8
10
  6
Continuous
100
AcDbLine
 10
-81.5
 20
-152.0
 30
0.0
 11
-59.0
 21
-130.0
 31
0.0
  0
LINE
  5
60E4
330
1E
100
AcDbEntity
  8
10
  6
Continuous
100
AcDbLine
 10
-31.0
 20
-130.0
 30
0.0
 11
-53.5
 21
-156.0
 31
0.0
  0
LINE
  5
60E5
330
1E
100
AcDbEntity
  8
10
  6
Continuous
 62
     2
100
AcDbLine
 10
-78.5
 20
-160.0
 30
0.0
 11
-56.5
 21
-160.0
 31
0.0
  0
LINE
  5
60E6
330
1E
100
AcDbEntity
  8
10
  6
Continuous
100
AcDbLine
 10
-81.5
 20
-174.5
 30
0.0
 11
-53.5
 21
-174.5
 31
0.0
  0
LINE
  5
60E7
330
1E
100
AcDbEntity
  8
10
  6
Continuous
 62
     2
100
AcDbLine
 10
-67.5
 20
-149.0
 30
0.0
 11
-67.5
 21
-171.0
 31
0.0
  0
LINE
  5
60E8
330
1E
100
AcDbEntity
  8
10
  6
Continuous
100
AcDbLine
 10
-81.5
 20
-174.5
 30
0.0
 11
-81.5
 21
-152.0
 31
0.0
  0
CIRCLE
  5
60E9
330
1E
100
AcDbEntity
  8
10
  6
Continuous
 62
     2
100
AcDbCircle
 10
67.5
 20
-160.0
 30
0.0
 40
7.0
210
0.0
220
0.0
230
-1.0
  0
LINE
  5
60EA
330
1E
100
AcDbEntity
  8
10
  6
Continuous
100
AcDbLine
 10
-53.5
 20
-174.5
 30
0.0
 11
-53.5
 21
-156.0
 31
0.0
  0
LINE
  5
60EB
330
1E
100
AcDbEntity
  8
10
  6
Continuous
100
AcDbLine
 10
-50.5
 20
-113.9999999999999
 30
0.0
 11
-50.5
 21
-130.0
 31
0.0
  0
LINE
  5
60EC
330
1E
100
AcDbEntity
  8
10
  6
Continuous
100
AcDbLine
 10
-39.5
 20
-113.9999999999999
 30
0.0
 11
-39.5
 21
-130.0
 31
0.0
  0
LINE
  5
60ED
330
1E
100
AcDbEntity
  8
24
  6
CONTINOUS
100
AcDbLine
 10
-45.0
 20
-122.9999999999999
 30
0.0
 11
-45.0
 21
-104.9999999999997
 31
0.0
  0
LINE
  5
60EE
330
1E
100
AcDbEntity
  8
24
  6
CONTINOUS
100
AcDbLine
 10
-53.99999999999995
 20
-113.9999999999999
 30
0.0
 11
-36.0
 21
-113.9999999999999
 31
0.0
  0
ARC
  5
60EF
330
1E
100
AcDbEntity
  8
10
  6
Continuous
100
AcDbCircle
 10
45.0
 20
-113.9999999999999
 30
0.0
 40
8.0
210
0.0
220
0.0
230
-1.0
100
AcDbArc
 50
226.5674634422111
 51
313.4325365577887
  0
ARC
  5
60F0
330
1E
100
AcDbEntity
  8
10
  6
Continuous
100
AcDbCircle
 10
45.0
 20
-113.9999999999999
 30
0.0
 40
5.5
210
0.0
220
0.0
230
-1.0
100
AcDbArc
 50
0.0
 51
180.0
  0
LINE
  5
60F1
330
1E
100
AcDbEntity
  8
24
  6
CONTINOUS
100
AcDbLine
 10
-41.0
 20
-111.6905989232414
 30
0.0
 11
-41.0
 21
-116.3094010767587
 31
0.0
  0
LINE
  5
60F2
330
1E
100
AcDbEntity
  8
24
  6
CONTINOUS
100
AcDbLine
 10
-45.0
 20
-109.3811978464831
 30
0.0
 11
-41.0
 21
-111.6905989232414
 31
0.0
  0
LINE
  5
60F3
330
1E
100
AcDbEntity
  8
24
  6
CONTINOUS
100
AcDbLine
 10
-49.0
 20
-111.6905989232414
 30
0.0
 11
-45.0
 21
-109.3811978464831
 31
0.0
  0
LINE
  5
60F4
330
1E
100
AcDbEntity
  8
24
  6
CONTINOUS
100
AcDbLine
 10
-49.0
 20
-116.3094010767587
 30
0.0
 11
-49.0
 21
-111.6905989232414
 31
0.0
  0
LINE
  5
60F5
330
1E
100
AcDbEntity
  8
24
  6
CONTINOUS
100
AcDbLine
 10
-45.0
 20
-118.6188021535169
 30
0.0
 11
-49.0
 21
-116.3094010767587
 31
0.0
  0
LINE
  5
60F6
330
1E
100
AcDbEntity
  8
24
  6
CONTINOUS
100
AcDbLine
 10
-41.0
 20
-116.3094010767587
 30
0.0
 11
-45.0
 21
-118.6188021535169
 31
0.0
  0
ARC
  5
60F7
330
1E
100
AcDbEntity
  8
10
  6
Continuous
100
AcDbCircle
 10
-53.0
 20
-39.99999999999998
 30
0.0
 40
5.0
100
AcDbArc
 50
180.0
 51
270.0
  0
LINE
  5
60F8
330
1E
100
AcDbEntity
  8
10
  6
Continuous
 62
     2
100
AcDbLine
 10
101.4999999999997
 20
-160.0
 30
0.0
 11
123.4999999999996
 21
-160.0
 31
0.0
  0
CIRCLE
  5
60F9
330
1E
100
AcDbEntity
  8
10
  6
Continuous
 62
     2
100
AcDbCircle
 10
-112.4999999999998
 20
-160.0
 30
0.0
 40
7.0
210
0.0
220
0.0
230
-1.0
  0
LINE
  5
60FA
330
1E
100
AcDbEntity
  8
10
  6
Continuous
100
AcDbLine
 10
104.0
 20
-130.0
 30
0.0
 11
126.5
 21
-152.0
 31
0.0
  0
LINE
  5
60FB
330
1E
100
AcDbEntity
  8
10
  6
Continuous
100
AcDbLine
 10
98.49999999999987
 20
-174.5
 30
0.0
 11
126.4999999999997
 21
-174.5
 31
0.0
  0
LINE
  5
60FC
330
1E
100
AcDbEntity
  8
12
  6
DASHED
100
AcDbLine
 10
22.5
 20
-98.99999999999998
 30
0.0
 11
22.5
 21
-114.9999999999999
 31
0.0
  0
LINE
  5
60FD
330
1E
100
AcDbEntity
  8
12
  6
DASHED
100
AcDbLine
 10
-22.5
 20
-98.99999999999998
 30
0.0
 11
-22.5
 21
-114.9999999999999
 31
0.0
  0
LINE
  5
60FE
330
1E
100
AcDbEntity
  8
24
  6
CONTINOUS
100
AcDbLine
 10
41.0
 20
-111.6905989232414
 30
0.0
 11
45.0
 21
-109.3811978464831
 31
0.0
  0
LINE
  5
60FF
330
1E
100
AcDbEntity
  8
24
  6
CONTINOUS
100
AcDbLine
 10
45.0
 20
-118.6188021535169
 30
0.0
 11
41.0
 21
-116.3094010767587
 31
0.0
  0
LINE
  5
6100
330
1E
100
AcDbEntity
  8
24
  6
CONTINOUS
100
AcDbLine
 10
36.00000000000003
 20
-113.9999999999999
 30
0.0
 11
54.0
 21
-113.9999999999999
 31
0.0
  0
ARC
  5
6101
330
1E
100
AcDbEntity
  8
10
  6
Continuous
100
AcDbCircle
 10
-45.0
 20
-113.9999999999999
 30
0.0
 40
8.0
210
0.0
220
0.0
230
-1.0
100
AcDbArc
 50
226.5674634422111
 51
313.4325365577887
  0
ARC
  5
6102
330
1E
100
AcDbEntity
  8
10
  6
Continuous
100
AcDbCircle
 10
-45.0
 20
-113.9999999999999
 30
0.0
 40
5.5
210
0.0
220
0.0
230
-1.0
100
AcDbArc
 50
0.0
 51
180.0
  0
LINE
  5
6103
330
1E
100
AcDbEntity
  8
10
  6
Continuous
100
AcDbLine
 10
38.5
 20
-174.5
 30
0.0
 11
66.49999999999988
 21
-174.5
 31
0.0
  0
LINE
  5
6104
330
1E
100
AcDbEntity
  8
10
  6
Continuous
100
AcDbLine
 10
38.5
 20
-150.0000000000003
 30
0.0
 11
31.0
 21
-130.0
 31
0.0
  0
LINE
  5
6105
330
1E
100
AcDbEntity
  8
10
  6
Continuous
100
AcDbLine
 10
14.0
 20
-130.0
 30
0.0
 11
6.5
 21
-150.0000000000003
 31
0.0
  0
LINE
  5
6106
330
1E
100
AcDbEntity
  8
10
  6
Continuous
100
AcDbLine
 10
-21.49999999999999
 20
-150.0000000000003
 30
0.0
 11
-14.0
 21
-130.0
 31
0.0
  0
LINE
  5
6107
330
1E
100
AcDbEntity
  8
10
  6
Continuous
 62
     2
100
AcDbLine
 10
-7.5
 20
-149.0
 30
0.0
 11
-7.5
 21
-171.0
 31
0.0
  0
LINE
  5
6108
330
1E
100
AcDbEntity
  8
10
  6
Continuous
100
AcDbLine
 10
6.5
 20
-174.5
 30
0.0
 11
6.5
 21
-150.0000000000003
 31
0.0
  0
LINE
  5
6109
330
1E
100
AcDbEntity
  8
10
  6
Continuous
100
AcDbLine
 10
-21.49999999999999
 20
-174.5
 30
0.0
 11
-21.49999999999999
 21
-150.0000000000003
 31
0.0
  0
LINE
  5
610A
330
1E
100
AcDbEntity
  8
10
  6
Continuous
100
AcDbLine
 10
-21.49999999999999
 20
-174.5
 30
0.0
 11
6.5
 21
-174.5
 31
0.0
  0
LINE
  5
610B
330
1E
100
AcDbEntity
  8
10
  6
Continuous
 62
     2
100
AcDbLine
 10
-18.5
 20
-160.0
 30
0.0
 11
3.5
 21
-160.0
 31
0.0
  0
CIRCLE
  5
610C
330
1E
100
AcDbEntity
  8
10
  6
Continuous
 62
     2
100
AcDbCircle
 10
7.5
 20
-160.0
 30
0.0
 40
7.0
210
0.0
220
0.0
230
-1.0
  0
LINE
  5
610D
330
1E
100
AcDbEntity
  8
10
  6
Continuous
100
AcDbLine
 10
38.5
 20
-174.5
 30
0.0
 11
38.5
 21
-150.0000000000003
 31
0.0
  0
LINE
  5
610E
330
1E
100
AcDbEntity
  8
24
  6
CONTINOUS
100
AcDbLine
 10
-8.999999999999943
 20
-113.9999999999999
 30
0.0
 11
9.0
 21
-113.9999999999999
 31
0.0
  0
LINE
  5
610F
330
1E
100
AcDbEntity
  8
10
  6
Continuous
100
AcDbLine
 10
-5.5
 20
-113.9999999999999
 30
0.0
 11
-5.5
 21
-130.0
 31
0.0
  0
LINE
  5
6110
330
1E
100
AcDbEntity
  8
10
  6
Continuous
100
AcDbLine
 10
5.5
 20
-113.9999999999999
 30
0.0
 11
5.5
 21
-130.0
 31
0.0
  0
LINE
  5
6111
330
1E
100
AcDbEntity
  8
24
  6
CONTINOUS
100
AcDbLine
 10
0.0
 20
-122.9999999999999
 30
0.0
 11
0.0
 21
-104.9999999999997
 31
0.0
  0
LINE
  5
6112
330
1E
100
AcDbEntity
  8
24
  6
CONTINOUS
100
AcDbLine
 10
4.0
 20
-111.6905989232414
 30
0.0
 11
4.0
 21
-116.3094010767587
 31
0.0
  0
LINE
  5
6113
330
1E
100
AcDbEntity
  8
24
  6
CONTINOUS
100
AcDbLine
 10
0.0
 20
-109.3811978464831
 30
0.0
 11
4.0
 21
-111.6905989232414
 31
0.0
  0
LINE
  5
6114
330
1E
100
AcDbEntity
  8
24
  6
CONTINOUS
100
AcDbLine
 10
-4.0
 20
-111.6905989232414
 30
0.0
 11
0.0
 21
-109.3811978464831
 31
0.0
  0
LINE
  5
6115
330
1E
100
AcDbEntity
  8
24
  6
CONTINOUS
100
AcDbLine
 10
-4.0
 20
-116.3094010767587
 30
0.0
 11
-4.0
 21
-111.6905989232414
 31
0.0
  0
LINE
  5
6116
330
1E
100
AcDbEntity
  8
24
  6
CONTINOUS
100
AcDbLine
 10
0.0
 20
-118.6188021535169
 30
0.0
 11
-4.0
 21
-116.3094010767587
 31
0.0
  0
LINE
  5
6117
330
1E
100
AcDbEntity
  8
24
  6
CONTINOUS
100
AcDbLine
 10
4.0
 20
-116.3094010767587
 30
0.0
 11
0.0
 21
-118.6188021535169
 31
0.0
  0
ARC
  5
6118
330
1E
100
AcDbEntity
  8
10
  6
Continuous
100
AcDbCircle
 10
0.0
 20
-113.9999999999999
 30
0.0
 40
8.0
210
0.0
220
0.0
230
-1.0
100
AcDbArc
 50
226.5674634422111
 51
313.4325365577887
  0
ARC
  5
6119
330
1E
100
AcDbEntity
  8
10
  6
Continuous
100
AcDbCircle
 10
0.0
 20
-113.9999999999999
 30
0.0
 40
5.5
210
0.0
220
0.0
230
-1.0
100
AcDbArc
 50
0.0
 51
180.0
  0
LINE
  5
611A
330
1E
100
AcDbEntity
  8
10
  6
Continuous
100
AcDbLine
 10
39.5
 20
-113.9999999999999
 30
0.0
 11
39.5
 21
-130.0
 31
0.0
  0
LINE
  5
611B
330
1E
100
AcDbEntity
  8
12
  6
DASHED
100
AcDbLine
 10
30.5
 20
-106.9999999999997
 30
0.0
 11
14.5
 21
-106.9999999999997
 31
0.0
  0
CIRCLE
  5
611C
330
1E
100
AcDbEntity
  8
12
  6
DASHED
100
AcDbCircle
 10
22.5
 20
-106.9999999999997
 30
0.0
 40
4.0
  0
LINE
  5
611D
330
1E
100
AcDbEntity
  8
24
  6
CONTINOUS
100
AcDbLine
 10
41.0
 20
-116.3094010767587
 30
0.0
 11
41.0
 21
-111.6905989232414
 31
0.0
  0
LINE
  5
611E
330
1E
100
AcDbEntity
  8
10
  6
Continuous
100
AcDbLine
 10
59.0
 20
-130.0
 30
0.0
 11
66.5
 21
-150.0000000000003
 31
0.0
  0
LINE
  5
611F
330
1E
100
AcDbEntity
  8
10
  6
Continuous
100
AcDbLine
 10
98.50000000000001
 20
-156.0
 30
0.0
 11
76.0
 21
-130.0
 31
0.0
  0
LINE
  5
6120
330
1E
100
AcDbEntity
  8
10
  6
Continuous
 62
     2
100
AcDbLine
 10
52.49999999999989
 20
-149.0
 30
0.0
 11
52.49999999999989
 21
-171.0
 31
0.0
  0
LINE
  5
6121
330
1E
100
AcDbEntity
  8
10
  6
Continuous
100
AcDbLine
 10
66.49999999999988
 20
-174.5
 30
0.0
 11
66.5
 21
-150.0000000000003
 31
0.0
  0
LINE
  5
6122
330
1E
100
AcDbEntity
  8
10
  6
Continuous
 62
     2
100
AcDbLine
 10
41.5
 20
-160.0
 30
0.0
 11
63.49999999999988
 21
-160.0
 31
0.0
  0
CIRCLE
  5
6123
330
1E
100
AcDbEntity
  8
10
  6
Continuous
 62
     2
100
AcDbCircle
 10
-52.49999999999989
 20
-160.0
 30
0.0
 40
7.0
210
0.0
220
0.0
230
-1.0
  0
LINE
  5
6124
330
1E
100
AcDbEntity
  8
10
  6
Continuous
100
AcDbLine
 10
98.49999999999987
 20
-174.5
 30
0.0
 11
98.50000000000001
 21
-156.0
 31
0.0
  0
LINE
  5
6125
330
1E
100
AcDbEntity
  8
10
  6
Continuous
100
AcDbLine
 10
50.5
 20
-113.9999999999999
 30
0.0
 11
50.5
 21
-130.0
 31
0.0
  0
LINE
  5
6126
330
1E
100
AcDbEntity
  8
24
  6
CONTINOUS
100
AcDbLine
 10
45.0
 20
-122.9999999999999
 30
0.0
 11
45.0
 21
-104.9999999999997
 31
0.0
  0
LINE
  5
6127
330
1E
100
AcDbEntity
  8
24
  6
CONTINOUS
100
AcDbLine
 10
49.0
 20
-111.6905989232414
 30
0.0
 11
49.0
 21
-116.3094010767587
 31
0.0
  0
LINE
  5
6128
330
1E
100
AcDbEntity
  8
24
  6
CONTINOUS
100
AcDbLine
 10
45.0
 20
-109.3811978464831
 30
0.0
 11
49.0
 21
-111.6905989232414
 31
0.0
  0
LINE
  5
6129
330
1E
100
AcDbEntity
  8
24
  6
CONTINOUS
100
AcDbLine
 10
49.0
 20
-116.3094010767587
 30
0.0
 11
45.0
 21
-118.6188021535169
 31
0.0
  0
LINE
  5
612A
330
1E
100
AcDbEntity
  8
10
  6
Continuous
100
AcDbLine
 10
84.50000000000001
 20
-113.9999999999999
 30
0.0
 11
84.50000000000001
 21
-130.0
 31
0.0
  0
LINE
  5
612B
330
1E
100
AcDbEntity
  8
10
  6
Continuous
100
AcDbLine
 10
95.5
 20
-113.9999999999999
 30
0.0
 11
95.5
 21
-130.0
 31
0.0
  0
LINE
  5
612C
330
1E
100
AcDbEntity
  8
24
  6
CONTINOUS
100
AcDbLine
 10
90.0
 20
-122.9999999999999
 30
0.0
 11
90.0
 21
-104.9999999999997
 31
0.0
  0
LINE
  5
612D
330
1E
100
AcDbEntity
  8
24
  6
CONTINOUS
100
AcDbLine
 10
90.0
 20
-109.3811978464831
 30
0.0
 11
94.0
 21
-111.6905989232414
 31
0.0
  0
LINE
  5
612E
330
1E
100
AcDbEntity
  8
24
  6
CONTINOUS
100
AcDbLine
 10
94.0
 20
-116.3094010767587
 30
0.0
 11
90.0
 21
-118.6188021535169
 31
0.0
  0
LINE
  5
612F
330
1E
100
AcDbEntity
  8
24
  6
CONTINOUS
100
AcDbLine
 10
81.00000000000013
 20
-113.9999999999999
 30
0.0
 11
99.0
 21
-113.9999999999999
 31
0.0
  0
ARC
  5
6130
330
1E
100
AcDbEntity
  8
10
  6
Continuous
100
AcDbCircle
 10
-90.0
 20
-113.9999999999999
 30
0.0
 40
8.0
210
0.0
220
0.0
230
-1.0
100
AcDbArc
 50
226.5674634422111
 51
313.4325365577887
  0
ARC
  5
6131
330
1E
100
AcDbEntity
  8
10
  6
Continuous
100
AcDbCircle
 10
-90.0
 20
-113.9999999999999
 30
0.0
 40
5.5
210
0.0
220
0.0
230
-1.0
100
AcDbArc
 50
0.0
 51
180.0
  0
LINE
  5
6132
330
1E
100
AcDbEntity
  8
24
  6
CONTINOUS
100
AcDbLine
 10
86.0
 20
-111.6905989232414
 30
0.0
 11
90.0
 21
-109.3811978464831
 31
0.0
  0
LINE
  5
6133
330
1E
100
AcDbEntity
  8
24
  6
CONTINOUS
100
AcDbLine
 10
86.0
 20
-116.3094010767587
 30
0.0
 11
86.0
 21
-111.6905989232414
 31
0.0
  0
LINE
  5
6134
330
1E
100
AcDbEntity
  8
24
  6
CONTINOUS
100
AcDbLine
 10
90.0
 20
-118.6188021535169
 30
0.0
 11
86.0
 21
-116.3094010767587
 31
0.0
  0
LINE
  5
6135
330
1E
100
AcDbEntity
  8
24
  6
CONTINOUS
100
AcDbLine
 10
94.0
 20
-111.6905989232414
 30
0.0
 11
94.0
 21
-116.3094010767587
 31
0.0
  0
LINE
  5
613A
330
1E
100
AcDbEntity
  8
10
  6
Continuous
100
AcDbLine
 10
18.0
 20
-30.99999999999998
 30
0.0
 11
-18.0
 21
-30.99999999999998
 31
0.0
  0
LINE
  5
613B
330
1E
100
AcDbEntity
  8
10
  6
Continuous
100
AcDbLine
 10
24.30000000000005
 20
-33.84999999999989
 30
0.0
 11
24.30000000000005
 21
-40.4499999999999
 31
0.0
  0
LINE
  5
613C
330
1E
100
AcDbEntity
  8
10
  6
Continuous
100
AcDbLine
 10
19.0
 20
-40.4499999999999
 30
0.0
 11
24.29999999999994
 21
-40.4499999999999
 31
0.0
  0
LINE
  5
613D
330
1E
100
AcDbEntity
  8
10
  6
Continuous
100
AcDbLine
 10
19.0
 20
-33.84999999999989
 30
0.0
 11
24.29999999999994
 21
-33.84999999999989
 31
0.0
  0
LINE
  5
613E
330
1E
100
AcDbEntity
  8
10
  6
Continuous
100
AcDbLine
 10
19.0
 20
-33.84999999999989
 30
0.0
 11
19.0
 21
-40.4499999999999
 31
0.0
  0
ARC
  5
6141
330
1E
100
AcDbEntity
  8
10
  6
Continuous
100
AcDbCircle
 10
53.0
 20
-39.99999999999998
 30
0.0
 40
5.0
100
AcDbArc
 50
270.0
 51
0.0
  0
LINE
  5
6144
330
1E
100
AcDbEntity
  8
10
  6
Continuous
 62
     2
100
AcDbLine
 10
112.4999999999998
 20
-149.0
 30
0.0
 11
112.4999999999998
 21
-171.0
 31
0.0
  0
LINE
  5
6145
330
1E
100
AcDbEntity
  8
10
  6
Continuous
100
AcDbLine
 10
126.4999999999997
 20
-174.5
 30
0.0
 11
126.5
 21
-152.0
 31
0.0
  0
LINE
  5
614A
330
1E
100
AcDbEntity
  8
10
  6
Continuous
100
AcDbLine
 10
-70.0
 20
50.99999999999899
 30
0.0
 11
115.0
 21
50.99999999999899
 31
0.0
  0
LINE
  5
614B
330
1E
100
AcDbEntity
  8
10
  6
Continuous
100
AcDbLine
 10
-53.0
 20
45.0
 30
0.0
 11
53.0
 21
45.0
 31
0.0
  0
LINE
  5
614C
330
1E
100
AcDbEntity
  8
10
  6
Continuous
100
AcDbLine
 10
115.0
 20
130.0
 30
0.0
 11
-70.0
 21
130.0
 31
0.0
  0
ARC
  5
614E
330
1E
100
AcDbEntity
  8
10
  6
Continuous
100
AcDbCircle
 10
-53.0
 20
40.0
 30
0.0
 40
5.0
100
AcDbArc
 50
90.0
 51
180.0
  0
CIRCLE
  5
6160
330
1E
100
AcDbEntity
  8
10
  6
Continuous
100
AcDbCircle
 10
90.0
 20
86.75000000000002
 30
0.0
 40
8.0
  0
LINE
  5
6161
330
1E
100
AcDbEntity
  8
10
  6
Continuous
100
AcDbLine
 10
92.44234283555442
 20
82.38904197665569
 30
0.0
 11
93.49999999999999
 21
83.44669914110125
 31
0.0
  0
LINE
  5
6162
330
1E
100
AcDbEntity
  8
10
  6
Continuous
100
AcDbLine
 10
86.5
 20
81.75000000000002
 30
0.0
 11
87.5
 21
82.75000000000002
 31
0.0
  0
LINE
  5
6163
330
1E
100
AcDbEntity
  8
10
  6
Continuous
100
AcDbLine
 10
92.73350445133713
 20
81.97309681125195
 30
0.0
 11
93.49999999999999
 21
82.73959235991481
 31
0.0
  0
LINE
  5
6164
330
1E
100
AcDbEntity
  8
10
  6
Continuous
100
AcDbLine
 10
93.49999999999999
 20
81.75000000000002
 30
0.0
 11
93.49999999999999
 21
91.75000000000002
 31
0.0
  0
LINE
  5
6165
330
1E
100
AcDbEntity
  8
10
  6
Continuous
100
AcDbLine
 10
86.5
 20
81.75000000000002
 30
0.0
 11
86.5
 21
91.75000000000002
 31
0.0
  0
LINE
  5
6166
330
1E
100
AcDbEntity
  8
10
  6
Continuous
100
AcDbLine
 10
92.58792364344571
 20
82.18106939395376
 30
0.0
 11
93.49999999999999
 21
83.09314575050803
 31
0.0
  0
LINE
  5
6167
330
1E
100
AcDbEntity
  8
10
  6
Continuous
100
AcDbLine
 10
87.5
 20
89.44953174173328
 30
0.0
 11
92.88967221921335
 21
81.75000000000002
 31
0.0
  0
LINE
  5
6168
330
1E
100
AcDbEntity
  8
10
  6
Continuous
100
AcDbLine
 10
86.5
 20
82.10355339059313
 30
0.0
 11
87.5
 21
83.10355339059311
 31
0.0
  0
LINE
  5
6169
330
1E
100
AcDbEntity
  8
10
  6
Continuous
100
AcDbLine
 10
87.5
 20
89.44953174173328
 30
0.0
 11
87.5
 21
81.75000000000002
 31
0.0
  0
LINE
  5
616C
330
1E
100
AcDbEntity
  8
10
  6
Continuous
100
AcDbLine
 10
-17.0
 20
17.0337027253521
 30
0.0
 11
-17.0
 21
39.33264411704204
 31
0.0
  0
LINE
  5
616D
330
1E
100
AcDbEntity
  8
10
  6
Continuous
100
AcDbLine
 10
17.00000000000005
 20
17.0337027253521
 30
0.0
 11
17.00000000000005
 21
39.33264411704204
 31
0.0
  0
LINE
  5
616E
330
1E
100
AcDbEntity
  8
10
  6
Continuous
100
AcDbLine
 10
17.00000000000011
 20
17.03370272535222
 30
0.0
 11
-16.99999999999993
 21
17.03370272535222
 31
0.0
  0
LINE
  5
616F
330
1E
100
AcDbEntity
  8
10
  6
Continuous
100
AcDbLine
 10
17.00000000000011
 20
28.03853193396584
 30
0.0
 11
-17.0
 21
28.03853193396584
 31
0.0
  0
LINE
  5
6170
330
1E
100
AcDbEntity
  8
10
  6
Continuous
100
AcDbLine
 10
-17.0
 20
31.00000000000001
 30
0.0
 11
-18.0
 21
31.00000000000001
 31
0.0
  0
LINE
  5
6171
330
1E
100
AcDbEntity
  8
10
  6
Continuous
100
AcDbLine
 10
18.0
 20
31.00000000000001
 30
0.0
 11
17.00000000000005
 21
31.00000000000001
 31
0.0
  0
LINE
  5
6172
330
1E
100
AcDbEntity
  8
10
  6
Continuous
100
AcDbLine
 10
17.00000000000011
 20
39.33264411704204
 30
0.0
 11
-17.0
 21
39.33264411704204
 31
0.0
  0
ARC
  5
6173
330
1E
100
AcDbEntity
  8
10
  6
Continuous
100
AcDbCircle
 10
53.0
 20
40.0
 30
0.0
 40
5.0
100
AcDbArc
 50
0.0
 51
90.0
  0
LINE
  5
6174
330
1E
100
AcDbEntity
  8
10
  6
Continuous
100
AcDbLine
 10
86.85355339059332
 20
81.75000000000002
 30
0.0
 11
87.5
 21
82.3964466094068
 31
0.0
  0
LINE
  5
6175
330
1E
100
AcDbEntity
  8
10
  6
Continuous
100
AcDbLine
 10
87.20710678118654
 20
81.75000000000002
 30
0.0
 11
87.5
 21
82.04289321881368
 31
0.0
  0
LINE
  5
6176
330
1E
100
AcDbEntity
  8
10
  6
Continuous
100
AcDbLine
 10
86.5
 20
81.75000000000002
 30
0.0
 11
87.5
 21
81.75000000000002
 31
0.0
  0
LINE
  5
6177
330
1E
100
AcDbEntity
  8
10
  6
Continuous
100
AcDbLine
 10
92.86396103067852
 20
81.75000000000002
 30
0.0
 11
93.49999999999999
 21
82.38603896932159
 31
0.0
  0
LINE
  5
6178
330
1E
100
AcDbEntity
  8
10
  6
Continuous
100
AcDbLine
 10
93.21751442127174
 20
81.75000000000002
 30
0.0
 11
93.49999999999999
 21
82.03248557872827
 31
0.0
  0
LINE
  5
6179
330
1E
100
AcDbEntity
  8
10
  6
Continuous
100
AcDbLine
 10
93.49999999999999
 20
81.75000000000002
 30
0.0
 11
92.88967221921335
 21
81.75000000000002
 31
0.0
  0
LINE
  5
6199
330
1E
100
AcDbEntity
  8
10
  6
Continuous
100
AcDbLine
 10
89.38514586983627
 20
86.75646621339559
 30
0.0
 11
90.10317855311472
 21
87.47449889667404
 31
0.0
  0
LINE
  5
619A
330
1E
100
AcDbEntity
  8
10
  6
Continuous
100
AcDbLine
 10
89.67630748561907
 20
86.34052104799195
 30
0.0
 11
90.39434016889757
 21
87.05855373127031
 31
0.0
  0
LINE
  5
619B
330
1E
100
AcDbEntity
  8
10
  6
Continuous
100
AcDbLine
 10
89.53072667772769
 20
86.54849363069391
 30
0.0
 11
90.24875936100611
 21
87.26652631397213
 31
0.0
  0
LINE
  5
619C
330
1E
100
AcDbEntity
  8
10
  6
Continuous
100
AcDbLine
 10
89.82188829351036
 20
86.13254846528993
 30
0.0
 11
90.5399209767887
 21
86.85058114856849
 31
0.0
  0
LINE
  5
619D
330
1E
100
AcDbEntity
  8
10
  6
Continuous
100
AcDbLine
 10
87.11032778078665
 20
91.75000000000002
 30
0.0
 11
92.5
 21
84.05046825826651
 31
0.0
  0
LINE
  5
619E
330
1E
100
AcDbEntity
  8
10
  6
Continuous
100
AcDbLine
 10
89.96746910140165
 20
85.92457588258803
 30
0.0
 11
90.68550178468012
 21
86.64260856586658
 31
0.0
  0
LINE
  5
619F
330
1E
100
AcDbEntity
  8
10
  6
Continuous
100
AcDbLine
 10
86.5
 20
91.29594154601765
 30
0.0
 11
86.95405845398239
 21
91.75000000000002
 31
0.0
  0
LINE
  5
61A0
330
1E
100
AcDbEntity
  8
10
  6
Continuous
100
AcDbLine
 10
88.22049940670558
 20
88.42024687501123
 30
0.0
 11
88.93853208998406
 21
89.13827955828958
 31
0.0
  0
LINE
  5
61A1
330
1E
100
AcDbEntity
  8
10
  6
Continuous
100
AcDbLine
 10
86.5
 20
85.9926406871191
 30
0.0
 11
87.5
 21
86.9926406871191
 31
0.0
  0
LINE
  5
61A2
330
1E
100
AcDbEntity
  8
10
  6
Continuous
100
AcDbLine
 10
86.5
 20
83.51776695296623
 30
0.0
 11
87.5
 21
84.51776695296622
 31
0.0
  0
LINE
  5
61A3
330
1E
100
AcDbEntity
  8
10
  6
Continuous
100
AcDbLine
 10
88.94840344616225
 20
87.38038396150169
 30
0.0
 11
89.66643612944073
 21
88.09841664478005
 31
0.0
  0
LINE
  5
61A4
330
1E
100
AcDbEntity
  8
10
  6
Continuous
100
AcDbLine
 10
86.5
 20
91.64949493661074
 30
0.0
 11
86.60050506338905
 21
91.75000000000002
 31
0.0
  0
LINE
  5
61A5
330
1E
100
AcDbEntity
  8
10
  6
Continuous
100
AcDbLine
 10
88.07491859881428
 20
88.62821945771271
 30
0.0
 11
88.79295128209276
 21
89.3462521409914
 31
0.0
  0
LINE
  5
61A6
330
1E
100
AcDbEntity
  8
10
  6
Continuous
100
AcDbLine
 10
86.5
 20
84.22487373415277
 30
0.0
 11
87.5
 21
85.22487373415279
 31
0.0
  0
LINE
  5
61A7
330
1E
100
AcDbEntity
  8
10
  6
Continuous
100
AcDbLine
 10
86.5
 20
85.63908729652576
 30
0.0
 11
87.5
 21
86.63908729652574
 31
0.0
  0
LINE
  5
61A8
330
1E
100
AcDbEntity
  8
10
  6
Continuous
100
AcDbLine
 10
86.5
 20
89.52817459305142
 30
0.0
 11
87.77388562685326
 21
90.80206021990468
 31
0.0
  0
LINE
  5
61A9
330
1E
100
AcDbEntity
  8
10
  6
Continuous
100
AcDbLine
 10
86.5
 20
89.88172798364464
 30
0.0
 11
87.62830481896195
 21
91.01003280260682
 31
0.0
  0
LINE
  5
61AA
330
1E
100
AcDbEntity
  8
10
  6
Continuous
100
AcDbLine
 10
86.5
 20
84.93198051533909
 30
0.0
 11
87.5
 21
85.93198051533907
 31
0.0
  0
LINE
  5
61AB
330
1E
100
AcDbEntity
  8
10
  6
Continuous
100
AcDbLine
 10
86.5
 20
91.75000000000002
 30
0.0
 11
87.11032778078665
 21
91.75000000000002
 31
0.0
  0
LINE
  5
61AC
330
1E
100
AcDbEntity
  8
10
  6
Continuous
100
AcDbLine
 10
86.5
 20
84.57842712474599
 30
0.0
 11
87.5
 21
85.57842712474601
 31
0.0
  0
LINE
  5
61AD
330
1E
100
AcDbEntity
  8
10
  6
Continuous
100
AcDbLine
 10
86.5
 20
90.94238815542452
 30
0.0
 11
87.19156239528798
 21
91.63395055071241
 31
0.0
  0
LINE
  5
61AE
330
1E
100
AcDbEntity
  8
10
  6
Continuous
100
AcDbLine
 10
88.65724183037958
 20
87.79632912690512
 30
0.0
 11
89.37527451365804
 21
88.51436181018392
 31
0.0
  0
LINE
  5
61AF
330
1E
100
AcDbEntity
  8
10
  6
Continuous
100
AcDbLine
 10
86.5
 20
87.40685424949196
 30
0.0
 11
87.5
 21
88.40685424949198
 31
0.0
  0
LINE
  5
61B0
330
1E
100
AcDbEntity
  8
10
  6
Continuous
100
AcDbLine
 10
88.80282263827098
 20
87.58835654420343
 30
0.0
 11
89.52085532154944
 21
88.30638922748176
 31
0.0
  0
LINE
  5
61B1
330
1E
100
AcDbEntity
  8
10
  6
Continuous
100
AcDbLine
 10
86.5
 20
83.16421356237276
 30
0.0
 11
87.5
 21
84.16421356237277
 31
0.0
  0
LINE
  5
61B2
330
1E
100
AcDbEntity
  8
10
  6
Continuous
100
AcDbLine
 10
88.51166102248829
 20
88.00430170960716
 30
0.0
 11
89.22969370576664
 21
88.72233439288562
 31
0.0
  0
LINE
  5
61B3
330
1E
100
AcDbEntity
  8
10
  6
Continuous
100
AcDbLine
 10
86.5
 20
86.34619407771221
 30
0.0
 11
87.5
 21
87.34619407771221
 31
0.0
  0
LINE
  5
61B4
330
1E
100
AcDbEntity
  8
10
  6
Continuous
100
AcDbLine
 10
86.5
 20
90.58883476483121
 30
0.0
 11
87.33714320317927
 21
91.42597796801034
 31
0.0
  0
LINE
  5
61B5
330
1E
100
AcDbEntity
  8
10
  6
Continuous
100
AcDbLine
 10
86.5
 20
82.81066017177989
 30
0.0
 11
87.5
 21
83.81066017177991
 31
0.0
  0
LINE
  5
61B6
330
1E
100
AcDbEntity
  8
10
  6
Continuous
100
AcDbLine
 10
88.36608021459687
 20
88.2122742923093
 30
0.0
 11
89.08411289787535
 21
88.93030697558767
 31
0.0
  0
LINE
  5
61B7
330
1E
100
AcDbEntity
  8
10
  6
Continuous
100
AcDbLine
 10
86.5
 20
90.23528137423808
 30
0.0
 11
87.48272401107067
 21
91.2180053853083
 31
0.0
  0
LINE
  5
61B8
330
1E
100
AcDbEntity
  8
10
  6
Continuous
100
AcDbLine
 10
87.78375698303159
 20
89.04416462311679
 30
0.0
 11
88.50178966631006
 21
89.76219730639538
 31
0.0
  0
LINE
  5
61B9
330
1E
100
AcDbEntity
  8
10
  6
Continuous
100
AcDbLine
 10
86.5
 20
82.45710678118646
 30
0.0
 11
87.5
 21
83.45710678118646
 31
0.0
  0
LINE
  5
61BA
330
1E
100
AcDbEntity
  8
10
  6
Continuous
100
AcDbLine
 10
86.5
 20
89.17462120245831
 30
0.0
 11
87.91946643474465
 21
90.59408763720286
 31
0.0
  0
LINE
  5
61BB
330
1E
100
AcDbEntity
  8
10
  6
Continuous
100
AcDbLine
 10
86.5
 20
86.69974746830543
 30
0.0
 11
87.5
 21
87.69974746830543
 31
0.0
  0
LINE
  5
61BC
330
1E
100
AcDbEntity
  8
10
  6
Continuous
100
AcDbLine
 10
86.5
 20
88.46751442127153
 30
0.0
 11
88.21062805052736
 21
90.17814247179911
 31
0.0
  0
LINE
  5
61BD
330
1E
100
AcDbEntity
  8
10
  6
Continuous
100
AcDbLine
 10
86.5
 20
87.05330085889853
 30
0.0
 11
87.5
 21
88.05330085889854
 31
0.0
  0
LINE
  5
61BE
330
1E
100
AcDbEntity
  8
10
  6
Continuous
100
AcDbLine
 10
86.5
 20
87.7604076400852
 30
0.0
 11
87.5
 21
88.7604076400852
 31
0.0
  0
LINE
  5
61BF
330
1E
100
AcDbEntity
  8
10
  6
Continuous
100
AcDbLine
 10
89.09398425405369
 20
87.17241137879968
 30
0.0
 11
89.81201693733202
 21
87.89044406207779
 31
0.0
  0
LINE
  5
61C0
330
1E
100
AcDbEntity
  8
10
  6
Continuous
100
AcDbLine
 10
86.5
 20
83.87132034355934
 30
0.0
 11
87.5
 21
84.87132034355933
 31
0.0
  0
LINE
  5
61C1
330
1E
100
AcDbEntity
  8
10
  6
Continuous
100
AcDbLine
 10
87.6381761751403
 20
89.2521372058187
 30
0.0
 11
88.35620885841866
 21
89.97016988909718
 31
0.0
  0
LINE
  5
61C2
330
1E
100
AcDbEntity
  8
10
  6
Continuous
100
AcDbLine
 10
86.5
 20
88.11396103067831
 30
0.0
 11
87.5
 21
89.11396103067831
 31
0.0
  0
LINE
  5
61C3
330
1E
100
AcDbEntity
  8
10
  6
Continuous
100
AcDbLine
 10
87.92933779092289
 20
88.83619204041499
 30
0.0
 11
88.64737047420133
 21
89.55422472369333
 31
0.0
  0
LINE
  5
61C4
330
1E
100
AcDbEntity
  8
10
  6
Continuous
100
AcDbLine
 10
86.5
 20
85.28553390593222
 30
0.0
 11
87.5
 21
86.2855339059322
 31
0.0
  0
LINE
  5
61C5
330
1E
100
AcDbEntity
  8
10
  6
Continuous
100
AcDbLine
 10
86.5
 20
88.82106781186498
 30
0.0
 11
88.06504724263607
 21
90.38611505450084
 31
0.0
  0
LINE
  5
61C6
330
1E
100
AcDbEntity
  8
10
  6
Continuous
100
AcDbLine
 10
89.23956506194498
 20
86.96443879609764
 30
0.0
 11
89.95759774522332
 21
87.68247147937598
 31
0.0
  0
LINE
  5
61C7
330
1E
100
AcDbEntity
  8
10
  6
Continuous
100
AcDbLine
 10
91.86001960398902
 20
83.22093230746316
 30
0.0
 11
93.49999999999999
 21
84.86091270347435
 31
0.0
  0
LINE
  5
61C8
330
1E
100
AcDbEntity
  8
10
  6
Continuous
100
AcDbLine
 10
92.5
 20
88.45710678118646
 30
0.0
 11
93.49999999999999
 21
89.45710678118645
 31
0.0
  0
LINE
  5
61C9
330
1E
100
AcDbEntity
  8
10
  6
Continuous
100
AcDbLine
 10
91.13211556453235
 20
84.2607952209728
 30
0.0
 11
91.85014824781092
 21
84.97882790425116
 31
0.0
  0
LINE
  5
61CA
330
1E
100
AcDbEntity
  8
10
  6
Continuous
100
AcDbLine
 10
90.54979233296696
 20
85.0926855517803
 30
0.0
 11
91.26782501624539
 21
85.81071823505878
 31
0.0
  0
LINE
  5
61CB
330
1E
100
AcDbEntity
  8
10
  6
Continuous
100
AcDbLine
 10
92.5
 20
90.22487373415279
 30
0.0
 11
93.49999999999999
 21
91.22487373415278
 31
0.0
  0
LINE
  5
61CC
330
1E
100
AcDbEntity
  8
10
  6
Continuous
100
AcDbLine
 10
92.5
 20
88.10355339059311
 30
0.0
 11
93.49999999999999
 21
89.10355339059313
 31
0.0
  0
LINE
  5
61CD
330
1E
100
AcDbEntity
  8
10
  6
Continuous
100
AcDbLine
 10
92.5
 20
85.62867965644072
 30
0.0
 11
93.49999999999999
 21
86.62867965644069
 31
0.0
  0
LINE
  5
61CE
330
1E
100
AcDbEntity
  8
10
  6
Continuous
100
AcDbLine
 10
90.25863071718424
 20
85.50863071718472
 30
0.0
 11
90.97666340046279
 21
86.22666340046285
 31
0.0
  0
LINE
  5
61CF
330
1E
100
AcDbEntity
  8
10
  6
Continuous
100
AcDbLine
 10
92.5
 20
87.3964466094069
 30
0.0
 11
93.49999999999999
 21
88.3964466094069
 31
0.0
  0
LINE
  5
61D0
330
1E
100
AcDbEntity
  8
10
  6
Continuous
100
AcDbLine
 10
91.27769637242376
 20
84.05282263827087
 30
0.0
 11
91.99572905570198
 21
84.77085532154923
 31
0.0
  0
LINE
  5
61D1
330
1E
100
AcDbEntity
  8
10
  6
Continuous
100
AcDbLine
 10
92.5
 20
84.05046825826651
 30
0.0
 11
92.5
 21
91.75000000000002
 31
0.0
  0
LINE
  5
61D2
330
1E
100
AcDbEntity
  8
10
  6
Continuous
100
AcDbLine
 10
92.5
 20
84.21446609406759
 30
0.0
 11
93.49999999999999
 21
85.21446609406757
 31
0.0
  0
LINE
  5
61D3
330
1E
100
AcDbEntity
  8
10
  6
Continuous
100
AcDbLine
 10
90.11304990929295
 20
85.71660329988619
 30
0.0
 11
90.83108259257143
 21
86.43463598316431
 31
0.0
  0
LINE
  5
61D4
330
1E
100
AcDbEntity
  8
10
  6
Continuous
100
AcDbLine
 10
92.5
 20
89.16421356237277
 30
0.0
 11
93.49999999999999
 21
90.16421356237279
 31
0.0
  0
LINE
  5
61D5
330
1E
100
AcDbEntity
  8
10
  6
Continuous
100
AcDbLine
 10
92.5
 20
87.75000000000002
 30
0.0
 11
93.49999999999999
 21
88.75000000000001
 31
0.0
  0
LINE
  5
61D6
330
1E
100
AcDbEntity
  8
10
  6
Continuous
100
AcDbLine
 10
91.42327718031515
 20
83.84485005556873
 30
0.0
 11
92.14130986359341
 21
84.56288273884753
 31
0.0
  0
LINE
  5
61D7
330
1E
100
AcDbEntity
  8
10
  6
Continuous
100
AcDbLine
 10
92.5
 20
89.5177669529662
 30
0.0
 11
93.49999999999999
 21
90.51776695296622
 31
0.0
  0
LINE
  5
61D8
330
1E
100
AcDbEntity
  8
10
  6
Continuous
100
AcDbLine
 10
92.5
 20
88.81066017177991
 30
0.0
 11
93.49999999999999
 21
89.8106601717799
 31
0.0
  0
LINE
  5
61D9
330
1E
100
AcDbEntity
  8
10
  6
Continuous
100
AcDbLine
 10
92.5
 20
85.27512626584714
 30
0.0
 11
93.49999999999999
 21
86.27512626584715
 31
0.0
  0
LINE
  5
61DA
330
1E
100
AcDbEntity
  8
10
  6
Continuous
100
AcDbLine
 10
92.00560041188044
 20
83.01295972476159
 30
0.0
 11
93.49999999999999
 21
84.50735931288091
 31
0.0
  0
LINE
  5
61DB
330
1E
100
AcDbEntity
  8
10
  6
Continuous
100
AcDbLine
 10
90.98653475664093
 20
84.46876780367473
 30
0.0
 11
91.70456743991929
 21
85.18680048695321
 31
0.0
  0
LINE
  5
61DC
330
1E
100
AcDbEntity
  8
10
  6
Continuous
100
AcDbLine
 10
92.5
 20
91.75000000000002
 30
0.0
 11
93.49999999999999
 21
91.75000000000002
 31
0.0
  0
LINE
  5
61DD
330
1E
100
AcDbEntity
  8
10
  6
Continuous
100
AcDbLine
 10
92.5
 20
86.68933982822009
 30
0.0
 11
93.49999999999999
 21
87.6893398282201
 31
0.0
  0
LINE
  5
61DE
330
1E
100
AcDbEntity
  8
10
  6
Continuous
100
AcDbLine
 10
92.15118121977171
 20
82.80498714205945
 30
0.0
 11
93.49999999999999
 21
84.15380592228782
 31
0.0
  0
LINE
  5
61DF
330
1E
100
AcDbEntity
  8
10
  6
Continuous
100
AcDbLine
 10
92.5
 20
91.63908729652575
 30
0.0
 11
92.61091270347435
 21
91.75000000000002
 31
0.0
  0
LINE
  5
61E0
330
1E
100
AcDbEntity
  8
10
  6
Continuous
100
AcDbLine
 10
91.71443879609773
 20
83.4289048901653
 30
0.0
 11
92.43247147937609
 21
84.14693757344378
 31
0.0
  0
LINE
  5
61E1
330
1E
100
AcDbEntity
  8
10
  6
Continuous
100
AcDbLine
 10
90.84095394874964
 20
84.67674038637666
 30
0.0
 11
91.5589866320281
 21
85.39477306965501
 31
0.0
  0
LINE
  5
61E2
330
1E
100
AcDbEntity
  8
10
  6
Continuous
100
AcDbLine
 10
90.40421152507551
 20
85.30065813448233
 30
0.0
 11
91.12224420835413
 21
86.01869081776071
 31
0.0
  0
LINE
  5
61E3
330
1E
100
AcDbEntity
  8
10
  6
Continuous
100
AcDbLine
 10
92.5
 20
90.93198051533907
 30
0.0
 11
93.31801948466068
 21
91.75000000000002
 31
0.0
  0
LINE
  5
61E4
330
1E
100
AcDbEntity
  8
10
  6
Continuous
100
AcDbLine
 10
92.5
 20
89.87132034355942
 30
0.0
 11
93.49999999999999
 21
90.8713203435593
 31
0.0
  0
LINE
  5
61E5
330
1E
100
AcDbEntity
  8
10
  6
Continuous
100
AcDbLine
 10
92.5
 20
90.57842712474601
 30
0.0
 11
93.49999999999999
 21
91.578427124746
 31
0.0
  0
LINE
  5
61E6
330
1E
100
AcDbEntity
  8
10
  6
Continuous
100
AcDbLine
 10
92.5
 20
91.2855339059322
 30
0.0
 11
92.96446609406755
 21
91.75000000000002
 31
0.0
  0
LINE
  5
61E7
330
1E
100
AcDbEntity
  8
10
  6
Continuous
100
AcDbLine
 10
90.69537314085836
 20
84.88471296907848
 30
0.0
 11
91.4134058241367
 21
85.60274565235683
 31
0.0
  0
LINE
  5
61E8
330
1E
100
AcDbEntity
  8
10
  6
Continuous
100
AcDbLine
 10
92.5
 20
85.98223304703379
 30
0.0
 11
93.49999999999999
 21
86.98223304703381
 31
0.0
  0
LINE
  5
61E9
330
1E
100
AcDbEntity
  8
10
  6
Continuous
100
AcDbLine
 10
92.5
 20
87.04289321881368
 30
0.0
 11
93.49999999999999
 21
88.04289321881368
 31
0.0
  0
LINE
  5
61EA
330
1E
100
AcDbEntity
  8
10
  6
Continuous
100
AcDbLine
 10
92.5
 20
84.5680194846607
 30
0.0
 11
93.49999999999999
 21
85.5680194846607
 31
0.0
  0
LINE
  5
61EB
330
1E
100
AcDbEntity
  8
10
  6
Continuous
100
AcDbLine
 10
92.29676202766311
 20
82.59701455935759
 30
0.0
 11
93.49999999999999
 21
83.80025253169437
 31
0.0
  0
LINE
  5
61EC
330
1E
100
AcDbEntity
  8
10
  6
Continuous
100
AcDbLine
 10
92.5
 20
86.33578643762701
 30
0.0
 11
93.49999999999999
 21
87.33578643762703
 31
0.0
  0
LINE
  5
61ED
330
1E
100
AcDbEntity
  8
10
  6
Continuous
100
AcDbLine
 10
92.5
 20
84.9215728752538
 30
0.0
 11
93.49999999999999
 21
85.92157287525379
 31
0.0
  0
LINE
  5
61EE
330
1E
100
AcDbEntity
  8
10
  6
Continuous
100
AcDbLine
 10
91.5688579882063
 20
83.63687747286714
 30
0.0
 11
92.28689067148469
 21
84.35491015614571
 31
0.0
  0
LINE
  5
6211
330
1E
100
AcDbEntity
  8
18
100
AcDbLine
 10
115.0
 20
-270.0
 30
0.0
 11
-69.99999999999977
 21
-270.0
 31
0.0
  0
LINE
  5
6212
330
1E
100
AcDbEntity
  8
18
100
AcDbLine
 10
-69.99999999999977
 20
-530.0
 30
0.0
 11
115.0
 21
-530.0
 31
0.0
  0
LINE
  5
6213
330
1E
100
AcDbEntity
  8
18
100
AcDbLine
 10
-69.99999999999977
 20
-270.0
 30
0.0
 11
-69.99999999999977
 21
-530.0
 31
0.0
  0
LINE
  5
6215
330
1E
100
AcDbEntity
  8
12
  6
DASHDOT
100
AcDbLine
 10
-22.5
 20
-500.0
 30
0.0
 11
-22.5
 21
-514.0
 31
0.0
  0
CIRCLE
  5
6216
330
1E
100
AcDbEntity
  8
12
  6
DASHDOT
100
AcDbCircle
 10
22.5
 20
-507.0
 30
0.0
 40
3.0
210
0.0
220
0.0
230
-1.0
  0
LINE
  5
6217
330
1E
100
AcDbEntity
  8
12
  6
DASHDOT
100
AcDbLine
 10
-29.5
 20
-507.0
 30
0.0
 11
-15.5
 21
-507.0
 31
0.0
  0
LINE
  5
6218
330
1E
100
AcDbEntity
  8
12
  6
DASHDOT
100
AcDbLine
 10
22.5
 20
-500.0
 30
0.0
 11
22.5
 21
-514.0
 31
0.0
  0
CIRCLE
  5
6219
330
1E
100
AcDbEntity
  8
12
  6
DASHDOT
100
AcDbCircle
 10
22.5
 20
-507.0
 30
0.0
 40
3.0
  0
LINE
  5
621A
330
1E
100
AcDbEntity
  8
12
  6
DASHDOT
100
AcDbLine
 10
15.5
 20
-507.0
 30
0.0
 11
29.5
 21
-507.0
 31
0.0
  0
LINE
  5
621B
330
1E
100
AcDbEntity
  8
12
  6
DASHDOT
100
AcDbLine
 10
-22.5
 20
-286.0
 30
0.0
 11
-22.5
 21
-300.0
 31
0.0
  0
LINE
  5
621C
330
1E
100
AcDbEntity
  8
12
  6
DASHDOT
100
AcDbLine
 10
-29.5
 20
-293.0
 30
0.0
 11
-15.5
 21
-293.0
 31
0.0
  0
CIRCLE
  5
621D
330
1E
100
AcDbEntity
  8
12
  6
DASHDOT
100
AcDbCircle
 10
-22.5
 20
-293.0
 30
0.0
 40
3.0
  0
LINE
  5
621E
330
1E
100
AcDbEntity
  8
12
  6
DASHDOT
100
AcDbLine
 10
15.5
 20
-293.0
 30
0.0
 11
29.5
 21
-293.0
 31
0.0
  0
LINE
  5
621F
330
1E
100
AcDbEntity
  8
12
  6
DASHDOT
100
AcDbLine
 10
22.5
 20
-286.0
 30
0.0
 11
22.5
 21
-300.0
 31
0.0
  0
CIRCLE
  5
6220
330
1E
100
AcDbEntity
  8
12
  6
DASHDOT
100
AcDbCircle
 10
-22.5
 20
-293.0
 30
0.0
 40
3.0
210
0.0
220
0.0
230
-1.0
  0
LINE
  5
6221
330
1E
100
AcDbEntity
  8
18
100
AcDbLine
 10
115.0
 20
-270.0
 30
0.0
 11
115.0
 21
-530.0
 31
0.0
  0
LINE
  5
6236
330
1E
100
AcDbEntity
  8
11
  6
Continuous
100
AcDbLine
 10
242.0
 20
-446.0
 30
0.0
 11
348.0
 21
-446.0
 31
0.0
  0
LINE
  5
6237
330
1E
100
AcDbEntity
  8
11
  6
Continuous
100
AcDbLine
 10
242.0
 20
-354.0
 30
0.0
 11
348.0
 21
-354.0
 31
0.0
  0
LINE
  5
6239
330
1E
100
AcDbEntity
  8
18
100
AcDbLine
 10
225.0
 20
-530.0
 30
0.0
 11
410.0
 21
-530.0
 31
0.0
  0
LINE
  5
623A
330
1E
100
AcDbEntity
  8
18
100
AcDbLine
 10
410.0
 20
-270.0
 30
0.0
 11
225.0
 21
-270.0
 31
0.0
  0
LINE
  5
623C
330
1E
100
AcDbEntity
  8
11
  6
Continuous
100
AcDbLine
 10
236.0
 20
-360.0
 30
0.0
 11
236.0
 21
-440.0
 31
0.0
  0
LINE
  5
623E
330
1E
100
AcDbEntity
  8
18
100
AcDbLine
 10
225.0
 20
-270.0
 30
0.0
 11
225.0
 21
-530.0
 31
0.0
  0
ARC
  5
623F
330
1E
100
AcDbEntity
  8
11
  6
Continuous
100
AcDbCircle
 10
242.0
 20
-440.0
 30
0.0
 40
6.0
100
AcDbArc
 50
180.0
 51
270.0
  0
ARC
  5
6240
330
1E
100
AcDbEntity
  8
11
  6
Continuous
100
AcDbCircle
 10
242.0
 20
-360.0
 30
0.0
 40
6.0
100
AcDbArc
 50
90.0
 51
180.0
  0
LINE
  5
6241
330
1E
100
AcDbEntity
  8
11
  6
Continuous
100
AcDbLine
 10
354.0
 20
-360.0
 30
0.0
 11
354.0
 21
-440.0
 31
0.0
  0
LINE
  5
6242
330
1E
100
AcDbEntity
  8
18
100
AcDbLine
 10
410.0
 20
-270.0
 30
0.0
 11
410.0
 21
-530.0
 31
0.0
  0
ARC
  5
6244
330
1E
100
AcDbEntity
  8
11
  6
Continuous
100
AcDbCircle
 10
348.0
 20
-440.0
 30
0.0
 40
6.0
100
AcDbArc
 50
270.0
 51
0.0
  0
ARC
  5
6245
330
1E
100
AcDbEntity
  8
11
  6
Continuous
100
AcDbCircle
 10
348.0
 20
-360.0
 30
0.0
 40
6.0
100
AcDbArc
 50
0.0
 51
90.0
  0
LINE
  5
62C4
330
1E
100
AcDbEntity
  8
10
  6
Continuous
 62
     2
100
AcDbLine
 10
205.3937097878762
 20
275.1412821908997
 30
0.0
 11
205.3937097878762
 21
246.0
 31
0.0
  0
CIRCLE
  5
62C5
330
1E
100
AcDbEntity
  8
10
  6
Continuous
 62
     2
100
AcDbCircle
 10
217.893709787876
 20
258.0
 30
0.0
 40
5.5
  0
LINE
  5
62C6
330
1E
100
AcDbEntity
  8
10
  6
Continuous
 62
     2
100
AcDbLine
 10
217.893709787876
 20
265.5
 30
0.0
 11
217.893709787876
 21
250.4999999999999
 31
0.0
  0
LINE
  5
62C7
330
1E
100
AcDbEntity
  8
10
  6
Continuous
 62
     2
100
AcDbLine
 10
230.3937097878763
 20
273.649903499169
 30
0.0
 11
230.3937097878763
 21
246.0
 31
0.0
  0
LINE
  5
62C8
330
1E
100
AcDbEntity
  8
10
  6
Continuous
 62
     2
100
AcDbLine
 10
205.3937097878762
 20
246.0
 30
0.0
 11
230.3937097878763
 21
246.0
 31
0.0
  0
LINE
  5
62C9
330
1E
100
AcDbEntity
  8
10
  6
Continuous
 62
     2
100
AcDbLine
 10
210.3937097878759
 20
258.0
 30
0.0
 11
225.3937097878758
 21
258.0
 31
0.0
  0
LINE
  5
62CA
330
1E
100
AcDbEntity
  8
10
  6
Continuous
 62
     2
100
AcDbLine
 10
209.075860740773
 20
274.2257871036799
 30
0.0
 11
220.4839625904813
 21
271.3893848671844
 31
0.0
  0
ARC
  5
62CB
330
1E
100
AcDbEntity
  8
10
  6
Continuous
 62
     2
100
AcDbCircle
 10
206.5187097878762
 20
266.6454850645724
 30
0.0
 40
8.0
100
AcDbArc
 50
71.35861102845321
 51
97.54313196796429
  0
ARC
  5
62CC
330
1E
100
AcDbEntity
  8
10
  6
Continuous
 62
     2
100
AcDbCircle
 10
222.881291608822
 20
278.4959180288477
 30
0.0
 40
7.5
100
AcDbArc
 50
251.3586110284531
 51
294.2039969225396
  0
LINE
  5
62CD
330
1E
100
AcDbEntity
  8
10
  6
Continuous
 62
     2
100
AcDbLine
 10
225.9561915726914
 20
271.6552316442665
 30
0.0
 11
230.3937097878763
 21
273.649903499169
 31
0.0
  0
DIMENSION
  5
62E9
330
1E
100
AcDbEntity
  8
30
  6
Continuous
100
AcDbDimension
  2
*D2
 10
-92.0
 20
-44.99999999999998
 30
0.0
 11
-95.49999999999998
 21
0.0000000000000061
 31
0.0
 70
    32
 71
     5
 42
-1.0
  3
STANDARD
100
AcDbAlignedDimension
 13
-53.0
 23
45.0
 33
0.0
 14
-53.0
 24
-44.99999999999999
 34
0.0
 50
90.0
100
AcDbRotatedDimension
  0
DIMENSION
  5
62F6
330
1E
100
AcDbEntity
  8
30
  6
Continuous
100
AcDbDimension
  2
*D3
 10
-106.0
 20
-50.99999999999997
 30
0.0
 11
-109.4999999999999
 21
-0.0000000000005047
 31
0.0
 70
    32
 71
     5
 42
-1.0
  3
STANDARD
100
AcDbAlignedDimension
 13
-70.0
 23
50.99999999999899
 33
0.0
 14
-70.0
 24
-50.99999999999997
 34
0.0
 50
90.0
100
AcDbRotatedDimension
  0
DIMENSION
  5
6303
330
1E
100
AcDbEntity
  8
30
  6
Continuous
100
AcDbDimension
  2
*D4
 10
-117.0
 20
-130.0
 30
0.0
 11
-120.4999999999997
 21
-0.0000000000000208
 31
0.0
 70
    32
 71
     5
 42
-1.0
  3
STANDARD
100
AcDbAlignedDimension
 13
-70.0
 23
130.0
 33
0.0
 14
-70.0
 24
-130.0
 34
0.0
 50
90.0
100
AcDbRotatedDimension
  0
DIMENSION
  5
6483
330
1E
100
AcDbEntity
  8
30
  6
Continuous
100
AcDbDimension
  2
*D5
 10
-7.500000000000002
 20
-209.5004882811999
 30
0.0
 11
-35.0
 21
-209.5004882811999
 31
0.0
 70
   160
 71
     5
 42
-1.0
  3
STANDARD
100
AcDbAlignedDimension
 13
-67.5
 23
-171.9995117188
 33
0.0
 14
-7.5
 24
-171.9995117188
 34
0.0
100
AcDbRotatedDimension
  0
DIMENSION
  5
6484
330
1E
100
AcDbEntity
  8
30
  6
Continuous
100
AcDbDimension
  2
*D6
 10
52.5
 20
-200.0
 30
0.0
 11
26.25
 21
-196.5
 31
0.0
 70
    32
 71
     5
 42
-1.0
  3
STANDARD
100
AcDbAlignedDimension
 13
0.0
 23
-124.9997558593999
 33
0.0
 14
52.5
 24
-171.0
 34
0.0
100
AcDbRotatedDimension
  0
DIMENSION
  5
6485
330
1E
100
AcDbEntity
  8
30
  6
Continuous
100
AcDbDimension
  2
*D7
 10
52.5
 20
-209.5004882811999
 30
0.0
 11
22.5
 21
-206.0004882811999
 31
0.0
 70
    32
 71
     5
 42
-1.0
  3
STANDARD
100
AcDbAlignedDimension
 13
-7.5
 23
-172.9995117188
 33
0.0
 14
52.5
 24
-171.9995117188
 34
0.0
100
AcDbRotatedDimension
  0
DIMENSION
  5
6486
330
1E
100
AcDbEntity
  8
30
  6
Continuous
100
AcDbDimension
  2
*D8
 10
112.5
 20
-209.5004882811999
 30
0.0
 11
82.5
 21
-206.0004882811999
 31
0.0
 70
    32
 71
     5
 42
-1.0
  3
STANDARD
100
AcDbAlignedDimension
 13
52.5
 23
-174.9990234375998
 33
0.0
 14
112.5
 24
-173.9990234375999
 34
0.0
100
AcDbRotatedDimension
  0
DIMENSION
  5
64EE
330
1E
100
AcDbEntity
  8
30
  6
Continuous
100
AcDbDimension
  2
*D9
 10
-21.49999999999999
 20
-186.1755559797568
 30
0.0
 11
-7.5
 21
-186.1755559797568
 31
0.0
 70
   160
 71
     5
 42
-1.0
  3
STANDARD
100
AcDbAlignedDimension
 13
6.5
 23
-173.5
 33
0.0
 14
-21.49999999999999
 24
-173.4063720703
 34
0.0
 50
180.0
100
AcDbRotatedDimension
  0
ARC
  5
6528
330
1E
100
AcDbEntity
  8
10
  6
Continuous
100
AcDbCircle
 10
0.000000000000012
 20
114.0
 30
0.0
 40
8.0
210
0.0
220
0.0
230
-1.0
100
AcDbArc
 50
46.5674634422112
 51
133.4325365577887
  0
ARC
  5
6529
330
1E
100
AcDbEntity
  8
10
  6
Continuous
100
AcDbCircle
 10
0.000000000000012
 20
114.0
 30
0.0
 40
5.5
210
0.0
220
0.0
230
-1.0
100
AcDbArc
 50
180.0
 51
0.0
  0
LINE
  5
652A
330
1E
100
AcDbEntity
  8
24
  6
CONTINOUS
100
AcDbLine
 10
-8.999999999999953
 20
114.0
 30
0.0
 11
8.999999999999987
 21
114.0
 31
0.0
  0
LINE
  5
652B
330
1E
100
AcDbEntity
  8
24
  6
CONTINOUS
100
AcDbLine
 10
3.999999999999986
 20
116.3094010767587
 30
0.0
 11
-0.0000000000000125
 21
118.6188021535169
 31
0.0
  0
LINE
  5
652C
330
1E
100
AcDbEntity
  8
24
  6
CONTINOUS
100
AcDbLine
 10
-0.0000000000000115
 20
109.3811978464831
 30
0.0
 11
3.999999999999986
 21
111.6905989232414
 31
0.0
  0
ARC
  5
652D
330
1E
100
AcDbEntity
  8
10
  6
Continuous
100
AcDbCircle
 10
45.0
 20
114.0
 30
0.0
 40
8.0
210
0.0
220
0.0
230
-1.0
100
AcDbArc
 50
46.5674634422112
 51
133.4325365577887
  0
ARC
  5
652E
330
1E
100
AcDbEntity
  8
10
  6
Continuous
100
AcDbCircle
 10
45.0
 20
114.0
 30
0.0
 40
5.5
210
0.0
220
0.0
230
-1.0
100
AcDbArc
 50
180.0
 51
0.0
  0
LINE
  5
652F
330
1E
100
AcDbEntity
  8
24
  6
CONTINOUS
100
AcDbLine
 10
-53.99999999999995
 20
114.0
 30
0.0
 11
-36.0
 21
114.0
 31
0.0
  0
LINE
  5
6530
330
1E
100
AcDbEntity
  8
10
  6
Continuous
100
AcDbLine
 10
-50.5
 20
114.0
 30
0.0
 11
-50.5
 21
130.0
 31
0.0
  0
CIRCLE
  5
6531
330
1E
100
AcDbEntity
  8
12
  6
DASHED
100
AcDbCircle
 10
-22.50000000000001
 20
107.0
 30
0.0
 40
4.0
  0
LINE
  5
6532
330
1E
100
AcDbEntity
  8
12
  6
DASHED
100
AcDbLine
 10
-14.50000000000001
 20
107.0
 30
0.0
 11
-30.50000000000001
 21
107.0
 31
0.0
  0
LINE
  5
6533
330
1E
100
AcDbEntity
  8
10
  6
Continuous
100
AcDbLine
 10
-39.50000000000001
 20
114.0
 30
0.0
 11
-39.50000000000001
 21
130.0
 31
0.0
  0
LINE
  5
6534
330
1E
100
AcDbEntity
  8
24
  6
CONTINOUS
100
AcDbLine
 10
-49.00000000000002
 20
116.3094010767587
 30
0.0
 11
-49.00000000000002
 21
111.6905989232414
 31
0.0
  0
LINE
  5
6535
330
1E
100
AcDbEntity
  8
24
  6
CONTINOUS
100
AcDbLine
 10
-41.0
 20
111.6905989232414
 30
0.0
 11
-41.0
 21
116.3094010767587
 31
0.0
  0
LINE
  5
6536
330
1E
100
AcDbEntity
  8
24
  6
CONTINOUS
100
AcDbLine
 10
-45.0
 20
123.0
 30
0.0
 11
-45.0
 21
105.0
 31
0.0
  0
LINE
  5
6537
330
1E
100
AcDbEntity
  8
24
  6
CONTINOUS
100
AcDbLine
 10
-41.0
 20
116.3094010767587
 30
0.0
 11
-45.0
 21
118.6188021535169
 31
0.0
  0
LINE
  5
6538
330
1E
100
AcDbEntity
  8
24
  6
CONTINOUS
100
AcDbLine
 10
-45.0
 20
118.6188021535169
 30
0.0
 11
-49.00000000000002
 21
116.3094010767587
 31
0.0
  0
LINE
  5
6539
330
1E
100
AcDbEntity
  8
24
  6
CONTINOUS
100
AcDbLine
 10
-49.00000000000002
 20
111.6905989232414
 30
0.0
 11
-45.0
 21
109.3811978464831
 31
0.0
  0
LINE
  5
653A
330
1E
100
AcDbEntity
  8
24
  6
CONTINOUS
100
AcDbLine
 10
-45.0
 20
109.3811978464831
 30
0.0
 11
-41.0
 21
111.6905989232414
 31
0.0
  0
LINE
  5
653B
330
1E
100
AcDbEntity
  8
10
  6
Continuous
100
AcDbLine
 10
-5.500000000000011
 20
114.0
 30
0.0
 11
-5.500000000000013
 21
130.0
 31
0.0
  0
LINE
  5
653C
330
1E
100
AcDbEntity
  8
24
  6
CONTINOUS
100
AcDbLine
 10
-4.000000000000011
 20
116.3094010767587
 30
0.0
 11
-4.000000000000011
 21
111.6905989232414
 31
0.0
  0
LINE
  5
653D
330
1E
100
AcDbEntity
  8
24
  6
CONTINOUS
100
AcDbLine
 10
-0.0000000000000129
 20
123.0
 30
0.0
 11
-0.0000000000000111
 21
105.0
 31
0.0
  0
LINE
  5
653E
330
1E
100
AcDbEntity
  8
12
  6
DASHED
100
AcDbLine
 10
-22.50000000000001
 20
99.0
 30
0.0
 11
-22.50000000000001
 21
115.0
 31
0.0
  0
LINE
  5
653F
330
1E
100
AcDbEntity
  8
24
  6
CONTINOUS
100
AcDbLine
 10
-0.0000000000000125
 20
118.6188021535169
 30
0.0
 11
-4.000000000000011
 21
116.3094010767587
 31
0.0
  0
LINE
  5
6540
330
1E
100
AcDbEntity
  8
24
  6
CONTINOUS
100
AcDbLine
 10
-4.000000000000011
 20
111.6905989232414
 30
0.0
 11
-0.0000000000000115
 21
109.3811978464831
 31
0.0
  0
LINE
  5
6541
330
1E
100
AcDbEntity
  8
12
  6
DASHED
100
AcDbLine
 10
30.49999999999998
 20
107.0
 30
0.0
 11
14.49999999999999
 21
107.0
 31
0.0
  0
LINE
  5
6542
330
1E
100
AcDbEntity
  8
10
  6
Continuous
100
AcDbLine
 10
5.499999999999986
 20
114.0
 30
0.0
 11
5.499999999999986
 21
130.0
 31
0.0
  0
LINE
  5
6543
330
1E
100
AcDbEntity
  8
24
  6
CONTINOUS
100
AcDbLine
 10
3.999999999999986
 20
111.6905989232414
 30
0.0
 11
3.999999999999986
 21
116.3094010767587
 31
0.0
  0
LINE
  5
6544
330
1E
100
AcDbEntity
  8
12
  6
DASHED
100
AcDbLine
 10
22.49999999999999
 20
99.0
 30
0.0
 11
22.49999999999999
 21
115.0
 31
0.0
  0
CIRCLE
  5
6545
330
1E
100
AcDbEntity
  8
12
  6
DASHED
100
AcDbCircle
 10
22.49999999999999
 20
107.0
 30
0.0
 40
4.0
  0
LINE
  5
6546
330
1E
100
AcDbEntity
  8
10
  6
Continuous
100
AcDbLine
 10
50.49999999999998
 20
114.0
 30
0.0
 11
50.49999999999998
 21
130.0
 31
0.0
  0
LINE
  5
6547
330
1E
100
AcDbEntity
  8
10
  6
Continuous
100
AcDbLine
 10
39.49999999999996
 20
114.0
 30
0.0
 11
39.49999999999996
 21
130.0
 31
0.0
  0
LINE
  5
6548
330
1E
100
AcDbEntity
  8
24
  6
CONTINOUS
100
AcDbLine
 10
48.99999999999998
 20
111.6905989232414
 30
0.0
 11
48.99999999999998
 21
116.3094010767587
 31
0.0
  0
LINE
  5
6549
330
1E
100
AcDbEntity
  8
24
  6
CONTINOUS
100
AcDbLine
 10
44.99999999999999
 20
123.0
 30
0.0
 11
44.99999999999999
 21
105.0
 31
0.0
  0
LINE
  5
654A
330
1E
100
AcDbEntity
  8
24
  6
CONTINOUS
100
AcDbLine
 10
40.99999999999996
 20
116.3094010767587
 30
0.0
 11
40.99999999999996
 21
111.6905989232414
 31
0.0
  0
ARC
  5
654B
330
1E
100
AcDbEntity
  8
10
  6
Continuous
100
AcDbCircle
 10
-44.99999999999999
 20
114.0
 30
0.0
 40
8.0
210
0.0
220
0.0
230
-1.0
100
AcDbArc
 50
46.5674634422112
 51
133.4325365577887
  0
LINE
  5
654C
330
1E
100
AcDbEntity
  8
24
  6
CONTINOUS
100
AcDbLine
 10
44.99999999999999
 20
118.6188021535169
 30
0.0
 11
40.99999999999996
 21
116.3094010767587
 31
0.0
  0
LINE
  5
654D
330
1E
100
AcDbEntity
  8
24
  6
CONTINOUS
100
AcDbLine
 10
48.99999999999998
 20
116.3094010767587
 30
0.0
 11
44.99999999999999
 21
118.6188021535169
 31
0.0
  0
ARC
  5
654E
330
1E
100
AcDbEntity
  8
10
  6
Continuous
100
AcDbCircle
 10
-44.99999999999999
 20
114.0
 30
0.0
 40
5.5
210
0.0
220
0.0
230
-1.0
100
AcDbArc
 50
180.0
 51
0.0
  0
LINE
  5
654F
330
1E
100
AcDbEntity
  8
24
  6
CONTINOUS
100
AcDbLine
 10
36.00000000000003
 20
114.0
 30
0.0
 11
53.99999999999998
 21
114.0
 31
0.0
  0
LINE
  5
6550
330
1E
100
AcDbEntity
  8
24
  6
CONTINOUS
100
AcDbLine
 10
40.99999999999996
 20
111.6905989232414
 30
0.0
 11
44.99999999999999
 21
109.3811978464831
 31
0.0
  0
LINE
  5
6551
330
1E
100
AcDbEntity
  8
24
  6
CONTINOUS
100
AcDbLine
 10
44.99999999999999
 20
109.3811978464831
 30
0.0
 11
48.99999999999998
 21
111.6905989232414
 31
0.0
  0
LINE
  5
6552
330
1E
100
AcDbEntity
  8
10
  6
Continuous
100
AcDbLine
 10
84.49999999999999
 20
114.0
 30
0.0
 11
84.49999999999999
 21
130.0
 31
0.0
  0
LINE
  5
6553
330
1E
100
AcDbEntity
  8
10
  6
Continuous
100
AcDbLine
 10
95.49999999999998
 20
114.0
 30
0.0
 11
95.49999999999998
 21
130.0
 31
0.0
  0
LINE
  5
6554
330
1E
100
AcDbEntity
  8
24
  6
CONTINOUS
100
AcDbLine
 10
93.99999999999998
 20
111.6905989232414
 30
0.0
 11
93.99999999999998
 21
116.3094010767587
 31
0.0
  0
LINE
  5
6555
330
1E
100
AcDbEntity
  8
24
  6
CONTINOUS
100
AcDbLine
 10
85.99999999999999
 20
116.3094010767587
 30
0.0
 11
85.99999999999999
 21
111.6905989232414
 31
0.0
  0
LINE
  5
6556
330
1E
100
AcDbEntity
  8
24
  6
CONTINOUS
100
AcDbLine
 10
89.99999999999998
 20
123.0
 30
0.0
 11
89.99999999999998
 21
105.0
 31
0.0
  0
ARC
  5
6557
330
1E
100
AcDbEntity
  8
10
  6
Continuous
100
AcDbCircle
 10
-89.99999999999998
 20
114.0
 30
0.0
 40
8.0
210
0.0
220
0.0
230
-1.0
100
AcDbArc
 50
46.5674634422112
 51
133.4325365577887
  0
LINE
  5
6558
330
1E
100
AcDbEntity
  8
24
  6
CONTINOUS
100
AcDbLine
 10
93.99999999999998
 20
116.3094010767587
 30
0.0
 11
89.99999999999998
 21
118.6188021535169
 31
0.0
  0
LINE
  5
6559
330
1E
100
AcDbEntity
  8
24
  6
CONTINOUS
100
AcDbLine
 10
89.99999999999998
 20
118.6188021535169
 30
0.0
 11
85.99999999999999
 21
116.3094010767587
 31
0.0
  0
ARC
  5
655A
330
1E
100
AcDbEntity
  8
10
  6
Continuous
100
AcDbCircle
 10
-89.99999999999998
 20
114.0
 30
0.0
 40
5.5
210
0.0
220
0.0
230
-1.0
100
AcDbArc
 50
180.0
 51
0.0
  0
LINE
  5
655B
330
1E
100
AcDbEntity
  8
24
  6
CONTINOUS
100
AcDbLine
 10
81.0000000000001
 20
114.0
 30
0.0
 11
98.99999999999998
 21
114.0
 31
0.0
  0
LINE
  5
655C
330
1E
100
AcDbEntity
  8
24
  6
CONTINOUS
100
AcDbLine
 10
89.99999999999998
 20
109.3811978464831
 30
0.0
 11
93.99999999999998
 21
111.6905989232414
 31
0.0
  0
LINE
  5
655D
330
1E
100
AcDbEntity
  8
24
  6
CONTINOUS
100
AcDbLine
 10
85.99999999999999
 20
111.6905989232414
 30
0.0
 11
89.99999999999998
 21
109.3811978464831
 31
0.0
  0
DIMENSION
  5
655E
330
1E
100
AcDbEntity
  8
30
  6
Continuous
100
AcDbDimension
  2
*D10
 10
-116.0
 20
-507.0
 30
0.0
 11
-119.4999999999997
 21
-400.0
 31
0.0
 70
    32
 71
     5
 42
-1.0
  3
STANDARD
100
AcDbAlignedDimension
 13
-29.5
 23
-293.0
 33
0.0
 14
-29.5
 24
-507.0
 34
0.0
 50
90.0
100
AcDbRotatedDimension
  0
DIMENSION
  5
656B
330
1E
100
AcDbEntity
  8
30
  6
Continuous
100
AcDbDimension
  2
*D11
 10
22.49999999999999
 20
-573.0
 30
0.0
 11
-0.0000000000000033
 21
-569.5
 31
0.0
 70
    32
 71
     5
 42
-1.0
  3
STANDARD
100
AcDbAlignedDimension
 13
-22.5
 23
-514.0
 33
0.0
 14
22.5
 24
-514.0
 34
0.0
100
AcDbRotatedDimension
  0
LEADER
  5
6578
330
1E
100
AcDbEntity
  8
30
  6
Continuous
100
AcDbLeader
  3
STANDARD
 76
     3
 10
25.14777470489898
 20
-500.9416939151058
 30
0.0
 10
28.51757401958218
 20
-489.5364243490304
 30
0.0
 10
59.290277156128
 20
-489.5927781609698
 30
0.0
1001
ACAD
1000
DSTYLE
1002
{
1070
     5
1000
OPEN
1070
   342
1005
3B2
1002
}
  0
LINE
  5
6579
330
1E
100
AcDbEntity
  8
12
  6
DASHDOT
100
AcDbLine
 10
18.18757812485796
 20
-506.9997558594
 30
0.0
 11
26.8383585275319
 21
-506.9997558594
 31
0.0
  0
TEXT
  5
657A
330
1E
100
AcDbEntity
  8
30
  6
Continuous
100
AcDbText
 10
40.50306764299683
 20
-489.2571764883533
 30
0.0
 40
5.0
  1
M6
100
AcDbText
  0
DIMENSION
  5
657B
330
1E
100
AcDbEntity
  8
30
  6
Continuous
100
AcDbDimension
  2
*D12
 10
213.0
 20
-446.0
 30
0.0
 11
209.5
 21
-399.9999999999998
 31
0.0
 70
    32
 71
     5
 42
-1.0
  3
STANDARD
100
AcDbAlignedDimension
 13
242.0
 23
-354.0
 33
0.0
 14
236.0
 24
-446.0
 34
0.0
 50
90.0
100
AcDbRotatedDimension
  0
DIMENSION
  5
6588
330
1E
100
AcDbEntity
  8
30
  6
Continuous
100
AcDbDimension
  2
*D13
 10
354.0
 20
-462.0
 30
0.0
 11
295.0
 21
-458.4999999999998
 31
0.0
 70
    32
 71
     5
 42
-1.0
  3
STANDARD
100
AcDbAlignedDimension
 13
236.0
 23
-446.0
 33
0.0
 14
354.0
 24
-446.0
 34
0.0
100
AcDbRotatedDimension
  0
DIMENSION
  5
65D8
330
1E
100
AcDbEntity
  8
30
  6
Continuous
100
AcDbDimension
  2
*D14
 10
242.0
 20
-440.0000000000002
 30
0.0
 11
205.8333333333325
 21
-465.9999999999998
 31
0.0
 70
   164
 71
     5
 42
-1.0
  3
STANDARD
100
AcDbRadialDimension
 15
237.4028507412452
 25
-443.8556735718588
 35
0.0
 40
0.0
1001
ACAD
1000
DSTYLE
1002
{
1070
   288
1070
     1
1002
}
  0
LINE
  5
675B
330
1E
100
AcDbEntity
  8
10
  6
Continuous
 62
     2
100
AcDbLine
 10
-18.5
 20
160.0
 30
0.0
 11
3.5
 21
160.0
 31
0.0
  0
LINE
  5
675C
330
1E
100
AcDbEntity
  8
10
  6
Continuous
100
AcDbLine
 10
-21.49999999999999
 20
174.5
 30
0.0
 11
6.5
 21
174.5
 31
0.0
  0
LINE
  5
675D
330
1E
100
AcDbEntity
  8
10
  6
Continuous
100
AcDbLine
 10
-53.5
 20
174.5
 30
0.0
 11
-53.5
 21
156.0
 31
0.0
  0
LINE
  5
675E
330
1E
100
AcDbEntity
  8
10
  6
Continuous
100
AcDbLine
 10
-81.5
 20
174.5
 30
0.0
 11
-81.5
 21
152.0
 31
0.0
  0
LINE
  5
675F
330
1E
100
AcDbEntity
  8
10
  6
Continuous
100
AcDbLine
 10
-81.5
 20
174.5
 30
0.0
 11
-53.5
 21
174.5
 31
0.0
  0
LINE
  5
6760
330
1E
100
AcDbEntity
  8
10
  6
Continuous
 62
     2
100
AcDbLine
 10
-78.5
 20
160.0
 30
0.0
 11
-56.5
 21
160.0
 31
0.0
  0
LINE
  5
6761
330
1E
100
AcDbEntity
  8
10
  6
Continuous
 62
     2
100
AcDbLine
 10
-67.5
 20
149.0
 30
0.0
 11
-67.5
 21
171.0
 31
0.0
  0
CIRCLE
  5
6762
330
1E
100
AcDbEntity
  8
10
  6
Continuous
 62
     2
100
AcDbCircle
 10
67.5
 20
160.0
 30
0.0
 40
7.0
210
0.0
220
0.0
230
-1.0
  0
LINE
  5
6763
330
1E
100
AcDbEntity
  8
10
  6
Continuous
100
AcDbLine
 10
-21.49999999999999
 20
174.5
 30
0.0
 11
-21.49999999999999
 21
150.0000000000003
 31
0.0
  0
LINE
  5
6764
330
1E
100
AcDbEntity
  8
10
  6
Continuous
100
AcDbLine
 10
-7.5
 20
149.0
 30
0.0
 11
-7.5
 21
171.0
 31
0.0
  0
CIRCLE
  5
6765
330
1E
100
AcDbEntity
  8
10
  6
Continuous
 62
     2
100
AcDbCircle
 10
7.5
 20
160.0
 30
0.0
 40
7.0
210
0.0
220
0.0
230
-1.0
  0
LINE
  5
6766
330
1E
100
AcDbEntity
  8
10
  6
Continuous
100
AcDbLine
 10
98.49999999999987
 20
174.5
 30
0.0
 11
126.4999999999997
 21
174.5
 31
0.0
  0
CIRCLE
  5
6767
330
1E
100
AcDbEntity
  8
10
  6
Continuous
 62
     2
100
AcDbCircle
 10
-112.4999999999998
 20
160.0
 30
0.0
 40
7.0
210
0.0
220
0.0
230
-1.0
  0
LINE
  5
6768
330
1E
100
AcDbEntity
  8
10
  6
Continuous
 62
     2
100
AcDbLine
 10
101.4999999999997
 20
160.0
 30
0.0
 11
123.4999999999996
 21
160.0
 31
0.0
  0
CIRCLE
  5
6769
330
1E
100
AcDbEntity
  8
10
  6
Continuous
 62
     2
100
AcDbCircle
 10
-52.49999999999989
 20
160.0
 30
0.0
 40
7.0
210
0.0
220
0.0
230
-1.0
  0
LINE
  5
676A
330
1E
100
AcDbEntity
  8
10
  6
Continuous
 62
     2
100
AcDbLine
 10
41.5
 20
160.0
 30
0.0
 11
63.49999999999988
 21
160.0
 31
0.0
  0
LINE
  5
676B
330
1E
100
AcDbEntity
  8
10
  6
Continuous
100
AcDbLine
 10
38.5
 20
174.5
 30
0.0
 11
66.49999999999988
 21
174.5
 31
0.0
  0
LINE
  5
676C
330
1E
100
AcDbEntity
  8
10
  6
Continuous
100
AcDbLine
 10
38.5
 20
174.5
 30
0.0
 11
38.5
 21
150.0000000000003
 31
0.0
  0
LINE
  5
676D
330
1E
100
AcDbEntity
  8
10
  6
Continuous
100
AcDbLine
 10
6.5
 20
174.5
 30
0.0
 11
6.5
 21
150.0000000000003
 31
0.0
  0
LINE
  5
676E
330
1E
100
AcDbEntity
  8
10
  6
Continuous
 62
     2
100
AcDbLine
 10
52.49999999999989
 20
149.0
 30
0.0
 11
52.49999999999989
 21
171.0
 31
0.0
  0
LINE
  5
676F
330
1E
100
AcDbEntity
  8
10
  6
Continuous
100
AcDbLine
 10
98.49999999999987
 20
174.5
 30
0.0
 11
98.50000000000001
 21
156.0
 31
0.0
  0
LINE
  5
6770
330
1E
100
AcDbEntity
  8
10
  6
Continuous
100
AcDbLine
 10
66.49999999999988
 20
174.5
 30
0.0
 11
66.5
 21
150.0000000000003
 31
0.0
  0
LINE
  5
6771
330
1E
100
AcDbEntity
  8
10
  6
Continuous
100
AcDbLine
 10
126.4999999999997
 20
174.5
 30
0.0
 11
126.5
 21
152.0
 31
0.0
  0
LINE
  5
6772
330
1E
100
AcDbEntity
  8
10
  6
Continuous
 62
     2
100
AcDbLine
 10
112.4999999999998
 20
149.0
 30
0.0
 11
112.4999999999998
 21
171.0
 31
0.0
  0
LINE
  5
6773
330
1E
100
AcDbEntity
  8
10
  6
Continuous
100
AcDbLine
 10
104.0
 20
130.0
 30
0.0
 11
126.5
 21
152.0
 31
0.0
  0
LINE
  5
6774
330
1E
100
AcDbEntity
  8
10
  6
Continuous
100
AcDbLine
 10
98.50000000000001
 20
156.0
 30
0.0
 11
76.0
 21
130.0
 31
0.0
  0
LINE
  5
6775
330
1E
100
AcDbEntity
  8
10
  6
Continuous
100
AcDbLine
 10
59.0
 20
130.0
 30
0.0
 11
66.5
 21
150.0000000000003
 31
0.0
  0
LINE
  5
6776
330
1E
100
AcDbEntity
  8
10
  6
Continuous
100
AcDbLine
 10
38.5
 20
150.0000000000003
 30
0.0
 11
31.0
 21
130.0
 31
0.0
  0
LINE
  5
6777
330
1E
100
AcDbEntity
  8
10
  6
Continuous
100
AcDbLine
 10
14.0
 20
130.0
 30
0.0
 11
6.5
 21
150.0000000000003
 31
0.0
  0
LINE
  5
6778
330
1E
100
AcDbEntity
  8
10
  6
Continuous
100
AcDbLine
 10
-21.49999999999999
 20
150.0000000000003
 30
0.0
 11
-14.0
 21
130.0
 31
0.0
  0
LINE
  5
6779
330
1E
100
AcDbEntity
  8
10
  6
Continuous
100
AcDbLine
 10
-31.0
 20
130.0
 30
0.0
 11
-53.5
 21
156.0
 31
0.0
  0
LINE
  5
677A
330
1E
100
AcDbEntity
  8
10
  6
Continuous
100
AcDbLine
 10
-81.5
 20
152.0
 30
0.0
 11
-59.0
 21
130.0
 31
0.0
  0
DIMENSION
  5
6782
330
1E
100
AcDbEntity
  8
30
  6
Continuous
100
AcDbDimension
  2
*D15
 10
214.8288705214254
 20
253.4330797827395
 30
0.0
 11
240.0
 21
282.0000000000001
 31
0.0
 70
   163
 71
     5
 42
-1.0
  3
STANDARD
100
AcDbDiametricDimension
 15
220.9585490543267
 25
262.5669202172605
 35
0.0
 40
0.0
1001
ACAD
1000
DSTYLE
1002
{
1070
   288
1070
     1
1002
}
  0
DIMENSION
  5
678E
330
1E
100
AcDbEntity
  8
30
  6
Continuous
100
AcDbDimension
  2
*D16
 10
197.9999999999999
 20
246.0
 30
0.0
 11
197.9999999999999
 21
252.0
 31
0.0
 70
   160
  1
12\PMAX
 71
     5
 42
-1.0
  3
STANDARD
100
AcDbAlignedDimension
 13
211.0
 23
258.0
 33
0.0
 14
205.0
 24
246.0
 34
0.0
 50
90.0
100
AcDbRotatedDimension
  0
DIMENSION
  5
679B
330
1E
100
AcDbEntity
  8
30
  6
Continuous
100
AcDbDimension
  2
*D17
 10
230.3937097878763
 20
227.0
 30
0.0
 11
217.8937097878762
 21
234.6666666666666
 31
0.0
 70
    32
  1
25\PMAX
 71
     5
 42
-1.0
  3
STANDARD
100
AcDbAlignedDimension
 13
205.3937097878762
 23
246.0
 33
0.0
 14
230.3937097878763
 24
246.0
 34
0.0
100
AcDbRotatedDimension
  0
LINE
  5
6A7E
330
1E
100
AcDbEntity
  8
18
100
AcDbLine
 10
-24.5
 20
130.0
 30
0.0
 11
-24.5
 21
239.9999999999999
 31
0.0
  0
LINE
  5
6A7F
330
1E
100
AcDbEntity
  8
18
100
AcDbLine
 10
-20.5
 20
130.0
 30
0.0
 11
-20.5
 21
239.9999999999999
 31
0.0
  0
LINE
  5
6A80
330
1E
100
AcDbEntity
  8
18
100
AcDbLine
 10
-24.5
 20
239.9999999999999
 30
0.0
 11
-20.5
 21
239.9999999999999
 31
0.0
  0
LINE
  5
6A81
330
1E
100
AcDbEntity
  8
18
100
AcDbLine
 10
24.5
 20
130.0
 30
0.0
 11
24.5
 21
239.9999999999999
 31
0.0
  0
LINE
  5
6A82
330
1E
100
AcDbEntity
  8
18
100
AcDbLine
 10
20.5
 20
130.0
 30
0.0
 11
20.5
 21
239.9999999999999
 31
0.0
  0
LINE
  5
6A83
330
1E
100
AcDbEntity
  8
18
100
AcDbLine
 10
20.5
 20
239.9999999999999
 30
0.0
 11
24.5
 21
239.9999999999999
 31
0.0
  0
LINE
  5
6A84
330
1E
100
AcDbEntity
  8
18
100
AcDbLine
 10
69.5
 20
130.0
 30
0.0
 11
69.5
 21
239.9999999999999
 31
0.0
  0
LINE
  5
6A85
330
1E
100
AcDbEntity
  8
18
100
AcDbLine
 10
65.5
 20
130.0
 30
0.0
 11
65.5
 21
239.9999999999999
 31
0.0
  0
LINE
  5
6A86
330
1E
100
AcDbEntity
  8
18
100
AcDbLine
 10
65.5
 20
239.9999999999999
 30
0.0
 11
69.5
 21
239.9999999999999
 31
0.0
  0
DIMENSION
  5
6AB4
330
1E
100
AcDbEntity
  8
30
  6
Continuous
100
AcDbDimension
  2
*D18
 10
-116.9999999999999
 20
159.9999999999996
 30
0.0
 11
-116.9999999999999
 21
168.0
 31
0.0
 70
   160
 71
     5
 42
-1.0
  3
STANDARD
100
AcDbAlignedDimension
 13
-85.00000000000005
 23
174.4999999999995
 33
0.0
 14
-82.00000000000004
 24
159.9999999999996
 34
0.0
 50
90.0
100
AcDbRotatedDimension
1001
ACAD
1000
DSTYLE
1002
{
1070
    79
1070
     3
1002
}
  0
DIMENSION
  5
6AB5
330
1E
100
AcDbEntity
  8
30
  6
Continuous
100
AcDbDimension
  2
*D19
 10
-116.9999999999999
 20
129.9999999999996
 30
0.0
 11
-120.4999999999998
 21
144.9999999999995
 31
0.0
 70
    32
 71
     5
 42
-1.0
  3
STANDARD
100
AcDbAlignedDimension
 13
-82.00000000000004
 23
159.9999999999996
 33
0.0
 14
-81.00000000000006
 24
129.9999999999996
 34
0.0
 50
90.0
100
AcDbRotatedDimension
1001
ACAD
1000
DSTYLE
1002
{
1070
   287
1070
     4
1070
   287
1070
     4
1070
   287
1070
     4
1070
   287
1070
     4
1070
   287
1070
     4
1070
   287
1070
     4
1070
   287
1070
     4
1070
   287
1070
     4
1070
   279
1070
     1
1070
    79
1070
     3
1002
}
  0
DIMENSION
  5
6AB6
330
1E
100
AcDbEntity
  8
30
  6
Continuous
100
AcDbDimension
  2
*D20
 10
-65.93432241072811
 20
153.0626343881255
 30
0.0
 11
-54.86963796348345
 21
184.4805147390155
 31
0.0
 70
   163
 71
     5
 42
-1.0
  3
STANDARD
100
AcDbDiametricDimension
 15
-64.06567758927178
 25
166.9373656118733
 35
0.0
 40
0.0
1001
ACAD
1000
DSTYLE
1002
{
1070
    79
1070
     3
1070
   288
1070
     1
1002
}
  0
DIMENSION
  5
6C23
330
1E
100
AcDbEntity
  8
30
  6
Continuous
100
AcDbDimension
  2
*D21
 10
260.0845851566905
 20
-187.0
 30
0.0
 11
256.0845851566905
 21
-183.4999999999999
 31
0.0
 70
    32
 71
     5
 42
-1.0
  3
STANDARD
100
AcDbAlignedDimension
 13
252.0845851566904
 23
-45.0
 33
0.0
 14
260.0845851566905
 24
-51.0
 34
0.0
100
AcDbRotatedDimension
1001
ACAD
1000
DSTYLE
1002
{
1070
    79
1070
     3
1002
}
  0
DIMENSION
  5
6C24
330
1E
100
AcDbEntity
  8
30
  6
Continuous
100
AcDbDimension
  2
*D22
 10
400.0845851566905
 20
-187.0
 30
0.0
 11
330.0845851566906
 21
-187.0
 31
0.0
 70
   160
 71
     5
 42
-1.0
  3
STANDARD
100
AcDbAlignedDimension
 13
260.0845851566905
 23
-52.0
 33
0.0
 14
400.0845851566905
 24
-131.0
 34
0.0
100
AcDbRotatedDimension
1001
ACAD
1000
DSTYLE
1002
{
1070
    79
1070
     3
1002
}
  0
LINE
  5
6C25
330
1E
100
AcDbEntity
  8
10
  6
CONTINOUS
100
AcDbLine
 10
266.0845851566906
 20
-51.0
 30
0.0
 11
266.0845851566906
 21
-130.0
 31
0.0
  0
LINE
  5
6C26
330
1E
100
AcDbEntity
  8
10
  6
CONTINOUS
100
AcDbLine
 10
400.0845851566905
 20
130.0
 30
0.0
 11
400.0845851566905
 21
-130.0
 31
0.0
  0
DIMENSION
  5
6C27
330
1E
100
AcDbEntity
  8
30
  6
Continuous
100
AcDbDimension
  2
*D23
 10
328.0845851566906
 20
-142.0
 30
0.0
 11
364.0845851566905
 21
-138.5
 31
0.0
 70
    32
 71
     5
 42
-1.0
  3
STANDARD
100
AcDbAlignedDimension
 13
400.0845851566905
 23
-130.0
 33
0.0
 14
328.0845851566906
 24
-130.0
 34
0.0
100
AcDbRotatedDimension
1001
ACAD
1000
DSTYLE
1002
{
1070
    79
1070
     3
1002
}
  0
LINE
  5
6C2B
330
1E
100
AcDbEntity
  8
10
  6
CONTINOUS
100
AcDbLine
 10
266.0845851566906
 20
-130.0
 30
0.0
 11
400.0845851566905
 21
-130.0
 31
0.0
  0
DIMENSION
  5
6C3F
330
1E
100
AcDbEntity
  8
30
  6
Continuous
100
AcDbDimension
  2
*D24
 10
325.0845851566906
 20
197.0
 30
0.0
 11
362.5845851566905
 21
200.4999999999999
 31
0.0
 70
    32
 71
     5
 42
-1.0
  3
STANDARD
100
AcDbAlignedDimension
 13
400.0845851566905
 23
130.0
 33
0.0
 14
325.0845851566906
 24
174.5
 34
0.0
100
AcDbRotatedDimension
1001
ACAD
1000
DSTYLE
1002
{
1070
    79
1070
     3
1002
}
  0
LINE
  5
6C40
330
1E
100
AcDbEntity
  8
10
  6
CONTINOUS
100
AcDbLine
 10
400.0845851566905
 20
130.0
 30
0.0
 11
266.0845851566906
 21
130.0
 31
0.0
  0
LINE
  5
6C41
330
1E
100
AcDbEntity
  8
10
  6
CONTINOUS
100
AcDbLine
 10
266.0845851566906
 20
130.0
 30
0.0
 11
266.0845851566906
 21
51.00000000000004
 31
0.0
  0
LINE
  5
6C43
330
1E
100
AcDbEntity
  8
10
  6
CONTINOUS
100
AcDbLine
 10
252.0845851566904
 20
17.03370272535227
 30
0.0
 11
221.4335970542383
 21
28.03853193396577
 31
0.0
  0
LINE
  5
6C44
330
1E
100
AcDbEntity
  8
10
  6
CONTINOUS
100
AcDbLine
 10
260.0845851566905
 20
51.00000000000004
 30
0.0
 11
260.0845851566905
 21
-51.0
 31
0.0
  0
LINE
  5
6C45
330
1E
100
AcDbEntity
  8
10
  6
CONTINOUS
100
AcDbLine
 10
252.0845851566904
 20
44.99999999999993
 30
0.0
 11
252.0845851566904
 21
-45.0
 31
0.0
  0
LINE
  5
6C46
330
1E
100
AcDbEntity
  8
10
  6
CONTINOUS
100
AcDbLine
 10
256.0845851566905
 20
44.99999999999993
 30
0.0
 11
256.0845851566905
 21
-45.0
 31
0.0
  0
LINE
  5
6C48
330
1E
100
AcDbEntity
  8
10
  6
CONTINOUS
100
AcDbLine
 10
260.0845851566905
 20
-51.0
 30
0.0
 11
266.0845851566906
 21
-51.0
 31
0.0
  0
LINE
  5
6C49
330
1E
100
AcDbEntity
  8
10
  6
CONTINOUS
100
AcDbLine
 10
252.0845851566904
 20
-45.0
 30
0.0
 11
260.0845851566905
 21
-45.0
 31
0.0
  0
LINE
  5
6C4A
330
1E
100
AcDbEntity
  8
10
  6
CONTINOUS
100
AcDbLine
 10
252.0845851566904
 20
27.65870786562459
 30
0.0
 11
241.2833445012581
 21
31.53674952147122
 31
0.0
  0
LINE
  5
6C4B
330
1E
100
AcDbEntity
  8
10
  6
CONTINOUS
100
AcDbLine
 10
252.0845851566904
 20
19.15870375340688
 30
0.0
 11
238.5800107572314
 21
24.00734139942032
 31
0.0
  0
LINE
  5
6C4C
330
1E
100
AcDbEntity
  8
10
  6
CONTINOUS
100
AcDbLine
 10
252.0845851566904
 20
29.78370889367914
 30
0.0
 11
225.4885976702782
 21
39.3326441170422
 31
0.0
  0
LINE
  5
6C4D
330
1E
100
AcDbEntity
  8
10
  6
CONTINOUS
100
AcDbLine
 10
225.4885976702782
 20
39.3326441170422
 30
0.0
 11
221.4335970542382
 21
28.03853193396566
 31
0.0
  0
LINE
  5
6C4E
330
1E
100
AcDbEntity
  8
10
  6
CONTINOUS
100
AcDbLine
 10
241.2833445012581
 20
31.53674952147138
 30
0.0
 11
238.5800107572314
 21
24.00734139942044
 31
0.0
  0
LINE
  5
6C4F
330
1E
100
AcDbEntity
  8
10
  6
CONTINOUS
100
AcDbLine
 10
260.0845851566905
 20
51.00000000000004
 30
0.0
 11
266.0845851566906
 21
51.00000000000004
 31
0.0
  0
LINE
  5
6C50
330
1E
100
AcDbEntity
  8
10
  6
CONTINOUS
100
AcDbLine
 10
252.0845851566904
 20
44.99999999999993
 30
0.0
 11
260.0845851566905
 21
44.99999999999993
 31
0.0
  0
MTEXT
  5
6C52
330
1E
100
AcDbEntity
  8
30
  6
Continuous
100
AcDbMText
 10
-185.3586564206755
 20
136.8087179895958
 30
0.0
 40
4.0
 41
0.0
 71
     9
 72
     1
  1
\A1;
 73
     1
 44
1.0
1001
ACAD
1000
MTEXTBEGIN
1070
    73
1070
     1
1070
    44
1040
1.0
1070
    74
1070
     0
1000
MTEXTEND
1000
MTEXTBEGIN
1070
    73
1070
     1
1070
    44
1040
1.0
1070
    74
1070
     0
1000
MTEXTEND
  0
DIMENSION
  5
6D53
330
1E
100
AcDbEntity
  8
30
  6
Continuous
100
AcDbDimension
  2
*D25
 10
138.5776353808503
 20
374.9333130972177
 30
0.0
 11
173.0
 21
407.4676640653787
 31
0.0
 70
   160
  1
ON SIDE 75\POFF SIDE 72
 71
     5
 42
-1.0
  3
STANDARD
100
AcDbAlignedDimension
 13
115.0000062386228
 23
448.9333130972179
 33
0.0
 14
108.5049008567168
 24
374.9333130972177
 34
0.0
 50
90.0
100
AcDbRotatedDimension
1001
ACAD
1000
DSTYLE
1002
{
1070
   287
1070
     5
1070
   287
1070
     5
1070
   287
1070
     5
1070
   287
1070
     5
1070
   287
1070
     5
1070
   287
1070
     5
1070
   287
1070
     5
1070
   287
1070
     5
1070
   279
1070
     2
1070
    79
1070
     3
1002
}
  0
DIMENSION
  5
6D54
330
1E
100
AcDbEntity
  8
30
  6
Continuous
100
AcDbDimension
  2
*D26
 10
45.00006103516012
 20
463.7475094850271
 30
0.0
 11
22.50005073292289
 21
467.2475094850271
 31
0.0
 70
    32
 71
     5
 42
-1.0
  3
STANDARD
100
AcDbAlignedDimension
 13
0.0000404306856777
 23
381.0152968472962
 33
0.0
 14
45.00006103516011
 24
374.9333130972177
 34
0.0
100
AcDbRotatedDimension
1001
ACAD
1000
DSTYLE
1002
{
1070
   287
1070
     4
1070
   287
1070
     4
1070
   287
1070
     4
1070
   287
1070
     4
1070
   287
1070
     4
1070
   287
1070
     4
1070
   287
1070
     4
1070
   287
1070
     4
1070
   279
1070
     1
1070
    79
1070
     3
1002
}
  0
LINE
  5
6D55
330
1E
100
AcDbEntity
  8
10
  6
CONTINOUS
100
AcDbLine
 10
115.00006103516
 20
448.9333130972179
 30
0.0
 11
-69.99994520346287
 21
448.9333130972179
 31
0.0
  0
LINE
  5
6D56
330
1E
100
AcDbEntity
  8
10
  6
CONTINOUS
100
AcDbLine
 10
58.00005479653709
 20
303.9333130972178
 30
0.0
 11
-57.99994520346288
 21
303.9333130972178
 31
0.0
  0
LINE
  5
6D57
330
1E
100
AcDbEntity
  8
10
  6
CONTINOUS
100
AcDbLine
 10
115.00006103516
 20
307.9333130972178
 30
0.0
 11
-69.99994520346288
 21
307.9333130972178
 31
0.0
  0
LINE
  5
6D58
330
1E
100
AcDbEntity
  8
10
  6
CONTINOUS
100
AcDbLine
 10
115.00006103516
 20
313.9333130972179
 30
0.0
 11
-69.99994520346288
 21
313.9333130972179
 31
0.0
  0
DIMENSION
  5
6D59
330
1E
100
AcDbEntity
  8
30
  6
Continuous
100
AcDbDimension
  2
*D27
 10
0.0000404306856828
 20
463.7475094850271
 30
0.0
 11
-22.4999492670771
 21
467.2475094850271
 31
0.0
 70
    32
 71
     5
 42
-1.0
  3
STANDARD
100
AcDbAlignedDimension
 13
-44.9999389648399
 23
381.0152968472962
 33
0.0
 14
0.0000404306856777
 24
381.0152968472962
 34
0.0
100
AcDbRotatedDimension
1001
ACAD
1000
DSTYLE
1002
{
1070
   287
1070
     4
1070
   287
1070
     4
1070
   287
1070
     4
1070
   287
1070
     4
1070
   287
1070
     4
1070
   287
1070
     4
1070
   287
1070
     4
1070
   287
1070
     4
1070
   279
1070
     1
1070
    79
1070
     3
1002
}
  0
DIMENSION
  5
6D5A
330
1E
100
AcDbEntity
  8
30
  6
Continuous
100
AcDbDimension
  2
*D28
 10
-44.9999389648399
 20
463.7475094850271
 30
0.0
 11
-57.49994208415138
 21
467.2475094850271
 31
0.0
 70
    32
 71
     5
 42
-1.0
  3
STANDARD
100
AcDbAlignedDimension
 13
-69.99994520346287
 23
448.9333130972179
 33
0.0
 14
-44.9999389648399
 24
381.0152968472962
 34
0.0
100
AcDbRotatedDimension
1001
ACAD
1000
DSTYLE
1002
{
1070
    79
1070
     3
1002
}
  0
LINE
  5
6D5B
330
1E
100
AcDbEntity
  8
10
  6
CONTINOUS
100
AcDbLine
 10
-69.99994520346288
 20
307.9333130972178
 30
0.0
 11
-69.99994520346287
 21
448.9333130972179
 31
0.0
  0
LINE
  5
6D5C
330
1E
100
AcDbEntity
  8
24
  6
CONTINOUS
100
AcDbLine
 10
-54.03418941349992
 20
366.0333130972178
 30
0.0
 11
-36.23418941349999
 21
366.0333130972178
 31
0.0
  0
LINE
  5
6D5D
330
1E
100
AcDbEntity
  8
24
  6
CONTINOUS
100
AcDbLine
 10
-54.33418941349993
 20
372.4333130972177
 30
0.0
 11
-35.93418941349999
 21
372.4333130972177
 31
0.0
  0
LINE
  5
6D5E
330
1E
100
AcDbEntity
  8
17
  6
DASHDOT
100
AcDbLine
 10
-32.64056396483987
 20
377.9998779297
 30
0.0
 11
-57.35931396483987
 21
377.9998779297
 31
0.0
  0
LINE
  5
6D5F
330
1E
100
AcDbEntity
  8
17
  6
DASHDOT
100
AcDbLine
 10
-32.33414058539994
 20
377.9998779297
 30
0.0
 11
-57.33414058539995
 21
377.9998779297
 31
0.0
  0
LINE
  5
6D60
330
1E
100
AcDbEntity
  8
24
  6
CONTINOUS
100
AcDbLine
 10
-59.13418941349995
 20
377.9998779297
 30
0.0
 11
-31.13418941349992
 21
377.9998779297
 31
0.0
  0
LWPOLYLINE
  5
6D61
330
1E
100
AcDbEntity
  8
24
  6
CONTINOUS
100
AcDbPolyline
 90
        2
 70
     0
 43
0.001
 10
-59.13418941349995
 20
374.9333130972177
 10
-31.13418941349995
 20
374.9333130972177
  0
LWPOLYLINE
  5
6D62
330
1E
100
AcDbEntity
  8
10
  6
CONTINOUS
100
AcDbPolyline
 90
        4
 70
     0
 43
0.0
 10
-59.13418941349995
 20
375.9998779297
 10
-59.13418941349995
 20
319.9333130972178
 10
-31.13418941349996
 20
319.9333130972178
 10
-31.13418941349995
 20
375.9998779297
  0
LINE
  5
6D63
330
1E
100
AcDbEntity
  8
10
  6
CONTINOUS
100
AcDbLine
 10
-57.99994520346288
 20
303.9333130972178
 30
0.0
 11
-57.99994520346288
 21
307.9333130972178
 31
0.0
  0
LINE
  5
6D64
330
1E
100
AcDbEntity
  8
24
  6
CONTINOUS
100
AcDbLine
 10
-54.03418941349992
 20
366.0333130972178
 30
0.0
 11
-54.03418941349992
 21
372.4333130972177
 31
0.0
  0
LINE
  5
6D65
330
1E
100
AcDbEntity
  8
24
  6
CONTINOUS
100
AcDbLine
 10
-54.33418941349993
 20
372.4333130972177
 30
0.0
 11
-54.33418941349993
 21
374.9333130972177
 31
0.0
  0
LWPOLYLINE
  5
6D66
330
1E
100
AcDbEntity
  8
24
  6
CONTINOUS
100
AcDbPolyline
 90
        2
 70
     0
 43
0.001
 10
-59.13418941349995
 20
377.9998779297
 10
-59.13418941349995
 20
374.9333130972177
  0
LWPOLYLINE
  5
6D67
330
1E
100
AcDbEntity
  8
10
  6
CONTINOUS
100
AcDbPolyline
 90
        4
 70
     0
 43
0.0
 10
-14.13418941349994
 20
375.9998779297
 10
-14.13418941349996
 20
319.9333130972178
 10
13.86581058650001
 20
319.9333130972178
 10
13.86581058650001
 20
375.9998779297
  0
LINE
  5
6D68
330
1E
100
AcDbEntity
  8
10
  6
CONTINOUS
100
AcDbLine
 10
18.0000547965371
 20
299.9333130972178
 30
0.0
 11
-17.9999452034628
 21
299.9333130972178
 31
0.0
  0
LINE
  5
6D69
330
1E
100
AcDbEntity
  8
10
  6
CONTINOUS
100
AcDbLine
 10
-17.9999452034628
 20
299.9333130972178
 30
0.0
 11
-17.9999452034628
 21
303.9333130972178
 31
0.0
  0
LINE
  5
6D6A
330
1E
100
AcDbEntity
  8
10
  6
CONTINOUS
100
AcDbLine
 10
18.0000547965371
 20
299.9333130972178
 30
0.0
 11
18.0000547965371
 21
303.9333130972178
 31
0.0
  0
LINE
  5
6D6B
330
1E
100
AcDbEntity
  8
24
  6
CONTINOUS
100
AcDbLine
 10
-35.09789058539991
 20
377.9998779297
 30
0.0
 11
-48.57039058539998
 21
377.9998779297
 31
0.0
  0
LINE
  5
6D6C
330
1E
100
AcDbEntity
  8
24
  6
CONTINOUS
100
AcDbLine
 10
-50.81719954282266
 20
377.9998779297
 30
0.0
 11
-50.81719954282266
 21
374.9333130972177
 31
0.0
  0
LINE
  5
6D6D
330
1E
100
AcDbEntity
  8
24
  6
CONTINOUS
100
AcDbLine
 10
-36.23418941349999
 20
366.0333130972178
 30
0.0
 11
-36.23418941349999
 21
372.4333130972177
 31
0.0
  0
LINE
  5
6D6E
330
1E
100
AcDbEntity
  8
24
  6
CONTINOUS
100
AcDbLine
 10
-35.93418941349999
 20
372.4333130972177
 30
0.0
 11
-35.93418941349999
 21
374.9333130972177
 31
0.0
  0
LINE
  5
6D6F
330
1E
100
AcDbEntity
  8
24
  6
CONTINOUS
100
AcDbLine
 10
-39.18267838685709
 20
377.9998779297
 30
0.0
 11
-39.18267838685709
 21
374.9333130972177
 31
0.0
  0
LWPOLYLINE
  5
6D70
330
1E
100
AcDbEntity
  8
24
  6
CONTINOUS
100
AcDbPolyline
 90
        2
 70
     0
 43
0.001
 10
-31.13418941349995
 20
377.9998779297
 10
-31.13418941349995
 20
374.9333130972177
  0
LINE
  5
6D71
330
1E
100
AcDbEntity
  8
24
  6
CONTINOUS
100
AcDbLine
 10
-9.034189413499923
 20
366.0333130972178
 30
0.0
 11
8.765810586499972
 21
366.0333130972178
 31
0.0
  0
LINE
  5
6D72
330
1E
100
AcDbEntity
  8
24
  6
CONTINOUS
100
AcDbLine
 10
-9.334189413499935
 20
372.4333130972177
 30
0.0
 11
9.065810586499983
 21
372.4333130972177
 31
0.0
  0
LINE
  5
6D73
330
1E
100
AcDbEntity
  8
17
  6
DASHDOT
100
AcDbLine
 10
6.359436035160113
 20
377.9998779297
 30
0.0
 11
-12.35931396483988
 21
377.9998779297
 31
0.0
  0
LINE
  5
6D74
330
1E
100
AcDbEntity
  8
17
  6
DASHDOT
100
AcDbLine
 10
6.665859414600047
 20
377.9998779297
 30
0.0
 11
-12.33414058539993
 21
377.9998779297
 31
0.0
  0
LINE
  5
6D75
330
1E
100
AcDbEntity
  8
24
  6
CONTINOUS
100
AcDbLine
 10
-14.13418941349993
 20
377.9998779297
 30
0.0
 11
13.86581058650001
 21
377.9998779297
 31
0.0
  0
LWPOLYLINE
  5
6D76
330
1E
100
AcDbEntity
  8
24
  6
CONTINOUS
100
AcDbPolyline
 90
        2
 70
     0
 43
0.001
 10
-14.13418941349994
 20
374.9333130972177
 10
13.86581058650001
 20
374.9333130972177
  0
LINE
  5
6D77
330
1E
100
AcDbEntity
  8
24
  6
CONTINOUS
100
AcDbLine
 10
3.902109414600088
 20
377.9998779297
 30
0.0
 11
-9.570390585399993
 21
377.9998779297
 31
0.0
  0
LINE
  5
6D78
330
1E
100
AcDbEntity
  8
24
  6
CONTINOUS
100
AcDbLine
 10
-9.034189413499923
 20
366.0333130972178
 30
0.0
 11
-9.034189413499923
 21
372.4333130972177
 31
0.0
  0
LINE
  5
6D79
330
1E
100
AcDbEntity
  8
24
  6
CONTINOUS
100
AcDbLine
 10
-9.334189413499935
 20
372.4333130972177
 30
0.0
 11
-9.334189413499935
 21
374.9333130972177
 31
0.0
  0
LWPOLYLINE
  5
6D7A
330
1E
100
AcDbEntity
  8
24
  6
CONTINOUS
100
AcDbPolyline
 90
        2
 70
     0
 43
0.001
 10
-14.13418941349994
 20
377.9998779297
 10
-14.13418941349994
 20
374.9333130972177
  0
LINE
  5
6D7B
330
1E
100
AcDbEntity
  8
24
  6
CONTINOUS
100
AcDbLine
 10
-5.817199542822661
 20
377.9998779297
 30
0.0
 11
-5.817199542822661
 21
374.9333130972177
 31
0.0
  0
LINE
  5
6D7C
330
1E
100
AcDbEntity
  8
24
  6
CONTINOUS
100
AcDbLine
 10
8.765810586499972
 20
366.0333130972178
 30
0.0
 11
8.765810586499972
 21
372.4333130972177
 31
0.0
  0
LINE
  5
6D7D
330
1E
100
AcDbEntity
  8
24
  6
CONTINOUS
100
AcDbLine
 10
9.065810586499983
 20
372.4333130972177
 30
0.0
 11
9.065810586499983
 21
374.9333130972177
 31
0.0
  0
LINE
  5
6D7E
330
1E
100
AcDbEntity
  8
24
  6
CONTINOUS
100
AcDbLine
 10
5.817321613142891
 20
377.9998779297
 30
0.0
 11
5.817321613142891
 21
374.9333130972177
 31
0.0
  0
LWPOLYLINE
  5
6D7F
330
1E
100
AcDbEntity
  8
24
  6
CONTINOUS
100
AcDbPolyline
 90
        2
 70
     0
 43
0.001
 10
13.86581058650001
 20
377.9998779297
 10
13.86581058650001
 20
374.9333130972177
  0
DIMENSION
  5
6D80
330
1E
100
AcDbEntity
  8
30
  6
Continuous
100
AcDbDimension
  2
*D29
 10
90.00006103516012
 20
463.7475094850271
 30
0.0
 11
67.5000507329229
 21
467.2475094850271
 31
0.0
 70
    32
 71
     5
 42
-1.0
  3
STANDARD
100
AcDbAlignedDimension
 13
45.00004043068567
 23
381.0152968472962
 33
0.0
 14
90.00006103516012
 24
374.9333130972177
 34
0.0
100
AcDbRotatedDimension
1001
ACAD
1000
DSTYLE
1002
{
1070
   287
1070
     4
1070
   287
1070
     4
1070
   287
1070
     4
1070
   287
1070
     4
1070
   287
1070
     4
1070
   287
1070
     4
1070
   287
1070
     4
1070
   287
1070
     4
1070
   279
1070
     1
1070
    79
1070
     3
1002
}
  0
LINE
  5
6D81
330
1E
100
AcDbEntity
  8
10
  6
CONTINOUS
100
AcDbLine
 10
115.00006103516
 20
307.9333130972178
 30
0.0
 11
115.00006103516
 21
448.9333130972179
 31
0.0
  0
LINE
  5
6D82
330
1E
100
AcDbEntity
  8
24
  6
CONTINOUS
100
AcDbLine
 10
93.90210941460006
 20
377.9998779297
 30
0.0
 11
86.42960941460001
 21
377.9998779297
 31
0.0
  0
LINE
  5
6D83
330
1E
100
AcDbEntity
  8
24
  6
CONTINOUS
100
AcDbLine
 10
80.96581058650007
 20
366.0333130972178
 30
0.0
 11
98.7658105865
 21
366.0333130972178
 31
0.0
  0
LINE
  5
6D84
330
1E
100
AcDbEntity
  8
24
  6
CONTINOUS
100
AcDbLine
 10
80.66581058650005
 20
372.4333130972177
 30
0.0
 11
99.06581058649999
 21
372.4333130972177
 31
0.0
  0
LINE
  5
6D85
330
1E
100
AcDbEntity
  8
17
  6
DASHDOT
100
AcDbLine
 10
102.6658594146
 20
377.9998779297
 30
0.0
 11
77.66585941460005
 21
377.9998779297
 31
0.0
  0
LINE
  5
6D86
330
1E
100
AcDbEntity
  8
17
  6
DASHDOT
100
AcDbLine
 10
102.3594360351601
 20
377.9998779297
 30
0.0
 11
77.64068603516012
 21
377.9998779297
 31
0.0
  0
LWPOLYLINE
  5
6D87
330
1E
100
AcDbEntity
  8
24
  6
CONTINOUS
100
AcDbPolyline
 90
        2
 70
     0
 43
0.001
 10
75.86581058650006
 20
374.9333130972177
 10
103.8658105864999
 20
374.9333130972177
  0
LINE
  5
6D88
330
1E
100
AcDbEntity
  8
24
  6
CONTINOUS
100
AcDbLine
 10
75.86581058650006
 20
377.9998779297
 30
0.0
 11
103.8658105864999
 21
377.9998779297
 31
0.0
  0
LWPOLYLINE
  5
6D89
330
1E
100
AcDbEntity
  8
10
  6
CONTINOUS
100
AcDbPolyline
 90
        4
 70
     0
 43
0.0
 10
75.86581058650006
 20
375.9998779297
 10
75.86581058650003
 20
319.9333130972178
 10
103.8658105864999
 20
319.9333130972178
 10
103.8658105864999
 20
375.9998779297
  0
LWPOLYLINE
  5
6D8A
330
1E
100
AcDbEntity
  8
10
  6
CONTINOUS
100
AcDbPolyline
 90
        4
 70
     0
 43
0.0
 10
30.86581058650004
 20
375.9998779297
 10
30.86581058650002
 20
319.9333130972178
 10
58.8658105865
 20
319.9333130972178
 10
58.86581058650005
 20
375.9998779297
  0
LINE
  5
6D8B
330
1E
100
AcDbEntity
  8
10
  6
CONTINOUS
100
AcDbLine
 10
58.00005479653709
 20
303.9333130972178
 30
0.0
 11
58.00005479653709
 21
307.9333130972178
 31
0.0
  0
LINE
  5
6D8C
330
1E
100
AcDbEntity
  8
24
  6
CONTINOUS
100
AcDbLine
 10
30.86581058650005
 20
377.9998779297
 30
0.0
 11
58.86581058650005
 21
377.9998779297
 31
0.0
  0
LWPOLYLINE
  5
6D8D
330
1E
100
AcDbEntity
  8
24
  6
CONTINOUS
100
AcDbPolyline
 90
        2
 70
     0
 43
0.001
 10
30.86581058650004
 20
374.9333130972177
 10
58.86581058650005
 20
374.9333130972177
  0
LINE
  5
6D8E
330
1E
100
AcDbEntity
  8
17
  6
DASHDOT
100
AcDbLine
 10
57.35943603516012
 20
377.9998779297
 30
0.0
 11
32.6406860351601
 21
377.9998779297
 31
0.0
  0
LINE
  5
6D8F
330
1E
100
AcDbEntity
  8
17
  6
DASHDOT
100
AcDbLine
 10
57.66585941460004
 20
377.9998779297
 30
0.0
 11
32.66585941460005
 21
377.9998779297
 31
0.0
  0
LINE
  5
6D90
330
1E
100
AcDbEntity
  8
24
  6
CONTINOUS
100
AcDbLine
 10
35.66581058650003
 20
372.4333130972177
 30
0.0
 11
54.06581058649996
 21
372.4333130972177
 31
0.0
  0
LINE
  5
6D91
330
1E
100
AcDbEntity
  8
24
  6
CONTINOUS
100
AcDbLine
 10
35.96581058650007
 20
366.0333130972178
 30
0.0
 11
53.76581058649996
 21
366.0333130972178
 31
0.0
  0
LWPOLYLINE
  5
6D92
330
1E
100
AcDbEntity
  8
24
  6
CONTINOUS
100
AcDbPolyline
 90
        2
 70
     0
 43
0.001
 10
30.86581058650004
 20
377.9998779297
 10
30.86581058650004
 20
374.9333130972177
  0
LINE
  5
6D93
330
1E
100
AcDbEntity
  8
24
  6
CONTINOUS
100
AcDbLine
 10
35.66581058650003
 20
372.4333130972177
 30
0.0
 11
35.66581058650003
 21
374.9333130972177
 31
0.0
  0
LINE
  5
6D94
330
1E
100
AcDbEntity
  8
24
  6
CONTINOUS
100
AcDbLine
 10
35.96581058650007
 20
366.0333130972178
 30
0.0
 11
35.96581058650007
 21
372.4333130972177
 31
0.0
  0
LINE
  5
6D95
330
1E
100
AcDbEntity
  8
24
  6
CONTINOUS
100
AcDbLine
 10
48.90210941460008
 20
377.9998779297
 30
0.0
 11
41.42960941460001
 21
377.9998779297
 31
0.0
  0
LINE
  5
6D96
330
1E
100
AcDbEntity
  8
24
  6
CONTINOUS
100
AcDbLine
 10
39.18280045717731
 20
377.9998779297
 30
0.0
 11
39.18280045717731
 21
374.9333130972177
 31
0.0
  0
LINE
  5
6D97
330
1E
100
AcDbEntity
  8
24
  6
CONTINOUS
100
AcDbLine
 10
50.81732161314288
 20
377.9998779297
 30
0.0
 11
50.81732161314288
 21
374.9333130972177
 31
0.0
  0
LINE
  5
6D98
330
1E
100
AcDbEntity
  8
24
  6
CONTINOUS
100
AcDbLine
 10
54.06581058649996
 20
372.4333130972177
 30
0.0
 11
54.06581058649996
 21
374.9333130972177
 31
0.0
  0
LINE
  5
6D99
330
1E
100
AcDbEntity
  8
24
  6
CONTINOUS
100
AcDbLine
 10
53.76581058649996
 20
366.0333130972178
 30
0.0
 11
53.76581058649996
 21
372.4333130972177
 31
0.0
  0
LWPOLYLINE
  5
6D9A
330
1E
100
AcDbEntity
  8
24
  6
CONTINOUS
100
AcDbPolyline
 90
        2
 70
     0
 43
0.001
 10
58.86581058650005
 20
377.9998779297
 10
58.86581058650005
 20
374.9333130972177
  0
LINE
  5
6D9B
330
1E
100
AcDbEntity
  8
24
  6
CONTINOUS
100
AcDbLine
 10
80.96581058650007
 20
366.0333130972178
 30
0.0
 11
80.96581058650007
 21
372.4333130972177
 31
0.0
  0
LINE
  5
6D9C
330
1E
100
AcDbEntity
  8
24
  6
CONTINOUS
100
AcDbLine
 10
80.66581058650005
 20
372.4333130972177
 30
0.0
 11
80.66581058650005
 21
374.9333130972177
 31
0.0
  0
LWPOLYLINE
  5
6D9D
330
1E
100
AcDbEntity
  8
24
  6
CONTINOUS
100
AcDbPolyline
 90
        2
 70
     0
 43
0.001
 10
75.86581058650006
 20
377.9998779297
 10
75.86581058650006
 20
374.9333130972177
  0
LINE
  5
6D9E
330
1E
100
AcDbEntity
  8
24
  6
CONTINOUS
100
AcDbLine
 10
84.18280045717731
 20
377.9998779297
 30
0.0
 11
84.18280045717731
 21
374.9333130972177
 31
0.0
  0
LINE
  5
6D9F
330
1E
100
AcDbEntity
  8
24
  6
CONTINOUS
100
AcDbLine
 10
98.7658105865
 20
366.0333130972178
 30
0.0
 11
98.7658105865
 21
372.4333130972177
 31
0.0
  0
LINE
  5
6DA0
330
1E
100
AcDbEntity
  8
24
  6
CONTINOUS
100
AcDbLine
 10
99.06581058649999
 20
372.4333130972177
 30
0.0
 11
99.06581058649999
 21
374.9333130972177
 31
0.0
  0
LINE
  5
6DA1
330
1E
100
AcDbEntity
  8
24
  6
CONTINOUS
100
AcDbLine
 10
95.81732161314285
 20
377.9998779297
 30
0.0
 11
95.81732161314285
 21
374.9333130972177
 31
0.0
  0
LWPOLYLINE
  5
6DA2
330
1E
100
AcDbEntity
  8
24
  6
CONTINOUS
100
AcDbPolyline
 90
        2
 70
     0
 43
0.001
 10
103.8658105864999
 20
377.9998779297
 10
103.8658105864999
 20
374.9333130972177
  0
DIMENSION
  5
6DA3
330
1E
100
AcDbEntity
  8
30
  6
Continuous
100
AcDbDimension
  2
*D30
 10
115.00006103516
 20
463.7475094850271
 30
0.0
 11
102.5000610351599
 21
467.2475094850271
 31
0.0
 70
    32
 71
     5
 42
-1.0
  3
STANDARD
100
AcDbAlignedDimension
 13
90.0000610351601
 23
448.9333130972179
 33
0.0
 14
115.00006103516
 24
448.9333130972179
 34
0.0
100
AcDbRotatedDimension
1001
ACAD
1000
DSTYLE
1002
{
1070
    79
1070
     3
1002
}
  0
MTEXT
  5
6DA4
330
1E
100
AcDbEntity
  8
19
  6
Continuous
100
AcDbMText
 10
213.9257296217802
 20
370.1377666366818
 30
0.0
 40
5.0
 41
94.44410000000001
 71
     1
 72
     5
  1
H400-NE 4F FC + BAR\PL400-NE 4P FC + BAR
  7
STANDARD1
 73
     1
 44
1.0
1001
ACAD
1000
MTEXTBEGIN
1070
    73
1070
     1
1070
    44
1040
1.0
1070
    74
1070
     0
1000
MTEXTEND
1000
MTEXTBEGIN
1070
    73
1070
     1
1070
    44
1040
1.0
1070
    74
1070
     0
1000
MTEXTEND
  0
LINE
  5
6DA5
330
1E
100
AcDbEntity
  8
10
  6
CONTINOUS
100
AcDbLine
 10
17.00005479653716
 20
271.4333130972178
 30
0.0
 11
17.00005479653716
 21
299.9333130972178
 31
0.0
  0
LINE
  5
6DA6
330
1E
100
AcDbEntity
  8
10
  6
CONTINOUS
100
AcDbLine
 10
-16.99994520346297
 20
271.4333130972178
 30
0.0
 11
-16.99994520346297
 21
299.9333130972178
 31
0.0
  0
LINE
  5
6DA7
330
1E
100
AcDbEntity
  8
10
  6
CONTINOUS
100
AcDbLine
 10
17.00005479653716
 20
271.4333130972178
 30
0.0
 11
-16.99994520346297
 21
271.4333130972178
 31
0.0
  0
LINE
  5
6E3C
330
1E
100
AcDbEntity
  8
10
  6
Continuous
100
AcDbLine
 10
325.0845851566906
 20
174.5
 30
0.0
 11
325.0845851566906
 21
130.0
 31
0.0
  0
LINE
  5
6E3D
330
1E
100
AcDbEntity
  8
10
  6
Continuous
100
AcDbLine
 10
317.0845851566906
 20
174.5
 30
0.0
 11
317.0845851566906
 21
130.0
 31
0.0
  0
LINE
  5
6E3E
330
1E
100
AcDbEntity
  8
10
  6
Continuous
 62
     2
100
AcDbLine
 10
309.0845851566906
 20
160.0
 30
0.0
 11
333.0845851566906
 21
160.0
 31
0.0
  0
LINE
  5
6E3F
330
1E
100
AcDbEntity
  8
10
  6
Continuous
100
AcDbLine
 10
317.0845851566906
 20
174.5
 30
0.0
 11
325.0845851566906
 21
174.5
 31
0.0
  0
LINE
  5
6E40
330
1E
100
AcDbEntity
  8
10
  6
CONTINOUS
100
AcDbLine
 10
320.0845851566906
 20
-174.5
 30
0.0
 11
320.0845851566906
 21
-130.0
 31
0.0
  0
LINE
  5
6E41
330
1E
100
AcDbEntity
  8
10
  6
CONTINOUS
100
AcDbLine
 10
328.0845851566906
 20
-174.5
 30
0.0
 11
328.0845851566906
 21
-130.0
 31
0.0
  0
LINE
  5
6E42
330
1E
100
AcDbEntity
  8
10
  6
Continuous
 62
     2
100
AcDbLine
 10
311.0845851566906
 20
-160.0
 30
0.0
 11
335.0845851566906
 21
-160.0
 31
0.0
  0
LINE
  5
6E43
330
1E
100
AcDbEntity
  8
10
  6
CONTINOUS
100
AcDbLine
 10
320.0845851566906
 20
-174.5
 30
0.0
 11
328.0845851566906
 21
-174.5
 31
0.0
  0
DIMENSION
  5
6E68
330
1E
100
AcDbEntity
  8
30
  6
Continuous
100
AcDbDimension
  2
*D31
 10
317.0845851566906
 20
197.5
 30
0.0
 11
321.0845851566906
 21
201.0
 31
0.0
 70
    32
 71
     5
 42
-1.0
  3
STANDARD
100
AcDbAlignedDimension
 13
325.0845851566906
 23
175.5
 33
0.0
 14
317.0845851566906
 24
175.5
 34
0.0
100
AcDbRotatedDimension
  0
DIMENSION
  5
6E87
330
1E
100
AcDbEntity
  8
30
  6
Continuous
100
AcDbDimension
  2
*D32
 10
400.0845851566905
 20
-209.0
 30
0.0
 11
309.0845851566906
 21
-205.5
 31
0.0
 70
    32
 71
     5
 42
-1.0
  3
STANDARD
100
AcDbAlignedDimension
 13
218.0845851566906
 23
0.0
 33
0.0
 14
400.0845851566905
 24
-161.2311689432341
 34
0.0
100
AcDbRotatedDimension
  0
ARC
  5
6E9A
330
1E
100
AcDbEntity
  8
30
  6
Continuous
100
AcDbCircle
 10
309.4845851566907
 20
2.799999999999896
 30
0.0
 40
91.39999999999997
100
AcDbArc
 50
164.0139175463448
 51
180.0
  0
LINE
  5
6E9B
330
1E
100
AcDbEntity
  8
30
  6
Continuous
100
AcDbLine
 10
218.0845851566906
 20
2.800000000000011
 30
0.0
 11
218.0845851566906
 21
0.0
 31
0.0
  0
DIMENSION
  5
6F6D
330
1E
100
AcDbEntity
  8
30
  6
Continuous
100
AcDbDimension
  2
*D34
 10
-0.0000000000000061
 20
-230.0
 30
0.0
 11
-40.75
 21
-226.5
 31
0.0
 70
    32
 71
     5
 42
-1.0
  3
STANDARD
100
AcDbAlignedDimension
 13
-81.5
 23
-174.5
 33
0.0
 14
0.0
 24
-130.0
 34
0.0
100
AcDbRotatedDimension
1001
ACAD
1000
DSTYLE
1002
{
1070
    79
1070
     3
1002
}
  0
DIMENSION
  5
6F7A
330
1E
100
AcDbEntity
  8
30
  6
Continuous
100
AcDbDimension
  2
*D35
 10
126.4999999999997
 20
-230.0
 30
0.0
 11
63.24999999999989
 21
-226.5
 31
0.0
 70
    32
 71
     5
 42
-1.0
  3
STANDARD
100
AcDbAlignedDimension
 13
-0.0000000000000049
 23
-209.5004882811999
 33
0.0
 14
126.4999999999997
 24
-174.5
 34
0.0
100
AcDbRotatedDimension
1001
ACAD
1000
DSTYLE
1002
{
1070
    79
1070
     3
1002
}
  0
VIEWPORT
  5
9AC
330
1A
100
AcDbEntity
 67
     1
  8
0
  6
Continuous
100
AcDbViewport
 10
171.9995348790992
 20
144.1384735538403
 30
0.0
 40
488.8676857773512
 41
292.3514905034161
 68
     1
 69
     1
 12
171.9995348790992
 22
144.1384735538403
 13
0.0
 23
0.0
 14
10.0
 24
10.0
 15
10.0
 25
10.0
 16
0.0
 26
0.0
 36
1.0
 17
0.0
 27
0.0
 37
0.0
 42
50.0
 43
0.0
 44
0.0
 45
292.3514905034161
 50
0.0
 51
0.0
 72
   100
 90
    32800
  1

281
     0
 71
     1
 74
     0
110
0.0
120
0.0
130
0.0
111
1.0
121
0.0
131
0.0
112
0.0
122
1.0
132
0.0
 79
     0
146
0.0
  0
ENDSEC
  0
SECTION
  2
OBJECTS
  0
DICTIONARY
  5
C
330
0
100
AcDbDictionary
281
     1
  3
ACAD_GROUP
350
D
  3
ACAD_LAYOUT
350
19
  3
ACAD_MLINESTYLE
350
16
  3
ACAD_PLOTSETTINGS
350
18
  3
ACAD_PLOTSTYLENAME
350
E
  3
ACDBVARIABLEDICTIONARY
350
5FA7
  0
DICTIONARY
  5
178
330
1E
100
AcDbDictionary
280
     1
281
     1
  3
ACAD_LAYOUTSELFREF
360
6FAB
  0
DICTIONARY
  5
17A
330
1A
100
AcDbDictionary
280
     1
281
     1
  3
ACAD_LAYOUTSELFREF
360
6FAA
  0
DICTIONARY
  5
D
102
{ACAD_REACTORS
330
C
102
}
330
C
100
AcDbDictionary
281
     1
  0
DICTIONARY
  5
19
102
{ACAD_REACTORS
330
C
102
}
330
C
100
AcDbDictionary
281
     1
  3
Model
350
6FE0
  3
ﾚｲｱｳﾄ1
350
6FE1
  0
DICTIONARY
  5
16
102
{ACAD_REACTORS
330
C
102
}
330
C
100
AcDbDictionary
281
     1
  3
STANDARD
350
17
  0
DICTIONARY
  5
18
102
{ACAD_REACTORS
330
C
102
}
330
C
100
AcDbDictionary
281
     1
  0
ACDBDICTIONARYWDFLT
  5
E
102
{ACAD_REACTORS
330
C
102
}
330
C
100
AcDbDictionary
281
     1
  3
Normal
350
F
100
AcDbDictionaryWithDefault
340
F
  0
DICTIONARY
  5
5FA7
102
{ACAD_REACTORS
330
C
102
}
330
C
100
AcDbDictionary
281
     1
  3
DIMASSOC
350
5FA8
  0
XRECORD
  5
6FAB
102
{ACAD_REACTORS
330
178
102
}
330
178
100
AcDbXrecord
280
     1
340
1E
  0
XRECORD
  5
6FAA
102
{ACAD_REACTORS
330
17A
102
}
330
17A
100
AcDbXrecord
280
     1
340
1A
  0
LAYOUT
  5
6FE0
102
{ACAD_REACTORS
330
19
102
}
330
19
100
AcDbPlotSettings
  1

  2
LBP5400
  4

  6

 40
0.0
 41
0.0
 42
0.0
 43
0.0
 44
0.0
 45
0.0
 46
0.0
 47
0.0
 48
0.0
 49
0.0
140
0.0
141
0.0
142
1.0
143
1.0
 70
  1712
 72
     0
 73
     0
 74
     0
  7
monochrome.stb
 75
     0
147
1.0
148
0.0
149
0.0
100
AcDbLayout
  1
Model
 70
     1
 71
     0
 10
0.0
 20
0.0
 11
12.0
 21
9.0
 12
0.0
 22
0.0
 32
0.0
 14
0.0
 24
0.0
 34
0.0
 15
0.0
 25
0.0
 35
0.0
146
0.0
 13
0.0
 23
0.0
 33
0.0
 16
1.0
 26
0.0
 36
0.0
 17
0.0
 27
1.0
 37
0.0
 76
     0
330
1E
  0
LAYOUT
  5
6FE1
102
{ACAD_REACTORS
330
19
102
}
330
19
100
AcDbPlotSettings
  1

  2
LBP5400
  4

  6

 40
0.0
 41
0.0
 42
0.0
 43
0.0
 44
0.0
 45
0.0
 46
0.0
 47
0.0
 48
0.0
 49
0.0
140
0.0
141
0.0
142
1.0
143
1.0
 70
   688
 72
     0
 73
     0
 74
     5
  7
monochrome.stb
 75
    16
147
1.0
148
0.0
149
0.0
100
AcDbLayout
  1
ﾚｲｱｳﾄ1
 70
     1
 71
     1
 10
-5.873748779296875
 20
-5.873749732971191
 11
204.0995788574218
 21
291.1369009017943
 12
0.0
 22
0.0
 32
0.0
 14
4.273573370203961
 24
5.205246163471485
 34
0.0
 15
194.6100952986349
 25
283.0697008572913
 35
0.0
146
0.0
 13
0.0
 23
0.0
 33
0.0
 16
1.0
 26
0.0
 36
0.0
 17
0.0
 27
1.0
 37
0.0
 76
     0
330
1A
331
9AC
  0
MLINESTYLE
  5
17
102
{ACAD_REACTORS
330
16
102
}
330
16
100
AcDbMlineStyle
  2
STANDARD
 70
     0
  3

 62
   256
 51
90.0
 52
90.0
 71
     2
 49
0.5
 62
   256
  6
BYLAYER
 49
-0.5
 62
   256
  6
BYLAYER
  0
ACDBPLACEHOLDER
  5
F
102
{ACAD_REACTORS
330
E
102
}
330
E
  0
DICTIONARYVAR
  5
5FA8
102
{ACAD_REACTORS
330
5FA7
102
}
330
5FA7
100
DictionaryVariables
280
     0
  1
1
  0
ENDSEC
  0
EOF
