  0
SECTION
  2
HEADER
  9
$ACADVER
  1
AC1015
  9
$ACADMAINTVER
 70
    10
  9
$DWGCODEPAGE
  3
ANSI_932
  9
$INSBASE
 10
0.0
 20
0.0
 30
0.0
  9
$EXTMIN
 10
-140.1065049170443
 20
-648.5
 30
0.0
  9
$EXTMAX
 10
495.1062902121223
 20
455.4999999999998
 30
0.0
  9
$LIMMIN
 10
-302.0
 20
-689.0
  9
$LIMMAX
 10
615.0
 20
462.0
  9
$ORTHOMODE
 70
     1
  9
$REGENMODE
 70
     1
  9
$FILLMODE
 70
     1
  9
$QTEXTMODE
 70
     0
  9
$MIRRTEXT
 70
     1
  9
$LTSCALE
 40
30.0
  9
$ATTMODE
 70
     1
  9
$TEXTSIZE
 40
5.0
  9
$TRACEWID
 40
0.05
  9
$TEXTSTYLE
  7
STANDARD1
  9
$CLAYER
  8
30
  9
$CELTYPE
  6
CONTINUOUS
  9
$CECOLOR
 62
   256
  9
$CELTSCALE
 40
1.0
  9
$DISPSILH
 70
     0
  9
$DIMSCALE
 40
1.0
  9
$DIMASZ
 40
2.0
  9
$DIMEXO
 40
1.0
  9
$DIMDLI
 40
0.5
  9
$DIMRND
 40
0.0
  9
$DIMDLE
 40
0.0
  9
$DIMEXE
 40
0.5
  9
$DIMTP
 40
0.0
  9
$DIMTM
 40
0.0
  9
$DIMTXT
 40
5.0
  9
$DIMCEN
 40
0.09
  9
$DIMTSZ
 40
0.0
  9
$DIMTOL
 70
     0
  9
$DIMLIM
 70
     0
  9
$DIMTIH
 70
     0
  9
$DIMTOH
 70
     1
  9
$DIMSE1
 70
     0
  9
$DIMSE2
 70
     0
  9
$DIMTAD
 70
     3
  9
$DIMZIN
 70
    12
  9
$DIMBLK
  1
OPEN
  9
$DIMASO
 70
     1
  9
$DIMSHO
 70
     1
  9
$DIMPOST
  1

  9
$DIMAPOST
  1

  9
$DIMALT
 70
     0
  9
$DIMALTD
 70
     2
  9
$DIMALTF
 40
25.4
  9
$DIMLFAC
 40
1.0
  9
$DIMTOFL
 70
     0
  9
$DIMTVP
 40
0.0
  9
$DIMTIX
 70
     0
  9
$DIMSOXD
 70
     0
  9
$DIMSAH
 70
     0
  9
$DIMBLK1
  1

  9
$DIMBLK2
  1

  9
$DIMSTYLE
  2
STANDARD
  9
$DIMCLRD
 70
     0
  9
$DIMCLRE
 70
     0
  9
$DIMCLRT
 70
     0
  9
$DIMTFAC
 40
1.0
  9
$DIMGAP
 40
1.0
  9
$DIMJUST
 70
     0
  9
$DIMSD1
 70
     0
  9
$DIMSD2
 70
     0
  9
$DIMTOLJ
 70
     1
  9
$DIMTZIN
 70
     0
  9
$DIMALTZ
 70
     0
  9
$DIMALTTZ
 70
     0
  9
$DIMUPT
 70
     0
  9
$DIMDEC
 70
     1
  9
$DIMTDEC
 70
     1
  9
$DIMALTU
 70
     2
  9
$DIMALTTD
 70
     2
  9
$DIMTXSTY
  7
STANDARD
  9
$DIMAUNIT
 70
     0
  9
$DIMADEC
 70
     0
  9
$DIMALTRND
 40
0.0
  9
$DIMAZIN
 70
     3
  9
$DIMDSEP
 70
    46
  9
$DIMATFIT
 70
     3
  9
$DIMFRAC
 70
     0
  9
$DIMLDRBLK
  1
OPEN
  9
$DIMLUNIT
 70
     2
  9
$DIMLWD
 70
    -2
  9
$DIMLWE
 70
    -2
  9
$DIMTMOVE
 70
     0
  9
$LUNITS
 70
     2
  9
$LUPREC
 70
     4
  9
$SKETCHINC
 40
0.1
  9
$FILLETRAD
 40
0.0
  9
$AUNITS
 70
     0
  9
$AUPREC
 70
     0
  9
$MENU
  1
.
  9
$ELEVATION
 40
0.0
  9
$PELEVATION
 40
0.0
  9
$THICKNESS
 40
0.0
  9
$LIMCHECK
 70
     0
  9
$CHAMFERA
 40
0.0
  9
$CHAMFERB
 40
0.0
  9
$CHAMFERC
 40
0.0
  9
$CHAMFERD
 40
0.0
  9
$SKPOLY
 70
     0
  9
$TDCREATE
 40
2452286.555658657
  9
$TDUCREATE
 40
2452286.180658657
  9
$TDUPDATE
 40
2454663.627795497
  9
$TDUUPDATE
 40
2454663.252795497
  9
$TDINDWG
 40
1.3660904630
  9
$TDUSRTIMER
 40
1.3660904630
  9
$USRTIMER
 70
     1
  9
$ANGBASE
 50
0.0
  9
$ANGDIR
 70
     0
  9
$PDMODE
 70
     0
  9
$PDSIZE
 40
0.0
  9
$PLINEWID
 40
0.0
  9
$SPLFRAME
 70
     0
  9
$SPLINETYPE
 70
     6
  9
$SPLINESEGS
 70
     8
  9
$HANDSEED
  5
8B17
  9
$SURFTAB1
 70
     6
  9
$SURFTAB2
 70
     6
  9
$SURFTYPE
 70
     6
  9
$SURFU
 70
     6
  9
$SURFV
 70
     6
  9
$UCSBASE
  2

  9
$UCSNAME
  2

  9
$UCSORG
 10
0.0
 20
0.0
 30
0.0
  9
$UCSXDIR
 10
1.0
 20
0.0
 30
0.0
  9
$UCSYDIR
 10
0.0
 20
1.0
 30
0.0
  9
$UCSORTHOREF
  2

  9
$UCSORTHOVIEW
 70
     0
  9
$UCSORGTOP
 10
0.0
 20
0.0
 30
0.0
  9
$UCSORGBOTTOM
 10
0.0
 20
0.0
 30
0.0
  9
$UCSORGLEFT
 10
0.0
 20
0.0
 30
0.0
  9
$UCSORGRIGHT
 10
0.0
 20
0.0
 30
0.0
  9
$UCSORGFRONT
 10
0.0
 20
0.0
 30
0.0
  9
$UCSORGBACK
 10
0.0
 20
0.0
 30
0.0
  9
$PUCSBASE
  2

  9
$PUCSNAME
  2

  9
$PUCSORG
 10
0.0
 20
0.0
 30
0.0
  9
$PUCSXDIR
 10
1.0
 20
0.0
 30
0.0
  9
$PUCSYDIR
 10
0.0
 20
1.0
 30
0.0
  9
$PUCSORTHOREF
  2

  9
$PUCSORTHOVIEW
 70
     0
  9
$PUCSORGTOP
 10
0.0
 20
0.0
 30
0.0
  9
$PUCSORGBOTTOM
 10
0.0
 20
0.0
 30
0.0
  9
$PUCSORGLEFT
 10
0.0
 20
0.0
 30
0.0
  9
$PUCSORGRIGHT
 10
0.0
 20
0.0
 30
0.0
  9
$PUCSORGFRONT
 10
0.0
 20
0.0
 30
0.0
  9
$PUCSORGBACK
 10
0.0
 20
0.0
 30
0.0
  9
$USERI1
 70
     0
  9
$USERI2
 70
     0
  9
$USERI3
 70
     0
  9
$USERI4
 70
     0
  9
$USERI5
 70
     0
  9
$USERR1
 40
0.0
  9
$USERR2
 40
0.0
  9
$USERR3
 40
0.0
  9
$USERR4
 40
0.0
  9
$USERR5
 40
0.0
  9
$WORLDVIEW
 70
     1
  9
$SHADEDGE
 70
     3
  9
$SHADEDIF
 70
    70
  9
$TILEMODE
 70
     1
  9
$MAXACTVP
 70
    48
  9
$PINSBASE
 10
0.0
 20
0.0
 30
0.0
  9
$PLIMCHECK
 70
     0
  9
$PEXTMIN
 10
4.273573370203961
 20
5.205246163471485
 30
0.0
  9
$PEXTMAX
 10
194.6100952986349
 20
283.0697008572913
 30
0.0
  9
$PLIMMIN
 10
-5.873748779296875
 20
-5.873749732971191
  9
$PLIMMAX
 10
204.0995788574218
 20
291.1369009017943
  9
$UNITMODE
 70
     0
  9
$VISRETAIN
 70
     1
  9
$PLINEGEN
 70
     0
  9
$PSLTSCALE
 70
     1
  9
$TREEDEPTH
 70
  3020
  9
$CMLSTYLE
  2
STANDARD
  9
$CMLJUST
 70
     0
  9
$CMLSCALE
 40
1.0
  9
$PROXYGRAPHICS
 70
     1
  9
$MEASUREMENT
 70
     0
  9
$CELWEIGHT
370
    -1
  9
$ENDCAPS
280
     0
  9
$JOINSTYLE
280
     0
  9
$LWDISPLAY
290
     0
  9
$INSUNITS
 70
     0
  9
$HYPERLINKBASE
  1

  9
$STYLESHEET
  1
kiki.ctb
  9
$XEDIT
290
     1
  9
$CEPSNTYPE
380
     0
  9
$PSTYLEMODE
290
     1
  9
$FINGERPRINTGUID
  2

  9
$VERSIONGUID
  2
{65F2B61A-684E-4843-9983-3D1D36CD51CE}
  9
$EXTNAMES
290
     1
  9
$PSVPSCALE
 40
0.0
  9
$OLESTARTUP
290
     0
  0
ENDSEC
  0
SECTION
  2
CLASSES
  0
CLASS
  1
ACDBDICTIONARYWDFLT
  2
AcDbDictionaryWithDefault
  3
AutoCAD 2000
 90
        0
280
     0
281
     0
  0
CLASS
  1
ACDBPLACEHOLDER
  2
AcDbPlaceHolder
  3
AutoCAD 2000
 90
        0
280
     0
281
     0
  0
CLASS
  1
LAYOUT
  2
AcDbLayout
  3
AutoCAD 2000
 90
        0
280
     0
281
     0
  0
CLASS
  1
LONG_TRANSACTION
  2
AcDbLongTransaction
  3
AutoCAD 2000
 90
    32768
280
     0
281
     0
  0
CLASS
  1
LWPOLYLINE
  2
AcDbPolyline
  3
AutoCAD 2000
 90
    32768
280
     0
281
     1
  0
CLASS
  1
HATCH
  2
AcDbHatch
  3
AutoCAD 2000
 90
    32768
280
     0
281
     1
  0
CLASS
  1
XRECORD
  2
AcDbXrecord
  3
AutoCAD 2000
 90
    32768
280
     0
281
     0
  0
CLASS
  1
LONG_TRANSACTION
  2
AcDbLongTransaction
  3
AutoCAD 2000
 90
    32768
280
     0
281
     0
  0
CLASS
  1
LWPOLYLINE
  2
AcDbPolyline
  3
AutoCAD 2000
 90
    32768
280
     0
281
     1
  0
CLASS
  1
HATCH
  2
AcDbHatch
  3
AutoCAD 2000
 90
    32768
280
     0
281
     1
  0
CLASS
  1
XRECORD
  2
AcDbXrecord
  3
AutoCAD 2000
 90
    32768
280
     0
281
     0
  0
CLASS
  1
LONG_TRANSACTION
  2
AcDbLongTransaction
  3
AutoCAD 2000
 90
    32768
280
     0
281
     0
  0
CLASS
  1
LWPOLYLINE
  2
AcDbPolyline
  3
AutoCAD 2000
 90
    32768
280
     0
281
     1
  0
CLASS
  1
HATCH
  2
AcDbHatch
  3
AutoCAD 2000
 90
    32768
280
     0
281
     1
  0
CLASS
  1
XRECORD
  2
AcDbXrecord
  3
AutoCAD 2000
 90
    32768
280
     0
281
     0
  0
CLASS
  1
LONG_TRANSACTION
  2
AcDbLongTransaction
  3
AutoCAD 2000
 90
    32768
280
     0
281
     0
  0
CLASS
  1
LWPOLYLINE
  2
AcDbPolyline
  3
AutoCAD 2000
 90
    32768
280
     0
281
     1
  0
CLASS
  1
HATCH
  2
AcDbHatch
  3
AutoCAD 2000
 90
    32768
280
     0
281
     1
  0
CLASS
  1
XRECORD
  2
AcDbXrecord
  3
AutoCAD 2000
 90
    32768
280
     0
281
     0
  0
CLASS
  1
LONG_TRANSACTION
  2
AcDbLongTransaction
  3
AutoCAD 2000
 90
    32768
280
     0
281
     0
  0
CLASS
  1
LWPOLYLINE
  2
AcDbPolyline
  3
AutoCAD 2000
 90
    32768
280
     0
281
     1
  0
CLASS
  1
HATCH
  2
AcDbHatch
  3
AutoCAD 2000
 90
    32768
280
     0
281
     1
  0
CLASS
  1
XRECORD
  2
AcDbXrecord
  3
AutoCAD 2000
 90
    32768
280
     0
281
     0
  0
CLASS
  1
LONG_TRANSACTION
  2
AcDbLongTransaction
  3
AutoCAD 2000
 90
    32768
280
     0
281
     0
  0
CLASS
  1
LWPOLYLINE
  2
AcDbPolyline
  3
AutoCAD 2000
 90
    32768
280
     0
281
     1
  0
CLASS
  1
HATCH
  2
AcDbHatch
  3
AutoCAD 2000
 90
    32768
280
     0
281
     1
  0
CLASS
  1
XRECORD
  2
AcDbXrecord
  3
AutoCAD 2000
 90
    32768
280
     0
281
     0
  0
CLASS
  1
LONG_TRANSACTION
  2
AcDbLongTransaction
  3
AutoCAD 2000
 90
    32768
280
     0
281
     0
  0
CLASS
  1
LWPOLYLINE
  2
AcDbPolyline
  3
AutoCAD 2000
 90
    32768
280
     0
281
     1
  0
CLASS
  1
HATCH
  2
AcDbHatch
  3
AutoCAD 2000
 90
    32768
280
     0
281
     1
  0
CLASS
  1
XRECORD
  2
AcDbXrecord
  3
AutoCAD 2000
 90
    32768
280
     0
281
     0
  0
CLASS
  1
LONG_TRANSACTION
  2
AcDbLongTransaction
  3
AutoCAD 2000
 90
    32768
280
     0
281
     0
  0
CLASS
  1
LWPOLYLINE
  2
AcDbPolyline
  3
AutoCAD 2000
 90
    32768
280
     0
281
     1
  0
CLASS
  1
HATCH
  2
AcDbHatch
  3
AutoCAD 2000
 90
    32768
280
     0
281
     1
  0
CLASS
  1
XRECORD
  2
AcDbXrecord
  3
AutoCAD 2000
 90
    32768
280
     0
281
     0
  0
CLASS
  1
LONG_TRANSACTION
  2
AcDbLongTransaction
  3
AutoCAD 2000
 90
    32768
280
     0
281
     0
  0
CLASS
  1
LWPOLYLINE
  2
AcDbPolyline
  3
AutoCAD 2000
 90
    32768
280
     0
281
     1
  0
CLASS
  1
HATCH
  2
AcDbHatch
  3
AutoCAD 2000
 90
    32768
280
     0
281
     1
  0
CLASS
  1
XRECORD
  2
AcDbXrecord
  3
AutoCAD 2000
 90
    32768
280
     0
281
     0
  0
CLASS
  1
LONG_TRANSACTION
  2
AcDbLongTransaction
  3
AutoCAD 2000
 90
    32768
280
     0
281
     0
  0
CLASS
  1
LWPOLYLINE
  2
AcDbPolyline
  3
AutoCAD 2000
 90
    32768
280
     0
281
     1
  0
CLASS
  1
HATCH
  2
AcDbHatch
  3
AutoCAD 2000
 90
    32768
280
     0
281
     1
  0
CLASS
  1
XRECORD
  2
AcDbXrecord
  3
AutoCAD 2000
 90
    32768
280
     0
281
     0
  0
CLASS
  1
LONG_TRANSACTION
  2
AcDbLongTransaction
  3
AutoCAD 2000
 90
    32768
280
     0
281
     0
  0
CLASS
  1
LWPOLYLINE
  2
AcDbPolyline
  3
AutoCAD 2000
 90
    32768
280
     0
281
     1
  0
CLASS
  1
HATCH
  2
AcDbHatch
  3
AutoCAD 2000
 90
    32768
280
     0
281
     1
  0
CLASS
  1
XRECORD
  2
AcDbXrecord
  3
AutoCAD 2000
 90
    32768
280
     0
281
     0
  0
CLASS
  1
LONG_TRANSACTION
  2
AcDbLongTransaction
  3
AutoCAD 2000
 90
    32768
280
     0
281
     0
  0
CLASS
  1
LWPOLYLINE
  2
AcDbPolyline
  3
AutoCAD 2000
 90
    32768
280
     0
281
     1
  0
CLASS
  1
HATCH
  2
AcDbHatch
  3
AutoCAD 2000
 90
    32768
280
     0
281
     1
  0
CLASS
  1
XRECORD
  2
AcDbXrecord
  3
AutoCAD 2000
 90
    32768
280
     0
281
     0
  0
CLASS
  1
LONG_TRANSACTION
  2
AcDbLongTransaction
  3
AutoCAD 2000
 90
    32768
280
     0
281
     0
  0
CLASS
  1
LWPOLYLINE
  2
AcDbPolyline
  3
AutoCAD 2000
 90
    32768
280
     0
281
     1
  0
CLASS
  1
HATCH
  2
AcDbHatch
  3
AutoCAD 2000
 90
    32768
280
     0
281
     1
  0
CLASS
  1
XRECORD
  2
AcDbXrecord
  3
AutoCAD 2000
 90
    32768
280
     0
281
     0
  0
CLASS
  1
LONG_TRANSACTION
  2
AcDbLongTransaction
  3
AutoCAD 2000
 90
    32768
280
     0
281
     0
  0
CLASS
  1
LWPOLYLINE
  2
AcDbPolyline
  3
AutoCAD 2000
 90
    32768
280
     0
281
     1
  0
CLASS
  1
HATCH
  2
AcDbHatch
  3
AutoCAD 2000
 90
    32768
280
     0
281
     1
  0
CLASS
  1
XRECORD
  2
AcDbXrecord
  3
AutoCAD 2000
 90
    32768
280
     0
281
     0
  0
CLASS
  1
LONG_TRANSACTION
  2
AcDbLongTransaction
  3
AutoCAD 2000
 90
    32768
280
     0
281
     0
  0
CLASS
  1
LWPOLYLINE
  2
AcDbPolyline
  3
AutoCAD 2000
 90
    32768
280
     0
281
     1
  0
CLASS
  1
HATCH
  2
AcDbHatch
  3
AutoCAD 2000
 90
    32768
280
     0
281
     1
  0
CLASS
  1
XRECORD
  2
AcDbXrecord
  3
AutoCAD 2000
 90
    32768
280
     0
281
     0
  0
CLASS
  1
LONG_TRANSACTION
  2
AcDbLongTransaction
  3
AutoCAD 2000
 90
    32768
280
     0
281
     0
  0
CLASS
  1
LWPOLYLINE
  2
AcDbPolyline
  3
AutoCAD 2000
 90
    32768
280
     0
281
     1
  0
CLASS
  1
HATCH
  2
AcDbHatch
  3
AutoCAD 2000
 90
    32768
280
     0
281
     1
  0
CLASS
  1
XRECORD
  2
AcDbXrecord
  3
AutoCAD 2000
 90
    32768
280
     0
281
     0
  0
CLASS
  1
LONG_TRANSACTION
  2
AcDbLongTransaction
  3
AutoCAD 2000
 90
    32768
280
     0
281
     0
  0
CLASS
  1
LWPOLYLINE
  2
AcDbPolyline
  3
AutoCAD 2000
 90
    32768
280
     0
281
     1
  0
CLASS
  1
HATCH
  2
AcDbHatch
  3
AutoCAD 2000
 90
    32768
280
     0
281
     1
  0
CLASS
  1
XRECORD
  2
AcDbXrecord
  3
AutoCAD 2000
 90
    32768
280
     0
281
     0
  0
CLASS
  1
LONG_TRANSACTION
  2
AcDbLongTransaction
  3
AutoCAD 2000
 90
    32768
280
     0
281
     0
  0
CLASS
  1
LWPOLYLINE
  2
AcDbPolyline
  3
AutoCAD 2000
 90
    32768
280
     0
281
     1
  0
CLASS
  1
HATCH
  2
AcDbHatch
  3
AutoCAD 2000
 90
    32768
280
     0
281
     1
  0
CLASS
  1
XRECORD
  2
AcDbXrecord
  3
AutoCAD 2000
 90
    32768
280
     0
281
     0
  0
CLASS
  1
LONG_TRANSACTION
  2
AcDbLongTransaction
  3
AutoCAD 2000
 90
    32768
280
     0
281
     0
  0
CLASS
  1
LWPOLYLINE
  2
AcDbPolyline
  3
AutoCAD 2000
 90
    32768
280
     0
281
     1
  0
CLASS
  1
HATCH
  2
AcDbHatch
  3
AutoCAD 2000
 90
    32768
280
     0
281
     1
  0
CLASS
  1
XRECORD
  2
AcDbXrecord
  3
AutoCAD 2000
 90
    32768
280
     0
281
     0
  0
CLASS
  1
LONG_TRANSACTION
  2
AcDbLongTransaction
  3
AutoCAD 2000
 90
    32768
280
     0
281
     0
  0
CLASS
  1
LWPOLYLINE
  2
AcDbPolyline
  3
AutoCAD 2000
 90
    32768
280
     0
281
     1
  0
CLASS
  1
HATCH
  2
AcDbHatch
  3
AutoCAD 2000
 90
    32768
280
     0
281
     1
  0
CLASS
  1
XRECORD
  2
AcDbXrecord
  3
AutoCAD 2000
 90
    32768
280
     0
281
     0
  0
CLASS
  1
LONG_TRANSACTION
  2
AcDbLongTransaction
  3
AutoCAD 2000
 90
    32768
280
     0
281
     0
  0
CLASS
  1
LWPOLYLINE
  2
AcDbPolyline
  3
AutoCAD 2000
 90
    32768
280
     0
281
     1
  0
CLASS
  1
HATCH
  2
AcDbHatch
  3
AutoCAD 2000
 90
    32768
280
     0
281
     1
  0
CLASS
  1
XRECORD
  2
AcDbXrecord
  3
AutoCAD 2000
 90
    32768
280
     0
281
     0
  0
CLASS
  1
LONG_TRANSACTION
  2
AcDbLongTransaction
  3
AutoCAD 2000
 90
    32768
280
     0
281
     0
  0
CLASS
  1
LWPOLYLINE
  2
AcDbPolyline
  3
AutoCAD 2000
 90
    32768
280
     0
281
     1
  0
CLASS
  1
HATCH
  2
AcDbHatch
  3
AutoCAD 2000
 90
    32768
280
     0
281
     1
  0
CLASS
  1
XRECORD
  2
AcDbXrecord
  3
AutoCAD 2000
 90
    32768
280
     0
281
     0
  0
CLASS
  1
LONG_TRANSACTION
  2
AcDbLongTransaction
  3
AutoCAD 2000
 90
    32768
280
     0
281
     0
  0
CLASS
  1
LWPOLYLINE
  2
AcDbPolyline
  3
AutoCAD 2000
 90
    32768
280
     0
281
     1
  0
CLASS
  1
HATCH
  2
AcDbHatch
  3
AutoCAD 2000
 90
    32768
280
     0
281
     1
  0
CLASS
  1
XRECORD
  2
AcDbXrecord
  3
AutoCAD 2000
 90
    32768
280
     0
281
     0
  0
CLASS
  1
LONG_TRANSACTION
  2
AcDbLongTransaction
  3
AutoCAD 2000
 90
    32768
280
     0
281
     0
  0
CLASS
  1
LWPOLYLINE
  2
AcDbPolyline
  3
AutoCAD 2000
 90
    32768
280
     0
281
     1
  0
CLASS
  1
HATCH
  2
AcDbHatch
  3
AutoCAD 2000
 90
    32768
280
     0
281
     1
  0
CLASS
  1
XRECORD
  2
AcDbXrecord
  3
AutoCAD 2000
 90
    32768
280
     0
281
     0
  0
CLASS
  1
LONG_TRANSACTION
  2
AcDbLongTransaction
  3
AutoCAD 2000
 90
    32768
280
     0
281
     0
  0
CLASS
  1
LWPOLYLINE
  2
AcDbPolyline
  3
AutoCAD 2000
 90
    32768
280
     0
281
     1
  0
CLASS
  1
HATCH
  2
AcDbHatch
  3
AutoCAD 2000
 90
    32768
280
     0
281
     1
  0
CLASS
  1
XRECORD
  2
AcDbXrecord
  3
AutoCAD 2000
 90
    32768
280
     0
281
     0
  0
CLASS
  1
LONG_TRANSACTION
  2
AcDbLongTransaction
  3
AutoCAD 2000
 90
    32768
280
     0
281
     0
  0
CLASS
  1
LWPOLYLINE
  2
AcDbPolyline
  3
AutoCAD 2000
 90
    32768
280
     0
281
     1
  0
CLASS
  1
HATCH
  2
AcDbHatch
  3
AutoCAD 2000
 90
    32768
280
     0
281
     1
  0
CLASS
  1
XRECORD
  2
AcDbXrecord
  3
AutoCAD 2000
 90
    32768
280
     0
281
     0
  0
CLASS
  1
LONG_TRANSACTION
  2
AcDbLongTransaction
  3
AutoCAD 2000
 90
    32768
280
     0
281
     0
  0
CLASS
  1
LWPOLYLINE
  2
AcDbPolyline
  3
AutoCAD 2000
 90
    32768
280
     0
281
     1
  0
CLASS
  1
HATCH
  2
AcDbHatch
  3
AutoCAD 2000
 90
    32768
280
     0
281
     1
  0
CLASS
  1
XRECORD
  2
AcDbXrecord
  3
AutoCAD 2000
 90
    32768
280
     0
281
     0
  0
CLASS
  1
LONG_TRANSACTION
  2
AcDbLongTransaction
  3
AutoCAD 2000
 90
    32768
280
     0
281
     0
  0
CLASS
  1
LWPOLYLINE
  2
AcDbPolyline
  3
AutoCAD 2000
 90
    32768
280
     0
281
     1
  0
CLASS
  1
HATCH
  2
AcDbHatch
  3
AutoCAD 2000
 90
    32768
280
     0
281
     1
  0
CLASS
  1
XRECORD
  2
AcDbXrecord
  3
AutoCAD 2000
 90
    32768
280
     0
281
     0
  0
CLASS
  1
LONG_TRANSACTION
  2
AcDbLongTransaction
  3
AutoCAD 2000
 90
    32768
280
     0
281
     0
  0
CLASS
  1
LWPOLYLINE
  2
AcDbPolyline
  3
AutoCAD 2000
 90
    32768
280
     0
281
     1
  0
CLASS
  1
HATCH
  2
AcDbHatch
  3
AutoCAD 2000
 90
    32768
280
     0
281
     1
  0
CLASS
  1
XRECORD
  2
AcDbXrecord
  3
AutoCAD 2000
 90
    32768
280
     0
281
     0
  0
CLASS
  1
LONG_TRANSACTION
  2
AcDbLongTransaction
  3
AutoCAD 2000
 90
    32768
280
     0
281
     0
  0
CLASS
  1
LWPOLYLINE
  2
AcDbPolyline
  3
AutoCAD 2000
 90
    32768
280
     0
281
     1
  0
CLASS
  1
HATCH
  2
AcDbHatch
  3
AutoCAD 2000
 90
    32768
280
     0
281
     1
  0
CLASS
  1
XRECORD
  2
AcDbXrecord
  3
AutoCAD 2000
 90
    32768
280
     0
281
     0
  0
CLASS
  1
LONG_TRANSACTION
  2
AcDbLongTransaction
  3
AutoCAD 2000
 90
    32768
280
     0
281
     0
  0
CLASS
  1
LWPOLYLINE
  2
AcDbPolyline
  3
AutoCAD 2000
 90
    32768
280
     0
281
     1
  0
CLASS
  1
HATCH
  2
AcDbHatch
  3
AutoCAD 2000
 90
    32768
280
     0
281
     1
  0
CLASS
  1
XRECORD
  2
AcDbXrecord
  3
AutoCAD 2000
 90
    32768
280
     0
281
     0
  0
CLASS
  1
LONG_TRANSACTION
  2
AcDbLongTransaction
  3
AutoCAD 2000
 90
    32768
280
     0
281
     0
  0
CLASS
  1
LWPOLYLINE
  2
AcDbPolyline
  3
AutoCAD 2000
 90
    32768
280
     0
281
     1
  0
CLASS
  1
HATCH
  2
AcDbHatch
  3
AutoCAD 2000
 90
    32768
280
     0
281
     1
  0
CLASS
  1
XRECORD
  2
AcDbXrecord
  3
AutoCAD 2000
 90
    32768
280
     0
281
     0
  0
CLASS
  1
LONG_TRANSACTION
  2
AcDbLongTransaction
  3
AutoCAD 2000
 90
    32768
280
     0
281
     0
  0
CLASS
  1
LWPOLYLINE
  2
AcDbPolyline
  3
AutoCAD 2000
 90
    32768
280
     0
281
     1
  0
CLASS
  1
HATCH
  2
AcDbHatch
  3
AutoCAD 2000
 90
    32768
280
     0
281
     1
  0
CLASS
  1
XRECORD
  2
AcDbXrecord
  3
AutoCAD 2000
 90
    32768
280
     0
281
     0
  0
CLASS
  1
DICTIONARYVAR
  2
AcDbDictionaryVar
  3
AutoCAD 2000
 90
        0
280
     0
281
     0
  0
CLASS
  1
LONG_TRANSACTION
  2
AcDbLongTransaction
  3
AutoCAD 2000
 90
    32768
280
     0
281
     0
  0
CLASS
  1
LWPOLYLINE
  2
AcDbPolyline
  3
AutoCAD 2000
 90
    32768
280
     0
281
     1
  0
CLASS
  1
HATCH
  2
AcDbHatch
  3
AutoCAD 2000
 90
    32768
280
     0
281
     1
  0
CLASS
  1
XRECORD
  2
AcDbXrecord
  3
AutoCAD 2000
 90
    32768
280
     0
281
     0
  0
CLASS
  1
LONG_TRANSACTION
  2
AcDbLongTransaction
  3
AutoCAD 2000
 90
    32768
280
     0
281
     0
  0
CLASS
  1
LWPOLYLINE
  2
AcDbPolyline
  3
AutoCAD 2000
 90
    32768
280
     0
281
     1
  0
CLASS
  1
HATCH
  2
AcDbHatch
  3
AutoCAD 2000
 90
    32768
280
     0
281
     1
  0
CLASS
  1
XRECORD
  2
AcDbXrecord
  3
AutoCAD 2000
 90
    32768
280
     0
281
     0
  0
CLASS
  1
LONG_TRANSACTION
  2
AcDbLongTransaction
  3
AutoCAD 2000
 90
    32768
280
     0
281
     0
  0
CLASS
  1
LWPOLYLINE
  2
AcDbPolyline
  3
AutoCAD 2000
 90
    32768
280
     0
281
     1
  0
CLASS
  1
HATCH
  2
AcDbHatch
  3
AutoCAD 2000
 90
    32768
280
     0
281
     1
  0
CLASS
  1
XRECORD
  2
AcDbXrecord
  3
AutoCAD 2000
 90
    32768
280
     0
281
     0
  0
ENDSEC
  0
SECTION
  2
TABLES
  0
TABLE
  2
VPORT
  5
8
330
0
100
AcDbSymbolTable
 70
     2
  0
VPORT
  5
8B16
330
8
100
AcDbSymbolTableRecord
100
AcDbViewportTableRecord
  2
*Active
 70
     0
 10
0.0
 20
0.0
 11
1.0
 21
1.0
 12
378.5
 22
446.4999999999999
 13
0.0
 23
0.0
 14
1.0
 24
1.0
 15
10.0
 25
10.0
 16
0.0
 26
0.0
 36
1.0
 17
0.0
 27
0.0
 37
0.0
 40
127.0
 41
1.661996497373029
 42
50.0
 43
0.0
 44
0.0
 50
0.0
 51
0.0
 71
     0
 72
   100
 73
     1
 74
     1
 75
     1
 76
     0
 77
     0
 78
     0
281
     0
 65
     1
110
0.0
120
0.0
130
0.0
111
1.0
121
0.0
131
0.0
112
0.0
122
1.0
132
0.0
 79
     0
146
0.0
  0
ENDTAB
  0
TABLE
  2
LTYPE
  5
5
330
0
100
AcDbSymbolTable
 70
     5
  0
LTYPE
  5
13
330
5
100
AcDbSymbolTableRecord
100
AcDbLinetypeTableRecord
  2
BYBLOCK
 70
     0
  3

 72
    65
 73
     0
 40
0.0
  0
LTYPE
  5
14
330
5
100
AcDbSymbolTableRecord
100
AcDbLinetypeTableRecord
  2
BYLAYER
 70
     0
  3

 72
    65
 73
     0
 40
0.0
  0
LTYPE
  5
15
330
5
100
AcDbSymbolTableRecord
100
AcDbLinetypeTableRecord
  2
CONTINUOUS
 70
     0
  3
Solid line
 72
    65
 73
     0
 40
0.0
  0
LTYPE
  5
22
330
5
100
AcDbSymbolTableRecord
100
AcDbLinetypeTableRecord
  2
CONTINOUS
 70
     0
  3
Solid line
 72
    65
 73
     0
 40
0.0
  0
LTYPE
  5
24
330
5
100
AcDbSymbolTableRecord
100
AcDbLinetypeTableRecord
  2
DASHDOT
 70
     0
  3
__ . __ . __ . __ . __ . __ . __ . __ . __ . __
 72
    65
 73
     4
 40
1.0
 49
0.5
 74
     0
 49
-0.25
 74
     0
 49
0.0
 74
     0
 49
-0.25
 74
     0
  0
LTYPE
  5
4C47
330
5
100
AcDbSymbolTableRecord
100
AcDbLinetypeTableRecord
  2
DIVIDE
 70
     0
  3
Divide ____ . . ____ . . ____ . . ____ . . ____
 72
    65
 73
     6
 40
1.25
 49
0.5
 74
     0
 49
-0.25
 74
     0
 49
0.0
 74
     0
 49
-0.25
 74
     0
 49
0.0
 74
     0
 49
-0.25
 74
     0
  0
LTYPE
  5
8483
330
5
100
AcDbSymbolTableRecord
100
AcDbLinetypeTableRecord
  2
PHANTOM
 70
     0
  3
_____ _ _ _____ _ _ _____ _ _ _____ _ _ ____
 72
    65
 73
     6
 40
2.5
 49
1.25
 74
     0
 49
-0.25
 74
     0
 49
0.25
 74
     0
 49
-0.25
 74
     0
 49
0.25
 74
     0
 49
-0.25
 74
     0
  0
ENDTAB
  0
TABLE
  2
LAYER
  5
2
330
0
100
AcDbSymbolTable
 70
    14
  0
LAYER
  5
10
330
2
100
AcDbSymbolTableRecord
100
AcDbLayerTableRecord
  2
0
 70
     0
 62
     7
  6
CONTINOUS
370
    -3
390
F
  0
LAYER
  5
2F
330
2
100
AcDbSymbolTableRecord
100
AcDbLayerTableRecord
  2
10
 70
     0
 62
     4
  6
CONTINOUS
370
    -3
390
F
  0
LAYER
  5
31
330
2
100
AcDbSymbolTableRecord
100
AcDbLayerTableRecord
  2
12
 70
     0
 62
     3
  6
CONTINOUS
370
    -3
390
F
  0
LAYER
  5
35
330
2
100
AcDbSymbolTableRecord
100
AcDbLayerTableRecord
  2
16
 70
     0
 62
     6
  6
DASHDOT
370
    -3
390
F
  0
LAYER
  5
38
330
2
100
AcDbSymbolTableRecord
100
AcDbLayerTableRecord
  2
19
 70
     0
 62
     7
  6
CONTINOUS
370
    -3
390
F
  0
LAYER
  5
3C
330
2
100
AcDbSymbolTableRecord
100
AcDbLayerTableRecord
  2
11
 70
     0
 62
     1
  6
CONTINOUS
370
    -3
390
F
  0
LAYER
  5
3D
330
2
100
AcDbSymbolTableRecord
100
AcDbLayerTableRecord
  2
24
 70
     0
 62
     2
  6
CONTINOUS
370
    -3
390
F
  0
LAYER
  5
3A2
330
2
100
AcDbSymbolTableRecord
100
AcDbLayerTableRecord
  2
30
 70
     0
 62
     9
  6
CONTINUOUS
370
    -3
390
F
  0
LAYER
  5
3A4
330
2
100
AcDbSymbolTableRecord
100
AcDbLayerTableRecord
  2
DEFPOINTS
 70
     0
 62
     7
  6
CONTINUOUS
290
     0
370
    -3
390
F
  0
LAYER
  5
3BBA
330
2
100
AcDbSymbolTableRecord
100
AcDbLayerTableRecord
  2
18
 70
     0
 62
     5
  6
DIVIDE
370
    -3
390
F
  0
LAYER
  5
5797
330
2
100
AcDbSymbolTableRecord
100
AcDbLayerTableRecord
  2
L210_
 70
     0
 62
     7
  6
CONTINUOUS
370
    -3
390
F
  0
LAYER
  5
5D4D
330
2
100
AcDbSymbolTableRecord
100
AcDbLayerTableRecord
  2
17
 70
     0
 62
     2
  6
DASHDOT
370
    -3
390
F
  0
LAYER
  5
7355
330
2
100
AcDbSymbolTableRecord
100
AcDbLayerTableRecord
  2
1
 70
     0
 62
     7
  6
CONTINUOUS
370
    -3
390
F
  0
LAYER
  5
76A9
330
2
100
AcDbSymbolTableRecord
100
AcDbLayerTableRecord
  2
TOP
 70
     0
 62
     7
  6
CONTINUOUS
370
    -3
390
F
  0
ENDTAB
  0
TABLE
  2
STYLE
  5
3
330
0
100
AcDbSymbolTable
 70
     4
  0
STYLE
  5
11
330
3
100
AcDbSymbolTableRecord
100
AcDbTextStyleTableRecord
  2
STANDARD
 70
     0
 40
0.0
 41
1.0
 50
0.0
 71
     0
 42
2.0
  3
txt.shx
  4
bigfont.shx
  0
STYLE
  5
42
330
3
100
AcDbSymbolTableRecord
100
AcDbTextStyleTableRecord
  2
STANDARD1
 70
     0
 40
0.0
 41
1.0
 50
0.0
 71
     0
 42
5.0
  3
MONOTXT
  4
BIGFONT
  0
STYLE
  5
4F59
330
3
100
AcDbSymbolTableRecord
100
AcDbTextStyleTableRecord
  2
SYMBOL3
 70
     0
 40
0.0
 41
1.0
 50
0.0
 71
     0
 42
0.2
  3
iges1003
  4

  0
STYLE
  5
7356
330
3
100
AcDbSymbolTableRecord
100
AcDbTextStyleTableRecord
  2
UGMTXT
 70
     0
 40
0.0
 41
1.0
 50
0.0
 71
     0
 42
0.2
  3
ugmtxt
  4
bigfont
  0
ENDTAB
  0
TABLE
  2
VIEW
  5
6
330
0
100
AcDbSymbolTable
 70
     3
  0
VIEW
  5
230C
330
6
100
AcDbSymbolTableRecord
100
AcDbViewTableRecord
  2
OLE1
 70
     0
 40
148.9124878027714
 10
429.4976280407222
 20
2.560626997828478
 41
103.1458057716444
 11
0.0
 21
0.0
 31
1.0
 12
0.0
 22
0.0
 32
0.0
 42
50.0
 43
0.0
 44
0.0
 50
0.0
 71
     0
281
     0
 72
     0
  0
VIEW
  5
230E
330
6
100
AcDbSymbolTableRecord
100
AcDbViewTableRecord
  2
OLE2
 70
     0
 40
170.7786920545775
 10
322.664969958371
 20
-5.978304054290276
 41
102.4672152327465
 11
0.0
 21
0.0
 31
1.0
 12
0.0
 22
0.0
 32
0.0
 42
50.0
 43
0.0
 44
0.0
 50
0.0
 71
     0
281
     0
 72
     0
  0
VIEW
  5
23AA
330
6
100
AcDbSymbolTableRecord
100
AcDbViewTableRecord
  2
OLE3
 70
     0
 40
591.7897393182231
 10
84.79698158148218
 20
-46.09336010803995
 41
388.7920961799953
 11
0.0
 21
0.0
 31
1.0
 12
0.0
 22
0.0
 32
0.0
 42
50.0
 43
0.0
 44
0.0
 50
0.0
 71
     0
281
     0
 72
     0
  0
ENDTAB
  0
TABLE
  2
UCS
  5
7
330
0
100
AcDbSymbolTable
 70
     0
  0
ENDTAB
  0
TABLE
  2
APPID
  5
9
330
0
100
AcDbSymbolTable
 70
     2
  0
APPID
  5
12
330
9
100
AcDbSymbolTableRecord
100
AcDbRegAppTableRecord
  2
ACAD
 70
     0
  0
APPID
  5
ECD
330
9
100
AcDbSymbolTableRecord
100
AcDbRegAppTableRecord
  2
CONTENTBLOCKICON
 70
     0
  0
ENDTAB
  0
TABLE
  2
DIMSTYLE
  5
A
330
0
100
AcDbSymbolTable
 70
     1
100
AcDbDimStyleTable
 71
     0
  0
DIMSTYLE
105
175
102
{ACAD_REACTORS
330
7DCD
330
7DDA
330
7DE7
330
7E0F
330
8323
330
834A
330
85DA
330
85DB
330
85E1
330
85EA
330
861A
330
89B3
330
89B4
330
89B5
330
89B6
330
89BD
330
89F9
330
899E
330
89A2
330
89A3
102
}
330
A
100
AcDbSymbolTableRecord
100
AcDbDimStyleTableRecord
  2
STANDARD
 70
     0
 41
2.0
 42
1.0
 43
0.5
 44
0.5
 73
     0
 77
     3
 78
    12
140
5.0
147
1.0
271
     1
272
     1
340
11
341
3B2
342
3B2
  0
ENDTAB
  0
TABLE
  2
BLOCK_RECORD
  5
1
330
0
100
AcDbSymbolTable
 70
    24
  0
BLOCK_RECORD
  5
1E
102
{ACAD_XDICTIONARY
360
178
102
}
330
1
100
AcDbSymbolTableRecord
100
AcDbBlockTableRecord
  2
*MODEL_SPACE
340
8B11
  0
BLOCK_RECORD
  5
1A
102
{ACAD_XDICTIONARY
360
17A
102
}
330
1
100
AcDbSymbolTableRecord
100
AcDbBlockTableRecord
  2
*PAPER_SPACE
340
8B12
  0
BLOCK_RECORD
  5
3B2
330
1
100
AcDbSymbolTableRecord
100
AcDbBlockTableRecord
  2
_OPEN
340
0
102
{BLKREFS
331
7E09
331
7E0A
331
7E00
331
7E01
331
7DF7
331
7DF8
331
8407
331
8408
331
8328
331
8329
331
8335
331
8336
331
8411
331
8412
331
841A
331
841B
331
8678
331
8679
331
8681
331
8682
331
868A
331
868B
331
8694
331
8695
331
869D
331
869E
331
8A70
331
8A71
331
8A79
331
8A7A
331
8A82
331
8A83
331
8A8C
331
8A8D
331
8A95
331
8A96
331
8A9E
331
8A9F
331
8AA6
331
8AA7
331
8AAF
331
8AB7
331
8AB8
102
}
  0
BLOCK_RECORD
  5
7DCE
330
1
100
AcDbSymbolTableRecord
100
AcDbBlockTableRecord
  2
*D1
340
0
  0
BLOCK_RECORD
  5
7DDB
330
1
100
AcDbSymbolTableRecord
100
AcDbBlockTableRecord
  2
*D2
340
0
  0
BLOCK_RECORD
  5
7DE8
330
1
100
AcDbSymbolTableRecord
100
AcDbBlockTableRecord
  2
*D3
340
0
  0
BLOCK_RECORD
  5
7E10
330
1
100
AcDbSymbolTableRecord
100
AcDbBlockTableRecord
  2
*D4
340
0
  0
BLOCK_RECORD
  5
8324
330
1
100
AcDbSymbolTableRecord
100
AcDbBlockTableRecord
  2
*D5
340
0
  0
BLOCK_RECORD
  5
8331
330
1
100
AcDbSymbolTableRecord
100
AcDbBlockTableRecord
  2
*D6
340
0
  0
BLOCK_RECORD
  5
833E
330
1
100
AcDbSymbolTableRecord
100
AcDbBlockTableRecord
  2
*D7
340
0
  0
BLOCK_RECORD
  5
834B
330
1
100
AcDbSymbolTableRecord
100
AcDbBlockTableRecord
  2
*D8
340
0
  0
BLOCK_RECORD
  5
839C
330
1
100
AcDbSymbolTableRecord
100
AcDbBlockTableRecord
  2
*U9
340
0
102
{BLKREFS
331
83A9
102
}
  0
BLOCK_RECORD
  5
8638
330
1
100
AcDbSymbolTableRecord
100
AcDbBlockTableRecord
  2
*D10
340
0
  0
BLOCK_RECORD
  5
8644
330
1
100
AcDbSymbolTableRecord
100
AcDbBlockTableRecord
  2
*D11
340
0
  0
BLOCK_RECORD
  5
8650
330
1
100
AcDbSymbolTableRecord
100
AcDbBlockTableRecord
  2
*D12
340
0
  0
BLOCK_RECORD
  5
865C
330
1
100
AcDbSymbolTableRecord
100
AcDbBlockTableRecord
  2
*D13
340
0
  0
BLOCK_RECORD
  5
8669
330
1
100
AcDbSymbolTableRecord
100
AcDbBlockTableRecord
  2
*D14
340
0
  0
BLOCK_RECORD
  5
8A02
330
1
100
AcDbSymbolTableRecord
100
AcDbBlockTableRecord
  2
*D15
340
0
  0
BLOCK_RECORD
  5
8A0E
330
1
100
AcDbSymbolTableRecord
100
AcDbBlockTableRecord
  2
*D16
340
0
  0
BLOCK_RECORD
  5
8A1A
330
1
100
AcDbSymbolTableRecord
100
AcDbBlockTableRecord
  2
*D17
340
0
  0
BLOCK_RECORD
  5
8A26
330
1
100
AcDbSymbolTableRecord
100
AcDbBlockTableRecord
  2
*D18
340
0
  0
BLOCK_RECORD
  5
8A33
330
1
100
AcDbSymbolTableRecord
100
AcDbBlockTableRecord
  2
*D19
340
0
  0
BLOCK_RECORD
  5
8A3F
330
1
100
AcDbSymbolTableRecord
100
AcDbBlockTableRecord
  2
*D20
340
0
  0
BLOCK_RECORD
  5
8A4A
330
1
100
AcDbSymbolTableRecord
100
AcDbBlockTableRecord
  2
*D21
340
0
  0
BLOCK_RECORD
  5
8A56
330
1
100
AcDbSymbolTableRecord
100
AcDbBlockTableRecord
  2
*D22
340
0
  0
BLOCK_RECORD
  5
8A61
330
1
100
AcDbSymbolTableRecord
100
AcDbBlockTableRecord
  2
*D23
340
0
  0
ENDTAB
  0
ENDSEC
  0
SECTION
  2
BLOCKS
  0
BLOCK
  5
1F
330
1E
100
AcDbEntity
  8
0
100
AcDbBlockBegin
  2
*MODEL_SPACE
 70
     0
 10
0.0
 20
0.0
 30
0.0
  3
*MODEL_SPACE
  1

  0
ENDBLK
  5
20
330
1E
100
AcDbEntity
  8
0
100
AcDbBlockEnd
  0
BLOCK
  5
1B
330
1A
100
AcDbEntity
 67
     1
  8
0
100
AcDbBlockBegin
  2
*PAPER_SPACE
 70
     0
 10
0.0
 20
0.0
 30
0.0
  3
*PAPER_SPACE
  1

  0
ENDBLK
  5
1C
330
1A
100
AcDbEntity
 67
     1
  8
0
100
AcDbBlockEnd
  0
BLOCK
  5
3B6
330
3B2
100
AcDbEntity
  8
0
100
AcDbBlockBegin
  2
_OPEN
 70
     0
 10
0.0
 20
0.0
 30
0.0
  3
_OPEN
  1

  0
LINE
  5
3B3
330
3B2
100
AcDbEntity
  8
30
  6
Continuous
 62
     0
100
AcDbLine
 10
-1.0
 20
0.1666666666666666
 30
0.0
 11
0.0
 21
0.0
 31
0.0
  0
LINE
  5
3B4
330
3B2
100
AcDbEntity
  8
30
  6
Continuous
 62
     0
100
AcDbLine
 10
-1.0
 20
-0.1666666666666666
 30
0.0
 11
0.0
 21
0.0
 31
0.0
  0
LINE
  5
3B5
330
3B2
100
AcDbEntity
  8
30
  6
Continuous
 62
     0
100
AcDbLine
 10
0.0
 20
0.0
 30
0.0
 11
-1.0
 21
0.0
 31
0.0
  0
ENDBLK
  5
3B7
330
3B2
100
AcDbEntity
  8
0
100
AcDbBlockEnd
  0
BLOCK
  5
7DD8
330
7DCE
100
AcDbEntity
  8
0
100
AcDbBlockBegin
  2
*D1
 70
     1
 10
0.0
 20
0.0
 30
0.0
  3
*D1
  1

  0
LINE
  5
7E06
330
7DCE
100
AcDbEntity
  8
30
  6
Continuous
 62
     0
100
AcDbLine
 10
-71.0
 20
130.0
 30
0.0
 11
-90.49999999999995
 21
130.0
 31
0.0
  0
LINE
  5
7E07
330
7DCE
100
AcDbEntity
  8
30
  6
Continuous
 62
     0
100
AcDbLine
 10
-71.0
 20
-130.0
 30
0.0
 11
-90.5
 21
-130.0
 31
0.0
  0
LINE
  5
7E08
330
7DCE
100
AcDbEntity
  8
30
  6
Continuous
 62
     0
100
AcDbLine
 10
-89.99999999999994
 20
127.9999999999999
 30
0.0
 11
-90.0
 21
-128.0
 31
0.0
  0
INSERT
  5
7E09
330
7DCE
100
AcDbEntity
  8
30
  6
Continuous
 62
     0
100
AcDbBlockReference
  2
_OPEN
 10
-89.99999999999994
 20
130.0
 30
0.0
 41
2.0
 42
2.0
 43
2.0
 50
90.0
  0
INSERT
  5
7E0A
330
7DCE
100
AcDbEntity
  8
30
  6
Continuous
 62
     0
100
AcDbBlockReference
  2
_OPEN
 10
-90.0
 20
-130.0
 30
0.0
 41
2.0
 42
2.0
 43
2.0
 50
270.0
  0
MTEXT
  5
7E0B
330
7DCE
100
AcDbEntity
  8
30
  6
Continuous
 62
     0
100
AcDbMText
 10
-93.49999999999996
 20
-0.0000000000000793
 30
0.0
 40
5.0
 41
0.0
 71
     5
 72
     1
  1
\A1;260
 11
0.0000000000000001
 21
1.0
 31
0.0
 73
     1
 44
1.0
1001
ACAD
1000
MTEXTBEGIN
1070
    73
1070
     1
1070
    44
1040
1.0
1070
    74
1070
     0
1000
MTEXTEND
  0
POINT
  5
7E0C
330
7DCE
100
AcDbEntity
  8
DEFPOINTS
  6
Continuous
 62
     0
100
AcDbPoint
 10
-70.0
 20
130.0
 30
0.0
  0
POINT
  5
7E0D
330
7DCE
100
AcDbEntity
  8
DEFPOINTS
  6
Continuous
 62
     0
100
AcDbPoint
 10
-70.0
 20
-130.0
 30
0.0
  0
POINT
  5
7E0E
330
7DCE
100
AcDbEntity
  8
DEFPOINTS
  6
Continuous
 62
     0
100
AcDbPoint
 10
-90.0
 20
-130.0
 30
0.0
  0
ENDBLK
  5
7DD9
330
7DCE
100
AcDbEntity
  8
0
100
AcDbBlockEnd
  0
BLOCK
  5
7DE5
330
7DDB
100
AcDbEntity
  8
0
100
AcDbBlockBegin
  2
*D2
 70
     1
 10
0.0
 20
0.0
 30
0.0
  3
*D2
  1

  0
LINE
  5
7DFD
330
7DDB
100
AcDbEntity
  8
30
  6
Continuous
 62
     0
100
AcDbLine
 10
-71.0
 20
143.0
 30
0.0
 11
-103.4999999999999
 21
143.0
 31
0.0
  0
LINE
  5
7DFE
330
7DDB
100
AcDbEntity
  8
30
  6
Continuous
 62
     0
100
AcDbLine
 10
-71.0
 20
-143.0
 30
0.0
 11
-103.4999999999999
 21
-143.0
 31
0.0
  0
LINE
  5
7DFF
330
7DDB
100
AcDbEntity
  8
30
  6
Continuous
 62
     0
100
AcDbLine
 10
-102.9999999999997
 20
141.0
 30
0.0
 11
-103.0
 21
-141.0
 31
0.0
  0
INSERT
  5
7E00
330
7DDB
100
AcDbEntity
  8
30
  6
Continuous
 62
     0
100
AcDbBlockReference
  2
_OPEN
 10
-102.9999999999997
 20
143.0
 30
0.0
 41
2.0
 42
2.0
 43
2.0
 50
90.0
  0
INSERT
  5
7E01
330
7DDB
100
AcDbEntity
  8
30
  6
Continuous
 62
     0
100
AcDbBlockReference
  2
_OPEN
 10
-103.0
 20
-143.0
 30
0.0
 41
2.0
 42
2.0
 43
2.0
 50
270.0
  0
MTEXT
  5
7E02
330
7DDB
100
AcDbEntity
  8
30
  6
Continuous
 62
     0
100
AcDbMText
 10
-106.4999999999999
 20
-0.0000000000000217
 30
0.0
 40
5.0
 41
0.0
 71
     5
 72
     1
  1
\A1;286
 11
0.0000000000000001
 21
1.0
 31
0.0
 73
     1
 44
1.0
1001
ACAD
1000
MTEXTBEGIN
1070
    73
1070
     1
1070
    44
1040
1.0
1070
    74
1070
     0
1000
MTEXTEND
  0
POINT
  5
7E03
330
7DDB
100
AcDbEntity
  8
DEFPOINTS
  6
Continuous
 62
     0
100
AcDbPoint
 10
-70.0
 20
143.0
 30
0.0
  0
POINT
  5
7E04
330
7DDB
100
AcDbEntity
  8
DEFPOINTS
  6
Continuous
 62
     0
100
AcDbPoint
 10
-70.0
 20
-143.0
 30
0.0
  0
POINT
  5
7E05
330
7DDB
100
AcDbEntity
  8
DEFPOINTS
  6
Continuous
 62
     0
100
AcDbPoint
 10
-103.0
 20
-143.0
 30
0.0
  0
ENDBLK
  5
7DE6
330
7DDB
100
AcDbEntity
  8
0
100
AcDbBlockEnd
  0
BLOCK
  5
7DF2
330
7DE8
100
AcDbEntity
  8
0
100
AcDbBlockBegin
  2
*D3
 70
     1
 10
0.0
 20
0.0
 30
0.0
  3
*D3
  1

  0
LINE
  5
7DF4
330
7DE8
100
AcDbEntity
  8
30
  6
Continuous
 62
     0
100
AcDbLine
 10
-31.0
 20
157.4999999999995
 30
0.0
 11
-117.4999999999996
 21
157.4999999999999
 31
0.0
  0
LINE
  5
7DF5
330
7DE8
100
AcDbEntity
  8
30
  6
Continuous
 62
     0
100
AcDbLine
 10
-31.0
 20
-157.5
 30
0.0
 11
-117.5
 21
-157.4999999999999
 31
0.0
  0
LINE
  5
7DF6
330
7DE8
100
AcDbEntity
  8
30
  6
Continuous
 62
     0
100
AcDbLine
 10
-116.9999999999999
 20
155.4999999999999
 30
0.0
 11
-117.0
 21
-155.4999999999999
 31
0.0
  0
INSERT
  5
7DF7
330
7DE8
100
AcDbEntity
  8
30
  6
Continuous
 62
     0
100
AcDbBlockReference
  2
_OPEN
 10
-116.9999999999999
 20
157.4999999999999
 30
0.0
 41
2.0
 42
2.0
 43
2.0
 50
90.0
  0
INSERT
  5
7DF8
330
7DE8
100
AcDbEntity
  8
30
  6
Continuous
 62
     0
100
AcDbBlockReference
  2
_OPEN
 10
-117.0
 20
-157.4999999999999
 30
0.0
 41
2.0
 42
2.0
 43
2.0
 50
270.0
  0
MTEXT
  5
7DF9
330
7DE8
100
AcDbEntity
  8
30
  6
Continuous
 62
     0
100
AcDbMText
 10
-120.4999999999996
 20
-0.0000000000000493
 30
0.0
 40
5.0
 41
0.0
 71
     5
 72
     1
  1
\A1;315
 11
0.0000000000000001
 21
1.0
 31
0.0
 73
     1
 44
1.0
1001
ACAD
1000
MTEXTBEGIN
1070
    73
1070
     1
1070
    44
1040
1.0
1070
    74
1070
     0
1000
MTEXTEND
  0
POINT
  5
7DFA
330
7DE8
100
AcDbEntity
  8
DEFPOINTS
  6
Continuous
 62
     0
100
AcDbPoint
 10
-30.0
 20
157.4999999999995
 30
0.0
  0
POINT
  5
7DFB
330
7DE8
100
AcDbEntity
  8
DEFPOINTS
  6
Continuous
 62
     0
100
AcDbPoint
 10
-30.0
 20
-157.5
 30
0.0
  0
POINT
  5
7DFC
330
7DE8
100
AcDbEntity
  8
DEFPOINTS
  6
Continuous
 62
     0
100
AcDbPoint
 10
-117.0
 20
-157.4999999999999
 30
0.0
  0
ENDBLK
  5
7DF3
330
7DE8
100
AcDbEntity
  8
0
100
AcDbBlockEnd
  0
BLOCK
  5
7E1A
330
7E10
100
AcDbEntity
  8
0
100
AcDbBlockBegin
  2
*D4
 70
     1
 10
0.0
 20
0.0
 30
0.0
  3
*D4
  1

  0
LINE
  5
8404
330
7E10
100
AcDbEntity
  8
30
  6
Continuous
 62
     0
100
AcDbLine
 10
-70.0
 20
-144.0
 30
0.0
 11
-70.0
 21
-176.5
 31
0.0
  0
LINE
  5
8405
330
7E10
100
AcDbEntity
  8
30
  6
Continuous
 62
     0
100
AcDbLine
 10
70.0
 20
-144.0
 30
0.0
 11
70.0
 21
-176.5
 31
0.0
  0
LINE
  5
8406
330
7E10
100
AcDbEntity
  8
30
  6
Continuous
 62
     0
100
AcDbLine
 10
-68.0
 20
-176.0
 30
0.0
 11
68.0
 21
-176.0
 31
0.0
  0
INSERT
  5
8407
330
7E10
100
AcDbEntity
  8
30
  6
Continuous
 62
     0
100
AcDbBlockReference
  2
_OPEN
 10
-70.0
 20
-176.0
 30
0.0
 41
2.0
 42
2.0
 43
2.0
 50
180.0
  0
INSERT
  5
8408
330
7E10
100
AcDbEntity
  8
30
  6
Continuous
 62
     0
100
AcDbBlockReference
  2
_OPEN
 10
70.0
 20
-176.0
 30
0.0
 41
2.0
 42
2.0
 43
2.0
  0
MTEXT
  5
8409
330
7E10
100
AcDbEntity
  8
30
  6
Continuous
 62
     0
100
AcDbMText
 10
0.0000000000000002
 20
-172.5
 30
0.0
 40
5.0
 41
0.0
 71
     5
 72
     1
  1
\A1;140
 73
     1
 44
1.0
1001
ACAD
1000
MTEXTBEGIN
1070
    73
1070
     1
1070
    44
1040
1.0
1070
    74
1070
     0
1000
MTEXTEND
  0
POINT
  5
840A
330
7E10
100
AcDbEntity
  8
DEFPOINTS
  6
Continuous
 62
     0
100
AcDbPoint
 10
-70.0
 20
-143.0
 30
0.0
  0
POINT
  5
840B
330
7E10
100
AcDbEntity
  8
DEFPOINTS
  6
Continuous
 62
     0
100
AcDbPoint
 10
70.0
 20
-143.0
 30
0.0
  0
POINT
  5
840C
330
7E10
100
AcDbEntity
  8
DEFPOINTS
  6
Continuous
 62
     0
100
AcDbPoint
 10
70.0
 20
-176.0
 30
0.0
  0
ENDBLK
  5
7E1B
330
7E10
100
AcDbEntity
  8
0
100
AcDbBlockEnd
  0
BLOCK
  5
832E
330
8324
100
AcDbEntity
  8
0
100
AcDbBlockBegin
  2
*D5
 70
     1
 10
0.0
 20
0.0
 30
0.0
  3
*D5
  1

  0
LINE
  5
8325
330
8324
100
AcDbEntity
  8
30
  6
Continuous
 62
     0
100
AcDbLine
 10
-35.0
 20
-527.7499999999998
 30
0.0
 11
-35.0
 21
-648.5
 31
0.0
  0
LINE
  5
8326
330
8324
100
AcDbEntity
  8
30
  6
Continuous
 62
     0
100
AcDbLine
 10
35.0
 20
-527.7499999999998
 30
0.0
 11
34.99999999999999
 21
-648.5
 31
0.0
  0
LINE
  5
8327
330
8324
100
AcDbEntity
  8
30
  6
Continuous
 62
     0
100
AcDbLine
 10
-33.0
 20
-648.0
 30
0.0
 11
32.99999999999999
 21
-648.0
 31
0.0
  0
INSERT
  5
8328
330
8324
100
AcDbEntity
  8
30
  6
Continuous
 62
     0
100
AcDbBlockReference
  2
_OPEN
 10
-35.0
 20
-648.0
 30
0.0
 41
2.0
 42
2.0
 43
2.0
 50
180.0
  0
INSERT
  5
8329
330
8324
100
AcDbEntity
  8
30
  6
Continuous
 62
     0
100
AcDbBlockReference
  2
_OPEN
 10
34.99999999999999
 20
-648.0
 30
0.0
 41
2.0
 42
2.0
 43
2.0
  0
MTEXT
  5
832A
330
8324
100
AcDbEntity
  8
30
  6
Continuous
 62
     0
100
AcDbMText
 10
-0.0000000000000069
 20
-644.5
 30
0.0
 40
5.0
 41
0.0
 71
     5
 72
     1
  1
\A1;70
 73
     1
 44
1.0
1001
ACAD
1000
MTEXTBEGIN
1070
    73
1070
     1
1070
    44
1040
1.0
1070
    74
1070
     0
1000
MTEXTEND
  0
POINT
  5
832B
330
8324
100
AcDbEntity
  8
DEFPOINTS
  6
Continuous
 62
     0
100
AcDbPoint
 10
-35.0
 20
-526.75
 30
0.0
  0
POINT
  5
832C
330
8324
100
AcDbEntity
  8
DEFPOINTS
  6
Continuous
 62
     0
100
AcDbPoint
 10
35.0
 20
-526.75
 30
0.0
  0
POINT
  5
832D
330
8324
100
AcDbEntity
  8
DEFPOINTS
  6
Continuous
 62
     0
100
AcDbPoint
 10
34.99999999999999
 20
-648.0
 30
0.0
  0
ENDBLK
  5
832F
330
8324
100
AcDbEntity
  8
0
100
AcDbBlockEnd
  0
BLOCK
  5
833B
330
8331
100
AcDbEntity
  8
0
100
AcDbBlockBegin
  2
*D6
 70
     1
 10
0.0
 20
0.0
 30
0.0
  3
*D6
  1

  0
LINE
  5
8332
330
8331
100
AcDbEntity
  8
30
  6
Continuous
 62
     0
100
AcDbLine
 10
-59.0
 20
-491.0
 30
0.0
 11
-59.00000000000001
 21
-661.5
 31
0.0
  0
LINE
  5
8333
330
8331
100
AcDbEntity
  8
30
  6
Continuous
 62
     0
100
AcDbLine
 10
58.99999999999995
 20
-491.0
 30
0.0
 11
58.99999999999994
 21
-661.5
 31
0.0
  0
LINE
  5
8334
330
8331
100
AcDbEntity
  8
30
  6
Continuous
 62
     0
100
AcDbLine
 10
-57.00000000000001
 20
-661.0
 30
0.0
 11
56.99999999999993
 21
-661.0
 31
0.0
  0
INSERT
  5
8335
330
8331
100
AcDbEntity
  8
30
  6
Continuous
 62
     0
100
AcDbBlockReference
  2
_OPEN
 10
-59.00000000000001
 20
-661.0
 30
0.0
 41
2.0
 42
2.0
 43
2.0
 50
180.0
  0
INSERT
  5
8336
330
8331
100
AcDbEntity
  8
30
  6
Continuous
 62
     0
100
AcDbBlockReference
  2
_OPEN
 10
58.99999999999994
 20
-661.0
 30
0.0
 41
2.0
 42
2.0
 43
2.0
  0
MTEXT
  5
8337
330
8331
100
AcDbEntity
  8
30
  6
Continuous
 62
     0
100
AcDbMText
 10
-0.0000000000000353
 20
-657.5
 30
0.0
 40
5.0
 41
0.0
 71
     5
 72
     1
  1
\A1;118
 73
     1
 44
1.0
1001
ACAD
1000
MTEXTBEGIN
1070
    73
1070
     1
1070
    44
1040
1.0
1070
    74
1070
     0
1000
MTEXTEND
  0
POINT
  5
8338
330
8331
100
AcDbEntity
  8
DEFPOINTS
  6
Continuous
 62
     0
100
AcDbPoint
 10
-59.0
 20
-490.0
 30
0.0
  0
POINT
  5
8339
330
8331
100
AcDbEntity
  8
DEFPOINTS
  6
Continuous
 62
     0
100
AcDbPoint
 10
58.99999999999995
 20
-490.0
 30
0.0
  0
POINT
  5
833A
330
8331
100
AcDbEntity
  8
DEFPOINTS
  6
Continuous
 62
     0
100
AcDbPoint
 10
58.99999999999994
 20
-661.0
 30
0.0
  0
ENDBLK
  5
833C
330
8331
100
AcDbEntity
  8
0
100
AcDbBlockEnd
  0
BLOCK
  5
8348
330
833E
100
AcDbEntity
  8
0
100
AcDbBlockBegin
  2
*D7
 70
     1
 10
0.0
 20
0.0
 30
0.0
  3
*D7
  1

  0
LINE
  5
840E
330
833E
100
AcDbEntity
  8
30
  6
Continuous
 62
     0
100
AcDbLine
 10
53.99999999999995
 20
-404.0
 30
0.0
 11
89.50000000000008
 21
-404.0
 31
0.0
  0
LINE
  5
840F
330
833E
100
AcDbEntity
  8
30
  6
Continuous
 62
     0
100
AcDbLine
 10
53.99999999999995
 20
-496.0
 30
0.0
 11
89.50000000000006
 21
-496.0
 31
0.0
  0
LINE
  5
8410
330
833E
100
AcDbEntity
  8
30
  6
Continuous
 62
     0
100
AcDbLine
 10
89.00000000000011
 20
-406.0
 30
0.0
 11
89.00000000000003
 21
-494.0
 31
0.0
  0
INSERT
  5
8411
330
833E
100
AcDbEntity
  8
30
  6
Continuous
 62
     0
100
AcDbBlockReference
  2
_OPEN
 10
89.00000000000011
 20
-404.0
 30
0.0
 41
2.0
 42
2.0
 43
2.0
 50
90.0
  0
INSERT
  5
8412
330
833E
100
AcDbEntity
  8
30
  6
Continuous
 62
     0
100
AcDbBlockReference
  2
_OPEN
 10
89.00000000000003
 20
-496.0
 30
0.0
 41
2.0
 42
2.0
 43
2.0
 50
270.0
  0
MTEXT
  5
8413
330
833E
100
AcDbEntity
  8
30
  6
Continuous
 62
     0
100
AcDbMText
 10
85.50000000000014
 20
-450.0
 30
0.0
 40
5.0
 41
0.0
 71
     5
 72
     1
  1
\A1;92
 11
0.0000000000000001
 21
1.0
 31
0.0
 73
     1
 44
1.0
1001
ACAD
1000
MTEXTBEGIN
1070
    73
1070
     1
1070
    44
1040
1.0
1070
    74
1070
     0
1000
MTEXTEND
  0
POINT
  5
8414
330
833E
100
AcDbEntity
  8
DEFPOINTS
  6
Continuous
 62
     0
100
AcDbPoint
 10
52.99999999999993
 20
-404.0
 30
0.0
  0
POINT
  5
8415
330
833E
100
AcDbEntity
  8
DEFPOINTS
  6
Continuous
 62
     0
100
AcDbPoint
 10
52.99999999999993
 20
-496.0
 30
0.0
  0
POINT
  5
8416
330
833E
100
AcDbEntity
  8
DEFPOINTS
  6
Continuous
 62
     0
100
AcDbPoint
 10
89.00000000000003
 20
-496.0
 30
0.0
  0
ENDBLK
  5
8349
330
833E
100
AcDbEntity
  8
0
100
AcDbBlockEnd
  0
BLOCK
  5
8355
330
834B
100
AcDbEntity
  8
0
100
AcDbBlockBegin
  2
*D8
 70
     1
 10
0.0
 20
0.0
 30
0.0
  3
*D8
  1

  0
LINE
  5
8417
330
834B
100
AcDbEntity
  8
30
  6
Continuous
 62
     0
100
AcDbLine
 10
42.75
 20
-380.0
 30
0.0
 11
110.4999999999999
 21
-380.0
 31
0.0
  0
LINE
  5
8418
330
834B
100
AcDbEntity
  8
30
  6
Continuous
 62
     0
100
AcDbLine
 10
42.75
 20
-520.0
 30
0.0
 11
110.4999999999999
 21
-520.0
 31
0.0
  0
LINE
  5
8419
330
834B
100
AcDbEntity
  8
30
  6
Continuous
 62
     0
100
AcDbLine
 10
110.0
 20
-382.0
 30
0.0
 11
110.0
 21
-518.0
 31
0.0
  0
INSERT
  5
841A
330
834B
100
AcDbEntity
  8
30
  6
Continuous
 62
     0
100
AcDbBlockReference
  2
_OPEN
 10
110.0
 20
-380.0
 30
0.0
 41
2.0
 42
2.0
 43
2.0
 50
90.0
  0
INSERT
  5
841B
330
834B
100
AcDbEntity
  8
30
  6
Continuous
 62
     0
100
AcDbBlockReference
  2
_OPEN
 10
110.0
 20
-520.0
 30
0.0
 41
2.0
 42
2.0
 43
2.0
 50
270.0
  0
MTEXT
  5
841C
330
834B
100
AcDbEntity
  8
30
  6
Continuous
 62
     0
100
AcDbMText
 10
106.5000000000001
 20
-450.0
 30
0.0
 40
5.0
 41
0.0
 71
     5
 72
     1
  1
\A1;140
 11
0.0000000000000001
 21
1.0
 31
0.0
 73
     1
 44
1.0
1001
ACAD
1000
MTEXTBEGIN
1070
    73
1070
     1
1070
    44
1040
1.0
1070
    74
1070
     0
1000
MTEXTEND
  0
POINT
  5
841D
330
834B
100
AcDbEntity
  8
DEFPOINTS
  6
Continuous
 62
     0
100
AcDbPoint
 10
41.74999999999999
 20
-380.0
 30
0.0
  0
POINT
  5
841E
330
834B
100
AcDbEntity
  8
DEFPOINTS
  6
Continuous
 62
     0
100
AcDbPoint
 10
41.74999999999999
 20
-520.0
 30
0.0
  0
POINT
  5
841F
330
834B
100
AcDbEntity
  8
DEFPOINTS
  6
Continuous
 62
     0
100
AcDbPoint
 10
110.0
 20
-520.0
 30
0.0
  0
ENDBLK
  5
8356
330
834B
100
AcDbEntity
  8
0
100
AcDbBlockEnd
  0
BLOCK
  5
83A1
330
839C
100
AcDbEntity
  8
TOP
  6
Continuous
 62
     3
100
AcDbBlockBegin
  2
*U9
 70
     1
 10
0.0
 20
0.0
 30
0.0
  3
*U9
  1

  0
LINE
  5
839D
330
839C
100
AcDbEntity
  8
1
  6
ByBlock
 62
     0
100
AcDbLine
 10
548.3527638488361
 20
74.64070630641497
 30
0.0
 11
522.3527638488361
 21
74.64070630641497
 31
0.0
  0
LINE
  5
839E
330
839C
100
AcDbEntity
  8
1
  6
ByBlock
 62
     0
100
AcDbLine
 10
517.8511961722488
 20
100.6647232036204
 30
0.0
 11
522.3527638488361
 21
74.64070630641497
 31
0.0
  0
SOLID
  5
839F
330
839C
100
AcDbEntity
  8
1
  6
ByBlock
 62
     0
100
AcDbTrace
 10
517.8511961722488
 20
100.6647232036204
 30
0.0
 11
518.5205443376235
 21
98.75080465810007
 31
0.0
 12
517.8636330166235
 22
98.63717382314177
 32
0.0
 13
517.8636330166235
 23
98.63717382314177
 33
0.0
  0
TEXT
  5
83A0
330
839C
100
AcDbEntity
  8
TOP
  6
ByBlock
 62
     0
100
AcDbText
 10
548.3527638488361
 20
73.14070629651499
 30
0.0
 40
3.000000019799997
  1
 
 41
1.189062500000023
  7
UGMTXT
100
AcDbText
  0
ENDBLK
  5
83A2
330
839C
100
AcDbEntity
  8
0
100
AcDbBlockEnd
  0
BLOCK
  5
8642
330
8638
100
AcDbEntity
  8
0
100
AcDbBlockBegin
  2
*D10
 70
     1
 10
0.0
 20
0.0
 30
0.0
  3
*D10
  1

  0
LINE
  5
8675
330
8638
100
AcDbEntity
  8
30
  6
Continuous
 62
     0
100
AcDbLine
 10
479.0
 20
114.0000000000005
 30
0.0
 11
495.1062902121223
 21
114.0000000000005
 31
0.0
  0
LINE
  5
8676
330
8638
100
AcDbEntity
  8
30
  6
Continuous
 62
     0
100
AcDbLine
 10
479.0
 20
-113.9999999999992
 30
0.0
 11
495.1062902121223
 21
-113.9999999999992
 31
0.0
  0
LINE
  5
8677
330
8638
100
AcDbEntity
  8
30
  6
Continuous
 62
     0
100
AcDbLine
 10
494.6062902121223
 20
112.0000000000006
 30
0.0
 11
494.6062902121223
 21
-111.9999999999992
 31
0.0
  0
INSERT
  5
8678
330
8638
100
AcDbEntity
  8
30
  6
Continuous
 62
     0
100
AcDbBlockReference
  2
_OPEN
 10
494.6062902121223
 20
114.0000000000005
 30
0.0
 41
2.0
 42
2.0
 43
2.0
 50
90.0
  0
INSERT
  5
8679
330
8638
100
AcDbEntity
  8
30
  6
Continuous
 62
     0
100
AcDbBlockReference
  2
_OPEN
 10
494.6062902121223
 20
-113.9999999999992
 30
0.0
 41
2.0
 42
2.0
 43
2.0
 50
270.0
  0
MTEXT
  5
867A
330
8638
100
AcDbEntity
  8
30
  6
Continuous
 62
     0
100
AcDbMText
 10
491.1062902121223
 20
0.0000000000008086
 30
0.0
 40
5.0
 41
0.0
 71
     5
 72
     1
  1
\A1;228
 11
0.0000000000000001
 21
1.0
 31
0.0
 73
     1
 44
1.0
1001
ACAD
1000
MTEXTBEGIN
1070
    73
1070
     1
1070
    44
1040
1.0
1070
    74
1070
     0
1000
MTEXTEND
  0
POINT
  5
867B
330
8638
100
AcDbEntity
  8
DEFPOINTS
  6
Continuous
 62
     0
100
AcDbPoint
 10
478.0
 20
114.0000000000005
 30
0.0
  0
POINT
  5
867C
330
8638
100
AcDbEntity
  8
DEFPOINTS
  6
Continuous
 62
     0
100
AcDbPoint
 10
478.0
 20
-113.9999999999992
 30
0.0
  0
POINT
  5
867D
330
8638
100
AcDbEntity
  8
DEFPOINTS
  6
Continuous
 62
     0
100
AcDbPoint
 10
494.6062902121223
 20
-113.9999999999992
 30
0.0
  0
ENDBLK
  5
8643
330
8638
100
AcDbEntity
  8
0
100
AcDbBlockEnd
  0
BLOCK
  5
864E
330
8644
100
AcDbEntity
  8
0
100
AcDbBlockBegin
  2
*D11
 70
     1
 10
0.0
 20
0.0
 30
0.0
  3
*D11
  1

  0
LINE
  5
867E
330
8644
100
AcDbEntity
  8
30
  6
Continuous
 62
     0
100
AcDbLine
 10
226.0
 20
-52.0
 30
0.0
 11
226.0
 21
-171.5
 31
0.0
  0
LINE
  5
867F
330
8644
100
AcDbEntity
  8
30
  6
Continuous
 62
     0
100
AcDbLine
 10
414.0
 20
-158.4999999999999
 30
0.0
 11
414.0
 21
-171.5
 31
0.0
  0
LINE
  5
8680
330
8644
100
AcDbEntity
  8
30
  6
Continuous
 62
     0
100
AcDbLine
 10
228.0
 20
-171.0
 30
0.0
 11
412.0
 21
-171.0
 31
0.0
  0
INSERT
  5
8681
330
8644
100
AcDbEntity
  8
30
  6
Continuous
 62
     0
100
AcDbBlockReference
  2
_OPEN
 10
226.0
 20
-171.0
 30
0.0
 41
2.0
 42
2.0
 43
2.0
 50
180.0
  0
INSERT
  5
8682
330
8644
100
AcDbEntity
  8
30
  6
Continuous
 62
     0
100
AcDbBlockReference
  2
_OPEN
 10
414.0
 20
-171.0
 30
0.0
 41
2.0
 42
2.0
 43
2.0
  0
MTEXT
  5
8683
330
8644
100
AcDbEntity
  8
30
  6
Continuous
 62
     0
100
AcDbMText
 10
320.0
 20
-167.5
 30
0.0
 40
5.0
 41
0.0
 71
     5
 72
     1
  1
\A1;188
 73
     1
 44
1.0
1001
ACAD
1000
MTEXTBEGIN
1070
    73
1070
     1
1070
    44
1040
1.0
1070
    74
1070
     0
1000
MTEXTEND
  0
POINT
  5
8684
330
8644
100
AcDbEntity
  8
DEFPOINTS
  6
Continuous
 62
     0
100
AcDbPoint
 10
226.0
 20
-51.0
 30
0.0
  0
POINT
  5
8685
330
8644
100
AcDbEntity
  8
DEFPOINTS
  6
Continuous
 62
     0
100
AcDbPoint
 10
414.0
 20
-157.5
 30
0.0
  0
POINT
  5
8686
330
8644
100
AcDbEntity
  8
DEFPOINTS
  6
Continuous
 62
     0
100
AcDbPoint
 10
414.0
 20
-171.0
 30
0.0
  0
ENDBLK
  5
864F
330
8644
100
AcDbEntity
  8
0
100
AcDbBlockEnd
  0
BLOCK
  5
865A
330
8650
100
AcDbEntity
  8
0
100
AcDbBlockBegin
  2
*D12
 70
     1
 10
0.0
 20
0.0
 30
0.0
  3
*D12
  1

  0
LINE
  5
8687
330
8650
100
AcDbEntity
  8
30
  6
Continuous
 62
     0
100
AcDbLine
 10
414.0
 20
-139.0
 30
0.0
 11
414.0
 21
-171.5
 31
0.0
  0
LINE
  5
8688
330
8650
100
AcDbEntity
  8
30
  6
Continuous
 62
     0
100
AcDbLine
 10
466.0
 20
-138.9999999999998
 30
0.0
 11
466.0
 21
-171.5
 31
0.0
  0
LINE
  5
8689
330
8650
100
AcDbEntity
  8
30
  6
Continuous
 62
     0
100
AcDbLine
 10
416.0
 20
-171.0
 30
0.0
 11
464.0
 21
-171.0
 31
0.0
  0
INSERT
  5
868A
330
8650
100
AcDbEntity
  8
30
  6
Continuous
 62
     0
100
AcDbBlockReference
  2
_OPEN
 10
414.0
 20
-171.0
 30
0.0
 41
2.0
 42
2.0
 43
2.0
 50
180.0
  0
INSERT
  5
868B
330
8650
100
AcDbEntity
  8
30
  6
Continuous
 62
     0
100
AcDbBlockReference
  2
_OPEN
 10
466.0
 20
-171.0
 30
0.0
 41
2.0
 42
2.0
 43
2.0
  0
MTEXT
  5
868C
330
8650
100
AcDbEntity
  8
30
  6
Continuous
 62
     0
100
AcDbMText
 10
440.0
 20
-167.5
 30
0.0
 40
5.0
 41
0.0
 71
     5
 72
     1
  1
\A1;52
 73
     1
 44
1.0
1001
ACAD
1000
MTEXTBEGIN
1070
    73
1070
     1
1070
    44
1040
1.0
1070
    74
1070
     0
1000
MTEXTEND
  0
POINT
  5
868D
330
8650
100
AcDbEntity
  8
DEFPOINTS
  6
Continuous
 62
     0
100
AcDbPoint
 10
414.0
 20
-138.0
 30
0.0
  0
POINT
  5
868E
330
8650
100
AcDbEntity
  8
DEFPOINTS
  6
Continuous
 62
     0
100
AcDbPoint
 10
466.0
 20
-137.9999999999998
 30
0.0
  0
POINT
  5
868F
330
8650
100
AcDbEntity
  8
DEFPOINTS
  6
Continuous
 62
     0
100
AcDbPoint
 10
466.0
 20
-171.0
 30
0.0
  0
ENDBLK
  5
865B
330
8650
100
AcDbEntity
  8
0
100
AcDbBlockEnd
  0
BLOCK
  5
8667
330
865C
100
AcDbEntity
  8
0
100
AcDbBlockBegin
  2
*D13
 70
     1
 10
0.0
 20
0.0
 30
0.0
  3
*D13
  1

  0
LINE
  5
8690
330
865C
100
AcDbEntity
  8
30
  6
Continuous
 62
     0
100
AcDbLine
 10
466.0
 20
-139.9999999999998
 30
0.0
 11
466.0
 21
-171.5
 31
0.0
  0
LINE
  5
8691
330
865C
100
AcDbEntity
  8
30
  6
Continuous
 62
     0
100
AcDbLine
 10
470.0
 20
-119.999999999999
 30
0.0
 11
470.0
 21
-171.5
 31
0.0
  0
LINE
  5
8692
330
865C
100
AcDbEntity
  8
30
  6
Continuous
 62
     0
100
AcDbLine
 10
464.0
 20
-171.0
 30
0.0
 11
462.0
 21
-171.0
 31
0.0
  0
LINE
  5
8693
330
865C
100
AcDbEntity
  8
30
  6
Continuous
 62
     0
100
AcDbLine
 10
472.0
 20
-171.0
 30
0.0
 11
479.3333333333333
 21
-171.0
 31
0.0
  0
INSERT
  5
8694
330
865C
100
AcDbEntity
  8
30
  6
Continuous
 62
     0
100
AcDbBlockReference
  2
_OPEN
 10
466.0
 20
-171.0
 30
0.0
 41
2.0
 42
2.0
 43
2.0
  0
INSERT
  5
8695
330
865C
100
AcDbEntity
  8
30
  6
Continuous
 62
     0
100
AcDbBlockReference
  2
_OPEN
 10
470.0
 20
-171.0
 30
0.0
 41
2.0
 42
2.0
 43
2.0
 50
180.0
  0
MTEXT
  5
8696
330
865C
100
AcDbEntity
  8
30
  6
Continuous
 62
     0
100
AcDbMText
 10
476.6666666666666
 20
-167.5
 30
0.0
 40
5.0
 41
0.0
 71
     5
 72
     1
  1
\A1;4
 73
     1
 44
1.0
1001
ACAD
1000
MTEXTBEGIN
1070
    73
1070
     1
1070
    44
1040
1.0
1070
    74
1070
     0
1000
MTEXTEND
  0
POINT
  5
8697
330
865C
100
AcDbEntity
  8
DEFPOINTS
  6
Continuous
 62
     0
100
AcDbPoint
 10
466.0
 20
-138.9999999999998
 30
0.0
  0
POINT
  5
8698
330
865C
100
AcDbEntity
  8
DEFPOINTS
  6
Continuous
 62
     0
100
AcDbPoint
 10
470.0
 20
-118.9999999999992
 30
0.0
  0
POINT
  5
8699
330
865C
100
AcDbEntity
  8
DEFPOINTS
  6
Continuous
 62
     0
100
AcDbPoint
 10
470.0
 20
-171.0
 30
0.0
  0
ENDBLK
  5
8668
330
865C
100
AcDbEntity
  8
0
100
AcDbBlockEnd
  0
BLOCK
  5
8673
330
8669
100
AcDbEntity
  8
0
100
AcDbBlockBegin
  2
*D14
 70
     1
 10
0.0
 20
0.0
 30
0.0
  3
*D14
  1

  0
LINE
  5
869A
330
8669
100
AcDbEntity
  8
30
  6
Continuous
 62
     0
100
AcDbLine
 10
467.0
 20
90.0
 30
0.0
 11
477.1062902121223
 21
90.0
 31
0.0
  0
LINE
  5
869B
330
8669
100
AcDbEntity
  8
30
  6
Continuous
 62
     0
100
AcDbLine
 10
467.0
 20
-90.0
 30
0.0
 11
477.1062902121223
 21
-90.0
 31
0.0
  0
LINE
  5
869C
330
8669
100
AcDbEntity
  8
30
  6
Continuous
 62
     0
100
AcDbLine
 10
476.6062902121223
 20
88.0
 30
0.0
 11
476.6062902121223
 21
-88.0
 31
0.0
  0
INSERT
  5
869D
330
8669
100
AcDbEntity
  8
30
  6
Continuous
 62
     0
100
AcDbBlockReference
  2
_OPEN
 10
476.6062902121223
 20
90.0
 30
0.0
 41
2.0
 42
2.0
 43
2.0
 50
90.0
  0
INSERT
  5
869E
330
8669
100
AcDbEntity
  8
30
  6
Continuous
 62
     0
100
AcDbBlockReference
  2
_OPEN
 10
476.6062902121223
 20
-90.0
 30
0.0
 41
2.0
 42
2.0
 43
2.0
 50
270.0
  0
MTEXT
  5
869F
330
8669
100
AcDbEntity
  8
30
  6
Continuous
 62
     0
100
AcDbMText
 10
473.1062902121223
 20
0.0000000000000707
 30
0.0
 40
5.0
 41
0.0
 71
     5
 72
     1
  1
\A1;180
 11
0.0000000000000001
 21
1.0
 31
0.0
 73
     1
 44
1.0
1001
ACAD
1000
MTEXTBEGIN
1070
    73
1070
     1
1070
    44
1040
1.0
1070
    74
1070
     0
1000
MTEXTEND
  0
POINT
  5
86A0
330
8669
100
AcDbEntity
  8
DEFPOINTS
  6
Continuous
 62
     0
100
AcDbPoint
 10
466.0
 20
90.0
 30
0.0
  0
POINT
  5
86A1
330
8669
100
AcDbEntity
  8
DEFPOINTS
  6
Continuous
 62
     0
100
AcDbPoint
 10
466.0
 20
-90.0
 30
0.0
  0
POINT
  5
86A2
330
8669
100
AcDbEntity
  8
DEFPOINTS
  6
Continuous
 62
     0
100
AcDbPoint
 10
476.6062902121223
 20
-90.0
 30
0.0
  0
ENDBLK
  5
8674
330
8669
100
AcDbEntity
  8
0
100
AcDbBlockEnd
  0
BLOCK
  5
8A0C
330
8A02
100
AcDbEntity
  8
0
100
AcDbBlockBegin
  2
*D15
 70
     1
 10
0.0
 20
0.0
 30
0.0
  3
*D15
  1

  0
LINE
  5
8A6D
330
8A02
100
AcDbEntity
  8
30
  6
Continuous
 62
     0
100
AcDbLine
 10
229.0000000000003
 20
296.4999999999998
 30
0.0
 11
229.0000000000003
 21
258.3333333333333
 31
0.0
  0
LINE
  5
8A6E
330
8A02
100
AcDbEntity
  8
30
  6
Continuous
 62
     0
100
AcDbLine
 10
265.0000000000003
 20
315.5000000000006
 30
0.0
 11
265.0000000000003
 21
258.3333333333333
 31
0.0
  0
LINE
  5
8A6F
330
8A02
100
AcDbEntity
  8
30
  6
Continuous
 62
     0
100
AcDbLine
 10
231.0000000000003
 20
258.8333333333333
 30
0.0
 11
263.0000000000003
 21
258.8333333333333
 31
0.0
  0
INSERT
  5
8A70
330
8A02
100
AcDbEntity
  8
30
  6
Continuous
 62
     0
100
AcDbBlockReference
  2
_OPEN
 10
229.0000000000003
 20
258.8333333333333
 30
0.0
 41
2.0
 42
2.0
 43
2.0
 50
180.0
  0
INSERT
  5
8A71
330
8A02
100
AcDbEntity
  8
30
  6
Continuous
 62
     0
100
AcDbBlockReference
  2
_OPEN
 10
265.0000000000003
 20
258.8333333333333
 30
0.0
 41
2.0
 42
2.0
 43
2.0
  0
MTEXT
  5
8A72
330
8A02
100
AcDbEntity
  8
30
  6
Continuous
 62
     0
100
AcDbMText
 10
247.0000000000003
 20
262.3333333333333
 30
0.0
 40
5.0
 41
0.0
 71
     5
 72
     1
  1
\A1;36
 73
     1
 44
1.0
1001
ACAD
1000
MTEXTBEGIN
1070
    73
1070
     1
1070
    44
1040
1.0
1070
    74
1070
     0
1000
MTEXTEND
  0
POINT
  5
8A73
330
8A02
100
AcDbEntity
  8
DEFPOINTS
  6
Continuous
 62
     0
100
AcDbPoint
 10
229.0000000000003
 20
297.5
 30
0.0
  0
POINT
  5
8A74
330
8A02
100
AcDbEntity
  8
DEFPOINTS
  6
Continuous
 62
     0
100
AcDbPoint
 10
265.0000000000003
 20
316.5000000000006
 30
0.0
  0
POINT
  5
8A75
330
8A02
100
AcDbEntity
  8
DEFPOINTS
  6
Continuous
 62
     0
100
AcDbPoint
 10
265.0000000000003
 20
258.8333333333333
 30
0.0
  0
ENDBLK
  5
8A0D
330
8A02
100
AcDbEntity
  8
0
100
AcDbBlockEnd
  0
BLOCK
  5
8A18
330
8A0E
100
AcDbEntity
  8
0
100
AcDbBlockBegin
  2
*D16
 70
     1
 10
0.0
 20
0.0
 30
0.0
  3
*D16
  1

  0
LINE
  5
8A76
330
8A0E
100
AcDbEntity
  8
30
  6
Continuous
 62
     0
100
AcDbLine
 10
209.0000000000002
 20
277.0
 30
0.0
 11
209.0000000000002
 21
258.8333333333333
 31
0.0
  0
LINE
  5
8A77
330
8A0E
100
AcDbEntity
  8
30
  6
Continuous
 62
     0
100
AcDbLine
 10
229.0000000000003
 20
308.5000000000007
 30
0.0
 11
229.0000000000003
 21
258.8333333333333
 31
0.0
  0
LINE
  5
8A78
330
8A0E
100
AcDbEntity
  8
30
  6
Continuous
 62
     0
100
AcDbLine
 10
211.0000000000002
 20
259.3333333333333
 30
0.0
 11
227.0000000000003
 21
259.3333333333333
 31
0.0
  0
INSERT
  5
8A79
330
8A0E
100
AcDbEntity
  8
30
  6
Continuous
 62
     0
100
AcDbBlockReference
  2
_OPEN
 10
209.0000000000002
 20
259.3333333333333
 30
0.0
 41
2.0
 42
2.0
 43
2.0
 50
180.0
  0
INSERT
  5
8A7A
330
8A0E
100
AcDbEntity
  8
30
  6
Continuous
 62
     0
100
AcDbBlockReference
  2
_OPEN
 10
229.0000000000003
 20
259.3333333333333
 30
0.0
 41
2.0
 42
2.0
 43
2.0
  0
MTEXT
  5
8A7B
330
8A0E
100
AcDbEntity
  8
30
  6
Continuous
 62
     0
100
AcDbMText
 10
219.0000000000003
 20
262.8333333333333
 30
0.0
 40
5.0
 41
0.0
 71
     5
 72
     1
  1
\A1;20
 73
     1
 44
1.0
1001
ACAD
1000
MTEXTBEGIN
1070
    73
1070
     1
1070
    44
1040
1.0
1070
    74
1070
     0
1000
MTEXTEND
  0
POINT
  5
8A7C
330
8A0E
100
AcDbEntity
  8
DEFPOINTS
  6
Continuous
 62
     0
100
AcDbPoint
 10
209.0000000000002
 20
278.0
 30
0.0
  0
POINT
  5
8A7D
330
8A0E
100
AcDbEntity
  8
DEFPOINTS
  6
Continuous
 62
     0
100
AcDbPoint
 10
229.0000000000003
 20
309.5000000000006
 30
0.0
  0
POINT
  5
8A7E
330
8A0E
100
AcDbEntity
  8
DEFPOINTS
  6
Continuous
 62
     0
100
AcDbPoint
 10
229.0000000000003
 20
259.3333333333333
 30
0.0
  0
ENDBLK
  5
8A19
330
8A0E
100
AcDbEntity
  8
0
100
AcDbBlockEnd
  0
BLOCK
  5
8A24
330
8A1A
100
AcDbEntity
  8
0
100
AcDbBlockBegin
  2
*D17
 70
     1
 10
0.0
 20
0.0
 30
0.0
  3
*D17
  1

  0
LINE
  5
8A7F
330
8A1A
100
AcDbEntity
  8
30
  6
Continuous
 62
     0
100
AcDbLine
 10
166.0000000000003
 20
291.5
 30
0.0
 11
166.0000000000003
 21
258.8333333333333
 31
0.0
  0
LINE
  5
8A80
330
8A1A
100
AcDbEntity
  8
30
  6
Continuous
 62
     0
100
AcDbLine
 10
209.0000000000002
 20
296.4999999999998
 30
0.0
 11
209.0000000000002
 21
258.8333333333333
 31
0.0
  0
LINE
  5
8A81
330
8A1A
100
AcDbEntity
  8
30
  6
Continuous
 62
     0
100
AcDbLine
 10
168.0000000000003
 20
259.3333333333333
 30
0.0
 11
207.0000000000002
 21
259.3333333333333
 31
0.0
  0
INSERT
  5
8A82
330
8A1A
100
AcDbEntity
  8
30
  6
Continuous
 62
     0
100
AcDbBlockReference
  2
_OPEN
 10
166.0000000000003
 20
259.3333333333333
 30
0.0
 41
2.0
 42
2.0
 43
2.0
 50
180.0
  0
INSERT
  5
8A83
330
8A1A
100
AcDbEntity
  8
30
  6
Continuous
 62
     0
100
AcDbBlockReference
  2
_OPEN
 10
209.0000000000002
 20
259.3333333333333
 30
0.0
 41
2.0
 42
2.0
 43
2.0
  0
MTEXT
  5
8A84
330
8A1A
100
AcDbEntity
  8
30
  6
Continuous
 62
     0
100
AcDbMText
 10
187.5000000000003
 20
262.8333333333333
 30
0.0
 40
5.0
 41
0.0
 71
     5
 72
     1
  1
\A1;43
 73
     1
 44
1.0
1001
ACAD
1000
MTEXTBEGIN
1070
    73
1070
     1
1070
    44
1040
1.0
1070
    74
1070
     0
1000
MTEXTEND
  0
POINT
  5
8A85
330
8A1A
100
AcDbEntity
  8
DEFPOINTS
  6
Continuous
 62
     0
100
AcDbPoint
 10
166.0000000000003
 20
292.5
 30
0.0
  0
POINT
  5
8A86
330
8A1A
100
AcDbEntity
  8
DEFPOINTS
  6
Continuous
 62
     0
100
AcDbPoint
 10
209.0000000000002
 20
297.5
 30
0.0
  0
POINT
  5
8A87
330
8A1A
100
AcDbEntity
  8
DEFPOINTS
  6
Continuous
 62
     0
100
AcDbPoint
 10
209.0000000000002
 20
259.3333333333333
 30
0.0
  0
ENDBLK
  5
8A25
330
8A1A
100
AcDbEntity
  8
0
100
AcDbBlockEnd
  0
BLOCK
  5
8A31
330
8A26
100
AcDbEntity
  8
0
100
AcDbBlockBegin
  2
*D18
 70
     1
 10
0.0
 20
0.0
 30
0.0
  3
*D18
  1

  0
LINE
  5
8A88
330
8A26
100
AcDbEntity
  8
30
  6
Continuous
 62
     0
100
AcDbLine
 10
161.0000000000003
 20
304.4999999999999
 30
0.0
 11
161.0000000000003
 21
258.4999999999999
 31
0.0
  0
LINE
  5
8A89
330
8A26
100
AcDbEntity
  8
30
  6
Continuous
 62
     0
100
AcDbLine
 10
166.0000000000003
 20
296.4999999999998
 30
0.0
 11
166.0000000000003
 21
258.4999999999999
 31
0.0
  0
LINE
  5
8A8A
330
8A26
100
AcDbEntity
  8
30
  6
Continuous
 62
     0
100
AcDbLine
 10
168.0000000000003
 20
259.0
 30
0.0
 11
170.0000000000003
 21
259.0
 31
0.0
  0
LINE
  5
8A8B
330
8A26
100
AcDbEntity
  8
30
  6
Continuous
 62
     0
100
AcDbLine
 10
159.0000000000003
 20
259.0
 30
0.0
 11
151.6666666666669
 21
259.0
 31
0.0
  0
INSERT
  5
8A8C
330
8A26
100
AcDbEntity
  8
30
  6
Continuous
 62
     0
100
AcDbBlockReference
  2
_OPEN
 10
166.0000000000003
 20
259.0
 30
0.0
 41
2.0
 42
2.0
 43
2.0
 50
180.0
  0
INSERT
  5
8A8D
330
8A26
100
AcDbEntity
  8
30
  6
Continuous
 62
     0
100
AcDbBlockReference
  2
_OPEN
 10
161.0000000000003
 20
259.0
 30
0.0
 41
2.0
 42
2.0
 43
2.0
  0
MTEXT
  5
8A8E
330
8A26
100
AcDbEntity
  8
30
  6
Continuous
 62
     0
100
AcDbMText
 10
154.3333333333336
 20
262.5
 30
0.0
 40
5.0
 41
0.0
 71
     5
 72
     1
  1
\A1;5
 73
     1
 44
1.0
1001
ACAD
1000
MTEXTBEGIN
1070
    73
1070
     1
1070
    44
1040
1.0
1070
    74
1070
     0
1000
MTEXTEND
  0
POINT
  5
8A8F
330
8A26
100
AcDbEntity
  8
DEFPOINTS
  6
Continuous
 62
     0
100
AcDbPoint
 10
161.0000000000003
 20
305.5
 30
0.0
  0
POINT
  5
8A90
330
8A26
100
AcDbEntity
  8
DEFPOINTS
  6
Continuous
 62
     0
100
AcDbPoint
 10
166.0000000000003
 20
297.5
 30
0.0
  0
POINT
  5
8A91
330
8A26
100
AcDbEntity
  8
DEFPOINTS
  6
Continuous
 62
     0
100
AcDbPoint
 10
166.0000000000003
 20
259.0
 30
0.0
  0
ENDBLK
  5
8A32
330
8A26
100
AcDbEntity
  8
0
100
AcDbBlockEnd
  0
BLOCK
  5
8A3D
330
8A33
100
AcDbEntity
  8
0
100
AcDbBlockBegin
  2
*D19
 70
     1
 10
0.0
 20
0.0
 30
0.0
  3
*D19
  1

  0
LINE
  5
8A92
330
8A33
100
AcDbEntity
  8
30
  6
Continuous
 62
     0
100
AcDbLine
 10
209.0000000000002
 20
391.5
 30
0.0
 11
209.0000000000002
 21
411.5
 31
0.0
  0
LINE
  5
8A93
330
8A33
100
AcDbEntity
  8
30
  6
Continuous
 62
     0
100
AcDbLine
 10
225.0000000000004
 20
369.0
 30
0.0
 11
225.0000000000004
 21
411.5
 31
0.0
  0
LINE
  5
8A94
330
8A33
100
AcDbEntity
  8
30
  6
Continuous
 62
     0
100
AcDbLine
 10
211.0000000000002
 20
411.0
 30
0.0
 11
223.0000000000004
 21
411.0
 31
0.0
  0
INSERT
  5
8A95
330
8A33
100
AcDbEntity
  8
30
  6
Continuous
 62
     0
100
AcDbBlockReference
  2
_OPEN
 10
209.0000000000002
 20
411.0
 30
0.0
 41
2.0
 42
2.0
 43
2.0
 50
180.0
  0
INSERT
  5
8A96
330
8A33
100
AcDbEntity
  8
30
  6
Continuous
 62
     0
100
AcDbBlockReference
  2
_OPEN
 10
225.0000000000004
 20
411.0
 30
0.0
 41
2.0
 42
2.0
 43
2.0
  0
MTEXT
  5
8A97
330
8A33
100
AcDbEntity
  8
30
  6
Continuous
 62
     0
100
AcDbMText
 10
217.0000000000003
 20
414.5
 30
0.0
 40
5.0
 41
0.0
 71
     5
 72
     1
  1
\A1;16
 73
     1
 44
1.0
1001
ACAD
1000
MTEXTBEGIN
1070
    73
1070
     1
1070
    44
1040
1.0
1070
    74
1070
     0
1000
MTEXTEND
  0
POINT
  5
8A98
330
8A33
100
AcDbEntity
  8
DEFPOINTS
  6
Continuous
 62
     0
100
AcDbPoint
 10
209.0000000000002
 20
390.5
 30
0.0
  0
POINT
  5
8A99
330
8A33
100
AcDbEntity
  8
DEFPOINTS
  6
Continuous
 62
     0
100
AcDbPoint
 10
225.0000000000004
 20
368.0
 30
0.0
  0
POINT
  5
8A9A
330
8A33
100
AcDbEntity
  8
DEFPOINTS
  6
Continuous
 62
     0
100
AcDbPoint
 10
225.0000000000004
 20
411.0
 30
0.0
  0
ENDBLK
  5
8A3E
330
8A33
100
AcDbEntity
  8
0
100
AcDbBlockEnd
  0
BLOCK
  5
8A48
330
8A3F
100
AcDbEntity
  8
0
100
AcDbBlockBegin
  2
*D20
 70
     1
 10
0.0
 20
0.0
 30
0.0
  3
*D20
  1

  0
LINE
  5
8A9B
330
8A3F
100
AcDbEntity
  8
30
  6
Continuous
 62
     0
100
AcDbLine
 10
266.0000000000002
 20
321.5000000000007
 30
0.0
 11
284.5
 21
321.5000000000007
 31
0.0
  0
LINE
  5
8A9C
330
8A3F
100
AcDbEntity
  8
30
  6
Continuous
 62
     0
100
AcDbLine
 10
276.0000000000002
 20
341.5000000000006
 30
0.0
 11
284.5
 21
341.5000000000006
 31
0.0
  0
LINE
  5
8A9D
330
8A3F
100
AcDbEntity
  8
30
  6
Continuous
 62
     0
100
AcDbLine
 10
284.0000000000001
 20
323.5000000000007
 30
0.0
 11
284.0000000000001
 21
339.5000000000006
 31
0.0
  0
INSERT
  5
8A9E
330
8A3F
100
AcDbEntity
  8
30
  6
Continuous
 62
     0
100
AcDbBlockReference
  2
_OPEN
 10
284.0000000000001
 20
321.5000000000007
 30
0.0
 41
2.0
 42
2.0
 43
2.0
 50
270.0
  0
INSERT
  5
8A9F
330
8A3F
100
AcDbEntity
  8
30
  6
Continuous
 62
     0
100
AcDbBlockReference
  2
_OPEN
 10
284.0000000000001
 20
341.5000000000006
 30
0.0
 41
2.0
 42
2.0
 43
2.0
 50
90.0
  0
POINT
  5
8AA0
330
8A3F
100
AcDbEntity
  8
DEFPOINTS
  6
Continuous
 62
     0
100
AcDbPoint
 10
265.0000000000003
 20
321.5000000000007
 30
0.0
  0
POINT
  5
8AA1
330
8A3F
100
AcDbEntity
  8
DEFPOINTS
  6
Continuous
 62
     0
100
AcDbPoint
 10
275.0000000000003
 20
341.5000000000006
 30
0.0
  0
POINT
  5
8AA2
330
8A3F
100
AcDbEntity
  8
DEFPOINTS
  6
Continuous
 62
     0
100
AcDbPoint
 10
284.0000000000001
 20
341.5000000000006
 30
0.0
  0
ENDBLK
  5
8A49
330
8A3F
100
AcDbEntity
  8
0
100
AcDbBlockEnd
  0
BLOCK
  5
8A54
330
8A4A
100
AcDbEntity
  8
0
100
AcDbBlockBegin
  2
*D21
 70
     1
 10
0.0
 20
0.0
 30
0.0
  3
*D21
  1

  0
LINE
  5
8AA3
330
8A4A
100
AcDbEntity
  8
30
  6
Continuous
 62
     0
100
AcDbLine
 10
433.4999999999998
 20
322.0
 30
0.0
 11
433.4999999999998
 21
306.9137199825054
 31
0.0
  0
LINE
  5
8AA4
330
8A4A
100
AcDbEntity
  8
30
  6
Continuous
 62
     0
100
AcDbLine
 10
463.4999999999998
 20
322.0
 30
0.0
 11
463.4999999999998
 21
306.9137199825054
 31
0.0
  0
LINE
  5
8AA5
330
8A4A
100
AcDbEntity
  8
30
  6
Continuous
 62
     0
100
AcDbLine
 10
435.5
 20
307.4137199825055
 30
0.0
 11
461.5
 21
307.4137199825055
 31
0.0
  0
INSERT
  5
8AA6
330
8A4A
100
AcDbEntity
  8
30
  6
Continuous
 62
     0
100
AcDbBlockReference
  2
_OPEN
 10
433.4999999999998
 20
307.4137199825055
 30
0.0
 41
2.0
 42
2.0
 43
2.0
 50
180.0
  0
INSERT
  5
8AA7
330
8A4A
100
AcDbEntity
  8
30
  6
Continuous
 62
     0
100
AcDbBlockReference
  2
_OPEN
 10
463.4999999999998
 20
307.4137199825055
 30
0.0
 41
2.0
 42
2.0
 43
2.0
  0
MTEXT
  5
8AA8
330
8A4A
100
AcDbEntity
  8
30
  6
Continuous
 62
     0
100
AcDbMText
 10
448.5
 20
310.9137199825054
 30
0.0
 40
5.0
 41
0.0
 71
     5
 72
     1
  1
\A1;30
 73
     1
 44
1.0
1001
ACAD
1000
MTEXTBEGIN
1070
    73
1070
     1
1070
    44
1040
1.0
1070
    74
1070
     0
1000
MTEXTEND
  0
POINT
  5
8AA9
330
8A4A
100
AcDbEntity
  8
DEFPOINTS
  6
Continuous
 62
     0
100
AcDbPoint
 10
433.4999999999998
 20
323.0
 30
0.0
  0
POINT
  5
8AAA
330
8A4A
100
AcDbEntity
  8
DEFPOINTS
  6
Continuous
 62
     0
100
AcDbPoint
 10
463.4999999999998
 20
323.0
 30
0.0
  0
POINT
  5
8AAB
330
8A4A
100
AcDbEntity
  8
DEFPOINTS
  6
Continuous
 62
     0
100
AcDbPoint
 10
463.4999999999998
 20
307.4137199825055
 30
0.0
  0
ENDBLK
  5
8A55
330
8A4A
100
AcDbEntity
  8
0
100
AcDbBlockEnd
  0
BLOCK
  5
8A5F
330
8A56
100
AcDbEntity
  8
0
100
AcDbBlockBegin
  2
*D22
 70
     1
 10
0.0
 20
0.0
 30
0.0
  3
*D22
  1

  0
LINE
  5
8AAC
330
8A56
100
AcDbEntity
  8
30
  6
Continuous
 62
     0
100
AcDbLine
 10
477.9648401337988
 20
366.0012859865391
 30
0.0
 11
466.9648401337987
 21
366.0012859865391
 31
0.0
  0
LINE
  5
8AAD
330
8A56
100
AcDbEntity
  8
30
  6
Continuous
 62
     0
100
AcDbLine
 10
466.9648401337987
 20
366.0012859865391
 30
0.0
 11
453.1950997478195
 21
348.8485928528164
 31
0.0
  0
MTEXT
  5
8AAE
330
8A56
100
AcDbEntity
  8
30
  6
Continuous
 62
     0
100
AcDbMText
 10
472.9648401337988
 20
369.5012859865391
 30
0.0
 40
5.0
 41
0.0
 71
     5
 72
     1
  1
\A1;\U+220511
 73
     1
 44
1.0
1001
ACAD
1000
MTEXTBEGIN
1070
    73
1070
     1
1070
    44
1040
1.0
1070
    74
1070
     0
1000
MTEXTEND
  0
INSERT
  5
8AAF
330
8A56
100
AcDbEntity
  8
30
  6
Continuous
 62
     0
100
AcDbBlockReference
  2
_OPEN
 10
451.9430731484008
 20
347.2889680920653
 30
0.0
 41
2.0
 42
2.0
 43
2.0
 50
231.2434003354126
  0
LINE
  5
8AB0
330
8A56
100
AcDbEntity
  8
30
  6
Continuous
 62
     0
100
AcDbLine
 10
448.4099999999992
 20
342.9999999999998
 30
0.0
 11
448.5899999999992
 21
342.9999999999998
 31
0.0
  0
LINE
  5
8AB1
330
8A56
100
AcDbEntity
  8
30
  6
Continuous
 62
     0
100
AcDbLine
 10
448.4999999999991
 20
342.9099999999998
 30
0.0
 11
448.4999999999991
 21
343.0899999999998
 31
0.0
  0
POINT
  5
8AB2
330
8A56
100
AcDbEntity
  8
DEFPOINTS
  6
Continuous
 62
     0
100
AcDbPoint
 10
451.9430731484008
 20
347.2889680920653
 30
0.0
  0
POINT
  5
8AB3
330
8A56
100
AcDbEntity
  8
DEFPOINTS
  6
Continuous
 62
     0
100
AcDbPoint
 10
445.0569268515979
 20
338.7110319079344
 30
0.0
  0
ENDBLK
  5
8A60
330
8A56
100
AcDbEntity
  8
0
100
AcDbBlockEnd
  0
BLOCK
  5
8A6B
330
8A61
100
AcDbEntity
  8
0
100
AcDbBlockBegin
  2
*D23
 70
     1
 10
0.0
 20
0.0
 30
0.0
  3
*D23
  1

  0
LINE
  5
8AB4
330
8A61
100
AcDbEntity
  8
30
  6
Continuous
 62
     0
100
AcDbLine
 10
464.5
 20
323.0
 30
0.0
 11
480.4423296781886
 21
323.0
 31
0.0
  0
LINE
  5
8AB5
330
8A61
100
AcDbEntity
  8
30
  6
Continuous
 62
     0
100
AcDbLine
 10
456.9999999999997
 20
343.0
 30
0.0
 11
480.4423296781886
 21
343.0
 31
0.0
  0
LINE
  5
8AB6
330
8A61
100
AcDbEntity
  8
30
  6
Continuous
 62
     0
100
AcDbLine
 10
479.9423296781887
 20
325.0
 30
0.0
 11
479.9423296781887
 21
341.0
 31
0.0
  0
INSERT
  5
8AB7
330
8A61
100
AcDbEntity
  8
30
  6
Continuous
 62
     0
100
AcDbBlockReference
  2
_OPEN
 10
479.9423296781887
 20
323.0
 30
0.0
 41
2.0
 42
2.0
 43
2.0
 50
270.0
  0
INSERT
  5
8AB8
330
8A61
100
AcDbEntity
  8
30
  6
Continuous
 62
     0
100
AcDbBlockReference
  2
_OPEN
 10
479.9423296781887
 20
343.0
 30
0.0
 41
2.0
 42
2.0
 43
2.0
 50
90.0
  0
MTEXT
  5
8AB9
330
8A61
100
AcDbEntity
  8
30
  6
Continuous
 62
     0
100
AcDbMText
 10
476.4423296781886
 20
333.0
 30
0.0
 40
5.0
 41
0.0
 71
     5
 72
     1
  1
\A1;20
 11
0.0000000000000001
 21
1.0
 31
0.0
 73
     1
 44
1.0
1001
ACAD
1000
MTEXTBEGIN
1070
    73
1070
     1
1070
    44
1040
1.0
1070
    74
1070
     0
1000
MTEXTEND
  0
POINT
  5
8ABA
330
8A61
100
AcDbEntity
  8
DEFPOINTS
  6
Continuous
 62
     0
100
AcDbPoint
 10
463.4999999999998
 20
323.0
 30
0.0
  0
POINT
  5
8ABB
330
8A61
100
AcDbEntity
  8
DEFPOINTS
  6
Continuous
 62
     0
100
AcDbPoint
 10
455.9999999999996
 20
343.0
 30
0.0
  0
POINT
  5
8ABC
330
8A61
100
AcDbEntity
  8
DEFPOINTS
  6
Continuous
 62
     0
100
AcDbPoint
 10
479.9423296781887
 20
343.0
 30
0.0
  0
ENDBLK
  5
8A6C
330
8A61
100
AcDbEntity
  8
0
100
AcDbBlockEnd
  0
ENDSEC
  0
SECTION
  2
ENTITIES
  0
LINE
  5
B4
330
1E
100
AcDbEntity
  8
16
100
AcDbLine
 10
0.0
 20
-170.0272802992444
 30
0.0
 11
0.0
 21
186.4499999999999
 31
0.0
  0
MTEXT
  5
BF3
330
1E
100
AcDbEntity
  8
24
  6
Continuous
100
AcDbMText
 10
142.1181906098743
 20
177.5
 30
0.0
 40
3.0
 41
0.0
 71
     1
 72
     1
  1
\A1;
 73
     1
 44
1.0
1001
ACAD
1000
MTEXTBEGIN
1070
    73
1070
     1
1070
    44
1040
1.0
1070
    74
1070
     0
1000
MTEXTEND
  0
LINE
  5
1C9B
330
1E
100
AcDbEntity
  8
16
100
AcDbLine
 10
456.1890316890183
 20
0.0
 30
0.0
 11
218.0
 21
0.0
 31
0.0
  0
LINE
  5
2260
330
1E
100
AcDbEntity
  8
16
100
AcDbLine
 10
119.8497158299921
 20
-450.0
 30
0.0
 11
-140.1065049170443
 21
-450.0
 31
0.0
  0
LINE
  5
4C5A
330
1E
100
AcDbEntity
  8
16
100
AcDbLine
 10
164.8497158299924
 20
0.0
 30
0.0
 11
-140.1065049170443
 21
0.0
 31
0.0
  0
LWPOLYLINE
  5
62AB
330
1E
100
AcDbEntity
  8
16
100
AcDbPolyline
 90
        2
 70
     0
 43
0.0
 10
0.0
 20
-620.0272802992445
 10
0.0
 20
-273.65625
  0
LINE
  5
75AD
330
1E
100
AcDbEntity
  8
10
100
AcDbLine
 10
70.0
 20
130.0
 30
0.0
 11
70.0
 21
-130.0
 31
0.0
  0
LINE
  5
75AE
330
1E
100
AcDbEntity
  8
10
100
AcDbLine
 10
-70.0
 20
130.0
 30
0.0
 11
-70.0
 21
-130.0
 31
0.0
  0
ARC
  5
75AF
330
1E
100
AcDbEntity
  8
10
100
AcDbCircle
 10
45.0
 20
-114.0
 30
0.0
 40
5.5
210
0.0
220
0.0
230
-1.0
100
AcDbArc
 50
0.0
 51
180.0
  0
LINE
  5
75B0
330
1E
100
AcDbEntity
  8
10
100
AcDbLine
 10
-70.0
 20
-143.0
 30
0.0
 11
70.0
 21
-143.0
 31
0.0
  0
LINE
  5
75B1
330
1E
100
AcDbEntity
  8
17
100
AcDbLine
 10
-54.0
 20
-114.0
 30
0.0
 11
-36.0
 21
-114.0
 31
0.0
  0
LINE
  5
75B2
330
1E
100
AcDbEntity
  8
10
100
AcDbLine
 10
-70.0
 20
-130.0
 30
0.0
 11
70.0
 21
-130.0
 31
0.0
  0
LINE
  5
75B3
330
1E
100
AcDbEntity
  8
10
100
AcDbLine
 10
-70.0
 20
-130.0
 30
0.0
 11
-70.0
 21
-143.0
 31
0.0
  0
LINE
  5
75B4
330
1E
100
AcDbEntity
  8
10
100
AcDbLine
 10
-50.5
 20
-114.0
 30
0.0
 11
-50.5
 21
-130.0
 31
0.0
  0
LINE
  5
75B5
330
1E
100
AcDbEntity
  8
17
100
AcDbLine
 10
-45.0
 20
-123.0
 30
0.0
 11
-45.0
 21
-105.0
 31
0.0
  0
LINE
  5
75B7
330
1E
100
AcDbEntity
  8
10
100
AcDbLine
 10
15.0
 20
-157.5
 30
0.0
 11
30.0
 21
-157.5
 31
0.0
  0
LINE
  5
75B8
330
1E
100
AcDbEntity
  8
10
100
AcDbLine
 10
-30.0
 20
-157.5
 30
0.0
 11
-15.00000000000015
 21
-157.5
 31
0.0
  0
LINE
  5
75B9
330
1E
100
AcDbEntity
  8
10
100
AcDbLine
 10
-30.0
 20
-142.9999999999995
 30
0.0
 11
-30.0
 21
-157.5
 31
0.0
  0
LINE
  5
75BA
330
1E
100
AcDbEntity
  8
10
100
AcDbLine
 10
-15.0
 20
-142.9999999999995
 30
0.0
 11
-15.0
 21
-157.5
 31
0.0
  0
LINE
  5
75BB
330
1E
100
AcDbEntity
  8
10
100
AcDbLine
 10
15.0
 20
-142.9999999999995
 30
0.0
 11
15.0
 21
-157.5
 31
0.0
  0
LINE
  5
75BC
330
1E
100
AcDbEntity
  8
10
100
AcDbLine
 10
30.0
 20
-142.9999999999995
 30
0.0
 11
30.0
 21
-157.5
 31
0.0
  0
CIRCLE
  5
75C0
330
1E
100
AcDbEntity
  8
12
100
AcDbCircle
 10
22.5
 20
-107.0
 30
0.0
 40
4.0
  0
LINE
  5
75C1
330
1E
100
AcDbEntity
  8
12
100
AcDbLine
 10
30.5
 20
-107.0
 30
0.0
 11
14.5
 21
-107.0
 31
0.0
  0
LINE
  5
75C2
330
1E
100
AcDbEntity
  8
10
100
AcDbLine
 10
-39.5
 20
-114.0
 30
0.0
 11
-39.5
 21
-130.0
 31
0.0
  0
LINE
  5
75C3
330
1E
100
AcDbEntity
  8
12
100
AcDbLine
 10
-14.5
 20
-107.0
 30
0.0
 11
-30.5
 21
-107.0
 31
0.0
  0
CIRCLE
  5
75C4
330
1E
100
AcDbEntity
  8
12
100
AcDbCircle
 10
-22.5
 20
-107.0
 30
0.0
 40
4.0
  0
LINE
  5
75C5
330
1E
100
AcDbEntity
  8
12
100
AcDbLine
 10
-22.5
 20
-99.0
 30
0.0
 11
-22.5
 21
-115.0
 31
0.0
  0
LINE
  5
75C6
330
1E
100
AcDbEntity
  8
10
100
AcDbLine
 10
5.5
 20
-114.0
 30
0.0
 11
5.5
 21
-130.0
 31
0.0
  0
LINE
  5
75C7
330
1E
100
AcDbEntity
  8
10
100
AcDbLine
 10
-5.5
 20
-114.0
 30
0.0
 11
-5.5
 21
-130.0
 31
0.0
  0
LINE
  5
75C8
330
1E
100
AcDbEntity
  8
10
100
AcDbLine
 10
0.0
 20
-123.0
 30
0.0
 11
0.0
 21
-105.0
 31
0.0
  0
ARC
  5
75C9
330
1E
100
AcDbEntity
  8
10
100
AcDbCircle
 10
0.0
 20
-114.0
 30
0.0
 40
5.5
210
0.0
220
0.0
230
-1.0
100
AcDbArc
 50
0.0
 51
180.0
  0
LINE
  5
75CA
330
1E
100
AcDbEntity
  8
17
100
AcDbLine
 10
-9.0
 20
-114.0
 30
0.0
 11
9.0
 21
-114.0
 31
0.0
  0
LINE
  5
75CB
330
1E
100
AcDbEntity
  8
17
100
AcDbLine
 10
36.0
 20
-114.0
 30
0.0
 11
53.99999999999995
 21
-114.0
 31
0.0
  0
LINE
  5
75CC
330
1E
100
AcDbEntity
  8
10
100
AcDbLine
 10
50.49999999999993
 20
-114.0
 30
0.0
 11
50.49999999999993
 21
-130.0
 31
0.0
  0
LINE
  5
75CD
330
1E
100
AcDbEntity
  8
10
100
AcDbLine
 10
39.5
 20
-114.0
 30
0.0
 11
39.5
 21
-130.0
 31
0.0
  0
LINE
  5
75CE
330
1E
100
AcDbEntity
  8
17
100
AcDbLine
 10
45.0
 20
-123.0
 30
0.0
 11
45.0
 21
-105.0
 31
0.0
  0
LINE
  5
75CF
330
1E
100
AcDbEntity
  8
12
100
AcDbLine
 10
22.5
 20
-99.0
 30
0.0
 11
22.5
 21
-115.0
 31
0.0
  0
ARC
  5
75D0
330
1E
100
AcDbEntity
  8
10
100
AcDbCircle
 10
-45.0
 20
-114.0
 30
0.0
 40
5.5
210
0.0
220
0.0
230
-1.0
100
AcDbArc
 50
0.0
 51
180.0
  0
LINE
  5
75D1
330
1E
100
AcDbEntity
  8
10
100
AcDbLine
 10
70.0
 20
-130.0
 30
0.0
 11
70.0
 21
-143.0
 31
0.0
  0
ARC
  5
75D6
330
1E
100
AcDbEntity
  8
10
100
AcDbCircle
 10
-45.0
 20
114.0
 30
0.0
 40
5.5
100
AcDbArc
 50
180.0
 51
0.0
  0
LINE
  5
75D7
330
1E
100
AcDbEntity
  8
10
100
AcDbLine
 10
70.0
 20
143.0
 30
0.0
 11
-70.0
 21
143.0
 31
0.0
  0
LINE
  5
75D8
330
1E
100
AcDbEntity
  8
17
100
AcDbLine
 10
-54.0
 20
114.0
 30
0.0
 11
-36.0
 21
114.0
 31
0.0
  0
LINE
  5
75D9
330
1E
100
AcDbEntity
  8
10
100
AcDbLine
 10
-70.0
 20
-51.0
 30
0.0
 11
70.0
 21
-51.0
 31
0.0
  0
LINE
  5
75DA
330
1E
100
AcDbEntity
  8
10
100
AcDbLine
 10
-70.0
 20
50.99999999999898
 30
0.0
 11
70.0
 21
50.99999999999898
 31
0.0
  0
LINE
  5
75DC
330
1E
100
AcDbEntity
  8
10
100
AcDbLine
 10
-53.0
 20
-45.0
 30
0.0
 11
52.99999999999993
 21
-45.0
 31
0.0
  0
LINE
  5
75DD
330
1E
100
AcDbEntity
  8
10
100
AcDbLine
 10
-53.0
 20
45.0
 30
0.0
 11
52.99999999999993
 21
45.0
 31
0.0
  0
LINE
  5
75DE
330
1E
100
AcDbEntity
  8
10
100
AcDbLine
 10
70.0
 20
130.0
 30
0.0
 11
-70.0
 21
130.0
 31
0.0
  0
LINE
  5
75DF
330
1E
100
AcDbEntity
  8
10
100
AcDbLine
 10
-50.5
 20
114.0
 30
0.0
 11
-50.5
 21
130.0
 31
0.0
  0
LINE
  5
75E0
330
1E
100
AcDbEntity
  8
17
100
AcDbLine
 10
-45.0
 20
105.0
 30
0.0
 11
-45.0
 21
123.0
 31
0.0
  0
LINE
  5
75E1
330
1E
100
AcDbEntity
  8
10
100
AcDbLine
 10
-58.0
 20
40.0
 30
0.0
 11
-58.0
 21
-40.0
 31
0.0
  0
ARC
  5
75E2
330
1E
100
AcDbEntity
  8
10
100
AcDbCircle
 10
-53.0
 20
-40.0
 30
0.0
 40
5.0
100
AcDbArc
 50
180.0
 51
270.0
  0
ARC
  5
75E3
330
1E
100
AcDbEntity
  8
10
100
AcDbCircle
 10
-53.0
 20
40.0
 30
0.0
 40
5.0
100
AcDbArc
 50
90.0
 51
180.0
  0
LINE
  5
75E4
330
1E
100
AcDbEntity
  8
10
100
AcDbLine
 10
-70.0
 20
143.0
 30
0.0
 11
-70.0
 21
130.0
 31
0.0
  0
LINE
  5
75E7
330
1E
100
AcDbEntity
  8
10
100
AcDbLine
 10
50.49999999999993
 20
114.0
 30
0.0
 11
50.49999999999993
 21
130.0
 31
0.0
  0
LINE
  5
75E8
330
1E
100
AcDbEntity
  8
10
100
AcDbLine
 10
39.5
 20
114.0
 30
0.0
 11
39.5
 21
130.0
 31
0.0
  0
LINE
  5
75E9
330
1E
100
AcDbEntity
  8
10
100
AcDbLine
 10
5.5
 20
114.0
 30
0.0
 11
5.5
 21
130.0
 31
0.0
  0
LINE
  5
75EA
330
1E
100
AcDbEntity
  8
10
100
AcDbLine
 10
-5.5
 20
114.0
 30
0.0
 11
-5.5
 21
130.0
 31
0.0
  0
LINE
  5
75EB
330
1E
100
AcDbEntity
  8
10
100
AcDbLine
 10
-39.5
 20
114.0
 30
0.0
 11
-39.5
 21
130.0
 31
0.0
  0
LINE
  5
75ED
330
1E
100
AcDbEntity
  8
17
100
AcDbLine
 10
45.0
 20
105.0
 30
0.0
 11
45.0
 21
123.0
 31
0.0
  0
LINE
  5
75EE
330
1E
100
AcDbEntity
  8
10
100
AcDbLine
 10
0.0
 20
105.0
 30
0.0
 11
0.0
 21
123.0
 31
0.0
  0
LINE
  5
75F1
330
1E
100
AcDbEntity
  8
10
100
AcDbLine
 10
57.99999999999993
 20
40.0
 30
0.0
 11
57.99999999999993
 21
-40.0
 31
0.0
  0
LINE
  5
75F2
330
1E
100
AcDbEntity
  8
10
100
AcDbLine
 10
25.4999999999997
 20
-45.0
 30
0.0
 11
25.49999999999982
 21
45.0
 31
0.0
  0
LINE
  5
75F3
330
1E
100
AcDbEntity
  8
10
100
AcDbLine
 10
-25.49999999999977
 20
-45.0
 30
0.0
 11
-25.49999999999994
 21
45.0
 31
0.0
  0
LINE
  5
75F4
330
1E
100
AcDbEntity
  8
10
100
AcDbLine
 10
19.0
 20
-40.44999999999993
 30
0.0
 11
24.30000000000001
 21
-40.44999999999993
 31
0.0
  0
LINE
  5
75F5
330
1E
100
AcDbEntity
  8
10
100
AcDbLine
 10
19.0
 20
-33.85000000000001
 30
0.0
 11
24.30000000000001
 21
-33.85000000000001
 31
0.0
  0
LINE
  5
75F6
330
1E
100
AcDbEntity
  8
10
100
AcDbLine
 10
-18.0
 20
-34.0
 30
0.0
 11
-18.00000000000017
 21
34.0
 31
0.0
  0
LINE
  5
75F7
330
1E
100
AcDbEntity
  8
10
100
AcDbLine
 10
18.0
 20
-34.0
 30
0.0
 11
18.0
 21
34.0
 31
0.0
  0
LINE
  5
75F8
330
1E
100
AcDbEntity
  8
10
100
AcDbLine
 10
18.0
 20
-34.0
 30
0.0
 11
-18.0
 21
-34.0
 31
0.0
  0
LINE
  5
75F9
330
1E
100
AcDbEntity
  8
10
100
AcDbLine
 10
19.0
 20
-33.85000000000001
 30
0.0
 11
19.0
 21
-40.44999999999993
 31
0.0
  0
LINE
  5
75FA
330
1E
100
AcDbEntity
  8
10
100
AcDbLine
 10
18.0
 20
34.0
 30
0.0
 11
-18.00000000000017
 21
34.0
 31
0.0
  0
LINE
  5
75FB
330
1E
100
AcDbEntity
  8
10
100
AcDbLine
 10
16.99999999999983
 20
32.80866032004519
 30
0.0
 11
-17.00000000000017
 21
32.80866032004519
 31
0.0
  0
LINE
  5
75FC
330
1E
100
AcDbEntity
  8
10
100
AcDbLine
 10
17.00000000000022
 20
22.97883578857727
 30
0.0
 11
-17.0
 21
22.97883578857727
 31
0.0
  0
LINE
  5
75FD
330
1E
100
AcDbEntity
  8
10
100
AcDbLine
 10
-17.00000000000017
 20
22.97883578857727
 30
0.0
 11
-17.00000000000017
 21
32.80866032004519
 31
0.0
  0
LINE
  5
75FE
330
1E
100
AcDbEntity
  8
10
100
AcDbLine
 10
17.0
 20
22.97883578857727
 30
0.0
 11
17.0
 21
32.80866032004519
 31
0.0
  0
LINE
  5
75FF
330
1E
100
AcDbEntity
  8
10
100
AcDbLine
 10
24.30000000000001
 20
-33.85000000000001
 30
0.0
 11
24.30000000000001
 21
-40.44999999999993
 31
0.0
  0
ARC
  5
7600
330
1E
100
AcDbEntity
  8
10
100
AcDbCircle
 10
52.99999999999993
 20
-40.0
 30
0.0
 40
5.0
100
AcDbArc
 50
270.0
 51
0.0
  0
CIRCLE
  5
7601
330
1E
100
AcDbEntity
  8
12
100
AcDbCircle
 10
-22.5
 20
107.0
 30
0.0
 40
4.0
210
0.0
220
0.0
230
-1.0
  0
LINE
  5
7602
330
1E
100
AcDbEntity
  8
12
100
AcDbLine
 10
30.5
 20
107.0
 30
0.0
 11
14.5
 21
107.0
 31
0.0
  0
LINE
  5
7603
330
1E
100
AcDbEntity
  8
12
100
AcDbLine
 10
-22.5
 20
115.0
 30
0.0
 11
-22.5
 21
99.0
 31
0.0
  0
LINE
  5
7604
330
1E
100
AcDbEntity
  8
12
100
AcDbLine
 10
-14.5
 20
107.0
 30
0.0
 11
-30.5
 21
107.0
 31
0.0
  0
CIRCLE
  5
7605
330
1E
100
AcDbEntity
  8
12
100
AcDbCircle
 10
22.5
 20
107.0
 30
0.0
 40
4.0
210
0.0
220
0.0
230
-1.0
  0
ARC
  5
7606
330
1E
100
AcDbEntity
  8
10
100
AcDbCircle
 10
0.0
 20
114.0
 30
0.0
 40
5.5
100
AcDbArc
 50
180.0
 51
0.0
  0
LINE
  5
7607
330
1E
100
AcDbEntity
  8
17
100
AcDbLine
 10
-9.0
 20
114.0
 30
0.0
 11
9.0
 21
114.0
 31
0.0
  0
ARC
  5
7608
330
1E
100
AcDbEntity
  8
10
100
AcDbCircle
 10
52.99999999999993
 20
40.0
 30
0.0
 40
5.0
100
AcDbArc
 50
0.0
 51
90.0
  0
LINE
  5
7609
330
1E
100
AcDbEntity
  8
17
100
AcDbLine
 10
36.0
 20
114.0
 30
0.0
 11
53.99999999999995
 21
114.0
 31
0.0
  0
LINE
  5
760A
330
1E
100
AcDbEntity
  8
12
100
AcDbLine
 10
22.5
 20
115.0
 30
0.0
 11
22.5
 21
99.0
 31
0.0
  0
ARC
  5
760B
330
1E
100
AcDbEntity
  8
10
100
AcDbCircle
 10
45.0
 20
114.0
 30
0.0
 40
5.5
100
AcDbArc
 50
180.0
 51
0.0
  0
LINE
  5
7668
330
1E
100
AcDbEntity
  8
10
100
AcDbLine
 10
30.0
 20
157.4999999999995
 30
0.0
 11
15.0
 21
157.4999999999995
 31
0.0
  0
LINE
  5
7669
330
1E
100
AcDbEntity
  8
10
100
AcDbLine
 10
-15.0
 20
157.4999999999995
 30
0.0
 11
-15.0
 21
143.0
 31
0.0
  0
LINE
  5
766A
330
1E
100
AcDbEntity
  8
10
100
AcDbLine
 10
-30.0
 20
157.4999999999995
 30
0.0
 11
-30.0
 21
143.0
 31
0.0
  0
LINE
  5
766B
330
1E
100
AcDbEntity
  8
10
100
AcDbLine
 10
-15.0
 20
157.4999999999995
 30
0.0
 11
-30.0
 21
157.4999999999995
 31
0.0
  0
LINE
  5
766C
330
1E
100
AcDbEntity
  8
10
100
AcDbLine
 10
15.0
 20
157.4999999999995
 30
0.0
 11
15.0
 21
143.0
 31
0.0
  0
LINE
  5
766D
330
1E
100
AcDbEntity
  8
10
100
AcDbLine
 10
30.0
 20
157.4999999999995
 30
0.0
 11
30.0
 21
143.0
 31
0.0
  0
LINE
  5
7671
330
1E
100
AcDbEntity
  8
10
100
AcDbLine
 10
70.0
 20
143.0
 30
0.0
 11
70.0
 21
130.0
 31
0.0
  0
LINE
  5
7807
330
1E
100
AcDbEntity
  8
18
 48
2.0
100
AcDbLine
 10
70.0
 20
-307.0
 30
0.0
 11
70.0
 21
-593.0000000000001
 31
0.0
  0
LINE
  5
7808
330
1E
100
AcDbEntity
  8
18
 48
2.0
100
AcDbLine
 10
-70.0
 20
-307.0
 30
0.0
 11
-70.0
 21
-592.9999999999997
 31
0.0
  0
LINE
  5
7809
330
1E
100
AcDbEntity
  8
18
 48
2.0
100
AcDbLine
 10
-70.0
 20
-593.0
 30
0.0
 11
-30.00000000000017
 21
-593.0
 31
0.0
  0
LINE
  5
7811
330
1E
100
AcDbEntity
  8
18
 48
2.0
100
AcDbLine
 10
14.99999999999983
 20
-607.5
 30
0.0
 11
30.0
 21
-607.5
 31
0.0
  0
LINE
  5
7812
330
1E
100
AcDbEntity
  8
18
 48
2.0
100
AcDbLine
 10
-15.0
 20
-593.0
 30
0.0
 11
15.0
 21
-593.0
 31
0.0
  0
LINE
  5
7813
330
1E
100
AcDbEntity
  8
18
 48
2.0
100
AcDbLine
 10
-15.0
 20
-592.9999999999997
 30
0.0
 11
-15.0
 21
-607.5
 31
0.0
  0
LINE
  5
7814
330
1E
100
AcDbEntity
  8
18
 48
2.0
100
AcDbLine
 10
-30.0
 20
-592.9999999999997
 30
0.0
 11
-30.0
 21
-607.5
 31
0.0
  0
LINE
  5
7815
330
1E
100
AcDbEntity
  8
18
 48
2.0
100
AcDbLine
 10
-30.0
 20
-607.5
 30
0.0
 11
-15.00000000000015
 21
-607.5
 31
0.0
  0
LINE
  5
7816
330
1E
100
AcDbEntity
  8
18
 48
2.0
100
AcDbLine
 10
15.0
 20
-592.9999999999997
 30
0.0
 11
15.0
 21
-607.5
 31
0.0
  0
LINE
  5
7817
330
1E
100
AcDbEntity
  8
18
 48
2.0
100
AcDbLine
 10
30.0
 20
-593.0
 30
0.0
 11
70.0
 21
-593.0000000000001
 31
0.0
  0
LINE
  5
7818
330
1E
100
AcDbEntity
  8
18
 48
2.0
100
AcDbLine
 10
30.0
 20
-592.9999999999997
 30
0.0
 11
30.0
 21
-607.5
 31
0.0
  0
LINE
  5
781F
330
1E
100
AcDbEntity
  8
18
 48
2.0
100
AcDbLine
 10
-30.0
 20
-307.0
 30
0.0
 11
-70.0
 21
-307.0
 31
0.0
  0
LINE
  5
7821
330
1E
100
AcDbEntity
  8
18
 48
2.0
100
AcDbLine
 10
30.0
 20
-292.5
 30
0.0
 11
15.0
 21
-292.5
 31
0.0
  0
LINE
  5
7822
330
1E
100
AcDbEntity
  8
18
 48
2.0
100
AcDbLine
 10
15.0
 20
-307.0
 30
0.0
 11
-15.0
 21
-307.0
 31
0.0
  0
LINE
  5
7823
330
1E
100
AcDbEntity
  8
18
 48
2.0
100
AcDbLine
 10
-15.0
 20
-292.5
 30
0.0
 11
-15.0
 21
-307.0
 31
0.0
  0
LINE
  5
7824
330
1E
100
AcDbEntity
  8
18
 48
2.0
100
AcDbLine
 10
-30.0
 20
-292.5
 30
0.0
 11
-30.0
 21
-307.0
 31
0.0
  0
LINE
  5
7825
330
1E
100
AcDbEntity
  8
18
 48
2.0
100
AcDbLine
 10
-15.0
 20
-292.5
 30
0.0
 11
-30.0
 21
-292.5
 31
0.0
  0
LINE
  5
7826
330
1E
100
AcDbEntity
  8
18
 48
2.0
100
AcDbLine
 10
15.0
 20
-292.5
 30
0.0
 11
15.0
 21
-307.0
 31
0.0
  0
LINE
  5
7827
330
1E
100
AcDbEntity
  8
18
 48
2.0
100
AcDbLine
 10
70.0
 20
-307.0
 30
0.0
 11
30.0
 21
-307.0
 31
0.0
  0
LINE
  5
7828
330
1E
100
AcDbEntity
  8
18
 48
2.0
100
AcDbLine
 10
30.0
 20
-292.5
 30
0.0
 11
30.0
 21
-307.0
 31
0.0
  0
MTEXT
  5
7B0D
330
1E
100
AcDbEntity
  8
30
  6
Continuous
100
AcDbMText
 10
336.0
 20
247.5
 30
0.0
 40
5.0
 41
0.0
 71
     1
 72
     1
  1
\A1;
 73
     1
 44
1.0
1001
ACAD
1000
MTEXTBEGIN
1070
    73
1070
     1
1070
    44
1040
1.0
1070
    74
1070
     0
1000
MTEXTEND
  0
DIMENSION
  5
7DCD
330
1E
100
AcDbEntity
  8
30
  6
Continuous
100
AcDbDimension
  2
*D1
 10
-90.0
 20
-130.0
 30
0.0
 11
-93.49999999999996
 21
-0.0000000000000793
 31
0.0
 70
    32
 71
     5
 42
-1.0
  3
STANDARD
100
AcDbAlignedDimension
 13
-70.0
 23
130.0
 33
0.0
 14
-70.0
 24
-130.0
 34
0.0
 50
90.0
100
AcDbRotatedDimension
  0
DIMENSION
  5
7DDA
330
1E
100
AcDbEntity
  8
30
  6
Continuous
100
AcDbDimension
  2
*D2
 10
-103.0
 20
-143.0
 30
0.0
 11
-106.4999999999999
 21
-0.0000000000000217
 31
0.0
 70
    32
 71
     5
 42
-1.0
  3
STANDARD
100
AcDbAlignedDimension
 13
-70.0
 23
143.0
 33
0.0
 14
-70.0
 24
-143.0
 34
0.0
 50
90.0
100
AcDbRotatedDimension
  0
DIMENSION
  5
7DE7
330
1E
100
AcDbEntity
  8
30
  6
Continuous
100
AcDbDimension
  2
*D3
 10
-117.0
 20
-157.4999999999999
 30
0.0
 11
-120.4999999999996
 21
-0.0000000000000493
 31
0.0
 70
    32
 71
     5
 42
-1.0
  3
STANDARD
100
AcDbAlignedDimension
 13
-30.0
 23
157.4999999999995
 33
0.0
 14
-30.0
 24
-157.5
 34
0.0
 50
90.0
100
AcDbRotatedDimension
  0
DIMENSION
  5
7E0F
330
1E
100
AcDbEntity
  8
30
  6
Continuous
100
AcDbDimension
  2
*D4
 10
70.0
 20
-176.0
 30
0.0
 11
0.0000000000000002
 21
-172.5
 31
0.0
 70
    32
 71
     5
 42
-1.0
  3
STANDARD
100
AcDbAlignedDimension
 13
-70.0
 23
-143.0
 33
0.0
 14
70.0
 24
-143.0
 34
0.0
100
AcDbRotatedDimension
  0
CIRCLE
  5
8317
330
1E
100
AcDbEntity
  8
12
100
AcDbCircle
 10
-35.0
 20
-520.0
 30
0.0
 40
2.75
  0
LINE
  5
8318
330
1E
100
AcDbEntity
  8
12
100
AcDbLine
 10
-41.74999999999999
 20
-520.0
 30
0.0
 11
-28.25
 21
-520.0
 31
0.0
  0
LINE
  5
8319
330
1E
100
AcDbEntity
  8
12
100
AcDbLine
 10
-35.0
 20
-513.25
 30
0.0
 11
-35.0
 21
-526.75
 31
0.0
  0
CIRCLE
  5
831A
330
1E
100
AcDbEntity
  8
12
100
AcDbCircle
 10
-35.0
 20
-380.0
 30
0.0
 40
2.75
  0
LINE
  5
831B
330
1E
100
AcDbEntity
  8
12
100
AcDbLine
 10
-41.74999999999999
 20
-380.0
 30
0.0
 11
-28.25
 21
-380.0
 31
0.0
  0
LINE
  5
831C
330
1E
100
AcDbEntity
  8
12
100
AcDbLine
 10
-35.0
 20
-373.2499999999998
 30
0.0
 11
-35.0
 21
-386.75
 31
0.0
  0
LINE
  5
831D
330
1E
100
AcDbEntity
  8
12
100
AcDbLine
 10
35.0
 20
-513.25
 30
0.0
 11
35.0
 21
-526.75
 31
0.0
  0
CIRCLE
  5
831E
330
1E
100
AcDbEntity
  8
12
100
AcDbCircle
 10
35.0
 20
-520.0
 30
0.0
 40
2.75
  0
LINE
  5
831F
330
1E
100
AcDbEntity
  8
12
100
AcDbLine
 10
28.25
 20
-520.0
 30
0.0
 11
41.74999999999999
 21
-520.0
 31
0.0
  0
CIRCLE
  5
8320
330
1E
100
AcDbEntity
  8
12
100
AcDbCircle
 10
35.0
 20
-380.0
 30
0.0
 40
2.75
  0
LINE
  5
8321
330
1E
100
AcDbEntity
  8
12
100
AcDbLine
 10
35.0
 20
-373.2499999999998
 30
0.0
 11
35.0
 21
-386.75
 31
0.0
  0
LINE
  5
8322
330
1E
100
AcDbEntity
  8
12
100
AcDbLine
 10
28.25
 20
-380.0
 30
0.0
 11
41.74999999999999
 21
-380.0
 31
0.0
  0
DIMENSION
  5
8323
330
1E
100
AcDbEntity
  8
30
  6
Continuous
100
AcDbDimension
  2
*D5
 10
34.99999999999999
 20
-648.0
 30
0.0
 11
-0.0000000000000069
 21
-644.5
 31
0.0
 70
    32
 71
     5
 42
-1.0
  3
STANDARD
100
AcDbAlignedDimension
 13
-35.0
 23
-526.75
 33
0.0
 14
35.0
 24
-526.75
 34
0.0
100
AcDbRotatedDimension
  0
DIMENSION
  5
834A
330
1E
100
AcDbEntity
  8
30
  6
Continuous
100
AcDbDimension
  2
*D8
 10
110.0
 20
-520.0
 30
0.0
 11
106.5000000000001
 21
-450.0
 31
0.0
 70
    32
 71
     5
 42
-1.0
  3
STANDARD
100
AcDbAlignedDimension
 13
41.74999999999999
 23
-380.0
 33
0.0
 14
41.74999999999999
 24
-520.0
 34
0.0
 50
90.0
100
AcDbRotatedDimension
  0
LINE
  5
837F
330
1E
100
AcDbEntity
  8
10
100
AcDbLine
 10
95.70980217546212
 20
-400.0
 30
0.0
 11
-82.29019782453997
 21
-400.0
 31
0.0
  0
LINE
  5
8380
330
1E
100
AcDbEntity
  8
10
100
AcDbLine
 10
98.00000000000006
 20
-405.0
 30
0.0
 11
-80.0
 21
-405.0
 31
0.0
  0
LINE
  5
8381
330
1E
100
AcDbEntity
  8
10
100
AcDbLine
 10
98.00000000000006
 20
-365.0
 30
0.0
 11
-80.0
 21
-365.0
 31
0.0
  0
SPLINE
  5
8382
330
1E
100
AcDbEntity
  8
10
100
AcDbSpline
210
0.0
220
0.0
230
1.0
 70
     8
 71
     3
 72
     9
 73
     5
 74
     0
 42
0.0000000001
 43
0.0000000001
 40
0.0
 40
0.0
 40
0.0
 40
0.0
 40
0.5
 40
1.0
 40
1.0
 40
1.0
 40
1.0
 10
-80.0
 20
-365.0
 30
0.0
 10
-86.5
 20
-377.0
 30
0.0
 10
-78.5
 20
-389.0
 30
0.0
 10
-84.50000000000001
 20
-399.0
 30
0.0
 10
-80.0
 20
-405.0
 30
0.0
  0
SPLINE
  5
8384
330
1E
100
AcDbEntity
  8
10
100
AcDbSpline
210
0.0
220
0.0
230
1.0
 70
     8
 71
     3
 72
     9
 73
     5
 74
     0
 42
0.0000000001
 43
0.0000000001
 40
0.0
 40
0.0
 40
0.0
 40
0.0
 40
0.5
 40
1.0
 40
1.0
 40
1.0
 40
1.0
 10
98.00000000000006
 20
-365.0
 30
0.0
 10
91.50000000000003
 20
-377.0
 30
0.0
 10
99.50000000000006
 20
-389.0
 30
0.0
 10
93.50000000000006
 20
-399.0
 30
0.0
 10
98.00000000000006
 20
-405.0
 30
0.0
  0
LINE
  5
8385
330
1E
100
AcDbEntity
  8
10
100
AcDbLine
 10
-82.28189342645647
 20
-500.0
 30
0.0
 11
81.7181065735436
 21
-500.0
 31
0.0
  0
LINE
  5
8386
330
1E
100
AcDbEntity
  8
10
100
AcDbLine
 10
-80.0
 20
-535.0
 30
0.0
 11
84.00000000000003
 21
-535.0
 31
0.0
  0
LINE
  5
8387
330
1E
100
AcDbEntity
  8
10
100
AcDbLine
 10
-80.0
 20
-495.0
 30
0.0
 11
84.00000000000003
 21
-495.0
 31
0.0
  0
SPLINE
  5
8388
330
1E
100
AcDbEntity
  8
10
100
AcDbSpline
210
0.0
220
0.0
230
1.0
 70
     8
 71
     3
 72
     9
 73
     5
 74
     0
 42
0.0000000001
 43
0.0000000001
 40
0.0
 40
0.0
 40
0.0
 40
0.0
 40
0.5
 40
1.0
 40
1.0
 40
1.0
 40
1.0
 10
84.00000000000003
 20
-495.0
 30
0.0
 10
77.50000000000007
 20
-507.0
 30
0.0
 10
85.50000000000007
 20
-517.0
 30
0.0
 10
79.50000000000007
 20
-525.0
 30
0.0
 10
84.00000000000003
 20
-535.0
 30
0.0
  0
SPLINE
  5
8389
330
1E
100
AcDbEntity
  8
10
100
AcDbSpline
210
0.0
220
0.0
230
1.0
 70
     8
 71
     3
 72
     9
 73
     5
 74
     0
 42
0.0000000001
 43
0.0000000001
 40
0.0
 40
0.0
 40
0.0
 40
0.0
 40
0.5
 40
1.0
 40
1.0
 40
1.0
 40
1.0
 10
-80.0
 20
-495.0
 30
0.0
 10
-86.5
 20
-507.0
 30
0.0
 10
-78.5
 20
-517.0
 30
0.0
 10
-84.50000000000001
 20
-525.0
 30
0.0
 10
-80.0
 20
-535.0
 30
0.0
  0
INSERT
  5
83A9
330
1E
100
AcDbEntity
  8
30
100
AcDbBlockReference
  2
*U9
 10
-1220.627990430622
 20
-779.6618080089404
 30
0.0
 41
2.5
 42
2.5
 43
2.5
  0
TEXT
  5
83AA
330
1E
100
AcDbEntity
  8
30
100
AcDbText
 10
91.08930659638737
 20
-589.9116046250867
 30
0.0
 40
6.25
  1
Mounting plate
 41
0.7125304878048843
  7
UGMTXT
100
AcDbText
  0
LINE
  5
8403
330
1E
100
AcDbEntity
  8
10
100
AcDbLine
 10
70.0
 20
-130.0
 30
0.0
 11
70.0
 21
130.0
 31
0.0
  0
DIMENSION
  5
85DA
330
1E
100
AcDbEntity
  8
30
  6
Continuous
100
AcDbDimension
  2
*D10
 10
494.6062902121223
 20
-113.9999999999992
 30
0.0
 11
491.1062902121223
 21
0.0000000000008086
 31
0.0
 70
    32
 71
     5
 42
-1.0
  3
STANDARD
100
AcDbAlignedDimension
 13
478.0
 23
114.0000000000005
 33
0.0
 14
478.0
 24
-113.9999999999992
 34
0.0
 50
90.0
100
AcDbRotatedDimension
  0
DIMENSION
  5
85DB
330
1E
100
AcDbEntity
  8
30
  6
Continuous
100
AcDbDimension
  2
*D11
 10
414.0
 20
-171.0
 30
0.0
 11
320.0
 21
-167.5
 31
0.0
 70
    32
 71
     5
 42
-1.0
  3
STANDARD
100
AcDbAlignedDimension
 13
226.0
 23
-51.0
 33
0.0
 14
414.0
 24
-157.5
 34
0.0
100
AcDbRotatedDimension
  0
LINE
  5
85DC
330
1E
100
AcDbEntity
  8
10
100
AcDbLine
 10
470.0
 20
-108.9999999999992
 30
0.0
 11
470.0
 21
-118.999999999999
 31
0.0
  0
LINE
  5
85DD
330
1E
100
AcDbEntity
  8
10
100
AcDbLine
 10
466.0
 20
-90.0
 30
0.0
 11
466.0
 21
-137.9999999999998
 31
0.0
  0
LINE
  5
85DE
330
1E
100
AcDbEntity
  8
10
100
AcDbLine
 10
366.0
 20
130.0
 30
0.0
 11
366.0
 21
-130.0
 31
0.0
  0
LINE
  5
85DF
330
1E
100
AcDbEntity
  8
10
100
AcDbLine
 10
232.0
 20
-51.0
 30
0.0
 11
232.0
 21
-130.0
 31
0.0
  0
LINE
  5
85E0
330
1E
100
AcDbEntity
  8
10
100
AcDbLine
 10
371.0
 20
143.0
 30
0.0
 11
371.0
 21
-143.0
 31
0.0
  0
DIMENSION
  5
85E1
330
1E
100
AcDbEntity
  8
30
  6
Continuous
100
AcDbDimension
  2
*D12
 10
466.0
 20
-171.0
 30
0.0
 11
440.0
 21
-167.5
 31
0.0
 70
    32
 71
     5
 42
-1.0
  3
STANDARD
100
AcDbAlignedDimension
 13
414.0
 23
-138.0
 33
0.0
 14
466.0
 24
-137.9999999999998
 34
0.0
100
AcDbRotatedDimension
  0
LINE
  5
85E2
330
1E
100
AcDbEntity
  8
10
100
AcDbLine
 10
371.0
 20
-138.0
 30
0.0
 11
466.0
 21
-138.0
 31
0.0
  0
LINE
  5
85E3
330
1E
100
AcDbEntity
  8
17
100
AcDbLine
 10
321.0
 20
-113.9999999999992
 30
0.0
 11
478.0
 21
-113.9999999999992
 31
0.0
  0
LINE
  5
85E4
330
1E
100
AcDbEntity
  8
10
100
AcDbLine
 10
232.0
 20
-130.0
 30
0.0
 11
366.0
 21
-130.0
 31
0.0
  0
LINE
  5
85E5
330
1E
100
AcDbEntity
  8
10
100
AcDbLine
 10
354.0
 20
-143.0
 30
0.0
 11
371.0
 21
-143.0
 31
0.0
  0
LINE
  5
85E6
330
1E
100
AcDbEntity
  8
10
100
AcDbLine
 10
354.0
 20
-130.0
 30
0.0
 11
354.0
 21
-143.0
 31
0.0
  0
LINE
  5
85E7
330
1E
100
AcDbEntity
  8
10
100
AcDbLine
 10
401.0
 20
-157.5
 30
0.0
 11
414.0
 21
-157.5
 31
0.0
  0
LINE
  5
85E8
330
1E
100
AcDbEntity
  8
10
100
AcDbLine
 10
401.0
 20
-137.9999999999998
 30
0.0
 11
401.0
 21
-157.5
 31
0.0
  0
LINE
  5
85E9
330
1E
100
AcDbEntity
  8
10
100
AcDbLine
 10
414.0
 20
-137.9999999999998
 30
0.0
 11
414.0
 21
-157.5
 31
0.0
  0
DIMENSION
  5
85EA
330
1E
100
AcDbEntity
  8
30
  6
Continuous
100
AcDbDimension
  2
*D13
 10
470.0
 20
-171.0
 30
0.0
 11
476.6666666666666
 21
-167.5
 31
0.0
 70
    32
 71
     5
 42
-1.0
  3
STANDARD
100
AcDbAlignedDimension
 13
466.0
 23
-138.9999999999998
 33
0.0
 14
470.0
 24
-118.9999999999992
 34
0.0
100
AcDbRotatedDimension
  0
LINE
  5
85EB
330
1E
100
AcDbEntity
  8
10
100
AcDbLine
 10
466.0
 20
-118.9999999999992
 30
0.0
 11
470.0
 21
-118.9999999999992
 31
0.0
  0
LINE
  5
85EC
330
1E
100
AcDbEntity
  8
12
100
AcDbLine
 10
419.0
 20
67.5
 30
0.0
 11
396.0
 21
67.5
 31
0.0
  0
LINE
  5
85ED
330
1E
100
AcDbEntity
  8
12
100
AcDbLine
 10
419.0
 20
72.5
 30
0.0
 11
396.0
 21
72.5
 31
0.0
  0
LINE
  5
85EE
330
1E
100
AcDbEntity
  8
10
100
AcDbLine
 10
466.0
 20
138.0
 30
0.0
 11
371.0
 21
138.0
 31
0.0
  0
LINE
  5
85EF
330
1E
100
AcDbEntity
  8
10
100
AcDbLine
 10
466.0
 20
90.0
 30
0.0
 11
371.0
 21
90.0
 31
0.0
  0
LINE
  5
85F0
330
1E
100
AcDbEntity
  8
17
100
AcDbLine
 10
478.0
 20
114.0000000000005
 30
0.0
 11
321.0
 21
114.0000000000005
 31
0.0
  0
LINE
  5
85F1
330
1E
100
AcDbEntity
  8
12
100
AcDbLine
 10
438.0
 20
70.0
 30
0.0
 11
383.0
 21
70.0
 31
0.0
  0
LINE
  5
85F2
330
1E
100
AcDbEntity
  8
12
100
AcDbLine
 10
419.0
 20
-67.5
 30
0.0
 11
396.0
 21
-67.5
 31
0.0
  0
LINE
  5
85F3
330
1E
100
AcDbEntity
  8
12
100
AcDbLine
 10
419.0
 20
-72.5
 30
0.0
 11
396.0
 21
-72.5
 31
0.0
  0
LINE
  5
85F4
330
1E
100
AcDbEntity
  8
10
100
AcDbLine
 10
371.0
 20
-90.0
 30
0.0
 11
466.0
 21
-90.0
 31
0.0
  0
LINE
  5
85F5
330
1E
100
AcDbEntity
  8
12
100
AcDbLine
 10
438.0
 20
-70.0
 30
0.0
 11
383.0
 21
-70.0
 31
0.0
  0
LINE
  5
85F6
330
1E
100
AcDbEntity
  8
16
100
AcDbLine
 10
464.7953219011405
 20
0.0
 30
0.0
 11
189.6062902121224
 21
0.0
 31
0.0
  0
LINE
  5
85F7
330
1E
100
AcDbEntity
  8
10
100
AcDbLine
 10
366.0
 20
130.0
 30
0.0
 11
232.0
 21
130.0
 31
0.0
  0
LINE
  5
85F8
330
1E
100
AcDbEntity
  8
10
100
AcDbLine
 10
232.0
 20
130.0
 30
0.0
 11
232.0
 21
51.0
 31
0.0
  0
LINE
  5
85F9
330
1E
100
AcDbEntity
  8
10
100
AcDbLine
 10
218.0
 20
17.03370272535221
 30
0.0
 11
187.3490118975476
 21
28.03853193396582
 31
0.0
  0
LINE
  5
85FA
330
1E
100
AcDbEntity
  8
10
100
AcDbLine
 10
218.0
 20
29.78370889367909
 30
0.0
 11
191.4040125135876
 21
39.33264411704225
 31
0.0
  0
LINE
  5
85FB
330
1E
100
AcDbEntity
  8
10
100
AcDbLine
 10
191.4040125135876
 20
39.33264411704225
 30
0.0
 11
187.3490118975476
 21
28.03853193396582
 31
0.0
  0
LINE
  5
85FC
330
1E
100
AcDbEntity
  8
10
100
AcDbLine
 10
218.0
 20
45.0
 30
0.0
 11
218.0
 21
-45.0
 31
0.0
  0
LINE
  5
85FD
330
1E
100
AcDbEntity
  8
10
100
AcDbLine
 10
222.0
 20
45.0
 30
0.0
 11
222.0
 21
-45.0
 31
0.0
  0
LINE
  5
85FE
330
1E
100
AcDbEntity
  8
10
100
AcDbLine
 10
226.0
 20
51.0
 30
0.0
 11
226.0
 21
-51.0
 31
0.0
  0
LINE
  5
85FF
330
1E
100
AcDbEntity
  8
10
100
AcDbLine
 10
226.0
 20
-51.0
 30
0.0
 11
232.0
 21
-51.0
 31
0.0
  0
LINE
  5
8600
330
1E
100
AcDbEntity
  8
10
100
AcDbLine
 10
218.0
 20
-45.0
 30
0.0
 11
226.0
 21
-45.0
 31
0.0
  0
LINE
  5
8601
330
1E
100
AcDbEntity
  8
10
100
AcDbLine
 10
218.0
 20
19.15870375340682
 30
0.0
 11
204.4954256005409
 21
24.00734139942017
 31
0.0
  0
LINE
  5
8602
330
1E
100
AcDbEntity
  8
10
100
AcDbLine
 10
218.0
 20
27.65870786562459
 30
0.0
 11
207.1987593445677
 21
31.53674952147116
 31
0.0
  0
LINE
  5
8603
330
1E
100
AcDbEntity
  8
10
100
AcDbLine
 10
207.1987593445673
 20
31.53674952147116
 30
0.0
 11
204.4954256005409
 21
24.00734139942017
 31
0.0
  0
LINE
  5
8604
330
1E
100
AcDbEntity
  8
10
100
AcDbLine
 10
226.0
 20
51.0
 30
0.0
 11
232.0
 21
51.0
 31
0.0
  0
LINE
  5
8605
330
1E
100
AcDbEntity
  8
10
100
AcDbLine
 10
218.0
 20
45.0
 30
0.0
 11
226.0
 21
45.0
 31
0.0
  0
LINE
  5
8606
330
1E
100
AcDbEntity
  8
12
100
AcDbLine
 10
396.0
 20
75.0
 30
0.0
 11
396.0
 21
65.0
 31
0.0
  0
LINE
  5
8607
330
1E
100
AcDbEntity
  8
12
100
AcDbLine
 10
395.0
 20
75.0
 30
0.0
 11
395.0
 21
65.0
 31
0.0
  0
LINE
  5
8608
330
1E
100
AcDbEntity
  8
12
100
AcDbLine
 10
391.0
 20
74.5
 30
0.0
 11
391.0
 21
65.5
 31
0.0
  0
LINE
  5
8609
330
1E
100
AcDbEntity
  8
10
100
AcDbLine
 10
414.0
 20
90.00000000000046
 30
0.0
 11
414.0
 21
-90.0
 31
0.0
  0
LINE
  5
860A
330
1E
100
AcDbEntity
  8
12
100
AcDbLine
 10
395.0
 20
-75.0
 30
0.0
 11
395.0
 21
-65.0
 31
0.0
  0
LINE
  5
860B
330
1E
100
AcDbEntity
  8
12
100
AcDbLine
 10
396.0
 20
-75.0
 30
0.0
 11
396.0
 21
-65.0
 31
0.0
  0
LINE
  5
860C
330
1E
100
AcDbEntity
  8
12
100
AcDbLine
 10
391.0
 20
-74.5
 30
0.0
 11
391.0
 21
-65.5
 31
0.0
  0
LINE
  5
860D
330
1E
100
AcDbEntity
  8
12
100
AcDbLine
 10
396.0
 20
-75.0
 30
0.0
 11
395.0
 21
-75.0
 31
0.0
  0
LINE
  5
860E
330
1E
100
AcDbEntity
  8
12
100
AcDbLine
 10
395.0
 20
-74.5
 30
0.0
 11
391.0
 21
-74.5
 31
0.0
  0
LINE
  5
860F
330
1E
100
AcDbEntity
  8
12
100
AcDbLine
 10
396.0
 20
-65.0
 30
0.0
 11
395.0
 21
-65.0
 31
0.0
  0
LINE
  5
8610
330
1E
100
AcDbEntity
  8
12
100
AcDbLine
 10
395.0
 20
-65.5
 30
0.0
 11
391.0
 21
-65.5
 31
0.0
  0
LINE
  5
8611
330
1E
100
AcDbEntity
  8
12
100
AcDbLine
 10
396.0
 20
65.0
 30
0.0
 11
395.0
 21
65.0
 31
0.0
  0
LINE
  5
8612
330
1E
100
AcDbEntity
  8
12
100
AcDbLine
 10
395.0
 20
65.5
 30
0.0
 11
391.0
 21
65.5
 31
0.0
  0
LINE
  5
8613
330
1E
100
AcDbEntity
  8
10
100
AcDbLine
 10
414.0
 20
157.4999999999996
 30
0.0
 11
414.0
 21
138.0
 31
0.0
  0
LINE
  5
8614
330
1E
100
AcDbEntity
  8
10
100
AcDbLine
 10
401.0
 20
157.4999999999996
 30
0.0
 11
401.0
 21
138.0
 31
0.0
  0
LINE
  5
8615
330
1E
100
AcDbEntity
  8
10
100
AcDbLine
 10
371.0
 20
143.0
 30
0.0
 11
354.0
 21
143.0
 31
0.0
  0
LINE
  5
8616
330
1E
100
AcDbEntity
  8
10
100
AcDbLine
 10
354.0
 20
143.0
 30
0.0
 11
354.0
 21
130.0
 31
0.0
  0
LINE
  5
8617
330
1E
100
AcDbEntity
  8
12
100
AcDbLine
 10
396.0
 20
75.0
 30
0.0
 11
395.0
 21
75.0
 31
0.0
  0
LINE
  5
8618
330
1E
100
AcDbEntity
  8
12
100
AcDbLine
 10
395.0
 20
74.5
 30
0.0
 11
391.0
 21
74.5
 31
0.0
  0
LINE
  5
8619
330
1E
100
AcDbEntity
  8
10
100
AcDbLine
 10
414.0
 20
157.4999999999996
 30
0.0
 11
400.9999999999996
 21
157.4999999999996
 31
0.0
  0
DIMENSION
  5
861A
330
1E
100
AcDbEntity
  8
30
  6
Continuous
100
AcDbDimension
  2
*D14
 10
476.6062902121223
 20
-90.0
 30
0.0
 11
473.1062902121223
 21
0.0000000000000707
 31
0.0
 70
    32
 71
     5
 42
-1.0
  3
STANDARD
100
AcDbAlignedDimension
 13
466.0
 23
90.0
 33
0.0
 14
466.0
 24
-90.0
 34
0.0
 50
90.0
100
AcDbRotatedDimension
  0
LINE
  5
861B
330
1E
100
AcDbEntity
  8
12
100
AcDbLine
 10
426.2999999999998
 20
74.39999999999997
 30
0.0
 11
426.2999999999998
 21
65.60000000000002
 31
0.0
  0
LINE
  5
861C
330
1E
100
AcDbEntity
  8
12
100
AcDbLine
 10
420.0
 20
75.0
 30
0.0
 11
420.0
 21
65.0
 31
0.0
  0
LINE
  5
861D
330
1E
100
AcDbEntity
  8
12
100
AcDbLine
 10
421.2999999999998
 20
75.0
 30
0.0
 11
421.2999999999998
 21
65.0
 31
0.0
  0
LINE
  5
861E
330
1E
100
AcDbEntity
  8
12
100
AcDbLine
 10
430.0
 20
-72.5
 30
0.0
 11
430.0
 21
-67.5
 31
0.0
  0
LINE
  5
861F
330
1E
100
AcDbEntity
  8
12
100
AcDbLine
 10
426.2999999999998
 20
-74.39999999999997
 30
0.0
 11
426.2999999999998
 21
-65.60000000000002
 31
0.0
  0
LINE
  5
8620
330
1E
100
AcDbEntity
  8
12
100
AcDbLine
 10
420.0
 20
-75.0
 30
0.0
 11
420.0
 21
-65.0
 31
0.0
  0
LINE
  5
8621
330
1E
100
AcDbEntity
  8
12
100
AcDbLine
 10
421.2999999999998
 20
-75.0
 30
0.0
 11
421.2999999999998
 21
-65.0
 31
0.0
  0
LINE
  5
8622
330
1E
100
AcDbEntity
  8
12
100
AcDbLine
 10
426.2999999999998
 20
-72.19999999999993
 30
0.0
 11
421.2999999999998
 21
-72.19999999999993
 31
0.0
  0
LINE
  5
8623
330
1E
100
AcDbEntity
  8
12
100
AcDbLine
 10
426.2999999999998
 20
-74.39999999999997
 30
0.0
 11
421.2999999999998
 21
-74.39999999999997
 31
0.0
  0
LINE
  5
8624
330
1E
100
AcDbEntity
  8
12
100
AcDbLine
 10
421.2999999999992
 20
-75.0
 30
0.0
 11
419.0
 21
-75.0
 31
0.0
  0
LINE
  5
8625
330
1E
100
AcDbEntity
  8
12
100
AcDbLine
 10
430.0000000000001
 20
-72.5
 30
0.0
 11
426.2999999999998
 21
-72.5
 31
0.0
  0
LINE
  5
8626
330
1E
100
AcDbEntity
  8
12
100
AcDbLine
 10
426.2999999999998
 20
-65.60000000000002
 30
0.0
 11
421.2999999999998
 21
-65.60000000000002
 31
0.0
  0
LINE
  5
8627
330
1E
100
AcDbEntity
  8
12
100
AcDbLine
 10
426.2999999999998
 20
-67.79999999999995
 30
0.0
 11
421.2999999999998
 21
-67.79999999999995
 31
0.0
  0
LINE
  5
8628
330
1E
100
AcDbEntity
  8
12
100
AcDbLine
 10
421.2999999999992
 20
-65.0
 30
0.0
 11
419.0
 21
-65.0
 31
0.0
  0
LINE
  5
8629
330
1E
100
AcDbEntity
  8
12
100
AcDbLine
 10
430.0000000000001
 20
-67.5
 30
0.0
 11
426.2999999999998
 21
-67.5
 31
0.0
  0
LINE
  5
862A
330
1E
100
AcDbEntity
  8
10
100
AcDbLine
 10
466.0
 20
-108.9999999999992
 30
0.0
 11
470.0
 21
-108.9999999999992
 31
0.0
  0
LINE
  5
862B
330
1E
100
AcDbEntity
  8
12
100
AcDbLine
 10
426.2999999999998
 20
65.60000000000002
 30
0.0
 11
421.2999999999998
 21
65.60000000000002
 31
0.0
  0
LINE
  5
862C
330
1E
100
AcDbEntity
  8
12
100
AcDbLine
 10
421.2999999999992
 20
65.0
 30
0.0
 11
419.0
 21
65.0
 31
0.0
  0
LINE
  5
862D
330
1E
100
AcDbEntity
  8
12
100
AcDbLine
 10
426.2999999999998
 20
72.20000000000005
 30
0.0
 11
421.2999999999998
 21
72.20000000000005
 31
0.0
  0
LINE
  5
862E
330
1E
100
AcDbEntity
  8
12
100
AcDbLine
 10
426.2999999999998
 20
74.39999999999997
 30
0.0
 11
421.2999999999998
 21
74.39999999999997
 31
0.0
  0
LINE
  5
862F
330
1E
100
AcDbEntity
  8
12
100
AcDbLine
 10
426.2999999999998
 20
67.79999999999984
 30
0.0
 11
421.2999999999998
 21
67.79999999999984
 31
0.0
  0
LINE
  5
8630
330
1E
100
AcDbEntity
  8
12
100
AcDbLine
 10
421.2999999999992
 20
75.0
 30
0.0
 11
419.0
 21
75.0
 31
0.0
  0
LINE
  5
8631
330
1E
100
AcDbEntity
  8
12
100
AcDbLine
 10
430.0000000000001
 20
72.5
 30
0.0
 11
426.2999999999998
 21
72.5
 31
0.0
  0
LINE
  5
8632
330
1E
100
AcDbEntity
  8
12
100
AcDbLine
 10
430.0000000000001
 20
67.5
 30
0.0
 11
426.2999999999998
 21
67.5
 31
0.0
  0
LINE
  5
8633
330
1E
100
AcDbEntity
  8
12
100
AcDbLine
 10
430.0
 20
72.5
 30
0.0
 11
430.0
 21
67.5
 31
0.0
  0
LINE
  5
8634
330
1E
100
AcDbEntity
  8
10
100
AcDbLine
 10
470.0
 20
119.0000000000005
 30
0.0
 11
470.0
 21
109.0000000000006
 31
0.0
  0
LINE
  5
8635
330
1E
100
AcDbEntity
  8
10
100
AcDbLine
 10
466.0
 20
138.0
 30
0.0
 11
466.0
 21
90.00000000000012
 31
0.0
  0
LINE
  5
8636
330
1E
100
AcDbEntity
  8
10
100
AcDbLine
 10
470.0
 20
109.0000000000006
 30
0.0
 11
466.0
 21
109.0000000000006
 31
0.0
  0
LINE
  5
8637
330
1E
100
AcDbEntity
  8
10
100
AcDbLine
 10
470.0
 20
119.0000000000005
 30
0.0
 11
466.0
 21
119.0000000000005
 31
0.0
  0
MTEXT
  5
8780
330
1E
100
AcDbEntity
  8
30
  6
Continuous
100
AcDbMText
 10
335.9999999999994
 20
271.0
 30
0.0
 40
5.0
 41
0.0
 71
     1
 72
     1
  1
\A1;
 73
     1
 44
1.0
1001
ACAD
1000
MTEXTBEGIN
1070
    73
1070
     1
1070
    44
1040
1.0
1070
    74
1070
     0
1000
MTEXTEND
  0
MTEXT
  5
87D0
330
1E
100
AcDbEntity
  8
19
  6
Continuous
100
AcDbMText
 10
331.9999999999996
 20
455.4999999999998
 30
0.0
 40
7.0
 41
94.0
 71
     1
 72
     5
  1
H400-NE 3P PM\PL400-NE 3P PM
  7
STANDARD1
 73
     1
 44
1.0
1001
ACAD
1000
MTEXTBEGIN
1070
    73
1070
     1
1070
    44
1040
1.0
1070
    74
1070
     0
1000
MTEXTEND
  0
DIMENSION
  5
899E
330
1E
100
AcDbEntity
  8
30
  6
Continuous
100
AcDbDimension
  2
*D21
 10
463.4999999999998
 20
307.4137199825055
 30
0.0
 11
448.5
 21
310.9137199825054
 31
0.0
 70
    32
 71
     5
 42
-1.0
  3
STANDARD
100
AcDbAlignedDimension
 13
433.4999999999998
 23
323.0
 33
0.0
 14
463.4999999999998
 24
323.0
 34
0.0
100
AcDbRotatedDimension
1001
ACAD
1000
DSTYLE
1002
{
1070
    79
1070
     3
1002
}
  0
ARC
  5
899F
330
1E
100
AcDbEntity
  8
24
  6
CONTINOUS
100
AcDbCircle
 10
435.3456855852392
 20
337.0467079395428
 30
0.0
 40
22.59903724617389
100
AcDbArc
 50
78.93706202154437
 51
94.494317680383
  0
LINE
  5
89A0
330
1E
100
AcDbEntity
  8
24
  6
CONTINOUS
100
AcDbLine
 10
433.4999999999998
 20
323.0
 30
0.0
 11
463.4999999999998
 21
323.0
 31
0.0
  0
LINE
  5
89A1
330
1E
100
AcDbEntity
  8
24
  6
CONTINOUS
100
AcDbLine
 10
433.4999999999998
 20
360.1412821908999
 30
0.0
 11
433.4999999999998
 21
323.0
 31
0.0
  0
DIMENSION
  5
89A2
330
1E
100
AcDbEntity
  8
30
  6
Continuous
100
AcDbDimension
  2
*D22
 10
445.0569268515979
 20
338.7110319079344
 30
0.0
 11
472.9648401337988
 21
366.0012859865391
 31
0.0
 70
   163
 71
     5
 42
-1.0
  3
STANDARD
100
AcDbDiametricDimension
 15
451.9430731484008
 25
347.2889680920653
 35
0.0
 40
0.0
1001
ACAD
1000
DSTYLE
1002
{
1070
    79
1070
     3
1070
   288
1070
     1
1002
}
  0
DIMENSION
  5
89A3
330
1E
100
AcDbEntity
  8
30
  6
Continuous
100
AcDbDimension
  2
*D23
 10
479.9423296781887
 20
343.0
 30
0.0
 11
476.4423296781886
 21
333.0
 31
0.0
 70
    32
 71
     5
 42
-1.0
  3
STANDARD
100
AcDbAlignedDimension
 13
463.4999999999998
 23
323.0
 33
0.0
 14
455.9999999999996
 24
343.0
 34
0.0
 50
90.0
100
AcDbRotatedDimension
1001
ACAD
1000
DSTYLE
1002
{
1070
    79
1070
     3
1002
}
  0
LINE
  5
89A4
330
1E
100
AcDbEntity
  8
24
  6
CONTINOUS
100
AcDbLine
 10
463.4999999999998
 20
358.6499034991693
 30
0.0
 11
463.4999999999998
 21
323.0
 31
0.0
  0
ARC
  5
89A5
330
1E
100
AcDbEntity
  8
24
  6
CONTINOUS
100
AcDbCircle
 10
453.4875818209463
 20
363.4959180288476
 30
0.0
 40
7.5
100
AcDbArc
 50
251.3586110284597
 51
294.2039969225343
  0
LINE
  5
89A6
330
1E
100
AcDbEntity
  8
24
  6
CONTINOUS
100
AcDbLine
 10
440.9999999999997
 20
343.0
 30
0.0
 11
455.9999999999996
 21
343.0
 31
0.0
  0
CIRCLE
  5
89A7
330
1E
100
AcDbEntity
  8
24
  6
CONTINOUS
100
AcDbCircle
 10
448.4999999999997
 20
343.0
 30
0.0
 40
5.5
  0
LINE
  5
89A8
330
1E
100
AcDbEntity
  8
24
  6
CONTINOUS
100
AcDbLine
 10
448.4999999999997
 20
350.4999999999998
 30
0.0
 11
448.5
 21
335.4999999999999
 31
0.0
  0
LINE
  5
89A9
330
1E
100
AcDbEntity
  8
24
  6
CONTINOUS
100
AcDbLine
 10
439.6821509528971
 20
359.2257871036798
 30
0.0
 11
451.0902528026056
 21
356.3893848671846
 31
0.0
  0
LINE
  5
89AA
330
1E
100
AcDbEntity
  8
24
  6
CONTINOUS
100
AcDbLine
 10
456.5624817848158
 20
356.6552316442665
 30
0.0
 11
463.4999999999998
 21
358.6499034991693
 31
0.0
  0
LINE
  5
89AB
330
1E
100
AcDbEntity
  8
10
100
AcDbLine
 10
138.9999999999799
 20
305.5
 30
0.0
 11
161.0000000000003
 21
305.5
 31
0.0
  0
LINE
  5
89AC
330
1E
100
AcDbEntity
  8
10
100
AcDbLine
 10
149.0000000000003
 20
292.5
 30
0.0
 11
166.0000000000003
 21
292.5
 31
0.0
  0
SPLINE
  5
89AD
330
1E
100
AcDbEntity
  8
10
100
AcDbSpline
210
0.0
220
0.0
230
1.0
 70
     8
 71
     3
 72
    14
 73
    10
 74
     0
 42
0.0000000001
 43
0.0000000001
 40
0.0
 40
0.0
 40
0.0
 40
0.0
 40
0.1428571428571429
 40
0.2857142857142857
 40
0.4285714285714288
 40
0.5714285714285714
 40
0.7142857142857145
 40
0.8571428571428571
 40
1.0
 40
1.0
 40
1.0
 40
1.0
 10
209.0000000000002
 20
400.4999999999998
 30
0.0
 10
196.0000000000002
 20
390.5000000000006
 30
0.0
 10
176.0000000000003
 20
392.5000000000006
 30
0.0
 10
172.0000000000003
 20
374.5000000000006
 30
0.0
 10
148.0000000000003
 20
374.5000000000006
 30
0.0
 10
142.0000000000003
 20
354.5000000000007
 30
0.0
 10
134.0000000000003
 20
346.5000000000006
 30
0.0
 10
142.0000000000003
 20
332.5000000000006
 30
0.0
 10
132.0000000000003
 20
318.5000000000006
 30
0.0
 10
139.0000000000003
 20
305.5
 30
0.0
  0
LINE
  5
89AE
330
1E
100
AcDbEntity
  8
10
100
AcDbLine
 10
149.0000000000003
 20
305.5
 30
0.0
 11
149.0000000000003
 21
292.5
 31
0.0
  0
TEXT
  5
89AF
330
1E
100
AcDbEntity
  8
30
100
AcDbText
 10
283.8975598414476
 20
274.8175979197848
 30
0.0
 40
5.0
  1
30 max. conductor width
 41
0.8216911764705923
  7
UGMTXT
100
AcDbText
  0
LEADER
  5
89B0
330
1E
100
AcDbEntity
  8
30
  6
Continuous
100
AcDbLeader
  3
STANDARD
 40
5.0
 76
     3
 10
269.5000000000002
 20
292.5000000000006
 30
0.0
 10
282.0
 20
273.0
 30
0.0
 10
361.0
 20
273.0
 30
0.0
213
0.0
223
-2.5
233
0.0
1001
ACAD
1000
DSTYLE
1002
{
1070
     5
1000
OPEN
1070
    77
1070
     0
1070
   147
1040
1.0
1002
}
  0
LEADER
  5
89B1
330
1E
100
AcDbEntity
  8
30
  6
Continuous
100
AcDbLeader
  3
STANDARD
 73
     0
 40
5.0
 76
     3
 10
239.5000000000003
 20
312.5000000000007
 30
0.0
 10
232.0
 20
275.0
 30
0.0
 10
258.0
 20
275.0
 30
0.0
340
89B2
213
-127.0
223
-4.5
233
0.0
1001
ACAD
1000
DSTYLE
1002
{
1070
     5
1000
OPEN
1070
    77
1070
     0
1070
   147
1040
1.0
1002
}
  0
MTEXT
  5
89B2
102
{ACAD_REACTORS
330
89B1
102
}
330
1E
100
AcDbEntity
  8
30
  6
Continuous
100
AcDbMText
 10
329.0
 20
279.4999999999999
 30
0.0
 40
5.0
 41
0.0
 71
     1
 72
     1
  1
\A1;
 73
     1
 44
1.0
1001
ACAD
1000
MTEXTBEGIN
1070
    73
1070
     1
1070
    44
1040
1.0
1070
    74
1070
     0
1000
MTEXTEND
  0
DIMENSION
  5
89B3
330
1E
100
AcDbEntity
  8
30
  6
Continuous
100
AcDbDimension
  2
*D15
 10
265.0000000000003
 20
258.8333333333333
 30
0.0
 11
247.0000000000003
 21
262.3333333333333
 31
0.0
 70
    32
 71
     5
 42
-1.0
  3
STANDARD
100
AcDbAlignedDimension
 13
229.0000000000003
 23
297.5
 33
0.0
 14
265.0000000000003
 24
316.5000000000006
 34
0.0
100
AcDbRotatedDimension
  0
DIMENSION
  5
89B4
330
1E
100
AcDbEntity
  8
30
  6
Continuous
100
AcDbDimension
  2
*D16
 10
229.0000000000003
 20
259.3333333333333
 30
0.0
 11
219.0000000000003
 21
262.8333333333333
 31
0.0
 70
    32
 71
     5
 42
-1.0
  3
STANDARD
100
AcDbAlignedDimension
 13
209.0000000000002
 23
278.0
 33
0.0
 14
229.0000000000003
 24
309.5000000000006
 34
0.0
100
AcDbRotatedDimension
  0
DIMENSION
  5
89B5
330
1E
100
AcDbEntity
  8
30
  6
Continuous
100
AcDbDimension
  2
*D17
 10
209.0000000000002
 20
259.3333333333333
 30
0.0
 11
187.5000000000003
 21
262.8333333333333
 31
0.0
 70
    32
 71
     5
 42
-1.0
  3
STANDARD
100
AcDbAlignedDimension
 13
166.0000000000003
 23
292.5
 33
0.0
 14
209.0000000000002
 24
297.5
 34
0.0
100
AcDbRotatedDimension
  0
DIMENSION
  5
89B6
330
1E
100
AcDbEntity
  8
30
  6
Continuous
100
AcDbDimension
  2
*D18
 10
166.0000000000003
 20
259.0
 30
0.0
 11
154.3333333333336
 21
259.0
 31
0.0
 70
   160
 71
     5
 42
-1.0
  3
STANDARD
100
AcDbAlignedDimension
 13
161.0000000000003
 23
305.5
 33
0.0
 14
166.0000000000003
 24
297.5
 34
0.0
100
AcDbRotatedDimension
  0
TEXT
  5
89B7
330
1E
100
AcDbEntity
  8
30
100
AcDbText
 10
233.8975598414475
 20
276.8175979197848
 30
0.0
 40
5.0
  1
M10 nut
 41
0.8216911764705923
  7
UGMTXT
100
AcDbText
  0
LINE
  5
89B8
330
1E
100
AcDbEntity
  8
10
100
AcDbLine
 10
196.0000000000002
 20
297.5000000000001
 30
0.0
 11
196.0000000000002
 21
278.0
 31
0.0
  0
LINE
  5
89B9
330
1E
100
AcDbEntity
  8
10
100
AcDbLine
 10
209.0000000000002
 20
297.5000000000001
 30
0.0
 11
209.0000000000002
 21
278.0
 31
0.0
  0
LINE
  5
89BA
330
1E
100
AcDbEntity
  8
10
100
AcDbLine
 10
196.0
 20
278.0
 30
0.0
 11
209.0000000000002
 21
278.0
 31
0.0
  0
TEXT
  5
89BB
330
1E
100
AcDbEntity
  8
30
100
AcDbText
 10
292.098074945947
 20
321.7990684128078
 30
0.0
 40
5.0
  1
20 (max.)
 50
90.0
 41
0.8216911764705923
  7
UGMTXT
100
AcDbText
  0
LINE
  5
89BC
330
1E
100
AcDbEntity
  8
10
100
AcDbLine
 10
166.0000000000003
 20
345.5
 30
0.0
 11
261.0000000000002
 21
345.5
 31
0.0
  0
DIMENSION
  5
89BD
330
1E
100
AcDbEntity
  8
30
  6
Continuous
100
AcDbDimension
  2
*D19
 10
225.0000000000004
 20
411.0
 30
0.0
 11
217.0000000000003
 21
414.5
 31
0.0
 70
    32
 71
     5
 42
-1.0
  3
STANDARD
100
AcDbAlignedDimension
 13
209.0000000000002
 23
390.5
 33
0.0
 14
225.0000000000004
 24
368.0
 34
0.0
100
AcDbRotatedDimension
  0
LINE
  5
89BE
330
1E
100
AcDbEntity
  8
10
100
AcDbLine
 10
249.0000000000003
 20
390.5
 30
0.0
 11
209.0000000000002
 21
390.5
 31
0.0
  0
LINE
  5
89BF
330
1E
100
AcDbEntity
  8
10
100
AcDbLine
 10
249.0000000000003
 20
385.5
 30
0.0
 11
219.0000000000003
 21
385.5
 31
0.0
  0
LINE
  5
89C0
330
1E
100
AcDbEntity
  8
12
100
AcDbLine
 10
221.3000000000003
 20
369.8999999999999
 30
0.0
 11
216.3000000000002
 21
369.8999999999999
 31
0.0
  0
LINE
  5
89C1
330
1E
100
AcDbEntity
  8
12
100
AcDbLine
 10
221.3000000000003
 20
367.7
 30
0.0
 11
216.3000000000002
 21
367.7
 31
0.0
  0
LINE
  5
89C2
330
1E
100
AcDbEntity
  8
12
100
AcDbLine
 10
221.3000000000003
 20
363.2999999999998
 30
0.0
 11
216.3000000000002
 21
363.2999999999998
 31
0.0
  0
LINE
  5
89C3
330
1E
100
AcDbEntity
  8
12
100
AcDbLine
 10
221.3000000000003
 20
361.0999999999998
 30
0.0
 11
216.3000000000002
 21
361.0999999999998
 31
0.0
  0
LINE
  5
89C4
330
1E
100
AcDbEntity
  8
12
100
AcDbLine
 10
216.6608695874342
 20
333.5000000000007
 30
0.0
 11
229.0000000000004
 21
333.5000000000007
 31
0.0
  0
LINE
  5
89C5
330
1E
100
AcDbEntity
  8
12
100
AcDbLine
 10
216.4919038134111
 20
309.5000000000006
 30
0.0
 11
229.0000000000004
 21
309.5000000000006
 31
0.0
  0
LINE
  5
89C6
330
1E
100
AcDbEntity
  8
10
100
AcDbLine
 10
166.0000000000003
 20
297.5
 30
0.0
 11
230.6076951545874
 21
297.5
 31
0.0
  0
LINE
  5
89C7
330
1E
100
AcDbEntity
  8
12
100
AcDbLine
 10
215.0000000000003
 20
360.4999999999998
 30
0.0
 11
215.0000000000003
 21
370.5
 31
0.0
  0
LINE
  5
89C8
330
1E
100
AcDbEntity
  8
12
100
AcDbLine
 10
216.3000000000002
 20
360.4999999999998
 30
0.0
 11
216.3000000000002
 21
370.5
 31
0.0
  0
LINE
  5
89C9
330
1E
100
AcDbEntity
  8
10
100
AcDbLine
 10
214.0000000000003
 20
350.4999999999997
 30
0.0
 11
214.0000000000003
 21
380.5
 31
0.0
  0
LINE
  5
89CA
330
1E
100
AcDbEntity
  8
10
100
AcDbLine
 10
209.0000000000002
 20
400.4999999999998
 30
0.0
 11
209.0000000000002
 21
345.5
 31
0.0
  0
LINE
  5
89CB
330
1E
100
AcDbEntity
  8
12
100
AcDbLine
 10
186.0000000000003
 20
361.0
 30
0.0
 11
186.0000000000003
 21
370.0000000000001
 31
0.0
  0
LINE
  5
89CC
330
1E
100
AcDbEntity
  8
12
100
AcDbLine
 10
190.0000000000003
 20
360.4999999999998
 30
0.0
 11
190.0000000000003
 21
370.5
 31
0.0
  0
LINE
  5
89CD
330
1E
100
AcDbEntity
  8
12
100
AcDbLine
 10
191.0000000000003
 20
360.4999999999998
 30
0.0
 11
191.0000000000003
 21
370.5
 31
0.0
  0
LINE
  5
89CE
330
1E
100
AcDbEntity
  8
10
100
AcDbLine
 10
161.0000000000003
 20
374.7155199943686
 30
0.0
 11
161.0000000000003
 21
305.5
 31
0.0
  0
LINE
  5
89CF
330
1E
100
AcDbEntity
  8
10
100
AcDbLine
 10
166.0000000000003
 20
376.1879249296566
 30
0.0
 11
166.0000000000003
 21
292.5
 31
0.0
  0
SPLINE
  5
89D0
330
1E
100
AcDbEntity
  8
10
100
AcDbSpline
210
0.0
220
0.0
230
1.0
 70
     8
 71
     3
 72
     9
 73
     5
 74
     0
 42
0.0000000001
 43
0.0000000001
 40
0.0
 40
0.0
 40
0.0
 40
0.0
 40
0.5
 40
1.0
 40
1.0
 40
1.0
 40
1.0
 10
219.0000000000003
 20
345.5
 30
0.0
 10
214.0000000000003
 20
336.5000000000006
 30
0.0
 10
222.0000000000003
 20
324.5000000000006
 30
0.0
 10
214.0000000000003
 20
310.5000000000007
 30
0.0
 10
219.0000000000003
 20
297.5
 30
0.0
  0
LINE
  5
89D1
330
1E
100
AcDbEntity
  8
12
100
AcDbLine
 10
214.0000000000003
 20
368.0
 30
0.0
 11
191.0000000000003
 21
368.0
 31
0.0
  0
LINE
  5
89D2
330
1E
100
AcDbEntity
  8
12
100
AcDbLine
 10
214.0000000000003
 20
363.0
 30
0.0
 11
191.0000000000003
 21
363.0
 31
0.0
  0
LINE
  5
89D3
330
1E
100
AcDbEntity
  8
12
100
AcDbLine
 10
190.0000000000003
 20
361.0
 30
0.0
 11
186.0000000000003
 21
361.0
 31
0.0
  0
LINE
  5
89D4
330
1E
100
AcDbEntity
  8
12
100
AcDbLine
 10
191.0000000000003
 20
360.4999999999998
 30
0.0
 11
190.0000000000003
 21
360.4999999999998
 31
0.0
  0
LINE
  5
89D5
330
1E
100
AcDbEntity
  8
10
100
AcDbLine
 10
214.0000000000003
 20
350.4999999999998
 30
0.0
 11
209.0000000000002
 21
350.4999999999998
 31
0.0
  0
LINE
  5
89D6
330
1E
100
AcDbEntity
  8
12
100
AcDbLine
 10
216.2999999999994
 20
360.4999999999998
 30
0.0
 11
214.0000000000003
 21
360.4999999999998
 31
0.0
  0
LINE
  5
89D7
330
1E
100
AcDbEntity
  8
12
100
AcDbLine
 10
190.0000000000003
 20
370.0
 30
0.0
 11
186.0000000000003
 21
370.0
 31
0.0
  0
LINE
  5
89D8
330
1E
100
AcDbEntity
  8
12
100
AcDbLine
 10
191.0000000000003
 20
370.5
 30
0.0
 11
190.0000000000003
 21
370.5
 31
0.0
  0
ARC
  5
89D9
330
1E
100
AcDbEntity
  8
10
100
AcDbCircle
 10
-219.0000000000003
 20
380.5
 30
0.0
 40
5.0
210
0.0
220
0.0
230
-1.0
100
AcDbArc
 50
0.0
 51
90.0
  0
LINE
  5
89DA
330
1E
100
AcDbEntity
  8
12
100
AcDbLine
 10
216.2999999999994
 20
370.5
 30
0.0
 11
214.0000000000003
 21
370.5
 31
0.0
  0
LINE
  5
89DB
330
1E
100
AcDbEntity
  8
12
100
AcDbLine
 10
221.3000000000003
 20
361.0999999999998
 30
0.0
 11
221.3000000000003
 21
369.9000000000001
 31
0.0
  0
LINE
  5
89DC
330
1E
100
AcDbEntity
  8
12
100
AcDbLine
 10
229.0000000000003
 20
326.5000000000006
 30
0.0
 11
261.0000000000002
 21
326.5000000000006
 31
0.0
  0
LINE
  5
89DD
330
1E
100
AcDbEntity
  8
10
100
AcDbLine
 10
241.0000000000003
 20
297.5000000000006
 30
0.0
 11
275.0000000000003
 21
297.5000000000006
 31
0.0
  0
LINE
  5
89DE
330
1E
100
AcDbEntity
  8
10
100
AcDbLine
 10
241.0000000000003
 20
291.5000000000006
 30
0.0
 11
275.0000000000003
 21
291.5000000000006
 31
0.0
  0
LINE
  5
89DF
330
1E
100
AcDbEntity
  8
10
100
AcDbLine
 10
241.0000000000003
 20
297.5
 30
0.0
 11
261.0000000000002
 21
297.5
 31
0.0
  0
LINE
  5
89E0
330
1E
100
AcDbEntity
  8
10
100
AcDbLine
 10
241.0000000000003
 20
335.5000000000007
 30
0.0
 11
275.0000000000003
 21
335.5000000000007
 31
0.0
  0
LINE
  5
89E1
330
1E
100
AcDbEntity
  8
10
100
AcDbLine
 10
241.0000000000003
 20
341.5000000000006
 30
0.0
 11
275.0000000000003
 21
341.5000000000006
 31
0.0
  0
LINE
  5
89E2
330
1E
100
AcDbEntity
  8
10
100
AcDbLine
 10
241.0000000000003
 20
335.4999999999999
 30
0.0
 11
261.0000000000002
 21
335.4999999999999
 31
0.0
  0
LINE
  5
89E3
330
1E
100
AcDbEntity
  8
12
100
AcDbLine
 10
229.0000000000003
 20
316.5000000000006
 30
0.0
 11
261.0000000000002
 21
316.5000000000006
 31
0.0
  0
LINE
  5
89E4
330
1E
100
AcDbEntity
  8
10
100
AcDbLine
 10
229.0000000000003
 20
329.5000000000007
 30
0.0
 11
229.0000000000003
 21
303.5000000000006
 31
0.0
  0
LINE
  5
89E5
330
1E
100
AcDbEntity
  8
10
100
AcDbLine
 10
235.0000000000003
 20
330.5000000000006
 30
0.0
 11
235.0000000000003
 21
303.5000000000006
 31
0.0
  0
LINE
  5
89E6
330
1E
100
AcDbEntity
  8
12
100
AcDbLine
 10
239.5000000000003
 20
330.5000000000008
 30
0.0
 11
239.5000000000003
 21
312.5000000000007
 31
0.0
  0
LINE
  5
89E7
330
1E
100
AcDbEntity
  8
12
100
AcDbLine
 10
248.5000000000002
 20
330.4000000000006
 30
0.0
 11
248.5000000000002
 21
312.6000000000008
 31
0.0
  0
LINE
  5
89E8
330
1E
100
AcDbEntity
  8
12
100
AcDbLine
 10
237.0000000000003
 20
330.5000000000008
 30
0.0
 11
237.0000000000003
 21
312.5000000000007
 31
0.0
  0
LINE
  5
89E9
330
1E
100
AcDbEntity
  8
12
100
AcDbLine
 10
229.0000000000003
 20
333.5000000000007
 30
0.0
 11
229.0000000000003
 21
309.5000000000006
 31
0.0
  0
ARC
  5
89EA
330
1E
100
AcDbEntity
  8
10
100
AcDbCircle
 10
241.0000000000003
 20
303.5000000000006
 30
0.0
 40
6.0
100
AcDbArc
 50
180.0
 51
270.0
  0
ARC
  5
89EB
330
1E
100
AcDbEntity
  8
10
100
AcDbCircle
 10
241.0000000000003
 20
303.5000000000006
 30
0.0
 40
12.0
100
AcDbArc
 50
180.0
 51
270.0
  0
LINE
  5
89EC
330
1E
100
AcDbEntity
  8
12
100
AcDbLine
 10
235.0000000000003
 20
312.5000000000007
 30
0.0
 11
239.5000000000003
 21
312.5000000000007
 31
0.0
  0
LINE
  5
89EE
330
1E
100
AcDbEntity
  8
12
100
AcDbLine
 10
239.5000000000003
 20
317.0500000000008
 30
0.0
 11
248.5000000000002
 21
317.0500000000008
 31
0.0
  0
LINE
  5
89EF
330
1E
100
AcDbEntity
  8
12
100
AcDbLine
 10
239.5000000000003
 20
312.6000000000008
 30
0.0
 11
248.5000000000002
 21
312.6000000000008
 31
0.0
  0
ARC
  5
89F0
330
1E
100
AcDbEntity
  8
10
100
AcDbCircle
 10
241.0000000000003
 20
329.5000000000007
 30
0.0
 40
6.0
100
AcDbArc
 50
90.0
 51
180.0
  0
ARC
  5
89F1
330
1E
100
AcDbEntity
  8
10
100
AcDbCircle
 10
241.0000000000003
 20
329.5000000000007
 30
0.0
 40
12.0
100
AcDbArc
 50
90.0
 51
180.0
  0
LINE
  5
89F2
330
1E
100
AcDbEntity
  8
12
100
AcDbLine
 10
235.0000000000003
 20
330.5000000000006
 30
0.0
 11
239.5000000000003
 21
330.5000000000006
 31
0.0
  0
LINE
  5
89F3
330
1E
100
AcDbEntity
  8
18
100
AcDbLine
 10
229.0000000000003
 20
326.5000000000006
 30
0.0
 11
235.0000000000003
 21
326.5000000000006
 31
0.0
  0
LINE
  5
89F4
330
1E
100
AcDbEntity
  8
12
100
AcDbLine
 10
225.0000000000003
 20
363.0000000000003
 30
0.0
 11
225.0000000000003
 21
368.0000000000001
 31
0.0
  0
LINE
  5
89F5
330
1E
100
AcDbEntity
  8
12
100
AcDbLine
 10
225.0000000000004
 20
368.0
 30
0.0
 11
221.3000000000003
 21
368.0
 31
0.0
  0
LINE
  5
89F6
330
1E
100
AcDbEntity
  8
12
100
AcDbLine
 10
225.0000000000004
 20
363.0
 30
0.0
 11
221.3000000000003
 21
363.0
 31
0.0
  0
LINE
  5
89F7
330
1E
100
AcDbEntity
  8
12
100
AcDbLine
 10
239.5000000000003
 20
325.9500000000006
 30
0.0
 11
248.5000000000002
 21
325.9500000000006
 31
0.0
  0
LINE
  5
89F8
330
1E
100
AcDbEntity
  8
12
100
AcDbLine
 10
239.5000000000003
 20
330.4000000000006
 30
0.0
 11
248.5000000000002
 21
330.4000000000006
 31
0.0
  0
DIMENSION
  5
89F9
330
1E
100
AcDbEntity
  8
30
  6
Continuous
100
AcDbDimension
  2
*D20
 10
284.0000000000001
 20
341.5000000000006
 30
0.0
 11
284.0
 21
334.0
 31
0.0
 70
   160
  1
 
 71
     5
 42
-1.0
  3
STANDARD
100
AcDbAlignedDimension
 13
265.0000000000003
 23
321.5000000000007
 33
0.0
 14
275.0000000000003
 24
341.5000000000006
 34
0.0
 50
90.0
100
AcDbRotatedDimension
  0
LINE
  5
89FA
330
1E
100
AcDbEntity
  8
12
100
AcDbLine
 10
265.0000000000003
 20
326.5000000000006
 30
0.0
 11
265.0000000000003
 21
316.5000000000008
 31
0.0
  0
SPLINE
  5
89FB
330
1E
100
AcDbEntity
  8
10
100
AcDbSpline
210
0.0
220
0.0
230
1.0
 70
     8
 71
     3
 72
     8
 73
     4
 74
     0
 42
0.0000000001
 43
0.0000000001
 40
0.0
 40
0.0
 40
0.0
 40
0.0
 40
1.0
 40
1.0
 40
1.0
 40
1.0
 10
275.0000000000003
 20
297.5000000000006
 30
0.0
 10
276.0000000000002
 20
294.5000000000007
 30
0.0
 10
274.0000000000002
 20
294.5000000000007
 30
0.0
 10
275.0000000000003
 20
291.5000000000006
 30
0.0
  0
LINE
  5
89FC
330
1E
100
AcDbEntity
  8
10
100
AcDbLine
 10
261.0000000000002
 20
316.5000000000006
 30
0.0
 11
261.0000000000002
 21
297.5000000000001
 31
0.0
  0
LINE
  5
89FD
330
1E
100
AcDbEntity
  8
12
100
AcDbLine
 10
261.0000000000002
 20
316.5000000000006
 30
0.0
 11
265.0000000000003
 21
316.5000000000006
 31
0.0
  0
SPLINE
  5
89FE
330
1E
100
AcDbEntity
  8
10
100
AcDbSpline
210
0.0
220
0.0
230
1.0
 70
     8
 71
     3
 72
     8
 73
     4
 74
     0
 42
0.0000000001
 43
0.0000000001
 40
0.0
 40
0.0
 40
0.0
 40
0.0
 40
1.0
 40
1.0
 40
1.0
 40
1.0
 10
275.0000000000003
 20
341.5000000000006
 30
0.0
 10
276.0000000000002
 20
338.5000000000006
 30
0.0
 10
274.0000000000002
 20
338.5000000000006
 30
0.0
 10
275.0000000000003
 20
335.5000000000007
 30
0.0
  0
LINE
  5
89FF
330
1E
100
AcDbEntity
  8
10
100
AcDbLine
 10
261.0000000000002
 20
345.5
 30
0.0
 11
261.0000000000002
 21
326.5000000000006
 31
0.0
  0
LINE
  5
8A00
330
1E
100
AcDbEntity
  8
12
100
AcDbLine
 10
261.0000000000002
 20
326.5000000000006
 30
0.0
 11
265.0000000000003
 21
326.5000000000006
 31
0.0
  0
LINE
  5
8A01
330
1E
100
AcDbEntity
  8
10
100
AcDbLine
 10
249.0000000000003
 20
385.5
 30
0.0
 11
249.0000000000003
 21
390.5
 31
0.0
  0
VIEWPORT
  5
9AC
330
1A
100
AcDbEntity
 67
     1
  8
0
  6
Continuous
100
AcDbViewport
 10
171.9995348790992
 20
144.1384735538403
 30
0.0
 40
488.8676857773511
 41
292.3514905034161
 68
     1
 69
     1
 12
171.9995348790992
 22
144.1384735538403
 13
0.0
 23
0.0
 14
10.0
 24
10.0
 15
10.0
 25
10.0
 16
0.0
 26
0.0
 36
1.0
 17
0.0
 27
0.0
 37
0.0
 42
50.0
 43
0.0
 44
0.0
 45
292.3514905034161
 50
0.0
 51
0.0
 72
   100
 90
    32800
  1

281
     0
 71
     1
 74
     0
110
0.0
120
0.0
130
0.0
111
1.0
121
0.0
131
0.0
112
0.0
122
1.0
132
0.0
 79
     0
146
0.0
  0
ENDSEC
  0
SECTION
  2
OBJECTS
  0
DICTIONARY
  5
C
330
0
100
AcDbDictionary
281
     1
  3
ACAD_GROUP
350
D
  3
ACAD_LAYOUT
350
19
  3
ACAD_MLINESTYLE
350
16
  3
ACAD_PLOTSETTINGS
350
18
  3
ACAD_PLOTSTYLENAME
350
E
  3
ACDBVARIABLEDICTIONARY
350
69C9
  0
DICTIONARY
  5
178
330
1E
100
AcDbDictionary
280
     1
281
     1
  3
ACAD_LAYOUTSELFREF
360
8B0B
  0
DICTIONARY
  5
17A
330
1A
100
AcDbDictionary
280
     1
281
     1
  3
ACAD_LAYOUTSELFREF
360
8B0A
  0
DICTIONARY
  5
D
102
{ACAD_REACTORS
330
C
102
}
330
C
100
AcDbDictionary
281
     1
  0
DICTIONARY
  5
19
102
{ACAD_REACTORS
330
C
102
}
330
C
100
AcDbDictionary
281
     1
  3
Model
350
8B11
  3
ﾚｲｱｳﾄ1
350
8B12
  0
DICTIONARY
  5
16
102
{ACAD_REACTORS
330
C
102
}
330
C
100
AcDbDictionary
281
     1
  3
STANDARD
350
17
  0
DICTIONARY
  5
18
102
{ACAD_REACTORS
330
C
102
}
330
C
100
AcDbDictionary
281
     1
  0
ACDBDICTIONARYWDFLT
  5
E
102
{ACAD_REACTORS
330
C
102
}
330
C
100
AcDbDictionary
281
     1
  3
Normal
350
F
100
AcDbDictionaryWithDefault
340
F
  0
DICTIONARY
  5
69C9
102
{ACAD_REACTORS
330
C
102
}
330
C
100
AcDbDictionary
281
     1
  3
DIMASSOC
350
69CA
  0
XRECORD
  5
8B0B
102
{ACAD_REACTORS
330
178
102
}
330
178
100
AcDbXrecord
280
     1
340
1E
  0
XRECORD
  5
8B0A
102
{ACAD_REACTORS
330
17A
102
}
330
17A
100
AcDbXrecord
280
     1
340
1A
  0
LAYOUT
  5
8B11
102
{ACAD_REACTORS
330
19
102
}
330
19
100
AcDbPlotSettings
  1

  2
LBP5400
  4

  6

 40
0.0
 41
0.0
 42
0.0
 43
0.0
 44
0.0
 45
0.0
 46
0.0
 47
0.0
 48
0.0
 49
0.0
140
0.0
141
0.0
142
1.0
143
1.0
 70
  1712
 72
     0
 73
     0
 74
     0
  7
monochrome.stb
 75
     0
147
1.0
148
0.0
149
0.0
100
AcDbLayout
  1
Model
 70
     1
 71
     0
 10
0.0
 20
0.0
 11
12.0
 21
9.0
 12
0.0
 22
0.0
 32
0.0
 14
0.0
 24
0.0
 34
0.0
 15
0.0
 25
0.0
 35
0.0
146
0.0
 13
0.0
 23
0.0
 33
0.0
 16
1.0
 26
0.0
 36
0.0
 17
0.0
 27
1.0
 37
0.0
 76
     0
330
1E
  0
LAYOUT
  5
8B12
102
{ACAD_REACTORS
330
19
102
}
330
19
100
AcDbPlotSettings
  1

  2
LBP5400
  4

  6

 40
0.0
 41
0.0
 42
0.0
 43
0.0
 44
0.0
 45
0.0
 46
0.0
 47
0.0
 48
0.0
 49
0.0
140
0.0
141
0.0
142
1.0
143
1.0
 70
   688
 72
     0
 73
     0
 74
     5
  7
monochrome.stb
 75
    16
147
1.0
148
0.0
149
0.0
100
AcDbLayout
  1
ﾚｲｱｳﾄ1
 70
     1
 71
     1
 10
-5.873748779296875
 20
-5.873749732971191
 11
204.0995788574218
 21
291.1369009017943
 12
0.0
 22
0.0
 32
0.0
 14
4.273573370203961
 24
5.205246163471485
 34
0.0
 15
194.6100952986349
 25
283.0697008572913
 35
0.0
146
0.0
 13
0.0
 23
0.0
 33
0.0
 16
1.0
 26
0.0
 36
0.0
 17
0.0
 27
1.0
 37
0.0
 76
     0
330
1A
331
9AC
  0
MLINESTYLE
  5
17
102
{ACAD_REACTORS
330
16
102
}
330
16
100
AcDbMlineStyle
  2
STANDARD
 70
     0
  3

 62
   256
 51
90.0
 52
90.0
 71
     2
 49
0.5
 62
   256
  6
BYLAYER
 49
-0.5
 62
   256
  6
BYLAYER
  0
ACDBPLACEHOLDER
  5
F
102
{ACAD_REACTORS
330
E
102
}
330
E
  0
DICTIONARYVAR
  5
69CA
102
{ACAD_REACTORS
330
69C9
102
}
330
69C9
100
DictionaryVariables
280
     0
  1
1
  0
ENDSEC
  0
EOF
