  0
SECTION
  2
HEADER
  9
$ACADVER
  1
AC1015
  9
$ACADMAINTVER
 70
    20
  9
$DWGCODEPAGE
  3
ANSI_932
  9
$INSBASE
 10
0.0
 20
0.0
 30
0.0
  9
$EXTMIN
 10
-83.90588178115756
 20
-359.8804450066014
 30
0.0
  9
$EXTMAX
 10
297.3266621308825
 20
326.8165692823121
 30
0.0
  9
$LIMMIN
 10
-296.316999476111
 20
-370.7034300441653
  9
$LIMMAX
 10
623.3128432133979
 20
328.6261559379898
  9
$ORTHOMODE
 70
     0
  9
$REGENMODE
 70
     1
  9
$FILLMODE
 70
     1
  9
$QTEXTMODE
 70
     0
  9
$MIRRTEXT
 70
     1
  9
$LTSCALE
 40
10.0
  9
$ATTMODE
 70
     1
  9
$TEXTSIZE
 40
5.0
  9
$TRACEWID
 40
0.05
  9
$TEXTSTYLE
  7
STANDARD1
  9
$CLAYER
  8
30
  9
$CELTYPE
  6
CONTINUOUS
  9
$CECOLOR
 62
   256
  9
$CELTSCALE
 40
1.0
  9
$DISPSILH
 70
     0
  9
$DIMSCALE
 40
1.0
  9
$DIMASZ
 40
2.0
  9
$DIMEXO
 40
1.0
  9
$DIMDLI
 40
0.5
  9
$DIMRND
 40
0.0
  9
$DIMDLE
 40
0.0
  9
$DIMEXE
 40
0.5
  9
$DIMTP
 40
0.0
  9
$DIMTM
 40
0.0
  9
$DIMTXT
 40
4.0
  9
$DIMCEN
 40
0.09
  9
$DIMTSZ
 40
0.0
  9
$DIMTOL
 70
     0
  9
$DIMLIM
 70
     0
  9
$DIMTIH
 70
     0
  9
$DIMTOH
 70
     1
  9
$DIMSE1
 70
     0
  9
$DIMSE2
 70
     0
  9
$DIMTAD
 70
     3
  9
$DIMZIN
 70
    12
  9
$DIMBLK
  1
OPEN
  9
$DIMASO
 70
     1
  9
$DIMSHO
 70
     1
  9
$DIMPOST
  1

  9
$DIMAPOST
  1

  9
$DIMALT
 70
     0
  9
$DIMALTD
 70
     2
  9
$DIMALTF
 40
25.4
  9
$DIMLFAC
 40
1.0
  9
$DIMTOFL
 70
     0
  9
$DIMTVP
 40
0.0
  9
$DIMTIX
 70
     0
  9
$DIMSOXD
 70
     0
  9
$DIMSAH
 70
     0
  9
$DIMBLK1
  1

  9
$DIMBLK2
  1

  9
$DIMSTYLE
  2
STANDARD
  9
$DIMCLRD
 70
     0
  9
$DIMCLRE
 70
     0
  9
$DIMCLRT
 70
     0
  9
$DIMTFAC
 40
1.0
  9
$DIMGAP
 40
1.0
  9
$DIMJUST
 70
     0
  9
$DIMSD1
 70
     0
  9
$DIMSD2
 70
     0
  9
$DIMTOLJ
 70
     1
  9
$DIMTZIN
 70
     0
  9
$DIMALTZ
 70
     0
  9
$DIMALTTZ
 70
     0
  9
$DIMUPT
 70
     0
  9
$DIMDEC
 70
     1
  9
$DIMTDEC
 70
     1
  9
$DIMALTU
 70
     2
  9
$DIMALTTD
 70
     2
  9
$DIMTXSTY
  7
STANDARD
  9
$DIMAUNIT
 70
     0
  9
$DIMADEC
 70
     0
  9
$DIMALTRND
 40
0.0
  9
$DIMAZIN
 70
     3
  9
$DIMDSEP
 70
    46
  9
$DIMATFIT
 70
     3
  9
$DIMFRAC
 70
     0
  9
$DIMLDRBLK
  1
OPEN
  9
$DIMLUNIT
 70
     2
  9
$DIMLWD
 70
    -2
  9
$DIMLWE
 70
    -2
  9
$DIMTMOVE
 70
     0
  9
$LUNITS
 70
     2
  9
$LUPREC
 70
     4
  9
$SKETCHINC
 40
0.1
  9
$FILLETRAD
 40
0.0
  9
$AUNITS
 70
     0
  9
$AUPREC
 70
     0
  9
$MENU
  1
.
  9
$ELEVATION
 40
0.0
  9
$PELEVATION
 40
0.0
  9
$THICKNESS
 40
0.0
  9
$LIMCHECK
 70
     0
  9
$CHAMFERA
 40
0.0
  9
$CHAMFERB
 40
0.0
  9
$CHAMFERC
 40
0.0
  9
$CHAMFERD
 40
0.0
  9
$SKPOLY
 70
     0
  9
$TDCREATE
 40
2452286.555658658
  9
$TDUCREATE
 40
2452286.180658658
  9
$TDUPDATE
 40
2457458.562975070
  9
$TDUUPDATE
 40
2457458.187975070
  9
$TDINDWG
 40
1.3394118981
  9
$TDUSRTIMER
 40
1.3394109838
  9
$USRTIMER
 70
     1
  9
$ANGBASE
 50
0.0
  9
$ANGDIR
 70
     0
  9
$PDMODE
 70
     0
  9
$PDSIZE
 40
0.0
  9
$PLINEWID
 40
0.0
  9
$SPLFRAME
 70
     0
  9
$SPLINETYPE
 70
     6
  9
$SPLINESEGS
 70
     8
  9
$HANDSEED
  5
73C8
  9
$SURFTAB1
 70
     6
  9
$SURFTAB2
 70
     6
  9
$SURFTYPE
 70
     6
  9
$SURFU
 70
     6
  9
$SURFV
 70
     6
  9
$UCSBASE
  2

  9
$UCSNAME
  2

  9
$UCSORG
 10
0.0
 20
0.0
 30
0.0
  9
$UCSXDIR
 10
1.0
 20
0.0
 30
0.0
  9
$UCSYDIR
 10
0.0
 20
1.0
 30
0.0
  9
$UCSORTHOREF
  2

  9
$UCSORTHOVIEW
 70
     0
  9
$UCSORGTOP
 10
0.0
 20
0.0
 30
0.0
  9
$UCSORGBOTTOM
 10
0.0
 20
0.0
 30
0.0
  9
$UCSORGLEFT
 10
0.0
 20
0.0
 30
0.0
  9
$UCSORGRIGHT
 10
0.0
 20
0.0
 30
0.0
  9
$UCSORGFRONT
 10
0.0
 20
0.0
 30
0.0
  9
$UCSORGBACK
 10
0.0
 20
0.0
 30
0.0
  9
$PUCSBASE
  2

  9
$PUCSNAME
  2

  9
$PUCSORG
 10
0.0
 20
0.0
 30
0.0
  9
$PUCSXDIR
 10
1.0
 20
0.0
 30
0.0
  9
$PUCSYDIR
 10
0.0
 20
1.0
 30
0.0
  9
$PUCSORTHOREF
  2

  9
$PUCSORTHOVIEW
 70
     0
  9
$PUCSORGTOP
 10
0.0
 20
0.0
 30
0.0
  9
$PUCSORGBOTTOM
 10
0.0
 20
0.0
 30
0.0
  9
$PUCSORGLEFT
 10
0.0
 20
0.0
 30
0.0
  9
$PUCSORGRIGHT
 10
0.0
 20
0.0
 30
0.0
  9
$PUCSORGFRONT
 10
0.0
 20
0.0
 30
0.0
  9
$PUCSORGBACK
 10
0.0
 20
0.0
 30
0.0
  9
$USERI1
 70
     0
  9
$USERI2
 70
     0
  9
$USERI3
 70
     0
  9
$USERI4
 70
     0
  9
$USERI5
 70
     0
  9
$USERR1
 40
0.0
  9
$USERR2
 40
0.0
  9
$USERR3
 40
0.0
  9
$USERR4
 40
0.0
  9
$USERR5
 40
0.0
  9
$WORLDVIEW
 70
     1
  9
$SHADEDGE
 70
     3
  9
$SHADEDIF
 70
    70
  9
$TILEMODE
 70
     1
  9
$MAXACTVP
 70
    48
  9
$PINSBASE
 10
0.0
 20
0.0
 30
0.0
  9
$PLIMCHECK
 70
     0
  9
$PEXTMIN
 10
4.273573
 20
5.205245999999998
 30
0.0
  9
$PEXTMAX
 10
194.610095
 20
283.0697009999996
 30
0.0
  9
$PLIMMIN
 10
-5.873749
 20
-5.87375
  9
$PLIMMAX
 10
204.099579
 20
291.1369009999999
  9
$UNITMODE
 70
     0
  9
$VISRETAIN
 70
     1
  9
$PLINEGEN
 70
     0
  9
$PSLTSCALE
 70
     1
  9
$TREEDEPTH
 70
  3020
  9
$CMLSTYLE
  2
STANDARD
  9
$CMLJUST
 70
     0
  9
$CMLSCALE
 40
1.0
  9
$PROXYGRAPHICS
 70
     1
  9
$MEASUREMENT
 70
     0
  9
$CELWEIGHT
370
    -1
  9
$ENDCAPS
280
     0
  9
$JOINSTYLE
280
     0
  9
$LWDISPLAY
290
     0
  9
$INSUNITS
 70
     0
  9
$HYPERLINKBASE
  1

  9
$STYLESHEET
  1
KIKI.CTB
  9
$XEDIT
290
     1
  9
$CEPSNTYPE
380
     0
  9
$PSTYLEMODE
290
     1
  9
$FINGERPRINTGUID
  2

  9
$VERSIONGUID
  2
{6B09A98E-C7CE-4CAD-9C70-D1A557CD263F}
  9
$EXTNAMES
290
     1
  9
$PSVPSCALE
 40
0.0
  9
$OLESTARTUP
290
     0
  0
ENDSEC
  0
SECTION
  2
CLASSES
  0
CLASS
  1
ACDBDICTIONARYWDFLT
  2
AcDbDictionaryWithDefault
  3
ObjectDBX Classes
 90
        0
280
     0
281
     0
  0
CLASS
  1
ACDBPLACEHOLDER
  2
AcDbPlaceHolder
  3
ObjectDBX Classes
 90
        0
280
     0
281
     0
  0
CLASS
  1
LAYOUT
  2
AcDbLayout
  3
ObjectDBX Classes
 90
        0
280
     0
281
     0
  0
CLASS
  1
DICTIONARYVAR
  2
AcDbDictionaryVar
  3
ObjectDBX Classes
 90
        0
280
     0
281
     0
  0
CLASS
  1
MATERIAL
  2
AcDbMaterial
  3
ObjectDBX Classes
 90
     1153
280
     0
281
     0
  0
CLASS
  1
VISUALSTYLE
  2
AcDbVisualStyle
  3
ObjectDBX Classes
 90
     4095
280
     0
281
     0
  0
CLASS
  1
TABLESTYLE
  2
AcDbTableStyle
  3
ObjectDBX Classes
 90
     4095
280
     0
281
     0
  0
CLASS
  1
SCALE
  2
AcDbScale
  3
ObjectDBX Classes
 90
     1153
280
     0
281
     0
  0
CLASS
  1
MLEADERSTYLE
  2
AcDbMLeaderStyle
  3
ACDB_MLEADERSTYLE_CLASS
 90
     4095
280
     0
281
     0
  0
CLASS
  1
ACDBSECTIONVIEWSTYLE
  2
AcDbSectionViewStyle
  3
ObjectDBX Classes
 90
     1025
280
     0
281
     0
  0
CLASS
  1
ACDBDETAILVIEWSTYLE
  2
AcDbDetailViewStyle
  3
ObjectDBX Classes
 90
     1025
280
     0
281
     0
  0
CLASS
  1
CELLSTYLEMAP
  2
AcDbCellStyleMap
  3
ObjectDBX Classes
 90
     1152
280
     0
281
     0
  0
ENDSEC
  0
SECTION
  2
TABLES
  0
TABLE
  2
VPORT
  5
8
330
0
100
AcDbSymbolTable
 70
     1
  0
VPORT
  5
72CD
330
8
100
AcDbSymbolTableRecord
100
AcDbViewportTableRecord
  2
*Active
 70
     0
 10
0.0
 20
0.0
 11
1.0
 21
1.0
 12
194.103496786957
 22
198.2564681580521
 13
0.0
 23
0.0
 14
1.0
 24
1.0
 15
10.0
 25
10.0
 16
0.0
 26
0.0
 36
1.0
 17
0.0
 27
0.0
 37
0.0
 40
609.1078353327667
 41
2.108991825613078
 42
50.0
 43
0.0
 44
0.0
 50
0.0
 51
0.0
 71
     0
 72
   100
 73
     1
 74
     1
 75
     0
 76
     0
 77
     0
 78
     0
281
     0
 65
     1
110
0.0
120
0.0
130
0.0
111
1.0
121
0.0
131
0.0
112
0.0
122
1.0
132
0.0
 79
     0
146
0.0
1001
ACAD_NAV_VCDISPLAY
1070
     3
  0
ENDTAB
  0
TABLE
  2
LTYPE
  5
5
330
0
100
AcDbSymbolTable
 70
     5
  0
LTYPE
  5
13
330
5
100
AcDbSymbolTableRecord
100
AcDbLinetypeTableRecord
  2
BYBLOCK
 70
     0
  3

 72
    65
 73
     0
 40
0.0
  0
LTYPE
  5
14
330
5
100
AcDbSymbolTableRecord
100
AcDbLinetypeTableRecord
  2
BYLAYER
 70
     0
  3

 72
    65
 73
     0
 40
0.0
  0
LTYPE
  5
15
330
5
100
AcDbSymbolTableRecord
100
AcDbLinetypeTableRecord
  2
CONTINUOUS
 70
     0
  3
Solid line
 72
    65
 73
     0
 40
0.0
  0
LTYPE
  5
22
330
5
100
AcDbSymbolTableRecord
100
AcDbLinetypeTableRecord
  2
CONTINOUS
 70
     0
  3
Solid line
 72
    65
 73
     0
 40
0.0
  0
LTYPE
  5
23
330
5
100
AcDbSymbolTableRecord
100
AcDbLinetypeTableRecord
  2
DASHED
 70
     0
  3
__ __ __ __ __ __ __ __ __ __ __ __ __ __ __
 72
    65
 73
     2
 40
0.75
 49
0.5
 74
     0
 49
-0.25
 74
     0
  0
LTYPE
  5
24
330
5
100
AcDbSymbolTableRecord
100
AcDbLinetypeTableRecord
  2
DASHDOT
 70
     0
  3
__ . __ . __ . __ . __ . __ . __ . __ . __ . __
 72
    65
 73
     4
 40
1.0
 49
0.5
 74
     0
 49
-0.25
 74
     0
 49
0.0
 74
     0
 49
-0.25
 74
     0
  0
LTYPE
  5
4C47
330
5
100
AcDbSymbolTableRecord
100
AcDbLinetypeTableRecord
  2
DIVIDE
 70
     0
  3
Divide ____ . . ____ . . ____ . . ____ . . ____
 72
    65
 73
     6
 40
1.25
 49
0.5
 74
     0
 49
-0.25
 74
     0
 49
0.0
 74
     0
 49
-0.25
 74
     0
 49
0.0
 74
     0
 49
-0.25
 74
     0
  0
ENDTAB
  0
TABLE
  2
LAYER
  5
2
330
0
100
AcDbSymbolTable
 70
    11
  0
LAYER
  5
10
102
{ACAD_XDICTIONARY
360
7369
102
}
330
2
100
AcDbSymbolTableRecord
100
AcDbLayerTableRecord
  2
0
 70
     0
 62
     7
  6
CONTINOUS
370
    -3
390
F
  0
LAYER
  5
2F
102
{ACAD_XDICTIONARY
360
736B
102
}
330
2
100
AcDbSymbolTableRecord
100
AcDbLayerTableRecord
  2
10
 70
     0
 62
     4
  6
CONTINOUS
370
    -3
390
F
  0
LAYER
  5
31
102
{ACAD_XDICTIONARY
360
736D
102
}
330
2
100
AcDbSymbolTableRecord
100
AcDbLayerTableRecord
  2
12
 70
     0
 62
     3
  6
CONTINOUS
370
    -3
390
F
  0
LAYER
  5
35
102
{ACAD_XDICTIONARY
360
736F
102
}
330
2
100
AcDbSymbolTableRecord
100
AcDbLayerTableRecord
  2
16
 70
     0
 62
     6
  6
DASHDOT
370
    -3
390
F
  0
LAYER
  5
38
102
{ACAD_XDICTIONARY
360
7371
102
}
330
2
100
AcDbSymbolTableRecord
100
AcDbLayerTableRecord
  2
19
 70
     0
 62
     7
  6
CONTINOUS
370
    -3
390
F
  0
LAYER
  5
3C
102
{ACAD_XDICTIONARY
360
7373
102
}
330
2
100
AcDbSymbolTableRecord
100
AcDbLayerTableRecord
  2
11
 70
     0
 62
     1
  6
CONTINOUS
370
    -3
390
F
  0
LAYER
  5
3D
102
{ACAD_XDICTIONARY
360
7375
102
}
330
2
100
AcDbSymbolTableRecord
100
AcDbLayerTableRecord
  2
24
 70
     0
 62
     2
  6
CONTINOUS
370
    -3
390
F
  0
LAYER
  5
3A2
102
{ACAD_XDICTIONARY
360
7377
102
}
330
2
100
AcDbSymbolTableRecord
100
AcDbLayerTableRecord
  2
30
 70
     0
 62
     9
  6
CONTINUOUS
370
    -3
390
F
  0
LAYER
  5
3A4
330
2
100
AcDbSymbolTableRecord
100
AcDbLayerTableRecord
  2
DEFPOINTS
 70
     0
 62
     7
  6
CONTINUOUS
290
     0
370
    -3
390
F
  0
LAYER
  5
3BBA
102
{ACAD_XDICTIONARY
360
7379
102
}
330
2
100
AcDbSymbolTableRecord
100
AcDbLayerTableRecord
  2
18
 70
     0
 62
     5
  6
DIVIDE
370
    -3
390
F
  0
LAYER
  5
5C47
102
{ACAD_XDICTIONARY
360
737B
102
}
330
2
100
AcDbSymbolTableRecord
100
AcDbLayerTableRecord
  2
17
 70
     0
 62
     2
  6
DASHDOT
370
    -3
390
F
  0
ENDTAB
  0
TABLE
  2
STYLE
  5
3
330
0
100
AcDbSymbolTable
 70
     3
  0
STYLE
  5
11
330
3
100
AcDbSymbolTableRecord
100
AcDbTextStyleTableRecord
  2
STANDARD
 70
     0
 40
0.0
 41
1.0
 50
0.0
 71
     0
 42
2.0
  3
txt.shx
  4
bigfont.shx
  0
STYLE
  5
42
330
3
100
AcDbSymbolTableRecord
100
AcDbTextStyleTableRecord
  2
STANDARD1
 70
     0
 40
0.0
 41
1.0
 50
0.0
 71
     0
 42
5.0
  3
MONOTXT
  4
BIGFONT
  0
STYLE
  5
5016
330
3
100
AcDbSymbolTableRecord
100
AcDbTextStyleTableRecord
  2
UGMTXT
 70
     0
 40
0.0
 41
1.0
 50
0.0
 71
     0
 42
0.2
  3
ugmtxt
  4
bigfont
  0
ENDTAB
  0
TABLE
  2
VIEW
  5
6
330
0
100
AcDbSymbolTable
 70
     3
  0
VIEW
  5
230C
330
6
100
AcDbSymbolTableRecord
100
AcDbViewTableRecord
  2
OLE1
 70
     0
 40
148.912488
 10
429.497628
 20
2.560627
 41
103.145806
 11
0.0
 21
0.0
 31
1.0
 12
0.0
 22
0.0
 32
0.0
 42
50.0
 43
0.0
 44
0.0
 50
0.0
 71
     0
281
     0
 72
     0
  0
VIEW
  5
230E
330
6
100
AcDbSymbolTableRecord
100
AcDbViewTableRecord
  2
OLE2
 70
     0
 40
170.778692
 10
322.66497
 20
-5.978304
 41
102.467215
 11
0.0
 21
0.0
 31
1.0
 12
0.0
 22
0.0
 32
0.0
 42
50.0
 43
0.0
 44
0.0
 50
0.0
 71
     0
281
     0
 72
     0
  0
VIEW
  5
23AA
330
6
100
AcDbSymbolTableRecord
100
AcDbViewTableRecord
  2
OLE3
 70
     0
 40
591.7897389999998
 10
84.79698199999999
 20
-46.09335999999998
 41
388.792096
 11
0.0
 21
0.0
 31
1.0
 12
0.0
 22
0.0
 32
0.0
 42
50.0
 43
0.0
 44
0.0
 50
0.0
 71
     0
281
     0
 72
     0
  0
ENDTAB
  0
TABLE
  2
UCS
  5
7
330
0
100
AcDbSymbolTable
 70
     0
  0
ENDTAB
  0
TABLE
  2
APPID
  5
9
330
0
100
AcDbSymbolTable
 70
     4
  0
APPID
  5
12
330
9
100
AcDbSymbolTableRecord
100
AcDbRegAppTableRecord
  2
ACAD
 70
     0
  0
APPID
  5
ECD
330
9
100
AcDbSymbolTableRecord
100
AcDbRegAppTableRecord
  2
CONTENTBLOCKICON
 70
     0
  0
APPID
  5
7324
330
9
100
AcDbSymbolTableRecord
100
AcDbRegAppTableRecord
  2
ACAD_NAV_VCDISPLAY
 70
     0
  0
APPID
  5
73C3
330
9
100
AcDbSymbolTableRecord
100
AcDbRegAppTableRecord
  2
ACAD_MLEADERVER
 70
     0
  0
ENDTAB
  0
TABLE
  2
DIMSTYLE
  5
A
330
0
100
AcDbSymbolTable
 70
     1
100
AcDbDimStyleTable
 71
     1
340
175
  0
DIMSTYLE
105
175
102
{ACAD_REACTORS
330
6BE4
330
6D58
330
6D7C
330
6D92
330
6D9F
330
6DFB
330
6E08
330
6E15
330
6E22
330
6E49
330
6E56
330
6E65
330
6E72
330
6E73
330
6ECF
330
6EE7
330
6EEB
330
6F6B
330
6F78
330
6F85
330
6F92
330
6F9F
330
6FAC
330
6FB9
330
6FD1
330
6FE4
330
71D4
330
7342
330
734F
330
735C
102
}
330
A
100
AcDbSymbolTableRecord
100
AcDbDimStyleTableRecord
  2
STANDARD
 70
     0
 41
2.0
 42
1.0
 43
0.5
 44
0.5
 73
     0
 77
     3
 78
    12
140
4.0
147
1.0
271
     1
272
     1
340
11
341
3B2
342
3B2
  0
ENDTAB
  0
TABLE
  2
BLOCK_RECORD
  5
1
330
0
100
AcDbSymbolTable
 70
    32
  0
BLOCK_RECORD
  5
1E
102
{ACAD_XDICTIONARY
360
178
102
}
330
1
100
AcDbSymbolTableRecord
100
AcDbBlockTableRecord
  2
*MODEL_SPACE
340
72C8
  0
BLOCK_RECORD
  5
1A
102
{ACAD_XDICTIONARY
360
17A
102
}
330
1
100
AcDbSymbolTableRecord
100
AcDbBlockTableRecord
  2
*PAPER_SPACE
340
72C9
  0
BLOCK_RECORD
  5
3B2
330
1
100
AcDbSymbolTableRecord
100
AcDbBlockTableRecord
  2
_OPEN
340
0
102
{BLKREFS
331
7356
331
7357
331
7363
331
7364
331
6D97
331
6D98
331
6E4E
331
6E4F
331
6EC9
331
6ECA
331
6EE0
331
6F7D
331
6F7E
331
6F97
331
6F98
331
6FD6
331
6FD7
331
6F70
331
6F71
331
72BB
331
72BC
331
6FA4
331
6FA5
331
6FB1
331
6FB2
331
6FCB
331
6FCC
331
6FE9
331
6FEA
331
71E4
331
71E5
331
6D44
331
6D45
331
6D68
331
6D69
331
6D8C
331
6D8D
331
6DA4
331
6DA5
331
72A0
331
72A1
331
72A9
331
72AA
331
72B2
331
72B3
331
7253
331
7254
331
6E5B
331
6E5C
331
6E6A
331
6E6B
331
6EC1
331
6EDF
331
7262
331
7263
331
726B
331
726C
331
7349
331
734A
102
}
  0
BLOCK_RECORD
  5
6C19
330
1
100
AcDbSymbolTableRecord
100
AcDbBlockTableRecord
  2
*D1
340
0
  0
BLOCK_RECORD
  5
6D59
330
1
100
AcDbSymbolTableRecord
100
AcDbBlockTableRecord
  2
*D2
340
0
  0
BLOCK_RECORD
  5
6D7D
330
1
100
AcDbSymbolTableRecord
100
AcDbBlockTableRecord
  2
*D3
340
0
  0
BLOCK_RECORD
  5
6D93
330
1
100
AcDbSymbolTableRecord
100
AcDbBlockTableRecord
  2
*D4
340
0
  0
BLOCK_RECORD
  5
6DA0
330
1
100
AcDbSymbolTableRecord
100
AcDbBlockTableRecord
  2
*D5
340
0
  0
BLOCK_RECORD
  5
6DFC
330
1
100
AcDbSymbolTableRecord
100
AcDbBlockTableRecord
  2
*D6
340
0
  0
BLOCK_RECORD
  5
6E09
330
1
100
AcDbSymbolTableRecord
100
AcDbBlockTableRecord
  2
*D7
340
0
  0
BLOCK_RECORD
  5
6E16
330
1
100
AcDbSymbolTableRecord
100
AcDbBlockTableRecord
  2
*D8
340
0
  0
BLOCK_RECORD
  5
6E23
330
1
100
AcDbSymbolTableRecord
100
AcDbBlockTableRecord
  2
*D9
340
0
  0
BLOCK_RECORD
  5
6E4A
330
1
100
AcDbSymbolTableRecord
100
AcDbBlockTableRecord
  2
*D10
340
0
  0
BLOCK_RECORD
  5
6E57
330
1
100
AcDbSymbolTableRecord
100
AcDbBlockTableRecord
  2
*D11
340
0
  0
BLOCK_RECORD
  5
6E66
330
1
100
AcDbSymbolTableRecord
100
AcDbBlockTableRecord
  2
*D12
340
0
  0
BLOCK_RECORD
  5
6E74
330
1
100
AcDbSymbolTableRecord
100
AcDbBlockTableRecord
  2
*D13
340
0
  0
BLOCK_RECORD
  5
6E80
330
1
100
AcDbSymbolTableRecord
100
AcDbBlockTableRecord
  2
*D14
340
0
  0
BLOCK_RECORD
  5
6ED0
330
1
100
AcDbSymbolTableRecord
100
AcDbBlockTableRecord
  2
*D15
340
0
  0
BLOCK_RECORD
  5
6EF5
330
1
100
AcDbSymbolTableRecord
100
AcDbBlockTableRecord
  2
*D16
340
0
  0
BLOCK_RECORD
  5
6F01
330
1
100
AcDbSymbolTableRecord
100
AcDbBlockTableRecord
  2
*D17
340
0
  0
BLOCK_RECORD
  5
6F6C
330
1
100
AcDbSymbolTableRecord
100
AcDbBlockTableRecord
  2
*D18
340
0
  0
BLOCK_RECORD
  5
6F79
330
1
100
AcDbSymbolTableRecord
100
AcDbBlockTableRecord
  2
*D19
340
0
  0
BLOCK_RECORD
  5
6F86
330
1
100
AcDbSymbolTableRecord
100
AcDbBlockTableRecord
  2
*D20
340
0
  0
BLOCK_RECORD
  5
6F93
330
1
100
AcDbSymbolTableRecord
100
AcDbBlockTableRecord
  2
*D21
340
0
  0
BLOCK_RECORD
  5
6FA0
330
1
100
AcDbSymbolTableRecord
100
AcDbBlockTableRecord
  2
*D22
340
0
  0
BLOCK_RECORD
  5
6FAD
330
1
100
AcDbSymbolTableRecord
100
AcDbBlockTableRecord
  2
*D23
340
0
  0
BLOCK_RECORD
  5
6FBA
330
1
100
AcDbSymbolTableRecord
100
AcDbBlockTableRecord
  2
*D24
340
0
  0
BLOCK_RECORD
  5
6FD2
330
1
100
AcDbSymbolTableRecord
100
AcDbBlockTableRecord
  2
*D25
340
0
  0
BLOCK_RECORD
  5
6FE5
330
1
100
AcDbSymbolTableRecord
100
AcDbBlockTableRecord
  2
*D26
340
0
  0
BLOCK_RECORD
  5
71D5
330
1
100
AcDbSymbolTableRecord
100
AcDbBlockTableRecord
  2
*D27
340
0
  0
BLOCK_RECORD
  5
7343
330
1
100
AcDbSymbolTableRecord
100
AcDbBlockTableRecord
  2
*D29
340
0
  0
BLOCK_RECORD
  5
7350
330
1
100
AcDbSymbolTableRecord
100
AcDbBlockTableRecord
  2
*D30
340
0
  0
BLOCK_RECORD
  5
735D
330
1
100
AcDbSymbolTableRecord
100
AcDbBlockTableRecord
  2
*D31
340
0
  0
ENDTAB
  0
ENDSEC
  0
SECTION
  2
BLOCKS
  0
BLOCK
  5
1F
330
1E
100
AcDbEntity
  8
0
100
AcDbBlockBegin
  2
*MODEL_SPACE
 70
     0
 10
0.0
 20
0.0
 30
0.0
  3
*MODEL_SPACE
  1

  0
ENDBLK
  5
20
330
1E
100
AcDbEntity
  8
0
100
AcDbBlockEnd
  0
BLOCK
  5
1B
330
1A
100
AcDbEntity
 67
     1
  8
0
100
AcDbBlockBegin
  2
*PAPER_SPACE
 70
     0
 10
0.0
 20
0.0
 30
0.0
  3
*PAPER_SPACE
  1

  0
ENDBLK
  5
1C
330
1A
100
AcDbEntity
 67
     1
  8
0
100
AcDbBlockEnd
  0
BLOCK
  5
3B6
330
3B2
100
AcDbEntity
  8
0
100
AcDbBlockBegin
  2
_OPEN
 70
     0
 10
0.0
 20
0.0
 30
0.0
  3
_OPEN
  1

  0
LINE
  5
3B3
330
3B2
100
AcDbEntity
  8
30
  6
Continuous
 62
     0
100
AcDbLine
 10
-1.0
 20
0.166667
 30
0.0
 11
0.0
 21
0.0
 31
0.0
  0
LINE
  5
3B4
330
3B2
100
AcDbEntity
  8
30
  6
Continuous
 62
     0
100
AcDbLine
 10
-1.0
 20
-0.166667
 30
0.0
 11
0.0
 21
0.0
 31
0.0
  0
LINE
  5
3B5
330
3B2
100
AcDbEntity
  8
30
  6
Continuous
 62
     0
100
AcDbLine
 10
0.0
 20
0.0
 30
0.0
 11
-1.0
 21
0.0
 31
0.0
  0
ENDBLK
  5
3B7
330
3B2
100
AcDbEntity
  8
0
100
AcDbBlockEnd
  0
BLOCK
  5
6C23
330
6C19
100
AcDbEntity
  8
0
100
AcDbBlockBegin
  2
*D1
 70
     1
 10
0.0
 20
0.0
 30
0.0
  3
*D1
  1

  0
LINE
  5
6D41
330
6C19
100
AcDbEntity
  8
30
  6
Continuous
 62
     0
100
AcDbLine
 10
0.0000000000000001
 20
270.8933368984127
 30
0.0
 11
0.0000000000000025
 21
310.2406209576415
 31
0.0
  0
LINE
  5
6D42
330
6C19
100
AcDbEntity
  8
30
  6
Continuous
 62
     0
100
AcDbLine
 10
35.0
 20
273.8165692823121
 30
0.0
 11
35.0
 21
310.2406209576415
 31
0.0
  0
LINE
  5
6D43
330
6C19
100
AcDbEntity
  8
30
  6
Continuous
 62
     0
100
AcDbLine
 10
2.000000000000002
 20
309.7406209576415
 30
0.0
 11
33.0
 21
309.7406209576415
 31
0.0
  0
INSERT
  5
6D44
330
6C19
100
AcDbEntity
  8
30
  6
Continuous
 62
     0
100
AcDbBlockReference
  2
_OPEN
 10
0.0000000000000024
 20
309.7406209576415
 30
0.0
 41
2.0
 42
2.0
 43
2.0
 50
180.0
  0
INSERT
  5
6D45
330
6C19
100
AcDbEntity
  8
30
  6
Continuous
 62
     0
100
AcDbBlockReference
  2
_OPEN
 10
35.0
 20
309.7406209576415
 30
0.0
 41
2.0
 42
2.0
 43
2.0
  0
MTEXT
  5
6D46
330
6C19
100
AcDbEntity
  8
30
  6
Continuous
 62
     0
100
AcDbMText
 10
17.5
 20
312.7406209576415
 30
0.0
 40
4.0
 41
0.0
 71
     5
 72
     1
  1
\A1;35
 73
     1
 44
1.0
1001
ACAD
1000
MTEXTBEGIN
1070
    73
1070
     1
1070
    44
1040
1.0
1070
    74
1070
     0
1000
MTEXTEND
  0
POINT
  5
6D47
330
6C19
100
AcDbEntity
  8
DEFPOINTS
  6
Continuous
 62
     0
100
AcDbPoint
 10
0.0
 20
269.8933368984127
 30
0.0
  0
POINT
  5
6D48
330
6C19
100
AcDbEntity
  8
DEFPOINTS
  6
Continuous
 62
     0
100
AcDbPoint
 10
35.0
 20
272.8165692823121
 30
0.0
  0
POINT
  5
6D49
330
6C19
100
AcDbEntity
  8
DEFPOINTS
  6
Continuous
 62
     0
100
AcDbPoint
 10
35.0
 20
309.7406209576415
 30
0.0
  0
ENDBLK
  5
6C24
330
6C19
100
AcDbEntity
  8
0
100
AcDbBlockEnd
  0
BLOCK
  5
6D63
330
6D59
100
AcDbEntity
  8
0
100
AcDbBlockBegin
  2
*D2
 70
     1
 10
0.0
 20
0.0
 30
0.0
  3
*D2
  1

  0
LINE
  5
6D65
330
6D59
100
AcDbEntity
  8
30
  6
Continuous
 62
     0
100
AcDbLine
 10
35.0
 20
270.8933368984127
 30
0.0
 11
35.0
 21
310.2406209576415
 31
0.0
  0
LINE
  5
6D66
330
6D59
100
AcDbEntity
  8
30
  6
Continuous
 62
     0
100
AcDbLine
 10
70.0
 20
273.8165692823121
 30
0.0
 11
70.0
 21
310.2406209576415
 31
0.0
  0
LINE
  5
6D67
330
6D59
100
AcDbEntity
  8
30
  6
Continuous
 62
     0
100
AcDbLine
 10
37.0
 20
309.7406209576415
 30
0.0
 11
68.0
 21
309.7406209576415
 31
0.0
  0
INSERT
  5
6D68
330
6D59
100
AcDbEntity
  8
30
  6
Continuous
 62
     0
100
AcDbBlockReference
  2
_OPEN
 10
35.0
 20
309.7406209576415
 30
0.0
 41
2.0
 42
2.0
 43
2.0
 50
180.0
  0
INSERT
  5
6D69
330
6D59
100
AcDbEntity
  8
30
  6
Continuous
 62
     0
100
AcDbBlockReference
  2
_OPEN
 10
70.0
 20
309.7406209576415
 30
0.0
 41
2.0
 42
2.0
 43
2.0
  0
MTEXT
  5
6D6A
330
6D59
100
AcDbEntity
  8
30
  6
Continuous
 62
     0
100
AcDbMText
 10
52.5
 20
312.7406209576415
 30
0.0
 40
4.0
 41
0.0
 71
     5
 72
     1
  1
\A1;35
 73
     1
 44
1.0
1001
ACAD
1000
MTEXTBEGIN
1070
    73
1070
     1
1070
    44
1040
1.0
1070
    74
1070
     0
1000
MTEXTEND
  0
POINT
  5
6D6B
330
6D59
100
AcDbEntity
  8
DEFPOINTS
  6
Continuous
 62
     0
100
AcDbPoint
 10
35.0
 20
269.8933368984127
 30
0.0
  0
POINT
  5
6D6C
330
6D59
100
AcDbEntity
  8
DEFPOINTS
  6
Continuous
 62
     0
100
AcDbPoint
 10
70.0
 20
272.8165692823121
 30
0.0
  0
POINT
  5
6D6D
330
6D59
100
AcDbEntity
  8
DEFPOINTS
  6
Continuous
 62
     0
100
AcDbPoint
 10
70.0
 20
309.7406209576415
 30
0.0
  0
ENDBLK
  5
6D64
330
6D59
100
AcDbEntity
  8
0
100
AcDbBlockEnd
  0
BLOCK
  5
6D87
330
6D7D
100
AcDbEntity
  8
0
100
AcDbBlockBegin
  2
*D3
 70
     1
 10
0.0
 20
0.0
 30
0.0
  3
*D3
  1

  0
LINE
  5
6D89
330
6D7D
100
AcDbEntity
  8
30
  6
Continuous
 62
     0
100
AcDbLine
 10
-35.0
 20
270.8933368984127
 30
0.0
 11
-35.0
 21
310.2406209576415
 31
0.0
  0
LINE
  5
6D8A
330
6D7D
100
AcDbEntity
  8
30
  6
Continuous
 62
     0
100
AcDbLine
 10
0.0000000000000001
 20
273.8165692823121
 30
0.0
 11
0.0000000000000023
 21
310.2406209576415
 31
0.0
  0
LINE
  5
6D8B
330
6D7D
100
AcDbEntity
  8
30
  6
Continuous
 62
     0
100
AcDbLine
 10
-33.0
 20
309.7406209576415
 30
0.0
 11
-1.999999999999995
 21
309.7406209576415
 31
0.0
  0
INSERT
  5
6D8C
330
6D7D
100
AcDbEntity
  8
30
  6
Continuous
 62
     0
100
AcDbBlockReference
  2
_OPEN
 10
-35.0
 20
309.7406209576415
 30
0.0
 41
2.0
 42
2.0
 43
2.0
 50
180.0
  0
INSERT
  5
6D8D
330
6D7D
100
AcDbEntity
  8
30
  6
Continuous
 62
     0
100
AcDbBlockReference
  2
_OPEN
 10
0.0000000000000023
 20
309.7406209576415
 30
0.0
 41
2.0
 42
2.0
 43
2.0
  0
MTEXT
  5
6D8E
330
6D7D
100
AcDbEntity
  8
30
  6
Continuous
 62
     0
100
AcDbMText
 10
-17.5
 20
312.7406209576415
 30
0.0
 40
4.0
 41
0.0
 71
     5
 72
     1
  1
\A1;35
 73
     1
 44
1.0
1001
ACAD
1000
MTEXTBEGIN
1070
    73
1070
     1
1070
    44
1040
1.0
1070
    74
1070
     0
1000
MTEXTEND
  0
POINT
  5
6D8F
330
6D7D
100
AcDbEntity
  8
DEFPOINTS
  6
Continuous
 62
     0
100
AcDbPoint
 10
-35.0
 20
269.8933368984127
 30
0.0
  0
POINT
  5
6D90
330
6D7D
100
AcDbEntity
  8
DEFPOINTS
  6
Continuous
 62
     0
100
AcDbPoint
 10
0.0
 20
272.8165692823121
 30
0.0
  0
POINT
  5
6D91
330
6D7D
100
AcDbEntity
  8
DEFPOINTS
  6
Continuous
 62
     0
100
AcDbPoint
 10
0.0000000000000023
 20
309.7406209576415
 30
0.0
  0
ENDBLK
  5
6D88
330
6D7D
100
AcDbEntity
  8
0
100
AcDbBlockEnd
  0
BLOCK
  5
6D9D
330
6D93
100
AcDbEntity
  8
0
100
AcDbBlockBegin
  2
*D4
 70
     1
 10
0.0
 20
0.0
 30
0.0
  3
*D4
  1

  0
LINE
  5
6D94
330
6D93
100
AcDbEntity
  8
30
  6
Continuous
 62
     0
100
AcDbLine
 10
-11.0
 20
-26.0
 30
0.0
 11
-11.0
 21
-37.66529861856771
 31
0.0
  0
LINE
  5
6D95
330
6D93
100
AcDbEntity
  8
30
  6
Continuous
 62
     0
100
AcDbLine
 10
11.0
 20
-26.0
 30
0.0
 11
11.0
 21
-37.66529861856771
 31
0.0
  0
LINE
  5
6D96
330
6D93
100
AcDbEntity
  8
30
  6
Continuous
 62
     0
100
AcDbLine
 10
-9.0
 20
-37.1652986185677
 30
0.0
 11
9.0
 21
-37.1652986185677
 31
0.0
  0
INSERT
  5
6D97
330
6D93
100
AcDbEntity
  8
30
  6
Continuous
 62
     0
100
AcDbBlockReference
  2
_OPEN
 10
-11.0
 20
-37.1652986185677
 30
0.0
 41
2.0
 42
2.0
 43
2.0
 50
180.0
  0
INSERT
  5
6D98
330
6D93
100
AcDbEntity
  8
30
  6
Continuous
 62
     0
100
AcDbBlockReference
  2
_OPEN
 10
11.0
 20
-37.1652986185677
 30
0.0
 41
2.0
 42
2.0
 43
2.0
  0
MTEXT
  5
6D99
330
6D93
100
AcDbEntity
  8
30
  6
Continuous
 62
     0
100
AcDbMText
 10
0.0000000000000002
 20
-34.1652986185677
 30
0.0
 40
4.0
 41
0.0
 71
     5
 72
     1
  1
\A1;22
 73
     1
 44
1.0
1001
ACAD
1000
MTEXTBEGIN
1070
    73
1070
     1
1070
    44
1040
1.0
1070
    74
1070
     0
1000
MTEXTEND
  0
POINT
  5
6D9A
330
6D93
100
AcDbEntity
  8
DEFPOINTS
  6
Continuous
 62
     0
100
AcDbPoint
 10
-11.0
 20
-25.0
 30
0.0
  0
POINT
  5
6D9B
330
6D93
100
AcDbEntity
  8
DEFPOINTS
  6
Continuous
 62
     0
100
AcDbPoint
 10
11.0
 20
-25.0
 30
0.0
  0
POINT
  5
6D9C
330
6D93
100
AcDbEntity
  8
DEFPOINTS
  6
Continuous
 62
     0
100
AcDbPoint
 10
11.0
 20
-37.1652986185677
 30
0.0
  0
ENDBLK
  5
6D9E
330
6D93
100
AcDbEntity
  8
0
100
AcDbBlockEnd
  0
BLOCK
  5
6DAA
330
6DA0
100
AcDbEntity
  8
0
100
AcDbBlockBegin
  2
*D5
 70
     1
 10
0.0
 20
0.0
 30
0.0
  3
*D5
  1

  0
LINE
  5
6DA1
330
6DA0
100
AcDbEntity
  8
30
  6
Continuous
 62
     0
100
AcDbLine
 10
-49.0
 20
26.0
 30
0.0
 11
-49.0
 21
34.47346616535606
 31
0.0
  0
LINE
  5
6DA2
330
6DA0
100
AcDbEntity
  8
30
  6
Continuous
 62
     0
100
AcDbLine
 10
49.0
 20
26.0
 30
0.0
 11
49.0
 21
34.47346616535606
 31
0.0
  0
LINE
  5
6DA3
330
6DA0
100
AcDbEntity
  8
30
  6
Continuous
 62
     0
100
AcDbLine
 10
-47.0
 20
33.97346616535605
 30
0.0
 11
47.0
 21
33.97346616535605
 31
0.0
  0
INSERT
  5
6DA4
330
6DA0
100
AcDbEntity
  8
30
  6
Continuous
 62
     0
100
AcDbBlockReference
  2
_OPEN
 10
-49.0
 20
33.97346616535605
 30
0.0
 41
2.0
 42
2.0
 43
2.0
 50
180.0
  0
INSERT
  5
6DA5
330
6DA0
100
AcDbEntity
  8
30
  6
Continuous
 62
     0
100
AcDbBlockReference
  2
_OPEN
 10
49.0
 20
33.97346616535605
 30
0.0
 41
2.0
 42
2.0
 43
2.0
  0
MTEXT
  5
6DA6
330
6DA0
100
AcDbEntity
  8
30
  6
Continuous
 62
     0
100
AcDbMText
 10
0.0000000000000002
 20
36.97346616535607
 30
0.0
 40
4.0
 41
0.0
 71
     5
 72
     1
  1
\A1;98
 73
     1
 44
1.0
1001
ACAD
1000
MTEXTBEGIN
1070
    73
1070
     1
1070
    44
1040
1.0
1070
    74
1070
     0
1000
MTEXTEND
  0
POINT
  5
6DA7
330
6DA0
100
AcDbEntity
  8
DEFPOINTS
  6
Continuous
 62
     0
100
AcDbPoint
 10
-49.0
 20
25.0
 30
0.0
  0
POINT
  5
6DA8
330
6DA0
100
AcDbEntity
  8
DEFPOINTS
  6
Continuous
 62
     0
100
AcDbPoint
 10
49.0
 20
25.0
 30
0.0
  0
POINT
  5
6DA9
330
6DA0
100
AcDbEntity
  8
DEFPOINTS
  6
Continuous
 62
     0
100
AcDbPoint
 10
49.0
 20
33.97346616535605
 30
0.0
  0
ENDBLK
  5
6DAB
330
6DA0
100
AcDbEntity
  8
0
100
AcDbBlockEnd
  0
BLOCK
  5
6E06
330
6DFC
100
AcDbEntity
  8
0
100
AcDbBlockBegin
  2
*D6
 70
     1
 10
0.0
 20
0.0
 30
0.0
  3
*D6
  1

  0
LINE
  5
729D
330
6DFC
100
AcDbEntity
  8
30
  6
Continuous
 62
     0
100
AcDbLine
 10
-35.0
 20
-79.0
 30
0.0
 11
-35.0
 21
-95.02992467875788
 31
0.0
  0
LINE
  5
729E
330
6DFC
100
AcDbEntity
  8
30
  6
Continuous
 62
     0
100
AcDbLine
 10
-0.0000000000000001
 20
-77.0
 30
0.0
 11
-0.0000000000000012
 21
-95.02992467875788
 31
0.0
  0
LINE
  5
729F
330
6DFC
100
AcDbEntity
  8
30
  6
Continuous
 62
     0
100
AcDbLine
 10
-33.0
 20
-94.52992467875787
 30
0.0
 11
-2.0
 21
-94.52992467875787
 31
0.0
  0
INSERT
  5
72A0
330
6DFC
100
AcDbEntity
  8
30
  6
Continuous
 62
     0
100
AcDbBlockReference
  2
_OPEN
 10
-35.0
 20
-94.52992467875787
 30
0.0
 41
2.0
 42
2.0
 43
2.0
 50
180.0
  0
INSERT
  5
72A1
330
6DFC
100
AcDbEntity
  8
30
  6
Continuous
 62
     0
100
AcDbBlockReference
  2
_OPEN
 10
-0.0000000000000011
 20
-94.52992467875787
 30
0.0
 41
2.0
 42
2.0
 43
2.0
  0
MTEXT
  5
72A2
330
6DFC
100
AcDbEntity
  8
30
  6
Continuous
 62
     0
100
AcDbMText
 10
-17.5
 20
-91.52992467875789
 30
0.0
 40
4.0
 41
0.0
 71
     5
 72
     1
  1
\A1;35
 73
     1
 44
1.0
1001
ACAD
1000
MTEXTBEGIN
1070
    73
1070
     1
1070
    44
1040
1.0
1070
    74
1070
     0
1000
MTEXTEND
  0
POINT
  5
72A3
330
6DFC
100
AcDbEntity
  8
DEFPOINTS
  6
Continuous
 62
     0
100
AcDbPoint
 10
-35.0
 20
-78.0
 30
0.0
  0
POINT
  5
72A4
330
6DFC
100
AcDbEntity
  8
DEFPOINTS
  6
Continuous
 62
     0
100
AcDbPoint
 10
0.0
 20
-76.0
 30
0.0
  0
POINT
  5
72A5
330
6DFC
100
AcDbEntity
  8
DEFPOINTS
  6
Continuous
 62
     0
100
AcDbPoint
 10
-0.0000000000000011
 20
-94.52992467875787
 30
0.0
  0
ENDBLK
  5
6E07
330
6DFC
100
AcDbEntity
  8
0
100
AcDbBlockEnd
  0
BLOCK
  5
6E13
330
6E09
100
AcDbEntity
  8
0
100
AcDbBlockBegin
  2
*D7
 70
     1
 10
0.0
 20
0.0
 30
0.0
  3
*D7
  1

  0
LINE
  5
72A6
330
6E09
100
AcDbEntity
  8
30
  6
Continuous
 62
     0
100
AcDbLine
 10
-0.0000000000000001
 20
-77.0
 30
0.0
 11
-0.0000000000000012
 21
-95.02992467875788
 31
0.0
  0
LINE
  5
72A7
330
6E09
100
AcDbEntity
  8
30
  6
Continuous
 62
     0
100
AcDbLine
 10
35.0
 20
-79.0
 30
0.0
 11
35.0
 21
-95.02992467875788
 31
0.0
  0
LINE
  5
72A8
330
6E09
100
AcDbEntity
  8
30
  6
Continuous
 62
     0
100
AcDbLine
 10
1.999999999999998
 20
-94.52992467875787
 30
0.0
 11
33.0
 21
-94.52992467875787
 31
0.0
  0
INSERT
  5
72A9
330
6E09
100
AcDbEntity
  8
30
  6
Continuous
 62
     0
100
AcDbBlockReference
  2
_OPEN
 10
-0.0000000000000011
 20
-94.52992467875787
 30
0.0
 41
2.0
 42
2.0
 43
2.0
 50
180.0
  0
INSERT
  5
72AA
330
6E09
100
AcDbEntity
  8
30
  6
Continuous
 62
     0
100
AcDbBlockReference
  2
_OPEN
 10
35.0
 20
-94.52992467875787
 30
0.0
 41
2.0
 42
2.0
 43
2.0
  0
MTEXT
  5
72AB
330
6E09
100
AcDbEntity
  8
30
  6
Continuous
 62
     0
100
AcDbMText
 10
17.5
 20
-91.52992467875789
 30
0.0
 40
4.0
 41
0.0
 71
     5
 72
     1
  1
\A1;35
 73
     1
 44
1.0
1001
ACAD
1000
MTEXTBEGIN
1070
    73
1070
     1
1070
    44
1040
1.0
1070
    74
1070
     0
1000
MTEXTEND
  0
POINT
  5
72AC
330
6E09
100
AcDbEntity
  8
DEFPOINTS
  6
Continuous
 62
     0
100
AcDbPoint
 10
0.0
 20
-76.0
 30
0.0
  0
POINT
  5
72AD
330
6E09
100
AcDbEntity
  8
DEFPOINTS
  6
Continuous
 62
     0
100
AcDbPoint
 10
35.0
 20
-78.0
 30
0.0
  0
POINT
  5
72AE
330
6E09
100
AcDbEntity
  8
DEFPOINTS
  6
Continuous
 62
     0
100
AcDbPoint
 10
35.0
 20
-94.52992467875787
 30
0.0
  0
ENDBLK
  5
6E14
330
6E09
100
AcDbEntity
  8
0
100
AcDbBlockEnd
  0
BLOCK
  5
6E20
330
6E16
100
AcDbEntity
  8
0
100
AcDbBlockBegin
  2
*D8
 70
     1
 10
0.0
 20
0.0
 30
0.0
  3
*D8
  1

  0
LINE
  5
72AF
330
6E16
100
AcDbEntity
  8
30
  6
Continuous
 62
     0
100
AcDbLine
 10
35.0
 20
-79.0
 30
0.0
 11
35.0
 21
-95.02992467875788
 31
0.0
  0
LINE
  5
72B0
330
6E16
100
AcDbEntity
  8
30
  6
Continuous
 62
     0
100
AcDbLine
 10
70.0
 20
-79.0
 30
0.0
 11
70.0
 21
-95.02992467875788
 31
0.0
  0
LINE
  5
72B1
330
6E16
100
AcDbEntity
  8
30
  6
Continuous
 62
     0
100
AcDbLine
 10
37.0
 20
-94.52992467875787
 30
0.0
 11
68.0
 21
-94.52992467875787
 31
0.0
  0
INSERT
  5
72B2
330
6E16
100
AcDbEntity
  8
30
  6
Continuous
 62
     0
100
AcDbBlockReference
  2
_OPEN
 10
35.0
 20
-94.52992467875787
 30
0.0
 41
2.0
 42
2.0
 43
2.0
 50
180.0
  0
INSERT
  5
72B3
330
6E16
100
AcDbEntity
  8
30
  6
Continuous
 62
     0
100
AcDbBlockReference
  2
_OPEN
 10
70.0
 20
-94.52992467875787
 30
0.0
 41
2.0
 42
2.0
 43
2.0
  0
MTEXT
  5
72B4
330
6E16
100
AcDbEntity
  8
30
  6
Continuous
 62
     0
100
AcDbMText
 10
52.5
 20
-91.52992467875789
 30
0.0
 40
4.0
 41
0.0
 71
     5
 72
     1
  1
\A1;35
 73
     1
 44
1.0
1001
ACAD
1000
MTEXTBEGIN
1070
    73
1070
     1
1070
    44
1040
1.0
1070
    74
1070
     0
1000
MTEXTEND
  0
POINT
  5
72B5
330
6E16
100
AcDbEntity
  8
DEFPOINTS
  6
Continuous
 62
     0
100
AcDbPoint
 10
35.0
 20
-78.0
 30
0.0
  0
POINT
  5
72B6
330
6E16
100
AcDbEntity
  8
DEFPOINTS
  6
Continuous
 62
     0
100
AcDbPoint
 10
70.0
 20
-78.0
 30
0.0
  0
POINT
  5
72B7
330
6E16
100
AcDbEntity
  8
DEFPOINTS
  6
Continuous
 62
     0
100
AcDbPoint
 10
70.0
 20
-94.52992467875787
 30
0.0
  0
ENDBLK
  5
6E21
330
6E16
100
AcDbEntity
  8
0
100
AcDbBlockEnd
  0
BLOCK
  5
6E2D
330
6E23
100
AcDbEntity
  8
0
100
AcDbBlockBegin
  2
*D9
 70
     1
 10
0.0
 20
0.0
 30
0.0
  3
*D9
  1

  0
LINE
  5
7250
330
6E23
100
AcDbEntity
  8
30
  6
Continuous
 62
     0
100
AcDbLine
 10
-52.49999999999997
 20
-83.49999999999999
 30
0.0
 11
-52.49999999999997
 21
-110.4317776735854
 31
0.0
  0
LINE
  5
7251
330
6E23
100
AcDbEntity
  8
30
  6
Continuous
 62
     0
100
AcDbLine
 10
87.5
 20
-83.49999999999999
 30
0.0
 11
87.5
 21
-110.4317776735854
 31
0.0
  0
LINE
  5
7252
330
6E23
100
AcDbEntity
  8
30
  6
Continuous
 62
     0
100
AcDbLine
 10
-50.49999999999997
 20
-109.9317776735854
 30
0.0
 11
85.5
 21
-109.9317776735854
 31
0.0
  0
INSERT
  5
7253
330
6E23
100
AcDbEntity
  8
30
  6
Continuous
 62
     0
100
AcDbBlockReference
  2
_OPEN
 10
-52.49999999999997
 20
-109.9317776735854
 30
0.0
 41
2.0
 42
2.0
 43
2.0
 50
180.0
  0
INSERT
  5
7254
330
6E23
100
AcDbEntity
  8
30
  6
Continuous
 62
     0
100
AcDbBlockReference
  2
_OPEN
 10
87.5
 20
-109.9317776735854
 30
0.0
 41
2.0
 42
2.0
 43
2.0
  0
MTEXT
  5
7255
330
6E23
100
AcDbEntity
  8
30
  6
Continuous
 62
     0
100
AcDbMText
 10
17.50000000000001
 20
-106.9317776735854
 30
0.0
 40
4.0
 41
0.0
 71
     5
 72
     1
  1
\A1;140
 73
     1
 44
1.0
1001
ACAD
1000
MTEXTBEGIN
1070
    73
1070
     1
1070
    44
1040
1.0
1070
    74
1070
     0
1000
MTEXTEND
  0
POINT
  5
7256
330
6E23
100
AcDbEntity
  8
DEFPOINTS
  6
Continuous
 62
     0
100
AcDbPoint
 10
-52.49999999999997
 20
-82.5
 30
0.0
  0
POINT
  5
7257
330
6E23
100
AcDbEntity
  8
DEFPOINTS
  6
Continuous
 62
     0
100
AcDbPoint
 10
87.5
 20
-82.5
 30
0.0
  0
POINT
  5
7258
330
6E23
100
AcDbEntity
  8
DEFPOINTS
  6
Continuous
 62
     0
100
AcDbPoint
 10
87.5
 20
-109.9317776735854
 30
0.0
  0
ENDBLK
  5
6E2E
330
6E23
100
AcDbEntity
  8
0
100
AcDbBlockEnd
  0
BLOCK
  5
6E54
330
6E4A
100
AcDbEntity
  8
0
100
AcDbBlockBegin
  2
*D10
 70
     1
 10
0.0
 20
0.0
 30
0.0
  3
*D10
  1

  0
LINE
  5
6E4B
330
6E4A
100
AcDbEntity
  8
30
  6
Continuous
 62
     0
100
AcDbLine
 10
-20.0
 20
182.5
 30
0.0
 11
-73.23586706236298
 21
182.5
 31
0.0
  0
LINE
  5
6E4C
330
6E4A
100
AcDbEntity
  8
30
  6
Continuous
 62
     0
100
AcDbLine
 10
-53.49999999999997
 20
82.5
 30
0.0
 11
-73.23586706236302
 21
82.5
 31
0.0
  0
LINE
  5
6E4D
330
6E4A
100
AcDbEntity
  8
30
  6
Continuous
 62
     0
100
AcDbLine
 10
-72.73586706236298
 20
180.4999999999999
 30
0.0
 11
-72.73586706236301
 21
84.50000000000001
 31
0.0
  0
INSERT
  5
6E4E
330
6E4A
100
AcDbEntity
  8
30
  6
Continuous
 62
     0
100
AcDbBlockReference
  2
_OPEN
 10
-72.73586706236298
 20
182.5
 30
0.0
 41
2.0
 42
2.0
 43
2.0
 50
90.0
  0
INSERT
  5
6E4F
330
6E4A
100
AcDbEntity
  8
30
  6
Continuous
 62
     0
100
AcDbBlockReference
  2
_OPEN
 10
-72.73586706236301
 20
82.5
 30
0.0
 41
2.0
 42
2.0
 43
2.0
 50
270.0
  0
MTEXT
  5
6E50
330
6E4A
100
AcDbEntity
  8
30
  6
Continuous
 62
     0
100
AcDbMText
 10
-75.73586706236302
 20
132.4999999999999
 30
0.0
 40
4.0
 41
0.0
 71
     5
 72
     1
  1
\A1;100
 11
0.0000000000000001
 21
1.0
 31
0.0
 73
     1
 44
1.0
1001
ACAD
1000
MTEXTBEGIN
1070
    73
1070
     1
1070
    44
1040
1.0
1070
    74
1070
     0
1000
MTEXTEND
  0
POINT
  5
6E51
330
6E4A
100
AcDbEntity
  8
DEFPOINTS
  6
Continuous
 62
     0
100
AcDbPoint
 10
-19.0
 20
182.5
 30
0.0
  0
POINT
  5
6E52
330
6E4A
100
AcDbEntity
  8
DEFPOINTS
  6
Continuous
 62
     0
100
AcDbPoint
 10
-52.49999999999997
 20
82.5
 30
0.0
  0
POINT
  5
6E53
330
6E4A
100
AcDbEntity
  8
DEFPOINTS
  6
Continuous
 62
     0
100
AcDbPoint
 10
-72.73586706236301
 20
82.5
 30
0.0
  0
ENDBLK
  5
6E55
330
6E4A
100
AcDbEntity
  8
0
100
AcDbBlockEnd
  0
BLOCK
  5
6E61
330
6E57
100
AcDbEntity
  8
0
100
AcDbBlockBegin
  2
*D11
 70
     1
 10
0.0
 20
0.0
 30
0.0
  3
*D11
  1

  0
LINE
  5
6E58
330
6E57
100
AcDbEntity
  8
30
  6
Continuous
 62
     0
100
AcDbLine
 10
-53.49999999999997
 20
82.5
 30
0.0
 11
-73.23586706236302
 21
82.5
 31
0.0
  0
LINE
  5
6E59
330
6E57
100
AcDbEntity
  8
30
  6
Continuous
 62
     0
100
AcDbLine
 10
-53.49999999999997
 20
-82.5
 30
0.0
 11
-73.23586706236304
 21
-82.5
 31
0.0
  0
LINE
  5
6E5A
330
6E57
100
AcDbEntity
  8
30
  6
Continuous
 62
     0
100
AcDbLine
 10
-72.73586706236301
 20
80.5
 30
0.0
 11
-72.73586706236304
 21
-80.5
 31
0.0
  0
INSERT
  5
6E5B
330
6E57
100
AcDbEntity
  8
30
  6
Continuous
 62
     0
100
AcDbBlockReference
  2
_OPEN
 10
-72.73586706236301
 20
82.5
 30
0.0
 41
2.0
 42
2.0
 43
2.0
 50
90.0
  0
INSERT
  5
6E5C
330
6E57
100
AcDbEntity
  8
30
  6
Continuous
 62
     0
100
AcDbBlockReference
  2
_OPEN
 10
-72.73586706236304
 20
-82.5
 30
0.0
 41
2.0
 42
2.0
 43
2.0
 50
270.0
  0
MTEXT
  5
6E5D
330
6E57
100
AcDbEntity
  8
30
  6
Continuous
 62
     0
100
AcDbMText
 10
-75.73586706236302
 20
-0.0000000000000094
 30
0.0
 40
4.0
 41
0.0
 71
     5
 72
     1
  1
\A1;165
 11
0.0000000000000001
 21
1.0
 31
0.0
 73
     1
 44
1.0
1001
ACAD
1000
MTEXTBEGIN
1070
    73
1070
     1
1070
    44
1040
1.0
1070
    74
1070
     0
1000
MTEXTEND
  0
POINT
  5
6E5E
330
6E57
100
AcDbEntity
  8
DEFPOINTS
  6
Continuous
 62
     0
100
AcDbPoint
 10
-52.49999999999997
 20
82.5
 30
0.0
  0
POINT
  5
6E5F
330
6E57
100
AcDbEntity
  8
DEFPOINTS
  6
Continuous
 62
     0
100
AcDbPoint
 10
-52.49999999999997
 20
-82.5
 30
0.0
  0
POINT
  5
6E60
330
6E57
100
AcDbEntity
  8
DEFPOINTS
  6
Continuous
 62
     0
100
AcDbPoint
 10
-72.73586706236304
 20
-82.5
 30
0.0
  0
ENDBLK
  5
6E62
330
6E57
100
AcDbEntity
  8
0
100
AcDbBlockEnd
  0
BLOCK
  5
6E70
330
6E66
100
AcDbEntity
  8
0
100
AcDbBlockBegin
  2
*D12
 70
     1
 10
0.0
 20
0.0
 30
0.0
  3
*D12
  1

  0
LINE
  5
6E67
330
6E66
100
AcDbEntity
  8
30
  6
Continuous
 62
     0
100
AcDbLine
 10
23.61990546482881
 20
-187.0
 30
0.0
 11
104.1194454266929
 21
-187.0
 31
0.0
  0
LINE
  5
6E68
330
6E66
100
AcDbEntity
  8
30
  6
Continuous
 62
     0
100
AcDbLine
 10
23.61990546482881
 20
-313.0
 30
0.0
 11
104.1194454266929
 21
-313.0
 31
0.0
  0
LINE
  5
6E69
330
6E66
100
AcDbEntity
  8
30
  6
Continuous
 62
     0
100
AcDbLine
 10
103.6194454266929
 20
-189.0
 30
0.0
 11
103.6194454266929
 21
-311.0
 31
0.0
  0
INSERT
  5
6E6A
330
6E66
100
AcDbEntity
  8
30
  6
Continuous
 62
     0
100
AcDbBlockReference
  2
_OPEN
 10
103.6194454266929
 20
-187.0
 30
0.0
 41
2.0
 42
2.0
 43
2.0
 50
90.0
  0
INSERT
  5
6E6B
330
6E66
100
AcDbEntity
  8
30
  6
Continuous
 62
     0
100
AcDbBlockReference
  2
_OPEN
 10
103.6194454266929
 20
-313.0
 30
0.0
 41
2.0
 42
2.0
 43
2.0
 50
270.0
  0
MTEXT
  5
6E6C
330
6E66
100
AcDbEntity
  8
30
  6
Continuous
 62
     0
100
AcDbMText
 10
100.6194454266928
 20
-250.0
 30
0.0
 40
4.0
 41
0.0
 71
     5
 72
     1
  1
\A1;126
 11
0.0000000000000001
 21
1.0
 31
0.0
 73
     1
 44
1.0
1001
ACAD
1000
MTEXTBEGIN
1070
    73
1070
     1
1070
    44
1040
1.0
1070
    74
1070
     0
1000
MTEXTEND
  0
POINT
  5
6E6D
330
6E66
100
AcDbEntity
  8
DEFPOINTS
  6
Continuous
 62
     0
100
AcDbPoint
 10
22.61990546482881
 20
-187.0
 30
0.0
  0
POINT
  5
6E6E
330
6E66
100
AcDbEntity
  8
DEFPOINTS
  6
Continuous
 62
     0
100
AcDbPoint
 10
22.61990546482881
 20
-313.0
 30
0.0
  0
POINT
  5
6E6F
330
6E66
100
AcDbEntity
  8
DEFPOINTS
  6
Continuous
 62
     0
100
AcDbPoint
 10
103.6194454266929
 20
-313.0
 30
0.0
  0
ENDBLK
  5
6E71
330
6E66
100
AcDbEntity
  8
0
100
AcDbBlockEnd
  0
BLOCK
  5
6E7E
330
6E74
100
AcDbEntity
  8
0
100
AcDbBlockBegin
  2
*D13
 70
     1
 10
0.0
 20
0.0
 30
0.0
  3
*D13
  1

  0
LINE
  5
6EC6
330
6E74
100
AcDbEntity
  8
30
  6
Continuous
 62
     0
100
AcDbLine
 10
259.6199054648286
 20
-224.0
 30
0.0
 11
281.4029436113287
 21
-224.0
 31
0.0
  0
LINE
  5
6EC7
330
6E74
100
AcDbEntity
  8
30
  6
Continuous
 62
     0
100
AcDbLine
 10
260.8420532342504
 20
-276.0
 30
0.0
 11
281.4029436113287
 21
-276.0
 31
0.0
  0
LINE
  5
6EC8
330
6E74
100
AcDbEntity
  8
30
  6
Continuous
 62
     0
100
AcDbLine
 10
280.9029436113288
 20
-226.0
 30
0.0
 11
280.9029436113288
 21
-274.0
 31
0.0
  0
INSERT
  5
6EC9
330
6E74
100
AcDbEntity
  8
30
  6
Continuous
 62
     0
100
AcDbBlockReference
  2
_OPEN
 10
280.9029436113288
 20
-224.0
 30
0.0
 41
2.0
 42
2.0
 43
2.0
 50
90.0
  0
INSERT
  5
6ECA
330
6E74
100
AcDbEntity
  8
30
  6
Continuous
 62
     0
100
AcDbBlockReference
  2
_OPEN
 10
280.9029436113288
 20
-276.0
 30
0.0
 41
2.0
 42
2.0
 43
2.0
 50
270.0
  0
MTEXT
  5
6ECB
330
6E74
100
AcDbEntity
  8
30
  6
Continuous
 62
     0
100
AcDbMText
 10
277.9029436113288
 20
-249.9999999999999
 30
0.0
 40
4.0
 41
0.0
 71
     5
 72
     1
  1
\A1;52
 11
0.0000000000000001
 21
1.0
 31
0.0
 73
     1
 44
1.0
1001
ACAD
1000
MTEXTBEGIN
1070
    73
1070
     1
1070
    44
1040
1.0
1070
    74
1070
     0
1000
MTEXTEND
  0
POINT
  5
6ECC
330
6E74
100
AcDbEntity
  8
DEFPOINTS
  6
Continuous
 62
     0
100
AcDbPoint
 10
258.6199054648286
 20
-224.0
 30
0.0
  0
POINT
  5
6ECD
330
6E74
100
AcDbEntity
  8
DEFPOINTS
  6
Continuous
 62
     0
100
AcDbPoint
 10
259.8420532342503
 20
-276.0
 30
0.0
  0
POINT
  5
6ECE
330
6E74
100
AcDbEntity
  8
DEFPOINTS
  6
Continuous
 62
     0
100
AcDbPoint
 10
280.9029436113288
 20
-276.0
 30
0.0
  0
ENDBLK
  5
6E7F
330
6E74
100
AcDbEntity
  8
0
100
AcDbBlockEnd
  0
BLOCK
  5
6E89
330
6E80
100
AcDbEntity
  8
0
100
AcDbBlockBegin
  2
*D14
 70
     1
 10
0.0
 20
0.0
 30
0.0
  3
*D14
  1

  0
LINE
  5
6EBE
330
6E80
100
AcDbEntity
  8
30
  6
Continuous
 62
     0
100
AcDbLine
 10
269.0829195267651
 20
-222.1811816163853
 30
0.0
 11
262.7495861934318
 21
-222.1811816163853
 31
0.0
  0
LINE
  5
6EBF
330
6E80
100
AcDbEntity
  8
30
  6
Continuous
 62
     0
100
AcDbLine
 10
262.7495861934318
 20
-222.1811816163853
 30
0.0
 11
261.0977139019905
 21
-223.308708969831
 31
0.0
  0
MTEXT
  5
6EC0
330
6E80
100
AcDbEntity
  8
30
  6
Continuous
 62
     0
100
AcDbMText
 10
266.4162528600984
 20
-219.1811816163853
 30
0.0
 40
4.0
 41
0.0
 71
     5
 72
     1
  1
\A1;R1
 73
     1
 44
1.0
1001
ACAD
1000
MTEXTBEGIN
1070
    73
1070
     1
1070
    44
1040
1.0
1070
    74
1070
     0
1000
MTEXTEND
  0
INSERT
  5
6EC1
330
6E80
100
AcDbEntity
  8
30
  6
Continuous
 62
     0
100
AcDbBlockReference
  2
_OPEN
 10
259.4458416105493
 20
-224.436236323277
 30
0.0
 41
2.0
 42
2.0
 43
2.0
 50
214.3164827908805
  0
LINE
  5
6EC2
330
6E80
100
AcDbEntity
  8
30
  6
Continuous
 62
     0
100
AcDbLine
 10
258.5299054648288
 20
-224.9999999999999
 30
0.0
 11
258.7099054648287
 21
-224.9999999999999
 31
0.0
  0
LINE
  5
6EC3
330
6E80
100
AcDbEntity
  8
30
  6
Continuous
 62
     0
100
AcDbLine
 10
258.6199054648286
 20
-225.09
 30
0.0
 11
258.6199054648286
 21
-224.9099999999999
 31
0.0
  0
POINT
  5
6EC4
330
6E80
100
AcDbEntity
  8
DEFPOINTS
  6
Continuous
 62
     0
100
AcDbPoint
 10
259.4458416105493
 20
-224.436236323277
 30
0.0
  0
POINT
  5
6EC5
330
6E80
100
AcDbEntity
  8
DEFPOINTS
  6
Continuous
 62
     0
100
AcDbPoint
 10
258.6199054648286
 20
-225.0
 30
0.0
  0
ENDBLK
  5
6E8A
330
6E80
100
AcDbEntity
  8
0
100
AcDbBlockEnd
  0
BLOCK
  5
6EDA
330
6ED0
100
AcDbEntity
  8
0
100
AcDbBlockBegin
  2
*D15
 70
     1
 10
0.0
 20
0.0
 30
0.0
  3
*D15
  1

  0
LINE
  5
6EDC
330
6ED0
100
AcDbEntity
  8
30
  6
Continuous
 62
     0
100
AcDbLine
 10
159.6199054648288
 20
-276.0
 30
0.0
 11
159.6199054648288
 21
-359.8804450066014
 31
0.0
  0
LINE
  5
6EDD
330
6ED0
100
AcDbEntity
  8
30
  6
Continuous
 62
     0
100
AcDbLine
 10
259.6199054648286
 20
-276.0
 30
0.0
 11
259.6199054648286
 21
-359.8804450066014
 31
0.0
  0
LINE
  5
6EDE
330
6ED0
100
AcDbEntity
  8
30
  6
Continuous
 62
     0
100
AcDbLine
 10
161.6199054648288
 20
-359.3804450066013
 30
0.0
 11
257.6199054648288
 21
-359.3804450066013
 31
0.0
  0
INSERT
  5
6EDF
330
6ED0
100
AcDbEntity
  8
30
  6
Continuous
 62
     0
100
AcDbBlockReference
  2
_OPEN
 10
159.6199054648288
 20
-359.3804450066013
 30
0.0
 41
2.0
 42
2.0
 43
2.0
 50
180.0
  0
INSERT
  5
6EE0
330
6ED0
100
AcDbEntity
  8
30
  6
Continuous
 62
     0
100
AcDbBlockReference
  2
_OPEN
 10
259.6199054648286
 20
-359.3804450066013
 30
0.0
 41
2.0
 42
2.0
 43
2.0
  0
MTEXT
  5
6EE1
330
6ED0
100
AcDbEntity
  8
30
  6
Continuous
 62
     0
100
AcDbMText
 10
209.6199054648287
 20
-356.3804450066013
 30
0.0
 40
4.0
 41
0.0
 71
     5
 72
     1
  1
\A1;100
 73
     1
 44
1.0
1001
ACAD
1000
MTEXTBEGIN
1070
    73
1070
     1
1070
    44
1040
1.0
1070
    74
1070
     0
1000
MTEXTEND
  0
POINT
  5
6EE2
330
6ED0
100
AcDbEntity
  8
DEFPOINTS
  6
Continuous
 62
     0
100
AcDbPoint
 10
159.6199054648288
 20
-275.0
 30
0.0
  0
POINT
  5
6EE3
330
6ED0
100
AcDbEntity
  8
DEFPOINTS
  6
Continuous
 62
     0
100
AcDbPoint
 10
259.6199054648286
 20
-275.0
 30
0.0
  0
POINT
  5
6EE4
330
6ED0
100
AcDbEntity
  8
DEFPOINTS
  6
Continuous
 62
     0
100
AcDbPoint
 10
259.6199054648286
 20
-359.3804450066013
 30
0.0
  0
ENDBLK
  5
6EDB
330
6ED0
100
AcDbEntity
  8
0
100
AcDbBlockEnd
  0
BLOCK
  5
6EFF
330
6EF5
100
AcDbEntity
  8
0
100
AcDbBlockBegin
  2
*D16
 70
     1
 10
0.0
 20
0.0
 30
0.0
  3
*D16
  1

  0
LINE
  5
725F
330
6EF5
100
AcDbEntity
  8
30
  6
Continuous
 62
     0
100
AcDbLine
 10
191.5036264863788
 20
170.2145529502652
 30
0.0
 11
191.5036264863788
 21
155.3140613509453
 31
0.0
  0
LINE
  5
7260
330
6EF5
100
AcDbEntity
  8
30
  6
Continuous
 62
     0
100
AcDbLine
 10
216.5036264863788
 20
170.2145529502652
 30
0.0
 11
216.5036264863788
 21
155.3140613509453
 31
0.0
  0
LINE
  5
7261
330
6EF5
100
AcDbEntity
  8
30
  6
Continuous
 62
     0
100
AcDbLine
 10
193.5036264863788
 20
155.8140613509453
 30
0.0
 11
214.5036264863788
 21
155.8140613509453
 31
0.0
  0
INSERT
  5
7262
330
6EF5
100
AcDbEntity
  8
30
  6
Continuous
 62
     0
100
AcDbBlockReference
  2
_OPEN
 10
191.5036264863788
 20
155.8140613509453
 30
0.0
 41
2.0
 42
2.0
 43
2.0
 50
180.0
  0
INSERT
  5
7263
330
6EF5
100
AcDbEntity
  8
30
  6
Continuous
 62
     0
100
AcDbBlockReference
  2
_OPEN
 10
216.5036264863788
 20
155.8140613509453
 30
0.0
 41
2.0
 42
2.0
 43
2.0
  0
MTEXT
  5
7264
330
6EF5
100
AcDbEntity
  8
30
  6
Continuous
 62
     0
100
AcDbMText
 10
204.0036264863788
 20
158.8140613509453
 30
0.0
 40
4.0
 41
0.0
 71
     5
 72
     1
  1
\A1;  
 73
     1
 44
1.0
1001
ACAD
1000
MTEXTBEGIN
1070
    73
1070
     1
1070
    44
1040
1.0
1070
    74
1070
     0
1000
MTEXTEND
  0
POINT
  5
7265
330
6EF5
100
AcDbEntity
  8
DEFPOINTS
  6
Continuous
 62
     0
100
AcDbPoint
 10
191.5036264863788
 20
171.2145529502651
 30
0.0
  0
POINT
  5
7266
330
6EF5
100
AcDbEntity
  8
DEFPOINTS
  6
Continuous
 62
     0
100
AcDbPoint
 10
216.5036264863788
 20
171.2145529502651
 30
0.0
  0
POINT
  5
7267
330
6EF5
100
AcDbEntity
  8
DEFPOINTS
  6
Continuous
 62
     0
100
AcDbPoint
 10
216.5036264863788
 20
155.8140613509453
 30
0.0
  0
ENDBLK
  5
6F00
330
6EF5
100
AcDbEntity
  8
0
100
AcDbBlockEnd
  0
BLOCK
  5
6F0D
330
6F01
100
AcDbEntity
  8
0
100
AcDbBlockBegin
  2
*D17
 70
     1
 10
0.0
 20
0.0
 30
0.0
  3
*D17
  1

  0
LINE
  5
7268
330
6F01
100
AcDbEntity
  8
30
  6
Continuous
 62
     0
100
AcDbLine
 10
217.5036264863788
 20
171.2145529502651
 30
0.0
 11
232.5041876839375
 21
171.2145529502651
 31
0.0
  0
LINE
  5
7269
330
6F01
100
AcDbEntity
  8
30
  6
Continuous
 62
     0
100
AcDbLine
 10
208.4174652076491
 20
181.2201248447136
 30
0.0
 11
232.5041876839375
 21
181.2201248447136
 31
0.0
  0
LINE
  5
726A
330
6F01
100
AcDbEntity
  8
30
  6
Continuous
 62
     0
100
AcDbLine
 10
232.0041876839375
 20
173.214552950265
 30
0.0
 11
232.0041876839375
 21
179.2201248447136
 31
0.0
  0
INSERT
  5
726B
330
6F01
100
AcDbEntity
  8
30
  6
Continuous
 62
     0
100
AcDbBlockReference
  2
_OPEN
 10
232.0041876839375
 20
171.2145529502651
 30
0.0
 41
2.0
 42
2.0
 43
2.0
 50
270.0
  0
INSERT
  5
726C
330
6F01
100
AcDbEntity
  8
30
  6
Continuous
 62
     0
100
AcDbBlockReference
  2
_OPEN
 10
232.0041876839375
 20
181.2201248447136
 30
0.0
 41
2.0
 42
2.0
 43
2.0
 50
90.0
  0
MTEXT
  5
726D
330
6F01
100
AcDbEntity
  8
30
  6
Continuous
 62
     0
100
AcDbMText
 10
229.0041876839374
 20
176.2173388974894
 30
0.0
 40
4.0
 41
0.0
 71
     5
 72
     1
  1
\A1;10
 11
0.0000000000000001
 21
1.0
 31
0.0
 73
     1
 44
1.0
1001
ACAD
1000
MTEXTBEGIN
1070
    73
1070
     1
1070
    44
1040
1.0
1070
    74
1070
     0
1000
MTEXTEND
  0
POINT
  5
726E
330
6F01
100
AcDbEntity
  8
DEFPOINTS
  6
Continuous
 62
     0
100
AcDbPoint
 10
216.5036264863788
 20
171.2145529502651
 30
0.0
  0
POINT
  5
726F
330
6F01
100
AcDbEntity
  8
DEFPOINTS
  6
Continuous
 62
     0
100
AcDbPoint
 10
207.4174652076492
 20
181.2201248447136
 30
0.0
  0
POINT
  5
7270
330
6F01
100
AcDbEntity
  8
DEFPOINTS
  6
Continuous
 62
     0
100
AcDbPoint
 10
232.0041876839375
 20
181.2201248447136
 30
0.0
  0
ENDBLK
  5
6F0E
330
6F01
100
AcDbEntity
  8
0
100
AcDbBlockEnd
  0
BLOCK
  5
6F76
330
6F6C
100
AcDbEntity
  8
0
100
AcDbBlockBegin
  2
*D18
 70
     1
 10
0.0
 20
0.0
 30
0.0
  3
*D18
  1

  0
LINE
  5
6F6D
330
6F6C
100
AcDbEntity
  8
30
  6
Continuous
 62
     0
100
AcDbLine
 10
133.4371126716464
 20
25.01029255310344
 30
0.0
 11
110.9688600635148
 21
25.01029255310346
 31
0.0
  0
LINE
  5
6F6E
330
6F6C
100
AcDbEntity
  8
30
  6
Continuous
 62
     0
100
AcDbLine
 10
133.4371126716464
 20
-24.98970744689653
 30
0.0
 11
110.9688600635148
 21
-24.98970744689653
 31
0.0
  0
LINE
  5
6F6F
330
6F6C
100
AcDbEntity
  8
30
  6
Continuous
 62
     0
100
AcDbLine
 10
111.4688600635149
 20
23.01029255310345
 30
0.0
 11
111.4688600635149
 21
-22.98970744689654
 31
0.0
  0
INSERT
  5
6F70
330
6F6C
100
AcDbEntity
  8
30
  6
Continuous
 62
     0
100
AcDbBlockReference
  2
_OPEN
 10
111.4688600635149
 20
25.01029255310346
 30
0.0
 41
2.0
 42
2.0
 43
2.0
 50
90.0
  0
INSERT
  5
6F71
330
6F6C
100
AcDbEntity
  8
30
  6
Continuous
 62
     0
100
AcDbBlockReference
  2
_OPEN
 10
111.4688600635149
 20
-24.98970744689653
 30
0.0
 41
2.0
 42
2.0
 43
2.0
 50
270.0
  0
MTEXT
  5
6F72
330
6F6C
100
AcDbEntity
  8
30
  6
Continuous
 62
     0
100
AcDbMText
 10
108.4688600635149
 20
0.0102925531034763
 30
0.0
 40
4.0
 41
0.0
 71
     5
 72
     1
  1
\A1;50
 11
0.0000000000000001
 21
1.0
 31
0.0
 73
     1
 44
1.0
1001
ACAD
1000
MTEXTBEGIN
1070
    73
1070
     1
1070
    44
1040
1.0
1070
    74
1070
     0
1000
MTEXTEND
  0
POINT
  5
6F73
330
6F6C
100
AcDbEntity
  8
DEFPOINTS
  6
Continuous
 62
     0
100
AcDbPoint
 10
134.4371126716464
 20
25.01029255310344
 30
0.0
  0
POINT
  5
6F74
330
6F6C
100
AcDbEntity
  8
DEFPOINTS
  6
Continuous
 62
     0
100
AcDbPoint
 10
134.4371126716464
 20
-24.98970744689653
 30
0.0
  0
POINT
  5
6F75
330
6F6C
100
AcDbEntity
  8
DEFPOINTS
  6
Continuous
 62
     0
100
AcDbPoint
 10
111.4688600635149
 20
-24.98970744689653
 30
0.0
  0
ENDBLK
  5
6F77
330
6F6C
100
AcDbEntity
  8
0
100
AcDbBlockEnd
  0
BLOCK
  5
6F83
330
6F79
100
AcDbEntity
  8
0
100
AcDbBlockBegin
  2
*D19
 70
     1
 10
0.0
 20
0.0
 30
0.0
  3
*D19
  1

  0
LINE
  5
6F7A
330
6F79
100
AcDbEntity
  8
30
  6
Continuous
 62
     0
100
AcDbLine
 10
253.4371126716464
 20
-66.23970744689654
 30
0.0
 11
253.4371126716464
 21
-92.14127065798903
 31
0.0
  0
LINE
  5
6F7B
330
6F79
100
AcDbEntity
  8
30
  6
Continuous
 62
     0
100
AcDbLine
 10
245.4371126716464
 20
-83.48970744689655
 30
0.0
 11
245.4371126716464
 21
-92.14127065798903
 31
0.0
  0
LINE
  5
6F7C
330
6F79
100
AcDbEntity
  8
30
  6
Continuous
 62
     0
100
AcDbLine
 10
251.4371126716464
 20
-91.64127065798902
 30
0.0
 11
247.4371126716464
 21
-91.64127065798902
 31
0.0
  0
INSERT
  5
6F7D
330
6F79
100
AcDbEntity
  8
30
  6
Continuous
 62
     0
100
AcDbBlockReference
  2
_OPEN
 10
253.4371126716464
 20
-91.64127065798902
 30
0.0
 41
2.0
 42
2.0
 43
2.0
  0
INSERT
  5
6F7E
330
6F79
100
AcDbEntity
  8
30
  6
Continuous
 62
     0
100
AcDbBlockReference
  2
_OPEN
 10
245.4371126716464
 20
-91.64127065798902
 30
0.0
 41
2.0
 42
2.0
 43
2.0
 50
180.0
  0
MTEXT
  5
6F7F
330
6F79
100
AcDbEntity
  8
30
  6
Continuous
 62
     0
100
AcDbMText
 10
249.4371126716464
 20
-88.64127065798902
 30
0.0
 40
4.0
 41
0.0
 71
     5
 72
     1
  1
\A1;8
 73
     1
 44
1.0
1001
ACAD
1000
MTEXTBEGIN
1070
    73
1070
     1
1070
    44
1040
1.0
1070
    74
1070
     0
1000
MTEXTEND
  0
POINT
  5
6F80
330
6F79
100
AcDbEntity
  8
DEFPOINTS
  6
Continuous
 62
     0
100
AcDbPoint
 10
253.4371126716464
 20
-65.23970744689655
 30
0.0
  0
POINT
  5
6F81
330
6F79
100
AcDbEntity
  8
DEFPOINTS
  6
Continuous
 62
     0
100
AcDbPoint
 10
245.4371126716464
 20
-82.48970744689655
 30
0.0
  0
POINT
  5
6F82
330
6F79
100
AcDbEntity
  8
DEFPOINTS
  6
Continuous
 62
     0
100
AcDbPoint
 10
245.4371126716464
 20
-91.64127065798902
 30
0.0
  0
ENDBLK
  5
6F84
330
6F79
100
AcDbEntity
  8
0
100
AcDbBlockEnd
  0
BLOCK
  5
6F90
330
6F86
100
AcDbEntity
  8
0
100
AcDbBlockBegin
  2
*D20
 70
     1
 10
0.0
 20
0.0
 30
0.0
  3
*D20
  1

  0
LINE
  5
72B8
330
6F86
100
AcDbEntity
  8
30
  6
Continuous
 62
     0
100
AcDbLine
 10
245.4371126716464
 20
-83.48970744689655
 30
0.0
 11
245.4371126716464
 21
-92.14127065798903
 31
0.0
  0
LINE
  5
72B9
330
6F86
100
AcDbEntity
  8
30
  6
Continuous
 62
     0
100
AcDbLine
 10
165.4371126716464
 20
-68.23970744689654
 30
0.0
 11
165.4371126716464
 21
-92.14127065798903
 31
0.0
  0
LINE
  5
72BA
330
6F86
100
AcDbEntity
  8
30
  6
Continuous
 62
     0
100
AcDbLine
 10
243.4371126716464
 20
-91.64127065798902
 30
0.0
 11
167.4371126716464
 21
-91.64127065798902
 31
0.0
  0
INSERT
  5
72BB
330
6F86
100
AcDbEntity
  8
30
  6
Continuous
 62
     0
100
AcDbBlockReference
  2
_OPEN
 10
245.4371126716464
 20
-91.64127065798902
 30
0.0
 41
2.0
 42
2.0
 43
2.0
  0
INSERT
  5
72BC
330
6F86
100
AcDbEntity
  8
30
  6
Continuous
 62
     0
100
AcDbBlockReference
  2
_OPEN
 10
165.4371126716464
 20
-91.64127065798902
 30
0.0
 41
2.0
 42
2.0
 43
2.0
 50
180.0
  0
MTEXT
  5
72BD
330
6F86
100
AcDbEntity
  8
30
  6
Continuous
 62
     0
100
AcDbMText
 10
205.4371126716464
 20
-88.64127065798902
 30
0.0
 40
4.0
 41
0.0
 71
     5
 72
     1
  1
\A1;80
 73
     1
 44
1.0
1001
ACAD
1000
MTEXTBEGIN
1070
    73
1070
     1
1070
    44
1040
1.0
1070
    74
1070
     0
1000
MTEXTEND
  0
POINT
  5
72BE
330
6F86
100
AcDbEntity
  8
DEFPOINTS
  6
Continuous
 62
     0
100
AcDbPoint
 10
245.4371126716464
 20
-82.48970744689655
 30
0.0
  0
POINT
  5
72BF
330
6F86
100
AcDbEntity
  8
DEFPOINTS
  6
Continuous
 62
     0
100
AcDbPoint
 10
165.4371126716464
 20
-67.23970744689655
 30
0.0
  0
POINT
  5
72C0
330
6F86
100
AcDbEntity
  8
DEFPOINTS
  6
Continuous
 62
     0
100
AcDbPoint
 10
165.4371126716464
 20
-91.64127065798902
 30
0.0
  0
ENDBLK
  5
6F91
330
6F86
100
AcDbEntity
  8
0
100
AcDbBlockEnd
  0
BLOCK
  5
6F9D
330
6F93
100
AcDbEntity
  8
0
100
AcDbBlockBegin
  2
*D21
 70
     1
 10
0.0
 20
0.0
 30
0.0
  3
*D21
  1

  0
LINE
  5
6F94
330
6F93
100
AcDbEntity
  8
30
  6
Continuous
 62
     0
100
AcDbLine
 10
245.4371126716464
 20
-83.48970744689655
 30
0.0
 11
245.4371126716464
 21
-104.139399700592
 31
0.0
  0
LINE
  5
6F95
330
6F93
100
AcDbEntity
  8
30
  6
Continuous
 62
     0
100
AcDbLine
 10
149.4371126716464
 20
-83.48970744689655
 30
0.0
 11
149.4371126716464
 21
-104.139399700592
 31
0.0
  0
LINE
  5
6F96
330
6F93
100
AcDbEntity
  8
30
  6
Continuous
 62
     0
100
AcDbLine
 10
243.4371126716464
 20
-103.6393997005921
 30
0.0
 11
151.4371126716464
 21
-103.6393997005921
 31
0.0
  0
INSERT
  5
6F97
330
6F93
100
AcDbEntity
  8
30
  6
Continuous
 62
     0
100
AcDbBlockReference
  2
_OPEN
 10
245.4371126716464
 20
-103.6393997005921
 30
0.0
 41
2.0
 42
2.0
 43
2.0
  0
INSERT
  5
6F98
330
6F93
100
AcDbEntity
  8
30
  6
Continuous
 62
     0
100
AcDbBlockReference
  2
_OPEN
 10
149.4371126716464
 20
-103.6393997005921
 30
0.0
 41
2.0
 42
2.0
 43
2.0
 50
180.0
  0
MTEXT
  5
6F99
330
6F93
100
AcDbEntity
  8
30
  6
Continuous
 62
     0
100
AcDbMText
 10
197.4371126716464
 20
-100.6393997005921
 30
0.0
 40
4.0
 41
0.0
 71
     5
 72
     1
  1
\A1;96
 73
     1
 44
1.0
1001
ACAD
1000
MTEXTBEGIN
1070
    73
1070
     1
1070
    44
1040
1.0
1070
    74
1070
     0
1000
MTEXTEND
  0
POINT
  5
6F9A
330
6F93
100
AcDbEntity
  8
DEFPOINTS
  6
Continuous
 62
     0
100
AcDbPoint
 10
245.4371126716464
 20
-82.48970744689655
 30
0.0
  0
POINT
  5
6F9B
330
6F93
100
AcDbEntity
  8
DEFPOINTS
  6
Continuous
 62
     0
100
AcDbPoint
 10
149.4371126716464
 20
-82.48970744689655
 30
0.0
  0
POINT
  5
6F9C
330
6F93
100
AcDbEntity
  8
DEFPOINTS
  6
Continuous
 62
     0
100
AcDbPoint
 10
149.4371126716464
 20
-103.6393997005921
 30
0.0
  0
ENDBLK
  5
6F9E
330
6F93
100
AcDbEntity
  8
0
100
AcDbBlockEnd
  0
BLOCK
  5
6FAA
330
6FA0
100
AcDbEntity
  8
0
100
AcDbBlockBegin
  2
*D22
 70
     1
 10
0.0
 20
0.0
 30
0.0
  3
*D22
  1

  0
LINE
  5
6FA1
330
6FA0
100
AcDbEntity
  8
30
  6
Continuous
 62
     0
100
AcDbLine
 10
245.4371126716464
 20
-83.48970744689655
 30
0.0
 11
245.4371126716464
 21
-118.6634516797933
 31
0.0
  0
LINE
  5
6FA2
330
6FA0
100
AcDbEntity
  8
30
  6
Continuous
 62
     0
100
AcDbLine
 10
142.4371126716464
 20
-51.98970744689654
 30
0.0
 11
142.4371126716464
 21
-118.6634516797933
 31
0.0
  0
LINE
  5
6FA3
330
6FA0
100
AcDbEntity
  8
30
  6
Continuous
 62
     0
100
AcDbLine
 10
243.4371126716464
 20
-118.1634516797932
 30
0.0
 11
144.4371126716464
 21
-118.1634516797932
 31
0.0
  0
INSERT
  5
6FA4
330
6FA0
100
AcDbEntity
  8
30
  6
Continuous
 62
     0
100
AcDbBlockReference
  2
_OPEN
 10
245.4371126716464
 20
-118.1634516797932
 30
0.0
 41
2.0
 42
2.0
 43
2.0
  0
INSERT
  5
6FA5
330
6FA0
100
AcDbEntity
  8
30
  6
Continuous
 62
     0
100
AcDbBlockReference
  2
_OPEN
 10
142.4371126716464
 20
-118.1634516797932
 30
0.0
 41
2.0
 42
2.0
 43
2.0
 50
180.0
  0
MTEXT
  5
6FA6
330
6FA0
100
AcDbEntity
  8
30
  6
Continuous
 62
     0
100
AcDbMText
 10
193.9371126716464
 20
-115.1634516797932
 30
0.0
 40
4.0
 41
0.0
 71
     5
 72
     1
  1
\A1;103
 73
     1
 44
1.0
1001
ACAD
1000
MTEXTBEGIN
1070
    73
1070
     1
1070
    44
1040
1.0
1070
    74
1070
     0
1000
MTEXTEND
  0
POINT
  5
6FA7
330
6FA0
100
AcDbEntity
  8
DEFPOINTS
  6
Continuous
 62
     0
100
AcDbPoint
 10
245.4371126716464
 20
-82.48970744689655
 30
0.0
  0
POINT
  5
6FA8
330
6FA0
100
AcDbEntity
  8
DEFPOINTS
  6
Continuous
 62
     0
100
AcDbPoint
 10
142.4371126716464
 20
-50.98970744689655
 30
0.0
  0
POINT
  5
6FA9
330
6FA0
100
AcDbEntity
  8
DEFPOINTS
  6
Continuous
 62
     0
100
AcDbPoint
 10
142.4371126716464
 20
-118.1634516797932
 30
0.0
  0
ENDBLK
  5
6FAB
330
6FA0
100
AcDbEntity
  8
0
100
AcDbBlockEnd
  0
BLOCK
  5
6FB7
330
6FAD
100
AcDbEntity
  8
0
100
AcDbBlockBegin
  2
*D23
 70
     1
 10
0.0
 20
0.0
 30
0.0
  3
*D23
  1

  0
LINE
  5
6FAE
330
6FAD
100
AcDbEntity
  8
30
  6
Continuous
 62
     0
100
AcDbLine
 10
245.4371126716464
 20
-83.48970744689655
 30
0.0
 11
245.4371126716464
 21
-129.3986215185148
 31
0.0
  0
LINE
  5
6FAF
330
6FAD
100
AcDbEntity
  8
30
  6
Continuous
 62
     0
100
AcDbLine
 10
138.4371126716464
 20
-25.98970744689653
 30
0.0
 11
138.4371126716464
 21
-129.3986215185148
 31
0.0
  0
LINE
  5
6FB0
330
6FAD
100
AcDbEntity
  8
30
  6
Continuous
 62
     0
100
AcDbLine
 10
243.4371126716464
 20
-128.8986215185148
 30
0.0
 11
140.4371126716464
 21
-128.8986215185148
 31
0.0
  0
INSERT
  5
6FB1
330
6FAD
100
AcDbEntity
  8
30
  6
Continuous
 62
     0
100
AcDbBlockReference
  2
_OPEN
 10
245.4371126716464
 20
-128.8986215185148
 30
0.0
 41
2.0
 42
2.0
 43
2.0
  0
INSERT
  5
6FB2
330
6FAD
100
AcDbEntity
  8
30
  6
Continuous
 62
     0
100
AcDbBlockReference
  2
_OPEN
 10
138.4371126716464
 20
-128.8986215185148
 30
0.0
 41
2.0
 42
2.0
 43
2.0
 50
180.0
  0
MTEXT
  5
6FB3
330
6FAD
100
AcDbEntity
  8
30
  6
Continuous
 62
     0
100
AcDbMText
 10
191.9371126716464
 20
-125.8986215185148
 30
0.0
 40
4.0
 41
0.0
 71
     5
 72
     1
  1
\A1;107
 73
     1
 44
1.0
1001
ACAD
1000
MTEXTBEGIN
1070
    73
1070
     1
1070
    44
1040
1.0
1070
    74
1070
     0
1000
MTEXTEND
  0
POINT
  5
6FB4
330
6FAD
100
AcDbEntity
  8
DEFPOINTS
  6
Continuous
 62
     0
100
AcDbPoint
 10
245.4371126716464
 20
-82.48970744689655
 30
0.0
  0
POINT
  5
6FB5
330
6FAD
100
AcDbEntity
  8
DEFPOINTS
  6
Continuous
 62
     0
100
AcDbPoint
 10
138.4371126716464
 20
-24.98970744689653
 30
0.0
  0
POINT
  5
6FB6
330
6FAD
100
AcDbEntity
  8
DEFPOINTS
  6
Continuous
 62
     0
100
AcDbPoint
 10
138.4371126716464
 20
-128.8986215185148
 30
0.0
  0
ENDBLK
  5
6FB8
330
6FAD
100
AcDbEntity
  8
0
100
AcDbBlockEnd
  0
BLOCK
  5
6FC5
330
6FBA
100
AcDbEntity
  8
0
100
AcDbBlockBegin
  2
*D24
 70
     1
 10
0.0
 20
0.0
 30
0.0
  3
*D24
  1

  0
LINE
  5
6FC7
330
6FBA
100
AcDbEntity
  8
30
  6
Continuous
 62
     0
100
AcDbLine
 10
134.4371126716464
 20
-25.98970744689653
 30
0.0
 11
134.4371126716464
 21
-129.8986215185148
 31
0.0
  0
LINE
  5
6FC8
330
6FBA
100
AcDbEntity
  8
30
  6
Continuous
 62
     0
100
AcDbLine
 10
138.4371126716464
 20
-128.3986215185147
 30
0.0
 11
138.4371126716464
 21
-128.8986215185148
 31
0.0
  0
LINE
  5
6FC9
330
6FBA
100
AcDbEntity
  8
30
  6
Continuous
 62
     0
100
AcDbLine
 10
132.4371126716464
 20
-129.3986215185148
 30
0.0
 11
130.4371126716464
 21
-129.3986215185148
 31
0.0
  0
LINE
  5
6FCA
330
6FBA
100
AcDbEntity
  8
30
  6
Continuous
 62
     0
100
AcDbLine
 10
140.4371126716464
 20
-129.3986215185148
 30
0.0
 11
147.1037793383131
 21
-129.3986215185148
 31
0.0
  0
INSERT
  5
6FCB
330
6FBA
100
AcDbEntity
  8
30
  6
Continuous
 62
     0
100
AcDbBlockReference
  2
_OPEN
 10
134.4371126716464
 20
-129.3986215185148
 30
0.0
 41
2.0
 42
2.0
 43
2.0
  0
INSERT
  5
6FCC
330
6FBA
100
AcDbEntity
  8
30
  6
Continuous
 62
     0
100
AcDbBlockReference
  2
_OPEN
 10
138.4371126716464
 20
-129.3986215185148
 30
0.0
 41
2.0
 42
2.0
 43
2.0
 50
180.0
  0
MTEXT
  5
6FCD
330
6FBA
100
AcDbEntity
  8
30
  6
Continuous
 62
     0
100
AcDbMText
 10
144.7704460049796
 20
-126.3986215185147
 30
0.0
 40
4.0
 41
0.0
 71
     5
 72
     1
  1
\A1;4
 73
     1
 44
1.0
1001
ACAD
1000
MTEXTBEGIN
1070
    73
1070
     1
1070
    44
1040
1.0
1070
    74
1070
     0
1000
MTEXTEND
  0
POINT
  5
6FCE
330
6FBA
100
AcDbEntity
  8
DEFPOINTS
  6
Continuous
 62
     0
100
AcDbPoint
 10
134.4371126716464
 20
-24.98970744689653
 30
0.0
  0
POINT
  5
6FCF
330
6FBA
100
AcDbEntity
  8
DEFPOINTS
  6
Continuous
 62
     0
100
AcDbPoint
 10
138.4371126716464
 20
-129.3986215185148
 30
0.0
  0
POINT
  5
6FD0
330
6FBA
100
AcDbEntity
  8
DEFPOINTS
  6
Continuous
 62
     0
100
AcDbPoint
 10
138.4371126716464
 20
-129.3986215185148
 30
0.0
  0
ENDBLK
  5
6FC6
330
6FBA
100
AcDbEntity
  8
0
100
AcDbBlockEnd
  0
BLOCK
  5
6FDC
330
6FD2
100
AcDbEntity
  8
0
100
AcDbBlockBegin
  2
*D25
 70
     1
 10
0.0
 20
0.0
 30
0.0
  3
*D25
  1

  0
LINE
  5
6FD3
330
6FD2
100
AcDbEntity
  8
30
  6
Continuous
 62
     0
100
AcDbLine
 10
245.4371126716464
 20
-119.6634516797933
 30
0.0
 11
245.4371126716464
 21
-141.3967505611178
 31
0.0
  0
LINE
  5
6FD4
330
6FD2
100
AcDbEntity
  8
30
  6
Continuous
 62
     0
100
AcDbLine
 10
118.4371126716464
 20
-0.9897074468965419
 30
0.0
 11
118.4371126716464
 21
-141.3967505611178
 31
0.0
  0
LINE
  5
6FD5
330
6FD2
100
AcDbEntity
  8
30
  6
Continuous
 62
     0
100
AcDbLine
 10
243.4371126716464
 20
-140.8967505611178
 30
0.0
 11
120.4371126716464
 21
-140.8967505611178
 31
0.0
  0
INSERT
  5
6FD6
330
6FD2
100
AcDbEntity
  8
30
  6
Continuous
 62
     0
100
AcDbBlockReference
  2
_OPEN
 10
245.4371126716464
 20
-140.8967505611178
 30
0.0
 41
2.0
 42
2.0
 43
2.0
  0
INSERT
  5
6FD7
330
6FD2
100
AcDbEntity
  8
30
  6
Continuous
 62
     0
100
AcDbBlockReference
  2
_OPEN
 10
118.4371126716464
 20
-140.8967505611178
 30
0.0
 41
2.0
 42
2.0
 43
2.0
 50
180.0
  0
MTEXT
  5
6FD8
330
6FD2
100
AcDbEntity
  8
30
  6
Continuous
 62
     0
100
AcDbMText
 10
181.9371126716464
 20
-137.8967505611178
 30
0.0
 40
4.0
 41
0.0
 71
     5
 72
     1
  1
\A1;127
 73
     1
 44
1.0
1001
ACAD
1000
MTEXTBEGIN
1070
    73
1070
     1
1070
    44
1040
1.0
1070
    74
1070
     0
1000
MTEXTEND
  0
POINT
  5
6FD9
330
6FD2
100
AcDbEntity
  8
DEFPOINTS
  6
Continuous
 62
     0
100
AcDbPoint
 10
245.4371126716464
 20
-118.6634516797933
 30
0.0
  0
POINT
  5
6FDA
330
6FD2
100
AcDbEntity
  8
DEFPOINTS
  6
Continuous
 62
     0
100
AcDbPoint
 10
118.4371126716464
 20
0.0102925531034581
 30
0.0
  0
POINT
  5
6FDB
330
6FD2
100
AcDbEntity
  8
DEFPOINTS
  6
Continuous
 62
     0
100
AcDbPoint
 10
118.4371126716464
 20
-140.8967505611178
 30
0.0
  0
ENDBLK
  5
6FDD
330
6FD2
100
AcDbEntity
  8
0
100
AcDbBlockEnd
  0
BLOCK
  5
6FEF
330
6FE5
100
AcDbEntity
  8
0
100
AcDbBlockBegin
  2
*D26
 70
     1
 10
0.0
 20
0.0
 30
0.0
  3
*D26
  1

  0
LINE
  5
6FE6
330
6FE5
100
AcDbEntity
  8
30
  6
Continuous
 62
     0
100
AcDbLine
 10
-17.88009453517117
 20
-319.5
 30
0.0
 11
-17.88009453517119
 21
-359.8804450066014
 31
0.0
  0
LINE
  5
6FE7
330
6FE5
100
AcDbEntity
  8
30
  6
Continuous
 62
     0
100
AcDbLine
 10
17.11990546482881
 20
-319.5
 30
0.0
 11
17.1199054648288
 21
-359.8804450066014
 31
0.0
  0
LINE
  5
6FE8
330
6FE5
100
AcDbEntity
  8
30
  6
Continuous
 62
     0
100
AcDbLine
 10
-15.88009453517118
 20
-359.3804450066013
 30
0.0
 11
15.1199054648288
 21
-359.3804450066013
 31
0.0
  0
INSERT
  5
6FE9
330
6FE5
100
AcDbEntity
  8
30
  6
Continuous
 62
     0
100
AcDbBlockReference
  2
_OPEN
 10
-17.88009453517119
 20
-359.3804450066013
 30
0.0
 41
2.0
 42
2.0
 43
2.0
 50
180.0
  0
INSERT
  5
6FEA
330
6FE5
100
AcDbEntity
  8
30
  6
Continuous
 62
     0
100
AcDbBlockReference
  2
_OPEN
 10
17.1199054648288
 20
-359.3804450066013
 30
0.0
 41
2.0
 42
2.0
 43
2.0
  0
MTEXT
  5
6FEB
330
6FE5
100
AcDbEntity
  8
30
  6
Continuous
 62
     0
100
AcDbMText
 10
-0.3800945351711922
 20
-356.3804450066013
 30
0.0
 40
4.0
 41
0.0
 71
     5
 72
     1
  1
\A1;35
 73
     1
 44
1.0
1001
ACAD
1000
MTEXTBEGIN
1070
    73
1070
     1
1070
    44
1040
1.0
1070
    74
1070
     0
1000
MTEXTEND
  0
POINT
  5
6FEC
330
6FE5
100
AcDbEntity
  8
DEFPOINTS
  6
Continuous
 62
     0
100
AcDbPoint
 10
-17.88009453517117
 20
-318.5
 30
0.0
  0
POINT
  5
6FED
330
6FE5
100
AcDbEntity
  8
DEFPOINTS
  6
Continuous
 62
     0
100
AcDbPoint
 10
17.11990546482881
 20
-318.5
 30
0.0
  0
POINT
  5
6FEE
330
6FE5
100
AcDbEntity
  8
DEFPOINTS
  6
Continuous
 62
     0
100
AcDbPoint
 10
17.1199054648288
 20
-359.3804450066013
 30
0.0
  0
ENDBLK
  5
6FF0
330
6FE5
100
AcDbEntity
  8
0
100
AcDbBlockEnd
  0
BLOCK
  5
71DF
330
71D5
100
AcDbEntity
  8
0
100
AcDbBlockBegin
  2
*D27
 70
     1
 10
0.0
 20
0.0
 30
0.0
  3
*D27
  1

  0
LINE
  5
71E1
330
71D5
100
AcDbEntity
  8
30
  6
Continuous
 62
     0
100
AcDbLine
 10
245.4371126716464
 20
83.51029255310345
 30
0.0
 11
245.4371126716464
 21
99.72052838371746
 31
0.0
  0
LINE
  5
71E2
330
71D5
100
AcDbEntity
  8
30
  6
Continuous
 62
     0
100
AcDbLine
 10
186.4371126716464
 20
83.51029255310345
 30
0.0
 11
186.4371126716464
 21
99.72052838371746
 31
0.0
  0
LINE
  5
71E3
330
71D5
100
AcDbEntity
  8
30
  6
Continuous
 62
     0
100
AcDbLine
 10
243.4371126716464
 20
99.22052838371747
 30
0.0
 11
188.4371126716464
 21
99.22052838371747
 31
0.0
  0
INSERT
  5
71E4
330
71D5
100
AcDbEntity
  8
30
  6
Continuous
 62
     0
100
AcDbBlockReference
  2
_OPEN
 10
245.4371126716464
 20
99.22052838371747
 30
0.0
 41
2.0
 42
2.0
 43
2.0
  0
INSERT
  5
71E5
330
71D5
100
AcDbEntity
  8
30
  6
Continuous
 62
     0
100
AcDbBlockReference
  2
_OPEN
 10
186.4371126716464
 20
99.22052838371747
 30
0.0
 41
2.0
 42
2.0
 43
2.0
 50
180.0
  0
MTEXT
  5
71E6
330
71D5
100
AcDbEntity
  8
30
  6
Continuous
 62
     0
100
AcDbMText
 10
215.9371126716464
 20
102.2205283837174
 30
0.0
 40
4.0
 41
0.0
 71
     5
 72
     1
  1
\A1;59
 73
     1
 44
1.0
1001
ACAD
1000
MTEXTBEGIN
1070
    73
1070
     1
1070
    44
1040
1.0
1070
    74
1070
     0
1000
MTEXTEND
  0
POINT
  5
71E7
330
71D5
100
AcDbEntity
  8
DEFPOINTS
  6
Continuous
 62
     0
100
AcDbPoint
 10
245.4371126716464
 20
82.51029255310346
 30
0.0
  0
POINT
  5
71E8
330
71D5
100
AcDbEntity
  8
DEFPOINTS
  6
Continuous
 62
     0
100
AcDbPoint
 10
186.4371126716464
 20
82.51029255310346
 30
0.0
  0
POINT
  5
71E9
330
71D5
100
AcDbEntity
  8
DEFPOINTS
  6
Continuous
 62
     0
100
AcDbPoint
 10
186.4371126716464
 20
99.22052838371747
 30
0.0
  0
ENDBLK
  5
71E0
330
71D5
100
AcDbEntity
  8
0
100
AcDbBlockEnd
  0
BLOCK
  5
7344
330
7343
100
AcDbEntity
  8
0
100
AcDbBlockBegin
  2
*D29
 70
     1
 10
0.0
 20
0.0
 30
0.0
  3
*D29
  1

  0
LINE
  5
7346
330
7343
100
AcDbEntity
  8
30
  6
Continuous
 62
     0
370
    -2
100
AcDbLine
 10
88.49999999999999
 20
326.8165692823121
 30
0.0
 11
97.55663734150632
 21
326.8165692823121
 31
0.0
  0
LINE
  5
7347
330
7343
100
AcDbEntity
  8
30
  6
Continuous
 62
     0
370
    -2
100
AcDbLine
 10
88.50000000000003
 20
230.8165692823123
 30
0.0
 11
97.5566373415063
 21
230.8165692823123
 31
0.0
  0
LINE
  5
7348
330
7343
100
AcDbEntity
  8
30
  6
Continuous
 62
     0
370
    -2
100
AcDbLine
 10
97.05663734150633
 20
324.8165692823121
 30
0.0
 11
97.05663734150631
 21
232.8165692823123
 31
0.0
  0
INSERT
  5
7349
330
7343
100
AcDbEntity
  8
30
  6
Continuous
 62
     0
370
    -2
100
AcDbBlockReference
  2
_OPEN
 10
97.05663734150633
 20
326.8165692823121
 30
0.0
 41
2.0
 42
2.0
 43
2.0
 50
90.0
  0
INSERT
  5
734A
330
7343
100
AcDbEntity
  8
30
  6
Continuous
 62
     0
370
    -2
100
AcDbBlockReference
  2
_OPEN
 10
97.05663734150631
 20
230.8165692823123
 30
0.0
 41
2.0
 42
2.0
 43
2.0
 50
270.0
  0
MTEXT
  5
734B
330
7343
100
AcDbEntity
  8
30
  6
Continuous
 62
     0
100
AcDbMText
 10
94.05663734150627
 20
278.8165692823122
 30
0.0
 40
4.0
 41
0.0
 71
     5
 72
     1
  1
\A1;96
 11
0.0000000000000001
 21
1.0
 31
0.0
 73
     1
 44
1.0
1001
ACAD
1000
MTEXTBEGIN
1070
    73
1070
     1
1070
    44
1040
1.0
1070
    74
1070
     0
1000
MTEXTEND
  0
POINT
  5
734C
330
7343
100
AcDbEntity
  8
DEFPOINTS
  6
Continuous
 62
     0
100
AcDbPoint
 10
87.49999999999998
 20
326.8165692823121
 30
0.0
  0
POINT
  5
734D
330
7343
100
AcDbEntity
  8
DEFPOINTS
  6
Continuous
 62
     0
100
AcDbPoint
 10
87.50000000000003
 20
230.8165692823123
 30
0.0
  0
POINT
  5
734E
330
7343
100
AcDbEntity
  8
DEFPOINTS
  6
Continuous
 62
     0
100
AcDbPoint
 10
97.05663734150631
 20
230.8165692823123
 30
0.0
  0
ENDBLK
  5
7345
330
7343
100
AcDbEntity
  8
0
100
AcDbBlockEnd
  0
BLOCK
  5
7351
330
7350
100
AcDbEntity
  8
0
100
AcDbBlockBegin
  2
*D30
 70
     1
 10
0.0
 20
0.0
 30
0.0
  3
*D30
  1

  0
LINE
  5
7353
330
7350
100
AcDbEntity
  8
30
  6
Continuous
 62
     0
370
    -2
100
AcDbLine
 10
88.49999999999999
 20
326.8165692823121
 30
0.0
 11
111.555791995876
 21
326.8165692823121
 31
0.0
  0
LINE
  5
7354
330
7350
100
AcDbEntity
  8
30
  6
Continuous
 62
     0
370
    -2
100
AcDbLine
 10
88.50000000000003
 20
223.8165692823123
 30
0.0
 11
111.555791995876
 21
223.8165692823123
 31
0.0
  0
LINE
  5
7355
330
7350
100
AcDbEntity
  8
30
  6
Continuous
 62
     0
370
    -2
100
AcDbLine
 10
111.055791995876
 20
324.8165692823121
 30
0.0
 11
111.055791995876
 21
225.8165692823123
 31
0.0
  0
INSERT
  5
7356
330
7350
100
AcDbEntity
  8
30
  6
Continuous
 62
     0
370
    -2
100
AcDbBlockReference
  2
_OPEN
 10
111.055791995876
 20
326.8165692823121
 30
0.0
 41
2.0
 42
2.0
 43
2.0
 50
90.0
  0
INSERT
  5
7357
330
7350
100
AcDbEntity
  8
30
  6
Continuous
 62
     0
370
    -2
100
AcDbBlockReference
  2
_OPEN
 10
111.055791995876
 20
223.8165692823123
 30
0.0
 41
2.0
 42
2.0
 43
2.0
 50
270.0
  0
MTEXT
  5
7358
330
7350
100
AcDbEntity
  8
30
  6
Continuous
 62
     0
100
AcDbMText
 10
108.0557919958759
 20
275.3165692823122
 30
0.0
 40
4.0
 41
0.0
 71
     5
 72
     1
  1
\A1;103
 11
0.0000000000000001
 21
1.0
 31
0.0
 73
     1
 44
1.0
1001
ACAD
1000
MTEXTBEGIN
1070
    73
1070
     1
1070
    44
1040
1.0
1070
    74
1070
     0
1000
MTEXTEND
  0
POINT
  5
7359
330
7350
100
AcDbEntity
  8
DEFPOINTS
  6
Continuous
 62
     0
100
AcDbPoint
 10
87.49999999999998
 20
326.8165692823121
 30
0.0
  0
POINT
  5
735A
330
7350
100
AcDbEntity
  8
DEFPOINTS
  6
Continuous
 62
     0
100
AcDbPoint
 10
87.50000000000003
 20
223.8165692823123
 30
0.0
  0
POINT
  5
735B
330
7350
100
AcDbEntity
  8
DEFPOINTS
  6
Continuous
 62
     0
100
AcDbPoint
 10
111.055791995876
 20
223.8165692823123
 30
0.0
  0
ENDBLK
  5
7352
330
7350
100
AcDbEntity
  8
0
100
AcDbBlockEnd
  0
BLOCK
  5
735E
330
735D
100
AcDbEntity
  8
0
100
AcDbBlockBegin
  2
*D31
 70
     1
 10
0.0
 20
0.0
 30
0.0
  3
*D31
  1

  0
LINE
  5
7360
330
735D
100
AcDbEntity
  8
30
  6
Continuous
 62
     0
370
    -2
100
AcDbLine
 10
88.49999999999999
 20
326.8165692823121
 30
0.0
 11
123.4809933074107
 21
326.8165692823121
 31
0.0
  0
LINE
  5
7361
330
735D
100
AcDbEntity
  8
30
  6
Continuous
 62
     0
370
    -2
100
AcDbLine
 10
49.99999999999997
 20
219.8165692823123
 30
0.0
 11
123.4809933074107
 21
219.8165692823123
 31
0.0
  0
LINE
  5
7362
330
735D
100
AcDbEntity
  8
30
  6
Continuous
 62
     0
370
    -2
100
AcDbLine
 10
122.9809933074107
 20
324.8165692823121
 30
0.0
 11
122.9809933074107
 21
221.8165692823123
 31
0.0
  0
INSERT
  5
7363
330
735D
100
AcDbEntity
  8
30
  6
Continuous
 62
     0
370
    -2
100
AcDbBlockReference
  2
_OPEN
 10
122.9809933074107
 20
326.8165692823121
 30
0.0
 41
2.0
 42
2.0
 43
2.0
 50
90.0
  0
INSERT
  5
7364
330
735D
100
AcDbEntity
  8
30
  6
Continuous
 62
     0
370
    -2
100
AcDbBlockReference
  2
_OPEN
 10
122.9809933074107
 20
219.8165692823123
 30
0.0
 41
2.0
 42
2.0
 43
2.0
 50
270.0
  0
MTEXT
  5
7365
330
735D
100
AcDbEntity
  8
30
  6
Continuous
 62
     0
100
AcDbMText
 10
119.9809933074106
 20
273.3165692823122
 30
0.0
 40
4.0
 41
0.0
 71
     5
 72
     1
  1
\A1;107
 11
0.0000000000000001
 21
1.0
 31
0.0
 73
     1
 44
1.0
1001
ACAD
1000
MTEXTBEGIN
1070
    73
1070
     1
1070
    44
1040
1.0
1070
    74
1070
     0
1000
MTEXTEND
  0
POINT
  5
7366
330
735D
100
AcDbEntity
  8
DEFPOINTS
  6
Continuous
 62
     0
100
AcDbPoint
 10
87.49999999999998
 20
326.8165692823121
 30
0.0
  0
POINT
  5
7367
330
735D
100
AcDbEntity
  8
DEFPOINTS
  6
Continuous
 62
     0
100
AcDbPoint
 10
48.99999999999997
 20
219.8165692823123
 30
0.0
  0
POINT
  5
7368
330
735D
100
AcDbEntity
  8
DEFPOINTS
  6
Continuous
 62
     0
100
AcDbPoint
 10
122.9809933074107
 20
219.8165692823123
 30
0.0
  0
ENDBLK
  5
735F
330
735D
100
AcDbEntity
  8
0
100
AcDbBlockEnd
  0
ENDSEC
  0
SECTION
  2
ENTITIES
  0
LINE
  5
B4
330
1E
100
AcDbEntity
  8
16
100
AcDbLine
 10
0.0
 20
-102.2888408455455
 30
0.0
 11
0.0
 21
158.7392682680622
 31
0.0
  0
LINE
  5
B5
330
1E
100
AcDbEntity
  8
16
100
AcDbLine
 10
71.77465564206305
 20
-0.0000000000000018
 30
0.0
 11
-83.90588178115756
 21
-0.0000000000000018
 31
0.0
  0
MTEXT
  5
BF3
330
1E
100
AcDbEntity
  8
24
  6
Continuous
100
AcDbMText
 10
140.9820964648285
 20
176.3476821548369
 30
0.0
 40
3.0
 41
0.0
 71
     1
 72
     1
  1
\A1;
 73
     1
 44
1.0
1001
ACAD
1000
MTEXTBEGIN
1070
    73
1070
     1
1070
    44
1040
1.0
1070
    74
1070
     0
1000
MTEXTEND
  0
LINE
  5
1C9A
330
1E
100
AcDbEntity
  8
16
100
AcDbLine
 10
0.000000000000004
 20
185.6887571888092
 30
0.0
 11
0.000000000000004
 21
280.2384784421551
 31
0.0
  0
LINE
  5
1C9B
330
1E
100
AcDbEntity
  8
16
100
AcDbLine
 10
252.2605240987882
 20
0.0102925531034544
 30
0.0
 11
120.0952764866181
 21
0.0102925531034544
 31
0.0
  0
LINE
  5
2260
330
1E
100
AcDbEntity
  8
16
100
AcDbLine
 10
87.32666213088251
 20
-250.0
 30
0.0
 11
-80.93000773675209
 21
-250.0
 31
0.0
  0
LINE
  5
2261
330
1E
100
AcDbEntity
  8
16
100
AcDbLine
 10
-0.3800945351711884
 20
-350.4150635072006
 30
0.0
 11
-0.3800945351711884
 21
-151.2797245348689
 31
0.0
  0
LINE
  5
4C5A
330
1E
100
AcDbEntity
  8
16
100
AcDbLine
 10
88.49441808474184
 20
-0.0000000000000018
 30
0.0
 11
-83.90588178115756
 21
-0.0000000000000018
 31
0.0
  0
MTEXT
  5
5C78
330
1E
100
AcDbEntity
  8
30
  6
Continuous
100
AcDbMText
 10
162.3297648581359
 20
88.99793930010117
 30
0.0
 40
4.0
 41
0.0
 71
     9
 72
     1
  1

 73
     1
 44
1.0
1001
ACAD
1000
MTEXTBEGIN
1070
    73
1070
     1
1070
    44
1040
1.0
1070
    74
1070
     0
1000
MTEXTEND
  0
MTEXT
  5
6068
330
1E
100
AcDbEntity
  8
30
  6
Continuous
100
AcDbMText
 10
-34.12327828532269
 20
-164.9086974155603
 30
0.0
 40
4.0
 41
0.0
 71
     9
 72
     1
  1

 73
     1
 44
1.0
1001
ACAD
1000
MTEXTBEGIN
1070
    73
1070
     1
1070
    44
1040
1.0
1070
    74
1070
     0
1000
MTEXTEND
  0
LINE
  5
6466
330
1E
100
AcDbEntity
  8
16
100
AcDbLine
 10
209.6199054648288
 20
-350.4150635072006
 30
0.0
 11
209.6199054648288
 21
-151.2797245348689
 31
0.0
  0
LINE
  5
646E
330
1E
100
AcDbEntity
  8
16
100
AcDbLine
 10
297.3266621308825
 20
-250.0
 30
0.0
 11
129.0699922632479
 21
-250.0
 31
0.0
  0
LINE
  5
6A17
330
1E
100
AcDbEntity
  8
10
  6
Continuous
100
AcDbLine
 10
-52.49999999999997
 20
82.5
 30
0.0
 11
-52.49999999999997
 21
-82.5
 31
0.0
  0
LINE
  5
6A18
330
1E
100
AcDbEntity
  8
10
  6
Continuous
100
AcDbLine
 10
87.5
 20
82.5
 30
0.0
 11
87.5
 21
-82.5
 31
0.0
  0
LINE
  5
6A37
330
1E
100
AcDbEntity
  8
10
  6
Continuous
100
AcDbLine
 10
-52.49999999999997
 20
-82.5
 30
0.0
 11
81.5
 21
-82.5
 31
0.0
  0
LINE
  5
6A44
330
1E
100
AcDbEntity
  8
10
  6
Continuous
100
AcDbLine
 10
81.5
 20
-82.5
 30
0.0
 11
87.5
 21
-82.5
 31
0.0
  0
LINE
  5
6A45
330
1E
100
AcDbEntity
  8
10
  6
Continuous
100
AcDbLine
 10
-49.0
 20
-25.0
 30
0.0
 11
49.0
 21
-25.0
 31
0.0
  0
LINE
  5
6A46
330
1E
100
AcDbEntity
  8
10
  6
Continuous
100
AcDbLine
 10
-49.0
 20
25.0
 30
0.0
 11
49.0
 21
25.0
 31
0.0
  0
LINE
  5
6A47
330
1E
100
AcDbEntity
  8
10
  6
Continuous
100
AcDbLine
 10
-52.49999999999997
 20
-51.0
 30
0.0
 11
87.5
 21
-51.0
 31
0.0
  0
LINE
  5
6A49
330
1E
100
AcDbEntity
  8
10
  6
Continuous
100
AcDbLine
 10
-49.0
 20
25.0
 30
0.0
 11
-49.0
 21
-25.0
 31
0.0
  0
LINE
  5
6A4A
330
1E
100
AcDbEntity
  8
10
  6
Continuous
100
AcDbLine
 10
11.0
 20
25.0
 30
0.0
 11
11.0
 21
-25.0
 31
0.0
  0
LINE
  5
6A4B
330
1E
100
AcDbEntity
  8
10
  6
Continuous
100
AcDbLine
 10
-11.0
 20
25.0
 30
0.0
 11
-11.0
 21
-25.0
 31
0.0
  0
LINE
  5
6A4C
330
1E
100
AcDbEntity
  8
12
  6
DASHED
100
AcDbLine
 10
-23.0
 20
-63.0
 30
0.0
 11
-12.0
 21
-63.0
 31
0.0
  0
CIRCLE
  5
6A4D
330
1E
100
AcDbEntity
  8
12
  6
DASHED
100
AcDbCircle
 10
17.5
 20
-63.0
 30
0.0
 40
4.0
210
0.0
220
0.0
230
-1.0
  0
LINE
  5
6A54
330
1E
100
AcDbEntity
  8
12
  6
DASHED
100
AcDbLine
 10
-17.5
 20
-68.5
 30
0.0
 11
-17.5
 21
-57.5
 31
0.0
  0
LINE
  5
6A56
330
1E
100
AcDbEntity
  8
12
  6
DASHED
100
AcDbLine
 10
17.5
 20
-68.5
 30
0.0
 11
17.5
 21
-57.5
 31
0.0
  0
CIRCLE
  5
6A57
330
1E
100
AcDbEntity
  8
12
  6
DASHED
100
AcDbCircle
 10
17.5
 20
-63.0
 30
0.0
 40
4.0
  0
LINE
  5
6A59
330
1E
100
AcDbEntity
  8
12
  6
DASHED
100
AcDbLine
 10
12.0
 20
-63.0
 30
0.0
 11
23.0
 21
-63.0
 31
0.0
  0
LINE
  5
6A5A
330
1E
100
AcDbEntity
  8
10
  6
Continuous
100
AcDbLine
 10
-7.0
 20
-18.5
 30
0.0
 11
-6.999999999999943
 21
20.15486870581022
 31
0.0
  0
LINE
  5
6A5B
330
1E
100
AcDbEntity
  8
10
  6
Continuous
100
AcDbLine
 10
7.0
 20
-18.5
 30
0.0
 11
7.000000000000056
 21
20.15486870581028
 31
0.0
  0
LINE
  5
6A5C
330
1E
100
AcDbEntity
  8
10
  6
Continuous
100
AcDbLine
 10
-7.0
 20
-18.5
 30
0.0
 11
7.0
 21
-18.5
 31
0.0
  0
LINE
  5
6A5D
330
1E
100
AcDbEntity
  8
10
  6
Continuous
100
AcDbLine
 10
7.0
 20
6.840789306861521
 30
0.0
 11
-6.999999999999147
 21
6.84078930686158
 31
0.0
  0
LINE
  5
6A5E
330
1E
100
AcDbEntity
  8
10
  6
Continuous
100
AcDbLine
 10
7.0
 20
20.15486870581028
 30
0.0
 11
-7.000000000000964
 21
20.15486870581022
 31
0.0
  0
LINE
  5
6A5F
330
1E
100
AcDbEntity
  8
10
  6
Continuous
100
AcDbLine
 10
7.0
 20
15.23995644007664
 30
0.0
 11
-7.0
 21
15.23995644007664
 31
0.0
  0
LINE
  5
6A60
330
1E
100
AcDbEntity
  8
10
  6
Continuous
100
AcDbLine
 10
49.0
 20
25.0
 30
0.0
 11
49.0
 21
-25.0
 31
0.0
  0
LINE
  5
6A68
330
1E
100
AcDbEntity
  8
18
100
AcDbLine
 10
54.0
 20
182.5
 30
0.0
 11
54.0
 21
82.49999999999992
 31
0.0
  0
LINE
  5
6A69
330
1E
100
AcDbEntity
  8
18
100
AcDbLine
 10
51.0
 20
182.5
 30
0.0
 11
51.0
 21
82.49999999999992
 31
0.0
  0
LINE
  5
6A6A
330
1E
100
AcDbEntity
  8
18
100
AcDbLine
 10
19.0
 20
182.5
 30
0.0
 11
19.0
 21
82.49999999999992
 31
0.0
  0
LINE
  5
6A6B
330
1E
100
AcDbEntity
  8
18
100
AcDbLine
 10
16.0
 20
182.5
 30
0.0
 11
16.0
 21
82.49999999999992
 31
0.0
  0
LINE
  5
6A6C
330
1E
100
AcDbEntity
  8
18
100
AcDbLine
 10
-19.0
 20
182.5
 30
0.0
 11
-19.0
 21
82.49999999999992
 31
0.0
  0
LINE
  5
6A6D
330
1E
100
AcDbEntity
  8
18
100
AcDbLine
 10
-16.0
 20
182.5
 30
0.0
 11
-16.0
 21
82.49999999999992
 31
0.0
  0
LINE
  5
6A6F
330
1E
100
AcDbEntity
  8
10
  6
Continuous
100
AcDbLine
 10
-52.49999999999997
 20
51.0
 30
0.0
 11
87.5
 21
51.0
 31
0.0
  0
LINE
  5
6A90
330
1E
100
AcDbEntity
  8
10
  6
Continuous
100
AcDbLine
 10
87.5
 20
82.5
 30
0.0
 11
-52.49999999999997
 21
82.5
 31
0.0
  0
LINE
  5
6A9C
330
1E
100
AcDbEntity
  8
10
  6
Continuous
100
AcDbLine
 10
67.6381761751403
 20
39.25213720581871
 30
0.0
 11
68.35620885841871
 21
39.97016988909715
 31
0.0
  0
LINE
  5
6A9D
330
1E
100
AcDbEntity
  8
10
  6
Continuous
100
AcDbLine
 10
67.11032778078657
 20
41.74999999999999
 30
0.0
 11
72.5
 21
34.05046825826664
 31
0.0
  0
LINE
  5
6A9E
330
1E
100
AcDbEntity
  8
10
  6
Continuous
100
AcDbLine
 10
66.5
 20
38.46751442127171
 30
0.0
 11
68.21062805052736
 21
40.17814247179904
 31
0.0
  0
LINE
  5
6A9F
330
1E
100
AcDbEntity
  8
10
  6
Continuous
100
AcDbLine
 10
66.5
 20
39.17462120245815
 30
0.0
 11
67.91946643474472
 21
40.59408763720284
 31
0.0
  0
LINE
  5
6AA0
330
1E
100
AcDbEntity
  8
10
  6
Continuous
100
AcDbLine
 10
66.5
 20
39.52817459305146
 30
0.0
 11
67.77388562685326
 21
40.80206021990483
 31
0.0
  0
LINE
  5
6AA1
330
1E
100
AcDbEntity
  8
10
  6
Continuous
100
AcDbLine
 10
67.5
 20
39.44953174173333
 30
0.0
 11
72.88967221921325
 21
31.75000000000002
 31
0.0
  0
LINE
  5
6AA2
330
1E
100
AcDbEntity
  8
10
  6
Continuous
100
AcDbLine
 10
66.5
 20
38.82106781186488
 30
0.0
 11
68.065047242636
 21
40.38611505450091
 31
0.0
  0
CIRCLE
  5
6AA6
330
1E
100
AcDbEntity
  8
10
  6
Continuous
100
AcDbCircle
 10
70.0
 20
36.75
 30
0.0
 40
8.0
  0
LINE
  5
6AA7
330
1E
100
AcDbEntity
  8
10
  6
Continuous
100
AcDbLine
 10
66.5
 20
31.75
 30
0.0
 11
66.5
 21
41.74999999999999
 31
0.0
  0
LINE
  5
6AA8
330
1E
100
AcDbEntity
  8
10
  6
Continuous
100
AcDbLine
 10
66.5
 20
40.94238815542442
 30
0.0
 11
67.19156239528803
 21
41.6339505507124
 31
0.0
  0
LINE
  5
6AA9
330
1E
100
AcDbEntity
  8
10
  6
Continuous
100
AcDbLine
 10
66.5
 20
41.29594154601767
 30
0.0
 11
66.95405845398233
 21
41.74999999999999
 31
0.0
  0
LINE
  5
6AAA
330
1E
100
AcDbEntity
  8
10
  6
Continuous
100
AcDbLine
 10
66.5
 20
34.2248737341527
 30
0.0
 11
67.5
 21
35.22487373415272
 31
0.0
  0
LINE
  5
6AAB
330
1E
100
AcDbEntity
  8
10
  6
Continuous
100
AcDbLine
 10
66.5
 20
31.75
 30
0.0
 11
67.5
 21
31.75
 31
0.0
  0
LINE
  5
6AAC
330
1E
100
AcDbEntity
  8
10
  6
Continuous
100
AcDbLine
 10
66.85355339059327
 20
31.75000000000002
 30
0.0
 11
67.5
 21
32.39644660940669
 31
0.0
  0
LINE
  5
6AAD
330
1E
100
AcDbEntity
  8
10
  6
Continuous
100
AcDbLine
 10
66.5
 20
35.6390872965257
 30
0.0
 11
67.5
 21
36.6390872965257
 31
0.0
  0
LINE
  5
6AAE
330
1E
100
AcDbEntity
  8
10
  6
Continuous
100
AcDbLine
 10
66.5
 20
33.1642135623729
 30
0.0
 11
67.5
 21
34.1642135623729
 31
0.0
  0
LINE
  5
6AAF
330
1E
100
AcDbEntity
  8
10
  6
Continuous
100
AcDbLine
 10
66.5
 20
31.75
 30
0.0
 11
67.5
 21
32.74999999999997
 31
0.0
  0
LINE
  5
6AB0
330
1E
100
AcDbEntity
  8
10
  6
Continuous
100
AcDbLine
 10
66.5
 20
34.57842712474597
 30
0.0
 11
67.5
 21
35.57842712474597
 31
0.0
  0
LINE
  5
6AB1
330
1E
100
AcDbEntity
  8
10
  6
Continuous
100
AcDbLine
 10
66.5
 20
38.11396103067844
 30
0.0
 11
67.5
 21
39.1139610306784
 31
0.0
  0
LINE
  5
6AB2
330
1E
100
AcDbEntity
  8
10
  6
Continuous
100
AcDbLine
 10
66.5
 20
40.5888347648312
 30
0.0
 11
67.33714320317925
 21
41.42597796801047
 31
0.0
  0
LINE
  5
6AB3
330
1E
100
AcDbEntity
  8
10
  6
Continuous
100
AcDbLine
 10
66.5
 20
33.87132034355946
 30
0.0
 11
67.5
 21
34.87132034355946
 31
0.0
  0
LINE
  5
6AB4
330
1E
100
AcDbEntity
  8
10
  6
Continuous
100
AcDbLine
 10
66.5
 20
37.05330085889869
 30
0.0
 11
67.5
 21
38.05330085889869
 31
0.0
  0
LINE
  5
6AB5
330
1E
100
AcDbEntity
  8
10
  6
Continuous
100
AcDbLine
 10
66.5
 20
32.81066017177966
 30
0.0
 11
67.5
 21
33.81066017177966
 31
0.0
  0
LINE
  5
6AB6
330
1E
100
AcDbEntity
  8
10
  6
Continuous
100
AcDbLine
 10
66.5
 20
36.69974746830543
 30
0.0
 11
67.5
 21
37.69974746830544
 31
0.0
  0
LINE
  5
6AB7
330
1E
100
AcDbEntity
  8
10
  6
Continuous
100
AcDbLine
 10
66.5
 20
32.10355339059319
 30
0.0
 11
67.5
 21
33.10355339059319
 31
0.0
  0
LINE
  5
6AB8
330
1E
100
AcDbEntity
  8
10
  6
Continuous
100
AcDbLine
 10
67.20710678118661
 20
31.75
 30
0.0
 11
67.5
 21
32.04289321881343
 31
0.0
  0
LINE
  5
6AB9
330
1E
100
AcDbEntity
  8
10
  6
Continuous
100
AcDbLine
 10
66.5
 20
35.99264068711892
 30
0.0
 11
67.5
 21
36.99264068711892
 31
0.0
  0
LINE
  5
6ABA
330
1E
100
AcDbEntity
  8
10
  6
Continuous
100
AcDbLine
 10
67.5
 20
39.44953174173329
 30
0.0
 11
67.5
 21
31.75
 31
0.0
  0
LINE
  5
6ABB
330
1E
100
AcDbEntity
  8
10
  6
Continuous
100
AcDbLine
 10
66.5
 20
39.88172798364468
 30
0.0
 11
67.62830481896202
 21
41.01003280260662
 31
0.0
  0
LINE
  5
6ABC
330
1E
100
AcDbEntity
  8
10
  6
Continuous
100
AcDbLine
 10
66.5
 20
33.51776695296617
 30
0.0
 11
67.5
 21
34.51776695296617
 31
0.0
  0
LINE
  5
6ABD
330
1E
100
AcDbEntity
  8
10
  6
Continuous
100
AcDbLine
 10
66.5
 20
37.406854249492
 30
0.0
 11
67.5
 21
38.40685424949199
 31
0.0
  0
LINE
  5
6ABE
330
1E
100
AcDbEntity
  8
10
  6
Continuous
100
AcDbLine
 10
66.5
 20
34.93198051533919
 30
0.0
 11
67.5
 21
35.93198051533921
 31
0.0
  0
LINE
  5
6ABF
330
1E
100
AcDbEntity
  8
10
  6
Continuous
100
AcDbLine
 10
66.5
 20
32.45710678118649
 30
0.0
 11
67.5
 21
33.45710678118649
 31
0.0
  0
LINE
  5
6AC0
330
1E
100
AcDbEntity
  8
10
  6
Continuous
100
AcDbLine
 10
66.5
 20
36.34619407771218
 30
0.0
 11
67.5
 21
37.34619407771218
 31
0.0
  0
LINE
  5
6AC1
330
1E
100
AcDbEntity
  8
10
  6
Continuous
100
AcDbLine
 10
66.5
 20
40.23528137423798
 30
0.0
 11
67.48272401107062
 21
41.21800538530857
 31
0.0
  0
LINE
  5
6AC2
330
1E
100
AcDbEntity
  8
10
  6
Continuous
100
AcDbLine
 10
66.5
 20
37.76040764008518
 30
0.0
 11
67.5
 21
38.76040764008518
 31
0.0
  0
LINE
  5
6AC3
330
1E
100
AcDbEntity
  8
10
  6
Continuous
100
AcDbLine
 10
66.5
 20
35.28553390593243
 30
0.0
 11
67.5
 21
36.28553390593243
 31
0.0
  0
LINE
  5
6AC4
330
1E
100
AcDbEntity
  8
10
  6
Continuous
100
AcDbLine
 10
66.5
 20
41.74999999999999
 30
0.0
 11
67.11032778078657
 21
41.74999999999999
 31
0.0
  0
LINE
  5
6AC5
330
1E
100
AcDbEntity
  8
10
  6
Continuous
100
AcDbLine
 10
66.5
 20
41.64949493661086
 30
0.0
 11
66.60050506338911
 21
41.74999999999999
 31
0.0
  0
LINE
  5
6ACC
330
1E
100
AcDbEntity
  8
10
  6
Continuous
100
AcDbLine
 10
72.5
 20
40.93198051533929
 30
0.0
 11
73.31801948466072
 21
41.74999999999999
 31
0.0
  0
LINE
  5
6ACD
330
1E
100
AcDbEntity
  8
10
  6
Continuous
100
AcDbLine
 10
73.5
 20
31.75
 30
0.0
 11
73.5
 21
41.74999999999999
 31
0.0
  0
LINE
  5
6ACE
330
1E
100
AcDbEntity
  8
10
  6
Continuous
100
AcDbLine
 10
72.5
 20
40.57842712474601
 30
0.0
 11
73.5
 21
41.57842712474599
 31
0.0
  0
LINE
  5
6ACF
330
1E
100
AcDbEntity
  8
10
  6
Continuous
100
AcDbLine
 10
72.5
 20
41.28553390593242
 30
0.0
 11
72.96446609406761
 21
41.74999999999999
 31
0.0
  0
LINE
  5
6AD0
330
1E
100
AcDbEntity
  8
10
  6
Continuous
100
AcDbLine
 10
72.5
 20
34.05046825826664
 30
0.0
 11
72.5
 21
41.74999999999999
 31
0.0
  0
LINE
  5
6AD1
330
1E
100
AcDbEntity
  8
10
  6
Continuous
100
AcDbLine
 10
69.82188829351031
 20
36.13254846529
 30
0.0
 11
70.53992097678878
 21
36.85058114856841
 31
0.0
  0
LINE
  5
6AD2
330
1E
100
AcDbEntity
  8
10
  6
Continuous
100
AcDbLine
 10
72.00560041188031
 20
33.0129597247614
 30
0.0
 11
73.5
 21
34.50735931288105
 31
0.0
  0
LINE
  5
6AD3
330
1E
100
AcDbEntity
  8
10
  6
Continuous
100
AcDbLine
 10
71.42327718031492
 20
33.844850055569
 30
0.0
 11
72.1413098635935
 21
34.56288273884743
 31
0.0
  0
LINE
  5
6AD4
330
1E
100
AcDbEntity
  8
10
  6
Continuous
100
AcDbLine
 10
67.78375698303159
 20
39.04416462311678
 30
0.0
 11
68.50178966631006
 21
39.76219730639519
 31
0.0
  0
LINE
  5
6AD5
330
1E
100
AcDbEntity
  8
10
  6
Continuous
100
AcDbLine
 10
73.21751442127169
 20
31.75
 30
0.0
 11
73.5
 21
32.03248557872825
 31
0.0
  0
LINE
  5
6AD6
330
1E
100
AcDbEntity
  8
10
  6
Continuous
100
AcDbLine
 10
72.5
 20
35.98223304703373
 30
0.0
 11
73.5
 21
36.98223304703372
 31
0.0
  0
LINE
  5
6AD7
330
1E
100
AcDbEntity
  8
10
  6
Continuous
100
AcDbLine
 10
70.8409539487497
 20
34.67674038637667
 30
0.0
 11
71.55898663202805
 21
35.39477306965503
 31
0.0
  0
LINE
  5
6AD8
330
1E
100
AcDbEntity
  8
10
  6
Continuous
100
AcDbLine
 10
68.80282263827092
 20
37.5883565442034
 30
0.0
 11
69.52085532154939
 21
38.30638922748184
 31
0.0
  0
LINE
  5
6AD9
330
1E
100
AcDbEntity
  8
10
  6
Continuous
100
AcDbLine
 10
72.5
 20
37.04289321881343
 30
0.0
 11
73.5
 21
38.04289321881345
 31
0.0
  0
LINE
  5
6ADA
330
1E
100
AcDbEntity
  8
10
  6
Continuous
100
AcDbLine
 10
70.40421152507571
 20
35.30065813448243
 30
0.0
 11
71.12224420835406
 21
36.01869081776084
 31
0.0
  0
LINE
  5
6ADB
330
1E
100
AcDbEntity
  8
10
  6
Continuous
100
AcDbLine
 10
72.58792364344564
 20
32.18106939395369
 30
0.0
 11
73.5
 21
33.09314575050803
 31
0.0
  0
LINE
  5
6ADC
330
1E
100
AcDbEntity
  8
10
  6
Continuous
100
AcDbLine
 10
69.38514586983625
 20
36.75646621339572
 30
0.0
 11
70.10317855311479
 21
37.47449889667415
 31
0.0
  0
LINE
  5
6ADD
330
1E
100
AcDbEntity
  8
10
  6
Continuous
100
AcDbLine
 10
71.56885798820633
 20
33.63687747286709
 30
0.0
 11
72.28689067148486
 21
34.35491015614555
 31
0.0
  0
LINE
  5
6ADE
330
1E
100
AcDbEntity
  8
10
  6
Continuous
100
AcDbLine
 10
72.5
 20
34.56801948466077
 30
0.0
 11
73.5
 21
35.56801948466076
 31
0.0
  0
LINE
  5
6ADF
330
1E
100
AcDbEntity
  8
10
  6
Continuous
100
AcDbLine
 10
70.98653475664093
 20
34.46876780367471
 30
0.0
 11
71.70456743991934
 21
35.18680048695316
 31
0.0
  0
LINE
  5
6AE0
330
1E
100
AcDbEntity
  8
10
  6
Continuous
100
AcDbLine
 10
68.51166102248822
 20
38.00430170960729
 30
0.0
 11
69.22969370576658
 21
38.72233439288569
 31
0.0
  0
LINE
  5
6AE1
330
1E
100
AcDbEntity
  8
10
  6
Continuous
100
AcDbLine
 10
72.5
 20
38.10355339059318
 30
0.0
 11
73.5
 21
39.10355339059318
 31
0.0
  0
LINE
  5
6AE2
330
1E
100
AcDbEntity
  8
10
  6
Continuous
100
AcDbLine
 10
69.96746910140164
 20
35.92457588258814
 30
0.0
 11
70.68550178468012
 21
36.64260856586654
 31
0.0
  0
LINE
  5
6AE3
330
1E
100
AcDbEntity
  8
10
  6
Continuous
100
AcDbLine
 10
72.15118121977167
 20
32.80498714205946
 30
0.0
 11
73.5
 21
34.15380592228771
 31
0.0
  0
LINE
  5
6AE4
330
1E
100
AcDbEntity
  8
10
  6
Continuous
100
AcDbLine
 10
72.5
 20
38.45710678118649
 30
0.0
 11
73.5
 21
39.45710678118649
 31
0.0
  0
LINE
  5
6AE5
330
1E
100
AcDbEntity
  8
10
  6
Continuous
100
AcDbLine
 10
72.5
 20
39.51776695296617
 30
0.0
 11
73.5
 21
40.51776695296616
 31
0.0
  0
LINE
  5
6AE6
330
1E
100
AcDbEntity
  8
10
  6
Continuous
100
AcDbLine
 10
72.5
 20
35.62867965644045
 30
0.0
 11
73.5
 21
36.62867965644045
 31
0.0
  0
LINE
  5
6AE7
330
1E
100
AcDbEntity
  8
10
  6
Continuous
100
AcDbLine
 10
72.5
 20
39.87132034355946
 30
0.0
 11
73.5
 21
40.87132034355946
 31
0.0
  0
LINE
  5
6AE8
330
1E
100
AcDbEntity
  8
10
  6
Continuous
100
AcDbLine
 10
71.2776963724238
 20
34.05282263827093
 30
0.0
 11
71.99572905570216
 21
34.7708553215493
 31
0.0
  0
LINE
  5
6AE9
330
1E
100
AcDbEntity
  8
10
  6
Continuous
100
AcDbLine
 10
70.25863071718429
 20
35.50863071718429
 30
0.0
 11
70.9766634004627
 21
36.22666340046271
 31
0.0
  0
LINE
  5
6AEA
330
1E
100
AcDbEntity
  8
10
  6
Continuous
100
AcDbLine
 10
72.44234283555437
 20
32.38904197665559
 30
0.0
 11
73.5
 21
33.44669914110127
 31
0.0
  0
LINE
  5
6AEB
330
1E
100
AcDbEntity
  8
10
  6
Continuous
100
AcDbLine
 10
69.23956506194497
 20
36.96443879609768
 30
0.0
 11
69.95759774522338
 21
37.68247147937612
 31
0.0
  0
LINE
  5
6AEC
330
1E
100
AcDbEntity
  8
10
  6
Continuous
100
AcDbLine
 10
68.22049940670564
 20
38.42024687501103
 30
0.0
 11
68.93853208998399
 21
39.1382795582894
 31
0.0
  0
LINE
  5
6AED
330
1E
100
AcDbEntity
  8
10
  6
Continuous
100
AcDbLine
 10
68.94840344616233
 20
37.38038396150153
 30
0.0
 11
69.66643612944074
 21
38.09841664477989
 31
0.0
  0
LINE
  5
6AEE
330
1E
100
AcDbEntity
  8
10
  6
Continuous
100
AcDbLine
 10
72.5
 20
36.68933982822025
 30
0.0
 11
73.5
 21
37.68933982822025
 31
0.0
  0
LINE
  5
6AEF
330
1E
100
AcDbEntity
  8
10
  6
Continuous
100
AcDbLine
 10
70.54979233296681
 20
35.09268555178039
 30
0.0
 11
71.26782501624539
 21
35.81071823505885
 31
0.0
  0
LINE
  5
6AF0
330
1E
100
AcDbEntity
  8
10
  6
Continuous
100
AcDbLine
 10
72.73350445133705
 20
31.97309681125182
 30
0.0
 11
73.5
 21
32.73959235991475
 31
0.0
  0
LINE
  5
6AF1
330
1E
100
AcDbEntity
  8
10
  6
Continuous
100
AcDbLine
 10
72.5
 20
40.22487373415271
 30
0.0
 11
73.5
 21
41.22487373415276
 31
0.0
  0
LINE
  5
6AF2
330
1E
100
AcDbEntity
  8
10
  6
Continuous
100
AcDbLine
 10
72.5
 20
39.16421356237305
 30
0.0
 11
73.5
 21
40.16421356237303
 31
0.0
  0
LINE
  5
6AF3
330
1E
100
AcDbEntity
  8
10
  6
Continuous
100
AcDbLine
 10
69.53072667772767
 20
36.54849363069385
 30
0.0
 11
70.24875936100608
 21
37.26652631397223
 31
0.0
  0
LINE
  5
6AF4
330
1E
100
AcDbEntity
  8
10
  6
Continuous
100
AcDbLine
 10
72.5
 20
34.92157287525399
 30
0.0
 11
73.5
 21
35.92157287525397
 31
0.0
  0
LINE
  5
6AF5
330
1E
100
AcDbEntity
  8
10
  6
Continuous
100
AcDbLine
 10
71.71443879609774
 20
33.42890489016517
 30
0.0
 11
72.43247147937609
 21
34.14693757344355
 31
0.0
  0
LINE
  5
6AF6
330
1E
100
AcDbEntity
  8
10
  6
Continuous
100
AcDbLine
 10
71.13211556453234
 20
34.26079522097285
 30
0.0
 11
71.85014824781081
 21
34.97882790425129
 31
0.0
  0
LINE
  5
6AF7
330
1E
100
AcDbEntity
  8
10
  6
Continuous
100
AcDbLine
 10
73.5
 20
31.75
 30
0.0
 11
72.88967221921343
 21
31.75
 31
0.0
  0
LINE
  5
6AF8
330
1E
100
AcDbEntity
  8
10
  6
Continuous
100
AcDbLine
 10
68.36608021459688
 20
38.21227429230916
 30
0.0
 11
69.08411289787534
 21
38.93030697558756
 31
0.0
  0
LINE
  5
6AF9
330
1E
100
AcDbEntity
  8
10
  6
Continuous
100
AcDbLine
 10
72.5
 20
37.39644660940682
 30
0.0
 11
73.5
 21
38.39644660940681
 31
0.0
  0
LINE
  5
6AFA
330
1E
100
AcDbEntity
  8
10
  6
Continuous
100
AcDbLine
 10
70.11304990929288
 20
35.71660329988617
 30
0.0
 11
70.83108259257142
 21
36.43463598316454
 31
0.0
  0
LINE
  5
6AFB
330
1E
100
AcDbEntity
  8
10
  6
Continuous
100
AcDbLine
 10
72.29676202766301
 20
32.59701455935758
 30
0.0
 11
73.5
 21
33.80025253169453
 31
0.0
  0
LINE
  5
6AFC
330
1E
100
AcDbEntity
  8
10
  6
Continuous
100
AcDbLine
 10
72.5
 20
37.75
 30
0.0
 11
73.5
 21
38.75
 31
0.0
  0
LINE
  5
6AFD
330
1E
100
AcDbEntity
  8
10
  6
Continuous
100
AcDbLine
 10
68.07491859881429
 20
38.62821945771298
 30
0.0
 11
68.79295128209264
 21
39.34625214099138
 31
0.0
  0
LINE
  5
6AFE
330
1E
100
AcDbEntity
  8
10
  6
Continuous
100
AcDbLine
 10
69.09398425405362
 20
37.17241137879954
 30
0.0
 11
69.81201693733197
 21
37.89044406207803
 31
0.0
  0
LINE
  5
6AFF
330
1E
100
AcDbEntity
  8
10
  6
Continuous
100
AcDbLine
 10
72.5
 20
36.33578643762698
 30
0.0
 11
73.5
 21
37.33578643762696
 31
0.0
  0
LINE
  5
6B00
330
1E
100
AcDbEntity
  8
10
  6
Continuous
100
AcDbLine
 10
70.69537314085841
 20
34.88471296907855
 30
0.0
 11
71.41340582413666
 21
35.60274565235697
 31
0.0
  0
LINE
  5
6B01
330
1E
100
AcDbEntity
  8
10
  6
Continuous
100
AcDbLine
 10
72.5
 20
38.81066017177966
 30
0.0
 11
73.5
 21
39.81066017177965
 31
0.0
  0
LINE
  5
6B02
330
1E
100
AcDbEntity
  8
10
  6
Continuous
100
AcDbLine
 10
72.5
 20
34.21446609406743
 30
0.0
 11
73.5
 21
35.21446609406743
 31
0.0
  0
LINE
  5
6B03
330
1E
100
AcDbEntity
  8
10
  6
Continuous
100
AcDbLine
 10
69.67630748561908
 20
36.34052104799197
 30
0.0
 11
70.39434016889737
 21
37.05855373127042
 31
0.0
  0
LINE
  5
6B04
330
1E
100
AcDbEntity
  8
10
  6
Continuous
100
AcDbLine
 10
71.86001960398897
 20
33.2209323074633
 30
0.0
 11
73.5
 21
34.86091270347427
 31
0.0
  0
LINE
  5
6B05
330
1E
100
AcDbEntity
  8
10
  6
Continuous
100
AcDbLine
 10
67.92933779092283
 20
38.83619204041488
 30
0.0
 11
68.64737047420135
 21
39.55422472369326
 31
0.0
  0
LINE
  5
6B06
330
1E
100
AcDbEntity
  8
10
  6
Continuous
100
AcDbLine
 10
72.5
 20
35.27512626584722
 30
0.0
 11
73.5
 21
36.27512626584723
 31
0.0
  0
LINE
  5
6B07
330
1E
100
AcDbEntity
  8
10
  6
Continuous
100
AcDbLine
 10
68.65724183037963
 20
37.79632912690532
 30
0.0
 11
69.37527451365804
 21
38.51436181018371
 31
0.0
  0
LINE
  5
6B08
330
1E
100
AcDbEntity
  8
10
  6
Continuous
100
AcDbLine
 10
72.86396103067847
 20
31.75
 30
0.0
 11
73.5
 21
32.38603896932147
 31
0.0
  0
LINE
  5
6B09
330
1E
100
AcDbEntity
  8
10
  6
Continuous
100
AcDbLine
 10
72.5
 20
41.74999999999999
 30
0.0
 11
73.5
 21
41.74999999999999
 31
0.0
  0
LINE
  5
6B0A
330
1E
100
AcDbEntity
  8
10
  6
Continuous
100
AcDbLine
 10
72.5
 20
41.63908729652574
 30
0.0
 11
72.6109127034743
 21
41.74999999999999
 31
0.0
  0
LINE
  5
6B16
330
1E
100
AcDbEntity
  8
18
100
AcDbLine
 10
-16.0
 20
182.5
 30
0.0
 11
-19.0
 21
182.5
 31
0.0
  0
LINE
  5
6B17
330
1E
100
AcDbEntity
  8
18
100
AcDbLine
 10
16.0
 20
182.5
 30
0.0
 11
19.0
 21
182.5
 31
0.0
  0
LINE
  5
6B18
330
1E
100
AcDbEntity
  8
18
100
AcDbLine
 10
51.0
 20
182.5
 30
0.0
 11
54.0
 21
182.5
 31
0.0
  0
LINE
  5
6B40
330
1E
100
AcDbEntity
  8
10
  6
Continuous
100
AcDbLine
 10
142.4371126716464
 20
51.01029255310345
 30
0.0
 11
142.4371126716464
 21
-50.98970744689655
 31
0.0
  0
LINE
  5
6B41
330
1E
100
AcDbEntity
  8
10
  6
Continuous
100
AcDbLine
 10
245.4371126716464
 20
82.51029255310346
 30
0.0
 11
245.4371126716464
 21
-82.48970744689655
 31
0.0
  0
LINE
  5
6B42
330
1E
100
AcDbEntity
  8
12
  6
DASHED
100
AcDbLine
 10
165.4371126716464
 20
-65.23970744689655
 30
0.0
 11
245.4371126716464
 21
-65.23970744689655
 31
0.0
  0
LINE
  5
6B43
330
1E
100
AcDbEntity
  8
12
  6
DASHED
100
AcDbLine
 10
165.4371126716464
 20
-60.73970744689654
 30
0.0
 11
245.4371126716464
 21
-60.73970744689654
 31
0.0
  0
LINE
  5
6B44
330
1E
100
AcDbEntity
  8
12
  6
DASHED
100
AcDbLine
 10
144.4371126716464
 20
-62.98970744689654
 30
0.0
 11
263.4371126716463
 21
-62.98970744689654
 31
0.0
  0
LINE
  5
6B46
330
1E
100
AcDbEntity
  8
10
  6
Continuous
100
AcDbLine
 10
149.4371126716464
 20
-82.48970744689655
 30
0.0
 11
245.4371126716464
 21
-82.48970744689655
 31
0.0
  0
LINE
  5
6B47
330
1E
100
AcDbEntity
  8
10
  6
Continuous
100
AcDbLine
 10
149.4371126716464
 20
-50.98970744689655
 30
0.0
 11
149.4371126716464
 21
-82.48970744689655
 31
0.0
  0
LINE
  5
6B4B
330
1E
100
AcDbEntity
  8
10
  6
Continuous
100
AcDbLine
 10
134.4371126716464
 20
14.17572939253349
 30
0.0
 11
125.8833174901573
 21
20.16516125891405
 31
0.0
  0
LINE
  5
6B4C
330
1E
100
AcDbEntity
  8
10
  6
Continuous
100
AcDbLine
 10
134.4371126716464
 20
6.851081859964748
 30
0.0
 11
122.441858872051
 21
15.25024899318008
 31
0.0
  0
ARC
  5
6B4D
330
1E
100
AcDbEntity
  8
30
  6
Continuous
100
AcDbCircle
 10
149.4371126716464
 20
0.0102925531034544
 30
0.0
 40
31.0
100
AcDbArc
 50
150.5534441956586
 51
180.0
  0
LINE
  5
6B4E
330
1E
100
AcDbEntity
  8
10
  6
Continuous
100
AcDbLine
 10
122.441858872051
 20
15.25024899318008
 30
0.0
 11
125.8833174901573
 21
20.16516125891405
 31
0.0
  0
LINE
  5
6B4F
330
1E
100
AcDbEntity
  8
10
  6
Continuous
100
AcDbLine
 10
138.4371126716464
 20
25.01029255310344
 30
0.0
 11
138.4371126716464
 21
-24.98970744689653
 31
0.0
  0
LINE
  5
6B50
330
1E
100
AcDbEntity
  8
10
  6
Continuous
100
AcDbLine
 10
134.4371126716464
 20
25.01029255310344
 30
0.0
 11
134.4371126716464
 21
-24.98970744689653
 31
0.0
  0
LINE
  5
6B51
330
1E
100
AcDbEntity
  8
12
  6
DASHED
100
AcDbLine
 10
149.4371126716458
 20
-67.23970744689655
 30
0.0
 11
165.4371126716464
 21
-67.23970744689655
 31
0.0
  0
LINE
  5
6B52
330
1E
100
AcDbEntity
  8
12
  6
DASHED
100
AcDbLine
 10
149.4371126716458
 20
-58.73970744689654
 30
0.0
 11
165.4371126716464
 21
-58.73970744689654
 31
0.0
  0
LINE
  5
6B53
330
1E
100
AcDbEntity
  8
10
  6
Continuous
100
AcDbLine
 10
142.4371126716464
 20
-50.98970744689655
 30
0.0
 11
149.4371126716464
 21
-50.98970744689655
 31
0.0
  0
LINE
  5
6B54
330
1E
100
AcDbEntity
  8
12
  6
DASHED
100
AcDbLine
 10
165.4371126716464
 20
-58.73970744689654
 30
0.0
 11
165.4371126716464
 21
-67.23970744689655
 31
0.0
  0
LINE
  5
6B55
330
1E
100
AcDbEntity
  8
12
  6
DASHED
100
AcDbLine
 10
159.4371126716464
 20
-58.73970744689654
 30
0.0
 11
159.4371126716464
 21
-67.23970744689655
 31
0.0
  0
LINE
  5
6B56
330
1E
100
AcDbEntity
  8
12
  6
DASHED
100
AcDbLine
 10
165.4371126716464
 20
-65.23970744689655
 30
0.0
 11
165.4371126716464
 21
-67.23970744689655
 31
0.0
  0
LINE
  5
6B57
330
1E
100
AcDbEntity
  8
12
  6
DASHED
100
AcDbLine
 10
165.4371126716464
 20
-58.73970744689654
 30
0.0
 11
165.4371126716464
 21
-60.73970744689654
 31
0.0
  0
LINE
  5
6B58
330
1E
100
AcDbEntity
  8
10
  6
Continuous
100
AcDbLine
 10
134.4371126716464
 20
-24.98970744689653
 30
0.0
 11
142.4371126716464
 21
-24.98970744689653
 31
0.0
  0
LINE
  5
6B59
330
1E
100
AcDbEntity
  8
10
  6
Continuous
100
AcDbLine
 10
134.4371126716464
 20
25.01029255310344
 30
0.0
 11
142.4371126716464
 21
25.01029255310344
 31
0.0
  0
LINE
  5
6B5A
330
1E
100
AcDbEntity
  8
12
  6
DASHED
100
AcDbLine
 10
253.4371126716464
 20
-60.73970744689654
 30
0.0
 11
253.4371126716464
 21
-65.23970744689655
 31
0.0
  0
LINE
  5
6B5B
330
1E
100
AcDbEntity
  8
12
  6
DASHED
100
AcDbLine
 10
245.4371126716464
 20
-65.23970744689655
 30
0.0
 11
253.4371126716464
 21
-65.23970744689655
 31
0.0
  0
LINE
  5
6B5C
330
1E
100
AcDbEntity
  8
12
  6
DASHED
100
AcDbLine
 10
245.4371126716464
 20
-60.73970744689654
 30
0.0
 11
253.4371126716464
 21
-60.73970744689654
 31
0.0
  0
LINE
  5
6B5D
330
1E
100
AcDbEntity
  8
10
  6
Continuous
100
AcDbLine
 10
245.4371126716464
 20
82.51029255310346
 30
0.0
 11
149.4371126716464
 21
82.51029255310346
 31
0.0
  0
LINE
  5
6B5E
330
1E
100
AcDbEntity
  8
10
  6
Continuous
100
AcDbLine
 10
149.4371126716464
 20
82.51029255310346
 30
0.0
 11
149.4371126716464
 21
51.01029255310345
 31
0.0
  0
LINE
  5
6B5F
330
1E
100
AcDbEntity
  8
10
  6
Continuous
100
AcDbLine
 10
142.4371126716464
 20
51.01029255310345
 30
0.0
 11
149.4371126716464
 21
51.01029255310345
 31
0.0
  0
LINE
  5
6B79
330
1E
100
AcDbEntity
  8
18
  6
DIVIDE
100
AcDbLine
 10
157.1199054648284
 20
-332.5
 30
0.0
 11
297.1199054648284
 21
-332.5
 31
0.0
  0
LINE
  5
6B7A
330
1E
100
AcDbEntity
  8
18
  6
DIVIDE
100
AcDbLine
 10
297.1199054648284
 20
-167.5
 30
0.0
 11
157.1199054648284
 21
-167.5
 31
0.0
  0
ARC
  5
6B7B
330
1E
100
AcDbEntity
  8
11
 48
2.0
100
AcDbCircle
 10
160.6199054648288
 20
-275.0
 30
0.0
 40
1.0
100
AcDbArc
 50
180.0
 51
270.0
  0
ARC
  5
6B7C
330
1E
100
AcDbEntity
  8
11
 48
2.0
100
AcDbCircle
 10
160.6199054648288
 20
-225.0
 30
0.0
 40
1.0
100
AcDbArc
 50
90.0
 51
180.0
  0
LINE
  5
6B7D
330
1E
100
AcDbEntity
  8
18
  6
DIVIDE
100
AcDbLine
 10
157.1199054648288
 20
-167.5
 30
0.0
 11
157.1199054648288
 21
-332.5
 31
0.0
  0
LINE
  5
6B7E
330
1E
100
AcDbEntity
  8
11
 48
2.0
100
AcDbLine
 10
159.6199054648288
 20
-225.0
 30
0.0
 11
159.6199054648288
 21
-275.0
 31
0.0
  0
LINE
  5
6B7F
330
1E
100
AcDbEntity
  8
18
  6
DIVIDE
100
AcDbLine
 10
297.1199054648284
 20
-167.5
 30
0.0
 11
297.1199054648284
 21
-332.5
 31
0.0
  0
ARC
  5
6B82
330
1E
100
AcDbEntity
  8
11
 48
2.0
100
AcDbCircle
 10
258.6199054648286
 20
-275.0
 30
0.0
 40
1.0
100
AcDbArc
 50
270.0
 51
0.0
  0
LINE
  5
6B83
330
1E
100
AcDbEntity
  8
11
 48
2.0
100
AcDbLine
 10
160.6199054648288
 20
-276.0
 30
0.0
 11
258.6199054648286
 21
-276.0
 31
0.0
  0
LINE
  5
6B84
330
1E
100
AcDbEntity
  8
11
 48
2.0
100
AcDbLine
 10
160.6199054648288
 20
-224.0
 30
0.0
 11
258.6199054648286
 21
-224.0
 31
0.0
  0
LINE
  5
6B85
330
1E
100
AcDbEntity
  8
11
 48
2.0
100
AcDbLine
 10
259.6199054648286
 20
-225.0
 30
0.0
 11
259.6199054648286
 21
-275.0
 31
0.0
  0
ARC
  5
6B86
330
1E
100
AcDbEntity
  8
11
 48
2.0
100
AcDbCircle
 10
258.6199054648286
 20
-225.0
 30
0.0
 40
1.0
100
AcDbArc
 50
0.0
 51
90.0
  0
LINE
  5
6B9E
330
1E
100
AcDbEntity
  8
18
  6
DIVIDE
100
AcDbLine
 10
87.11990546482882
 20
-167.5
 30
0.0
 11
87.11990546482882
 21
-332.5
 31
0.0
  0
LINE
  5
6B9F
330
1E
100
AcDbEntity
  8
18
  6
DIVIDE
100
AcDbLine
 10
-52.88009453517117
 20
-167.5
 30
0.0
 11
-52.88009453517117
 21
-332.5
 31
0.0
  0
LINE
  5
6BA1
330
1E
100
AcDbEntity
  8
18
  6
DIVIDE
100
AcDbLine
 10
-52.88009453517117
 20
-332.5
 30
0.0
 11
87.11990546482882
 21
-332.5
 31
0.0
  0
LINE
  5
6BA2
330
1E
100
AcDbEntity
  8
12
  6
Continuous
 62
     3
100
AcDbLine
 10
11.61990546482881
 20
-313.0
 30
0.0
 11
22.61990546482881
 21
-313.0
 31
0.0
  0
CIRCLE
  5
6BA3
330
1E
100
AcDbEntity
  8
12
  6
Continuous
 62
     3
100
AcDbCircle
 10
17.11990546482881
 20
-313.0
 30
0.0
 40
2.0
  0
LINE
  5
6BA4
330
1E
100
AcDbEntity
  8
12
  6
Continuous
 62
     3
100
AcDbLine
 10
-17.88009453517117
 20
-318.5
 30
0.0
 11
-17.88009453517117
 21
-307.5
 31
0.0
  0
CIRCLE
  5
6BA5
330
1E
100
AcDbEntity
  8
12
  6
Continuous
 62
     3
100
AcDbCircle
 10
17.88009453517117
 20
-313.0
 30
0.0
 40
2.0
210
0.0
220
0.0
230
-1.0
  0
LINE
  5
6BA6
330
1E
100
AcDbEntity
  8
12
  6
Continuous
 62
     3
100
AcDbLine
 10
-23.38009453517118
 20
-313.0
 30
0.0
 11
-12.38009453517117
 21
-313.0
 31
0.0
  0
LINE
  5
6BA7
330
1E
100
AcDbEntity
  8
12
  6
Continuous
 62
     3
100
AcDbLine
 10
17.11990546482881
 20
-318.5
 30
0.0
 11
17.11990546482881
 21
-307.5
 31
0.0
  0
LINE
  5
6BA8
330
1E
100
AcDbEntity
  8
18
  6
DIVIDE
100
AcDbLine
 10
87.11990546482882
 20
-167.5
 30
0.0
 11
-52.88009453517117
 21
-167.5
 31
0.0
  0
LINE
  5
6BA9
330
1E
100
AcDbEntity
  8
12
  6
Continuous
 62
     3
100
AcDbLine
 10
11.61990546482881
 20
-187.0
 30
0.0
 11
22.61990546482881
 21
-187.0
 31
0.0
  0
CIRCLE
  5
6BAA
330
1E
100
AcDbEntity
  8
12
  6
Continuous
 62
     3
100
AcDbCircle
 10
-17.11990546482881
 20
-187.0
 30
0.0
 40
2.0
210
0.0
220
0.0
230
-1.0
  0
LINE
  5
6BAB
330
1E
100
AcDbEntity
  8
12
  6
Continuous
 62
     3
100
AcDbLine
 10
-17.88009453517117
 20
-181.4999999999999
 30
0.0
 11
-17.88009453517117
 21
-192.5
 31
0.0
  0
LINE
  5
6BAC
330
1E
100
AcDbEntity
  8
12
  6
Continuous
 62
     3
100
AcDbLine
 10
-23.38009453517118
 20
-187.0
 30
0.0
 11
-12.38009453517117
 21
-187.0
 31
0.0
  0
CIRCLE
  5
6BAD
330
1E
100
AcDbEntity
  8
12
  6
Continuous
 62
     3
100
AcDbCircle
 10
-17.88009453517117
 20
-187.0
 30
0.0
 40
2.0
  0
LINE
  5
6BAE
330
1E
100
AcDbEntity
  8
12
  6
Continuous
 62
     3
100
AcDbLine
 10
17.11990546482881
 20
-181.4999999999999
 30
0.0
 11
17.11990546482881
 21
-192.5
 31
0.0
  0
LINE
  5
6BCD
330
1E
100
AcDbEntity
  8
10
  6
CONTINOUS
100
AcDbLine
 10
-52.49999999999997
 20
326.8165692823121
 30
0.0
 11
87.49999999999998
 21
326.8165692823121
 31
0.0
  0
LINE
  5
6BD5
330
1E
100
AcDbEntity
  8
10
  6
CONTINOUS
100
AcDbLine
 10
-52.49999999999997
 20
230.8165692823123
 30
0.0
 11
-52.49999999999997
 21
326.8165692823121
 31
0.0
  0
DIMENSION
  5
6BE4
330
1E
100
AcDbEntity
  8
30
  6
Continuous
100
AcDbDimension
  2
*D1
 10
35.0
 20
309.7406209576415
 30
0.0
 11
17.5
 21
312.7406209576415
 31
0.0
 70
    32
 71
     5
 42
-1.0
  3
STANDARD
100
AcDbAlignedDimension
 13
0.0
 23
269.8933368984127
 33
0.0
 14
35.0
 24
272.8165692823121
 34
0.0
100
AcDbRotatedDimension
1001
ACAD
1000
DSTYLE
1002
{
1070
    79
1070
     3
1002
}
  0
LINE
  5
6BEB
330
1E
100
AcDbEntity
  8
10
  6
CONTINOUS
100
AcDbLine
 10
-52.49999999999997
 20
230.8165692823123
 30
0.0
 11
87.49999999999998
 21
230.8165692823122
 31
0.0
  0
LINE
  5
6C09
330
1E
100
AcDbEntity
  8
10
  6
CONTINOUS
100
AcDbLine
 10
87.49999999999998
 20
230.8165692823122
 30
0.0
 11
87.49999999999998
 21
326.8165692823121
 31
0.0
  0
LINE
  5
6CEB
330
1E
100
AcDbEntity
  8
24
  6
CONTINOUS
100
AcDbLine
 10
-5.0
 20
260.6165692823119
 30
0.0
 11
5.0
 21
260.6165692823119
 31
0.0
  0
LINE
  5
6CEC
330
1E
100
AcDbEntity
  8
24
  6
CONTINOUS
100
AcDbLine
 10
-10.5
 20
267.8165692823121
 30
0.0
 11
10.5000000000001
 21
267.8165692823121
 31
0.0
  0
LINE
  5
6CED
330
1E
100
AcDbEntity
  8
24
  6
CONTINOUS
100
AcDbLine
 10
-7.699999999999931
 20
265.8165692823121
 30
0.0
 11
7.700000000000045
 21
265.8165692823121
 31
0.0
  0
LINE
  5
6CEE
330
1E
100
AcDbEntity
  8
24
  6
CONTINOUS
100
AcDbLine
 10
-10.5
 20
269.8165692823121
 30
0.0
 11
10.5000000000001
 21
269.8165692823121
 31
0.0
  0
LINE
  5
6CEF
330
1E
100
AcDbEntity
  8
24
  6
CONTINOUS
100
AcDbLine
 10
0.0
 20
255.6165692823118
 30
0.0
 11
0.0
 21
272.8165692823121
 31
0.0
  0
LINE
  5
6CF0
330
1E
100
AcDbEntity
  8
24
  6
CONTINOUS
100
AcDbLine
 10
-7.0
 20
262.6165692823119
 30
0.0
 11
-7.0
 21
265.8165692823121
 31
0.0
  0
ARC
  5
6CF1
330
1E
100
AcDbEntity
  8
24
  6
CONTINOUS
100
AcDbCircle
 10
-5.0
 20
262.6165692823119
 30
0.0
 40
2.0
100
AcDbArc
 50
180.0
 51
270.0
  0
LINE
  5
6CF2
330
1E
100
AcDbEntity
  8
24
  6
Continuous
100
AcDbLine
 10
-10.5
 20
269.8165692823121
 30
0.0
 11
-10.5
 21
267.8165692823121
 31
0.0
  0
LINE
  5
6CF3
330
1E
100
AcDbEntity
  8
24
  6
CONTINOUS
100
AcDbLine
 10
-7.699999999999931
 20
265.8165692823121
 30
0.0
 11
-7.699999999999931
 21
267.8165692823121
 31
0.0
  0
LINE
  5
6CF4
330
1E
100
AcDbEntity
  8
24
  6
CONTINOUS
100
AcDbLine
 10
7.0
 20
262.6165692823119
 30
0.0
 11
7.0
 21
265.8165692823121
 31
0.0
  0
ARC
  5
6CF5
330
1E
100
AcDbEntity
  8
24
  6
CONTINOUS
100
AcDbCircle
 10
5.0
 20
262.6165692823119
 30
0.0
 40
2.0
100
AcDbArc
 50
270.0
 51
0.0
  0
LINE
  5
6CF6
330
1E
100
AcDbEntity
  8
24
  6
Continuous
100
AcDbLine
 10
10.5000000000001
 20
269.8165692823121
 30
0.0
 11
10.5000000000001
 21
267.8165692823121
 31
0.0
  0
LINE
  5
6CF7
330
1E
100
AcDbEntity
  8
24
  6
CONTINOUS
100
AcDbLine
 10
7.700000000000045
 20
265.8165692823121
 30
0.0
 11
7.700000000000045
 21
267.8165692823121
 31
0.0
  0
LINE
  5
6D34
330
1E
100
AcDbEntity
  8
24
  6
CONTINOUS
100
AcDbLine
 10
30.0
 20
260.6165692823119
 30
0.0
 11
40.0
 21
260.6165692823119
 31
0.0
  0
LINE
  5
6D35
330
1E
100
AcDbEntity
  8
24
  6
CONTINOUS
100
AcDbLine
 10
24.5
 20
267.8165692823121
 30
0.0
 11
45.5000000000001
 21
267.8165692823121
 31
0.0
  0
LINE
  5
6D36
330
1E
100
AcDbEntity
  8
24
  6
CONTINOUS
100
AcDbLine
 10
27.30000000000007
 20
265.8165692823121
 30
0.0
 11
42.70000000000004
 21
265.8165692823121
 31
0.0
  0
LINE
  5
6D37
330
1E
100
AcDbEntity
  8
24
  6
CONTINOUS
100
AcDbLine
 10
24.5
 20
269.8165692823121
 30
0.0
 11
45.5000000000001
 21
269.8165692823121
 31
0.0
  0
LINE
  5
6D38
330
1E
100
AcDbEntity
  8
24
  6
CONTINOUS
100
AcDbLine
 10
35.0
 20
255.6165692823118
 30
0.0
 11
35.0
 21
272.8165692823121
 31
0.0
  0
ARC
  5
6D39
330
1E
100
AcDbEntity
  8
24
  6
CONTINOUS
100
AcDbCircle
 10
30.0
 20
262.6165692823119
 30
0.0
 40
2.0
100
AcDbArc
 50
180.0
 51
270.0
  0
LINE
  5
6D3A
330
1E
100
AcDbEntity
  8
24
  6
CONTINOUS
100
AcDbLine
 10
27.30000000000007
 20
265.8165692823121
 30
0.0
 11
27.30000000000007
 21
267.8165692823121
 31
0.0
  0
LINE
  5
6D3B
330
1E
100
AcDbEntity
  8
24
  6
CONTINOUS
100
AcDbLine
 10
28.0
 20
262.6165692823119
 30
0.0
 11
28.0
 21
265.8165692823121
 31
0.0
  0
LINE
  5
6D3C
330
1E
100
AcDbEntity
  8
24
  6
Continuous
100
AcDbLine
 10
24.5
 20
269.8165692823121
 30
0.0
 11
24.5
 21
267.8165692823121
 31
0.0
  0
LINE
  5
6D3D
330
1E
100
AcDbEntity
  8
24
  6
CONTINOUS
100
AcDbLine
 10
42.0
 20
262.6165692823119
 30
0.0
 11
42.0
 21
265.8165692823121
 31
0.0
  0
ARC
  5
6D3E
330
1E
100
AcDbEntity
  8
24
  6
CONTINOUS
100
AcDbCircle
 10
40.0
 20
262.6165692823119
 30
0.0
 40
2.0
100
AcDbArc
 50
270.0
 51
0.0
  0
LINE
  5
6D3F
330
1E
100
AcDbEntity
  8
24
  6
CONTINOUS
100
AcDbLine
 10
42.70000000000004
 20
265.8165692823121
 30
0.0
 11
42.70000000000004
 21
267.8165692823121
 31
0.0
  0
LINE
  5
6D40
330
1E
100
AcDbEntity
  8
24
  6
Continuous
100
AcDbLine
 10
45.5000000000001
 20
269.8165692823121
 30
0.0
 11
45.5000000000001
 21
267.8165692823121
 31
0.0
  0
LINE
  5
6D4A
330
1E
100
AcDbEntity
  8
24
  6
CONTINOUS
100
AcDbLine
 10
59.5
 20
269.8165692823121
 30
0.0
 11
80.50000000000009
 21
269.8165692823121
 31
0.0
  0
LINE
  5
6D4B
330
1E
100
AcDbEntity
  8
24
  6
CONTINOUS
100
AcDbLine
 10
62.30000000000007
 20
265.8165692823121
 30
0.0
 11
77.70000000000004
 21
265.8165692823121
 31
0.0
  0
LINE
  5
6D4C
330
1E
100
AcDbEntity
  8
24
  6
CONTINOUS
100
AcDbLine
 10
59.5
 20
267.8165692823121
 30
0.0
 11
80.50000000000009
 21
267.8165692823121
 31
0.0
  0
LINE
  5
6D4D
330
1E
100
AcDbEntity
  8
24
  6
CONTINOUS
100
AcDbLine
 10
65.0
 20
260.6165692823119
 30
0.0
 11
75.0
 21
260.6165692823119
 31
0.0
  0
LINE
  5
6D4F
330
1E
100
AcDbEntity
  8
24
  6
CONTINOUS
100
AcDbLine
 10
70.0
 20
255.6165692823118
 30
0.0
 11
70.0
 21
272.8165692823121
 31
0.0
  0
ARC
  5
6D50
330
1E
100
AcDbEntity
  8
24
  6
CONTINOUS
100
AcDbCircle
 10
65.0
 20
262.6165692823119
 30
0.0
 40
2.0
100
AcDbArc
 50
180.0
 51
270.0
  0
LINE
  5
6D51
330
1E
100
AcDbEntity
  8
24
  6
CONTINOUS
100
AcDbLine
 10
63.0
 20
262.6165692823119
 30
0.0
 11
63.0
 21
265.8165692823121
 31
0.0
  0
LINE
  5
6D52
330
1E
100
AcDbEntity
  8
24
  6
CONTINOUS
100
AcDbLine
 10
62.30000000000007
 20
265.8165692823121
 30
0.0
 11
62.30000000000007
 21
267.8165692823121
 31
0.0
  0
LINE
  5
6D53
330
1E
100
AcDbEntity
  8
24
  6
Continuous
100
AcDbLine
 10
59.5
 20
269.8165692823121
 30
0.0
 11
59.5
 21
267.8165692823121
 31
0.0
  0
LINE
  5
6D54
330
1E
100
AcDbEntity
  8
24
  6
CONTINOUS
100
AcDbLine
 10
77.70000000000004
 20
265.8165692823121
 30
0.0
 11
77.70000000000004
 21
267.8165692823121
 31
0.0
  0
ARC
  5
6D55
330
1E
100
AcDbEntity
  8
24
  6
CONTINOUS
100
AcDbCircle
 10
75.0
 20
262.6165692823119
 30
0.0
 40
2.0
100
AcDbArc
 50
270.0
 51
0.0
  0
LINE
  5
6D56
330
1E
100
AcDbEntity
  8
24
  6
CONTINOUS
100
AcDbLine
 10
77.0
 20
262.6165692823119
 30
0.0
 11
77.0
 21
265.8165692823121
 31
0.0
  0
LINE
  5
6D57
330
1E
100
AcDbEntity
  8
24
  6
Continuous
100
AcDbLine
 10
80.50000000000009
 20
269.8165692823121
 30
0.0
 11
80.50000000000009
 21
267.8165692823121
 31
0.0
  0
DIMENSION
  5
6D58
330
1E
100
AcDbEntity
  8
30
  6
Continuous
100
AcDbDimension
  2
*D2
 10
70.0
 20
309.7406209576415
 30
0.0
 11
52.5
 21
312.7406209576415
 31
0.0
 70
    32
 71
     5
 42
-1.0
  3
STANDARD
100
AcDbAlignedDimension
 13
35.0
 23
269.8933368984127
 33
0.0
 14
70.0
 24
272.8165692823121
 34
0.0
100
AcDbRotatedDimension
1001
ACAD
1000
DSTYLE
1002
{
1070
    79
1070
     3
1002
}
  0
LINE
  5
6D6F
330
1E
100
AcDbEntity
  8
24
  6
CONTINOUS
100
AcDbLine
 10
-40.0
 20
260.6165692823119
 30
0.0
 11
-30.0
 21
260.6165692823119
 31
0.0
  0
LINE
  5
6D70
330
1E
100
AcDbEntity
  8
24
  6
CONTINOUS
100
AcDbLine
 10
-45.49999999999999
 20
267.8165692823121
 30
0.0
 11
-24.4999999999999
 21
267.8165692823121
 31
0.0
  0
LINE
  5
6D71
330
1E
100
AcDbEntity
  8
24
  6
CONTINOUS
100
AcDbLine
 10
-42.69999999999993
 20
265.8165692823121
 30
0.0
 11
-27.29999999999995
 21
265.8165692823121
 31
0.0
  0
LINE
  5
6D72
330
1E
100
AcDbEntity
  8
24
  6
CONTINOUS
100
AcDbLine
 10
-45.49999999999999
 20
269.8165692823121
 30
0.0
 11
-24.4999999999999
 21
269.8165692823121
 31
0.0
  0
LINE
  5
6D73
330
1E
100
AcDbEntity
  8
24
  6
CONTINOUS
100
AcDbLine
 10
-35.0
 20
255.6165692823118
 30
0.0
 11
-35.0
 21
272.8165692823121
 31
0.0
  0
ARC
  5
6D74
330
1E
100
AcDbEntity
  8
24
  6
CONTINOUS
100
AcDbCircle
 10
-40.0
 20
262.6165692823119
 30
0.0
 40
2.0
100
AcDbArc
 50
180.0
 51
270.0
  0
LINE
  5
6D75
330
1E
100
AcDbEntity
  8
24
  6
CONTINOUS
100
AcDbLine
 10
-42.69999999999993
 20
265.8165692823121
 30
0.0
 11
-42.69999999999993
 21
267.8165692823121
 31
0.0
  0
LINE
  5
6D76
330
1E
100
AcDbEntity
  8
24
  6
CONTINOUS
100
AcDbLine
 10
-42.0
 20
262.6165692823119
 30
0.0
 11
-42.0
 21
265.8165692823121
 31
0.0
  0
LINE
  5
6D77
330
1E
100
AcDbEntity
  8
24
  6
Continuous
100
AcDbLine
 10
-45.49999999999999
 20
269.8165692823121
 30
0.0
 11
-45.49999999999999
 21
267.8165692823121
 31
0.0
  0
LINE
  5
6D78
330
1E
100
AcDbEntity
  8
24
  6
CONTINOUS
100
AcDbLine
 10
-28.0
 20
262.6165692823119
 30
0.0
 11
-28.0
 21
265.8165692823121
 31
0.0
  0
ARC
  5
6D79
330
1E
100
AcDbEntity
  8
24
  6
CONTINOUS
100
AcDbCircle
 10
-30.0
 20
262.6165692823119
 30
0.0
 40
2.0
100
AcDbArc
 50
270.0
 51
0.0
  0
LINE
  5
6D7A
330
1E
100
AcDbEntity
  8
24
  6
CONTINOUS
100
AcDbLine
 10
-27.29999999999995
 20
265.8165692823121
 30
0.0
 11
-27.29999999999995
 21
267.8165692823121
 31
0.0
  0
LINE
  5
6D7B
330
1E
100
AcDbEntity
  8
24
  6
Continuous
100
AcDbLine
 10
-24.4999999999999
 20
269.8165692823121
 30
0.0
 11
-24.4999999999999
 21
267.8165692823121
 31
0.0
  0
DIMENSION
  5
6D7C
330
1E
100
AcDbEntity
  8
30
  6
Continuous
100
AcDbDimension
  2
*D3
 10
0.0000000000000023
 20
309.7406209576415
 30
0.0
 11
-17.5
 21
312.7406209576415
 31
0.0
 70
    32
 71
     5
 42
-1.0
  3
STANDARD
100
AcDbAlignedDimension
 13
-35.0
 23
269.8933368984127
 33
0.0
 14
0.0
 24
272.8165692823121
 34
0.0
100
AcDbRotatedDimension
1001
ACAD
1000
DSTYLE
1002
{
1070
    79
1070
     3
1002
}
  0
DIMENSION
  5
6D92
330
1E
100
AcDbEntity
  8
30
  6
Continuous
100
AcDbDimension
  2
*D4
 10
11.0
 20
-37.1652986185677
 30
0.0
 11
0.0000000000000002
 21
-34.1652986185677
 31
0.0
 70
    32
 71
     5
 42
-1.0
  3
STANDARD
100
AcDbAlignedDimension
 13
-11.0
 23
-25.0
 33
0.0
 14
11.0
 24
-25.0
 34
0.0
100
AcDbRotatedDimension
1001
ACAD
1000
DSTYLE
1002
{
1070
    79
1070
     3
1002
}
  0
DIMENSION
  5
6D9F
330
1E
100
AcDbEntity
  8
30
  6
Continuous
100
AcDbDimension
  2
*D5
 10
49.0
 20
33.97346616535605
 30
0.0
 11
0.0000000000000002
 21
36.97346616535607
 31
0.0
 70
    32
 71
     5
 42
-1.0
  3
STANDARD
100
AcDbAlignedDimension
 13
-49.0
 23
25.0
 33
0.0
 14
49.0
 24
25.0
 34
0.0
100
AcDbRotatedDimension
1001
ACAD
1000
DSTYLE
1002
{
1070
    79
1070
     3
1002
}
  0
DIMENSION
  5
6DFB
330
1E
100
AcDbEntity
  8
30
  6
Continuous
100
AcDbDimension
  2
*D6
 10
-0.0000000000000011
 20
-94.52992467875787
 30
0.0
 11
-17.5
 21
-91.52992467875789
 31
0.0
 70
    32
 71
     5
 42
-1.0
  3
STANDARD
100
AcDbAlignedDimension
 13
-35.0
 23
-78.0
 33
0.0
 14
0.0
 24
-76.0
 34
0.0
100
AcDbRotatedDimension
1001
ACAD
1000
DSTYLE
1002
{
1070
   287
1070
     4
1070
   279
1070
     1
1070
    79
1070
     3
1002
}
  0
DIMENSION
  5
6E08
330
1E
100
AcDbEntity
  8
30
  6
Continuous
100
AcDbDimension
  2
*D7
 10
35.0
 20
-94.52992467875787
 30
0.0
 11
17.5
 21
-91.52992467875789
 31
0.0
 70
    32
 71
     5
 42
-1.0
  3
STANDARD
100
AcDbAlignedDimension
 13
0.0
 23
-76.0
 33
0.0
 14
35.0
 24
-78.0
 34
0.0
100
AcDbRotatedDimension
1001
ACAD
1000
DSTYLE
1002
{
1070
   287
1070
     4
1070
   279
1070
     1
1070
    79
1070
     3
1002
}
  0
DIMENSION
  5
6E15
330
1E
100
AcDbEntity
  8
30
  6
Continuous
100
AcDbDimension
  2
*D8
 10
70.0
 20
-94.52992467875787
 30
0.0
 11
52.5
 21
-91.52992467875789
 31
0.0
 70
    32
 71
     5
 42
-1.0
  3
STANDARD
100
AcDbAlignedDimension
 13
35.0
 23
-78.0
 33
0.0
 14
70.0
 24
-78.0
 34
0.0
100
AcDbRotatedDimension
1001
ACAD
1000
DSTYLE
1002
{
1070
   287
1070
     4
1070
   279
1070
     1
1070
    79
1070
     3
1002
}
  0
DIMENSION
  5
6E22
330
1E
100
AcDbEntity
  8
30
  6
Continuous
100
AcDbDimension
  2
*D9
 10
87.5
 20
-109.9317776735854
 30
0.0
 11
17.50000000000001
 21
-106.9317776735854
 31
0.0
 70
    32
 71
     5
 42
-1.0
  3
STANDARD
100
AcDbAlignedDimension
 13
-52.49999999999997
 23
-82.5
 33
0.0
 14
87.5
 24
-82.5
 34
0.0
100
AcDbRotatedDimension
1001
ACAD
1000
DSTYLE
1002
{
1070
    79
1070
     3
1002
}
  0
DIMENSION
  5
6E49
330
1E
100
AcDbEntity
  8
30
  6
Continuous
100
AcDbDimension
  2
*D10
 10
-72.73586706236301
 20
82.5
 30
0.0
 11
-75.73586706236302
 21
132.4999999999999
 31
0.0
 70
    32
 71
     5
 42
-1.0
  3
STANDARD
100
AcDbAlignedDimension
 13
-19.0
 23
182.5
 33
0.0
 14
-52.49999999999997
 24
82.5
 34
0.0
 50
90.0
100
AcDbRotatedDimension
1001
ACAD
1000
DSTYLE
1002
{
1070
    79
1070
     3
1002
}
  0
DIMENSION
  5
6E56
330
1E
100
AcDbEntity
  8
30
  6
Continuous
100
AcDbDimension
  2
*D11
 10
-72.73586706236304
 20
-82.5
 30
0.0
 11
-75.73586706236302
 21
-0.0000000000000094
 31
0.0
 70
    33
 71
     5
 42
-1.0
  3
STANDARD
100
AcDbAlignedDimension
 13
-52.49999999999997
 23
82.5
 33
0.0
 14
-52.49999999999997
 24
-82.5
 34
0.0
1001
ACAD
1000
DSTYLE
1002
{
1070
    79
1070
     3
1002
}
  0
LEADER
  5
6E63
330
1E
100
AcDbEntity
  8
30
  6
Continuous
100
AcDbLeader
  3
STANDARD
 76
     3
 10
-17.88009453517119
 20
-187.0
 30
0.0
 10
-27.02312241480981
 20
-163.3683716085349
 30
0.0
 10
-52.82975295031477
 20
-163.4003639250139
 30
0.0
213
-17.20647466499205
223
1.845209746191358
233
0.0
1001
ACAD
1000
DSTYLE
1002
{
1070
     5
1000
OPEN
1070
    77
1070
     0
1070
    79
1070
     3
1070
   147
1040
1.0
1070
   342
1005
3B2
1002
}
  0
MTEXT
  5
6E64
330
1E
100
AcDbEntity
  8
30
  6
Continuous
100
AcDbMText
 10
-40.40662176749465
 20
-160.3825644346581
 30
0.0
 40
4.0
 41
0.0
 71
     5
 72
     1
  1
M4\U+00D70.7
 73
     1
 44
1.0
1001
ACAD
1000
MTEXTBEGIN
1070
    73
1070
     1
1070
    44
1040
1.0
1070
    74
1070
     0
1000
MTEXTEND
  0
DIMENSION
  5
6E65
330
1E
100
AcDbEntity
  8
30
  6
Continuous
100
AcDbDimension
  2
*D12
 10
103.6194454266929
 20
-313.0
 30
0.0
 11
100.6194454266928
 21
-250.0
 31
0.0
 70
    32
 71
     5
 42
-1.0
  3
STANDARD
100
AcDbAlignedDimension
 13
22.61990546482881
 23
-187.0
 33
0.0
 14
22.61990546482881
 24
-313.0
 34
0.0
 50
90.0
100
AcDbRotatedDimension
1001
ACAD
1000
DSTYLE
1002
{
1070
    79
1070
     3
1002
}
  0
DIMENSION
  5
6E72
330
1E
100
AcDbEntity
  8
30
  6
Continuous
100
AcDbDimension
  2
*D13
 10
280.9029436113288
 20
-276.0
 30
0.0
 11
277.9029436113288
 21
-249.9999999999999
 31
0.0
 70
    32
 71
     5
 42
-1.0
  3
STANDARD
100
AcDbAlignedDimension
 13
258.6199054648286
 23
-224.0
 33
0.0
 14
259.8420532342503
 24
-276.0
 34
0.0
 50
90.0
100
AcDbRotatedDimension
1001
ACAD
1000
DSTYLE
1002
{
1070
    79
1070
     3
1002
}
  0
DIMENSION
  5
6E73
330
1E
100
AcDbEntity
  8
30
  6
Continuous
100
AcDbDimension
  2
*D14
 10
258.6199054648286
 20
-225.0
 30
0.0
 11
266.4162528600984
 21
-219.1811816163853
 31
0.0
 70
    36
 71
     5
 42
-1.0
  3
STANDARD
100
AcDbRadialDimension
 15
259.4458416105493
 25
-224.436236323277
 35
0.0
 40
0.0
1001
ACAD
1000
DSTYLE
1002
{
1070
   288
1070
     1
1002
}
  0
DIMENSION
  5
6ECF
330
1E
100
AcDbEntity
  8
30
  6
Continuous
100
AcDbDimension
  2
*D15
 10
259.6199054648286
 20
-359.3804450066013
 30
0.0
 11
209.6199054648287
 21
-356.3804450066013
 31
0.0
 70
    32
 71
     5
 42
-1.0
  3
STANDARD
100
AcDbAlignedDimension
 13
159.6199054648288
 23
-275.0
 33
0.0
 14
259.6199054648286
 24
-275.0
 34
0.0
100
AcDbRotatedDimension
1001
ACAD
1000
DSTYLE
1002
{
1070
    79
1070
     3
1002
}
  0
LEADER
  5
6EE5
330
1E
100
AcDbEntity
  8
30
  6
Continuous
100
AcDbLeader
  3
STANDARD
 76
     3
 10
200.7553358425512
 20
184.8373324395361
 30
0.0
 10
186.5054995092231
 20
202.4387666808884
 30
0.0
 10
173.1683559839556
 20
202.8831150999293
 30
0.0
213
0.0
223
2.0
233
0.0
1001
ACAD
1000
DSTYLE
1002
{
1070
     5
1000
OPEN
1070
    77
1070
     0
1070
    79
1070
     3
1070
   147
1040
1.0
1070
   342
1005
3B2
1002
}
  0
TEXT
  5
6EE6
330
1E
100
AcDbEntity
  8
30
  6
Continuous
100
AcDbText
 10
174.5418091109849
 20
204.3310490241908
 30
0.0
 40
5.0
  1
%%c9
  7
STANDARD1
100
AcDbText
  0
DIMENSION
  5
6EE7
330
1E
100
AcDbEntity
  8
30
  6
Continuous
100
AcDbDimension
  2
*D16
 10
216.5036264863788
 20
155.8140613509453
 30
0.0
 11
204.0036264863788
 21
158.8140613509453
 31
0.0
 70
    32
  1
  
 71
     5
 42
-1.0
  3
STANDARD
100
AcDbAlignedDimension
 13
191.5036264863788
 23
171.2145529502651
 33
0.0
 14
216.5036264863788
 24
171.2145529502651
 34
0.0
 50
180.0
100
AcDbRotatedDimension
1001
ACAD
1000
DSTYLE
1002
{
1070
    79
1070
     3
1002
}
  0
DIMENSION
  5
6EEB
330
1E
100
AcDbEntity
  8
30
  6
Continuous
100
AcDbDimension
  2
*D17
 10
232.0041876839375
 20
181.2201248447136
 30
0.0
 11
229.0041876839374
 21
176.2173388974894
 31
0.0
 70
    32
 71
     5
 42
-1.0
  3
STANDARD
100
AcDbAlignedDimension
 13
216.5036264863788
 23
171.2145529502651
 33
0.0
 14
207.4174652076492
 24
181.2201248447136
 34
0.0
 50
270.0
100
AcDbRotatedDimension
1001
ACAD
1000
DSTYLE
1002
{
1070
    79
1070
     3
1002
}
  0
LINE
  5
6EEC
330
1E
100
AcDbEntity
  8
24
  6
Continuous
100
AcDbLine
 10
216.5036264863788
 20
200.7779308112958
 30
0.0
 11
216.5036264863788
 21
171.2145529502651
 31
0.0
  0
LINE
  5
6EED
330
1E
100
AcDbEntity
  8
24
  6
Continuous
100
AcDbLine
 10
191.5036264863788
 20
203.7145529502651
 30
0.0
 11
191.5036264863788
 21
171.2145529502651
 31
0.0
  0
CIRCLE
  5
6EEE
330
1E
100
AcDbEntity
  8
17
  6
DASHDOT
100
AcDbCircle
 10
204.9174651911493
 20
181.2201248447136
 30
0.0
 40
4.5
  0
LINE
  5
6EEF
330
1E
100
AcDbEntity
  8
17
  6
DASHDOT
100
AcDbLine
 10
198.6674651911494
 20
181.2201248447136
 30
0.0
 11
211.1674651911493
 21
181.2201248447136
 31
0.0
  0
LINE
  5
6EF0
330
1E
100
AcDbEntity
  8
24
  6
Continuous
100
AcDbLine
 10
191.5036264863788
 20
171.2145529502651
 30
0.0
 11
216.5036264863788
 21
171.2145529502651
 31
0.0
  0
LINE
  5
6EF1
330
1E
100
AcDbEntity
  8
17
  6
DASHDOT
100
AcDbLine
 10
204.9174651911493
 20
187.4701248447136
 30
0.0
 11
205.1412771647993
 21
174.5230138960095
 31
0.0
  0
LINE
  5
6EF2
330
1E
100
AcDbEntity
  8
24
  6
Continuous
100
AcDbLine
 10
203.3281825162402
 20
203.9532238422295
 30
0.0
 11
207.7990684549159
 21
201.6213671228729
 31
0.0
  0
ARC
  5
6EF3
330
1E
100
AcDbEntity
  8
24
  6
Continuous
100
AcDbCircle
 10
197.6286264863788
 20
187.9118637286664
 30
0.0
 40
16.9481742861713
100
AcDbArc
 50
68.81405474378073
 51
111.185945256219
  0
ARC
  5
6EF4
330
1E
100
AcDbEntity
  8
24
  6
Continuous
100
AcDbCircle
 10
214.6578611779439
 20
227.0677479833844
 30
0.0
 40
26.35453161252655
100
AcDbArc
 50
254.9150449758263
 51
274.016053485955
  0
TEXT
  5
6F68
330
1E
100
AcDbEntity
  8
30
100
AcDbText
 10
198.003626519379
 20
142.6890613556952
 30
0.0
 40
6.250000009499995
  1
(max.)
 41
0.7263970588235275
  7
UGMTXT
100
AcDbText
  0
TEXT
  5
6F69
330
1E
100
AcDbEntity
  8
30
100
AcDbText
 10
193.003626519379
 20
132.1890613556953
 30
0.0
 40
6.250000009499995
  1
max.t7
 41
0.7263970588235275
  7
UGMTXT
100
AcDbText
  0
TEXT
  5
6F6A
330
1E
100
AcDbEntity
  8
30
100
AcDbText
 10
190.2028451843017
 20
142.6890613556952
 30
0.0
 40
6.250000009499995
  1
25
 41
0.78325
  7
UGMTXT
100
AcDbText
  0
DIMENSION
  5
6F6B
330
1E
100
AcDbEntity
  8
30
  6
Continuous
100
AcDbDimension
  2
*D18
 10
111.4688600635149
 20
-24.98970744689653
 30
0.0
 11
108.4688600635149
 21
0.0102925531034763
 31
0.0
 70
    32
 71
     5
 42
-1.0
  3
STANDARD
100
AcDbAlignedDimension
 13
134.4371126716464
 23
25.01029255310344
 33
0.0
 14
134.4371126716464
 24
-24.98970744689653
 34
0.0
 50
90.0
100
AcDbRotatedDimension
1001
ACAD
1000
DSTYLE
1002
{
1070
    79
1070
     3
1002
}
  0
DIMENSION
  5
6F78
330
1E
100
AcDbEntity
  8
30
  6
Continuous
100
AcDbDimension
  2
*D19
 10
245.4371126716464
 20
-91.64127065798902
 30
0.0
 11
249.4371126716464
 21
-88.64127065798902
 31
0.0
 70
    32
 71
     5
 42
-1.0
  3
STANDARD
100
AcDbAlignedDimension
 13
253.4371126716464
 23
-65.23970744689655
 33
0.0
 14
245.4371126716464
 24
-82.48970744689655
 34
0.0
100
AcDbRotatedDimension
1001
ACAD
1000
DSTYLE
1002
{
1070
    79
1070
     3
1002
}
  0
DIMENSION
  5
6F85
330
1E
100
AcDbEntity
  8
30
  6
Continuous
100
AcDbDimension
  2
*D20
 10
165.4371126716464
 20
-91.64127065798902
 30
0.0
 11
205.4371126716464
 21
-88.64127065798902
 31
0.0
 70
    32
 71
     5
 42
-1.0
  3
STANDARD
100
AcDbAlignedDimension
 13
245.4371126716464
 23
-82.48970744689655
 33
0.0
 14
165.4371126716464
 24
-67.23970744689655
 34
0.0
100
AcDbRotatedDimension
1001
ACAD
1000
DSTYLE
1002
{
1070
   287
1070
     4
1070
   279
1070
     1
1070
    79
1070
     3
1002
}
  0
DIMENSION
  5
6F92
330
1E
100
AcDbEntity
  8
30
  6
Continuous
100
AcDbDimension
  2
*D21
 10
149.4371126716464
 20
-103.6393997005921
 30
0.0
 11
197.4371126716464
 21
-100.6393997005921
 31
0.0
 70
    32
 71
     5
 42
-1.0
  3
STANDARD
100
AcDbAlignedDimension
 13
245.4371126716464
 23
-82.48970744689655
 33
0.0
 14
149.4371126716464
 24
-82.48970744689655
 34
0.0
100
AcDbRotatedDimension
1001
ACAD
1000
DSTYLE
1002
{
1070
    79
1070
     3
1002
}
  0
DIMENSION
  5
6F9F
330
1E
100
AcDbEntity
  8
30
  6
Continuous
100
AcDbDimension
  2
*D22
 10
142.4371126716464
 20
-118.1634516797932
 30
0.0
 11
193.9371126716464
 21
-115.1634516797932
 31
0.0
 70
    32
 71
     5
 42
-1.0
  3
STANDARD
100
AcDbAlignedDimension
 13
245.4371126716464
 23
-82.48970744689655
 33
0.0
 14
142.4371126716464
 24
-50.98970744689655
 34
0.0
100
AcDbRotatedDimension
1001
ACAD
1000
DSTYLE
1002
{
1070
    79
1070
     3
1002
}
  0
DIMENSION
  5
6FAC
330
1E
100
AcDbEntity
  8
30
  6
Continuous
100
AcDbDimension
  2
*D23
 10
138.4371126716464
 20
-128.8986215185148
 30
0.0
 11
191.9371126716464
 21
-125.8986215185148
 31
0.0
 70
    32
 71
     5
 42
-1.0
  3
STANDARD
100
AcDbAlignedDimension
 13
245.4371126716464
 23
-82.48970744689655
 33
0.0
 14
138.4371126716464
 24
-24.98970744689653
 34
0.0
100
AcDbRotatedDimension
1001
ACAD
1000
DSTYLE
1002
{
1070
    79
1070
     3
1002
}
  0
DIMENSION
  5
6FB9
330
1E
100
AcDbEntity
  8
30
  6
Continuous
100
AcDbDimension
  2
*D24
 10
138.4371126716464
 20
-129.3986215185148
 30
0.0
 11
144.7704460049796
 21
-126.3986215185147
 31
0.0
 70
    32
 71
     5
 42
-1.0
  3
STANDARD
100
AcDbAlignedDimension
 13
134.4371126716464
 23
-24.98970744689653
 33
0.0
 14
138.4371126716464
 24
-129.3986215185148
 34
0.0
100
AcDbRotatedDimension
1001
ACAD
1000
DSTYLE
1002
{
1070
    79
1070
     3
1002
}
  0
DIMENSION
  5
6FD1
330
1E
100
AcDbEntity
  8
30
  6
Continuous
100
AcDbDimension
  2
*D25
 10
118.4371126716464
 20
-140.8967505611178
 30
0.0
 11
181.9371126716464
 21
-137.8967505611178
 31
0.0
 70
    32
 71
     5
 42
-1.0
  3
STANDARD
100
AcDbAlignedDimension
 13
245.4371126716464
 23
-118.6634516797933
 33
0.0
 14
118.4371126716464
 24
0.0102925531034581
 34
0.0
100
AcDbRotatedDimension
1001
ACAD
1000
DSTYLE
1002
{
1070
    79
1070
     3
1002
}
  0
DIMENSION
  5
6FE4
330
1E
100
AcDbEntity
  8
30
  6
Continuous
100
AcDbDimension
  2
*D26
 10
17.1199054648288
 20
-359.3804450066013
 30
0.0
 11
-0.3800945351711922
 21
-356.3804450066013
 31
0.0
 70
    32
 71
     5
 42
-1.0
  3
STANDARD
100
AcDbAlignedDimension
 13
-17.88009453517117
 23
-318.5
 33
0.0
 14
17.11990546482881
 24
-318.5
 34
0.0
100
AcDbRotatedDimension
1001
ACAD
1000
DSTYLE
1002
{
1070
    79
1070
     3
1002
}
  0
LINE
  5
71C8
330
1E
100
AcDbEntity
  8
24
  6
CONTINOUS
100
AcDbLine
 10
176.4371126716464
 20
78.51029255310345
 30
0.0
 11
184.4371126716464
 21
78.51029255310345
 31
0.0
  0
LINE
  5
71C9
330
1E
100
AcDbEntity
  8
24
  6
CONTINOUS
100
AcDbLine
 10
176.4371126716464
 20
65.51029255310345
 30
0.0
 11
184.4371126716464
 21
65.51029255310345
 31
0.0
  0
LINE
  5
71CA
330
1E
100
AcDbEntity
  8
24
  6
DASHDOT
100
AcDbLine
 10
171.4371126716464
 20
72.01029255310345
 30
0.0
 11
195.4371126716464
 21
72.01029255310345
 31
0.0
  0
LINE
  5
71CB
330
1E
100
AcDbEntity
  8
24
  6
CONTINOUS
100
AcDbLine
 10
176.4371126716464
 20
78.51029255310345
 30
0.0
 11
176.4371126716464
 21
65.51029255310345
 31
0.0
  0
LINE
  5
71CC
330
1E
100
AcDbEntity
  8
24
  6
CONTINOUS
100
AcDbLine
 10
186.4371126716464
 20
82.51029255310346
 30
0.0
 11
186.4371126716464
 21
61.51029255310348
 31
0.0
  0
LINE
  5
71CD
330
1E
100
AcDbEntity
  8
24
  6
CONTINOUS
100
AcDbLine
 10
190.4371126716464
 20
82.51029255310346
 30
0.0
 11
190.4371126716464
 21
61.51029255310348
 31
0.0
  0
LINE
  5
71CE
330
1E
100
AcDbEntity
  8
24
  6
CONTINOUS
100
AcDbLine
 10
184.4371126716464
 20
79.71029255310345
 30
0.0
 11
184.4371126716464
 21
64.31029255310345
 31
0.0
  0
LINE
  5
71CF
330
1E
100
AcDbEntity
  8
24
  6
CONTINOUS
100
AcDbLine
 10
186.4371126716464
 20
61.51029255310345
 30
0.0
 11
190.4371126716465
 21
61.51029255310354
 31
0.0
  0
LINE
  5
71D0
330
1E
100
AcDbEntity
  8
24
  6
CONTINOUS
100
AcDbLine
 10
184.4371126716464
 20
64.31029255310345
 30
0.0
 11
186.4371126716464
 21
64.31029255310345
 31
0.0
  0
LINE
  5
71D1
330
1E
100
AcDbEntity
  8
24
  6
CONTINOUS
100
AcDbLine
 10
184.4371126716464
 20
79.71029255310345
 30
0.0
 11
186.4371126716464
 21
79.71029255310345
 31
0.0
  0
TEXT
  5
71D2
330
1E
100
AcDbEntity
  8
30
  6
Continuous
100
AcDbText
 10
156.1152590420578
 20
98.9519799685754
 30
0.0
 40
5.0
  1
M8
  7
STANDARD1
100
AcDbText
  0
LEADER
  5
71D3
330
1E
100
AcDbEntity
  8
30
  6
Continuous
100
AcDbLeader
  3
STANDARD
 76
     3
 10
182.328785773624
 20
79.45826338392092
 30
0.0
 10
168.0789494402961
 20
97.05969762527288
 30
0.0
 10
154.7418059150285
 20
97.50404604431388
 30
0.0
213
0.0
223
2.0
233
0.0
1001
ACAD
1000
DSTYLE
1002
{
1070
     5
1000
OPEN
1070
    77
1070
     0
1070
    79
1070
     3
1070
   147
1040
1.0
1070
   342
1005
3B2
1002
}
  0
DIMENSION
  5
71D4
330
1E
100
AcDbEntity
  8
30
  6
Continuous
100
AcDbDimension
  2
*D27
 10
186.4371126716464
 20
99.22052838371747
 30
0.0
 11
215.9371126716464
 21
102.2205283837174
 31
0.0
 70
    32
 71
     5
 42
-1.0
  3
STANDARD
100
AcDbAlignedDimension
 13
245.4371126716464
 23
82.51029255310346
 33
0.0
 14
186.4371126716464
 24
82.51029255310346
 34
0.0
100
AcDbRotatedDimension
1001
ACAD
1000
DSTYLE
1002
{
1070
    79
1070
     3
1002
}
  0
LINE
  5
71EB
330
1E
100
AcDbEntity
  8
12
  6
DASHED
100
AcDbLine
 10
12.0
 20
63.0
 30
0.0
 11
23.0
 21
63.0
 31
0.0
  0
ARC
  5
71EC
330
1E
100
AcDbEntity
  8
10
  6
Continuous
100
AcDbCircle
 10
7.0
 20
65.0
 30
0.0
 40
5.0
100
AcDbArc
 50
270.0
 51
0.0
  0
CIRCLE
  5
71ED
330
1E
100
AcDbEntity
  8
12
  6
DASHED
100
AcDbCircle
 10
-17.5
 20
63.0
 30
0.0
 40
4.0
210
0.0
220
0.0
230
-1.0
  0
LINE
  5
71EE
330
1E
100
AcDbEntity
  8
12
  6
DASHED
100
AcDbLine
 10
17.5
 20
68.5
 30
0.0
 11
17.5
 21
57.5
 31
0.0
  0
ARC
  5
71EF
330
1E
100
AcDbEntity
  8
10
  6
Continuous
100
AcDbCircle
 10
-7.0
 20
65.0
 30
0.0
 40
5.0
100
AcDbArc
 50
180.0
 51
270.0
  0
ARC
  5
71F0
330
1E
100
AcDbEntity
  8
10
  6
Continuous
100
AcDbCircle
 10
-28.0
 20
65.0
 30
0.0
 40
5.0
100
AcDbArc
 50
270.0
 51
0.0
  0
LINE
  5
71F1
330
1E
100
AcDbEntity
  8
12
  6
DASHED
100
AcDbLine
 10
-17.5
 20
68.5
 30
0.0
 11
-17.5
 21
57.5
 31
0.0
  0
CIRCLE
  5
71F2
330
1E
100
AcDbEntity
  8
12
  6
DASHED
100
AcDbCircle
 10
-17.5
 20
63.0
 30
0.0
 40
4.0
  0
ARC
  5
71F3
330
1E
100
AcDbEntity
  8
10
  6
Continuous
100
AcDbCircle
 10
-42.0
 20
65.0
 30
0.0
 40
5.0
100
AcDbArc
 50
180.0
 51
270.0
  0
LINE
  5
71F4
330
1E
100
AcDbEntity
  8
10
  6
Continuous
100
AcDbLine
 10
-28.0
 20
60.0
 30
0.0
 11
-42.0
 21
60.0
 31
0.0
  0
LINE
  5
71F5
330
1E
100
AcDbEntity
  8
10
  6
Continuous
100
AcDbLine
 10
7.0
 20
60.0
 30
0.0
 11
-7.0
 21
60.0
 31
0.0
  0
LINE
  5
71F6
330
1E
100
AcDbEntity
  8
12
  6
DASHED
100
AcDbLine
 10
-23.0
 20
63.0
 30
0.0
 11
-12.0
 21
63.0
 31
0.0
  0
LINE
  5
71F7
330
1E
100
AcDbEntity
  8
24
  6
CONTINOUS
100
AcDbLine
 10
-42.0
 20
72.0
 30
0.0
 11
-28.0
 21
72.0
 31
0.0
  0
CIRCLE
  5
71F8
330
1E
100
AcDbEntity
  8
24
  6
CONTINOUS
100
AcDbCircle
 10
-35.0
 20
72.0
 30
0.0
 40
5.0
  0
LINE
  5
71F9
330
1E
100
AcDbEntity
  8
24
  6
CONTINOUS
100
AcDbLine
 10
-35.0
 20
79.0
 30
0.0
 11
-35.0
 21
65.0
 31
0.0
  0
LINE
  5
71FA
330
1E
100
AcDbEntity
  8
10
  6
Continuous
100
AcDbLine
 10
-47.0
 20
82.5
 30
0.0
 11
-47.0
 21
65.0
 31
0.0
  0
LINE
  5
71FB
330
1E
100
AcDbEntity
  8
10
  6
Continuous
100
AcDbLine
 10
-23.0
 20
82.5
 30
0.0
 11
-23.0
 21
65.0
 31
0.0
  0
CIRCLE
  5
71FC
330
1E
100
AcDbEntity
  8
24
  6
CONTINOUS
100
AcDbCircle
 10
0.0
 20
72.0
 30
0.0
 40
5.0
  0
LINE
  5
71FD
330
1E
100
AcDbEntity
  8
24
  6
CONTINOUS
100
AcDbLine
 10
-7.0
 20
72.0
 30
0.0
 11
7.0
 21
72.0
 31
0.0
  0
LINE
  5
71FE
330
1E
100
AcDbEntity
  8
10
  6
Continuous
100
AcDbLine
 10
-12.0
 20
82.5
 30
0.0
 11
-12.0
 21
65.0
 31
0.0
  0
LINE
  5
71FF
330
1E
100
AcDbEntity
  8
10
  6
Continuous
100
AcDbLine
 10
12.0
 20
82.5
 30
0.0
 11
12.0
 21
65.0
 31
0.0
  0
ARC
  5
7200
330
1E
100
AcDbEntity
  8
10
  6
Continuous
100
AcDbCircle
 10
-77.0
 20
65.0
 30
0.0
 40
5.0
210
0.0
220
0.0
230
-1.0
100
AcDbArc
 50
180.0
 51
270.0
  0
ARC
  5
7201
330
1E
100
AcDbEntity
  8
10
  6
Continuous
100
AcDbCircle
 10
-63.0
 20
65.0
 30
0.0
 40
5.0
210
0.0
220
0.0
230
-1.0
100
AcDbArc
 50
270.0
 51
0.0
  0
ARC
  5
7202
330
1E
100
AcDbEntity
  8
10
  6
Continuous
100
AcDbCircle
 10
42.0
 20
65.0
 30
0.0
 40
5.0
100
AcDbArc
 50
270.0
 51
0.0
  0
ARC
  5
7203
330
1E
100
AcDbEntity
  8
10
  6
Continuous
100
AcDbCircle
 10
28.0
 20
65.0
 30
0.0
 40
5.0
100
AcDbArc
 50
180.0
 51
270.0
  0
LINE
  5
7204
330
1E
100
AcDbEntity
  8
10
  6
Continuous
100
AcDbLine
 10
42.0
 20
60.0
 30
0.0
 11
28.0
 21
60.0
 31
0.0
  0
LINE
  5
7205
330
1E
100
AcDbEntity
  8
10
  6
Continuous
100
AcDbLine
 10
63.0
 20
60.0
 30
0.0
 11
77.0
 21
60.0
 31
0.0
  0
CIRCLE
  5
7206
330
1E
100
AcDbEntity
  8
24
  6
CONTINOUS
100
AcDbCircle
 10
35.0
 20
72.0
 30
0.0
 40
5.0
  0
LINE
  5
7207
330
1E
100
AcDbEntity
  8
24
  6
CONTINOUS
100
AcDbLine
 10
28.0
 20
72.0
 30
0.0
 11
42.0
 21
72.0
 31
0.0
  0
LINE
  5
7208
330
1E
100
AcDbEntity
  8
24
  6
CONTINOUS
100
AcDbLine
 10
35.0
 20
79.0
 30
0.0
 11
35.0
 21
65.0
 31
0.0
  0
LINE
  5
7209
330
1E
100
AcDbEntity
  8
10
  6
Continuous
100
AcDbLine
 10
23.0
 20
82.5
 30
0.0
 11
23.0
 21
65.0
 31
0.0
  0
LINE
  5
720A
330
1E
100
AcDbEntity
  8
10
  6
Continuous
100
AcDbLine
 10
47.0
 20
82.5
 30
0.0
 11
47.0
 21
65.0
 31
0.0
  0
LINE
  5
720B
330
1E
100
AcDbEntity
  8
24
  6
CONTINOUS
100
AcDbLine
 10
77.0
 20
72.0
 30
0.0
 11
63.0
 21
72.0
 31
0.0
  0
LINE
  5
720C
330
1E
100
AcDbEntity
  8
24
  6
CONTINOUS
100
AcDbLine
 10
70.0
 20
79.0
 30
0.0
 11
70.0
 21
65.0
 31
0.0
  0
CIRCLE
  5
720D
330
1E
100
AcDbEntity
  8
24
  6
CONTINOUS
100
AcDbCircle
 10
-70.0
 20
72.0
 30
0.0
 40
5.0
210
0.0
220
0.0
230
-1.0
  0
LINE
  5
720E
330
1E
100
AcDbEntity
  8
10
  6
Continuous
100
AcDbLine
 10
58.0
 20
82.5
 30
0.0
 11
58.0
 21
65.0
 31
0.0
  0
LINE
  5
720F
330
1E
100
AcDbEntity
  8
10
  6
Continuous
100
AcDbLine
 10
82.0
 20
82.5
 30
0.0
 11
82.0
 21
65.0
 31
0.0
  0
LINE
  5
7210
330
1E
100
AcDbEntity
  8
12
  6
DASHED
100
AcDbLine
 10
12.0
 20
-63.0
 30
0.0
 11
23.0
 21
-63.0
 31
0.0
  0
LINE
  5
7211
330
1E
100
AcDbEntity
  8
12
  6
DASHED
100
AcDbLine
 10
-23.0
 20
-63.0
 30
0.0
 11
-12.0
 21
-63.0
 31
0.0
  0
CIRCLE
  5
7212
330
1E
100
AcDbEntity
  8
12
  6
DASHED
100
AcDbCircle
 10
17.5
 20
-63.0
 30
0.0
 40
4.0
210
0.0
220
0.0
230
-1.0
  0
LINE
  5
7213
330
1E
100
AcDbEntity
  8
10
  6
Continuous
100
AcDbLine
 10
-47.0
 20
-82.5
 30
0.0
 11
-47.0
 21
-65.0
 31
0.0
  0
LINE
  5
7214
330
1E
100
AcDbEntity
  8
10
  6
Continuous
100
AcDbLine
 10
-23.0
 20
-82.5
 30
0.0
 11
-23.0
 21
-65.0
 31
0.0
  0
LINE
  5
7215
330
1E
100
AcDbEntity
  8
24
  6
CONTINOUS
100
AcDbLine
 10
-35.0
 20
-65.0
 30
0.0
 11
-35.0
 21
-79.0
 31
0.0
  0
CIRCLE
  5
7216
330
1E
100
AcDbEntity
  8
24
  6
CONTINOUS
100
AcDbCircle
 10
-35.0
 20
-72.0
 30
0.0
 40
5.0
  0
LINE
  5
7217
330
1E
100
AcDbEntity
  8
10
  6
Continuous
100
AcDbLine
 10
-28.0
 20
-60.0
 30
0.0
 11
-42.0
 21
-60.0
 31
0.0
  0
LINE
  5
7218
330
1E
100
AcDbEntity
  8
24
  6
CONTINOUS
100
AcDbLine
 10
-42.0
 20
-72.0
 30
0.0
 11
-28.0
 21
-72.0
 31
0.0
  0
ARC
  5
7219
330
1E
100
AcDbEntity
  8
10
  6
Continuous
100
AcDbCircle
 10
42.0
 20
-65.0
 30
0.0
 40
5.0
210
0.0
220
0.0
230
-1.0
100
AcDbArc
 50
0.0
 51
90.0
  0
LINE
  5
721A
330
1E
100
AcDbEntity
  8
12
  6
DASHED
100
AcDbLine
 10
-17.5
 20
-68.5
 30
0.0
 11
-17.5
 21
-57.5
 31
0.0
  0
ARC
  5
721B
330
1E
100
AcDbEntity
  8
10
  6
Continuous
100
AcDbCircle
 10
28.0
 20
-65.0
 30
0.0
 40
5.0
210
0.0
220
0.0
230
-1.0
100
AcDbArc
 50
90.0
 51
180.0
  0
LINE
  5
721C
330
1E
100
AcDbEntity
  8
10
  6
Continuous
100
AcDbLine
 10
12.0
 20
-82.5
 30
0.0
 11
12.0
 21
-65.0
 31
0.0
  0
LINE
  5
721D
330
1E
100
AcDbEntity
  8
10
  6
Continuous
100
AcDbLine
 10
-12.0
 20
-82.5
 30
0.0
 11
-12.0
 21
-65.0
 31
0.0
  0
CIRCLE
  5
721E
330
1E
100
AcDbEntity
  8
24
  6
CONTINOUS
100
AcDbCircle
 10
0.0
 20
-72.0
 30
0.0
 40
5.0
  0
LINE
  5
721F
330
1E
100
AcDbEntity
  8
10
  6
Continuous
100
AcDbLine
 10
7.0
 20
-60.0
 30
0.0
 11
-7.0
 21
-60.0
 31
0.0
  0
LINE
  5
7220
330
1E
100
AcDbEntity
  8
24
  6
CONTINOUS
100
AcDbLine
 10
-7.0
 20
-72.0
 30
0.0
 11
7.0
 21
-72.0
 31
0.0
  0
ARC
  5
7221
330
1E
100
AcDbEntity
  8
10
  6
Continuous
100
AcDbCircle
 10
7.0
 20
-65.0
 30
0.0
 40
5.0
210
0.0
220
0.0
230
-1.0
100
AcDbArc
 50
0.0
 51
90.0
  0
LINE
  5
7222
330
1E
100
AcDbEntity
  8
12
  6
DASHED
100
AcDbLine
 10
17.5
 20
-68.5
 30
0.0
 11
17.5
 21
-57.5
 31
0.0
  0
ARC
  5
7223
330
1E
100
AcDbEntity
  8
10
  6
Continuous
100
AcDbCircle
 10
-7.0
 20
-65.0
 30
0.0
 40
5.0
210
0.0
220
0.0
230
-1.0
100
AcDbArc
 50
90.0
 51
180.0
  0
CIRCLE
  5
7224
330
1E
100
AcDbEntity
  8
12
  6
DASHED
100
AcDbCircle
 10
17.5
 20
-63.0
 30
0.0
 40
4.0
  0
ARC
  5
7225
330
1E
100
AcDbEntity
  8
10
  6
Continuous
100
AcDbCircle
 10
63.0
 20
-65.0
 30
0.0
 40
5.0
100
AcDbArc
 50
90.0
 51
180.0
  0
LINE
  5
7226
330
1E
100
AcDbEntity
  8
10
  6
Continuous
100
AcDbLine
 10
23.0
 20
-82.5
 30
0.0
 11
23.0
 21
-65.0
 31
0.0
  0
LINE
  5
7227
330
1E
100
AcDbEntity
  8
10
  6
Continuous
100
AcDbLine
 10
47.0
 20
-82.5
 30
0.0
 11
47.0
 21
-65.0
 31
0.0
  0
LINE
  5
7228
330
1E
100
AcDbEntity
  8
24
  6
CONTINOUS
100
AcDbLine
 10
35.0
 20
-65.0
 30
0.0
 11
35.0
 21
-79.0
 31
0.0
  0
CIRCLE
  5
7229
330
1E
100
AcDbEntity
  8
24
  6
CONTINOUS
100
AcDbCircle
 10
35.0
 20
-72.0
 30
0.0
 40
5.0
  0
LINE
  5
722A
330
1E
100
AcDbEntity
  8
10
  6
Continuous
100
AcDbLine
 10
42.0
 20
-60.0
 30
0.0
 11
28.0
 21
-60.0
 31
0.0
  0
LINE
  5
722B
330
1E
100
AcDbEntity
  8
24
  6
CONTINOUS
100
AcDbLine
 10
28.0
 20
-72.0
 30
0.0
 11
42.0
 21
-72.0
 31
0.0
  0
ARC
  5
722C
330
1E
100
AcDbEntity
  8
10
  6
Continuous
100
AcDbCircle
 10
-28.0
 20
-65.0
 30
0.0
 40
5.0
210
0.0
220
0.0
230
-1.0
100
AcDbArc
 50
0.0
 51
90.0
  0
ARC
  5
722D
330
1E
100
AcDbEntity
  8
10
  6
Continuous
100
AcDbCircle
 10
-42.0
 20
-65.0
 30
0.0
 40
5.0
210
0.0
220
0.0
230
-1.0
100
AcDbArc
 50
90.0
 51
180.0
  0
LINE
  5
722E
330
1E
100
AcDbEntity
  8
24
  6
CONTINOUS
100
AcDbLine
 10
70.0
 20
-65.0
 30
0.0
 11
70.0
 21
-79.0
 31
0.0
  0
LINE
  5
722F
330
1E
100
AcDbEntity
  8
10
  6
Continuous
100
AcDbLine
 10
58.0
 20
-82.5
 30
0.0
 11
58.0
 21
-65.0
 31
0.0
  0
LINE
  5
7230
330
1E
100
AcDbEntity
  8
10
  6
Continuous
100
AcDbLine
 10
82.0
 20
-82.5
 30
0.0
 11
82.0
 21
-65.0
 31
0.0
  0
CIRCLE
  5
7231
330
1E
100
AcDbEntity
  8
24
  6
CONTINOUS
100
AcDbCircle
 10
-70.0
 20
-72.0
 30
0.0
 40
5.0
210
0.0
220
0.0
230
-1.0
  0
LINE
  5
7232
330
1E
100
AcDbEntity
  8
24
  6
CONTINOUS
100
AcDbLine
 10
77.0
 20
-72.0
 30
0.0
 11
63.0
 21
-72.0
 31
0.0
  0
LINE
  5
7233
330
1E
100
AcDbEntity
  8
10
  6
Continuous
100
AcDbLine
 10
63.0
 20
-60.0
 30
0.0
 11
77.0
 21
-60.0
 31
0.0
  0
ARC
  5
7234
330
1E
100
AcDbEntity
  8
10
  6
Continuous
100
AcDbCircle
 10
77.0
 20
-65.0
 30
0.0
 40
5.0
100
AcDbArc
 50
0.0
 51
90.0
  0
MTEXT
  5
72CB
330
1E
100
AcDbEntity
  8
30
  6
Continuous
100
AcDbMText
 10
154.1091891515416
 20
321.2447134245908
 30
0.0
 40
5.0
 41
154.0885
 71
     1
 72
     5
  1
H100-NF 4P FC\PL100-NF 4P FC\PH125-NF 4P FC\PL125-NF 4P FC\PH225-NF 4P FC\PL225-NF 4P FC\PH250-NF 4P FC\PL250-NF 4P FC\PS225-GE 4P FC\PS225-PE 4P FC\PH225-NE 4P FC
  7
STANDARD1
 73
     1
 44
1.0
1001
ACAD
1000
MTEXTBEGIN
1070
    73
1070
     1
1070
    44
1040
1.0
1070
    74
1070
     0
1000
MTEXTEND
  0
LINE
  5
7336
330
1E
100
AcDbEntity
  8
10
  6
CONTINOUS
100
AcDbLine
 10
-11.01790353517128
 20
215.8933368984127
 30
0.0
 11
10.99999999999997
 21
215.8933368984127
 31
0.0
  0
LINE
  5
7337
330
1E
100
AcDbEntity
  8
10
  6
CONTINOUS
100
AcDbLine
 10
-11.01790353517128
 20
215.816569282312
 30
0.0
 11
10.99999999999997
 21
215.816569282312
 31
0.0
  0
LINE
  5
7338
330
1E
100
AcDbEntity
  8
10
  6
CONTINOUS
100
AcDbLine
 10
-52.49999999999997
 20
230.8165692823123
 30
0.0
 11
87.49999999999998
 21
230.8165692823122
 31
0.0
  0
LWPOLYLINE
  5
7339
330
1E
100
AcDbEntity
  8
10
  6
CONTINOUS
100
AcDbPolyline
 90
        4
 70
     1
 43
0.0
 10
-7.0
 20
215.816569282312
 10
7.0
 20
215.816569282312
 10
7.0
 20
203.8213154827163
 10
-7.0
 20
203.8213154827163
  0
LINE
  5
733A
330
1E
100
AcDbEntity
  8
10
  6
CONTINOUS
100
AcDbLine
 10
-52.49999999999997
 20
230.8165692823123
 30
0.0
 11
-52.49999999999997
 21
223.8165692823123
 31
0.0
  0
LINE
  5
733B
330
1E
100
AcDbEntity
  8
10
  6
CONTINOUS
100
AcDbLine
 10
87.50000000000003
 20
223.8165692823123
 30
0.0
 11
87.50000000000003
 21
230.8165692823123
 31
0.0
  0
LINE
  5
733C
330
1E
100
AcDbEntity
  8
10
  6
CONTINOUS
100
AcDbLine
 10
-52.49999999999997
 20
223.8165692823123
 30
0.0
 11
87.50000000000003
 21
223.8165692823123
 31
0.0
  0
LINE
  5
733D
330
1E
100
AcDbEntity
  8
10
  6
CONTINOUS
100
AcDbLine
 10
-49.00000000000003
 20
223.8165692823123
 30
0.0
 11
-49.00000000000003
 21
219.8165692823123
 31
0.0
  0
LINE
  5
733E
330
1E
100
AcDbEntity
  8
10
  6
CONTINOUS
100
AcDbLine
 10
48.99999999999997
 20
223.8165692823123
 30
0.0
 11
48.99999999999997
 21
219.8165692823123
 31
0.0
  0
LINE
  5
733F
330
1E
100
AcDbEntity
  8
10
  6
CONTINOUS
100
AcDbLine
 10
-49.00000000000003
 20
219.8165692823123
 30
0.0
 11
48.99999999999997
 21
219.8165692823123
 31
0.0
  0
LINE
  5
7340
330
1E
100
AcDbEntity
  8
10
  6
CONTINOUS
100
AcDbLine
 10
-11.01790353517128
 20
215.8933368984127
 30
0.0
 11
-11.01790353517128
 21
219.8933368984127
 31
0.0
  0
LINE
  5
7341
330
1E
100
AcDbEntity
  8
10
  6
CONTINOUS
100
AcDbLine
 10
10.99999999999997
 20
215.816569282312
 30
0.0
 11
10.99999999999997
 21
219.816569282312
 31
0.0
  0
DIMENSION
  5
7342
330
1E
100
AcDbEntity
  8
30
  6
Continuous
100
AcDbDimension
  2
*D29
 10
97.05663734150631
 20
230.8165692823123
 30
0.0
 11
94.05663734150627
 21
278.8165692823122
 31
0.0
 70
    32
 71
     5
 42
95.99999999999978
  3
STANDARD
100
AcDbAlignedDimension
 13
87.49999999999998
 23
326.8165692823121
 33
0.0
 14
87.50000000000003
 24
230.8165692823123
 34
0.0
 50
90.0
100
AcDbRotatedDimension
1001
ACAD
1000
DSTYLE
1002
{
1070
    79
1070
     3
1002
}
  0
DIMENSION
  5
734F
330
1E
100
AcDbEntity
  8
30
  6
Continuous
100
AcDbDimension
  2
*D30
 10
111.055791995876
 20
223.8165692823123
 30
0.0
 11
108.0557919958759
 21
275.3165692823122
 31
0.0
 70
    32
 71
     5
 42
102.9999999999998
  3
STANDARD
100
AcDbAlignedDimension
 13
87.49999999999998
 23
326.8165692823121
 33
0.0
 14
87.50000000000003
 24
223.8165692823123
 34
0.0
 50
90.0
100
AcDbRotatedDimension
1001
ACAD
1000
DSTYLE
1002
{
1070
    79
1070
     3
1002
}
  0
DIMENSION
  5
735C
330
1E
100
AcDbEntity
  8
30
  6
Continuous
100
AcDbDimension
  2
*D31
 10
122.9809933074107
 20
219.8165692823123
 30
0.0
 11
119.9809933074106
 21
273.3165692823122
 31
0.0
 70
    32
 71
     5
 42
106.9999999999998
  3
STANDARD
100
AcDbAlignedDimension
 13
87.49999999999998
 23
326.8165692823121
 33
0.0
 14
48.99999999999997
 24
219.8165692823123
 34
0.0
 50
90.0
100
AcDbRotatedDimension
1001
ACAD
1000
DSTYLE
1002
{
1070
    79
1070
     3
1002
}
  0
VIEWPORT
  5
9AC
102
{ACAD_XDICTIONARY
360
7389
102
}
330
1A
100
AcDbEntity
 67
     1
  8
0
  6
Continuous
100
AcDbViewport
 10
171.999535
 20
144.1384739999999
 30
0.0
 40
488.867686
 41
292.351491
 68
    -1
 69
     1
 12
171.999535
 22
144.1384739999999
 13
0.0
 23
0.0
 14
10.0
 24
10.0
 15
10.0
 25
10.0
 16
0.0
 26
0.0
 36
1.0
 17
0.0
 27
0.0
 37
0.0
 42
50.0
 43
0.0
 44
0.0
 45
292.351491
 50
0.0
 51
0.0
 72
   100
 90
    32800
  1

281
     0
 71
     1
 74
     0
110
0.0
120
0.0
130
0.0
111
1.0
121
0.0
131
0.0
112
0.0
122
1.0
132
0.0
 79
     0
146
0.0
  0
ENDSEC
  0
SECTION
  2
OBJECTS
  0
DICTIONARY
  5
C
330
0
100
AcDbDictionary
281
     1
  3
ACAD_CIP_PREVIOUS_PRODUCT_INFO
350
7323
  3
ACAD_COLOR
350
7307
  3
ACAD_DETAILVIEWSTYLE
350
7320
  3
ACAD_GROUP
350
D
  3
ACAD_LAYOUT
350
19
  3
ACAD_MATERIAL
350
72D5
  3
ACAD_MLEADERSTYLE
350
731C
  3
ACAD_MLINESTYLE
350
16
  3
ACAD_PLOTSETTINGS
350
18
  3
ACAD_PLOTSTYLENAME
350
E
  3
ACAD_SCALELIST
350
730A
  3
ACAD_SECTIONVIEWSTYLE
350
731E
  3
ACAD_TABLESTYLE
350
7308
  3
ACAD_VISUALSTYLE
350
72EE
  3
ACADDIM
350
5C76
  3
ACDB_RECOMPOSE_DATA
350
7387
  3
ACDBVARIABLEDICTIONARY
350
5697
  3
DWGPROPS
350
7388
  0
DICTIONARY
  5
7369
330
10
100
AcDbDictionary
280
     1
281
     1
  3
ADSK_XREC_LAYER_RECONCILED
360
736A
  0
DICTIONARY
  5
736B
330
2F
100
AcDbDictionary
280
     1
281
     1
  3
ADSK_XREC_LAYER_RECONCILED
360
736C
  0
DICTIONARY
  5
736D
330
31
100
AcDbDictionary
280
     1
281
     1
  3
ADSK_XREC_LAYER_RECONCILED
360
736E
  0
DICTIONARY
  5
736F
330
35
100
AcDbDictionary
280
     1
281
     1
  3
ADSK_XREC_LAYER_RECONCILED
360
7370
  0
DICTIONARY
  5
7371
330
38
100
AcDbDictionary
280
     1
281
     1
  3
ADSK_XREC_LAYER_RECONCILED
360
7372
  0
DICTIONARY
  5
7373
330
3C
100
AcDbDictionary
280
     1
281
     1
  3
ADSK_XREC_LAYER_RECONCILED
360
7374
  0
DICTIONARY
  5
7375
330
3D
100
AcDbDictionary
280
     1
281
     1
  3
ADSK_XREC_LAYER_RECONCILED
360
7376
  0
DICTIONARY
  5
7377
330
3A2
100
AcDbDictionary
280
     1
281
     1
  3
ADSK_XREC_LAYER_RECONCILED
360
7378
  0
DICTIONARY
  5
7379
330
3BBA
100
AcDbDictionary
280
     1
281
     1
  3
ADSK_XREC_LAYER_RECONCILED
360
737A
  0
DICTIONARY
  5
737B
330
5C47
100
AcDbDictionary
280
     1
281
     1
  3
ADSK_XREC_LAYER_RECONCILED
360
737C
  0
DICTIONARY
  5
178
330
1E
100
AcDbDictionary
280
     1
281
     1
  3
ACAD_LAYOUTSELFREF
360
729C
  0
DICTIONARY
  5
17A
330
1A
100
AcDbDictionary
280
     1
281
     1
  3
ACAD_LAYOUTSELFREF
360
729B
  0
DICTIONARY
  5
7389
330
9AC
100
AcDbDictionary
280
     1
281
     1
  3
ACAD_XREC_ROUNDTRIP
360
738A
  0
XRECORD
  5
7323
102
{ACAD_REACTORS
330
C
102
}
330
C
100
AcDbXrecord
280
     1
300
ACDLT
300
2015
300
ACDLT_F_S
  0
DICTIONARY
  5
7307
102
{ACAD_REACTORS
330
C
102
}
330
C
100
AcDbDictionary
281
     1
  0
DICTIONARY
  5
7320
102
{ACAD_REACTORS
330
C
102
}
330
C
100
AcDbDictionary
281
     1
  3
Imperial24
350
7321
  0
DICTIONARY
  5
D
102
{ACAD_REACTORS
330
C
102
}
330
C
100
AcDbDictionary
281
     1
  0
DICTIONARY
  5
19
102
{ACAD_REACTORS
330
C
102
}
330
C
100
AcDbDictionary
281
     1
  3
Model
350
72C8
  3
ﾚｲｱｳﾄ1
350
72C9
  0
DICTIONARY
  5
72D5
102
{ACAD_REACTORS
330
C
102
}
330
C
100
AcDbDictionary
281
     1
  3
ByBlock
350
72DE
  3
ByLayer
350
72D6
  3
Global
350
72E6
  0
DICTIONARY
  5
731C
102
{ACAD_REACTORS
330
C
102
}
330
C
100
AcDbDictionary
281
     1
  3
Standard
350
731D
  0
DICTIONARY
  5
16
102
{ACAD_REACTORS
330
C
102
}
330
C
100
AcDbDictionary
281
     1
  3
STANDARD
350
17
  0
DICTIONARY
  5
18
102
{ACAD_REACTORS
330
C
102
}
330
C
100
AcDbDictionary
281
     1
  0
ACDBDICTIONARYWDFLT
  5
E
102
{ACAD_REACTORS
330
C
102
}
330
C
100
AcDbDictionary
281
     1
  3
Normal
350
F
100
AcDbDictionaryWithDefault
340
F
  0
DICTIONARY
  5
730A
102
{ACAD_REACTORS
330
C
102
}
330
C
100
AcDbDictionary
281
     1
  3
A0
350
730B
  3
A1
350
730C
  3
A2
350
730D
  3
A3
350
730E
  3
A4
350
730F
  3
A5
350
7310
  3
A6
350
7311
  3
A7
350
7312
  3
A8
350
7313
  3
A9
350
7314
  3
B0
350
7315
  3
B1
350
7316
  3
B2
350
7317
  3
B3
350
7318
  3
B4
350
7319
  3
B5
350
731A
  3
B6
350
731B
  0
DICTIONARY
  5
731E
102
{ACAD_REACTORS
330
C
102
}
330
C
100
AcDbDictionary
281
     1
  3
Imperial24
350
731F
  0
DICTIONARY
  5
7308
102
{ACAD_REACTORS
330
C
102
}
330
C
100
AcDbDictionary
281
     1
  3
Standard
350
7309
  0
DICTIONARY
  5
72EE
102
{ACAD_REACTORS
330
C
102
}
330
C
100
AcDbDictionary
281
     1
  3
2dWireframe
350
72F4
  3
Basic
350
72F3
  3
Brighten
350
72FA
  3
ColorChange
350
72FE
  3
Conceptual
350
72F7
  3
Dim
350
72F9
  3
EdgeColorOff
350
7306
  3
Facepattern
350
72FD
  3
Flat
350
72EF
  3
FlatWithEdges
350
72F0
  3
Gouraud
350
72F1
  3
GouraudWithEdges
350
72F2
  3
Hidden
350
72F6
  3
JitterOff
350
7304
  3
Linepattern
350
72FC
  3
OverhangOff
350
7305
  3
Realistic
350
72F8
  3
Shaded
350
7303
  3
Shaded with edges
350
7302
  3
Shades of Gray
350
72FF
  3
Sketchy
350
7300
  3
Thicken
350
72FB
  3
Wireframe
350
72F5
  3
X-Ray
350
7301
  0
XRECORD
  5
5C76
102
{ACAD_REACTORS
330
C
102
}
330
C
100
AcDbXrecord
280
     1
 90
   990106
  3

 60
     0
 61
     0
 62
     1
 63
     3
 64
     0
 65
     0
 66
     0
 67
     3
 68
     1
 69
     0
 70
     0
 71
     0
 72
     0
 40
0.0
170
     0
340
6068
  0
XRECORD
  5
7387
102
{ACAD_REACTORS
330
C
102
}
330
C
100
AcDbXrecord
280
     1
 90
        1
330
7309
  0
DICTIONARY
  5
5697
102
{ACAD_REACTORS
330
C
102
}
330
C
100
AcDbDictionary
281
     1
  3
CANNOSCALE
350
7381
  3
CMLEADERSTYLE
350
737E
  3
CTABLESTYLE
350
737D
  3
CVIEWDETAILSTYLE
350
737F
  3
CVIEWSECTIONSTYLE
350
7380
  3
DIMASSOC
350
5698
  3
INDEXCTL
350
7383
  3
SORTENTS
350
7382
  3
XCLIPFRAME
350
7384
  0
XRECORD
  5
7388
102
{ACAD_REACTORS
330
C
102
}
330
C
100
AcDbXrecord
280
     1
  1
DWGPROPS COOKIE
  2

  3

  4

  6

  7

  8
ktomoto
  9

300
=
301
=
302
=
303
=
304
=
305
=
306
=
307
=
308
=
309
=
 40
1.339410127314814
 41
2452286.555658658
 42
2457458.56297507
  1

 90
        0
  0
XRECORD
  5
736A
102
{ACAD_REACTORS
330
7369
102
}
330
7369
100
AcDbXrecord
280
     1
290
     1
  0
XRECORD
  5
736C
102
{ACAD_REACTORS
330
736B
102
}
330
736B
100
AcDbXrecord
280
     1
290
     1
  0
XRECORD
  5
736E
102
{ACAD_REACTORS
330
736D
102
}
330
736D
100
AcDbXrecord
280
     1
290
     1
  0
XRECORD
  5
7370
102
{ACAD_REACTORS
330
736F
102
}
330
736F
100
AcDbXrecord
280
     1
290
     1
  0
XRECORD
  5
7372
102
{ACAD_REACTORS
330
7371
102
}
330
7371
100
AcDbXrecord
280
     1
290
     1
  0
XRECORD
  5
7374
102
{ACAD_REACTORS
330
7373
102
}
330
7373
100
AcDbXrecord
280
     1
290
     1
  0
XRECORD
  5
7376
102
{ACAD_REACTORS
330
7375
102
}
330
7375
100
AcDbXrecord
280
     1
290
     1
  0
XRECORD
  5
7378
102
{ACAD_REACTORS
330
7377
102
}
330
7377
100
AcDbXrecord
280
     1
290
     1
  0
XRECORD
  5
737A
102
{ACAD_REACTORS
330
7379
102
}
330
7379
100
AcDbXrecord
280
     1
290
     1
  0
XRECORD
  5
737C
102
{ACAD_REACTORS
330
737B
102
}
330
737B
100
AcDbXrecord
280
     1
290
     1
  0
XRECORD
  5
729C
102
{ACAD_REACTORS
330
178
102
}
330
178
100
AcDbXrecord
280
     1
340
1E
  0
XRECORD
  5
729B
102
{ACAD_REACTORS
330
17A
102
}
330
17A
100
AcDbXrecord
280
     1
340
1A
  0
XRECORD
  5
738A
102
{ACAD_REACTORS
330
7389
102
}
330
7389
100
AcDbXrecord
280
     1
102
SHADEPLOT
 70
     0
  0
ACDBDETAILVIEWSTYLE
  5
7321
102
{ACAD_XDICTIONARY
360
73C6
102
}
102
{ACAD_REACTORS
330
7320
102
}
330
7320
100
AcDbModelDocViewStyle
 70
     0
  3
Imperial24
290
     0
100
AcDbDetailViewStyle
 70
     0
 71
     0
 90
        3
 71
     1
340
11
 40
0.24
340
0
 40
0.24
300

 40
0.36
280
     3
 71
     2
340
15
 90
       25
 71
     3
340
11
 40
0.24
 90
        1
 40
0.75
 90
        1
300
%<\AcVar ViewType \f "%tc1">% %<\AcVar ViewDetailId>%\PSCALE %<\AcVar ViewScale \f "%sn">%
 71
     4
340
15
 90
       25
340
15
 90
       25
280
     0
  0
LAYOUT
  5
72C8
102
{ACAD_XDICTIONARY
360
738B
102
}
102
{ACAD_REACTORS
330
19
102
}
330
19
100
AcDbPlotSettings
  1

  2
Canon LBP3800 LIPSLX
  4

  6

 40
0.0
 41
0.0
 42
0.0
 43
0.0
 44
0.0
 45
0.0
 46
0.0
 47
0.0
 48
0.0
 49
0.0
140
0.0
141
0.0
142
1.0
143
1.0
 70
  1712
 72
     0
 73
     0
 74
     0
  7
monochrome.ctb
 75
     0
147
1.0
148
0.0
149
0.0
100
AcDbLayout
  1
Model
 70
     1
 71
     0
 10
0.0
 20
0.0
 11
12.0
 21
9.0
 12
0.0
 22
0.0
 32
0.0
 14
0.0
 24
0.0
 34
0.0
 15
0.0
 25
0.0
 35
0.0
146
0.0
 13
0.0
 23
0.0
 33
0.0
 16
1.0
 26
0.0
 36
0.0
 17
0.0
 27
1.0
 37
0.0
 76
     0
330
1E
331
72CD
  0
LAYOUT
  5
72C9
102
{ACAD_XDICTIONARY
360
738D
102
}
102
{ACAD_REACTORS
330
19
102
}
330
19
100
AcDbPlotSettings
  1

  2
Canon LBP3800 LIPSLX
  4

  6

 40
0.0
 41
0.0
 42
0.0
 43
0.0
 44
0.0
 45
0.0
 46
0.0
 47
0.0
 48
0.0
 49
0.0
140
0.0
141
0.0
142
1.0
143
1.0
 70
   688
 72
     0
 73
     0
 74
     5
  7
monochrome.ctb
 75
    16
147
1.0
148
0.0
149
0.0
100
AcDbLayout
  1
ﾚｲｱｳﾄ1
 70
     1
 71
     1
 10
-5.873749
 20
-5.87375
 11
204.099579
 21
291.1369009999999
 12
0.0
 22
0.0
 32
0.0
 14
4.273573
 24
5.205245999999998
 34
0.0
 15
194.610095
 25
283.0697009999996
 35
0.0
146
0.0
 13
0.0
 23
0.0
 33
0.0
 16
1.0
 26
0.0
 36
0.0
 17
0.0
 27
1.0
 37
0.0
 76
     0
330
1A
  0
MATERIAL
  5
72DE
102
{ACAD_XDICTIONARY
360
72DF
102
}
102
{ACAD_REACTORS
330
72D5
102
}
330
72D5
100
AcDbMaterial
  1
ByBlock
 72
     0
 43
0.0208333333333333
 43
0.0
 43
0.0
 43
0.0
 43
0.0
 43
0.0208333333333333
 43
0.0
 43
0.0
 43
0.0
 43
0.0
 43
1.0
 43
0.0
 43
0.0
 43
0.0
 43
0.0
 43
1.0
 77
     0
 47
0.0208333333333333
 47
0.0
 47
0.0
 47
0.0
 47
0.0
 47
0.0208333333333333
 47
0.0
 47
0.0
 47
0.0
 47
0.0
 47
1.0
 47
0.0
 47
0.0
 47
0.0
 47
0.0
 47
1.0
171
     0
 49
0.0208333333333333
 49
0.0
 49
0.0
 49
0.0
 49
0.0
 49
0.0208333333333333
 49
0.0
 49
0.0
 49
0.0
 49
0.0
 49
1.0
 49
0.0
 49
0.0
 49
0.0
 49
0.0
 49
1.0
175
     0
142
0.0208333333333333
142
0.0
142
0.0
142
0.0
142
0.0
142
0.0208333333333333
142
0.0
142
0.0
142
0.0
142
0.0
142
1.0
142
0.0
142
0.0
142
0.0
142
0.0
142
1.0
179
     0
144
0.0208333333333333
144
0.0
144
0.0
144
0.0
144
0.0
144
0.0208333333333333
144
0.0
144
0.0
144
0.0
144
0.0
144
1.0
144
0.0
144
0.0
144
0.0
144
0.0
144
1.0
147
0.0208333333333333
147
0.0
147
0.0
147
0.0
147
0.0
147
0.0208333333333333
147
0.0
147
0.0
147
0.0
147
0.0
147
1.0
147
0.0
147
0.0
147
0.0
147
0.0
147
1.0
  0
MATERIAL
  5
72D6
102
{ACAD_XDICTIONARY
360
72D7
102
}
102
{ACAD_REACTORS
330
72D5
102
}
330
72D5
100
AcDbMaterial
  1
ByLayer
 72
     0
 43
0.0208333333333333
 43
0.0
 43
0.0
 43
0.0
 43
0.0
 43
0.0208333333333333
 43
0.0
 43
0.0
 43
0.0
 43
0.0
 43
1.0
 43
0.0
 43
0.0
 43
0.0
 43
0.0
 43
1.0
 77
     0
 47
0.0208333333333333
 47
0.0
 47
0.0
 47
0.0
 47
0.0
 47
0.0208333333333333
 47
0.0
 47
0.0
 47
0.0
 47
0.0
 47
1.0
 47
0.0
 47
0.0
 47
0.0
 47
0.0
 47
1.0
171
     0
 49
0.0208333333333333
 49
0.0
 49
0.0
 49
0.0
 49
0.0
 49
0.0208333333333333
 49
0.0
 49
0.0
 49
0.0
 49
0.0
 49
1.0
 49
0.0
 49
0.0
 49
0.0
 49
0.0
 49
1.0
175
     0
142
0.0208333333333333
142
0.0
142
0.0
142
0.0
142
0.0
142
0.0208333333333333
142
0.0
142
0.0
142
0.0
142
0.0
142
1.0
142
0.0
142
0.0
142
0.0
142
0.0
142
1.0
179
     0
144
0.0208333333333333
144
0.0
144
0.0
144
0.0
144
0.0
144
0.0208333333333333
144
0.0
144
0.0
144
0.0
144
0.0
144
1.0
144
0.0
144
0.0
144
0.0
144
0.0
144
1.0
147
0.0208333333333333
147
0.0
147
0.0
147
0.0
147
0.0
147
0.0208333333333333
147
0.0
147
0.0
147
0.0
147
0.0
147
1.0
147
0.0
147
0.0
147
0.0
147
0.0
147
1.0
  0
MATERIAL
  5
72E6
102
{ACAD_XDICTIONARY
360
72E7
102
}
102
{ACAD_REACTORS
330
72D5
102
}
330
72D5
100
AcDbMaterial
  1
Global
 72
     0
 43
0.0208333333333333
 43
0.0
 43
0.0
 43
0.0
 43
0.0
 43
0.0208333333333333
 43
0.0
 43
0.0
 43
0.0
 43
0.0
 43
1.0
 43
0.0
 43
0.0
 43
0.0
 43
0.0
 43
1.0
 77
     0
 47
0.0208333333333333
 47
0.0
 47
0.0
 47
0.0
 47
0.0
 47
0.0208333333333333
 47
0.0
 47
0.0
 47
0.0
 47
0.0
 47
1.0
 47
0.0
 47
0.0
 47
0.0
 47
0.0
 47
1.0
171
     0
 49
0.0208333333333333
 49
0.0
 49
0.0
 49
0.0
 49
0.0
 49
0.0208333333333333
 49
0.0
 49
0.0
 49
0.0
 49
0.0
 49
1.0
 49
0.0
 49
0.0
 49
0.0
 49
0.0
 49
1.0
175
     0
142
0.0208333333333333
142
0.0
142
0.0
142
0.0
142
0.0
142
0.0208333333333333
142
0.0
142
0.0
142
0.0
142
0.0
142
1.0
142
0.0
142
0.0
142
0.0
142
0.0
142
1.0
179
     0
144
0.0208333333333333
144
0.0
144
0.0
144
0.0
144
0.0
144
0.0208333333333333
144
0.0
144
0.0
144
0.0
144
0.0
144
1.0
144
0.0
144
0.0
144
0.0
144
0.0
144
1.0
147
0.0208333333333333
147
0.0
147
0.0
147
0.0
147
0.0
147
0.0208333333333333
147
0.0
147
0.0
147
0.0
147
0.0
147
1.0
147
0.0
147
0.0
147
0.0
147
0.0
147
1.0
  0
MLEADERSTYLE
  5
731D
102
{ACAD_REACTORS
330
731C
102
}
330
731C
100
AcDbMLeaderStyle
170
     2
171
     1
172
     0
 90
        2
 40
0.0
 41
0.0
173
     1
 91
-1056964608
340
13
 92
       -2
290
     1
 42
0.09
291
     1
 43
0.36
  3
Standard
 44
0.18
300

342
11
174
     1
178
     6
175
     1
176
     0
 93
-1056964608
 45
0.18
292
     0
297
     0
 46
0.18
 94
-1056964608
 47
1.0
 49
1.0
140
1.0
293
     1
141
0.0
294
     1
177
     0
142
1.0
295
     0
296
     0
143
0.125
1001
ACAD_MLEADERVER
1070
     2
  0
MLINESTYLE
  5
17
102
{ACAD_REACTORS
330
16
102
}
330
16
100
AcDbMlineStyle
  2
STANDARD
 70
     0
  3

 62
   256
 51
90.0
 52
90.0
 71
     2
 49
0.5
 62
   256
  6
BYLAYER
 49
-0.5
 62
   256
  6
BYLAYER
  0
ACDBPLACEHOLDER
  5
F
102
{ACAD_REACTORS
330
E
102
}
330
E
  0
SCALE
  5
730B
102
{ACAD_REACTORS
330
730A
102
}
330
730A
100
AcDbScale
 70
     0
300
1:1
140
1.0
141
1.0
290
     1
  0
SCALE
  5
730C
102
{ACAD_REACTORS
330
730A
102
}
330
730A
100
AcDbScale
 70
     0
300
1/128" = 1'-0"
140
0.0078125
141
12.0
290
     0
  0
SCALE
  5
730D
102
{ACAD_REACTORS
330
730A
102
}
330
730A
100
AcDbScale
 70
     0
300
1/64" = 1'-0"
140
0.015625
141
12.0
290
     0
  0
SCALE
  5
730E
102
{ACAD_REACTORS
330
730A
102
}
330
730A
100
AcDbScale
 70
     0
300
1/32" = 1'-0"
140
0.03125
141
12.0
290
     0
  0
SCALE
  5
730F
102
{ACAD_REACTORS
330
730A
102
}
330
730A
100
AcDbScale
 70
     0
300
1/16" = 1'-0"
140
0.0625
141
12.0
290
     0
  0
SCALE
  5
7310
102
{ACAD_REACTORS
330
730A
102
}
330
730A
100
AcDbScale
 70
     0
300
3/32" = 1'-0"
140
0.09375
141
12.0
290
     0
  0
SCALE
  5
7311
102
{ACAD_REACTORS
330
730A
102
}
330
730A
100
AcDbScale
 70
     0
300
1/8" = 1'-0"
140
0.125
141
12.0
290
     0
  0
SCALE
  5
7312
102
{ACAD_REACTORS
330
730A
102
}
330
730A
100
AcDbScale
 70
     0
300
3/16" = 1'-0"
140
0.1875
141
12.0
290
     0
  0
SCALE
  5
7313
102
{ACAD_REACTORS
330
730A
102
}
330
730A
100
AcDbScale
 70
     0
300
1/4" = 1'-0"
140
0.25
141
12.0
290
     0
  0
SCALE
  5
7314
102
{ACAD_REACTORS
330
730A
102
}
330
730A
100
AcDbScale
 70
     0
300
3/8" = 1'-0"
140
0.375
141
12.0
290
     0
  0
SCALE
  5
7315
102
{ACAD_REACTORS
330
730A
102
}
330
730A
100
AcDbScale
 70
     0
300
1/2" = 1'-0"
140
0.5
141
12.0
290
     0
  0
SCALE
  5
7316
102
{ACAD_REACTORS
330
730A
102
}
330
730A
100
AcDbScale
 70
     0
300
3/4" = 1'-0"
140
0.75
141
12.0
290
     0
  0
SCALE
  5
7317
102
{ACAD_REACTORS
330
730A
102
}
330
730A
100
AcDbScale
 70
     0
300
1" = 1'-0"
140
1.0
141
12.0
290
     0
  0
SCALE
  5
7318
102
{ACAD_REACTORS
330
730A
102
}
330
730A
100
AcDbScale
 70
     0
300
1-1/2" = 1'-0"
140
1.5
141
12.0
290
     0
  0
SCALE
  5
7319
102
{ACAD_REACTORS
330
730A
102
}
330
730A
100
AcDbScale
 70
     0
300
3" = 1'-0"
140
3.0
141
12.0
290
     0
  0
SCALE
  5
731A
102
{ACAD_REACTORS
330
730A
102
}
330
730A
100
AcDbScale
 70
     0
300
6" = 1'-0"
140
6.0
141
12.0
290
     0
  0
SCALE
  5
731B
102
{ACAD_REACTORS
330
730A
102
}
330
730A
100
AcDbScale
 70
     0
300
1'-0" = 1'-0"
140
12.0
141
12.0
290
     0
  0
ACDBSECTIONVIEWSTYLE
  5
731F
102
{ACAD_XDICTIONARY
360
73C4
102
}
102
{ACAD_REACTORS
330
731E
102
}
330
731E
100
AcDbModelDocViewStyle
 70
     0
  3
Imperial24
290
     0
100
AcDbSectionViewStyle
 70
     0
 71
     0
 90
       78
 71
     1
340
11
 40
0.24
340
0
340
0
 40
0.24
300
I, O, Q, S, X, Z
 40
0.48
 90
        3
 40
0.18
 90
        1
 71
     2
340
15
 90
       25
340
15
 90
       50
 40
0.24
 40
0.0
 40
0.24
 71
     3
340
11
 40
0.24
 90
        1
 40
0.75
 90
        1
300
%<\AcVar ViewType \f "%tc1">% %<\AcVar ViewSectionStartId>%-%<\AcVar ViewSectionEndId>%\PSCALE %<\AcVar ViewScale \f "%sn">%
 71
     4
300
ANSI31
 40
1.0
 90
        0
290
     0
290
     0
 90
        6
 40
0.0
 40
1.570796326794896
 40
0.2617993877991494
 40
1.308996938995747
 40
-0.2617993877991494
 40
1.832595714594046
  0
TABLESTYLE
  5
7309
102
{ACAD_XDICTIONARY
360
7385
102
}
102
{ACAD_REACTORS
330
7308
102
}
330
7308
100
AcDbTableStyle
  3
Standard
 70
     0
 71
     0
 40
0.06
 41
0.06
280
     0
281
     0
  7
STANDARD
140
0.18
170
     2
 62
     0
 63
     7
283
     0
274
    -2
284
     1
 64
     0
275
    -2
285
     1
 65
     0
276
    -2
286
     1
 66
     0
277
    -2
287
     1
 67
     0
278
    -2
288
     1
 68
     0
279
    -2
289
     1
 69
     0
  7
STANDARD
140
0.25
170
     5
 62
     0
 63
     7
283
     0
274
    -2
284
     1
 64
     0
275
    -2
285
     1
 65
     0
276
    -2
286
     1
 66
     0
277
    -2
287
     1
 67
     0
278
    -2
288
     1
 68
     0
279
    -2
289
     1
 69
     0
  7
STANDARD
140
0.18
170
     5
 62
     0
 63
     7
283
     0
274
    -2
284
     1
 64
     0
275
    -2
285
     1
 65
     0
276
    -2
286
     1
 66
     0
277
    -2
287
     1
 67
     0
278
    -2
288
     1
 68
     0
279
    -2
289
     1
 69
     0
  0
VISUALSTYLE
  5
72F4
102
{ACAD_XDICTIONARY
360
739C
102
}
102
{ACAD_REACTORS
330
72EE
102
}
330
72EE
100
AcDbVisualStyle
  2
2dWireframe
 70
     4
 71
     0
 72
     2
 73
     0
 90
        0
 40
-0.6
 41
-30.0
 62
     5
 63
     7
 74
     1
 91
        4
 64
     7
 65
   257
 75
     1
175
     1
 42
1.0
 92
        0
 66
   257
 43
1.0
 76
     1
 77
     6
 78
     2
 67
     7
 79
     5
170
     0
171
     0
290
     0
174
     0
 93
        1
 44
0.0
173
     0
291
     0
 45
0.0
1001
ACAD
1000
AcDbSavedByObjectVersion
1070
     0
  0
VISUALSTYLE
  5
72F3
102
{ACAD_XDICTIONARY
360
739A
102
}
102
{ACAD_REACTORS
330
72EE
102
}
330
72EE
100
AcDbVisualStyle
  2
Basic
 70
     7
 71
     1
 72
     0
 73
     1
 90
        0
 40
-0.6
 41
-30.0
 62
     5
 63
     7
 74
     0
 91
        4
 64
     7
 65
   257
 75
     1
175
     1
 42
1.0
 92
        8
 66
     7
 43
1.0
 76
     1
 77
     6
 78
     2
 67
     7
 79
     5
170
     0
171
     0
290
     0
174
     0
 93
        1
 44
0.0
173
     0
291
     1
 45
0.0
1001
ACAD
1000
AcDbSavedByObjectVersion
1070
     0
  0
VISUALSTYLE
  5
72FA
102
{ACAD_XDICTIONARY
360
73A8
102
}
102
{ACAD_REACTORS
330
72EE
102
}
330
72EE
100
AcDbVisualStyle
  2
Brighten
 70
    12
 71
     2
 72
     2
 73
     0
 90
        0
 40
-0.6
 41
-30.0
 62
     5
 63
     7
 74
     1
 91
        4
 64
     7
 65
   257
 75
     1
175
     1
 42
1.0
 92
        8
 66
     7
 43
1.0
 76
     1
 77
     6
 78
     2
 67
     7
 79
     5
170
     0
171
     0
290
     0
174
     0
 93
        1
 44
50.0
173
     0
291
     1
 45
0.0
1001
ACAD
1000
AcDbSavedByObjectVersion
1070
     0
  0
VISUALSTYLE
  5
72FE
102
{ACAD_XDICTIONARY
360
73B0
102
}
102
{ACAD_REACTORS
330
72EE
102
}
330
72EE
100
AcDbVisualStyle
  2
ColorChange
 70
    16
 71
     2
 72
     2
 73
     3
 90
        0
 40
-0.6
 41
-30.0
 62
     5
 63
     8
 74
     1
 91
        4
 64
     7
 65
   257
 75
     1
175
     1
 42
1.0
 92
        8
 66
     8
 43
1.0
 76
     1
 77
     6
 78
     2
 67
     7
 79
     5
170
     0
171
     0
290
     0
174
     0
 93
        1
 44
0.0
173
     0
291
     1
 45
0.0
1001
ACAD
1000
AcDbSavedByObjectVersion
1070
     0
  0
VISUALSTYLE
  5
72F7
102
{ACAD_XDICTIONARY
360
73A2
102
}
102
{ACAD_REACTORS
330
72EE
102
}
330
72EE
100
AcDbVisualStyle
  2
Conceptual
 70
     9
 71
     3
 72
     2
 73
     0
 90
        0
 40
-0.6
 41
-30.0
 62
     5
 63
     7
 74
     2
 91
        2
 64
     7
 65
   257
 75
     1
175
     1
 42
179.0
 92
        8
 66
     7
 43
1.0
 76
     1
 77
     6
 78
     2
 67
     7
 79
     3
170
     0
171
     0
290
     0
174
     0
 93
        1
 44
0.0
173
     0
291
     0
 45
0.0
1001
ACAD
1000
AcDbSavedByObjectVersion
1070
     0
  0
VISUALSTYLE
  5
72F9
102
{ACAD_XDICTIONARY
360
73A6
102
}
102
{ACAD_REACTORS
330
72EE
102
}
330
72EE
100
AcDbVisualStyle
  2
Dim
 70
    11
 71
     2
 72
     2
 73
     0
 90
        0
 40
-0.6
 41
-30.0
 62
     5
 63
     7
 74
     1
 91
        4
 64
     7
 65
   257
 75
     1
175
     1
 42
1.0
 92
        8
 66
     7
 43
1.0
 76
     1
 77
     6
 78
     2
 67
     7
 79
     5
170
     0
171
     0
290
     0
174
     0
 93
        1
 44
-50.0
173
     0
291
     1
 45
0.0
1001
ACAD
1000
AcDbSavedByObjectVersion
1070
     0
  0
VISUALSTYLE
  5
7306
102
{ACAD_XDICTIONARY
360
73C0
102
}
102
{ACAD_REACTORS
330
72EE
102
}
330
72EE
100
AcDbVisualStyle
  2
EdgeColorOff
 70
    22
 71
     2
 72
     2
 73
     0
 90
        0
 40
-0.6
 41
-30.0
 62
     5
 63
     7
 74
     1
 91
        4
 64
     7
 65
   257
 75
     1
175
     1
 42
1.0
 92
        8
 66
     7
 43
1.0
 76
     1
 77
     6
 78
     2
 67
     7
 79
     5
170
     0
171
     0
290
     0
174
     0
 93
        1
 44
0.0
173
     0
291
     1
 45
0.0
1001
ACAD
1000
AcDbSavedByObjectVersion
1070
     0
  0
VISUALSTYLE
  5
72FD
102
{ACAD_XDICTIONARY
360
73AE
102
}
102
{ACAD_REACTORS
330
72EE
102
}
330
72EE
100
AcDbVisualStyle
  2
Facepattern
 70
    15
 71
     2
 72
     2
 73
     0
 90
        0
 40
-0.6
 41
-30.0
 62
     5
 63
     7
 74
     1
 91
        4
 64
     7
 65
   257
 75
     1
175
     1
 42
1.0
 92
        8
 66
     7
 43
1.0
 76
     1
 77
     6
 78
     2
 67
     7
 79
     5
170
     0
171
     0
290
     0
174
     0
 93
        1
 44
0.0
173
     0
291
     1
 45
0.0
1001
ACAD
1000
AcDbSavedByObjectVersion
1070
     0
  0
VISUALSTYLE
  5
72EF
102
{ACAD_XDICTIONARY
360
7392
102
}
102
{ACAD_REACTORS
330
72EE
102
}
330
72EE
100
AcDbVisualStyle
  2
Flat
 70
     0
 71
     2
 72
     1
 73
     1
 90
        2
 40
-0.6
 41
30.0
 62
     5
 63
     7
 74
     0
 91
        0
 64
     7
 65
   257
 75
     1
175
     1
 42
1.0
 92
        8
 66
     7
 43
1.0
 76
     1
 77
     6
 78
     2
 67
     7
 79
     5
170
     0
171
     0
290
     0
174
     0
 93
       13
 44
0.0
173
     0
291
     1
 45
0.0
1001
ACAD
1000
AcDbSavedByObjectVersion
1070
     0
  0
VISUALSTYLE
  5
72F0
102
{ACAD_XDICTIONARY
360
7394
102
}
102
{ACAD_REACTORS
330
72EE
102
}
330
72EE
100
AcDbVisualStyle
  2
FlatWithEdges
 70
     1
 71
     2
 72
     1
 73
     1
 90
        2
 40
-0.6
 41
30.0
 62
     5
 63
     7
 74
     1
 91
        0
 64
     7
 65
   257
 75
     1
175
     1
 42
1.0
 92
        0
 66
   257
 43
1.0
 76
     1
 77
     6
 78
     2
 67
     7
 79
     5
170
     0
171
     0
290
     0
174
     0
 93
       13
 44
0.0
173
     0
291
     1
 45
0.0
1001
ACAD
1000
AcDbSavedByObjectVersion
1070
     0
  0
VISUALSTYLE
  5
72F1
102
{ACAD_XDICTIONARY
360
7396
102
}
102
{ACAD_REACTORS
330
72EE
102
}
330
72EE
100
AcDbVisualStyle
  2
Gouraud
 70
     2
 71
     2
 72
     2
 73
     1
 90
        2
 40
-0.6
 41
30.0
 62
     5
 63
     7
 74
     0
 91
        0
 64
     7
 65
   257
 75
     1
175
     1
 42
1.0
 92
        0
 66
     7
 43
1.0
 76
     1
 77
     6
 78
     2
 67
     7
 79
     5
170
     0
171
     0
290
     0
174
     0
 93
       13
 44
0.0
173
     0
291
     1
 45
0.0
1001
ACAD
1000
AcDbSavedByObjectVersion
1070
     0
  0
VISUALSTYLE
  5
72F2
102
{ACAD_XDICTIONARY
360
7398
102
}
102
{ACAD_REACTORS
330
72EE
102
}
330
72EE
100
AcDbVisualStyle
  2
GouraudWithEdges
 70
     3
 71
     2
 72
     2
 73
     1
 90
        2
 40
-0.6
 41
30.0
 62
     5
 63
     7
 74
     1
 91
        0
 64
     7
 65
   257
 75
     1
175
     1
 42
1.0
 92
        0
 66
   257
 43
1.0
 76
     1
 77
     6
 78
     2
 67
     7
 79
     5
170
     0
171
     0
290
     0
174
     0
 93
       13
 44
0.0
173
     0
291
     1
 45
0.0
1001
ACAD
1000
AcDbSavedByObjectVersion
1070
     0
  0
VISUALSTYLE
  5
72F6
102
{ACAD_XDICTIONARY
360
73A0
102
}
102
{ACAD_REACTORS
330
72EE
102
}
330
72EE
100
AcDbVisualStyle
  2
Hidden
 70
     6
 71
     1
 72
     2
 73
     2
 90
        0
 40
-0.6
 41
-30.0
 62
     5
 63
     7
 74
     2
 91
        2
 64
     7
 65
   257
 75
     2
175
     1
 42
40.0
 92
        0
 66
   257
 43
1.0
 76
     1
 77
     6
 78
     2
 67
     7
 79
     3
170
     0
171
     0
290
     0
174
     0
 93
        1
 44
0.0
173
     0
291
     0
 45
0.0
1001
ACAD
1000
AcDbSavedByObjectVersion
1070
     0
  0
VISUALSTYLE
  5
7304
102
{ACAD_XDICTIONARY
360
73BC
102
}
102
{ACAD_REACTORS
330
72EE
102
}
330
72EE
100
AcDbVisualStyle
  2
JitterOff
 70
    20
 71
     2
 72
     2
 73
     0
 90
        0
 40
-0.6
 41
-30.0
 62
     5
 63
     7
 74
     1
 91
        4
 64
     7
 65
   257
 75
     1
175
     1
 42
1.0
 92
       10
 66
     7
 43
1.0
 76
     1
 77
     6
 78
     2
 67
     7
 79
     5
170
     0
171
     0
290
     0
174
     0
 93
        1
 44
0.0
173
     0
291
     1
 45
0.0
1001
ACAD
1000
AcDbSavedByObjectVersion
1070
     0
  0
VISUALSTYLE
  5
72FC
102
{ACAD_XDICTIONARY
360
73AC
102
}
102
{ACAD_REACTORS
330
72EE
102
}
330
72EE
100
AcDbVisualStyle
  2
Linepattern
 70
    14
 71
     2
 72
     2
 73
     0
 90
        0
 40
-0.6
 41
-30.0
 62
     5
 63
     7
 74
     1
 91
        4
 64
     7
 65
   257
 75
     7
175
     7
 42
1.0
 92
        8
 66
     7
 43
1.0
 76
     1
 77
     6
 78
     2
 67
     7
 79
     5
170
     0
171
     0
290
     0
174
     0
 93
        1
 44
0.0
173
     0
291
     1
 45
0.0
1001
ACAD
1000
AcDbSavedByObjectVersion
1070
     0
  0
VISUALSTYLE
  5
7305
102
{ACAD_XDICTIONARY
360
73BE
102
}
102
{ACAD_REACTORS
330
72EE
102
}
330
72EE
100
AcDbVisualStyle
  2
OverhangOff
 70
    21
 71
     2
 72
     2
 73
     0
 90
        0
 40
-0.6
 41
-30.0
 62
     5
 63
     7
 74
     1
 91
        4
 64
     7
 65
   257
 75
     1
175
     1
 42
1.0
 92
        9
 66
     7
 43
1.0
 76
     1
 77
     6
 78
     2
 67
     7
 79
     5
170
     0
171
     0
290
     0
174
     0
 93
        1
 44
0.0
173
     0
291
     1
 45
0.0
1001
ACAD
1000
AcDbSavedByObjectVersion
1070
     0
  0
VISUALSTYLE
  5
72F8
102
{ACAD_XDICTIONARY
360
73A4
102
}
102
{ACAD_REACTORS
330
72EE
102
}
330
72EE
100
AcDbVisualStyle
  2
Realistic
 70
     8
 71
     2
 72
     3
 73
     0
 90
        2
 40
-0.6
 41
30.0
 62
     5
 63
     7
 74
     0
 91
        0
 64
     7
 65
   257
 75
     1
175
     1
 42
1.0
 92
        8
 66
   257
 43
1.0
 76
     1
 77
     6
 78
     2
 67
     7
 79
     3
170
     0
171
     0
290
     0
174
     0
 93
       13
 44
0.0
173
     0
291
     0
 45
0.0
1001
ACAD
1000
AcDbSavedByObjectVersion
1070
     0
  0
VISUALSTYLE
  5
7303
102
{ACAD_XDICTIONARY
360
73BA
102
}
102
{ACAD_REACTORS
330
72EE
102
}
330
72EE
100
AcDbVisualStyle
  2
Shaded
 70
    27
 71
     2
 72
     2
 73
     1
 90
        2
 40
-0.6
 41
30.0
 62
     5
 63
     7
 74
     0
 91
        4
 64
     7
 65
   257
 75
     1
175
     1
 42
1.0
 92
        8
 66
   257
 43
1.0
 76
     1
 77
     6
 78
     2
 67
     8
 79
     3
170
     0
171
     0
290
     0
174
     0
 93
        5
 44
0.0
173
     0
291
     0
 45
0.0
1001
ACAD
1000
AcDbSavedByObjectVersion
1070
     0
  0
VISUALSTYLE
  5
7302
102
{ACAD_XDICTIONARY
360
73B8
102
}
102
{ACAD_REACTORS
330
72EE
102
}
330
72EE
100
AcDbVisualStyle
  2
Shaded with edges
 70
    26
 71
     2
 72
     2
 73
     1
 90
        2
 40
-0.6
 41
30.0
 62
     5
 63
     7
 74
     1
 91
       10
 64
     7
 65
   257
 75
     2
175
     1
 42
1.0
 92
        8
 66
   257
 43
1.0
 76
     1
 77
     6
 78
     2
 67
     7
 79
     3
170
     0
171
     0
290
     0
174
     0
 93
        5
 44
0.0
173
     0
291
     0
 45
0.0
1001
ACAD
1000
AcDbSavedByObjectVersion
1070
     0
  0
VISUALSTYLE
  5
72FF
102
{ACAD_XDICTIONARY
360
73B2
102
}
102
{ACAD_REACTORS
330
72EE
102
}
330
72EE
100
AcDbVisualStyle
  2
Shades of Gray
 70
    23
 71
     2
 72
     2
 73
     3
 90
        0
 40
-0.6
 41
-30.0
 62
     5
 63
     7
 74
     2
 91
        2
 64
     7
 65
     7
 75
     1
175
     1
 42
40.0
 92
        8
 66
     7
 43
1.0
 76
     1
 77
     6
 78
     2
 67
     7
 79
     3
170
     0
171
     0
290
     0
174
     0
 93
        1
 44
0.0
173
     0
291
     0
 45
0.0
1001
ACAD
1000
AcDbSavedByObjectVersion
1070
     0
  0
VISUALSTYLE
  5
7300
102
{ACAD_XDICTIONARY
360
73B4
102
}
102
{ACAD_REACTORS
330
72EE
102
}
330
72EE
100
AcDbVisualStyle
  2
Sketchy
 70
    24
 71
     1
 72
     2
 73
     2
 90
        0
 40
-0.6
 41
-30.0
 62
     5
 63
     7
 74
     2
 91
        2
 64
     7
 65
     7
 75
     1
175
     1
 42
40.0
 92
       11
 66
     7
 43
1.0
 76
     1
 77
     6
 78
     2
 67
     7
 79
     6
170
     0
171
     0
290
     0
174
     0
 93
        1
 44
0.0
173
     0
291
     0
 45
0.0
1001
ACAD
1000
AcDbSavedByObjectVersion
1070
     0
  0
VISUALSTYLE
  5
72FB
102
{ACAD_XDICTIONARY
360
73AA
102
}
102
{ACAD_REACTORS
330
72EE
102
}
330
72EE
100
AcDbVisualStyle
  2
Thicken
 70
    13
 71
     2
 72
     2
 73
     0
 90
        0
 40
-0.6
 41
-30.0
 62
     5
 63
     7
 74
     1
 91
        4
 64
     7
 65
   257
 75
     1
175
     1
 42
1.0
 92
       12
 66
     7
 43
1.0
 76
     1
 77
     6
 78
     2
 67
     7
 79
     5
170
     0
171
     0
290
     0
174
     0
 93
        1
 44
0.0
173
     0
291
     1
 45
0.0
1001
ACAD
1000
AcDbSavedByObjectVersion
1070
     0
  0
VISUALSTYLE
  5
72F5
102
{ACAD_XDICTIONARY
360
739E
102
}
102
{ACAD_REACTORS
330
72EE
102
}
330
72EE
100
AcDbVisualStyle
  2
Wireframe
 70
     5
 71
     0
 72
     2
 73
     0
 90
        0
 40
-0.6
 41
-30.0
 62
     5
 63
     7
 74
     1
 91
        4
 64
     7
 65
   257
 75
     1
175
     1
 42
1.0
 92
        0
 66
   257
 43
1.0
 76
     1
 77
     6
 78
     2
 67
     7
 79
     3
170
     0
171
     0
290
     0
174
     0
 93
        1
 44
0.0
173
     0
291
     0
 45
0.0
1001
ACAD
1000
AcDbSavedByObjectVersion
1070
     0
  0
VISUALSTYLE
  5
7301
102
{ACAD_XDICTIONARY
360
73B6
102
}
102
{ACAD_REACTORS
330
72EE
102
}
330
72EE
100
AcDbVisualStyle
  2
X-Ray
 70
    25
 71
     2
 72
     2
 73
     1
 90
        1
 40
0.5
 41
-30.0
 62
     5
 63
     7
 74
     1
 91
        0
 64
     7
 65
   257
 75
     1
175
     1
 42
1.0
 92
        8
 66
     7
 43
1.0
 76
     1
 77
     6
 78
     2
 67
     7
 79
     3
170
     0
171
     0
290
     0
174
     0
 93
       13
 44
0.0
173
     0
291
     0
 45
0.0
1001
ACAD
1000
AcDbSavedByObjectVersion
1070
     0
  0
DICTIONARYVAR
  5
7381
102
{ACAD_REACTORS
330
5697
102
}
330
5697
100
DictionaryVariables
280
     0
  1
1:1
  0
DICTIONARYVAR
  5
737E
102
{ACAD_REACTORS
330
5697
102
}
330
5697
100
DictionaryVariables
280
     0
  1
STANDARD
  0
DICTIONARYVAR
  5
737D
102
{ACAD_REACTORS
330
5697
102
}
330
5697
100
DictionaryVariables
280
     0
  1
STANDARD
  0
DICTIONARYVAR
  5
737F
102
{ACAD_REACTORS
330
5697
102
}
330
5697
100
DictionaryVariables
280
     0
  1
Imperial24
  0
DICTIONARYVAR
  5
7380
102
{ACAD_REACTORS
330
5697
102
}
330
5697
100
DictionaryVariables
280
     0
  1
Imperial24
  0
DICTIONARYVAR
  5
5698
102
{ACAD_REACTORS
330
5697
102
}
330
5697
100
DictionaryVariables
280
     0
  1
1
  0
DICTIONARYVAR
  5
7383
102
{ACAD_REACTORS
330
5697
102
}
330
5697
100
DictionaryVariables
280
     0
  1
0
  0
DICTIONARYVAR
  5
7382
102
{ACAD_REACTORS
330
5697
102
}
330
5697
100
DictionaryVariables
280
     0
  1
127
  0
DICTIONARYVAR
  5
7384
102
{ACAD_REACTORS
330
5697
102
}
330
5697
100
DictionaryVariables
280
     0
  1
2
  0
DICTIONARY
  5
73C6
330
7321
100
AcDbDictionary
280
     1
281
     1
  3
ACAD_XREC_ROUNDTRIP
360
73C7
  0
DICTIONARY
  5
738B
330
72C8
100
AcDbDictionary
280
     1
281
     1
  3
ACAD_XREC_ROUNDTRIP
360
738C
  0
DICTIONARY
  5
738D
330
72C9
100
AcDbDictionary
280
     1
281
     1
  3
ACAD_XREC_ROUNDTRIP
360
738E
  0
DICTIONARY
  5
72DF
330
72DE
100
AcDbDictionary
280
     1
281
     1
  3
ACAD_XREC_ROUNDTRIP
360
7390
  3
BUMPTILE
360
72E1
  3
DIFFUSETILE
360
72E0
  3
OPACITYTILE
360
72E4
  3
REFLECTIONTILE
360
72E3
  3
REFRACTIONTILE
360
72E5
  3
SPECULARTILE
360
72E2
  0
DICTIONARY
  5
72D7
330
72D6
100
AcDbDictionary
280
     1
281
     1
  3
ACAD_XREC_ROUNDTRIP
360
738F
  3
BUMPTILE
360
72D9
  3
DIFFUSETILE
360
72D8
  3
OPACITYTILE
360
72DC
  3
REFLECTIONTILE
360
72DB
  3
REFRACTIONTILE
360
72DD
  3
SPECULARTILE
360
72DA
  0
DICTIONARY
  5
72E7
330
72E6
100
AcDbDictionary
280
     1
281
     1
  3
ACAD_XREC_ROUNDTRIP
360
7391
  3
BUMPTILE
360
72E9
  3
DIFFUSETILE
360
72E8
  3
OPACITYTILE
360
72EC
  3
REFLECTIONTILE
360
72EB
  3
REFRACTIONTILE
360
72ED
  3
SPECULARTILE
360
72EA
  0
DICTIONARY
  5
73C4
330
731F
100
AcDbDictionary
280
     1
281
     1
  3
ACAD_XREC_ROUNDTRIP
360
73C5
  0
DICTIONARY
  5
7385
330
7309
100
AcDbDictionary
280
     1
281
     1
  3
ACAD_ROUNDTRIP_2008_TABLESTYLE_CELLSTYLEMAP
360
7386
  3
ACAD_XREC_ROUNDTRIP
360
73C2
  0
DICTIONARY
  5
739C
330
72F4
100
AcDbDictionary
280
     1
281
     1
  3
ACAD_XREC_ROUNDTRIP
360
739D
  0
DICTIONARY
  5
739A
330
72F3
100
AcDbDictionary
280
     1
281
     1
  3
ACAD_XREC_ROUNDTRIP
360
739B
  0
DICTIONARY
  5
73A8
330
72FA
100
AcDbDictionary
280
     1
281
     1
  3
ACAD_XREC_ROUNDTRIP
360
73A9
  0
DICTIONARY
  5
73B0
330
72FE
100
AcDbDictionary
280
     1
281
     1
  3
ACAD_XREC_ROUNDTRIP
360
73B1
  0
DICTIONARY
  5
73A2
330
72F7
100
AcDbDictionary
280
     1
281
     1
  3
ACAD_XREC_ROUNDTRIP
360
73A3
  0
DICTIONARY
  5
73A6
330
72F9
100
AcDbDictionary
280
     1
281
     1
  3
ACAD_XREC_ROUNDTRIP
360
73A7
  0
DICTIONARY
  5
73C0
330
7306
100
AcDbDictionary
280
     1
281
     1
  3
ACAD_XREC_ROUNDTRIP
360
73C1
  0
DICTIONARY
  5
73AE
330
72FD
100
AcDbDictionary
280
     1
281
     1
  3
ACAD_XREC_ROUNDTRIP
360
73AF
  0
DICTIONARY
  5
7392
330
72EF
100
AcDbDictionary
280
     1
281
     1
  3
ACAD_XREC_ROUNDTRIP
360
7393
  0
DICTIONARY
  5
7394
330
72F0
100
AcDbDictionary
280
     1
281
     1
  3
ACAD_XREC_ROUNDTRIP
360
7395
  0
DICTIONARY
  5
7396
330
72F1
100
AcDbDictionary
280
     1
281
     1
  3
ACAD_XREC_ROUNDTRIP
360
7397
  0
DICTIONARY
  5
7398
330
72F2
100
AcDbDictionary
280
     1
281
     1
  3
ACAD_XREC_ROUNDTRIP
360
7399
  0
DICTIONARY
  5
73A0
330
72F6
100
AcDbDictionary
280
     1
281
     1
  3
ACAD_XREC_ROUNDTRIP
360
73A1
  0
DICTIONARY
  5
73BC
330
7304
100
AcDbDictionary
280
     1
281
     1
  3
ACAD_XREC_ROUNDTRIP
360
73BD
  0
DICTIONARY
  5
73AC
330
72FC
100
AcDbDictionary
280
     1
281
     1
  3
ACAD_XREC_ROUNDTRIP
360
73AD
  0
DICTIONARY
  5
73BE
330
7305
100
AcDbDictionary
280
     1
281
     1
  3
ACAD_XREC_ROUNDTRIP
360
73BF
  0
DICTIONARY
  5
73A4
330
72F8
100
AcDbDictionary
280
     1
281
     1
  3
ACAD_XREC_ROUNDTRIP
360
73A5
  0
DICTIONARY
  5
73BA
330
7303
100
AcDbDictionary
280
     1
281
     1
  3
ACAD_XREC_ROUNDTRIP
360
73BB
  0
DICTIONARY
  5
73B8
330
7302
100
AcDbDictionary
280
     1
281
     1
  3
ACAD_XREC_ROUNDTRIP
360
73B9
  0
DICTIONARY
  5
73B2
330
72FF
100
AcDbDictionary
280
     1
281
     1
  3
ACAD_XREC_ROUNDTRIP
360
73B3
  0
DICTIONARY
  5
73B4
330
7300
100
AcDbDictionary
280
     1
281
     1
  3
ACAD_XREC_ROUNDTRIP
360
73B5
  0
DICTIONARY
  5
73AA
330
72FB
100
AcDbDictionary
280
     1
281
     1
  3
ACAD_XREC_ROUNDTRIP
360
73AB
  0
DICTIONARY
  5
739E
330
72F5
100
AcDbDictionary
280
     1
281
     1
  3
ACAD_XREC_ROUNDTRIP
360
739F
  0
DICTIONARY
  5
73B6
330
7301
100
AcDbDictionary
280
     1
281
     1
  3
ACAD_XREC_ROUNDTRIP
360
73B7
  0
XRECORD
  5
73C7
102
{ACAD_REACTORS
330
73C6
102
}
330
73C6
100
AcDbXrecord
280
     1
102
DISPLAYNAME
  1
Imperial24
102
FLAGS
 90
        0
  0
XRECORD
  5
738C
102
{ACAD_REACTORS
330
738B
102
}
330
738B
100
AcDbXrecord
280
     1
102
SHADEPLOT
 70
     0
102
SHADEPLOTRESLEVEL
 70
     2
102
SHADEPLOTCUSTOMDPI
 70
   300
  0
XRECORD
  5
738E
102
{ACAD_REACTORS
330
738D
102
}
330
738D
100
AcDbXrecord
280
     1
102
SHADEPLOT
 70
     0
102
SHADEPLOTRESLEVEL
 70
     2
102
SHADEPLOTCUSTOMDPI
 70
   300
  0
XRECORD
  5
7390
102
{ACAD_REACTORS
330
72DF
102
}
330
72DF
100
AcDbXrecord
280
     1
102
MATERIAL
148
0.0
149
0.0
149
0.0
 93
        0
 94
      127
282
     0
 72
     0
 77
     0
171
     0
175
     0
179
     0
273
     0
  0
XRECORD
  5
72E1
102
{ACAD_REACTORS
330
72DF
102
}
330
72DF
100
AcDbXrecord
280
     1
270
     1
271
     1
  0
XRECORD
  5
72E0
102
{ACAD_REACTORS
330
72DF
102
}
330
72DF
100
AcDbXrecord
280
     1
270
     1
271
     1
  0
XRECORD
  5
72E4
102
{ACAD_REACTORS
330
72DF
102
}
330
72DF
100
AcDbXrecord
280
     1
270
     1
271
     1
  0
XRECORD
  5
72E3
102
{ACAD_REACTORS
330
72DF
102
}
330
72DF
100
AcDbXrecord
280
     1
270
     1
271
     1
  0
XRECORD
  5
72E5
102
{ACAD_REACTORS
330
72DF
102
}
330
72DF
100
AcDbXrecord
280
     1
270
     1
271
     1
  0
XRECORD
  5
72E2
102
{ACAD_REACTORS
330
72DF
102
}
330
72DF
100
AcDbXrecord
280
     1
270
     1
271
     1
  0
XRECORD
  5
738F
102
{ACAD_REACTORS
330
72D7
102
}
330
72D7
100
AcDbXrecord
280
     1
102
MATERIAL
148
0.0
149
0.0
149
0.0
 93
        0
 94
      127
282
     0
 72
     0
 77
     0
171
     0
175
     0
179
     0
273
     0
  0
XRECORD
  5
72D9
102
{ACAD_REACTORS
330
72D7
102
}
330
72D7
100
AcDbXrecord
280
     1
270
     1
271
     1
  0
XRECORD
  5
72D8
102
{ACAD_REACTORS
330
72D7
102
}
330
72D7
100
AcDbXrecord
280
     1
270
     1
271
     1
  0
XRECORD
  5
72DC
102
{ACAD_REACTORS
330
72D7
102
}
330
72D7
100
AcDbXrecord
280
     1
270
     1
271
     1
  0
XRECORD
  5
72DB
102
{ACAD_REACTORS
330
72D7
102
}
330
72D7
100
AcDbXrecord
280
     1
270
     1
271
     1
  0
XRECORD
  5
72DD
102
{ACAD_REACTORS
330
72D7
102
}
330
72D7
100
AcDbXrecord
280
     1
270
     1
271
     1
  0
XRECORD
  5
72DA
102
{ACAD_REACTORS
330
72D7
102
}
330
72D7
100
AcDbXrecord
280
     1
270
     1
271
     1
  0
XRECORD
  5
7391
102
{ACAD_REACTORS
330
72E7
102
}
330
72E7
100
AcDbXrecord
280
     1
102
MATERIAL
148
0.0
149
0.0
149
0.0
 93
        0
 94
      127
282
     0
 72
     0
 77
     0
171
     0
175
     0
179
     0
273
     0
  0
XRECORD
  5
72E9
102
{ACAD_REACTORS
330
72E7
102
}
330
72E7
100
AcDbXrecord
280
     1
270
     1
271
     1
  0
XRECORD
  5
72E8
102
{ACAD_REACTORS
330
72E7
102
}
330
72E7
100
AcDbXrecord
280
     1
270
     1
271
     1
  0
XRECORD
  5
72EC
102
{ACAD_REACTORS
330
72E7
102
}
330
72E7
100
AcDbXrecord
280
     1
270
     1
271
     1
  0
XRECORD
  5
72EB
102
{ACAD_REACTORS
330
72E7
102
}
330
72E7
100
AcDbXrecord
280
     1
270
     1
271
     1
  0
XRECORD
  5
72ED
102
{ACAD_REACTORS
330
72E7
102
}
330
72E7
100
AcDbXrecord
280
     1
270
     1
271
     1
  0
XRECORD
  5
72EA
102
{ACAD_REACTORS
330
72E7
102
}
330
72E7
100
AcDbXrecord
280
     1
270
     1
271
     1
  0
XRECORD
  5
73C5
102
{ACAD_REACTORS
330
73C4
102
}
330
73C4
100
AcDbXrecord
280
     1
102
DISPLAYNAME
  1
Imperial24
102
FLAGS
 90
        0
  0
CELLSTYLEMAP
  5
7386
102
{ACAD_REACTORS
330
7385
102
}
330
7385
100
AcDbCellStyleMap
 90
        3
300
CELLSTYLE
  1
TABLEFORMAT_BEGIN
 90
        5
170
     1
 91
        0
 92
    32768
 62
   257
 93
        1
300
CONTENTFORMAT
  1
CONTENTFORMAT_BEGIN
 90
        0
 91
        0
 92
      512
 93
        0
300

 40
0.0
140
1.0
 94
        5
 62
     0
340
11
144
0.25
309
CONTENTFORMAT_END
171
     0
 94
        0
309
TABLEFORMAT_END
  1
CELLSTYLE_BEGIN
 90
        1
 91
        1
300
_TITLE
309
CELLSTYLE_END
300
CELLSTYLE
  1
TABLEFORMAT_BEGIN
 90
        5
170
     1
 91
        0
 92
        0
 62
   257
 93
        1
300
CONTENTFORMAT
  1
CONTENTFORMAT_BEGIN
 90
        0
 91
        0
 92
      512
 93
        0
300

 40
0.0
140
1.0
 94
        5
 62
     0
340
11
144
0.18
309
CONTENTFORMAT_END
171
     0
 94
        0
309
TABLEFORMAT_END
  1
CELLSTYLE_BEGIN
 90
        2
 91
        1
300
_HEADER
309
CELLSTYLE_END
300
CELLSTYLE
  1
TABLEFORMAT_BEGIN
 90
        5
170
     1
 91
        0
 92
        0
 62
   257
 93
        1
300
CONTENTFORMAT
  1
CONTENTFORMAT_BEGIN
 90
        0
 91
        0
 92
      512
 93
        0
300

 40
0.0
140
1.0
 94
        2
 62
     0
340
11
144
0.18
309
CONTENTFORMAT_END
171
     0
 94
        0
309
TABLEFORMAT_END
  1
CELLSTYLE_BEGIN
 90
        3
 91
        2
300
_DATA
309
CELLSTYLE_END
  0
XRECORD
  5
73C2
102
{ACAD_REACTORS
330
7385
102
}
330
7385
100
AcDbXrecord
280
     1
102
ACAD_ROUNDTRIP_PRE2007_TABLESTYLE
 90
      512
 91
        0
  1

 92
      512
 93
        0
  2

 94
      512
 95
        0
  3

  0
XRECORD
  5
739D
102
{ACAD_REACTORS
330
739C
102
}
330
739C
100
AcDbXrecord
280
     1
102
RTVSPost2010Prop28
280
     1
102
RTVSPost2010PropOp28
 70
     1
102
RTVSPost2010Prop29
280
     1
102
RTVSPost2010PropOp29
 70
     1
102
RTVSPost2010Prop30
280
     0
102
RTVSPost2010PropOp30
 70
     1
102
RTVSPost2010Prop31
280
     0
102
RTVSPost2010PropOp31
 70
     1
102
RTVSPost2010Prop32
280
     0
102
RTVSPost2010PropOp32
 70
     1
102
RTVSPost2010Prop33
280
     0
102
RTVSPost2010PropOp33
 70
     1
102
RTVSPost2010Prop34
280
     0
102
RTVSPost2010PropOp34
 70
     1
102
RTVSPost2010Prop35
280
     0
102
RTVSPost2010PropOp35
 70
     1
102
RTVSPost2010Prop36
280
     0
102
RTVSPost2010PropOp36
 70
     1
102
RTVSPost2010Prop37
 90
       50
102
RTVSPost2010PropOp37
 70
     1
102
RTVSPost2010Prop38
140
0.0
102
RTVSPost2010PropOp38
 70
     1
102
RTVSPost2010Prop39
140
1.0
102
RTVSPost2010PropOp39
 70
     1
102
RTVSPost2010Prop40
 90
        0
102
RTVSPost2010PropOp40
 70
     1
102
RTVSPost2010Prop41ColorIndex
 90
       18
102
RTVSPost2010Prop41ColorRGB
 90
        0
102
RTVSPost2010PropOp41
 70
     1
102
RTVSPost2010Prop42
 90
       50
102
RTVSPost2010PropOp42
 70
     1
102
RTVSPost2010Prop43
 90
        3
102
RTVSPost2010PropOp43
 70
     1
102
RTVSPost2010Prop44ColorIndex
 90
        5
102
RTVSPost2010Prop44ColorRGB
 90
      255
102
RTVSPost2010PropOp44
 70
     1
102
RTVSPost2010Prop45
280
     0
102
RTVSPost2010PropOp45
 70
     1
102
RTVSPost2010Prop46
 90
       50
102
RTVSPost2010PropOp46
 70
     1
102
RTVSPost2010Prop47
 90
       50
102
RTVSPost2010PropOp47
 70
     1
102
RTVSPost2010Prop48
 90
       50
102
RTVSPost2010PropOp48
 70
     1
102
RTVSPost2010Prop49
280
     0
102
RTVSPost2010PropOp49
 70
     1
102
RTVSPost2010Prop50
 90
       50
102
RTVSPost2010PropOp50
 70
     1
102
RTVSPost2010Prop51ColorIndex
 90
      256
102
RTVSPost2010Prop51ColorRGB
 90
-16777216
102
RTVSPost2010PropOp51
 70
     0
102
RTVSPost2010Prop52
140
1.0
102
RTVSPost2010PropOp52
 70
     0
102
RTVSPost2010Prop53
 90
        2
102
RTVSPost2010PropOp53
 70
     1
102
RTVSPost2010Prop54
  1
strokes_ogs.tif
102
RTVSPost2010PropOp54
 70
     1
102
RTVSPost2010Prop55
280
     0
102
RTVSPost2010PropOp55
 70
     1
102
RTVSPost2010Prop56
140
1.0
102
RTVSPost2010PropOp56
 70
     1
102
RTVSPost2010Prop57
140
1.0
102
RTVSPost2010PropOp57
 70
     1
102
RTVSPropertyOp0
 70
     1
102
RTVSPropertyOp1
 70
     1
102
RTVSPropertyOp2
 70
     1
102
RTVSPropertyOp3
 70
     1
102
RTVSPropertyOp4
 70
     1
102
RTVSPropertyOp5
 70
     1
102
RTVSPropertyOp6
 70
     1
102
RTVSPropertyOp7
 70
     1
102
RTVSPropertyOp8
 70
     1
102
RTVSPropertyOp9
 70
     1
102
RTVSPropertyOp10
 70
     1
102
RTVSPropertyOp11
 70
     1
102
RTVSPropertyOp12
 70
     1
102
RTVSPropertyOp13
 70
     1
102
RTVSPropertyOp14
 70
     1
102
RTVSPropertyOp15
 70
     1
102
RTVSPropertyOp16
 70
     1
102
RTVSPropertyOp17
 70
     1
102
RTVSPropertyOp18
 70
     1
102
RTVSPropertyOp19
 70
     1
102
RTVSPropertyOp20
 70
     1
102
RTVSPropertyOp21
 70
     1
102
RTVSPropertyOp22
 70
     1
102
RTVSPropertyOp23
 70
     1
102
RTVSPropertyOp24
 70
     1
102
RTVSPropertyOp25
 70
     1
102
RTVSPropertyOp26
 70
     1
102
RTVSPropertyOp27
 70
     1
102
RTVSPropertyOp28
 70
     1
102
RTVSPropertyOp29
 70
     1
102
RTVSPropertyOp30
 70
     1
102
RTVSPropertyOp31
 70
     1
102
RTVSPropertyOp32
 70
     1
102
RTVSPropertyOp33
 70
     1
102
RTVSPropertyOp34
 70
     1
102
RTVSPropertyOp35
 70
     1
102
RTVSPropertyOp36
 70
     1
102
RTVSPropertyOp37
 70
     1
102
RTVSPropertyOp38
 70
     1
102
RTVSPropertyOp39
 70
     1
102
RTVSPropertyOp40
 70
     1
102
RTVSPropertyOp41
 70
     1
102
RTVSPropertyOp42
 70
     1
102
RTVSPropertyOp43
 70
     1
102
RTVSPropertyOp44
 70
     1
102
RTVSPropertyOp45
 70
     1
102
RTVSPropertyOp46
 70
     1
102
RTVSPropertyOp47
 70
     1
102
RTVSPropertyOp48
 70
     1
102
RTVSPropertyOp49
 70
     1
102
RTVSPropertyOp50
 70
     1
102
RTVSPropertyOp51
 70
     0
102
RTVSPropertyOp52
 70
     0
102
RTVSPropertyOp53
 70
     1
102
RTVSPropertyOp54
 70
     1
102
RTVSPropertyOp55
 70
     1
102
RTVSPropertyOp56
 70
     1
102
RTVSPropertyOp57
 70
     1
102
RTVSPropertyOp58
 70
     1
102
RTVSPropertyOp59
 70
     1
102
RTVSPropertyOp60
 70
     1
102
RTVSPropertyOp61
 70
     1
102
RTVSPropertyOp62
 70
     1
  0
XRECORD
  5
739B
102
{ACAD_REACTORS
330
739A
102
}
330
739A
100
AcDbXrecord
280
     1
102
RTVSPost2010Prop28
280
     0
102
RTVSPost2010PropOp28
 70
     1
102
RTVSPost2010Prop29
280
     1
102
RTVSPost2010PropOp29
 70
     1
102
RTVSPost2010Prop30
280
     1
102
RTVSPost2010PropOp30
 70
     1
102
RTVSPost2010Prop31
280
     0
102
RTVSPost2010PropOp31
 70
     1
102
RTVSPost2010Prop32
280
     0
102
RTVSPost2010PropOp32
 70
     1
102
RTVSPost2010Prop33
280
     0
102
RTVSPost2010PropOp33
 70
     1
102
RTVSPost2010Prop34
280
     0
102
RTVSPost2010PropOp34
 70
     1
102
RTVSPost2010Prop35
280
     0
102
RTVSPost2010PropOp35
 70
     1
102
RTVSPost2010Prop36
280
     0
102
RTVSPost2010PropOp36
 70
     1
102
RTVSPost2010Prop37
 90
       50
102
RTVSPost2010PropOp37
 70
     1
102
RTVSPost2010Prop38
140
0.0
102
RTVSPost2010PropOp38
 70
     1
102
RTVSPost2010Prop39
140
1.0
102
RTVSPost2010PropOp39
 70
     1
102
RTVSPost2010Prop40
 90
        0
102
RTVSPost2010PropOp40
 70
     1
102
RTVSPost2010Prop41ColorIndex
 90
       18
102
RTVSPost2010Prop41ColorRGB
 90
        0
102
RTVSPost2010PropOp41
 70
     1
102
RTVSPost2010Prop42
 90
       50
102
RTVSPost2010PropOp42
 70
     1
102
RTVSPost2010Prop43
 90
        3
102
RTVSPost2010PropOp43
 70
     1
102
RTVSPost2010Prop44ColorIndex
 90
        5
102
RTVSPost2010Prop44ColorRGB
 90
      255
102
RTVSPost2010PropOp44
 70
     1
102
RTVSPost2010Prop45
280
     0
102
RTVSPost2010PropOp45
 70
     1
102
RTVSPost2010Prop46
 90
       50
102
RTVSPost2010PropOp46
 70
     1
102
RTVSPost2010Prop47
 90
       50
102
RTVSPost2010PropOp47
 70
     1
102
RTVSPost2010Prop48
 90
       50
102
RTVSPost2010PropOp48
 70
     1
102
RTVSPost2010Prop49
280
     0
102
RTVSPost2010PropOp49
 70
     1
102
RTVSPost2010Prop50
 90
       50
102
RTVSPost2010PropOp50
 70
     1
102
RTVSPost2010Prop51ColorIndex
 90
      256
102
RTVSPost2010Prop51ColorRGB
 90
-16777216
102
RTVSPost2010PropOp51
 70
     0
102
RTVSPost2010Prop52
140
1.0
102
RTVSPost2010PropOp52
 70
     0
102
RTVSPost2010Prop53
 90
        2
102
RTVSPost2010PropOp53
 70
     1
102
RTVSPost2010Prop54
  1
strokes_ogs.tif
102
RTVSPost2010PropOp54
 70
     1
102
RTVSPost2010Prop55
280
     0
102
RTVSPost2010PropOp55
 70
     1
102
RTVSPost2010Prop56
140
1.0
102
RTVSPost2010PropOp56
 70
     1
102
RTVSPost2010Prop57
140
1.0
102
RTVSPost2010PropOp57
 70
     1
102
RTVSPropertyOp0
 70
     1
102
RTVSPropertyOp1
 70
     1
102
RTVSPropertyOp2
 70
     1
102
RTVSPropertyOp3
 70
     1
102
RTVSPropertyOp4
 70
     1
102
RTVSPropertyOp5
 70
     1
102
RTVSPropertyOp6
 70
     1
102
RTVSPropertyOp7
 70
     1
102
RTVSPropertyOp8
 70
     1
102
RTVSPropertyOp9
 70
     1
102
RTVSPropertyOp10
 70
     1
102
RTVSPropertyOp11
 70
     1
102
RTVSPropertyOp12
 70
     1
102
RTVSPropertyOp13
 70
     1
102
RTVSPropertyOp14
 70
     1
102
RTVSPropertyOp15
 70
     1
102
RTVSPropertyOp16
 70
     1
102
RTVSPropertyOp17
 70
     1
102
RTVSPropertyOp18
 70
     1
102
RTVSPropertyOp19
 70
     1
102
RTVSPropertyOp20
 70
     1
102
RTVSPropertyOp21
 70
     1
102
RTVSPropertyOp22
 70
     1
102
RTVSPropertyOp23
 70
     1
102
RTVSPropertyOp24
 70
     1
102
RTVSPropertyOp25
 70
     1
102
RTVSPropertyOp26
 70
     1
102
RTVSPropertyOp27
 70
     1
102
RTVSPropertyOp28
 70
     1
102
RTVSPropertyOp29
 70
     1
102
RTVSPropertyOp30
 70
     1
102
RTVSPropertyOp31
 70
     1
102
RTVSPropertyOp32
 70
     1
102
RTVSPropertyOp33
 70
     1
102
RTVSPropertyOp34
 70
     1
102
RTVSPropertyOp35
 70
     1
102
RTVSPropertyOp36
 70
     1
102
RTVSPropertyOp37
 70
     1
102
RTVSPropertyOp38
 70
     1
102
RTVSPropertyOp39
 70
     1
102
RTVSPropertyOp40
 70
     1
102
RTVSPropertyOp41
 70
     1
102
RTVSPropertyOp42
 70
     1
102
RTVSPropertyOp43
 70
     1
102
RTVSPropertyOp44
 70
     1
102
RTVSPropertyOp45
 70
     1
102
RTVSPropertyOp46
 70
     1
102
RTVSPropertyOp47
 70
     1
102
RTVSPropertyOp48
 70
     1
102
RTVSPropertyOp49
 70
     1
102
RTVSPropertyOp50
 70
     1
102
RTVSPropertyOp51
 70
     0
102
RTVSPropertyOp52
 70
     0
102
RTVSPropertyOp53
 70
     1
102
RTVSPropertyOp54
 70
     1
102
RTVSPropertyOp55
 70
     1
102
RTVSPropertyOp56
 70
     1
102
RTVSPropertyOp57
 70
     1
102
RTVSPropertyOp58
 70
     1
102
RTVSPropertyOp59
 70
     1
102
RTVSPropertyOp60
 70
     1
102
RTVSPropertyOp61
 70
     1
102
RTVSPropertyOp62
 70
     1
  0
XRECORD
  5
73A9
102
{ACAD_REACTORS
330
73A8
102
}
330
73A8
100
AcDbXrecord
280
     1
102
RTVSPost2010Prop28
280
     0
102
RTVSPost2010PropOp28
 70
     1
102
RTVSPost2010Prop29
280
     1
102
RTVSPost2010PropOp29
 70
     1
102
RTVSPost2010Prop30
280
     1
102
RTVSPost2010PropOp30
 70
     1
102
RTVSPost2010Prop31
280
     0
102
RTVSPost2010PropOp31
 70
     1
102
RTVSPost2010Prop32
280
     0
102
RTVSPost2010PropOp32
 70
     1
102
RTVSPost2010Prop33
280
     0
102
RTVSPost2010PropOp33
 70
     1
102
RTVSPost2010Prop34
280
     0
102
RTVSPost2010PropOp34
 70
     1
102
RTVSPost2010Prop35
280
     0
102
RTVSPost2010PropOp35
 70
     1
102
RTVSPost2010Prop36
280
     0
102
RTVSPost2010PropOp36
 70
     1
102
RTVSPost2010Prop37
 90
       50
102
RTVSPost2010PropOp37
 70
     1
102
RTVSPost2010Prop38
140
0.0
102
RTVSPost2010PropOp38
 70
     1
102
RTVSPost2010Prop39
140
1.0
102
RTVSPost2010PropOp39
 70
     1
102
RTVSPost2010Prop40
 90
        0
102
RTVSPost2010PropOp40
 70
     1
102
RTVSPost2010Prop41ColorIndex
 90
       18
102
RTVSPost2010Prop41ColorRGB
 90
        0
102
RTVSPost2010PropOp41
 70
     1
102
RTVSPost2010Prop42
 90
       50
102
RTVSPost2010PropOp42
 70
     1
102
RTVSPost2010Prop43
 90
        3
102
RTVSPost2010PropOp43
 70
     1
102
RTVSPost2010Prop44ColorIndex
 90
        5
102
RTVSPost2010Prop44ColorRGB
 90
      255
102
RTVSPost2010PropOp44
 70
     1
102
RTVSPost2010Prop45
280
     0
102
RTVSPost2010PropOp45
 70
     1
102
RTVSPost2010Prop46
 90
       50
102
RTVSPost2010PropOp46
 70
     1
102
RTVSPost2010Prop47
 90
       50
102
RTVSPost2010PropOp47
 70
     1
102
RTVSPost2010Prop48
 90
       50
102
RTVSPost2010PropOp48
 70
     1
102
RTVSPost2010Prop49
280
     0
102
RTVSPost2010PropOp49
 70
     1
102
RTVSPost2010Prop50
 90
       50
102
RTVSPost2010PropOp50
 70
     1
102
RTVSPost2010Prop51ColorIndex
 90
      256
102
RTVSPost2010Prop51ColorRGB
 90
-16777216
102
RTVSPost2010PropOp51
 70
     0
102
RTVSPost2010Prop52
140
1.0
102
RTVSPost2010PropOp52
 70
     0
102
RTVSPost2010Prop53
 90
        2
102
RTVSPost2010PropOp53
 70
     1
102
RTVSPost2010Prop54
  1
strokes_ogs.tif
102
RTVSPost2010PropOp54
 70
     1
102
RTVSPost2010Prop55
280
     0
102
RTVSPost2010PropOp55
 70
     1
102
RTVSPost2010Prop56
140
1.0
102
RTVSPost2010PropOp56
 70
     1
102
RTVSPost2010Prop57
140
1.0
102
RTVSPost2010PropOp57
 70
     1
102
RTVSPropertyOp0
 70
     1
102
RTVSPropertyOp1
 70
     1
102
RTVSPropertyOp2
 70
     1
102
RTVSPropertyOp3
 70
     1
102
RTVSPropertyOp4
 70
     1
102
RTVSPropertyOp5
 70
     1
102
RTVSPropertyOp6
 70
     1
102
RTVSPropertyOp7
 70
     1
102
RTVSPropertyOp8
 70
     1
102
RTVSPropertyOp9
 70
     1
102
RTVSPropertyOp10
 70
     1
102
RTVSPropertyOp11
 70
     1
102
RTVSPropertyOp12
 70
     1
102
RTVSPropertyOp13
 70
     1
102
RTVSPropertyOp14
 70
     1
102
RTVSPropertyOp15
 70
     1
102
RTVSPropertyOp16
 70
     1
102
RTVSPropertyOp17
 70
     1
102
RTVSPropertyOp18
 70
     1
102
RTVSPropertyOp19
 70
     1
102
RTVSPropertyOp20
 70
     1
102
RTVSPropertyOp21
 70
     1
102
RTVSPropertyOp22
 70
     1
102
RTVSPropertyOp23
 70
     1
102
RTVSPropertyOp24
 70
     1
102
RTVSPropertyOp25
 70
     1
102
RTVSPropertyOp26
 70
     1
102
RTVSPropertyOp27
 70
     1
102
RTVSPropertyOp28
 70
     1
102
RTVSPropertyOp29
 70
     1
102
RTVSPropertyOp30
 70
     1
102
RTVSPropertyOp31
 70
     1
102
RTVSPropertyOp32
 70
     1
102
RTVSPropertyOp33
 70
     1
102
RTVSPropertyOp34
 70
     1
102
RTVSPropertyOp35
 70
     1
102
RTVSPropertyOp36
 70
     1
102
RTVSPropertyOp37
 70
     1
102
RTVSPropertyOp38
 70
     1
102
RTVSPropertyOp39
 70
     1
102
RTVSPropertyOp40
 70
     1
102
RTVSPropertyOp41
 70
     1
102
RTVSPropertyOp42
 70
     1
102
RTVSPropertyOp43
 70
     1
102
RTVSPropertyOp44
 70
     1
102
RTVSPropertyOp45
 70
     1
102
RTVSPropertyOp46
 70
     1
102
RTVSPropertyOp47
 70
     1
102
RTVSPropertyOp48
 70
     1
102
RTVSPropertyOp49
 70
     1
102
RTVSPropertyOp50
 70
     1
102
RTVSPropertyOp51
 70
     0
102
RTVSPropertyOp52
 70
     0
102
RTVSPropertyOp53
 70
     1
102
RTVSPropertyOp54
 70
     1
102
RTVSPropertyOp55
 70
     1
102
RTVSPropertyOp56
 70
     1
102
RTVSPropertyOp57
 70
     1
102
RTVSPropertyOp58
 70
     1
102
RTVSPropertyOp59
 70
     1
102
RTVSPropertyOp60
 70
     1
102
RTVSPropertyOp61
 70
     1
102
RTVSPropertyOp62
 70
     1
  0
XRECORD
  5
73B1
102
{ACAD_REACTORS
330
73B0
102
}
330
73B0
100
AcDbXrecord
280
     1
102
RTVSPost2010Prop28
280
     0
102
RTVSPost2010PropOp28
 70
     1
102
RTVSPost2010Prop29
280
     1
102
RTVSPost2010PropOp29
 70
     1
102
RTVSPost2010Prop30
280
     1
102
RTVSPost2010PropOp30
 70
     1
102
RTVSPost2010Prop31
280
     0
102
RTVSPost2010PropOp31
 70
     1
102
RTVSPost2010Prop32
280
     0
102
RTVSPost2010PropOp32
 70
     1
102
RTVSPost2010Prop33
280
     0
102
RTVSPost2010PropOp33
 70
     1
102
RTVSPost2010Prop34
280
     0
102
RTVSPost2010PropOp34
 70
     1
102
RTVSPost2010Prop35
280
     0
102
RTVSPost2010PropOp35
 70
     1
102
RTVSPost2010Prop36
280
     0
102
RTVSPost2010PropOp36
 70
     1
102
RTVSPost2010Prop37
 90
       50
102
RTVSPost2010PropOp37
 70
     1
102
RTVSPost2010Prop38
140
0.0
102
RTVSPost2010PropOp38
 70
     1
102
RTVSPost2010Prop39
140
1.0
102
RTVSPost2010PropOp39
 70
     1
102
RTVSPost2010Prop40
 90
        0
102
RTVSPost2010PropOp40
 70
     1
102
RTVSPost2010Prop41ColorIndex
 90
       18
102
RTVSPost2010Prop41ColorRGB
 90
        0
102
RTVSPost2010PropOp41
 70
     1
102
RTVSPost2010Prop42
 90
       50
102
RTVSPost2010PropOp42
 70
     1
102
RTVSPost2010Prop43
 90
        3
102
RTVSPost2010PropOp43
 70
     1
102
RTVSPost2010Prop44ColorIndex
 90
        5
102
RTVSPost2010Prop44ColorRGB
 90
      255
102
RTVSPost2010PropOp44
 70
     1
102
RTVSPost2010Prop45
280
     0
102
RTVSPost2010PropOp45
 70
     1
102
RTVSPost2010Prop46
 90
       50
102
RTVSPost2010PropOp46
 70
     1
102
RTVSPost2010Prop47
 90
       50
102
RTVSPost2010PropOp47
 70
     1
102
RTVSPost2010Prop48
 90
       50
102
RTVSPost2010PropOp48
 70
     1
102
RTVSPost2010Prop49
280
     0
102
RTVSPost2010PropOp49
 70
     1
102
RTVSPost2010Prop50
 90
       50
102
RTVSPost2010PropOp50
 70
     1
102
RTVSPost2010Prop51ColorIndex
 90
      256
102
RTVSPost2010Prop51ColorRGB
 90
-16777216
102
RTVSPost2010PropOp51
 70
     0
102
RTVSPost2010Prop52
140
1.0
102
RTVSPost2010PropOp52
 70
     0
102
RTVSPost2010Prop53
 90
        2
102
RTVSPost2010PropOp53
 70
     1
102
RTVSPost2010Prop54
  1
strokes_ogs.tif
102
RTVSPost2010PropOp54
 70
     1
102
RTVSPost2010Prop55
280
     0
102
RTVSPost2010PropOp55
 70
     1
102
RTVSPost2010Prop56
140
1.0
102
RTVSPost2010PropOp56
 70
     1
102
RTVSPost2010Prop57
140
1.0
102
RTVSPost2010PropOp57
 70
     1
102
RTVSPropertyOp0
 70
     1
102
RTVSPropertyOp1
 70
     1
102
RTVSPropertyOp2
 70
     1
102
RTVSPropertyOp3
 70
     1
102
RTVSPropertyOp4
 70
     1
102
RTVSPropertyOp5
 70
     1
102
RTVSPropertyOp6
 70
     1
102
RTVSPropertyOp7
 70
     1
102
RTVSPropertyOp8
 70
     1
102
RTVSPropertyOp9
 70
     1
102
RTVSPropertyOp10
 70
     1
102
RTVSPropertyOp11
 70
     1
102
RTVSPropertyOp12
 70
     1
102
RTVSPropertyOp13
 70
     1
102
RTVSPropertyOp14
 70
     1
102
RTVSPropertyOp15
 70
     1
102
RTVSPropertyOp16
 70
     1
102
RTVSPropertyOp17
 70
     1
102
RTVSPropertyOp18
 70
     1
102
RTVSPropertyOp19
 70
     1
102
RTVSPropertyOp20
 70
     1
102
RTVSPropertyOp21
 70
     1
102
RTVSPropertyOp22
 70
     1
102
RTVSPropertyOp23
 70
     1
102
RTVSPropertyOp24
 70
     1
102
RTVSPropertyOp25
 70
     1
102
RTVSPropertyOp26
 70
     1
102
RTVSPropertyOp27
 70
     1
102
RTVSPropertyOp28
 70
     1
102
RTVSPropertyOp29
 70
     1
102
RTVSPropertyOp30
 70
     1
102
RTVSPropertyOp31
 70
     1
102
RTVSPropertyOp32
 70
     1
102
RTVSPropertyOp33
 70
     1
102
RTVSPropertyOp34
 70
     1
102
RTVSPropertyOp35
 70
     1
102
RTVSPropertyOp36
 70
     1
102
RTVSPropertyOp37
 70
     1
102
RTVSPropertyOp38
 70
     1
102
RTVSPropertyOp39
 70
     1
102
RTVSPropertyOp40
 70
     1
102
RTVSPropertyOp41
 70
     1
102
RTVSPropertyOp42
 70
     1
102
RTVSPropertyOp43
 70
     1
102
RTVSPropertyOp44
 70
     1
102
RTVSPropertyOp45
 70
     1
102
RTVSPropertyOp46
 70
     1
102
RTVSPropertyOp47
 70
     1
102
RTVSPropertyOp48
 70
     1
102
RTVSPropertyOp49
 70
     1
102
RTVSPropertyOp50
 70
     1
102
RTVSPropertyOp51
 70
     0
102
RTVSPropertyOp52
 70
     0
102
RTVSPropertyOp53
 70
     1
102
RTVSPropertyOp54
 70
     1
102
RTVSPropertyOp55
 70
     1
102
RTVSPropertyOp56
 70
     1
102
RTVSPropertyOp57
 70
     1
102
RTVSPropertyOp58
 70
     1
102
RTVSPropertyOp59
 70
     1
102
RTVSPropertyOp60
 70
     1
102
RTVSPropertyOp61
 70
     1
102
RTVSPropertyOp62
 70
     1
  0
XRECORD
  5
73A3
102
{ACAD_REACTORS
330
73A2
102
}
330
73A2
100
AcDbXrecord
280
     1
102
RTVSPost2010Prop28
280
     0
102
RTVSPost2010PropOp28
 70
     1
102
RTVSPost2010Prop29
280
     1
102
RTVSPost2010PropOp29
 70
     1
102
RTVSPost2010Prop30
280
     1
102
RTVSPost2010PropOp30
 70
     1
102
RTVSPost2010Prop31
280
     0
102
RTVSPost2010PropOp31
 70
     1
102
RTVSPost2010Prop32
280
     0
102
RTVSPost2010PropOp32
 70
     1
102
RTVSPost2010Prop33
280
     0
102
RTVSPost2010PropOp33
 70
     1
102
RTVSPost2010Prop34
280
     0
102
RTVSPost2010PropOp34
 70
     1
102
RTVSPost2010Prop35
280
     0
102
RTVSPost2010PropOp35
 70
     1
102
RTVSPost2010Prop36
280
     0
102
RTVSPost2010PropOp36
 70
     1
102
RTVSPost2010Prop37
 90
       50
102
RTVSPost2010PropOp37
 70
     1
102
RTVSPost2010Prop38
140
0.0
102
RTVSPost2010PropOp38
 70
     1
102
RTVSPost2010Prop39
140
1.0
102
RTVSPost2010PropOp39
 70
     1
102
RTVSPost2010Prop40
 90
        0
102
RTVSPost2010PropOp40
 70
     1
102
RTVSPost2010Prop41ColorIndex
 90
       18
102
RTVSPost2010Prop41ColorRGB
 90
        0
102
RTVSPost2010PropOp41
 70
     1
102
RTVSPost2010Prop42
 90
       50
102
RTVSPost2010PropOp42
 70
     1
102
RTVSPost2010Prop43
 90
        3
102
RTVSPost2010PropOp43
 70
     1
102
RTVSPost2010Prop44ColorIndex
 90
        5
102
RTVSPost2010Prop44ColorRGB
 90
      255
102
RTVSPost2010PropOp44
 70
     1
102
RTVSPost2010Prop45
280
     0
102
RTVSPost2010PropOp45
 70
     1
102
RTVSPost2010Prop46
 90
       50
102
RTVSPost2010PropOp46
 70
     1
102
RTVSPost2010Prop47
 90
       50
102
RTVSPost2010PropOp47
 70
     1
102
RTVSPost2010Prop48
 90
       50
102
RTVSPost2010PropOp48
 70
     1
102
RTVSPost2010Prop49
280
     0
102
RTVSPost2010PropOp49
 70
     1
102
RTVSPost2010Prop50
 90
       50
102
RTVSPost2010PropOp50
 70
     1
102
RTVSPost2010Prop51ColorIndex
 90
      256
102
RTVSPost2010Prop51ColorRGB
 90
-16777216
102
RTVSPost2010PropOp51
 70
     0
102
RTVSPost2010Prop52
140
1.0
102
RTVSPost2010PropOp52
 70
     0
102
RTVSPost2010Prop53
 90
        2
102
RTVSPost2010PropOp53
 70
     1
102
RTVSPost2010Prop54
  1
strokes_ogs.tif
102
RTVSPost2010PropOp54
 70
     1
102
RTVSPost2010Prop55
280
     0
102
RTVSPost2010PropOp55
 70
     1
102
RTVSPost2010Prop56
140
1.0
102
RTVSPost2010PropOp56
 70
     1
102
RTVSPost2010Prop57
140
1.0
102
RTVSPost2010PropOp57
 70
     1
102
RTVSPropertyOp0
 70
     1
102
RTVSPropertyOp1
 70
     1
102
RTVSPropertyOp2
 70
     1
102
RTVSPropertyOp3
 70
     1
102
RTVSPropertyOp4
 70
     1
102
RTVSPropertyOp5
 70
     1
102
RTVSPropertyOp6
 70
     1
102
RTVSPropertyOp7
 70
     1
102
RTVSPropertyOp8
 70
     1
102
RTVSPropertyOp9
 70
     1
102
RTVSPropertyOp10
 70
     1
102
RTVSPropertyOp11
 70
     1
102
RTVSPropertyOp12
 70
     1
102
RTVSPropertyOp13
 70
     1
102
RTVSPropertyOp14
 70
     1
102
RTVSPropertyOp15
 70
     1
102
RTVSPropertyOp16
 70
     1
102
RTVSPropertyOp17
 70
     1
102
RTVSPropertyOp18
 70
     1
102
RTVSPropertyOp19
 70
     1
102
RTVSPropertyOp20
 70
     1
102
RTVSPropertyOp21
 70
     1
102
RTVSPropertyOp22
 70
     1
102
RTVSPropertyOp23
 70
     1
102
RTVSPropertyOp24
 70
     1
102
RTVSPropertyOp25
 70
     1
102
RTVSPropertyOp26
 70
     1
102
RTVSPropertyOp27
 70
     1
102
RTVSPropertyOp28
 70
     1
102
RTVSPropertyOp29
 70
     1
102
RTVSPropertyOp30
 70
     1
102
RTVSPropertyOp31
 70
     1
102
RTVSPropertyOp32
 70
     1
102
RTVSPropertyOp33
 70
     1
102
RTVSPropertyOp34
 70
     1
102
RTVSPropertyOp35
 70
     1
102
RTVSPropertyOp36
 70
     1
102
RTVSPropertyOp37
 70
     1
102
RTVSPropertyOp38
 70
     1
102
RTVSPropertyOp39
 70
     1
102
RTVSPropertyOp40
 70
     1
102
RTVSPropertyOp41
 70
     1
102
RTVSPropertyOp42
 70
     1
102
RTVSPropertyOp43
 70
     1
102
RTVSPropertyOp44
 70
     1
102
RTVSPropertyOp45
 70
     1
102
RTVSPropertyOp46
 70
     1
102
RTVSPropertyOp47
 70
     1
102
RTVSPropertyOp48
 70
     1
102
RTVSPropertyOp49
 70
     1
102
RTVSPropertyOp50
 70
     1
102
RTVSPropertyOp51
 70
     0
102
RTVSPropertyOp52
 70
     0
102
RTVSPropertyOp53
 70
     1
102
RTVSPropertyOp54
 70
     1
102
RTVSPropertyOp55
 70
     1
102
RTVSPropertyOp56
 70
     1
102
RTVSPropertyOp57
 70
     1
102
RTVSPropertyOp58
 70
     1
102
RTVSPropertyOp59
 70
     1
102
RTVSPropertyOp60
 70
     1
102
RTVSPropertyOp61
 70
     1
102
RTVSPropertyOp62
 70
     1
  0
XRECORD
  5
73A7
102
{ACAD_REACTORS
330
73A6
102
}
330
73A6
100
AcDbXrecord
280
     1
102
RTVSPost2010Prop28
280
     0
102
RTVSPost2010PropOp28
 70
     1
102
RTVSPost2010Prop29
280
     1
102
RTVSPost2010PropOp29
 70
     1
102
RTVSPost2010Prop30
280
     1
102
RTVSPost2010PropOp30
 70
     1
102
RTVSPost2010Prop31
280
     0
102
RTVSPost2010PropOp31
 70
     1
102
RTVSPost2010Prop32
280
     0
102
RTVSPost2010PropOp32
 70
     1
102
RTVSPost2010Prop33
280
     0
102
RTVSPost2010PropOp33
 70
     1
102
RTVSPost2010Prop34
280
     0
102
RTVSPost2010PropOp34
 70
     1
102
RTVSPost2010Prop35
280
     0
102
RTVSPost2010PropOp35
 70
     1
102
RTVSPost2010Prop36
280
     0
102
RTVSPost2010PropOp36
 70
     1
102
RTVSPost2010Prop37
 90
       50
102
RTVSPost2010PropOp37
 70
     1
102
RTVSPost2010Prop38
140
0.0
102
RTVSPost2010PropOp38
 70
     1
102
RTVSPost2010Prop39
140
1.0
102
RTVSPost2010PropOp39
 70
     1
102
RTVSPost2010Prop40
 90
        0
102
RTVSPost2010PropOp40
 70
     1
102
RTVSPost2010Prop41ColorIndex
 90
       18
102
RTVSPost2010Prop41ColorRGB
 90
        0
102
RTVSPost2010PropOp41
 70
     1
102
RTVSPost2010Prop42
 90
       50
102
RTVSPost2010PropOp42
 70
     1
102
RTVSPost2010Prop43
 90
        3
102
RTVSPost2010PropOp43
 70
     1
102
RTVSPost2010Prop44ColorIndex
 90
        5
102
RTVSPost2010Prop44ColorRGB
 90
      255
102
RTVSPost2010PropOp44
 70
     1
102
RTVSPost2010Prop45
280
     0
102
RTVSPost2010PropOp45
 70
     1
102
RTVSPost2010Prop46
 90
       50
102
RTVSPost2010PropOp46
 70
     1
102
RTVSPost2010Prop47
 90
       50
102
RTVSPost2010PropOp47
 70
     1
102
RTVSPost2010Prop48
 90
       50
102
RTVSPost2010PropOp48
 70
     1
102
RTVSPost2010Prop49
280
     0
102
RTVSPost2010PropOp49
 70
     1
102
RTVSPost2010Prop50
 90
       50
102
RTVSPost2010PropOp50
 70
     1
102
RTVSPost2010Prop51ColorIndex
 90
      256
102
RTVSPost2010Prop51ColorRGB
 90
-16777216
102
RTVSPost2010PropOp51
 70
     0
102
RTVSPost2010Prop52
140
1.0
102
RTVSPost2010PropOp52
 70
     0
102
RTVSPost2010Prop53
 90
        2
102
RTVSPost2010PropOp53
 70
     1
102
RTVSPost2010Prop54
  1
strokes_ogs.tif
102
RTVSPost2010PropOp54
 70
     1
102
RTVSPost2010Prop55
280
     0
102
RTVSPost2010PropOp55
 70
     1
102
RTVSPost2010Prop56
140
1.0
102
RTVSPost2010PropOp56
 70
     1
102
RTVSPost2010Prop57
140
1.0
102
RTVSPost2010PropOp57
 70
     1
102
RTVSPropertyOp0
 70
     1
102
RTVSPropertyOp1
 70
     1
102
RTVSPropertyOp2
 70
     1
102
RTVSPropertyOp3
 70
     1
102
RTVSPropertyOp4
 70
     1
102
RTVSPropertyOp5
 70
     1
102
RTVSPropertyOp6
 70
     1
102
RTVSPropertyOp7
 70
     1
102
RTVSPropertyOp8
 70
     1
102
RTVSPropertyOp9
 70
     1
102
RTVSPropertyOp10
 70
     1
102
RTVSPropertyOp11
 70
     1
102
RTVSPropertyOp12
 70
     1
102
RTVSPropertyOp13
 70
     1
102
RTVSPropertyOp14
 70
     1
102
RTVSPropertyOp15
 70
     1
102
RTVSPropertyOp16
 70
     1
102
RTVSPropertyOp17
 70
     1
102
RTVSPropertyOp18
 70
     1
102
RTVSPropertyOp19
 70
     1
102
RTVSPropertyOp20
 70
     1
102
RTVSPropertyOp21
 70
     1
102
RTVSPropertyOp22
 70
     1
102
RTVSPropertyOp23
 70
     1
102
RTVSPropertyOp24
 70
     1
102
RTVSPropertyOp25
 70
     1
102
RTVSPropertyOp26
 70
     1
102
RTVSPropertyOp27
 70
     1
102
RTVSPropertyOp28
 70
     1
102
RTVSPropertyOp29
 70
     1
102
RTVSPropertyOp30
 70
     1
102
RTVSPropertyOp31
 70
     1
102
RTVSPropertyOp32
 70
     1
102
RTVSPropertyOp33
 70
     1
102
RTVSPropertyOp34
 70
     1
102
RTVSPropertyOp35
 70
     1
102
RTVSPropertyOp36
 70
     1
102
RTVSPropertyOp37
 70
     1
102
RTVSPropertyOp38
 70
     1
102
RTVSPropertyOp39
 70
     1
102
RTVSPropertyOp40
 70
     1
102
RTVSPropertyOp41
 70
     1
102
RTVSPropertyOp42
 70
     1
102
RTVSPropertyOp43
 70
     1
102
RTVSPropertyOp44
 70
     1
102
RTVSPropertyOp45
 70
     1
102
RTVSPropertyOp46
 70
     1
102
RTVSPropertyOp47
 70
     1
102
RTVSPropertyOp48
 70
     1
102
RTVSPropertyOp49
 70
     1
102
RTVSPropertyOp50
 70
     1
102
RTVSPropertyOp51
 70
     0
102
RTVSPropertyOp52
 70
     0
102
RTVSPropertyOp53
 70
     1
102
RTVSPropertyOp54
 70
     1
102
RTVSPropertyOp55
 70
     1
102
RTVSPropertyOp56
 70
     1
102
RTVSPropertyOp57
 70
     1
102
RTVSPropertyOp58
 70
     1
102
RTVSPropertyOp59
 70
     1
102
RTVSPropertyOp60
 70
     1
102
RTVSPropertyOp61
 70
     1
102
RTVSPropertyOp62
 70
     1
  0
XRECORD
  5
73C1
102
{ACAD_REACTORS
330
73C0
102
}
330
73C0
100
AcDbXrecord
280
     1
102
RTVSPost2010Prop28
280
     0
102
RTVSPost2010PropOp28
 70
     1
102
RTVSPost2010Prop29
280
     1
102
RTVSPost2010PropOp29
 70
     1
102
RTVSPost2010Prop30
280
     1
102
RTVSPost2010PropOp30
 70
     1
102
RTVSPost2010Prop31
280
     0
102
RTVSPost2010PropOp31
 70
     1
102
RTVSPost2010Prop32
280
     0
102
RTVSPost2010PropOp32
 70
     1
102
RTVSPost2010Prop33
280
     0
102
RTVSPost2010PropOp33
 70
     1
102
RTVSPost2010Prop34
280
     0
102
RTVSPost2010PropOp34
 70
     1
102
RTVSPost2010Prop35
280
     0
102
RTVSPost2010PropOp35
 70
     1
102
RTVSPost2010Prop36
280
     0
102
RTVSPost2010PropOp36
 70
     1
102
RTVSPost2010Prop37
 90
       50
102
RTVSPost2010PropOp37
 70
     0
102
RTVSPost2010Prop38
140
0.0
102
RTVSPost2010PropOp38
 70
     0
102
RTVSPost2010Prop39
140
1.0
102
RTVSPost2010PropOp39
 70
     0
102
RTVSPost2010Prop40
 90
        0
102
RTVSPost2010PropOp40
 70
     0
102
RTVSPost2010Prop41ColorIndex
 90
       18
102
RTVSPost2010Prop41ColorRGB
 90
        0
102
RTVSPost2010PropOp41
 70
     0
102
RTVSPost2010Prop42
 90
       50
102
RTVSPost2010PropOp42
 70
     0
102
RTVSPost2010Prop43
 90
        3
102
RTVSPost2010PropOp43
 70
     0
102
RTVSPost2010Prop44ColorIndex
 90
        5
102
RTVSPost2010Prop44ColorRGB
 90
      255
102
RTVSPost2010PropOp44
 70
     0
102
RTVSPost2010Prop45
280
     0
102
RTVSPost2010PropOp45
 70
     1
102
RTVSPost2010Prop46
 90
       50
102
RTVSPost2010PropOp46
 70
     0
102
RTVSPost2010Prop47
 90
       50
102
RTVSPost2010PropOp47
 70
     0
102
RTVSPost2010Prop48
 90
       50
102
RTVSPost2010PropOp48
 70
     0
102
RTVSPost2010Prop49
280
     0
102
RTVSPost2010PropOp49
 70
     1
102
RTVSPost2010Prop50
 90
       50
102
RTVSPost2010PropOp50
 70
     0
102
RTVSPost2010Prop51ColorIndex
 90
      256
102
RTVSPost2010Prop51ColorRGB
 90
-16777216
102
RTVSPost2010PropOp51
 70
     0
102
RTVSPost2010Prop52
140
1.0
102
RTVSPost2010PropOp52
 70
     0
102
RTVSPost2010Prop53
 90
        2
102
RTVSPost2010PropOp53
 70
     0
102
RTVSPost2010Prop54
  1
strokes_ogs.tif
102
RTVSPost2010PropOp54
 70
     0
102
RTVSPost2010Prop55
280
     0
102
RTVSPost2010PropOp55
 70
     1
102
RTVSPost2010Prop56
140
1.0
102
RTVSPost2010PropOp56
 70
     0
102
RTVSPost2010Prop57
140
1.0
102
RTVSPost2010PropOp57
 70
     0
102
RTVSPropertyOp0
 70
     0
102
RTVSPropertyOp1
 70
     0
102
RTVSPropertyOp2
 70
     0
102
RTVSPropertyOp3
 70
     0
102
RTVSPropertyOp4
 70
     0
102
RTVSPropertyOp5
 70
     0
102
RTVSPropertyOp6
 70
     0
102
RTVSPropertyOp7
 70
     0
102
RTVSPropertyOp8
 70
     0
102
RTVSPropertyOp9
 70
     0
102
RTVSPropertyOp10
 70
     0
102
RTVSPropertyOp11
 70
     0
102
RTVSPropertyOp12
 70
     0
102
RTVSPropertyOp13
 70
     0
102
RTVSPropertyOp14
 70
     2
102
RTVSPropertyOp15
 70
     0
102
RTVSPropertyOp16
 70
     0
102
RTVSPropertyOp17
 70
     0
102
RTVSPropertyOp18
 70
     0
102
RTVSPropertyOp19
 70
     0
102
RTVSPropertyOp20
 70
     0
102
RTVSPropertyOp21
 70
     0
102
RTVSPropertyOp22
 70
     0
102
RTVSPropertyOp23
 70
     0
102
RTVSPropertyOp24
 70
     0
102
RTVSPropertyOp25
 70
     0
102
RTVSPropertyOp26
 70
     0
102
RTVSPropertyOp27
 70
     0
102
RTVSPropertyOp28
 70
     1
102
RTVSPropertyOp29
 70
     1
102
RTVSPropertyOp30
 70
     1
102
RTVSPropertyOp31
 70
     1
102
RTVSPropertyOp32
 70
     1
102
RTVSPropertyOp33
 70
     1
102
RTVSPropertyOp34
 70
     1
102
RTVSPropertyOp35
 70
     1
102
RTVSPropertyOp36
 70
     1
102
RTVSPropertyOp37
 70
     0
102
RTVSPropertyOp38
 70
     0
102
RTVSPropertyOp39
 70
     0
102
RTVSPropertyOp40
 70
     0
102
RTVSPropertyOp41
 70
     0
102
RTVSPropertyOp42
 70
     0
102
RTVSPropertyOp43
 70
     0
102
RTVSPropertyOp44
 70
     0
102
RTVSPropertyOp45
 70
     1
102
RTVSPropertyOp46
 70
     0
102
RTVSPropertyOp47
 70
     0
102
RTVSPropertyOp48
 70
     0
102
RTVSPropertyOp49
 70
     1
102
RTVSPropertyOp50
 70
     0
102
RTVSPropertyOp51
 70
     0
102
RTVSPropertyOp52
 70
     0
102
RTVSPropertyOp53
 70
     0
102
RTVSPropertyOp54
 70
     0
102
RTVSPropertyOp55
 70
     1
102
RTVSPropertyOp56
 70
     0
102
RTVSPropertyOp57
 70
     0
102
RTVSPropertyOp58
 70
     0
102
RTVSPropertyOp59
 70
     0
102
RTVSPropertyOp60
 70
     0
102
RTVSPropertyOp61
 70
     0
102
RTVSPropertyOp62
 70
     0
  0
XRECORD
  5
73AF
102
{ACAD_REACTORS
330
73AE
102
}
330
73AE
100
AcDbXrecord
280
     1
102
RTVSPost2010Prop28
280
     0
102
RTVSPost2010PropOp28
 70
     1
102
RTVSPost2010Prop29
280
     1
102
RTVSPost2010PropOp29
 70
     1
102
RTVSPost2010Prop30
280
     1
102
RTVSPost2010PropOp30
 70
     1
102
RTVSPost2010Prop31
280
     0
102
RTVSPost2010PropOp31
 70
     1
102
RTVSPost2010Prop32
280
     0
102
RTVSPost2010PropOp32
 70
     1
102
RTVSPost2010Prop33
280
     0
102
RTVSPost2010PropOp33
 70
     1
102
RTVSPost2010Prop34
280
     0
102
RTVSPost2010PropOp34
 70
     1
102
RTVSPost2010Prop35
280
     0
102
RTVSPost2010PropOp35
 70
     1
102
RTVSPost2010Prop36
280
     0
102
RTVSPost2010PropOp36
 70
     1
102
RTVSPost2010Prop37
 90
       50
102
RTVSPost2010PropOp37
 70
     1
102
RTVSPost2010Prop38
140
0.0
102
RTVSPost2010PropOp38
 70
     1
102
RTVSPost2010Prop39
140
1.0
102
RTVSPost2010PropOp39
 70
     1
102
RTVSPost2010Prop40
 90
        0
102
RTVSPost2010PropOp40
 70
     1
102
RTVSPost2010Prop41ColorIndex
 90
       18
102
RTVSPost2010Prop41ColorRGB
 90
        0
102
RTVSPost2010PropOp41
 70
     1
102
RTVSPost2010Prop42
 90
       50
102
RTVSPost2010PropOp42
 70
     1
102
RTVSPost2010Prop43
 90
        3
102
RTVSPost2010PropOp43
 70
     1
102
RTVSPost2010Prop44ColorIndex
 90
        5
102
RTVSPost2010Prop44ColorRGB
 90
      255
102
RTVSPost2010PropOp44
 70
     1
102
RTVSPost2010Prop45
280
     0
102
RTVSPost2010PropOp45
 70
     1
102
RTVSPost2010Prop46
 90
       50
102
RTVSPost2010PropOp46
 70
     1
102
RTVSPost2010Prop47
 90
       50
102
RTVSPost2010PropOp47
 70
     1
102
RTVSPost2010Prop48
 90
       50
102
RTVSPost2010PropOp48
 70
     1
102
RTVSPost2010Prop49
280
     0
102
RTVSPost2010PropOp49
 70
     1
102
RTVSPost2010Prop50
 90
       50
102
RTVSPost2010PropOp50
 70
     1
102
RTVSPost2010Prop51ColorIndex
 90
      256
102
RTVSPost2010Prop51ColorRGB
 90
-16777216
102
RTVSPost2010PropOp51
 70
     0
102
RTVSPost2010Prop52
140
1.0
102
RTVSPost2010PropOp52
 70
     0
102
RTVSPost2010Prop53
 90
        2
102
RTVSPost2010PropOp53
 70
     1
102
RTVSPost2010Prop54
  1
strokes_ogs.tif
102
RTVSPost2010PropOp54
 70
     1
102
RTVSPost2010Prop55
280
     0
102
RTVSPost2010PropOp55
 70
     1
102
RTVSPost2010Prop56
140
1.0
102
RTVSPost2010PropOp56
 70
     1
102
RTVSPost2010Prop57
140
1.0
102
RTVSPost2010PropOp57
 70
     1
102
RTVSPropertyOp0
 70
     1
102
RTVSPropertyOp1
 70
     1
102
RTVSPropertyOp2
 70
     1
102
RTVSPropertyOp3
 70
     1
102
RTVSPropertyOp4
 70
     1
102
RTVSPropertyOp5
 70
     1
102
RTVSPropertyOp6
 70
     1
102
RTVSPropertyOp7
 70
     1
102
RTVSPropertyOp8
 70
     1
102
RTVSPropertyOp9
 70
     1
102
RTVSPropertyOp10
 70
     1
102
RTVSPropertyOp11
 70
     1
102
RTVSPropertyOp12
 70
     1
102
RTVSPropertyOp13
 70
     1
102
RTVSPropertyOp14
 70
     1
102
RTVSPropertyOp15
 70
     1
102
RTVSPropertyOp16
 70
     1
102
RTVSPropertyOp17
 70
     1
102
RTVSPropertyOp18
 70
     1
102
RTVSPropertyOp19
 70
     1
102
RTVSPropertyOp20
 70
     1
102
RTVSPropertyOp21
 70
     1
102
RTVSPropertyOp22
 70
     1
102
RTVSPropertyOp23
 70
     1
102
RTVSPropertyOp24
 70
     1
102
RTVSPropertyOp25
 70
     1
102
RTVSPropertyOp26
 70
     1
102
RTVSPropertyOp27
 70
     1
102
RTVSPropertyOp28
 70
     1
102
RTVSPropertyOp29
 70
     1
102
RTVSPropertyOp30
 70
     1
102
RTVSPropertyOp31
 70
     1
102
RTVSPropertyOp32
 70
     1
102
RTVSPropertyOp33
 70
     1
102
RTVSPropertyOp34
 70
     1
102
RTVSPropertyOp35
 70
     1
102
RTVSPropertyOp36
 70
     1
102
RTVSPropertyOp37
 70
     1
102
RTVSPropertyOp38
 70
     1
102
RTVSPropertyOp39
 70
     1
102
RTVSPropertyOp40
 70
     1
102
RTVSPropertyOp41
 70
     1
102
RTVSPropertyOp42
 70
     1
102
RTVSPropertyOp43
 70
     1
102
RTVSPropertyOp44
 70
     1
102
RTVSPropertyOp45
 70
     1
102
RTVSPropertyOp46
 70
     1
102
RTVSPropertyOp47
 70
     1
102
RTVSPropertyOp48
 70
     1
102
RTVSPropertyOp49
 70
     1
102
RTVSPropertyOp50
 70
     1
102
RTVSPropertyOp51
 70
     0
102
RTVSPropertyOp52
 70
     0
102
RTVSPropertyOp53
 70
     1
102
RTVSPropertyOp54
 70
     1
102
RTVSPropertyOp55
 70
     1
102
RTVSPropertyOp56
 70
     1
102
RTVSPropertyOp57
 70
     1
102
RTVSPropertyOp58
 70
     1
102
RTVSPropertyOp59
 70
     1
102
RTVSPropertyOp60
 70
     1
102
RTVSPropertyOp61
 70
     1
102
RTVSPropertyOp62
 70
     1
  0
XRECORD
  5
7393
102
{ACAD_REACTORS
330
7392
102
}
330
7392
100
AcDbXrecord
280
     1
102
RTVSPost2010Prop28
280
     0
102
RTVSPost2010PropOp28
 70
     1
102
RTVSPost2010Prop29
280
     1
102
RTVSPost2010PropOp29
 70
     1
102
RTVSPost2010Prop30
280
     1
102
RTVSPost2010PropOp30
 70
     1
102
RTVSPost2010Prop31
280
     0
102
RTVSPost2010PropOp31
 70
     1
102
RTVSPost2010Prop32
280
     0
102
RTVSPost2010PropOp32
 70
     1
102
RTVSPost2010Prop33
280
     0
102
RTVSPost2010PropOp33
 70
     1
102
RTVSPost2010Prop34
280
     0
102
RTVSPost2010PropOp34
 70
     1
102
RTVSPost2010Prop35
280
     0
102
RTVSPost2010PropOp35
 70
     1
102
RTVSPost2010Prop36
280
     0
102
RTVSPost2010PropOp36
 70
     1
102
RTVSPost2010Prop37
 90
       50
102
RTVSPost2010PropOp37
 70
     1
102
RTVSPost2010Prop38
140
0.0
102
RTVSPost2010PropOp38
 70
     1
102
RTVSPost2010Prop39
140
1.0
102
RTVSPost2010PropOp39
 70
     1
102
RTVSPost2010Prop40
 90
        0
102
RTVSPost2010PropOp40
 70
     1
102
RTVSPost2010Prop41ColorIndex
 90
       18
102
RTVSPost2010Prop41ColorRGB
 90
        0
102
RTVSPost2010PropOp41
 70
     1
102
RTVSPost2010Prop42
 90
       50
102
RTVSPost2010PropOp42
 70
     1
102
RTVSPost2010Prop43
 90
        3
102
RTVSPost2010PropOp43
 70
     1
102
RTVSPost2010Prop44ColorIndex
 90
        5
102
RTVSPost2010Prop44ColorRGB
 90
      255
102
RTVSPost2010PropOp44
 70
     1
102
RTVSPost2010Prop45
280
     0
102
RTVSPost2010PropOp45
 70
     1
102
RTVSPost2010Prop46
 90
       50
102
RTVSPost2010PropOp46
 70
     1
102
RTVSPost2010Prop47
 90
       50
102
RTVSPost2010PropOp47
 70
     1
102
RTVSPost2010Prop48
 90
       50
102
RTVSPost2010PropOp48
 70
     1
102
RTVSPost2010Prop49
280
     0
102
RTVSPost2010PropOp49
 70
     1
102
RTVSPost2010Prop50
 90
       50
102
RTVSPost2010PropOp50
 70
     1
102
RTVSPost2010Prop51ColorIndex
 90
      256
102
RTVSPost2010Prop51ColorRGB
 90
-16777216
102
RTVSPost2010PropOp51
 70
     0
102
RTVSPost2010Prop52
140
1.0
102
RTVSPost2010PropOp52
 70
     0
102
RTVSPost2010Prop53
 90
        2
102
RTVSPost2010PropOp53
 70
     1
102
RTVSPost2010Prop54
  1
strokes_ogs.tif
102
RTVSPost2010PropOp54
 70
     1
102
RTVSPost2010Prop55
280
     0
102
RTVSPost2010PropOp55
 70
     1
102
RTVSPost2010Prop56
140
1.0
102
RTVSPost2010PropOp56
 70
     1
102
RTVSPost2010Prop57
140
1.0
102
RTVSPost2010PropOp57
 70
     1
102
RTVSPropertyOp0
 70
     1
102
RTVSPropertyOp1
 70
     1
102
RTVSPropertyOp2
 70
     1
102
RTVSPropertyOp3
 70
     1
102
RTVSPropertyOp4
 70
     1
102
RTVSPropertyOp5
 70
     1
102
RTVSPropertyOp6
 70
     1
102
RTVSPropertyOp7
 70
     1
102
RTVSPropertyOp8
 70
     1
102
RTVSPropertyOp9
 70
     1
102
RTVSPropertyOp10
 70
     1
102
RTVSPropertyOp11
 70
     1
102
RTVSPropertyOp12
 70
     1
102
RTVSPropertyOp13
 70
     1
102
RTVSPropertyOp14
 70
     1
102
RTVSPropertyOp15
 70
     1
102
RTVSPropertyOp16
 70
     1
102
RTVSPropertyOp17
 70
     1
102
RTVSPropertyOp18
 70
     1
102
RTVSPropertyOp19
 70
     1
102
RTVSPropertyOp20
 70
     1
102
RTVSPropertyOp21
 70
     1
102
RTVSPropertyOp22
 70
     1
102
RTVSPropertyOp23
 70
     1
102
RTVSPropertyOp24
 70
     1
102
RTVSPropertyOp25
 70
     1
102
RTVSPropertyOp26
 70
     1
102
RTVSPropertyOp27
 70
     1
102
RTVSPropertyOp28
 70
     1
102
RTVSPropertyOp29
 70
     1
102
RTVSPropertyOp30
 70
     1
102
RTVSPropertyOp31
 70
     1
102
RTVSPropertyOp32
 70
     1
102
RTVSPropertyOp33
 70
     1
102
RTVSPropertyOp34
 70
     1
102
RTVSPropertyOp35
 70
     1
102
RTVSPropertyOp36
 70
     1
102
RTVSPropertyOp37
 70
     1
102
RTVSPropertyOp38
 70
     1
102
RTVSPropertyOp39
 70
     1
102
RTVSPropertyOp40
 70
     1
102
RTVSPropertyOp41
 70
     1
102
RTVSPropertyOp42
 70
     1
102
RTVSPropertyOp43
 70
     1
102
RTVSPropertyOp44
 70
     1
102
RTVSPropertyOp45
 70
     1
102
RTVSPropertyOp46
 70
     1
102
RTVSPropertyOp47
 70
     1
102
RTVSPropertyOp48
 70
     1
102
RTVSPropertyOp49
 70
     1
102
RTVSPropertyOp50
 70
     1
102
RTVSPropertyOp51
 70
     0
102
RTVSPropertyOp52
 70
     0
102
RTVSPropertyOp53
 70
     1
102
RTVSPropertyOp54
 70
     1
102
RTVSPropertyOp55
 70
     1
102
RTVSPropertyOp56
 70
     1
102
RTVSPropertyOp57
 70
     1
102
RTVSPropertyOp58
 70
     1
102
RTVSPropertyOp59
 70
     1
102
RTVSPropertyOp60
 70
     1
102
RTVSPropertyOp61
 70
     1
102
RTVSPropertyOp62
 70
     1
  0
XRECORD
  5
7395
102
{ACAD_REACTORS
330
7394
102
}
330
7394
100
AcDbXrecord
280
     1
102
RTVSPost2010Prop28
280
     0
102
RTVSPost2010PropOp28
 70
     1
102
RTVSPost2010Prop29
280
     1
102
RTVSPost2010PropOp29
 70
     1
102
RTVSPost2010Prop30
280
     1
102
RTVSPost2010PropOp30
 70
     1
102
RTVSPost2010Prop31
280
     0
102
RTVSPost2010PropOp31
 70
     1
102
RTVSPost2010Prop32
280
     0
102
RTVSPost2010PropOp32
 70
     1
102
RTVSPost2010Prop33
280
     0
102
RTVSPost2010PropOp33
 70
     1
102
RTVSPost2010Prop34
280
     0
102
RTVSPost2010PropOp34
 70
     1
102
RTVSPost2010Prop35
280
     0
102
RTVSPost2010PropOp35
 70
     1
102
RTVSPost2010Prop36
280
     0
102
RTVSPost2010PropOp36
 70
     1
102
RTVSPost2010Prop37
 90
       50
102
RTVSPost2010PropOp37
 70
     1
102
RTVSPost2010Prop38
140
0.0
102
RTVSPost2010PropOp38
 70
     1
102
RTVSPost2010Prop39
140
1.0
102
RTVSPost2010PropOp39
 70
     1
102
RTVSPost2010Prop40
 90
        0
102
RTVSPost2010PropOp40
 70
     1
102
RTVSPost2010Prop41ColorIndex
 90
       18
102
RTVSPost2010Prop41ColorRGB
 90
        0
102
RTVSPost2010PropOp41
 70
     1
102
RTVSPost2010Prop42
 90
       50
102
RTVSPost2010PropOp42
 70
     1
102
RTVSPost2010Prop43
 90
        3
102
RTVSPost2010PropOp43
 70
     1
102
RTVSPost2010Prop44ColorIndex
 90
        5
102
RTVSPost2010Prop44ColorRGB
 90
      255
102
RTVSPost2010PropOp44
 70
     1
102
RTVSPost2010Prop45
280
     0
102
RTVSPost2010PropOp45
 70
     1
102
RTVSPost2010Prop46
 90
       50
102
RTVSPost2010PropOp46
 70
     1
102
RTVSPost2010Prop47
 90
       50
102
RTVSPost2010PropOp47
 70
     1
102
RTVSPost2010Prop48
 90
       50
102
RTVSPost2010PropOp48
 70
     1
102
RTVSPost2010Prop49
280
     0
102
RTVSPost2010PropOp49
 70
     1
102
RTVSPost2010Prop50
 90
       50
102
RTVSPost2010PropOp50
 70
     1
102
RTVSPost2010Prop51ColorIndex
 90
      256
102
RTVSPost2010Prop51ColorRGB
 90
-16777216
102
RTVSPost2010PropOp51
 70
     0
102
RTVSPost2010Prop52
140
1.0
102
RTVSPost2010PropOp52
 70
     0
102
RTVSPost2010Prop53
 90
        2
102
RTVSPost2010PropOp53
 70
     1
102
RTVSPost2010Prop54
  1
strokes_ogs.tif
102
RTVSPost2010PropOp54
 70
     1
102
RTVSPost2010Prop55
280
     0
102
RTVSPost2010PropOp55
 70
     1
102
RTVSPost2010Prop56
140
1.0
102
RTVSPost2010PropOp56
 70
     1
102
RTVSPost2010Prop57
140
1.0
102
RTVSPost2010PropOp57
 70
     1
102
RTVSPropertyOp0
 70
     1
102
RTVSPropertyOp1
 70
     1
102
RTVSPropertyOp2
 70
     1
102
RTVSPropertyOp3
 70
     1
102
RTVSPropertyOp4
 70
     1
102
RTVSPropertyOp5
 70
     1
102
RTVSPropertyOp6
 70
     1
102
RTVSPropertyOp7
 70
     1
102
RTVSPropertyOp8
 70
     1
102
RTVSPropertyOp9
 70
     1
102
RTVSPropertyOp10
 70
     1
102
RTVSPropertyOp11
 70
     1
102
RTVSPropertyOp12
 70
     1
102
RTVSPropertyOp13
 70
     1
102
RTVSPropertyOp14
 70
     1
102
RTVSPropertyOp15
 70
     1
102
RTVSPropertyOp16
 70
     1
102
RTVSPropertyOp17
 70
     1
102
RTVSPropertyOp18
 70
     1
102
RTVSPropertyOp19
 70
     1
102
RTVSPropertyOp20
 70
     1
102
RTVSPropertyOp21
 70
     1
102
RTVSPropertyOp22
 70
     1
102
RTVSPropertyOp23
 70
     1
102
RTVSPropertyOp24
 70
     1
102
RTVSPropertyOp25
 70
     1
102
RTVSPropertyOp26
 70
     1
102
RTVSPropertyOp27
 70
     1
102
RTVSPropertyOp28
 70
     1
102
RTVSPropertyOp29
 70
     1
102
RTVSPropertyOp30
 70
     1
102
RTVSPropertyOp31
 70
     1
102
RTVSPropertyOp32
 70
     1
102
RTVSPropertyOp33
 70
     1
102
RTVSPropertyOp34
 70
     1
102
RTVSPropertyOp35
 70
     1
102
RTVSPropertyOp36
 70
     1
102
RTVSPropertyOp37
 70
     1
102
RTVSPropertyOp38
 70
     1
102
RTVSPropertyOp39
 70
     1
102
RTVSPropertyOp40
 70
     1
102
RTVSPropertyOp41
 70
     1
102
RTVSPropertyOp42
 70
     1
102
RTVSPropertyOp43
 70
     1
102
RTVSPropertyOp44
 70
     1
102
RTVSPropertyOp45
 70
     1
102
RTVSPropertyOp46
 70
     1
102
RTVSPropertyOp47
 70
     1
102
RTVSPropertyOp48
 70
     1
102
RTVSPropertyOp49
 70
     1
102
RTVSPropertyOp50
 70
     1
102
RTVSPropertyOp51
 70
     0
102
RTVSPropertyOp52
 70
     0
102
RTVSPropertyOp53
 70
     1
102
RTVSPropertyOp54
 70
     1
102
RTVSPropertyOp55
 70
     1
102
RTVSPropertyOp56
 70
     1
102
RTVSPropertyOp57
 70
     1
102
RTVSPropertyOp58
 70
     1
102
RTVSPropertyOp59
 70
     1
102
RTVSPropertyOp60
 70
     1
102
RTVSPropertyOp61
 70
     1
102
RTVSPropertyOp62
 70
     1
  0
XRECORD
  5
7397
102
{ACAD_REACTORS
330
7396
102
}
330
7396
100
AcDbXrecord
280
     1
102
RTVSPost2010Prop28
280
     0
102
RTVSPost2010PropOp28
 70
     1
102
RTVSPost2010Prop29
280
     1
102
RTVSPost2010PropOp29
 70
     1
102
RTVSPost2010Prop30
280
     1
102
RTVSPost2010PropOp30
 70
     1
102
RTVSPost2010Prop31
280
     0
102
RTVSPost2010PropOp31
 70
     1
102
RTVSPost2010Prop32
280
     0
102
RTVSPost2010PropOp32
 70
     1
102
RTVSPost2010Prop33
280
     0
102
RTVSPost2010PropOp33
 70
     1
102
RTVSPost2010Prop34
280
     0
102
RTVSPost2010PropOp34
 70
     1
102
RTVSPost2010Prop35
280
     0
102
RTVSPost2010PropOp35
 70
     1
102
RTVSPost2010Prop36
280
     0
102
RTVSPost2010PropOp36
 70
     1
102
RTVSPost2010Prop37
 90
       50
102
RTVSPost2010PropOp37
 70
     1
102
RTVSPost2010Prop38
140
0.0
102
RTVSPost2010PropOp38
 70
     1
102
RTVSPost2010Prop39
140
1.0
102
RTVSPost2010PropOp39
 70
     1
102
RTVSPost2010Prop40
 90
        0
102
RTVSPost2010PropOp40
 70
     1
102
RTVSPost2010Prop41ColorIndex
 90
       18
102
RTVSPost2010Prop41ColorRGB
 90
        0
102
RTVSPost2010PropOp41
 70
     1
102
RTVSPost2010Prop42
 90
       50
102
RTVSPost2010PropOp42
 70
     1
102
RTVSPost2010Prop43
 90
        3
102
RTVSPost2010PropOp43
 70
     1
102
RTVSPost2010Prop44ColorIndex
 90
        5
102
RTVSPost2010Prop44ColorRGB
 90
      255
102
RTVSPost2010PropOp44
 70
     1
102
RTVSPost2010Prop45
280
     0
102
RTVSPost2010PropOp45
 70
     1
102
RTVSPost2010Prop46
 90
       50
102
RTVSPost2010PropOp46
 70
     1
102
RTVSPost2010Prop47
 90
       50
102
RTVSPost2010PropOp47
 70
     1
102
RTVSPost2010Prop48
 90
       50
102
RTVSPost2010PropOp48
 70
     1
102
RTVSPost2010Prop49
280
     0
102
RTVSPost2010PropOp49
 70
     1
102
RTVSPost2010Prop50
 90
       50
102
RTVSPost2010PropOp50
 70
     1
102
RTVSPost2010Prop51ColorIndex
 90
      256
102
RTVSPost2010Prop51ColorRGB
 90
-16777216
102
RTVSPost2010PropOp51
 70
     0
102
RTVSPost2010Prop52
140
1.0
102
RTVSPost2010PropOp52
 70
     0
102
RTVSPost2010Prop53
 90
        2
102
RTVSPost2010PropOp53
 70
     1
102
RTVSPost2010Prop54
  1
strokes_ogs.tif
102
RTVSPost2010PropOp54
 70
     1
102
RTVSPost2010Prop55
280
     0
102
RTVSPost2010PropOp55
 70
     1
102
RTVSPost2010Prop56
140
1.0
102
RTVSPost2010PropOp56
 70
     1
102
RTVSPost2010Prop57
140
1.0
102
RTVSPost2010PropOp57
 70
     1
102
RTVSPropertyOp0
 70
     1
102
RTVSPropertyOp1
 70
     1
102
RTVSPropertyOp2
 70
     1
102
RTVSPropertyOp3
 70
     1
102
RTVSPropertyOp4
 70
     1
102
RTVSPropertyOp5
 70
     1
102
RTVSPropertyOp6
 70
     1
102
RTVSPropertyOp7
 70
     1
102
RTVSPropertyOp8
 70
     1
102
RTVSPropertyOp9
 70
     1
102
RTVSPropertyOp10
 70
     1
102
RTVSPropertyOp11
 70
     1
102
RTVSPropertyOp12
 70
     1
102
RTVSPropertyOp13
 70
     1
102
RTVSPropertyOp14
 70
     1
102
RTVSPropertyOp15
 70
     1
102
RTVSPropertyOp16
 70
     1
102
RTVSPropertyOp17
 70
     1
102
RTVSPropertyOp18
 70
     1
102
RTVSPropertyOp19
 70
     1
102
RTVSPropertyOp20
 70
     1
102
RTVSPropertyOp21
 70
     1
102
RTVSPropertyOp22
 70
     1
102
RTVSPropertyOp23
 70
     1
102
RTVSPropertyOp24
 70
     1
102
RTVSPropertyOp25
 70
     1
102
RTVSPropertyOp26
 70
     1
102
RTVSPropertyOp27
 70
     1
102
RTVSPropertyOp28
 70
     1
102
RTVSPropertyOp29
 70
     1
102
RTVSPropertyOp30
 70
     1
102
RTVSPropertyOp31
 70
     1
102
RTVSPropertyOp32
 70
     1
102
RTVSPropertyOp33
 70
     1
102
RTVSPropertyOp34
 70
     1
102
RTVSPropertyOp35
 70
     1
102
RTVSPropertyOp36
 70
     1
102
RTVSPropertyOp37
 70
     1
102
RTVSPropertyOp38
 70
     1
102
RTVSPropertyOp39
 70
     1
102
RTVSPropertyOp40
 70
     1
102
RTVSPropertyOp41
 70
     1
102
RTVSPropertyOp42
 70
     1
102
RTVSPropertyOp43
 70
     1
102
RTVSPropertyOp44
 70
     1
102
RTVSPropertyOp45
 70
     1
102
RTVSPropertyOp46
 70
     1
102
RTVSPropertyOp47
 70
     1
102
RTVSPropertyOp48
 70
     1
102
RTVSPropertyOp49
 70
     1
102
RTVSPropertyOp50
 70
     1
102
RTVSPropertyOp51
 70
     0
102
RTVSPropertyOp52
 70
     0
102
RTVSPropertyOp53
 70
     1
102
RTVSPropertyOp54
 70
     1
102
RTVSPropertyOp55
 70
     1
102
RTVSPropertyOp56
 70
     1
102
RTVSPropertyOp57
 70
     1
102
RTVSPropertyOp58
 70
     1
102
RTVSPropertyOp59
 70
     1
102
RTVSPropertyOp60
 70
     1
102
RTVSPropertyOp61
 70
     1
102
RTVSPropertyOp62
 70
     1
  0
XRECORD
  5
7399
102
{ACAD_REACTORS
330
7398
102
}
330
7398
100
AcDbXrecord
280
     1
102
RTVSPost2010Prop28
280
     0
102
RTVSPost2010PropOp28
 70
     1
102
RTVSPost2010Prop29
280
     1
102
RTVSPost2010PropOp29
 70
     1
102
RTVSPost2010Prop30
280
     1
102
RTVSPost2010PropOp30
 70
     1
102
RTVSPost2010Prop31
280
     0
102
RTVSPost2010PropOp31
 70
     1
102
RTVSPost2010Prop32
280
     0
102
RTVSPost2010PropOp32
 70
     1
102
RTVSPost2010Prop33
280
     0
102
RTVSPost2010PropOp33
 70
     1
102
RTVSPost2010Prop34
280
     0
102
RTVSPost2010PropOp34
 70
     1
102
RTVSPost2010Prop35
280
     0
102
RTVSPost2010PropOp35
 70
     1
102
RTVSPost2010Prop36
280
     0
102
RTVSPost2010PropOp36
 70
     1
102
RTVSPost2010Prop37
 90
       50
102
RTVSPost2010PropOp37
 70
     1
102
RTVSPost2010Prop38
140
0.0
102
RTVSPost2010PropOp38
 70
     1
102
RTVSPost2010Prop39
140
1.0
102
RTVSPost2010PropOp39
 70
     1
102
RTVSPost2010Prop40
 90
        0
102
RTVSPost2010PropOp40
 70
     1
102
RTVSPost2010Prop41ColorIndex
 90
       18
102
RTVSPost2010Prop41ColorRGB
 90
        0
102
RTVSPost2010PropOp41
 70
     1
102
RTVSPost2010Prop42
 90
       50
102
RTVSPost2010PropOp42
 70
     1
102
RTVSPost2010Prop43
 90
        3
102
RTVSPost2010PropOp43
 70
     1
102
RTVSPost2010Prop44ColorIndex
 90
        5
102
RTVSPost2010Prop44ColorRGB
 90
      255
102
RTVSPost2010PropOp44
 70
     1
102
RTVSPost2010Prop45
280
     0
102
RTVSPost2010PropOp45
 70
     1
102
RTVSPost2010Prop46
 90
       50
102
RTVSPost2010PropOp46
 70
     1
102
RTVSPost2010Prop47
 90
       50
102
RTVSPost2010PropOp47
 70
     1
102
RTVSPost2010Prop48
 90
       50
102
RTVSPost2010PropOp48
 70
     1
102
RTVSPost2010Prop49
280
     0
102
RTVSPost2010PropOp49
 70
     1
102
RTVSPost2010Prop50
 90
       50
102
RTVSPost2010PropOp50
 70
     1
102
RTVSPost2010Prop51ColorIndex
 90
      256
102
RTVSPost2010Prop51ColorRGB
 90
-16777216
102
RTVSPost2010PropOp51
 70
     0
102
RTVSPost2010Prop52
140
1.0
102
RTVSPost2010PropOp52
 70
     0
102
RTVSPost2010Prop53
 90
        2
102
RTVSPost2010PropOp53
 70
     1
102
RTVSPost2010Prop54
  1
strokes_ogs.tif
102
RTVSPost2010PropOp54
 70
     1
102
RTVSPost2010Prop55
280
     0
102
RTVSPost2010PropOp55
 70
     1
102
RTVSPost2010Prop56
140
1.0
102
RTVSPost2010PropOp56
 70
     1
102
RTVSPost2010Prop57
140
1.0
102
RTVSPost2010PropOp57
 70
     1
102
RTVSPropertyOp0
 70
     1
102
RTVSPropertyOp1
 70
     1
102
RTVSPropertyOp2
 70
     1
102
RTVSPropertyOp3
 70
     1
102
RTVSPropertyOp4
 70
     1
102
RTVSPropertyOp5
 70
     1
102
RTVSPropertyOp6
 70
     1
102
RTVSPropertyOp7
 70
     1
102
RTVSPropertyOp8
 70
     1
102
RTVSPropertyOp9
 70
     1
102
RTVSPropertyOp10
 70
     1
102
RTVSPropertyOp11
 70
     1
102
RTVSPropertyOp12
 70
     1
102
RTVSPropertyOp13
 70
     1
102
RTVSPropertyOp14
 70
     1
102
RTVSPropertyOp15
 70
     1
102
RTVSPropertyOp16
 70
     1
102
RTVSPropertyOp17
 70
     1
102
RTVSPropertyOp18
 70
     1
102
RTVSPropertyOp19
 70
     1
102
RTVSPropertyOp20
 70
     1
102
RTVSPropertyOp21
 70
     1
102
RTVSPropertyOp22
 70
     1
102
RTVSPropertyOp23
 70
     1
102
RTVSPropertyOp24
 70
     1
102
RTVSPropertyOp25
 70
     1
102
RTVSPropertyOp26
 70
     1
102
RTVSPropertyOp27
 70
     1
102
RTVSPropertyOp28
 70
     1
102
RTVSPropertyOp29
 70
     1
102
RTVSPropertyOp30
 70
     1
102
RTVSPropertyOp31
 70
     1
102
RTVSPropertyOp32
 70
     1
102
RTVSPropertyOp33
 70
     1
102
RTVSPropertyOp34
 70
     1
102
RTVSPropertyOp35
 70
     1
102
RTVSPropertyOp36
 70
     1
102
RTVSPropertyOp37
 70
     1
102
RTVSPropertyOp38
 70
     1
102
RTVSPropertyOp39
 70
     1
102
RTVSPropertyOp40
 70
     1
102
RTVSPropertyOp41
 70
     1
102
RTVSPropertyOp42
 70
     1
102
RTVSPropertyOp43
 70
     1
102
RTVSPropertyOp44
 70
     1
102
RTVSPropertyOp45
 70
     1
102
RTVSPropertyOp46
 70
     1
102
RTVSPropertyOp47
 70
     1
102
RTVSPropertyOp48
 70
     1
102
RTVSPropertyOp49
 70
     1
102
RTVSPropertyOp50
 70
     1
102
RTVSPropertyOp51
 70
     0
102
RTVSPropertyOp52
 70
     0
102
RTVSPropertyOp53
 70
     1
102
RTVSPropertyOp54
 70
     1
102
RTVSPropertyOp55
 70
     1
102
RTVSPropertyOp56
 70
     1
102
RTVSPropertyOp57
 70
     1
102
RTVSPropertyOp58
 70
     1
102
RTVSPropertyOp59
 70
     1
102
RTVSPropertyOp60
 70
     1
102
RTVSPropertyOp61
 70
     1
102
RTVSPropertyOp62
 70
     1
  0
XRECORD
  5
73A1
102
{ACAD_REACTORS
330
73A0
102
}
330
73A0
100
AcDbXrecord
280
     1
102
RTVSPost2010Prop28
280
     0
102
RTVSPost2010PropOp28
 70
     1
102
RTVSPost2010Prop29
280
     1
102
RTVSPost2010PropOp29
 70
     1
102
RTVSPost2010Prop30
280
     1
102
RTVSPost2010PropOp30
 70
     1
102
RTVSPost2010Prop31
280
     0
102
RTVSPost2010PropOp31
 70
     1
102
RTVSPost2010Prop32
280
     0
102
RTVSPost2010PropOp32
 70
     1
102
RTVSPost2010Prop33
280
     0
102
RTVSPost2010PropOp33
 70
     1
102
RTVSPost2010Prop34
280
     0
102
RTVSPost2010PropOp34
 70
     1
102
RTVSPost2010Prop35
280
     0
102
RTVSPost2010PropOp35
 70
     1
102
RTVSPost2010Prop36
280
     0
102
RTVSPost2010PropOp36
 70
     1
102
RTVSPost2010Prop37
 90
       50
102
RTVSPost2010PropOp37
 70
     1
102
RTVSPost2010Prop38
140
0.0
102
RTVSPost2010PropOp38
 70
     1
102
RTVSPost2010Prop39
140
1.0
102
RTVSPost2010PropOp39
 70
     1
102
RTVSPost2010Prop40
 90
        0
102
RTVSPost2010PropOp40
 70
     1
102
RTVSPost2010Prop41ColorIndex
 90
       18
102
RTVSPost2010Prop41ColorRGB
 90
        0
102
RTVSPost2010PropOp41
 70
     1
102
RTVSPost2010Prop42
 90
       50
102
RTVSPost2010PropOp42
 70
     1
102
RTVSPost2010Prop43
 90
        3
102
RTVSPost2010PropOp43
 70
     1
102
RTVSPost2010Prop44ColorIndex
 90
        5
102
RTVSPost2010Prop44ColorRGB
 90
      255
102
RTVSPost2010PropOp44
 70
     1
102
RTVSPost2010Prop45
280
     0
102
RTVSPost2010PropOp45
 70
     1
102
RTVSPost2010Prop46
 90
       50
102
RTVSPost2010PropOp46
 70
     1
102
RTVSPost2010Prop47
 90
       50
102
RTVSPost2010PropOp47
 70
     1
102
RTVSPost2010Prop48
 90
       50
102
RTVSPost2010PropOp48
 70
     1
102
RTVSPost2010Prop49
280
     0
102
RTVSPost2010PropOp49
 70
     1
102
RTVSPost2010Prop50
 90
       50
102
RTVSPost2010PropOp50
 70
     1
102
RTVSPost2010Prop51ColorIndex
 90
      256
102
RTVSPost2010Prop51ColorRGB
 90
-16777216
102
RTVSPost2010PropOp51
 70
     0
102
RTVSPost2010Prop52
140
1.0
102
RTVSPost2010PropOp52
 70
     0
102
RTVSPost2010Prop53
 90
        2
102
RTVSPost2010PropOp53
 70
     1
102
RTVSPost2010Prop54
  1
strokes_ogs.tif
102
RTVSPost2010PropOp54
 70
     1
102
RTVSPost2010Prop55
280
     0
102
RTVSPost2010PropOp55
 70
     1
102
RTVSPost2010Prop56
140
1.0
102
RTVSPost2010PropOp56
 70
     1
102
RTVSPost2010Prop57
140
1.0
102
RTVSPost2010PropOp57
 70
     1
102
RTVSPropertyOp0
 70
     1
102
RTVSPropertyOp1
 70
     1
102
RTVSPropertyOp2
 70
     1
102
RTVSPropertyOp3
 70
     1
102
RTVSPropertyOp4
 70
     1
102
RTVSPropertyOp5
 70
     1
102
RTVSPropertyOp6
 70
     1
102
RTVSPropertyOp7
 70
     1
102
RTVSPropertyOp8
 70
     1
102
RTVSPropertyOp9
 70
     1
102
RTVSPropertyOp10
 70
     1
102
RTVSPropertyOp11
 70
     1
102
RTVSPropertyOp12
 70
     1
102
RTVSPropertyOp13
 70
     1
102
RTVSPropertyOp14
 70
     1
102
RTVSPropertyOp15
 70
     1
102
RTVSPropertyOp16
 70
     1
102
RTVSPropertyOp17
 70
     1
102
RTVSPropertyOp18
 70
     1
102
RTVSPropertyOp19
 70
     1
102
RTVSPropertyOp20
 70
     1
102
RTVSPropertyOp21
 70
     1
102
RTVSPropertyOp22
 70
     1
102
RTVSPropertyOp23
 70
     1
102
RTVSPropertyOp24
 70
     1
102
RTVSPropertyOp25
 70
     1
102
RTVSPropertyOp26
 70
     1
102
RTVSPropertyOp27
 70
     1
102
RTVSPropertyOp28
 70
     1
102
RTVSPropertyOp29
 70
     1
102
RTVSPropertyOp30
 70
     1
102
RTVSPropertyOp31
 70
     1
102
RTVSPropertyOp32
 70
     1
102
RTVSPropertyOp33
 70
     1
102
RTVSPropertyOp34
 70
     1
102
RTVSPropertyOp35
 70
     1
102
RTVSPropertyOp36
 70
     1
102
RTVSPropertyOp37
 70
     1
102
RTVSPropertyOp38
 70
     1
102
RTVSPropertyOp39
 70
     1
102
RTVSPropertyOp40
 70
     1
102
RTVSPropertyOp41
 70
     1
102
RTVSPropertyOp42
 70
     1
102
RTVSPropertyOp43
 70
     1
102
RTVSPropertyOp44
 70
     1
102
RTVSPropertyOp45
 70
     1
102
RTVSPropertyOp46
 70
     1
102
RTVSPropertyOp47
 70
     1
102
RTVSPropertyOp48
 70
     1
102
RTVSPropertyOp49
 70
     1
102
RTVSPropertyOp50
 70
     1
102
RTVSPropertyOp51
 70
     0
102
RTVSPropertyOp52
 70
     0
102
RTVSPropertyOp53
 70
     1
102
RTVSPropertyOp54
 70
     1
102
RTVSPropertyOp55
 70
     1
102
RTVSPropertyOp56
 70
     1
102
RTVSPropertyOp57
 70
     1
102
RTVSPropertyOp58
 70
     1
102
RTVSPropertyOp59
 70
     1
102
RTVSPropertyOp60
 70
     1
102
RTVSPropertyOp61
 70
     1
102
RTVSPropertyOp62
 70
     1
  0
XRECORD
  5
73BD
102
{ACAD_REACTORS
330
73BC
102
}
330
73BC
100
AcDbXrecord
280
     1
102
RTVSPost2010Prop28
280
     0
102
RTVSPost2010PropOp28
 70
     1
102
RTVSPost2010Prop29
280
     1
102
RTVSPost2010PropOp29
 70
     1
102
RTVSPost2010Prop30
280
     1
102
RTVSPost2010PropOp30
 70
     1
102
RTVSPost2010Prop31
280
     0
102
RTVSPost2010PropOp31
 70
     1
102
RTVSPost2010Prop32
280
     0
102
RTVSPost2010PropOp32
 70
     1
102
RTVSPost2010Prop33
280
     0
102
RTVSPost2010PropOp33
 70
     1
102
RTVSPost2010Prop34
280
     0
102
RTVSPost2010PropOp34
 70
     1
102
RTVSPost2010Prop35
280
     0
102
RTVSPost2010PropOp35
 70
     1
102
RTVSPost2010Prop36
280
     0
102
RTVSPost2010PropOp36
 70
     1
102
RTVSPost2010Prop37
 90
       50
102
RTVSPost2010PropOp37
 70
     0
102
RTVSPost2010Prop38
140
0.0
102
RTVSPost2010PropOp38
 70
     0
102
RTVSPost2010Prop39
140
1.0
102
RTVSPost2010PropOp39
 70
     0
102
RTVSPost2010Prop40
 90
        0
102
RTVSPost2010PropOp40
 70
     0
102
RTVSPost2010Prop41ColorIndex
 90
       18
102
RTVSPost2010Prop41ColorRGB
 90
        0
102
RTVSPost2010PropOp41
 70
     0
102
RTVSPost2010Prop42
 90
       50
102
RTVSPost2010PropOp42
 70
     0
102
RTVSPost2010Prop43
 90
        3
102
RTVSPost2010PropOp43
 70
     0
102
RTVSPost2010Prop44ColorIndex
 90
        5
102
RTVSPost2010Prop44ColorRGB
 90
      255
102
RTVSPost2010PropOp44
 70
     0
102
RTVSPost2010Prop45
280
     0
102
RTVSPost2010PropOp45
 70
     1
102
RTVSPost2010Prop46
 90
       50
102
RTVSPost2010PropOp46
 70
     0
102
RTVSPost2010Prop47
 90
       50
102
RTVSPost2010PropOp47
 70
     0
102
RTVSPost2010Prop48
 90
       50
102
RTVSPost2010PropOp48
 70
     0
102
RTVSPost2010Prop49
280
     0
102
RTVSPost2010PropOp49
 70
     1
102
RTVSPost2010Prop50
 90
       50
102
RTVSPost2010PropOp50
 70
     0
102
RTVSPost2010Prop51ColorIndex
 90
      256
102
RTVSPost2010Prop51ColorRGB
 90
-16777216
102
RTVSPost2010PropOp51
 70
     0
102
RTVSPost2010Prop52
140
1.0
102
RTVSPost2010PropOp52
 70
     0
102
RTVSPost2010Prop53
 90
        2
102
RTVSPost2010PropOp53
 70
     0
102
RTVSPost2010Prop54
  1
strokes_ogs.tif
102
RTVSPost2010PropOp54
 70
     0
102
RTVSPost2010Prop55
280
     0
102
RTVSPost2010PropOp55
 70
     1
102
RTVSPost2010Prop56
140
1.0
102
RTVSPost2010PropOp56
 70
     0
102
RTVSPost2010Prop57
140
1.0
102
RTVSPost2010PropOp57
 70
     0
102
RTVSPropertyOp0
 70
     0
102
RTVSPropertyOp1
 70
     0
102
RTVSPropertyOp2
 70
     0
102
RTVSPropertyOp3
 70
     0
102
RTVSPropertyOp4
 70
     0
102
RTVSPropertyOp5
 70
     0
102
RTVSPropertyOp6
 70
     0
102
RTVSPropertyOp7
 70
     0
102
RTVSPropertyOp8
 70
     0
102
RTVSPropertyOp9
 70
     0
102
RTVSPropertyOp10
 70
     0
102
RTVSPropertyOp11
 70
     0
102
RTVSPropertyOp12
 70
     0
102
RTVSPropertyOp13
 70
     0
102
RTVSPropertyOp14
 70
     2
102
RTVSPropertyOp15
 70
     0
102
RTVSPropertyOp16
 70
     0
102
RTVSPropertyOp17
 70
     0
102
RTVSPropertyOp18
 70
     0
102
RTVSPropertyOp19
 70
     0
102
RTVSPropertyOp20
 70
     0
102
RTVSPropertyOp21
 70
     0
102
RTVSPropertyOp22
 70
     0
102
RTVSPropertyOp23
 70
     0
102
RTVSPropertyOp24
 70
     0
102
RTVSPropertyOp25
 70
     0
102
RTVSPropertyOp26
 70
     0
102
RTVSPropertyOp27
 70
     0
102
RTVSPropertyOp28
 70
     1
102
RTVSPropertyOp29
 70
     1
102
RTVSPropertyOp30
 70
     1
102
RTVSPropertyOp31
 70
     1
102
RTVSPropertyOp32
 70
     1
102
RTVSPropertyOp33
 70
     1
102
RTVSPropertyOp34
 70
     1
102
RTVSPropertyOp35
 70
     1
102
RTVSPropertyOp36
 70
     1
102
RTVSPropertyOp37
 70
     0
102
RTVSPropertyOp38
 70
     0
102
RTVSPropertyOp39
 70
     0
102
RTVSPropertyOp40
 70
     0
102
RTVSPropertyOp41
 70
     0
102
RTVSPropertyOp42
 70
     0
102
RTVSPropertyOp43
 70
     0
102
RTVSPropertyOp44
 70
     0
102
RTVSPropertyOp45
 70
     1
102
RTVSPropertyOp46
 70
     0
102
RTVSPropertyOp47
 70
     0
102
RTVSPropertyOp48
 70
     0
102
RTVSPropertyOp49
 70
     1
102
RTVSPropertyOp50
 70
     0
102
RTVSPropertyOp51
 70
     0
102
RTVSPropertyOp52
 70
     0
102
RTVSPropertyOp53
 70
     0
102
RTVSPropertyOp54
 70
     0
102
RTVSPropertyOp55
 70
     1
102
RTVSPropertyOp56
 70
     0
102
RTVSPropertyOp57
 70
     0
102
RTVSPropertyOp58
 70
     0
102
RTVSPropertyOp59
 70
     0
102
RTVSPropertyOp60
 70
     0
102
RTVSPropertyOp61
 70
     0
102
RTVSPropertyOp62
 70
     0
  0
XRECORD
  5
73AD
102
{ACAD_REACTORS
330
73AC
102
}
330
73AC
100
AcDbXrecord
280
     1
102
RTVSPost2010Prop28
280
     0
102
RTVSPost2010PropOp28
 70
     1
102
RTVSPost2010Prop29
280
     1
102
RTVSPost2010PropOp29
 70
     1
102
RTVSPost2010Prop30
280
     1
102
RTVSPost2010PropOp30
 70
     1
102
RTVSPost2010Prop31
280
     0
102
RTVSPost2010PropOp31
 70
     1
102
RTVSPost2010Prop32
280
     0
102
RTVSPost2010PropOp32
 70
     1
102
RTVSPost2010Prop33
280
     0
102
RTVSPost2010PropOp33
 70
     1
102
RTVSPost2010Prop34
280
     0
102
RTVSPost2010PropOp34
 70
     1
102
RTVSPost2010Prop35
280
     0
102
RTVSPost2010PropOp35
 70
     1
102
RTVSPost2010Prop36
280
     0
102
RTVSPost2010PropOp36
 70
     1
102
RTVSPost2010Prop37
 90
       50
102
RTVSPost2010PropOp37
 70
     1
102
RTVSPost2010Prop38
140
0.0
102
RTVSPost2010PropOp38
 70
     1
102
RTVSPost2010Prop39
140
1.0
102
RTVSPost2010PropOp39
 70
     1
102
RTVSPost2010Prop40
 90
        0
102
RTVSPost2010PropOp40
 70
     1
102
RTVSPost2010Prop41ColorIndex
 90
       18
102
RTVSPost2010Prop41ColorRGB
 90
        0
102
RTVSPost2010PropOp41
 70
     1
102
RTVSPost2010Prop42
 90
       50
102
RTVSPost2010PropOp42
 70
     1
102
RTVSPost2010Prop43
 90
        3
102
RTVSPost2010PropOp43
 70
     1
102
RTVSPost2010Prop44ColorIndex
 90
        5
102
RTVSPost2010Prop44ColorRGB
 90
      255
102
RTVSPost2010PropOp44
 70
     1
102
RTVSPost2010Prop45
280
     0
102
RTVSPost2010PropOp45
 70
     1
102
RTVSPost2010Prop46
 90
       50
102
RTVSPost2010PropOp46
 70
     1
102
RTVSPost2010Prop47
 90
       50
102
RTVSPost2010PropOp47
 70
     1
102
RTVSPost2010Prop48
 90
       50
102
RTVSPost2010PropOp48
 70
     1
102
RTVSPost2010Prop49
280
     0
102
RTVSPost2010PropOp49
 70
     1
102
RTVSPost2010Prop50
 90
       50
102
RTVSPost2010PropOp50
 70
     1
102
RTVSPost2010Prop51ColorIndex
 90
      256
102
RTVSPost2010Prop51ColorRGB
 90
-16777216
102
RTVSPost2010PropOp51
 70
     0
102
RTVSPost2010Prop52
140
1.0
102
RTVSPost2010PropOp52
 70
     0
102
RTVSPost2010Prop53
 90
        2
102
RTVSPost2010PropOp53
 70
     1
102
RTVSPost2010Prop54
  1
strokes_ogs.tif
102
RTVSPost2010PropOp54
 70
     1
102
RTVSPost2010Prop55
280
     0
102
RTVSPost2010PropOp55
 70
     1
102
RTVSPost2010Prop56
140
1.0
102
RTVSPost2010PropOp56
 70
     1
102
RTVSPost2010Prop57
140
1.0
102
RTVSPost2010PropOp57
 70
     1
102
RTVSPropertyOp0
 70
     1
102
RTVSPropertyOp1
 70
     1
102
RTVSPropertyOp2
 70
     1
102
RTVSPropertyOp3
 70
     1
102
RTVSPropertyOp4
 70
     1
102
RTVSPropertyOp5
 70
     1
102
RTVSPropertyOp6
 70
     1
102
RTVSPropertyOp7
 70
     1
102
RTVSPropertyOp8
 70
     1
102
RTVSPropertyOp9
 70
     1
102
RTVSPropertyOp10
 70
     1
102
RTVSPropertyOp11
 70
     1
102
RTVSPropertyOp12
 70
     1
102
RTVSPropertyOp13
 70
     1
102
RTVSPropertyOp14
 70
     1
102
RTVSPropertyOp15
 70
     1
102
RTVSPropertyOp16
 70
     1
102
RTVSPropertyOp17
 70
     1
102
RTVSPropertyOp18
 70
     1
102
RTVSPropertyOp19
 70
     1
102
RTVSPropertyOp20
 70
     1
102
RTVSPropertyOp21
 70
     1
102
RTVSPropertyOp22
 70
     1
102
RTVSPropertyOp23
 70
     1
102
RTVSPropertyOp24
 70
     1
102
RTVSPropertyOp25
 70
     1
102
RTVSPropertyOp26
 70
     1
102
RTVSPropertyOp27
 70
     1
102
RTVSPropertyOp28
 70
     1
102
RTVSPropertyOp29
 70
     1
102
RTVSPropertyOp30
 70
     1
102
RTVSPropertyOp31
 70
     1
102
RTVSPropertyOp32
 70
     1
102
RTVSPropertyOp33
 70
     1
102
RTVSPropertyOp34
 70
     1
102
RTVSPropertyOp35
 70
     1
102
RTVSPropertyOp36
 70
     1
102
RTVSPropertyOp37
 70
     1
102
RTVSPropertyOp38
 70
     1
102
RTVSPropertyOp39
 70
     1
102
RTVSPropertyOp40
 70
     1
102
RTVSPropertyOp41
 70
     1
102
RTVSPropertyOp42
 70
     1
102
RTVSPropertyOp43
 70
     1
102
RTVSPropertyOp44
 70
     1
102
RTVSPropertyOp45
 70
     1
102
RTVSPropertyOp46
 70
     1
102
RTVSPropertyOp47
 70
     1
102
RTVSPropertyOp48
 70
     1
102
RTVSPropertyOp49
 70
     1
102
RTVSPropertyOp50
 70
     1
102
RTVSPropertyOp51
 70
     0
102
RTVSPropertyOp52
 70
     0
102
RTVSPropertyOp53
 70
     1
102
RTVSPropertyOp54
 70
     1
102
RTVSPropertyOp55
 70
     1
102
RTVSPropertyOp56
 70
     1
102
RTVSPropertyOp57
 70
     1
102
RTVSPropertyOp58
 70
     1
102
RTVSPropertyOp59
 70
     1
102
RTVSPropertyOp60
 70
     1
102
RTVSPropertyOp61
 70
     1
102
RTVSPropertyOp62
 70
     1
  0
XRECORD
  5
73BF
102
{ACAD_REACTORS
330
73BE
102
}
330
73BE
100
AcDbXrecord
280
     1
102
RTVSPost2010Prop28
280
     0
102
RTVSPost2010PropOp28
 70
     1
102
RTVSPost2010Prop29
280
     1
102
RTVSPost2010PropOp29
 70
     1
102
RTVSPost2010Prop30
280
     1
102
RTVSPost2010PropOp30
 70
     1
102
RTVSPost2010Prop31
280
     0
102
RTVSPost2010PropOp31
 70
     1
102
RTVSPost2010Prop32
280
     0
102
RTVSPost2010PropOp32
 70
     1
102
RTVSPost2010Prop33
280
     0
102
RTVSPost2010PropOp33
 70
     1
102
RTVSPost2010Prop34
280
     0
102
RTVSPost2010PropOp34
 70
     1
102
RTVSPost2010Prop35
280
     0
102
RTVSPost2010PropOp35
 70
     1
102
RTVSPost2010Prop36
280
     0
102
RTVSPost2010PropOp36
 70
     1
102
RTVSPost2010Prop37
 90
       50
102
RTVSPost2010PropOp37
 70
     0
102
RTVSPost2010Prop38
140
0.0
102
RTVSPost2010PropOp38
 70
     0
102
RTVSPost2010Prop39
140
1.0
102
RTVSPost2010PropOp39
 70
     0
102
RTVSPost2010Prop40
 90
        0
102
RTVSPost2010PropOp40
 70
     0
102
RTVSPost2010Prop41ColorIndex
 90
       18
102
RTVSPost2010Prop41ColorRGB
 90
        0
102
RTVSPost2010PropOp41
 70
     0
102
RTVSPost2010Prop42
 90
       50
102
RTVSPost2010PropOp42
 70
     0
102
RTVSPost2010Prop43
 90
        3
102
RTVSPost2010PropOp43
 70
     0
102
RTVSPost2010Prop44ColorIndex
 90
        5
102
RTVSPost2010Prop44ColorRGB
 90
      255
102
RTVSPost2010PropOp44
 70
     0
102
RTVSPost2010Prop45
280
     0
102
RTVSPost2010PropOp45
 70
     1
102
RTVSPost2010Prop46
 90
       50
102
RTVSPost2010PropOp46
 70
     0
102
RTVSPost2010Prop47
 90
       50
102
RTVSPost2010PropOp47
 70
     0
102
RTVSPost2010Prop48
 90
       50
102
RTVSPost2010PropOp48
 70
     0
102
RTVSPost2010Prop49
280
     0
102
RTVSPost2010PropOp49
 70
     1
102
RTVSPost2010Prop50
 90
       50
102
RTVSPost2010PropOp50
 70
     0
102
RTVSPost2010Prop51ColorIndex
 90
      256
102
RTVSPost2010Prop51ColorRGB
 90
-16777216
102
RTVSPost2010PropOp51
 70
     0
102
RTVSPost2010Prop52
140
1.0
102
RTVSPost2010PropOp52
 70
     0
102
RTVSPost2010Prop53
 90
        2
102
RTVSPost2010PropOp53
 70
     0
102
RTVSPost2010Prop54
  1
strokes_ogs.tif
102
RTVSPost2010PropOp54
 70
     0
102
RTVSPost2010Prop55
280
     0
102
RTVSPost2010PropOp55
 70
     1
102
RTVSPost2010Prop56
140
1.0
102
RTVSPost2010PropOp56
 70
     0
102
RTVSPost2010Prop57
140
1.0
102
RTVSPost2010PropOp57
 70
     0
102
RTVSPropertyOp0
 70
     0
102
RTVSPropertyOp1
 70
     0
102
RTVSPropertyOp2
 70
     0
102
RTVSPropertyOp3
 70
     0
102
RTVSPropertyOp4
 70
     0
102
RTVSPropertyOp5
 70
     0
102
RTVSPropertyOp6
 70
     0
102
RTVSPropertyOp7
 70
     0
102
RTVSPropertyOp8
 70
     0
102
RTVSPropertyOp9
 70
     0
102
RTVSPropertyOp10
 70
     0
102
RTVSPropertyOp11
 70
     0
102
RTVSPropertyOp12
 70
     0
102
RTVSPropertyOp13
 70
     0
102
RTVSPropertyOp14
 70
     2
102
RTVSPropertyOp15
 70
     0
102
RTVSPropertyOp16
 70
     0
102
RTVSPropertyOp17
 70
     0
102
RTVSPropertyOp18
 70
     0
102
RTVSPropertyOp19
 70
     0
102
RTVSPropertyOp20
 70
     0
102
RTVSPropertyOp21
 70
     0
102
RTVSPropertyOp22
 70
     0
102
RTVSPropertyOp23
 70
     0
102
RTVSPropertyOp24
 70
     0
102
RTVSPropertyOp25
 70
     0
102
RTVSPropertyOp26
 70
     0
102
RTVSPropertyOp27
 70
     0
102
RTVSPropertyOp28
 70
     1
102
RTVSPropertyOp29
 70
     1
102
RTVSPropertyOp30
 70
     1
102
RTVSPropertyOp31
 70
     1
102
RTVSPropertyOp32
 70
     1
102
RTVSPropertyOp33
 70
     1
102
RTVSPropertyOp34
 70
     1
102
RTVSPropertyOp35
 70
     1
102
RTVSPropertyOp36
 70
     1
102
RTVSPropertyOp37
 70
     0
102
RTVSPropertyOp38
 70
     0
102
RTVSPropertyOp39
 70
     0
102
RTVSPropertyOp40
 70
     0
102
RTVSPropertyOp41
 70
     0
102
RTVSPropertyOp42
 70
     0
102
RTVSPropertyOp43
 70
     0
102
RTVSPropertyOp44
 70
     0
102
RTVSPropertyOp45
 70
     1
102
RTVSPropertyOp46
 70
     0
102
RTVSPropertyOp47
 70
     0
102
RTVSPropertyOp48
 70
     0
102
RTVSPropertyOp49
 70
     1
102
RTVSPropertyOp50
 70
     0
102
RTVSPropertyOp51
 70
     0
102
RTVSPropertyOp52
 70
     0
102
RTVSPropertyOp53
 70
     0
102
RTVSPropertyOp54
 70
     0
102
RTVSPropertyOp55
 70
     1
102
RTVSPropertyOp56
 70
     0
102
RTVSPropertyOp57
 70
     0
102
RTVSPropertyOp58
 70
     0
102
RTVSPropertyOp59
 70
     0
102
RTVSPropertyOp60
 70
     0
102
RTVSPropertyOp61
 70
     0
102
RTVSPropertyOp62
 70
     0
  0
XRECORD
  5
73A5
102
{ACAD_REACTORS
330
73A4
102
}
330
73A4
100
AcDbXrecord
280
     1
102
RTVSPost2010Prop28
280
     0
102
RTVSPost2010PropOp28
 70
     1
102
RTVSPost2010Prop29
280
     1
102
RTVSPost2010PropOp29
 70
     1
102
RTVSPost2010Prop30
280
     1
102
RTVSPost2010PropOp30
 70
     1
102
RTVSPost2010Prop31
280
     0
102
RTVSPost2010PropOp31
 70
     1
102
RTVSPost2010Prop32
280
     0
102
RTVSPost2010PropOp32
 70
     1
102
RTVSPost2010Prop33
280
     0
102
RTVSPost2010PropOp33
 70
     1
102
RTVSPost2010Prop34
280
     0
102
RTVSPost2010PropOp34
 70
     1
102
RTVSPost2010Prop35
280
     0
102
RTVSPost2010PropOp35
 70
     1
102
RTVSPost2010Prop36
280
     0
102
RTVSPost2010PropOp36
 70
     1
102
RTVSPost2010Prop37
 90
       50
102
RTVSPost2010PropOp37
 70
     1
102
RTVSPost2010Prop38
140
0.0
102
RTVSPost2010PropOp38
 70
     1
102
RTVSPost2010Prop39
140
1.0
102
RTVSPost2010PropOp39
 70
     1
102
RTVSPost2010Prop40
 90
        0
102
RTVSPost2010PropOp40
 70
     1
102
RTVSPost2010Prop41ColorIndex
 90
       18
102
RTVSPost2010Prop41ColorRGB
 90
        0
102
RTVSPost2010PropOp41
 70
     1
102
RTVSPost2010Prop42
 90
       50
102
RTVSPost2010PropOp42
 70
     1
102
RTVSPost2010Prop43
 90
        3
102
RTVSPost2010PropOp43
 70
     1
102
RTVSPost2010Prop44ColorIndex
 90
        5
102
RTVSPost2010Prop44ColorRGB
 90
      255
102
RTVSPost2010PropOp44
 70
     1
102
RTVSPost2010Prop45
280
     0
102
RTVSPost2010PropOp45
 70
     1
102
RTVSPost2010Prop46
 90
       50
102
RTVSPost2010PropOp46
 70
     1
102
RTVSPost2010Prop47
 90
       50
102
RTVSPost2010PropOp47
 70
     1
102
RTVSPost2010Prop48
 90
       50
102
RTVSPost2010PropOp48
 70
     1
102
RTVSPost2010Prop49
280
     0
102
RTVSPost2010PropOp49
 70
     1
102
RTVSPost2010Prop50
 90
       50
102
RTVSPost2010PropOp50
 70
     1
102
RTVSPost2010Prop51ColorIndex
 90
      256
102
RTVSPost2010Prop51ColorRGB
 90
-16777216
102
RTVSPost2010PropOp51
 70
     0
102
RTVSPost2010Prop52
140
1.0
102
RTVSPost2010PropOp52
 70
     0
102
RTVSPost2010Prop53
 90
        2
102
RTVSPost2010PropOp53
 70
     1
102
RTVSPost2010Prop54
  1
strokes_ogs.tif
102
RTVSPost2010PropOp54
 70
     1
102
RTVSPost2010Prop55
280
     0
102
RTVSPost2010PropOp55
 70
     1
102
RTVSPost2010Prop56
140
1.0
102
RTVSPost2010PropOp56
 70
     1
102
RTVSPost2010Prop57
140
1.0
102
RTVSPost2010PropOp57
 70
     1
102
RTVSPropertyOp0
 70
     1
102
RTVSPropertyOp1
 70
     1
102
RTVSPropertyOp2
 70
     1
102
RTVSPropertyOp3
 70
     1
102
RTVSPropertyOp4
 70
     1
102
RTVSPropertyOp5
 70
     1
102
RTVSPropertyOp6
 70
     1
102
RTVSPropertyOp7
 70
     1
102
RTVSPropertyOp8
 70
     1
102
RTVSPropertyOp9
 70
     1
102
RTVSPropertyOp10
 70
     1
102
RTVSPropertyOp11
 70
     1
102
RTVSPropertyOp12
 70
     1
102
RTVSPropertyOp13
 70
     1
102
RTVSPropertyOp14
 70
     1
102
RTVSPropertyOp15
 70
     1
102
RTVSPropertyOp16
 70
     1
102
RTVSPropertyOp17
 70
     1
102
RTVSPropertyOp18
 70
     1
102
RTVSPropertyOp19
 70
     1
102
RTVSPropertyOp20
 70
     1
102
RTVSPropertyOp21
 70
     1
102
RTVSPropertyOp22
 70
     1
102
RTVSPropertyOp23
 70
     1
102
RTVSPropertyOp24
 70
     1
102
RTVSPropertyOp25
 70
     1
102
RTVSPropertyOp26
 70
     1
102
RTVSPropertyOp27
 70
     1
102
RTVSPropertyOp28
 70
     1
102
RTVSPropertyOp29
 70
     1
102
RTVSPropertyOp30
 70
     1
102
RTVSPropertyOp31
 70
     1
102
RTVSPropertyOp32
 70
     1
102
RTVSPropertyOp33
 70
     1
102
RTVSPropertyOp34
 70
     1
102
RTVSPropertyOp35
 70
     1
102
RTVSPropertyOp36
 70
     1
102
RTVSPropertyOp37
 70
     1
102
RTVSPropertyOp38
 70
     1
102
RTVSPropertyOp39
 70
     1
102
RTVSPropertyOp40
 70
     1
102
RTVSPropertyOp41
 70
     1
102
RTVSPropertyOp42
 70
     1
102
RTVSPropertyOp43
 70
     1
102
RTVSPropertyOp44
 70
     1
102
RTVSPropertyOp45
 70
     1
102
RTVSPropertyOp46
 70
     1
102
RTVSPropertyOp47
 70
     1
102
RTVSPropertyOp48
 70
     1
102
RTVSPropertyOp49
 70
     1
102
RTVSPropertyOp50
 70
     1
102
RTVSPropertyOp51
 70
     0
102
RTVSPropertyOp52
 70
     0
102
RTVSPropertyOp53
 70
     1
102
RTVSPropertyOp54
 70
     1
102
RTVSPropertyOp55
 70
     1
102
RTVSPropertyOp56
 70
     1
102
RTVSPropertyOp57
 70
     1
102
RTVSPropertyOp58
 70
     1
102
RTVSPropertyOp59
 70
     1
102
RTVSPropertyOp60
 70
     1
102
RTVSPropertyOp61
 70
     1
102
RTVSPropertyOp62
 70
     1
  0
XRECORD
  5
73BB
102
{ACAD_REACTORS
330
73BA
102
}
330
73BA
100
AcDbXrecord
280
     1
102
RTVSPost2010Prop28
280
     0
102
RTVSPost2010PropOp28
 70
     1
102
RTVSPost2010Prop29
280
     1
102
RTVSPost2010PropOp29
 70
     1
102
RTVSPost2010Prop30
280
     1
102
RTVSPost2010PropOp30
 70
     1
102
RTVSPost2010Prop31
280
     0
102
RTVSPost2010PropOp31
 70
     1
102
RTVSPost2010Prop32
280
     0
102
RTVSPost2010PropOp32
 70
     1
102
RTVSPost2010Prop33
280
     0
102
RTVSPost2010PropOp33
 70
     1
102
RTVSPost2010Prop34
280
     0
102
RTVSPost2010PropOp34
 70
     1
102
RTVSPost2010Prop35
280
     0
102
RTVSPost2010PropOp35
 70
     1
102
RTVSPost2010Prop36
280
     0
102
RTVSPost2010PropOp36
 70
     1
102
RTVSPost2010Prop37
 90
       50
102
RTVSPost2010PropOp37
 70
     1
102
RTVSPost2010Prop38
140
0.0
102
RTVSPost2010PropOp38
 70
     1
102
RTVSPost2010Prop39
140
1.0
102
RTVSPost2010PropOp39
 70
     1
102
RTVSPost2010Prop40
 90
        0
102
RTVSPost2010PropOp40
 70
     1
102
RTVSPost2010Prop41ColorIndex
 90
       18
102
RTVSPost2010Prop41ColorRGB
 90
        0
102
RTVSPost2010PropOp41
 70
     1
102
RTVSPost2010Prop42
 90
       50
102
RTVSPost2010PropOp42
 70
     1
102
RTVSPost2010Prop43
 90
        3
102
RTVSPost2010PropOp43
 70
     1
102
RTVSPost2010Prop44ColorIndex
 90
        5
102
RTVSPost2010Prop44ColorRGB
 90
      255
102
RTVSPost2010PropOp44
 70
     1
102
RTVSPost2010Prop45
280
     0
102
RTVSPost2010PropOp45
 70
     1
102
RTVSPost2010Prop46
 90
       50
102
RTVSPost2010PropOp46
 70
     1
102
RTVSPost2010Prop47
 90
       50
102
RTVSPost2010PropOp47
 70
     1
102
RTVSPost2010Prop48
 90
       50
102
RTVSPost2010PropOp48
 70
     1
102
RTVSPost2010Prop49
280
     0
102
RTVSPost2010PropOp49
 70
     1
102
RTVSPost2010Prop50
 90
       50
102
RTVSPost2010PropOp50
 70
     1
102
RTVSPost2010Prop51ColorIndex
 90
      256
102
RTVSPost2010Prop51ColorRGB
 90
-16777216
102
RTVSPost2010PropOp51
 70
     0
102
RTVSPost2010Prop52
140
1.0
102
RTVSPost2010PropOp52
 70
     0
102
RTVSPost2010Prop53
 90
        2
102
RTVSPost2010PropOp53
 70
     1
102
RTVSPost2010Prop54
  1
strokes_ogs.tif
102
RTVSPost2010PropOp54
 70
     1
102
RTVSPost2010Prop55
280
     0
102
RTVSPost2010PropOp55
 70
     1
102
RTVSPost2010Prop56
140
1.0
102
RTVSPost2010PropOp56
 70
     1
102
RTVSPost2010Prop57
140
1.0
102
RTVSPost2010PropOp57
 70
     1
102
RTVSPropertyOp0
 70
     1
102
RTVSPropertyOp1
 70
     1
102
RTVSPropertyOp2
 70
     1
102
RTVSPropertyOp3
 70
     1
102
RTVSPropertyOp4
 70
     1
102
RTVSPropertyOp5
 70
     1
102
RTVSPropertyOp6
 70
     1
102
RTVSPropertyOp7
 70
     1
102
RTVSPropertyOp8
 70
     1
102
RTVSPropertyOp9
 70
     1
102
RTVSPropertyOp10
 70
     1
102
RTVSPropertyOp11
 70
     1
102
RTVSPropertyOp12
 70
     1
102
RTVSPropertyOp13
 70
     1
102
RTVSPropertyOp14
 70
     1
102
RTVSPropertyOp15
 70
     1
102
RTVSPropertyOp16
 70
     1
102
RTVSPropertyOp17
 70
     1
102
RTVSPropertyOp18
 70
     1
102
RTVSPropertyOp19
 70
     1
102
RTVSPropertyOp20
 70
     1
102
RTVSPropertyOp21
 70
     1
102
RTVSPropertyOp22
 70
     1
102
RTVSPropertyOp23
 70
     1
102
RTVSPropertyOp24
 70
     1
102
RTVSPropertyOp25
 70
     1
102
RTVSPropertyOp26
 70
     1
102
RTVSPropertyOp27
 70
     1
102
RTVSPropertyOp28
 70
     1
102
RTVSPropertyOp29
 70
     1
102
RTVSPropertyOp30
 70
     1
102
RTVSPropertyOp31
 70
     1
102
RTVSPropertyOp32
 70
     1
102
RTVSPropertyOp33
 70
     1
102
RTVSPropertyOp34
 70
     1
102
RTVSPropertyOp35
 70
     1
102
RTVSPropertyOp36
 70
     1
102
RTVSPropertyOp37
 70
     1
102
RTVSPropertyOp38
 70
     1
102
RTVSPropertyOp39
 70
     1
102
RTVSPropertyOp40
 70
     1
102
RTVSPropertyOp41
 70
     1
102
RTVSPropertyOp42
 70
     1
102
RTVSPropertyOp43
 70
     1
102
RTVSPropertyOp44
 70
     1
102
RTVSPropertyOp45
 70
     1
102
RTVSPropertyOp46
 70
     1
102
RTVSPropertyOp47
 70
     1
102
RTVSPropertyOp48
 70
     1
102
RTVSPropertyOp49
 70
     1
102
RTVSPropertyOp50
 70
     1
102
RTVSPropertyOp51
 70
     0
102
RTVSPropertyOp52
 70
     0
102
RTVSPropertyOp53
 70
     1
102
RTVSPropertyOp54
 70
     1
102
RTVSPropertyOp55
 70
     1
102
RTVSPropertyOp56
 70
     1
102
RTVSPropertyOp57
 70
     1
102
RTVSPropertyOp58
 70
     1
102
RTVSPropertyOp59
 70
     1
102
RTVSPropertyOp60
 70
     1
102
RTVSPropertyOp61
 70
     1
102
RTVSPropertyOp62
 70
     1
  0
XRECORD
  5
73B9
102
{ACAD_REACTORS
330
73B8
102
}
330
73B8
100
AcDbXrecord
280
     1
102
RTVSPost2010Prop28
280
     0
102
RTVSPost2010PropOp28
 70
     1
102
RTVSPost2010Prop29
280
     1
102
RTVSPost2010PropOp29
 70
     1
102
RTVSPost2010Prop30
280
     1
102
RTVSPost2010PropOp30
 70
     1
102
RTVSPost2010Prop31
280
     0
102
RTVSPost2010PropOp31
 70
     1
102
RTVSPost2010Prop32
280
     0
102
RTVSPost2010PropOp32
 70
     1
102
RTVSPost2010Prop33
280
     0
102
RTVSPost2010PropOp33
 70
     1
102
RTVSPost2010Prop34
280
     0
102
RTVSPost2010PropOp34
 70
     1
102
RTVSPost2010Prop35
280
     0
102
RTVSPost2010PropOp35
 70
     1
102
RTVSPost2010Prop36
280
     0
102
RTVSPost2010PropOp36
 70
     1
102
RTVSPost2010Prop37
 90
       50
102
RTVSPost2010PropOp37
 70
     1
102
RTVSPost2010Prop38
140
0.0
102
RTVSPost2010PropOp38
 70
     1
102
RTVSPost2010Prop39
140
1.0
102
RTVSPost2010PropOp39
 70
     1
102
RTVSPost2010Prop40
 90
        0
102
RTVSPost2010PropOp40
 70
     1
102
RTVSPost2010Prop41ColorIndex
 90
       18
102
RTVSPost2010Prop41ColorRGB
 90
        0
102
RTVSPost2010PropOp41
 70
     1
102
RTVSPost2010Prop42
 90
       50
102
RTVSPost2010PropOp42
 70
     1
102
RTVSPost2010Prop43
 90
        3
102
RTVSPost2010PropOp43
 70
     1
102
RTVSPost2010Prop44ColorIndex
 90
        5
102
RTVSPost2010Prop44ColorRGB
 90
      255
102
RTVSPost2010PropOp44
 70
     1
102
RTVSPost2010Prop45
280
     0
102
RTVSPost2010PropOp45
 70
     1
102
RTVSPost2010Prop46
 90
       50
102
RTVSPost2010PropOp46
 70
     1
102
RTVSPost2010Prop47
 90
       50
102
RTVSPost2010PropOp47
 70
     1
102
RTVSPost2010Prop48
 90
       50
102
RTVSPost2010PropOp48
 70
     1
102
RTVSPost2010Prop49
280
     0
102
RTVSPost2010PropOp49
 70
     1
102
RTVSPost2010Prop50
 90
       50
102
RTVSPost2010PropOp50
 70
     1
102
RTVSPost2010Prop51ColorIndex
 90
      256
102
RTVSPost2010Prop51ColorRGB
 90
-16777216
102
RTVSPost2010PropOp51
 70
     0
102
RTVSPost2010Prop52
140
1.0
102
RTVSPost2010PropOp52
 70
     0
102
RTVSPost2010Prop53
 90
        2
102
RTVSPost2010PropOp53
 70
     1
102
RTVSPost2010Prop54
  1
strokes_ogs.tif
102
RTVSPost2010PropOp54
 70
     1
102
RTVSPost2010Prop55
280
     0
102
RTVSPost2010PropOp55
 70
     1
102
RTVSPost2010Prop56
140
1.0
102
RTVSPost2010PropOp56
 70
     1
102
RTVSPost2010Prop57
140
1.0
102
RTVSPost2010PropOp57
 70
     1
102
RTVSPropertyOp0
 70
     1
102
RTVSPropertyOp1
 70
     1
102
RTVSPropertyOp2
 70
     1
102
RTVSPropertyOp3
 70
     1
102
RTVSPropertyOp4
 70
     1
102
RTVSPropertyOp5
 70
     1
102
RTVSPropertyOp6
 70
     1
102
RTVSPropertyOp7
 70
     1
102
RTVSPropertyOp8
 70
     1
102
RTVSPropertyOp9
 70
     1
102
RTVSPropertyOp10
 70
     1
102
RTVSPropertyOp11
 70
     1
102
RTVSPropertyOp12
 70
     1
102
RTVSPropertyOp13
 70
     1
102
RTVSPropertyOp14
 70
     1
102
RTVSPropertyOp15
 70
     1
102
RTVSPropertyOp16
 70
     1
102
RTVSPropertyOp17
 70
     1
102
RTVSPropertyOp18
 70
     1
102
RTVSPropertyOp19
 70
     1
102
RTVSPropertyOp20
 70
     1
102
RTVSPropertyOp21
 70
     1
102
RTVSPropertyOp22
 70
     1
102
RTVSPropertyOp23
 70
     1
102
RTVSPropertyOp24
 70
     1
102
RTVSPropertyOp25
 70
     1
102
RTVSPropertyOp26
 70
     1
102
RTVSPropertyOp27
 70
     1
102
RTVSPropertyOp28
 70
     1
102
RTVSPropertyOp29
 70
     1
102
RTVSPropertyOp30
 70
     1
102
RTVSPropertyOp31
 70
     1
102
RTVSPropertyOp32
 70
     1
102
RTVSPropertyOp33
 70
     1
102
RTVSPropertyOp34
 70
     1
102
RTVSPropertyOp35
 70
     1
102
RTVSPropertyOp36
 70
     1
102
RTVSPropertyOp37
 70
     1
102
RTVSPropertyOp38
 70
     1
102
RTVSPropertyOp39
 70
     1
102
RTVSPropertyOp40
 70
     1
102
RTVSPropertyOp41
 70
     1
102
RTVSPropertyOp42
 70
     1
102
RTVSPropertyOp43
 70
     1
102
RTVSPropertyOp44
 70
     1
102
RTVSPropertyOp45
 70
     1
102
RTVSPropertyOp46
 70
     1
102
RTVSPropertyOp47
 70
     1
102
RTVSPropertyOp48
 70
     1
102
RTVSPropertyOp49
 70
     1
102
RTVSPropertyOp50
 70
     1
102
RTVSPropertyOp51
 70
     0
102
RTVSPropertyOp52
 70
     0
102
RTVSPropertyOp53
 70
     1
102
RTVSPropertyOp54
 70
     1
102
RTVSPropertyOp55
 70
     1
102
RTVSPropertyOp56
 70
     1
102
RTVSPropertyOp57
 70
     1
102
RTVSPropertyOp58
 70
     1
102
RTVSPropertyOp59
 70
     1
102
RTVSPropertyOp60
 70
     1
102
RTVSPropertyOp61
 70
     1
102
RTVSPropertyOp62
 70
     1
  0
XRECORD
  5
73B3
102
{ACAD_REACTORS
330
73B2
102
}
330
73B2
100
AcDbXrecord
280
     1
102
RTVSPost2010Prop28
280
     0
102
RTVSPost2010PropOp28
 70
     1
102
RTVSPost2010Prop29
280
     1
102
RTVSPost2010PropOp29
 70
     1
102
RTVSPost2010Prop30
280
     1
102
RTVSPost2010PropOp30
 70
     1
102
RTVSPost2010Prop31
280
     0
102
RTVSPost2010PropOp31
 70
     1
102
RTVSPost2010Prop32
280
     0
102
RTVSPost2010PropOp32
 70
     1
102
RTVSPost2010Prop33
280
     0
102
RTVSPost2010PropOp33
 70
     1
102
RTVSPost2010Prop34
280
     0
102
RTVSPost2010PropOp34
 70
     1
102
RTVSPost2010Prop35
280
     0
102
RTVSPost2010PropOp35
 70
     1
102
RTVSPost2010Prop36
280
     0
102
RTVSPost2010PropOp36
 70
     1
102
RTVSPost2010Prop37
 90
       50
102
RTVSPost2010PropOp37
 70
     1
102
RTVSPost2010Prop38
140
0.0
102
RTVSPost2010PropOp38
 70
     1
102
RTVSPost2010Prop39
140
1.0
102
RTVSPost2010PropOp39
 70
     1
102
RTVSPost2010Prop40
 90
        0
102
RTVSPost2010PropOp40
 70
     1
102
RTVSPost2010Prop41ColorIndex
 90
       18
102
RTVSPost2010Prop41ColorRGB
 90
        0
102
RTVSPost2010PropOp41
 70
     1
102
RTVSPost2010Prop42
 90
       50
102
RTVSPost2010PropOp42
 70
     1
102
RTVSPost2010Prop43
 90
        3
102
RTVSPost2010PropOp43
 70
     1
102
RTVSPost2010Prop44ColorIndex
 90
        5
102
RTVSPost2010Prop44ColorRGB
 90
      255
102
RTVSPost2010PropOp44
 70
     1
102
RTVSPost2010Prop45
280
     0
102
RTVSPost2010PropOp45
 70
     1
102
RTVSPost2010Prop46
 90
       50
102
RTVSPost2010PropOp46
 70
     1
102
RTVSPost2010Prop47
 90
       50
102
RTVSPost2010PropOp47
 70
     1
102
RTVSPost2010Prop48
 90
       50
102
RTVSPost2010PropOp48
 70
     1
102
RTVSPost2010Prop49
280
     0
102
RTVSPost2010PropOp49
 70
     1
102
RTVSPost2010Prop50
 90
       50
102
RTVSPost2010PropOp50
 70
     1
102
RTVSPost2010Prop51ColorIndex
 90
      256
102
RTVSPost2010Prop51ColorRGB
 90
-16777216
102
RTVSPost2010PropOp51
 70
     0
102
RTVSPost2010Prop52
140
1.0
102
RTVSPost2010PropOp52
 70
     0
102
RTVSPost2010Prop53
 90
        2
102
RTVSPost2010PropOp53
 70
     1
102
RTVSPost2010Prop54
  1
strokes_ogs.tif
102
RTVSPost2010PropOp54
 70
     1
102
RTVSPost2010Prop55
280
     0
102
RTVSPost2010PropOp55
 70
     1
102
RTVSPost2010Prop56
140
1.0
102
RTVSPost2010PropOp56
 70
     1
102
RTVSPost2010Prop57
140
1.0
102
RTVSPost2010PropOp57
 70
     1
102
RTVSPropertyOp0
 70
     1
102
RTVSPropertyOp1
 70
     1
102
RTVSPropertyOp2
 70
     1
102
RTVSPropertyOp3
 70
     1
102
RTVSPropertyOp4
 70
     1
102
RTVSPropertyOp5
 70
     1
102
RTVSPropertyOp6
 70
     1
102
RTVSPropertyOp7
 70
     1
102
RTVSPropertyOp8
 70
     1
102
RTVSPropertyOp9
 70
     1
102
RTVSPropertyOp10
 70
     1
102
RTVSPropertyOp11
 70
     1
102
RTVSPropertyOp12
 70
     1
102
RTVSPropertyOp13
 70
     1
102
RTVSPropertyOp14
 70
     1
102
RTVSPropertyOp15
 70
     1
102
RTVSPropertyOp16
 70
     1
102
RTVSPropertyOp17
 70
     1
102
RTVSPropertyOp18
 70
     1
102
RTVSPropertyOp19
 70
     1
102
RTVSPropertyOp20
 70
     1
102
RTVSPropertyOp21
 70
     1
102
RTVSPropertyOp22
 70
     1
102
RTVSPropertyOp23
 70
     1
102
RTVSPropertyOp24
 70
     1
102
RTVSPropertyOp25
 70
     1
102
RTVSPropertyOp26
 70
     1
102
RTVSPropertyOp27
 70
     1
102
RTVSPropertyOp28
 70
     1
102
RTVSPropertyOp29
 70
     1
102
RTVSPropertyOp30
 70
     1
102
RTVSPropertyOp31
 70
     1
102
RTVSPropertyOp32
 70
     1
102
RTVSPropertyOp33
 70
     1
102
RTVSPropertyOp34
 70
     1
102
RTVSPropertyOp35
 70
     1
102
RTVSPropertyOp36
 70
     1
102
RTVSPropertyOp37
 70
     1
102
RTVSPropertyOp38
 70
     1
102
RTVSPropertyOp39
 70
     1
102
RTVSPropertyOp40
 70
     1
102
RTVSPropertyOp41
 70
     1
102
RTVSPropertyOp42
 70
     1
102
RTVSPropertyOp43
 70
     1
102
RTVSPropertyOp44
 70
     1
102
RTVSPropertyOp45
 70
     1
102
RTVSPropertyOp46
 70
     1
102
RTVSPropertyOp47
 70
     1
102
RTVSPropertyOp48
 70
     1
102
RTVSPropertyOp49
 70
     1
102
RTVSPropertyOp50
 70
     1
102
RTVSPropertyOp51
 70
     0
102
RTVSPropertyOp52
 70
     0
102
RTVSPropertyOp53
 70
     1
102
RTVSPropertyOp54
 70
     1
102
RTVSPropertyOp55
 70
     1
102
RTVSPropertyOp56
 70
     1
102
RTVSPropertyOp57
 70
     1
102
RTVSPropertyOp58
 70
     1
102
RTVSPropertyOp59
 70
     1
102
RTVSPropertyOp60
 70
     1
102
RTVSPropertyOp61
 70
     1
102
RTVSPropertyOp62
 70
     1
  0
XRECORD
  5
73B5
102
{ACAD_REACTORS
330
73B4
102
}
330
73B4
100
AcDbXrecord
280
     1
102
RTVSPost2010Prop28
280
     0
102
RTVSPost2010PropOp28
 70
     1
102
RTVSPost2010Prop29
280
     1
102
RTVSPost2010PropOp29
 70
     1
102
RTVSPost2010Prop30
280
     1
102
RTVSPost2010PropOp30
 70
     1
102
RTVSPost2010Prop31
280
     0
102
RTVSPost2010PropOp31
 70
     1
102
RTVSPost2010Prop32
280
     0
102
RTVSPost2010PropOp32
 70
     1
102
RTVSPost2010Prop33
280
     0
102
RTVSPost2010PropOp33
 70
     1
102
RTVSPost2010Prop34
280
     0
102
RTVSPost2010PropOp34
 70
     1
102
RTVSPost2010Prop35
280
     0
102
RTVSPost2010PropOp35
 70
     1
102
RTVSPost2010Prop36
280
     0
102
RTVSPost2010PropOp36
 70
     1
102
RTVSPost2010Prop37
 90
       50
102
RTVSPost2010PropOp37
 70
     1
102
RTVSPost2010Prop38
140
0.0
102
RTVSPost2010PropOp38
 70
     1
102
RTVSPost2010Prop39
140
1.0
102
RTVSPost2010PropOp39
 70
     1
102
RTVSPost2010Prop40
 90
        0
102
RTVSPost2010PropOp40
 70
     1
102
RTVSPost2010Prop41ColorIndex
 90
       18
102
RTVSPost2010Prop41ColorRGB
 90
        0
102
RTVSPost2010PropOp41
 70
     1
102
RTVSPost2010Prop42
 90
       50
102
RTVSPost2010PropOp42
 70
     1
102
RTVSPost2010Prop43
 90
        3
102
RTVSPost2010PropOp43
 70
     1
102
RTVSPost2010Prop44ColorIndex
 90
        5
102
RTVSPost2010Prop44ColorRGB
 90
      255
102
RTVSPost2010PropOp44
 70
     1
102
RTVSPost2010Prop45
280
     0
102
RTVSPost2010PropOp45
 70
     1
102
RTVSPost2010Prop46
 90
       50
102
RTVSPost2010PropOp46
 70
     1
102
RTVSPost2010Prop47
 90
       50
102
RTVSPost2010PropOp47
 70
     1
102
RTVSPost2010Prop48
 90
       50
102
RTVSPost2010PropOp48
 70
     1
102
RTVSPost2010Prop49
280
     0
102
RTVSPost2010PropOp49
 70
     1
102
RTVSPost2010Prop50
 90
       50
102
RTVSPost2010PropOp50
 70
     1
102
RTVSPost2010Prop51ColorIndex
 90
      256
102
RTVSPost2010Prop51ColorRGB
 90
-16777216
102
RTVSPost2010PropOp51
 70
     0
102
RTVSPost2010Prop52
140
1.0
102
RTVSPost2010PropOp52
 70
     0
102
RTVSPost2010Prop53
 90
        2
102
RTVSPost2010PropOp53
 70
     1
102
RTVSPost2010Prop54
  1
strokes_ogs.tif
102
RTVSPost2010PropOp54
 70
     1
102
RTVSPost2010Prop55
280
     0
102
RTVSPost2010PropOp55
 70
     1
102
RTVSPost2010Prop56
140
1.0
102
RTVSPost2010PropOp56
 70
     1
102
RTVSPost2010Prop57
140
1.0
102
RTVSPost2010PropOp57
 70
     1
102
RTVSPropertyOp0
 70
     1
102
RTVSPropertyOp1
 70
     1
102
RTVSPropertyOp2
 70
     1
102
RTVSPropertyOp3
 70
     1
102
RTVSPropertyOp4
 70
     1
102
RTVSPropertyOp5
 70
     1
102
RTVSPropertyOp6
 70
     1
102
RTVSPropertyOp7
 70
     1
102
RTVSPropertyOp8
 70
     1
102
RTVSPropertyOp9
 70
     1
102
RTVSPropertyOp10
 70
     1
102
RTVSPropertyOp11
 70
     1
102
RTVSPropertyOp12
 70
     1
102
RTVSPropertyOp13
 70
     1
102
RTVSPropertyOp14
 70
     1
102
RTVSPropertyOp15
 70
     1
102
RTVSPropertyOp16
 70
     1
102
RTVSPropertyOp17
 70
     1
102
RTVSPropertyOp18
 70
     1
102
RTVSPropertyOp19
 70
     1
102
RTVSPropertyOp20
 70
     1
102
RTVSPropertyOp21
 70
     1
102
RTVSPropertyOp22
 70
     1
102
RTVSPropertyOp23
 70
     1
102
RTVSPropertyOp24
 70
     1
102
RTVSPropertyOp25
 70
     1
102
RTVSPropertyOp26
 70
     1
102
RTVSPropertyOp27
 70
     1
102
RTVSPropertyOp28
 70
     1
102
RTVSPropertyOp29
 70
     1
102
RTVSPropertyOp30
 70
     1
102
RTVSPropertyOp31
 70
     1
102
RTVSPropertyOp32
 70
     1
102
RTVSPropertyOp33
 70
     1
102
RTVSPropertyOp34
 70
     1
102
RTVSPropertyOp35
 70
     1
102
RTVSPropertyOp36
 70
     1
102
RTVSPropertyOp37
 70
     1
102
RTVSPropertyOp38
 70
     1
102
RTVSPropertyOp39
 70
     1
102
RTVSPropertyOp40
 70
     1
102
RTVSPropertyOp41
 70
     1
102
RTVSPropertyOp42
 70
     1
102
RTVSPropertyOp43
 70
     1
102
RTVSPropertyOp44
 70
     1
102
RTVSPropertyOp45
 70
     1
102
RTVSPropertyOp46
 70
     1
102
RTVSPropertyOp47
 70
     1
102
RTVSPropertyOp48
 70
     1
102
RTVSPropertyOp49
 70
     1
102
RTVSPropertyOp50
 70
     1
102
RTVSPropertyOp51
 70
     0
102
RTVSPropertyOp52
 70
     0
102
RTVSPropertyOp53
 70
     1
102
RTVSPropertyOp54
 70
     1
102
RTVSPropertyOp55
 70
     1
102
RTVSPropertyOp56
 70
     1
102
RTVSPropertyOp57
 70
     1
102
RTVSPropertyOp58
 70
     1
102
RTVSPropertyOp59
 70
     1
102
RTVSPropertyOp60
 70
     1
102
RTVSPropertyOp61
 70
     1
102
RTVSPropertyOp62
 70
     1
  0
XRECORD
  5
73AB
102
{ACAD_REACTORS
330
73AA
102
}
330
73AA
100
AcDbXrecord
280
     1
102
RTVSPost2010Prop28
280
     0
102
RTVSPost2010PropOp28
 70
     1
102
RTVSPost2010Prop29
280
     1
102
RTVSPost2010PropOp29
 70
     1
102
RTVSPost2010Prop30
280
     1
102
RTVSPost2010PropOp30
 70
     1
102
RTVSPost2010Prop31
280
     0
102
RTVSPost2010PropOp31
 70
     1
102
RTVSPost2010Prop32
280
     0
102
RTVSPost2010PropOp32
 70
     1
102
RTVSPost2010Prop33
280
     0
102
RTVSPost2010PropOp33
 70
     1
102
RTVSPost2010Prop34
280
     0
102
RTVSPost2010PropOp34
 70
     1
102
RTVSPost2010Prop35
280
     0
102
RTVSPost2010PropOp35
 70
     1
102
RTVSPost2010Prop36
280
     0
102
RTVSPost2010PropOp36
 70
     1
102
RTVSPost2010Prop37
 90
       50
102
RTVSPost2010PropOp37
 70
     1
102
RTVSPost2010Prop38
140
0.0
102
RTVSPost2010PropOp38
 70
     1
102
RTVSPost2010Prop39
140
1.0
102
RTVSPost2010PropOp39
 70
     1
102
RTVSPost2010Prop40
 90
        0
102
RTVSPost2010PropOp40
 70
     1
102
RTVSPost2010Prop41ColorIndex
 90
       18
102
RTVSPost2010Prop41ColorRGB
 90
        0
102
RTVSPost2010PropOp41
 70
     1
102
RTVSPost2010Prop42
 90
       50
102
RTVSPost2010PropOp42
 70
     1
102
RTVSPost2010Prop43
 90
        3
102
RTVSPost2010PropOp43
 70
     1
102
RTVSPost2010Prop44ColorIndex
 90
        5
102
RTVSPost2010Prop44ColorRGB
 90
      255
102
RTVSPost2010PropOp44
 70
     1
102
RTVSPost2010Prop45
280
     0
102
RTVSPost2010PropOp45
 70
     1
102
RTVSPost2010Prop46
 90
       50
102
RTVSPost2010PropOp46
 70
     1
102
RTVSPost2010Prop47
 90
       50
102
RTVSPost2010PropOp47
 70
     1
102
RTVSPost2010Prop48
 90
       50
102
RTVSPost2010PropOp48
 70
     1
102
RTVSPost2010Prop49
280
     0
102
RTVSPost2010PropOp49
 70
     1
102
RTVSPost2010Prop50
 90
       50
102
RTVSPost2010PropOp50
 70
     1
102
RTVSPost2010Prop51ColorIndex
 90
      256
102
RTVSPost2010Prop51ColorRGB
 90
-16777216
102
RTVSPost2010PropOp51
 70
     0
102
RTVSPost2010Prop52
140
1.0
102
RTVSPost2010PropOp52
 70
     0
102
RTVSPost2010Prop53
 90
        2
102
RTVSPost2010PropOp53
 70
     1
102
RTVSPost2010Prop54
  1
strokes_ogs.tif
102
RTVSPost2010PropOp54
 70
     1
102
RTVSPost2010Prop55
280
     0
102
RTVSPost2010PropOp55
 70
     1
102
RTVSPost2010Prop56
140
1.0
102
RTVSPost2010PropOp56
 70
     1
102
RTVSPost2010Prop57
140
1.0
102
RTVSPost2010PropOp57
 70
     1
102
RTVSPropertyOp0
 70
     1
102
RTVSPropertyOp1
 70
     1
102
RTVSPropertyOp2
 70
     1
102
RTVSPropertyOp3
 70
     1
102
RTVSPropertyOp4
 70
     1
102
RTVSPropertyOp5
 70
     1
102
RTVSPropertyOp6
 70
     1
102
RTVSPropertyOp7
 70
     1
102
RTVSPropertyOp8
 70
     1
102
RTVSPropertyOp9
 70
     1
102
RTVSPropertyOp10
 70
     1
102
RTVSPropertyOp11
 70
     1
102
RTVSPropertyOp12
 70
     1
102
RTVSPropertyOp13
 70
     1
102
RTVSPropertyOp14
 70
     1
102
RTVSPropertyOp15
 70
     1
102
RTVSPropertyOp16
 70
     1
102
RTVSPropertyOp17
 70
     1
102
RTVSPropertyOp18
 70
     1
102
RTVSPropertyOp19
 70
     1
102
RTVSPropertyOp20
 70
     1
102
RTVSPropertyOp21
 70
     1
102
RTVSPropertyOp22
 70
     1
102
RTVSPropertyOp23
 70
     1
102
RTVSPropertyOp24
 70
     1
102
RTVSPropertyOp25
 70
     1
102
RTVSPropertyOp26
 70
     1
102
RTVSPropertyOp27
 70
     1
102
RTVSPropertyOp28
 70
     1
102
RTVSPropertyOp29
 70
     1
102
RTVSPropertyOp30
 70
     1
102
RTVSPropertyOp31
 70
     1
102
RTVSPropertyOp32
 70
     1
102
RTVSPropertyOp33
 70
     1
102
RTVSPropertyOp34
 70
     1
102
RTVSPropertyOp35
 70
     1
102
RTVSPropertyOp36
 70
     1
102
RTVSPropertyOp37
 70
     1
102
RTVSPropertyOp38
 70
     1
102
RTVSPropertyOp39
 70
     1
102
RTVSPropertyOp40
 70
     1
102
RTVSPropertyOp41
 70
     1
102
RTVSPropertyOp42
 70
     1
102
RTVSPropertyOp43
 70
     1
102
RTVSPropertyOp44
 70
     1
102
RTVSPropertyOp45
 70
     1
102
RTVSPropertyOp46
 70
     1
102
RTVSPropertyOp47
 70
     1
102
RTVSPropertyOp48
 70
     1
102
RTVSPropertyOp49
 70
     1
102
RTVSPropertyOp50
 70
     1
102
RTVSPropertyOp51
 70
     0
102
RTVSPropertyOp52
 70
     0
102
RTVSPropertyOp53
 70
     1
102
RTVSPropertyOp54
 70
     1
102
RTVSPropertyOp55
 70
     1
102
RTVSPropertyOp56
 70
     1
102
RTVSPropertyOp57
 70
     1
102
RTVSPropertyOp58
 70
     1
102
RTVSPropertyOp59
 70
     1
102
RTVSPropertyOp60
 70
     1
102
RTVSPropertyOp61
 70
     1
102
RTVSPropertyOp62
 70
     1
  0
XRECORD
  5
739F
102
{ACAD_REACTORS
330
739E
102
}
330
739E
100
AcDbXrecord
280
     1
102
RTVSPost2010Prop28
280
     0
102
RTVSPost2010PropOp28
 70
     1
102
RTVSPost2010Prop29
280
     1
102
RTVSPost2010PropOp29
 70
     1
102
RTVSPost2010Prop30
280
     1
102
RTVSPost2010PropOp30
 70
     1
102
RTVSPost2010Prop31
280
     0
102
RTVSPost2010PropOp31
 70
     1
102
RTVSPost2010Prop32
280
     0
102
RTVSPost2010PropOp32
 70
     1
102
RTVSPost2010Prop33
280
     0
102
RTVSPost2010PropOp33
 70
     1
102
RTVSPost2010Prop34
280
     0
102
RTVSPost2010PropOp34
 70
     1
102
RTVSPost2010Prop35
280
     0
102
RTVSPost2010PropOp35
 70
     1
102
RTVSPost2010Prop36
280
     0
102
RTVSPost2010PropOp36
 70
     1
102
RTVSPost2010Prop37
 90
       50
102
RTVSPost2010PropOp37
 70
     1
102
RTVSPost2010Prop38
140
0.0
102
RTVSPost2010PropOp38
 70
     1
102
RTVSPost2010Prop39
140
1.0
102
RTVSPost2010PropOp39
 70
     1
102
RTVSPost2010Prop40
 90
        0
102
RTVSPost2010PropOp40
 70
     1
102
RTVSPost2010Prop41ColorIndex
 90
       18
102
RTVSPost2010Prop41ColorRGB
 90
        0
102
RTVSPost2010PropOp41
 70
     1
102
RTVSPost2010Prop42
 90
       50
102
RTVSPost2010PropOp42
 70
     1
102
RTVSPost2010Prop43
 90
        3
102
RTVSPost2010PropOp43
 70
     1
102
RTVSPost2010Prop44ColorIndex
 90
        5
102
RTVSPost2010Prop44ColorRGB
 90
      255
102
RTVSPost2010PropOp44
 70
     1
102
RTVSPost2010Prop45
280
     0
102
RTVSPost2010PropOp45
 70
     1
102
RTVSPost2010Prop46
 90
       50
102
RTVSPost2010PropOp46
 70
     1
102
RTVSPost2010Prop47
 90
       50
102
RTVSPost2010PropOp47
 70
     1
102
RTVSPost2010Prop48
 90
       50
102
RTVSPost2010PropOp48
 70
     1
102
RTVSPost2010Prop49
280
     0
102
RTVSPost2010PropOp49
 70
     1
102
RTVSPost2010Prop50
 90
       50
102
RTVSPost2010PropOp50
 70
     1
102
RTVSPost2010Prop51ColorIndex
 90
      256
102
RTVSPost2010Prop51ColorRGB
 90
-16777216
102
RTVSPost2010PropOp51
 70
     0
102
RTVSPost2010Prop52
140
1.0
102
RTVSPost2010PropOp52
 70
     0
102
RTVSPost2010Prop53
 90
        2
102
RTVSPost2010PropOp53
 70
     1
102
RTVSPost2010Prop54
  1
strokes_ogs.tif
102
RTVSPost2010PropOp54
 70
     1
102
RTVSPost2010Prop55
280
     0
102
RTVSPost2010PropOp55
 70
     1
102
RTVSPost2010Prop56
140
1.0
102
RTVSPost2010PropOp56
 70
     1
102
RTVSPost2010Prop57
140
1.0
102
RTVSPost2010PropOp57
 70
     1
102
RTVSPropertyOp0
 70
     1
102
RTVSPropertyOp1
 70
     1
102
RTVSPropertyOp2
 70
     1
102
RTVSPropertyOp3
 70
     1
102
RTVSPropertyOp4
 70
     1
102
RTVSPropertyOp5
 70
     1
102
RTVSPropertyOp6
 70
     1
102
RTVSPropertyOp7
 70
     1
102
RTVSPropertyOp8
 70
     1
102
RTVSPropertyOp9
 70
     1
102
RTVSPropertyOp10
 70
     1
102
RTVSPropertyOp11
 70
     1
102
RTVSPropertyOp12
 70
     1
102
RTVSPropertyOp13
 70
     1
102
RTVSPropertyOp14
 70
     1
102
RTVSPropertyOp15
 70
     1
102
RTVSPropertyOp16
 70
     1
102
RTVSPropertyOp17
 70
     1
102
RTVSPropertyOp18
 70
     1
102
RTVSPropertyOp19
 70
     1
102
RTVSPropertyOp20
 70
     1
102
RTVSPropertyOp21
 70
     1
102
RTVSPropertyOp22
 70
     1
102
RTVSPropertyOp23
 70
     1
102
RTVSPropertyOp24
 70
     1
102
RTVSPropertyOp25
 70
     1
102
RTVSPropertyOp26
 70
     1
102
RTVSPropertyOp27
 70
     1
102
RTVSPropertyOp28
 70
     1
102
RTVSPropertyOp29
 70
     1
102
RTVSPropertyOp30
 70
     1
102
RTVSPropertyOp31
 70
     1
102
RTVSPropertyOp32
 70
     1
102
RTVSPropertyOp33
 70
     1
102
RTVSPropertyOp34
 70
     1
102
RTVSPropertyOp35
 70
     1
102
RTVSPropertyOp36
 70
     1
102
RTVSPropertyOp37
 70
     1
102
RTVSPropertyOp38
 70
     1
102
RTVSPropertyOp39
 70
     1
102
RTVSPropertyOp40
 70
     1
102
RTVSPropertyOp41
 70
     1
102
RTVSPropertyOp42
 70
     1
102
RTVSPropertyOp43
 70
     1
102
RTVSPropertyOp44
 70
     1
102
RTVSPropertyOp45
 70
     1
102
RTVSPropertyOp46
 70
     1
102
RTVSPropertyOp47
 70
     1
102
RTVSPropertyOp48
 70
     1
102
RTVSPropertyOp49
 70
     1
102
RTVSPropertyOp50
 70
     1
102
RTVSPropertyOp51
 70
     0
102
RTVSPropertyOp52
 70
     0
102
RTVSPropertyOp53
 70
     1
102
RTVSPropertyOp54
 70
     1
102
RTVSPropertyOp55
 70
     1
102
RTVSPropertyOp56
 70
     1
102
RTVSPropertyOp57
 70
     1
102
RTVSPropertyOp58
 70
     1
102
RTVSPropertyOp59
 70
     1
102
RTVSPropertyOp60
 70
     1
102
RTVSPropertyOp61
 70
     1
102
RTVSPropertyOp62
 70
     1
  0
XRECORD
  5
73B7
102
{ACAD_REACTORS
330
73B6
102
}
330
73B6
100
AcDbXrecord
280
     1
102
RTVSPost2010Prop28
280
     0
102
RTVSPost2010PropOp28
 70
     1
102
RTVSPost2010Prop29
280
     1
102
RTVSPost2010PropOp29
 70
     1
102
RTVSPost2010Prop30
280
     1
102
RTVSPost2010PropOp30
 70
     1
102
RTVSPost2010Prop31
280
     0
102
RTVSPost2010PropOp31
 70
     1
102
RTVSPost2010Prop32
280
     0
102
RTVSPost2010PropOp32
 70
     1
102
RTVSPost2010Prop33
280
     0
102
RTVSPost2010PropOp33
 70
     1
102
RTVSPost2010Prop34
280
     0
102
RTVSPost2010PropOp34
 70
     1
102
RTVSPost2010Prop35
280
     0
102
RTVSPost2010PropOp35
 70
     1
102
RTVSPost2010Prop36
280
     0
102
RTVSPost2010PropOp36
 70
     1
102
RTVSPost2010Prop37
 90
       50
102
RTVSPost2010PropOp37
 70
     1
102
RTVSPost2010Prop38
140
0.0
102
RTVSPost2010PropOp38
 70
     1
102
RTVSPost2010Prop39
140
1.0
102
RTVSPost2010PropOp39
 70
     1
102
RTVSPost2010Prop40
 90
        0
102
RTVSPost2010PropOp40
 70
     1
102
RTVSPost2010Prop41ColorIndex
 90
       18
102
RTVSPost2010Prop41ColorRGB
 90
        0
102
RTVSPost2010PropOp41
 70
     1
102
RTVSPost2010Prop42
 90
       50
102
RTVSPost2010PropOp42
 70
     1
102
RTVSPost2010Prop43
 90
        3
102
RTVSPost2010PropOp43
 70
     1
102
RTVSPost2010Prop44ColorIndex
 90
        5
102
RTVSPost2010Prop44ColorRGB
 90
      255
102
RTVSPost2010PropOp44
 70
     1
102
RTVSPost2010Prop45
280
     0
102
RTVSPost2010PropOp45
 70
     1
102
RTVSPost2010Prop46
 90
       50
102
RTVSPost2010PropOp46
 70
     1
102
RTVSPost2010Prop47
 90
       50
102
RTVSPost2010PropOp47
 70
     1
102
RTVSPost2010Prop48
 90
       50
102
RTVSPost2010PropOp48
 70
     1
102
RTVSPost2010Prop49
280
     0
102
RTVSPost2010PropOp49
 70
     1
102
RTVSPost2010Prop50
 90
       50
102
RTVSPost2010PropOp50
 70
     1
102
RTVSPost2010Prop51ColorIndex
 90
      256
102
RTVSPost2010Prop51ColorRGB
 90
-16777216
102
RTVSPost2010PropOp51
 70
     0
102
RTVSPost2010Prop52
140
1.0
102
RTVSPost2010PropOp52
 70
     0
102
RTVSPost2010Prop53
 90
        2
102
RTVSPost2010PropOp53
 70
     1
102
RTVSPost2010Prop54
  1
strokes_ogs.tif
102
RTVSPost2010PropOp54
 70
     1
102
RTVSPost2010Prop55
280
     0
102
RTVSPost2010PropOp55
 70
     1
102
RTVSPost2010Prop56
140
1.0
102
RTVSPost2010PropOp56
 70
     1
102
RTVSPost2010Prop57
140
1.0
102
RTVSPost2010PropOp57
 70
     1
102
RTVSPropertyOp0
 70
     1
102
RTVSPropertyOp1
 70
     1
102
RTVSPropertyOp2
 70
     1
102
RTVSPropertyOp3
 70
     1
102
RTVSPropertyOp4
 70
     1
102
RTVSPropertyOp5
 70
     1
102
RTVSPropertyOp6
 70
     1
102
RTVSPropertyOp7
 70
     1
102
RTVSPropertyOp8
 70
     1
102
RTVSPropertyOp9
 70
     1
102
RTVSPropertyOp10
 70
     1
102
RTVSPropertyOp11
 70
     1
102
RTVSPropertyOp12
 70
     1
102
RTVSPropertyOp13
 70
     1
102
RTVSPropertyOp14
 70
     1
102
RTVSPropertyOp15
 70
     1
102
RTVSPropertyOp16
 70
     1
102
RTVSPropertyOp17
 70
     1
102
RTVSPropertyOp18
 70
     1
102
RTVSPropertyOp19
 70
     1
102
RTVSPropertyOp20
 70
     1
102
RTVSPropertyOp21
 70
     1
102
RTVSPropertyOp22
 70
     1
102
RTVSPropertyOp23
 70
     1
102
RTVSPropertyOp24
 70
     1
102
RTVSPropertyOp25
 70
     1
102
RTVSPropertyOp26
 70
     1
102
RTVSPropertyOp27
 70
     1
102
RTVSPropertyOp28
 70
     1
102
RTVSPropertyOp29
 70
     1
102
RTVSPropertyOp30
 70
     1
102
RTVSPropertyOp31
 70
     1
102
RTVSPropertyOp32
 70
     1
102
RTVSPropertyOp33
 70
     1
102
RTVSPropertyOp34
 70
     1
102
RTVSPropertyOp35
 70
     1
102
RTVSPropertyOp36
 70
     1
102
RTVSPropertyOp37
 70
     1
102
RTVSPropertyOp38
 70
     1
102
RTVSPropertyOp39
 70
     1
102
RTVSPropertyOp40
 70
     1
102
RTVSPropertyOp41
 70
     1
102
RTVSPropertyOp42
 70
     1
102
RTVSPropertyOp43
 70
     1
102
RTVSPropertyOp44
 70
     1
102
RTVSPropertyOp45
 70
     1
102
RTVSPropertyOp46
 70
     1
102
RTVSPropertyOp47
 70
     1
102
RTVSPropertyOp48
 70
     1
102
RTVSPropertyOp49
 70
     1
102
RTVSPropertyOp50
 70
     1
102
RTVSPropertyOp51
 70
     0
102
RTVSPropertyOp52
 70
     0
102
RTVSPropertyOp53
 70
     1
102
RTVSPropertyOp54
 70
     1
102
RTVSPropertyOp55
 70
     1
102
RTVSPropertyOp56
 70
     1
102
RTVSPropertyOp57
 70
     1
102
RTVSPropertyOp58
 70
     1
102
RTVSPropertyOp59
 70
     1
102
RTVSPropertyOp60
 70
     1
102
RTVSPropertyOp61
 70
     1
102
RTVSPropertyOp62
 70
     1
  0
ENDSEC
  0
EOF
