  0
SECTION
  2
HEADER
  9
$ACADVER
  1
AC1015
  9
$ACADMAINTVER
 70
    10
  9
$DWGCODEPAGE
  3
ANSI_932
  9
$INSBASE
 10
0.0
 20
0.0
 30
0.0
  9
$EXTMIN
 10
-85.25299098005458
 20
-446.0
 30
0.0
  9
$EXTMAX
 10
409.3333333333333
 20
268.9208698596132
 30
0.0
  9
$LIMMIN
 10
-459.0
 20
-527.0
  9
$LIMMAX
 10
682.0
 20
313.0
  9
$ORTHOMODE
 70
     0
  9
$REGENMODE
 70
     1
  9
$FILLMODE
 70
     1
  9
$QTEXTMODE
 70
     0
  9
$MIRRTEXT
 70
     1
  9
$LTSCALE
 40
5.0
  9
$ATTMODE
 70
     1
  9
$TEXTSIZE
 40
5.0
  9
$TRACEWID
 40
0.05
  9
$TEXTSTYLE
  7
STANDARD1
  9
$CLAYER
  8
30
  9
$CELTYPE
  6
CONTINUOUS
  9
$CECOLOR
 62
   256
  9
$CELTSCALE
 40
1.0
  9
$DISPSILH
 70
     0
  9
$DIMSCALE
 40
1.0
  9
$DIMASZ
 40
2.0
  9
$DIMEXO
 40
1.0
  9
$DIMDLI
 40
0.5
  9
$DIMRND
 40
0.0
  9
$DIMDLE
 40
0.0
  9
$DIMEXE
 40
0.5
  9
$DIMTP
 40
0.0
  9
$DIMTM
 40
0.0
  9
$DIMTXT
 40
4.0
  9
$DIMCEN
 40
0.09
  9
$DIMTSZ
 40
0.0
  9
$DIMTOL
 70
     0
  9
$DIMLIM
 70
     0
  9
$DIMTIH
 70
     0
  9
$DIMTOH
 70
     0
  9
$DIMSE1
 70
     0
  9
$DIMSE2
 70
     0
  9
$DIMTAD
 70
     3
  9
$DIMZIN
 70
    12
  9
$DIMBLK
  1
OPEN
  9
$DIMASO
 70
     1
  9
$DIMSHO
 70
     1
  9
$DIMPOST
  1

  9
$DIMAPOST
  1

  9
$DIMALT
 70
     0
  9
$DIMALTD
 70
     2
  9
$DIMALTF
 40
25.4
  9
$DIMLFAC
 40
1.0
  9
$DIMTOFL
 70
     0
  9
$DIMTVP
 40
0.0
  9
$DIMTIX
 70
     0
  9
$DIMSOXD
 70
     0
  9
$DIMSAH
 70
     0
  9
$DIMBLK1
  1

  9
$DIMBLK2
  1

  9
$DIMSTYLE
  2
STANDARD
  9
$DIMCLRD
 70
     0
  9
$DIMCLRE
 70
     0
  9
$DIMCLRT
 70
     0
  9
$DIMTFAC
 40
1.0
  9
$DIMGAP
 40
1.0
  9
$DIMJUST
 70
     0
  9
$DIMSD1
 70
     0
  9
$DIMSD2
 70
     0
  9
$DIMTOLJ
 70
     1
  9
$DIMTZIN
 70
     0
  9
$DIMALTZ
 70
     0
  9
$DIMALTTZ
 70
     0
  9
$DIMUPT
 70
     0
  9
$DIMDEC
 70
     1
  9
$DIMTDEC
 70
     1
  9
$DIMALTU
 70
     2
  9
$DIMALTTD
 70
     2
  9
$DIMTXSTY
  7
STANDARD
  9
$DIMAUNIT
 70
     0
  9
$DIMADEC
 70
     0
  9
$DIMALTRND
 40
0.0
  9
$DIMAZIN
 70
     3
  9
$DIMDSEP
 70
    46
  9
$DIMATFIT
 70
     3
  9
$DIMFRAC
 70
     0
  9
$DIMLDRBLK
  1
OPEN
  9
$DIMLUNIT
 70
     2
  9
$DIMLWD
 70
    -2
  9
$DIMLWE
 70
    -2
  9
$DIMTMOVE
 70
     0
  9
$LUNITS
 70
     2
  9
$LUPREC
 70
     4
  9
$SKETCHINC
 40
0.1
  9
$FILLETRAD
 40
0.0
  9
$AUNITS
 70
     0
  9
$AUPREC
 70
     0
  9
$MENU
  1
.
  9
$ELEVATION
 40
0.0
  9
$PELEVATION
 40
0.0
  9
$THICKNESS
 40
0.0
  9
$LIMCHECK
 70
     0
  9
$CHAMFERA
 40
0.0
  9
$CHAMFERB
 40
0.0
  9
$CHAMFERC
 40
0.0
  9
$CHAMFERD
 40
0.0
  9
$SKPOLY
 70
     0
  9
$TDCREATE
 40
2452286.555658657
  9
$TDUCREATE
 40
2452286.180658657
  9
$TDUPDATE
 40
2454907.633783448
  9
$TDUUPDATE
 40
2454907.258783449
  9
$TDINDWG
 40
1.3163148495
  9
$TDUSRTIMER
 40
1.3163143056
  9
$USRTIMER
 70
     1
  9
$ANGBASE
 50
0.0
  9
$ANGDIR
 70
     0
  9
$PDMODE
 70
     0
  9
$PDSIZE
 40
0.0
  9
$PLINEWID
 40
0.0
  9
$SPLFRAME
 70
     0
  9
$SPLINETYPE
 70
     6
  9
$SPLINESEGS
 70
     8
  9
$HANDSEED
  5
96E9
  9
$SURFTAB1
 70
     6
  9
$SURFTAB2
 70
     6
  9
$SURFTYPE
 70
     6
  9
$SURFU
 70
     6
  9
$SURFV
 70
     6
  9
$UCSBASE
  2

  9
$UCSNAME
  2

  9
$UCSORG
 10
0.0
 20
0.0
 30
0.0
  9
$UCSXDIR
 10
1.0
 20
0.0
 30
0.0
  9
$UCSYDIR
 10
0.0
 20
1.0
 30
0.0
  9
$UCSORTHOREF
  2

  9
$UCSORTHOVIEW
 70
     0
  9
$UCSORGTOP
 10
0.0
 20
0.0
 30
0.0
  9
$UCSORGBOTTOM
 10
0.0
 20
0.0
 30
0.0
  9
$UCSORGLEFT
 10
0.0
 20
0.0
 30
0.0
  9
$UCSORGRIGHT
 10
0.0
 20
0.0
 30
0.0
  9
$UCSORGFRONT
 10
0.0
 20
0.0
 30
0.0
  9
$UCSORGBACK
 10
0.0
 20
0.0
 30
0.0
  9
$PUCSBASE
  2

  9
$PUCSNAME
  2

  9
$PUCSORG
 10
0.0
 20
0.0
 30
0.0
  9
$PUCSXDIR
 10
1.0
 20
0.0
 30
0.0
  9
$PUCSYDIR
 10
0.0
 20
1.0
 30
0.0
  9
$PUCSORTHOREF
  2

  9
$PUCSORTHOVIEW
 70
     0
  9
$PUCSORGTOP
 10
0.0
 20
0.0
 30
0.0
  9
$PUCSORGBOTTOM
 10
0.0
 20
0.0
 30
0.0
  9
$PUCSORGLEFT
 10
0.0
 20
0.0
 30
0.0
  9
$PUCSORGRIGHT
 10
0.0
 20
0.0
 30
0.0
  9
$PUCSORGFRONT
 10
0.0
 20
0.0
 30
0.0
  9
$PUCSORGBACK
 10
0.0
 20
0.0
 30
0.0
  9
$USERI1
 70
     0
  9
$USERI2
 70
     0
  9
$USERI3
 70
     0
  9
$USERI4
 70
     0
  9
$USERI5
 70
     0
  9
$USERR1
 40
0.0
  9
$USERR2
 40
0.0
  9
$USERR3
 40
0.0
  9
$USERR4
 40
0.0
  9
$USERR5
 40
0.0
  9
$WORLDVIEW
 70
     1
  9
$SHADEDGE
 70
     3
  9
$SHADEDIF
 70
    70
  9
$TILEMODE
 70
     1
  9
$MAXACTVP
 70
    48
  9
$PINSBASE
 10
0.0
 20
0.0
 30
0.0
  9
$PLIMCHECK
 70
     0
  9
$PEXTMIN
 10
4.273573370203961
 20
5.205246163471485
 30
0.0
  9
$PEXTMAX
 10
194.6100952986349
 20
283.0697008572913
 30
0.0
  9
$PLIMMIN
 10
-5.873748779296875
 20
-5.873749732971191
  9
$PLIMMAX
 10
204.0995788574218
 20
291.1369009017943
  9
$UNITMODE
 70
     0
  9
$VISRETAIN
 70
     1
  9
$PLINEGEN
 70
     0
  9
$PSLTSCALE
 70
     1
  9
$TREEDEPTH
 70
  3020
  9
$CMLSTYLE
  2
STANDARD
  9
$CMLJUST
 70
     0
  9
$CMLSCALE
 40
1.0
  9
$PROXYGRAPHICS
 70
     1
  9
$MEASUREMENT
 70
     0
  9
$CELWEIGHT
370
    -1
  9
$ENDCAPS
280
     0
  9
$JOINSTYLE
280
     0
  9
$LWDISPLAY
290
     0
  9
$INSUNITS
 70
     0
  9
$HYPERLINKBASE
  1

  9
$STYLESHEET
  1
kiki.ctb
  9
$XEDIT
290
     1
  9
$CEPSNTYPE
380
     0
  9
$PSTYLEMODE
290
     1
  9
$FINGERPRINTGUID
  2

  9
$VERSIONGUID
  2
{A9A15A80-201F-4AE3-88B3-5C45D342C388}
  9
$EXTNAMES
290
     1
  9
$PSVPSCALE
 40
0.0
  9
$OLESTARTUP
290
     0
  0
ENDSEC
  0
SECTION
  2
CLASSES
  0
CLASS
  1
ACDBDICTIONARYWDFLT
  2
AcDbDictionaryWithDefault
  3
AutoCAD 2000
 90
        0
280
     0
281
     0
  0
CLASS
  1
ACDBPLACEHOLDER
  2
AcDbPlaceHolder
  3
AutoCAD 2000
 90
        0
280
     0
281
     0
  0
CLASS
  1
LAYOUT
  2
AcDbLayout
  3
AutoCAD 2000
 90
        0
280
     0
281
     0
  0
CLASS
  1
LONG_TRANSACTION
  2
AcDbLongTransaction
  3
AutoCAD 2000
 90
    32768
280
     0
281
     0
  0
CLASS
  1
LWPOLYLINE
  2
AcDbPolyline
  3
AutoCAD 2000
 90
    32768
280
     0
281
     1
  0
CLASS
  1
HATCH
  2
AcDbHatch
  3
AutoCAD 2000
 90
    32768
280
     0
281
     1
  0
CLASS
  1
XRECORD
  2
AcDbXrecord
  3
AutoCAD 2000
 90
    32768
280
     0
281
     0
  0
CLASS
  1
LONG_TRANSACTION
  2
AcDbLongTransaction
  3
AutoCAD 2000
 90
    32768
280
     0
281
     0
  0
CLASS
  1
LWPOLYLINE
  2
AcDbPolyline
  3
AutoCAD 2000
 90
    32768
280
     0
281
     1
  0
CLASS
  1
HATCH
  2
AcDbHatch
  3
AutoCAD 2000
 90
    32768
280
     0
281
     1
  0
CLASS
  1
XRECORD
  2
AcDbXrecord
  3
AutoCAD 2000
 90
    32768
280
     0
281
     0
  0
CLASS
  1
LONG_TRANSACTION
  2
AcDbLongTransaction
  3
AutoCAD 2000
 90
    32768
280
     0
281
     0
  0
CLASS
  1
LWPOLYLINE
  2
AcDbPolyline
  3
AutoCAD 2000
 90
    32768
280
     0
281
     1
  0
CLASS
  1
HATCH
  2
AcDbHatch
  3
AutoCAD 2000
 90
    32768
280
     0
281
     1
  0
CLASS
  1
XRECORD
  2
AcDbXrecord
  3
AutoCAD 2000
 90
    32768
280
     0
281
     0
  0
CLASS
  1
LONG_TRANSACTION
  2
AcDbLongTransaction
  3
AutoCAD 2000
 90
    32768
280
     0
281
     0
  0
CLASS
  1
LWPOLYLINE
  2
AcDbPolyline
  3
AutoCAD 2000
 90
    32768
280
     0
281
     1
  0
CLASS
  1
HATCH
  2
AcDbHatch
  3
AutoCAD 2000
 90
    32768
280
     0
281
     1
  0
CLASS
  1
XRECORD
  2
AcDbXrecord
  3
AutoCAD 2000
 90
    32768
280
     0
281
     0
  0
CLASS
  1
LONG_TRANSACTION
  2
AcDbLongTransaction
  3
AutoCAD 2000
 90
    32768
280
     0
281
     0
  0
CLASS
  1
LWPOLYLINE
  2
AcDbPolyline
  3
AutoCAD 2000
 90
    32768
280
     0
281
     1
  0
CLASS
  1
HATCH
  2
AcDbHatch
  3
AutoCAD 2000
 90
    32768
280
     0
281
     1
  0
CLASS
  1
XRECORD
  2
AcDbXrecord
  3
AutoCAD 2000
 90
    32768
280
     0
281
     0
  0
CLASS
  1
LONG_TRANSACTION
  2
AcDbLongTransaction
  3
AutoCAD 2000
 90
    32768
280
     0
281
     0
  0
CLASS
  1
LWPOLYLINE
  2
AcDbPolyline
  3
AutoCAD 2000
 90
    32768
280
     0
281
     1
  0
CLASS
  1
HATCH
  2
AcDbHatch
  3
AutoCAD 2000
 90
    32768
280
     0
281
     1
  0
CLASS
  1
XRECORD
  2
AcDbXrecord
  3
AutoCAD 2000
 90
    32768
280
     0
281
     0
  0
CLASS
  1
LONG_TRANSACTION
  2
AcDbLongTransaction
  3
AutoCAD 2000
 90
    32768
280
     0
281
     0
  0
CLASS
  1
LWPOLYLINE
  2
AcDbPolyline
  3
AutoCAD 2000
 90
    32768
280
     0
281
     1
  0
CLASS
  1
HATCH
  2
AcDbHatch
  3
AutoCAD 2000
 90
    32768
280
     0
281
     1
  0
CLASS
  1
XRECORD
  2
AcDbXrecord
  3
AutoCAD 2000
 90
    32768
280
     0
281
     0
  0
CLASS
  1
LONG_TRANSACTION
  2
AcDbLongTransaction
  3
AutoCAD 2000
 90
    32768
280
     0
281
     0
  0
CLASS
  1
LWPOLYLINE
  2
AcDbPolyline
  3
AutoCAD 2000
 90
    32768
280
     0
281
     1
  0
CLASS
  1
HATCH
  2
AcDbHatch
  3
AutoCAD 2000
 90
    32768
280
     0
281
     1
  0
CLASS
  1
XRECORD
  2
AcDbXrecord
  3
AutoCAD 2000
 90
    32768
280
     0
281
     0
  0
CLASS
  1
LONG_TRANSACTION
  2
AcDbLongTransaction
  3
AutoCAD 2000
 90
    32768
280
     0
281
     0
  0
CLASS
  1
LWPOLYLINE
  2
AcDbPolyline
  3
AutoCAD 2000
 90
    32768
280
     0
281
     1
  0
CLASS
  1
HATCH
  2
AcDbHatch
  3
AutoCAD 2000
 90
    32768
280
     0
281
     1
  0
CLASS
  1
XRECORD
  2
AcDbXrecord
  3
AutoCAD 2000
 90
    32768
280
     0
281
     0
  0
CLASS
  1
LONG_TRANSACTION
  2
AcDbLongTransaction
  3
AutoCAD 2000
 90
    32768
280
     0
281
     0
  0
CLASS
  1
LWPOLYLINE
  2
AcDbPolyline
  3
AutoCAD 2000
 90
    32768
280
     0
281
     1
  0
CLASS
  1
HATCH
  2
AcDbHatch
  3
AutoCAD 2000
 90
    32768
280
     0
281
     1
  0
CLASS
  1
XRECORD
  2
AcDbXrecord
  3
AutoCAD 2000
 90
    32768
280
     0
281
     0
  0
CLASS
  1
LONG_TRANSACTION
  2
AcDbLongTransaction
  3
AutoCAD 2000
 90
    32768
280
     0
281
     0
  0
CLASS
  1
LWPOLYLINE
  2
AcDbPolyline
  3
AutoCAD 2000
 90
    32768
280
     0
281
     1
  0
CLASS
  1
HATCH
  2
AcDbHatch
  3
AutoCAD 2000
 90
    32768
280
     0
281
     1
  0
CLASS
  1
XRECORD
  2
AcDbXrecord
  3
AutoCAD 2000
 90
    32768
280
     0
281
     0
  0
CLASS
  1
LONG_TRANSACTION
  2
AcDbLongTransaction
  3
AutoCAD 2000
 90
    32768
280
     0
281
     0
  0
CLASS
  1
LWPOLYLINE
  2
AcDbPolyline
  3
AutoCAD 2000
 90
    32768
280
     0
281
     1
  0
CLASS
  1
HATCH
  2
AcDbHatch
  3
AutoCAD 2000
 90
    32768
280
     0
281
     1
  0
CLASS
  1
XRECORD
  2
AcDbXrecord
  3
AutoCAD 2000
 90
    32768
280
     0
281
     0
  0
CLASS
  1
LONG_TRANSACTION
  2
AcDbLongTransaction
  3
AutoCAD 2000
 90
    32768
280
     0
281
     0
  0
CLASS
  1
LWPOLYLINE
  2
AcDbPolyline
  3
AutoCAD 2000
 90
    32768
280
     0
281
     1
  0
CLASS
  1
HATCH
  2
AcDbHatch
  3
AutoCAD 2000
 90
    32768
280
     0
281
     1
  0
CLASS
  1
XRECORD
  2
AcDbXrecord
  3
AutoCAD 2000
 90
    32768
280
     0
281
     0
  0
CLASS
  1
LONG_TRANSACTION
  2
AcDbLongTransaction
  3
AutoCAD 2000
 90
    32768
280
     0
281
     0
  0
CLASS
  1
LWPOLYLINE
  2
AcDbPolyline
  3
AutoCAD 2000
 90
    32768
280
     0
281
     1
  0
CLASS
  1
HATCH
  2
AcDbHatch
  3
AutoCAD 2000
 90
    32768
280
     0
281
     1
  0
CLASS
  1
XRECORD
  2
AcDbXrecord
  3
AutoCAD 2000
 90
    32768
280
     0
281
     0
  0
CLASS
  1
LONG_TRANSACTION
  2
AcDbLongTransaction
  3
AutoCAD 2000
 90
    32768
280
     0
281
     0
  0
CLASS
  1
LWPOLYLINE
  2
AcDbPolyline
  3
AutoCAD 2000
 90
    32768
280
     0
281
     1
  0
CLASS
  1
HATCH
  2
AcDbHatch
  3
AutoCAD 2000
 90
    32768
280
     0
281
     1
  0
CLASS
  1
XRECORD
  2
AcDbXrecord
  3
AutoCAD 2000
 90
    32768
280
     0
281
     0
  0
CLASS
  1
LONG_TRANSACTION
  2
AcDbLongTransaction
  3
AutoCAD 2000
 90
    32768
280
     0
281
     0
  0
CLASS
  1
LWPOLYLINE
  2
AcDbPolyline
  3
AutoCAD 2000
 90
    32768
280
     0
281
     1
  0
CLASS
  1
HATCH
  2
AcDbHatch
  3
AutoCAD 2000
 90
    32768
280
     0
281
     1
  0
CLASS
  1
XRECORD
  2
AcDbXrecord
  3
AutoCAD 2000
 90
    32768
280
     0
281
     0
  0
CLASS
  1
LONG_TRANSACTION
  2
AcDbLongTransaction
  3
AutoCAD 2000
 90
    32768
280
     0
281
     0
  0
CLASS
  1
LWPOLYLINE
  2
AcDbPolyline
  3
AutoCAD 2000
 90
    32768
280
     0
281
     1
  0
CLASS
  1
HATCH
  2
AcDbHatch
  3
AutoCAD 2000
 90
    32768
280
     0
281
     1
  0
CLASS
  1
XRECORD
  2
AcDbXrecord
  3
AutoCAD 2000
 90
    32768
280
     0
281
     0
  0
CLASS
  1
LONG_TRANSACTION
  2
AcDbLongTransaction
  3
AutoCAD 2000
 90
    32768
280
     0
281
     0
  0
CLASS
  1
LWPOLYLINE
  2
AcDbPolyline
  3
AutoCAD 2000
 90
    32768
280
     0
281
     1
  0
CLASS
  1
HATCH
  2
AcDbHatch
  3
AutoCAD 2000
 90
    32768
280
     0
281
     1
  0
CLASS
  1
XRECORD
  2
AcDbXrecord
  3
AutoCAD 2000
 90
    32768
280
     0
281
     0
  0
CLASS
  1
LONG_TRANSACTION
  2
AcDbLongTransaction
  3
AutoCAD 2000
 90
    32768
280
     0
281
     0
  0
CLASS
  1
LWPOLYLINE
  2
AcDbPolyline
  3
AutoCAD 2000
 90
    32768
280
     0
281
     1
  0
CLASS
  1
HATCH
  2
AcDbHatch
  3
AutoCAD 2000
 90
    32768
280
     0
281
     1
  0
CLASS
  1
XRECORD
  2
AcDbXrecord
  3
AutoCAD 2000
 90
    32768
280
     0
281
     0
  0
CLASS
  1
LONG_TRANSACTION
  2
AcDbLongTransaction
  3
AutoCAD 2000
 90
    32768
280
     0
281
     0
  0
CLASS
  1
LWPOLYLINE
  2
AcDbPolyline
  3
AutoCAD 2000
 90
    32768
280
     0
281
     1
  0
CLASS
  1
HATCH
  2
AcDbHatch
  3
AutoCAD 2000
 90
    32768
280
     0
281
     1
  0
CLASS
  1
XRECORD
  2
AcDbXrecord
  3
AutoCAD 2000
 90
    32768
280
     0
281
     0
  0
CLASS
  1
LONG_TRANSACTION
  2
AcDbLongTransaction
  3
AutoCAD 2000
 90
    32768
280
     0
281
     0
  0
CLASS
  1
LWPOLYLINE
  2
AcDbPolyline
  3
AutoCAD 2000
 90
    32768
280
     0
281
     1
  0
CLASS
  1
HATCH
  2
AcDbHatch
  3
AutoCAD 2000
 90
    32768
280
     0
281
     1
  0
CLASS
  1
XRECORD
  2
AcDbXrecord
  3
AutoCAD 2000
 90
    32768
280
     0
281
     0
  0
CLASS
  1
LONG_TRANSACTION
  2
AcDbLongTransaction
  3
AutoCAD 2000
 90
    32768
280
     0
281
     0
  0
CLASS
  1
LWPOLYLINE
  2
AcDbPolyline
  3
AutoCAD 2000
 90
    32768
280
     0
281
     1
  0
CLASS
  1
HATCH
  2
AcDbHatch
  3
AutoCAD 2000
 90
    32768
280
     0
281
     1
  0
CLASS
  1
XRECORD
  2
AcDbXrecord
  3
AutoCAD 2000
 90
    32768
280
     0
281
     0
  0
CLASS
  1
LONG_TRANSACTION
  2
AcDbLongTransaction
  3
AutoCAD 2000
 90
    32768
280
     0
281
     0
  0
CLASS
  1
LWPOLYLINE
  2
AcDbPolyline
  3
AutoCAD 2000
 90
    32768
280
     0
281
     1
  0
CLASS
  1
HATCH
  2
AcDbHatch
  3
AutoCAD 2000
 90
    32768
280
     0
281
     1
  0
CLASS
  1
XRECORD
  2
AcDbXrecord
  3
AutoCAD 2000
 90
    32768
280
     0
281
     0
  0
CLASS
  1
LONG_TRANSACTION
  2
AcDbLongTransaction
  3
AutoCAD 2000
 90
    32768
280
     0
281
     0
  0
CLASS
  1
LWPOLYLINE
  2
AcDbPolyline
  3
AutoCAD 2000
 90
    32768
280
     0
281
     1
  0
CLASS
  1
HATCH
  2
AcDbHatch
  3
AutoCAD 2000
 90
    32768
280
     0
281
     1
  0
CLASS
  1
XRECORD
  2
AcDbXrecord
  3
AutoCAD 2000
 90
    32768
280
     0
281
     0
  0
CLASS
  1
LONG_TRANSACTION
  2
AcDbLongTransaction
  3
AutoCAD 2000
 90
    32768
280
     0
281
     0
  0
CLASS
  1
LWPOLYLINE
  2
AcDbPolyline
  3
AutoCAD 2000
 90
    32768
280
     0
281
     1
  0
CLASS
  1
HATCH
  2
AcDbHatch
  3
AutoCAD 2000
 90
    32768
280
     0
281
     1
  0
CLASS
  1
XRECORD
  2
AcDbXrecord
  3
AutoCAD 2000
 90
    32768
280
     0
281
     0
  0
CLASS
  1
LONG_TRANSACTION
  2
AcDbLongTransaction
  3
AutoCAD 2000
 90
    32768
280
     0
281
     0
  0
CLASS
  1
LWPOLYLINE
  2
AcDbPolyline
  3
AutoCAD 2000
 90
    32768
280
     0
281
     1
  0
CLASS
  1
HATCH
  2
AcDbHatch
  3
AutoCAD 2000
 90
    32768
280
     0
281
     1
  0
CLASS
  1
XRECORD
  2
AcDbXrecord
  3
AutoCAD 2000
 90
    32768
280
     0
281
     0
  0
CLASS
  1
LONG_TRANSACTION
  2
AcDbLongTransaction
  3
AutoCAD 2000
 90
    32768
280
     0
281
     0
  0
CLASS
  1
LWPOLYLINE
  2
AcDbPolyline
  3
AutoCAD 2000
 90
    32768
280
     0
281
     1
  0
CLASS
  1
HATCH
  2
AcDbHatch
  3
AutoCAD 2000
 90
    32768
280
     0
281
     1
  0
CLASS
  1
XRECORD
  2
AcDbXrecord
  3
AutoCAD 2000
 90
    32768
280
     0
281
     0
  0
CLASS
  1
LONG_TRANSACTION
  2
AcDbLongTransaction
  3
AutoCAD 2000
 90
    32768
280
     0
281
     0
  0
CLASS
  1
LWPOLYLINE
  2
AcDbPolyline
  3
AutoCAD 2000
 90
    32768
280
     0
281
     1
  0
CLASS
  1
HATCH
  2
AcDbHatch
  3
AutoCAD 2000
 90
    32768
280
     0
281
     1
  0
CLASS
  1
XRECORD
  2
AcDbXrecord
  3
AutoCAD 2000
 90
    32768
280
     0
281
     0
  0
CLASS
  1
LONG_TRANSACTION
  2
AcDbLongTransaction
  3
AutoCAD 2000
 90
    32768
280
     0
281
     0
  0
CLASS
  1
LWPOLYLINE
  2
AcDbPolyline
  3
AutoCAD 2000
 90
    32768
280
     0
281
     1
  0
CLASS
  1
HATCH
  2
AcDbHatch
  3
AutoCAD 2000
 90
    32768
280
     0
281
     1
  0
CLASS
  1
XRECORD
  2
AcDbXrecord
  3
AutoCAD 2000
 90
    32768
280
     0
281
     0
  0
CLASS
  1
LONG_TRANSACTION
  2
AcDbLongTransaction
  3
AutoCAD 2000
 90
    32768
280
     0
281
     0
  0
CLASS
  1
LWPOLYLINE
  2
AcDbPolyline
  3
AutoCAD 2000
 90
    32768
280
     0
281
     1
  0
CLASS
  1
HATCH
  2
AcDbHatch
  3
AutoCAD 2000
 90
    32768
280
     0
281
     1
  0
CLASS
  1
XRECORD
  2
AcDbXrecord
  3
AutoCAD 2000
 90
    32768
280
     0
281
     0
  0
CLASS
  1
LONG_TRANSACTION
  2
AcDbLongTransaction
  3
AutoCAD 2000
 90
    32768
280
     0
281
     0
  0
CLASS
  1
LWPOLYLINE
  2
AcDbPolyline
  3
AutoCAD 2000
 90
    32768
280
     0
281
     1
  0
CLASS
  1
HATCH
  2
AcDbHatch
  3
AutoCAD 2000
 90
    32768
280
     0
281
     1
  0
CLASS
  1
XRECORD
  2
AcDbXrecord
  3
AutoCAD 2000
 90
    32768
280
     0
281
     0
  0
CLASS
  1
LONG_TRANSACTION
  2
AcDbLongTransaction
  3
AutoCAD 2000
 90
    32768
280
     0
281
     0
  0
CLASS
  1
LWPOLYLINE
  2
AcDbPolyline
  3
AutoCAD 2000
 90
    32768
280
     0
281
     1
  0
CLASS
  1
HATCH
  2
AcDbHatch
  3
AutoCAD 2000
 90
    32768
280
     0
281
     1
  0
CLASS
  1
XRECORD
  2
AcDbXrecord
  3
AutoCAD 2000
 90
    32768
280
     0
281
     0
  0
CLASS
  1
LONG_TRANSACTION
  2
AcDbLongTransaction
  3
AutoCAD 2000
 90
    32768
280
     0
281
     0
  0
CLASS
  1
LWPOLYLINE
  2
AcDbPolyline
  3
AutoCAD 2000
 90
    32768
280
     0
281
     1
  0
CLASS
  1
HATCH
  2
AcDbHatch
  3
AutoCAD 2000
 90
    32768
280
     0
281
     1
  0
CLASS
  1
XRECORD
  2
AcDbXrecord
  3
AutoCAD 2000
 90
    32768
280
     0
281
     0
  0
CLASS
  1
DICTIONARYVAR
  2
AcDbDictionaryVar
  3
AutoCAD 2000
 90
        0
280
     0
281
     0
  0
CLASS
  1
LONG_TRANSACTION
  2
AcDbLongTransaction
  3
AutoCAD 2000
 90
    32768
280
     0
281
     0
  0
CLASS
  1
LWPOLYLINE
  2
AcDbPolyline
  3
AutoCAD 2000
 90
    32768
280
     0
281
     1
  0
CLASS
  1
HATCH
  2
AcDbHatch
  3
AutoCAD 2000
 90
    32768
280
     0
281
     1
  0
CLASS
  1
XRECORD
  2
AcDbXrecord
  3
AutoCAD 2000
 90
    32768
280
     0
281
     0
  0
CLASS
  1
LONG_TRANSACTION
  2
AcDbLongTransaction
  3
AutoCAD 2000
 90
    32768
280
     0
281
     0
  0
CLASS
  1
LWPOLYLINE
  2
AcDbPolyline
  3
AutoCAD 2000
 90
    32768
280
     0
281
     1
  0
CLASS
  1
HATCH
  2
AcDbHatch
  3
AutoCAD 2000
 90
    32768
280
     0
281
     1
  0
CLASS
  1
XRECORD
  2
AcDbXrecord
  3
AutoCAD 2000
 90
    32768
280
     0
281
     0
  0
CLASS
  1
LONG_TRANSACTION
  2
AcDbLongTransaction
  3
AutoCAD 2000
 90
    32768
280
     0
281
     0
  0
CLASS
  1
LWPOLYLINE
  2
AcDbPolyline
  3
AutoCAD 2000
 90
    32768
280
     0
281
     1
  0
CLASS
  1
HATCH
  2
AcDbHatch
  3
AutoCAD 2000
 90
    32768
280
     0
281
     1
  0
CLASS
  1
XRECORD
  2
AcDbXrecord
  3
AutoCAD 2000
 90
    32768
280
     0
281
     0
  0
ENDSEC
  0
SECTION
  2
TABLES
  0
TABLE
  2
VPORT
  5
8
330
0
100
AcDbSymbolTable
 70
     3
  0
VPORT
  5
96E8
330
8
100
AcDbSymbolTableRecord
100
AcDbViewportTableRecord
  2
*Active
 70
     0
 10
0.0
 20
0.0
 11
1.0
 21
1.0
 12
346.1938393972595
 22
164.1078747540514
 13
0.0
 23
0.0
 14
1.0
 24
1.0
 15
10.0
 25
10.0
 16
0.0
 26
0.0
 36
1.0
 17
0.0
 27
0.0
 37
0.0
 40
257.38304678439
 41
1.700716845878136
 42
50.0
 43
0.0
 44
0.0
 50
0.0
 51
0.0
 71
     0
 72
   100
 73
     1
 74
     1
 75
     1
 76
     0
 77
     0
 78
     0
281
     0
 65
     1
110
0.0
120
0.0
130
0.0
111
1.0
121
0.0
131
0.0
112
0.0
122
1.0
132
0.0
 79
     0
146
0.0
  0
ENDTAB
  0
TABLE
  2
LTYPE
  5
5
330
0
100
AcDbSymbolTable
 70
     4
  0
LTYPE
  5
13
330
5
100
AcDbSymbolTableRecord
100
AcDbLinetypeTableRecord
  2
BYBLOCK
 70
     0
  3

 72
    65
 73
     0
 40
0.0
  0
LTYPE
  5
14
330
5
100
AcDbSymbolTableRecord
100
AcDbLinetypeTableRecord
  2
BYLAYER
 70
     0
  3

 72
    65
 73
     0
 40
0.0
  0
LTYPE
  5
15
330
5
100
AcDbSymbolTableRecord
100
AcDbLinetypeTableRecord
  2
CONTINUOUS
 70
     0
  3
Solid line
 72
    65
 73
     0
 40
0.0
  0
LTYPE
  5
22
330
5
100
AcDbSymbolTableRecord
100
AcDbLinetypeTableRecord
  2
CONTINOUS
 70
     0
  3
Solid line
 72
    65
 73
     0
 40
0.0
  0
LTYPE
  5
24
330
5
100
AcDbSymbolTableRecord
100
AcDbLinetypeTableRecord
  2
DASHDOT
 70
     0
  3
__ . __ . __ . __ . __ . __ . __ . __ . __ . __
 72
    65
 73
     4
 40
1.0
 49
0.5
 74
     0
 49
-0.25
 74
     0
 49
0.0
 74
     0
 49
-0.25
 74
     0
  0
LTYPE
  5
392A
330
5
100
AcDbSymbolTableRecord
100
AcDbLinetypeTableRecord
  2
DIVIDE
 70
     0
  3
Divide ____ . . ____ . . ____ . . ____ . . ____
 72
    65
 73
     6
 40
1.25
 49
0.5
 74
     0
 49
-0.25
 74
     0
 49
0.0
 74
     0
 49
-0.25
 74
     0
 49
0.0
 74
     0
 49
-0.25
 74
     0
  0
ENDTAB
  0
TABLE
  2
LAYER
  5
2
330
0
100
AcDbSymbolTable
 70
    13
  0
LAYER
  5
10
330
2
100
AcDbSymbolTableRecord
100
AcDbLayerTableRecord
  2
0
 70
     0
 62
     7
  6
CONTINOUS
370
    -3
390
F
  0
LAYER
  5
2F
330
2
100
AcDbSymbolTableRecord
100
AcDbLayerTableRecord
  2
10
 70
     0
 62
     4
  6
CONTINOUS
370
    -3
390
F
  0
LAYER
  5
31
330
2
100
AcDbSymbolTableRecord
100
AcDbLayerTableRecord
  2
12
 70
     0
 62
     3
  6
CONTINOUS
370
    -3
390
F
  0
LAYER
  5
35
330
2
100
AcDbSymbolTableRecord
100
AcDbLayerTableRecord
  2
16
 70
     4
 62
     6
  6
DASHDOT
370
    -3
390
F
  0
LAYER
  5
36
330
2
100
AcDbSymbolTableRecord
100
AcDbLayerTableRecord
  2
17
 70
     0
 62
     2
  6
DASHDOT
370
    -3
390
F
  0
LAYER
  5
38
330
2
100
AcDbSymbolTableRecord
100
AcDbLayerTableRecord
  2
19
 70
     0
 62
     7
  6
CONTINOUS
370
    -3
390
F
  0
LAYER
  5
3C
330
2
100
AcDbSymbolTableRecord
100
AcDbLayerTableRecord
  2
11
 70
     0
 62
     1
  6
CONTINOUS
370
    -3
390
F
  0
LAYER
  5
3D
330
2
100
AcDbSymbolTableRecord
100
AcDbLayerTableRecord
  2
24
 70
     0
 62
     2
  6
CONTINOUS
370
    -3
390
F
  0
LAYER
  5
3A2
330
2
100
AcDbSymbolTableRecord
100
AcDbLayerTableRecord
  2
30
 70
     0
 62
     9
  6
CONTINUOUS
370
    -3
390
F
  0
LAYER
  5
3A4
330
2
100
AcDbSymbolTableRecord
100
AcDbLayerTableRecord
  2
DEFPOINTS
 70
     0
 62
     7
  6
CONTINUOUS
290
     0
370
    -3
390
F
  0
LAYER
  5
4C43
330
2
100
AcDbSymbolTableRecord
100
AcDbLayerTableRecord
  2
18
 70
     0
 62
     5
  6
DIVIDE
370
    -3
390
F
  0
LAYER
  5
5E73
330
2
100
AcDbSymbolTableRecord
100
AcDbLayerTableRecord
  2
1
 70
     0
 62
     7
  6
CONTINUOUS
370
    -3
390
F
  0
LAYER
  5
5E74
330
2
100
AcDbSymbolTableRecord
100
AcDbLayerTableRecord
  2
TOP
 70
     0
 62
     7
  6
CONTINUOUS
370
    -3
390
F
  0
ENDTAB
  0
TABLE
  2
STYLE
  5
3
330
0
100
AcDbSymbolTable
 70
     3
  0
STYLE
  5
11
330
3
100
AcDbSymbolTableRecord
100
AcDbTextStyleTableRecord
  2
STANDARD
 70
     0
 40
0.0
 41
1.0
 50
0.0
 71
     0
 42
2.0
  3
txt.shx
  4
bigfont.shx
  0
STYLE
  5
42
330
3
100
AcDbSymbolTableRecord
100
AcDbTextStyleTableRecord
  2
STANDARD1
 70
     0
 40
0.0
 41
1.0
 50
0.0
 71
     0
 42
5.0
  3
MONOTXT
  4
BIGFONT
  0
STYLE
  5
5E75
330
3
100
AcDbSymbolTableRecord
100
AcDbTextStyleTableRecord
  2
UGMTXT
 70
     0
 40
0.0
 41
1.0
 50
0.0
 71
     0
 42
0.2
  3
ugmtxt
  4
bigfont
  0
ENDTAB
  0
TABLE
  2
VIEW
  5
6
330
0
100
AcDbSymbolTable
 70
     3
  0
VIEW
  5
230C
330
6
100
AcDbSymbolTableRecord
100
AcDbViewTableRecord
  2
OLE1
 70
     0
 40
148.9124878027714
 10
429.4976280407222
 20
2.560626997828478
 41
103.1458057716444
 11
0.0
 21
0.0
 31
1.0
 12
0.0
 22
0.0
 32
0.0
 42
50.0
 43
0.0
 44
0.0
 50
0.0
 71
     0
281
     0
 72
     0
  0
VIEW
  5
230E
330
6
100
AcDbSymbolTableRecord
100
AcDbViewTableRecord
  2
OLE2
 70
     0
 40
170.7786920545775
 10
322.664969958371
 20
-5.978304054290276
 41
102.4672152327465
 11
0.0
 21
0.0
 31
1.0
 12
0.0
 22
0.0
 32
0.0
 42
50.0
 43
0.0
 44
0.0
 50
0.0
 71
     0
281
     0
 72
     0
  0
VIEW
  5
23AA
330
6
100
AcDbSymbolTableRecord
100
AcDbViewTableRecord
  2
OLE3
 70
     0
 40
591.7897393182231
 10
84.79698158148218
 20
-46.09336010803995
 41
388.7920961799953
 11
0.0
 21
0.0
 31
1.0
 12
0.0
 22
0.0
 32
0.0
 42
50.0
 43
0.0
 44
0.0
 50
0.0
 71
     0
281
     0
 72
     0
  0
ENDTAB
  0
TABLE
  2
UCS
  5
7
330
0
100
AcDbSymbolTable
 70
     0
  0
ENDTAB
  0
TABLE
  2
APPID
  5
9
330
0
100
AcDbSymbolTable
 70
     2
  0
APPID
  5
12
330
9
100
AcDbSymbolTableRecord
100
AcDbRegAppTableRecord
  2
ACAD
 70
     0
  0
APPID
  5
ECD
330
9
100
AcDbSymbolTableRecord
100
AcDbRegAppTableRecord
  2
CONTENTBLOCKICON
 70
     0
  0
ENDTAB
  0
TABLE
  2
DIMSTYLE
  5
A
330
0
100
AcDbSymbolTable
 70
     1
100
AcDbDimStyleTable
 71
     0
  0
DIMSTYLE
105
175
102
{ACAD_REACTORS
330
75CC
330
75DC
330
7516
330
7515
330
7E94
330
7E93
330
7E92
330
7E91
330
7E90
330
7E9D
330
909C
330
90A9
330
9403
330
9408
330
9409
330
9437
330
944C
330
9470
330
9471
330
9476
330
9477
330
94D4
330
95F9
102
}
330
A
100
AcDbSymbolTableRecord
100
AcDbDimStyleTableRecord
  2
STANDARD
 70
     0
 41
2.0
 42
1.0
 43
0.5
 44
0.5
 73
     0
 74
     0
 77
     3
 78
    12
140
4.0
147
1.0
271
     1
272
     1
340
11
341
3B2
342
3B2
  0
ENDTAB
  0
TABLE
  2
BLOCK_RECORD
  5
1
330
0
100
AcDbSymbolTable
 70
    30
  0
BLOCK_RECORD
  5
1E
102
{ACAD_XDICTIONARY
360
178
102
}
330
1
100
AcDbSymbolTableRecord
100
AcDbBlockTableRecord
  2
*MODEL_SPACE
340
96E4
  0
BLOCK_RECORD
  5
1A
102
{ACAD_XDICTIONARY
360
17A
102
}
330
1
100
AcDbSymbolTableRecord
100
AcDbBlockTableRecord
  2
*PAPER_SPACE
340
96E5
  0
BLOCK_RECORD
  5
3B2
330
1
100
AcDbSymbolTableRecord
100
AcDbBlockTableRecord
  2
_OPEN
340
0
102
{BLKREFS
331
9627
331
9628
331
9639
331
963A
331
85FB
331
85FC
331
96D7
331
96D8
331
90EF
331
90F0
331
90E6
331
90E7
331
9053
331
9054
331
9077
331
9078
331
90DD
331
90DE
331
90D4
331
90D5
331
90CB
331
90CC
331
90C2
331
90C3
331
95F3
331
95F4
331
9599
331
959A
331
95A2
331
95A3
331
95AB
331
95AC
331
95B4
331
95B5
331
95BD
331
95BE
331
95C6
331
95C7
331
95CF
331
95D0
331
9612
331
9613
331
95E1
331
95E2
331
9609
331
960A
102
}
  0
BLOCK_RECORD
  5
7440
330
1
100
AcDbSymbolTableRecord
100
AcDbBlockTableRecord
  2
*U1
340
0
102
{BLKREFS
331
754D
102
}
  0
BLOCK_RECORD
  5
7444
330
1
100
AcDbSymbolTableRecord
100
AcDbBlockTableRecord
  2
*U2
340
0
102
{BLKREFS
331
7510
102
}
  0
BLOCK_RECORD
  5
744D
330
1
100
AcDbSymbolTableRecord
100
AcDbBlockTableRecord
  2
*U3
340
0
102
{BLKREFS
331
74EE
102
}
  0
BLOCK_RECORD
  5
7456
330
1
100
AcDbSymbolTableRecord
100
AcDbBlockTableRecord
  2
*U4
340
0
102
{BLKREFS
331
74ED
102
}
  0
BLOCK_RECORD
  5
745D
330
1
100
AcDbSymbolTableRecord
100
AcDbBlockTableRecord
  2
*U5
340
0
102
{BLKREFS
331
74EF
102
}
  0
BLOCK_RECORD
  5
754E
330
1
100
AcDbSymbolTableRecord
100
AcDbBlockTableRecord
  2
*D6
340
0
  0
BLOCK_RECORD
  5
755B
330
1
100
AcDbSymbolTableRecord
100
AcDbBlockTableRecord
  2
*D7
340
0
  0
BLOCK_RECORD
  5
75DF
330
1
100
AcDbSymbolTableRecord
100
AcDbBlockTableRecord
  2
*D8
340
0
  0
BLOCK_RECORD
  5
75EB
330
1
100
AcDbSymbolTableRecord
100
AcDbBlockTableRecord
  2
*D9
340
0
  0
BLOCK_RECORD
  5
8062
330
1
100
AcDbSymbolTableRecord
100
AcDbBlockTableRecord
  2
*D10
340
0
  0
BLOCK_RECORD
  5
806E
330
1
100
AcDbSymbolTableRecord
100
AcDbBlockTableRecord
  2
*D11
340
0
  0
BLOCK_RECORD
  5
807A
330
1
100
AcDbSymbolTableRecord
100
AcDbBlockTableRecord
  2
*D12
340
0
  0
BLOCK_RECORD
  5
8087
330
1
100
AcDbSymbolTableRecord
100
AcDbBlockTableRecord
  2
*D13
340
0
  0
BLOCK_RECORD
  5
8093
330
1
100
AcDbSymbolTableRecord
100
AcDbBlockTableRecord
  2
*D14
340
0
  0
BLOCK_RECORD
  5
80AB
330
1
100
AcDbSymbolTableRecord
100
AcDbBlockTableRecord
  2
*D15
340
0
  0
BLOCK_RECORD
  5
909D
330
1
100
AcDbSymbolTableRecord
100
AcDbBlockTableRecord
  2
*D16
340
0
  0
BLOCK_RECORD
  5
90AA
330
1
100
AcDbSymbolTableRecord
100
AcDbBlockTableRecord
  2
*D17
340
0
  0
BLOCK_RECORD
  5
92B6
330
1
100
AcDbSymbolTableRecord
100
AcDbBlockTableRecord
  2
*U18
340
0
102
{BLKREFS
331
940A
102
}
  0
BLOCK_RECORD
  5
9515
330
1
100
AcDbSymbolTableRecord
100
AcDbBlockTableRecord
  2
*D19
340
0
  0
BLOCK_RECORD
  5
9521
330
1
100
AcDbSymbolTableRecord
100
AcDbBlockTableRecord
  2
*D20
340
0
  0
BLOCK_RECORD
  5
952D
330
1
100
AcDbSymbolTableRecord
100
AcDbBlockTableRecord
  2
*D21
340
0
  0
BLOCK_RECORD
  5
9539
330
1
100
AcDbSymbolTableRecord
100
AcDbBlockTableRecord
  2
*D22
340
0
  0
BLOCK_RECORD
  5
9545
330
1
100
AcDbSymbolTableRecord
100
AcDbBlockTableRecord
  2
*D23
340
0
  0
BLOCK_RECORD
  5
9551
330
1
100
AcDbSymbolTableRecord
100
AcDbBlockTableRecord
  2
*D24
340
0
  0
BLOCK_RECORD
  5
955D
330
1
100
AcDbSymbolTableRecord
100
AcDbBlockTableRecord
  2
*D25
340
0
  0
BLOCK_RECORD
  5
9569
330
1
100
AcDbSymbolTableRecord
100
AcDbBlockTableRecord
  2
*D26
340
0
  0
BLOCK_RECORD
  5
9575
330
1
100
AcDbSymbolTableRecord
100
AcDbBlockTableRecord
  2
*D27
340
0
  0
BLOCK_RECORD
  5
9581
330
1
100
AcDbSymbolTableRecord
100
AcDbBlockTableRecord
  2
*D28
340
0
  0
BLOCK_RECORD
  5
95FA
330
1
100
AcDbSymbolTableRecord
100
AcDbBlockTableRecord
  2
*D29
340
0
  0
ENDTAB
  0
ENDSEC
  0
SECTION
  2
BLOCKS
  0
BLOCK
  5
1F
330
1E
100
AcDbEntity
  8
0
100
AcDbBlockBegin
  2
*MODEL_SPACE
 70
     0
 10
0.0
 20
0.0
 30
0.0
  3
*MODEL_SPACE
  1

  0
ENDBLK
  5
20
330
1E
100
AcDbEntity
  8
0
100
AcDbBlockEnd
  0
BLOCK
  5
1B
330
1A
100
AcDbEntity
 67
     1
  8
0
100
AcDbBlockBegin
  2
*PAPER_SPACE
 70
     0
 10
0.0
 20
0.0
 30
0.0
  3
*PAPER_SPACE
  1

  0
ENDBLK
  5
1C
330
1A
100
AcDbEntity
 67
     1
  8
0
100
AcDbBlockEnd
  0
BLOCK
  5
3B6
330
3B2
100
AcDbEntity
  8
0
100
AcDbBlockBegin
  2
_OPEN
 70
     0
 10
0.0
 20
0.0
 30
0.0
  3
_OPEN
  1

  0
LINE
  5
3B3
330
3B2
100
AcDbEntity
  8
30
  6
Continuous
 62
     0
100
AcDbLine
 10
-1.0
 20
0.1666666666666666
 30
0.0
 11
0.0
 21
0.0
 31
0.0
  0
LINE
  5
3B4
330
3B2
100
AcDbEntity
  8
30
  6
Continuous
 62
     0
100
AcDbLine
 10
-1.0
 20
-0.1666666666666666
 30
0.0
 11
0.0
 21
0.0
 31
0.0
  0
LINE
  5
3B5
330
3B2
100
AcDbEntity
  8
30
  6
Continuous
 62
     0
100
AcDbLine
 10
0.0
 20
0.0
 30
0.0
 11
-1.0
 21
0.0
 31
0.0
  0
ENDBLK
  5
3B7
330
3B2
100
AcDbEntity
  8
0
100
AcDbBlockEnd
  0
BLOCK
  5
7442
330
7440
100
AcDbEntity
  8
TOP
  6
Continuous
 62
     4
100
AcDbBlockBegin
  2
*U1
 70
     1
 10
0.0
 20
0.0
 30
0.0
  3
*U1
  1

  0
TEXT
  5
7441
330
7440
100
AcDbEntity
  8
TOP
  6
ByBlock
 62
     0
100
AcDbText
 10
266.0
 20
291.0294437291301
 30
0.0
 40
2.500000003799998
  1
15.5 (max.)
 50
89.99999999999404
 41
0.8081054687499968
  7
UGMTXT
100
AcDbText
  0
ENDBLK
  5
7443
330
7440
100
AcDbEntity
  8
0
100
AcDbBlockEnd
  0
BLOCK
  5
744B
330
7444
100
AcDbEntity
  8
TOP
  6
Continuous
 62
     4
100
AcDbBlockBegin
  2
*U2
 70
     1
 10
0.0
 20
0.0
 30
0.0
  3
*U2
  1

  0
LINE
  5
7445
330
7444
100
AcDbEntity
  8
1
  6
ByBlock
 62
     0
100
AcDbLine
 10
233.5811502601933
 20
295.7294437159303
 30
0.0
 11
262.2500000084999
 21
295.7294437159303
 31
0.0
  0
LINE
  5
7446
330
7444
100
AcDbEntity
  8
1
  6
ByBlock
 62
     0
100
AcDbLine
 10
255.5411502601935
 20
305.0294437159302
 30
0.0
 11
262.2500000084999
 21
305.0294437159302
 31
0.0
  0
LINE
  5
7447
330
7444
100
AcDbEntity
  8
1
  6
ByBlock
 62
     0
100
AcDbLine
 10
261.2500000019
 20
295.7294437159303
 30
0.0
 11
261.2500000019
 21
305.0294437159302
 31
0.0
  0
SOLID
  5
7448
330
7444
100
AcDbEntity
  8
1
  6
ByBlock
 62
     0
100
AcDbTrace
 10
261.2500000019
 20
295.7294437159303
 30
0.0
 11
260.9166666663664
 21
297.7294437291303
 31
0.0
 12
261.5833333374331
 22
297.7294437291303
 32
0.0
 13
261.5833333374331
 23
297.7294437291303
 33
0.0
  0
SOLID
  5
7449
330
7444
100
AcDbEntity
  8
1
  6
ByBlock
 62
     0
100
AcDbTrace
 10
261.2500000019
 20
305.0294437159302
 30
0.0
 11
261.5833333374331
 21
303.0294437027301
 31
0.0
 12
260.9166666663664
 22
303.0294437027301
 32
0.0
 13
260.9166666663664
 23
303.0294437027301
 33
0.0
  0
TEXT
  5
744A
330
7444
100
AcDbEntity
  8
TOP
  6
ByBlock
 62
     0
100
AcDbText
 10
260.0
 20
299.5135582979475
 30
0.0
 40
2.500000003799998
  1
 
 50
89.99999999999404
 41
1.189062499999995
  7
UGMTXT
100
AcDbText
  0
ENDBLK
  5
744C
330
7444
100
AcDbEntity
  8
0
100
AcDbBlockEnd
  0
BLOCK
  5
7454
330
744D
100
AcDbEntity
  8
TOP
  6
Continuous
 62
     4
100
AcDbBlockBegin
  2
*U3
 70
     1
 10
0.0
 20
0.0
 30
0.0
  3
*U3
  1

  0
LINE
  5
744E
330
744D
100
AcDbEntity
  8
1
  6
ByBlock
 62
     0
100
AcDbLine
 10
210.1411485937496
 20
283.7986239687466
 30
0.0
 11
210.1411485937496
 21
267.7499999981
 31
0.0
  0
LINE
  5
744F
330
744D
100
AcDbEntity
  8
1
  6
ByBlock
 62
     0
100
AcDbLine
 10
224.5411502535934
 20
289.0294437093301
 30
0.0
 11
224.5411502535934
 21
267.7499999981
 31
0.0
  0
LINE
  5
7450
330
744D
100
AcDbEntity
  8
1
  6
ByBlock
 62
     0
100
AcDbLine
 10
210.1411485937496
 20
268.7499999981
 30
0.0
 11
224.5411502535934
 21
268.7499999981
 31
0.0
  0
SOLID
  5
7451
330
744D
100
AcDbEntity
  8
1
  6
ByBlock
 62
     0
100
AcDbTrace
 10
210.1411485937496
 20
268.7499999981
 30
0.0
 11
212.1411486069495
 21
269.0833333336333
 31
0.0
 12
212.1411486069495
 22
268.4166666625666
 32
0.0
 13
212.1411486069495
 23
268.4166666625666
 33
0.0
  0
SOLID
  5
7452
330
744D
100
AcDbEntity
  8
1
  6
ByBlock
 62
     0
100
AcDbTrace
 10
224.5411502535934
 20
268.7499999981
 30
0.0
 11
222.5411502403934
 21
268.4166666625666
 31
0.0
 12
222.5411502403934
 22
269.0833333336333
 32
0.0
 13
222.5411502403934
 23
269.0833333336333
 33
0.0
  0
TEXT
  5
7453
330
744D
100
AcDbEntity
  8
TOP
  6
ByBlock
 62
     0
100
AcDbText
 10
215.4843785875159
 20
270.0
 30
0.0
 40
2.500000003799998
  1
24
 41
0.8912499999999965
  7
UGMTXT
100
AcDbText
  0
ENDBLK
  5
7455
330
744D
100
AcDbEntity
  8
0
100
AcDbBlockEnd
  0
BLOCK
  5
745B
330
7456
100
AcDbEntity
  8
TOP
  6
Continuous
 62
     3
100
AcDbBlockBegin
  2
*U4
 70
     1
 10
0.0
 20
0.0
 30
0.0
  3
*U4
  1

  0
LINE
  5
7457
330
7456
100
AcDbEntity
  8
1
  6
ByBlock
 62
     0
100
AcDbLine
 10
254.7855019450172
 20
268.7148869848059
 30
0.0
 11
240.7855019450172
 21
268.7148869848059
 31
0.0
  0
LINE
  5
7458
330
7456
100
AcDbEntity
  8
1
  6
ByBlock
 62
     0
100
AcDbLine
 10
230.5411502535934
 20
291.4094437159302
 30
0.0
 11
240.7855019450172
 21
268.7148869848059
 31
0.0
  0
SOLID
  5
7459
330
7456
100
AcDbEntity
  8
1
  6
ByBlock
 62
     0
100
AcDbTrace
 10
230.5411502535934
 20
291.4094437159302
 30
0.0
 11
231.6678175741986
 21
289.723699988652
 31
0.0
 12
231.0601889426162
 22
289.4494156537138
 32
0.0
 13
231.0601889426162
 23
289.4494156537138
 33
0.0
  0
TEXT
  5
745A
330
7456
100
AcDbEntity
  8
TOP
  6
ByBlock
 62
     0
100
AcDbText
 10
254.7855019450172
 20
267.4648869848059
 30
0.0
 40
2.5
  1
 
 41
1.189062500000005
  7
UGMTXT
100
AcDbText
  0
ENDBLK
  5
745C
330
7456
100
AcDbEntity
  8
0
100
AcDbBlockEnd
  0
BLOCK
  5
7462
330
745D
100
AcDbEntity
  8
TOP
  6
Continuous
 62
     3
100
AcDbBlockBegin
  2
*U5
 70
     1
 10
0.0
 20
0.0
 30
0.0
  3
*U5
  1

  0
LINE
  5
745E
330
745D
100
AcDbEntity
  8
1
  6
ByBlock
 62
     0
100
AcDbLine
 10
299.0919828141811
 20
278.9261624279384
 30
0.0
 11
252.0919828141811
 21
278.9261624279384
 31
0.0
  0
LINE
  5
745F
330
745D
100
AcDbEntity
  8
1
  6
ByBlock
 62
     0
100
AcDbLine
 10
245.3011502535936
 20
286.4294437159301
 30
0.0
 11
252.0919828141811
 21
278.9261624279384
 31
0.0
  0
SOLID
  5
7460
330
745D
100
AcDbEntity
  8
1
  6
ByBlock
 62
     0
100
AcDbTrace
 10
245.3011502535936
 20
286.4294437159301
 30
0.0
 11
246.8903538489449
 21
285.1702602114716
 31
0.0
 12
246.396067112615
 22
284.7229068024097
 32
0.0
 13
246.396067112615
 23
284.7229068024097
 33
0.0
  0
TEXT
  5
7461
330
745D
100
AcDbEntity
  8
TOP
  6
ByBlock
 62
     0
100
AcDbText
 10
299.0919828141811
 20
277.6761624279385
 30
0.0
 40
2.5
  1
 
 41
1.189062499999988
  7
UGMTXT
100
AcDbText
  0
ENDBLK
  5
7463
330
745D
100
AcDbEntity
  8
0
100
AcDbBlockEnd
  0
BLOCK
  5
7559
330
754E
100
AcDbEntity
  8
0
100
AcDbBlockBegin
  2
*D6
 70
     1
 10
0.0
 20
0.0
 30
0.0
  3
*D6
  1

  0
LINE
  5
9623
330
754E
100
AcDbEntity
  8
30
 62
     0
100
AcDbLine
 10
158.5000066894236
 20
188.6944934761773
 30
0.0
 11
158.5000066894236
 21
195.5
 31
0.0
  0
LINE
  5
9624
330
754E
100
AcDbEntity
  8
30
 62
     0
100
AcDbLine
 10
163.500006113089
 20
175.5000007492345
 30
0.0
 11
163.500006113089
 21
195.5
 31
0.0
  0
LINE
  5
9625
330
754E
100
AcDbEntity
  8
30
 62
     0
100
AcDbLine
 10
156.5000066894237
 20
195.0
 30
0.0
 11
154.5000066894236
 21
195.0
 31
0.0
  0
LINE
  5
9626
330
754E
100
AcDbEntity
  8
30
 62
     0
100
AcDbLine
 10
165.5000061130889
 20
195.0
 30
0.0
 11
167.5000061130889
 21
195.0
 31
0.0
  0
INSERT
  5
9627
330
754E
100
AcDbEntity
  8
30
 62
     0
100
AcDbBlockReference
  2
_OPEN
 10
158.5000066894236
 20
195.0
 30
0.0
 41
2.0
 42
2.0
 43
2.0
  0
INSERT
  5
9628
330
754E
100
AcDbEntity
  8
30
 62
     0
100
AcDbBlockReference
  2
_OPEN
 10
163.500006113089
 20
195.0
 30
0.0
 41
2.0
 42
2.0
 43
2.0
 50
180.0
  0
MTEXT
  5
9629
330
754E
100
AcDbEntity
  8
30
 62
     0
100
AcDbMText
 10
161.0000064012564
 20
198.0
 30
0.0
 40
4.0
 41
0.0
 71
     5
 72
     1
  1
\A1;5
 73
     1
 44
1.0
1001
ACAD
1000
MTEXTBEGIN
1070
    73
1070
     1
1070
    44
1040
1.0
1070
    74
1070
     0
1000
MTEXTEND
1000
MTEXTBEGIN
1070
    73
1070
     1
1070
    44
1040
1.0
1070
    74
1070
     0
1000
MTEXTEND
1000
MTEXTBEGIN
1070
    73
1070
     1
1070
    44
1040
1.0
1070
    74
1070
     0
1000
MTEXTEND
  0
POINT
  5
962A
330
754E
100
AcDbEntity
  8
DEFPOINTS
 62
     0
100
AcDbPoint
 10
158.5000066894236
 20
187.6944934761773
 30
0.0
  0
POINT
  5
962B
330
754E
100
AcDbEntity
  8
DEFPOINTS
 62
     0
100
AcDbPoint
 10
163.500006113089
 20
174.5000007492348
 30
0.0
  0
POINT
  5
962C
330
754E
100
AcDbEntity
  8
DEFPOINTS
 62
     0
100
AcDbPoint
 10
163.500006113089
 20
195.0
 30
0.0
  0
ENDBLK
  5
755A
330
754E
100
AcDbEntity
  8
0
100
AcDbBlockEnd
  0
BLOCK
  5
7565
330
755B
100
AcDbEntity
  8
0
100
AcDbBlockBegin
  2
*D7
 70
     1
 10
0.0
 20
0.0
 30
0.0
  3
*D7
  1

  0
LINE
  5
9636
330
755B
100
AcDbEntity
  8
30
 62
     0
100
AcDbLine
 10
158.5000066894236
 20
188.6944934761773
 30
0.0
 11
158.5000066894236
 21
207.0
 31
0.0
  0
LINE
  5
9637
330
755B
100
AcDbEntity
  8
30
 62
     0
100
AcDbLine
 10
185.5000087011648
 20
185.1666749512909
 30
0.0
 11
185.5000087011648
 21
207.0
 31
0.0
  0
LINE
  5
9638
330
755B
100
AcDbEntity
  8
30
 62
     0
100
AcDbLine
 10
160.5000066894236
 20
206.4999999999999
 30
0.0
 11
183.5000087011648
 21
206.4999999999999
 31
0.0
  0
INSERT
  5
9639
330
755B
100
AcDbEntity
  8
30
 62
     0
100
AcDbBlockReference
  2
_OPEN
 10
158.5000066894236
 20
206.4999999999999
 30
0.0
 41
2.0
 42
2.0
 43
2.0
 50
180.0
  0
INSERT
  5
963A
330
755B
100
AcDbEntity
  8
30
 62
     0
100
AcDbBlockReference
  2
_OPEN
 10
185.5000087011648
 20
206.4999999999999
 30
0.0
 41
2.0
 42
2.0
 43
2.0
  0
MTEXT
  5
963B
330
755B
100
AcDbEntity
  8
30
 62
     0
100
AcDbMText
 10
171.0
 20
209.5
 30
0.0
 40
4.0
 41
0.0
 71
     5
 72
     1
  1
\A1;27
 73
     1
 44
1.0
1001
ACAD
1000
MTEXTBEGIN
1070
    73
1070
     1
1070
    44
1040
1.0
1070
    74
1070
     0
1000
MTEXTEND
1000
MTEXTBEGIN
1070
    73
1070
     1
1070
    44
1040
1.0
1070
    74
1070
     0
1000
MTEXTEND
1000
MTEXTBEGIN
1070
    73
1070
     1
1070
    44
1040
1.0
1070
    74
1070
     0
1000
MTEXTEND
  0
POINT
  5
963C
330
755B
100
AcDbEntity
  8
DEFPOINTS
 62
     0
100
AcDbPoint
 10
158.5000066894236
 20
187.6944934761773
 30
0.0
  0
POINT
  5
963D
330
755B
100
AcDbEntity
  8
DEFPOINTS
 62
     0
100
AcDbPoint
 10
185.5000087011648
 20
184.1666749512909
 30
0.0
  0
POINT
  5
963E
330
755B
100
AcDbEntity
  8
DEFPOINTS
 62
     0
100
AcDbPoint
 10
185.5000087011648
 20
206.4999999999999
 30
0.0
  0
ENDBLK
  5
7566
330
755B
100
AcDbEntity
  8
0
100
AcDbBlockEnd
  0
BLOCK
  5
75E9
330
75DF
100
AcDbEntity
  8
0
100
AcDbBlockBegin
  2
*D8
 70
     1
 10
0.0
 20
0.0
 30
0.0
  3
*D8
  1

  0
LINE
  5
85F8
330
75DF
100
AcDbEntity
  8
30
 62
     0
100
AcDbLine
 10
340.0000000000001
 20
144.9999999999999
 30
0.0
 11
340.0000000000001
 21
134.4999999999999
 31
0.0
  0
LINE
  5
85F9
330
75DF
100
AcDbEntity
  8
30
 62
     0
100
AcDbLine
 10
365.0
 20
144.9999999999999
 30
0.0
 11
365.0
 21
134.4999999999999
 31
0.0
  0
LINE
  5
85FA
330
75DF
100
AcDbEntity
  8
30
 62
     0
100
AcDbLine
 10
342.0000000000001
 20
135.0
 30
0.0
 11
363.0
 21
135.0
 31
0.0
  0
INSERT
  5
85FB
330
75DF
100
AcDbEntity
  8
30
 62
     0
100
AcDbBlockReference
  2
_OPEN
 10
340.0000000000001
 20
135.0
 30
0.0
 41
2.0
 42
2.0
 43
2.0
 50
180.0
  0
INSERT
  5
85FC
330
75DF
100
AcDbEntity
  8
30
 62
     0
100
AcDbBlockReference
  2
_OPEN
 10
365.0
 20
135.0
 30
0.0
 41
2.0
 42
2.0
 43
2.0
  0
MTEXT
  5
85FD
330
75DF
100
AcDbEntity
  8
30
 62
     0
100
AcDbMText
 10
353.0
 20
138.0
 30
0.0
 40
4.0
 41
0.0
 71
     5
 72
     1
  1
\A1;22(max)
 73
     1
 44
1.0
1001
ACAD
1000
MTEXTBEGIN
1070
    73
1070
     1
1070
    44
1040
1.0
1070
    74
1070
     0
1000
MTEXTEND
1000
MTEXTBEGIN
1070
    73
1070
     1
1070
    44
1040
1.0
1070
    74
1070
     0
1000
MTEXTEND
1000
MTEXTBEGIN
1070
    73
1070
     1
1070
    44
1040
1.0
1070
    74
1070
     0
1000
MTEXTEND
  0
POINT
  5
85FE
330
75DF
100
AcDbEntity
  8
DEFPOINTS
 62
     0
100
AcDbPoint
 10
340.0000000000001
 20
145.9999999999999
 30
0.0
  0
POINT
  5
85FF
330
75DF
100
AcDbEntity
  8
DEFPOINTS
 62
     0
100
AcDbPoint
 10
365.0
 20
145.9999999999999
 30
0.0
  0
POINT
  5
8600
330
75DF
100
AcDbEntity
  8
DEFPOINTS
 62
     0
100
AcDbPoint
 10
365.0
 20
135.0
 30
0.0
  0
ENDBLK
  5
75EA
330
75DF
100
AcDbEntity
  8
0
100
AcDbBlockEnd
  0
BLOCK
  5
75F5
330
75EB
100
AcDbEntity
  8
0
100
AcDbBlockBegin
  2
*D9
 70
     1
 10
0.0
 20
0.0
 30
0.0
  3
*D9
  1

  0
LINE
  5
96D3
330
75EB
100
AcDbEntity
  8
30
 62
     0
100
AcDbLine
 10
366.0
 20
145.9999999999999
 30
0.0
 11
375.8226076602539
 21
145.9999999999999
 31
0.0
  0
LINE
  5
96D4
330
75EB
100
AcDbEntity
  8
30
 62
     0
100
AcDbLine
 10
356.0000000164997
 20
155.9999999999999
 30
0.0
 11
375.8226076602539
 21
155.9999999999999
 31
0.0
  0
LINE
  5
96D5
330
75EB
100
AcDbEntity
  8
30
 62
     0
100
AcDbLine
 10
375.322607660254
 20
147.9999999999999
 30
0.0
 11
375.322607660254
 21
153.9999999999999
 31
0.0
  0
MTEXT
  5
96D6
330
75EB
100
AcDbEntity
  8
30
 62
     0
100
AcDbMText
 10
381.0
 20
150.0
 30
0.0
 40
4.0
 41
0.0
 71
     5
 72
     1
  1
\A1;15.5(max)
 11
0.0000000000000001
 21
1.0
 31
0.0
 73
     1
 44
1.0
  0
INSERT
  5
96D7
330
75EB
100
AcDbEntity
  8
30
 62
     0
100
AcDbBlockReference
  2
_OPEN
 10
375.322607660254
 20
145.9999999999999
 30
0.0
 41
2.0
 42
2.0
 43
2.0
 50
270.0
  0
INSERT
  5
96D8
330
75EB
100
AcDbEntity
  8
30
 62
     0
100
AcDbBlockReference
  2
_OPEN
 10
375.322607660254
 20
155.9999999999999
 30
0.0
 41
2.0
 42
2.0
 43
2.0
 50
90.0
  0
POINT
  5
96D9
330
75EB
100
AcDbEntity
  8
DEFPOINTS
 62
     0
100
AcDbPoint
 10
365.0
 20
145.9999999999999
 30
0.0
  0
POINT
  5
96DA
330
75EB
100
AcDbEntity
  8
DEFPOINTS
 62
     0
100
AcDbPoint
 10
355.0000000164997
 20
155.9999999999999
 30
0.0
  0
POINT
  5
96DB
330
75EB
100
AcDbEntity
  8
DEFPOINTS
 62
     0
100
AcDbPoint
 10
375.322607660254
 20
155.9999999999999
 30
0.0
  0
ENDBLK
  5
75F6
330
75EB
100
AcDbEntity
  8
0
100
AcDbBlockEnd
  0
BLOCK
  5
806C
330
8062
100
AcDbEntity
  8
0
100
AcDbBlockBegin
  2
*D10
 70
     1
 10
0.0
 20
0.0
 30
0.0
  3
*D10
  1

  0
LINE
  5
90EC
330
8062
100
AcDbEntity
  8
30
 62
     0
100
AcDbLine
 10
179.8314477495724
 20
-3.500000016499996
 30
0.0
 11
179.8314477495724
 21
-130.4999999999999
 31
0.0
  0
LINE
  5
90ED
330
8062
100
AcDbEntity
  8
30
 62
     0
100
AcDbLine
 10
354.8314483638288
 20
-90.99999206798292
 30
0.0
 11
354.8314483638288
 21
-130.4999999999999
 31
0.0
  0
LINE
  5
90EE
330
8062
100
AcDbEntity
  8
30
 62
     0
100
AcDbLine
 10
181.8314477495724
 20
-130.0
 30
0.0
 11
352.8314483638288
 21
-130.0
 31
0.0
  0
INSERT
  5
90EF
330
8062
100
AcDbEntity
  8
30
 62
     0
100
AcDbBlockReference
  2
_OPEN
 10
179.8314477495724
 20
-130.0
 30
0.0
 41
2.0
 42
2.0
 43
2.0
 50
180.0
  0
INSERT
  5
90F0
330
8062
100
AcDbEntity
  8
30
 62
     0
100
AcDbBlockReference
  2
_OPEN
 10
354.8314483638288
 20
-130.0
 30
0.0
 41
2.0
 42
2.0
 43
2.0
  0
MTEXT
  5
90F1
330
8062
100
AcDbEntity
  8
30
 62
     0
100
AcDbMText
 10
267.3314480567007
 20
-127.0
 30
0.0
 40
4.0
 41
0.0
 71
     5
 72
     1
  1
\A1;175
 73
     1
 44
1.0
1001
ACAD
1000
MTEXTBEGIN
1070
    73
1070
     1
1070
    44
1040
1.0
1070
    74
1070
     0
1000
MTEXTEND
1000
MTEXTBEGIN
1070
    73
1070
     1
1070
    44
1040
1.0
1070
    74
1070
     0
1000
MTEXTEND
1000
MTEXTBEGIN
1070
    73
1070
     1
1070
    44
1040
1.0
1070
    74
1070
     0
1000
MTEXTEND
  0
POINT
  5
90F2
330
8062
100
AcDbEntity
  8
DEFPOINTS
 62
     0
100
AcDbPoint
 10
179.8314477495724
 20
-2.500000016499996
 30
0.0
  0
POINT
  5
90F3
330
8062
100
AcDbEntity
  8
DEFPOINTS
 62
     0
100
AcDbPoint
 10
354.8314483638288
 20
-89.99999206798291
 30
0.0
  0
POINT
  5
90F4
330
8062
100
AcDbEntity
  8
DEFPOINTS
 62
     0
100
AcDbPoint
 10
354.8314483638288
 20
-130.0
 30
0.0
  0
ENDBLK
  5
806D
330
8062
100
AcDbEntity
  8
0
100
AcDbBlockEnd
  0
BLOCK
  5
8078
330
806E
100
AcDbEntity
  8
0
100
AcDbBlockBegin
  2
*D11
 70
     1
 10
0.0
 20
0.0
 30
0.0
  3
*D11
  1

  0
LINE
  5
90E3
330
806E
100
AcDbEntity
  8
30
 62
     0
100
AcDbLine
 10
199.8314477495726
 20
-26.0
 30
0.0
 11
199.8314477495726
 21
-120.5
 31
0.0
  0
LINE
  5
90E4
330
806E
100
AcDbEntity
  8
30
 62
     0
100
AcDbLine
 10
354.8314483638288
 20
-90.99999206798292
 30
0.0
 11
354.8314483638288
 21
-120.5
 31
0.0
  0
LINE
  5
90E5
330
806E
100
AcDbEntity
  8
30
 62
     0
100
AcDbLine
 10
201.8314477495724
 20
-120.0
 30
0.0
 11
352.8314483638288
 21
-120.0
 31
0.0
  0
INSERT
  5
90E6
330
806E
100
AcDbEntity
  8
30
 62
     0
100
AcDbBlockReference
  2
_OPEN
 10
199.8314477495726
 20
-120.0
 30
0.0
 41
2.0
 42
2.0
 43
2.0
 50
180.0
  0
INSERT
  5
90E7
330
806E
100
AcDbEntity
  8
30
 62
     0
100
AcDbBlockReference
  2
_OPEN
 10
354.8314483638288
 20
-120.0
 30
0.0
 41
2.0
 42
2.0
 43
2.0
  0
MTEXT
  5
90E8
330
806E
100
AcDbEntity
  8
30
 62
     0
100
AcDbMText
 10
277.3314480567008
 20
-117.0
 30
0.0
 40
4.0
 41
0.0
 71
     5
 72
     1
  1
\A1;155
 73
     1
 44
1.0
1001
ACAD
1000
MTEXTBEGIN
1070
    73
1070
     1
1070
    44
1040
1.0
1070
    74
1070
     0
1000
MTEXTEND
1000
MTEXTBEGIN
1070
    73
1070
     1
1070
    44
1040
1.0
1070
    74
1070
     0
1000
MTEXTEND
1000
MTEXTBEGIN
1070
    73
1070
     1
1070
    44
1040
1.0
1070
    74
1070
     0
1000
MTEXTEND
  0
POINT
  5
90E9
330
806E
100
AcDbEntity
  8
DEFPOINTS
 62
     0
100
AcDbPoint
 10
199.8314477495726
 20
-25.0
 30
0.0
  0
POINT
  5
90EA
330
806E
100
AcDbEntity
  8
DEFPOINTS
 62
     0
100
AcDbPoint
 10
354.8314483638288
 20
-89.99999206798291
 30
0.0
  0
POINT
  5
90EB
330
806E
100
AcDbEntity
  8
DEFPOINTS
 62
     0
100
AcDbPoint
 10
354.8314483638288
 20
-120.0
 30
0.0
  0
ENDBLK
  5
8079
330
806E
100
AcDbEntity
  8
0
100
AcDbBlockEnd
  0
BLOCK
  5
8085
330
807A
100
AcDbEntity
  8
0
100
AcDbBlockBegin
  2
*D12
 70
     1
 10
0.0
 20
0.0
 30
0.0
  3
*D12
  1

  0
LINE
  5
904F
330
807A
100
AcDbEntity
  8
30
 62
     0
100
AcDbLine
 10
195.8314477495724
 20
-26.0
 30
0.0
 11
195.8314477495724
 21
-120.5
 31
0.0
  0
LINE
  5
9050
330
807A
100
AcDbEntity
  8
30
 62
     0
100
AcDbLine
 10
199.8314477495726
 20
-26.0
 30
0.0
 11
199.8314477495726
 21
-120.5
 31
0.0
  0
LINE
  5
9051
330
807A
100
AcDbEntity
  8
30
 62
     0
100
AcDbLine
 10
193.8314477495724
 20
-120.0
 30
0.0
 11
191.8314477495724
 21
-120.0
 31
0.0
  0
LINE
  5
9052
330
807A
100
AcDbEntity
  8
30
 62
     0
100
AcDbLine
 10
201.8314477495724
 20
-120.0
 30
0.0
 11
208.4981144162393
 21
-120.0
 31
0.0
  0
INSERT
  5
9053
330
807A
100
AcDbEntity
  8
30
 62
     0
100
AcDbBlockReference
  2
_OPEN
 10
195.8314477495724
 20
-120.0
 30
0.0
 41
2.0
 42
2.0
 43
2.0
  0
INSERT
  5
9054
330
807A
100
AcDbEntity
  8
30
 62
     0
100
AcDbBlockReference
  2
_OPEN
 10
199.8314477495726
 20
-120.0
 30
0.0
 41
2.0
 42
2.0
 43
2.0
 50
180.0
  0
MTEXT
  5
9055
330
807A
100
AcDbEntity
  8
30
 62
     0
100
AcDbMText
 10
206.1647810829061
 20
-117.0
 30
0.0
 40
4.0
 41
0.0
 71
     5
 72
     1
  1
\A1;4
 73
     1
 44
1.0
1001
ACAD
1000
MTEXTBEGIN
1070
    73
1070
     1
1070
    44
1040
1.0
1070
    74
1070
     0
1000
MTEXTEND
1000
MTEXTBEGIN
1070
    73
1070
     1
1070
    44
1040
1.0
1070
    74
1070
     0
1000
MTEXTEND
1000
MTEXTBEGIN
1070
    73
1070
     1
1070
    44
1040
1.0
1070
    74
1070
     0
1000
MTEXTEND
  0
POINT
  5
9056
330
807A
100
AcDbEntity
  8
DEFPOINTS
 62
     0
100
AcDbPoint
 10
195.8314477495724
 20
-25.0
 30
0.0
  0
POINT
  5
9057
330
807A
100
AcDbEntity
  8
DEFPOINTS
 62
     0
100
AcDbPoint
 10
199.8314477495726
 20
-25.0
 30
0.0
  0
POINT
  5
9058
330
807A
100
AcDbEntity
  8
DEFPOINTS
 62
     0
100
AcDbPoint
 10
199.8314477495726
 20
-120.0
 30
0.0
  0
ENDBLK
  5
8086
330
807A
100
AcDbEntity
  8
0
100
AcDbBlockEnd
  0
BLOCK
  5
8091
330
8087
100
AcDbEntity
  8
0
100
AcDbBlockBegin
  2
*D13
 70
     1
 10
0.0
 20
0.0
 30
0.0
  3
*D13
  1

  0
LINE
  5
9074
330
8087
100
AcDbEntity
  8
30
 62
     0
100
AcDbLine
 10
354.8314483638288
 20
-53.9999976631225
 30
0.0
 11
354.8314483638288
 21
-109.4999999999999
 31
0.0
  0
LINE
  5
9075
330
8087
100
AcDbEntity
  8
30
 62
     0
100
AcDbLine
 10
381.83144719539
 20
-87.9999930516942
 30
0.0
 11
381.83144719539
 21
-109.4999999999999
 31
0.0
  0
LINE
  5
9076
330
8087
100
AcDbEntity
  8
30
 62
     0
100
AcDbLine
 10
356.8314483638288
 20
-108.9999999999996
 30
0.0
 11
379.83144719539
 21
-108.9999999999996
 31
0.0
  0
INSERT
  5
9077
330
8087
100
AcDbEntity
  8
30
 62
     0
100
AcDbBlockReference
  2
_OPEN
 10
354.8314483638288
 20
-108.9999999999996
 30
0.0
 41
2.0
 42
2.0
 43
2.0
 50
180.0
  0
INSERT
  5
9078
330
8087
100
AcDbEntity
  8
30
 62
     0
100
AcDbBlockReference
  2
_OPEN
 10
381.83144719539
 20
-108.9999999999996
 30
0.0
 41
2.0
 42
2.0
 43
2.0
  0
MTEXT
  5
9079
330
8087
100
AcDbEntity
  8
30
 62
     0
100
AcDbMText
 10
368.3314477796096
 20
-105.9999999999996
 30
0.0
 40
4.0
 41
0.0
 71
     5
 72
     1
  1
\A1;27
 73
     1
 44
1.0
1001
ACAD
1000
MTEXTBEGIN
1070
    73
1070
     1
1070
    44
1040
1.0
1070
    74
1070
     0
1000
MTEXTEND
1000
MTEXTBEGIN
1070
    73
1070
     1
1070
    44
1040
1.0
1070
    74
1070
     0
1000
MTEXTEND
1000
MTEXTBEGIN
1070
    73
1070
     1
1070
    44
1040
1.0
1070
    74
1070
     0
1000
MTEXTEND
  0
POINT
  5
907A
330
8087
100
AcDbEntity
  8
DEFPOINTS
 62
     0
100
AcDbPoint
 10
354.8314483638288
 20
-52.9999976631225
 30
0.0
  0
POINT
  5
907B
330
8087
100
AcDbEntity
  8
DEFPOINTS
 62
     0
100
AcDbPoint
 10
381.83144719539
 20
-86.99999305169422
 30
0.0
  0
POINT
  5
907C
330
8087
100
AcDbEntity
  8
DEFPOINTS
 62
     0
100
AcDbPoint
 10
381.83144719539
 20
-108.9999999999996
 30
0.0
  0
ENDBLK
  5
8092
330
8087
100
AcDbEntity
  8
0
100
AcDbBlockEnd
  0
BLOCK
  5
809D
330
8093
100
AcDbEntity
  8
0
100
AcDbBlockBegin
  2
*D14
 70
     1
 10
0.0
 20
0.0
 30
0.0
  3
*D14
  1

  0
LINE
  5
90DA
330
8093
100
AcDbEntity
  8
30
 62
     0
100
AcDbLine
 10
203.8314477495724
 20
-52.0
 30
0.0
 11
203.8314477495724
 21
-110.4999999999999
 31
0.0
  0
LINE
  5
90DB
330
8093
100
AcDbEntity
  8
30
 62
     0
100
AcDbLine
 10
354.8314483638288
 20
-90.99999206798292
 30
0.0
 11
354.8314483638288
 21
-110.4999999999999
 31
0.0
  0
LINE
  5
90DC
330
8093
100
AcDbEntity
  8
30
 62
     0
100
AcDbLine
 10
205.8314477495724
 20
-110.0
 30
0.0
 11
352.8314483638288
 21
-110.0
 31
0.0
  0
INSERT
  5
90DD
330
8093
100
AcDbEntity
  8
30
 62
     0
100
AcDbBlockReference
  2
_OPEN
 10
203.8314477495724
 20
-110.0
 30
0.0
 41
2.0
 42
2.0
 43
2.0
 50
180.0
  0
INSERT
  5
90DE
330
8093
100
AcDbEntity
  8
30
 62
     0
100
AcDbBlockReference
  2
_OPEN
 10
354.8314483638288
 20
-110.0
 30
0.0
 41
2.0
 42
2.0
 43
2.0
  0
MTEXT
  5
90DF
330
8093
100
AcDbEntity
  8
30
 62
     0
100
AcDbMText
 10
279.3314480567008
 20
-107.0
 30
0.0
 40
4.0
 41
0.0
 71
     5
 72
     1
  1
\A1;151
 73
     1
 44
1.0
1001
ACAD
1000
MTEXTBEGIN
1070
    73
1070
     1
1070
    44
1040
1.0
1070
    74
1070
     0
1000
MTEXTEND
1000
MTEXTBEGIN
1070
    73
1070
     1
1070
    44
1040
1.0
1070
    74
1070
     0
1000
MTEXTEND
1000
MTEXTBEGIN
1070
    73
1070
     1
1070
    44
1040
1.0
1070
    74
1070
     0
1000
MTEXTEND
  0
POINT
  5
90E0
330
8093
100
AcDbEntity
  8
DEFPOINTS
 62
     0
100
AcDbPoint
 10
203.8314477495724
 20
-51.0
 30
0.0
  0
POINT
  5
90E1
330
8093
100
AcDbEntity
  8
DEFPOINTS
 62
     0
100
AcDbPoint
 10
354.8314483638288
 20
-89.99999206798291
 30
0.0
  0
POINT
  5
90E2
330
8093
100
AcDbEntity
  8
DEFPOINTS
 62
     0
100
AcDbPoint
 10
354.8314483638288
 20
-110.0
 30
0.0
  0
ENDBLK
  5
809E
330
8093
100
AcDbEntity
  8
0
100
AcDbBlockEnd
  0
BLOCK
  5
80B5
330
80AB
100
AcDbEntity
  8
0
100
AcDbBlockBegin
  2
*D15
 70
     1
 10
0.0
 20
0.0
 30
0.0
  3
*D15
  1

  0
LINE
  5
90D1
330
80AB
100
AcDbEntity
  8
30
 62
     0
100
AcDbLine
 10
210.8314477495726
 20
-83.50000000000004
 30
0.0
 11
210.8314477495726
 21
-100.5
 31
0.0
  0
LINE
  5
90D2
330
80AB
100
AcDbEntity
  8
30
 62
     0
100
AcDbLine
 10
306.8314477495726
 20
-83.49999999999999
 30
0.0
 11
306.8314477495726
 21
-100.5
 31
0.0
  0
LINE
  5
90D3
330
80AB
100
AcDbEntity
  8
30
 62
     0
100
AcDbLine
 10
212.8314477495726
 20
-100.0
 30
0.0
 11
304.8314477495726
 21
-100.0
 31
0.0
  0
INSERT
  5
90D4
330
80AB
100
AcDbEntity
  8
30
 62
     0
100
AcDbBlockReference
  2
_OPEN
 10
210.8314477495726
 20
-100.0
 30
0.0
 41
2.0
 42
2.0
 43
2.0
 50
180.0
  0
INSERT
  5
90D5
330
80AB
100
AcDbEntity
  8
30
 62
     0
100
AcDbBlockReference
  2
_OPEN
 10
306.8314477495726
 20
-100.0
 30
0.0
 41
2.0
 42
2.0
 43
2.0
  0
MTEXT
  5
90D6
330
80AB
100
AcDbEntity
  8
30
 62
     0
100
AcDbMText
 10
258.8314477495726
 20
-97.0
 30
0.0
 40
4.0
 41
0.0
 71
     5
 72
     1
  1
\A1;96
 73
     1
 44
1.0
1001
ACAD
1000
MTEXTBEGIN
1070
    73
1070
     1
1070
    44
1040
1.0
1070
    74
1070
     0
1000
MTEXTEND
1000
MTEXTBEGIN
1070
    73
1070
     1
1070
    44
1040
1.0
1070
    74
1070
     0
1000
MTEXTEND
1000
MTEXTBEGIN
1070
    73
1070
     1
1070
    44
1040
1.0
1070
    74
1070
     0
1000
MTEXTEND
  0
POINT
  5
90D7
330
80AB
100
AcDbEntity
  8
DEFPOINTS
 62
     0
100
AcDbPoint
 10
210.8314477495726
 20
-82.50000000000005
 30
0.0
  0
POINT
  5
90D8
330
80AB
100
AcDbEntity
  8
DEFPOINTS
 62
     0
100
AcDbPoint
 10
306.8314477495726
 20
-82.5
 30
0.0
  0
POINT
  5
90D9
330
80AB
100
AcDbEntity
  8
DEFPOINTS
 62
     0
100
AcDbPoint
 10
306.8314477495726
 20
-100.0
 30
0.0
  0
ENDBLK
  5
80B6
330
80AB
100
AcDbEntity
  8
0
100
AcDbBlockEnd
  0
BLOCK
  5
90A7
330
909D
100
AcDbEntity
  8
0
100
AcDbBlockBegin
  2
*D16
 70
     1
 10
0.0
 20
0.0
 30
0.0
  3
*D16
  1

  0
LINE
  5
90C8
330
909D
100
AcDbEntity
  8
30
  6
Continuous
 62
     0
100
AcDbLine
 10
382.3314534971498
 20
53.99999766312247
 30
0.0
 11
390.5
 21
53.99999766312247
 31
0.0
  0
LINE
  5
90C9
330
909D
100
AcDbEntity
  8
30
  6
Continuous
 62
     0
100
AcDbLine
 10
382.3314534971498
 20
-53.99999137073473
 30
0.0
 11
390.5
 21
-53.99999137073473
 31
0.0
  0
LINE
  5
90CA
330
909D
100
AcDbEntity
  8
30
  6
Continuous
 62
     0
100
AcDbLine
 10
390.0
 20
51.99999766312249
 30
0.0
 11
390.0
 21
-51.99999137073473
 31
0.0
  0
INSERT
  5
90CB
330
909D
100
AcDbEntity
  8
30
  6
Continuous
 62
     0
100
AcDbBlockReference
  2
_OPEN
 10
390.0
 20
53.99999766312247
 30
0.0
 41
2.0
 42
2.0
 43
2.0
 50
90.0
  0
INSERT
  5
90CC
330
909D
100
AcDbEntity
  8
30
  6
Continuous
 62
     0
100
AcDbBlockReference
  2
_OPEN
 10
390.0
 20
-53.99999137073473
 30
0.0
 41
2.0
 42
2.0
 43
2.0
 50
270.0
  0
MTEXT
  5
90CD
330
909D
100
AcDbEntity
  8
30
  6
Continuous
 62
     0
100
AcDbMText
 10
387.0
 20
0.0000031461939378
 30
0.0
 40
4.0
 41
0.0
 71
     5
 72
     1
  1
\A1;108
 11
0.0000000000000001
 21
1.0
 31
0.0
 73
     1
 44
1.0
1001
ACAD
1000
MTEXTBEGIN
1070
    73
1070
     1
1070
    44
1040
1.0
1070
    74
1070
     0
1000
MTEXTEND
1000
MTEXTBEGIN
1070
    73
1070
     1
1070
    44
1040
1.0
1070
    74
1070
     0
1000
MTEXTEND
1000
MTEXTBEGIN
1070
    73
1070
     1
1070
    44
1040
1.0
1070
    74
1070
     0
1000
MTEXTEND
  0
POINT
  5
90CE
330
909D
100
AcDbEntity
  8
DEFPOINTS
  6
Continuous
 62
     0
100
AcDbPoint
 10
381.3314534971498
 20
53.99999766312247
 30
0.0
  0
POINT
  5
90CF
330
909D
100
AcDbEntity
  8
DEFPOINTS
  6
Continuous
 62
     0
100
AcDbPoint
 10
381.3314534971498
 20
-53.99999137073473
 30
0.0
  0
POINT
  5
90D0
330
909D
100
AcDbEntity
  8
DEFPOINTS
  6
Continuous
 62
     0
100
AcDbPoint
 10
390.0
 20
-53.99999137073473
 30
0.0
  0
ENDBLK
  5
90A8
330
909D
100
AcDbEntity
  8
0
100
AcDbBlockEnd
  0
BLOCK
  5
90B4
330
90AA
100
AcDbEntity
  8
0
100
AcDbBlockBegin
  2
*D17
 70
     1
 10
0.0
 20
0.0
 30
0.0
  3
*D17
  1

  0
LINE
  5
90BF
330
90AA
100
AcDbEntity
  8
30
  6
Continuous
 62
     0
100
AcDbLine
 10
382.3314534971498
 20
90.00001047203426
 30
0.0
 11
407.5
 21
90.00001047203426
 31
0.0
  0
LINE
  5
90C0
330
90AA
100
AcDbEntity
  8
30
  6
Continuous
 62
     0
100
AcDbLine
 10
382.3314534971498
 20
-89.99999206798291
 30
0.0
 11
407.5
 21
-89.99999206798291
 31
0.0
  0
LINE
  5
90C1
330
90AA
100
AcDbEntity
  8
30
  6
Continuous
 62
     0
100
AcDbLine
 10
407.0
 20
88.00001047203426
 30
0.0
 11
407.0
 21
-87.9999920679829
 31
0.0
  0
INSERT
  5
90C2
330
90AA
100
AcDbEntity
  8
30
  6
Continuous
 62
     0
100
AcDbBlockReference
  2
_OPEN
 10
407.0
 20
90.00001047203426
 30
0.0
 41
2.0
 42
2.0
 43
2.0
 50
90.0
  0
INSERT
  5
90C3
330
90AA
100
AcDbEntity
  8
30
  6
Continuous
 62
     0
100
AcDbBlockReference
  2
_OPEN
 10
407.0
 20
-89.99999206798291
 30
0.0
 41
2.0
 42
2.0
 43
2.0
 50
270.0
  0
MTEXT
  5
90C4
330
90AA
100
AcDbEntity
  8
30
  6
Continuous
 62
     0
100
AcDbMText
 10
404.0
 20
0.0000092020257337
 30
0.0
 40
4.0
 41
0.0
 71
     5
 72
     1
  1
\A1;180
 11
0.0000000000000001
 21
1.0
 31
0.0
 73
     1
 44
1.0
1001
ACAD
1000
MTEXTBEGIN
1070
    73
1070
     1
1070
    44
1040
1.0
1070
    74
1070
     0
1000
MTEXTEND
1000
MTEXTBEGIN
1070
    73
1070
     1
1070
    44
1040
1.0
1070
    74
1070
     0
1000
MTEXTEND
1000
MTEXTBEGIN
1070
    73
1070
     1
1070
    44
1040
1.0
1070
    74
1070
     0
1000
MTEXTEND
  0
POINT
  5
90C5
330
90AA
100
AcDbEntity
  8
DEFPOINTS
  6
Continuous
 62
     0
100
AcDbPoint
 10
381.3314534971498
 20
90.00001047203426
 30
0.0
  0
POINT
  5
90C6
330
90AA
100
AcDbEntity
  8
DEFPOINTS
  6
Continuous
 62
     0
100
AcDbPoint
 10
381.3314534971498
 20
-89.99999206798291
 30
0.0
  0
POINT
  5
90C7
330
90AA
100
AcDbEntity
  8
DEFPOINTS
  6
Continuous
 62
     0
100
AcDbPoint
 10
407.0
 20
-89.99999206798291
 30
0.0
  0
ENDBLK
  5
90B5
330
90AA
100
AcDbEntity
  8
0
100
AcDbBlockEnd
  0
BLOCK
  5
92BB
330
92B6
100
AcDbEntity
  8
TOP
  6
Continuous
 62
     3
100
AcDbBlockBegin
  2
*U18
 70
     1
 10
0.0
 20
0.0
 30
0.0
  3
*U18
  1

  0
LINE
  5
92B7
330
92B6
100
AcDbEntity
  8
1
  6
ByBlock
 62
     0
100
AcDbLine
 10
548.3527638488361
 20
74.64070630641497
 30
0.0
 11
522.3527638488361
 21
74.64070630641497
 31
0.0
  0
LINE
  5
92B8
330
92B6
100
AcDbEntity
  8
1
  6
ByBlock
 62
     0
100
AcDbLine
 10
517.8511961722488
 20
100.6647232036204
 30
0.0
 11
522.3527638488361
 21
74.64070630641497
 31
0.0
  0
SOLID
  5
92B9
330
92B6
100
AcDbEntity
  8
1
  6
ByBlock
 62
     0
100
AcDbTrace
 10
517.8511961722488
 20
100.6647232036204
 30
0.0
 11
518.5205443376235
 21
98.75080465810007
 31
0.0
 12
517.8636330166235
 22
98.63717382314177
 32
0.0
 13
517.8636330166235
 23
98.63717382314177
 33
0.0
  0
TEXT
  5
92BA
330
92B6
100
AcDbEntity
  8
TOP
  6
ByBlock
 62
     0
100
AcDbText
 10
548.3527638488361
 20
73.14070629651499
 30
0.0
 40
3.000000019799997
  1
 
 41
1.189062500000023
  7
UGMTXT
100
AcDbText
  0
ENDBLK
  5
92BC
330
92B6
100
AcDbEntity
  8
0
100
AcDbBlockEnd
  0
BLOCK
  5
951F
330
9515
100
AcDbEntity
  8
0
100
AcDbBlockBegin
  2
*D19
 70
     1
 10
0.0
 20
0.0
 30
0.0
  3
*D19
  1

  0
LINE
  5
95F0
330
9515
100
AcDbEntity
  8
30
 62
     0
100
AcDbLine
 10
-52.49999999999993
 20
-83.50000000000004
 30
0.0
 11
-52.49999999999993
 21
-109.6618080185514
 31
0.0
  0
LINE
  5
95F1
330
9515
100
AcDbEntity
  8
30
 62
     0
100
AcDbLine
 10
52.50000000000007
 20
-83.50000000000004
 30
0.0
 11
52.50000000000007
 21
-109.6618080185514
 31
0.0
  0
LINE
  5
95F2
330
9515
100
AcDbEntity
  8
30
 62
     0
100
AcDbLine
 10
-50.49999999999993
 20
-109.1618080185513
 30
0.0
 11
50.50000000000006
 21
-109.1618080185513
 31
0.0
  0
INSERT
  5
95F3
330
9515
100
AcDbEntity
  8
30
 62
     0
100
AcDbBlockReference
  2
_OPEN
 10
-52.49999999999993
 20
-109.1618080185513
 30
0.0
 41
2.0
 42
2.0
 43
2.0
 50
180.0
  0
INSERT
  5
95F4
330
9515
100
AcDbEntity
  8
30
 62
     0
100
AcDbBlockReference
  2
_OPEN
 10
52.50000000000007
 20
-109.1618080185513
 30
0.0
 41
2.0
 42
2.0
 43
2.0
  0
MTEXT
  5
95F5
330
9515
100
AcDbEntity
  8
30
 62
     0
100
AcDbMText
 10
0.0000000000000641
 20
-106.1618080185513
 30
0.0
 40
4.0
 41
0.0
 71
     5
 72
     1
  1
\A1;105
 73
     1
 44
1.0
1001
ACAD
1000
MTEXTBEGIN
1070
    73
1070
     1
1070
    44
1040
1.0
1070
    74
1070
     0
1000
MTEXTEND
1000
MTEXTBEGIN
1070
    73
1070
     1
1070
    44
1040
1.0
1070
    74
1070
     0
1000
MTEXTEND
1000
MTEXTBEGIN
1070
    73
1070
     1
1070
    44
1040
1.0
1070
    74
1070
     0
1000
MTEXTEND
  0
POINT
  5
95F6
330
9515
100
AcDbEntity
  8
DEFPOINTS
 62
     0
100
AcDbPoint
 10
-52.49999999999993
 20
-82.50000000000005
 30
0.0
  0
POINT
  5
95F7
330
9515
100
AcDbEntity
  8
DEFPOINTS
 62
     0
100
AcDbPoint
 10
52.50000000000007
 20
-82.50000000000005
 30
0.0
  0
POINT
  5
95F8
330
9515
100
AcDbEntity
  8
DEFPOINTS
 62
     0
100
AcDbPoint
 10
52.50000000000007
 20
-109.1618080185513
 30
0.0
  0
ENDBLK
  5
9520
330
9515
100
AcDbEntity
  8
0
100
AcDbBlockEnd
  0
BLOCK
  5
952B
330
9521
100
AcDbEntity
  8
0
100
AcDbBlockBegin
  2
*D20
 70
     1
 10
0.0
 20
0.0
 30
0.0
  3
*D20
  1

  0
LINE
  5
9596
330
9521
100
AcDbEntity
  8
30
 62
     0
100
AcDbLine
 10
-17.49999999999976
 20
-351.0000000165001
 30
0.0
 11
-17.49999999999976
 21
-432.6162544305428
 31
0.0
  0
LINE
  5
9597
330
9521
100
AcDbEntity
  8
30
 62
     0
100
AcDbLine
 10
17.50000000000022
 20
-351.0000000165001
 30
0.0
 11
17.50000000000021
 21
-432.6162544305428
 31
0.0
  0
LINE
  5
9598
330
9521
100
AcDbEntity
  8
30
 62
     0
100
AcDbLine
 10
-15.49999999999974
 20
-432.1162544305428
 30
0.0
 11
15.50000000000021
 21
-432.1162544305428
 31
0.0
  0
INSERT
  5
9599
330
9521
100
AcDbEntity
  8
30
 62
     0
100
AcDbBlockReference
  2
_OPEN
 10
-17.49999999999976
 20
-432.1162544305428
 30
0.0
 41
2.0
 42
2.0
 43
2.0
 50
180.0
  0
INSERT
  5
959A
330
9521
100
AcDbEntity
  8
30
 62
     0
100
AcDbBlockReference
  2
_OPEN
 10
17.50000000000021
 20
-432.1162544305428
 30
0.0
 41
2.0
 42
2.0
 43
2.0
  0
MTEXT
  5
959B
330
9521
100
AcDbEntity
  8
30
 62
     0
100
AcDbMText
 10
0.0000000000002222
 20
-429.1162544305428
 30
0.0
 40
4.0
 41
0.0
 71
     5
 72
     1
  1
\A1;35
 73
     1
 44
1.0
1001
ACAD
1000
MTEXTBEGIN
1070
    73
1070
     1
1070
    44
1040
1.0
1070
    74
1070
     0
1000
MTEXTEND
1000
MTEXTBEGIN
1070
    73
1070
     1
1070
    44
1040
1.0
1070
    74
1070
     0
1000
MTEXTEND
1000
MTEXTBEGIN
1070
    73
1070
     1
1070
    44
1040
1.0
1070
    74
1070
     0
1000
MTEXTEND
  0
POINT
  5
959C
330
9521
100
AcDbEntity
  8
DEFPOINTS
 62
     0
100
AcDbPoint
 10
-17.49999999999976
 20
-350.0000000165001
 30
0.0
  0
POINT
  5
959D
330
9521
100
AcDbEntity
  8
DEFPOINTS
 62
     0
100
AcDbPoint
 10
17.50000000000022
 20
-350.0000000165001
 30
0.0
  0
POINT
  5
959E
330
9521
100
AcDbEntity
  8
DEFPOINTS
 62
     0
100
AcDbPoint
 10
17.50000000000021
 20
-432.1162544305428
 30
0.0
  0
ENDBLK
  5
952C
330
9521
100
AcDbEntity
  8
0
100
AcDbBlockEnd
  0
BLOCK
  5
9537
330
952D
100
AcDbEntity
  8
0
100
AcDbBlockBegin
  2
*D21
 70
     1
 10
0.0
 20
0.0
 30
0.0
  3
*D21
  1

  0
LINE
  5
959F
330
952D
100
AcDbEntity
  8
30
 62
     0
100
AcDbLine
 10
10.00000000000021
 20
-336.0
 30
0.0
 11
10.00000000000021
 21
-424.8662544305426
 31
0.0
  0
LINE
  5
95A0
330
952D
100
AcDbEntity
  8
30
 62
     0
100
AcDbLine
 10
25.00000000000023
 20
-336.0
 30
0.0
 11
25.00000000000022
 21
-424.8662544305426
 31
0.0
  0
LINE
  5
95A1
330
952D
100
AcDbEntity
  8
30
 62
     0
100
AcDbLine
 10
12.00000000000021
 20
-424.3662544305426
 30
0.0
 11
23.00000000000022
 21
-424.3662544305426
 31
0.0
  0
INSERT
  5
95A2
330
952D
100
AcDbEntity
  8
30
 62
     0
100
AcDbBlockReference
  2
_OPEN
 10
10.00000000000021
 20
-424.3662544305426
 30
0.0
 41
2.0
 42
2.0
 43
2.0
 50
180.0
  0
INSERT
  5
95A3
330
952D
100
AcDbEntity
  8
30
 62
     0
100
AcDbBlockReference
  2
_OPEN
 10
25.00000000000022
 20
-424.3662544305426
 30
0.0
 41
2.0
 42
2.0
 43
2.0
  0
MTEXT
  5
95A4
330
952D
100
AcDbEntity
  8
30
 62
     0
100
AcDbMText
 10
17.50000000000021
 20
-421.3662544305425
 30
0.0
 40
4.0
 41
0.0
 71
     5
 72
     1
  1
\A1;15
 73
     1
 44
1.0
1001
ACAD
1000
MTEXTBEGIN
1070
    73
1070
     1
1070
    44
1040
1.0
1070
    74
1070
     0
1000
MTEXTEND
1000
MTEXTBEGIN
1070
    73
1070
     1
1070
    44
1040
1.0
1070
    74
1070
     0
1000
MTEXTEND
1000
MTEXTBEGIN
1070
    73
1070
     1
1070
    44
1040
1.0
1070
    74
1070
     0
1000
MTEXTEND
  0
POINT
  5
95A5
330
952D
100
AcDbEntity
  8
DEFPOINTS
 62
     0
100
AcDbPoint
 10
10.00000000000021
 20
-335.0
 30
0.0
  0
POINT
  5
95A6
330
952D
100
AcDbEntity
  8
DEFPOINTS
 62
     0
100
AcDbPoint
 10
25.00000000000023
 20
-335.0
 30
0.0
  0
POINT
  5
95A7
330
952D
100
AcDbEntity
  8
DEFPOINTS
 62
     0
100
AcDbPoint
 10
25.00000000000022
 20
-424.3662544305426
 30
0.0
  0
ENDBLK
  5
9538
330
952D
100
AcDbEntity
  8
0
100
AcDbBlockEnd
  0
BLOCK
  5
9543
330
9539
100
AcDbEntity
  8
0
100
AcDbBlockBegin
  2
*D22
 70
     1
 10
0.0
 20
0.0
 30
0.0
  3
*D22
  1

  0
LINE
  5
95A8
330
9539
100
AcDbEntity
  8
30
 62
     0
100
AcDbLine
 10
20.00000001649981
 20
-347.5000000000001
 30
0.0
 11
80.74700957412799
 21
-347.5000000000001
 31
0.0
  0
LINE
  5
95A9
330
9539
100
AcDbEntity
  8
30
 62
     0
100
AcDbLine
 10
20.00000001649981
 20
-272.5
 30
0.0
 11
80.74700957412801
 21
-272.5
 31
0.0
  0
LINE
  5
95AA
330
9539
100
AcDbEntity
  8
30
 62
     0
100
AcDbLine
 10
80.247009574128
 20
-345.5000000000001
 30
0.0
 11
80.24700957412802
 21
-274.5
 31
0.0
  0
INSERT
  5
95AB
330
9539
100
AcDbEntity
  8
30
 62
     0
100
AcDbBlockReference
  2
_OPEN
 10
80.247009574128
 20
-347.5000000000001
 30
0.0
 41
2.0
 42
2.0
 43
2.0
 50
270.0
  0
INSERT
  5
95AC
330
9539
100
AcDbEntity
  8
30
 62
     0
100
AcDbBlockReference
  2
_OPEN
 10
80.24700957412802
 20
-272.5
 30
0.0
 41
2.0
 42
2.0
 43
2.0
 50
90.0
  0
MTEXT
  5
95AD
330
9539
100
AcDbEntity
  8
30
 62
     0
100
AcDbMText
 10
77.24700957412807
 20
-310.0000000000001
 30
0.0
 40
4.0
 41
0.0
 71
     5
 72
     1
  1
\A1;75
 11
0.0000000000000001
 21
1.0
 31
0.0
 73
     1
 44
1.0
1001
ACAD
1000
MTEXTBEGIN
1070
    73
1070
     1
1070
    44
1040
1.0
1070
    74
1070
     0
1000
MTEXTEND
1000
MTEXTBEGIN
1070
    73
1070
     1
1070
    44
1040
1.0
1070
    74
1070
     0
1000
MTEXTEND
1000
MTEXTBEGIN
1070
    73
1070
     1
1070
    44
1040
1.0
1070
    74
1070
     0
1000
MTEXTEND
  0
POINT
  5
95AE
330
9539
100
AcDbEntity
  8
DEFPOINTS
 62
     0
100
AcDbPoint
 10
19.0000000164998
 20
-347.5000000000001
 30
0.0
  0
POINT
  5
95AF
330
9539
100
AcDbEntity
  8
DEFPOINTS
 62
     0
100
AcDbPoint
 10
19.0000000164998
 20
-272.5
 30
0.0
  0
POINT
  5
95B0
330
9539
100
AcDbEntity
  8
DEFPOINTS
 62
     0
100
AcDbPoint
 10
80.24700957412802
 20
-272.5
 30
0.0
  0
ENDBLK
  5
9544
330
9539
100
AcDbEntity
  8
0
100
AcDbBlockEnd
  0
BLOCK
  5
954F
330
9545
100
AcDbEntity
  8
0
100
AcDbBlockBegin
  2
*D23
 70
     1
 10
0.0
 20
0.0
 30
0.0
  3
*D23
  1

  0
LINE
  5
95B1
330
9545
100
AcDbEntity
  8
30
 62
     0
100
AcDbLine
 10
24.99999999999977
 20
-335.0
 30
0.0
 11
65.247009574128
 21
-335.0
 31
0.0
  0
LINE
  5
95B2
330
9545
100
AcDbEntity
  8
30
 62
     0
100
AcDbLine
 10
24.99999999999977
 20
-285.0
 30
0.0
 11
65.24700957412801
 21
-285.0
 31
0.0
  0
LINE
  5
95B3
330
9545
100
AcDbEntity
  8
30
 62
     0
100
AcDbLine
 10
64.747009574128
 20
-333.0
 30
0.0
 11
64.74700957412801
 21
-287.0
 31
0.0
  0
INSERT
  5
95B4
330
9545
100
AcDbEntity
  8
30
 62
     0
100
AcDbBlockReference
  2
_OPEN
 10
64.747009574128
 20
-335.0
 30
0.0
 41
2.0
 42
2.0
 43
2.0
 50
270.0
  0
INSERT
  5
95B5
330
9545
100
AcDbEntity
  8
30
 62
     0
100
AcDbBlockReference
  2
_OPEN
 10
64.74700957412801
 20
-285.0
 30
0.0
 41
2.0
 42
2.0
 43
2.0
 50
90.0
  0
MTEXT
  5
95B6
330
9545
100
AcDbEntity
  8
30
 62
     0
100
AcDbMText
 10
61.74700957412802
 20
-310.0
 30
0.0
 40
4.0
 41
0.0
 71
     5
 72
     1
  1
\A1;50
 11
0.0000000000000001
 21
1.0
 31
0.0
 73
     1
 44
1.0
1001
ACAD
1000
MTEXTBEGIN
1070
    73
1070
     1
1070
    44
1040
1.0
1070
    74
1070
     0
1000
MTEXTEND
1000
MTEXTBEGIN
1070
    73
1070
     1
1070
    44
1040
1.0
1070
    74
1070
     0
1000
MTEXTEND
1000
MTEXTBEGIN
1070
    73
1070
     1
1070
    44
1040
1.0
1070
    74
1070
     0
1000
MTEXTEND
  0
POINT
  5
95B7
330
9545
100
AcDbEntity
  8
DEFPOINTS
 62
     0
100
AcDbPoint
 10
23.99999999999977
 20
-335.0
 30
0.0
  0
POINT
  5
95B8
330
9545
100
AcDbEntity
  8
DEFPOINTS
 62
     0
100
AcDbPoint
 10
23.99999999999977
 20
-285.0
 30
0.0
  0
POINT
  5
95B9
330
9545
100
AcDbEntity
  8
DEFPOINTS
 62
     0
100
AcDbPoint
 10
64.74700957412801
 20
-285.0
 30
0.0
  0
ENDBLK
  5
9550
330
9545
100
AcDbEntity
  8
0
100
AcDbBlockEnd
  0
BLOCK
  5
955B
330
9551
100
AcDbEntity
  8
0
100
AcDbBlockBegin
  2
*D24
 70
     1
 10
0.0
 20
0.0
 30
0.0
  3
*D24
  1

  0
LINE
  5
95BA
330
9551
100
AcDbEntity
  8
30
 62
     0
100
AcDbLine
 10
-52.5
 20
25.0
 30
0.0
 11
-66.0029909800545
 21
25.0
 31
0.0
  0
LINE
  5
95BB
330
9551
100
AcDbEntity
  8
30
 62
     0
100
AcDbLine
 10
-52.5
 20
-25.0
 30
0.0
 11
-66.0029909800545
 21
-25.0
 31
0.0
  0
LINE
  5
95BC
330
9551
100
AcDbEntity
  8
30
 62
     0
100
AcDbLine
 10
-65.5029909800545
 20
23.0
 30
0.0
 11
-65.5029909800545
 21
-22.99999999999998
 31
0.0
  0
INSERT
  5
95BD
330
9551
100
AcDbEntity
  8
30
 62
     0
100
AcDbBlockReference
  2
_OPEN
 10
-65.5029909800545
 20
25.0
 30
0.0
 41
2.0
 42
2.0
 43
2.0
 50
90.0
  0
INSERT
  5
95BE
330
9551
100
AcDbEntity
  8
30
 62
     0
100
AcDbBlockReference
  2
_OPEN
 10
-65.5029909800545
 20
-25.0
 30
0.0
 41
2.0
 42
2.0
 43
2.0
 50
270.0
  0
MTEXT
  5
95BF
330
9551
100
AcDbEntity
  8
30
 62
     0
100
AcDbMText
 10
-68.5029909800545
 20
-0.0000000000000063
 30
0.0
 40
4.0
 41
0.0
 71
     5
 72
     1
  1
\A1;50
 11
0.0000000000000001
 21
1.0
 31
0.0
 73
     1
 44
1.0
1001
ACAD
1000
MTEXTBEGIN
1070
    73
1070
     1
1070
    44
1040
1.0
1070
    74
1070
     0
1000
MTEXTEND
1000
MTEXTBEGIN
1070
    73
1070
     1
1070
    44
1040
1.0
1070
    74
1070
     0
1000
MTEXTEND
1000
MTEXTBEGIN
1070
    73
1070
     1
1070
    44
1040
1.0
1070
    74
1070
     0
1000
MTEXTEND
  0
POINT
  5
95C0
330
9551
100
AcDbEntity
  8
DEFPOINTS
 62
     0
100
AcDbPoint
 10
-51.5
 20
25.0
 30
0.0
  0
POINT
  5
95C1
330
9551
100
AcDbEntity
  8
DEFPOINTS
 62
     0
100
AcDbPoint
 10
-51.5
 20
-25.0
 30
0.0
  0
POINT
  5
95C2
330
9551
100
AcDbEntity
  8
DEFPOINTS
 62
     0
100
AcDbPoint
 10
-65.5029909800545
 20
-25.0
 30
0.0
  0
ENDBLK
  5
955C
330
9551
100
AcDbEntity
  8
0
100
AcDbBlockEnd
  0
BLOCK
  5
9567
330
955D
100
AcDbEntity
  8
0
100
AcDbBlockBegin
  2
*D25
 70
     1
 10
0.0
 20
0.0
 30
0.0
  3
*D25
  1

  0
LINE
  5
95C3
330
955D
100
AcDbEntity
  8
30
 62
     0
100
AcDbLine
 10
-53.49999999999994
 20
-51.0
 30
0.0
 11
-80.75299098005459
 21
-50.99999999999999
 31
0.0
  0
LINE
  5
95C4
330
955D
100
AcDbEntity
  8
30
 62
     0
100
AcDbLine
 10
-53.49999999999994
 20
51.0
 30
0.0
 11
-80.75299098005457
 21
51.00000000000001
 31
0.0
  0
LINE
  5
95C5
330
955D
100
AcDbEntity
  8
30
 62
     0
100
AcDbLine
 10
-80.2529909800546
 20
-48.99999999999999
 30
0.0
 11
-80.25299098005456
 21
49.00000000000001
 31
0.0
  0
INSERT
  5
95C6
330
955D
100
AcDbEntity
  8
30
 62
     0
100
AcDbBlockReference
  2
_OPEN
 10
-80.2529909800546
 20
-50.99999999999999
 30
0.0
 41
2.0
 42
2.0
 43
2.0
 50
270.0
  0
INSERT
  5
95C7
330
955D
100
AcDbEntity
  8
30
 62
     0
100
AcDbBlockReference
  2
_OPEN
 10
-80.25299098005456
 20
51.00000000000001
 30
0.0
 41
2.0
 42
2.0
 43
2.0
 50
90.0
  0
MTEXT
  5
95C8
330
955D
100
AcDbEntity
  8
30
 62
     0
100
AcDbMText
 10
-83.25299098005457
 20
-0.0000000000000089
 30
0.0
 40
4.0
 41
0.0
 71
     5
 72
     1
  1
\A1;102
 11
0.0000000000000001
 21
1.0
 31
0.0
 73
     1
 44
1.0
1001
ACAD
1000
MTEXTBEGIN
1070
    73
1070
     1
1070
    44
1040
1.0
1070
    74
1070
     0
1000
MTEXTEND
1000
MTEXTBEGIN
1070
    73
1070
     1
1070
    44
1040
1.0
1070
    74
1070
     0
1000
MTEXTEND
1000
MTEXTBEGIN
1070
    73
1070
     1
1070
    44
1040
1.0
1070
    74
1070
     0
1000
MTEXTEND
  0
POINT
  5
95C9
330
955D
100
AcDbEntity
  8
DEFPOINTS
 62
     0
100
AcDbPoint
 10
-52.49999999999993
 20
-51.0
 30
0.0
  0
POINT
  5
95CA
330
955D
100
AcDbEntity
  8
DEFPOINTS
 62
     0
100
AcDbPoint
 10
-52.49999999999993
 20
51.0
 30
0.0
  0
POINT
  5
95CB
330
955D
100
AcDbEntity
  8
DEFPOINTS
 62
     0
100
AcDbPoint
 10
-80.25299098005456
 20
51.00000000000001
 30
0.0
  0
ENDBLK
  5
9568
330
955D
100
AcDbEntity
  8
0
100
AcDbBlockEnd
  0
BLOCK
  5
9573
330
9569
100
AcDbEntity
  8
0
100
AcDbBlockBegin
  2
*D26
 70
     1
 10
0.0
 20
0.0
 30
0.0
  3
*D26
  1

  0
LINE
  5
95CC
330
9569
100
AcDbEntity
  8
30
 62
     0
100
AcDbLine
 10
53.50000000000006
 20
-82.50000000000005
 30
0.0
 11
72.12200957887777
 21
-82.50000000000005
 31
0.0
  0
LINE
  5
95CD
330
9569
100
AcDbEntity
  8
30
 62
     0
100
AcDbLine
 10
53.50000000000006
 20
82.5
 30
0.0
 11
72.12200957887779
 21
82.5
 31
0.0
  0
LINE
  5
95CE
330
9569
100
AcDbEntity
  8
30
 62
     0
100
AcDbLine
 10
71.62200957887776
 20
-80.50000000000004
 30
0.0
 11
71.6220095788778
 21
80.5
 31
0.0
  0
INSERT
  5
95CF
330
9569
100
AcDbEntity
  8
30
 62
     0
100
AcDbBlockReference
  2
_OPEN
 10
71.62200957887776
 20
-82.50000000000005
 30
0.0
 41
2.0
 42
2.0
 43
2.0
 50
270.0
  0
INSERT
  5
95D0
330
9569
100
AcDbEntity
  8
30
 62
     0
100
AcDbBlockReference
  2
_OPEN
 10
71.6220095788778
 20
82.5
 30
0.0
 41
2.0
 42
2.0
 43
2.0
 50
90.0
  0
MTEXT
  5
95D1
330
9569
100
AcDbEntity
  8
30
 62
     0
100
AcDbMText
 10
68.62200957887778
 20
-0.0000000000000111
 30
0.0
 40
4.0
 41
0.0
 71
     5
 72
     1
  1
\A1;165
 11
0.0000000000000001
 21
1.0
 31
0.0
 73
     1
 44
1.0
1001
ACAD
1000
MTEXTBEGIN
1070
    73
1070
     1
1070
    44
1040
1.0
1070
    74
1070
     0
1000
MTEXTEND
1000
MTEXTBEGIN
1070
    73
1070
     1
1070
    44
1040
1.0
1070
    74
1070
     0
1000
MTEXTEND
1000
MTEXTBEGIN
1070
    73
1070
     1
1070
    44
1040
1.0
1070
    74
1070
     0
1000
MTEXTEND
  0
POINT
  5
95D2
330
9569
100
AcDbEntity
  8
DEFPOINTS
 62
     0
100
AcDbPoint
 10
52.50000000000007
 20
-82.50000000000005
 30
0.0
  0
POINT
  5
95D3
330
9569
100
AcDbEntity
  8
DEFPOINTS
 62
     0
100
AcDbPoint
 10
52.50000000000007
 20
82.5
 30
0.0
  0
POINT
  5
95D4
330
9569
100
AcDbEntity
  8
DEFPOINTS
 62
     0
100
AcDbPoint
 10
71.6220095788778
 20
82.5
 30
0.0
  0
ENDBLK
  5
9574
330
9569
100
AcDbEntity
  8
0
100
AcDbBlockEnd
  0
BLOCK
  5
957F
330
9575
100
AcDbEntity
  8
0
100
AcDbBlockBegin
  2
*D27
 70
     1
 10
0.0
 20
0.0
 30
0.0
  3
*D27
  1

  0
LINE
  5
960F
330
9575
100
AcDbEntity
  8
30
 62
     0
100
AcDbLine
 10
52.99998493607614
 20
-89.99999601728335
 30
0.0
 11
88.87200957887777
 21
-89.99999601728335
 31
0.0
  0
LINE
  5
9610
330
9575
100
AcDbEntity
  8
30
 62
     0
100
AcDbLine
 10
52.99998493607614
 20
90.00001234200977
 30
0.0
 11
88.87200957887779
 21
90.00001234200977
 31
0.0
  0
LINE
  5
9611
330
9575
100
AcDbEntity
  8
30
 62
     0
100
AcDbLine
 10
88.37200957887779
 20
-87.99999601728336
 30
0.0
 11
88.37200957887779
 21
88.00001234200976
 31
0.0
  0
INSERT
  5
9612
330
9575
100
AcDbEntity
  8
30
 62
     0
100
AcDbBlockReference
  2
_OPEN
 10
88.37200957887779
 20
-89.99999601728335
 30
0.0
 41
2.0
 42
2.0
 43
2.0
 50
270.0
  0
INSERT
  5
9613
330
9575
100
AcDbEntity
  8
30
 62
     0
100
AcDbBlockReference
  2
_OPEN
 10
88.37200957887779
 20
90.00001234200977
 30
0.0
 41
2.0
 42
2.0
 43
2.0
 50
90.0
  0
MTEXT
  5
9614
330
9575
100
AcDbEntity
  8
30
 62
     0
100
AcDbMText
 10
85.37200957887778
 20
0.0000081623632176
 30
0.0
 40
4.0
 41
0.0
 71
     5
 72
     1
  1
\A1;180
 11
0.0000000000000001
 21
1.0
 31
0.0
 73
     1
 44
1.0
1001
ACAD
1000
MTEXTBEGIN
1070
    73
1070
     1
1070
    44
1040
1.0
1070
    74
1070
     0
1000
MTEXTEND
1000
MTEXTBEGIN
1070
    73
1070
     1
1070
    44
1040
1.0
1070
    74
1070
     0
1000
MTEXTEND
1000
MTEXTBEGIN
1070
    73
1070
     1
1070
    44
1040
1.0
1070
    74
1070
     0
1000
MTEXTEND
  0
POINT
  5
9615
330
9575
100
AcDbEntity
  8
DEFPOINTS
 62
     0
100
AcDbPoint
 10
51.99998493607615
 20
-89.99999601728335
 30
0.0
  0
POINT
  5
9616
330
9575
100
AcDbEntity
  8
DEFPOINTS
 62
     0
100
AcDbPoint
 10
51.99998493607615
 20
90.00001234200977
 30
0.0
  0
POINT
  5
9617
330
9575
100
AcDbEntity
  8
DEFPOINTS
 62
     0
100
AcDbPoint
 10
88.37200957887779
 20
90.00001234200977
 30
0.0
  0
ENDBLK
  5
9580
330
9575
100
AcDbEntity
  8
0
100
AcDbBlockEnd
  0
BLOCK
  5
958B
330
9581
100
AcDbEntity
  8
0
100
AcDbBlockBegin
  2
*D28
 70
     1
 10
0.0
 20
0.0
 30
0.0
  3
*D28
  1

  0
LINE
  5
95DE
330
9581
100
AcDbEntity
  8
30
 62
     0
100
AcDbLine
 10
-49.0
 20
26.0
 30
0.0
 11
-49.0
 21
35.71319198619852
 31
0.0
  0
LINE
  5
95DF
330
9581
100
AcDbEntity
  8
30
 62
     0
100
AcDbLine
 10
49.00000000000005
 20
26.0
 30
0.0
 11
49.00000000000005
 21
35.71319198619852
 31
0.0
  0
LINE
  5
95E0
330
9581
100
AcDbEntity
  8
30
 62
     0
100
AcDbLine
 10
-47.0
 20
35.21319198619852
 30
0.0
 11
47.00000000000005
 21
35.21319198619852
 31
0.0
  0
INSERT
  5
95E1
330
9581
100
AcDbEntity
  8
30
 62
     0
100
AcDbBlockReference
  2
_OPEN
 10
-49.0
 20
35.21319198619852
 30
0.0
 41
2.0
 42
2.0
 43
2.0
 50
180.0
  0
INSERT
  5
95E2
330
9581
100
AcDbEntity
  8
30
 62
     0
100
AcDbBlockReference
  2
_OPEN
 10
49.00000000000005
 20
35.21319198619852
 30
0.0
 41
2.0
 42
2.0
 43
2.0
  0
MTEXT
  5
95E3
330
9581
100
AcDbEntity
  8
30
 62
     0
100
AcDbMText
 10
0.0000000000000251
 20
38.21319198619852
 30
0.0
 40
4.0
 41
0.0
 71
     5
 72
     1
  1
\A1;98
 73
     1
 44
1.0
1001
ACAD
1000
MTEXTBEGIN
1070
    73
1070
     1
1070
    44
1040
1.0
1070
    74
1070
     0
1000
MTEXTEND
1000
MTEXTBEGIN
1070
    73
1070
     1
1070
    44
1040
1.0
1070
    74
1070
     0
1000
MTEXTEND
1000
MTEXTBEGIN
1070
    73
1070
     1
1070
    44
1040
1.0
1070
    74
1070
     0
1000
MTEXTEND
  0
POINT
  5
95E4
330
9581
100
AcDbEntity
  8
DEFPOINTS
 62
     0
100
AcDbPoint
 10
-49.0
 20
25.0
 30
0.0
  0
POINT
  5
95E5
330
9581
100
AcDbEntity
  8
DEFPOINTS
 62
     0
100
AcDbPoint
 10
49.00000000000005
 20
25.0
 30
0.0
  0
POINT
  5
95E6
330
9581
100
AcDbEntity
  8
DEFPOINTS
 62
     0
100
AcDbPoint
 10
49.00000000000005
 20
35.21319198619852
 30
0.0
  0
ENDBLK
  5
958C
330
9581
100
AcDbEntity
  8
0
100
AcDbBlockEnd
  0
BLOCK
  5
9604
330
95FA
100
AcDbEntity
  8
0
100
AcDbBlockBegin
  2
*D29
 70
     1
 10
0.0
 20
0.0
 30
0.0
  3
*D29
  1

  0
LINE
  5
9606
330
95FA
100
AcDbEntity
  8
30
  6
Continuous
 62
     0
100
AcDbLine
 10
22.49998687346175
 20
100.0000074234532
 30
0.0
 11
104.4999999999999
 21
100.0000074234532
 31
0.0
  0
LINE
  5
9607
330
95FA
100
AcDbEntity
  8
30
  6
Continuous
 62
     0
100
AcDbLine
 10
22.49998687346175
 20
-99.99999157183882
 30
0.0
 11
104.4999999999999
 21
-99.99999157183886
 31
0.0
  0
LINE
  5
9608
330
95FA
100
AcDbEntity
  8
30
  6
Continuous
 62
     0
100
AcDbLine
 10
104.0
 20
98.00000742345327
 30
0.0
 11
104.0
 21
-97.99999157183883
 31
0.0
  0
INSERT
  5
9609
330
95FA
100
AcDbEntity
  8
30
  6
Continuous
 62
     0
100
AcDbBlockReference
  2
_OPEN
 10
104.0
 20
100.0000074234532
 30
0.0
 41
2.0
 42
2.0
 43
2.0
 50
90.0
  0
INSERT
  5
960A
330
95FA
100
AcDbEntity
  8
30
  6
Continuous
 62
     0
100
AcDbBlockReference
  2
_OPEN
 10
104.0
 20
-99.99999157183886
 30
0.0
 41
2.0
 42
2.0
 43
2.0
 50
270.0
  0
MTEXT
  5
960B
330
95FA
100
AcDbEntity
  8
30
  6
Continuous
 62
     0
100
AcDbMText
 10
101.0
 20
0.000007925807233
 30
0.0
 40
4.0
 41
0.0
 71
     5
 72
     1
  1
\A1;200
 11
0.0000000000000001
 21
1.0
 31
0.0
 73
     1
 44
1.0
1001
ACAD
1000
MTEXTBEGIN
1070
    73
1070
     1
1070
    44
1040
1.0
1070
    74
1070
     0
1000
MTEXTEND
1000
MTEXTBEGIN
1070
    73
1070
     1
1070
    44
1040
1.0
1070
    74
1070
     0
1000
MTEXTEND
1000
MTEXTBEGIN
1070
    73
1070
     1
1070
    44
1040
1.0
1070
    74
1070
     0
1000
MTEXTEND
  0
POINT
  5
960C
330
95FA
100
AcDbEntity
  8
DEFPOINTS
  6
Continuous
 62
     0
100
AcDbPoint
 10
21.49998687346175
 20
100.0000074234532
 30
0.0
  0
POINT
  5
960D
330
95FA
100
AcDbEntity
  8
DEFPOINTS
  6
Continuous
 62
     0
100
AcDbPoint
 10
21.49998687346175
 20
-99.99999157183882
 30
0.0
  0
POINT
  5
960E
330
95FA
100
AcDbEntity
  8
DEFPOINTS
  6
Continuous
 62
     0
100
AcDbPoint
 10
104.0
 20
-99.99999157183886
 30
0.0
  0
ENDBLK
  5
9605
330
95FA
100
AcDbEntity
  8
0
100
AcDbBlockEnd
  0
ENDSEC
  0
SECTION
  2
ENTITIES
  0
MTEXT
  5
BF3
330
1E
100
AcDbEntity
  8
24
  6
Continuous
100
AcDbMText
 10
142.1181906098743
 20
177.5
 30
0.0
 40
3.0
 41
0.0
 71
     1
 72
     1
  1
\A1;
 73
     1
 44
1.0
1001
ACAD
1000
MTEXTBEGIN
1070
    73
1070
     1
1070
    44
1040
1.0
1070
    74
1070
     0
1000
MTEXTEND
1000
MTEXTBEGIN
1070
    73
1070
     1
1070
    44
1040
1.0
1070
    74
1070
     0
1000
MTEXTEND
1000
MTEXTBEGIN
1070
    73
1070
     1
1070
    44
1040
1.0
1070
    74
1070
     0
1000
MTEXTEND
  0
TEXT
  5
BF4
330
1E
100
AcDbEntity
  8
30
100
AcDbText
 10
321.0978220781311
 20
150.6967119356038
 30
0.0
 40
4.0
  1
%%C9
100
AcDbText
  0
LINE
  5
2260
330
1E
100
AcDbEntity
  8
16
100
AcDbLine
 10
127.2641627211668
 20
-310.0
 30
0.0
 11
-61.60868885537138
 21
-310.0
 31
0.0
  0
LINE
  5
2261
330
1E
100
AcDbEntity
  8
16
100
AcDbLine
 10
0.0
 20
-446.0
 30
0.0
 11
0.0
 21
-177.2499999999799
 31
0.0
  0
MTEXT
  5
4B2E
330
1E
100
AcDbEntity
  8
30
  6
Continuous
 62
     2
100
AcDbMText
 10
268.061460244221
 20
-10.61653703766022
 30
0.0
 40
4.0
 41
0.0
 71
     1
 72
     1
  1
 
 73
     1
 44
1.0
1001
ACAD
1000
MTEXTBEGIN
1070
    73
1070
     1
1070
    44
1040
1.0
1070
    74
1070
     0
1000
MTEXTEND
1000
MTEXTBEGIN
1070
    73
1070
     1
1070
    44
1040
1.0
1070
    74
1070
     0
1000
MTEXTEND
1000
MTEXTBEGIN
1070
    73
1070
     1
1070
    44
1040
1.0
1070
    74
1070
     0
1000
MTEXTEND
  0
LWPOLYLINE
  5
5803
330
1E
100
AcDbEntity
  8
16
100
AcDbPolyline
 90
        2
 70
     0
 43
0.001
 10
0.0
 20
109.9505615234199
 10
0.0
 20
-121.91400146485
  0
LINE
  5
5938
330
1E
100
AcDbEntity
  8
16
100
AcDbLine
 10
99.58329095406677
 20
0.0
 30
0.0
 11
-78.17658291715568
 21
0.0
 31
0.0
  0
LINE
  5
5E0A
330
1E
100
AcDbEntity
  8
16
100
AcDbLine
 10
368.5913216207949
 20
0.0
 30
0.0
 11
190.8314477495724
 21
0.0
 31
0.0
  0
LINE
  5
74E8
330
1E
100
AcDbEntity
  8
10
100
AcDbLine
 10
185.500002408778
 20
161.800439708355
 30
0.0
 11
185.500002408778
 21
149.0000106368466
 31
0.0
  0
ARC
  5
74E9
330
1E
100
AcDbEntity
  8
18
100
AcDbCircle
 10
169.5000054214873
 20
155.5000029393063
 30
0.0
 40
5.999999308398423
100
AcDbArc
 50
180.0
 51
270.0
  0
LINE
  5
74EA
330
1E
100
AcDbEntity
  8
10
100
AcDbLine
 10
160.0
 20
181.0
 30
0.0
 11
160.0
 21
147.0000118510917
 31
0.0
  0
LINE
  5
74EB
330
1E
100
AcDbEntity
  8
10
100
AcDbLine
 10
152.5000103321588
 20
147.5000176033615
 30
0.0
 11
152.5000103321588
 21
181.4246522636983
 31
0.0
  0
INSERT
  5
74ED
330
1E
100
AcDbEntity
  8
30
100
AcDbBlockReference
  2
*U4
 10
-210.7352011726184
 20
-327.8823475359051
 30
0.0
 41
1.666666474555139
 42
1.666666474555085
 43
1.666666474555118
  0
INSERT
  5
74EE
330
1E
100
AcDbEntity
  8
30
100
AcDbBlockReference
  2
*U3
 10
-210.7352011726184
 20
-327.8823475359051
 30
0.0
 41
1.666666474555139
 42
1.666666474555085
 43
1.666666474555118
  0
INSERT
  5
74EF
330
1E
100
AcDbEntity
  8
30
100
AcDbBlockReference
  2
*U5
 10
-210.7352011726184
 20
-327.8823475359051
 30
0.0
 41
1.666666474555139
 42
1.666666474555085
 43
1.666666474555118
  0
TEXT
  5
74F0
330
1E
100
AcDbEntity
  8
30
100
AcDbText
 10
192.8975648018664
 20
122.1176005939768
 30
0.0
 40
4.166666186387795
  1
M8 nut
 41
0.8216911764705923
  7
UGMTXT
100
AcDbText
  0
LINE
  5
74F1
330
1E
100
AcDbEntity
  8
10
100
AcDbLine
 10
149.5000000418639
 20
146.9925510671515
 30
0.0
 11
140.5000176176288
 21
146.9925510671515
 31
0.0
  0
LINE
  5
74F2
330
1E
100
AcDbEntity
  8
10
100
AcDbLine
 10
153.0000039727664
 20
147.0000118510917
 30
0.0
 11
139.5000061130889
 21
147.0000118510917
 31
0.0
  0
LINE
  5
74F3
330
1E
100
AcDbEntity
  8
10
100
AcDbLine
 10
139.5000061130889
 20
147.3887477623589
 30
0.0
 11
139.5000061130889
 21
147.5000176033615
 31
0.0
  0
LINE
  5
74F4
330
1E
100
AcDbEntity
  8
10
100
AcDbLine
 10
139.5000061130889
 20
147.1091015928908
 30
0.0
 11
139.5000061130889
 21
147.188263417294
 31
0.0
  0
LINE
  5
74F5
330
1E
100
AcDbEntity
  8
10
100
AcDbLine
 10
139.5000061130889
 20
149.0000106368466
 30
0.0
 11
139.5000061130889
 21
147.5000176033615
 31
0.0
  0
LINE
  5
74F6
330
1E
100
AcDbEntity
  8
10
100
AcDbLine
 10
140.0845876027837
 20
146.9920908239863
 30
0.0
 11
140.2182761305931
 21
146.9923451688934
 31
0.0
  0
LINE
  5
74F7
330
1E
100
AcDbEntity
  8
10
100
AcDbLine
 10
139.5000061130889
 20
147.0000118510917
 30
0.0
 11
139.5000061130889
 21
147.0125474215104
 31
0.0
  0
LINE
  5
74F8
330
1E
100
AcDbEntity
  8
10
100
AcDbLine
 10
139.9593772385424
 20
146.9917516974438
 30
0.0
 11
140.0845876027837
 21
146.9920908239863
 31
0.0
  0
LINE
  5
74F9
330
1E
100
AcDbEntity
  8
10
100
AcDbLine
 10
139.5000061130889
 20
147.2830735093116
 30
0.0
 11
139.5000061130889
 21
147.3887477623589
 31
0.0
  0
LINE
  5
74FA
330
1E
100
AcDbEntity
  8
10
100
AcDbLine
 10
139.5000061130889
 20
147.0000118510917
 30
0.0
 11
139.5000061130889
 21
146.9875731739706
 31
0.0
  0
LINE
  5
74FB
330
1E
100
AcDbEntity
  8
10
100
AcDbLine
 10
139.5000061130889
 20
147.0495243263304
 30
0.0
 11
139.5000061130889
 21
147.1091015928908
 31
0.0
  0
LINE
  5
74FC
330
1E
100
AcDbEntity
  8
10
100
AcDbLine
 10
139.5903833367269
 20
146.9896321565518
 30
0.0
 11
139.6587657817363
 21
146.9902619629882
 31
0.0
  0
LINE
  5
74FD
330
1E
100
AcDbEntity
  8
10
100
AcDbLine
 10
139.6587657817363
 20
146.9902619629882
 30
0.0
 11
139.7442498938289
 21
146.9908312111134
 31
0.0
  0
LINE
  5
74FE
330
1E
100
AcDbEntity
  8
10
100
AcDbLine
 10
139.5000061130889
 20
146.9875731739706
 30
0.0
 11
139.510179909371
 21
146.9882756503807
 31
0.0
  0
LINE
  5
74FF
330
1E
100
AcDbEntity
  8
10
100
AcDbLine
 10
139.8451400402914
 20
146.9913277892653
 30
0.0
 11
139.9593772385424
 21
146.9917516974438
 31
0.0
  0
LINE
  5
7500
330
1E
100
AcDbEntity
  8
10
100
AcDbLine
 10
139.510179909371
 20
146.9882756503807
 30
0.0
 11
139.540507511621
 21
146.9889660151286
 31
0.0
  0
LINE
  5
7501
330
1E
100
AcDbEntity
  8
10
100
AcDbLine
 10
139.7442498938289
 20
146.9908312111134
 30
0.0
 11
139.8451400402914
 21
146.9913277892653
 31
0.0
  0
LINE
  5
7502
330
1E
100
AcDbEntity
  8
10
100
AcDbLine
 10
140.2182761305931
 20
146.9923451688934
 30
0.0
 11
140.3577055863044
 21
146.9924905088404
 31
0.0
  0
LINE
  5
7503
330
1E
100
AcDbEntity
  8
10
100
AcDbLine
 10
140.3577055863044
 20
146.9924905088404
 30
0.0
 11
140.5000176176288
 21
146.9925510671515
 31
0.0
  0
LINE
  5
7504
330
1E
100
AcDbEntity
  8
10
100
AcDbLine
 10
139.5000061130889
 20
147.0125474215104
 30
0.0
 11
139.5000061130889
 21
147.0495243263304
 31
0.0
  0
LINE
  5
7505
330
1E
100
AcDbEntity
  8
10
100
AcDbLine
 10
139.5000061130889
 20
147.188263417294
 30
0.0
 11
139.5000061130889
 21
147.2830735093116
 31
0.0
  0
LINE
  5
7506
330
1E
100
AcDbEntity
  8
10
100
AcDbLine
 10
139.540507511621
 20
146.9889660151286
 30
0.0
 11
139.5903833367269
 21
146.9896321565518
 31
0.0
  0
LINE
  5
7507
330
1E
100
AcDbEntity
  8
10
100
AcDbLine
 10
139.5000061130889
 20
146.7819710432348
 30
0.0
 11
139.5000061130889
 21
146.9875731739706
 31
0.0
  0
LINE
  5
7508
330
1E
100
AcDbEntity
  8
10
100
AcDbLine
 10
139.5000061130889
 20
149.0000106368466
 30
0.0
 11
137.4414377242034
 21
149.0000106368466
 31
0.0
  0
LINE
  5
7509
330
1E
100
AcDbEntity
  8
10
100
AcDbLine
 10
185.0000087681703
 20
147.0000118510917
 30
0.0
 11
153.0000039727664
 21
147.0000118510917
 31
0.0
  0
LINE
  5
750A
330
1E
100
AcDbEntity
  8
10
100
AcDbLine
 10
149.5000000418639
 20
147.0000118510917
 30
0.0
 11
149.5000000418639
 21
146.9925510671515
 31
0.0
  0
LINE
  5
750B
330
1E
100
AcDbEntity
  8
10
100
AcDbLine
 10
149.5000000418639
 20
146.9925510671515
 30
0.0
 11
149.5000000418639
 21
146.7819710432349
 31
0.0
  0
ARC
  5
750C
330
1E
100
AcDbEntity
  8
10
100
AcDbCircle
 10
153.0000039727664
 20
147.5000176033615
 30
0.0
 40
0.4999999329946449
100
AcDbArc
 50
180.0
 51
270.0
  0
ARC
  5
750D
330
1E
100
AcDbEntity
  8
0
100
AcDbCircle
 10
185.0000087681703
 20
147.5000176033615
 30
0.0
 40
0.4999999329946449
100
AcDbArc
 50
270.0
 51
0.0
  0
LINE
  5
750E
330
1E
100
AcDbEntity
  8
0
100
AcDbLine
 10
185.500002408778
 20
149.0000106368466
 30
0.0
 11
185.500002408778
 21
147.5000176033615
 31
0.0
  0
TEXT
  5
750F
330
1E
100
AcDbEntity
  8
30
100
AcDbText
 10
209.822476045428
 20
138.784265339528
 30
0.0
 40
4.166666186387795
  1
22 max. conductor width
 41
0.7999540441176404
  7
UGMTXT
100
AcDbText
  0
INSERT
  5
7510
330
1E
100
AcDbEntity
  8
30
100
AcDbBlockReference
  2
*U2
 10
-210.7352011726184
 20
-327.8823475359051
 30
0.0
 41
1.666666474555139
 42
1.666666474555085
 43
1.666666474555118
  0
LINE
  5
7511
330
1E
100
AcDbEntity
  8
18
100
AcDbLine
 10
169.5000054214873
 20
177.500000403434
 30
0.0
 11
213.5000003497427
 21
177.500000403434
 31
0.0
  0
LINE
  5
7512
330
1E
100
AcDbEntity
  8
18
100
AcDbLine
 10
169.5000054214873
 20
152.5000032851069
 30
0.0
 11
213.5000003497427
 21
152.5000032851069
 31
0.0
  0
LINE
  5
7513
330
1E
100
AcDbEntity
  8
18
100
AcDbLine
 10
169.5000054214873
 20
149.500003630908
 30
0.0
 11
213.5000003497427
 21
149.500003630908
 31
0.0
  0
LINE
  5
7514
330
1E
100
AcDbEntity
  8
18
100
AcDbLine
 10
169.5000054214873
 20
180.500000057633
 30
0.0
 11
213.5000003497427
 21
180.500000057633
 31
0.0
  0
DIMENSION
  5
7515
330
1E
100
AcDbEntity
  8
30
100
AcDbDimension
  2
*D6
 10
163.500006113089
 20
195.0
 30
0.0
 11
161.0000064012564
 21
198.0
 31
0.0
 70
    32
 71
     5
 42
-1.0
  3
STANDARD
100
AcDbAlignedDimension
 13
158.5000066894236
 23
187.6944934761773
 33
0.0
 14
163.500006113089
 24
174.5000007492348
 34
0.0
100
AcDbRotatedDimension
  0
DIMENSION
  5
7516
330
1E
100
AcDbEntity
  8
30
100
AcDbDimension
  2
*D7
 10
185.5000087011648
 20
206.4999999999999
 30
0.0
 11
171.0
 21
206.4999999999999
 31
0.0
 70
   160
 71
     5
 42
-1.0
  3
STANDARD
100
AcDbAlignedDimension
 13
158.5000066894236
 23
187.6944934761773
 33
0.0
 14
185.5000087011648
 24
184.1666749512909
 34
0.0
100
AcDbRotatedDimension
  0
LINE
  5
7517
330
1E
100
AcDbEntity
  8
12
100
AcDbLine
 10
170.1000053523273
 20
172.2000010143489
 30
0.0
 11
176.9000045685119
 21
172.2000010143489
 31
0.0
  0
LINE
  5
7518
330
1E
100
AcDbEntity
  8
12
100
AcDbLine
 10
176.9000045685119
 20
168.4472246971874
 30
0.0
 11
170.1000053523272
 21
168.4472246971874
 31
0.0
  0
LINE
  5
7519
330
1E
100
AcDbEntity
  8
12
100
AcDbLine
 10
176.9000045685119
 20
161.552778991354
 30
0.0
 11
170.1000053523272
 21
161.552778991354
 31
0.0
  0
LINE
  5
751A
330
1E
100
AcDbEntity
  8
12
100
AcDbLine
 10
170.1000053523273
 20
157.8000026741927
 30
0.0
 11
176.9000045685119
 21
157.8000026741927
 31
0.0
  0
LINE
  5
751B
330
1E
100
AcDbEntity
  8
10
100
AcDbLine
 10
185.500002408778
 20
181.0
 30
0.0
 11
158.5000066894238
 21
181.0
 31
0.0
  0
LINE
  5
751C
330
1E
100
AcDbEntity
  8
10
100
AcDbLine
 10
158.5000066894238
 20
183.000002106343
 30
0.0
 11
185.0000087681703
 21
183.000002106343
 31
0.0
  0
LINE
  5
751E
330
1E
100
AcDbEntity
  8
10
100
AcDbLine
 10
160.4999999423664
 20
173.5000081199351
 30
0.0
 11
160.4999999423664
 21
165.0000090997041
 31
0.0
  0
LINE
  5
751F
330
1E
100
AcDbEntity
  8
12
100
AcDbLine
 10
163.4999995965656
 20
173.0000081775687
 30
0.0
 11
163.4999995965656
 21
157.0000100218394
 31
0.0
  0
LINE
  5
7520
330
1E
100
AcDbEntity
  8
12
100
AcDbLine
 10
161.6499998098094
 20
173.0000081775687
 30
0.0
 11
161.6499998098094
 21
157.0000100218394
 31
0.0
  0
LINE
  5
7522
330
1E
100
AcDbEntity
  8
12
100
AcDbLine
 10
168.100005582861
 20
173.5000008645016
 30
0.0
 11
168.100005582861
 21
156.5000028240396
 31
0.0
  0
LINE
  5
7523
330
1E
100
AcDbEntity
  8
0
100
AcDbLine
 10
166.5000057672884
 20
174.5000007492348
 30
0.0
 11
166.5000057672884
 21
155.5000029393063
 31
0.0
  0
LINE
  5
7524
330
1E
100
AcDbEntity
  8
12
100
AcDbLine
 10
170.1000053523273
 20
172.7000009567153
 30
0.0
 11
170.1000053523273
 21
157.3000027318258
 31
0.0
  0
LINE
  5
7525
330
1E
100
AcDbEntity
  8
12
100
AcDbLine
 10
166.5000057672882
 20
173.5000008645016
 30
0.0
 11
166.5000057672882
 21
156.5000028240396
 31
0.0
  0
LINE
  5
7527
330
1E
100
AcDbEntity
  8
10
100
AcDbLine
 10
160.4999999423664
 20
165.0000090997041
 30
0.0
 11
160.4999999423664
 21
156.5000100794728
 31
0.0
  0
LINE
  5
7528
330
1E
100
AcDbEntity
  8
12
100
AcDbLine
 10
160.4999999423664
 20
157.4000099757327
 30
0.0
 11
161.6499998098094
 21
157.4000099757327
 31
0.0
  0
LINE
  5
7529
330
1E
100
AcDbEntity
  8
12
100
AcDbLine
 10
161.6499998098094
 20
157.0000100218394
 30
0.0
 11
163.4999995965656
 21
157.0000100218394
 31
0.0
  0
LINE
  5
752A
330
1E
100
AcDbEntity
  8
0
100
AcDbLine
 10
163.500006113089
 20
157.0000027664059
 30
0.0
 11
163.500006113089
 21
155.5000029393063
 31
0.0
  0
LINE
  5
752B
330
1E
100
AcDbEntity
  8
10
100
AcDbLine
 10
160.4999999423664
 20
156.5000100794728
 30
0.0
 11
159.999937500007
 21
156.5000100794728
 31
0.0
  0
LINE
  5
752C
330
1E
100
AcDbEntity
  8
12
100
AcDbLine
 10
166.5000057672882
 20
156.5000028240396
 30
0.0
 11
168.100005582861
 21
156.5000028240396
 31
0.0
  0
LINE
  5
752D
330
1E
100
AcDbEntity
  8
12
100
AcDbLine
 10
168.100005582861
 20
157.3000027318258
 30
0.0
 11
170.1000053523273
 21
157.3000027318258
 31
0.0
  0
ARC
  5
752E
330
1E
100
AcDbEntity
  8
18
100
AcDbCircle
 10
169.5000054214873
 20
155.5000029393063
 30
0.0
 40
2.999999654199211
100
AcDbArc
 50
180.0
 51
270.0
  0
LINE
  5
752F
330
1E
100
AcDbEntity
  8
12
100
AcDbLine
 10
170.1000053523273
 20
165.7500017578204
 30
0.0
 11
168.100005582861
 21
163.7500019883544
 31
0.0
  0
LINE
  5
7530
330
1E
100
AcDbEntity
  8
12
100
AcDbLine
 10
170.1000053523273
 20
166.2500017001869
 30
0.0
 11
168.100005582861
 21
164.250001930721
 31
0.0
  0
LINE
  5
7534
330
1E
100
AcDbEntity
  8
10
100
AcDbLine
 10
150.6582021495806
 20
179.5000102871033
 30
0.0
 11
152.5000103321588
 21
179.5000102871033
 31
0.0
  0
ARC
  5
7535
330
1E
100
AcDbEntity
  8
18
100
AcDbCircle
 10
169.5000054214873
 20
174.5000007492348
 30
0.0
 40
5.999999308398423
100
AcDbArc
 50
90.0
 51
180.0
  0
LINE
  5
7536
330
1E
100
AcDbEntity
  8
12
100
AcDbLine
 10
161.6499998098094
 20
172.6000082236754
 30
0.0
 11
160.4999999423664
 21
172.6000082236754
 31
0.0
  0
LINE
  5
7537
330
1E
100
AcDbEntity
  8
12
100
AcDbLine
 10
163.4999995965656
 20
173.0000081775687
 30
0.0
 11
161.6499998098094
 21
173.0000081775687
 31
0.0
  0
LINE
  5
7538
330
1E
100
AcDbEntity
  8
12
100
AcDbLine
 10
163.500006113089
 20
174.5000007492348
 30
0.0
 11
163.500006113089
 21
172.000001037402
 31
0.0
  0
LINE
  5
7539
330
1E
100
AcDbEntity
  8
10
100
AcDbLine
 10
160.4999999423664
 20
173.5000081199351
 30
0.0
 11
159.999937500007
 21
173.5000081199351
 31
0.0
  0
LINE
  5
753A
330
1E
100
AcDbEntity
  8
12
100
AcDbLine
 10
166.5000057672882
 20
173.5000008645016
 30
0.0
 11
168.100005582861
 21
173.5000008645016
 31
0.0
  0
ARC
  5
753B
330
1E
100
AcDbEntity
  8
18
100
AcDbCircle
 10
169.5000054214873
 20
174.5000007492348
 30
0.0
 40
2.999999654199211
100
AcDbArc
 50
90.0
 51
180.0
  0
LINE
  5
753C
330
1E
100
AcDbEntity
  8
12
100
AcDbLine
 10
168.100005582861
 20
172.7000009567153
 30
0.0
 11
170.1000053523273
 21
172.7000009567153
 31
0.0
  0
LINE
  5
753D
330
1E
100
AcDbEntity
  8
10
100
AcDbLine
 10
158.5000066894238
 20
187.6944934761773
 30
0.0
 11
158.5000066894238
 21
181.0
 31
0.0
  0
LINE
  5
753E
330
1E
100
AcDbEntity
  8
10
100
AcDbLine
 10
185.500002408778
 20
181.5000090728583
 30
0.0
 11
185.500002408778
 21
168.1998925253961
 31
0.0
  0
LINE
  5
753F
330
1E
100
AcDbEntity
  8
12
100
AcDbLine
 10
176.9000045685119
 20
172.2000010143489
 30
0.0
 11
176.9000045685119
 21
157.8000026741927
 31
0.0
  0
LINE
  5
7540
330
1E
100
AcDbEntity
  8
12
100
AcDbLine
 10
176.8998109775695
 20
161.8000094685581
 30
0.0
 11
189.0754276647441
 21
161.8000094685581
 31
0.0
  0
LINE
  5
7541
330
1E
100
AcDbEntity
  8
12
100
AcDbLine
 10
189.0754276647441
 20
168.2000087308498
 30
0.0
 11
176.8998109775695
 21
168.2000087308498
 31
0.0
  0
ARC
  5
7542
330
1E
100
AcDbEntity
  8
12
100
AcDbCircle
 10
183.9999972335936
 20
165.0000090997041
 30
0.0
 40
5.999999308398423
100
AcDbArc
 50
5.739170477268022
 51
32.23095263550188
  0
LINE
  5
7543
330
1E
100
AcDbEntity
  8
12
100
AcDbLine
 10
189.9699211680986
 20
165.6000090305439
 30
0.0
 11
189.0754276647441
 21
165.6000090305439
 31
0.0
  0
LINE
  5
7544
330
1E
100
AcDbEntity
  8
12
100
AcDbLine
 10
189.0754276647441
 20
168.2000087308498
 30
0.0
 11
189.0754276647441
 21
165.6000090305439
 31
0.0
  0
LINE
  5
7545
330
1E
100
AcDbEntity
  8
12
100
AcDbLine
 10
189.0754276647441
 20
165.6000090305439
 30
0.0
 11
187.4999968301595
 21
165.6000090305439
 31
0.0
  0
ARC
  5
7546
330
1E
100
AcDbEntity
  8
12
100
AcDbCircle
 10
183.9999972335936
 20
165.0000090997041
 30
0.0
 40
5.999999308398423
100
AcDbArc
 50
327.7690473644981
 51
354.2608295227318
  0
LINE
  5
7547
330
1E
100
AcDbEntity
  8
12
100
AcDbLine
 10
189.0754276647441
 20
164.4000091688639
 30
0.0
 11
189.9699211680986
 21
164.4000091688639
 31
0.0
  0
LINE
  5
7548
330
1E
100
AcDbEntity
  8
12
100
AcDbLine
 10
189.0754276647441
 20
164.4000091688639
 30
0.0
 11
189.0754276647441
 21
161.8000094685581
 31
0.0
  0
LINE
  5
7549
330
1E
100
AcDbEntity
  8
12
100
AcDbLine
 10
187.4999968301595
 20
164.4000091688639
 30
0.0
 11
189.0754276647441
 21
164.4000091688639
 31
0.0
  0
LINE
  5
754A
330
1E
100
AcDbEntity
  8
12
100
AcDbLine
 10
187.4999968301595
 20
165.6000090305439
 30
0.0
 11
187.4999968301595
 21
164.4000091688639
 31
0.0
  0
ARC
  5
754B
330
1E
100
AcDbEntity
  8
10
100
AcDbCircle
 10
185.0000087681703
 20
182.5000084657358
 30
0.0
 40
0.4999999329946449
100
AcDbArc
 50
0.0
 51
90.0
  0
LINE
  5
754C
330
1E
100
AcDbEntity
  8
10
100
AcDbLine
 10
185.500002408778
 20
182.5000084657358
 30
0.0
 11
185.500002408778
 21
181.5000090728583
 31
0.0
  0
INSERT
  5
754D
330
1E
100
AcDbEntity
  8
30
100
AcDbBlockReference
  2
*U1
 10
-210.7352011726184
 20
-327.8823475359051
 30
0.0
 41
1.666666474555139
 42
1.666666474555085
 43
1.666666474555118
  0
DIMENSION
  5
75CC
330
1E
100
AcDbEntity
  8
30
100
AcDbDimension
  2
*D8
 10
365.0
 20
135.0
 30
0.0
 11
353.0
 21
135.0
 31
0.0
 70
   160
  1
22(max)
 71
     5
 42
-1.0
  3
STANDARD
100
AcDbAlignedDimension
 13
340.0000000000001
 23
145.9999999999999
 33
0.0
 14
365.0
 24
145.9999999999999
 34
0.0
 50
180.0
100
AcDbRotatedDimension
  0
CIRCLE
  5
75D1
330
1E
100
AcDbEntity
  8
24
100
AcDbCircle
 10
352.4999999999998
 20
155.9999999999999
 30
0.0
 40
4.499999999999997
  0
LINE
  5
75D2
330
1E
100
AcDbEntity
  8
24
100
AcDbLine
 10
340.0
 20
145.9999999999999
 30
0.0
 11
364.9999999999998
 21
145.9999999999999
 31
0.0
  0
LINE
  5
75D3
330
1E
100
AcDbEntity
  8
17
100
AcDbLine
 10
346.2499999999998
 20
155.9999999999999
 30
0.0
 11
358.7499999999998
 21
155.9999999999999
 31
0.0
  0
LINE
  5
75D5
330
1E
100
AcDbEntity
  8
17
100
AcDbLine
 10
352.4999999999998
 20
162.2499999999999
 30
0.0
 11
352.4999999999998
 21
149.7499999999999
 31
0.0
  0
LINE
  5
75D6
330
1E
100
AcDbEntity
  8
24
100
AcDbLine
 10
340.0
 20
177.9999999999998
 30
0.0
 11
340.0
 21
145.9999999999999
 31
0.0
  0
LINE
  5
75DA
330
1E
100
AcDbEntity
  8
24
100
AcDbLine
 10
365.0
 20
178.1499034991688
 30
0.0
 11
365.0
 21
145.9999999999999
 31
0.0
  0
DIMENSION
  5
75DC
330
1E
100
AcDbEntity
  8
30
100
AcDbDimension
  2
*D9
 10
375.322607660254
 20
155.9999999999999
 30
0.0
 11
381.0
 21
150.0
 31
0.0
 70
   160
  1
15.5(max)
 71
     5
 42
-1.0
  3
STANDARD
100
AcDbAlignedDimension
 13
365.0
 23
145.9999999999999
 33
0.0
 14
355.0000000164997
 24
155.9999999999999
 34
0.0
 50
270.0
100
AcDbRotatedDimension
1001
ACAD
1000
DSTYLE
1002
{
1070
   287
1070
     5
1070
   287
1070
     5
1070
   287
1070
     5
1070
   279
1070
     2
1002
}
  0
DIMENSION
  5
7E90
330
1E
100
AcDbEntity
  8
30
100
AcDbDimension
  2
*D10
 10
354.8314483638288
 20
-130.0
 30
0.0
 11
267.3314480567007
 21
-127.0
 31
0.0
 70
    32
 71
     5
 42
-1.0
  3
STANDARD
100
AcDbAlignedDimension
 13
179.8314477495724
 23
-2.500000016499996
 33
0.0
 14
354.8314483638288
 24
-89.99999206798291
 34
0.0
 50
180.0
100
AcDbRotatedDimension
  0
DIMENSION
  5
7E91
330
1E
100
AcDbEntity
  8
30
100
AcDbDimension
  2
*D11
 10
354.8314483638288
 20
-120.0
 30
0.0
 11
277.3314480567008
 21
-117.0
 31
0.0
 70
    32
 71
     5
 42
-1.0
  3
STANDARD
100
AcDbAlignedDimension
 13
199.8314477495726
 23
-25.0
 33
0.0
 14
354.8314483638288
 24
-89.99999206798291
 34
0.0
 50
180.0
100
AcDbRotatedDimension
  0
DIMENSION
  5
7E92
330
1E
100
AcDbEntity
  8
30
100
AcDbDimension
  2
*D12
 10
199.8314477495726
 20
-120.0
 30
0.0
 11
206.1647810829061
 21
-117.0
 31
0.0
 70
    32
 71
     5
 42
-1.0
  3
STANDARD
100
AcDbAlignedDimension
 13
195.8314477495724
 23
-25.0
 33
0.0
 14
199.8314477495726
 24
-25.0
 34
0.0
 50
180.0
100
AcDbRotatedDimension
  0
DIMENSION
  5
7E93
330
1E
100
AcDbEntity
  8
30
100
AcDbDimension
  2
*D13
 10
381.83144719539
 20
-108.9999999999996
 30
0.0
 11
368.3314477796096
 21
-105.9999999999996
 31
0.0
 70
    32
 71
     5
 42
-1.0
  3
STANDARD
100
AcDbAlignedDimension
 13
354.8314483638288
 23
-52.9999976631225
 33
0.0
 14
381.83144719539
 24
-86.99999305169422
 34
0.0
 50
180.0
100
AcDbRotatedDimension
  0
DIMENSION
  5
7E94
330
1E
100
AcDbEntity
  8
30
100
AcDbDimension
  2
*D14
 10
354.8314483638288
 20
-110.0
 30
0.0
 11
279.3314480567008
 21
-107.0
 31
0.0
 70
    32
 71
     5
 42
-1.0
  3
STANDARD
100
AcDbAlignedDimension
 13
203.8314477495724
 23
-51.0
 33
0.0
 14
354.8314483638288
 24
-89.99999206798291
 34
0.0
 50
180.0
100
AcDbRotatedDimension
  0
DIMENSION
  5
7E9D
330
1E
100
AcDbEntity
  8
30
100
AcDbDimension
  2
*D15
 10
306.8314477495726
 20
-100.0
 30
0.0
 11
258.8314477495726
 21
-97.0
 31
0.0
 70
    32
 71
     5
 42
-1.0
  3
STANDARD
100
AcDbAlignedDimension
 13
210.8314477495726
 23
-82.50000000000005
 33
0.0
 14
306.8314477495726
 24
-82.5
 34
0.0
 50
180.0
100
AcDbRotatedDimension
  0
SPLINE
  5
859F
330
1E
100
AcDbEntity
  8
30
  6
Continuous
100
AcDbSpline
210
0.0
220
0.0
230
1.0
 70
     8
 71
     3
 72
    10
 73
     6
 74
     4
 42
0.0000000001
 43
0.0000000001
 44
0.0000000001
 40
0.0
 40
0.0
 40
0.0
 40
0.0
 40
8.602325267042626
 40
24.75781968844613
 40
36.79941426723843
 40
36.79941426723843
 40
36.79941426723843
 40
36.79941426723843
 10
336.0
 20
175.0
 30
0.0
 10
338.2417750636664
 20
177.3532097637381
 30
0.0
 10
344.6936890619604
 20
184.1258370721854
 30
0.0
 10
357.6653968919886
 20
168.8347580679875
 30
0.0
 10
364.2065809270335
 20
178.0602462164097
 30
0.0
 10
367.0
 20
182.0
 30
0.0
 11
336.0
 21
175.0
 31
0.0
 11
343.0
 21
180.0
 31
0.0
 11
358.0
 21
174.0
 31
0.0
 11
367.0
 21
182.0
 31
0.0
  0
LEADER
  5
85EE
330
1E
100
AcDbEntity
  8
30
100
AcDbLeader
  3
STANDARD
 76
     3
 10
347.9999999999998
 20
155.9999999999999
 30
0.0
 10
333.1458822902714
 20
149.1406466247162
 30
0.0
 10
321.1458822902713
 20
149.1406466247162
 30
0.0
211
-1.0
221
0.0
231
0.0
210
0.0
220
0.0
230
-1.0
1001
ACAD
1000
DSTYLE
1002
{
1070
     5
1000
OPEN
1070
   342
1005
3B2
1002
}
  0
LINE
  5
8B9F
330
1E
100
AcDbEntity
  8
10
100
AcDbLine
 10
311.831457401958
 20
49.50000593230466
 30
0.0
 11
348.8314513149628
 21
49.50000593230466
 31
0.0
  0
LINE
  5
8BA0
330
1E
100
AcDbEntity
  8
10
100
AcDbLine
 10
348.8314513149628
 20
49.99999963054503
 30
0.0
 11
313.8314564182467
 21
49.99999963054503
 31
0.0
  0
LINE
  5
8BA1
330
1E
100
AcDbEntity
  8
10
100
AcDbLine
 10
348.8314513149628
 20
57.50000199745958
 30
0.0
 11
312.3314511001983
 21
57.50000199745958
 31
0.0
  0
LINE
  5
8BA2
330
1E
100
AcDbEntity
  8
10
100
AcDbLine
 10
312.3314511001983
 20
88.00000516335785
 30
0.0
 11
335.8314455974225
 21
88.00000516335785
 31
0.0
  0
LINE
  5
8BA3
330
1E
100
AcDbEntity
  8
10
100
AcDbLine
 10
328.8314611520756
 20
-48.49999431249671
 30
0.0
 11
311.831457401958
 21
-48.49999431249671
 31
0.0
  0
LINE
  5
8BA4
330
1E
100
AcDbEntity
  8
10
100
AcDbLine
 10
311.831457401958
 20
48.49999431249671
 30
0.0
 11
328.8314611520756
 21
48.49999431249671
 31
0.0
  0
LINE
  5
8BA5
330
1E
100
AcDbEntity
  8
10
100
AcDbLine
 10
335.8314455974225
 20
-87.9999930516942
 30
0.0
 11
312.3314511001983
 21
-87.9999930516942
 31
0.0
  0
LINE
  5
8BA6
330
1E
100
AcDbEntity
  8
10
100
AcDbLine
 10
347.6243544702986
 20
-49.49999382064106
 30
0.0
 11
311.831457401958
 21
-49.49999382064106
 31
0.0
  0
LINE
  5
8BA7
330
1E
100
AcDbEntity
  8
10
100
AcDbLine
 10
312.3314511001983
 20
-57.49998988579591
 30
0.0
 11
348.8314513149628
 21
-57.49998988579591
 31
0.0
  0
LINE
  5
8BA8
330
1E
100
AcDbEntity
  8
10
100
AcDbLine
 10
313.8314564182467
 20
-49.99998751888142
 30
0.0
 11
348.8312333050174
 21
-49.99998751888142
 31
0.0
  0
LINE
  5
8BA9
330
1E
100
AcDbEntity
  8
17
100
AcDbLine
 10
391.83144719539
 20
-72.0
 30
0.0
 11
296.8314471953902
 21
-72.0
 31
0.0
  0
LINE
  5
8BAA
330
1E
100
AcDbEntity
  8
17
100
AcDbLine
 10
391.83144719539
 20
72.0
 30
0.0
 11
296.8314471953902
 21
72.0
 31
0.0
  0
ARC
  5
8BAB
330
1E
100
AcDbEntity
  8
10
100
AcDbCircle
 10
210.8314477495726
 20
0.0
 30
0.0
 40
31.0
100
AcDbArc
 50
150.5534441956585
 51
180.0
  0
LINE
  5
8BAC
330
1E
100
AcDbEntity
  8
10
100
AcDbLine
 10
306.8314477495726
 20
82.5
 30
0.0
 11
306.8314477495726
 21
-82.5
 31
0.0
  0
LINE
  5
8BAD
330
1E
100
AcDbEntity
  8
10
100
AcDbLine
 10
199.8314477495726
 20
25.0
 30
0.0
 11
199.8314477495726
 21
-25.0
 31
0.0
  0
LINE
  5
8BAE
330
1E
100
AcDbEntity
  8
10
100
AcDbLine
 10
203.8314477495724
 20
51.0
 30
0.0
 11
203.8314477495724
 21
-51.0
 31
0.0
  0
LINE
  5
8BAF
330
1E
100
AcDbEntity
  8
10
100
AcDbLine
 10
195.8314477495726
 20
25.0
 30
0.0
 11
195.8314477495726
 21
-25.0
 31
0.0
  0
LINE
  5
8BB1
330
1E
100
AcDbEntity
  8
10
100
AcDbLine
 10
195.8314477495726
 20
-25.0
 30
0.0
 11
203.8314477495724
 21
-25.0
 31
0.0
  0
LINE
  5
8BB2
330
1E
100
AcDbEntity
  8
10
100
AcDbLine
 10
210.8314477495726
 20
-51.0
 30
0.0
 11
210.8314477495726
 21
-82.5
 31
0.0
  0
LINE
  5
8BB3
330
1E
100
AcDbEntity
  8
10
100
AcDbLine
 10
311.831457401958
 20
-48.49999431249671
 30
0.0
 11
311.831457401958
 21
-84.49998871735715
 31
0.0
  0
LINE
  5
8BB4
330
1E
100
AcDbEntity
  8
10
100
AcDbLine
 10
210.8314477495726
 20
-82.5
 30
0.0
 11
306.8314477495726
 21
-82.5
 31
0.0
  0
LINE
  5
8BB5
330
1E
100
AcDbEntity
  8
10
100
AcDbLine
 10
306.8314477495726
 20
-84.69998861898607
 30
0.0
 11
306.8314477495726
 21
-82.5
 31
0.0
  0
LINE
  5
8BB6
330
1E
100
AcDbEntity
  8
10
100
AcDbLine
 10
311.831457401958
 20
-84.49998871735715
 30
0.0
 11
311.831457401958
 21
-84.68079163212223
 31
0.0
  0
LINE
  5
8BB7
330
1E
100
AcDbEntity
  8
10
100
AcDbLine
 10
306.8314477495726
 20
-84.69998861898607
 30
0.0
 11
306.8314477495726
 21
-84.49998871735715
 31
0.0
  0
LINE
  5
8BB8
330
1E
100
AcDbEntity
  8
10
100
AcDbLine
 10
300.331457002466
 20
-84.69998861898607
 30
0.0
 11
306.8314477495726
 21
-84.69998861898607
 31
0.0
  0
LINE
  5
8BB9
330
1E
100
AcDbEntity
  8
10
100
AcDbLine
 10
300.331457002466
 20
-89.99999206798291
 30
0.0
 11
311.3314394803903
 21
-89.99999206798291
 31
0.0
  0
LINE
  5
8BBA
330
1E
100
AcDbEntity
  8
10
100
AcDbLine
 10
311.3314394803903
 20
-92.49999689417569
 30
0.0
 11
300.331457002466
 21
-92.49999689417569
 31
0.0
  0
LINE
  5
8BBB
330
1E
100
AcDbEntity
  8
10
100
AcDbLine
 10
306.8314477495726
 20
-86.49998773364588
 30
0.0
 11
300.331457002466
 21
-86.49998773364588
 31
0.0
  0
ARC
  5
8BBC
330
1E
100
AcDbEntity
  8
10
100
AcDbCircle
 10
300.331457002466
 20
-90.49999787788692
 30
0.0
 40
0.4999999906281083
100
AcDbArc
 50
90.0
 51
180.0
  0
ARC
  5
8BBD
330
1E
100
AcDbEntity
  8
10
100
AcDbCircle
 10
300.331457002466
 20
-85.99999403540552
 30
0.0
 40
0.4999999906281083
100
AcDbArc
 50
180.0
 51
270.0
  0
ARC
  5
8BBE
330
1E
100
AcDbEntity
  8
10
100
AcDbCircle
 10
300.331457002466
 20
-85.19999442889005
 30
0.0
 40
0.4999999906281083
100
AcDbArc
 50
90.0
 51
180.0
  0
ARC
  5
8BBF
330
1E
100
AcDbEntity
  8
10
100
AcDbCircle
 10
300.331457002466
 20
-91.99999108427164
 30
0.0
 40
0.4999999906281083
100
AcDbArc
 50
180.0
 51
270.0
  0
LINE
  5
8BC0
330
1E
100
AcDbEntity
  8
10
100
AcDbLine
 10
299.8314633042257
 20
-89.78172777759027
 30
0.0
 11
299.8314633042257
 21
-89.64231041747101
 31
0.0
  0
LINE
  5
8BC1
330
1E
100
AcDbEntity
  8
10
100
AcDbLine
 10
299.8314633042257
 20
-90.40962064383164
 30
0.0
 11
299.8314633042257
 21
-90.34125030260383
 31
0.0
  0
LINE
  5
8BC2
330
1E
100
AcDbEntity
  8
10
100
AcDbLine
 10
299.8314633042257
 20
-86.24423784429836
 30
0.0
 11
299.8314633042257
 21
-86.15874161068859
 31
0.0
  0
LINE
  5
8BC3
330
1E
100
AcDbEntity
  8
10
100
AcDbLine
 10
299.8314633042257
 20
-90.25574195733044
 30
0.0
 11
299.8314633042257
 21
-90.15485179923871
 31
0.0
  0
LINE
  5
8BC4
330
1E
100
AcDbEntity
  8
10
100
AcDbLine
 10
299.8314633042257
 20
-90.49999787788692
 30
0.0
 11
299.8314633042257
 21
-90.48981196876869
 31
0.0
  0
LINE
  5
8BC5
330
1E
100
AcDbEntity
  8
10
100
AcDbLine
 10
299.8314633042257
 20
-86.85768149582145
 30
0.0
 11
299.8314633042257
 21
-86.71826413570215
 31
0.0
  0
LINE
  5
8BC6
330
1E
100
AcDbEntity
  8
10
100
AcDbLine
 10
299.8314633042257
 20
-86.15874161068859
 30
0.0
 11
299.8314633042257
 21
-86.09035915779717
 31
0.0
  0
LINE
  5
8BC7
330
1E
100
AcDbEntity
  8
10
100
AcDbLine
 10
299.8314633042257
 20
-89.64231041747101
 30
0.0
 11
299.8314633042257
 21
-89.49998625807893
 31
0.0
  0
LINE
  5
8BC8
330
1E
100
AcDbEntity
  8
10
100
AcDbLine
 10
299.8314633042257
 20
-86.09035915779717
 30
0.0
 11
299.8314633042257
 21
-86.04049543860581
 31
0.0
  0
LINE
  5
8BC9
330
1E
100
AcDbEntity
  8
10
100
AcDbLine
 10
299.8314633042257
 20
-86.01016783286016
 30
0.0
 11
299.8314633042257
 21
-85.99999403540552
 31
0.0
  0
LINE
  5
8BCA
330
1E
100
AcDbEntity
  8
10
100
AcDbLine
 10
299.8314633042257
 20
-90.45948436302294
 30
0.0
 11
299.8314633042257
 21
-90.40962064383164
 31
0.0
  0
LINE
  5
8BCB
330
1E
100
AcDbEntity
  8
10
100
AcDbLine
 10
299.8314633042257
 20
-90.48981196876869
 30
0.0
 11
299.8314633042257
 21
-90.45948436302294
 31
0.0
  0
LINE
  5
8BCC
330
1E
100
AcDbEntity
  8
10
100
AcDbLine
 10
299.8314633042257
 20
-90.34125030260383
 30
0.0
 11
299.8314633042257
 21
-90.25574195733044
 31
0.0
  0
LINE
  5
8BCD
330
1E
100
AcDbEntity
  8
10
100
AcDbLine
 10
299.8314633042257
 20
-86.34512800239008
 30
0.0
 11
299.8314633042257
 21
-86.24423784429836
 31
0.0
  0
LINE
  5
8BCE
330
1E
100
AcDbEntity
  8
10
100
AcDbLine
 10
299.8314633042257
 20
-86.58457559248294
 30
0.0
 11
299.8314633042257
 21
-86.45935310214554
 31
0.0
  0
LINE
  5
8BCF
330
1E
100
AcDbEntity
  8
10
100
AcDbLine
 10
299.8314633042257
 20
-89.91540420914587
 30
0.0
 11
299.8314633042257
 21
-89.78172777759027
 31
0.0
  0
LINE
  5
8BD0
330
1E
100
AcDbEntity
  8
10
100
AcDbLine
 10
299.8314633042257
 20
-87.0000419902044
 30
0.0
 11
299.8314633042257
 21
-85.69998812713041
 31
0.0
  0
LINE
  5
8BD1
330
1E
100
AcDbEntity
  8
10
100
AcDbLine
 10
299.8314633042257
 20
-86.99999354354988
 30
0.0
 11
299.8314633042257
 21
-86.85768149582145
 31
0.0
  0
LINE
  5
8BD2
330
1E
100
AcDbEntity
  8
10
100
AcDbLine
 10
299.8314633042257
 20
-85.99999403540552
 30
0.0
 11
299.8314633042257
 21
-85.19999442889005
 31
0.0
  0
LINE
  5
8BD3
330
1E
100
AcDbEntity
  8
10
100
AcDbLine
 10
299.8314633042257
 20
-90.15485179923871
 30
0.0
 11
299.8314633042257
 21
-90.04063881114687
 31
0.0
  0
LINE
  5
8BD4
330
1E
100
AcDbEntity
  8
10
100
AcDbLine
 10
299.8314633042257
 20
-86.71826413570215
 30
0.0
 11
299.8314633042257
 21
-86.58457559248294
 31
0.0
  0
LINE
  5
8BD5
330
1E
100
AcDbEntity
  8
10
100
AcDbLine
 10
299.8314633042257
 20
-86.45935310214554
 30
0.0
 11
299.8314633042257
 21
-86.34512800239008
 31
0.0
  0
LINE
  5
8BD6
330
1E
100
AcDbEntity
  8
10
100
AcDbLine
 10
299.8314633042257
 20
-86.04049543860581
 30
0.0
 11
299.8314633042257
 21
-86.01016783286016
 31
0.0
  0
LINE
  5
8BD7
330
1E
100
AcDbEntity
  8
10
100
AcDbLine
 10
299.8314633042257
 20
-90.04063881114687
 30
0.0
 11
299.8314633042257
 21
-89.91540420914587
 31
0.0
  0
LINE
  5
8BD8
330
1E
100
AcDbEntity
  8
10
100
AcDbLine
 10
299.8314633042257
 20
-89.49998625807893
 30
0.0
 11
299.8314633042257
 21
-86.99999354354988
 31
0.0
  0
LINE
  5
8BD9
330
1E
100
AcDbEntity
  8
10
100
AcDbLine
 10
299.8314633042257
 20
-91.99999108427164
 30
0.0
 11
299.8314633042257
 21
-90.49999787788692
 31
0.0
  0
ARC
  5
8BDA
330
1E
100
AcDbEntity
  8
10
100
AcDbCircle
 10
312.3314511001983
 20
-87.49998724179024
 30
0.0
 40
0.4999999906281083
100
AcDbArc
 50
180.0
 51
270.0
  0
ARC
  5
8BDB
330
1E
100
AcDbEntity
  8
10
100
AcDbCircle
 10
311.3314394803903
 20
-90.49999787788692
 30
0.0
 40
0.4999999906281083
100
AcDbArc
 50
0.0
 51
90.0
  0
ARC
  5
8BDC
330
1E
100
AcDbEntity
  8
10
100
AcDbCircle
 10
311.3314394803903
 20
-85.99999403540552
 30
0.0
 40
0.4999999906281083
100
AcDbArc
 50
270.0
 51
0.0
  0
ARC
  5
8BDD
330
1E
100
AcDbEntity
  8
10
100
AcDbCircle
 10
311.3314394803903
 20
-91.99999108427164
 30
0.0
 40
0.4999999906281083
100
AcDbArc
 50
270.0
 51
0.0
  0
LINE
  5
8BDE
330
1E
100
AcDbEntity
  8
10
100
AcDbLine
 10
311.831457401958
 20
-85.9890572031418
 30
0.0
 11
311.831457401958
 21
-85.99999403540552
 31
0.0
  0
LINE
  5
8BDF
330
1E
100
AcDbEntity
  8
10
100
AcDbLine
 10
311.831457401958
 20
-89.78172777759027
 30
0.0
 11
311.831457401958
 21
-89.91540420914587
 31
0.0
  0
LINE
  5
8BE0
330
1E
100
AcDbEntity
  8
10
100
AcDbLine
 10
311.831457401958
 20
-90.49999787788692
 30
0.0
 11
311.831457401958
 21
-91.99999108427164
 31
0.0
  0
LINE
  5
8BE1
330
1E
100
AcDbEntity
  8
10
100
AcDbLine
 10
311.831457401958
 20
-89.49998625807893
 30
0.0
 11
311.831457401958
 21
-89.64231041747101
 31
0.0
  0
LINE
  5
8BE2
330
1E
100
AcDbEntity
  8
10
100
AcDbLine
 10
311.831457401958
 20
-85.35209270083669
 30
0.0
 11
311.831457401958
 21
-85.49467120516514
 31
0.0
  0
LINE
  5
8BE3
330
1E
100
AcDbEntity
  8
10
100
AcDbLine
 10
311.831457401958
 20
-85.73447003350342
 30
0.0
 11
311.831457401958
 21
-85.82817797505869
 31
0.0
  0
LINE
  5
8BE4
330
1E
100
AcDbEntity
  8
10
100
AcDbLine
 10
311.831457401958
 20
-90.25574195733044
 30
0.0
 11
311.831457401958
 21
-90.34125030260383
 31
0.0
  0
LINE
  5
8BE5
330
1E
100
AcDbEntity
  8
10
100
AcDbLine
 10
311.831457401958
 20
-85.62276415978431
 30
0.0
 11
311.831457401958
 21
-85.73447003350342
 31
0.0
  0
LINE
  5
8BE6
330
1E
100
AcDbEntity
  8
10
100
AcDbLine
 10
311.831457401958
 20
-87.49998724179024
 30
0.0
 11
311.831457401958
 21
-85.99964279716004
 31
0.0
  0
LINE
  5
8BE7
330
1E
100
AcDbEntity
  8
10
100
AcDbLine
 10
311.831457401958
 20
-90.48981196876869
 30
0.0
 11
311.831457401958
 21
-90.49999787788692
 31
0.0
  0
LINE
  5
8BE8
330
1E
100
AcDbEntity
  8
10
100
AcDbLine
 10
311.831457401958
 20
-84.8589663158782
 30
0.0
 11
311.831457401958
 21
-85.03189664927957
 31
0.0
  0
LINE
  5
8BE9
330
1E
100
AcDbEntity
  8
10
100
AcDbLine
 10
311.831457401958
 20
-86.99998143188624
 30
0.0
 11
311.831457401958
 21
-85.36632390560955
 31
0.0
  0
LINE
  5
8BEA
330
1E
100
AcDbEntity
  8
10
100
AcDbLine
 10
311.831457401958
 20
-85.90251936645927
 30
0.0
 11
311.831457401958
 21
-85.95640415797786
 31
0.0
  0
LINE
  5
8BEB
330
1E
100
AcDbEntity
  8
10
100
AcDbLine
 10
311.831457401958
 20
-90.34125030260383
 30
0.0
 11
311.831457401958
 21
-90.40962064383164
 31
0.0
  0
LINE
  5
8BEC
330
1E
100
AcDbEntity
  8
10
100
AcDbLine
 10
311.3314394803903
 20
-86.49998773364588
 30
0.0
 11
306.8314477495726
 21
-86.49998773364588
 31
0.0
  0
LINE
  5
8BED
330
1E
100
AcDbEntity
  8
10
100
AcDbLine
 10
311.831457401958
 20
-90.40962064383164
 30
0.0
 11
311.831457401958
 21
-90.45948436302294
 31
0.0
  0
LINE
  5
8BEE
330
1E
100
AcDbEntity
  8
10
100
AcDbLine
 10
311.831457401958
 20
-90.45948436302294
 30
0.0
 11
311.831457401958
 21
-90.48981196876869
 31
0.0
  0
LINE
  5
8BEF
330
1E
100
AcDbEntity
  8
10
100
AcDbLine
 10
311.831457401958
 20
-89.91540420914587
 30
0.0
 11
311.831457401958
 21
-90.04063881114687
 31
0.0
  0
LINE
  5
8BF0
330
1E
100
AcDbEntity
  8
10
100
AcDbLine
 10
311.831457401958
 20
-85.19707551795365
 30
0.0
 11
311.831457401958
 21
-85.35209270083669
 31
0.0
  0
LINE
  5
8BF1
330
1E
100
AcDbEntity
  8
10
100
AcDbLine
 10
311.831457401958
 20
-85.03189664927957
 30
0.0
 11
311.831457401958
 21
-85.19707551795365
 31
0.0
  0
LINE
  5
8BF2
330
1E
100
AcDbEntity
  8
10
100
AcDbLine
 10
311.831457401958
 20
-90.15485179923871
 30
0.0
 11
311.831457401958
 21
-90.25574195733044
 31
0.0
  0
LINE
  5
8BF3
330
1E
100
AcDbEntity
  8
10
100
AcDbLine
 10
311.831457401958
 20
-89.64231041747101
 30
0.0
 11
311.831457401958
 21
-89.78172777759027
 31
0.0
  0
LINE
  5
8BF4
330
1E
100
AcDbEntity
  8
10
100
AcDbLine
 10
311.831457401958
 20
-87.49998724179024
 30
0.0
 11
311.831457401958
 21
-89.49998625807893
 31
0.0
  0
LINE
  5
8BF5
330
1E
100
AcDbEntity
  8
10
100
AcDbLine
 10
311.831457401958
 20
-90.04063881114687
 30
0.0
 11
311.831457401958
 21
-90.15485179923871
 31
0.0
  0
LINE
  5
8BF6
330
1E
100
AcDbEntity
  8
10
100
AcDbLine
 10
311.831457401958
 20
-85.82817797505869
 30
0.0
 11
311.831457401958
 21
-85.90251936645927
 31
0.0
  0
LINE
  5
8BF7
330
1E
100
AcDbEntity
  8
10
100
AcDbLine
 10
311.831457401958
 20
-84.68079163212223
 30
0.0
 11
311.831457401958
 21
-84.8589663158782
 31
0.0
  0
LINE
  5
8BF8
330
1E
100
AcDbEntity
  8
10
100
AcDbLine
 10
311.831457401958
 20
-85.95640415797786
 30
0.0
 11
311.831457401958
 21
-85.9890572031418
 31
0.0
  0
LINE
  5
8BF9
330
1E
100
AcDbEntity
  8
10
100
AcDbLine
 10
311.831457401958
 20
-85.49467120516514
 30
0.0
 11
311.831457401958
 21
-85.62276415978431
 31
0.0
  0
LINE
  5
8BFA
330
1E
100
AcDbEntity
  8
10
100
AcDbLine
 10
203.8314477495724
 20
-51.0
 30
0.0
 11
210.8314477495726
 21
-51.0
 31
0.0
  0
ARC
  5
8BFB
330
1E
100
AcDbEntity
  8
10
100
AcDbCircle
 10
313.8314564182467
 20
-51.99999864683377
 30
0.0
 40
1.999999962512431
100
AcDbArc
 50
90.0
 51
180.0
  0
ARC
  5
8BFC
330
1E
100
AcDbEntity
  8
10
100
AcDbCircle
 10
312.3314511001983
 20
-50.49999332878542
 30
0.0
 40
0.4999999906281083
100
AcDbArc
 50
90.0
 51
180.0
  0
ARC
  5
8BFD
330
1E
100
AcDbEntity
  8
10
100
AcDbCircle
 10
312.3314511001983
 20
-57.99999569569992
 30
0.0
 40
0.4999999906281083
100
AcDbArc
 50
90.0
 51
180.0
  0
ARC
  5
8BFE
330
1E
100
AcDbEntity
  8
10
100
AcDbCircle
 10
312.3314511001983
 20
-51.49999283692977
 30
0.0
 40
0.4999999906281083
100
AcDbArc
 50
180.0
 51
199.7746885488351
  0
LINE
  5
8BFF
330
1E
100
AcDbEntity
  8
10
100
AcDbLine
 10
311.831457401958
 20
-56.49989348434246
 30
0.0
 11
311.831457401958
 21
-53.00005871329631
 31
0.0
  0
LINE
  5
8C00
330
1E
100
AcDbEntity
  8
10
100
AcDbLine
 10
313.6506535034816
 20
-49.99998751888142
 30
0.0
 11
313.8314564182467
 21
-49.99998751888142
 31
0.0
  0
LINE
  5
8C01
330
1E
100
AcDbEntity
  8
10
100
AcDbLine
 10
312.3314511001983
 20
-49.99998751888142
 30
0.0
 11
312.3424000441256
 21
-49.99998751888142
 31
0.0
  0
LINE
  5
8C02
330
1E
100
AcDbEntity
  8
10
100
AcDbLine
 10
312.8367739304387
 20
-49.99998751888142
 30
0.0
 11
312.9793524347671
 21
-49.99998751888142
 31
0.0
  0
LINE
  5
8C03
330
1E
100
AcDbEntity
  8
10
100
AcDbLine
 10
313.4724667080618
 20
-49.99998751888142
 30
0.0
 11
313.6506535034816
 21
-49.99998751888142
 31
0.0
  0
LINE
  5
8C04
330
1E
100
AcDbEntity
  8
10
100
AcDbLine
 10
312.3424000441256
 20
-49.99998751888142
 30
0.0
 11
312.3750288659623
 21
-49.99998751888142
 31
0.0
  0
LINE
  5
8C05
330
1E
100
AcDbEntity
  8
10
100
AcDbLine
 10
312.7086809758193
 20
-49.99998751888142
 30
0.0
 11
312.8367739304387
 21
-49.99998751888142
 31
0.0
  0
LINE
  5
8C06
330
1E
100
AcDbEntity
  8
10
100
AcDbLine
 10
313.2995363746605
 20
-49.99998751888142
 30
0.0
 11
313.4724667080618
 21
-49.99998751888142
 31
0.0
  0
LINE
  5
8C07
330
1E
100
AcDbEntity
  8
10
100
AcDbLine
 10
312.5032671605452
 20
-49.99998751888142
 30
0.0
 11
312.5969872137641
 21
-49.99998751888142
 31
0.0
  0
LINE
  5
8C08
330
1E
100
AcDbEntity
  8
10
100
AcDbLine
 10
312.5969872137641
 20
-49.99998751888142
 30
0.0
 11
312.7086809758193
 21
-49.99998751888142
 31
0.0
  0
LINE
  5
8C09
330
1E
100
AcDbEntity
  8
10
100
AcDbLine
 10
312.9793524347671
 20
-49.99998751888142
 30
0.0
 11
313.1343575059866
 21
-49.99998751888142
 31
0.0
  0
LINE
  5
8C0A
330
1E
100
AcDbEntity
  8
10
100
AcDbLine
 10
312.3750288659623
 20
-49.99998751888142
 30
0.0
 11
312.4289257691446
 21
-49.99998751888142
 31
0.0
  0
LINE
  5
8C0B
330
1E
100
AcDbEntity
  8
10
100
AcDbLine
 10
313.1343575059866
 20
-49.99998751888142
 30
0.0
 11
313.2995363746605
 21
-49.99998751888142
 31
0.0
  0
LINE
  5
8C0C
330
1E
100
AcDbEntity
  8
10
100
AcDbLine
 10
312.4289257691446
 20
-49.99998751888142
 30
0.0
 11
312.5032671605452
 21
-49.99998751888142
 31
0.0
  0
LINE
  5
8C0D
330
1E
100
AcDbEntity
  8
10
100
AcDbLine
 10
195.8314477495726
 20
25.0
 30
0.0
 11
203.8314477495724
 21
25.0
 31
0.0
  0
LINE
  5
8C0E
330
1E
100
AcDbEntity
  8
10
100
AcDbLine
 10
183.8361939499773
 20
15.23995644007664
 30
0.0
 11
187.2776525680836
 21
20.15486870581057
 31
0.0
  0
LINE
  5
8C0F
330
1E
100
AcDbEntity
  8
10
100
AcDbLine
 10
195.8314477495726
 20
14.16543683943007
 30
0.0
 11
187.2776525680836
 21
20.15486870581057
 31
0.0
  0
LINE
  5
8C10
330
1E
100
AcDbEntity
  8
10
100
AcDbLine
 10
195.8314477495726
 20
6.840789306861267
 30
0.0
 11
183.8361939499773
 21
15.23995644007664
 31
0.0
  0
LINE
  5
8C11
330
1E
100
AcDbEntity
  8
10
100
AcDbLine
 10
210.8314477495726
 20
82.5
 30
0.0
 11
210.8314477495726
 21
51.0
 31
0.0
  0
LINE
  5
8C12
330
1E
100
AcDbEntity
  8
10
100
AcDbLine
 10
311.831457401958
 20
90.00000417964656
 30
0.0
 11
311.831457401958
 21
48.49999431249671
 31
0.0
  0
LINE
  5
8C13
330
1E
100
AcDbEntity
  8
10
100
AcDbLine
 10
203.8314477495724
 20
51.0
 30
0.0
 11
210.8314477495726
 21
51.0
 31
0.0
  0
ARC
  5
8C14
330
1E
100
AcDbEntity
  8
10
100
AcDbCircle
 10
312.3314511001983
 20
50.50001755211269
 30
0.0
 40
0.4999999906281083
100
AcDbArc
 50
180.0
 51
270.0
  0
ARC
  5
8C15
330
1E
100
AcDbEntity
  8
10
100
AcDbCircle
 10
313.8314564182467
 20
51.99999864683377
 30
0.0
 40
1.999999962512431
100
AcDbArc
 50
180.0
 51
270.0
  0
LINE
  5
8C16
330
1E
100
AcDbEntity
  8
10
100
AcDbLine
 10
312.8367739304387
 20
49.99999963054503
 30
0.0
 11
312.7086809758193
 21
49.99999963054503
 31
0.0
  0
LINE
  5
8C17
330
1E
100
AcDbEntity
  8
10
100
AcDbLine
 10
313.8314564182467
 20
49.99999963054503
 30
0.0
 11
313.6506535034816
 21
49.99999963054503
 31
0.0
  0
LINE
  5
8C18
330
1E
100
AcDbEntity
  8
10
100
AcDbLine
 10
312.9793524347671
 20
49.99999963054503
 30
0.0
 11
312.8367739304387
 21
49.99999963054503
 31
0.0
  0
LINE
  5
8C19
330
1E
100
AcDbEntity
  8
10
100
AcDbLine
 10
313.1343575059866
 20
49.99999963054503
 30
0.0
 11
312.9793524347671
 21
49.99999963054503
 31
0.0
  0
LINE
  5
8C1A
330
1E
100
AcDbEntity
  8
10
100
AcDbLine
 10
312.7086809758193
 20
49.99999963054503
 30
0.0
 11
312.5969872137641
 21
49.99999963054503
 31
0.0
  0
LINE
  5
8C1B
330
1E
100
AcDbEntity
  8
10
100
AcDbLine
 10
313.6506535034816
 20
49.99999963054503
 30
0.0
 11
313.4724667080618
 21
49.99999963054503
 31
0.0
  0
LINE
  5
8C1C
330
1E
100
AcDbEntity
  8
10
100
AcDbLine
 10
312.4289257691446
 20
49.99999963054503
 30
0.0
 11
312.3750288659623
 21
49.99999963054503
 31
0.0
  0
LINE
  5
8C1D
330
1E
100
AcDbEntity
  8
10
100
AcDbLine
 10
312.5032671605452
 20
49.99999963054503
 30
0.0
 11
312.4289257691446
 21
49.99999963054503
 31
0.0
  0
LINE
  5
8C1E
330
1E
100
AcDbEntity
  8
10
100
AcDbLine
 10
312.3424000441256
 20
49.99999963054503
 30
0.0
 11
312.3314511001983
 21
49.99999963054503
 31
0.0
  0
LINE
  5
8C1F
330
1E
100
AcDbEntity
  8
10
100
AcDbLine
 10
313.4724667080618
 20
49.99999963054503
 30
0.0
 11
313.2995363746605
 21
49.99999963054503
 31
0.0
  0
LINE
  5
8C20
330
1E
100
AcDbEntity
  8
10
100
AcDbLine
 10
312.5969872137641
 20
49.99999963054503
 30
0.0
 11
312.5032671605452
 21
49.99999963054503
 31
0.0
  0
LINE
  5
8C21
330
1E
100
AcDbEntity
  8
10
100
AcDbLine
 10
313.2995363746605
 20
49.99999963054503
 30
0.0
 11
313.1343575059866
 21
49.99999963054503
 31
0.0
  0
LINE
  5
8C22
330
1E
100
AcDbEntity
  8
10
100
AcDbLine
 10
312.3750288659623
 20
49.99999963054503
 30
0.0
 11
312.3424000441256
 21
49.99999963054503
 31
0.0
  0
ARC
  5
8C23
330
1E
100
AcDbEntity
  8
10
100
AcDbCircle
 10
312.3314511001983
 20
57.9999956956999
 30
0.0
 40
0.4999999906281083
100
AcDbArc
 50
180.0
 51
270.0
  0
LINE
  5
8C24
330
1E
100
AcDbEntity
  8
10
100
AcDbLine
 10
306.8314477495726
 20
82.5
 30
0.0
 11
210.8314477495726
 21
82.5
 31
0.0
  0
ARC
  5
8C25
330
1E
100
AcDbEntity
  8
10
100
AcDbCircle
 10
312.3314511001983
 20
87.50001146511749
 30
0.0
 40
0.4999999906281083
100
AcDbArc
 50
90.0
 51
180.0
  0
LINE
  5
8C26
330
1E
100
AcDbEntity
  8
10
100
AcDbLine
 10
311.831457401958
 20
87.49998724179022
 30
0.0
 11
311.831457401958
 21
89.49998625807893
 31
0.0
  0
LINE
  5
8C27
330
1E
100
AcDbEntity
  8
10
100
AcDbLine
 10
299.8314633042257
 20
89.49998625807893
 30
0.0
 11
299.8314633042257
 21
86.99999354354986
 31
0.0
  0
LINE
  5
8C28
330
1E
100
AcDbEntity
  8
10
100
AcDbLine
 10
300.331457002466
 20
84.699988618986
 30
0.0
 11
306.8314477495726
 21
84.699988618986
 31
0.0
  0
LINE
  5
8C29
330
1E
100
AcDbEntity
  8
10
100
AcDbLine
 10
306.8314477495726
 20
86.49998773364584
 30
0.0
 11
300.331457002466
 21
86.49998773364584
 31
0.0
  0
ARC
  5
8C2A
330
1E
100
AcDbEntity
  8
10
100
AcDbCircle
 10
-300.331457002466
 20
85.99999403540556
 30
0.0
 40
0.4999999906281083
210
0.0
220
0.0
230
-1.0
100
AcDbArc
 50
0.0
 51
90.0
  0
ARC
  5
8C2B
330
1E
100
AcDbEntity
  8
10
100
AcDbCircle
 10
-300.331457002466
 20
85.19999442889002
 30
0.0
 40
0.4999999906281083
210
0.0
220
0.0
230
-1.0
100
AcDbArc
 50
270.0
 51
0.0
  0
LINE
  5
8C2C
330
1E
100
AcDbEntity
  8
10
100
AcDbLine
 10
299.8314633042257
 20
86.24423784429842
 30
0.0
 11
299.8314633042257
 21
86.15874161068855
 31
0.0
  0
LINE
  5
8C2D
330
1E
100
AcDbEntity
  8
10
100
AcDbLine
 10
299.8314633042257
 20
86.85768149582139
 30
0.0
 11
299.8314633042257
 21
86.71826413570215
 31
0.0
  0
LINE
  5
8C2E
330
1E
100
AcDbEntity
  8
10
100
AcDbLine
 10
299.8314633042257
 20
86.15874161068855
 30
0.0
 11
299.8314633042257
 21
86.09035915779712
 31
0.0
  0
LINE
  5
8C2F
330
1E
100
AcDbEntity
  8
10
100
AcDbLine
 10
299.8314633042257
 20
86.09035915779712
 30
0.0
 11
299.8314633042257
 21
86.04049543860581
 31
0.0
  0
LINE
  5
8C30
330
1E
100
AcDbEntity
  8
10
100
AcDbLine
 10
299.8314633042257
 20
86.01016783286011
 30
0.0
 11
299.8314633042257
 21
85.99999403540556
 31
0.0
  0
LINE
  5
8C31
330
1E
100
AcDbEntity
  8
10
100
AcDbLine
 10
299.8314633042257
 20
86.34512800239008
 30
0.0
 11
299.8314633042257
 21
86.24423784429842
 31
0.0
  0
LINE
  5
8C32
330
1E
100
AcDbEntity
  8
10
100
AcDbLine
 10
299.8314633042257
 20
86.58457559248285
 30
0.0
 11
299.8314633042257
 21
86.45935310214559
 31
0.0
  0
LINE
  5
8C33
330
1E
100
AcDbEntity
  8
10
100
AcDbLine
 10
299.8314633042257
 20
87.0000419902044
 30
0.0
 11
299.8314633042257
 21
85.69998812713036
 31
0.0
  0
LINE
  5
8C34
330
1E
100
AcDbEntity
  8
10
100
AcDbLine
 10
299.8314633042257
 20
86.99999354354986
 30
0.0
 11
299.8314633042257
 21
86.85768149582139
 31
0.0
  0
LINE
  5
8C35
330
1E
100
AcDbEntity
  8
10
100
AcDbLine
 10
299.8314633042257
 20
85.99999403540556
 30
0.0
 11
299.8314633042257
 21
85.19999442889002
 31
0.0
  0
LINE
  5
8C36
330
1E
100
AcDbEntity
  8
10
100
AcDbLine
 10
299.8314633042257
 20
86.71826413570215
 30
0.0
 11
299.8314633042257
 21
86.58457559248285
 31
0.0
  0
LINE
  5
8C37
330
1E
100
AcDbEntity
  8
10
100
AcDbLine
 10
299.8314633042257
 20
86.45935310214559
 30
0.0
 11
299.8314633042257
 21
86.34512800239008
 31
0.0
  0
LINE
  5
8C38
330
1E
100
AcDbEntity
  8
10
100
AcDbLine
 10
299.8314633042257
 20
86.04049543860581
 30
0.0
 11
299.8314633042257
 21
86.01016783286011
 31
0.0
  0
ARC
  5
8C39
330
1E
100
AcDbEntity
  8
10
100
AcDbCircle
 10
-311.3314394803903
 20
85.99999403540556
 30
0.0
 40
0.4999999906281083
210
0.0
220
0.0
230
-1.0
100
AcDbArc
 50
90.0
 51
180.0
  0
LINE
  5
8C3A
330
1E
100
AcDbEntity
  8
10
100
AcDbLine
 10
306.8314477495726
 20
86.49998773364584
 30
0.0
 11
306.8314477495726
 21
82.5
 31
0.0
  0
LINE
  5
8C3B
330
1E
100
AcDbEntity
  8
10
100
AcDbLine
 10
306.8314477495726
 20
84.699988618986
 30
0.0
 11
306.8314477495726
 21
84.49998871735715
 31
0.0
  0
LINE
  5
8C3C
330
1E
100
AcDbEntity
  8
10
100
AcDbLine
 10
311.3314394803903
 20
86.49998773364584
 30
0.0
 11
306.8314477495726
 21
86.49998773364584
 31
0.0
  0
LINE
  5
8C3D
330
1E
100
AcDbEntity
  8
10
100
AcDbLine
 10
300.331457002466
 20
89.99999206798294
 30
0.0
 11
311.3314394803903
 21
89.99999206798294
 31
0.0
  0
LINE
  5
8C3E
330
1E
100
AcDbEntity
  8
10
100
AcDbLine
 10
311.3314394803903
 20
92.49999689417563
 30
0.0
 11
300.331457002466
 21
92.49999689417563
 31
0.0
  0
ARC
  5
8C3F
330
1E
100
AcDbEntity
  8
10
100
AcDbCircle
 10
-300.331457002466
 20
90.49999787788692
 30
0.0
 40
0.4999999906281083
210
0.0
220
0.0
230
-1.0
100
AcDbArc
 50
270.0
 51
0.0
  0
ARC
  5
8C40
330
1E
100
AcDbEntity
  8
10
100
AcDbCircle
 10
-300.331457002466
 20
91.99999108427164
 30
0.0
 40
0.4999999906281083
210
0.0
220
0.0
230
-1.0
100
AcDbArc
 50
0.0
 51
90.0
  0
LINE
  5
8C41
330
1E
100
AcDbEntity
  8
10
100
AcDbLine
 10
299.8314633042257
 20
89.78172777759027
 30
0.0
 11
299.8314633042257
 21
89.64231041747099
 31
0.0
  0
LINE
  5
8C42
330
1E
100
AcDbEntity
  8
10
100
AcDbLine
 10
299.8314633042257
 20
90.40962064383164
 30
0.0
 11
299.8314633042257
 21
90.34125030260383
 31
0.0
  0
LINE
  5
8C43
330
1E
100
AcDbEntity
  8
10
100
AcDbLine
 10
299.8314633042257
 20
90.25574195733041
 30
0.0
 11
299.8314633042257
 21
90.15485179923871
 31
0.0
  0
LINE
  5
8C44
330
1E
100
AcDbEntity
  8
10
100
AcDbLine
 10
299.8314633042257
 20
90.49999787788692
 30
0.0
 11
299.8314633042257
 21
90.48981196876859
 31
0.0
  0
LINE
  5
8C45
330
1E
100
AcDbEntity
  8
10
100
AcDbLine
 10
299.8314633042257
 20
89.64231041747099
 30
0.0
 11
299.8314633042257
 21
89.49998625807893
 31
0.0
  0
LINE
  5
8C46
330
1E
100
AcDbEntity
  8
10
100
AcDbLine
 10
299.8314633042257
 20
90.45948436302294
 30
0.0
 11
299.8314633042257
 21
90.40962064383164
 31
0.0
  0
LINE
  5
8C47
330
1E
100
AcDbEntity
  8
10
100
AcDbLine
 10
299.8314633042257
 20
90.48981196876859
 30
0.0
 11
299.8314633042257
 21
90.45948436302294
 31
0.0
  0
LINE
  5
8C48
330
1E
100
AcDbEntity
  8
10
100
AcDbLine
 10
299.8314633042257
 20
90.34125030260383
 30
0.0
 11
299.8314633042257
 21
90.25574195733041
 31
0.0
  0
LINE
  5
8C49
330
1E
100
AcDbEntity
  8
10
100
AcDbLine
 10
299.8314633042257
 20
89.91540420914589
 30
0.0
 11
299.8314633042257
 21
89.78172777759027
 31
0.0
  0
LINE
  5
8C4A
330
1E
100
AcDbEntity
  8
10
100
AcDbLine
 10
299.8314633042257
 20
90.15485179923871
 30
0.0
 11
299.8314633042257
 21
90.04063881114689
 31
0.0
  0
LINE
  5
8C4B
330
1E
100
AcDbEntity
  8
10
100
AcDbLine
 10
299.8314633042257
 20
90.04063881114689
 30
0.0
 11
299.8314633042257
 21
89.91540420914589
 31
0.0
  0
LINE
  5
8C4C
330
1E
100
AcDbEntity
  8
10
100
AcDbLine
 10
299.8314633042257
 20
91.99999108427164
 30
0.0
 11
299.8314633042257
 21
90.49999787788692
 31
0.0
  0
LINE
  5
8C4D
330
1E
100
AcDbEntity
  8
10
100
AcDbLine
 10
302.2464079166993
 20
89.05187892685717
 30
0.0
 11
302.2463110233907
 21
89.05321120985719
 31
0.0
  0
ARC
  5
8C4E
330
1E
100
AcDbEntity
  8
10
100
AcDbCircle
 10
-311.3314394803903
 20
90.49999787788692
 30
0.0
 40
0.4999999906281083
210
0.0
220
0.0
230
-1.0
100
AcDbArc
 50
180.0
 51
270.0
  0
ARC
  5
8C4F
330
1E
100
AcDbEntity
  8
10
100
AcDbCircle
 10
-311.3314394803903
 20
91.99999108427164
 30
0.0
 40
0.4999999906281083
210
0.0
220
0.0
230
-1.0
100
AcDbArc
 50
90.0
 51
180.0
  0
LINE
  5
8C50
330
1E
100
AcDbEntity
  8
10
100
AcDbLine
 10
311.831457401958
 20
89.78172777759027
 30
0.0
 11
311.831457401958
 21
89.91540420914589
 31
0.0
  0
LINE
  5
8C51
330
1E
100
AcDbEntity
  8
10
100
AcDbLine
 10
311.831457401958
 20
90.49999787788692
 30
0.0
 11
311.831457401958
 21
91.99999108427164
 31
0.0
  0
LINE
  5
8C52
330
1E
100
AcDbEntity
  8
10
100
AcDbLine
 10
311.831457401958
 20
89.49998625807893
 30
0.0
 11
311.831457401958
 21
89.64231041747099
 31
0.0
  0
LINE
  5
8C53
330
1E
100
AcDbEntity
  8
10
100
AcDbLine
 10
311.831457401958
 20
90.25574195733041
 30
0.0
 11
311.831457401958
 21
90.34125030260383
 31
0.0
  0
LINE
  5
8C54
330
1E
100
AcDbEntity
  8
10
100
AcDbLine
 10
311.831457401958
 20
90.48981196876859
 30
0.0
 11
311.831457401958
 21
90.49999787788692
 31
0.0
  0
LINE
  5
8C55
330
1E
100
AcDbEntity
  8
10
100
AcDbLine
 10
311.831457401958
 20
90.34125030260383
 30
0.0
 11
311.831457401958
 21
90.40962064383164
 31
0.0
  0
LINE
  5
8C56
330
1E
100
AcDbEntity
  8
10
100
AcDbLine
 10
311.831457401958
 20
90.40962064383164
 30
0.0
 11
311.831457401958
 21
90.45948436302294
 31
0.0
  0
LINE
  5
8C57
330
1E
100
AcDbEntity
  8
10
100
AcDbLine
 10
311.831457401958
 20
90.45948436302294
 30
0.0
 11
311.831457401958
 21
90.48981196876859
 31
0.0
  0
LINE
  5
8C58
330
1E
100
AcDbEntity
  8
10
100
AcDbLine
 10
311.831457401958
 20
89.91540420914589
 30
0.0
 11
311.831457401958
 21
90.04063881114689
 31
0.0
  0
LINE
  5
8C59
330
1E
100
AcDbEntity
  8
10
100
AcDbLine
 10
311.831457401958
 20
90.15485179923871
 30
0.0
 11
311.831457401958
 21
90.25574195733041
 31
0.0
  0
LINE
  5
8C5A
330
1E
100
AcDbEntity
  8
10
100
AcDbLine
 10
311.831457401958
 20
89.64231041747099
 30
0.0
 11
311.831457401958
 21
89.78172777759027
 31
0.0
  0
LINE
  5
8C5B
330
1E
100
AcDbEntity
  8
10
100
AcDbLine
 10
311.831457401958
 20
90.04063881114689
 30
0.0
 11
311.831457401958
 21
90.15485179923871
 31
0.0
  0
LINE
  5
8C5C
330
1E
100
AcDbEntity
  8
18
100
AcDbLine
 10
357.3314483638288
 20
49.0
 30
0.0
 11
357.3314483638288
 21
-49.0
 31
0.0
  0
LINE
  5
8C5D
330
1E
100
AcDbEntity
  8
10
100
AcDbLine
 10
335.3314518991822
 20
-45.49999578806364
 30
0.0
 11
335.3314518991822
 21
45.50000789972727
 31
0.0
  0
LINE
  5
8C5E
330
1E
100
AcDbEntity
  8
10
100
AcDbLine
 10
354.8314483638288
 20
53.99999766312247
 30
0.0
 11
354.8314483638288
 21
-53.99999766312247
 31
0.0
  0
LINE
  5
8C5F
330
1E
100
AcDbEntity
  8
10
100
AcDbLine
 10
334.8314582009418
 20
45.76384838038399
 30
0.0
 11
334.8314582009418
 21
-45.76383626872028
 31
0.0
  0
LINE
  5
8C60
330
1E
100
AcDbEntity
  8
10
100
AcDbLine
 10
381.83144719539
 20
-55.4999908695072
 30
0.0
 11
381.83144719539
 21
-87.9999930516942
 31
0.0
  0
LINE
  5
8C61
330
1E
100
AcDbEntity
  8
10
100
AcDbLine
 10
348.8314513149628
 20
-89.49998625807893
 30
0.0
 11
348.8314513149628
 21
-49.49999382064106
 31
0.0
  0
LINE
  5
8C62
330
1E
100
AcDbEntity
  8
10
100
AcDbLine
 10
381.3314534971498
 20
-89.99999206798291
 30
0.0
 11
349.3314450132031
 21
-89.99999206798291
 31
0.0
  0
LINE
  5
8C63
330
1E
100
AcDbEntity
  8
10
100
AcDbLine
 10
349.3314450132031
 20
-89.99999206798291
 30
0.0
 11
335.8314455974225
 21
-89.99999206798291
 31
0.0
  0
ARC
  5
8C64
330
1E
100
AcDbEntity
  8
10
100
AcDbCircle
 10
336.8314572172303
 20
-98.99998764128213
 30
0.0
 40
0.9999999812562164
100
AcDbArc
 50
180.0
 51
270.0
  0
LINE
  5
8C65
330
1E
100
AcDbEntity
  8
10
100
AcDbLine
 10
336.6891451695023
 20
-93.80826246519518
 30
0.0
 11
336.8314572172303
 21
-93.80553734087698
 31
0.0
  0
LINE
  5
8C66
330
1E
100
AcDbEntity
  8
10
100
AcDbLine
 10
335.8314455974225
 20
-89.61125611190709
 30
0.0
 11
335.8314455974225
 21
-89.49998625807893
 31
0.0
  0
LINE
  5
8C67
330
1E
100
AcDbEntity
  8
10
100
AcDbLine
 10
345.8314406788661
 20
-99.90962202703485
 30
0.0
 11
345.8314406788661
 21
-99.95948574622619
 31
0.0
  0
LINE
  5
8C68
330
1E
100
AcDbEntity
  8
10
100
AcDbLine
 10
335.8314455974225
 20
-89.89090231360931
 30
0.0
 11
335.8314455974225
 21
-89.81174048008144
 31
0.0
  0
LINE
  5
8C69
330
1E
100
AcDbEntity
  8
10
100
AcDbLine
 10
335.8314455974225
 20
-87.9999930516942
 30
0.0
 11
335.8314455974225
 21
-89.49998625807893
 31
0.0
  0
LINE
  5
8C6A
330
1E
100
AcDbEntity
  8
10
100
AcDbLine
 10
336.4160271544998
 20
-90.00791309600119
 30
0.0
 11
336.5497156977192
 21
-90.00765875106479
 31
0.0
  0
LINE
  5
8C6B
330
1E
100
AcDbEntity
  8
10
100
AcDbLine
 10
345.8314406788661
 20
-93.80553734087698
 30
0.0
 11
336.8314572172303
 21
-93.80553734087698
 31
0.0
  0
LINE
  5
8C6C
330
1E
100
AcDbEntity
  8
10
100
AcDbLine
 10
345.8314406788661
 20
-91.20745226255619
 30
0.0
 11
336.8314572172303
 21
-91.20745226255619
 31
0.0
  0
LINE
  5
8C6D
330
1E
100
AcDbEntity
  8
10
100
AcDbLine
 10
336.2908167758262
 20
-93.84807350356823
 30
0.0
 11
336.4160271544998
 21
-93.82974855648626
 31
0.0
  0
LINE
  5
8C6E
330
1E
100
AcDbEntity
  8
10
100
AcDbLine
 10
345.8314406788661
 20
-89.99999206798291
 30
0.0
 11
345.8314406788661
 21
-90.00745285278298
 31
0.0
  0
LINE
  5
8C6F
330
1E
100
AcDbEntity
  8
10
100
AcDbLine
 10
335.8314455974225
 20
-89.99999206798291
 30
0.0
 11
335.8314455974225
 21
-89.98745649611919
 31
0.0
  0
LINE
  5
8C70
330
1E
100
AcDbEntity
  8
10
100
AcDbLine
 10
335.8719470006231
 20
-93.99799167606035
 30
0.0
 11
335.9218228314778
 21
-93.96217748668734
 31
0.0
  0
LINE
  5
8C71
330
1E
100
AcDbEntity
  8
10
100
AcDbLine
 10
335.8314455974225
 20
-91.47541070884928
 30
0.0
 11
335.8416193948771
 21
-91.43727108005803
 31
0.0
  0
LINE
  5
8C72
330
1E
100
AcDbEntity
  8
10
100
AcDbLine
 10
336.5497156977192
 20
-91.21831642483812
 30
0.0
 11
336.6891451695023
 21
-91.21018949853805
 31
0.0
  0
LINE
  5
8C73
330
1E
100
AcDbEntity
  8
10
100
AcDbLine
 10
336.2908167758262
 20
-90.00825222258301
 30
0.0
 11
336.4160271544998
 21
-90.00791309600119
 31
0.0
  0
LINE
  5
8C74
330
1E
100
AcDbEntity
  8
10
100
AcDbLine
 10
336.6891451695023
 20
-91.21018949853805
 30
0.0
 11
336.8314572172303
 21
-91.20745226255619
 31
0.0
  0
LINE
  5
8C75
330
1E
100
AcDbEntity
  8
10
100
AcDbLine
 10
335.8314455974225
 20
-89.71693037713519
 30
0.0
 11
335.8314455974225
 21
-89.61125611190709
 31
0.0
  0
LINE
  5
8C76
330
1E
100
AcDbEntity
  8
10
100
AcDbLine
 10
345.8314406788661
 20
-90.00745285278298
 30
0.0
 11
336.8314572172303
 21
-90.00745285278298
 31
0.0
  0
LINE
  5
8C77
330
1E
100
AcDbEntity
  8
10
100
AcDbLine
 10
345.8314406788661
 20
-91.20745226255619
 30
0.0
 11
345.8314406788661
 21
-93.80553734087698
 31
0.0
  0
LINE
  5
8C78
330
1E
100
AcDbEntity
  8
10
100
AcDbLine
 10
335.8314455974225
 20
-89.99999206798291
 30
0.0
 11
335.8314455974225
 21
-90.01243074653757
 31
0.0
  0
LINE
  5
8C79
330
1E
100
AcDbEntity
  8
10
100
AcDbLine
 10
336.4160271544998
 20
-93.82974855648626
 30
0.0
 11
336.5497156977192
 21
-93.81638939149523
 31
0.0
  0
LINE
  5
8C7A
330
1E
100
AcDbEntity
  8
10
100
AcDbLine
 10
335.8314455974225
 20
-89.95047958703706
 30
0.0
 11
335.8314455974225
 21
-89.89090231360931
 31
0.0
  0
LINE
  5
8C7B
330
1E
100
AcDbEntity
  8
10
100
AcDbLine
 10
335.8314455974225
 20
-94.07348367550639
 30
0.0
 11
335.8314455974225
 21
-91.47541070884928
 31
0.0
  0
LINE
  5
8C7C
330
1E
100
AcDbEntity
  8
10
100
AcDbLine
 10
336.1765795644071
 20
-91.27290369284763
 30
0.0
 11
336.2908167758262
 21
-91.24998842524748
 31
0.0
  0
LINE
  5
8C7D
330
1E
100
AcDbEntity
  8
10
100
AcDbLine
 10
336.0756894063154
 20
-91.29993692608421
 30
0.0
 11
336.1765795644071
 21
-91.27290369284763
 31
0.0
  0
LINE
  5
8C7E
330
1E
100
AcDbEntity
  8
10
100
AcDbLine
 10
345.8314406788661
 20
-99.28172916079347
 30
0.0
 11
345.8314406788661
 21
-99.41540559234908
 31
0.0
  0
LINE
  5
8C7F
330
1E
100
AcDbEntity
  8
10
100
AcDbLine
 10
345.8314406788661
 20
-99.54062808268645
 30
0.0
 11
345.8314406788661
 21
-99.65485318244192
 31
0.0
  0
LINE
  5
8C80
330
1E
100
AcDbEntity
  8
10
100
AcDbLine
 10
335.9218228314778
 20
-90.01037176371935
 30
0.0
 11
335.9902052843692
 21
-90.00974195721028
 31
0.0
  0
LINE
  5
8C81
330
1E
100
AcDbEntity
  8
10
100
AcDbLine
 10
335.8416193948771
 20
-91.43727108005803
 30
0.0
 11
335.8719470006231
 21
-91.3999187094032
 31
0.0
  0
LINE
  5
8C82
330
1E
100
AcDbEntity
  8
10
100
AcDbLine
 10
335.9902052843692
 20
-90.00974195721028
 30
0.0
 11
336.0756894063154
 21
-90.00917270901934
 31
0.0
  0
LINE
  5
8C83
330
1E
100
AcDbEntity
  8
10
100
AcDbLine
 10
335.8314455974225
 20
-90.01243074653757
 30
0.0
 11
335.8416193948771
 21
-90.01172827004666
 31
0.0
  0
LINE
  5
8C84
330
1E
100
AcDbEntity
  8
10
100
AcDbLine
 10
336.5497156977192
 20
-93.81638939149523
 30
0.0
 11
336.6891451695023
 21
-93.80826246519518
 31
0.0
  0
LINE
  5
8C85
330
1E
100
AcDbEntity
  8
10
100
AcDbLine
 10
336.1765795644071
 20
-90.0086761308103
 30
0.0
 11
336.2908167758262
 21
-90.00825222258301
 31
0.0
  0
LINE
  5
8C86
330
1E
100
AcDbEntity
  8
10
100
AcDbLine
 10
335.8314455974225
 20
-94.07348367550639
 30
0.0
 11
335.8416193948771
 21
-94.0353561583788
 31
0.0
  0
LINE
  5
8C87
330
1E
100
AcDbEntity
  8
10
100
AcDbLine
 10
345.8314406788661
 20
-98.99998764128213
 30
0.0
 11
345.8314406788661
 21
-99.14231180067421
 31
0.0
  0
LINE
  5
8C88
330
1E
100
AcDbEntity
  8
10
100
AcDbLine
 10
345.8314406788661
 20
-99.41540559234908
 30
0.0
 11
345.8314406788661
 21
-99.54062808268645
 31
0.0
  0
LINE
  5
8C89
330
1E
100
AcDbEntity
  8
10
100
AcDbLine
 10
345.8314406788661
 20
-99.84123957414341
 30
0.0
 11
345.8314406788661
 21
-99.90962202703485
 31
0.0
  0
LINE
  5
8C8A
330
1E
100
AcDbEntity
  8
10
100
AcDbLine
 10
335.8416193948771
 20
-90.01172827004666
 30
0.0
 11
335.8719470006231
 21
-90.01103790521938
 31
0.0
  0
LINE
  5
8C8B
330
1E
100
AcDbEntity
  8
10
100
AcDbLine
 10
335.9902052843692
 20
-93.92861606675067
 30
0.0
 11
336.0756894063154
 21
-93.89800989274135
 31
0.0
  0
LINE
  5
8C8C
330
1E
100
AcDbEntity
  8
10
100
AcDbLine
 10
336.0756894063154
 20
-90.00917270901934
 30
0.0
 11
336.1765795644071
 21
-90.0086761308103
 31
0.0
  0
LINE
  5
8C8D
330
1E
100
AcDbEntity
  8
10
100
AcDbLine
 10
335.9902052843692
 20
-91.33054310009354
 30
0.0
 11
336.0756894063154
 21
-91.29993692608421
 31
0.0
  0
LINE
  5
8C8E
330
1E
100
AcDbEntity
  8
10
100
AcDbLine
 10
335.9218228314778
 20
-91.36409240836655
 30
0.0
 11
335.9902052843692
 21
-91.33054310009354
 31
0.0
  0
LINE
  5
8C8F
330
1E
100
AcDbEntity
  8
10
100
AcDbLine
 10
336.5497156977192
 20
-90.00765875106479
 30
0.0
 11
336.6891451695023
 21
-90.00751341110118
 31
0.0
  0
LINE
  5
8C90
330
1E
100
AcDbEntity
  8
10
100
AcDbLine
 10
345.8314406788661
 20
-99.9999871494265
 30
0.0
 11
336.8314572172303
 21
-99.9999871494265
 31
0.0
  0
LINE
  5
8C91
330
1E
100
AcDbEntity
  8
10
100
AcDbLine
 10
336.1765795644071
 20
-93.87097665950475
 30
0.0
 11
336.2908167758262
 21
-93.84807350356823
 31
0.0
  0
LINE
  5
8C92
330
1E
100
AcDbEntity
  8
10
100
AcDbLine
 10
336.6891451695023
 20
-90.00751341110118
 30
0.0
 11
336.8314572172303
 21
-90.00745285278298
 31
0.0
  0
LINE
  5
8C93
330
1E
100
AcDbEntity
  8
10
100
AcDbLine
 10
345.8314406788661
 20
-99.98981335197186
 30
0.0
 11
345.8314406788661
 21
-99.9999871494265
 31
0.0
  0
LINE
  5
8C94
330
1E
100
AcDbEntity
  8
10
100
AcDbLine
 10
345.8314406788661
 20
-99.65485318244192
 30
0.0
 11
345.8314406788661
 21
-99.75574334053362
 31
0.0
  0
LINE
  5
8C95
330
1E
100
AcDbEntity
  8
10
100
AcDbLine
 10
335.8314455974225
 20
-89.98745649611919
 30
0.0
 11
335.8314455974225
 21
-89.95047958703706
 31
0.0
  0
LINE
  5
8C96
330
1E
100
AcDbEntity
  8
10
100
AcDbLine
 10
336.2908167758262
 20
-91.24998842524748
 30
0.0
 11
336.4160271544998
 21
-91.23167558982911
 31
0.0
  0
LINE
  5
8C97
330
1E
100
AcDbEntity
  8
10
100
AcDbLine
 10
335.9218228314778
 20
-93.96217748668734
 30
0.0
 11
335.9902052843692
 21
-93.92861606675067
 31
0.0
  0
LINE
  5
8C98
330
1E
100
AcDbEntity
  8
10
100
AcDbLine
 10
345.8314406788661
 20
-99.75574334053362
 30
0.0
 11
345.8314406788661
 21
-99.84123957414341
 31
0.0
  0
LINE
  5
8C99
330
1E
100
AcDbEntity
  8
10
100
AcDbLine
 10
345.8314406788661
 20
-99.95948574622619
 30
0.0
 11
345.8314406788661
 21
-99.98981335197186
 31
0.0
  0
LINE
  5
8C9A
330
1E
100
AcDbEntity
  8
10
100
AcDbLine
 10
345.8314406788661
 20
-99.14231180067421
 30
0.0
 11
345.8314406788661
 21
-99.28172916079347
 31
0.0
  0
LINE
  5
8C9B
330
1E
100
AcDbEntity
  8
10
100
AcDbLine
 10
345.8314406788661
 20
-93.80553734087698
 30
0.0
 11
345.8314406788661
 21
-98.99998764128213
 31
0.0
  0
LINE
  5
8C9C
330
1E
100
AcDbEntity
  8
10
100
AcDbLine
 10
335.8314455974225
 20
-89.81174048008144
 30
0.0
 11
335.8314455974225
 21
-89.71693037713519
 31
0.0
  0
LINE
  5
8C9D
330
1E
100
AcDbEntity
  8
10
100
AcDbLine
 10
335.8719470006231
 20
-90.01103790521938
 30
0.0
 11
335.9218228314778
 21
-90.01037176371935
 31
0.0
  0
LINE
  5
8C9E
330
1E
100
AcDbEntity
  8
10
100
AcDbLine
 10
345.8314406788661
 20
-90.00745285278298
 30
0.0
 11
345.8314406788661
 21
-91.20745226255619
 31
0.0
  0
LINE
  5
8C9F
330
1E
100
AcDbEntity
  8
10
100
AcDbLine
 10
336.0756894063154
 20
-93.89800989274135
 30
0.0
 11
336.1765795644071
 21
-93.87097665950475
 31
0.0
  0
LINE
  5
8CA0
330
1E
100
AcDbEntity
  8
10
100
AcDbLine
 10
336.4160271544998
 20
-91.23167558982911
 30
0.0
 11
336.5497156977192
 21
-91.21831642483812
 31
0.0
  0
LINE
  5
8CA1
330
1E
100
AcDbEntity
  8
10
100
AcDbLine
 10
335.8719470006231
 20
-91.3999187094032
 30
0.0
 11
335.9218228314778
 21
-91.36409240836655
 31
0.0
  0
LINE
  5
8CA2
330
1E
100
AcDbEntity
  8
10
100
AcDbLine
 10
335.8416193948771
 20
-94.0353561583788
 30
0.0
 11
335.8719470006231
 21
-93.99799167606035
 31
0.0
  0
LINE
  5
8CA3
330
1E
100
AcDbEntity
  8
10
100
AcDbLine
 10
335.8314455974225
 20
-91.47541070884928
 30
0.0
 11
335.8314455974225
 21
-90.01243074653757
 31
0.0
  0
LINE
  5
8CA4
330
1E
100
AcDbEntity
  8
10
100
AcDbLine
 10
335.8314455974225
 20
-98.99998764128213
 30
0.0
 11
335.8314455974225
 21
-94.07348367550639
 31
0.0
  0
ARC
  5
8CA5
330
1E
100
AcDbEntity
  8
10
100
AcDbCircle
 10
349.3314450132031
 20
-89.49998625807893
 30
0.0
 40
0.4999999906281083
100
AcDbArc
 50
180.0
 51
270.0
  0
ARC
  5
8CA6
330
1E
100
AcDbEntity
  8
10
100
AcDbCircle
 10
381.3314534971498
 20
-89.49998625807893
 30
0.0
 40
0.4999999906281083
100
AcDbArc
 50
270.0
 51
0.0
  0
LINE
  5
8CA7
330
1E
100
AcDbEntity
  8
10
100
AcDbLine
 10
381.83144719539
 20
-87.9999930516942
 30
0.0
 11
381.83144719539
 21
-89.49998625807893
 31
0.0
  0
LINE
  5
8CA8
330
1E
100
AcDbEntity
  8
10
100
AcDbLine
 10
354.8314483638288
 20
-53.99999766312247
 30
0.0
 11
381.3314534971498
 21
-53.99999766312247
 31
0.0
  0
LINE
  5
8CA9
330
1E
100
AcDbEntity
  8
12
100
AcDbLine
 10
359.6314483638288
 20
-32.89999999999995
 30
0.0
 11
359.6314483638288
 21
-42.09999999999992
 31
0.0
  0
LINE
  5
8CAA
330
1E
100
AcDbEntity
  8
12
100
AcDbLine
 10
358.3314483638289
 20
-32.5
 30
0.0
 11
358.3314483638289
 21
-42.5
 31
0.0
  0
LINE
  5
8CAB
330
1E
100
AcDbEntity
  8
12
100
AcDbLine
 10
346.3314483638288
 20
-37.5
 30
0.0
 11
374.8314483638289
 21
-37.5
 31
0.0
  0
LINE
  5
8CAC
330
1E
100
AcDbEntity
  8
10
100
AcDbLine
 10
346.831452298674
 20
-47.49999480435234
 30
0.0
 11
337.3314509154709
 21
-47.49999480435234
 31
0.0
  0
LINE
  5
8CAD
330
1E
100
AcDbEntity
  8
10
100
AcDbLine
 10
333.1787490277648
 20
-47.73344712094512
 30
0.0
 11
328.8314611520756
 21
-48.49999431249671
 31
0.0
  0
ARC
  5
8CAE
330
1E
100
AcDbEntity
  8
10
100
AcDbCircle
 10
332.8314591846531
 20
-45.76383626872028
 30
0.0
 40
1.999999962512431
100
AcDbArc
 50
280.0000003611669
 51
0.0
  0
ARC
  5
8CAF
330
1E
100
AcDbEntity
  8
10
100
AcDbCircle
 10
337.3314509154709
 20
-45.49999578806364
 30
0.0
 40
1.999999962512431
100
AcDbArc
 50
180.0
 51
270.0
  0
LINE
  5
8CB0
330
1E
100
AcDbEntity
  8
10
100
AcDbLine
 10
333.8239373496791
 20
-47.49999480435234
 30
0.0
 11
337.3310875655618
 21
-47.49999480435234
 31
0.0
  0
ARC
  5
8CB1
330
1E
100
AcDbEntity
  8
18
100
AcDbCircle
 10
358.3314483638289
 20
-49.0
 30
0.0
 40
1.0
100
AcDbArc
 50
180.0
 51
270.0
  0
ARC
  5
8CB2
330
1E
100
AcDbEntity
  8
18
100
AcDbCircle
 10
358.3314483638289
 20
-49.0
 30
0.0
 40
3.5
100
AcDbArc
 50
180.0
 51
270.0
  0
LINE
  5
8CB3
330
1E
100
AcDbEntity
  8
18
100
AcDbLine
 10
369.8314483638288
 20
-52.5
 30
0.0
 11
369.8314483638288
 21
-50.0
 31
0.0
  0
LINE
  5
8CB4
330
1E
100
AcDbEntity
  8
18
100
AcDbLine
 10
358.3314483638289
 20
-52.5
 30
0.0
 11
369.8314483638288
 21
-52.5
 31
0.0
  0
LINE
  5
8CB5
330
1E
100
AcDbEntity
  8
12
100
AcDbLine
 10
359.6314483638288
 20
-41.89499999999998
 30
0.0
 11
364.3314483638288
 21
-41.89499999999998
 31
0.0
  0
LINE
  5
8CB6
330
1E
100
AcDbEntity
  8
12
100
AcDbLine
 10
359.6314483638288
 20
-35.41440107675839
 30
0.0
 11
364.3314483638288
 21
-35.41440107675839
 31
0.0
  0
LINE
  5
8CB7
330
1E
100
AcDbEntity
  8
12
100
AcDbLine
 10
359.6314483638288
 20
-33.10500000000004
 30
0.0
 11
364.3314483638288
 21
-33.10500000000004
 31
0.0
  0
LINE
  5
8CB8
330
1E
100
AcDbEntity
  8
12
100
AcDbLine
 10
359.6314483638288
 20
-39.58559892324146
 30
0.0
 11
364.3314483638288
 21
-39.58559892324146
 31
0.0
  0
LINE
  5
8CB9
330
1E
100
AcDbEntity
  8
18
100
AcDbLine
 10
358.3314483638289
 20
-50.0
 30
0.0
 11
369.8314483638288
 21
-50.0
 31
0.0
  0
ARC
  5
8CBA
330
1E
100
AcDbEntity
  8
10
100
AcDbCircle
 10
346.831452298674
 20
-49.49999382064106
 30
0.0
 40
1.999999962512431
100
AcDbArc
 50
0.0
 51
90.0
  0
LINE
  5
8CBB
330
1E
100
AcDbEntity
  8
12
100
AcDbLine
 10
357.3314483638288
 20
-42.5
 30
0.0
 11
358.3314483638289
 21
-42.5
 31
0.0
  0
LINE
  5
8CBC
330
1E
100
AcDbEntity
  8
12
100
AcDbLine
 10
358.3314483638289
 20
-42.09999999999992
 30
0.0
 11
359.6314483638288
 21
-42.09999999999992
 31
0.0
  0
LINE
  5
8CBD
330
1E
100
AcDbEntity
  8
10
100
AcDbLine
 10
347.0994107449673
 20
-50.00006018886324
 30
0.0
 11
347.0994107449673
 21
-49.49999382064106
 31
0.0
  0
LINE
  5
8CBE
330
1E
100
AcDbEntity
  8
10
100
AcDbLine
 10
348.8314513149628
 20
-49.49999382064106
 30
0.0
 11
347.6243544702986
 21
-49.49999382064106
 31
0.0
  0
LINE
  5
8CBF
330
1E
100
AcDbEntity
  8
12
100
AcDbLine
 10
369.8314483638288
 20
-35.0
 30
0.0
 11
369.8314483638288
 21
-40.0
 31
0.0
  0
LINE
  5
8CC0
330
1E
100
AcDbEntity
  8
12
100
AcDbLine
 10
364.3314483638288
 20
-35.0
 30
0.0
 11
369.8314483638288
 21
-35.0
 31
0.0
  0
LINE
  5
8CC1
330
1E
100
AcDbEntity
  8
12
100
AcDbLine
 10
364.3314483638288
 20
-40.0
 30
0.0
 11
369.8314483638288
 21
-40.0
 31
0.0
  0
LINE
  5
8CC2
330
1E
100
AcDbEntity
  8
12
100
AcDbLine
 10
364.3314483638288
 20
-33.10500000000004
 30
0.0
 11
364.3314483638288
 21
-41.89499999999998
 31
0.0
  0
LINE
  5
8CC3
330
1E
100
AcDbEntity
  8
12
100
AcDbLine
 10
357.3314483638288
 20
-32.5
 30
0.0
 11
358.3314483638289
 21
-32.5
 31
0.0
  0
LINE
  5
8CC4
330
1E
100
AcDbEntity
  8
12
100
AcDbLine
 10
358.3314483638289
 20
-32.89999999999995
 30
0.0
 11
359.6314483638288
 21
-32.89999999999995
 31
0.0
  0
ARC
  5
8CC5
330
1E
100
AcDbEntity
  8
10
100
AcDbCircle
 10
381.3314534971498
 20
-54.49999136136284
 30
0.0
 40
0.4999999906281083
100
AcDbArc
 50
0.0
 51
90.0
  0
LINE
  5
8CC6
330
1E
100
AcDbEntity
  8
10
100
AcDbLine
 10
381.83144719539
 20
-54.49999136136284
 30
0.0
 11
381.83144719539
 21
-55.4999908695072
 31
0.0
  0
LINE
  5
8CC7
330
1E
100
AcDbEntity
  8
10
100
AcDbLine
 10
348.8314513149628
 20
49.50000593230466
 30
0.0
 11
348.8314513149628
 21
89.50001048140615
 31
0.0
  0
LINE
  5
8CC8
330
1E
100
AcDbEntity
  8
10
100
AcDbLine
 10
381.83144719539
 20
88.00000516335785
 30
0.0
 11
381.83144719539
 21
55.50000298117081
 31
0.0
  0
LINE
  5
8CC9
330
1E
100
AcDbEntity
  8
10
100
AcDbLine
 10
381.3314534971498
 20
53.99999766312247
 30
0.0
 11
354.8314483638288
 21
53.99999766312247
 31
0.0
  0
LINE
  5
8CCA
330
1E
100
AcDbEntity
  8
12
100
AcDbLine
 10
358.3314483638289
 20
42.5
 30
0.0
 11
358.3314483638289
 21
32.5
 31
0.0
  0
LINE
  5
8CCB
330
1E
100
AcDbEntity
  8
12
100
AcDbLine
 10
359.6314483638288
 20
42.09999999999992
 30
0.0
 11
359.6314483638288
 21
32.9
 31
0.0
  0
LINE
  5
8CCC
330
1E
100
AcDbEntity
  8
12
100
AcDbLine
 10
364.3314483638288
 20
41.89500000000001
 30
0.0
 11
364.3314483638288
 21
33.10499999999999
 31
0.0
  0
LINE
  5
8CCD
330
1E
100
AcDbEntity
  8
12
100
AcDbLine
 10
369.8314483638288
 20
40.0
 30
0.0
 11
369.8314483638288
 21
35.0
 31
0.0
  0
LINE
  5
8CCE
330
1E
100
AcDbEntity
  8
12
100
AcDbLine
 10
359.6314483638288
 20
33.10499999999999
 30
0.0
 11
364.3314483638288
 21
33.10499999999999
 31
0.0
  0
LINE
  5
8CCF
330
1E
100
AcDbEntity
  8
12
100
AcDbLine
 10
359.6314483638288
 20
35.41440107675845
 30
0.0
 11
364.3314483638288
 21
35.41440107675845
 31
0.0
  0
LINE
  5
8CD0
330
1E
100
AcDbEntity
  8
12
100
AcDbLine
 10
358.3314483638289
 20
32.9
 30
0.0
 11
359.6314483638288
 21
32.9
 31
0.0
  0
LINE
  5
8CD1
330
1E
100
AcDbEntity
  8
12
100
AcDbLine
 10
357.3314483638288
 20
32.5
 30
0.0
 11
358.3314483638289
 21
32.5
 31
0.0
  0
LINE
  5
8CD2
330
1E
100
AcDbEntity
  8
12
100
AcDbLine
 10
364.3314483638288
 20
35.0
 30
0.0
 11
369.8314483638288
 21
35.0
 31
0.0
  0
LINE
  5
8CD3
330
1E
100
AcDbEntity
  8
12
100
AcDbLine
 10
346.3314483638288
 20
37.5
 30
0.0
 11
374.8314483638289
 21
37.5
 31
0.0
  0
LINE
  5
8CD4
330
1E
100
AcDbEntity
  8
10
100
AcDbLine
 10
337.3314509154709
 20
47.50000691601599
 30
0.0
 11
346.831452298674
 21
47.50000691601599
 31
0.0
  0
LINE
  5
8CD5
330
1E
100
AcDbEntity
  8
10
100
AcDbLine
 10
328.8314611520756
 20
48.49999431249671
 30
0.0
 11
333.1787490277648
 21
47.73347134427242
 31
0.0
  0
ARC
  5
8CD6
330
1E
100
AcDbEntity
  8
10
100
AcDbCircle
 10
332.8314591846531
 20
45.76384838038399
 30
0.0
 40
1.999999962512431
100
AcDbArc
 50
0.0
 51
79.99999963883303
  0
ARC
  5
8CD7
330
1E
100
AcDbEntity
  8
10
100
AcDbCircle
 10
337.3314509154709
 20
45.50000789972727
 30
0.0
 40
1.999999962512431
100
AcDbArc
 50
90.0
 51
180.0
  0
LINE
  5
8CD8
330
1E
100
AcDbEntity
  8
10
100
AcDbLine
 10
337.3314509154709
 20
47.50000691601599
 30
0.0
 11
333.823743563061
 21
47.50000691601599
 31
0.0
  0
ARC
  5
8CD9
330
1E
100
AcDbEntity
  8
18
100
AcDbCircle
 10
358.3314483638289
 20
49.0
 30
0.0
 40
3.5
100
AcDbArc
 50
90.0
 51
180.0
  0
LINE
  5
8CDA
330
1E
100
AcDbEntity
  8
12
100
AcDbLine
 10
359.6314483638288
 20
41.89500000000001
 30
0.0
 11
364.3314483638288
 21
41.89500000000001
 31
0.0
  0
LINE
  5
8CDB
330
1E
100
AcDbEntity
  8
12
100
AcDbLine
 10
359.6314483638288
 20
39.58559892324156
 30
0.0
 11
364.3314483638288
 21
39.58559892324156
 31
0.0
  0
LINE
  5
8CDC
330
1E
100
AcDbEntity
  8
18
100
AcDbLine
 10
358.3314483638289
 20
50.0
 30
0.0
 11
369.8314483638288
 21
50.0
 31
0.0
  0
LINE
  5
8CDD
330
1E
100
AcDbEntity
  8
18
100
AcDbLine
 10
358.3314483638289
 20
52.5
 30
0.0
 11
369.8314483638288
 21
52.5
 31
0.0
  0
ARC
  5
8CDE
330
1E
100
AcDbEntity
  8
18
100
AcDbCircle
 10
358.3314483638289
 20
49.0
 30
0.0
 40
1.0
100
AcDbArc
 50
90.0
 51
180.0
  0
ARC
  5
8CDF
330
1E
100
AcDbEntity
  8
10
100
AcDbCircle
 10
346.831452298674
 20
49.50000593230466
 30
0.0
 40
1.999999962512431
100
AcDbArc
 50
270.0
 51
0.0
  0
LINE
  5
8CE0
330
1E
100
AcDbEntity
  8
12
100
AcDbLine
 10
358.3314483638289
 20
42.09999999999999
 30
0.0
 11
359.6314483638288
 21
42.09999999999999
 31
0.0
  0
LINE
  5
8CE1
330
1E
100
AcDbEntity
  8
12
100
AcDbLine
 10
357.3314483638288
 20
42.5
 30
0.0
 11
358.3314483638289
 21
42.5
 31
0.0
  0
LINE
  5
8CE2
330
1E
100
AcDbEntity
  8
10
100
AcDbLine
 10
347.0994107449673
 20
49.50000593230466
 30
0.0
 11
347.0994107449673
 21
50.00007230052688
 31
0.0
  0
LINE
  5
8CE3
330
1E
100
AcDbEntity
  8
18
100
AcDbLine
 10
369.8314483638288
 20
50.0
 30
0.0
 11
369.8314483638288
 21
52.5
 31
0.0
  0
LINE
  5
8CE4
330
1E
100
AcDbEntity
  8
12
100
AcDbLine
 10
364.3314483638288
 20
40.0
 30
0.0
 11
369.8314483638288
 21
40.0
 31
0.0
  0
ARC
  5
8CE5
330
1E
100
AcDbEntity
  8
10
100
AcDbCircle
 10
381.3314534971498
 20
54.5000155846901
 30
0.0
 40
0.4999999906281083
100
AcDbArc
 50
270.0
 51
0.0
  0
LINE
  5
8CE6
330
1E
100
AcDbEntity
  8
10
100
AcDbLine
 10
381.83144719539
 20
55.50000298117081
 30
0.0
 11
381.83144719539
 21
54.5000155846901
 31
0.0
  0
LINE
  5
8CE7
330
1E
100
AcDbEntity
  8
10
100
AcDbLine
 10
349.3314450132031
 20
90.00000417964656
 30
0.0
 11
381.3314534971498
 21
90.00000417964656
 31
0.0
  0
LINE
  5
8CE8
330
1E
100
AcDbEntity
  8
10
100
AcDbLine
 10
335.8314455974225
 20
90.00000417964656
 30
0.0
 11
349.3314450132031
 21
90.00000417964656
 31
0.0
  0
LINE
  5
8CE9
330
1E
100
AcDbEntity
  8
10
100
AcDbLine
 10
335.8314455974225
 20
89.50001048140615
 30
0.0
 11
335.8314455974225
 21
87.50001146511749
 31
0.0
  0
ARC
  5
8CEA
330
1E
100
AcDbEntity
  8
10
100
AcDbCircle
 10
336.8314572172303
 20
99.00001186460936
 30
0.0
 40
0.9999999812562164
100
AcDbArc
 50
90.0
 51
180.0
  0
LINE
  5
8CEB
330
1E
100
AcDbEntity
  8
10
100
AcDbLine
 10
345.8314406788661
 20
99.65486529410554
 30
0.0
 11
345.8314406788661
 21
99.54065230601379
 31
0.0
  0
LINE
  5
8CEC
330
1E
100
AcDbEntity
  8
10
100
AcDbLine
 10
336.5497156977192
 20
91.21831642483812
 30
0.0
 11
336.6891451695023
 21
91.21020161020167
 31
0.0
  0
LINE
  5
8CED
330
1E
100
AcDbEntity
  8
10
100
AcDbLine
 10
335.8842524508775
 20
92.77444719217784
 30
0.0
 11
335.8828959445501
 21
93.07392018725288
 31
0.0
  0
LINE
  5
8CEE
330
1E
100
AcDbEntity
  8
10
100
AcDbLine
 10
336.8314572172303
 20
90.00746496444662
 30
0.0
 11
336.6891451695023
 21
90.00751341110117
 31
0.0
  0
LINE
  5
8CEF
330
1E
100
AcDbEntity
  8
10
100
AcDbLine
 10
345.8314406788661
 20
90.00746496444662
 30
0.0
 11
336.8314572172303
 21
90.00746496444662
 31
0.0
  0
LINE
  5
8CF0
330
1E
100
AcDbEntity
  8
10
100
AcDbLine
 10
336.6888302662473
 20
93.8082745768588
 30
0.0
 11
336.8314572172303
 21
93.80553734087698
 31
0.0
  0
LINE
  5
8CF1
330
1E
100
AcDbEntity
  8
10
100
AcDbLine
 10
345.8314406788661
 20
99.9594978578898
 30
0.0
 11
345.8314406788661
 21
99.90964625036212
 31
0.0
  0
LINE
  5
8CF2
330
1E
100
AcDbEntity
  8
10
100
AcDbLine
 10
335.8314455974225
 20
91.62962852193231
 30
0.0
 11
335.8368716227317
 21
91.81973319437021
 31
0.0
  0
LINE
  5
8CF3
330
1E
100
AcDbEntity
  8
10
100
AcDbLine
 10
336.2908167758262
 20
90.00826433424661
 30
0.0
 11
336.1765795644071
 21
90.00867613081025
 31
0.0
  0
LINE
  5
8CF4
330
1E
100
AcDbEntity
  8
10
100
AcDbLine
 10
345.8314406788661
 20
99.99999926109007
 30
0.0
 11
345.8314406788661
 21
99.98982546363549
 31
0.0
  0
LINE
  5
8CF5
330
1E
100
AcDbEntity
  8
10
100
AcDbLine
 10
335.8486683831135
 20
94.25856200753512
 30
0.0
 11
335.8555962547136
 21
94.4830638047005
 31
0.0
  0
LINE
  5
8CF6
330
1E
100
AcDbEntity
  8
10
100
AcDbLine
 10
336.4152035613726
 20
93.82985756145901
 30
0.0
 11
336.5491343378648
 21
93.81643783814979
 31
0.0
  0
LINE
  5
8CF7
330
1E
100
AcDbEntity
  8
10
100
AcDbLine
 10
335.8605620368046
 20
95.29175958570705
 30
0.0
 11
335.8519627556226
 21
95.64006680856442
 31
0.0
  0
LINE
  5
8CF8
330
1E
100
AcDbEntity
  8
10
100
AcDbLine
 10
336.1765795644071
 20
90.00867613081025
 30
0.0
 11
336.0756894063154
 21
90.009184820683
 31
0.0
  0
LINE
  5
8CF9
330
1E
100
AcDbEntity
  8
10
100
AcDbLine
 10
335.8314455974225
 20
91.93004622677108
 30
0.0
 11
335.8314455974225
 21
94.01223499249679
 31
0.0
  0
LINE
  5
8CFA
330
1E
100
AcDbEntity
  8
10
100
AcDbLine
 10
335.9890425646601
 20
93.92912475662342
 30
0.0
 11
336.0745024632787
 21
93.89840957764135
 31
0.0
  0
LINE
  5
8CFB
330
1E
100
AcDbEntity
  8
10
100
AcDbLine
 10
336.4160271544998
 20
91.2316877014928
 30
0.0
 11
336.5497156977192
 21
91.21831642483812
 31
0.0
  0
LINE
  5
8CFC
330
1E
100
AcDbEntity
  8
10
100
AcDbLine
 10
335.8314455974225
 20
89.61126822357073
 30
0.0
 11
335.8314455974225
 21
89.71695460046246
 31
0.0
  0
LINE
  5
8CFD
330
1E
100
AcDbEntity
  8
10
100
AcDbLine
 10
336.5497156977192
 20
90.00768297439206
 30
0.0
 11
336.4160271544998
 21
90.00792520766481
 31
0.0
  0
LINE
  5
8CFE
330
1E
100
AcDbEntity
  8
10
100
AcDbLine
 10
335.8828959445501
 20
93.07392018725288
 30
0.0
 11
335.8722861272046
 21
93.3952668468555
 31
0.0
  0
LINE
  5
8CFF
330
1E
100
AcDbEntity
  8
10
100
AcDbLine
 10
345.8314406788661
 20
99.14232391233781
 30
0.0
 11
345.8314406788661
 21
99.00001186460936
 31
0.0
  0
LINE
  5
8D00
330
1E
100
AcDbEntity
  8
10
100
AcDbLine
 10
336.8314572172303
 20
99.99999926109007
 30
0.0
 11
345.8314406788661
 21
99.99999926109007
 31
0.0
  0
LINE
  5
8D01
330
1E
100
AcDbEntity
  8
10
100
AcDbLine
 10
335.8416193948771
 20
90.0117282700466
 30
0.0
 11
335.8314455974225
 21
90.01245496986484
 31
0.0
  0
LINE
  5
8D02
330
1E
100
AcDbEntity
  8
10
100
AcDbLine
 10
335.8722861272046
 20
93.3952668468555
 30
0.0
 11
335.8561049445863
 21
93.7275140037309
 31
0.0
  0
LINE
  5
8D03
330
1E
100
AcDbEntity
  8
10
100
AcDbLine
 10
335.8767916660774
 20
92.48953241679371
 30
0.0
 11
335.8842524508775
 21
92.77444719217784
 31
0.0
  0
LINE
  5
8D04
330
1E
100
AcDbEntity
  8
10
100
AcDbLine
 10
335.9218228314778
 20
90.01037176371935
 30
0.0
 11
335.8719470006231
 21
90.01105001688307
 31
0.0
  0
LINE
  5
8D05
330
1E
100
AcDbEntity
  8
10
100
AcDbLine
 10
335.8719470006231
 20
90.01105001688307
 30
0.0
 11
335.8416193948771
 21
90.0117282700466
 31
0.0
  0
LINE
  5
8D06
330
1E
100
AcDbEntity
  8
10
100
AcDbLine
 10
335.8314455974225
 20
89.89092653693658
 30
0.0
 11
335.8314455974225
 21
89.95049169870069
 31
0.0
  0
LINE
  5
8D07
330
1E
100
AcDbEntity
  8
10
100
AcDbLine
 10
335.849419306259
 20
92.02536501959
 30
0.0
 11
335.8641955358955
 21
92.25037550662813
 31
0.0
  0
LINE
  5
8D08
330
1E
100
AcDbEntity
  8
10
100
AcDbLine
 10
335.8314455974225
 20
89.50001048140615
 30
0.0
 11
335.8314455974225
 21
89.61126822357073
 31
0.0
  0
LINE
  5
8D09
330
1E
100
AcDbEntity
  8
10
100
AcDbLine
 10
345.8314406788661
 20
99.84126379747074
 30
0.0
 11
345.8314406788661
 21
99.75575545219726
 31
0.0
  0
LINE
  5
8D0A
330
1E
100
AcDbEntity
  8
10
100
AcDbLine
 10
345.8314406788661
 20
99.54065230601379
 30
0.0
 11
345.8314406788661
 21
99.41541770401279
 31
0.0
  0
LINE
  5
8D0B
330
1E
100
AcDbEntity
  8
10
100
AcDbLine
 10
336.1754168446978
 20
93.87125522776839
 30
0.0
 11
336.2897751727533
 21
93.84826729018639
 31
0.0
  0
LINE
  5
8D0C
330
1E
100
AcDbEntity
  8
10
100
AcDbLine
 10
335.8320027339498
 20
96.34048431666087
 30
0.0
 11
335.8314455974225
 21
96.43614223606165
 31
0.0
  0
LINE
  5
8D0D
330
1E
100
AcDbEntity
  8
10
100
AcDbLine
 10
335.8711718541501
 20
93.99871837587848
 30
0.0
 11
335.9208054517323
 21
93.96279518153283
 31
0.0
  0
LINE
  5
8D0E
330
1E
100
AcDbEntity
  8
10
100
AcDbLine
 10
335.8719470006231
 20
91.3999187094032
 30
0.0
 11
335.9218228314778
 21
91.36411663169385
 31
0.0
  0
LINE
  5
8D0F
330
1E
100
AcDbEntity
  8
10
100
AcDbLine
 10
335.8314455974225
 20
89.95049169870069
 30
0.0
 11
335.8314455974225
 21
89.98748071944643
 31
0.0
  0
LINE
  5
8D10
330
1E
100
AcDbEntity
  8
10
100
AcDbLine
 10
336.2897751727533
 20
93.84826729018639
 30
0.0
 11
336.4152035613726
 21
93.82985756145901
 31
0.0
  0
LINE
  5
8D11
330
1E
100
AcDbEntity
  8
10
100
AcDbLine
 10
345.8314406788661
 20
90.00746496444662
 30
0.0
 11
345.8314406788661
 21
91.20746437421983
 31
0.0
  0
LINE
  5
8D12
330
1E
100
AcDbEntity
  8
10
100
AcDbLine
 10
335.8314455974225
 20
94.07349578717004
 30
0.0
 11
335.8314455974225
 21
95.89269188869371
 31
0.0
  0
LINE
  5
8D13
330
1E
100
AcDbEntity
  8
10
100
AcDbLine
 10
345.8314406788661
 20
99.00001186460936
 30
0.0
 11
345.8314406788661
 21
93.80553734087698
 31
0.0
  0
LINE
  5
8D14
330
1E
100
AcDbEntity
  8
10
100
AcDbLine
 10
335.9902052843692
 20
90.00976618053755
 30
0.0
 11
335.9218228314778
 21
90.01037176371935
 31
0.0
  0
LINE
  5
8D15
330
1E
100
AcDbEntity
  8
10
100
AcDbLine
 10
335.8607073767681
 20
94.71178046081147
 30
0.0
 11
335.8631054861682
 21
94.94136915670424
 31
0.0
  0
LINE
  5
8D16
330
1E
100
AcDbEntity
  8
10
100
AcDbLine
 10
345.8314406788661
 20
99.41541770401279
 30
0.0
 11
345.8314406788661
 21
99.28172916079347
 31
0.0
  0
LINE
  5
8D17
330
1E
100
AcDbEntity
  8
10
100
AcDbLine
 10
335.9208054517323
 20
93.96279518153283
 30
0.0
 11
335.9890425646601
 21
93.92912475662342
 31
0.0
  0
LINE
  5
8D18
330
1E
100
AcDbEntity
  8
10
100
AcDbLine
 10
335.8641955358955
 20
92.25037550662813
 30
0.0
 11
335.8767916660774
 21
92.48953241679371
 31
0.0
  0
LINE
  5
8D19
330
1E
100
AcDbEntity
  8
10
100
AcDbLine
 10
336.6891451695023
 20
91.21020161020167
 30
0.0
 11
336.8314572172303
 21
91.20746437421983
 31
0.0
  0
LINE
  5
8D1A
330
1E
100
AcDbEntity
  8
10
100
AcDbLine
 10
336.0745024632787
 20
93.89840957764135
 30
0.0
 11
336.1754168446978
 21
93.87125522776839
 31
0.0
  0
LINE
  5
8D1B
330
1E
100
AcDbEntity
  8
10
100
AcDbLine
 10
335.8412075983133
 20
94.03619186316973
 30
0.0
 11
335.8486683831135
 21
94.25856200753512
 31
0.0
  0
LINE
  5
8D1C
330
1E
100
AcDbEntity
  8
10
100
AcDbLine
 10
335.8555962547136
 20
94.4830638047005
 30
0.0
 11
335.8607073767681
 21
94.71178046081147
 31
0.0
  0
LINE
  5
8D1D
330
1E
100
AcDbEntity
  8
10
100
AcDbLine
 10
345.8314406788661
 20
91.20746437421983
 30
0.0
 11
345.8314406788661
 21
93.80553734087698
 31
0.0
  0
LINE
  5
8D1E
330
1E
100
AcDbEntity
  8
10
100
AcDbLine
 10
336.0756894063154
 20
90.009184820683
 30
0.0
 11
335.9902052843692
 21
90.00976618053755
 31
0.0
  0
LINE
  5
8D1F
330
1E
100
AcDbEntity
  8
10
100
AcDbLine
 10
335.8416193948771
 20
91.4372953033853
 30
0.0
 11
335.8719470006231
 21
91.3999187094032
 31
0.0
  0
LINE
  5
8D20
330
1E
100
AcDbEntity
  8
10
100
AcDbLine
 10
345.8314406788661
 20
90.00000417964656
 30
0.0
 11
345.8314406788661
 21
90.00746496444662
 31
0.0
  0
LINE
  5
8D21
330
1E
100
AcDbEntity
  8
10
100
AcDbLine
 10
335.8314455974225
 20
89.71695460046246
 30
0.0
 11
335.8314455974225
 21
89.81174048008142
 31
0.0
  0
LINE
  5
8D22
330
1E
100
AcDbEntity
  8
10
100
AcDbLine
 10
345.8314406788661
 20
99.75575545219726
 30
0.0
 11
345.8314406788661
 21
99.65486529410554
 31
0.0
  0
LINE
  5
8D23
330
1E
100
AcDbEntity
  8
10
100
AcDbLine
 10
336.1765795644071
 20
91.27291580451128
 30
0.0
 11
336.2908167758262
 21
91.25000053691108
 31
0.0
  0
LINE
  5
8D24
330
1E
100
AcDbEntity
  8
10
100
AcDbLine
 10
335.8314455974225
 20
89.81174048008142
 30
0.0
 11
335.8314455974225
 21
89.89092653693658
 31
0.0
  0
LINE
  5
8D25
330
1E
100
AcDbEntity
  8
10
100
AcDbLine
 10
335.8401417719132
 20
95.99382428005808
 30
0.0
 11
335.8320027339498
 21
96.34048431666087
 31
0.0
  0
LINE
  5
8D26
330
1E
100
AcDbEntity
  8
10
100
AcDbLine
 10
336.6891451695023
 20
90.00751341110117
 30
0.0
 11
336.5497156977192
 21
90.00768297439206
 31
0.0
  0
LINE
  5
8D27
330
1E
100
AcDbEntity
  8
10
100
AcDbLine
 10
335.8314455974225
 20
90.00000417964656
 30
0.0
 11
335.8314455974225
 21
90.01245496986484
 31
0.0
  0
LINE
  5
8D28
330
1E
100
AcDbEntity
  8
10
100
AcDbLine
 10
335.8519627556226
 20
95.64006680856442
 30
0.0
 11
335.8401417719132
 21
95.99382428005808
 31
0.0
  0
LINE
  5
8D29
330
1E
100
AcDbEntity
  8
10
100
AcDbLine
 10
335.8412075983133
 20
94.03619186316973
 30
0.0
 11
335.8711718541501
 21
93.99871837587848
 31
0.0
  0
LINE
  5
8D2A
330
1E
100
AcDbEntity
  8
10
100
AcDbLine
 10
336.4160271544998
 20
90.00792520766481
 30
0.0
 11
336.2908167758262
 21
90.00826433424661
 31
0.0
  0
LINE
  5
8D2B
330
1E
100
AcDbEntity
  8
10
100
AcDbLine
 10
345.8314406788661
 20
91.20746437421983
 30
0.0
 11
336.8314572172303
 21
91.20746437421983
 31
0.0
  0
LINE
  5
8D2C
330
1E
100
AcDbEntity
  8
10
100
AcDbLine
 10
335.8631054861682
 20
94.94136915670424
 30
0.0
 11
335.8605620368046
 21
95.29175958570705
 31
0.0
  0
LINE
  5
8D2D
330
1E
100
AcDbEntity
  8
10
100
AcDbLine
 10
345.8314406788661
 20
99.98982546363549
 30
0.0
 11
345.8314406788661
 21
99.9594978578898
 31
0.0
  0
LINE
  5
8D2E
330
1E
100
AcDbEntity
  8
10
100
AcDbLine
 10
335.8314455974225
 20
90.01245496986484
 30
0.0
 11
335.8314455974225
 21
91.4754228205129
 31
0.0
  0
LINE
  5
8D2F
330
1E
100
AcDbEntity
  8
10
100
AcDbLine
 10
335.8561049445863
 20
93.7275140037309
 30
0.0
 11
335.8412075983133
 21
94.03619186316973
 31
0.0
  0
LINE
  5
8D30
330
1E
100
AcDbEntity
  8
10
100
AcDbLine
 10
335.8314455974225
 20
96.43614223606165
 30
0.0
 11
335.8314455974225
 21
99.00001186460936
 31
0.0
  0
LINE
  5
8D31
330
1E
100
AcDbEntity
  8
10
100
AcDbLine
 10
335.8314455974225
 20
91.4754228205129
 30
0.0
 11
335.8314455974225
 21
91.62962852193231
 31
0.0
  0
LINE
  5
8D32
330
1E
100
AcDbEntity
  8
10
100
AcDbLine
 10
336.5491343378648
 20
93.81643783814979
 30
0.0
 11
336.6888302662473
 21
93.8082745768588
 31
0.0
  0
LINE
  5
8D33
330
1E
100
AcDbEntity
  8
10
100
AcDbLine
 10
345.8314406788661
 20
99.28172916079347
 30
0.0
 11
345.8314406788661
 21
99.14232391233781
 31
0.0
  0
LINE
  5
8D34
330
1E
100
AcDbEntity
  8
10
100
AcDbLine
 10
345.8314406788661
 20
93.80553734087698
 30
0.0
 11
336.8314572172303
 21
93.80553734087698
 31
0.0
  0
LINE
  5
8D35
330
1E
100
AcDbEntity
  8
10
100
AcDbLine
 10
335.8368716227317
 20
91.81973319437021
 30
0.0
 11
335.849419306259
 21
92.02536501959
 31
0.0
  0
LINE
  5
8D36
330
1E
100
AcDbEntity
  8
10
100
AcDbLine
 10
335.8314455974225
 20
89.98748071944643
 30
0.0
 11
335.8314455974225
 21
90.00000417964656
 31
0.0
  0
LINE
  5
8D37
330
1E
100
AcDbEntity
  8
10
100
AcDbLine
 10
345.8314406788661
 20
99.90964625036212
 30
0.0
 11
345.8314406788661
 21
99.84126379747074
 31
0.0
  0
LINE
  5
8D38
330
1E
100
AcDbEntity
  8
10
100
AcDbLine
 10
335.9902052843692
 20
91.33056732342085
 30
0.0
 11
336.0756894063154
 21
91.29994903774786
 31
0.0
  0
LINE
  5
8D39
330
1E
100
AcDbEntity
  8
10
100
AcDbLine
 10
335.8314455974225
 20
91.4754228205129
 30
0.0
 11
335.8416193948771
 21
91.4372953033853
 31
0.0
  0
LINE
  5
8D3A
330
1E
100
AcDbEntity
  8
10
100
AcDbLine
 10
336.0756894063154
 20
91.29994903774786
 30
0.0
 11
336.1765795644071
 21
91.27291580451128
 31
0.0
  0
LINE
  5
8D3B
330
1E
100
AcDbEntity
  8
10
100
AcDbLine
 10
336.2908167758262
 20
91.25000053691108
 30
0.0
 11
336.4160271544998
 21
91.2316877014928
 31
0.0
  0
LINE
  5
8D3C
330
1E
100
AcDbEntity
  8
10
100
AcDbLine
 10
335.9218228314778
 20
91.36411663169385
 30
0.0
 11
335.9902052843692
 21
91.33056732342085
 31
0.0
  0
ARC
  5
8D3D
330
1E
100
AcDbEntity
  8
10
100
AcDbCircle
 10
349.3314450132031
 20
89.50001048140615
 30
0.0
 40
0.4999999906281083
100
AcDbArc
 50
90.0
 51
180.0
  0
ARC
  5
8D3E
330
1E
100
AcDbEntity
  8
10
100
AcDbCircle
 10
381.3314534971498
 20
89.50001048140615
 30
0.0
 40
0.4999999906281083
100
AcDbArc
 50
0.0
 51
90.0
  0
LINE
  5
8D3F
330
1E
100
AcDbEntity
  8
10
100
AcDbLine
 10
381.83144719539
 20
89.50001048140615
 30
0.0
 11
381.83144719539
 21
88.00000516335785
 31
0.0
  0
DIMENSION
  5
909C
330
1E
100
AcDbEntity
  8
30
  6
Continuous
100
AcDbDimension
  2
*D16
 10
390.0
 20
-53.99999137073473
 30
0.0
 11
387.0
 21
0.0000031461939378
 31
0.0
 70
    32
 71
     5
 42
-1.0
  3
STANDARD
100
AcDbAlignedDimension
 13
381.3314534971498
 23
53.99999766312247
 33
0.0
 14
381.3314534971498
 24
-53.99999137073473
 34
0.0
 50
90.0
100
AcDbRotatedDimension
  0
DIMENSION
  5
90A9
330
1E
100
AcDbEntity
  8
30
  6
Continuous
100
AcDbDimension
  2
*D17
 10
407.0
 20
-89.99999206798291
 30
0.0
 11
404.0
 21
0.0000092020257337
 31
0.0
 70
    32
 71
     5
 42
-1.0
  3
STANDARD
100
AcDbAlignedDimension
 13
381.3314534971498
 23
90.00001047203426
 33
0.0
 14
381.3314534971498
 24
-89.99999206798291
 34
0.0
 50
90.0
100
AcDbRotatedDimension
  0
DIMENSION
  5
9403
330
1E
100
AcDbEntity
  8
30
100
AcDbDimension
  2
*D19
 10
52.50000000000007
 20
-109.1618080185513
 30
0.0
 11
0.0000000000000641
 21
-106.1618080185513
 31
0.0
 70
    32
 71
     5
 42
-1.0
  3
STANDARD
100
AcDbAlignedDimension
 13
-52.49999999999993
 23
-82.50000000000005
 33
0.0
 14
52.50000000000007
 24
-82.50000000000005
 34
0.0
 50
180.0
100
AcDbRotatedDimension
  0
LWPOLYLINE
  5
9404
330
1E
100
AcDbEntity
  8
16
100
AcDbPolyline
 90
        2
 70
     0
 43
0.001
 10
0.0
 20
109.9505615234199
 10
0.0
 20
-121.91400146485
  0
LINE
  5
9405
330
1E
100
AcDbEntity
  8
18
 48
2.0
100
AcDbLine
 10
52.5
 20
-369.5
 30
0.0
 11
52.5
 21
-365.5
 31
0.0
  0
LINE
  5
9406
330
1E
100
AcDbEntity
  8
18
 48
2.0
100
AcDbLine
 10
52.50000350418986
 20
-219.9999982556956
 30
0.0
 11
52.50000350418986
 21
-399.500006614989
 31
0.0
  0
LINE
  5
9407
330
1E
100
AcDbEntity
  8
18
 48
2.0
100
AcDbLine
 10
-49.99999547980904
 20
-394.5000032643631
 30
0.0
 11
-49.99999547980904
 21
-369.0000097508502
 31
0.0
  0
DIMENSION
  5
9408
330
1E
100
AcDbEntity
  8
30
100
AcDbDimension
  2
*D20
 10
17.50000000000021
 20
-432.1162544305428
 30
0.0
 11
0.0000000000002222
 21
-429.1162544305428
 31
0.0
 70
    32
 71
     5
 42
-1.0
  3
STANDARD
100
AcDbAlignedDimension
 13
-17.49999999999976
 23
-350.0000000165001
 33
0.0
 14
17.50000000000022
 24
-350.0000000165001
 34
0.0
 50
180.0
100
AcDbRotatedDimension
  0
DIMENSION
  5
9409
330
1E
100
AcDbEntity
  8
30
100
AcDbDimension
  2
*D21
 10
25.00000000000022
 20
-424.3662544305426
 30
0.0
 11
17.50000000000021
 21
-421.3662544305425
 31
0.0
 70
    32
 71
     5
 42
-1.0
  3
STANDARD
100
AcDbAlignedDimension
 13
10.00000000000021
 23
-335.0
 33
0.0
 14
25.00000000000023
 24
-335.0
 34
0.0
 50
180.0
100
AcDbRotatedDimension
  0
INSERT
  5
940A
330
1E
100
AcDbEntity
  8
30
100
AcDbBlockReference
  2
*U18
 10
-1269.627990430622
 20
-614.1618080090514
 30
0.0
 41
2.5
 42
2.5
 43
2.5
  0
LINE
  5
940B
330
1E
100
AcDbEntity
  8
18
 48
2.0
100
AcDbLine
 10
22.5
 20
-400.0
 30
0.0
 11
21.0
 21
-400.0074660790678
 31
0.0
  0
LINE
  5
940C
330
1E
100
AcDbEntity
  8
18
 48
2.0
100
AcDbLine
 10
21.0
 20
-401.2074660790678
 30
0.0
 11
22.5
 21
-403.8055422904212
 31
0.0
  0
ARC
  5
940D
330
1E
100
AcDbEntity
  8
18
 48
2.0
100
AcDbCircle
 10
-21.49999999999999
 20
-409.0
 30
0.0
 40
1.0
210
0.0
220
0.0
230
-1.0
100
AcDbArc
 50
180.0
 51
270.0
  0
LINE
  5
940E
330
1E
100
AcDbEntity
  8
18
 48
2.0
100
AcDbLine
 10
22.0
 20
-400.0
 30
0.0
 11
48.0
 21
-400.0
 31
0.0
  0
LINE
  5
940F
330
1E
100
AcDbEntity
  8
18
 48
2.0
100
AcDbLine
 10
-20.99999999999976
 20
-401.2074660790678
 30
0.0
 11
-22.5
 21
-403.8055422904212
 31
0.0
  0
LINE
  5
9410
330
1E
100
AcDbEntity
  8
18
 48
2.0
100
AcDbLine
 10
-22.5
 20
-400.0
 30
0.0
 11
-20.99999999999976
 21
-400.0074660790678
 31
0.0
  0
ARC
  5
9411
330
1E
100
AcDbEntity
  8
18
 48
2.0
100
AcDbCircle
 10
21.49999999999999
 20
-409.0
 30
0.0
 40
1.0
210
0.0
220
0.0
230
-1.0
100
AcDbArc
 50
270.0
 51
0.0
  0
LINE
  5
9412
330
1E
100
AcDbEntity
  8
18
 48
2.0
100
AcDbLine
 10
-47.99999999999977
 20
-400.0
 30
0.0
 11
-22.0
 21
-400.0
 31
0.0
  0
LINE
  5
9413
330
1E
100
AcDbEntity
  8
18
 48
2.0
100
AcDbLine
 10
-22.5
 20
-403.8055422904212
 30
0.0
 11
-22.5
 21
-409.0
 31
0.0
  0
LINE
  5
9414
330
1E
100
AcDbEntity
  8
18
 48
2.0
100
AcDbLine
 10
-52.50000030600154
 20
-394.5000032643631
 30
0.0
 11
-49.99999547980904
 21
-394.5000032643631
 31
0.0
  0
LINE
  5
9415
330
1E
100
AcDbEntity
  8
18
 48
2.0
100
AcDbLine
 10
-52.50000030600154
 20
-394.5000032643631
 30
0.0
 11
-52.50000030600154
 21
-399.5000008050848
 31
0.0
  0
LINE
  5
9416
330
1E
100
AcDbEntity
  8
18
 48
2.0
100
AcDbLine
 10
-52.5
 20
-400.0
 30
0.0
 11
-47.99999999999977
 21
-400.0
 31
0.0
  0
LINE
  5
9417
330
1E
100
AcDbEntity
  8
18
 48
2.0
100
AcDbLine
 10
-52.5
 20
-398.0
 30
0.0
 11
-52.5
 21
-400.0
 31
0.0
  0
LINE
  5
9418
330
1E
100
AcDbEntity
  8
18
 48
2.0
100
AcDbLine
 10
14.0
 20
-401.2074660790678
 30
0.0
 11
12.5
 21
-403.8055422904212
 31
0.0
  0
LINE
  5
9419
330
1E
100
AcDbEntity
  8
18
 48
2.0
100
AcDbLine
 10
-14.0
 20
-401.2074660790678
 30
0.0
 11
-12.5
 21
-403.8055422904212
 31
0.0
  0
LINE
  5
941A
330
1E
100
AcDbEntity
  8
18
 48
2.0
100
AcDbLine
 10
-12.5
 20
-403.8055422904212
 30
0.0
 11
-12.5
 21
-409.0
 31
0.0
  0
ARC
  5
941B
330
1E
100
AcDbEntity
  8
18
 48
2.0
100
AcDbCircle
 10
13.49999999999974
 20
-409.0
 30
0.0
 40
1.0
210
0.0
220
0.0
230
-1.0
100
AcDbArc
 50
180.0
 51
270.0
  0
CIRCLE
  5
941C
330
1E
100
AcDbEntity
  8
18
 48
2.0
100
AcDbCircle
 10
-17.4999993534534
 20
-405.0000030202424
 30
0.0
 40
2.175250057989686
  0
LINE
  5
941D
330
1E
100
AcDbEntity
  8
18
 48
2.0
100
AcDbLine
 10
-21.49999999999999
 20
-410.0
 30
0.0
 11
-13.49999999999974
 21
-410.0
 31
0.0
  0
CIRCLE
  5
941E
330
1E
100
AcDbEntity
  8
18
 48
2.0
100
AcDbCircle
 10
17.50000255164216
 20
-405.0000030202424
 30
0.0
 40
2.175250057989686
  0
LINE
  5
941F
330
1E
100
AcDbEntity
  8
18
 48
2.0
100
AcDbLine
 10
12.5
 20
-403.8055422904212
 30
0.0
 11
12.5
 21
-409.0
 31
0.0
  0
ARC
  5
9420
330
1E
100
AcDbEntity
  8
18
 48
2.0
100
AcDbCircle
 10
-13.5
 20
-409.0
 30
0.0
 40
1.0
210
0.0
220
0.0
230
-1.0
100
AcDbArc
 50
270.0
 51
0.0
  0
LINE
  5
9421
330
1E
100
AcDbEntity
  8
18
 48
2.0
100
AcDbLine
 10
13.5
 20
-410.0
 30
0.0
 11
21.49999999999999
 21
-410.0
 31
0.0
  0
LINE
  5
9422
330
1E
100
AcDbEntity
  8
18
 48
2.0
100
AcDbLine
 10
-12.99999999999974
 20
-400.0
 30
0.0
 11
13.0
 21
-400.0
 31
0.0
  0
LINE
  5
9423
330
1E
100
AcDbEntity
  8
18
 48
2.0
100
AcDbLine
 10
-14.0
 20
-400.0074660790678
 30
0.0
 11
-14.0
 21
-401.2074660790678
 31
0.0
  0
LINE
  5
9424
330
1E
100
AcDbEntity
  8
18
 48
2.0
100
AcDbLine
 10
-12.5
 20
-400.0
 30
0.0
 11
-14.0
 21
-400.0074660790678
 31
0.0
  0
LINE
  5
9425
330
1E
100
AcDbEntity
  8
18
 48
2.0
100
AcDbLine
 10
-20.99999999999976
 20
-400.0074660790678
 30
0.0
 11
-20.99999999999976
 21
-401.2074660790678
 31
0.0
  0
LINE
  5
9426
330
1E
100
AcDbEntity
  8
18
 48
2.0
100
AcDbLine
 10
21.0
 20
-400.0074660790678
 30
0.0
 11
21.0
 21
-401.2074660790678
 31
0.0
  0
LINE
  5
9427
330
1E
100
AcDbEntity
  8
18
 48
2.0
100
AcDbLine
 10
12.5
 20
-400.0
 30
0.0
 11
14.0
 21
-400.0074660790678
 31
0.0
  0
LINE
  5
9428
330
1E
100
AcDbEntity
  8
18
 48
2.0
100
AcDbLine
 10
14.0
 20
-400.0074660790678
 30
0.0
 11
14.0
 21
-401.2074660790678
 31
0.0
  0
TEXT
  5
9429
330
1E
100
AcDbEntity
  8
30
100
AcDbText
 10
38.08930659638757
 20
-424.411604625198
 30
0.0
 40
6.25
  1
Mounting plate
 41
0.7125304878048843
  7
UGMTXT
100
AcDbText
  0
LINE
  5
942A
330
1E
100
AcDbEntity
  8
18
 48
2.0
100
AcDbLine
 10
22.5
 20
-403.8055422904212
 30
0.0
 11
22.5
 21
-409.0
 31
0.0
  0
LINE
  5
942B
330
1E
100
AcDbEntity
  8
18
 48
2.0
100
AcDbLine
 10
52.5
 20
-398.0
 30
0.0
 11
52.5
 21
-369.5
 31
0.0
  0
LINE
  5
942C
330
1E
100
AcDbEntity
  8
18
 48
2.0
100
AcDbLine
 10
52.5
 20
-400.0
 30
0.0
 11
52.5
 21
-398.0
 31
0.0
  0
LINE
  5
942D
330
1E
100
AcDbEntity
  8
18
 48
2.0
100
AcDbLine
 10
48.0
 20
-400.0
 30
0.0
 11
52.5
 21
-400.0
 31
0.0
  0
LINE
  5
942E
330
1E
100
AcDbEntity
  8
18
 48
2.0
100
AcDbLine
 10
-49.99999547980904
 20
-250.9999951198345
 30
0.0
 11
-49.99999547980904
 21
-225.5000016063215
 31
0.0
  0
LINE
  5
942F
330
1E
100
AcDbEntity
  8
18
 48
2.0
100
AcDbLine
 10
-57.5
 20
-260.0
 30
0.0
 11
57.5
 21
-260.0
 31
0.0
  0
LINE
  5
9430
330
1E
100
AcDbEntity
  8
18
 48
2.0
100
AcDbLine
 10
-57.5
 20
-257.5
 30
0.0
 11
57.5
 21
-257.5
 31
0.0
  0
LINE
  5
9431
330
1E
100
AcDbEntity
  8
18
 48
2.0
100
AcDbLine
 10
-57.5
 20
-362.5
 30
0.0
 11
57.5
 21
-362.5
 31
0.0
  0
LINE
  5
9432
330
1E
100
AcDbEntity
  8
18
 48
2.0
100
AcDbLine
 10
-57.5
 20
-360.0
 30
0.0
 11
57.5
 21
-360.0
 31
0.0
  0
LINE
  5
9433
330
1E
100
AcDbEntity
  8
12
100
AcDbLine
 10
12.5
 20
-272.5
 30
0.0
 11
22.5
 21
-272.5
 31
0.0
  0
LINE
  5
9434
330
1E
100
AcDbEntity
  8
12
100
AcDbLine
 10
12.5
 20
-347.5000000000001
 30
0.0
 11
22.5
 21
-347.5000000000001
 31
0.0
  0
LINE
  5
9435
330
1E
100
AcDbEntity
  8
11
100
AcDbLine
 10
10.0
 20
-285.0
 30
0.0
 11
25.0
 21
-285.0
 31
0.0
  0
LINE
  5
9436
330
1E
100
AcDbEntity
  8
11
100
AcDbLine
 10
10.0
 20
-335.0
 30
0.0
 11
25.0
 21
-335.0
 31
0.0
  0
DIMENSION
  5
9437
330
1E
100
AcDbEntity
  8
30
100
AcDbDimension
  2
*D22
 10
80.24700957412802
 20
-272.5
 30
0.0
 11
77.24700957412807
 21
-310.0000000000001
 31
0.0
 70
    32
 71
     5
 42
-1.0
  3
STANDARD
100
AcDbAlignedDimension
 13
19.0000000164998
 23
-347.5000000000001
 33
0.0
 14
19.0000000164998
 24
-272.5
 34
0.0
 50
270.0
100
AcDbRotatedDimension
  0
LINE
  5
9438
330
1E
100
AcDbEntity
  8
11
100
AcDbLine
 10
10.0
 20
-284.9999999999998
 30
0.0
 11
10.0
 21
-335.0
 31
0.0
  0
LINE
  5
9439
330
1E
100
AcDbEntity
  8
18
 48
2.0
100
AcDbLine
 10
-52.5
 20
-364.0
 30
0.0
 11
-52.5
 21
-255.9999999999999
 31
0.0
  0
LINE
  5
943A
330
1E
100
AcDbEntity
  8
12
100
AcDbLine
 10
-22.5
 20
-347.5000000000001
 30
0.0
 11
-12.5
 21
-347.5000000000001
 31
0.0
  0
LINE
  5
943B
330
1E
100
AcDbEntity
  8
18
 48
2.0
100
AcDbLine
 10
-52.5
 20
-368.9999999999998
 30
0.0
 11
-50.0
 21
-368.9999999999998
 31
0.0
  0
LINE
  5
943C
330
1E
100
AcDbEntity
  8
18
 48
2.0
100
AcDbLine
 10
-52.5
 20
-364.0
 30
0.0
 11
-52.5
 21
-365.5
 31
0.0
  0
LINE
  5
943D
330
1E
100
AcDbEntity
  8
18
 48
2.0
100
AcDbLine
 10
-52.5
 20
-368.9999999999998
 30
0.0
 11
-52.5
 21
-365.5
 31
0.0
  0
LINE
  5
943E
330
1E
100
AcDbEntity
  8
12
100
AcDbLine
 10
-17.5
 20
-342.5000000000001
 30
0.0
 11
-17.5
 21
-352.5000000000001
 31
0.0
  0
CIRCLE
  5
943F
330
1E
100
AcDbEntity
  8
12
100
AcDbCircle
 10
-17.5
 20
-347.5000000000001
 30
0.0
 40
3.000000000000001
  0
LINE
  5
9440
330
1E
100
AcDbEntity
  8
12
100
AcDbLine
 10
17.5
 20
-342.5000000000001
 30
0.0
 11
17.5
 21
-352.5000000000001
 31
0.0
  0
CIRCLE
  5
9441
330
1E
100
AcDbEntity
  8
12
100
AcDbCircle
 10
17.5
 20
-347.5000000000001
 30
0.0
 40
3.000000000000001
  0
LINE
  5
9442
330
1E
100
AcDbEntity
  8
12
100
AcDbLine
 10
-22.5
 20
-272.5
 30
0.0
 11
-12.5
 21
-272.5
 31
0.0
  0
LINE
  5
9443
330
1E
100
AcDbEntity
  8
18
 48
2.0
100
AcDbLine
 10
-52.5
 20
-254.4999999999999
 30
0.0
 11
-52.5
 21
-255.9999999999999
 31
0.0
  0
LINE
  5
9444
330
1E
100
AcDbEntity
  8
18
 48
2.0
100
AcDbLine
 10
-52.5
 20
-254.4999999999999
 30
0.0
 11
-52.5
 21
-250.9999999999999
 31
0.0
  0
LINE
  5
9445
330
1E
100
AcDbEntity
  8
18
 48
2.0
100
AcDbLine
 10
-52.5
 20
-250.9999999999999
 30
0.0
 11
-50.0
 21
-250.9999999999999
 31
0.0
  0
LINE
  5
9446
330
1E
100
AcDbEntity
  8
12
100
AcDbLine
 10
17.5
 20
-267.5
 30
0.0
 11
17.5
 21
-277.4999999999999
 31
0.0
  0
CIRCLE
  5
9447
330
1E
100
AcDbEntity
  8
12
100
AcDbCircle
 10
17.5
 20
-272.5
 30
0.0
 40
3.000000000000001
  0
LINE
  5
9448
330
1E
100
AcDbEntity
  8
12
100
AcDbLine
 10
-17.5
 20
-267.5
 30
0.0
 11
-17.5
 21
-277.4999999999999
 31
0.0
  0
CIRCLE
  5
9449
330
1E
100
AcDbEntity
  8
12
100
AcDbCircle
 10
-17.5
 20
-272.5
 30
0.0
 40
3.000000000000001
  0
LINE
  5
944A
330
1E
100
AcDbEntity
  8
11
100
AcDbLine
 10
25.0
 20
-284.9999999999998
 30
0.0
 11
25.0
 21
-335.0
 31
0.0
  0
LINE
  5
944B
330
1E
100
AcDbEntity
  8
18
 48
2.0
100
AcDbLine
 10
52.5
 20
-364.0
 30
0.0
 11
52.5
 21
-255.9999999999999
 31
0.0
  0
DIMENSION
  5
944C
330
1E
100
AcDbEntity
  8
30
100
AcDbDimension
  2
*D23
 10
64.74700957412801
 20
-285.0
 30
0.0
 11
61.74700957412802
 21
-310.0
 31
0.0
 70
    32
 71
     5
 42
-1.0
  3
STANDARD
100
AcDbAlignedDimension
 13
23.99999999999977
 23
-335.0
 33
0.0
 14
23.99999999999977
 24
-285.0
 34
0.0
 50
270.0
100
AcDbRotatedDimension
  0
LINE
  5
944D
330
1E
100
AcDbEntity
  8
18
 48
2.0
100
AcDbLine
 10
52.5
 20
-365.5
 30
0.0
 11
52.5
 21
-364.0
 31
0.0
  0
LINE
  5
944E
330
1E
100
AcDbEntity
  8
18
 48
2.0
100
AcDbLine
 10
22.5
 20
-220.0
 30
0.0
 11
21.0
 21
-219.992533920932
 31
0.0
  0
LINE
  5
944F
330
1E
100
AcDbEntity
  8
18
 48
2.0
100
AcDbLine
 10
21.0
 20
-218.792533920932
 30
0.0
 11
22.5
 21
-216.1944577095787
 31
0.0
  0
ARC
  5
9450
330
1E
100
AcDbEntity
  8
18
 48
2.0
100
AcDbCircle
 10
-21.49999999999999
 20
-210.9999999999998
 30
0.0
 40
1.0
210
0.0
220
0.0
230
-1.0
100
AcDbArc
 50
90.0
 51
180.0
  0
LINE
  5
9451
330
1E
100
AcDbEntity
  8
18
 48
2.0
100
AcDbLine
 10
22.0
 20
-220.0
 30
0.0
 11
48.0
 21
-220.0
 31
0.0
  0
LINE
  5
9452
330
1E
100
AcDbEntity
  8
18
 48
2.0
100
AcDbLine
 10
-22.5
 20
-220.0
 30
0.0
 11
-20.99999999999976
 21
-219.992533920932
 31
0.0
  0
LINE
  5
9453
330
1E
100
AcDbEntity
  8
18
 48
2.0
100
AcDbLine
 10
-20.99999999999976
 20
-218.792533920932
 30
0.0
 11
-22.5
 21
-216.1944577095785
 31
0.0
  0
ARC
  5
9454
330
1E
100
AcDbEntity
  8
18
 48
2.0
100
AcDbCircle
 10
21.49999999999999
 20
-210.9999999999998
 30
0.0
 40
1.0
210
0.0
220
0.0
230
-1.0
100
AcDbArc
 50
0.0
 51
90.0
  0
LINE
  5
9455
330
1E
100
AcDbEntity
  8
18
 48
2.0
100
AcDbLine
 10
-47.99999999999977
 20
-220.0
 30
0.0
 11
-22.0
 21
-220.0
 31
0.0
  0
LINE
  5
9456
330
1E
100
AcDbEntity
  8
18
 48
2.0
100
AcDbLine
 10
-52.5
 20
-220.0
 30
0.0
 11
-52.5
 21
-222.0
 31
0.0
  0
LINE
  5
9457
330
1E
100
AcDbEntity
  8
18
 48
2.0
100
AcDbLine
 10
-52.50000030600154
 20
-219.9999982556959
 30
0.0
 11
-52.50000030600154
 21
-225.5000016063215
 31
0.0
  0
LINE
  5
9458
330
1E
100
AcDbEntity
  8
18
 48
2.0
100
AcDbLine
 10
-49.99999547980904
 20
-225.5000016063215
 30
0.0
 11
-52.50000030600154
 21
-225.5000016063215
 31
0.0
  0
LINE
  5
9459
330
1E
100
AcDbEntity
  8
18
 48
2.0
100
AcDbLine
 10
-47.99999999999977
 20
-220.0
 30
0.0
 11
-52.5
 21
-220.0
 31
0.0
  0
LINE
  5
945A
330
1E
100
AcDbEntity
  8
18
 48
2.0
100
AcDbLine
 10
-22.5
 20
-210.9999999999998
 30
0.0
 11
-22.5
 21
-216.1944577095785
 31
0.0
  0
LINE
  5
945B
330
1E
100
AcDbEntity
  8
18
 48
2.0
100
AcDbLine
 10
-12.99999999999974
 20
-220.0
 30
0.0
 11
13.0
 21
-220.0
 31
0.0
  0
LINE
  5
945C
330
1E
100
AcDbEntity
  8
18
 48
2.0
100
AcDbLine
 10
-14.0
 20
-219.992533920932
 30
0.0
 11
-14.0
 21
-218.792533920932
 31
0.0
  0
LINE
  5
945D
330
1E
100
AcDbEntity
  8
18
 48
2.0
100
AcDbLine
 10
-14.0
 20
-218.792533920932
 30
0.0
 11
-12.5
 21
-216.1944577095787
 31
0.0
  0
LINE
  5
945E
330
1E
100
AcDbEntity
  8
18
 48
2.0
100
AcDbLine
 10
-12.5
 20
-210.9999999999998
 30
0.0
 11
-12.5
 21
-216.1944577095787
 31
0.0
  0
LINE
  5
945F
330
1E
100
AcDbEntity
  8
18
 48
2.0
100
AcDbLine
 10
-12.5
 20
-220.0
 30
0.0
 11
-14.0
 21
-219.992533920932
 31
0.0
  0
ARC
  5
9460
330
1E
100
AcDbEntity
  8
18
 48
2.0
100
AcDbCircle
 10
13.49999999999974
 20
-210.9999999999998
 30
0.0
 40
1.0
210
0.0
220
0.0
230
-1.0
100
AcDbArc
 50
90.0
 51
180.0
  0
LINE
  5
9461
330
1E
100
AcDbEntity
  8
18
 48
2.0
100
AcDbLine
 10
-20.99999999999976
 20
-219.992533920932
 30
0.0
 11
-20.99999999999976
 21
-218.792533920932
 31
0.0
  0
CIRCLE
  5
9462
330
1E
100
AcDbEntity
  8
18
 48
2.0
100
AcDbCircle
 10
-17.4999993534534
 20
-215.0000113126798
 30
0.0
 40
2.175250057989686
  0
LINE
  5
9463
330
1E
100
AcDbEntity
  8
18
 48
2.0
100
AcDbLine
 10
-21.49999999999999
 20
-210.0
 30
0.0
 11
-13.49999999999974
 21
-210.0
 31
0.0
  0
LINE
  5
9464
330
1E
100
AcDbEntity
  8
18
 48
2.0
100
AcDbLine
 10
21.0
 20
-219.992533920932
 30
0.0
 11
21.0
 21
-218.792533920932
 31
0.0
  0
CIRCLE
  5
9465
330
1E
100
AcDbEntity
  8
18
 48
2.0
100
AcDbCircle
 10
17.50000255164216
 20
-215.0000113126798
 30
0.0
 40
2.175250057989686
  0
LINE
  5
9466
330
1E
100
AcDbEntity
  8
18
 48
2.0
100
AcDbLine
 10
12.5
 20
-210.9999999999998
 30
0.0
 11
12.5
 21
-216.1944577095787
 31
0.0
  0
LINE
  5
9467
330
1E
100
AcDbEntity
  8
18
 48
2.0
100
AcDbLine
 10
12.5
 20
-220.0
 30
0.0
 11
14.0
 21
-219.992533920932
 31
0.0
  0
LINE
  5
9468
330
1E
100
AcDbEntity
  8
18
 48
2.0
100
AcDbLine
 10
14.0
 20
-219.992533920932
 30
0.0
 11
14.0
 21
-218.792533920932
 31
0.0
  0
LINE
  5
9469
330
1E
100
AcDbEntity
  8
18
 48
2.0
100
AcDbLine
 10
14.0
 20
-218.792533920932
 30
0.0
 11
12.5
 21
-216.1944577095787
 31
0.0
  0
ARC
  5
946A
330
1E
100
AcDbEntity
  8
18
 48
2.0
100
AcDbCircle
 10
-13.5
 20
-210.9999999999998
 30
0.0
 40
1.0
210
0.0
220
0.0
230
-1.0
100
AcDbArc
 50
0.0
 51
90.0
  0
LINE
  5
946B
330
1E
100
AcDbEntity
  8
18
 48
2.0
100
AcDbLine
 10
13.5
 20
-210.0
 30
0.0
 11
21.49999999999999
 21
-210.0
 31
0.0
  0
LINE
  5
946C
330
1E
100
AcDbEntity
  8
18
 48
2.0
100
AcDbLine
 10
22.49999403653214
 20
-219.9999982556959
 30
0.0
 11
48.74999020906921
 21
-219.9999982556959
 31
0.0
  0
LINE
  5
946D
330
1E
100
AcDbEntity
  8
18
 48
2.0
100
AcDbLine
 10
22.5
 20
-210.9999999999998
 30
0.0
 11
22.5
 21
-216.1944577095787
 31
0.0
  0
LINE
  5
946E
330
1E
100
AcDbEntity
  8
18
 48
2.0
100
AcDbLine
 10
48.74999020906921
 20
-219.9999982556959
 30
0.0
 11
51.99998558262246
 21
-219.9999982556959
 31
0.0
  0
ARC
  5
946F
330
1E
100
AcDbEntity
  8
18
 48
2.0
100
AcDbCircle
 10
51.99998558262246
 20
-220.5000161772634
 30
0.0
 40
0.4999999906281084
100
AcDbArc
 50
0.0
 51
90.0
  0
DIMENSION
  5
9470
330
1E
100
AcDbEntity
  8
30
100
AcDbDimension
  2
*D24
 10
-65.5029909800545
 20
-25.0
 30
0.0
 11
-68.5029909800545
 21
-0.0000000000000063
 31
0.0
 70
    32
 71
     5
 42
-1.0
  3
STANDARD
100
AcDbAlignedDimension
 13
-51.5
 23
25.0
 33
0.0
 14
-51.5
 24
-25.0
 34
0.0
 50
90.0
100
AcDbRotatedDimension
  0
DIMENSION
  5
9471
330
1E
100
AcDbEntity
  8
30
100
AcDbDimension
  2
*D25
 10
-80.25299098005456
 20
51.00000000000001
 30
0.0
 11
-83.25299098005457
 21
-0.0000000000000089
 31
0.0
 70
    32
 71
     5
 42
-1.0
  3
STANDARD
100
AcDbAlignedDimension
 13
-52.49999999999993
 23
-51.0
 33
0.0
 14
-52.49999999999993
 24
51.0
 34
0.0
 50
90.0
100
AcDbRotatedDimension
  0
LINE
  5
9472
330
1E
100
AcDbEntity
  8
16
100
AcDbLine
 10
64.58329095406677
 20
0.0
 30
0.0
 11
-78.17658291715568
 21
0.0
 31
0.0
  0
LINE
  5
9473
330
1E
100
AcDbEntity
  8
10
100
AcDbLine
 10
11.00000000000002
 20
25.0
 30
0.0
 11
11.00000000000002
 21
-25.0
 31
0.0
  0
LINE
  5
9474
330
1E
100
AcDbEntity
  8
10
100
AcDbLine
 10
49.00000000000005
 20
25.0
 30
0.0
 11
49.00000000000005
 21
-25.0
 31
0.0
  0
LINE
  5
9475
330
1E
100
AcDbEntity
  8
10
100
AcDbLine
 10
52.50000000000007
 20
82.5
 30
0.0
 11
52.50000000000007
 21
-82.50000000000005
 31
0.0
  0
DIMENSION
  5
9476
330
1E
100
AcDbEntity
  8
30
100
AcDbDimension
  2
*D26
 10
71.6220095788778
 20
82.5
 30
0.0
 11
68.62200957887778
 21
-0.0000000000000111
 31
0.0
 70
    32
 71
     5
 42
-1.0
  3
STANDARD
100
AcDbAlignedDimension
 13
52.50000000000007
 23
-82.50000000000005
 33
0.0
 14
52.50000000000007
 24
82.5
 34
0.0
 50
270.0
100
AcDbRotatedDimension
  0
DIMENSION
  5
9477
330
1E
100
AcDbEntity
  8
30
100
AcDbDimension
  2
*D27
 10
88.37200957887779
 20
90.00001234200977
 30
0.0
 11
85.37200957887778
 21
0.0000081623632176
 31
0.0
 70
    32
 71
     5
 42
-1.0
  3
STANDARD
100
AcDbAlignedDimension
 13
51.99998493607615
 23
-89.99999601728335
 33
0.0
 14
51.99998493607615
 24
90.00001234200977
 34
0.0
 50
270.0
100
AcDbRotatedDimension
  0
LINE
  5
9478
330
1E
100
AcDbEntity
  8
10
100
AcDbLine
 10
-10.99999999999997
 20
25.0
 30
0.0
 11
-10.99999999999997
 21
-25.0
 31
0.0
  0
LINE
  5
9479
330
1E
100
AcDbEntity
  8
10
100
AcDbLine
 10
-49.0
 20
25.0
 30
0.0
 11
-49.0
 21
-25.0
 31
0.0
  0
LINE
  5
947A
330
1E
100
AcDbEntity
  8
10
100
AcDbLine
 10
-52.49999999999993
 20
82.5
 30
0.0
 11
-52.49999999999993
 21
-82.50000000000005
 31
0.0
  0
LINE
  5
947B
330
1E
100
AcDbEntity
  8
12
100
AcDbLine
 10
12.0
 20
-63.0
 30
0.0
 11
23.00000000000002
 21
-63.0
 31
0.0
  0
ARC
  5
947C
330
1E
100
AcDbEntity
  8
10
100
AcDbCircle
 10
-28.00000000000002
 20
-65.0
 30
0.0
 40
5.0
210
0.0
220
0.0
230
-1.0
100
AcDbArc
 50
0.0
 51
90.0
  0
LINE
  5
947D
330
1E
100
AcDbEntity
  8
10
100
AcDbLine
 10
20.99999317522128
 20
-91.20745621185669
 30
0.0
 11
22.49999849326973
 21
-93.80554129017747
 31
0.0
  0
LINE
  5
947E
330
1E
100
AcDbEntity
  8
10
100
AcDbLine
 10
22.49999849326973
 20
-89.99999601728335
 30
0.0
 11
20.99999317522128
 21
-90.00745927262533
 31
0.0
  0
ARC
  5
947F
330
1E
100
AcDbEntity
  8
10
100
AcDbCircle
 10
21.49998687346175
 20
-98.99999159058261
 30
0.0
 40
0.9999999812562167
100
AcDbArc
 50
270.0
 51
0.0
  0
LINE
  5
9480
330
1E
100
AcDbEntity
  8
10
100
AcDbLine
 10
-49.0
 20
-25.0
 30
0.0
 11
49.00000000000005
 21
-25.0
 31
0.0
  0
LINE
  5
9481
330
1E
100
AcDbEntity
  8
10
100
AcDbLine
 10
-52.49999999999993
 20
-51.0
 30
0.0
 11
52.50000000000007
 21
-51.0
 31
0.0
  0
LINE
  5
9482
330
1E
100
AcDbEntity
  8
10
100
AcDbLine
 10
-52.49999999999993
 20
-82.50000000000005
 30
0.0
 11
52.50000000000007
 21
-82.50000000000005
 31
0.0
  0
LINE
  5
9483
330
1E
100
AcDbEntity
  8
12
100
AcDbLine
 10
-22.99999999999994
 20
-63.0
 30
0.0
 11
-12.0
 21
-63.0
 31
0.0
  0
ARC
  5
9484
330
1E
100
AcDbEntity
  8
10
100
AcDbCircle
 10
27.99999999999994
 20
-65.0
 30
0.0
 40
5.0
210
0.0
220
0.0
230
-1.0
100
AcDbArc
 50
90.0
 51
180.0
  0
LINE
  5
9485
330
1E
100
AcDbEntity
  8
10
100
AcDbLine
 10
-22.50000359655357
 20
-89.99999601728335
 30
0.0
 11
-20.99999827850527
 21
-90.00745923646849
 31
0.0
  0
LINE
  5
9486
330
1E
100
AcDbEntity
  8
10
100
AcDbLine
 10
-22.50000359655357
 20
-93.80554129017747
 30
0.0
 11
-20.99999827850527
 21
-91.20745621185669
 31
0.0
  0
ARC
  5
9487
330
1E
100
AcDbEntity
  8
10
100
AcDbCircle
 10
-21.50000408840921
 20
-98.99999159058261
 30
0.0
 40
0.9999999812562167
100
AcDbArc
 50
180.0
 51
270.0
  0
CIRCLE
  5
9488
330
1E
100
AcDbEntity
  8
24
100
AcDbCircle
 10
-35.0
 20
-72.0
 30
0.0
 40
5.0
  0
LINE
  5
9489
330
1E
100
AcDbEntity
  8
10
100
AcDbLine
 10
-22.99999999999994
 20
-82.50000000000005
 30
0.0
 11
-22.99999999999994
 21
-65.0
 31
0.0
  0
LINE
  5
948A
330
1E
100
AcDbEntity
  8
10
100
AcDbLine
 10
-47.0
 20
-82.50000000000005
 30
0.0
 11
-47.0
 21
-65.0
 31
0.0
  0
LINE
  5
948B
330
1E
100
AcDbEntity
  8
17
100
AcDbLine
 10
-35.0
 20
-65.0
 30
0.0
 11
-35.0
 21
-79.0
 31
0.0
  0
LINE
  5
948C
330
1E
100
AcDbEntity
  8
10
100
AcDbLine
 10
-52.00000725430754
 20
-89.99999601728335
 30
0.0
 11
-22.50000359655357
 21
-89.99999601728335
 31
0.0
  0
LINE
  5
948D
330
1E
100
AcDbEntity
  8
10
100
AcDbLine
 10
-52.50000095254796
 20
-85.999997984706
 30
0.0
 11
-52.50000095254796
 21
-84.49999266665756
 31
0.0
  0
LINE
  5
948E
330
1E
100
AcDbEntity
  8
10
100
AcDbLine
 10
-49.99999612635526
 20
-84.49999266665756
 30
0.0
 11
-49.99999612635526
 21
-82.4999894022944
 31
0.0
  0
LINE
  5
948F
330
1E
100
AcDbEntity
  8
10
100
AcDbLine
 10
-52.50000095254796
 20
-84.49999266665756
 30
0.0
 11
-49.99999612635526
 21
-84.49999266665756
 31
0.0
  0
ARC
  5
9490
330
1E
100
AcDbEntity
  8
10
100
AcDbCircle
 10
-52.00000725430754
 20
-89.49999020737939
 30
0.0
 40
0.4999999906281084
100
AcDbArc
 50
180.0
 51
270.0
  0
ARC
  5
9491
330
1E
100
AcDbEntity
  8
10
100
AcDbCircle
 10
-52.00000725430754
 20
-89.49999020737939
 30
0.0
 40
0.4999999906281084
100
AcDbArc
 50
180.0
 51
270.0
  0
LINE
  5
9492
330
1E
100
AcDbEntity
  8
10
100
AcDbLine
 10
-52.50000095254796
 20
-85.999997984706
 30
0.0
 11
-52.50000095254796
 21
-89.49999020737939
 31
0.0
  0
LINE
  5
9493
330
1E
100
AcDbEntity
  8
10
100
AcDbLine
 10
-22.50000359655357
 20
-98.99999159058261
 30
0.0
 11
-22.50000359655357
 21
-93.80554129017747
 31
0.0
  0
ARC
  5
9494
330
1E
100
AcDbEntity
  8
10
100
AcDbCircle
 10
42.0
 20
-65.0
 30
0.0
 40
5.0
210
0.0
220
0.0
230
-1.0
100
AcDbArc
 50
0.0
 51
90.0
  0
LINE
  5
9495
330
1E
100
AcDbEntity
  8
10
100
AcDbLine
 10
-27.99999999999994
 20
-60.0
 30
0.0
 11
-42.0
 21
-60.0
 31
0.0
  0
LINE
  5
9496
330
1E
100
AcDbEntity
  8
17
100
AcDbLine
 10
-42.0
 20
-72.0
 30
0.0
 11
-27.99999999999994
 21
-72.0
 31
0.0
  0
LINE
  5
9497
330
1E
100
AcDbEntity
  8
10
100
AcDbLine
 10
12.0
 20
-82.50000000000005
 30
0.0
 11
12.0
 21
-65.0
 31
0.0
  0
LINE
  5
9498
330
1E
100
AcDbEntity
  8
10
100
AcDbLine
 10
-12.0
 20
-82.50000000000005
 30
0.0
 11
-12.0
 21
-65.0
 31
0.0
  0
CIRCLE
  5
9499
330
1E
100
AcDbEntity
  8
24
100
AcDbCircle
 10
0.0
 20
-72.0
 30
0.0
 40
5.0
  0
LINE
  5
949A
330
1E
100
AcDbEntity
  8
10
100
AcDbLine
 10
-12.49999640344642
 20
-89.99999601728335
 30
0.0
 11
12.5000034118261
 21
-89.99999601728335
 31
0.0
  0
LINE
  5
949B
330
1E
100
AcDbEntity
  8
10
100
AcDbLine
 10
-14.0000017214948
 20
-90.00745680208344
 30
0.0
 11
-14.0000017214948
 21
-91.20745621185669
 31
0.0
  0
LINE
  5
949C
330
1E
100
AcDbEntity
  8
10
100
AcDbLine
 10
-20.99999827850527
 20
-91.20745621185669
 30
0.0
 11
-20.99999827850527
 21
-90.00745680208344
 31
0.0
  0
LINE
  5
949D
330
1E
100
AcDbEntity
  8
10
100
AcDbLine
 10
-12.49999640344642
 20
-93.80554129017747
 30
0.0
 11
-12.49999640344642
 21
-98.99999159058261
 31
0.0
  0
CIRCLE
  5
949E
330
1E
100
AcDbEntity
  8
10
100
AcDbCircle
 10
-17.5
 20
-94.99999242253679
 30
0.0
 40
2.175250057989686
  0
LINE
  5
949F
330
1E
100
AcDbEntity
  8
10
100
AcDbLine
 10
-21.4999968018119
 20
-94.99996979717709
 30
0.0
 11
-13.49999680181187
 21
-94.99996979717709
 31
0.0
  0
LINE
  5
94A0
330
1E
100
AcDbEntity
  8
10
100
AcDbLine
 10
-13.49999591159074
 20
-99.99999109872696
 30
0.0
 11
-21.50000408840921
 21
-99.99999109872696
 31
0.0
  0
LINE
  5
94A1
330
1E
100
AcDbEntity
  8
10
100
AcDbLine
 10
-17.49999680181186
 20
-90.99996979717708
 30
0.0
 11
-17.49999680181186
 21
-98.99996979717712
 31
0.0
  0
ARC
  5
94A2
330
1E
100
AcDbEntity
  8
10
100
AcDbCircle
 10
-13.49999591159074
 20
-98.99999159058261
 30
0.0
 40
0.9999999812562167
100
AcDbArc
 50
270.0
 51
0.0
  0
LINE
  5
94A3
330
1E
100
AcDbEntity
  8
10
100
AcDbLine
 10
-14.0000017214948
 20
-91.20745621185669
 30
0.0
 11
-12.49999640344642
 21
-93.80554129017747
 31
0.0
  0
LINE
  5
94A4
330
1E
100
AcDbEntity
  8
10
100
AcDbLine
 10
-12.49999640344642
 20
-89.99999601728335
 30
0.0
 11
-14.0000017214948
 21
-90.00745923646849
 31
0.0
  0
LINE
  5
94A5
330
1E
100
AcDbEntity
  8
10
100
AcDbLine
 10
20.99999317522128
 20
-90.00745680208344
 30
0.0
 11
20.99999317522128
 21
-91.20745621185669
 31
0.0
  0
LINE
  5
94A6
330
1E
100
AcDbEntity
  8
10
100
AcDbLine
 10
14.00000872987453
 20
-91.20745621185669
 30
0.0
 11
14.00000872987453
 21
-90.00745680208344
 31
0.0
  0
CIRCLE
  5
94A7
330
1E
100
AcDbEntity
  8
10
100
AcDbCircle
 10
17.49998884088427
 20
-94.99999355800516
 30
0.0
 40
2.250000028793265
  0
LINE
  5
94A8
330
1E
100
AcDbEntity
  8
10
100
AcDbLine
 10
17.50000255164193
 20
-90.99998110985692
 30
0.0
 11
17.50000255164193
 21
-98.99998110985693
 31
0.0
  0
ARC
  5
94A9
330
1E
100
AcDbEntity
  8
10
100
AcDbCircle
 10
13.4999908083069
 20
-98.99999159058261
 30
0.0
 40
0.9999999812562167
100
AcDbArc
 50
180.0
 51
270.0
  0
LINE
  5
94AA
330
1E
100
AcDbEntity
  8
10
100
AcDbLine
 10
12.5000034118261
 20
-98.99999159058261
 30
0.0
 11
12.5000034118261
 21
-93.80554129017747
 31
0.0
  0
LINE
  5
94AB
330
1E
100
AcDbEntity
  8
10
100
AcDbLine
 10
13.50000255164194
 20
-94.99998110985693
 30
0.0
 11
21.50000255164192
 21
-94.99998110985693
 31
0.0
  0
LINE
  5
94AC
330
1E
100
AcDbEntity
  8
10
100
AcDbLine
 10
21.49998687346175
 20
-99.99999109872696
 30
0.0
 11
13.4999908083069
 21
-99.99999109872696
 31
0.0
  0
LINE
  5
94AD
330
1E
100
AcDbEntity
  8
10
100
AcDbLine
 10
12.5000034118261
 20
-93.80554129017747
 30
0.0
 11
14.00000872987453
 21
-91.20745621185669
 31
0.0
  0
LINE
  5
94AE
330
1E
100
AcDbEntity
  8
10
100
AcDbLine
 10
21.49998687346175
 20
-99.99999109872696
 30
0.0
 11
13.4999908083069
 21
-99.99999109872696
 31
0.0
  0
LINE
  5
94AF
330
1E
100
AcDbEntity
  8
10
100
AcDbLine
 10
12.5000034118261
 20
-89.99999601728335
 30
0.0
 11
14.00000872987453
 21
-90.00745927262533
 31
0.0
  0
LINE
  5
94B0
330
1E
100
AcDbEntity
  8
10
100
AcDbLine
 10
7.0
 20
-60.0
 30
0.0
 11
-7.0
 21
-60.0
 31
0.0
  0
LINE
  5
94B1
330
1E
100
AcDbEntity
  8
17
100
AcDbLine
 10
-7.0
 20
-72.0
 30
0.0
 11
7.0
 21
-72.0
 31
0.0
  0
LINE
  5
94B2
330
1E
100
AcDbEntity
  8
12
100
AcDbLine
 10
-17.5
 20
-68.50000000000004
 30
0.0
 11
-17.5
 21
-57.5
 31
0.0
  0
ARC
  5
94B3
330
1E
100
AcDbEntity
  8
10
100
AcDbCircle
 10
7.0
 20
-65.0
 30
0.0
 40
5.0
210
0.0
220
0.0
230
-1.0
100
AcDbArc
 50
0.0
 51
90.0
  0
CIRCLE
  5
94B4
330
1E
100
AcDbEntity
  8
12
100
AcDbCircle
 10
17.5
 20
-63.0
 30
0.0
 40
4.0
210
0.0
220
0.0
230
-1.0
  0
LINE
  5
94B5
330
1E
100
AcDbEntity
  8
12
100
AcDbLine
 10
17.5
 20
-68.50000000000004
 30
0.0
 11
17.5
 21
-57.5
 31
0.0
  0
ARC
  5
94B6
330
1E
100
AcDbEntity
  8
10
100
AcDbCircle
 10
-7.0
 20
-65.0
 30
0.0
 40
5.0
210
0.0
220
0.0
230
-1.0
100
AcDbArc
 50
90.0
 51
180.0
  0
CIRCLE
  5
94B7
330
1E
100
AcDbEntity
  8
12
100
AcDbCircle
 10
17.5
 20
-63.0
 30
0.0
 40
4.0
  0
LINE
  5
94B8
330
1E
100
AcDbEntity
  8
10
100
AcDbLine
 10
7.0
 20
-18.5
 30
0.0
 11
7.000000000000082
 21
20.15486870581037
 31
0.0
  0
LINE
  5
94B9
330
1E
100
AcDbEntity
  8
10
100
AcDbLine
 10
-7.0
 20
-18.5
 30
0.0
 11
-6.999999999999886
 21
20.15486870581037
 31
0.0
  0
LINE
  5
94BA
330
1E
100
AcDbEntity
  8
10
100
AcDbLine
 10
-7.0
 20
-18.5
 30
0.0
 11
7.0
 21
-18.5
 31
0.0
  0
LINE
  5
94BB
330
1E
100
AcDbEntity
  8
10
100
AcDbLine
 10
7.0
 20
6.840789306861492
 30
0.0
 11
-6.99999999999909
 21
6.840789306861492
 31
0.0
  0
LINE
  5
94BC
330
1E
100
AcDbEntity
  8
10
100
AcDbLine
 10
7.0
 20
20.15486870581037
 30
0.0
 11
-7.000000000000909
 21
20.15486870581037
 31
0.0
  0
LINE
  5
94BD
330
1E
100
AcDbEntity
  8
10
100
AcDbLine
 10
7.0
 20
15.23995644007664
 30
0.0
 11
-7.0
 21
15.23995644007664
 31
0.0
  0
CIRCLE
  5
94BE
330
1E
100
AcDbEntity
  8
24
100
AcDbCircle
 10
35.00000000000003
 20
-72.0
 30
0.0
 40
5.0
  0
LINE
  5
94BF
330
1E
100
AcDbEntity
  8
10
100
AcDbLine
 10
47.0
 20
-82.50000000000005
 30
0.0
 11
47.0
 21
-65.0
 31
0.0
  0
LINE
  5
94C0
330
1E
100
AcDbEntity
  8
10
100
AcDbLine
 10
23.00000000000002
 20
-82.50000000000005
 30
0.0
 11
23.00000000000002
 21
-65.0
 31
0.0
  0
LINE
  5
94C1
330
1E
100
AcDbEntity
  8
17
100
AcDbLine
 10
35.00000000000003
 20
-65.0
 30
0.0
 11
35.00000000000003
 21
-79.0
 31
0.0
  0
LINE
  5
94C2
330
1E
100
AcDbEntity
  8
10
100
AcDbLine
 10
22.49999338998581
 20
-89.99999601728335
 30
0.0
 11
48.74998956252278
 21
-89.99999601728335
 31
0.0
  0
LINE
  5
94C3
330
1E
100
AcDbEntity
  8
10
100
AcDbLine
 10
22.49999849326973
 20
-89.99999601728335
 30
0.0
 11
47.4999983085422
 21
-89.99999601728335
 31
0.0
  0
LINE
  5
94C4
330
1E
100
AcDbEntity
  8
10
100
AcDbLine
 10
22.49999849326973
 20
-93.80554129017747
 30
0.0
 11
22.49999849326973
 21
-98.99999159058261
 31
0.0
  0
LINE
  5
94C5
330
1E
100
AcDbEntity
  8
10
100
AcDbLine
 10
51.99998493607615
 20
-89.99999601728335
 30
0.0
 11
48.74998956252278
 21
-89.99999601728335
 31
0.0
  0
ARC
  5
94C6
330
1E
100
AcDbEntity
  8
10
100
AcDbCircle
 10
51.99998493607615
 20
-89.49999020737939
 30
0.0
 40
0.4999999906281084
100
AcDbArc
 50
270.0
 51
0.0
  0
ARC
  5
94C7
330
1E
100
AcDbEntity
  8
10
100
AcDbCircle
 10
51.99998493607615
 20
-89.49999020737939
 30
0.0
 40
0.4999999906281084
100
AcDbArc
 50
270.0
 51
0.0
  0
LINE
  5
94C8
330
1E
100
AcDbEntity
  8
10
100
AcDbLine
 10
52.50000285764379
 20
-82.4999894022944
 30
0.0
 11
52.50000285764379
 21
-89.49999020737939
 31
0.0
  0
ARC
  5
94C9
330
1E
100
AcDbEntity
  8
10
100
AcDbCircle
 10
-42.0
 20
-65.0
 30
0.0
 40
5.0
210
0.0
220
0.0
230
-1.0
100
AcDbArc
 50
90.0
 51
180.0
  0
LINE
  5
94CA
330
1E
100
AcDbEntity
  8
10
100
AcDbLine
 10
42.0
 20
-60.0
 30
0.0
 11
28.00000000000002
 21
-60.0
 31
0.0
  0
LINE
  5
94CB
330
1E
100
AcDbEntity
  8
17
100
AcDbLine
 10
28.00000000000002
 20
-72.0
 30
0.0
 11
42.0
 21
-72.0
 31
0.0
  0
ARC
  5
94CC
330
1E
100
AcDbEntity
  8
10
100
AcDbCircle
 10
21.49998687346175
 20
98.99999580364536
 30
0.0
 40
0.9999999812562167
100
AcDbArc
 50
0.0
 51
90.0
  0
LINE
  5
94CD
330
1E
100
AcDbEntity
  8
10
100
AcDbLine
 10
22.49999849326973
 20
93.80554550324024
 30
0.0
 11
20.99999317522128
 21
91.20747253658315
 31
0.0
  0
LINE
  5
94CE
330
1E
100
AcDbEntity
  8
10
100
AcDbLine
 10
22.49999849326973
 20
90.00001234200983
 30
0.0
 11
20.99999317522128
 21
90.00746833030655
 31
0.0
  0
LINE
  5
94CF
330
1E
100
AcDbEntity
  8
12
100
AcDbLine
 10
12.0
 20
63.0
 30
0.0
 11
23.00000000000002
 21
63.0
 31
0.0
  0
ARC
  5
94D0
330
1E
100
AcDbEntity
  8
10
100
AcDbCircle
 10
28.00000000000002
 20
65.0
 30
0.0
 40
5.0
100
AcDbArc
 50
180.0
 51
270.0
  0
LINE
  5
94D1
330
1E
100
AcDbEntity
  8
10
100
AcDbLine
 10
-49.0
 20
25.0
 30
0.0
 11
49.00000000000005
 21
25.0
 31
0.0
  0
LINE
  5
94D2
330
1E
100
AcDbEntity
  8
10
100
AcDbLine
 10
-52.49999999999993
 20
51.0
 30
0.0
 11
52.50000000000007
 21
51.0
 31
0.0
  0
LINE
  5
94D3
330
1E
100
AcDbEntity
  8
10
100
AcDbLine
 10
52.50000000000007
 20
82.5
 30
0.0
 11
-52.49999999999993
 21
82.5
 31
0.0
  0
DIMENSION
  5
94D4
330
1E
100
AcDbEntity
  8
30
100
AcDbDimension
  2
*D28
 10
49.00000000000005
 20
35.21319198619852
 30
0.0
 11
0.0000000000000251
 21
38.21319198619852
 31
0.0
 70
    32
 71
     5
 42
-1.0
  3
STANDARD
100
AcDbAlignedDimension
 13
-49.0
 23
25.0
 33
0.0
 14
49.00000000000005
 24
25.0
 34
0.0
100
AcDbRotatedDimension
  0
LINE
  5
94D5
330
1E
100
AcDbEntity
  8
10
100
AcDbLine
 10
-52.50000095254796
 20
90.00001234200983
 30
0.0
 11
-52.50000095254796
 21
86.00001430943242
 31
0.0
  0
LINE
  5
94D6
330
1E
100
AcDbEntity
  8
12
100
AcDbLine
 10
-22.99999999999994
 20
63.0
 30
0.0
 11
-12.0
 21
63.0
 31
0.0
  0
ARC
  5
94D7
330
1E
100
AcDbEntity
  8
10
100
AcDbCircle
 10
-27.99999999999994
 20
65.0
 30
0.0
 40
5.0
100
AcDbArc
 50
270.0
 51
0.0
  0
ARC
  5
94D8
330
1E
100
AcDbEntity
  8
10
100
AcDbCircle
 10
-42.0
 20
65.0
 30
0.0
 40
5.0
100
AcDbArc
 50
180.0
 51
270.0
  0
LINE
  5
94D9
330
1E
100
AcDbEntity
  8
10
100
AcDbLine
 10
-47.0
 20
82.5
 30
0.0
 11
-47.0
 21
65.0
 31
0.0
  0
LINE
  5
94DA
330
1E
100
AcDbEntity
  8
10
100
AcDbLine
 10
-49.99999612635526
 20
84.50000899138405
 30
0.0
 11
-52.50000095254796
 21
84.50000899138405
 31
0.0
  0
LINE
  5
94DB
330
1E
100
AcDbEntity
  8
10
100
AcDbLine
 10
-52.50000095254796
 20
84.50000899138405
 30
0.0
 11
-52.50000095254796
 21
86.00001430943242
 31
0.0
  0
LINE
  5
94DC
330
1E
100
AcDbEntity
  8
10
100
AcDbLine
 10
-49.99999612635526
 20
82.50001059770573
 30
0.0
 11
-49.99999612635526
 21
84.50000899138405
 31
0.0
  0
LINE
  5
94DD
330
1E
100
AcDbEntity
  8
10
100
AcDbLine
 10
-22.99999999999994
 20
82.5
 30
0.0
 11
-22.99999999999994
 21
65.0
 31
0.0
  0
CIRCLE
  5
94DE
330
1E
100
AcDbEntity
  8
24
100
AcDbCircle
 10
-35.0
 20
72.00000000000007
 30
0.0
 40
5.0
  0
LINE
  5
94DF
330
1E
100
AcDbEntity
  8
17
100
AcDbLine
 10
-35.0
 20
79.00000000000004
 30
0.0
 11
-35.0
 21
65.0
 31
0.0
  0
LINE
  5
94E0
330
1E
100
AcDbEntity
  8
17
100
AcDbLine
 10
-42.0
 20
72.00000000000007
 30
0.0
 11
-27.99999999999994
 21
72.00000000000007
 31
0.0
  0
LINE
  5
94E1
330
1E
100
AcDbEntity
  8
10
100
AcDbLine
 10
-27.99999999999994
 20
60.0
 30
0.0
 11
-42.0
 21
60.0
 31
0.0
  0
CIRCLE
  5
94E2
330
1E
100
AcDbEntity
  8
24
100
AcDbCircle
 10
0.0
 20
72.00000000000007
 30
0.0
 40
5.0
  0
LINE
  5
94E3
330
1E
100
AcDbEntity
  8
10
100
AcDbLine
 10
7.0
 20
60.0
 30
0.0
 11
-7.0
 21
60.0
 31
0.0
  0
LINE
  5
94E4
330
1E
100
AcDbEntity
  8
17
100
AcDbLine
 10
-7.0
 20
72.00000000000007
 30
0.0
 11
7.0
 21
72.00000000000007
 31
0.0
  0
LINE
  5
94E5
330
1E
100
AcDbEntity
  8
10
100
AcDbLine
 10
-12.0
 20
82.5
 30
0.0
 11
-12.0
 21
65.0
 31
0.0
  0
ARC
  5
94E6
330
1E
100
AcDbEntity
  8
10
100
AcDbCircle
 10
-7.0
 20
65.0
 30
0.0
 40
5.0
100
AcDbArc
 50
180.0
 51
270.0
  0
CIRCLE
  5
94E7
330
1E
100
AcDbEntity
  8
12
100
AcDbCircle
 10
-17.5
 20
63.0
 30
0.0
 40
4.0
  0
LINE
  5
94E8
330
1E
100
AcDbEntity
  8
12
100
AcDbLine
 10
-17.5
 20
68.5
 30
0.0
 11
-17.5
 21
57.5
 31
0.0
  0
LINE
  5
94E9
330
1E
100
AcDbEntity
  8
10
100
AcDbLine
 10
12.0
 20
82.5
 30
0.0
 11
12.0
 21
65.0
 31
0.0
  0
ARC
  5
94EA
330
1E
100
AcDbEntity
  8
10
100
AcDbCircle
 10
7.0
 20
65.0
 30
0.0
 40
5.0
100
AcDbArc
 50
270.0
 51
0.0
  0
CIRCLE
  5
94EB
330
1E
100
AcDbEntity
  8
12
100
AcDbCircle
 10
-17.5
 20
63.0
 30
0.0
 40
4.0
210
0.0
220
0.0
230
-1.0
  0
LINE
  5
94EC
330
1E
100
AcDbEntity
  8
12
100
AcDbLine
 10
17.5
 20
68.5
 30
0.0
 11
17.5
 21
57.5
 31
0.0
  0
ARC
  5
94ED
330
1E
100
AcDbEntity
  8
10
100
AcDbCircle
 10
-21.50000408840921
 20
98.99999580364536
 30
0.0
 40
0.9999999812562167
100
AcDbArc
 50
90.0
 51
180.0
  0
LINE
  5
94EE
330
1E
100
AcDbEntity
  8
10
100
AcDbLine
 10
-20.99999827850527
 20
91.20747253658315
 30
0.0
 11
-22.50000359655357
 21
93.80554550324024
 31
0.0
  0
LINE
  5
94EF
330
1E
100
AcDbEntity
  8
10
100
AcDbLine
 10
-22.50000359655357
 20
90.00001234200983
 30
0.0
 11
-20.99999827850527
 21
90.00746829418494
 31
0.0
  0
LINE
  5
94F0
330
1E
100
AcDbEntity
  8
10
100
AcDbLine
 10
-52.50000095254796
 20
90.00001234200983
 30
0.0
 11
-22.50000359655357
 21
90.00001234200983
 31
0.0
  0
LINE
  5
94F1
330
1E
100
AcDbEntity
  8
10
100
AcDbLine
 10
-22.50000359655357
 20
93.80554550324024
 30
0.0
 11
-22.50000359655357
 21
98.99999580364536
 31
0.0
  0
LINE
  5
94F2
330
1E
100
AcDbEntity
  8
10
100
AcDbLine
 10
-12.49999640344642
 20
90.00001234200983
 30
0.0
 11
12.5000034118261
 21
90.00001234200983
 31
0.0
  0
LINE
  5
94F3
330
1E
100
AcDbEntity
  8
10
100
AcDbLine
 10
-12.49999640344642
 20
98.99999580364536
 30
0.0
 11
-12.49999640344642
 21
93.80554550324024
 31
0.0
  0
LINE
  5
94F4
330
1E
100
AcDbEntity
  8
10
100
AcDbLine
 10
-21.50000408840921
 20
100.0000074234532
 30
0.0
 11
-13.49999591159074
 21
100.0000074234532
 31
0.0
  0
LINE
  5
94F5
330
1E
100
AcDbEntity
  8
10
100
AcDbLine
 10
-14.0000017214948
 20
91.20747253658315
 30
0.0
 11
-14.0000017214948
 21
90.00747312680989
 31
0.0
  0
LINE
  5
94F6
330
1E
100
AcDbEntity
  8
10
100
AcDbLine
 10
-20.99999827850527
 20
90.00747312680989
 30
0.0
 11
-20.99999827850527
 21
91.20747253658315
 31
0.0
  0
LINE
  5
94F7
330
1E
100
AcDbEntity
  8
10
100
AcDbLine
 10
-21.4999968018119
 20
95.0000219103855
 30
0.0
 11
-13.49999680181187
 21
95.0000219103855
 31
0.0
  0
CIRCLE
  5
94F8
330
1E
100
AcDbEntity
  8
10
100
AcDbCircle
 10
-17.5
 20
94.99999928502592
 30
0.0
 40
2.175250057989686
  0
LINE
  5
94F9
330
1E
100
AcDbEntity
  8
10
100
AcDbLine
 10
-17.49999680181186
 20
99.00002191038558
 30
0.0
 11
-17.49999680181186
 21
91.00002191038557
 31
0.0
  0
ARC
  5
94FA
330
1E
100
AcDbEntity
  8
10
100
AcDbCircle
 10
-13.49999591159074
 20
98.99999580364536
 30
0.0
 40
0.9999999812562167
100
AcDbArc
 50
0.0
 51
90.0
  0
LINE
  5
94FB
330
1E
100
AcDbEntity
  8
10
100
AcDbLine
 10
-12.49999640344642
 20
93.80554550324024
 30
0.0
 11
-14.0000017214948
 21
91.20747253658315
 31
0.0
  0
LINE
  5
94FC
330
1E
100
AcDbEntity
  8
10
100
AcDbLine
 10
-12.49999640344642
 20
90.00001234200983
 30
0.0
 11
-14.0000017214948
 21
90.00746829418494
 31
0.0
  0
LINE
  5
94FD
330
1E
100
AcDbEntity
  8
10
100
AcDbLine
 10
20.99999317522128
 20
91.20747253658315
 30
0.0
 11
20.99999317522128
 21
90.00747312680989
 31
0.0
  0
LINE
  5
94FE
330
1E
100
AcDbEntity
  8
10
100
AcDbLine
 10
14.00000872987453
 20
90.00747312680989
 30
0.0
 11
14.00000872987453
 21
91.20747253658315
 31
0.0
  0
CIRCLE
  5
94FF
330
1E
100
AcDbEntity
  8
10
100
AcDbCircle
 10
17.49998884088427
 20
94.99999777106792
 30
0.0
 40
2.250000028793265
  0
LINE
  5
9500
330
1E
100
AcDbEntity
  8
10
100
AcDbLine
 10
17.50000255164193
 20
99.00001059770573
 30
0.0
 11
17.50000255164193
 21
91.00001059770582
 31
0.0
  0
ARC
  5
9501
330
1E
100
AcDbEntity
  8
10
100
AcDbCircle
 10
13.4999908083069
 20
98.99999580364536
 30
0.0
 40
0.9999999812562167
100
AcDbArc
 50
90.0
 51
180.0
  0
LINE
  5
9502
330
1E
100
AcDbEntity
  8
10
100
AcDbLine
 10
12.5000034118261
 20
93.80554550324024
 30
0.0
 11
12.5000034118261
 21
98.99999580364536
 31
0.0
  0
LINE
  5
9503
330
1E
100
AcDbEntity
  8
10
100
AcDbLine
 10
13.50000255164194
 20
95.0000105977058
 30
0.0
 11
21.50000255164192
 21
95.0000105977058
 31
0.0
  0
LINE
  5
9504
330
1E
100
AcDbEntity
  8
10
100
AcDbLine
 10
13.4999908083069
 20
100.0000074234532
 30
0.0
 11
21.49998687346175
 21
100.0000074234532
 31
0.0
  0
LINE
  5
9505
330
1E
100
AcDbEntity
  8
10
100
AcDbLine
 10
14.00000872987453
 20
91.20747253658315
 30
0.0
 11
12.5000034118261
 21
93.80554550324024
 31
0.0
  0
LINE
  5
9506
330
1E
100
AcDbEntity
  8
10
100
AcDbLine
 10
12.5000034118261
 20
90.00001234200983
 30
0.0
 11
14.00000872987453
 21
90.00746833030655
 31
0.0
  0
ARC
  5
9507
330
1E
100
AcDbEntity
  8
10
100
AcDbCircle
 10
51.99998493607615
 20
89.49999442044218
 30
0.0
 40
0.4999999906281084
100
AcDbArc
 50
0.0
 51
90.0
  0
ARC
  5
9508
330
1E
100
AcDbEntity
  8
10
100
AcDbCircle
 10
51.99998493607615
 20
89.49999442044218
 30
0.0
 40
0.4999999906281084
100
AcDbArc
 50
0.0
 51
90.0
  0
ARC
  5
9509
330
1E
100
AcDbEntity
  8
10
100
AcDbCircle
 10
42.0
 20
65.0
 30
0.0
 40
5.0
100
AcDbArc
 50
270.0
 51
0.0
  0
CIRCLE
  5
950A
330
1E
100
AcDbEntity
  8
24
100
AcDbCircle
 10
35.00000000000003
 20
72.00000000000007
 30
0.0
 40
5.0
  0
LINE
  5
950B
330
1E
100
AcDbEntity
  8
17
100
AcDbLine
 10
35.00000000000003
 20
79.00000000000004
 30
0.0
 11
35.00000000000003
 21
65.0
 31
0.0
  0
LINE
  5
950C
330
1E
100
AcDbEntity
  8
10
100
AcDbLine
 10
23.00000000000002
 20
82.5
 30
0.0
 11
23.00000000000002
 21
65.0
 31
0.0
  0
LINE
  5
950D
330
1E
100
AcDbEntity
  8
17
100
AcDbLine
 10
28.00000000000002
 20
72.00000000000007
 30
0.0
 11
42.0
 21
72.00000000000007
 31
0.0
  0
LINE
  5
950E
330
1E
100
AcDbEntity
  8
10
100
AcDbLine
 10
42.0
 20
60.0
 30
0.0
 11
28.00000000000002
 21
60.0
 31
0.0
  0
LINE
  5
950F
330
1E
100
AcDbEntity
  8
10
100
AcDbLine
 10
47.0
 20
82.5
 30
0.0
 11
47.0
 21
65.0
 31
0.0
  0
LINE
  5
9510
330
1E
100
AcDbEntity
  8
10
100
AcDbLine
 10
52.50000285764379
 20
89.49999442044218
 30
0.0
 11
52.50000285764379
 21
82.50001059770573
 31
0.0
  0
LINE
  5
9511
330
1E
100
AcDbEntity
  8
10
100
AcDbLine
 10
22.49999338998581
 20
90.00001234200983
 30
0.0
 11
48.74998956252278
 21
90.00001234200983
 31
0.0
  0
LINE
  5
9512
330
1E
100
AcDbEntity
  8
10
100
AcDbLine
 10
22.49999849326973
 20
90.00001234200983
 30
0.0
 11
47.4999983085422
 21
90.00001234200983
 31
0.0
  0
LINE
  5
9513
330
1E
100
AcDbEntity
  8
10
100
AcDbLine
 10
22.49999849326973
 20
98.99999580364536
 30
0.0
 11
22.49999849326973
 21
93.80554550324024
 31
0.0
  0
LINE
  5
9514
330
1E
100
AcDbEntity
  8
10
100
AcDbLine
 10
48.74998956252278
 20
90.00001234200983
 30
0.0
 11
51.99998493607615
 21
90.00001234200983
 31
0.0
  0
LEADER
  5
95ED
330
1E
100
AcDbEntity
  8
30
  6
Continuous
100
AcDbLeader
  3
STANDARD
 73
     0
 40
4.0
 76
     3
 10
19.0000000164998
 20
-269.4999999999999
 30
0.0
 10
33.0
 20
-249.0
 30
0.0
 10
44.0
 20
-249.0
 30
0.0
340
95EE
213
0.0
223
-2.0
233
0.0
1001
ACAD
1000
DSTYLE
1002
{
1070
     5
1000
OPEN
1070
    77
1070
     0
1070
   147
1040
1.0
1070
   342
1005
3B2
1002
}
  0
MTEXT
  5
95EE
102
{ACAD_REACTORS
330
95ED
102
}
330
1E
100
AcDbEntity
  8
30
  6
Continuous
100
AcDbMText
 10
46.0
 20
-250.0
 30
0.0
 40
4.0
 41
0.0
 71
     1
 72
     1
  1
\A1;
 73
     1
 44
1.0
1001
ACAD
1000
MTEXTBEGIN
1070
    73
1070
     1
1070
    44
1040
1.0
1070
    74
1070
     0
1000
MTEXTEND
1000
MTEXTBEGIN
1070
    73
1070
     1
1070
    44
1040
1.0
1070
    74
1070
     0
1000
MTEXTEND
1000
MTEXTBEGIN
1070
    73
1070
     1
1070
    44
1040
1.0
1070
    74
1070
     0
1000
MTEXTEND
  0
TEXT
  5
95EF
330
1E
100
AcDbEntity
  8
30
  6
Continuous
100
AcDbText
 10
33.0
 20
-248.0
 30
0.0
 40
5.0
  1
%%c6
  7
STANDARD1
100
AcDbText
  0
DIMENSION
  5
95F9
330
1E
100
AcDbEntity
  8
30
  6
Continuous
100
AcDbDimension
  2
*D29
 10
104.0
 20
-99.99999157183886
 30
0.0
 11
101.0
 21
0.000007925807233
 31
0.0
 70
    32
 71
     5
 42
-1.0
  3
STANDARD
100
AcDbAlignedDimension
 13
21.49998687346175
 23
100.0000074234532
 33
0.0
 14
21.49998687346175
 24
-99.99999157183882
 34
0.0
 50
90.0
100
AcDbRotatedDimension
  0
MTEXT
  5
96E6
330
1E
100
AcDbEntity
  8
30
  6
Continuous
100
AcDbMText
 10
210.8461290753061
 20
268.920869859613
 30
0.0
 40
5.0
 41
185.0
 71
     1
 72
     5
  1
H100-NF 3P PM\PL100-NF 3P PM\PH125-NF 3P PM\PL125-NF 3P PM\PH225-NF 3P PM\PL225-NF 3P PM\PS225-GE 3P PM
  7
STANDARD1
 73
     1
 44
1.0
  0
VIEWPORT
  5
9AC
330
1A
100
AcDbEntity
 67
     1
  8
0
  6
Continuous
100
AcDbViewport
 10
171.9995348790992
 20
144.1384735538403
 30
0.0
 40
488.8676857773511
 41
292.3514905034161
 68
     1
 69
     1
 12
171.9995348790992
 22
144.1384735538403
 13
0.0
 23
0.0
 14
10.0
 24
10.0
 15
10.0
 25
10.0
 16
0.0
 26
0.0
 36
1.0
 17
0.0
 27
0.0
 37
0.0
 42
50.0
 43
0.0
 44
0.0
 45
292.3514905034161
 50
0.0
 51
0.0
 72
   100
 90
    32800
  1

281
     0
 71
     1
 74
     0
110
0.0
120
0.0
130
0.0
111
1.0
121
0.0
131
0.0
112
0.0
122
1.0
132
0.0
 79
     0
146
0.0
  0
ENDSEC
  0
SECTION
  2
OBJECTS
  0
DICTIONARY
  5
C
330
0
100
AcDbDictionary
281
     1
  3
ACAD_GROUP
350
D
  3
ACAD_LAYOUT
350
19
  3
ACAD_MLINESTYLE
350
16
  3
ACAD_PLOTSETTINGS
350
18
  3
ACAD_PLOTSTYLENAME
350
E
  3
ACDBVARIABLEDICTIONARY
350
5E0C
  0
DICTIONARY
  5
178
330
1E
100
AcDbDictionary
280
     1
281
     1
  3
ACAD_LAYOUTSELFREF
360
96D2
  0
DICTIONARY
  5
17A
330
1A
100
AcDbDictionary
280
     1
281
     1
  3
ACAD_LAYOUTSELFREF
360
96D1
  0
DICTIONARY
  5
D
102
{ACAD_REACTORS
330
C
102
}
330
C
100
AcDbDictionary
281
     1
  0
DICTIONARY
  5
19
102
{ACAD_REACTORS
330
C
102
}
330
C
100
AcDbDictionary
281
     1
  3
Model
350
96E4
  3
ﾚｲｱｳﾄ1
350
96E5
  0
DICTIONARY
  5
16
102
{ACAD_REACTORS
330
C
102
}
330
C
100
AcDbDictionary
281
     1
  3
STANDARD
350
17
  0
DICTIONARY
  5
18
102
{ACAD_REACTORS
330
C
102
}
330
C
100
AcDbDictionary
281
     1
  0
ACDBDICTIONARYWDFLT
  5
E
102
{ACAD_REACTORS
330
C
102
}
330
C
100
AcDbDictionary
281
     1
  3
Normal
350
F
100
AcDbDictionaryWithDefault
340
F
  0
DICTIONARY
  5
5E0C
102
{ACAD_REACTORS
330
C
102
}
330
C
100
AcDbDictionary
281
     1
  3
DIMASSOC
350
5E0D
  0
XRECORD
  5
96D2
102
{ACAD_REACTORS
330
178
102
}
330
178
100
AcDbXrecord
280
     1
340
1E
  0
XRECORD
  5
96D1
102
{ACAD_REACTORS
330
17A
102
}
330
17A
100
AcDbXrecord
280
     1
340
1A
  0
LAYOUT
  5
96E4
102
{ACAD_REACTORS
330
19
102
}
330
19
100
AcDbPlotSettings
  1

  2
Canon LBP3800 LIPSLX
  4

  6

 40
0.0
 41
0.0
 42
0.0
 43
0.0
 44
0.0
 45
0.0
 46
0.0
 47
0.0
 48
0.0
 49
0.0
140
0.0
141
0.0
142
1.0
143
1.0
 70
  1712
 72
     0
 73
     0
 74
     0
  7
monochrome.ctb
 75
     0
147
1.0
148
0.0
149
0.0
100
AcDbLayout
  1
Model
 70
     1
 71
     0
 10
0.0
 20
0.0
 11
12.0
 21
9.0
 12
0.0
 22
0.0
 32
0.0
 14
0.0
 24
0.0
 34
0.0
 15
0.0
 25
0.0
 35
0.0
146
0.0
 13
0.0
 23
0.0
 33
0.0
 16
1.0
 26
0.0
 36
0.0
 17
0.0
 27
1.0
 37
0.0
 76
     0
330
1E
  0
LAYOUT
  5
96E5
102
{ACAD_REACTORS
330
19
102
}
330
19
100
AcDbPlotSettings
  1

  2
Canon LBP3800 LIPSLX
  4

  6

 40
0.0
 41
0.0
 42
0.0
 43
0.0
 44
0.0
 45
0.0
 46
0.0
 47
0.0
 48
0.0
 49
0.0
140
0.0
141
0.0
142
1.0
143
1.0
 70
   688
 72
     0
 73
     0
 74
     5
  7
monochrome.ctb
 75
    16
147
1.0
148
0.0
149
0.0
100
AcDbLayout
  1
ﾚｲｱｳﾄ1
 70
     1
 71
     1
 10
-5.873748779296875
 20
-5.873749732971191
 11
204.0995788574218
 21
291.1369009017943
 12
0.0
 22
0.0
 32
0.0
 14
4.273573370203961
 24
5.205246163471485
 34
0.0
 15
194.6100952986349
 25
283.0697008572913
 35
0.0
146
0.0
 13
0.0
 23
0.0
 33
0.0
 16
1.0
 26
0.0
 36
0.0
 17
0.0
 27
1.0
 37
0.0
 76
     0
330
1A
331
9AC
  0
MLINESTYLE
  5
17
102
{ACAD_REACTORS
330
16
102
}
330
16
100
AcDbMlineStyle
  2
STANDARD
 70
     0
  3

 62
   256
 51
90.0
 52
90.0
 71
     2
 49
0.5
 62
   256
  6
BYLAYER
 49
-0.5
 62
   256
  6
BYLAYER
  0
ACDBPLACEHOLDER
  5
F
102
{ACAD_REACTORS
330
E
102
}
330
E
  0
DICTIONARYVAR
  5
5E0D
102
{ACAD_REACTORS
330
5E0C
102
}
330
5E0C
100
DictionaryVariables
280
     0
  1
1
  0
ENDSEC
  0
EOF
