  0
SECTION
  2
HEADER
  9
$ACADVER
  1
AC1015
  9
$ACADMAINTVER
 70
    20
  9
$DWGCODEPAGE
  3
ANSI_932
  9
$INSBASE
 10
0.0
 20
0.0
 30
0.0
  9
$EXTMIN
 10
-90.46797204212541
 20
-359.8804450066014
 30
0.0
  9
$EXTMAX
 10
297.3266621308825
 20
326.8165692823121
 30
0.0
  9
$LIMMIN
 10
-296.316999476111
 20
-370.7034300441653
  9
$LIMMAX
 10
623.3128432133979
 20
328.6261559379898
  9
$ORTHOMODE
 70
     1
  9
$REGENMODE
 70
     1
  9
$FILLMODE
 70
     1
  9
$QTEXTMODE
 70
     0
  9
$MIRRTEXT
 70
     1
  9
$LTSCALE
 40
10.0
  9
$ATTMODE
 70
     1
  9
$TEXTSIZE
 40
5.0
  9
$TRACEWID
 40
0.05
  9
$TEXTSTYLE
  7
STANDARD1
  9
$CLAYER
  8
30
  9
$CELTYPE
  6
CONTINUOUS
  9
$CECOLOR
 62
   256
  9
$CELTSCALE
 40
1.0
  9
$DISPSILH
 70
     0
  9
$DIMSCALE
 40
1.0
  9
$DIMASZ
 40
2.0
  9
$DIMEXO
 40
1.0
  9
$DIMDLI
 40
0.5
  9
$DIMRND
 40
0.0
  9
$DIMDLE
 40
0.0
  9
$DIMEXE
 40
0.5
  9
$DIMTP
 40
0.0
  9
$DIMTM
 40
0.0
  9
$DIMTXT
 40
4.0
  9
$DIMCEN
 40
0.09
  9
$DIMTSZ
 40
0.0
  9
$DIMTOL
 70
     0
  9
$DIMLIM
 70
     0
  9
$DIMTIH
 70
     0
  9
$DIMTOH
 70
     1
  9
$DIMSE1
 70
     0
  9
$DIMSE2
 70
     0
  9
$DIMTAD
 70
     3
  9
$DIMZIN
 70
    12
  9
$DIMBLK
  1
OPEN
  9
$DIMASO
 70
     1
  9
$DIMSHO
 70
     1
  9
$DIMPOST
  1

  9
$DIMAPOST
  1

  9
$DIMALT
 70
     0
  9
$DIMALTD
 70
     2
  9
$DIMALTF
 40
25.4
  9
$DIMLFAC
 40
1.0
  9
$DIMTOFL
 70
     0
  9
$DIMTVP
 40
0.0
  9
$DIMTIX
 70
     0
  9
$DIMSOXD
 70
     0
  9
$DIMSAH
 70
     0
  9
$DIMBLK1
  1

  9
$DIMBLK2
  1

  9
$DIMSTYLE
  2
STANDARD
  9
$DIMCLRD
 70
     0
  9
$DIMCLRE
 70
     0
  9
$DIMCLRT
 70
     0
  9
$DIMTFAC
 40
1.0
  9
$DIMGAP
 40
1.0
  9
$DIMJUST
 70
     0
  9
$DIMSD1
 70
     0
  9
$DIMSD2
 70
     0
  9
$DIMTOLJ
 70
     1
  9
$DIMTZIN
 70
     0
  9
$DIMALTZ
 70
     0
  9
$DIMALTTZ
 70
     0
  9
$DIMUPT
 70
     0
  9
$DIMDEC
 70
     1
  9
$DIMTDEC
 70
     1
  9
$DIMALTU
 70
     2
  9
$DIMALTTD
 70
     2
  9
$DIMTXSTY
  7
STANDARD
  9
$DIMAUNIT
 70
     0
  9
$DIMADEC
 70
     0
  9
$DIMALTRND
 40
0.0
  9
$DIMAZIN
 70
     3
  9
$DIMDSEP
 70
    46
  9
$DIMATFIT
 70
     3
  9
$DIMFRAC
 70
     0
  9
$DIMLDRBLK
  1
OPEN
  9
$DIMLUNIT
 70
     2
  9
$DIMLWD
 70
    -2
  9
$DIMLWE
 70
    -2
  9
$DIMTMOVE
 70
     0
  9
$LUNITS
 70
     2
  9
$LUPREC
 70
     4
  9
$SKETCHINC
 40
0.1
  9
$FILLETRAD
 40
0.0
  9
$AUNITS
 70
     0
  9
$AUPREC
 70
     0
  9
$MENU
  1
.
  9
$ELEVATION
 40
0.0
  9
$PELEVATION
 40
0.0
  9
$THICKNESS
 40
0.0
  9
$LIMCHECK
 70
     0
  9
$CHAMFERA
 40
0.0
  9
$CHAMFERB
 40
0.0
  9
$CHAMFERC
 40
0.0
  9
$CHAMFERD
 40
0.0
  9
$SKPOLY
 70
     0
  9
$TDCREATE
 40
2452286.555658658
  9
$TDUCREATE
 40
2452286.180658658
  9
$TDUPDATE
 40
2457458.565388194
  9
$TDUUPDATE
 40
2457458.190388194
  9
$TDINDWG
 40
1.3115740856
  9
$TDUSRTIMER
 40
1.3115731713
  9
$USRTIMER
 70
     1
  9
$ANGBASE
 50
0.0
  9
$ANGDIR
 70
     0
  9
$PDMODE
 70
     0
  9
$PDSIZE
 40
0.0
  9
$PLINEWID
 40
0.0
  9
$SPLFRAME
 70
     0
  9
$SPLINETYPE
 70
     6
  9
$SPLINESEGS
 70
     8
  9
$HANDSEED
  5
740E
  9
$SURFTAB1
 70
     6
  9
$SURFTAB2
 70
     6
  9
$SURFTYPE
 70
     6
  9
$SURFU
 70
     6
  9
$SURFV
 70
     6
  9
$UCSBASE
  2

  9
$UCSNAME
  2

  9
$UCSORG
 10
0.0
 20
0.0
 30
0.0
  9
$UCSXDIR
 10
1.0
 20
0.0
 30
0.0
  9
$UCSYDIR
 10
0.0
 20
1.0
 30
0.0
  9
$UCSORTHOREF
  2

  9
$UCSORTHOVIEW
 70
     0
  9
$UCSORGTOP
 10
0.0
 20
0.0
 30
0.0
  9
$UCSORGBOTTOM
 10
0.0
 20
0.0
 30
0.0
  9
$UCSORGLEFT
 10
0.0
 20
0.0
 30
0.0
  9
$UCSORGRIGHT
 10
0.0
 20
0.0
 30
0.0
  9
$UCSORGFRONT
 10
0.0
 20
0.0
 30
0.0
  9
$UCSORGBACK
 10
0.0
 20
0.0
 30
0.0
  9
$PUCSBASE
  2

  9
$PUCSNAME
  2

  9
$PUCSORG
 10
0.0
 20
0.0
 30
0.0
  9
$PUCSXDIR
 10
1.0
 20
0.0
 30
0.0
  9
$PUCSYDIR
 10
0.0
 20
1.0
 30
0.0
  9
$PUCSORTHOREF
  2

  9
$PUCSORTHOVIEW
 70
     0
  9
$PUCSORGTOP
 10
0.0
 20
0.0
 30
0.0
  9
$PUCSORGBOTTOM
 10
0.0
 20
0.0
 30
0.0
  9
$PUCSORGLEFT
 10
0.0
 20
0.0
 30
0.0
  9
$PUCSORGRIGHT
 10
0.0
 20
0.0
 30
0.0
  9
$PUCSORGFRONT
 10
0.0
 20
0.0
 30
0.0
  9
$PUCSORGBACK
 10
0.0
 20
0.0
 30
0.0
  9
$USERI1
 70
     0
  9
$USERI2
 70
     0
  9
$USERI3
 70
     0
  9
$USERI4
 70
     0
  9
$USERI5
 70
     0
  9
$USERR1
 40
0.0
  9
$USERR2
 40
0.0
  9
$USERR3
 40
0.0
  9
$USERR4
 40
0.0
  9
$USERR5
 40
0.0
  9
$WORLDVIEW
 70
     1
  9
$SHADEDGE
 70
     3
  9
$SHADEDIF
 70
    70
  9
$TILEMODE
 70
     1
  9
$MAXACTVP
 70
    48
  9
$PINSBASE
 10
0.0
 20
0.0
 30
0.0
  9
$PLIMCHECK
 70
     0
  9
$PEXTMIN
 10
4.273573
 20
5.205245999999998
 30
0.0
  9
$PEXTMAX
 10
194.610095
 20
283.0697009999996
 30
0.0
  9
$PLIMMIN
 10
-5.873749
 20
-5.87375
  9
$PLIMMAX
 10
204.099579
 20
291.1369009999999
  9
$UNITMODE
 70
     0
  9
$VISRETAIN
 70
     1
  9
$PLINEGEN
 70
     0
  9
$PSLTSCALE
 70
     1
  9
$TREEDEPTH
 70
  3020
  9
$CMLSTYLE
  2
STANDARD
  9
$CMLJUST
 70
     0
  9
$CMLSCALE
 40
1.0
  9
$PROXYGRAPHICS
 70
     1
  9
$MEASUREMENT
 70
     0
  9
$CELWEIGHT
370
    -1
  9
$ENDCAPS
280
     0
  9
$JOINSTYLE
280
     0
  9
$LWDISPLAY
290
     0
  9
$INSUNITS
 70
     0
  9
$HYPERLINKBASE
  1

  9
$STYLESHEET
  1
KIKI.CTB
  9
$XEDIT
290
     1
  9
$CEPSNTYPE
380
     0
  9
$PSTYLEMODE
290
     1
  9
$FINGERPRINTGUID
  2

  9
$VERSIONGUID
  2
{C56A0F8F-01DD-47A6-B36E-CECD1FC30CC4}
  9
$EXTNAMES
290
     1
  9
$PSVPSCALE
 40
0.0
  9
$OLESTARTUP
290
     0
  0
ENDSEC
  0
SECTION
  2
CLASSES
  0
CLASS
  1
ACDBDICTIONARYWDFLT
  2
AcDbDictionaryWithDefault
  3
ObjectDBX Classes
 90
        0
280
     0
281
     0
  0
CLASS
  1
ACDBPLACEHOLDER
  2
AcDbPlaceHolder
  3
ObjectDBX Classes
 90
        0
280
     0
281
     0
  0
CLASS
  1
LAYOUT
  2
AcDbLayout
  3
ObjectDBX Classes
 90
        0
280
     0
281
     0
  0
CLASS
  1
DICTIONARYVAR
  2
AcDbDictionaryVar
  3
ObjectDBX Classes
 90
        0
280
     0
281
     0
  0
CLASS
  1
MATERIAL
  2
AcDbMaterial
  3
ObjectDBX Classes
 90
     1153
280
     0
281
     0
  0
CLASS
  1
VISUALSTYLE
  2
AcDbVisualStyle
  3
ObjectDBX Classes
 90
     4095
280
     0
281
     0
  0
CLASS
  1
TABLESTYLE
  2
AcDbTableStyle
  3
ObjectDBX Classes
 90
     4095
280
     0
281
     0
  0
CLASS
  1
SCALE
  2
AcDbScale
  3
ObjectDBX Classes
 90
     1153
280
     0
281
     0
  0
CLASS
  1
MLEADERSTYLE
  2
AcDbMLeaderStyle
  3
ACDB_MLEADERSTYLE_CLASS
 90
     4095
280
     0
281
     0
  0
CLASS
  1
ACDBSECTIONVIEWSTYLE
  2
AcDbSectionViewStyle
  3
ObjectDBX Classes
 90
     1025
280
     0
281
     0
  0
CLASS
  1
ACDBDETAILVIEWSTYLE
  2
AcDbDetailViewStyle
  3
ObjectDBX Classes
 90
     1025
280
     0
281
     0
  0
CLASS
  1
SORTENTSTABLE
  2
AcDbSortentsTable
  3
ObjectDBX Classes
 90
        0
280
     0
281
     0
  0
CLASS
  1
CELLSTYLEMAP
  2
AcDbCellStyleMap
  3
ObjectDBX Classes
 90
     1152
280
     0
281
     0
  0
ENDSEC
  0
SECTION
  2
TABLES
  0
TABLE
  2
VPORT
  5
8
330
0
100
AcDbSymbolTable
 70
     1
  0
VPORT
  5
730F
330
8
100
AcDbSymbolTableRecord
100
AcDbViewportTableRecord
  2
*Active
 70
     0
 10
0.0
 20
0.0
 11
1.0
 21
1.0
 12
66.50506281471007
 22
196.1368921064913
 13
0.0
 23
0.0
 14
1.0
 24
1.0
 15
10.0
 25
10.0
 16
0.0
 26
0.0
 36
1.0
 17
0.0
 27
0.0
 37
0.0
 40
335.2474712419037
 41
2.108991825613078
 42
50.0
 43
0.0
 44
0.0
 50
0.0
 51
0.0
 71
     0
 72
   100
 73
     1
 74
     1
 75
     0
 76
     0
 77
     0
 78
     0
281
     0
 65
     1
110
0.0
120
0.0
130
0.0
111
1.0
121
0.0
131
0.0
112
0.0
122
1.0
132
0.0
 79
     0
146
0.0
1001
ACAD_NAV_VCDISPLAY
1070
     3
  0
ENDTAB
  0
TABLE
  2
LTYPE
  5
5
330
0
100
AcDbSymbolTable
 70
     5
  0
LTYPE
  5
13
330
5
100
AcDbSymbolTableRecord
100
AcDbLinetypeTableRecord
  2
BYBLOCK
 70
     0
  3

 72
    65
 73
     0
 40
0.0
  0
LTYPE
  5
14
330
5
100
AcDbSymbolTableRecord
100
AcDbLinetypeTableRecord
  2
BYLAYER
 70
     0
  3

 72
    65
 73
     0
 40
0.0
  0
LTYPE
  5
15
330
5
100
AcDbSymbolTableRecord
100
AcDbLinetypeTableRecord
  2
CONTINUOUS
 70
     0
  3
Solid line
 72
    65
 73
     0
 40
0.0
  0
LTYPE
  5
22
330
5
100
AcDbSymbolTableRecord
100
AcDbLinetypeTableRecord
  2
CONTINOUS
 70
     0
  3
Solid line
 72
    65
 73
     0
 40
0.0
  0
LTYPE
  5
23
330
5
100
AcDbSymbolTableRecord
100
AcDbLinetypeTableRecord
  2
DASHED
 70
     0
  3
__ __ __ __ __ __ __ __ __ __ __ __ __ __ __
 72
    65
 73
     2
 40
0.75
 49
0.5
 74
     0
 49
-0.25
 74
     0
  0
LTYPE
  5
24
330
5
100
AcDbSymbolTableRecord
100
AcDbLinetypeTableRecord
  2
DASHDOT
 70
     0
  3
__ . __ . __ . __ . __ . __ . __ . __ . __ . __
 72
    65
 73
     4
 40
1.0
 49
0.5
 74
     0
 49
-0.25
 74
     0
 49
0.0
 74
     0
 49
-0.25
 74
     0
  0
LTYPE
  5
4C47
330
5
100
AcDbSymbolTableRecord
100
AcDbLinetypeTableRecord
  2
DIVIDE
 70
     0
  3
Divide ____ . . ____ . . ____ . . ____ . . ____
 72
    65
 73
     6
 40
1.25
 49
0.5
 74
     0
 49
-0.25
 74
     0
 49
0.0
 74
     0
 49
-0.25
 74
     0
 49
0.0
 74
     0
 49
-0.25
 74
     0
  0
ENDTAB
  0
TABLE
  2
LAYER
  5
2
330
0
100
AcDbSymbolTable
 70
    12
  0
LAYER
  5
10
102
{ACAD_XDICTIONARY
360
73AD
102
}
330
2
100
AcDbSymbolTableRecord
100
AcDbLayerTableRecord
  2
0
 70
     0
 62
     7
  6
CONTINOUS
370
    -3
390
F
  0
LAYER
  5
2F
102
{ACAD_XDICTIONARY
360
73AF
102
}
330
2
100
AcDbSymbolTableRecord
100
AcDbLayerTableRecord
  2
10
 70
     0
 62
     4
  6
CONTINOUS
370
    -3
390
F
  0
LAYER
  5
31
102
{ACAD_XDICTIONARY
360
73B1
102
}
330
2
100
AcDbSymbolTableRecord
100
AcDbLayerTableRecord
  2
12
 70
     0
 62
     3
  6
CONTINOUS
370
    -3
390
F
  0
LAYER
  5
35
102
{ACAD_XDICTIONARY
360
73B3
102
}
330
2
100
AcDbSymbolTableRecord
100
AcDbLayerTableRecord
  2
16
 70
     0
 62
     6
  6
DASHDOT
370
    -3
390
F
  0
LAYER
  5
38
102
{ACAD_XDICTIONARY
360
73B5
102
}
330
2
100
AcDbSymbolTableRecord
100
AcDbLayerTableRecord
  2
19
 70
     0
 62
     7
  6
CONTINOUS
370
    -3
390
F
  0
LAYER
  5
3C
102
{ACAD_XDICTIONARY
360
73B7
102
}
330
2
100
AcDbSymbolTableRecord
100
AcDbLayerTableRecord
  2
11
 70
     0
 62
     1
  6
CONTINOUS
370
    -3
390
F
  0
LAYER
  5
3D
102
{ACAD_XDICTIONARY
360
73B9
102
}
330
2
100
AcDbSymbolTableRecord
100
AcDbLayerTableRecord
  2
24
 70
     0
 62
     2
  6
CONTINOUS
370
    -3
390
F
  0
LAYER
  5
3A2
102
{ACAD_XDICTIONARY
360
73BB
102
}
330
2
100
AcDbSymbolTableRecord
100
AcDbLayerTableRecord
  2
30
 70
     0
 62
     9
  6
CONTINUOUS
370
    -3
390
F
  0
LAYER
  5
3A4
330
2
100
AcDbSymbolTableRecord
100
AcDbLayerTableRecord
  2
DEFPOINTS
 70
     0
 62
     7
  6
CONTINUOUS
290
     0
370
    -3
390
F
  0
LAYER
  5
3BBA
102
{ACAD_XDICTIONARY
360
73BD
102
}
330
2
100
AcDbSymbolTableRecord
100
AcDbLayerTableRecord
  2
18
 70
     0
 62
     5
  6
DIVIDE
370
    -3
390
F
  0
LAYER
  5
5117
102
{ACAD_XDICTIONARY
360
73BF
102
}
330
2
100
AcDbSymbolTableRecord
100
AcDbLayerTableRecord
  2
TOP
 70
     0
 62
     7
  6
CONTINUOUS
370
    -3
390
F
  0
LAYER
  5
5C47
102
{ACAD_XDICTIONARY
360
73C1
102
}
330
2
100
AcDbSymbolTableRecord
100
AcDbLayerTableRecord
  2
17
 70
     0
 62
     2
  6
DASHDOT
370
    -3
390
F
  0
ENDTAB
  0
TABLE
  2
STYLE
  5
3
330
0
100
AcDbSymbolTable
 70
     3
  0
STYLE
  5
11
330
3
100
AcDbSymbolTableRecord
100
AcDbTextStyleTableRecord
  2
STANDARD
 70
     0
 40
0.0
 41
1.0
 50
0.0
 71
     0
 42
2.0
  3
txt.shx
  4
bigfont.shx
  0
STYLE
  5
42
330
3
100
AcDbSymbolTableRecord
100
AcDbTextStyleTableRecord
  2
STANDARD1
 70
     0
 40
0.0
 41
1.0
 50
0.0
 71
     0
 42
5.0
  3
MONOTXT
  4
BIGFONT
  0
STYLE
  5
5016
330
3
100
AcDbSymbolTableRecord
100
AcDbTextStyleTableRecord
  2
UGMTXT
 70
     0
 40
0.0
 41
1.0
 50
0.0
 71
     0
 42
0.2
  3
ugmtxt
  4
bigfont
  0
ENDTAB
  0
TABLE
  2
VIEW
  5
6
330
0
100
AcDbSymbolTable
 70
     3
  0
VIEW
  5
230C
330
6
100
AcDbSymbolTableRecord
100
AcDbViewTableRecord
  2
OLE1
 70
     0
 40
148.912488
 10
429.497628
 20
2.560627
 41
103.145806
 11
0.0
 21
0.0
 31
1.0
 12
0.0
 22
0.0
 32
0.0
 42
50.0
 43
0.0
 44
0.0
 50
0.0
 71
     0
281
     0
 72
     0
  0
VIEW
  5
230E
330
6
100
AcDbSymbolTableRecord
100
AcDbViewTableRecord
  2
OLE2
 70
     0
 40
170.778692
 10
322.66497
 20
-5.978304
 41
102.467215
 11
0.0
 21
0.0
 31
1.0
 12
0.0
 22
0.0
 32
0.0
 42
50.0
 43
0.0
 44
0.0
 50
0.0
 71
     0
281
     0
 72
     0
  0
VIEW
  5
23AA
330
6
100
AcDbSymbolTableRecord
100
AcDbViewTableRecord
  2
OLE3
 70
     0
 40
591.7897389999998
 10
84.79698199999999
 20
-46.09335999999998
 41
388.792096
 11
0.0
 21
0.0
 31
1.0
 12
0.0
 22
0.0
 32
0.0
 42
50.0
 43
0.0
 44
0.0
 50
0.0
 71
     0
281
     0
 72
     0
  0
ENDTAB
  0
TABLE
  2
UCS
  5
7
330
0
100
AcDbSymbolTable
 70
     0
  0
ENDTAB
  0
TABLE
  2
APPID
  5
9
330
0
100
AcDbSymbolTable
 70
     5
  0
APPID
  5
12
330
9
100
AcDbSymbolTableRecord
100
AcDbRegAppTableRecord
  2
ACAD
 70
     0
  0
APPID
  5
ECD
330
9
100
AcDbSymbolTableRecord
100
AcDbRegAppTableRecord
  2
CONTENTBLOCKICON
 70
     0
  0
APPID
  5
7366
330
9
100
AcDbSymbolTableRecord
100
AcDbRegAppTableRecord
  2
ACAD_NAV_VCDISPLAY
 70
     0
  0
APPID
  5
7367
330
9
100
AcDbSymbolTableRecord
100
AcDbRegAppTableRecord
  2
ACAD_PSEXT
 70
     0
  0
APPID
  5
7409
330
9
100
AcDbSymbolTableRecord
100
AcDbRegAppTableRecord
  2
ACAD_MLEADERVER
 70
     0
  0
ENDTAB
  0
TABLE
  2
DIMSTYLE
  5
A
330
0
100
AcDbSymbolTable
 70
     1
100
AcDbDimStyleTable
 71
     1
340
175
  0
DIMSTYLE
105
175
102
{ACAD_REACTORS
330
6BE4
330
6D7C
330
6DAC
330
6DB9
330
6DC6
330
6DD3
330
6DE0
330
6E49
330
6E56
330
6E65
330
6E72
330
6E73
330
6ECF
330
6F6B
330
6F78
330
6F85
330
6F92
330
6F9F
330
6FAC
330
6FB9
330
6FD1
330
7134
330
721B
330
7228
330
7235
330
7242
330
724F
330
728F
330
7386
330
7393
330
73A0
102
}
330
A
100
AcDbSymbolTableRecord
100
AcDbDimStyleTableRecord
  2
STANDARD
 70
     0
 41
2.0
 42
1.0
 43
0.5
 44
0.5
 73
     0
 77
     3
 78
    12
140
4.0
147
1.0
271
     1
272
     1
340
11
341
3B2
342
3B2
  0
ENDTAB
  0
TABLE
  2
BLOCK_RECORD
  5
1
330
0
100
AcDbSymbolTable
 70
    33
  0
BLOCK_RECORD
  5
1E
102
{ACAD_XDICTIONARY
360
178
102
}
330
1
100
AcDbSymbolTableRecord
100
AcDbBlockTableRecord
  2
*MODEL_SPACE
340
7309
  0
BLOCK_RECORD
  5
1A
102
{ACAD_XDICTIONARY
360
17A
102
}
330
1
100
AcDbSymbolTableRecord
100
AcDbBlockTableRecord
  2
*PAPER_SPACE
340
730A
  0
BLOCK_RECORD
  5
3B2
330
1
100
AcDbSymbolTableRecord
100
AcDbBlockTableRecord
  2
_OPEN
340
0
102
{BLKREFS
331
6DE6
331
6DE7
331
6EC9
331
6ECA
331
6F7D
331
6F7E
331
6F97
331
6F98
331
6FD6
331
6FD7
331
722D
331
722E
331
7247
331
7248
331
7289
331
728A
331
6FA4
331
6FA5
331
6FB1
331
6FB2
331
6FCB
331
6FCC
331
7139
331
713A
331
7220
331
7221
331
723A
331
723B
331
7294
331
7295
331
6D44
331
6D45
331
6D8C
331
6D8D
331
71FA
331
71FB
331
7203
331
7204
331
71F1
331
71F2
331
6DD8
331
6DD9
331
7215
331
7216
331
720C
331
720D
331
712E
331
712F
331
6EC1
331
6EDF
331
6EE0
331
6F70
331
6F71
331
72FD
331
72FE
331
738D
331
738E
331
739A
331
739B
331
73A7
331
73A8
102
}
  0
BLOCK_RECORD
  5
6C19
330
1
100
AcDbSymbolTableRecord
100
AcDbBlockTableRecord
  2
*D1
340
0
  0
BLOCK_RECORD
  5
6D7D
330
1
100
AcDbSymbolTableRecord
100
AcDbBlockTableRecord
  2
*D2
340
0
  0
BLOCK_RECORD
  5
6DAD
330
1
100
AcDbSymbolTableRecord
100
AcDbBlockTableRecord
  2
*D3
340
0
  0
BLOCK_RECORD
  5
6DBA
330
1
100
AcDbSymbolTableRecord
100
AcDbBlockTableRecord
  2
*D4
340
0
  0
BLOCK_RECORD
  5
6DC7
330
1
100
AcDbSymbolTableRecord
100
AcDbBlockTableRecord
  2
*D5
340
0
  0
BLOCK_RECORD
  5
6DD4
330
1
100
AcDbSymbolTableRecord
100
AcDbBlockTableRecord
  2
*D6
340
0
  0
BLOCK_RECORD
  5
6DE1
330
1
100
AcDbSymbolTableRecord
100
AcDbBlockTableRecord
  2
*D7
340
0
  0
BLOCK_RECORD
  5
6E4A
330
1
100
AcDbSymbolTableRecord
100
AcDbBlockTableRecord
  2
*D8
340
0
  0
BLOCK_RECORD
  5
6E57
330
1
100
AcDbSymbolTableRecord
100
AcDbBlockTableRecord
  2
*D9
340
0
  0
BLOCK_RECORD
  5
6E66
330
1
100
AcDbSymbolTableRecord
100
AcDbBlockTableRecord
  2
*D10
340
0
  0
BLOCK_RECORD
  5
6E74
330
1
100
AcDbSymbolTableRecord
100
AcDbBlockTableRecord
  2
*D11
340
0
  0
BLOCK_RECORD
  5
6E80
330
1
100
AcDbSymbolTableRecord
100
AcDbBlockTableRecord
  2
*D12
340
0
  0
BLOCK_RECORD
  5
6ED0
330
1
100
AcDbSymbolTableRecord
100
AcDbBlockTableRecord
  2
*D13
340
0
  0
BLOCK_RECORD
  5
6F6C
330
1
100
AcDbSymbolTableRecord
100
AcDbBlockTableRecord
  2
*D14
340
0
  0
BLOCK_RECORD
  5
6F79
330
1
100
AcDbSymbolTableRecord
100
AcDbBlockTableRecord
  2
*D15
340
0
  0
BLOCK_RECORD
  5
6F86
330
1
100
AcDbSymbolTableRecord
100
AcDbBlockTableRecord
  2
*D16
340
0
  0
BLOCK_RECORD
  5
6F93
330
1
100
AcDbSymbolTableRecord
100
AcDbBlockTableRecord
  2
*D17
340
0
  0
BLOCK_RECORD
  5
6FA0
330
1
100
AcDbSymbolTableRecord
100
AcDbBlockTableRecord
  2
*D18
340
0
  0
BLOCK_RECORD
  5
6FAD
330
1
100
AcDbSymbolTableRecord
100
AcDbBlockTableRecord
  2
*D19
340
0
  0
BLOCK_RECORD
  5
6FBA
330
1
100
AcDbSymbolTableRecord
100
AcDbBlockTableRecord
  2
*D20
340
0
  0
BLOCK_RECORD
  5
6FD2
330
1
100
AcDbSymbolTableRecord
100
AcDbBlockTableRecord
  2
*D21
340
0
  0
BLOCK_RECORD
  5
7135
330
1
100
AcDbSymbolTableRecord
100
AcDbBlockTableRecord
  2
*D22
340
0
  0
BLOCK_RECORD
  5
721C
330
1
100
AcDbSymbolTableRecord
100
AcDbBlockTableRecord
  2
*D23
340
0
  0
BLOCK_RECORD
  5
7229
330
1
100
AcDbSymbolTableRecord
100
AcDbBlockTableRecord
  2
*D24
340
0
  0
BLOCK_RECORD
  5
7236
330
1
100
AcDbSymbolTableRecord
100
AcDbBlockTableRecord
  2
*D25
340
0
  0
BLOCK_RECORD
  5
7243
330
1
100
AcDbSymbolTableRecord
100
AcDbBlockTableRecord
  2
*D26
340
0
  0
BLOCK_RECORD
  5
7250
330
1
100
AcDbSymbolTableRecord
100
AcDbBlockTableRecord
  2
*D27
340
0
  0
BLOCK_RECORD
  5
7290
330
1
100
AcDbSymbolTableRecord
100
AcDbBlockTableRecord
  2
*D28
340
0
  0
BLOCK_RECORD
  5
7387
330
1
100
AcDbSymbolTableRecord
100
AcDbBlockTableRecord
  2
*D30
340
0
  0
BLOCK_RECORD
  5
7394
330
1
100
AcDbSymbolTableRecord
100
AcDbBlockTableRecord
  2
*D31
340
0
  0
BLOCK_RECORD
  5
73A1
330
1
100
AcDbSymbolTableRecord
100
AcDbBlockTableRecord
  2
*D32
340
0
  0
ENDTAB
  0
ENDSEC
  0
SECTION
  2
BLOCKS
  0
BLOCK
  5
1F
330
1E
100
AcDbEntity
  8
0
100
AcDbBlockBegin
  2
*MODEL_SPACE
 70
     0
 10
0.0
 20
0.0
 30
0.0
  3
*MODEL_SPACE
  1

  0
ENDBLK
  5
20
330
1E
100
AcDbEntity
  8
0
100
AcDbBlockEnd
  0
BLOCK
  5
1B
330
1A
100
AcDbEntity
 67
     1
  8
0
100
AcDbBlockBegin
  2
*PAPER_SPACE
 70
     0
 10
0.0
 20
0.0
 30
0.0
  3
*PAPER_SPACE
  1

  0
ENDBLK
  5
1C
330
1A
100
AcDbEntity
 67
     1
  8
0
100
AcDbBlockEnd
  0
BLOCK
  5
3B6
330
3B2
100
AcDbEntity
  8
0
100
AcDbBlockBegin
  2
_OPEN
 70
     0
 10
0.0
 20
0.0
 30
0.0
  3
_OPEN
  1

  0
LINE
  5
3B3
330
3B2
100
AcDbEntity
  8
30
  6
Continuous
 62
     0
100
AcDbLine
 10
-1.0
 20
0.166667
 30
0.0
 11
0.0
 21
0.0
 31
0.0
  0
LINE
  5
3B4
330
3B2
100
AcDbEntity
  8
30
  6
Continuous
 62
     0
100
AcDbLine
 10
-1.0
 20
-0.166667
 30
0.0
 11
0.0
 21
0.0
 31
0.0
  0
LINE
  5
3B5
330
3B2
100
AcDbEntity
  8
30
  6
Continuous
 62
     0
100
AcDbLine
 10
0.0
 20
0.0
 30
0.0
 11
-1.0
 21
0.0
 31
0.0
  0
ENDBLK
  5
3B7
330
3B2
100
AcDbEntity
  8
0
100
AcDbBlockEnd
  0
BLOCK
  5
6C23
330
6C19
100
AcDbEntity
  8
0
100
AcDbBlockBegin
  2
*D1
 70
     1
 10
0.0
 20
0.0
 30
0.0
  3
*D1
  1

  0
LINE
  5
6D41
330
6C19
100
AcDbEntity
  8
30
  6
Continuous
 62
     0
100
AcDbLine
 10
0.0000000000000001
 20
270.8933368984127
 30
0.0
 11
0.0000000000000025
 21
310.2406209576415
 31
0.0
  0
LINE
  5
6D42
330
6C19
100
AcDbEntity
  8
30
  6
Continuous
 62
     0
100
AcDbLine
 10
35.0
 20
273.8165692823121
 30
0.0
 11
35.0
 21
310.2406209576415
 31
0.0
  0
LINE
  5
6D43
330
6C19
100
AcDbEntity
  8
30
  6
Continuous
 62
     0
100
AcDbLine
 10
2.000000000000002
 20
309.7406209576415
 30
0.0
 11
33.0
 21
309.7406209576415
 31
0.0
  0
INSERT
  5
6D44
330
6C19
100
AcDbEntity
  8
30
  6
Continuous
 62
     0
100
AcDbBlockReference
  2
_OPEN
 10
0.0000000000000024
 20
309.7406209576415
 30
0.0
 41
2.0
 42
2.0
 43
2.0
 50
180.0
  0
INSERT
  5
6D45
330
6C19
100
AcDbEntity
  8
30
  6
Continuous
 62
     0
100
AcDbBlockReference
  2
_OPEN
 10
35.0
 20
309.7406209576415
 30
0.0
 41
2.0
 42
2.0
 43
2.0
  0
MTEXT
  5
6D46
330
6C19
100
AcDbEntity
  8
30
  6
Continuous
 62
     0
100
AcDbMText
 10
17.5
 20
312.7406209576415
 30
0.0
 40
4.0
 41
0.0
 71
     5
 72
     1
  1
\A1;35
 73
     1
 44
1.0
1001
ACAD
1000
MTEXTBEGIN
1070
    73
1070
     1
1070
    44
1040
1.0
1070
    74
1070
     0
1000
MTEXTEND
  0
POINT
  5
6D47
330
6C19
100
AcDbEntity
  8
DEFPOINTS
  6
Continuous
 62
     0
100
AcDbPoint
 10
0.0
 20
269.8933368984127
 30
0.0
  0
POINT
  5
6D48
330
6C19
100
AcDbEntity
  8
DEFPOINTS
  6
Continuous
 62
     0
100
AcDbPoint
 10
35.0
 20
272.8165692823121
 30
0.0
  0
POINT
  5
6D49
330
6C19
100
AcDbEntity
  8
DEFPOINTS
  6
Continuous
 62
     0
100
AcDbPoint
 10
35.0
 20
309.7406209576415
 30
0.0
  0
ENDBLK
  5
6C24
330
6C19
100
AcDbEntity
  8
0
100
AcDbBlockEnd
  0
BLOCK
  5
6D87
330
6D7D
100
AcDbEntity
  8
0
100
AcDbBlockBegin
  2
*D2
 70
     1
 10
0.0
 20
0.0
 30
0.0
  3
*D2
  1

  0
LINE
  5
6D89
330
6D7D
100
AcDbEntity
  8
30
  6
Continuous
 62
     0
100
AcDbLine
 10
-35.0
 20
270.8933368984127
 30
0.0
 11
-35.0
 21
310.2406209576415
 31
0.0
  0
LINE
  5
6D8A
330
6D7D
100
AcDbEntity
  8
30
  6
Continuous
 62
     0
100
AcDbLine
 10
0.0000000000000001
 20
273.8165692823121
 30
0.0
 11
0.0000000000000023
 21
310.2406209576415
 31
0.0
  0
LINE
  5
6D8B
330
6D7D
100
AcDbEntity
  8
30
  6
Continuous
 62
     0
100
AcDbLine
 10
-33.0
 20
309.7406209576415
 30
0.0
 11
-1.999999999999995
 21
309.7406209576415
 31
0.0
  0
INSERT
  5
6D8C
330
6D7D
100
AcDbEntity
  8
30
  6
Continuous
 62
     0
100
AcDbBlockReference
  2
_OPEN
 10
-35.0
 20
309.7406209576415
 30
0.0
 41
2.0
 42
2.0
 43
2.0
 50
180.0
  0
INSERT
  5
6D8D
330
6D7D
100
AcDbEntity
  8
30
  6
Continuous
 62
     0
100
AcDbBlockReference
  2
_OPEN
 10
0.0000000000000023
 20
309.7406209576415
 30
0.0
 41
2.0
 42
2.0
 43
2.0
  0
MTEXT
  5
6D8E
330
6D7D
100
AcDbEntity
  8
30
  6
Continuous
 62
     0
100
AcDbMText
 10
-17.5
 20
312.7406209576415
 30
0.0
 40
4.0
 41
0.0
 71
     5
 72
     1
  1
\A1;35
 73
     1
 44
1.0
1001
ACAD
1000
MTEXTBEGIN
1070
    73
1070
     1
1070
    44
1040
1.0
1070
    74
1070
     0
1000
MTEXTEND
  0
POINT
  5
6D8F
330
6D7D
100
AcDbEntity
  8
DEFPOINTS
  6
Continuous
 62
     0
100
AcDbPoint
 10
-35.0
 20
269.8933368984127
 30
0.0
  0
POINT
  5
6D90
330
6D7D
100
AcDbEntity
  8
DEFPOINTS
  6
Continuous
 62
     0
100
AcDbPoint
 10
0.0
 20
272.8165692823121
 30
0.0
  0
POINT
  5
6D91
330
6D7D
100
AcDbEntity
  8
DEFPOINTS
  6
Continuous
 62
     0
100
AcDbPoint
 10
0.0000000000000023
 20
309.7406209576415
 30
0.0
  0
ENDBLK
  5
6D88
330
6D7D
100
AcDbEntity
  8
0
100
AcDbBlockEnd
  0
BLOCK
  5
6DB7
330
6DAD
100
AcDbEntity
  8
0
100
AcDbBlockBegin
  2
*D3
 70
     1
 10
0.0
 20
0.0
 30
0.0
  3
*D3
  1

  0
LINE
  5
71F7
330
6DAD
100
AcDbEntity
  8
30
  6
Continuous
 62
     0
100
AcDbLine
 10
37.0
 20
114.0
 30
0.0
 11
37.0
 21
126.2139219802485
 31
0.0
  0
LINE
  5
71F8
330
6DAD
100
AcDbEntity
  8
30
  6
Continuous
 62
     0
100
AcDbLine
 10
60.0
 20
114.0
 30
0.0
 11
60.0
 21
126.2139219802485
 31
0.0
  0
LINE
  5
71F9
330
6DAD
100
AcDbEntity
  8
30
  6
Continuous
 62
     0
100
AcDbLine
 10
39.0
 20
125.7139219802485
 30
0.0
 11
58.0
 21
125.7139219802485
 31
0.0
  0
INSERT
  5
71FA
330
6DAD
100
AcDbEntity
  8
30
  6
Continuous
 62
     0
100
AcDbBlockReference
  2
_OPEN
 10
37.0
 20
125.7139219802485
 30
0.0
 41
2.0
 42
2.0
 43
2.0
 50
180.0
  0
INSERT
  5
71FB
330
6DAD
100
AcDbEntity
  8
30
  6
Continuous
 62
     0
100
AcDbBlockReference
  2
_OPEN
 10
60.0
 20
125.7139219802485
 30
0.0
 41
2.0
 42
2.0
 43
2.0
  0
MTEXT
  5
71FC
330
6DAD
100
AcDbEntity
  8
30
  6
Continuous
 62
     0
100
AcDbMText
 10
48.5
 20
128.7139219802485
 30
0.0
 40
4.0
 41
0.0
 71
     5
 72
     1
  1
\A1;23
 73
     1
 44
1.0
1001
ACAD
1000
MTEXTBEGIN
1070
    73
1070
     1
1070
    44
1040
1.0
1070
    74
1070
     0
1000
MTEXTEND
  0
POINT
  5
71FD
330
6DAD
100
AcDbEntity
  8
DEFPOINTS
  6
Continuous
 62
     0
100
AcDbPoint
 10
37.0
 20
113.0
 30
0.0
  0
POINT
  5
71FE
330
6DAD
100
AcDbEntity
  8
DEFPOINTS
  6
Continuous
 62
     0
100
AcDbPoint
 10
60.0
 20
113.0
 30
0.0
  0
POINT
  5
71FF
330
6DAD
100
AcDbEntity
  8
DEFPOINTS
  6
Continuous
 62
     0
100
AcDbPoint
 10
60.0
 20
125.7139219802485
 30
0.0
  0
ENDBLK
  5
6DB8
330
6DAD
100
AcDbEntity
  8
0
100
AcDbBlockEnd
  0
BLOCK
  5
6DC4
330
6DBA
100
AcDbEntity
  8
0
100
AcDbBlockBegin
  2
*D4
 70
     1
 10
0.0
 20
0.0
 30
0.0
  3
*D4
  1

  0
LINE
  5
7200
330
6DBA
100
AcDbEntity
  8
30
  6
Continuous
 62
     0
100
AcDbLine
 10
57.0
 20
101.5
 30
0.0
 11
72.38107455351702
 21
101.5
 31
0.0
  0
LINE
  5
7201
330
6DBA
100
AcDbEntity
  8
30
  6
Continuous
 62
     0
100
AcDbLine
 10
61.0
 20
113.0
 30
0.0
 11
72.38107455351702
 21
113.0
 31
0.0
  0
LINE
  5
7202
330
6DBA
100
AcDbEntity
  8
30
  6
Continuous
 62
     0
100
AcDbLine
 10
71.88107455351702
 20
103.4999999999999
 30
0.0
 11
71.88107455351702
 21
111.0
 31
0.0
  0
INSERT
  5
7203
330
6DBA
100
AcDbEntity
  8
30
  6
Continuous
 62
     0
100
AcDbBlockReference
  2
_OPEN
 10
71.88107455351702
 20
101.5
 30
0.0
 41
2.0
 42
2.0
 43
2.0
 50
270.0
  0
INSERT
  5
7204
330
6DBA
100
AcDbEntity
  8
30
  6
Continuous
 62
     0
100
AcDbBlockReference
  2
_OPEN
 10
71.88107455351702
 20
113.0
 30
0.0
 41
2.0
 42
2.0
 43
2.0
 50
90.0
  0
MTEXT
  5
7205
330
6DBA
100
AcDbEntity
  8
30
  6
Continuous
 62
     0
100
AcDbMText
 10
68.88107455351698
 20
107.25
 30
0.0
 40
4.0
 41
0.0
 71
     5
 72
     1
  1
\A1;11.5
 11
0.0000000000000001
 21
1.0
 31
0.0
 73
     1
 44
1.0
1001
ACAD
1000
MTEXTBEGIN
1070
    73
1070
     1
1070
    44
1040
1.0
1070
    74
1070
     0
1000
MTEXTEND
  0
POINT
  5
7206
330
6DBA
100
AcDbEntity
  8
DEFPOINTS
  6
Continuous
 62
     0
100
AcDbPoint
 10
56.0
 20
101.5
 30
0.0
  0
POINT
  5
7207
330
6DBA
100
AcDbEntity
  8
DEFPOINTS
  6
Continuous
 62
     0
100
AcDbPoint
 10
60.0
 20
113.0
 30
0.0
  0
POINT
  5
7208
330
6DBA
100
AcDbEntity
  8
DEFPOINTS
  6
Continuous
 62
     0
100
AcDbPoint
 10
71.88107455351702
 20
113.0
 30
0.0
  0
ENDBLK
  5
6DC5
330
6DBA
100
AcDbEntity
  8
0
100
AcDbBlockEnd
  0
BLOCK
  5
6DD1
330
6DC7
100
AcDbEntity
  8
0
100
AcDbBlockBegin
  2
*D5
 70
     1
 10
0.0
 20
0.0
 30
0.0
  3
*D5
  1

  0
LINE
  5
71EE
330
6DC7
100
AcDbEntity
  8
30
  6
Continuous
 62
     0
100
AcDbLine
 10
61.0
 20
113.0
 30
0.0
 11
79.72921446927786
 21
113.0
 31
0.0
  0
LINE
  5
71EF
330
6DC7
100
AcDbEntity
  8
30
  6
Continuous
 62
     0
100
AcDbLine
 10
67.0
 20
82.5
 30
0.0
 11
79.72921446927784
 21
82.5
 31
0.0
  0
LINE
  5
71F0
330
6DC7
100
AcDbEntity
  8
30
  6
Continuous
 62
     0
100
AcDbLine
 10
79.22921446927786
 20
111.0
 30
0.0
 11
79.22921446927784
 21
84.50000000000001
 31
0.0
  0
INSERT
  5
71F1
330
6DC7
100
AcDbEntity
  8
30
  6
Continuous
 62
     0
100
AcDbBlockReference
  2
_OPEN
 10
79.22921446927786
 20
113.0
 30
0.0
 41
2.0
 42
2.0
 43
2.0
 50
90.0
  0
INSERT
  5
71F2
330
6DC7
100
AcDbEntity
  8
30
  6
Continuous
 62
     0
100
AcDbBlockReference
  2
_OPEN
 10
79.22921446927784
 20
82.5
 30
0.0
 41
2.0
 42
2.0
 43
2.0
 50
270.0
  0
MTEXT
  5
71F3
330
6DC7
100
AcDbEntity
  8
30
  6
Continuous
 62
     0
100
AcDbMText
 10
76.22921446927783
 20
97.75000000000002
 30
0.0
 40
4.0
 41
0.0
 71
     5
 72
     1
  1
\A1;30.5
 11
0.0000000000000001
 21
1.0
 31
0.0
 73
     1
 44
1.0
1001
ACAD
1000
MTEXTBEGIN
1070
    73
1070
     1
1070
    44
1040
1.0
1070
    74
1070
     0
1000
MTEXTEND
  0
POINT
  5
71F4
330
6DC7
100
AcDbEntity
  8
DEFPOINTS
  6
Continuous
 62
     0
100
AcDbPoint
 10
60.0
 20
113.0
 30
0.0
  0
POINT
  5
71F5
330
6DC7
100
AcDbEntity
  8
DEFPOINTS
  6
Continuous
 62
     0
100
AcDbPoint
 10
66.0
 20
82.5
 30
0.0
  0
POINT
  5
71F6
330
6DC7
100
AcDbEntity
  8
DEFPOINTS
  6
Continuous
 62
     0
100
AcDbPoint
 10
79.22921446927784
 20
82.5
 30
0.0
  0
ENDBLK
  5
6DD2
330
6DC7
100
AcDbEntity
  8
0
100
AcDbBlockEnd
  0
BLOCK
  5
6DDE
330
6DD4
100
AcDbEntity
  8
0
100
AcDbBlockBegin
  2
*D6
 70
     1
 10
0.0
 20
0.0
 30
0.0
  3
*D6
  1

  0
LINE
  5
6DD5
330
6DD4
100
AcDbEntity
  8
30
  6
Continuous
 62
     0
100
AcDbLine
 10
245.4371126716464
 20
83.51029255310345
 30
0.0
 11
245.4371126716464
 21
122.82636103358
 31
0.0
  0
LINE
  5
6DD6
330
6DD4
100
AcDbEntity
  8
30
  6
Continuous
 62
     0
100
AcDbLine
 10
186.4371126716464
 20
114.0102925531034
 30
0.0
 11
186.4371126716464
 21
122.82636103358
 31
0.0
  0
LINE
  5
6DD7
330
6DD4
100
AcDbEntity
  8
30
  6
Continuous
 62
     0
100
AcDbLine
 10
243.4371126716464
 20
122.32636103358
 30
0.0
 11
188.4371126716464
 21
122.32636103358
 31
0.0
  0
INSERT
  5
6DD8
330
6DD4
100
AcDbEntity
  8
30
  6
Continuous
 62
     0
100
AcDbBlockReference
  2
_OPEN
 10
245.4371126716464
 20
122.32636103358
 30
0.0
 41
2.0
 42
2.0
 43
2.0
  0
INSERT
  5
6DD9
330
6DD4
100
AcDbEntity
  8
30
  6
Continuous
 62
     0
100
AcDbBlockReference
  2
_OPEN
 10
186.4371126716464
 20
122.32636103358
 30
0.0
 41
2.0
 42
2.0
 43
2.0
 50
180.0
  0
MTEXT
  5
6DDA
330
6DD4
100
AcDbEntity
  8
30
  6
Continuous
 62
     0
100
AcDbMText
 10
215.9371126716464
 20
125.3263610335799
 30
0.0
 40
4.0
 41
0.0
 71
     5
 72
     1
  1
\A1;59
 73
     1
 44
1.0
1001
ACAD
1000
MTEXTBEGIN
1070
    73
1070
     1
1070
    44
1040
1.0
1070
    74
1070
     0
1000
MTEXTEND
  0
POINT
  5
6DDB
330
6DD4
100
AcDbEntity
  8
DEFPOINTS
  6
Continuous
 62
     0
100
AcDbPoint
 10
245.4371126716464
 20
82.51029255310346
 30
0.0
  0
POINT
  5
6DDC
330
6DD4
100
AcDbEntity
  8
DEFPOINTS
  6
Continuous
 62
     0
100
AcDbPoint
 10
186.4371126716464
 20
113.0102925531034
 30
0.0
  0
POINT
  5
6DDD
330
6DD4
100
AcDbEntity
  8
DEFPOINTS
  6
Continuous
 62
     0
100
AcDbPoint
 10
186.4371126716464
 20
122.32636103358
 30
0.0
  0
ENDBLK
  5
6DDF
330
6DD4
100
AcDbEntity
  8
0
100
AcDbBlockEnd
  0
BLOCK
  5
6DEC
330
6DE1
100
AcDbEntity
  8
0
100
AcDbBlockBegin
  2
*D7
 70
     1
 10
0.0
 20
0.0
 30
0.0
  3
*D7
  1

  0
LINE
  5
6DE2
330
6DE1
100
AcDbEntity
  8
30
  6
Continuous
 62
     0
100
AcDbLine
 10
186.4371126716464
 20
114.0102925531034
 30
0.0
 11
186.4371126716464
 21
123.32636103358
 31
0.0
  0
LINE
  5
6DE3
330
6DE1
100
AcDbEntity
  8
30
  6
Continuous
 62
     0
100
AcDbLine
 10
182.4371126716464
 20
114.0102925531034
 30
0.0
 11
182.4371126716464
 21
123.32636103358
 31
0.0
  0
LINE
  5
6DE4
330
6DE1
100
AcDbEntity
  8
30
  6
Continuous
 62
     0
100
AcDbLine
 10
188.4371126716464
 20
122.82636103358
 30
0.0
 11
190.4371126716464
 21
122.82636103358
 31
0.0
  0
LINE
  5
6DE5
330
6DE1
100
AcDbEntity
  8
30
  6
Continuous
 62
     0
100
AcDbLine
 10
180.4371126716464
 20
122.82636103358
 30
0.0
 11
173.7704460049797
 21
122.82636103358
 31
0.0
  0
INSERT
  5
6DE6
330
6DE1
100
AcDbEntity
  8
30
  6
Continuous
 62
     0
100
AcDbBlockReference
  2
_OPEN
 10
186.4371126716464
 20
122.82636103358
 30
0.0
 41
2.0
 42
2.0
 43
2.0
 50
180.0
  0
INSERT
  5
6DE7
330
6DE1
100
AcDbEntity
  8
30
  6
Continuous
 62
     0
100
AcDbBlockReference
  2
_OPEN
 10
182.4371126716464
 20
122.82636103358
 30
0.0
 41
2.0
 42
2.0
 43
2.0
  0
MTEXT
  5
6DE8
330
6DE1
100
AcDbEntity
  8
30
  6
Continuous
 62
     0
100
AcDbMText
 10
176.1037793383131
 20
125.82636103358
 30
0.0
 40
4.0
 41
0.0
 71
     5
 72
     1
  1
\A1;4
 73
     1
 44
1.0
1001
ACAD
1000
MTEXTBEGIN
1070
    73
1070
     1
1070
    44
1040
1.0
1070
    74
1070
     0
1000
MTEXTEND
  0
POINT
  5
6DE9
330
6DE1
100
AcDbEntity
  8
DEFPOINTS
  6
Continuous
 62
     0
100
AcDbPoint
 10
186.4371126716464
 20
113.0102925531034
 30
0.0
  0
POINT
  5
6DEA
330
6DE1
100
AcDbEntity
  8
DEFPOINTS
  6
Continuous
 62
     0
100
AcDbPoint
 10
182.4371126716464
 20
113.0102925531034
 30
0.0
  0
POINT
  5
6DEB
330
6DE1
100
AcDbEntity
  8
DEFPOINTS
  6
Continuous
 62
     0
100
AcDbPoint
 10
182.4371126716464
 20
122.82636103358
 30
0.0
  0
ENDBLK
  5
6DED
330
6DE1
100
AcDbEntity
  8
0
100
AcDbBlockEnd
  0
BLOCK
  5
6E54
330
6E4A
100
AcDbEntity
  8
0
100
AcDbBlockBegin
  2
*D8
 70
     1
 10
0.0
 20
0.0
 30
0.0
  3
*D8
  1

  0
LINE
  5
7212
330
6E4A
100
AcDbEntity
  8
30
  6
Continuous
 62
     0
100
AcDbLine
 10
-20.0
 20
182.5
 30
0.0
 11
-85.96797204212538
 21
182.5
 31
0.0
  0
LINE
  5
7213
330
6E4A
100
AcDbEntity
  8
30
  6
Continuous
 62
     0
100
AcDbLine
 10
-53.49999999999997
 20
82.5
 30
0.0
 11
-85.9679720421254
 21
82.5
 31
0.0
  0
LINE
  5
7214
330
6E4A
100
AcDbEntity
  8
30
  6
Continuous
 62
     0
100
AcDbLine
 10
-85.46797204212538
 20
180.4999999999999
 30
0.0
 11
-85.46797204212541
 21
84.50000000000001
 31
0.0
  0
INSERT
  5
7215
330
6E4A
100
AcDbEntity
  8
30
  6
Continuous
 62
     0
100
AcDbBlockReference
  2
_OPEN
 10
-85.46797204212538
 20
182.5
 30
0.0
 41
2.0
 42
2.0
 43
2.0
 50
90.0
  0
INSERT
  5
7216
330
6E4A
100
AcDbEntity
  8
30
  6
Continuous
 62
     0
100
AcDbBlockReference
  2
_OPEN
 10
-85.46797204212541
 20
82.5
 30
0.0
 41
2.0
 42
2.0
 43
2.0
 50
270.0
  0
MTEXT
  5
7217
330
6E4A
100
AcDbEntity
  8
30
  6
Continuous
 62
     0
100
AcDbMText
 10
-88.4679720421254
 20
132.4999999999999
 30
0.0
 40
4.0
 41
0.0
 71
     5
 72
     1
  1
\A1;100
 11
0.0000000000000001
 21
1.0
 31
0.0
 73
     1
 44
1.0
1001
ACAD
1000
MTEXTBEGIN
1070
    73
1070
     1
1070
    44
1040
1.0
1070
    74
1070
     0
1000
MTEXTEND
  0
POINT
  5
7218
330
6E4A
100
AcDbEntity
  8
DEFPOINTS
  6
Continuous
 62
     0
100
AcDbPoint
 10
-19.0
 20
182.5
 30
0.0
  0
POINT
  5
7219
330
6E4A
100
AcDbEntity
  8
DEFPOINTS
  6
Continuous
 62
     0
100
AcDbPoint
 10
-52.49999999999997
 20
82.5
 30
0.0
  0
POINT
  5
721A
330
6E4A
100
AcDbEntity
  8
DEFPOINTS
  6
Continuous
 62
     0
100
AcDbPoint
 10
-85.46797204212541
 20
82.5
 30
0.0
  0
ENDBLK
  5
6E55
330
6E4A
100
AcDbEntity
  8
0
100
AcDbBlockEnd
  0
BLOCK
  5
6E61
330
6E57
100
AcDbEntity
  8
0
100
AcDbBlockBegin
  2
*D9
 70
     1
 10
0.0
 20
0.0
 30
0.0
  3
*D9
  1

  0
LINE
  5
7209
330
6E57
100
AcDbEntity
  8
30
  6
Continuous
 62
     0
100
AcDbLine
 10
-53.49999999999997
 20
82.5
 30
0.0
 11
-85.9679720421254
 21
82.5
 31
0.0
  0
LINE
  5
720A
330
6E57
100
AcDbEntity
  8
30
  6
Continuous
 62
     0
100
AcDbLine
 10
-53.49999999999997
 20
-82.5
 30
0.0
 11
-85.96797204212544
 21
-82.5
 31
0.0
  0
LINE
  5
720B
330
6E57
100
AcDbEntity
  8
30
  6
Continuous
 62
     0
100
AcDbLine
 10
-85.46797204212541
 20
80.5
 30
0.0
 11
-85.46797204212543
 21
-80.5
 31
0.0
  0
INSERT
  5
720C
330
6E57
100
AcDbEntity
  8
30
  6
Continuous
 62
     0
100
AcDbBlockReference
  2
_OPEN
 10
-85.46797204212541
 20
82.5
 30
0.0
 41
2.0
 42
2.0
 43
2.0
 50
90.0
  0
INSERT
  5
720D
330
6E57
100
AcDbEntity
  8
30
  6
Continuous
 62
     0
100
AcDbBlockReference
  2
_OPEN
 10
-85.46797204212543
 20
-82.5
 30
0.0
 41
2.0
 42
2.0
 43
2.0
 50
270.0
  0
MTEXT
  5
720E
330
6E57
100
AcDbEntity
  8
30
  6
Continuous
 62
     0
100
AcDbMText
 10
-88.4679720421254
 20
-0.0000000000000086
 30
0.0
 40
4.0
 41
0.0
 71
     5
 72
     1
  1
\A1;165
 11
0.0000000000000001
 21
1.0
 31
0.0
 73
     1
 44
1.0
1001
ACAD
1000
MTEXTBEGIN
1070
    73
1070
     1
1070
    44
1040
1.0
1070
    74
1070
     0
1000
MTEXTEND
  0
POINT
  5
720F
330
6E57
100
AcDbEntity
  8
DEFPOINTS
  6
Continuous
 62
     0
100
AcDbPoint
 10
-52.49999999999997
 20
82.5
 30
0.0
  0
POINT
  5
7210
330
6E57
100
AcDbEntity
  8
DEFPOINTS
  6
Continuous
 62
     0
100
AcDbPoint
 10
-52.49999999999997
 20
-82.5
 30
0.0
  0
POINT
  5
7211
330
6E57
100
AcDbEntity
  8
DEFPOINTS
  6
Continuous
 62
     0
100
AcDbPoint
 10
-85.46797204212543
 20
-82.5
 30
0.0
  0
ENDBLK
  5
6E62
330
6E57
100
AcDbEntity
  8
0
100
AcDbBlockEnd
  0
BLOCK
  5
6E70
330
6E66
100
AcDbEntity
  8
0
100
AcDbBlockBegin
  2
*D10
 70
     1
 10
0.0
 20
0.0
 30
0.0
  3
*D10
  1

  0
LINE
  5
712B
330
6E66
100
AcDbEntity
  8
30
  6
Continuous
 62
     0
100
AcDbLine
 10
-11.38009453517119
 20
-187.0
 30
0.0
 11
79.07549392574359
 21
-187.0
 31
0.0
  0
LINE
  5
712C
330
6E66
100
AcDbEntity
  8
30
  6
Continuous
 62
     0
100
AcDbLine
 10
23.61990546482881
 20
-313.0
 30
0.0
 11
79.07549392574356
 21
-313.0
 31
0.0
  0
LINE
  5
712D
330
6E66
100
AcDbEntity
  8
30
  6
Continuous
 62
     0
100
AcDbLine
 10
78.57549392574359
 20
-189.0
 30
0.0
 11
78.57549392574355
 21
-311.0
 31
0.0
  0
INSERT
  5
712E
330
6E66
100
AcDbEntity
  8
30
  6
Continuous
 62
     0
100
AcDbBlockReference
  2
_OPEN
 10
78.57549392574359
 20
-187.0
 30
0.0
 41
2.0
 42
2.0
 43
2.0
 50
90.0
  0
INSERT
  5
712F
330
6E66
100
AcDbEntity
  8
30
  6
Continuous
 62
     0
100
AcDbBlockReference
  2
_OPEN
 10
78.57549392574355
 20
-313.0
 30
0.0
 41
2.0
 42
2.0
 43
2.0
 50
270.0
  0
MTEXT
  5
7130
330
6E66
100
AcDbEntity
  8
30
  6
Continuous
 62
     0
100
AcDbMText
 10
75.57549392574363
 20
-250.0
 30
0.0
 40
4.0
 41
0.0
 71
     5
 72
     1
  1
\A1;126
 11
0.0000000000000001
 21
1.0
 31
0.0
 73
     1
 44
1.0
1001
ACAD
1000
MTEXTBEGIN
1070
    73
1070
     1
1070
    44
1040
1.0
1070
    74
1070
     0
1000
MTEXTEND
  0
POINT
  5
7131
330
6E66
100
AcDbEntity
  8
DEFPOINTS
  6
Continuous
 62
     0
100
AcDbPoint
 10
-12.38009453517117
 20
-187.0
 30
0.0
  0
POINT
  5
7132
330
6E66
100
AcDbEntity
  8
DEFPOINTS
  6
Continuous
 62
     0
100
AcDbPoint
 10
22.61990546482881
 20
-313.0
 30
0.0
  0
POINT
  5
7133
330
6E66
100
AcDbEntity
  8
DEFPOINTS
  6
Continuous
 62
     0
100
AcDbPoint
 10
78.57549392574355
 20
-313.0
 30
0.0
  0
ENDBLK
  5
6E71
330
6E66
100
AcDbEntity
  8
0
100
AcDbBlockEnd
  0
BLOCK
  5
6E7E
330
6E74
100
AcDbEntity
  8
0
100
AcDbBlockBegin
  2
*D11
 70
     1
 10
0.0
 20
0.0
 30
0.0
  3
*D11
  1

  0
LINE
  5
6EC6
330
6E74
100
AcDbEntity
  8
30
  6
Continuous
 62
     0
100
AcDbLine
 10
259.6199054648286
 20
-224.0
 30
0.0
 11
281.4029436113287
 21
-224.0
 31
0.0
  0
LINE
  5
6EC7
330
6E74
100
AcDbEntity
  8
30
  6
Continuous
 62
     0
100
AcDbLine
 10
260.8420532342504
 20
-276.0
 30
0.0
 11
281.4029436113287
 21
-276.0
 31
0.0
  0
LINE
  5
6EC8
330
6E74
100
AcDbEntity
  8
30
  6
Continuous
 62
     0
100
AcDbLine
 10
280.9029436113288
 20
-226.0
 30
0.0
 11
280.9029436113288
 21
-274.0
 31
0.0
  0
INSERT
  5
6EC9
330
6E74
100
AcDbEntity
  8
30
  6
Continuous
 62
     0
100
AcDbBlockReference
  2
_OPEN
 10
280.9029436113288
 20
-224.0
 30
0.0
 41
2.0
 42
2.0
 43
2.0
 50
90.0
  0
INSERT
  5
6ECA
330
6E74
100
AcDbEntity
  8
30
  6
Continuous
 62
     0
100
AcDbBlockReference
  2
_OPEN
 10
280.9029436113288
 20
-276.0
 30
0.0
 41
2.0
 42
2.0
 43
2.0
 50
270.0
  0
MTEXT
  5
6ECB
330
6E74
100
AcDbEntity
  8
30
  6
Continuous
 62
     0
100
AcDbMText
 10
277.9029436113288
 20
-249.9999999999999
 30
0.0
 40
4.0
 41
0.0
 71
     5
 72
     1
  1
\A1;52
 11
0.0000000000000001
 21
1.0
 31
0.0
 73
     1
 44
1.0
1001
ACAD
1000
MTEXTBEGIN
1070
    73
1070
     1
1070
    44
1040
1.0
1070
    74
1070
     0
1000
MTEXTEND
  0
POINT
  5
6ECC
330
6E74
100
AcDbEntity
  8
DEFPOINTS
  6
Continuous
 62
     0
100
AcDbPoint
 10
258.6199054648286
 20
-224.0
 30
0.0
  0
POINT
  5
6ECD
330
6E74
100
AcDbEntity
  8
DEFPOINTS
  6
Continuous
 62
     0
100
AcDbPoint
 10
259.8420532342502
 20
-276.0
 30
0.0
  0
POINT
  5
6ECE
330
6E74
100
AcDbEntity
  8
DEFPOINTS
  6
Continuous
 62
     0
100
AcDbPoint
 10
280.9029436113288
 20
-276.0
 30
0.0
  0
ENDBLK
  5
6E7F
330
6E74
100
AcDbEntity
  8
0
100
AcDbBlockEnd
  0
BLOCK
  5
6E89
330
6E80
100
AcDbEntity
  8
0
100
AcDbBlockBegin
  2
*D12
 70
     1
 10
0.0
 20
0.0
 30
0.0
  3
*D12
  1

  0
LINE
  5
6EBE
330
6E80
100
AcDbEntity
  8
30
  6
Continuous
 62
     0
100
AcDbLine
 10
269.0829195267651
 20
-222.1811816163853
 30
0.0
 11
262.7495861934318
 21
-222.1811816163853
 31
0.0
  0
LINE
  5
6EBF
330
6E80
100
AcDbEntity
  8
30
  6
Continuous
 62
     0
100
AcDbLine
 10
262.7495861934318
 20
-222.1811816163853
 30
0.0
 11
261.0977139019905
 21
-223.3087089698309
 31
0.0
  0
MTEXT
  5
6EC0
330
6E80
100
AcDbEntity
  8
30
  6
Continuous
 62
     0
100
AcDbMText
 10
266.4162528600984
 20
-219.1811816163853
 30
0.0
 40
4.0
 41
0.0
 71
     5
 72
     1
  1
\A1;R1
 73
     1
 44
1.0
1001
ACAD
1000
MTEXTBEGIN
1070
    73
1070
     1
1070
    44
1040
1.0
1070
    74
1070
     0
1000
MTEXTEND
  0
INSERT
  5
6EC1
330
6E80
100
AcDbEntity
  8
30
  6
Continuous
 62
     0
100
AcDbBlockReference
  2
_OPEN
 10
259.4458416105493
 20
-224.436236323277
 30
0.0
 41
2.0
 42
2.0
 43
2.0
 50
214.3164827908805
  0
LINE
  5
6EC2
330
6E80
100
AcDbEntity
  8
30
  6
Continuous
 62
     0
100
AcDbLine
 10
258.5299054648288
 20
-224.9999999999999
 30
0.0
 11
258.7099054648287
 21
-224.9999999999999
 31
0.0
  0
LINE
  5
6EC3
330
6E80
100
AcDbEntity
  8
30
  6
Continuous
 62
     0
100
AcDbLine
 10
258.6199054648286
 20
-225.09
 30
0.0
 11
258.6199054648286
 21
-224.9099999999998
 31
0.0
  0
POINT
  5
6EC4
330
6E80
100
AcDbEntity
  8
DEFPOINTS
  6
Continuous
 62
     0
100
AcDbPoint
 10
259.4458416105493
 20
-224.436236323277
 30
0.0
  0
POINT
  5
6EC5
330
6E80
100
AcDbEntity
  8
DEFPOINTS
  6
Continuous
 62
     0
100
AcDbPoint
 10
258.6199054648286
 20
-225.0
 30
0.0
  0
ENDBLK
  5
6E8A
330
6E80
100
AcDbEntity
  8
0
100
AcDbBlockEnd
  0
BLOCK
  5
6EDA
330
6ED0
100
AcDbEntity
  8
0
100
AcDbBlockBegin
  2
*D13
 70
     1
 10
0.0
 20
0.0
 30
0.0
  3
*D13
  1

  0
LINE
  5
6EDC
330
6ED0
100
AcDbEntity
  8
30
  6
Continuous
 62
     0
100
AcDbLine
 10
159.6199054648288
 20
-276.0
 30
0.0
 11
159.6199054648288
 21
-359.8804450066014
 31
0.0
  0
LINE
  5
6EDD
330
6ED0
100
AcDbEntity
  8
30
  6
Continuous
 62
     0
100
AcDbLine
 10
259.6199054648286
 20
-276.0
 30
0.0
 11
259.6199054648286
 21
-359.8804450066014
 31
0.0
  0
LINE
  5
6EDE
330
6ED0
100
AcDbEntity
  8
30
  6
Continuous
 62
     0
100
AcDbLine
 10
161.6199054648288
 20
-359.3804450066013
 30
0.0
 11
257.6199054648288
 21
-359.3804450066013
 31
0.0
  0
INSERT
  5
6EDF
330
6ED0
100
AcDbEntity
  8
30
  6
Continuous
 62
     0
100
AcDbBlockReference
  2
_OPEN
 10
159.6199054648288
 20
-359.3804450066013
 30
0.0
 41
2.0
 42
2.0
 43
2.0
 50
180.0
  0
INSERT
  5
6EE0
330
6ED0
100
AcDbEntity
  8
30
  6
Continuous
 62
     0
100
AcDbBlockReference
  2
_OPEN
 10
259.6199054648286
 20
-359.3804450066013
 30
0.0
 41
2.0
 42
2.0
 43
2.0
  0
MTEXT
  5
6EE1
330
6ED0
100
AcDbEntity
  8
30
  6
Continuous
 62
     0
100
AcDbMText
 10
209.6199054648287
 20
-356.3804450066013
 30
0.0
 40
4.0
 41
0.0
 71
     5
 72
     1
  1
\A1;100
 73
     1
 44
1.0
1001
ACAD
1000
MTEXTBEGIN
1070
    73
1070
     1
1070
    44
1040
1.0
1070
    74
1070
     0
1000
MTEXTEND
  0
POINT
  5
6EE2
330
6ED0
100
AcDbEntity
  8
DEFPOINTS
  6
Continuous
 62
     0
100
AcDbPoint
 10
159.6199054648288
 20
-275.0
 30
0.0
  0
POINT
  5
6EE3
330
6ED0
100
AcDbEntity
  8
DEFPOINTS
  6
Continuous
 62
     0
100
AcDbPoint
 10
259.6199054648286
 20
-275.0
 30
0.0
  0
POINT
  5
6EE4
330
6ED0
100
AcDbEntity
  8
DEFPOINTS
  6
Continuous
 62
     0
100
AcDbPoint
 10
259.6199054648286
 20
-359.3804450066013
 30
0.0
  0
ENDBLK
  5
6EDB
330
6ED0
100
AcDbEntity
  8
0
100
AcDbBlockEnd
  0
BLOCK
  5
6F76
330
6F6C
100
AcDbEntity
  8
0
100
AcDbBlockBegin
  2
*D14
 70
     1
 10
0.0
 20
0.0
 30
0.0
  3
*D14
  1

  0
LINE
  5
6F6D
330
6F6C
100
AcDbEntity
  8
30
  6
Continuous
 62
     0
100
AcDbLine
 10
133.4371126716464
 20
25.01029255310344
 30
0.0
 11
110.9688600635148
 21
25.01029255310346
 31
0.0
  0
LINE
  5
6F6E
330
6F6C
100
AcDbEntity
  8
30
  6
Continuous
 62
     0
100
AcDbLine
 10
133.4371126716464
 20
-24.98970744689652
 30
0.0
 11
110.9688600635148
 21
-24.98970744689652
 31
0.0
  0
LINE
  5
6F6F
330
6F6C
100
AcDbEntity
  8
30
  6
Continuous
 62
     0
100
AcDbLine
 10
111.4688600635149
 20
23.01029255310345
 30
0.0
 11
111.4688600635149
 21
-22.98970744689654
 31
0.0
  0
INSERT
  5
6F70
330
6F6C
100
AcDbEntity
  8
30
  6
Continuous
 62
     0
100
AcDbBlockReference
  2
_OPEN
 10
111.4688600635149
 20
25.01029255310346
 30
0.0
 41
2.0
 42
2.0
 43
2.0
 50
90.0
  0
INSERT
  5
6F71
330
6F6C
100
AcDbEntity
  8
30
  6
Continuous
 62
     0
100
AcDbBlockReference
  2
_OPEN
 10
111.4688600635149
 20
-24.98970744689652
 30
0.0
 41
2.0
 42
2.0
 43
2.0
 50
270.0
  0
MTEXT
  5
6F72
330
6F6C
100
AcDbEntity
  8
30
  6
Continuous
 62
     0
100
AcDbMText
 10
108.4688600635149
 20
0.0102925531034763
 30
0.0
 40
4.0
 41
0.0
 71
     5
 72
     1
  1
\A1;50
 11
0.0000000000000001
 21
1.0
 31
0.0
 73
     1
 44
1.0
1001
ACAD
1000
MTEXTBEGIN
1070
    73
1070
     1
1070
    44
1040
1.0
1070
    74
1070
     0
1000
MTEXTEND
  0
POINT
  5
6F73
330
6F6C
100
AcDbEntity
  8
DEFPOINTS
  6
Continuous
 62
     0
100
AcDbPoint
 10
134.4371126716464
 20
25.01029255310344
 30
0.0
  0
POINT
  5
6F74
330
6F6C
100
AcDbEntity
  8
DEFPOINTS
  6
Continuous
 62
     0
100
AcDbPoint
 10
134.4371126716464
 20
-24.98970744689652
 30
0.0
  0
POINT
  5
6F75
330
6F6C
100
AcDbEntity
  8
DEFPOINTS
  6
Continuous
 62
     0
100
AcDbPoint
 10
111.4688600635149
 20
-24.98970744689652
 30
0.0
  0
ENDBLK
  5
6F77
330
6F6C
100
AcDbEntity
  8
0
100
AcDbBlockEnd
  0
BLOCK
  5
6F83
330
6F79
100
AcDbEntity
  8
0
100
AcDbBlockBegin
  2
*D15
 70
     1
 10
0.0
 20
0.0
 30
0.0
  3
*D15
  1

  0
LINE
  5
6F7A
330
6F79
100
AcDbEntity
  8
30
  6
Continuous
 62
     0
100
AcDbLine
 10
253.4371126716464
 20
-66.23970744689654
 30
0.0
 11
253.4371126716464
 21
-92.14127065798903
 31
0.0
  0
LINE
  5
6F7B
330
6F79
100
AcDbEntity
  8
30
  6
Continuous
 62
     0
100
AcDbLine
 10
245.4371126716464
 20
-83.48970744689655
 30
0.0
 11
245.4371126716464
 21
-92.14127065798903
 31
0.0
  0
LINE
  5
6F7C
330
6F79
100
AcDbEntity
  8
30
  6
Continuous
 62
     0
100
AcDbLine
 10
251.4371126716464
 20
-91.64127065798902
 30
0.0
 11
247.4371126716464
 21
-91.64127065798902
 31
0.0
  0
INSERT
  5
6F7D
330
6F79
100
AcDbEntity
  8
30
  6
Continuous
 62
     0
100
AcDbBlockReference
  2
_OPEN
 10
253.4371126716464
 20
-91.64127065798902
 30
0.0
 41
2.0
 42
2.0
 43
2.0
  0
INSERT
  5
6F7E
330
6F79
100
AcDbEntity
  8
30
  6
Continuous
 62
     0
100
AcDbBlockReference
  2
_OPEN
 10
245.4371126716464
 20
-91.64127065798902
 30
0.0
 41
2.0
 42
2.0
 43
2.0
 50
180.0
  0
MTEXT
  5
6F7F
330
6F79
100
AcDbEntity
  8
30
  6
Continuous
 62
     0
100
AcDbMText
 10
249.4371126716464
 20
-88.64127065798902
 30
0.0
 40
4.0
 41
0.0
 71
     5
 72
     1
  1
\A1;8
 73
     1
 44
1.0
1001
ACAD
1000
MTEXTBEGIN
1070
    73
1070
     1
1070
    44
1040
1.0
1070
    74
1070
     0
1000
MTEXTEND
  0
POINT
  5
6F80
330
6F79
100
AcDbEntity
  8
DEFPOINTS
  6
Continuous
 62
     0
100
AcDbPoint
 10
253.4371126716464
 20
-65.23970744689655
 30
0.0
  0
POINT
  5
6F81
330
6F79
100
AcDbEntity
  8
DEFPOINTS
  6
Continuous
 62
     0
100
AcDbPoint
 10
245.4371126716464
 20
-82.48970744689655
 30
0.0
  0
POINT
  5
6F82
330
6F79
100
AcDbEntity
  8
DEFPOINTS
  6
Continuous
 62
     0
100
AcDbPoint
 10
245.4371126716464
 20
-91.64127065798902
 30
0.0
  0
ENDBLK
  5
6F84
330
6F79
100
AcDbEntity
  8
0
100
AcDbBlockEnd
  0
BLOCK
  5
6F90
330
6F86
100
AcDbEntity
  8
0
100
AcDbBlockBegin
  2
*D16
 70
     1
 10
0.0
 20
0.0
 30
0.0
  3
*D16
  1

  0
LINE
  5
72FA
330
6F86
100
AcDbEntity
  8
30
  6
Continuous
 62
     0
100
AcDbLine
 10
245.4371126716464
 20
-83.48970744689655
 30
0.0
 11
245.4371126716464
 21
-92.14127065798903
 31
0.0
  0
LINE
  5
72FB
330
6F86
100
AcDbEntity
  8
30
  6
Continuous
 62
     0
100
AcDbLine
 10
165.4371126716464
 20
-68.23970744689654
 30
0.0
 11
165.4371126716464
 21
-92.14127065798903
 31
0.0
  0
LINE
  5
72FC
330
6F86
100
AcDbEntity
  8
30
  6
Continuous
 62
     0
100
AcDbLine
 10
243.4371126716464
 20
-91.64127065798902
 30
0.0
 11
167.4371126716464
 21
-91.64127065798902
 31
0.0
  0
INSERT
  5
72FD
330
6F86
100
AcDbEntity
  8
30
  6
Continuous
 62
     0
100
AcDbBlockReference
  2
_OPEN
 10
245.4371126716464
 20
-91.64127065798902
 30
0.0
 41
2.0
 42
2.0
 43
2.0
  0
INSERT
  5
72FE
330
6F86
100
AcDbEntity
  8
30
  6
Continuous
 62
     0
100
AcDbBlockReference
  2
_OPEN
 10
165.4371126716464
 20
-91.64127065798902
 30
0.0
 41
2.0
 42
2.0
 43
2.0
 50
180.0
  0
MTEXT
  5
72FF
330
6F86
100
AcDbEntity
  8
30
  6
Continuous
 62
     0
100
AcDbMText
 10
205.4371126716464
 20
-88.64127065798902
 30
0.0
 40
4.0
 41
0.0
 71
     5
 72
     1
  1
\A1;80
 73
     1
 44
1.0
1001
ACAD
1000
MTEXTBEGIN
1070
    73
1070
     1
1070
    44
1040
1.0
1070
    74
1070
     0
1000
MTEXTEND
  0
POINT
  5
7300
330
6F86
100
AcDbEntity
  8
DEFPOINTS
  6
Continuous
 62
     0
100
AcDbPoint
 10
245.4371126716464
 20
-82.48970744689655
 30
0.0
  0
POINT
  5
7301
330
6F86
100
AcDbEntity
  8
DEFPOINTS
  6
Continuous
 62
     0
100
AcDbPoint
 10
165.4371126716464
 20
-67.23970744689655
 30
0.0
  0
POINT
  5
7302
330
6F86
100
AcDbEntity
  8
DEFPOINTS
  6
Continuous
 62
     0
100
AcDbPoint
 10
165.4371126716464
 20
-91.64127065798902
 30
0.0
  0
ENDBLK
  5
6F91
330
6F86
100
AcDbEntity
  8
0
100
AcDbBlockEnd
  0
BLOCK
  5
6F9D
330
6F93
100
AcDbEntity
  8
0
100
AcDbBlockBegin
  2
*D17
 70
     1
 10
0.0
 20
0.0
 30
0.0
  3
*D17
  1

  0
LINE
  5
6F94
330
6F93
100
AcDbEntity
  8
30
  6
Continuous
 62
     0
100
AcDbLine
 10
245.4371126716464
 20
-83.48970744689655
 30
0.0
 11
245.4371126716464
 21
-104.139399700592
 31
0.0
  0
LINE
  5
6F95
330
6F93
100
AcDbEntity
  8
30
  6
Continuous
 62
     0
100
AcDbLine
 10
149.4371126716464
 20
-83.48970744689655
 30
0.0
 11
149.4371126716464
 21
-104.139399700592
 31
0.0
  0
LINE
  5
6F96
330
6F93
100
AcDbEntity
  8
30
  6
Continuous
 62
     0
100
AcDbLine
 10
243.4371126716464
 20
-103.6393997005921
 30
0.0
 11
151.4371126716464
 21
-103.6393997005921
 31
0.0
  0
INSERT
  5
6F97
330
6F93
100
AcDbEntity
  8
30
  6
Continuous
 62
     0
100
AcDbBlockReference
  2
_OPEN
 10
245.4371126716464
 20
-103.6393997005921
 30
0.0
 41
2.0
 42
2.0
 43
2.0
  0
INSERT
  5
6F98
330
6F93
100
AcDbEntity
  8
30
  6
Continuous
 62
     0
100
AcDbBlockReference
  2
_OPEN
 10
149.4371126716464
 20
-103.6393997005921
 30
0.0
 41
2.0
 42
2.0
 43
2.0
 50
180.0
  0
MTEXT
  5
6F99
330
6F93
100
AcDbEntity
  8
30
  6
Continuous
 62
     0
100
AcDbMText
 10
197.4371126716464
 20
-100.6393997005921
 30
0.0
 40
4.0
 41
0.0
 71
     5
 72
     1
  1
\A1;96
 73
     1
 44
1.0
1001
ACAD
1000
MTEXTBEGIN
1070
    73
1070
     1
1070
    44
1040
1.0
1070
    74
1070
     0
1000
MTEXTEND
  0
POINT
  5
6F9A
330
6F93
100
AcDbEntity
  8
DEFPOINTS
  6
Continuous
 62
     0
100
AcDbPoint
 10
245.4371126716464
 20
-82.48970744689655
 30
0.0
  0
POINT
  5
6F9B
330
6F93
100
AcDbEntity
  8
DEFPOINTS
  6
Continuous
 62
     0
100
AcDbPoint
 10
149.4371126716464
 20
-82.48970744689655
 30
0.0
  0
POINT
  5
6F9C
330
6F93
100
AcDbEntity
  8
DEFPOINTS
  6
Continuous
 62
     0
100
AcDbPoint
 10
149.4371126716464
 20
-103.6393997005921
 30
0.0
  0
ENDBLK
  5
6F9E
330
6F93
100
AcDbEntity
  8
0
100
AcDbBlockEnd
  0
BLOCK
  5
6FAA
330
6FA0
100
AcDbEntity
  8
0
100
AcDbBlockBegin
  2
*D18
 70
     1
 10
0.0
 20
0.0
 30
0.0
  3
*D18
  1

  0
LINE
  5
6FA1
330
6FA0
100
AcDbEntity
  8
30
  6
Continuous
 62
     0
100
AcDbLine
 10
245.4371126716464
 20
-83.48970744689655
 30
0.0
 11
245.4371126716464
 21
-118.6634516797933
 31
0.0
  0
LINE
  5
6FA2
330
6FA0
100
AcDbEntity
  8
30
  6
Continuous
 62
     0
100
AcDbLine
 10
142.4371126716464
 20
-51.98970744689654
 30
0.0
 11
142.4371126716464
 21
-118.6634516797933
 31
0.0
  0
LINE
  5
6FA3
330
6FA0
100
AcDbEntity
  8
30
  6
Continuous
 62
     0
100
AcDbLine
 10
243.4371126716464
 20
-118.1634516797932
 30
0.0
 11
144.4371126716464
 21
-118.1634516797932
 31
0.0
  0
INSERT
  5
6FA4
330
6FA0
100
AcDbEntity
  8
30
  6
Continuous
 62
     0
100
AcDbBlockReference
  2
_OPEN
 10
245.4371126716464
 20
-118.1634516797932
 30
0.0
 41
2.0
 42
2.0
 43
2.0
  0
INSERT
  5
6FA5
330
6FA0
100
AcDbEntity
  8
30
  6
Continuous
 62
     0
100
AcDbBlockReference
  2
_OPEN
 10
142.4371126716464
 20
-118.1634516797932
 30
0.0
 41
2.0
 42
2.0
 43
2.0
 50
180.0
  0
MTEXT
  5
6FA6
330
6FA0
100
AcDbEntity
  8
30
  6
Continuous
 62
     0
100
AcDbMText
 10
193.9371126716464
 20
-115.1634516797932
 30
0.0
 40
4.0
 41
0.0
 71
     5
 72
     1
  1
\A1;103
 73
     1
 44
1.0
1001
ACAD
1000
MTEXTBEGIN
1070
    73
1070
     1
1070
    44
1040
1.0
1070
    74
1070
     0
1000
MTEXTEND
  0
POINT
  5
6FA7
330
6FA0
100
AcDbEntity
  8
DEFPOINTS
  6
Continuous
 62
     0
100
AcDbPoint
 10
245.4371126716464
 20
-82.48970744689655
 30
0.0
  0
POINT
  5
6FA8
330
6FA0
100
AcDbEntity
  8
DEFPOINTS
  6
Continuous
 62
     0
100
AcDbPoint
 10
142.4371126716464
 20
-50.98970744689655
 30
0.0
  0
POINT
  5
6FA9
330
6FA0
100
AcDbEntity
  8
DEFPOINTS
  6
Continuous
 62
     0
100
AcDbPoint
 10
142.4371126716464
 20
-118.1634516797932
 30
0.0
  0
ENDBLK
  5
6FAB
330
6FA0
100
AcDbEntity
  8
0
100
AcDbBlockEnd
  0
BLOCK
  5
6FB7
330
6FAD
100
AcDbEntity
  8
0
100
AcDbBlockBegin
  2
*D19
 70
     1
 10
0.0
 20
0.0
 30
0.0
  3
*D19
  1

  0
LINE
  5
6FAE
330
6FAD
100
AcDbEntity
  8
30
  6
Continuous
 62
     0
100
AcDbLine
 10
245.4371126716464
 20
-83.48970744689655
 30
0.0
 11
245.4371126716464
 21
-129.3986215185148
 31
0.0
  0
LINE
  5
6FAF
330
6FAD
100
AcDbEntity
  8
30
  6
Continuous
 62
     0
100
AcDbLine
 10
138.4371126716464
 20
-25.98970744689653
 30
0.0
 11
138.4371126716464
 21
-129.3986215185148
 31
0.0
  0
LINE
  5
6FB0
330
6FAD
100
AcDbEntity
  8
30
  6
Continuous
 62
     0
100
AcDbLine
 10
243.4371126716464
 20
-128.8986215185148
 30
0.0
 11
140.4371126716464
 21
-128.8986215185148
 31
0.0
  0
INSERT
  5
6FB1
330
6FAD
100
AcDbEntity
  8
30
  6
Continuous
 62
     0
100
AcDbBlockReference
  2
_OPEN
 10
245.4371126716464
 20
-128.8986215185148
 30
0.0
 41
2.0
 42
2.0
 43
2.0
  0
INSERT
  5
6FB2
330
6FAD
100
AcDbEntity
  8
30
  6
Continuous
 62
     0
100
AcDbBlockReference
  2
_OPEN
 10
138.4371126716464
 20
-128.8986215185148
 30
0.0
 41
2.0
 42
2.0
 43
2.0
 50
180.0
  0
MTEXT
  5
6FB3
330
6FAD
100
AcDbEntity
  8
30
  6
Continuous
 62
     0
100
AcDbMText
 10
191.9371126716464
 20
-125.8986215185148
 30
0.0
 40
4.0
 41
0.0
 71
     5
 72
     1
  1
\A1;107
 73
     1
 44
1.0
1001
ACAD
1000
MTEXTBEGIN
1070
    73
1070
     1
1070
    44
1040
1.0
1070
    74
1070
     0
1000
MTEXTEND
  0
POINT
  5
6FB4
330
6FAD
100
AcDbEntity
  8
DEFPOINTS
  6
Continuous
 62
     0
100
AcDbPoint
 10
245.4371126716464
 20
-82.48970744689655
 30
0.0
  0
POINT
  5
6FB5
330
6FAD
100
AcDbEntity
  8
DEFPOINTS
  6
Continuous
 62
     0
100
AcDbPoint
 10
138.4371126716464
 20
-24.98970744689652
 30
0.0
  0
POINT
  5
6FB6
330
6FAD
100
AcDbEntity
  8
DEFPOINTS
  6
Continuous
 62
     0
100
AcDbPoint
 10
138.4371126716464
 20
-128.8986215185148
 30
0.0
  0
ENDBLK
  5
6FB8
330
6FAD
100
AcDbEntity
  8
0
100
AcDbBlockEnd
  0
BLOCK
  5
6FC5
330
6FBA
100
AcDbEntity
  8
0
100
AcDbBlockBegin
  2
*D20
 70
     1
 10
0.0
 20
0.0
 30
0.0
  3
*D20
  1

  0
LINE
  5
6FC7
330
6FBA
100
AcDbEntity
  8
30
  6
Continuous
 62
     0
100
AcDbLine
 10
134.4371126716464
 20
-25.98970744689653
 30
0.0
 11
134.4371126716464
 21
-129.8986215185148
 31
0.0
  0
LINE
  5
6FC8
330
6FBA
100
AcDbEntity
  8
30
  6
Continuous
 62
     0
100
AcDbLine
 10
138.4371126716464
 20
-128.3986215185147
 30
0.0
 11
138.4371126716464
 21
-128.8986215185148
 31
0.0
  0
LINE
  5
6FC9
330
6FBA
100
AcDbEntity
  8
30
  6
Continuous
 62
     0
100
AcDbLine
 10
132.4371126716464
 20
-129.3986215185148
 30
0.0
 11
130.4371126716464
 21
-129.3986215185148
 31
0.0
  0
LINE
  5
6FCA
330
6FBA
100
AcDbEntity
  8
30
  6
Continuous
 62
     0
100
AcDbLine
 10
140.4371126716464
 20
-129.3986215185148
 30
0.0
 11
147.1037793383131
 21
-129.3986215185148
 31
0.0
  0
INSERT
  5
6FCB
330
6FBA
100
AcDbEntity
  8
30
  6
Continuous
 62
     0
100
AcDbBlockReference
  2
_OPEN
 10
134.4371126716464
 20
-129.3986215185148
 30
0.0
 41
2.0
 42
2.0
 43
2.0
  0
INSERT
  5
6FCC
330
6FBA
100
AcDbEntity
  8
30
  6
Continuous
 62
     0
100
AcDbBlockReference
  2
_OPEN
 10
138.4371126716464
 20
-129.3986215185148
 30
0.0
 41
2.0
 42
2.0
 43
2.0
 50
180.0
  0
MTEXT
  5
6FCD
330
6FBA
100
AcDbEntity
  8
30
  6
Continuous
 62
     0
100
AcDbMText
 10
144.7704460049795
 20
-126.3986215185147
 30
0.0
 40
4.0
 41
0.0
 71
     5
 72
     1
  1
\A1;4
 73
     1
 44
1.0
1001
ACAD
1000
MTEXTBEGIN
1070
    73
1070
     1
1070
    44
1040
1.0
1070
    74
1070
     0
1000
MTEXTEND
  0
POINT
  5
6FCE
330
6FBA
100
AcDbEntity
  8
DEFPOINTS
  6
Continuous
 62
     0
100
AcDbPoint
 10
134.4371126716464
 20
-24.98970744689652
 30
0.0
  0
POINT
  5
6FCF
330
6FBA
100
AcDbEntity
  8
DEFPOINTS
  6
Continuous
 62
     0
100
AcDbPoint
 10
138.4371126716464
 20
-129.3986215185148
 30
0.0
  0
POINT
  5
6FD0
330
6FBA
100
AcDbEntity
  8
DEFPOINTS
  6
Continuous
 62
     0
100
AcDbPoint
 10
138.4371126716464
 20
-129.3986215185148
 30
0.0
  0
ENDBLK
  5
6FC6
330
6FBA
100
AcDbEntity
  8
0
100
AcDbBlockEnd
  0
BLOCK
  5
6FDC
330
6FD2
100
AcDbEntity
  8
0
100
AcDbBlockBegin
  2
*D21
 70
     1
 10
0.0
 20
0.0
 30
0.0
  3
*D21
  1

  0
LINE
  5
6FD3
330
6FD2
100
AcDbEntity
  8
30
  6
Continuous
 62
     0
100
AcDbLine
 10
245.4371126716464
 20
-119.6634516797933
 30
0.0
 11
245.4371126716464
 21
-141.3967505611178
 31
0.0
  0
LINE
  5
6FD4
330
6FD2
100
AcDbEntity
  8
30
  6
Continuous
 62
     0
100
AcDbLine
 10
118.4371126716464
 20
-0.9897074468965419
 30
0.0
 11
118.4371126716464
 21
-141.3967505611178
 31
0.0
  0
LINE
  5
6FD5
330
6FD2
100
AcDbEntity
  8
30
  6
Continuous
 62
     0
100
AcDbLine
 10
243.4371126716464
 20
-140.8967505611178
 30
0.0
 11
120.4371126716464
 21
-140.8967505611178
 31
0.0
  0
INSERT
  5
6FD6
330
6FD2
100
AcDbEntity
  8
30
  6
Continuous
 62
     0
100
AcDbBlockReference
  2
_OPEN
 10
245.4371126716464
 20
-140.8967505611178
 30
0.0
 41
2.0
 42
2.0
 43
2.0
  0
INSERT
  5
6FD7
330
6FD2
100
AcDbEntity
  8
30
  6
Continuous
 62
     0
100
AcDbBlockReference
  2
_OPEN
 10
118.4371126716464
 20
-140.8967505611178
 30
0.0
 41
2.0
 42
2.0
 43
2.0
 50
180.0
  0
MTEXT
  5
6FD8
330
6FD2
100
AcDbEntity
  8
30
  6
Continuous
 62
     0
100
AcDbMText
 10
181.9371126716464
 20
-137.8967505611178
 30
0.0
 40
4.0
 41
0.0
 71
     5
 72
     1
  1
\A1;127
 73
     1
 44
1.0
1001
ACAD
1000
MTEXTBEGIN
1070
    73
1070
     1
1070
    44
1040
1.0
1070
    74
1070
     0
1000
MTEXTEND
  0
POINT
  5
6FD9
330
6FD2
100
AcDbEntity
  8
DEFPOINTS
  6
Continuous
 62
     0
100
AcDbPoint
 10
245.4371126716464
 20
-118.6634516797933
 30
0.0
  0
POINT
  5
6FDA
330
6FD2
100
AcDbEntity
  8
DEFPOINTS
  6
Continuous
 62
     0
100
AcDbPoint
 10
118.4371126716464
 20
0.0102925531034581
 30
0.0
  0
POINT
  5
6FDB
330
6FD2
100
AcDbEntity
  8
DEFPOINTS
  6
Continuous
 62
     0
100
AcDbPoint
 10
118.4371126716464
 20
-140.8967505611178
 30
0.0
  0
ENDBLK
  5
6FDD
330
6FD2
100
AcDbEntity
  8
0
100
AcDbBlockEnd
  0
BLOCK
  5
713F
330
7135
100
AcDbEntity
  8
0
100
AcDbBlockBegin
  2
*D22
 70
     1
 10
0.0
 20
0.0
 30
0.0
  3
*D22
  1

  0
LINE
  5
7136
330
7135
100
AcDbEntity
  8
30
  6
Continuous
 62
     0
100
AcDbLine
 10
-17.88009453517117
 20
-193.5
 30
0.0
 11
-17.8800945351712
 21
-344.1940094967603
 31
0.0
  0
LINE
  5
7137
330
7135
100
AcDbEntity
  8
30
  6
Continuous
 62
     0
100
AcDbLine
 10
17.11990546482881
 20
-319.5
 30
0.0
 11
17.11990546482881
 21
-344.1940094967603
 31
0.0
  0
LINE
  5
7138
330
7135
100
AcDbEntity
  8
30
  6
Continuous
 62
     0
100
AcDbLine
 10
-15.8800945351712
 20
-343.6940094967603
 30
0.0
 11
15.11990546482881
 21
-343.6940094967603
 31
0.0
  0
INSERT
  5
7139
330
7135
100
AcDbEntity
  8
30
  6
Continuous
 62
     0
100
AcDbBlockReference
  2
_OPEN
 10
-17.8800945351712
 20
-343.6940094967603
 30
0.0
 41
2.0
 42
2.0
 43
2.0
 50
180.0
  0
INSERT
  5
713A
330
7135
100
AcDbEntity
  8
30
  6
Continuous
 62
     0
100
AcDbBlockReference
  2
_OPEN
 10
17.11990546482881
 20
-343.6940094967603
 30
0.0
 41
2.0
 42
2.0
 43
2.0
  0
MTEXT
  5
713B
330
7135
100
AcDbEntity
  8
30
  6
Continuous
 62
     0
100
AcDbMText
 10
-0.380094535171194
 20
-340.6940094967603
 30
0.0
 40
4.0
 41
0.0
 71
     5
 72
     1
  1
\A1;35
 73
     1
 44
1.0
1001
ACAD
1000
MTEXTBEGIN
1070
    73
1070
     1
1070
    44
1040
1.0
1070
    74
1070
     0
1000
MTEXTEND
  0
POINT
  5
713C
330
7135
100
AcDbEntity
  8
DEFPOINTS
  6
Continuous
 62
     0
100
AcDbPoint
 10
-17.88009453517117
 20
-192.5
 30
0.0
  0
POINT
  5
713D
330
7135
100
AcDbEntity
  8
DEFPOINTS
  6
Continuous
 62
     0
100
AcDbPoint
 10
17.11990546482881
 20
-318.5
 30
0.0
  0
POINT
  5
713E
330
7135
100
AcDbEntity
  8
DEFPOINTS
  6
Continuous
 62
     0
100
AcDbPoint
 10
17.11990546482881
 20
-343.6940094967603
 30
0.0
  0
ENDBLK
  5
7140
330
7135
100
AcDbEntity
  8
0
100
AcDbBlockEnd
  0
BLOCK
  5
7226
330
721C
100
AcDbEntity
  8
0
100
AcDbBlockBegin
  2
*D23
 70
     1
 10
0.0
 20
0.0
 30
0.0
  3
*D23
  1

  0
LINE
  5
721D
330
721C
100
AcDbEntity
  8
30
  6
Continuous
 62
     0
100
AcDbLine
 10
-11.0
 20
-26.0
 30
0.0
 11
-11.0
 21
-37.43596143916397
 31
0.0
  0
LINE
  5
721E
330
721C
100
AcDbEntity
  8
30
  6
Continuous
 62
     0
100
AcDbLine
 10
11.0
 20
-26.0
 30
0.0
 11
11.0
 21
-37.43596143916397
 31
0.0
  0
LINE
  5
721F
330
721C
100
AcDbEntity
  8
30
  6
Continuous
 62
     0
100
AcDbLine
 10
-9.0
 20
-36.93596143916396
 30
0.0
 11
9.0
 21
-36.93596143916396
 31
0.0
  0
INSERT
  5
7220
330
721C
100
AcDbEntity
  8
30
  6
Continuous
 62
     0
100
AcDbBlockReference
  2
_OPEN
 10
-11.0
 20
-36.93596143916396
 30
0.0
 41
2.0
 42
2.0
 43
2.0
 50
180.0
  0
INSERT
  5
7221
330
721C
100
AcDbEntity
  8
30
  6
Continuous
 62
     0
100
AcDbBlockReference
  2
_OPEN
 10
11.0
 20
-36.93596143916396
 30
0.0
 41
2.0
 42
2.0
 43
2.0
  0
MTEXT
  5
7222
330
721C
100
AcDbEntity
  8
30
  6
Continuous
 62
     0
100
AcDbMText
 10
0.0000000000000002
 20
-33.93596143916397
 30
0.0
 40
4.0
 41
0.0
 71
     5
 72
     1
  1
\A1;22
 73
     1
 44
1.0
1001
ACAD
1000
MTEXTBEGIN
1070
    73
1070
     1
1070
    44
1040
1.0
1070
    74
1070
     0
1000
MTEXTEND
  0
POINT
  5
7223
330
721C
100
AcDbEntity
  8
DEFPOINTS
  6
Continuous
 62
     0
100
AcDbPoint
 10
-11.0
 20
-25.0
 30
0.0
  0
POINT
  5
7224
330
721C
100
AcDbEntity
  8
DEFPOINTS
  6
Continuous
 62
     0
100
AcDbPoint
 10
11.0
 20
-25.0
 30
0.0
  0
POINT
  5
7225
330
721C
100
AcDbEntity
  8
DEFPOINTS
  6
Continuous
 62
     0
100
AcDbPoint
 10
11.0
 20
-36.93596143916396
 30
0.0
  0
ENDBLK
  5
7227
330
721C
100
AcDbEntity
  8
0
100
AcDbBlockEnd
  0
BLOCK
  5
7233
330
7229
100
AcDbEntity
  8
0
100
AcDbBlockBegin
  2
*D24
 70
     1
 10
0.0
 20
0.0
 30
0.0
  3
*D24
  1

  0
LINE
  5
722A
330
7229
100
AcDbEntity
  8
30
  6
Continuous
 62
     0
100
AcDbLine
 10
-49.00000000000003
 20
26.0
 30
0.0
 11
-49.00000000000003
 21
36.40138211865564
 31
0.0
  0
LINE
  5
722B
330
7229
100
AcDbEntity
  8
30
  6
Continuous
 62
     0
100
AcDbLine
 10
49.0
 20
26.0
 30
0.0
 11
49.0
 21
36.40138211865564
 31
0.0
  0
LINE
  5
722C
330
7229
100
AcDbEntity
  8
30
  6
Continuous
 62
     0
100
AcDbLine
 10
-47.00000000000001
 20
35.90138211865564
 30
0.0
 11
47.0
 21
35.90138211865564
 31
0.0
  0
INSERT
  5
722D
330
7229
100
AcDbEntity
  8
30
  6
Continuous
 62
     0
100
AcDbBlockReference
  2
_OPEN
 10
-49.00000000000003
 20
35.90138211865564
 30
0.0
 41
2.0
 42
2.0
 43
2.0
 50
180.0
  0
INSERT
  5
722E
330
7229
100
AcDbEntity
  8
30
  6
Continuous
 62
     0
100
AcDbBlockReference
  2
_OPEN
 10
49.0
 20
35.90138211865564
 30
0.0
 41
2.0
 42
2.0
 43
2.0
  0
MTEXT
  5
722F
330
7229
100
AcDbEntity
  8
30
  6
Continuous
 62
     0
100
AcDbMText
 10
-0.000000000000014
 20
38.90138211865565
 30
0.0
 40
4.0
 41
0.0
 71
     5
 72
     1
  1
\A1;98
 73
     1
 44
1.0
1001
ACAD
1000
MTEXTBEGIN
1070
    73
1070
     1
1070
    44
1040
1.0
1070
    74
1070
     0
1000
MTEXTEND
  0
POINT
  5
7230
330
7229
100
AcDbEntity
  8
DEFPOINTS
  6
Continuous
 62
     0
100
AcDbPoint
 10
-49.00000000000003
 20
25.0
 30
0.0
  0
POINT
  5
7231
330
7229
100
AcDbEntity
  8
DEFPOINTS
  6
Continuous
 62
     0
100
AcDbPoint
 10
49.0
 20
25.0
 30
0.0
  0
POINT
  5
7232
330
7229
100
AcDbEntity
  8
DEFPOINTS
  6
Continuous
 62
     0
100
AcDbPoint
 10
49.0
 20
35.90138211865564
 30
0.0
  0
ENDBLK
  5
7234
330
7229
100
AcDbEntity
  8
0
100
AcDbBlockEnd
  0
BLOCK
  5
7240
330
7236
100
AcDbEntity
  8
0
100
AcDbBlockBegin
  2
*D25
 70
     1
 10
0.0
 20
0.0
 30
0.0
  3
*D25
  1

  0
LINE
  5
7237
330
7236
100
AcDbEntity
  8
30
  6
Continuous
 62
     0
100
AcDbLine
 10
-48.50000000000003
 20
-110.0
 30
0.0
 11
-48.50000000000003
 21
-125.0376297822263
 31
0.0
  0
LINE
  5
7238
330
7236
100
AcDbEntity
  8
30
  6
Continuous
 62
     0
100
AcDbLine
 10
-0.0000000000000001
 20
-108.0
 30
0.0
 11
-0.0000000000000011
 21
-125.0376297822263
 31
0.0
  0
LINE
  5
7239
330
7236
100
AcDbEntity
  8
30
  6
Continuous
 62
     0
100
AcDbLine
 10
-46.50000000000003
 20
-124.5376297822262
 30
0.0
 11
-2.0
 21
-124.5376297822262
 31
0.0
  0
INSERT
  5
723A
330
7236
100
AcDbEntity
  8
30
  6
Continuous
 62
     0
100
AcDbBlockReference
  2
_OPEN
 10
-48.50000000000003
 20
-124.5376297822262
 30
0.0
 41
2.0
 42
2.0
 43
2.0
 50
180.0
  0
INSERT
  5
723B
330
7236
100
AcDbEntity
  8
30
  6
Continuous
 62
     0
100
AcDbBlockReference
  2
_OPEN
 10
-0.0000000000000011
 20
-124.5376297822262
 30
0.0
 41
2.0
 42
2.0
 43
2.0
  0
MTEXT
  5
723C
330
7236
100
AcDbEntity
  8
30
  6
Continuous
 62
     0
100
AcDbMText
 10
-24.25000000000001
 20
-121.5376297822261
 30
0.0
 40
4.0
 41
0.0
 71
     5
 72
     1
  1
\A1;48.5
 73
     1
 44
1.0
1001
ACAD
1000
MTEXTBEGIN
1070
    73
1070
     1
1070
    44
1040
1.0
1070
    74
1070
     0
1000
MTEXTEND
  0
POINT
  5
723D
330
7236
100
AcDbEntity
  8
DEFPOINTS
  6
Continuous
 62
     0
100
AcDbPoint
 10
-48.50000000000003
 20
-109.0
 30
0.0
  0
POINT
  5
723E
330
7236
100
AcDbEntity
  8
DEFPOINTS
  6
Continuous
 62
     0
100
AcDbPoint
 10
0.0
 20
-107.0
 30
0.0
  0
POINT
  5
723F
330
7236
100
AcDbEntity
  8
DEFPOINTS
  6
Continuous
 62
     0
100
AcDbPoint
 10
-0.0000000000000011
 20
-124.5376297822262
 30
0.0
  0
ENDBLK
  5
7241
330
7236
100
AcDbEntity
  8
0
100
AcDbBlockEnd
  0
BLOCK
  5
724D
330
7243
100
AcDbEntity
  8
0
100
AcDbBlockBegin
  2
*D26
 70
     1
 10
0.0
 20
0.0
 30
0.0
  3
*D26
  1

  0
LINE
  5
7244
330
7243
100
AcDbEntity
  8
30
  6
Continuous
 62
     0
100
AcDbLine
 10
-0.0000000000000001
 20
-114.0
 30
0.0
 11
-0.0000000000000008
 21
-125.5376297822262
 31
0.0
  0
LINE
  5
7245
330
7243
100
AcDbEntity
  8
30
  6
Continuous
 62
     0
100
AcDbLine
 10
48.5
 20
-108.0
 30
0.0
 11
48.5
 21
-125.5376297822262
 31
0.0
  0
LINE
  5
7246
330
7243
100
AcDbEntity
  8
30
  6
Continuous
 62
     0
100
AcDbLine
 10
1.999999999999999
 20
-125.0376297822263
 30
0.0
 11
46.5
 21
-125.0376297822263
 31
0.0
  0
INSERT
  5
7247
330
7243
100
AcDbEntity
  8
30
  6
Continuous
 62
     0
100
AcDbBlockReference
  2
_OPEN
 10
-0.0000000000000007
 20
-125.0376297822263
 30
0.0
 41
2.0
 42
2.0
 43
2.0
 50
180.0
  0
INSERT
  5
7248
330
7243
100
AcDbEntity
  8
30
  6
Continuous
 62
     0
100
AcDbBlockReference
  2
_OPEN
 10
48.5
 20
-125.0376297822263
 30
0.0
 41
2.0
 42
2.0
 43
2.0
  0
MTEXT
  5
7249
330
7243
100
AcDbEntity
  8
30
  6
Continuous
 62
     0
100
AcDbMText
 10
24.25
 20
-122.0376297822262
 30
0.0
 40
4.0
 41
0.0
 71
     5
 72
     1
  1
\A1;48.5
 73
     1
 44
1.0
1001
ACAD
1000
MTEXTBEGIN
1070
    73
1070
     1
1070
    44
1040
1.0
1070
    74
1070
     0
1000
MTEXTEND
  0
POINT
  5
724A
330
7243
100
AcDbEntity
  8
DEFPOINTS
  6
Continuous
 62
     0
100
AcDbPoint
 10
0.0
 20
-113.0
 30
0.0
  0
POINT
  5
724B
330
7243
100
AcDbEntity
  8
DEFPOINTS
  6
Continuous
 62
     0
100
AcDbPoint
 10
48.5
 20
-107.0
 30
0.0
  0
POINT
  5
724C
330
7243
100
AcDbEntity
  8
DEFPOINTS
  6
Continuous
 62
     0
100
AcDbPoint
 10
48.5
 20
-125.0376297822263
 30
0.0
  0
ENDBLK
  5
724E
330
7243
100
AcDbEntity
  8
0
100
AcDbBlockEnd
  0
BLOCK
  5
725A
330
7250
100
AcDbEntity
  8
0
100
AcDbBlockBegin
  2
*D27
 70
     1
 10
0.0
 20
0.0
 30
0.0
  3
*D27
  1

  0
LINE
  5
7286
330
7250
100
AcDbEntity
  8
30
  6
Continuous
 62
     0
100
AcDbLine
 10
-52.50000000000003
 20
-83.49999999999999
 30
0.0
 11
-52.50000000000003
 21
-132.5216144129897
 31
0.0
  0
LINE
  5
7287
330
7250
100
AcDbEntity
  8
30
  6
Continuous
 62
     0
100
AcDbLine
 10
52.5
 20
-83.49999999999999
 30
0.0
 11
52.5
 21
-132.5216144129897
 31
0.0
  0
LINE
  5
7288
330
7250
100
AcDbEntity
  8
30
  6
Continuous
 62
     0
100
AcDbLine
 10
-50.50000000000003
 20
-132.0216144129897
 30
0.0
 11
50.49999999999998
 21
-132.0216144129897
 31
0.0
  0
INSERT
  5
7289
330
7250
100
AcDbEntity
  8
30
  6
Continuous
 62
     0
100
AcDbBlockReference
  2
_OPEN
 10
-52.50000000000003
 20
-132.0216144129897
 30
0.0
 41
2.0
 42
2.0
 43
2.0
 50
180.0
  0
INSERT
  5
728A
330
7250
100
AcDbEntity
  8
30
  6
Continuous
 62
     0
100
AcDbBlockReference
  2
_OPEN
 10
52.5
 20
-132.0216144129897
 30
0.0
 41
2.0
 42
2.0
 43
2.0
  0
MTEXT
  5
728B
330
7250
100
AcDbEntity
  8
30
  6
Continuous
 62
     0
100
AcDbMText
 10
0.2634083267403186
 20
-129.0216144129897
 30
0.0
 40
4.0
 41
0.0
 71
     5
 72
     1
  1
\A1;105
 73
     1
 44
1.0
1001
ACAD
1000
MTEXTBEGIN
1070
    73
1070
     1
1070
    44
1040
1.0
1070
    74
1070
     0
1000
MTEXTEND
  0
POINT
  5
728C
330
7250
100
AcDbEntity
  8
DEFPOINTS
  6
Continuous
 62
     0
100
AcDbPoint
 10
-52.50000000000003
 20
-82.5
 30
0.0
  0
POINT
  5
728D
330
7250
100
AcDbEntity
  8
DEFPOINTS
  6
Continuous
 62
     0
100
AcDbPoint
 10
52.5
 20
-82.5
 30
0.0
  0
POINT
  5
728E
330
7250
100
AcDbEntity
  8
DEFPOINTS
  6
Continuous
 62
     0
100
AcDbPoint
 10
52.5
 20
-132.0216144129897
 30
0.0
  0
ENDBLK
  5
725B
330
7250
100
AcDbEntity
  8
0
100
AcDbBlockEnd
  0
BLOCK
  5
729A
330
7290
100
AcDbEntity
  8
0
100
AcDbBlockBegin
  2
*D28
 70
     1
 10
0.0
 20
0.0
 30
0.0
  3
*D28
  1

  0
LINE
  5
7291
330
7290
100
AcDbEntity
  8
30
  6
Continuous
 62
     0
100
AcDbLine
 10
-60.00000000000003
 20
-114.0
 30
0.0
 11
-60.00000000000003
 21
-142.1548064381345
 31
0.0
  0
LINE
  5
7292
330
7290
100
AcDbEntity
  8
30
  6
Continuous
 62
     0
100
AcDbLine
 10
60.0
 20
-114.0
 30
0.0
 11
60.0
 21
-142.1548064381345
 31
0.0
  0
LINE
  5
7293
330
7290
100
AcDbEntity
  8
30
  6
Continuous
 62
     0
100
AcDbLine
 10
-58.00000000000003
 20
-141.6548064381347
 30
0.0
 11
57.99999999999998
 21
-141.6548064381347
 31
0.0
  0
INSERT
  5
7294
330
7290
100
AcDbEntity
  8
30
  6
Continuous
 62
     0
100
AcDbBlockReference
  2
_OPEN
 10
-60.00000000000003
 20
-141.6548064381347
 30
0.0
 41
2.0
 42
2.0
 43
2.0
 50
180.0
  0
INSERT
  5
7295
330
7290
100
AcDbEntity
  8
30
  6
Continuous
 62
     0
100
AcDbBlockReference
  2
_OPEN
 10
60.0
 20
-141.6548064381347
 30
0.0
 41
2.0
 42
2.0
 43
2.0
  0
MTEXT
  5
7296
330
7290
100
AcDbEntity
  8
30
  6
Continuous
 62
     0
100
AcDbMText
 10
-0.0000000000000211
 20
-138.6548064381347
 30
0.0
 40
4.0
 41
0.0
 71
     5
 72
     1
  1
\A1;120
 73
     1
 44
1.0
1001
ACAD
1000
MTEXTBEGIN
1070
    73
1070
     1
1070
    44
1040
1.0
1070
    74
1070
     0
1000
MTEXTEND
  0
POINT
  5
7297
330
7290
100
AcDbEntity
  8
DEFPOINTS
  6
Continuous
 62
     0
100
AcDbPoint
 10
-60.00000000000003
 20
-113.0
 30
0.0
  0
POINT
  5
7298
330
7290
100
AcDbEntity
  8
DEFPOINTS
  6
Continuous
 62
     0
100
AcDbPoint
 10
60.0
 20
-113.0
 30
0.0
  0
POINT
  5
7299
330
7290
100
AcDbEntity
  8
DEFPOINTS
  6
Continuous
 62
     0
100
AcDbPoint
 10
60.0
 20
-141.6548064381347
 30
0.0
  0
ENDBLK
  5
729B
330
7290
100
AcDbEntity
  8
0
100
AcDbBlockEnd
  0
BLOCK
  5
7388
330
7387
100
AcDbEntity
  8
0
100
AcDbBlockBegin
  2
*D30
 70
     1
 10
0.0
 20
0.0
 30
0.0
  3
*D30
  1

  0
LINE
  5
738A
330
7387
100
AcDbEntity
  8
30
  6
Continuous
 62
     0
370
    -2
100
AcDbLine
 10
53.5
 20
326.8165692823121
 30
0.0
 11
67.91795146512869
 21
326.8165692823121
 31
0.0
  0
LINE
  5
738B
330
7387
100
AcDbEntity
  8
30
  6
Continuous
 62
     0
370
    -2
100
AcDbLine
 10
53.50000000000003
 20
230.8165692823121
 30
0.0
 11
67.91795146512868
 21
230.816569282312
 31
0.0
  0
LINE
  5
738C
330
7387
100
AcDbEntity
  8
30
  6
Continuous
 62
     0
370
    -2
100
AcDbLine
 10
67.4179514651287
 20
324.8165692823121
 30
0.0
 11
67.41795146512868
 21
232.816569282312
 31
0.0
  0
INSERT
  5
738D
330
7387
100
AcDbEntity
  8
30
  6
Continuous
 62
     0
370
    -2
100
AcDbBlockReference
  2
_OPEN
 10
67.4179514651287
 20
326.8165692823121
 30
0.0
 41
2.0
 42
2.0
 43
2.0
 50
90.0
  0
INSERT
  5
738E
330
7387
100
AcDbEntity
  8
30
  6
Continuous
 62
     0
370
    -2
100
AcDbBlockReference
  2
_OPEN
 10
67.41795146512868
 20
230.816569282312
 30
0.0
 41
2.0
 42
2.0
 43
2.0
 50
270.0
  0
MTEXT
  5
738F
330
7387
100
AcDbEntity
  8
30
  6
Continuous
 62
     0
100
AcDbMText
 10
64.41795146512864
 20
278.8165692823121
 30
0.0
 40
4.0
 41
0.0
 71
     5
 72
     1
  1
\A1;96
 11
0.0000000000000001
 21
1.0
 31
0.0
 73
     1
 44
1.0
1001
ACAD
1000
MTEXTBEGIN
1070
    73
1070
     1
1070
    44
1040
1.0
1070
    74
1070
     0
1000
MTEXTEND
  0
POINT
  5
7390
330
7387
100
AcDbEntity
  8
DEFPOINTS
  6
Continuous
 62
     0
100
AcDbPoint
 10
52.5
 20
326.8165692823121
 30
0.0
  0
POINT
  5
7391
330
7387
100
AcDbEntity
  8
DEFPOINTS
  6
Continuous
 62
     0
100
AcDbPoint
 10
52.50000000000003
 20
230.8165692823121
 30
0.0
  0
POINT
  5
7392
330
7387
100
AcDbEntity
  8
DEFPOINTS
  6
Continuous
 62
     0
100
AcDbPoint
 10
67.41795146512868
 20
230.816569282312
 30
0.0
  0
ENDBLK
  5
7389
330
7387
100
AcDbEntity
  8
0
100
AcDbBlockEnd
  0
BLOCK
  5
7395
330
7394
100
AcDbEntity
  8
0
100
AcDbBlockBegin
  2
*D31
 70
     1
 10
0.0
 20
0.0
 30
0.0
  3
*D31
  1

  0
LINE
  5
7397
330
7394
100
AcDbEntity
  8
30
  6
Continuous
 62
     0
370
    -2
100
AcDbLine
 10
53.5
 20
326.8165692823121
 30
0.0
 11
82.06776698785871
 21
326.8165692823121
 31
0.0
  0
LINE
  5
7398
330
7394
100
AcDbEntity
  8
30
  6
Continuous
 62
     0
370
    -2
100
AcDbLine
 10
53.50000000000003
 20
223.8165692823121
 30
0.0
 11
82.06776698785869
 21
223.8165692823121
 31
0.0
  0
LINE
  5
7399
330
7394
100
AcDbEntity
  8
30
  6
Continuous
 62
     0
370
    -2
100
AcDbLine
 10
81.56776698785872
 20
324.8165692823121
 30
0.0
 11
81.5677669878587
 21
225.8165692823121
 31
0.0
  0
INSERT
  5
739A
330
7394
100
AcDbEntity
  8
30
  6
Continuous
 62
     0
370
    -2
100
AcDbBlockReference
  2
_OPEN
 10
81.56776698785872
 20
326.8165692823121
 30
0.0
 41
2.0
 42
2.0
 43
2.0
 50
90.0
  0
INSERT
  5
739B
330
7394
100
AcDbEntity
  8
30
  6
Continuous
 62
     0
370
    -2
100
AcDbBlockReference
  2
_OPEN
 10
81.56776698785868
 20
223.8165692823121
 30
0.0
 41
2.0
 42
2.0
 43
2.0
 50
270.0
  0
MTEXT
  5
739C
330
7394
100
AcDbEntity
  8
30
  6
Continuous
 62
     0
100
AcDbMText
 10
78.56776698785866
 20
275.3165692823121
 30
0.0
 40
4.0
 41
0.0
 71
     5
 72
     1
  1
\A1;103
 11
0.0000000000000001
 21
1.0
 31
0.0
 73
     1
 44
1.0
1001
ACAD
1000
MTEXTBEGIN
1070
    73
1070
     1
1070
    44
1040
1.0
1070
    74
1070
     0
1000
MTEXTEND
  0
POINT
  5
739D
330
7394
100
AcDbEntity
  8
DEFPOINTS
  6
Continuous
 62
     0
100
AcDbPoint
 10
52.5
 20
326.8165692823121
 30
0.0
  0
POINT
  5
739E
330
7394
100
AcDbEntity
  8
DEFPOINTS
  6
Continuous
 62
     0
100
AcDbPoint
 10
52.50000000000003
 20
223.8165692823121
 30
0.0
  0
POINT
  5
739F
330
7394
100
AcDbEntity
  8
DEFPOINTS
  6
Continuous
 62
     0
100
AcDbPoint
 10
81.56776698785868
 20
223.8165692823121
 30
0.0
  0
ENDBLK
  5
7396
330
7394
100
AcDbEntity
  8
0
100
AcDbBlockEnd
  0
BLOCK
  5
73A2
330
73A1
100
AcDbEntity
  8
0
100
AcDbBlockBegin
  2
*D32
 70
     1
 10
0.0
 20
0.0
 30
0.0
  3
*D32
  1

  0
LINE
  5
73A4
330
73A1
100
AcDbEntity
  8
30
  6
Continuous
 62
     0
370
    -2
100
AcDbLine
 10
53.5
 20
326.8165692823121
 30
0.0
 11
94.84824435480645
 21
326.8165692823121
 31
0.0
  0
LINE
  5
73A5
330
73A1
100
AcDbEntity
  8
30
  6
Continuous
 62
     0
370
    -2
100
AcDbLine
 10
49.99999999999997
 20
219.8165692823121
 30
0.0
 11
94.84824435480641
 21
219.8165692823121
 31
0.0
  0
LINE
  5
73A6
330
73A1
100
AcDbEntity
  8
30
  6
Continuous
 62
     0
370
    -2
100
AcDbLine
 10
94.34824435480644
 20
324.8165692823121
 30
0.0
 11
94.3482443548064
 21
221.8165692823121
 31
0.0
  0
INSERT
  5
73A7
330
73A1
100
AcDbEntity
  8
30
  6
Continuous
 62
     0
370
    -2
100
AcDbBlockReference
  2
_OPEN
 10
94.34824435480644
 20
326.8165692823121
 30
0.0
 41
2.0
 42
2.0
 43
2.0
 50
90.0
  0
INSERT
  5
73A8
330
73A1
100
AcDbEntity
  8
30
  6
Continuous
 62
     0
370
    -2
100
AcDbBlockReference
  2
_OPEN
 10
94.3482443548064
 20
219.8165692823121
 30
0.0
 41
2.0
 42
2.0
 43
2.0
 50
270.0
  0
MTEXT
  5
73A9
330
73A1
100
AcDbEntity
  8
30
  6
Continuous
 62
     0
100
AcDbMText
 10
91.34824435480638
 20
273.3165692823121
 30
0.0
 40
4.0
 41
0.0
 71
     5
 72
     1
  1
\A1;107
 11
0.0000000000000001
 21
1.0
 31
0.0
 73
     1
 44
1.0
1001
ACAD
1000
MTEXTBEGIN
1070
    73
1070
     1
1070
    44
1040
1.0
1070
    74
1070
     0
1000
MTEXTEND
  0
POINT
  5
73AA
330
73A1
100
AcDbEntity
  8
DEFPOINTS
  6
Continuous
 62
     0
100
AcDbPoint
 10
52.5
 20
326.8165692823121
 30
0.0
  0
POINT
  5
73AB
330
73A1
100
AcDbEntity
  8
DEFPOINTS
  6
Continuous
 62
     0
100
AcDbPoint
 10
48.99999999999997
 20
219.8165692823121
 30
0.0
  0
POINT
  5
73AC
330
73A1
100
AcDbEntity
  8
DEFPOINTS
  6
Continuous
 62
     0
100
AcDbPoint
 10
94.3482443548064
 20
219.8165692823121
 30
0.0
  0
ENDBLK
  5
73A3
330
73A1
100
AcDbEntity
  8
0
100
AcDbBlockEnd
  0
ENDSEC
  0
SECTION
  2
ENTITIES
  0
LINE
  5
B4
330
1E
100
AcDbEntity
  8
16
100
AcDbLine
 10
0.0
 20
-133.2888408455455
 30
0.0
 11
0.0
 21
127.7392682680622
 31
0.0
  0
LINE
  5
B5
330
1E
100
AcDbEntity
  8
16
100
AcDbLine
 10
71.77465564206305
 20
-0.0000000000000018
 30
0.0
 11
-83.90588178115756
 21
-0.0000000000000018
 31
0.0
  0
MTEXT
  5
BF3
330
1E
100
AcDbEntity
  8
24
  6
Continuous
100
AcDbMText
 10
140.9820964648284
 20
176.3476821548369
 30
0.0
 40
3.0
 41
0.0
 71
     1
 72
     1
  1
\A1;
 73
     1
 44
1.0
1001
ACAD
1000
MTEXTBEGIN
1070
    73
1070
     1
1070
    44
1040
1.0
1070
    74
1070
     0
1000
MTEXTEND
  0
LINE
  5
1C9A
330
1E
100
AcDbEntity
  8
16
100
AcDbLine
 10
0.000000000000004
 20
185.6887571888092
 30
0.0
 11
0.000000000000004
 21
280.2384784421551
 31
0.0
  0
LINE
  5
1C9B
330
1E
100
AcDbEntity
  8
16
100
AcDbLine
 10
252.2605240987882
 20
0.0102925531034544
 30
0.0
 11
120.0952764866181
 21
0.0102925531034544
 31
0.0
  0
LINE
  5
2260
330
1E
100
AcDbEntity
  8
16
100
AcDbLine
 10
87.32666213088251
 20
-250.0
 30
0.0
 11
-80.93000773675209
 21
-250.0
 31
0.0
  0
LINE
  5
2261
330
1E
100
AcDbEntity
  8
16
100
AcDbLine
 10
-0.3800945351711884
 20
-350.4150635072006
 30
0.0
 11
-0.3800945351711884
 21
-151.2797245348689
 31
0.0
  0
MTEXT
  5
5C78
330
1E
100
AcDbEntity
  8
30
  6
Continuous
100
AcDbMText
 10
162.3297648581359
 20
88.99793930010117
 30
0.0
 40
4.0
 41
0.0
 71
     9
 72
     1
  1

 73
     1
 44
1.0
1001
ACAD
1000
MTEXTBEGIN
1070
    73
1070
     1
1070
    44
1040
1.0
1070
    74
1070
     0
1000
MTEXTEND
  0
MTEXT
  5
6068
330
1E
100
AcDbEntity
  8
30
  6
Continuous
100
AcDbMText
 10
-34.12327828532269
 20
-164.9086974155603
 30
0.0
 40
4.0
 41
0.0
 71
     9
 72
     1
  1

 73
     1
 44
1.0
1001
ACAD
1000
MTEXTBEGIN
1070
    73
1070
     1
1070
    44
1040
1.0
1070
    74
1070
     0
1000
MTEXTEND
  0
LINE
  5
6466
330
1E
100
AcDbEntity
  8
16
100
AcDbLine
 10
209.6199054648288
 20
-350.4150635072006
 30
0.0
 11
209.6199054648288
 21
-151.2797245348689
 31
0.0
  0
LINE
  5
646E
330
1E
100
AcDbEntity
  8
16
100
AcDbLine
 10
297.3266621308825
 20
-250.0
 30
0.0
 11
129.0699922632479
 21
-250.0
 31
0.0
  0
LINE
  5
6A6A
330
1E
100
AcDbEntity
  8
18
100
AcDbLine
 10
19.0
 20
182.5
 30
0.0
 11
19.0
 21
82.49999999999992
 31
0.0
  0
LINE
  5
6A6B
330
1E
100
AcDbEntity
  8
18
100
AcDbLine
 10
16.0
 20
182.5
 30
0.0
 11
16.0
 21
82.49999999999992
 31
0.0
  0
LINE
  5
6A6C
330
1E
100
AcDbEntity
  8
18
100
AcDbLine
 10
-19.0
 20
182.5
 30
0.0
 11
-19.0
 21
82.49999999999992
 31
0.0
  0
LINE
  5
6A6D
330
1E
100
AcDbEntity
  8
18
100
AcDbLine
 10
-16.0
 20
182.5
 30
0.0
 11
-16.0
 21
82.49999999999992
 31
0.0
  0
LINE
  5
6B16
330
1E
100
AcDbEntity
  8
18
100
AcDbLine
 10
-16.0
 20
182.5
 30
0.0
 11
-19.0
 21
182.5
 31
0.0
  0
LINE
  5
6B17
330
1E
100
AcDbEntity
  8
18
100
AcDbLine
 10
16.0
 20
182.5
 30
0.0
 11
19.0
 21
182.5
 31
0.0
  0
LINE
  5
6B40
330
1E
100
AcDbEntity
  8
10
  6
Continuous
100
AcDbLine
 10
142.4371126716464
 20
51.01029255310345
 30
0.0
 11
142.4371126716464
 21
-50.98970744689655
 31
0.0
  0
LINE
  5
6B41
330
1E
100
AcDbEntity
  8
10
  6
Continuous
100
AcDbLine
 10
245.4371126716464
 20
82.51029255310346
 30
0.0
 11
245.4371126716464
 21
-82.48970744689655
 31
0.0
  0
LINE
  5
6B42
330
1E
100
AcDbEntity
  8
12
  6
DASHED
100
AcDbLine
 10
165.4371126716464
 20
-65.23970744689655
 30
0.0
 11
245.4371126716464
 21
-65.23970744689655
 31
0.0
  0
LINE
  5
6B43
330
1E
100
AcDbEntity
  8
12
  6
DASHED
100
AcDbLine
 10
165.4371126716464
 20
-60.73970744689654
 30
0.0
 11
245.4371126716464
 21
-60.73970744689654
 31
0.0
  0
LINE
  5
6B44
330
1E
100
AcDbEntity
  8
12
  6
DASHED
100
AcDbLine
 10
144.4371126716464
 20
-62.98970744689654
 30
0.0
 11
263.4371126716463
 21
-62.98970744689654
 31
0.0
  0
LINE
  5
6B46
330
1E
100
AcDbEntity
  8
10
  6
Continuous
100
AcDbLine
 10
149.4371126716464
 20
-82.48970744689655
 30
0.0
 11
245.4371126716464
 21
-82.48970744689655
 31
0.0
  0
LINE
  5
6B47
330
1E
100
AcDbEntity
  8
10
  6
Continuous
100
AcDbLine
 10
149.4371126716464
 20
-50.98970744689655
 30
0.0
 11
149.4371126716464
 21
-82.48970744689655
 31
0.0
  0
LINE
  5
6B48
330
1E
100
AcDbEntity
  8
10
  6
Continuous
100
AcDbLine
 10
182.4371126716464
 20
-112.9897074468964
 30
0.0
 11
182.4371126716464
 21
-82.48970744689655
 31
0.0
  0
LINE
  5
6B49
330
1E
100
AcDbEntity
  8
10
  6
Continuous
100
AcDbLine
 10
186.4371126716464
 20
-112.9897074468964
 30
0.0
 11
186.4371126716464
 21
-82.48970744689655
 31
0.0
  0
LINE
  5
6B4A
330
1E
100
AcDbEntity
  8
10
  6
Continuous
100
AcDbLine
 10
182.4371126716464
 20
-112.9897074468964
 30
0.0
 11
186.4371126716464
 21
-112.9897074468964
 31
0.0
  0
LINE
  5
6B4B
330
1E
100
AcDbEntity
  8
10
  6
Continuous
100
AcDbLine
 10
134.4371126716464
 20
14.17572939253349
 30
0.0
 11
125.8833174901573
 21
20.16516125891405
 31
0.0
  0
LINE
  5
6B4C
330
1E
100
AcDbEntity
  8
10
  6
Continuous
100
AcDbLine
 10
134.4371126716464
 20
6.851081859964747
 30
0.0
 11
122.4418588720509
 21
15.25024899318007
 31
0.0
  0
ARC
  5
6B4D
330
1E
100
AcDbEntity
  8
30
  6
Continuous
100
AcDbCircle
 10
149.4371126716464
 20
0.0102925531034544
 30
0.0
 40
31.0
100
AcDbArc
 50
150.5534441956585
 51
180.0
  0
LINE
  5
6B4E
330
1E
100
AcDbEntity
  8
10
  6
Continuous
100
AcDbLine
 10
122.4418588720509
 20
15.25024899318007
 30
0.0
 11
125.8833174901573
 21
20.16516125891405
 31
0.0
  0
LINE
  5
6B4F
330
1E
100
AcDbEntity
  8
10
  6
Continuous
100
AcDbLine
 10
138.4371126716464
 20
25.01029255310344
 30
0.0
 11
138.4371126716464
 21
-24.98970744689652
 31
0.0
  0
LINE
  5
6B50
330
1E
100
AcDbEntity
  8
10
  6
Continuous
100
AcDbLine
 10
134.4371126716464
 20
25.01029255310344
 30
0.0
 11
134.4371126716464
 21
-24.98970744689652
 31
0.0
  0
LINE
  5
6B51
330
1E
100
AcDbEntity
  8
12
  6
DASHED
100
AcDbLine
 10
149.4371126716458
 20
-67.23970744689655
 30
0.0
 11
165.4371126716464
 21
-67.23970744689655
 31
0.0
  0
LINE
  5
6B52
330
1E
100
AcDbEntity
  8
12
  6
DASHED
100
AcDbLine
 10
149.4371126716458
 20
-58.73970744689654
 30
0.0
 11
165.4371126716464
 21
-58.73970744689654
 31
0.0
  0
LINE
  5
6B53
330
1E
100
AcDbEntity
  8
10
  6
Continuous
100
AcDbLine
 10
142.4371126716464
 20
-50.98970744689655
 30
0.0
 11
149.4371126716464
 21
-50.98970744689655
 31
0.0
  0
LINE
  5
6B54
330
1E
100
AcDbEntity
  8
12
  6
DASHED
100
AcDbLine
 10
165.4371126716464
 20
-58.73970744689654
 30
0.0
 11
165.4371126716464
 21
-67.23970744689655
 31
0.0
  0
LINE
  5
6B55
330
1E
100
AcDbEntity
  8
12
  6
DASHED
100
AcDbLine
 10
159.4371126716464
 20
-58.73970744689654
 30
0.0
 11
159.4371126716464
 21
-67.23970744689655
 31
0.0
  0
LINE
  5
6B56
330
1E
100
AcDbEntity
  8
12
  6
DASHED
100
AcDbLine
 10
165.4371126716464
 20
-65.23970744689655
 30
0.0
 11
165.4371126716464
 21
-67.23970744689655
 31
0.0
  0
LINE
  5
6B57
330
1E
100
AcDbEntity
  8
12
  6
DASHED
100
AcDbLine
 10
165.4371126716464
 20
-58.73970744689654
 30
0.0
 11
165.4371126716464
 21
-60.73970744689654
 31
0.0
  0
LINE
  5
6B58
330
1E
100
AcDbEntity
  8
10
  6
Continuous
100
AcDbLine
 10
134.4371126716464
 20
-24.98970744689652
 30
0.0
 11
142.4371126716464
 21
-24.98970744689652
 31
0.0
  0
LINE
  5
6B59
330
1E
100
AcDbEntity
  8
10
  6
Continuous
100
AcDbLine
 10
134.4371126716464
 20
25.01029255310344
 30
0.0
 11
142.4371126716464
 21
25.01029255310344
 31
0.0
  0
LINE
  5
6B5A
330
1E
100
AcDbEntity
  8
12
  6
DASHED
100
AcDbLine
 10
253.4371126716464
 20
-60.73970744689654
 30
0.0
 11
253.4371126716464
 21
-65.23970744689655
 31
0.0
  0
LINE
  5
6B5B
330
1E
100
AcDbEntity
  8
12
  6
DASHED
100
AcDbLine
 10
245.4371126716464
 20
-65.23970744689655
 30
0.0
 11
253.4371126716464
 21
-65.23970744689655
 31
0.0
  0
LINE
  5
6B5C
330
1E
100
AcDbEntity
  8
12
  6
DASHED
100
AcDbLine
 10
245.4371126716464
 20
-60.73970744689654
 30
0.0
 11
253.4371126716464
 21
-60.73970744689654
 31
0.0
  0
LINE
  5
6B5D
330
1E
100
AcDbEntity
  8
10
  6
Continuous
100
AcDbLine
 10
245.4371126716464
 20
82.51029255310346
 30
0.0
 11
149.4371126716464
 21
82.51029255310346
 31
0.0
  0
LINE
  5
6B5E
330
1E
100
AcDbEntity
  8
10
  6
Continuous
100
AcDbLine
 10
149.4371126716464
 20
82.51029255310346
 30
0.0
 11
149.4371126716464
 21
51.01029255310345
 31
0.0
  0
LINE
  5
6B5F
330
1E
100
AcDbEntity
  8
10
  6
Continuous
100
AcDbLine
 10
142.4371126716464
 20
51.01029255310345
 30
0.0
 11
149.4371126716464
 21
51.01029255310345
 31
0.0
  0
LINE
  5
6B60
330
1E
100
AcDbEntity
  8
10
  6
Continuous
100
AcDbLine
 10
186.4371126716464
 20
113.0102925531035
 30
0.0
 11
186.4371126716464
 21
82.51029255310346
 31
0.0
  0
LINE
  5
6B61
330
1E
100
AcDbEntity
  8
10
  6
Continuous
100
AcDbLine
 10
182.4371126716464
 20
113.0102925531035
 30
0.0
 11
182.4371126716464
 21
82.51029255310346
 31
0.0
  0
LINE
  5
6B62
330
1E
100
AcDbEntity
  8
10
  6
Continuous
100
AcDbLine
 10
182.4371126716464
 20
113.0102925531034
 30
0.0
 11
186.4371126716464
 21
113.0102925531034
 31
0.0
  0
LINE
  5
6B79
330
1E
100
AcDbEntity
  8
18
  6
DIVIDE
100
AcDbLine
 10
157.1199054648284
 20
-332.5
 30
0.0
 11
262.1199054648286
 21
-332.5
 31
0.0
  0
LINE
  5
6B7A
330
1E
100
AcDbEntity
  8
18
  6
DIVIDE
100
AcDbLine
 10
262.1199054648286
 20
-167.5
 30
0.0
 11
157.1199054648284
 21
-167.5
 31
0.0
  0
ARC
  5
6B7B
330
1E
100
AcDbEntity
  8
11
 48
2.0
100
AcDbCircle
 10
160.6199054648288
 20
-275.0
 30
0.0
 40
1.0
100
AcDbArc
 50
180.0
 51
270.0
  0
ARC
  5
6B7C
330
1E
100
AcDbEntity
  8
11
 48
2.0
100
AcDbCircle
 10
160.6199054648288
 20
-225.0
 30
0.0
 40
1.0
100
AcDbArc
 50
90.0
 51
180.0
  0
LINE
  5
6B7D
330
1E
100
AcDbEntity
  8
18
  6
DIVIDE
100
AcDbLine
 10
157.1199054648288
 20
-167.5
 30
0.0
 11
157.1199054648288
 21
-332.5
 31
0.0
  0
LINE
  5
6B7E
330
1E
100
AcDbEntity
  8
11
 48
2.0
100
AcDbLine
 10
159.6199054648288
 20
-225.0
 30
0.0
 11
159.6199054648288
 21
-275.0
 31
0.0
  0
ARC
  5
6B82
330
1E
100
AcDbEntity
  8
11
 48
2.0
100
AcDbCircle
 10
258.6199054648286
 20
-275.0
 30
0.0
 40
1.0
100
AcDbArc
 50
270.0
 51
0.0
  0
LINE
  5
6B83
330
1E
100
AcDbEntity
  8
11
 48
2.0
100
AcDbLine
 10
160.6199054648288
 20
-276.0
 30
0.0
 11
258.6199054648286
 21
-276.0
 31
0.0
  0
LINE
  5
6B84
330
1E
100
AcDbEntity
  8
11
 48
2.0
100
AcDbLine
 10
160.6199054648288
 20
-224.0
 30
0.0
 11
258.6199054648286
 21
-224.0
 31
0.0
  0
LINE
  5
6B85
330
1E
100
AcDbEntity
  8
11
 48
2.0
100
AcDbLine
 10
259.6199054648286
 20
-225.0
 30
0.0
 11
259.6199054648286
 21
-275.0
 31
0.0
  0
ARC
  5
6B86
330
1E
100
AcDbEntity
  8
11
 48
2.0
100
AcDbCircle
 10
258.6199054648286
 20
-225.0
 30
0.0
 40
1.0
100
AcDbArc
 50
0.0
 51
90.0
  0
LINE
  5
6B9F
330
1E
100
AcDbEntity
  8
18
  6
DIVIDE
100
AcDbLine
 10
-52.88009453517117
 20
-167.5
 30
0.0
 11
-52.88009453517117
 21
-332.5
 31
0.0
  0
LINE
  5
6BA1
330
1E
100
AcDbEntity
  8
18
  6
DIVIDE
100
AcDbLine
 10
-52.88009453517117
 20
-332.5
 30
0.0
 11
52.1199054648288
 21
-332.5
 31
0.0
  0
LINE
  5
6BA2
330
1E
100
AcDbEntity
  8
12
  6
Continuous
 62
     3
100
AcDbLine
 10
11.61990546482881
 20
-313.0
 30
0.0
 11
22.61990546482881
 21
-313.0
 31
0.0
  0
CIRCLE
  5
6BA3
330
1E
100
AcDbEntity
  8
12
  6
Continuous
 62
     3
100
AcDbCircle
 10
17.11990546482881
 20
-313.0
 30
0.0
 40
2.0
  0
LINE
  5
6BA7
330
1E
100
AcDbEntity
  8
12
  6
Continuous
 62
     3
100
AcDbLine
 10
17.11990546482881
 20
-318.5
 30
0.0
 11
17.11990546482881
 21
-307.5
 31
0.0
  0
LINE
  5
6BA8
330
1E
100
AcDbEntity
  8
18
  6
DIVIDE
100
AcDbLine
 10
52.1199054648288
 20
-167.5
 30
0.0
 11
-52.88009453517117
 21
-167.5
 31
0.0
  0
LINE
  5
6BAB
330
1E
100
AcDbEntity
  8
12
  6
Continuous
 62
     3
100
AcDbLine
 10
-17.88009453517117
 20
-181.4999999999999
 30
0.0
 11
-17.88009453517117
 21
-192.5
 31
0.0
  0
LINE
  5
6BAC
330
1E
100
AcDbEntity
  8
12
  6
Continuous
 62
     3
100
AcDbLine
 10
-23.38009453517118
 20
-187.0
 30
0.0
 11
-12.38009453517117
 21
-187.0
 31
0.0
  0
CIRCLE
  5
6BAD
330
1E
100
AcDbEntity
  8
12
  6
Continuous
 62
     3
100
AcDbCircle
 10
-17.88009453517117
 20
-187.0
 30
0.0
 40
2.0
  0
LINE
  5
6BCD
330
1E
100
AcDbEntity
  8
10
  6
CONTINOUS
100
AcDbLine
 10
-52.49999999999997
 20
326.8165692823121
 30
0.0
 11
52.5
 21
326.8165692823121
 31
0.0
  0
LINE
  5
6BD5
330
1E
100
AcDbEntity
  8
10
  6
CONTINOUS
100
AcDbLine
 10
-52.49999999999997
 20
230.8165692823123
 30
0.0
 11
-52.49999999999997
 21
326.8165692823121
 31
0.0
  0
DIMENSION
  5
6BE4
330
1E
100
AcDbEntity
  8
30
  6
Continuous
100
AcDbDimension
  2
*D1
 10
35.0
 20
309.7406209576415
 30
0.0
 11
17.5
 21
312.7406209576415
 31
0.0
 70
    32
 71
     5
 42
-1.0
  3
STANDARD
100
AcDbAlignedDimension
 13
0.0
 23
269.8933368984127
 33
0.0
 14
35.0
 24
272.8165692823121
 34
0.0
100
AcDbRotatedDimension
1001
ACAD
1000
DSTYLE
1002
{
1070
    79
1070
     3
1002
}
  0
LINE
  5
6BEB
330
1E
100
AcDbEntity
  8
10
  6
CONTINOUS
100
AcDbLine
 10
-52.49999999999997
 20
230.8165692823123
 30
0.0
 11
52.5
 21
230.8165692823122
 31
0.0
  0
LINE
  5
6C09
330
1E
100
AcDbEntity
  8
10
  6
CONTINOUS
100
AcDbLine
 10
52.5
 20
230.8165692823122
 30
0.0
 11
52.5
 21
326.8165692823121
 31
0.0
  0
LWPOLYLINE
  5
6CEA
330
1E
100
AcDbEntity
  8
10
  6
CONTINOUS
100
AcDbPolyline
 90
        4
 70
     1
 43
0.0
 10
-11.49999999999997
 20
267.8165692823121
 10
11.50000000000005
 20
267.8165692823121
 10
11.50000000000005
 20
263.8165692823121
 10
-11.49999999999997
 20
263.8165692823121
  0
LINE
  5
6CEB
330
1E
100
AcDbEntity
  8
24
  6
CONTINOUS
100
AcDbLine
 10
-5.0
 20
256.6165692823119
 30
0.0
 11
5.0
 21
256.6165692823119
 31
0.0
  0
LINE
  5
6CEC
330
1E
100
AcDbEntity
  8
24
  6
CONTINOUS
100
AcDbLine
 10
-10.5
 20
267.8165692823121
 30
0.0
 11
10.5000000000001
 21
267.8165692823121
 31
0.0
  0
LINE
  5
6CED
330
1E
100
AcDbEntity
  8
24
  6
CONTINOUS
100
AcDbLine
 10
-7.699999999999931
 20
261.8165692823121
 30
0.0
 11
7.700000000000045
 21
261.8165692823121
 31
0.0
  0
LINE
  5
6CEE
330
1E
100
AcDbEntity
  8
24
  6
CONTINOUS
100
AcDbLine
 10
-10.5
 20
269.8165692823121
 30
0.0
 11
10.5000000000001
 21
269.8165692823121
 31
0.0
  0
LINE
  5
6CEF
330
1E
100
AcDbEntity
  8
24
  6
CONTINOUS
100
AcDbLine
 10
0.0
 20
255.6165692823118
 30
0.0
 11
0.0
 21
272.8165692823121
 31
0.0
  0
LINE
  5
6CF0
330
1E
100
AcDbEntity
  8
24
  6
CONTINOUS
100
AcDbLine
 10
-7.0
 20
258.6165692823119
 30
0.0
 11
-7.0
 21
261.8165692823121
 31
0.0
  0
ARC
  5
6CF1
330
1E
100
AcDbEntity
  8
24
  6
CONTINOUS
100
AcDbCircle
 10
-5.0
 20
258.6165692823119
 30
0.0
 40
2.0
100
AcDbArc
 50
180.0
 51
270.0
  0
LINE
  5
6CF2
330
1E
100
AcDbEntity
  8
24
  6
Continuous
100
AcDbLine
 10
-10.5
 20
269.8165692823121
 30
0.0
 11
-10.5
 21
267.8165692823121
 31
0.0
  0
LINE
  5
6CF3
330
1E
100
AcDbEntity
  8
24
  6
CONTINOUS
100
AcDbLine
 10
-7.699999999999931
 20
261.8165692823121
 30
0.0
 11
-7.699999999999931
 21
263.8165692823121
 31
0.0
  0
LINE
  5
6CF4
330
1E
100
AcDbEntity
  8
24
  6
CONTINOUS
100
AcDbLine
 10
7.0
 20
258.6165692823119
 30
0.0
 11
7.0
 21
261.8165692823121
 31
0.0
  0
ARC
  5
6CF5
330
1E
100
AcDbEntity
  8
24
  6
CONTINOUS
100
AcDbCircle
 10
5.0
 20
258.6165692823119
 30
0.0
 40
2.0
100
AcDbArc
 50
270.0
 51
0.0
  0
LINE
  5
6CF6
330
1E
100
AcDbEntity
  8
24
  6
Continuous
100
AcDbLine
 10
10.5000000000001
 20
269.8165692823121
 30
0.0
 11
10.5000000000001
 21
267.8165692823121
 31
0.0
  0
LINE
  5
6CF7
330
1E
100
AcDbEntity
  8
24
  6
CONTINOUS
100
AcDbLine
 10
7.700000000000045
 20
261.8165692823121
 30
0.0
 11
7.700000000000045
 21
263.8165692823121
 31
0.0
  0
LWPOLYLINE
  5
6D33
330
1E
100
AcDbEntity
  8
10
  6
CONTINOUS
100
AcDbPolyline
 90
        4
 70
     1
 43
0.0
 10
23.5
 20
267.8165692823121
 10
60.0
 20
267.8165692823121
 10
60.0
 20
263.8165692823121
 10
23.5
 20
263.8165692823121
  0
LINE
  5
6D34
330
1E
100
AcDbEntity
  8
24
  6
CONTINOUS
100
AcDbLine
 10
30.0
 20
256.6165692823119
 30
0.0
 11
40.0
 21
256.6165692823119
 31
0.0
  0
LINE
  5
6D35
330
1E
100
AcDbEntity
  8
24
  6
CONTINOUS
100
AcDbLine
 10
24.5
 20
267.8165692823121
 30
0.0
 11
45.5000000000001
 21
267.8165692823121
 31
0.0
  0
LINE
  5
6D36
330
1E
100
AcDbEntity
  8
24
  6
CONTINOUS
100
AcDbLine
 10
27.30000000000007
 20
261.8165692823121
 30
0.0
 11
42.70000000000004
 21
261.8165692823121
 31
0.0
  0
LINE
  5
6D37
330
1E
100
AcDbEntity
  8
24
  6
CONTINOUS
100
AcDbLine
 10
24.5
 20
269.8165692823121
 30
0.0
 11
45.5000000000001
 21
269.8165692823121
 31
0.0
  0
LINE
  5
6D38
330
1E
100
AcDbEntity
  8
24
  6
CONTINOUS
100
AcDbLine
 10
35.0
 20
255.6165692823118
 30
0.0
 11
35.0
 21
272.8165692823121
 31
0.0
  0
ARC
  5
6D39
330
1E
100
AcDbEntity
  8
24
  6
CONTINOUS
100
AcDbCircle
 10
30.0
 20
258.6165692823119
 30
0.0
 40
2.0
100
AcDbArc
 50
180.0
 51
270.0
  0
LINE
  5
6D3A
330
1E
100
AcDbEntity
  8
24
  6
CONTINOUS
100
AcDbLine
 10
27.30000000000007
 20
261.8165692823121
 30
0.0
 11
27.30000000000007
 21
263.8165692823121
 31
0.0
  0
LINE
  5
6D3B
330
1E
100
AcDbEntity
  8
24
  6
CONTINOUS
100
AcDbLine
 10
28.0
 20
258.6165692823119
 30
0.0
 11
28.0
 21
261.8165692823121
 31
0.0
  0
LINE
  5
6D3C
330
1E
100
AcDbEntity
  8
24
  6
Continuous
100
AcDbLine
 10
24.5
 20
269.8165692823121
 30
0.0
 11
24.5
 21
267.8165692823121
 31
0.0
  0
LINE
  5
6D3D
330
1E
100
AcDbEntity
  8
24
  6
CONTINOUS
100
AcDbLine
 10
42.0
 20
258.6165692823119
 30
0.0
 11
42.0
 21
261.8165692823121
 31
0.0
  0
ARC
  5
6D3E
330
1E
100
AcDbEntity
  8
24
  6
CONTINOUS
100
AcDbCircle
 10
40.0
 20
258.6165692823119
 30
0.0
 40
2.0
100
AcDbArc
 50
270.0
 51
0.0
  0
LINE
  5
6D3F
330
1E
100
AcDbEntity
  8
24
  6
CONTINOUS
100
AcDbLine
 10
42.70000000000004
 20
261.8165692823121
 30
0.0
 11
42.70000000000004
 21
263.8165692823121
 31
0.0
  0
LINE
  5
6D40
330
1E
100
AcDbEntity
  8
24
  6
Continuous
100
AcDbLine
 10
45.5000000000001
 20
269.8165692823121
 30
0.0
 11
45.5000000000001
 21
267.8165692823121
 31
0.0
  0
LWPOLYLINE
  5
6D6E
330
1E
100
AcDbEntity
  8
10
  6
CONTINOUS
100
AcDbPolyline
 90
        4
 70
     1
 43
0.0
 10
-60.00000000000003
 20
267.8165692823121
 10
-23.49999999999994
 20
267.8165692823121
 10
-23.49999999999994
 20
263.8165692823121
 10
-60.00000000000003
 20
263.8165692823121
  0
LINE
  5
6D6F
330
1E
100
AcDbEntity
  8
24
  6
CONTINOUS
100
AcDbLine
 10
-40.0
 20
256.6165692823119
 30
0.0
 11
-30.0
 21
256.6165692823119
 31
0.0
  0
LINE
  5
6D70
330
1E
100
AcDbEntity
  8
24
  6
CONTINOUS
100
AcDbLine
 10
-45.49999999999999
 20
267.8165692823121
 30
0.0
 11
-24.4999999999999
 21
267.8165692823121
 31
0.0
  0
LINE
  5
6D71
330
1E
100
AcDbEntity
  8
24
  6
CONTINOUS
100
AcDbLine
 10
-42.69999999999993
 20
261.8165692823121
 30
0.0
 11
-27.29999999999995
 21
261.8165692823121
 31
0.0
  0
LINE
  5
6D72
330
1E
100
AcDbEntity
  8
24
  6
CONTINOUS
100
AcDbLine
 10
-45.49999999999999
 20
269.8165692823121
 30
0.0
 11
-24.4999999999999
 21
269.8165692823121
 31
0.0
  0
LINE
  5
6D73
330
1E
100
AcDbEntity
  8
24
  6
CONTINOUS
100
AcDbLine
 10
-35.0
 20
255.6165692823118
 30
0.0
 11
-35.0
 21
272.8165692823121
 31
0.0
  0
ARC
  5
6D74
330
1E
100
AcDbEntity
  8
24
  6
CONTINOUS
100
AcDbCircle
 10
-40.0
 20
258.6165692823119
 30
0.0
 40
2.0
100
AcDbArc
 50
180.0
 51
270.0
  0
LINE
  5
6D75
330
1E
100
AcDbEntity
  8
24
  6
CONTINOUS
100
AcDbLine
 10
-42.69999999999993
 20
261.8165692823121
 30
0.0
 11
-42.69999999999993
 21
263.8165692823121
 31
0.0
  0
LINE
  5
6D76
330
1E
100
AcDbEntity
  8
24
  6
CONTINOUS
100
AcDbLine
 10
-42.0
 20
258.6165692823119
 30
0.0
 11
-42.0
 21
261.8165692823121
 31
0.0
  0
LINE
  5
6D77
330
1E
100
AcDbEntity
  8
24
  6
Continuous
100
AcDbLine
 10
-45.49999999999999
 20
269.8165692823121
 30
0.0
 11
-45.49999999999999
 21
267.8165692823121
 31
0.0
  0
LINE
  5
6D78
330
1E
100
AcDbEntity
  8
24
  6
CONTINOUS
100
AcDbLine
 10
-28.0
 20
258.6165692823119
 30
0.0
 11
-28.0
 21
261.8165692823121
 31
0.0
  0
ARC
  5
6D79
330
1E
100
AcDbEntity
  8
24
  6
CONTINOUS
100
AcDbCircle
 10
-30.0
 20
258.6165692823119
 30
0.0
 40
2.0
100
AcDbArc
 50
270.0
 51
0.0
  0
LINE
  5
6D7A
330
1E
100
AcDbEntity
  8
24
  6
CONTINOUS
100
AcDbLine
 10
-27.29999999999995
 20
261.8165692823121
 30
0.0
 11
-27.29999999999995
 21
263.8165692823121
 31
0.0
  0
LINE
  5
6D7B
330
1E
100
AcDbEntity
  8
24
  6
Continuous
100
AcDbLine
 10
-24.4999999999999
 20
269.8165692823121
 30
0.0
 11
-24.4999999999999
 21
267.8165692823121
 31
0.0
  0
DIMENSION
  5
6D7C
330
1E
100
AcDbEntity
  8
30
  6
Continuous
100
AcDbDimension
  2
*D2
 10
0.0000000000000023
 20
309.7406209576415
 30
0.0
 11
-17.5
 21
312.7406209576415
 31
0.0
 70
    32
 71
     5
 42
-1.0
  3
STANDARD
100
AcDbAlignedDimension
 13
-35.0
 23
269.8933368984127
 33
0.0
 14
0.0
 24
272.8165692823121
 34
0.0
100
AcDbRotatedDimension
1001
ACAD
1000
DSTYLE
1002
{
1070
    79
1070
     3
1002
}
  0
DIMENSION
  5
6DAC
330
1E
100
AcDbEntity
  8
30
  6
Continuous
100
AcDbDimension
  2
*D3
 10
60.0
 20
125.7139219802485
 30
0.0
 11
48.5
 21
128.7139219802485
 31
0.0
 70
    32
 71
     5
 42
-1.0
  3
STANDARD
100
AcDbAlignedDimension
 13
37.0
 23
113.0
 33
0.0
 14
60.0
 24
113.0
 34
0.0
100
AcDbRotatedDimension
1001
ACAD
1000
DSTYLE
1002
{
1070
    79
1070
     3
1002
}
  0
DIMENSION
  5
6DB9
330
1E
100
AcDbEntity
  8
30
  6
Continuous
100
AcDbDimension
  2
*D4
 10
71.88107455351702
 20
113.0
 30
0.0
 11
68.88107455351698
 21
107.25
 31
0.0
 70
    32
 71
     5
 42
-1.0
  3
STANDARD
100
AcDbAlignedDimension
 13
56.0
 23
101.5
 33
0.0
 14
60.0
 24
113.0
 34
0.0
 50
90.0
100
AcDbRotatedDimension
1001
ACAD
1000
DSTYLE
1002
{
1070
    79
1070
     3
1002
}
  0
DIMENSION
  5
6DC6
330
1E
100
AcDbEntity
  8
30
  6
Continuous
100
AcDbDimension
  2
*D5
 10
79.22921446927784
 20
82.5
 30
0.0
 11
76.22921446927783
 21
97.75000000000002
 31
0.0
 70
    32
 71
     5
 42
-1.0
  3
STANDARD
100
AcDbAlignedDimension
 13
60.0
 23
113.0
 33
0.0
 14
66.0
 24
82.5
 34
0.0
 50
90.0
100
AcDbRotatedDimension
1001
ACAD
1000
DSTYLE
1002
{
1070
    79
1070
     3
1002
}
  0
DIMENSION
  5
6DD3
330
1E
100
AcDbEntity
  8
30
  6
Continuous
100
AcDbDimension
  2
*D6
 10
186.4371126716464
 20
122.32636103358
 30
0.0
 11
215.9371126716464
 21
125.3263610335799
 31
0.0
 70
    32
 71
     5
 42
-1.0
  3
STANDARD
100
AcDbAlignedDimension
 13
245.4371126716464
 23
82.51029255310346
 33
0.0
 14
186.4371126716464
 24
113.0102925531034
 34
0.0
100
AcDbRotatedDimension
1001
ACAD
1000
DSTYLE
1002
{
1070
    79
1070
     3
1002
}
  0
DIMENSION
  5
6DE0
330
1E
100
AcDbEntity
  8
30
  6
Continuous
100
AcDbDimension
  2
*D7
 10
182.4371126716464
 20
122.82636103358
 30
0.0
 11
176.1037793383131
 21
125.82636103358
 31
0.0
 70
    32
 71
     5
 42
-1.0
  3
STANDARD
100
AcDbAlignedDimension
 13
186.4371126716464
 23
113.0102925531034
 33
0.0
 14
182.4371126716464
 24
113.0102925531034
 34
0.0
100
AcDbRotatedDimension
1001
ACAD
1000
DSTYLE
1002
{
1070
    79
1070
     3
1002
}
  0
LEADER
  5
6E2F
330
1E
100
AcDbEntity
  8
30
  6
Continuous
100
AcDbLeader
  3
STANDARD
 76
     3
 10
-48.5
 20
101.4999999999999
 30
0.0
 10
-58.08157217077149
 20
117.3696490488322
 30
0.0
 10
-76.8319211509103
 20
117.3696490488322
 30
0.0
1001
ACAD
1000
DSTYLE
1002
{
1070
     5
1000
OPEN
1070
    77
1070
     0
1070
    79
1070
     3
1070
   147
1040
1.0
1070
   342
1005
3B2
1002
}
  0
TEXT
  5
6E30
330
1E
100
AcDbEntity
  8
30
  6
Continuous
100
AcDbText
 10
-75.87851447265411
 20
118.956840912156
 30
0.0
 40
5.0
  1
%%C11
  7
STANDARD1
100
AcDbText
  0
DIMENSION
  5
6E49
330
1E
100
AcDbEntity
  8
30
  6
Continuous
100
AcDbDimension
  2
*D8
 10
-85.46797204212541
 20
82.5
 30
0.0
 11
-88.4679720421254
 21
132.4999999999999
 31
0.0
 70
    32
 71
     5
 42
-1.0
  3
STANDARD
100
AcDbAlignedDimension
 13
-19.0
 23
182.5
 33
0.0
 14
-52.49999999999997
 24
82.5
 34
0.0
 50
90.0
100
AcDbRotatedDimension
1001
ACAD
1000
DSTYLE
1002
{
1070
    79
1070
     3
1002
}
  0
DIMENSION
  5
6E56
330
1E
100
AcDbEntity
  8
30
  6
Continuous
100
AcDbDimension
  2
*D9
 10
-85.46797204212543
 20
-82.5
 30
0.0
 11
-88.4679720421254
 21
-0.0000000000000086
 31
0.0
 70
    33
 71
     5
 42
-1.0
  3
STANDARD
100
AcDbAlignedDimension
 13
-52.49999999999997
 23
82.5
 33
0.0
 14
-52.49999999999997
 24
-82.5
 34
0.0
1001
ACAD
1000
DSTYLE
1002
{
1070
    79
1070
     3
1002
}
  0
LEADER
  5
6E63
330
1E
100
AcDbEntity
  8
30
  6
Continuous
100
AcDbLeader
  3
STANDARD
 76
     3
 10
-17.88009453517119
 20
-187.0
 30
0.0
 10
-27.02312241480981
 20
-163.3683716085349
 30
0.0
 10
-52.82975295031477
 20
-163.4003639250138
 30
0.0
213
-17.20647466499205
223
1.845209746191358
233
0.0
1001
ACAD
1000
DSTYLE
1002
{
1070
     5
1000
OPEN
1070
    77
1070
     0
1070
    79
1070
     3
1070
   147
1040
1.0
1070
   342
1005
3B2
1002
}
  0
MTEXT
  5
6E64
330
1E
100
AcDbEntity
  8
30
  6
Continuous
100
AcDbMText
 10
-40.40662176749465
 20
-160.3825644346581
 30
0.0
 40
4.0
 41
0.0
 71
     5
 72
     1
  1
M4\U+00D70.7
 73
     1
 44
1.0
1001
ACAD
1000
MTEXTBEGIN
1070
    73
1070
     1
1070
    44
1040
1.0
1070
    74
1070
     0
1000
MTEXTEND
  0
DIMENSION
  5
6E65
330
1E
100
AcDbEntity
  8
30
  6
Continuous
100
AcDbDimension
  2
*D10
 10
78.57549392574355
 20
-313.0
 30
0.0
 11
75.57549392574363
 21
-250.0
 31
0.0
 70
    32
 71
     5
 42
-1.0
  3
STANDARD
100
AcDbAlignedDimension
 13
-12.38009453517117
 23
-187.0
 33
0.0
 14
22.61990546482881
 24
-313.0
 34
0.0
 50
90.0
100
AcDbRotatedDimension
1001
ACAD
1000
DSTYLE
1002
{
1070
    79
1070
     3
1002
}
  0
DIMENSION
  5
6E72
330
1E
100
AcDbEntity
  8
30
  6
Continuous
100
AcDbDimension
  2
*D11
 10
280.9029436113288
 20
-276.0
 30
0.0
 11
277.9029436113288
 21
-249.9999999999999
 31
0.0
 70
    32
 71
     5
 42
-1.0
  3
STANDARD
100
AcDbAlignedDimension
 13
258.6199054648286
 23
-224.0
 33
0.0
 14
259.8420532342502
 24
-276.0
 34
0.0
 50
90.0
100
AcDbRotatedDimension
1001
ACAD
1000
DSTYLE
1002
{
1070
    79
1070
     3
1002
}
  0
DIMENSION
  5
6E73
330
1E
100
AcDbEntity
  8
30
  6
Continuous
100
AcDbDimension
  2
*D12
 10
258.6199054648286
 20
-225.0
 30
0.0
 11
266.4162528600984
 21
-219.1811816163853
 31
0.0
 70
    36
 71
     5
 42
-1.0
  3
STANDARD
100
AcDbRadialDimension
 15
259.4458416105493
 25
-224.436236323277
 35
0.0
 40
0.0
1001
ACAD
1000
DSTYLE
1002
{
1070
   288
1070
     1
1002
}
  0
DIMENSION
  5
6ECF
330
1E
100
AcDbEntity
  8
30
  6
Continuous
100
AcDbDimension
  2
*D13
 10
259.6199054648286
 20
-359.3804450066013
 30
0.0
 11
209.6199054648287
 21
-356.3804450066013
 31
0.0
 70
    32
 71
     5
 42
-1.0
  3
STANDARD
100
AcDbAlignedDimension
 13
159.6199054648288
 23
-275.0
 33
0.0
 14
259.6199054648286
 24
-275.0
 34
0.0
100
AcDbRotatedDimension
1001
ACAD
1000
DSTYLE
1002
{
1070
    79
1070
     3
1002
}
  0
DIMENSION
  5
6F6B
330
1E
100
AcDbEntity
  8
30
  6
Continuous
100
AcDbDimension
  2
*D14
 10
111.4688600635149
 20
-24.98970744689652
 30
0.0
 11
108.4688600635149
 21
0.0102925531034763
 31
0.0
 70
    32
 71
     5
 42
-1.0
  3
STANDARD
100
AcDbAlignedDimension
 13
134.4371126716464
 23
25.01029255310344
 33
0.0
 14
134.4371126716464
 24
-24.98970744689652
 34
0.0
 50
90.0
100
AcDbRotatedDimension
1001
ACAD
1000
DSTYLE
1002
{
1070
    79
1070
     3
1002
}
  0
DIMENSION
  5
6F78
330
1E
100
AcDbEntity
  8
30
  6
Continuous
100
AcDbDimension
  2
*D15
 10
245.4371126716464
 20
-91.64127065798902
 30
0.0
 11
249.4371126716464
 21
-88.64127065798902
 31
0.0
 70
    32
 71
     5
 42
-1.0
  3
STANDARD
100
AcDbAlignedDimension
 13
253.4371126716464
 23
-65.23970744689655
 33
0.0
 14
245.4371126716464
 24
-82.48970744689655
 34
0.0
100
AcDbRotatedDimension
1001
ACAD
1000
DSTYLE
1002
{
1070
    79
1070
     3
1002
}
  0
DIMENSION
  5
6F85
330
1E
100
AcDbEntity
  8
30
  6
Continuous
100
AcDbDimension
  2
*D16
 10
165.4371126716464
 20
-91.64127065798902
 30
0.0
 11
205.4371126716464
 21
-88.64127065798902
 31
0.0
 70
    32
 71
     5
 42
-1.0
  3
STANDARD
100
AcDbAlignedDimension
 13
245.4371126716464
 23
-82.48970744689655
 33
0.0
 14
165.4371126716464
 24
-67.23970744689655
 34
0.0
100
AcDbRotatedDimension
1001
ACAD
1000
DSTYLE
1002
{
1070
   287
1070
     4
1070
   287
1070
     4
1070
   279
1070
     1
1070
    79
1070
     3
1002
}
  0
DIMENSION
  5
6F92
330
1E
100
AcDbEntity
  8
30
  6
Continuous
100
AcDbDimension
  2
*D17
 10
149.4371126716464
 20
-103.6393997005921
 30
0.0
 11
197.4371126716464
 21
-100.6393997005921
 31
0.0
 70
    32
 71
     5
 42
-1.0
  3
STANDARD
100
AcDbAlignedDimension
 13
245.4371126716464
 23
-82.48970744689655
 33
0.0
 14
149.4371126716464
 24
-82.48970744689655
 34
0.0
100
AcDbRotatedDimension
1001
ACAD
1000
DSTYLE
1002
{
1070
    79
1070
     3
1002
}
  0
DIMENSION
  5
6F9F
330
1E
100
AcDbEntity
  8
30
  6
Continuous
100
AcDbDimension
  2
*D18
 10
142.4371126716464
 20
-118.1634516797932
 30
0.0
 11
193.9371126716464
 21
-115.1634516797932
 31
0.0
 70
    32
 71
     5
 42
-1.0
  3
STANDARD
100
AcDbAlignedDimension
 13
245.4371126716464
 23
-82.48970744689655
 33
0.0
 14
142.4371126716464
 24
-50.98970744689655
 34
0.0
100
AcDbRotatedDimension
1001
ACAD
1000
DSTYLE
1002
{
1070
    79
1070
     3
1002
}
  0
DIMENSION
  5
6FAC
330
1E
100
AcDbEntity
  8
30
  6
Continuous
100
AcDbDimension
  2
*D19
 10
138.4371126716464
 20
-128.8986215185148
 30
0.0
 11
191.9371126716464
 21
-125.8986215185148
 31
0.0
 70
    32
 71
     5
 42
-1.0
  3
STANDARD
100
AcDbAlignedDimension
 13
245.4371126716464
 23
-82.48970744689655
 33
0.0
 14
138.4371126716464
 24
-24.98970744689652
 34
0.0
100
AcDbRotatedDimension
1001
ACAD
1000
DSTYLE
1002
{
1070
    79
1070
     3
1002
}
  0
DIMENSION
  5
6FB9
330
1E
100
AcDbEntity
  8
30
  6
Continuous
100
AcDbDimension
  2
*D20
 10
138.4371126716464
 20
-129.3986215185148
 30
0.0
 11
144.7704460049795
 21
-126.3986215185147
 31
0.0
 70
    32
 71
     5
 42
-1.0
  3
STANDARD
100
AcDbAlignedDimension
 13
134.4371126716464
 23
-24.98970744689652
 33
0.0
 14
138.4371126716464
 24
-129.3986215185148
 34
0.0
100
AcDbRotatedDimension
1001
ACAD
1000
DSTYLE
1002
{
1070
    79
1070
     3
1002
}
  0
DIMENSION
  5
6FD1
330
1E
100
AcDbEntity
  8
30
  6
Continuous
100
AcDbDimension
  2
*D21
 10
118.4371126716464
 20
-140.8967505611178
 30
0.0
 11
181.9371126716464
 21
-137.8967505611178
 31
0.0
 70
    32
 71
     5
 42
-1.0
  3
STANDARD
100
AcDbAlignedDimension
 13
245.4371126716464
 23
-118.6634516797933
 33
0.0
 14
118.4371126716464
 24
0.0102925531034581
 34
0.0
100
AcDbRotatedDimension
1001
ACAD
1000
DSTYLE
1002
{
1070
    79
1070
     3
1002
}
  0
LINE
  5
7067
330
1E
100
AcDbEntity
  8
10
  6
Continuous
100
AcDbLine
 10
-52.50000000000003
 20
82.5
 30
0.0
 11
-52.50000000000003
 21
-82.5
 31
0.0
  0
LINE
  5
7068
330
1E
100
AcDbEntity
  8
10
  6
Continuous
100
AcDbLine
 10
52.5
 20
-82.5
 30
0.0
 11
52.5
 21
82.5
 31
0.0
  0
ARC
  5
7069
330
1E
100
AcDbEntity
  8
10
  6
Continuous
100
AcDbCircle
 10
42.0
 20
-65.0
 30
0.0
 40
5.0
210
0.0
220
0.0
230
-1.0
100
AcDbArc
 50
0.0
 51
90.0
  0
LINE
  5
706A
330
1E
100
AcDbEntity
  8
24
  6
CONTINOUS
100
AcDbLine
 10
-56.00000000000003
 20
-101.5
 30
0.0
 11
-41.0
 21
-101.5
 31
0.0
  0
LINE
  5
706B
330
1E
100
AcDbEntity
  8
10
  6
Continuous
100
AcDbLine
 10
-60.00000000000003
 20
-113.0
 30
0.0
 11
-37.0
 21
-113.0
 31
0.0
  0
LINE
  5
706C
330
1E
100
AcDbEntity
  8
10
  6
Continuous
100
AcDbLine
 10
-49.00000000000003
 20
-25.0
 30
0.0
 11
49.0
 21
-25.0
 31
0.0
  0
LINE
  5
706D
330
1E
100
AcDbEntity
  8
10
  6
Continuous
100
AcDbLine
 10
-49.00000000000003
 20
25.0
 30
0.0
 11
49.0
 21
25.0
 31
0.0
  0
LINE
  5
706E
330
1E
100
AcDbEntity
  8
10
  6
Continuous
100
AcDbLine
 10
-52.50000000000003
 20
-51.0
 30
0.0
 11
52.5
 21
-51.0
 31
0.0
  0
CIRCLE
  5
7070
330
1E
100
AcDbEntity
  8
24
  6
CONTINOUS
100
AcDbCircle
 10
-48.50000000000003
 20
-101.5
 30
0.0
 40
5.5
  0
LINE
  5
7071
330
1E
100
AcDbEntity
  8
10
  6
Continuous
100
AcDbLine
 10
-46.5
 20
-89.99999999999996
 30
0.0
 11
-46.5
 21
-62.82055052822965
 31
0.0
  0
LINE
  5
7072
330
1E
100
AcDbEntity
  8
10
  6
Continuous
100
AcDbLine
 10
-47.0
 20
-82.5
 30
0.0
 11
-47.0
 21
-65.0
 31
0.0
  0
LINE
  5
7073
330
1E
100
AcDbEntity
  8
10
  6
Continuous
100
AcDbLine
 10
-48.50000000000003
 20
-109.0
 30
0.0
 11
-48.50000000000003
 21
-94.0
 31
0.0
  0
LINE
  5
7074
330
1E
100
AcDbEntity
  8
10
  6
Continuous
100
AcDbLine
 10
-60.00000000000003
 20
-113.0
 30
0.0
 11
-60.00000000000003
 21
-90.0
 31
0.0
  0
LINE
  5
7075
330
1E
100
AcDbEntity
  8
10
  6
Continuous
100
AcDbLine
 10
-60.00000000000003
 20
-90.0
 30
0.0
 11
-46.5
 21
-90.0
 31
0.0
  0
LINE
  5
7076
330
1E
100
AcDbEntity
  8
10
  6
Continuous
100
AcDbLine
 10
-52.50000000000003
 20
-82.5
 30
0.0
 11
-46.5
 21
-82.5
 31
0.0
  0
LINE
  5
7077
330
1E
100
AcDbEntity
  8
10
  6
Continuous
100
AcDbLine
 10
-49.00000000000003
 20
25.0
 30
0.0
 11
-49.00000000000003
 21
-25.0
 31
0.0
  0
LINE
  5
7078
330
1E
100
AcDbEntity
  8
10
  6
Continuous
100
AcDbLine
 10
-23.5
 20
-83.49999999999999
 30
0.0
 11
-23.5
 21
-62.82055052822965
 31
0.0
  0
LINE
  5
7079
330
1E
100
AcDbEntity
  8
10
  6
Continuous
100
AcDbLine
 10
46.5
 20
-89.99999999999996
 30
0.0
 11
46.5
 21
-62.82055052822965
 31
0.0
  0
LINE
  5
707A
330
1E
100
AcDbEntity
  8
10
  6
Continuous
100
AcDbLine
 10
23.5
 20
-83.49999999999999
 30
0.0
 11
23.5
 21
-62.82055052822965
 31
0.0
  0
LINE
  5
707B
330
1E
100
AcDbEntity
  8
10
  6
Continuous
100
AcDbLine
 10
11.5
 20
-113.0
 30
0.0
 11
11.5
 21
-62.82055052822965
 31
0.0
  0
LINE
  5
707C
330
1E
100
AcDbEntity
  8
10
  6
Continuous
100
AcDbLine
 10
-11.5
 20
-113.0
 30
0.0
 11
-11.5
 21
-62.82055052822965
 31
0.0
  0
LINE
  5
707D
330
1E
100
AcDbEntity
  8
24
  6
CONTINOUS
100
AcDbLine
 10
35.0
 20
-78.0
 30
0.0
 11
35.0
 21
-65.99999999999996
 31
0.0
  0
LINE
  5
707E
330
1E
100
AcDbEntity
  8
24
  6
CONTINOUS
100
AcDbLine
 10
-35.0
 20
-78.0
 30
0.0
 11
-35.0
 21
-65.99999999999996
 31
0.0
  0
LINE
  5
707F
330
1E
100
AcDbEntity
  8
10
  6
Continuous
100
AcDbLine
 10
-23.0
 20
-82.5
 30
0.0
 11
-23.0
 21
-65.0
 31
0.0
  0
LINE
  5
7080
330
1E
100
AcDbEntity
  8
10
  6
Continuous
100
AcDbLine
 10
12.0
 20
-82.5
 30
0.0
 11
12.0
 21
-65.0
 31
0.0
  0
LINE
  5
7081
330
1E
100
AcDbEntity
  8
10
  6
Continuous
100
AcDbLine
 10
-12.0
 20
-82.5
 30
0.0
 11
-12.0
 21
-65.0
 31
0.0
  0
LINE
  5
7082
330
1E
100
AcDbEntity
  8
10
  6
Continuous
100
AcDbLine
 10
47.0
 20
-82.5
 30
0.0
 11
47.0
 21
-65.0
 31
0.0
  0
LINE
  5
7083
330
1E
100
AcDbEntity
  8
10
  6
Continuous
100
AcDbLine
 10
23.0
 20
-82.5
 30
0.0
 11
23.0
 21
-65.0
 31
0.0
  0
CIRCLE
  5
7084
330
1E
100
AcDbEntity
  8
24
  6
CONTINOUS
100
AcDbCircle
 10
-35.0
 20
-72.0
 30
0.0
 40
4.25
  0
CIRCLE
  5
7085
330
1E
100
AcDbEntity
  8
24
  6
CONTINOUS
100
AcDbCircle
 10
-35.0
 20
-72.0
 30
0.0
 40
4.25
210
0.0
220
0.0
230
-1.0
  0
CIRCLE
  5
7086
330
1E
100
AcDbEntity
  8
24
  6
CONTINOUS
100
AcDbCircle
 10
0.0
 20
-72.0
 30
0.0
 40
4.25
210
0.0
220
0.0
230
-1.0
  0
LINE
  5
7087
330
1E
100
AcDbEntity
  8
10
  6
Continuous
100
AcDbLine
 10
60.0
 20
-113.0
 30
0.0
 11
37.0
 21
-113.0
 31
0.0
  0
LINE
  5
7088
330
1E
100
AcDbEntity
  8
24
  6
CONTINOUS
100
AcDbLine
 10
-7.5
 20
-101.5
 30
0.0
 11
7.5
 21
-101.5
 31
0.0
  0
LINE
  5
7089
330
1E
100
AcDbEntity
  8
10
  6
Continuous
100
AcDbLine
 10
-11.5
 20
-113.0
 30
0.0
 11
11.5
 21
-113.0
 31
0.0
  0
CIRCLE
  5
708A
330
1E
100
AcDbEntity
  8
24
  6
CONTINOUS
100
AcDbCircle
 10
0.0
 20
-101.5
 30
0.0
 40
5.5
210
0.0
220
0.0
230
-1.0
  0
LINE
  5
708B
330
1E
100
AcDbEntity
  8
10
  6
Continuous
100
AcDbLine
 10
-37.0
 20
-113.0
 30
0.0
 11
-23.5
 21
-83.49999999999999
 31
0.0
  0
LINE
  5
708C
330
1E
100
AcDbEntity
  8
10
  6
Continuous
100
AcDbLine
 10
-23.5
 20
-82.5
 30
0.0
 11
-11.5
 21
-82.5
 31
0.0
  0
LINE
  5
708D
330
1E
100
AcDbEntity
  8
10
  6
Continuous
100
AcDbLine
 10
37.0
 20
-113.0
 30
0.0
 11
23.5
 21
-83.49999999999999
 31
0.0
  0
LINE
  5
708E
330
1E
100
AcDbEntity
  8
10
  6
Continuous
100
AcDbLine
 10
11.5
 20
-82.5
 30
0.0
 11
23.5
 21
-82.5
 31
0.0
  0
LINE
  5
708F
330
1E
100
AcDbEntity
  8
10
  6
Continuous
100
AcDbLine
 10
48.5
 20
-109.0
 30
0.0
 11
48.5
 21
-94.0
 31
0.0
  0
LINE
  5
7090
330
1E
100
AcDbEntity
  8
10
  6
Continuous
100
AcDbLine
 10
60.0
 20
-113.0
 30
0.0
 11
60.0
 21
-90.0
 31
0.0
  0
CIRCLE
  5
7091
330
1E
100
AcDbEntity
  8
24
  6
CONTINOUS
100
AcDbCircle
 10
-48.5
 20
-101.5
 30
0.0
 40
5.5
210
0.0
220
0.0
230
-1.0
  0
LINE
  5
7092
330
1E
100
AcDbEntity
  8
24
  6
CONTINOUS
100
AcDbLine
 10
41.0
 20
-101.5
 30
0.0
 11
55.99999999999997
 21
-101.5
 31
0.0
  0
LINE
  5
7093
330
1E
100
AcDbEntity
  8
10
  6
Continuous
100
AcDbLine
 10
60.0
 20
-90.0
 30
0.0
 11
46.5
 21
-90.0
 31
0.0
  0
LINE
  5
7094
330
1E
100
AcDbEntity
  8
10
  6
Continuous
100
AcDbLine
 10
46.49999999999994
 20
-82.5
 30
0.0
 11
52.5
 21
-82.5
 31
0.0
  0
LINE
  5
7095
330
1E
100
AcDbEntity
  8
24
  6
CONTINOUS
100
AcDbLine
 10
29.0
 20
-72.0
 30
0.0
 11
41.0
 21
-72.0
 31
0.0
  0
LINE
  5
7096
330
1E
100
AcDbEntity
  8
10
  6
Continuous
100
AcDbLine
 10
42.0
 20
-60.0
 30
0.0
 11
28.0
 21
-60.0
 31
0.0
  0
LINE
  5
7097
330
1E
100
AcDbEntity
  8
10
  6
Continuous
100
AcDbLine
 10
-11.0
 20
25.0
 30
0.0
 11
-11.0
 21
-25.0
 31
0.0
  0
LINE
  5
7098
330
1E
100
AcDbEntity
  8
10
  6
Continuous
100
AcDbLine
 10
11.0
 20
25.0
 30
0.0
 11
11.0
 21
-25.0
 31
0.0
  0
LINE
  5
7099
330
1E
100
AcDbEntity
  8
24
  6
CONTINOUS
100
AcDbLine
 10
-6.0
 20
-72.0
 30
0.0
 11
6.0
 21
-72.0
 31
0.0
  0
LINE
  5
709A
330
1E
100
AcDbEntity
  8
10
  6
Continuous
100
AcDbLine
 10
7.0
 20
-60.0
 30
0.0
 11
-7.0
 21
-60.0
 31
0.0
  0
ARC
  5
709B
330
1E
100
AcDbEntity
  8
10
  6
Continuous
100
AcDbCircle
 10
28.0
 20
-65.0
 30
0.0
 40
5.0
210
0.0
220
0.0
230
-1.0
100
AcDbArc
 50
90.0
 51
180.0
  0
LINE
  5
709C
330
1E
100
AcDbEntity
  8
24
  6
CONTINOUS
100
AcDbLine
 10
-41.0
 20
-72.0
 30
0.0
 11
-29.0
 21
-72.0
 31
0.0
  0
LINE
  5
709D
330
1E
100
AcDbEntity
  8
10
  6
Continuous
100
AcDbLine
 10
-28.0
 20
-60.0
 30
0.0
 11
-42.0
 21
-60.0
 31
0.0
  0
ARC
  5
709E
330
1E
100
AcDbEntity
  8
10
  6
Continuous
100
AcDbCircle
 10
7.0
 20
-65.0
 30
0.0
 40
5.0
210
0.0
220
0.0
230
-1.0
100
AcDbArc
 50
0.0
 51
90.0
  0
CIRCLE
  5
709F
330
1E
100
AcDbEntity
  8
12
  6
DASHED
100
AcDbCircle
 10
17.5
 20
-63.0
 30
0.0
 40
4.0
  0
LINE
  5
70A0
330
1E
100
AcDbEntity
  8
12
  6
DASHED
100
AcDbLine
 10
12.0
 20
-63.0
 30
0.0
 11
23.0
 21
-63.0
 31
0.0
  0
ARC
  5
70A1
330
1E
100
AcDbEntity
  8
10
  6
Continuous
100
AcDbCircle
 10
-7.0
 20
-65.0
 30
0.0
 40
5.0
210
0.0
220
0.0
230
-1.0
100
AcDbArc
 50
90.0
 51
180.0
  0
LINE
  5
70A2
330
1E
100
AcDbEntity
  8
12
  6
DASHED
100
AcDbLine
 10
17.5
 20
-57.5
 30
0.0
 11
17.5
 21
-68.5
 31
0.0
  0
ARC
  5
70A3
330
1E
100
AcDbEntity
  8
10
  6
Continuous
100
AcDbCircle
 10
-28.0
 20
-65.0
 30
0.0
 40
5.0
210
0.0
220
0.0
230
-1.0
100
AcDbArc
 50
0.0
 51
90.0
  0
LINE
  5
70A4
330
1E
100
AcDbEntity
  8
10
  6
Continuous
100
AcDbLine
 10
-7.0
 20
-18.5
 30
0.0
 11
7.0
 21
-18.5
 31
0.0
  0
LINE
  5
70A5
330
1E
100
AcDbEntity
  8
10
  6
Continuous
100
AcDbLine
 10
7.0
 20
6.840789306861521
 30
0.0
 11
-6.99999999999909
 21
6.84078930686158
 31
0.0
  0
LINE
  5
70A6
330
1E
100
AcDbEntity
  8
10
  6
Continuous
100
AcDbLine
 10
7.0
 20
20.15486870581028
 30
0.0
 11
-7.000000000000909
 21
20.15486870581022
 31
0.0
  0
LINE
  5
70A7
330
1E
100
AcDbEntity
  8
10
  6
Continuous
100
AcDbLine
 10
7.0
 20
15.23995644007664
 30
0.0
 11
-7.0
 21
15.23995644007664
 31
0.0
  0
LINE
  5
70A8
330
1E
100
AcDbEntity
  8
10
  6
Continuous
100
AcDbLine
 10
-7.0
 20
-18.5
 30
0.0
 11
-6.999999999999971
 21
20.15486870581022
 31
0.0
  0
LINE
  5
70A9
330
1E
100
AcDbEntity
  8
10
  6
Continuous
100
AcDbLine
 10
7.0
 20
-18.5
 30
0.0
 11
7.000000000000027
 21
20.15486870581028
 31
0.0
  0
LINE
  5
70AA
330
1E
100
AcDbEntity
  8
10
  6
Continuous
100
AcDbLine
 10
49.0
 20
25.0
 30
0.0
 11
49.0
 21
-25.0
 31
0.0
  0
ARC
  5
70AB
330
1E
100
AcDbEntity
  8
10
  6
Continuous
100
AcDbCircle
 10
-42.0
 20
-65.0
 30
0.0
 40
5.0
210
0.0
220
0.0
230
-1.0
100
AcDbArc
 50
90.0
 51
180.0
  0
ARC
  5
70AC
330
1E
100
AcDbEntity
  8
10
  6
Continuous
100
AcDbCircle
 10
-42.0
 20
65.0
 30
0.0
 40
5.0
100
AcDbArc
 50
180.0
 51
270.0
  0
LINE
  5
70AD
330
1E
100
AcDbEntity
  8
24
  6
CONTINOUS
100
AcDbLine
 10
-56.00000000000003
 20
101.5
 30
0.0
 11
-41.0
 21
101.5
 31
0.0
  0
LINE
  5
70AE
330
1E
100
AcDbEntity
  8
10
  6
Continuous
100
AcDbLine
 10
-60.00000000000003
 20
113.0
 30
0.0
 11
-37.0
 21
113.0
 31
0.0
  0
LINE
  5
70AF
330
1E
100
AcDbEntity
  8
10
  6
Continuous
100
AcDbLine
 10
-52.50000000000003
 20
51.0
 30
0.0
 11
52.5
 21
51.0
 31
0.0
  0
CIRCLE
  5
70B0
330
1E
100
AcDbEntity
  8
24
  6
CONTINOUS
100
AcDbCircle
 10
48.50000000000003
 20
101.5
 30
0.0
 40
5.5
210
0.0
220
0.0
230
-1.0
  0
LINE
  5
70B1
330
1E
100
AcDbEntity
  8
10
  6
Continuous
100
AcDbLine
 10
-46.5
 20
89.99999999999994
 30
0.0
 11
-46.5
 21
62.82055052822967
 31
0.0
  0
LINE
  5
70B2
330
1E
100
AcDbEntity
  8
10
  6
Continuous
100
AcDbLine
 10
-47.0
 20
82.5
 30
0.0
 11
-47.0
 21
65.0
 31
0.0
  0
LINE
  5
70B3
330
1E
100
AcDbEntity
  8
24
  6
CONTINOUS
100
AcDbLine
 10
-48.50000000000003
 20
109.0
 30
0.0
 11
-48.50000000000003
 21
94.0
 31
0.0
  0
LINE
  5
70B4
330
1E
100
AcDbEntity
  8
10
  6
Continuous
100
AcDbLine
 10
-60.00000000000003
 20
113.0
 30
0.0
 11
-60.00000000000003
 21
90.0
 31
0.0
  0
LINE
  5
70B5
330
1E
100
AcDbEntity
  8
10
  6
Continuous
100
AcDbLine
 10
-60.00000000000003
 20
90.0
 30
0.0
 11
-46.5
 21
90.0
 31
0.0
  0
LINE
  5
70B6
330
1E
100
AcDbEntity
  8
10
  6
Continuous
100
AcDbLine
 10
-46.5
 20
82.5
 30
0.0
 11
-52.50000000000003
 21
82.5
 31
0.0
  0
LINE
  5
70BB
330
1E
100
AcDbEntity
  8
24
  6
CONTINOUS
100
AcDbLine
 10
29.0
 20
72.0
 30
0.0
 11
41.0
 21
72.0
 31
0.0
  0
LINE
  5
70BC
330
1E
100
AcDbEntity
  8
10
  6
Continuous
100
AcDbLine
 10
60.0
 20
113.0
 30
0.0
 11
37.0
 21
113.0
 31
0.0
  0
LINE
  5
70BD
330
1E
100
AcDbEntity
  8
10
  6
Continuous
100
AcDbLine
 10
42.0
 20
60.0
 30
0.0
 11
28.0
 21
60.0
 31
0.0
  0
LINE
  5
70BE
330
1E
100
AcDbEntity
  8
10
  6
Continuous
100
AcDbLine
 10
-23.5
 20
83.49999999999999
 30
0.0
 11
-23.5
 21
62.82055052822967
 31
0.0
  0
LINE
  5
70BF
330
1E
100
AcDbEntity
  8
10
  6
Continuous
100
AcDbLine
 10
11.5
 20
113.0
 30
0.0
 11
11.5
 21
62.82055052822967
 31
0.0
  0
LINE
  5
70C0
330
1E
100
AcDbEntity
  8
10
  6
Continuous
100
AcDbLine
 10
-11.5
 20
113.0
 30
0.0
 11
-11.5
 21
62.82055052822967
 31
0.0
  0
LINE
  5
70C1
330
1E
100
AcDbEntity
  8
10
  6
Continuous
100
AcDbLine
 10
23.5
 20
83.49999999999999
 30
0.0
 11
23.5
 21
62.82055052822967
 31
0.0
  0
LINE
  5
70C2
330
1E
100
AcDbEntity
  8
10
  6
Continuous
100
AcDbLine
 10
-23.0
 20
82.5
 30
0.0
 11
-23.0
 21
65.0
 31
0.0
  0
LINE
  5
70C3
330
1E
100
AcDbEntity
  8
10
  6
Continuous
100
AcDbLine
 10
12.0
 20
82.5
 30
0.0
 11
12.0
 21
65.0
 31
0.0
  0
LINE
  5
70C4
330
1E
100
AcDbEntity
  8
10
  6
Continuous
100
AcDbLine
 10
-12.0
 20
82.5
 30
0.0
 11
-12.0
 21
65.0
 31
0.0
  0
LINE
  5
70C5
330
1E
100
AcDbEntity
  8
10
  6
Continuous
100
AcDbLine
 10
23.0
 20
82.5
 30
0.0
 11
23.0
 21
65.0
 31
0.0
  0
LINE
  5
70C6
330
1E
100
AcDbEntity
  8
24
  6
CONTINOUS
100
AcDbLine
 10
-6.0
 20
72.0
 30
0.0
 11
6.0
 21
72.0
 31
0.0
  0
LINE
  5
70C7
330
1E
100
AcDbEntity
  8
10
  6
Continuous
100
AcDbLine
 10
7.0
 20
60.0
 30
0.0
 11
-7.0
 21
60.0
 31
0.0
  0
CIRCLE
  5
70C8
330
1E
100
AcDbEntity
  8
24
  6
CONTINOUS
100
AcDbCircle
 10
0.0
 20
72.0
 30
0.0
 40
4.25
  0
ARC
  5
70C9
330
1E
100
AcDbEntity
  8
10
  6
Continuous
100
AcDbCircle
 10
-28.0
 20
65.0
 30
0.0
 40
5.0
100
AcDbArc
 50
270.0
 51
0.0
  0
LINE
  5
70CA
330
1E
100
AcDbEntity
  8
24
  6
CONTINOUS
100
AcDbLine
 10
-35.0
 20
78.0
 30
0.0
 11
-35.0
 21
66.0
 31
0.0
  0
LINE
  5
70CB
330
1E
100
AcDbEntity
  8
10
  6
Continuous
100
AcDbLine
 10
-28.0
 20
60.0
 30
0.0
 11
-42.0
 21
60.0
 31
0.0
  0
LINE
  5
70CC
330
1E
100
AcDbEntity
  8
24
  6
CONTINOUS
100
AcDbLine
 10
-41.0
 20
72.0
 30
0.0
 11
-29.0
 21
72.0
 31
0.0
  0
CIRCLE
  5
70CD
330
1E
100
AcDbEntity
  8
24
  6
CONTINOUS
100
AcDbCircle
 10
35.0
 20
72.0
 30
0.0
 40
4.25
210
0.0
220
0.0
230
-1.0
  0
LINE
  5
70CE
330
1E
100
AcDbEntity
  8
12
  6
DASHED
100
AcDbLine
 10
-17.5
 20
68.5
 30
0.0
 11
-17.5
 21
57.5
 31
0.0
  0
CIRCLE
  5
70CF
330
1E
100
AcDbEntity
  8
12
  6
DASHED
100
AcDbCircle
 10
-17.5
 20
63.0
 30
0.0
 40
4.0
  0
LINE
  5
70D0
330
1E
100
AcDbEntity
  8
10
  6
Continuous
100
AcDbLine
 10
-23.0
 20
63.0
 30
0.0
 11
-12.0
 21
63.0
 31
0.0
  0
ARC
  5
70D1
330
1E
100
AcDbEntity
  8
10
  6
Continuous
100
AcDbCircle
 10
-7.0
 20
65.0
 30
0.0
 40
5.0
100
AcDbArc
 50
180.0
 51
270.0
  0
LINE
  5
70D2
330
1E
100
AcDbEntity
  8
24
  6
CONTINOUS
100
AcDbLine
 10
0.0
 20
78.0
 30
0.0
 11
0.0
 21
66.0
 31
0.0
  0
ARC
  5
70D3
330
1E
100
AcDbEntity
  8
10
  6
Continuous
100
AcDbCircle
 10
7.0
 20
65.0
 30
0.0
 40
5.0
100
AcDbArc
 50
270.0
 51
0.0
  0
LINE
  5
70D4
330
1E
100
AcDbEntity
  8
24
  6
CONTINOUS
100
AcDbLine
 10
35.0
 20
78.0
 30
0.0
 11
35.0
 21
66.0
 31
0.0
  0
ARC
  5
70D5
330
1E
100
AcDbEntity
  8
10
  6
Continuous
100
AcDbCircle
 10
28.0
 20
65.0
 30
0.0
 40
5.0
100
AcDbArc
 50
180.0
 51
270.0
  0
CIRCLE
  5
70D6
330
1E
100
AcDbEntity
  8
24
  6
CONTINOUS
100
AcDbCircle
 10
35.0
 20
72.0
 30
0.0
 40
4.25
  0
LINE
  5
70D7
330
1E
100
AcDbEntity
  8
24
  6
CONTINOUS
100
AcDbLine
 10
-7.5
 20
101.5
 30
0.0
 11
7.5
 21
101.5
 31
0.0
  0
LINE
  5
70D8
330
1E
100
AcDbEntity
  8
10
  6
Continuous
100
AcDbLine
 10
-11.5
 20
113.0
 30
0.0
 11
11.5
 21
113.0
 31
0.0
  0
CIRCLE
  5
70D9
330
1E
100
AcDbEntity
  8
24
  6
CONTINOUS
100
AcDbCircle
 10
0.0
 20
101.5
 30
0.0
 40
5.5
  0
LINE
  5
70DA
330
1E
100
AcDbEntity
  8
10
  6
Continuous
100
AcDbLine
 10
-37.0
 20
113.0
 30
0.0
 11
-23.5
 21
83.49999999999999
 31
0.0
  0
LINE
  5
70DB
330
1E
100
AcDbEntity
  8
10
  6
Continuous
100
AcDbLine
 10
-11.5
 20
82.5
 30
0.0
 11
-23.04237288135595
 21
82.5
 31
0.0
  0
LINE
  5
70DC
330
1E
100
AcDbEntity
  8
10
  6
Continuous
100
AcDbLine
 10
37.0
 20
113.0
 30
0.0
 11
23.5
 21
83.49999999999999
 31
0.0
  0
LINE
  5
70DD
330
1E
100
AcDbEntity
  8
10
  6
Continuous
100
AcDbLine
 10
23.5
 20
82.5
 30
0.0
 11
11.5
 21
82.5
 31
0.0
  0
LINE
  5
70DE
330
1E
100
AcDbEntity
  8
10
  6
Continuous
100
AcDbLine
 10
46.5
 20
89.99999999999994
 30
0.0
 11
46.5
 21
62.82055052822967
 31
0.0
  0
LINE
  5
70DF
330
1E
100
AcDbEntity
  8
10
  6
Continuous
100
AcDbLine
 10
47.0
 20
82.5
 30
0.0
 11
47.0
 21
65.0
 31
0.0
  0
ARC
  5
70E0
330
1E
100
AcDbEntity
  8
10
  6
Continuous
100
AcDbCircle
 10
42.0
 20
65.0
 30
0.0
 40
5.0
100
AcDbArc
 50
270.0
 51
0.0
  0
LINE
  5
70E1
330
1E
100
AcDbEntity
  8
24
  6
CONTINOUS
100
AcDbLine
 10
48.5
 20
109.0
 30
0.0
 11
48.5
 21
94.0
 31
0.0
  0
LINE
  5
70E2
330
1E
100
AcDbEntity
  8
10
  6
Continuous
100
AcDbLine
 10
60.0
 20
113.0
 30
0.0
 11
60.0
 21
90.0
 31
0.0
  0
CIRCLE
  5
70E3
330
1E
100
AcDbEntity
  8
24
  6
CONTINOUS
100
AcDbCircle
 10
48.5
 20
101.5
 30
0.0
 40
5.5
  0
LINE
  5
70E4
330
1E
100
AcDbEntity
  8
10
  6
Continuous
100
AcDbLine
 10
60.0
 20
90.0
 30
0.0
 11
46.5
 21
90.0
 31
0.0
  0
LINE
  5
70E5
330
1E
100
AcDbEntity
  8
10
  6
Continuous
100
AcDbLine
 10
52.5
 20
82.5
 30
0.0
 11
46.5
 21
82.5
 31
0.0
  0
LINE
  5
70E6
330
1E
100
AcDbEntity
  8
24
  6
CONTINOUS
100
AcDbLine
 10
41.0
 20
101.5
 30
0.0
 11
55.99999999999997
 21
101.5
 31
0.0
  0
LINE
  5
7121
330
1E
100
AcDbEntity
  8
18
  6
DIVIDE
100
AcDbLine
 10
52.1199054648288
 20
-332.5
 30
0.0
 11
52.1199054648288
 21
-167.5
 31
0.0
  0
DIMENSION
  5
7134
330
1E
100
AcDbEntity
  8
30
  6
Continuous
100
AcDbDimension
  2
*D22
 10
17.11990546482881
 20
-343.6940094967603
 30
0.0
 11
-0.380094535171194
 21
-340.6940094967603
 31
0.0
 70
    32
 71
     5
 42
-1.0
  3
STANDARD
100
AcDbAlignedDimension
 13
-17.88009453517117
 23
-192.5
 33
0.0
 14
17.11990546482881
 24
-318.5
 34
0.0
100
AcDbRotatedDimension
1001
ACAD
1000
DSTYLE
1002
{
1070
    79
1070
     3
1002
}
  0
LINE
  5
7142
330
1E
100
AcDbEntity
  8
18
  6
DIVIDE
100
AcDbLine
 10
262.1199054648286
 20
-332.5
 30
0.0
 11
262.1199054648286
 21
-167.5
 31
0.0
  0
DIMENSION
  5
721B
330
1E
100
AcDbEntity
  8
30
  6
Continuous
100
AcDbDimension
  2
*D23
 10
11.0
 20
-36.93596143916396
 30
0.0
 11
0.0000000000000002
 21
-33.93596143916397
 31
0.0
 70
    32
 71
     5
 42
-1.0
  3
STANDARD
100
AcDbAlignedDimension
 13
-11.0
 23
-25.0
 33
0.0
 14
11.0
 24
-25.0
 34
0.0
100
AcDbRotatedDimension
1001
ACAD
1000
DSTYLE
1002
{
1070
    79
1070
     3
1002
}
  0
DIMENSION
  5
7228
330
1E
100
AcDbEntity
  8
30
  6
Continuous
100
AcDbDimension
  2
*D24
 10
49.0
 20
35.90138211865564
 30
0.0
 11
-0.000000000000014
 21
38.90138211865565
 31
0.0
 70
    32
 71
     5
 42
-1.0
  3
STANDARD
100
AcDbAlignedDimension
 13
-49.00000000000003
 23
25.0
 33
0.0
 14
49.0
 24
25.0
 34
0.0
100
AcDbRotatedDimension
1001
ACAD
1000
DSTYLE
1002
{
1070
    79
1070
     3
1002
}
  0
DIMENSION
  5
7235
330
1E
100
AcDbEntity
  8
30
  6
Continuous
100
AcDbDimension
  2
*D25
 10
-0.0000000000000011
 20
-124.5376297822262
 30
0.0
 11
-24.25000000000001
 21
-121.5376297822261
 31
0.0
 70
    32
 71
     5
 42
-1.0
  3
STANDARD
100
AcDbAlignedDimension
 13
-48.50000000000003
 23
-109.0
 33
0.0
 14
0.0
 24
-107.0
 34
0.0
100
AcDbRotatedDimension
1001
ACAD
1000
DSTYLE
1002
{
1070
    79
1070
     3
1002
}
  0
DIMENSION
  5
7242
330
1E
100
AcDbEntity
  8
30
  6
Continuous
100
AcDbDimension
  2
*D26
 10
48.5
 20
-125.0376297822263
 30
0.0
 11
24.25
 21
-122.0376297822262
 31
0.0
 70
    32
 71
     5
 42
-1.0
  3
STANDARD
100
AcDbAlignedDimension
 13
0.0
 23
-113.0
 33
0.0
 14
48.5
 24
-107.0
 34
0.0
100
AcDbRotatedDimension
1001
ACAD
1000
DSTYLE
1002
{
1070
    79
1070
     3
1002
}
  0
DIMENSION
  5
724F
330
1E
100
AcDbEntity
  8
30
  6
Continuous
100
AcDbDimension
  2
*D27
 10
52.5
 20
-132.0216144129897
 30
0.0
 11
0.2634083267403184
 21
-132.0216144129897
 31
0.0
 70
   160
 71
     5
 42
-1.0
  3
STANDARD
100
AcDbAlignedDimension
 13
-52.50000000000003
 23
-82.5
 33
0.0
 14
52.5
 24
-82.5
 34
0.0
100
AcDbRotatedDimension
1001
ACAD
1000
DSTYLE
1002
{
1070
    79
1070
     3
1002
}
  0
DIMENSION
  5
728F
330
1E
100
AcDbEntity
  8
30
  6
Continuous
100
AcDbDimension
  2
*D28
 10
60.0
 20
-141.6548064381347
 30
0.0
 11
-0.0000000000000211
 21
-138.6548064381347
 31
0.0
 70
    32
 71
     5
 42
-1.0
  3
STANDARD
100
AcDbAlignedDimension
 13
-60.00000000000003
 23
-113.0
 33
0.0
 14
60.0
 24
-113.0
 34
0.0
100
AcDbRotatedDimension
1001
ACAD
1000
DSTYLE
1002
{
1070
    79
1070
     3
1002
}
  0
MTEXT
  5
730D
330
1E
100
AcDbEntity
  8
30
  6
Continuous
100
AcDbMText
 10
151.2637208452179
 20
282.5142472194734
 30
0.0
 40
5.0
 41
204.0585
 71
     1
 72
     5
  1
H100-NF 3P FC + BAR\PL100-NF 3P FC + BAR\PH125-NF 3P FC + BAR\PL125-NF 3P FC + BAR\PH225-NF 3P FC + BAR\PL225-NF 3P FC + BAR\PH250-NF 3P FC + BAR\PL250-NF 3P FC + BAR\PS225-GE 3P FC + BAR\PS225-PE 3P FC + BAR\PH225-NE 3P FC + BAR
  7
STANDARD1
 73
     1
 44
1.0
1001
ACAD
1000
MTEXTBEGIN
1070
    73
1070
     1
1070
    44
1040
1.0
1070
    74
1070
     0
1000
MTEXTEND
  0
LINE
  5
737A
330
1E
100
AcDbEntity
  8
10
  6
CONTINOUS
100
AcDbLine
 10
-11.01790353517128
 20
215.8933368984127
 30
0.0
 11
10.99999999999997
 21
215.8933368984127
 31
0.0
  0
LINE
  5
737C
330
1E
100
AcDbEntity
  8
10
  6
CONTINOUS
100
AcDbLine
 10
10.99999999999997
 20
215.816569282312
 30
0.0
 11
10.99999999999998
 21
219.816569282312
 31
0.0
  0
LINE
  5
737D
330
1E
100
AcDbEntity
  8
10
  6
CONTINOUS
100
AcDbLine
 10
-52.49999999999997
 20
230.8165692823123
 30
0.0
 11
-52.49999999999997
 21
223.8165692823123
 31
0.0
  0
LINE
  5
737E
330
1E
100
AcDbEntity
  8
30
  6
Continuous
100
AcDbLine
 10
-52.49999999999997
 20
223.8165692823123
 30
0.0
 11
-52.49999999999997
 21
223.8165692823121
 31
0.0
  0
LINE
  5
737F
330
1E
100
AcDbEntity
  8
10
  6
CONTINOUS
100
AcDbLine
 10
-52.49999999999997
 20
223.8165692823121
 30
0.0
 11
52.50000000000003
 21
223.8165692823121
 31
0.0
  0
LINE
  5
7380
330
1E
100
AcDbEntity
  8
10
  6
CONTINOUS
100
AcDbLine
 10
52.50000000000003
 20
223.8165692823121
 30
0.0
 11
52.50000000000003
 21
230.8165692823121
 31
0.0
  0
LINE
  5
7381
330
1E
100
AcDbEntity
  8
10
  6
CONTINOUS
100
AcDbLine
 10
-49.00000000000003
 20
223.8165692823121
 30
0.0
 11
-49.00000000000003
 21
219.8165692823121
 31
0.0
  0
LINE
  5
7382
330
1E
100
AcDbEntity
  8
10
  6
CONTINOUS
100
AcDbLine
 10
-49.00000000000003
 20
219.8165692823121
 30
0.0
 11
48.99999999999997
 21
219.8165692823121
 31
0.0
  0
LINE
  5
7383
330
1E
100
AcDbEntity
  8
10
  6
CONTINOUS
100
AcDbLine
 10
48.99999999999997
 20
219.8165692823121
 30
0.0
 11
48.99999999999997
 21
223.8165692823121
 31
0.0
  0
LWPOLYLINE
  5
7384
330
1E
100
AcDbEntity
  8
10
  6
CONTINOUS
100
AcDbPolyline
 90
        2
 70
     1
 43
0.0
 10
-11.01790353517128
 20
215.816569282312
 10
-11.01790353517128
 20
219.816569282312
  0
LWPOLYLINE
  5
7385
330
1E
100
AcDbEntity
  8
10
  6
CONTINOUS
100
AcDbPolyline
 90
        4
 70
     0
 43
0.0
 10
7.0
 20
215.816569282312
 10
7.0
 20
203.8213154827163
 10
-7.0
 20
203.8213154827163
 10
-7.0
 20
215.816569282312
  0
DIMENSION
  5
7386
330
1E
100
AcDbEntity
  8
30
  6
Continuous
100
AcDbDimension
  2
*D30
 10
67.41795146512868
 20
230.816569282312
 30
0.0
 11
64.41795146512864
 21
278.8165692823121
 31
0.0
 70
    32
 71
     5
 42
96.00000000000003
  3
STANDARD
100
AcDbAlignedDimension
 13
52.5
 23
326.8165692823121
 33
0.0
 14
52.50000000000003
 24
230.8165692823121
 34
0.0
 50
90.0
100
AcDbRotatedDimension
1001
ACAD
1000
DSTYLE
1002
{
1070
    79
1070
     3
1002
}
  0
DIMENSION
  5
7393
330
1E
100
AcDbEntity
  8
30
  6
Continuous
100
AcDbDimension
  2
*D31
 10
81.56776698785868
 20
223.8165692823121
 30
0.0
 11
78.56776698785866
 21
275.3165692823121
 31
0.0
 70
    32
 71
     5
 42
103.0
  3
STANDARD
100
AcDbAlignedDimension
 13
52.5
 23
326.8165692823121
 33
0.0
 14
52.50000000000003
 24
223.8165692823121
 34
0.0
 50
90.0
100
AcDbRotatedDimension
1001
ACAD
1000
DSTYLE
1002
{
1070
    79
1070
     3
1002
}
  0
DIMENSION
  5
73A0
330
1E
100
AcDbEntity
  8
30
  6
Continuous
100
AcDbDimension
  2
*D32
 10
94.3482443548064
 20
219.8165692823121
 30
0.0
 11
91.34824435480638
 21
273.3165692823121
 31
0.0
 70
    32
 71
     5
 42
107.0
  3
STANDARD
100
AcDbAlignedDimension
 13
52.5
 23
326.8165692823121
 33
0.0
 14
48.99999999999997
 24
219.8165692823121
 34
0.0
 50
90.0
100
AcDbRotatedDimension
1001
ACAD
1000
DSTYLE
1002
{
1070
    79
1070
     3
1002
}
  0
VIEWPORT
  5
9AC
102
{ACAD_XDICTIONARY
360
73CF
102
}
330
1A
100
AcDbEntity
 67
     1
  8
0
  6
Continuous
100
AcDbViewport
 10
171.999535
 20
144.1384739999999
 30
0.0
 40
488.867686
 41
292.351491
 68
    -1
 69
     1
 12
171.999535
 22
144.1384739999999
 13
0.0
 23
0.0
 14
10.0
 24
10.0
 15
10.0
 25
10.0
 16
0.0
 26
0.0
 36
1.0
 17
0.0
 27
0.0
 37
0.0
 42
50.0
 43
0.0
 44
0.0
 45
292.351491
 50
0.0
 51
0.0
 72
   100
 90
    32800
  1

281
     0
 71
     1
 74
     0
110
0.0
120
0.0
130
0.0
111
1.0
121
0.0
131
0.0
112
0.0
122
1.0
132
0.0
 79
     0
146
0.0
  0
ENDSEC
  0
SECTION
  2
OBJECTS
  0
DICTIONARY
  5
C
330
0
100
AcDbDictionary
281
     1
  3
ACAD_CIP_PREVIOUS_PRODUCT_INFO
350
7365
  3
ACAD_COLOR
350
7348
  3
ACAD_DETAILVIEWSTYLE
350
7361
  3
ACAD_GROUP
350
D
  3
ACAD_LAYOUT
350
19
  3
ACAD_MATERIAL
350
7316
  3
ACAD_MLEADERSTYLE
350
735D
  3
ACAD_MLINESTYLE
350
16
  3
ACAD_PLOTSETTINGS
350
18
  3
ACAD_PLOTSTYLENAME
350
E
  3
ACAD_SCALELIST
350
734B
  3
ACAD_SECTIONVIEWSTYLE
350
735F
  3
ACAD_TABLESTYLE
350
7349
  3
ACAD_VISUALSTYLE
350
732F
  3
ACADDIM
350
5C76
  3
ACDB_RECOMPOSE_DATA
350
73CD
  3
ACDBVARIABLEDICTIONARY
350
5697
  3
DWGPROPS
350
73CE
  0
DICTIONARY
  5
73AD
330
10
100
AcDbDictionary
280
     1
281
     1
  3
ADSK_XREC_LAYER_RECONCILED
360
73AE
  0
DICTIONARY
  5
73AF
330
2F
100
AcDbDictionary
280
     1
281
     1
  3
ADSK_XREC_LAYER_RECONCILED
360
73B0
  0
DICTIONARY
  5
73B1
330
31
100
AcDbDictionary
280
     1
281
     1
  3
ADSK_XREC_LAYER_RECONCILED
360
73B2
  0
DICTIONARY
  5
73B3
330
35
100
AcDbDictionary
280
     1
281
     1
  3
ADSK_XREC_LAYER_RECONCILED
360
73B4
  0
DICTIONARY
  5
73B5
330
38
100
AcDbDictionary
280
     1
281
     1
  3
ADSK_XREC_LAYER_RECONCILED
360
73B6
  0
DICTIONARY
  5
73B7
330
3C
100
AcDbDictionary
280
     1
281
     1
  3
ADSK_XREC_LAYER_RECONCILED
360
73B8
  0
DICTIONARY
  5
73B9
330
3D
100
AcDbDictionary
280
     1
281
     1
  3
ADSK_XREC_LAYER_RECONCILED
360
73BA
  0
DICTIONARY
  5
73BB
330
3A2
100
AcDbDictionary
280
     1
281
     1
  3
ADSK_XREC_LAYER_RECONCILED
360
73BC
  0
DICTIONARY
  5
73BD
330
3BBA
100
AcDbDictionary
280
     1
281
     1
  3
ADSK_XREC_LAYER_RECONCILED
360
73BE
  0
DICTIONARY
  5
73BF
330
5117
100
AcDbDictionary
280
     1
281
     1
  3
ADSK_XREC_LAYER_RECONCILED
360
73C0
  0
DICTIONARY
  5
73C1
330
5C47
100
AcDbDictionary
280
     1
281
     1
  3
ADSK_XREC_LAYER_RECONCILED
360
73C2
  0
DICTIONARY
  5
178
330
1E
100
AcDbDictionary
280
     1
281
     1
  3
ACAD_LAYOUTSELFREF
360
72F9
  0
DICTIONARY
  5
17A
330
1A
100
AcDbDictionary
280
     1
281
     1
  3
ACAD_LAYOUTSELFREF
360
72F8
  0
DICTIONARY
  5
73CF
330
9AC
100
AcDbDictionary
280
     1
281
     1
  3
ACAD_XREC_ROUNDTRIP
360
73D0
  0
XRECORD
  5
7365
102
{ACAD_REACTORS
330
C
102
}
330
C
100
AcDbXrecord
280
     1
300
ACDLT
300
2015
300
ACDLT_F_S
  0
DICTIONARY
  5
7348
102
{ACAD_REACTORS
330
C
102
}
330
C
100
AcDbDictionary
281
     1
  0
DICTIONARY
  5
7361
102
{ACAD_REACTORS
330
C
102
}
330
C
100
AcDbDictionary
281
     1
  3
Imperial24
350
7362
  0
DICTIONARY
  5
D
102
{ACAD_REACTORS
330
C
102
}
330
C
100
AcDbDictionary
281
     1
  0
DICTIONARY
  5
19
102
{ACAD_REACTORS
330
C
102
}
330
C
100
AcDbDictionary
281
     1
  3
Model
350
7309
  3
ﾚｲｱｳﾄ1
350
730A
  0
DICTIONARY
  5
7316
102
{ACAD_REACTORS
330
C
102
}
330
C
100
AcDbDictionary
281
     1
  3
ByBlock
350
731F
  3
ByLayer
350
7317
  3
Global
350
7327
  0
DICTIONARY
  5
735D
102
{ACAD_REACTORS
330
C
102
}
330
C
100
AcDbDictionary
281
     1
  3
Standard
350
735E
  0
DICTIONARY
  5
16
102
{ACAD_REACTORS
330
C
102
}
330
C
100
AcDbDictionary
281
     1
  3
STANDARD
350
17
  0
DICTIONARY
  5
18
102
{ACAD_REACTORS
330
C
102
}
330
C
100
AcDbDictionary
281
     1
  0
ACDBDICTIONARYWDFLT
  5
E
102
{ACAD_REACTORS
330
C
102
}
330
C
100
AcDbDictionary
281
     1
  3
Normal
350
F
100
AcDbDictionaryWithDefault
340
F
  0
DICTIONARY
  5
734B
102
{ACAD_REACTORS
330
C
102
}
330
C
100
AcDbDictionary
281
     1
  3
A0
350
734C
  3
A1
350
734D
  3
A2
350
734E
  3
A3
350
734F
  3
A4
350
7350
  3
A5
350
7351
  3
A6
350
7352
  3
A7
350
7353
  3
A8
350
7354
  3
A9
350
7355
  3
B0
350
7356
  3
B1
350
7357
  3
B2
350
7358
  3
B3
350
7359
  3
B4
350
735A
  3
B5
350
735B
  3
B6
350
735C
  0
DICTIONARY
  5
735F
102
{ACAD_REACTORS
330
C
102
}
330
C
100
AcDbDictionary
281
     1
  3
Imperial24
350
7360
  0
DICTIONARY
  5
7349
102
{ACAD_REACTORS
330
C
102
}
330
C
100
AcDbDictionary
281
     1
  3
Standard
350
734A
  0
DICTIONARY
  5
732F
102
{ACAD_REACTORS
330
C
102
}
330
C
100
AcDbDictionary
281
     1
  3
2dWireframe
350
7335
  3
Basic
350
7334
  3
Brighten
350
733B
  3
ColorChange
350
733F
  3
Conceptual
350
7338
  3
Dim
350
733A
  3
EdgeColorOff
350
7347
  3
Facepattern
350
733E
  3
Flat
350
7330
  3
FlatWithEdges
350
7331
  3
Gouraud
350
7332
  3
GouraudWithEdges
350
7333
  3
Hidden
350
7337
  3
JitterOff
350
7345
  3
Linepattern
350
733D
  3
OverhangOff
350
7346
  3
Realistic
350
7339
  3
Shaded
350
7344
  3
Shaded with edges
350
7343
  3
Shades of Gray
350
7340
  3
Sketchy
350
7341
  3
Thicken
350
733C
  3
Wireframe
350
7336
  3
X-Ray
350
7342
  0
XRECORD
  5
5C76
102
{ACAD_REACTORS
330
C
102
}
330
C
100
AcDbXrecord
280
     1
 90
   990106
  3

 60
     0
 61
     0
 62
     1
 63
     3
 64
     0
 65
     0
 66
     0
 67
     3
 68
     1
 69
     0
 70
     0
 71
     0
 72
     0
 40
0.0
170
     0
340
6068
  0
XRECORD
  5
73CD
102
{ACAD_REACTORS
330
C
102
}
330
C
100
AcDbXrecord
280
     1
 90
        1
330
734A
  0
DICTIONARY
  5
5697
102
{ACAD_REACTORS
330
C
102
}
330
C
100
AcDbDictionary
281
     1
  3
CANNOSCALE
350
73C7
  3
CMLEADERSTYLE
350
73C4
  3
CTABLESTYLE
350
73C3
  3
CVIEWDETAILSTYLE
350
73C5
  3
CVIEWSECTIONSTYLE
350
73C6
  3
DIMASSOC
350
5698
  3
INDEXCTL
350
73C9
  3
SORTENTS
350
73C8
  3
XCLIPFRAME
350
73CA
  0
XRECORD
  5
73CE
102
{ACAD_REACTORS
330
C
102
}
330
C
100
AcDbXrecord
280
     1
  1
DWGPROPS COOKIE
  2

  3

  4

  6

  7

  8
ktomoto
  9

300
=
301
=
302
=
303
=
304
=
305
=
306
=
307
=
308
=
309
=
 40
1.311572719907407
 41
2452286.555658658
 42
2457458.565388194
  1

 90
        0
  0
XRECORD
  5
73AE
102
{ACAD_REACTORS
330
73AD
102
}
330
73AD
100
AcDbXrecord
280
     1
290
     1
  0
XRECORD
  5
73B0
102
{ACAD_REACTORS
330
73AF
102
}
330
73AF
100
AcDbXrecord
280
     1
290
     1
  0
XRECORD
  5
73B2
102
{ACAD_REACTORS
330
73B1
102
}
330
73B1
100
AcDbXrecord
280
     1
290
     1
  0
XRECORD
  5
73B4
102
{ACAD_REACTORS
330
73B3
102
}
330
73B3
100
AcDbXrecord
280
     1
290
     1
  0
XRECORD
  5
73B6
102
{ACAD_REACTORS
330
73B5
102
}
330
73B5
100
AcDbXrecord
280
     1
290
     1
  0
XRECORD
  5
73B8
102
{ACAD_REACTORS
330
73B7
102
}
330
73B7
100
AcDbXrecord
280
     1
290
     1
  0
XRECORD
  5
73BA
102
{ACAD_REACTORS
330
73B9
102
}
330
73B9
100
AcDbXrecord
280
     1
290
     1
  0
XRECORD
  5
73BC
102
{ACAD_REACTORS
330
73BB
102
}
330
73BB
100
AcDbXrecord
280
     1
290
     1
  0
XRECORD
  5
73BE
102
{ACAD_REACTORS
330
73BD
102
}
330
73BD
100
AcDbXrecord
280
     1
290
     1
  0
XRECORD
  5
73C0
102
{ACAD_REACTORS
330
73BF
102
}
330
73BF
100
AcDbXrecord
280
     1
290
     1
  0
XRECORD
  5
73C2
102
{ACAD_REACTORS
330
73C1
102
}
330
73C1
100
AcDbXrecord
280
     1
290
     1
  0
XRECORD
  5
72F9
102
{ACAD_REACTORS
330
178
102
}
330
178
100
AcDbXrecord
280
     1
340
1E
  0
XRECORD
  5
72F8
102
{ACAD_REACTORS
330
17A
102
}
330
17A
100
AcDbXrecord
280
     1
340
1A
  0
XRECORD
  5
73D0
102
{ACAD_REACTORS
330
73CF
102
}
330
73CF
100
AcDbXrecord
280
     1
102
SHADEPLOT
 70
     0
  0
ACDBDETAILVIEWSTYLE
  5
7362
102
{ACAD_XDICTIONARY
360
740C
102
}
102
{ACAD_REACTORS
330
7361
102
}
330
7361
100
AcDbModelDocViewStyle
 70
     0
  3
Imperial24
290
     0
100
AcDbDetailViewStyle
 70
     0
 71
     0
 90
        3
 71
     1
340
11
 40
0.24
340
0
 40
0.24
300

 40
0.36
280
     3
 71
     2
340
15
 90
       25
 71
     3
340
11
 40
0.24
 90
        1
 40
0.75
 90
        1
300
%<\AcVar ViewType \f "%tc1">% %<\AcVar ViewDetailId>%\PSCALE %<\AcVar ViewScale \f "%sn">%
 71
     4
340
15
 90
       25
340
15
 90
       25
280
     0
  0
LAYOUT
  5
7309
102
{ACAD_XDICTIONARY
360
73D1
102
}
102
{ACAD_REACTORS
330
19
102
}
330
19
100
AcDbPlotSettings
  1

  2
Canon LBP3800 LIPSLX
  4

  6

 40
0.0
 41
0.0
 42
0.0
 43
0.0
 44
0.0
 45
0.0
 46
0.0
 47
0.0
 48
0.0
 49
0.0
140
0.0
141
0.0
142
1.0
143
1.0
 70
  1712
 72
     0
 73
     0
 74
     0
  7
monochrome.ctb
 75
     0
147
1.0
148
0.0
149
0.0
100
AcDbLayout
  1
Model
 70
     1
 71
     0
 10
0.0
 20
0.0
 11
12.0
 21
9.0
 12
0.0
 22
0.0
 32
0.0
 14
0.0
 24
0.0
 34
0.0
 15
0.0
 25
0.0
 35
0.0
146
0.0
 13
0.0
 23
0.0
 33
0.0
 16
1.0
 26
0.0
 36
0.0
 17
0.0
 27
1.0
 37
0.0
 76
     0
330
1E
331
730F
  0
LAYOUT
  5
730A
102
{ACAD_XDICTIONARY
360
73D3
102
}
102
{ACAD_REACTORS
330
19
102
}
330
19
100
AcDbPlotSettings
  1

  2
Canon LBP3800 LIPSLX
  4

  6

 40
0.0
 41
0.0
 42
0.0
 43
0.0
 44
0.0
 45
0.0
 46
0.0
 47
0.0
 48
0.0
 49
0.0
140
0.0
141
0.0
142
1.0
143
1.0
 70
   688
 72
     0
 73
     0
 74
     5
  7
monochrome.ctb
 75
    16
147
1.0
148
0.0
149
0.0
100
AcDbLayout
  1
ﾚｲｱｳﾄ1
 70
     1
 71
     1
 10
-5.873749
 20
-5.87375
 11
204.099579
 21
291.1369009999999
 12
0.0
 22
0.0
 32
0.0
 14
4.273573
 24
5.205245999999998
 34
0.0
 15
194.610095
 25
283.0697009999996
 35
0.0
146
0.0
 13
0.0
 23
0.0
 33
0.0
 16
1.0
 26
0.0
 36
0.0
 17
0.0
 27
1.0
 37
0.0
 76
     0
330
1A
  0
MATERIAL
  5
731F
102
{ACAD_XDICTIONARY
360
7320
102
}
102
{ACAD_REACTORS
330
7316
102
}
330
7316
100
AcDbMaterial
  1
ByBlock
 72
     0
 43
0.0208333333333333
 43
0.0
 43
0.0
 43
0.0
 43
0.0
 43
0.0208333333333333
 43
0.0
 43
0.0
 43
0.0
 43
0.0
 43
1.0
 43
0.0
 43
0.0
 43
0.0
 43
0.0
 43
1.0
 77
     0
 47
0.0208333333333333
 47
0.0
 47
0.0
 47
0.0
 47
0.0
 47
0.0208333333333333
 47
0.0
 47
0.0
 47
0.0
 47
0.0
 47
1.0
 47
0.0
 47
0.0
 47
0.0
 47
0.0
 47
1.0
171
     0
 49
0.0208333333333333
 49
0.0
 49
0.0
 49
0.0
 49
0.0
 49
0.0208333333333333
 49
0.0
 49
0.0
 49
0.0
 49
0.0
 49
1.0
 49
0.0
 49
0.0
 49
0.0
 49
0.0
 49
1.0
175
     0
142
0.0208333333333333
142
0.0
142
0.0
142
0.0
142
0.0
142
0.0208333333333333
142
0.0
142
0.0
142
0.0
142
0.0
142
1.0
142
0.0
142
0.0
142
0.0
142
0.0
142
1.0
179
     0
144
0.0208333333333333
144
0.0
144
0.0
144
0.0
144
0.0
144
0.0208333333333333
144
0.0
144
0.0
144
0.0
144
0.0
144
1.0
144
0.0
144
0.0
144
0.0
144
0.0
144
1.0
147
0.0208333333333333
147
0.0
147
0.0
147
0.0
147
0.0
147
0.0208333333333333
147
0.0
147
0.0
147
0.0
147
0.0
147
1.0
147
0.0
147
0.0
147
0.0
147
0.0
147
1.0
  0
MATERIAL
  5
7317
102
{ACAD_XDICTIONARY
360
7318
102
}
102
{ACAD_REACTORS
330
7316
102
}
330
7316
100
AcDbMaterial
  1
ByLayer
 72
     0
 43
0.0208333333333333
 43
0.0
 43
0.0
 43
0.0
 43
0.0
 43
0.0208333333333333
 43
0.0
 43
0.0
 43
0.0
 43
0.0
 43
1.0
 43
0.0
 43
0.0
 43
0.0
 43
0.0
 43
1.0
 77
     0
 47
0.0208333333333333
 47
0.0
 47
0.0
 47
0.0
 47
0.0
 47
0.0208333333333333
 47
0.0
 47
0.0
 47
0.0
 47
0.0
 47
1.0
 47
0.0
 47
0.0
 47
0.0
 47
0.0
 47
1.0
171
     0
 49
0.0208333333333333
 49
0.0
 49
0.0
 49
0.0
 49
0.0
 49
0.0208333333333333
 49
0.0
 49
0.0
 49
0.0
 49
0.0
 49
1.0
 49
0.0
 49
0.0
 49
0.0
 49
0.0
 49
1.0
175
     0
142
0.0208333333333333
142
0.0
142
0.0
142
0.0
142
0.0
142
0.0208333333333333
142
0.0
142
0.0
142
0.0
142
0.0
142
1.0
142
0.0
142
0.0
142
0.0
142
0.0
142
1.0
179
     0
144
0.0208333333333333
144
0.0
144
0.0
144
0.0
144
0.0
144
0.0208333333333333
144
0.0
144
0.0
144
0.0
144
0.0
144
1.0
144
0.0
144
0.0
144
0.0
144
0.0
144
1.0
147
0.0208333333333333
147
0.0
147
0.0
147
0.0
147
0.0
147
0.0208333333333333
147
0.0
147
0.0
147
0.0
147
0.0
147
1.0
147
0.0
147
0.0
147
0.0
147
0.0
147
1.0
  0
MATERIAL
  5
7327
102
{ACAD_XDICTIONARY
360
7328
102
}
102
{ACAD_REACTORS
330
7316
102
}
330
7316
100
AcDbMaterial
  1
Global
 72
     0
 43
0.0208333333333333
 43
0.0
 43
0.0
 43
0.0
 43
0.0
 43
0.0208333333333333
 43
0.0
 43
0.0
 43
0.0
 43
0.0
 43
1.0
 43
0.0
 43
0.0
 43
0.0
 43
0.0
 43
1.0
 77
     0
 47
0.0208333333333333
 47
0.0
 47
0.0
 47
0.0
 47
0.0
 47
0.0208333333333333
 47
0.0
 47
0.0
 47
0.0
 47
0.0
 47
1.0
 47
0.0
 47
0.0
 47
0.0
 47
0.0
 47
1.0
171
     0
 49
0.0208333333333333
 49
0.0
 49
0.0
 49
0.0
 49
0.0
 49
0.0208333333333333
 49
0.0
 49
0.0
 49
0.0
 49
0.0
 49
1.0
 49
0.0
 49
0.0
 49
0.0
 49
0.0
 49
1.0
175
     0
142
0.0208333333333333
142
0.0
142
0.0
142
0.0
142
0.0
142
0.0208333333333333
142
0.0
142
0.0
142
0.0
142
0.0
142
1.0
142
0.0
142
0.0
142
0.0
142
0.0
142
1.0
179
     0
144
0.0208333333333333
144
0.0
144
0.0
144
0.0
144
0.0
144
0.0208333333333333
144
0.0
144
0.0
144
0.0
144
0.0
144
1.0
144
0.0
144
0.0
144
0.0
144
0.0
144
1.0
147
0.0208333333333333
147
0.0
147
0.0
147
0.0
147
0.0
147
0.0208333333333333
147
0.0
147
0.0
147
0.0
147
0.0
147
1.0
147
0.0
147
0.0
147
0.0
147
0.0
147
1.0
  0
MLEADERSTYLE
  5
735E
102
{ACAD_REACTORS
330
735D
102
}
330
735D
100
AcDbMLeaderStyle
170
     2
171
     1
172
     0
 90
        2
 40
0.0
 41
0.0
173
     1
 91
-1056964608
340
13
 92
       -2
290
     1
 42
0.09
291
     1
 43
0.36
  3
Standard
 44
0.18
300

342
11
174
     1
178
     6
175
     1
176
     0
 93
-1056964608
 45
0.18
292
     0
297
     0
 46
0.18
 94
-1056964608
 47
1.0
 49
1.0
140
1.0
293
     1
141
0.0
294
     1
177
     0
142
1.0
295
     0
296
     0
143
0.125
1001
ACAD_MLEADERVER
1070
     2
  0
MLINESTYLE
  5
17
102
{ACAD_REACTORS
330
16
102
}
330
16
100
AcDbMlineStyle
  2
STANDARD
 70
     0
  3

 62
   256
 51
90.0
 52
90.0
 71
     2
 49
0.5
 62
   256
  6
BYLAYER
 49
-0.5
 62
   256
  6
BYLAYER
  0
ACDBPLACEHOLDER
  5
F
102
{ACAD_REACTORS
330
E
102
}
330
E
  0
SCALE
  5
734C
102
{ACAD_REACTORS
330
734B
102
}
330
734B
100
AcDbScale
 70
     0
300
1:1
140
1.0
141
1.0
290
     1
  0
SCALE
  5
734D
102
{ACAD_REACTORS
330
734B
102
}
330
734B
100
AcDbScale
 70
     0
300
1/128" = 1'-0"
140
0.0078125
141
12.0
290
     0
  0
SCALE
  5
734E
102
{ACAD_REACTORS
330
734B
102
}
330
734B
100
AcDbScale
 70
     0
300
1/64" = 1'-0"
140
0.015625
141
12.0
290
     0
  0
SCALE
  5
734F
102
{ACAD_REACTORS
330
734B
102
}
330
734B
100
AcDbScale
 70
     0
300
1/32" = 1'-0"
140
0.03125
141
12.0
290
     0
  0
SCALE
  5
7350
102
{ACAD_REACTORS
330
734B
102
}
330
734B
100
AcDbScale
 70
     0
300
1/16" = 1'-0"
140
0.0625
141
12.0
290
     0
  0
SCALE
  5
7351
102
{ACAD_REACTORS
330
734B
102
}
330
734B
100
AcDbScale
 70
     0
300
3/32" = 1'-0"
140
0.09375
141
12.0
290
     0
  0
SCALE
  5
7352
102
{ACAD_REACTORS
330
734B
102
}
330
734B
100
AcDbScale
 70
     0
300
1/8" = 1'-0"
140
0.125
141
12.0
290
     0
  0
SCALE
  5
7353
102
{ACAD_REACTORS
330
734B
102
}
330
734B
100
AcDbScale
 70
     0
300
3/16" = 1'-0"
140
0.1875
141
12.0
290
     0
  0
SCALE
  5
7354
102
{ACAD_REACTORS
330
734B
102
}
330
734B
100
AcDbScale
 70
     0
300
1/4" = 1'-0"
140
0.25
141
12.0
290
     0
  0
SCALE
  5
7355
102
{ACAD_REACTORS
330
734B
102
}
330
734B
100
AcDbScale
 70
     0
300
3/8" = 1'-0"
140
0.375
141
12.0
290
     0
  0
SCALE
  5
7356
102
{ACAD_REACTORS
330
734B
102
}
330
734B
100
AcDbScale
 70
     0
300
1/2" = 1'-0"
140
0.5
141
12.0
290
     0
  0
SCALE
  5
7357
102
{ACAD_REACTORS
330
734B
102
}
330
734B
100
AcDbScale
 70
     0
300
3/4" = 1'-0"
140
0.75
141
12.0
290
     0
  0
SCALE
  5
7358
102
{ACAD_REACTORS
330
734B
102
}
330
734B
100
AcDbScale
 70
     0
300
1" = 1'-0"
140
1.0
141
12.0
290
     0
  0
SCALE
  5
7359
102
{ACAD_REACTORS
330
734B
102
}
330
734B
100
AcDbScale
 70
     0
300
1-1/2" = 1'-0"
140
1.5
141
12.0
290
     0
  0
SCALE
  5
735A
102
{ACAD_REACTORS
330
734B
102
}
330
734B
100
AcDbScale
 70
     0
300
3" = 1'-0"
140
3.0
141
12.0
290
     0
  0
SCALE
  5
735B
102
{ACAD_REACTORS
330
734B
102
}
330
734B
100
AcDbScale
 70
     0
300
6" = 1'-0"
140
6.0
141
12.0
290
     0
  0
SCALE
  5
735C
102
{ACAD_REACTORS
330
734B
102
}
330
734B
100
AcDbScale
 70
     0
300
1'-0" = 1'-0"
140
12.0
141
12.0
290
     0
  0
ACDBSECTIONVIEWSTYLE
  5
7360
102
{ACAD_XDICTIONARY
360
740A
102
}
102
{ACAD_REACTORS
330
735F
102
}
330
735F
100
AcDbModelDocViewStyle
 70
     0
  3
Imperial24
290
     0
100
AcDbSectionViewStyle
 70
     0
 71
     0
 90
       78
 71
     1
340
11
 40
0.24
340
0
340
0
 40
0.24
300
I, O, Q, S, X, Z
 40
0.48
 90
        3
 40
0.18
 90
        1
 71
     2
340
15
 90
       25
340
15
 90
       50
 40
0.24
 40
0.0
 40
0.24
 71
     3
340
11
 40
0.24
 90
        1
 40
0.75
 90
        1
300
%<\AcVar ViewType \f "%tc1">% %<\AcVar ViewSectionStartId>%-%<\AcVar ViewSectionEndId>%\PSCALE %<\AcVar ViewScale \f "%sn">%
 71
     4
300
ANSI31
 40
1.0
 90
        0
290
     0
290
     0
 90
        6
 40
0.0
 40
1.570796326794896
 40
0.2617993877991494
 40
1.308996938995747
 40
-0.2617993877991494
 40
1.832595714594046
  0
TABLESTYLE
  5
734A
102
{ACAD_XDICTIONARY
360
73CB
102
}
102
{ACAD_REACTORS
330
7349
102
}
330
7349
100
AcDbTableStyle
  3
Standard
 70
     0
 71
     0
 40
0.06
 41
0.06
280
     0
281
     0
  7
STANDARD
140
0.18
170
     2
 62
     0
 63
     7
283
     0
274
    -2
284
     1
 64
     0
275
    -2
285
     1
 65
     0
276
    -2
286
     1
 66
     0
277
    -2
287
     1
 67
     0
278
    -2
288
     1
 68
     0
279
    -2
289
     1
 69
     0
  7
STANDARD
140
0.25
170
     5
 62
     0
 63
     7
283
     0
274
    -2
284
     1
 64
     0
275
    -2
285
     1
 65
     0
276
    -2
286
     1
 66
     0
277
    -2
287
     1
 67
     0
278
    -2
288
     1
 68
     0
279
    -2
289
     1
 69
     0
  7
STANDARD
140
0.18
170
     5
 62
     0
 63
     7
283
     0
274
    -2
284
     1
 64
     0
275
    -2
285
     1
 65
     0
276
    -2
286
     1
 66
     0
277
    -2
287
     1
 67
     0
278
    -2
288
     1
 68
     0
279
    -2
289
     1
 69
     0
  0
VISUALSTYLE
  5
7335
102
{ACAD_XDICTIONARY
360
73E2
102
}
102
{ACAD_REACTORS
330
732F
102
}
330
732F
100
AcDbVisualStyle
  2
2dWireframe
 70
     4
 71
     0
 72
     2
 73
     0
 90
        0
 40
-0.6
 41
-30.0
 62
     5
 63
     7
 74
     1
 91
        4
 64
     7
 65
   257
 75
     1
175
     1
 42
1.0
 92
        0
 66
   257
 43
1.0
 76
     1
 77
     6
 78
     2
 67
     7
 79
     5
170
     0
171
     0
290
     0
174
     0
 93
        1
 44
0.0
173
     0
291
     0
 45
0.0
1001
ACAD
1000
AcDbSavedByObjectVersion
1070
     0
  0
VISUALSTYLE
  5
7334
102
{ACAD_XDICTIONARY
360
73E0
102
}
102
{ACAD_REACTORS
330
732F
102
}
330
732F
100
AcDbVisualStyle
  2
Basic
 70
     7
 71
     1
 72
     0
 73
     1
 90
        0
 40
-0.6
 41
-30.0
 62
     5
 63
     7
 74
     0
 91
        4
 64
     7
 65
   257
 75
     1
175
     1
 42
1.0
 92
        8
 66
     7
 43
1.0
 76
     1
 77
     6
 78
     2
 67
     7
 79
     5
170
     0
171
     0
290
     0
174
     0
 93
        1
 44
0.0
173
     0
291
     1
 45
0.0
1001
ACAD
1000
AcDbSavedByObjectVersion
1070
     0
  0
VISUALSTYLE
  5
733B
102
{ACAD_XDICTIONARY
360
73EE
102
}
102
{ACAD_REACTORS
330
732F
102
}
330
732F
100
AcDbVisualStyle
  2
Brighten
 70
    12
 71
     2
 72
     2
 73
     0
 90
        0
 40
-0.6
 41
-30.0
 62
     5
 63
     7
 74
     1
 91
        4
 64
     7
 65
   257
 75
     1
175
     1
 42
1.0
 92
        8
 66
     7
 43
1.0
 76
     1
 77
     6
 78
     2
 67
     7
 79
     5
170
     0
171
     0
290
     0
174
     0
 93
        1
 44
50.0
173
     0
291
     1
 45
0.0
1001
ACAD
1000
AcDbSavedByObjectVersion
1070
     0
  0
VISUALSTYLE
  5
733F
102
{ACAD_XDICTIONARY
360
73F6
102
}
102
{ACAD_REACTORS
330
732F
102
}
330
732F
100
AcDbVisualStyle
  2
ColorChange
 70
    16
 71
     2
 72
     2
 73
     3
 90
        0
 40
-0.6
 41
-30.0
 62
     5
 63
     8
 74
     1
 91
        4
 64
     7
 65
   257
 75
     1
175
     1
 42
1.0
 92
        8
 66
     8
 43
1.0
 76
     1
 77
     6
 78
     2
 67
     7
 79
     5
170
     0
171
     0
290
     0
174
     0
 93
        1
 44
0.0
173
     0
291
     1
 45
0.0
1001
ACAD
1000
AcDbSavedByObjectVersion
1070
     0
  0
VISUALSTYLE
  5
7338
102
{ACAD_XDICTIONARY
360
73E8
102
}
102
{ACAD_REACTORS
330
732F
102
}
330
732F
100
AcDbVisualStyle
  2
Conceptual
 70
     9
 71
     3
 72
     2
 73
     0
 90
        0
 40
-0.6
 41
-30.0
 62
     5
 63
     7
 74
     2
 91
        2
 64
     7
 65
   257
 75
     1
175
     1
 42
179.0
 92
        8
 66
     7
 43
1.0
 76
     1
 77
     6
 78
     2
 67
     7
 79
     3
170
     0
171
     0
290
     0
174
     0
 93
        1
 44
0.0
173
     0
291
     0
 45
0.0
1001
ACAD
1000
AcDbSavedByObjectVersion
1070
     0
  0
VISUALSTYLE
  5
733A
102
{ACAD_XDICTIONARY
360
73EC
102
}
102
{ACAD_REACTORS
330
732F
102
}
330
732F
100
AcDbVisualStyle
  2
Dim
 70
    11
 71
     2
 72
     2
 73
     0
 90
        0
 40
-0.6
 41
-30.0
 62
     5
 63
     7
 74
     1
 91
        4
 64
     7
 65
   257
 75
     1
175
     1
 42
1.0
 92
        8
 66
     7
 43
1.0
 76
     1
 77
     6
 78
     2
 67
     7
 79
     5
170
     0
171
     0
290
     0
174
     0
 93
        1
 44
-50.0
173
     0
291
     1
 45
0.0
1001
ACAD
1000
AcDbSavedByObjectVersion
1070
     0
  0
VISUALSTYLE
  5
7347
102
{ACAD_XDICTIONARY
360
7406
102
}
102
{ACAD_REACTORS
330
732F
102
}
330
732F
100
AcDbVisualStyle
  2
EdgeColorOff
 70
    22
 71
     2
 72
     2
 73
     0
 90
        0
 40
-0.6
 41
-30.0
 62
     5
 63
     7
 74
     1
 91
        4
 64
     7
 65
   257
 75
     1
175
     1
 42
1.0
 92
        8
 66
     7
 43
1.0
 76
     1
 77
     6
 78
     2
 67
     7
 79
     5
170
     0
171
     0
290
     0
174
     0
 93
        1
 44
0.0
173
     0
291
     1
 45
0.0
1001
ACAD
1000
AcDbSavedByObjectVersion
1070
     0
  0
VISUALSTYLE
  5
733E
102
{ACAD_XDICTIONARY
360
73F4
102
}
102
{ACAD_REACTORS
330
732F
102
}
330
732F
100
AcDbVisualStyle
  2
Facepattern
 70
    15
 71
     2
 72
     2
 73
     0
 90
        0
 40
-0.6
 41
-30.0
 62
     5
 63
     7
 74
     1
 91
        4
 64
     7
 65
   257
 75
     1
175
     1
 42
1.0
 92
        8
 66
     7
 43
1.0
 76
     1
 77
     6
 78
     2
 67
     7
 79
     5
170
     0
171
     0
290
     0
174
     0
 93
        1
 44
0.0
173
     0
291
     1
 45
0.0
1001
ACAD
1000
AcDbSavedByObjectVersion
1070
     0
  0
VISUALSTYLE
  5
7330
102
{ACAD_XDICTIONARY
360
73D8
102
}
102
{ACAD_REACTORS
330
732F
102
}
330
732F
100
AcDbVisualStyle
  2
Flat
 70
     0
 71
     2
 72
     1
 73
     1
 90
        2
 40
-0.6
 41
30.0
 62
     5
 63
     7
 74
     0
 91
        0
 64
     7
 65
   257
 75
     1
175
     1
 42
1.0
 92
        8
 66
     7
 43
1.0
 76
     1
 77
     6
 78
     2
 67
     7
 79
     5
170
     0
171
     0
290
     0
174
     0
 93
       13
 44
0.0
173
     0
291
     1
 45
0.0
1001
ACAD
1000
AcDbSavedByObjectVersion
1070
     0
  0
VISUALSTYLE
  5
7331
102
{ACAD_XDICTIONARY
360
73DA
102
}
102
{ACAD_REACTORS
330
732F
102
}
330
732F
100
AcDbVisualStyle
  2
FlatWithEdges
 70
     1
 71
     2
 72
     1
 73
     1
 90
        2
 40
-0.6
 41
30.0
 62
     5
 63
     7
 74
     1
 91
        0
 64
     7
 65
   257
 75
     1
175
     1
 42
1.0
 92
        0
 66
   257
 43
1.0
 76
     1
 77
     6
 78
     2
 67
     7
 79
     5
170
     0
171
     0
290
     0
174
     0
 93
       13
 44
0.0
173
     0
291
     1
 45
0.0
1001
ACAD
1000
AcDbSavedByObjectVersion
1070
     0
  0
VISUALSTYLE
  5
7332
102
{ACAD_XDICTIONARY
360
73DC
102
}
102
{ACAD_REACTORS
330
732F
102
}
330
732F
100
AcDbVisualStyle
  2
Gouraud
 70
     2
 71
     2
 72
     2
 73
     1
 90
        2
 40
-0.6
 41
30.0
 62
     5
 63
     7
 74
     0
 91
        0
 64
     7
 65
   257
 75
     1
175
     1
 42
1.0
 92
        0
 66
     7
 43
1.0
 76
     1
 77
     6
 78
     2
 67
     7
 79
     5
170
     0
171
     0
290
     0
174
     0
 93
       13
 44
0.0
173
     0
291
     1
 45
0.0
1001
ACAD
1000
AcDbSavedByObjectVersion
1070
     0
  0
VISUALSTYLE
  5
7333
102
{ACAD_XDICTIONARY
360
73DE
102
}
102
{ACAD_REACTORS
330
732F
102
}
330
732F
100
AcDbVisualStyle
  2
GouraudWithEdges
 70
     3
 71
     2
 72
     2
 73
     1
 90
        2
 40
-0.6
 41
30.0
 62
     5
 63
     7
 74
     1
 91
        0
 64
     7
 65
   257
 75
     1
175
     1
 42
1.0
 92
        0
 66
   257
 43
1.0
 76
     1
 77
     6
 78
     2
 67
     7
 79
     5
170
     0
171
     0
290
     0
174
     0
 93
       13
 44
0.0
173
     0
291
     1
 45
0.0
1001
ACAD
1000
AcDbSavedByObjectVersion
1070
     0
  0
VISUALSTYLE
  5
7337
102
{ACAD_XDICTIONARY
360
73E6
102
}
102
{ACAD_REACTORS
330
732F
102
}
330
732F
100
AcDbVisualStyle
  2
Hidden
 70
     6
 71
     1
 72
     2
 73
     2
 90
        0
 40
-0.6
 41
-30.0
 62
     5
 63
     7
 74
     2
 91
        2
 64
     7
 65
   257
 75
     2
175
     1
 42
40.0
 92
        0
 66
   257
 43
1.0
 76
     1
 77
     6
 78
     2
 67
     7
 79
     3
170
     0
171
     0
290
     0
174
     0
 93
        1
 44
0.0
173
     0
291
     0
 45
0.0
1001
ACAD
1000
AcDbSavedByObjectVersion
1070
     0
  0
VISUALSTYLE
  5
7345
102
{ACAD_XDICTIONARY
360
7402
102
}
102
{ACAD_REACTORS
330
732F
102
}
330
732F
100
AcDbVisualStyle
  2
JitterOff
 70
    20
 71
     2
 72
     2
 73
     0
 90
        0
 40
-0.6
 41
-30.0
 62
     5
 63
     7
 74
     1
 91
        4
 64
     7
 65
   257
 75
     1
175
     1
 42
1.0
 92
       10
 66
     7
 43
1.0
 76
     1
 77
     6
 78
     2
 67
     7
 79
     5
170
     0
171
     0
290
     0
174
     0
 93
        1
 44
0.0
173
     0
291
     1
 45
0.0
1001
ACAD
1000
AcDbSavedByObjectVersion
1070
     0
  0
VISUALSTYLE
  5
733D
102
{ACAD_XDICTIONARY
360
73F2
102
}
102
{ACAD_REACTORS
330
732F
102
}
330
732F
100
AcDbVisualStyle
  2
Linepattern
 70
    14
 71
     2
 72
     2
 73
     0
 90
        0
 40
-0.6
 41
-30.0
 62
     5
 63
     7
 74
     1
 91
        4
 64
     7
 65
   257
 75
     7
175
     7
 42
1.0
 92
        8
 66
     7
 43
1.0
 76
     1
 77
     6
 78
     2
 67
     7
 79
     5
170
     0
171
     0
290
     0
174
     0
 93
        1
 44
0.0
173
     0
291
     1
 45
0.0
1001
ACAD
1000
AcDbSavedByObjectVersion
1070
     0
  0
VISUALSTYLE
  5
7346
102
{ACAD_XDICTIONARY
360
7404
102
}
102
{ACAD_REACTORS
330
732F
102
}
330
732F
100
AcDbVisualStyle
  2
OverhangOff
 70
    21
 71
     2
 72
     2
 73
     0
 90
        0
 40
-0.6
 41
-30.0
 62
     5
 63
     7
 74
     1
 91
        4
 64
     7
 65
   257
 75
     1
175
     1
 42
1.0
 92
        9
 66
     7
 43
1.0
 76
     1
 77
     6
 78
     2
 67
     7
 79
     5
170
     0
171
     0
290
     0
174
     0
 93
        1
 44
0.0
173
     0
291
     1
 45
0.0
1001
ACAD
1000
AcDbSavedByObjectVersion
1070
     0
  0
VISUALSTYLE
  5
7339
102
{ACAD_XDICTIONARY
360
73EA
102
}
102
{ACAD_REACTORS
330
732F
102
}
330
732F
100
AcDbVisualStyle
  2
Realistic
 70
     8
 71
     2
 72
     3
 73
     0
 90
        2
 40
-0.6
 41
30.0
 62
     5
 63
     7
 74
     0
 91
        0
 64
     7
 65
   257
 75
     1
175
     1
 42
1.0
 92
        8
 66
   257
 43
1.0
 76
     1
 77
     6
 78
     2
 67
     7
 79
     3
170
     0
171
     0
290
     0
174
     0
 93
       13
 44
0.0
173
     0
291
     0
 45
0.0
1001
ACAD
1000
AcDbSavedByObjectVersion
1070
     0
  0
VISUALSTYLE
  5
7344
102
{ACAD_XDICTIONARY
360
7400
102
}
102
{ACAD_REACTORS
330
732F
102
}
330
732F
100
AcDbVisualStyle
  2
Shaded
 70
    27
 71
     2
 72
     2
 73
     1
 90
        2
 40
-0.6
 41
30.0
 62
     5
 63
     7
 74
     0
 91
        4
 64
     7
 65
   257
 75
     1
175
     1
 42
1.0
 92
        8
 66
   257
 43
1.0
 76
     1
 77
     6
 78
     2
 67
     8
 79
     3
170
     0
171
     0
290
     0
174
     0
 93
        5
 44
0.0
173
     0
291
     0
 45
0.0
1001
ACAD
1000
AcDbSavedByObjectVersion
1070
     0
  0
VISUALSTYLE
  5
7343
102
{ACAD_XDICTIONARY
360
73FE
102
}
102
{ACAD_REACTORS
330
732F
102
}
330
732F
100
AcDbVisualStyle
  2
Shaded with edges
 70
    26
 71
     2
 72
     2
 73
     1
 90
        2
 40
-0.6
 41
30.0
 62
     5
 63
     7
 74
     1
 91
       10
 64
     7
 65
   257
 75
     2
175
     1
 42
1.0
 92
        8
 66
   257
 43
1.0
 76
     1
 77
     6
 78
     2
 67
     7
 79
     3
170
     0
171
     0
290
     0
174
     0
 93
        5
 44
0.0
173
     0
291
     0
 45
0.0
1001
ACAD
1000
AcDbSavedByObjectVersion
1070
     0
  0
VISUALSTYLE
  5
7340
102
{ACAD_XDICTIONARY
360
73F8
102
}
102
{ACAD_REACTORS
330
732F
102
}
330
732F
100
AcDbVisualStyle
  2
Shades of Gray
 70
    23
 71
     2
 72
     2
 73
     3
 90
        0
 40
-0.6
 41
-30.0
 62
     5
 63
     7
 74
     2
 91
        2
 64
     7
 65
     7
 75
     1
175
     1
 42
40.0
 92
        8
 66
     7
 43
1.0
 76
     1
 77
     6
 78
     2
 67
     7
 79
     3
170
     0
171
     0
290
     0
174
     0
 93
        1
 44
0.0
173
     0
291
     0
 45
0.0
1001
ACAD
1000
AcDbSavedByObjectVersion
1070
     0
  0
VISUALSTYLE
  5
7341
102
{ACAD_XDICTIONARY
360
73FA
102
}
102
{ACAD_REACTORS
330
732F
102
}
330
732F
100
AcDbVisualStyle
  2
Sketchy
 70
    24
 71
     1
 72
     2
 73
     2
 90
        0
 40
-0.6
 41
-30.0
 62
     5
 63
     7
 74
     2
 91
        2
 64
     7
 65
     7
 75
     1
175
     1
 42
40.0
 92
       11
 66
     7
 43
1.0
 76
     1
 77
     6
 78
     2
 67
     7
 79
     6
170
     0
171
     0
290
     0
174
     0
 93
        1
 44
0.0
173
     0
291
     0
 45
0.0
1001
ACAD
1000
AcDbSavedByObjectVersion
1070
     0
  0
VISUALSTYLE
  5
733C
102
{ACAD_XDICTIONARY
360
73F0
102
}
102
{ACAD_REACTORS
330
732F
102
}
330
732F
100
AcDbVisualStyle
  2
Thicken
 70
    13
 71
     2
 72
     2
 73
     0
 90
        0
 40
-0.6
 41
-30.0
 62
     5
 63
     7
 74
     1
 91
        4
 64
     7
 65
   257
 75
     1
175
     1
 42
1.0
 92
       12
 66
     7
 43
1.0
 76
     1
 77
     6
 78
     2
 67
     7
 79
     5
170
     0
171
     0
290
     0
174
     0
 93
        1
 44
0.0
173
     0
291
     1
 45
0.0
1001
ACAD
1000
AcDbSavedByObjectVersion
1070
     0
  0
VISUALSTYLE
  5
7336
102
{ACAD_XDICTIONARY
360
73E4
102
}
102
{ACAD_REACTORS
330
732F
102
}
330
732F
100
AcDbVisualStyle
  2
Wireframe
 70
     5
 71
     0
 72
     2
 73
     0
 90
        0
 40
-0.6
 41
-30.0
 62
     5
 63
     7
 74
     1
 91
        4
 64
     7
 65
   257
 75
     1
175
     1
 42
1.0
 92
        0
 66
   257
 43
1.0
 76
     1
 77
     6
 78
     2
 67
     7
 79
     3
170
     0
171
     0
290
     0
174
     0
 93
        1
 44
0.0
173
     0
291
     0
 45
0.0
1001
ACAD
1000
AcDbSavedByObjectVersion
1070
     0
  0
VISUALSTYLE
  5
7342
102
{ACAD_XDICTIONARY
360
73FC
102
}
102
{ACAD_REACTORS
330
732F
102
}
330
732F
100
AcDbVisualStyle
  2
X-Ray
 70
    25
 71
     2
 72
     2
 73
     1
 90
        1
 40
0.5
 41
-30.0
 62
     5
 63
     7
 74
     1
 91
        0
 64
     7
 65
   257
 75
     1
175
     1
 42
1.0
 92
        8
 66
     7
 43
1.0
 76
     1
 77
     6
 78
     2
 67
     7
 79
     3
170
     0
171
     0
290
     0
174
     0
 93
       13
 44
0.0
173
     0
291
     0
 45
0.0
1001
ACAD
1000
AcDbSavedByObjectVersion
1070
     0
  0
DICTIONARYVAR
  5
73C7
102
{ACAD_REACTORS
330
5697
102
}
330
5697
100
DictionaryVariables
280
     0
  1
1:1
  0
DICTIONARYVAR
  5
73C4
102
{ACAD_REACTORS
330
5697
102
}
330
5697
100
DictionaryVariables
280
     0
  1
STANDARD
  0
DICTIONARYVAR
  5
73C3
102
{ACAD_REACTORS
330
5697
102
}
330
5697
100
DictionaryVariables
280
     0
  1
STANDARD
  0
DICTIONARYVAR
  5
73C5
102
{ACAD_REACTORS
330
5697
102
}
330
5697
100
DictionaryVariables
280
     0
  1
Imperial24
  0
DICTIONARYVAR
  5
73C6
102
{ACAD_REACTORS
330
5697
102
}
330
5697
100
DictionaryVariables
280
     0
  1
Imperial24
  0
DICTIONARYVAR
  5
5698
102
{ACAD_REACTORS
330
5697
102
}
330
5697
100
DictionaryVariables
280
     0
  1
1
  0
DICTIONARYVAR
  5
73C9
102
{ACAD_REACTORS
330
5697
102
}
330
5697
100
DictionaryVariables
280
     0
  1
0
  0
DICTIONARYVAR
  5
73C8
102
{ACAD_REACTORS
330
5697
102
}
330
5697
100
DictionaryVariables
280
     0
  1
127
  0
DICTIONARYVAR
  5
73CA
102
{ACAD_REACTORS
330
5697
102
}
330
5697
100
DictionaryVariables
280
     0
  1
2
  0
DICTIONARY
  5
740C
330
7362
100
AcDbDictionary
280
     1
281
     1
  3
ACAD_XREC_ROUNDTRIP
360
740D
  0
DICTIONARY
  5
73D1
330
7309
100
AcDbDictionary
280
     1
281
     1
  3
ACAD_XREC_ROUNDTRIP
360
73D2
  0
DICTIONARY
  5
73D3
330
730A
100
AcDbDictionary
280
     1
281
     1
  3
ACAD_XREC_ROUNDTRIP
360
73D4
  0
DICTIONARY
  5
7320
330
731F
100
AcDbDictionary
280
     1
281
     1
  3
ACAD_XREC_ROUNDTRIP
360
73D6
  3
BUMPTILE
360
7322
  3
DIFFUSETILE
360
7321
  3
OPACITYTILE
360
7325
  3
REFLECTIONTILE
360
7324
  3
REFRACTIONTILE
360
7326
  3
SPECULARTILE
360
7323
  0
DICTIONARY
  5
7318
330
7317
100
AcDbDictionary
280
     1
281
     1
  3
ACAD_XREC_ROUNDTRIP
360
73D5
  3
BUMPTILE
360
731A
  3
DIFFUSETILE
360
7319
  3
OPACITYTILE
360
731D
  3
REFLECTIONTILE
360
731C
  3
REFRACTIONTILE
360
731E
  3
SPECULARTILE
360
731B
  0
DICTIONARY
  5
7328
330
7327
100
AcDbDictionary
280
     1
281
     1
  3
ACAD_XREC_ROUNDTRIP
360
73D7
  3
BUMPTILE
360
732A
  3
DIFFUSETILE
360
7329
  3
OPACITYTILE
360
732D
  3
REFLECTIONTILE
360
732C
  3
REFRACTIONTILE
360
732E
  3
SPECULARTILE
360
732B
  0
DICTIONARY
  5
740A
330
7360
100
AcDbDictionary
280
     1
281
     1
  3
ACAD_XREC_ROUNDTRIP
360
740B
  0
DICTIONARY
  5
73CB
330
734A
100
AcDbDictionary
280
     1
281
     1
  3
ACAD_ROUNDTRIP_2008_TABLESTYLE_CELLSTYLEMAP
360
73CC
  3
ACAD_XREC_ROUNDTRIP
360
7408
  0
DICTIONARY
  5
73E2
330
7335
100
AcDbDictionary
280
     1
281
     1
  3
ACAD_XREC_ROUNDTRIP
360
73E3
  0
DICTIONARY
  5
73E0
330
7334
100
AcDbDictionary
280
     1
281
     1
  3
ACAD_XREC_ROUNDTRIP
360
73E1
  0
DICTIONARY
  5
73EE
330
733B
100
AcDbDictionary
280
     1
281
     1
  3
ACAD_XREC_ROUNDTRIP
360
73EF
  0
DICTIONARY
  5
73F6
330
733F
100
AcDbDictionary
280
     1
281
     1
  3
ACAD_XREC_ROUNDTRIP
360
73F7
  0
DICTIONARY
  5
73E8
330
7338
100
AcDbDictionary
280
     1
281
     1
  3
ACAD_XREC_ROUNDTRIP
360
73E9
  0
DICTIONARY
  5
73EC
330
733A
100
AcDbDictionary
280
     1
281
     1
  3
ACAD_XREC_ROUNDTRIP
360
73ED
  0
DICTIONARY
  5
7406
330
7347
100
AcDbDictionary
280
     1
281
     1
  3
ACAD_XREC_ROUNDTRIP
360
7407
  0
DICTIONARY
  5
73F4
330
733E
100
AcDbDictionary
280
     1
281
     1
  3
ACAD_XREC_ROUNDTRIP
360
73F5
  0
DICTIONARY
  5
73D8
330
7330
100
AcDbDictionary
280
     1
281
     1
  3
ACAD_XREC_ROUNDTRIP
360
73D9
  0
DICTIONARY
  5
73DA
330
7331
100
AcDbDictionary
280
     1
281
     1
  3
ACAD_XREC_ROUNDTRIP
360
73DB
  0
DICTIONARY
  5
73DC
330
7332
100
AcDbDictionary
280
     1
281
     1
  3
ACAD_XREC_ROUNDTRIP
360
73DD
  0
DICTIONARY
  5
73DE
330
7333
100
AcDbDictionary
280
     1
281
     1
  3
ACAD_XREC_ROUNDTRIP
360
73DF
  0
DICTIONARY
  5
73E6
330
7337
100
AcDbDictionary
280
     1
281
     1
  3
ACAD_XREC_ROUNDTRIP
360
73E7
  0
DICTIONARY
  5
7402
330
7345
100
AcDbDictionary
280
     1
281
     1
  3
ACAD_XREC_ROUNDTRIP
360
7403
  0
DICTIONARY
  5
73F2
330
733D
100
AcDbDictionary
280
     1
281
     1
  3
ACAD_XREC_ROUNDTRIP
360
73F3
  0
DICTIONARY
  5
7404
330
7346
100
AcDbDictionary
280
     1
281
     1
  3
ACAD_XREC_ROUNDTRIP
360
7405
  0
DICTIONARY
  5
73EA
330
7339
100
AcDbDictionary
280
     1
281
     1
  3
ACAD_XREC_ROUNDTRIP
360
73EB
  0
DICTIONARY
  5
7400
330
7344
100
AcDbDictionary
280
     1
281
     1
  3
ACAD_XREC_ROUNDTRIP
360
7401
  0
DICTIONARY
  5
73FE
330
7343
100
AcDbDictionary
280
     1
281
     1
  3
ACAD_XREC_ROUNDTRIP
360
73FF
  0
DICTIONARY
  5
73F8
330
7340
100
AcDbDictionary
280
     1
281
     1
  3
ACAD_XREC_ROUNDTRIP
360
73F9
  0
DICTIONARY
  5
73FA
330
7341
100
AcDbDictionary
280
     1
281
     1
  3
ACAD_XREC_ROUNDTRIP
360
73FB
  0
DICTIONARY
  5
73F0
330
733C
100
AcDbDictionary
280
     1
281
     1
  3
ACAD_XREC_ROUNDTRIP
360
73F1
  0
DICTIONARY
  5
73E4
330
7336
100
AcDbDictionary
280
     1
281
     1
  3
ACAD_XREC_ROUNDTRIP
360
73E5
  0
DICTIONARY
  5
73FC
330
7342
100
AcDbDictionary
280
     1
281
     1
  3
ACAD_XREC_ROUNDTRIP
360
73FD
  0
XRECORD
  5
740D
102
{ACAD_REACTORS
330
740C
102
}
330
740C
100
AcDbXrecord
280
     1
102
DISPLAYNAME
  1
Imperial24
102
FLAGS
 90
        0
  0
XRECORD
  5
73D2
102
{ACAD_REACTORS
330
73D1
102
}
330
73D1
100
AcDbXrecord
280
     1
102
SHADEPLOT
 70
     0
102
SHADEPLOTRESLEVEL
 70
     2
102
SHADEPLOTCUSTOMDPI
 70
   300
  0
XRECORD
  5
73D4
102
{ACAD_REACTORS
330
73D3
102
}
330
73D3
100
AcDbXrecord
280
     1
102
SHADEPLOT
 70
     0
102
SHADEPLOTRESLEVEL
 70
     2
102
SHADEPLOTCUSTOMDPI
 70
   300
  0
XRECORD
  5
73D6
102
{ACAD_REACTORS
330
7320
102
}
330
7320
100
AcDbXrecord
280
     1
102
MATERIAL
148
0.0
149
0.0
149
0.0
 93
        0
 94
      127
282
     0
 72
     0
 77
     0
171
     0
175
     0
179
     0
273
     0
  0
XRECORD
  5
7322
102
{ACAD_REACTORS
330
7320
102
}
330
7320
100
AcDbXrecord
280
     1
270
     1
271
     1
  0
XRECORD
  5
7321
102
{ACAD_REACTORS
330
7320
102
}
330
7320
100
AcDbXrecord
280
     1
270
     1
271
     1
  0
XRECORD
  5
7325
102
{ACAD_REACTORS
330
7320
102
}
330
7320
100
AcDbXrecord
280
     1
270
     1
271
     1
  0
XRECORD
  5
7324
102
{ACAD_REACTORS
330
7320
102
}
330
7320
100
AcDbXrecord
280
     1
270
     1
271
     1
  0
XRECORD
  5
7326
102
{ACAD_REACTORS
330
7320
102
}
330
7320
100
AcDbXrecord
280
     1
270
     1
271
     1
  0
XRECORD
  5
7323
102
{ACAD_REACTORS
330
7320
102
}
330
7320
100
AcDbXrecord
280
     1
270
     1
271
     1
  0
XRECORD
  5
73D5
102
{ACAD_REACTORS
330
7318
102
}
330
7318
100
AcDbXrecord
280
     1
102
MATERIAL
148
0.0
149
0.0
149
0.0
 93
        0
 94
      127
282
     0
 72
     0
 77
     0
171
     0
175
     0
179
     0
273
     0
  0
XRECORD
  5
731A
102
{ACAD_REACTORS
330
7318
102
}
330
7318
100
AcDbXrecord
280
     1
270
     1
271
     1
  0
XRECORD
  5
7319
102
{ACAD_REACTORS
330
7318
102
}
330
7318
100
AcDbXrecord
280
     1
270
     1
271
     1
  0
XRECORD
  5
731D
102
{ACAD_REACTORS
330
7318
102
}
330
7318
100
AcDbXrecord
280
     1
270
     1
271
     1
  0
XRECORD
  5
731C
102
{ACAD_REACTORS
330
7318
102
}
330
7318
100
AcDbXrecord
280
     1
270
     1
271
     1
  0
XRECORD
  5
731E
102
{ACAD_REACTORS
330
7318
102
}
330
7318
100
AcDbXrecord
280
     1
270
     1
271
     1
  0
XRECORD
  5
731B
102
{ACAD_REACTORS
330
7318
102
}
330
7318
100
AcDbXrecord
280
     1
270
     1
271
     1
  0
XRECORD
  5
73D7
102
{ACAD_REACTORS
330
7328
102
}
330
7328
100
AcDbXrecord
280
     1
102
MATERIAL
148
0.0
149
0.0
149
0.0
 93
        0
 94
      127
282
     0
 72
     0
 77
     0
171
     0
175
     0
179
     0
273
     0
  0
XRECORD
  5
732A
102
{ACAD_REACTORS
330
7328
102
}
330
7328
100
AcDbXrecord
280
     1
270
     1
271
     1
  0
XRECORD
  5
7329
102
{ACAD_REACTORS
330
7328
102
}
330
7328
100
AcDbXrecord
280
     1
270
     1
271
     1
  0
XRECORD
  5
732D
102
{ACAD_REACTORS
330
7328
102
}
330
7328
100
AcDbXrecord
280
     1
270
     1
271
     1
  0
XRECORD
  5
732C
102
{ACAD_REACTORS
330
7328
102
}
330
7328
100
AcDbXrecord
280
     1
270
     1
271
     1
  0
XRECORD
  5
732E
102
{ACAD_REACTORS
330
7328
102
}
330
7328
100
AcDbXrecord
280
     1
270
     1
271
     1
  0
XRECORD
  5
732B
102
{ACAD_REACTORS
330
7328
102
}
330
7328
100
AcDbXrecord
280
     1
270
     1
271
     1
  0
XRECORD
  5
740B
102
{ACAD_REACTORS
330
740A
102
}
330
740A
100
AcDbXrecord
280
     1
102
DISPLAYNAME
  1
Imperial24
102
FLAGS
 90
        0
  0
CELLSTYLEMAP
  5
73CC
102
{ACAD_REACTORS
330
73CB
102
}
330
73CB
100
AcDbCellStyleMap
 90
        3
300
CELLSTYLE
  1
TABLEFORMAT_BEGIN
 90
        5
170
     1
 91
        0
 92
    32768
 62
   257
 93
        1
300
CONTENTFORMAT
  1
CONTENTFORMAT_BEGIN
 90
        0
 91
        0
 92
      512
 93
        0
300

 40
0.0
140
1.0
 94
        5
 62
     0
340
11
144
0.25
309
CONTENTFORMAT_END
171
     0
 94
        0
309
TABLEFORMAT_END
  1
CELLSTYLE_BEGIN
 90
        1
 91
        1
300
_TITLE
309
CELLSTYLE_END
300
CELLSTYLE
  1
TABLEFORMAT_BEGIN
 90
        5
170
     1
 91
        0
 92
        0
 62
   257
 93
        1
300
CONTENTFORMAT
  1
CONTENTFORMAT_BEGIN
 90
        0
 91
        0
 92
      512
 93
        0
300

 40
0.0
140
1.0
 94
        5
 62
     0
340
11
144
0.18
309
CONTENTFORMAT_END
171
     0
 94
        0
309
TABLEFORMAT_END
  1
CELLSTYLE_BEGIN
 90
        2
 91
        1
300
_HEADER
309
CELLSTYLE_END
300
CELLSTYLE
  1
TABLEFORMAT_BEGIN
 90
        5
170
     1
 91
        0
 92
        0
 62
   257
 93
        1
300
CONTENTFORMAT
  1
CONTENTFORMAT_BEGIN
 90
        0
 91
        0
 92
      512
 93
        0
300

 40
0.0
140
1.0
 94
        2
 62
     0
340
11
144
0.18
309
CONTENTFORMAT_END
171
     0
 94
        0
309
TABLEFORMAT_END
  1
CELLSTYLE_BEGIN
 90
        3
 91
        2
300
_DATA
309
CELLSTYLE_END
  0
XRECORD
  5
7408
102
{ACAD_REACTORS
330
73CB
102
}
330
73CB
100
AcDbXrecord
280
     1
102
ACAD_ROUNDTRIP_PRE2007_TABLESTYLE
 90
      512
 91
        0
  1

 92
      512
 93
        0
  2

 94
      512
 95
        0
  3

  0
XRECORD
  5
73E3
102
{ACAD_REACTORS
330
73E2
102
}
330
73E2
100
AcDbXrecord
280
     1
102
RTVSPost2010Prop28
280
     1
102
RTVSPost2010PropOp28
 70
     1
102
RTVSPost2010Prop29
280
     1
102
RTVSPost2010PropOp29
 70
     1
102
RTVSPost2010Prop30
280
     0
102
RTVSPost2010PropOp30
 70
     1
102
RTVSPost2010Prop31
280
     0
102
RTVSPost2010PropOp31
 70
     1
102
RTVSPost2010Prop32
280
     0
102
RTVSPost2010PropOp32
 70
     1
102
RTVSPost2010Prop33
280
     0
102
RTVSPost2010PropOp33
 70
     1
102
RTVSPost2010Prop34
280
     0
102
RTVSPost2010PropOp34
 70
     1
102
RTVSPost2010Prop35
280
     0
102
RTVSPost2010PropOp35
 70
     1
102
RTVSPost2010Prop36
280
     0
102
RTVSPost2010PropOp36
 70
     1
102
RTVSPost2010Prop37
 90
       50
102
RTVSPost2010PropOp37
 70
     1
102
RTVSPost2010Prop38
140
0.0
102
RTVSPost2010PropOp38
 70
     1
102
RTVSPost2010Prop39
140
1.0
102
RTVSPost2010PropOp39
 70
     1
102
RTVSPost2010Prop40
 90
        0
102
RTVSPost2010PropOp40
 70
     1
102
RTVSPost2010Prop41ColorIndex
 90
       18
102
RTVSPost2010Prop41ColorRGB
 90
        0
102
RTVSPost2010PropOp41
 70
     1
102
RTVSPost2010Prop42
 90
       50
102
RTVSPost2010PropOp42
 70
     1
102
RTVSPost2010Prop43
 90
        3
102
RTVSPost2010PropOp43
 70
     1
102
RTVSPost2010Prop44ColorIndex
 90
        5
102
RTVSPost2010Prop44ColorRGB
 90
      255
102
RTVSPost2010PropOp44
 70
     1
102
RTVSPost2010Prop45
280
     0
102
RTVSPost2010PropOp45
 70
     1
102
RTVSPost2010Prop46
 90
       50
102
RTVSPost2010PropOp46
 70
     1
102
RTVSPost2010Prop47
 90
       50
102
RTVSPost2010PropOp47
 70
     1
102
RTVSPost2010Prop48
 90
       50
102
RTVSPost2010PropOp48
 70
     1
102
RTVSPost2010Prop49
280
     0
102
RTVSPost2010PropOp49
 70
     1
102
RTVSPost2010Prop50
 90
       50
102
RTVSPost2010PropOp50
 70
     1
102
RTVSPost2010Prop51ColorIndex
 90
      256
102
RTVSPost2010Prop51ColorRGB
 90
-16777216
102
RTVSPost2010PropOp51
 70
     0
102
RTVSPost2010Prop52
140
1.0
102
RTVSPost2010PropOp52
 70
     0
102
RTVSPost2010Prop53
 90
        2
102
RTVSPost2010PropOp53
 70
     1
102
RTVSPost2010Prop54
  1
strokes_ogs.tif
102
RTVSPost2010PropOp54
 70
     1
102
RTVSPost2010Prop55
280
     0
102
RTVSPost2010PropOp55
 70
     1
102
RTVSPost2010Prop56
140
1.0
102
RTVSPost2010PropOp56
 70
     1
102
RTVSPost2010Prop57
140
1.0
102
RTVSPost2010PropOp57
 70
     1
102
RTVSPropertyOp0
 70
     1
102
RTVSPropertyOp1
 70
     1
102
RTVSPropertyOp2
 70
     1
102
RTVSPropertyOp3
 70
     1
102
RTVSPropertyOp4
 70
     1
102
RTVSPropertyOp5
 70
     1
102
RTVSPropertyOp6
 70
     1
102
RTVSPropertyOp7
 70
     1
102
RTVSPropertyOp8
 70
     1
102
RTVSPropertyOp9
 70
     1
102
RTVSPropertyOp10
 70
     1
102
RTVSPropertyOp11
 70
     1
102
RTVSPropertyOp12
 70
     1
102
RTVSPropertyOp13
 70
     1
102
RTVSPropertyOp14
 70
     1
102
RTVSPropertyOp15
 70
     1
102
RTVSPropertyOp16
 70
     1
102
RTVSPropertyOp17
 70
     1
102
RTVSPropertyOp18
 70
     1
102
RTVSPropertyOp19
 70
     1
102
RTVSPropertyOp20
 70
     1
102
RTVSPropertyOp21
 70
     1
102
RTVSPropertyOp22
 70
     1
102
RTVSPropertyOp23
 70
     1
102
RTVSPropertyOp24
 70
     1
102
RTVSPropertyOp25
 70
     1
102
RTVSPropertyOp26
 70
     1
102
RTVSPropertyOp27
 70
     1
102
RTVSPropertyOp28
 70
     1
102
RTVSPropertyOp29
 70
     1
102
RTVSPropertyOp30
 70
     1
102
RTVSPropertyOp31
 70
     1
102
RTVSPropertyOp32
 70
     1
102
RTVSPropertyOp33
 70
     1
102
RTVSPropertyOp34
 70
     1
102
RTVSPropertyOp35
 70
     1
102
RTVSPropertyOp36
 70
     1
102
RTVSPropertyOp37
 70
     1
102
RTVSPropertyOp38
 70
     1
102
RTVSPropertyOp39
 70
     1
102
RTVSPropertyOp40
 70
     1
102
RTVSPropertyOp41
 70
     1
102
RTVSPropertyOp42
 70
     1
102
RTVSPropertyOp43
 70
     1
102
RTVSPropertyOp44
 70
     1
102
RTVSPropertyOp45
 70
     1
102
RTVSPropertyOp46
 70
     1
102
RTVSPropertyOp47
 70
     1
102
RTVSPropertyOp48
 70
     1
102
RTVSPropertyOp49
 70
     1
102
RTVSPropertyOp50
 70
     1
102
RTVSPropertyOp51
 70
     0
102
RTVSPropertyOp52
 70
     0
102
RTVSPropertyOp53
 70
     1
102
RTVSPropertyOp54
 70
     1
102
RTVSPropertyOp55
 70
     1
102
RTVSPropertyOp56
 70
     1
102
RTVSPropertyOp57
 70
     1
102
RTVSPropertyOp58
 70
     1
102
RTVSPropertyOp59
 70
     1
102
RTVSPropertyOp60
 70
     1
102
RTVSPropertyOp61
 70
     1
102
RTVSPropertyOp62
 70
     1
  0
XRECORD
  5
73E1
102
{ACAD_REACTORS
330
73E0
102
}
330
73E0
100
AcDbXrecord
280
     1
102
RTVSPost2010Prop28
280
     0
102
RTVSPost2010PropOp28
 70
     1
102
RTVSPost2010Prop29
280
     1
102
RTVSPost2010PropOp29
 70
     1
102
RTVSPost2010Prop30
280
     1
102
RTVSPost2010PropOp30
 70
     1
102
RTVSPost2010Prop31
280
     0
102
RTVSPost2010PropOp31
 70
     1
102
RTVSPost2010Prop32
280
     0
102
RTVSPost2010PropOp32
 70
     1
102
RTVSPost2010Prop33
280
     0
102
RTVSPost2010PropOp33
 70
     1
102
RTVSPost2010Prop34
280
     0
102
RTVSPost2010PropOp34
 70
     1
102
RTVSPost2010Prop35
280
     0
102
RTVSPost2010PropOp35
 70
     1
102
RTVSPost2010Prop36
280
     0
102
RTVSPost2010PropOp36
 70
     1
102
RTVSPost2010Prop37
 90
       50
102
RTVSPost2010PropOp37
 70
     1
102
RTVSPost2010Prop38
140
0.0
102
RTVSPost2010PropOp38
 70
     1
102
RTVSPost2010Prop39
140
1.0
102
RTVSPost2010PropOp39
 70
     1
102
RTVSPost2010Prop40
 90
        0
102
RTVSPost2010PropOp40
 70
     1
102
RTVSPost2010Prop41ColorIndex
 90
       18
102
RTVSPost2010Prop41ColorRGB
 90
        0
102
RTVSPost2010PropOp41
 70
     1
102
RTVSPost2010Prop42
 90
       50
102
RTVSPost2010PropOp42
 70
     1
102
RTVSPost2010Prop43
 90
        3
102
RTVSPost2010PropOp43
 70
     1
102
RTVSPost2010Prop44ColorIndex
 90
        5
102
RTVSPost2010Prop44ColorRGB
 90
      255
102
RTVSPost2010PropOp44
 70
     1
102
RTVSPost2010Prop45
280
     0
102
RTVSPost2010PropOp45
 70
     1
102
RTVSPost2010Prop46
 90
       50
102
RTVSPost2010PropOp46
 70
     1
102
RTVSPost2010Prop47
 90
       50
102
RTVSPost2010PropOp47
 70
     1
102
RTVSPost2010Prop48
 90
       50
102
RTVSPost2010PropOp48
 70
     1
102
RTVSPost2010Prop49
280
     0
102
RTVSPost2010PropOp49
 70
     1
102
RTVSPost2010Prop50
 90
       50
102
RTVSPost2010PropOp50
 70
     1
102
RTVSPost2010Prop51ColorIndex
 90
      256
102
RTVSPost2010Prop51ColorRGB
 90
-16777216
102
RTVSPost2010PropOp51
 70
     0
102
RTVSPost2010Prop52
140
1.0
102
RTVSPost2010PropOp52
 70
     0
102
RTVSPost2010Prop53
 90
        2
102
RTVSPost2010PropOp53
 70
     1
102
RTVSPost2010Prop54
  1
strokes_ogs.tif
102
RTVSPost2010PropOp54
 70
     1
102
RTVSPost2010Prop55
280
     0
102
RTVSPost2010PropOp55
 70
     1
102
RTVSPost2010Prop56
140
1.0
102
RTVSPost2010PropOp56
 70
     1
102
RTVSPost2010Prop57
140
1.0
102
RTVSPost2010PropOp57
 70
     1
102
RTVSPropertyOp0
 70
     1
102
RTVSPropertyOp1
 70
     1
102
RTVSPropertyOp2
 70
     1
102
RTVSPropertyOp3
 70
     1
102
RTVSPropertyOp4
 70
     1
102
RTVSPropertyOp5
 70
     1
102
RTVSPropertyOp6
 70
     1
102
RTVSPropertyOp7
 70
     1
102
RTVSPropertyOp8
 70
     1
102
RTVSPropertyOp9
 70
     1
102
RTVSPropertyOp10
 70
     1
102
RTVSPropertyOp11
 70
     1
102
RTVSPropertyOp12
 70
     1
102
RTVSPropertyOp13
 70
     1
102
RTVSPropertyOp14
 70
     1
102
RTVSPropertyOp15
 70
     1
102
RTVSPropertyOp16
 70
     1
102
RTVSPropertyOp17
 70
     1
102
RTVSPropertyOp18
 70
     1
102
RTVSPropertyOp19
 70
     1
102
RTVSPropertyOp20
 70
     1
102
RTVSPropertyOp21
 70
     1
102
RTVSPropertyOp22
 70
     1
102
RTVSPropertyOp23
 70
     1
102
RTVSPropertyOp24
 70
     1
102
RTVSPropertyOp25
 70
     1
102
RTVSPropertyOp26
 70
     1
102
RTVSPropertyOp27
 70
     1
102
RTVSPropertyOp28
 70
     1
102
RTVSPropertyOp29
 70
     1
102
RTVSPropertyOp30
 70
     1
102
RTVSPropertyOp31
 70
     1
102
RTVSPropertyOp32
 70
     1
102
RTVSPropertyOp33
 70
     1
102
RTVSPropertyOp34
 70
     1
102
RTVSPropertyOp35
 70
     1
102
RTVSPropertyOp36
 70
     1
102
RTVSPropertyOp37
 70
     1
102
RTVSPropertyOp38
 70
     1
102
RTVSPropertyOp39
 70
     1
102
RTVSPropertyOp40
 70
     1
102
RTVSPropertyOp41
 70
     1
102
RTVSPropertyOp42
 70
     1
102
RTVSPropertyOp43
 70
     1
102
RTVSPropertyOp44
 70
     1
102
RTVSPropertyOp45
 70
     1
102
RTVSPropertyOp46
 70
     1
102
RTVSPropertyOp47
 70
     1
102
RTVSPropertyOp48
 70
     1
102
RTVSPropertyOp49
 70
     1
102
RTVSPropertyOp50
 70
     1
102
RTVSPropertyOp51
 70
     0
102
RTVSPropertyOp52
 70
     0
102
RTVSPropertyOp53
 70
     1
102
RTVSPropertyOp54
 70
     1
102
RTVSPropertyOp55
 70
     1
102
RTVSPropertyOp56
 70
     1
102
RTVSPropertyOp57
 70
     1
102
RTVSPropertyOp58
 70
     1
102
RTVSPropertyOp59
 70
     1
102
RTVSPropertyOp60
 70
     1
102
RTVSPropertyOp61
 70
     1
102
RTVSPropertyOp62
 70
     1
  0
XRECORD
  5
73EF
102
{ACAD_REACTORS
330
73EE
102
}
330
73EE
100
AcDbXrecord
280
     1
102
RTVSPost2010Prop28
280
     0
102
RTVSPost2010PropOp28
 70
     1
102
RTVSPost2010Prop29
280
     1
102
RTVSPost2010PropOp29
 70
     1
102
RTVSPost2010Prop30
280
     1
102
RTVSPost2010PropOp30
 70
     1
102
RTVSPost2010Prop31
280
     0
102
RTVSPost2010PropOp31
 70
     1
102
RTVSPost2010Prop32
280
     0
102
RTVSPost2010PropOp32
 70
     1
102
RTVSPost2010Prop33
280
     0
102
RTVSPost2010PropOp33
 70
     1
102
RTVSPost2010Prop34
280
     0
102
RTVSPost2010PropOp34
 70
     1
102
RTVSPost2010Prop35
280
     0
102
RTVSPost2010PropOp35
 70
     1
102
RTVSPost2010Prop36
280
     0
102
RTVSPost2010PropOp36
 70
     1
102
RTVSPost2010Prop37
 90
       50
102
RTVSPost2010PropOp37
 70
     1
102
RTVSPost2010Prop38
140
0.0
102
RTVSPost2010PropOp38
 70
     1
102
RTVSPost2010Prop39
140
1.0
102
RTVSPost2010PropOp39
 70
     1
102
RTVSPost2010Prop40
 90
        0
102
RTVSPost2010PropOp40
 70
     1
102
RTVSPost2010Prop41ColorIndex
 90
       18
102
RTVSPost2010Prop41ColorRGB
 90
        0
102
RTVSPost2010PropOp41
 70
     1
102
RTVSPost2010Prop42
 90
       50
102
RTVSPost2010PropOp42
 70
     1
102
RTVSPost2010Prop43
 90
        3
102
RTVSPost2010PropOp43
 70
     1
102
RTVSPost2010Prop44ColorIndex
 90
        5
102
RTVSPost2010Prop44ColorRGB
 90
      255
102
RTVSPost2010PropOp44
 70
     1
102
RTVSPost2010Prop45
280
     0
102
RTVSPost2010PropOp45
 70
     1
102
RTVSPost2010Prop46
 90
       50
102
RTVSPost2010PropOp46
 70
     1
102
RTVSPost2010Prop47
 90
       50
102
RTVSPost2010PropOp47
 70
     1
102
RTVSPost2010Prop48
 90
       50
102
RTVSPost2010PropOp48
 70
     1
102
RTVSPost2010Prop49
280
     0
102
RTVSPost2010PropOp49
 70
     1
102
RTVSPost2010Prop50
 90
       50
102
RTVSPost2010PropOp50
 70
     1
102
RTVSPost2010Prop51ColorIndex
 90
      256
102
RTVSPost2010Prop51ColorRGB
 90
-16777216
102
RTVSPost2010PropOp51
 70
     0
102
RTVSPost2010Prop52
140
1.0
102
RTVSPost2010PropOp52
 70
     0
102
RTVSPost2010Prop53
 90
        2
102
RTVSPost2010PropOp53
 70
     1
102
RTVSPost2010Prop54
  1
strokes_ogs.tif
102
RTVSPost2010PropOp54
 70
     1
102
RTVSPost2010Prop55
280
     0
102
RTVSPost2010PropOp55
 70
     1
102
RTVSPost2010Prop56
140
1.0
102
RTVSPost2010PropOp56
 70
     1
102
RTVSPost2010Prop57
140
1.0
102
RTVSPost2010PropOp57
 70
     1
102
RTVSPropertyOp0
 70
     1
102
RTVSPropertyOp1
 70
     1
102
RTVSPropertyOp2
 70
     1
102
RTVSPropertyOp3
 70
     1
102
RTVSPropertyOp4
 70
     1
102
RTVSPropertyOp5
 70
     1
102
RTVSPropertyOp6
 70
     1
102
RTVSPropertyOp7
 70
     1
102
RTVSPropertyOp8
 70
     1
102
RTVSPropertyOp9
 70
     1
102
RTVSPropertyOp10
 70
     1
102
RTVSPropertyOp11
 70
     1
102
RTVSPropertyOp12
 70
     1
102
RTVSPropertyOp13
 70
     1
102
RTVSPropertyOp14
 70
     1
102
RTVSPropertyOp15
 70
     1
102
RTVSPropertyOp16
 70
     1
102
RTVSPropertyOp17
 70
     1
102
RTVSPropertyOp18
 70
     1
102
RTVSPropertyOp19
 70
     1
102
RTVSPropertyOp20
 70
     1
102
RTVSPropertyOp21
 70
     1
102
RTVSPropertyOp22
 70
     1
102
RTVSPropertyOp23
 70
     1
102
RTVSPropertyOp24
 70
     1
102
RTVSPropertyOp25
 70
     1
102
RTVSPropertyOp26
 70
     1
102
RTVSPropertyOp27
 70
     1
102
RTVSPropertyOp28
 70
     1
102
RTVSPropertyOp29
 70
     1
102
RTVSPropertyOp30
 70
     1
102
RTVSPropertyOp31
 70
     1
102
RTVSPropertyOp32
 70
     1
102
RTVSPropertyOp33
 70
     1
102
RTVSPropertyOp34
 70
     1
102
RTVSPropertyOp35
 70
     1
102
RTVSPropertyOp36
 70
     1
102
RTVSPropertyOp37
 70
     1
102
RTVSPropertyOp38
 70
     1
102
RTVSPropertyOp39
 70
     1
102
RTVSPropertyOp40
 70
     1
102
RTVSPropertyOp41
 70
     1
102
RTVSPropertyOp42
 70
     1
102
RTVSPropertyOp43
 70
     1
102
RTVSPropertyOp44
 70
     1
102
RTVSPropertyOp45
 70
     1
102
RTVSPropertyOp46
 70
     1
102
RTVSPropertyOp47
 70
     1
102
RTVSPropertyOp48
 70
     1
102
RTVSPropertyOp49
 70
     1
102
RTVSPropertyOp50
 70
     1
102
RTVSPropertyOp51
 70
     0
102
RTVSPropertyOp52
 70
     0
102
RTVSPropertyOp53
 70
     1
102
RTVSPropertyOp54
 70
     1
102
RTVSPropertyOp55
 70
     1
102
RTVSPropertyOp56
 70
     1
102
RTVSPropertyOp57
 70
     1
102
RTVSPropertyOp58
 70
     1
102
RTVSPropertyOp59
 70
     1
102
RTVSPropertyOp60
 70
     1
102
RTVSPropertyOp61
 70
     1
102
RTVSPropertyOp62
 70
     1
  0
XRECORD
  5
73F7
102
{ACAD_REACTORS
330
73F6
102
}
330
73F6
100
AcDbXrecord
280
     1
102
RTVSPost2010Prop28
280
     0
102
RTVSPost2010PropOp28
 70
     1
102
RTVSPost2010Prop29
280
     1
102
RTVSPost2010PropOp29
 70
     1
102
RTVSPost2010Prop30
280
     1
102
RTVSPost2010PropOp30
 70
     1
102
RTVSPost2010Prop31
280
     0
102
RTVSPost2010PropOp31
 70
     1
102
RTVSPost2010Prop32
280
     0
102
RTVSPost2010PropOp32
 70
     1
102
RTVSPost2010Prop33
280
     0
102
RTVSPost2010PropOp33
 70
     1
102
RTVSPost2010Prop34
280
     0
102
RTVSPost2010PropOp34
 70
     1
102
RTVSPost2010Prop35
280
     0
102
RTVSPost2010PropOp35
 70
     1
102
RTVSPost2010Prop36
280
     0
102
RTVSPost2010PropOp36
 70
     1
102
RTVSPost2010Prop37
 90
       50
102
RTVSPost2010PropOp37
 70
     1
102
RTVSPost2010Prop38
140
0.0
102
RTVSPost2010PropOp38
 70
     1
102
RTVSPost2010Prop39
140
1.0
102
RTVSPost2010PropOp39
 70
     1
102
RTVSPost2010Prop40
 90
        0
102
RTVSPost2010PropOp40
 70
     1
102
RTVSPost2010Prop41ColorIndex
 90
       18
102
RTVSPost2010Prop41ColorRGB
 90
        0
102
RTVSPost2010PropOp41
 70
     1
102
RTVSPost2010Prop42
 90
       50
102
RTVSPost2010PropOp42
 70
     1
102
RTVSPost2010Prop43
 90
        3
102
RTVSPost2010PropOp43
 70
     1
102
RTVSPost2010Prop44ColorIndex
 90
        5
102
RTVSPost2010Prop44ColorRGB
 90
      255
102
RTVSPost2010PropOp44
 70
     1
102
RTVSPost2010Prop45
280
     0
102
RTVSPost2010PropOp45
 70
     1
102
RTVSPost2010Prop46
 90
       50
102
RTVSPost2010PropOp46
 70
     1
102
RTVSPost2010Prop47
 90
       50
102
RTVSPost2010PropOp47
 70
     1
102
RTVSPost2010Prop48
 90
       50
102
RTVSPost2010PropOp48
 70
     1
102
RTVSPost2010Prop49
280
     0
102
RTVSPost2010PropOp49
 70
     1
102
RTVSPost2010Prop50
 90
       50
102
RTVSPost2010PropOp50
 70
     1
102
RTVSPost2010Prop51ColorIndex
 90
      256
102
RTVSPost2010Prop51ColorRGB
 90
-16777216
102
RTVSPost2010PropOp51
 70
     0
102
RTVSPost2010Prop52
140
1.0
102
RTVSPost2010PropOp52
 70
     0
102
RTVSPost2010Prop53
 90
        2
102
RTVSPost2010PropOp53
 70
     1
102
RTVSPost2010Prop54
  1
strokes_ogs.tif
102
RTVSPost2010PropOp54
 70
     1
102
RTVSPost2010Prop55
280
     0
102
RTVSPost2010PropOp55
 70
     1
102
RTVSPost2010Prop56
140
1.0
102
RTVSPost2010PropOp56
 70
     1
102
RTVSPost2010Prop57
140
1.0
102
RTVSPost2010PropOp57
 70
     1
102
RTVSPropertyOp0
 70
     1
102
RTVSPropertyOp1
 70
     1
102
RTVSPropertyOp2
 70
     1
102
RTVSPropertyOp3
 70
     1
102
RTVSPropertyOp4
 70
     1
102
RTVSPropertyOp5
 70
     1
102
RTVSPropertyOp6
 70
     1
102
RTVSPropertyOp7
 70
     1
102
RTVSPropertyOp8
 70
     1
102
RTVSPropertyOp9
 70
     1
102
RTVSPropertyOp10
 70
     1
102
RTVSPropertyOp11
 70
     1
102
RTVSPropertyOp12
 70
     1
102
RTVSPropertyOp13
 70
     1
102
RTVSPropertyOp14
 70
     1
102
RTVSPropertyOp15
 70
     1
102
RTVSPropertyOp16
 70
     1
102
RTVSPropertyOp17
 70
     1
102
RTVSPropertyOp18
 70
     1
102
RTVSPropertyOp19
 70
     1
102
RTVSPropertyOp20
 70
     1
102
RTVSPropertyOp21
 70
     1
102
RTVSPropertyOp22
 70
     1
102
RTVSPropertyOp23
 70
     1
102
RTVSPropertyOp24
 70
     1
102
RTVSPropertyOp25
 70
     1
102
RTVSPropertyOp26
 70
     1
102
RTVSPropertyOp27
 70
     1
102
RTVSPropertyOp28
 70
     1
102
RTVSPropertyOp29
 70
     1
102
RTVSPropertyOp30
 70
     1
102
RTVSPropertyOp31
 70
     1
102
RTVSPropertyOp32
 70
     1
102
RTVSPropertyOp33
 70
     1
102
RTVSPropertyOp34
 70
     1
102
RTVSPropertyOp35
 70
     1
102
RTVSPropertyOp36
 70
     1
102
RTVSPropertyOp37
 70
     1
102
RTVSPropertyOp38
 70
     1
102
RTVSPropertyOp39
 70
     1
102
RTVSPropertyOp40
 70
     1
102
RTVSPropertyOp41
 70
     1
102
RTVSPropertyOp42
 70
     1
102
RTVSPropertyOp43
 70
     1
102
RTVSPropertyOp44
 70
     1
102
RTVSPropertyOp45
 70
     1
102
RTVSPropertyOp46
 70
     1
102
RTVSPropertyOp47
 70
     1
102
RTVSPropertyOp48
 70
     1
102
RTVSPropertyOp49
 70
     1
102
RTVSPropertyOp50
 70
     1
102
RTVSPropertyOp51
 70
     0
102
RTVSPropertyOp52
 70
     0
102
RTVSPropertyOp53
 70
     1
102
RTVSPropertyOp54
 70
     1
102
RTVSPropertyOp55
 70
     1
102
RTVSPropertyOp56
 70
     1
102
RTVSPropertyOp57
 70
     1
102
RTVSPropertyOp58
 70
     1
102
RTVSPropertyOp59
 70
     1
102
RTVSPropertyOp60
 70
     1
102
RTVSPropertyOp61
 70
     1
102
RTVSPropertyOp62
 70
     1
  0
XRECORD
  5
73E9
102
{ACAD_REACTORS
330
73E8
102
}
330
73E8
100
AcDbXrecord
280
     1
102
RTVSPost2010Prop28
280
     0
102
RTVSPost2010PropOp28
 70
     1
102
RTVSPost2010Prop29
280
     1
102
RTVSPost2010PropOp29
 70
     1
102
RTVSPost2010Prop30
280
     1
102
RTVSPost2010PropOp30
 70
     1
102
RTVSPost2010Prop31
280
     0
102
RTVSPost2010PropOp31
 70
     1
102
RTVSPost2010Prop32
280
     0
102
RTVSPost2010PropOp32
 70
     1
102
RTVSPost2010Prop33
280
     0
102
RTVSPost2010PropOp33
 70
     1
102
RTVSPost2010Prop34
280
     0
102
RTVSPost2010PropOp34
 70
     1
102
RTVSPost2010Prop35
280
     0
102
RTVSPost2010PropOp35
 70
     1
102
RTVSPost2010Prop36
280
     0
102
RTVSPost2010PropOp36
 70
     1
102
RTVSPost2010Prop37
 90
       50
102
RTVSPost2010PropOp37
 70
     1
102
RTVSPost2010Prop38
140
0.0
102
RTVSPost2010PropOp38
 70
     1
102
RTVSPost2010Prop39
140
1.0
102
RTVSPost2010PropOp39
 70
     1
102
RTVSPost2010Prop40
 90
        0
102
RTVSPost2010PropOp40
 70
     1
102
RTVSPost2010Prop41ColorIndex
 90
       18
102
RTVSPost2010Prop41ColorRGB
 90
        0
102
RTVSPost2010PropOp41
 70
     1
102
RTVSPost2010Prop42
 90
       50
102
RTVSPost2010PropOp42
 70
     1
102
RTVSPost2010Prop43
 90
        3
102
RTVSPost2010PropOp43
 70
     1
102
RTVSPost2010Prop44ColorIndex
 90
        5
102
RTVSPost2010Prop44ColorRGB
 90
      255
102
RTVSPost2010PropOp44
 70
     1
102
RTVSPost2010Prop45
280
     0
102
RTVSPost2010PropOp45
 70
     1
102
RTVSPost2010Prop46
 90
       50
102
RTVSPost2010PropOp46
 70
     1
102
RTVSPost2010Prop47
 90
       50
102
RTVSPost2010PropOp47
 70
     1
102
RTVSPost2010Prop48
 90
       50
102
RTVSPost2010PropOp48
 70
     1
102
RTVSPost2010Prop49
280
     0
102
RTVSPost2010PropOp49
 70
     1
102
RTVSPost2010Prop50
 90
       50
102
RTVSPost2010PropOp50
 70
     1
102
RTVSPost2010Prop51ColorIndex
 90
      256
102
RTVSPost2010Prop51ColorRGB
 90
-16777216
102
RTVSPost2010PropOp51
 70
     0
102
RTVSPost2010Prop52
140
1.0
102
RTVSPost2010PropOp52
 70
     0
102
RTVSPost2010Prop53
 90
        2
102
RTVSPost2010PropOp53
 70
     1
102
RTVSPost2010Prop54
  1
strokes_ogs.tif
102
RTVSPost2010PropOp54
 70
     1
102
RTVSPost2010Prop55
280
     0
102
RTVSPost2010PropOp55
 70
     1
102
RTVSPost2010Prop56
140
1.0
102
RTVSPost2010PropOp56
 70
     1
102
RTVSPost2010Prop57
140
1.0
102
RTVSPost2010PropOp57
 70
     1
102
RTVSPropertyOp0
 70
     1
102
RTVSPropertyOp1
 70
     1
102
RTVSPropertyOp2
 70
     1
102
RTVSPropertyOp3
 70
     1
102
RTVSPropertyOp4
 70
     1
102
RTVSPropertyOp5
 70
     1
102
RTVSPropertyOp6
 70
     1
102
RTVSPropertyOp7
 70
     1
102
RTVSPropertyOp8
 70
     1
102
RTVSPropertyOp9
 70
     1
102
RTVSPropertyOp10
 70
     1
102
RTVSPropertyOp11
 70
     1
102
RTVSPropertyOp12
 70
     1
102
RTVSPropertyOp13
 70
     1
102
RTVSPropertyOp14
 70
     1
102
RTVSPropertyOp15
 70
     1
102
RTVSPropertyOp16
 70
     1
102
RTVSPropertyOp17
 70
     1
102
RTVSPropertyOp18
 70
     1
102
RTVSPropertyOp19
 70
     1
102
RTVSPropertyOp20
 70
     1
102
RTVSPropertyOp21
 70
     1
102
RTVSPropertyOp22
 70
     1
102
RTVSPropertyOp23
 70
     1
102
RTVSPropertyOp24
 70
     1
102
RTVSPropertyOp25
 70
     1
102
RTVSPropertyOp26
 70
     1
102
RTVSPropertyOp27
 70
     1
102
RTVSPropertyOp28
 70
     1
102
RTVSPropertyOp29
 70
     1
102
RTVSPropertyOp30
 70
     1
102
RTVSPropertyOp31
 70
     1
102
RTVSPropertyOp32
 70
     1
102
RTVSPropertyOp33
 70
     1
102
RTVSPropertyOp34
 70
     1
102
RTVSPropertyOp35
 70
     1
102
RTVSPropertyOp36
 70
     1
102
RTVSPropertyOp37
 70
     1
102
RTVSPropertyOp38
 70
     1
102
RTVSPropertyOp39
 70
     1
102
RTVSPropertyOp40
 70
     1
102
RTVSPropertyOp41
 70
     1
102
RTVSPropertyOp42
 70
     1
102
RTVSPropertyOp43
 70
     1
102
RTVSPropertyOp44
 70
     1
102
RTVSPropertyOp45
 70
     1
102
RTVSPropertyOp46
 70
     1
102
RTVSPropertyOp47
 70
     1
102
RTVSPropertyOp48
 70
     1
102
RTVSPropertyOp49
 70
     1
102
RTVSPropertyOp50
 70
     1
102
RTVSPropertyOp51
 70
     0
102
RTVSPropertyOp52
 70
     0
102
RTVSPropertyOp53
 70
     1
102
RTVSPropertyOp54
 70
     1
102
RTVSPropertyOp55
 70
     1
102
RTVSPropertyOp56
 70
     1
102
RTVSPropertyOp57
 70
     1
102
RTVSPropertyOp58
 70
     1
102
RTVSPropertyOp59
 70
     1
102
RTVSPropertyOp60
 70
     1
102
RTVSPropertyOp61
 70
     1
102
RTVSPropertyOp62
 70
     1
  0
XRECORD
  5
73ED
102
{ACAD_REACTORS
330
73EC
102
}
330
73EC
100
AcDbXrecord
280
     1
102
RTVSPost2010Prop28
280
     0
102
RTVSPost2010PropOp28
 70
     1
102
RTVSPost2010Prop29
280
     1
102
RTVSPost2010PropOp29
 70
     1
102
RTVSPost2010Prop30
280
     1
102
RTVSPost2010PropOp30
 70
     1
102
RTVSPost2010Prop31
280
     0
102
RTVSPost2010PropOp31
 70
     1
102
RTVSPost2010Prop32
280
     0
102
RTVSPost2010PropOp32
 70
     1
102
RTVSPost2010Prop33
280
     0
102
RTVSPost2010PropOp33
 70
     1
102
RTVSPost2010Prop34
280
     0
102
RTVSPost2010PropOp34
 70
     1
102
RTVSPost2010Prop35
280
     0
102
RTVSPost2010PropOp35
 70
     1
102
RTVSPost2010Prop36
280
     0
102
RTVSPost2010PropOp36
 70
     1
102
RTVSPost2010Prop37
 90
       50
102
RTVSPost2010PropOp37
 70
     1
102
RTVSPost2010Prop38
140
0.0
102
RTVSPost2010PropOp38
 70
     1
102
RTVSPost2010Prop39
140
1.0
102
RTVSPost2010PropOp39
 70
     1
102
RTVSPost2010Prop40
 90
        0
102
RTVSPost2010PropOp40
 70
     1
102
RTVSPost2010Prop41ColorIndex
 90
       18
102
RTVSPost2010Prop41ColorRGB
 90
        0
102
RTVSPost2010PropOp41
 70
     1
102
RTVSPost2010Prop42
 90
       50
102
RTVSPost2010PropOp42
 70
     1
102
RTVSPost2010Prop43
 90
        3
102
RTVSPost2010PropOp43
 70
     1
102
RTVSPost2010Prop44ColorIndex
 90
        5
102
RTVSPost2010Prop44ColorRGB
 90
      255
102
RTVSPost2010PropOp44
 70
     1
102
RTVSPost2010Prop45
280
     0
102
RTVSPost2010PropOp45
 70
     1
102
RTVSPost2010Prop46
 90
       50
102
RTVSPost2010PropOp46
 70
     1
102
RTVSPost2010Prop47
 90
       50
102
RTVSPost2010PropOp47
 70
     1
102
RTVSPost2010Prop48
 90
       50
102
RTVSPost2010PropOp48
 70
     1
102
RTVSPost2010Prop49
280
     0
102
RTVSPost2010PropOp49
 70
     1
102
RTVSPost2010Prop50
 90
       50
102
RTVSPost2010PropOp50
 70
     1
102
RTVSPost2010Prop51ColorIndex
 90
      256
102
RTVSPost2010Prop51ColorRGB
 90
-16777216
102
RTVSPost2010PropOp51
 70
     0
102
RTVSPost2010Prop52
140
1.0
102
RTVSPost2010PropOp52
 70
     0
102
RTVSPost2010Prop53
 90
        2
102
RTVSPost2010PropOp53
 70
     1
102
RTVSPost2010Prop54
  1
strokes_ogs.tif
102
RTVSPost2010PropOp54
 70
     1
102
RTVSPost2010Prop55
280
     0
102
RTVSPost2010PropOp55
 70
     1
102
RTVSPost2010Prop56
140
1.0
102
RTVSPost2010PropOp56
 70
     1
102
RTVSPost2010Prop57
140
1.0
102
RTVSPost2010PropOp57
 70
     1
102
RTVSPropertyOp0
 70
     1
102
RTVSPropertyOp1
 70
     1
102
RTVSPropertyOp2
 70
     1
102
RTVSPropertyOp3
 70
     1
102
RTVSPropertyOp4
 70
     1
102
RTVSPropertyOp5
 70
     1
102
RTVSPropertyOp6
 70
     1
102
RTVSPropertyOp7
 70
     1
102
RTVSPropertyOp8
 70
     1
102
RTVSPropertyOp9
 70
     1
102
RTVSPropertyOp10
 70
     1
102
RTVSPropertyOp11
 70
     1
102
RTVSPropertyOp12
 70
     1
102
RTVSPropertyOp13
 70
     1
102
RTVSPropertyOp14
 70
     1
102
RTVSPropertyOp15
 70
     1
102
RTVSPropertyOp16
 70
     1
102
RTVSPropertyOp17
 70
     1
102
RTVSPropertyOp18
 70
     1
102
RTVSPropertyOp19
 70
     1
102
RTVSPropertyOp20
 70
     1
102
RTVSPropertyOp21
 70
     1
102
RTVSPropertyOp22
 70
     1
102
RTVSPropertyOp23
 70
     1
102
RTVSPropertyOp24
 70
     1
102
RTVSPropertyOp25
 70
     1
102
RTVSPropertyOp26
 70
     1
102
RTVSPropertyOp27
 70
     1
102
RTVSPropertyOp28
 70
     1
102
RTVSPropertyOp29
 70
     1
102
RTVSPropertyOp30
 70
     1
102
RTVSPropertyOp31
 70
     1
102
RTVSPropertyOp32
 70
     1
102
RTVSPropertyOp33
 70
     1
102
RTVSPropertyOp34
 70
     1
102
RTVSPropertyOp35
 70
     1
102
RTVSPropertyOp36
 70
     1
102
RTVSPropertyOp37
 70
     1
102
RTVSPropertyOp38
 70
     1
102
RTVSPropertyOp39
 70
     1
102
RTVSPropertyOp40
 70
     1
102
RTVSPropertyOp41
 70
     1
102
RTVSPropertyOp42
 70
     1
102
RTVSPropertyOp43
 70
     1
102
RTVSPropertyOp44
 70
     1
102
RTVSPropertyOp45
 70
     1
102
RTVSPropertyOp46
 70
     1
102
RTVSPropertyOp47
 70
     1
102
RTVSPropertyOp48
 70
     1
102
RTVSPropertyOp49
 70
     1
102
RTVSPropertyOp50
 70
     1
102
RTVSPropertyOp51
 70
     0
102
RTVSPropertyOp52
 70
     0
102
RTVSPropertyOp53
 70
     1
102
RTVSPropertyOp54
 70
     1
102
RTVSPropertyOp55
 70
     1
102
RTVSPropertyOp56
 70
     1
102
RTVSPropertyOp57
 70
     1
102
RTVSPropertyOp58
 70
     1
102
RTVSPropertyOp59
 70
     1
102
RTVSPropertyOp60
 70
     1
102
RTVSPropertyOp61
 70
     1
102
RTVSPropertyOp62
 70
     1
  0
XRECORD
  5
7407
102
{ACAD_REACTORS
330
7406
102
}
330
7406
100
AcDbXrecord
280
     1
102
RTVSPost2010Prop28
280
     0
102
RTVSPost2010PropOp28
 70
     1
102
RTVSPost2010Prop29
280
     1
102
RTVSPost2010PropOp29
 70
     1
102
RTVSPost2010Prop30
280
     1
102
RTVSPost2010PropOp30
 70
     1
102
RTVSPost2010Prop31
280
     0
102
RTVSPost2010PropOp31
 70
     1
102
RTVSPost2010Prop32
280
     0
102
RTVSPost2010PropOp32
 70
     1
102
RTVSPost2010Prop33
280
     0
102
RTVSPost2010PropOp33
 70
     1
102
RTVSPost2010Prop34
280
     0
102
RTVSPost2010PropOp34
 70
     1
102
RTVSPost2010Prop35
280
     0
102
RTVSPost2010PropOp35
 70
     1
102
RTVSPost2010Prop36
280
     0
102
RTVSPost2010PropOp36
 70
     1
102
RTVSPost2010Prop37
 90
       50
102
RTVSPost2010PropOp37
 70
     0
102
RTVSPost2010Prop38
140
0.0
102
RTVSPost2010PropOp38
 70
     0
102
RTVSPost2010Prop39
140
1.0
102
RTVSPost2010PropOp39
 70
     0
102
RTVSPost2010Prop40
 90
        0
102
RTVSPost2010PropOp40
 70
     0
102
RTVSPost2010Prop41ColorIndex
 90
       18
102
RTVSPost2010Prop41ColorRGB
 90
        0
102
RTVSPost2010PropOp41
 70
     0
102
RTVSPost2010Prop42
 90
       50
102
RTVSPost2010PropOp42
 70
     0
102
RTVSPost2010Prop43
 90
        3
102
RTVSPost2010PropOp43
 70
     0
102
RTVSPost2010Prop44ColorIndex
 90
        5
102
RTVSPost2010Prop44ColorRGB
 90
      255
102
RTVSPost2010PropOp44
 70
     0
102
RTVSPost2010Prop45
280
     0
102
RTVSPost2010PropOp45
 70
     1
102
RTVSPost2010Prop46
 90
       50
102
RTVSPost2010PropOp46
 70
     0
102
RTVSPost2010Prop47
 90
       50
102
RTVSPost2010PropOp47
 70
     0
102
RTVSPost2010Prop48
 90
       50
102
RTVSPost2010PropOp48
 70
     0
102
RTVSPost2010Prop49
280
     0
102
RTVSPost2010PropOp49
 70
     1
102
RTVSPost2010Prop50
 90
       50
102
RTVSPost2010PropOp50
 70
     0
102
RTVSPost2010Prop51ColorIndex
 90
      256
102
RTVSPost2010Prop51ColorRGB
 90
-16777216
102
RTVSPost2010PropOp51
 70
     0
102
RTVSPost2010Prop52
140
1.0
102
RTVSPost2010PropOp52
 70
     0
102
RTVSPost2010Prop53
 90
        2
102
RTVSPost2010PropOp53
 70
     0
102
RTVSPost2010Prop54
  1
strokes_ogs.tif
102
RTVSPost2010PropOp54
 70
     0
102
RTVSPost2010Prop55
280
     0
102
RTVSPost2010PropOp55
 70
     1
102
RTVSPost2010Prop56
140
1.0
102
RTVSPost2010PropOp56
 70
     0
102
RTVSPost2010Prop57
140
1.0
102
RTVSPost2010PropOp57
 70
     0
102
RTVSPropertyOp0
 70
     0
102
RTVSPropertyOp1
 70
     0
102
RTVSPropertyOp2
 70
     0
102
RTVSPropertyOp3
 70
     0
102
RTVSPropertyOp4
 70
     0
102
RTVSPropertyOp5
 70
     0
102
RTVSPropertyOp6
 70
     0
102
RTVSPropertyOp7
 70
     0
102
RTVSPropertyOp8
 70
     0
102
RTVSPropertyOp9
 70
     0
102
RTVSPropertyOp10
 70
     0
102
RTVSPropertyOp11
 70
     0
102
RTVSPropertyOp12
 70
     0
102
RTVSPropertyOp13
 70
     0
102
RTVSPropertyOp14
 70
     2
102
RTVSPropertyOp15
 70
     0
102
RTVSPropertyOp16
 70
     0
102
RTVSPropertyOp17
 70
     0
102
RTVSPropertyOp18
 70
     0
102
RTVSPropertyOp19
 70
     0
102
RTVSPropertyOp20
 70
     0
102
RTVSPropertyOp21
 70
     0
102
RTVSPropertyOp22
 70
     0
102
RTVSPropertyOp23
 70
     0
102
RTVSPropertyOp24
 70
     0
102
RTVSPropertyOp25
 70
     0
102
RTVSPropertyOp26
 70
     0
102
RTVSPropertyOp27
 70
     0
102
RTVSPropertyOp28
 70
     1
102
RTVSPropertyOp29
 70
     1
102
RTVSPropertyOp30
 70
     1
102
RTVSPropertyOp31
 70
     1
102
RTVSPropertyOp32
 70
     1
102
RTVSPropertyOp33
 70
     1
102
RTVSPropertyOp34
 70
     1
102
RTVSPropertyOp35
 70
     1
102
RTVSPropertyOp36
 70
     1
102
RTVSPropertyOp37
 70
     0
102
RTVSPropertyOp38
 70
     0
102
RTVSPropertyOp39
 70
     0
102
RTVSPropertyOp40
 70
     0
102
RTVSPropertyOp41
 70
     0
102
RTVSPropertyOp42
 70
     0
102
RTVSPropertyOp43
 70
     0
102
RTVSPropertyOp44
 70
     0
102
RTVSPropertyOp45
 70
     1
102
RTVSPropertyOp46
 70
     0
102
RTVSPropertyOp47
 70
     0
102
RTVSPropertyOp48
 70
     0
102
RTVSPropertyOp49
 70
     1
102
RTVSPropertyOp50
 70
     0
102
RTVSPropertyOp51
 70
     0
102
RTVSPropertyOp52
 70
     0
102
RTVSPropertyOp53
 70
     0
102
RTVSPropertyOp54
 70
     0
102
RTVSPropertyOp55
 70
     1
102
RTVSPropertyOp56
 70
     0
102
RTVSPropertyOp57
 70
     0
102
RTVSPropertyOp58
 70
     0
102
RTVSPropertyOp59
 70
     0
102
RTVSPropertyOp60
 70
     0
102
RTVSPropertyOp61
 70
     0
102
RTVSPropertyOp62
 70
     0
  0
XRECORD
  5
73F5
102
{ACAD_REACTORS
330
73F4
102
}
330
73F4
100
AcDbXrecord
280
     1
102
RTVSPost2010Prop28
280
     0
102
RTVSPost2010PropOp28
 70
     1
102
RTVSPost2010Prop29
280
     1
102
RTVSPost2010PropOp29
 70
     1
102
RTVSPost2010Prop30
280
     1
102
RTVSPost2010PropOp30
 70
     1
102
RTVSPost2010Prop31
280
     0
102
RTVSPost2010PropOp31
 70
     1
102
RTVSPost2010Prop32
280
     0
102
RTVSPost2010PropOp32
 70
     1
102
RTVSPost2010Prop33
280
     0
102
RTVSPost2010PropOp33
 70
     1
102
RTVSPost2010Prop34
280
     0
102
RTVSPost2010PropOp34
 70
     1
102
RTVSPost2010Prop35
280
     0
102
RTVSPost2010PropOp35
 70
     1
102
RTVSPost2010Prop36
280
     0
102
RTVSPost2010PropOp36
 70
     1
102
RTVSPost2010Prop37
 90
       50
102
RTVSPost2010PropOp37
 70
     1
102
RTVSPost2010Prop38
140
0.0
102
RTVSPost2010PropOp38
 70
     1
102
RTVSPost2010Prop39
140
1.0
102
RTVSPost2010PropOp39
 70
     1
102
RTVSPost2010Prop40
 90
        0
102
RTVSPost2010PropOp40
 70
     1
102
RTVSPost2010Prop41ColorIndex
 90
       18
102
RTVSPost2010Prop41ColorRGB
 90
        0
102
RTVSPost2010PropOp41
 70
     1
102
RTVSPost2010Prop42
 90
       50
102
RTVSPost2010PropOp42
 70
     1
102
RTVSPost2010Prop43
 90
        3
102
RTVSPost2010PropOp43
 70
     1
102
RTVSPost2010Prop44ColorIndex
 90
        5
102
RTVSPost2010Prop44ColorRGB
 90
      255
102
RTVSPost2010PropOp44
 70
     1
102
RTVSPost2010Prop45
280
     0
102
RTVSPost2010PropOp45
 70
     1
102
RTVSPost2010Prop46
 90
       50
102
RTVSPost2010PropOp46
 70
     1
102
RTVSPost2010Prop47
 90
       50
102
RTVSPost2010PropOp47
 70
     1
102
RTVSPost2010Prop48
 90
       50
102
RTVSPost2010PropOp48
 70
     1
102
RTVSPost2010Prop49
280
     0
102
RTVSPost2010PropOp49
 70
     1
102
RTVSPost2010Prop50
 90
       50
102
RTVSPost2010PropOp50
 70
     1
102
RTVSPost2010Prop51ColorIndex
 90
      256
102
RTVSPost2010Prop51ColorRGB
 90
-16777216
102
RTVSPost2010PropOp51
 70
     0
102
RTVSPost2010Prop52
140
1.0
102
RTVSPost2010PropOp52
 70
     0
102
RTVSPost2010Prop53
 90
        2
102
RTVSPost2010PropOp53
 70
     1
102
RTVSPost2010Prop54
  1
strokes_ogs.tif
102
RTVSPost2010PropOp54
 70
     1
102
RTVSPost2010Prop55
280
     0
102
RTVSPost2010PropOp55
 70
     1
102
RTVSPost2010Prop56
140
1.0
102
RTVSPost2010PropOp56
 70
     1
102
RTVSPost2010Prop57
140
1.0
102
RTVSPost2010PropOp57
 70
     1
102
RTVSPropertyOp0
 70
     1
102
RTVSPropertyOp1
 70
     1
102
RTVSPropertyOp2
 70
     1
102
RTVSPropertyOp3
 70
     1
102
RTVSPropertyOp4
 70
     1
102
RTVSPropertyOp5
 70
     1
102
RTVSPropertyOp6
 70
     1
102
RTVSPropertyOp7
 70
     1
102
RTVSPropertyOp8
 70
     1
102
RTVSPropertyOp9
 70
     1
102
RTVSPropertyOp10
 70
     1
102
RTVSPropertyOp11
 70
     1
102
RTVSPropertyOp12
 70
     1
102
RTVSPropertyOp13
 70
     1
102
RTVSPropertyOp14
 70
     1
102
RTVSPropertyOp15
 70
     1
102
RTVSPropertyOp16
 70
     1
102
RTVSPropertyOp17
 70
     1
102
RTVSPropertyOp18
 70
     1
102
RTVSPropertyOp19
 70
     1
102
RTVSPropertyOp20
 70
     1
102
RTVSPropertyOp21
 70
     1
102
RTVSPropertyOp22
 70
     1
102
RTVSPropertyOp23
 70
     1
102
RTVSPropertyOp24
 70
     1
102
RTVSPropertyOp25
 70
     1
102
RTVSPropertyOp26
 70
     1
102
RTVSPropertyOp27
 70
     1
102
RTVSPropertyOp28
 70
     1
102
RTVSPropertyOp29
 70
     1
102
RTVSPropertyOp30
 70
     1
102
RTVSPropertyOp31
 70
     1
102
RTVSPropertyOp32
 70
     1
102
RTVSPropertyOp33
 70
     1
102
RTVSPropertyOp34
 70
     1
102
RTVSPropertyOp35
 70
     1
102
RTVSPropertyOp36
 70
     1
102
RTVSPropertyOp37
 70
     1
102
RTVSPropertyOp38
 70
     1
102
RTVSPropertyOp39
 70
     1
102
RTVSPropertyOp40
 70
     1
102
RTVSPropertyOp41
 70
     1
102
RTVSPropertyOp42
 70
     1
102
RTVSPropertyOp43
 70
     1
102
RTVSPropertyOp44
 70
     1
102
RTVSPropertyOp45
 70
     1
102
RTVSPropertyOp46
 70
     1
102
RTVSPropertyOp47
 70
     1
102
RTVSPropertyOp48
 70
     1
102
RTVSPropertyOp49
 70
     1
102
RTVSPropertyOp50
 70
     1
102
RTVSPropertyOp51
 70
     0
102
RTVSPropertyOp52
 70
     0
102
RTVSPropertyOp53
 70
     1
102
RTVSPropertyOp54
 70
     1
102
RTVSPropertyOp55
 70
     1
102
RTVSPropertyOp56
 70
     1
102
RTVSPropertyOp57
 70
     1
102
RTVSPropertyOp58
 70
     1
102
RTVSPropertyOp59
 70
     1
102
RTVSPropertyOp60
 70
     1
102
RTVSPropertyOp61
 70
     1
102
RTVSPropertyOp62
 70
     1
  0
XRECORD
  5
73D9
102
{ACAD_REACTORS
330
73D8
102
}
330
73D8
100
AcDbXrecord
280
     1
102
RTVSPost2010Prop28
280
     0
102
RTVSPost2010PropOp28
 70
     1
102
RTVSPost2010Prop29
280
     1
102
RTVSPost2010PropOp29
 70
     1
102
RTVSPost2010Prop30
280
     1
102
RTVSPost2010PropOp30
 70
     1
102
RTVSPost2010Prop31
280
     0
102
RTVSPost2010PropOp31
 70
     1
102
RTVSPost2010Prop32
280
     0
102
RTVSPost2010PropOp32
 70
     1
102
RTVSPost2010Prop33
280
     0
102
RTVSPost2010PropOp33
 70
     1
102
RTVSPost2010Prop34
280
     0
102
RTVSPost2010PropOp34
 70
     1
102
RTVSPost2010Prop35
280
     0
102
RTVSPost2010PropOp35
 70
     1
102
RTVSPost2010Prop36
280
     0
102
RTVSPost2010PropOp36
 70
     1
102
RTVSPost2010Prop37
 90
       50
102
RTVSPost2010PropOp37
 70
     1
102
RTVSPost2010Prop38
140
0.0
102
RTVSPost2010PropOp38
 70
     1
102
RTVSPost2010Prop39
140
1.0
102
RTVSPost2010PropOp39
 70
     1
102
RTVSPost2010Prop40
 90
        0
102
RTVSPost2010PropOp40
 70
     1
102
RTVSPost2010Prop41ColorIndex
 90
       18
102
RTVSPost2010Prop41ColorRGB
 90
        0
102
RTVSPost2010PropOp41
 70
     1
102
RTVSPost2010Prop42
 90
       50
102
RTVSPost2010PropOp42
 70
     1
102
RTVSPost2010Prop43
 90
        3
102
RTVSPost2010PropOp43
 70
     1
102
RTVSPost2010Prop44ColorIndex
 90
        5
102
RTVSPost2010Prop44ColorRGB
 90
      255
102
RTVSPost2010PropOp44
 70
     1
102
RTVSPost2010Prop45
280
     0
102
RTVSPost2010PropOp45
 70
     1
102
RTVSPost2010Prop46
 90
       50
102
RTVSPost2010PropOp46
 70
     1
102
RTVSPost2010Prop47
 90
       50
102
RTVSPost2010PropOp47
 70
     1
102
RTVSPost2010Prop48
 90
       50
102
RTVSPost2010PropOp48
 70
     1
102
RTVSPost2010Prop49
280
     0
102
RTVSPost2010PropOp49
 70
     1
102
RTVSPost2010Prop50
 90
       50
102
RTVSPost2010PropOp50
 70
     1
102
RTVSPost2010Prop51ColorIndex
 90
      256
102
RTVSPost2010Prop51ColorRGB
 90
-16777216
102
RTVSPost2010PropOp51
 70
     0
102
RTVSPost2010Prop52
140
1.0
102
RTVSPost2010PropOp52
 70
     0
102
RTVSPost2010Prop53
 90
        2
102
RTVSPost2010PropOp53
 70
     1
102
RTVSPost2010Prop54
  1
strokes_ogs.tif
102
RTVSPost2010PropOp54
 70
     1
102
RTVSPost2010Prop55
280
     0
102
RTVSPost2010PropOp55
 70
     1
102
RTVSPost2010Prop56
140
1.0
102
RTVSPost2010PropOp56
 70
     1
102
RTVSPost2010Prop57
140
1.0
102
RTVSPost2010PropOp57
 70
     1
102
RTVSPropertyOp0
 70
     1
102
RTVSPropertyOp1
 70
     1
102
RTVSPropertyOp2
 70
     1
102
RTVSPropertyOp3
 70
     1
102
RTVSPropertyOp4
 70
     1
102
RTVSPropertyOp5
 70
     1
102
RTVSPropertyOp6
 70
     1
102
RTVSPropertyOp7
 70
     1
102
RTVSPropertyOp8
 70
     1
102
RTVSPropertyOp9
 70
     1
102
RTVSPropertyOp10
 70
     1
102
RTVSPropertyOp11
 70
     1
102
RTVSPropertyOp12
 70
     1
102
RTVSPropertyOp13
 70
     1
102
RTVSPropertyOp14
 70
     1
102
RTVSPropertyOp15
 70
     1
102
RTVSPropertyOp16
 70
     1
102
RTVSPropertyOp17
 70
     1
102
RTVSPropertyOp18
 70
     1
102
RTVSPropertyOp19
 70
     1
102
RTVSPropertyOp20
 70
     1
102
RTVSPropertyOp21
 70
     1
102
RTVSPropertyOp22
 70
     1
102
RTVSPropertyOp23
 70
     1
102
RTVSPropertyOp24
 70
     1
102
RTVSPropertyOp25
 70
     1
102
RTVSPropertyOp26
 70
     1
102
RTVSPropertyOp27
 70
     1
102
RTVSPropertyOp28
 70
     1
102
RTVSPropertyOp29
 70
     1
102
RTVSPropertyOp30
 70
     1
102
RTVSPropertyOp31
 70
     1
102
RTVSPropertyOp32
 70
     1
102
RTVSPropertyOp33
 70
     1
102
RTVSPropertyOp34
 70
     1
102
RTVSPropertyOp35
 70
     1
102
RTVSPropertyOp36
 70
     1
102
RTVSPropertyOp37
 70
     1
102
RTVSPropertyOp38
 70
     1
102
RTVSPropertyOp39
 70
     1
102
RTVSPropertyOp40
 70
     1
102
RTVSPropertyOp41
 70
     1
102
RTVSPropertyOp42
 70
     1
102
RTVSPropertyOp43
 70
     1
102
RTVSPropertyOp44
 70
     1
102
RTVSPropertyOp45
 70
     1
102
RTVSPropertyOp46
 70
     1
102
RTVSPropertyOp47
 70
     1
102
RTVSPropertyOp48
 70
     1
102
RTVSPropertyOp49
 70
     1
102
RTVSPropertyOp50
 70
     1
102
RTVSPropertyOp51
 70
     0
102
RTVSPropertyOp52
 70
     0
102
RTVSPropertyOp53
 70
     1
102
RTVSPropertyOp54
 70
     1
102
RTVSPropertyOp55
 70
     1
102
RTVSPropertyOp56
 70
     1
102
RTVSPropertyOp57
 70
     1
102
RTVSPropertyOp58
 70
     1
102
RTVSPropertyOp59
 70
     1
102
RTVSPropertyOp60
 70
     1
102
RTVSPropertyOp61
 70
     1
102
RTVSPropertyOp62
 70
     1
  0
XRECORD
  5
73DB
102
{ACAD_REACTORS
330
73DA
102
}
330
73DA
100
AcDbXrecord
280
     1
102
RTVSPost2010Prop28
280
     0
102
RTVSPost2010PropOp28
 70
     1
102
RTVSPost2010Prop29
280
     1
102
RTVSPost2010PropOp29
 70
     1
102
RTVSPost2010Prop30
280
     1
102
RTVSPost2010PropOp30
 70
     1
102
RTVSPost2010Prop31
280
     0
102
RTVSPost2010PropOp31
 70
     1
102
RTVSPost2010Prop32
280
     0
102
RTVSPost2010PropOp32
 70
     1
102
RTVSPost2010Prop33
280
     0
102
RTVSPost2010PropOp33
 70
     1
102
RTVSPost2010Prop34
280
     0
102
RTVSPost2010PropOp34
 70
     1
102
RTVSPost2010Prop35
280
     0
102
RTVSPost2010PropOp35
 70
     1
102
RTVSPost2010Prop36
280
     0
102
RTVSPost2010PropOp36
 70
     1
102
RTVSPost2010Prop37
 90
       50
102
RTVSPost2010PropOp37
 70
     1
102
RTVSPost2010Prop38
140
0.0
102
RTVSPost2010PropOp38
 70
     1
102
RTVSPost2010Prop39
140
1.0
102
RTVSPost2010PropOp39
 70
     1
102
RTVSPost2010Prop40
 90
        0
102
RTVSPost2010PropOp40
 70
     1
102
RTVSPost2010Prop41ColorIndex
 90
       18
102
RTVSPost2010Prop41ColorRGB
 90
        0
102
RTVSPost2010PropOp41
 70
     1
102
RTVSPost2010Prop42
 90
       50
102
RTVSPost2010PropOp42
 70
     1
102
RTVSPost2010Prop43
 90
        3
102
RTVSPost2010PropOp43
 70
     1
102
RTVSPost2010Prop44ColorIndex
 90
        5
102
RTVSPost2010Prop44ColorRGB
 90
      255
102
RTVSPost2010PropOp44
 70
     1
102
RTVSPost2010Prop45
280
     0
102
RTVSPost2010PropOp45
 70
     1
102
RTVSPost2010Prop46
 90
       50
102
RTVSPost2010PropOp46
 70
     1
102
RTVSPost2010Prop47
 90
       50
102
RTVSPost2010PropOp47
 70
     1
102
RTVSPost2010Prop48
 90
       50
102
RTVSPost2010PropOp48
 70
     1
102
RTVSPost2010Prop49
280
     0
102
RTVSPost2010PropOp49
 70
     1
102
RTVSPost2010Prop50
 90
       50
102
RTVSPost2010PropOp50
 70
     1
102
RTVSPost2010Prop51ColorIndex
 90
      256
102
RTVSPost2010Prop51ColorRGB
 90
-16777216
102
RTVSPost2010PropOp51
 70
     0
102
RTVSPost2010Prop52
140
1.0
102
RTVSPost2010PropOp52
 70
     0
102
RTVSPost2010Prop53
 90
        2
102
RTVSPost2010PropOp53
 70
     1
102
RTVSPost2010Prop54
  1
strokes_ogs.tif
102
RTVSPost2010PropOp54
 70
     1
102
RTVSPost2010Prop55
280
     0
102
RTVSPost2010PropOp55
 70
     1
102
RTVSPost2010Prop56
140
1.0
102
RTVSPost2010PropOp56
 70
     1
102
RTVSPost2010Prop57
140
1.0
102
RTVSPost2010PropOp57
 70
     1
102
RTVSPropertyOp0
 70
     1
102
RTVSPropertyOp1
 70
     1
102
RTVSPropertyOp2
 70
     1
102
RTVSPropertyOp3
 70
     1
102
RTVSPropertyOp4
 70
     1
102
RTVSPropertyOp5
 70
     1
102
RTVSPropertyOp6
 70
     1
102
RTVSPropertyOp7
 70
     1
102
RTVSPropertyOp8
 70
     1
102
RTVSPropertyOp9
 70
     1
102
RTVSPropertyOp10
 70
     1
102
RTVSPropertyOp11
 70
     1
102
RTVSPropertyOp12
 70
     1
102
RTVSPropertyOp13
 70
     1
102
RTVSPropertyOp14
 70
     1
102
RTVSPropertyOp15
 70
     1
102
RTVSPropertyOp16
 70
     1
102
RTVSPropertyOp17
 70
     1
102
RTVSPropertyOp18
 70
     1
102
RTVSPropertyOp19
 70
     1
102
RTVSPropertyOp20
 70
     1
102
RTVSPropertyOp21
 70
     1
102
RTVSPropertyOp22
 70
     1
102
RTVSPropertyOp23
 70
     1
102
RTVSPropertyOp24
 70
     1
102
RTVSPropertyOp25
 70
     1
102
RTVSPropertyOp26
 70
     1
102
RTVSPropertyOp27
 70
     1
102
RTVSPropertyOp28
 70
     1
102
RTVSPropertyOp29
 70
     1
102
RTVSPropertyOp30
 70
     1
102
RTVSPropertyOp31
 70
     1
102
RTVSPropertyOp32
 70
     1
102
RTVSPropertyOp33
 70
     1
102
RTVSPropertyOp34
 70
     1
102
RTVSPropertyOp35
 70
     1
102
RTVSPropertyOp36
 70
     1
102
RTVSPropertyOp37
 70
     1
102
RTVSPropertyOp38
 70
     1
102
RTVSPropertyOp39
 70
     1
102
RTVSPropertyOp40
 70
     1
102
RTVSPropertyOp41
 70
     1
102
RTVSPropertyOp42
 70
     1
102
RTVSPropertyOp43
 70
     1
102
RTVSPropertyOp44
 70
     1
102
RTVSPropertyOp45
 70
     1
102
RTVSPropertyOp46
 70
     1
102
RTVSPropertyOp47
 70
     1
102
RTVSPropertyOp48
 70
     1
102
RTVSPropertyOp49
 70
     1
102
RTVSPropertyOp50
 70
     1
102
RTVSPropertyOp51
 70
     0
102
RTVSPropertyOp52
 70
     0
102
RTVSPropertyOp53
 70
     1
102
RTVSPropertyOp54
 70
     1
102
RTVSPropertyOp55
 70
     1
102
RTVSPropertyOp56
 70
     1
102
RTVSPropertyOp57
 70
     1
102
RTVSPropertyOp58
 70
     1
102
RTVSPropertyOp59
 70
     1
102
RTVSPropertyOp60
 70
     1
102
RTVSPropertyOp61
 70
     1
102
RTVSPropertyOp62
 70
     1
  0
XRECORD
  5
73DD
102
{ACAD_REACTORS
330
73DC
102
}
330
73DC
100
AcDbXrecord
280
     1
102
RTVSPost2010Prop28
280
     0
102
RTVSPost2010PropOp28
 70
     1
102
RTVSPost2010Prop29
280
     1
102
RTVSPost2010PropOp29
 70
     1
102
RTVSPost2010Prop30
280
     1
102
RTVSPost2010PropOp30
 70
     1
102
RTVSPost2010Prop31
280
     0
102
RTVSPost2010PropOp31
 70
     1
102
RTVSPost2010Prop32
280
     0
102
RTVSPost2010PropOp32
 70
     1
102
RTVSPost2010Prop33
280
     0
102
RTVSPost2010PropOp33
 70
     1
102
RTVSPost2010Prop34
280
     0
102
RTVSPost2010PropOp34
 70
     1
102
RTVSPost2010Prop35
280
     0
102
RTVSPost2010PropOp35
 70
     1
102
RTVSPost2010Prop36
280
     0
102
RTVSPost2010PropOp36
 70
     1
102
RTVSPost2010Prop37
 90
       50
102
RTVSPost2010PropOp37
 70
     1
102
RTVSPost2010Prop38
140
0.0
102
RTVSPost2010PropOp38
 70
     1
102
RTVSPost2010Prop39
140
1.0
102
RTVSPost2010PropOp39
 70
     1
102
RTVSPost2010Prop40
 90
        0
102
RTVSPost2010PropOp40
 70
     1
102
RTVSPost2010Prop41ColorIndex
 90
       18
102
RTVSPost2010Prop41ColorRGB
 90
        0
102
RTVSPost2010PropOp41
 70
     1
102
RTVSPost2010Prop42
 90
       50
102
RTVSPost2010PropOp42
 70
     1
102
RTVSPost2010Prop43
 90
        3
102
RTVSPost2010PropOp43
 70
     1
102
RTVSPost2010Prop44ColorIndex
 90
        5
102
RTVSPost2010Prop44ColorRGB
 90
      255
102
RTVSPost2010PropOp44
 70
     1
102
RTVSPost2010Prop45
280
     0
102
RTVSPost2010PropOp45
 70
     1
102
RTVSPost2010Prop46
 90
       50
102
RTVSPost2010PropOp46
 70
     1
102
RTVSPost2010Prop47
 90
       50
102
RTVSPost2010PropOp47
 70
     1
102
RTVSPost2010Prop48
 90
       50
102
RTVSPost2010PropOp48
 70
     1
102
RTVSPost2010Prop49
280
     0
102
RTVSPost2010PropOp49
 70
     1
102
RTVSPost2010Prop50
 90
       50
102
RTVSPost2010PropOp50
 70
     1
102
RTVSPost2010Prop51ColorIndex
 90
      256
102
RTVSPost2010Prop51ColorRGB
 90
-16777216
102
RTVSPost2010PropOp51
 70
     0
102
RTVSPost2010Prop52
140
1.0
102
RTVSPost2010PropOp52
 70
     0
102
RTVSPost2010Prop53
 90
        2
102
RTVSPost2010PropOp53
 70
     1
102
RTVSPost2010Prop54
  1
strokes_ogs.tif
102
RTVSPost2010PropOp54
 70
     1
102
RTVSPost2010Prop55
280
     0
102
RTVSPost2010PropOp55
 70
     1
102
RTVSPost2010Prop56
140
1.0
102
RTVSPost2010PropOp56
 70
     1
102
RTVSPost2010Prop57
140
1.0
102
RTVSPost2010PropOp57
 70
     1
102
RTVSPropertyOp0
 70
     1
102
RTVSPropertyOp1
 70
     1
102
RTVSPropertyOp2
 70
     1
102
RTVSPropertyOp3
 70
     1
102
RTVSPropertyOp4
 70
     1
102
RTVSPropertyOp5
 70
     1
102
RTVSPropertyOp6
 70
     1
102
RTVSPropertyOp7
 70
     1
102
RTVSPropertyOp8
 70
     1
102
RTVSPropertyOp9
 70
     1
102
RTVSPropertyOp10
 70
     1
102
RTVSPropertyOp11
 70
     1
102
RTVSPropertyOp12
 70
     1
102
RTVSPropertyOp13
 70
     1
102
RTVSPropertyOp14
 70
     1
102
RTVSPropertyOp15
 70
     1
102
RTVSPropertyOp16
 70
     1
102
RTVSPropertyOp17
 70
     1
102
RTVSPropertyOp18
 70
     1
102
RTVSPropertyOp19
 70
     1
102
RTVSPropertyOp20
 70
     1
102
RTVSPropertyOp21
 70
     1
102
RTVSPropertyOp22
 70
     1
102
RTVSPropertyOp23
 70
     1
102
RTVSPropertyOp24
 70
     1
102
RTVSPropertyOp25
 70
     1
102
RTVSPropertyOp26
 70
     1
102
RTVSPropertyOp27
 70
     1
102
RTVSPropertyOp28
 70
     1
102
RTVSPropertyOp29
 70
     1
102
RTVSPropertyOp30
 70
     1
102
RTVSPropertyOp31
 70
     1
102
RTVSPropertyOp32
 70
     1
102
RTVSPropertyOp33
 70
     1
102
RTVSPropertyOp34
 70
     1
102
RTVSPropertyOp35
 70
     1
102
RTVSPropertyOp36
 70
     1
102
RTVSPropertyOp37
 70
     1
102
RTVSPropertyOp38
 70
     1
102
RTVSPropertyOp39
 70
     1
102
RTVSPropertyOp40
 70
     1
102
RTVSPropertyOp41
 70
     1
102
RTVSPropertyOp42
 70
     1
102
RTVSPropertyOp43
 70
     1
102
RTVSPropertyOp44
 70
     1
102
RTVSPropertyOp45
 70
     1
102
RTVSPropertyOp46
 70
     1
102
RTVSPropertyOp47
 70
     1
102
RTVSPropertyOp48
 70
     1
102
RTVSPropertyOp49
 70
     1
102
RTVSPropertyOp50
 70
     1
102
RTVSPropertyOp51
 70
     0
102
RTVSPropertyOp52
 70
     0
102
RTVSPropertyOp53
 70
     1
102
RTVSPropertyOp54
 70
     1
102
RTVSPropertyOp55
 70
     1
102
RTVSPropertyOp56
 70
     1
102
RTVSPropertyOp57
 70
     1
102
RTVSPropertyOp58
 70
     1
102
RTVSPropertyOp59
 70
     1
102
RTVSPropertyOp60
 70
     1
102
RTVSPropertyOp61
 70
     1
102
RTVSPropertyOp62
 70
     1
  0
XRECORD
  5
73DF
102
{ACAD_REACTORS
330
73DE
102
}
330
73DE
100
AcDbXrecord
280
     1
102
RTVSPost2010Prop28
280
     0
102
RTVSPost2010PropOp28
 70
     1
102
RTVSPost2010Prop29
280
     1
102
RTVSPost2010PropOp29
 70
     1
102
RTVSPost2010Prop30
280
     1
102
RTVSPost2010PropOp30
 70
     1
102
RTVSPost2010Prop31
280
     0
102
RTVSPost2010PropOp31
 70
     1
102
RTVSPost2010Prop32
280
     0
102
RTVSPost2010PropOp32
 70
     1
102
RTVSPost2010Prop33
280
     0
102
RTVSPost2010PropOp33
 70
     1
102
RTVSPost2010Prop34
280
     0
102
RTVSPost2010PropOp34
 70
     1
102
RTVSPost2010Prop35
280
     0
102
RTVSPost2010PropOp35
 70
     1
102
RTVSPost2010Prop36
280
     0
102
RTVSPost2010PropOp36
 70
     1
102
RTVSPost2010Prop37
 90
       50
102
RTVSPost2010PropOp37
 70
     1
102
RTVSPost2010Prop38
140
0.0
102
RTVSPost2010PropOp38
 70
     1
102
RTVSPost2010Prop39
140
1.0
102
RTVSPost2010PropOp39
 70
     1
102
RTVSPost2010Prop40
 90
        0
102
RTVSPost2010PropOp40
 70
     1
102
RTVSPost2010Prop41ColorIndex
 90
       18
102
RTVSPost2010Prop41ColorRGB
 90
        0
102
RTVSPost2010PropOp41
 70
     1
102
RTVSPost2010Prop42
 90
       50
102
RTVSPost2010PropOp42
 70
     1
102
RTVSPost2010Prop43
 90
        3
102
RTVSPost2010PropOp43
 70
     1
102
RTVSPost2010Prop44ColorIndex
 90
        5
102
RTVSPost2010Prop44ColorRGB
 90
      255
102
RTVSPost2010PropOp44
 70
     1
102
RTVSPost2010Prop45
280
     0
102
RTVSPost2010PropOp45
 70
     1
102
RTVSPost2010Prop46
 90
       50
102
RTVSPost2010PropOp46
 70
     1
102
RTVSPost2010Prop47
 90
       50
102
RTVSPost2010PropOp47
 70
     1
102
RTVSPost2010Prop48
 90
       50
102
RTVSPost2010PropOp48
 70
     1
102
RTVSPost2010Prop49
280
     0
102
RTVSPost2010PropOp49
 70
     1
102
RTVSPost2010Prop50
 90
       50
102
RTVSPost2010PropOp50
 70
     1
102
RTVSPost2010Prop51ColorIndex
 90
      256
102
RTVSPost2010Prop51ColorRGB
 90
-16777216
102
RTVSPost2010PropOp51
 70
     0
102
RTVSPost2010Prop52
140
1.0
102
RTVSPost2010PropOp52
 70
     0
102
RTVSPost2010Prop53
 90
        2
102
RTVSPost2010PropOp53
 70
     1
102
RTVSPost2010Prop54
  1
strokes_ogs.tif
102
RTVSPost2010PropOp54
 70
     1
102
RTVSPost2010Prop55
280
     0
102
RTVSPost2010PropOp55
 70
     1
102
RTVSPost2010Prop56
140
1.0
102
RTVSPost2010PropOp56
 70
     1
102
RTVSPost2010Prop57
140
1.0
102
RTVSPost2010PropOp57
 70
     1
102
RTVSPropertyOp0
 70
     1
102
RTVSPropertyOp1
 70
     1
102
RTVSPropertyOp2
 70
     1
102
RTVSPropertyOp3
 70
     1
102
RTVSPropertyOp4
 70
     1
102
RTVSPropertyOp5
 70
     1
102
RTVSPropertyOp6
 70
     1
102
RTVSPropertyOp7
 70
     1
102
RTVSPropertyOp8
 70
     1
102
RTVSPropertyOp9
 70
     1
102
RTVSPropertyOp10
 70
     1
102
RTVSPropertyOp11
 70
     1
102
RTVSPropertyOp12
 70
     1
102
RTVSPropertyOp13
 70
     1
102
RTVSPropertyOp14
 70
     1
102
RTVSPropertyOp15
 70
     1
102
RTVSPropertyOp16
 70
     1
102
RTVSPropertyOp17
 70
     1
102
RTVSPropertyOp18
 70
     1
102
RTVSPropertyOp19
 70
     1
102
RTVSPropertyOp20
 70
     1
102
RTVSPropertyOp21
 70
     1
102
RTVSPropertyOp22
 70
     1
102
RTVSPropertyOp23
 70
     1
102
RTVSPropertyOp24
 70
     1
102
RTVSPropertyOp25
 70
     1
102
RTVSPropertyOp26
 70
     1
102
RTVSPropertyOp27
 70
     1
102
RTVSPropertyOp28
 70
     1
102
RTVSPropertyOp29
 70
     1
102
RTVSPropertyOp30
 70
     1
102
RTVSPropertyOp31
 70
     1
102
RTVSPropertyOp32
 70
     1
102
RTVSPropertyOp33
 70
     1
102
RTVSPropertyOp34
 70
     1
102
RTVSPropertyOp35
 70
     1
102
RTVSPropertyOp36
 70
     1
102
RTVSPropertyOp37
 70
     1
102
RTVSPropertyOp38
 70
     1
102
RTVSPropertyOp39
 70
     1
102
RTVSPropertyOp40
 70
     1
102
RTVSPropertyOp41
 70
     1
102
RTVSPropertyOp42
 70
     1
102
RTVSPropertyOp43
 70
     1
102
RTVSPropertyOp44
 70
     1
102
RTVSPropertyOp45
 70
     1
102
RTVSPropertyOp46
 70
     1
102
RTVSPropertyOp47
 70
     1
102
RTVSPropertyOp48
 70
     1
102
RTVSPropertyOp49
 70
     1
102
RTVSPropertyOp50
 70
     1
102
RTVSPropertyOp51
 70
     0
102
RTVSPropertyOp52
 70
     0
102
RTVSPropertyOp53
 70
     1
102
RTVSPropertyOp54
 70
     1
102
RTVSPropertyOp55
 70
     1
102
RTVSPropertyOp56
 70
     1
102
RTVSPropertyOp57
 70
     1
102
RTVSPropertyOp58
 70
     1
102
RTVSPropertyOp59
 70
     1
102
RTVSPropertyOp60
 70
     1
102
RTVSPropertyOp61
 70
     1
102
RTVSPropertyOp62
 70
     1
  0
XRECORD
  5
73E7
102
{ACAD_REACTORS
330
73E6
102
}
330
73E6
100
AcDbXrecord
280
     1
102
RTVSPost2010Prop28
280
     0
102
RTVSPost2010PropOp28
 70
     1
102
RTVSPost2010Prop29
280
     1
102
RTVSPost2010PropOp29
 70
     1
102
RTVSPost2010Prop30
280
     1
102
RTVSPost2010PropOp30
 70
     1
102
RTVSPost2010Prop31
280
     0
102
RTVSPost2010PropOp31
 70
     1
102
RTVSPost2010Prop32
280
     0
102
RTVSPost2010PropOp32
 70
     1
102
RTVSPost2010Prop33
280
     0
102
RTVSPost2010PropOp33
 70
     1
102
RTVSPost2010Prop34
280
     0
102
RTVSPost2010PropOp34
 70
     1
102
RTVSPost2010Prop35
280
     0
102
RTVSPost2010PropOp35
 70
     1
102
RTVSPost2010Prop36
280
     0
102
RTVSPost2010PropOp36
 70
     1
102
RTVSPost2010Prop37
 90
       50
102
RTVSPost2010PropOp37
 70
     1
102
RTVSPost2010Prop38
140
0.0
102
RTVSPost2010PropOp38
 70
     1
102
RTVSPost2010Prop39
140
1.0
102
RTVSPost2010PropOp39
 70
     1
102
RTVSPost2010Prop40
 90
        0
102
RTVSPost2010PropOp40
 70
     1
102
RTVSPost2010Prop41ColorIndex
 90
       18
102
RTVSPost2010Prop41ColorRGB
 90
        0
102
RTVSPost2010PropOp41
 70
     1
102
RTVSPost2010Prop42
 90
       50
102
RTVSPost2010PropOp42
 70
     1
102
RTVSPost2010Prop43
 90
        3
102
RTVSPost2010PropOp43
 70
     1
102
RTVSPost2010Prop44ColorIndex
 90
        5
102
RTVSPost2010Prop44ColorRGB
 90
      255
102
RTVSPost2010PropOp44
 70
     1
102
RTVSPost2010Prop45
280
     0
102
RTVSPost2010PropOp45
 70
     1
102
RTVSPost2010Prop46
 90
       50
102
RTVSPost2010PropOp46
 70
     1
102
RTVSPost2010Prop47
 90
       50
102
RTVSPost2010PropOp47
 70
     1
102
RTVSPost2010Prop48
 90
       50
102
RTVSPost2010PropOp48
 70
     1
102
RTVSPost2010Prop49
280
     0
102
RTVSPost2010PropOp49
 70
     1
102
RTVSPost2010Prop50
 90
       50
102
RTVSPost2010PropOp50
 70
     1
102
RTVSPost2010Prop51ColorIndex
 90
      256
102
RTVSPost2010Prop51ColorRGB
 90
-16777216
102
RTVSPost2010PropOp51
 70
     0
102
RTVSPost2010Prop52
140
1.0
102
RTVSPost2010PropOp52
 70
     0
102
RTVSPost2010Prop53
 90
        2
102
RTVSPost2010PropOp53
 70
     1
102
RTVSPost2010Prop54
  1
strokes_ogs.tif
102
RTVSPost2010PropOp54
 70
     1
102
RTVSPost2010Prop55
280
     0
102
RTVSPost2010PropOp55
 70
     1
102
RTVSPost2010Prop56
140
1.0
102
RTVSPost2010PropOp56
 70
     1
102
RTVSPost2010Prop57
140
1.0
102
RTVSPost2010PropOp57
 70
     1
102
RTVSPropertyOp0
 70
     1
102
RTVSPropertyOp1
 70
     1
102
RTVSPropertyOp2
 70
     1
102
RTVSPropertyOp3
 70
     1
102
RTVSPropertyOp4
 70
     1
102
RTVSPropertyOp5
 70
     1
102
RTVSPropertyOp6
 70
     1
102
RTVSPropertyOp7
 70
     1
102
RTVSPropertyOp8
 70
     1
102
RTVSPropertyOp9
 70
     1
102
RTVSPropertyOp10
 70
     1
102
RTVSPropertyOp11
 70
     1
102
RTVSPropertyOp12
 70
     1
102
RTVSPropertyOp13
 70
     1
102
RTVSPropertyOp14
 70
     1
102
RTVSPropertyOp15
 70
     1
102
RTVSPropertyOp16
 70
     1
102
RTVSPropertyOp17
 70
     1
102
RTVSPropertyOp18
 70
     1
102
RTVSPropertyOp19
 70
     1
102
RTVSPropertyOp20
 70
     1
102
RTVSPropertyOp21
 70
     1
102
RTVSPropertyOp22
 70
     1
102
RTVSPropertyOp23
 70
     1
102
RTVSPropertyOp24
 70
     1
102
RTVSPropertyOp25
 70
     1
102
RTVSPropertyOp26
 70
     1
102
RTVSPropertyOp27
 70
     1
102
RTVSPropertyOp28
 70
     1
102
RTVSPropertyOp29
 70
     1
102
RTVSPropertyOp30
 70
     1
102
RTVSPropertyOp31
 70
     1
102
RTVSPropertyOp32
 70
     1
102
RTVSPropertyOp33
 70
     1
102
RTVSPropertyOp34
 70
     1
102
RTVSPropertyOp35
 70
     1
102
RTVSPropertyOp36
 70
     1
102
RTVSPropertyOp37
 70
     1
102
RTVSPropertyOp38
 70
     1
102
RTVSPropertyOp39
 70
     1
102
RTVSPropertyOp40
 70
     1
102
RTVSPropertyOp41
 70
     1
102
RTVSPropertyOp42
 70
     1
102
RTVSPropertyOp43
 70
     1
102
RTVSPropertyOp44
 70
     1
102
RTVSPropertyOp45
 70
     1
102
RTVSPropertyOp46
 70
     1
102
RTVSPropertyOp47
 70
     1
102
RTVSPropertyOp48
 70
     1
102
RTVSPropertyOp49
 70
     1
102
RTVSPropertyOp50
 70
     1
102
RTVSPropertyOp51
 70
     0
102
RTVSPropertyOp52
 70
     0
102
RTVSPropertyOp53
 70
     1
102
RTVSPropertyOp54
 70
     1
102
RTVSPropertyOp55
 70
     1
102
RTVSPropertyOp56
 70
     1
102
RTVSPropertyOp57
 70
     1
102
RTVSPropertyOp58
 70
     1
102
RTVSPropertyOp59
 70
     1
102
RTVSPropertyOp60
 70
     1
102
RTVSPropertyOp61
 70
     1
102
RTVSPropertyOp62
 70
     1
  0
XRECORD
  5
7403
102
{ACAD_REACTORS
330
7402
102
}
330
7402
100
AcDbXrecord
280
     1
102
RTVSPost2010Prop28
280
     0
102
RTVSPost2010PropOp28
 70
     1
102
RTVSPost2010Prop29
280
     1
102
RTVSPost2010PropOp29
 70
     1
102
RTVSPost2010Prop30
280
     1
102
RTVSPost2010PropOp30
 70
     1
102
RTVSPost2010Prop31
280
     0
102
RTVSPost2010PropOp31
 70
     1
102
RTVSPost2010Prop32
280
     0
102
RTVSPost2010PropOp32
 70
     1
102
RTVSPost2010Prop33
280
     0
102
RTVSPost2010PropOp33
 70
     1
102
RTVSPost2010Prop34
280
     0
102
RTVSPost2010PropOp34
 70
     1
102
RTVSPost2010Prop35
280
     0
102
RTVSPost2010PropOp35
 70
     1
102
RTVSPost2010Prop36
280
     0
102
RTVSPost2010PropOp36
 70
     1
102
RTVSPost2010Prop37
 90
       50
102
RTVSPost2010PropOp37
 70
     0
102
RTVSPost2010Prop38
140
0.0
102
RTVSPost2010PropOp38
 70
     0
102
RTVSPost2010Prop39
140
1.0
102
RTVSPost2010PropOp39
 70
     0
102
RTVSPost2010Prop40
 90
        0
102
RTVSPost2010PropOp40
 70
     0
102
RTVSPost2010Prop41ColorIndex
 90
       18
102
RTVSPost2010Prop41ColorRGB
 90
        0
102
RTVSPost2010PropOp41
 70
     0
102
RTVSPost2010Prop42
 90
       50
102
RTVSPost2010PropOp42
 70
     0
102
RTVSPost2010Prop43
 90
        3
102
RTVSPost2010PropOp43
 70
     0
102
RTVSPost2010Prop44ColorIndex
 90
        5
102
RTVSPost2010Prop44ColorRGB
 90
      255
102
RTVSPost2010PropOp44
 70
     0
102
RTVSPost2010Prop45
280
     0
102
RTVSPost2010PropOp45
 70
     1
102
RTVSPost2010Prop46
 90
       50
102
RTVSPost2010PropOp46
 70
     0
102
RTVSPost2010Prop47
 90
       50
102
RTVSPost2010PropOp47
 70
     0
102
RTVSPost2010Prop48
 90
       50
102
RTVSPost2010PropOp48
 70
     0
102
RTVSPost2010Prop49
280
     0
102
RTVSPost2010PropOp49
 70
     1
102
RTVSPost2010Prop50
 90
       50
102
RTVSPost2010PropOp50
 70
     0
102
RTVSPost2010Prop51ColorIndex
 90
      256
102
RTVSPost2010Prop51ColorRGB
 90
-16777216
102
RTVSPost2010PropOp51
 70
     0
102
RTVSPost2010Prop52
140
1.0
102
RTVSPost2010PropOp52
 70
     0
102
RTVSPost2010Prop53
 90
        2
102
RTVSPost2010PropOp53
 70
     0
102
RTVSPost2010Prop54
  1
strokes_ogs.tif
102
RTVSPost2010PropOp54
 70
     0
102
RTVSPost2010Prop55
280
     0
102
RTVSPost2010PropOp55
 70
     1
102
RTVSPost2010Prop56
140
1.0
102
RTVSPost2010PropOp56
 70
     0
102
RTVSPost2010Prop57
140
1.0
102
RTVSPost2010PropOp57
 70
     0
102
RTVSPropertyOp0
 70
     0
102
RTVSPropertyOp1
 70
     0
102
RTVSPropertyOp2
 70
     0
102
RTVSPropertyOp3
 70
     0
102
RTVSPropertyOp4
 70
     0
102
RTVSPropertyOp5
 70
     0
102
RTVSPropertyOp6
 70
     0
102
RTVSPropertyOp7
 70
     0
102
RTVSPropertyOp8
 70
     0
102
RTVSPropertyOp9
 70
     0
102
RTVSPropertyOp10
 70
     0
102
RTVSPropertyOp11
 70
     0
102
RTVSPropertyOp12
 70
     0
102
RTVSPropertyOp13
 70
     0
102
RTVSPropertyOp14
 70
     2
102
RTVSPropertyOp15
 70
     0
102
RTVSPropertyOp16
 70
     0
102
RTVSPropertyOp17
 70
     0
102
RTVSPropertyOp18
 70
     0
102
RTVSPropertyOp19
 70
     0
102
RTVSPropertyOp20
 70
     0
102
RTVSPropertyOp21
 70
     0
102
RTVSPropertyOp22
 70
     0
102
RTVSPropertyOp23
 70
     0
102
RTVSPropertyOp24
 70
     0
102
RTVSPropertyOp25
 70
     0
102
RTVSPropertyOp26
 70
     0
102
RTVSPropertyOp27
 70
     0
102
RTVSPropertyOp28
 70
     1
102
RTVSPropertyOp29
 70
     1
102
RTVSPropertyOp30
 70
     1
102
RTVSPropertyOp31
 70
     1
102
RTVSPropertyOp32
 70
     1
102
RTVSPropertyOp33
 70
     1
102
RTVSPropertyOp34
 70
     1
102
RTVSPropertyOp35
 70
     1
102
RTVSPropertyOp36
 70
     1
102
RTVSPropertyOp37
 70
     0
102
RTVSPropertyOp38
 70
     0
102
RTVSPropertyOp39
 70
     0
102
RTVSPropertyOp40
 70
     0
102
RTVSPropertyOp41
 70
     0
102
RTVSPropertyOp42
 70
     0
102
RTVSPropertyOp43
 70
     0
102
RTVSPropertyOp44
 70
     0
102
RTVSPropertyOp45
 70
     1
102
RTVSPropertyOp46
 70
     0
102
RTVSPropertyOp47
 70
     0
102
RTVSPropertyOp48
 70
     0
102
RTVSPropertyOp49
 70
     1
102
RTVSPropertyOp50
 70
     0
102
RTVSPropertyOp51
 70
     0
102
RTVSPropertyOp52
 70
     0
102
RTVSPropertyOp53
 70
     0
102
RTVSPropertyOp54
 70
     0
102
RTVSPropertyOp55
 70
     1
102
RTVSPropertyOp56
 70
     0
102
RTVSPropertyOp57
 70
     0
102
RTVSPropertyOp58
 70
     0
102
RTVSPropertyOp59
 70
     0
102
RTVSPropertyOp60
 70
     0
102
RTVSPropertyOp61
 70
     0
102
RTVSPropertyOp62
 70
     0
  0
XRECORD
  5
73F3
102
{ACAD_REACTORS
330
73F2
102
}
330
73F2
100
AcDbXrecord
280
     1
102
RTVSPost2010Prop28
280
     0
102
RTVSPost2010PropOp28
 70
     1
102
RTVSPost2010Prop29
280
     1
102
RTVSPost2010PropOp29
 70
     1
102
RTVSPost2010Prop30
280
     1
102
RTVSPost2010PropOp30
 70
     1
102
RTVSPost2010Prop31
280
     0
102
RTVSPost2010PropOp31
 70
     1
102
RTVSPost2010Prop32
280
     0
102
RTVSPost2010PropOp32
 70
     1
102
RTVSPost2010Prop33
280
     0
102
RTVSPost2010PropOp33
 70
     1
102
RTVSPost2010Prop34
280
     0
102
RTVSPost2010PropOp34
 70
     1
102
RTVSPost2010Prop35
280
     0
102
RTVSPost2010PropOp35
 70
     1
102
RTVSPost2010Prop36
280
     0
102
RTVSPost2010PropOp36
 70
     1
102
RTVSPost2010Prop37
 90
       50
102
RTVSPost2010PropOp37
 70
     1
102
RTVSPost2010Prop38
140
0.0
102
RTVSPost2010PropOp38
 70
     1
102
RTVSPost2010Prop39
140
1.0
102
RTVSPost2010PropOp39
 70
     1
102
RTVSPost2010Prop40
 90
        0
102
RTVSPost2010PropOp40
 70
     1
102
RTVSPost2010Prop41ColorIndex
 90
       18
102
RTVSPost2010Prop41ColorRGB
 90
        0
102
RTVSPost2010PropOp41
 70
     1
102
RTVSPost2010Prop42
 90
       50
102
RTVSPost2010PropOp42
 70
     1
102
RTVSPost2010Prop43
 90
        3
102
RTVSPost2010PropOp43
 70
     1
102
RTVSPost2010Prop44ColorIndex
 90
        5
102
RTVSPost2010Prop44ColorRGB
 90
      255
102
RTVSPost2010PropOp44
 70
     1
102
RTVSPost2010Prop45
280
     0
102
RTVSPost2010PropOp45
 70
     1
102
RTVSPost2010Prop46
 90
       50
102
RTVSPost2010PropOp46
 70
     1
102
RTVSPost2010Prop47
 90
       50
102
RTVSPost2010PropOp47
 70
     1
102
RTVSPost2010Prop48
 90
       50
102
RTVSPost2010PropOp48
 70
     1
102
RTVSPost2010Prop49
280
     0
102
RTVSPost2010PropOp49
 70
     1
102
RTVSPost2010Prop50
 90
       50
102
RTVSPost2010PropOp50
 70
     1
102
RTVSPost2010Prop51ColorIndex
 90
      256
102
RTVSPost2010Prop51ColorRGB
 90
-16777216
102
RTVSPost2010PropOp51
 70
     0
102
RTVSPost2010Prop52
140
1.0
102
RTVSPost2010PropOp52
 70
     0
102
RTVSPost2010Prop53
 90
        2
102
RTVSPost2010PropOp53
 70
     1
102
RTVSPost2010Prop54
  1
strokes_ogs.tif
102
RTVSPost2010PropOp54
 70
     1
102
RTVSPost2010Prop55
280
     0
102
RTVSPost2010PropOp55
 70
     1
102
RTVSPost2010Prop56
140
1.0
102
RTVSPost2010PropOp56
 70
     1
102
RTVSPost2010Prop57
140
1.0
102
RTVSPost2010PropOp57
 70
     1
102
RTVSPropertyOp0
 70
     1
102
RTVSPropertyOp1
 70
     1
102
RTVSPropertyOp2
 70
     1
102
RTVSPropertyOp3
 70
     1
102
RTVSPropertyOp4
 70
     1
102
RTVSPropertyOp5
 70
     1
102
RTVSPropertyOp6
 70
     1
102
RTVSPropertyOp7
 70
     1
102
RTVSPropertyOp8
 70
     1
102
RTVSPropertyOp9
 70
     1
102
RTVSPropertyOp10
 70
     1
102
RTVSPropertyOp11
 70
     1
102
RTVSPropertyOp12
 70
     1
102
RTVSPropertyOp13
 70
     1
102
RTVSPropertyOp14
 70
     1
102
RTVSPropertyOp15
 70
     1
102
RTVSPropertyOp16
 70
     1
102
RTVSPropertyOp17
 70
     1
102
RTVSPropertyOp18
 70
     1
102
RTVSPropertyOp19
 70
     1
102
RTVSPropertyOp20
 70
     1
102
RTVSPropertyOp21
 70
     1
102
RTVSPropertyOp22
 70
     1
102
RTVSPropertyOp23
 70
     1
102
RTVSPropertyOp24
 70
     1
102
RTVSPropertyOp25
 70
     1
102
RTVSPropertyOp26
 70
     1
102
RTVSPropertyOp27
 70
     1
102
RTVSPropertyOp28
 70
     1
102
RTVSPropertyOp29
 70
     1
102
RTVSPropertyOp30
 70
     1
102
RTVSPropertyOp31
 70
     1
102
RTVSPropertyOp32
 70
     1
102
RTVSPropertyOp33
 70
     1
102
RTVSPropertyOp34
 70
     1
102
RTVSPropertyOp35
 70
     1
102
RTVSPropertyOp36
 70
     1
102
RTVSPropertyOp37
 70
     1
102
RTVSPropertyOp38
 70
     1
102
RTVSPropertyOp39
 70
     1
102
RTVSPropertyOp40
 70
     1
102
RTVSPropertyOp41
 70
     1
102
RTVSPropertyOp42
 70
     1
102
RTVSPropertyOp43
 70
     1
102
RTVSPropertyOp44
 70
     1
102
RTVSPropertyOp45
 70
     1
102
RTVSPropertyOp46
 70
     1
102
RTVSPropertyOp47
 70
     1
102
RTVSPropertyOp48
 70
     1
102
RTVSPropertyOp49
 70
     1
102
RTVSPropertyOp50
 70
     1
102
RTVSPropertyOp51
 70
     0
102
RTVSPropertyOp52
 70
     0
102
RTVSPropertyOp53
 70
     1
102
RTVSPropertyOp54
 70
     1
102
RTVSPropertyOp55
 70
     1
102
RTVSPropertyOp56
 70
     1
102
RTVSPropertyOp57
 70
     1
102
RTVSPropertyOp58
 70
     1
102
RTVSPropertyOp59
 70
     1
102
RTVSPropertyOp60
 70
     1
102
RTVSPropertyOp61
 70
     1
102
RTVSPropertyOp62
 70
     1
  0
XRECORD
  5
7405
102
{ACAD_REACTORS
330
7404
102
}
330
7404
100
AcDbXrecord
280
     1
102
RTVSPost2010Prop28
280
     0
102
RTVSPost2010PropOp28
 70
     1
102
RTVSPost2010Prop29
280
     1
102
RTVSPost2010PropOp29
 70
     1
102
RTVSPost2010Prop30
280
     1
102
RTVSPost2010PropOp30
 70
     1
102
RTVSPost2010Prop31
280
     0
102
RTVSPost2010PropOp31
 70
     1
102
RTVSPost2010Prop32
280
     0
102
RTVSPost2010PropOp32
 70
     1
102
RTVSPost2010Prop33
280
     0
102
RTVSPost2010PropOp33
 70
     1
102
RTVSPost2010Prop34
280
     0
102
RTVSPost2010PropOp34
 70
     1
102
RTVSPost2010Prop35
280
     0
102
RTVSPost2010PropOp35
 70
     1
102
RTVSPost2010Prop36
280
     0
102
RTVSPost2010PropOp36
 70
     1
102
RTVSPost2010Prop37
 90
       50
102
RTVSPost2010PropOp37
 70
     0
102
RTVSPost2010Prop38
140
0.0
102
RTVSPost2010PropOp38
 70
     0
102
RTVSPost2010Prop39
140
1.0
102
RTVSPost2010PropOp39
 70
     0
102
RTVSPost2010Prop40
 90
        0
102
RTVSPost2010PropOp40
 70
     0
102
RTVSPost2010Prop41ColorIndex
 90
       18
102
RTVSPost2010Prop41ColorRGB
 90
        0
102
RTVSPost2010PropOp41
 70
     0
102
RTVSPost2010Prop42
 90
       50
102
RTVSPost2010PropOp42
 70
     0
102
RTVSPost2010Prop43
 90
        3
102
RTVSPost2010PropOp43
 70
     0
102
RTVSPost2010Prop44ColorIndex
 90
        5
102
RTVSPost2010Prop44ColorRGB
 90
      255
102
RTVSPost2010PropOp44
 70
     0
102
RTVSPost2010Prop45
280
     0
102
RTVSPost2010PropOp45
 70
     1
102
RTVSPost2010Prop46
 90
       50
102
RTVSPost2010PropOp46
 70
     0
102
RTVSPost2010Prop47
 90
       50
102
RTVSPost2010PropOp47
 70
     0
102
RTVSPost2010Prop48
 90
       50
102
RTVSPost2010PropOp48
 70
     0
102
RTVSPost2010Prop49
280
     0
102
RTVSPost2010PropOp49
 70
     1
102
RTVSPost2010Prop50
 90
       50
102
RTVSPost2010PropOp50
 70
     0
102
RTVSPost2010Prop51ColorIndex
 90
      256
102
RTVSPost2010Prop51ColorRGB
 90
-16777216
102
RTVSPost2010PropOp51
 70
     0
102
RTVSPost2010Prop52
140
1.0
102
RTVSPost2010PropOp52
 70
     0
102
RTVSPost2010Prop53
 90
        2
102
RTVSPost2010PropOp53
 70
     0
102
RTVSPost2010Prop54
  1
strokes_ogs.tif
102
RTVSPost2010PropOp54
 70
     0
102
RTVSPost2010Prop55
280
     0
102
RTVSPost2010PropOp55
 70
     1
102
RTVSPost2010Prop56
140
1.0
102
RTVSPost2010PropOp56
 70
     0
102
RTVSPost2010Prop57
140
1.0
102
RTVSPost2010PropOp57
 70
     0
102
RTVSPropertyOp0
 70
     0
102
RTVSPropertyOp1
 70
     0
102
RTVSPropertyOp2
 70
     0
102
RTVSPropertyOp3
 70
     0
102
RTVSPropertyOp4
 70
     0
102
RTVSPropertyOp5
 70
     0
102
RTVSPropertyOp6
 70
     0
102
RTVSPropertyOp7
 70
     0
102
RTVSPropertyOp8
 70
     0
102
RTVSPropertyOp9
 70
     0
102
RTVSPropertyOp10
 70
     0
102
RTVSPropertyOp11
 70
     0
102
RTVSPropertyOp12
 70
     0
102
RTVSPropertyOp13
 70
     0
102
RTVSPropertyOp14
 70
     2
102
RTVSPropertyOp15
 70
     0
102
RTVSPropertyOp16
 70
     0
102
RTVSPropertyOp17
 70
     0
102
RTVSPropertyOp18
 70
     0
102
RTVSPropertyOp19
 70
     0
102
RTVSPropertyOp20
 70
     0
102
RTVSPropertyOp21
 70
     0
102
RTVSPropertyOp22
 70
     0
102
RTVSPropertyOp23
 70
     0
102
RTVSPropertyOp24
 70
     0
102
RTVSPropertyOp25
 70
     0
102
RTVSPropertyOp26
 70
     0
102
RTVSPropertyOp27
 70
     0
102
RTVSPropertyOp28
 70
     1
102
RTVSPropertyOp29
 70
     1
102
RTVSPropertyOp30
 70
     1
102
RTVSPropertyOp31
 70
     1
102
RTVSPropertyOp32
 70
     1
102
RTVSPropertyOp33
 70
     1
102
RTVSPropertyOp34
 70
     1
102
RTVSPropertyOp35
 70
     1
102
RTVSPropertyOp36
 70
     1
102
RTVSPropertyOp37
 70
     0
102
RTVSPropertyOp38
 70
     0
102
RTVSPropertyOp39
 70
     0
102
RTVSPropertyOp40
 70
     0
102
RTVSPropertyOp41
 70
     0
102
RTVSPropertyOp42
 70
     0
102
RTVSPropertyOp43
 70
     0
102
RTVSPropertyOp44
 70
     0
102
RTVSPropertyOp45
 70
     1
102
RTVSPropertyOp46
 70
     0
102
RTVSPropertyOp47
 70
     0
102
RTVSPropertyOp48
 70
     0
102
RTVSPropertyOp49
 70
     1
102
RTVSPropertyOp50
 70
     0
102
RTVSPropertyOp51
 70
     0
102
RTVSPropertyOp52
 70
     0
102
RTVSPropertyOp53
 70
     0
102
RTVSPropertyOp54
 70
     0
102
RTVSPropertyOp55
 70
     1
102
RTVSPropertyOp56
 70
     0
102
RTVSPropertyOp57
 70
     0
102
RTVSPropertyOp58
 70
     0
102
RTVSPropertyOp59
 70
     0
102
RTVSPropertyOp60
 70
     0
102
RTVSPropertyOp61
 70
     0
102
RTVSPropertyOp62
 70
     0
  0
XRECORD
  5
73EB
102
{ACAD_REACTORS
330
73EA
102
}
330
73EA
100
AcDbXrecord
280
     1
102
RTVSPost2010Prop28
280
     0
102
RTVSPost2010PropOp28
 70
     1
102
RTVSPost2010Prop29
280
     1
102
RTVSPost2010PropOp29
 70
     1
102
RTVSPost2010Prop30
280
     1
102
RTVSPost2010PropOp30
 70
     1
102
RTVSPost2010Prop31
280
     0
102
RTVSPost2010PropOp31
 70
     1
102
RTVSPost2010Prop32
280
     0
102
RTVSPost2010PropOp32
 70
     1
102
RTVSPost2010Prop33
280
     0
102
RTVSPost2010PropOp33
 70
     1
102
RTVSPost2010Prop34
280
     0
102
RTVSPost2010PropOp34
 70
     1
102
RTVSPost2010Prop35
280
     0
102
RTVSPost2010PropOp35
 70
     1
102
RTVSPost2010Prop36
280
     0
102
RTVSPost2010PropOp36
 70
     1
102
RTVSPost2010Prop37
 90
       50
102
RTVSPost2010PropOp37
 70
     1
102
RTVSPost2010Prop38
140
0.0
102
RTVSPost2010PropOp38
 70
     1
102
RTVSPost2010Prop39
140
1.0
102
RTVSPost2010PropOp39
 70
     1
102
RTVSPost2010Prop40
 90
        0
102
RTVSPost2010PropOp40
 70
     1
102
RTVSPost2010Prop41ColorIndex
 90
       18
102
RTVSPost2010Prop41ColorRGB
 90
        0
102
RTVSPost2010PropOp41
 70
     1
102
RTVSPost2010Prop42
 90
       50
102
RTVSPost2010PropOp42
 70
     1
102
RTVSPost2010Prop43
 90
        3
102
RTVSPost2010PropOp43
 70
     1
102
RTVSPost2010Prop44ColorIndex
 90
        5
102
RTVSPost2010Prop44ColorRGB
 90
      255
102
RTVSPost2010PropOp44
 70
     1
102
RTVSPost2010Prop45
280
     0
102
RTVSPost2010PropOp45
 70
     1
102
RTVSPost2010Prop46
 90
       50
102
RTVSPost2010PropOp46
 70
     1
102
RTVSPost2010Prop47
 90
       50
102
RTVSPost2010PropOp47
 70
     1
102
RTVSPost2010Prop48
 90
       50
102
RTVSPost2010PropOp48
 70
     1
102
RTVSPost2010Prop49
280
     0
102
RTVSPost2010PropOp49
 70
     1
102
RTVSPost2010Prop50
 90
       50
102
RTVSPost2010PropOp50
 70
     1
102
RTVSPost2010Prop51ColorIndex
 90
      256
102
RTVSPost2010Prop51ColorRGB
 90
-16777216
102
RTVSPost2010PropOp51
 70
     0
102
RTVSPost2010Prop52
140
1.0
102
RTVSPost2010PropOp52
 70
     0
102
RTVSPost2010Prop53
 90
        2
102
RTVSPost2010PropOp53
 70
     1
102
RTVSPost2010Prop54
  1
strokes_ogs.tif
102
RTVSPost2010PropOp54
 70
     1
102
RTVSPost2010Prop55
280
     0
102
RTVSPost2010PropOp55
 70
     1
102
RTVSPost2010Prop56
140
1.0
102
RTVSPost2010PropOp56
 70
     1
102
RTVSPost2010Prop57
140
1.0
102
RTVSPost2010PropOp57
 70
     1
102
RTVSPropertyOp0
 70
     1
102
RTVSPropertyOp1
 70
     1
102
RTVSPropertyOp2
 70
     1
102
RTVSPropertyOp3
 70
     1
102
RTVSPropertyOp4
 70
     1
102
RTVSPropertyOp5
 70
     1
102
RTVSPropertyOp6
 70
     1
102
RTVSPropertyOp7
 70
     1
102
RTVSPropertyOp8
 70
     1
102
RTVSPropertyOp9
 70
     1
102
RTVSPropertyOp10
 70
     1
102
RTVSPropertyOp11
 70
     1
102
RTVSPropertyOp12
 70
     1
102
RTVSPropertyOp13
 70
     1
102
RTVSPropertyOp14
 70
     1
102
RTVSPropertyOp15
 70
     1
102
RTVSPropertyOp16
 70
     1
102
RTVSPropertyOp17
 70
     1
102
RTVSPropertyOp18
 70
     1
102
RTVSPropertyOp19
 70
     1
102
RTVSPropertyOp20
 70
     1
102
RTVSPropertyOp21
 70
     1
102
RTVSPropertyOp22
 70
     1
102
RTVSPropertyOp23
 70
     1
102
RTVSPropertyOp24
 70
     1
102
RTVSPropertyOp25
 70
     1
102
RTVSPropertyOp26
 70
     1
102
RTVSPropertyOp27
 70
     1
102
RTVSPropertyOp28
 70
     1
102
RTVSPropertyOp29
 70
     1
102
RTVSPropertyOp30
 70
     1
102
RTVSPropertyOp31
 70
     1
102
RTVSPropertyOp32
 70
     1
102
RTVSPropertyOp33
 70
     1
102
RTVSPropertyOp34
 70
     1
102
RTVSPropertyOp35
 70
     1
102
RTVSPropertyOp36
 70
     1
102
RTVSPropertyOp37
 70
     1
102
RTVSPropertyOp38
 70
     1
102
RTVSPropertyOp39
 70
     1
102
RTVSPropertyOp40
 70
     1
102
RTVSPropertyOp41
 70
     1
102
RTVSPropertyOp42
 70
     1
102
RTVSPropertyOp43
 70
     1
102
RTVSPropertyOp44
 70
     1
102
RTVSPropertyOp45
 70
     1
102
RTVSPropertyOp46
 70
     1
102
RTVSPropertyOp47
 70
     1
102
RTVSPropertyOp48
 70
     1
102
RTVSPropertyOp49
 70
     1
102
RTVSPropertyOp50
 70
     1
102
RTVSPropertyOp51
 70
     0
102
RTVSPropertyOp52
 70
     0
102
RTVSPropertyOp53
 70
     1
102
RTVSPropertyOp54
 70
     1
102
RTVSPropertyOp55
 70
     1
102
RTVSPropertyOp56
 70
     1
102
RTVSPropertyOp57
 70
     1
102
RTVSPropertyOp58
 70
     1
102
RTVSPropertyOp59
 70
     1
102
RTVSPropertyOp60
 70
     1
102
RTVSPropertyOp61
 70
     1
102
RTVSPropertyOp62
 70
     1
  0
XRECORD
  5
7401
102
{ACAD_REACTORS
330
7400
102
}
330
7400
100
AcDbXrecord
280
     1
102
RTVSPost2010Prop28
280
     0
102
RTVSPost2010PropOp28
 70
     1
102
RTVSPost2010Prop29
280
     1
102
RTVSPost2010PropOp29
 70
     1
102
RTVSPost2010Prop30
280
     1
102
RTVSPost2010PropOp30
 70
     1
102
RTVSPost2010Prop31
280
     0
102
RTVSPost2010PropOp31
 70
     1
102
RTVSPost2010Prop32
280
     0
102
RTVSPost2010PropOp32
 70
     1
102
RTVSPost2010Prop33
280
     0
102
RTVSPost2010PropOp33
 70
     1
102
RTVSPost2010Prop34
280
     0
102
RTVSPost2010PropOp34
 70
     1
102
RTVSPost2010Prop35
280
     0
102
RTVSPost2010PropOp35
 70
     1
102
RTVSPost2010Prop36
280
     0
102
RTVSPost2010PropOp36
 70
     1
102
RTVSPost2010Prop37
 90
       50
102
RTVSPost2010PropOp37
 70
     1
102
RTVSPost2010Prop38
140
0.0
102
RTVSPost2010PropOp38
 70
     1
102
RTVSPost2010Prop39
140
1.0
102
RTVSPost2010PropOp39
 70
     1
102
RTVSPost2010Prop40
 90
        0
102
RTVSPost2010PropOp40
 70
     1
102
RTVSPost2010Prop41ColorIndex
 90
       18
102
RTVSPost2010Prop41ColorRGB
 90
        0
102
RTVSPost2010PropOp41
 70
     1
102
RTVSPost2010Prop42
 90
       50
102
RTVSPost2010PropOp42
 70
     1
102
RTVSPost2010Prop43
 90
        3
102
RTVSPost2010PropOp43
 70
     1
102
RTVSPost2010Prop44ColorIndex
 90
        5
102
RTVSPost2010Prop44ColorRGB
 90
      255
102
RTVSPost2010PropOp44
 70
     1
102
RTVSPost2010Prop45
280
     0
102
RTVSPost2010PropOp45
 70
     1
102
RTVSPost2010Prop46
 90
       50
102
RTVSPost2010PropOp46
 70
     1
102
RTVSPost2010Prop47
 90
       50
102
RTVSPost2010PropOp47
 70
     1
102
RTVSPost2010Prop48
 90
       50
102
RTVSPost2010PropOp48
 70
     1
102
RTVSPost2010Prop49
280
     0
102
RTVSPost2010PropOp49
 70
     1
102
RTVSPost2010Prop50
 90
       50
102
RTVSPost2010PropOp50
 70
     1
102
RTVSPost2010Prop51ColorIndex
 90
      256
102
RTVSPost2010Prop51ColorRGB
 90
-16777216
102
RTVSPost2010PropOp51
 70
     0
102
RTVSPost2010Prop52
140
1.0
102
RTVSPost2010PropOp52
 70
     0
102
RTVSPost2010Prop53
 90
        2
102
RTVSPost2010PropOp53
 70
     1
102
RTVSPost2010Prop54
  1
strokes_ogs.tif
102
RTVSPost2010PropOp54
 70
     1
102
RTVSPost2010Prop55
280
     0
102
RTVSPost2010PropOp55
 70
     1
102
RTVSPost2010Prop56
140
1.0
102
RTVSPost2010PropOp56
 70
     1
102
RTVSPost2010Prop57
140
1.0
102
RTVSPost2010PropOp57
 70
     1
102
RTVSPropertyOp0
 70
     1
102
RTVSPropertyOp1
 70
     1
102
RTVSPropertyOp2
 70
     1
102
RTVSPropertyOp3
 70
     1
102
RTVSPropertyOp4
 70
     1
102
RTVSPropertyOp5
 70
     1
102
RTVSPropertyOp6
 70
     1
102
RTVSPropertyOp7
 70
     1
102
RTVSPropertyOp8
 70
     1
102
RTVSPropertyOp9
 70
     1
102
RTVSPropertyOp10
 70
     1
102
RTVSPropertyOp11
 70
     1
102
RTVSPropertyOp12
 70
     1
102
RTVSPropertyOp13
 70
     1
102
RTVSPropertyOp14
 70
     1
102
RTVSPropertyOp15
 70
     1
102
RTVSPropertyOp16
 70
     1
102
RTVSPropertyOp17
 70
     1
102
RTVSPropertyOp18
 70
     1
102
RTVSPropertyOp19
 70
     1
102
RTVSPropertyOp20
 70
     1
102
RTVSPropertyOp21
 70
     1
102
RTVSPropertyOp22
 70
     1
102
RTVSPropertyOp23
 70
     1
102
RTVSPropertyOp24
 70
     1
102
RTVSPropertyOp25
 70
     1
102
RTVSPropertyOp26
 70
     1
102
RTVSPropertyOp27
 70
     1
102
RTVSPropertyOp28
 70
     1
102
RTVSPropertyOp29
 70
     1
102
RTVSPropertyOp30
 70
     1
102
RTVSPropertyOp31
 70
     1
102
RTVSPropertyOp32
 70
     1
102
RTVSPropertyOp33
 70
     1
102
RTVSPropertyOp34
 70
     1
102
RTVSPropertyOp35
 70
     1
102
RTVSPropertyOp36
 70
     1
102
RTVSPropertyOp37
 70
     1
102
RTVSPropertyOp38
 70
     1
102
RTVSPropertyOp39
 70
     1
102
RTVSPropertyOp40
 70
     1
102
RTVSPropertyOp41
 70
     1
102
RTVSPropertyOp42
 70
     1
102
RTVSPropertyOp43
 70
     1
102
RTVSPropertyOp44
 70
     1
102
RTVSPropertyOp45
 70
     1
102
RTVSPropertyOp46
 70
     1
102
RTVSPropertyOp47
 70
     1
102
RTVSPropertyOp48
 70
     1
102
RTVSPropertyOp49
 70
     1
102
RTVSPropertyOp50
 70
     1
102
RTVSPropertyOp51
 70
     0
102
RTVSPropertyOp52
 70
     0
102
RTVSPropertyOp53
 70
     1
102
RTVSPropertyOp54
 70
     1
102
RTVSPropertyOp55
 70
     1
102
RTVSPropertyOp56
 70
     1
102
RTVSPropertyOp57
 70
     1
102
RTVSPropertyOp58
 70
     1
102
RTVSPropertyOp59
 70
     1
102
RTVSPropertyOp60
 70
     1
102
RTVSPropertyOp61
 70
     1
102
RTVSPropertyOp62
 70
     1
  0
XRECORD
  5
73FF
102
{ACAD_REACTORS
330
73FE
102
}
330
73FE
100
AcDbXrecord
280
     1
102
RTVSPost2010Prop28
280
     0
102
RTVSPost2010PropOp28
 70
     1
102
RTVSPost2010Prop29
280
     1
102
RTVSPost2010PropOp29
 70
     1
102
RTVSPost2010Prop30
280
     1
102
RTVSPost2010PropOp30
 70
     1
102
RTVSPost2010Prop31
280
     0
102
RTVSPost2010PropOp31
 70
     1
102
RTVSPost2010Prop32
280
     0
102
RTVSPost2010PropOp32
 70
     1
102
RTVSPost2010Prop33
280
     0
102
RTVSPost2010PropOp33
 70
     1
102
RTVSPost2010Prop34
280
     0
102
RTVSPost2010PropOp34
 70
     1
102
RTVSPost2010Prop35
280
     0
102
RTVSPost2010PropOp35
 70
     1
102
RTVSPost2010Prop36
280
     0
102
RTVSPost2010PropOp36
 70
     1
102
RTVSPost2010Prop37
 90
       50
102
RTVSPost2010PropOp37
 70
     1
102
RTVSPost2010Prop38
140
0.0
102
RTVSPost2010PropOp38
 70
     1
102
RTVSPost2010Prop39
140
1.0
102
RTVSPost2010PropOp39
 70
     1
102
RTVSPost2010Prop40
 90
        0
102
RTVSPost2010PropOp40
 70
     1
102
RTVSPost2010Prop41ColorIndex
 90
       18
102
RTVSPost2010Prop41ColorRGB
 90
        0
102
RTVSPost2010PropOp41
 70
     1
102
RTVSPost2010Prop42
 90
       50
102
RTVSPost2010PropOp42
 70
     1
102
RTVSPost2010Prop43
 90
        3
102
RTVSPost2010PropOp43
 70
     1
102
RTVSPost2010Prop44ColorIndex
 90
        5
102
RTVSPost2010Prop44ColorRGB
 90
      255
102
RTVSPost2010PropOp44
 70
     1
102
RTVSPost2010Prop45
280
     0
102
RTVSPost2010PropOp45
 70
     1
102
RTVSPost2010Prop46
 90
       50
102
RTVSPost2010PropOp46
 70
     1
102
RTVSPost2010Prop47
 90
       50
102
RTVSPost2010PropOp47
 70
     1
102
RTVSPost2010Prop48
 90
       50
102
RTVSPost2010PropOp48
 70
     1
102
RTVSPost2010Prop49
280
     0
102
RTVSPost2010PropOp49
 70
     1
102
RTVSPost2010Prop50
 90
       50
102
RTVSPost2010PropOp50
 70
     1
102
RTVSPost2010Prop51ColorIndex
 90
      256
102
RTVSPost2010Prop51ColorRGB
 90
-16777216
102
RTVSPost2010PropOp51
 70
     0
102
RTVSPost2010Prop52
140
1.0
102
RTVSPost2010PropOp52
 70
     0
102
RTVSPost2010Prop53
 90
        2
102
RTVSPost2010PropOp53
 70
     1
102
RTVSPost2010Prop54
  1
strokes_ogs.tif
102
RTVSPost2010PropOp54
 70
     1
102
RTVSPost2010Prop55
280
     0
102
RTVSPost2010PropOp55
 70
     1
102
RTVSPost2010Prop56
140
1.0
102
RTVSPost2010PropOp56
 70
     1
102
RTVSPost2010Prop57
140
1.0
102
RTVSPost2010PropOp57
 70
     1
102
RTVSPropertyOp0
 70
     1
102
RTVSPropertyOp1
 70
     1
102
RTVSPropertyOp2
 70
     1
102
RTVSPropertyOp3
 70
     1
102
RTVSPropertyOp4
 70
     1
102
RTVSPropertyOp5
 70
     1
102
RTVSPropertyOp6
 70
     1
102
RTVSPropertyOp7
 70
     1
102
RTVSPropertyOp8
 70
     1
102
RTVSPropertyOp9
 70
     1
102
RTVSPropertyOp10
 70
     1
102
RTVSPropertyOp11
 70
     1
102
RTVSPropertyOp12
 70
     1
102
RTVSPropertyOp13
 70
     1
102
RTVSPropertyOp14
 70
     1
102
RTVSPropertyOp15
 70
     1
102
RTVSPropertyOp16
 70
     1
102
RTVSPropertyOp17
 70
     1
102
RTVSPropertyOp18
 70
     1
102
RTVSPropertyOp19
 70
     1
102
RTVSPropertyOp20
 70
     1
102
RTVSPropertyOp21
 70
     1
102
RTVSPropertyOp22
 70
     1
102
RTVSPropertyOp23
 70
     1
102
RTVSPropertyOp24
 70
     1
102
RTVSPropertyOp25
 70
     1
102
RTVSPropertyOp26
 70
     1
102
RTVSPropertyOp27
 70
     1
102
RTVSPropertyOp28
 70
     1
102
RTVSPropertyOp29
 70
     1
102
RTVSPropertyOp30
 70
     1
102
RTVSPropertyOp31
 70
     1
102
RTVSPropertyOp32
 70
     1
102
RTVSPropertyOp33
 70
     1
102
RTVSPropertyOp34
 70
     1
102
RTVSPropertyOp35
 70
     1
102
RTVSPropertyOp36
 70
     1
102
RTVSPropertyOp37
 70
     1
102
RTVSPropertyOp38
 70
     1
102
RTVSPropertyOp39
 70
     1
102
RTVSPropertyOp40
 70
     1
102
RTVSPropertyOp41
 70
     1
102
RTVSPropertyOp42
 70
     1
102
RTVSPropertyOp43
 70
     1
102
RTVSPropertyOp44
 70
     1
102
RTVSPropertyOp45
 70
     1
102
RTVSPropertyOp46
 70
     1
102
RTVSPropertyOp47
 70
     1
102
RTVSPropertyOp48
 70
     1
102
RTVSPropertyOp49
 70
     1
102
RTVSPropertyOp50
 70
     1
102
RTVSPropertyOp51
 70
     0
102
RTVSPropertyOp52
 70
     0
102
RTVSPropertyOp53
 70
     1
102
RTVSPropertyOp54
 70
     1
102
RTVSPropertyOp55
 70
     1
102
RTVSPropertyOp56
 70
     1
102
RTVSPropertyOp57
 70
     1
102
RTVSPropertyOp58
 70
     1
102
RTVSPropertyOp59
 70
     1
102
RTVSPropertyOp60
 70
     1
102
RTVSPropertyOp61
 70
     1
102
RTVSPropertyOp62
 70
     1
  0
XRECORD
  5
73F9
102
{ACAD_REACTORS
330
73F8
102
}
330
73F8
100
AcDbXrecord
280
     1
102
RTVSPost2010Prop28
280
     0
102
RTVSPost2010PropOp28
 70
     1
102
RTVSPost2010Prop29
280
     1
102
RTVSPost2010PropOp29
 70
     1
102
RTVSPost2010Prop30
280
     1
102
RTVSPost2010PropOp30
 70
     1
102
RTVSPost2010Prop31
280
     0
102
RTVSPost2010PropOp31
 70
     1
102
RTVSPost2010Prop32
280
     0
102
RTVSPost2010PropOp32
 70
     1
102
RTVSPost2010Prop33
280
     0
102
RTVSPost2010PropOp33
 70
     1
102
RTVSPost2010Prop34
280
     0
102
RTVSPost2010PropOp34
 70
     1
102
RTVSPost2010Prop35
280
     0
102
RTVSPost2010PropOp35
 70
     1
102
RTVSPost2010Prop36
280
     0
102
RTVSPost2010PropOp36
 70
     1
102
RTVSPost2010Prop37
 90
       50
102
RTVSPost2010PropOp37
 70
     1
102
RTVSPost2010Prop38
140
0.0
102
RTVSPost2010PropOp38
 70
     1
102
RTVSPost2010Prop39
140
1.0
102
RTVSPost2010PropOp39
 70
     1
102
RTVSPost2010Prop40
 90
        0
102
RTVSPost2010PropOp40
 70
     1
102
RTVSPost2010Prop41ColorIndex
 90
       18
102
RTVSPost2010Prop41ColorRGB
 90
        0
102
RTVSPost2010PropOp41
 70
     1
102
RTVSPost2010Prop42
 90
       50
102
RTVSPost2010PropOp42
 70
     1
102
RTVSPost2010Prop43
 90
        3
102
RTVSPost2010PropOp43
 70
     1
102
RTVSPost2010Prop44ColorIndex
 90
        5
102
RTVSPost2010Prop44ColorRGB
 90
      255
102
RTVSPost2010PropOp44
 70
     1
102
RTVSPost2010Prop45
280
     0
102
RTVSPost2010PropOp45
 70
     1
102
RTVSPost2010Prop46
 90
       50
102
RTVSPost2010PropOp46
 70
     1
102
RTVSPost2010Prop47
 90
       50
102
RTVSPost2010PropOp47
 70
     1
102
RTVSPost2010Prop48
 90
       50
102
RTVSPost2010PropOp48
 70
     1
102
RTVSPost2010Prop49
280
     0
102
RTVSPost2010PropOp49
 70
     1
102
RTVSPost2010Prop50
 90
       50
102
RTVSPost2010PropOp50
 70
     1
102
RTVSPost2010Prop51ColorIndex
 90
      256
102
RTVSPost2010Prop51ColorRGB
 90
-16777216
102
RTVSPost2010PropOp51
 70
     0
102
RTVSPost2010Prop52
140
1.0
102
RTVSPost2010PropOp52
 70
     0
102
RTVSPost2010Prop53
 90
        2
102
RTVSPost2010PropOp53
 70
     1
102
RTVSPost2010Prop54
  1
strokes_ogs.tif
102
RTVSPost2010PropOp54
 70
     1
102
RTVSPost2010Prop55
280
     0
102
RTVSPost2010PropOp55
 70
     1
102
RTVSPost2010Prop56
140
1.0
102
RTVSPost2010PropOp56
 70
     1
102
RTVSPost2010Prop57
140
1.0
102
RTVSPost2010PropOp57
 70
     1
102
RTVSPropertyOp0
 70
     1
102
RTVSPropertyOp1
 70
     1
102
RTVSPropertyOp2
 70
     1
102
RTVSPropertyOp3
 70
     1
102
RTVSPropertyOp4
 70
     1
102
RTVSPropertyOp5
 70
     1
102
RTVSPropertyOp6
 70
     1
102
RTVSPropertyOp7
 70
     1
102
RTVSPropertyOp8
 70
     1
102
RTVSPropertyOp9
 70
     1
102
RTVSPropertyOp10
 70
     1
102
RTVSPropertyOp11
 70
     1
102
RTVSPropertyOp12
 70
     1
102
RTVSPropertyOp13
 70
     1
102
RTVSPropertyOp14
 70
     1
102
RTVSPropertyOp15
 70
     1
102
RTVSPropertyOp16
 70
     1
102
RTVSPropertyOp17
 70
     1
102
RTVSPropertyOp18
 70
     1
102
RTVSPropertyOp19
 70
     1
102
RTVSPropertyOp20
 70
     1
102
RTVSPropertyOp21
 70
     1
102
RTVSPropertyOp22
 70
     1
102
RTVSPropertyOp23
 70
     1
102
RTVSPropertyOp24
 70
     1
102
RTVSPropertyOp25
 70
     1
102
RTVSPropertyOp26
 70
     1
102
RTVSPropertyOp27
 70
     1
102
RTVSPropertyOp28
 70
     1
102
RTVSPropertyOp29
 70
     1
102
RTVSPropertyOp30
 70
     1
102
RTVSPropertyOp31
 70
     1
102
RTVSPropertyOp32
 70
     1
102
RTVSPropertyOp33
 70
     1
102
RTVSPropertyOp34
 70
     1
102
RTVSPropertyOp35
 70
     1
102
RTVSPropertyOp36
 70
     1
102
RTVSPropertyOp37
 70
     1
102
RTVSPropertyOp38
 70
     1
102
RTVSPropertyOp39
 70
     1
102
RTVSPropertyOp40
 70
     1
102
RTVSPropertyOp41
 70
     1
102
RTVSPropertyOp42
 70
     1
102
RTVSPropertyOp43
 70
     1
102
RTVSPropertyOp44
 70
     1
102
RTVSPropertyOp45
 70
     1
102
RTVSPropertyOp46
 70
     1
102
RTVSPropertyOp47
 70
     1
102
RTVSPropertyOp48
 70
     1
102
RTVSPropertyOp49
 70
     1
102
RTVSPropertyOp50
 70
     1
102
RTVSPropertyOp51
 70
     0
102
RTVSPropertyOp52
 70
     0
102
RTVSPropertyOp53
 70
     1
102
RTVSPropertyOp54
 70
     1
102
RTVSPropertyOp55
 70
     1
102
RTVSPropertyOp56
 70
     1
102
RTVSPropertyOp57
 70
     1
102
RTVSPropertyOp58
 70
     1
102
RTVSPropertyOp59
 70
     1
102
RTVSPropertyOp60
 70
     1
102
RTVSPropertyOp61
 70
     1
102
RTVSPropertyOp62
 70
     1
  0
XRECORD
  5
73FB
102
{ACAD_REACTORS
330
73FA
102
}
330
73FA
100
AcDbXrecord
280
     1
102
RTVSPost2010Prop28
280
     0
102
RTVSPost2010PropOp28
 70
     1
102
RTVSPost2010Prop29
280
     1
102
RTVSPost2010PropOp29
 70
     1
102
RTVSPost2010Prop30
280
     1
102
RTVSPost2010PropOp30
 70
     1
102
RTVSPost2010Prop31
280
     0
102
RTVSPost2010PropOp31
 70
     1
102
RTVSPost2010Prop32
280
     0
102
RTVSPost2010PropOp32
 70
     1
102
RTVSPost2010Prop33
280
     0
102
RTVSPost2010PropOp33
 70
     1
102
RTVSPost2010Prop34
280
     0
102
RTVSPost2010PropOp34
 70
     1
102
RTVSPost2010Prop35
280
     0
102
RTVSPost2010PropOp35
 70
     1
102
RTVSPost2010Prop36
280
     0
102
RTVSPost2010PropOp36
 70
     1
102
RTVSPost2010Prop37
 90
       50
102
RTVSPost2010PropOp37
 70
     1
102
RTVSPost2010Prop38
140
0.0
102
RTVSPost2010PropOp38
 70
     1
102
RTVSPost2010Prop39
140
1.0
102
RTVSPost2010PropOp39
 70
     1
102
RTVSPost2010Prop40
 90
        0
102
RTVSPost2010PropOp40
 70
     1
102
RTVSPost2010Prop41ColorIndex
 90
       18
102
RTVSPost2010Prop41ColorRGB
 90
        0
102
RTVSPost2010PropOp41
 70
     1
102
RTVSPost2010Prop42
 90
       50
102
RTVSPost2010PropOp42
 70
     1
102
RTVSPost2010Prop43
 90
        3
102
RTVSPost2010PropOp43
 70
     1
102
RTVSPost2010Prop44ColorIndex
 90
        5
102
RTVSPost2010Prop44ColorRGB
 90
      255
102
RTVSPost2010PropOp44
 70
     1
102
RTVSPost2010Prop45
280
     0
102
RTVSPost2010PropOp45
 70
     1
102
RTVSPost2010Prop46
 90
       50
102
RTVSPost2010PropOp46
 70
     1
102
RTVSPost2010Prop47
 90
       50
102
RTVSPost2010PropOp47
 70
     1
102
RTVSPost2010Prop48
 90
       50
102
RTVSPost2010PropOp48
 70
     1
102
RTVSPost2010Prop49
280
     0
102
RTVSPost2010PropOp49
 70
     1
102
RTVSPost2010Prop50
 90
       50
102
RTVSPost2010PropOp50
 70
     1
102
RTVSPost2010Prop51ColorIndex
 90
      256
102
RTVSPost2010Prop51ColorRGB
 90
-16777216
102
RTVSPost2010PropOp51
 70
     0
102
RTVSPost2010Prop52
140
1.0
102
RTVSPost2010PropOp52
 70
     0
102
RTVSPost2010Prop53
 90
        2
102
RTVSPost2010PropOp53
 70
     1
102
RTVSPost2010Prop54
  1
strokes_ogs.tif
102
RTVSPost2010PropOp54
 70
     1
102
RTVSPost2010Prop55
280
     0
102
RTVSPost2010PropOp55
 70
     1
102
RTVSPost2010Prop56
140
1.0
102
RTVSPost2010PropOp56
 70
     1
102
RTVSPost2010Prop57
140
1.0
102
RTVSPost2010PropOp57
 70
     1
102
RTVSPropertyOp0
 70
     1
102
RTVSPropertyOp1
 70
     1
102
RTVSPropertyOp2
 70
     1
102
RTVSPropertyOp3
 70
     1
102
RTVSPropertyOp4
 70
     1
102
RTVSPropertyOp5
 70
     1
102
RTVSPropertyOp6
 70
     1
102
RTVSPropertyOp7
 70
     1
102
RTVSPropertyOp8
 70
     1
102
RTVSPropertyOp9
 70
     1
102
RTVSPropertyOp10
 70
     1
102
RTVSPropertyOp11
 70
     1
102
RTVSPropertyOp12
 70
     1
102
RTVSPropertyOp13
 70
     1
102
RTVSPropertyOp14
 70
     1
102
RTVSPropertyOp15
 70
     1
102
RTVSPropertyOp16
 70
     1
102
RTVSPropertyOp17
 70
     1
102
RTVSPropertyOp18
 70
     1
102
RTVSPropertyOp19
 70
     1
102
RTVSPropertyOp20
 70
     1
102
RTVSPropertyOp21
 70
     1
102
RTVSPropertyOp22
 70
     1
102
RTVSPropertyOp23
 70
     1
102
RTVSPropertyOp24
 70
     1
102
RTVSPropertyOp25
 70
     1
102
RTVSPropertyOp26
 70
     1
102
RTVSPropertyOp27
 70
     1
102
RTVSPropertyOp28
 70
     1
102
RTVSPropertyOp29
 70
     1
102
RTVSPropertyOp30
 70
     1
102
RTVSPropertyOp31
 70
     1
102
RTVSPropertyOp32
 70
     1
102
RTVSPropertyOp33
 70
     1
102
RTVSPropertyOp34
 70
     1
102
RTVSPropertyOp35
 70
     1
102
RTVSPropertyOp36
 70
     1
102
RTVSPropertyOp37
 70
     1
102
RTVSPropertyOp38
 70
     1
102
RTVSPropertyOp39
 70
     1
102
RTVSPropertyOp40
 70
     1
102
RTVSPropertyOp41
 70
     1
102
RTVSPropertyOp42
 70
     1
102
RTVSPropertyOp43
 70
     1
102
RTVSPropertyOp44
 70
     1
102
RTVSPropertyOp45
 70
     1
102
RTVSPropertyOp46
 70
     1
102
RTVSPropertyOp47
 70
     1
102
RTVSPropertyOp48
 70
     1
102
RTVSPropertyOp49
 70
     1
102
RTVSPropertyOp50
 70
     1
102
RTVSPropertyOp51
 70
     0
102
RTVSPropertyOp52
 70
     0
102
RTVSPropertyOp53
 70
     1
102
RTVSPropertyOp54
 70
     1
102
RTVSPropertyOp55
 70
     1
102
RTVSPropertyOp56
 70
     1
102
RTVSPropertyOp57
 70
     1
102
RTVSPropertyOp58
 70
     1
102
RTVSPropertyOp59
 70
     1
102
RTVSPropertyOp60
 70
     1
102
RTVSPropertyOp61
 70
     1
102
RTVSPropertyOp62
 70
     1
  0
XRECORD
  5
73F1
102
{ACAD_REACTORS
330
73F0
102
}
330
73F0
100
AcDbXrecord
280
     1
102
RTVSPost2010Prop28
280
     0
102
RTVSPost2010PropOp28
 70
     1
102
RTVSPost2010Prop29
280
     1
102
RTVSPost2010PropOp29
 70
     1
102
RTVSPost2010Prop30
280
     1
102
RTVSPost2010PropOp30
 70
     1
102
RTVSPost2010Prop31
280
     0
102
RTVSPost2010PropOp31
 70
     1
102
RTVSPost2010Prop32
280
     0
102
RTVSPost2010PropOp32
 70
     1
102
RTVSPost2010Prop33
280
     0
102
RTVSPost2010PropOp33
 70
     1
102
RTVSPost2010Prop34
280
     0
102
RTVSPost2010PropOp34
 70
     1
102
RTVSPost2010Prop35
280
     0
102
RTVSPost2010PropOp35
 70
     1
102
RTVSPost2010Prop36
280
     0
102
RTVSPost2010PropOp36
 70
     1
102
RTVSPost2010Prop37
 90
       50
102
RTVSPost2010PropOp37
 70
     1
102
RTVSPost2010Prop38
140
0.0
102
RTVSPost2010PropOp38
 70
     1
102
RTVSPost2010Prop39
140
1.0
102
RTVSPost2010PropOp39
 70
     1
102
RTVSPost2010Prop40
 90
        0
102
RTVSPost2010PropOp40
 70
     1
102
RTVSPost2010Prop41ColorIndex
 90
       18
102
RTVSPost2010Prop41ColorRGB
 90
        0
102
RTVSPost2010PropOp41
 70
     1
102
RTVSPost2010Prop42
 90
       50
102
RTVSPost2010PropOp42
 70
     1
102
RTVSPost2010Prop43
 90
        3
102
RTVSPost2010PropOp43
 70
     1
102
RTVSPost2010Prop44ColorIndex
 90
        5
102
RTVSPost2010Prop44ColorRGB
 90
      255
102
RTVSPost2010PropOp44
 70
     1
102
RTVSPost2010Prop45
280
     0
102
RTVSPost2010PropOp45
 70
     1
102
RTVSPost2010Prop46
 90
       50
102
RTVSPost2010PropOp46
 70
     1
102
RTVSPost2010Prop47
 90
       50
102
RTVSPost2010PropOp47
 70
     1
102
RTVSPost2010Prop48
 90
       50
102
RTVSPost2010PropOp48
 70
     1
102
RTVSPost2010Prop49
280
     0
102
RTVSPost2010PropOp49
 70
     1
102
RTVSPost2010Prop50
 90
       50
102
RTVSPost2010PropOp50
 70
     1
102
RTVSPost2010Prop51ColorIndex
 90
      256
102
RTVSPost2010Prop51ColorRGB
 90
-16777216
102
RTVSPost2010PropOp51
 70
     0
102
RTVSPost2010Prop52
140
1.0
102
RTVSPost2010PropOp52
 70
     0
102
RTVSPost2010Prop53
 90
        2
102
RTVSPost2010PropOp53
 70
     1
102
RTVSPost2010Prop54
  1
strokes_ogs.tif
102
RTVSPost2010PropOp54
 70
     1
102
RTVSPost2010Prop55
280
     0
102
RTVSPost2010PropOp55
 70
     1
102
RTVSPost2010Prop56
140
1.0
102
RTVSPost2010PropOp56
 70
     1
102
RTVSPost2010Prop57
140
1.0
102
RTVSPost2010PropOp57
 70
     1
102
RTVSPropertyOp0
 70
     1
102
RTVSPropertyOp1
 70
     1
102
RTVSPropertyOp2
 70
     1
102
RTVSPropertyOp3
 70
     1
102
RTVSPropertyOp4
 70
     1
102
RTVSPropertyOp5
 70
     1
102
RTVSPropertyOp6
 70
     1
102
RTVSPropertyOp7
 70
     1
102
RTVSPropertyOp8
 70
     1
102
RTVSPropertyOp9
 70
     1
102
RTVSPropertyOp10
 70
     1
102
RTVSPropertyOp11
 70
     1
102
RTVSPropertyOp12
 70
     1
102
RTVSPropertyOp13
 70
     1
102
RTVSPropertyOp14
 70
     1
102
RTVSPropertyOp15
 70
     1
102
RTVSPropertyOp16
 70
     1
102
RTVSPropertyOp17
 70
     1
102
RTVSPropertyOp18
 70
     1
102
RTVSPropertyOp19
 70
     1
102
RTVSPropertyOp20
 70
     1
102
RTVSPropertyOp21
 70
     1
102
RTVSPropertyOp22
 70
     1
102
RTVSPropertyOp23
 70
     1
102
RTVSPropertyOp24
 70
     1
102
RTVSPropertyOp25
 70
     1
102
RTVSPropertyOp26
 70
     1
102
RTVSPropertyOp27
 70
     1
102
RTVSPropertyOp28
 70
     1
102
RTVSPropertyOp29
 70
     1
102
RTVSPropertyOp30
 70
     1
102
RTVSPropertyOp31
 70
     1
102
RTVSPropertyOp32
 70
     1
102
RTVSPropertyOp33
 70
     1
102
RTVSPropertyOp34
 70
     1
102
RTVSPropertyOp35
 70
     1
102
RTVSPropertyOp36
 70
     1
102
RTVSPropertyOp37
 70
     1
102
RTVSPropertyOp38
 70
     1
102
RTVSPropertyOp39
 70
     1
102
RTVSPropertyOp40
 70
     1
102
RTVSPropertyOp41
 70
     1
102
RTVSPropertyOp42
 70
     1
102
RTVSPropertyOp43
 70
     1
102
RTVSPropertyOp44
 70
     1
102
RTVSPropertyOp45
 70
     1
102
RTVSPropertyOp46
 70
     1
102
RTVSPropertyOp47
 70
     1
102
RTVSPropertyOp48
 70
     1
102
RTVSPropertyOp49
 70
     1
102
RTVSPropertyOp50
 70
     1
102
RTVSPropertyOp51
 70
     0
102
RTVSPropertyOp52
 70
     0
102
RTVSPropertyOp53
 70
     1
102
RTVSPropertyOp54
 70
     1
102
RTVSPropertyOp55
 70
     1
102
RTVSPropertyOp56
 70
     1
102
RTVSPropertyOp57
 70
     1
102
RTVSPropertyOp58
 70
     1
102
RTVSPropertyOp59
 70
     1
102
RTVSPropertyOp60
 70
     1
102
RTVSPropertyOp61
 70
     1
102
RTVSPropertyOp62
 70
     1
  0
XRECORD
  5
73E5
102
{ACAD_REACTORS
330
73E4
102
}
330
73E4
100
AcDbXrecord
280
     1
102
RTVSPost2010Prop28
280
     0
102
RTVSPost2010PropOp28
 70
     1
102
RTVSPost2010Prop29
280
     1
102
RTVSPost2010PropOp29
 70
     1
102
RTVSPost2010Prop30
280
     1
102
RTVSPost2010PropOp30
 70
     1
102
RTVSPost2010Prop31
280
     0
102
RTVSPost2010PropOp31
 70
     1
102
RTVSPost2010Prop32
280
     0
102
RTVSPost2010PropOp32
 70
     1
102
RTVSPost2010Prop33
280
     0
102
RTVSPost2010PropOp33
 70
     1
102
RTVSPost2010Prop34
280
     0
102
RTVSPost2010PropOp34
 70
     1
102
RTVSPost2010Prop35
280
     0
102
RTVSPost2010PropOp35
 70
     1
102
RTVSPost2010Prop36
280
     0
102
RTVSPost2010PropOp36
 70
     1
102
RTVSPost2010Prop37
 90
       50
102
RTVSPost2010PropOp37
 70
     1
102
RTVSPost2010Prop38
140
0.0
102
RTVSPost2010PropOp38
 70
     1
102
RTVSPost2010Prop39
140
1.0
102
RTVSPost2010PropOp39
 70
     1
102
RTVSPost2010Prop40
 90
        0
102
RTVSPost2010PropOp40
 70
     1
102
RTVSPost2010Prop41ColorIndex
 90
       18
102
RTVSPost2010Prop41ColorRGB
 90
        0
102
RTVSPost2010PropOp41
 70
     1
102
RTVSPost2010Prop42
 90
       50
102
RTVSPost2010PropOp42
 70
     1
102
RTVSPost2010Prop43
 90
        3
102
RTVSPost2010PropOp43
 70
     1
102
RTVSPost2010Prop44ColorIndex
 90
        5
102
RTVSPost2010Prop44ColorRGB
 90
      255
102
RTVSPost2010PropOp44
 70
     1
102
RTVSPost2010Prop45
280
     0
102
RTVSPost2010PropOp45
 70
     1
102
RTVSPost2010Prop46
 90
       50
102
RTVSPost2010PropOp46
 70
     1
102
RTVSPost2010Prop47
 90
       50
102
RTVSPost2010PropOp47
 70
     1
102
RTVSPost2010Prop48
 90
       50
102
RTVSPost2010PropOp48
 70
     1
102
RTVSPost2010Prop49
280
     0
102
RTVSPost2010PropOp49
 70
     1
102
RTVSPost2010Prop50
 90
       50
102
RTVSPost2010PropOp50
 70
     1
102
RTVSPost2010Prop51ColorIndex
 90
      256
102
RTVSPost2010Prop51ColorRGB
 90
-16777216
102
RTVSPost2010PropOp51
 70
     0
102
RTVSPost2010Prop52
140
1.0
102
RTVSPost2010PropOp52
 70
     0
102
RTVSPost2010Prop53
 90
        2
102
RTVSPost2010PropOp53
 70
     1
102
RTVSPost2010Prop54
  1
strokes_ogs.tif
102
RTVSPost2010PropOp54
 70
     1
102
RTVSPost2010Prop55
280
     0
102
RTVSPost2010PropOp55
 70
     1
102
RTVSPost2010Prop56
140
1.0
102
RTVSPost2010PropOp56
 70
     1
102
RTVSPost2010Prop57
140
1.0
102
RTVSPost2010PropOp57
 70
     1
102
RTVSPropertyOp0
 70
     1
102
RTVSPropertyOp1
 70
     1
102
RTVSPropertyOp2
 70
     1
102
RTVSPropertyOp3
 70
     1
102
RTVSPropertyOp4
 70
     1
102
RTVSPropertyOp5
 70
     1
102
RTVSPropertyOp6
 70
     1
102
RTVSPropertyOp7
 70
     1
102
RTVSPropertyOp8
 70
     1
102
RTVSPropertyOp9
 70
     1
102
RTVSPropertyOp10
 70
     1
102
RTVSPropertyOp11
 70
     1
102
RTVSPropertyOp12
 70
     1
102
RTVSPropertyOp13
 70
     1
102
RTVSPropertyOp14
 70
     1
102
RTVSPropertyOp15
 70
     1
102
RTVSPropertyOp16
 70
     1
102
RTVSPropertyOp17
 70
     1
102
RTVSPropertyOp18
 70
     1
102
RTVSPropertyOp19
 70
     1
102
RTVSPropertyOp20
 70
     1
102
RTVSPropertyOp21
 70
     1
102
RTVSPropertyOp22
 70
     1
102
RTVSPropertyOp23
 70
     1
102
RTVSPropertyOp24
 70
     1
102
RTVSPropertyOp25
 70
     1
102
RTVSPropertyOp26
 70
     1
102
RTVSPropertyOp27
 70
     1
102
RTVSPropertyOp28
 70
     1
102
RTVSPropertyOp29
 70
     1
102
RTVSPropertyOp30
 70
     1
102
RTVSPropertyOp31
 70
     1
102
RTVSPropertyOp32
 70
     1
102
RTVSPropertyOp33
 70
     1
102
RTVSPropertyOp34
 70
     1
102
RTVSPropertyOp35
 70
     1
102
RTVSPropertyOp36
 70
     1
102
RTVSPropertyOp37
 70
     1
102
RTVSPropertyOp38
 70
     1
102
RTVSPropertyOp39
 70
     1
102
RTVSPropertyOp40
 70
     1
102
RTVSPropertyOp41
 70
     1
102
RTVSPropertyOp42
 70
     1
102
RTVSPropertyOp43
 70
     1
102
RTVSPropertyOp44
 70
     1
102
RTVSPropertyOp45
 70
     1
102
RTVSPropertyOp46
 70
     1
102
RTVSPropertyOp47
 70
     1
102
RTVSPropertyOp48
 70
     1
102
RTVSPropertyOp49
 70
     1
102
RTVSPropertyOp50
 70
     1
102
RTVSPropertyOp51
 70
     0
102
RTVSPropertyOp52
 70
     0
102
RTVSPropertyOp53
 70
     1
102
RTVSPropertyOp54
 70
     1
102
RTVSPropertyOp55
 70
     1
102
RTVSPropertyOp56
 70
     1
102
RTVSPropertyOp57
 70
     1
102
RTVSPropertyOp58
 70
     1
102
RTVSPropertyOp59
 70
     1
102
RTVSPropertyOp60
 70
     1
102
RTVSPropertyOp61
 70
     1
102
RTVSPropertyOp62
 70
     1
  0
XRECORD
  5
73FD
102
{ACAD_REACTORS
330
73FC
102
}
330
73FC
100
AcDbXrecord
280
     1
102
RTVSPost2010Prop28
280
     0
102
RTVSPost2010PropOp28
 70
     1
102
RTVSPost2010Prop29
280
     1
102
RTVSPost2010PropOp29
 70
     1
102
RTVSPost2010Prop30
280
     1
102
RTVSPost2010PropOp30
 70
     1
102
RTVSPost2010Prop31
280
     0
102
RTVSPost2010PropOp31
 70
     1
102
RTVSPost2010Prop32
280
     0
102
RTVSPost2010PropOp32
 70
     1
102
RTVSPost2010Prop33
280
     0
102
RTVSPost2010PropOp33
 70
     1
102
RTVSPost2010Prop34
280
     0
102
RTVSPost2010PropOp34
 70
     1
102
RTVSPost2010Prop35
280
     0
102
RTVSPost2010PropOp35
 70
     1
102
RTVSPost2010Prop36
280
     0
102
RTVSPost2010PropOp36
 70
     1
102
RTVSPost2010Prop37
 90
       50
102
RTVSPost2010PropOp37
 70
     1
102
RTVSPost2010Prop38
140
0.0
102
RTVSPost2010PropOp38
 70
     1
102
RTVSPost2010Prop39
140
1.0
102
RTVSPost2010PropOp39
 70
     1
102
RTVSPost2010Prop40
 90
        0
102
RTVSPost2010PropOp40
 70
     1
102
RTVSPost2010Prop41ColorIndex
 90
       18
102
RTVSPost2010Prop41ColorRGB
 90
        0
102
RTVSPost2010PropOp41
 70
     1
102
RTVSPost2010Prop42
 90
       50
102
RTVSPost2010PropOp42
 70
     1
102
RTVSPost2010Prop43
 90
        3
102
RTVSPost2010PropOp43
 70
     1
102
RTVSPost2010Prop44ColorIndex
 90
        5
102
RTVSPost2010Prop44ColorRGB
 90
      255
102
RTVSPost2010PropOp44
 70
     1
102
RTVSPost2010Prop45
280
     0
102
RTVSPost2010PropOp45
 70
     1
102
RTVSPost2010Prop46
 90
       50
102
RTVSPost2010PropOp46
 70
     1
102
RTVSPost2010Prop47
 90
       50
102
RTVSPost2010PropOp47
 70
     1
102
RTVSPost2010Prop48
 90
       50
102
RTVSPost2010PropOp48
 70
     1
102
RTVSPost2010Prop49
280
     0
102
RTVSPost2010PropOp49
 70
     1
102
RTVSPost2010Prop50
 90
       50
102
RTVSPost2010PropOp50
 70
     1
102
RTVSPost2010Prop51ColorIndex
 90
      256
102
RTVSPost2010Prop51ColorRGB
 90
-16777216
102
RTVSPost2010PropOp51
 70
     0
102
RTVSPost2010Prop52
140
1.0
102
RTVSPost2010PropOp52
 70
     0
102
RTVSPost2010Prop53
 90
        2
102
RTVSPost2010PropOp53
 70
     1
102
RTVSPost2010Prop54
  1
strokes_ogs.tif
102
RTVSPost2010PropOp54
 70
     1
102
RTVSPost2010Prop55
280
     0
102
RTVSPost2010PropOp55
 70
     1
102
RTVSPost2010Prop56
140
1.0
102
RTVSPost2010PropOp56
 70
     1
102
RTVSPost2010Prop57
140
1.0
102
RTVSPost2010PropOp57
 70
     1
102
RTVSPropertyOp0
 70
     1
102
RTVSPropertyOp1
 70
     1
102
RTVSPropertyOp2
 70
     1
102
RTVSPropertyOp3
 70
     1
102
RTVSPropertyOp4
 70
     1
102
RTVSPropertyOp5
 70
     1
102
RTVSPropertyOp6
 70
     1
102
RTVSPropertyOp7
 70
     1
102
RTVSPropertyOp8
 70
     1
102
RTVSPropertyOp9
 70
     1
102
RTVSPropertyOp10
 70
     1
102
RTVSPropertyOp11
 70
     1
102
RTVSPropertyOp12
 70
     1
102
RTVSPropertyOp13
 70
     1
102
RTVSPropertyOp14
 70
     1
102
RTVSPropertyOp15
 70
     1
102
RTVSPropertyOp16
 70
     1
102
RTVSPropertyOp17
 70
     1
102
RTVSPropertyOp18
 70
     1
102
RTVSPropertyOp19
 70
     1
102
RTVSPropertyOp20
 70
     1
102
RTVSPropertyOp21
 70
     1
102
RTVSPropertyOp22
 70
     1
102
RTVSPropertyOp23
 70
     1
102
RTVSPropertyOp24
 70
     1
102
RTVSPropertyOp25
 70
     1
102
RTVSPropertyOp26
 70
     1
102
RTVSPropertyOp27
 70
     1
102
RTVSPropertyOp28
 70
     1
102
RTVSPropertyOp29
 70
     1
102
RTVSPropertyOp30
 70
     1
102
RTVSPropertyOp31
 70
     1
102
RTVSPropertyOp32
 70
     1
102
RTVSPropertyOp33
 70
     1
102
RTVSPropertyOp34
 70
     1
102
RTVSPropertyOp35
 70
     1
102
RTVSPropertyOp36
 70
     1
102
RTVSPropertyOp37
 70
     1
102
RTVSPropertyOp38
 70
     1
102
RTVSPropertyOp39
 70
     1
102
RTVSPropertyOp40
 70
     1
102
RTVSPropertyOp41
 70
     1
102
RTVSPropertyOp42
 70
     1
102
RTVSPropertyOp43
 70
     1
102
RTVSPropertyOp44
 70
     1
102
RTVSPropertyOp45
 70
     1
102
RTVSPropertyOp46
 70
     1
102
RTVSPropertyOp47
 70
     1
102
RTVSPropertyOp48
 70
     1
102
RTVSPropertyOp49
 70
     1
102
RTVSPropertyOp50
 70
     1
102
RTVSPropertyOp51
 70
     0
102
RTVSPropertyOp52
 70
     0
102
RTVSPropertyOp53
 70
     1
102
RTVSPropertyOp54
 70
     1
102
RTVSPropertyOp55
 70
     1
102
RTVSPropertyOp56
 70
     1
102
RTVSPropertyOp57
 70
     1
102
RTVSPropertyOp58
 70
     1
102
RTVSPropertyOp59
 70
     1
102
RTVSPropertyOp60
 70
     1
102
RTVSPropertyOp61
 70
     1
102
RTVSPropertyOp62
 70
     1
  0
ENDSEC
  0
EOF
