  0
SECTION
  2
HEADER
  9
$ACADVER
  1
AC1015
  9
$ACADMAINTVER
 70
    20
  9
$DWGCODEPAGE
  3
ANSI_932
  9
$INSBASE
 10
0.0
 20
0.0
 30
0.0
  9
$EXTMIN
 10
-179.051009908669
 20
-672.5958749999992
 30
0.0
  9
$EXTMAX
 10
514.9944274515278
 20
437.5072763109679
 30
0.0
  9
$LIMMIN
 10
-363.4571171232868
 20
-687.0539829989434
  9
$LIMMAX
 10
605.2191662393842
 20
469.8066136265626
  9
$ORTHOMODE
 70
     0
  9
$REGENMODE
 70
     1
  9
$FILLMODE
 70
     1
  9
$QTEXTMODE
 70
     0
  9
$MIRRTEXT
 70
     1
  9
$LTSCALE
 40
10.0
  9
$ATTMODE
 70
     1
  9
$TEXTSIZE
 40
5.0
  9
$TRACEWID
 40
0.05
  9
$TEXTSTYLE
  7
STANDARD1
  9
$CLAYER
  8
30
  9
$CELTYPE
  6
CONTINUOUS
  9
$CECOLOR
 62
   256
  9
$CELTSCALE
 40
1.0
  9
$DISPSILH
 70
     0
  9
$DIMSCALE
 40
1.0
  9
$DIMASZ
 40
2.0
  9
$DIMEXO
 40
3.0
  9
$DIMDLI
 40
0.5
  9
$DIMRND
 40
0.0
  9
$DIMDLE
 40
0.0
  9
$DIMEXE
 40
0.5
  9
$DIMTP
 40
0.0
  9
$DIMTM
 40
0.0
  9
$DIMTXT
 40
6.0
  9
$DIMCEN
 40
0.09
  9
$DIMTSZ
 40
0.0
  9
$DIMTOL
 70
     0
  9
$DIMLIM
 70
     0
  9
$DIMTIH
 70
     0
  9
$DIMTOH
 70
     1
  9
$DIMSE1
 70
     0
  9
$DIMSE2
 70
     0
  9
$DIMTAD
 70
     3
  9
$DIMZIN
 70
    12
  9
$DIMBLK
  1
OPEN
  9
$DIMASO
 70
     1
  9
$DIMSHO
 70
     1
  9
$DIMPOST
  1

  9
$DIMAPOST
  1

  9
$DIMALT
 70
     0
  9
$DIMALTD
 70
     2
  9
$DIMALTF
 40
25.4
  9
$DIMLFAC
 40
1.0
  9
$DIMTOFL
 70
     0
  9
$DIMTVP
 40
0.0
  9
$DIMTIX
 70
     0
  9
$DIMSOXD
 70
     0
  9
$DIMSAH
 70
     0
  9
$DIMBLK1
  1

  9
$DIMBLK2
  1

  9
$DIMSTYLE
  2
STANDARD1
  9
$DIMCLRD
 70
     0
  9
$DIMCLRE
 70
     0
  9
$DIMCLRT
 70
     0
  9
$DIMTFAC
 40
1.0
  9
$DIMGAP
 40
3.0
  9
$DIMJUST
 70
     0
  9
$DIMSD1
 70
     0
  9
$DIMSD2
 70
     0
  9
$DIMTOLJ
 70
     1
  9
$DIMTZIN
 70
     0
  9
$DIMALTZ
 70
     0
  9
$DIMALTTZ
 70
     0
  9
$DIMUPT
 70
     0
  9
$DIMDEC
 70
     1
  9
$DIMTDEC
 70
     1
  9
$DIMALTU
 70
     2
  9
$DIMALTTD
 70
     2
  9
$DIMTXSTY
  7
STANDARD
  9
$DIMAUNIT
 70
     0
  9
$DIMADEC
 70
     0
  9
$DIMALTRND
 40
0.0
  9
$DIMAZIN
 70
     0
  9
$DIMDSEP
 70
    46
  9
$DIMATFIT
 70
     2
  9
$DIMFRAC
 70
     0
  9
$DIMLDRBLK
  1
OPEN
  9
$DIMLUNIT
 70
     2
  9
$DIMLWD
 70
    -2
  9
$DIMLWE
 70
    -2
  9
$DIMTMOVE
 70
     0
  9
$LUNITS
 70
     2
  9
$LUPREC
 70
     4
  9
$SKETCHINC
 40
0.1
  9
$FILLETRAD
 40
0.0
  9
$AUNITS
 70
     0
  9
$AUPREC
 70
     0
  9
$MENU
  1
.
  9
$ELEVATION
 40
0.0
  9
$PELEVATION
 40
0.0
  9
$THICKNESS
 40
0.0
  9
$LIMCHECK
 70
     0
  9
$CHAMFERA
 40
0.0
  9
$CHAMFERB
 40
0.0
  9
$CHAMFERC
 40
0.0
  9
$CHAMFERD
 40
0.0
  9
$SKPOLY
 70
     0
  9
$TDCREATE
 40
2452286.555658658
  9
$TDUCREATE
 40
2452286.180658658
  9
$TDUPDATE
 40
2456919.623776921
  9
$TDUUPDATE
 40
2456919.248776921
  9
$TDINDWG
 40
1.8416923148
  9
$TDUSRTIMER
 40
1.8416893981
  9
$USRTIMER
 70
     1
  9
$ANGBASE
 50
0.0
  9
$ANGDIR
 70
     0
  9
$PDMODE
 70
     0
  9
$PDSIZE
 40
0.0
  9
$PLINEWID
 40
0.0
  9
$SPLFRAME
 70
     0
  9
$SPLINETYPE
 70
     6
  9
$SPLINESEGS
 70
     8
  9
$HANDSEED
  5
DE3E
  9
$SURFTAB1
 70
     6
  9
$SURFTAB2
 70
     6
  9
$SURFTYPE
 70
     6
  9
$SURFU
 70
     6
  9
$SURFV
 70
     6
  9
$UCSBASE
  2

  9
$UCSNAME
  2

  9
$UCSORG
 10
0.0
 20
0.0
 30
0.0
  9
$UCSXDIR
 10
1.0
 20
0.0
 30
0.0
  9
$UCSYDIR
 10
0.0
 20
1.0
 30
0.0
  9
$UCSORTHOREF
  2

  9
$UCSORTHOVIEW
 70
     0
  9
$UCSORGTOP
 10
0.0
 20
0.0
 30
0.0
  9
$UCSORGBOTTOM
 10
0.0
 20
0.0
 30
0.0
  9
$UCSORGLEFT
 10
0.0
 20
0.0
 30
0.0
  9
$UCSORGRIGHT
 10
0.0
 20
0.0
 30
0.0
  9
$UCSORGFRONT
 10
0.0
 20
0.0
 30
0.0
  9
$UCSORGBACK
 10
0.0
 20
0.0
 30
0.0
  9
$PUCSBASE
  2

  9
$PUCSNAME
  2

  9
$PUCSORG
 10
0.0
 20
0.0
 30
0.0
  9
$PUCSXDIR
 10
1.0
 20
0.0
 30
0.0
  9
$PUCSYDIR
 10
0.0
 20
1.0
 30
0.0
  9
$PUCSORTHOREF
  2

  9
$PUCSORTHOVIEW
 70
     0
  9
$PUCSORGTOP
 10
0.0
 20
0.0
 30
0.0
  9
$PUCSORGBOTTOM
 10
0.0
 20
0.0
 30
0.0
  9
$PUCSORGLEFT
 10
0.0
 20
0.0
 30
0.0
  9
$PUCSORGRIGHT
 10
0.0
 20
0.0
 30
0.0
  9
$PUCSORGFRONT
 10
0.0
 20
0.0
 30
0.0
  9
$PUCSORGBACK
 10
0.0
 20
0.0
 30
0.0
  9
$USERI1
 70
     0
  9
$USERI2
 70
     0
  9
$USERI3
 70
     0
  9
$USERI4
 70
     0
  9
$USERI5
 70
     0
  9
$USERR1
 40
0.0
  9
$USERR2
 40
0.0
  9
$USERR3
 40
0.0
  9
$USERR4
 40
0.0
  9
$USERR5
 40
0.0
  9
$WORLDVIEW
 70
     1
  9
$SHADEDGE
 70
     3
  9
$SHADEDIF
 70
    70
  9
$TILEMODE
 70
     1
  9
$MAXACTVP
 70
    48
  9
$PINSBASE
 10
0.0
 20
0.0
 30
0.0
  9
$PLIMCHECK
 70
     0
  9
$PEXTMIN
 10
4.273573
 20
5.205245999999998
 30
0.0
  9
$PEXTMAX
 10
194.610095
 20
283.0697009999996
 30
0.0
  9
$PLIMMIN
 10
-5.873749
 20
-5.87375
  9
$PLIMMAX
 10
204.099579
 20
291.1369009999999
  9
$UNITMODE
 70
     0
  9
$VISRETAIN
 70
     1
  9
$PLINEGEN
 70
     0
  9
$PSLTSCALE
 70
     1
  9
$TREEDEPTH
 70
  3020
  9
$CMLSTYLE
  2
STANDARD
  9
$CMLJUST
 70
     0
  9
$CMLSCALE
 40
1.0
  9
$PROXYGRAPHICS
 70
     1
  9
$MEASUREMENT
 70
     0
  9
$CELWEIGHT
370
    -1
  9
$ENDCAPS
280
     0
  9
$JOINSTYLE
280
     0
  9
$LWDISPLAY
290
     0
  9
$INSUNITS
 70
     0
  9
$HYPERLINKBASE
  1

  9
$STYLESHEET
  1
monochrome.ctb
  9
$XEDIT
290
     1
  9
$CEPSNTYPE
380
     0
  9
$PSTYLEMODE
290
     1
  9
$FINGERPRINTGUID
  2

  9
$VERSIONGUID
  2
{BDF59353-F4CB-401D-9229-99BCF643E570}
  9
$EXTNAMES
290
     1
  9
$PSVPSCALE
 40
0.0
  9
$OLESTARTUP
290
     0
  0
ENDSEC
  0
SECTION
  2
CLASSES
  0
CLASS
  1
ACDBDICTIONARYWDFLT
  2
AcDbDictionaryWithDefault
  3
ObjectDBX Classes
 90
        0
280
     0
281
     0
  0
CLASS
  1
ACDBPLACEHOLDER
  2
AcDbPlaceHolder
  3
ObjectDBX Classes
 90
        0
280
     0
281
     0
  0
CLASS
  1
LAYOUT
  2
AcDbLayout
  3
ObjectDBX Classes
 90
        0
280
     0
281
     0
  0
CLASS
  1
DICTIONARYVAR
  2
AcDbDictionaryVar
  3
ObjectDBX Classes
 90
        0
280
     0
281
     0
  0
CLASS
  1
MATERIAL
  2
AcDbMaterial
  3
ObjectDBX Classes
 90
     1153
280
     0
281
     0
  0
CLASS
  1
VISUALSTYLE
  2
AcDbVisualStyle
  3
ObjectDBX Classes
 90
     4095
280
     0
281
     0
  0
CLASS
  1
TABLESTYLE
  2
AcDbTableStyle
  3
ObjectDBX Classes
 90
     4095
280
     0
281
     0
  0
CLASS
  1
SCALE
  2
AcDbScale
  3
ObjectDBX Classes
 90
     1153
280
     0
281
     0
  0
CLASS
  1
MLEADERSTYLE
  2
AcDbMLeaderStyle
  3
ACDB_MLEADERSTYLE_CLASS
 90
     4095
280
     0
281
     0
  0
CLASS
  1
ACDBSECTIONVIEWSTYLE
  2
AcDbSectionViewStyle
  3
ObjectDBX Classes
 90
     1025
280
     0
281
     0
  0
CLASS
  1
ACDBDETAILVIEWSTYLE
  2
AcDbDetailViewStyle
  3
ObjectDBX Classes
 90
     1025
280
     0
281
     0
  0
CLASS
  1
SORTENTSTABLE
  2
AcDbSortentsTable
  3
ObjectDBX Classes
 90
        0
280
     0
281
     0
  0
CLASS
  1
CELLSTYLEMAP
  2
AcDbCellStyleMap
  3
ObjectDBX Classes
 90
     1152
280
     0
281
     0
  0
ENDSEC
  0
SECTION
  2
TABLES
  0
TABLE
  2
VPORT
  5
8
330
0
100
AcDbSymbolTable
 70
     1
  0
VPORT
  5
DC4C
330
8
100
AcDbSymbolTableRecord
100
AcDbViewportTableRecord
  2
*Active
 70
     0
 10
0.0
 20
0.0
 11
1.0
 21
1.0
 12
13.71604658622828
 22
-273.0265575222795
 13
0.0
 23
0.0
 14
1.0
 24
1.0
 15
10.0
 25
10.0
 16
0.0
 26
0.0
 36
1.0
 17
0.0
 27
0.0
 37
0.0
 40
354.8935151291694
 41
2.40473061760841
 42
50.0
 43
0.0
 44
0.0
 50
0.0
 51
0.0
 71
     0
 72
   100
 73
     1
 74
     1
 75
     0
 76
     0
 77
     0
 78
     0
281
     0
 65
     1
110
0.0
120
0.0
130
0.0
111
1.0
121
0.0
131
0.0
112
0.0
122
1.0
132
0.0
 79
     0
146
0.0
1001
ACAD_NAV_VCDISPLAY
1070
     3
  0
ENDTAB
  0
TABLE
  2
LTYPE
  5
5
330
0
100
AcDbSymbolTable
 70
     6
  0
LTYPE
  5
13
330
5
100
AcDbSymbolTableRecord
100
AcDbLinetypeTableRecord
  2
BYBLOCK
 70
     0
  3

 72
    65
 73
     0
 40
0.0
  0
LTYPE
  5
14
330
5
100
AcDbSymbolTableRecord
100
AcDbLinetypeTableRecord
  2
BYLAYER
 70
     0
  3

 72
    65
 73
     0
 40
0.0
  0
LTYPE
  5
15
330
5
100
AcDbSymbolTableRecord
100
AcDbLinetypeTableRecord
  2
CONTINUOUS
 70
     0
  3
Solid line
 72
    65
 73
     0
 40
0.0
  0
LTYPE
  5
22
330
5
100
AcDbSymbolTableRecord
100
AcDbLinetypeTableRecord
  2
CONTINOUS
 70
     0
  3
Solid line
 72
    65
 73
     0
 40
0.0
  0
LTYPE
  5
23
330
5
100
AcDbSymbolTableRecord
100
AcDbLinetypeTableRecord
  2
DASHED
 70
     0
  3
__ __ __ __ __ __ __ __ __ __ __ __ __ __ __
 72
    65
 73
     2
 40
0.75
 49
0.5
 74
     0
 49
-0.25
 74
     0
  0
LTYPE
  5
24
330
5
100
AcDbSymbolTableRecord
100
AcDbLinetypeTableRecord
  2
DASHDOT
 70
     0
  3
__ . __ . __ . __ . __ . __ . __ . __ . __ . __
 72
    65
 73
     4
 40
1.0
 49
0.5
 74
     0
 49
-0.25
 74
     0
 49
0.0
 74
     0
 49
-0.25
 74
     0
  0
LTYPE
  5
4C47
330
5
100
AcDbSymbolTableRecord
100
AcDbLinetypeTableRecord
  2
DIVIDE
 70
     0
  3
Divide ____ . . ____ . . ____ . . ____ . . ____
 72
    65
 73
     6
 40
1.25
 49
0.5
 74
     0
 49
-0.25
 74
     0
 49
0.0
 74
     0
 49
-0.25
 74
     0
 49
0.0
 74
     0
 49
-0.25
 74
     0
  0
ENDTAB
  0
TABLE
  2
LAYER
  5
2
330
0
100
AcDbSymbolTable
 70
    12
  0
LAYER
  5
10
102
{ACAD_XDICTIONARY
360
DD27
102
}
330
2
100
AcDbSymbolTableRecord
100
AcDbLayerTableRecord
  2
0
 70
     0
 62
     7
  6
CONTINOUS
370
    -3
390
F
  0
LAYER
  5
2F
102
{ACAD_XDICTIONARY
360
DD29
102
}
330
2
100
AcDbSymbolTableRecord
100
AcDbLayerTableRecord
  2
10
 70
     0
 62
     4
  6
CONTINOUS
370
    -3
390
F
  0
LAYER
  5
31
102
{ACAD_XDICTIONARY
360
DD2B
102
}
330
2
100
AcDbSymbolTableRecord
100
AcDbLayerTableRecord
  2
12
 70
     0
 62
     3
  6
CONTINOUS
370
    -3
390
F
  0
LAYER
  5
35
102
{ACAD_XDICTIONARY
360
DD2D
102
}
330
2
100
AcDbSymbolTableRecord
100
AcDbLayerTableRecord
  2
16
 70
     0
 62
     6
  6
DASHDOT
370
    -3
390
F
  0
LAYER
  5
38
102
{ACAD_XDICTIONARY
360
DD2F
102
}
330
2
100
AcDbSymbolTableRecord
100
AcDbLayerTableRecord
  2
19
 70
     0
 62
     7
  6
CONTINOUS
370
    -3
390
F
  0
LAYER
  5
3D
102
{ACAD_XDICTIONARY
360
DD31
102
}
330
2
100
AcDbSymbolTableRecord
100
AcDbLayerTableRecord
  2
24
 70
     0
 62
     2
  6
CONTINOUS
370
    -3
390
F
  0
LAYER
  5
3A2
102
{ACAD_XDICTIONARY
360
DD33
102
}
330
2
100
AcDbSymbolTableRecord
100
AcDbLayerTableRecord
  2
30
 70
     0
 62
     9
  6
CONTINUOUS
370
    -3
390
F
  0
LAYER
  5
3A4
330
2
100
AcDbSymbolTableRecord
100
AcDbLayerTableRecord
  2
DEFPOINTS
 70
     0
 62
     7
  6
CONTINUOUS
290
     0
370
    -3
390
F
  0
LAYER
  5
3BBA
102
{ACAD_XDICTIONARY
360
DD35
102
}
330
2
100
AcDbSymbolTableRecord
100
AcDbLayerTableRecord
  2
18
 70
     0
 62
     5
  6
DIVIDE
370
    -3
390
F
  0
LAYER
  5
67A8
102
{ACAD_XDICTIONARY
360
DD37
102
}
330
2
100
AcDbSymbolTableRecord
100
AcDbLayerTableRecord
  2
11
 70
     0
 62
     1
  6
CONTINOUS
370
    -3
390
F
  0
LAYER
  5
7BC8
102
{ACAD_XDICTIONARY
360
DD39
102
}
330
2
100
AcDbSymbolTableRecord
100
AcDbLayerTableRecord
  2
1
 70
     0
 62
     7
  6
CONTINUOUS
370
    -3
390
F
  0
LAYER
  5
C01C
102
{ACAD_XDICTIONARY
360
DD3B
102
}
330
2
100
AcDbSymbolTableRecord
100
AcDbLayerTableRecord
  2
17
 70
     0
 62
     2
  6
CONTINUOUS
370
    -3
390
F
  0
ENDTAB
  0
TABLE
  2
STYLE
  5
3
330
0
100
AcDbSymbolTable
 70
     2
  0
STYLE
  5
11
330
3
100
AcDbSymbolTableRecord
100
AcDbTextStyleTableRecord
  2
STANDARD
 70
     0
 40
0.0
 41
1.0
 50
0.0
 71
     0
 42
2.0
  3
txt.shx
  4
bigfont.shx
  0
STYLE
  5
42
330
3
100
AcDbSymbolTableRecord
100
AcDbTextStyleTableRecord
  2
STANDARD1
 70
     0
 40
0.0
 41
1.0
 50
0.0
 71
     0
 42
5.0
  3
MONOTXT
  4
BIGFONT
  0
ENDTAB
  0
TABLE
  2
VIEW
  5
6
330
0
100
AcDbSymbolTable
 70
     3
  0
VIEW
  5
230C
330
6
100
AcDbSymbolTableRecord
100
AcDbViewTableRecord
  2
OLE1
 70
     0
 40
148.912488
 10
429.497628
 20
2.560627
 41
103.145806
 11
0.0
 21
0.0
 31
1.0
 12
0.0
 22
0.0
 32
0.0
 42
50.0
 43
0.0
 44
0.0
 50
0.0
 71
     0
281
     0
 72
     0
  0
VIEW
  5
230E
330
6
100
AcDbSymbolTableRecord
100
AcDbViewTableRecord
  2
OLE2
 70
     0
 40
170.778692
 10
322.66497
 20
-5.978304
 41
102.467215
 11
0.0
 21
0.0
 31
1.0
 12
0.0
 22
0.0
 32
0.0
 42
50.0
 43
0.0
 44
0.0
 50
0.0
 71
     0
281
     0
 72
     0
  0
VIEW
  5
23AA
330
6
100
AcDbSymbolTableRecord
100
AcDbViewTableRecord
  2
OLE3
 70
     0
 40
591.7897389999998
 10
84.79698199999999
 20
-46.09335999999998
 41
388.792096
 11
0.0
 21
0.0
 31
1.0
 12
0.0
 22
0.0
 32
0.0
 42
50.0
 43
0.0
 44
0.0
 50
0.0
 71
     0
281
     0
 72
     0
  0
ENDTAB
  0
TABLE
  2
UCS
  5
7
330
0
100
AcDbSymbolTable
 70
     0
  0
ENDTAB
  0
TABLE
  2
APPID
  5
9
330
0
100
AcDbSymbolTable
 70
     4
  0
APPID
  5
12
330
9
100
AcDbSymbolTableRecord
100
AcDbRegAppTableRecord
  2
ACAD
 70
     0
  0
APPID
  5
ECD
330
9
100
AcDbSymbolTableRecord
100
AcDbRegAppTableRecord
  2
CONTENTBLOCKICON
 70
     0
  0
APPID
  5
DCC4
330
9
100
AcDbSymbolTableRecord
100
AcDbRegAppTableRecord
  2
ACAD_NAV_VCDISPLAY
 70
     0
  0
APPID
  5
DE37
330
9
100
AcDbSymbolTableRecord
100
AcDbRegAppTableRecord
  2
ACAD_MLEADERVER
 70
     0
  0
ENDTAB
  0
TABLE
  2
DIMSTYLE
  5
A
330
0
100
AcDbSymbolTable
 70
     3
100
AcDbDimStyleTable
 71
     2
340
C13E
340
175
  0
DIMSTYLE
105
175
330
A
100
AcDbSymbolTableRecord
100
AcDbDimStyleTableRecord
  2
STANDARD
 70
     0
 41
2.0
 42
1.0
 43
0.5
 44
0.5
 73
     0
 77
     3
 78
    12
140
4.0
147
1.0
271
     1
272
     1
340
11
341
3B2
342
3B2
  0
DIMSTYLE
105
C13E
102
{ACAD_REACTORS
330
C05D
330
C047
330
C025
330
BB84
330
B862
330
B861
330
B850
330
B84F
330
B84E
330
B84B
330
B3B1
330
B2FF
330
B2FD
330
B2FC
330
B2FB
330
B2F9
330
9F25
330
97CF
330
97BB
330
97B3
330
9784
330
9783
330
9765
330
975C
330
975B
330
975A
330
9759
330
9633
330
960B
330
95A3
330
95A1
330
9598
330
9597
330
9581
330
C572
330
C577
330
C57B
330
C57C
330
CE2A
330
C031
102
}
330
A
100
AcDbSymbolTableRecord
100
AcDbDimStyleTableRecord
  2
STANDARD1
 70
     0
 41
2.0
 42
3.0
 43
0.5
 44
0.5
 73
     0
 77
     3
 78
    12
140
6.0
147
3.0
271
     1
272
     1
289
     2
340
11
341
3B2
342
3B2
  0
ENDTAB
  0
TABLE
  2
BLOCK_RECORD
  5
1
330
0
100
AcDbSymbolTable
 70
    45
  0
BLOCK_RECORD
  5
1E
102
{ACAD_XDICTIONARY
360
178
102
}
330
1
100
AcDbSymbolTableRecord
100
AcDbBlockTableRecord
  2
*MODEL_SPACE
340
904E
  0
BLOCK_RECORD
  5
1A
102
{ACAD_XDICTIONARY
360
17A
102
}
330
1
100
AcDbSymbolTableRecord
100
AcDbBlockTableRecord
  2
*PAPER_SPACE
340
904F
  0
BLOCK_RECORD
  5
3B2
330
1
100
AcDbSymbolTableRecord
100
AcDbBlockTableRecord
  2
_OPEN
340
0
102
{BLKREFS
331
D9FF
331
DA00
331
DA08
331
DA09
331
DA11
331
DA12
331
DA46
331
DA4F
331
DA50
331
DA58
331
DA59
331
DA61
331
DA62
331
D98B
331
D98C
331
D994
331
D995
331
D99E
331
D99F
331
D9A6
331
D9A7
331
D9C1
331
D9C2
331
D9C9
331
D9D2
331
D9D3
331
D9DC
331
D9DD
331
D9E5
331
D9E6
331
D9ED
331
D9EE
331
D9F6
331
D9F7
331
D979
331
D97A
331
D982
331
D983
331
D900
331
D901
331
DAD8
331
DAE9
331
DAEA
331
DB05
331
DB06
331
DB0E
331
DB0F
331
DB29
331
DB2A
331
DA6A
331
DA6B
331
DA73
331
DA74
331
DA7C
331
DA7D
331
DA87
331
DA88
331
DA90
331
DA91
331
DA99
331
DA9A
331
DAA2
331
DAA3
331
DABC
331
DABD
331
DACE
331
DACF
331
DAD7
331
DD8F
331
DD90
331
DD98
331
DD99
331
DB4D
331
DB4E
331
DB71
331
DB72
331
DB7A
331
DB7B
331
DB83
331
DB84
331
DD21
331
DD22
331
DCDC
331
DCDD
102
}
  0
BLOCK_RECORD
  5
97F7
330
1
100
AcDbSymbolTableRecord
100
AcDbBlockTableRecord
  2
*D1
340
0
  0
BLOCK_RECORD
  5
9802
330
1
100
AcDbSymbolTableRecord
100
AcDbBlockTableRecord
  2
*D2
340
0
  0
BLOCK_RECORD
  5
98B6
330
1
100
AcDbSymbolTableRecord
100
AcDbBlockTableRecord
  2
*D3
340
0
  0
BLOCK_RECORD
  5
98C2
330
1
100
AcDbSymbolTableRecord
100
AcDbBlockTableRecord
  2
*D4
340
0
  0
BLOCK_RECORD
  5
98CE
330
1
100
AcDbSymbolTableRecord
100
AcDbBlockTableRecord
  2
*D5
340
0
  0
BLOCK_RECORD
  5
98DA
330
1
100
AcDbSymbolTableRecord
100
AcDbBlockTableRecord
  2
*D6
340
0
  0
BLOCK_RECORD
  5
98E7
330
1
100
AcDbSymbolTableRecord
100
AcDbBlockTableRecord
  2
*D7
340
0
  0
BLOCK_RECORD
  5
9900
330
1
100
AcDbSymbolTableRecord
100
AcDbBlockTableRecord
  2
*D8
340
0
  0
BLOCK_RECORD
  5
990D
330
1
100
AcDbSymbolTableRecord
100
AcDbBlockTableRecord
  2
*D9
340
0
  0
BLOCK_RECORD
  5
993E
330
1
100
AcDbSymbolTableRecord
100
AcDbBlockTableRecord
  2
*D10
340
0
  0
BLOCK_RECORD
  5
994A
330
1
100
AcDbSymbolTableRecord
100
AcDbBlockTableRecord
  2
*D11
340
0
  0
BLOCK_RECORD
  5
9956
330
1
100
AcDbSymbolTableRecord
100
AcDbBlockTableRecord
  2
*D12
340
0
  0
BLOCK_RECORD
  5
99CC
330
1
100
AcDbSymbolTableRecord
100
AcDbBlockTableRecord
  2
*D13
340
0
  0
BLOCK_RECORD
  5
99D8
330
1
100
AcDbSymbolTableRecord
100
AcDbBlockTableRecord
  2
*D14
340
0
  0
BLOCK_RECORD
  5
99E4
330
1
100
AcDbSymbolTableRecord
100
AcDbBlockTableRecord
  2
*D15
340
0
  0
BLOCK_RECORD
  5
9A53
330
1
100
AcDbSymbolTableRecord
100
AcDbBlockTableRecord
  2
*D16
340
0
  0
BLOCK_RECORD
  5
9A5F
330
1
100
AcDbSymbolTableRecord
100
AcDbBlockTableRecord
  2
*D17
340
0
  0
BLOCK_RECORD
  5
9A78
330
1
100
AcDbSymbolTableRecord
100
AcDbBlockTableRecord
  2
*D18
340
0
  0
BLOCK_RECORD
  5
9F26
330
1
100
AcDbSymbolTableRecord
100
AcDbBlockTableRecord
  2
*D19
340
0
  0
BLOCK_RECORD
  5
B324
330
1
100
AcDbSymbolTableRecord
100
AcDbBlockTableRecord
  2
*D20
340
0
  0
BLOCK_RECORD
  5
B330
330
1
100
AcDbSymbolTableRecord
100
AcDbBlockTableRecord
  2
*D21
340
0
  0
BLOCK_RECORD
  5
B33C
330
1
100
AcDbSymbolTableRecord
100
AcDbBlockTableRecord
  2
*D22
340
0
  0
BLOCK_RECORD
  5
B348
330
1
100
AcDbSymbolTableRecord
100
AcDbBlockTableRecord
  2
*D23
340
0
  0
BLOCK_RECORD
  5
B354
330
1
100
AcDbSymbolTableRecord
100
AcDbBlockTableRecord
  2
*D24
340
0
  0
BLOCK_RECORD
  5
B3B2
330
1
100
AcDbSymbolTableRecord
100
AcDbBlockTableRecord
  2
*D25
340
0
  0
BLOCK_RECORD
  5
B864
330
1
100
AcDbSymbolTableRecord
100
AcDbBlockTableRecord
  2
*D26
340
0
  0
BLOCK_RECORD
  5
B870
330
1
100
AcDbSymbolTableRecord
100
AcDbBlockTableRecord
  2
*D27
340
0
  0
BLOCK_RECORD
  5
B87C
330
1
100
AcDbSymbolTableRecord
100
AcDbBlockTableRecord
  2
*D28
340
0
  0
BLOCK_RECORD
  5
B888
330
1
100
AcDbSymbolTableRecord
100
AcDbBlockTableRecord
  2
*D29
340
0
  0
BLOCK_RECORD
  5
B894
330
1
100
AcDbSymbolTableRecord
100
AcDbBlockTableRecord
  2
*D30
340
0
  0
BLOCK_RECORD
  5
B8A0
330
1
100
AcDbSymbolTableRecord
100
AcDbBlockTableRecord
  2
*D31
340
0
  0
BLOCK_RECORD
  5
BB85
330
1
100
AcDbSymbolTableRecord
100
AcDbBlockTableRecord
  2
*D32
340
0
  0
BLOCK_RECORD
  5
C026
330
1
100
AcDbSymbolTableRecord
100
AcDbBlockTableRecord
  2
*D33
340
0
  0
BLOCK_RECORD
  5
C032
330
1
100
AcDbSymbolTableRecord
100
AcDbBlockTableRecord
  2
*D34
340
0
  0
BLOCK_RECORD
  5
C048
330
1
100
AcDbSymbolTableRecord
100
AcDbBlockTableRecord
  2
*D35
340
0
  0
BLOCK_RECORD
  5
C05E
330
1
100
AcDbSymbolTableRecord
100
AcDbBlockTableRecord
  2
*D36
340
0
  0
BLOCK_RECORD
  5
C57E
330
1
100
AcDbSymbolTableRecord
100
AcDbBlockTableRecord
  2
*D37
340
0
  0
BLOCK_RECORD
  5
C58A
330
1
100
AcDbSymbolTableRecord
100
AcDbBlockTableRecord
  2
*D38
340
0
  0
BLOCK_RECORD
  5
C596
330
1
100
AcDbSymbolTableRecord
100
AcDbBlockTableRecord
  2
*D39
340
0
  0
BLOCK_RECORD
  5
C5A2
330
1
100
AcDbSymbolTableRecord
100
AcDbBlockTableRecord
  2
*D40
340
0
  0
BLOCK_RECORD
  5
CE2B
330
1
100
AcDbSymbolTableRecord
100
AcDbBlockTableRecord
  2
*D41
340
0
  0
BLOCK_RECORD
  5
CE37
330
1
100
AcDbSymbolTableRecord
100
AcDbBlockTableRecord
  2
*D42
340
0
  0
BLOCK_RECORD
  5
D8FC
330
1
100
AcDbSymbolTableRecord
100
AcDbBlockTableRecord
  2
*D43
340
0
  0
ENDTAB
  0
ENDSEC
  0
SECTION
  2
BLOCKS
  0
BLOCK
  5
1F
330
1E
100
AcDbEntity
  8
0
100
AcDbBlockBegin
  2
*MODEL_SPACE
 70
     0
 10
0.0
 20
0.0
 30
0.0
  3
*MODEL_SPACE
  1

  0
ENDBLK
  5
20
330
1E
100
AcDbEntity
  8
0
100
AcDbBlockEnd
  0
BLOCK
  5
1B
330
1A
100
AcDbEntity
 67
     1
  8
0
100
AcDbBlockBegin
  2
*PAPER_SPACE
 70
     0
 10
0.0
 20
0.0
 30
0.0
  3
*PAPER_SPACE
  1

  0
ENDBLK
  5
1C
330
1A
100
AcDbEntity
 67
     1
  8
0
100
AcDbBlockEnd
  0
BLOCK
  5
3B6
330
3B2
100
AcDbEntity
  8
0
100
AcDbBlockBegin
  2
_OPEN
 70
     0
 10
0.0
 20
0.0
 30
0.0
  3
_OPEN
  1

  0
LINE
  5
3B3
330
3B2
100
AcDbEntity
  8
30
  6
Continuous
 62
     0
100
AcDbLine
 10
-1.0
 20
0.166667
 30
0.0
 11
0.0
 21
0.0
 31
0.0
  0
LINE
  5
3B4
330
3B2
100
AcDbEntity
  8
30
  6
Continuous
 62
     0
100
AcDbLine
 10
-1.0
 20
-0.166667
 30
0.0
 11
0.0
 21
0.0
 31
0.0
  0
LINE
  5
3B5
330
3B2
100
AcDbEntity
  8
30
  6
Continuous
 62
     0
100
AcDbLine
 10
0.0
 20
0.0
 30
0.0
 11
-1.0
 21
0.0
 31
0.0
  0
ENDBLK
  5
3B7
330
3B2
100
AcDbEntity
  8
0
100
AcDbBlockEnd
  0
BLOCK
  5
9800
330
97F7
100
AcDbEntity
  8
0
100
AcDbBlockBegin
  2
*D1
 70
     1
 10
0.0
 20
0.0
 30
0.0
  3
*D1
  1

  0
LINE
  5
DCD9
330
97F7
100
AcDbEntity
  8
30
  6
Continuous
 62
     0
370
    -2
100
AcDbLine
 10
68.82809630117133
 20
201.7281694910691
 30
0.0
 11
70.96076360188354
 21
210.4718355089305
 31
0.0
  0
LINE
  5
DCDA
330
97F7
100
AcDbEntity
  8
30
  6
Continuous
 62
     0
370
    -2
100
AcDbLine
 10
71.4346897703761
 20
212.4148728186129
 30
0.0
 11
74.92021048750226
 21
226.7050666236713
 31
0.0
  0
LINE
  5
DCDB
330
97F7
100
AcDbEntity
  8
30
  6
Continuous
 62
     0
370
    -2
100
AcDbLine
 10
74.92021048750226
 20
226.7050666236713
 30
0.0
 11
91.92021048750225
 21
226.7050666236713
 31
0.0
  0
INSERT
  5
DCDC
330
97F7
100
AcDbEntity
  8
30
  6
Continuous
 62
     0
370
    -2
100
AcDbBlockReference
  2
_OPEN
 10
68.35417013267877
 20
199.7851321813866
 30
0.0
 41
2.0
 42
2.0
 43
2.0
 50
256.2926318262961
  0
INSERT
  5
DCDD
330
97F7
100
AcDbEntity
  8
30
  6
Continuous
 62
     0
370
    -2
100
AcDbBlockReference
  2
_OPEN
 10
71.4346897703761
 20
212.4148728186129
 30
0.0
 41
2.0
 42
2.0
 43
2.0
 50
76.29263182629607
  0
MTEXT
  5
DCDE
102
{ACAD_XDICTIONARY
360
DE3C
102
}
330
97F7
100
AcDbEntity
  8
30
  6
Continuous
 62
     0
100
AcDbMText
 10
84.92021048750222
 20
232.7050666236713
 30
0.0
 40
6.0
 41
0.0
 71
     5
 72
     1
  1
\A1;\U+220513
 73
     1
 44
1.0
1001
ACAD
1000
MTEXTBEGIN
1070
    73
1070
     1
1070
    44
1040
1.0
1070
    74
1070
     0
1000
MTEXTEND
  0
POINT
  5
DCDF
330
97F7
100
AcDbEntity
  8
DEFPOINTS
  6
Continuous
 62
     0
100
AcDbPoint
 10
71.4346897703761
 20
212.4148728186129
 30
0.0
  0
POINT
  5
DCE0
330
97F7
100
AcDbEntity
  8
DEFPOINTS
  6
Continuous
 62
     0
100
AcDbPoint
 10
68.35417013267877
 20
199.7851321813866
 30
0.0
  0
ENDBLK
  5
9801
330
97F7
100
AcDbEntity
  8
0
100
AcDbBlockEnd
  0
BLOCK
  5
980D
330
9802
100
AcDbEntity
  8
0
100
AcDbBlockBegin
  2
*D2
 70
     1
 10
0.0
 20
0.0
 30
0.0
  3
*D2
  1

  0
LINE
  5
DD1E
330
9802
100
AcDbEntity
  8
30
  6
Continuous
 62
     0
370
    -2
100
AcDbLine
 10
63.49442745152717
 20
177.9999999999995
 30
0.0
 11
63.49442745152717
 21
186.4233686405284
 31
0.0
  0
LINE
  5
DD1F
330
9802
100
AcDbEntity
  8
30
  6
Continuous
 62
     0
370
    -2
100
AcDbLine
 10
76.49442745152716
 20
177.9999999999995
 30
0.0
 11
76.49442745152716
 21
186.4233686405284
 31
0.0
  0
LINE
  5
DD20
330
9802
100
AcDbEntity
  8
30
  6
Continuous
 62
     0
370
    -2
100
AcDbLine
 10
65.49442745152717
 20
185.9233686405284
 30
0.0
 11
74.49442745152715
 21
185.9233686405284
 31
0.0
  0
INSERT
  5
DD21
330
9802
100
AcDbEntity
  8
30
  6
Continuous
 62
     0
370
    -2
100
AcDbBlockReference
  2
_OPEN
 10
63.49442745152717
 20
185.9233686405284
 30
0.0
 41
2.0
 42
2.0
 43
2.0
 50
180.0
  0
INSERT
  5
DD22
330
9802
100
AcDbEntity
  8
30
  6
Continuous
 62
     0
370
    -2
100
AcDbBlockReference
  2
_OPEN
 10
76.49442745152716
 20
185.9233686405284
 30
0.0
 41
2.0
 42
2.0
 43
2.0
  0
MTEXT
  5
DD23
330
9802
100
AcDbEntity
  8
30
  6
Continuous
 62
     0
100
AcDbMText
 10
69.99442745152717
 20
191.9233686405284
 30
0.0
 40
6.0
 41
0.0
 71
     5
 72
     1
  1
\A1; 13 
 73
     1
 44
1.0
1001
ACAD
1000
MTEXTBEGIN
1070
    73
1070
     1
1070
    44
1040
1.0
1070
    74
1070
     0
1000
MTEXTEND
  0
POINT
  5
DD24
330
9802
100
AcDbEntity
  8
DEFPOINTS
  6
Continuous
 62
     0
100
AcDbPoint
 10
63.49442745152717
 20
174.9999999999995
 30
0.0
  0
POINT
  5
DD25
330
9802
100
AcDbEntity
  8
DEFPOINTS
  6
Continuous
 62
     0
100
AcDbPoint
 10
76.49442745152716
 20
174.9999999999995
 30
0.0
  0
POINT
  5
DD26
330
9802
100
AcDbEntity
  8
DEFPOINTS
  6
Continuous
 62
     0
100
AcDbPoint
 10
76.49442745152716
 20
185.9233686405284
 30
0.0
  0
ENDBLK
  5
980E
330
9802
100
AcDbEntity
  8
0
100
AcDbBlockEnd
  0
BLOCK
  5
98C0
330
98B6
100
AcDbEntity
  8
0
100
AcDbBlockBegin
  2
*D3
 70
     1
 10
0.0
 20
0.0
 30
0.0
  3
*D3
  1

  0
LINE
  5
DA9F
330
98B6
100
AcDbEntity
  8
30
  6
Continuous
 62
     0
370
    -2
100
AcDbLine
 10
393.9944274515275
 20
-52.99999999999975
 30
0.0
 11
393.9944274515275
 21
-250.4999999999999
 31
0.0
  0
LINE
  5
DAA0
330
98B6
100
AcDbEntity
  8
30
  6
Continuous
 62
     0
370
    -2
100
AcDbLine
 10
496.9944274515269
 20
-139.9999999999995
 30
0.0
 11
496.9944274515269
 21
-250.4999999999999
 31
0.0
  0
LINE
  5
DAA1
330
98B6
100
AcDbEntity
  8
30
  6
Continuous
 62
     0
370
    -2
100
AcDbLine
 10
395.9944274515277
 20
-249.9999999999999
 30
0.0
 11
494.9944274515273
 21
-249.9999999999999
 31
0.0
  0
INSERT
  5
DAA2
330
98B6
100
AcDbEntity
  8
30
  6
Continuous
 62
     0
370
    -2
100
AcDbBlockReference
  2
_OPEN
 10
393.9944274515275
 20
-249.9999999999999
 30
0.0
 41
2.0
 42
2.0
 43
2.0
 50
180.0
  0
INSERT
  5
DAA3
330
98B6
100
AcDbEntity
  8
30
  6
Continuous
 62
     0
370
    -2
100
AcDbBlockReference
  2
_OPEN
 10
496.9944274515269
 20
-249.9999999999999
 30
0.0
 41
2.0
 42
2.0
 43
2.0
  0
MTEXT
  5
DAA4
330
98B6
100
AcDbEntity
  8
30
  6
Continuous
 62
     0
100
AcDbMText
 10
445.4944274515274
 20
-243.9999999999999
 30
0.0
 40
6.0
 41
0.0
 71
     5
 72
     1
  1
\A1; 103 
 73
     1
 44
1.0
1001
ACAD
1000
MTEXTBEGIN
1070
    73
1070
     1
1070
    44
1040
1.0
1070
    74
1070
     0
1000
MTEXTEND
  0
POINT
  5
DAA5
330
98B6
100
AcDbEntity
  8
DEFPOINTS
  6
Continuous
 62
     0
100
AcDbPoint
 10
393.9944274515275
 20
-49.99999999999976
 30
0.0
  0
POINT
  5
DAA6
330
98B6
100
AcDbEntity
  8
DEFPOINTS
  6
Continuous
 62
     0
100
AcDbPoint
 10
496.9944274515269
 20
-136.9999999999995
 30
0.0
  0
POINT
  5
DAA7
330
98B6
100
AcDbEntity
  8
DEFPOINTS
  6
Continuous
 62
     0
100
AcDbPoint
 10
496.9944274515269
 20
-249.9999999999999
 30
0.0
  0
ENDBLK
  5
98C1
330
98B6
100
AcDbEntity
  8
0
100
AcDbBlockEnd
  0
BLOCK
  5
98CC
330
98C2
100
AcDbEntity
  8
0
100
AcDbBlockBegin
  2
*D4
 70
     1
 10
0.0
 20
0.0
 30
0.0
  3
*D4
  1

  0
LINE
  5
DA96
330
98C2
100
AcDbEntity
  8
30
  6
Continuous
 62
     0
370
    -2
100
AcDbLine
 10
389.9944274515273
 20
-52.99999999999975
 30
0.0
 11
389.9944274515273
 21
-270.5
 31
0.0
  0
LINE
  5
DA97
330
98C2
100
AcDbEntity
  8
30
  6
Continuous
 62
     0
370
    -2
100
AcDbLine
 10
496.9944274515269
 20
-139.9999999999995
 30
0.0
 11
496.9944274515269
 21
-270.5
 31
0.0
  0
LINE
  5
DA98
330
98C2
100
AcDbEntity
  8
30
  6
Continuous
 62
     0
370
    -2
100
AcDbLine
 10
391.9944274515273
 20
-270.0
 30
0.0
 11
494.9944274515273
 21
-270.0
 31
0.0
  0
INSERT
  5
DA99
330
98C2
100
AcDbEntity
  8
30
  6
Continuous
 62
     0
370
    -2
100
AcDbBlockReference
  2
_OPEN
 10
389.9944274515273
 20
-270.0
 30
0.0
 41
2.0
 42
2.0
 43
2.0
 50
180.0
  0
INSERT
  5
DA9A
330
98C2
100
AcDbEntity
  8
30
  6
Continuous
 62
     0
370
    -2
100
AcDbBlockReference
  2
_OPEN
 10
496.9944274515269
 20
-270.0
 30
0.0
 41
2.0
 42
2.0
 43
2.0
  0
MTEXT
  5
DA9B
330
98C2
100
AcDbEntity
  8
30
  6
Continuous
 62
     0
100
AcDbMText
 10
443.4944274515273
 20
-264.0
 30
0.0
 40
6.0
 41
0.0
 71
     5
 72
     1
  1
\A1; 107 
 73
     1
 44
1.0
1001
ACAD
1000
MTEXTBEGIN
1070
    73
1070
     1
1070
    44
1040
1.0
1070
    74
1070
     0
1000
MTEXTEND
  0
POINT
  5
DA9C
330
98C2
100
AcDbEntity
  8
DEFPOINTS
  6
Continuous
 62
     0
100
AcDbPoint
 10
389.9944274515273
 20
-49.99999999999976
 30
0.0
  0
POINT
  5
DA9D
330
98C2
100
AcDbEntity
  8
DEFPOINTS
  6
Continuous
 62
     0
100
AcDbPoint
 10
496.9944274515269
 20
-136.9999999999995
 30
0.0
  0
POINT
  5
DA9E
330
98C2
100
AcDbEntity
  8
DEFPOINTS
  6
Continuous
 62
     0
100
AcDbPoint
 10
496.9944274515269
 20
-270.0
 30
0.0
  0
ENDBLK
  5
98CD
330
98C2
100
AcDbEntity
  8
0
100
AcDbBlockEnd
  0
BLOCK
  5
98D8
330
98CE
100
AcDbEntity
  8
0
100
AcDbBlockBegin
  2
*D5
 70
     1
 10
0.0
 20
0.0
 30
0.0
  3
*D5
  1

  0
LINE
  5
DA8D
330
98CE
100
AcDbEntity
  8
30
  6
Continuous
 62
     0
370
    -2
100
AcDbLine
 10
369.4944274515274
 20
2.000000000000145
 30
0.0
 11
369.4944274515274
 21
-290.5
 31
0.0
  0
LINE
  5
DA8E
330
98CE
100
AcDbEntity
  8
30
  6
Continuous
 62
     0
370
    -2
100
AcDbLine
 10
496.9944274515269
 20
-3.499999999999947
 30
0.0
 11
496.9944274515269
 21
-290.5
 31
0.0
  0
LINE
  5
DA8F
330
98CE
100
AcDbEntity
  8
30
  6
Continuous
 62
     0
370
    -2
100
AcDbLine
 10
371.4944274515274
 20
-290.0
 30
0.0
 11
494.9944274515273
 21
-290.0
 31
0.0
  0
INSERT
  5
DA90
330
98CE
100
AcDbEntity
  8
30
  6
Continuous
 62
     0
370
    -2
100
AcDbBlockReference
  2
_OPEN
 10
369.4944274515274
 20
-290.0
 30
0.0
 41
2.0
 42
2.0
 43
2.0
 50
180.0
  0
INSERT
  5
DA91
330
98CE
100
AcDbEntity
  8
30
  6
Continuous
 62
     0
370
    -2
100
AcDbBlockReference
  2
_OPEN
 10
496.9944274515269
 20
-290.0
 30
0.0
 41
2.0
 42
2.0
 43
2.0
  0
MTEXT
  5
DA92
330
98CE
100
AcDbEntity
  8
30
  6
Continuous
 62
     0
100
AcDbMText
 10
433.2444274515274
 20
-284.0
 30
0.0
 40
6.0
 41
0.0
 71
     5
 72
     1
  1
\A1; 127.5 
 73
     1
 44
1.0
1001
ACAD
1000
MTEXTBEGIN
1070
    73
1070
     1
1070
    44
1040
1.0
1070
    74
1070
     0
1000
MTEXTEND
  0
POINT
  5
DA93
330
98CE
100
AcDbEntity
  8
DEFPOINTS
  6
Continuous
 62
     0
100
AcDbPoint
 10
369.4944274515274
 20
5.000000000000143
 30
0.0
  0
POINT
  5
DA94
330
98CE
100
AcDbEntity
  8
DEFPOINTS
  6
Continuous
 62
     0
100
AcDbPoint
 10
496.9944274515269
 20
-0.4999999999999477
 30
0.0
  0
POINT
  5
DA95
330
98CE
100
AcDbEntity
  8
DEFPOINTS
  6
Continuous
 62
     0
100
AcDbPoint
 10
496.9944274515269
 20
-290.0
 30
0.0
  0
ENDBLK
  5
98D9
330
98CE
100
AcDbEntity
  8
0
100
AcDbBlockEnd
  0
BLOCK
  5
98E5
330
98DA
100
AcDbEntity
  8
0
100
AcDbBlockBegin
  2
*D6
 70
     1
 10
0.0
 20
0.0
 30
0.0
  3
*D6
  1

  0
LINE
  5
DA82
330
98DA
100
AcDbEntity
  8
30
  6
Continuous
 62
     0
370
    -2
100
AcDbLine
 10
385.9944274515274
 20
-3.499999999999947
 30
0.0
 11
385.9944274515274
 21
-270.5
 31
0.0
  0
LINE
  5
DA83
330
98DA
100
AcDbEntity
  8
30
  6
Continuous
 62
     0
370
    -2
100
AcDbLine
 10
389.9944274515273
 20
-52.99999999999975
 30
0.0
 11
389.9944274515273
 21
-270.5
 31
0.0
  0
LINE
  5
DA84
330
98DA
100
AcDbEntity
  8
30
  6
Continuous
 62
     0
370
    -2
100
AcDbLine
 10
383.9944274515275
 20
-270.0
 30
0.0
 11
381.9944274515274
 21
-270.0
 31
0.0
  0
LINE
  5
DA85
330
98DA
100
AcDbEntity
  8
30
  6
Continuous
 62
     0
370
    -2
100
AcDbLine
 10
391.9944274515273
 20
-270.0
 30
0.0
 11
407.5944274515274
 21
-270.0
 31
0.0
  0
LINE
  5
DA86
330
98DA
100
AcDbEntity
  8
30
  6
Continuous
 62
     0
370
    -2
100
AcDbLine
 10
385.9944274515274
 20
-270.0
 30
0.0
 11
389.9944274515273
 21
-270.0
 31
0.0
  0
INSERT
  5
DA87
330
98DA
100
AcDbEntity
  8
30
  6
Continuous
 62
     0
370
    -2
100
AcDbBlockReference
  2
_OPEN
 10
385.9944274515274
 20
-270.0
 30
0.0
 41
2.0
 42
2.0
 43
2.0
  0
INSERT
  5
DA88
330
98DA
100
AcDbEntity
  8
30
  6
Continuous
 62
     0
370
    -2
100
AcDbBlockReference
  2
_OPEN
 10
389.9944274515273
 20
-270.0
 30
0.0
 41
2.0
 42
2.0
 43
2.0
 50
180.0
  0
MTEXT
  5
DA89
330
98DA
100
AcDbEntity
  8
30
  6
Continuous
 62
     0
100
AcDbMText
 10
400.7944274515272
 20
-264.0
 30
0.0
 40
6.0
 41
0.0
 71
     5
 72
     1
  1
\A1; 4 
 73
     1
 44
1.0
1001
ACAD
1000
MTEXTBEGIN
1070
    73
1070
     1
1070
    44
1040
1.0
1070
    74
1070
     0
1000
MTEXTEND
  0
POINT
  5
DA8A
330
98DA
100
AcDbEntity
  8
DEFPOINTS
  6
Continuous
 62
     0
100
AcDbPoint
 10
385.9944274515274
 20
-0.4999999999999477
 30
0.0
  0
POINT
  5
DA8B
330
98DA
100
AcDbEntity
  8
DEFPOINTS
  6
Continuous
 62
     0
100
AcDbPoint
 10
389.9944274515273
 20
-49.99999999999976
 30
0.0
  0
POINT
  5
DA8C
330
98DA
100
AcDbEntity
  8
DEFPOINTS
  6
Continuous
 62
     0
100
AcDbPoint
 10
389.9944274515273
 20
-270.0
 30
0.0
  0
ENDBLK
  5
98E6
330
98DA
100
AcDbEntity
  8
0
100
AcDbBlockEnd
  0
BLOCK
  5
98F1
330
98E7
100
AcDbEntity
  8
0
100
AcDbBlockBegin
  2
*D7
 70
     1
 10
0.0
 20
0.0
 30
0.0
  3
*D7
  1

  0
LINE
  5
DA79
330
98E7
100
AcDbEntity
  8
30
  6
Continuous
 62
     0
370
    -2
100
AcDbLine
 10
-35.20557254847211
 20
-624.9999999999998
 30
0.0
 11
-35.20557254847211
 21
-667.5958749999996
 31
0.0
  0
LINE
  5
DA7A
330
98E7
100
AcDbEntity
  8
30
  6
Continuous
 62
     0
370
    -2
100
AcDbLine
 10
34.79442745152786
 20
-624.9999999999998
 30
0.0
 11
34.79442745152786
 21
-667.5958749999996
 31
0.0
  0
LINE
  5
DA7B
330
98E7
100
AcDbEntity
  8
30
  6
Continuous
 62
     0
370
    -2
100
AcDbLine
 10
-33.20557254847213
 20
-667.0958749999996
 30
0.0
 11
32.79442745152786
 21
-667.0958749999996
 31
0.0
  0
INSERT
  5
DA7C
330
98E7
100
AcDbEntity
  8
30
  6
Continuous
 62
     0
370
    -2
100
AcDbBlockReference
  2
_OPEN
 10
-35.20557254847211
 20
-667.0958749999996
 30
0.0
 41
2.0
 42
2.0
 43
2.0
 50
180.0
  0
INSERT
  5
DA7D
330
98E7
100
AcDbEntity
  8
30
  6
Continuous
 62
     0
370
    -2
100
AcDbBlockReference
  2
_OPEN
 10
34.79442745152786
 20
-667.0958749999996
 30
0.0
 41
2.0
 42
2.0
 43
2.0
  0
MTEXT
  5
DA7E
330
98E7
100
AcDbEntity
  8
30
  6
Continuous
 62
     0
100
AcDbMText
 10
-0.2055725484721332
 20
-661.0958749999996
 30
0.0
 40
6.0
 41
0.0
 71
     5
 72
     1
  1
\A1; 70 
 73
     1
 44
1.0
1001
ACAD
1000
MTEXTBEGIN
1070
    73
1070
     1
1070
    44
1040
1.0
1070
    74
1070
     0
1000
MTEXTEND
  0
POINT
  5
DA7F
330
98E7
100
AcDbEntity
  8
DEFPOINTS
  6
Continuous
 62
     0
100
AcDbPoint
 10
-35.20557254847211
 20
-621.9999999999997
 30
0.0
  0
POINT
  5
DA80
330
98E7
100
AcDbEntity
  8
DEFPOINTS
  6
Continuous
 62
     0
100
AcDbPoint
 10
34.79442745152786
 20
-621.9999999999997
 30
0.0
  0
POINT
  5
DA81
330
98E7
100
AcDbEntity
  8
DEFPOINTS
  6
Continuous
 62
     0
100
AcDbPoint
 10
34.79442745152786
 20
-667.0958749999996
 30
0.0
  0
ENDBLK
  5
98F2
330
98E7
100
AcDbEntity
  8
0
100
AcDbBlockEnd
  0
BLOCK
  5
990B
330
9900
100
AcDbEntity
  8
0
100
AcDbBlockBegin
  2
*D8
 70
     1
 10
0.0
 20
0.0
 30
0.0
  3
*D8
  1

  0
LINE
  5
DA70
330
9900
100
AcDbEntity
  8
30
  6
Continuous
 62
     0
370
    -2
100
AcDbLine
 10
-115.334453076311
 20
-500.0
 30
0.0
 11
-126.988353076311
 21
-500.0
 31
0.0
  0
LINE
  5
DA71
330
9900
100
AcDbEntity
  8
30
  6
Continuous
 62
     0
370
    -2
100
AcDbLine
 10
-44.20557254847259
 20
-374.0000000000002
 30
0.0
 11
-126.9883530763109
 21
-374.0000000000002
 31
0.0
  0
LINE
  5
DA72
330
9900
100
AcDbEntity
  8
30
  6
Continuous
 62
     0
370
    -2
100
AcDbLine
 10
-126.488353076311
 20
-498.0
 30
0.0
 11
-126.4883530763108
 21
-376.0000000000002
 31
0.0
  0
INSERT
  5
DA73
330
9900
100
AcDbEntity
  8
30
  6
Continuous
 62
     0
370
    -2
100
AcDbBlockReference
  2
_OPEN
 10
-126.488353076311
 20
-500.0
 30
0.0
 41
2.0
 42
2.0
 43
2.0
 50
270.0
  0
INSERT
  5
DA74
330
9900
100
AcDbEntity
  8
30
  6
Continuous
 62
     0
370
    -2
100
AcDbBlockReference
  2
_OPEN
 10
-126.4883530763108
 20
-374.0000000000002
 30
0.0
 41
2.0
 42
2.0
 43
2.0
 50
90.0
  0
MTEXT
  5
DA75
330
9900
100
AcDbEntity
  8
30
  6
Continuous
 62
     0
100
AcDbMText
 10
-132.4883530763109
 20
-437.0
 30
0.0
 40
6.0
 41
0.0
 71
     5
 72
     1
  1
\A1; 126 
 11
0.0000000000000001
 21
1.0
 31
0.0
 73
     1
 44
1.0
1001
ACAD
1000
MTEXTBEGIN
1070
    73
1070
     1
1070
    44
1040
1.0
1070
    74
1070
     0
1000
MTEXTEND
  0
POINT
  5
DA76
330
9900
100
AcDbEntity
  8
DEFPOINTS
  6
Continuous
 62
     0
100
AcDbPoint
 10
-112.334453076311
 20
-500.0
 30
0.0
  0
POINT
  5
DA77
330
9900
100
AcDbEntity
  8
DEFPOINTS
  6
Continuous
 62
     0
100
AcDbPoint
 10
-41.20557254847257
 20
-374.0000000000002
 30
0.0
  0
POINT
  5
DA78
330
9900
100
AcDbEntity
  8
DEFPOINTS
  6
Continuous
 62
     0
100
AcDbPoint
 10
-126.4883530763108
 20
-374.0000000000002
 30
0.0
  0
ENDBLK
  5
990C
330
9900
100
AcDbEntity
  8
0
100
AcDbBlockEnd
  0
BLOCK
  5
9918
330
990D
100
AcDbEntity
  8
0
100
AcDbBlockBegin
  2
*D9
 70
     1
 10
0.0
 20
0.0
 30
0.0
  3
*D9
  1

  0
LINE
  5
DA67
330
990D
100
AcDbEntity
  8
30
  6
Continuous
 62
     0
370
    -2
100
AcDbLine
 10
-44.20557254847259
 20
-616.9999999999996
 30
0.0
 11
-126.988353076311
 21
-616.9999999999996
 31
0.0
  0
LINE
  5
DA68
330
990D
100
AcDbEntity
  8
30
  6
Continuous
 62
     0
370
    -2
100
AcDbLine
 10
-117.8055725484719
 20
-500.0
 30
0.0
 11
-126.9883530763109
 21
-500.0
 31
0.0
  0
LINE
  5
DA69
330
990D
100
AcDbEntity
  8
30
  6
Continuous
 62
     0
370
    -2
100
AcDbLine
 10
-126.488353076311
 20
-614.9999999999996
 30
0.0
 11
-126.4883530763108
 21
-502.0
 31
0.0
  0
INSERT
  5
DA6A
330
990D
100
AcDbEntity
  8
30
  6
Continuous
 62
     0
370
    -2
100
AcDbBlockReference
  2
_OPEN
 10
-126.488353076311
 20
-616.9999999999996
 30
0.0
 41
2.0
 42
2.0
 43
2.0
 50
270.0
  0
INSERT
  5
DA6B
330
990D
100
AcDbEntity
  8
30
  6
Continuous
 62
     0
370
    -2
100
AcDbBlockReference
  2
_OPEN
 10
-126.4883530763108
 20
-500.0
 30
0.0
 41
2.0
 42
2.0
 43
2.0
 50
90.0
  0
MTEXT
  5
DA6C
330
990D
100
AcDbEntity
  8
30
  6
Continuous
 62
     0
100
AcDbMText
 10
-132.4883530763109
 20
-558.4999999999999
 30
0.0
 40
6.0
 41
0.0
 71
     5
 72
     1
  1
\A1; 117 
 11
0.0000000000000001
 21
1.0
 31
0.0
 73
     1
 44
1.0
1001
ACAD
1000
MTEXTBEGIN
1070
    73
1070
     1
1070
    44
1040
1.0
1070
    74
1070
     0
1000
MTEXTEND
  0
POINT
  5
DA6D
330
990D
100
AcDbEntity
  8
DEFPOINTS
  6
Continuous
 62
     0
100
AcDbPoint
 10
-41.20557254847257
 20
-616.9999999999996
 30
0.0
  0
POINT
  5
DA6E
330
990D
100
AcDbEntity
  8
DEFPOINTS
  6
Continuous
 62
     0
100
AcDbPoint
 10
-114.805572548472
 20
-500.0
 30
0.0
  0
POINT
  5
DA6F
330
990D
100
AcDbEntity
  8
DEFPOINTS
  6
Continuous
 62
     0
100
AcDbPoint
 10
-126.4883530763108
 20
-500.0
 30
0.0
  0
ENDBLK
  5
9919
330
990D
100
AcDbEntity
  8
0
100
AcDbBlockEnd
  0
BLOCK
  5
9948
330
993E
100
AcDbEntity
  8
0
100
AcDbBlockBegin
  2
*D10
 70
     1
 10
0.0
 20
0.0
 30
0.0
  3
*D10
  1

  0
LINE
  5
DA5E
330
993E
100
AcDbEntity
  8
30
  6
Continuous
 62
     0
370
    -2
100
AcDbLine
 10
468.9944274515274
 20
-100.7499999999994
 30
0.0
 11
468.9944274515274
 21
-71.59587499999971
 31
0.0
  0
LINE
  5
DA5F
330
993E
100
AcDbEntity
  8
30
  6
Continuous
 62
     0
370
    -2
100
AcDbLine
 10
496.9944274515269
 20
-75.34587499999968
 30
0.0
 11
496.9944274515269
 21
-71.59587499999971
 31
0.0
  0
LINE
  5
DA60
330
993E
100
AcDbEntity
  8
30
  6
Continuous
 62
     0
370
    -2
100
AcDbLine
 10
470.9944274515271
 20
-72.09587499999971
 30
0.0
 11
494.9944274515273
 21
-72.09587499999971
 31
0.0
  0
INSERT
  5
DA61
330
993E
100
AcDbEntity
  8
30
  6
Continuous
 62
     0
370
    -2
100
AcDbBlockReference
  2
_OPEN
 10
468.9944274515274
 20
-72.09587499999971
 30
0.0
 41
2.0
 42
2.0
 43
2.0
 50
180.0
  0
INSERT
  5
DA62
330
993E
100
AcDbEntity
  8
30
  6
Continuous
 62
     0
370
    -2
100
AcDbBlockReference
  2
_OPEN
 10
496.9944274515269
 20
-72.09587499999971
 30
0.0
 41
2.0
 42
2.0
 43
2.0
  0
MTEXT
  5
DA63
330
993E
100
AcDbEntity
  8
30
  6
Continuous
 62
     0
100
AcDbMText
 10
482.9944274515272
 20
-66.09587499999971
 30
0.0
 40
6.0
 41
0.0
 71
     5
 72
     1
  1
\A1; 28 
 73
     1
 44
1.0
1001
ACAD
1000
MTEXTBEGIN
1070
    73
1070
     1
1070
    44
1040
1.0
1070
    74
1070
     0
1000
MTEXTEND
  0
POINT
  5
DA64
330
993E
100
AcDbEntity
  8
DEFPOINTS
  6
Continuous
 62
     0
100
AcDbPoint
 10
468.9944274515274
 20
-103.7499999999994
 30
0.0
  0
POINT
  5
DA65
330
993E
100
AcDbEntity
  8
DEFPOINTS
  6
Continuous
 62
     0
100
AcDbPoint
 10
496.9944274515269
 20
-78.34587499999968
 30
0.0
  0
POINT
  5
DA66
330
993E
100
AcDbEntity
  8
DEFPOINTS
  6
Continuous
 62
     0
100
AcDbPoint
 10
496.9944274515269
 20
-72.09587499999971
 30
0.0
  0
ENDBLK
  5
9949
330
993E
100
AcDbEntity
  8
0
100
AcDbBlockEnd
  0
BLOCK
  5
9954
330
994A
100
AcDbEntity
  8
0
100
AcDbBlockBegin
  2
*D11
 70
     1
 10
0.0
 20
0.0
 30
0.0
  3
*D11
  1

  0
LINE
  5
DA55
330
994A
100
AcDbEntity
  8
30
  6
Continuous
 62
     0
370
    -2
100
AcDbLine
 10
509.9944274515273
 20
-104.9999999999996
 30
0.0
 11
509.9944274515273
 21
-71.59587499999971
 31
0.0
  0
LINE
  5
DA56
330
994A
100
AcDbEntity
  8
30
  6
Continuous
 62
     0
370
    -2
100
AcDbLine
 10
496.9944274515269
 20
-75.34587499999968
 30
0.0
 11
496.9944274515269
 21
-71.59587499999971
 31
0.0
  0
LINE
  5
DA57
330
994A
100
AcDbEntity
  8
30
  6
Continuous
 62
     0
370
    -2
100
AcDbLine
 10
507.9944274515272
 20
-72.09587499999971
 30
0.0
 11
498.9944274515273
 21
-72.09587499999971
 31
0.0
  0
INSERT
  5
DA58
330
994A
100
AcDbEntity
  8
30
  6
Continuous
 62
     0
370
    -2
100
AcDbBlockReference
  2
_OPEN
 10
509.9944274515273
 20
-72.09587499999971
 30
0.0
 41
2.0
 42
2.0
 43
2.0
  0
INSERT
  5
DA59
330
994A
100
AcDbEntity
  8
30
  6
Continuous
 62
     0
370
    -2
100
AcDbBlockReference
  2
_OPEN
 10
496.9944274515269
 20
-72.09587499999971
 30
0.0
 41
2.0
 42
2.0
 43
2.0
 50
180.0
  0
MTEXT
  5
DA5A
330
994A
100
AcDbEntity
  8
30
  6
Continuous
 62
     0
100
AcDbMText
 10
503.4944274515273
 20
-66.09587499999971
 30
0.0
 40
6.0
 41
0.0
 71
     5
 72
     1
  1
\A1; 13 
 73
     1
 44
1.0
1001
ACAD
1000
MTEXTBEGIN
1070
    73
1070
     1
1070
    44
1040
1.0
1070
    74
1070
     0
1000
MTEXTEND
  0
POINT
  5
DA5B
330
994A
100
AcDbEntity
  8
DEFPOINTS
  6
Continuous
 62
     0
100
AcDbPoint
 10
509.9944274515273
 20
-107.9999999999996
 30
0.0
  0
POINT
  5
DA5C
330
994A
100
AcDbEntity
  8
DEFPOINTS
  6
Continuous
 62
     0
100
AcDbPoint
 10
496.9944274515269
 20
-78.34587499999968
 30
0.0
  0
POINT
  5
DA5D
330
994A
100
AcDbEntity
  8
DEFPOINTS
  6
Continuous
 62
     0
100
AcDbPoint
 10
496.9944274515269
 20
-72.09587499999971
 30
0.0
  0
ENDBLK
  5
9955
330
994A
100
AcDbEntity
  8
0
100
AcDbBlockEnd
  0
BLOCK
  5
9960
330
9956
100
AcDbEntity
  8
0
100
AcDbBlockBegin
  2
*D12
 70
     1
 10
0.0
 20
0.0
 30
0.0
  3
*D12
  1

  0
LINE
  5
DA4C
330
9956
100
AcDbEntity
  8
30
  6
Continuous
 62
     0
370
    -2
100
AcDbLine
 10
314.1944274515275
 20
-548.0
 30
0.0
 11
314.1944274515275
 21
-672.5958749999992
 31
0.0
  0
LINE
  5
DA4D
330
9956
100
AcDbEntity
  8
30
  6
Continuous
 62
     0
370
    -2
100
AcDbLine
 10
486.1944274515273
 20
-548.0
 30
0.0
 11
486.1944274515273
 21
-672.5958749999992
 31
0.0
  0
LINE
  5
DA4E
330
9956
100
AcDbEntity
  8
30
  6
Continuous
 62
     0
370
    -2
100
AcDbLine
 10
316.1944274515273
 20
-672.0958749999994
 30
0.0
 11
484.1944274515273
 21
-672.0958749999994
 31
0.0
  0
INSERT
  5
DA4F
330
9956
100
AcDbEntity
  8
30
  6
Continuous
 62
     0
370
    -2
100
AcDbBlockReference
  2
_OPEN
 10
314.1944274515275
 20
-672.0958749999994
 30
0.0
 41
2.0
 42
2.0
 43
2.0
 50
180.0
  0
INSERT
  5
DA50
330
9956
100
AcDbEntity
  8
30
  6
Continuous
 62
     0
370
    -2
100
AcDbBlockReference
  2
_OPEN
 10
486.1944274515273
 20
-672.0958749999994
 30
0.0
 41
2.0
 42
2.0
 43
2.0
  0
MTEXT
  5
DA51
330
9956
100
AcDbEntity
  8
30
  6
Continuous
 62
     0
100
AcDbMText
 10
400.1944274515274
 20
-666.0958749999994
 30
0.0
 40
6.0
 41
0.0
 71
     5
 72
     1
  1
\A1; 172 
 73
     1
 44
1.0
1001
ACAD
1000
MTEXTBEGIN
1070
    73
1070
     1
1070
    44
1040
1.0
1070
    74
1070
     0
1000
MTEXTEND
  0
POINT
  5
DA52
330
9956
100
AcDbEntity
  8
DEFPOINTS
  6
Continuous
 62
     0
100
AcDbPoint
 10
314.1944274515275
 20
-545.0
 30
0.0
  0
POINT
  5
DA53
330
9956
100
AcDbEntity
  8
DEFPOINTS
  6
Continuous
 62
     0
100
AcDbPoint
 10
486.1944274515273
 20
-545.0
 30
0.0
  0
POINT
  5
DA54
330
9956
100
AcDbEntity
  8
DEFPOINTS
  6
Continuous
 62
     0
100
AcDbPoint
 10
486.1944274515273
 20
-672.0958749999994
 30
0.0
  0
ENDBLK
  5
9961
330
9956
100
AcDbEntity
  8
0
100
AcDbBlockEnd
  0
BLOCK
  5
99D6
330
99CC
100
AcDbEntity
  8
0
100
AcDbBlockBegin
  2
*D13
 70
     1
 10
0.0
 20
0.0
 30
0.0
  3
*D13
  1

  0
LINE
  5
DAE6
330
99CC
100
AcDbEntity
  8
30
  6
Continuous
 62
     0
370
    -2
100
AcDbLine
 10
351.9944274515277
 20
2.000000000000145
 30
0.0
 11
351.9944274515277
 21
-310.4999999999999
 31
0.0
  0
LINE
  5
DAE7
330
99CC
100
AcDbEntity
  8
30
  6
Continuous
 62
     0
370
    -2
100
AcDbLine
 10
496.9944274515269
 20
-139.9999999999995
 30
0.0
 11
496.9944274515269
 21
-310.4999999999999
 31
0.0
  0
LINE
  5
DAE8
330
99CC
100
AcDbEntity
  8
30
  6
Continuous
 62
     0
370
    -2
100
AcDbLine
 10
353.9944274515277
 20
-310.0
 30
0.0
 11
494.9944274515273
 21
-310.0
 31
0.0
  0
INSERT
  5
DAE9
330
99CC
100
AcDbEntity
  8
30
  6
Continuous
 62
     0
370
    -2
100
AcDbBlockReference
  2
_OPEN
 10
351.9944274515277
 20
-310.0
 30
0.0
 41
2.0
 42
2.0
 43
2.0
 50
180.0
  0
INSERT
  5
DAEA
330
99CC
100
AcDbEntity
  8
30
  6
Continuous
 62
     0
370
    -2
100
AcDbBlockReference
  2
_OPEN
 10
496.9944274515269
 20
-310.0
 30
0.0
 41
2.0
 42
2.0
 43
2.0
  0
MTEXT
  5
DAEB
330
99CC
100
AcDbEntity
  8
30
  6
Continuous
 62
     0
100
AcDbMText
 10
424.4944274515274
 20
-304.0
 30
0.0
 40
6.0
 41
0.0
 71
     5
 72
     1
  1
\A1; 145 
 73
     1
 44
1.0
1001
ACAD
1000
MTEXTBEGIN
1070
    73
1070
     1
1070
    44
1040
1.0
1070
    74
1070
     0
1000
MTEXTEND
  0
POINT
  5
DAEC
330
99CC
100
AcDbEntity
  8
DEFPOINTS
  6
Continuous
 62
     0
100
AcDbPoint
 10
351.9944274515277
 20
5.000000000000143
 30
0.0
  0
POINT
  5
DAED
330
99CC
100
AcDbEntity
  8
DEFPOINTS
  6
Continuous
 62
     0
100
AcDbPoint
 10
496.9944274515269
 20
-136.9999999999995
 30
0.0
  0
POINT
  5
DAEE
330
99CC
100
AcDbEntity
  8
DEFPOINTS
  6
Continuous
 62
     0
100
AcDbPoint
 10
496.9944274515269
 20
-310.0
 30
0.0
  0
ENDBLK
  5
99D7
330
99CC
100
AcDbEntity
  8
0
100
AcDbBlockEnd
  0
BLOCK
  5
99E2
330
99D8
100
AcDbEntity
  8
0
100
AcDbBlockBegin
  2
*D14
 70
     1
 10
0.0
 20
0.0
 30
0.0
  3
*D14
  1

  0
LINE
  5
DD8C
330
99D8
100
AcDbEntity
  8
30
  6
Continuous
 62
     0
370
    -2
100
AcDbLine
 10
-70.00557254847258
 20
-224.8999999999993
 30
0.0
 11
-70.00557254847258
 21
-248.1979374999991
 31
0.0
  0
LINE
  5
DD8D
330
99D8
100
AcDbEntity
  8
30
  6
Continuous
 62
     0
370
    -2
100
AcDbLine
 10
69.99442745152717
 20
-224.8999999999993
 30
0.0
 11
69.99442745152717
 21
-248.1979374999991
 31
0.0
  0
LINE
  5
DD8E
330
99D8
100
AcDbEntity
  8
30
  6
Continuous
 62
     0
370
    -2
100
AcDbLine
 10
-68.00557254847259
 20
-247.6979374999991
 30
0.0
 11
67.99442745152717
 21
-247.6979374999991
 31
0.0
  0
INSERT
  5
DD8F
330
99D8
100
AcDbEntity
  8
30
  6
Continuous
 62
     0
370
    -2
100
AcDbBlockReference
  2
_OPEN
 10
-70.00557254847258
 20
-247.6979374999991
 30
0.0
 41
2.0
 42
2.0
 43
2.0
 50
180.0
  0
INSERT
  5
DD90
330
99D8
100
AcDbEntity
  8
30
  6
Continuous
 62
     0
370
    -2
100
AcDbBlockReference
  2
_OPEN
 10
69.99442745152717
 20
-247.6979374999991
 30
0.0
 41
2.0
 42
2.0
 43
2.0
  0
MTEXT
  5
DD91
330
99D8
100
AcDbEntity
  8
30
  6
Continuous
 62
     0
100
AcDbMText
 10
-0.0055725484727059
 20
-241.6979374999991
 30
0.0
 40
6.0
 41
0.0
 71
     5
 72
     1
  1
\A1; 140 
 73
     1
 44
1.0
1001
ACAD
1000
MTEXTBEGIN
1070
    73
1070
     1
1070
    44
1040
1.0
1070
    74
1070
     0
1000
MTEXTEND
  0
POINT
  5
DD92
330
99D8
100
AcDbEntity
  8
DEFPOINTS
  6
Continuous
 62
     0
100
AcDbPoint
 10
-70.00557254847258
 20
-221.8999999999993
 30
0.0
  0
POINT
  5
DD93
330
99D8
100
AcDbEntity
  8
DEFPOINTS
  6
Continuous
 62
     0
100
AcDbPoint
 10
69.99442745152717
 20
-221.8999999999993
 30
0.0
  0
POINT
  5
DD94
330
99D8
100
AcDbEntity
  8
DEFPOINTS
  6
Continuous
 62
     0
100
AcDbPoint
 10
69.99442745152717
 20
-247.6979374999991
 30
0.0
  0
ENDBLK
  5
99E3
330
99D8
100
AcDbEntity
  8
0
100
AcDbBlockEnd
  0
BLOCK
  5
99EE
330
99E4
100
AcDbEntity
  8
0
100
AcDbBlockBegin
  2
*D15
 70
     1
 10
0.0
 20
0.0
 30
0.0
  3
*D15
  1

  0
LINE
  5
DAD4
330
99E4
100
AcDbEntity
  8
30
  6
Continuous
 62
     0
370
    -2
100
AcDbLine
 10
-105.0055725484724
 20
-134.9999999999995
 30
0.0
 11
-105.0055725484724
 21
-279.8973356080582
 31
0.0
  0
LINE
  5
DAD5
330
99E4
100
AcDbEntity
  8
30
  6
Continuous
 62
     0
370
    -2
100
AcDbLine
 10
104.9944274515267
 20
-134.9999999999995
 30
0.0
 11
104.9944274515266
 21
-279.8973356080582
 31
0.0
  0
LINE
  5
DAD6
330
99E4
100
AcDbEntity
  8
30
  6
Continuous
 62
     0
370
    -2
100
AcDbLine
 10
-103.0055725484725
 20
-279.3973356080582
 30
0.0
 11
102.9944274515269
 21
-279.3973356080582
 31
0.0
  0
INSERT
  5
DAD7
330
99E4
100
AcDbEntity
  8
30
  6
Continuous
 62
     0
370
    -2
100
AcDbBlockReference
  2
_OPEN
 10
-105.0055725484724
 20
-279.3973356080582
 30
0.0
 41
2.0
 42
2.0
 43
2.0
 50
180.0
  0
INSERT
  5
DAD8
330
99E4
100
AcDbEntity
  8
30
  6
Continuous
 62
     0
370
    -2
100
AcDbBlockReference
  2
_OPEN
 10
104.9944274515266
 20
-279.3973356080582
 30
0.0
 41
2.0
 42
2.0
 43
2.0
  0
MTEXT
  5
DAD9
330
99E4
100
AcDbEntity
  8
30
  6
Continuous
 62
     0
100
AcDbMText
 10
-0.0055725484727983
 20
-273.3973356080582
 30
0.0
 40
6.0
 41
0.0
 71
     5
 72
     1
  1
\A1; 210 
 73
     1
 44
1.0
1001
ACAD
1000
MTEXTBEGIN
1070
    73
1070
     1
1070
    44
1040
1.0
1070
    74
1070
     0
1000
MTEXTEND
  0
POINT
  5
DADA
330
99E4
100
AcDbEntity
  8
DEFPOINTS
  6
Continuous
 62
     0
100
AcDbPoint
 10
-105.0055725484724
 20
-131.9999999999995
 30
0.0
  0
POINT
  5
DADB
330
99E4
100
AcDbEntity
  8
DEFPOINTS
  6
Continuous
 62
     0
100
AcDbPoint
 10
104.9944274515267
 20
-131.9999999999995
 30
0.0
  0
POINT
  5
DADC
330
99E4
100
AcDbEntity
  8
DEFPOINTS
  6
Continuous
 62
     0
100
AcDbPoint
 10
104.9944274515266
 20
-279.3973356080582
 30
0.0
  0
ENDBLK
  5
99EF
330
99E4
100
AcDbEntity
  8
0
100
AcDbBlockEnd
  0
BLOCK
  5
9A5D
330
9A53
100
AcDbEntity
  8
0
100
AcDbBlockBegin
  2
*D16
 70
     1
 10
0.0
 20
0.0
 30
0.0
  3
*D16
  1

  0
LINE
  5
DACB
330
9A53
100
AcDbEntity
  8
30
  6
Continuous
 62
     0
370
    -2
100
AcDbLine
 10
351.9944274515277
 20
2.000000000000145
 30
0.0
 11
351.9944274515277
 21
-310.4999999999999
 31
0.0
  0
LINE
  5
DACC
330
9A53
100
AcDbEntity
  8
30
  6
Continuous
 62
     0
370
    -2
100
AcDbLine
 10
271.4933574515275
 20
2.000000000000145
 30
0.0
 11
271.4933574515275
 21
-310.4999999999999
 31
0.0
  0
LINE
  5
DACD
330
9A53
100
AcDbEntity
  8
30
  6
Continuous
 62
     0
370
    -2
100
AcDbLine
 10
349.9944274515279
 20
-310.0
 30
0.0
 11
273.4933574515275
 21
-310.0
 31
0.0
  0
INSERT
  5
DACE
330
9A53
100
AcDbEntity
  8
30
  6
Continuous
 62
     0
370
    -2
100
AcDbBlockReference
  2
_OPEN
 10
351.9944274515277
 20
-310.0
 30
0.0
 41
2.0
 42
2.0
 43
2.0
  0
INSERT
  5
DACF
330
9A53
100
AcDbEntity
  8
30
  6
Continuous
 62
     0
370
    -2
100
AcDbBlockReference
  2
_OPEN
 10
271.4933574515275
 20
-310.0
 30
0.0
 41
2.0
 42
2.0
 43
2.0
 50
180.0
  0
MTEXT
  5
DAD0
330
9A53
100
AcDbEntity
  8
30
  6
Continuous
 62
     0
100
AcDbMText
 10
311.7438924515278
 20
-304.0
 30
0.0
 40
6.0
 41
0.0
 71
     5
 72
     1
  1
\A1; 80.5 
 73
     1
 44
1.0
1001
ACAD
1000
MTEXTBEGIN
1070
    73
1070
     1
1070
    44
1040
1.0
1070
    74
1070
     0
1000
MTEXTEND
  0
POINT
  5
DAD1
330
9A53
100
AcDbEntity
  8
DEFPOINTS
  6
Continuous
 62
     0
100
AcDbPoint
 10
351.9944274515277
 20
5.000000000000143
 30
0.0
  0
POINT
  5
DAD2
330
9A53
100
AcDbEntity
  8
DEFPOINTS
  6
Continuous
 62
     0
100
AcDbPoint
 10
271.4933574515275
 20
5.000000000000143
 30
0.0
  0
POINT
  5
DAD3
330
9A53
100
AcDbEntity
  8
DEFPOINTS
  6
Continuous
 62
     0
100
AcDbPoint
 10
271.4933574515275
 20
-310.0
 30
0.0
  0
ENDBLK
  5
9A5E
330
9A53
100
AcDbEntity
  8
0
100
AcDbBlockEnd
  0
BLOCK
  5
9A69
330
9A5F
100
AcDbEntity
  8
0
100
AcDbBlockBegin
  2
*D17
 70
     1
 10
0.0
 20
0.0
 30
0.0
  3
*D17
  1

  0
LINE
  5
DD95
330
9A5F
100
AcDbEntity
  8
30
  6
Continuous
 62
     0
370
    -2
100
AcDbLine
 10
49.99442745152718
 20
-219.8999999999993
 30
0.0
 11
49.99442745152718
 21
-231.3250754595472
 31
0.0
  0
LINE
  5
DD96
330
9A5F
100
AcDbEntity
  8
30
  6
Continuous
 62
     0
370
    -2
100
AcDbLine
 10
89.9944274515272
 20
-219.8999999999993
 30
0.0
 11
89.9944274515272
 21
-231.3250754595472
 31
0.0
  0
LINE
  5
DD97
330
9A5F
100
AcDbEntity
  8
30
  6
Continuous
 62
     0
370
    -2
100
AcDbLine
 10
51.99442745152718
 20
-230.8250754595472
 30
0.0
 11
87.9944274515272
 21
-230.8250754595472
 31
0.0
  0
INSERT
  5
DD98
330
9A5F
100
AcDbEntity
  8
30
  6
Continuous
 62
     0
370
    -2
100
AcDbBlockReference
  2
_OPEN
 10
49.99442745152718
 20
-230.8250754595472
 30
0.0
 41
2.0
 42
2.0
 43
2.0
 50
180.0
  0
INSERT
  5
DD99
330
9A5F
100
AcDbEntity
  8
30
  6
Continuous
 62
     0
370
    -2
100
AcDbBlockReference
  2
_OPEN
 10
89.9944274515272
 20
-230.8250754595472
 30
0.0
 41
2.0
 42
2.0
 43
2.0
  0
MTEXT
  5
DD9A
330
9A5F
100
AcDbEntity
  8
30
  6
Continuous
 62
     0
100
AcDbMText
 10
69.99442745152719
 20
-224.8250754595472
 30
0.0
 40
6.0
 41
0.0
 71
     5
 72
     1
  1
\A1; 40 
 73
     1
 44
1.0
1001
ACAD
1000
MTEXTBEGIN
1070
    73
1070
     1
1070
    44
1040
1.0
1070
    74
1070
     0
1000
MTEXTEND
  0
POINT
  5
DD9B
330
9A5F
100
AcDbEntity
  8
DEFPOINTS
  6
Continuous
 62
     0
100
AcDbPoint
 10
49.99442745152718
 20
-216.8999999999993
 30
0.0
  0
POINT
  5
DD9C
330
9A5F
100
AcDbEntity
  8
DEFPOINTS
  6
Continuous
 62
     0
100
AcDbPoint
 10
89.9944274515272
 20
-216.8999999999993
 30
0.0
  0
POINT
  5
DD9D
330
9A5F
100
AcDbEntity
  8
DEFPOINTS
  6
Continuous
 62
     0
100
AcDbPoint
 10
89.9944274515272
 20
-230.8250754595472
 30
0.0
  0
ENDBLK
  5
9A6A
330
9A5F
100
AcDbEntity
  8
0
100
AcDbBlockEnd
  0
BLOCK
  5
9A82
330
9A78
100
AcDbEntity
  8
0
100
AcDbBlockBegin
  2
*D18
 70
     1
 10
0.0
 20
0.0
 30
0.0
  3
*D18
  1

  0
LINE
  5
DAB9
330
9A78
100
AcDbEntity
  8
30
  6
Continuous
 62
     0
370
    -2
100
AcDbLine
 10
-25.50557254847253
 20
-52.99999999999975
 30
0.0
 11
-25.50557254847253
 21
-72.5958749999997
 31
0.0
  0
LINE
  5
DABA
330
9A78
100
AcDbEntity
  8
30
  6
Continuous
 62
     0
370
    -2
100
AcDbLine
 10
25.49442745152744
 20
-52.99999999999975
 30
0.0
 11
25.49442745152744
 21
-72.5958749999997
 31
0.0
  0
LINE
  5
DABB
330
9A78
100
AcDbEntity
  8
30
  6
Continuous
 62
     0
370
    -2
100
AcDbLine
 10
-23.50557254847253
 20
-72.09587499999971
 30
0.0
 11
23.49442745152744
 21
-72.09587499999971
 31
0.0
  0
INSERT
  5
DABC
330
9A78
100
AcDbEntity
  8
30
  6
Continuous
 62
     0
370
    -2
100
AcDbBlockReference
  2
_OPEN
 10
-25.50557254847253
 20
-72.09587499999971
 30
0.0
 41
2.0
 42
2.0
 43
2.0
 50
180.0
  0
INSERT
  5
DABD
330
9A78
100
AcDbEntity
  8
30
  6
Continuous
 62
     0
370
    -2
100
AcDbBlockReference
  2
_OPEN
 10
25.49442745152744
 20
-72.09587499999971
 30
0.0
 41
2.0
 42
2.0
 43
2.0
  0
MTEXT
  5
DABE
330
9A78
100
AcDbEntity
  8
30
  6
Continuous
 62
     0
100
AcDbMText
 10
-0.0055725484725425
 20
-66.09587499999971
 30
0.0
 40
6.0
 41
0.0
 71
     5
 72
     1
  1
\A1; 51 
 73
     1
 44
1.0
1001
ACAD
1000
MTEXTBEGIN
1070
    73
1070
     1
1070
    44
1040
1.0
1070
    74
1070
     0
1000
MTEXTEND
  0
POINT
  5
DABF
330
9A78
100
AcDbEntity
  8
DEFPOINTS
  6
Continuous
 62
     0
100
AcDbPoint
 10
-25.50557254847253
 20
-49.99999999999976
 30
0.0
  0
POINT
  5
DAC0
330
9A78
100
AcDbEntity
  8
DEFPOINTS
  6
Continuous
 62
     0
100
AcDbPoint
 10
25.49442745152744
 20
-49.99999999999976
 30
0.0
  0
POINT
  5
DAC1
330
9A78
100
AcDbEntity
  8
DEFPOINTS
  6
Continuous
 62
     0
100
AcDbPoint
 10
25.49442745152744
 20
-72.09587499999971
 30
0.0
  0
ENDBLK
  5
9A83
330
9A78
100
AcDbEntity
  8
0
100
AcDbBlockEnd
  0
BLOCK
  5
9F2D
330
9F26
100
AcDbEntity
  8
0
100
AcDbBlockBegin
  2
*D19
 70
     1
 10
0.0
 20
0.0
 30
0.0
  3
*D19
  1

  0
LINE
  5
DA44
330
9F26
100
AcDbEntity
  8
30
  6
Continuous
 62
     0
370
    -2
100
AcDbLine
 10
324.2617110559302
 20
-466.8889189341594
 30
0.0
 11
331.9138740087681
 21
-479.8496896549528
 31
0.0
  0
LINE
  5
DA45
330
9F26
100
AcDbEntity
  8
30
  6
Continuous
 62
     0
370
    -2
100
AcDbLine
 10
331.9138740087681
 20
-479.8496896549528
 30
0.0
 11
344.9138740087683
 21
-479.8496896549528
 31
0.0
  0
INSERT
  5
DA46
330
9F26
100
AcDbEntity
  8
30
  6
Continuous
 62
     0
370
    -2
100
AcDbBlockReference
  2
_OPEN
 10
323.2448901548302
 20
-465.16668920062
 30
0.0
 41
2.0
 42
2.0
 43
2.0
 50
120.5580085412219
  0
MTEXT
  5
DA47
330
9F26
100
AcDbEntity
  8
30
  6
Continuous
 62
     0
100
AcDbMText
 10
339.9138740087682
 20
-473.8496896549528
 30
0.0
 40
6.0
 41
0.0
 71
     5
 72
     1
  1
\A1;R6
 73
     1
 44
1.0
1001
ACAD
1000
MTEXTBEGIN
1070
    73
1070
     1
1070
    44
1040
1.0
1070
    74
1070
     0
1000
MTEXTEND
  0
LINE
  5
DA48
330
9F26
100
AcDbEntity
  8
30
  6
Continuous
 62
     0
370
    -2
100
AcDbLine
 10
320.1044274515296
 20
-460.0000000000003
 30
0.0
 11
320.2844274515295
 21
-460.0000000000003
 31
0.0
  0
LINE
  5
DA49
330
9F26
100
AcDbEntity
  8
30
  6
Continuous
 62
     0
370
    -2
100
AcDbLine
 10
320.1944274515296
 20
-460.0900000000001
 30
0.0
 11
320.1944274515295
 21
-459.9100000000003
 31
0.0
  0
POINT
  5
DA4A
330
9F26
100
AcDbEntity
  8
DEFPOINTS
  6
Continuous
 62
     0
100
AcDbPoint
 10
323.2448901548302
 20
-465.16668920062
 30
0.0
  0
POINT
  5
DA4B
330
9F26
100
AcDbEntity
  8
DEFPOINTS
  6
Continuous
 62
     0
100
AcDbPoint
 10
320.1944274515295
 20
-460.0000000000003
 30
0.0
  0
ENDBLK
  5
9F2E
330
9F26
100
AcDbEntity
  8
0
100
AcDbBlockEnd
  0
BLOCK
  5
B32E
330
B324
100
AcDbEntity
  8
0
100
AcDbBlockBegin
  2
*D20
 70
     1
 10
0.0
 20
0.0
 30
0.0
  3
*D20
  1

  0
LINE
  5
DB77
330
B324
100
AcDbEntity
  8
30
  6
Continuous
 62
     0
370
    -2
100
AcDbLine
 10
-98.00557254847207
 20
-211.9769880179239
 30
0.0
 11
-170.5510099086689
 21
-211.9769880179239
 31
0.0
  0
LINE
  5
DB78
330
B324
100
AcDbEntity
  8
30
  6
Continuous
 62
     0
370
    -2
100
AcDbLine
 10
-108.0055725484724
 20
-131.9999999999995
 30
0.0
 11
-170.5510099086689
 21
-131.9999999999995
 31
0.0
  0
LINE
  5
DB79
330
B324
100
AcDbEntity
  8
30
  6
Continuous
 62
     0
370
    -2
100
AcDbLine
 10
-170.0510099086689
 20
-209.9769880179239
 30
0.0
 11
-170.0510099086689
 21
-133.9999999999995
 31
0.0
  0
INSERT
  5
DB7A
330
B324
100
AcDbEntity
  8
30
  6
Continuous
 62
     0
370
    -2
100
AcDbBlockReference
  2
_OPEN
 10
-170.0510099086689
 20
-211.9769880179239
 30
0.0
 41
2.0
 42
2.0
 43
2.0
 50
270.0
  0
INSERT
  5
DB7B
330
B324
100
AcDbEntity
  8
30
  6
Continuous
 62
     0
370
    -2
100
AcDbBlockReference
  2
_OPEN
 10
-170.0510099086689
 20
-131.9999999999995
 30
0.0
 41
2.0
 42
2.0
 43
2.0
 50
90.0
  0
MTEXT
  5
DB7C
330
B324
100
AcDbEntity
  8
30
  6
Continuous
 62
     0
100
AcDbMText
 10
-176.0510099086689
 20
-171.9884940089618
 30
0.0
 40
6.0
 41
0.0
 71
     5
 72
     1
  1
\A1; 80 
 11
0.0000000000000001
 21
1.0
 31
0.0
 73
     1
 44
1.0
1001
ACAD
1000
MTEXTBEGIN
1070
    73
1070
     1
1070
    44
1040
1.0
1070
    74
1070
     0
1000
MTEXTEND
  0
POINT
  5
DB7D
330
B324
100
AcDbEntity
  8
DEFPOINTS
  6
Continuous
 62
     0
100
AcDbPoint
 10
-95.00557254847207
 20
-211.9769880179239
 30
0.0
  0
POINT
  5
DB7E
330
B324
100
AcDbEntity
  8
DEFPOINTS
  6
Continuous
 62
     0
100
AcDbPoint
 10
-105.0055725484724
 20
-131.9999999999995
 30
0.0
  0
POINT
  5
DB7F
330
B324
100
AcDbEntity
  8
DEFPOINTS
  6
Continuous
 62
     0
100
AcDbPoint
 10
-170.0510099086689
 20
-131.9999999999995
 30
0.0
  0
ENDBLK
  5
B32F
330
B324
100
AcDbEntity
  8
0
100
AcDbBlockEnd
  0
BLOCK
  5
B33A
330
B330
100
AcDbEntity
  8
0
100
AcDbBlockBegin
  2
*D21
 70
     1
 10
0.0
 20
0.0
 30
0.0
  3
*D21
  1

  0
LINE
  5
DB4A
330
B330
100
AcDbEntity
  8
30
  6
Continuous
 62
     0
370
    -2
100
AcDbLine
 10
-108.0055725484724
 20
140.9999999999996
 30
0.0
 11
-150.2685001231192
 21
140.9999999999996
 31
0.0
  0
LINE
  5
DB4B
330
B330
100
AcDbEntity
  8
30
  6
Continuous
 62
     0
370
    -2
100
AcDbLine
 10
-133.1198679701443
 20
0.0000000000000121
 30
0.0
 11
-150.2685001231192
 21
0.000000000000017
 31
0.0
  0
LINE
  5
DB4C
330
B330
100
AcDbEntity
  8
30
  6
Continuous
 62
     0
370
    -2
100
AcDbLine
 10
-149.7685001231189
 20
138.9999999999996
 30
0.0
 11
-149.768500123119
 21
2.000000000000015
 31
0.0
  0
INSERT
  5
DB4D
330
B330
100
AcDbEntity
  8
30
  6
Continuous
 62
     0
370
    -2
100
AcDbBlockReference
  2
_OPEN
 10
-149.7685001231189
 20
140.9999999999996
 30
0.0
 41
2.0
 42
2.0
 43
2.0
 50
90.0
  0
INSERT
  5
DB4E
330
B330
100
AcDbEntity
  8
30
  6
Continuous
 62
     0
370
    -2
100
AcDbBlockReference
  2
_OPEN
 10
-149.768500123119
 20
0.0000000000000169
 30
0.0
 41
2.0
 42
2.0
 43
2.0
 50
270.0
  0
MTEXT
  5
DB4F
330
B330
100
AcDbEntity
  8
30
  6
Continuous
 62
     0
100
AcDbMText
 10
-155.7685001231192
 20
70.49999999999984
 30
0.0
 40
6.0
 41
0.0
 71
     5
 72
     1
  1
\A1; 141 
 11
0.0000000000000001
 21
1.0
 31
0.0
 73
     1
 44
1.0
1001
ACAD
1000
MTEXTBEGIN
1070
    73
1070
     1
1070
    44
1040
1.0
1070
    74
1070
     0
1000
MTEXTEND
  0
POINT
  5
DB50
330
B330
100
AcDbEntity
  8
DEFPOINTS
  6
Continuous
 62
     0
100
AcDbPoint
 10
-105.0055725484724
 20
140.9999999999996
 30
0.0
  0
POINT
  5
DB51
330
B330
100
AcDbEntity
  8
DEFPOINTS
  6
Continuous
 62
     0
100
AcDbPoint
 10
-130.1198679701441
 20
0.0000000000000113
 30
0.0
  0
POINT
  5
DB52
330
B330
100
AcDbEntity
  8
DEFPOINTS
  6
Continuous
 62
     0
100
AcDbPoint
 10
-149.768500123119
 20
0.0000000000000169
 30
0.0
  0
ENDBLK
  5
B33B
330
B330
100
AcDbEntity
  8
0
100
AcDbBlockEnd
  0
BLOCK
  5
B346
330
B33C
100
AcDbEntity
  8
0
100
AcDbBlockBegin
  2
*D22
 70
     1
 10
0.0
 20
0.0
 30
0.0
  3
*D22
  1

  0
LINE
  5
DB6E
330
B33C
100
AcDbEntity
  8
30
  6
Continuous
 62
     0
370
    -2
100
AcDbLine
 10
-108.0055725484724
 20
-131.9999999999995
 30
0.0
 11
-170.5510099086689
 21
-131.9999999999995
 31
0.0
  0
LINE
  5
DB6F
330
B33C
100
AcDbEntity
  8
30
  6
Continuous
 62
     0
370
    -2
100
AcDbLine
 10
-108.0055725484724
 20
140.9999999999996
 30
0.0
 11
-170.5510099086689
 21
140.9999999999996
 31
0.0
  0
LINE
  5
DB70
330
B33C
100
AcDbEntity
  8
30
  6
Continuous
 62
     0
370
    -2
100
AcDbLine
 10
-170.0510099086689
 20
-129.9999999999995
 30
0.0
 11
-170.0510099086689
 21
138.9999999999996
 31
0.0
  0
INSERT
  5
DB71
330
B33C
100
AcDbEntity
  8
30
  6
Continuous
 62
     0
370
    -2
100
AcDbBlockReference
  2
_OPEN
 10
-170.0510099086689
 20
-131.9999999999995
 30
0.0
 41
2.0
 42
2.0
 43
2.0
 50
270.0
  0
INSERT
  5
DB72
330
B33C
100
AcDbEntity
  8
30
  6
Continuous
 62
     0
370
    -2
100
AcDbBlockReference
  2
_OPEN
 10
-170.0510099086689
 20
140.9999999999996
 30
0.0
 41
2.0
 42
2.0
 43
2.0
 50
90.0
  0
MTEXT
  5
DB73
330
B33C
100
AcDbEntity
  8
30
  6
Continuous
 62
     0
100
AcDbMText
 10
-176.051009908669
 20
4.50000000000005
 30
0.0
 40
6.0
 41
0.0
 71
     5
 72
     1
  1
\A1; 273 
 11
0.0000000000000001
 21
1.0
 31
0.0
 73
     1
 44
1.0
1001
ACAD
1000
MTEXTBEGIN
1070
    73
1070
     1
1070
    44
1040
1.0
1070
    74
1070
     0
1000
MTEXTEND
  0
POINT
  5
DB74
330
B33C
100
AcDbEntity
  8
DEFPOINTS
  6
Continuous
 62
     0
100
AcDbPoint
 10
-105.0055725484724
 20
-131.9999999999995
 30
0.0
  0
POINT
  5
DB75
330
B33C
100
AcDbEntity
  8
DEFPOINTS
  6
Continuous
 62
     0
100
AcDbPoint
 10
-105.0055725484724
 20
140.9999999999996
 30
0.0
  0
POINT
  5
DB76
330
B33C
100
AcDbEntity
  8
DEFPOINTS
  6
Continuous
 62
     0
100
AcDbPoint
 10
-170.0510099086689
 20
140.9999999999996
 30
0.0
  0
ENDBLK
  5
B347
330
B33C
100
AcDbEntity
  8
0
100
AcDbBlockEnd
  0
BLOCK
  5
B352
330
B348
100
AcDbEntity
  8
0
100
AcDbBlockBegin
  2
*D23
 70
     1
 10
0.0
 20
0.0
 30
0.0
  3
*D23
  1

  0
LINE
  5
DB26
330
B348
100
AcDbEntity
  8
30
  6
Continuous
 62
     0
370
    -2
100
AcDbLine
 10
-133.6198679701441
 20
0.0000000000000122
 30
0.0
 11
-150.2685001231192
 21
0.000000000000017
 31
0.0
  0
LINE
  5
DB27
330
B348
100
AcDbEntity
  8
30
  6
Continuous
 62
     0
370
    -2
100
AcDbLine
 10
-108.0055725484724
 20
-131.9999999999995
 30
0.0
 11
-150.2685001231192
 21
-131.9999999999995
 31
0.0
  0
LINE
  5
DB28
330
B348
100
AcDbEntity
  8
30
  6
Continuous
 62
     0
370
    -2
100
AcDbLine
 10
-149.7685001231189
 20
-1.99999999999998
 30
0.0
 11
-149.768500123119
 21
-129.9999999999995
 31
0.0
  0
INSERT
  5
DB29
330
B348
100
AcDbEntity
  8
30
  6
Continuous
 62
     0
370
    -2
100
AcDbBlockReference
  2
_OPEN
 10
-149.7685001231189
 20
0.0000000000000168
 30
0.0
 41
2.0
 42
2.0
 43
2.0
 50
90.0
  0
INSERT
  5
DB2A
330
B348
100
AcDbEntity
  8
30
  6
Continuous
 62
     0
370
    -2
100
AcDbBlockReference
  2
_OPEN
 10
-149.768500123119
 20
-131.9999999999995
 30
0.0
 41
2.0
 42
2.0
 43
2.0
 50
270.0
  0
MTEXT
  5
DB2B
330
B348
100
AcDbEntity
  8
30
  6
Continuous
 62
     0
100
AcDbMText
 10
-155.7685001231192
 20
-65.9999999999998
 30
0.0
 40
6.0
 41
0.0
 71
     5
 72
     1
  1
\A1; 132 
 11
0.0000000000000001
 21
1.0
 31
0.0
 73
     1
 44
1.0
1001
ACAD
1000
MTEXTBEGIN
1070
    73
1070
     1
1070
    44
1040
1.0
1070
    74
1070
     0
1000
MTEXTEND
  0
POINT
  5
DB2C
330
B348
100
AcDbEntity
  8
DEFPOINTS
  6
Continuous
 62
     0
100
AcDbPoint
 10
-130.6198679701443
 20
0.0000000000000114
 30
0.0
  0
POINT
  5
DB2D
330
B348
100
AcDbEntity
  8
DEFPOINTS
  6
Continuous
 62
     0
100
AcDbPoint
 10
-105.0055725484724
 20
-131.9999999999995
 30
0.0
  0
POINT
  5
DB2E
330
B348
100
AcDbEntity
  8
DEFPOINTS
  6
Continuous
 62
     0
100
AcDbPoint
 10
-149.768500123119
 20
-131.9999999999995
 30
0.0
  0
ENDBLK
  5
B353
330
B348
100
AcDbEntity
  8
0
100
AcDbBlockEnd
  0
BLOCK
  5
B35E
330
B354
100
AcDbEntity
  8
0
100
AcDbBlockBegin
  2
*D24
 70
     1
 10
0.0
 20
0.0
 30
0.0
  3
*D24
  1

  0
LINE
  5
DB80
330
B354
100
AcDbEntity
  8
30
  6
Continuous
 62
     0
370
    -2
100
AcDbLine
 10
-108.0055725484724
 20
140.9999999999996
 30
0.0
 11
-170.5510099086689
 21
140.9999999999996
 31
0.0
  0
LINE
  5
DB81
330
B354
100
AcDbEntity
  8
30
  6
Continuous
 62
     0
370
    -2
100
AcDbLine
 10
-98.00557254847207
 20
221.0230119820749
 30
0.0
 11
-170.5510099086689
 21
221.0230119820749
 31
0.0
  0
LINE
  5
DB82
330
B354
100
AcDbEntity
  8
30
  6
Continuous
 62
     0
370
    -2
100
AcDbLine
 10
-170.0510099086689
 20
142.9999999999995
 30
0.0
 11
-170.0510099086689
 21
219.0230119820748
 31
0.0
  0
INSERT
  5
DB83
330
B354
100
AcDbEntity
  8
30
  6
Continuous
 62
     0
370
    -2
100
AcDbBlockReference
  2
_OPEN
 10
-170.0510099086689
 20
140.9999999999996
 30
0.0
 41
2.0
 42
2.0
 43
2.0
 50
270.0
  0
INSERT
  5
DB84
330
B354
100
AcDbEntity
  8
30
  6
Continuous
 62
     0
370
    -2
100
AcDbBlockReference
  2
_OPEN
 10
-170.0510099086689
 20
221.0230119820749
 30
0.0
 41
2.0
 42
2.0
 43
2.0
 50
90.0
  0
MTEXT
  5
DB85
330
B354
100
AcDbEntity
  8
30
  6
Continuous
 62
     0
100
AcDbMText
 10
-176.051009908669
 20
181.0115059910371
 30
0.0
 40
6.0
 41
0.0
 71
     5
 72
     1
  1
\A1; 80 
 11
0.0000000000000001
 21
1.0
 31
0.0
 73
     1
 44
1.0
1001
ACAD
1000
MTEXTBEGIN
1070
    73
1070
     1
1070
    44
1040
1.0
1070
    74
1070
     0
1000
MTEXTEND
  0
POINT
  5
DB86
330
B354
100
AcDbEntity
  8
DEFPOINTS
  6
Continuous
 62
     0
100
AcDbPoint
 10
-105.0055725484724
 20
140.9999999999996
 30
0.0
  0
POINT
  5
DB87
330
B354
100
AcDbEntity
  8
DEFPOINTS
  6
Continuous
 62
     0
100
AcDbPoint
 10
-95.00557254847207
 20
221.0230119820749
 30
0.0
  0
POINT
  5
DB88
330
B354
100
AcDbEntity
  8
DEFPOINTS
  6
Continuous
 62
     0
100
AcDbPoint
 10
-170.0510099086689
 20
221.0230119820749
 30
0.0
  0
ENDBLK
  5
B35F
330
B354
100
AcDbEntity
  8
0
100
AcDbBlockEnd
  0
BLOCK
  5
B3BC
330
B3B2
100
AcDbEntity
  8
0
100
AcDbBlockBegin
  2
*D25
 70
     1
 10
0.0
 20
0.0
 30
0.0
  3
*D25
  1

  0
LINE
  5
DA0E
330
B3B2
100
AcDbEntity
  8
30
  6
Continuous
 62
     0
370
    -2
100
AcDbLine
 10
-108.0055725484724
 20
140.9999999999996
 30
0.0
 11
-105.5055725484725
 21
140.9999999999996
 31
0.0
  0
LINE
  5
DA0F
330
B3B2
100
AcDbEntity
  8
30
  6
Continuous
 62
     0
370
    -2
100
AcDbLine
 10
-45.20557254847235
 20
250.9999999999995
 30
0.0
 11
-105.5055725484722
 21
250.9999999999995
 31
0.0
  0
LINE
  5
DA10
330
B3B2
100
AcDbEntity
  8
30
  6
Continuous
 62
     0
370
    -2
100
AcDbLine
 10
-105.0055725484724
 20
142.9999999999995
 30
0.0
 11
-105.0055725484724
 21
248.9999999999995
 31
0.0
  0
INSERT
  5
DA11
330
B3B2
100
AcDbEntity
  8
30
  6
Continuous
 62
     0
370
    -2
100
AcDbBlockReference
  2
_OPEN
 10
-105.0055725484724
 20
140.9999999999996
 30
0.0
 41
2.0
 42
2.0
 43
2.0
 50
270.0
  0
INSERT
  5
DA12
330
B3B2
100
AcDbEntity
  8
30
  6
Continuous
 62
     0
370
    -2
100
AcDbBlockReference
  2
_OPEN
 10
-105.0055725484724
 20
250.9999999999995
 30
0.0
 41
2.0
 42
2.0
 43
2.0
 50
90.0
  0
MTEXT
  5
DA13
330
B3B2
100
AcDbEntity
  8
30
  6
Continuous
 62
     0
100
AcDbMText
 10
-111.0055725484724
 20
195.9999999999995
 30
0.0
 40
6.0
 41
0.0
 71
     5
 72
     1
  1
\A1; 110 
 11
0.0000000000000001
 21
1.0
 31
0.0
 73
     1
 44
1.0
1001
ACAD
1000
MTEXTBEGIN
1070
    73
1070
     1
1070
    44
1040
1.0
1070
    74
1070
     0
1000
MTEXTEND
  0
POINT
  5
DA14
330
B3B2
100
AcDbEntity
  8
DEFPOINTS
  6
Continuous
 62
     0
100
AcDbPoint
 10
-105.0055725484724
 20
140.9999999999996
 30
0.0
  0
POINT
  5
DA15
330
B3B2
100
AcDbEntity
  8
DEFPOINTS
  6
Continuous
 62
     0
100
AcDbPoint
 10
-42.20557254847236
 20
250.9999999999995
 30
0.0
  0
POINT
  5
DA16
330
B3B2
100
AcDbEntity
  8
DEFPOINTS
  6
Continuous
 62
     0
100
AcDbPoint
 10
-105.0055725484724
 20
250.9999999999995
 30
0.0
  0
ENDBLK
  5
B3BD
330
B3B2
100
AcDbEntity
  8
0
100
AcDbBlockEnd
  0
BLOCK
  5
B86E
330
B864
100
AcDbEntity
  8
0
100
AcDbBlockBegin
  2
*D26
 70
     1
 10
0.0
 20
0.0
 30
0.0
  3
*D26
  1

  0
LINE
  5
D9D8
330
B864
100
AcDbEntity
  8
30
  6
Continuous
 62
     0
370
    -2
100
AcDbLine
 10
92.9944274515272
 20
374.3231618618496
 30
0.0
 11
120.4960382445679
 21
374.3231618618496
 31
0.0
  0
LINE
  5
D9D9
330
B864
100
AcDbEntity
  8
30
  6
Continuous
 62
     0
370
    -2
100
AcDbLine
 10
92.9944274515272
 20
364.3231618618496
 30
0.0
 11
120.4960382445679
 21
364.3231618618496
 31
0.0
  0
LINE
  5
D9DA
330
B864
100
AcDbEntity
  8
30
  6
Continuous
 62
     0
370
    -2
100
AcDbLine
 10
119.9960382445679
 20
372.3231618618496
 30
0.0
 11
119.9960382445679
 21
366.3231618618496
 31
0.0
  0
MTEXT
  5
D9DB
330
B864
100
AcDbEntity
  8
30
  6
Continuous
 62
     0
100
AcDbMText
 10
115.026638830243
 20
369.1656703716525
 30
0.0
 40
6.0
 41
0.0
 71
     5
 72
     1
  1
\A1;10
 11
0.0000000000000001
 21
1.0
 31
0.0
 73
     1
 44
1.0
1001
ACAD
1000
MTEXTBEGIN
1070
    73
1070
     1
1070
    44
1040
1.0
1070
    74
1070
     0
1000
MTEXTEND
  0
INSERT
  5
D9DC
330
B864
100
AcDbEntity
  8
30
  6
Continuous
 62
     0
370
    -2
100
AcDbBlockReference
  2
_OPEN
 10
119.9960382445679
 20
374.3231618618496
 30
0.0
 41
2.0
 42
2.0
 43
2.0
 50
90.0
  0
INSERT
  5
D9DD
330
B864
100
AcDbEntity
  8
30
  6
Continuous
 62
     0
370
    -2
100
AcDbBlockReference
  2
_OPEN
 10
119.9960382445679
 20
364.3231618618496
 30
0.0
 41
2.0
 42
2.0
 43
2.0
 50
270.0
  0
POINT
  5
D9DE
330
B864
100
AcDbEntity
  8
DEFPOINTS
  6
Continuous
 62
     0
100
AcDbPoint
 10
89.9944274515272
 20
374.3231618618496
 30
0.0
  0
POINT
  5
D9DF
330
B864
100
AcDbEntity
  8
DEFPOINTS
  6
Continuous
 62
     0
100
AcDbPoint
 10
89.9944274515272
 20
364.3231618618496
 30
0.0
  0
POINT
  5
D9E0
330
B864
100
AcDbEntity
  8
DEFPOINTS
  6
Continuous
 62
     0
100
AcDbPoint
 10
119.9960382445679
 20
364.3231618618496
 30
0.0
  0
ENDBLK
  5
B86F
330
B864
100
AcDbEntity
  8
0
100
AcDbBlockEnd
  0
BLOCK
  5
B87A
330
B870
100
AcDbEntity
  8
0
100
AcDbBlockBegin
  2
*D27
 70
     1
 10
0.0
 20
0.0
 30
0.0
  3
*D27
  1

  0
LINE
  5
D9E1
330
B870
100
AcDbEntity
  8
30
  6
Continuous
 62
     0
370
    -2
100
AcDbLine
 10
110.2881848063548
 20
408.3231618618495
 30
0.0
 11
120.4960382445679
 21
408.3231618618495
 31
0.0
  0
LINE
  5
D9E2
330
B870
100
AcDbEntity
  8
30
  6
Continuous
 62
     0
370
    -2
100
AcDbLine
 10
95.78818480635513
 20
374.3231618618496
 30
0.0
 11
120.4960382445679
 21
374.3231618618496
 31
0.0
  0
LINE
  5
D9E3
330
B870
100
AcDbEntity
  8
30
  6
Continuous
 62
     0
370
    -2
100
AcDbLine
 10
119.9960382445679
 20
406.3231618618495
 30
0.0
 11
119.9960382445679
 21
376.3231618618496
 31
0.0
  0
MTEXT
  5
D9E4
330
B870
100
AcDbEntity
  8
30
  6
Continuous
 62
     0
100
AcDbMText
 10
174.0296018703143
 20
392.6981378532842
 30
0.0
 40
6.0
 41
0.0
 71
     5
 72
     1
  1
\A1;ON SIDE 32\POFF SIDE 36
 73
     1
 44
1.0
1001
ACAD
1000
MTEXTBEGIN
1070
    73
1070
     1
1070
    44
1040
1.0
1070
    74
1070
     0
1000
MTEXTEND
  0
INSERT
  5
D9E5
330
B870
100
AcDbEntity
  8
30
  6
Continuous
 62
     0
370
    -2
100
AcDbBlockReference
  2
_OPEN
 10
119.9960382445679
 20
408.3231618618495
 30
0.0
 41
2.0
 42
2.0
 43
2.0
 50
90.0
  0
INSERT
  5
D9E6
330
B870
100
AcDbEntity
  8
30
  6
Continuous
 62
     0
370
    -2
100
AcDbBlockReference
  2
_OPEN
 10
119.9960382445679
 20
374.3231618618496
 30
0.0
 41
2.0
 42
2.0
 43
2.0
 50
270.0
  0
POINT
  5
D9E7
330
B870
100
AcDbEntity
  8
DEFPOINTS
  6
Continuous
 62
     0
100
AcDbPoint
 10
107.2881848063548
 20
408.3231618618495
 30
0.0
  0
POINT
  5
D9E8
330
B870
100
AcDbEntity
  8
DEFPOINTS
  6
Continuous
 62
     0
100
AcDbPoint
 10
92.78818480635512
 20
374.3231618618496
 30
0.0
  0
POINT
  5
D9E9
330
B870
100
AcDbEntity
  8
DEFPOINTS
  6
Continuous
 62
     0
100
AcDbPoint
 10
119.9960382445679
 20
374.3231618618496
 30
0.0
  0
ENDBLK
  5
B87B
330
B870
100
AcDbEntity
  8
0
100
AcDbBlockEnd
  0
BLOCK
  5
B886
330
B87C
100
AcDbEntity
  8
0
100
AcDbBlockBegin
  2
*D28
 70
     1
 10
0.0
 20
0.0
 30
0.0
  3
*D28
  1

  0
LINE
  5
D9FC
330
B87C
100
AcDbEntity
  8
30
  6
Continuous
 62
     0
370
    -2
100
AcDbLine
 10
-70.00758210867535
 20
377.3514423453848
 30
0.0
 11
-70.00758210867535
 21
429.0072763109678
 31
0.0
  0
LINE
  5
D9FD
330
B87C
100
AcDbEntity
  8
30
  6
Continuous
 62
     0
370
    -2
100
AcDbLine
 10
-0.0075821086755709
 20
377.3514423453848
 30
0.0
 11
-0.0075821086755677
 21
429.0072763109678
 31
0.0
  0
LINE
  5
D9FE
330
B87C
100
AcDbEntity
  8
30
  6
Continuous
 62
     0
370
    -2
100
AcDbLine
 10
-68.00758210867535
 20
428.5072763109678
 30
0.0
 11
-2.007582108675566
 21
428.5072763109678
 31
0.0
  0
INSERT
  5
D9FF
330
B87C
100
AcDbEntity
  8
30
  6
Continuous
 62
     0
370
    -2
100
AcDbBlockReference
  2
_OPEN
 10
-70.00758210867535
 20
428.5072763109678
 30
0.0
 41
2.0
 42
2.0
 43
2.0
 50
180.0
  0
INSERT
  5
DA00
330
B87C
100
AcDbEntity
  8
30
  6
Continuous
 62
     0
370
    -2
100
AcDbBlockReference
  2
_OPEN
 10
-0.0075821086755678
 20
428.5072763109678
 30
0.0
 41
2.0
 42
2.0
 43
2.0
  0
MTEXT
  5
DA01
330
B87C
100
AcDbEntity
  8
30
  6
Continuous
 62
     0
100
AcDbMText
 10
-35.00758210867545
 20
434.507276310968
 30
0.0
 40
6.0
 41
0.0
 71
     5
 72
     1
  1
\A1;70
 73
     1
 44
1.0
1001
ACAD
1000
MTEXTBEGIN
1070
    73
1070
     1
1070
    44
1040
1.0
1070
    74
1070
     0
1000
MTEXTEND
  0
POINT
  5
DA02
330
B87C
100
AcDbEntity
  8
DEFPOINTS
  6
Continuous
 62
     0
100
AcDbPoint
 10
-70.00758210867535
 20
374.3514423453849
 30
0.0
  0
POINT
  5
DA03
330
B87C
100
AcDbEntity
  8
DEFPOINTS
  6
Continuous
 62
     0
100
AcDbPoint
 10
-0.0075821086755711
 20
374.3514423453849
 30
0.0
  0
POINT
  5
DA04
330
B87C
100
AcDbEntity
  8
DEFPOINTS
  6
Continuous
 62
     0
100
AcDbPoint
 10
-0.0075821086755678
 20
428.5072763109678
 30
0.0
  0
ENDBLK
  5
B887
330
B87C
100
AcDbEntity
  8
0
100
AcDbBlockEnd
  0
BLOCK
  5
B892
330
B888
100
AcDbEntity
  8
0
100
AcDbBlockBegin
  2
*D29
 70
     1
 10
0.0
 20
0.0
 30
0.0
  3
*D29
  1

  0
LINE
  5
DA05
330
B888
100
AcDbEntity
  8
30
  6
Continuous
 62
     0
370
    -2
100
AcDbLine
 10
-105.0055725484724
 20
411.3231618618495
 30
0.0
 11
-105.0055725484724
 21
429.0072763109678
 31
0.0
  0
LINE
  5
DA06
330
B888
100
AcDbEntity
  8
30
  6
Continuous
 62
     0
370
    -2
100
AcDbLine
 10
-70.00758210867535
 20
377.3514423453848
 30
0.0
 11
-70.00758210867535
 21
429.0072763109678
 31
0.0
  0
LINE
  5
DA07
330
B888
100
AcDbEntity
  8
30
  6
Continuous
 62
     0
370
    -2
100
AcDbLine
 10
-103.0055725484724
 20
428.5072763109678
 30
0.0
 11
-72.0075821086753
 21
428.5072763109678
 31
0.0
  0
INSERT
  5
DA08
330
B888
100
AcDbEntity
  8
30
  6
Continuous
 62
     0
370
    -2
100
AcDbBlockReference
  2
_OPEN
 10
-105.0055725484724
 20
428.5072763109678
 30
0.0
 41
2.0
 42
2.0
 43
2.0
 50
180.0
  0
INSERT
  5
DA09
330
B888
100
AcDbEntity
  8
30
  6
Continuous
 62
     0
370
    -2
100
AcDbBlockReference
  2
_OPEN
 10
-70.00758210867535
 20
428.5072763109678
 30
0.0
 41
2.0
 42
2.0
 43
2.0
  0
MTEXT
  5
DA0A
330
B888
100
AcDbEntity
  8
30
  6
Continuous
 62
     0
100
AcDbMText
 10
-87.50657732857391
 20
434.507276310968
 30
0.0
 40
6.0
 41
0.0
 71
     5
 72
     1
  1
\A1;35
 73
     1
 44
1.0
1001
ACAD
1000
MTEXTBEGIN
1070
    73
1070
     1
1070
    44
1040
1.0
1070
    74
1070
     0
1000
MTEXTEND
  0
POINT
  5
DA0B
330
B888
100
AcDbEntity
  8
DEFPOINTS
  6
Continuous
 62
     0
100
AcDbPoint
 10
-105.0055725484724
 20
408.3231618618496
 30
0.0
  0
POINT
  5
DA0C
330
B888
100
AcDbEntity
  8
DEFPOINTS
  6
Continuous
 62
     0
100
AcDbPoint
 10
-70.00758210867535
 20
374.3514423453849
 30
0.0
  0
POINT
  5
DA0D
330
B888
100
AcDbEntity
  8
DEFPOINTS
  6
Continuous
 62
     0
100
AcDbPoint
 10
-70.00758210867535
 20
428.5072763109678
 30
0.0
  0
ENDBLK
  5
B893
330
B888
100
AcDbEntity
  8
0
100
AcDbBlockEnd
  0
BLOCK
  5
B89E
330
B894
100
AcDbEntity
  8
0
100
AcDbBlockBegin
  2
*D30
 70
     1
 10
0.0
 20
0.0
 30
0.0
  3
*D30
  1

  0
LINE
  5
D9F3
330
B894
100
AcDbEntity
  8
30
  6
Continuous
 62
     0
370
    -2
100
AcDbLine
 10
-0.0075821086755709
 20
377.3514423453848
 30
0.0
 11
-0.0075821086755677
 21
429.0072763109678
 31
0.0
  0
LINE
  5
D9F4
330
B894
100
AcDbEntity
  8
30
  6
Continuous
 62
     0
370
    -2
100
AcDbLine
 10
69.99032535114142
 20
380.3231618618496
 30
0.0
 11
69.99032535114142
 21
429.0072763109678
 31
0.0
  0
LINE
  5
D9F5
330
B894
100
AcDbEntity
  8
30
  6
Continuous
 62
     0
370
    -2
100
AcDbLine
 10
1.992417891324429
 20
428.5072763109678
 30
0.0
 11
67.99032535114142
 21
428.5072763109678
 31
0.0
  0
INSERT
  5
D9F6
330
B894
100
AcDbEntity
  8
30
  6
Continuous
 62
     0
370
    -2
100
AcDbBlockReference
  2
_OPEN
 10
-0.0075821086755678
 20
428.5072763109678
 30
0.0
 41
2.0
 42
2.0
 43
2.0
 50
180.0
  0
INSERT
  5
D9F7
330
B894
100
AcDbEntity
  8
30
  6
Continuous
 62
     0
370
    -2
100
AcDbBlockReference
  2
_OPEN
 10
69.99032535114142
 20
428.5072763109678
 30
0.0
 41
2.0
 42
2.0
 43
2.0
  0
MTEXT
  5
D9F8
330
B894
100
AcDbEntity
  8
30
  6
Continuous
 62
     0
100
AcDbMText
 10
34.99137162123293
 20
434.507276310968
 30
0.0
 40
6.0
 41
0.0
 71
     5
 72
     1
  1
\A1;70
 73
     1
 44
1.0
1001
ACAD
1000
MTEXTBEGIN
1070
    73
1070
     1
1070
    44
1040
1.0
1070
    74
1070
     0
1000
MTEXTEND
  0
POINT
  5
D9F9
330
B894
100
AcDbEntity
  8
DEFPOINTS
  6
Continuous
 62
     0
100
AcDbPoint
 10
-0.0075821086755711
 20
374.3514423453849
 30
0.0
  0
POINT
  5
D9FA
330
B894
100
AcDbEntity
  8
DEFPOINTS
  6
Continuous
 62
     0
100
AcDbPoint
 10
69.99032535114142
 20
377.3231618618495
 30
0.0
  0
POINT
  5
D9FB
330
B894
100
AcDbEntity
  8
DEFPOINTS
  6
Continuous
 62
     0
100
AcDbPoint
 10
69.99032535114142
 20
428.5072763109678
 30
0.0
  0
ENDBLK
  5
B89F
330
B894
100
AcDbEntity
  8
0
100
AcDbBlockEnd
  0
BLOCK
  5
B8AA
330
B8A0
100
AcDbEntity
  8
0
100
AcDbBlockBegin
  2
*D31
 70
     1
 10
0.0
 20
0.0
 30
0.0
  3
*D31
  1

  0
LINE
  5
D9EA
330
B8A0
100
AcDbEntity
  8
30
  6
Continuous
 62
     0
370
    -2
100
AcDbLine
 10
69.99032535114142
 20
377.3231618618495
 30
0.0
 11
69.99032535114142
 21
428.9789958274327
 31
0.0
  0
LINE
  5
D9EB
330
B8A0
100
AcDbEntity
  8
30
  6
Continuous
 62
     0
370
    -2
100
AcDbLine
 10
104.9944274515267
 20
411.3231618618494
 30
0.0
 11
104.9944274515267
 21
428.9789958274327
 31
0.0
  0
LINE
  5
D9EC
330
B8A0
100
AcDbEntity
  8
30
  6
Continuous
 62
     0
370
    -2
100
AcDbLine
 10
71.99032535114142
 20
428.4789958274327
 30
0.0
 11
102.9944274515269
 21
428.4789958274327
 31
0.0
  0
INSERT
  5
D9ED
330
B8A0
100
AcDbEntity
  8
30
  6
Continuous
 62
     0
370
    -2
100
AcDbBlockReference
  2
_OPEN
 10
69.99032535114142
 20
428.4789958274327
 30
0.0
 41
2.0
 42
2.0
 43
2.0
 50
180.0
  0
INSERT
  5
D9EE
330
B8A0
100
AcDbEntity
  8
30
  6
Continuous
 62
     0
370
    -2
100
AcDbBlockReference
  2
_OPEN
 10
104.9944274515267
 20
428.4789958274327
 30
0.0
 41
2.0
 42
2.0
 43
2.0
  0
MTEXT
  5
D9EF
330
B8A0
100
AcDbEntity
  8
30
  6
Continuous
 62
     0
100
AcDbMText
 10
87.49237640133417
 20
434.4789958274327
 30
0.0
 40
6.0
 41
0.0
 71
     5
 72
     1
  1
\A1;35
 73
     1
 44
1.0
1001
ACAD
1000
MTEXTBEGIN
1070
    73
1070
     1
1070
    44
1040
1.0
1070
    74
1070
     0
1000
MTEXTEND
  0
POINT
  5
D9F0
330
B8A0
100
AcDbEntity
  8
DEFPOINTS
  6
Continuous
 62
     0
100
AcDbPoint
 10
69.99032535114142
 20
374.3231618618496
 30
0.0
  0
POINT
  5
D9F1
330
B8A0
100
AcDbEntity
  8
DEFPOINTS
  6
Continuous
 62
     0
100
AcDbPoint
 10
104.9944274515267
 20
408.3231618618492
 30
0.0
  0
POINT
  5
D9F2
330
B8A0
100
AcDbEntity
  8
DEFPOINTS
  6
Continuous
 62
     0
100
AcDbPoint
 10
104.9944274515267
 20
428.4789958274327
 30
0.0
  0
ENDBLK
  5
B8AB
330
B8A0
100
AcDbEntity
  8
0
100
AcDbBlockEnd
  0
BLOCK
  5
BB8F
330
BB85
100
AcDbEntity
  8
0
100
AcDbBlockBegin
  2
*D32
 70
     1
 10
0.0
 20
0.0
 30
0.0
  3
*D32
  1

  0
LINE
  5
D9CF
330
BB85
100
AcDbEntity
  8
30
  6
Continuous
 62
     0
370
    -2
100
AcDbLine
 10
317.1944274515273
 20
-454.0
 30
0.0
 11
276.2416745707087
 21
-454.0
 31
0.0
  0
LINE
  5
D9D0
330
BB85
100
AcDbEntity
  8
30
  6
Continuous
 62
     0
370
    -2
100
AcDbLine
 10
317.1944274515273
 20
-546.0
 30
0.0
 11
276.2416745707087
 21
-546.0
 31
0.0
  0
LINE
  5
D9D1
330
BB85
100
AcDbEntity
  8
30
  6
Continuous
 62
     0
370
    -2
100
AcDbLine
 10
276.7416745707087
 20
-456.0
 30
0.0
 11
276.7416745707087
 21
-544.0
 31
0.0
  0
INSERT
  5
D9D2
330
BB85
100
AcDbEntity
  8
30
  6
Continuous
 62
     0
370
    -2
100
AcDbBlockReference
  2
_OPEN
 10
276.7416745707087
 20
-454.0
 30
0.0
 41
2.0
 42
2.0
 43
2.0
 50
90.0
  0
INSERT
  5
D9D3
330
BB85
100
AcDbEntity
  8
30
  6
Continuous
 62
     0
370
    -2
100
AcDbBlockReference
  2
_OPEN
 10
276.7416745707087
 20
-546.0
 30
0.0
 41
2.0
 42
2.0
 43
2.0
 50
270.0
  0
MTEXT
  5
D9D4
330
BB85
100
AcDbEntity
  8
30
  6
Continuous
 62
     0
100
AcDbMText
 10
270.7416745707087
 20
-499.9999999999998
 30
0.0
 40
6.0
 41
0.0
 71
     5
 72
     1
  1
\A1;92
 11
0.0000000000000001
 21
1.0
 31
0.0
 73
     1
 44
1.0
1001
ACAD
1000
MTEXTBEGIN
1070
    73
1070
     1
1070
    44
1040
1.0
1070
    74
1070
     0
1000
MTEXTEND
  0
POINT
  5
D9D5
330
BB85
100
AcDbEntity
  8
DEFPOINTS
  6
Continuous
 62
     0
100
AcDbPoint
 10
320.1944274515273
 20
-454.0
 30
0.0
  0
POINT
  5
D9D6
330
BB85
100
AcDbEntity
  8
DEFPOINTS
  6
Continuous
 62
     0
100
AcDbPoint
 10
320.1944274515273
 20
-546.0
 30
0.0
  0
POINT
  5
D9D7
330
BB85
100
AcDbEntity
  8
DEFPOINTS
  6
Continuous
 62
     0
100
AcDbPoint
 10
276.7416745707087
 20
-546.0
 30
0.0
  0
ENDBLK
  5
BB90
330
BB85
100
AcDbEntity
  8
0
100
AcDbBlockEnd
  0
BLOCK
  5
C02F
330
C026
100
AcDbEntity
  8
0
100
AcDbBlockBegin
  2
*D33
 70
     1
 10
0.0
 20
0.0
 30
0.0
  3
*D33
  1

  0
LINE
  5
D9C7
330
C026
100
AcDbEntity
  8
30
  6
Continuous
 62
     0
370
    -2
100
AcDbLine
 10
33.89361842448259
 20
-368.0680068192227
 30
0.0
 11
31.52243770705359
 21
-352.4533455271201
 31
0.0
  0
LINE
  5
D9C8
330
C026
100
AcDbEntity
  8
30
  6
Continuous
 62
     0
370
    -2
100
AcDbLine
 10
31.52243770705359
 20
-352.4533455271201
 30
0.0
 11
44.52243770705361
 21
-352.4533455271201
 31
0.0
  0
INSERT
  5
D9C9
330
C026
100
AcDbEntity
  8
30
  6
Continuous
 62
     0
370
    -2
100
AcDbBlockReference
  2
_OPEN
 10
34.19388810016435
 20
-370.0453378794819
 30
0.0
 41
2.0
 42
2.0
 43
2.0
 50
278.6347406869046
  0
MTEXT
  5
D9CA
102
{ACAD_XDICTIONARY
360
DE01
102
}
330
C026
100
AcDbEntity
  8
30
  6
Continuous
 62
     0
100
AcDbMText
 10
39.5224377070536
 20
-346.4533455271201
 30
0.0
 40
6.0
 41
0.0
 71
     5
 72
     1
  1
\A1;\U+22058
 73
     1
 44
1.0
1001
ACAD
1000
MTEXTBEGIN
1070
    73
1070
     1
1070
    44
1040
1.0
1070
    74
1070
     0
1000
MTEXTEND
  0
LINE
  5
D9CB
330
C026
100
AcDbEntity
  8
30
  6
Continuous
 62
     0
370
    -2
100
AcDbLine
 10
34.70442745152787
 20
-374.0000000000004
 30
0.0
 11
34.88442745152787
 21
-374.0000000000004
 31
0.0
  0
LINE
  5
D9CC
330
C026
100
AcDbEntity
  8
30
  6
Continuous
 62
     0
370
    -2
100
AcDbLine
 10
34.79442745152786
 20
-374.0900000000003
 30
0.0
 11
34.79442745152786
 21
-373.9100000000003
 31
0.0
  0
POINT
  5
D9CD
330
C026
100
AcDbEntity
  8
DEFPOINTS
  6
Continuous
 62
     0
100
AcDbPoint
 10
34.19388810016435
 20
-370.0453378794819
 30
0.0
  0
POINT
  5
D9CE
330
C026
100
AcDbEntity
  8
DEFPOINTS
  6
Continuous
 62
     0
100
AcDbPoint
 10
35.39496680289136
 20
-377.9546621205188
 30
0.0
  0
ENDBLK
  5
C030
330
C026
100
AcDbEntity
  8
0
100
AcDbBlockEnd
  0
BLOCK
  5
C03C
330
C032
100
AcDbEntity
  8
0
100
AcDbBlockBegin
  2
*D34
 70
     1
 10
0.0
 20
0.0
 30
0.0
  3
*D34
  1

  0
LINE
  5
D9BE
330
C032
100
AcDbEntity
  8
30
  6
Continuous
 62
     0
370
    -2
100
AcDbLine
 10
-83.00557254847253
 20
44.99999999999988
 30
0.0
 11
-117.6925670423142
 21
44.99999999999989
 31
0.0
  0
LINE
  5
D9BF
330
C032
100
AcDbEntity
  8
30
  6
Continuous
 62
     0
370
    -2
100
AcDbLine
 10
-83.00557254847239
 20
-44.99999999999989
 30
0.0
 11
-117.6925670423142
 21
-44.99999999999988
 31
0.0
  0
LINE
  5
D9C0
330
C032
100
AcDbEntity
  8
30
  6
Continuous
 62
     0
370
    -2
100
AcDbLine
 10
-117.1925670423142
 20
42.99999999999989
 30
0.0
 11
-117.1925670423142
 21
-42.99999999999989
 31
0.0
  0
INSERT
  5
D9C1
330
C032
100
AcDbEntity
  8
30
  6
Continuous
 62
     0
370
    -2
100
AcDbBlockReference
  2
_OPEN
 10
-117.1925670423142
 20
44.99999999999989
 30
0.0
 41
2.0
 42
2.0
 43
2.0
 50
90.0
  0
INSERT
  5
D9C2
330
C032
100
AcDbEntity
  8
30
  6
Continuous
 62
     0
370
    -2
100
AcDbBlockReference
  2
_OPEN
 10
-117.1925670423142
 20
-44.99999999999988
 30
0.0
 41
2.0
 42
2.0
 43
2.0
 50
270.0
  0
MTEXT
  5
D9C3
330
C032
100
AcDbEntity
  8
30
  6
Continuous
 62
     0
100
AcDbMText
 10
-123.1925670423142
 20
-0.000000000000017
 30
0.0
 40
6.0
 41
0.0
 71
     5
 72
     1
  1
\A1;90
 11
0.0000000000000001
 21
1.0
 31
0.0
 73
     1
 44
1.0
1001
ACAD
1000
MTEXTBEGIN
1070
    73
1070
     1
1070
    44
1040
1.0
1070
    74
1070
     0
1000
MTEXTEND
  0
POINT
  5
D9C4
330
C032
100
AcDbEntity
  8
DEFPOINTS
  6
Continuous
 62
     0
100
AcDbPoint
 10
-80.00557254847253
 20
44.99999999999988
 30
0.0
  0
POINT
  5
D9C5
330
C032
100
AcDbEntity
  8
DEFPOINTS
  6
Continuous
 62
     0
100
AcDbPoint
 10
-80.0055725484724
 20
-44.99999999999989
 30
0.0
  0
POINT
  5
D9C6
330
C032
100
AcDbEntity
  8
DEFPOINTS
  6
Continuous
 62
     0
100
AcDbPoint
 10
-117.1925670423142
 20
-44.99999999999988
 30
0.0
  0
ENDBLK
  5
C03D
330
C032
100
AcDbEntity
  8
0
100
AcDbBlockEnd
  0
BLOCK
  5
C052
330
C048
100
AcDbEntity
  8
0
100
AcDbBlockBegin
  2
*D35
 70
     1
 10
0.0
 20
0.0
 30
0.0
  3
*D35
  1

  0
LINE
  5
DB02
330
C048
100
AcDbEntity
  8
30
  6
Continuous
 62
     0
370
    -2
100
AcDbLine
 10
-108.0055725484724
 20
55.49999999999985
 30
0.0
 11
-130.6198679701443
 21
55.49999999999985
 31
0.0
  0
LINE
  5
DB03
330
C048
100
AcDbEntity
  8
30
  6
Continuous
 62
     0
370
    -2
100
AcDbLine
 10
-92.3055725484725
 20
0.0000000000000008
 30
0.0
 11
-130.6198679701443
 21
0.0000000000000117
 31
0.0
  0
LINE
  5
DB04
330
C048
100
AcDbEntity
  8
30
  6
Continuous
 62
     0
370
    -2
100
AcDbLine
 10
-130.1198679701441
 20
53.49999999999985
 30
0.0
 11
-130.1198679701441
 21
2.000000000000011
 31
0.0
  0
INSERT
  5
DB05
330
C048
100
AcDbEntity
  8
30
  6
Continuous
 62
     0
370
    -2
100
AcDbBlockReference
  2
_OPEN
 10
-130.1198679701441
 20
55.49999999999985
 30
0.0
 41
2.0
 42
2.0
 43
2.0
 50
90.0
  0
INSERT
  5
DB06
330
C048
100
AcDbEntity
  8
30
  6
Continuous
 62
     0
370
    -2
100
AcDbBlockReference
  2
_OPEN
 10
-130.1198679701441
 20
0.0000000000000116
 30
0.0
 41
2.0
 42
2.0
 43
2.0
 50
270.0
  0
MTEXT
  5
DB07
330
C048
100
AcDbEntity
  8
30
  6
Continuous
 62
     0
100
AcDbMText
 10
-136.1198679701443
 20
27.74999999999991
 30
0.0
 40
6.0
 41
0.0
 71
     5
 72
     1
  1
\A1;55.5
 11
0.0000000000000001
 21
1.0
 31
0.0
 73
     1
 44
1.0
1001
ACAD
1000
MTEXTBEGIN
1070
    73
1070
     1
1070
    44
1040
1.0
1070
    74
1070
     0
1000
MTEXTEND
  0
POINT
  5
DB08
330
C048
100
AcDbEntity
  8
DEFPOINTS
  6
Continuous
 62
     0
100
AcDbPoint
 10
-105.0055725484724
 20
55.49999999999985
 30
0.0
  0
POINT
  5
DB09
330
C048
100
AcDbEntity
  8
DEFPOINTS
  6
Continuous
 62
     0
100
AcDbPoint
 10
-89.30557254847249
 20
0.0
 30
0.0
  0
POINT
  5
DB0A
330
C048
100
AcDbEntity
  8
DEFPOINTS
  6
Continuous
 62
     0
100
AcDbPoint
 10
-130.1198679701441
 20
0.0000000000000116
 30
0.0
  0
ENDBLK
  5
C053
330
C048
100
AcDbEntity
  8
0
100
AcDbBlockEnd
  0
BLOCK
  5
C068
330
C05E
100
AcDbEntity
  8
0
100
AcDbBlockBegin
  2
*D36
 70
     1
 10
0.0
 20
0.0
 30
0.0
  3
*D36
  1

  0
LINE
  5
DB0B
330
C05E
100
AcDbEntity
  8
30
  6
Continuous
 62
     0
370
    -2
100
AcDbLine
 10
-108.0055725484724
 20
0.0000000000000052
 30
0.0
 11
-130.6333815362509
 21
0.0000000000000117
 31
0.0
  0
LINE
  5
DB0C
330
C05E
100
AcDbEntity
  8
30
  6
Continuous
 62
     0
370
    -2
100
AcDbLine
 10
-108.0055725484724
 20
-46.49999999999976
 30
0.0
 11
-130.6333815362509
 21
-46.49999999999975
 31
0.0
  0
LINE
  5
DB0D
330
C05E
100
AcDbEntity
  8
30
  6
Continuous
 62
     0
370
    -2
100
AcDbLine
 10
-130.133381536251
 20
-1.999999999999985
 30
0.0
 11
-130.133381536251
 21
-44.49999999999975
 31
0.0
  0
INSERT
  5
DB0E
330
C05E
100
AcDbEntity
  8
30
  6
Continuous
 62
     0
370
    -2
100
AcDbBlockReference
  2
_OPEN
 10
-130.133381536251
 20
0.0000000000000115
 30
0.0
 41
2.0
 42
2.0
 43
2.0
 50
90.0
  0
INSERT
  5
DB0F
330
C05E
100
AcDbEntity
  8
30
  6
Continuous
 62
     0
370
    -2
100
AcDbBlockReference
  2
_OPEN
 10
-130.133381536251
 20
-46.49999999999975
 30
0.0
 41
2.0
 42
2.0
 43
2.0
 50
270.0
  0
MTEXT
  5
DB10
330
C05E
100
AcDbEntity
  8
30
  6
Continuous
 62
     0
100
AcDbMText
 10
-136.1333815362509
 20
-23.24999999999989
 30
0.0
 40
6.0
 41
0.0
 71
     5
 72
     1
  1
\A1;46.5
 11
0.0000000000000001
 21
1.0
 31
0.0
 73
     1
 44
1.0
1001
ACAD
1000
MTEXTBEGIN
1070
    73
1070
     1
1070
    44
1040
1.0
1070
    74
1070
     0
1000
MTEXTEND
  0
POINT
  5
DB11
330
C05E
100
AcDbEntity
  8
DEFPOINTS
  6
Continuous
 62
     0
100
AcDbPoint
 10
-105.0055725484724
 20
0.0000000000000044
 30
0.0
  0
POINT
  5
DB12
330
C05E
100
AcDbEntity
  8
DEFPOINTS
  6
Continuous
 62
     0
100
AcDbPoint
 10
-105.0055725484724
 20
-46.49999999999976
 30
0.0
  0
POINT
  5
DB13
330
C05E
100
AcDbEntity
  8
DEFPOINTS
  6
Continuous
 62
     0
100
AcDbPoint
 10
-130.133381536251
 20
-46.49999999999975
 30
0.0
  0
ENDBLK
  5
C069
330
C05E
100
AcDbEntity
  8
0
100
AcDbBlockEnd
  0
BLOCK
  5
C588
330
C57E
100
AcDbEntity
  8
0
100
AcDbBlockBegin
  2
*D37
 70
     1
 10
0.0
 20
0.0
 30
0.0
  3
*D37
  1

  0
LINE
  5
D9A3
330
C57E
100
AcDbEntity
  8
30
  6
Continuous
 62
     0
370
    -2
100
AcDbLine
 10
461.1257251614508
 20
-220.6622137404576
 30
0.0
 11
461.1257251614508
 21
-230.3221017547435
 31
0.0
  0
LINE
  5
D9A4
330
C57E
100
AcDbEntity
  8
30
  6
Continuous
 62
     0
370
    -2
100
AcDbLine
 10
497.0944274515272
 20
-140.5095419847322
 30
0.0
 11
497.0944274515272
 21
-230.3221017547435
 31
0.0
  0
LINE
  5
D9A5
330
C57E
100
AcDbEntity
  8
30
  6
Continuous
 62
     0
370
    -2
100
AcDbLine
 10
463.1257251614508
 20
-229.8221017547434
 30
0.0
 11
495.0944274515271
 21
-229.8221017547434
 31
0.0
  0
INSERT
  5
D9A6
330
C57E
100
AcDbEntity
  8
30
  6
Continuous
 62
     0
370
    -2
100
AcDbBlockReference
  2
_OPEN
 10
461.1257251614508
 20
-229.8221017547434
 30
0.0
 41
2.0
 42
2.0
 43
2.0
 50
180.0
  0
INSERT
  5
D9A7
330
C57E
100
AcDbEntity
  8
30
  6
Continuous
 62
     0
370
    -2
100
AcDbBlockReference
  2
_OPEN
 10
497.0944274515272
 20
-229.8221017547434
 30
0.0
 41
2.0
 42
2.0
 43
2.0
  0
MTEXT
  5
D9A8
330
C57E
100
AcDbEntity
  8
30
  6
Continuous
 62
     0
100
AcDbMText
 10
479.110076306489
 20
-223.8221017547434
 30
0.0
 40
6.0
 41
0.0
 71
     5
 72
     1
  1
\A1; 36 
 73
     1
 44
1.0
1001
ACAD
1000
MTEXTBEGIN
1070
    73
1070
     1
1070
    44
1040
1.0
1070
    74
1070
     0
1000
MTEXTEND
  0
POINT
  5
D9A9
330
C57E
100
AcDbEntity
  8
DEFPOINTS
  6
Continuous
 62
     0
100
AcDbPoint
 10
461.1257251614508
 20
-217.6622137404574
 30
0.0
  0
POINT
  5
D9AA
330
C57E
100
AcDbEntity
  8
DEFPOINTS
  6
Continuous
 62
     0
100
AcDbPoint
 10
497.0944274515272
 20
-137.5095419847322
 30
0.0
  0
POINT
  5
D9AB
330
C57E
100
AcDbEntity
  8
DEFPOINTS
  6
Continuous
 62
     0
100
AcDbPoint
 10
497.0944274515272
 20
-229.8221017547434
 30
0.0
  0
ENDBLK
  5
C589
330
C57E
100
AcDbEntity
  8
0
100
AcDbBlockEnd
  0
BLOCK
  5
C594
330
C58A
100
AcDbEntity
  8
0
100
AcDbBlockBegin
  2
*D38
 70
     1
 10
0.0
 20
0.0
 30
0.0
  3
*D38
  1

  0
LINE
  5
D99A
330
C58A
100
AcDbEntity
  8
30
  6
Continuous
 62
     0
370
    -2
100
AcDbLine
 10
451.106641191985
 20
-220.6622137404576
 30
0.0
 11
451.106641191985
 21
-230.2410203581032
 31
0.0
  0
LINE
  5
D99B
330
C58A
100
AcDbEntity
  8
30
  6
Continuous
 62
     0
370
    -2
100
AcDbLine
 10
461.1257251614508
 20
-220.6622137404576
 30
0.0
 11
461.1257251614508
 21
-230.2410203581032
 31
0.0
  0
LINE
  5
D99C
330
C58A
100
AcDbEntity
  8
30
  6
Continuous
 62
     0
370
    -2
100
AcDbLine
 10
453.1066411919851
 20
-229.7410203581033
 30
0.0
 11
459.1257251614508
 21
-229.7410203581033
 31
0.0
  0
MTEXT
  5
D99D
330
C58A
100
AcDbEntity
  8
30
  6
Continuous
 62
     0
100
AcDbMText
 10
455.7944274515273
 20
-224.9999999999999
 30
0.0
 40
6.0
 41
0.0
 71
     5
 72
     1
  1
\A1;10 
 73
     1
 44
1.0
1001
ACAD
1000
MTEXTBEGIN
1070
    73
1070
     1
1070
    44
1040
1.0
1070
    74
1070
     0
1000
MTEXTEND
  0
INSERT
  5
D99E
330
C58A
100
AcDbEntity
  8
30
  6
Continuous
 62
     0
370
    -2
100
AcDbBlockReference
  2
_OPEN
 10
451.106641191985
 20
-229.7410203581033
 30
0.0
 41
2.0
 42
2.0
 43
2.0
 50
180.0
  0
INSERT
  5
D99F
330
C58A
100
AcDbEntity
  8
30
  6
Continuous
 62
     0
370
    -2
100
AcDbBlockReference
  2
_OPEN
 10
461.1257251614508
 20
-229.7410203581033
 30
0.0
 41
2.0
 42
2.0
 43
2.0
  0
POINT
  5
D9A0
330
C58A
100
AcDbEntity
  8
DEFPOINTS
  6
Continuous
 62
     0
100
AcDbPoint
 10
451.106641191985
 20
-217.6622137404574
 30
0.0
  0
POINT
  5
D9A1
330
C58A
100
AcDbEntity
  8
DEFPOINTS
  6
Continuous
 62
     0
100
AcDbPoint
 10
461.1257251614508
 20
-217.6622137404574
 30
0.0
  0
POINT
  5
D9A2
330
C58A
100
AcDbEntity
  8
DEFPOINTS
  6
Continuous
 62
     0
100
AcDbPoint
 10
461.1257251614508
 20
-229.7410203581033
 30
0.0
  0
ENDBLK
  5
C595
330
C58A
100
AcDbEntity
  8
0
100
AcDbBlockEnd
  0
BLOCK
  5
C5A0
330
C596
100
AcDbEntity
  8
0
100
AcDbBlockBegin
  2
*D39
 70
     1
 10
0.0
 20
0.0
 30
0.0
  3
*D39
  1

  0
LINE
  5
D991
330
C596
100
AcDbEntity
  8
30
  6
Continuous
 62
     0
370
    -2
100
AcDbLine
 10
454.9142747797715
 20
228.6622137404578
 30
0.0
 11
454.9142747797715
 21
253.1176824904576
 31
0.0
  0
LINE
  5
D992
330
C596
100
AcDbEntity
  8
30
  6
Continuous
 62
     0
370
    -2
100
AcDbLine
 10
464.9333587492368
 20
228.6622137404578
 30
0.0
 11
464.9333587492368
 21
253.1176824904576
 31
0.0
  0
LINE
  5
D993
330
C596
100
AcDbEntity
  8
30
  6
Continuous
 62
     0
370
    -2
100
AcDbLine
 10
456.9142747797715
 20
252.6176824904577
 30
0.0
 11
462.9333587492371
 21
252.6176824904577
 31
0.0
  0
INSERT
  5
D994
330
C596
100
AcDbEntity
  8
30
  6
Continuous
 62
     0
370
    -2
100
AcDbBlockReference
  2
_OPEN
 10
454.9142747797715
 20
252.6176824904577
 30
0.0
 41
2.0
 42
2.0
 43
2.0
 50
180.0
  0
INSERT
  5
D995
330
C596
100
AcDbEntity
  8
30
  6
Continuous
 62
     0
370
    -2
100
AcDbBlockReference
  2
_OPEN
 10
464.9333587492368
 20
252.6176824904577
 30
0.0
 41
2.0
 42
2.0
 43
2.0
  0
MTEXT
  5
D996
330
C596
100
AcDbEntity
  8
30
  6
Continuous
 62
     0
100
AcDbMText
 10
459.9238167645043
 20
258.6176824904577
 30
0.0
 40
6.0
 41
0.0
 71
     5
 72
     1
  1
\A1; 10 
 73
     1
 44
1.0
1001
ACAD
1000
MTEXTBEGIN
1070
    73
1070
     1
1070
    44
1040
1.0
1070
    74
1070
     0
1000
MTEXTEND
  0
POINT
  5
D997
330
C596
100
AcDbEntity
  8
DEFPOINTS
  6
Continuous
 62
     0
100
AcDbPoint
 10
454.9142747797715
 20
225.6622137404578
 30
0.0
  0
POINT
  5
D998
330
C596
100
AcDbEntity
  8
DEFPOINTS
  6
Continuous
 62
     0
100
AcDbPoint
 10
464.9333587492368
 20
225.6622137404578
 30
0.0
  0
POINT
  5
D999
330
C596
100
AcDbEntity
  8
DEFPOINTS
  6
Continuous
 62
     0
100
AcDbPoint
 10
464.9333587492368
 20
252.6176824904577
 30
0.0
  0
ENDBLK
  5
C5A1
330
C596
100
AcDbEntity
  8
0
100
AcDbBlockEnd
  0
BLOCK
  5
C5AC
330
C5A2
100
AcDbEntity
  8
0
100
AcDbBlockBegin
  2
*D40
 70
     1
 10
0.0
 20
0.0
 30
0.0
  3
*D40
  1

  0
LINE
  5
D988
330
C5A2
100
AcDbEntity
  8
30
  6
Continuous
 62
     0
370
    -2
100
AcDbLine
 10
464.9944274515272
 20
228.4999999999995
 30
0.0
 11
464.9944274515272
 21
252.9041249999993
 31
0.0
  0
LINE
  5
D989
330
C5A2
100
AcDbEntity
  8
30
  6
Continuous
 62
     0
370
    -2
100
AcDbLine
 10
496.9944274515269
 20
148.4999999999996
 30
0.0
 11
496.9944274515269
 21
252.9041249999993
 31
0.0
  0
LINE
  5
D98A
330
C5A2
100
AcDbEntity
  8
30
  6
Continuous
 62
     0
370
    -2
100
AcDbLine
 10
466.9944274515271
 20
252.4041249999994
 30
0.0
 11
494.9944274515273
 21
252.4041249999994
 31
0.0
  0
INSERT
  5
D98B
330
C5A2
100
AcDbEntity
  8
30
  6
Continuous
 62
     0
370
    -2
100
AcDbBlockReference
  2
_OPEN
 10
464.9944274515272
 20
252.4041249999994
 30
0.0
 41
2.0
 42
2.0
 43
2.0
 50
180.0
  0
INSERT
  5
D98C
330
C5A2
100
AcDbEntity
  8
30
  6
Continuous
 62
     0
370
    -2
100
AcDbBlockReference
  2
_OPEN
 10
496.9944274515269
 20
252.4041249999994
 30
0.0
 41
2.0
 42
2.0
 43
2.0
  0
MTEXT
  5
D98D
330
C5A2
100
AcDbEntity
  8
30
  6
Continuous
 62
     0
100
AcDbMText
 10
480.9944274515272
 20
258.4041249999994
 30
0.0
 40
6.0
 41
0.0
 71
     5
 72
     1
  1
\A1; 32 
 73
     1
 44
1.0
1001
ACAD
1000
MTEXTBEGIN
1070
    73
1070
     1
1070
    44
1040
1.0
1070
    74
1070
     0
1000
MTEXTEND
  0
POINT
  5
D98E
330
C5A2
100
AcDbEntity
  8
DEFPOINTS
  6
Continuous
 62
     0
100
AcDbPoint
 10
464.9944274515272
 20
225.4999999999995
 30
0.0
  0
POINT
  5
D98F
330
C5A2
100
AcDbEntity
  8
DEFPOINTS
  6
Continuous
 62
     0
100
AcDbPoint
 10
496.9944274515269
 20
145.4999999999996
 30
0.0
  0
POINT
  5
D990
330
C5A2
100
AcDbEntity
  8
DEFPOINTS
  6
Continuous
 62
     0
100
AcDbPoint
 10
496.9944274515269
 20
252.4041249999994
 30
0.0
  0
ENDBLK
  5
C5AD
330
C5A2
100
AcDbEntity
  8
0
100
AcDbBlockEnd
  0
BLOCK
  5
CE35
330
CE2B
100
AcDbEntity
  8
0
100
AcDbBlockBegin
  2
*D41
 70
     1
 10
0.0
 20
0.0
 30
0.0
  3
*D41
  1

  0
LINE
  5
D97F
330
CE2B
100
AcDbEntity
  8
30
  6
Continuous
 62
     0
370
    -2
100
AcDbLine
 10
373.6944274515273
 20
-548.9999999999999
 30
0.0
 11
373.6944274515273
 21
-657.8305297818661
 31
0.0
  0
LINE
  5
D980
330
CE2B
100
AcDbEntity
  8
30
  6
Continuous
 62
     0
370
    -2
100
AcDbLine
 10
426.6944274515273
 20
-548.9999999999999
 30
0.0
 11
426.6944274515273
 21
-657.8305297818661
 31
0.0
  0
LINE
  5
D981
330
CE2B
100
AcDbEntity
  8
30
  6
Continuous
 62
     0
370
    -2
100
AcDbLine
 10
375.6944274515273
 20
-657.3305297818661
 30
0.0
 11
424.6944274515271
 21
-657.3305297818661
 31
0.0
  0
INSERT
  5
D982
330
CE2B
100
AcDbEntity
  8
30
  6
Continuous
 62
     0
370
    -2
100
AcDbBlockReference
  2
_OPEN
 10
373.6944274515273
 20
-657.3305297818661
 30
0.0
 41
2.0
 42
2.0
 43
2.0
 50
180.0
  0
INSERT
  5
D983
330
CE2B
100
AcDbEntity
  8
30
  6
Continuous
 62
     0
370
    -2
100
AcDbBlockReference
  2
_OPEN
 10
426.6944274515273
 20
-657.3305297818661
 30
0.0
 41
2.0
 42
2.0
 43
2.0
  0
MTEXT
  5
D984
330
CE2B
100
AcDbEntity
  8
30
  6
Continuous
 62
     0
100
AcDbMText
 10
400.194427451527
 20
-651.3305297818662
 30
0.0
 40
6.0
 41
0.0
 71
     5
 72
     1
  1
\A1;53
 73
     1
 44
1.0
1001
ACAD
1000
MTEXTBEGIN
1070
    73
1070
     1
1070
    44
1040
1.0
1070
    74
1070
     0
1000
MTEXTEND
  0
POINT
  5
D985
330
CE2B
100
AcDbEntity
  8
DEFPOINTS
  6
Continuous
 62
     0
100
AcDbPoint
 10
373.6944274515273
 20
-545.9999999999999
 30
0.0
  0
POINT
  5
D986
330
CE2B
100
AcDbEntity
  8
DEFPOINTS
  6
Continuous
 62
     0
100
AcDbPoint
 10
426.6944274515273
 20
-545.9999999999999
 30
0.0
  0
POINT
  5
D987
330
CE2B
100
AcDbEntity
  8
DEFPOINTS
  6
Continuous
 62
     0
100
AcDbPoint
 10
426.6944274515273
 20
-657.3305297818661
 30
0.0
  0
ENDBLK
  5
CE36
330
CE2B
100
AcDbEntity
  8
0
100
AcDbBlockEnd
  0
BLOCK
  5
CE41
330
CE37
100
AcDbEntity
  8
0
100
AcDbBlockBegin
  2
*D42
 70
     1
 10
0.0
 20
0.0
 30
0.0
  3
*D42
  1

  0
LINE
  5
D976
330
CE37
100
AcDbEntity
  8
30
  6
Continuous
 62
     0
370
    -2
100
AcDbLine
 10
314.1944274515275
 20
-548.0
 30
0.0
 11
314.1944274515275
 21
-672.5958749999992
 31
0.0
  0
LINE
  5
D977
330
CE37
100
AcDbEntity
  8
30
  6
Continuous
 62
     0
370
    -2
100
AcDbLine
 10
486.1944274515273
 20
-548.0
 30
0.0
 11
486.1944274515273
 21
-672.5958749999992
 31
0.0
  0
LINE
  5
D978
330
CE37
100
AcDbEntity
  8
30
  6
Continuous
 62
     0
370
    -2
100
AcDbLine
 10
316.1944274515273
 20
-672.0958749999994
 30
0.0
 11
484.1944274515273
 21
-672.0958749999994
 31
0.0
  0
INSERT
  5
D979
330
CE37
100
AcDbEntity
  8
30
  6
Continuous
 62
     0
370
    -2
100
AcDbBlockReference
  2
_OPEN
 10
314.1944274515275
 20
-672.0958749999994
 30
0.0
 41
2.0
 42
2.0
 43
2.0
 50
180.0
  0
INSERT
  5
D97A
330
CE37
100
AcDbEntity
  8
30
  6
Continuous
 62
     0
370
    -2
100
AcDbBlockReference
  2
_OPEN
 10
486.1944274515273
 20
-672.0958749999994
 30
0.0
 41
2.0
 42
2.0
 43
2.0
  0
MTEXT
  5
D97B
330
CE37
100
AcDbEntity
  8
30
  6
Continuous
 62
     0
100
AcDbMText
 10
400.1944274515274
 20
-666.0958749999994
 30
0.0
 40
6.0
 41
0.0
 71
     5
 72
     1
  1
\A1; 172 
 73
     1
 44
1.0
1001
ACAD
1000
MTEXTBEGIN
1070
    73
1070
     1
1070
    44
1040
1.0
1070
    74
1070
     0
1000
MTEXTEND
  0
POINT
  5
D97C
330
CE37
100
AcDbEntity
  8
DEFPOINTS
  6
Continuous
 62
     0
100
AcDbPoint
 10
314.1944274515275
 20
-545.0
 30
0.0
  0
POINT
  5
D97D
330
CE37
100
AcDbEntity
  8
DEFPOINTS
  6
Continuous
 62
     0
100
AcDbPoint
 10
486.1944274515273
 20
-545.0
 30
0.0
  0
POINT
  5
D97E
330
CE37
100
AcDbEntity
  8
DEFPOINTS
  6
Continuous
 62
     0
100
AcDbPoint
 10
486.1944274515273
 20
-672.0958749999994
 30
0.0
  0
ENDBLK
  5
CE42
330
CE37
100
AcDbEntity
  8
0
100
AcDbBlockEnd
  0
BLOCK
  5
D906
330
D8FC
100
AcDbEntity
  8
0
100
AcDbBlockBegin
  2
*D43
 70
     1
 10
0.0
 20
0.0
 30
0.0
  3
*D43
  1

  0
LINE
  5
D8FD
330
D8FC
100
AcDbEntity
  8
30
  6
Continuous
 62
     0
370
    -2
100
AcDbLine
 10
107.6999999999995
 20
408.3231618618496
 30
0.0
 11
137.5
 21
408.3231618618495
 31
0.0
  0
LINE
  5
D8FE
330
D8FC
100
AcDbEntity
  8
30
  6
Continuous
 62
     0
370
    -2
100
AcDbLine
 10
107.6999999999995
 20
305.3231618618493
 30
0.0
 11
137.5
 21
305.3231618618493
 31
0.0
  0
LINE
  5
D8FF
330
D8FC
100
AcDbEntity
  8
30
  6
Continuous
 62
     0
370
    -2
100
AcDbLine
 10
137.0
 20
406.3231618618495
 30
0.0
 11
137.0
 21
307.3231618618493
 31
0.0
  0
INSERT
  5
D900
330
D8FC
100
AcDbEntity
  8
30
  6
Continuous
 62
     0
370
    -2
100
AcDbBlockReference
  2
_OPEN
 10
137.0
 20
408.3231618618495
 30
0.0
 41
2.0
 42
2.0
 43
2.0
 50
90.0
  0
INSERT
  5
D901
330
D8FC
100
AcDbEntity
  8
30
  6
Continuous
 62
     0
370
    -2
100
AcDbBlockReference
  2
_OPEN
 10
137.0
 20
305.3231618618493
 30
0.0
 41
2.0
 42
2.0
 43
2.0
 50
270.0
  0
MTEXT
  5
D902
330
D8FC
100
AcDbEntity
  8
30
  6
Continuous
 62
     0
100
AcDbMText
 10
130.9999999999999
 20
356.8231618618495
 30
0.0
 40
6.0
 41
0.0
 71
     5
 72
     1
  1
\A1;103
 11
0.0000000000000001
 21
1.0
 31
0.0
 73
     1
 44
1.0
1001
ACAD
1000
MTEXTBEGIN
1070
    73
1070
     1
1070
    44
1040
1.0
1070
    74
1070
     0
1000
MTEXTEND
  0
POINT
  5
D903
330
D8FC
100
AcDbEntity
  8
DEFPOINTS
  6
Continuous
 62
     0
100
AcDbPoint
 10
104.6999999999995
 20
408.3231618618496
 30
0.0
  0
POINT
  5
D904
330
D8FC
100
AcDbEntity
  8
DEFPOINTS
  6
Continuous
 62
     0
100
AcDbPoint
 10
104.6999999999995
 20
305.3231618618493
 30
0.0
  0
POINT
  5
D905
330
D8FC
100
AcDbEntity
  8
DEFPOINTS
  6
Continuous
 62
     0
100
AcDbPoint
 10
137.0
 20
305.3231618618493
 30
0.0
  0
ENDBLK
  5
D907
330
D8FC
100
AcDbEntity
  8
0
100
AcDbBlockEnd
  0
ENDSEC
  0
SECTION
  2
ENTITIES
  0
MTEXT
  5
BF3
330
1E
100
AcDbEntity
  8
24
  6
Continuous
100
AcDbMText
 10
-1122.491452288449
 20
175.9782715550901
 30
0.0
 40
3.0
 41
0.0
 71
     1
 72
     1
  1
\A1;
 73
     1
 44
1.0
1001
ACAD
1000
MTEXTBEGIN
1070
    73
1070
     1
1070
    44
1040
1.0
1070
    74
1070
     0
1000
MTEXTEND
  0
MTEXT
  5
5C78
330
1E
100
AcDbEntity
  8
30
  6
Continuous
100
AcDbMText
 10
-1101.143783895141
 20
88.62852870035437
 30
0.0
 40
4.0
 41
0.0
 71
     9
 72
     1
  1

 73
     1
 44
1.0
1001
ACAD
1000
MTEXTBEGIN
1070
    73
1070
     1
1070
    44
1040
1.0
1070
    74
1070
     0
1000
MTEXTEND
  0
MTEXT
  5
6200
330
1E
100
AcDbEntity
  8
30
  6
Continuous
100
AcDbMText
 10
-1102.84454213051
 20
90.86832916645674
 30
0.0
 40
4.0
 41
0.0
 71
     9
 72
     1
  1

 73
     1
 44
1.0
1001
ACAD
1000
MTEXTBEGIN
1070
    73
1070
     1
1070
    44
1040
1.0
1070
    74
1070
     0
1000
MTEXTEND
  0
MTEXT
  5
7CA7
330
1E
100
AcDbEntity
  8
30
  6
Continuous
100
AcDbMText
 10
-1052.604901093596
 20
139.1522054711028
 30
0.0
 40
4.0
 41
0.0
 71
     9
 72
     1
  1
\A1;
 73
     1
 44
1.0
1001
ACAD
1000
MTEXTBEGIN
1070
    73
1070
     1
1070
    44
1040
1.0
1070
    74
1070
     0
1000
MTEXTEND
  0
MTEXT
  5
7CA9
330
1E
100
AcDbEntity
  8
30
  6
Continuous
100
AcDbMText
 10
-1045.864661743955
 20
136.4393073898492
 30
0.0
 40
4.0
 41
0.0
 71
     9
 72
     1
  1
\A1;
 73
     1
 44
1.0
1001
ACAD
1000
MTEXTBEGIN
1070
    73
1070
     1
1070
    44
1040
1.0
1070
    74
1070
     0
1000
MTEXTEND
  0
MTEXT
  5
89EA
330
1E
100
AcDbEntity
  8
19
  6
Continuous
100
AcDbMText
 10
373.539336092086
 20
389.9440714890056
 30
0.0
 40
8.0
 41
178.128670620229
 71
     1
 72
     5
  1
ZAS800-CF 3P FC\PZAS800-NF 3P FC
  7
STANDARD1
 73
     1
 44
1.0
1001
ACAD
1000
MTEXTBEGIN
1070
    73
1070
     1
1070
    44
1040
1.0
1070
    74
1070
     0
1000
MTEXTEND
  0
MTEXT
  5
8D78
330
1E
100
AcDbEntity
  8
30
  6
Continuous
100
AcDbMText
 10
-1491.738763006155
 20
136.439307389849
 30
0.0
 40
4.0
 41
0.0
 71
     9
 72
     1
  1
\A1;
 73
     1
 44
1.0
1001
ACAD
1000
MTEXTBEGIN
1070
    73
1070
     1
1070
    44
1040
1.0
1070
    74
1070
     0
1000
MTEXTEND
  0
LINE
  5
9579
330
1E
100
AcDbEntity
  8
10
  6
Continuous
100
AcDbLine
 10
386.9193624515276
 20
34.89865499999999
 30
0.0
 11
358.2527324515277
 21
45.21927999999995
 31
0.0
  0
LINE
  5
957A
330
1E
100
AcDbEntity
  8
16
100
AcDbLine
 10
510.9944274515274
 20
0.0000000000000284
 30
0.0
 11
334.5944274515279
 21
0.0000000000000284
 31
0.0
  0
LINE
  5
957B
330
1E
100
AcDbEntity
  8
10
  6
Continuous
100
AcDbLine
 10
386.2842974515276
 20
21.52302000000004
 30
0.0
 11
353.9168874515277
 21
33.17600499999993
 31
0.0
  0
LINE
  5
957C
330
1E
100
AcDbEntity
  8
10
  6
Continuous
100
AcDbLine
 10
379.810332451527
 20
44.57905000000001
 30
0.0
 11
355.3474324515274
 21
53.38623500000004
 31
0.0
  0
LINE
  5
957D
330
1E
100
AcDbEntity
  8
10
  6
Continuous
100
AcDbLine
 10
370.9353974515277
 20
19.92797499999995
 30
0.0
 11
346.4724974515271
 21
28.73515999999991
 31
0.0
  0
DIMENSION
  5
9581
330
1E
100
AcDbEntity
  8
30
  6
Continuous
100
AcDbDimension
  2
*D13
 10
496.9944274515269
 20
-310.0
 30
0.0
 11
424.4944274515274
 21
-304.0
 31
0.0
 70
    32
  1
 <> 
 71
     5
 42
144.9999999999993
  3
STANDARD1
100
AcDbAlignedDimension
 13
351.9944274515277
 23
5.000000000000143
 33
0.0
 14
496.9944274515269
 24
-136.9999999999995
 34
0.0
100
AcDbRotatedDimension
  0
LINE
  5
9587
330
1E
100
AcDbEntity
  8
16
100
AcDbLine
 10
-0.0000000000000142
 20
-221.8999999999993
 30
0.0
 11
-0.0000000000000142
 21
231.0999999999995
 31
0.0
  0
LINE
  5
958D
330
1E
100
AcDbEntity
  8
17
  6
DASHDOT
100
AcDbLine
 10
-70.00557254847258
 20
-221.8999999999993
 30
0.0
 11
-70.00557254847258
 21
-98.49999999999972
 31
0.0
  0
LINE
  5
958E
330
1E
100
AcDbEntity
  8
17
  6
DASHDOT
100
AcDbLine
 10
69.99442745152717
 20
-221.8999999999993
 30
0.0
 11
69.99442745152717
 21
-98.49999999999972
 31
0.0
  0
DIMENSION
  5
9597
330
1E
100
AcDbEntity
  8
30
  6
Continuous
100
AcDbDimension
  2
*D14
 10
69.99442745152717
 20
-247.6979374999991
 30
0.0
 11
-0.0055725484727059
 21
-241.6979374999991
 31
0.0
 70
    32
  1
 <> 
 71
     5
 42
139.9999999999997
  3
STANDARD1
100
AcDbAlignedDimension
 13
-70.00557254847258
 23
-221.8999999999993
 33
0.0
 14
69.99442745152717
 24
-221.8999999999993
 34
0.0
100
AcDbRotatedDimension
  0
DIMENSION
  5
9598
330
1E
100
AcDbEntity
  8
30
  6
Continuous
100
AcDbDimension
  2
*D15
 10
104.9944274515266
 20
-279.3973356080582
 30
0.0
 11
-0.0055725484727983
 21
-273.3973356080582
 31
0.0
 70
    32
  1
 <> 
 71
     5
 42
209.9999999999993
  3
STANDARD1
100
AcDbAlignedDimension
 13
-105.0055725484724
 23
-131.9999999999995
 33
0.0
 14
104.9944274515267
 24
-131.9999999999995
 34
0.0
100
AcDbRotatedDimension
  0
DIMENSION
  5
95A1
330
1E
100
AcDbEntity
  8
30
  6
Continuous
100
AcDbDimension
  2
*D16
 10
271.4933574515275
 20
-310.0
 30
0.0
 11
311.7438924515278
 21
-304.0
 31
0.0
 70
    33
  1
 <> 
 71
     5
 42
80.50107000000014
  3
STANDARD1
100
AcDbAlignedDimension
 13
351.9944274515277
 23
5.000000000000143
 33
0.0
 14
271.4933574515275
 24
5.000000000000143
 34
0.0
  0
DIMENSION
  5
95A3
330
1E
100
AcDbEntity
  8
30
  6
Continuous
100
AcDbDimension
  2
*D17
 10
89.9944274515272
 20
-230.8250754595472
 30
0.0
 11
69.99442745152719
 21
-224.8250754595472
 31
0.0
 70
    32
  1
 <> 
 71
     5
 42
40.00000000000002
  3
STANDARD1
100
AcDbAlignedDimension
 13
49.99442745152718
 23
-216.8999999999993
 33
0.0
 14
89.9944274515272
 24
-216.8999999999993
 34
0.0
100
AcDbRotatedDimension
  0
LINE
  5
95B3
330
1E
100
AcDbEntity
  8
17
  6
DASHDOT
100
AcDbLine
 10
34.9944274515272
 20
137.2499999999996
 30
0.0
 11
34.9944274515272
 21
114.7499999999997
 31
0.0
  0
LINE
  5
95B4
330
1E
100
AcDbEntity
  8
17
  6
DASHDOT
100
AcDbLine
 10
-70.0055725484726
 20
231.0999999999995
 30
0.0
 11
-70.0055725484726
 21
107.4999999999997
 31
0.0
  0
LINE
  5
95B5
330
1E
100
AcDbEntity
  8
17
  6
DASHDOT
100
AcDbLine
 10
69.99442745152716
 20
231.0999999999995
 30
0.0
 11
69.99442745152716
 21
107.4999999999997
 31
0.0
  0
CIRCLE
  5
95BE
330
1E
100
AcDbEntity
  8
17
  6
CONTINOUS
100
AcDbCircle
 10
34.9944274515272
 20
125.9999999999997
 30
0.0
 40
8.249999999999976
  0
LINE
  5
95C0
330
1E
100
AcDbEntity
  8
10
  6
Continuous
100
AcDbLine
 10
104.9944274515272
 20
-46.49999999999976
 30
0.0
 11
-105.0055725484724
 21
-46.49999999999976
 31
0.0
  0
LINE
  5
95C1
330
1E
100
AcDbEntity
  8
10
  6
Continuous
100
AcDbLine
 10
104.9944274515272
 20
115.9999999999997
 30
0.0
 11
-105.0055725484724
 21
115.9999999999997
 31
0.0
  0
LINE
  5
95C2
330
1E
100
AcDbEntity
  8
10
  6
Continuous
100
AcDbLine
 10
-105.0055725484724
 20
-106.9999999999996
 30
0.0
 11
104.9944274515272
 21
-106.9999999999996
 31
0.0
  0
LINE
  5
95C3
330
1E
100
AcDbEntity
  8
16
100
AcDbLine
 10
140.694427451527
 20
0.0
 30
0.0
 11
-89.30557254847249
 21
0.0
 31
0.0
  0
LINE
  5
95C4
330
1E
100
AcDbEntity
  8
10
  6
Continuous
100
AcDbLine
 10
104.9944274515272
 20
55.49999999999985
 30
0.0
 11
-105.0055725484724
 21
55.49999999999985
 31
0.0
  0
LINE
  5
95C6
330
1E
100
AcDbEntity
  8
10
  6
Continuous
100
AcDbLine
 10
25.49442745152723
 20
44.99999999999988
 30
0.0
 11
25.49442745152723
 21
-44.99999999999989
 31
0.0
  0
LINE
  5
95C7
330
1E
100
AcDbEntity
  8
10
  6
Continuous
100
AcDbLine
 10
-25.50557254847253
 20
44.99999999999988
 30
0.0
 11
-25.50557254847253
 21
-44.99999999999989
 31
0.0
  0
LINE
  5
95CF
330
1E
100
AcDbEntity
  8
17
  6
DASHDOT
100
AcDbLine
 10
-35.00557254847277
 20
-105.7499999999996
 30
0.0
 11
-35.00557254847277
 21
-128.2499999999995
 31
0.0
  0
LINE
  5
95D0
330
1E
100
AcDbEntity
  8
17
  6
DASHDOT
100
AcDbLine
 10
34.99442745152721
 20
-105.7499999999996
 30
0.0
 11
34.99442745152721
 21
-128.2499999999995
 31
0.0
  0
LINE
  5
95D6
330
1E
100
AcDbEntity
  8
17
  6
DASHDOT
100
AcDbLine
 10
-79.50557254847258
 20
-196.9999999999993
 30
0.0
 11
-60.50557254847256
 21
-196.9999999999993
 31
0.0
  0
CIRCLE
  5
95D7
330
1E
100
AcDbEntity
  8
17
  6
CONTINOUS
100
AcDbCircle
 10
70.00557254847258
 20
-196.9999999999993
 30
0.0
 40
6.499999999999982
210
0.0
220
0.0
230
-1.0
  0
LINE
  5
95D8
330
1E
100
AcDbEntity
  8
17
  6
DASHDOT
100
AcDbLine
 10
-79.50557254847258
 20
-156.9999999999995
 30
0.0
 11
-60.50557254847256
 21
-156.9999999999995
 31
0.0
  0
LINE
  5
95D9
330
1E
100
AcDbEntity
  8
17
  6
DASHDOT
100
AcDbLine
 10
-79.50557254847258
 20
-164.9999999999995
 30
0.0
 11
-60.50557254847256
 21
-164.9999999999995
 31
0.0
  0
LINE
  5
95DF
330
1E
100
AcDbEntity
  8
17
  6
DASHDOT
100
AcDbLine
 10
-9.505572548472585
 20
-196.9999999999993
 30
0.0
 11
9.494427451527414
 21
-196.9999999999993
 31
0.0
  0
CIRCLE
  5
95E0
330
1E
100
AcDbEntity
  8
17
  6
CONTINOUS
100
AcDbCircle
 10
0.0055725484725855
 20
-196.9999999999993
 30
0.0
 40
6.499999999999982
210
0.0
220
0.0
230
-1.0
  0
LINE
  5
95E1
330
1E
100
AcDbEntity
  8
17
  6
DASHDOT
100
AcDbLine
 10
-9.505572548472585
 20
-164.9999999999995
 30
0.0
 11
9.494427451527414
 21
-164.9999999999995
 31
0.0
  0
LINE
  5
95E2
330
1E
100
AcDbEntity
  8
17
  6
DASHDOT
100
AcDbLine
 10
-9.505572548472585
 20
-156.9999999999995
 30
0.0
 11
9.494427451527414
 21
-156.9999999999995
 31
0.0
  0
LINE
  5
95E8
330
1E
100
AcDbEntity
  8
17
  6
DASHDOT
100
AcDbLine
 10
-46.25557254847254
 20
-116.9999999999996
 30
0.0
 11
-23.75557254847277
 21
-116.9999999999996
 31
0.0
  0
CIRCLE
  5
95E9
330
1E
100
AcDbEntity
  8
17
  6
CONTINOUS
100
AcDbCircle
 10
-35.00557254847277
 20
-116.9999999999996
 30
0.0
 40
8.249999999999976
  0
LINE
  5
95EA
330
1E
100
AcDbEntity
  8
17
  6
DASHDOT
100
AcDbLine
 10
23.74442745152721
 20
-116.9999999999996
 30
0.0
 11
46.24442745152721
 21
-116.9999999999996
 31
0.0
  0
CIRCLE
  5
95EB
330
1E
100
AcDbEntity
  8
17
  6
CONTINOUS
100
AcDbCircle
 10
34.99442745152721
 20
-116.9999999999996
 30
0.0
 40
8.249999999999976
  0
LINE
  5
95EE
330
1E
100
AcDbEntity
  8
17
  6
DASHDOT
100
AcDbLine
 10
60.49442745152718
 20
-196.9999999999993
 30
0.0
 11
79.49442745152717
 21
-196.9999999999993
 31
0.0
  0
CIRCLE
  5
95EF
330
1E
100
AcDbEntity
  8
17
  6
CONTINOUS
100
AcDbCircle
 10
-69.99442745152717
 20
-196.9999999999993
 30
0.0
 40
6.499999999999982
210
0.0
220
0.0
230
-1.0
  0
LINE
  5
95F0
330
1E
100
AcDbEntity
  8
17
  6
DASHDOT
100
AcDbLine
 10
60.49442745152718
 20
-156.9999999999995
 30
0.0
 11
79.49442745152717
 21
-156.9999999999995
 31
0.0
  0
LINE
  5
95F1
330
1E
100
AcDbEntity
  8
17
  6
DASHDOT
100
AcDbLine
 10
60.49442745152718
 20
-164.9999999999995
 30
0.0
 11
79.49442745152717
 21
-164.9999999999995
 31
0.0
  0
LINE
  5
9605
330
1E
100
AcDbEntity
  8
10
  6
Continuous
100
AcDbLine
 10
25.49442745152723
 20
44.54681499999987
 30
0.0
 11
-25.50557254847253
 21
44.54681499999987
 31
0.0
  0
DIMENSION
  5
960B
330
1E
100
AcDbEntity
  8
30
  6
Continuous
100
AcDbDimension
  2
*D1
 10
68.35417013267877
 20
199.7851321813866
 30
0.0
 11
84.92021048750222
 21
226.7050666236713
 31
0.0
 70
   163
 71
     5
 42
12.99999806930154
  3
STANDARD1
100
AcDbDiametricDimension
 15
71.4346897703761
 25
212.4148728186129
 35
0.0
 40
0.0
  0
CIRCLE
  5
9615
330
1E
100
AcDbEntity
  8
24
  6
CONTINOUS
100
AcDbCircle
 10
-70.0055725484726
 20
206.0999999999995
 30
0.0
 40
6.499999999999982
  0
CIRCLE
  5
9616
330
1E
100
AcDbEntity
  8
24
  6
CONTINOUS
100
AcDbCircle
 10
-0.0055725484725926
 20
206.0999999999995
 30
0.0
 40
6.499999999999982
  0
LINE
  5
961B
330
1E
100
AcDbEntity
  8
17
  6
DASHDOT
100
AcDbLine
 10
-79.5055725484726
 20
173.9999999999995
 30
0.0
 11
-60.50557254847257
 21
173.9999999999995
 31
0.0
  0
LINE
  5
961F
330
1E
100
AcDbEntity
  8
17
  6
DASHDOT
100
AcDbLine
 10
-79.5055725484726
 20
206.0999999999995
 30
0.0
 11
-60.50557254847257
 21
206.0999999999995
 31
0.0
  0
LINE
  5
9622
330
1E
100
AcDbEntity
  8
17
  6
DASHDOT
100
AcDbLine
 10
23.7444274515272
 20
125.9999999999997
 30
0.0
 11
46.24442745152721
 21
125.9999999999997
 31
0.0
  0
LINE
  5
9623
330
1E
100
AcDbEntity
  8
17
  6
DASHDOT
100
AcDbLine
 10
-9.505572548472592
 20
173.9999999999995
 30
0.0
 11
9.494427451527407
 21
173.9999999999995
 31
0.0
  0
LINE
  5
9624
330
1E
100
AcDbEntity
  8
17
  6
DASHDOT
100
AcDbLine
 10
-9.505572548472592
 20
165.9999999999996
 30
0.0
 11
9.494427451527407
 21
165.9999999999996
 31
0.0
  0
LINE
  5
9628
330
1E
100
AcDbEntity
  8
17
  6
DASHDOT
100
AcDbLine
 10
-9.505572548472592
 20
206.0999999999995
 30
0.0
 11
9.494427451527407
 21
206.0999999999995
 31
0.0
  0
CIRCLE
  5
9630
330
1E
100
AcDbEntity
  8
24
  6
CONTINOUS
100
AcDbCircle
 10
69.99442745152716
 20
206.0999999999995
 30
0.0
 40
6.499999999999982
  0
DIMENSION
  5
9633
330
1E
100
AcDbEntity
  8
30
  6
Continuous
100
AcDbDimension
  2
*D2
 10
76.49442745152716
 20
185.9233686405284
 30
0.0
 11
69.99442745152717
 21
185.9233686405284
 31
0.0
 70
   160
  1
 <> 
 71
     5
 42
12.99999999999999
  3
STANDARD1
100
AcDbAlignedDimension
 13
63.49442745152717
 23
174.9999999999995
 33
0.0
 14
76.49442745152716
 24
174.9999999999995
 34
0.0
100
AcDbRotatedDimension
  0
LINE
  5
9634
330
1E
100
AcDbEntity
  8
17
  6
DASHDOT
100
AcDbLine
 10
60.49442745152717
 20
165.9999999999996
 30
0.0
 11
79.49442745152715
 21
165.9999999999996
 31
0.0
  0
LINE
  5
9635
330
1E
100
AcDbEntity
  8
17
  6
DASHDOT
100
AcDbLine
 10
60.49442745152717
 20
173.9999999999995
 30
0.0
 11
79.49442745152715
 21
173.9999999999995
 31
0.0
  0
LINE
  5
9639
330
1E
100
AcDbEntity
  8
17
  6
DASHDOT
100
AcDbLine
 10
60.49442745152717
 20
206.0999999999995
 30
0.0
 11
79.49442745152715
 21
206.0999999999995
 31
0.0
  0
LINE
  5
9702
330
1E
100
AcDbEntity
  8
10
  6
Continuous
100
AcDbLine
 10
310.4871124515276
 20
47.53662499999992
 30
0.0
 11
346.4724974515271
 21
28.73515999999991
 31
0.0
  0
LINE
  5
9703
330
1E
100
AcDbEntity
  8
10
  6
Continuous
100
AcDbLine
 10
358.2527324515277
 20
45.21927999999995
 30
0.0
 11
353.9168874515277
 21
33.17600499999993
 31
0.0
  0
ARC
  5
9704
330
1E
100
AcDbEntity
  8
30
  6
Continuous
100
AcDbCircle
 10
496.996248004399
 20
3.806184726795663
 30
0.0
 40
225.5060555675516
100
AcDbArc
 50
165.139448309908
 51
179.6966782288774
  0
ARC
  5
9706
330
1E
100
AcDbEntity
  8
30
  6
Continuous
100
AcDbCircle
 10
496.9944274515269
 20
5.0
 30
0.0
 40
144.9999999999995
100
AcDbArc
 50
169.304221999999
 51
180.0
  0
ARC
  5
9707
330
1E
100
AcDbEntity
  8
10
  6
Continuous
100
AcDbCircle
 10
295.3979974515277
 20
61.04623499999993
 30
0.0
 40
15.99999999999996
100
AcDbArc
 50
19.39509599999842
 51
301.0049040000021
  0
LINE
  5
9709
330
1E
100
AcDbEntity
  8
10
  6
Continuous
100
AcDbLine
 10
315.6357124515277
 20
61.83740999999989
 30
0.0
 11
355.3474324515274
 21
53.38623500000004
 31
0.0
  0
ARC
  5
970A
330
1E
100
AcDbEntity
  8
10
  6
Continuous
100
AcDbCircle
 10
317.0927724515276
 20
68.68408499999988
 30
0.0
 40
6.999999999999982
100
AcDbArc
 50
199.3950959999983
 51
257.9859390000011
  0
ARC
  5
970B
330
1E
100
AcDbEntity
  8
10
  6
Continuous
100
AcDbCircle
 10
-307.2455624515278
 20
41.33240499999994
 30
0.0
 40
6.999999999999982
210
0.0
220
0.0
230
-1.0
100
AcDbArc
 50
58.99509599999789
 51
117.5859389999994
  0
DIMENSION
  5
9759
330
1E
100
AcDbEntity
  8
30
  6
Continuous
100
AcDbDimension
  2
*D3
 10
496.9944274515269
 20
-249.9999999999999
 30
0.0
 11
445.4944274515274
 21
-243.9999999999999
 31
0.0
 70
    32
  1
 <> 
 71
     5
 42
102.9999999999996
  3
STANDARD1
100
AcDbAlignedDimension
 13
393.9944274515275
 23
-49.99999999999976
 33
0.0
 14
496.9944274515269
 24
-136.9999999999995
 34
0.0
100
AcDbRotatedDimension
  0
DIMENSION
  5
975A
330
1E
100
AcDbEntity
  8
30
  6
Continuous
100
AcDbDimension
  2
*D4
 10
496.9944274515269
 20
-270.0
 30
0.0
 11
443.4944274515273
 21
-264.0
 31
0.0
 70
    32
  1
 <> 
 71
     5
 42
106.9999999999996
  3
STANDARD1
100
AcDbAlignedDimension
 13
389.9944274515273
 23
-49.99999999999976
 33
0.0
 14
496.9944274515269
 24
-136.9999999999995
 34
0.0
100
AcDbRotatedDimension
  0
DIMENSION
  5
975B
330
1E
100
AcDbEntity
  8
30
  6
Continuous
100
AcDbDimension
  2
*D5
 10
496.9944274515269
 20
-290.0
 30
0.0
 11
433.2444274515274
 21
-284.0
 31
0.0
 70
    32
  1
 <> 
 71
     5
 42
127.4999999999996
  3
STANDARD1
100
AcDbAlignedDimension
 13
369.4944274515274
 23
5.000000000000143
 33
0.0
 14
496.9944274515269
 24
-0.4999999999999477
 34
0.0
100
AcDbRotatedDimension
  0
DIMENSION
  5
975C
330
1E
100
AcDbEntity
  8
30
  6
Continuous
100
AcDbDimension
  2
*D6
 10
389.9944274515273
 20
-270.0
 30
0.0
 11
400.7944274515272
 21
-264.0
 31
0.0
 70
    32
  1
 <> 
 71
     5
 42
3.999999999999771
  3
STANDARD1
100
AcDbAlignedDimension
 13
385.9944274515274
 23
-0.4999999999999477
 33
0.0
 14
389.9944274515273
 24
-49.99999999999976
 34
0.0
100
AcDbRotatedDimension
1001
ACAD
1000
DSTYLE
1002
{
1070
   172
1070
     1
1002
}
  0
LINE
  5
9763
330
1E
100
AcDbEntity
  8
16
100
AcDbLine
 10
0.0
 20
-641.9999999999996
 30
0.0
 11
0.0
 21
-349.0000000000002
 31
0.0
  0
DIMENSION
  5
9765
330
1E
100
AcDbEntity
  8
30
  6
Continuous
100
AcDbDimension
  2
*D7
 10
34.79442745152786
 20
-667.0958749999996
 30
0.0
 11
-0.2055725484721332
 21
-661.0958749999996
 31
0.0
 70
    32
  1
 <> 
 71
     5
 42
69.99999999999999
  3
STANDARD1
100
AcDbAlignedDimension
 13
-35.20557254847211
 23
-621.9999999999997
 33
0.0
 14
34.79442745152786
 24
-621.9999999999997
 34
0.0
100
AcDbRotatedDimension
  0
LINE
  5
9767
330
1E
100
AcDbEntity
  8
16
100
AcDbLine
 10
114.7944274515274
 20
-500.0
 30
0.0
 11
-114.805572548472
 21
-500.0
 31
0.0
  0
LINE
  5
9768
330
1E
100
AcDbEntity
  8
12
  6
Continuous
 62
     3
100
AcDbLine
 10
-35.20557254847211
 20
-610.9999999999994
 30
0.0
 11
-35.20557254847211
 21
-622.9999999999996
 31
0.0
  0
CIRCLE
  5
9769
330
1E
100
AcDbEntity
  8
12
  6
Continuous
 62
     3
100
AcDbCircle
 10
-35.20557254847211
 20
-616.9999999999996
 30
0.0
 40
3.999999999999986
  0
LINE
  5
976A
330
1E
100
AcDbEntity
  8
12
  6
Continuous
 62
     3
100
AcDbLine
 10
-41.20557254847257
 20
-616.9999999999996
 30
0.0
 11
-29.20557254847167
 21
-616.9999999999996
 31
0.0
  0
LINE
  5
976B
330
1E
100
AcDbEntity
  8
12
  6
Continuous
 62
     3
100
AcDbLine
 10
34.79442745152786
 20
-610.9999999999994
 30
0.0
 11
34.79442745152786
 21
-622.9999999999996
 31
0.0
  0
CIRCLE
  5
976C
330
1E
100
AcDbEntity
  8
12
  6
Continuous
 62
     3
100
AcDbCircle
 10
34.79442745152786
 20
-616.9999999999996
 30
0.0
 40
3.999999999999986
  0
LINE
  5
976D
330
1E
100
AcDbEntity
  8
12
  6
Continuous
 62
     3
100
AcDbLine
 10
28.79442745152786
 20
-616.9999999999996
 30
0.0
 11
40.79442745152738
 21
-616.9999999999996
 31
0.0
  0
LINE
  5
9777
330
1E
100
AcDbEntity
  8
12
  6
Continuous
 62
     3
100
AcDbLine
 10
-35.20557254847211
 20
-368.0000000000002
 30
0.0
 11
-35.20557254847211
 21
-380.0000000000002
 31
0.0
  0
LINE
  5
9778
330
1E
100
AcDbEntity
  8
1
  6
Continuous
 62
     3
100
AcDbLine
 10
-41.20557254847257
 20
-374.0000000000002
 30
0.0
 11
-29.20557254847167
 21
-374.0000000000002
 31
0.0
  0
CIRCLE
  5
9779
330
1E
100
AcDbEntity
  8
12
  6
Continuous
 62
     3
100
AcDbCircle
 10
-35.20557254847211
 20
-374.0000000000002
 30
0.0
 40
3.999999999999986
  0
LINE
  5
977C
330
1E
100
AcDbEntity
  8
12
  6
Continuous
 62
     3
100
AcDbLine
 10
34.79442745152786
 20
-368.0000000000002
 30
0.0
 11
34.79442745152786
 21
-380.0000000000002
 31
0.0
  0
LINE
  5
977D
330
1E
100
AcDbEntity
  8
12
  6
Continuous
 62
     3
100
AcDbLine
 10
28.79442745152786
 20
-374.0000000000002
 30
0.0
 11
40.79442745152738
 21
-374.0000000000002
 31
0.0
  0
CIRCLE
  5
977E
330
1E
100
AcDbEntity
  8
12
  6
Continuous
 62
     3
100
AcDbCircle
 10
34.79442745152786
 20
-374.0000000000002
 30
0.0
 40
3.999999999999986
  0
DIMENSION
  5
9783
330
1E
100
AcDbEntity
  8
30
  6
Continuous
100
AcDbDimension
  2
*D8
 10
-126.4883530763108
 20
-374.0000000000002
 30
0.0
 11
-132.4883530763109
 21
-437.0
 31
0.0
 70
    32
  1
 <> 
 71
     0
 72
     0
 41
0.0
 42
125.9999999999997
  3
STANDARD1
100
AcDbAlignedDimension
 13
-112.334453076311
 23
-500.0
 33
0.0
 14
-41.20557254847257
 24
-374.0000000000002
 34
0.0
 50
90.0
100
AcDbRotatedDimension
  0
DIMENSION
  5
9784
330
1E
100
AcDbEntity
  8
30
  6
Continuous
100
AcDbDimension
  2
*D9
 10
-126.4883530763108
 20
-500.0
 30
0.0
 11
-132.4883530763109
 21
-558.4999999999999
 31
0.0
 70
    32
  1
 <> 
 71
     0
 72
     0
 41
0.0
 42
116.9999999999996
  3
STANDARD1
100
AcDbAlignedDimension
 13
-41.20557254847257
 23
-616.9999999999996
 33
0.0
 14
-114.805572548472
 24
-500.0
 34
0.0
 50
90.0
100
AcDbRotatedDimension
  0
LINE
  5
9799
330
1E
100
AcDbEntity
  8
16
100
AcDbLine
 10
400.0
 20
-641.9999999999998
 30
0.0
 11
400.0
 21
-330.0
 31
0.0
  0
LINE
  5
979D
330
1E
100
AcDbEntity
  8
16
100
AcDbLine
 10
514.9944274515278
 20
-500.0
 30
0.0
 11
285.3944274515273
 21
-500.0
 31
0.0
  0
LINE
  5
97A3
330
1E
100
AcDbEntity
  8
12
  6
DASHED
100
AcDbLine
 10
460.6944274515273
 20
-116.9999999999996
 30
0.0
 11
512.9944274515271
 21
-116.9999999999996
 31
0.0
  0
DIMENSION
  5
97B3
330
1E
100
AcDbEntity
  8
30
  6
Continuous
100
AcDbDimension
  2
*D10
 10
496.9944274515269
 20
-72.09587499999971
 30
0.0
 11
482.9944274515272
 21
-66.09587499999971
 31
0.0
 70
    32
  1
 <> 
 71
     5
 42
27.99999999999988
  3
STANDARD1
100
AcDbAlignedDimension
 13
468.9944274515274
 23
-103.7499999999994
 33
0.0
 14
496.9944274515269
 24
-78.34587499999968
 34
0.0
100
AcDbRotatedDimension
  0
DIMENSION
  5
97BB
330
1E
100
AcDbEntity
  8
30
  6
Continuous
100
AcDbDimension
  2
*D11
 10
496.9944274515269
 20
-72.09587499999971
 30
0.0
 11
503.4944274515273
 21
-72.09587499999971
 31
0.0
 70
   160
  1
 <> 
 71
     5
 42
13.00000000000011
  3
STANDARD1
100
AcDbAlignedDimension
 13
509.9944274515273
 23
-107.9999999999996
 33
0.0
 14
496.9944274515269
 24
-78.34587499999968
 34
0.0
100
AcDbRotatedDimension
  0
ARC
  5
97BE
330
1E
100
AcDbEntity
  8
10
  6
Continuous
100
AcDbCircle
 10
378.4553774515273
 20
40.81552999999987
 30
0.0
 40
3.999999999999986
100
AcDbArc
 50
340.1999999999993
 51
70.19999999999922
  0
ARC
  5
97C0
330
1E
100
AcDbEntity
  8
10
  6
Continuous
100
AcDbCircle
 10
372.2903474515275
 20
23.69150000000002
 30
0.0
 40
3.999999999999986
100
AcDbArc
 50
250.199999999999
 51
340.1999999999993
  0
ARC
  5
97C1
330
1E
100
AcDbEntity
  8
30
  6
Continuous
100
AcDbCircle
 10
496.9944274515269
 20
5.0
 30
0.0
 40
127.4999999999996
100
AcDbArc
 50
169.304221999999
 51
180.0
  0
LINE
  5
97C2
330
1E
100
AcDbEntity
  8
10
  6
Continuous
100
AcDbLine
 10
386.3764124515276
 20
24.04065499999999
 30
0.0
 11
370.8189174515278
 21
29.64169999999993
 31
0.0
  0
LINE
  5
97C3
330
1E
100
AcDbEntity
  8
10
  6
Continuous
100
AcDbLine
 10
386.7734674515276
 20
32.40037999999982
 30
0.0
 11
373.5288224515276
 21
37.1687450000001
 31
0.0
  0
LINE
  5
97C4
330
1E
100
AcDbEntity
  8
10
  6
Continuous
100
AcDbLine
 10
382.2189024515274
 20
39.46057499999989
 30
0.0
 11
376.0538724515274
 21
22.336545
 31
0.0
  0
LINE
  5
97C5
330
1E
100
AcDbEntity
  8
10
  6
Continuous
100
AcDbLine
 10
373.5288224515276
 20
37.1687450000001
 30
0.0
 11
370.8189174515278
 21
29.64169999999993
 31
0.0
  0
DIMENSION
  5
97CF
330
1E
100
AcDbEntity
  8
30
  6
Continuous
100
AcDbDimension
  2
*D12
 10
486.1944274515273
 20
-672.0958749999994
 30
0.0
 11
400.1944274515274
 21
-666.0958749999994
 31
0.0
 70
    32
  1
 <> 
 71
     5
 42
171.9999999999995
  3
STANDARD1
100
AcDbAlignedDimension
 13
314.1944274515275
 23
-545.0
 33
0.0
 14
486.1944274515273
 24
-545.0
 34
0.0
100
AcDbRotatedDimension
  0
LWPOLYLINE
  5
9C96
330
1E
100
AcDbEntity
  8
10
  6
Continuous
100
AcDbPolyline
 90
        5
 70
     0
 43
0.0
 10
-58.80557254847254
 20
115.9999999999996
 42
1.0
 10
-58.80557254847254
 20
135.9999999999996
 10
-80.80557254847233
 20
135.9999999999996
 42
1.0
 10
-80.80557254847233
 20
115.9999999999997
 10
-80.80557254847233
 20
115.9999999999997
  0
LWPOLYLINE
  5
9C98
330
1E
100
AcDbEntity
  8
17
  6
CONTINOUS
100
AcDbPolyline
 90
        5
 70
     1
 43
0.0
 10
-76.50557254847234
 20
173.9999999999995
 10
-76.50557254847234
 20
165.9999999999996
 42
0.9999999999999998
 10
-63.50557254847235
 20
165.9999999999996
 10
-63.50557254847235
 20
173.9999999999995
 42
1.000000000000011
 10
-76.50557254847234
 20
173.9999999999995
  0
LWPOLYLINE
  5
9C99
330
1E
100
AcDbEntity
  8
18
100
AcDbPolyline
 90
        4
 70
     0
 43
0.0
 10
-37.20557254847236
 20
140.9999999999996
 10
-37.20557254847236
 20
250.9999999999994
 10
-33.20557254847236
 20
250.9999999999994
 10
-33.20557254847236
 20
140.9999999999996
  0
LINE
  5
9CA1
330
1E
100
AcDbEntity
  8
17
  6
DASHDOT
100
AcDbLine
 10
-35.00557254847278
 20
137.2499999999996
 30
0.0
 11
-35.00557254847278
 21
114.7499999999997
 31
0.0
  0
LINE
  5
9CA2
330
1E
100
AcDbEntity
  8
17
  6
DASHDOT
100
AcDbLine
 10
-46.25557254847278
 20
125.9999999999997
 30
0.0
 11
-23.75557254847278
 21
125.9999999999997
 31
0.0
  0
CIRCLE
  5
9CA3
330
1E
100
AcDbEntity
  8
17
  6
CONTINOUS
100
AcDbCircle
 10
-35.00557254847278
 20
125.9999999999997
 30
0.0
 40
8.249999999999976
  0
LINE
  5
9CA4
330
1E
100
AcDbEntity
  8
17
  6
DASHDOT
100
AcDbLine
 10
-79.5055725484726
 20
165.9999999999996
 30
0.0
 11
-60.50557254847257
 21
165.9999999999996
 31
0.0
  0
LWPOLYLINE
  5
9CA6
330
1E
100
AcDbEntity
  8
17
  6
CONTINOUS
100
AcDbPolyline
 90
        5
 70
     1
 43
0.0
 10
-6.505572548472592
 20
173.9999999999995
 10
-6.505572548472592
 20
165.9999999999996
 42
0.9999999999999998
 10
6.494427451527179
 20
165.9999999999996
 10
6.494427451527406
 20
173.9999999999995
 42
1.000000000000011
 10
-6.505572548472592
 20
173.9999999999995
  0
LWPOLYLINE
  5
9CA7
330
1E
100
AcDbEntity
  8
10
  6
Continuous
100
AcDbPolyline
 90
        5
 70
     0
 43
0.0
 10
11.19442745152744
 20
115.9999999999996
 42
1.0
 10
11.19442745152744
 20
135.9999999999996
 10
-10.80557254847251
 20
135.9999999999996
 42
1.0
 10
-10.80557254847251
 20
115.9999999999997
 10
-10.80557254847251
 20
115.9999999999997
  0
LWPOLYLINE
  5
9CA8
330
1E
100
AcDbEntity
  8
18
100
AcDbPolyline
 90
        4
 70
     0
 43
0.0
 10
32.79442745152717
 20
140.9999999999996
 10
32.79442745152717
 20
250.9999999999994
 10
36.79442745152718
 20
250.9999999999994
 10
36.79442745152718
 20
140.9999999999996
  0
LWPOLYLINE
  5
9CAA
330
1E
100
AcDbEntity
  8
17
  6
CONTINOUS
100
AcDbPolyline
 90
        5
 70
     1
 43
0.0
 10
63.58425852295592
 20
174.0000024999998
 10
63.58425852295592
 20
166.0000024999998
 42
0.9999999999999998
 10
76.58425852295569
 20
166.0000024999998
 10
76.58425852295593
 20
174.0000024999998
 42
1.000000000000011
 10
63.58425852295592
 20
174.0000024999998
  0
LWPOLYLINE
  5
9CAB
330
1E
100
AcDbEntity
  8
10
  6
Continuous
100
AcDbPolyline
 90
        5
 70
     0
 43
0.0
 10
81.18425852295576
 20
116.0000024999996
 42
1.0
 10
81.18425852295576
 20
136.0000024999996
 10
59.18425852295577
 20
136.0000024999996
 42
1.0
 10
59.18425852295577
 20
116.0000024999996
 10
59.18425852295577
 20
116.0000024999996
  0
LWPOLYLINE
  5
9CEA
330
1E
100
AcDbEntity
  8
10
  6
Continuous
100
AcDbPolyline
 90
        4
 70
     1
 43
0.0
 10
-105.0055725484724
 20
140.9999999999996
 10
104.9944274515267
 20
140.9999999999996
 10
104.9944274515267
 20
-131.9999999999995
 10
-105.0055725484724
 20
-131.9999999999995
  0
LWPOLYLINE
  5
9CEB
330
1E
100
AcDbEntity
  8
10
  6
Continuous
100
AcDbPolyline
 90
        4
 70
     1
 43
0.0
 10
18.79442745152739
 20
-29.69999999999989
 10
24.29442745152718
 20
-29.69999999999989
 10
24.29442745152718
 20
-36.59999999999985
 10
18.79442745152739
 20
-36.59999999999985
  0
LWPOLYLINE
  5
9CED
330
1E
100
AcDbEntity
  8
10
  6
Continuous
100
AcDbPolyline
 90
        4
 70
     1
 43
0.0
 10
-21.00557254847254
 20
37.1687450000001
 10
20.59442745152736
 20
37.1687450000001
 10
20.59442745152736
 20
29.6416999999999
 10
-21.00557254847254
 20
29.6416999999999
  0
LWPOLYLINE
  5
9CEE
330
1E
100
AcDbEntity
  8
10
  6
Continuous
100
AcDbPolyline
 90
        4
 70
     0
 43
0.0
 10
-18.20557254847257
 20
29.6416999999999
 10
-18.20557254847257
 20
-25.49999999999987
 10
17.79442745152718
 20
-25.49999999999987
 10
17.79442745152718
 20
29.6416999999999
  0
LWPOLYLINE
  5
9CF0
330
1E
100
AcDbEntity
  8
10
  6
Continuous
100
AcDbPolyline
 90
        9
 70
     1
 43
0.0
 10
79.9944274515272
 20
44.99999999999989
 10
-80.00557254847254
 20
44.99999999999989
 42
0.4142135623730887
 10
-85.00557254847254
 20
39.99999999999995
 10
-85.00557254847231
 20
-39.99999999999987
 42
0.4142135623730919
 10
-80.00557254847254
 20
-44.99999999999989
 10
79.9944274515272
 20
-44.99999999999988
 42
0.4142135623730913
 10
84.9944274515272
 20
-39.99999999999987
 10
84.99442745152698
 20
39.99999999999995
 42
0.4142135623730943
 10
79.9944274515272
 20
44.99999999999989
  0
LWPOLYLINE
  5
9CF1
330
1E
100
AcDbEntity
  8
10
  6
Continuous
100
AcDbPolyline
 90
        5
 70
     0
 43
0.0
 10
-81.00557254847231
 20
-106.9999999999996
 42
1.0
 10
-81.00557254847231
 20
-126.9999999999996
 10
-59.00557254847253
 20
-126.9999999999996
 42
1.0
 10
-59.00557254847253
 20
-106.9999999999996
 10
-59.00557254847253
 20
-106.9999999999996
  0
LWPOLYLINE
  5
9CF2
330
1E
100
AcDbEntity
  8
10
  6
Continuous
100
AcDbPolyline
 90
        5
 70
     0
 43
0.0
 10
-10.80557254847271
 20
-106.9999999999996
 42
1.0
 10
-10.80557254847271
 20
-126.9999999999996
 10
11.19442745152726
 20
-126.9999999999996
 42
1.0
 10
11.19442745152726
 20
-106.9999999999996
 10
11.19442745152726
 20
-106.9999999999996
  0
LWPOLYLINE
  5
9CF3
330
1E
100
AcDbEntity
  8
10
  6
Continuous
100
AcDbPolyline
 90
        5
 70
     0
 43
0.0
 10
58.99442745152747
 20
-106.9999999999996
 42
1.0
 10
58.99442745152747
 20
-126.9999999999996
 10
80.99442745152719
 20
-126.9999999999996
 42
1.0
 10
80.99442745152719
 20
-106.9999999999996
 10
80.99442745152719
 20
-106.9999999999996
  0
LWPOLYLINE
  5
9CF5
330
1E
100
AcDbEntity
  8
17
  6
CONTINOUS
100
AcDbPolyline
 90
        5
 70
     1
 43
0.0
 10
-63.50557254847235
 20
-164.9999999999995
 10
-63.50557254847235
 20
-156.9999999999995
 42
0.9999999999999998
 10
-76.50557254847234
 20
-156.9999999999995
 10
-76.50557254847234
 20
-164.9999999999995
 42
1.000000000000011
 10
-63.50557254847235
 20
-164.9999999999995
  0
LWPOLYLINE
  5
9CF7
330
1E
100
AcDbEntity
  8
17
  6
CONTINOUS
100
AcDbPolyline
 90
        5
 70
     1
 43
0.0
 10
6.494427451527413
 20
-164.9999999999995
 10
6.494427451527413
 20
-156.9999999999995
 42
0.9999999999999998
 10
-6.505572548472357
 20
-156.9999999999995
 10
-6.505572548472585
 20
-164.9999999999995
 42
1.000000000000011
 10
6.494427451527413
 20
-164.9999999999995
  0
LWPOLYLINE
  5
9CF8
330
1E
100
AcDbEntity
  8
17
  6
CONTINOUS
100
AcDbPolyline
 90
        5
 70
     1
 43
0.0
 10
76.49442745152717
 20
-164.9999999999995
 10
76.49442745152717
 20
-156.9999999999995
 42
0.9999999999999998
 10
63.49442745152718
 20
-156.9999999999995
 10
63.49442745152718
 20
-164.9999999999995
 42
1.000000000000011
 10
76.49442745152717
 20
-164.9999999999995
  0
LWPOLYLINE
  5
9E8F
330
1E
100
AcDbEntity
  8
10
  6
Continuous
100
AcDbPolyline
 90
       13
 70
     0
 43
0.0
 10
496.9944274515269
 20
140.9999999999996
 10
399.9944274515275
 20
140.9999999999996
 10
399.9944274515275
 20
115.9999999999997
 10
397.4944274515273
 20
115.9999999999997
 10
397.4944274515273
 20
55.4999999999999
 10
393.9944274515275
 20
55.4999999999999
 10
393.9944274515275
 20
-46.49999999999976
 10
397.4944274515273
 20
-46.49999999999976
 10
397.4944274515273
 20
-106.9999999999996
 10
399.9944274515275
 20
-106.9999999999996
 10
399.9944274515275
 20
-131.9999999999995
 10
496.9944274515269
 20
-131.9999999999995
 10
496.9944274515269
 20
140.9999999999996
  0
LWPOLYLINE
  5
9E91
330
1E
100
AcDbEntity
  8
12
  6
DASHED
100
AcDbPolyline
 90
        4
 70
     0
 43
0.0
 10
399.9944274515275
 20
-108.7499999999996
 10
468.9944274515274
 20
-108.7499999999996
 10
468.9944274515275
 20
-125.2499999999995
 10
399.9944274515275
 20
-125.2499999999992
  0
LWPOLYLINE
  5
9E92
330
1E
100
AcDbEntity
  8
12
  6
DASHED
100
AcDbPolyline
 90
        6
 70
     0
 43
0.0
 10
468.9944274515274
 20
-108.9999999999994
 10
468.3244274515272
 20
-108.9999999999994
 42
0.4142135623730733
 10
462.9944274515271
 20
-114.3299999999994
 10
462.9944274515277
 20
-119.6699999999994
 42
0.414213562373041
 10
468.3244274515272
 20
-124.9999999999995
 10
468.9944274515274
 20
-124.9999999999995
  0
LWPOLYLINE
  5
9E94
330
1E
100
AcDbEntity
  8
12
  6
DASHED
100
AcDbPolyline
 90
        4
 70
     0
 43
0.0
 10
468.9944274515274
 20
-112.9999999999995
 10
509.9944274515273
 20
-112.9999999999995
 10
509.9944274515273
 20
-120.9999999999992
 10
468.9944274515275
 20
-121.0
  0
LWPOLYLINE
  5
9F23
330
1E
100
AcDbEntity
  8
11
 48
2.0
100
AcDbPolyline
 90
        9
 70
     1
 43
0.0
 10
480.1944274515273
 20
-454.0
 10
320.1944274515273
 20
-454.0
 42
0.4142135623730951
 10
314.1944274515275
 20
-460.0
 10
314.1944274515275
 20
-540.0
 42
0.4142135623730966
 10
320.1944274515273
 20
-546.0
 10
480.1944274515273
 20
-545.9999999999999
 42
0.4142135623730673
 10
486.1944274515277
 20
-540.0
 10
486.1944274515277
 20
-460.0
 42
0.4142135623731171
 10
480.1944274515273
 20
-454.0
  0
DIMENSION
  5
9F25
330
1E
100
AcDbEntity
  8
30
  6
Continuous
100
AcDbDimension
  2
*D19
 10
320.1944274515295
 20
-460.0000000000003
 30
0.0
 11
339.9138740087682
 21
-479.8496896549528
 31
0.0
 70
   164
 71
     5
 42
6.000000000002612
  3
STANDARD1
100
AcDbRadialDimension
 15
323.2448901548302
 25
-465.16668920062
 35
0.0
 40
0.0
  0
DIMENSION
  5
B2F9
330
1E
100
AcDbEntity
  8
30
  6
Continuous
100
AcDbDimension
  2
*D20
 10
-170.0510099086689
 20
-131.9999999999995
 30
0.0
 11
-176.0510099086689
 21
-171.9884940089618
 31
0.0
 70
    32
  1
 <> 
 71
     0
 72
     0
 41
0.0
 42
79.9769880179244
  3
STANDARD1
100
AcDbAlignedDimension
 13
-95.00557254847207
 23
-211.9769880179239
 33
0.0
 14
-105.0055725484724
 24
-131.9999999999995
 34
0.0
 50
90.0
100
AcDbRotatedDimension
  0
DIMENSION
  5
B2FB
330
1E
100
AcDbEntity
  8
30
  6
Continuous
100
AcDbDimension
  2
*D22
 10
-170.0510099086689
 20
140.9999999999996
 30
0.0
 11
-176.051009908669
 21
4.50000000000005
 31
0.0
 70
    32
  1
 <> 
 71
     0
 72
     0
 41
0.0
 42
272.9999999999993
  3
STANDARD1
100
AcDbAlignedDimension
 13
-105.0055725484724
 23
-131.9999999999995
 33
0.0
 14
-105.0055725484724
 24
140.9999999999996
 34
0.0
 50
90.0
100
AcDbRotatedDimension
  0
DIMENSION
  5
B2FC
330
1E
100
AcDbEntity
  8
30
  6
Continuous
100
AcDbDimension
  2
*D21
 10
-149.768500123119
 20
0.0000000000000169
 30
0.0
 11
-155.7685001231192
 21
70.49999999999984
 31
0.0
 70
    32
  1
 <> 
 71
     0
 72
     0
 41
0.0
 42
140.9999999999996
  3
STANDARD1
100
AcDbAlignedDimension
 13
-105.0055725484724
 23
140.9999999999996
 33
0.0
 14
-130.1198679701441
 24
0.0000000000000113
 34
0.0
 50
90.0
100
AcDbRotatedDimension
  0
DIMENSION
  5
B2FD
330
1E
100
AcDbEntity
  8
30
  6
Continuous
100
AcDbDimension
  2
*D23
 10
-149.768500123119
 20
-131.9999999999995
 30
0.0
 11
-155.7685001231192
 21
-65.9999999999998
 31
0.0
 70
    32
  1
 <> 
 71
     0
 72
     0
 41
0.0
 42
131.9999999999995
  3
STANDARD1
100
AcDbAlignedDimension
 13
-130.6198679701443
 23
0.0000000000000114
 33
0.0
 14
-105.0055725484724
 24
-131.9999999999995
 34
0.0
 50
90.0
100
AcDbRotatedDimension
  0
DIMENSION
  5
B2FF
330
1E
100
AcDbEntity
  8
30
  6
Continuous
100
AcDbDimension
  2
*D24
 10
-170.0510099086689
 20
221.0230119820749
 30
0.0
 11
-176.051009908669
 21
181.0115059910371
 31
0.0
 70
    32
  1
 <> 
 71
     0
 72
     0
 41
0.0
 42
80.02301198207518
  3
STANDARD1
100
AcDbAlignedDimension
 13
-105.0055725484724
 23
140.9999999999996
 33
0.0
 14
-95.00557254847207
 24
221.0230119820749
 34
0.0
 50
90.0
100
AcDbRotatedDimension
  0
DIMENSION
  5
B3B1
330
1E
100
AcDbEntity
  8
30
  6
Continuous
100
AcDbDimension
  2
*D25
 10
-105.0055725484724
 20
250.9999999999995
 30
0.0
 11
-111.0055725484724
 21
195.9999999999995
 31
0.0
 70
    32
  1
 <> 
 71
     0
 72
     0
 41
0.0
 42
109.9999999999997
  3
STANDARD1
100
AcDbAlignedDimension
 13
-105.0055725484724
 23
140.9999999999996
 33
0.0
 14
-42.20557254847236
 24
250.9999999999995
 34
0.0
 50
90.0
100
AcDbRotatedDimension
  0
DIMENSION
  5
B84B
330
1E
100
AcDbEntity
  8
30
  6
Continuous
100
AcDbDimension
  2
*D29
 10
-70.00758210867535
 20
428.5072763109678
 30
0.0
 11
-87.50657732857391
 21
434.507276310968
 31
0.0
 70
    32
 71
     5
 42
34.99799043979715
  3
STANDARD1
100
AcDbAlignedDimension
 13
-105.0055725484724
 23
408.3231618618496
 33
0.0
 14
-70.00758210867535
 24
374.3514423453849
 34
0.0
100
AcDbRotatedDimension
  0
DIMENSION
  5
B84E
330
1E
100
AcDbEntity
  8
30
  6
Continuous
100
AcDbDimension
  2
*D28
 10
-0.0075821086755678
 20
428.5072763109678
 30
0.0
 11
-35.00758210867545
 21
434.507276310968
 31
0.0
 70
    32
 71
     5
 42
69.99999999999976
  3
STANDARD1
100
AcDbAlignedDimension
 13
-70.00758210867535
 23
374.3514423453849
 33
0.0
 14
-0.0075821086755711
 24
374.3514423453849
 34
0.0
100
AcDbRotatedDimension
  0
DIMENSION
  5
B84F
330
1E
100
AcDbEntity
  8
30
  6
Continuous
100
AcDbDimension
  2
*D30
 10
69.99032535114142
 20
428.5072763109678
 30
0.0
 11
34.99137162123293
 21
434.507276310968
 31
0.0
 70
    32
 71
     5
 42
69.997907459817
  3
STANDARD1
100
AcDbAlignedDimension
 13
-0.0075821086755711
 23
374.3514423453849
 33
0.0
 14
69.99032535114142
 24
377.3231618618495
 34
0.0
100
AcDbRotatedDimension
  0
DIMENSION
  5
B850
330
1E
100
AcDbEntity
  8
30
  6
Continuous
100
AcDbDimension
  2
*D31
 10
104.9944274515267
 20
428.4789958274327
 30
0.0
 11
87.49237640133417
 21
434.4789958274327
 31
0.0
 70
    32
 71
     5
 42
35.00410210038548
  3
STANDARD1
100
AcDbAlignedDimension
 13
69.99032535114142
 23
374.3231618618496
 33
0.0
 14
104.9944274515267
 24
408.3231618618492
 34
0.0
100
AcDbRotatedDimension
  0
LWPOLYLINE
  5
B85C
330
1E
100
AcDbEntity
  8
10
  6
Continuous
100
AcDbPolyline
 90
        4
 70
     1
 43
0.0
 10
-50.3116842090611
 20
364.3514423453849
 10
-90.31168420906107
 20
364.3514423453849
 10
-90.31168420906107
 20
374.3514423453849
 10
-50.3116842090611
 20
374.3514423453849
  0
LWPOLYLINE
  5
B85D
330
1E
100
AcDbEntity
  8
10
  6
Continuous
100
AcDbPolyline
 90
        4
 70
     1
 43
0.0
 10
19.68831579093865
 20
364.3514423453849
 10
-20.31168420906131
 20
364.3514423453849
 10
-20.31168420906131
 20
374.3514423453849
 10
19.68831579093865
 20
374.3514423453849
  0
LWPOLYLINE
  5
B85E
330
1E
100
AcDbEntity
  8
10
  6
Continuous
100
AcDbPolyline
 90
        4
 70
     1
 43
0.0
 10
89.4903253511414
 20
364.3231618618496
 10
49.49032535114142
 20
364.3231618618496
 10
49.49032535114142
 20
374.3231618618496
 10
89.4903253511414
 20
374.3231618618496
  0
DIMENSION
  5
B861
330
1E
100
AcDbEntity
  8
30
  6
Continuous
100
AcDbDimension
  2
*D27
 10
119.9960382445679
 20
374.3231618618496
 30
0.0
 11
174.0296018703143
 21
392.6981378532842
 31
0.0
 70
   160
  1
ON SIDE 32\POFF SIDE 36
 71
     5
 42
33.99999999999987
  3
STANDARD1
100
AcDbAlignedDimension
 13
107.2881848063548
 23
408.3231618618495
 33
0.0
 14
92.78818480635512
 24
374.3231618618496
 34
0.0
 50
90.0
100
AcDbRotatedDimension
1001
ACAD
1000
DSTYLE
1002
{
1070
   279
1070
     2
1070
   172
1070
     1
1002
}
  0
DIMENSION
  5
B862
330
1E
100
AcDbEntity
  8
30
  6
Continuous
100
AcDbDimension
  2
*D26
 10
119.9960382445679
 20
364.3231618618496
 30
0.0
 11
115.026638830243
 21
369.1656703716525
 31
0.0
 70
   160
 71
     5
 42
10.0
  3
STANDARD1
100
AcDbAlignedDimension
 13
89.9944274515272
 23
374.3231618618496
 33
0.0
 14
89.9944274515272
 24
364.3231618618496
 34
0.0
 50
90.0
100
AcDbRotatedDimension
1001
ACAD
1000
DSTYLE
1002
{
1070
   172
1070
     1
1070
   279
1070
     2
1002
}
  0
LINE
  5
B863
330
1E
100
AcDbEntity
  8
16
100
AcDbLine
 10
-0.007582108675571
 20
422.3514423453848
 30
0.0
 11
-0.2055725484725883
 21
245.9231618618502
 31
0.0
  0
DIMENSION
  5
BB84
330
1E
100
AcDbEntity
  8
30
  6
Continuous
100
AcDbDimension
  2
*D32
 10
276.7416745707087
 20
-546.0
 30
0.0
 11
270.7416745707087
 21
-499.9999999999998
 31
0.0
 70
    32
 71
     5
 42
91.99999999999993
  3
STANDARD1
100
AcDbAlignedDimension
 13
320.1944274515273
 23
-454.0
 33
0.0
 14
320.1944274515273
 24
-546.0
 34
0.0
 50
90.0
100
AcDbRotatedDimension
  0
DIMENSION
  5
C025
330
1E
100
AcDbEntity
  8
30
  6
Continuous
100
AcDbDimension
  2
*D33
 10
35.39496680289136
 20
-377.9546621205188
 30
0.0
 11
39.5224377070536
 21
-352.4533455271201
 31
0.0
 70
   163
 71
     5
 42
7.999999999999829
  3
STANDARD1
100
AcDbDiametricDimension
 15
34.19388810016435
 25
-370.0453378794819
 35
0.0
 40
0.0
  0
DIMENSION
  5
C031
330
1E
100
AcDbEntity
  8
30
  6
Continuous
100
AcDbDimension
  2
*D34
 10
-117.1925670423142
 20
-44.99999999999988
 30
0.0
 11
-123.1925670423142
 21
-0.000000000000017
 31
0.0
 70
    33
 71
     5
 42
89.99999999999976
  3
STANDARD1
100
AcDbAlignedDimension
 13
-80.00557254847253
 23
44.99999999999988
 33
0.0
 14
-80.0055725484724
 24
-44.99999999999989
 34
0.0
  0
DIMENSION
  5
C047
330
1E
100
AcDbEntity
  8
30
  6
Continuous
100
AcDbDimension
  2
*D35
 10
-130.1198679701441
 20
0.0000000000000116
 30
0.0
 11
-136.1198679701443
 21
27.74999999999991
 31
0.0
 70
    32
 71
     5
 42
55.49999999999985
  3
STANDARD1
100
AcDbAlignedDimension
 13
-105.0055725484724
 23
55.49999999999985
 33
0.0
 14
-89.30557254847249
 24
0.0
 34
0.0
 50
90.0
100
AcDbRotatedDimension
  0
DIMENSION
  5
C05D
330
1E
100
AcDbEntity
  8
30
  6
Continuous
100
AcDbDimension
  2
*D36
 10
-130.133381536251
 20
-46.49999999999975
 30
0.0
 11
-136.1333815362509
 21
-23.24999999999989
 31
0.0
 70
    32
 71
     5
 42
46.49999999999976
  3
STANDARD1
100
AcDbAlignedDimension
 13
-105.0055725484724
 23
0.0000000000000044
 33
0.0
 14
-105.0055725484724
 24
-46.49999999999976
 34
0.0
 50
90.0
100
AcDbRotatedDimension
  0
DIMENSION
  5
C572
330
1E
100
AcDbEntity
  8
30
  6
Continuous
100
AcDbDimension
  2
*D37
 10
497.0944274515272
 20
-229.8221017547434
 30
0.0
 11
479.110076306489
 21
-223.8221017547434
 31
0.0
 70
    32
  1
 <> 
 71
     5
 42
35.9687022900764
  3
STANDARD1
100
AcDbAlignedDimension
 13
461.1257251614508
 23
-217.6622137404574
 33
0.0
 14
497.0944274515272
 24
-137.5095419847322
 34
0.0
100
AcDbRotatedDimension
  0
LINE
  5
C573
330
1E
100
AcDbEntity
  8
17
  6
DASHDOT
100
AcDbLine
 10
446.5980534057254
 20
-157.5477099236636
 30
0.0
 11
465.6343129477106
 21
-157.5477099236636
 31
0.0
  0
LINE
  5
C574
330
1E
100
AcDbEntity
  8
17
  6
DASHDOT
100
AcDbLine
 10
446.5980534057254
 20
-165.5629770992359
 30
0.0
 11
465.6343129477106
 21
-165.5629770992359
 31
0.0
  0
LINE
  5
C575
330
1E
100
AcDbEntity
  8
17
  6
DASHDOT
100
AcDbLine
 10
446.5980534057254
 20
-197.6240458015261
 30
0.0
 11
465.6343129477106
 21
-197.6240458015261
 31
0.0
  0
LWPOLYLINE
  5
C576
330
1E
100
AcDbEntity
  8
10
  6
Continuous
100
AcDbPolyline
 90
        4
 70
     0
 43
0.0
 10
451.106641191985
 20
-132.4999999999995
 10
451.106641191985
 20
-212.6526717557246
 10
461.1257251614508
 20
-212.6526717557246
 10
461.1257251614508
 20
-132.4999999999995
  0
DIMENSION
  5
C577
330
1E
100
AcDbEntity
  8
30
  6
Continuous
100
AcDbDimension
  2
*D38
 10
461.1257251614508
 20
-229.7410203581033
 30
0.0
 11
455.7944274515273
 21
-224.9999999999999
 31
0.0
 70
   160
  1
<> 
 71
     5
 42
10.01908396946576
  3
STANDARD1
100
AcDbAlignedDimension
 13
451.106641191985
 23
-217.6622137404574
 33
0.0
 14
461.1257251614508
 24
-217.6622137404574
 34
0.0
100
AcDbRotatedDimension
1001
ACAD
1000
DSTYLE
1002
{
1070
   279
1070
     2
1002
}
  0
LINE
  5
C578
330
1E
100
AcDbEntity
  8
17
  6
DASHDOT
100
AcDbLine
 10
450.4056869935118
 20
165.5477099236638
 30
0.0
 11
469.4419465354966
 21
165.5477099236638
 31
0.0
  0
LINE
  5
C579
330
1E
100
AcDbEntity
  8
17
  6
DASHDOT
100
AcDbLine
 10
450.4056869935118
 20
173.5629770992361
 30
0.0
 11
469.4419465354966
 21
173.5629770992361
 31
0.0
  0
LINE
  5
C57A
330
1E
100
AcDbEntity
  8
17
  6
DASHDOT
100
AcDbLine
 10
450.4056869935118
 20
205.6240458015264
 30
0.0
 11
469.4419465354966
 21
205.6240458015264
 31
0.0
  0
DIMENSION
  5
C57B
330
1E
100
AcDbEntity
  8
30
  6
Continuous
100
AcDbDimension
  2
*D39
 10
464.9333587492368
 20
252.6176824904577
 30
0.0
 11
459.9238167645043
 21
252.6176824904577
 31
0.0
 70
   160
  1
 <> 
 71
     5
 42
10.01908396946555
  3
STANDARD1
100
AcDbAlignedDimension
 13
454.9142747797715
 23
225.6622137404578
 33
0.0
 14
464.9333587492368
 24
225.6622137404578
 34
0.0
100
AcDbRotatedDimension
  0
DIMENSION
  5
C57C
330
1E
100
AcDbEntity
  8
30
  6
Continuous
100
AcDbDimension
  2
*D40
 10
496.9944274515269
 20
252.4041249999994
 30
0.0
 11
480.9944274515272
 21
258.4041249999994
 31
0.0
 70
    32
  1
 <> 
 71
     5
 42
32.0
  3
STANDARD1
100
AcDbAlignedDimension
 13
464.9944274515272
 23
225.4999999999995
 33
0.0
 14
496.9944274515269
 24
145.4999999999996
 34
0.0
100
AcDbRotatedDimension
  0
LWPOLYLINE
  5
C57D
330
1E
100
AcDbEntity
  8
10
  6
Continuous
100
AcDbPolyline
 90
        4
 70
     0
 43
0.0
 10
454.9142747797715
 20
140.4999999999995
 10
454.9142747797715
 20
220.6526717557248
 10
464.9333587492371
 20
220.6526717557248
 10
464.9333587492371
 20
140.4999999999995
  0
LWPOLYLINE
  5
CDE3
330
1E
100
AcDbEntity
  8
10
  6
Continuous
100
AcDbPolyline
 90
        4
 70
     1
 43
0.0
 10
59.99442745152735
 20
-23.99999999999991
 10
67.99442745152735
 20
-23.99999999999991
 10
67.99442745152735
 20
-27.00000000000001
 10
59.99442745152735
 20
-27.00000000000001
  0
LWPOLYLINE
  5
CDE4
330
1E
100
AcDbEntity
  8
10
  6
Continuous
100
AcDbPolyline
 90
        4
 70
     1
 43
0.0
 10
59.99442745152735
 20
-18.99999999999989
 10
67.99442745152735
 20
-18.99999999999989
 10
67.99442745152735
 20
-22.00000000000001
 10
59.99442745152735
 20
-22.00000000000001
  0
CIRCLE
  5
CDE5
330
1E
100
AcDbEntity
  8
10
  6
Continuous
100
AcDbCircle
 10
63.99442745152735
 20
6.500000000000055
 30
0.0
 40
4.749999999999998
  0
CIRCLE
  5
CDE6
330
1E
100
AcDbEntity
  8
10
  6
Continuous
100
AcDbCircle
 10
63.99442745152735
 20
-8.499999999999943
 30
0.0
 40
3.499999999999998
  0
CIRCLE
  5
CDE7
330
1E
100
AcDbEntity
  8
10
  6
Continuous
100
AcDbCircle
 10
63.99442745152735
 20
6.500000000000055
 30
0.0
 40
3.499999999999998
  0
DIMENSION
  5
CE2A
330
1E
100
AcDbEntity
  8
30
  6
Continuous
100
AcDbDimension
  2
*D42
 10
486.1944274515273
 20
-672.0958749999994
 30
0.0
 11
400.1944274515274
 21
-666.0958749999994
 31
0.0
 70
    32
  1
 <> 
 71
     5
 42
171.9999999999995
  3
STANDARD1
100
AcDbAlignedDimension
 13
314.1944274515275
 23
-545.0
 33
0.0
 14
486.1944274515273
 24
-545.0
 34
0.0
100
AcDbRotatedDimension
  0
LINE
  5
D8EE
330
1E
100
AcDbEntity
  8
10
  6
CONTINOUS
100
AcDbLine
 10
-85.50762359866586
 20
301.3231618618497
 30
0.0
 11
84.49237640133398
 21
301.3231618618497
 31
0.0
  0
LINE
  5
D8EF
330
1E
100
AcDbEntity
  8
10
  6
CONTINOUS
100
AcDbLine
 10
-85.50762359866586
 20
301.3231618618497
 30
0.0
 11
-85.50762359866586
 21
305.3231618618493
 31
0.0
  0
LINE
  5
D8F0
330
1E
100
AcDbEntity
  8
10
  6
CONTINOUS
100
AcDbLine
 10
13.49237640133399
 20
283.3231618618496
 30
0.0
 11
13.49237640133399
 21
297.3231618618493
 31
0.0
  0
LINE
  5
D8F1
330
1E
100
AcDbEntity
  8
10
  6
CONTINOUS
100
AcDbLine
 10
-14.50762359866588
 20
283.3231618618496
 30
0.0
 11
-14.50762359866588
 21
297.3231618618493
 31
0.0
  0
LINE
  5
D8F2
330
1E
100
AcDbEntity
  8
10
  6
CONTINOUS
100
AcDbLine
 10
-21.50762359866587
 20
265.3231618618495
 30
0.0
 11
-21.50762359866587
 21
297.3231618618493
 31
0.0
  0
LINE
  5
D8F3
330
1E
100
AcDbEntity
  8
10
  6
CONTINOUS
100
AcDbLine
 10
20.09237640133413
 20
265.3231618618495
 30
0.0
 11
20.09237640133413
 21
297.3231618618493
 31
0.0
  0
LINE
  5
D8F4
330
1E
100
AcDbEntity
  8
10
  6
CONTINOUS
100
AcDbLine
 10
-14.50762359866588
 20
283.3231618618496
 30
0.0
 11
13.49237640133399
 21
283.3231618618496
 31
0.0
  0
LINE
  5
D8F5
330
1E
100
AcDbEntity
  8
10
  6
CONTINOUS
100
AcDbLine
 10
-21.30762359866589
 20
265.3231618618495
 30
0.0
 11
20.2923764013341
 21
265.3231618618495
 31
0.0
  0
LINE
  5
D8F6
330
1E
100
AcDbEntity
  8
10
  6
CONTINOUS
100
AcDbLine
 10
-26.00762359866588
 20
297.3231618618493
 30
0.0
 11
24.99237640133411
 21
297.3231618618493
 31
0.0
  0
LINE
  5
D8F7
330
1E
100
AcDbEntity
  8
10
  6
CONTINOUS
100
AcDbLine
 10
-26.00762359866588
 20
297.3231618618493
 30
0.0
 11
-26.00762359866588
 21
301.3231618618497
 31
0.0
  0
LINE
  5
D8F8
330
1E
100
AcDbEntity
  8
10
  6
CONTINOUS
100
AcDbLine
 10
24.99237640133411
 20
297.3231618618493
 30
0.0
 11
24.99237640133411
 21
301.3231618618497
 31
0.0
  0
LINE
  5
D8F9
330
1E
100
AcDbEntity
  8
10
  6
CONTINOUS
100
AcDbLine
 10
84.49237640133398
 20
301.3231618618497
 30
0.0
 11
84.49237640133398
 21
305.3231618618493
 31
0.0
  0
LWPOLYLINE
  5
DBB2
330
1E
100
AcDbEntity
  8
10
  6
Continuous
100
AcDbPolyline
 90
        4
 70
     0
 43
0.0
 10
59.09340192643067
 20
301.3231618618501
 10
59.09340192643067
 20
297.8231618618501
 10
68.59340192643069
 20
297.8231618618501
 10
68.59340192643069
 20
301.3231618618501
  0
LWPOLYLINE
  5
DBB3
330
1E
100
AcDbEntity
  8
10
  6
Continuous
100
AcDbPolyline
 90
        4
 70
     0
 43
0.0
 10
60.34340192643067
 20
297.8231618618501
 10
60.34340192643067
 20
294.8231618618501
 10
67.34340192643069
 20
294.8231618618501
 10
67.34340192643069
 20
297.8231618618501
  0
LWPOLYLINE
  5
DBB7
330
1E
100
AcDbEntity
  8
10
  6
CONTINOUS
100
AcDbPolyline
 90
        4
 70
     1
 43
0.0
 10
-105.0
 20
408.2999999999998
 10
105.0
 20
408.2999999999998
 10
105.0
 20
305.3
 10
-105.0
 20
305.3
  0
ARC
  5
DBEE
330
1E
100
AcDbEntity
  8
10
  6
Continuous
100
AcDbCircle
 10
-885.9944274515273
 20
4.500000000000056
 30
0.0
 40
499.9999999999998
210
0.0
220
0.0
230
-1.0
100
AcDbArc
 50
358.9113150000002
 51
359.8281119999999
  0
LWPOLYLINE
  5
DBEF
330
1E
100
AcDbEntity
  8
10
  6
Continuous
100
AcDbPolyline
 90
        4
 70
     0
 43
0.0
 10
386.4944274515274
 20
-4.999999999999971
 10
384.3944274515274
 20
-4.999999999999971
 10
384.3944274515274
 20
-12.0
 10
386.4944274515274
 20
-12.0
  0
LWPOLYLINE
  5
DBF0
330
1E
100
AcDbEntity
  8
10
  6
Continuous
100
AcDbPolyline
 90
        4
 70
     0
 43
0.0
 10
389.9944274515275
 20
-3.749999999999971
 10
386.4944274515274
 20
-3.749999999999971
 10
386.4944274515274
 20
-13.25
 10
389.9944274515275
 20
-13.25
  0
LWPOLYLINE
  5
DBF1
330
1E
100
AcDbEntity
  8
10
  6
Continuous
100
AcDbPolyline
 90
        4
 70
     0
 43
0.0
 10
386.4944274515274
 20
10.00000000000001
 10
383.4944274515274
 20
10.00000000000001
 10
383.4944274515274
 20
3.0
 10
386.4944274515274
 20
3.0
  0
LWPOLYLINE
  5
DBF2
330
1E
100
AcDbEntity
  8
10
  6
Continuous
100
AcDbPolyline
 90
        4
 70
     0
 43
0.0
 10
389.9944274515275
 20
11.25000000000001
 10
386.4944274515274
 20
11.25000000000001
 10
386.4944274515274
 20
1.75
 10
389.9944274515275
 20
1.75
  0
LINE
  5
DBF3
330
1E
100
AcDbEntity
  8
10
  6
Continuous
100
AcDbLine
 10
389.9944274515275
 20
-44.99999999999997
 30
0.0
 11
389.9944274515275
 21
45.0
 31
0.0
  0
LWPOLYLINE
  5
DBF4
330
1E
100
AcDbEntity
  8
10
  6
Continuous
100
AcDbPolyline
 90
        4
 70
     0
 43
0.0
 10
393.9944274515275
 20
45.0
 10
386.9944274515272
 20
45.0
 10
386.9944274515272
 20
36.10696500000019
 10
386.0246783666451
 20
10.00000000000001
  0
LWPOLYLINE
  5
DBF5
330
1E
100
AcDbEntity
  8
10
  6
Continuous
100
AcDbPolyline
 90
        4
 70
     0
 43
0.0
 10
393.9944274515275
 20
-44.99999999999997
 10
386.9944274515272
 20
-44.99999999999997
 10
386.9944274515272
 20
-27.10695999999995
 10
386.2667515931753
 20
-11.99999943060006
  0
LWPOLYLINE
  5
DBF6
330
1E
100
AcDbEntity
  8
18
  6
DIVIDE
100
AcDbPolyline
 90
        4
 70
     1
 43
0.0
 10
295.0
 20
-359.0000000000002
 10
504.9944274515268
 20
-359.0000000000002
 10
504.9944274515268
 20
-631.9999999999994
 10
294.9944274515276
 20
-631.9999999999994
  0
LWPOLYLINE
  5
DBF7
330
1E
100
AcDbEntity
  8
18
  6
DIVIDE
100
AcDbPolyline
 90
        4
 70
     1
 43
0.0
 10
-105.0
 20
-359.0000000000002
 10
104.9944274515268
 20
-359.0000000000002
 10
104.9944274515268
 20
-631.9999999999994
 10
-105.0055725484724
 20
-631.9999999999994
  0
CIRCLE
  5
DC4A
330
1E
100
AcDbEntity
  8
10
  6
Continuous
100
AcDbCircle
 10
64.19999999999993
 20
17.5
 30
0.0
 40
1.5
  0
LINE
  5
DCF8
330
1E
100
AcDbEntity
  8
10
  6
Continuous
100
AcDbLine
 10
-90.00557254847237
 20
140.9999999999996
 30
0.0
 11
-90.00557254847237
 21
220.9999999999994
 31
0.0
  0
LINE
  5
DCF9
330
1E
100
AcDbEntity
  8
10
  6
Continuous
100
AcDbLine
 10
-90.00557254847237
 20
220.9999999999994
 30
0.0
 11
-50.00557254847235
 21
220.9999999999994
 31
0.0
  0
LINE
  5
DCFA
330
1E
100
AcDbEntity
  8
10
  6
Continuous
100
AcDbLine
 10
-50.00557254847235
 20
220.9999999999994
 30
0.0
 11
-50.00557254847235
 21
140.9999999999996
 31
0.0
  0
LINE
  5
DD0A
330
1E
100
AcDbEntity
  8
10
  6
Continuous
100
AcDbLine
 10
-20.00557254847235
 20
140.9999999999996
 30
0.0
 11
-20.00557254847235
 21
220.9999999999994
 31
0.0
  0
LINE
  5
DD0B
330
1E
100
AcDbEntity
  8
10
  6
Continuous
100
AcDbLine
 10
-20.00557254847235
 20
220.9999999999994
 30
0.0
 11
19.99442745152718
 21
220.9999999999994
 31
0.0
  0
LINE
  5
DD0C
330
1E
100
AcDbEntity
  8
10
  6
Continuous
100
AcDbLine
 10
19.99442745152718
 20
220.9999999999994
 30
0.0
 11
19.99442745152718
 21
140.9999999999996
 31
0.0
  0
LINE
  5
DD0D
330
1E
100
AcDbEntity
  8
10
  6
Continuous
100
AcDbLine
 10
49.98425852295593
 20
140.9999999999996
 30
0.0
 11
49.98425852295593
 21
221.0000024999998
 31
0.0
  0
LINE
  5
DD0E
330
1E
100
AcDbEntity
  8
10
  6
Continuous
100
AcDbLine
 10
49.98425852295593
 20
221.0000024999998
 30
0.0
 11
89.98425852295591
 21
221.0000024999998
 31
0.0
  0
LINE
  5
DD0F
330
1E
100
AcDbEntity
  8
10
  6
Continuous
100
AcDbLine
 10
89.98425852295591
 20
221.0000024999998
 30
0.0
 11
89.98425852295591
 21
140.9999999999996
 31
0.0
  0
LINE
  5
DD9E
330
1E
100
AcDbEntity
  8
10
  6
Continuous
100
AcDbLine
 10
-50.00557254847234
 20
-131.9999999999995
 30
0.0
 11
-50.00557254847234
 21
-211.9999999999993
 31
0.0
  0
LINE
  5
DD9F
330
1E
100
AcDbEntity
  8
10
  6
Continuous
100
AcDbLine
 10
-50.00557254847234
 20
-211.9999999999993
 30
0.0
 11
-90.00557254847235
 21
-211.9999999999993
 31
0.0
  0
LINE
  5
DDA0
330
1E
100
AcDbEntity
  8
10
  6
Continuous
100
AcDbLine
 10
-90.00557254847237
 20
-211.9999999999993
 30
0.0
 11
-90.00557254847235
 21
-131.9999999999995
 31
0.0
  0
LINE
  5
DDA1
330
1E
100
AcDbEntity
  8
10
  6
Continuous
100
AcDbLine
 10
19.99442745152718
 20
-131.9999999999995
 30
0.0
 11
19.99442745152718
 21
-211.9999999999993
 31
0.0
  0
LINE
  5
DDA2
330
1E
100
AcDbEntity
  8
10
  6
Continuous
100
AcDbLine
 10
19.99442745152718
 20
-211.9999999999993
 30
0.0
 11
-20.00557254847235
 21
-211.9999999999993
 31
0.0
  0
LINE
  5
DDA3
330
1E
100
AcDbEntity
  8
10
  6
Continuous
100
AcDbLine
 10
-20.00557254847235
 20
-211.9999999999993
 30
0.0
 11
-20.00557254847235
 21
-131.9999999999995
 31
0.0
  0
LINE
  5
DDA4
330
1E
100
AcDbEntity
  8
10
  6
Continuous
100
AcDbLine
 10
89.9944274515272
 20
-131.9999999999995
 30
0.0
 11
89.99442745152718
 21
-211.9999999999993
 31
0.0
  0
LINE
  5
DDA5
330
1E
100
AcDbEntity
  8
10
  6
Continuous
100
AcDbLine
 10
89.9944274515272
 20
-211.9999999999993
 30
0.0
 11
49.99442745152718
 21
-211.9999999999993
 31
0.0
  0
LINE
  5
DDA6
330
1E
100
AcDbEntity
  8
10
  6
Continuous
100
AcDbLine
 10
49.99442745152718
 20
-211.9999999999993
 30
0.0
 11
49.99442745152718
 21
-131.9999999999995
 31
0.0
  0
VIEWPORT
  5
9AC
102
{ACAD_XDICTIONARY
360
DDFB
102
}
330
1A
100
AcDbEntity
 67
     1
  8
0
  6
Continuous
100
AcDbViewport
 10
171.999535
 20
144.1384739999999
 30
0.0
 40
488.867686
 41
292.351491
 68
    -1
 69
     1
 12
171.999535
 22
144.1384739999999
 13
0.0
 23
0.0
 14
10.0
 24
10.0
 15
10.0
 25
10.0
 16
0.0
 26
0.0
 36
1.0
 17
0.0
 27
0.0
 37
0.0
 42
50.0
 43
0.0
 44
0.0
 45
292.351491
 50
0.0
 51
0.0
 72
   100
 90
    32800
  1

281
     0
 71
     1
 74
     0
110
0.0
120
0.0
130
0.0
111
1.0
121
0.0
131
0.0
112
0.0
122
1.0
132
0.0
 79
     0
146
0.0
  0
ENDSEC
  0
SECTION
  2
OBJECTS
  0
DICTIONARY
  5
C
330
0
100
AcDbDictionary
281
     1
  3
ACAD_CIP_PREVIOUS_PRODUCT_INFO
350
DCC3
  3
ACAD_COLOR
350
DCA4
  3
ACAD_DETAILVIEWSTYLE
350
DCBD
  3
ACAD_GROUP
350
D
  3
ACAD_LAYOUT
350
19
  3
ACAD_MATERIAL
350
DC72
  3
ACAD_MLEADERSTYLE
350
DCB9
  3
ACAD_MLINESTYLE
350
16
  3
ACAD_PLOTSETTINGS
350
18
  3
ACAD_PLOTSTYLENAME
350
E
  3
ACAD_SCALELIST
350
DCA7
  3
ACAD_SECTIONVIEWSTYLE
350
DCBB
  3
ACAD_TABLESTYLE
350
DCA5
  3
ACAD_VISUALSTYLE
350
DC8B
  3
ACADDIM
350
6D5E
  3
ACDB_RECOMPOSE_DATA
350
DDF9
  3
ACDBVARIABLEDICTIONARY
350
5697
  3
DWGPROPS
350
DDFA
  0
DICTIONARY
  5
DD27
330
10
100
AcDbDictionary
280
     1
281
     1
  3
ADSK_XREC_LAYER_RECONCILED
360
DD28
  0
DICTIONARY
  5
DD29
330
2F
100
AcDbDictionary
280
     1
281
     1
  3
ADSK_XREC_LAYER_RECONCILED
360
DD2A
  0
DICTIONARY
  5
DD2B
330
31
100
AcDbDictionary
280
     1
281
     1
  3
ADSK_XREC_LAYER_RECONCILED
360
DD2C
  0
DICTIONARY
  5
DD2D
330
35
100
AcDbDictionary
280
     1
281
     1
  3
ADSK_XREC_LAYER_RECONCILED
360
DD2E
  0
DICTIONARY
  5
DD2F
330
38
100
AcDbDictionary
280
     1
281
     1
  3
ADSK_XREC_LAYER_RECONCILED
360
DD30
  0
DICTIONARY
  5
DD31
330
3D
100
AcDbDictionary
280
     1
281
     1
  3
ADSK_XREC_LAYER_RECONCILED
360
DD32
  0
DICTIONARY
  5
DD33
330
3A2
100
AcDbDictionary
280
     1
281
     1
  3
ADSK_XREC_LAYER_RECONCILED
360
DD34
  0
DICTIONARY
  5
DD35
330
3BBA
100
AcDbDictionary
280
     1
281
     1
  3
ADSK_XREC_LAYER_RECONCILED
360
DD36
  0
DICTIONARY
  5
DD37
330
67A8
100
AcDbDictionary
280
     1
281
     1
  3
ADSK_XREC_LAYER_RECONCILED
360
DD38
  0
DICTIONARY
  5
DD39
330
7BC8
100
AcDbDictionary
280
     1
281
     1
  3
ADSK_XREC_LAYER_RECONCILED
360
DD3A
  0
DICTIONARY
  5
DD3B
330
C01C
100
AcDbDictionary
280
     1
281
     1
  3
ADSK_XREC_LAYER_RECONCILED
360
DD3C
  0
DICTIONARY
  5
178
330
1E
100
AcDbDictionary
280
     1
281
     1
  3
ACAD_LAYOUTSELFREF
360
9011
  3
ACAD_SORTENTS
360
DCFB
  0
DICTIONARY
  5
17A
330
1A
100
AcDbDictionary
280
     1
281
     1
  3
ACAD_LAYOUTSELFREF
360
9010
  0
DICTIONARY
  5
DE3C
330
DCDE
100
AcDbDictionary
280
     1
281
     1
  3
ACAD_MTEXT_RT
360
DE3D
  0
DICTIONARY
  5
DE01
330
D9CA
100
AcDbDictionary
280
     1
281
     1
  3
ACAD_MTEXT_RT
360
DE02
  0
DICTIONARY
  5
DDFB
330
9AC
100
AcDbDictionary
280
     1
281
     1
  3
ACAD_XREC_ROUNDTRIP
360
DDFC
  0
XRECORD
  5
DCC3
102
{ACAD_REACTORS
330
C
102
}
330
C
100
AcDbXrecord
280
     1
300
ACDLT
300
2015
300
ACDLT_F_S
  0
DICTIONARY
  5
DCA4
102
{ACAD_REACTORS
330
C
102
}
330
C
100
AcDbDictionary
281
     1
  0
DICTIONARY
  5
DCBD
102
{ACAD_REACTORS
330
C
102
}
330
C
100
AcDbDictionary
281
     1
  3
Imperial24
350
DCBE
  0
DICTIONARY
  5
D
102
{ACAD_REACTORS
330
C
102
}
330
C
100
AcDbDictionary
281
     1
  0
DICTIONARY
  5
19
102
{ACAD_REACTORS
330
C
102
}
330
C
100
AcDbDictionary
281
     1
  3
Model
350
904E
  3
ﾚｲｱｳﾄ1
350
904F
  0
DICTIONARY
  5
DC72
102
{ACAD_REACTORS
330
C
102
}
330
C
100
AcDbDictionary
281
     1
  3
ByBlock
350
DC7B
  3
ByLayer
350
DC73
  3
Global
350
DC83
  0
DICTIONARY
  5
DCB9
102
{ACAD_REACTORS
330
C
102
}
330
C
100
AcDbDictionary
281
     1
  3
Standard
350
DCBA
  0
DICTIONARY
  5
16
102
{ACAD_REACTORS
330
C
102
}
330
C
100
AcDbDictionary
281
     1
  3
STANDARD
350
17
  0
DICTIONARY
  5
18
102
{ACAD_REACTORS
330
C
102
}
330
C
100
AcDbDictionary
281
     1
  0
ACDBDICTIONARYWDFLT
  5
E
102
{ACAD_REACTORS
330
C
102
}
330
C
100
AcDbDictionary
281
     1
  3
Normal
350
F
100
AcDbDictionaryWithDefault
340
F
  0
DICTIONARY
  5
DCA7
102
{ACAD_REACTORS
330
C
102
}
330
C
100
AcDbDictionary
281
     1
  3
A0
350
DCA8
  3
A1
350
DCA9
  3
A2
350
DCAA
  3
A3
350
DCAB
  3
A4
350
DCAC
  3
A5
350
DCAD
  3
A6
350
DCAE
  3
A7
350
DCAF
  3
A8
350
DCB0
  3
A9
350
DCB1
  3
B0
350
DCB2
  3
B1
350
DCB3
  3
B2
350
DCB4
  3
B3
350
DCB5
  3
B4
350
DCB6
  3
B5
350
DCB7
  3
B6
350
DCB8
  0
DICTIONARY
  5
DCBB
102
{ACAD_REACTORS
330
C
102
}
330
C
100
AcDbDictionary
281
     1
  3
Imperial24
350
DCBC
  0
DICTIONARY
  5
DCA5
102
{ACAD_REACTORS
330
C
102
}
330
C
100
AcDbDictionary
281
     1
  3
Standard
350
DCA6
  0
DICTIONARY
  5
DC8B
102
{ACAD_REACTORS
330
C
102
}
330
C
100
AcDbDictionary
281
     1
  3
2dWireframe
350
DC91
  3
Basic
350
DC90
  3
Brighten
350
DC97
  3
ColorChange
350
DC9B
  3
Conceptual
350
DC94
  3
Dim
350
DC96
  3
EdgeColorOff
350
DCA3
  3
Facepattern
350
DC9A
  3
Flat
350
DC8C
  3
FlatWithEdges
350
DC8D
  3
Gouraud
350
DC8E
  3
GouraudWithEdges
350
DC8F
  3
Hidden
350
DC93
  3
JitterOff
350
DCA1
  3
Linepattern
350
DC99
  3
OverhangOff
350
DCA2
  3
Realistic
350
DC95
  3
Shaded
350
DCA0
  3
Shaded with edges
350
DC9F
  3
Shades of Gray
350
DC9C
  3
Sketchy
350
DC9D
  3
Thicken
350
DC98
  3
Wireframe
350
DC92
  3
X-Ray
350
DC9E
  0
XRECORD
  5
6D5E
102
{ACAD_REACTORS
330
C
102
}
330
C
100
AcDbXrecord
280
     1
 90
   990106
  3

 60
     0
 61
     0
 62
     1
 63
     3
 64
     0
 65
     0
 66
     0
 67
     3
 68
     1
 69
     0
 70
     0
 71
     0
 72
     0
 40
0.0
170
     0
340
7CA9
  0
XRECORD
  5
DDF9
102
{ACAD_REACTORS
330
C
102
}
330
C
100
AcDbXrecord
280
     1
 90
        1
330
DCA6
  0
DICTIONARY
  5
5697
102
{ACAD_REACTORS
330
C
102
}
330
C
100
AcDbDictionary
281
     1
  3
CANNOSCALE
350
DD41
  3
CMLEADERSTYLE
350
DD3E
  3
CTABLESTYLE
350
DD3D
  3
CVIEWDETAILSTYLE
350
DD3F
  3
CVIEWSECTIONSTYLE
350
DD40
  3
DIMASSOC
350
5698
  3
INDEXCTL
350
DD43
  3
SORTENTS
350
DD42
  3
XCLIPFRAME
350
DD44
  0
XRECORD
  5
DDFA
102
{ACAD_REACTORS
330
C
102
}
330
C
100
AcDbXrecord
280
     1
  1
DWGPROPS COOKIE
  2

  3

  4

  6

  7

  8
ktomoto
  9

300
=
301
=
302
=
303
=
304
=
305
=
306
=
307
=
308
=
309
=
 40
1.841691203703703
 41
2452286.555658658
 42
2456919.623776921
  1

 90
        0
  0
XRECORD
  5
DD28
102
{ACAD_REACTORS
330
DD27
102
}
330
DD27
100
AcDbXrecord
280
     1
290
     1
  0
XRECORD
  5
DD2A
102
{ACAD_REACTORS
330
DD29
102
}
330
DD29
100
AcDbXrecord
280
     1
290
     1
  0
XRECORD
  5
DD2C
102
{ACAD_REACTORS
330
DD2B
102
}
330
DD2B
100
AcDbXrecord
280
     1
290
     1
  0
XRECORD
  5
DD2E
102
{ACAD_REACTORS
330
DD2D
102
}
330
DD2D
100
AcDbXrecord
280
     1
290
     1
  0
XRECORD
  5
DD30
102
{ACAD_REACTORS
330
DD2F
102
}
330
DD2F
100
AcDbXrecord
280
     1
290
     1
  0
XRECORD
  5
DD32
102
{ACAD_REACTORS
330
DD31
102
}
330
DD31
100
AcDbXrecord
280
     1
290
     1
  0
XRECORD
  5
DD34
102
{ACAD_REACTORS
330
DD33
102
}
330
DD33
100
AcDbXrecord
280
     1
290
     1
  0
XRECORD
  5
DD36
102
{ACAD_REACTORS
330
DD35
102
}
330
DD35
100
AcDbXrecord
280
     1
290
     1
  0
XRECORD
  5
DD38
102
{ACAD_REACTORS
330
DD37
102
}
330
DD37
100
AcDbXrecord
280
     1
290
     1
  0
XRECORD
  5
DD3A
102
{ACAD_REACTORS
330
DD39
102
}
330
DD39
100
AcDbXrecord
280
     1
290
     1
  0
XRECORD
  5
DD3C
102
{ACAD_REACTORS
330
DD3B
102
}
330
DD3B
100
AcDbXrecord
280
     1
290
     1
  0
XRECORD
  5
9011
102
{ACAD_REACTORS
330
178
102
}
330
178
100
AcDbXrecord
280
     1
340
1E
  0
SORTENTSTABLE
  5
DCFB
102
{ACAD_REACTORS
330
178
102
}
330
178
100
AcDbSortentsTable
330
1E
331
DBF5
  5
DDA3
331
97A3
  5
97A3
331
B3B1
  5
C574
331
9767
  5
9767
331
9CEE
  5
9CF8
331
B850
  5
C578
331
DD0F
  5
9CF2
331
95B3
  5
95B3
331
9605
  5
9605
331
95C4
  5
95C4
331
957A
  5
957A
331
DBF3
  5
DDA1
331
C025
  5
CDE5
331
9CA3
  5
9CA6
331
CDE7
  5
DBEF
331
B84F
  5
C577
331
DDA6
  5
B85D
331
9765
  5
9765
331
DBB2
  5
DD0B
331
C57C
  5
D8F8
331
DC4A
  5
DDA6
331
DD0D
  5
9CF0
331
9706
  5
9706
331
95EA
  5
95EA
331
95C2
  5
95C2
331
9CA1
  5
9CA4
331
DBF1
  5
DD9F
331
DCFA
  5
9CA1
331
9763
  5
9763
331
9581
  5
9581
331
CDE5
  5
DBB7
331
DDA4
  5
B850
331
C57A
  5
D8F6
331
9CEA
  5
9CF5
331
D8F6
  5
DCF8
331
9E94
  5
B863
331
DD0B
  5
9CAA
331
977E
  5
977E
331
9704
  5
9704
331
95E8
  5
95E8
331
976D
  5
976D
331
95C0
  5
95C0
331
BF3
  5
BF3
331
C031
  5
CDE6
331
CDE3
  5
DBB2
331
B84B
  5
C575
331
DDA2
  5
B2FF
331
DCF8
  5
9C98
331
975C
  5
975C
331
960B
  5
960B
331
9598
  5
9598
331
C578
  5
D8F4
331
B862
  5
C57D
331
D8F4
  5
DBF7
331
B2FC
  5
C05D
331
9E92
  5
B862
331
977C
  5
977C
331
9702
  5
9702
331
95CF
  5
95CF
331
DBEF
  5
DD0F
331
976B
  5
976B
331
95BE
  5
95BE
331
958D
  5
958D
331
DDA0
  5
B2F9
331
975A
  5
975A
331
C576
  5
D8F2
331
97C4
  5
97C4
331
9616
  5
9616
331
7CA9
  5
7CA9
331
D8F2
  5
DBF5
331
C047
  5
CDE7
331
9CF7
  5
B84B
331
9769
  5
9769
331
6200
  5
6200
331
D8F0
  5
DBF3
331
C574
  5
D8F0
331
97C2
  5
97C2
331
9778
  5
9778
331
95E2
  5
95E2
331
D8F8
  5
DCFA
331
9CF5
  5
B2FB
331
DD9E
  5
9F23
331
8D78
  5
8D78
331
7CA7
  5
7CA7
331
C572
  5
D8EE
331
D8EE
  5
DBF1
331
BB84
  5
CDE4
331
9CAA
  5
9CF3
331
97C0
  5
97C0
331
9784
  5
9784
331
B85D
  5
C57A
331
9CF3
  5
9E92
331
9C99
  5
9CA3
331
9623
  5
9623
331
95F1
  5
95F1
331
95E0
  5
95E0
331
97BB
  5
97BB
331
9F25
  5
C025
331
9CA8
  5
9CED
331
9634
  5
9634
331
95EF
  5
95EF
331
DBB7
  5
DD0D
331
9CF1
  5
9E8F
331
979D
  5
979D
331
970B
  5
970B
331
95D8
  5
95D8
331
95A3
  5
95A3
331
95C7
  5
95C7
331
957D
  5
957D
331
9F23
  5
BB84
331
DBF6
  5
DDA4
331
9CA6
  5
9CEA
331
95A1
  5
95A1
331
9709
  5
9709
331
961F
  5
961F
331
95D6
  5
95D6
331
95B4
  5
95B4
331
957B
  5
957B
331
89EA
  5
89EA
331
5C78
  5
5C78
331
DBF4
  5
DDA2
331
9CA4
  5
9CA7
331
9630
  5
9630
331
DBB3
  5
DD0C
331
C05D
  5
CE2A
331
C57D
  5
D8F9
331
9CED
  5
9CF7
331
DD0E
  5
9CF1
331
9799
  5
9799
331
9707
  5
9707
331
95EB
  5
95EB
331
95C3
  5
95C3
331
9579
  5
9579
331
DBF2
  5
DDA0
331
CDE6
  5
DBEE
331
B84E
  5
C576
331
DDA5
  5
B85C
331
9CA2
  5
9CA5
331
97CF
  5
97CF
331
C57B
  5
D8F7
331
9CEB
  5
9CF6
331
D8F7
  5
DCF9
331
B2FF
  5
C573
331
DD0C
  5
9CAB
331
961B
  5
961B
331
95E9
  5
95E9
331
95C1
  5
95C1
331
DBF0
  5
DD9E
331
DDA3
  5
B3B1
331
DCF9
  5
9C99
331
CDE4
  5
DBB3
331
97B3
  5
97B3
331
C579
  5
D8F5
331
B863
  5
CDE3
331
D8F5
  5
DC4A
331
B2FD
  5
C572
331
DD0A
  5
9CA9
331
977D
  5
977D
331
976C
  5
976C
331
9703
  5
9703
331
95D0
  5
95D0
331
958E
  5
958E
331
9CF8
  5
B84E
331
DDA1
  5
B2FD
331
975B
  5
975B
331
C577
  5
D8F3
331
B861
  5
C57C
331
D8F3
  5
DBF6
331
B2FB
  5
C047
331
9E91
  5
B861
331
97C5
  5
97C5
331
DBEE
  5
DD0E
331
976A
  5
976A
331
9628
  5
9628
331
95DF
  5
95DF
331
9597
  5
9597
331
9759
  5
9759
331
C575
  5
D8F1
331
D8F1
  5
DBF4
331
B2F9
  5
C031
331
9E8F
  5
B85E
331
97C3
  5
97C3
331
9779
  5
9779
331
D8F9
  5
DD0A
331
DD9F
  5
9F25
331
9768
  5
9768
331
9615
  5
9615
331
97BE
  5
97BE
331
D8EF
  5
DBF2
331
C573
  5
D8EF
331
9CAB
  5
9CF4
331
97C1
  5
97C1
331
9777
  5
9777
331
B85E
  5
C57B
331
9624
  5
9624
331
95E1
  5
95E1
331
9783
  5
9783
331
9635
  5
9635
331
95F0
  5
95F0
331
CE2A
  5
DBF0
331
B85C
  5
C579
331
9CF2
  5
9E91
331
9C98
  5
9CA2
331
9622
  5
9622
331
95D9
  5
95D9
331
9639
  5
9639
331
9CA7
  5
9CEB
331
9633
  5
9633
331
DBF7
  5
DDA5
331
95EE
  5
95EE
331
9CF0
  5
9CF9
331
9C96
  5
9C96
331
970A
  5
970A
331
95D7
  5
95D7
331
95B5
  5
95B5
331
9587
  5
9587
331
95C6
  5
95C6
331
957C
  5
957C
  0
XRECORD
  5
9010
102
{ACAD_REACTORS
330
17A
102
}
330
17A
100
AcDbXrecord
280
     1
340
1A
  0
XRECORD
  5
DE3D
102
{ACAD_REACTORS
330
DE3C
102
}
330
DE3C
100
AcDbXrecord
280
     1
 40
5040.0
  1
\A1;\U+220513
  0
XRECORD
  5
DE02
102
{ACAD_REACTORS
330
DE01
102
}
330
DE01
100
AcDbXrecord
280
     1
 40
4461.0
  1
\A1;\U+22058
  0
XRECORD
  5
DDFC
102
{ACAD_REACTORS
330
DDFB
102
}
330
DDFB
100
AcDbXrecord
280
     1
102
SHADEPLOT
 70
     0
  0
ACDBDETAILVIEWSTYLE
  5
DCBE
102
{ACAD_XDICTIONARY
360
DE3A
102
}
102
{ACAD_REACTORS
330
DCBD
102
}
330
DCBD
100
AcDbModelDocViewStyle
 70
     0
  3
Imperial24
290
     0
100
AcDbDetailViewStyle
 70
     0
 71
     0
 90
        3
 71
     1
340
11
 40
0.24
340
0
 40
0.24
300

 40
0.36
280
     3
 71
     2
340
15
 90
       25
 71
     3
340
11
 40
0.24
 90
        1
 40
0.75
 90
        1
300
%<\AcVar ViewType \f "%tc1">% %<\AcVar ViewDetailId>%\PSCALE %<\AcVar ViewScale \f "%sn">%
 71
     4
340
15
 90
       25
340
15
 90
       25
280
     0
  0
LAYOUT
  5
904E
102
{ACAD_XDICTIONARY
360
DDFD
102
}
102
{ACAD_REACTORS
330
19
102
}
330
19
100
AcDbPlotSettings
  1

  2
自動 RICOH IPSiO NX760 RPCS (PRINT_SERV 上)
  4
A4
  6
OLE1
 40
5.873749732971191
 41
5.873747825622557
 42
5.873748779296875
 43
5.873748779296875
 44
209.9733276367186
 45
296.9259948730469
 46
29.7
 47
31.57
 48
0.0
 49
0.0
140
0.0
141
0.0
142
1.0
143
5.0
 70
 11940
 72
     1
 73
     0
 74
     1
  7
monochrome.ctb
 75
     0
147
0.2
148
179.0958585134158
149
672.6144055809708
100
AcDbLayout
  1
Model
 70
     1
 71
     0
 10
0.0
 20
0.0
 11
12.0
 21
9.0
 12
0.0
 22
0.0
 32
0.0
 14
0.0
 24
0.0
 34
0.0
 15
0.0
 25
0.0
 35
0.0
146
0.0
 13
0.0
 23
0.0
 33
0.0
 16
1.0
 26
0.0
 36
0.0
 17
0.0
 27
1.0
 37
0.0
 76
     0
330
1E
331
DC4C
  0
LAYOUT
  5
904F
102
{ACAD_XDICTIONARY
360
DDFF
102
}
102
{ACAD_REACTORS
330
19
102
}
330
19
100
AcDbPlotSettings
  1

  2
LBP5400
  4

  6

 40
0.0
 41
0.0
 42
0.0
 43
0.0
 44
0.0
 45
0.0
 46
0.0
 47
0.0
 48
0.0
 49
0.0
140
0.0
141
0.0
142
1.0
143
1.0
 70
   688
 72
     0
 73
     0
 74
     5
  7
monochrome.ctb
 75
    16
147
1.0
148
0.0
149
0.0
100
AcDbLayout
  1
ﾚｲｱｳﾄ1
 70
     1
 71
     1
 10
-5.873749
 20
-5.87375
 11
204.099579
 21
291.1369009999999
 12
0.0
 22
0.0
 32
0.0
 14
4.273573
 24
5.205245999999998
 34
0.0
 15
194.610095
 25
283.0697009999996
 35
0.0
146
0.0
 13
0.0
 23
0.0
 33
0.0
 16
1.0
 26
0.0
 36
0.0
 17
0.0
 27
1.0
 37
0.0
 76
     0
330
1A
  0
MATERIAL
  5
DC7B
102
{ACAD_XDICTIONARY
360
DC7C
102
}
102
{ACAD_REACTORS
330
DC72
102
}
330
DC72
100
AcDbMaterial
  1
ByBlock
 72
     0
 43
0.0208333333333333
 43
0.0
 43
0.0
 43
0.0
 43
0.0
 43
0.0208333333333333
 43
0.0
 43
0.0
 43
0.0
 43
0.0
 43
1.0
 43
0.0
 43
0.0
 43
0.0
 43
0.0
 43
1.0
 77
     0
 47
0.0208333333333333
 47
0.0
 47
0.0
 47
0.0
 47
0.0
 47
0.0208333333333333
 47
0.0
 47
0.0
 47
0.0
 47
0.0
 47
1.0
 47
0.0
 47
0.0
 47
0.0
 47
0.0
 47
1.0
171
     0
 49
0.0208333333333333
 49
0.0
 49
0.0
 49
0.0
 49
0.0
 49
0.0208333333333333
 49
0.0
 49
0.0
 49
0.0
 49
0.0
 49
1.0
 49
0.0
 49
0.0
 49
0.0
 49
0.0
 49
1.0
175
     0
142
0.0208333333333333
142
0.0
142
0.0
142
0.0
142
0.0
142
0.0208333333333333
142
0.0
142
0.0
142
0.0
142
0.0
142
1.0
142
0.0
142
0.0
142
0.0
142
0.0
142
1.0
179
     0
144
0.0208333333333333
144
0.0
144
0.0
144
0.0
144
0.0
144
0.0208333333333333
144
0.0
144
0.0
144
0.0
144
0.0
144
1.0
144
0.0
144
0.0
144
0.0
144
0.0
144
1.0
147
0.0208333333333333
147
0.0
147
0.0
147
0.0
147
0.0
147
0.0208333333333333
147
0.0
147
0.0
147
0.0
147
0.0
147
1.0
147
0.0
147
0.0
147
0.0
147
0.0
147
1.0
  0
MATERIAL
  5
DC73
102
{ACAD_XDICTIONARY
360
DC74
102
}
102
{ACAD_REACTORS
330
DC72
102
}
330
DC72
100
AcDbMaterial
  1
ByLayer
 72
     0
 43
0.0208333333333333
 43
0.0
 43
0.0
 43
0.0
 43
0.0
 43
0.0208333333333333
 43
0.0
 43
0.0
 43
0.0
 43
0.0
 43
1.0
 43
0.0
 43
0.0
 43
0.0
 43
0.0
 43
1.0
 77
     0
 47
0.0208333333333333
 47
0.0
 47
0.0
 47
0.0
 47
0.0
 47
0.0208333333333333
 47
0.0
 47
0.0
 47
0.0
 47
0.0
 47
1.0
 47
0.0
 47
0.0
 47
0.0
 47
0.0
 47
1.0
171
     0
 49
0.0208333333333333
 49
0.0
 49
0.0
 49
0.0
 49
0.0
 49
0.0208333333333333
 49
0.0
 49
0.0
 49
0.0
 49
0.0
 49
1.0
 49
0.0
 49
0.0
 49
0.0
 49
0.0
 49
1.0
175
     0
142
0.0208333333333333
142
0.0
142
0.0
142
0.0
142
0.0
142
0.0208333333333333
142
0.0
142
0.0
142
0.0
142
0.0
142
1.0
142
0.0
142
0.0
142
0.0
142
0.0
142
1.0
179
     0
144
0.0208333333333333
144
0.0
144
0.0
144
0.0
144
0.0
144
0.0208333333333333
144
0.0
144
0.0
144
0.0
144
0.0
144
1.0
144
0.0
144
0.0
144
0.0
144
0.0
144
1.0
147
0.0208333333333333
147
0.0
147
0.0
147
0.0
147
0.0
147
0.0208333333333333
147
0.0
147
0.0
147
0.0
147
0.0
147
1.0
147
0.0
147
0.0
147
0.0
147
0.0
147
1.0
  0
MATERIAL
  5
DC83
102
{ACAD_XDICTIONARY
360
DC84
102
}
102
{ACAD_REACTORS
330
DC72
102
}
330
DC72
100
AcDbMaterial
  1
Global
 72
     0
 43
0.0208333333333333
 43
0.0
 43
0.0
 43
0.0
 43
0.0
 43
0.0208333333333333
 43
0.0
 43
0.0
 43
0.0
 43
0.0
 43
1.0
 43
0.0
 43
0.0
 43
0.0
 43
0.0
 43
1.0
 77
     0
 47
0.0208333333333333
 47
0.0
 47
0.0
 47
0.0
 47
0.0
 47
0.0208333333333333
 47
0.0
 47
0.0
 47
0.0
 47
0.0
 47
1.0
 47
0.0
 47
0.0
 47
0.0
 47
0.0
 47
1.0
171
     0
 49
0.0208333333333333
 49
0.0
 49
0.0
 49
0.0
 49
0.0
 49
0.0208333333333333
 49
0.0
 49
0.0
 49
0.0
 49
0.0
 49
1.0
 49
0.0
 49
0.0
 49
0.0
 49
0.0
 49
1.0
175
     0
142
0.0208333333333333
142
0.0
142
0.0
142
0.0
142
0.0
142
0.0208333333333333
142
0.0
142
0.0
142
0.0
142
0.0
142
1.0
142
0.0
142
0.0
142
0.0
142
0.0
142
1.0
179
     0
144
0.0208333333333333
144
0.0
144
0.0
144
0.0
144
0.0
144
0.0208333333333333
144
0.0
144
0.0
144
0.0
144
0.0
144
1.0
144
0.0
144
0.0
144
0.0
144
0.0
144
1.0
147
0.0208333333333333
147
0.0
147
0.0
147
0.0
147
0.0
147
0.0208333333333333
147
0.0
147
0.0
147
0.0
147
0.0
147
1.0
147
0.0
147
0.0
147
0.0
147
0.0
147
1.0
  0
MLEADERSTYLE
  5
DCBA
102
{ACAD_REACTORS
330
DCB9
102
}
330
DCB9
100
AcDbMLeaderStyle
170
     2
171
     1
172
     0
 90
        2
 40
0.0
 41
0.0
173
     1
 91
-1056964608
340
13
 92
       -2
290
     1
 42
0.09
291
     1
 43
0.36
  3
Standard
 44
0.18
300

342
11
174
     1
178
     6
175
     1
176
     0
 93
-1056964608
 45
0.18
292
     0
297
     0
 46
0.18
 94
-1056964608
 47
1.0
 49
1.0
140
1.0
293
     1
141
0.0
294
     1
177
     0
142
1.0
295
     0
296
     0
143
0.125
1001
ACAD_MLEADERVER
1070
     2
  0
MLINESTYLE
  5
17
102
{ACAD_REACTORS
330
16
102
}
330
16
100
AcDbMlineStyle
  2
STANDARD
 70
     0
  3

 62
   256
 51
90.0
 52
90.0
 71
     2
 49
0.5
 62
   256
  6
BYLAYER
 49
-0.5
 62
   256
  6
BYLAYER
  0
ACDBPLACEHOLDER
  5
F
102
{ACAD_REACTORS
330
E
102
}
330
E
  0
SCALE
  5
DCA8
102
{ACAD_REACTORS
330
DCA7
102
}
330
DCA7
100
AcDbScale
 70
     0
300
1:1
140
1.0
141
1.0
290
     1
  0
SCALE
  5
DCA9
102
{ACAD_REACTORS
330
DCA7
102
}
330
DCA7
100
AcDbScale
 70
     0
300
1/128" = 1'-0"
140
0.0078125
141
12.0
290
     0
  0
SCALE
  5
DCAA
102
{ACAD_REACTORS
330
DCA7
102
}
330
DCA7
100
AcDbScale
 70
     0
300
1/64" = 1'-0"
140
0.015625
141
12.0
290
     0
  0
SCALE
  5
DCAB
102
{ACAD_REACTORS
330
DCA7
102
}
330
DCA7
100
AcDbScale
 70
     0
300
1/32" = 1'-0"
140
0.03125
141
12.0
290
     0
  0
SCALE
  5
DCAC
102
{ACAD_REACTORS
330
DCA7
102
}
330
DCA7
100
AcDbScale
 70
     0
300
1/16" = 1'-0"
140
0.0625
141
12.0
290
     0
  0
SCALE
  5
DCAD
102
{ACAD_REACTORS
330
DCA7
102
}
330
DCA7
100
AcDbScale
 70
     0
300
3/32" = 1'-0"
140
0.09375
141
12.0
290
     0
  0
SCALE
  5
DCAE
102
{ACAD_REACTORS
330
DCA7
102
}
330
DCA7
100
AcDbScale
 70
     0
300
1/8" = 1'-0"
140
0.125
141
12.0
290
     0
  0
SCALE
  5
DCAF
102
{ACAD_REACTORS
330
DCA7
102
}
330
DCA7
100
AcDbScale
 70
     0
300
3/16" = 1'-0"
140
0.1875
141
12.0
290
     0
  0
SCALE
  5
DCB0
102
{ACAD_REACTORS
330
DCA7
102
}
330
DCA7
100
AcDbScale
 70
     0
300
1/4" = 1'-0"
140
0.25
141
12.0
290
     0
  0
SCALE
  5
DCB1
102
{ACAD_REACTORS
330
DCA7
102
}
330
DCA7
100
AcDbScale
 70
     0
300
3/8" = 1'-0"
140
0.375
141
12.0
290
     0
  0
SCALE
  5
DCB2
102
{ACAD_REACTORS
330
DCA7
102
}
330
DCA7
100
AcDbScale
 70
     0
300
1/2" = 1'-0"
140
0.5
141
12.0
290
     0
  0
SCALE
  5
DCB3
102
{ACAD_REACTORS
330
DCA7
102
}
330
DCA7
100
AcDbScale
 70
     0
300
3/4" = 1'-0"
140
0.75
141
12.0
290
     0
  0
SCALE
  5
DCB4
102
{ACAD_REACTORS
330
DCA7
102
}
330
DCA7
100
AcDbScale
 70
     0
300
1" = 1'-0"
140
1.0
141
12.0
290
     0
  0
SCALE
  5
DCB5
102
{ACAD_REACTORS
330
DCA7
102
}
330
DCA7
100
AcDbScale
 70
     0
300
1-1/2" = 1'-0"
140
1.5
141
12.0
290
     0
  0
SCALE
  5
DCB6
102
{ACAD_REACTORS
330
DCA7
102
}
330
DCA7
100
AcDbScale
 70
     0
300
3" = 1'-0"
140
3.0
141
12.0
290
     0
  0
SCALE
  5
DCB7
102
{ACAD_REACTORS
330
DCA7
102
}
330
DCA7
100
AcDbScale
 70
     0
300
6" = 1'-0"
140
6.0
141
12.0
290
     0
  0
SCALE
  5
DCB8
102
{ACAD_REACTORS
330
DCA7
102
}
330
DCA7
100
AcDbScale
 70
     0
300
1'-0" = 1'-0"
140
12.0
141
12.0
290
     0
  0
ACDBSECTIONVIEWSTYLE
  5
DCBC
102
{ACAD_XDICTIONARY
360
DE38
102
}
102
{ACAD_REACTORS
330
DCBB
102
}
330
DCBB
100
AcDbModelDocViewStyle
 70
     0
  3
Imperial24
290
     0
100
AcDbSectionViewStyle
 70
     0
 71
     0
 90
       78
 71
     1
340
11
 40
0.24
340
0
340
0
 40
0.24
300
I, O, Q, S, X, Z
 40
0.48
 90
        3
 40
0.18
 90
        1
 71
     2
340
15
 90
       25
340
15
 90
       50
 40
0.24
 40
0.0
 40
0.24
 71
     3
340
11
 40
0.24
 90
        1
 40
0.75
 90
        1
300
%<\AcVar ViewType \f "%tc1">% %<\AcVar ViewSectionStartId>%-%<\AcVar ViewSectionEndId>%\PSCALE %<\AcVar ViewScale \f "%sn">%
 71
     4
300
ANSI31
 40
1.0
 90
        0
290
     0
290
     0
 90
        6
 40
0.0
 40
1.570796326794896
 40
0.2617993877991494
 40
1.308996938995747
 40
-0.2617993877991494
 40
1.832595714594046
  0
TABLESTYLE
  5
DCA6
102
{ACAD_XDICTIONARY
360
DDF7
102
}
102
{ACAD_REACTORS
330
DCA5
102
}
330
DCA5
100
AcDbTableStyle
  3
Standard
 70
     0
 71
     0
 40
0.06
 41
0.06
280
     0
281
     0
  7
STANDARD
140
0.18
170
     2
 62
     0
 63
     7
283
     0
274
    -2
284
     1
 64
     0
275
    -2
285
     1
 65
     0
276
    -2
286
     1
 66
     0
277
    -2
287
     1
 67
     0
278
    -2
288
     1
 68
     0
279
    -2
289
     1
 69
     0
  7
STANDARD
140
0.25
170
     5
 62
     0
 63
     7
283
     0
274
    -2
284
     1
 64
     0
275
    -2
285
     1
 65
     0
276
    -2
286
     1
 66
     0
277
    -2
287
     1
 67
     0
278
    -2
288
     1
 68
     0
279
    -2
289
     1
 69
     0
  7
STANDARD
140
0.18
170
     5
 62
     0
 63
     7
283
     0
274
    -2
284
     1
 64
     0
275
    -2
285
     1
 65
     0
276
    -2
286
     1
 66
     0
277
    -2
287
     1
 67
     0
278
    -2
288
     1
 68
     0
279
    -2
289
     1
 69
     0
  0
VISUALSTYLE
  5
DC91
102
{ACAD_XDICTIONARY
360
DE10
102
}
102
{ACAD_REACTORS
330
DC8B
102
}
330
DC8B
100
AcDbVisualStyle
  2
2dWireframe
 70
     4
 71
     0
 72
     2
 73
     0
 90
        0
 40
-0.6
 41
-30.0
 62
     5
 63
     7
 74
     1
 91
        4
 64
     7
 65
   257
 75
     1
175
     1
 42
1.0
 92
        0
 66
   257
 43
1.0
 76
     1
 77
     6
 78
     2
 67
     7
 79
     5
170
     0
171
     0
290
     0
174
     0
 93
        1
 44
0.0
173
     0
291
     0
 45
0.0
1001
ACAD
1000
AcDbSavedByObjectVersion
1070
     0
  0
VISUALSTYLE
  5
DC90
102
{ACAD_XDICTIONARY
360
DE0E
102
}
102
{ACAD_REACTORS
330
DC8B
102
}
330
DC8B
100
AcDbVisualStyle
  2
Basic
 70
     7
 71
     1
 72
     0
 73
     1
 90
        0
 40
-0.6
 41
-30.0
 62
     5
 63
     7
 74
     0
 91
        4
 64
     7
 65
   257
 75
     1
175
     1
 42
1.0
 92
        8
 66
     7
 43
1.0
 76
     1
 77
     6
 78
     2
 67
     7
 79
     5
170
     0
171
     0
290
     0
174
     0
 93
        1
 44
0.0
173
     0
291
     1
 45
0.0
1001
ACAD
1000
AcDbSavedByObjectVersion
1070
     0
  0
VISUALSTYLE
  5
DC97
102
{ACAD_XDICTIONARY
360
DE1C
102
}
102
{ACAD_REACTORS
330
DC8B
102
}
330
DC8B
100
AcDbVisualStyle
  2
Brighten
 70
    12
 71
     2
 72
     2
 73
     0
 90
        0
 40
-0.6
 41
-30.0
 62
     5
 63
     7
 74
     1
 91
        4
 64
     7
 65
   257
 75
     1
175
     1
 42
1.0
 92
        8
 66
     7
 43
1.0
 76
     1
 77
     6
 78
     2
 67
     7
 79
     5
170
     0
171
     0
290
     0
174
     0
 93
        1
 44
50.0
173
     0
291
     1
 45
0.0
1001
ACAD
1000
AcDbSavedByObjectVersion
1070
     0
  0
VISUALSTYLE
  5
DC9B
102
{ACAD_XDICTIONARY
360
DE24
102
}
102
{ACAD_REACTORS
330
DC8B
102
}
330
DC8B
100
AcDbVisualStyle
  2
ColorChange
 70
    16
 71
     2
 72
     2
 73
     3
 90
        0
 40
-0.6
 41
-30.0
 62
     5
 63
     8
 74
     1
 91
        4
 64
     7
 65
   257
 75
     1
175
     1
 42
1.0
 92
        8
 66
     8
 43
1.0
 76
     1
 77
     6
 78
     2
 67
     7
 79
     5
170
     0
171
     0
290
     0
174
     0
 93
        1
 44
0.0
173
     0
291
     1
 45
0.0
1001
ACAD
1000
AcDbSavedByObjectVersion
1070
     0
  0
VISUALSTYLE
  5
DC94
102
{ACAD_XDICTIONARY
360
DE16
102
}
102
{ACAD_REACTORS
330
DC8B
102
}
330
DC8B
100
AcDbVisualStyle
  2
Conceptual
 70
     9
 71
     3
 72
     2
 73
     0
 90
        0
 40
-0.6
 41
-30.0
 62
     5
 63
     7
 74
     2
 91
        2
 64
     7
 65
   257
 75
     1
175
     1
 42
179.0
 92
        8
 66
     7
 43
1.0
 76
     1
 77
     6
 78
     2
 67
     7
 79
     3
170
     0
171
     0
290
     0
174
     0
 93
        1
 44
0.0
173
     0
291
     0
 45
0.0
1001
ACAD
1000
AcDbSavedByObjectVersion
1070
     0
  0
VISUALSTYLE
  5
DC96
102
{ACAD_XDICTIONARY
360
DE1A
102
}
102
{ACAD_REACTORS
330
DC8B
102
}
330
DC8B
100
AcDbVisualStyle
  2
Dim
 70
    11
 71
     2
 72
     2
 73
     0
 90
        0
 40
-0.6
 41
-30.0
 62
     5
 63
     7
 74
     1
 91
        4
 64
     7
 65
   257
 75
     1
175
     1
 42
1.0
 92
        8
 66
     7
 43
1.0
 76
     1
 77
     6
 78
     2
 67
     7
 79
     5
170
     0
171
     0
290
     0
174
     0
 93
        1
 44
-50.0
173
     0
291
     1
 45
0.0
1001
ACAD
1000
AcDbSavedByObjectVersion
1070
     0
  0
VISUALSTYLE
  5
DCA3
102
{ACAD_XDICTIONARY
360
DE34
102
}
102
{ACAD_REACTORS
330
DC8B
102
}
330
DC8B
100
AcDbVisualStyle
  2
EdgeColorOff
 70
    22
 71
     2
 72
     2
 73
     0
 90
        0
 40
-0.6
 41
-30.0
 62
     5
 63
     7
 74
     1
 91
        4
 64
     7
 65
   257
 75
     1
175
     1
 42
1.0
 92
        8
 66
     7
 43
1.0
 76
     1
 77
     6
 78
     2
 67
     7
 79
     5
170
     0
171
     0
290
     0
174
     0
 93
        1
 44
0.0
173
     0
291
     1
 45
0.0
1001
ACAD
1000
AcDbSavedByObjectVersion
1070
     0
  0
VISUALSTYLE
  5
DC9A
102
{ACAD_XDICTIONARY
360
DE22
102
}
102
{ACAD_REACTORS
330
DC8B
102
}
330
DC8B
100
AcDbVisualStyle
  2
Facepattern
 70
    15
 71
     2
 72
     2
 73
     0
 90
        0
 40
-0.6
 41
-30.0
 62
     5
 63
     7
 74
     1
 91
        4
 64
     7
 65
   257
 75
     1
175
     1
 42
1.0
 92
        8
 66
     7
 43
1.0
 76
     1
 77
     6
 78
     2
 67
     7
 79
     5
170
     0
171
     0
290
     0
174
     0
 93
        1
 44
0.0
173
     0
291
     1
 45
0.0
1001
ACAD
1000
AcDbSavedByObjectVersion
1070
     0
  0
VISUALSTYLE
  5
DC8C
102
{ACAD_XDICTIONARY
360
DE06
102
}
102
{ACAD_REACTORS
330
DC8B
102
}
330
DC8B
100
AcDbVisualStyle
  2
Flat
 70
     0
 71
     2
 72
     1
 73
     1
 90
        2
 40
-0.6
 41
30.0
 62
     5
 63
     7
 74
     0
 91
        0
 64
     7
 65
   257
 75
     1
175
     1
 42
1.0
 92
        8
 66
     7
 43
1.0
 76
     1
 77
     6
 78
     2
 67
     7
 79
     5
170
     0
171
     0
290
     0
174
     0
 93
       13
 44
0.0
173
     0
291
     1
 45
0.0
1001
ACAD
1000
AcDbSavedByObjectVersion
1070
     0
  0
VISUALSTYLE
  5
DC8D
102
{ACAD_XDICTIONARY
360
DE08
102
}
102
{ACAD_REACTORS
330
DC8B
102
}
330
DC8B
100
AcDbVisualStyle
  2
FlatWithEdges
 70
     1
 71
     2
 72
     1
 73
     1
 90
        2
 40
-0.6
 41
30.0
 62
     5
 63
     7
 74
     1
 91
        0
 64
     7
 65
   257
 75
     1
175
     1
 42
1.0
 92
        0
 66
   257
 43
1.0
 76
     1
 77
     6
 78
     2
 67
     7
 79
     5
170
     0
171
     0
290
     0
174
     0
 93
       13
 44
0.0
173
     0
291
     1
 45
0.0
1001
ACAD
1000
AcDbSavedByObjectVersion
1070
     0
  0
VISUALSTYLE
  5
DC8E
102
{ACAD_XDICTIONARY
360
DE0A
102
}
102
{ACAD_REACTORS
330
DC8B
102
}
330
DC8B
100
AcDbVisualStyle
  2
Gouraud
 70
     2
 71
     2
 72
     2
 73
     1
 90
        2
 40
-0.6
 41
30.0
 62
     5
 63
     7
 74
     0
 91
        0
 64
     7
 65
   257
 75
     1
175
     1
 42
1.0
 92
        0
 66
     7
 43
1.0
 76
     1
 77
     6
 78
     2
 67
     7
 79
     5
170
     0
171
     0
290
     0
174
     0
 93
       13
 44
0.0
173
     0
291
     1
 45
0.0
1001
ACAD
1000
AcDbSavedByObjectVersion
1070
     0
  0
VISUALSTYLE
  5
DC8F
102
{ACAD_XDICTIONARY
360
DE0C
102
}
102
{ACAD_REACTORS
330
DC8B
102
}
330
DC8B
100
AcDbVisualStyle
  2
GouraudWithEdges
 70
     3
 71
     2
 72
     2
 73
     1
 90
        2
 40
-0.6
 41
30.0
 62
     5
 63
     7
 74
     1
 91
        0
 64
     7
 65
   257
 75
     1
175
     1
 42
1.0
 92
        0
 66
   257
 43
1.0
 76
     1
 77
     6
 78
     2
 67
     7
 79
     5
170
     0
171
     0
290
     0
174
     0
 93
       13
 44
0.0
173
     0
291
     1
 45
0.0
1001
ACAD
1000
AcDbSavedByObjectVersion
1070
     0
  0
VISUALSTYLE
  5
DC93
102
{ACAD_XDICTIONARY
360
DE14
102
}
102
{ACAD_REACTORS
330
DC8B
102
}
330
DC8B
100
AcDbVisualStyle
  2
Hidden
 70
     6
 71
     1
 72
     2
 73
     2
 90
        0
 40
-0.6
 41
-30.0
 62
     5
 63
     7
 74
     2
 91
        2
 64
     7
 65
   257
 75
     2
175
     1
 42
40.0
 92
        0
 66
   257
 43
1.0
 76
     1
 77
     6
 78
     2
 67
     7
 79
     3
170
     0
171
     0
290
     0
174
     0
 93
        1
 44
0.0
173
     0
291
     0
 45
0.0
1001
ACAD
1000
AcDbSavedByObjectVersion
1070
     0
  0
VISUALSTYLE
  5
DCA1
102
{ACAD_XDICTIONARY
360
DE30
102
}
102
{ACAD_REACTORS
330
DC8B
102
}
330
DC8B
100
AcDbVisualStyle
  2
JitterOff
 70
    20
 71
     2
 72
     2
 73
     0
 90
        0
 40
-0.6
 41
-30.0
 62
     5
 63
     7
 74
     1
 91
        4
 64
     7
 65
   257
 75
     1
175
     1
 42
1.0
 92
       10
 66
     7
 43
1.0
 76
     1
 77
     6
 78
     2
 67
     7
 79
     5
170
     0
171
     0
290
     0
174
     0
 93
        1
 44
0.0
173
     0
291
     1
 45
0.0
1001
ACAD
1000
AcDbSavedByObjectVersion
1070
     0
  0
VISUALSTYLE
  5
DC99
102
{ACAD_XDICTIONARY
360
DE20
102
}
102
{ACAD_REACTORS
330
DC8B
102
}
330
DC8B
100
AcDbVisualStyle
  2
Linepattern
 70
    14
 71
     2
 72
     2
 73
     0
 90
        0
 40
-0.6
 41
-30.0
 62
     5
 63
     7
 74
     1
 91
        4
 64
     7
 65
   257
 75
     7
175
     7
 42
1.0
 92
        8
 66
     7
 43
1.0
 76
     1
 77
     6
 78
     2
 67
     7
 79
     5
170
     0
171
     0
290
     0
174
     0
 93
        1
 44
0.0
173
     0
291
     1
 45
0.0
1001
ACAD
1000
AcDbSavedByObjectVersion
1070
     0
  0
VISUALSTYLE
  5
DCA2
102
{ACAD_XDICTIONARY
360
DE32
102
}
102
{ACAD_REACTORS
330
DC8B
102
}
330
DC8B
100
AcDbVisualStyle
  2
OverhangOff
 70
    21
 71
     2
 72
     2
 73
     0
 90
        0
 40
-0.6
 41
-30.0
 62
     5
 63
     7
 74
     1
 91
        4
 64
     7
 65
   257
 75
     1
175
     1
 42
1.0
 92
        9
 66
     7
 43
1.0
 76
     1
 77
     6
 78
     2
 67
     7
 79
     5
170
     0
171
     0
290
     0
174
     0
 93
        1
 44
0.0
173
     0
291
     1
 45
0.0
1001
ACAD
1000
AcDbSavedByObjectVersion
1070
     0
  0
VISUALSTYLE
  5
DC95
102
{ACAD_XDICTIONARY
360
DE18
102
}
102
{ACAD_REACTORS
330
DC8B
102
}
330
DC8B
100
AcDbVisualStyle
  2
Realistic
 70
     8
 71
     2
 72
     3
 73
     0
 90
        2
 40
-0.6
 41
30.0
 62
     5
 63
     7
 74
     0
 91
        0
 64
     7
 65
   257
 75
     1
175
     1
 42
1.0
 92
        8
 66
   257
 43
1.0
 76
     1
 77
     6
 78
     2
 67
     7
 79
     3
170
     0
171
     0
290
     0
174
     0
 93
       13
 44
0.0
173
     0
291
     0
 45
0.0
1001
ACAD
1000
AcDbSavedByObjectVersion
1070
     0
  0
VISUALSTYLE
  5
DCA0
102
{ACAD_XDICTIONARY
360
DE2E
102
}
102
{ACAD_REACTORS
330
DC8B
102
}
330
DC8B
100
AcDbVisualStyle
  2
Shaded
 70
    27
 71
     2
 72
     2
 73
     1
 90
        2
 40
-0.6
 41
30.0
 62
     5
 63
     7
 74
     0
 91
        4
 64
     7
 65
   257
 75
     1
175
     1
 42
1.0
 92
        8
 66
   257
 43
1.0
 76
     1
 77
     6
 78
     2
 67
     8
 79
     3
170
     0
171
     0
290
     0
174
     0
 93
        5
 44
0.0
173
     0
291
     0
 45
0.0
1001
ACAD
1000
AcDbSavedByObjectVersion
1070
     0
  0
VISUALSTYLE
  5
DC9F
102
{ACAD_XDICTIONARY
360
DE2C
102
}
102
{ACAD_REACTORS
330
DC8B
102
}
330
DC8B
100
AcDbVisualStyle
  2
Shaded with edges
 70
    26
 71
     2
 72
     2
 73
     1
 90
        2
 40
-0.6
 41
30.0
 62
     5
 63
     7
 74
     1
 91
       10
 64
     7
 65
   257
 75
     2
175
     1
 42
1.0
 92
        8
 66
   257
 43
1.0
 76
     1
 77
     6
 78
     2
 67
     7
 79
     3
170
     0
171
     0
290
     0
174
     0
 93
        5
 44
0.0
173
     0
291
     0
 45
0.0
1001
ACAD
1000
AcDbSavedByObjectVersion
1070
     0
  0
VISUALSTYLE
  5
DC9C
102
{ACAD_XDICTIONARY
360
DE26
102
}
102
{ACAD_REACTORS
330
DC8B
102
}
330
DC8B
100
AcDbVisualStyle
  2
Shades of Gray
 70
    23
 71
     2
 72
     2
 73
     3
 90
        0
 40
-0.6
 41
-30.0
 62
     5
 63
     7
 74
     2
 91
        2
 64
     7
 65
     7
 75
     1
175
     1
 42
40.0
 92
        8
 66
     7
 43
1.0
 76
     1
 77
     6
 78
     2
 67
     7
 79
     3
170
     0
171
     0
290
     0
174
     0
 93
        1
 44
0.0
173
     0
291
     0
 45
0.0
1001
ACAD
1000
AcDbSavedByObjectVersion
1070
     0
  0
VISUALSTYLE
  5
DC9D
102
{ACAD_XDICTIONARY
360
DE28
102
}
102
{ACAD_REACTORS
330
DC8B
102
}
330
DC8B
100
AcDbVisualStyle
  2
Sketchy
 70
    24
 71
     1
 72
     2
 73
     2
 90
        0
 40
-0.6
 41
-30.0
 62
     5
 63
     7
 74
     2
 91
        2
 64
     7
 65
     7
 75
     1
175
     1
 42
40.0
 92
       11
 66
     7
 43
1.0
 76
     1
 77
     6
 78
     2
 67
     7
 79
     6
170
     0
171
     0
290
     0
174
     0
 93
        1
 44
0.0
173
     0
291
     0
 45
0.0
1001
ACAD
1000
AcDbSavedByObjectVersion
1070
     0
  0
VISUALSTYLE
  5
DC98
102
{ACAD_XDICTIONARY
360
DE1E
102
}
102
{ACAD_REACTORS
330
DC8B
102
}
330
DC8B
100
AcDbVisualStyle
  2
Thicken
 70
    13
 71
     2
 72
     2
 73
     0
 90
        0
 40
-0.6
 41
-30.0
 62
     5
 63
     7
 74
     1
 91
        4
 64
     7
 65
   257
 75
     1
175
     1
 42
1.0
 92
       12
 66
     7
 43
1.0
 76
     1
 77
     6
 78
     2
 67
     7
 79
     5
170
     0
171
     0
290
     0
174
     0
 93
        1
 44
0.0
173
     0
291
     1
 45
0.0
1001
ACAD
1000
AcDbSavedByObjectVersion
1070
     0
  0
VISUALSTYLE
  5
DC92
102
{ACAD_XDICTIONARY
360
DE12
102
}
102
{ACAD_REACTORS
330
DC8B
102
}
330
DC8B
100
AcDbVisualStyle
  2
Wireframe
 70
     5
 71
     0
 72
     2
 73
     0
 90
        0
 40
-0.6
 41
-30.0
 62
     5
 63
     7
 74
     1
 91
        4
 64
     7
 65
   257
 75
     1
175
     1
 42
1.0
 92
        0
 66
   257
 43
1.0
 76
     1
 77
     6
 78
     2
 67
     7
 79
     3
170
     0
171
     0
290
     0
174
     0
 93
        1
 44
0.0
173
     0
291
     0
 45
0.0
1001
ACAD
1000
AcDbSavedByObjectVersion
1070
     0
  0
VISUALSTYLE
  5
DC9E
102
{ACAD_XDICTIONARY
360
DE2A
102
}
102
{ACAD_REACTORS
330
DC8B
102
}
330
DC8B
100
AcDbVisualStyle
  2
X-Ray
 70
    25
 71
     2
 72
     2
 73
     1
 90
        1
 40
0.5
 41
-30.0
 62
     5
 63
     7
 74
     1
 91
        0
 64
     7
 65
   257
 75
     1
175
     1
 42
1.0
 92
        8
 66
     7
 43
1.0
 76
     1
 77
     6
 78
     2
 67
     7
 79
     3
170
     0
171
     0
290
     0
174
     0
 93
       13
 44
0.0
173
     0
291
     0
 45
0.0
1001
ACAD
1000
AcDbSavedByObjectVersion
1070
     0
  0
DICTIONARYVAR
  5
DD41
102
{ACAD_REACTORS
330
5697
102
}
330
5697
100
DictionaryVariables
280
     0
  1
1:1
  0
DICTIONARYVAR
  5
DD3E
102
{ACAD_REACTORS
330
5697
102
}
330
5697
100
DictionaryVariables
280
     0
  1
STANDARD
  0
DICTIONARYVAR
  5
DD3D
102
{ACAD_REACTORS
330
5697
102
}
330
5697
100
DictionaryVariables
280
     0
  1
STANDARD
  0
DICTIONARYVAR
  5
DD3F
102
{ACAD_REACTORS
330
5697
102
}
330
5697
100
DictionaryVariables
280
     0
  1
Imperial24
  0
DICTIONARYVAR
  5
DD40
102
{ACAD_REACTORS
330
5697
102
}
330
5697
100
DictionaryVariables
280
     0
  1
Imperial24
  0
DICTIONARYVAR
  5
5698
102
{ACAD_REACTORS
330
5697
102
}
330
5697
100
DictionaryVariables
280
     0
  1
1
  0
DICTIONARYVAR
  5
DD43
102
{ACAD_REACTORS
330
5697
102
}
330
5697
100
DictionaryVariables
280
     0
  1
0
  0
DICTIONARYVAR
  5
DD42
102
{ACAD_REACTORS
330
5697
102
}
330
5697
100
DictionaryVariables
280
     0
  1
127
  0
DICTIONARYVAR
  5
DD44
102
{ACAD_REACTORS
330
5697
102
}
330
5697
100
DictionaryVariables
280
     0
  1
2
  0
DICTIONARY
  5
DE3A
330
DCBE
100
AcDbDictionary
280
     1
281
     1
  3
ACAD_XREC_ROUNDTRIP
360
DE3B
  0
DICTIONARY
  5
DDFD
330
904E
100
AcDbDictionary
280
     1
281
     1
  3
ACAD_XREC_ROUNDTRIP
360
DDFE
  0
DICTIONARY
  5
DDFF
330
904F
100
AcDbDictionary
280
     1
281
     1
  3
ACAD_XREC_ROUNDTRIP
360
DE00
  0
DICTIONARY
  5
DC7C
330
DC7B
100
AcDbDictionary
280
     1
281
     1
  3
ACAD_XREC_ROUNDTRIP
360
DE04
  3
BUMPTILE
360
DC7E
  3
DIFFUSETILE
360
DC7D
  3
OPACITYTILE
360
DC81
  3
REFLECTIONTILE
360
DC80
  3
REFRACTIONTILE
360
DC82
  3
SPECULARTILE
360
DC7F
  0
DICTIONARY
  5
DC74
330
DC73
100
AcDbDictionary
280
     1
281
     1
  3
ACAD_XREC_ROUNDTRIP
360
DE03
  3
BUMPTILE
360
DC76
  3
DIFFUSETILE
360
DC75
  3
OPACITYTILE
360
DC79
  3
REFLECTIONTILE
360
DC78
  3
REFRACTIONTILE
360
DC7A
  3
SPECULARTILE
360
DC77
  0
DICTIONARY
  5
DC84
330
DC83
100
AcDbDictionary
280
     1
281
     1
  3
ACAD_XREC_ROUNDTRIP
360
DE05
  3
BUMPTILE
360
DC86
  3
DIFFUSETILE
360
DC85
  3
OPACITYTILE
360
DC89
  3
REFLECTIONTILE
360
DC88
  3
REFRACTIONTILE
360
DC8A
  3
SPECULARTILE
360
DC87
  0
DICTIONARY
  5
DE38
330
DCBC
100
AcDbDictionary
280
     1
281
     1
  3
ACAD_XREC_ROUNDTRIP
360
DE39
  0
DICTIONARY
  5
DDF7
330
DCA6
100
AcDbDictionary
280
     1
281
     1
  3
ACAD_ROUNDTRIP_2008_TABLESTYLE_CELLSTYLEMAP
360
DDF8
  3
ACAD_XREC_ROUNDTRIP
360
DE36
  0
DICTIONARY
  5
DE10
330
DC91
100
AcDbDictionary
280
     1
281
     1
  3
ACAD_XREC_ROUNDTRIP
360
DE11
  0
DICTIONARY
  5
DE0E
330
DC90
100
AcDbDictionary
280
     1
281
     1
  3
ACAD_XREC_ROUNDTRIP
360
DE0F
  0
DICTIONARY
  5
DE1C
330
DC97
100
AcDbDictionary
280
     1
281
     1
  3
ACAD_XREC_ROUNDTRIP
360
DE1D
  0
DICTIONARY
  5
DE24
330
DC9B
100
AcDbDictionary
280
     1
281
     1
  3
ACAD_XREC_ROUNDTRIP
360
DE25
  0
DICTIONARY
  5
DE16
330
DC94
100
AcDbDictionary
280
     1
281
     1
  3
ACAD_XREC_ROUNDTRIP
360
DE17
  0
DICTIONARY
  5
DE1A
330
DC96
100
AcDbDictionary
280
     1
281
     1
  3
ACAD_XREC_ROUNDTRIP
360
DE1B
  0
DICTIONARY
  5
DE34
330
DCA3
100
AcDbDictionary
280
     1
281
     1
  3
ACAD_XREC_ROUNDTRIP
360
DE35
  0
DICTIONARY
  5
DE22
330
DC9A
100
AcDbDictionary
280
     1
281
     1
  3
ACAD_XREC_ROUNDTRIP
360
DE23
  0
DICTIONARY
  5
DE06
330
DC8C
100
AcDbDictionary
280
     1
281
     1
  3
ACAD_XREC_ROUNDTRIP
360
DE07
  0
DICTIONARY
  5
DE08
330
DC8D
100
AcDbDictionary
280
     1
281
     1
  3
ACAD_XREC_ROUNDTRIP
360
DE09
  0
DICTIONARY
  5
DE0A
330
DC8E
100
AcDbDictionary
280
     1
281
     1
  3
ACAD_XREC_ROUNDTRIP
360
DE0B
  0
DICTIONARY
  5
DE0C
330
DC8F
100
AcDbDictionary
280
     1
281
     1
  3
ACAD_XREC_ROUNDTRIP
360
DE0D
  0
DICTIONARY
  5
DE14
330
DC93
100
AcDbDictionary
280
     1
281
     1
  3
ACAD_XREC_ROUNDTRIP
360
DE15
  0
DICTIONARY
  5
DE30
330
DCA1
100
AcDbDictionary
280
     1
281
     1
  3
ACAD_XREC_ROUNDTRIP
360
DE31
  0
DICTIONARY
  5
DE20
330
DC99
100
AcDbDictionary
280
     1
281
     1
  3
ACAD_XREC_ROUNDTRIP
360
DE21
  0
DICTIONARY
  5
DE32
330
DCA2
100
AcDbDictionary
280
     1
281
     1
  3
ACAD_XREC_ROUNDTRIP
360
DE33
  0
DICTIONARY
  5
DE18
330
DC95
100
AcDbDictionary
280
     1
281
     1
  3
ACAD_XREC_ROUNDTRIP
360
DE19
  0
DICTIONARY
  5
DE2E
330
DCA0
100
AcDbDictionary
280
     1
281
     1
  3
ACAD_XREC_ROUNDTRIP
360
DE2F
  0
DICTIONARY
  5
DE2C
330
DC9F
100
AcDbDictionary
280
     1
281
     1
  3
ACAD_XREC_ROUNDTRIP
360
DE2D
  0
DICTIONARY
  5
DE26
330
DC9C
100
AcDbDictionary
280
     1
281
     1
  3
ACAD_XREC_ROUNDTRIP
360
DE27
  0
DICTIONARY
  5
DE28
330
DC9D
100
AcDbDictionary
280
     1
281
     1
  3
ACAD_XREC_ROUNDTRIP
360
DE29
  0
DICTIONARY
  5
DE1E
330
DC98
100
AcDbDictionary
280
     1
281
     1
  3
ACAD_XREC_ROUNDTRIP
360
DE1F
  0
DICTIONARY
  5
DE12
330
DC92
100
AcDbDictionary
280
     1
281
     1
  3
ACAD_XREC_ROUNDTRIP
360
DE13
  0
DICTIONARY
  5
DE2A
330
DC9E
100
AcDbDictionary
280
     1
281
     1
  3
ACAD_XREC_ROUNDTRIP
360
DE2B
  0
XRECORD
  5
DE3B
102
{ACAD_REACTORS
330
DE3A
102
}
330
DE3A
100
AcDbXrecord
280
     1
102
DISPLAYNAME
  1
Imperial24
102
FLAGS
 90
        0
  0
XRECORD
  5
DDFE
102
{ACAD_REACTORS
330
DDFD
102
}
330
DDFD
100
AcDbXrecord
280
     1
102
SHADEPLOT
 70
     0
102
SHADEPLOTRESLEVEL
 70
     2
102
SHADEPLOTCUSTOMDPI
 70
   300
  0
XRECORD
  5
DE00
102
{ACAD_REACTORS
330
DDFF
102
}
330
DDFF
100
AcDbXrecord
280
     1
102
SHADEPLOT
 70
     0
102
SHADEPLOTRESLEVEL
 70
     2
102
SHADEPLOTCUSTOMDPI
 70
   300
  0
XRECORD
  5
DE04
102
{ACAD_REACTORS
330
DC7C
102
}
330
DC7C
100
AcDbXrecord
280
     1
102
MATERIAL
148
0.0
149
0.0
149
0.0
 93
        0
 94
      127
282
     0
 72
     0
 77
     0
171
     0
175
     0
179
     0
273
     0
  0
XRECORD
  5
DC7E
102
{ACAD_REACTORS
330
DC7C
102
}
330
DC7C
100
AcDbXrecord
280
     1
270
     1
271
     1
  0
XRECORD
  5
DC7D
102
{ACAD_REACTORS
330
DC7C
102
}
330
DC7C
100
AcDbXrecord
280
     1
270
     1
271
     1
  0
XRECORD
  5
DC81
102
{ACAD_REACTORS
330
DC7C
102
}
330
DC7C
100
AcDbXrecord
280
     1
270
     1
271
     1
  0
XRECORD
  5
DC80
102
{ACAD_REACTORS
330
DC7C
102
}
330
DC7C
100
AcDbXrecord
280
     1
270
     1
271
     1
  0
XRECORD
  5
DC82
102
{ACAD_REACTORS
330
DC7C
102
}
330
DC7C
100
AcDbXrecord
280
     1
270
     1
271
     1
  0
XRECORD
  5
DC7F
102
{ACAD_REACTORS
330
DC7C
102
}
330
DC7C
100
AcDbXrecord
280
     1
270
     1
271
     1
  0
XRECORD
  5
DE03
102
{ACAD_REACTORS
330
DC74
102
}
330
DC74
100
AcDbXrecord
280
     1
102
MATERIAL
148
0.0
149
0.0
149
0.0
 93
        0
 94
      127
282
     0
 72
     0
 77
     0
171
     0
175
     0
179
     0
273
     0
  0
XRECORD
  5
DC76
102
{ACAD_REACTORS
330
DC74
102
}
330
DC74
100
AcDbXrecord
280
     1
270
     1
271
     1
  0
XRECORD
  5
DC75
102
{ACAD_REACTORS
330
DC74
102
}
330
DC74
100
AcDbXrecord
280
     1
270
     1
271
     1
  0
XRECORD
  5
DC79
102
{ACAD_REACTORS
330
DC74
102
}
330
DC74
100
AcDbXrecord
280
     1
270
     1
271
     1
  0
XRECORD
  5
DC78
102
{ACAD_REACTORS
330
DC74
102
}
330
DC74
100
AcDbXrecord
280
     1
270
     1
271
     1
  0
XRECORD
  5
DC7A
102
{ACAD_REACTORS
330
DC74
102
}
330
DC74
100
AcDbXrecord
280
     1
270
     1
271
     1
  0
XRECORD
  5
DC77
102
{ACAD_REACTORS
330
DC74
102
}
330
DC74
100
AcDbXrecord
280
     1
270
     1
271
     1
  0
XRECORD
  5
DE05
102
{ACAD_REACTORS
330
DC84
102
}
330
DC84
100
AcDbXrecord
280
     1
102
MATERIAL
148
0.0
149
0.0
149
0.0
 93
        0
 94
      127
282
     0
 72
     0
 77
     0
171
     0
175
     0
179
     0
273
     0
  0
XRECORD
  5
DC86
102
{ACAD_REACTORS
330
DC84
102
}
330
DC84
100
AcDbXrecord
280
     1
270
     1
271
     1
  0
XRECORD
  5
DC85
102
{ACAD_REACTORS
330
DC84
102
}
330
DC84
100
AcDbXrecord
280
     1
270
     1
271
     1
  0
XRECORD
  5
DC89
102
{ACAD_REACTORS
330
DC84
102
}
330
DC84
100
AcDbXrecord
280
     1
270
     1
271
     1
  0
XRECORD
  5
DC88
102
{ACAD_REACTORS
330
DC84
102
}
330
DC84
100
AcDbXrecord
280
     1
270
     1
271
     1
  0
XRECORD
  5
DC8A
102
{ACAD_REACTORS
330
DC84
102
}
330
DC84
100
AcDbXrecord
280
     1
270
     1
271
     1
  0
XRECORD
  5
DC87
102
{ACAD_REACTORS
330
DC84
102
}
330
DC84
100
AcDbXrecord
280
     1
270
     1
271
     1
  0
XRECORD
  5
DE39
102
{ACAD_REACTORS
330
DE38
102
}
330
DE38
100
AcDbXrecord
280
     1
102
DISPLAYNAME
  1
Imperial24
102
FLAGS
 90
        0
  0
CELLSTYLEMAP
  5
DDF8
102
{ACAD_REACTORS
330
DDF7
102
}
330
DDF7
100
AcDbCellStyleMap
 90
        3
300
CELLSTYLE
  1
TABLEFORMAT_BEGIN
 90
        5
170
     1
 91
        0
 92
    32768
 62
   257
 93
        1
300
CONTENTFORMAT
  1
CONTENTFORMAT_BEGIN
 90
        0
 91
        0
 92
      512
 93
        0
300

 40
0.0
140
1.0
 94
        5
 62
     0
340
11
144
0.25
309
CONTENTFORMAT_END
171
     0
 94
        0
309
TABLEFORMAT_END
  1
CELLSTYLE_BEGIN
 90
        1
 91
        1
300
_TITLE
309
CELLSTYLE_END
300
CELLSTYLE
  1
TABLEFORMAT_BEGIN
 90
        5
170
     1
 91
        0
 92
        0
 62
   257
 93
        1
300
CONTENTFORMAT
  1
CONTENTFORMAT_BEGIN
 90
        0
 91
        0
 92
      512
 93
        0
300

 40
0.0
140
1.0
 94
        5
 62
     0
340
11
144
0.18
309
CONTENTFORMAT_END
171
     0
 94
        0
309
TABLEFORMAT_END
  1
CELLSTYLE_BEGIN
 90
        2
 91
        1
300
_HEADER
309
CELLSTYLE_END
300
CELLSTYLE
  1
TABLEFORMAT_BEGIN
 90
        5
170
     1
 91
        0
 92
        0
 62
   257
 93
        1
300
CONTENTFORMAT
  1
CONTENTFORMAT_BEGIN
 90
        0
 91
        0
 92
      512
 93
        0
300

 40
0.0
140
1.0
 94
        2
 62
     0
340
11
144
0.18
309
CONTENTFORMAT_END
171
     0
 94
        0
309
TABLEFORMAT_END
  1
CELLSTYLE_BEGIN
 90
        3
 91
        2
300
_DATA
309
CELLSTYLE_END
  0
XRECORD
  5
DE36
102
{ACAD_REACTORS
330
DDF7
102
}
330
DDF7
100
AcDbXrecord
280
     1
102
ACAD_ROUNDTRIP_PRE2007_TABLESTYLE
 90
      512
 91
        0
  1

 92
      512
 93
        0
  2

 94
      512
 95
        0
  3

  0
XRECORD
  5
DE11
102
{ACAD_REACTORS
330
DE10
102
}
330
DE10
100
AcDbXrecord
280
     1
102
RTVSPost2010Prop28
280
     1
102
RTVSPost2010PropOp28
 70
     1
102
RTVSPost2010Prop29
280
     1
102
RTVSPost2010PropOp29
 70
     1
102
RTVSPost2010Prop30
280
     0
102
RTVSPost2010PropOp30
 70
     1
102
RTVSPost2010Prop31
280
     0
102
RTVSPost2010PropOp31
 70
     1
102
RTVSPost2010Prop32
280
     0
102
RTVSPost2010PropOp32
 70
     1
102
RTVSPost2010Prop33
280
     0
102
RTVSPost2010PropOp33
 70
     1
102
RTVSPost2010Prop34
280
     0
102
RTVSPost2010PropOp34
 70
     1
102
RTVSPost2010Prop35
280
     0
102
RTVSPost2010PropOp35
 70
     1
102
RTVSPost2010Prop36
280
     0
102
RTVSPost2010PropOp36
 70
     1
102
RTVSPost2010Prop37
 90
       50
102
RTVSPost2010PropOp37
 70
     1
102
RTVSPost2010Prop38
140
0.0
102
RTVSPost2010PropOp38
 70
     1
102
RTVSPost2010Prop39
140
1.0
102
RTVSPost2010PropOp39
 70
     1
102
RTVSPost2010Prop40
 90
        0
102
RTVSPost2010PropOp40
 70
     1
102
RTVSPost2010Prop41ColorIndex
 90
       18
102
RTVSPost2010Prop41ColorRGB
 90
        0
102
RTVSPost2010PropOp41
 70
     1
102
RTVSPost2010Prop42
 90
       50
102
RTVSPost2010PropOp42
 70
     1
102
RTVSPost2010Prop43
 90
        3
102
RTVSPost2010PropOp43
 70
     1
102
RTVSPost2010Prop44ColorIndex
 90
        5
102
RTVSPost2010Prop44ColorRGB
 90
      255
102
RTVSPost2010PropOp44
 70
     1
102
RTVSPost2010Prop45
280
     0
102
RTVSPost2010PropOp45
 70
     1
102
RTVSPost2010Prop46
 90
       50
102
RTVSPost2010PropOp46
 70
     1
102
RTVSPost2010Prop47
 90
       50
102
RTVSPost2010PropOp47
 70
     1
102
RTVSPost2010Prop48
 90
       50
102
RTVSPost2010PropOp48
 70
     1
102
RTVSPost2010Prop49
280
     0
102
RTVSPost2010PropOp49
 70
     1
102
RTVSPost2010Prop50
 90
       50
102
RTVSPost2010PropOp50
 70
     1
102
RTVSPost2010Prop51ColorIndex
 90
      256
102
RTVSPost2010Prop51ColorRGB
 90
-16777216
102
RTVSPost2010PropOp51
 70
     0
102
RTVSPost2010Prop52
140
1.0
102
RTVSPost2010PropOp52
 70
     0
102
RTVSPost2010Prop53
 90
        2
102
RTVSPost2010PropOp53
 70
     1
102
RTVSPost2010Prop54
  1
strokes_ogs.tif
102
RTVSPost2010PropOp54
 70
     1
102
RTVSPost2010Prop55
280
     0
102
RTVSPost2010PropOp55
 70
     1
102
RTVSPost2010Prop56
140
1.0
102
RTVSPost2010PropOp56
 70
     1
102
RTVSPost2010Prop57
140
1.0
102
RTVSPost2010PropOp57
 70
     1
102
RTVSPropertyOp0
 70
     1
102
RTVSPropertyOp1
 70
     1
102
RTVSPropertyOp2
 70
     1
102
RTVSPropertyOp3
 70
     1
102
RTVSPropertyOp4
 70
     1
102
RTVSPropertyOp5
 70
     1
102
RTVSPropertyOp6
 70
     1
102
RTVSPropertyOp7
 70
     1
102
RTVSPropertyOp8
 70
     1
102
RTVSPropertyOp9
 70
     1
102
RTVSPropertyOp10
 70
     1
102
RTVSPropertyOp11
 70
     1
102
RTVSPropertyOp12
 70
     1
102
RTVSPropertyOp13
 70
     1
102
RTVSPropertyOp14
 70
     1
102
RTVSPropertyOp15
 70
     1
102
RTVSPropertyOp16
 70
     1
102
RTVSPropertyOp17
 70
     1
102
RTVSPropertyOp18
 70
     1
102
RTVSPropertyOp19
 70
     1
102
RTVSPropertyOp20
 70
     1
102
RTVSPropertyOp21
 70
     1
102
RTVSPropertyOp22
 70
     1
102
RTVSPropertyOp23
 70
     1
102
RTVSPropertyOp24
 70
     1
102
RTVSPropertyOp25
 70
     1
102
RTVSPropertyOp26
 70
     1
102
RTVSPropertyOp27
 70
     1
102
RTVSPropertyOp28
 70
     1
102
RTVSPropertyOp29
 70
     1
102
RTVSPropertyOp30
 70
     1
102
RTVSPropertyOp31
 70
     1
102
RTVSPropertyOp32
 70
     1
102
RTVSPropertyOp33
 70
     1
102
RTVSPropertyOp34
 70
     1
102
RTVSPropertyOp35
 70
     1
102
RTVSPropertyOp36
 70
     1
102
RTVSPropertyOp37
 70
     1
102
RTVSPropertyOp38
 70
     1
102
RTVSPropertyOp39
 70
     1
102
RTVSPropertyOp40
 70
     1
102
RTVSPropertyOp41
 70
     1
102
RTVSPropertyOp42
 70
     1
102
RTVSPropertyOp43
 70
     1
102
RTVSPropertyOp44
 70
     1
102
RTVSPropertyOp45
 70
     1
102
RTVSPropertyOp46
 70
     1
102
RTVSPropertyOp47
 70
     1
102
RTVSPropertyOp48
 70
     1
102
RTVSPropertyOp49
 70
     1
102
RTVSPropertyOp50
 70
     1
102
RTVSPropertyOp51
 70
     0
102
RTVSPropertyOp52
 70
     0
102
RTVSPropertyOp53
 70
     1
102
RTVSPropertyOp54
 70
     1
102
RTVSPropertyOp55
 70
     1
102
RTVSPropertyOp56
 70
     1
102
RTVSPropertyOp57
 70
     1
102
RTVSPropertyOp58
 70
     1
102
RTVSPropertyOp59
 70
     1
102
RTVSPropertyOp60
 70
     1
102
RTVSPropertyOp61
 70
     1
102
RTVSPropertyOp62
 70
     1
  0
XRECORD
  5
DE0F
102
{ACAD_REACTORS
330
DE0E
102
}
330
DE0E
100
AcDbXrecord
280
     1
102
RTVSPost2010Prop28
280
     0
102
RTVSPost2010PropOp28
 70
     1
102
RTVSPost2010Prop29
280
     1
102
RTVSPost2010PropOp29
 70
     1
102
RTVSPost2010Prop30
280
     1
102
RTVSPost2010PropOp30
 70
     1
102
RTVSPost2010Prop31
280
     0
102
RTVSPost2010PropOp31
 70
     1
102
RTVSPost2010Prop32
280
     0
102
RTVSPost2010PropOp32
 70
     1
102
RTVSPost2010Prop33
280
     0
102
RTVSPost2010PropOp33
 70
     1
102
RTVSPost2010Prop34
280
     0
102
RTVSPost2010PropOp34
 70
     1
102
RTVSPost2010Prop35
280
     0
102
RTVSPost2010PropOp35
 70
     1
102
RTVSPost2010Prop36
280
     0
102
RTVSPost2010PropOp36
 70
     1
102
RTVSPost2010Prop37
 90
       50
102
RTVSPost2010PropOp37
 70
     1
102
RTVSPost2010Prop38
140
0.0
102
RTVSPost2010PropOp38
 70
     1
102
RTVSPost2010Prop39
140
1.0
102
RTVSPost2010PropOp39
 70
     1
102
RTVSPost2010Prop40
 90
        0
102
RTVSPost2010PropOp40
 70
     1
102
RTVSPost2010Prop41ColorIndex
 90
       18
102
RTVSPost2010Prop41ColorRGB
 90
        0
102
RTVSPost2010PropOp41
 70
     1
102
RTVSPost2010Prop42
 90
       50
102
RTVSPost2010PropOp42
 70
     1
102
RTVSPost2010Prop43
 90
        3
102
RTVSPost2010PropOp43
 70
     1
102
RTVSPost2010Prop44ColorIndex
 90
        5
102
RTVSPost2010Prop44ColorRGB
 90
      255
102
RTVSPost2010PropOp44
 70
     1
102
RTVSPost2010Prop45
280
     0
102
RTVSPost2010PropOp45
 70
     1
102
RTVSPost2010Prop46
 90
       50
102
RTVSPost2010PropOp46
 70
     1
102
RTVSPost2010Prop47
 90
       50
102
RTVSPost2010PropOp47
 70
     1
102
RTVSPost2010Prop48
 90
       50
102
RTVSPost2010PropOp48
 70
     1
102
RTVSPost2010Prop49
280
     0
102
RTVSPost2010PropOp49
 70
     1
102
RTVSPost2010Prop50
 90
       50
102
RTVSPost2010PropOp50
 70
     1
102
RTVSPost2010Prop51ColorIndex
 90
      256
102
RTVSPost2010Prop51ColorRGB
 90
-16777216
102
RTVSPost2010PropOp51
 70
     0
102
RTVSPost2010Prop52
140
1.0
102
RTVSPost2010PropOp52
 70
     0
102
RTVSPost2010Prop53
 90
        2
102
RTVSPost2010PropOp53
 70
     1
102
RTVSPost2010Prop54
  1
strokes_ogs.tif
102
RTVSPost2010PropOp54
 70
     1
102
RTVSPost2010Prop55
280
     0
102
RTVSPost2010PropOp55
 70
     1
102
RTVSPost2010Prop56
140
1.0
102
RTVSPost2010PropOp56
 70
     1
102
RTVSPost2010Prop57
140
1.0
102
RTVSPost2010PropOp57
 70
     1
102
RTVSPropertyOp0
 70
     1
102
RTVSPropertyOp1
 70
     1
102
RTVSPropertyOp2
 70
     1
102
RTVSPropertyOp3
 70
     1
102
RTVSPropertyOp4
 70
     1
102
RTVSPropertyOp5
 70
     1
102
RTVSPropertyOp6
 70
     1
102
RTVSPropertyOp7
 70
     1
102
RTVSPropertyOp8
 70
     1
102
RTVSPropertyOp9
 70
     1
102
RTVSPropertyOp10
 70
     1
102
RTVSPropertyOp11
 70
     1
102
RTVSPropertyOp12
 70
     1
102
RTVSPropertyOp13
 70
     1
102
RTVSPropertyOp14
 70
     1
102
RTVSPropertyOp15
 70
     1
102
RTVSPropertyOp16
 70
     1
102
RTVSPropertyOp17
 70
     1
102
RTVSPropertyOp18
 70
     1
102
RTVSPropertyOp19
 70
     1
102
RTVSPropertyOp20
 70
     1
102
RTVSPropertyOp21
 70
     1
102
RTVSPropertyOp22
 70
     1
102
RTVSPropertyOp23
 70
     1
102
RTVSPropertyOp24
 70
     1
102
RTVSPropertyOp25
 70
     1
102
RTVSPropertyOp26
 70
     1
102
RTVSPropertyOp27
 70
     1
102
RTVSPropertyOp28
 70
     1
102
RTVSPropertyOp29
 70
     1
102
RTVSPropertyOp30
 70
     1
102
RTVSPropertyOp31
 70
     1
102
RTVSPropertyOp32
 70
     1
102
RTVSPropertyOp33
 70
     1
102
RTVSPropertyOp34
 70
     1
102
RTVSPropertyOp35
 70
     1
102
RTVSPropertyOp36
 70
     1
102
RTVSPropertyOp37
 70
     1
102
RTVSPropertyOp38
 70
     1
102
RTVSPropertyOp39
 70
     1
102
RTVSPropertyOp40
 70
     1
102
RTVSPropertyOp41
 70
     1
102
RTVSPropertyOp42
 70
     1
102
RTVSPropertyOp43
 70
     1
102
RTVSPropertyOp44
 70
     1
102
RTVSPropertyOp45
 70
     1
102
RTVSPropertyOp46
 70
     1
102
RTVSPropertyOp47
 70
     1
102
RTVSPropertyOp48
 70
     1
102
RTVSPropertyOp49
 70
     1
102
RTVSPropertyOp50
 70
     1
102
RTVSPropertyOp51
 70
     0
102
RTVSPropertyOp52
 70
     0
102
RTVSPropertyOp53
 70
     1
102
RTVSPropertyOp54
 70
     1
102
RTVSPropertyOp55
 70
     1
102
RTVSPropertyOp56
 70
     1
102
RTVSPropertyOp57
 70
     1
102
RTVSPropertyOp58
 70
     1
102
RTVSPropertyOp59
 70
     1
102
RTVSPropertyOp60
 70
     1
102
RTVSPropertyOp61
 70
     1
102
RTVSPropertyOp62
 70
     1
  0
XRECORD
  5
DE1D
102
{ACAD_REACTORS
330
DE1C
102
}
330
DE1C
100
AcDbXrecord
280
     1
102
RTVSPost2010Prop28
280
     0
102
RTVSPost2010PropOp28
 70
     1
102
RTVSPost2010Prop29
280
     1
102
RTVSPost2010PropOp29
 70
     1
102
RTVSPost2010Prop30
280
     1
102
RTVSPost2010PropOp30
 70
     1
102
RTVSPost2010Prop31
280
     0
102
RTVSPost2010PropOp31
 70
     1
102
RTVSPost2010Prop32
280
     0
102
RTVSPost2010PropOp32
 70
     1
102
RTVSPost2010Prop33
280
     0
102
RTVSPost2010PropOp33
 70
     1
102
RTVSPost2010Prop34
280
     0
102
RTVSPost2010PropOp34
 70
     1
102
RTVSPost2010Prop35
280
     0
102
RTVSPost2010PropOp35
 70
     1
102
RTVSPost2010Prop36
280
     0
102
RTVSPost2010PropOp36
 70
     1
102
RTVSPost2010Prop37
 90
       50
102
RTVSPost2010PropOp37
 70
     1
102
RTVSPost2010Prop38
140
0.0
102
RTVSPost2010PropOp38
 70
     1
102
RTVSPost2010Prop39
140
1.0
102
RTVSPost2010PropOp39
 70
     1
102
RTVSPost2010Prop40
 90
        0
102
RTVSPost2010PropOp40
 70
     1
102
RTVSPost2010Prop41ColorIndex
 90
       18
102
RTVSPost2010Prop41ColorRGB
 90
        0
102
RTVSPost2010PropOp41
 70
     1
102
RTVSPost2010Prop42
 90
       50
102
RTVSPost2010PropOp42
 70
     1
102
RTVSPost2010Prop43
 90
        3
102
RTVSPost2010PropOp43
 70
     1
102
RTVSPost2010Prop44ColorIndex
 90
        5
102
RTVSPost2010Prop44ColorRGB
 90
      255
102
RTVSPost2010PropOp44
 70
     1
102
RTVSPost2010Prop45
280
     0
102
RTVSPost2010PropOp45
 70
     1
102
RTVSPost2010Prop46
 90
       50
102
RTVSPost2010PropOp46
 70
     1
102
RTVSPost2010Prop47
 90
       50
102
RTVSPost2010PropOp47
 70
     1
102
RTVSPost2010Prop48
 90
       50
102
RTVSPost2010PropOp48
 70
     1
102
RTVSPost2010Prop49
280
     0
102
RTVSPost2010PropOp49
 70
     1
102
RTVSPost2010Prop50
 90
       50
102
RTVSPost2010PropOp50
 70
     1
102
RTVSPost2010Prop51ColorIndex
 90
      256
102
RTVSPost2010Prop51ColorRGB
 90
-16777216
102
RTVSPost2010PropOp51
 70
     0
102
RTVSPost2010Prop52
140
1.0
102
RTVSPost2010PropOp52
 70
     0
102
RTVSPost2010Prop53
 90
        2
102
RTVSPost2010PropOp53
 70
     1
102
RTVSPost2010Prop54
  1
strokes_ogs.tif
102
RTVSPost2010PropOp54
 70
     1
102
RTVSPost2010Prop55
280
     0
102
RTVSPost2010PropOp55
 70
     1
102
RTVSPost2010Prop56
140
1.0
102
RTVSPost2010PropOp56
 70
     1
102
RTVSPost2010Prop57
140
1.0
102
RTVSPost2010PropOp57
 70
     1
102
RTVSPropertyOp0
 70
     1
102
RTVSPropertyOp1
 70
     1
102
RTVSPropertyOp2
 70
     1
102
RTVSPropertyOp3
 70
     1
102
RTVSPropertyOp4
 70
     1
102
RTVSPropertyOp5
 70
     1
102
RTVSPropertyOp6
 70
     1
102
RTVSPropertyOp7
 70
     1
102
RTVSPropertyOp8
 70
     1
102
RTVSPropertyOp9
 70
     1
102
RTVSPropertyOp10
 70
     1
102
RTVSPropertyOp11
 70
     1
102
RTVSPropertyOp12
 70
     1
102
RTVSPropertyOp13
 70
     1
102
RTVSPropertyOp14
 70
     1
102
RTVSPropertyOp15
 70
     1
102
RTVSPropertyOp16
 70
     1
102
RTVSPropertyOp17
 70
     1
102
RTVSPropertyOp18
 70
     1
102
RTVSPropertyOp19
 70
     1
102
RTVSPropertyOp20
 70
     1
102
RTVSPropertyOp21
 70
     1
102
RTVSPropertyOp22
 70
     1
102
RTVSPropertyOp23
 70
     1
102
RTVSPropertyOp24
 70
     1
102
RTVSPropertyOp25
 70
     1
102
RTVSPropertyOp26
 70
     1
102
RTVSPropertyOp27
 70
     1
102
RTVSPropertyOp28
 70
     1
102
RTVSPropertyOp29
 70
     1
102
RTVSPropertyOp30
 70
     1
102
RTVSPropertyOp31
 70
     1
102
RTVSPropertyOp32
 70
     1
102
RTVSPropertyOp33
 70
     1
102
RTVSPropertyOp34
 70
     1
102
RTVSPropertyOp35
 70
     1
102
RTVSPropertyOp36
 70
     1
102
RTVSPropertyOp37
 70
     1
102
RTVSPropertyOp38
 70
     1
102
RTVSPropertyOp39
 70
     1
102
RTVSPropertyOp40
 70
     1
102
RTVSPropertyOp41
 70
     1
102
RTVSPropertyOp42
 70
     1
102
RTVSPropertyOp43
 70
     1
102
RTVSPropertyOp44
 70
     1
102
RTVSPropertyOp45
 70
     1
102
RTVSPropertyOp46
 70
     1
102
RTVSPropertyOp47
 70
     1
102
RTVSPropertyOp48
 70
     1
102
RTVSPropertyOp49
 70
     1
102
RTVSPropertyOp50
 70
     1
102
RTVSPropertyOp51
 70
     0
102
RTVSPropertyOp52
 70
     0
102
RTVSPropertyOp53
 70
     1
102
RTVSPropertyOp54
 70
     1
102
RTVSPropertyOp55
 70
     1
102
RTVSPropertyOp56
 70
     1
102
RTVSPropertyOp57
 70
     1
102
RTVSPropertyOp58
 70
     1
102
RTVSPropertyOp59
 70
     1
102
RTVSPropertyOp60
 70
     1
102
RTVSPropertyOp61
 70
     1
102
RTVSPropertyOp62
 70
     1
  0
XRECORD
  5
DE25
102
{ACAD_REACTORS
330
DE24
102
}
330
DE24
100
AcDbXrecord
280
     1
102
RTVSPost2010Prop28
280
     0
102
RTVSPost2010PropOp28
 70
     1
102
RTVSPost2010Prop29
280
     1
102
RTVSPost2010PropOp29
 70
     1
102
RTVSPost2010Prop30
280
     1
102
RTVSPost2010PropOp30
 70
     1
102
RTVSPost2010Prop31
280
     0
102
RTVSPost2010PropOp31
 70
     1
102
RTVSPost2010Prop32
280
     0
102
RTVSPost2010PropOp32
 70
     1
102
RTVSPost2010Prop33
280
     0
102
RTVSPost2010PropOp33
 70
     1
102
RTVSPost2010Prop34
280
     0
102
RTVSPost2010PropOp34
 70
     1
102
RTVSPost2010Prop35
280
     0
102
RTVSPost2010PropOp35
 70
     1
102
RTVSPost2010Prop36
280
     0
102
RTVSPost2010PropOp36
 70
     1
102
RTVSPost2010Prop37
 90
       50
102
RTVSPost2010PropOp37
 70
     1
102
RTVSPost2010Prop38
140
0.0
102
RTVSPost2010PropOp38
 70
     1
102
RTVSPost2010Prop39
140
1.0
102
RTVSPost2010PropOp39
 70
     1
102
RTVSPost2010Prop40
 90
        0
102
RTVSPost2010PropOp40
 70
     1
102
RTVSPost2010Prop41ColorIndex
 90
       18
102
RTVSPost2010Prop41ColorRGB
 90
        0
102
RTVSPost2010PropOp41
 70
     1
102
RTVSPost2010Prop42
 90
       50
102
RTVSPost2010PropOp42
 70
     1
102
RTVSPost2010Prop43
 90
        3
102
RTVSPost2010PropOp43
 70
     1
102
RTVSPost2010Prop44ColorIndex
 90
        5
102
RTVSPost2010Prop44ColorRGB
 90
      255
102
RTVSPost2010PropOp44
 70
     1
102
RTVSPost2010Prop45
280
     0
102
RTVSPost2010PropOp45
 70
     1
102
RTVSPost2010Prop46
 90
       50
102
RTVSPost2010PropOp46
 70
     1
102
RTVSPost2010Prop47
 90
       50
102
RTVSPost2010PropOp47
 70
     1
102
RTVSPost2010Prop48
 90
       50
102
RTVSPost2010PropOp48
 70
     1
102
RTVSPost2010Prop49
280
     0
102
RTVSPost2010PropOp49
 70
     1
102
RTVSPost2010Prop50
 90
       50
102
RTVSPost2010PropOp50
 70
     1
102
RTVSPost2010Prop51ColorIndex
 90
      256
102
RTVSPost2010Prop51ColorRGB
 90
-16777216
102
RTVSPost2010PropOp51
 70
     0
102
RTVSPost2010Prop52
140
1.0
102
RTVSPost2010PropOp52
 70
     0
102
RTVSPost2010Prop53
 90
        2
102
RTVSPost2010PropOp53
 70
     1
102
RTVSPost2010Prop54
  1
strokes_ogs.tif
102
RTVSPost2010PropOp54
 70
     1
102
RTVSPost2010Prop55
280
     0
102
RTVSPost2010PropOp55
 70
     1
102
RTVSPost2010Prop56
140
1.0
102
RTVSPost2010PropOp56
 70
     1
102
RTVSPost2010Prop57
140
1.0
102
RTVSPost2010PropOp57
 70
     1
102
RTVSPropertyOp0
 70
     1
102
RTVSPropertyOp1
 70
     1
102
RTVSPropertyOp2
 70
     1
102
RTVSPropertyOp3
 70
     1
102
RTVSPropertyOp4
 70
     1
102
RTVSPropertyOp5
 70
     1
102
RTVSPropertyOp6
 70
     1
102
RTVSPropertyOp7
 70
     1
102
RTVSPropertyOp8
 70
     1
102
RTVSPropertyOp9
 70
     1
102
RTVSPropertyOp10
 70
     1
102
RTVSPropertyOp11
 70
     1
102
RTVSPropertyOp12
 70
     1
102
RTVSPropertyOp13
 70
     1
102
RTVSPropertyOp14
 70
     1
102
RTVSPropertyOp15
 70
     1
102
RTVSPropertyOp16
 70
     1
102
RTVSPropertyOp17
 70
     1
102
RTVSPropertyOp18
 70
     1
102
RTVSPropertyOp19
 70
     1
102
RTVSPropertyOp20
 70
     1
102
RTVSPropertyOp21
 70
     1
102
RTVSPropertyOp22
 70
     1
102
RTVSPropertyOp23
 70
     1
102
RTVSPropertyOp24
 70
     1
102
RTVSPropertyOp25
 70
     1
102
RTVSPropertyOp26
 70
     1
102
RTVSPropertyOp27
 70
     1
102
RTVSPropertyOp28
 70
     1
102
RTVSPropertyOp29
 70
     1
102
RTVSPropertyOp30
 70
     1
102
RTVSPropertyOp31
 70
     1
102
RTVSPropertyOp32
 70
     1
102
RTVSPropertyOp33
 70
     1
102
RTVSPropertyOp34
 70
     1
102
RTVSPropertyOp35
 70
     1
102
RTVSPropertyOp36
 70
     1
102
RTVSPropertyOp37
 70
     1
102
RTVSPropertyOp38
 70
     1
102
RTVSPropertyOp39
 70
     1
102
RTVSPropertyOp40
 70
     1
102
RTVSPropertyOp41
 70
     1
102
RTVSPropertyOp42
 70
     1
102
RTVSPropertyOp43
 70
     1
102
RTVSPropertyOp44
 70
     1
102
RTVSPropertyOp45
 70
     1
102
RTVSPropertyOp46
 70
     1
102
RTVSPropertyOp47
 70
     1
102
RTVSPropertyOp48
 70
     1
102
RTVSPropertyOp49
 70
     1
102
RTVSPropertyOp50
 70
     1
102
RTVSPropertyOp51
 70
     0
102
RTVSPropertyOp52
 70
     0
102
RTVSPropertyOp53
 70
     1
102
RTVSPropertyOp54
 70
     1
102
RTVSPropertyOp55
 70
     1
102
RTVSPropertyOp56
 70
     1
102
RTVSPropertyOp57
 70
     1
102
RTVSPropertyOp58
 70
     1
102
RTVSPropertyOp59
 70
     1
102
RTVSPropertyOp60
 70
     1
102
RTVSPropertyOp61
 70
     1
102
RTVSPropertyOp62
 70
     1
  0
XRECORD
  5
DE17
102
{ACAD_REACTORS
330
DE16
102
}
330
DE16
100
AcDbXrecord
280
     1
102
RTVSPost2010Prop28
280
     0
102
RTVSPost2010PropOp28
 70
     1
102
RTVSPost2010Prop29
280
     1
102
RTVSPost2010PropOp29
 70
     1
102
RTVSPost2010Prop30
280
     1
102
RTVSPost2010PropOp30
 70
     1
102
RTVSPost2010Prop31
280
     0
102
RTVSPost2010PropOp31
 70
     1
102
RTVSPost2010Prop32
280
     0
102
RTVSPost2010PropOp32
 70
     1
102
RTVSPost2010Prop33
280
     0
102
RTVSPost2010PropOp33
 70
     1
102
RTVSPost2010Prop34
280
     0
102
RTVSPost2010PropOp34
 70
     1
102
RTVSPost2010Prop35
280
     0
102
RTVSPost2010PropOp35
 70
     1
102
RTVSPost2010Prop36
280
     0
102
RTVSPost2010PropOp36
 70
     1
102
RTVSPost2010Prop37
 90
       50
102
RTVSPost2010PropOp37
 70
     1
102
RTVSPost2010Prop38
140
0.0
102
RTVSPost2010PropOp38
 70
     1
102
RTVSPost2010Prop39
140
1.0
102
RTVSPost2010PropOp39
 70
     1
102
RTVSPost2010Prop40
 90
        0
102
RTVSPost2010PropOp40
 70
     1
102
RTVSPost2010Prop41ColorIndex
 90
       18
102
RTVSPost2010Prop41ColorRGB
 90
        0
102
RTVSPost2010PropOp41
 70
     1
102
RTVSPost2010Prop42
 90
       50
102
RTVSPost2010PropOp42
 70
     1
102
RTVSPost2010Prop43
 90
        3
102
RTVSPost2010PropOp43
 70
     1
102
RTVSPost2010Prop44ColorIndex
 90
        5
102
RTVSPost2010Prop44ColorRGB
 90
      255
102
RTVSPost2010PropOp44
 70
     1
102
RTVSPost2010Prop45
280
     0
102
RTVSPost2010PropOp45
 70
     1
102
RTVSPost2010Prop46
 90
       50
102
RTVSPost2010PropOp46
 70
     1
102
RTVSPost2010Prop47
 90
       50
102
RTVSPost2010PropOp47
 70
     1
102
RTVSPost2010Prop48
 90
       50
102
RTVSPost2010PropOp48
 70
     1
102
RTVSPost2010Prop49
280
     0
102
RTVSPost2010PropOp49
 70
     1
102
RTVSPost2010Prop50
 90
       50
102
RTVSPost2010PropOp50
 70
     1
102
RTVSPost2010Prop51ColorIndex
 90
      256
102
RTVSPost2010Prop51ColorRGB
 90
-16777216
102
RTVSPost2010PropOp51
 70
     0
102
RTVSPost2010Prop52
140
1.0
102
RTVSPost2010PropOp52
 70
     0
102
RTVSPost2010Prop53
 90
        2
102
RTVSPost2010PropOp53
 70
     1
102
RTVSPost2010Prop54
  1
strokes_ogs.tif
102
RTVSPost2010PropOp54
 70
     1
102
RTVSPost2010Prop55
280
     0
102
RTVSPost2010PropOp55
 70
     1
102
RTVSPost2010Prop56
140
1.0
102
RTVSPost2010PropOp56
 70
     1
102
RTVSPost2010Prop57
140
1.0
102
RTVSPost2010PropOp57
 70
     1
102
RTVSPropertyOp0
 70
     1
102
RTVSPropertyOp1
 70
     1
102
RTVSPropertyOp2
 70
     1
102
RTVSPropertyOp3
 70
     1
102
RTVSPropertyOp4
 70
     1
102
RTVSPropertyOp5
 70
     1
102
RTVSPropertyOp6
 70
     1
102
RTVSPropertyOp7
 70
     1
102
RTVSPropertyOp8
 70
     1
102
RTVSPropertyOp9
 70
     1
102
RTVSPropertyOp10
 70
     1
102
RTVSPropertyOp11
 70
     1
102
RTVSPropertyOp12
 70
     1
102
RTVSPropertyOp13
 70
     1
102
RTVSPropertyOp14
 70
     1
102
RTVSPropertyOp15
 70
     1
102
RTVSPropertyOp16
 70
     1
102
RTVSPropertyOp17
 70
     1
102
RTVSPropertyOp18
 70
     1
102
RTVSPropertyOp19
 70
     1
102
RTVSPropertyOp20
 70
     1
102
RTVSPropertyOp21
 70
     1
102
RTVSPropertyOp22
 70
     1
102
RTVSPropertyOp23
 70
     1
102
RTVSPropertyOp24
 70
     1
102
RTVSPropertyOp25
 70
     1
102
RTVSPropertyOp26
 70
     1
102
RTVSPropertyOp27
 70
     1
102
RTVSPropertyOp28
 70
     1
102
RTVSPropertyOp29
 70
     1
102
RTVSPropertyOp30
 70
     1
102
RTVSPropertyOp31
 70
     1
102
RTVSPropertyOp32
 70
     1
102
RTVSPropertyOp33
 70
     1
102
RTVSPropertyOp34
 70
     1
102
RTVSPropertyOp35
 70
     1
102
RTVSPropertyOp36
 70
     1
102
RTVSPropertyOp37
 70
     1
102
RTVSPropertyOp38
 70
     1
102
RTVSPropertyOp39
 70
     1
102
RTVSPropertyOp40
 70
     1
102
RTVSPropertyOp41
 70
     1
102
RTVSPropertyOp42
 70
     1
102
RTVSPropertyOp43
 70
     1
102
RTVSPropertyOp44
 70
     1
102
RTVSPropertyOp45
 70
     1
102
RTVSPropertyOp46
 70
     1
102
RTVSPropertyOp47
 70
     1
102
RTVSPropertyOp48
 70
     1
102
RTVSPropertyOp49
 70
     1
102
RTVSPropertyOp50
 70
     1
102
RTVSPropertyOp51
 70
     0
102
RTVSPropertyOp52
 70
     0
102
RTVSPropertyOp53
 70
     1
102
RTVSPropertyOp54
 70
     1
102
RTVSPropertyOp55
 70
     1
102
RTVSPropertyOp56
 70
     1
102
RTVSPropertyOp57
 70
     1
102
RTVSPropertyOp58
 70
     1
102
RTVSPropertyOp59
 70
     1
102
RTVSPropertyOp60
 70
     1
102
RTVSPropertyOp61
 70
     1
102
RTVSPropertyOp62
 70
     1
  0
XRECORD
  5
DE1B
102
{ACAD_REACTORS
330
DE1A
102
}
330
DE1A
100
AcDbXrecord
280
     1
102
RTVSPost2010Prop28
280
     0
102
RTVSPost2010PropOp28
 70
     1
102
RTVSPost2010Prop29
280
     1
102
RTVSPost2010PropOp29
 70
     1
102
RTVSPost2010Prop30
280
     1
102
RTVSPost2010PropOp30
 70
     1
102
RTVSPost2010Prop31
280
     0
102
RTVSPost2010PropOp31
 70
     1
102
RTVSPost2010Prop32
280
     0
102
RTVSPost2010PropOp32
 70
     1
102
RTVSPost2010Prop33
280
     0
102
RTVSPost2010PropOp33
 70
     1
102
RTVSPost2010Prop34
280
     0
102
RTVSPost2010PropOp34
 70
     1
102
RTVSPost2010Prop35
280
     0
102
RTVSPost2010PropOp35
 70
     1
102
RTVSPost2010Prop36
280
     0
102
RTVSPost2010PropOp36
 70
     1
102
RTVSPost2010Prop37
 90
       50
102
RTVSPost2010PropOp37
 70
     1
102
RTVSPost2010Prop38
140
0.0
102
RTVSPost2010PropOp38
 70
     1
102
RTVSPost2010Prop39
140
1.0
102
RTVSPost2010PropOp39
 70
     1
102
RTVSPost2010Prop40
 90
        0
102
RTVSPost2010PropOp40
 70
     1
102
RTVSPost2010Prop41ColorIndex
 90
       18
102
RTVSPost2010Prop41ColorRGB
 90
        0
102
RTVSPost2010PropOp41
 70
     1
102
RTVSPost2010Prop42
 90
       50
102
RTVSPost2010PropOp42
 70
     1
102
RTVSPost2010Prop43
 90
        3
102
RTVSPost2010PropOp43
 70
     1
102
RTVSPost2010Prop44ColorIndex
 90
        5
102
RTVSPost2010Prop44ColorRGB
 90
      255
102
RTVSPost2010PropOp44
 70
     1
102
RTVSPost2010Prop45
280
     0
102
RTVSPost2010PropOp45
 70
     1
102
RTVSPost2010Prop46
 90
       50
102
RTVSPost2010PropOp46
 70
     1
102
RTVSPost2010Prop47
 90
       50
102
RTVSPost2010PropOp47
 70
     1
102
RTVSPost2010Prop48
 90
       50
102
RTVSPost2010PropOp48
 70
     1
102
RTVSPost2010Prop49
280
     0
102
RTVSPost2010PropOp49
 70
     1
102
RTVSPost2010Prop50
 90
       50
102
RTVSPost2010PropOp50
 70
     1
102
RTVSPost2010Prop51ColorIndex
 90
      256
102
RTVSPost2010Prop51ColorRGB
 90
-16777216
102
RTVSPost2010PropOp51
 70
     0
102
RTVSPost2010Prop52
140
1.0
102
RTVSPost2010PropOp52
 70
     0
102
RTVSPost2010Prop53
 90
        2
102
RTVSPost2010PropOp53
 70
     1
102
RTVSPost2010Prop54
  1
strokes_ogs.tif
102
RTVSPost2010PropOp54
 70
     1
102
RTVSPost2010Prop55
280
     0
102
RTVSPost2010PropOp55
 70
     1
102
RTVSPost2010Prop56
140
1.0
102
RTVSPost2010PropOp56
 70
     1
102
RTVSPost2010Prop57
140
1.0
102
RTVSPost2010PropOp57
 70
     1
102
RTVSPropertyOp0
 70
     1
102
RTVSPropertyOp1
 70
     1
102
RTVSPropertyOp2
 70
     1
102
RTVSPropertyOp3
 70
     1
102
RTVSPropertyOp4
 70
     1
102
RTVSPropertyOp5
 70
     1
102
RTVSPropertyOp6
 70
     1
102
RTVSPropertyOp7
 70
     1
102
RTVSPropertyOp8
 70
     1
102
RTVSPropertyOp9
 70
     1
102
RTVSPropertyOp10
 70
     1
102
RTVSPropertyOp11
 70
     1
102
RTVSPropertyOp12
 70
     1
102
RTVSPropertyOp13
 70
     1
102
RTVSPropertyOp14
 70
     1
102
RTVSPropertyOp15
 70
     1
102
RTVSPropertyOp16
 70
     1
102
RTVSPropertyOp17
 70
     1
102
RTVSPropertyOp18
 70
     1
102
RTVSPropertyOp19
 70
     1
102
RTVSPropertyOp20
 70
     1
102
RTVSPropertyOp21
 70
     1
102
RTVSPropertyOp22
 70
     1
102
RTVSPropertyOp23
 70
     1
102
RTVSPropertyOp24
 70
     1
102
RTVSPropertyOp25
 70
     1
102
RTVSPropertyOp26
 70
     1
102
RTVSPropertyOp27
 70
     1
102
RTVSPropertyOp28
 70
     1
102
RTVSPropertyOp29
 70
     1
102
RTVSPropertyOp30
 70
     1
102
RTVSPropertyOp31
 70
     1
102
RTVSPropertyOp32
 70
     1
102
RTVSPropertyOp33
 70
     1
102
RTVSPropertyOp34
 70
     1
102
RTVSPropertyOp35
 70
     1
102
RTVSPropertyOp36
 70
     1
102
RTVSPropertyOp37
 70
     1
102
RTVSPropertyOp38
 70
     1
102
RTVSPropertyOp39
 70
     1
102
RTVSPropertyOp40
 70
     1
102
RTVSPropertyOp41
 70
     1
102
RTVSPropertyOp42
 70
     1
102
RTVSPropertyOp43
 70
     1
102
RTVSPropertyOp44
 70
     1
102
RTVSPropertyOp45
 70
     1
102
RTVSPropertyOp46
 70
     1
102
RTVSPropertyOp47
 70
     1
102
RTVSPropertyOp48
 70
     1
102
RTVSPropertyOp49
 70
     1
102
RTVSPropertyOp50
 70
     1
102
RTVSPropertyOp51
 70
     0
102
RTVSPropertyOp52
 70
     0
102
RTVSPropertyOp53
 70
     1
102
RTVSPropertyOp54
 70
     1
102
RTVSPropertyOp55
 70
     1
102
RTVSPropertyOp56
 70
     1
102
RTVSPropertyOp57
 70
     1
102
RTVSPropertyOp58
 70
     1
102
RTVSPropertyOp59
 70
     1
102
RTVSPropertyOp60
 70
     1
102
RTVSPropertyOp61
 70
     1
102
RTVSPropertyOp62
 70
     1
  0
XRECORD
  5
DE35
102
{ACAD_REACTORS
330
DE34
102
}
330
DE34
100
AcDbXrecord
280
     1
102
RTVSPost2010Prop28
280
     0
102
RTVSPost2010PropOp28
 70
     1
102
RTVSPost2010Prop29
280
     1
102
RTVSPost2010PropOp29
 70
     1
102
RTVSPost2010Prop30
280
     1
102
RTVSPost2010PropOp30
 70
     1
102
RTVSPost2010Prop31
280
     0
102
RTVSPost2010PropOp31
 70
     1
102
RTVSPost2010Prop32
280
     0
102
RTVSPost2010PropOp32
 70
     1
102
RTVSPost2010Prop33
280
     0
102
RTVSPost2010PropOp33
 70
     1
102
RTVSPost2010Prop34
280
     0
102
RTVSPost2010PropOp34
 70
     1
102
RTVSPost2010Prop35
280
     0
102
RTVSPost2010PropOp35
 70
     1
102
RTVSPost2010Prop36
280
     0
102
RTVSPost2010PropOp36
 70
     1
102
RTVSPost2010Prop37
 90
       50
102
RTVSPost2010PropOp37
 70
     0
102
RTVSPost2010Prop38
140
0.0
102
RTVSPost2010PropOp38
 70
     0
102
RTVSPost2010Prop39
140
1.0
102
RTVSPost2010PropOp39
 70
     0
102
RTVSPost2010Prop40
 90
        0
102
RTVSPost2010PropOp40
 70
     0
102
RTVSPost2010Prop41ColorIndex
 90
       18
102
RTVSPost2010Prop41ColorRGB
 90
        0
102
RTVSPost2010PropOp41
 70
     0
102
RTVSPost2010Prop42
 90
       50
102
RTVSPost2010PropOp42
 70
     0
102
RTVSPost2010Prop43
 90
        3
102
RTVSPost2010PropOp43
 70
     0
102
RTVSPost2010Prop44ColorIndex
 90
        5
102
RTVSPost2010Prop44ColorRGB
 90
      255
102
RTVSPost2010PropOp44
 70
     0
102
RTVSPost2010Prop45
280
     0
102
RTVSPost2010PropOp45
 70
     1
102
RTVSPost2010Prop46
 90
       50
102
RTVSPost2010PropOp46
 70
     0
102
RTVSPost2010Prop47
 90
       50
102
RTVSPost2010PropOp47
 70
     0
102
RTVSPost2010Prop48
 90
       50
102
RTVSPost2010PropOp48
 70
     0
102
RTVSPost2010Prop49
280
     0
102
RTVSPost2010PropOp49
 70
     1
102
RTVSPost2010Prop50
 90
       50
102
RTVSPost2010PropOp50
 70
     0
102
RTVSPost2010Prop51ColorIndex
 90
      256
102
RTVSPost2010Prop51ColorRGB
 90
-16777216
102
RTVSPost2010PropOp51
 70
     0
102
RTVSPost2010Prop52
140
1.0
102
RTVSPost2010PropOp52
 70
     0
102
RTVSPost2010Prop53
 90
        2
102
RTVSPost2010PropOp53
 70
     0
102
RTVSPost2010Prop54
  1
strokes_ogs.tif
102
RTVSPost2010PropOp54
 70
     0
102
RTVSPost2010Prop55
280
     0
102
RTVSPost2010PropOp55
 70
     1
102
RTVSPost2010Prop56
140
1.0
102
RTVSPost2010PropOp56
 70
     0
102
RTVSPost2010Prop57
140
1.0
102
RTVSPost2010PropOp57
 70
     0
102
RTVSPropertyOp0
 70
     0
102
RTVSPropertyOp1
 70
     0
102
RTVSPropertyOp2
 70
     0
102
RTVSPropertyOp3
 70
     0
102
RTVSPropertyOp4
 70
     0
102
RTVSPropertyOp5
 70
     0
102
RTVSPropertyOp6
 70
     0
102
RTVSPropertyOp7
 70
     0
102
RTVSPropertyOp8
 70
     0
102
RTVSPropertyOp9
 70
     0
102
RTVSPropertyOp10
 70
     0
102
RTVSPropertyOp11
 70
     0
102
RTVSPropertyOp12
 70
     0
102
RTVSPropertyOp13
 70
     0
102
RTVSPropertyOp14
 70
     2
102
RTVSPropertyOp15
 70
     0
102
RTVSPropertyOp16
 70
     0
102
RTVSPropertyOp17
 70
     0
102
RTVSPropertyOp18
 70
     0
102
RTVSPropertyOp19
 70
     0
102
RTVSPropertyOp20
 70
     0
102
RTVSPropertyOp21
 70
     0
102
RTVSPropertyOp22
 70
     0
102
RTVSPropertyOp23
 70
     0
102
RTVSPropertyOp24
 70
     0
102
RTVSPropertyOp25
 70
     0
102
RTVSPropertyOp26
 70
     0
102
RTVSPropertyOp27
 70
     0
102
RTVSPropertyOp28
 70
     1
102
RTVSPropertyOp29
 70
     1
102
RTVSPropertyOp30
 70
     1
102
RTVSPropertyOp31
 70
     1
102
RTVSPropertyOp32
 70
     1
102
RTVSPropertyOp33
 70
     1
102
RTVSPropertyOp34
 70
     1
102
RTVSPropertyOp35
 70
     1
102
RTVSPropertyOp36
 70
     1
102
RTVSPropertyOp37
 70
     0
102
RTVSPropertyOp38
 70
     0
102
RTVSPropertyOp39
 70
     0
102
RTVSPropertyOp40
 70
     0
102
RTVSPropertyOp41
 70
     0
102
RTVSPropertyOp42
 70
     0
102
RTVSPropertyOp43
 70
     0
102
RTVSPropertyOp44
 70
     0
102
RTVSPropertyOp45
 70
     1
102
RTVSPropertyOp46
 70
     0
102
RTVSPropertyOp47
 70
     0
102
RTVSPropertyOp48
 70
     0
102
RTVSPropertyOp49
 70
     1
102
RTVSPropertyOp50
 70
     0
102
RTVSPropertyOp51
 70
     0
102
RTVSPropertyOp52
 70
     0
102
RTVSPropertyOp53
 70
     0
102
RTVSPropertyOp54
 70
     0
102
RTVSPropertyOp55
 70
     1
102
RTVSPropertyOp56
 70
     0
102
RTVSPropertyOp57
 70
     0
102
RTVSPropertyOp58
 70
     0
102
RTVSPropertyOp59
 70
     0
102
RTVSPropertyOp60
 70
     0
102
RTVSPropertyOp61
 70
     0
102
RTVSPropertyOp62
 70
     0
  0
XRECORD
  5
DE23
102
{ACAD_REACTORS
330
DE22
102
}
330
DE22
100
AcDbXrecord
280
     1
102
RTVSPost2010Prop28
280
     0
102
RTVSPost2010PropOp28
 70
     1
102
RTVSPost2010Prop29
280
     1
102
RTVSPost2010PropOp29
 70
     1
102
RTVSPost2010Prop30
280
     1
102
RTVSPost2010PropOp30
 70
     1
102
RTVSPost2010Prop31
280
     0
102
RTVSPost2010PropOp31
 70
     1
102
RTVSPost2010Prop32
280
     0
102
RTVSPost2010PropOp32
 70
     1
102
RTVSPost2010Prop33
280
     0
102
RTVSPost2010PropOp33
 70
     1
102
RTVSPost2010Prop34
280
     0
102
RTVSPost2010PropOp34
 70
     1
102
RTVSPost2010Prop35
280
     0
102
RTVSPost2010PropOp35
 70
     1
102
RTVSPost2010Prop36
280
     0
102
RTVSPost2010PropOp36
 70
     1
102
RTVSPost2010Prop37
 90
       50
102
RTVSPost2010PropOp37
 70
     1
102
RTVSPost2010Prop38
140
0.0
102
RTVSPost2010PropOp38
 70
     1
102
RTVSPost2010Prop39
140
1.0
102
RTVSPost2010PropOp39
 70
     1
102
RTVSPost2010Prop40
 90
        0
102
RTVSPost2010PropOp40
 70
     1
102
RTVSPost2010Prop41ColorIndex
 90
       18
102
RTVSPost2010Prop41ColorRGB
 90
        0
102
RTVSPost2010PropOp41
 70
     1
102
RTVSPost2010Prop42
 90
       50
102
RTVSPost2010PropOp42
 70
     1
102
RTVSPost2010Prop43
 90
        3
102
RTVSPost2010PropOp43
 70
     1
102
RTVSPost2010Prop44ColorIndex
 90
        5
102
RTVSPost2010Prop44ColorRGB
 90
      255
102
RTVSPost2010PropOp44
 70
     1
102
RTVSPost2010Prop45
280
     0
102
RTVSPost2010PropOp45
 70
     1
102
RTVSPost2010Prop46
 90
       50
102
RTVSPost2010PropOp46
 70
     1
102
RTVSPost2010Prop47
 90
       50
102
RTVSPost2010PropOp47
 70
     1
102
RTVSPost2010Prop48
 90
       50
102
RTVSPost2010PropOp48
 70
     1
102
RTVSPost2010Prop49
280
     0
102
RTVSPost2010PropOp49
 70
     1
102
RTVSPost2010Prop50
 90
       50
102
RTVSPost2010PropOp50
 70
     1
102
RTVSPost2010Prop51ColorIndex
 90
      256
102
RTVSPost2010Prop51ColorRGB
 90
-16777216
102
RTVSPost2010PropOp51
 70
     0
102
RTVSPost2010Prop52
140
1.0
102
RTVSPost2010PropOp52
 70
     0
102
RTVSPost2010Prop53
 90
        2
102
RTVSPost2010PropOp53
 70
     1
102
RTVSPost2010Prop54
  1
strokes_ogs.tif
102
RTVSPost2010PropOp54
 70
     1
102
RTVSPost2010Prop55
280
     0
102
RTVSPost2010PropOp55
 70
     1
102
RTVSPost2010Prop56
140
1.0
102
RTVSPost2010PropOp56
 70
     1
102
RTVSPost2010Prop57
140
1.0
102
RTVSPost2010PropOp57
 70
     1
102
RTVSPropertyOp0
 70
     1
102
RTVSPropertyOp1
 70
     1
102
RTVSPropertyOp2
 70
     1
102
RTVSPropertyOp3
 70
     1
102
RTVSPropertyOp4
 70
     1
102
RTVSPropertyOp5
 70
     1
102
RTVSPropertyOp6
 70
     1
102
RTVSPropertyOp7
 70
     1
102
RTVSPropertyOp8
 70
     1
102
RTVSPropertyOp9
 70
     1
102
RTVSPropertyOp10
 70
     1
102
RTVSPropertyOp11
 70
     1
102
RTVSPropertyOp12
 70
     1
102
RTVSPropertyOp13
 70
     1
102
RTVSPropertyOp14
 70
     1
102
RTVSPropertyOp15
 70
     1
102
RTVSPropertyOp16
 70
     1
102
RTVSPropertyOp17
 70
     1
102
RTVSPropertyOp18
 70
     1
102
RTVSPropertyOp19
 70
     1
102
RTVSPropertyOp20
 70
     1
102
RTVSPropertyOp21
 70
     1
102
RTVSPropertyOp22
 70
     1
102
RTVSPropertyOp23
 70
     1
102
RTVSPropertyOp24
 70
     1
102
RTVSPropertyOp25
 70
     1
102
RTVSPropertyOp26
 70
     1
102
RTVSPropertyOp27
 70
     1
102
RTVSPropertyOp28
 70
     1
102
RTVSPropertyOp29
 70
     1
102
RTVSPropertyOp30
 70
     1
102
RTVSPropertyOp31
 70
     1
102
RTVSPropertyOp32
 70
     1
102
RTVSPropertyOp33
 70
     1
102
RTVSPropertyOp34
 70
     1
102
RTVSPropertyOp35
 70
     1
102
RTVSPropertyOp36
 70
     1
102
RTVSPropertyOp37
 70
     1
102
RTVSPropertyOp38
 70
     1
102
RTVSPropertyOp39
 70
     1
102
RTVSPropertyOp40
 70
     1
102
RTVSPropertyOp41
 70
     1
102
RTVSPropertyOp42
 70
     1
102
RTVSPropertyOp43
 70
     1
102
RTVSPropertyOp44
 70
     1
102
RTVSPropertyOp45
 70
     1
102
RTVSPropertyOp46
 70
     1
102
RTVSPropertyOp47
 70
     1
102
RTVSPropertyOp48
 70
     1
102
RTVSPropertyOp49
 70
     1
102
RTVSPropertyOp50
 70
     1
102
RTVSPropertyOp51
 70
     0
102
RTVSPropertyOp52
 70
     0
102
RTVSPropertyOp53
 70
     1
102
RTVSPropertyOp54
 70
     1
102
RTVSPropertyOp55
 70
     1
102
RTVSPropertyOp56
 70
     1
102
RTVSPropertyOp57
 70
     1
102
RTVSPropertyOp58
 70
     1
102
RTVSPropertyOp59
 70
     1
102
RTVSPropertyOp60
 70
     1
102
RTVSPropertyOp61
 70
     1
102
RTVSPropertyOp62
 70
     1
  0
XRECORD
  5
DE07
102
{ACAD_REACTORS
330
DE06
102
}
330
DE06
100
AcDbXrecord
280
     1
102
RTVSPost2010Prop28
280
     0
102
RTVSPost2010PropOp28
 70
     1
102
RTVSPost2010Prop29
280
     1
102
RTVSPost2010PropOp29
 70
     1
102
RTVSPost2010Prop30
280
     1
102
RTVSPost2010PropOp30
 70
     1
102
RTVSPost2010Prop31
280
     0
102
RTVSPost2010PropOp31
 70
     1
102
RTVSPost2010Prop32
280
     0
102
RTVSPost2010PropOp32
 70
     1
102
RTVSPost2010Prop33
280
     0
102
RTVSPost2010PropOp33
 70
     1
102
RTVSPost2010Prop34
280
     0
102
RTVSPost2010PropOp34
 70
     1
102
RTVSPost2010Prop35
280
     0
102
RTVSPost2010PropOp35
 70
     1
102
RTVSPost2010Prop36
280
     0
102
RTVSPost2010PropOp36
 70
     1
102
RTVSPost2010Prop37
 90
       50
102
RTVSPost2010PropOp37
 70
     1
102
RTVSPost2010Prop38
140
0.0
102
RTVSPost2010PropOp38
 70
     1
102
RTVSPost2010Prop39
140
1.0
102
RTVSPost2010PropOp39
 70
     1
102
RTVSPost2010Prop40
 90
        0
102
RTVSPost2010PropOp40
 70
     1
102
RTVSPost2010Prop41ColorIndex
 90
       18
102
RTVSPost2010Prop41ColorRGB
 90
        0
102
RTVSPost2010PropOp41
 70
     1
102
RTVSPost2010Prop42
 90
       50
102
RTVSPost2010PropOp42
 70
     1
102
RTVSPost2010Prop43
 90
        3
102
RTVSPost2010PropOp43
 70
     1
102
RTVSPost2010Prop44ColorIndex
 90
        5
102
RTVSPost2010Prop44ColorRGB
 90
      255
102
RTVSPost2010PropOp44
 70
     1
102
RTVSPost2010Prop45
280
     0
102
RTVSPost2010PropOp45
 70
     1
102
RTVSPost2010Prop46
 90
       50
102
RTVSPost2010PropOp46
 70
     1
102
RTVSPost2010Prop47
 90
       50
102
RTVSPost2010PropOp47
 70
     1
102
RTVSPost2010Prop48
 90
       50
102
RTVSPost2010PropOp48
 70
     1
102
RTVSPost2010Prop49
280
     0
102
RTVSPost2010PropOp49
 70
     1
102
RTVSPost2010Prop50
 90
       50
102
RTVSPost2010PropOp50
 70
     1
102
RTVSPost2010Prop51ColorIndex
 90
      256
102
RTVSPost2010Prop51ColorRGB
 90
-16777216
102
RTVSPost2010PropOp51
 70
     0
102
RTVSPost2010Prop52
140
1.0
102
RTVSPost2010PropOp52
 70
     0
102
RTVSPost2010Prop53
 90
        2
102
RTVSPost2010PropOp53
 70
     1
102
RTVSPost2010Prop54
  1
strokes_ogs.tif
102
RTVSPost2010PropOp54
 70
     1
102
RTVSPost2010Prop55
280
     0
102
RTVSPost2010PropOp55
 70
     1
102
RTVSPost2010Prop56
140
1.0
102
RTVSPost2010PropOp56
 70
     1
102
RTVSPost2010Prop57
140
1.0
102
RTVSPost2010PropOp57
 70
     1
102
RTVSPropertyOp0
 70
     1
102
RTVSPropertyOp1
 70
     1
102
RTVSPropertyOp2
 70
     1
102
RTVSPropertyOp3
 70
     1
102
RTVSPropertyOp4
 70
     1
102
RTVSPropertyOp5
 70
     1
102
RTVSPropertyOp6
 70
     1
102
RTVSPropertyOp7
 70
     1
102
RTVSPropertyOp8
 70
     1
102
RTVSPropertyOp9
 70
     1
102
RTVSPropertyOp10
 70
     1
102
RTVSPropertyOp11
 70
     1
102
RTVSPropertyOp12
 70
     1
102
RTVSPropertyOp13
 70
     1
102
RTVSPropertyOp14
 70
     1
102
RTVSPropertyOp15
 70
     1
102
RTVSPropertyOp16
 70
     1
102
RTVSPropertyOp17
 70
     1
102
RTVSPropertyOp18
 70
     1
102
RTVSPropertyOp19
 70
     1
102
RTVSPropertyOp20
 70
     1
102
RTVSPropertyOp21
 70
     1
102
RTVSPropertyOp22
 70
     1
102
RTVSPropertyOp23
 70
     1
102
RTVSPropertyOp24
 70
     1
102
RTVSPropertyOp25
 70
     1
102
RTVSPropertyOp26
 70
     1
102
RTVSPropertyOp27
 70
     1
102
RTVSPropertyOp28
 70
     1
102
RTVSPropertyOp29
 70
     1
102
RTVSPropertyOp30
 70
     1
102
RTVSPropertyOp31
 70
     1
102
RTVSPropertyOp32
 70
     1
102
RTVSPropertyOp33
 70
     1
102
RTVSPropertyOp34
 70
     1
102
RTVSPropertyOp35
 70
     1
102
RTVSPropertyOp36
 70
     1
102
RTVSPropertyOp37
 70
     1
102
RTVSPropertyOp38
 70
     1
102
RTVSPropertyOp39
 70
     1
102
RTVSPropertyOp40
 70
     1
102
RTVSPropertyOp41
 70
     1
102
RTVSPropertyOp42
 70
     1
102
RTVSPropertyOp43
 70
     1
102
RTVSPropertyOp44
 70
     1
102
RTVSPropertyOp45
 70
     1
102
RTVSPropertyOp46
 70
     1
102
RTVSPropertyOp47
 70
     1
102
RTVSPropertyOp48
 70
     1
102
RTVSPropertyOp49
 70
     1
102
RTVSPropertyOp50
 70
     1
102
RTVSPropertyOp51
 70
     0
102
RTVSPropertyOp52
 70
     0
102
RTVSPropertyOp53
 70
     1
102
RTVSPropertyOp54
 70
     1
102
RTVSPropertyOp55
 70
     1
102
RTVSPropertyOp56
 70
     1
102
RTVSPropertyOp57
 70
     1
102
RTVSPropertyOp58
 70
     1
102
RTVSPropertyOp59
 70
     1
102
RTVSPropertyOp60
 70
     1
102
RTVSPropertyOp61
 70
     1
102
RTVSPropertyOp62
 70
     1
  0
XRECORD
  5
DE09
102
{ACAD_REACTORS
330
DE08
102
}
330
DE08
100
AcDbXrecord
280
     1
102
RTVSPost2010Prop28
280
     0
102
RTVSPost2010PropOp28
 70
     1
102
RTVSPost2010Prop29
280
     1
102
RTVSPost2010PropOp29
 70
     1
102
RTVSPost2010Prop30
280
     1
102
RTVSPost2010PropOp30
 70
     1
102
RTVSPost2010Prop31
280
     0
102
RTVSPost2010PropOp31
 70
     1
102
RTVSPost2010Prop32
280
     0
102
RTVSPost2010PropOp32
 70
     1
102
RTVSPost2010Prop33
280
     0
102
RTVSPost2010PropOp33
 70
     1
102
RTVSPost2010Prop34
280
     0
102
RTVSPost2010PropOp34
 70
     1
102
RTVSPost2010Prop35
280
     0
102
RTVSPost2010PropOp35
 70
     1
102
RTVSPost2010Prop36
280
     0
102
RTVSPost2010PropOp36
 70
     1
102
RTVSPost2010Prop37
 90
       50
102
RTVSPost2010PropOp37
 70
     1
102
RTVSPost2010Prop38
140
0.0
102
RTVSPost2010PropOp38
 70
     1
102
RTVSPost2010Prop39
140
1.0
102
RTVSPost2010PropOp39
 70
     1
102
RTVSPost2010Prop40
 90
        0
102
RTVSPost2010PropOp40
 70
     1
102
RTVSPost2010Prop41ColorIndex
 90
       18
102
RTVSPost2010Prop41ColorRGB
 90
        0
102
RTVSPost2010PropOp41
 70
     1
102
RTVSPost2010Prop42
 90
       50
102
RTVSPost2010PropOp42
 70
     1
102
RTVSPost2010Prop43
 90
        3
102
RTVSPost2010PropOp43
 70
     1
102
RTVSPost2010Prop44ColorIndex
 90
        5
102
RTVSPost2010Prop44ColorRGB
 90
      255
102
RTVSPost2010PropOp44
 70
     1
102
RTVSPost2010Prop45
280
     0
102
RTVSPost2010PropOp45
 70
     1
102
RTVSPost2010Prop46
 90
       50
102
RTVSPost2010PropOp46
 70
     1
102
RTVSPost2010Prop47
 90
       50
102
RTVSPost2010PropOp47
 70
     1
102
RTVSPost2010Prop48
 90
       50
102
RTVSPost2010PropOp48
 70
     1
102
RTVSPost2010Prop49
280
     0
102
RTVSPost2010PropOp49
 70
     1
102
RTVSPost2010Prop50
 90
       50
102
RTVSPost2010PropOp50
 70
     1
102
RTVSPost2010Prop51ColorIndex
 90
      256
102
RTVSPost2010Prop51ColorRGB
 90
-16777216
102
RTVSPost2010PropOp51
 70
     0
102
RTVSPost2010Prop52
140
1.0
102
RTVSPost2010PropOp52
 70
     0
102
RTVSPost2010Prop53
 90
        2
102
RTVSPost2010PropOp53
 70
     1
102
RTVSPost2010Prop54
  1
strokes_ogs.tif
102
RTVSPost2010PropOp54
 70
     1
102
RTVSPost2010Prop55
280
     0
102
RTVSPost2010PropOp55
 70
     1
102
RTVSPost2010Prop56
140
1.0
102
RTVSPost2010PropOp56
 70
     1
102
RTVSPost2010Prop57
140
1.0
102
RTVSPost2010PropOp57
 70
     1
102
RTVSPropertyOp0
 70
     1
102
RTVSPropertyOp1
 70
     1
102
RTVSPropertyOp2
 70
     1
102
RTVSPropertyOp3
 70
     1
102
RTVSPropertyOp4
 70
     1
102
RTVSPropertyOp5
 70
     1
102
RTVSPropertyOp6
 70
     1
102
RTVSPropertyOp7
 70
     1
102
RTVSPropertyOp8
 70
     1
102
RTVSPropertyOp9
 70
     1
102
RTVSPropertyOp10
 70
     1
102
RTVSPropertyOp11
 70
     1
102
RTVSPropertyOp12
 70
     1
102
RTVSPropertyOp13
 70
     1
102
RTVSPropertyOp14
 70
     1
102
RTVSPropertyOp15
 70
     1
102
RTVSPropertyOp16
 70
     1
102
RTVSPropertyOp17
 70
     1
102
RTVSPropertyOp18
 70
     1
102
RTVSPropertyOp19
 70
     1
102
RTVSPropertyOp20
 70
     1
102
RTVSPropertyOp21
 70
     1
102
RTVSPropertyOp22
 70
     1
102
RTVSPropertyOp23
 70
     1
102
RTVSPropertyOp24
 70
     1
102
RTVSPropertyOp25
 70
     1
102
RTVSPropertyOp26
 70
     1
102
RTVSPropertyOp27
 70
     1
102
RTVSPropertyOp28
 70
     1
102
RTVSPropertyOp29
 70
     1
102
RTVSPropertyOp30
 70
     1
102
RTVSPropertyOp31
 70
     1
102
RTVSPropertyOp32
 70
     1
102
RTVSPropertyOp33
 70
     1
102
RTVSPropertyOp34
 70
     1
102
RTVSPropertyOp35
 70
     1
102
RTVSPropertyOp36
 70
     1
102
RTVSPropertyOp37
 70
     1
102
RTVSPropertyOp38
 70
     1
102
RTVSPropertyOp39
 70
     1
102
RTVSPropertyOp40
 70
     1
102
RTVSPropertyOp41
 70
     1
102
RTVSPropertyOp42
 70
     1
102
RTVSPropertyOp43
 70
     1
102
RTVSPropertyOp44
 70
     1
102
RTVSPropertyOp45
 70
     1
102
RTVSPropertyOp46
 70
     1
102
RTVSPropertyOp47
 70
     1
102
RTVSPropertyOp48
 70
     1
102
RTVSPropertyOp49
 70
     1
102
RTVSPropertyOp50
 70
     1
102
RTVSPropertyOp51
 70
     0
102
RTVSPropertyOp52
 70
     0
102
RTVSPropertyOp53
 70
     1
102
RTVSPropertyOp54
 70
     1
102
RTVSPropertyOp55
 70
     1
102
RTVSPropertyOp56
 70
     1
102
RTVSPropertyOp57
 70
     1
102
RTVSPropertyOp58
 70
     1
102
RTVSPropertyOp59
 70
     1
102
RTVSPropertyOp60
 70
     1
102
RTVSPropertyOp61
 70
     1
102
RTVSPropertyOp62
 70
     1
  0
XRECORD
  5
DE0B
102
{ACAD_REACTORS
330
DE0A
102
}
330
DE0A
100
AcDbXrecord
280
     1
102
RTVSPost2010Prop28
280
     0
102
RTVSPost2010PropOp28
 70
     1
102
RTVSPost2010Prop29
280
     1
102
RTVSPost2010PropOp29
 70
     1
102
RTVSPost2010Prop30
280
     1
102
RTVSPost2010PropOp30
 70
     1
102
RTVSPost2010Prop31
280
     0
102
RTVSPost2010PropOp31
 70
     1
102
RTVSPost2010Prop32
280
     0
102
RTVSPost2010PropOp32
 70
     1
102
RTVSPost2010Prop33
280
     0
102
RTVSPost2010PropOp33
 70
     1
102
RTVSPost2010Prop34
280
     0
102
RTVSPost2010PropOp34
 70
     1
102
RTVSPost2010Prop35
280
     0
102
RTVSPost2010PropOp35
 70
     1
102
RTVSPost2010Prop36
280
     0
102
RTVSPost2010PropOp36
 70
     1
102
RTVSPost2010Prop37
 90
       50
102
RTVSPost2010PropOp37
 70
     1
102
RTVSPost2010Prop38
140
0.0
102
RTVSPost2010PropOp38
 70
     1
102
RTVSPost2010Prop39
140
1.0
102
RTVSPost2010PropOp39
 70
     1
102
RTVSPost2010Prop40
 90
        0
102
RTVSPost2010PropOp40
 70
     1
102
RTVSPost2010Prop41ColorIndex
 90
       18
102
RTVSPost2010Prop41ColorRGB
 90
        0
102
RTVSPost2010PropOp41
 70
     1
102
RTVSPost2010Prop42
 90
       50
102
RTVSPost2010PropOp42
 70
     1
102
RTVSPost2010Prop43
 90
        3
102
RTVSPost2010PropOp43
 70
     1
102
RTVSPost2010Prop44ColorIndex
 90
        5
102
RTVSPost2010Prop44ColorRGB
 90
      255
102
RTVSPost2010PropOp44
 70
     1
102
RTVSPost2010Prop45
280
     0
102
RTVSPost2010PropOp45
 70
     1
102
RTVSPost2010Prop46
 90
       50
102
RTVSPost2010PropOp46
 70
     1
102
RTVSPost2010Prop47
 90
       50
102
RTVSPost2010PropOp47
 70
     1
102
RTVSPost2010Prop48
 90
       50
102
RTVSPost2010PropOp48
 70
     1
102
RTVSPost2010Prop49
280
     0
102
RTVSPost2010PropOp49
 70
     1
102
RTVSPost2010Prop50
 90
       50
102
RTVSPost2010PropOp50
 70
     1
102
RTVSPost2010Prop51ColorIndex
 90
      256
102
RTVSPost2010Prop51ColorRGB
 90
-16777216
102
RTVSPost2010PropOp51
 70
     0
102
RTVSPost2010Prop52
140
1.0
102
RTVSPost2010PropOp52
 70
     0
102
RTVSPost2010Prop53
 90
        2
102
RTVSPost2010PropOp53
 70
     1
102
RTVSPost2010Prop54
  1
strokes_ogs.tif
102
RTVSPost2010PropOp54
 70
     1
102
RTVSPost2010Prop55
280
     0
102
RTVSPost2010PropOp55
 70
     1
102
RTVSPost2010Prop56
140
1.0
102
RTVSPost2010PropOp56
 70
     1
102
RTVSPost2010Prop57
140
1.0
102
RTVSPost2010PropOp57
 70
     1
102
RTVSPropertyOp0
 70
     1
102
RTVSPropertyOp1
 70
     1
102
RTVSPropertyOp2
 70
     1
102
RTVSPropertyOp3
 70
     1
102
RTVSPropertyOp4
 70
     1
102
RTVSPropertyOp5
 70
     1
102
RTVSPropertyOp6
 70
     1
102
RTVSPropertyOp7
 70
     1
102
RTVSPropertyOp8
 70
     1
102
RTVSPropertyOp9
 70
     1
102
RTVSPropertyOp10
 70
     1
102
RTVSPropertyOp11
 70
     1
102
RTVSPropertyOp12
 70
     1
102
RTVSPropertyOp13
 70
     1
102
RTVSPropertyOp14
 70
     1
102
RTVSPropertyOp15
 70
     1
102
RTVSPropertyOp16
 70
     1
102
RTVSPropertyOp17
 70
     1
102
RTVSPropertyOp18
 70
     1
102
RTVSPropertyOp19
 70
     1
102
RTVSPropertyOp20
 70
     1
102
RTVSPropertyOp21
 70
     1
102
RTVSPropertyOp22
 70
     1
102
RTVSPropertyOp23
 70
     1
102
RTVSPropertyOp24
 70
     1
102
RTVSPropertyOp25
 70
     1
102
RTVSPropertyOp26
 70
     1
102
RTVSPropertyOp27
 70
     1
102
RTVSPropertyOp28
 70
     1
102
RTVSPropertyOp29
 70
     1
102
RTVSPropertyOp30
 70
     1
102
RTVSPropertyOp31
 70
     1
102
RTVSPropertyOp32
 70
     1
102
RTVSPropertyOp33
 70
     1
102
RTVSPropertyOp34
 70
     1
102
RTVSPropertyOp35
 70
     1
102
RTVSPropertyOp36
 70
     1
102
RTVSPropertyOp37
 70
     1
102
RTVSPropertyOp38
 70
     1
102
RTVSPropertyOp39
 70
     1
102
RTVSPropertyOp40
 70
     1
102
RTVSPropertyOp41
 70
     1
102
RTVSPropertyOp42
 70
     1
102
RTVSPropertyOp43
 70
     1
102
RTVSPropertyOp44
 70
     1
102
RTVSPropertyOp45
 70
     1
102
RTVSPropertyOp46
 70
     1
102
RTVSPropertyOp47
 70
     1
102
RTVSPropertyOp48
 70
     1
102
RTVSPropertyOp49
 70
     1
102
RTVSPropertyOp50
 70
     1
102
RTVSPropertyOp51
 70
     0
102
RTVSPropertyOp52
 70
     0
102
RTVSPropertyOp53
 70
     1
102
RTVSPropertyOp54
 70
     1
102
RTVSPropertyOp55
 70
     1
102
RTVSPropertyOp56
 70
     1
102
RTVSPropertyOp57
 70
     1
102
RTVSPropertyOp58
 70
     1
102
RTVSPropertyOp59
 70
     1
102
RTVSPropertyOp60
 70
     1
102
RTVSPropertyOp61
 70
     1
102
RTVSPropertyOp62
 70
     1
  0
XRECORD
  5
DE0D
102
{ACAD_REACTORS
330
DE0C
102
}
330
DE0C
100
AcDbXrecord
280
     1
102
RTVSPost2010Prop28
280
     0
102
RTVSPost2010PropOp28
 70
     1
102
RTVSPost2010Prop29
280
     1
102
RTVSPost2010PropOp29
 70
     1
102
RTVSPost2010Prop30
280
     1
102
RTVSPost2010PropOp30
 70
     1
102
RTVSPost2010Prop31
280
     0
102
RTVSPost2010PropOp31
 70
     1
102
RTVSPost2010Prop32
280
     0
102
RTVSPost2010PropOp32
 70
     1
102
RTVSPost2010Prop33
280
     0
102
RTVSPost2010PropOp33
 70
     1
102
RTVSPost2010Prop34
280
     0
102
RTVSPost2010PropOp34
 70
     1
102
RTVSPost2010Prop35
280
     0
102
RTVSPost2010PropOp35
 70
     1
102
RTVSPost2010Prop36
280
     0
102
RTVSPost2010PropOp36
 70
     1
102
RTVSPost2010Prop37
 90
       50
102
RTVSPost2010PropOp37
 70
     1
102
RTVSPost2010Prop38
140
0.0
102
RTVSPost2010PropOp38
 70
     1
102
RTVSPost2010Prop39
140
1.0
102
RTVSPost2010PropOp39
 70
     1
102
RTVSPost2010Prop40
 90
        0
102
RTVSPost2010PropOp40
 70
     1
102
RTVSPost2010Prop41ColorIndex
 90
       18
102
RTVSPost2010Prop41ColorRGB
 90
        0
102
RTVSPost2010PropOp41
 70
     1
102
RTVSPost2010Prop42
 90
       50
102
RTVSPost2010PropOp42
 70
     1
102
RTVSPost2010Prop43
 90
        3
102
RTVSPost2010PropOp43
 70
     1
102
RTVSPost2010Prop44ColorIndex
 90
        5
102
RTVSPost2010Prop44ColorRGB
 90
      255
102
RTVSPost2010PropOp44
 70
     1
102
RTVSPost2010Prop45
280
     0
102
RTVSPost2010PropOp45
 70
     1
102
RTVSPost2010Prop46
 90
       50
102
RTVSPost2010PropOp46
 70
     1
102
RTVSPost2010Prop47
 90
       50
102
RTVSPost2010PropOp47
 70
     1
102
RTVSPost2010Prop48
 90
       50
102
RTVSPost2010PropOp48
 70
     1
102
RTVSPost2010Prop49
280
     0
102
RTVSPost2010PropOp49
 70
     1
102
RTVSPost2010Prop50
 90
       50
102
RTVSPost2010PropOp50
 70
     1
102
RTVSPost2010Prop51ColorIndex
 90
      256
102
RTVSPost2010Prop51ColorRGB
 90
-16777216
102
RTVSPost2010PropOp51
 70
     0
102
RTVSPost2010Prop52
140
1.0
102
RTVSPost2010PropOp52
 70
     0
102
RTVSPost2010Prop53
 90
        2
102
RTVSPost2010PropOp53
 70
     1
102
RTVSPost2010Prop54
  1
strokes_ogs.tif
102
RTVSPost2010PropOp54
 70
     1
102
RTVSPost2010Prop55
280
     0
102
RTVSPost2010PropOp55
 70
     1
102
RTVSPost2010Prop56
140
1.0
102
RTVSPost2010PropOp56
 70
     1
102
RTVSPost2010Prop57
140
1.0
102
RTVSPost2010PropOp57
 70
     1
102
RTVSPropertyOp0
 70
     1
102
RTVSPropertyOp1
 70
     1
102
RTVSPropertyOp2
 70
     1
102
RTVSPropertyOp3
 70
     1
102
RTVSPropertyOp4
 70
     1
102
RTVSPropertyOp5
 70
     1
102
RTVSPropertyOp6
 70
     1
102
RTVSPropertyOp7
 70
     1
102
RTVSPropertyOp8
 70
     1
102
RTVSPropertyOp9
 70
     1
102
RTVSPropertyOp10
 70
     1
102
RTVSPropertyOp11
 70
     1
102
RTVSPropertyOp12
 70
     1
102
RTVSPropertyOp13
 70
     1
102
RTVSPropertyOp14
 70
     1
102
RTVSPropertyOp15
 70
     1
102
RTVSPropertyOp16
 70
     1
102
RTVSPropertyOp17
 70
     1
102
RTVSPropertyOp18
 70
     1
102
RTVSPropertyOp19
 70
     1
102
RTVSPropertyOp20
 70
     1
102
RTVSPropertyOp21
 70
     1
102
RTVSPropertyOp22
 70
     1
102
RTVSPropertyOp23
 70
     1
102
RTVSPropertyOp24
 70
     1
102
RTVSPropertyOp25
 70
     1
102
RTVSPropertyOp26
 70
     1
102
RTVSPropertyOp27
 70
     1
102
RTVSPropertyOp28
 70
     1
102
RTVSPropertyOp29
 70
     1
102
RTVSPropertyOp30
 70
     1
102
RTVSPropertyOp31
 70
     1
102
RTVSPropertyOp32
 70
     1
102
RTVSPropertyOp33
 70
     1
102
RTVSPropertyOp34
 70
     1
102
RTVSPropertyOp35
 70
     1
102
RTVSPropertyOp36
 70
     1
102
RTVSPropertyOp37
 70
     1
102
RTVSPropertyOp38
 70
     1
102
RTVSPropertyOp39
 70
     1
102
RTVSPropertyOp40
 70
     1
102
RTVSPropertyOp41
 70
     1
102
RTVSPropertyOp42
 70
     1
102
RTVSPropertyOp43
 70
     1
102
RTVSPropertyOp44
 70
     1
102
RTVSPropertyOp45
 70
     1
102
RTVSPropertyOp46
 70
     1
102
RTVSPropertyOp47
 70
     1
102
RTVSPropertyOp48
 70
     1
102
RTVSPropertyOp49
 70
     1
102
RTVSPropertyOp50
 70
     1
102
RTVSPropertyOp51
 70
     0
102
RTVSPropertyOp52
 70
     0
102
RTVSPropertyOp53
 70
     1
102
RTVSPropertyOp54
 70
     1
102
RTVSPropertyOp55
 70
     1
102
RTVSPropertyOp56
 70
     1
102
RTVSPropertyOp57
 70
     1
102
RTVSPropertyOp58
 70
     1
102
RTVSPropertyOp59
 70
     1
102
RTVSPropertyOp60
 70
     1
102
RTVSPropertyOp61
 70
     1
102
RTVSPropertyOp62
 70
     1
  0
XRECORD
  5
DE15
102
{ACAD_REACTORS
330
DE14
102
}
330
DE14
100
AcDbXrecord
280
     1
102
RTVSPost2010Prop28
280
     0
102
RTVSPost2010PropOp28
 70
     1
102
RTVSPost2010Prop29
280
     1
102
RTVSPost2010PropOp29
 70
     1
102
RTVSPost2010Prop30
280
     1
102
RTVSPost2010PropOp30
 70
     1
102
RTVSPost2010Prop31
280
     0
102
RTVSPost2010PropOp31
 70
     1
102
RTVSPost2010Prop32
280
     0
102
RTVSPost2010PropOp32
 70
     1
102
RTVSPost2010Prop33
280
     0
102
RTVSPost2010PropOp33
 70
     1
102
RTVSPost2010Prop34
280
     0
102
RTVSPost2010PropOp34
 70
     1
102
RTVSPost2010Prop35
280
     0
102
RTVSPost2010PropOp35
 70
     1
102
RTVSPost2010Prop36
280
     0
102
RTVSPost2010PropOp36
 70
     1
102
RTVSPost2010Prop37
 90
       50
102
RTVSPost2010PropOp37
 70
     1
102
RTVSPost2010Prop38
140
0.0
102
RTVSPost2010PropOp38
 70
     1
102
RTVSPost2010Prop39
140
1.0
102
RTVSPost2010PropOp39
 70
     1
102
RTVSPost2010Prop40
 90
        0
102
RTVSPost2010PropOp40
 70
     1
102
RTVSPost2010Prop41ColorIndex
 90
       18
102
RTVSPost2010Prop41ColorRGB
 90
        0
102
RTVSPost2010PropOp41
 70
     1
102
RTVSPost2010Prop42
 90
       50
102
RTVSPost2010PropOp42
 70
     1
102
RTVSPost2010Prop43
 90
        3
102
RTVSPost2010PropOp43
 70
     1
102
RTVSPost2010Prop44ColorIndex
 90
        5
102
RTVSPost2010Prop44ColorRGB
 90
      255
102
RTVSPost2010PropOp44
 70
     1
102
RTVSPost2010Prop45
280
     0
102
RTVSPost2010PropOp45
 70
     1
102
RTVSPost2010Prop46
 90
       50
102
RTVSPost2010PropOp46
 70
     1
102
RTVSPost2010Prop47
 90
       50
102
RTVSPost2010PropOp47
 70
     1
102
RTVSPost2010Prop48
 90
       50
102
RTVSPost2010PropOp48
 70
     1
102
RTVSPost2010Prop49
280
     0
102
RTVSPost2010PropOp49
 70
     1
102
RTVSPost2010Prop50
 90
       50
102
RTVSPost2010PropOp50
 70
     1
102
RTVSPost2010Prop51ColorIndex
 90
      256
102
RTVSPost2010Prop51ColorRGB
 90
-16777216
102
RTVSPost2010PropOp51
 70
     0
102
RTVSPost2010Prop52
140
1.0
102
RTVSPost2010PropOp52
 70
     0
102
RTVSPost2010Prop53
 90
        2
102
RTVSPost2010PropOp53
 70
     1
102
RTVSPost2010Prop54
  1
strokes_ogs.tif
102
RTVSPost2010PropOp54
 70
     1
102
RTVSPost2010Prop55
280
     0
102
RTVSPost2010PropOp55
 70
     1
102
RTVSPost2010Prop56
140
1.0
102
RTVSPost2010PropOp56
 70
     1
102
RTVSPost2010Prop57
140
1.0
102
RTVSPost2010PropOp57
 70
     1
102
RTVSPropertyOp0
 70
     1
102
RTVSPropertyOp1
 70
     1
102
RTVSPropertyOp2
 70
     1
102
RTVSPropertyOp3
 70
     1
102
RTVSPropertyOp4
 70
     1
102
RTVSPropertyOp5
 70
     1
102
RTVSPropertyOp6
 70
     1
102
RTVSPropertyOp7
 70
     1
102
RTVSPropertyOp8
 70
     1
102
RTVSPropertyOp9
 70
     1
102
RTVSPropertyOp10
 70
     1
102
RTVSPropertyOp11
 70
     1
102
RTVSPropertyOp12
 70
     1
102
RTVSPropertyOp13
 70
     1
102
RTVSPropertyOp14
 70
     1
102
RTVSPropertyOp15
 70
     1
102
RTVSPropertyOp16
 70
     1
102
RTVSPropertyOp17
 70
     1
102
RTVSPropertyOp18
 70
     1
102
RTVSPropertyOp19
 70
     1
102
RTVSPropertyOp20
 70
     1
102
RTVSPropertyOp21
 70
     1
102
RTVSPropertyOp22
 70
     1
102
RTVSPropertyOp23
 70
     1
102
RTVSPropertyOp24
 70
     1
102
RTVSPropertyOp25
 70
     1
102
RTVSPropertyOp26
 70
     1
102
RTVSPropertyOp27
 70
     1
102
RTVSPropertyOp28
 70
     1
102
RTVSPropertyOp29
 70
     1
102
RTVSPropertyOp30
 70
     1
102
RTVSPropertyOp31
 70
     1
102
RTVSPropertyOp32
 70
     1
102
RTVSPropertyOp33
 70
     1
102
RTVSPropertyOp34
 70
     1
102
RTVSPropertyOp35
 70
     1
102
RTVSPropertyOp36
 70
     1
102
RTVSPropertyOp37
 70
     1
102
RTVSPropertyOp38
 70
     1
102
RTVSPropertyOp39
 70
     1
102
RTVSPropertyOp40
 70
     1
102
RTVSPropertyOp41
 70
     1
102
RTVSPropertyOp42
 70
     1
102
RTVSPropertyOp43
 70
     1
102
RTVSPropertyOp44
 70
     1
102
RTVSPropertyOp45
 70
     1
102
RTVSPropertyOp46
 70
     1
102
RTVSPropertyOp47
 70
     1
102
RTVSPropertyOp48
 70
     1
102
RTVSPropertyOp49
 70
     1
102
RTVSPropertyOp50
 70
     1
102
RTVSPropertyOp51
 70
     0
102
RTVSPropertyOp52
 70
     0
102
RTVSPropertyOp53
 70
     1
102
RTVSPropertyOp54
 70
     1
102
RTVSPropertyOp55
 70
     1
102
RTVSPropertyOp56
 70
     1
102
RTVSPropertyOp57
 70
     1
102
RTVSPropertyOp58
 70
     1
102
RTVSPropertyOp59
 70
     1
102
RTVSPropertyOp60
 70
     1
102
RTVSPropertyOp61
 70
     1
102
RTVSPropertyOp62
 70
     1
  0
XRECORD
  5
DE31
102
{ACAD_REACTORS
330
DE30
102
}
330
DE30
100
AcDbXrecord
280
     1
102
RTVSPost2010Prop28
280
     0
102
RTVSPost2010PropOp28
 70
     1
102
RTVSPost2010Prop29
280
     1
102
RTVSPost2010PropOp29
 70
     1
102
RTVSPost2010Prop30
280
     1
102
RTVSPost2010PropOp30
 70
     1
102
RTVSPost2010Prop31
280
     0
102
RTVSPost2010PropOp31
 70
     1
102
RTVSPost2010Prop32
280
     0
102
RTVSPost2010PropOp32
 70
     1
102
RTVSPost2010Prop33
280
     0
102
RTVSPost2010PropOp33
 70
     1
102
RTVSPost2010Prop34
280
     0
102
RTVSPost2010PropOp34
 70
     1
102
RTVSPost2010Prop35
280
     0
102
RTVSPost2010PropOp35
 70
     1
102
RTVSPost2010Prop36
280
     0
102
RTVSPost2010PropOp36
 70
     1
102
RTVSPost2010Prop37
 90
       50
102
RTVSPost2010PropOp37
 70
     0
102
RTVSPost2010Prop38
140
0.0
102
RTVSPost2010PropOp38
 70
     0
102
RTVSPost2010Prop39
140
1.0
102
RTVSPost2010PropOp39
 70
     0
102
RTVSPost2010Prop40
 90
        0
102
RTVSPost2010PropOp40
 70
     0
102
RTVSPost2010Prop41ColorIndex
 90
       18
102
RTVSPost2010Prop41ColorRGB
 90
        0
102
RTVSPost2010PropOp41
 70
     0
102
RTVSPost2010Prop42
 90
       50
102
RTVSPost2010PropOp42
 70
     0
102
RTVSPost2010Prop43
 90
        3
102
RTVSPost2010PropOp43
 70
     0
102
RTVSPost2010Prop44ColorIndex
 90
        5
102
RTVSPost2010Prop44ColorRGB
 90
      255
102
RTVSPost2010PropOp44
 70
     0
102
RTVSPost2010Prop45
280
     0
102
RTVSPost2010PropOp45
 70
     1
102
RTVSPost2010Prop46
 90
       50
102
RTVSPost2010PropOp46
 70
     0
102
RTVSPost2010Prop47
 90
       50
102
RTVSPost2010PropOp47
 70
     0
102
RTVSPost2010Prop48
 90
       50
102
RTVSPost2010PropOp48
 70
     0
102
RTVSPost2010Prop49
280
     0
102
RTVSPost2010PropOp49
 70
     1
102
RTVSPost2010Prop50
 90
       50
102
RTVSPost2010PropOp50
 70
     0
102
RTVSPost2010Prop51ColorIndex
 90
      256
102
RTVSPost2010Prop51ColorRGB
 90
-16777216
102
RTVSPost2010PropOp51
 70
     0
102
RTVSPost2010Prop52
140
1.0
102
RTVSPost2010PropOp52
 70
     0
102
RTVSPost2010Prop53
 90
        2
102
RTVSPost2010PropOp53
 70
     0
102
RTVSPost2010Prop54
  1
strokes_ogs.tif
102
RTVSPost2010PropOp54
 70
     0
102
RTVSPost2010Prop55
280
     0
102
RTVSPost2010PropOp55
 70
     1
102
RTVSPost2010Prop56
140
1.0
102
RTVSPost2010PropOp56
 70
     0
102
RTVSPost2010Prop57
140
1.0
102
RTVSPost2010PropOp57
 70
     0
102
RTVSPropertyOp0
 70
     0
102
RTVSPropertyOp1
 70
     0
102
RTVSPropertyOp2
 70
     0
102
RTVSPropertyOp3
 70
     0
102
RTVSPropertyOp4
 70
     0
102
RTVSPropertyOp5
 70
     0
102
RTVSPropertyOp6
 70
     0
102
RTVSPropertyOp7
 70
     0
102
RTVSPropertyOp8
 70
     0
102
RTVSPropertyOp9
 70
     0
102
RTVSPropertyOp10
 70
     0
102
RTVSPropertyOp11
 70
     0
102
RTVSPropertyOp12
 70
     0
102
RTVSPropertyOp13
 70
     0
102
RTVSPropertyOp14
 70
     2
102
RTVSPropertyOp15
 70
     0
102
RTVSPropertyOp16
 70
     0
102
RTVSPropertyOp17
 70
     0
102
RTVSPropertyOp18
 70
     0
102
RTVSPropertyOp19
 70
     0
102
RTVSPropertyOp20
 70
     0
102
RTVSPropertyOp21
 70
     0
102
RTVSPropertyOp22
 70
     0
102
RTVSPropertyOp23
 70
     0
102
RTVSPropertyOp24
 70
     0
102
RTVSPropertyOp25
 70
     0
102
RTVSPropertyOp26
 70
     0
102
RTVSPropertyOp27
 70
     0
102
RTVSPropertyOp28
 70
     1
102
RTVSPropertyOp29
 70
     1
102
RTVSPropertyOp30
 70
     1
102
RTVSPropertyOp31
 70
     1
102
RTVSPropertyOp32
 70
     1
102
RTVSPropertyOp33
 70
     1
102
RTVSPropertyOp34
 70
     1
102
RTVSPropertyOp35
 70
     1
102
RTVSPropertyOp36
 70
     1
102
RTVSPropertyOp37
 70
     0
102
RTVSPropertyOp38
 70
     0
102
RTVSPropertyOp39
 70
     0
102
RTVSPropertyOp40
 70
     0
102
RTVSPropertyOp41
 70
     0
102
RTVSPropertyOp42
 70
     0
102
RTVSPropertyOp43
 70
     0
102
RTVSPropertyOp44
 70
     0
102
RTVSPropertyOp45
 70
     1
102
RTVSPropertyOp46
 70
     0
102
RTVSPropertyOp47
 70
     0
102
RTVSPropertyOp48
 70
     0
102
RTVSPropertyOp49
 70
     1
102
RTVSPropertyOp50
 70
     0
102
RTVSPropertyOp51
 70
     0
102
RTVSPropertyOp52
 70
     0
102
RTVSPropertyOp53
 70
     0
102
RTVSPropertyOp54
 70
     0
102
RTVSPropertyOp55
 70
     1
102
RTVSPropertyOp56
 70
     0
102
RTVSPropertyOp57
 70
     0
102
RTVSPropertyOp58
 70
     0
102
RTVSPropertyOp59
 70
     0
102
RTVSPropertyOp60
 70
     0
102
RTVSPropertyOp61
 70
     0
102
RTVSPropertyOp62
 70
     0
  0
XRECORD
  5
DE21
102
{ACAD_REACTORS
330
DE20
102
}
330
DE20
100
AcDbXrecord
280
     1
102
RTVSPost2010Prop28
280
     0
102
RTVSPost2010PropOp28
 70
     1
102
RTVSPost2010Prop29
280
     1
102
RTVSPost2010PropOp29
 70
     1
102
RTVSPost2010Prop30
280
     1
102
RTVSPost2010PropOp30
 70
     1
102
RTVSPost2010Prop31
280
     0
102
RTVSPost2010PropOp31
 70
     1
102
RTVSPost2010Prop32
280
     0
102
RTVSPost2010PropOp32
 70
     1
102
RTVSPost2010Prop33
280
     0
102
RTVSPost2010PropOp33
 70
     1
102
RTVSPost2010Prop34
280
     0
102
RTVSPost2010PropOp34
 70
     1
102
RTVSPost2010Prop35
280
     0
102
RTVSPost2010PropOp35
 70
     1
102
RTVSPost2010Prop36
280
     0
102
RTVSPost2010PropOp36
 70
     1
102
RTVSPost2010Prop37
 90
       50
102
RTVSPost2010PropOp37
 70
     1
102
RTVSPost2010Prop38
140
0.0
102
RTVSPost2010PropOp38
 70
     1
102
RTVSPost2010Prop39
140
1.0
102
RTVSPost2010PropOp39
 70
     1
102
RTVSPost2010Prop40
 90
        0
102
RTVSPost2010PropOp40
 70
     1
102
RTVSPost2010Prop41ColorIndex
 90
       18
102
RTVSPost2010Prop41ColorRGB
 90
        0
102
RTVSPost2010PropOp41
 70
     1
102
RTVSPost2010Prop42
 90
       50
102
RTVSPost2010PropOp42
 70
     1
102
RTVSPost2010Prop43
 90
        3
102
RTVSPost2010PropOp43
 70
     1
102
RTVSPost2010Prop44ColorIndex
 90
        5
102
RTVSPost2010Prop44ColorRGB
 90
      255
102
RTVSPost2010PropOp44
 70
     1
102
RTVSPost2010Prop45
280
     0
102
RTVSPost2010PropOp45
 70
     1
102
RTVSPost2010Prop46
 90
       50
102
RTVSPost2010PropOp46
 70
     1
102
RTVSPost2010Prop47
 90
       50
102
RTVSPost2010PropOp47
 70
     1
102
RTVSPost2010Prop48
 90
       50
102
RTVSPost2010PropOp48
 70
     1
102
RTVSPost2010Prop49
280
     0
102
RTVSPost2010PropOp49
 70
     1
102
RTVSPost2010Prop50
 90
       50
102
RTVSPost2010PropOp50
 70
     1
102
RTVSPost2010Prop51ColorIndex
 90
      256
102
RTVSPost2010Prop51ColorRGB
 90
-16777216
102
RTVSPost2010PropOp51
 70
     0
102
RTVSPost2010Prop52
140
1.0
102
RTVSPost2010PropOp52
 70
     0
102
RTVSPost2010Prop53
 90
        2
102
RTVSPost2010PropOp53
 70
     1
102
RTVSPost2010Prop54
  1
strokes_ogs.tif
102
RTVSPost2010PropOp54
 70
     1
102
RTVSPost2010Prop55
280
     0
102
RTVSPost2010PropOp55
 70
     1
102
RTVSPost2010Prop56
140
1.0
102
RTVSPost2010PropOp56
 70
     1
102
RTVSPost2010Prop57
140
1.0
102
RTVSPost2010PropOp57
 70
     1
102
RTVSPropertyOp0
 70
     1
102
RTVSPropertyOp1
 70
     1
102
RTVSPropertyOp2
 70
     1
102
RTVSPropertyOp3
 70
     1
102
RTVSPropertyOp4
 70
     1
102
RTVSPropertyOp5
 70
     1
102
RTVSPropertyOp6
 70
     1
102
RTVSPropertyOp7
 70
     1
102
RTVSPropertyOp8
 70
     1
102
RTVSPropertyOp9
 70
     1
102
RTVSPropertyOp10
 70
     1
102
RTVSPropertyOp11
 70
     1
102
RTVSPropertyOp12
 70
     1
102
RTVSPropertyOp13
 70
     1
102
RTVSPropertyOp14
 70
     1
102
RTVSPropertyOp15
 70
     1
102
RTVSPropertyOp16
 70
     1
102
RTVSPropertyOp17
 70
     1
102
RTVSPropertyOp18
 70
     1
102
RTVSPropertyOp19
 70
     1
102
RTVSPropertyOp20
 70
     1
102
RTVSPropertyOp21
 70
     1
102
RTVSPropertyOp22
 70
     1
102
RTVSPropertyOp23
 70
     1
102
RTVSPropertyOp24
 70
     1
102
RTVSPropertyOp25
 70
     1
102
RTVSPropertyOp26
 70
     1
102
RTVSPropertyOp27
 70
     1
102
RTVSPropertyOp28
 70
     1
102
RTVSPropertyOp29
 70
     1
102
RTVSPropertyOp30
 70
     1
102
RTVSPropertyOp31
 70
     1
102
RTVSPropertyOp32
 70
     1
102
RTVSPropertyOp33
 70
     1
102
RTVSPropertyOp34
 70
     1
102
RTVSPropertyOp35
 70
     1
102
RTVSPropertyOp36
 70
     1
102
RTVSPropertyOp37
 70
     1
102
RTVSPropertyOp38
 70
     1
102
RTVSPropertyOp39
 70
     1
102
RTVSPropertyOp40
 70
     1
102
RTVSPropertyOp41
 70
     1
102
RTVSPropertyOp42
 70
     1
102
RTVSPropertyOp43
 70
     1
102
RTVSPropertyOp44
 70
     1
102
RTVSPropertyOp45
 70
     1
102
RTVSPropertyOp46
 70
     1
102
RTVSPropertyOp47
 70
     1
102
RTVSPropertyOp48
 70
     1
102
RTVSPropertyOp49
 70
     1
102
RTVSPropertyOp50
 70
     1
102
RTVSPropertyOp51
 70
     0
102
RTVSPropertyOp52
 70
     0
102
RTVSPropertyOp53
 70
     1
102
RTVSPropertyOp54
 70
     1
102
RTVSPropertyOp55
 70
     1
102
RTVSPropertyOp56
 70
     1
102
RTVSPropertyOp57
 70
     1
102
RTVSPropertyOp58
 70
     1
102
RTVSPropertyOp59
 70
     1
102
RTVSPropertyOp60
 70
     1
102
RTVSPropertyOp61
 70
     1
102
RTVSPropertyOp62
 70
     1
  0
XRECORD
  5
DE33
102
{ACAD_REACTORS
330
DE32
102
}
330
DE32
100
AcDbXrecord
280
     1
102
RTVSPost2010Prop28
280
     0
102
RTVSPost2010PropOp28
 70
     1
102
RTVSPost2010Prop29
280
     1
102
RTVSPost2010PropOp29
 70
     1
102
RTVSPost2010Prop30
280
     1
102
RTVSPost2010PropOp30
 70
     1
102
RTVSPost2010Prop31
280
     0
102
RTVSPost2010PropOp31
 70
     1
102
RTVSPost2010Prop32
280
     0
102
RTVSPost2010PropOp32
 70
     1
102
RTVSPost2010Prop33
280
     0
102
RTVSPost2010PropOp33
 70
     1
102
RTVSPost2010Prop34
280
     0
102
RTVSPost2010PropOp34
 70
     1
102
RTVSPost2010Prop35
280
     0
102
RTVSPost2010PropOp35
 70
     1
102
RTVSPost2010Prop36
280
     0
102
RTVSPost2010PropOp36
 70
     1
102
RTVSPost2010Prop37
 90
       50
102
RTVSPost2010PropOp37
 70
     0
102
RTVSPost2010Prop38
140
0.0
102
RTVSPost2010PropOp38
 70
     0
102
RTVSPost2010Prop39
140
1.0
102
RTVSPost2010PropOp39
 70
     0
102
RTVSPost2010Prop40
 90
        0
102
RTVSPost2010PropOp40
 70
     0
102
RTVSPost2010Prop41ColorIndex
 90
       18
102
RTVSPost2010Prop41ColorRGB
 90
        0
102
RTVSPost2010PropOp41
 70
     0
102
RTVSPost2010Prop42
 90
       50
102
RTVSPost2010PropOp42
 70
     0
102
RTVSPost2010Prop43
 90
        3
102
RTVSPost2010PropOp43
 70
     0
102
RTVSPost2010Prop44ColorIndex
 90
        5
102
RTVSPost2010Prop44ColorRGB
 90
      255
102
RTVSPost2010PropOp44
 70
     0
102
RTVSPost2010Prop45
280
     0
102
RTVSPost2010PropOp45
 70
     1
102
RTVSPost2010Prop46
 90
       50
102
RTVSPost2010PropOp46
 70
     0
102
RTVSPost2010Prop47
 90
       50
102
RTVSPost2010PropOp47
 70
     0
102
RTVSPost2010Prop48
 90
       50
102
RTVSPost2010PropOp48
 70
     0
102
RTVSPost2010Prop49
280
     0
102
RTVSPost2010PropOp49
 70
     1
102
RTVSPost2010Prop50
 90
       50
102
RTVSPost2010PropOp50
 70
     0
102
RTVSPost2010Prop51ColorIndex
 90
      256
102
RTVSPost2010Prop51ColorRGB
 90
-16777216
102
RTVSPost2010PropOp51
 70
     0
102
RTVSPost2010Prop52
140
1.0
102
RTVSPost2010PropOp52
 70
     0
102
RTVSPost2010Prop53
 90
        2
102
RTVSPost2010PropOp53
 70
     0
102
RTVSPost2010Prop54
  1
strokes_ogs.tif
102
RTVSPost2010PropOp54
 70
     0
102
RTVSPost2010Prop55
280
     0
102
RTVSPost2010PropOp55
 70
     1
102
RTVSPost2010Prop56
140
1.0
102
RTVSPost2010PropOp56
 70
     0
102
RTVSPost2010Prop57
140
1.0
102
RTVSPost2010PropOp57
 70
     0
102
RTVSPropertyOp0
 70
     0
102
RTVSPropertyOp1
 70
     0
102
RTVSPropertyOp2
 70
     0
102
RTVSPropertyOp3
 70
     0
102
RTVSPropertyOp4
 70
     0
102
RTVSPropertyOp5
 70
     0
102
RTVSPropertyOp6
 70
     0
102
RTVSPropertyOp7
 70
     0
102
RTVSPropertyOp8
 70
     0
102
RTVSPropertyOp9
 70
     0
102
RTVSPropertyOp10
 70
     0
102
RTVSPropertyOp11
 70
     0
102
RTVSPropertyOp12
 70
     0
102
RTVSPropertyOp13
 70
     0
102
RTVSPropertyOp14
 70
     2
102
RTVSPropertyOp15
 70
     0
102
RTVSPropertyOp16
 70
     0
102
RTVSPropertyOp17
 70
     0
102
RTVSPropertyOp18
 70
     0
102
RTVSPropertyOp19
 70
     0
102
RTVSPropertyOp20
 70
     0
102
RTVSPropertyOp21
 70
     0
102
RTVSPropertyOp22
 70
     0
102
RTVSPropertyOp23
 70
     0
102
RTVSPropertyOp24
 70
     0
102
RTVSPropertyOp25
 70
     0
102
RTVSPropertyOp26
 70
     0
102
RTVSPropertyOp27
 70
     0
102
RTVSPropertyOp28
 70
     1
102
RTVSPropertyOp29
 70
     1
102
RTVSPropertyOp30
 70
     1
102
RTVSPropertyOp31
 70
     1
102
RTVSPropertyOp32
 70
     1
102
RTVSPropertyOp33
 70
     1
102
RTVSPropertyOp34
 70
     1
102
RTVSPropertyOp35
 70
     1
102
RTVSPropertyOp36
 70
     1
102
RTVSPropertyOp37
 70
     0
102
RTVSPropertyOp38
 70
     0
102
RTVSPropertyOp39
 70
     0
102
RTVSPropertyOp40
 70
     0
102
RTVSPropertyOp41
 70
     0
102
RTVSPropertyOp42
 70
     0
102
RTVSPropertyOp43
 70
     0
102
RTVSPropertyOp44
 70
     0
102
RTVSPropertyOp45
 70
     1
102
RTVSPropertyOp46
 70
     0
102
RTVSPropertyOp47
 70
     0
102
RTVSPropertyOp48
 70
     0
102
RTVSPropertyOp49
 70
     1
102
RTVSPropertyOp50
 70
     0
102
RTVSPropertyOp51
 70
     0
102
RTVSPropertyOp52
 70
     0
102
RTVSPropertyOp53
 70
     0
102
RTVSPropertyOp54
 70
     0
102
RTVSPropertyOp55
 70
     1
102
RTVSPropertyOp56
 70
     0
102
RTVSPropertyOp57
 70
     0
102
RTVSPropertyOp58
 70
     0
102
RTVSPropertyOp59
 70
     0
102
RTVSPropertyOp60
 70
     0
102
RTVSPropertyOp61
 70
     0
102
RTVSPropertyOp62
 70
     0
  0
XRECORD
  5
DE19
102
{ACAD_REACTORS
330
DE18
102
}
330
DE18
100
AcDbXrecord
280
     1
102
RTVSPost2010Prop28
280
     0
102
RTVSPost2010PropOp28
 70
     1
102
RTVSPost2010Prop29
280
     1
102
RTVSPost2010PropOp29
 70
     1
102
RTVSPost2010Prop30
280
     1
102
RTVSPost2010PropOp30
 70
     1
102
RTVSPost2010Prop31
280
     0
102
RTVSPost2010PropOp31
 70
     1
102
RTVSPost2010Prop32
280
     0
102
RTVSPost2010PropOp32
 70
     1
102
RTVSPost2010Prop33
280
     0
102
RTVSPost2010PropOp33
 70
     1
102
RTVSPost2010Prop34
280
     0
102
RTVSPost2010PropOp34
 70
     1
102
RTVSPost2010Prop35
280
     0
102
RTVSPost2010PropOp35
 70
     1
102
RTVSPost2010Prop36
280
     0
102
RTVSPost2010PropOp36
 70
     1
102
RTVSPost2010Prop37
 90
       50
102
RTVSPost2010PropOp37
 70
     1
102
RTVSPost2010Prop38
140
0.0
102
RTVSPost2010PropOp38
 70
     1
102
RTVSPost2010Prop39
140
1.0
102
RTVSPost2010PropOp39
 70
     1
102
RTVSPost2010Prop40
 90
        0
102
RTVSPost2010PropOp40
 70
     1
102
RTVSPost2010Prop41ColorIndex
 90
       18
102
RTVSPost2010Prop41ColorRGB
 90
        0
102
RTVSPost2010PropOp41
 70
     1
102
RTVSPost2010Prop42
 90
       50
102
RTVSPost2010PropOp42
 70
     1
102
RTVSPost2010Prop43
 90
        3
102
RTVSPost2010PropOp43
 70
     1
102
RTVSPost2010Prop44ColorIndex
 90
        5
102
RTVSPost2010Prop44ColorRGB
 90
      255
102
RTVSPost2010PropOp44
 70
     1
102
RTVSPost2010Prop45
280
     0
102
RTVSPost2010PropOp45
 70
     1
102
RTVSPost2010Prop46
 90
       50
102
RTVSPost2010PropOp46
 70
     1
102
RTVSPost2010Prop47
 90
       50
102
RTVSPost2010PropOp47
 70
     1
102
RTVSPost2010Prop48
 90
       50
102
RTVSPost2010PropOp48
 70
     1
102
RTVSPost2010Prop49
280
     0
102
RTVSPost2010PropOp49
 70
     1
102
RTVSPost2010Prop50
 90
       50
102
RTVSPost2010PropOp50
 70
     1
102
RTVSPost2010Prop51ColorIndex
 90
      256
102
RTVSPost2010Prop51ColorRGB
 90
-16777216
102
RTVSPost2010PropOp51
 70
     0
102
RTVSPost2010Prop52
140
1.0
102
RTVSPost2010PropOp52
 70
     0
102
RTVSPost2010Prop53
 90
        2
102
RTVSPost2010PropOp53
 70
     1
102
RTVSPost2010Prop54
  1
strokes_ogs.tif
102
RTVSPost2010PropOp54
 70
     1
102
RTVSPost2010Prop55
280
     0
102
RTVSPost2010PropOp55
 70
     1
102
RTVSPost2010Prop56
140
1.0
102
RTVSPost2010PropOp56
 70
     1
102
RTVSPost2010Prop57
140
1.0
102
RTVSPost2010PropOp57
 70
     1
102
RTVSPropertyOp0
 70
     1
102
RTVSPropertyOp1
 70
     1
102
RTVSPropertyOp2
 70
     1
102
RTVSPropertyOp3
 70
     1
102
RTVSPropertyOp4
 70
     1
102
RTVSPropertyOp5
 70
     1
102
RTVSPropertyOp6
 70
     1
102
RTVSPropertyOp7
 70
     1
102
RTVSPropertyOp8
 70
     1
102
RTVSPropertyOp9
 70
     1
102
RTVSPropertyOp10
 70
     1
102
RTVSPropertyOp11
 70
     1
102
RTVSPropertyOp12
 70
     1
102
RTVSPropertyOp13
 70
     1
102
RTVSPropertyOp14
 70
     1
102
RTVSPropertyOp15
 70
     1
102
RTVSPropertyOp16
 70
     1
102
RTVSPropertyOp17
 70
     1
102
RTVSPropertyOp18
 70
     1
102
RTVSPropertyOp19
 70
     1
102
RTVSPropertyOp20
 70
     1
102
RTVSPropertyOp21
 70
     1
102
RTVSPropertyOp22
 70
     1
102
RTVSPropertyOp23
 70
     1
102
RTVSPropertyOp24
 70
     1
102
RTVSPropertyOp25
 70
     1
102
RTVSPropertyOp26
 70
     1
102
RTVSPropertyOp27
 70
     1
102
RTVSPropertyOp28
 70
     1
102
RTVSPropertyOp29
 70
     1
102
RTVSPropertyOp30
 70
     1
102
RTVSPropertyOp31
 70
     1
102
RTVSPropertyOp32
 70
     1
102
RTVSPropertyOp33
 70
     1
102
RTVSPropertyOp34
 70
     1
102
RTVSPropertyOp35
 70
     1
102
RTVSPropertyOp36
 70
     1
102
RTVSPropertyOp37
 70
     1
102
RTVSPropertyOp38
 70
     1
102
RTVSPropertyOp39
 70
     1
102
RTVSPropertyOp40
 70
     1
102
RTVSPropertyOp41
 70
     1
102
RTVSPropertyOp42
 70
     1
102
RTVSPropertyOp43
 70
     1
102
RTVSPropertyOp44
 70
     1
102
RTVSPropertyOp45
 70
     1
102
RTVSPropertyOp46
 70
     1
102
RTVSPropertyOp47
 70
     1
102
RTVSPropertyOp48
 70
     1
102
RTVSPropertyOp49
 70
     1
102
RTVSPropertyOp50
 70
     1
102
RTVSPropertyOp51
 70
     0
102
RTVSPropertyOp52
 70
     0
102
RTVSPropertyOp53
 70
     1
102
RTVSPropertyOp54
 70
     1
102
RTVSPropertyOp55
 70
     1
102
RTVSPropertyOp56
 70
     1
102
RTVSPropertyOp57
 70
     1
102
RTVSPropertyOp58
 70
     1
102
RTVSPropertyOp59
 70
     1
102
RTVSPropertyOp60
 70
     1
102
RTVSPropertyOp61
 70
     1
102
RTVSPropertyOp62
 70
     1
  0
XRECORD
  5
DE2F
102
{ACAD_REACTORS
330
DE2E
102
}
330
DE2E
100
AcDbXrecord
280
     1
102
RTVSPost2010Prop28
280
     0
102
RTVSPost2010PropOp28
 70
     1
102
RTVSPost2010Prop29
280
     1
102
RTVSPost2010PropOp29
 70
     1
102
RTVSPost2010Prop30
280
     1
102
RTVSPost2010PropOp30
 70
     1
102
RTVSPost2010Prop31
280
     0
102
RTVSPost2010PropOp31
 70
     1
102
RTVSPost2010Prop32
280
     0
102
RTVSPost2010PropOp32
 70
     1
102
RTVSPost2010Prop33
280
     0
102
RTVSPost2010PropOp33
 70
     1
102
RTVSPost2010Prop34
280
     0
102
RTVSPost2010PropOp34
 70
     1
102
RTVSPost2010Prop35
280
     0
102
RTVSPost2010PropOp35
 70
     1
102
RTVSPost2010Prop36
280
     0
102
RTVSPost2010PropOp36
 70
     1
102
RTVSPost2010Prop37
 90
       50
102
RTVSPost2010PropOp37
 70
     1
102
RTVSPost2010Prop38
140
0.0
102
RTVSPost2010PropOp38
 70
     1
102
RTVSPost2010Prop39
140
1.0
102
RTVSPost2010PropOp39
 70
     1
102
RTVSPost2010Prop40
 90
        0
102
RTVSPost2010PropOp40
 70
     1
102
RTVSPost2010Prop41ColorIndex
 90
       18
102
RTVSPost2010Prop41ColorRGB
 90
        0
102
RTVSPost2010PropOp41
 70
     1
102
RTVSPost2010Prop42
 90
       50
102
RTVSPost2010PropOp42
 70
     1
102
RTVSPost2010Prop43
 90
        3
102
RTVSPost2010PropOp43
 70
     1
102
RTVSPost2010Prop44ColorIndex
 90
        5
102
RTVSPost2010Prop44ColorRGB
 90
      255
102
RTVSPost2010PropOp44
 70
     1
102
RTVSPost2010Prop45
280
     0
102
RTVSPost2010PropOp45
 70
     1
102
RTVSPost2010Prop46
 90
       50
102
RTVSPost2010PropOp46
 70
     1
102
RTVSPost2010Prop47
 90
       50
102
RTVSPost2010PropOp47
 70
     1
102
RTVSPost2010Prop48
 90
       50
102
RTVSPost2010PropOp48
 70
     1
102
RTVSPost2010Prop49
280
     0
102
RTVSPost2010PropOp49
 70
     1
102
RTVSPost2010Prop50
 90
       50
102
RTVSPost2010PropOp50
 70
     1
102
RTVSPost2010Prop51ColorIndex
 90
      256
102
RTVSPost2010Prop51ColorRGB
 90
-16777216
102
RTVSPost2010PropOp51
 70
     0
102
RTVSPost2010Prop52
140
1.0
102
RTVSPost2010PropOp52
 70
     0
102
RTVSPost2010Prop53
 90
        2
102
RTVSPost2010PropOp53
 70
     1
102
RTVSPost2010Prop54
  1
strokes_ogs.tif
102
RTVSPost2010PropOp54
 70
     1
102
RTVSPost2010Prop55
280
     0
102
RTVSPost2010PropOp55
 70
     1
102
RTVSPost2010Prop56
140
1.0
102
RTVSPost2010PropOp56
 70
     1
102
RTVSPost2010Prop57
140
1.0
102
RTVSPost2010PropOp57
 70
     1
102
RTVSPropertyOp0
 70
     1
102
RTVSPropertyOp1
 70
     1
102
RTVSPropertyOp2
 70
     1
102
RTVSPropertyOp3
 70
     1
102
RTVSPropertyOp4
 70
     1
102
RTVSPropertyOp5
 70
     1
102
RTVSPropertyOp6
 70
     1
102
RTVSPropertyOp7
 70
     1
102
RTVSPropertyOp8
 70
     1
102
RTVSPropertyOp9
 70
     1
102
RTVSPropertyOp10
 70
     1
102
RTVSPropertyOp11
 70
     1
102
RTVSPropertyOp12
 70
     1
102
RTVSPropertyOp13
 70
     1
102
RTVSPropertyOp14
 70
     1
102
RTVSPropertyOp15
 70
     1
102
RTVSPropertyOp16
 70
     1
102
RTVSPropertyOp17
 70
     1
102
RTVSPropertyOp18
 70
     1
102
RTVSPropertyOp19
 70
     1
102
RTVSPropertyOp20
 70
     1
102
RTVSPropertyOp21
 70
     1
102
RTVSPropertyOp22
 70
     1
102
RTVSPropertyOp23
 70
     1
102
RTVSPropertyOp24
 70
     1
102
RTVSPropertyOp25
 70
     1
102
RTVSPropertyOp26
 70
     1
102
RTVSPropertyOp27
 70
     1
102
RTVSPropertyOp28
 70
     1
102
RTVSPropertyOp29
 70
     1
102
RTVSPropertyOp30
 70
     1
102
RTVSPropertyOp31
 70
     1
102
RTVSPropertyOp32
 70
     1
102
RTVSPropertyOp33
 70
     1
102
RTVSPropertyOp34
 70
     1
102
RTVSPropertyOp35
 70
     1
102
RTVSPropertyOp36
 70
     1
102
RTVSPropertyOp37
 70
     1
102
RTVSPropertyOp38
 70
     1
102
RTVSPropertyOp39
 70
     1
102
RTVSPropertyOp40
 70
     1
102
RTVSPropertyOp41
 70
     1
102
RTVSPropertyOp42
 70
     1
102
RTVSPropertyOp43
 70
     1
102
RTVSPropertyOp44
 70
     1
102
RTVSPropertyOp45
 70
     1
102
RTVSPropertyOp46
 70
     1
102
RTVSPropertyOp47
 70
     1
102
RTVSPropertyOp48
 70
     1
102
RTVSPropertyOp49
 70
     1
102
RTVSPropertyOp50
 70
     1
102
RTVSPropertyOp51
 70
     0
102
RTVSPropertyOp52
 70
     0
102
RTVSPropertyOp53
 70
     1
102
RTVSPropertyOp54
 70
     1
102
RTVSPropertyOp55
 70
     1
102
RTVSPropertyOp56
 70
     1
102
RTVSPropertyOp57
 70
     1
102
RTVSPropertyOp58
 70
     1
102
RTVSPropertyOp59
 70
     1
102
RTVSPropertyOp60
 70
     1
102
RTVSPropertyOp61
 70
     1
102
RTVSPropertyOp62
 70
     1
  0
XRECORD
  5
DE2D
102
{ACAD_REACTORS
330
DE2C
102
}
330
DE2C
100
AcDbXrecord
280
     1
102
RTVSPost2010Prop28
280
     0
102
RTVSPost2010PropOp28
 70
     1
102
RTVSPost2010Prop29
280
     1
102
RTVSPost2010PropOp29
 70
     1
102
RTVSPost2010Prop30
280
     1
102
RTVSPost2010PropOp30
 70
     1
102
RTVSPost2010Prop31
280
     0
102
RTVSPost2010PropOp31
 70
     1
102
RTVSPost2010Prop32
280
     0
102
RTVSPost2010PropOp32
 70
     1
102
RTVSPost2010Prop33
280
     0
102
RTVSPost2010PropOp33
 70
     1
102
RTVSPost2010Prop34
280
     0
102
RTVSPost2010PropOp34
 70
     1
102
RTVSPost2010Prop35
280
     0
102
RTVSPost2010PropOp35
 70
     1
102
RTVSPost2010Prop36
280
     0
102
RTVSPost2010PropOp36
 70
     1
102
RTVSPost2010Prop37
 90
       50
102
RTVSPost2010PropOp37
 70
     1
102
RTVSPost2010Prop38
140
0.0
102
RTVSPost2010PropOp38
 70
     1
102
RTVSPost2010Prop39
140
1.0
102
RTVSPost2010PropOp39
 70
     1
102
RTVSPost2010Prop40
 90
        0
102
RTVSPost2010PropOp40
 70
     1
102
RTVSPost2010Prop41ColorIndex
 90
       18
102
RTVSPost2010Prop41ColorRGB
 90
        0
102
RTVSPost2010PropOp41
 70
     1
102
RTVSPost2010Prop42
 90
       50
102
RTVSPost2010PropOp42
 70
     1
102
RTVSPost2010Prop43
 90
        3
102
RTVSPost2010PropOp43
 70
     1
102
RTVSPost2010Prop44ColorIndex
 90
        5
102
RTVSPost2010Prop44ColorRGB
 90
      255
102
RTVSPost2010PropOp44
 70
     1
102
RTVSPost2010Prop45
280
     0
102
RTVSPost2010PropOp45
 70
     1
102
RTVSPost2010Prop46
 90
       50
102
RTVSPost2010PropOp46
 70
     1
102
RTVSPost2010Prop47
 90
       50
102
RTVSPost2010PropOp47
 70
     1
102
RTVSPost2010Prop48
 90
       50
102
RTVSPost2010PropOp48
 70
     1
102
RTVSPost2010Prop49
280
     0
102
RTVSPost2010PropOp49
 70
     1
102
RTVSPost2010Prop50
 90
       50
102
RTVSPost2010PropOp50
 70
     1
102
RTVSPost2010Prop51ColorIndex
 90
      256
102
RTVSPost2010Prop51ColorRGB
 90
-16777216
102
RTVSPost2010PropOp51
 70
     0
102
RTVSPost2010Prop52
140
1.0
102
RTVSPost2010PropOp52
 70
     0
102
RTVSPost2010Prop53
 90
        2
102
RTVSPost2010PropOp53
 70
     1
102
RTVSPost2010Prop54
  1
strokes_ogs.tif
102
RTVSPost2010PropOp54
 70
     1
102
RTVSPost2010Prop55
280
     0
102
RTVSPost2010PropOp55
 70
     1
102
RTVSPost2010Prop56
140
1.0
102
RTVSPost2010PropOp56
 70
     1
102
RTVSPost2010Prop57
140
1.0
102
RTVSPost2010PropOp57
 70
     1
102
RTVSPropertyOp0
 70
     1
102
RTVSPropertyOp1
 70
     1
102
RTVSPropertyOp2
 70
     1
102
RTVSPropertyOp3
 70
     1
102
RTVSPropertyOp4
 70
     1
102
RTVSPropertyOp5
 70
     1
102
RTVSPropertyOp6
 70
     1
102
RTVSPropertyOp7
 70
     1
102
RTVSPropertyOp8
 70
     1
102
RTVSPropertyOp9
 70
     1
102
RTVSPropertyOp10
 70
     1
102
RTVSPropertyOp11
 70
     1
102
RTVSPropertyOp12
 70
     1
102
RTVSPropertyOp13
 70
     1
102
RTVSPropertyOp14
 70
     1
102
RTVSPropertyOp15
 70
     1
102
RTVSPropertyOp16
 70
     1
102
RTVSPropertyOp17
 70
     1
102
RTVSPropertyOp18
 70
     1
102
RTVSPropertyOp19
 70
     1
102
RTVSPropertyOp20
 70
     1
102
RTVSPropertyOp21
 70
     1
102
RTVSPropertyOp22
 70
     1
102
RTVSPropertyOp23
 70
     1
102
RTVSPropertyOp24
 70
     1
102
RTVSPropertyOp25
 70
     1
102
RTVSPropertyOp26
 70
     1
102
RTVSPropertyOp27
 70
     1
102
RTVSPropertyOp28
 70
     1
102
RTVSPropertyOp29
 70
     1
102
RTVSPropertyOp30
 70
     1
102
RTVSPropertyOp31
 70
     1
102
RTVSPropertyOp32
 70
     1
102
RTVSPropertyOp33
 70
     1
102
RTVSPropertyOp34
 70
     1
102
RTVSPropertyOp35
 70
     1
102
RTVSPropertyOp36
 70
     1
102
RTVSPropertyOp37
 70
     1
102
RTVSPropertyOp38
 70
     1
102
RTVSPropertyOp39
 70
     1
102
RTVSPropertyOp40
 70
     1
102
RTVSPropertyOp41
 70
     1
102
RTVSPropertyOp42
 70
     1
102
RTVSPropertyOp43
 70
     1
102
RTVSPropertyOp44
 70
     1
102
RTVSPropertyOp45
 70
     1
102
RTVSPropertyOp46
 70
     1
102
RTVSPropertyOp47
 70
     1
102
RTVSPropertyOp48
 70
     1
102
RTVSPropertyOp49
 70
     1
102
RTVSPropertyOp50
 70
     1
102
RTVSPropertyOp51
 70
     0
102
RTVSPropertyOp52
 70
     0
102
RTVSPropertyOp53
 70
     1
102
RTVSPropertyOp54
 70
     1
102
RTVSPropertyOp55
 70
     1
102
RTVSPropertyOp56
 70
     1
102
RTVSPropertyOp57
 70
     1
102
RTVSPropertyOp58
 70
     1
102
RTVSPropertyOp59
 70
     1
102
RTVSPropertyOp60
 70
     1
102
RTVSPropertyOp61
 70
     1
102
RTVSPropertyOp62
 70
     1
  0
XRECORD
  5
DE27
102
{ACAD_REACTORS
330
DE26
102
}
330
DE26
100
AcDbXrecord
280
     1
102
RTVSPost2010Prop28
280
     0
102
RTVSPost2010PropOp28
 70
     1
102
RTVSPost2010Prop29
280
     1
102
RTVSPost2010PropOp29
 70
     1
102
RTVSPost2010Prop30
280
     1
102
RTVSPost2010PropOp30
 70
     1
102
RTVSPost2010Prop31
280
     0
102
RTVSPost2010PropOp31
 70
     1
102
RTVSPost2010Prop32
280
     0
102
RTVSPost2010PropOp32
 70
     1
102
RTVSPost2010Prop33
280
     0
102
RTVSPost2010PropOp33
 70
     1
102
RTVSPost2010Prop34
280
     0
102
RTVSPost2010PropOp34
 70
     1
102
RTVSPost2010Prop35
280
     0
102
RTVSPost2010PropOp35
 70
     1
102
RTVSPost2010Prop36
280
     0
102
RTVSPost2010PropOp36
 70
     1
102
RTVSPost2010Prop37
 90
       50
102
RTVSPost2010PropOp37
 70
     1
102
RTVSPost2010Prop38
140
0.0
102
RTVSPost2010PropOp38
 70
     1
102
RTVSPost2010Prop39
140
1.0
102
RTVSPost2010PropOp39
 70
     1
102
RTVSPost2010Prop40
 90
        0
102
RTVSPost2010PropOp40
 70
     1
102
RTVSPost2010Prop41ColorIndex
 90
       18
102
RTVSPost2010Prop41ColorRGB
 90
        0
102
RTVSPost2010PropOp41
 70
     1
102
RTVSPost2010Prop42
 90
       50
102
RTVSPost2010PropOp42
 70
     1
102
RTVSPost2010Prop43
 90
        3
102
RTVSPost2010PropOp43
 70
     1
102
RTVSPost2010Prop44ColorIndex
 90
        5
102
RTVSPost2010Prop44ColorRGB
 90
      255
102
RTVSPost2010PropOp44
 70
     1
102
RTVSPost2010Prop45
280
     0
102
RTVSPost2010PropOp45
 70
     1
102
RTVSPost2010Prop46
 90
       50
102
RTVSPost2010PropOp46
 70
     1
102
RTVSPost2010Prop47
 90
       50
102
RTVSPost2010PropOp47
 70
     1
102
RTVSPost2010Prop48
 90
       50
102
RTVSPost2010PropOp48
 70
     1
102
RTVSPost2010Prop49
280
     0
102
RTVSPost2010PropOp49
 70
     1
102
RTVSPost2010Prop50
 90
       50
102
RTVSPost2010PropOp50
 70
     1
102
RTVSPost2010Prop51ColorIndex
 90
      256
102
RTVSPost2010Prop51ColorRGB
 90
-16777216
102
RTVSPost2010PropOp51
 70
     0
102
RTVSPost2010Prop52
140
1.0
102
RTVSPost2010PropOp52
 70
     0
102
RTVSPost2010Prop53
 90
        2
102
RTVSPost2010PropOp53
 70
     1
102
RTVSPost2010Prop54
  1
strokes_ogs.tif
102
RTVSPost2010PropOp54
 70
     1
102
RTVSPost2010Prop55
280
     0
102
RTVSPost2010PropOp55
 70
     1
102
RTVSPost2010Prop56
140
1.0
102
RTVSPost2010PropOp56
 70
     1
102
RTVSPost2010Prop57
140
1.0
102
RTVSPost2010PropOp57
 70
     1
102
RTVSPropertyOp0
 70
     1
102
RTVSPropertyOp1
 70
     1
102
RTVSPropertyOp2
 70
     1
102
RTVSPropertyOp3
 70
     1
102
RTVSPropertyOp4
 70
     1
102
RTVSPropertyOp5
 70
     1
102
RTVSPropertyOp6
 70
     1
102
RTVSPropertyOp7
 70
     1
102
RTVSPropertyOp8
 70
     1
102
RTVSPropertyOp9
 70
     1
102
RTVSPropertyOp10
 70
     1
102
RTVSPropertyOp11
 70
     1
102
RTVSPropertyOp12
 70
     1
102
RTVSPropertyOp13
 70
     1
102
RTVSPropertyOp14
 70
     1
102
RTVSPropertyOp15
 70
     1
102
RTVSPropertyOp16
 70
     1
102
RTVSPropertyOp17
 70
     1
102
RTVSPropertyOp18
 70
     1
102
RTVSPropertyOp19
 70
     1
102
RTVSPropertyOp20
 70
     1
102
RTVSPropertyOp21
 70
     1
102
RTVSPropertyOp22
 70
     1
102
RTVSPropertyOp23
 70
     1
102
RTVSPropertyOp24
 70
     1
102
RTVSPropertyOp25
 70
     1
102
RTVSPropertyOp26
 70
     1
102
RTVSPropertyOp27
 70
     1
102
RTVSPropertyOp28
 70
     1
102
RTVSPropertyOp29
 70
     1
102
RTVSPropertyOp30
 70
     1
102
RTVSPropertyOp31
 70
     1
102
RTVSPropertyOp32
 70
     1
102
RTVSPropertyOp33
 70
     1
102
RTVSPropertyOp34
 70
     1
102
RTVSPropertyOp35
 70
     1
102
RTVSPropertyOp36
 70
     1
102
RTVSPropertyOp37
 70
     1
102
RTVSPropertyOp38
 70
     1
102
RTVSPropertyOp39
 70
     1
102
RTVSPropertyOp40
 70
     1
102
RTVSPropertyOp41
 70
     1
102
RTVSPropertyOp42
 70
     1
102
RTVSPropertyOp43
 70
     1
102
RTVSPropertyOp44
 70
     1
102
RTVSPropertyOp45
 70
     1
102
RTVSPropertyOp46
 70
     1
102
RTVSPropertyOp47
 70
     1
102
RTVSPropertyOp48
 70
     1
102
RTVSPropertyOp49
 70
     1
102
RTVSPropertyOp50
 70
     1
102
RTVSPropertyOp51
 70
     0
102
RTVSPropertyOp52
 70
     0
102
RTVSPropertyOp53
 70
     1
102
RTVSPropertyOp54
 70
     1
102
RTVSPropertyOp55
 70
     1
102
RTVSPropertyOp56
 70
     1
102
RTVSPropertyOp57
 70
     1
102
RTVSPropertyOp58
 70
     1
102
RTVSPropertyOp59
 70
     1
102
RTVSPropertyOp60
 70
     1
102
RTVSPropertyOp61
 70
     1
102
RTVSPropertyOp62
 70
     1
  0
XRECORD
  5
DE29
102
{ACAD_REACTORS
330
DE28
102
}
330
DE28
100
AcDbXrecord
280
     1
102
RTVSPost2010Prop28
280
     0
102
RTVSPost2010PropOp28
 70
     1
102
RTVSPost2010Prop29
280
     1
102
RTVSPost2010PropOp29
 70
     1
102
RTVSPost2010Prop30
280
     1
102
RTVSPost2010PropOp30
 70
     1
102
RTVSPost2010Prop31
280
     0
102
RTVSPost2010PropOp31
 70
     1
102
RTVSPost2010Prop32
280
     0
102
RTVSPost2010PropOp32
 70
     1
102
RTVSPost2010Prop33
280
     0
102
RTVSPost2010PropOp33
 70
     1
102
RTVSPost2010Prop34
280
     0
102
RTVSPost2010PropOp34
 70
     1
102
RTVSPost2010Prop35
280
     0
102
RTVSPost2010PropOp35
 70
     1
102
RTVSPost2010Prop36
280
     0
102
RTVSPost2010PropOp36
 70
     1
102
RTVSPost2010Prop37
 90
       50
102
RTVSPost2010PropOp37
 70
     1
102
RTVSPost2010Prop38
140
0.0
102
RTVSPost2010PropOp38
 70
     1
102
RTVSPost2010Prop39
140
1.0
102
RTVSPost2010PropOp39
 70
     1
102
RTVSPost2010Prop40
 90
        0
102
RTVSPost2010PropOp40
 70
     1
102
RTVSPost2010Prop41ColorIndex
 90
       18
102
RTVSPost2010Prop41ColorRGB
 90
        0
102
RTVSPost2010PropOp41
 70
     1
102
RTVSPost2010Prop42
 90
       50
102
RTVSPost2010PropOp42
 70
     1
102
RTVSPost2010Prop43
 90
        3
102
RTVSPost2010PropOp43
 70
     1
102
RTVSPost2010Prop44ColorIndex
 90
        5
102
RTVSPost2010Prop44ColorRGB
 90
      255
102
RTVSPost2010PropOp44
 70
     1
102
RTVSPost2010Prop45
280
     0
102
RTVSPost2010PropOp45
 70
     1
102
RTVSPost2010Prop46
 90
       50
102
RTVSPost2010PropOp46
 70
     1
102
RTVSPost2010Prop47
 90
       50
102
RTVSPost2010PropOp47
 70
     1
102
RTVSPost2010Prop48
 90
       50
102
RTVSPost2010PropOp48
 70
     1
102
RTVSPost2010Prop49
280
     0
102
RTVSPost2010PropOp49
 70
     1
102
RTVSPost2010Prop50
 90
       50
102
RTVSPost2010PropOp50
 70
     1
102
RTVSPost2010Prop51ColorIndex
 90
      256
102
RTVSPost2010Prop51ColorRGB
 90
-16777216
102
RTVSPost2010PropOp51
 70
     0
102
RTVSPost2010Prop52
140
1.0
102
RTVSPost2010PropOp52
 70
     0
102
RTVSPost2010Prop53
 90
        2
102
RTVSPost2010PropOp53
 70
     1
102
RTVSPost2010Prop54
  1
strokes_ogs.tif
102
RTVSPost2010PropOp54
 70
     1
102
RTVSPost2010Prop55
280
     0
102
RTVSPost2010PropOp55
 70
     1
102
RTVSPost2010Prop56
140
1.0
102
RTVSPost2010PropOp56
 70
     1
102
RTVSPost2010Prop57
140
1.0
102
RTVSPost2010PropOp57
 70
     1
102
RTVSPropertyOp0
 70
     1
102
RTVSPropertyOp1
 70
     1
102
RTVSPropertyOp2
 70
     1
102
RTVSPropertyOp3
 70
     1
102
RTVSPropertyOp4
 70
     1
102
RTVSPropertyOp5
 70
     1
102
RTVSPropertyOp6
 70
     1
102
RTVSPropertyOp7
 70
     1
102
RTVSPropertyOp8
 70
     1
102
RTVSPropertyOp9
 70
     1
102
RTVSPropertyOp10
 70
     1
102
RTVSPropertyOp11
 70
     1
102
RTVSPropertyOp12
 70
     1
102
RTVSPropertyOp13
 70
     1
102
RTVSPropertyOp14
 70
     1
102
RTVSPropertyOp15
 70
     1
102
RTVSPropertyOp16
 70
     1
102
RTVSPropertyOp17
 70
     1
102
RTVSPropertyOp18
 70
     1
102
RTVSPropertyOp19
 70
     1
102
RTVSPropertyOp20
 70
     1
102
RTVSPropertyOp21
 70
     1
102
RTVSPropertyOp22
 70
     1
102
RTVSPropertyOp23
 70
     1
102
RTVSPropertyOp24
 70
     1
102
RTVSPropertyOp25
 70
     1
102
RTVSPropertyOp26
 70
     1
102
RTVSPropertyOp27
 70
     1
102
RTVSPropertyOp28
 70
     1
102
RTVSPropertyOp29
 70
     1
102
RTVSPropertyOp30
 70
     1
102
RTVSPropertyOp31
 70
     1
102
RTVSPropertyOp32
 70
     1
102
RTVSPropertyOp33
 70
     1
102
RTVSPropertyOp34
 70
     1
102
RTVSPropertyOp35
 70
     1
102
RTVSPropertyOp36
 70
     1
102
RTVSPropertyOp37
 70
     1
102
RTVSPropertyOp38
 70
     1
102
RTVSPropertyOp39
 70
     1
102
RTVSPropertyOp40
 70
     1
102
RTVSPropertyOp41
 70
     1
102
RTVSPropertyOp42
 70
     1
102
RTVSPropertyOp43
 70
     1
102
RTVSPropertyOp44
 70
     1
102
RTVSPropertyOp45
 70
     1
102
RTVSPropertyOp46
 70
     1
102
RTVSPropertyOp47
 70
     1
102
RTVSPropertyOp48
 70
     1
102
RTVSPropertyOp49
 70
     1
102
RTVSPropertyOp50
 70
     1
102
RTVSPropertyOp51
 70
     0
102
RTVSPropertyOp52
 70
     0
102
RTVSPropertyOp53
 70
     1
102
RTVSPropertyOp54
 70
     1
102
RTVSPropertyOp55
 70
     1
102
RTVSPropertyOp56
 70
     1
102
RTVSPropertyOp57
 70
     1
102
RTVSPropertyOp58
 70
     1
102
RTVSPropertyOp59
 70
     1
102
RTVSPropertyOp60
 70
     1
102
RTVSPropertyOp61
 70
     1
102
RTVSPropertyOp62
 70
     1
  0
XRECORD
  5
DE1F
102
{ACAD_REACTORS
330
DE1E
102
}
330
DE1E
100
AcDbXrecord
280
     1
102
RTVSPost2010Prop28
280
     0
102
RTVSPost2010PropOp28
 70
     1
102
RTVSPost2010Prop29
280
     1
102
RTVSPost2010PropOp29
 70
     1
102
RTVSPost2010Prop30
280
     1
102
RTVSPost2010PropOp30
 70
     1
102
RTVSPost2010Prop31
280
     0
102
RTVSPost2010PropOp31
 70
     1
102
RTVSPost2010Prop32
280
     0
102
RTVSPost2010PropOp32
 70
     1
102
RTVSPost2010Prop33
280
     0
102
RTVSPost2010PropOp33
 70
     1
102
RTVSPost2010Prop34
280
     0
102
RTVSPost2010PropOp34
 70
     1
102
RTVSPost2010Prop35
280
     0
102
RTVSPost2010PropOp35
 70
     1
102
RTVSPost2010Prop36
280
     0
102
RTVSPost2010PropOp36
 70
     1
102
RTVSPost2010Prop37
 90
       50
102
RTVSPost2010PropOp37
 70
     1
102
RTVSPost2010Prop38
140
0.0
102
RTVSPost2010PropOp38
 70
     1
102
RTVSPost2010Prop39
140
1.0
102
RTVSPost2010PropOp39
 70
     1
102
RTVSPost2010Prop40
 90
        0
102
RTVSPost2010PropOp40
 70
     1
102
RTVSPost2010Prop41ColorIndex
 90
       18
102
RTVSPost2010Prop41ColorRGB
 90
        0
102
RTVSPost2010PropOp41
 70
     1
102
RTVSPost2010Prop42
 90
       50
102
RTVSPost2010PropOp42
 70
     1
102
RTVSPost2010Prop43
 90
        3
102
RTVSPost2010PropOp43
 70
     1
102
RTVSPost2010Prop44ColorIndex
 90
        5
102
RTVSPost2010Prop44ColorRGB
 90
      255
102
RTVSPost2010PropOp44
 70
     1
102
RTVSPost2010Prop45
280
     0
102
RTVSPost2010PropOp45
 70
     1
102
RTVSPost2010Prop46
 90
       50
102
RTVSPost2010PropOp46
 70
     1
102
RTVSPost2010Prop47
 90
       50
102
RTVSPost2010PropOp47
 70
     1
102
RTVSPost2010Prop48
 90
       50
102
RTVSPost2010PropOp48
 70
     1
102
RTVSPost2010Prop49
280
     0
102
RTVSPost2010PropOp49
 70
     1
102
RTVSPost2010Prop50
 90
       50
102
RTVSPost2010PropOp50
 70
     1
102
RTVSPost2010Prop51ColorIndex
 90
      256
102
RTVSPost2010Prop51ColorRGB
 90
-16777216
102
RTVSPost2010PropOp51
 70
     0
102
RTVSPost2010Prop52
140
1.0
102
RTVSPost2010PropOp52
 70
     0
102
RTVSPost2010Prop53
 90
        2
102
RTVSPost2010PropOp53
 70
     1
102
RTVSPost2010Prop54
  1
strokes_ogs.tif
102
RTVSPost2010PropOp54
 70
     1
102
RTVSPost2010Prop55
280
     0
102
RTVSPost2010PropOp55
 70
     1
102
RTVSPost2010Prop56
140
1.0
102
RTVSPost2010PropOp56
 70
     1
102
RTVSPost2010Prop57
140
1.0
102
RTVSPost2010PropOp57
 70
     1
102
RTVSPropertyOp0
 70
     1
102
RTVSPropertyOp1
 70
     1
102
RTVSPropertyOp2
 70
     1
102
RTVSPropertyOp3
 70
     1
102
RTVSPropertyOp4
 70
     1
102
RTVSPropertyOp5
 70
     1
102
RTVSPropertyOp6
 70
     1
102
RTVSPropertyOp7
 70
     1
102
RTVSPropertyOp8
 70
     1
102
RTVSPropertyOp9
 70
     1
102
RTVSPropertyOp10
 70
     1
102
RTVSPropertyOp11
 70
     1
102
RTVSPropertyOp12
 70
     1
102
RTVSPropertyOp13
 70
     1
102
RTVSPropertyOp14
 70
     1
102
RTVSPropertyOp15
 70
     1
102
RTVSPropertyOp16
 70
     1
102
RTVSPropertyOp17
 70
     1
102
RTVSPropertyOp18
 70
     1
102
RTVSPropertyOp19
 70
     1
102
RTVSPropertyOp20
 70
     1
102
RTVSPropertyOp21
 70
     1
102
RTVSPropertyOp22
 70
     1
102
RTVSPropertyOp23
 70
     1
102
RTVSPropertyOp24
 70
     1
102
RTVSPropertyOp25
 70
     1
102
RTVSPropertyOp26
 70
     1
102
RTVSPropertyOp27
 70
     1
102
RTVSPropertyOp28
 70
     1
102
RTVSPropertyOp29
 70
     1
102
RTVSPropertyOp30
 70
     1
102
RTVSPropertyOp31
 70
     1
102
RTVSPropertyOp32
 70
     1
102
RTVSPropertyOp33
 70
     1
102
RTVSPropertyOp34
 70
     1
102
RTVSPropertyOp35
 70
     1
102
RTVSPropertyOp36
 70
     1
102
RTVSPropertyOp37
 70
     1
102
RTVSPropertyOp38
 70
     1
102
RTVSPropertyOp39
 70
     1
102
RTVSPropertyOp40
 70
     1
102
RTVSPropertyOp41
 70
     1
102
RTVSPropertyOp42
 70
     1
102
RTVSPropertyOp43
 70
     1
102
RTVSPropertyOp44
 70
     1
102
RTVSPropertyOp45
 70
     1
102
RTVSPropertyOp46
 70
     1
102
RTVSPropertyOp47
 70
     1
102
RTVSPropertyOp48
 70
     1
102
RTVSPropertyOp49
 70
     1
102
RTVSPropertyOp50
 70
     1
102
RTVSPropertyOp51
 70
     0
102
RTVSPropertyOp52
 70
     0
102
RTVSPropertyOp53
 70
     1
102
RTVSPropertyOp54
 70
     1
102
RTVSPropertyOp55
 70
     1
102
RTVSPropertyOp56
 70
     1
102
RTVSPropertyOp57
 70
     1
102
RTVSPropertyOp58
 70
     1
102
RTVSPropertyOp59
 70
     1
102
RTVSPropertyOp60
 70
     1
102
RTVSPropertyOp61
 70
     1
102
RTVSPropertyOp62
 70
     1
  0
XRECORD
  5
DE13
102
{ACAD_REACTORS
330
DE12
102
}
330
DE12
100
AcDbXrecord
280
     1
102
RTVSPost2010Prop28
280
     0
102
RTVSPost2010PropOp28
 70
     1
102
RTVSPost2010Prop29
280
     1
102
RTVSPost2010PropOp29
 70
     1
102
RTVSPost2010Prop30
280
     1
102
RTVSPost2010PropOp30
 70
     1
102
RTVSPost2010Prop31
280
     0
102
RTVSPost2010PropOp31
 70
     1
102
RTVSPost2010Prop32
280
     0
102
RTVSPost2010PropOp32
 70
     1
102
RTVSPost2010Prop33
280
     0
102
RTVSPost2010PropOp33
 70
     1
102
RTVSPost2010Prop34
280
     0
102
RTVSPost2010PropOp34
 70
     1
102
RTVSPost2010Prop35
280
     0
102
RTVSPost2010PropOp35
 70
     1
102
RTVSPost2010Prop36
280
     0
102
RTVSPost2010PropOp36
 70
     1
102
RTVSPost2010Prop37
 90
       50
102
RTVSPost2010PropOp37
 70
     1
102
RTVSPost2010Prop38
140
0.0
102
RTVSPost2010PropOp38
 70
     1
102
RTVSPost2010Prop39
140
1.0
102
RTVSPost2010PropOp39
 70
     1
102
RTVSPost2010Prop40
 90
        0
102
RTVSPost2010PropOp40
 70
     1
102
RTVSPost2010Prop41ColorIndex
 90
       18
102
RTVSPost2010Prop41ColorRGB
 90
        0
102
RTVSPost2010PropOp41
 70
     1
102
RTVSPost2010Prop42
 90
       50
102
RTVSPost2010PropOp42
 70
     1
102
RTVSPost2010Prop43
 90
        3
102
RTVSPost2010PropOp43
 70
     1
102
RTVSPost2010Prop44ColorIndex
 90
        5
102
RTVSPost2010Prop44ColorRGB
 90
      255
102
RTVSPost2010PropOp44
 70
     1
102
RTVSPost2010Prop45
280
     0
102
RTVSPost2010PropOp45
 70
     1
102
RTVSPost2010Prop46
 90
       50
102
RTVSPost2010PropOp46
 70
     1
102
RTVSPost2010Prop47
 90
       50
102
RTVSPost2010PropOp47
 70
     1
102
RTVSPost2010Prop48
 90
       50
102
RTVSPost2010PropOp48
 70
     1
102
RTVSPost2010Prop49
280
     0
102
RTVSPost2010PropOp49
 70
     1
102
RTVSPost2010Prop50
 90
       50
102
RTVSPost2010PropOp50
 70
     1
102
RTVSPost2010Prop51ColorIndex
 90
      256
102
RTVSPost2010Prop51ColorRGB
 90
-16777216
102
RTVSPost2010PropOp51
 70
     0
102
RTVSPost2010Prop52
140
1.0
102
RTVSPost2010PropOp52
 70
     0
102
RTVSPost2010Prop53
 90
        2
102
RTVSPost2010PropOp53
 70
     1
102
RTVSPost2010Prop54
  1
strokes_ogs.tif
102
RTVSPost2010PropOp54
 70
     1
102
RTVSPost2010Prop55
280
     0
102
RTVSPost2010PropOp55
 70
     1
102
RTVSPost2010Prop56
140
1.0
102
RTVSPost2010PropOp56
 70
     1
102
RTVSPost2010Prop57
140
1.0
102
RTVSPost2010PropOp57
 70
     1
102
RTVSPropertyOp0
 70
     1
102
RTVSPropertyOp1
 70
     1
102
RTVSPropertyOp2
 70
     1
102
RTVSPropertyOp3
 70
     1
102
RTVSPropertyOp4
 70
     1
102
RTVSPropertyOp5
 70
     1
102
RTVSPropertyOp6
 70
     1
102
RTVSPropertyOp7
 70
     1
102
RTVSPropertyOp8
 70
     1
102
RTVSPropertyOp9
 70
     1
102
RTVSPropertyOp10
 70
     1
102
RTVSPropertyOp11
 70
     1
102
RTVSPropertyOp12
 70
     1
102
RTVSPropertyOp13
 70
     1
102
RTVSPropertyOp14
 70
     1
102
RTVSPropertyOp15
 70
     1
102
RTVSPropertyOp16
 70
     1
102
RTVSPropertyOp17
 70
     1
102
RTVSPropertyOp18
 70
     1
102
RTVSPropertyOp19
 70
     1
102
RTVSPropertyOp20
 70
     1
102
RTVSPropertyOp21
 70
     1
102
RTVSPropertyOp22
 70
     1
102
RTVSPropertyOp23
 70
     1
102
RTVSPropertyOp24
 70
     1
102
RTVSPropertyOp25
 70
     1
102
RTVSPropertyOp26
 70
     1
102
RTVSPropertyOp27
 70
     1
102
RTVSPropertyOp28
 70
     1
102
RTVSPropertyOp29
 70
     1
102
RTVSPropertyOp30
 70
     1
102
RTVSPropertyOp31
 70
     1
102
RTVSPropertyOp32
 70
     1
102
RTVSPropertyOp33
 70
     1
102
RTVSPropertyOp34
 70
     1
102
RTVSPropertyOp35
 70
     1
102
RTVSPropertyOp36
 70
     1
102
RTVSPropertyOp37
 70
     1
102
RTVSPropertyOp38
 70
     1
102
RTVSPropertyOp39
 70
     1
102
RTVSPropertyOp40
 70
     1
102
RTVSPropertyOp41
 70
     1
102
RTVSPropertyOp42
 70
     1
102
RTVSPropertyOp43
 70
     1
102
RTVSPropertyOp44
 70
     1
102
RTVSPropertyOp45
 70
     1
102
RTVSPropertyOp46
 70
     1
102
RTVSPropertyOp47
 70
     1
102
RTVSPropertyOp48
 70
     1
102
RTVSPropertyOp49
 70
     1
102
RTVSPropertyOp50
 70
     1
102
RTVSPropertyOp51
 70
     0
102
RTVSPropertyOp52
 70
     0
102
RTVSPropertyOp53
 70
     1
102
RTVSPropertyOp54
 70
     1
102
RTVSPropertyOp55
 70
     1
102
RTVSPropertyOp56
 70
     1
102
RTVSPropertyOp57
 70
     1
102
RTVSPropertyOp58
 70
     1
102
RTVSPropertyOp59
 70
     1
102
RTVSPropertyOp60
 70
     1
102
RTVSPropertyOp61
 70
     1
102
RTVSPropertyOp62
 70
     1
  0
XRECORD
  5
DE2B
102
{ACAD_REACTORS
330
DE2A
102
}
330
DE2A
100
AcDbXrecord
280
     1
102
RTVSPost2010Prop28
280
     0
102
RTVSPost2010PropOp28
 70
     1
102
RTVSPost2010Prop29
280
     1
102
RTVSPost2010PropOp29
 70
     1
102
RTVSPost2010Prop30
280
     1
102
RTVSPost2010PropOp30
 70
     1
102
RTVSPost2010Prop31
280
     0
102
RTVSPost2010PropOp31
 70
     1
102
RTVSPost2010Prop32
280
     0
102
RTVSPost2010PropOp32
 70
     1
102
RTVSPost2010Prop33
280
     0
102
RTVSPost2010PropOp33
 70
     1
102
RTVSPost2010Prop34
280
     0
102
RTVSPost2010PropOp34
 70
     1
102
RTVSPost2010Prop35
280
     0
102
RTVSPost2010PropOp35
 70
     1
102
RTVSPost2010Prop36
280
     0
102
RTVSPost2010PropOp36
 70
     1
102
RTVSPost2010Prop37
 90
       50
102
RTVSPost2010PropOp37
 70
     1
102
RTVSPost2010Prop38
140
0.0
102
RTVSPost2010PropOp38
 70
     1
102
RTVSPost2010Prop39
140
1.0
102
RTVSPost2010PropOp39
 70
     1
102
RTVSPost2010Prop40
 90
        0
102
RTVSPost2010PropOp40
 70
     1
102
RTVSPost2010Prop41ColorIndex
 90
       18
102
RTVSPost2010Prop41ColorRGB
 90
        0
102
RTVSPost2010PropOp41
 70
     1
102
RTVSPost2010Prop42
 90
       50
102
RTVSPost2010PropOp42
 70
     1
102
RTVSPost2010Prop43
 90
        3
102
RTVSPost2010PropOp43
 70
     1
102
RTVSPost2010Prop44ColorIndex
 90
        5
102
RTVSPost2010Prop44ColorRGB
 90
      255
102
RTVSPost2010PropOp44
 70
     1
102
RTVSPost2010Prop45
280
     0
102
RTVSPost2010PropOp45
 70
     1
102
RTVSPost2010Prop46
 90
       50
102
RTVSPost2010PropOp46
 70
     1
102
RTVSPost2010Prop47
 90
       50
102
RTVSPost2010PropOp47
 70
     1
102
RTVSPost2010Prop48
 90
       50
102
RTVSPost2010PropOp48
 70
     1
102
RTVSPost2010Prop49
280
     0
102
RTVSPost2010PropOp49
 70
     1
102
RTVSPost2010Prop50
 90
       50
102
RTVSPost2010PropOp50
 70
     1
102
RTVSPost2010Prop51ColorIndex
 90
      256
102
RTVSPost2010Prop51ColorRGB
 90
-16777216
102
RTVSPost2010PropOp51
 70
     0
102
RTVSPost2010Prop52
140
1.0
102
RTVSPost2010PropOp52
 70
     0
102
RTVSPost2010Prop53
 90
        2
102
RTVSPost2010PropOp53
 70
     1
102
RTVSPost2010Prop54
  1
strokes_ogs.tif
102
RTVSPost2010PropOp54
 70
     1
102
RTVSPost2010Prop55
280
     0
102
RTVSPost2010PropOp55
 70
     1
102
RTVSPost2010Prop56
140
1.0
102
RTVSPost2010PropOp56
 70
     1
102
RTVSPost2010Prop57
140
1.0
102
RTVSPost2010PropOp57
 70
     1
102
RTVSPropertyOp0
 70
     1
102
RTVSPropertyOp1
 70
     1
102
RTVSPropertyOp2
 70
     1
102
RTVSPropertyOp3
 70
     1
102
RTVSPropertyOp4
 70
     1
102
RTVSPropertyOp5
 70
     1
102
RTVSPropertyOp6
 70
     1
102
RTVSPropertyOp7
 70
     1
102
RTVSPropertyOp8
 70
     1
102
RTVSPropertyOp9
 70
     1
102
RTVSPropertyOp10
 70
     1
102
RTVSPropertyOp11
 70
     1
102
RTVSPropertyOp12
 70
     1
102
RTVSPropertyOp13
 70
     1
102
RTVSPropertyOp14
 70
     1
102
RTVSPropertyOp15
 70
     1
102
RTVSPropertyOp16
 70
     1
102
RTVSPropertyOp17
 70
     1
102
RTVSPropertyOp18
 70
     1
102
RTVSPropertyOp19
 70
     1
102
RTVSPropertyOp20
 70
     1
102
RTVSPropertyOp21
 70
     1
102
RTVSPropertyOp22
 70
     1
102
RTVSPropertyOp23
 70
     1
102
RTVSPropertyOp24
 70
     1
102
RTVSPropertyOp25
 70
     1
102
RTVSPropertyOp26
 70
     1
102
RTVSPropertyOp27
 70
     1
102
RTVSPropertyOp28
 70
     1
102
RTVSPropertyOp29
 70
     1
102
RTVSPropertyOp30
 70
     1
102
RTVSPropertyOp31
 70
     1
102
RTVSPropertyOp32
 70
     1
102
RTVSPropertyOp33
 70
     1
102
RTVSPropertyOp34
 70
     1
102
RTVSPropertyOp35
 70
     1
102
RTVSPropertyOp36
 70
     1
102
RTVSPropertyOp37
 70
     1
102
RTVSPropertyOp38
 70
     1
102
RTVSPropertyOp39
 70
     1
102
RTVSPropertyOp40
 70
     1
102
RTVSPropertyOp41
 70
     1
102
RTVSPropertyOp42
 70
     1
102
RTVSPropertyOp43
 70
     1
102
RTVSPropertyOp44
 70
     1
102
RTVSPropertyOp45
 70
     1
102
RTVSPropertyOp46
 70
     1
102
RTVSPropertyOp47
 70
     1
102
RTVSPropertyOp48
 70
     1
102
RTVSPropertyOp49
 70
     1
102
RTVSPropertyOp50
 70
     1
102
RTVSPropertyOp51
 70
     0
102
RTVSPropertyOp52
 70
     0
102
RTVSPropertyOp53
 70
     1
102
RTVSPropertyOp54
 70
     1
102
RTVSPropertyOp55
 70
     1
102
RTVSPropertyOp56
 70
     1
102
RTVSPropertyOp57
 70
     1
102
RTVSPropertyOp58
 70
     1
102
RTVSPropertyOp59
 70
     1
102
RTVSPropertyOp60
 70
     1
102
RTVSPropertyOp61
 70
     1
102
RTVSPropertyOp62
 70
     1
  0
ENDSEC
  0
EOF
