  0
SECTION
  2
HEADER
  9
$ACADVER
  1
AC1015
  9
$ACADMAINTVER
 70
    10
  9
$DWGCODEPAGE
  3
ANSI_932
  9
$INSBASE
 10
0.0
 20
0.0
 30
0.0
  9
$EXTMIN
 10
-159.5392742354181
 20
-557.6282382558924
 30
-0.0000000000112498
  9
$EXTMAX
 10
588.1325396428965
 20
501.2391642566808
 30
0.0000000000002956
  9
$LIMMIN
 10
-137.0
 20
-558.0
  9
$LIMMAX
 10
685.0
 20
495.0
  9
$ORTHOMODE
 70
     1
  9
$REGENMODE
 70
     1
  9
$FILLMODE
 70
     1
  9
$QTEXTMODE
 70
     0
  9
$MIRRTEXT
 70
     1
  9
$LTSCALE
 40
10.0
  9
$ATTMODE
 70
     1
  9
$TEXTSIZE
 40
5.0
  9
$TRACEWID
 40
0.05
  9
$TEXTSTYLE
  7
STANDARD1
  9
$CLAYER
  8
30
  9
$CELTYPE
  6
CONTINUOUS
  9
$CECOLOR
 62
   256
  9
$CELTSCALE
 40
1.0
  9
$DISPSILH
 70
     0
  9
$DIMSCALE
 40
1.0
  9
$DIMASZ
 40
2.0
  9
$DIMEXO
 40
3.0
  9
$DIMDLI
 40
0.5
  9
$DIMRND
 40
0.0
  9
$DIMDLE
 40
0.0
  9
$DIMEXE
 40
0.5
  9
$DIMTP
 40
0.0
  9
$DIMTM
 40
0.0
  9
$DIMTXT
 40
6.0
  9
$DIMCEN
 40
0.09
  9
$DIMTSZ
 40
0.0
  9
$DIMTOL
 70
     0
  9
$DIMLIM
 70
     0
  9
$DIMTIH
 70
     0
  9
$DIMTOH
 70
     1
  9
$DIMSE1
 70
     0
  9
$DIMSE2
 70
     0
  9
$DIMTAD
 70
     3
  9
$DIMZIN
 70
    12
  9
$DIMBLK
  1
OPEN
  9
$DIMASO
 70
     1
  9
$DIMSHO
 70
     1
  9
$DIMPOST
  1

  9
$DIMAPOST
  1

  9
$DIMALT
 70
     0
  9
$DIMALTD
 70
     2
  9
$DIMALTF
 40
25.4
  9
$DIMLFAC
 40
1.0
  9
$DIMTOFL
 70
     0
  9
$DIMTVP
 40
0.0
  9
$DIMTIX
 70
     0
  9
$DIMSOXD
 70
     0
  9
$DIMSAH
 70
     0
  9
$DIMBLK1
  1

  9
$DIMBLK2
  1

  9
$DIMSTYLE
  2
STANDARD1
  9
$DIMCLRD
 70
     0
  9
$DIMCLRE
 70
     0
  9
$DIMCLRT
 70
     0
  9
$DIMTFAC
 40
1.0
  9
$DIMGAP
 40
3.0
  9
$DIMJUST
 70
     0
  9
$DIMSD1
 70
     0
  9
$DIMSD2
 70
     0
  9
$DIMTOLJ
 70
     1
  9
$DIMTZIN
 70
     0
  9
$DIMALTZ
 70
     0
  9
$DIMALTTZ
 70
     0
  9
$DIMUPT
 70
     0
  9
$DIMDEC
 70
     1
  9
$DIMTDEC
 70
     1
  9
$DIMALTU
 70
     2
  9
$DIMALTTD
 70
     2
  9
$DIMTXSTY
  7
STANDARD
  9
$DIMAUNIT
 70
     0
  9
$DIMADEC
 70
     0
  9
$DIMALTRND
 40
0.0
  9
$DIMAZIN
 70
     0
  9
$DIMDSEP
 70
    46
  9
$DIMATFIT
 70
     2
  9
$DIMFRAC
 70
     0
  9
$DIMLDRBLK
  1
OPEN
  9
$DIMLUNIT
 70
     2
  9
$DIMLWD
 70
    -2
  9
$DIMLWE
 70
    -2
  9
$DIMTMOVE
 70
     0
  9
$LUNITS
 70
     2
  9
$LUPREC
 70
     3
  9
$SKETCHINC
 40
0.1
  9
$FILLETRAD
 40
0.0
  9
$AUNITS
 70
     0
  9
$AUPREC
 70
     0
  9
$MENU
  1
.
  9
$ELEVATION
 40
0.0
  9
$PELEVATION
 40
0.0
  9
$THICKNESS
 40
0.0
  9
$LIMCHECK
 70
     0
  9
$CHAMFERA
 40
0.0
  9
$CHAMFERB
 40
0.0
  9
$CHAMFERC
 40
0.0
  9
$CHAMFERD
 40
0.0
  9
$SKPOLY
 70
     0
  9
$TDCREATE
 40
2452286.555658657
  9
$TDUCREATE
 40
2452286.180658657
  9
$TDUPDATE
 40
2454700.811780775
  9
$TDUUPDATE
 40
2454700.436780775
  9
$TDINDWG
 40
1.6773511921
  9
$TDUSRTIMER
 40
1.6773461690
  9
$USRTIMER
 70
     1
  9
$ANGBASE
 50
0.0
  9
$ANGDIR
 70
     0
  9
$PDMODE
 70
     0
  9
$PDSIZE
 40
0.0
  9
$PLINEWID
 40
0.0
  9
$SPLFRAME
 70
     0
  9
$SPLINETYPE
 70
     6
  9
$SPLINESEGS
 70
     8
  9
$HANDSEED
  5
C791
  9
$SURFTAB1
 70
     6
  9
$SURFTAB2
 70
     6
  9
$SURFTYPE
 70
     6
  9
$SURFU
 70
     6
  9
$SURFV
 70
     6
  9
$UCSBASE
  2

  9
$UCSNAME
  2

  9
$UCSORG
 10
0.0
 20
0.0
 30
0.0
  9
$UCSXDIR
 10
1.0
 20
0.0
 30
0.0
  9
$UCSYDIR
 10
0.0
 20
1.0
 30
0.0
  9
$UCSORTHOREF
  2

  9
$UCSORTHOVIEW
 70
     0
  9
$UCSORGTOP
 10
0.0
 20
0.0
 30
0.0
  9
$UCSORGBOTTOM
 10
0.0
 20
0.0
 30
0.0
  9
$UCSORGLEFT
 10
0.0
 20
0.0
 30
0.0
  9
$UCSORGRIGHT
 10
0.0
 20
0.0
 30
0.0
  9
$UCSORGFRONT
 10
0.0
 20
0.0
 30
0.0
  9
$UCSORGBACK
 10
0.0
 20
0.0
 30
0.0
  9
$PUCSBASE
  2

  9
$PUCSNAME
  2

  9
$PUCSORG
 10
0.0
 20
0.0
 30
0.0
  9
$PUCSXDIR
 10
1.0
 20
0.0
 30
0.0
  9
$PUCSYDIR
 10
0.0
 20
1.0
 30
0.0
  9
$PUCSORTHOREF
  2

  9
$PUCSORTHOVIEW
 70
     0
  9
$PUCSORGTOP
 10
0.0
 20
0.0
 30
0.0
  9
$PUCSORGBOTTOM
 10
0.0
 20
0.0
 30
0.0
  9
$PUCSORGLEFT
 10
0.0
 20
0.0
 30
0.0
  9
$PUCSORGRIGHT
 10
0.0
 20
0.0
 30
0.0
  9
$PUCSORGFRONT
 10
0.0
 20
0.0
 30
0.0
  9
$PUCSORGBACK
 10
0.0
 20
0.0
 30
0.0
  9
$USERI1
 70
     0
  9
$USERI2
 70
     0
  9
$USERI3
 70
     0
  9
$USERI4
 70
     0
  9
$USERI5
 70
     0
  9
$USERR1
 40
0.0
  9
$USERR2
 40
0.0
  9
$USERR3
 40
0.0
  9
$USERR4
 40
0.0
  9
$USERR5
 40
0.0
  9
$WORLDVIEW
 70
     1
  9
$SHADEDGE
 70
     3
  9
$SHADEDIF
 70
    70
  9
$TILEMODE
 70
     1
  9
$MAXACTVP
 70
    48
  9
$PINSBASE
 10
0.0
 20
0.0
 30
0.0
  9
$PLIMCHECK
 70
     0
  9
$PEXTMIN
 10
4.273573
 20
5.205245999999998
 30
0.0
  9
$PEXTMAX
 10
194.610095
 20
283.0697009999996
 30
0.0
  9
$PLIMMIN
 10
-5.873749
 20
-5.87375
  9
$PLIMMAX
 10
204.099579
 20
291.1369009999999
  9
$UNITMODE
 70
     0
  9
$VISRETAIN
 70
     1
  9
$PLINEGEN
 70
     0
  9
$PSLTSCALE
 70
     1
  9
$TREEDEPTH
 70
  3020
  9
$CMLSTYLE
  2
STANDARD
  9
$CMLJUST
 70
     0
  9
$CMLSCALE
 40
1.0
  9
$PROXYGRAPHICS
 70
     1
  9
$MEASUREMENT
 70
     0
  9
$CELWEIGHT
370
    -1
  9
$ENDCAPS
280
     0
  9
$JOINSTYLE
280
     0
  9
$LWDISPLAY
290
     0
  9
$INSUNITS
 70
     0
  9
$HYPERLINKBASE
  1

  9
$STYLESHEET
  1
monochrome.ctb
  9
$XEDIT
290
     1
  9
$CEPSNTYPE
380
     0
  9
$PSTYLEMODE
290
     1
  9
$FINGERPRINTGUID
  2

  9
$VERSIONGUID
  2
{10754C35-8E27-469F-A047-4461C26C2D48}
  9
$EXTNAMES
290
     1
  9
$PSVPSCALE
 40
0.0
  9
$OLESTARTUP
290
     0
  0
ENDSEC
  0
SECTION
  2
CLASSES
  0
CLASS
  1
ACDBDICTIONARYWDFLT
  2
AcDbDictionaryWithDefault
  3
AutoCAD 2000
 90
        0
280
     0
281
     0
  0
CLASS
  1
ACDBPLACEHOLDER
  2
AcDbPlaceHolder
  3
AutoCAD 2000
 90
        0
280
     0
281
     0
  0
CLASS
  1
LAYOUT
  2
AcDbLayout
  3
AutoCAD 2000
 90
        0
280
     0
281
     0
  0
CLASS
  1
LONG_TRANSACTION
  2
AcDbLongTransaction
  3
AutoCAD 2000
 90
    32768
280
     0
281
     0
  0
CLASS
  1
LWPOLYLINE
  2
AcDbPolyline
  3
AutoCAD 2000
 90
    32768
280
     0
281
     1
  0
CLASS
  1
HATCH
  2
AcDbHatch
  3
AutoCAD 2000
 90
    32768
280
     0
281
     1
  0
CLASS
  1
XRECORD
  2
AcDbXrecord
  3
AutoCAD 2000
 90
    32768
280
     0
281
     0
  0
CLASS
  1
LONG_TRANSACTION
  2
AcDbLongTransaction
  3
AutoCAD 2000
 90
    32768
280
     0
281
     0
  0
CLASS
  1
LWPOLYLINE
  2
AcDbPolyline
  3
AutoCAD 2000
 90
    32768
280
     0
281
     1
  0
CLASS
  1
HATCH
  2
AcDbHatch
  3
AutoCAD 2000
 90
    32768
280
     0
281
     1
  0
CLASS
  1
XRECORD
  2
AcDbXrecord
  3
AutoCAD 2000
 90
    32768
280
     0
281
     0
  0
CLASS
  1
LONG_TRANSACTION
  2
AcDbLongTransaction
  3
AutoCAD 2000
 90
    32768
280
     0
281
     0
  0
CLASS
  1
LWPOLYLINE
  2
AcDbPolyline
  3
AutoCAD 2000
 90
    32768
280
     0
281
     1
  0
CLASS
  1
HATCH
  2
AcDbHatch
  3
AutoCAD 2000
 90
    32768
280
     0
281
     1
  0
CLASS
  1
XRECORD
  2
AcDbXrecord
  3
AutoCAD 2000
 90
    32768
280
     0
281
     0
  0
CLASS
  1
LONG_TRANSACTION
  2
AcDbLongTransaction
  3
AutoCAD 2000
 90
    32768
280
     0
281
     0
  0
CLASS
  1
LWPOLYLINE
  2
AcDbPolyline
  3
AutoCAD 2000
 90
    32768
280
     0
281
     1
  0
CLASS
  1
HATCH
  2
AcDbHatch
  3
AutoCAD 2000
 90
    32768
280
     0
281
     1
  0
CLASS
  1
XRECORD
  2
AcDbXrecord
  3
AutoCAD 2000
 90
    32768
280
     0
281
     0
  0
CLASS
  1
LONG_TRANSACTION
  2
AcDbLongTransaction
  3
AutoCAD 2000
 90
    32768
280
     0
281
     0
  0
CLASS
  1
LWPOLYLINE
  2
AcDbPolyline
  3
AutoCAD 2000
 90
    32768
280
     0
281
     1
  0
CLASS
  1
HATCH
  2
AcDbHatch
  3
AutoCAD 2000
 90
    32768
280
     0
281
     1
  0
CLASS
  1
XRECORD
  2
AcDbXrecord
  3
AutoCAD 2000
 90
    32768
280
     0
281
     0
  0
CLASS
  1
LONG_TRANSACTION
  2
AcDbLongTransaction
  3
AutoCAD 2000
 90
    32768
280
     0
281
     0
  0
CLASS
  1
LWPOLYLINE
  2
AcDbPolyline
  3
AutoCAD 2000
 90
    32768
280
     0
281
     1
  0
CLASS
  1
HATCH
  2
AcDbHatch
  3
AutoCAD 2000
 90
    32768
280
     0
281
     1
  0
CLASS
  1
XRECORD
  2
AcDbXrecord
  3
AutoCAD 2000
 90
    32768
280
     0
281
     0
  0
CLASS
  1
LONG_TRANSACTION
  2
AcDbLongTransaction
  3
AutoCAD 2000
 90
    32768
280
     0
281
     0
  0
CLASS
  1
LWPOLYLINE
  2
AcDbPolyline
  3
AutoCAD 2000
 90
    32768
280
     0
281
     1
  0
CLASS
  1
HATCH
  2
AcDbHatch
  3
AutoCAD 2000
 90
    32768
280
     0
281
     1
  0
CLASS
  1
XRECORD
  2
AcDbXrecord
  3
AutoCAD 2000
 90
    32768
280
     0
281
     0
  0
CLASS
  1
LONG_TRANSACTION
  2
AcDbLongTransaction
  3
AutoCAD 2000
 90
    32768
280
     0
281
     0
  0
CLASS
  1
LWPOLYLINE
  2
AcDbPolyline
  3
AutoCAD 2000
 90
    32768
280
     0
281
     1
  0
CLASS
  1
HATCH
  2
AcDbHatch
  3
AutoCAD 2000
 90
    32768
280
     0
281
     1
  0
CLASS
  1
XRECORD
  2
AcDbXrecord
  3
AutoCAD 2000
 90
    32768
280
     0
281
     0
  0
CLASS
  1
LONG_TRANSACTION
  2
AcDbLongTransaction
  3
AutoCAD 2000
 90
    32768
280
     0
281
     0
  0
CLASS
  1
LWPOLYLINE
  2
AcDbPolyline
  3
AutoCAD 2000
 90
    32768
280
     0
281
     1
  0
CLASS
  1
HATCH
  2
AcDbHatch
  3
AutoCAD 2000
 90
    32768
280
     0
281
     1
  0
CLASS
  1
XRECORD
  2
AcDbXrecord
  3
AutoCAD 2000
 90
    32768
280
     0
281
     0
  0
CLASS
  1
LONG_TRANSACTION
  2
AcDbLongTransaction
  3
AutoCAD 2000
 90
    32768
280
     0
281
     0
  0
CLASS
  1
LWPOLYLINE
  2
AcDbPolyline
  3
AutoCAD 2000
 90
    32768
280
     0
281
     1
  0
CLASS
  1
HATCH
  2
AcDbHatch
  3
AutoCAD 2000
 90
    32768
280
     0
281
     1
  0
CLASS
  1
XRECORD
  2
AcDbXrecord
  3
AutoCAD 2000
 90
    32768
280
     0
281
     0
  0
CLASS
  1
LONG_TRANSACTION
  2
AcDbLongTransaction
  3
AutoCAD 2000
 90
    32768
280
     0
281
     0
  0
CLASS
  1
LWPOLYLINE
  2
AcDbPolyline
  3
AutoCAD 2000
 90
    32768
280
     0
281
     1
  0
CLASS
  1
HATCH
  2
AcDbHatch
  3
AutoCAD 2000
 90
    32768
280
     0
281
     1
  0
CLASS
  1
XRECORD
  2
AcDbXrecord
  3
AutoCAD 2000
 90
    32768
280
     0
281
     0
  0
CLASS
  1
LONG_TRANSACTION
  2
AcDbLongTransaction
  3
AutoCAD 2000
 90
    32768
280
     0
281
     0
  0
CLASS
  1
LWPOLYLINE
  2
AcDbPolyline
  3
AutoCAD 2000
 90
    32768
280
     0
281
     1
  0
CLASS
  1
HATCH
  2
AcDbHatch
  3
AutoCAD 2000
 90
    32768
280
     0
281
     1
  0
CLASS
  1
XRECORD
  2
AcDbXrecord
  3
AutoCAD 2000
 90
    32768
280
     0
281
     0
  0
CLASS
  1
LONG_TRANSACTION
  2
AcDbLongTransaction
  3
AutoCAD 2000
 90
    32768
280
     0
281
     0
  0
CLASS
  1
LWPOLYLINE
  2
AcDbPolyline
  3
AutoCAD 2000
 90
    32768
280
     0
281
     1
  0
CLASS
  1
HATCH
  2
AcDbHatch
  3
AutoCAD 2000
 90
    32768
280
     0
281
     1
  0
CLASS
  1
XRECORD
  2
AcDbXrecord
  3
AutoCAD 2000
 90
    32768
280
     0
281
     0
  0
CLASS
  1
LONG_TRANSACTION
  2
AcDbLongTransaction
  3
AutoCAD 2000
 90
    32768
280
     0
281
     0
  0
CLASS
  1
LWPOLYLINE
  2
AcDbPolyline
  3
AutoCAD 2000
 90
    32768
280
     0
281
     1
  0
CLASS
  1
HATCH
  2
AcDbHatch
  3
AutoCAD 2000
 90
    32768
280
     0
281
     1
  0
CLASS
  1
XRECORD
  2
AcDbXrecord
  3
AutoCAD 2000
 90
    32768
280
     0
281
     0
  0
CLASS
  1
LONG_TRANSACTION
  2
AcDbLongTransaction
  3
AutoCAD 2000
 90
    32768
280
     0
281
     0
  0
CLASS
  1
LWPOLYLINE
  2
AcDbPolyline
  3
AutoCAD 2000
 90
    32768
280
     0
281
     1
  0
CLASS
  1
HATCH
  2
AcDbHatch
  3
AutoCAD 2000
 90
    32768
280
     0
281
     1
  0
CLASS
  1
XRECORD
  2
AcDbXrecord
  3
AutoCAD 2000
 90
    32768
280
     0
281
     0
  0
CLASS
  1
LONG_TRANSACTION
  2
AcDbLongTransaction
  3
AutoCAD 2000
 90
    32768
280
     0
281
     0
  0
CLASS
  1
LWPOLYLINE
  2
AcDbPolyline
  3
AutoCAD 2000
 90
    32768
280
     0
281
     1
  0
CLASS
  1
HATCH
  2
AcDbHatch
  3
AutoCAD 2000
 90
    32768
280
     0
281
     1
  0
CLASS
  1
XRECORD
  2
AcDbXrecord
  3
AutoCAD 2000
 90
    32768
280
     0
281
     0
  0
CLASS
  1
LONG_TRANSACTION
  2
AcDbLongTransaction
  3
AutoCAD 2000
 90
    32768
280
     0
281
     0
  0
CLASS
  1
LWPOLYLINE
  2
AcDbPolyline
  3
AutoCAD 2000
 90
    32768
280
     0
281
     1
  0
CLASS
  1
HATCH
  2
AcDbHatch
  3
AutoCAD 2000
 90
    32768
280
     0
281
     1
  0
CLASS
  1
XRECORD
  2
AcDbXrecord
  3
AutoCAD 2000
 90
    32768
280
     0
281
     0
  0
CLASS
  1
LONG_TRANSACTION
  2
AcDbLongTransaction
  3
AutoCAD 2000
 90
    32768
280
     0
281
     0
  0
CLASS
  1
LWPOLYLINE
  2
AcDbPolyline
  3
AutoCAD 2000
 90
    32768
280
     0
281
     1
  0
CLASS
  1
HATCH
  2
AcDbHatch
  3
AutoCAD 2000
 90
    32768
280
     0
281
     1
  0
CLASS
  1
XRECORD
  2
AcDbXrecord
  3
AutoCAD 2000
 90
    32768
280
     0
281
     0
  0
CLASS
  1
LONG_TRANSACTION
  2
AcDbLongTransaction
  3
AutoCAD 2000
 90
    32768
280
     0
281
     0
  0
CLASS
  1
LWPOLYLINE
  2
AcDbPolyline
  3
AutoCAD 2000
 90
    32768
280
     0
281
     1
  0
CLASS
  1
HATCH
  2
AcDbHatch
  3
AutoCAD 2000
 90
    32768
280
     0
281
     1
  0
CLASS
  1
XRECORD
  2
AcDbXrecord
  3
AutoCAD 2000
 90
    32768
280
     0
281
     0
  0
CLASS
  1
LONG_TRANSACTION
  2
AcDbLongTransaction
  3
AutoCAD 2000
 90
    32768
280
     0
281
     0
  0
CLASS
  1
LWPOLYLINE
  2
AcDbPolyline
  3
AutoCAD 2000
 90
    32768
280
     0
281
     1
  0
CLASS
  1
HATCH
  2
AcDbHatch
  3
AutoCAD 2000
 90
    32768
280
     0
281
     1
  0
CLASS
  1
XRECORD
  2
AcDbXrecord
  3
AutoCAD 2000
 90
    32768
280
     0
281
     0
  0
CLASS
  1
LONG_TRANSACTION
  2
AcDbLongTransaction
  3
AutoCAD 2000
 90
    32768
280
     0
281
     0
  0
CLASS
  1
LWPOLYLINE
  2
AcDbPolyline
  3
AutoCAD 2000
 90
    32768
280
     0
281
     1
  0
CLASS
  1
HATCH
  2
AcDbHatch
  3
AutoCAD 2000
 90
    32768
280
     0
281
     1
  0
CLASS
  1
XRECORD
  2
AcDbXrecord
  3
AutoCAD 2000
 90
    32768
280
     0
281
     0
  0
CLASS
  1
LONG_TRANSACTION
  2
AcDbLongTransaction
  3
AutoCAD 2000
 90
    32768
280
     0
281
     0
  0
CLASS
  1
LWPOLYLINE
  2
AcDbPolyline
  3
AutoCAD 2000
 90
    32768
280
     0
281
     1
  0
CLASS
  1
HATCH
  2
AcDbHatch
  3
AutoCAD 2000
 90
    32768
280
     0
281
     1
  0
CLASS
  1
XRECORD
  2
AcDbXrecord
  3
AutoCAD 2000
 90
    32768
280
     0
281
     0
  0
CLASS
  1
LONG_TRANSACTION
  2
AcDbLongTransaction
  3
AutoCAD 2000
 90
    32768
280
     0
281
     0
  0
CLASS
  1
LWPOLYLINE
  2
AcDbPolyline
  3
AutoCAD 2000
 90
    32768
280
     0
281
     1
  0
CLASS
  1
HATCH
  2
AcDbHatch
  3
AutoCAD 2000
 90
    32768
280
     0
281
     1
  0
CLASS
  1
XRECORD
  2
AcDbXrecord
  3
AutoCAD 2000
 90
    32768
280
     0
281
     0
  0
CLASS
  1
LONG_TRANSACTION
  2
AcDbLongTransaction
  3
AutoCAD 2000
 90
    32768
280
     0
281
     0
  0
CLASS
  1
LWPOLYLINE
  2
AcDbPolyline
  3
AutoCAD 2000
 90
    32768
280
     0
281
     1
  0
CLASS
  1
HATCH
  2
AcDbHatch
  3
AutoCAD 2000
 90
    32768
280
     0
281
     1
  0
CLASS
  1
XRECORD
  2
AcDbXrecord
  3
AutoCAD 2000
 90
    32768
280
     0
281
     0
  0
CLASS
  1
LONG_TRANSACTION
  2
AcDbLongTransaction
  3
AutoCAD 2000
 90
    32768
280
     0
281
     0
  0
CLASS
  1
LWPOLYLINE
  2
AcDbPolyline
  3
AutoCAD 2000
 90
    32768
280
     0
281
     1
  0
CLASS
  1
HATCH
  2
AcDbHatch
  3
AutoCAD 2000
 90
    32768
280
     0
281
     1
  0
CLASS
  1
XRECORD
  2
AcDbXrecord
  3
AutoCAD 2000
 90
    32768
280
     0
281
     0
  0
CLASS
  1
LONG_TRANSACTION
  2
AcDbLongTransaction
  3
AutoCAD 2000
 90
    32768
280
     0
281
     0
  0
CLASS
  1
LWPOLYLINE
  2
AcDbPolyline
  3
AutoCAD 2000
 90
    32768
280
     0
281
     1
  0
CLASS
  1
HATCH
  2
AcDbHatch
  3
AutoCAD 2000
 90
    32768
280
     0
281
     1
  0
CLASS
  1
XRECORD
  2
AcDbXrecord
  3
AutoCAD 2000
 90
    32768
280
     0
281
     0
  0
CLASS
  1
LONG_TRANSACTION
  2
AcDbLongTransaction
  3
AutoCAD 2000
 90
    32768
280
     0
281
     0
  0
CLASS
  1
LWPOLYLINE
  2
AcDbPolyline
  3
AutoCAD 2000
 90
    32768
280
     0
281
     1
  0
CLASS
  1
HATCH
  2
AcDbHatch
  3
AutoCAD 2000
 90
    32768
280
     0
281
     1
  0
CLASS
  1
XRECORD
  2
AcDbXrecord
  3
AutoCAD 2000
 90
    32768
280
     0
281
     0
  0
CLASS
  1
LONG_TRANSACTION
  2
AcDbLongTransaction
  3
AutoCAD 2000
 90
    32768
280
     0
281
     0
  0
CLASS
  1
LWPOLYLINE
  2
AcDbPolyline
  3
AutoCAD 2000
 90
    32768
280
     0
281
     1
  0
CLASS
  1
HATCH
  2
AcDbHatch
  3
AutoCAD 2000
 90
    32768
280
     0
281
     1
  0
CLASS
  1
XRECORD
  2
AcDbXrecord
  3
AutoCAD 2000
 90
    32768
280
     0
281
     0
  0
CLASS
  1
LONG_TRANSACTION
  2
AcDbLongTransaction
  3
AutoCAD 2000
 90
    32768
280
     0
281
     0
  0
CLASS
  1
LWPOLYLINE
  2
AcDbPolyline
  3
AutoCAD 2000
 90
    32768
280
     0
281
     1
  0
CLASS
  1
HATCH
  2
AcDbHatch
  3
AutoCAD 2000
 90
    32768
280
     0
281
     1
  0
CLASS
  1
XRECORD
  2
AcDbXrecord
  3
AutoCAD 2000
 90
    32768
280
     0
281
     0
  0
CLASS
  1
LONG_TRANSACTION
  2
AcDbLongTransaction
  3
AutoCAD 2000
 90
    32768
280
     0
281
     0
  0
CLASS
  1
LWPOLYLINE
  2
AcDbPolyline
  3
AutoCAD 2000
 90
    32768
280
     0
281
     1
  0
CLASS
  1
HATCH
  2
AcDbHatch
  3
AutoCAD 2000
 90
    32768
280
     0
281
     1
  0
CLASS
  1
XRECORD
  2
AcDbXrecord
  3
AutoCAD 2000
 90
    32768
280
     0
281
     0
  0
CLASS
  1
LONG_TRANSACTION
  2
AcDbLongTransaction
  3
AutoCAD 2000
 90
    32768
280
     0
281
     0
  0
CLASS
  1
LWPOLYLINE
  2
AcDbPolyline
  3
AutoCAD 2000
 90
    32768
280
     0
281
     1
  0
CLASS
  1
HATCH
  2
AcDbHatch
  3
AutoCAD 2000
 90
    32768
280
     0
281
     1
  0
CLASS
  1
XRECORD
  2
AcDbXrecord
  3
AutoCAD 2000
 90
    32768
280
     0
281
     0
  0
CLASS
  1
LONG_TRANSACTION
  2
AcDbLongTransaction
  3
AutoCAD 2000
 90
    32768
280
     0
281
     0
  0
CLASS
  1
LWPOLYLINE
  2
AcDbPolyline
  3
AutoCAD 2000
 90
    32768
280
     0
281
     1
  0
CLASS
  1
HATCH
  2
AcDbHatch
  3
AutoCAD 2000
 90
    32768
280
     0
281
     1
  0
CLASS
  1
XRECORD
  2
AcDbXrecord
  3
AutoCAD 2000
 90
    32768
280
     0
281
     0
  0
CLASS
  1
LONG_TRANSACTION
  2
AcDbLongTransaction
  3
AutoCAD 2000
 90
    32768
280
     0
281
     0
  0
CLASS
  1
LWPOLYLINE
  2
AcDbPolyline
  3
AutoCAD 2000
 90
    32768
280
     0
281
     1
  0
CLASS
  1
HATCH
  2
AcDbHatch
  3
AutoCAD 2000
 90
    32768
280
     0
281
     1
  0
CLASS
  1
XRECORD
  2
AcDbXrecord
  3
AutoCAD 2000
 90
    32768
280
     0
281
     0
  0
CLASS
  1
DICTIONARYVAR
  2
AcDbDictionaryVar
  3
AutoCAD 2000
 90
        0
280
     0
281
     0
  0
CLASS
  1
LONG_TRANSACTION
  2
AcDbLongTransaction
  3
AutoCAD 2000
 90
    32768
280
     0
281
     0
  0
CLASS
  1
LWPOLYLINE
  2
AcDbPolyline
  3
AutoCAD 2000
 90
    32768
280
     0
281
     1
  0
CLASS
  1
HATCH
  2
AcDbHatch
  3
AutoCAD 2000
 90
    32768
280
     0
281
     1
  0
CLASS
  1
XRECORD
  2
AcDbXrecord
  3
AutoCAD 2000
 90
    32768
280
     0
281
     0
  0
CLASS
  1
LONG_TRANSACTION
  2
AcDbLongTransaction
  3
AutoCAD 2000
 90
    32768
280
     0
281
     0
  0
CLASS
  1
LWPOLYLINE
  2
AcDbPolyline
  3
AutoCAD 2000
 90
    32768
280
     0
281
     1
  0
CLASS
  1
HATCH
  2
AcDbHatch
  3
AutoCAD 2000
 90
    32768
280
     0
281
     1
  0
CLASS
  1
XRECORD
  2
AcDbXrecord
  3
AutoCAD 2000
 90
    32768
280
     0
281
     0
  0
CLASS
  1
LONG_TRANSACTION
  2
AcDbLongTransaction
  3
AutoCAD 2000
 90
    32768
280
     0
281
     0
  0
CLASS
  1
LWPOLYLINE
  2
AcDbPolyline
  3
AutoCAD 2000
 90
    32768
280
     0
281
     1
  0
CLASS
  1
HATCH
  2
AcDbHatch
  3
AutoCAD 2000
 90
    32768
280
     0
281
     1
  0
CLASS
  1
XRECORD
  2
AcDbXrecord
  3
AutoCAD 2000
 90
    32768
280
     0
281
     0
  0
CLASS
  1
LONG_TRANSACTION
  2
AcDbLongTransaction
  3
AutoCAD 2000
 90
    32768
280
     0
281
     0
  0
CLASS
  1
LWPOLYLINE
  2
AcDbPolyline
  3
AutoCAD 2000
 90
    32768
280
     0
281
     1
  0
CLASS
  1
HATCH
  2
AcDbHatch
  3
AutoCAD 2000
 90
    32768
280
     0
281
     1
  0
CLASS
  1
XRECORD
  2
AcDbXrecord
  3
AutoCAD 2000
 90
    32768
280
     0
281
     0
  0
CLASS
  1
LONG_TRANSACTION
  2
AcDbLongTransaction
  3
AutoCAD 2000
 90
    32768
280
     0
281
     0
  0
CLASS
  1
LWPOLYLINE
  2
AcDbPolyline
  3
AutoCAD 2000
 90
    32768
280
     0
281
     1
  0
CLASS
  1
HATCH
  2
AcDbHatch
  3
AutoCAD 2000
 90
    32768
280
     0
281
     1
  0
CLASS
  1
XRECORD
  2
AcDbXrecord
  3
AutoCAD 2000
 90
    32768
280
     0
281
     0
  0
CLASS
  1
LONG_TRANSACTION
  2
AcDbLongTransaction
  3
AutoCAD 2000
 90
    32768
280
     0
281
     0
  0
CLASS
  1
LWPOLYLINE
  2
AcDbPolyline
  3
AutoCAD 2000
 90
    32768
280
     0
281
     1
  0
CLASS
  1
HATCH
  2
AcDbHatch
  3
AutoCAD 2000
 90
    32768
280
     0
281
     1
  0
CLASS
  1
XRECORD
  2
AcDbXrecord
  3
AutoCAD 2000
 90
    32768
280
     0
281
     0
  0
CLASS
  1
LONG_TRANSACTION
  2
AcDbLongTransaction
  3
AutoCAD 2000
 90
    32768
280
     0
281
     0
  0
CLASS
  1
LWPOLYLINE
  2
AcDbPolyline
  3
AutoCAD 2000
 90
    32768
280
     0
281
     1
  0
CLASS
  1
HATCH
  2
AcDbHatch
  3
AutoCAD 2000
 90
    32768
280
     0
281
     1
  0
CLASS
  1
XRECORD
  2
AcDbXrecord
  3
AutoCAD 2000
 90
    32768
280
     0
281
     0
  0
CLASS
  1
LONG_TRANSACTION
  2
AcDbLongTransaction
  3
AutoCAD 2000
 90
    32768
280
     0
281
     0
  0
CLASS
  1
LWPOLYLINE
  2
AcDbPolyline
  3
AutoCAD 2000
 90
    32768
280
     0
281
     1
  0
CLASS
  1
HATCH
  2
AcDbHatch
  3
AutoCAD 2000
 90
    32768
280
     0
281
     1
  0
CLASS
  1
XRECORD
  2
AcDbXrecord
  3
AutoCAD 2000
 90
    32768
280
     0
281
     0
  0
CLASS
  1
LONG_TRANSACTION
  2
AcDbLongTransaction
  3
AutoCAD 2000
 90
    32768
280
     0
281
     0
  0
CLASS
  1
LWPOLYLINE
  2
AcDbPolyline
  3
AutoCAD 2000
 90
    32768
280
     0
281
     1
  0
CLASS
  1
HATCH
  2
AcDbHatch
  3
AutoCAD 2000
 90
    32768
280
     0
281
     1
  0
CLASS
  1
XRECORD
  2
AcDbXrecord
  3
AutoCAD 2000
 90
    32768
280
     0
281
     0
  0
CLASS
  1
LONG_TRANSACTION
  2
AcDbLongTransaction
  3
AutoCAD 2000
 90
    32768
280
     0
281
     0
  0
CLASS
  1
LWPOLYLINE
  2
AcDbPolyline
  3
AutoCAD 2000
 90
    32768
280
     0
281
     1
  0
CLASS
  1
HATCH
  2
AcDbHatch
  3
AutoCAD 2000
 90
    32768
280
     0
281
     1
  0
CLASS
  1
XRECORD
  2
AcDbXrecord
  3
AutoCAD 2000
 90
    32768
280
     0
281
     0
  0
CLASS
  1
LONG_TRANSACTION
  2
AcDbLongTransaction
  3
AutoCAD 2000
 90
    32768
280
     0
281
     0
  0
CLASS
  1
LWPOLYLINE
  2
AcDbPolyline
  3
AutoCAD 2000
 90
    32768
280
     0
281
     1
  0
CLASS
  1
HATCH
  2
AcDbHatch
  3
AutoCAD 2000
 90
    32768
280
     0
281
     1
  0
CLASS
  1
XRECORD
  2
AcDbXrecord
  3
AutoCAD 2000
 90
    32768
280
     0
281
     0
  0
CLASS
  1
LONG_TRANSACTION
  2
AcDbLongTransaction
  3
AutoCAD 2000
 90
    32768
280
     0
281
     0
  0
CLASS
  1
LWPOLYLINE
  2
AcDbPolyline
  3
AutoCAD 2000
 90
    32768
280
     0
281
     1
  0
CLASS
  1
HATCH
  2
AcDbHatch
  3
AutoCAD 2000
 90
    32768
280
     0
281
     1
  0
CLASS
  1
XRECORD
  2
AcDbXrecord
  3
AutoCAD 2000
 90
    32768
280
     0
281
     0
  0
CLASS
  1
LONG_TRANSACTION
  2
AcDbLongTransaction
  3
AutoCAD 2000
 90
    32768
280
     0
281
     0
  0
CLASS
  1
LWPOLYLINE
  2
AcDbPolyline
  3
AutoCAD 2000
 90
    32768
280
     0
281
     1
  0
CLASS
  1
HATCH
  2
AcDbHatch
  3
AutoCAD 2000
 90
    32768
280
     0
281
     1
  0
CLASS
  1
XRECORD
  2
AcDbXrecord
  3
AutoCAD 2000
 90
    32768
280
     0
281
     0
  0
CLASS
  1
LONG_TRANSACTION
  2
AcDbLongTransaction
  3
AutoCAD 2000
 90
    32768
280
     0
281
     0
  0
CLASS
  1
LWPOLYLINE
  2
AcDbPolyline
  3
AutoCAD 2000
 90
    32768
280
     0
281
     1
  0
CLASS
  1
HATCH
  2
AcDbHatch
  3
AutoCAD 2000
 90
    32768
280
     0
281
     1
  0
CLASS
  1
XRECORD
  2
AcDbXrecord
  3
AutoCAD 2000
 90
    32768
280
     0
281
     0
  0
CLASS
  1
LONG_TRANSACTION
  2
AcDbLongTransaction
  3
AutoCAD 2000
 90
    32768
280
     0
281
     0
  0
CLASS
  1
LWPOLYLINE
  2
AcDbPolyline
  3
AutoCAD 2000
 90
    32768
280
     0
281
     1
  0
CLASS
  1
HATCH
  2
AcDbHatch
  3
AutoCAD 2000
 90
    32768
280
     0
281
     1
  0
CLASS
  1
XRECORD
  2
AcDbXrecord
  3
AutoCAD 2000
 90
    32768
280
     0
281
     0
  0
CLASS
  1
LONG_TRANSACTION
  2
AcDbLongTransaction
  3
AutoCAD 2000
 90
    32768
280
     0
281
     0
  0
CLASS
  1
LWPOLYLINE
  2
AcDbPolyline
  3
AutoCAD 2000
 90
    32768
280
     0
281
     1
  0
CLASS
  1
HATCH
  2
AcDbHatch
  3
AutoCAD 2000
 90
    32768
280
     0
281
     1
  0
CLASS
  1
XRECORD
  2
AcDbXrecord
  3
AutoCAD 2000
 90
    32768
280
     0
281
     0
  0
CLASS
  1
LONG_TRANSACTION
  2
AcDbLongTransaction
  3
AutoCAD 2000
 90
    32768
280
     0
281
     0
  0
CLASS
  1
LWPOLYLINE
  2
AcDbPolyline
  3
AutoCAD 2000
 90
    32768
280
     0
281
     1
  0
CLASS
  1
HATCH
  2
AcDbHatch
  3
AutoCAD 2000
 90
    32768
280
     0
281
     1
  0
CLASS
  1
XRECORD
  2
AcDbXrecord
  3
AutoCAD 2000
 90
    32768
280
     0
281
     0
  0
ENDSEC
  0
SECTION
  2
TABLES
  0
TABLE
  2
VPORT
  5
8
330
0
100
AcDbSymbolTable
 70
     3
  0
VPORT
  5
C76F
330
8
100
AcDbSymbolTableRecord
100
AcDbViewportTableRecord
  2
*Active
 70
     0
 10
0.0
 20
0.0
 11
1.0
 21
1.0
 12
214.2966327037392
 22
-28.19453699960581
 13
0.0
 23
0.0
 14
1.0
 24
1.0
 15
10.0
 25
10.0
 16
0.0
 26
0.0
 36
1.0
 17
0.0
 27
0.0
 37
0.0
 40
1067.086295675672
 41
1.16580310880829
 42
50.0
 43
0.0
 44
0.0
 50
0.0
 51
0.0
 71
     0
 72
   100
 73
     1
 74
     1
 75
     0
 76
     0
 77
     0
 78
     0
281
     0
 65
     1
110
0.0
120
0.0
130
0.0
111
1.0
121
0.0
131
0.0
112
0.0
122
1.0
132
0.0
 79
     0
146
0.0
  0
ENDTAB
  0
TABLE
  2
LTYPE
  5
5
330
0
100
AcDbSymbolTable
 70
     6
  0
LTYPE
  5
13
330
5
100
AcDbSymbolTableRecord
100
AcDbLinetypeTableRecord
  2
BYBLOCK
 70
     0
  3

 72
    65
 73
     0
 40
0.0
  0
LTYPE
  5
14
330
5
100
AcDbSymbolTableRecord
100
AcDbLinetypeTableRecord
  2
BYLAYER
 70
     0
  3

 72
    65
 73
     0
 40
0.0
  0
LTYPE
  5
15
330
5
100
AcDbSymbolTableRecord
100
AcDbLinetypeTableRecord
  2
CONTINUOUS
 70
     0
  3
Solid line
 72
    65
 73
     0
 40
0.0
  0
LTYPE
  5
22
330
5
100
AcDbSymbolTableRecord
100
AcDbLinetypeTableRecord
  2
CONTINOUS
 70
     0
  3
Solid line
 72
    65
 73
     0
 40
0.0
  0
LTYPE
  5
23
330
5
100
AcDbSymbolTableRecord
100
AcDbLinetypeTableRecord
  2
DASHED
 70
     0
  3
__ __ __ __ __ __ __ __ __ __ __ __ __ __ __
 72
    65
 73
     2
 40
0.75
 49
0.5
 74
     0
 49
-0.25
 74
     0
  0
LTYPE
  5
24
330
5
100
AcDbSymbolTableRecord
100
AcDbLinetypeTableRecord
  2
DASHDOT
 70
     0
  3
__ . __ . __ . __ . __ . __ . __ . __ . __ . __
 72
    65
 73
     4
 40
1.0
 49
0.5
 74
     0
 49
-0.25
 74
     0
 49
0.0
 74
     0
 49
-0.25
 74
     0
  0
LTYPE
  5
4C47
330
5
100
AcDbSymbolTableRecord
100
AcDbLinetypeTableRecord
  2
DIVIDE
 70
     0
  3
Divide ____ . . ____ . . ____ . . ____ . . ____
 72
    65
 73
     6
 40
1.25
 49
0.5
 74
     0
 49
-0.25
 74
     0
 49
0.0
 74
     0
 49
-0.25
 74
     0
 49
0.0
 74
     0
 49
-0.25
 74
     0
  0
LTYPE
  5
6265
330
5
100
AcDbSymbolTableRecord
100
AcDbLinetypeTableRecord
  2
CENTER
 70
     0
  3
Center ____ _ ____ _ ____ _ ____ _ ____ _ ____
 72
    65
 73
     4
 40
50.8
 49
31.75
 74
     0
 49
-6.349999999999997
 74
     0
 49
6.349999999999997
 74
     0
 49
-6.349999999999997
 74
     0
  0
ENDTAB
  0
TABLE
  2
LAYER
  5
2
330
0
100
AcDbSymbolTable
 70
    12
  0
LAYER
  5
10
330
2
100
AcDbSymbolTableRecord
100
AcDbLayerTableRecord
  2
0
 70
     0
 62
     7
  6
CONTINOUS
370
    -3
390
F
  0
LAYER
  5
2F
330
2
100
AcDbSymbolTableRecord
100
AcDbLayerTableRecord
  2
10
 70
     0
 62
     4
  6
CONTINOUS
370
    -3
390
F
  0
LAYER
  5
31
330
2
100
AcDbSymbolTableRecord
100
AcDbLayerTableRecord
  2
12
 70
     0
 62
     3
  6
CONTINOUS
370
    -3
390
F
  0
LAYER
  5
35
330
2
100
AcDbSymbolTableRecord
100
AcDbLayerTableRecord
  2
16
 70
     0
 62
     6
  6
DASHDOT
370
    -3
390
F
  0
LAYER
  5
38
330
2
100
AcDbSymbolTableRecord
100
AcDbLayerTableRecord
  2
19
 70
     0
 62
     7
  6
CONTINOUS
370
    -3
390
F
  0
LAYER
  5
3D
330
2
100
AcDbSymbolTableRecord
100
AcDbLayerTableRecord
  2
24
 70
     0
 62
     2
  6
CONTINOUS
370
    -3
390
F
  0
LAYER
  5
3A2
330
2
100
AcDbSymbolTableRecord
100
AcDbLayerTableRecord
  2
30
 70
     0
 62
     9
  6
CONTINUOUS
370
    -3
390
F
  0
LAYER
  5
3A4
330
2
100
AcDbSymbolTableRecord
100
AcDbLayerTableRecord
  2
DEFPOINTS
 70
     0
 62
     7
  6
CONTINUOUS
290
     0
370
    -3
390
F
  0
LAYER
  5
3BBA
330
2
100
AcDbSymbolTableRecord
100
AcDbLayerTableRecord
  2
18
 70
     0
 62
     5
  6
DIVIDE
370
    -3
390
F
  0
LAYER
  5
7837
330
2
100
AcDbSymbolTableRecord
100
AcDbLayerTableRecord
  2
17
 70
     0
 62
     2
  6
DASHDOT
370
    -3
390
F
  0
LAYER
  5
7BC8
330
2
100
AcDbSymbolTableRecord
100
AcDbLayerTableRecord
  2
1
 70
     0
 62
     7
  6
CONTINUOUS
370
    -3
390
F
  0
LAYER
  5
8A0F
330
2
100
AcDbSymbolTableRecord
100
AcDbLayerTableRecord
  2
21
 70
     0
 62
     7
  6
CONTINUOUS
370
    -3
390
F
  0
ENDTAB
  0
TABLE
  2
STYLE
  5
3
330
0
100
AcDbSymbolTable
 70
     2
  0
STYLE
  5
11
330
3
100
AcDbSymbolTableRecord
100
AcDbTextStyleTableRecord
  2
STANDARD
 70
     0
 40
0.0
 41
1.0
 50
0.0
 71
     0
 42
2.0
  3
txt.shx
  4
bigfont.shx
  0
STYLE
  5
42
330
3
100
AcDbSymbolTableRecord
100
AcDbTextStyleTableRecord
  2
STANDARD1
 70
     0
 40
0.0
 41
1.0
 50
0.0
 71
     0
 42
5.0
  3
MONOTXT
  4
BIGFONT
  0
ENDTAB
  0
TABLE
  2
VIEW
  5
6
330
0
100
AcDbSymbolTable
 70
     3
  0
VIEW
  5
230C
330
6
100
AcDbSymbolTableRecord
100
AcDbViewTableRecord
  2
OLE1
 70
     0
 40
148.912488
 10
429.497628
 20
2.560627
 41
103.145806
 11
0.0
 21
0.0
 31
1.0
 12
0.0
 22
0.0
 32
0.0
 42
50.0
 43
0.0
 44
0.0
 50
0.0
 71
     0
281
     0
 72
     0
  0
VIEW
  5
230E
330
6
100
AcDbSymbolTableRecord
100
AcDbViewTableRecord
  2
OLE2
 70
     0
 40
170.778692
 10
322.66497
 20
-5.978304
 41
102.467215
 11
0.0
 21
0.0
 31
1.0
 12
0.0
 22
0.0
 32
0.0
 42
50.0
 43
0.0
 44
0.0
 50
0.0
 71
     0
281
     0
 72
     0
  0
VIEW
  5
23AA
330
6
100
AcDbSymbolTableRecord
100
AcDbViewTableRecord
  2
OLE3
 70
     0
 40
591.7897389999998
 10
84.79698199999999
 20
-46.09335999999998
 41
388.792096
 11
0.0
 21
0.0
 31
1.0
 12
0.0
 22
0.0
 32
0.0
 42
50.0
 43
0.0
 44
0.0
 50
0.0
 71
     0
281
     0
 72
     0
  0
ENDTAB
  0
TABLE
  2
UCS
  5
7
330
0
100
AcDbSymbolTable
 70
     0
  0
ENDTAB
  0
TABLE
  2
APPID
  5
9
330
0
100
AcDbSymbolTable
 70
     2
  0
APPID
  5
12
330
9
100
AcDbSymbolTableRecord
100
AcDbRegAppTableRecord
  2
ACAD
 70
     0
  0
APPID
  5
ECD
330
9
100
AcDbSymbolTableRecord
100
AcDbRegAppTableRecord
  2
CONTENTBLOCKICON
 70
     0
  0
ENDTAB
  0
TABLE
  2
DIMSTYLE
  5
A
330
0
100
AcDbSymbolTable
 70
     2
100
AcDbDimStyleTable
 71
     2
340
B557
340
175
  0
DIMSTYLE
105
175
330
A
100
AcDbSymbolTableRecord
100
AcDbDimStyleTableRecord
  2
STANDARD
 70
     0
 41
2.0
 42
1.0
 43
0.5
 44
0.5
 73
     0
 77
     3
 78
    12
140
6.0
147
1.0
271
     1
272
     1
340
11
341
3B2
342
3B2
  0
DIMSTYLE
105
B557
102
{ACAD_REACTORS
330
B0DA
330
B09B
330
AF8B
330
AF7E
330
AE89
330
AA15
330
A9DB
330
A950
330
A94F
330
A94E
330
A94D
330
A92E
330
A86C
330
A12B
330
A12A
330
A07B
330
A073
330
A05F
330
A04D
330
A04C
330
9EDD
330
9EDC
330
9EDB
330
9ED5
330
9EC2
330
9EA4
330
9EA3
330
9E9C
330
9E9B
330
9E9A
330
9E99
330
9E90
330
9E8F
330
9E8E
330
9E8C
330
9E8B
330
BAA4
330
BCC2
330
C1D2
102
}
330
A
100
AcDbSymbolTableRecord
100
AcDbDimStyleTableRecord
  2
STANDARD1
 70
     0
 41
2.0
 42
3.0
 43
0.5
 44
0.5
 73
     0
 77
     3
 78
    12
140
6.0
147
3.0
271
     1
272
     1
289
     2
340
11
341
3B2
342
3B2
  0
ENDTAB
  0
TABLE
  2
BLOCK_RECORD
  5
1
330
0
100
AcDbSymbolTable
 70
    43
  0
BLOCK_RECORD
  5
1E
102
{ACAD_XDICTIONARY
360
178
102
}
330
1
100
AcDbSymbolTableRecord
100
AcDbBlockTableRecord
  2
*MODEL_SPACE
340
9913
  0
BLOCK_RECORD
  5
1A
102
{ACAD_XDICTIONARY
360
17A
102
}
330
1
100
AcDbSymbolTableRecord
100
AcDbBlockTableRecord
  2
*PAPER_SPACE
340
9914
  0
BLOCK_RECORD
  5
3B2
330
1
100
AcDbSymbolTableRecord
100
AcDbBlockTableRecord
  2
_OPEN
340
0
102
{BLKREFS
331
BAF2
331
BAF3
331
BBD5
331
BBD6
331
BBDE
331
BBDF
331
BBF3
331
BBF4
331
BC1F
331
BC20
331
BC31
331
BC32
331
C152
331
C153
331
C15B
331
C15C
331
C164
331
C165
331
C16D
331
C16E
331
C176
331
C177
331
C17F
331
C180
331
C187
331
C188
331
C190
331
C191
331
C199
331
C19A
331
C1A2
331
C1A9
331
C1BA
331
C29C
331
C29D
331
C2A5
331
C2A6
331
C2AE
331
C2AF
331
C2B9
331
C2BA
331
C2C2
331
C2C3
331
C2CB
331
C2CC
331
C2D4
331
C2D5
331
C2DD
331
C2DE
331
C2E5
331
C2E6
331
C2EE
331
C2EF
331
C2F7
331
C2F8
331
C300
331
C301
331
C309
331
C30A
331
C312
331
C313
331
C31B
331
C31C
331
C326
331
C327
331
C32F
331
C330
331
C338
331
C339
331
C341
331
C342
331
C35C
331
C35D
331
C365
331
C366
331
C36E
331
C36F
331
C428
331
C429
331
C431
331
C432
331
C4A9
331
C4B0
331
C4B9
331
C4BA
331
C4C2
331
C4C3
331
C4CB
331
C4CC
331
C4D3
331
C4D4
331
C4DC
331
C4DD
331
C4E5
331
C4E6
331
C4EE
331
C4EF
331
C4FA
331
C4FB
331
C502
331
C503
331
C50B
331
C50C
331
C514
331
C515
331
C51D
331
C51E
331
C525
331
C530
331
C531
331
C539
331
C53A
331
C542
331
C543
331
C54B
331
C54C
331
C554
331
C555
331
C55D
331
C565
331
C566
331
C56C
331
C575
331
C576
331
C57E
331
C57F
331
C587
331
C588
331
C590
331
C591
331
C599
331
C59A
331
C5A2
331
C5A3
331
C5AE
331
C5AF
331
C5B5
331
C5C0
331
C5C1
331
C69D
331
C69E
331
C6A6
331
C6A7
331
C6AF
331
C6B0
331
C6B8
331
C6B9
331
C6C1
331
C6C2
331
C6CA
331
C6CB
331
C6D3
331
C6D4
331
C6DE
331
C6DF
331
C6E7
331
C6E8
331
C6F0
331
C6F1
331
C6F9
331
C6FA
331
C702
331
C703
331
C70B
331
C70C
331
C714
331
C715
331
C71D
331
C71E
331
C726
331
C727
331
C72F
331
C730
331
C73A
331
C73B
331
C743
331
C744
331
C74B
331
C74C
331
C754
331
C755
331
C75D
331
C75E
331
C768
331
C769
102
}
  0
BLOCK_RECORD
  5
A138
330
1
100
AcDbSymbolTableRecord
100
AcDbBlockTableRecord
  2
*D1
340
0
  0
BLOCK_RECORD
  5
A144
330
1
100
AcDbSymbolTableRecord
100
AcDbBlockTableRecord
  2
*D2
340
0
  0
BLOCK_RECORD
  5
A15B
330
1
100
AcDbSymbolTableRecord
100
AcDbBlockTableRecord
  2
*D3
340
0
  0
BLOCK_RECORD
  5
A168
330
1
100
AcDbSymbolTableRecord
100
AcDbBlockTableRecord
  2
*D4
340
0
  0
BLOCK_RECORD
  5
A174
330
1
100
AcDbSymbolTableRecord
100
AcDbBlockTableRecord
  2
*D5
340
0
  0
BLOCK_RECORD
  5
A198
330
1
100
AcDbSymbolTableRecord
100
AcDbBlockTableRecord
  2
*D6
340
0
  0
BLOCK_RECORD
  5
A1A4
330
1
100
AcDbSymbolTableRecord
100
AcDbBlockTableRecord
  2
*D7
340
0
  0
BLOCK_RECORD
  5
A1B0
330
1
100
AcDbSymbolTableRecord
100
AcDbBlockTableRecord
  2
*D8
340
0
  0
BLOCK_RECORD
  5
A1BD
330
1
100
AcDbSymbolTableRecord
100
AcDbBlockTableRecord
  2
*D9
340
0
  0
BLOCK_RECORD
  5
A1EE
330
1
100
AcDbSymbolTableRecord
100
AcDbBlockTableRecord
  2
*D10
340
0
  0
BLOCK_RECORD
  5
A1FA
330
1
100
AcDbSymbolTableRecord
100
AcDbBlockTableRecord
  2
*D11
340
0
  0
BLOCK_RECORD
  5
A212
330
1
100
AcDbSymbolTableRecord
100
AcDbBlockTableRecord
  2
*D12
340
0
  0
BLOCK_RECORD
  5
A229
330
1
100
AcDbSymbolTableRecord
100
AcDbBlockTableRecord
  2
*D13
340
0
  0
BLOCK_RECORD
  5
A237
330
1
100
AcDbSymbolTableRecord
100
AcDbBlockTableRecord
  2
*D14
340
0
  0
BLOCK_RECORD
  5
A244
330
1
100
AcDbSymbolTableRecord
100
AcDbBlockTableRecord
  2
*D15
340
0
  0
BLOCK_RECORD
  5
A251
330
1
100
AcDbSymbolTableRecord
100
AcDbBlockTableRecord
  2
*D16
340
0
  0
BLOCK_RECORD
  5
A33F
330
1
100
AcDbSymbolTableRecord
100
AcDbBlockTableRecord
  2
*D17
340
0
  0
BLOCK_RECORD
  5
A34A
330
1
100
AcDbSymbolTableRecord
100
AcDbBlockTableRecord
  2
*D18
340
0
  0
BLOCK_RECORD
  5
A357
330
1
100
AcDbSymbolTableRecord
100
AcDbBlockTableRecord
  2
*D19
340
0
  0
BLOCK_RECORD
  5
A364
330
1
100
AcDbSymbolTableRecord
100
AcDbBlockTableRecord
  2
*D20
340
0
  0
BLOCK_RECORD
  5
A370
330
1
100
AcDbSymbolTableRecord
100
AcDbBlockTableRecord
  2
*D21
340
0
  0
BLOCK_RECORD
  5
A3BB
330
1
100
AcDbSymbolTableRecord
100
AcDbBlockTableRecord
  2
*D22
340
0
  0
BLOCK_RECORD
  5
A3C7
330
1
100
AcDbSymbolTableRecord
100
AcDbBlockTableRecord
  2
*D23
340
0
  0
BLOCK_RECORD
  5
A86F
330
1
100
AcDbSymbolTableRecord
100
AcDbBlockTableRecord
  2
*D24
340
0
  0
BLOCK_RECORD
  5
A92F
330
1
100
AcDbSymbolTableRecord
100
AcDbBlockTableRecord
  2
*D26
340
0
  0
BLOCK_RECORD
  5
A951
330
1
100
AcDbSymbolTableRecord
100
AcDbBlockTableRecord
  2
*D27
340
0
  0
BLOCK_RECORD
  5
A95D
330
1
100
AcDbSymbolTableRecord
100
AcDbBlockTableRecord
  2
*D28
340
0
  0
BLOCK_RECORD
  5
A969
330
1
100
AcDbSymbolTableRecord
100
AcDbBlockTableRecord
  2
*D29
340
0
  0
BLOCK_RECORD
  5
A975
330
1
100
AcDbSymbolTableRecord
100
AcDbBlockTableRecord
  2
*D30
340
0
  0
BLOCK_RECORD
  5
A9DC
330
1
100
AcDbSymbolTableRecord
100
AcDbBlockTableRecord
  2
*D31
340
0
  0
BLOCK_RECORD
  5
AA16
330
1
100
AcDbSymbolTableRecord
100
AcDbBlockTableRecord
  2
*D32
340
0
  0
BLOCK_RECORD
  5
AE8A
330
1
100
AcDbSymbolTableRecord
100
AcDbBlockTableRecord
  2
*D33
340
0
  0
BLOCK_RECORD
  5
AF7F
330
1
100
AcDbSymbolTableRecord
100
AcDbBlockTableRecord
  2
*D34
340
0
  0
BLOCK_RECORD
  5
AF8C
330
1
100
AcDbSymbolTableRecord
100
AcDbBlockTableRecord
  2
*D35
340
0
  0
BLOCK_RECORD
  5
B09C
330
1
100
AcDbSymbolTableRecord
100
AcDbBlockTableRecord
  2
*D36
340
0
  0
BLOCK_RECORD
  5
B0DB
330
1
100
AcDbSymbolTableRecord
100
AcDbBlockTableRecord
  2
*D37
340
0
  0
BLOCK_RECORD
  5
BAA5
330
1
100
AcDbSymbolTableRecord
100
AcDbBlockTableRecord
  2
*D38
340
0
  0
BLOCK_RECORD
  5
BCC3
330
1
100
AcDbSymbolTableRecord
100
AcDbBlockTableRecord
  2
*D39
340
0
  0
BLOCK_RECORD
  5
C1D3
330
1
100
AcDbSymbolTableRecord
100
AcDbBlockTableRecord
  2
*D40
340
0
  0
ENDTAB
  0
ENDSEC
  0
SECTION
  2
BLOCKS
  0
BLOCK
  5
1F
330
1E
100
AcDbEntity
  8
0
100
AcDbBlockBegin
  2
*MODEL_SPACE
 70
     0
 10
0.0
 20
0.0
 30
0.0
  3
*MODEL_SPACE
  1

  0
ENDBLK
  5
20
330
1E
100
AcDbEntity
  8
0
100
AcDbBlockEnd
  0
BLOCK
  5
1B
330
1A
100
AcDbEntity
 67
     1
  8
0
100
AcDbBlockBegin
  2
*PAPER_SPACE
 70
     0
 10
0.0
 20
0.0
 30
0.0
  3
*PAPER_SPACE
  1

  0
ENDBLK
  5
1C
330
1A
100
AcDbEntity
 67
     1
  8
0
100
AcDbBlockEnd
  0
BLOCK
  5
3B6
330
3B2
100
AcDbEntity
  8
0
100
AcDbBlockBegin
  2
_OPEN
 70
     0
 10
0.0
 20
0.0
 30
0.0
  3
_OPEN
  1

  0
LINE
  5
3B3
330
3B2
100
AcDbEntity
  8
30
  6
Continuous
 62
     0
100
AcDbLine
 10
-1.0
 20
0.166667
 30
0.0
 11
0.0
 21
0.0
 31
0.0
  0
LINE
  5
3B4
330
3B2
100
AcDbEntity
  8
30
  6
Continuous
 62
     0
100
AcDbLine
 10
-1.0
 20
-0.166667
 30
0.0
 11
0.0
 21
0.0
 31
0.0
  0
LINE
  5
3B5
330
3B2
100
AcDbEntity
  8
30
  6
Continuous
 62
     0
100
AcDbLine
 10
0.0
 20
0.0
 30
0.0
 11
-1.0
 21
0.0
 31
0.0
  0
ENDBLK
  5
3B7
330
3B2
100
AcDbEntity
  8
0
100
AcDbBlockEnd
  0
BLOCK
  5
A142
330
A138
100
AcDbEntity
  8
0
100
AcDbBlockBegin
  2
*D1
 70
     1
 10
0.0
 20
0.0
 30
0.0
  3
*D1
  1

  0
LINE
  5
C6A3
330
A138
100
AcDbEntity
  8
30
  6
Continuous
 62
     0
370
    -2
100
AcDbLine
 10
-105.0000000000001
 20
-139.9999999999999
 30
0.0
 11
-105.0000000000001
 21
-169.7053729314839
 31
0.0
  0
LINE
  5
C6A4
330
A138
100
AcDbEntity
  8
30
  6
Continuous
 62
     0
370
    -2
100
AcDbLine
 10
104.9999999999995
 20
-139.9999999999999
 30
0.0
 11
104.9999999999995
 21
-169.7053729314839
 31
0.0
  0
LINE
  5
C6A5
330
A138
100
AcDbEntity
  8
30
  6
Continuous
 62
     0
370
    -2
100
AcDbLine
 10
-103.0000000000001
 20
-169.2053729314839
 30
0.0
 11
102.9999999999995
 21
-169.2053729314839
 31
0.0
  0
INSERT
  5
C6A6
330
A138
100
AcDbEntity
  8
30
  6
Continuous
 62
     0
370
    -2
100
AcDbBlockReference
  2
_OPEN
 10
-105.0000000000001
 20
-169.2053729314839
 30
0.0
 41
2.0
 42
2.0
 43
2.0
 50
180.0
  0
INSERT
  5
C6A7
330
A138
100
AcDbEntity
  8
30
  6
Continuous
 62
     0
370
    -2
100
AcDbBlockReference
  2
_OPEN
 10
104.9999999999995
 20
-169.2053729314839
 30
0.0
 41
2.0
 42
2.0
 43
2.0
  0
MTEXT
  5
C6A8
330
A138
100
AcDbEntity
  8
30
  6
Continuous
 62
     0
100
AcDbMText
 10
-0.0000000000002981
 20
-163.205372931484
 30
0.0
 40
6.0
 41
0.0
 71
     5
 72
     1
  1
\A1; 210 
 73
     1
 44
1.0
  0
POINT
  5
C6A9
330
A138
100
AcDbEntity
  8
DEFPOINTS
  6
Continuous
 62
     0
100
AcDbPoint
 10
-105.0000000000001
 20
-136.9999999999999
 30
0.0
  0
POINT
  5
C6AA
330
A138
100
AcDbEntity
  8
DEFPOINTS
  6
Continuous
 62
     0
100
AcDbPoint
 10
104.9999999999995
 20
-136.9999999999999
 30
0.0
  0
POINT
  5
C6AB
330
A138
100
AcDbEntity
  8
DEFPOINTS
  6
Continuous
 62
     0
100
AcDbPoint
 10
104.9999999999995
 20
-169.2053729314839
 30
0.0
  0
ENDBLK
  5
A143
330
A138
100
AcDbEntity
  8
0
100
AcDbBlockEnd
  0
BLOCK
  5
A14D
330
A144
100
AcDbEntity
  8
0
100
AcDbBlockBegin
  2
*D2
 70
     1
 10
0.0
 20
0.0
 30
0.0
  3
*D2
  1

  0
LINE
  5
C6F6
330
A144
100
AcDbEntity
  8
30
  6
Continuous
 62
     0
370
    -2
100
AcDbLine
 10
330.3999999999998
 20
-47.99999999999993
 30
0.0
 11
330.3999999999998
 21
-204.5732068069063
 31
0.0
  0
LINE
  5
C6F7
330
A144
100
AcDbEntity
  8
30
  6
Continuous
 62
     0
370
    -2
100
AcDbLine
 10
437.3999999999998
 20
-134.9999999999999
 30
0.0
 11
437.3999999999998
 21
-204.5732068069063
 31
0.0
  0
LINE
  5
C6F8
330
A144
100
AcDbEntity
  8
30
  6
Continuous
 62
     0
370
    -2
100
AcDbLine
 10
332.3999999999998
 20
-204.0732068069063
 30
0.0
 11
435.3999999999998
 21
-204.0732068069063
 31
0.0
  0
INSERT
  5
C6F9
330
A144
100
AcDbEntity
  8
30
  6
Continuous
 62
     0
370
    -2
100
AcDbBlockReference
  2
_OPEN
 10
330.3999999999998
 20
-204.0732068069063
 30
0.0
 41
2.0
 42
2.0
 43
2.0
 50
180.0
  0
INSERT
  5
C6FA
330
A144
100
AcDbEntity
  8
30
  6
Continuous
 62
     0
370
    -2
100
AcDbBlockReference
  2
_OPEN
 10
437.3999999999998
 20
-204.0732068069063
 30
0.0
 41
2.0
 42
2.0
 43
2.0
  0
MTEXT
  5
C6FB
330
A144
100
AcDbEntity
  8
30
  6
Continuous
 62
     0
100
AcDbMText
 10
383.8999999999998
 20
-198.0732068069063
 30
0.0
 40
6.0
 41
0.0
 71
     5
 72
     1
  1
\A1; 107 
 73
     1
 44
1.0
  0
POINT
  5
C6FC
330
A144
100
AcDbEntity
  8
DEFPOINTS
  6
Continuous
 62
     0
100
AcDbPoint
 10
330.3999999999998
 20
-44.99999999999993
 30
0.0
  0
POINT
  5
C6FD
330
A144
100
AcDbEntity
  8
DEFPOINTS
  6
Continuous
 62
     0
100
AcDbPoint
 10
437.3999999999998
 20
-131.9999999999999
 30
0.0
  0
POINT
  5
C6FE
330
A144
100
AcDbEntity
  8
DEFPOINTS
  6
Continuous
 62
     0
100
AcDbPoint
 10
437.3999999999998
 20
-204.0732068069063
 30
0.0
  0
ENDBLK
  5
A14E
330
A144
100
AcDbEntity
  8
0
100
AcDbBlockEnd
  0
BLOCK
  5
A166
330
A15B
100
AcDbEntity
  8
0
100
AcDbBlockBegin
  2
*D3
 70
     1
 10
0.0
 20
0.0
 30
0.0
  3
*D3
  1

  0
LINE
  5
C6D9
330
A15B
100
AcDbEntity
  8
30
  6
Continuous
 62
     0
370
    -2
100
AcDbLine
 10
326.3999999999998
 20
-3.499999999999943
 30
0.0
 11
326.3999999999998
 21
-204.5732068069063
 31
0.0
  0
LINE
  5
C6DA
330
A15B
100
AcDbEntity
  8
30
  6
Continuous
 62
     0
370
    -2
100
AcDbLine
 10
330.3999999999998
 20
-52.99999999999993
 30
0.0
 11
330.3999999999998
 21
-204.5732068069063
 31
0.0
  0
LINE
  5
C6DB
330
A15B
100
AcDbEntity
  8
30
  6
Continuous
 62
     0
370
    -2
100
AcDbLine
 10
332.3999999999998
 20
-204.0732068069063
 30
0.0
 11
334.3999999999998
 21
-204.0732068069063
 31
0.0
  0
LINE
  5
C6DC
330
A15B
100
AcDbEntity
  8
30
  6
Continuous
 62
     0
370
    -2
100
AcDbLine
 10
324.3999999999998
 20
-204.0732068069063
 30
0.0
 11
308.7999999999998
 21
-204.0732068069063
 31
0.0
  0
LINE
  5
C6DD
330
A15B
100
AcDbEntity
  8
30
  6
Continuous
 62
     0
370
    -2
100
AcDbLine
 10
330.3999999999998
 20
-204.0732068069063
 30
0.0
 11
326.3999999999998
 21
-204.0732068069063
 31
0.0
  0
INSERT
  5
C6DE
330
A15B
100
AcDbEntity
  8
30
  6
Continuous
 62
     0
370
    -2
100
AcDbBlockReference
  2
_OPEN
 10
330.3999999999998
 20
-204.0732068069063
 30
0.0
 41
2.0
 42
2.0
 43
2.0
 50
180.0
  0
INSERT
  5
C6DF
330
A15B
100
AcDbEntity
  8
30
  6
Continuous
 62
     0
370
    -2
100
AcDbBlockReference
  2
_OPEN
 10
326.3999999999998
 20
-204.0732068069063
 30
0.0
 41
2.0
 42
2.0
 43
2.0
  0
MTEXT
  5
C6E0
330
A15B
100
AcDbEntity
  8
30
  6
Continuous
 62
     0
100
AcDbMText
 10
315.5999999999998
 20
-198.0732068069063
 30
0.0
 40
6.0
 41
0.0
 71
     5
 72
     1
  1
\A1; 4 
 73
     1
 44
1.0
  0
POINT
  5
C6E1
330
A15B
100
AcDbEntity
  8
DEFPOINTS
  6
Continuous
 62
     0
100
AcDbPoint
 10
326.3999999999998
 20
-0.4999999999999434
 30
0.0
  0
POINT
  5
C6E2
330
A15B
100
AcDbEntity
  8
DEFPOINTS
  6
Continuous
 62
     0
100
AcDbPoint
 10
330.3999999999998
 20
-49.99999999999993
 30
0.0
  0
POINT
  5
C6E3
330
A15B
100
AcDbEntity
  8
DEFPOINTS
  6
Continuous
 62
     0
100
AcDbPoint
 10
330.3999999999998
 20
-204.0732068069063
 30
0.0
  0
ENDBLK
  5
A167
330
A15B
100
AcDbEntity
  8
0
100
AcDbBlockEnd
  0
BLOCK
  5
A172
330
A168
100
AcDbEntity
  8
0
100
AcDbBlockBegin
  2
*D4
 70
     1
 10
0.0
 20
0.0
 30
0.0
  3
*D4
  1

  0
LINE
  5
C6D0
330
A168
100
AcDbEntity
  8
30
  6
Continuous
 62
     0
370
    -2
100
AcDbLine
 10
292.3999999999998
 20
-2.999999999999943
 30
0.0
 11
292.3999999999998
 21
-223.5492436799555
 31
0.0
  0
LINE
  5
C6D1
330
A168
100
AcDbEntity
  8
30
  6
Continuous
 62
     0
370
    -2
100
AcDbLine
 10
437.3999999999998
 20
-189.9999999999999
 30
0.0
 11
437.3999999999998
 21
-223.5492436799555
 31
0.0
  0
LINE
  5
C6D2
330
A168
100
AcDbEntity
  8
30
  6
Continuous
 62
     0
370
    -2
100
AcDbLine
 10
294.3999999999998
 20
-223.0492436799554
 30
0.0
 11
435.3999999999998
 21
-223.0492436799554
 31
0.0
  0
INSERT
  5
C6D3
330
A168
100
AcDbEntity
  8
30
  6
Continuous
 62
     0
370
    -2
100
AcDbBlockReference
  2
_OPEN
 10
292.3999999999998
 20
-223.0492436799554
 30
0.0
 41
2.0
 42
2.0
 43
2.0
 50
180.0
  0
INSERT
  5
C6D4
330
A168
100
AcDbEntity
  8
30
  6
Continuous
 62
     0
370
    -2
100
AcDbBlockReference
  2
_OPEN
 10
437.3999999999998
 20
-223.0492436799554
 30
0.0
 41
2.0
 42
2.0
 43
2.0
  0
MTEXT
  5
C6D5
330
A168
100
AcDbEntity
  8
30
  6
Continuous
 62
     0
100
AcDbMText
 10
364.8999999999998
 20
-217.0492436799555
 30
0.0
 40
6.0
 41
0.0
 71
     5
 72
     1
  1
\A1; 145 
 73
     1
 44
1.0
  0
POINT
  5
C6D6
330
A168
100
AcDbEntity
  8
DEFPOINTS
  6
Continuous
 62
     0
100
AcDbPoint
 10
292.3999999999998
 20
0.0000000000000568
 30
0.0
  0
POINT
  5
C6D7
330
A168
100
AcDbEntity
  8
DEFPOINTS
  6
Continuous
 62
     0
100
AcDbPoint
 10
437.3999999999998
 20
-186.9999999999999
 30
0.0
  0
POINT
  5
C6D8
330
A168
100
AcDbEntity
  8
DEFPOINTS
  6
Continuous
 62
     0
100
AcDbPoint
 10
437.3999999999998
 20
-223.0492436799554
 30
0.0
  0
ENDBLK
  5
A173
330
A168
100
AcDbEntity
  8
0
100
AcDbBlockEnd
  0
BLOCK
  5
A17E
330
A174
100
AcDbEntity
  8
0
100
AcDbBlockBegin
  2
*D5
 70
     1
 10
0.0
 20
0.0
 30
0.0
  3
*D5
  1

  0
LINE
  5
C6C7
330
A174
100
AcDbEntity
  8
30
  6
Continuous
 62
     0
370
    -2
100
AcDbLine
 10
292.3999999999998
 20
1.999999999999943
 30
0.0
 11
292.3999999999998
 21
-223.5492436799555
 31
0.0
  0
LINE
  5
C6C8
330
A174
100
AcDbEntity
  8
30
  6
Continuous
 62
     0
370
    -2
100
AcDbLine
 10
211.8989299999998
 20
1.999999999999943
 30
0.0
 11
211.8989299999998
 21
-223.5492436799555
 31
0.0
  0
LINE
  5
C6C9
330
A174
100
AcDbEntity
  8
30
  6
Continuous
 62
     0
370
    -2
100
AcDbLine
 10
290.3999999999998
 20
-223.0492436799554
 30
0.0
 11
213.8989299999998
 21
-223.0492436799554
 31
0.0
  0
INSERT
  5
C6CA
330
A174
100
AcDbEntity
  8
30
  6
Continuous
 62
     0
370
    -2
100
AcDbBlockReference
  2
_OPEN
 10
292.3999999999998
 20
-223.0492436799554
 30
0.0
 41
2.0
 42
2.0
 43
2.0
  0
INSERT
  5
C6CB
330
A174
100
AcDbEntity
  8
30
  6
Continuous
 62
     0
370
    -2
100
AcDbBlockReference
  2
_OPEN
 10
211.8989299999998
 20
-223.0492436799554
 30
0.0
 41
2.0
 42
2.0
 43
2.0
 50
180.0
  0
MTEXT
  5
C6CC
330
A174
100
AcDbEntity
  8
30
  6
Continuous
 62
     0
100
AcDbMText
 10
252.1494649999998
 20
-217.0492436799555
 30
0.0
 40
6.0
 41
0.0
 71
     5
 72
     1
  1
\A1; 80.5 
 73
     1
 44
1.0
  0
POINT
  5
C6CD
330
A174
100
AcDbEntity
  8
DEFPOINTS
  6
Continuous
 62
     0
100
AcDbPoint
 10
292.3999999999998
 20
4.999999999999943
 30
0.0
  0
POINT
  5
C6CE
330
A174
100
AcDbEntity
  8
DEFPOINTS
  6
Continuous
 62
     0
100
AcDbPoint
 10
211.8989299999998
 20
4.999999999999943
 30
0.0
  0
POINT
  5
C6CF
330
A174
100
AcDbEntity
  8
DEFPOINTS
  6
Continuous
 62
     0
100
AcDbPoint
 10
211.8989299999998
 20
-223.0492436799554
 30
0.0
  0
ENDBLK
  5
A17F
330
A174
100
AcDbEntity
  8
0
100
AcDbBlockEnd
  0
BLOCK
  5
A1A2
330
A198
100
AcDbEntity
  8
0
100
AcDbBlockBegin
  2
*D6
 70
     1
 10
0.0
 20
0.0
 30
0.0
  3
*D6
  1

  0
LINE
  5
C548
330
A198
100
AcDbEntity
  8
30
  6
Continuous
 62
     0
370
    -2
100
AcDbLine
 10
-113.0
 20
-337.4999999999997
 30
0.0
 11
-113.0
 21
-557.5958749999997
 31
0.0
  0
LINE
  5
C549
330
A198
100
AcDbEntity
  8
30
  6
Continuous
 62
     0
370
    -2
100
AcDbLine
 10
-70.00000000000001
 20
-484.9999999999998
 30
0.0
 11
-70.00000000000001
 21
-557.5958749999997
 31
0.0
  0
LINE
  5
C54A
330
A198
100
AcDbEntity
  8
30
  6
Continuous
 62
     0
370
    -2
100
AcDbLine
 10
-111.0
 20
-557.0958749999997
 30
0.0
 11
-72.00000000000001
 21
-557.0958749999997
 31
0.0
  0
INSERT
  5
C54B
330
A198
100
AcDbEntity
  8
30
  6
Continuous
 62
     0
370
    -2
100
AcDbBlockReference
  2
_OPEN
 10
-113.0
 20
-557.0958749999997
 30
0.0
 41
2.0
 42
2.0
 43
2.0
 50
180.0
  0
INSERT
  5
C54C
330
A198
100
AcDbEntity
  8
30
  6
Continuous
 62
     0
370
    -2
100
AcDbBlockReference
  2
_OPEN
 10
-70.00000000000001
 20
-557.0958749999997
 30
0.0
 41
2.0
 42
2.0
 43
2.0
  0
MTEXT
  5
C54D
330
A198
100
AcDbEntity
  8
30
  6
Continuous
 62
     0
100
AcDbMText
 10
-91.50000000000003
 20
-551.0958749999997
 30
0.0
 40
6.0
 41
0.0
 71
     5
 72
     1
  1
\A1; 43 
 73
     1
 44
1.0
  0
POINT
  5
C54E
330
A198
100
AcDbEntity
  8
DEFPOINTS
  6
Continuous
 62
     0
100
AcDbPoint
 10
-113.0
 20
-334.4999999999997
 30
0.0
  0
POINT
  5
C54F
330
A198
100
AcDbEntity
  8
DEFPOINTS
  6
Continuous
 62
     0
100
AcDbPoint
 10
-70.00000000000001
 20
-481.9999999999998
 30
0.0
  0
POINT
  5
C550
330
A198
100
AcDbEntity
  8
DEFPOINTS
  6
Continuous
 62
     0
100
AcDbPoint
 10
-70.00000000000001
 20
-557.0958749999997
 30
0.0
  0
ENDBLK
  5
A1A3
330
A198
100
AcDbEntity
  8
0
100
AcDbBlockEnd
  0
BLOCK
  5
A1AE
330
A1A4
100
AcDbEntity
  8
0
100
AcDbBlockBegin
  2
*D7
 70
     1
 10
0.0
 20
0.0
 30
0.0
  3
*D7
  1

  0
LINE
  5
C572
330
A1A4
100
AcDbEntity
  8
30
  6
Continuous
 62
     0
370
    -2
100
AcDbLine
 10
69.99999999999999
 20
-484.9999999999998
 30
0.0
 11
69.99999999999999
 21
-557.5958749999997
 31
0.0
  0
LINE
  5
C573
330
A1A4
100
AcDbEntity
  8
30
  6
Continuous
 62
     0
370
    -2
100
AcDbLine
 10
112.9999999999999
 20
-337.4999999999997
 30
0.0
 11
112.9999999999999
 21
-557.5958749999997
 31
0.0
  0
LINE
  5
C574
330
A1A4
100
AcDbEntity
  8
30
  6
Continuous
 62
     0
370
    -2
100
AcDbLine
 10
71.99999999999999
 20
-557.0958749999997
 30
0.0
 11
110.9999999999999
 21
-557.0958749999997
 31
0.0
  0
INSERT
  5
C575
330
A1A4
100
AcDbEntity
  8
30
  6
Continuous
 62
     0
370
    -2
100
AcDbBlockReference
  2
_OPEN
 10
69.99999999999999
 20
-557.0958749999997
 30
0.0
 41
2.0
 42
2.0
 43
2.0
 50
180.0
  0
INSERT
  5
C576
330
A1A4
100
AcDbEntity
  8
30
  6
Continuous
 62
     0
370
    -2
100
AcDbBlockReference
  2
_OPEN
 10
112.9999999999999
 20
-557.0958749999997
 30
0.0
 41
2.0
 42
2.0
 43
2.0
  0
MTEXT
  5
C577
330
A1A4
100
AcDbEntity
  8
30
  6
Continuous
 62
     0
100
AcDbMText
 10
91.49999999999996
 20
-551.0958749999997
 30
0.0
 40
6.0
 41
0.0
 71
     5
 72
     1
  1
\A1; 43 
 73
     1
 44
1.0
  0
POINT
  5
C578
330
A1A4
100
AcDbEntity
  8
DEFPOINTS
  6
Continuous
 62
     0
100
AcDbPoint
 10
69.99999999999999
 20
-481.9999999999998
 30
0.0
  0
POINT
  5
C579
330
A1A4
100
AcDbEntity
  8
DEFPOINTS
  6
Continuous
 62
     0
100
AcDbPoint
 10
112.9999999999999
 20
-334.4999999999997
 30
0.0
  0
POINT
  5
C57A
330
A1A4
100
AcDbEntity
  8
DEFPOINTS
  6
Continuous
 62
     0
100
AcDbPoint
 10
112.9999999999999
 20
-557.0958749999997
 30
0.0
  0
ENDBLK
  5
A1AF
330
A1A4
100
AcDbEntity
  8
0
100
AcDbBlockEnd
  0
BLOCK
  5
A1BB
330
A1B0
100
AcDbEntity
  8
0
100
AcDbBlockBegin
  2
*D8
 70
     1
 10
0.0
 20
0.0
 30
0.0
  3
*D8
  1

  0
LINE
  5
C596
330
A1B0
100
AcDbEntity
  8
30
  6
Continuous
 62
     0
370
    -2
100
AcDbLine
 10
42.99999999999998
 20
-477.0
 30
0.0
 11
157.0245325812545
 21
-477.0000000000001
 31
0.0
  0
LINE
  5
C597
330
A1B0
100
AcDbEntity
  8
30
  6
Continuous
 62
     0
370
    -2
100
AcDbLine
 10
107.9999999999999
 20
-360.0
 30
0.0
 11
157.0245325812545
 21
-360.0
 31
0.0
  0
LINE
  5
C598
330
A1B0
100
AcDbEntity
  8
30
  6
Continuous
 62
     0
370
    -2
100
AcDbLine
 10
156.5245325812545
 20
-475.0
 30
0.0
 11
156.5245325812545
 21
-362.0
 31
0.0
  0
INSERT
  5
C599
330
A1B0
100
AcDbEntity
  8
30
  6
Continuous
 62
     0
370
    -2
100
AcDbBlockReference
  2
_OPEN
 10
156.5245325812545
 20
-477.0000000000001
 30
0.0
 41
2.0
 42
2.0
 43
2.0
 50
270.0
  0
INSERT
  5
C59A
330
A1B0
100
AcDbEntity
  8
30
  6
Continuous
 62
     0
370
    -2
100
AcDbBlockReference
  2
_OPEN
 10
156.5245325812545
 20
-360.0
 30
0.0
 41
2.0
 42
2.0
 43
2.0
 50
90.0
  0
MTEXT
  5
C59B
330
A1B0
100
AcDbEntity
  8
30
  6
Continuous
 62
     0
100
AcDbMText
 10
150.5245325812546
 20
-418.5
 30
0.0
 40
6.0
 41
0.0
 71
     5
 72
     1
  1
\A1; 117 
 11
0.0000000000000001
 21
1.0
 31
0.0
 73
     1
 44
1.0
  0
POINT
  5
C59C
330
A1B0
100
AcDbEntity
  8
DEFPOINTS
  6
Continuous
 62
     0
100
AcDbPoint
 10
39.99999999999998
 20
-477.0
 30
0.0
  0
POINT
  5
C59D
330
A1B0
100
AcDbEntity
  8
DEFPOINTS
  6
Continuous
 62
     0
100
AcDbPoint
 10
104.9999999999999
 20
-360.0
 30
0.0
  0
POINT
  5
C59E
330
A1B0
100
AcDbEntity
  8
DEFPOINTS
  6
Continuous
 62
     0
100
AcDbPoint
 10
156.5245325812545
 20
-360.0
 30
0.0
  0
ENDBLK
  5
A1BC
330
A1B0
100
AcDbEntity
  8
0
100
AcDbBlockEnd
  0
BLOCK
  5
A1C8
330
A1BD
100
AcDbEntity
  8
0
100
AcDbBlockBegin
  2
*D9
 70
     1
 10
0.0
 20
0.0
 30
0.0
  3
*D9
  1

  0
LINE
  5
C59F
330
A1BD
100
AcDbEntity
  8
30
  6
Continuous
 62
     0
370
    -2
100
AcDbLine
 10
107.9999999999999
 20
-360.0
 30
0.0
 11
176.4692079724304
 21
-360.0
 31
0.0
  0
LINE
  5
C5A0
330
A1BD
100
AcDbEntity
  8
30
  6
Continuous
 62
     0
370
    -2
100
AcDbLine
 10
56.18257999999949
 20
-486.9999999999997
 30
0.0
 11
176.4692079724304
 21
-486.9999999999997
 31
0.0
  0
LINE
  5
C5A1
330
A1BD
100
AcDbEntity
  8
30
  6
Continuous
 62
     0
370
    -2
100
AcDbLine
 10
175.9692079724304
 20
-362.0
 30
0.0
 11
175.9692079724304
 21
-484.9999999999997
 31
0.0
  0
INSERT
  5
C5A2
330
A1BD
100
AcDbEntity
  8
30
  6
Continuous
 62
     0
370
    -2
100
AcDbBlockReference
  2
_OPEN
 10
175.9692079724304
 20
-360.0
 30
0.0
 41
2.0
 42
2.0
 43
2.0
 50
90.0
  0
INSERT
  5
C5A3
330
A1BD
100
AcDbEntity
  8
30
  6
Continuous
 62
     0
370
    -2
100
AcDbBlockReference
  2
_OPEN
 10
175.9692079724304
 20
-486.9999999999997
 30
0.0
 41
2.0
 42
2.0
 43
2.0
 50
270.0
  0
MTEXT
  5
C5A4
330
A1BD
100
AcDbEntity
  8
30
  6
Continuous
 62
     0
100
AcDbMText
 10
169.9692079724304
 20
-423.4999999999998
 30
0.0
 40
6.0
 41
0.0
 71
     5
 72
     1
  1
\A1; 127 
 11
0.0000000000000001
 21
1.0
 31
0.0
 73
     1
 44
1.0
  0
POINT
  5
C5A5
330
A1BD
100
AcDbEntity
  8
DEFPOINTS
  6
Continuous
 62
     0
100
AcDbPoint
 10
104.9999999999999
 20
-360.0
 30
0.0
  0
POINT
  5
C5A6
330
A1BD
100
AcDbEntity
  8
DEFPOINTS
  6
Continuous
 62
     0
100
AcDbPoint
 10
53.18257999999949
 20
-486.9999999999997
 30
0.0
  0
POINT
  5
C5A7
330
A1BD
100
AcDbEntity
  8
DEFPOINTS
  6
Continuous
 62
     0
100
AcDbPoint
 10
175.9692079724304
 20
-486.9999999999997
 30
0.0
  0
ENDBLK
  5
A1C9
330
A1BD
100
AcDbEntity
  8
0
100
AcDbBlockEnd
  0
BLOCK
  5
A1F8
330
A1EE
100
AcDbEntity
  8
0
100
AcDbBlockBegin
  2
*D10
 70
     1
 10
0.0
 20
0.0
 30
0.0
  3
*D10
  1

  0
LINE
  5
C551
330
A1EE
100
AcDbEntity
  8
30
  6
Continuous
 62
     0
370
    -2
100
AcDbLine
 10
-70.00000000000001
 20
-484.9999999999998
 30
0.0
 11
-70.00000000000001
 21
-557.5958749999997
 31
0.0
  0
LINE
  5
C552
330
A1EE
100
AcDbEntity
  8
30
  6
Continuous
 62
     0
370
    -2
100
AcDbLine
 10
-0.0000000000000144
 20
-484.9999999999998
 30
0.0
 11
-0.0000000000000188
 21
-557.5958749999997
 31
0.0
  0
LINE
  5
C553
330
A1EE
100
AcDbEntity
  8
30
  6
Continuous
 62
     0
370
    -2
100
AcDbLine
 10
-68.00000000000001
 20
-557.0958749999997
 30
0.0
 11
-2.000000000000018
 21
-557.0958749999997
 31
0.0
  0
INSERT
  5
C554
330
A1EE
100
AcDbEntity
  8
30
  6
Continuous
 62
     0
370
    -2
100
AcDbBlockReference
  2
_OPEN
 10
-70.00000000000001
 20
-557.0958749999997
 30
0.0
 41
2.0
 42
2.0
 43
2.0
 50
180.0
  0
INSERT
  5
C555
330
A1EE
100
AcDbEntity
  8
30
  6
Continuous
 62
     0
370
    -2
100
AcDbBlockReference
  2
_OPEN
 10
-0.0000000000000188
 20
-557.0958749999997
 30
0.0
 41
2.0
 42
2.0
 43
2.0
  0
MTEXT
  5
C556
330
A1EE
100
AcDbEntity
  8
30
  6
Continuous
 62
     0
100
AcDbMText
 10
-35.00000000000001
 20
-551.0958749999997
 30
0.0
 40
6.0
 41
0.0
 71
     5
 72
     1
  1
\A1; 70 
 73
     1
 44
1.0
  0
POINT
  5
C557
330
A1EE
100
AcDbEntity
  8
DEFPOINTS
  6
Continuous
 62
     0
100
AcDbPoint
 10
-70.00000000000001
 20
-481.9999999999998
 30
0.0
  0
POINT
  5
C558
330
A1EE
100
AcDbEntity
  8
DEFPOINTS
  6
Continuous
 62
     0
100
AcDbPoint
 10
-0.0000000000000142
 20
-481.9999999999998
 30
0.0
  0
POINT
  5
C559
330
A1EE
100
AcDbEntity
  8
DEFPOINTS
  6
Continuous
 62
     0
100
AcDbPoint
 10
-0.0000000000000188
 20
-557.0958749999997
 30
0.0
  0
ENDBLK
  5
A1F9
330
A1EE
100
AcDbEntity
  8
0
100
AcDbBlockEnd
  0
BLOCK
  5
A204
330
A1FA
100
AcDbEntity
  8
0
100
AcDbBlockBegin
  2
*D11
 70
     1
 10
0.0
 20
0.0
 30
0.0
  3
*D11
  1

  0
LINE
  5
C53F
330
A1FA
100
AcDbEntity
  8
30
  6
Continuous
 62
     0
370
    -2
100
AcDbLine
 10
-0.0000000000000144
 20
-484.9999999999998
 30
0.0
 11
-0.0000000000000188
 21
-557.5958749999997
 31
0.0
  0
LINE
  5
C540
330
A1FA
100
AcDbEntity
  8
30
  6
Continuous
 62
     0
370
    -2
100
AcDbLine
 10
69.99999999999999
 20
-484.9999999999998
 30
0.0
 11
69.99999999999999
 21
-557.5958749999997
 31
0.0
  0
LINE
  5
C541
330
A1FA
100
AcDbEntity
  8
30
  6
Continuous
 62
     0
370
    -2
100
AcDbLine
 10
1.999999999999981
 20
-557.0958749999997
 30
0.0
 11
67.99999999999998
 21
-557.0958749999997
 31
0.0
  0
INSERT
  5
C542
330
A1FA
100
AcDbEntity
  8
30
  6
Continuous
 62
     0
370
    -2
100
AcDbBlockReference
  2
_OPEN
 10
-0.0000000000000188
 20
-557.0958749999997
 30
0.0
 41
2.0
 42
2.0
 43
2.0
 50
180.0
  0
INSERT
  5
C543
330
A1FA
100
AcDbEntity
  8
30
  6
Continuous
 62
     0
370
    -2
100
AcDbBlockReference
  2
_OPEN
 10
69.99999999999999
 20
-557.0958749999997
 30
0.0
 41
2.0
 42
2.0
 43
2.0
  0
MTEXT
  5
C544
330
A1FA
100
AcDbEntity
  8
30
  6
Continuous
 62
     0
100
AcDbMText
 10
34.99999999999998
 20
-551.0958749999997
 30
0.0
 40
6.0
 41
0.0
 71
     5
 72
     1
  1
\A1; 70 
 73
     1
 44
1.0
  0
POINT
  5
C545
330
A1FA
100
AcDbEntity
  8
DEFPOINTS
  6
Continuous
 62
     0
100
AcDbPoint
 10
-0.0000000000000142
 20
-481.9999999999998
 30
0.0
  0
POINT
  5
C546
330
A1FA
100
AcDbEntity
  8
DEFPOINTS
  6
Continuous
 62
     0
100
AcDbPoint
 10
69.99999999999999
 20
-481.9999999999998
 30
0.0
  0
POINT
  5
C547
330
A1FA
100
AcDbEntity
  8
DEFPOINTS
  6
Continuous
 62
     0
100
AcDbPoint
 10
69.99999999999999
 20
-557.0958749999997
 30
0.0
  0
ENDBLK
  5
A205
330
A1FA
100
AcDbEntity
  8
0
100
AcDbBlockEnd
  0
BLOCK
  5
A21C
330
A212
100
AcDbEntity
  8
0
100
AcDbBlockBegin
  2
*D12
 70
     1
 10
0.0
 20
0.0
 30
0.0
  3
*D12
  1

  0
LINE
  5
C536
330
A212
100
AcDbEntity
  8
30
  6
Continuous
 62
     0
370
    -2
100
AcDbLine
 10
-35.00000000000001
 20
-484.9999999999998
 30
0.0
 11
-35.00000000000001
 21
-522.5958749999997
 31
0.0
  0
LINE
  5
C537
330
A212
100
AcDbEntity
  8
30
  6
Continuous
 62
     0
370
    -2
100
AcDbLine
 10
34.99999999999998
 20
-484.9999999999998
 30
0.0
 11
34.99999999999998
 21
-522.5958749999997
 31
0.0
  0
LINE
  5
C538
330
A212
100
AcDbEntity
  8
30
  6
Continuous
 62
     0
370
    -2
100
AcDbLine
 10
-33.00000000000001
 20
-522.0958749999997
 30
0.0
 11
32.99999999999998
 21
-522.0958749999997
 31
0.0
  0
INSERT
  5
C539
330
A212
100
AcDbEntity
  8
30
  6
Continuous
 62
     0
370
    -2
100
AcDbBlockReference
  2
_OPEN
 10
-35.00000000000001
 20
-522.0958749999997
 30
0.0
 41
2.0
 42
2.0
 43
2.0
 50
180.0
  0
INSERT
  5
C53A
330
A212
100
AcDbEntity
  8
30
  6
Continuous
 62
     0
370
    -2
100
AcDbBlockReference
  2
_OPEN
 10
34.99999999999998
 20
-522.0958749999997
 30
0.0
 41
2.0
 42
2.0
 43
2.0
  0
MTEXT
  5
C53B
330
A212
100
AcDbEntity
  8
30
  6
Continuous
 62
     0
100
AcDbMText
 10
-0.0000000000000138
 20
-516.0958749999998
 30
0.0
 40
6.0
 41
0.0
 71
     5
 72
     1
  1
\A1; 70 
 73
     1
 44
1.0
  0
POINT
  5
C53C
330
A212
100
AcDbEntity
  8
DEFPOINTS
  6
Continuous
 62
     0
100
AcDbPoint
 10
-35.00000000000001
 20
-481.9999999999998
 30
0.0
  0
POINT
  5
C53D
330
A212
100
AcDbEntity
  8
DEFPOINTS
  6
Continuous
 62
     0
100
AcDbPoint
 10
34.99999999999998
 20
-481.9999999999998
 30
0.0
  0
POINT
  5
C53E
330
A212
100
AcDbEntity
  8
DEFPOINTS
  6
Continuous
 62
     0
100
AcDbPoint
 10
34.99999999999998
 20
-522.0958749999997
 30
0.0
  0
ENDBLK
  5
A21D
330
A212
100
AcDbEntity
  8
0
100
AcDbBlockEnd
  0
BLOCK
  5
A235
330
A229
100
AcDbEntity
  8
0
100
AcDbBlockBegin
  2
*D13
 70
     1
 10
0.0
 20
0.0
 30
0.0
  3
*D13
  1

  0
LINE
  5
C5A8
330
A229
100
AcDbEntity
  8
30
  6
Continuous
 62
     0
370
    -2
100
AcDbLine
 10
56.18257999999949
 20
-486.9999999999997
 30
0.0
 11
176.4692079724304
 21
-486.9999999999997
 31
0.0
  0
LINE
  5
C5A9
330
A229
100
AcDbEntity
  8
30
  6
Continuous
 62
     0
370
    -2
100
AcDbLine
 10
59.26500999999999
 20
-492.0
 30
0.0
 11
176.4692079724304
 21
-492.0
 31
0.0
  0
LINE
  5
C5AA
330
A229
100
AcDbEntity
  8
30
  6
Continuous
 62
     0
370
    -2
100
AcDbLine
 10
175.9692079724304
 20
-484.9999999999997
 30
0.0
 11
175.9692079724304
 21
-482.9999999999997
 31
0.0
  0
LINE
  5
C5AB
330
A229
100
AcDbEntity
  8
30
  6
Continuous
 62
     0
370
    -2
100
AcDbLine
 10
175.9692079724304
 20
-494.0
 30
0.0
 11
175.9692079724304
 21
-496.0
 31
0.0
  0
MTEXT
  5
C5AC
330
A229
100
AcDbEntity
  8
30
  6
Continuous
 62
     0
100
AcDbMText
 10
171.5238731006845
 20
-491.2034850158403
 30
0.0
 40
6.0
 41
0.0
 71
     5
 72
     1
  1
\A1; 5 
 11
0.0000000000000001
 21
1.0
 31
0.0
 73
     1
 44
1.0
  0
LINE
  5
C5AD
330
A229
100
AcDbEntity
  8
30
  6
Continuous
 62
     0
370
    -2
100
AcDbLine
 10
175.9692079724304
 20
-486.9999999999997
 30
0.0
 11
175.9692079724304
 21
-492.0
 31
0.0
  0
INSERT
  5
C5AE
330
A229
100
AcDbEntity
  8
30
  6
Continuous
 62
     0
370
    -2
100
AcDbBlockReference
  2
_OPEN
 10
175.9692079724304
 20
-486.9999999999997
 30
0.0
 41
2.0
 42
2.0
 43
2.0
 50
270.0
  0
INSERT
  5
C5AF
330
A229
100
AcDbEntity
  8
30
  6
Continuous
 62
     0
370
    -2
100
AcDbBlockReference
  2
_OPEN
 10
175.9692079724304
 20
-492.0
 30
0.0
 41
2.0
 42
2.0
 43
2.0
 50
90.0
  0
POINT
  5
C5B0
330
A229
100
AcDbEntity
  8
DEFPOINTS
  6
Continuous
 62
     0
100
AcDbPoint
 10
53.18257999999949
 20
-486.9999999999997
 30
0.0
  0
POINT
  5
C5B1
330
A229
100
AcDbEntity
  8
DEFPOINTS
  6
Continuous
 62
     0
100
AcDbPoint
 10
56.26500999999999
 20
-492.0
 30
0.0
  0
POINT
  5
C5B2
330
A229
100
AcDbEntity
  8
DEFPOINTS
  6
Continuous
 62
     0
100
AcDbPoint
 10
175.9692079724304
 20
-492.0
 30
0.0
  0
ENDBLK
  5
A236
330
A229
100
AcDbEntity
  8
0
100
AcDbBlockEnd
  0
BLOCK
  5
A242
330
A237
100
AcDbEntity
  8
0
100
AcDbBlockBegin
  2
*D14
 70
     1
 10
0.0
 20
0.0
 30
0.0
  3
*D14
  1

  0
LINE
  5
C57B
330
A237
100
AcDbEntity
  8
30
  6
Continuous
 62
     0
370
    -2
100
AcDbLine
 10
122.9999999999999
 20
-360.0
 30
0.0
 11
157.0245325812545
 21
-360.0
 31
0.0
  0
LINE
  5
C57C
330
A237
100
AcDbEntity
  8
30
  6
Continuous
 62
     0
370
    -2
100
AcDbLine
 10
42.99999999999998
 20
-233.9999999999998
 30
0.0
 11
157.0245325812545
 21
-233.9999999999998
 31
0.0
  0
LINE
  5
C57D
330
A237
100
AcDbEntity
  8
30
  6
Continuous
 62
     0
370
    -2
100
AcDbLine
 10
156.5245325812545
 20
-358.0
 30
0.0
 11
156.5245325812545
 21
-235.9999999999998
 31
0.0
  0
INSERT
  5
C57E
330
A237
100
AcDbEntity
  8
30
  6
Continuous
 62
     0
370
    -2
100
AcDbBlockReference
  2
_OPEN
 10
156.5245325812545
 20
-360.0
 30
0.0
 41
2.0
 42
2.0
 43
2.0
 50
270.0
  0
INSERT
  5
C57F
330
A237
100
AcDbEntity
  8
30
  6
Continuous
 62
     0
370
    -2
100
AcDbBlockReference
  2
_OPEN
 10
156.5245325812545
 20
-233.9999999999998
 30
0.0
 41
2.0
 42
2.0
 43
2.0
 50
90.0
  0
MTEXT
  5
C580
330
A237
100
AcDbEntity
  8
30
  6
Continuous
 62
     0
100
AcDbMText
 10
150.5245325812546
 20
-296.9999999999998
 30
0.0
 40
6.0
 41
0.0
 71
     5
 72
     1
  1
\A1; 126 
 11
0.0000000000000001
 21
1.0
 31
0.0
 73
     1
 44
1.0
  0
POINT
  5
C581
330
A237
100
AcDbEntity
  8
DEFPOINTS
  6
Continuous
 62
     0
100
AcDbPoint
 10
119.9999999999999
 20
-360.0
 30
0.0
  0
POINT
  5
C582
330
A237
100
AcDbEntity
  8
DEFPOINTS
  6
Continuous
 62
     0
100
AcDbPoint
 10
39.99999999999998
 20
-233.9999999999998
 30
0.0
  0
POINT
  5
C583
330
A237
100
AcDbEntity
  8
DEFPOINTS
  6
Continuous
 62
     0
100
AcDbPoint
 10
156.5245325812545
 20
-233.9999999999998
 30
0.0
  0
ENDBLK
  5
A243
330
A237
100
AcDbEntity
  8
0
100
AcDbBlockEnd
  0
BLOCK
  5
A24F
330
A244
100
AcDbEntity
  8
0
100
AcDbBlockBegin
  2
*D15
 70
     1
 10
0.0
 20
0.0
 30
0.0
  3
*D15
  1

  0
LINE
  5
C584
330
A244
100
AcDbEntity
  8
30
  6
Continuous
 62
     0
370
    -2
100
AcDbLine
 10
107.9999999999999
 20
-223.9999999999997
 30
0.0
 11
176.4692079724309
 21
-223.9999999999997
 31
0.0
  0
LINE
  5
C585
330
A244
100
AcDbEntity
  8
30
  6
Continuous
 62
     0
370
    -2
100
AcDbLine
 10
107.9999999999999
 20
-360.0
 30
0.0
 11
176.4692079724309
 21
-360.0
 31
0.0
  0
LINE
  5
C586
330
A244
100
AcDbEntity
  8
30
  6
Continuous
 62
     0
370
    -2
100
AcDbLine
 10
175.9692079724309
 20
-225.9999999999997
 30
0.0
 11
175.9692079724309
 21
-358.0
 31
0.0
  0
INSERT
  5
C587
330
A244
100
AcDbEntity
  8
30
  6
Continuous
 62
     0
370
    -2
100
AcDbBlockReference
  2
_OPEN
 10
175.9692079724309
 20
-223.9999999999997
 30
0.0
 41
2.0
 42
2.0
 43
2.0
 50
90.0
  0
INSERT
  5
C588
330
A244
100
AcDbEntity
  8
30
  6
Continuous
 62
     0
370
    -2
100
AcDbBlockReference
  2
_OPEN
 10
175.9692079724309
 20
-360.0
 30
0.0
 41
2.0
 42
2.0
 43
2.0
 50
270.0
  0
MTEXT
  5
C589
330
A244
100
AcDbEntity
  8
30
  6
Continuous
 62
     0
100
AcDbMText
 10
169.9692079724309
 20
-291.9999999999999
 30
0.0
 40
6.0
 41
0.0
 71
     5
 72
     1
  1
\A1; 136 
 11
0.0000000000000001
 21
1.0
 31
0.0
 73
     1
 44
1.0
  0
POINT
  5
C58A
330
A244
100
AcDbEntity
  8
DEFPOINTS
  6
Continuous
 62
     0
100
AcDbPoint
 10
104.9999999999999
 20
-223.9999999999997
 30
0.0
  0
POINT
  5
C58B
330
A244
100
AcDbEntity
  8
DEFPOINTS
  6
Continuous
 62
     0
100
AcDbPoint
 10
104.9999999999999
 20
-360.0
 30
0.0
  0
POINT
  5
C58C
330
A244
100
AcDbEntity
  8
DEFPOINTS
  6
Continuous
 62
     0
100
AcDbPoint
 10
175.9692079724309
 20
-360.0
 30
0.0
  0
ENDBLK
  5
A250
330
A244
100
AcDbEntity
  8
0
100
AcDbBlockEnd
  0
BLOCK
  5
A25C
330
A251
100
AcDbEntity
  8
0
100
AcDbBlockBegin
  2
*D16
 70
     1
 10
0.0
 20
0.0
 30
0.0
  3
*D16
  1

  0
LINE
  5
C58D
330
A251
100
AcDbEntity
  8
30
  6
Continuous
 62
     0
370
    -2
100
AcDbLine
 10
108.9999999999999
 20
-360.0
 30
0.0
 11
139.6538999999999
 21
-360.0
 31
0.0
  0
LINE
  5
C58E
330
A251
100
AcDbEntity
  8
30
  6
Continuous
 62
     0
370
    -2
100
AcDbLine
 10
120.9999999999999
 20
-329.4999999999998
 30
0.0
 11
139.6538999999999
 21
-329.4999999999999
 31
0.0
  0
LINE
  5
C58F
330
A251
100
AcDbEntity
  8
30
  6
Continuous
 62
     0
370
    -2
100
AcDbLine
 10
139.1538999999999
 20
-358.0
 30
0.0
 11
139.1538999999999
 21
-331.4999999999999
 31
0.0
  0
INSERT
  5
C590
330
A251
100
AcDbEntity
  8
30
  6
Continuous
 62
     0
370
    -2
100
AcDbBlockReference
  2
_OPEN
 10
139.1538999999999
 20
-360.0
 30
0.0
 41
2.0
 42
2.0
 43
2.0
 50
270.0
  0
INSERT
  5
C591
330
A251
100
AcDbEntity
  8
30
  6
Continuous
 62
     0
370
    -2
100
AcDbBlockReference
  2
_OPEN
 10
139.1538999999999
 20
-329.4999999999999
 30
0.0
 41
2.0
 42
2.0
 43
2.0
 50
90.0
  0
MTEXT
  5
C592
330
A251
100
AcDbEntity
  8
30
  6
Continuous
 62
     0
100
AcDbMText
 10
133.1539
 20
-344.7499999999998
 30
0.0
 40
6.0
 41
0.0
 71
     5
 72
     1
  1
\A1; 30.5 
 11
0.0000000000000001
 21
1.0
 31
0.0
 73
     1
 44
1.0
  0
POINT
  5
C593
330
A251
100
AcDbEntity
  8
DEFPOINTS
  6
Continuous
 62
     0
100
AcDbPoint
 10
105.9999999999999
 20
-360.0
 30
0.0
  0
POINT
  5
C594
330
A251
100
AcDbEntity
  8
DEFPOINTS
  6
Continuous
 62
     0
100
AcDbPoint
 10
117.9999999999999
 20
-329.4999999999998
 30
0.0
  0
POINT
  5
C595
330
A251
100
AcDbEntity
  8
DEFPOINTS
  6
Continuous
 62
     0
100
AcDbPoint
 10
139.1538999999999
 20
-329.4999999999999
 30
0.0
  0
ENDBLK
  5
A25D
330
A251
100
AcDbEntity
  8
0
100
AcDbBlockEnd
  0
BLOCK
  5
A348
330
A33F
100
AcDbEntity
  8
0
100
AcDbBlockBegin
  2
*D17
 70
     1
 10
0.0
 20
0.0
 30
0.0
  3
*D17
  1

  0
LINE
  5
C708
330
A33F
100
AcDbEntity
  8
30
  6
Continuous
 62
     0
370
    -2
100
AcDbLine
 10
334.3999999999998
 20
-47.99999999999993
 30
0.0
 11
334.3999999999998
 21
-187.5958749999999
 31
0.0
  0
LINE
  5
C709
330
A33F
100
AcDbEntity
  8
30
  6
Continuous
 62
     0
370
    -2
100
AcDbLine
 10
437.3999999999998
 20
-139.9999999999999
 30
0.0
 11
437.3999999999998
 21
-187.5958749999999
 31
0.0
  0
LINE
  5
C70A
330
A33F
100
AcDbEntity
  8
30
  6
Continuous
 62
     0
370
    -2
100
AcDbLine
 10
336.3999999999998
 20
-187.0958749999999
 30
0.0
 11
435.3999999999998
 21
-187.0958749999999
 31
0.0
  0
INSERT
  5
C70B
330
A33F
100
AcDbEntity
  8
30
  6
Continuous
 62
     0
370
    -2
100
AcDbBlockReference
  2
_OPEN
 10
334.3999999999998
 20
-187.0958749999999
 30
0.0
 41
2.0
 42
2.0
 43
2.0
 50
180.0
  0
INSERT
  5
C70C
330
A33F
100
AcDbEntity
  8
30
  6
Continuous
 62
     0
370
    -2
100
AcDbBlockReference
  2
_OPEN
 10
437.3999999999998
 20
-187.0958749999999
 30
0.0
 41
2.0
 42
2.0
 43
2.0
  0
MTEXT
  5
C70D
330
A33F
100
AcDbEntity
  8
30
  6
Continuous
 62
     0
100
AcDbMText
 10
385.8999999999998
 20
-181.0958749999999
 30
0.0
 40
6.0
 41
0.0
 71
     5
 72
     1
  1
\A1; 103 
 73
     1
 44
1.0
  0
POINT
  5
C70E
330
A33F
100
AcDbEntity
  8
DEFPOINTS
  6
Continuous
 62
     0
100
AcDbPoint
 10
334.3999999999998
 20
-44.99999999999993
 30
0.0
  0
POINT
  5
C70F
330
A33F
100
AcDbEntity
  8
DEFPOINTS
  6
Continuous
 62
     0
100
AcDbPoint
 10
437.3999999999998
 20
-136.9999999999999
 30
0.0
  0
POINT
  5
C710
330
A33F
100
AcDbEntity
  8
DEFPOINTS
  6
Continuous
 62
     0
100
AcDbPoint
 10
437.3999999999998
 20
-187.0958749999999
 30
0.0
  0
ENDBLK
  5
A349
330
A33F
100
AcDbEntity
  8
0
100
AcDbBlockEnd
  0
BLOCK
  5
A355
330
A34A
100
AcDbEntity
  8
0
100
AcDbBlockBegin
  2
*D18
 70
     1
 10
0.0
 20
0.0
 30
0.0
  3
*D18
  1

  0
LINE
  5
C763
330
A34A
100
AcDbEntity
  8
30
  6
Continuous
 62
     0
370
    -2
100
AcDbLine
 10
567.3999999999997
 20
121.0000000000001
 30
0.0
 11
574.5279244687826
 21
121.0000000000001
 31
0.0
  0
LINE
  5
C764
330
A34A
100
AcDbEntity
  8
30
  6
Continuous
 62
     0
370
    -2
100
AcDbLine
 10
567.3999999999997
 20
131.0
 30
0.0
 11
574.5279244687826
 21
131.0
 31
0.0
  0
LINE
  5
C765
330
A34A
100
AcDbEntity
  8
30
  6
Continuous
 62
     0
370
    -2
100
AcDbLine
 10
574.0279244687826
 20
119.0000000000001
 30
0.0
 11
574.0279244687826
 21
117.0000000000001
 31
0.0
  0
LINE
  5
C766
330
A34A
100
AcDbEntity
  8
30
  6
Continuous
 62
     0
370
    -2
100
AcDbLine
 10
574.0279244687826
 20
133.0
 30
0.0
 11
574.0279244687826
 21
135.0
 31
0.0
  0
LINE
  5
C767
330
A34A
100
AcDbEntity
  8
30
  6
Continuous
 62
     0
370
    -2
100
AcDbLine
 10
574.0279244687826
 20
121.0000000000001
 30
0.0
 11
574.0279244687826
 21
131.0
 31
0.0
  0
INSERT
  5
C768
330
A34A
100
AcDbEntity
  8
30
  6
Continuous
 62
     0
370
    -2
100
AcDbBlockReference
  2
_OPEN
 10
574.0279244687826
 20
121.0000000000001
 30
0.0
 41
2.0
 42
2.0
 43
2.0
 50
90.0
  0
INSERT
  5
C769
330
A34A
100
AcDbEntity
  8
30
  6
Continuous
 62
     0
370
    -2
100
AcDbBlockReference
  2
_OPEN
 10
574.0279244687826
 20
131.0
 30
0.0
 41
2.0
 42
2.0
 43
2.0
 50
270.0
  0
MTEXT
  5
C76A
330
A34A
100
AcDbEntity
  8
30
  6
Continuous
 62
     0
100
AcDbMText
 10
568.0279244687826
 20
126.0000000000001
 30
0.0
 40
6.0
 41
0.0
 71
     5
 72
     1
  1
\A1;10 
 11
0.0000000000000001
 21
1.0
 31
0.0
 73
     1
 44
1.0
  0
POINT
  5
C76B
330
A34A
100
AcDbEntity
  8
DEFPOINTS
  6
Continuous
 62
     0
100
AcDbPoint
 10
564.3999999999997
 20
121.0000000000001
 30
0.0
  0
POINT
  5
C76C
330
A34A
100
AcDbEntity
  8
DEFPOINTS
  6
Continuous
 62
     0
100
AcDbPoint
 10
564.3999999999997
 20
131.0
 30
0.0
  0
POINT
  5
C76D
330
A34A
100
AcDbEntity
  8
DEFPOINTS
  6
Continuous
 62
     0
100
AcDbPoint
 10
574.0279244687826
 20
131.0
 30
0.0
  0
ENDBLK
  5
A356
330
A34A
100
AcDbEntity
  8
0
100
AcDbBlockEnd
  0
BLOCK
  5
A362
330
A357
100
AcDbEntity
  8
0
100
AcDbBlockBegin
  2
*D19
 70
     1
 10
0.0
 20
0.0
 30
0.0
  3
*D19
  1

  0
LINE
  5
C748
330
A357
100
AcDbEntity
  8
30
  6
Continuous
 62
     0
370
    -2
100
AcDbLine
 10
565.3999999999997
 20
-95.99999999999985
 30
0.0
 11
574.4269499999997
 21
-95.99999999999985
 31
0.0
  0
LINE
  5
C749
330
A357
100
AcDbEntity
  8
30
  6
Continuous
 62
     0
370
    -2
100
AcDbLine
 10
565.3999999999997
 20
-137.9999999999999
 30
0.0
 11
574.4269499999997
 21
-137.9999999999999
 31
0.0
  0
LINE
  5
C74A
330
A357
100
AcDbEntity
  8
30
  6
Continuous
 62
     0
370
    -2
100
AcDbLine
 10
573.9269499999998
 20
-97.99999999999984
 30
0.0
 11
573.9269499999998
 21
-135.9999999999999
 31
0.0
  0
INSERT
  5
C74B
330
A357
100
AcDbEntity
  8
30
  6
Continuous
 62
     0
370
    -2
100
AcDbBlockReference
  2
_OPEN
 10
573.9269499999998
 20
-95.99999999999985
 30
0.0
 41
2.0
 42
2.0
 43
2.0
 50
90.0
  0
INSERT
  5
C74C
330
A357
100
AcDbEntity
  8
30
  6
Continuous
 62
     0
370
    -2
100
AcDbBlockReference
  2
_OPEN
 10
573.9269499999998
 20
-137.9999999999999
 30
0.0
 41
2.0
 42
2.0
 43
2.0
 50
270.0
  0
MTEXT
  5
C74D
330
A357
100
AcDbEntity
  8
30
  6
Continuous
 62
     0
100
AcDbMText
 10
567.9269499999998
 20
-116.9999999999997
 30
0.0
 40
6.0
 41
0.0
 71
     5
 72
     1
  1
\A1; 42 
 11
0.0000000000000001
 21
1.0
 31
0.0
 73
     1
 44
1.0
  0
POINT
  5
C74E
330
A357
100
AcDbEntity
  8
DEFPOINTS
  6
Continuous
 62
     0
100
AcDbPoint
 10
562.3999999999997
 20
-95.99999999999985
 30
0.0
  0
POINT
  5
C74F
330
A357
100
AcDbEntity
  8
DEFPOINTS
  6
Continuous
 62
     0
100
AcDbPoint
 10
562.3999999999997
 20
-137.9999999999999
 30
0.0
  0
POINT
  5
C750
330
A357
100
AcDbEntity
  8
DEFPOINTS
  6
Continuous
 62
     0
100
AcDbPoint
 10
573.9269499999998
 20
-137.9999999999999
 30
0.0
  0
ENDBLK
  5
A363
330
A357
100
AcDbEntity
  8
0
100
AcDbBlockEnd
  0
BLOCK
  5
A36E
330
A364
100
AcDbEntity
  8
0
100
AcDbBlockBegin
  2
*D20
 70
     1
 10
0.0
 20
0.0
 30
0.0
  3
*D20
  1

  0
LINE
  5
C711
330
A364
100
AcDbEntity
  8
30
  6
Continuous
 62
     0
370
    -2
100
AcDbLine
 10
409.3999999999998
 20
-100.7499999999996
 30
0.0
 11
409.3999999999998
 21
-78.2842317967024
 31
0.0
  0
LINE
  5
C712
330
A364
100
AcDbEntity
  8
30
  6
Continuous
 62
     0
370
    -2
100
AcDbLine
 10
437.3999999999998
 20
-82.03423179670233
 30
0.0
 11
437.3999999999998
 21
-78.2842317967024
 31
0.0
  0
LINE
  5
C713
330
A364
100
AcDbEntity
  8
30
  6
Continuous
 62
     0
370
    -2
100
AcDbLine
 10
411.3999999999998
 20
-78.7842317967024
 30
0.0
 11
435.3999999999998
 21
-78.7842317967024
 31
0.0
  0
INSERT
  5
C714
330
A364
100
AcDbEntity
  8
30
  6
Continuous
 62
     0
370
    -2
100
AcDbBlockReference
  2
_OPEN
 10
409.3999999999998
 20
-78.7842317967024
 30
0.0
 41
2.0
 42
2.0
 43
2.0
 50
180.0
  0
INSERT
  5
C715
330
A364
100
AcDbEntity
  8
30
  6
Continuous
 62
     0
370
    -2
100
AcDbBlockReference
  2
_OPEN
 10
437.3999999999998
 20
-78.7842317967024
 30
0.0
 41
2.0
 42
2.0
 43
2.0
  0
MTEXT
  5
C716
330
A364
100
AcDbEntity
  8
30
  6
Continuous
 62
     0
100
AcDbMText
 10
423.3999999999999
 20
-72.7842317967024
 30
0.0
 40
6.0
 41
0.0
 71
     5
 72
     1
  1
\A1; 28 
 73
     1
 44
1.0
  0
POINT
  5
C717
330
A364
100
AcDbEntity
  8
DEFPOINTS
  6
Continuous
 62
     0
100
AcDbPoint
 10
409.3999999999998
 20
-103.7499999999996
 30
0.0
  0
POINT
  5
C718
330
A364
100
AcDbEntity
  8
DEFPOINTS
  6
Continuous
 62
     0
100
AcDbPoint
 10
437.3999999999998
 20
-85.03423179670233
 30
0.0
  0
POINT
  5
C719
330
A364
100
AcDbEntity
  8
DEFPOINTS
  6
Continuous
 62
     0
100
AcDbPoint
 10
437.3999999999998
 20
-78.7842317967024
 30
0.0
  0
ENDBLK
  5
A36F
330
A364
100
AcDbEntity
  8
0
100
AcDbBlockEnd
  0
BLOCK
  5
A37A
330
A370
100
AcDbEntity
  8
0
100
AcDbBlockBegin
  2
*D21
 70
     1
 10
0.0
 20
0.0
 30
0.0
  3
*D21
  1

  0
LINE
  5
C71A
330
A370
100
AcDbEntity
  8
30
  6
Continuous
 62
     0
370
    -2
100
AcDbLine
 10
450.3999999999998
 20
-104.9999999999996
 30
0.0
 11
450.3999999999998
 21
-78.2842317967024
 31
0.0
  0
LINE
  5
C71B
330
A370
100
AcDbEntity
  8
30
  6
Continuous
 62
     0
370
    -2
100
AcDbLine
 10
437.3999999999998
 20
-81.03423179670235
 30
0.0
 11
437.3999999999998
 21
-78.2842317967024
 31
0.0
  0
LINE
  5
C71C
330
A370
100
AcDbEntity
  8
30
  6
Continuous
 62
     0
370
    -2
100
AcDbLine
 10
448.3999999999999
 20
-78.7842317967024
 30
0.0
 11
439.3999999999998
 21
-78.7842317967024
 31
0.0
  0
INSERT
  5
C71D
330
A370
100
AcDbEntity
  8
30
  6
Continuous
 62
     0
370
    -2
100
AcDbBlockReference
  2
_OPEN
 10
450.3999999999998
 20
-78.7842317967024
 30
0.0
 41
2.0
 42
2.0
 43
2.0
  0
INSERT
  5
C71E
330
A370
100
AcDbEntity
  8
30
  6
Continuous
 62
     0
370
    -2
100
AcDbBlockReference
  2
_OPEN
 10
437.3999999999998
 20
-78.7842317967024
 30
0.0
 41
2.0
 42
2.0
 43
2.0
 50
180.0
  0
MTEXT
  5
C71F
330
A370
100
AcDbEntity
  8
30
  6
Continuous
 62
     0
100
AcDbMText
 10
441.4630848795832
 20
-72.7842317967024
 30
0.0
 40
6.0
 41
0.0
 71
     5
 72
     1
  1
\A1; 13 
 73
     1
 44
1.0
  0
POINT
  5
C720
330
A370
100
AcDbEntity
  8
DEFPOINTS
  6
Continuous
 62
     0
100
AcDbPoint
 10
450.3999999999998
 20
-107.9999999999996
 30
0.0
  0
POINT
  5
C721
330
A370
100
AcDbEntity
  8
DEFPOINTS
  6
Continuous
 62
     0
100
AcDbPoint
 10
437.3999999999998
 20
-84.03423179670236
 30
0.0
  0
POINT
  5
C722
330
A370
100
AcDbEntity
  8
DEFPOINTS
  6
Continuous
 62
     0
100
AcDbPoint
 10
437.3999999999998
 20
-78.7842317967024
 30
0.0
  0
ENDBLK
  5
A37B
330
A370
100
AcDbEntity
  8
0
100
AcDbBlockEnd
  0
BLOCK
  5
A3C5
330
A3BB
100
AcDbEntity
  8
0
100
AcDbBlockBegin
  2
*D22
 70
     1
 10
0.0
 20
0.0
 30
0.0
  3
*D22
  1

  0
LINE
  5
C6B5
330
A3BB
100
AcDbEntity
  8
30
  6
Continuous
 62
     0
370
    -2
100
AcDbLine
 10
0.1999999999997615
 20
445.1271619249113
 30
0.0
 11
0.1999999999997644
 21
492.7230369249113
 31
0.0
  0
LINE
  5
C6B6
330
A3BB
100
AcDbEntity
  8
30
  6
Continuous
 62
     0
370
    -2
100
AcDbLine
 10
70.1999999999999
 20
445.1271619249113
 30
0.0
 11
70.1999999999999
 21
492.7230369249113
 31
0.0
  0
LINE
  5
C6B7
330
A3BB
100
AcDbEntity
  8
30
  6
Continuous
 62
     0
370
    -2
100
AcDbLine
 10
2.199999999999764
 20
492.2230369249113
 30
0.0
 11
68.1999999999999
 21
492.2230369249113
 31
0.0
  0
INSERT
  5
C6B8
330
A3BB
100
AcDbEntity
  8
30
  6
Continuous
 62
     0
370
    -2
100
AcDbBlockReference
  2
_OPEN
 10
0.1999999999997643
 20
492.2230369249113
 30
0.0
 41
2.0
 42
2.0
 43
2.0
 50
180.0
  0
INSERT
  5
C6B9
330
A3BB
100
AcDbEntity
  8
30
  6
Continuous
 62
     0
370
    -2
100
AcDbBlockReference
  2
_OPEN
 10
70.1999999999999
 20
492.2230369249113
 30
0.0
 41
2.0
 42
2.0
 43
2.0
  0
MTEXT
  5
C6BA
330
A3BB
100
AcDbEntity
  8
30
  6
Continuous
 62
     0
100
AcDbMText
 10
35.19999999999983
 20
498.2230369249113
 30
0.0
 40
6.0
 41
0.0
 71
     5
 72
     1
  1
\A1; 70 
 73
     1
 44
1.0
  0
POINT
  5
C6BB
330
A3BB
100
AcDbEntity
  8
DEFPOINTS
  6
Continuous
 62
     0
100
AcDbPoint
 10
0.1999999999997612
 20
442.1271619249113
 30
0.0
  0
POINT
  5
C6BC
330
A3BB
100
AcDbEntity
  8
DEFPOINTS
  6
Continuous
 62
     0
100
AcDbPoint
 10
70.1999999999999
 20
442.1271619249113
 30
0.0
  0
POINT
  5
C6BD
330
A3BB
100
AcDbEntity
  8
DEFPOINTS
  6
Continuous
 62
     0
100
AcDbPoint
 10
70.1999999999999
 20
492.2230369249113
 30
0.0
  0
ENDBLK
  5
A3C6
330
A3BB
100
AcDbEntity
  8
0
100
AcDbBlockEnd
  0
BLOCK
  5
A3D1
330
A3C7
100
AcDbEntity
  8
0
100
AcDbBlockBegin
  2
*D23
 70
     1
 10
0.0
 20
0.0
 30
0.0
  3
*D23
  1

  0
LINE
  5
C6AC
330
A3C7
100
AcDbEntity
  8
30
  6
Continuous
 62
     0
370
    -2
100
AcDbLine
 10
-69.80000000000024
 20
445.1271619249113
 30
0.0
 11
-69.80000000000024
 21
492.7230369249113
 31
0.0
  0
LINE
  5
C6AD
330
A3C7
100
AcDbEntity
  8
30
  6
Continuous
 62
     0
370
    -2
100
AcDbLine
 10
0.1999999999997615
 20
445.1271619249113
 30
0.0
 11
0.1999999999997644
 21
492.7230369249113
 31
0.0
  0
LINE
  5
C6AE
330
A3C7
100
AcDbEntity
  8
30
  6
Continuous
 62
     0
370
    -2
100
AcDbLine
 10
-67.80000000000024
 20
492.2230369249113
 30
0.0
 11
-1.800000000000235
 21
492.2230369249113
 31
0.0
  0
INSERT
  5
C6AF
330
A3C7
100
AcDbEntity
  8
30
  6
Continuous
 62
     0
370
    -2
100
AcDbBlockReference
  2
_OPEN
 10
-69.80000000000024
 20
492.2230369249113
 30
0.0
 41
2.0
 42
2.0
 43
2.0
 50
180.0
  0
INSERT
  5
C6B0
330
A3C7
100
AcDbEntity
  8
30
  6
Continuous
 62
     0
370
    -2
100
AcDbBlockReference
  2
_OPEN
 10
0.1999999999997643
 20
492.2230369249113
 30
0.0
 41
2.0
 42
2.0
 43
2.0
  0
MTEXT
  5
C6B1
330
A3C7
100
AcDbEntity
  8
30
  6
Continuous
 62
     0
100
AcDbMText
 10
-34.80000000000023
 20
498.2230369249113
 30
0.0
 40
6.0
 41
0.0
 71
     5
 72
     1
  1
\A1; 70 
 73
     1
 44
1.0
  0
POINT
  5
C6B2
330
A3C7
100
AcDbEntity
  8
DEFPOINTS
  6
Continuous
 62
     0
100
AcDbPoint
 10
-69.80000000000024
 20
442.1271619249113
 30
0.0
  0
POINT
  5
C6B3
330
A3C7
100
AcDbEntity
  8
DEFPOINTS
  6
Continuous
 62
     0
100
AcDbPoint
 10
0.1999999999997612
 20
442.1271619249113
 30
0.0
  0
POINT
  5
C6B4
330
A3C7
100
AcDbEntity
  8
DEFPOINTS
  6
Continuous
 62
     0
100
AcDbPoint
 10
0.1999999999997643
 20
492.2230369249113
 30
0.0
  0
ENDBLK
  5
A3D2
330
A3C7
100
AcDbEntity
  8
0
100
AcDbBlockEnd
  0
BLOCK
  5
A879
330
A86F
100
AcDbEntity
  8
0
100
AcDbBlockBegin
  2
*D24
 70
     1
 10
0.0
 20
0.0
 30
0.0
  3
*D24
  1

  0
LINE
  5
C69A
330
A86F
100
AcDbEntity
  8
30
  6
Continuous
 62
     0
370
    -2
100
AcDbLine
 10
-108.0000000000001
 20
141.0
 30
0.0
 11
-151.0191388944171
 21
141.0
 31
0.0
  0
LINE
  5
C69B
330
A86F
100
AcDbEntity
  8
30
  6
Continuous
 62
     0
370
    -2
100
AcDbLine
 10
-108.0
 20
-131.9999999999999
 30
0.0
 11
-151.0191388944172
 21
-131.9999999999999
 31
0.0
  0
LINE
  5
C69C
330
A86F
100
AcDbEntity
  8
30
  6
Continuous
 62
     0
370
    -2
100
AcDbLine
 10
-150.5191388944171
 20
139.0
 30
0.0
 11
-150.5191388944172
 21
-129.9999999999999
 31
0.0
  0
INSERT
  5
C69D
330
A86F
100
AcDbEntity
  8
30
  6
Continuous
 62
     0
370
    -2
100
AcDbBlockReference
  2
_OPEN
 10
-150.5191388944171
 20
141.0
 30
0.0
 41
2.0
 42
2.0
 43
2.0
 50
90.0
  0
INSERT
  5
C69E
330
A86F
100
AcDbEntity
  8
30
  6
Continuous
 62
     0
370
    -2
100
AcDbBlockReference
  2
_OPEN
 10
-150.5191388944172
 20
-131.9999999999999
 30
0.0
 41
2.0
 42
2.0
 43
2.0
 50
270.0
  0
MTEXT
  5
C69F
330
A86F
100
AcDbEntity
  8
30
  6
Continuous
 62
     0
100
AcDbMText
 10
-156.5191388944172
 20
4.500000000000023
 30
0.0
 40
6.0
 41
0.0
 71
     5
 72
     1
  1
\A1;273
 11
0.0000000000000001
 21
1.0
 31
0.0
 73
     1
 44
1.0
  0
POINT
  5
C6A0
330
A86F
100
AcDbEntity
  8
DEFPOINTS
  6
Continuous
 62
     0
100
AcDbPoint
 10
-105.0000000000001
 20
141.0
 30
0.0
  0
POINT
  5
C6A1
330
A86F
100
AcDbEntity
  8
DEFPOINTS
  6
Continuous
 62
     0
100
AcDbPoint
 10
-105.0
 20
-131.9999999999999
 30
0.0
  0
POINT
  5
C6A2
330
A86F
100
AcDbEntity
  8
DEFPOINTS
  6
Continuous
 62
     0
100
AcDbPoint
 10
-150.5191388944172
 20
-131.9999999999999
 30
0.0
  0
ENDBLK
  5
A87A
330
A86F
100
AcDbEntity
  8
0
100
AcDbBlockEnd
  0
BLOCK
  5
A939
330
A92F
100
AcDbEntity
  8
0
100
AcDbBlockBegin
  2
*D26
 70
     1
 10
0.0
 20
0.0
 30
0.0
  3
*D26
  1

  0
LINE
  5
C6FF
330
A92F
100
AcDbEntity
  8
30
  6
Continuous
 62
     0
370
    -2
100
AcDbLine
 10
340.3999999999998
 20
-134.9999999999999
 30
0.0
 11
340.3999999999998
 21
-169.5532887500314
 31
0.0
  0
LINE
  5
C700
330
A92F
100
AcDbEntity
  8
30
  6
Continuous
 62
     0
370
    -2
100
AcDbLine
 10
437.3999999999998
 20
-134.9999999999999
 30
0.0
 11
437.3999999999998
 21
-169.5532887500314
 31
0.0
  0
LINE
  5
C701
330
A92F
100
AcDbEntity
  8
30
  6
Continuous
 62
     0
370
    -2
100
AcDbLine
 10
342.3999999999998
 20
-169.0532887500314
 30
0.0
 11
435.3999999999998
 21
-169.0532887500314
 31
0.0
  0
INSERT
  5
C702
330
A92F
100
AcDbEntity
  8
30
  6
Continuous
 62
     0
370
    -2
100
AcDbBlockReference
  2
_OPEN
 10
340.3999999999998
 20
-169.0532887500314
 30
0.0
 41
2.0
 42
2.0
 43
2.0
 50
180.0
  0
INSERT
  5
C703
330
A92F
100
AcDbEntity
  8
30
  6
Continuous
 62
     0
370
    -2
100
AcDbBlockReference
  2
_OPEN
 10
437.3999999999998
 20
-169.0532887500314
 30
0.0
 41
2.0
 42
2.0
 43
2.0
  0
MTEXT
  5
C704
330
A92F
100
AcDbEntity
  8
30
  6
Continuous
 62
     0
100
AcDbMText
 10
388.8999999999998
 20
-163.0532887500314
 30
0.0
 40
6.0
 41
0.0
 71
     5
 72
     1
  1
\A1;97
 73
     1
 44
1.0
  0
POINT
  5
C705
330
A92F
100
AcDbEntity
  8
DEFPOINTS
  6
Continuous
 62
     0
100
AcDbPoint
 10
340.3999999999998
 20
-131.9999999999999
 30
0.0
  0
POINT
  5
C706
330
A92F
100
AcDbEntity
  8
DEFPOINTS
  6
Continuous
 62
     0
100
AcDbPoint
 10
437.3999999999998
 20
-131.9999999999999
 30
0.0
  0
POINT
  5
C707
330
A92F
100
AcDbEntity
  8
DEFPOINTS
  6
Continuous
 62
     0
100
AcDbPoint
 10
437.3999999999998
 20
-169.0532887500314
 30
0.0
  0
ENDBLK
  5
A93A
330
A92F
100
AcDbEntity
  8
0
100
AcDbBlockEnd
  0
BLOCK
  5
A95B
330
A951
100
AcDbEntity
  8
0
100
AcDbBlockBegin
  2
*D27
 70
     1
 10
0.0
 20
0.0
 30
0.0
  3
*D27
  1

  0
LINE
  5
C6E4
330
A951
100
AcDbEntity
  8
30
  6
Continuous
 62
     0
370
    -2
100
AcDbLine
 10
437.3999999999998
 20
-166.0532887500314
 30
0.0
 11
437.3999999999998
 21
-168.5532887500314
 31
0.0
  0
LINE
  5
C6E5
330
A951
100
AcDbEntity
  8
30
  6
Continuous
 62
     0
370
    -2
100
AcDbLine
 10
499.3999999999998
 20
-152.9999999999999
 30
0.0
 11
499.3999999999998
 21
-169.5532887500314
 31
0.0
  0
LINE
  5
C6E6
330
A951
100
AcDbEntity
  8
30
  6
Continuous
 62
     0
370
    -2
100
AcDbLine
 10
439.3999999999998
 20
-169.0532887500314
 30
0.0
 11
497.3999999999998
 21
-169.0532887500314
 31
0.0
  0
INSERT
  5
C6E7
330
A951
100
AcDbEntity
  8
30
  6
Continuous
 62
     0
370
    -2
100
AcDbBlockReference
  2
_OPEN
 10
437.3999999999998
 20
-169.0532887500314
 30
0.0
 41
2.0
 42
2.0
 43
2.0
 50
180.0
  0
INSERT
  5
C6E8
330
A951
100
AcDbEntity
  8
30
  6
Continuous
 62
     0
370
    -2
100
AcDbBlockReference
  2
_OPEN
 10
499.3999999999998
 20
-169.0532887500314
 30
0.0
 41
2.0
 42
2.0
 43
2.0
  0
MTEXT
  5
C6E9
330
A951
100
AcDbEntity
  8
30
  6
Continuous
 62
     0
100
AcDbMText
 10
468.3999999999998
 20
-163.0532887500314
 30
0.0
 40
6.0
 41
0.0
 71
     5
 72
     1
  1
\A1;62
 73
     1
 44
1.0
  0
POINT
  5
C6EA
330
A951
100
AcDbEntity
  8
DEFPOINTS
  6
Continuous
 62
     0
100
AcDbPoint
 10
437.3999999999998
 20
-169.0532887500314
 30
0.0
  0
POINT
  5
C6EB
330
A951
100
AcDbEntity
  8
DEFPOINTS
  6
Continuous
 62
     0
100
AcDbPoint
 10
499.3999999999998
 20
-149.9999999999999
 30
0.0
  0
POINT
  5
C6EC
330
A951
100
AcDbEntity
  8
DEFPOINTS
  6
Continuous
 62
     0
100
AcDbPoint
 10
499.3999999999998
 20
-169.0532887500314
 30
0.0
  0
ENDBLK
  5
A95C
330
A951
100
AcDbEntity
  8
0
100
AcDbBlockEnd
  0
BLOCK
  5
A967
330
A95D
100
AcDbEntity
  8
0
100
AcDbBlockBegin
  2
*D28
 70
     1
 10
0.0
 20
0.0
 30
0.0
  3
*D28
  1

  0
LINE
  5
C72C
330
A95D
100
AcDbEntity
  8
30
  6
Continuous
 62
     0
370
    -2
100
AcDbLine
 10
507.3999999999998
 20
-149.9999999999999
 30
0.0
 11
507.3999999999998
 21
-169.5532887500314
 31
0.0
  0
LINE
  5
C72D
330
A95D
100
AcDbEntity
  8
30
  6
Continuous
 62
     0
370
    -2
100
AcDbLine
 10
539.3999999999997
 20
-165.7499999999999
 30
0.0
 11
539.3999999999997
 21
-169.5532887500314
 31
0.0
  0
LINE
  5
C72E
330
A95D
100
AcDbEntity
  8
30
  6
Continuous
 62
     0
370
    -2
100
AcDbLine
 10
509.3999999999998
 20
-169.0532887500314
 30
0.0
 11
537.3999999999997
 21
-169.0532887500314
 31
0.0
  0
INSERT
  5
C72F
330
A95D
100
AcDbEntity
  8
30
  6
Continuous
 62
     0
370
    -2
100
AcDbBlockReference
  2
_OPEN
 10
507.3999999999998
 20
-169.0532887500314
 30
0.0
 41
2.0
 42
2.0
 43
2.0
 50
180.0
  0
INSERT
  5
C730
330
A95D
100
AcDbEntity
  8
30
  6
Continuous
 62
     0
370
    -2
100
AcDbBlockReference
  2
_OPEN
 10
539.3999999999997
 20
-169.0532887500314
 30
0.0
 41
2.0
 42
2.0
 43
2.0
  0
MTEXT
  5
C731
330
A95D
100
AcDbEntity
  8
30
  6
Continuous
 62
     0
100
AcDbMText
 10
523.3999999999999
 20
-163.0532887500314
 30
0.0
 40
6.0
 41
0.0
 71
     5
 72
     1
  1
\A1;32
 73
     1
 44
1.0
  0
POINT
  5
C732
330
A95D
100
AcDbEntity
  8
DEFPOINTS
  6
Continuous
 62
     0
100
AcDbPoint
 10
507.3999999999998
 20
-146.9999999999999
 30
0.0
  0
POINT
  5
C733
330
A95D
100
AcDbEntity
  8
DEFPOINTS
  6
Continuous
 62
     0
100
AcDbPoint
 10
539.3999999999997
 20
-162.7499999999999
 30
0.0
  0
POINT
  5
C734
330
A95D
100
AcDbEntity
  8
DEFPOINTS
  6
Continuous
 62
     0
100
AcDbPoint
 10
539.3999999999997
 20
-169.0532887500314
 30
0.0
  0
ENDBLK
  5
A968
330
A95D
100
AcDbEntity
  8
0
100
AcDbBlockEnd
  0
BLOCK
  5
A973
330
A969
100
AcDbEntity
  8
0
100
AcDbBlockBegin
  2
*D29
 70
     1
 10
0.0
 20
0.0
 30
0.0
  3
*D29
  1

  0
LINE
  5
C751
330
A969
100
AcDbEntity
  8
30
  6
Continuous
 62
     0
370
    -2
100
AcDbLine
 10
539.3999999999997
 20
-149.9999999999999
 30
0.0
 11
539.3999999999997
 21
-169.5532887500314
 31
0.0
  0
LINE
  5
C752
330
A969
100
AcDbEntity
  8
30
  6
Continuous
 62
     0
370
    -2
100
AcDbLine
 10
559.3999999999997
 20
-138.9999999999999
 30
0.0
 11
559.3999999999997
 21
-169.5532887500314
 31
0.0
  0
LINE
  5
C753
330
A969
100
AcDbEntity
  8
30
  6
Continuous
 62
     0
370
    -2
100
AcDbLine
 10
541.3999999999997
 20
-169.0532887500314
 30
0.0
 11
557.3999999999997
 21
-169.0532887500314
 31
0.0
  0
INSERT
  5
C754
330
A969
100
AcDbEntity
  8
30
  6
Continuous
 62
     0
370
    -2
100
AcDbBlockReference
  2
_OPEN
 10
539.3999999999997
 20
-169.0532887500314
 30
0.0
 41
2.0
 42
2.0
 43
2.0
 50
180.0
  0
INSERT
  5
C755
330
A969
100
AcDbEntity
  8
30
  6
Continuous
 62
     0
370
    -2
100
AcDbBlockReference
  2
_OPEN
 10
559.3999999999997
 20
-169.0532887500314
 30
0.0
 41
2.0
 42
2.0
 43
2.0
  0
MTEXT
  5
C756
330
A969
100
AcDbEntity
  8
30
  6
Continuous
 62
     0
100
AcDbMText
 10
549.3999999999997
 20
-163.0532887500314
 30
0.0
 40
6.0
 41
0.0
 71
     5
 72
     1
  1
\A1;20
 73
     1
 44
1.0
  0
POINT
  5
C757
330
A969
100
AcDbEntity
  8
DEFPOINTS
  6
Continuous
 62
     0
100
AcDbPoint
 10
539.3999999999997
 20
-146.9999999999999
 30
0.0
  0
POINT
  5
C758
330
A969
100
AcDbEntity
  8
DEFPOINTS
  6
Continuous
 62
     0
100
AcDbPoint
 10
559.3999999999997
 20
-135.9999999999999
 30
0.0
  0
POINT
  5
C759
330
A969
100
AcDbEntity
  8
DEFPOINTS
  6
Continuous
 62
     0
100
AcDbPoint
 10
559.3999999999997
 20
-169.0532887500314
 30
0.0
  0
ENDBLK
  5
A974
330
A969
100
AcDbEntity
  8
0
100
AcDbBlockEnd
  0
BLOCK
  5
A97F
330
A975
100
AcDbEntity
  8
0
100
AcDbBlockBegin
  2
*D30
 70
     1
 10
0.0
 20
0.0
 30
0.0
  3
*D30
  1

  0
LINE
  5
C6ED
330
A975
100
AcDbEntity
  8
30
  6
Continuous
 62
     0
370
    -2
100
AcDbLine
 10
437.3999999999998
 20
-184.1203109059123
 30
0.0
 11
437.3999999999998
 21
-186.6203109059123
 31
0.0
  0
LINE
  5
C6EE
330
A975
100
AcDbEntity
  8
30
  6
Continuous
 62
     0
370
    -2
100
AcDbLine
 10
559.3999999999997
 20
-138.9999999999999
 30
0.0
 11
559.3999999999997
 21
-187.6203109059123
 31
0.0
  0
LINE
  5
C6EF
330
A975
100
AcDbEntity
  8
30
  6
Continuous
 62
     0
370
    -2
100
AcDbLine
 10
439.3999999999998
 20
-187.1203109059123
 30
0.0
 11
557.3999999999997
 21
-187.1203109059123
 31
0.0
  0
INSERT
  5
C6F0
330
A975
100
AcDbEntity
  8
30
  6
Continuous
 62
     0
370
    -2
100
AcDbBlockReference
  2
_OPEN
 10
437.3999999999998
 20
-187.1203109059123
 30
0.0
 41
2.0
 42
2.0
 43
2.0
 50
180.0
  0
INSERT
  5
C6F1
330
A975
100
AcDbEntity
  8
30
  6
Continuous
 62
     0
370
    -2
100
AcDbBlockReference
  2
_OPEN
 10
559.3999999999997
 20
-187.1203109059123
 30
0.0
 41
2.0
 42
2.0
 43
2.0
  0
MTEXT
  5
C6F2
330
A975
100
AcDbEntity
  8
30
  6
Continuous
 62
     0
100
AcDbMText
 10
498.3999999999998
 20
-181.1203109059123
 30
0.0
 40
6.0
 41
0.0
 71
     5
 72
     1
  1
\A1;122
 73
     1
 44
1.0
  0
POINT
  5
C6F3
330
A975
100
AcDbEntity
  8
DEFPOINTS
  6
Continuous
 62
     0
100
AcDbPoint
 10
437.3999999999998
 20
-187.1203109059123
 30
0.0
  0
POINT
  5
C6F4
330
A975
100
AcDbEntity
  8
DEFPOINTS
  6
Continuous
 62
     0
100
AcDbPoint
 10
559.3999999999997
 20
-135.9999999999999
 30
0.0
  0
POINT
  5
C6F5
330
A975
100
AcDbEntity
  8
DEFPOINTS
  6
Continuous
 62
     0
100
AcDbPoint
 10
559.3999999999997
 20
-187.1203109059123
 30
0.0
  0
ENDBLK
  5
A980
330
A975
100
AcDbEntity
  8
0
100
AcDbBlockEnd
  0
BLOCK
  5
A9E6
330
A9DC
100
AcDbEntity
  8
0
100
AcDbBlockBegin
  2
*D31
 70
     1
 10
0.0
 20
0.0
 30
0.0
  3
*D31
  1

  0
LINE
  5
C735
330
A9DC
100
AcDbEntity
  8
30
  6
Continuous
 62
     0
370
    -2
100
AcDbLine
 10
499.3999999999998
 20
-149.9999999999999
 30
0.0
 11
499.3999999999998
 21
-169.5532887500314
 31
0.0
  0
LINE
  5
C736
330
A9DC
100
AcDbEntity
  8
30
  6
Continuous
 62
     0
370
    -2
100
AcDbLine
 10
507.3999999999998
 20
-149.9999999999999
 30
0.0
 11
507.3999999999998
 21
-169.5532887500314
 31
0.0
  0
LINE
  5
C737
330
A9DC
100
AcDbEntity
  8
30
  6
Continuous
 62
     0
370
    -2
100
AcDbLine
 10
497.3999999999998
 20
-169.0532887500314
 30
0.0
 11
495.3999999999998
 21
-169.0532887500314
 31
0.0
  0
LINE
  5
C738
330
A9DC
100
AcDbEntity
  8
30
  6
Continuous
 62
     0
370
    -2
100
AcDbLine
 10
509.3999999999998
 20
-169.0532887500314
 30
0.0
 11
511.3999999999998
 21
-169.0532887500314
 31
0.0
  0
LINE
  5
C739
330
A9DC
100
AcDbEntity
  8
30
  6
Continuous
 62
     0
370
    -2
100
AcDbLine
 10
499.3999999999998
 20
-169.0532887500314
 30
0.0
 11
507.3999999999998
 21
-169.0532887500314
 31
0.0
  0
INSERT
  5
C73A
330
A9DC
100
AcDbEntity
  8
30
  6
Continuous
 62
     0
370
    -2
100
AcDbBlockReference
  2
_OPEN
 10
499.3999999999998
 20
-169.0532887500314
 30
0.0
 41
2.0
 42
2.0
 43
2.0
  0
INSERT
  5
C73B
330
A9DC
100
AcDbEntity
  8
30
  6
Continuous
 62
     0
370
    -2
100
AcDbBlockReference
  2
_OPEN
 10
507.3999999999998
 20
-169.0532887500314
 30
0.0
 41
2.0
 42
2.0
 43
2.0
 50
180.0
  0
MTEXT
  5
C73C
330
A9DC
100
AcDbEntity
  8
30
  6
Continuous
 62
     0
100
AcDbMText
 10
503.3999999999998
 20
-163.0532887500314
 30
0.0
 40
6.0
 41
0.0
 71
     5
 72
     1
  1
\A1;8
 73
     1
 44
1.0
  0
POINT
  5
C73D
330
A9DC
100
AcDbEntity
  8
DEFPOINTS
  6
Continuous
 62
     0
100
AcDbPoint
 10
499.3999999999998
 20
-146.9999999999999
 30
0.0
  0
POINT
  5
C73E
330
A9DC
100
AcDbEntity
  8
DEFPOINTS
  6
Continuous
 62
     0
100
AcDbPoint
 10
507.3999999999998
 20
-146.9999999999999
 30
0.0
  0
POINT
  5
C73F
330
A9DC
100
AcDbEntity
  8
DEFPOINTS
  6
Continuous
 62
     0
100
AcDbPoint
 10
507.3999999999998
 20
-169.0532887500314
 30
0.0
  0
ENDBLK
  5
A9E7
330
A9DC
100
AcDbEntity
  8
0
100
AcDbBlockEnd
  0
BLOCK
  5
AA1F
330
AA16
100
AcDbEntity
  8
0
100
AcDbBlockBegin
  2
*D32
 70
     1
 10
0.0
 20
0.0
 30
0.0
  3
*D32
  1

  0
LINE
  5
C740
330
AA16
100
AcDbEntity
  8
30
  6
Continuous
 62
     0
370
    -2
100
AcDbLine
 10
535.8207708520134
 20
-120.6874892545163
 30
0.0
 11
540.9792291479875
 21
-113.3125107454837
 31
0.0
  0
LINE
  5
C741
330
AA16
100
AcDbEntity
  8
30
  6
Continuous
 62
     0
370
    -2
100
AcDbLine
 10
542.1255532137595
 20
-111.6736266323652
 30
0.0
 11
561.4130359896462
 21
-84.09857168299891
 31
0.0
  0
LINE
  5
C742
330
AA16
100
AcDbEntity
  8
30
  6
Continuous
 62
     0
370
    -2
100
AcDbLine
 10
561.4130359896462
 20
-84.09857168299891
 30
0.0
 11
578.4130359896462
 21
-84.09857168299888
 31
0.0
  0
INSERT
  5
C743
330
AA16
100
AcDbEntity
  8
30
  6
Continuous
 62
     0
370
    -2
100
AcDbBlockReference
  2
_OPEN
 10
534.6744467862414
 20
-122.3263733676347
 30
0.0
 41
2.0
 42
2.0
 43
2.0
 50
235.0289804156417
  0
INSERT
  5
C744
330
AA16
100
AcDbEntity
  8
30
  6
Continuous
 62
     0
370
    -2
100
AcDbBlockReference
  2
_OPEN
 10
542.1255532137595
 20
-111.6736266323652
 30
0.0
 41
2.0
 42
2.0
 43
2.0
 50
55.02898041564172
  0
MTEXT
  5
C745
330
AA16
100
AcDbEntity
  8
30
  6
Continuous
 62
     0
100
AcDbMText
 10
571.4130359896462
 20
-78.09857168299894
 30
0.0
 40
6.0
 41
0.0
 71
     5
 72
     1
  1
\A1;\U+220513
 73
     1
 44
1.0
  0
POINT
  5
C746
330
AA16
100
AcDbEntity
  8
DEFPOINTS
  6
Continuous
 62
     0
100
AcDbPoint
 10
542.1255532137595
 20
-111.6736266323652
 30
0.0
  0
POINT
  5
C747
330
AA16
100
AcDbEntity
  8
DEFPOINTS
  6
Continuous
 62
     0
100
AcDbPoint
 10
534.6744467862414
 20
-122.3263733676347
 30
0.0
  0
ENDBLK
  5
AA20
330
AA16
100
AcDbEntity
  8
0
100
AcDbBlockEnd
  0
BLOCK
  5
AE93
330
AE8A
100
AcDbEntity
  8
0
100
AcDbBlockBegin
  2
*D33
 70
     1
 10
0.0
 20
0.0
 30
0.0
  3
*D33
  1

  0
LINE
  5
C56A
330
AE8A
100
AcDbEntity
  8
30
  6
Continuous
 62
     0
370
    -2
100
AcDbLine
 10
-35.913573558296
 20
-228.994170125647
 30
0.0
 11
-42.24744083389292
 21
-194.9123890902475
 31
0.0
  0
LINE
  5
C56B
330
AE8A
100
AcDbEntity
  8
30
  6
Continuous
 62
     0
370
    -2
100
AcDbLine
 10
-42.24744083389292
 20
-194.9123890902475
 30
0.0
 11
-55.24744083389292
 21
-194.9123890902475
 31
0.0
  0
INSERT
  5
C56C
330
AE8A
100
AcDbEntity
  8
30
  6
Continuous
 62
     0
370
    -2
100
AcDbBlockReference
  2
_OPEN
 10
-35.54814413497769
 20
-230.9605020753882
 30
0.0
 41
2.0
 42
2.0
 43
2.0
 50
280.527924179073
  0
MTEXT
  5
C56D
330
AE8A
100
AcDbEntity
  8
30
  6
Continuous
 62
     0
100
AcDbMText
 10
-50.24744083389292
 20
-188.9123890902475
 30
0.0
 40
6.0
 41
0.0
 71
     5
 72
     1
  1
\A1;M6
 73
     1
 44
1.0
  0
LINE
  5
C56E
330
AE8A
100
AcDbEntity
  8
30
  6
Continuous
 62
     0
370
    -2
100
AcDbLine
 10
-35.09000000000022
 20
-233.9100000000001
 30
0.0
 11
-34.91000000000023
 21
-233.9100000000001
 31
0.0
  0
LINE
  5
C56F
330
AE8A
100
AcDbEntity
  8
30
  6
Continuous
 62
     0
370
    -2
100
AcDbLine
 10
-35.00000000000021
 20
-234.0000000000002
 30
0.0
 11
-35.00000000000023
 21
-233.8200000000001
 31
0.0
  0
POINT
  5
C570
330
AE8A
100
AcDbEntity
  8
DEFPOINTS
  6
Continuous
 62
     0
100
AcDbPoint
 10
-35.54814413497769
 20
-230.9605020753882
 30
0.0
  0
POINT
  5
C571
330
AE8A
100
AcDbEntity
  8
DEFPOINTS
  6
Continuous
 62
     0
100
AcDbPoint
 10
-34.45185586502276
 20
-236.8594979246121
 30
0.0
  0
ENDBLK
  5
AE94
330
AE8A
100
AcDbEntity
  8
0
100
AcDbBlockEnd
  0
BLOCK
  5
AF89
330
AF7F
100
AcDbEntity
  8
0
100
AcDbBlockBegin
  2
*D34
 70
     1
 10
0.0
 20
0.0
 30
0.0
  3
*D34
  1

  0
LINE
  5
C75A
330
AF7F
100
AcDbEntity
  8
30
  6
Continuous
 62
     0
370
    -2
100
AcDbLine
 10
562.3999999999997
 20
126.0
 30
0.0
 11
588.0799087336529
 21
126.0
 31
0.0
  0
LINE
  5
C75B
330
AF7F
100
AcDbEntity
  8
30
  6
Continuous
 62
     0
370
    -2
100
AcDbLine
 10
562.3999999999997
 20
0.0000000000002266
 30
0.0
 11
588.0799087336529
 21
0.0000000000002193
 31
0.0
  0
LINE
  5
C75C
330
AF7F
100
AcDbEntity
  8
30
  6
Continuous
 62
     0
370
    -2
100
AcDbLine
 10
587.5799087336529
 20
124.0
 30
0.0
 11
587.5799087336529
 21
2.000000000000219
 31
0.0
  0
INSERT
  5
C75D
330
AF7F
100
AcDbEntity
  8
30
  6
Continuous
 62
     0
370
    -2
100
AcDbBlockReference
  2
_OPEN
 10
587.5799087336529
 20
126.0
 30
0.0
 41
2.0
 42
2.0
 43
2.0
 50
90.0
  0
INSERT
  5
C75E
330
AF7F
100
AcDbEntity
  8
30
  6
Continuous
 62
     0
370
    -2
100
AcDbBlockReference
  2
_OPEN
 10
587.5799087336529
 20
0.0000000000002194
 30
0.0
 41
2.0
 42
2.0
 43
2.0
 50
270.0
  0
MTEXT
  5
C75F
330
AF7F
100
AcDbEntity
  8
30
  6
Continuous
 62
     0
100
AcDbMText
 10
581.5799087336529
 20
63.00000000000021
 30
0.0
 40
6.0
 41
0.0
 71
     5
 72
     1
  1
\A1;126
 11
0.0000000000000001
 21
1.0
 31
0.0
 73
     1
 44
1.0
  0
POINT
  5
C760
330
AF7F
100
AcDbEntity
  8
DEFPOINTS
  6
Continuous
 62
     0
100
AcDbPoint
 10
559.3999999999997
 20
126.0
 30
0.0
  0
POINT
  5
C761
330
AF7F
100
AcDbEntity
  8
DEFPOINTS
  6
Continuous
 62
     0
100
AcDbPoint
 10
559.3999999999997
 20
0.0000000000002274
 30
0.0
  0
POINT
  5
C762
330
AF7F
100
AcDbEntity
  8
DEFPOINTS
  6
Continuous
 62
     0
100
AcDbPoint
 10
587.5799087336529
 20
0.0000000000002194
 30
0.0
  0
ENDBLK
  5
AF8A
330
AF7F
100
AcDbEntity
  8
0
100
AcDbBlockEnd
  0
BLOCK
  5
AF96
330
AF8C
100
AcDbEntity
  8
0
100
AcDbBlockBegin
  2
*D35
 70
     1
 10
0.0
 20
0.0
 30
0.0
  3
*D35
  1

  0
LINE
  5
C6BE
330
AF8C
100
AcDbEntity
  8
30
  6
Continuous
 62
     0
370
    -2
100
AcDbLine
 10
562.3999999999997
 20
-116.9999999999999
 30
0.0
 11
588.0799087336529
 21
-116.9999999999999
 31
0.0
  0
LINE
  5
C6BF
330
AF8C
100
AcDbEntity
  8
30
  6
Continuous
 62
     0
370
    -2
100
AcDbLine
 10
584.5799087336529
 20
0.0000000000002202
 30
0.0
 11
587.0799087336528
 21
0.0000000000002195
 31
0.0
  0
LINE
  5
C6C0
330
AF8C
100
AcDbEntity
  8
30
  6
Continuous
 62
     0
370
    -2
100
AcDbLine
 10
587.5799087336529
 20
-114.9999999999999
 30
0.0
 11
587.5799087336529
 21
-1.99999999999978
 31
0.0
  0
INSERT
  5
C6C1
330
AF8C
100
AcDbEntity
  8
30
  6
Continuous
 62
     0
370
    -2
100
AcDbBlockReference
  2
_OPEN
 10
587.5799087336529
 20
-116.9999999999999
 30
0.0
 41
2.0
 42
2.0
 43
2.0
 50
270.0
  0
INSERT
  5
C6C2
330
AF8C
100
AcDbEntity
  8
30
  6
Continuous
 62
     0
370
    -2
100
AcDbBlockReference
  2
_OPEN
 10
587.5799087336529
 20
0.0000000000002194
 30
0.0
 41
2.0
 42
2.0
 43
2.0
 50
90.0
  0
MTEXT
  5
C6C3
330
AF8C
100
AcDbEntity
  8
30
  6
Continuous
 62
     0
100
AcDbMText
 10
581.5799087336529
 20
-58.49999999999974
 30
0.0
 40
6.0
 41
0.0
 71
     5
 72
     1
  1
\A1;117
 11
0.0000000000000001
 21
1.0
 31
0.0
 73
     1
 44
1.0
  0
POINT
  5
C6C4
330
AF8C
100
AcDbEntity
  8
DEFPOINTS
  6
Continuous
 62
     0
100
AcDbPoint
 10
559.3999999999997
 20
-116.9999999999999
 30
0.0
  0
POINT
  5
C6C5
330
AF8C
100
AcDbEntity
  8
DEFPOINTS
  6
Continuous
 62
     0
100
AcDbPoint
 10
587.5799087336529
 20
0.0000000000002194
 30
0.0
  0
POINT
  5
C6C6
330
AF8C
100
AcDbEntity
  8
DEFPOINTS
  6
Continuous
 62
     0
100
AcDbPoint
 10
587.5799087336529
 20
0.0000000000002194
 30
0.0
  0
ENDBLK
  5
AF97
330
AF8C
100
AcDbEntity
  8
0
100
AcDbBlockEnd
  0
BLOCK
  5
B0A8
330
B09C
100
AcDbEntity
  8
0
100
AcDbBlockBegin
  2
*D36
 70
     1
 10
0.0
 20
0.0
 30
0.0
  3
*D36
  1

  0
LINE
  5
C5BB
330
B09C
100
AcDbEntity
  8
30
  6
Continuous
 62
     0
370
    -2
100
AcDbLine
 10
108.9999999999999
 20
-223.9999999999997
 30
0.0
 11
176.4692079724308
 21
-223.9999999999997
 31
0.0
  0
LINE
  5
C5BC
330
B09C
100
AcDbEntity
  8
30
  6
Continuous
 62
     0
370
    -2
100
AcDbLine
 10
107.9999999999999
 20
-218.9999999999997
 30
0.0
 11
176.4692079724308
 21
-218.9999999999997
 31
0.0
  0
LINE
  5
C5BD
330
B09C
100
AcDbEntity
  8
30
  6
Continuous
 62
     0
370
    -2
100
AcDbLine
 10
175.9692079724308
 20
-225.9999999999997
 30
0.0
 11
175.9692079724308
 21
-227.9999999999997
 31
0.0
  0
LINE
  5
C5BE
330
B09C
100
AcDbEntity
  8
30
  6
Continuous
 62
     0
370
    -2
100
AcDbLine
 10
175.9692079724308
 20
-216.9999999999997
 30
0.0
 11
175.9692079724308
 21
-214.9999999999997
 31
0.0
  0
LINE
  5
C5BF
330
B09C
100
AcDbEntity
  8
30
  6
Continuous
 62
     0
370
    -2
100
AcDbLine
 10
175.9692079724308
 20
-223.9999999999997
 30
0.0
 11
175.9692079724308
 21
-218.9999999999997
 31
0.0
  0
INSERT
  5
C5C0
330
B09C
100
AcDbEntity
  8
30
  6
Continuous
 62
     0
370
    -2
100
AcDbBlockReference
  2
_OPEN
 10
175.9692079724308
 20
-223.9999999999997
 30
0.0
 41
2.0
 42
2.0
 43
2.0
 50
90.0
  0
INSERT
  5
C5C1
330
B09C
100
AcDbEntity
  8
30
  6
Continuous
 62
     0
370
    -2
100
AcDbBlockReference
  2
_OPEN
 10
175.9692079724308
 20
-218.9999999999997
 30
0.0
 41
2.0
 42
2.0
 43
2.0
 50
270.0
  0
MTEXT
  5
C5C2
330
B09C
100
AcDbEntity
  8
30
  6
Continuous
 62
     0
100
AcDbMText
 10
169.9692079724309
 20
-221.4999999999997
 30
0.0
 40
6.0
 41
0.0
 71
     5
 72
     1
  1
\A1;5
 11
0.0000000000000001
 21
1.0
 31
0.0
 73
     1
 44
1.0
  0
POINT
  5
C5C3
330
B09C
100
AcDbEntity
  8
DEFPOINTS
  6
Continuous
 62
     0
100
AcDbPoint
 10
105.9999999999999
 20
-223.9999999999997
 30
0.0
  0
POINT
  5
C5C4
330
B09C
100
AcDbEntity
  8
DEFPOINTS
  6
Continuous
 62
     0
100
AcDbPoint
 10
104.9999999999999
 20
-218.9999999999997
 30
0.0
  0
POINT
  5
C5C5
330
B09C
100
AcDbEntity
  8
DEFPOINTS
  6
Continuous
 62
     0
100
AcDbPoint
 10
175.9692079724308
 20
-218.9999999999997
 30
0.0
  0
ENDBLK
  5
B0A9
330
B09C
100
AcDbEntity
  8
0
100
AcDbBlockEnd
  0
BLOCK
  5
B0E4
330
B0DB
100
AcDbEntity
  8
0
100
AcDbBlockBegin
  2
*D37
 70
     1
 10
0.0
 20
0.0
 30
0.0
  3
*D37
  1

  0
LINE
  5
C5B3
330
B0DB
100
AcDbEntity
  8
30
  6
Continuous
 62
     0
370
    -2
100
AcDbLine
 10
34.79414098539754
 20
-471.0035325343902
 30
0.0
 11
34.41064432815467
 21
-459.8326579784909
 31
0.0
  0
LINE
  5
C5B4
330
B0DB
100
AcDbEntity
  8
30
  6
Continuous
 62
     0
370
    -2
100
AcDbLine
 10
34.41064432815467
 20
-459.8326579784909
 30
0.0
 11
47.41064432815467
 21
-459.8326579784909
 31
0.0
  0
INSERT
  5
C5B5
330
B0DB
100
AcDbEntity
  8
30
  6
Continuous
 62
     0
370
    -2
100
AcDbBlockReference
  2
_OPEN
 10
34.86276065693174
 20
-473.0023550229265
 30
0.0
 41
2.0
 42
2.0
 43
2.0
 50
271.96619466985
  0
MTEXT
  5
C5B6
330
B0DB
100
AcDbEntity
  8
30
  6
Continuous
 62
     0
100
AcDbMText
 10
42.41064432815465
 20
-453.8326579784909
 30
0.0
 40
6.0
 41
0.0
 71
     5
 72
     1
  1
\A1;\U+22058
 73
     1
 44
1.0
  0
LINE
  5
C5B7
330
B0DB
100
AcDbEntity
  8
30
  6
Continuous
 62
     0
370
    -2
100
AcDbLine
 10
34.91000000000015
 20
-476.9999999999996
 30
0.0
 11
35.09000000000015
 21
-476.9999999999996
 31
0.0
  0
LINE
  5
C5B8
330
B0DB
100
AcDbEntity
  8
30
  6
Continuous
 62
     0
370
    -2
100
AcDbLine
 10
35.00000000000015
 20
-477.0899999999995
 30
0.0
 11
35.00000000000015
 21
-476.9099999999996
 31
0.0
  0
POINT
  5
C5B9
330
B0DB
100
AcDbEntity
  8
DEFPOINTS
  6
Continuous
 62
     0
100
AcDbPoint
 10
34.86276065693174
 20
-473.0023550229265
 30
0.0
  0
POINT
  5
C5BA
330
B0DB
100
AcDbEntity
  8
DEFPOINTS
  6
Continuous
 62
     0
100
AcDbPoint
 10
35.13723934306857
 20
-480.9976449770728
 30
0.0
  0
ENDBLK
  5
B0E5
330
B0DB
100
AcDbEntity
  8
0
100
AcDbBlockEnd
  0
BLOCK
  5
BAAE
330
BAA5
100
AcDbEntity
  8
0
100
AcDbBlockBegin
  2
*D38
 70
     1
 10
0.0
 20
0.0
 30
0.0
  3
*D38
  1

  0
LINE
  5
C55A
330
BAA5
100
AcDbEntity
  8
30
  6
Continuous
 62
     0
370
    -2
100
AcDbLine
 10
-43.22177881674339
 20
-450.1020581600688
 30
0.0
 11
-62.2217788167434
 21
-450.1020581600687
 31
0.0
  0
LINE
  5
C55B
330
BAA5
100
AcDbEntity
  8
30
  6
Continuous
 62
     0
370
    -2
100
AcDbLine
 10
-62.2217788167434
 20
-450.1020581600687
 30
0.0
 11
-62.77736604411886
 21
-452.0233397200638
 31
0.0
  0
MTEXT
  5
C55C
330
BAA5
100
AcDbEntity
  8
30
  6
Continuous
 62
     0
100
AcDbMText
 10
-51.22177881674343
 20
-444.1020581600687
 30
0.0
 40
6.0
 41
0.0
 71
     5
 72
     1
  1
\A1;\U+220548
 73
     1
 44
1.0
  0
INSERT
  5
C55D
330
BAA5
100
AcDbEntity
  8
30
  6
Continuous
 62
     0
370
    -2
100
AcDbBlockReference
  2
_OPEN
 10
-63.33295327149435
 20
-453.944621280059
 30
0.0
 41
2.0
 42
2.0
 43
2.0
 50
253.8714352832725
  0
LINE
  5
C55E
330
BAA5
100
AcDbEntity
  8
30
  6
Continuous
 62
     0
370
    -2
100
AcDbLine
 10
-70.09000000000003
 20
-477.0000000000001
 30
0.0
 11
-69.91000000000003
 21
-477.0000000000002
 31
0.0
  0
LINE
  5
C55F
330
BAA5
100
AcDbEntity
  8
30
  6
Continuous
 62
     0
370
    -2
100
AcDbLine
 10
-70.00000000000006
 20
-477.0900000000001
 30
0.0
 11
-70.00000000000006
 21
-476.9100000000001
 31
0.0
  0
POINT
  5
C560
330
BAA5
100
AcDbEntity
  8
DEFPOINTS
  6
Continuous
 62
     0
100
AcDbPoint
 10
-63.33295327149435
 20
-453.944621280059
 30
0.0
  0
POINT
  5
C561
330
BAA5
100
AcDbEntity
  8
DEFPOINTS
  6
Continuous
 62
     0
100
AcDbPoint
 10
-76.66704672850578
 20
-500.0553787199414
 30
0.0
  0
ENDBLK
  5
BAAF
330
BAA5
100
AcDbEntity
  8
0
100
AcDbBlockEnd
  0
BLOCK
  5
BCCC
330
BCC3
100
AcDbEntity
  8
0
100
AcDbBlockBegin
  2
*D39
 70
     1
 10
0.0
 20
0.0
 30
0.0
  3
*D39
  1

  0
LINE
  5
C562
330
BCC3
100
AcDbEntity
  8
30
  6
Continuous
 62
     0
370
    -2
100
AcDbLine
 10
-109.8559692514105
 20
-334.0127675158289
 30
0.0
 11
-116.1440307485895
 21
-324.9872324841705
 31
0.0
  0
LINE
  5
C563
330
BCC3
100
AcDbEntity
  8
30
  6
Continuous
 62
     0
370
    -2
100
AcDbLine
 10
-117.2873146571675
 20
-323.3462261147781
 30
0.0
 11
-124.6525419961517
 21
-312.7745869229619
 31
0.0
  0
LINE
  5
C564
330
BCC3
100
AcDbEntity
  8
30
  6
Continuous
 62
     0
370
    -2
100
AcDbLine
 10
-124.6525419961517
 20
-312.7745869229619
 30
0.0
 11
-141.6525419961517
 21
-312.7745869229619
 31
0.0
  0
INSERT
  5
C565
330
BCC3
100
AcDbEntity
  8
30
  6
Continuous
 62
     0
370
    -2
100
AcDbBlockReference
  2
_OPEN
 10
-108.7126853428324
 20
-335.6537738852213
 30
0.0
 41
2.0
 42
2.0
 43
2.0
 50
304.8648037656794
  0
INSERT
  5
C566
330
BCC3
100
AcDbEntity
  8
30
  6
Continuous
 62
     0
370
    -2
100
AcDbBlockReference
  2
_OPEN
 10
-117.2873146571675
 20
-323.3462261147781
 30
0.0
 41
2.0
 42
2.0
 43
2.0
 50
124.8648037656794
  0
MTEXT
  5
C567
330
BCC3
100
AcDbEntity
  8
30
  6
Continuous
 62
     0
100
AcDbMText
 10
-134.6525419961517
 20
-306.7745869229618
 30
0.0
 40
6.0
 41
0.0
 71
     5
 72
     1
  1
\A1;\U+220515
 73
     1
 44
1.0
  0
POINT
  5
C568
330
BCC3
100
AcDbEntity
  8
DEFPOINTS
  6
Continuous
 62
     0
100
AcDbPoint
 10
-117.2873146571675
 20
-323.3462261147781
 30
0.0
  0
POINT
  5
C569
330
BCC3
100
AcDbEntity
  8
DEFPOINTS
  6
Continuous
 62
     0
100
AcDbPoint
 10
-108.7126853428324
 20
-335.6537738852213
 30
0.0
  0
ENDBLK
  5
BCCD
330
BCC3
100
AcDbEntity
  8
0
100
AcDbBlockEnd
  0
BLOCK
  5
C1DF
330
C1D3
100
AcDbEntity
  8
0
100
AcDbBlockBegin
  2
*D40
 70
     1
 10
0.0
 20
0.0
 30
0.0
  3
*D40
  1

  0
LINE
  5
C723
330
C1D3
100
AcDbEntity
  8
30
  6
Continuous
 62
     0
370
    -2
100
AcDbLine
 10
510.3999999999998
 20
-110.4999999999999
 30
0.0
 11
526.6580735902952
 21
-110.4999999999999
 31
0.0
  0
LINE
  5
C724
330
C1D3
100
AcDbEntity
  8
30
  6
Continuous
 62
     0
370
    -2
100
AcDbLine
 10
510.3999999999998
 20
-123.4999999999996
 30
0.0
 11
526.6580735902952
 21
-123.4999999999996
 31
0.0
  0
LINE
  5
C725
330
C1D3
100
AcDbEntity
  8
30
  6
Continuous
 62
     0
370
    -2
100
AcDbLine
 10
526.1580735902952
 20
-112.4999999999999
 30
0.0
 11
526.1580735902952
 21
-121.4999999999996
 31
0.0
  0
INSERT
  5
C726
330
C1D3
100
AcDbEntity
  8
30
  6
Continuous
 62
     0
370
    -2
100
AcDbBlockReference
  2
_OPEN
 10
526.1580735902952
 20
-110.4999999999999
 30
0.0
 41
2.0
 42
2.0
 43
2.0
 50
90.0
  0
INSERT
  5
C727
330
C1D3
100
AcDbEntity
  8
30
  6
Continuous
 62
     0
370
    -2
100
AcDbBlockReference
  2
_OPEN
 10
526.1580735902952
 20
-123.4999999999996
 30
0.0
 41
2.0
 42
2.0
 43
2.0
 50
270.0
  0
MTEXT
  5
C728
330
C1D3
100
AcDbEntity
  8
30
  6
Continuous
 62
     0
100
AcDbMText
 10
520.1580735902951
 20
-116.9999999999997
 30
0.0
 40
6.0
 41
0.0
 71
     5
 72
     1
  1
\A1;13
 11
0.0000000000000001
 21
1.0
 31
0.0
 73
     1
 44
1.0
  0
POINT
  5
C729
330
C1D3
100
AcDbEntity
  8
DEFPOINTS
  6
Continuous
 62
     0
100
AcDbPoint
 10
507.3999999999998
 20
-110.4999999999999
 30
0.0
  0
POINT
  5
C72A
330
C1D3
100
AcDbEntity
  8
DEFPOINTS
  6
Continuous
 62
     0
100
AcDbPoint
 10
507.3999999999998
 20
-123.4999999999996
 30
0.0
  0
POINT
  5
C72B
330
C1D3
100
AcDbEntity
  8
DEFPOINTS
  6
Continuous
 62
     0
100
AcDbPoint
 10
526.1580735902952
 20
-123.4999999999996
 30
0.0
  0
ENDBLK
  5
C1E0
330
C1D3
100
AcDbEntity
  8
0
100
AcDbBlockEnd
  0
ENDSEC
  0
SECTION
  2
ENTITIES
  0
MTEXT
  5
BF3
330
1E
100
AcDbEntity
  8
24
  6
Continuous
100
AcDbMText
 10
-959.1964146395261
 20
176.6241271810525
 30
0.0
 40
3.0
 41
0.0
 71
     1
 72
     1
  1
\A1;
 73
     1
 44
1.0
  0
MTEXT
  5
5C78
330
1E
100
AcDbEntity
  8
30
  6
Continuous
100
AcDbMText
 10
-937.8487462462183
 20
89.27438432631687
 30
0.0
 40
4.0
 41
0.0
 71
     9
 72
     1
  1

 73
     1
 44
1.0
  0
MTEXT
  5
6200
330
1E
100
AcDbEntity
  8
30
  6
Continuous
100
AcDbMText
 10
-939.5495044815866
 20
91.5141847924192
 30
0.0
 40
4.0
 41
0.0
 71
     9
 72
     1
  1

 73
     1
 44
1.0
  0
MTEXT
  5
7CA7
330
1E
100
AcDbEntity
  8
30
  6
Continuous
100
AcDbMText
 10
-889.3098634446728
 20
139.7980610970649
 30
0.0
 40
4.0
 41
0.0
 71
     9
 72
     1
  1
\A1;
 73
     1
 44
1.0
  0
MTEXT
  5
7CA9
330
1E
100
AcDbEntity
  8
30
  6
Continuous
100
AcDbMText
 10
-882.5696240950307
 20
137.0851630158117
 30
0.0
 40
4.0
 41
0.0
 71
     9
 72
     1
  1
\A1;
 73
     1
 44
1.0
  0
MTEXT
  5
7E8C
330
1E
100
AcDbEntity
  8
19
  6
Continuous
100
AcDbMText
 10
359.6513759806942
 20
271.5412639369449
 30
0.0
 40
8.0
 41
212.885100412648
 71
     1
 72
     5
  1
ZAS800-CF 3P RC\PZAS800-NF 3P RC\PZAS630-CF 3P RC\PZAS630-NF 3P RC
  7
STANDARD1
 73
     1
 44
1.0
  0
DIMENSION
  5
9E8B
330
1E
100
AcDbEntity
  8
30
  6
Continuous
100
AcDbDimension
  2
*D1
 10
104.9999999999995
 20
-169.2053729314839
 30
0.0
 11
-0.0000000000002981
 21
-163.205372931484
 31
0.0
 70
    32
  1
 <> 
 71
     5
 42
209.9999999999996
  3
STANDARD1
100
AcDbAlignedDimension
 13
-105.0000000000001
 23
-136.9999999999999
 33
0.0
 14
104.9999999999995
 24
-136.9999999999999
 34
0.0
100
AcDbRotatedDimension
  0
DIMENSION
  5
9E8C
330
1E
100
AcDbEntity
  8
30
  6
Continuous
100
AcDbDimension
  2
*D2
 10
437.3999999999998
 20
-204.0732068069063
 30
0.0
 11
383.8999999999998
 21
-198.0732068069063
 31
0.0
 70
    32
  1
 <> 
 71
     5
 42
107.0
  3
STANDARD1
100
AcDbAlignedDimension
 13
330.3999999999998
 23
-44.99999999999993
 33
0.0
 14
437.3999999999998
 24
-131.9999999999999
 34
0.0
100
AcDbRotatedDimension
  0
DIMENSION
  5
9E8E
330
1E
100
AcDbEntity
  8
30
  6
Continuous
100
AcDbDimension
  2
*D3
 10
330.3999999999998
 20
-204.0732068069063
 30
0.0
 11
315.5999999999998
 21
-204.0732068069063
 31
0.0
 70
   160
  1
 <> 
 71
     5
 42
4.0
  3
STANDARD1
100
AcDbAlignedDimension
 13
326.3999999999998
 23
-0.4999999999999434
 33
0.0
 14
330.3999999999998
 24
-49.99999999999993
 34
0.0
100
AcDbRotatedDimension
1001
ACAD
1000
DSTYLE
1002
{
1070
   172
1070
     1
1002
}
  0
DIMENSION
  5
9E8F
330
1E
100
AcDbEntity
  8
30
  6
Continuous
100
AcDbDimension
  2
*D4
 10
437.3999999999998
 20
-223.0492436799554
 30
0.0
 11
364.8999999999998
 21
-217.0492436799555
 31
0.0
 70
    32
  1
 <> 
 71
     5
 42
145.0
  3
STANDARD1
100
AcDbAlignedDimension
 13
292.3999999999998
 23
0.0000000000000568
 33
0.0
 14
437.3999999999998
 24
-186.9999999999999
 34
0.0
100
AcDbRotatedDimension
  0
DIMENSION
  5
9E90
330
1E
100
AcDbEntity
  8
30
  6
Continuous
100
AcDbDimension
  2
*D5
 10
211.8989299999998
 20
-223.0492436799554
 30
0.0
 11
252.1494649999998
 21
-217.0492436799555
 31
0.0
 70
    33
  1
 <> 
 71
     5
 42
80.50107000000002
  3
STANDARD1
100
AcDbAlignedDimension
 13
292.3999999999998
 23
4.999999999999943
 33
0.0
 14
211.8989299999998
 24
4.999999999999943
 34
0.0
  0
LINE
  5
9E93
330
1E
100
AcDbEntity
  8
18
  6
DIVIDE
100
AcDbLine
 10
104.9999999999999
 20
-218.9999999999997
 30
0.0
 11
104.9999999999999
 21
-492.0
 31
0.0
  0
LINE
  5
9E94
330
1E
100
AcDbEntity
  8
18
  6
DIVIDE
100
AcDbLine
 10
-104.5999999999994
 20
-218.9999999999997
 30
0.0
 11
-104.5999999999994
 21
-492.0
 31
0.0
  0
LINE
  5
9E96
330
1E
100
AcDbEntity
  8
16
100
AcDbLine
 10
-0.0000000000000142
 20
-501.0
 30
0.0
 11
-0.0000000000000142
 21
-209.9999999999999
 31
0.0
  0
DIMENSION
  5
9E99
330
1E
100
AcDbEntity
  8
30
  6
Continuous
100
AcDbDimension
  2
*D6
 10
-70.00000000000001
 20
-557.0958749999997
 30
0.0
 11
-91.50000000000003
 21
-551.0958749999997
 31
0.0
 70
    32
  1
 <> 
 71
     5
 42
43.0
  3
STANDARD1
100
AcDbAlignedDimension
 13
-113.0
 23
-334.4999999999997
 33
0.0
 14
-70.00000000000001
 24
-481.9999999999998
 34
0.0
100
AcDbRotatedDimension
  0
DIMENSION
  5
9E9A
330
1E
100
AcDbEntity
  8
30
  6
Continuous
100
AcDbDimension
  2
*D7
 10
112.9999999999999
 20
-557.0958749999997
 30
0.0
 11
91.49999999999996
 21
-551.0958749999997
 31
0.0
 70
    32
  1
 <> 
 71
     5
 42
43.0
  3
STANDARD1
100
AcDbAlignedDimension
 13
69.99999999999999
 23
-481.9999999999998
 33
0.0
 14
112.9999999999999
 24
-334.4999999999997
 34
0.0
100
AcDbRotatedDimension
  0
DIMENSION
  5
9E9B
330
1E
100
AcDbEntity
  8
30
  6
Continuous
100
AcDbDimension
  2
*D8
 10
156.5245325812545
 20
-360.0
 30
0.0
 11
150.5245325812546
 21
-418.5
 31
0.0
 70
    32
  1
 <> 
 71
     0
 72
     0
 41
0.0
 42
117.0
  3
STANDARD1
100
AcDbAlignedDimension
 13
39.99999999999998
 23
-477.0
 33
0.0
 14
104.9999999999999
 24
-360.0
 34
0.0
 50
90.0
100
AcDbRotatedDimension
  0
DIMENSION
  5
9E9C
330
1E
100
AcDbEntity
  8
30
  6
Continuous
100
AcDbDimension
  2
*D9
 10
175.9692079724304
 20
-486.9999999999997
 30
0.0
 11
169.9692079724304
 21
-423.4999999999998
 31
0.0
 70
    32
  1
 <> 
 71
     0
 72
     0
 41
0.0
 42
126.9999999999997
  3
STANDARD1
100
AcDbAlignedDimension
 13
104.9999999999999
 23
-360.0
 33
0.0
 14
53.18257999999949
 24
-486.9999999999997
 34
0.0
 50
90.0
100
AcDbRotatedDimension
  0
LINE
  5
9E9F
330
1E
100
AcDbEntity
  8
18
  6
DIVIDE
100
AcDbLine
 10
104.9999999999999
 20
-492.0
 30
0.0
 11
-104.5999999999994
 21
-492.0
 31
0.0
  0
DIMENSION
  5
9EA3
330
1E
100
AcDbEntity
  8
30
  6
Continuous
100
AcDbDimension
  2
*D10
 10
-0.0000000000000188
 20
-557.0958749999997
 30
0.0
 11
-35.00000000000001
 21
-551.0958749999997
 31
0.0
 70
    32
  1
 <> 
 71
     5
 42
70.0
  3
STANDARD1
100
AcDbAlignedDimension
 13
-70.00000000000001
 23
-481.9999999999998
 33
0.0
 14
-0.0000000000000142
 24
-481.9999999999998
 34
0.0
100
AcDbRotatedDimension
  0
DIMENSION
  5
9EA4
330
1E
100
AcDbEntity
  8
30
  6
Continuous
100
AcDbDimension
  2
*D11
 10
69.99999999999999
 20
-557.0958749999997
 30
0.0
 11
34.99999999999998
 21
-551.0958749999997
 31
0.0
 70
    32
  1
 <> 
 71
     5
 42
70.0
  3
STANDARD1
100
AcDbAlignedDimension
 13
-0.0000000000000142
 23
-481.9999999999998
 33
0.0
 14
69.99999999999999
 24
-481.9999999999998
 34
0.0
100
AcDbRotatedDimension
  0
LINE
  5
9EAB
330
1E
100
AcDbEntity
  8
12
  6
DASHED
100
AcDbLine
 10
-70.00000000000001
 20
-506.0
 30
0.0
 11
-70.00000000000001
 21
-448.0
 31
0.0
  0
LINE
  5
9EAC
330
1E
100
AcDbEntity
  8
1
  6
CENTER
 62
     3
 48
3.866666999999998
100
AcDbLine
 10
-0.0000000000000142
 20
-506.0
 30
0.0
 11
-0.0000000000000142
 21
-448.0
 31
0.0
  0
LINE
  5
9EAD
330
1E
100
AcDbEntity
  8
12
  6
DASHED
100
AcDbLine
 10
69.99999999999999
 20
-506.0
 30
0.0
 11
69.99999999999999
 21
-448.0
 31
0.0
  0
ARC
  5
9EBF
330
1E
100
AcDbEntity
  8
12
  6
DASHED
100
AcDbCircle
 10
-69.99999999999999
 20
-477.0
 30
0.0
 40
23.99999999999999
210
0.0
220
0.0
230
-1.0
100
AcDbArc
 50
335.3756819999992
 51
204.6243180000006
  0
ARC
  5
9EC0
330
1E
100
AcDbEntity
  8
12
  6
DASHED
100
AcDbCircle
 10
0.0000000000000142
 20
-477.0
 30
0.0
 40
23.99999999999999
210
0.0
220
0.0
230
-1.0
100
AcDbArc
 50
335.3756819999992
 51
204.6243180000006
  0
ARC
  5
9EC1
330
1E
100
AcDbEntity
  8
12
  6
DASHED
100
AcDbCircle
 10
70.00000000000001
 20
-477.0
 30
0.0
 40
23.99999999999999
210
0.0
220
0.0
230
-1.0
100
AcDbArc
 50
218.6821870000014
 51
204.6243180000006
  0
DIMENSION
  5
9EC2
330
1E
100
AcDbEntity
  8
30
  6
Continuous
100
AcDbDimension
  2
*D12
 10
34.99999999999998
 20
-522.0958749999997
 30
0.0
 11
-0.0000000000000138
 21
-516.0958749999998
 31
0.0
 70
    32
  1
 <> 
 71
     5
 42
70.0
  3
STANDARD1
100
AcDbAlignedDimension
 13
-35.00000000000001
 23
-481.9999999999998
 33
0.0
 14
34.99999999999998
 24
-481.9999999999998
 34
0.0
100
AcDbRotatedDimension
  0
ARC
  5
9EC3
330
1E
100
AcDbEntity
  8
12
  6
DASHED
100
AcDbCircle
 10
0.0000000000000142
 20
-477.0
 30
0.0
 40
23.99999999999999
210
0.0
220
0.0
230
-1.0
100
AcDbArc
 50
218.6821870000014
 51
321.3178129999981
  0
LINE
  5
9EC4
330
1E
100
AcDbEntity
  8
1
  6
Continuous
 62
     3
100
AcDbLine
 10
-51.26500500000022
 20
-492.0
 30
0.0
 11
-18.73498999999993
 21
-492.0
 31
0.0
  0
LINE
  5
9EC5
330
1E
100
AcDbEntity
  8
1
  6
Continuous
 62
     3
100
AcDbLine
 10
18.73499499999977
 20
-492.0
 30
0.0
 11
51.26500999999999
 21
-492.0
 31
0.0
  0
ARC
  5
9EC6
330
1E
100
AcDbEntity
  8
12
  6
DASHED
100
AcDbCircle
 10
-70.0000003299658
 20
-476.9999993131212
 30
0.0
 40
24.00000068687866
210
0.0
220
0.0
230
-1.0
100
AcDbArc
 50
204.6243194044067
 51
321.3178122122631
  0
LINE
  5
9EC7
330
1E
100
AcDbEntity
  8
12
  6
DASHED
100
AcDbLine
 10
-29.00000000000001
 20
-477.0
 30
0.0
 11
28.99999999999998
 21
-477.0
 31
0.0
  0
LINE
  5
9EC8
330
1E
100
AcDbEntity
  8
12
  6
DASHED
100
AcDbLine
 10
-99.00000000000002
 20
-477.0
 30
0.0
 11
-41.00000000000001
 21
-477.0
 31
0.0
  0
LINE
  5
9EC9
330
1E
100
AcDbEntity
  8
1
  6
Continuous
 62
     3
100
AcDbLine
 10
-41.00000000000001
 20
-477.0
 30
0.0
 11
-29.00000000000001
 21
-477.0
 31
0.0
  0
LINE
  5
9ECA
330
1E
100
AcDbEntity
  8
1
  6
Continuous
 62
     3
100
AcDbLine
 10
-35.00000000000001
 20
-471.0
 30
0.0
 11
-35.00000000000001
 21
-482.9999999999996
 31
0.0
  0
LINE
  5
9ECB
330
1E
100
AcDbEntity
  8
12
  6
DASHED
100
AcDbLine
 10
-21.81742000000034
 20
-486.9999999999997
 30
0.0
 11
-48.18257499999983
 21
-486.9999999999997
 31
0.0
  0
CIRCLE
  5
9ECC
330
1E
100
AcDbEntity
  8
12
  6
DASHED
100
AcDbCircle
 10
-35.00000000000001
 20
-477.0
 30
0.0
 40
3.999999999999998
  0
LINE
  5
9ECD
330
1E
100
AcDbEntity
  8
12
  6
DASHED
100
AcDbLine
 10
48.18257999999959
 20
-486.9999999999997
 30
0.0
 11
21.81742500000017
 21
-486.9999999999997
 31
0.0
  0
LINE
  5
9ECE
330
1E
100
AcDbEntity
  8
1
  6
CENTER
 62
     3
 48
3.866666999999998
100
AcDbLine
 10
40.99999999999998
 20
-477.0
 30
0.0
 11
98.99999999999998
 21
-477.0
 31
0.0
  0
LINE
  5
9ECF
330
1E
100
AcDbEntity
  8
1
  6
Continuous
 62
     3
100
AcDbLine
 10
28.99999999999998
 20
-477.0
 30
0.0
 11
40.99999999999998
 21
-477.0
 31
0.0
  0
LINE
  5
9ED0
330
1E
100
AcDbEntity
  8
1
  6
Continuous
 62
     3
100
AcDbLine
 10
34.99999999999998
 20
-471.0
 30
0.0
 11
34.99999999999998
 21
-482.9999999999996
 31
0.0
  0
CIRCLE
  5
9ED1
330
1E
100
AcDbEntity
  8
12
  6
DASHED
100
AcDbCircle
 10
34.99999999999998
 20
-477.0
 30
0.0
 40
3.999999999999998
  0
DIMENSION
  5
9ED5
330
1E
100
AcDbEntity
  8
30
  6
Continuous
100
AcDbDimension
  2
*D13
 10
175.9692079724304
 20
-492.0
 30
0.0
 11
171.5238731006845
 21
-491.2034850158403
 31
0.0
 70
   160
  1
 <> 
 71
     0
 72
     0
 41
0.0
 42
5.000000000000284
  3
STANDARD1
100
AcDbAlignedDimension
 13
53.18257999999949
 23
-486.9999999999997
 33
0.0
 14
56.26500999999999
 24
-492.0
 34
0.0
 50
90.0
100
AcDbRotatedDimension
1001
ACAD
1000
DSTYLE
1002
{
1070
   279
1070
     2
1070
   172
1070
     1
1002
}
  0
LINE
  5
9ED8
330
1E
100
AcDbEntity
  8
18
  6
DIVIDE
100
AcDbLine
 10
175.0
 20
-218.7235549737841
 30
0.0
 11
-104.5999999999994
 21
-218.7235549737841
 31
0.0
  0
LINE
  5
9EDA
330
1E
100
AcDbEntity
  8
16
100
AcDbLine
 10
114.9999999999999
 20
-360.0
 30
0.0
 11
-114.5999999999999
 21
-360.0
 31
0.0
  0
DIMENSION
  5
9EDB
330
1E
100
AcDbEntity
  8
30
  6
Continuous
100
AcDbDimension
  2
*D14
 10
156.5245325812545
 20
-233.9999999999998
 30
0.0
 11
150.5245325812546
 21
-296.9999999999998
 31
0.0
 70
    32
  1
 <> 
 71
     0
 72
     0
 41
0.0
 42
126.0000000000001
  3
STANDARD1
100
AcDbAlignedDimension
 13
119.9999999999999
 23
-360.0
 33
0.0
 14
39.99999999999998
 24
-233.9999999999998
 34
0.0
 50
90.0
100
AcDbRotatedDimension
  0
DIMENSION
  5
9EDC
330
1E
100
AcDbEntity
  8
30
  6
Continuous
100
AcDbDimension
  2
*D15
 10
175.9692079724309
 20
-360.0
 30
0.0
 11
169.9692079724309
 21
-291.9999999999999
 31
0.0
 70
    32
  1
 <> 
 71
     0
 72
     0
 41
0.0
 42
136.0000000000002
  3
STANDARD1
100
AcDbAlignedDimension
 13
104.9999999999999
 23
-223.9999999999997
 33
0.0
 14
104.9999999999999
 24
-360.0
 34
0.0
 50
90.0
100
AcDbRotatedDimension
  0
DIMENSION
  5
9EDD
330
1E
100
AcDbEntity
  8
30
  6
Continuous
100
AcDbDimension
  2
*D16
 10
139.1538999999999
 20
-329.4999999999999
 30
0.0
 11
133.1539
 21
-344.7499999999998
 31
0.0
 70
    32
  1
 <> 
 71
     0
 72
     0
 41
0.0
 42
30.50000000000017
  3
STANDARD1
100
AcDbAlignedDimension
 13
105.9999999999999
 23
-360.0
 33
0.0
 14
117.9999999999999
 24
-329.4999999999998
 34
0.0
 50
90.0
100
AcDbRotatedDimension
  0
CIRCLE
  5
9EE8
330
1E
100
AcDbEntity
  8
12
  6
DASHED
100
AcDbCircle
 10
113.0
 20
-329.4999999999998
 30
0.0
 40
7.499999999999997
210
0.0
220
0.0
230
-1.0
  0
LINE
  5
9EE9
330
1E
100
AcDbEntity
  8
12
  6
DASHED
100
AcDbLine
 10
-113.0
 20
-341.9999999999999
 30
0.0
 11
-113.0
 21
-316.9999999999998
 31
0.0
  0
LINE
  5
9EEA
330
1E
100
AcDbEntity
  8
12
  6
DASHED
100
AcDbLine
 10
-125.5
 20
-329.4999999999998
 30
0.0
 11
-100.5
 21
-329.4999999999998
 31
0.0
  0
ARC
  5
9EFD
330
1E
100
AcDbEntity
  8
12
  6
DASHED
100
AcDbCircle
 10
-70.00000000000001
 20
-233.9999999999998
 30
0.0
 40
23.99999999999999
100
AcDbArc
 50
38.68218700000154
 51
24.62431800000072
  0
ARC
  5
9EFE
330
1E
100
AcDbEntity
  8
12
  6
DASHED
100
AcDbCircle
 10
-0.0000000000000142
 20
-233.9999999999998
 30
0.0
 40
23.99999999999999
100
AcDbArc
 50
155.375681999999
 51
24.62431800000072
  0
ARC
  5
9EFF
330
1E
100
AcDbEntity
  8
12
  6
DASHED
100
AcDbCircle
 10
70.0000004301791
 20
-233.9999997239587
 30
0.0
 40
24.00000027604125
100
AcDbArc
 50
155.3756830269763
 51
38.68218608167243
  0
LINE
  5
9F00
330
1E
100
AcDbEntity
  8
12
  6
DASHED
100
AcDbLine
 10
-70.00000000000001
 20
-262.9999999999999
 30
0.0
 11
-70.00000000000001
 21
-204.9999999999998
 31
0.0
  0
LINE
  5
9F01
330
1E
100
AcDbEntity
  8
1
  6
CENTER
 62
     3
 48
3.866666999999998
100
AcDbLine
 10
-0.0000000000000142
 20
-262.9999999999999
 30
0.0
 11
-0.0000000000000142
 21
-204.9999999999998
 31
0.0
  0
LINE
  5
9F02
330
1E
100
AcDbEntity
  8
12
  6
DASHED
100
AcDbLine
 10
69.99999999999999
 20
-262.9999999999999
 30
0.0
 11
69.99999999999999
 21
-204.9999999999998
 31
0.0
  0
ARC
  5
9F04
330
1E
100
AcDbEntity
  8
12
  6
DASHED
100
AcDbCircle
 10
0.0
 20
-233.7235549737842
 30
0.0
 40
23.99999999999999
100
AcDbArc
 50
38.68218700000154
 51
141.3178129999984
  0
LINE
  5
9F05
330
1E
100
AcDbEntity
  8
12
  6
DASHED
100
AcDbLine
 10
-29.00000000000001
 20
-233.9999999999998
 30
0.0
 11
28.99999999999998
 21
-233.9999999999998
 31
0.0
  0
LINE
  5
9F06
330
1E
100
AcDbEntity
  8
12
  6
DASHED
100
AcDbLine
 10
-99.00000000000002
 20
-233.9999999999998
 30
0.0
 11
-41.00000000000001
 21
-233.9999999999998
 31
0.0
  0
LINE
  5
9F07
330
1E
100
AcDbEntity
  8
12
  6
DASHED
100
AcDbLine
 10
-41.00000000000001
 20
-233.9999999999998
 30
0.0
 11
-29.00000000000001
 21
-233.9999999999998
 31
0.0
  0
LINE
  5
9F08
330
1E
100
AcDbEntity
  8
12
  6
DASHED
100
AcDbLine
 10
-35.00000000000001
 20
-227.9999999999998
 30
0.0
 11
-35.00000000000001
 21
-239.9999999999999
 31
0.0
  0
LINE
  5
9F09
330
1E
100
AcDbEntity
  8
12
  6
DASHED
100
AcDbLine
 10
-21.72742000000055
 20
-223.6335549737844
 30
0.0
 11
-48.09257500000004
 21
-223.6335549737844
 31
0.0
  0
CIRCLE
  5
9F0A
330
1E
100
AcDbEntity
  8
12
  6
DASHED
100
AcDbCircle
 10
-35.00000000000001
 20
-233.9999999999998
 30
0.0
 40
3.999999999999998
  0
LINE
  5
9F0B
330
1E
100
AcDbEntity
  8
1
  6
Continuous
 62
     3
100
AcDbLine
 10
-51.17500500000043
 20
-218.6335549737844
 30
0.0
 11
-18.64499000000014
 21
-218.6335549737844
 31
0.0
  0
LINE
  5
9F0C
330
1E
100
AcDbEntity
  8
12
  6
DASHED
100
AcDbLine
 10
48.27257999999938
 20
-223.6335549737844
 30
0.0
 11
21.90742499999996
 21
-223.6335549737844
 31
0.0
  0
LINE
  5
9F0D
330
1E
100
AcDbEntity
  8
1
  6
CENTER
 62
     3
 48
3.866666999999998
100
AcDbLine
 10
40.99999999999998
 20
-233.9999999999998
 30
0.0
 11
98.99999999999998
 21
-233.9999999999998
 31
0.0
  0
LINE
  5
9F0E
330
1E
100
AcDbEntity
  8
12
  6
DASHED
100
AcDbLine
 10
28.99999999999998
 20
-233.9999999999998
 30
0.0
 11
40.99999999999998
 21
-233.9999999999998
 31
0.0
  0
LINE
  5
9F0F
330
1E
100
AcDbEntity
  8
12
  6
DASHED
100
AcDbLine
 10
34.99999999999998
 20
-227.9999999999998
 30
0.0
 11
34.99999999999998
 21
-239.9999999999999
 31
0.0
  0
CIRCLE
  5
9F10
330
1E
100
AcDbEntity
  8
12
  6
DASHED
100
AcDbCircle
 10
34.99999999999998
 20
-233.9999999999998
 30
0.0
 40
3.999999999999998
  0
LINE
  5
9F11
330
1E
100
AcDbEntity
  8
1
  6
Continuous
 62
     3
100
AcDbLine
 10
18.82499499999956
 20
-218.6335549737844
 30
0.0
 11
51.35500999999978
 21
-218.6335549737844
 31
0.0
  0
ARC
  5
9F12
330
1E
100
AcDbEntity
  8
12
  6
DASHED
100
AcDbCircle
 10
70.0
 20
-233.7235549737842
 30
0.0
 40
23.99999999999999
100
AcDbArc
 50
38.68218700000154
 51
141.3178129999984
  0
CIRCLE
  5
9F13
330
1E
100
AcDbEntity
  8
12
  6
DASHED
100
AcDbCircle
 10
112.9999999999999
 20
-329.4999999999998
 30
0.0
 40
7.499999999999997
  0
LINE
  5
9F14
330
1E
100
AcDbEntity
  8
12
  6
DASHED
100
AcDbLine
 10
112.9999999999999
 20
-341.9999999999999
 30
0.0
 11
112.9999999999999
 21
-316.9999999999998
 31
0.0
  0
LINE
  5
9F15
330
1E
100
AcDbEntity
  8
12
  6
DASHED
100
AcDbLine
 10
100.4999999999999
 20
-329.4999999999998
 30
0.0
 11
125.4999999999999
 21
-329.4999999999998
 31
0.0
  0
LINE
  5
9F1B
330
1E
100
AcDbEntity
  8
21
100
AcDbLine
 10
82.99999999999954
 20
366.1271619249112
 30
0.0
 11
82.99999999999954
 21
335.1271619249112
 31
0.0
  0
LINE
  5
9F1D
330
1E
100
AcDbEntity
  8
21
100
AcDbLine
 10
57.39999999999975
 20
366.1271619249112
 30
0.0
 11
57.39999999999975
 21
335.1271619249112
 31
0.0
  0
LINE
  5
9F1E
330
1E
100
AcDbEntity
  8
21
100
AcDbLine
 10
-12.60000000000025
 20
366.1271619249112
 30
0.0
 11
-12.60000000000025
 21
335.1271619249112
 31
0.0
  0
LINE
  5
9F1F
330
1E
100
AcDbEntity
  8
21
100
AcDbLine
 10
12.99999999999977
 20
366.1271619249112
 30
0.0
 11
12.99999999999977
 21
335.1271619249112
 31
0.0
  0
LINE
  5
9F20
330
1E
100
AcDbEntity
  8
21
100
AcDbLine
 10
-57.00000000000023
 20
366.1271619249112
 30
0.0
 11
-57.00000000000023
 21
335.1271619249112
 31
0.0
  0
LINE
  5
9F21
330
1E
100
AcDbEntity
  8
21
100
AcDbLine
 10
-82.60000000000013
 20
366.1271619249112
 30
0.0
 11
-82.60000000000013
 21
335.1271619249112
 31
0.0
  0
LINE
  5
9F22
330
1E
100
AcDbEntity
  8
17
100
AcDbLine
 10
70.19999999999993
 20
467.1271619249112
 30
0.0
 11
70.19999999999993
 21
325.1271619249114
 31
0.0
  0
LINE
  5
9F24
330
1E
100
AcDbEntity
  8
17
100
AcDbLine
 10
-69.79999999999995
 20
467.1271619249112
 30
0.0
 11
-69.79999999999995
 21
325.1271619249114
 31
0.0
  0
LINE
  5
9F2E
330
1E
100
AcDbEntity
  8
16
100
AcDbLine
 10
0.0
 20
467.1271619249112
 30
0.0
 11
0.0
 21
180.0
 31
0.0
  0
LINE
  5
9F32
330
1E
100
AcDbEntity
  8
10
  6
CONTINOUS
100
AcDbLine
 10
104.9999999999995
 20
141.0
 30
0.0
 11
104.9999999999995
 21
-131.9999999999998
 31
0.0
  0
LINE
  5
9F36
330
1E
100
AcDbEntity
  8
10
  6
CONTINOUS
100
AcDbLine
 10
-105.0
 20
141.0
 30
0.0
 11
-105.0
 21
-131.9999999999998
 31
0.0
  0
LINE
  5
9F39
330
1E
100
AcDbEntity
  8
12
  6
DASHED
100
AcDbLine
 10
35.19999999999959
 20
137.25
 30
0.0
 11
35.19999999999959
 21
114.7499999999998
 31
0.0
  0
LINE
  5
9F3A
330
1E
100
AcDbEntity
  8
16
100
AcDbLine
 10
0.0
 20
-141.9999999999998
 30
0.0
 11
0.0
 21
151.0
 31
0.0
  0
LINE
  5
9F3B
330
1E
100
AcDbEntity
  8
12
  6
DASHED
100
AcDbLine
 10
-34.79999999999995
 20
137.25
 30
0.0
 11
-34.79999999999995
 21
114.7499999999998
 31
0.0
  0
ARC
  5
9F3C
330
1E
100
AcDbEntity
  8
10
  6
CONTINOUS
100
AcDbCircle
 10
-58.79999999999995
 20
126.0
 30
0.0
 40
9.999999999999996
100
AcDbArc
 50
270.0
 51
90.0
  0
ARC
  5
9F3E
330
1E
100
AcDbEntity
  8
10
  6
CONTINOUS
100
AcDbCircle
 10
81.19999999999981
 20
126.0
 30
0.0
 40
9.999999999999996
100
AcDbArc
 50
270.0
 51
90.0
  0
ARC
  5
9F44
330
1E
100
AcDbEntity
  8
10
  6
CONTINOUS
100
AcDbCircle
 10
11.20000000000004
 20
126.0
 30
0.0
 40
9.999999999999996
100
AcDbArc
 50
270.0
 51
90.0
  0
CIRCLE
  5
9F45
330
1E
100
AcDbEntity
  8
12
  6
DASHED
100
AcDbCircle
 10
35.19999999999959
 20
126.0
 30
0.0
 40
8.249999999999996
  0
ARC
  5
9F47
330
1E
100
AcDbEntity
  8
10
  6
CONTINOUS
100
AcDbCircle
 10
-80.80000000000007
 20
126.0
 30
0.0
 40
9.999999999999996
100
AcDbArc
 50
90.0
 51
270.0
  0
ARC
  5
9F48
330
1E
100
AcDbEntity
  8
10
  6
CONTINOUS
100
AcDbCircle
 10
-10.80000000000018
 20
126.0
 30
0.0
 40
9.999999999999996
100
AcDbArc
 50
90.0
 51
270.0
  0
ARC
  5
9F4A
330
1E
100
AcDbEntity
  8
10
  6
CONTINOUS
100
AcDbCircle
 10
59.1999999999997
 20
126.0
 30
0.0
 40
9.999999999999996
100
AcDbArc
 50
90.0
 51
270.0
  0
CIRCLE
  5
9F4D
330
1E
100
AcDbEntity
  8
12
  6
DASHED
100
AcDbCircle
 10
-34.79999999999995
 20
126.0
 30
0.0
 40
8.249999999999996
  0
LINE
  5
9F4F
330
1E
100
AcDbEntity
  8
10
  6
CONTINOUS
100
AcDbLine
 10
24.49999999999977
 20
-36.59999999999991
 30
0.0
 11
24.49999999999977
 21
-29.69999999999993
 31
0.0
  0
LINE
  5
9F51
330
1E
100
AcDbEntity
  8
10
  6
CONTINOUS
100
AcDbLine
 10
85.19999999999994
 20
40.0
 30
0.0
 11
85.19999999999994
 21
-40.0
 31
0.0
  0
LINE
  5
9F53
330
1E
100
AcDbEntity
  8
10
  6
CONTINOUS
100
AcDbLine
 10
18.99999999999977
 20
-36.59999999999991
 30
0.0
 11
18.99999999999977
 21
-29.69999999999993
 31
0.0
  0
LINE
  5
9F57
330
1E
100
AcDbEntity
  8
10
  6
CONTINOUS
100
AcDbLine
 10
-84.80000000000007
 20
40.0
 30
0.0
 11
-84.80000000000007
 21
-40.0
 31
0.0
  0
LINE
  5
9F58
330
1E
100
AcDbEntity
  8
10
  6
CONTINOUS
100
AcDbLine
 10
25.69999999999982
 20
45.0
 30
0.0
 11
25.69999999999982
 21
-45.0
 31
0.0
  0
LINE
  5
9F59
330
1E
100
AcDbEntity
  8
10
  6
CONTINOUS
100
AcDbLine
 10
-25.29999999999995
 20
45.0
 30
0.0
 11
-25.29999999999995
 21
-45.0
 31
0.0
  0
LINE
  5
9F77
330
1E
100
AcDbEntity
  8
12
  6
DASHED
100
AcDbLine
 10
-34.79999999999995
 20
-105.75
 30
0.0
 11
-34.79999999999995
 21
-128.2499999999998
 31
0.0
  0
LINE
  5
9F78
330
1E
100
AcDbEntity
  8
12
  6
DASHED
100
AcDbLine
 10
35.19999999999959
 20
-105.75
 30
0.0
 11
35.19999999999959
 21
-128.2499999999998
 31
0.0
  0
CIRCLE
  5
9F79
330
1E
100
AcDbEntity
  8
12
  6
DASHED
100
AcDbCircle
 10
35.19999999999959
 20
-116.9999999999998
 30
0.0
 40
8.249999999999996
  0
ARC
  5
9F7B
330
1E
100
AcDbEntity
  8
10
  6
CONTINOUS
100
AcDbCircle
 10
59.1999999999997
 20
-116.9999999999998
 30
0.0
 40
9.999999999999996
100
AcDbArc
 50
90.0
 51
270.0
  0
ARC
  5
9F7C
330
1E
100
AcDbEntity
  8
10
  6
CONTINOUS
100
AcDbCircle
 10
-10.80000000000018
 20
-116.9999999999998
 30
0.0
 40
9.999999999999996
100
AcDbArc
 50
90.0
 51
270.0
  0
ARC
  5
9F7D
330
1E
100
AcDbEntity
  8
10
  6
CONTINOUS
100
AcDbCircle
 10
-80.80000000000007
 20
-116.9999999999998
 30
0.0
 40
9.999999999999996
100
AcDbArc
 50
90.0
 51
270.0
  0
ARC
  5
9F7F
330
1E
100
AcDbEntity
  8
10
  6
CONTINOUS
100
AcDbCircle
 10
81.19999999999981
 20
-116.9999999999998
 30
0.0
 40
9.999999999999996
100
AcDbArc
 50
270.0
 51
90.0
  0
ARC
  5
9F80
330
1E
100
AcDbEntity
  8
10
  6
CONTINOUS
100
AcDbCircle
 10
11.20000000000004
 20
-116.9999999999998
 30
0.0
 40
9.999999999999996
100
AcDbArc
 50
270.0
 51
90.0
  0
CIRCLE
  5
9F81
330
1E
100
AcDbEntity
  8
12
  6
DASHED
100
AcDbCircle
 10
-34.79999999999995
 20
-116.9999999999998
 30
0.0
 40
8.249999999999996
  0
ARC
  5
9F82
330
1E
100
AcDbEntity
  8
10
  6
CONTINOUS
100
AcDbCircle
 10
-58.79999999999995
 20
-116.9999999999998
 30
0.0
 40
9.999999999999996
100
AcDbArc
 50
270.0
 51
90.0
  0
LINE
  5
9F83
330
1E
100
AcDbEntity
  8
10
  6
CONTINOUS
100
AcDbLine
 10
104.9999999999995
 20
-131.9999999999998
 30
0.0
 11
-105.0
 21
-131.9999999999998
 31
0.0
  0
LINE
  5
9F84
330
1E
100
AcDbEntity
  8
10
  6
CONTINOUS
100
AcDbLine
 10
59.1999999999997
 20
-126.9999999999998
 30
0.0
 11
81.19999999999981
 21
-126.9999999999998
 31
0.0
  0
LINE
  5
9F87
330
1E
100
AcDbEntity
  8
10
  6
CONTINOUS
100
AcDbLine
 10
-80.80000000000007
 20
-126.9999999999998
 30
0.0
 11
-58.79999999999995
 21
-126.9999999999998
 31
0.0
  0
LINE
  5
9F88
330
1E
100
AcDbEntity
  8
10
  6
CONTINOUS
100
AcDbLine
 10
-10.80000000000018
 20
-126.9999999999998
 30
0.0
 11
11.20000000000004
 21
-126.9999999999998
 31
0.0
  0
LINE
  5
9F89
330
1E
100
AcDbEntity
  8
12
  6
DASHED
100
AcDbLine
 10
-46.04999999999995
 20
-116.9999999999998
 30
0.0
 11
-23.54999999999995
 21
-116.9999999999998
 31
0.0
  0
LINE
  5
9F8A
330
1E
100
AcDbEntity
  8
12
  6
DASHED
100
AcDbLine
 10
23.94999999999981
 20
-116.9999999999998
 30
0.0
 11
46.45000000000004
 21
-116.9999999999998
 31
0.0
  0
LINE
  5
9F8C
330
1E
100
AcDbEntity
  8
10
  6
CONTINOUS
100
AcDbLine
 10
104.9999999999995
 20
-46.49999999999988
 30
0.0
 11
-105.0
 21
-46.49999999999988
 31
0.0
  0
LINE
  5
9F8D
330
1E
100
AcDbEntity
  8
10
  6
CONTINOUS
100
AcDbLine
 10
-79.80000000000007
 20
-45.0
 30
0.0
 11
80.19999999999994
 21
-45.0
 31
0.0
  0
LINE
  5
9F8E
330
1E
100
AcDbEntity
  8
10
  6
CONTINOUS
100
AcDbLine
 10
-105.0
 20
-107.0
 30
0.0
 11
104.9999999999995
 21
-107.0
 31
0.0
  0
ARC
  5
9F8F
330
1E
100
AcDbEntity
  8
10
  6
CONTINOUS
100
AcDbCircle
 10
-79.80000000000007
 20
-40.0
 30
0.0
 40
4.999999999999998
100
AcDbArc
 50
180.0
 51
270.0
  0
LINE
  5
9F91
330
1E
100
AcDbEntity
  8
10
  6
CONTINOUS
100
AcDbLine
 10
18.99999999999977
 20
-36.59999999999991
 30
0.0
 11
24.49999999999977
 21
-36.59999999999991
 31
0.0
  0
ARC
  5
9F92
330
1E
100
AcDbEntity
  8
10
  6
CONTINOUS
100
AcDbCircle
 10
80.19999999999994
 20
-40.0
 30
0.0
 40
4.999999999999998
100
AcDbArc
 50
270.0
 51
0.0
  0
LINE
  5
9FA7
330
1E
100
AcDbEntity
  8
10
  6
CONTINOUS
100
AcDbLine
 10
-79.80000000000007
 20
45.0
 30
0.0
 11
80.19999999999994
 21
45.0
 31
0.0
  0
LINE
  5
9FA8
330
1E
100
AcDbEntity
  8
16
100
AcDbLine
 10
114.9999999999995
 20
0.0
 30
0.0
 11
-115.0
 21
0.0
 31
0.0
  0
LINE
  5
9FA9
330
1E
100
AcDbEntity
  8
10
  6
CONTINOUS
100
AcDbLine
 10
-18.00000000000022
 20
-25.5
 30
0.0
 11
-18.00000000000022
 21
29.6416999999999
 31
0.0
  0
LINE
  5
9FAA
330
1E
100
AcDbEntity
  8
10
  6
CONTINOUS
100
AcDbLine
 10
17.99999999999977
 20
-25.5
 30
0.0
 11
17.99999999999977
 21
29.6416999999999
 31
0.0
  0
LINE
  5
9FAB
330
1E
100
AcDbEntity
  8
10
  6
CONTINOUS
100
AcDbLine
 10
17.99999999999977
 20
-25.5
 30
0.0
 11
-18.00000000000022
 21
-25.5
 31
0.0
  0
LINE
  5
9FAC
330
1E
100
AcDbEntity
  8
10
  6
CONTINOUS
100
AcDbLine
 10
18.99999999999977
 20
-29.69999999999993
 30
0.0
 11
24.49999999999977
 21
-29.69999999999993
 31
0.0
  0
ARC
  5
9FAD
330
1E
100
AcDbEntity
  8
10
  6
CONTINOUS
100
AcDbCircle
 10
-79.80000000000007
 20
40.0
 30
0.0
 40
4.999999999999998
100
AcDbArc
 50
90.0
 51
180.0
  0
LINE
  5
9FAE
330
1E
100
AcDbEntity
  8
10
  6
CONTINOUS
100
AcDbLine
 10
20.79999999999995
 20
29.6416999999999
 30
0.0
 11
-20.80000000000018
 21
29.6416999999999
 31
0.0
  0
LINE
  5
9FAF
330
1E
100
AcDbEntity
  8
10
  6
CONTINOUS
100
AcDbLine
 10
25.69999999999982
 20
44.54681499999992
 30
0.0
 11
-25.29999999999995
 21
44.54681499999992
 31
0.0
  0
LINE
  5
9FB0
330
1E
100
AcDbEntity
  8
10
  6
CONTINOUS
100
AcDbLine
 10
20.79999999999995
 20
37.16874500000017
 30
0.0
 11
-20.80000000000018
 21
37.16874500000017
 31
0.0
  0
LINE
  5
9FB1
330
1E
100
AcDbEntity
  8
10
  6
CONTINOUS
100
AcDbLine
 10
-20.80000000000018
 20
29.6416999999999
 30
0.0
 11
-20.80000000000018
 21
37.16874500000017
 31
0.0
  0
LINE
  5
9FB2
330
1E
100
AcDbEntity
  8
10
  6
CONTINOUS
100
AcDbLine
 10
20.79999999999995
 20
29.6416999999999
 30
0.0
 11
20.79999999999995
 21
37.16874500000017
 31
0.0
  0
ARC
  5
9FB3
330
1E
100
AcDbEntity
  8
10
  6
CONTINOUS
100
AcDbCircle
 10
80.19999999999994
 20
40.0
 30
0.0
 40
4.999999999999998
100
AcDbArc
 50
0.0
 51
90.0
  0
LINE
  5
9FB4
330
1E
100
AcDbEntity
  8
10
  6
CONTINOUS
100
AcDbLine
 10
104.9999999999995
 20
116.0
 30
0.0
 11
-105.0
 21
116.0
 31
0.0
  0
LINE
  5
9FB5
330
1E
100
AcDbEntity
  8
10
  6
CONTINOUS
100
AcDbLine
 10
104.9999999999995
 20
55.49999999999989
 30
0.0
 11
-105.0
 21
55.49999999999989
 31
0.0
  0
LINE
  5
9FB6
330
1E
100
AcDbEntity
  8
12
  6
DASHED
100
AcDbLine
 10
-46.04999999999995
 20
126.0
 30
0.0
 11
-23.54999999999995
 21
126.0
 31
0.0
  0
LINE
  5
9FB7
330
1E
100
AcDbEntity
  8
12
  6
DASHED
100
AcDbLine
 10
23.94999999999981
 20
126.0
 30
0.0
 11
46.45000000000004
 21
126.0
 31
0.0
  0
LINE
  5
A014
330
1E
100
AcDbEntity
  8
10
  6
CONTINOUS
100
AcDbLine
 10
-20.80000000000018
 20
192.1271619249114
 30
0.0
 11
-20.80000000000018
 21
224.1271619249112
 31
0.0
  0
LINE
  5
A015
330
1E
100
AcDbEntity
  8
10
  6
CONTINOUS
100
AcDbLine
 10
20.79999999999984
 20
192.1271619249114
 30
0.0
 11
20.79999999999984
 21
224.1271619249112
 31
0.0
  0
LINE
  5
A01D
330
1E
100
AcDbEntity
  8
10
  6
CONTINOUS
100
AcDbLine
 10
59.1999999999997
 20
136.0
 30
0.0
 11
81.19999999999981
 21
136.0
 31
0.0
  0
LINE
  5
A01E
330
1E
100
AcDbEntity
  8
10
  6
CONTINOUS
100
AcDbLine
 10
104.9999999999995
 20
141.0
 30
0.0
 11
-105.0
 21
141.0
 31
0.0
  0
LINE
  5
A01F
330
1E
100
AcDbEntity
  8
10
  6
CONTINOUS
100
AcDbLine
 10
-80.80000000000007
 20
136.0
 30
0.0
 11
-58.79999999999995
 21
136.0
 31
0.0
  0
LINE
  5
A020
330
1E
100
AcDbEntity
  8
10
  6
CONTINOUS
100
AcDbLine
 10
-10.80000000000018
 20
136.0
 30
0.0
 11
11.20000000000004
 21
136.0
 31
0.0
  0
LINE
  5
A023
330
1E
100
AcDbEntity
  8
10
  6
CONTINOUS
100
AcDbLine
 10
-20.80000000000018
 20
192.1271619249114
 30
0.0
 11
20.79999999999984
 21
192.1271619249114
 31
0.0
  0
LINE
  5
A034
330
1E
100
AcDbEntity
  8
10
  6
CONTINOUS
100
AcDbLine
 10
-105.0
 20
232.1271619249114
 30
0.0
 11
-105.0
 21
335.1271619249112
 31
0.0
  0
LINE
  5
A035
330
1E
100
AcDbEntity
  8
10
  6
CONTINOUS
100
AcDbLine
 10
104.9999999999996
 20
232.1271619249114
 30
0.0
 11
104.9999999999996
 21
335.1271619249112
 31
0.0
  0
LINE
  5
A037
330
1E
100
AcDbEntity
  8
10
  6
CONTINOUS
100
AcDbLine
 10
-105.0
 20
232.1271619249114
 30
0.0
 11
104.9999999999996
 21
232.1271619249114
 31
0.0
  0
LINE
  5
A038
330
1E
100
AcDbEntity
  8
10
  6
CONTINOUS
100
AcDbLine
 10
-84.80000000000018
 20
228.1271619249114
 30
0.0
 11
85.19999999999994
 21
228.1271619249114
 31
0.0
  0
LINE
  5
A039
330
1E
100
AcDbEntity
  8
10
  6
CONTINOUS
100
AcDbLine
 10
-84.80000000000018
 20
228.1271619249114
 30
0.0
 11
-84.80000000000018
 21
232.1271619249114
 31
0.0
  0
LINE
  5
A03A
330
1E
100
AcDbEntity
  8
10
  6
CONTINOUS
100
AcDbLine
 10
14.19999999999981
 20
210.1271619249114
 30
0.0
 11
14.19999999999981
 21
224.1271619249112
 31
0.0
  0
LINE
  5
A03B
330
1E
100
AcDbEntity
  8
10
  6
CONTINOUS
100
AcDbLine
 10
-13.79999999999995
 20
210.1271619249114
 30
0.0
 11
-13.79999999999995
 21
224.1271619249112
 31
0.0
  0
LINE
  5
A03C
330
1E
100
AcDbEntity
  8
10
  6
CONTINOUS
100
AcDbLine
 10
-13.79999999999995
 20
210.1271619249114
 30
0.0
 11
14.19999999999981
 21
210.1271619249114
 31
0.0
  0
LINE
  5
A03D
330
1E
100
AcDbEntity
  8
10
  6
CONTINOUS
100
AcDbLine
 10
-25.30000000000006
 20
224.1271619249112
 30
0.0
 11
25.69999999999982
 21
224.1271619249112
 31
0.0
  0
LINE
  5
A03E
330
1E
100
AcDbEntity
  8
10
  6
CONTINOUS
100
AcDbLine
 10
-25.30000000000006
 20
224.1271619249112
 30
0.0
 11
-25.30000000000006
 21
228.1271619249114
 31
0.0
  0
LINE
  5
A03F
330
1E
100
AcDbEntity
  8
10
  6
CONTINOUS
100
AcDbLine
 10
25.69999999999982
 20
224.1271619249112
 30
0.0
 11
25.69999999999982
 21
228.1271619249114
 31
0.0
  0
LINE
  5
A040
330
1E
100
AcDbEntity
  8
10
  6
CONTINOUS
100
AcDbLine
 10
85.19999999999994
 20
228.1271619249114
 30
0.0
 11
85.19999999999994
 21
232.1271619249114
 31
0.0
  0
LINE
  5
A041
330
1E
100
AcDbEntity
  8
18
100
AcDbLine
 10
-144.6000000000001
 20
340.1271619249114
 30
0.0
 11
144.9999999999995
 21
340.1271619249114
 31
0.0
  0
LINE
  5
A042
330
1E
100
AcDbEntity
  8
10
  6
CONTINOUS
100
AcDbLine
 10
-105.0
 20
335.1271619249112
 30
0.0
 11
104.9999999999996
 21
335.1271619249112
 31
0.0
  0
LINE
  5
A045
330
1E
100
AcDbEntity
  8
18
100
AcDbLine
 10
-109.6000000000001
 20
335.1271619249112
 30
0.0
 11
-144.6000000000001
 21
335.1271619249112
 31
0.0
  0
LINE
  5
A047
330
1E
100
AcDbEntity
  8
18
100
AcDbLine
 10
109.9999999999995
 20
335.1271619249112
 30
0.0
 11
144.9999999999995
 21
335.1271619249112
 31
0.0
  0
LINE
  5
A048
330
1E
100
AcDbEntity
  8
10
100
AcDbLine
 10
437.3999999999998
 20
-132.0
 30
0.0
 11
437.3999999999998
 21
141.0
 31
0.0
  0
LINE
  5
A049
330
1E
100
AcDbEntity
  8
10
100
AcDbLine
 10
340.3999999999998
 20
116.0
 30
0.0
 11
340.3999999999998
 21
141.0
 31
0.0
  0
LINE
  5
A04A
330
1E
100
AcDbEntity
  8
21
100
AcDbLine
 10
559.3999999999997
 20
121.0
 30
0.0
 11
559.3999999999997
 21
131.0
 31
0.0
  0
LINE
  5
A04B
330
1E
100
AcDbEntity
  8
21
100
AcDbLine
 10
468.3999999999998
 20
113.2
 30
0.0
 11
468.3999999999998
 21
138.7999999999999
 31
0.0
  0
DIMENSION
  5
A04C
330
1E
100
AcDbEntity
  8
30
  6
Continuous
100
AcDbDimension
  2
*D17
 10
437.3999999999998
 20
-187.0958749999999
 30
0.0
 11
385.8999999999998
 21
-181.0958749999999
 31
0.0
 70
    32
  1
 <> 
 71
     5
 42
103.0
  3
STANDARD1
100
AcDbAlignedDimension
 13
334.3999999999998
 23
-44.99999999999993
 33
0.0
 14
437.3999999999998
 24
-136.9999999999999
 34
0.0
100
AcDbRotatedDimension
  0
DIMENSION
  5
A04D
330
1E
100
AcDbEntity
  8
30
  6
Continuous
100
AcDbDimension
  2
*D18
 10
574.0279244687826
 20
131.0
 30
0.0
 11
574.0279244687826
 21
126.0000000000001
 31
0.0
 70
   160
  1
<> 
 71
     5
 42
9.999999999999886
  3
STANDARD1
100
AcDbAlignedDimension
 13
564.3999999999997
 23
121.0000000000001
 33
0.0
 14
564.3999999999997
 24
131.0
 34
0.0
 50
90.0
100
AcDbRotatedDimension
1001
ACAD
1000
DSTYLE
1002
{
1070
   172
1070
     1
1002
}
  0
LINE
  5
A04E
330
1E
100
AcDbEntity
  8
10
100
AcDbLine
 10
334.3999999999998
 20
-45.0
 30
0.0
 11
334.3999999999998
 21
45.0
 31
0.0
  0
LINE
  5
A04F
330
1E
100
AcDbEntity
  8
10
100
AcDbLine
 10
327.3999999999998
 20
-45.0
 30
0.0
 11
327.3999999999998
 21
-27.10695999999995
 31
0.0
  0
LINE
  5
A050
330
1E
100
AcDbEntity
  8
10
100
AcDbLine
 10
330.3999999999998
 20
-45.0
 30
0.0
 11
330.3999999999998
 21
45.0
 31
0.0
  0
LINE
  5
A052
330
1E
100
AcDbEntity
  8
12
  6
DASHED
100
AcDbLine
 10
450.3999999999998
 20
-112.9999999999998
 30
0.0
 11
450.3999999999998
 21
-120.9999999999996
 31
0.0
  0
LINE
  5
A053
330
1E
100
AcDbEntity
  8
17
100
AcDbLine
 10
539.3999999999997
 20
-87.0
 30
0.0
 11
539.3999999999997
 21
-147.0
 31
0.0
  0
LINE
  5
A054
330
1E
100
AcDbEntity
  8
21
100
AcDbLine
 10
474.3999999999998
 20
-105.4999999999998
 30
0.0
 11
474.3999999999998
 21
-128.4999999999997
 31
0.0
  0
LINE
  5
A055
330
1E
100
AcDbEntity
  8
17
100
AcDbLine
 10
499.3999999999998
 20
-87.0
 30
0.0
 11
499.3999999999998
 21
-147.0
 31
0.0
  0
LINE
  5
A056
330
1E
100
AcDbEntity
  8
1
  6
DASHED
 62
   113
 48
0.356
100
AcDbLine
 10
403.3999999999998
 20
-114.3299999999999
 30
0.0
 11
403.3999999999998
 21
-119.6699999999997
 31
0.0
  0
LINE
  5
A057
330
1E
100
AcDbEntity
  8
12
  6
DASHED
100
AcDbLine
 10
409.3999999999998
 20
-125.2499999999996
 30
0.0
 11
409.3999999999998
 21
-108.75
 31
0.0
  0
LINE
  5
A058
330
1E
100
AcDbEntity
  8
21
100
AcDbLine
 10
559.3999999999997
 20
-98.0
 30
0.0
 11
559.3999999999997
 21
-135.9999999999997
 31
0.0
  0
LINE
  5
A059
330
1E
100
AcDbEntity
  8
10
100
AcDbLine
 10
340.3999999999998
 20
-132.0
 30
0.0
 11
340.3999999999998
 21
-107.0
 31
0.0
  0
LINE
  5
A05A
330
1E
100
AcDbEntity
  8
17
100
AcDbLine
 10
507.3999999999998
 20
-87.0
 30
0.0
 11
507.3999999999998
 21
-147.0
 31
0.0
  0
LINE
  5
A05B
330
1E
100
AcDbEntity
  8
21
100
AcDbLine
 10
468.3999999999998
 20
-129.7999999999997
 30
0.0
 11
468.3999999999998
 21
-104.1999999999999
 31
0.0
  0
ARC
  5
A05C
330
1E
100
AcDbEntity
  8
17
100
AcDbCircle
 10
507.3999999999998
 20
-117.0
 30
0.0
 40
6.499999999999997
100
AcDbArc
 50
270.0
 51
90.0
  0
ARC
  5
A05D
330
1E
100
AcDbEntity
  8
17
100
AcDbCircle
 10
499.3999999999998
 20
-117.0
 30
0.0
 40
6.499999999999997
100
AcDbArc
 50
90.0
 51
270.0
  0
CIRCLE
  5
A05E
330
1E
100
AcDbEntity
  8
17
100
AcDbCircle
 10
539.3999999999997
 20
-117.0
 30
0.0
 40
6.499999999999997
  0
DIMENSION
  5
A05F
330
1E
100
AcDbEntity
  8
30
  6
Continuous
100
AcDbDimension
  2
*D19
 10
573.9269499999998
 20
-137.9999999999999
 30
0.0
 11
567.9269499999998
 21
-116.9999999999997
 31
0.0
 70
    32
  1
 <> 
 71
     0
 72
     0
 41
0.0
 42
42.00000000000009
  3
STANDARD1
100
AcDbAlignedDimension
 13
562.3999999999997
 23
-95.99999999999985
 33
0.0
 14
562.3999999999997
 24
-137.9999999999999
 34
0.0
 50
90.0
100
AcDbRotatedDimension
  0
LINE
  5
A060
330
1E
100
AcDbEntity
  8
10
100
AcDbLine
 10
340.3999999999998
 20
-132.0
 30
0.0
 11
437.3999999999998
 21
-132.0
 31
0.0
  0
LINE
  5
A061
330
1E
100
AcDbEntity
  8
12
  6
DASHED
100
AcDbLine
 10
409.3999999999998
 20
-120.9999999999996
 30
0.0
 11
437.3999999999998
 21
-120.9999999999996
 31
0.0
  0
LINE
  5
A062
330
1E
100
AcDbEntity
  8
17
100
AcDbLine
 10
401.0999999999996
 20
-117.0
 30
0.0
 11
453.3999999999998
 21
-117.0
 31
0.0
  0
LINE
  5
A063
330
1E
100
AcDbEntity
  8
12
  6
DASHED
100
AcDbLine
 10
340.3999999999998
 20
-125.2499999999996
 30
0.0
 11
409.3999999999998
 21
-125.2499999999996
 31
0.0
  0
LINE
  5
A064
330
1E
100
AcDbEntity
  8
12
  6
DASHED
100
AcDbLine
 10
409.3999999999998
 20
-125.0
 30
0.0
 11
408.7299999999998
 21
-125.0
 31
0.0
  0
ARC
  5
A065
330
1E
100
AcDbEntity
  8
12
  6
DASHED
100
AcDbCircle
 10
408.7299999999998
 20
-119.6699999999997
 30
0.0
 40
5.329999999999997
100
AcDbArc
 50
180.0
 51
270.0
  0
LINE
  5
A066
330
1E
100
AcDbEntity
  8
1
  6
DASHDOT
 62
     3
100
AcDbLine
 10
437.3999999999998
 20
-137.0
 30
0.0
 11
437.3999999999998
 21
-182.0
 31
0.0
  0
LINE
  5
A068
330
1E
100
AcDbEntity
  8
21
100
AcDbLine
 10
557.3999999999998
 20
-137.9999999999997
 30
0.0
 11
502.3128049999997
 21
-137.9999999999997
 31
0.0
  0
LINE
  5
A069
330
1E
100
AcDbEntity
  8
17
100
AcDbLine
 10
513.1359575549902
 20
-117.1116004490122
 30
0.0
 11
437.3999999999998
 21
-117.0
 31
0.0
  0
ELLIPSE
  5
A06A
330
1E
100
AcDbEntity
  8
21
100
AcDbEllipse
 10
502.3105749999997
 20
-122.9999999999999
 30
0.0
 11
29.99999999999999
 21
0.0
 31
0.0
210
0.0
220
0.0
230
-1.0
 40
0.5
 41
1.570721942727706
 42
2.766169045608751
  0
LINE
  5
A06B
330
1E
100
AcDbEntity
  8
21
100
AcDbLine
 10
468.3999999999998
 20
-129.7999999999997
 30
0.0
 11
437.3999999999998
 21
-129.7999999999997
 31
0.0
  0
LINE
  5
A06C
330
1E
100
AcDbEntity
  8
21
100
AcDbLine
 10
474.3999999999998
 20
-128.4999999999997
 30
0.0
 11
468.3999999999998
 21
-128.4999999999997
 31
0.0
  0
LINE
  5
A06D
330
1E
100
AcDbEntity
  8
12
  6
DASHED
100
AcDbLine
 10
437.3999999999998
 20
-120.9999999999996
 30
0.0
 11
450.3999999999998
 21
-120.9999999999996
 31
0.0
  0
LINE
  5
A06F
330
1E
100
AcDbEntity
  8
17
100
AcDbLine
 10
499.3999999999998
 20
-123.4999999999995
 30
0.0
 11
507.3999999999998
 21
-123.4999999999995
 31
0.0
  0
ARC
  5
A070
330
1E
100
AcDbEntity
  8
21
100
AcDbCircle
 10
557.3999999999998
 20
-135.9999999999997
 30
0.0
 40
1.999999999999999
100
AcDbArc
 50
270.0
 51
0.0
  0
LINE
  5
A071
330
1E
100
AcDbEntity
  8
12
  6
DASHED
100
AcDbLine
 10
409.3999999999998
 20
-112.9999999999998
 30
0.0
 11
437.3999999999998
 21
-112.9999999999998
 31
0.0
  0
LINE
  5
A072
330
1E
100
AcDbEntity
  8
10
100
AcDbLine
 10
337.8999999999998
 20
-107.0
 30
0.0
 11
337.8999999999998
 21
-46.49999999999988
 31
0.0
  0
DIMENSION
  5
A073
330
1E
100
AcDbEntity
  8
30
  6
Continuous
100
AcDbDimension
  2
*D20
 10
437.3999999999998
 20
-78.7842317967024
 30
0.0
 11
423.3999999999999
 21
-72.7842317967024
 31
0.0
 70
    32
  1
 <> 
 71
     5
 42
28.0
  3
STANDARD1
100
AcDbAlignedDimension
 13
409.3999999999998
 23
-103.7499999999996
 33
0.0
 14
437.3999999999998
 24
-85.03423179670233
 34
0.0
100
AcDbRotatedDimension
  0
LINE
  5
A074
330
1E
100
AcDbEntity
  8
12
  6
DASHED
100
AcDbLine
 10
340.3999999999998
 20
-108.75
 30
0.0
 11
409.3999999999998
 21
-108.75
 31
0.0
  0
LINE
  5
A075
330
1E
100
AcDbEntity
  8
10
100
AcDbLine
 10
340.3999999999998
 20
-107.0
 30
0.0
 11
337.8999999999998
 21
-107.0
 31
0.0
  0
LINE
  5
A076
330
1E
100
AcDbEntity
  8
1
  6
DASHED
 62
   113
 48
0.044667
100
AcDbLine
 10
409.3999999999998
 20
-108.9999999999995
 30
0.0
 11
408.7299999999998
 21
-108.9999999999995
 31
0.0
  0
ARC
  5
A077
330
1E
100
AcDbEntity
  8
1
  6
DASHED
 62
   113
100
AcDbCircle
 10
408.7299999999998
 20
-114.3299999999999
 30
0.0
 40
5.329999999999997
100
AcDbArc
 50
90.0
 51
180.0
  0
LINE
  5
A078
330
1E
100
AcDbEntity
  8
10
100
AcDbLine
 10
334.3999999999998
 20
-45.0
 30
0.0
 11
327.3999999999998
 21
-45.0
 31
0.0
  0
LINE
  5
A079
330
1E
100
AcDbEntity
  8
10
100
AcDbLine
 10
334.3999999999998
 20
-46.49999999999988
 30
0.0
 11
334.3999999999998
 21
-45.0
 31
0.0
  0
LINE
  5
A07A
330
1E
100
AcDbEntity
  8
10
100
AcDbLine
 10
337.8999999999998
 20
-46.49999999999988
 30
0.0
 11
334.3999999999998
 21
-46.49999999999988
 31
0.0
  0
DIMENSION
  5
A07B
330
1E
100
AcDbEntity
  8
30
  6
Continuous
100
AcDbDimension
  2
*D21
 10
437.3999999999998
 20
-78.7842317967024
 30
0.0
 11
441.4630848795832
 21
-78.7842317967024
 31
0.0
 70
   160
  1
 <> 
 71
     5
 42
13.0
  3
STANDARD1
100
AcDbAlignedDimension
 13
450.3999999999998
 23
-107.9999999999996
 33
0.0
 14
437.3999999999998
 24
-84.03423179670236
 34
0.0
100
AcDbRotatedDimension
  0
LINE
  5
A07C
330
1E
100
AcDbEntity
  8
21
100
AcDbLine
 10
557.3999999999998
 20
-95.99999999999988
 30
0.0
 11
502.3128049999997
 21
-95.99999999999988
 31
0.0
  0
ELLIPSE
  5
A07D
330
1E
100
AcDbEntity
  8
21
100
AcDbEllipse
 10
502.3105749999997
 20
-110.9999999999996
 30
0.0
 11
29.99999999999999
 21
0.0
 31
0.0
210
0.0
220
0.0
230
1.0
 40
0.5
 41
1.570721942727706
 42
2.766169045608751
  0
LINE
  5
A07E
330
1E
100
AcDbEntity
  8
21
100
AcDbLine
 10
468.3999999999998
 20
-104.1999999999999
 30
0.0
 11
437.3999999999998
 21
-104.1999999999999
 31
0.0
  0
LINE
  5
A07F
330
1E
100
AcDbEntity
  8
21
100
AcDbLine
 10
474.3999999999998
 20
-105.4999999999998
 30
0.0
 11
468.3999999999998
 21
-105.4999999999998
 31
0.0
  0
LINE
  5
A080
330
1E
100
AcDbEntity
  8
12
  6
DASHED
100
AcDbLine
 10
437.3999999999998
 20
-112.9999999999998
 30
0.0
 11
450.3999999999998
 21
-112.9999999999998
 31
0.0
  0
LINE
  5
A081
330
1E
100
AcDbEntity
  8
17
100
AcDbLine
 10
499.3999999999998
 20
-110.4999999999998
 30
0.0
 11
507.3999999999998
 21
-110.4999999999998
 31
0.0
  0
ARC
  5
A082
330
1E
100
AcDbEntity
  8
21
100
AcDbCircle
 10
557.3999999999998
 20
-98.0
 30
0.0
 40
1.999999999999999
100
AcDbArc
 50
0.0
 51
90.0
  0
LINE
  5
A083
330
1E
100
AcDbEntity
  8
10
100
AcDbLine
 10
334.3999999999998
 20
45.0
 30
0.0
 11
334.3999999999998
 21
55.5
 31
0.0
  0
LINE
  5
A084
330
1E
100
AcDbEntity
  8
10
100
AcDbLine
 10
320.2159049999997
 20
44.57905000000005
 30
0.0
 11
295.7530049999998
 21
53.38623500000005
 31
0.0
  0
ARC
  5
A085
330
1E
100
AcDbEntity
  8
10
100
AcDbCircle
 10
235.8035699999998
 20
61.04623500000013
 30
0.0
 40
15.99999999999999
100
AcDbArc
 50
19.39509599999932
 51
301.0049040000016
  0
ARC
  5
A086
330
1E
100
AcDbEntity
  8
1
  6
Continuous
 62
   131
100
AcDbCircle
 10
437.4018205528714
 20
3.806184726796004
 30
0.0
 40
225.5060555675518
100
AcDbArc
 50
165.1394483099086
 51
179.6966782288776
  0
ARC
  5
A087
330
1E
100
AcDbEntity
  8
10
100
AcDbCircle
 10
-247.6511349999996
 20
41.33240499999999
 30
0.0
 40
6.999999999999997
210
0.0
220
0.0
230
-1.0
100
AcDbArc
 50
58.99509599999825
 51
117.5859389999994
  0
LINE
  5
A089
330
1E
100
AcDbEntity
  8
16
100
AcDbLine
 10
451.3999999999998
 20
0.0
 30
0.0
 11
274.9999999999997
 21
0.0
 31
0.0
  0
ARC
  5
A08A
330
1E
100
AcDbEntity
  8
1
  6
Continuous
 62
     4
100
AcDbCircle
 10
437.3999999999998
 20
5.0
 30
0.0
 40
144.9999999999999
100
AcDbArc
 50
169.3042220000005
 51
180.0
  0
ARC
  5
A08C
330
1E
100
AcDbEntity
  8
10
100
AcDbCircle
 10
826.3999999999997
 20
4.5
 30
0.0
 40
499.9999999999998
100
AcDbArc
 50
176.3756930000003
 51
183.6243069999993
  0
LINE
  5
A08E
330
1E
100
AcDbEntity
  8
10
100
AcDbLine
 10
311.3409699999994
 20
19.92797499999994
 30
0.0
 11
286.8780699999996
 21
28.73515999999995
 31
0.0
  0
LINE
  5
A08F
330
1E
100
AcDbEntity
  8
10
100
AcDbLine
 10
326.6898699999996
 20
21.52302000000009
 30
0.0
 11
294.3224599999996
 21
33.17600499999992
 31
0.0
  0
LINE
  5
A090
330
1E
100
AcDbEntity
  8
10
100
AcDbLine
 10
298.6583049999999
 20
45.21928000000002
 30
0.0
 11
294.3224599999996
 21
33.17600499999992
 31
0.0
  0
LINE
  5
A091
330
1E
100
AcDbEntity
  8
10
100
AcDbLine
 10
250.8926849999995
 20
47.53662499999996
 30
0.0
 11
286.8780699999996
 21
28.73515999999995
 31
0.0
  0
LINE
  5
A092
330
1E
100
AcDbEntity
  8
10
100
AcDbLine
 10
322.6244749999998
 20
39.46057499999994
 30
0.0
 11
316.4594449999996
 21
22.336545
 31
0.0
  0
LINE
  5
A093
330
1E
100
AcDbEntity
  8
10
100
AcDbLine
 10
326.7819849999998
 20
24.04065500000001
 30
0.0
 11
311.2244899999998
 21
29.6416999999999
 31
0.0
  0
ARC
  5
A094
330
1E
100
AcDbEntity
  8
10
100
AcDbCircle
 10
312.6959199999999
 20
23.69150000000002
 30
0.0
 40
3.999999999999998
100
AcDbArc
 50
250.199999999999
 51
340.2
  0
LINE
  5
A095
330
1E
100
AcDbEntity
  8
10
100
AcDbLine
 10
327.3999999999998
 20
36.10696500000017
 30
0.0
 11
327.3999999999998
 21
45.0
 31
0.0
  0
LINE
  5
A096
330
1E
100
AcDbEntity
  8
10
100
AcDbLine
 10
327.1790399999997
 20
32.40037999999981
 30
0.0
 11
313.9343949999993
 21
37.16874500000017
 31
0.0
  0
LINE
  5
A097
330
1E
100
AcDbEntity
  8
10
100
AcDbLine
 10
313.9343949999993
 20
37.16874500000017
 30
0.0
 11
311.2244899999998
 21
29.6416999999999
 31
0.0
  0
LINE
  5
A098
330
1E
100
AcDbEntity
  8
10
100
AcDbLine
 10
327.3999999999998
 20
45.0
 30
0.0
 11
334.3999999999998
 21
45.0
 31
0.0
  0
LINE
  5
A099
330
1E
100
AcDbEntity
  8
10
100
AcDbLine
 10
327.3249349999998
 20
34.89865500000007
 30
0.0
 11
298.6583049999999
 21
45.21928000000002
 31
0.0
  0
ARC
  5
A09A
330
1E
100
AcDbEntity
  8
10
100
AcDbCircle
 10
318.8609499999997
 20
40.81552999999996
 30
0.0
 40
3.999999999999998
100
AcDbArc
 50
340.2
 51
70.19999999999902
  0
LINE
  5
A09B
330
1E
100
AcDbEntity
  8
10
100
AcDbLine
 10
337.8999999999998
 20
55.5
 30
0.0
 11
337.8999999999998
 21
116.0
 31
0.0
  0
LINE
  5
A09C
330
1E
100
AcDbEntity
  8
10
100
AcDbLine
 10
256.0412849999997
 20
61.83740999999997
 30
0.0
 11
295.7530049999998
 21
53.38623500000005
 31
0.0
  0
ARC
  5
A09D
330
1E
100
AcDbEntity
  8
10
100
AcDbCircle
 10
257.4983449999997
 20
68.68408499999998
 30
0.0
 40
6.999999999999997
100
AcDbArc
 50
199.3950959999986
 51
257.9859390000011
  0
LINE
  5
A09E
330
1E
100
AcDbEntity
  8
10
100
AcDbLine
 10
337.8999999999998
 20
55.5
 30
0.0
 11
334.3999999999998
 21
55.5
 31
0.0
  0
LINE
  5
A09F
330
1E
100
AcDbEntity
  8
10
100
AcDbLine
 10
340.3999999999998
 20
116.0
 30
0.0
 11
337.8999999999998
 21
116.0
 31
0.0
  0
LINE
  5
A0A0
330
1E
100
AcDbEntity
  8
17
100
AcDbLine
 10
569.3999999999997
 20
126.0
 30
0.0
 11
427.3999999999999
 21
126.0
 31
0.0
  0
LINE
  5
A0A1
330
1E
100
AcDbEntity
  8
21
100
AcDbLine
 10
474.3999999999998
 20
121.0
 30
0.0
 11
559.3999999999997
 21
121.0
 31
0.0
  0
LINE
  5
A0A2
330
1E
100
AcDbEntity
  8
21
100
AcDbLine
 10
468.3999999999998
 20
113.2
 30
0.0
 11
437.3999999999998
 21
113.2
 31
0.0
  0
LINE
  5
A0A3
330
1E
100
AcDbEntity
  8
21
100
AcDbLine
 10
470.3999999999998
 20
114.5
 30
0.0
 11
468.3999999999998
 21
114.5
 31
0.0
  0
ARC
  5
A0A4
330
1E
100
AcDbEntity
  8
21
100
AcDbCircle
 10
-478.3843599999999
 20
114.0627899999999
 30
0.0
 40
7.999999999999997
210
0.0
220
0.0
230
-1.0
100
AcDbArc
 50
3.132844000000278
 51
60.12926000000296
  0
LINE
  5
A0A5
330
1E
100
AcDbEntity
  8
10
100
AcDbLine
 10
437.3999999999998
 20
141.0
 30
0.0
 11
340.3999999999998
 21
141.0
 31
0.0
  0
LINE
  5
A0A6
330
1E
100
AcDbEntity
  8
21
100
AcDbLine
 10
474.3999999999998
 20
131.0
 30
0.0
 11
559.3999999999997
 21
131.0
 31
0.0
  0
LINE
  5
A0A7
330
1E
100
AcDbEntity
  8
21
100
AcDbLine
 10
470.3999999999998
 20
137.5
 30
0.0
 11
468.3999999999998
 21
137.5
 31
0.0
  0
LINE
  5
A0A8
330
1E
100
AcDbEntity
  8
21
100
AcDbLine
 10
468.3999999999998
 20
138.7999999999999
 30
0.0
 11
437.3999999999998
 21
138.7999999999999
 31
0.0
  0
ARC
  5
A0A9
330
1E
100
AcDbEntity
  8
21
100
AcDbCircle
 10
478.3843599999999
 20
137.93721
 30
0.0
 40
7.999999999999997
100
AcDbArc
 50
183.1328440000003
 51
240.1292600000028
  0
LINE
  5
A0E7
330
1E
100
AcDbEntity
  8
21
100
AcDbLine
 10
91.19999999999947
 20
455.1271619249112
 30
0.0
 11
91.19999999999947
 21
400.0399669249113
 31
0.0
  0
CIRCLE
  5
A0EA
330
1E
100
AcDbEntity
  8
17
100
AcDbCircle
 10
70.19999999999993
 20
437.1271619249112
 30
0.0
 40
6.499999999999997
  0
LINE
  5
A0EC
330
1E
100
AcDbEntity
  8
21
100
AcDbLine
 10
21.20000000000004
 20
455.1271619249112
 30
0.0
 11
21.20000000000004
 21
400.0399669249113
 31
0.0
  0
LINE
  5
A0ED
330
1E
100
AcDbEntity
  8
21
100
AcDbLine
 10
-20.80000000000018
 20
455.1271619249112
 30
0.0
 11
-20.80000000000018
 21
400.0399669249113
 31
0.0
  0
LINE
  5
A0EE
330
1E
100
AcDbEntity
  8
21
100
AcDbLine
 10
-90.80000000000017
 20
455.1271619249112
 30
0.0
 11
-90.80000000000017
 21
400.0399669249113
 31
0.0
  0
LINE
  5
A0EF
330
1E
100
AcDbEntity
  8
21
100
AcDbLine
 10
49.1999999999997
 20
455.1271619249112
 30
0.0
 11
49.1999999999997
 21
400.0399669249113
 31
0.0
  0
LINE
  5
A0F0
330
1E
100
AcDbEntity
  8
21
100
AcDbLine
 10
-48.80000000000006
 20
455.1271619249112
 30
0.0
 11
-48.80000000000006
 21
400.0399669249113
 31
0.0
  0
CIRCLE
  5
A0F1
330
1E
100
AcDbEntity
  8
17
100
AcDbCircle
 10
-69.79999999999995
 20
437.1271619249112
 30
0.0
 40
6.499999999999997
  0
CIRCLE
  5
A0F2
330
1E
100
AcDbEntity
  8
17
100
AcDbCircle
 10
0.2000000000000455
 20
437.1271619249112
 30
0.0
 40
6.499999999999997
  0
LINE
  5
A0F3
330
1E
100
AcDbEntity
  8
17
100
AcDbLine
 10
100.1999999999999
 20
405.1271619249112
 30
0.0
 11
40.19999999999948
 21
405.1271619249112
 31
0.0
  0
LINE
  5
A0F4
330
1E
100
AcDbEntity
  8
17
100
AcDbLine
 10
100.1999999999999
 20
397.1271619249112
 30
0.0
 11
40.19999999999948
 21
397.1271619249112
 31
0.0
  0
LINE
  5
A0F5
330
1E
100
AcDbEntity
  8
17
100
AcDbLine
 10
100.1999999999999
 20
437.1271619249112
 30
0.0
 11
40.19999999999948
 21
437.1271619249112
 31
0.0
  0
LINE
  5
A0F6
330
1E
100
AcDbEntity
  8
21
100
AcDbLine
 10
81.69999999999959
 20
372.1271619249112
 30
0.0
 11
58.69999999999982
 21
372.1271619249112
 31
0.0
  0
LINE
  5
A0F7
330
1E
100
AcDbEntity
  8
21
100
AcDbLine
 10
57.39999999999975
 20
366.1271619249112
 30
0.0
 11
82.99999999999954
 21
366.1271619249112
 31
0.0
  0
LINE
  5
A0F8
330
1E
100
AcDbEntity
  8
17
100
AcDbLine
 10
6.699999999999818
 20
397.1271619249112
 30
0.0
 11
6.699999999999818
 21
405.1271619249112
 31
0.0
  0
LINE
  5
A0F9
330
1E
100
AcDbEntity
  8
17
100
AcDbLine
 10
-6.299999999999954
 20
397.1271619249112
 30
0.0
 11
-6.299999999999954
 21
405.1271619249112
 31
0.0
  0
LINE
  5
A0FA
330
1E
100
AcDbEntity
  8
17
100
AcDbLine
 10
-63.29999999999995
 20
397.1271619249112
 30
0.0
 11
-63.29999999999995
 21
405.1271619249112
 31
0.0
  0
LINE
  5
A0FB
330
1E
100
AcDbEntity
  8
17
100
AcDbLine
 10
-76.30000000000018
 20
397.1271619249112
 30
0.0
 11
-76.30000000000018
 21
405.1271619249112
 31
0.0
  0
ELLIPSE
  5
A0FC
330
1E
100
AcDbEntity
  8
21
100
AcDbEllipse
 10
-75.80000000000024
 20
400.0377319249113
 30
0.0
 11
0.0000000000000583
 21
29.99999999999994
 31
0.0
210
0.0
220
0.0
230
1.0
 40
0.5000000000000006
 41
1.570721942727706
 42
2.766169045608754
  0
ELLIPSE
  5
A0FD
330
1E
100
AcDbEntity
  8
21
100
AcDbEllipse
 10
-63.80000000000001
 20
400.0377319249113
 30
0.0
 11
-0.0000000000000583
 21
29.99999999999994
 31
0.0
210
0.0
220
0.0
230
-1.0
 40
0.5000000000000006
 41
1.570721942727706
 42
2.766169045608754
  0
ELLIPSE
  5
A0FE
330
1E
100
AcDbEntity
  8
21
100
AcDbEllipse
 10
6.199999999999761
 20
400.0377319249113
 30
0.0
 11
-0.0000000000000273
 21
29.99999999999996
 31
0.0
210
0.0
220
0.0
230
-1.0
 40
0.5000000000000002
 41
1.570721942727706
 42
2.766169045608751
  0
ELLIPSE
  5
A0FF
330
1E
100
AcDbEntity
  8
21
100
AcDbEllipse
 10
64.19999999999951
 20
400.0377319249113
 30
0.0
 11
0.0000000000000556
 21
29.9999999999999
 31
0.0
210
0.0
220
0.0
230
1.0
 40
0.5000000000000016
 41
1.570721942727706
 42
2.766169045608759
  0
ELLIPSE
  5
A100
330
1E
100
AcDbEntity
  8
21
100
AcDbEllipse
 10
-5.800000000000238
 20
400.0377319249113
 30
0.0
 11
0.0000000000000492
 21
29.99999999999996
 31
0.0
210
0.0
220
0.0
230
1.0
 40
0.5000000000000006
 41
1.570721942727706
 42
2.766169045608754
  0
LINE
  5
A101
330
1E
100
AcDbEntity
  8
17
100
AcDbLine
 10
-39.79999999999995
 20
397.1271619249112
 30
0.0
 11
-99.80000000000018
 21
397.1271619249112
 31
0.0
  0
LINE
  5
A102
330
1E
100
AcDbEntity
  8
21
100
AcDbLine
 10
-82.60000000000013
 20
366.1271619249112
 30
0.0
 11
-57.00000000000023
 21
366.1271619249112
 31
0.0
  0
LINE
  5
A103
330
1E
100
AcDbEntity
  8
21
100
AcDbLine
 10
-58.30000000000007
 20
372.1271619249112
 30
0.0
 11
-81.30000000000018
 21
372.1271619249112
 31
0.0
  0
LINE
  5
A104
330
1E
100
AcDbEntity
  8
21
100
AcDbLine
 10
-81.30000000000018
 20
372.1271619249112
 30
0.0
 11
-81.30000000000018
 21
366.1271619249112
 31
0.0
  0
ARC
  5
A105
330
1E
100
AcDbEntity
  8
1
  6
Continuous
 62
     2
100
AcDbCircle
 10
-69.79999999999995
 20
397.1271619249112
 30
0.0
 40
6.499999999999997
100
AcDbArc
 50
180.0
 51
0.0
  0
LINE
  5
A106
330
1E
100
AcDbEntity
  8
21
100
AcDbLine
 10
11.69999999999981
 20
372.1271619249112
 30
0.0
 11
-11.29999999999995
 21
372.1271619249112
 31
0.0
  0
LINE
  5
A107
330
1E
100
AcDbEntity
  8
21
100
AcDbLine
 10
-12.60000000000025
 20
366.1271619249112
 30
0.0
 11
12.99999999999977
 21
366.1271619249112
 31
0.0
  0
LINE
  5
A108
330
1E
100
AcDbEntity
  8
21
100
AcDbLine
 10
-58.30000000000007
 20
372.1271619249112
 30
0.0
 11
-58.30000000000007
 21
366.1271619249112
 31
0.0
  0
LINE
  5
A109
330
1E
100
AcDbEntity
  8
21
100
AcDbLine
 10
-11.29999999999995
 20
372.1271619249112
 30
0.0
 11
-11.29999999999995
 21
366.1271619249112
 31
0.0
  0
LINE
  5
A10A
330
1E
100
AcDbEntity
  8
21
100
AcDbLine
 10
11.69999999999981
 20
372.1271619249112
 30
0.0
 11
11.69999999999981
 21
366.1271619249112
 31
0.0
  0
LINE
  5
A10B
330
1E
100
AcDbEntity
  8
21
100
AcDbLine
 10
58.69999999999982
 20
372.1271619249112
 30
0.0
 11
58.69999999999982
 21
366.1271619249112
 31
0.0
  0
ARC
  5
A10C
330
1E
100
AcDbEntity
  8
1
  6
Continuous
 62
     2
100
AcDbCircle
 10
0.2000000000000455
 20
397.1271619249112
 30
0.0
 40
6.499999999999997
100
AcDbArc
 50
180.0
 51
0.0
  0
LINE
  5
A10D
330
1E
100
AcDbEntity
  8
17
100
AcDbLine
 10
30.1999999999997
 20
397.1271619249112
 30
0.0
 11
-29.80000000000007
 21
397.1271619249112
 31
0.0
  0
LINE
  5
A10E
330
1E
100
AcDbEntity
  8
17
100
AcDbLine
 10
-39.79999999999995
 20
437.1271619249112
 30
0.0
 11
-99.80000000000018
 21
437.1271619249112
 31
0.0
  0
LINE
  5
A10F
330
1E
100
AcDbEntity
  8
17
100
AcDbLine
 10
-39.79999999999995
 20
405.1271619249112
 30
0.0
 11
-99.80000000000018
 21
405.1271619249112
 31
0.0
  0
ARC
  5
A110
330
1E
100
AcDbEntity
  8
17
100
AcDbCircle
 10
-69.79999999999995
 20
405.1271619249112
 30
0.0
 40
6.499999999999997
100
AcDbArc
 50
0.0
 51
180.0
  0
LINE
  5
A111
330
1E
100
AcDbEntity
  8
17
100
AcDbLine
 10
30.1999999999997
 20
405.1271619249112
 30
0.0
 11
-29.80000000000007
 21
405.1271619249112
 31
0.0
  0
ARC
  5
A112
330
1E
100
AcDbEntity
  8
17
100
AcDbCircle
 10
0.2000000000000455
 20
405.1271619249112
 30
0.0
 40
6.499999999999997
100
AcDbArc
 50
0.0
 51
180.0
  0
LINE
  5
A113
330
1E
100
AcDbEntity
  8
17
100
AcDbLine
 10
30.1999999999997
 20
437.1271619249112
 30
0.0
 11
-29.80000000000007
 21
437.1271619249112
 31
0.0
  0
LINE
  5
A116
330
1E
100
AcDbEntity
  8
17
100
AcDbLine
 10
63.69999999999982
 20
397.1271619249112
 30
0.0
 11
63.69999999999982
 21
405.1271619249112
 31
0.0
  0
LINE
  5
A117
330
1E
100
AcDbEntity
  8
17
100
AcDbLine
 10
76.69999999999959
 20
397.1271619249112
 30
0.0
 11
76.69999999999959
 21
405.1271619249112
 31
0.0
  0
ELLIPSE
  5
A118
330
1E
100
AcDbEntity
  8
21
100
AcDbEllipse
 10
76.19999999999959
 20
400.0377319249113
 30
0.0
 11
0.0000000000000082
 21
29.99999999999996
 31
0.0
210
0.0
220
0.0
230
-1.0
 40
0.5000000000000002
 41
1.570721942727706
 42
2.766169045608751
  0
LINE
  5
A11C
330
1E
100
AcDbEntity
  8
21
100
AcDbLine
 10
81.69999999999959
 20
372.1271619249112
 30
0.0
 11
81.69999999999959
 21
366.1271619249112
 31
0.0
  0
ARC
  5
A122
330
1E
100
AcDbEntity
  8
1
  6
Continuous
 62
     2
100
AcDbCircle
 10
70.19999999999993
 20
397.1271619249112
 30
0.0
 40
6.499999999999997
100
AcDbArc
 50
180.0
 51
0.0
  0
ARC
  5
A126
330
1E
100
AcDbEntity
  8
17
100
AcDbCircle
 10
70.19999999999993
 20
405.1271619249112
 30
0.0
 40
6.499999999999997
100
AcDbArc
 50
0.0
 51
180.0
  0
LINE
  5
A129
330
1E
100
AcDbEntity
  8
21
100
AcDbLine
 10
89.19999999999959
 20
457.1271619249111
 30
0.0
 11
51.19999999999993
 21
457.1271619249111
 31
0.0
  0
DIMENSION
  5
A12A
330
1E
100
AcDbEntity
  8
30
  6
Continuous
100
AcDbDimension
  2
*D22
 10
70.1999999999999
 20
492.2230369249113
 30
0.0
 11
35.19999999999983
 21
498.2230369249113
 31
0.0
 70
    32
  1
 <> 
 71
     5
 42
70.00000000000014
  3
STANDARD1
100
AcDbAlignedDimension
 13
0.1999999999997612
 23
442.1271619249113
 33
0.0
 14
70.1999999999999
 24
442.1271619249113
 34
0.0
100
AcDbRotatedDimension
  0
DIMENSION
  5
A12B
330
1E
100
AcDbEntity
  8
30
  6
Continuous
100
AcDbDimension
  2
*D23
 10
0.1999999999997643
 20
492.2230369249113
 30
0.0
 11
-34.80000000000023
 21
498.2230369249113
 31
0.0
 70
    32
  1
 <> 
 71
     5
 42
70.0
  3
STANDARD1
100
AcDbAlignedDimension
 13
-69.80000000000024
 23
442.1271619249113
 33
0.0
 14
0.1999999999997612
 24
442.1271619249113
 34
0.0
100
AcDbRotatedDimension
  0
LINE
  5
A12C
330
1E
100
AcDbEntity
  8
21
100
AcDbLine
 10
-50.79999999999995
 20
457.1271619249111
 30
0.0
 11
-88.80000000000018
 21
457.1271619249111
 31
0.0
  0
ARC
  5
A12D
330
1E
100
AcDbEntity
  8
21
100
AcDbCircle
 10
-88.80000000000018
 20
455.1271619249112
 30
0.0
 40
1.999999999999999
100
AcDbArc
 50
90.0
 51
180.0
  0
LINE
  5
A12E
330
1E
100
AcDbEntity
  8
21
100
AcDbLine
 10
19.19999999999981
 20
457.1271619249111
 30
0.0
 11
-18.79999999999995
 21
457.1271619249111
 31
0.0
  0
ARC
  5
A12F
330
1E
100
AcDbEntity
  8
21
100
AcDbCircle
 10
-18.79999999999995
 20
455.1271619249112
 30
0.0
 40
1.999999999999999
100
AcDbArc
 50
90.0
 51
180.0
  0
ARC
  5
A130
330
1E
100
AcDbEntity
  8
21
100
AcDbCircle
 10
-50.79999999999995
 20
455.1271619249112
 30
0.0
 40
1.999999999999999
100
AcDbArc
 50
0.0
 51
90.0
  0
ARC
  5
A131
330
1E
100
AcDbEntity
  8
21
100
AcDbCircle
 10
19.19999999999981
 20
455.1271619249112
 30
0.0
 40
1.999999999999999
100
AcDbArc
 50
0.0
 51
90.0
  0
ARC
  5
A132
330
1E
100
AcDbEntity
  8
21
100
AcDbCircle
 10
51.19999999999993
 20
455.1271619249112
 30
0.0
 40
1.999999999999999
100
AcDbArc
 50
90.0
 51
180.0
  0
ARC
  5
A135
330
1E
100
AcDbEntity
  8
21
100
AcDbCircle
 10
89.19999999999959
 20
455.1271619249112
 30
0.0
 40
1.999999999999999
100
AcDbArc
 50
0.0
 51
90.0
  0
DIMENSION
  5
A86C
330
1E
100
AcDbEntity
  8
30
  6
Continuous
100
AcDbDimension
  2
*D24
 10
-150.5191388944172
 20
-131.9999999999999
 30
0.0
 11
-156.5191388944172
 21
4.500000000000023
 31
0.0
 70
    32
 71
     5
 42
272.9999999999999
  3
STANDARD1
100
AcDbAlignedDimension
 13
-105.0000000000001
 23
141.0
 33
0.0
 14
-105.0
 24
-131.9999999999999
 34
0.0
 50
90.0
100
AcDbRotatedDimension
  0
DIMENSION
  5
A92E
330
1E
100
AcDbEntity
  8
30
  6
Continuous
100
AcDbDimension
  2
*D26
 10
437.3999999999998
 20
-169.0532887500314
 30
0.0
 11
388.8999999999998
 21
-163.0532887500314
 31
0.0
 70
    32
 71
     5
 42
97.0
  3
STANDARD1
100
AcDbAlignedDimension
 13
340.3999999999998
 23
-131.9999999999999
 33
0.0
 14
437.3999999999998
 24
-131.9999999999999
 34
0.0
100
AcDbRotatedDimension
  0
DIMENSION
  5
A94D
330
1E
100
AcDbEntity
  8
30
  6
Continuous
100
AcDbDimension
  2
*D30
 10
559.3999999999997
 20
-187.1203109059123
 30
0.0
 11
498.3999999999998
 21
-181.1203109059123
 31
0.0
 70
    32
 71
     5
 42
121.9999999999998
  3
STANDARD1
100
AcDbAlignedDimension
 13
437.3999999999998
 23
-187.1203109059123
 33
0.0
 14
559.3999999999997
 24
-135.9999999999999
 34
0.0
100
AcDbRotatedDimension
  0
DIMENSION
  5
A94E
330
1E
100
AcDbEntity
  8
30
  6
Continuous
100
AcDbDimension
  2
*D28
 10
539.3999999999997
 20
-169.0532887500314
 30
0.0
 11
523.3999999999999
 21
-163.0532887500314
 31
0.0
 70
    32
 71
     5
 42
31.99999999999988
  3
STANDARD1
100
AcDbAlignedDimension
 13
507.3999999999998
 23
-146.9999999999999
 33
0.0
 14
539.3999999999997
 24
-162.7499999999999
 34
0.0
100
AcDbRotatedDimension
  0
DIMENSION
  5
A94F
330
1E
100
AcDbEntity
  8
30
  6
Continuous
100
AcDbDimension
  2
*D27
 10
499.3999999999998
 20
-169.0532887500314
 30
0.0
 11
468.3999999999998
 21
-163.0532887500314
 31
0.0
 70
    32
 71
     5
 42
62.0
  3
STANDARD1
100
AcDbAlignedDimension
 13
437.3999999999998
 23
-169.0532887500314
 33
0.0
 14
499.3999999999998
 24
-149.9999999999999
 34
0.0
100
AcDbRotatedDimension
  0
DIMENSION
  5
A950
330
1E
100
AcDbEntity
  8
30
  6
Continuous
100
AcDbDimension
  2
*D29
 10
559.3999999999997
 20
-169.0532887500314
 30
0.0
 11
549.3999999999997
 21
-163.0532887500314
 31
0.0
 70
    32
 71
     5
 42
20.0
  3
STANDARD1
100
AcDbAlignedDimension
 13
539.3999999999997
 23
-146.9999999999999
 33
0.0
 14
559.3999999999997
 24
-135.9999999999999
 34
0.0
100
AcDbRotatedDimension
  0
DIMENSION
  5
A9DB
330
1E
100
AcDbEntity
  8
30
  6
Continuous
100
AcDbDimension
  2
*D31
 10
507.3999999999998
 20
-169.0532887500314
 30
0.0
 11
503.3999999999998
 21
-169.0532887500314
 31
0.0
 70
   160
 71
     5
 42
8.0
  3
STANDARD1
100
AcDbAlignedDimension
 13
499.3999999999998
 23
-146.9999999999999
 33
0.0
 14
507.3999999999998
 24
-146.9999999999999
 34
0.0
100
AcDbRotatedDimension
1001
ACAD
1000
DSTYLE
1002
{
1070
   172
1070
     1
1002
}
  0
DIMENSION
  5
AA15
330
1E
100
AcDbEntity
  8
30
  6
Continuous
100
AcDbDimension
  2
*D32
 10
534.6744467862414
 20
-122.3263733676347
 30
0.0
 11
571.4130359896462
 21
-84.09857168299893
 31
0.0
 70
   163
 71
     5
 42
12.99999999999982
  3
STANDARD1
100
AcDbDiametricDimension
 15
542.1255532137595
 25
-111.6736266323652
 35
0.0
 40
0.0
  0
DIMENSION
  5
AE89
330
1E
100
AcDbEntity
  8
30
  6
Continuous
100
AcDbDimension
  2
*D33
 10
-34.45185586502276
 20
-236.8594979246121
 30
0.0
 11
-50.24744083389292
 21
-194.9123890902475
 31
0.0
 70
   163
  1
M6
 71
     5
 42
6.000000000000113
  3
STANDARD1
100
AcDbDiametricDimension
 15
-35.54814413497769
 25
-230.9605020753882
 35
0.0
 40
0.0
  0
DIMENSION
  5
AF7E
330
1E
100
AcDbEntity
  8
30
  6
Continuous
100
AcDbDimension
  2
*D34
 10
587.5799087336529
 20
0.0000000000002194
 30
0.0
 11
581.5799087336529
 21
63.00000000000021
 31
0.0
 70
    32
 71
     5
 42
125.9999999999997
  3
STANDARD1
100
AcDbAlignedDimension
 13
559.3999999999997
 23
126.0
 33
0.0
 14
559.3999999999997
 24
0.0000000000002274
 34
0.0
 50
90.0
100
AcDbRotatedDimension
  0
DIMENSION
  5
AF8B
330
1E
100
AcDbEntity
  8
30
  6
Continuous
100
AcDbDimension
  2
*D35
 10
587.5799087336529
 20
0.0000000000002194
 30
0.0
 11
581.5799087336529
 21
-58.49999999999974
 31
0.0
 70
    32
 71
     5
 42
117.0000000000001
  3
STANDARD1
100
AcDbAlignedDimension
 13
559.3999999999997
 23
-116.9999999999999
 33
0.0
 14
587.5799087336529
 24
0.0000000000002194
 34
0.0
 50
90.0
100
AcDbRotatedDimension
  0
DIMENSION
  5
B09B
330
1E
100
AcDbEntity
  8
30
  6
Continuous
100
AcDbDimension
  2
*D36
 10
175.9692079724308
 20
-218.9999999999997
 30
0.0
 11
175.9692079724309
 21
-221.4999999999997
 31
0.0
 70
   160
 71
     5
 42
5.0
  3
STANDARD1
100
AcDbAlignedDimension
 13
105.9999999999999
 23
-223.9999999999997
 33
0.0
 14
104.9999999999999
 24
-218.9999999999997
 34
0.0
 50
90.0
100
AcDbRotatedDimension
1001
ACAD
1000
DSTYLE
1002
{
1070
   172
1070
     1
1002
}
  0
DIMENSION
  5
B0DA
330
1E
100
AcDbEntity
  8
30
  6
Continuous
100
AcDbDimension
  2
*D37
 10
35.13723934306857
 20
-480.9976449770728
 30
0.0
 11
42.41064432815465
 21
-459.8326579784909
 31
0.0
 70
   163
 71
     5
 42
8.000000000000852
  3
STANDARD1
100
AcDbDiametricDimension
 15
34.86276065693174
 25
-473.0023550229265
 35
0.0
 40
0.0
  0
DIMENSION
  5
BAA4
330
1E
100
AcDbEntity
  8
30
  6
Continuous
100
AcDbDimension
  2
*D38
 10
-76.66704672850578
 20
-500.0553787199414
 30
0.0
 11
-51.22177881674343
 21
-444.1020581600687
 31
0.0
 70
    35
 71
     5
 42
47.99999999999977
  3
STANDARD1
100
AcDbDiametricDimension
 15
-63.33295327149435
 25
-453.944621280059
 35
0.0
 40
0.0
1001
ACAD
1000
DSTYLE
1002
{
1070
   279
1070
     1
1002
}
  0
DIMENSION
  5
BCC2
330
1E
100
AcDbEntity
  8
30
  6
Continuous
100
AcDbDimension
  2
*D39
 10
-108.7126853428324
 20
-335.6537738852213
 30
0.0
 11
-134.6525419961517
 21
-312.7745869229618
 31
0.0
 70
   163
 71
     5
 42
14.99999999999994
  3
STANDARD1
100
AcDbDiametricDimension
 15
-117.2873146571675
 25
-323.3462261147781
 35
0.0
 40
0.0
  0
CIRCLE
  5
C0B5
330
1E
100
AcDbEntity
  8
10
  6
CONTINOUS
100
AcDbCircle
 10
64.19999999999982
 20
-8.5
 30
0.0
 40
3.499999999999998
  0
LWPOLYLINE
  5
C0B6
330
1E
100
AcDbEntity
  8
10
  6
CONTINOUS
100
AcDbPolyline
 90
        4
 70
     1
 43
0.0
 10
60.20000000000021
 20
-23.99999999999991
 10
68.20000000000021
 20
-23.99999999999991
 10
68.20000000000021
 20
-27.00000000000001
 10
60.20000000000021
 20
-27.00000000000001
  0
LWPOLYLINE
  5
C0B7
330
1E
100
AcDbEntity
  8
10
  6
CONTINOUS
100
AcDbPolyline
 90
        4
 70
     1
 43
0.0
 10
60.20000000000021
 20
-18.99999999999988
 10
68.20000000000021
 20
-18.99999999999988
 10
68.20000000000021
 20
-22.00000000000001
 10
60.20000000000021
 20
-22.00000000000001
  0
CIRCLE
  5
C0B8
330
1E
100
AcDbEntity
  8
10
  6
CONTINOUS
100
AcDbCircle
 10
64.19999999999982
 20
6.5
 30
0.0
 40
3.499999999999998
  0
CIRCLE
  5
C0B9
330
1E
100
AcDbEntity
  8
10
  6
CONTINOUS
100
AcDbCircle
 10
64.19999999999982
 20
6.5
 30
0.0
 40
4.749999999999998
  0
LWPOLYLINE
  5
C0BA
330
1E
100
AcDbEntity
  8
10
  6
CONTINOUS
100
AcDbPolyline
 90
        4
 70
     1
 43
0.0
 10
19.0
 20
-29.69999999999998
 10
24.5
 20
-29.69999999999998
 10
24.5
 20
-36.59999999999996
 10
19.0
 20
-36.59999999999996
  0
DIMENSION
  5
C1D2
330
1E
100
AcDbEntity
  8
30
  6
Continuous
100
AcDbDimension
  2
*D40
 10
526.1580735902952
 20
-123.4999999999996
 30
0.0
 11
526.1580735902952
 21
-116.9999999999997
 31
0.0
 70
   160
 71
     5
 42
12.9999999999998
  3
STANDARD1
100
AcDbAlignedDimension
 13
507.3999999999998
 23
-110.4999999999999
 33
0.0
 14
507.3999999999998
 24
-123.4999999999996
 34
0.0
 50
90.0
100
AcDbRotatedDimension
  0
LINE
  5
C1EA
330
1E
100
AcDbEntity
  8
17
100
AcDbLine
 10
552.2821262974019
 20
-117.1116004490122
 30
0.0
 11
516.6397662918683
 21
-117.0
 31
0.0
  0
LWPOLYLINE
  5
C41B
330
1E
100
AcDbEntity
  8
10
  6
Continuous
100
AcDbPolyline
 90
        4
 70
     0
 43
0.0
 10
330.3999999999998
 20
11.25
 10
326.8999999999998
 20
11.25
 10
326.8999999999998
 20
1.749999999999971
 10
330.3999999999998
 20
1.749999999999971
  0
LWPOLYLINE
  5
C41C
330
1E
100
AcDbEntity
  8
10
  6
Continuous
100
AcDbPolyline
 90
        4
 70
     0
 43
0.0
 10
326.8999999999998
 20
10.0
 10
323.8999999999998
 20
10.0
 10
323.8999999999998
 20
2.999999999999971
 10
326.8999999999998
 20
2.999999999999971
  0
LWPOLYLINE
  5
C423
330
1E
100
AcDbEntity
  8
10
  6
Continuous
100
AcDbPolyline
 90
        4
 70
     0
 43
0.0
 10
59.75205105019319
 20
228.1271619249121
 10
59.75205105019319
 20
224.627161924912
 10
69.25205105019319
 20
224.627161924912
 10
69.25205105019319
 20
228.1271619249121
  0
LWPOLYLINE
  5
C424
330
1E
100
AcDbEntity
  8
10
  6
Continuous
100
AcDbPolyline
 90
        4
 70
     0
 43
0.0
 10
61.00205105019319
 20
224.627161924912
 10
61.00205105019319
 20
221.6271619249121
 10
68.00205105019319
 20
221.6271619249121
 10
68.00205105019319
 20
224.627161924912
  0
LINE
  5
C470
330
1E
100
AcDbEntity
  8
10
  6
Continuous
100
AcDbLine
 10
326.8999999999998
 20
-13.25
 30
0.0
 11
326.8999999999998
 21
-3.75
 31
0.0
  0
LINE
  5
C471
330
1E
100
AcDbEntity
  8
10
  6
Continuous
100
AcDbLine
 10
324.7999999999998
 20
-12.0
 30
0.0
 11
324.7999999999998
 21
-5.0
 31
0.0
  0
LINE
  5
C472
330
1E
100
AcDbEntity
  8
10
  6
Continuous
100
AcDbLine
 10
326.8999999999998
 20
-13.25
 30
0.0
 11
330.3999999999998
 21
-13.25
 31
0.0
  0
LINE
  5
C473
330
1E
100
AcDbEntity
  8
10
  6
Continuous
100
AcDbLine
 10
324.7999999999998
 20
-12.0
 30
0.0
 11
326.8999999999998
 21
-12.0
 31
0.0
  0
LINE
  5
C474
330
1E
100
AcDbEntity
  8
10
  6
Continuous
100
AcDbLine
 10
324.7999999999998
 20
-5.0
 30
0.0
 11
326.8999999999998
 21
-5.0
 31
0.0
  0
LINE
  5
C475
330
1E
100
AcDbEntity
  8
10
  6
Continuous
100
AcDbLine
 10
326.8999999999998
 20
-3.75
 30
0.0
 11
330.3999999999998
 21
-3.75
 31
0.0
  0
CIRCLE
  5
C4A5
330
1E
100
AcDbEntity
  8
10
  6
Continuous
100
AcDbCircle
 10
64.1999999999997
 20
17.5
 30
0.0
 40
1.5
  0
VIEWPORT
  5
9AC
330
1A
100
AcDbEntity
 67
     1
  8
0
  6
Continuous
100
AcDbViewport
 10
171.999535
 20
144.1384739999999
 30
0.0
 40
488.867686
 41
292.351491
 68
    -1
 69
     1
 12
171.999535
 22
144.1384739999999
 13
0.0
 23
0.0
 14
10.0
 24
10.0
 15
10.0
 25
10.0
 16
0.0
 26
0.0
 36
1.0
 17
0.0
 27
0.0
 37
0.0
 42
50.0
 43
0.0
 44
0.0
 45
292.351491
 50
0.0
 51
0.0
 72
   100
 90
    32800
  1

281
     0
 71
     1
 74
     0
110
0.0
120
0.0
130
0.0
111
1.0
121
0.0
131
0.0
112
0.0
122
1.0
132
0.0
 79
     0
146
0.0
  0
ENDSEC
  0
SECTION
  2
OBJECTS
  0
DICTIONARY
  5
C
330
0
100
AcDbDictionary
281
     1
  3
ACAD_GROUP
350
D
  3
ACAD_LAYOUT
350
19
  3
ACAD_MLINESTYLE
350
16
  3
ACAD_PLOTSETTINGS
350
18
  3
ACAD_PLOTSTYLENAME
350
E
  3
ACADDIM
350
6D5E
  3
ACDBHEADERROUNDTRIPXREC
350
C770
  3
ACDBVARIABLEDICTIONARY
350
5697
  0
DICTIONARY
  5
178
330
1E
100
AcDbDictionary
280
     1
281
     1
  3
ACAD_LAYOUTSELFREF
360
98E8
  0
DICTIONARY
  5
17A
330
1A
100
AcDbDictionary
280
     1
281
     1
  3
ACAD_LAYOUTSELFREF
360
98E7
  0
DICTIONARY
  5
D
102
{ACAD_REACTORS
330
C
102
}
330
C
100
AcDbDictionary
281
     1
  0
DICTIONARY
  5
19
102
{ACAD_REACTORS
330
C
102
}
330
C
100
AcDbDictionary
281
     1
  3
Model
350
9913
  3
ﾚｲｱｳﾄ1
350
9914
  0
DICTIONARY
  5
16
102
{ACAD_REACTORS
330
C
102
}
330
C
100
AcDbDictionary
281
     1
  3
STANDARD
350
17
  0
DICTIONARY
  5
18
102
{ACAD_REACTORS
330
C
102
}
330
C
100
AcDbDictionary
281
     1
  0
ACDBDICTIONARYWDFLT
  5
E
102
{ACAD_REACTORS
330
C
102
}
330
C
100
AcDbDictionary
281
     1
  3
Normal
350
F
100
AcDbDictionaryWithDefault
340
F
  0
XRECORD
  5
6D5E
102
{ACAD_REACTORS
330
C
102
}
330
C
100
AcDbXrecord
280
     1
 90
   990106
  3

 60
     0
 61
     0
 62
     1
 63
     3
 64
     0
 65
     0
 66
     0
 67
     3
 68
     1
 69
     0
 70
     0
 71
     0
 72
     0
 40
0.0
170
     0
340
7CA9
  0
DICTIONARY
  5
C770
102
{ACAD_REACTORS
330
C
102
}
330
C
100
AcDbDictionary
281
     1
  3
CEPSNTYPE
350
C77A
  3
DIMSTYLEDATA
350
C77E
  3
FINGERPRINTGUID
350
C77B
  3
HYPERLINKBASE
350
C773
  3
INSUNITS
350
C779
  3
LAYOUTDICT
350
C775
  3
LWETCUNION
350
C778
  3
PLOTSETDICT
350
C776
  3
PLOTSTYLNAMDICT
350
C777
  3
PSVPSCALE
350
C77D
  3
PUCSBASE
350
C781
  3
PUCSORGBACK
350
C787
  3
PUCSORGBOTTOM
350
C783
  3
PUCSORGFRONT
350
C786
  3
PUCSORGLEFT
350
C784
  3
PUCSORGRIGHT
350
C785
  3
PUCSORGTOP
350
C782
  3
PUCSORTHOREF
350
C77F
  3
PUCSORTHOVIEW
350
C780
  3
STYLESHEET
350
C774
  3
TSTACKALIGN
350
C771
  3
TSTACKSIZE
350
C772
  3
UCSBASE
350
C78A
  3
UCSORGBACK
350
C790
  3
UCSORGBOTTOM
350
C78C
  3
UCSORGFRONT
350
C78F
  3
UCSORGLEFT
350
C78D
  3
UCSORGRIGHT
350
C78E
  3
UCSORGTOP
350
C78B
  3
UCSORTHOREF
350
C788
  3
UCSORTHOVIEW
350
C789
  3
VERSIONGUID
350
C77C
  0
DICTIONARY
  5
5697
102
{ACAD_REACTORS
330
C
102
}
330
C
100
AcDbDictionary
281
     1
  3
DIMASSOC
350
5698
  0
XRECORD
  5
98E8
102
{ACAD_REACTORS
330
178
102
}
330
178
100
AcDbXrecord
280
     1
340
1E
  0
XRECORD
  5
98E7
102
{ACAD_REACTORS
330
17A
102
}
330
17A
100
AcDbXrecord
280
     1
340
1A
  0
LAYOUT
  5
9913
102
{ACAD_REACTORS
330
19
102
}
330
19
100
AcDbPlotSettings
  1

  2
自動 RICOH IPSiO NX760 RPCS (PRINT_SERV 上)
  4
A4
  6
OLE1
 40
5.873749732971191
 41
5.873747825622557
 42
5.873748779296875
 43
5.873748779296875
 44
209.9733276367186
 45
296.9259948730469
 46
24.34
 47
36.72
 48
0.0
 49
0.0
140
0.0
141
0.0
142
1.0
143
5.0
 70
 11940
 72
     1
 73
     0
 74
     1
  7
monochrome.ctb
 75
     0
147
0.2
148
89.5460487772998
149
557.3840353210401
100
AcDbLayout
  1
Model
 70
     1
 71
     0
 10
0.0
 20
0.0
 11
12.0
 21
9.0
 12
0.0
 22
0.0
 32
0.0
 14
0.0
 24
0.0
 34
0.0
 15
0.0
 25
0.0
 35
0.0
146
0.0
 13
0.0
 23
0.0
 33
0.0
 16
1.0
 26
0.0
 36
0.0
 17
0.0
 27
1.0
 37
0.0
 76
     0
330
1E
  0
LAYOUT
  5
9914
102
{ACAD_REACTORS
330
19
102
}
330
19
100
AcDbPlotSettings
  1

  2
LBP5400
  4

  6

 40
0.0
 41
0.0
 42
0.0
 43
0.0
 44
0.0
 45
0.0
 46
0.0
 47
0.0
 48
0.0
 49
0.0
140
0.0
141
0.0
142
1.0
143
1.0
 70
   688
 72
     0
 73
     0
 74
     5
  7
monochrome.stb
 75
    16
147
1.0
148
0.0
149
0.0
100
AcDbLayout
  1
ﾚｲｱｳﾄ1
 70
     1
 71
     1
 10
-5.873749
 20
-5.87375
 11
204.099579
 21
291.1369009999999
 12
0.0
 22
0.0
 32
0.0
 14
4.273573
 24
5.205245999999998
 34
0.0
 15
194.610095
 25
283.0697009999996
 35
0.0
146
0.0
 13
0.0
 23
0.0
 33
0.0
 16
1.0
 26
0.0
 36
0.0
 17
0.0
 27
1.0
 37
0.0
 76
     0
330
1A
  0
MLINESTYLE
  5
17
102
{ACAD_REACTORS
330
16
102
}
330
16
100
AcDbMlineStyle
  2
STANDARD
 70
     0
  3

 62
   256
 51
90.0
 52
90.0
 71
     2
 49
0.5
 62
   256
  6
BYLAYER
 49
-0.5
 62
   256
  6
BYLAYER
  0
ACDBPLACEHOLDER
  5
F
102
{ACAD_REACTORS
330
E
102
}
330
E
  0
XRECORD
  5
C77A
102
{ACAD_REACTORS
330
C770
102
}
330
C770
100
AcDbXrecord
280
     1
 90
        0
  0
XRECORD
  5
C77E
102
{ACAD_REACTORS
330
C770
102
}
330
C770
100
AcDbXrecord
280
     1
1000
DSTYLE
1002
{
1070
   289
 70
     2
1070
   341
340
3B2
1070
   342
340
3B2
1002
}
  0
XRECORD
  5
C77B
102
{ACAD_REACTORS
330
C770
102
}
330
C770
100
AcDbXrecord
280
     1
  1

  0
XRECORD
  5
C773
102
{ACAD_REACTORS
330
C770
102
}
330
C770
100
AcDbXrecord
280
     1
  1

  0
XRECORD
  5
C779
102
{ACAD_REACTORS
330
C770
102
}
330
C770
100
AcDbXrecord
280
     1
 90
        0
  0
XRECORD
  5
C775
102
{ACAD_REACTORS
330
C770
102
}
330
C770
100
AcDbXrecord
280
     1
340
19
  0
XRECORD
  5
C778
102
{ACAD_REACTORS
330
C770
102
}
330
C770
100
AcDbXrecord
280
     1
 90
    10781
  0
XRECORD
  5
C776
102
{ACAD_REACTORS
330
C770
102
}
330
C770
100
AcDbXrecord
280
     1
340
18
  0
XRECORD
  5
C777
102
{ACAD_REACTORS
330
C770
102
}
330
C770
100
AcDbXrecord
280
     1
340
E
  0
XRECORD
  5
C77D
102
{ACAD_REACTORS
330
C770
102
}
330
C770
100
AcDbXrecord
280
     1
 40
0.0
  0
XRECORD
  5
C781
102
{ACAD_REACTORS
330
C770
102
}
330
C770
100
AcDbXrecord
280
     1
340
0
  0
XRECORD
  5
C787
102
{ACAD_REACTORS
330
C770
102
}
330
C770
100
AcDbXrecord
280
     1
 10
0.0
 20
0.0
 30
0.0
  0
XRECORD
  5
C783
102
{ACAD_REACTORS
330
C770
102
}
330
C770
100
AcDbXrecord
280
     1
 10
0.0
 20
0.0
 30
0.0
  0
XRECORD
  5
C786
102
{ACAD_REACTORS
330
C770
102
}
330
C770
100
AcDbXrecord
280
     1
 10
0.0
 20
0.0
 30
0.0
  0
XRECORD
  5
C784
102
{ACAD_REACTORS
330
C770
102
}
330
C770
100
AcDbXrecord
280
     1
 10
0.0
 20
0.0
 30
0.0
  0
XRECORD
  5
C785
102
{ACAD_REACTORS
330
C770
102
}
330
C770
100
AcDbXrecord
280
     1
 10
0.0
 20
0.0
 30
0.0
  0
XRECORD
  5
C782
102
{ACAD_REACTORS
330
C770
102
}
330
C770
100
AcDbXrecord
280
     1
 10
0.0
 20
0.0
 30
0.0
  0
XRECORD
  5
C77F
102
{ACAD_REACTORS
330
C770
102
}
330
C770
100
AcDbXrecord
280
     1
340
0
  0
XRECORD
  5
C780
102
{ACAD_REACTORS
330
C770
102
}
330
C770
100
AcDbXrecord
280
     1
 70
     0
  0
XRECORD
  5
C774
102
{ACAD_REACTORS
330
C770
102
}
330
C770
100
AcDbXrecord
280
     1
  1
monochrome.ctb
  0
XRECORD
  5
C771
102
{ACAD_REACTORS
330
C770
102
}
330
C770
100
AcDbXrecord
280
     1
 90
        1
  0
XRECORD
  5
C772
102
{ACAD_REACTORS
330
C770
102
}
330
C770
100
AcDbXrecord
280
     1
 90
       70
  0
XRECORD
  5
C78A
102
{ACAD_REACTORS
330
C770
102
}
330
C770
100
AcDbXrecord
280
     1
340
0
  0
XRECORD
  5
C790
102
{ACAD_REACTORS
330
C770
102
}
330
C770
100
AcDbXrecord
280
     1
 10
0.0
 20
0.0
 30
0.0
  0
XRECORD
  5
C78C
102
{ACAD_REACTORS
330
C770
102
}
330
C770
100
AcDbXrecord
280
     1
 10
0.0
 20
0.0
 30
0.0
  0
XRECORD
  5
C78F
102
{ACAD_REACTORS
330
C770
102
}
330
C770
100
AcDbXrecord
280
     1
 10
0.0
 20
0.0
 30
0.0
  0
XRECORD
  5
C78D
102
{ACAD_REACTORS
330
C770
102
}
330
C770
100
AcDbXrecord
280
     1
 10
0.0
 20
0.0
 30
0.0
  0
XRECORD
  5
C78E
102
{ACAD_REACTORS
330
C770
102
}
330
C770
100
AcDbXrecord
280
     1
 10
0.0
 20
0.0
 30
0.0
  0
XRECORD
  5
C78B
102
{ACAD_REACTORS
330
C770
102
}
330
C770
100
AcDbXrecord
280
     1
 10
0.0
 20
0.0
 30
0.0
  0
XRECORD
  5
C788
102
{ACAD_REACTORS
330
C770
102
}
330
C770
100
AcDbXrecord
280
     1
340
0
  0
XRECORD
  5
C789
102
{ACAD_REACTORS
330
C770
102
}
330
C770
100
AcDbXrecord
280
     1
 70
     0
  0
XRECORD
  5
C77C
102
{ACAD_REACTORS
330
C770
102
}
330
C770
100
AcDbXrecord
280
     1
  1
{10754C35-8E27-469F-A047-4461C26C2D48}
  0
DICTIONARYVAR
  5
5698
102
{ACAD_REACTORS
330
5697
102
}
330
5697
100
DictionaryVariables
280
     0
  1
1
  0
ENDSEC
  0
EOF
