  0
SECTION
  2
HEADER
  9
$ACADVER
  1
AC1015
  9
$ACADMAINTVER
 70
    20
  9
$DWGCODEPAGE
  3
ANSI_932
  9
$INSBASE
 10
0.0
 20
0.0
 30
0.0
  9
$EXTMIN
 10
-174.7393642051754
 20
-647.6248143520672
 30
0.0
  9
$EXTMAX
 10
608.6315567007407
 20
473.7402505954253
 30
0.0
  9
$LIMMIN
 10
-302.0
 20
-689.0
  9
$LIMMAX
 10
615.0
 20
462.0
  9
$ORTHOMODE
 70
     0
  9
$REGENMODE
 70
     1
  9
$FILLMODE
 70
     1
  9
$QTEXTMODE
 70
     0
  9
$MIRRTEXT
 70
     1
  9
$LTSCALE
 40
20.0
  9
$ATTMODE
 70
     1
  9
$TEXTSIZE
 40
5.0
  9
$TRACEWID
 40
0.05
  9
$TEXTSTYLE
  7
STANDARD1
  9
$CLAYER
  8
30
  9
$CELTYPE
  6
CONTINUOUS
  9
$CECOLOR
 62
   256
  9
$CELTSCALE
 40
1.0
  9
$DISPSILH
 70
     0
  9
$DIMSCALE
 40
1.0
  9
$DIMASZ
 40
2.0
  9
$DIMEXO
 40
3.0
  9
$DIMDLI
 40
0.5
  9
$DIMRND
 40
0.0
  9
$DIMDLE
 40
0.0
  9
$DIMEXE
 40
0.5
  9
$DIMTP
 40
0.0
  9
$DIMTM
 40
0.0
  9
$DIMTXT
 40
6.0
  9
$DIMCEN
 40
0.09
  9
$DIMTSZ
 40
0.0
  9
$DIMTOL
 70
     0
  9
$DIMLIM
 70
     0
  9
$DIMTIH
 70
     0
  9
$DIMTOH
 70
     1
  9
$DIMSE1
 70
     0
  9
$DIMSE2
 70
     0
  9
$DIMTAD
 70
     3
  9
$DIMZIN
 70
    12
  9
$DIMBLK
  1
OPEN
  9
$DIMASO
 70
     1
  9
$DIMSHO
 70
     1
  9
$DIMPOST
  1

  9
$DIMAPOST
  1

  9
$DIMALT
 70
     0
  9
$DIMALTD
 70
     2
  9
$DIMALTF
 40
25.4
  9
$DIMLFAC
 40
1.0
  9
$DIMTOFL
 70
     0
  9
$DIMTVP
 40
0.0
  9
$DIMTIX
 70
     0
  9
$DIMSOXD
 70
     0
  9
$DIMSAH
 70
     0
  9
$DIMBLK1
  1

  9
$DIMBLK2
  1

  9
$DIMSTYLE
  2
STANDARD1
  9
$DIMCLRD
 70
     0
  9
$DIMCLRE
 70
     0
  9
$DIMCLRT
 70
     0
  9
$DIMTFAC
 40
1.0
  9
$DIMGAP
 40
3.0
  9
$DIMJUST
 70
     0
  9
$DIMSD1
 70
     0
  9
$DIMSD2
 70
     0
  9
$DIMTOLJ
 70
     1
  9
$DIMTZIN
 70
     0
  9
$DIMALTZ
 70
     0
  9
$DIMALTTZ
 70
     0
  9
$DIMUPT
 70
     0
  9
$DIMDEC
 70
     1
  9
$DIMTDEC
 70
     1
  9
$DIMALTU
 70
     2
  9
$DIMALTTD
 70
     2
  9
$DIMTXSTY
  7
STANDARD
  9
$DIMAUNIT
 70
     0
  9
$DIMADEC
 70
     0
  9
$DIMALTRND
 40
0.0
  9
$DIMAZIN
 70
     0
  9
$DIMDSEP
 70
    46
  9
$DIMATFIT
 70
     2
  9
$DIMFRAC
 70
     0
  9
$DIMLDRBLK
  1
OPEN
  9
$DIMLUNIT
 70
     2
  9
$DIMLWD
 70
    -2
  9
$DIMLWE
 70
    -2
  9
$DIMTMOVE
 70
     0
  9
$LUNITS
 70
     2
  9
$LUPREC
 70
     4
  9
$SKETCHINC
 40
0.1
  9
$FILLETRAD
 40
0.0
  9
$AUNITS
 70
     0
  9
$AUPREC
 70
     0
  9
$MENU
  1
.
  9
$ELEVATION
 40
0.0
  9
$PELEVATION
 40
0.0
  9
$THICKNESS
 40
0.0
  9
$LIMCHECK
 70
     0
  9
$CHAMFERA
 40
0.0
  9
$CHAMFERB
 40
0.0
  9
$CHAMFERC
 40
0.0
  9
$CHAMFERD
 40
0.0
  9
$SKPOLY
 70
     0
  9
$TDCREATE
 40
2452286.555658658
  9
$TDUCREATE
 40
2452286.180658658
  9
$TDUPDATE
 40
2457261.397830509
  9
$TDUUPDATE
 40
2457261.022830509
  9
$TDINDWG
 40
1.5665737037
  9
$TDUSRTIMER
 40
1.5665727778
  9
$USRTIMER
 70
     1
  9
$ANGBASE
 50
0.0
  9
$ANGDIR
 70
     0
  9
$PDMODE
 70
     0
  9
$PDSIZE
 40
0.0
  9
$PLINEWID
 40
0.0
  9
$SPLFRAME
 70
     0
  9
$SPLINETYPE
 70
     6
  9
$SPLINESEGS
 70
     8
  9
$HANDSEED
  5
BF37
  9
$SURFTAB1
 70
     6
  9
$SURFTAB2
 70
     6
  9
$SURFTYPE
 70
     6
  9
$SURFU
 70
     6
  9
$SURFV
 70
     6
  9
$UCSBASE
  2

  9
$UCSNAME
  2

  9
$UCSORG
 10
0.0
 20
0.0
 30
0.0
  9
$UCSXDIR
 10
1.0
 20
0.0
 30
0.0
  9
$UCSYDIR
 10
0.0
 20
1.0
 30
0.0
  9
$UCSORTHOREF
  2

  9
$UCSORTHOVIEW
 70
     0
  9
$UCSORGTOP
 10
0.0
 20
0.0
 30
0.0
  9
$UCSORGBOTTOM
 10
0.0
 20
0.0
 30
0.0
  9
$UCSORGLEFT
 10
0.0
 20
0.0
 30
0.0
  9
$UCSORGRIGHT
 10
0.0
 20
0.0
 30
0.0
  9
$UCSORGFRONT
 10
0.0
 20
0.0
 30
0.0
  9
$UCSORGBACK
 10
0.0
 20
0.0
 30
0.0
  9
$PUCSBASE
  2

  9
$PUCSNAME
  2

  9
$PUCSORG
 10
0.0
 20
0.0
 30
0.0
  9
$PUCSXDIR
 10
1.0
 20
0.0
 30
0.0
  9
$PUCSYDIR
 10
0.0
 20
1.0
 30
0.0
  9
$PUCSORTHOREF
  2

  9
$PUCSORTHOVIEW
 70
     0
  9
$PUCSORGTOP
 10
0.0
 20
0.0
 30
0.0
  9
$PUCSORGBOTTOM
 10
0.0
 20
0.0
 30
0.0
  9
$PUCSORGLEFT
 10
0.0
 20
0.0
 30
0.0
  9
$PUCSORGRIGHT
 10
0.0
 20
0.0
 30
0.0
  9
$PUCSORGFRONT
 10
0.0
 20
0.0
 30
0.0
  9
$PUCSORGBACK
 10
0.0
 20
0.0
 30
0.0
  9
$USERI1
 70
     0
  9
$USERI2
 70
     0
  9
$USERI3
 70
     0
  9
$USERI4
 70
     0
  9
$USERI5
 70
     0
  9
$USERR1
 40
0.0
  9
$USERR2
 40
0.0
  9
$USERR3
 40
0.0
  9
$USERR4
 40
0.0
  9
$USERR5
 40
0.0
  9
$WORLDVIEW
 70
     1
  9
$SHADEDGE
 70
     3
  9
$SHADEDIF
 70
    70
  9
$TILEMODE
 70
     1
  9
$MAXACTVP
 70
    48
  9
$PINSBASE
 10
0.0
 20
0.0
 30
0.0
  9
$PLIMCHECK
 70
     0
  9
$PEXTMIN
 10
4.273573370203961
 20
5.205246163471485
 30
0.0
  9
$PEXTMAX
 10
194.6100952986349
 20
283.0697008572913
 30
0.0
  9
$PLIMMIN
 10
-5.873748779296875
 20
-5.873749732971191
  9
$PLIMMAX
 10
204.0995788574218
 20
291.1369009017943
  9
$UNITMODE
 70
     0
  9
$VISRETAIN
 70
     1
  9
$PLINEGEN
 70
     0
  9
$PSLTSCALE
 70
     1
  9
$TREEDEPTH
 70
  3020
  9
$CMLSTYLE
  2
STANDARD
  9
$CMLJUST
 70
     0
  9
$CMLSCALE
 40
1.0
  9
$PROXYGRAPHICS
 70
     1
  9
$MEASUREMENT
 70
     0
  9
$CELWEIGHT
370
    -1
  9
$ENDCAPS
280
     0
  9
$JOINSTYLE
280
     0
  9
$LWDISPLAY
290
     0
  9
$INSUNITS
 70
     0
  9
$HYPERLINKBASE
  1

  9
$STYLESHEET
  1
monochrome.ctb
  9
$XEDIT
290
     1
  9
$CEPSNTYPE
380
     0
  9
$PSTYLEMODE
290
     1
  9
$FINGERPRINTGUID
  2

  9
$VERSIONGUID
  2
{DCD12B55-0FAD-4719-8EB5-56E7F1566D9E}
  9
$EXTNAMES
290
     1
  9
$PSVPSCALE
 40
0.0
  9
$OLESTARTUP
290
     0
  0
ENDSEC
  0
SECTION
  2
CLASSES
  0
CLASS
  1
ACDBDICTIONARYWDFLT
  2
AcDbDictionaryWithDefault
  3
ObjectDBX Classes
 90
        0
280
     0
281
     0
  0
CLASS
  1
ACDBPLACEHOLDER
  2
AcDbPlaceHolder
  3
ObjectDBX Classes
 90
        0
280
     0
281
     0
  0
CLASS
  1
LAYOUT
  2
AcDbLayout
  3
ObjectDBX Classes
 90
        0
280
     0
281
     0
  0
CLASS
  1
DICTIONARYVAR
  2
AcDbDictionaryVar
  3
ObjectDBX Classes
 90
        0
280
     0
281
     0
  0
CLASS
  1
MATERIAL
  2
AcDbMaterial
  3
ObjectDBX Classes
 90
     1153
280
     0
281
     0
  0
CLASS
  1
VISUALSTYLE
  2
AcDbVisualStyle
  3
ObjectDBX Classes
 90
     4095
280
     0
281
     0
  0
CLASS
  1
TABLESTYLE
  2
AcDbTableStyle
  3
ObjectDBX Classes
 90
     4095
280
     0
281
     0
  0
CLASS
  1
SCALE
  2
AcDbScale
  3
ObjectDBX Classes
 90
     1153
280
     0
281
     0
  0
CLASS
  1
MLEADERSTYLE
  2
AcDbMLeaderStyle
  3
ACDB_MLEADERSTYLE_CLASS
 90
     4095
280
     0
281
     0
  0
CLASS
  1
ACDBSECTIONVIEWSTYLE
  2
AcDbSectionViewStyle
  3
ObjectDBX Classes
 90
     1025
280
     0
281
     0
  0
CLASS
  1
ACDBDETAILVIEWSTYLE
  2
AcDbDetailViewStyle
  3
ObjectDBX Classes
 90
     1025
280
     0
281
     0
  0
CLASS
  1
CELLSTYLEMAP
  2
AcDbCellStyleMap
  3
ObjectDBX Classes
 90
     1152
280
     0
281
     0
  0
ENDSEC
  0
SECTION
  2
TABLES
  0
TABLE
  2
VPORT
  5
8
330
0
100
AcDbSymbolTable
 70
     1
  0
VPORT
  5
BE56
330
8
100
AcDbSymbolTableRecord
100
AcDbViewportTableRecord
  2
*Active
 70
     0
 10
0.0
 20
0.0
 11
1.0
 21
1.0
 12
85.60630348858456
 22
245.9304217245738
 13
0.0
 23
0.0
 14
1.0
 24
1.0
 15
10.0
 25
10.0
 16
0.0
 26
0.0
 36
1.0
 17
0.0
 27
0.0
 37
0.0
 40
280.3821317129391
 41
2.174418604651162
 42
50.0
 43
0.0
 44
0.0
 50
0.0
 51
0.0
 71
     0
 72
   100
 73
     1
 74
     1
 75
     0
 76
     0
 77
     0
 78
     0
281
     0
 65
     1
110
0.0
120
0.0
130
0.0
111
1.0
121
0.0
131
0.0
112
0.0
122
1.0
132
0.0
 79
     0
146
0.0
1001
ACAD_NAV_VCDISPLAY
1070
     3
  0
ENDTAB
  0
TABLE
  2
LTYPE
  5
5
330
0
100
AcDbSymbolTable
 70
     6
  0
LTYPE
  5
13
330
5
100
AcDbSymbolTableRecord
100
AcDbLinetypeTableRecord
  2
BYBLOCK
 70
     0
  3

 72
    65
 73
     0
 40
0.0
  0
LTYPE
  5
14
330
5
100
AcDbSymbolTableRecord
100
AcDbLinetypeTableRecord
  2
BYLAYER
 70
     0
  3

 72
    65
 73
     0
 40
0.0
  0
LTYPE
  5
15
330
5
100
AcDbSymbolTableRecord
100
AcDbLinetypeTableRecord
  2
CONTINUOUS
 70
     0
  3
Solid line
 72
    65
 73
     0
 40
0.0
  0
LTYPE
  5
22
330
5
100
AcDbSymbolTableRecord
100
AcDbLinetypeTableRecord
  2
CONTINOUS
 70
     0
  3
Solid line
 72
    65
 73
     0
 40
0.0
  0
LTYPE
  5
24
330
5
100
AcDbSymbolTableRecord
100
AcDbLinetypeTableRecord
  2
DASHDOT
 70
     0
  3
__ . __ . __ . __ . __ . __ . __ . __ . __ . __
 72
    65
 73
     4
 40
1.0
 49
0.5
 74
     0
 49
-0.25
 74
     0
 49
0.0
 74
     0
 49
-0.25
 74
     0
  0
LTYPE
  5
4C47
330
5
100
AcDbSymbolTableRecord
100
AcDbLinetypeTableRecord
  2
DIVIDE
 70
     0
  3
Divide ____ . . ____ . . ____ . . ____ . . ____
 72
    65
 73
     6
 40
1.25
 49
0.5
 74
     0
 49
-0.25
 74
     0
 49
0.0
 74
     0
 49
-0.25
 74
     0
 49
0.0
 74
     0
 49
-0.25
 74
     0
  0
LTYPE
  5
BDB0
330
5
100
AcDbSymbolTableRecord
100
AcDbLinetypeTableRecord
  2
HIDDEN
 70
     0
  3
Hidden __ __ __ __ __ __ __ __ __ __ __ __ __ _
 72
    65
 73
     2
 40
0.375
 49
0.25
 74
     0
 49
-0.125
 74
     0
  0
ENDTAB
  0
TABLE
  2
LAYER
  5
2
330
0
100
AcDbSymbolTable
 70
    12
  0
LAYER
  5
10
102
{ACAD_XDICTIONARY
360
BED1
102
}
330
2
100
AcDbSymbolTableRecord
100
AcDbLayerTableRecord
  2
0
 70
     0
 62
     7
  6
CONTINOUS
370
    -3
390
F
  0
LAYER
  5
2F
102
{ACAD_XDICTIONARY
360
BED3
102
}
330
2
100
AcDbSymbolTableRecord
100
AcDbLayerTableRecord
  2
10
 70
     0
 62
     4
  6
CONTINOUS
370
    -3
390
F
  0
LAYER
  5
31
102
{ACAD_XDICTIONARY
360
BED5
102
}
330
2
100
AcDbSymbolTableRecord
100
AcDbLayerTableRecord
  2
12
 70
     0
 62
     3
  6
CONTINOUS
370
    -3
390
F
  0
LAYER
  5
35
102
{ACAD_XDICTIONARY
360
BED7
102
}
330
2
100
AcDbSymbolTableRecord
100
AcDbLayerTableRecord
  2
16
 70
     0
 62
     6
  6
DASHDOT
370
    -3
390
F
  0
LAYER
  5
38
102
{ACAD_XDICTIONARY
360
BED9
102
}
330
2
100
AcDbSymbolTableRecord
100
AcDbLayerTableRecord
  2
19
 70
     0
 62
     7
  6
CONTINOUS
370
    -3
390
F
  0
LAYER
  5
3D
102
{ACAD_XDICTIONARY
360
BEDB
102
}
330
2
100
AcDbSymbolTableRecord
100
AcDbLayerTableRecord
  2
24
 70
     0
 62
     2
  6
CONTINOUS
370
    -3
390
F
  0
LAYER
  5
3A2
102
{ACAD_XDICTIONARY
360
BEDD
102
}
330
2
100
AcDbSymbolTableRecord
100
AcDbLayerTableRecord
  2
30
 70
     0
 62
     9
  6
CONTINUOUS
370
    -3
390
F
  0
LAYER
  5
3A4
330
2
100
AcDbSymbolTableRecord
100
AcDbLayerTableRecord
  2
DEFPOINTS
 70
     0
 62
     7
  6
CONTINUOUS
290
     0
370
    -3
390
F
  0
LAYER
  5
3BBA
102
{ACAD_XDICTIONARY
360
BEDF
102
}
330
2
100
AcDbSymbolTableRecord
100
AcDbLayerTableRecord
  2
18
 70
     0
 62
     5
  6
DIVIDE
370
    -3
390
F
  0
LAYER
  5
5D4D
102
{ACAD_XDICTIONARY
360
BEE1
102
}
330
2
100
AcDbSymbolTableRecord
100
AcDbLayerTableRecord
  2
17
 70
     0
 62
     2
  6
DASHDOT
370
    -3
390
F
  0
LAYER
  5
7355
102
{ACAD_XDICTIONARY
360
BEE3
102
}
330
2
100
AcDbSymbolTableRecord
100
AcDbLayerTableRecord
  2
1
 70
     0
 62
     7
  6
CONTINUOUS
370
    -3
390
F
  0
LAYER
  5
76A9
102
{ACAD_XDICTIONARY
360
BEE5
102
}
330
2
100
AcDbSymbolTableRecord
100
AcDbLayerTableRecord
  2
TOP
 70
     0
 62
     7
  6
CONTINUOUS
370
    -3
390
F
  0
ENDTAB
  0
TABLE
  2
STYLE
  5
3
330
0
100
AcDbSymbolTable
 70
     5
  0
STYLE
  5
11
330
3
100
AcDbSymbolTableRecord
100
AcDbTextStyleTableRecord
  2
STANDARD
 70
     0
 40
0.0
 41
1.0
 50
0.0
 71
     0
 42
2.0
  3
txt.shx
  4
bigfont.shx
  0
STYLE
  5
42
330
3
100
AcDbSymbolTableRecord
100
AcDbTextStyleTableRecord
  2
STANDARD1
 70
     0
 40
0.0
 41
1.0
 50
0.0
 71
     0
 42
5.0
  3
MONOTXT
  4
BIGFONT
  0
STYLE
  5
7356
330
3
100
AcDbSymbolTableRecord
100
AcDbTextStyleTableRecord
  2
UGMTXT
 70
     0
 40
0.0
 41
1.0
 50
0.0
 71
     0
 42
0.2
  3
ugmtxt
  4
bigfont
  0
STYLE
  5
8AE2
330
3
100
AcDbSymbolTableRecord
100
AcDbTextStyleTableRecord
  2
blockfont
 70
     0
 40
0.0
 41
1.0
 50
0.0
 71
     0
 42
0.2
  3
simplex.shx
  4
bigfont
  0
STYLE
  5
BDAF
330
3
100
AcDbSymbolTableRecord
100
AcDbTextStyleTableRecord
  2

 70
     1
 40
0.0
 41
1.0
 50
0.0
 71
     0
 42
5.0
  3
ltypeshp.shx
  4

  0
ENDTAB
  0
TABLE
  2
VIEW
  5
6
330
0
100
AcDbSymbolTable
 70
     3
  0
VIEW
  5
230C
330
6
100
AcDbSymbolTableRecord
100
AcDbViewTableRecord
  2
OLE1
 70
     0
 40
148.9124878027714
 10
429.4976280407222
 20
2.560626997828478
 41
103.1458057716444
 11
0.0
 21
0.0
 31
1.0
 12
0.0
 22
0.0
 32
0.0
 42
50.0
 43
0.0
 44
0.0
 50
0.0
 71
     0
281
     0
 72
     0
  0
VIEW
  5
230E
330
6
100
AcDbSymbolTableRecord
100
AcDbViewTableRecord
  2
OLE2
 70
     0
 40
170.7786920545775
 10
322.664969958371
 20
-5.978304054290276
 41
102.4672152327465
 11
0.0
 21
0.0
 31
1.0
 12
0.0
 22
0.0
 32
0.0
 42
50.0
 43
0.0
 44
0.0
 50
0.0
 71
     0
281
     0
 72
     0
  0
VIEW
  5
23AA
330
6
100
AcDbSymbolTableRecord
100
AcDbViewTableRecord
  2
OLE3
 70
     0
 40
591.7897393182231
 10
84.79698158148218
 20
-46.09336010803995
 41
388.7920961799953
 11
0.0
 21
0.0
 31
1.0
 12
0.0
 22
0.0
 32
0.0
 42
50.0
 43
0.0
 44
0.0
 50
0.0
 71
     0
281
     0
 72
     0
  0
ENDTAB
  0
TABLE
  2
UCS
  5
7
330
0
100
AcDbSymbolTable
 70
     0
  0
ENDTAB
  0
TABLE
  2
APPID
  5
9
330
0
100
AcDbSymbolTable
 70
     5
  0
APPID
  5
12
330
9
100
AcDbSymbolTableRecord
100
AcDbRegAppTableRecord
  2
ACAD
 70
     0
  0
APPID
  5
ECD
330
9
100
AcDbSymbolTableRecord
100
AcDbRegAppTableRecord
  2
CONTENTBLOCKICON
 70
     0
  0
APPID
  5
BECF
330
9
100
AcDbSymbolTableRecord
100
AcDbRegAppTableRecord
  2
ACAD_EXEMPT_FROM_CAD_STANDARDS
 70
     0
  0
APPID
  5
BEEF
330
9
100
AcDbSymbolTableRecord
100
AcDbRegAppTableRecord
  2
ACAD_NAV_VCDISPLAY
 70
     0
  0
APPID
  5
BF32
330
9
100
AcDbSymbolTableRecord
100
AcDbRegAppTableRecord
  2
ACAD_MLEADERVER
 70
     0
  0
ENDTAB
  0
TABLE
  2
DIMSTYLE
  5
A
330
0
100
AcDbSymbolTable
 70
     2
100
AcDbDimStyleTable
 71
     2
340
BB09
340
175
  0
DIMSTYLE
105
175
330
A
100
AcDbSymbolTableRecord
100
AcDbDimStyleTableRecord
  2
STANDARD
 70
     0
 41
2.0
 42
1.0
 43
0.5
 44
0.5
 73
     0
 77
     3
 78
    12
140
5.0
147
1.0
271
     1
272
     1
340
11
341
3B2
342
3B2
  0
DIMSTYLE
105
BB09
102
{ACAD_REACTORS
330
B35F
330
B133
330
B132
330
B131
330
AB3F
330
AB20
330
A34C
330
A34B
330
A347
330
A346
330
A345
330
A343
330
A342
330
A341
330
A340
330
A33D
330
A33C
330
A330
330
A32F
330
A329
330
A328
330
A326
330
A325
330
A324
330
A31B
330
A31A
330
A318
330
A317
330
A316
330
A315
330
A314
330
A30E
330
A30D
102
}
330
A
100
AcDbSymbolTableRecord
100
AcDbDimStyleTableRecord
  2
STANDARD1
 70
     0
 41
2.0
 42
3.0
 43
0.5
 44
0.5
 73
     0
 77
     3
 78
    12
140
6.0
147
3.0
271
     1
272
     1
289
     2
340
11
341
3B2
342
3B2
  0
ENDTAB
  0
TABLE
  2
BLOCK_RECORD
  5
1
330
0
100
AcDbSymbolTable
 70
    35
  0
BLOCK_RECORD
  5
1E
102
{ACAD_XDICTIONARY
360
178
102
}
330
1
100
AcDbSymbolTableRecord
100
AcDbBlockTableRecord
  2
*MODEL_SPACE
340
87C9
  0
BLOCK_RECORD
  5
1A
102
{ACAD_XDICTIONARY
360
17A
102
}
330
1
100
AcDbSymbolTableRecord
100
AcDbBlockTableRecord
  2
*PAPER_SPACE
340
87CA
  0
BLOCK_RECORD
  5
3B2
330
1
100
AcDbSymbolTableRecord
100
AcDbBlockTableRecord
  2
_OPEN
340
0
102
{BLKREFS
331
BDB4
331
BDB5
331
BD34
331
BD35
331
BD3D
331
BD3E
331
BD46
331
BD47
331
BD4F
331
BD50
331
BD58
331
BD59
331
BD61
331
BD62
331
BD6C
331
BD6D
331
BD7C
331
BD7D
331
BDA2
331
BDA3
331
BDC3
331
BDCC
331
BDCD
331
BCC7
331
BCC8
331
BCD0
331
BCD1
331
BCD9
331
BCDA
331
BCE2
331
BCE3
331
BCEB
331
BCEC
331
BCF4
331
BCF5
331
BCFD
331
BCFE
331
BD06
331
BD07
331
BD0F
331
BD10
331
BD18
331
BD19
331
BD21
331
BD22
331
BC3B
331
BC3C
331
BC44
331
BC45
331
BC4D
331
BC4E
331
BC56
331
BC57
331
BC69
331
BC6A
331
BC82
331
BC83
331
BC8B
331
BC8C
331
BC94
331
BC95
331
BCB3
331
BCB4
331
BCBC
331
BCBD
102
}
  0
BLOCK_RECORD
  5
839C
330
1
100
AcDbSymbolTableRecord
100
AcDbBlockTableRecord
  2
*U1
340
0
  0
BLOCK_RECORD
  5
A34E
330
1
100
AcDbSymbolTableRecord
100
AcDbBlockTableRecord
  2
*D2
340
0
  0
BLOCK_RECORD
  5
A35A
330
1
100
AcDbSymbolTableRecord
100
AcDbBlockTableRecord
  2
*D3
340
0
  0
BLOCK_RECORD
  5
A3A2
330
1
100
AcDbSymbolTableRecord
100
AcDbBlockTableRecord
  2
*D4
340
0
  0
BLOCK_RECORD
  5
A3AE
330
1
100
AcDbSymbolTableRecord
100
AcDbBlockTableRecord
  2
*D5
340
0
  0
BLOCK_RECORD
  5
A3BA
330
1
100
AcDbSymbolTableRecord
100
AcDbBlockTableRecord
  2
*D6
340
0
  0
BLOCK_RECORD
  5
A3C6
330
1
100
AcDbSymbolTableRecord
100
AcDbBlockTableRecord
  2
*D7
340
0
  0
BLOCK_RECORD
  5
A3D2
330
1
100
AcDbSymbolTableRecord
100
AcDbBlockTableRecord
  2
*D8
340
0
  0
BLOCK_RECORD
  5
A3EB
330
1
100
AcDbSymbolTableRecord
100
AcDbBlockTableRecord
  2
*D9
340
0
  0
BLOCK_RECORD
  5
A3F7
330
1
100
AcDbSymbolTableRecord
100
AcDbBlockTableRecord
  2
*D10
340
0
  0
BLOCK_RECORD
  5
A463
330
1
100
AcDbSymbolTableRecord
100
AcDbBlockTableRecord
  2
*D11
340
0
  0
BLOCK_RECORD
  5
A46F
330
1
100
AcDbSymbolTableRecord
100
AcDbBlockTableRecord
  2
*D12
340
0
  0
BLOCK_RECORD
  5
A47B
330
1
100
AcDbSymbolTableRecord
100
AcDbBlockTableRecord
  2
*D13
340
0
  0
BLOCK_RECORD
  5
A493
330
1
100
AcDbSymbolTableRecord
100
AcDbBlockTableRecord
  2
*D14
340
0
  0
BLOCK_RECORD
  5
A49F
330
1
100
AcDbSymbolTableRecord
100
AcDbBlockTableRecord
  2
*D15
340
0
  0
BLOCK_RECORD
  5
A4E7
330
1
100
AcDbSymbolTableRecord
100
AcDbBlockTableRecord
  2
*D16
340
0
  0
BLOCK_RECORD
  5
A4F3
330
1
100
AcDbSymbolTableRecord
100
AcDbBlockTableRecord
  2
*D17
340
0
  0
BLOCK_RECORD
  5
A589
330
1
100
AcDbSymbolTableRecord
100
AcDbBlockTableRecord
  2
*D18
340
0
  0
BLOCK_RECORD
  5
A596
330
1
100
AcDbSymbolTableRecord
100
AcDbBlockTableRecord
  2
*D19
340
0
  0
BLOCK_RECORD
  5
A5BD
330
1
100
AcDbSymbolTableRecord
100
AcDbBlockTableRecord
  2
*D20
340
0
  0
BLOCK_RECORD
  5
A5CA
330
1
100
AcDbSymbolTableRecord
100
AcDbBlockTableRecord
  2
*D21
340
0
  0
BLOCK_RECORD
  5
A5D7
330
1
100
AcDbSymbolTableRecord
100
AcDbBlockTableRecord
  2
*D22
340
0
  0
BLOCK_RECORD
  5
A5E4
330
1
100
AcDbSymbolTableRecord
100
AcDbBlockTableRecord
  2
*D23
340
0
  0
BLOCK_RECORD
  5
A5FE
330
1
100
AcDbSymbolTableRecord
100
AcDbBlockTableRecord
  2
*D24
340
0
  0
BLOCK_RECORD
  5
A60B
330
1
100
AcDbSymbolTableRecord
100
AcDbBlockTableRecord
  2
*D25
340
0
  0
BLOCK_RECORD
  5
A618
330
1
100
AcDbSymbolTableRecord
100
AcDbBlockTableRecord
  2
*D26
340
0
  0
BLOCK_RECORD
  5
A624
330
1
100
AcDbSymbolTableRecord
100
AcDbBlockTableRecord
  2
*D27
340
0
  0
BLOCK_RECORD
  5
A62F
330
1
100
AcDbSymbolTableRecord
100
AcDbBlockTableRecord
  2
*D28
340
0
  0
BLOCK_RECORD
  5
AB21
330
1
100
AcDbSymbolTableRecord
100
AcDbBlockTableRecord
  2
*D29
340
0
  0
BLOCK_RECORD
  5
AB40
330
1
100
AcDbSymbolTableRecord
100
AcDbBlockTableRecord
  2
*D30
340
0
  0
BLOCK_RECORD
  5
B134
330
1
100
AcDbSymbolTableRecord
100
AcDbBlockTableRecord
  2
*D31
340
0
  0
BLOCK_RECORD
  5
B140
330
1
100
AcDbSymbolTableRecord
100
AcDbBlockTableRecord
  2
*D32
340
0
  0
BLOCK_RECORD
  5
B14C
330
1
100
AcDbSymbolTableRecord
100
AcDbBlockTableRecord
  2
*D33
340
0
  0
BLOCK_RECORD
  5
B360
330
1
100
AcDbSymbolTableRecord
100
AcDbBlockTableRecord
  2
*D34
340
0
  0
ENDTAB
  0
ENDSEC
  0
SECTION
  2
BLOCKS
  0
BLOCK
  5
1F
330
1E
100
AcDbEntity
  8
0
100
AcDbBlockBegin
  2
*MODEL_SPACE
 70
     0
 10
0.0
 20
0.0
 30
0.0
  3
*MODEL_SPACE
  1

  0
ENDBLK
  5
20
330
1E
100
AcDbEntity
  8
0
100
AcDbBlockEnd
  0
BLOCK
  5
1B
330
1A
100
AcDbEntity
 67
     1
  8
0
100
AcDbBlockBegin
  2
*PAPER_SPACE
 70
     0
 10
0.0
 20
0.0
 30
0.0
  3
*PAPER_SPACE
  1

  0
ENDBLK
  5
1C
330
1A
100
AcDbEntity
 67
     1
  8
0
100
AcDbBlockEnd
  0
BLOCK
  5
3B6
330
3B2
100
AcDbEntity
  8
0
100
AcDbBlockBegin
  2
_OPEN
 70
     0
 10
0.0
 20
0.0
 30
0.0
  3
_OPEN
  1

  0
LINE
  5
3B3
330
3B2
100
AcDbEntity
  8
30
  6
Continuous
 62
     0
100
AcDbLine
 10
-1.0
 20
0.1666666666666666
 30
0.0
 11
0.0
 21
0.0
 31
0.0
  0
LINE
  5
3B4
330
3B2
100
AcDbEntity
  8
30
  6
Continuous
 62
     0
100
AcDbLine
 10
-1.0
 20
-0.1666666666666666
 30
0.0
 11
0.0
 21
0.0
 31
0.0
  0
LINE
  5
3B5
330
3B2
100
AcDbEntity
  8
30
  6
Continuous
 62
     0
100
AcDbLine
 10
0.0
 20
0.0
 30
0.0
 11
-1.0
 21
0.0
 31
0.0
  0
ENDBLK
  5
3B7
330
3B2
100
AcDbEntity
  8
0
100
AcDbBlockEnd
  0
BLOCK
  5
83A1
330
839C
100
AcDbEntity
  8
TOP
  6
Continuous
 62
     3
100
AcDbBlockBegin
  2
*U1
 70
     1
 10
0.0
 20
0.0
 30
0.0
  3
*U1
  1

  0
LINE
  5
839D
330
839C
100
AcDbEntity
  8
1
  6
ByBlock
 62
     0
100
AcDbLine
 10
548.3527638488361
 20
74.64070630641497
 30
0.0
 11
522.3527638488361
 21
74.64070630641497
 31
0.0
  0
LINE
  5
839E
330
839C
100
AcDbEntity
  8
1
  6
ByBlock
 62
     0
100
AcDbLine
 10
517.8511961722488
 20
100.6647232036204
 30
0.0
 11
522.3527638488361
 21
74.64070630641497
 31
0.0
  0
SOLID
  5
839F
330
839C
100
AcDbEntity
  8
1
  6
ByBlock
 62
     0
100
AcDbTrace
 10
517.8511961722488
 20
100.6647232036204
 30
0.0
 11
518.5205443376235
 21
98.75080465810007
 31
0.0
 12
517.8636330166235
 22
98.63717382314177
 32
0.0
 13
517.8636330166235
 23
98.63717382314177
 33
0.0
  0
TEXT
  5
83A0
330
839C
100
AcDbEntity
  8
TOP
  6
ByBlock
 62
     0
100
AcDbText
 10
548.3527638488361
 20
73.14070629651499
 30
0.0
 40
3.000000019799997
  1
 
 41
1.189062500000023
  7
UGMTXT
100
AcDbText
  0
ENDBLK
  5
83A2
330
839C
100
AcDbEntity
  8
0
100
AcDbBlockEnd
  0
BLOCK
  5
A358
330
A34E
100
AcDbEntity
  8
0
100
AcDbBlockBegin
  2
*D2
 70
     1
 10
0.0
 20
0.0
 30
0.0
  3
*D2
  1

  0
LINE
  5
BD5E
330
A34E
100
AcDbEntity
  8
30
  6
Continuous
 62
     0
370
    -2
100
AcDbLine
 10
-105.0000000000002
 20
-157.5
 30
0.0
 11
-105.0000000000002
 21
-207.5958749999999
 31
0.0
  0
LINE
  5
BD5F
330
A34E
100
AcDbEntity
  8
30
  6
Continuous
 62
     0
370
    -2
100
AcDbLine
 10
-0.0000000000000002
 20
-183.2499999999995
 30
0.0
 11
-0.0000000000000017
 21
-207.5958749999999
 31
0.0
  0
LINE
  5
BD60
330
A34E
100
AcDbEntity
  8
30
  6
Continuous
 62
     0
370
    -2
100
AcDbLine
 10
-103.0000000000002
 20
-207.0958749999999
 30
0.0
 11
-2.0
 21
-207.0958749999999
 31
0.0
  0
INSERT
  5
BD61
330
A34E
100
AcDbEntity
  8
30
  6
Continuous
 62
     0
370
    -2
100
AcDbBlockReference
  2
_OPEN
 10
-105.0000000000002
 20
-207.0958749999999
 30
0.0
 41
2.0
 42
2.0
 43
2.0
 50
180.0
  0
INSERT
  5
BD62
330
A34E
100
AcDbEntity
  8
30
  6
Continuous
 62
     0
370
    -2
100
AcDbBlockReference
  2
_OPEN
 10
-0.0000000000000016
 20
-207.0958749999999
 30
0.0
 41
2.0
 42
2.0
 43
2.0
  0
MTEXT
  5
BD63
330
A34E
100
AcDbEntity
  8
30
  6
Continuous
 62
     0
100
AcDbMText
 10
-52.5000000000001
 20
-201.0958749999999
 30
0.0
 40
6.0
 41
0.0
 71
     5
 72
     1
  1
\A1; 105 
 73
     1
 44
1.0
1001
ACAD
1000
MTEXTBEGIN
1070
    73
1070
     1
1070
    44
1040
1.0
1070
    74
1070
     0
1000
MTEXTEND
  0
POINT
  5
BD64
330
A34E
100
AcDbEntity
  8
DEFPOINTS
  6
Continuous
 62
     0
100
AcDbPoint
 10
-105.0000000000002
 20
-154.4999999999999
 30
0.0
  0
POINT
  5
BD65
330
A34E
100
AcDbEntity
  8
DEFPOINTS
  6
Continuous
 62
     0
100
AcDbPoint
 10
0.0
 20
-180.2499999999998
 30
0.0
  0
POINT
  5
BD66
330
A34E
100
AcDbEntity
  8
DEFPOINTS
  6
Continuous
 62
     0
100
AcDbPoint
 10
-0.0000000000000016
 20
-207.0958749999999
 30
0.0
  0
ENDBLK
  5
A359
330
A34E
100
AcDbEntity
  8
0
100
AcDbBlockEnd
  0
BLOCK
  5
A364
330
A35A
100
AcDbEntity
  8
0
100
AcDbBlockBegin
  2
*D3
 70
     1
 10
0.0
 20
0.0
 30
0.0
  3
*D3
  1

  0
LINE
  5
BD55
330
A35A
100
AcDbEntity
  8
30
  6
Continuous
 62
     0
370
    -2
100
AcDbLine
 10
-105.0000000000002
 20
-157.5
 30
0.0
 11
-105.0000000000002
 21
-242.5958749999999
 31
0.0
  0
LINE
  5
BD56
330
A35A
100
AcDbEntity
  8
30
  6
Continuous
 62
     0
370
    -2
100
AcDbLine
 10
174.9999999999995
 20
-157.5
 30
0.0
 11
174.9999999999995
 21
-242.5958749999999
 31
0.0
  0
LINE
  5
BD57
330
A35A
100
AcDbEntity
  8
30
  6
Continuous
 62
     0
370
    -2
100
AcDbLine
 10
-103.0000000000002
 20
-242.0958749999999
 30
0.0
 11
172.9999999999995
 21
-242.0958749999999
 31
0.0
  0
INSERT
  5
BD58
330
A35A
100
AcDbEntity
  8
30
  6
Continuous
 62
     0
370
    -2
100
AcDbBlockReference
  2
_OPEN
 10
-105.0000000000002
 20
-242.0958749999999
 30
0.0
 41
2.0
 42
2.0
 43
2.0
 50
180.0
  0
INSERT
  5
BD59
330
A35A
100
AcDbEntity
  8
30
  6
Continuous
 62
     0
370
    -2
100
AcDbBlockReference
  2
_OPEN
 10
174.9999999999995
 20
-242.0958749999999
 30
0.0
 41
2.0
 42
2.0
 43
2.0
  0
MTEXT
  5
BD5A
330
A35A
100
AcDbEntity
  8
30
  6
Continuous
 62
     0
100
AcDbMText
 10
34.99999999999977
 20
-236.0958749999999
 30
0.0
 40
6.0
 41
0.0
 71
     5
 72
     1
  1
\A1; 280 
 73
     1
 44
1.0
1001
ACAD
1000
MTEXTBEGIN
1070
    73
1070
     1
1070
    44
1040
1.0
1070
    74
1070
     0
1000
MTEXTEND
  0
POINT
  5
BD5B
330
A35A
100
AcDbEntity
  8
DEFPOINTS
  6
Continuous
 62
     0
100
AcDbPoint
 10
-105.0000000000002
 20
-154.4999999999999
 30
0.0
  0
POINT
  5
BD5C
330
A35A
100
AcDbEntity
  8
DEFPOINTS
  6
Continuous
 62
     0
100
AcDbPoint
 10
174.9999999999995
 20
-154.4999999999999
 30
0.0
  0
POINT
  5
BD5D
330
A35A
100
AcDbEntity
  8
DEFPOINTS
  6
Continuous
 62
     0
100
AcDbPoint
 10
174.9999999999995
 20
-242.0958749999999
 30
0.0
  0
ENDBLK
  5
A365
330
A35A
100
AcDbEntity
  8
0
100
AcDbBlockEnd
  0
BLOCK
  5
A3AC
330
A3A2
100
AcDbEntity
  8
0
100
AcDbBlockBegin
  2
*D4
 70
     1
 10
0.0
 20
0.0
 30
0.0
  3
*D4
  1

  0
LINE
  5
BD4C
330
A3A2
100
AcDbEntity
  8
30
  6
Continuous
 62
     0
370
    -2
100
AcDbLine
 10
354.3999999999999
 20
-53.0
 30
0.0
 11
354.3999999999999
 21
-155.5592537264488
 31
0.0
  0
LINE
  5
BD4D
330
A3A2
100
AcDbEntity
  8
30
  6
Continuous
 62
     0
370
    -2
100
AcDbLine
 10
457.3999999999998
 20
-157.5
 30
0.0
 11
457.3999999999998
 21
-155.5592537264488
 31
0.0
  0
LINE
  5
BD4E
330
A3A2
100
AcDbEntity
  8
30
  6
Continuous
 62
     0
370
    -2
100
AcDbLine
 10
356.3999999999999
 20
-155.0592537264491
 30
0.0
 11
455.3999999999998
 21
-155.0592537264491
 31
0.0
  0
INSERT
  5
BD4F
330
A3A2
100
AcDbEntity
  8
30
  6
Continuous
 62
     0
370
    -2
100
AcDbBlockReference
  2
_OPEN
 10
354.3999999999999
 20
-155.0592537264491
 30
0.0
 41
2.0
 42
2.0
 43
2.0
 50
180.0
  0
INSERT
  5
BD50
330
A3A2
100
AcDbEntity
  8
30
  6
Continuous
 62
     0
370
    -2
100
AcDbBlockReference
  2
_OPEN
 10
457.3999999999998
 20
-155.0592537264491
 30
0.0
 41
2.0
 42
2.0
 43
2.0
  0
MTEXT
  5
BD51
330
A3A2
100
AcDbEntity
  8
30
  6
Continuous
 62
     0
100
AcDbMText
 10
405.8999999999998
 20
-149.0592537264491
 30
0.0
 40
6.0
 41
0.0
 71
     5
 72
     1
  1
\A1; 103 
 73
     1
 44
1.0
1001
ACAD
1000
MTEXTBEGIN
1070
    73
1070
     1
1070
    44
1040
1.0
1070
    74
1070
     0
1000
MTEXTEND
  0
POINT
  5
BD52
330
A3A2
100
AcDbEntity
  8
DEFPOINTS
  6
Continuous
 62
     0
100
AcDbPoint
 10
354.3999999999999
 20
-50.0
 30
0.0
  0
POINT
  5
BD53
330
A3A2
100
AcDbEntity
  8
DEFPOINTS
  6
Continuous
 62
     0
100
AcDbPoint
 10
457.3999999999998
 20
-154.4999999999999
 30
0.0
  0
POINT
  5
BD54
330
A3A2
100
AcDbEntity
  8
DEFPOINTS
  6
Continuous
 62
     0
100
AcDbPoint
 10
457.3999999999998
 20
-155.0592537264491
 30
0.0
  0
ENDBLK
  5
A3AD
330
A3A2
100
AcDbEntity
  8
0
100
AcDbBlockEnd
  0
BLOCK
  5
A3B8
330
A3AE
100
AcDbEntity
  8
0
100
AcDbBlockBegin
  2
*D5
 70
     1
 10
0.0
 20
0.0
 30
0.0
  3
*D5
  1

  0
LINE
  5
BD43
330
A3AE
100
AcDbEntity
  8
30
  6
Continuous
 62
     0
370
    -2
100
AcDbLine
 10
350.3999999999999
 20
-53.0
 30
0.0
 11
350.3999999999999
 21
-183.7743473188174
 31
0.0
  0
LINE
  5
BD44
330
A3AE
100
AcDbEntity
  8
30
  6
Continuous
 62
     0
370
    -2
100
AcDbLine
 10
457.3999999999998
 20
-157.5
 30
0.0
 11
457.3999999999998
 21
-183.7743473188174
 31
0.0
  0
LINE
  5
BD45
330
A3AE
100
AcDbEntity
  8
30
  6
Continuous
 62
     0
370
    -2
100
AcDbLine
 10
352.3999999999999
 20
-183.2743473188173
 30
0.0
 11
455.3999999999998
 21
-183.2743473188173
 31
0.0
  0
INSERT
  5
BD46
330
A3AE
100
AcDbEntity
  8
30
  6
Continuous
 62
     0
370
    -2
100
AcDbBlockReference
  2
_OPEN
 10
350.3999999999999
 20
-183.2743473188173
 30
0.0
 41
2.0
 42
2.0
 43
2.0
 50
180.0
  0
INSERT
  5
BD47
330
A3AE
100
AcDbEntity
  8
30
  6
Continuous
 62
     0
370
    -2
100
AcDbBlockReference
  2
_OPEN
 10
457.3999999999998
 20
-183.2743473188173
 30
0.0
 41
2.0
 42
2.0
 43
2.0
  0
MTEXT
  5
BD48
330
A3AE
100
AcDbEntity
  8
30
  6
Continuous
 62
     0
100
AcDbMText
 10
403.8999999999998
 20
-177.2743473188174
 30
0.0
 40
6.0
 41
0.0
 71
     5
 72
     1
  1
\A1; 107 
 73
     1
 44
1.0
1001
ACAD
1000
MTEXTBEGIN
1070
    73
1070
     1
1070
    44
1040
1.0
1070
    74
1070
     0
1000
MTEXTEND
  0
POINT
  5
BD49
330
A3AE
100
AcDbEntity
  8
DEFPOINTS
  6
Continuous
 62
     0
100
AcDbPoint
 10
350.3999999999999
 20
-50.0
 30
0.0
  0
POINT
  5
BD4A
330
A3AE
100
AcDbEntity
  8
DEFPOINTS
  6
Continuous
 62
     0
100
AcDbPoint
 10
457.3999999999998
 20
-154.4999999999999
 30
0.0
  0
POINT
  5
BD4B
330
A3AE
100
AcDbEntity
  8
DEFPOINTS
  6
Continuous
 62
     0
100
AcDbPoint
 10
457.3999999999998
 20
-183.2743473188173
 30
0.0
  0
ENDBLK
  5
A3B9
330
A3AE
100
AcDbEntity
  8
0
100
AcDbBlockEnd
  0
BLOCK
  5
A3C4
330
A3BA
100
AcDbEntity
  8
0
100
AcDbBlockBegin
  2
*D6
 70
     1
 10
0.0
 20
0.0
 30
0.0
  3
*D6
  1

  0
LINE
  5
BD3A
330
A3BA
100
AcDbEntity
  8
30
  6
Continuous
 62
     0
370
    -2
100
AcDbLine
 10
312.3999999999998
 20
2.0
 30
0.0
 11
312.3999999999998
 21
-254.1747986253703
 31
0.0
  0
LINE
  5
BD3B
330
A3BA
100
AcDbEntity
  8
30
  6
Continuous
 62
     0
370
    -2
100
AcDbLine
 10
457.3999999999998
 20
-157.5
 30
0.0
 11
457.3999999999998
 21
-254.1747986253703
 31
0.0
  0
LINE
  5
BD3C
330
A3BA
100
AcDbEntity
  8
30
  6
Continuous
 62
     0
370
    -2
100
AcDbLine
 10
314.3999999999998
 20
-253.6747986253703
 30
0.0
 11
455.3999999999998
 21
-253.6747986253703
 31
0.0
  0
INSERT
  5
BD3D
330
A3BA
100
AcDbEntity
  8
30
  6
Continuous
 62
     0
370
    -2
100
AcDbBlockReference
  2
_OPEN
 10
312.3999999999998
 20
-253.6747986253703
 30
0.0
 41
2.0
 42
2.0
 43
2.0
 50
180.0
  0
INSERT
  5
BD3E
330
A3BA
100
AcDbEntity
  8
30
  6
Continuous
 62
     0
370
    -2
100
AcDbBlockReference
  2
_OPEN
 10
457.3999999999998
 20
-253.6747986253703
 30
0.0
 41
2.0
 42
2.0
 43
2.0
  0
MTEXT
  5
BD3F
330
A3BA
100
AcDbEntity
  8
30
  6
Continuous
 62
     0
100
AcDbMText
 10
384.8999999999999
 20
-247.6747986253703
 30
0.0
 40
6.0
 41
0.0
 71
     5
 72
     1
  1
\A1; 145 
 73
     1
 44
1.0
1001
ACAD
1000
MTEXTBEGIN
1070
    73
1070
     1
1070
    44
1040
1.0
1070
    74
1070
     0
1000
MTEXTEND
  0
POINT
  5
BD40
330
A3BA
100
AcDbEntity
  8
DEFPOINTS
  6
Continuous
 62
     0
100
AcDbPoint
 10
312.3999999999998
 20
5.0
 30
0.0
  0
POINT
  5
BD41
330
A3BA
100
AcDbEntity
  8
DEFPOINTS
  6
Continuous
 62
     0
100
AcDbPoint
 10
457.3999999999998
 20
-154.4999999999999
 30
0.0
  0
POINT
  5
BD42
330
A3BA
100
AcDbEntity
  8
DEFPOINTS
  6
Continuous
 62
     0
100
AcDbPoint
 10
457.3999999999998
 20
-253.6747986253703
 30
0.0
  0
ENDBLK
  5
A3C5
330
A3BA
100
AcDbEntity
  8
0
100
AcDbBlockEnd
  0
BLOCK
  5
A3D0
330
A3C6
100
AcDbEntity
  8
0
100
AcDbBlockBegin
  2
*D7
 70
     1
 10
0.0
 20
0.0
 30
0.0
  3
*D7
  1

  0
LINE
  5
BD31
330
A3C6
100
AcDbEntity
  8
30
  6
Continuous
 62
     0
370
    -2
100
AcDbLine
 10
329.8999999999998
 20
2.0
 30
0.0
 11
329.8999999999998
 21
-213.1450523745114
 31
0.0
  0
LINE
  5
BD32
330
A3C6
100
AcDbEntity
  8
30
  6
Continuous
 62
     0
370
    -2
100
AcDbLine
 10
457.3999999999998
 20
-152.5
 30
0.0
 11
457.3999999999998
 21
-213.1450523745114
 31
0.0
  0
LINE
  5
BD33
330
A3C6
100
AcDbEntity
  8
30
  6
Continuous
 62
     0
370
    -2
100
AcDbLine
 10
331.8999999999998
 20
-212.6450523745115
 30
0.0
 11
455.3999999999998
 21
-212.6450523745115
 31
0.0
  0
INSERT
  5
BD34
330
A3C6
100
AcDbEntity
  8
30
  6
Continuous
 62
     0
370
    -2
100
AcDbBlockReference
  2
_OPEN
 10
329.8999999999998
 20
-212.6450523745115
 30
0.0
 41
2.0
 42
2.0
 43
2.0
 50
180.0
  0
INSERT
  5
BD35
330
A3C6
100
AcDbEntity
  8
30
  6
Continuous
 62
     0
370
    -2
100
AcDbBlockReference
  2
_OPEN
 10
457.3999999999998
 20
-212.6450523745115
 30
0.0
 41
2.0
 42
2.0
 43
2.0
  0
MTEXT
  5
BD36
330
A3C6
100
AcDbEntity
  8
30
  6
Continuous
 62
     0
100
AcDbMText
 10
393.6499999999999
 20
-206.6450523745114
 30
0.0
 40
6.0
 41
0.0
 71
     5
 72
     1
  1
\A1; 127.5 
 73
     1
 44
1.0
1001
ACAD
1000
MTEXTBEGIN
1070
    73
1070
     1
1070
    44
1040
1.0
1070
    74
1070
     0
1000
MTEXTEND
  0
POINT
  5
BD37
330
A3C6
100
AcDbEntity
  8
DEFPOINTS
  6
Continuous
 62
     0
100
AcDbPoint
 10
329.8999999999998
 20
5.0
 30
0.0
  0
POINT
  5
BD38
330
A3C6
100
AcDbEntity
  8
DEFPOINTS
  6
Continuous
 62
     0
100
AcDbPoint
 10
457.3999999999998
 20
-149.5
 30
0.0
  0
POINT
  5
BD39
330
A3C6
100
AcDbEntity
  8
DEFPOINTS
  6
Continuous
 62
     0
100
AcDbPoint
 10
457.3999999999998
 20
-212.6450523745115
 30
0.0
  0
ENDBLK
  5
A3D1
330
A3C6
100
AcDbEntity
  8
0
100
AcDbBlockEnd
  0
BLOCK
  5
A3DD
330
A3D2
100
AcDbEntity
  8
0
100
AcDbBlockBegin
  2
*D8
 70
     1
 10
0.0
 20
0.0
 30
0.0
  3
*D8
  1

  0
LINE
  5
BD67
330
A3D2
100
AcDbEntity
  8
30
  6
Continuous
 62
     0
370
    -2
100
AcDbLine
 10
346.3999999999999
 20
-3.5
 30
0.0
 11
346.3999999999999
 21
-183.7743473188174
 31
0.0
  0
LINE
  5
BD68
330
A3D2
100
AcDbEntity
  8
30
  6
Continuous
 62
     0
370
    -2
100
AcDbLine
 10
350.3999999999999
 20
-53.0
 30
0.0
 11
350.3999999999999
 21
-183.7743473188174
 31
0.0
  0
LINE
  5
BD69
330
A3D2
100
AcDbEntity
  8
30
  6
Continuous
 62
     0
370
    -2
100
AcDbLine
 10
352.3999999999999
 20
-183.2743473188173
 30
0.0
 11
354.3999999999999
 21
-183.2743473188173
 31
0.0
  0
LINE
  5
BD6A
330
A3D2
100
AcDbEntity
  8
30
  6
Continuous
 62
     0
370
    -2
100
AcDbLine
 10
344.3999999999999
 20
-183.2743473188173
 30
0.0
 11
328.7999999999998
 21
-183.2743473188173
 31
0.0
  0
LINE
  5
BD6B
330
A3D2
100
AcDbEntity
  8
30
  6
Continuous
 62
     0
370
    -2
100
AcDbLine
 10
350.3999999999999
 20
-183.2743473188173
 30
0.0
 11
346.3999999999999
 21
-183.2743473188173
 31
0.0
  0
INSERT
  5
BD6C
330
A3D2
100
AcDbEntity
  8
30
  6
Continuous
 62
     0
370
    -2
100
AcDbBlockReference
  2
_OPEN
 10
350.3999999999999
 20
-183.2743473188173
 30
0.0
 41
2.0
 42
2.0
 43
2.0
 50
180.0
  0
INSERT
  5
BD6D
330
A3D2
100
AcDbEntity
  8
30
  6
Continuous
 62
     0
370
    -2
100
AcDbBlockReference
  2
_OPEN
 10
346.3999999999999
 20
-183.2743473188173
 30
0.0
 41
2.0
 42
2.0
 43
2.0
  0
MTEXT
  5
BD6E
330
A3D2
100
AcDbEntity
  8
30
  6
Continuous
 62
     0
100
AcDbMText
 10
335.5999999999998
 20
-177.2743473188174
 30
0.0
 40
6.0
 41
0.0
 71
     5
 72
     1
  1
\A1; 4 
 73
     1
 44
1.0
1001
ACAD
1000
MTEXTBEGIN
1070
    73
1070
     1
1070
    44
1040
1.0
1070
    74
1070
     0
1000
MTEXTEND
  0
POINT
  5
BD6F
330
A3D2
100
AcDbEntity
  8
DEFPOINTS
  6
Continuous
 62
     0
100
AcDbPoint
 10
346.3999999999999
 20
-0.5
 30
0.0
  0
POINT
  5
BD70
330
A3D2
100
AcDbEntity
  8
DEFPOINTS
  6
Continuous
 62
     0
100
AcDbPoint
 10
350.3999999999999
 20
-50.0
 30
0.0
  0
POINT
  5
BD71
330
A3D2
100
AcDbEntity
  8
DEFPOINTS
  6
Continuous
 62
     0
100
AcDbPoint
 10
350.3999999999999
 20
-183.2743473188173
 30
0.0
  0
ENDBLK
  5
A3DE
330
A3D2
100
AcDbEntity
  8
0
100
AcDbBlockEnd
  0
BLOCK
  5
A3F5
330
A3EB
100
AcDbEntity
  8
0
100
AcDbBlockBegin
  2
*D9
 70
     1
 10
0.0
 20
0.0
 30
0.0
  3
*D9
  1

  0
LINE
  5
BD1E
330
A3EB
100
AcDbEntity
  8
30
  6
Continuous
 62
     0
370
    -2
100
AcDbLine
 10
509.0000000000001
 20
-94.49999999999993
 30
0.0
 11
509.0000000000001
 21
-213.1450523745114
 31
0.0
  0
LINE
  5
BD1F
330
A3EB
100
AcDbEntity
  8
30
  6
Continuous
 62
     0
370
    -2
100
AcDbLine
 10
457.3999999999998
 20
-157.5
 30
0.0
 11
457.3999999999998
 21
-213.1450523745114
 31
0.0
  0
LINE
  5
BD20
330
A3EB
100
AcDbEntity
  8
30
  6
Continuous
 62
     0
370
    -2
100
AcDbLine
 10
507.0000000000002
 20
-212.6450523745115
 30
0.0
 11
459.3999999999998
 21
-212.6450523745115
 31
0.0
  0
INSERT
  5
BD21
330
A3EB
100
AcDbEntity
  8
30
  6
Continuous
 62
     0
370
    -2
100
AcDbBlockReference
  2
_OPEN
 10
509.0000000000001
 20
-212.6450523745115
 30
0.0
 41
2.0
 42
2.0
 43
2.0
  0
INSERT
  5
BD22
330
A3EB
100
AcDbEntity
  8
30
  6
Continuous
 62
     0
370
    -2
100
AcDbBlockReference
  2
_OPEN
 10
457.3999999999998
 20
-212.6450523745115
 30
0.0
 41
2.0
 42
2.0
 43
2.0
 50
180.0
  0
MTEXT
  5
BD23
330
A3EB
100
AcDbEntity
  8
30
  6
Continuous
 62
     0
100
AcDbMText
 10
483.1999999999998
 20
-206.6450523745114
 30
0.0
 40
6.0
 41
0.0
 71
     5
 72
     1
  1
\A1; 51.6 
 73
     1
 44
1.0
1001
ACAD
1000
MTEXTBEGIN
1070
    73
1070
     1
1070
    44
1040
1.0
1070
    74
1070
     0
1000
MTEXTEND
  0
POINT
  5
BD24
330
A3EB
100
AcDbEntity
  8
DEFPOINTS
  6
Continuous
 62
     0
100
AcDbPoint
 10
509.0000000000001
 20
-91.49999999999996
 30
0.0
  0
POINT
  5
BD25
330
A3EB
100
AcDbEntity
  8
DEFPOINTS
  6
Continuous
 62
     0
100
AcDbPoint
 10
457.3999999999998
 20
-154.4999999999999
 30
0.0
  0
POINT
  5
BD26
330
A3EB
100
AcDbEntity
  8
DEFPOINTS
  6
Continuous
 62
     0
100
AcDbPoint
 10
457.3999999999998
 20
-212.6450523745115
 30
0.0
  0
ENDBLK
  5
A3F6
330
A3EB
100
AcDbEntity
  8
0
100
AcDbBlockEnd
  0
BLOCK
  5
A401
330
A3F7
100
AcDbEntity
  8
0
100
AcDbBlockBegin
  2
*D10
 70
     1
 10
0.0
 20
0.0
 30
0.0
  3
*D10
  1

  0
LINE
  5
BD15
330
A3F7
100
AcDbEntity
  8
30
  6
Continuous
 62
     0
370
    -2
100
AcDbLine
 10
457.3999999999998
 20
-157.5
 30
0.0
 11
457.3999999999998
 21
-254.1747986253703
 31
0.0
  0
LINE
  5
BD16
330
A3F7
100
AcDbEntity
  8
30
  6
Continuous
 62
     0
370
    -2
100
AcDbLine
 10
573.3999999999999
 20
-157.5
 30
0.0
 11
573.3999999999999
 21
-254.1747986253703
 31
0.0
  0
LINE
  5
BD17
330
A3F7
100
AcDbEntity
  8
30
  6
Continuous
 62
     0
370
    -2
100
AcDbLine
 10
459.3999999999998
 20
-253.6747986253703
 30
0.0
 11
571.3999999999997
 21
-253.6747986253703
 31
0.0
  0
INSERT
  5
BD18
330
A3F7
100
AcDbEntity
  8
30
  6
Continuous
 62
     0
370
    -2
100
AcDbBlockReference
  2
_OPEN
 10
457.3999999999998
 20
-253.6747986253703
 30
0.0
 41
2.0
 42
2.0
 43
2.0
 50
180.0
  0
INSERT
  5
BD19
330
A3F7
100
AcDbEntity
  8
30
  6
Continuous
 62
     0
370
    -2
100
AcDbBlockReference
  2
_OPEN
 10
573.3999999999999
 20
-253.6747986253703
 30
0.0
 41
2.0
 42
2.0
 43
2.0
  0
MTEXT
  5
BD1A
330
A3F7
100
AcDbEntity
  8
30
  6
Continuous
 62
     0
100
AcDbMText
 10
515.3999999999999
 20
-247.6747986253703
 30
0.0
 40
6.0
 41
0.0
 71
     5
 72
     1
  1
\A1; 116 
 73
     1
 44
1.0
1001
ACAD
1000
MTEXTBEGIN
1070
    73
1070
     1
1070
    44
1040
1.0
1070
    74
1070
     0
1000
MTEXTEND
  0
POINT
  5
BD1B
330
A3F7
100
AcDbEntity
  8
DEFPOINTS
  6
Continuous
 62
     0
100
AcDbPoint
 10
457.3999999999998
 20
-154.4999999999999
 30
0.0
  0
POINT
  5
BD1C
330
A3F7
100
AcDbEntity
  8
DEFPOINTS
  6
Continuous
 62
     0
100
AcDbPoint
 10
573.3999999999999
 20
-154.4999999999999
 30
0.0
  0
POINT
  5
BD1D
330
A3F7
100
AcDbEntity
  8
DEFPOINTS
  6
Continuous
 62
     0
100
AcDbPoint
 10
573.3999999999999
 20
-253.6747986253703
 30
0.0
  0
ENDBLK
  5
A402
330
A3F7
100
AcDbEntity
  8
0
100
AcDbBlockEnd
  0
BLOCK
  5
A46D
330
A463
100
AcDbEntity
  8
0
100
AcDbBlockBegin
  2
*D11
 70
     1
 10
0.0
 20
0.0
 30
0.0
  3
*D11
  1

  0
LINE
  5
BD0C
330
A463
100
AcDbEntity
  8
30
  6
Continuous
 62
     0
370
    -2
100
AcDbLine
 10
339.0549512574474
 20
446.1974087086753
 30
0.0
 11
339.0549512574474
 21
455.8154878793343
 31
0.0
  0
LINE
  5
BD0D
330
A463
100
AcDbEntity
  8
30
  6
Continuous
 62
     0
370
    -2
100
AcDbLine
 10
362.0549512574472
 20
406.8043687086754
 30
0.0
 11
362.0549512574472
 21
455.8154878793343
 31
0.0
  0
LINE
  5
BD0E
330
A463
100
AcDbEntity
  8
30
  6
Continuous
 62
     0
370
    -2
100
AcDbLine
 10
341.0549512574473
 20
455.3154878793344
 30
0.0
 11
360.0549512574472
 21
455.3154878793344
 31
0.0
  0
INSERT
  5
BD0F
330
A463
100
AcDbEntity
  8
30
  6
Continuous
 62
     0
370
    -2
100
AcDbBlockReference
  2
_OPEN
 10
339.0549512574474
 20
455.3154878793344
 30
0.0
 41
2.0
 42
2.0
 43
2.0
 50
180.0
  0
INSERT
  5
BD10
330
A463
100
AcDbEntity
  8
30
  6
Continuous
 62
     0
370
    -2
100
AcDbBlockReference
  2
_OPEN
 10
362.0549512574472
 20
455.3154878793344
 30
0.0
 41
2.0
 42
2.0
 43
2.0
  0
MTEXT
  5
BD11
330
A463
100
AcDbEntity
  8
30
  6
Continuous
 62
     0
100
AcDbMText
 10
350.5549512574472
 20
461.3154878793344
 30
0.0
 40
6.0
 41
0.0
 71
     5
 72
     1
  1
\A1; 23 
 73
     1
 44
1.0
1001
ACAD
1000
MTEXTBEGIN
1070
    73
1070
     1
1070
    44
1040
1.0
1070
    74
1070
     0
1000
MTEXTEND
  0
POINT
  5
BD12
330
A463
100
AcDbEntity
  8
DEFPOINTS
  6
Continuous
 62
     0
100
AcDbPoint
 10
339.0549512574474
 20
443.1974087086754
 30
0.0
  0
POINT
  5
BD13
330
A463
100
AcDbEntity
  8
DEFPOINTS
  6
Continuous
 62
     0
100
AcDbPoint
 10
362.0549512574472
 20
403.8043687086753
 30
0.0
  0
POINT
  5
BD14
330
A463
100
AcDbEntity
  8
DEFPOINTS
  6
Continuous
 62
     0
100
AcDbPoint
 10
362.0549512574472
 20
455.3154878793344
 30
0.0
  0
ENDBLK
  5
A46E
330
A463
100
AcDbEntity
  8
0
100
AcDbBlockEnd
  0
BLOCK
  5
A479
330
A46F
100
AcDbEntity
  8
0
100
AcDbBlockBegin
  2
*D12
 70
     1
 10
0.0
 20
0.0
 30
0.0
  3
*D12
  1

  0
LINE
  5
BD03
330
A46F
100
AcDbEntity
  8
30
  6
Continuous
 62
     0
370
    -2
100
AcDbLine
 10
287.4549512574469
 20
307.8043687086755
 30
0.0
 11
287.4549512574469
 21
237.7084937086753
 31
0.0
  0
LINE
  5
BD04
330
A46F
100
AcDbEntity
  8
30
  6
Continuous
 62
     0
370
    -2
100
AcDbLine
 10
358.9549512574468
 20
257.8043687086753
 30
0.0
 11
358.9549512574468
 21
237.7084937086753
 31
0.0
  0
LINE
  5
BD05
330
A46F
100
AcDbEntity
  8
30
  6
Continuous
 62
     0
370
    -2
100
AcDbLine
 10
289.4549512574469
 20
238.2084937086754
 30
0.0
 11
356.9549512574468
 21
238.2084937086754
 31
0.0
  0
INSERT
  5
BD06
330
A46F
100
AcDbEntity
  8
30
  6
Continuous
 62
     0
370
    -2
100
AcDbBlockReference
  2
_OPEN
 10
287.4549512574469
 20
238.2084937086754
 30
0.0
 41
2.0
 42
2.0
 43
2.0
 50
180.0
  0
INSERT
  5
BD07
330
A46F
100
AcDbEntity
  8
30
  6
Continuous
 62
     0
370
    -2
100
AcDbBlockReference
  2
_OPEN
 10
358.9549512574468
 20
238.2084937086754
 30
0.0
 41
2.0
 42
2.0
 43
2.0
  0
MTEXT
  5
BD08
330
A46F
100
AcDbEntity
  8
30
  6
Continuous
 62
     0
100
AcDbMText
 10
323.2049512574469
 20
244.2084937086753
 30
0.0
 40
6.0
 41
0.0
 71
     5
 72
     1
  1
\A1; 71.5 
 73
     1
 44
1.0
1001
ACAD
1000
MTEXTBEGIN
1070
    73
1070
     1
1070
    44
1040
1.0
1070
    74
1070
     0
1000
MTEXTEND
  0
POINT
  5
BD09
330
A46F
100
AcDbEntity
  8
DEFPOINTS
  6
Continuous
 62
     0
100
AcDbPoint
 10
287.4549512574469
 20
310.8043687086754
 30
0.0
  0
POINT
  5
BD0A
330
A46F
100
AcDbEntity
  8
DEFPOINTS
  6
Continuous
 62
     0
100
AcDbPoint
 10
358.9549512574468
 20
260.8043687086754
 30
0.0
  0
POINT
  5
BD0B
330
A46F
100
AcDbEntity
  8
DEFPOINTS
  6
Continuous
 62
     0
100
AcDbPoint
 10
358.9549512574468
 20
238.2084937086754
 30
0.0
  0
ENDBLK
  5
A47A
330
A46F
100
AcDbEntity
  8
0
100
AcDbBlockEnd
  0
BLOCK
  5
A485
330
A47B
100
AcDbEntity
  8
0
100
AcDbBlockBegin
  2
*D13
 70
     1
 10
0.0
 20
0.0
 30
0.0
  3
*D13
  1

  0
LINE
  5
BCFA
330
A47B
100
AcDbEntity
  8
30
  6
Continuous
 62
     0
370
    -2
100
AcDbLine
 10
358.9549512574468
 20
257.8043687086753
 30
0.0
 11
358.9549512574468
 21
237.7084937086753
 31
0.0
  0
LINE
  5
BCFB
330
A47B
100
AcDbEntity
  8
30
  6
Continuous
 62
     0
370
    -2
100
AcDbLine
 10
402.4549512574469
 20
334.3043687086753
 30
0.0
 11
402.4549512574469
 21
237.7084937086753
 31
0.0
  0
LINE
  5
BCFC
330
A47B
100
AcDbEntity
  8
30
  6
Continuous
 62
     0
370
    -2
100
AcDbLine
 10
360.9549512574468
 20
238.2084937086754
 30
0.0
 11
400.4549512574469
 21
238.2084937086754
 31
0.0
  0
INSERT
  5
BCFD
330
A47B
100
AcDbEntity
  8
30
  6
Continuous
 62
     0
370
    -2
100
AcDbBlockReference
  2
_OPEN
 10
358.9549512574468
 20
238.2084937086754
 30
0.0
 41
2.0
 42
2.0
 43
2.0
 50
180.0
  0
INSERT
  5
BCFE
330
A47B
100
AcDbEntity
  8
30
  6
Continuous
 62
     0
370
    -2
100
AcDbBlockReference
  2
_OPEN
 10
402.4549512574469
 20
238.2084937086754
 30
0.0
 41
2.0
 42
2.0
 43
2.0
  0
MTEXT
  5
BCFF
330
A47B
100
AcDbEntity
  8
30
  6
Continuous
 62
     0
100
AcDbMText
 10
380.7049512574469
 20
244.2084937086753
 30
0.0
 40
6.0
 41
0.0
 71
     5
 72
     1
  1
\A1; 43.5 
 73
     1
 44
1.0
1001
ACAD
1000
MTEXTBEGIN
1070
    73
1070
     1
1070
    44
1040
1.0
1070
    74
1070
     0
1000
MTEXTEND
  0
POINT
  5
BD00
330
A47B
100
AcDbEntity
  8
DEFPOINTS
  6
Continuous
 62
     0
100
AcDbPoint
 10
358.9549512574468
 20
260.8043687086754
 30
0.0
  0
POINT
  5
BD01
330
A47B
100
AcDbEntity
  8
DEFPOINTS
  6
Continuous
 62
     0
100
AcDbPoint
 10
402.4549512574469
 20
337.3043687086753
 30
0.0
  0
POINT
  5
BD02
330
A47B
100
AcDbEntity
  8
DEFPOINTS
  6
Continuous
 62
     0
100
AcDbPoint
 10
402.4549512574469
 20
238.2084937086754
 30
0.0
  0
ENDBLK
  5
A486
330
A47B
100
AcDbEntity
  8
0
100
AcDbBlockEnd
  0
BLOCK
  5
A49D
330
A493
100
AcDbEntity
  8
0
100
AcDbBlockBegin
  2
*D14
 70
     1
 10
0.0
 20
0.0
 30
0.0
  3
*D14
  1

  0
LINE
  5
BCF1
330
A493
100
AcDbEntity
  8
30
  6
Continuous
 62
     0
370
    -2
100
AcDbLine
 10
-34.99999999999977
 20
-528.5289393520675
 30
0.0
 11
-34.99999999999978
 21
-647.6248143520672
 31
0.0
  0
LINE
  5
BCF2
330
A493
100
AcDbEntity
  8
30
  6
Continuous
 62
     0
370
    -2
100
AcDbLine
 10
135.0000000000002
 20
-528.5289393520675
 30
0.0
 11
135.0000000000002
 21
-647.6248143520672
 31
0.0
  0
LINE
  5
BCF3
330
A493
100
AcDbEntity
  8
30
  6
Continuous
 62
     0
370
    -2
100
AcDbLine
 10
-32.99999999999978
 20
-647.1248143520672
 30
0.0
 11
133.0000000000002
 21
-647.1248143520672
 31
0.0
  0
INSERT
  5
BCF4
330
A493
100
AcDbEntity
  8
30
  6
Continuous
 62
     0
370
    -2
100
AcDbBlockReference
  2
_OPEN
 10
-34.99999999999978
 20
-647.1248143520672
 30
0.0
 41
2.0
 42
2.0
 43
2.0
 50
180.0
  0
INSERT
  5
BCF5
330
A493
100
AcDbEntity
  8
30
  6
Continuous
 62
     0
370
    -2
100
AcDbBlockReference
  2
_OPEN
 10
135.0000000000002
 20
-647.1248143520672
 30
0.0
 41
2.0
 42
2.0
 43
2.0
  0
MTEXT
  5
BCF6
330
A493
100
AcDbEntity
  8
30
  6
Continuous
 62
     0
100
AcDbMText
 10
50.00000000000023
 20
-641.1248143520672
 30
0.0
 40
6.0
 41
0.0
 71
     5
 72
     1
  1
\A1; 170 
 73
     1
 44
1.0
1001
ACAD
1000
MTEXTBEGIN
1070
    73
1070
     1
1070
    44
1040
1.0
1070
    74
1070
     0
1000
MTEXTEND
  0
POINT
  5
BCF7
330
A493
100
AcDbEntity
  8
DEFPOINTS
  6
Continuous
 62
     0
100
AcDbPoint
 10
-34.99999999999977
 20
-525.5289393520675
 30
0.0
  0
POINT
  5
BCF8
330
A493
100
AcDbEntity
  8
DEFPOINTS
  6
Continuous
 62
     0
100
AcDbPoint
 10
135.0000000000002
 20
-525.5289393520675
 30
0.0
  0
POINT
  5
BCF9
330
A493
100
AcDbEntity
  8
DEFPOINTS
  6
Continuous
 62
     0
100
AcDbPoint
 10
135.0000000000002
 20
-647.1248143520672
 30
0.0
  0
ENDBLK
  5
A49E
330
A493
100
AcDbEntity
  8
0
100
AcDbBlockEnd
  0
BLOCK
  5
A4A9
330
A49F
100
AcDbEntity
  8
0
100
AcDbBlockBegin
  2
*D15
 70
     1
 10
0.0
 20
0.0
 30
0.0
  3
*D15
  1

  0
LINE
  5
BCE8
330
A49F
100
AcDbEntity
  8
30
  6
Continuous
 62
     0
370
    -2
100
AcDbLine
 10
15.00000000000022
 20
-453.5289393520675
 30
0.0
 11
15.00000000000022
 21
-567.6248143520672
 31
0.0
  0
LINE
  5
BCE9
330
A49F
100
AcDbEntity
  8
30
  6
Continuous
 62
     0
370
    -2
100
AcDbLine
 10
-34.99999999999977
 20
-528.5289393520675
 30
0.0
 11
-34.99999999999977
 21
-567.6248143520672
 31
0.0
  0
LINE
  5
BCEA
330
A49F
100
AcDbEntity
  8
30
  6
Continuous
 62
     0
370
    -2
100
AcDbLine
 10
13.00000000000022
 20
-567.1248143520672
 30
0.0
 11
-32.99999999999978
 21
-567.1248143520672
 31
0.0
  0
INSERT
  5
BCEB
330
A49F
100
AcDbEntity
  8
30
  6
Continuous
 62
     0
370
    -2
100
AcDbBlockReference
  2
_OPEN
 10
15.00000000000022
 20
-567.1248143520672
 30
0.0
 41
2.0
 42
2.0
 43
2.0
  0
INSERT
  5
BCEC
330
A49F
100
AcDbEntity
  8
30
  6
Continuous
 62
     0
370
    -2
100
AcDbBlockReference
  2
_OPEN
 10
-34.99999999999977
 20
-567.1248143520672
 30
0.0
 41
2.0
 42
2.0
 43
2.0
 50
180.0
  0
MTEXT
  5
BCED
330
A49F
100
AcDbEntity
  8
30
  6
Continuous
 62
     0
100
AcDbMText
 10
-9.999999999999776
 20
-561.1248143520675
 30
0.0
 40
6.0
 41
0.0
 71
     5
 72
     1
  1
\A1; 50 
 73
     1
 44
1.0
1001
ACAD
1000
MTEXTBEGIN
1070
    73
1070
     1
1070
    44
1040
1.0
1070
    74
1070
     0
1000
MTEXTEND
  0
POINT
  5
BCEE
330
A49F
100
AcDbEntity
  8
DEFPOINTS
  6
Continuous
 62
     0
100
AcDbPoint
 10
15.00000000000022
 20
-450.5289393520675
 30
0.0
  0
POINT
  5
BCEF
330
A49F
100
AcDbEntity
  8
DEFPOINTS
  6
Continuous
 62
     0
100
AcDbPoint
 10
-34.99999999999977
 20
-525.5289393520675
 30
0.0
  0
POINT
  5
BCF0
330
A49F
100
AcDbEntity
  8
DEFPOINTS
  6
Continuous
 62
     0
100
AcDbPoint
 10
-34.99999999999977
 20
-567.1248143520672
 30
0.0
  0
ENDBLK
  5
A4AA
330
A49F
100
AcDbEntity
  8
0
100
AcDbBlockEnd
  0
BLOCK
  5
A4F1
330
A4E7
100
AcDbEntity
  8
0
100
AcDbBlockBegin
  2
*D16
 70
     1
 10
0.0
 20
0.0
 30
0.0
  3
*D16
  1

  0
LINE
  5
BCDF
330
A4E7
100
AcDbEntity
  8
30
  6
Continuous
 62
     0
370
    -2
100
AcDbLine
 10
473.9549512574469
 20
382.8043687086753
 30
0.0
 11
473.9549512574469
 21
406.9812645649688
 31
0.0
  0
LINE
  5
BCE0
330
A4E7
100
AcDbEntity
  8
30
  6
Continuous
 62
     0
370
    -2
100
AcDbLine
 10
513.9549512574468
 20
382.8043687086753
 30
0.0
 11
513.9549512574468
 21
406.9812645649688
 31
0.0
  0
LINE
  5
BCE1
330
A4E7
100
AcDbEntity
  8
30
  6
Continuous
 62
     0
370
    -2
100
AcDbLine
 10
475.9549512574468
 20
406.4812645649688
 30
0.0
 11
511.954951257447
 21
406.4812645649688
 31
0.0
  0
INSERT
  5
BCE2
330
A4E7
100
AcDbEntity
  8
30
  6
Continuous
 62
     0
370
    -2
100
AcDbBlockReference
  2
_OPEN
 10
473.9549512574469
 20
406.4812645649688
 30
0.0
 41
2.0
 42
2.0
 43
2.0
 50
180.0
  0
INSERT
  5
BCE3
330
A4E7
100
AcDbEntity
  8
30
  6
Continuous
 62
     0
370
    -2
100
AcDbBlockReference
  2
_OPEN
 10
513.9549512574468
 20
406.4812645649688
 30
0.0
 41
2.0
 42
2.0
 43
2.0
  0
MTEXT
  5
BCE4
330
A4E7
100
AcDbEntity
  8
30
  6
Continuous
 62
     0
100
AcDbMText
 10
493.9549512574469
 20
412.4812645649687
 30
0.0
 40
6.0
 41
0.0
 71
     5
 72
     1
  1
\A1; 40 
 73
     1
 44
1.0
1001
ACAD
1000
MTEXTBEGIN
1070
    73
1070
     1
1070
    44
1040
1.0
1070
    74
1070
     0
1000
MTEXTEND
  0
POINT
  5
BCE5
330
A4E7
100
AcDbEntity
  8
DEFPOINTS
  6
Continuous
 62
     0
100
AcDbPoint
 10
473.9549512574469
 20
379.8043687086753
 30
0.0
  0
POINT
  5
BCE6
330
A4E7
100
AcDbEntity
  8
DEFPOINTS
  6
Continuous
 62
     0
100
AcDbPoint
 10
513.9549512574468
 20
379.8043687086753
 30
0.0
  0
POINT
  5
BCE7
330
A4E7
100
AcDbEntity
  8
DEFPOINTS
  6
Continuous
 62
     0
100
AcDbPoint
 10
513.9549512574468
 20
406.4812645649688
 30
0.0
  0
ENDBLK
  5
A4F2
330
A4E7
100
AcDbEntity
  8
0
100
AcDbBlockEnd
  0
BLOCK
  5
A4FD
330
A4F3
100
AcDbEntity
  8
0
100
AcDbBlockBegin
  2
*D17
 70
     1
 10
0.0
 20
0.0
 30
0.0
  3
*D17
  1

  0
LINE
  5
BCD6
330
A4F3
100
AcDbEntity
  8
30
  6
Continuous
 62
     0
370
    -2
100
AcDbLine
 10
-0.0000000000000002
 20
-188.2499999999999
 30
0.0
 11
-0.0000000000000014
 21
-207.5958749999999
 31
0.0
  0
LINE
  5
BCD7
330
A4F3
100
AcDbEntity
  8
30
  6
Continuous
 62
     0
370
    -2
100
AcDbLine
 10
174.9999999999995
 20
-157.5
 30
0.0
 11
174.9999999999995
 21
-207.5958749999999
 31
0.0
  0
LINE
  5
BCD8
330
A4F3
100
AcDbEntity
  8
30
  6
Continuous
 62
     0
370
    -2
100
AcDbLine
 10
1.999999999999998
 20
-207.0958749999999
 30
0.0
 11
172.9999999999995
 21
-207.0958749999999
 31
0.0
  0
INSERT
  5
BCD9
330
A4F3
100
AcDbEntity
  8
30
  6
Continuous
 62
     0
370
    -2
100
AcDbBlockReference
  2
_OPEN
 10
-0.0000000000000013
 20
-207.0958749999999
 30
0.0
 41
2.0
 42
2.0
 43
2.0
 50
180.0
  0
INSERT
  5
BCDA
330
A4F3
100
AcDbEntity
  8
30
  6
Continuous
 62
     0
370
    -2
100
AcDbBlockReference
  2
_OPEN
 10
174.9999999999995
 20
-207.0958749999999
 30
0.0
 41
2.0
 42
2.0
 43
2.0
  0
MTEXT
  5
BCDB
330
A4F3
100
AcDbEntity
  8
30
  6
Continuous
 62
     0
100
AcDbMText
 10
87.49999999999989
 20
-201.0958749999999
 30
0.0
 40
6.0
 41
0.0
 71
     5
 72
     1
  1
\A1; 175 
 73
     1
 44
1.0
1001
ACAD
1000
MTEXTBEGIN
1070
    73
1070
     1
1070
    44
1040
1.0
1070
    74
1070
     0
1000
MTEXTEND
  0
POINT
  5
BCDC
330
A4F3
100
AcDbEntity
  8
DEFPOINTS
  6
Continuous
 62
     0
100
AcDbPoint
 10
0.0
 20
-185.2499999999999
 30
0.0
  0
POINT
  5
BCDD
330
A4F3
100
AcDbEntity
  8
DEFPOINTS
  6
Continuous
 62
     0
100
AcDbPoint
 10
174.9999999999995
 20
-154.4999999999999
 30
0.0
  0
POINT
  5
BCDE
330
A4F3
100
AcDbEntity
  8
DEFPOINTS
  6
Continuous
 62
     0
100
AcDbPoint
 10
174.9999999999995
 20
-207.0958749999999
 30
0.0
  0
ENDBLK
  5
A4FE
330
A4F3
100
AcDbEntity
  8
0
100
AcDbBlockEnd
  0
BLOCK
  5
A594
330
A589
100
AcDbEntity
  8
0
100
AcDbBlockBegin
  2
*D18
 70
     1
 10
0.0
 20
0.0
 30
0.0
  3
*D18
  1

  0
LINE
  5
BCCD
330
A589
100
AcDbEntity
  8
30
  6
Continuous
 62
     0
370
    -2
100
AcDbLine
 10
366.9549512574469
 20
348.3043687086754
 30
0.0
 11
439.5088512574468
 21
348.3043687086754
 31
0.0
  0
LINE
  5
BCCE
330
A589
100
AcDbEntity
  8
30
  6
Continuous
 62
     0
370
    -2
100
AcDbLine
 10
411.4549512574469
 20
375.3043687086754
 30
0.0
 11
439.5088512574468
 21
375.3043687086754
 31
0.0
  0
LINE
  5
BCCF
330
A589
100
AcDbEntity
  8
30
  6
Continuous
 62
     0
370
    -2
100
AcDbLine
 10
439.0088512574468
 20
350.3043687086754
 30
0.0
 11
439.0088512574468
 21
373.3043687086754
 31
0.0
  0
INSERT
  5
BCD0
330
A589
100
AcDbEntity
  8
30
  6
Continuous
 62
     0
370
    -2
100
AcDbBlockReference
  2
_OPEN
 10
439.0088512574468
 20
348.3043687086754
 30
0.0
 41
2.0
 42
2.0
 43
2.0
 50
270.0
  0
INSERT
  5
BCD1
330
A589
100
AcDbEntity
  8
30
  6
Continuous
 62
     0
370
    -2
100
AcDbBlockReference
  2
_OPEN
 10
439.0088512574468
 20
375.3043687086754
 30
0.0
 41
2.0
 42
2.0
 43
2.0
 50
90.0
  0
MTEXT
  5
BCD2
330
A589
100
AcDbEntity
  8
30
  6
Continuous
 62
     0
100
AcDbMText
 10
433.0088512574469
 20
361.8043687086756
 30
0.0
 40
6.0
 41
0.0
 71
     5
 72
     1
  1
\A1; 27 
 11
0.0000000000000001
 21
1.0
 31
0.0
 73
     1
 44
1.0
1001
ACAD
1000
MTEXTBEGIN
1070
    73
1070
     1
1070
    44
1040
1.0
1070
    74
1070
     0
1000
MTEXTEND
  0
POINT
  5
BCD3
330
A589
100
AcDbEntity
  8
DEFPOINTS
  6
Continuous
 62
     0
100
AcDbPoint
 10
363.9549512574469
 20
348.3043687086754
 30
0.0
  0
POINT
  5
BCD4
330
A589
100
AcDbEntity
  8
DEFPOINTS
  6
Continuous
 62
     0
100
AcDbPoint
 10
408.4549512574469
 20
375.3043687086754
 30
0.0
  0
POINT
  5
BCD5
330
A589
100
AcDbEntity
  8
DEFPOINTS
  6
Continuous
 62
     0
100
AcDbPoint
 10
439.0088512574468
 20
375.3043687086754
 30
0.0
  0
ENDBLK
  5
A595
330
A589
100
AcDbEntity
  8
0
100
AcDbBlockEnd
  0
BLOCK
  5
A5A1
330
A596
100
AcDbEntity
  8
0
100
AcDbBlockBegin
  2
*D19
 70
     1
 10
0.0
 20
0.0
 30
0.0
  3
*D19
  1

  0
LINE
  5
BCC2
330
A596
100
AcDbEntity
  8
30
  6
Continuous
 62
     0
370
    -2
100
AcDbLine
 10
501.9549512574469
 20
348.3043687086754
 30
0.0
 11
554.5088512574468
 21
348.3043687086754
 31
0.0
  0
LINE
  5
BCC3
330
A596
100
AcDbEntity
  8
30
  6
Continuous
 62
     0
370
    -2
100
AcDbLine
 10
521.9549512574468
 20
374.8043687086753
 30
0.0
 11
554.5088512574468
 21
374.8043687086753
 31
0.0
  0
LINE
  5
BCC4
330
A596
100
AcDbEntity
  8
30
  6
Continuous
 62
     0
370
    -2
100
AcDbLine
 10
554.0088512574468
 20
350.3043687086754
 30
0.0
 11
554.0088512574468
 21
372.8043687086753
 31
0.0
  0
LINE
  5
BCC5
330
A596
100
AcDbEntity
  8
30
  6
Continuous
 62
     0
370
    -2
100
AcDbLine
 10
554.0088512574468
 20
374.8043687086753
 30
0.0
 11
554.0088512574468
 21
376.8043687086753
 31
0.0
  0
LINE
  5
BCC6
330
A596
100
AcDbEntity
  8
30
  6
Continuous
 62
     0
370
    -2
100
AcDbLine
 10
554.0088512574468
 20
376.8043687086753
 30
0.0
 11
578.6088512574467
 21
376.8043687086753
 31
0.0
  0
INSERT
  5
BCC7
330
A596
100
AcDbEntity
  8
30
  6
Continuous
 62
     0
370
    -2
100
AcDbBlockReference
  2
_OPEN
 10
554.0088512574468
 20
348.3043687086754
 30
0.0
 41
2.0
 42
2.0
 43
2.0
 50
270.0
  0
INSERT
  5
BCC8
330
A596
100
AcDbEntity
  8
30
  6
Continuous
 62
     0
370
    -2
100
AcDbBlockReference
  2
_OPEN
 10
554.0088512574468
 20
374.8043687086753
 30
0.0
 41
2.0
 42
2.0
 43
2.0
 50
90.0
  0
MTEXT
  5
BCC9
330
A596
100
AcDbEntity
  8
30
  6
Continuous
 62
     0
100
AcDbMText
 10
567.8088512574467
 20
382.8043687086753
 30
0.0
 40
6.0
 41
0.0
 71
     5
 72
     1
  1
\A1; 26.5 
 73
     1
 44
1.0
1001
ACAD
1000
MTEXTBEGIN
1070
    73
1070
     1
1070
    44
1040
1.0
1070
    74
1070
     0
1000
MTEXTEND
  0
POINT
  5
BCCA
330
A596
100
AcDbEntity
  8
DEFPOINTS
  6
Continuous
 62
     0
100
AcDbPoint
 10
498.9549512574469
 20
348.3043687086754
 30
0.0
  0
POINT
  5
BCCB
330
A596
100
AcDbEntity
  8
DEFPOINTS
  6
Continuous
 62
     0
100
AcDbPoint
 10
518.9549512574468
 20
374.8043687086753
 30
0.0
  0
POINT
  5
BCCC
330
A596
100
AcDbEntity
  8
DEFPOINTS
  6
Continuous
 62
     0
100
AcDbPoint
 10
554.0088512574468
 20
374.8043687086753
 30
0.0
  0
ENDBLK
  5
A5A2
330
A596
100
AcDbEntity
  8
0
100
AcDbBlockEnd
  0
BLOCK
  5
A5C8
330
A5BD
100
AcDbEntity
  8
0
100
AcDbBlockBegin
  2
*D20
 70
     1
 10
0.0
 20
0.0
 30
0.0
  3
*D20
  1

  0
LINE
  5
BCB9
330
A5BD
100
AcDbEntity
  8
30
  6
Continuous
 62
     0
370
    -2
100
AcDbLine
 10
143.0
 20
-370.5289393520672
 30
0.0
 11
259.2538999999999
 21
-370.5289393520672
 31
0.0
  0
LINE
  5
BCBA
330
A5BD
100
AcDbEntity
  8
30
  6
Continuous
 62
     0
370
    -2
100
AcDbLine
 10
153.1758602795218
 20
-450.0289393520675
 30
0.0
 11
259.2538999999999
 21
-450.0289393520675
 31
0.0
  0
LINE
  5
BCBB
330
A5BD
100
AcDbEntity
  8
30
  6
Continuous
 62
     0
370
    -2
100
AcDbLine
 10
258.7539
 20
-372.5289393520673
 30
0.0
 11
258.7538999999999
 21
-448.0289393520672
 31
0.0
  0
INSERT
  5
BCBC
330
A5BD
100
AcDbEntity
  8
30
  6
Continuous
 62
     0
370
    -2
100
AcDbBlockReference
  2
_OPEN
 10
258.7539
 20
-370.5289393520672
 30
0.0
 41
2.0
 42
2.0
 43
2.0
 50
90.0
  0
INSERT
  5
BCBD
330
A5BD
100
AcDbEntity
  8
30
  6
Continuous
 62
     0
370
    -2
100
AcDbBlockReference
  2
_OPEN
 10
258.7538999999999
 20
-450.0289393520675
 30
0.0
 41
2.0
 42
2.0
 43
2.0
 50
270.0
  0
MTEXT
  5
BCBE
330
A5BD
100
AcDbEntity
  8
30
  6
Continuous
 62
     0
100
AcDbMText
 10
252.7538999999999
 20
-410.2789393520675
 30
0.0
 40
6.0
 41
0.0
 71
     5
 72
     1
  1
\A1; 79.5 
 11
0.0000000000000001
 21
1.0
 31
0.0
 73
     1
 44
1.0
1001
ACAD
1000
MTEXTBEGIN
1070
    73
1070
     1
1070
    44
1040
1.0
1070
    74
1070
     0
1000
MTEXTEND
  0
POINT
  5
BCBF
330
A5BD
100
AcDbEntity
  8
DEFPOINTS
  6
Continuous
 62
     0
100
AcDbPoint
 10
140.0
 20
-370.5289393520672
 30
0.0
  0
POINT
  5
BCC0
330
A5BD
100
AcDbEntity
  8
DEFPOINTS
  6
Continuous
 62
     0
100
AcDbPoint
 10
150.1758602795218
 20
-450.0289393520675
 30
0.0
  0
POINT
  5
BCC1
330
A5BD
100
AcDbEntity
  8
DEFPOINTS
  6
Continuous
 62
     0
100
AcDbPoint
 10
258.7538999999999
 20
-450.0289393520675
 30
0.0
  0
ENDBLK
  5
A5C9
330
A5BD
100
AcDbEntity
  8
0
100
AcDbBlockEnd
  0
BLOCK
  5
A5D5
330
A5CA
100
AcDbEntity
  8
0
100
AcDbBlockBegin
  2
*D21
 70
     1
 10
0.0
 20
0.0
 30
0.0
  3
*D21
  1

  0
LINE
  5
BCB0
330
A5CA
100
AcDbEntity
  8
30
  6
Continuous
 62
     0
370
    -2
100
AcDbLine
 10
143.0
 20
-520.5289393520675
 30
0.0
 11
259.2538999999999
 21
-520.5289393520676
 31
0.0
  0
LINE
  5
BCB1
330
A5CA
100
AcDbEntity
  8
30
  6
Continuous
 62
     0
370
    -2
100
AcDbLine
 10
208.0
 20
-450.0289393520675
 30
0.0
 11
259.2538999999999
 21
-450.0289393520675
 31
0.0
  0
LINE
  5
BCB2
330
A5CA
100
AcDbEntity
  8
30
  6
Continuous
 62
     0
370
    -2
100
AcDbLine
 10
258.7538999999999
 20
-518.5289393520673
 30
0.0
 11
258.7538999999999
 21
-452.0289393520672
 31
0.0
  0
INSERT
  5
BCB3
330
A5CA
100
AcDbEntity
  8
30
  6
Continuous
 62
     0
370
    -2
100
AcDbBlockReference
  2
_OPEN
 10
258.7538999999999
 20
-520.5289393520676
 30
0.0
 41
2.0
 42
2.0
 43
2.0
 50
270.0
  0
INSERT
  5
BCB4
330
A5CA
100
AcDbEntity
  8
30
  6
Continuous
 62
     0
370
    -2
100
AcDbBlockReference
  2
_OPEN
 10
258.7538999999999
 20
-450.0289393520675
 30
0.0
 41
2.0
 42
2.0
 43
2.0
 50
90.0
  0
MTEXT
  5
BCB5
330
A5CA
100
AcDbEntity
  8
30
  6
Continuous
 62
     0
100
AcDbMText
 10
252.7538999999999
 20
-485.2789393520675
 30
0.0
 40
6.0
 41
0.0
 71
     5
 72
     1
  1
\A1; 70.5 
 11
0.0000000000000001
 21
1.0
 31
0.0
 73
     1
 44
1.0
1001
ACAD
1000
MTEXTBEGIN
1070
    73
1070
     1
1070
    44
1040
1.0
1070
    74
1070
     0
1000
MTEXTEND
  0
POINT
  5
BCB6
330
A5CA
100
AcDbEntity
  8
DEFPOINTS
  6
Continuous
 62
     0
100
AcDbPoint
 10
140.0
 20
-520.5289393520675
 30
0.0
  0
POINT
  5
BCB7
330
A5CA
100
AcDbEntity
  8
DEFPOINTS
  6
Continuous
 62
     0
100
AcDbPoint
 10
205.0000000000002
 20
-450.0289393520675
 30
0.0
  0
POINT
  5
BCB8
330
A5CA
100
AcDbEntity
  8
DEFPOINTS
  6
Continuous
 62
     0
100
AcDbPoint
 10
258.7538999999999
 20
-450.0289393520675
 30
0.0
  0
ENDBLK
  5
A5D6
330
A5CA
100
AcDbEntity
  8
0
100
AcDbBlockEnd
  0
BLOCK
  5
A5E2
330
A5D7
100
AcDbEntity
  8
0
100
AcDbBlockBegin
  2
*D22
 70
     1
 10
0.0
 20
0.0
 30
0.0
  3
*D22
  1

  0
LINE
  5
BDB1
330
A5D7
100
AcDbEntity
  8
30
  6
Continuous
 62
     0
370
    -2
100
AcDbLine
 10
226.9999999999995
 20
-355.5289393520673
 30
0.0
 11
259.2538999999998
 21
-355.5289393520673
 31
0.0
  0
LINE
  5
BDB2
330
A5D7
100
AcDbEntity
  8
30
  6
Continuous
 62
     0
370
    -2
100
AcDbLine
 10
143.0
 20
-370.5289393520672
 30
0.0
 11
259.2538999999998
 21
-370.5289393520672
 31
0.0
  0
LINE
  5
BDB3
330
A5D7
100
AcDbEntity
  8
30
  6
Continuous
 62
     0
370
    -2
100
AcDbLine
 10
258.7538999999998
 20
-357.5289393520673
 30
0.0
 11
258.7538999999998
 21
-368.5289393520672
 31
0.0
  0
INSERT
  5
BDB4
330
A5D7
100
AcDbEntity
  8
30
  6
Continuous
 62
     0
370
    -2
100
AcDbBlockReference
  2
_OPEN
 10
258.7538999999998
 20
-355.5289393520673
 30
0.0
 41
2.0
 42
2.0
 43
2.0
 50
90.0
  0
INSERT
  5
BDB5
330
A5D7
100
AcDbEntity
  8
30
  6
Continuous
 62
     0
370
    -2
100
AcDbBlockReference
  2
_OPEN
 10
258.7538999999998
 20
-370.5289393520672
 30
0.0
 41
2.0
 42
2.0
 43
2.0
 50
270.0
  0
MTEXT
  5
BDB6
330
A5D7
100
AcDbEntity
  8
30
  6
Continuous
 62
     0
100
AcDbMText
 10
252.7538999999999
 20
-363.0289393520675
 30
0.0
 40
6.0
 41
0.0
 71
     5
 72
     1
  1
\A1; 15 
 11
0.0000000000000001
 21
1.0
 31
0.0
 73
     1
 44
1.0
1001
ACAD
1000
MTEXTBEGIN
1070
    73
1070
     1
1070
    44
1040
1.0
1070
    74
1070
     0
1000
MTEXTEND
  0
POINT
  5
BDB7
330
A5D7
100
AcDbEntity
  8
DEFPOINTS
  6
Continuous
 62
     0
100
AcDbPoint
 10
223.9999999999997
 20
-355.5289393520673
 30
0.0
  0
POINT
  5
BDB8
330
A5D7
100
AcDbEntity
  8
DEFPOINTS
  6
Continuous
 62
     0
100
AcDbPoint
 10
140.0
 20
-370.5289393520672
 30
0.0
  0
POINT
  5
BDB9
330
A5D7
100
AcDbEntity
  8
DEFPOINTS
  6
Continuous
 62
     0
100
AcDbPoint
 10
258.7538999999998
 20
-370.5289393520672
 30
0.0
  0
ENDBLK
  5
A5E3
330
A5D7
100
AcDbEntity
  8
0
100
AcDbBlockEnd
  0
BLOCK
  5
A5EF
330
A5E4
100
AcDbEntity
  8
0
100
AcDbBlockBegin
  2
*D23
 70
     1
 10
0.0
 20
0.0
 30
0.0
  3
*D23
  1

  0
LINE
  5
BDC9
330
A5E4
100
AcDbEntity
  8
30
  6
Continuous
 62
     0
370
    -2
100
AcDbLine
 10
226.9999999999995
 20
-535.5289393520673
 30
0.0
 11
259.2538999999998
 21
-535.5289393520676
 31
0.0
  0
LINE
  5
BDCA
330
A5E4
100
AcDbEntity
  8
30
  6
Continuous
 62
     0
370
    -2
100
AcDbLine
 10
143.0
 20
-520.5289393520675
 30
0.0
 11
259.2538999999998
 21
-520.5289393520676
 31
0.0
  0
LINE
  5
BDCB
330
A5E4
100
AcDbEntity
  8
30
  6
Continuous
 62
     0
370
    -2
100
AcDbLine
 10
258.7538999999998
 20
-533.5289393520675
 30
0.0
 11
258.7538999999998
 21
-522.5289393520673
 31
0.0
  0
INSERT
  5
BDCC
330
A5E4
100
AcDbEntity
  8
30
  6
Continuous
 62
     0
370
    -2
100
AcDbBlockReference
  2
_OPEN
 10
258.7538999999998
 20
-535.5289393520676
 30
0.0
 41
2.0
 42
2.0
 43
2.0
 50
270.0
  0
INSERT
  5
BDCD
330
A5E4
100
AcDbEntity
  8
30
  6
Continuous
 62
     0
370
    -2
100
AcDbBlockReference
  2
_OPEN
 10
258.7538999999998
 20
-520.5289393520676
 30
0.0
 41
2.0
 42
2.0
 43
2.0
 50
90.0
  0
MTEXT
  5
BDCE
330
A5E4
100
AcDbEntity
  8
30
  6
Continuous
 62
     0
100
AcDbMText
 10
252.7538999999999
 20
-528.0289393520673
 30
0.0
 40
6.0
 41
0.0
 71
     5
 72
     1
  1
\A1; 15 
 11
0.0000000000000001
 21
1.0
 31
0.0
 73
     1
 44
1.0
1001
ACAD
1000
MTEXTBEGIN
1070
    73
1070
     1
1070
    44
1040
1.0
1070
    74
1070
     0
1000
MTEXTEND
  0
POINT
  5
BDCF
330
A5E4
100
AcDbEntity
  8
DEFPOINTS
  6
Continuous
 62
     0
100
AcDbPoint
 10
223.9999999999997
 20
-535.5289393520673
 30
0.0
  0
POINT
  5
BDD0
330
A5E4
100
AcDbEntity
  8
DEFPOINTS
  6
Continuous
 62
     0
100
AcDbPoint
 10
140.0
 20
-520.5289393520675
 30
0.0
  0
POINT
  5
BDD1
330
A5E4
100
AcDbEntity
  8
DEFPOINTS
  6
Continuous
 62
     0
100
AcDbPoint
 10
258.7538999999998
 20
-520.5289393520676
 30
0.0
  0
ENDBLK
  5
A5F0
330
A5E4
100
AcDbEntity
  8
0
100
AcDbBlockEnd
  0
BLOCK
  5
A609
330
A5FE
100
AcDbEntity
  8
0
100
AcDbBlockBegin
  2
*D24
 70
     1
 10
0.0
 20
0.0
 30
0.0
  3
*D24
  1

  0
LINE
  5
BC91
330
A5FE
100
AcDbEntity
  8
30
  6
Continuous
 62
     0
370
    -2
100
AcDbLine
 10
592.3464747230427
 20
-0.0000000000000008
 30
0.0
 11
608.6315567007407
 21
-0.0000000000000055
 31
0.0
  0
LINE
  5
BC92
330
A5FE
100
AcDbEntity
  8
30
  6
Continuous
 62
     0
370
    -2
100
AcDbLine
 10
585.3999999999997
 20
126.0
 30
0.0
 11
608.6315567007407
 21
125.9999999999999
 31
0.0
  0
LINE
  5
BC93
330
A5FE
100
AcDbEntity
  8
30
  6
Continuous
 62
     0
370
    -2
100
AcDbLine
 10
608.1315567007407
 20
1.999999999999993
 30
0.0
 11
608.1315567007407
 21
123.9999999999999
 31
0.0
  0
INSERT
  5
BC94
330
A5FE
100
AcDbEntity
  8
30
  6
Continuous
 62
     0
370
    -2
100
AcDbBlockReference
  2
_OPEN
 10
608.1315567007407
 20
-0.0000000000000053
 30
0.0
 41
2.0
 42
2.0
 43
2.0
 50
270.0
  0
INSERT
  5
BC95
330
A5FE
100
AcDbEntity
  8
30
  6
Continuous
 62
     0
370
    -2
100
AcDbBlockReference
  2
_OPEN
 10
608.1315567007407
 20
125.9999999999999
 30
0.0
 41
2.0
 42
2.0
 43
2.0
 50
90.0
  0
MTEXT
  5
BC96
330
A5FE
100
AcDbEntity
  8
30
  6
Continuous
 62
     0
100
AcDbMText
 10
602.1315567007406
 20
63.00000000000009
 30
0.0
 40
6.0
 41
0.0
 71
     5
 72
     1
  1
\A1; 126 
 11
0.0000000000000001
 21
1.0
 31
0.0
 73
     1
 44
1.0
1001
ACAD
1000
MTEXTBEGIN
1070
    73
1070
     1
1070
    44
1040
1.0
1070
    74
1070
     0
1000
MTEXTEND
  0
POINT
  5
BC97
330
A5FE
100
AcDbEntity
  8
DEFPOINTS
  6
Continuous
 62
     0
100
AcDbPoint
 10
589.3464747230427
 20
0.0
 30
0.0
  0
POINT
  5
BC98
330
A5FE
100
AcDbEntity
  8
DEFPOINTS
  6
Continuous
 62
     0
100
AcDbPoint
 10
582.3999999999997
 20
126.0
 30
0.0
  0
POINT
  5
BC99
330
A5FE
100
AcDbEntity
  8
DEFPOINTS
  6
Continuous
 62
     0
100
AcDbPoint
 10
608.1315567007407
 20
125.9999999999999
 30
0.0
  0
ENDBLK
  5
A60A
330
A5FE
100
AcDbEntity
  8
0
100
AcDbBlockEnd
  0
BLOCK
  5
A616
330
A60B
100
AcDbEntity
  8
0
100
AcDbBlockBegin
  2
*D25
 70
     1
 10
0.0
 20
0.0
 30
0.0
  3
*D25
  1

  0
LINE
  5
BC88
330
A60B
100
AcDbEntity
  8
30
  6
Continuous
 62
     0
370
    -2
100
AcDbLine
 10
592.3464747230427
 20
-0.0000000000000008
 30
0.0
 11
608.6315567007407
 21
-0.0000000000000055
 31
0.0
  0
LINE
  5
BC89
330
A60B
100
AcDbEntity
  8
30
  6
Continuous
 62
     0
370
    -2
100
AcDbLine
 10
585.3999999999997
 20
-117.0
 30
0.0
 11
608.6315567007407
 21
-117.0
 31
0.0
  0
LINE
  5
BC8A
330
A60B
100
AcDbEntity
  8
30
  6
Continuous
 62
     0
370
    -2
100
AcDbLine
 10
608.1315567007407
 20
-2.000000000000003
 30
0.0
 11
608.1315567007407
 21
-115.0
 31
0.0
  0
INSERT
  5
BC8B
330
A60B
100
AcDbEntity
  8
30
  6
Continuous
 62
     0
370
    -2
100
AcDbBlockReference
  2
_OPEN
 10
608.1315567007407
 20
-0.0000000000000053
 30
0.0
 41
2.0
 42
2.0
 43
2.0
 50
90.0
  0
INSERT
  5
BC8C
330
A60B
100
AcDbEntity
  8
30
  6
Continuous
 62
     0
370
    -2
100
AcDbBlockReference
  2
_OPEN
 10
608.1315567007407
 20
-117.0
 30
0.0
 41
2.0
 42
2.0
 43
2.0
 50
270.0
  0
MTEXT
  5
BC8D
330
A60B
100
AcDbEntity
  8
30
  6
Continuous
 62
     0
100
AcDbMText
 10
602.1315567007406
 20
-58.49999999999994
 30
0.0
 40
6.0
 41
0.0
 71
     5
 72
     1
  1
\A1; 117 
 11
0.0000000000000001
 21
1.0
 31
0.0
 73
     1
 44
1.0
1001
ACAD
1000
MTEXTBEGIN
1070
    73
1070
     1
1070
    44
1040
1.0
1070
    74
1070
     0
1000
MTEXTEND
  0
POINT
  5
BC8E
330
A60B
100
AcDbEntity
  8
DEFPOINTS
  6
Continuous
 62
     0
100
AcDbPoint
 10
589.3464747230427
 20
0.0
 30
0.0
  0
POINT
  5
BC8F
330
A60B
100
AcDbEntity
  8
DEFPOINTS
  6
Continuous
 62
     0
100
AcDbPoint
 10
582.3999999999997
 20
-117.0
 30
0.0
  0
POINT
  5
BC90
330
A60B
100
AcDbEntity
  8
DEFPOINTS
  6
Continuous
 62
     0
100
AcDbPoint
 10
608.1315567007407
 20
-117.0
 30
0.0
  0
ENDBLK
  5
A617
330
A60B
100
AcDbEntity
  8
0
100
AcDbBlockEnd
  0
BLOCK
  5
A622
330
A618
100
AcDbEntity
  8
0
100
AcDbBlockBegin
  2
*D26
 70
     1
 10
0.0
 20
0.0
 30
0.0
  3
*D26
  1

  0
LINE
  5
BC7F
330
A618
100
AcDbEntity
  8
30
  6
Continuous
 62
     0
370
    -2
100
AcDbLine
 10
312.3999999999998
 20
2.0
 30
0.0
 11
312.3999999999998
 21
-254.1883121388838
 31
0.0
  0
LINE
  5
BC80
330
A618
100
AcDbEntity
  8
30
  6
Continuous
 62
     0
370
    -2
100
AcDbLine
 10
231.8989299999999
 20
2.0
 30
0.0
 11
231.8989299999999
 21
-254.1883121388838
 31
0.0
  0
LINE
  5
BC81
330
A618
100
AcDbEntity
  8
30
  6
Continuous
 62
     0
370
    -2
100
AcDbLine
 10
310.3999999999998
 20
-253.6883121388838
 30
0.0
 11
233.8989299999999
 21
-253.6883121388838
 31
0.0
  0
INSERT
  5
BC82
330
A618
100
AcDbEntity
  8
30
  6
Continuous
 62
     0
370
    -2
100
AcDbBlockReference
  2
_OPEN
 10
312.3999999999998
 20
-253.6883121388838
 30
0.0
 41
2.0
 42
2.0
 43
2.0
  0
INSERT
  5
BC83
330
A618
100
AcDbEntity
  8
30
  6
Continuous
 62
     0
370
    -2
100
AcDbBlockReference
  2
_OPEN
 10
231.8989299999999
 20
-253.6883121388838
 30
0.0
 41
2.0
 42
2.0
 43
2.0
 50
180.0
  0
MTEXT
  5
BC84
330
A618
100
AcDbEntity
  8
30
  6
Continuous
 62
     0
100
AcDbMText
 10
272.1494649999999
 20
-247.6883121388838
 30
0.0
 40
6.0
 41
0.0
 71
     5
 72
     1
  1
\A1; 80.5 
 73
     1
 44
1.0
1001
ACAD
1000
MTEXTBEGIN
1070
    73
1070
     1
1070
    44
1040
1.0
1070
    74
1070
     0
1000
MTEXTEND
  0
POINT
  5
BC85
330
A618
100
AcDbEntity
  8
DEFPOINTS
  6
Continuous
 62
     0
100
AcDbPoint
 10
312.3999999999998
 20
5.0
 30
0.0
  0
POINT
  5
BC86
330
A618
100
AcDbEntity
  8
DEFPOINTS
  6
Continuous
 62
     0
100
AcDbPoint
 10
231.8989299999999
 20
5.0
 30
0.0
  0
POINT
  5
BC87
330
A618
100
AcDbEntity
  8
DEFPOINTS
  6
Continuous
 62
     0
100
AcDbPoint
 10
231.8989299999999
 20
-253.6883121388838
 30
0.0
  0
ENDBLK
  5
A623
330
A618
100
AcDbEntity
  8
0
100
AcDbBlockEnd
  0
BLOCK
  5
A62D
330
A624
100
AcDbEntity
  8
0
100
AcDbBlockBegin
  2
*D27
 70
     1
 10
0.0
 20
0.0
 30
0.0
  3
*D27
  1

  0
LINE
  5
BD79
330
A624
100
AcDbEntity
  8
30
  6
Continuous
 62
     0
370
    -2
100
AcDbLine
 10
497.5199678594647
 20
351.0503987388013
 30
0.0
 11
490.3899396554291
 21
345.5583436785498
 31
0.0
  0
LINE
  5
BD7A
330
A624
100
AcDbEntity
  8
30
  6
Continuous
 62
     0
370
    -2
100
AcDbLine
 10
488.8054886595421
 20
344.3378867798301
 30
0.0
 11
469.1098331563207
 21
329.1668914659251
 31
0.0
  0
LINE
  5
BD7B
330
A624
100
AcDbEntity
  8
30
  6
Continuous
 62
     0
370
    -2
100
AcDbLine
 10
469.1098331563207
 20
329.1668914659251
 30
0.0
 11
452.1098331563207
 21
329.1668914659251
 31
0.0
  0
INSERT
  5
BD7C
330
A624
100
AcDbEntity
  8
30
  6
Continuous
 62
     0
370
    -2
100
AcDbBlockReference
  2
_OPEN
 10
499.1044188553519
 20
352.270855637521
 30
0.0
 41
2.0
 42
2.0
 43
2.0
 50
37.60602317408537
  0
INSERT
  5
BD7D
330
A624
100
AcDbEntity
  8
30
  6
Continuous
 62
     0
370
    -2
100
AcDbBlockReference
  2
_OPEN
 10
488.8054886595421
 20
344.3378867798301
 30
0.0
 41
2.0
 42
2.0
 43
2.0
 50
217.6060231740853
  0
MTEXT
  5
BD7E
102
{ACAD_XDICTIONARY
360
BEFA
102
}
330
A624
100
AcDbEntity
  8
30
  6
Continuous
 62
     0
100
AcDbMText
 10
459.1098331563208
 20
335.1668914659246
 30
0.0
 40
6.0
 41
0.0
 71
     5
 72
     1
  1
\A1;\U+220513
 73
     1
 44
1.0
1001
ACAD
1000
MTEXTBEGIN
1070
    73
1070
     1
1070
    44
1040
1.0
1070
    74
1070
     0
1000
MTEXTEND
  0
POINT
  5
BD7F
330
A624
100
AcDbEntity
  8
DEFPOINTS
  6
Continuous
 62
     0
100
AcDbPoint
 10
488.8054886595421
 20
344.3378867798301
 30
0.0
  0
POINT
  5
BD80
330
A624
100
AcDbEntity
  8
DEFPOINTS
  6
Continuous
 62
     0
100
AcDbPoint
 10
499.1044188553519
 20
352.270855637521
 30
0.0
  0
ENDBLK
  5
A62E
330
A624
100
AcDbEntity
  8
0
100
AcDbBlockEnd
  0
BLOCK
  5
A638
330
A62F
100
AcDbEntity
  8
0
100
AcDbBlockBegin
  2
*D28
 70
     1
 10
0.0
 20
0.0
 30
0.0
  3
*D28
  1

  0
LINE
  5
BDC1
330
A62F
100
AcDbEntity
  8
30
  6
Continuous
 62
     0
370
    -2
100
AcDbLine
 10
138.7728579156876
 20
-365.2359666410952
 30
0.0
 11
152.4343611448903
 21
-346.0701211961898
 31
0.0
  0
LINE
  5
BDC2
330
A62F
100
AcDbEntity
  8
30
  6
Continuous
 62
     0
370
    -2
100
AcDbLine
 10
152.4343611448903
 20
-346.0701211961898
 30
0.0
 11
165.4343611448903
 21
-346.0701211961898
 31
0.0
  0
INSERT
  5
BDC3
330
A62F
100
AcDbEntity
  8
30
  6
Continuous
 62
     0
370
    -2
100
AcDbBlockReference
  2
_OPEN
 10
137.6119793002362
 20
-366.8645736655756
 30
0.0
 41
2.0
 42
2.0
 43
2.0
 50
234.5185528618972
  0
MTEXT
  5
BDC4
102
{ACAD_XDICTIONARY
360
BEFC
102
}
330
A62F
100
AcDbEntity
  8
30
  6
Continuous
 62
     0
100
AcDbMText
 10
160.4343611448903
 20
-340.0701211961898
 30
0.0
 40
6.0
 41
0.0
 71
     5
 72
     1
  1
\A1;\U+22059
 73
     1
 44
1.0
1001
ACAD
1000
MTEXTBEGIN
1070
    73
1070
     1
1070
    44
1040
1.0
1070
    74
1070
     0
1000
MTEXTEND
  0
LINE
  5
BDC5
330
A62F
100
AcDbEntity
  8
30
  6
Continuous
 62
     0
370
    -2
100
AcDbLine
 10
134.9100025000009
 20
-370.5289393520672
 30
0.0
 11
135.090002500001
 21
-370.5289393520672
 31
0.0
  0
LINE
  5
BDC6
330
A62F
100
AcDbEntity
  8
30
  6
Continuous
 62
     0
370
    -2
100
AcDbLine
 10
135.0000025000009
 20
-370.6189393520674
 30
0.0
 11
135.0000025000009
 21
-370.4389393520673
 31
0.0
  0
POINT
  5
BDC7
330
A62F
100
AcDbEntity
  8
DEFPOINTS
  6
Continuous
 62
     0
100
AcDbPoint
 10
137.6119793002362
 20
-366.8645736655756
 30
0.0
  0
POINT
  5
BDC8
330
A62F
100
AcDbEntity
  8
DEFPOINTS
  6
Continuous
 62
     0
100
AcDbPoint
 10
132.3880256997657
 20
-374.1933050385591
 30
0.0
  0
ENDBLK
  5
A639
330
A62F
100
AcDbEntity
  8
0
100
AcDbBlockEnd
  0
BLOCK
  5
AB2B
330
AB21
100
AcDbEntity
  8
0
100
AcDbBlockBegin
  2
*D29
 70
     1
 10
0.0
 20
0.0
 30
0.0
  3
*D29
  1

  0
LINE
  5
BC66
330
AB21
100
AcDbEntity
  8
30
  6
Continuous
 62
     0
370
    -2
100
AcDbLine
 10
287.4549512574469
 20
312.8043687086754
 30
0.0
 11
287.4549512574469
 21
278.1377020420086
 31
0.0
  0
LINE
  5
BC67
330
AB21
100
AcDbEntity
  8
30
  6
Continuous
 62
     0
370
    -2
100
AcDbLine
 10
336.4549512574468
 20
291.8043687086754
 30
0.0
 11
336.4549512574468
 21
278.1377020420086
 31
0.0
  0
LINE
  5
BC68
330
AB21
100
AcDbEntity
  8
30
  6
Continuous
 62
     0
370
    -2
100
AcDbLine
 10
289.4549512574469
 20
278.6377020420085
 30
0.0
 11
334.4549512574468
 21
278.6377020420085
 31
0.0
  0
INSERT
  5
BC69
330
AB21
100
AcDbEntity
  8
30
  6
Continuous
 62
     0
370
    -2
100
AcDbBlockReference
  2
_OPEN
 10
287.4549512574469
 20
278.6377020420085
 30
0.0
 41
2.0
 42
2.0
 43
2.0
 50
180.0
  0
INSERT
  5
BC6A
330
AB21
100
AcDbEntity
  8
30
  6
Continuous
 62
     0
370
    -2
100
AcDbBlockReference
  2
_OPEN
 10
336.4549512574468
 20
278.6377020420085
 30
0.0
 41
2.0
 42
2.0
 43
2.0
  0
MTEXT
  5
BC6B
330
AB21
100
AcDbEntity
  8
30
  6
Continuous
 62
     0
100
AcDbMText
 10
311.9549512574469
 20
284.6377020420086
 30
0.0
 40
6.0
 41
0.0
 71
     5
 72
     1
  1
\A1;49
 73
     1
 44
1.0
1001
ACAD
1000
MTEXTBEGIN
1070
    73
1070
     1
1070
    44
1040
1.0
1070
    74
1070
     0
1000
MTEXTEND
  0
POINT
  5
BC6C
330
AB21
100
AcDbEntity
  8
DEFPOINTS
  6
Continuous
 62
     0
100
AcDbPoint
 10
287.4549512574469
 20
315.8043687086755
 30
0.0
  0
POINT
  5
BC6D
330
AB21
100
AcDbEntity
  8
DEFPOINTS
  6
Continuous
 62
     0
100
AcDbPoint
 10
336.4549512574468
 20
294.8043687086755
 30
0.0
  0
POINT
  5
BC6E
330
AB21
100
AcDbEntity
  8
DEFPOINTS
  6
Continuous
 62
     0
100
AcDbPoint
 10
336.4549512574468
 20
278.6377020420085
 30
0.0
  0
ENDBLK
  5
AB2C
330
AB21
100
AcDbEntity
  8
0
100
AcDbBlockEnd
  0
BLOCK
  5
AB4A
330
AB40
100
AcDbEntity
  8
0
100
AcDbBlockBegin
  2
*D30
 70
     1
 10
0.0
 20
0.0
 30
0.0
  3
*D30
  1

  0
LINE
  5
BD9E
330
AB40
100
AcDbEntity
  8
30
  6
Continuous
 62
     0
370
    -2
100
AcDbLine
 10
336.4549512574468
 20
291.8043687086754
 30
0.0
 11
336.4549512574468
 21
278.1377020420086
 31
0.0
  0
LINE
  5
BD9F
330
AB40
100
AcDbEntity
  8
30
  6
Continuous
 62
     0
370
    -2
100
AcDbLine
 10
358.9549512574468
 20
281.6377020420087
 30
0.0
 11
358.9549512574468
 21
279.1377020420087
 31
0.0
  0
LINE
  5
BDA0
330
AB40
100
AcDbEntity
  8
30
  6
Continuous
 62
     0
370
    -2
100
AcDbLine
 10
338.4549512574468
 20
278.6377020420085
 30
0.0
 11
356.9549512574468
 21
278.6377020420085
 31
0.0
  0
MTEXT
  5
BDA1
330
AB40
100
AcDbEntity
  8
30
  6
Continuous
 62
     0
100
AcDbMText
 10
348.2913035937553
 20
284.4016713310633
 30
0.0
 40
6.0
 41
0.0
 71
     5
 72
     1
  1
\A1;22.5
 73
     1
 44
1.0
1001
ACAD
1000
MTEXTBEGIN
1070
    73
1070
     1
1070
    44
1040
1.0
1070
    74
1070
     0
1000
MTEXTEND
  0
INSERT
  5
BDA2
330
AB40
100
AcDbEntity
  8
30
  6
Continuous
 62
     0
370
    -2
100
AcDbBlockReference
  2
_OPEN
 10
336.4549512574468
 20
278.6377020420085
 30
0.0
 41
2.0
 42
2.0
 43
2.0
 50
180.0
  0
INSERT
  5
BDA3
330
AB40
100
AcDbEntity
  8
30
  6
Continuous
 62
     0
370
    -2
100
AcDbBlockReference
  2
_OPEN
 10
358.9549512574468
 20
278.6377020420085
 30
0.0
 41
2.0
 42
2.0
 43
2.0
  0
POINT
  5
BDA4
330
AB40
100
AcDbEntity
  8
DEFPOINTS
  6
Continuous
 62
     0
100
AcDbPoint
 10
336.4549512574468
 20
294.8043687086755
 30
0.0
  0
POINT
  5
BDA5
330
AB40
100
AcDbEntity
  8
DEFPOINTS
  6
Continuous
 62
     0
100
AcDbPoint
 10
358.9549512574468
 20
278.6377020420085
 30
0.0
  0
POINT
  5
BDA6
330
AB40
100
AcDbEntity
  8
DEFPOINTS
  6
Continuous
 62
     0
100
AcDbPoint
 10
358.9549512574468
 20
278.6377020420085
 30
0.0
  0
ENDBLK
  5
AB4B
330
AB40
100
AcDbEntity
  8
0
100
AcDbBlockEnd
  0
BLOCK
  5
B13E
330
B134
100
AcDbEntity
  8
0
100
AcDbBlockBegin
  2
*D31
 70
     1
 10
0.0
 20
0.0
 30
0.0
  3
*D31
  1

  0
LINE
  5
BC53
330
B134
100
AcDbEntity
  8
30
  6
Continuous
 62
     0
370
    -2
100
AcDbLine
 10
-48.0
 20
179.4999999999999
 30
0.0
 11
-166.239364205175
 21
179.4999999999999
 31
0.0
  0
LINE
  5
BC54
330
B134
100
AcDbEntity
  8
30
  6
Continuous
 62
     0
370
    -2
100
AcDbLine
 10
-47.0
 20
-170.4999999999999
 30
0.0
 11
-166.2393642051751
 21
-170.4999999999999
 31
0.0
  0
LINE
  5
BC55
330
B134
100
AcDbEntity
  8
30
  6
Continuous
 62
     0
370
    -2
100
AcDbLine
 10
-165.7393642051754
 20
177.5
 30
0.0
 11
-165.7393642051754
 21
-168.4999999999999
 31
0.0
  0
INSERT
  5
BC56
330
B134
100
AcDbEntity
  8
30
  6
Continuous
 62
     0
370
    -2
100
AcDbBlockReference
  2
_OPEN
 10
-165.7393642051754
 20
179.4999999999999
 30
0.0
 41
2.0
 42
2.0
 43
2.0
 50
90.0
  0
INSERT
  5
BC57
330
B134
100
AcDbEntity
  8
30
  6
Continuous
 62
     0
370
    -2
100
AcDbBlockReference
  2
_OPEN
 10
-165.7393642051754
 20
-170.4999999999999
 30
0.0
 41
2.0
 42
2.0
 43
2.0
 50
270.0
  0
MTEXT
  5
BC58
330
B134
100
AcDbEntity
  8
30
  6
Continuous
 62
     0
100
AcDbMText
 10
-171.7393642051754
 20
3.156056490205174
 30
0.0
 40
6.0
 41
0.0
 71
     5
 72
     1
  1
\A1;350
 11
0.0000000000000001
 21
1.0
 31
0.0
 73
     1
 44
1.0
1001
ACAD
1000
MTEXTBEGIN
1070
    73
1070
     1
1070
    44
1040
1.0
1070
    74
1070
     0
1000
MTEXTEND
  0
POINT
  5
BC59
330
B134
100
AcDbEntity
  8
DEFPOINTS
  6
Continuous
 62
     0
100
AcDbPoint
 10
-45.0
 20
179.4999999999999
 30
0.0
  0
POINT
  5
BC5A
330
B134
100
AcDbEntity
  8
DEFPOINTS
  6
Continuous
 62
     0
100
AcDbPoint
 10
-44.0
 20
-170.4999999999999
 30
0.0
  0
POINT
  5
BC5B
330
B134
100
AcDbEntity
  8
DEFPOINTS
  6
Continuous
 62
     0
100
AcDbPoint
 10
-165.7393642051754
 20
-170.4999999999999
 30
0.0
  0
ENDBLK
  5
B13F
330
B134
100
AcDbEntity
  8
0
100
AcDbBlockEnd
  0
BLOCK
  5
B14A
330
B140
100
AcDbEntity
  8
0
100
AcDbBlockBegin
  2
*D32
 70
     1
 10
0.0
 20
0.0
 30
0.0
  3
*D32
  1

  0
LINE
  5
BC41
330
B140
100
AcDbEntity
  8
30
  6
Continuous
 62
     0
370
    -2
100
AcDbLine
 10
-108.0
 20
158.4999999999999
 30
0.0
 11
-152.3695084348524
 21
158.4999999999999
 31
0.0
  0
LINE
  5
BC42
330
B140
100
AcDbEntity
  8
30
  6
Continuous
 62
     0
370
    -2
100
AcDbLine
 10
-108.0
 20
-149.5
 30
0.0
 11
-152.3695084348526
 21
-149.5
 31
0.0
  0
LINE
  5
BC43
330
B140
100
AcDbEntity
  8
30
  6
Continuous
 62
     0
370
    -2
100
AcDbLine
 10
-151.8695084348524
 20
156.4999999999999
 30
0.0
 11
-151.8695084348526
 21
-147.5
 31
0.0
  0
INSERT
  5
BC44
330
B140
100
AcDbEntity
  8
30
  6
Continuous
 62
     0
370
    -2
100
AcDbBlockReference
  2
_OPEN
 10
-151.8695084348524
 20
158.4999999999999
 30
0.0
 41
2.0
 42
2.0
 43
2.0
 50
90.0
  0
INSERT
  5
BC45
330
B140
100
AcDbEntity
  8
30
  6
Continuous
 62
     0
370
    -2
100
AcDbBlockReference
  2
_OPEN
 10
-151.8695084348526
 20
-149.5
 30
0.0
 41
2.0
 42
2.0
 43
2.0
 50
270.0
  0
MTEXT
  5
BC46
330
B140
100
AcDbEntity
  8
30
  6
Continuous
 62
     0
100
AcDbMText
 10
-157.8695084348526
 20
4.541880582106839
 30
0.0
 40
6.0
 41
0.0
 71
     5
 72
     1
  1
\A1;308
 11
0.0000000000000001
 21
1.0
 31
0.0
 73
     1
 44
1.0
1001
ACAD
1000
MTEXTBEGIN
1070
    73
1070
     1
1070
    44
1040
1.0
1070
    74
1070
     0
1000
MTEXTEND
  0
POINT
  5
BC47
330
B140
100
AcDbEntity
  8
DEFPOINTS
  6
Continuous
 62
     0
100
AcDbPoint
 10
-105.0
 20
158.4999999999999
 30
0.0
  0
POINT
  5
BC48
330
B140
100
AcDbEntity
  8
DEFPOINTS
  6
Continuous
 62
     0
100
AcDbPoint
 10
-105.0
 20
-149.5
 30
0.0
  0
POINT
  5
BC49
330
B140
100
AcDbEntity
  8
DEFPOINTS
  6
Continuous
 62
     0
100
AcDbPoint
 10
-151.8695084348526
 20
-149.5
 30
0.0
  0
ENDBLK
  5
B14B
330
B140
100
AcDbEntity
  8
0
100
AcDbBlockEnd
  0
BLOCK
  5
B156
330
B14C
100
AcDbEntity
  8
0
100
AcDbBlockBegin
  2
*D33
 70
     1
 10
0.0
 20
0.0
 30
0.0
  3
*D33
  1

  0
LINE
  5
BC4A
330
B14C
100
AcDbEntity
  8
30
  6
Continuous
 62
     0
370
    -2
100
AcDbLine
 10
-108.0
 20
141.0
 30
0.0
 11
-132.6482117135931
 21
141.0
 31
0.0
  0
LINE
  5
BC4B
330
B14C
100
AcDbEntity
  8
30
  6
Continuous
 62
     0
370
    -2
100
AcDbLine
 10
-108.0
 20
-132.0
 30
0.0
 11
-132.6482117135931
 21
-132.0
 31
0.0
  0
LINE
  5
BC4C
330
B14C
100
AcDbEntity
  8
30
  6
Continuous
 62
     0
370
    -2
100
AcDbLine
 10
-132.1482117135931
 20
139.0
 30
0.0
 11
-132.1482117135931
 21
-130.0
 31
0.0
  0
INSERT
  5
BC4D
330
B14C
100
AcDbEntity
  8
30
  6
Continuous
 62
     0
370
    -2
100
AcDbBlockReference
  2
_OPEN
 10
-132.1482117135931
 20
141.0
 30
0.0
 41
2.0
 42
2.0
 43
2.0
 50
90.0
  0
INSERT
  5
BC4E
330
B14C
100
AcDbEntity
  8
30
  6
Continuous
 62
     0
370
    -2
100
AcDbBlockReference
  2
_OPEN
 10
-132.1482117135931
 20
-132.0
 30
0.0
 41
2.0
 42
2.0
 43
2.0
 50
270.0
  0
MTEXT
  5
BC4F
330
B14C
100
AcDbEntity
  8
30
  6
Continuous
 62
     0
100
AcDbMText
 10
-138.1482117135931
 20
14.93556127137208
 30
0.0
 40
6.0
 41
0.0
 71
     5
 72
     1
  1
\A1;273
 11
0.0000000000000001
 21
1.0
 31
0.0
 73
     1
 44
1.0
1001
ACAD
1000
MTEXTBEGIN
1070
    73
1070
     1
1070
    44
1040
1.0
1070
    74
1070
     0
1000
MTEXTEND
  0
POINT
  5
BC50
330
B14C
100
AcDbEntity
  8
DEFPOINTS
  6
Continuous
 62
     0
100
AcDbPoint
 10
-105.0
 20
141.0
 30
0.0
  0
POINT
  5
BC51
330
B14C
100
AcDbEntity
  8
DEFPOINTS
  6
Continuous
 62
     0
100
AcDbPoint
 10
-105.0
 20
-132.0
 30
0.0
  0
POINT
  5
BC52
330
B14C
100
AcDbEntity
  8
DEFPOINTS
  6
Continuous
 62
     0
100
AcDbPoint
 10
-132.1482117135931
 20
-132.0
 30
0.0
  0
ENDBLK
  5
B157
330
B14C
100
AcDbEntity
  8
0
100
AcDbBlockEnd
  0
BLOCK
  5
B36A
330
B360
100
AcDbEntity
  8
0
100
AcDbBlockBegin
  2
*D34
 70
     1
 10
0.0
 20
0.0
 30
0.0
  3
*D34
  1

  0
LINE
  5
BC38
330
B360
100
AcDbEntity
  8
30
  6
Continuous
 62
     0
370
    -2
100
AcDbLine
 10
576.3999999999997
 20
95.49999999999988
 30
0.0
 11
584.5062902121224
 21
95.49999999999988
 31
0.0
  0
LINE
  5
BC39
330
B360
100
AcDbEntity
  8
30
  6
Continuous
 62
     0
370
    -2
100
AcDbLine
 10
576.3999999999997
 20
-86.49999999999989
 30
0.0
 11
584.5062902121224
 21
-86.49999999999989
 31
0.0
  0
LINE
  5
BC3A
330
B360
100
AcDbEntity
  8
30
  6
Continuous
 62
     0
370
    -2
100
AcDbLine
 10
584.0062902121224
 20
93.49999999999987
 30
0.0
 11
584.0062902121224
 21
-84.49999999999986
 31
0.0
  0
INSERT
  5
BC3B
330
B360
100
AcDbEntity
  8
30
  6
Continuous
 62
     0
370
    -2
100
AcDbBlockReference
  2
_OPEN
 10
584.0062902121224
 20
95.49999999999988
 30
0.0
 41
2.0
 42
2.0
 43
2.0
 50
90.0
  0
INSERT
  5
BC3C
330
B360
100
AcDbEntity
  8
30
  6
Continuous
 62
     0
370
    -2
100
AcDbBlockReference
  2
_OPEN
 10
584.0062902121224
 20
-86.49999999999989
 30
0.0
 41
2.0
 42
2.0
 43
2.0
 50
270.0
  0
MTEXT
  5
BC3D
330
B360
100
AcDbEntity
  8
30
  6
Continuous
 62
     0
100
AcDbMText
 10
578.0062902121223
 20
4.500000000000088
 30
0.0
 40
6.0
 41
0.0
 71
     5
 72
     1
  1
\A1;182
 11
0.0000000000000001
 21
1.0
 31
0.0
 73
     1
 44
1.0
1001
ACAD
1000
MTEXTBEGIN
1070
    73
1070
     1
1070
    44
1040
1.0
1070
    74
1070
     0
1000
MTEXTEND
  0
POINT
  5
BC3E
330
B360
100
AcDbEntity
  8
DEFPOINTS
  6
Continuous
 62
     0
100
AcDbPoint
 10
573.3999999999999
 20
95.49999999999988
 30
0.0
  0
POINT
  5
BC3F
330
B360
100
AcDbEntity
  8
DEFPOINTS
  6
Continuous
 62
     0
100
AcDbPoint
 10
573.3999999999999
 20
-86.49999999999989
 30
0.0
  0
POINT
  5
BC40
330
B360
100
AcDbEntity
  8
DEFPOINTS
  6
Continuous
 62
     0
100
AcDbPoint
 10
584.0062902121224
 20
-86.49999999999989
 30
0.0
  0
ENDBLK
  5
B36B
330
B360
100
AcDbEntity
  8
0
100
AcDbBlockEnd
  0
ENDSEC
  0
SECTION
  2
ENTITIES
  0
MTEXT
  5
BF3
330
1E
100
AcDbEntity
  8
24
  6
Continuous
100
AcDbMText
 10
-1028.864783788679
 20
177.4710606479325
 30
0.0
 40
3.0
 41
0.0
 71
     1
 72
     1
  1
\A1;
 73
     1
 44
1.0
1001
ACAD
1000
MTEXTBEGIN
1070
    73
1070
     1
1070
    44
1040
1.0
1070
    74
1070
     0
1000
MTEXTEND
  0
MTEXT
  5
7B0D
330
1E
100
AcDbEntity
  8
30
  6
Continuous
100
AcDbMText
 10
-834.9829743985536
 20
247.4710606479325
 30
0.0
 40
5.0
 41
0.0
 71
     1
 72
     1
  1
\A1;
 73
     1
 44
1.0
1001
ACAD
1000
MTEXTBEGIN
1070
    73
1070
     1
1070
    44
1040
1.0
1070
    74
1070
     0
1000
MTEXTEND
  0
MTEXT
  5
86F0
330
1E
100
AcDbEntity
  8
19
  6
Continuous
100
AcDbMText
 10
-70.24749677807609
 20
330.9737978039005
 30
0.0
 40
8.0
 41
202.9567417978475
 71
     1
 72
     5
  1
S800-CF 4P PM,S800-NF 4P PM\PS800-RF 4P PM,S800-PF 4P PM\PS800-NE 4P PM,S800-RE 4P PM\PS800-PE 4P P<,S800-NN 4P PM\PS630-CF 4P PM,S630-NF 4P PM\PS630-RF 4P PM,S630-PF 4P PM\PS630-NE 4P PM,S630-RE 4P PM\PS630-PE 4P PM,S630-GN 4P PM
  7
STANDARD1
 73
     1
 44
1.0
1001
ACAD
1000
MTEXTBEGIN
1070
    73
1070
     1
1070
    44
1040
1.0
1070
    74
1070
     0
1000
MTEXTEND
  0
LINE
  5
9EF9
330
1E
100
AcDbEntity
  8
10
100
AcDbLine
 10
135.8437499999999
 20
89.29908499999998
 30
0.0
 11
137.3564899999996
 21
90.811825
 31
0.0
  0
LINE
  5
9EFA
330
1E
100
AcDbEntity
  8
10
100
AcDbLine
 10
137.3682149999999
 20
88.72432000000003
 30
0.0
 11
138.2208749999996
 21
89.57698500000004
 31
0.0
  0
LINE
  5
9EFB
330
1E
100
AcDbEntity
  8
10
100
AcDbLine
 10
506.3999999999999
 20
158.4999999999999
 30
0.0
 11
506.3999999999999
 21
179.4999999999999
 31
0.0
  0
LINE
  5
9EFC
330
1E
100
AcDbEntity
  8
10
100
AcDbLine
 10
276.041285
 20
61.83740999999997
 30
0.0
 11
315.7530049999998
 21
53.38623500000005
 31
0.0
  0
LINE
  5
9EFD
330
1E
100
AcDbEntity
  8
10
100
AcDbLine
 10
142.9687499999996
 20
90.96610499999995
 30
0.0
 11
143.9401500000001
 21
91.93750000000013
 31
0.0
  0
LINE
  5
9EFE
330
1E
100
AcDbEntity
  8
10
100
AcDbLine
 10
135.8437499999999
 20
90.55862000000013
 30
0.0
 11
136.8378599999996
 21
91.55272500000014
 31
0.0
  0
LINE
  5
9EFF
330
1E
100
AcDbEntity
  8
10
100
AcDbLine
 10
-105.0
 20
158.4999999999999
 30
0.0
 11
-105.0
 21
-149.5
 31
0.0
  0
LINE
  5
9F01
330
1E
100
AcDbEntity
  8
10
100
AcDbLine
 10
19.0
 20
-29.70000000000004
 30
0.0
 11
24.5
 21
-29.70000000000004
 31
0.0
  0
LINE
  5
9F03
330
1E
100
AcDbEntity
  8
10
100
AcDbLine
 10
142.9687499999996
 20
86.767655
 30
0.0
 11
144.15625
 21
87.95515500000012
 31
0.0
  0
LINE
  5
9F04
330
1E
100
AcDbEntity
  8
10
100
AcDbLine
 10
139.6156149999999
 20
85.51374500000006
 30
0.0
 11
140.4682799999998
 21
86.36640999999995
 31
0.0
  0
LINE
  5
9F05
330
1E
100
AcDbEntity
  8
10
100
AcDbLine
 10
357.9000000000001
 20
55.4999999999999
 30
0.0
 11
354.3999999999999
 21
55.4999999999999
 31
0.0
  0
LINE
  5
9F09
330
1E
100
AcDbEntity
  8
10
100
AcDbLine
 10
347.1790399999997
 20
32.4003799999998
 30
0.0
 11
333.9343949999999
 21
37.16874500000017
 31
0.0
  0
LINE
  5
9F0A
330
1E
100
AcDbEntity
  8
10
100
AcDbLine
 10
25.70000000000004
 20
44.54681499999992
 30
0.0
 11
-25.29999999999994
 21
44.54681499999992
 31
0.0
  0
LINE
  5
9F0C
330
1E
100
AcDbEntity
  8
12
  6
DASHDOT
100
AcDbLine
 10
23.95000000000004
 20
-117.0
 30
0.0
 11
46.45000000000004
 21
-117.0
 31
0.0
  0
LINE
  5
9F0F
330
1E
100
AcDbEntity
  8
10
  6
DIVIDE
100
AcDbLine
 10
-118.6000000000001
 20
-395.5289393520672
 30
0.0
 11
218.9999999999995
 21
-395.5289393520672
 31
0.0
  0
LINE
  5
9F1D
330
1E
100
AcDbEntity
  8
10
100
AcDbLine
 10
174.9999999999995
 20
-132.0
 30
0.0
 11
-105.0
 21
-132.0
 31
0.0
  0
LINE
  5
9F1E
330
1E
100
AcDbEntity
  8
10
100
AcDbLine
 10
140.825755
 20
83.78497500000003
 30
0.0
 11
141.6784199999999
 21
84.63763499999993
 31
0.0
  0
LINE
  5
9F1F
330
1E
100
AcDbEntity
  8
10
100
AcDbLine
 10
457.3999999999998
 20
141.0
 30
0.0
 11
360.3999999999999
 21
141.0
 31
0.0
  0
LINE
  5
9F20
330
1E
100
AcDbEntity
  8
10
100
AcDbLine
 10
357.9000000000001
 20
-107.0
 30
0.0
 11
357.9000000000001
 21
-46.5
 31
0.0
  0
LINE
  5
9F21
330
1E
100
AcDbEntity
  8
10
100
AcDbLine
 10
135.8437499999999
 20
85.52048000000002
 30
0.0
 11
137.0312499999996
 21
86.70798000000003
 31
0.0
  0
LINE
  5
9F22
330
1E
100
AcDbEntity
  8
10
100
AcDbLine
 10
135.8437499999999
 20
80.06250000000013
 30
0.0
 11
137.0312499999996
 21
81.25
 31
0.0
  0
LINE
  5
9F23
330
1E
100
AcDbEntity
  8
10
100
AcDbLine
 10
135.8437499999999
 20
90.97846000000004
 30
0.0
 11
136.66498
 21
91.79969500000016
 31
0.0
  0
LINE
  5
9F24
330
1E
100
AcDbEntity
  8
10
100
AcDbLine
 10
137.8868449999999
 20
87.98341999999991
 30
0.0
 11
138.7395100000001
 21
88.83608499999992
 31
0.0
  0
LINE
  5
9F27
330
1E
100
AcDbEntity
  8
10
100
AcDbLine
 10
142.9687499999996
 20
83.82874500000012
 30
0.0
 11
144.15625
 21
85.01624500000014
 31
0.0
  0
LINE
  5
9F28
330
1E
100
AcDbEntity
  8
10
100
AcDbLine
 10
142.9687499999996
 20
88.86687999999992
 30
0.0
 11
144.15625
 21
90.05437999999992
 31
0.0
  0
LINE
  5
9F2B
330
1E
100
AcDbEntity
  8
10
100
AcDbLine
 10
-45.0
 20
-170.4999999999999
 30
0.0
 11
-25.0
 21
-170.4999999999999
 31
0.0
  0
LINE
  5
9F31
330
1E
100
AcDbEntity
  8
10
100
AcDbLine
 10
138.9241099999999
 20
86.5016149999999
 30
0.0
 11
139.7767699999999
 21
87.35428000000002
 31
0.0
  0
LINE
  5
9F32
330
1E
100
AcDbEntity
  8
10
100
AcDbLine
 10
135.8437499999999
 20
84.26094999999998
 30
0.0
 11
137.0312499999996
 21
85.44844999999998
 31
0.0
  0
LINE
  5
9F33
330
1E
100
AcDbEntity
  8
10
100
AcDbLine
 10
357.9000000000001
 20
-46.5
 30
0.0
 11
354.3999999999999
 21
-46.5
 31
0.0
  0
LINE
  5
9F34
330
1E
100
AcDbEntity
  8
10
100
AcDbLine
 10
-80.0
 20
-45.0
 30
0.0
 11
80.20000000000004
 21
-45.0
 31
0.0
  0
LINE
  5
9F36
330
1E
100
AcDbEntity
  8
10
100
AcDbLine
 10
346.7819849999998
 20
24.04065500000001
 30
0.0
 11
331.2244899999998
 21
29.6416999999999
 31
0.0
  0
LINE
  5
9F3F
330
1E
100
AcDbEntity
  8
10
100
AcDbLine
 10
-25.0
 20
-149.5
 30
0.0
 11
-25.0
 21
-170.4999999999999
 31
0.0
  0
LINE
  5
9F40
330
1E
100
AcDbEntity
  8
10
100
AcDbLine
 10
135.8437499999999
 20
81.74187999999981
 30
0.0
 11
137.0312499999996
 21
82.92937999999992
 31
0.0
  0
LINE
  5
9F41
330
1E
100
AcDbEntity
  8
10
100
AcDbLine
 10
142.9687499999996
 20
89.28672500000002
 30
0.0
 11
144.15625
 21
90.47422500000003
 31
0.0
  0
LINE
  5
9F43
330
1E
100
AcDbEntity
  8
12
  6
DASHDOT
100
AcDbLine
 10
35.20000000000004
 20
-105.75
 30
0.0
 11
35.20000000000004
 21
-128.2499999999999
 31
0.0
  0
LINE
  5
9F45
330
1E
100
AcDbEntity
  8
10
  6
DASHDOT
100
AcDbLine
 10
572.3999999999997
 20
120.0
 30
0.0
 11
528.8999999999998
 21
120.0
 31
0.0
  0
LINE
  5
9F46
330
1E
100
AcDbEntity
  8
18
 48
2.0
100
AcDbLine
 10
-29.99999999999977
 20
-270.5289393520674
 30
0.0
 11
-9.999999999999772
 21
-270.5289393520674
 31
0.0
  0
LINE
  5
9F47
330
1E
100
AcDbEntity
  8
10
100
AcDbLine
 10
321.4549512574468
 20
294.8043687086755
 30
0.0
 11
336.4549512574468
 21
294.8043687086755
 31
0.0
  0
LINE
  5
9F4B
330
1E
100
AcDbEntity
  8
10
  6
DIVIDE
100
AcDbLine
 10
544.0
 20
59.5
 30
0.0
 11
519.0
 21
59.5
 31
0.0
  0
LINE
  5
9F4C
330
1E
100
AcDbEntity
  8
24
  6
CONTINOUS
100
AcDbLine
 10
513.9549512574468
 20
265.8043687086753
 30
0.0
 11
513.9549512574468
 21
374.8043687086753
 31
0.0
  0
LINE
  5
9F4D
330
1E
100
AcDbEntity
  8
12
100
AcDbLine
 10
346.5549512574472
 20
403.3043687086751
 30
0.0
 11
346.5549512574472
 21
386.3043687086753
 31
0.0
  0
LINE
  5
9F4E
330
1E
100
AcDbEntity
  8
12
100
AcDbLine
 10
521.4999999999998
 20
-62.99999999999993
 30
0.0
 11
516.5
 21
-62.99999999999993
 31
0.0
  0
LINE
  5
9F4F
330
1E
100
AcDbEntity
  8
10
100
AcDbLine
 10
139.0969849999999
 20
86.2546450000001
 30
0.0
 11
139.9496499999999
 21
87.10731000000009
 31
0.0
  0
LINE
  5
9F50
330
1E
100
AcDbEntity
  8
10
100
AcDbLine
 10
142.9687499999996
 20
91.38594999999998
 30
0.0
 11
143.520305
 21
91.93750000000013
 31
0.0
  0
LINE
  5
9F52
330
1E
100
AcDbEntity
  8
12
100
AcDbLine
 10
351.5549512574472
 20
387.3043687086753
 30
0.0
 11
346.5549512574472
 21
387.3043687086753
 31
0.0
  0
LINE
  5
9F53
330
1E
100
AcDbEntity
  8
12
100
AcDbLine
 10
532.0
 20
75.5
 30
0.0
 11
532.0
 21
83.50000000000013
 31
0.0
  0
LINE
  5
9F55
330
1E
100
AcDbEntity
  8
12
100
AcDbLine
 10
521.4999999999998
 20
87.0
 30
0.0
 11
516.5
 21
87.0
 31
0.0
  0
LINE
  5
9F61
330
1E
100
AcDbEntity
  8
10
  6
DIVIDE
100
AcDbLine
 10
-118.6000000000001
 20
-495.5289393520675
 30
0.0
 11
218.9999999999995
 21
-495.5289393520675
 31
0.0
  0
LINE
  5
9F63
330
1E
100
AcDbEntity
  8
10
100
AcDbLine
 10
135.8437499999999
 20
88.45939499999998
 30
0.0
 11
137.7022449999999
 21
90.31788999999992
 31
0.0
  0
LINE
  5
9F64
330
1E
100
AcDbEntity
  8
10
100
AcDbLine
 10
143.2460399999999
 20
80.32742999999994
 30
0.0
 11
144.15625
 21
81.23763999999992
 31
0.0
  0
LINE
  5
9F6C
330
1E
100
AcDbEntity
  8
10
100
AcDbLine
 10
-25.29999999999994
 20
45.0
 30
0.0
 11
-25.29999999999994
 21
-45.0
 31
0.0
  0
LINE
  5
9F6D
330
1E
100
AcDbEntity
  8
10
100
AcDbLine
 10
142.9687499999996
 20
91.80579000000014
 30
0.0
 11
143.10046
 21
91.93750000000013
 31
0.0
  0
LINE
  5
9F70
330
1E
100
AcDbEntity
  8
10
100
AcDbLine
 10
357.9549512574471
 20
319.3043687086754
 30
0.0
 11
346.3075462574471
 21
319.3043687086754
 31
0.0
  0
LINE
  5
9F73
330
1E
100
AcDbEntity
  8
10
  6
HIDDEN
100
AcDbLine
 10
572.3999999999997
 20
-110.9999999999996
 30
0.0
 11
528.8999999999998
 21
-110.9999999999996
 31
0.0
  0
LINE
  5
9F74
330
1E
100
AcDbEntity
  8
18
 48
2.0
100
AcDbLine
 10
-9.999999999999772
 20
-599.5289393520672
 30
0.0
 11
-9.999999999999772
 21
-620.5289393520672
 31
0.0
  0
LINE
  5
9F78
330
1E
100
AcDbEntity
  8
10
100
AcDbLine
 10
350.4
 20
-45.0
 30
0.0
 11
350.4
 21
45.0
 31
0.0
  0
LINE
  5
9F79
330
1E
100
AcDbEntity
  8
10
100
AcDbLine
 10
59.20000000000005
 20
136.0
 30
0.0
 11
81.20000000000004
 21
136.0
 31
0.0
  0
LINE
  5
9F7A
330
1E
100
AcDbEntity
  8
10
100
AcDbLine
 10
18.0
 20
-25.5
 30
0.0
 11
18.0
 21
29.6416999999999
 31
0.0
  0
LINE
  5
9F7E
330
1E
100
AcDbEntity
  8
10
100
AcDbLine
 10
174.9999999999995
 20
116.0
 30
0.0
 11
-105.0
 21
116.0
 31
0.0
  0
LINE
  5
9F7F
330
1E
100
AcDbEntity
  8
10
100
AcDbLine
 10
509.0
 20
-86.49999999999989
 30
0.0
 11
573.3999999999999
 21
-86.49999999999989
 31
0.0
  0
LINE
  5
9F80
330
1E
100
AcDbEntity
  8
10
100
AcDbLine
 10
142.9687499999996
 20
84.24859000000015
 30
0.0
 11
144.15625
 21
85.43609000000003
 31
0.0
  0
LINE
  5
9F81
330
1E
100
AcDbEntity
  8
10
100
AcDbLine
 10
136.263595
 20
80.06250000000013
 30
0.0
 11
137.0312499999996
 21
80.830155
 31
0.0
  0
LINE
  5
9F82
330
1E
100
AcDbEntity
  8
10
100
AcDbLine
 10
142.9687499999996
 20
87.60734500000003
 30
0.0
 11
144.15625
 21
88.79484500000002
 31
0.0
  0
LINE
  5
9F83
330
1E
100
AcDbEntity
  8
10
100
AcDbLine
 10
142.9002849999999
 20
80.82136500000002
 30
0.0
 11
144.15625
 21
82.07733000000008
 31
0.0
  0
LINE
  5
9F84
330
1E
100
AcDbEntity
  8
10
100
AcDbLine
 10
457.3999999999998
 20
-149.5
 30
0.0
 11
457.3999999999998
 21
158.4999999999999
 31
0.0
  0
LINE
  5
9F85
330
1E
100
AcDbEntity
  8
10
100
AcDbLine
 10
95.0
 20
-149.5
 30
0.0
 11
95.0
 21
-170.4999999999999
 31
0.0
  0
LINE
  5
9F87
330
1E
100
AcDbEntity
  8
12
100
AcDbLine
 10
532.0
 20
-66.49999999999988
 30
0.0
 11
532.0
 21
-74.5
 31
0.0
  0
LINE
  5
9F94
330
1E
100
AcDbEntity
  8
10
  6
DIVIDE
100
AcDbLine
 10
-118.6000000000001
 20
-355.5289393520673
 30
0.0
 11
218.9999999999995
 21
-355.5289393520673
 31
0.0
  0
LINE
  5
9F96
330
1E
100
AcDbEntity
  8
10
100
AcDbLine
 10
138.0597199999999
 20
87.73645
 30
0.0
 11
138.9123849999998
 21
88.58911499999996
 31
0.0
  0
LINE
  5
9F97
330
1E
100
AcDbEntity
  8
10
100
AcDbLine
 10
136.6834399999999
 20
80.06250000000013
 30
0.0
 11
137.0312499999996
 21
80.41030999999998
 31
0.0
  0
LINE
  5
9F9F
330
1E
100
AcDbEntity
  8
10
100
AcDbLine
 10
142.9687499999996
 20
82.98905499999989
 30
0.0
 11
144.15625
 21
84.17655499999989
 31
0.0
  0
LINE
  5
9FA4
330
1E
100
AcDbEntity
  8
17
100
AcDbLine
 10
582.3999999999997
 20
126.0
 30
0.0
 11
508.8999999999998
 21
126.0
 31
0.0
  0
LINE
  5
9FA5
330
1E
100
AcDbEntity
  8
18
 48
2.0
100
AcDbLine
 10
130.0000000000002
 20
-620.5289393520672
 30
0.0
 11
110.0000000000002
 21
-620.5289393520672
 31
0.0
  0
LINE
  5
9FA7
330
1E
100
AcDbEntity
  8
10
100
AcDbLine
 10
339.0549512574474
 20
378.8043687086753
 30
0.0
 11
403.454951257447
 21
378.8043687086753
 31
0.0
  0
LINE
  5
9FA8
330
1E
100
AcDbEntity
  8
10
100
AcDbLine
 10
358.9549512574468
 20
332.3043687086753
 30
0.0
 11
358.9549512574468
 21
364.3043687086753
 31
0.0
  0
LINE
  5
9FAA
330
1E
100
AcDbEntity
  8
12
100
AcDbLine
 10
371.4549512574468
 20
336.3043687086753
 30
0.0
 11
371.4549512574468
 21
360.3043687086753
 31
0.0
  0
LINE
  5
9FAB
330
1E
100
AcDbEntity
  8
10
100
AcDbLine
 10
357.9000000000001
 20
55.4999999999999
 30
0.0
 11
357.9000000000001
 21
116.0
 31
0.0
  0
LINE
  5
9FAC
330
1E
100
AcDbEntity
  8
10
100
AcDbLine
 10
-81.0
 20
-127.0
 30
0.0
 11
-58.79999999999995
 21
-127.0
 31
0.0
  0
LINE
  5
9FAD
330
1E
100
AcDbEntity
  8
10
100
AcDbLine
 10
19.0
 20
-36.60000000000002
 30
0.0
 11
24.5
 21
-36.60000000000002
 31
0.0
  0
LINE
  5
9FAE
330
1E
100
AcDbEntity
  8
10
100
AcDbLine
 10
318.6583050000001
 20
45.21928000000001
 30
0.0
 11
314.32246
 21
33.17600499999993
 31
0.0
  0
LINE
  5
9FB1
330
1E
100
AcDbEntity
  8
12
100
AcDbLine
 10
362.0549512574468
 20
398.8043687086753
 30
0.0
 11
339.0549512574474
 21
398.8043687086753
 31
0.0
  0
LINE
  5
9FB2
330
1E
100
AcDbEntity
  8
10
100
AcDbLine
 10
491.3999999999998
 20
179.4999999999999
 30
0.0
 11
506.3999999999999
 21
179.4999999999999
 31
0.0
  0
LINE
  5
9FB3
330
1E
100
AcDbEntity
  8
10
100
AcDbLine
 10
270.892685
 20
47.53662499999996
 30
0.0
 11
306.87807
 21
28.73515999999995
 31
0.0
  0
LINE
  5
9FB4
330
1E
100
AcDbEntity
  8
10
100
AcDbLine
 10
141.6901449999998
 20
82.55013500000007
 30
0.0
 11
142.542805
 21
83.40280000000007
 31
0.0
  0
LINE
  5
9FB5
330
1E
100
AcDbEntity
  8
10
100
AcDbLine
 10
142.9687499999996
 20
83.40889999999991
 30
0.0
 11
144.15625
 21
84.59639999999991
 31
0.0
  0
LINE
  5
9FB6
330
1E
100
AcDbEntity
  8
10
100
AcDbLine
 10
142.9687499999996
 20
89.70657000000006
 30
0.0
 11
144.15625
 21
90.89407000000006
 31
0.0
  0
LINE
  5
9FB8
330
1E
100
AcDbEntity
  8
10
100
AcDbLine
 10
-18.0
 20
-25.5
 30
0.0
 11
-18.0
 21
29.6416999999999
 31
0.0
  0
LINE
  5
9FB9
330
1E
100
AcDbEntity
  8
10
100
AcDbLine
 10
-45.0
 20
158.4999999999999
 30
0.0
 11
-45.0
 21
179.4999999999999
 31
0.0
  0
LINE
  5
9FBB
330
1E
100
AcDbEntity
  8
12
100
AcDbLine
 10
516.5
 20
71.00000000000012
 30
0.0
 11
514.0
 21
71.00000000000012
 31
0.0
  0
LINE
  5
9FBC
330
1E
100
AcDbEntity
  8
12
100
AcDbLine
 10
402.4549512574469
 20
354.3043687086754
 30
0.0
 11
358.9549512574468
 21
354.3043687086754
 31
0.0
  0
LINE
  5
9FC3
330
1E
100
AcDbEntity
  8
16
100
AcDbLine
 10
15.00000000000022
 20
-630.5289393520673
 30
0.0
 11
15.00000000000022
 21
-260.5289393520674
 31
0.0
  0
LINE
  5
9FD0
330
1E
100
AcDbEntity
  8
10
100
AcDbLine
 10
135.8437499999999
 20
80.9021899999999
 30
0.0
 11
137.0312499999996
 21
82.0896899999999
 31
0.0
  0
LINE
  5
9FD1
330
1E
100
AcDbEntity
  8
10
100
AcDbLine
 10
138.4054749999998
 20
87.24251499999992
 30
0.0
 11
139.2581399999999
 21
88.09517999999988
 31
0.0
  0
LINE
  5
9FD4
330
1E
100
AcDbEntity
  8
10
100
AcDbLine
 10
20.79999999999995
 20
37.16874500000017
 30
0.0
 11
-20.79999999999995
 21
37.16874500000017
 31
0.0
  0
LINE
  5
9FD5
330
1E
100
AcDbEntity
  8
10
  6
HIDDEN
100
AcDbLine
 10
572.3999999999997
 20
-122.9999999999999
 30
0.0
 11
572.3999999999997
 21
-110.9999999999996
 31
0.0
  0
LINE
  5
9FD6
330
1E
100
AcDbEntity
  8
10
100
AcDbLine
 10
403.454951257447
 20
315.8043687086755
 30
0.0
 11
403.454951257447
 21
378.8043687086753
 31
0.0
  0
LINE
  5
9FD8
330
1E
100
AcDbEntity
  8
18
 48
2.0
100
AcDbLine
 10
110.0000000000002
 20
-599.5289393520672
 30
0.0
 11
110.0000000000002
 21
-620.5289393520672
 31
0.0
  0
LINE
  5
9FD9
330
1E
100
AcDbEntity
  8
18
 48
2.0
100
AcDbLine
 10
190.0000000000002
 20
-291.5289393520673
 30
0.0
 11
190.0000000000002
 21
-599.5289393520672
 31
0.0
  0
LINE
  5
9FDB
330
1E
100
AcDbEntity
  8
12
100
AcDbLine
 10
521.4999999999998
 20
72.0
 30
0.0
 11
516.5
 21
72.0
 31
0.0
  0
LINE
  5
9FDC
330
1E
100
AcDbEntity
  8
1
  6
Continuous
 62
     3
100
AcDbLine
 10
371.4549512574468
 20
336.3043687086753
 30
0.0
 11
368.9549512574469
 21
336.3043687086753
 31
0.0
  0
LINE
  5
9FDD
330
1E
100
AcDbEntity
  8
12
100
AcDbLine
 10
402.4549512574469
 20
342.3043687086753
 30
0.0
 11
358.9549512574468
 21
342.3043687086753
 31
0.0
  0
LINE
  5
9FDE
330
1E
100
AcDbEntity
  8
12
100
AcDbLine
 10
532.0
 20
-66.49999999999988
 30
0.0
 11
509.0
 21
-66.49999999999988
 31
0.0
  0
LINE
  5
9FEF
330
1E
100
AcDbEntity
  8
10
100
AcDbLine
 10
174.9999999999995
 20
-46.5
 30
0.0
 11
-105.0
 21
-46.5
 31
0.0
  0
LINE
  5
9FF0
330
1E
100
AcDbEntity
  8
10
100
AcDbLine
 10
403.454951257447
 20
375.3043687086754
 30
0.0
 11
346.5339712574472
 21
375.3043687086754
 31
0.0
  0
LINE
  5
9FF1
330
1E
100
AcDbEntity
  8
10
100
AcDbLine
 10
142.38165
 20
81.56226499999991
 30
0.0
 11
144.15625
 21
83.33686499999997
 31
0.0
  0
LINE
  5
9FF2
330
1E
100
AcDbEntity
  8
10
100
AcDbLine
 10
509.0
 20
95.5
 30
0.0
 11
573.3999999999999
 21
95.5
 31
0.0
  0
LINE
  5
9FF3
330
1E
100
AcDbEntity
  8
10
100
AcDbLine
 10
139.9613699999999
 20
85.01980999999998
 30
0.0
 11
140.8140350000001
 21
85.87247500000012
 31
0.0
  0
LINE
  5
9FF4
330
1E
100
AcDbEntity
  8
10
100
AcDbLine
 10
135.8437499999999
 20
84.68079000000001
 30
0.0
 11
137.0312499999996
 21
85.86829000000014
 31
0.0
  0
LINE
  5
9FF5
330
1E
100
AcDbEntity
  8
10
100
AcDbLine
 10
135.8437499999999
 20
89.71892999999989
 30
0.0
 11
137.1836149999999
 21
91.05879000000005
 31
0.0
  0
LINE
  5
9FF6
330
1E
100
AcDbEntity
  8
10
100
AcDbLine
 10
135.8437499999999
 20
88.87923999999998
 30
0.0
 11
137.5293699999999
 21
90.56485499999997
 31
0.0
  0
LINE
  5
9FFF
330
1E
100
AcDbEntity
  8
10
  6
DASHDOT
100
AcDbLine
 10
572.3999999999997
 20
132.0
 30
0.0
 11
528.8999999999998
 21
132.0
 31
0.0
  0
LINE
  5
A000
330
1E
100
AcDbEntity
  8
10
100
AcDbLine
 10
336.4549512574468
 20
315.8043687086755
 30
0.0
 11
336.4549512574468
 21
294.8043687086755
 31
0.0
  0
LINE
  5
A001
330
1E
100
AcDbEntity
  8
18
 48
2.0
100
AcDbLine
 10
-29.99999999999977
 20
-291.5289393520673
 30
0.0
 11
-29.99999999999977
 21
-270.5289393520674
 31
0.0
  0
LINE
  5
A002
330
1E
100
AcDbEntity
  8
24
  6
CONTINOUS
100
AcDbLine
 10
473.9549512574469
 20
265.8043687086753
 30
0.0
 11
473.9549512574469
 21
374.8043687086753
 31
0.0
  0
LINE
  5
A004
330
1E
100
AcDbEntity
  8
12
100
AcDbLine
 10
521.4999999999998
 20
-62.99999999999993
 30
0.0
 11
521.4999999999998
 21
-77.99999999999993
 31
0.0
  0
LINE
  5
A005
330
1E
100
AcDbEntity
  8
12
100
AcDbLine
 10
346.5549512574472
 20
386.3043687086753
 30
0.0
 11
344.0549512574472
 21
386.3043687086753
 31
0.0
  0
LINE
  5
A007
330
1E
100
AcDbEntity
  8
10
  6
DIVIDE
100
AcDbLine
 10
549.0
 20
54.5
 30
0.0
 11
509.0
 21
54.5
 31
0.0
  0
LINE
  5
A017
330
1E
100
AcDbEntity
  8
10
100
AcDbLine
 10
25.70000000000004
 20
45.0
 30
0.0
 11
25.70000000000004
 21
-45.0
 31
0.0
  0
LINE
  5
A018
330
1E
100
AcDbEntity
  8
10
100
AcDbLine
 10
-10.79999999999994
 20
136.0
 30
0.0
 11
11.20000000000001
 21
136.0
 31
0.0
  0
LINE
  5
A019
330
1E
100
AcDbEntity
  8
10
100
AcDbLine
 10
347.3999999999999
 20
-45.0
 30
0.0
 11
347.3999999999999
 21
-27.10696000000007
 31
0.0
  0
LINE
  5
A01A
330
1E
100
AcDbEntity
  8
10
100
AcDbLine
 10
135.8437499999999
 20
87.61970500000003
 30
0.0
 11
137.0312499999996
 21
88.80720500000006
 31
0.0
  0
LINE
  5
A01B
330
1E
100
AcDbEntity
  8
10
100
AcDbLine
 10
174.9999999999995
 20
-149.5
 30
0.0
 11
-105.0
 21
-149.5
 31
0.0
  0
LINE
  5
A020
330
1E
100
AcDbEntity
  8
10
  6
DIVIDE
100
AcDbLine
 10
-118.6000000000001
 20
-535.5289393520673
 30
0.0
 11
218.9999999999995
 21
-535.5289393520673
 31
0.0
  0
LINE
  5
A038
330
1E
100
AcDbEntity
  8
1
  6
DASHDOT
 62
     3
100
AcDbLine
 10
358.9549512574468
 20
364.3043687086753
 30
0.0
 11
358.9549512574468
 21
374.8043687086753
 31
0.0
  0
LINE
  5
A039
330
1E
100
AcDbEntity
  8
10
100
AcDbLine
 10
532.0
 20
83.50000000000013
 30
0.0
 11
509.0
 21
83.50000000000013
 31
0.0
  0
LINE
  5
A03A
330
1E
100
AcDbEntity
  8
12
100
AcDbLine
 10
521.4999999999998
 20
87.0
 30
0.0
 11
521.4999999999998
 21
72.0
 31
0.0
  0
LINE
  5
A03B
330
1E
100
AcDbEntity
  8
12
100
AcDbLine
 10
362.0549512574468
 20
390.8043687086753
 30
0.0
 11
339.0549512574474
 21
390.8043687086753
 31
0.0
  0
LINE
  5
A03C
330
1E
100
AcDbEntity
  8
18
 48
2.0
100
AcDbLine
 10
190.0000000000002
 20
-599.5289393520672
 30
0.0
 11
-89.5999999999997
 21
-599.5289393520672
 31
0.0
  0
LINE
  5
A03F
330
1E
100
AcDbEntity
  8
18
 48
2.0
100
AcDbLine
 10
110.0000000000002
 20
-291.5289393520673
 30
0.0
 11
110.0000000000002
 21
-270.5289393520674
 31
0.0
  0
LINE
  5
A040
330
1E
100
AcDbEntity
  8
10
  6
HIDDEN
100
AcDbLine
 10
528.8999999999998
 20
-100.9999999999999
 30
0.0
 11
518.8999999999999
 21
-100.9999999999999
 31
0.0
  0
LINE
  5
A041
330
1E
100
AcDbEntity
  8
10
100
AcDbLine
 10
573.3999999999999
 20
95.5
 30
0.0
 11
573.3999999999999
 21
158.4999999999999
 31
0.0
  0
LINE
  5
A043
330
1E
100
AcDbEntity
  8
10
100
AcDbLine
 10
115.0
 20
-170.4999999999999
 30
0.0
 11
95.0
 21
-170.4999999999999
 31
0.0
  0
LINE
  5
A044
330
1E
100
AcDbEntity
  8
12
  6
DASHDOT
100
AcDbLine
 10
-46.04999999999995
 20
126.0
 30
0.0
 11
-23.54999999999995
 21
126.0
 31
0.0
  0
LINE
  5
A047
330
1E
100
AcDbEntity
  8
10
100
AcDbLine
 10
20.79999999999995
 20
29.6416999999999
 30
0.0
 11
-20.79999999999995
 21
29.6416999999999
 31
0.0
  0
LINE
  5
A048
330
1E
100
AcDbEntity
  8
10
100
AcDbLine
 10
18.0
 20
-25.5
 30
0.0
 11
-18.0
 21
-25.5
 31
0.0
  0
LINE
  5
A049
330
1E
100
AcDbEntity
  8
10
100
AcDbLine
 10
-81.0
 20
136.0
 30
0.0
 11
-58.79999999999995
 21
136.0
 31
0.0
  0
LINE
  5
A04A
330
1E
100
AcDbEntity
  8
10
100
AcDbLine
 10
354.3999999999999
 20
-45.0
 30
0.0
 11
354.3999999999999
 21
45.0
 31
0.0
  0
LINE
  5
A04C
330
1E
100
AcDbEntity
  8
10
100
AcDbLine
 10
135.8437499999999
 20
87.19986000000004
 30
0.0
 11
137.0312499999996
 21
88.38736000000006
 31
0.0
  0
LINE
  5
A04D
330
1E
100
AcDbEntity
  8
10
100
AcDbLine
 10
142.7274050000001
 20
81.06833000000007
 30
0.0
 11
144.15625
 21
82.49717499999997
 31
0.0
  0
LINE
  5
A04E
330
1E
100
AcDbEntity
  8
10
100
AcDbLine
 10
140.6528799999996
 20
84.03193999999997
 30
0.0
 11
141.5055449999998
 21
84.88460499999995
 31
0.0
  0
LINE
  5
A04F
330
1E
100
AcDbEntity
  8
10
100
AcDbLine
 10
140.307125
 20
84.52587500000005
 30
0.0
 11
141.1597899999998
 21
85.37854000000004
 31
0.0
  0
LINE
  5
A050
330
1E
100
AcDbEntity
  8
10
100
AcDbLine
 10
135.8437499999999
 20
83.42126000000005
 30
0.0
 11
137.0312499999996
 21
84.60875999999997
 31
0.0
  0
LINE
  5
A051
330
1E
100
AcDbEntity
  8
10
100
AcDbLine
 10
140.9986349999998
 20
83.53800499999989
 30
0.0
 11
141.8513
 21
84.39066999999987
 31
0.0
  0
LINE
  5
A052
330
1E
100
AcDbEntity
  8
10
100
AcDbLine
 10
340.2159049999998
 20
44.57905000000002
 30
0.0
 11
315.7530049999998
 21
53.38623500000005
 31
0.0
  0
LINE
  5
A053
330
1E
100
AcDbEntity
  8
10
100
AcDbLine
 10
506.5
 20
94.25
 30
0.0
 11
459.8999999999998
 21
94.25
 31
0.0
  0
LINE
  5
A054
330
1E
100
AcDbEntity
  8
10
100
AcDbLine
 10
-105.0
 20
-107.0
 30
0.0
 11
174.9999999999995
 21
-107.0
 31
0.0
  0
LINE
  5
A055
330
1E
100
AcDbEntity
  8
10
100
AcDbLine
 10
357.9549512574471
 20
315.8043687086755
 30
0.0
 11
357.9549512574471
 21
319.3043687086754
 31
0.0
  0
LINE
  5
A070
330
1E
100
AcDbEntity
  8
12
100
AcDbLine
 10
402.4549512574469
 20
342.3043687086753
 30
0.0
 11
402.4549512574469
 21
354.3043687086754
 31
0.0
  0
LINE
  5
A071
330
1E
100
AcDbEntity
  8
12
100
AcDbLine
 10
532.0
 20
-74.5
 30
0.0
 11
509.0
 21
-74.5
 31
0.0
  0
LINE
  5
A072
330
1E
100
AcDbEntity
  8
10
100
AcDbLine
 10
379.0549512574471
 20
419.8043687086753
 30
0.0
 11
339.0549512574474
 21
419.8043687086753
 31
0.0
  0
LINE
  5
A073
330
1E
100
AcDbEntity
  8
12
100
AcDbLine
 10
378.9549512574469
 20
357.3043687086753
 30
0.0
 11
371.4549512574468
 21
357.3043687086753
 31
0.0
  0
LINE
  5
A075
330
1E
100
AcDbEntity
  8
12
100
AcDbLine
 10
358.9549512574468
 20
332.3043687086753
 30
0.0
 11
348.9549512574469
 21
332.3043687086753
 31
0.0
  0
LINE
  5
A077
330
1E
100
AcDbEntity
  8
18
 48
2.0
100
AcDbLine
 10
130.0000000000002
 20
-599.5289393520672
 30
0.0
 11
130.0000000000002
 21
-620.5289393520672
 31
0.0
  0
LINE
  5
A078
330
1E
100
AcDbEntity
  8
17
100
AcDbLine
 10
582.3999999999997
 20
-117.0
 30
0.0
 11
508.8999999999998
 21
-117.0
 31
0.0
  0
LINE
  5
A07A
330
1E
100
AcDbEntity
  8
10
100
AcDbLine
 10
-45.0
 20
179.4999999999999
 30
0.0
 11
-25.0
 21
179.4999999999999
 31
0.0
  0
LINE
  5
A07C
330
1E
100
AcDbEntity
  8
16
100
AcDbLine
 10
0.0
 20
-180.2499999999998
 30
0.0
 11
0.0
 21
189.2499999999999
 31
0.0
  0
LINE
  5
A07F
330
1E
100
AcDbEntity
  8
10
100
AcDbLine
 10
333.9343949999999
 20
37.16874500000017
 30
0.0
 11
331.2244899999998
 21
29.6416999999999
 31
0.0
  0
LINE
  5
A081
330
1E
100
AcDbEntity
  8
10
100
AcDbLine
 10
20.79999999999995
 20
29.6416999999999
 30
0.0
 11
20.79999999999995
 21
37.16874500000017
 31
0.0
  0
LINE
  5
A082
330
1E
100
AcDbEntity
  8
10
100
AcDbLine
 10
360.3999999999999
 20
-132.0
 30
0.0
 11
457.3999999999998
 21
-132.0
 31
0.0
  0
LINE
  5
A083
330
1E
100
AcDbEntity
  8
10
100
AcDbLine
 10
360.3999999999999
 20
116.0
 30
0.0
 11
357.9000000000001
 21
116.0
 31
0.0
  0
LINE
  5
A085
330
1E
100
AcDbEntity
  8
10
100
AcDbLine
 10
142.9687499999996
 20
88.44703499999992
 30
0.0
 11
144.15625
 21
89.63453500000005
 31
0.0
  0
LINE
  5
A086
330
1E
100
AcDbEntity
  8
10
100
AcDbLine
 10
141.3443899999998
 20
83.04407000000015
 30
0.0
 11
142.1970549999998
 21
83.89673500000014
 31
0.0
  0
LINE
  5
A087
330
1E
100
AcDbEntity
  8
10
100
AcDbLine
 10
138.75123
 20
86.74858000000019
 30
0.0
 11
139.6038949999999
 21
87.60124500000017
 31
0.0
  0
LINE
  5
A088
330
1E
100
AcDbEntity
  8
10
100
AcDbLine
 10
139.4427399999996
 20
85.76071000000002
 30
0.0
 11
140.295405
 21
86.61337500000001
 31
0.0
  0
LINE
  5
A089
330
1E
100
AcDbEntity
  8
10
100
AcDbLine
 10
141.86302
 20
82.30317000000002
 30
0.0
 11
142.715685
 21
83.15583000000001
 31
0.0
  0
LINE
  5
A08A
330
1E
100
AcDbEntity
  8
10
100
AcDbLine
 10
139.7884949999999
 20
85.26678000000002
 30
0.0
 11
140.6411599999999
 21
86.11943999999994
 31
0.0
  0
LINE
  5
A08C
330
1E
100
AcDbEntity
  8
10
100
AcDbLine
 10
491.3999999999998
 20
-149.5
 30
0.0
 11
491.3999999999998
 21
-170.4999999999999
 31
0.0
  0
LINE
  5
A08D
330
1E
100
AcDbEntity
  8
12
100
AcDbLine
 10
362.0549512574468
 20
398.8043687086753
 30
0.0
 11
362.0549512574468
 21
390.8043687086753
 31
0.0
  0
LINE
  5
A0A9
330
1E
100
AcDbEntity
  8
10
  6
DIVIDE
100
AcDbLine
 10
514.0
 20
-55.49999999999993
 30
0.0
 11
514.0
 21
-80.49999999999995
 31
0.0
  0
LINE
  5
A0AA
330
1E
100
AcDbEntity
  8
12
100
AcDbLine
 10
521.4999999999998
 20
-77.99999999999993
 30
0.0
 11
516.5
 21
-77.99999999999993
 31
0.0
  0
LINE
  5
A0AB
330
1E
100
AcDbEntity
  8
12
100
AcDbLine
 10
346.5549512574472
 20
403.3043687086751
 30
0.0
 11
344.0549512574472
 21
403.3043687086751
 31
0.0
  0
LINE
  5
A0AC
330
1E
100
AcDbEntity
  8
24
  6
CONTINOUS
100
AcDbLine
 10
473.9549512574469
 20
374.8043687086753
 30
0.0
 11
513.9549512574468
 21
374.8043687086753
 31
0.0
  0
LINE
  5
A0AE
330
1E
100
AcDbEntity
  8
10
100
AcDbLine
 10
321.4549512574468
 20
315.8043687086755
 30
0.0
 11
321.4549512574468
 21
294.8043687086755
 31
0.0
  0
LINE
  5
A0AF
330
1E
100
AcDbEntity
  8
18
 48
2.0
100
AcDbLine
 10
-9.999999999999772
 20
-291.5289393520673
 30
0.0
 11
-9.999999999999772
 21
-270.5289393520674
 31
0.0
  0
LINE
  5
A0B0
330
1E
100
AcDbEntity
  8
10
  6
DASHDOT
100
AcDbLine
 10
528.8999999999998
 20
142.0
 30
0.0
 11
518.8999999999999
 21
142.0
 31
0.0
  0
LINE
  5
A0B2
330
1E
100
AcDbEntity
  8
10
100
AcDbLine
 10
95.0
 20
158.4999999999999
 30
0.0
 11
95.0
 21
179.4999999999999
 31
0.0
  0
LINE
  5
A0B4
330
1E
100
AcDbEntity
  8
12
  6
DASHDOT
100
AcDbLine
 10
-34.79999999999995
 20
-105.75
 30
0.0
 11
-34.79999999999995
 21
-128.2499999999999
 31
0.0
  0
LINE
  5
A0B6
330
1E
100
AcDbEntity
  8
10
100
AcDbLine
 10
346.6898699999999
 20
21.52301999999997
 30
0.0
 11
314.32246
 21
33.17600499999993
 31
0.0
  0
LINE
  5
A0B8
330
1E
100
AcDbEntity
  8
10
100
AcDbLine
 10
85.20000000000004
 20
40.0
 30
0.0
 11
85.20000000000004
 21
-40.0
 31
0.0
  0
LINE
  5
A0B9
330
1E
100
AcDbEntity
  8
10
100
AcDbLine
 10
354.3999999999999
 20
-46.5
 30
0.0
 11
354.3999999999999
 21
-45.0
 31
0.0
  0
LINE
  5
A0BB
330
1E
100
AcDbEntity
  8
10
100
AcDbLine
 10
135.8437499999999
 20
91.81814999999984
 30
0.0
 11
135.9630999999999
 21
91.93750000000013
 31
0.0
  0
LINE
  5
A0BC
330
1E
100
AcDbEntity
  8
10
100
AcDbLine
 10
137.7139699999997
 20
88.23038500000006
 30
0.0
 11
138.56663
 21
89.08305000000003
 31
0.0
  0
LINE
  5
A0BD
330
1E
100
AcDbEntity
  8
10
100
AcDbLine
 10
142.9687499999996
 20
90.12641499999997
 30
0.0
 11
144.15625
 21
91.31391500000004
 31
0.0
  0
LINE
  5
A0BE
330
1E
100
AcDbEntity
  8
10
100
AcDbLine
 10
135.8437499999999
 20
81.32203499999993
 30
0.0
 11
137.0312499999996
 21
82.50953499999992
 31
0.0
  0
LINE
  5
A0BF
330
1E
100
AcDbEntity
  8
10
100
AcDbLine
 10
142.9687499999996
 20
88.0271899999999
 30
0.0
 11
144.15625
 21
89.21469000000001
 31
0.0
  0
LINE
  5
A0C0
330
1E
100
AcDbEntity
  8
10
100
AcDbLine
 10
143.0731599999999
 20
80.57439499999999
 30
0.0
 11
144.15625
 21
81.65748500000006
 31
0.0
  0
LINE
  5
A0C1
330
1E
100
AcDbEntity
  8
10
100
AcDbLine
 10
135.8437499999999
 20
88.03954999999996
 30
0.0
 11
137.875125
 21
90.07092
 31
0.0
  0
LINE
  5
A0C2
330
1E
100
AcDbEntity
  8
10
100
AcDbLine
 10
457.3999999999998
 20
158.4999999999999
 30
0.0
 11
573.3999999999999
 21
158.4999999999999
 31
0.0
  0
LINE
  5
A0C3
330
1E
100
AcDbEntity
  8
16
100
AcDbLine
 10
184.9999999999995
 20
0.0
 30
0.0
 11
-115.0
 21
0.0
 31
0.0
  0
LINE
  5
A0C7
330
1E
100
AcDbEntity
  8
10
  6
DIVIDE
100
AcDbLine
 10
-122.5285700000001
 20
-390.5289393520675
 30
0.0
 11
215.0714299999997
 21
-390.5289393520675
 31
0.0
  0
LINE
  5
A0DF
330
1E
100
AcDbEntity
  8
1
  6
DASHDOT
 62
     3
100
AcDbLine
 10
358.9549512574468
 20
332.3043687086753
 30
0.0
 11
358.9549512574468
 21
265.8043687086753
 31
0.0
  0
LINE
  5
A0E0
330
1E
100
AcDbEntity
  8
12
100
AcDbLine
 10
532.0
 20
75.5
 30
0.0
 11
509.0
 21
75.5
 31
0.0
  0
LINE
  5
A0E1
330
1E
100
AcDbEntity
  8
12
100
AcDbLine
 10
516.5
 20
88.0
 30
0.0
 11
516.5
 21
71.00000000000012
 31
0.0
  0
LINE
  5
A0E2
330
1E
100
AcDbEntity
  8
1
  6
DASHDOT
 62
     3
100
AcDbLine
 10
368.9549512574469
 20
374.8043687086753
 30
0.0
 11
358.9549512574468
 21
374.8043687086753
 31
0.0
  0
LINE
  5
A0E3
330
1E
100
AcDbEntity
  8
18
 48
2.0
100
AcDbLine
 10
-89.5999999999997
 20
-291.5289393520673
 30
0.0
 11
-89.5999999999997
 21
-599.5289393520672
 31
0.0
  0
LINE
  5
A0E5
330
1E
100
AcDbEntity
  8
12
100
AcDbLine
 10
358.9549512574468
 20
364.3043687086753
 30
0.0
 11
348.9549512574469
 21
364.3043687086753
 31
0.0
  0
LINE
  5
A0E6
330
1E
100
AcDbEntity
  8
18
 48
2.0
100
AcDbLine
 10
130.0000000000002
 20
-270.5289393520674
 30
0.0
 11
110.0000000000002
 21
-270.5289393520674
 31
0.0
  0
LINE
  5
A0E7
330
1E
100
AcDbEntity
  8
10
  6
HIDDEN
100
AcDbLine
 10
528.8999999999998
 20
-132.9999999999999
 30
0.0
 11
518.8999999999999
 21
-132.9999999999999
 31
0.0
  0
LINE
  5
A0E8
330
1E
100
AcDbEntity
  8
10
100
AcDbLine
 10
573.3999999999999
 20
-149.5
 30
0.0
 11
573.3999999999999
 21
-86.49999999999989
 31
0.0
  0
LINE
  5
A0EA
330
1E
100
AcDbEntity
  8
10
100
AcDbLine
 10
115.0
 20
-149.5
 30
0.0
 11
115.0
 21
-170.4999999999999
 31
0.0
  0
LINE
  5
A0EB
330
1E
100
AcDbEntity
  8
10
100
AcDbLine
 10
174.9999999999995
 20
141.0
 30
0.0
 11
-105.0
 21
141.0
 31
0.0
  0
LINE
  5
A0EC
330
1E
100
AcDbEntity
  8
12
  6
DASHDOT
100
AcDbLine
 10
35.20000000000004
 20
137.25
 30
0.0
 11
35.20000000000004
 21
114.7499999999999
 31
0.0
  0
LINE
  5
A0F0
330
1E
100
AcDbEntity
  8
10
100
AcDbLine
 10
24.5
 20
-36.60000000000002
 30
0.0
 11
24.5
 21
-29.70000000000004
 31
0.0
  0
LINE
  5
A0F1
330
1E
100
AcDbEntity
  8
10
100
AcDbLine
 10
-10.79999999999994
 20
-127.0
 30
0.0
 11
11.20000000000001
 21
-127.0
 31
0.0
  0
LINE
  5
A0F2
330
1E
100
AcDbEntity
  8
10
100
AcDbLine
 10
347.3999999999999
 20
45.0
 30
0.0
 11
354.3999999999999
 21
45.0
 31
0.0
  0
LINE
  5
A0F4
330
1E
100
AcDbEntity
  8
10
100
AcDbLine
 10
137.5410899999999
 20
88.47735499999997
 30
0.0
 11
138.3937549999995
 21
89.33002
 31
0.0
  0
LINE
  5
A0F5
330
1E
100
AcDbEntity
  8
10
100
AcDbLine
 10
141.5172649999998
 20
82.7971050000001
 30
0.0
 11
142.36993
 21
83.649765
 31
0.0
  0
LINE
  5
A0F6
330
1E
100
AcDbEntity
  8
10
100
AcDbLine
 10
142.9687499999996
 20
85.92796500000011
 30
0.0
 11
144.15625
 21
87.11546500000009
 31
0.0
  0
LINE
  5
A0F7
330
1E
100
AcDbEntity
  8
10
100
AcDbLine
 10
135.8437499999999
 20
82.58157000000004
 30
0.0
 11
137.0312499999996
 21
83.76907000000008
 31
0.0
  0
LINE
  5
A0F8
330
1E
100
AcDbEntity
  8
10
100
AcDbLine
 10
138.2325999999999
 20
87.48948500000006
 30
0.0
 11
139.0852649999999
 21
88.34214999999984
 31
0.0
  0
LINE
  5
A0F9
330
1E
100
AcDbEntity
  8
10
100
AcDbLine
 10
142.9687499999996
 20
85.08828000000006
 30
0.0
 11
144.15625
 21
86.27577999999994
 31
0.0
  0
LINE
  5
A0FA
330
1E
100
AcDbEntity
  8
10
100
AcDbLine
 10
342.6244749999998
 20
39.46057499999993
 30
0.0
 11
336.4594449999998
 21
22.336545
 31
0.0
  0
LINE
  5
A0FB
330
1E
100
AcDbEntity
  8
10
100
AcDbLine
 10
506.5
 20
-85.24999999999989
 30
0.0
 11
459.8999999999998
 21
-85.24999999999989
 31
0.0
  0
LINE
  5
A0FC
330
1E
100
AcDbEntity
  8
10
100
AcDbLine
 10
509.0
 20
-86.49999999999989
 30
0.0
 11
509.0
 21
95.5
 31
0.0
  0
LINE
  5
A118
330
1E
100
AcDbEntity
  8
12
  6
DASHDOT
100
AcDbLine
 10
412.454951257447
 20
348.3043687086754
 30
0.0
 11
338.9549512574469
 21
348.3043687086754
 31
0.0
  0
LINE
  5
A119
330
1E
100
AcDbEntity
  8
12
  6
DASHDOT
100
AcDbLine
 10
542.0
 20
-70.49999999999993
 30
0.0
 11
499.0
 21
-70.49999999999993
 31
0.0
  0
LINE
  5
A11A
330
1E
100
AcDbEntity
  8
10
100
AcDbLine
 10
374.0549512574472
 20
414.8043687086754
 30
0.0
 11
349.0549512574472
 21
414.8043687086754
 31
0.0
  0
LINE
  5
A11B
330
1E
100
AcDbEntity
  8
1
  6
DASHDOT
 62
     3
100
AcDbLine
 10
378.9549512574469
 20
339.3043687086753
 30
0.0
 11
371.4549512574468
 21
339.3043687086753
 31
0.0
  0
LINE
  5
A11F
330
1E
100
AcDbEntity
  8
10
100
AcDbLine
 10
174.9999999999995
 20
55.4999999999999
 30
0.0
 11
-105.0
 21
55.4999999999999
 31
0.0
  0
LINE
  5
A120
330
1E
100
AcDbEntity
  8
16
100
AcDbLine
 10
471.3999999999998
 20
0.0
 30
0.0
 11
294.9999999999997
 21
0.0
 31
0.0
  0
LINE
  5
A121
330
1E
100
AcDbEntity
  8
10
100
AcDbLine
 10
174.9999999999995
 20
158.4999999999999
 30
0.0
 11
-105.0
 21
158.4999999999999
 31
0.0
  0
LINE
  5
A122
330
1E
100
AcDbEntity
  8
10
100
AcDbLine
 10
-25.0
 20
158.4999999999999
 30
0.0
 11
-25.0
 21
179.4999999999999
 31
0.0
  0
LINE
  5
A128
330
1E
100
AcDbEntity
  8
10
100
AcDbLine
 10
-20.79999999999995
 20
29.6416999999999
 30
0.0
 11
-20.79999999999995
 21
37.16874500000017
 31
0.0
  0
LINE
  5
A129
330
1E
100
AcDbEntity
  8
10
100
AcDbLine
 10
360.3999999999999
 20
-132.0
 30
0.0
 11
360.3999999999999
 21
-107.0
 31
0.0
  0
LINE
  5
A12A
330
1E
100
AcDbEntity
  8
10
100
AcDbLine
 10
360.3999999999999
 20
116.0
 30
0.0
 11
360.3999999999999
 21
141.0
 31
0.0
  0
LINE
  5
A12C
330
1E
100
AcDbEntity
  8
10
100
AcDbLine
 10
135.8437499999999
 20
90.1387749999999
 30
0.0
 11
137.010735
 21
91.30576000000008
 31
0.0
  0
LINE
  5
A12D
330
1E
100
AcDbEntity
  8
10
100
AcDbLine
 10
135.8437499999999
 20
86.78001499999997
 30
0.0
 11
137.0312499999996
 21
87.96751499999983
 31
0.0
  0
LINE
  5
A12E
330
1E
100
AcDbEntity
  8
10
100
AcDbLine
 10
142.9687499999996
 20
90.54625999999997
 30
0.0
 11
144.15625
 21
91.73376000000008
 31
0.0
  0
LINE
  5
A12F
330
1E
100
AcDbEntity
  8
10
100
AcDbLine
 10
135.8437499999999
 20
91.39830500000003
 30
0.0
 11
136.382945
 21
91.93750000000013
 31
0.0
  0
LINE
  5
A130
330
1E
100
AcDbEntity
  8
10
100
AcDbLine
 10
142.9687499999996
 20
86.34780999999998
 30
0.0
 11
144.15625
 21
87.53531000000009
 31
0.0
  0
LINE
  5
A131
330
1E
100
AcDbEntity
  8
10
100
AcDbLine
 10
137.195335
 20
88.97129000000004
 30
0.0
 11
138.048
 21
89.82395500000006
 31
0.0
  0
LINE
  5
A133
330
1E
100
AcDbEntity
  8
10
100
AcDbLine
 10
506.3999999999999
 20
-149.5
 30
0.0
 11
506.3999999999999
 21
-170.4999999999999
 31
0.0
  0
LINE
  5
A134
330
1E
100
AcDbEntity
  8
12
  6
DASHDOT
100
AcDbLine
 10
372.054951257447
 20
394.8043687086753
 30
0.0
 11
329.0549512574473
 21
394.8043687086753
 31
0.0
  0
LINE
  5
A150
330
1E
100
AcDbEntity
  8
10
  6
DIVIDE
100
AcDbLine
 10
544.0
 20
-50.5
 30
0.0
 11
519.0
 21
-50.5
 31
0.0
  0
LINE
  5
A151
330
1E
100
AcDbEntity
  8
12
100
AcDbLine
 10
516.5
 20
-62.0
 30
0.0
 11
514.0
 21
-62.0
 31
0.0
  0
LINE
  5
A152
330
1E
100
AcDbEntity
  8
12
100
AcDbLine
 10
351.5549512574472
 20
402.3043687086754
 30
0.0
 11
346.5549512574472
 21
402.3043687086754
 31
0.0
  0
LINE
  5
A155
330
1E
100
AcDbEntity
  8
10
100
AcDbLine
 10
268.2391037897299
 20
333.3043687086753
 30
0.0
 11
287.4549512574469
 21
333.3043687086753
 31
0.0
  0
LINE
  5
A156
330
1E
100
AcDbEntity
  8
18
 48
2.0
100
AcDbLine
 10
-29.99999999999977
 20
-599.5289393520672
 30
0.0
 11
-29.99999999999977
 21
-620.5289393520672
 31
0.0
  0
LINE
  5
A157
330
1E
100
AcDbEntity
  8
10
  6
DASHDOT
100
AcDbLine
 10
528.8999999999998
 20
110.0
 30
0.0
 11
518.8999999999999
 21
110.0
 31
0.0
  0
LINE
  5
A15A
330
1E
100
AcDbEntity
  8
10
100
AcDbLine
 10
115.0
 20
179.4999999999999
 30
0.0
 11
95.0
 21
179.4999999999999
 31
0.0
  0
LINE
  5
A15B
330
1E
100
AcDbEntity
  8
10
100
AcDbLine
 10
174.9999999999995
 20
158.4999999999999
 30
0.0
 11
174.9999999999995
 21
-149.5
 31
0.0
  0
LINE
  5
A15C
330
1E
100
AcDbEntity
  8
12
  6
DASHDOT
100
AcDbLine
 10
-34.79999999999995
 20
137.25
 30
0.0
 11
-34.79999999999995
 21
114.7499999999999
 31
0.0
  0
LINE
  5
A161
330
1E
100
AcDbEntity
  8
10
100
AcDbLine
 10
-85.20000000000004
 20
40.0
 30
0.0
 11
-85.20000000000004
 21
-40.0
 31
0.0
  0
LINE
  5
A162
330
1E
100
AcDbEntity
  8
10
100
AcDbLine
 10
354.3999999999999
 20
-45.0
 30
0.0
 11
347.3999999999999
 21
-45.0
 31
0.0
  0
LINE
  5
A164
330
1E
100
AcDbEntity
  8
10
100
AcDbLine
 10
143.400955
 20
80.06250000000013
 30
0.0
 11
144.15625
 21
80.81780000000003
 31
0.0
  0
LINE
  5
A165
330
1E
100
AcDbEntity
  8
10
100
AcDbLine
 10
142.9687499999996
 20
87.1875
 30
0.0
 11
144.15625
 21
88.375
 31
0.0
  0
LINE
  5
A166
330
1E
100
AcDbEntity
  8
10
100
AcDbLine
 10
135.8437499999999
 20
82.16172500000014
 30
0.0
 11
137.0312499999996
 21
83.34922500000004
 31
0.0
  0
LINE
  5
A167
330
1E
100
AcDbEntity
  8
10
100
AcDbLine
 10
135.8437499999999
 20
86.36016999999993
 30
0.0
 11
137.0312499999996
 21
87.54767000000004
 31
0.0
  0
LINE
  5
A168
330
1E
100
AcDbEntity
  8
10
100
AcDbLine
 10
142.5545299999996
 20
81.3153000000001
 30
0.0
 11
144.15625
 21
82.91701999999999
 31
0.0
  0
LINE
  5
A169
330
1E
100
AcDbEntity
  8
10
100
AcDbLine
 10
140.4800049999996
 20
84.27890999999988
 30
0.0
 11
141.3326649999999
 21
85.13157000000003
 31
0.0
  0
LINE
  5
A16A
330
1E
100
AcDbEntity
  8
10
100
AcDbLine
 10
138.5783549999997
 20
86.99554999999998
 30
0.0
 11
139.4310149999998
 21
87.8482150000001
 31
0.0
  0
LINE
  5
A16B
330
1E
100
AcDbEntity
  8
10
100
AcDbLine
 10
457.3999999999998
 20
-149.5
 30
0.0
 11
573.3999999999999
 21
-149.5
 31
0.0
  0
LINE
  5
A16C
330
1E
100
AcDbEntity
  8
10
  6
DASHDOT
100
AcDbLine
 10
572.3999999999997
 20
120.0
 30
0.0
 11
572.3999999999997
 21
132.0
 31
0.0
  0
LINE
  5
A170
330
1E
100
AcDbEntity
  8
10
  6
DIVIDE
100
AcDbLine
 10
-114.6714250000002
 20
-500.5289393520675
 30
0.0
 11
222.9285749999998
 21
-500.5289393520675
 31
0.0
  0
LINE
  5
A188
330
1E
100
AcDbEntity
  8
10
100
AcDbLine
 10
368.9549512574469
 20
265.8043687086753
 30
0.0
 11
368.9549512574469
 21
374.8043687086753
 31
0.0
  0
LINE
  5
A189
330
1E
100
AcDbEntity
  8
12
  6
DASHDOT
100
AcDbLine
 10
542.0
 20
79.5
 30
0.0
 11
499.0
 21
79.5
 31
0.0
  0
LINE
  5
A18A
330
1E
100
AcDbEntity
  8
12
100
AcDbLine
 10
516.5
 20
88.0
 30
0.0
 11
514.0
 21
88.0
 31
0.0
  0
LINE
  5
A18B
330
1E
100
AcDbEntity
  8
1
  6
Continuous
 62
     3
100
AcDbLine
 10
371.4549512574468
 20
360.3043687086753
 30
0.0
 11
368.9549512574469
 21
360.3043687086753
 31
0.0
  0
LINE
  5
A18C
330
1E
100
AcDbEntity
  8
18
 48
2.0
100
AcDbLine
 10
190.0000000000002
 20
-291.5289393520673
 30
0.0
 11
-89.5999999999997
 21
-291.5289393520673
 31
0.0
  0
LINE
  5
A18F
330
1E
100
AcDbEntity
  8
18
 48
2.0
100
AcDbLine
 10
130.0000000000002
 20
-291.5289393520673
 30
0.0
 11
130.0000000000002
 21
-270.5289393520674
 31
0.0
  0
LINE
  5
A190
330
1E
100
AcDbEntity
  8
10
  6
HIDDEN
100
AcDbLine
 10
528.8999999999998
 20
-132.9999999999999
 30
0.0
 11
528.8999999999998
 21
-100.9999999999999
 31
0.0
  0
LINE
  5
A191
330
1E
100
AcDbEntity
  8
10
100
AcDbLine
 10
287.4549512574469
 20
315.8043687086755
 30
0.0
 11
403.454951257447
 21
315.8043687086755
 31
0.0
  0
LINE
  5
A193
330
1E
100
AcDbEntity
  8
10
100
AcDbLine
 10
129.1999999999999
 20
-127.0
 30
0.0
 11
151.2
 21
-127.0
 31
0.0
  0
LINE
  5
A194
330
1E
100
AcDbEntity
  8
12
  6
DASHDOT
100
AcDbLine
 10
23.95000000000004
 20
126.0
 30
0.0
 11
46.45000000000004
 21
126.0
 31
0.0
  0
LINE
  5
A198
330
1E
100
AcDbEntity
  8
10
100
AcDbLine
 10
19.0
 20
-36.60000000000002
 30
0.0
 11
19.0
 21
-29.70000000000004
 31
0.0
  0
LINE
  5
A199
330
1E
100
AcDbEntity
  8
10
100
AcDbLine
 10
59.20000000000005
 20
-127.0
 30
0.0
 11
81.20000000000004
 21
-127.0
 31
0.0
  0
LINE
  5
A19A
330
1E
100
AcDbEntity
  8
10
100
AcDbLine
 10
354.3999999999999
 20
45.0
 30
0.0
 11
354.3999999999999
 21
55.4999999999999
 31
0.0
  0
LINE
  5
A19C
330
1E
100
AcDbEntity
  8
10
100
AcDbLine
 10
142.2087749999995
 20
81.80923500000004
 30
0.0
 11
144.15625
 21
83.75671
 31
0.0
  0
LINE
  5
A19D
330
1E
100
AcDbEntity
  8
10
100
AcDbLine
 10
140.1342499999997
 20
84.77284499999994
 30
0.0
 11
140.9869099999996
 21
85.62550499999986
 31
0.0
  0
LINE
  5
A19E
330
1E
100
AcDbEntity
  8
10
100
AcDbLine
 10
135.8437499999999
 20
85.10063500000002
 30
0.0
 11
137.0312499999996
 21
86.28813500000005
 31
0.0
  0
LINE
  5
A19F
330
1E
100
AcDbEntity
  8
10
100
AcDbLine
 10
135.8437499999999
 20
83.8411050000001
 30
0.0
 11
137.0312499999996
 21
85.02860499999997
 31
0.0
  0
LINE
  5
A1A0
330
1E
100
AcDbEntity
  8
10
100
AcDbLine
 10
141.1715099999999
 20
83.29103999999995
 30
0.0
 11
142.024175
 21
84.14369999999985
 31
0.0
  0
LINE
  5
A1A1
330
1E
100
AcDbEntity
  8
10
100
AcDbLine
 10
143.8207999999999
 20
80.06250000000013
 30
0.0
 11
144.15625
 21
80.39795500000014
 31
0.0
  0
LINE
  5
A1A2
330
1E
100
AcDbEntity
  8
10
100
AcDbLine
 10
331.3409699999999
 20
19.92797499999993
 30
0.0
 11
306.87807
 21
28.73515999999995
 31
0.0
  0
LINE
  5
A1A3
330
1E
100
AcDbEntity
  8
10
100
AcDbLine
 10
491.3999999999998
 20
158.4999999999999
 30
0.0
 11
491.3999999999998
 21
179.4999999999999
 31
0.0
  0
LINE
  5
A1A4
330
1E
100
AcDbEntity
  8
10
100
AcDbLine
 10
339.0549512574474
 20
378.8043687086753
 30
0.0
 11
339.0549512574474
 21
438.1974087086753
 31
0.0
  0
LINE
  5
A1A7
330
1E
100
AcDbEntity
  8
16
100
AcDbLine
 10
200.0000000000002
 20
-450.0289393520675
 30
0.0
 11
-99.5999999999997
 21
-450.0289393520675
 31
0.0
  0
LINE
  5
A1C0
330
1E
100
AcDbEntity
  8
10
  6
DIVIDE
100
AcDbLine
 10
514.0
 20
64.5
 30
0.0
 11
514.0
 21
89.50000000000001
 31
0.0
  0
LINE
  5
A1C1
330
1E
100
AcDbEntity
  8
12
100
AcDbLine
 10
516.5
 20
-62.0
 30
0.0
 11
516.5
 21
-78.99999999999987
 31
0.0
  0
LINE
  5
A1C2
330
1E
100
AcDbEntity
  8
10
100
AcDbLine
 10
344.0549512574472
 20
409.8043687086754
 30
0.0
 11
344.0549512574472
 21
384.8043687086753
 31
0.0
  0
LINE
  5
A1C3
330
1E
100
AcDbEntity
  8
12
100
AcDbLine
 10
378.9549512574469
 20
339.3043687086753
 30
0.0
 11
378.9549512574469
 21
357.3043687086753
 31
0.0
  0
LINE
  5
A1C5
330
1E
100
AcDbEntity
  8
10
100
AcDbLine
 10
287.4549512574469
 20
315.8043687086755
 30
0.0
 11
287.4549512574469
 21
421.9456202197838
 31
0.0
  0
LINE
  5
A1C7
330
1E
100
AcDbEntity
  8
10
  6
DASHDOT
100
AcDbLine
 10
528.8999999999998
 20
110.0
 30
0.0
 11
528.8999999999998
 21
142.0
 31
0.0
  0
LINE
  5
A1C9
330
1E
100
AcDbEntity
  8
10
100
AcDbLine
 10
-45.0
 20
-149.5
 30
0.0
 11
-45.0
 21
-170.4999999999999
 31
0.0
  0
LINE
  5
A1CB
330
1E
100
AcDbEntity
  8
12
  6
DASHDOT
100
AcDbLine
 10
-46.04999999999995
 20
-117.0
 30
0.0
 11
-23.54999999999995
 21
-117.0
 31
0.0
  0
LINE
  5
A1CD
330
1E
100
AcDbEntity
  8
10
100
AcDbLine
 10
347.3249349999999
 20
34.89865500000007
 30
0.0
 11
318.6583050000001
 21
45.21928000000001
 31
0.0
  0
LINE
  5
A1CE
330
1E
100
AcDbEntity
  8
10
100
AcDbLine
 10
129.1999999999999
 20
136.0
 30
0.0
 11
151.2
 21
136.0
 31
0.0
  0
LINE
  5
A1CF
330
1E
100
AcDbEntity
  8
10
100
AcDbLine
 10
-80.0
 20
45.0
 30
0.0
 11
80.20000000000004
 21
45.0
 31
0.0
  0
LINE
  5
A1D0
330
1E
100
AcDbEntity
  8
10
100
AcDbLine
 10
360.3999999999999
 20
-107.0
 30
0.0
 11
357.9000000000001
 21
-107.0
 31
0.0
  0
LINE
  5
A1D1
330
1E
100
AcDbEntity
  8
10
100
AcDbLine
 10
347.3999999999999
 20
36.10696500000017
 30
0.0
 11
347.3999999999999
 21
45.0
 31
0.0
  0
LINE
  5
A1D2
330
1E
100
AcDbEntity
  8
10
100
AcDbLine
 10
135.8437499999999
 20
85.9403249999999
 30
0.0
 11
137.0312499999996
 21
87.12782500000001
 31
0.0
  0
LINE
  5
A1D3
330
1E
100
AcDbEntity
  8
10
100
AcDbLine
 10
142.9687499999996
 20
85.50812500000006
 30
0.0
 11
144.15625
 21
86.69562499999996
 31
0.0
  0
LINE
  5
A1D4
330
1E
100
AcDbEntity
  8
10
100
AcDbLine
 10
142.0358999999999
 20
82.05619999999997
 30
0.0
 11
142.88856
 21
82.90886499999997
 31
0.0
  0
LINE
  5
A1D5
330
1E
100
AcDbEntity
  8
10
100
AcDbLine
 10
135.8437499999999
 20
80.4823449999999
 30
0.0
 11
137.0312499999996
 21
81.66984500000003
 31
0.0
  0
LINE
  5
A1D6
330
1E
100
AcDbEntity
  8
10
100
AcDbLine
 10
142.9687499999996
 20
84.66843500000004
 30
0.0
 11
144.15625
 21
85.85593500000005
 31
0.0
  0
LINE
  5
A1D7
330
1E
100
AcDbEntity
  8
10
100
AcDbLine
 10
139.2698649999996
 20
86.00768000000003
 30
0.0
 11
140.1225249999999
 21
86.86034500000003
 31
0.0
  0
LINE
  5
A1D8
330
1E
100
AcDbEntity
  8
10
100
AcDbLine
 10
135.8437499999999
 20
83.00141500000007
 30
0.0
 11
137.0312499999996
 21
84.18891499999995
 31
0.0
  0
LINE
  5
A1DA
330
1E
100
AcDbEntity
  8
10
100
AcDbLine
 10
491.3999999999998
 20
-170.4999999999999
 30
0.0
 11
506.3999999999999
 21
-170.4999999999999
 31
0.0
  0
LINE
  5
A1F7
330
1E
100
AcDbEntity
  8
10
  6
DIVIDE
100
AcDbLine
 10
549.0
 20
-45.49999999999999
 30
0.0
 11
509.0
 21
-45.49999999999999
 31
0.0
  0
LINE
  5
A1F8
330
1E
100
AcDbEntity
  8
12
100
AcDbLine
 10
516.5
 20
-78.99999999999987
 30
0.0
 11
514.0
 21
-78.99999999999987
 31
0.0
  0
LINE
  5
A1F9
330
1E
100
AcDbEntity
  8
12
100
AcDbLine
 10
351.5549512574472
 20
402.3043687086754
 30
0.0
 11
351.5549512574472
 21
387.3043687086753
 31
0.0
  0
LINE
  5
A1FD
330
1E
100
AcDbEntity
  8
18
 48
2.0
100
AcDbLine
 10
-29.99999999999977
 20
-620.5289393520672
 30
0.0
 11
-9.999999999999772
 21
-620.5289393520672
 31
0.0
  0
LINE
  5
A1FE
330
1E
100
AcDbEntity
  8
10
  6
HIDDEN
100
AcDbLine
 10
572.3999999999997
 20
-122.9999999999999
 30
0.0
 11
528.8999999999998
 21
-122.9999999999999
 31
0.0
  0
LINE
  5
A201
330
1E
100
AcDbEntity
  8
10
100
AcDbLine
 10
115.0
 20
158.4999999999999
 30
0.0
 11
115.0
 21
179.4999999999999
 31
0.0
  0
CIRCLE
  5
A202
330
1E
100
AcDbEntity
  8
12
100
AcDbCircle
 10
-34.79999999999995
 20
-117.0
 30
0.0
 40
8.249999999999998
  0
CIRCLE
  5
A204
330
1E
100
AcDbEntity
  8
12
  6
DASHDOT
100
AcDbCircle
 10
-135.0000000000002
 20
-520.5289393520675
 30
0.0
 40
4.499999999999999
210
0.0
220
0.0
230
-1.0
  0
ARC
  5
A20A
330
1E
100
AcDbEntity
  8
10
100
AcDbCircle
 10
457.3999999999998
 20
5.0
 30
0.0
 40
144.9999999999999
100
AcDbArc
 50
169.304221999999
 51
180.0
  0
ARC
  5
A20B
330
1E
100
AcDbEntity
  8
10
100
AcDbCircle
 10
338.86095
 20
40.81552999999995
 30
0.0
 40
3.999999999999998
100
AcDbArc
 50
340.1999999999993
 51
70.19999999999902
  0
ARC
  5
A20D
330
1E
100
AcDbEntity
  8
10
100
AcDbCircle
 10
11.20000000000001
 20
-117.0
 30
0.0
 40
9.999999999999998
100
AcDbArc
 50
270.0
 51
90.0
  0
ARC
  5
A211
330
1E
100
AcDbEntity
  8
10
100
AcDbCircle
 10
-10.79999999999994
 20
126.0
 30
0.0
 40
9.999999999999998
100
AcDbArc
 50
90.0
 51
270.0
  0
ARC
  5
A217
330
1E
100
AcDbEntity
  8
10
100
AcDbCircle
 10
457.3999999999998
 20
5.0
 30
0.0
 40
127.4999999999999
100
AcDbArc
 50
169.304221999999
 51
180.0
  0
ARC
  5
A218
330
1E
100
AcDbEntity
  8
10
100
AcDbCircle
 10
846.3999999999996
 20
4.5
 30
0.0
 40
499.9999999999998
100
AcDbArc
 50
176.3756930000026
 51
183.6243069999969
  0
ARC
  5
A219
330
1E
100
AcDbEntity
  8
10
100
AcDbCircle
 10
11.20000000000001
 20
126.0
 30
0.0
 40
9.999999999999998
100
AcDbArc
 50
270.0
 51
90.0
  0
ARC
  5
A21D
330
1E
100
AcDbEntity
  8
10
100
AcDbCircle
 10
-58.79999999999995
 20
126.0
 30
0.0
 40
9.999999999999998
100
AcDbArc
 50
270.0
 51
90.0
  0
ARC
  5
A21E
330
1E
100
AcDbEntity
  8
10
100
AcDbCircle
 10
80.20000000000004
 20
-40.0
 30
0.0
 40
4.999999999999999
100
AcDbArc
 50
270.0
 51
0.0
  0
ARC
  5
A21F
330
1E
100
AcDbEntity
  8
10
100
AcDbCircle
 10
129.1999999999999
 20
126.0
 30
0.0
 40
9.999999999999998
100
AcDbArc
 50
90.0
 51
270.0
  0
ARC
  5
A220
330
1E
100
AcDbEntity
  8
10
  6
DIVIDE
100
AcDbCircle
 10
519.0
 20
64.5
 30
0.0
 40
4.999999999999999
100
AcDbArc
 50
180.0
 51
270.0
  0
ARC
  5
A224
330
1E
100
AcDbEntity
  8
10
100
AcDbCircle
 10
-349.0549512574472
 20
409.8043687086754
 30
0.0
 40
4.999999999999999
210
0.0
220
0.0
230
-1.0
100
AcDbArc
 50
0.0
 51
90.0
  0
ARC
  5
A226
330
1E
100
AcDbEntity
  8
10
100
AcDbCircle
 10
59.20000000000005
 20
-117.0
 30
0.0
 40
9.999999999999998
100
AcDbArc
 50
90.0
 51
270.0
  0
ARC
  5
A228
330
1E
100
AcDbEntity
  8
10
100
AcDbCircle
 10
332.6959199999998
 20
23.69150000000002
 30
0.0
 40
3.999999999999998
100
AcDbArc
 50
250.199999999999
 51
340.1999999999993
  0
ARC
  5
A22E
330
1E
100
AcDbEntity
  8
10
100
AcDbCircle
 10
-374.0549512574472
 20
419.8043687086753
 30
0.0
 40
4.999999999999999
210
0.0
220
0.0
230
-1.0
100
AcDbArc
 50
180.0
 51
270.0
  0
ARC
  5
A230
330
1E
100
AcDbEntity
  8
10
100
AcDbCircle
 10
-81.0
 20
126.0
 30
0.0
 40
9.999999999999998
100
AcDbArc
 50
90.0
 51
270.0
  0
ARC
  5
A231
330
1E
100
AcDbEntity
  8
10
  6
DASHDOT
100
AcDbCircle
 10
-509.0
 20
-80.49999999999995
 30
0.0
 40
4.999999999999999
210
0.0
220
0.0
230
-1.0
100
AcDbArc
 50
180.0
 51
270.0
  0
CIRCLE
  5
A235
330
1E
100
AcDbEntity
  8
24
  6
CONTINOUS
100
AcDbCircle
 10
493.9549512574469
 20
348.3043687086754
 30
0.0
 40
6.499999999999999
  0
ARC
  5
A237
330
1E
100
AcDbEntity
  8
10
100
AcDbCircle
 10
129.1999999999999
 20
-117.0
 30
0.0
 40
9.999999999999998
100
AcDbArc
 50
90.0
 51
270.0
  0
ARC
  5
A238
330
1E
100
AcDbEntity
  8
10
100
AcDbCircle
 10
80.20000000000004
 20
40.0
 30
0.0
 40
4.999999999999999
100
AcDbArc
 50
0.0
 51
90.0
  0
ARC
  5
A239
330
1E
100
AcDbEntity
  8
10
100
AcDbCircle
 10
-81.0
 20
-117.0
 30
0.0
 40
9.999999999999998
100
AcDbArc
 50
90.0
 51
270.0
  0
ARC
  5
A23A
330
1E
100
AcDbEntity
  8
10
100
AcDbCircle
 10
-339.0549512574474
 20
384.8043687086753
 30
0.0
 40
4.999999999999999
210
0.0
220
0.0
230
-1.0
100
AcDbArc
 50
180.0
 51
270.0
  0
CIRCLE
  5
A23E
330
1E
100
AcDbEntity
  8
12
  6
DASHDOT
100
AcDbCircle
 10
-34.99999999999977
 20
-370.5289393520672
 30
0.0
 40
4.499999999999999
  0
ARC
  5
A240
330
1E
100
AcDbEntity
  8
10
100
AcDbCircle
 10
277.4983449999999
 20
68.68408499999998
 30
0.0
 40
6.999999999999997
100
AcDbArc
 50
199.3950960000006
 51
257.9859390000011
  0
ARC
  5
A242
330
1E
100
AcDbEntity
  8
10
100
AcDbCircle
 10
81.20000000000004
 20
-117.0
 30
0.0
 40
9.999999999999998
100
AcDbArc
 50
270.0
 51
90.0
  0
ARC
  5
A243
330
1E
100
AcDbEntity
  8
10
100
AcDbCircle
 10
457.4018205528716
 20
3.806184726795893
 30
0.0
 40
225.5060555675519
100
AcDbArc
 50
165.1394483099108
 51
179.6966782288776
  0
ARC
  5
A24B
330
1E
100
AcDbEntity
  8
10
100
AcDbCircle
 10
59.20000000000005
 20
126.0
 30
0.0
 40
9.999999999999998
100
AcDbArc
 50
90.0
 51
270.0
  0
ARC
  5
A24C
330
1E
100
AcDbEntity
  8
10
  6
DIVIDE
100
AcDbCircle
 10
-519.0
 20
-55.49999999999993
 30
0.0
 40
4.999999999999999
210
0.0
220
0.0
230
-1.0
100
AcDbArc
 50
0.0
 51
90.0
  0
ARC
  5
A252
330
1E
100
AcDbEntity
  8
10
100
AcDbCircle
 10
151.2
 20
-117.0
 30
0.0
 40
9.999999999999998
100
AcDbArc
 50
270.0
 51
90.0
  0
ARC
  5
A253
330
1E
100
AcDbEntity
  8
10
100
AcDbCircle
 10
-80.02880315305381
 20
39.8259552791759
 30
0.0
 40
5.174124891681064
100
AcDbArc
 50
89.68104603873833
 51
178.0723485331103
  0
ARC
  5
A254
330
1E
100
AcDbEntity
  8
10
100
AcDbCircle
 10
-58.79999999999995
 20
-117.0
 30
0.0
 40
9.999999999999998
100
AcDbArc
 50
270.0
 51
90.0
  0
CIRCLE
  5
A259
330
1E
100
AcDbEntity
  8
12
  6
DASHDOT
100
AcDbCircle
 10
34.99999999999977
 20
-520.5289393520675
 30
0.0
 40
4.499999999999999
210
0.0
220
0.0
230
-1.0
  0
ARC
  5
A25B
330
1E
100
AcDbEntity
  8
10
100
AcDbCircle
 10
-267.6511349999995
 20
41.33240499999995
 30
0.0
 40
6.999999999999997
210
0.0
220
0.0
230
-1.0
100
AcDbArc
 50
58.99509599999825
 51
117.5859389999994
  0
CIRCLE
  5
A25C
330
1E
100
AcDbEntity
  8
12
100
AcDbCircle
 10
35.20000000000004
 20
126.0
 30
0.0
 40
8.249999999999998
  0
CIRCLE
  5
A25D
330
1E
100
AcDbEntity
  8
12
100
AcDbCircle
 10
35.20000000000004
 20
-117.0
 30
0.0
 40
8.249999999999998
  0
ARC
  5
A25E
330
1E
100
AcDbEntity
  8
10
100
AcDbCircle
 10
509.0
 20
89.50000000000001
 30
0.0
 40
4.999999999999999
100
AcDbArc
 50
0.0
 51
90.0
  0
ARC
  5
A266
330
1E
100
AcDbEntity
  8
10
100
AcDbCircle
 10
81.20000000000004
 20
126.0
 30
0.0
 40
9.999999999999998
100
AcDbArc
 50
270.0
 51
90.0
  0
ARC
  5
A267
330
1E
100
AcDbEntity
  8
10
  6
DIVIDE
100
AcDbCircle
 10
-544.0
 20
-45.49999999999999
 30
0.0
 40
4.999999999999999
210
0.0
220
0.0
230
-1.0
100
AcDbArc
 50
180.0
 51
270.0
  0
CIRCLE
  5
A26D
330
1E
100
AcDbEntity
  8
10
100
AcDbCircle
 10
139.9999999999996
 20
86.00000000000013
 30
0.0
 40
9.499999999999998
  0
ARC
  5
A26F
330
1E
100
AcDbEntity
  8
10
100
AcDbCircle
 10
-10.79999999999994
 20
-117.0
 30
0.0
 40
9.999999999999998
100
AcDbArc
 50
90.0
 51
270.0
  0
CIRCLE
  5
A274
330
1E
100
AcDbEntity
  8
12
  6
DASHDOT
100
AcDbCircle
 10
135.0000000000002
 20
-370.5289393520672
 30
0.0
 40
4.499999999999999
  0
ARC
  5
A276
330
1E
100
AcDbEntity
  8
10
100
AcDbCircle
 10
255.8035699999998
 20
61.04623500000013
 30
0.0
 40
15.99999999999999
100
AcDbArc
 50
19.39509600000069
 51
301.0049040000017
  0
CIRCLE
  5
A277
330
1E
100
AcDbEntity
  8
12
100
AcDbCircle
 10
-34.79999999999995
 20
126.0
 30
0.0
 40
8.249999999999998
  0
ARC
  5
A278
330
1E
100
AcDbEntity
  8
10
  6
DIVIDE
100
AcDbCircle
 10
544.0
 20
54.5
 30
0.0
 40
4.999999999999999
100
AcDbArc
 50
0.0
 51
90.0
  0
ARC
  5
A27E
330
1E
100
AcDbEntity
  8
10
100
AcDbCircle
 10
151.2
 20
126.0
 30
0.0
 40
9.999999999999998
100
AcDbArc
 50
270.0
 51
90.0
  0
ARC
  5
A27F
330
1E
100
AcDbEntity
  8
10
100
AcDbCircle
 10
-80.02880315305381
 20
-39.8259552791759
 30
0.0
 40
5.174124891681072
100
AcDbArc
 50
181.9276514668894
 51
270.3189539612614
  0
SPLINE
  5
A280
330
1E
100
AcDbEntity
  8
1
  6
Continuous
 62
     3
100
AcDbSpline
210
0.0
220
0.0
230
1.0
 70
     8
 71
     2
 72
     8
 73
     5
 74
     0
 42
0.000000001
 43
0.0000000001
 40
0.0
 40
0.0
 40
0.0
 40
0.375
 40
0.625
 40
1.0
 40
1.0
 40
1.0
 10
358.954953046026
 20
265.8043700057993
 30
0.0
 10
360.8299530460258
 20
269.8222271486563
 30
0.0
 10
363.9549530460258
 20
265.8043700057991
 30
0.0
 10
367.0799530460258
 20
261.786512862942
 30
0.0
 10
368.954953046026
 20
265.8043700058
 30
0.0
  0
SPLINE
  5
A281
330
1E
100
AcDbEntity
  8
10
  6
DIVIDE
100
AcDbSpline
210
0.0
220
0.0
230
1.0
 70
     8
 71
     2
 72
     8
 73
     5
 74
     0
 42
0.000000001
 43
0.0000000001
 40
0.0
 40
0.0
 40
0.0
 40
0.375
 40
0.625
 40
1.0
 40
1.0
 40
1.0
 10
219.0000017885793
 20
-495.5289380549433
 30
0.0
 10
227.0357160742924
 20
-503.0289380549431
 30
0.0
 10
219.0000017885793
 20
-515.5289380549431
 30
0.0
 10
210.9642875028646
 20
-528.0289380549431
 30
0.0
 10
219.0000017885793
 20
-535.5289380549431
 30
0.0
  0
SPLINE
  5
A282
330
1E
100
AcDbEntity
  8
24
  6
CONTINOUS
100
AcDbSpline
210
0.0
220
0.0
230
1.0
 70
     8
 71
     2
 72
     8
 73
     5
 74
     0
 42
0.000000001
 43
0.0000000001
 40
0.0
 40
0.0
 40
0.0
 40
0.375
 40
0.625
 40
1.0
 40
1.0
 40
1.0
 10
473.9549530460256
 20
265.8043700058
 30
0.0
 10
481.4549530460253
 20
269.8222271486569
 30
0.0
 10
493.9549530460253
 20
265.8043700058
 30
0.0
 10
506.4549530460253
 20
261.786512862943
 30
0.0
 10
513.9549530460254
 20
265.8043700058
 30
0.0
  0
SPLINE
  5
A285
330
1E
100
AcDbEntity
  8
10
  6
DIVIDE
100
AcDbSpline
210
0.0
220
0.0
230
1.0
 70
     8
 71
     2
 72
     8
 73
     5
 74
     0
 42
0.000000001
 43
0.0000000001
 40
0.0
 40
0.0
 40
0.0
 40
0.375
 40
0.625
 40
1.0
 40
1.0
 40
1.0
 10
-118.5999982114219
 20
-355.5289380549432
 30
0.0
 10
-110.5642839257082
 20
-363.0289380549433
 30
0.0
 10
-118.5999982114219
 20
-375.5289380549433
 30
0.0
 10
-126.6357124971362
 20
-388.0289380549433
 30
0.0
 10
-118.5999982114219
 20
-395.5289380549432
 30
0.0
  0
SPLINE
  5
A287
330
1E
100
AcDbEntity
  8
10
  6
DIVIDE
100
AcDbSpline
210
0.0
220
0.0
230
1.0
 70
     8
 71
     2
 72
     8
 73
     5
 74
     0
 42
0.000000001
 43
0.0000000001
 40
0.0
 40
0.0
 40
0.0
 40
0.375
 40
0.625
 40
1.0
 40
1.0
 40
1.0
 10
-118.5999982114219
 20
-495.5289380549433
 30
0.0
 10
-110.5642839257082
 20
-503.0289380549431
 30
0.0
 10
-118.5999982114219
 20
-515.5289380549431
 30
0.0
 10
-126.6357124971362
 20
-528.0289380549431
 30
0.0
 10
-118.5999982114219
 20
-535.5289380549431
 30
0.0
  0
SPLINE
  5
A289
330
1E
100
AcDbEntity
  8
10
  6
DIVIDE
100
AcDbSpline
210
0.0
220
0.0
230
1.0
 70
     8
 71
     2
 72
     8
 73
     5
 74
     0
 42
0.000000001
 43
0.0000000001
 40
0.0
 40
0.0
 40
0.0
 40
0.375
 40
0.625
 40
1.0
 40
1.0
 40
1.0
 10
219.0000017885793
 20
-355.5289380549432
 30
0.0
 10
227.0357160742924
 20
-363.0289380549433
 30
0.0
 10
219.0000017885793
 20
-375.5289380549433
 30
0.0
 10
210.9642875028646
 20
-388.0289380549433
 30
0.0
 10
219.0000017885793
 20
-395.5289380549432
 30
0.0
  0
SPLINE
  5
A28A
330
1E
100
AcDbEntity
  8
10
100
AcDbSpline
210
0.0
220
0.0
230
1.0
 70
     8
 71
     2
 72
     8
 73
     5
 74
     0
 42
0.000000001
 43
0.0000000001
 40
0.0
 40
0.0
 40
0.0
 40
0.3780180892680284
 40
0.6300301487800474
 40
1.0
 40
1.0
 40
1.0
 10
344.0549530460253
 20
315.8043700057998
 30
0.0
 10
352.8310073327426
 20
327.7111724686268
 30
0.0
 10
342.2423514067588
 20
347.599346168878
 30
0.0
 10
352.4658364129093
 20
367.3096126963697
 30
0.0
 10
344.4120427910263
 20
378.8043700056477
 30
0.0
  0
LINE
  5
A2FB
330
1E
100
AcDbEntity
  8
24
  6
CONTINOUS
100
AcDbLine
 10
482.454951257447
 20
348.3043687086754
 30
0.0
 11
505.4549512574472
 21
348.3043687086754
 31
0.0
  0
LINE
  5
A2FC
330
1E
100
AcDbEntity
  8
24
  6
CONTINOUS
100
AcDbLine
 10
493.9549512574469
 20
336.8043687086753
 30
0.0
 11
493.9549512574469
 21
359.8043687086753
 31
0.0
  0
LINE
  5
A305
330
1E
100
AcDbEntity
  8
12
  6
DASHDOT
100
AcDbLine
 10
-44.49999999999977
 20
-520.5289393520675
 30
0.0
 11
-25.49999999999978
 21
-520.5289393520675
 31
0.0
  0
LINE
  5
A306
330
1E
100
AcDbEntity
  8
12
  6
DASHDOT
100
AcDbLine
 10
-34.99999999999977
 20
-530.0289393520674
 30
0.0
 11
-34.99999999999977
 21
-511.0289393520671
 31
0.0
  0
LINE
  5
A307
330
1E
100
AcDbEntity
  8
12
  6
DASHDOT
100
AcDbLine
 10
125.4999999999997
 20
-520.5289393520675
 30
0.0
 11
144.5000000000002
 21
-520.5289393520675
 31
0.0
  0
LINE
  5
A308
330
1E
100
AcDbEntity
  8
12
100
AcDbLine
 10
135.0000000000002
 20
-530.0289393520674
 30
0.0
 11
135.0000000000002
 21
-511.0289393520671
 31
0.0
  0
LINE
  5
A309
330
1E
100
AcDbEntity
  8
12
  6
DASHDOT
100
AcDbLine
 10
-44.49999999999977
 20
-370.5289393520672
 30
0.0
 11
-25.49999999999978
 21
-370.5289393520672
 31
0.0
  0
LINE
  5
A30A
330
1E
100
AcDbEntity
  8
12
  6
DASHDOT
100
AcDbLine
 10
-34.99999999999977
 20
-380.0289393520673
 30
0.0
 11
-34.99999999999977
 21
-361.0289393520675
 31
0.0
  0
LINE
  5
A30B
330
1E
100
AcDbEntity
  8
12
  6
DASHDOT
100
AcDbLine
 10
125.4999999999997
 20
-370.5289393520672
 30
0.0
 11
144.5000000000002
 21
-370.5289393520672
 31
0.0
  0
LINE
  5
A30C
330
1E
100
AcDbEntity
  8
12
  6
DASHDOT
100
AcDbLine
 10
135.0000000000002
 20
-380.0289393520673
 30
0.0
 11
135.0000000000002
 21
-361.0289393520675
 31
0.0
  0
DIMENSION
  5
A30D
330
1E
100
AcDbEntity
  8
30
  6
Continuous
100
AcDbDimension
  2
*D2
 10
-0.0000000000000016
 20
-207.0958749999999
 30
0.0
 11
-52.5000000000001
 21
-201.0958749999999
 31
0.0
 70
    32
  1
 <> 
 71
     5
 42
105.0000000000002
  3
STANDARD1
100
AcDbAlignedDimension
 13
-105.0000000000002
 23
-154.4999999999999
 33
0.0
 14
0.0
 24
-180.2499999999998
 34
0.0
100
AcDbRotatedDimension
  0
DIMENSION
  5
A30E
330
1E
100
AcDbEntity
  8
30
  6
Continuous
100
AcDbDimension
  2
*D3
 10
174.9999999999995
 20
-242.0958749999999
 30
0.0
 11
34.99999999999977
 21
-236.0958749999999
 31
0.0
 70
    32
  1
 <> 
 71
     5
 42
280.0
  3
STANDARD1
100
AcDbAlignedDimension
 13
-105.0000000000002
 23
-154.4999999999999
 33
0.0
 14
174.9999999999995
 24
-154.4999999999999
 34
0.0
100
AcDbRotatedDimension
  0
DIMENSION
  5
A314
330
1E
100
AcDbEntity
  8
30
  6
Continuous
100
AcDbDimension
  2
*D4
 10
457.3999999999998
 20
-155.0592537264491
 30
0.0
 11
405.8999999999998
 21
-149.0592537264491
 31
0.0
 70
    32
  1
 <> 
 71
     5
 42
103.0
  3
STANDARD1
100
AcDbAlignedDimension
 13
354.3999999999999
 23
-50.0
 33
0.0
 14
457.3999999999998
 24
-154.4999999999999
 34
0.0
100
AcDbRotatedDimension
  0
DIMENSION
  5
A315
330
1E
100
AcDbEntity
  8
30
  6
Continuous
100
AcDbDimension
  2
*D5
 10
457.3999999999998
 20
-183.2743473188173
 30
0.0
 11
403.8999999999998
 21
-177.2743473188174
 31
0.0
 70
    32
  1
 <> 
 71
     5
 42
107.0
  3
STANDARD1
100
AcDbAlignedDimension
 13
350.3999999999999
 23
-50.0
 33
0.0
 14
457.3999999999998
 24
-154.4999999999999
 34
0.0
100
AcDbRotatedDimension
  0
DIMENSION
  5
A316
330
1E
100
AcDbEntity
  8
30
  6
Continuous
100
AcDbDimension
  2
*D6
 10
457.3999999999998
 20
-253.6747986253703
 30
0.0
 11
384.8999999999999
 21
-247.6747986253703
 31
0.0
 70
    32
  1
 <> 
 71
     5
 42
145.0
  3
STANDARD1
100
AcDbAlignedDimension
 13
312.3999999999998
 23
5.0
 33
0.0
 14
457.3999999999998
 24
-154.4999999999999
 34
0.0
100
AcDbRotatedDimension
  0
DIMENSION
  5
A317
330
1E
100
AcDbEntity
  8
30
  6
Continuous
100
AcDbDimension
  2
*D7
 10
457.3999999999998
 20
-212.6450523745115
 30
0.0
 11
393.6499999999999
 21
-206.6450523745114
 31
0.0
 70
    32
  1
 <> 
 71
     5
 42
127.5
  3
STANDARD1
100
AcDbAlignedDimension
 13
329.8999999999998
 23
5.0
 33
0.0
 14
457.3999999999998
 24
-149.5
 34
0.0
100
AcDbRotatedDimension
  0
DIMENSION
  5
A318
330
1E
100
AcDbEntity
  8
30
  6
Continuous
100
AcDbDimension
  2
*D8
 10
350.3999999999999
 20
-183.2743473188173
 30
0.0
 11
335.5999999999998
 21
-183.2743473188173
 31
0.0
 70
   160
  1
 <> 
 71
     5
 42
4.0
  3
STANDARD1
100
AcDbAlignedDimension
 13
346.3999999999999
 23
-0.5
 33
0.0
 14
350.3999999999999
 24
-50.0
 34
0.0
100
AcDbRotatedDimension
1001
ACAD
1000
DSTYLE
1002
{
1070
   172
1070
     1
1002
}
  0
DIMENSION
  5
A31A
330
1E
100
AcDbEntity
  8
30
  6
Continuous
100
AcDbDimension
  2
*D9
 10
457.3999999999998
 20
-212.6450523745115
 30
0.0
 11
483.1999999999998
 21
-206.6450523745114
 31
0.0
 70
    32
  1
 <> 
 71
     5
 42
51.60000000000036
  3
STANDARD1
100
AcDbAlignedDimension
 13
509.0000000000001
 23
-91.49999999999996
 33
0.0
 14
457.3999999999998
 24
-154.4999999999999
 34
0.0
100
AcDbRotatedDimension
  0
DIMENSION
  5
A31B
330
1E
100
AcDbEntity
  8
30
  6
Continuous
100
AcDbDimension
  2
*D10
 10
573.3999999999999
 20
-253.6747986253703
 30
0.0
 11
515.3999999999999
 21
-247.6747986253703
 31
0.0
 70
    32
  1
 <> 
 71
     5
 42
116.0
  3
STANDARD1
100
AcDbAlignedDimension
 13
457.3999999999998
 23
-154.4999999999999
 33
0.0
 14
573.3999999999999
 24
-154.4999999999999
 34
0.0
100
AcDbRotatedDimension
  0
DIMENSION
  5
A324
330
1E
100
AcDbEntity
  8
30
  6
Continuous
100
AcDbDimension
  2
*D11
 10
362.0549512574472
 20
455.3154878793344
 30
0.0
 11
350.5549512574472
 21
461.3154878793344
 31
0.0
 70
    32
  1
 <> 
 71
     5
 42
23.0
  3
STANDARD1
100
AcDbAlignedDimension
 13
339.0549512574474
 23
443.1974087086754
 33
0.0
 14
362.0549512574472
 24
403.8043687086753
 34
0.0
100
AcDbRotatedDimension
  0
DIMENSION
  5
A325
330
1E
100
AcDbEntity
  8
30
  6
Continuous
100
AcDbDimension
  2
*D12
 10
358.9549512574468
 20
238.2084937086754
 30
0.0
 11
323.2049512574469
 21
244.2084937086753
 31
0.0
 70
    32
  1
 <> 
 71
     5
 42
71.5
  3
STANDARD1
100
AcDbAlignedDimension
 13
287.4549512574469
 23
310.8043687086754
 33
0.0
 14
358.9549512574468
 24
260.8043687086754
 34
0.0
100
AcDbRotatedDimension
  0
DIMENSION
  5
A326
330
1E
100
AcDbEntity
  8
30
  6
Continuous
100
AcDbDimension
  2
*D13
 10
402.4549512574469
 20
238.2084937086754
 30
0.0
 11
380.7049512574469
 21
244.2084937086753
 31
0.0
 70
    32
  1
 <> 
 71
     5
 42
43.5
  3
STANDARD1
100
AcDbAlignedDimension
 13
358.9549512574468
 23
260.8043687086754
 33
0.0
 14
402.4549512574469
 24
337.3043687086753
 34
0.0
100
AcDbRotatedDimension
  0
DIMENSION
  5
A328
330
1E
100
AcDbEntity
  8
30
  6
Continuous
100
AcDbDimension
  2
*D14
 10
135.0000000000002
 20
-647.1248143520672
 30
0.0
 11
50.00000000000023
 21
-641.1248143520672
 31
0.0
 70
    32
  1
 <> 
 71
     5
 42
170.0
  3
STANDARD1
100
AcDbAlignedDimension
 13
-34.99999999999977
 23
-525.5289393520675
 33
0.0
 14
135.0000000000002
 24
-525.5289393520675
 34
0.0
100
AcDbRotatedDimension
  0
DIMENSION
  5
A329
330
1E
100
AcDbEntity
  8
30
  6
Continuous
100
AcDbDimension
  2
*D15
 10
-34.99999999999977
 20
-567.1248143520672
 30
0.0
 11
-9.999999999999776
 21
-561.1248143520675
 31
0.0
 70
    32
  1
 <> 
 71
     5
 42
50.0
  3
STANDARD1
100
AcDbAlignedDimension
 13
15.00000000000022
 23
-450.5289393520675
 33
0.0
 14
-34.99999999999977
 24
-525.5289393520675
 34
0.0
100
AcDbRotatedDimension
  0
DIMENSION
  5
A32F
330
1E
100
AcDbEntity
  8
30
  6
Continuous
100
AcDbDimension
  2
*D16
 10
513.9549512574468
 20
406.4812645649688
 30
0.0
 11
493.9549512574469
 21
412.4812645649687
 31
0.0
 70
    32
  1
 <> 
 71
     5
 42
40.0
  3
STANDARD1
100
AcDbAlignedDimension
 13
473.9549512574469
 23
379.8043687086753
 33
0.0
 14
513.9549512574468
 24
379.8043687086753
 34
0.0
100
AcDbRotatedDimension
  0
DIMENSION
  5
A330
330
1E
100
AcDbEntity
  8
30
  6
Continuous
100
AcDbDimension
  2
*D17
 10
174.9999999999995
 20
-207.0958749999999
 30
0.0
 11
87.49999999999989
 21
-201.0958749999999
 31
0.0
 70
    32
  1
 <> 
 71
     5
 42
174.9999999999995
  3
STANDARD1
100
AcDbAlignedDimension
 13
0.0
 23
-185.2499999999999
 33
0.0
 14
174.9999999999995
 24
-154.4999999999999
 34
0.0
100
AcDbRotatedDimension
  0
DIMENSION
  5
A33C
330
1E
100
AcDbEntity
  8
30
  6
Continuous
100
AcDbDimension
  2
*D18
 10
439.0088512574468
 20
375.3043687086754
 30
0.0
 11
433.0088512574469
 21
361.8043687086756
 31
0.0
 70
    32
  1
 <> 
 71
     0
 72
     0
 41
0.0
 42
26.99999999999994
  3
STANDARD1
100
AcDbAlignedDimension
 13
363.9549512574469
 23
348.3043687086754
 33
0.0
 14
408.4549512574469
 24
375.3043687086754
 34
0.0
 50
90.0
100
AcDbRotatedDimension
  0
DIMENSION
  5
A33D
330
1E
100
AcDbEntity
  8
30
  6
Continuous
100
AcDbDimension
  2
*D19
 10
554.0088512574468
 20
374.8043687086753
 30
0.0
 11
567.8088512574467
 21
382.8043687086753
 31
0.0
 70
    32
  1
 <> 
 71
     0
 72
     0
 41
0.0
 42
26.49999999999987
  3
STANDARD1
100
AcDbAlignedDimension
 13
498.9549512574469
 23
348.3043687086754
 33
0.0
 14
518.9549512574468
 24
374.8043687086753
 34
0.0
 50
90.0
100
AcDbRotatedDimension
  0
DIMENSION
  5
A340
330
1E
100
AcDbEntity
  8
30
  6
Continuous
100
AcDbDimension
  2
*D20
 10
258.7538999999999
 20
-450.0289393520675
 30
0.0
 11
252.7538999999999
 21
-410.2789393520675
 31
0.0
 70
    32
  1
 <> 
 71
     0
 72
     0
 41
0.0
 42
79.49999999999993
  3
STANDARD1
100
AcDbAlignedDimension
 13
140.0
 23
-370.5289393520672
 33
0.0
 14
150.1758602795218
 24
-450.0289393520675
 34
0.0
 50
90.0
100
AcDbRotatedDimension
  0
DIMENSION
  5
A341
330
1E
100
AcDbEntity
  8
30
  6
Continuous
100
AcDbDimension
  2
*D21
 10
258.7538999999999
 20
-450.0289393520675
 30
0.0
 11
252.7538999999999
 21
-485.2789393520675
 31
0.0
 70
    32
  1
 <> 
 71
     0
 72
     0
 41
0.0
 42
70.50000000000007
  3
STANDARD1
100
AcDbAlignedDimension
 13
140.0
 23
-520.5289393520675
 33
0.0
 14
205.0000000000002
 24
-450.0289393520675
 34
0.0
 50
90.0
100
AcDbRotatedDimension
  0
DIMENSION
  5
A342
330
1E
100
AcDbEntity
  8
30
  6
Continuous
100
AcDbDimension
  2
*D22
 10
258.7538999999998
 20
-370.5289393520672
 30
0.0
 11
258.7538999999999
 21
-363.0289393520675
 31
0.0
 70
   160
  1
 <> 
 71
     0
 72
     0
 41
0.0
 42
15.0
  3
STANDARD1
100
AcDbAlignedDimension
 13
223.9999999999997
 23
-355.5289393520673
 33
0.0
 14
140.0
 24
-370.5289393520672
 34
0.0
 50
90.0
100
AcDbRotatedDimension
  0
DIMENSION
  5
A343
330
1E
100
AcDbEntity
  8
30
  6
Continuous
100
AcDbDimension
  2
*D23
 10
258.7538999999998
 20
-520.5289393520676
 30
0.0
 11
258.7538999999999
 21
-528.0289393520673
 31
0.0
 70
   160
  1
 <> 
 71
     0
 72
     0
 41
0.0
 42
15.0
  3
STANDARD1
100
AcDbAlignedDimension
 13
223.9999999999997
 23
-535.5289393520673
 33
0.0
 14
140.0
 24
-520.5289393520675
 34
0.0
 50
90.0
100
AcDbRotatedDimension
  0
DIMENSION
  5
A345
330
1E
100
AcDbEntity
  8
30
  6
Continuous
100
AcDbDimension
  2
*D24
 10
608.1315567007407
 20
125.9999999999999
 30
0.0
 11
602.1315567007406
 21
63.00000000000009
 31
0.0
 70
    32
  1
 <> 
 71
     0
 72
     0
 41
0.0
 42
126.0
  3
STANDARD1
100
AcDbAlignedDimension
 13
589.3464747230427
 23
0.0
 33
0.0
 14
582.3999999999997
 24
126.0
 34
0.0
 50
90.0
100
AcDbRotatedDimension
  0
DIMENSION
  5
A346
330
1E
100
AcDbEntity
  8
30
  6
Continuous
100
AcDbDimension
  2
*D25
 10
608.1315567007407
 20
-117.0
 30
0.0
 11
602.1315567007406
 21
-58.49999999999994
 31
0.0
 70
    32
  1
 <> 
 71
     0
 72
     0
 41
0.0
 42
117.0
  3
STANDARD1
100
AcDbAlignedDimension
 13
589.3464747230427
 23
0.0
 33
0.0
 14
582.3999999999997
 24
-117.0
 34
0.0
 50
90.0
100
AcDbRotatedDimension
  0
DIMENSION
  5
A347
330
1E
100
AcDbEntity
  8
30
  6
Continuous
100
AcDbDimension
  2
*D26
 10
231.8989299999999
 20
-253.6883121388838
 30
0.0
 11
272.1494649999999
 21
-247.6883121388838
 31
0.0
 70
    33
  1
 <> 
 71
     5
 42
80.50106999999981
  3
STANDARD1
100
AcDbAlignedDimension
 13
312.3999999999998
 23
5.0
 33
0.0
 14
231.8989299999999
 24
5.0
 34
0.0
  0
DIMENSION
  5
A34B
330
1E
100
AcDbEntity
  8
30
  6
Continuous
100
AcDbDimension
  2
*D27
 10
499.1044188553519
 20
352.270855637521
 30
0.0
 11
459.1098331563208
 21
329.1668914659246
 31
0.0
 70
   163
 71
     5
 42
12.99999838750966
  3
STANDARD1
100
AcDbDiametricDimension
 15
488.8054886595421
 25
344.3378867798301
 35
0.0
 40
0.0
  0
DIMENSION
  5
A34C
330
1E
100
AcDbEntity
  8
30
  6
Continuous
100
AcDbDimension
  2
*D28
 10
132.3880256997657
 20
-374.1933050385591
 30
0.0
 11
160.4343611448903
 21
-346.0701211961898
 31
0.0
 70
   163
 71
     5
 42
8.999999708734632
  3
STANDARD1
100
AcDbDiametricDimension
 15
137.6119793002362
 25
-366.8645736655756
 35
0.0
 40
0.0
  0
MTEXT
  5
AA03
330
1E
100
AcDbEntity
  8
30
  6
Continuous
100
AcDbMText
 10
149.2317851847658
 20
680.7457305351182
 30
0.0
 40
5.0
 41
0.0
 71
     1
 72
     1
  1
\A1;
 73
     1
 44
1.0
1001
ACAD
1000
MTEXTBEGIN
1070
    73
1070
     1
1070
    44
1040
1.0
1070
    74
1070
     0
1000
MTEXTEND
  0
DIMENSION
  5
AB20
330
1E
100
AcDbEntity
  8
30
  6
Continuous
100
AcDbDimension
  2
*D29
 10
336.4549512574468
 20
278.6377020420085
 30
0.0
 11
311.9549512574469
 21
284.6377020420086
 31
0.0
 70
    32
 71
     5
 42
49.0
  3
STANDARD1
100
AcDbAlignedDimension
 13
287.4549512574469
 23
315.8043687086755
 33
0.0
 14
336.4549512574468
 24
294.8043687086755
 34
0.0
100
AcDbRotatedDimension
  0
DIMENSION
  5
AB3F
330
1E
100
AcDbEntity
  8
30
  6
Continuous
100
AcDbDimension
  2
*D30
 10
358.9549512574468
 20
278.6377020420085
 30
0.0
 11
348.2913035937553
 21
284.4016713310633
 31
0.0
 70
   160
 71
     5
 42
22.5
  3
STANDARD1
100
AcDbAlignedDimension
 13
336.4549512574468
 23
294.8043687086755
 33
0.0
 14
358.9549512574468
 24
278.6377020420085
 34
0.0
100
AcDbRotatedDimension
1001
ACAD
1000
DSTYLE
1002
{
1070
   279
1070
     2
1070
   172
1070
     1
1002
}
  0
DIMENSION
  5
B131
330
1E
100
AcDbEntity
  8
30
  6
Continuous
100
AcDbDimension
  2
*D31
 10
-165.7393642051754
 20
-170.4999999999999
 30
0.0
 11
-165.7393642051754
 21
3.156056490205173
 31
0.0
 70
   160
 71
     5
 42
349.9999999999998
  3
STANDARD1
100
AcDbAlignedDimension
 13
-45.0
 23
179.4999999999999
 33
0.0
 14
-44.0
 24
-170.4999999999999
 34
0.0
 50
90.0
100
AcDbRotatedDimension
  0
DIMENSION
  5
B132
330
1E
100
AcDbEntity
  8
30
  6
Continuous
100
AcDbDimension
  2
*D33
 10
-132.1482117135931
 20
-132.0
 30
0.0
 11
-132.1482117135931
 21
14.93556127137208
 31
0.0
 70
   160
 71
     5
 42
273.0
  3
STANDARD1
100
AcDbAlignedDimension
 13
-105.0
 23
141.0
 33
0.0
 14
-105.0
 24
-132.0
 34
0.0
 50
90.0
100
AcDbRotatedDimension
  0
DIMENSION
  5
B133
330
1E
100
AcDbEntity
  8
30
  6
Continuous
100
AcDbDimension
  2
*D32
 10
-151.8695084348526
 20
-149.5
 30
0.0
 11
-151.8695084348526
 21
4.541880582106839
 31
0.0
 70
   160
 71
     5
 42
308.0
  3
STANDARD1
100
AcDbAlignedDimension
 13
-105.0
 23
158.4999999999999
 33
0.0
 14
-105.0
 24
-149.5
 34
0.0
 50
90.0
100
AcDbRotatedDimension
  0
DIMENSION
  5
B35F
330
1E
100
AcDbEntity
  8
30
  6
Continuous
100
AcDbDimension
  2
*D34
 10
584.0062902121224
 20
-86.49999999999989
 30
0.0
 11
578.0062902121223
 21
4.500000000000088
 31
0.0
 70
    32
 71
     5
 42
181.9999999999995
  3
STANDARD1
100
AcDbAlignedDimension
 13
573.3999999999999
 23
95.49999999999988
 33
0.0
 14
573.3999999999999
 24
-86.49999999999989
 34
0.0
 50
90.0
100
AcDbRotatedDimension
  0
SPLINE
  5
B65C
330
1E
100
AcDbEntity
  8
30
  6
Continuous
100
AcDbSpline
210
0.0
220
0.0
230
1.0
 70
  1064
 71
     3
 72
    11
 73
     7
 74
     5
 42
0.000000001
 43
0.0000000001
 44
0.0000000001
 40
0.0
 40
0.0
 40
0.0
 40
0.0
 40
36.18454601583416
 40
88.30195938343637
 40
133.8086474653994
 40
205.8330802252097
 40
205.8330802252097
 40
205.8330802252097
 40
205.8330802252097
 10
315.7640307250261
 20
473.7402505954253
 30
0.0
 10
315.3211782131752
 20
460.7330708527479
 30
0.0
 10
314.2404752938354
 20
428.9913583319288
 30
0.0
 10
256.1347491798767
 20
413.7495699639179
 30
0.0
 10
270.6060777978279
 20
348.756258443814
 30
0.0
 10
268.0324161965176
 20
311.0809105581598
 30
0.0
 10
266.4552465445779
 20
287.9930208055733
 30
0.0
 11
315.7640307250261
 21
473.7402505954253
 31
0.0
 11
308.1780611530231
 21
438.3598261205174
 31
0.0
 11
267.7195808191011
 21
405.5065744519356
 31
0.0
 11
266.4552465445779
 21
360.0174535653836
 31
0.0
 11
266.4552465445779
 21
287.9930208055733
 31
0.0
  0
MTEXT
  5
B855
330
1E
100
AcDbEntity
  8
30
  6
Continuous
100
AcDbMText
 10
483.6373588808357
 20
416.275610182645
 30
0.0
 40
5.0
 41
0.0
 71
     7
 72
     5
  1
\W01.000;\fsimplex.shx;[max.]
  7
blockfont
 73
     2
 44
0.9036139999999999
1001
ACAD
1000
MTEXTBEGIN
1070
    73
1070
     2
1070
    44
1040
0.9036139999999999
1070
    74
1070
     0
1000
MTEXTEND
  0
MTEXT
  5
B856
330
1E
100
AcDbEntity
  8
30
  6
Continuous
100
AcDbMText
 10
567.0011903408221
 20
349.337742585854
 30
0.0
 40
5.0
 41
0.0
 71
     7
 72
     5
  1
\W01.000;\fsimplex.shx;[max.]
  7
blockfont
 11
0.0
 21
1.0
 31
0.0
 73
     2
 44
0.9036139999999999
1001
ACAD
1000
MTEXTBEGIN
1070
    73
1070
     2
1070
    44
1040
0.9036139999999999
1070
    74
1070
     0
1000
MTEXTEND
  0
VIEWPORT
  5
9AC
102
{ACAD_XDICTIONARY
360
BEF4
102
}
330
1A
100
AcDbEntity
 67
     1
  8
0
  6
Continuous
100
AcDbViewport
 10
171.9995348790992
 20
144.1384735538403
 30
0.0
 40
488.8676857773511
 41
292.3514905034161
 68
     1
 69
     1
 12
171.9995348790992
 22
144.1384735538403
 13
0.0
 23
0.0
 14
10.0
 24
10.0
 15
10.0
 25
10.0
 16
0.0
 26
0.0
 36
1.0
 17
0.0
 27
0.0
 37
0.0
 42
50.0
 43
0.0
 44
0.0
 45
292.3514905034161
 50
0.0
 51
0.0
 72
   100
 90
    32800
  1

281
     0
 71
     1
 74
     0
110
0.0
120
0.0
130
0.0
111
1.0
121
0.0
131
0.0
112
0.0
122
1.0
132
0.0
 79
     0
146
0.0
  0
ENDSEC
  0
SECTION
  2
OBJECTS
  0
DICTIONARY
  5
C
330
0
100
AcDbDictionary
281
     1
  3
ACAD_CIP_PREVIOUS_PRODUCT_INFO
350
BECE
  3
ACAD_COLOR
350
BEB0
  3
ACAD_DETAILVIEWSTYLE
350
BEC9
  3
ACAD_GROUP
350
D
  3
ACAD_LAYOUT
350
19
  3
ACAD_MATERIAL
350
BE7E
  3
ACAD_MLEADERSTYLE
350
BEC5
  3
ACAD_MLINESTYLE
350
16
  3
ACAD_PLOTSETTINGS
350
18
  3
ACAD_PLOTSTYLENAME
350
E
  3
ACAD_SCALELIST
350
BEB3
  3
ACAD_SECTIONVIEWSTYLE
350
BEC7
  3
ACAD_TABLESTYLE
350
BEB1
  3
ACAD_VISUALSTYLE
350
BE97
  3
ACDB_RECOMPOSE_DATA
350
BEF2
  3
ACDBVARIABLEDICTIONARY
350
69C9
  3
DWGPROPS
350
BEF3
  0
DICTIONARY
  5
BED1
330
10
100
AcDbDictionary
280
     1
281
     1
  3
ADSK_XREC_LAYER_RECONCILED
360
BED2
  0
DICTIONARY
  5
BED3
330
2F
100
AcDbDictionary
280
     1
281
     1
  3
ADSK_XREC_LAYER_RECONCILED
360
BED4
  0
DICTIONARY
  5
BED5
330
31
100
AcDbDictionary
280
     1
281
     1
  3
ADSK_XREC_LAYER_RECONCILED
360
BED6
  0
DICTIONARY
  5
BED7
330
35
100
AcDbDictionary
280
     1
281
     1
  3
ADSK_XREC_LAYER_RECONCILED
360
BED8
  0
DICTIONARY
  5
BED9
330
38
100
AcDbDictionary
280
     1
281
     1
  3
ADSK_XREC_LAYER_RECONCILED
360
BEDA
  0
DICTIONARY
  5
BEDB
330
3D
100
AcDbDictionary
280
     1
281
     1
  3
ADSK_XREC_LAYER_RECONCILED
360
BEDC
  0
DICTIONARY
  5
BEDD
330
3A2
100
AcDbDictionary
280
     1
281
     1
  3
ADSK_XREC_LAYER_RECONCILED
360
BEDE
  0
DICTIONARY
  5
BEDF
330
3BBA
100
AcDbDictionary
280
     1
281
     1
  3
ADSK_XREC_LAYER_RECONCILED
360
BEE0
  0
DICTIONARY
  5
BEE1
330
5D4D
100
AcDbDictionary
280
     1
281
     1
  3
ADSK_XREC_LAYER_RECONCILED
360
BEE2
  0
DICTIONARY
  5
BEE3
330
7355
100
AcDbDictionary
280
     1
281
     1
  3
ADSK_XREC_LAYER_RECONCILED
360
BEE4
  0
DICTIONARY
  5
BEE5
330
76A9
100
AcDbDictionary
280
     1
281
     1
  3
ADSK_XREC_LAYER_RECONCILED
360
BEE6
  0
DICTIONARY
  5
178
330
1E
100
AcDbDictionary
280
     1
281
     1
  3
ACAD_LAYOUTSELFREF
360
87C3
  0
DICTIONARY
  5
17A
330
1A
100
AcDbDictionary
280
     1
281
     1
  3
ACAD_LAYOUTSELFREF
360
87C2
  0
DICTIONARY
  5
BEFA
330
BD7E
100
AcDbDictionary
280
     1
281
     1
  3
ACAD_MTEXT_RT
360
BEFB
  0
DICTIONARY
  5
BEFC
330
BDC4
100
AcDbDictionary
280
     1
281
     1
  3
ACAD_MTEXT_RT
360
BEFD
  0
DICTIONARY
  5
BEF4
330
9AC
100
AcDbDictionary
280
     1
281
     1
  3
ACAD_XREC_ROUNDTRIP
360
BEF5
  0
XRECORD
  5
BECE
102
{ACAD_REACTORS
330
C
102
}
330
C
100
AcDbXrecord
280
     1
300
ACDLT
300
2015
300
ACDLT_F_S
  0
DICTIONARY
  5
BEB0
102
{ACAD_REACTORS
330
C
102
}
330
C
100
AcDbDictionary
281
     1
  0
DICTIONARY
  5
BEC9
102
{ACAD_REACTORS
330
C
102
}
330
C
100
AcDbDictionary
281
     1
  3
Imperial24
350
BECA
  0
DICTIONARY
  5
D
102
{ACAD_REACTORS
330
C
102
}
330
C
100
AcDbDictionary
281
     1
  0
DICTIONARY
  5
19
102
{ACAD_REACTORS
330
C
102
}
330
C
100
AcDbDictionary
281
     1
  3
Model
350
87C9
  3
ﾚｲｱｳﾄ1
350
87CA
  0
DICTIONARY
  5
BE7E
102
{ACAD_REACTORS
330
C
102
}
330
C
100
AcDbDictionary
281
     1
  3
ByBlock
350
BE87
  3
ByLayer
350
BE7F
  3
Global
350
BE8F
  0
DICTIONARY
  5
BEC5
102
{ACAD_REACTORS
330
C
102
}
330
C
100
AcDbDictionary
281
     1
  3
Standard
350
BEC6
  0
DICTIONARY
  5
16
102
{ACAD_REACTORS
330
C
102
}
330
C
100
AcDbDictionary
281
     1
  3
STANDARD
350
17
  0
DICTIONARY
  5
18
102
{ACAD_REACTORS
330
C
102
}
330
C
100
AcDbDictionary
281
     1
  0
ACDBDICTIONARYWDFLT
  5
E
102
{ACAD_REACTORS
330
C
102
}
330
C
100
AcDbDictionary
281
     1
  3
Normal
350
F
100
AcDbDictionaryWithDefault
340
F
  0
DICTIONARY
  5
BEB3
102
{ACAD_REACTORS
330
C
102
}
330
C
100
AcDbDictionary
281
     1
  3
A0
350
BEB4
  3
A1
350
BEB5
  3
A2
350
BEB6
  3
A3
350
BEB7
  3
A4
350
BEB8
  3
A5
350
BEB9
  3
A6
350
BEBA
  3
A7
350
BEBB
  3
A8
350
BEBC
  3
A9
350
BEBD
  3
B0
350
BEBE
  3
B1
350
BEBF
  3
B2
350
BEC0
  3
B3
350
BEC1
  3
B4
350
BEC2
  3
B5
350
BEC3
  3
B6
350
BEC4
  0
DICTIONARY
  5
BEC7
102
{ACAD_REACTORS
330
C
102
}
330
C
100
AcDbDictionary
281
     1
  3
Imperial24
350
BEC8
  0
DICTIONARY
  5
BEB1
102
{ACAD_REACTORS
330
C
102
}
330
C
100
AcDbDictionary
281
     1
  3
Standard
350
BEB2
  0
DICTIONARY
  5
BE97
102
{ACAD_REACTORS
330
C
102
}
330
C
100
AcDbDictionary
281
     1
  3
2dWireframe
350
BE9D
  3
Basic
350
BE9C
  3
Brighten
350
BEA3
  3
ColorChange
350
BEA7
  3
Conceptual
350
BEA0
  3
Dim
350
BEA2
  3
EdgeColorOff
350
BEAF
  3
Facepattern
350
BEA6
  3
Flat
350
BE98
  3
FlatWithEdges
350
BE99
  3
Gouraud
350
BE9A
  3
GouraudWithEdges
350
BE9B
  3
Hidden
350
BE9F
  3
JitterOff
350
BEAD
  3
Linepattern
350
BEA5
  3
OverhangOff
350
BEAE
  3
Realistic
350
BEA1
  3
Shaded
350
BEAC
  3
Shaded with edges
350
BEAB
  3
Shades of Gray
350
BEA8
  3
Sketchy
350
BEA9
  3
Thicken
350
BEA4
  3
Wireframe
350
BE9E
  3
X-Ray
350
BEAA
  0
XRECORD
  5
BEF2
102
{ACAD_REACTORS
330
C
102
}
330
C
100
AcDbXrecord
280
     1
 90
        1
330
BEB2
  0
DICTIONARY
  5
69C9
102
{ACAD_REACTORS
330
C
102
}
330
C
100
AcDbDictionary
281
     1
  3
CANNOSCALE
350
BEEB
  3
CMLEADERSTYLE
350
BEE8
  3
CTABLESTYLE
350
BEE7
  3
CVIEWDETAILSTYLE
350
BEE9
  3
CVIEWSECTIONSTYLE
350
BEEA
  3
DIMASSOC
350
69CA
  3
INDEXCTL
350
BEED
  3
SORTENTS
350
BEEC
  3
XCLIPFRAME
350
BEEE
  0
XRECORD
  5
BEF3
102
{ACAD_REACTORS
330
C
102
}
330
C
100
AcDbXrecord
280
     1
  1
DWGPROPS COOKIE
  2

  3

  4

  6

  7

  8
ktomoto
  9

300
=
301
=
302
=
303
=
304
=
305
=
306
=
307
=
308
=
309
=
 40
1.566572349537036
 41
2452286.555658658
 42
2457261.397830509
  1

 90
        0
  0
XRECORD
  5
BED2
102
{ACAD_REACTORS
330
BED1
102
}
330
BED1
100
AcDbXrecord
280
     1
290
     1
  0
XRECORD
  5
BED4
102
{ACAD_REACTORS
330
BED3
102
}
330
BED3
100
AcDbXrecord
280
     1
290
     1
  0
XRECORD
  5
BED6
102
{ACAD_REACTORS
330
BED5
102
}
330
BED5
100
AcDbXrecord
280
     1
290
     1
  0
XRECORD
  5
BED8
102
{ACAD_REACTORS
330
BED7
102
}
330
BED7
100
AcDbXrecord
280
     1
290
     1
  0
XRECORD
  5
BEDA
102
{ACAD_REACTORS
330
BED9
102
}
330
BED9
100
AcDbXrecord
280
     1
290
     1
  0
XRECORD
  5
BEDC
102
{ACAD_REACTORS
330
BEDB
102
}
330
BEDB
100
AcDbXrecord
280
     1
290
     1
  0
XRECORD
  5
BEDE
102
{ACAD_REACTORS
330
BEDD
102
}
330
BEDD
100
AcDbXrecord
280
     1
290
     1
  0
XRECORD
  5
BEE0
102
{ACAD_REACTORS
330
BEDF
102
}
330
BEDF
100
AcDbXrecord
280
     1
290
     1
  0
XRECORD
  5
BEE2
102
{ACAD_REACTORS
330
BEE1
102
}
330
BEE1
100
AcDbXrecord
280
     1
290
     1
  0
XRECORD
  5
BEE4
102
{ACAD_REACTORS
330
BEE3
102
}
330
BEE3
100
AcDbXrecord
280
     1
290
     1
  0
XRECORD
  5
BEE6
102
{ACAD_REACTORS
330
BEE5
102
}
330
BEE5
100
AcDbXrecord
280
     1
290
     1
  0
XRECORD
  5
87C3
102
{ACAD_REACTORS
330
178
102
}
330
178
100
AcDbXrecord
280
     1
340
1E
  0
XRECORD
  5
87C2
102
{ACAD_REACTORS
330
17A
102
}
330
17A
100
AcDbXrecord
280
     1
340
1A
  0
XRECORD
  5
BEFB
102
{ACAD_REACTORS
330
BEFA
102
}
330
BEFA
100
AcDbXrecord
280
     1
 40
5040.0
  1
\A1;\U+220513
  0
XRECORD
  5
BEFD
102
{ACAD_REACTORS
330
BEFC
102
}
330
BEFC
100
AcDbXrecord
280
     1
 40
4473.0
  1
\A1;\U+22059
  0
XRECORD
  5
BEF5
102
{ACAD_REACTORS
330
BEF4
102
}
330
BEF4
100
AcDbXrecord
280
     1
102
SHADEPLOT
 70
     0
  0
ACDBDETAILVIEWSTYLE
  5
BECA
102
{ACAD_XDICTIONARY
360
BF35
102
}
102
{ACAD_REACTORS
330
BEC9
102
}
330
BEC9
100
AcDbModelDocViewStyle
 70
     0
  3
Imperial24
290
     0
100
AcDbDetailViewStyle
 70
     0
 71
     0
 90
        3
 71
     1
340
11
 40
0.24
340
0
 40
0.24
300

 40
0.36
280
     3
 71
     2
340
15
 90
       25
 71
     3
340
11
 40
0.24
 90
        1
 40
0.75
 90
        1
300
%<\AcVar ViewType \f "%tc1">% %<\AcVar ViewDetailId>%\PSCALE %<\AcVar ViewScale \f "%sn">%
 71
     4
340
15
 90
       25
340
15
 90
       25
280
     0
  0
LAYOUT
  5
87C9
102
{ACAD_XDICTIONARY
360
BEF6
102
}
102
{ACAD_REACTORS
330
19
102
}
330
19
100
AcDbPlotSettings
  1

  2
DocuWorks Printer
  4
A4
  6
OLE1
 40
5.408083438873291
 41
5.408078670501708
 42
5.408096313476561
 43
5.4080810546875
 44
210.0156707763671
 45
297.0106506347656
 46
21.26
 47
30.95
 48
0.0
 49
0.0
140
0.0
141
0.0
142
1.0
143
5.0
 70
 11940
 72
     1
 73
     0
 74
     1
  7
monochrome.ctb
 75
     0
147
0.2
148
174.7679267939738
149
647.6949556107277
100
AcDbLayout
  1
Model
 70
     1
 71
     0
 10
0.0
 20
0.0
 11
12.0
 21
9.0
 12
0.0
 22
0.0
 32
0.0
 14
0.0
 24
0.0
 34
0.0
 15
0.0
 25
0.0
 35
0.0
146
0.0
 13
0.0
 23
0.0
 33
0.0
 16
1.0
 26
0.0
 36
0.0
 17
0.0
 27
1.0
 37
0.0
 76
     0
330
1E
331
BE56
  0
LAYOUT
  5
87CA
102
{ACAD_XDICTIONARY
360
BEF8
102
}
102
{ACAD_REACTORS
330
19
102
}
330
19
100
AcDbPlotSettings
  1

  2
LBP5400
  4

  6

 40
0.0
 41
0.0
 42
0.0
 43
0.0
 44
0.0
 45
0.0
 46
0.0
 47
0.0
 48
0.0
 49
0.0
140
0.0
141
0.0
142
1.0
143
1.0
 70
   688
 72
     0
 73
     0
 74
     5
  7
monochrome.stb
 75
    16
147
1.0
148
0.0
149
0.0
100
AcDbLayout
  1
ﾚｲｱｳﾄ1
 70
     1
 71
     1
 10
-5.873748779296875
 20
-5.873749732971191
 11
204.0995788574218
 21
291.1369009017943
 12
0.0
 22
0.0
 32
0.0
 14
4.273573370203961
 24
5.205246163471485
 34
0.0
 15
194.6100952986349
 25
283.0697008572913
 35
0.0
146
0.0
 13
0.0
 23
0.0
 33
0.0
 16
1.0
 26
0.0
 36
0.0
 17
0.0
 27
1.0
 37
0.0
 76
     0
330
1A
331
9AC
  0
MATERIAL
  5
BE87
102
{ACAD_XDICTIONARY
360
BE88
102
}
102
{ACAD_REACTORS
330
BE7E
102
}
330
BE7E
100
AcDbMaterial
  1
ByBlock
 72
     0
 43
0.0208333333333333
 43
0.0
 43
0.0
 43
0.0
 43
0.0
 43
0.0208333333333333
 43
0.0
 43
0.0
 43
0.0
 43
0.0
 43
1.0
 43
0.0
 43
0.0
 43
0.0
 43
0.0
 43
1.0
 77
     0
 47
0.0208333333333333
 47
0.0
 47
0.0
 47
0.0
 47
0.0
 47
0.0208333333333333
 47
0.0
 47
0.0
 47
0.0
 47
0.0
 47
1.0
 47
0.0
 47
0.0
 47
0.0
 47
0.0
 47
1.0
171
     0
 49
0.0208333333333333
 49
0.0
 49
0.0
 49
0.0
 49
0.0
 49
0.0208333333333333
 49
0.0
 49
0.0
 49
0.0
 49
0.0
 49
1.0
 49
0.0
 49
0.0
 49
0.0
 49
0.0
 49
1.0
175
     0
142
0.0208333333333333
142
0.0
142
0.0
142
0.0
142
0.0
142
0.0208333333333333
142
0.0
142
0.0
142
0.0
142
0.0
142
1.0
142
0.0
142
0.0
142
0.0
142
0.0
142
1.0
179
     0
144
0.0208333333333333
144
0.0
144
0.0
144
0.0
144
0.0
144
0.0208333333333333
144
0.0
144
0.0
144
0.0
144
0.0
144
1.0
144
0.0
144
0.0
144
0.0
144
0.0
144
1.0
147
0.0208333333333333
147
0.0
147
0.0
147
0.0
147
0.0
147
0.0208333333333333
147
0.0
147
0.0
147
0.0
147
0.0
147
1.0
147
0.0
147
0.0
147
0.0
147
0.0
147
1.0
  0
MATERIAL
  5
BE7F
102
{ACAD_XDICTIONARY
360
BE80
102
}
102
{ACAD_REACTORS
330
BE7E
102
}
330
BE7E
100
AcDbMaterial
  1
ByLayer
 72
     0
 43
0.0208333333333333
 43
0.0
 43
0.0
 43
0.0
 43
0.0
 43
0.0208333333333333
 43
0.0
 43
0.0
 43
0.0
 43
0.0
 43
1.0
 43
0.0
 43
0.0
 43
0.0
 43
0.0
 43
1.0
 77
     0
 47
0.0208333333333333
 47
0.0
 47
0.0
 47
0.0
 47
0.0
 47
0.0208333333333333
 47
0.0
 47
0.0
 47
0.0
 47
0.0
 47
1.0
 47
0.0
 47
0.0
 47
0.0
 47
0.0
 47
1.0
171
     0
 49
0.0208333333333333
 49
0.0
 49
0.0
 49
0.0
 49
0.0
 49
0.0208333333333333
 49
0.0
 49
0.0
 49
0.0
 49
0.0
 49
1.0
 49
0.0
 49
0.0
 49
0.0
 49
0.0
 49
1.0
175
     0
142
0.0208333333333333
142
0.0
142
0.0
142
0.0
142
0.0
142
0.0208333333333333
142
0.0
142
0.0
142
0.0
142
0.0
142
1.0
142
0.0
142
0.0
142
0.0
142
0.0
142
1.0
179
     0
144
0.0208333333333333
144
0.0
144
0.0
144
0.0
144
0.0
144
0.0208333333333333
144
0.0
144
0.0
144
0.0
144
0.0
144
1.0
144
0.0
144
0.0
144
0.0
144
0.0
144
1.0
147
0.0208333333333333
147
0.0
147
0.0
147
0.0
147
0.0
147
0.0208333333333333
147
0.0
147
0.0
147
0.0
147
0.0
147
1.0
147
0.0
147
0.0
147
0.0
147
0.0
147
1.0
  0
MATERIAL
  5
BE8F
102
{ACAD_XDICTIONARY
360
BE90
102
}
102
{ACAD_REACTORS
330
BE7E
102
}
330
BE7E
100
AcDbMaterial
  1
Global
 72
     0
 43
0.0208333333333333
 43
0.0
 43
0.0
 43
0.0
 43
0.0
 43
0.0208333333333333
 43
0.0
 43
0.0
 43
0.0
 43
0.0
 43
1.0
 43
0.0
 43
0.0
 43
0.0
 43
0.0
 43
1.0
 77
     0
 47
0.0208333333333333
 47
0.0
 47
0.0
 47
0.0
 47
0.0
 47
0.0208333333333333
 47
0.0
 47
0.0
 47
0.0
 47
0.0
 47
1.0
 47
0.0
 47
0.0
 47
0.0
 47
0.0
 47
1.0
171
     0
 49
0.0208333333333333
 49
0.0
 49
0.0
 49
0.0
 49
0.0
 49
0.0208333333333333
 49
0.0
 49
0.0
 49
0.0
 49
0.0
 49
1.0
 49
0.0
 49
0.0
 49
0.0
 49
0.0
 49
1.0
175
     0
142
0.0208333333333333
142
0.0
142
0.0
142
0.0
142
0.0
142
0.0208333333333333
142
0.0
142
0.0
142
0.0
142
0.0
142
1.0
142
0.0
142
0.0
142
0.0
142
0.0
142
1.0
179
     0
144
0.0208333333333333
144
0.0
144
0.0
144
0.0
144
0.0
144
0.0208333333333333
144
0.0
144
0.0
144
0.0
144
0.0
144
1.0
144
0.0
144
0.0
144
0.0
144
0.0
144
1.0
147
0.0208333333333333
147
0.0
147
0.0
147
0.0
147
0.0
147
0.0208333333333333
147
0.0
147
0.0
147
0.0
147
0.0
147
1.0
147
0.0
147
0.0
147
0.0
147
0.0
147
1.0
  0
MLEADERSTYLE
  5
BEC6
102
{ACAD_REACTORS
330
BEC5
102
}
330
BEC5
100
AcDbMLeaderStyle
170
     2
171
     1
172
     0
 90
        2
 40
0.0
 41
0.0
173
     1
 91
-1056964608
340
13
 92
       -2
290
     1
 42
0.09
291
     1
 43
0.36
  3
Standard
 44
0.18
300

342
11
174
     1
178
     6
175
     1
176
     0
 93
-1056964608
 45
0.18
292
     0
297
     0
 46
0.18
 94
-1056964608
 47
1.0
 49
1.0
140
1.0
293
     1
141
0.0
294
     1
177
     0
142
1.0
295
     0
296
     0
143
0.125
1001
ACAD_MLEADERVER
1070
     2
  0
MLINESTYLE
  5
17
102
{ACAD_REACTORS
330
16
102
}
330
16
100
AcDbMlineStyle
  2
STANDARD
 70
     0
  3

 62
   256
 51
90.0
 52
90.0
 71
     2
 49
0.5
 62
   256
  6
BYLAYER
 49
-0.5
 62
   256
  6
BYLAYER
  0
ACDBPLACEHOLDER
  5
F
102
{ACAD_REACTORS
330
E
102
}
330
E
  0
SCALE
  5
BEB4
102
{ACAD_REACTORS
330
BEB3
102
}
330
BEB3
100
AcDbScale
 70
     0
300
1:1
140
1.0
141
1.0
290
     1
  0
SCALE
  5
BEB5
102
{ACAD_REACTORS
330
BEB3
102
}
330
BEB3
100
AcDbScale
 70
     0
300
1/128" = 1'-0"
140
0.0078125
141
12.0
290
     0
  0
SCALE
  5
BEB6
102
{ACAD_REACTORS
330
BEB3
102
}
330
BEB3
100
AcDbScale
 70
     0
300
1/64" = 1'-0"
140
0.015625
141
12.0
290
     0
  0
SCALE
  5
BEB7
102
{ACAD_REACTORS
330
BEB3
102
}
330
BEB3
100
AcDbScale
 70
     0
300
1/32" = 1'-0"
140
0.03125
141
12.0
290
     0
  0
SCALE
  5
BEB8
102
{ACAD_REACTORS
330
BEB3
102
}
330
BEB3
100
AcDbScale
 70
     0
300
1/16" = 1'-0"
140
0.0625
141
12.0
290
     0
  0
SCALE
  5
BEB9
102
{ACAD_REACTORS
330
BEB3
102
}
330
BEB3
100
AcDbScale
 70
     0
300
3/32" = 1'-0"
140
0.09375
141
12.0
290
     0
  0
SCALE
  5
BEBA
102
{ACAD_REACTORS
330
BEB3
102
}
330
BEB3
100
AcDbScale
 70
     0
300
1/8" = 1'-0"
140
0.125
141
12.0
290
     0
  0
SCALE
  5
BEBB
102
{ACAD_REACTORS
330
BEB3
102
}
330
BEB3
100
AcDbScale
 70
     0
300
3/16" = 1'-0"
140
0.1875
141
12.0
290
     0
  0
SCALE
  5
BEBC
102
{ACAD_REACTORS
330
BEB3
102
}
330
BEB3
100
AcDbScale
 70
     0
300
1/4" = 1'-0"
140
0.25
141
12.0
290
     0
  0
SCALE
  5
BEBD
102
{ACAD_REACTORS
330
BEB3
102
}
330
BEB3
100
AcDbScale
 70
     0
300
3/8" = 1'-0"
140
0.375
141
12.0
290
     0
  0
SCALE
  5
BEBE
102
{ACAD_REACTORS
330
BEB3
102
}
330
BEB3
100
AcDbScale
 70
     0
300
1/2" = 1'-0"
140
0.5
141
12.0
290
     0
  0
SCALE
  5
BEBF
102
{ACAD_REACTORS
330
BEB3
102
}
330
BEB3
100
AcDbScale
 70
     0
300
3/4" = 1'-0"
140
0.75
141
12.0
290
     0
  0
SCALE
  5
BEC0
102
{ACAD_REACTORS
330
BEB3
102
}
330
BEB3
100
AcDbScale
 70
     0
300
1" = 1'-0"
140
1.0
141
12.0
290
     0
  0
SCALE
  5
BEC1
102
{ACAD_REACTORS
330
BEB3
102
}
330
BEB3
100
AcDbScale
 70
     0
300
1-1/2" = 1'-0"
140
1.5
141
12.0
290
     0
  0
SCALE
  5
BEC2
102
{ACAD_REACTORS
330
BEB3
102
}
330
BEB3
100
AcDbScale
 70
     0
300
3" = 1'-0"
140
3.0
141
12.0
290
     0
  0
SCALE
  5
BEC3
102
{ACAD_REACTORS
330
BEB3
102
}
330
BEB3
100
AcDbScale
 70
     0
300
6" = 1'-0"
140
6.0
141
12.0
290
     0
  0
SCALE
  5
BEC4
102
{ACAD_REACTORS
330
BEB3
102
}
330
BEB3
100
AcDbScale
 70
     0
300
1'-0" = 1'-0"
140
12.0
141
12.0
290
     0
  0
ACDBSECTIONVIEWSTYLE
  5
BEC8
102
{ACAD_XDICTIONARY
360
BF33
102
}
102
{ACAD_REACTORS
330
BEC7
102
}
330
BEC7
100
AcDbModelDocViewStyle
 70
     0
  3
Imperial24
290
     0
100
AcDbSectionViewStyle
 70
     0
 71
     0
 90
       78
 71
     1
340
11
 40
0.24
340
0
340
0
 40
0.24
300
I, O, Q, S, X, Z
 40
0.48
 90
        3
 40
0.18
 90
        1
 71
     2
340
15
 90
       25
340
15
 90
       50
 40
0.24
 40
0.0
 40
0.24
 71
     3
340
11
 40
0.24
 90
        1
 40
0.75
 90
        1
300
%<\AcVar ViewType \f "%tc1">% %<\AcVar ViewSectionStartId>%-%<\AcVar ViewSectionEndId>%\PSCALE %<\AcVar ViewScale \f "%sn">%
 71
     4
300
ANSI31
 40
1.0
 90
        0
290
     0
290
     0
 90
        6
 40
0.0
 40
1.570796326794896
 40
0.2617993877991494
 40
1.308996938995747
 40
-0.2617993877991494
 40
1.832595714594046
  0
TABLESTYLE
  5
BEB2
102
{ACAD_XDICTIONARY
360
BEF0
102
}
102
{ACAD_REACTORS
330
BEB1
102
}
330
BEB1
100
AcDbTableStyle
  3
Standard
 70
     0
 71
     0
 40
0.06
 41
0.06
280
     0
281
     0
  7
STANDARD
140
0.18
170
     2
 62
     0
 63
     7
283
     0
274
    -2
284
     1
 64
     0
275
    -2
285
     1
 65
     0
276
    -2
286
     1
 66
     0
277
    -2
287
     1
 67
     0
278
    -2
288
     1
 68
     0
279
    -2
289
     1
 69
     0
  7
STANDARD
140
0.25
170
     5
 62
     0
 63
     7
283
     0
274
    -2
284
     1
 64
     0
275
    -2
285
     1
 65
     0
276
    -2
286
     1
 66
     0
277
    -2
287
     1
 67
     0
278
    -2
288
     1
 68
     0
279
    -2
289
     1
 69
     0
  7
STANDARD
140
0.18
170
     5
 62
     0
 63
     7
283
     0
274
    -2
284
     1
 64
     0
275
    -2
285
     1
 65
     0
276
    -2
286
     1
 66
     0
277
    -2
287
     1
 67
     0
278
    -2
288
     1
 68
     0
279
    -2
289
     1
 69
     0
  0
VISUALSTYLE
  5
BE9D
102
{ACAD_XDICTIONARY
360
BF0B
102
}
102
{ACAD_REACTORS
330
BE97
102
}
330
BE97
100
AcDbVisualStyle
  2
2dWireframe
 70
     4
 71
     0
 72
     2
 73
     0
 90
        0
 40
-0.6
 41
-30.0
 62
     5
 63
     7
 74
     1
 91
        4
 64
     7
 65
   257
 75
     1
175
     1
 42
1.0
 92
        0
 66
   257
 43
1.0
 76
     1
 77
     6
 78
     2
 67
     7
 79
     5
170
     0
171
     0
290
     0
174
     0
 93
        1
 44
0.0
173
     0
291
     0
 45
0.0
1001
ACAD
1000
AcDbSavedByObjectVersion
1070
     0
  0
VISUALSTYLE
  5
BE9C
102
{ACAD_XDICTIONARY
360
BF09
102
}
102
{ACAD_REACTORS
330
BE97
102
}
330
BE97
100
AcDbVisualStyle
  2
Basic
 70
     7
 71
     1
 72
     0
 73
     1
 90
        0
 40
-0.6
 41
-30.0
 62
     5
 63
     7
 74
     0
 91
        4
 64
     7
 65
   257
 75
     1
175
     1
 42
1.0
 92
        8
 66
     7
 43
1.0
 76
     1
 77
     6
 78
     2
 67
     7
 79
     5
170
     0
171
     0
290
     0
174
     0
 93
        1
 44
0.0
173
     0
291
     1
 45
0.0
1001
ACAD
1000
AcDbSavedByObjectVersion
1070
     0
  0
VISUALSTYLE
  5
BEA3
102
{ACAD_XDICTIONARY
360
BF17
102
}
102
{ACAD_REACTORS
330
BE97
102
}
330
BE97
100
AcDbVisualStyle
  2
Brighten
 70
    12
 71
     2
 72
     2
 73
     0
 90
        0
 40
-0.6
 41
-30.0
 62
     5
 63
     7
 74
     1
 91
        4
 64
     7
 65
   257
 75
     1
175
     1
 42
1.0
 92
        8
 66
     7
 43
1.0
 76
     1
 77
     6
 78
     2
 67
     7
 79
     5
170
     0
171
     0
290
     0
174
     0
 93
        1
 44
50.0
173
     0
291
     1
 45
0.0
1001
ACAD
1000
AcDbSavedByObjectVersion
1070
     0
  0
VISUALSTYLE
  5
BEA7
102
{ACAD_XDICTIONARY
360
BF1F
102
}
102
{ACAD_REACTORS
330
BE97
102
}
330
BE97
100
AcDbVisualStyle
  2
ColorChange
 70
    16
 71
     2
 72
     2
 73
     3
 90
        0
 40
-0.6
 41
-30.0
 62
     5
 63
     8
 74
     1
 91
        4
 64
     7
 65
   257
 75
     1
175
     1
 42
1.0
 92
        8
 66
     8
 43
1.0
 76
     1
 77
     6
 78
     2
 67
     7
 79
     5
170
     0
171
     0
290
     0
174
     0
 93
        1
 44
0.0
173
     0
291
     1
 45
0.0
1001
ACAD
1000
AcDbSavedByObjectVersion
1070
     0
  0
VISUALSTYLE
  5
BEA0
102
{ACAD_XDICTIONARY
360
BF11
102
}
102
{ACAD_REACTORS
330
BE97
102
}
330
BE97
100
AcDbVisualStyle
  2
Conceptual
 70
     9
 71
     3
 72
     2
 73
     0
 90
        0
 40
-0.6
 41
-30.0
 62
     5
 63
     7
 74
     2
 91
        2
 64
     7
 65
   257
 75
     1
175
     1
 42
179.0
 92
        8
 66
     7
 43
1.0
 76
     1
 77
     6
 78
     2
 67
     7
 79
     3
170
     0
171
     0
290
     0
174
     0
 93
        1
 44
0.0
173
     0
291
     0
 45
0.0
1001
ACAD
1000
AcDbSavedByObjectVersion
1070
     0
  0
VISUALSTYLE
  5
BEA2
102
{ACAD_XDICTIONARY
360
BF15
102
}
102
{ACAD_REACTORS
330
BE97
102
}
330
BE97
100
AcDbVisualStyle
  2
Dim
 70
    11
 71
     2
 72
     2
 73
     0
 90
        0
 40
-0.6
 41
-30.0
 62
     5
 63
     7
 74
     1
 91
        4
 64
     7
 65
   257
 75
     1
175
     1
 42
1.0
 92
        8
 66
     7
 43
1.0
 76
     1
 77
     6
 78
     2
 67
     7
 79
     5
170
     0
171
     0
290
     0
174
     0
 93
        1
 44
-50.0
173
     0
291
     1
 45
0.0
1001
ACAD
1000
AcDbSavedByObjectVersion
1070
     0
  0
VISUALSTYLE
  5
BEAF
102
{ACAD_XDICTIONARY
360
BF2F
102
}
102
{ACAD_REACTORS
330
BE97
102
}
330
BE97
100
AcDbVisualStyle
  2
EdgeColorOff
 70
    22
 71
     2
 72
     2
 73
     0
 90
        0
 40
-0.6
 41
-30.0
 62
     5
 63
     7
 74
     1
 91
        4
 64
     7
 65
   257
 75
     1
175
     1
 42
1.0
 92
        8
 66
     7
 43
1.0
 76
     1
 77
     6
 78
     2
 67
     7
 79
     5
170
     0
171
     0
290
     0
174
     0
 93
        1
 44
0.0
173
     0
291
     1
 45
0.0
1001
ACAD
1000
AcDbSavedByObjectVersion
1070
     0
  0
VISUALSTYLE
  5
BEA6
102
{ACAD_XDICTIONARY
360
BF1D
102
}
102
{ACAD_REACTORS
330
BE97
102
}
330
BE97
100
AcDbVisualStyle
  2
Facepattern
 70
    15
 71
     2
 72
     2
 73
     0
 90
        0
 40
-0.6
 41
-30.0
 62
     5
 63
     7
 74
     1
 91
        4
 64
     7
 65
   257
 75
     1
175
     1
 42
1.0
 92
        8
 66
     7
 43
1.0
 76
     1
 77
     6
 78
     2
 67
     7
 79
     5
170
     0
171
     0
290
     0
174
     0
 93
        1
 44
0.0
173
     0
291
     1
 45
0.0
1001
ACAD
1000
AcDbSavedByObjectVersion
1070
     0
  0
VISUALSTYLE
  5
BE98
102
{ACAD_XDICTIONARY
360
BF01
102
}
102
{ACAD_REACTORS
330
BE97
102
}
330
BE97
100
AcDbVisualStyle
  2
Flat
 70
     0
 71
     2
 72
     1
 73
     1
 90
        2
 40
-0.6
 41
30.0
 62
     5
 63
     7
 74
     0
 91
        0
 64
     7
 65
   257
 75
     1
175
     1
 42
1.0
 92
        8
 66
     7
 43
1.0
 76
     1
 77
     6
 78
     2
 67
     7
 79
     5
170
     0
171
     0
290
     0
174
     0
 93
       13
 44
0.0
173
     0
291
     1
 45
0.0
1001
ACAD
1000
AcDbSavedByObjectVersion
1070
     0
  0
VISUALSTYLE
  5
BE99
102
{ACAD_XDICTIONARY
360
BF03
102
}
102
{ACAD_REACTORS
330
BE97
102
}
330
BE97
100
AcDbVisualStyle
  2
FlatWithEdges
 70
     1
 71
     2
 72
     1
 73
     1
 90
        2
 40
-0.6
 41
30.0
 62
     5
 63
     7
 74
     1
 91
        0
 64
     7
 65
   257
 75
     1
175
     1
 42
1.0
 92
        0
 66
   257
 43
1.0
 76
     1
 77
     6
 78
     2
 67
     7
 79
     5
170
     0
171
     0
290
     0
174
     0
 93
       13
 44
0.0
173
     0
291
     1
 45
0.0
1001
ACAD
1000
AcDbSavedByObjectVersion
1070
     0
  0
VISUALSTYLE
  5
BE9A
102
{ACAD_XDICTIONARY
360
BF05
102
}
102
{ACAD_REACTORS
330
BE97
102
}
330
BE97
100
AcDbVisualStyle
  2
Gouraud
 70
     2
 71
     2
 72
     2
 73
     1
 90
        2
 40
-0.6
 41
30.0
 62
     5
 63
     7
 74
     0
 91
        0
 64
     7
 65
   257
 75
     1
175
     1
 42
1.0
 92
        0
 66
     7
 43
1.0
 76
     1
 77
     6
 78
     2
 67
     7
 79
     5
170
     0
171
     0
290
     0
174
     0
 93
       13
 44
0.0
173
     0
291
     1
 45
0.0
1001
ACAD
1000
AcDbSavedByObjectVersion
1070
     0
  0
VISUALSTYLE
  5
BE9B
102
{ACAD_XDICTIONARY
360
BF07
102
}
102
{ACAD_REACTORS
330
BE97
102
}
330
BE97
100
AcDbVisualStyle
  2
GouraudWithEdges
 70
     3
 71
     2
 72
     2
 73
     1
 90
        2
 40
-0.6
 41
30.0
 62
     5
 63
     7
 74
     1
 91
        0
 64
     7
 65
   257
 75
     1
175
     1
 42
1.0
 92
        0
 66
   257
 43
1.0
 76
     1
 77
     6
 78
     2
 67
     7
 79
     5
170
     0
171
     0
290
     0
174
     0
 93
       13
 44
0.0
173
     0
291
     1
 45
0.0
1001
ACAD
1000
AcDbSavedByObjectVersion
1070
     0
  0
VISUALSTYLE
  5
BE9F
102
{ACAD_XDICTIONARY
360
BF0F
102
}
102
{ACAD_REACTORS
330
BE97
102
}
330
BE97
100
AcDbVisualStyle
  2
Hidden
 70
     6
 71
     1
 72
     2
 73
     2
 90
        0
 40
-0.6
 41
-30.0
 62
     5
 63
     7
 74
     2
 91
        2
 64
     7
 65
   257
 75
     2
175
     1
 42
40.0
 92
        0
 66
   257
 43
1.0
 76
     1
 77
     6
 78
     2
 67
     7
 79
     3
170
     0
171
     0
290
     0
174
     0
 93
        1
 44
0.0
173
     0
291
     0
 45
0.0
1001
ACAD
1000
AcDbSavedByObjectVersion
1070
     0
  0
VISUALSTYLE
  5
BEAD
102
{ACAD_XDICTIONARY
360
BF2B
102
}
102
{ACAD_REACTORS
330
BE97
102
}
330
BE97
100
AcDbVisualStyle
  2
JitterOff
 70
    20
 71
     2
 72
     2
 73
     0
 90
        0
 40
-0.6
 41
-30.0
 62
     5
 63
     7
 74
     1
 91
        4
 64
     7
 65
   257
 75
     1
175
     1
 42
1.0
 92
       10
 66
     7
 43
1.0
 76
     1
 77
     6
 78
     2
 67
     7
 79
     5
170
     0
171
     0
290
     0
174
     0
 93
        1
 44
0.0
173
     0
291
     1
 45
0.0
1001
ACAD
1000
AcDbSavedByObjectVersion
1070
     0
  0
VISUALSTYLE
  5
BEA5
102
{ACAD_XDICTIONARY
360
BF1B
102
}
102
{ACAD_REACTORS
330
BE97
102
}
330
BE97
100
AcDbVisualStyle
  2
Linepattern
 70
    14
 71
     2
 72
     2
 73
     0
 90
        0
 40
-0.6
 41
-30.0
 62
     5
 63
     7
 74
     1
 91
        4
 64
     7
 65
   257
 75
     7
175
     7
 42
1.0
 92
        8
 66
     7
 43
1.0
 76
     1
 77
     6
 78
     2
 67
     7
 79
     5
170
     0
171
     0
290
     0
174
     0
 93
        1
 44
0.0
173
     0
291
     1
 45
0.0
1001
ACAD
1000
AcDbSavedByObjectVersion
1070
     0
  0
VISUALSTYLE
  5
BEAE
102
{ACAD_XDICTIONARY
360
BF2D
102
}
102
{ACAD_REACTORS
330
BE97
102
}
330
BE97
100
AcDbVisualStyle
  2
OverhangOff
 70
    21
 71
     2
 72
     2
 73
     0
 90
        0
 40
-0.6
 41
-30.0
 62
     5
 63
     7
 74
     1
 91
        4
 64
     7
 65
   257
 75
     1
175
     1
 42
1.0
 92
        9
 66
     7
 43
1.0
 76
     1
 77
     6
 78
     2
 67
     7
 79
     5
170
     0
171
     0
290
     0
174
     0
 93
        1
 44
0.0
173
     0
291
     1
 45
0.0
1001
ACAD
1000
AcDbSavedByObjectVersion
1070
     0
  0
VISUALSTYLE
  5
BEA1
102
{ACAD_XDICTIONARY
360
BF13
102
}
102
{ACAD_REACTORS
330
BE97
102
}
330
BE97
100
AcDbVisualStyle
  2
Realistic
 70
     8
 71
     2
 72
     3
 73
     0
 90
        2
 40
-0.6
 41
30.0
 62
     5
 63
     7
 74
     0
 91
        0
 64
     7
 65
   257
 75
     1
175
     1
 42
1.0
 92
        8
 66
   257
 43
1.0
 76
     1
 77
     6
 78
     2
 67
     7
 79
     3
170
     0
171
     0
290
     0
174
     0
 93
       13
 44
0.0
173
     0
291
     0
 45
0.0
1001
ACAD
1000
AcDbSavedByObjectVersion
1070
     0
  0
VISUALSTYLE
  5
BEAC
102
{ACAD_XDICTIONARY
360
BF29
102
}
102
{ACAD_REACTORS
330
BE97
102
}
330
BE97
100
AcDbVisualStyle
  2
Shaded
 70
    27
 71
     2
 72
     2
 73
     1
 90
        2
 40
-0.6
 41
30.0
 62
     5
 63
     7
 74
     0
 91
        4
 64
     7
 65
   257
 75
     1
175
     1
 42
1.0
 92
        8
 66
   257
 43
1.0
 76
     1
 77
     6
 78
     2
 67
     8
 79
     3
170
     0
171
     0
290
     0
174
     0
 93
        5
 44
0.0
173
     0
291
     0
 45
0.0
1001
ACAD
1000
AcDbSavedByObjectVersion
1070
     0
  0
VISUALSTYLE
  5
BEAB
102
{ACAD_XDICTIONARY
360
BF27
102
}
102
{ACAD_REACTORS
330
BE97
102
}
330
BE97
100
AcDbVisualStyle
  2
Shaded with edges
 70
    26
 71
     2
 72
     2
 73
     1
 90
        2
 40
-0.6
 41
30.0
 62
     5
 63
     7
 74
     1
 91
       10
 64
     7
 65
   257
 75
     2
175
     1
 42
1.0
 92
        8
 66
   257
 43
1.0
 76
     1
 77
     6
 78
     2
 67
     7
 79
     3
170
     0
171
     0
290
     0
174
     0
 93
        5
 44
0.0
173
     0
291
     0
 45
0.0
1001
ACAD
1000
AcDbSavedByObjectVersion
1070
     0
  0
VISUALSTYLE
  5
BEA8
102
{ACAD_XDICTIONARY
360
BF21
102
}
102
{ACAD_REACTORS
330
BE97
102
}
330
BE97
100
AcDbVisualStyle
  2
Shades of Gray
 70
    23
 71
     2
 72
     2
 73
     3
 90
        0
 40
-0.6
 41
-30.0
 62
     5
 63
     7
 74
     2
 91
        2
 64
     7
 65
     7
 75
     1
175
     1
 42
40.0
 92
        8
 66
     7
 43
1.0
 76
     1
 77
     6
 78
     2
 67
     7
 79
     3
170
     0
171
     0
290
     0
174
     0
 93
        1
 44
0.0
173
     0
291
     0
 45
0.0
1001
ACAD
1000
AcDbSavedByObjectVersion
1070
     0
  0
VISUALSTYLE
  5
BEA9
102
{ACAD_XDICTIONARY
360
BF23
102
}
102
{ACAD_REACTORS
330
BE97
102
}
330
BE97
100
AcDbVisualStyle
  2
Sketchy
 70
    24
 71
     1
 72
     2
 73
     2
 90
        0
 40
-0.6
 41
-30.0
 62
     5
 63
     7
 74
     2
 91
        2
 64
     7
 65
     7
 75
     1
175
     1
 42
40.0
 92
       11
 66
     7
 43
1.0
 76
     1
 77
     6
 78
     2
 67
     7
 79
     6
170
     0
171
     0
290
     0
174
     0
 93
        1
 44
0.0
173
     0
291
     0
 45
0.0
1001
ACAD
1000
AcDbSavedByObjectVersion
1070
     0
  0
VISUALSTYLE
  5
BEA4
102
{ACAD_XDICTIONARY
360
BF19
102
}
102
{ACAD_REACTORS
330
BE97
102
}
330
BE97
100
AcDbVisualStyle
  2
Thicken
 70
    13
 71
     2
 72
     2
 73
     0
 90
        0
 40
-0.6
 41
-30.0
 62
     5
 63
     7
 74
     1
 91
        4
 64
     7
 65
   257
 75
     1
175
     1
 42
1.0
 92
       12
 66
     7
 43
1.0
 76
     1
 77
     6
 78
     2
 67
     7
 79
     5
170
     0
171
     0
290
     0
174
     0
 93
        1
 44
0.0
173
     0
291
     1
 45
0.0
1001
ACAD
1000
AcDbSavedByObjectVersion
1070
     0
  0
VISUALSTYLE
  5
BE9E
102
{ACAD_XDICTIONARY
360
BF0D
102
}
102
{ACAD_REACTORS
330
BE97
102
}
330
BE97
100
AcDbVisualStyle
  2
Wireframe
 70
     5
 71
     0
 72
     2
 73
     0
 90
        0
 40
-0.6
 41
-30.0
 62
     5
 63
     7
 74
     1
 91
        4
 64
     7
 65
   257
 75
     1
175
     1
 42
1.0
 92
        0
 66
   257
 43
1.0
 76
     1
 77
     6
 78
     2
 67
     7
 79
     3
170
     0
171
     0
290
     0
174
     0
 93
        1
 44
0.0
173
     0
291
     0
 45
0.0
1001
ACAD
1000
AcDbSavedByObjectVersion
1070
     0
  0
VISUALSTYLE
  5
BEAA
102
{ACAD_XDICTIONARY
360
BF25
102
}
102
{ACAD_REACTORS
330
BE97
102
}
330
BE97
100
AcDbVisualStyle
  2
X-Ray
 70
    25
 71
     2
 72
     2
 73
     1
 90
        1
 40
0.5
 41
-30.0
 62
     5
 63
     7
 74
     1
 91
        0
 64
     7
 65
   257
 75
     1
175
     1
 42
1.0
 92
        8
 66
     7
 43
1.0
 76
     1
 77
     6
 78
     2
 67
     7
 79
     3
170
     0
171
     0
290
     0
174
     0
 93
       13
 44
0.0
173
     0
291
     0
 45
0.0
1001
ACAD
1000
AcDbSavedByObjectVersion
1070
     0
  0
DICTIONARYVAR
  5
BEEB
102
{ACAD_REACTORS
330
69C9
102
}
330
69C9
100
DictionaryVariables
280
     0
  1
1:1
  0
DICTIONARYVAR
  5
BEE8
102
{ACAD_REACTORS
330
69C9
102
}
330
69C9
100
DictionaryVariables
280
     0
  1
STANDARD
  0
DICTIONARYVAR
  5
BEE7
102
{ACAD_REACTORS
330
69C9
102
}
330
69C9
100
DictionaryVariables
280
     0
  1
STANDARD
  0
DICTIONARYVAR
  5
BEE9
102
{ACAD_REACTORS
330
69C9
102
}
330
69C9
100
DictionaryVariables
280
     0
  1
Imperial24
  0
DICTIONARYVAR
  5
BEEA
102
{ACAD_REACTORS
330
69C9
102
}
330
69C9
100
DictionaryVariables
280
     0
  1
Imperial24
  0
DICTIONARYVAR
  5
69CA
102
{ACAD_REACTORS
330
69C9
102
}
330
69C9
100
DictionaryVariables
280
     0
  1
1
  0
DICTIONARYVAR
  5
BEED
102
{ACAD_REACTORS
330
69C9
102
}
330
69C9
100
DictionaryVariables
280
     0
  1
0
  0
DICTIONARYVAR
  5
BEEC
102
{ACAD_REACTORS
330
69C9
102
}
330
69C9
100
DictionaryVariables
280
     0
  1
127
  0
DICTIONARYVAR
  5
BEEE
102
{ACAD_REACTORS
330
69C9
102
}
330
69C9
100
DictionaryVariables
280
     0
  1
2
  0
DICTIONARY
  5
BF35
330
BECA
100
AcDbDictionary
280
     1
281
     1
  3
ACAD_XREC_ROUNDTRIP
360
BF36
  0
DICTIONARY
  5
BEF6
330
87C9
100
AcDbDictionary
280
     1
281
     1
  3
ACAD_XREC_ROUNDTRIP
360
BEF7
  0
DICTIONARY
  5
BEF8
330
87CA
100
AcDbDictionary
280
     1
281
     1
  3
ACAD_XREC_ROUNDTRIP
360
BEF9
  0
DICTIONARY
  5
BE88
330
BE87
100
AcDbDictionary
280
     1
281
     1
  3
ACAD_XREC_ROUNDTRIP
360
BEFF
  3
BUMPTILE
360
BE8A
  3
DIFFUSETILE
360
BE89
  3
OPACITYTILE
360
BE8D
  3
REFLECTIONTILE
360
BE8C
  3
REFRACTIONTILE
360
BE8E
  3
SPECULARTILE
360
BE8B
  0
DICTIONARY
  5
BE80
330
BE7F
100
AcDbDictionary
280
     1
281
     1
  3
ACAD_XREC_ROUNDTRIP
360
BEFE
  3
BUMPTILE
360
BE82
  3
DIFFUSETILE
360
BE81
  3
OPACITYTILE
360
BE85
  3
REFLECTIONTILE
360
BE84
  3
REFRACTIONTILE
360
BE86
  3
SPECULARTILE
360
BE83
  0
DICTIONARY
  5
BE90
330
BE8F
100
AcDbDictionary
280
     1
281
     1
  3
ACAD_XREC_ROUNDTRIP
360
BF00
  3
BUMPTILE
360
BE92
  3
DIFFUSETILE
360
BE91
  3
OPACITYTILE
360
BE95
  3
REFLECTIONTILE
360
BE94
  3
REFRACTIONTILE
360
BE96
  3
SPECULARTILE
360
BE93
  0
DICTIONARY
  5
BF33
330
BEC8
100
AcDbDictionary
280
     1
281
     1
  3
ACAD_XREC_ROUNDTRIP
360
BF34
  0
DICTIONARY
  5
BEF0
330
BEB2
100
AcDbDictionary
280
     1
281
     1
  3
ACAD_ROUNDTRIP_2008_TABLESTYLE_CELLSTYLEMAP
360
BEF1
  3
ACAD_XREC_ROUNDTRIP
360
BF31
  0
DICTIONARY
  5
BF0B
330
BE9D
100
AcDbDictionary
280
     1
281
     1
  3
ACAD_XREC_ROUNDTRIP
360
BF0C
  0
DICTIONARY
  5
BF09
330
BE9C
100
AcDbDictionary
280
     1
281
     1
  3
ACAD_XREC_ROUNDTRIP
360
BF0A
  0
DICTIONARY
  5
BF17
330
BEA3
100
AcDbDictionary
280
     1
281
     1
  3
ACAD_XREC_ROUNDTRIP
360
BF18
  0
DICTIONARY
  5
BF1F
330
BEA7
100
AcDbDictionary
280
     1
281
     1
  3
ACAD_XREC_ROUNDTRIP
360
BF20
  0
DICTIONARY
  5
BF11
330
BEA0
100
AcDbDictionary
280
     1
281
     1
  3
ACAD_XREC_ROUNDTRIP
360
BF12
  0
DICTIONARY
  5
BF15
330
BEA2
100
AcDbDictionary
280
     1
281
     1
  3
ACAD_XREC_ROUNDTRIP
360
BF16
  0
DICTIONARY
  5
BF2F
330
BEAF
100
AcDbDictionary
280
     1
281
     1
  3
ACAD_XREC_ROUNDTRIP
360
BF30
  0
DICTIONARY
  5
BF1D
330
BEA6
100
AcDbDictionary
280
     1
281
     1
  3
ACAD_XREC_ROUNDTRIP
360
BF1E
  0
DICTIONARY
  5
BF01
330
BE98
100
AcDbDictionary
280
     1
281
     1
  3
ACAD_XREC_ROUNDTRIP
360
BF02
  0
DICTIONARY
  5
BF03
330
BE99
100
AcDbDictionary
280
     1
281
     1
  3
ACAD_XREC_ROUNDTRIP
360
BF04
  0
DICTIONARY
  5
BF05
330
BE9A
100
AcDbDictionary
280
     1
281
     1
  3
ACAD_XREC_ROUNDTRIP
360
BF06
  0
DICTIONARY
  5
BF07
330
BE9B
100
AcDbDictionary
280
     1
281
     1
  3
ACAD_XREC_ROUNDTRIP
360
BF08
  0
DICTIONARY
  5
BF0F
330
BE9F
100
AcDbDictionary
280
     1
281
     1
  3
ACAD_XREC_ROUNDTRIP
360
BF10
  0
DICTIONARY
  5
BF2B
330
BEAD
100
AcDbDictionary
280
     1
281
     1
  3
ACAD_XREC_ROUNDTRIP
360
BF2C
  0
DICTIONARY
  5
BF1B
330
BEA5
100
AcDbDictionary
280
     1
281
     1
  3
ACAD_XREC_ROUNDTRIP
360
BF1C
  0
DICTIONARY
  5
BF2D
330
BEAE
100
AcDbDictionary
280
     1
281
     1
  3
ACAD_XREC_ROUNDTRIP
360
BF2E
  0
DICTIONARY
  5
BF13
330
BEA1
100
AcDbDictionary
280
     1
281
     1
  3
ACAD_XREC_ROUNDTRIP
360
BF14
  0
DICTIONARY
  5
BF29
330
BEAC
100
AcDbDictionary
280
     1
281
     1
  3
ACAD_XREC_ROUNDTRIP
360
BF2A
  0
DICTIONARY
  5
BF27
330
BEAB
100
AcDbDictionary
280
     1
281
     1
  3
ACAD_XREC_ROUNDTRIP
360
BF28
  0
DICTIONARY
  5
BF21
330
BEA8
100
AcDbDictionary
280
     1
281
     1
  3
ACAD_XREC_ROUNDTRIP
360
BF22
  0
DICTIONARY
  5
BF23
330
BEA9
100
AcDbDictionary
280
     1
281
     1
  3
ACAD_XREC_ROUNDTRIP
360
BF24
  0
DICTIONARY
  5
BF19
330
BEA4
100
AcDbDictionary
280
     1
281
     1
  3
ACAD_XREC_ROUNDTRIP
360
BF1A
  0
DICTIONARY
  5
BF0D
330
BE9E
100
AcDbDictionary
280
     1
281
     1
  3
ACAD_XREC_ROUNDTRIP
360
BF0E
  0
DICTIONARY
  5
BF25
330
BEAA
100
AcDbDictionary
280
     1
281
     1
  3
ACAD_XREC_ROUNDTRIP
360
BF26
  0
XRECORD
  5
BF36
102
{ACAD_REACTORS
330
BF35
102
}
330
BF35
100
AcDbXrecord
280
     1
102
DISPLAYNAME
  1
Imperial24
102
FLAGS
 90
        0
  0
XRECORD
  5
BEF7
102
{ACAD_REACTORS
330
BEF6
102
}
330
BEF6
100
AcDbXrecord
280
     1
102
SHADEPLOT
 70
     0
102
SHADEPLOTRESLEVEL
 70
     2
102
SHADEPLOTCUSTOMDPI
 70
   300
  0
XRECORD
  5
BEF9
102
{ACAD_REACTORS
330
BEF8
102
}
330
BEF8
100
AcDbXrecord
280
     1
102
SHADEPLOT
 70
     0
102
SHADEPLOTRESLEVEL
 70
     2
102
SHADEPLOTCUSTOMDPI
 70
   300
  0
XRECORD
  5
BEFF
102
{ACAD_REACTORS
330
BE88
102
}
330
BE88
100
AcDbXrecord
280
     1
102
MATERIAL
148
0.0
149
0.0
149
0.0
 93
        0
 94
      127
282
     0
 72
     0
 77
     0
171
     0
175
     0
179
     0
273
     0
  0
XRECORD
  5
BE8A
102
{ACAD_REACTORS
330
BE88
102
}
330
BE88
100
AcDbXrecord
280
     1
270
     1
271
     1
  0
XRECORD
  5
BE89
102
{ACAD_REACTORS
330
BE88
102
}
330
BE88
100
AcDbXrecord
280
     1
270
     1
271
     1
  0
XRECORD
  5
BE8D
102
{ACAD_REACTORS
330
BE88
102
}
330
BE88
100
AcDbXrecord
280
     1
270
     1
271
     1
  0
XRECORD
  5
BE8C
102
{ACAD_REACTORS
330
BE88
102
}
330
BE88
100
AcDbXrecord
280
     1
270
     1
271
     1
  0
XRECORD
  5
BE8E
102
{ACAD_REACTORS
330
BE88
102
}
330
BE88
100
AcDbXrecord
280
     1
270
     1
271
     1
  0
XRECORD
  5
BE8B
102
{ACAD_REACTORS
330
BE88
102
}
330
BE88
100
AcDbXrecord
280
     1
270
     1
271
     1
  0
XRECORD
  5
BEFE
102
{ACAD_REACTORS
330
BE80
102
}
330
BE80
100
AcDbXrecord
280
     1
102
MATERIAL
148
0.0
149
0.0
149
0.0
 93
        0
 94
      127
282
     0
 72
     0
 77
     0
171
     0
175
     0
179
     0
273
     0
  0
XRECORD
  5
BE82
102
{ACAD_REACTORS
330
BE80
102
}
330
BE80
100
AcDbXrecord
280
     1
270
     1
271
     1
  0
XRECORD
  5
BE81
102
{ACAD_REACTORS
330
BE80
102
}
330
BE80
100
AcDbXrecord
280
     1
270
     1
271
     1
  0
XRECORD
  5
BE85
102
{ACAD_REACTORS
330
BE80
102
}
330
BE80
100
AcDbXrecord
280
     1
270
     1
271
     1
  0
XRECORD
  5
BE84
102
{ACAD_REACTORS
330
BE80
102
}
330
BE80
100
AcDbXrecord
280
     1
270
     1
271
     1
  0
XRECORD
  5
BE86
102
{ACAD_REACTORS
330
BE80
102
}
330
BE80
100
AcDbXrecord
280
     1
270
     1
271
     1
  0
XRECORD
  5
BE83
102
{ACAD_REACTORS
330
BE80
102
}
330
BE80
100
AcDbXrecord
280
     1
270
     1
271
     1
  0
XRECORD
  5
BF00
102
{ACAD_REACTORS
330
BE90
102
}
330
BE90
100
AcDbXrecord
280
     1
102
MATERIAL
148
0.0
149
0.0
149
0.0
 93
        0
 94
      127
282
     0
 72
     0
 77
     0
171
     0
175
     0
179
     0
273
     0
  0
XRECORD
  5
BE92
102
{ACAD_REACTORS
330
BE90
102
}
330
BE90
100
AcDbXrecord
280
     1
270
     1
271
     1
  0
XRECORD
  5
BE91
102
{ACAD_REACTORS
330
BE90
102
}
330
BE90
100
AcDbXrecord
280
     1
270
     1
271
     1
  0
XRECORD
  5
BE95
102
{ACAD_REACTORS
330
BE90
102
}
330
BE90
100
AcDbXrecord
280
     1
270
     1
271
     1
  0
XRECORD
  5
BE94
102
{ACAD_REACTORS
330
BE90
102
}
330
BE90
100
AcDbXrecord
280
     1
270
     1
271
     1
  0
XRECORD
  5
BE96
102
{ACAD_REACTORS
330
BE90
102
}
330
BE90
100
AcDbXrecord
280
     1
270
     1
271
     1
  0
XRECORD
  5
BE93
102
{ACAD_REACTORS
330
BE90
102
}
330
BE90
100
AcDbXrecord
280
     1
270
     1
271
     1
  0
XRECORD
  5
BF34
102
{ACAD_REACTORS
330
BF33
102
}
330
BF33
100
AcDbXrecord
280
     1
102
DISPLAYNAME
  1
Imperial24
102
FLAGS
 90
        0
  0
CELLSTYLEMAP
  5
BEF1
102
{ACAD_REACTORS
330
BEF0
102
}
330
BEF0
100
AcDbCellStyleMap
 90
        3
300
CELLSTYLE
  1
TABLEFORMAT_BEGIN
 90
        5
170
     1
 91
        0
 92
    32768
 62
   257
 93
        1
300
CONTENTFORMAT
  1
CONTENTFORMAT_BEGIN
 90
        0
 91
        0
 92
      512
 93
        0
300

 40
0.0
140
1.0
 94
        5
 62
     0
340
11
144
0.25
309
CONTENTFORMAT_END
171
     0
 94
        0
309
TABLEFORMAT_END
  1
CELLSTYLE_BEGIN
 90
        1
 91
        1
300
_TITLE
309
CELLSTYLE_END
300
CELLSTYLE
  1
TABLEFORMAT_BEGIN
 90
        5
170
     1
 91
        0
 92
        0
 62
   257
 93
        1
300
CONTENTFORMAT
  1
CONTENTFORMAT_BEGIN
 90
        0
 91
        0
 92
      512
 93
        0
300

 40
0.0
140
1.0
 94
        5
 62
     0
340
11
144
0.18
309
CONTENTFORMAT_END
171
     0
 94
        0
309
TABLEFORMAT_END
  1
CELLSTYLE_BEGIN
 90
        2
 91
        1
300
_HEADER
309
CELLSTYLE_END
300
CELLSTYLE
  1
TABLEFORMAT_BEGIN
 90
        5
170
     1
 91
        0
 92
        0
 62
   257
 93
        1
300
CONTENTFORMAT
  1
CONTENTFORMAT_BEGIN
 90
        0
 91
        0
 92
      512
 93
        0
300

 40
0.0
140
1.0
 94
        2
 62
     0
340
11
144
0.18
309
CONTENTFORMAT_END
171
     0
 94
        0
309
TABLEFORMAT_END
  1
CELLSTYLE_BEGIN
 90
        3
 91
        2
300
_DATA
309
CELLSTYLE_END
  0
XRECORD
  5
BF31
102
{ACAD_REACTORS
330
BEF0
102
}
330
BEF0
100
AcDbXrecord
280
     1
102
ACAD_ROUNDTRIP_PRE2007_TABLESTYLE
 90
      512
 91
        0
  1

 92
      512
 93
        0
  2

 94
      512
 95
        0
  3

  0
XRECORD
  5
BF0C
102
{ACAD_REACTORS
330
BF0B
102
}
330
BF0B
100
AcDbXrecord
280
     1
102
RTVSPost2010Prop28
280
     1
102
RTVSPost2010PropOp28
 70
     1
102
RTVSPost2010Prop29
280
     1
102
RTVSPost2010PropOp29
 70
     1
102
RTVSPost2010Prop30
280
     0
102
RTVSPost2010PropOp30
 70
     1
102
RTVSPost2010Prop31
280
     0
102
RTVSPost2010PropOp31
 70
     1
102
RTVSPost2010Prop32
280
     0
102
RTVSPost2010PropOp32
 70
     1
102
RTVSPost2010Prop33
280
     0
102
RTVSPost2010PropOp33
 70
     1
102
RTVSPost2010Prop34
280
     0
102
RTVSPost2010PropOp34
 70
     1
102
RTVSPost2010Prop35
280
     0
102
RTVSPost2010PropOp35
 70
     1
102
RTVSPost2010Prop36
280
     0
102
RTVSPost2010PropOp36
 70
     1
102
RTVSPost2010Prop37
 90
       50
102
RTVSPost2010PropOp37
 70
     1
102
RTVSPost2010Prop38
140
0.0
102
RTVSPost2010PropOp38
 70
     1
102
RTVSPost2010Prop39
140
1.0
102
RTVSPost2010PropOp39
 70
     1
102
RTVSPost2010Prop40
 90
        0
102
RTVSPost2010PropOp40
 70
     1
102
RTVSPost2010Prop41ColorIndex
 90
       18
102
RTVSPost2010Prop41ColorRGB
 90
        0
102
RTVSPost2010PropOp41
 70
     1
102
RTVSPost2010Prop42
 90
       50
102
RTVSPost2010PropOp42
 70
     1
102
RTVSPost2010Prop43
 90
        3
102
RTVSPost2010PropOp43
 70
     1
102
RTVSPost2010Prop44ColorIndex
 90
        5
102
RTVSPost2010Prop44ColorRGB
 90
      255
102
RTVSPost2010PropOp44
 70
     1
102
RTVSPost2010Prop45
280
     0
102
RTVSPost2010PropOp45
 70
     1
102
RTVSPost2010Prop46
 90
       50
102
RTVSPost2010PropOp46
 70
     1
102
RTVSPost2010Prop47
 90
       50
102
RTVSPost2010PropOp47
 70
     1
102
RTVSPost2010Prop48
 90
       50
102
RTVSPost2010PropOp48
 70
     1
102
RTVSPost2010Prop49
280
     0
102
RTVSPost2010PropOp49
 70
     1
102
RTVSPost2010Prop50
 90
       50
102
RTVSPost2010PropOp50
 70
     1
102
RTVSPost2010Prop51ColorIndex
 90
      256
102
RTVSPost2010Prop51ColorRGB
 90
-16777216
102
RTVSPost2010PropOp51
 70
     0
102
RTVSPost2010Prop52
140
1.0
102
RTVSPost2010PropOp52
 70
     0
102
RTVSPost2010Prop53
 90
        2
102
RTVSPost2010PropOp53
 70
     1
102
RTVSPost2010Prop54
  1
strokes_ogs.tif
102
RTVSPost2010PropOp54
 70
     1
102
RTVSPost2010Prop55
280
     0
102
RTVSPost2010PropOp55
 70
     1
102
RTVSPost2010Prop56
140
1.0
102
RTVSPost2010PropOp56
 70
     1
102
RTVSPost2010Prop57
140
1.0
102
RTVSPost2010PropOp57
 70
     1
102
RTVSPropertyOp0
 70
     1
102
RTVSPropertyOp1
 70
     1
102
RTVSPropertyOp2
 70
     1
102
RTVSPropertyOp3
 70
     1
102
RTVSPropertyOp4
 70
     1
102
RTVSPropertyOp5
 70
     1
102
RTVSPropertyOp6
 70
     1
102
RTVSPropertyOp7
 70
     1
102
RTVSPropertyOp8
 70
     1
102
RTVSPropertyOp9
 70
     1
102
RTVSPropertyOp10
 70
     1
102
RTVSPropertyOp11
 70
     1
102
RTVSPropertyOp12
 70
     1
102
RTVSPropertyOp13
 70
     1
102
RTVSPropertyOp14
 70
     1
102
RTVSPropertyOp15
 70
     1
102
RTVSPropertyOp16
 70
     1
102
RTVSPropertyOp17
 70
     1
102
RTVSPropertyOp18
 70
     1
102
RTVSPropertyOp19
 70
     1
102
RTVSPropertyOp20
 70
     1
102
RTVSPropertyOp21
 70
     1
102
RTVSPropertyOp22
 70
     1
102
RTVSPropertyOp23
 70
     1
102
RTVSPropertyOp24
 70
     1
102
RTVSPropertyOp25
 70
     1
102
RTVSPropertyOp26
 70
     1
102
RTVSPropertyOp27
 70
     1
102
RTVSPropertyOp28
 70
     1
102
RTVSPropertyOp29
 70
     1
102
RTVSPropertyOp30
 70
     1
102
RTVSPropertyOp31
 70
     1
102
RTVSPropertyOp32
 70
     1
102
RTVSPropertyOp33
 70
     1
102
RTVSPropertyOp34
 70
     1
102
RTVSPropertyOp35
 70
     1
102
RTVSPropertyOp36
 70
     1
102
RTVSPropertyOp37
 70
     1
102
RTVSPropertyOp38
 70
     1
102
RTVSPropertyOp39
 70
     1
102
RTVSPropertyOp40
 70
     1
102
RTVSPropertyOp41
 70
     1
102
RTVSPropertyOp42
 70
     1
102
RTVSPropertyOp43
 70
     1
102
RTVSPropertyOp44
 70
     1
102
RTVSPropertyOp45
 70
     1
102
RTVSPropertyOp46
 70
     1
102
RTVSPropertyOp47
 70
     1
102
RTVSPropertyOp48
 70
     1
102
RTVSPropertyOp49
 70
     1
102
RTVSPropertyOp50
 70
     1
102
RTVSPropertyOp51
 70
     0
102
RTVSPropertyOp52
 70
     0
102
RTVSPropertyOp53
 70
     1
102
RTVSPropertyOp54
 70
     1
102
RTVSPropertyOp55
 70
     1
102
RTVSPropertyOp56
 70
     1
102
RTVSPropertyOp57
 70
     1
102
RTVSPropertyOp58
 70
     1
102
RTVSPropertyOp59
 70
     1
102
RTVSPropertyOp60
 70
     1
102
RTVSPropertyOp61
 70
     1
102
RTVSPropertyOp62
 70
     1
  0
XRECORD
  5
BF0A
102
{ACAD_REACTORS
330
BF09
102
}
330
BF09
100
AcDbXrecord
280
     1
102
RTVSPost2010Prop28
280
     0
102
RTVSPost2010PropOp28
 70
     1
102
RTVSPost2010Prop29
280
     1
102
RTVSPost2010PropOp29
 70
     1
102
RTVSPost2010Prop30
280
     1
102
RTVSPost2010PropOp30
 70
     1
102
RTVSPost2010Prop31
280
     0
102
RTVSPost2010PropOp31
 70
     1
102
RTVSPost2010Prop32
280
     0
102
RTVSPost2010PropOp32
 70
     1
102
RTVSPost2010Prop33
280
     0
102
RTVSPost2010PropOp33
 70
     1
102
RTVSPost2010Prop34
280
     0
102
RTVSPost2010PropOp34
 70
     1
102
RTVSPost2010Prop35
280
     0
102
RTVSPost2010PropOp35
 70
     1
102
RTVSPost2010Prop36
280
     0
102
RTVSPost2010PropOp36
 70
     1
102
RTVSPost2010Prop37
 90
       50
102
RTVSPost2010PropOp37
 70
     1
102
RTVSPost2010Prop38
140
0.0
102
RTVSPost2010PropOp38
 70
     1
102
RTVSPost2010Prop39
140
1.0
102
RTVSPost2010PropOp39
 70
     1
102
RTVSPost2010Prop40
 90
        0
102
RTVSPost2010PropOp40
 70
     1
102
RTVSPost2010Prop41ColorIndex
 90
       18
102
RTVSPost2010Prop41ColorRGB
 90
        0
102
RTVSPost2010PropOp41
 70
     1
102
RTVSPost2010Prop42
 90
       50
102
RTVSPost2010PropOp42
 70
     1
102
RTVSPost2010Prop43
 90
        3
102
RTVSPost2010PropOp43
 70
     1
102
RTVSPost2010Prop44ColorIndex
 90
        5
102
RTVSPost2010Prop44ColorRGB
 90
      255
102
RTVSPost2010PropOp44
 70
     1
102
RTVSPost2010Prop45
280
     0
102
RTVSPost2010PropOp45
 70
     1
102
RTVSPost2010Prop46
 90
       50
102
RTVSPost2010PropOp46
 70
     1
102
RTVSPost2010Prop47
 90
       50
102
RTVSPost2010PropOp47
 70
     1
102
RTVSPost2010Prop48
 90
       50
102
RTVSPost2010PropOp48
 70
     1
102
RTVSPost2010Prop49
280
     0
102
RTVSPost2010PropOp49
 70
     1
102
RTVSPost2010Prop50
 90
       50
102
RTVSPost2010PropOp50
 70
     1
102
RTVSPost2010Prop51ColorIndex
 90
      256
102
RTVSPost2010Prop51ColorRGB
 90
-16777216
102
RTVSPost2010PropOp51
 70
     0
102
RTVSPost2010Prop52
140
1.0
102
RTVSPost2010PropOp52
 70
     0
102
RTVSPost2010Prop53
 90
        2
102
RTVSPost2010PropOp53
 70
     1
102
RTVSPost2010Prop54
  1
strokes_ogs.tif
102
RTVSPost2010PropOp54
 70
     1
102
RTVSPost2010Prop55
280
     0
102
RTVSPost2010PropOp55
 70
     1
102
RTVSPost2010Prop56
140
1.0
102
RTVSPost2010PropOp56
 70
     1
102
RTVSPost2010Prop57
140
1.0
102
RTVSPost2010PropOp57
 70
     1
102
RTVSPropertyOp0
 70
     1
102
RTVSPropertyOp1
 70
     1
102
RTVSPropertyOp2
 70
     1
102
RTVSPropertyOp3
 70
     1
102
RTVSPropertyOp4
 70
     1
102
RTVSPropertyOp5
 70
     1
102
RTVSPropertyOp6
 70
     1
102
RTVSPropertyOp7
 70
     1
102
RTVSPropertyOp8
 70
     1
102
RTVSPropertyOp9
 70
     1
102
RTVSPropertyOp10
 70
     1
102
RTVSPropertyOp11
 70
     1
102
RTVSPropertyOp12
 70
     1
102
RTVSPropertyOp13
 70
     1
102
RTVSPropertyOp14
 70
     1
102
RTVSPropertyOp15
 70
     1
102
RTVSPropertyOp16
 70
     1
102
RTVSPropertyOp17
 70
     1
102
RTVSPropertyOp18
 70
     1
102
RTVSPropertyOp19
 70
     1
102
RTVSPropertyOp20
 70
     1
102
RTVSPropertyOp21
 70
     1
102
RTVSPropertyOp22
 70
     1
102
RTVSPropertyOp23
 70
     1
102
RTVSPropertyOp24
 70
     1
102
RTVSPropertyOp25
 70
     1
102
RTVSPropertyOp26
 70
     1
102
RTVSPropertyOp27
 70
     1
102
RTVSPropertyOp28
 70
     1
102
RTVSPropertyOp29
 70
     1
102
RTVSPropertyOp30
 70
     1
102
RTVSPropertyOp31
 70
     1
102
RTVSPropertyOp32
 70
     1
102
RTVSPropertyOp33
 70
     1
102
RTVSPropertyOp34
 70
     1
102
RTVSPropertyOp35
 70
     1
102
RTVSPropertyOp36
 70
     1
102
RTVSPropertyOp37
 70
     1
102
RTVSPropertyOp38
 70
     1
102
RTVSPropertyOp39
 70
     1
102
RTVSPropertyOp40
 70
     1
102
RTVSPropertyOp41
 70
     1
102
RTVSPropertyOp42
 70
     1
102
RTVSPropertyOp43
 70
     1
102
RTVSPropertyOp44
 70
     1
102
RTVSPropertyOp45
 70
     1
102
RTVSPropertyOp46
 70
     1
102
RTVSPropertyOp47
 70
     1
102
RTVSPropertyOp48
 70
     1
102
RTVSPropertyOp49
 70
     1
102
RTVSPropertyOp50
 70
     1
102
RTVSPropertyOp51
 70
     0
102
RTVSPropertyOp52
 70
     0
102
RTVSPropertyOp53
 70
     1
102
RTVSPropertyOp54
 70
     1
102
RTVSPropertyOp55
 70
     1
102
RTVSPropertyOp56
 70
     1
102
RTVSPropertyOp57
 70
     1
102
RTVSPropertyOp58
 70
     1
102
RTVSPropertyOp59
 70
     1
102
RTVSPropertyOp60
 70
     1
102
RTVSPropertyOp61
 70
     1
102
RTVSPropertyOp62
 70
     1
  0
XRECORD
  5
BF18
102
{ACAD_REACTORS
330
BF17
102
}
330
BF17
100
AcDbXrecord
280
     1
102
RTVSPost2010Prop28
280
     0
102
RTVSPost2010PropOp28
 70
     1
102
RTVSPost2010Prop29
280
     1
102
RTVSPost2010PropOp29
 70
     1
102
RTVSPost2010Prop30
280
     1
102
RTVSPost2010PropOp30
 70
     1
102
RTVSPost2010Prop31
280
     0
102
RTVSPost2010PropOp31
 70
     1
102
RTVSPost2010Prop32
280
     0
102
RTVSPost2010PropOp32
 70
     1
102
RTVSPost2010Prop33
280
     0
102
RTVSPost2010PropOp33
 70
     1
102
RTVSPost2010Prop34
280
     0
102
RTVSPost2010PropOp34
 70
     1
102
RTVSPost2010Prop35
280
     0
102
RTVSPost2010PropOp35
 70
     1
102
RTVSPost2010Prop36
280
     0
102
RTVSPost2010PropOp36
 70
     1
102
RTVSPost2010Prop37
 90
       50
102
RTVSPost2010PropOp37
 70
     1
102
RTVSPost2010Prop38
140
0.0
102
RTVSPost2010PropOp38
 70
     1
102
RTVSPost2010Prop39
140
1.0
102
RTVSPost2010PropOp39
 70
     1
102
RTVSPost2010Prop40
 90
        0
102
RTVSPost2010PropOp40
 70
     1
102
RTVSPost2010Prop41ColorIndex
 90
       18
102
RTVSPost2010Prop41ColorRGB
 90
        0
102
RTVSPost2010PropOp41
 70
     1
102
RTVSPost2010Prop42
 90
       50
102
RTVSPost2010PropOp42
 70
     1
102
RTVSPost2010Prop43
 90
        3
102
RTVSPost2010PropOp43
 70
     1
102
RTVSPost2010Prop44ColorIndex
 90
        5
102
RTVSPost2010Prop44ColorRGB
 90
      255
102
RTVSPost2010PropOp44
 70
     1
102
RTVSPost2010Prop45
280
     0
102
RTVSPost2010PropOp45
 70
     1
102
RTVSPost2010Prop46
 90
       50
102
RTVSPost2010PropOp46
 70
     1
102
RTVSPost2010Prop47
 90
       50
102
RTVSPost2010PropOp47
 70
     1
102
RTVSPost2010Prop48
 90
       50
102
RTVSPost2010PropOp48
 70
     1
102
RTVSPost2010Prop49
280
     0
102
RTVSPost2010PropOp49
 70
     1
102
RTVSPost2010Prop50
 90
       50
102
RTVSPost2010PropOp50
 70
     1
102
RTVSPost2010Prop51ColorIndex
 90
      256
102
RTVSPost2010Prop51ColorRGB
 90
-16777216
102
RTVSPost2010PropOp51
 70
     0
102
RTVSPost2010Prop52
140
1.0
102
RTVSPost2010PropOp52
 70
     0
102
RTVSPost2010Prop53
 90
        2
102
RTVSPost2010PropOp53
 70
     1
102
RTVSPost2010Prop54
  1
strokes_ogs.tif
102
RTVSPost2010PropOp54
 70
     1
102
RTVSPost2010Prop55
280
     0
102
RTVSPost2010PropOp55
 70
     1
102
RTVSPost2010Prop56
140
1.0
102
RTVSPost2010PropOp56
 70
     1
102
RTVSPost2010Prop57
140
1.0
102
RTVSPost2010PropOp57
 70
     1
102
RTVSPropertyOp0
 70
     1
102
RTVSPropertyOp1
 70
     1
102
RTVSPropertyOp2
 70
     1
102
RTVSPropertyOp3
 70
     1
102
RTVSPropertyOp4
 70
     1
102
RTVSPropertyOp5
 70
     1
102
RTVSPropertyOp6
 70
     1
102
RTVSPropertyOp7
 70
     1
102
RTVSPropertyOp8
 70
     1
102
RTVSPropertyOp9
 70
     1
102
RTVSPropertyOp10
 70
     1
102
RTVSPropertyOp11
 70
     1
102
RTVSPropertyOp12
 70
     1
102
RTVSPropertyOp13
 70
     1
102
RTVSPropertyOp14
 70
     1
102
RTVSPropertyOp15
 70
     1
102
RTVSPropertyOp16
 70
     1
102
RTVSPropertyOp17
 70
     1
102
RTVSPropertyOp18
 70
     1
102
RTVSPropertyOp19
 70
     1
102
RTVSPropertyOp20
 70
     1
102
RTVSPropertyOp21
 70
     1
102
RTVSPropertyOp22
 70
     1
102
RTVSPropertyOp23
 70
     1
102
RTVSPropertyOp24
 70
     1
102
RTVSPropertyOp25
 70
     1
102
RTVSPropertyOp26
 70
     1
102
RTVSPropertyOp27
 70
     1
102
RTVSPropertyOp28
 70
     1
102
RTVSPropertyOp29
 70
     1
102
RTVSPropertyOp30
 70
     1
102
RTVSPropertyOp31
 70
     1
102
RTVSPropertyOp32
 70
     1
102
RTVSPropertyOp33
 70
     1
102
RTVSPropertyOp34
 70
     1
102
RTVSPropertyOp35
 70
     1
102
RTVSPropertyOp36
 70
     1
102
RTVSPropertyOp37
 70
     1
102
RTVSPropertyOp38
 70
     1
102
RTVSPropertyOp39
 70
     1
102
RTVSPropertyOp40
 70
     1
102
RTVSPropertyOp41
 70
     1
102
RTVSPropertyOp42
 70
     1
102
RTVSPropertyOp43
 70
     1
102
RTVSPropertyOp44
 70
     1
102
RTVSPropertyOp45
 70
     1
102
RTVSPropertyOp46
 70
     1
102
RTVSPropertyOp47
 70
     1
102
RTVSPropertyOp48
 70
     1
102
RTVSPropertyOp49
 70
     1
102
RTVSPropertyOp50
 70
     1
102
RTVSPropertyOp51
 70
     0
102
RTVSPropertyOp52
 70
     0
102
RTVSPropertyOp53
 70
     1
102
RTVSPropertyOp54
 70
     1
102
RTVSPropertyOp55
 70
     1
102
RTVSPropertyOp56
 70
     1
102
RTVSPropertyOp57
 70
     1
102
RTVSPropertyOp58
 70
     1
102
RTVSPropertyOp59
 70
     1
102
RTVSPropertyOp60
 70
     1
102
RTVSPropertyOp61
 70
     1
102
RTVSPropertyOp62
 70
     1
  0
XRECORD
  5
BF20
102
{ACAD_REACTORS
330
BF1F
102
}
330
BF1F
100
AcDbXrecord
280
     1
102
RTVSPost2010Prop28
280
     0
102
RTVSPost2010PropOp28
 70
     1
102
RTVSPost2010Prop29
280
     1
102
RTVSPost2010PropOp29
 70
     1
102
RTVSPost2010Prop30
280
     1
102
RTVSPost2010PropOp30
 70
     1
102
RTVSPost2010Prop31
280
     0
102
RTVSPost2010PropOp31
 70
     1
102
RTVSPost2010Prop32
280
     0
102
RTVSPost2010PropOp32
 70
     1
102
RTVSPost2010Prop33
280
     0
102
RTVSPost2010PropOp33
 70
     1
102
RTVSPost2010Prop34
280
     0
102
RTVSPost2010PropOp34
 70
     1
102
RTVSPost2010Prop35
280
     0
102
RTVSPost2010PropOp35
 70
     1
102
RTVSPost2010Prop36
280
     0
102
RTVSPost2010PropOp36
 70
     1
102
RTVSPost2010Prop37
 90
       50
102
RTVSPost2010PropOp37
 70
     1
102
RTVSPost2010Prop38
140
0.0
102
RTVSPost2010PropOp38
 70
     1
102
RTVSPost2010Prop39
140
1.0
102
RTVSPost2010PropOp39
 70
     1
102
RTVSPost2010Prop40
 90
        0
102
RTVSPost2010PropOp40
 70
     1
102
RTVSPost2010Prop41ColorIndex
 90
       18
102
RTVSPost2010Prop41ColorRGB
 90
        0
102
RTVSPost2010PropOp41
 70
     1
102
RTVSPost2010Prop42
 90
       50
102
RTVSPost2010PropOp42
 70
     1
102
RTVSPost2010Prop43
 90
        3
102
RTVSPost2010PropOp43
 70
     1
102
RTVSPost2010Prop44ColorIndex
 90
        5
102
RTVSPost2010Prop44ColorRGB
 90
      255
102
RTVSPost2010PropOp44
 70
     1
102
RTVSPost2010Prop45
280
     0
102
RTVSPost2010PropOp45
 70
     1
102
RTVSPost2010Prop46
 90
       50
102
RTVSPost2010PropOp46
 70
     1
102
RTVSPost2010Prop47
 90
       50
102
RTVSPost2010PropOp47
 70
     1
102
RTVSPost2010Prop48
 90
       50
102
RTVSPost2010PropOp48
 70
     1
102
RTVSPost2010Prop49
280
     0
102
RTVSPost2010PropOp49
 70
     1
102
RTVSPost2010Prop50
 90
       50
102
RTVSPost2010PropOp50
 70
     1
102
RTVSPost2010Prop51ColorIndex
 90
      256
102
RTVSPost2010Prop51ColorRGB
 90
-16777216
102
RTVSPost2010PropOp51
 70
     0
102
RTVSPost2010Prop52
140
1.0
102
RTVSPost2010PropOp52
 70
     0
102
RTVSPost2010Prop53
 90
        2
102
RTVSPost2010PropOp53
 70
     1
102
RTVSPost2010Prop54
  1
strokes_ogs.tif
102
RTVSPost2010PropOp54
 70
     1
102
RTVSPost2010Prop55
280
     0
102
RTVSPost2010PropOp55
 70
     1
102
RTVSPost2010Prop56
140
1.0
102
RTVSPost2010PropOp56
 70
     1
102
RTVSPost2010Prop57
140
1.0
102
RTVSPost2010PropOp57
 70
     1
102
RTVSPropertyOp0
 70
     1
102
RTVSPropertyOp1
 70
     1
102
RTVSPropertyOp2
 70
     1
102
RTVSPropertyOp3
 70
     1
102
RTVSPropertyOp4
 70
     1
102
RTVSPropertyOp5
 70
     1
102
RTVSPropertyOp6
 70
     1
102
RTVSPropertyOp7
 70
     1
102
RTVSPropertyOp8
 70
     1
102
RTVSPropertyOp9
 70
     1
102
RTVSPropertyOp10
 70
     1
102
RTVSPropertyOp11
 70
     1
102
RTVSPropertyOp12
 70
     1
102
RTVSPropertyOp13
 70
     1
102
RTVSPropertyOp14
 70
     1
102
RTVSPropertyOp15
 70
     1
102
RTVSPropertyOp16
 70
     1
102
RTVSPropertyOp17
 70
     1
102
RTVSPropertyOp18
 70
     1
102
RTVSPropertyOp19
 70
     1
102
RTVSPropertyOp20
 70
     1
102
RTVSPropertyOp21
 70
     1
102
RTVSPropertyOp22
 70
     1
102
RTVSPropertyOp23
 70
     1
102
RTVSPropertyOp24
 70
     1
102
RTVSPropertyOp25
 70
     1
102
RTVSPropertyOp26
 70
     1
102
RTVSPropertyOp27
 70
     1
102
RTVSPropertyOp28
 70
     1
102
RTVSPropertyOp29
 70
     1
102
RTVSPropertyOp30
 70
     1
102
RTVSPropertyOp31
 70
     1
102
RTVSPropertyOp32
 70
     1
102
RTVSPropertyOp33
 70
     1
102
RTVSPropertyOp34
 70
     1
102
RTVSPropertyOp35
 70
     1
102
RTVSPropertyOp36
 70
     1
102
RTVSPropertyOp37
 70
     1
102
RTVSPropertyOp38
 70
     1
102
RTVSPropertyOp39
 70
     1
102
RTVSPropertyOp40
 70
     1
102
RTVSPropertyOp41
 70
     1
102
RTVSPropertyOp42
 70
     1
102
RTVSPropertyOp43
 70
     1
102
RTVSPropertyOp44
 70
     1
102
RTVSPropertyOp45
 70
     1
102
RTVSPropertyOp46
 70
     1
102
RTVSPropertyOp47
 70
     1
102
RTVSPropertyOp48
 70
     1
102
RTVSPropertyOp49
 70
     1
102
RTVSPropertyOp50
 70
     1
102
RTVSPropertyOp51
 70
     0
102
RTVSPropertyOp52
 70
     0
102
RTVSPropertyOp53
 70
     1
102
RTVSPropertyOp54
 70
     1
102
RTVSPropertyOp55
 70
     1
102
RTVSPropertyOp56
 70
     1
102
RTVSPropertyOp57
 70
     1
102
RTVSPropertyOp58
 70
     1
102
RTVSPropertyOp59
 70
     1
102
RTVSPropertyOp60
 70
     1
102
RTVSPropertyOp61
 70
     1
102
RTVSPropertyOp62
 70
     1
  0
XRECORD
  5
BF12
102
{ACAD_REACTORS
330
BF11
102
}
330
BF11
100
AcDbXrecord
280
     1
102
RTVSPost2010Prop28
280
     0
102
RTVSPost2010PropOp28
 70
     1
102
RTVSPost2010Prop29
280
     1
102
RTVSPost2010PropOp29
 70
     1
102
RTVSPost2010Prop30
280
     1
102
RTVSPost2010PropOp30
 70
     1
102
RTVSPost2010Prop31
280
     0
102
RTVSPost2010PropOp31
 70
     1
102
RTVSPost2010Prop32
280
     0
102
RTVSPost2010PropOp32
 70
     1
102
RTVSPost2010Prop33
280
     0
102
RTVSPost2010PropOp33
 70
     1
102
RTVSPost2010Prop34
280
     0
102
RTVSPost2010PropOp34
 70
     1
102
RTVSPost2010Prop35
280
     0
102
RTVSPost2010PropOp35
 70
     1
102
RTVSPost2010Prop36
280
     0
102
RTVSPost2010PropOp36
 70
     1
102
RTVSPost2010Prop37
 90
       50
102
RTVSPost2010PropOp37
 70
     1
102
RTVSPost2010Prop38
140
0.0
102
RTVSPost2010PropOp38
 70
     1
102
RTVSPost2010Prop39
140
1.0
102
RTVSPost2010PropOp39
 70
     1
102
RTVSPost2010Prop40
 90
        0
102
RTVSPost2010PropOp40
 70
     1
102
RTVSPost2010Prop41ColorIndex
 90
       18
102
RTVSPost2010Prop41ColorRGB
 90
        0
102
RTVSPost2010PropOp41
 70
     1
102
RTVSPost2010Prop42
 90
       50
102
RTVSPost2010PropOp42
 70
     1
102
RTVSPost2010Prop43
 90
        3
102
RTVSPost2010PropOp43
 70
     1
102
RTVSPost2010Prop44ColorIndex
 90
        5
102
RTVSPost2010Prop44ColorRGB
 90
      255
102
RTVSPost2010PropOp44
 70
     1
102
RTVSPost2010Prop45
280
     0
102
RTVSPost2010PropOp45
 70
     1
102
RTVSPost2010Prop46
 90
       50
102
RTVSPost2010PropOp46
 70
     1
102
RTVSPost2010Prop47
 90
       50
102
RTVSPost2010PropOp47
 70
     1
102
RTVSPost2010Prop48
 90
       50
102
RTVSPost2010PropOp48
 70
     1
102
RTVSPost2010Prop49
280
     0
102
RTVSPost2010PropOp49
 70
     1
102
RTVSPost2010Prop50
 90
       50
102
RTVSPost2010PropOp50
 70
     1
102
RTVSPost2010Prop51ColorIndex
 90
      256
102
RTVSPost2010Prop51ColorRGB
 90
-16777216
102
RTVSPost2010PropOp51
 70
     0
102
RTVSPost2010Prop52
140
1.0
102
RTVSPost2010PropOp52
 70
     0
102
RTVSPost2010Prop53
 90
        2
102
RTVSPost2010PropOp53
 70
     1
102
RTVSPost2010Prop54
  1
strokes_ogs.tif
102
RTVSPost2010PropOp54
 70
     1
102
RTVSPost2010Prop55
280
     0
102
RTVSPost2010PropOp55
 70
     1
102
RTVSPost2010Prop56
140
1.0
102
RTVSPost2010PropOp56
 70
     1
102
RTVSPost2010Prop57
140
1.0
102
RTVSPost2010PropOp57
 70
     1
102
RTVSPropertyOp0
 70
     1
102
RTVSPropertyOp1
 70
     1
102
RTVSPropertyOp2
 70
     1
102
RTVSPropertyOp3
 70
     1
102
RTVSPropertyOp4
 70
     1
102
RTVSPropertyOp5
 70
     1
102
RTVSPropertyOp6
 70
     1
102
RTVSPropertyOp7
 70
     1
102
RTVSPropertyOp8
 70
     1
102
RTVSPropertyOp9
 70
     1
102
RTVSPropertyOp10
 70
     1
102
RTVSPropertyOp11
 70
     1
102
RTVSPropertyOp12
 70
     1
102
RTVSPropertyOp13
 70
     1
102
RTVSPropertyOp14
 70
     1
102
RTVSPropertyOp15
 70
     1
102
RTVSPropertyOp16
 70
     1
102
RTVSPropertyOp17
 70
     1
102
RTVSPropertyOp18
 70
     1
102
RTVSPropertyOp19
 70
     1
102
RTVSPropertyOp20
 70
     1
102
RTVSPropertyOp21
 70
     1
102
RTVSPropertyOp22
 70
     1
102
RTVSPropertyOp23
 70
     1
102
RTVSPropertyOp24
 70
     1
102
RTVSPropertyOp25
 70
     1
102
RTVSPropertyOp26
 70
     1
102
RTVSPropertyOp27
 70
     1
102
RTVSPropertyOp28
 70
     1
102
RTVSPropertyOp29
 70
     1
102
RTVSPropertyOp30
 70
     1
102
RTVSPropertyOp31
 70
     1
102
RTVSPropertyOp32
 70
     1
102
RTVSPropertyOp33
 70
     1
102
RTVSPropertyOp34
 70
     1
102
RTVSPropertyOp35
 70
     1
102
RTVSPropertyOp36
 70
     1
102
RTVSPropertyOp37
 70
     1
102
RTVSPropertyOp38
 70
     1
102
RTVSPropertyOp39
 70
     1
102
RTVSPropertyOp40
 70
     1
102
RTVSPropertyOp41
 70
     1
102
RTVSPropertyOp42
 70
     1
102
RTVSPropertyOp43
 70
     1
102
RTVSPropertyOp44
 70
     1
102
RTVSPropertyOp45
 70
     1
102
RTVSPropertyOp46
 70
     1
102
RTVSPropertyOp47
 70
     1
102
RTVSPropertyOp48
 70
     1
102
RTVSPropertyOp49
 70
     1
102
RTVSPropertyOp50
 70
     1
102
RTVSPropertyOp51
 70
     0
102
RTVSPropertyOp52
 70
     0
102
RTVSPropertyOp53
 70
     1
102
RTVSPropertyOp54
 70
     1
102
RTVSPropertyOp55
 70
     1
102
RTVSPropertyOp56
 70
     1
102
RTVSPropertyOp57
 70
     1
102
RTVSPropertyOp58
 70
     1
102
RTVSPropertyOp59
 70
     1
102
RTVSPropertyOp60
 70
     1
102
RTVSPropertyOp61
 70
     1
102
RTVSPropertyOp62
 70
     1
  0
XRECORD
  5
BF16
102
{ACAD_REACTORS
330
BF15
102
}
330
BF15
100
AcDbXrecord
280
     1
102
RTVSPost2010Prop28
280
     0
102
RTVSPost2010PropOp28
 70
     1
102
RTVSPost2010Prop29
280
     1
102
RTVSPost2010PropOp29
 70
     1
102
RTVSPost2010Prop30
280
     1
102
RTVSPost2010PropOp30
 70
     1
102
RTVSPost2010Prop31
280
     0
102
RTVSPost2010PropOp31
 70
     1
102
RTVSPost2010Prop32
280
     0
102
RTVSPost2010PropOp32
 70
     1
102
RTVSPost2010Prop33
280
     0
102
RTVSPost2010PropOp33
 70
     1
102
RTVSPost2010Prop34
280
     0
102
RTVSPost2010PropOp34
 70
     1
102
RTVSPost2010Prop35
280
     0
102
RTVSPost2010PropOp35
 70
     1
102
RTVSPost2010Prop36
280
     0
102
RTVSPost2010PropOp36
 70
     1
102
RTVSPost2010Prop37
 90
       50
102
RTVSPost2010PropOp37
 70
     1
102
RTVSPost2010Prop38
140
0.0
102
RTVSPost2010PropOp38
 70
     1
102
RTVSPost2010Prop39
140
1.0
102
RTVSPost2010PropOp39
 70
     1
102
RTVSPost2010Prop40
 90
        0
102
RTVSPost2010PropOp40
 70
     1
102
RTVSPost2010Prop41ColorIndex
 90
       18
102
RTVSPost2010Prop41ColorRGB
 90
        0
102
RTVSPost2010PropOp41
 70
     1
102
RTVSPost2010Prop42
 90
       50
102
RTVSPost2010PropOp42
 70
     1
102
RTVSPost2010Prop43
 90
        3
102
RTVSPost2010PropOp43
 70
     1
102
RTVSPost2010Prop44ColorIndex
 90
        5
102
RTVSPost2010Prop44ColorRGB
 90
      255
102
RTVSPost2010PropOp44
 70
     1
102
RTVSPost2010Prop45
280
     0
102
RTVSPost2010PropOp45
 70
     1
102
RTVSPost2010Prop46
 90
       50
102
RTVSPost2010PropOp46
 70
     1
102
RTVSPost2010Prop47
 90
       50
102
RTVSPost2010PropOp47
 70
     1
102
RTVSPost2010Prop48
 90
       50
102
RTVSPost2010PropOp48
 70
     1
102
RTVSPost2010Prop49
280
     0
102
RTVSPost2010PropOp49
 70
     1
102
RTVSPost2010Prop50
 90
       50
102
RTVSPost2010PropOp50
 70
     1
102
RTVSPost2010Prop51ColorIndex
 90
      256
102
RTVSPost2010Prop51ColorRGB
 90
-16777216
102
RTVSPost2010PropOp51
 70
     0
102
RTVSPost2010Prop52
140
1.0
102
RTVSPost2010PropOp52
 70
     0
102
RTVSPost2010Prop53
 90
        2
102
RTVSPost2010PropOp53
 70
     1
102
RTVSPost2010Prop54
  1
strokes_ogs.tif
102
RTVSPost2010PropOp54
 70
     1
102
RTVSPost2010Prop55
280
     0
102
RTVSPost2010PropOp55
 70
     1
102
RTVSPost2010Prop56
140
1.0
102
RTVSPost2010PropOp56
 70
     1
102
RTVSPost2010Prop57
140
1.0
102
RTVSPost2010PropOp57
 70
     1
102
RTVSPropertyOp0
 70
     1
102
RTVSPropertyOp1
 70
     1
102
RTVSPropertyOp2
 70
     1
102
RTVSPropertyOp3
 70
     1
102
RTVSPropertyOp4
 70
     1
102
RTVSPropertyOp5
 70
     1
102
RTVSPropertyOp6
 70
     1
102
RTVSPropertyOp7
 70
     1
102
RTVSPropertyOp8
 70
     1
102
RTVSPropertyOp9
 70
     1
102
RTVSPropertyOp10
 70
     1
102
RTVSPropertyOp11
 70
     1
102
RTVSPropertyOp12
 70
     1
102
RTVSPropertyOp13
 70
     1
102
RTVSPropertyOp14
 70
     1
102
RTVSPropertyOp15
 70
     1
102
RTVSPropertyOp16
 70
     1
102
RTVSPropertyOp17
 70
     1
102
RTVSPropertyOp18
 70
     1
102
RTVSPropertyOp19
 70
     1
102
RTVSPropertyOp20
 70
     1
102
RTVSPropertyOp21
 70
     1
102
RTVSPropertyOp22
 70
     1
102
RTVSPropertyOp23
 70
     1
102
RTVSPropertyOp24
 70
     1
102
RTVSPropertyOp25
 70
     1
102
RTVSPropertyOp26
 70
     1
102
RTVSPropertyOp27
 70
     1
102
RTVSPropertyOp28
 70
     1
102
RTVSPropertyOp29
 70
     1
102
RTVSPropertyOp30
 70
     1
102
RTVSPropertyOp31
 70
     1
102
RTVSPropertyOp32
 70
     1
102
RTVSPropertyOp33
 70
     1
102
RTVSPropertyOp34
 70
     1
102
RTVSPropertyOp35
 70
     1
102
RTVSPropertyOp36
 70
     1
102
RTVSPropertyOp37
 70
     1
102
RTVSPropertyOp38
 70
     1
102
RTVSPropertyOp39
 70
     1
102
RTVSPropertyOp40
 70
     1
102
RTVSPropertyOp41
 70
     1
102
RTVSPropertyOp42
 70
     1
102
RTVSPropertyOp43
 70
     1
102
RTVSPropertyOp44
 70
     1
102
RTVSPropertyOp45
 70
     1
102
RTVSPropertyOp46
 70
     1
102
RTVSPropertyOp47
 70
     1
102
RTVSPropertyOp48
 70
     1
102
RTVSPropertyOp49
 70
     1
102
RTVSPropertyOp50
 70
     1
102
RTVSPropertyOp51
 70
     0
102
RTVSPropertyOp52
 70
     0
102
RTVSPropertyOp53
 70
     1
102
RTVSPropertyOp54
 70
     1
102
RTVSPropertyOp55
 70
     1
102
RTVSPropertyOp56
 70
     1
102
RTVSPropertyOp57
 70
     1
102
RTVSPropertyOp58
 70
     1
102
RTVSPropertyOp59
 70
     1
102
RTVSPropertyOp60
 70
     1
102
RTVSPropertyOp61
 70
     1
102
RTVSPropertyOp62
 70
     1
  0
XRECORD
  5
BF30
102
{ACAD_REACTORS
330
BF2F
102
}
330
BF2F
100
AcDbXrecord
280
     1
102
RTVSPost2010Prop28
280
     0
102
RTVSPost2010PropOp28
 70
     1
102
RTVSPost2010Prop29
280
     1
102
RTVSPost2010PropOp29
 70
     1
102
RTVSPost2010Prop30
280
     1
102
RTVSPost2010PropOp30
 70
     1
102
RTVSPost2010Prop31
280
     0
102
RTVSPost2010PropOp31
 70
     1
102
RTVSPost2010Prop32
280
     0
102
RTVSPost2010PropOp32
 70
     1
102
RTVSPost2010Prop33
280
     0
102
RTVSPost2010PropOp33
 70
     1
102
RTVSPost2010Prop34
280
     0
102
RTVSPost2010PropOp34
 70
     1
102
RTVSPost2010Prop35
280
     0
102
RTVSPost2010PropOp35
 70
     1
102
RTVSPost2010Prop36
280
     0
102
RTVSPost2010PropOp36
 70
     1
102
RTVSPost2010Prop37
 90
       50
102
RTVSPost2010PropOp37
 70
     0
102
RTVSPost2010Prop38
140
0.0
102
RTVSPost2010PropOp38
 70
     0
102
RTVSPost2010Prop39
140
1.0
102
RTVSPost2010PropOp39
 70
     0
102
RTVSPost2010Prop40
 90
        0
102
RTVSPost2010PropOp40
 70
     0
102
RTVSPost2010Prop41ColorIndex
 90
       18
102
RTVSPost2010Prop41ColorRGB
 90
        0
102
RTVSPost2010PropOp41
 70
     0
102
RTVSPost2010Prop42
 90
       50
102
RTVSPost2010PropOp42
 70
     0
102
RTVSPost2010Prop43
 90
        3
102
RTVSPost2010PropOp43
 70
     0
102
RTVSPost2010Prop44ColorIndex
 90
        5
102
RTVSPost2010Prop44ColorRGB
 90
      255
102
RTVSPost2010PropOp44
 70
     0
102
RTVSPost2010Prop45
280
     0
102
RTVSPost2010PropOp45
 70
     1
102
RTVSPost2010Prop46
 90
       50
102
RTVSPost2010PropOp46
 70
     0
102
RTVSPost2010Prop47
 90
       50
102
RTVSPost2010PropOp47
 70
     0
102
RTVSPost2010Prop48
 90
       50
102
RTVSPost2010PropOp48
 70
     0
102
RTVSPost2010Prop49
280
     0
102
RTVSPost2010PropOp49
 70
     1
102
RTVSPost2010Prop50
 90
       50
102
RTVSPost2010PropOp50
 70
     0
102
RTVSPost2010Prop51ColorIndex
 90
      256
102
RTVSPost2010Prop51ColorRGB
 90
-16777216
102
RTVSPost2010PropOp51
 70
     0
102
RTVSPost2010Prop52
140
1.0
102
RTVSPost2010PropOp52
 70
     0
102
RTVSPost2010Prop53
 90
        2
102
RTVSPost2010PropOp53
 70
     0
102
RTVSPost2010Prop54
  1
strokes_ogs.tif
102
RTVSPost2010PropOp54
 70
     0
102
RTVSPost2010Prop55
280
     0
102
RTVSPost2010PropOp55
 70
     1
102
RTVSPost2010Prop56
140
1.0
102
RTVSPost2010PropOp56
 70
     0
102
RTVSPost2010Prop57
140
1.0
102
RTVSPost2010PropOp57
 70
     0
102
RTVSPropertyOp0
 70
     0
102
RTVSPropertyOp1
 70
     0
102
RTVSPropertyOp2
 70
     0
102
RTVSPropertyOp3
 70
     0
102
RTVSPropertyOp4
 70
     0
102
RTVSPropertyOp5
 70
     0
102
RTVSPropertyOp6
 70
     0
102
RTVSPropertyOp7
 70
     0
102
RTVSPropertyOp8
 70
     0
102
RTVSPropertyOp9
 70
     0
102
RTVSPropertyOp10
 70
     0
102
RTVSPropertyOp11
 70
     0
102
RTVSPropertyOp12
 70
     0
102
RTVSPropertyOp13
 70
     0
102
RTVSPropertyOp14
 70
     2
102
RTVSPropertyOp15
 70
     0
102
RTVSPropertyOp16
 70
     0
102
RTVSPropertyOp17
 70
     0
102
RTVSPropertyOp18
 70
     0
102
RTVSPropertyOp19
 70
     0
102
RTVSPropertyOp20
 70
     0
102
RTVSPropertyOp21
 70
     0
102
RTVSPropertyOp22
 70
     0
102
RTVSPropertyOp23
 70
     0
102
RTVSPropertyOp24
 70
     0
102
RTVSPropertyOp25
 70
     0
102
RTVSPropertyOp26
 70
     0
102
RTVSPropertyOp27
 70
     0
102
RTVSPropertyOp28
 70
     1
102
RTVSPropertyOp29
 70
     1
102
RTVSPropertyOp30
 70
     1
102
RTVSPropertyOp31
 70
     1
102
RTVSPropertyOp32
 70
     1
102
RTVSPropertyOp33
 70
     1
102
RTVSPropertyOp34
 70
     1
102
RTVSPropertyOp35
 70
     1
102
RTVSPropertyOp36
 70
     1
102
RTVSPropertyOp37
 70
     0
102
RTVSPropertyOp38
 70
     0
102
RTVSPropertyOp39
 70
     0
102
RTVSPropertyOp40
 70
     0
102
RTVSPropertyOp41
 70
     0
102
RTVSPropertyOp42
 70
     0
102
RTVSPropertyOp43
 70
     0
102
RTVSPropertyOp44
 70
     0
102
RTVSPropertyOp45
 70
     1
102
RTVSPropertyOp46
 70
     0
102
RTVSPropertyOp47
 70
     0
102
RTVSPropertyOp48
 70
     0
102
RTVSPropertyOp49
 70
     1
102
RTVSPropertyOp50
 70
     0
102
RTVSPropertyOp51
 70
     0
102
RTVSPropertyOp52
 70
     0
102
RTVSPropertyOp53
 70
     0
102
RTVSPropertyOp54
 70
     0
102
RTVSPropertyOp55
 70
     1
102
RTVSPropertyOp56
 70
     0
102
RTVSPropertyOp57
 70
     0
102
RTVSPropertyOp58
 70
     0
102
RTVSPropertyOp59
 70
     0
102
RTVSPropertyOp60
 70
     0
102
RTVSPropertyOp61
 70
     0
102
RTVSPropertyOp62
 70
     0
  0
XRECORD
  5
BF1E
102
{ACAD_REACTORS
330
BF1D
102
}
330
BF1D
100
AcDbXrecord
280
     1
102
RTVSPost2010Prop28
280
     0
102
RTVSPost2010PropOp28
 70
     1
102
RTVSPost2010Prop29
280
     1
102
RTVSPost2010PropOp29
 70
     1
102
RTVSPost2010Prop30
280
     1
102
RTVSPost2010PropOp30
 70
     1
102
RTVSPost2010Prop31
280
     0
102
RTVSPost2010PropOp31
 70
     1
102
RTVSPost2010Prop32
280
     0
102
RTVSPost2010PropOp32
 70
     1
102
RTVSPost2010Prop33
280
     0
102
RTVSPost2010PropOp33
 70
     1
102
RTVSPost2010Prop34
280
     0
102
RTVSPost2010PropOp34
 70
     1
102
RTVSPost2010Prop35
280
     0
102
RTVSPost2010PropOp35
 70
     1
102
RTVSPost2010Prop36
280
     0
102
RTVSPost2010PropOp36
 70
     1
102
RTVSPost2010Prop37
 90
       50
102
RTVSPost2010PropOp37
 70
     1
102
RTVSPost2010Prop38
140
0.0
102
RTVSPost2010PropOp38
 70
     1
102
RTVSPost2010Prop39
140
1.0
102
RTVSPost2010PropOp39
 70
     1
102
RTVSPost2010Prop40
 90
        0
102
RTVSPost2010PropOp40
 70
     1
102
RTVSPost2010Prop41ColorIndex
 90
       18
102
RTVSPost2010Prop41ColorRGB
 90
        0
102
RTVSPost2010PropOp41
 70
     1
102
RTVSPost2010Prop42
 90
       50
102
RTVSPost2010PropOp42
 70
     1
102
RTVSPost2010Prop43
 90
        3
102
RTVSPost2010PropOp43
 70
     1
102
RTVSPost2010Prop44ColorIndex
 90
        5
102
RTVSPost2010Prop44ColorRGB
 90
      255
102
RTVSPost2010PropOp44
 70
     1
102
RTVSPost2010Prop45
280
     0
102
RTVSPost2010PropOp45
 70
     1
102
RTVSPost2010Prop46
 90
       50
102
RTVSPost2010PropOp46
 70
     1
102
RTVSPost2010Prop47
 90
       50
102
RTVSPost2010PropOp47
 70
     1
102
RTVSPost2010Prop48
 90
       50
102
RTVSPost2010PropOp48
 70
     1
102
RTVSPost2010Prop49
280
     0
102
RTVSPost2010PropOp49
 70
     1
102
RTVSPost2010Prop50
 90
       50
102
RTVSPost2010PropOp50
 70
     1
102
RTVSPost2010Prop51ColorIndex
 90
      256
102
RTVSPost2010Prop51ColorRGB
 90
-16777216
102
RTVSPost2010PropOp51
 70
     0
102
RTVSPost2010Prop52
140
1.0
102
RTVSPost2010PropOp52
 70
     0
102
RTVSPost2010Prop53
 90
        2
102
RTVSPost2010PropOp53
 70
     1
102
RTVSPost2010Prop54
  1
strokes_ogs.tif
102
RTVSPost2010PropOp54
 70
     1
102
RTVSPost2010Prop55
280
     0
102
RTVSPost2010PropOp55
 70
     1
102
RTVSPost2010Prop56
140
1.0
102
RTVSPost2010PropOp56
 70
     1
102
RTVSPost2010Prop57
140
1.0
102
RTVSPost2010PropOp57
 70
     1
102
RTVSPropertyOp0
 70
     1
102
RTVSPropertyOp1
 70
     1
102
RTVSPropertyOp2
 70
     1
102
RTVSPropertyOp3
 70
     1
102
RTVSPropertyOp4
 70
     1
102
RTVSPropertyOp5
 70
     1
102
RTVSPropertyOp6
 70
     1
102
RTVSPropertyOp7
 70
     1
102
RTVSPropertyOp8
 70
     1
102
RTVSPropertyOp9
 70
     1
102
RTVSPropertyOp10
 70
     1
102
RTVSPropertyOp11
 70
     1
102
RTVSPropertyOp12
 70
     1
102
RTVSPropertyOp13
 70
     1
102
RTVSPropertyOp14
 70
     1
102
RTVSPropertyOp15
 70
     1
102
RTVSPropertyOp16
 70
     1
102
RTVSPropertyOp17
 70
     1
102
RTVSPropertyOp18
 70
     1
102
RTVSPropertyOp19
 70
     1
102
RTVSPropertyOp20
 70
     1
102
RTVSPropertyOp21
 70
     1
102
RTVSPropertyOp22
 70
     1
102
RTVSPropertyOp23
 70
     1
102
RTVSPropertyOp24
 70
     1
102
RTVSPropertyOp25
 70
     1
102
RTVSPropertyOp26
 70
     1
102
RTVSPropertyOp27
 70
     1
102
RTVSPropertyOp28
 70
     1
102
RTVSPropertyOp29
 70
     1
102
RTVSPropertyOp30
 70
     1
102
RTVSPropertyOp31
 70
     1
102
RTVSPropertyOp32
 70
     1
102
RTVSPropertyOp33
 70
     1
102
RTVSPropertyOp34
 70
     1
102
RTVSPropertyOp35
 70
     1
102
RTVSPropertyOp36
 70
     1
102
RTVSPropertyOp37
 70
     1
102
RTVSPropertyOp38
 70
     1
102
RTVSPropertyOp39
 70
     1
102
RTVSPropertyOp40
 70
     1
102
RTVSPropertyOp41
 70
     1
102
RTVSPropertyOp42
 70
     1
102
RTVSPropertyOp43
 70
     1
102
RTVSPropertyOp44
 70
     1
102
RTVSPropertyOp45
 70
     1
102
RTVSPropertyOp46
 70
     1
102
RTVSPropertyOp47
 70
     1
102
RTVSPropertyOp48
 70
     1
102
RTVSPropertyOp49
 70
     1
102
RTVSPropertyOp50
 70
     1
102
RTVSPropertyOp51
 70
     0
102
RTVSPropertyOp52
 70
     0
102
RTVSPropertyOp53
 70
     1
102
RTVSPropertyOp54
 70
     1
102
RTVSPropertyOp55
 70
     1
102
RTVSPropertyOp56
 70
     1
102
RTVSPropertyOp57
 70
     1
102
RTVSPropertyOp58
 70
     1
102
RTVSPropertyOp59
 70
     1
102
RTVSPropertyOp60
 70
     1
102
RTVSPropertyOp61
 70
     1
102
RTVSPropertyOp62
 70
     1
  0
XRECORD
  5
BF02
102
{ACAD_REACTORS
330
BF01
102
}
330
BF01
100
AcDbXrecord
280
     1
102
RTVSPost2010Prop28
280
     0
102
RTVSPost2010PropOp28
 70
     1
102
RTVSPost2010Prop29
280
     1
102
RTVSPost2010PropOp29
 70
     1
102
RTVSPost2010Prop30
280
     1
102
RTVSPost2010PropOp30
 70
     1
102
RTVSPost2010Prop31
280
     0
102
RTVSPost2010PropOp31
 70
     1
102
RTVSPost2010Prop32
280
     0
102
RTVSPost2010PropOp32
 70
     1
102
RTVSPost2010Prop33
280
     0
102
RTVSPost2010PropOp33
 70
     1
102
RTVSPost2010Prop34
280
     0
102
RTVSPost2010PropOp34
 70
     1
102
RTVSPost2010Prop35
280
     0
102
RTVSPost2010PropOp35
 70
     1
102
RTVSPost2010Prop36
280
     0
102
RTVSPost2010PropOp36
 70
     1
102
RTVSPost2010Prop37
 90
       50
102
RTVSPost2010PropOp37
 70
     1
102
RTVSPost2010Prop38
140
0.0
102
RTVSPost2010PropOp38
 70
     1
102
RTVSPost2010Prop39
140
1.0
102
RTVSPost2010PropOp39
 70
     1
102
RTVSPost2010Prop40
 90
        0
102
RTVSPost2010PropOp40
 70
     1
102
RTVSPost2010Prop41ColorIndex
 90
       18
102
RTVSPost2010Prop41ColorRGB
 90
        0
102
RTVSPost2010PropOp41
 70
     1
102
RTVSPost2010Prop42
 90
       50
102
RTVSPost2010PropOp42
 70
     1
102
RTVSPost2010Prop43
 90
        3
102
RTVSPost2010PropOp43
 70
     1
102
RTVSPost2010Prop44ColorIndex
 90
        5
102
RTVSPost2010Prop44ColorRGB
 90
      255
102
RTVSPost2010PropOp44
 70
     1
102
RTVSPost2010Prop45
280
     0
102
RTVSPost2010PropOp45
 70
     1
102
RTVSPost2010Prop46
 90
       50
102
RTVSPost2010PropOp46
 70
     1
102
RTVSPost2010Prop47
 90
       50
102
RTVSPost2010PropOp47
 70
     1
102
RTVSPost2010Prop48
 90
       50
102
RTVSPost2010PropOp48
 70
     1
102
RTVSPost2010Prop49
280
     0
102
RTVSPost2010PropOp49
 70
     1
102
RTVSPost2010Prop50
 90
       50
102
RTVSPost2010PropOp50
 70
     1
102
RTVSPost2010Prop51ColorIndex
 90
      256
102
RTVSPost2010Prop51ColorRGB
 90
-16777216
102
RTVSPost2010PropOp51
 70
     0
102
RTVSPost2010Prop52
140
1.0
102
RTVSPost2010PropOp52
 70
     0
102
RTVSPost2010Prop53
 90
        2
102
RTVSPost2010PropOp53
 70
     1
102
RTVSPost2010Prop54
  1
strokes_ogs.tif
102
RTVSPost2010PropOp54
 70
     1
102
RTVSPost2010Prop55
280
     0
102
RTVSPost2010PropOp55
 70
     1
102
RTVSPost2010Prop56
140
1.0
102
RTVSPost2010PropOp56
 70
     1
102
RTVSPost2010Prop57
140
1.0
102
RTVSPost2010PropOp57
 70
     1
102
RTVSPropertyOp0
 70
     1
102
RTVSPropertyOp1
 70
     1
102
RTVSPropertyOp2
 70
     1
102
RTVSPropertyOp3
 70
     1
102
RTVSPropertyOp4
 70
     1
102
RTVSPropertyOp5
 70
     1
102
RTVSPropertyOp6
 70
     1
102
RTVSPropertyOp7
 70
     1
102
RTVSPropertyOp8
 70
     1
102
RTVSPropertyOp9
 70
     1
102
RTVSPropertyOp10
 70
     1
102
RTVSPropertyOp11
 70
     1
102
RTVSPropertyOp12
 70
     1
102
RTVSPropertyOp13
 70
     1
102
RTVSPropertyOp14
 70
     1
102
RTVSPropertyOp15
 70
     1
102
RTVSPropertyOp16
 70
     1
102
RTVSPropertyOp17
 70
     1
102
RTVSPropertyOp18
 70
     1
102
RTVSPropertyOp19
 70
     1
102
RTVSPropertyOp20
 70
     1
102
RTVSPropertyOp21
 70
     1
102
RTVSPropertyOp22
 70
     1
102
RTVSPropertyOp23
 70
     1
102
RTVSPropertyOp24
 70
     1
102
RTVSPropertyOp25
 70
     1
102
RTVSPropertyOp26
 70
     1
102
RTVSPropertyOp27
 70
     1
102
RTVSPropertyOp28
 70
     1
102
RTVSPropertyOp29
 70
     1
102
RTVSPropertyOp30
 70
     1
102
RTVSPropertyOp31
 70
     1
102
RTVSPropertyOp32
 70
     1
102
RTVSPropertyOp33
 70
     1
102
RTVSPropertyOp34
 70
     1
102
RTVSPropertyOp35
 70
     1
102
RTVSPropertyOp36
 70
     1
102
RTVSPropertyOp37
 70
     1
102
RTVSPropertyOp38
 70
     1
102
RTVSPropertyOp39
 70
     1
102
RTVSPropertyOp40
 70
     1
102
RTVSPropertyOp41
 70
     1
102
RTVSPropertyOp42
 70
     1
102
RTVSPropertyOp43
 70
     1
102
RTVSPropertyOp44
 70
     1
102
RTVSPropertyOp45
 70
     1
102
RTVSPropertyOp46
 70
     1
102
RTVSPropertyOp47
 70
     1
102
RTVSPropertyOp48
 70
     1
102
RTVSPropertyOp49
 70
     1
102
RTVSPropertyOp50
 70
     1
102
RTVSPropertyOp51
 70
     0
102
RTVSPropertyOp52
 70
     0
102
RTVSPropertyOp53
 70
     1
102
RTVSPropertyOp54
 70
     1
102
RTVSPropertyOp55
 70
     1
102
RTVSPropertyOp56
 70
     1
102
RTVSPropertyOp57
 70
     1
102
RTVSPropertyOp58
 70
     1
102
RTVSPropertyOp59
 70
     1
102
RTVSPropertyOp60
 70
     1
102
RTVSPropertyOp61
 70
     1
102
RTVSPropertyOp62
 70
     1
  0
XRECORD
  5
BF04
102
{ACAD_REACTORS
330
BF03
102
}
330
BF03
100
AcDbXrecord
280
     1
102
RTVSPost2010Prop28
280
     0
102
RTVSPost2010PropOp28
 70
     1
102
RTVSPost2010Prop29
280
     1
102
RTVSPost2010PropOp29
 70
     1
102
RTVSPost2010Prop30
280
     1
102
RTVSPost2010PropOp30
 70
     1
102
RTVSPost2010Prop31
280
     0
102
RTVSPost2010PropOp31
 70
     1
102
RTVSPost2010Prop32
280
     0
102
RTVSPost2010PropOp32
 70
     1
102
RTVSPost2010Prop33
280
     0
102
RTVSPost2010PropOp33
 70
     1
102
RTVSPost2010Prop34
280
     0
102
RTVSPost2010PropOp34
 70
     1
102
RTVSPost2010Prop35
280
     0
102
RTVSPost2010PropOp35
 70
     1
102
RTVSPost2010Prop36
280
     0
102
RTVSPost2010PropOp36
 70
     1
102
RTVSPost2010Prop37
 90
       50
102
RTVSPost2010PropOp37
 70
     1
102
RTVSPost2010Prop38
140
0.0
102
RTVSPost2010PropOp38
 70
     1
102
RTVSPost2010Prop39
140
1.0
102
RTVSPost2010PropOp39
 70
     1
102
RTVSPost2010Prop40
 90
        0
102
RTVSPost2010PropOp40
 70
     1
102
RTVSPost2010Prop41ColorIndex
 90
       18
102
RTVSPost2010Prop41ColorRGB
 90
        0
102
RTVSPost2010PropOp41
 70
     1
102
RTVSPost2010Prop42
 90
       50
102
RTVSPost2010PropOp42
 70
     1
102
RTVSPost2010Prop43
 90
        3
102
RTVSPost2010PropOp43
 70
     1
102
RTVSPost2010Prop44ColorIndex
 90
        5
102
RTVSPost2010Prop44ColorRGB
 90
      255
102
RTVSPost2010PropOp44
 70
     1
102
RTVSPost2010Prop45
280
     0
102
RTVSPost2010PropOp45
 70
     1
102
RTVSPost2010Prop46
 90
       50
102
RTVSPost2010PropOp46
 70
     1
102
RTVSPost2010Prop47
 90
       50
102
RTVSPost2010PropOp47
 70
     1
102
RTVSPost2010Prop48
 90
       50
102
RTVSPost2010PropOp48
 70
     1
102
RTVSPost2010Prop49
280
     0
102
RTVSPost2010PropOp49
 70
     1
102
RTVSPost2010Prop50
 90
       50
102
RTVSPost2010PropOp50
 70
     1
102
RTVSPost2010Prop51ColorIndex
 90
      256
102
RTVSPost2010Prop51ColorRGB
 90
-16777216
102
RTVSPost2010PropOp51
 70
     0
102
RTVSPost2010Prop52
140
1.0
102
RTVSPost2010PropOp52
 70
     0
102
RTVSPost2010Prop53
 90
        2
102
RTVSPost2010PropOp53
 70
     1
102
RTVSPost2010Prop54
  1
strokes_ogs.tif
102
RTVSPost2010PropOp54
 70
     1
102
RTVSPost2010Prop55
280
     0
102
RTVSPost2010PropOp55
 70
     1
102
RTVSPost2010Prop56
140
1.0
102
RTVSPost2010PropOp56
 70
     1
102
RTVSPost2010Prop57
140
1.0
102
RTVSPost2010PropOp57
 70
     1
102
RTVSPropertyOp0
 70
     1
102
RTVSPropertyOp1
 70
     1
102
RTVSPropertyOp2
 70
     1
102
RTVSPropertyOp3
 70
     1
102
RTVSPropertyOp4
 70
     1
102
RTVSPropertyOp5
 70
     1
102
RTVSPropertyOp6
 70
     1
102
RTVSPropertyOp7
 70
     1
102
RTVSPropertyOp8
 70
     1
102
RTVSPropertyOp9
 70
     1
102
RTVSPropertyOp10
 70
     1
102
RTVSPropertyOp11
 70
     1
102
RTVSPropertyOp12
 70
     1
102
RTVSPropertyOp13
 70
     1
102
RTVSPropertyOp14
 70
     1
102
RTVSPropertyOp15
 70
     1
102
RTVSPropertyOp16
 70
     1
102
RTVSPropertyOp17
 70
     1
102
RTVSPropertyOp18
 70
     1
102
RTVSPropertyOp19
 70
     1
102
RTVSPropertyOp20
 70
     1
102
RTVSPropertyOp21
 70
     1
102
RTVSPropertyOp22
 70
     1
102
RTVSPropertyOp23
 70
     1
102
RTVSPropertyOp24
 70
     1
102
RTVSPropertyOp25
 70
     1
102
RTVSPropertyOp26
 70
     1
102
RTVSPropertyOp27
 70
     1
102
RTVSPropertyOp28
 70
     1
102
RTVSPropertyOp29
 70
     1
102
RTVSPropertyOp30
 70
     1
102
RTVSPropertyOp31
 70
     1
102
RTVSPropertyOp32
 70
     1
102
RTVSPropertyOp33
 70
     1
102
RTVSPropertyOp34
 70
     1
102
RTVSPropertyOp35
 70
     1
102
RTVSPropertyOp36
 70
     1
102
RTVSPropertyOp37
 70
     1
102
RTVSPropertyOp38
 70
     1
102
RTVSPropertyOp39
 70
     1
102
RTVSPropertyOp40
 70
     1
102
RTVSPropertyOp41
 70
     1
102
RTVSPropertyOp42
 70
     1
102
RTVSPropertyOp43
 70
     1
102
RTVSPropertyOp44
 70
     1
102
RTVSPropertyOp45
 70
     1
102
RTVSPropertyOp46
 70
     1
102
RTVSPropertyOp47
 70
     1
102
RTVSPropertyOp48
 70
     1
102
RTVSPropertyOp49
 70
     1
102
RTVSPropertyOp50
 70
     1
102
RTVSPropertyOp51
 70
     0
102
RTVSPropertyOp52
 70
     0
102
RTVSPropertyOp53
 70
     1
102
RTVSPropertyOp54
 70
     1
102
RTVSPropertyOp55
 70
     1
102
RTVSPropertyOp56
 70
     1
102
RTVSPropertyOp57
 70
     1
102
RTVSPropertyOp58
 70
     1
102
RTVSPropertyOp59
 70
     1
102
RTVSPropertyOp60
 70
     1
102
RTVSPropertyOp61
 70
     1
102
RTVSPropertyOp62
 70
     1
  0
XRECORD
  5
BF06
102
{ACAD_REACTORS
330
BF05
102
}
330
BF05
100
AcDbXrecord
280
     1
102
RTVSPost2010Prop28
280
     0
102
RTVSPost2010PropOp28
 70
     1
102
RTVSPost2010Prop29
280
     1
102
RTVSPost2010PropOp29
 70
     1
102
RTVSPost2010Prop30
280
     1
102
RTVSPost2010PropOp30
 70
     1
102
RTVSPost2010Prop31
280
     0
102
RTVSPost2010PropOp31
 70
     1
102
RTVSPost2010Prop32
280
     0
102
RTVSPost2010PropOp32
 70
     1
102
RTVSPost2010Prop33
280
     0
102
RTVSPost2010PropOp33
 70
     1
102
RTVSPost2010Prop34
280
     0
102
RTVSPost2010PropOp34
 70
     1
102
RTVSPost2010Prop35
280
     0
102
RTVSPost2010PropOp35
 70
     1
102
RTVSPost2010Prop36
280
     0
102
RTVSPost2010PropOp36
 70
     1
102
RTVSPost2010Prop37
 90
       50
102
RTVSPost2010PropOp37
 70
     1
102
RTVSPost2010Prop38
140
0.0
102
RTVSPost2010PropOp38
 70
     1
102
RTVSPost2010Prop39
140
1.0
102
RTVSPost2010PropOp39
 70
     1
102
RTVSPost2010Prop40
 90
        0
102
RTVSPost2010PropOp40
 70
     1
102
RTVSPost2010Prop41ColorIndex
 90
       18
102
RTVSPost2010Prop41ColorRGB
 90
        0
102
RTVSPost2010PropOp41
 70
     1
102
RTVSPost2010Prop42
 90
       50
102
RTVSPost2010PropOp42
 70
     1
102
RTVSPost2010Prop43
 90
        3
102
RTVSPost2010PropOp43
 70
     1
102
RTVSPost2010Prop44ColorIndex
 90
        5
102
RTVSPost2010Prop44ColorRGB
 90
      255
102
RTVSPost2010PropOp44
 70
     1
102
RTVSPost2010Prop45
280
     0
102
RTVSPost2010PropOp45
 70
     1
102
RTVSPost2010Prop46
 90
       50
102
RTVSPost2010PropOp46
 70
     1
102
RTVSPost2010Prop47
 90
       50
102
RTVSPost2010PropOp47
 70
     1
102
RTVSPost2010Prop48
 90
       50
102
RTVSPost2010PropOp48
 70
     1
102
RTVSPost2010Prop49
280
     0
102
RTVSPost2010PropOp49
 70
     1
102
RTVSPost2010Prop50
 90
       50
102
RTVSPost2010PropOp50
 70
     1
102
RTVSPost2010Prop51ColorIndex
 90
      256
102
RTVSPost2010Prop51ColorRGB
 90
-16777216
102
RTVSPost2010PropOp51
 70
     0
102
RTVSPost2010Prop52
140
1.0
102
RTVSPost2010PropOp52
 70
     0
102
RTVSPost2010Prop53
 90
        2
102
RTVSPost2010PropOp53
 70
     1
102
RTVSPost2010Prop54
  1
strokes_ogs.tif
102
RTVSPost2010PropOp54
 70
     1
102
RTVSPost2010Prop55
280
     0
102
RTVSPost2010PropOp55
 70
     1
102
RTVSPost2010Prop56
140
1.0
102
RTVSPost2010PropOp56
 70
     1
102
RTVSPost2010Prop57
140
1.0
102
RTVSPost2010PropOp57
 70
     1
102
RTVSPropertyOp0
 70
     1
102
RTVSPropertyOp1
 70
     1
102
RTVSPropertyOp2
 70
     1
102
RTVSPropertyOp3
 70
     1
102
RTVSPropertyOp4
 70
     1
102
RTVSPropertyOp5
 70
     1
102
RTVSPropertyOp6
 70
     1
102
RTVSPropertyOp7
 70
     1
102
RTVSPropertyOp8
 70
     1
102
RTVSPropertyOp9
 70
     1
102
RTVSPropertyOp10
 70
     1
102
RTVSPropertyOp11
 70
     1
102
RTVSPropertyOp12
 70
     1
102
RTVSPropertyOp13
 70
     1
102
RTVSPropertyOp14
 70
     1
102
RTVSPropertyOp15
 70
     1
102
RTVSPropertyOp16
 70
     1
102
RTVSPropertyOp17
 70
     1
102
RTVSPropertyOp18
 70
     1
102
RTVSPropertyOp19
 70
     1
102
RTVSPropertyOp20
 70
     1
102
RTVSPropertyOp21
 70
     1
102
RTVSPropertyOp22
 70
     1
102
RTVSPropertyOp23
 70
     1
102
RTVSPropertyOp24
 70
     1
102
RTVSPropertyOp25
 70
     1
102
RTVSPropertyOp26
 70
     1
102
RTVSPropertyOp27
 70
     1
102
RTVSPropertyOp28
 70
     1
102
RTVSPropertyOp29
 70
     1
102
RTVSPropertyOp30
 70
     1
102
RTVSPropertyOp31
 70
     1
102
RTVSPropertyOp32
 70
     1
102
RTVSPropertyOp33
 70
     1
102
RTVSPropertyOp34
 70
     1
102
RTVSPropertyOp35
 70
     1
102
RTVSPropertyOp36
 70
     1
102
RTVSPropertyOp37
 70
     1
102
RTVSPropertyOp38
 70
     1
102
RTVSPropertyOp39
 70
     1
102
RTVSPropertyOp40
 70
     1
102
RTVSPropertyOp41
 70
     1
102
RTVSPropertyOp42
 70
     1
102
RTVSPropertyOp43
 70
     1
102
RTVSPropertyOp44
 70
     1
102
RTVSPropertyOp45
 70
     1
102
RTVSPropertyOp46
 70
     1
102
RTVSPropertyOp47
 70
     1
102
RTVSPropertyOp48
 70
     1
102
RTVSPropertyOp49
 70
     1
102
RTVSPropertyOp50
 70
     1
102
RTVSPropertyOp51
 70
     0
102
RTVSPropertyOp52
 70
     0
102
RTVSPropertyOp53
 70
     1
102
RTVSPropertyOp54
 70
     1
102
RTVSPropertyOp55
 70
     1
102
RTVSPropertyOp56
 70
     1
102
RTVSPropertyOp57
 70
     1
102
RTVSPropertyOp58
 70
     1
102
RTVSPropertyOp59
 70
     1
102
RTVSPropertyOp60
 70
     1
102
RTVSPropertyOp61
 70
     1
102
RTVSPropertyOp62
 70
     1
  0
XRECORD
  5
BF08
102
{ACAD_REACTORS
330
BF07
102
}
330
BF07
100
AcDbXrecord
280
     1
102
RTVSPost2010Prop28
280
     0
102
RTVSPost2010PropOp28
 70
     1
102
RTVSPost2010Prop29
280
     1
102
RTVSPost2010PropOp29
 70
     1
102
RTVSPost2010Prop30
280
     1
102
RTVSPost2010PropOp30
 70
     1
102
RTVSPost2010Prop31
280
     0
102
RTVSPost2010PropOp31
 70
     1
102
RTVSPost2010Prop32
280
     0
102
RTVSPost2010PropOp32
 70
     1
102
RTVSPost2010Prop33
280
     0
102
RTVSPost2010PropOp33
 70
     1
102
RTVSPost2010Prop34
280
     0
102
RTVSPost2010PropOp34
 70
     1
102
RTVSPost2010Prop35
280
     0
102
RTVSPost2010PropOp35
 70
     1
102
RTVSPost2010Prop36
280
     0
102
RTVSPost2010PropOp36
 70
     1
102
RTVSPost2010Prop37
 90
       50
102
RTVSPost2010PropOp37
 70
     1
102
RTVSPost2010Prop38
140
0.0
102
RTVSPost2010PropOp38
 70
     1
102
RTVSPost2010Prop39
140
1.0
102
RTVSPost2010PropOp39
 70
     1
102
RTVSPost2010Prop40
 90
        0
102
RTVSPost2010PropOp40
 70
     1
102
RTVSPost2010Prop41ColorIndex
 90
       18
102
RTVSPost2010Prop41ColorRGB
 90
        0
102
RTVSPost2010PropOp41
 70
     1
102
RTVSPost2010Prop42
 90
       50
102
RTVSPost2010PropOp42
 70
     1
102
RTVSPost2010Prop43
 90
        3
102
RTVSPost2010PropOp43
 70
     1
102
RTVSPost2010Prop44ColorIndex
 90
        5
102
RTVSPost2010Prop44ColorRGB
 90
      255
102
RTVSPost2010PropOp44
 70
     1
102
RTVSPost2010Prop45
280
     0
102
RTVSPost2010PropOp45
 70
     1
102
RTVSPost2010Prop46
 90
       50
102
RTVSPost2010PropOp46
 70
     1
102
RTVSPost2010Prop47
 90
       50
102
RTVSPost2010PropOp47
 70
     1
102
RTVSPost2010Prop48
 90
       50
102
RTVSPost2010PropOp48
 70
     1
102
RTVSPost2010Prop49
280
     0
102
RTVSPost2010PropOp49
 70
     1
102
RTVSPost2010Prop50
 90
       50
102
RTVSPost2010PropOp50
 70
     1
102
RTVSPost2010Prop51ColorIndex
 90
      256
102
RTVSPost2010Prop51ColorRGB
 90
-16777216
102
RTVSPost2010PropOp51
 70
     0
102
RTVSPost2010Prop52
140
1.0
102
RTVSPost2010PropOp52
 70
     0
102
RTVSPost2010Prop53
 90
        2
102
RTVSPost2010PropOp53
 70
     1
102
RTVSPost2010Prop54
  1
strokes_ogs.tif
102
RTVSPost2010PropOp54
 70
     1
102
RTVSPost2010Prop55
280
     0
102
RTVSPost2010PropOp55
 70
     1
102
RTVSPost2010Prop56
140
1.0
102
RTVSPost2010PropOp56
 70
     1
102
RTVSPost2010Prop57
140
1.0
102
RTVSPost2010PropOp57
 70
     1
102
RTVSPropertyOp0
 70
     1
102
RTVSPropertyOp1
 70
     1
102
RTVSPropertyOp2
 70
     1
102
RTVSPropertyOp3
 70
     1
102
RTVSPropertyOp4
 70
     1
102
RTVSPropertyOp5
 70
     1
102
RTVSPropertyOp6
 70
     1
102
RTVSPropertyOp7
 70
     1
102
RTVSPropertyOp8
 70
     1
102
RTVSPropertyOp9
 70
     1
102
RTVSPropertyOp10
 70
     1
102
RTVSPropertyOp11
 70
     1
102
RTVSPropertyOp12
 70
     1
102
RTVSPropertyOp13
 70
     1
102
RTVSPropertyOp14
 70
     1
102
RTVSPropertyOp15
 70
     1
102
RTVSPropertyOp16
 70
     1
102
RTVSPropertyOp17
 70
     1
102
RTVSPropertyOp18
 70
     1
102
RTVSPropertyOp19
 70
     1
102
RTVSPropertyOp20
 70
     1
102
RTVSPropertyOp21
 70
     1
102
RTVSPropertyOp22
 70
     1
102
RTVSPropertyOp23
 70
     1
102
RTVSPropertyOp24
 70
     1
102
RTVSPropertyOp25
 70
     1
102
RTVSPropertyOp26
 70
     1
102
RTVSPropertyOp27
 70
     1
102
RTVSPropertyOp28
 70
     1
102
RTVSPropertyOp29
 70
     1
102
RTVSPropertyOp30
 70
     1
102
RTVSPropertyOp31
 70
     1
102
RTVSPropertyOp32
 70
     1
102
RTVSPropertyOp33
 70
     1
102
RTVSPropertyOp34
 70
     1
102
RTVSPropertyOp35
 70
     1
102
RTVSPropertyOp36
 70
     1
102
RTVSPropertyOp37
 70
     1
102
RTVSPropertyOp38
 70
     1
102
RTVSPropertyOp39
 70
     1
102
RTVSPropertyOp40
 70
     1
102
RTVSPropertyOp41
 70
     1
102
RTVSPropertyOp42
 70
     1
102
RTVSPropertyOp43
 70
     1
102
RTVSPropertyOp44
 70
     1
102
RTVSPropertyOp45
 70
     1
102
RTVSPropertyOp46
 70
     1
102
RTVSPropertyOp47
 70
     1
102
RTVSPropertyOp48
 70
     1
102
RTVSPropertyOp49
 70
     1
102
RTVSPropertyOp50
 70
     1
102
RTVSPropertyOp51
 70
     0
102
RTVSPropertyOp52
 70
     0
102
RTVSPropertyOp53
 70
     1
102
RTVSPropertyOp54
 70
     1
102
RTVSPropertyOp55
 70
     1
102
RTVSPropertyOp56
 70
     1
102
RTVSPropertyOp57
 70
     1
102
RTVSPropertyOp58
 70
     1
102
RTVSPropertyOp59
 70
     1
102
RTVSPropertyOp60
 70
     1
102
RTVSPropertyOp61
 70
     1
102
RTVSPropertyOp62
 70
     1
  0
XRECORD
  5
BF10
102
{ACAD_REACTORS
330
BF0F
102
}
330
BF0F
100
AcDbXrecord
280
     1
102
RTVSPost2010Prop28
280
     0
102
RTVSPost2010PropOp28
 70
     1
102
RTVSPost2010Prop29
280
     1
102
RTVSPost2010PropOp29
 70
     1
102
RTVSPost2010Prop30
280
     1
102
RTVSPost2010PropOp30
 70
     1
102
RTVSPost2010Prop31
280
     0
102
RTVSPost2010PropOp31
 70
     1
102
RTVSPost2010Prop32
280
     0
102
RTVSPost2010PropOp32
 70
     1
102
RTVSPost2010Prop33
280
     0
102
RTVSPost2010PropOp33
 70
     1
102
RTVSPost2010Prop34
280
     0
102
RTVSPost2010PropOp34
 70
     1
102
RTVSPost2010Prop35
280
     0
102
RTVSPost2010PropOp35
 70
     1
102
RTVSPost2010Prop36
280
     0
102
RTVSPost2010PropOp36
 70
     1
102
RTVSPost2010Prop37
 90
       50
102
RTVSPost2010PropOp37
 70
     1
102
RTVSPost2010Prop38
140
0.0
102
RTVSPost2010PropOp38
 70
     1
102
RTVSPost2010Prop39
140
1.0
102
RTVSPost2010PropOp39
 70
     1
102
RTVSPost2010Prop40
 90
        0
102
RTVSPost2010PropOp40
 70
     1
102
RTVSPost2010Prop41ColorIndex
 90
       18
102
RTVSPost2010Prop41ColorRGB
 90
        0
102
RTVSPost2010PropOp41
 70
     1
102
RTVSPost2010Prop42
 90
       50
102
RTVSPost2010PropOp42
 70
     1
102
RTVSPost2010Prop43
 90
        3
102
RTVSPost2010PropOp43
 70
     1
102
RTVSPost2010Prop44ColorIndex
 90
        5
102
RTVSPost2010Prop44ColorRGB
 90
      255
102
RTVSPost2010PropOp44
 70
     1
102
RTVSPost2010Prop45
280
     0
102
RTVSPost2010PropOp45
 70
     1
102
RTVSPost2010Prop46
 90
       50
102
RTVSPost2010PropOp46
 70
     1
102
RTVSPost2010Prop47
 90
       50
102
RTVSPost2010PropOp47
 70
     1
102
RTVSPost2010Prop48
 90
       50
102
RTVSPost2010PropOp48
 70
     1
102
RTVSPost2010Prop49
280
     0
102
RTVSPost2010PropOp49
 70
     1
102
RTVSPost2010Prop50
 90
       50
102
RTVSPost2010PropOp50
 70
     1
102
RTVSPost2010Prop51ColorIndex
 90
      256
102
RTVSPost2010Prop51ColorRGB
 90
-16777216
102
RTVSPost2010PropOp51
 70
     0
102
RTVSPost2010Prop52
140
1.0
102
RTVSPost2010PropOp52
 70
     0
102
RTVSPost2010Prop53
 90
        2
102
RTVSPost2010PropOp53
 70
     1
102
RTVSPost2010Prop54
  1
strokes_ogs.tif
102
RTVSPost2010PropOp54
 70
     1
102
RTVSPost2010Prop55
280
     0
102
RTVSPost2010PropOp55
 70
     1
102
RTVSPost2010Prop56
140
1.0
102
RTVSPost2010PropOp56
 70
     1
102
RTVSPost2010Prop57
140
1.0
102
RTVSPost2010PropOp57
 70
     1
102
RTVSPropertyOp0
 70
     1
102
RTVSPropertyOp1
 70
     1
102
RTVSPropertyOp2
 70
     1
102
RTVSPropertyOp3
 70
     1
102
RTVSPropertyOp4
 70
     1
102
RTVSPropertyOp5
 70
     1
102
RTVSPropertyOp6
 70
     1
102
RTVSPropertyOp7
 70
     1
102
RTVSPropertyOp8
 70
     1
102
RTVSPropertyOp9
 70
     1
102
RTVSPropertyOp10
 70
     1
102
RTVSPropertyOp11
 70
     1
102
RTVSPropertyOp12
 70
     1
102
RTVSPropertyOp13
 70
     1
102
RTVSPropertyOp14
 70
     1
102
RTVSPropertyOp15
 70
     1
102
RTVSPropertyOp16
 70
     1
102
RTVSPropertyOp17
 70
     1
102
RTVSPropertyOp18
 70
     1
102
RTVSPropertyOp19
 70
     1
102
RTVSPropertyOp20
 70
     1
102
RTVSPropertyOp21
 70
     1
102
RTVSPropertyOp22
 70
     1
102
RTVSPropertyOp23
 70
     1
102
RTVSPropertyOp24
 70
     1
102
RTVSPropertyOp25
 70
     1
102
RTVSPropertyOp26
 70
     1
102
RTVSPropertyOp27
 70
     1
102
RTVSPropertyOp28
 70
     1
102
RTVSPropertyOp29
 70
     1
102
RTVSPropertyOp30
 70
     1
102
RTVSPropertyOp31
 70
     1
102
RTVSPropertyOp32
 70
     1
102
RTVSPropertyOp33
 70
     1
102
RTVSPropertyOp34
 70
     1
102
RTVSPropertyOp35
 70
     1
102
RTVSPropertyOp36
 70
     1
102
RTVSPropertyOp37
 70
     1
102
RTVSPropertyOp38
 70
     1
102
RTVSPropertyOp39
 70
     1
102
RTVSPropertyOp40
 70
     1
102
RTVSPropertyOp41
 70
     1
102
RTVSPropertyOp42
 70
     1
102
RTVSPropertyOp43
 70
     1
102
RTVSPropertyOp44
 70
     1
102
RTVSPropertyOp45
 70
     1
102
RTVSPropertyOp46
 70
     1
102
RTVSPropertyOp47
 70
     1
102
RTVSPropertyOp48
 70
     1
102
RTVSPropertyOp49
 70
     1
102
RTVSPropertyOp50
 70
     1
102
RTVSPropertyOp51
 70
     0
102
RTVSPropertyOp52
 70
     0
102
RTVSPropertyOp53
 70
     1
102
RTVSPropertyOp54
 70
     1
102
RTVSPropertyOp55
 70
     1
102
RTVSPropertyOp56
 70
     1
102
RTVSPropertyOp57
 70
     1
102
RTVSPropertyOp58
 70
     1
102
RTVSPropertyOp59
 70
     1
102
RTVSPropertyOp60
 70
     1
102
RTVSPropertyOp61
 70
     1
102
RTVSPropertyOp62
 70
     1
  0
XRECORD
  5
BF2C
102
{ACAD_REACTORS
330
BF2B
102
}
330
BF2B
100
AcDbXrecord
280
     1
102
RTVSPost2010Prop28
280
     0
102
RTVSPost2010PropOp28
 70
     1
102
RTVSPost2010Prop29
280
     1
102
RTVSPost2010PropOp29
 70
     1
102
RTVSPost2010Prop30
280
     1
102
RTVSPost2010PropOp30
 70
     1
102
RTVSPost2010Prop31
280
     0
102
RTVSPost2010PropOp31
 70
     1
102
RTVSPost2010Prop32
280
     0
102
RTVSPost2010PropOp32
 70
     1
102
RTVSPost2010Prop33
280
     0
102
RTVSPost2010PropOp33
 70
     1
102
RTVSPost2010Prop34
280
     0
102
RTVSPost2010PropOp34
 70
     1
102
RTVSPost2010Prop35
280
     0
102
RTVSPost2010PropOp35
 70
     1
102
RTVSPost2010Prop36
280
     0
102
RTVSPost2010PropOp36
 70
     1
102
RTVSPost2010Prop37
 90
       50
102
RTVSPost2010PropOp37
 70
     0
102
RTVSPost2010Prop38
140
0.0
102
RTVSPost2010PropOp38
 70
     0
102
RTVSPost2010Prop39
140
1.0
102
RTVSPost2010PropOp39
 70
     0
102
RTVSPost2010Prop40
 90
        0
102
RTVSPost2010PropOp40
 70
     0
102
RTVSPost2010Prop41ColorIndex
 90
       18
102
RTVSPost2010Prop41ColorRGB
 90
        0
102
RTVSPost2010PropOp41
 70
     0
102
RTVSPost2010Prop42
 90
       50
102
RTVSPost2010PropOp42
 70
     0
102
RTVSPost2010Prop43
 90
        3
102
RTVSPost2010PropOp43
 70
     0
102
RTVSPost2010Prop44ColorIndex
 90
        5
102
RTVSPost2010Prop44ColorRGB
 90
      255
102
RTVSPost2010PropOp44
 70
     0
102
RTVSPost2010Prop45
280
     0
102
RTVSPost2010PropOp45
 70
     1
102
RTVSPost2010Prop46
 90
       50
102
RTVSPost2010PropOp46
 70
     0
102
RTVSPost2010Prop47
 90
       50
102
RTVSPost2010PropOp47
 70
     0
102
RTVSPost2010Prop48
 90
       50
102
RTVSPost2010PropOp48
 70
     0
102
RTVSPost2010Prop49
280
     0
102
RTVSPost2010PropOp49
 70
     1
102
RTVSPost2010Prop50
 90
       50
102
RTVSPost2010PropOp50
 70
     0
102
RTVSPost2010Prop51ColorIndex
 90
      256
102
RTVSPost2010Prop51ColorRGB
 90
-16777216
102
RTVSPost2010PropOp51
 70
     0
102
RTVSPost2010Prop52
140
1.0
102
RTVSPost2010PropOp52
 70
     0
102
RTVSPost2010Prop53
 90
        2
102
RTVSPost2010PropOp53
 70
     0
102
RTVSPost2010Prop54
  1
strokes_ogs.tif
102
RTVSPost2010PropOp54
 70
     0
102
RTVSPost2010Prop55
280
     0
102
RTVSPost2010PropOp55
 70
     1
102
RTVSPost2010Prop56
140
1.0
102
RTVSPost2010PropOp56
 70
     0
102
RTVSPost2010Prop57
140
1.0
102
RTVSPost2010PropOp57
 70
     0
102
RTVSPropertyOp0
 70
     0
102
RTVSPropertyOp1
 70
     0
102
RTVSPropertyOp2
 70
     0
102
RTVSPropertyOp3
 70
     0
102
RTVSPropertyOp4
 70
     0
102
RTVSPropertyOp5
 70
     0
102
RTVSPropertyOp6
 70
     0
102
RTVSPropertyOp7
 70
     0
102
RTVSPropertyOp8
 70
     0
102
RTVSPropertyOp9
 70
     0
102
RTVSPropertyOp10
 70
     0
102
RTVSPropertyOp11
 70
     0
102
RTVSPropertyOp12
 70
     0
102
RTVSPropertyOp13
 70
     0
102
RTVSPropertyOp14
 70
     2
102
RTVSPropertyOp15
 70
     0
102
RTVSPropertyOp16
 70
     0
102
RTVSPropertyOp17
 70
     0
102
RTVSPropertyOp18
 70
     0
102
RTVSPropertyOp19
 70
     0
102
RTVSPropertyOp20
 70
     0
102
RTVSPropertyOp21
 70
     0
102
RTVSPropertyOp22
 70
     0
102
RTVSPropertyOp23
 70
     0
102
RTVSPropertyOp24
 70
     0
102
RTVSPropertyOp25
 70
     0
102
RTVSPropertyOp26
 70
     0
102
RTVSPropertyOp27
 70
     0
102
RTVSPropertyOp28
 70
     1
102
RTVSPropertyOp29
 70
     1
102
RTVSPropertyOp30
 70
     1
102
RTVSPropertyOp31
 70
     1
102
RTVSPropertyOp32
 70
     1
102
RTVSPropertyOp33
 70
     1
102
RTVSPropertyOp34
 70
     1
102
RTVSPropertyOp35
 70
     1
102
RTVSPropertyOp36
 70
     1
102
RTVSPropertyOp37
 70
     0
102
RTVSPropertyOp38
 70
     0
102
RTVSPropertyOp39
 70
     0
102
RTVSPropertyOp40
 70
     0
102
RTVSPropertyOp41
 70
     0
102
RTVSPropertyOp42
 70
     0
102
RTVSPropertyOp43
 70
     0
102
RTVSPropertyOp44
 70
     0
102
RTVSPropertyOp45
 70
     1
102
RTVSPropertyOp46
 70
     0
102
RTVSPropertyOp47
 70
     0
102
RTVSPropertyOp48
 70
     0
102
RTVSPropertyOp49
 70
     1
102
RTVSPropertyOp50
 70
     0
102
RTVSPropertyOp51
 70
     0
102
RTVSPropertyOp52
 70
     0
102
RTVSPropertyOp53
 70
     0
102
RTVSPropertyOp54
 70
     0
102
RTVSPropertyOp55
 70
     1
102
RTVSPropertyOp56
 70
     0
102
RTVSPropertyOp57
 70
     0
102
RTVSPropertyOp58
 70
     0
102
RTVSPropertyOp59
 70
     0
102
RTVSPropertyOp60
 70
     0
102
RTVSPropertyOp61
 70
     0
102
RTVSPropertyOp62
 70
     0
  0
XRECORD
  5
BF1C
102
{ACAD_REACTORS
330
BF1B
102
}
330
BF1B
100
AcDbXrecord
280
     1
102
RTVSPost2010Prop28
280
     0
102
RTVSPost2010PropOp28
 70
     1
102
RTVSPost2010Prop29
280
     1
102
RTVSPost2010PropOp29
 70
     1
102
RTVSPost2010Prop30
280
     1
102
RTVSPost2010PropOp30
 70
     1
102
RTVSPost2010Prop31
280
     0
102
RTVSPost2010PropOp31
 70
     1
102
RTVSPost2010Prop32
280
     0
102
RTVSPost2010PropOp32
 70
     1
102
RTVSPost2010Prop33
280
     0
102
RTVSPost2010PropOp33
 70
     1
102
RTVSPost2010Prop34
280
     0
102
RTVSPost2010PropOp34
 70
     1
102
RTVSPost2010Prop35
280
     0
102
RTVSPost2010PropOp35
 70
     1
102
RTVSPost2010Prop36
280
     0
102
RTVSPost2010PropOp36
 70
     1
102
RTVSPost2010Prop37
 90
       50
102
RTVSPost2010PropOp37
 70
     1
102
RTVSPost2010Prop38
140
0.0
102
RTVSPost2010PropOp38
 70
     1
102
RTVSPost2010Prop39
140
1.0
102
RTVSPost2010PropOp39
 70
     1
102
RTVSPost2010Prop40
 90
        0
102
RTVSPost2010PropOp40
 70
     1
102
RTVSPost2010Prop41ColorIndex
 90
       18
102
RTVSPost2010Prop41ColorRGB
 90
        0
102
RTVSPost2010PropOp41
 70
     1
102
RTVSPost2010Prop42
 90
       50
102
RTVSPost2010PropOp42
 70
     1
102
RTVSPost2010Prop43
 90
        3
102
RTVSPost2010PropOp43
 70
     1
102
RTVSPost2010Prop44ColorIndex
 90
        5
102
RTVSPost2010Prop44ColorRGB
 90
      255
102
RTVSPost2010PropOp44
 70
     1
102
RTVSPost2010Prop45
280
     0
102
RTVSPost2010PropOp45
 70
     1
102
RTVSPost2010Prop46
 90
       50
102
RTVSPost2010PropOp46
 70
     1
102
RTVSPost2010Prop47
 90
       50
102
RTVSPost2010PropOp47
 70
     1
102
RTVSPost2010Prop48
 90
       50
102
RTVSPost2010PropOp48
 70
     1
102
RTVSPost2010Prop49
280
     0
102
RTVSPost2010PropOp49
 70
     1
102
RTVSPost2010Prop50
 90
       50
102
RTVSPost2010PropOp50
 70
     1
102
RTVSPost2010Prop51ColorIndex
 90
      256
102
RTVSPost2010Prop51ColorRGB
 90
-16777216
102
RTVSPost2010PropOp51
 70
     0
102
RTVSPost2010Prop52
140
1.0
102
RTVSPost2010PropOp52
 70
     0
102
RTVSPost2010Prop53
 90
        2
102
RTVSPost2010PropOp53
 70
     1
102
RTVSPost2010Prop54
  1
strokes_ogs.tif
102
RTVSPost2010PropOp54
 70
     1
102
RTVSPost2010Prop55
280
     0
102
RTVSPost2010PropOp55
 70
     1
102
RTVSPost2010Prop56
140
1.0
102
RTVSPost2010PropOp56
 70
     1
102
RTVSPost2010Prop57
140
1.0
102
RTVSPost2010PropOp57
 70
     1
102
RTVSPropertyOp0
 70
     1
102
RTVSPropertyOp1
 70
     1
102
RTVSPropertyOp2
 70
     1
102
RTVSPropertyOp3
 70
     1
102
RTVSPropertyOp4
 70
     1
102
RTVSPropertyOp5
 70
     1
102
RTVSPropertyOp6
 70
     1
102
RTVSPropertyOp7
 70
     1
102
RTVSPropertyOp8
 70
     1
102
RTVSPropertyOp9
 70
     1
102
RTVSPropertyOp10
 70
     1
102
RTVSPropertyOp11
 70
     1
102
RTVSPropertyOp12
 70
     1
102
RTVSPropertyOp13
 70
     1
102
RTVSPropertyOp14
 70
     1
102
RTVSPropertyOp15
 70
     1
102
RTVSPropertyOp16
 70
     1
102
RTVSPropertyOp17
 70
     1
102
RTVSPropertyOp18
 70
     1
102
RTVSPropertyOp19
 70
     1
102
RTVSPropertyOp20
 70
     1
102
RTVSPropertyOp21
 70
     1
102
RTVSPropertyOp22
 70
     1
102
RTVSPropertyOp23
 70
     1
102
RTVSPropertyOp24
 70
     1
102
RTVSPropertyOp25
 70
     1
102
RTVSPropertyOp26
 70
     1
102
RTVSPropertyOp27
 70
     1
102
RTVSPropertyOp28
 70
     1
102
RTVSPropertyOp29
 70
     1
102
RTVSPropertyOp30
 70
     1
102
RTVSPropertyOp31
 70
     1
102
RTVSPropertyOp32
 70
     1
102
RTVSPropertyOp33
 70
     1
102
RTVSPropertyOp34
 70
     1
102
RTVSPropertyOp35
 70
     1
102
RTVSPropertyOp36
 70
     1
102
RTVSPropertyOp37
 70
     1
102
RTVSPropertyOp38
 70
     1
102
RTVSPropertyOp39
 70
     1
102
RTVSPropertyOp40
 70
     1
102
RTVSPropertyOp41
 70
     1
102
RTVSPropertyOp42
 70
     1
102
RTVSPropertyOp43
 70
     1
102
RTVSPropertyOp44
 70
     1
102
RTVSPropertyOp45
 70
     1
102
RTVSPropertyOp46
 70
     1
102
RTVSPropertyOp47
 70
     1
102
RTVSPropertyOp48
 70
     1
102
RTVSPropertyOp49
 70
     1
102
RTVSPropertyOp50
 70
     1
102
RTVSPropertyOp51
 70
     0
102
RTVSPropertyOp52
 70
     0
102
RTVSPropertyOp53
 70
     1
102
RTVSPropertyOp54
 70
     1
102
RTVSPropertyOp55
 70
     1
102
RTVSPropertyOp56
 70
     1
102
RTVSPropertyOp57
 70
     1
102
RTVSPropertyOp58
 70
     1
102
RTVSPropertyOp59
 70
     1
102
RTVSPropertyOp60
 70
     1
102
RTVSPropertyOp61
 70
     1
102
RTVSPropertyOp62
 70
     1
  0
XRECORD
  5
BF2E
102
{ACAD_REACTORS
330
BF2D
102
}
330
BF2D
100
AcDbXrecord
280
     1
102
RTVSPost2010Prop28
280
     0
102
RTVSPost2010PropOp28
 70
     1
102
RTVSPost2010Prop29
280
     1
102
RTVSPost2010PropOp29
 70
     1
102
RTVSPost2010Prop30
280
     1
102
RTVSPost2010PropOp30
 70
     1
102
RTVSPost2010Prop31
280
     0
102
RTVSPost2010PropOp31
 70
     1
102
RTVSPost2010Prop32
280
     0
102
RTVSPost2010PropOp32
 70
     1
102
RTVSPost2010Prop33
280
     0
102
RTVSPost2010PropOp33
 70
     1
102
RTVSPost2010Prop34
280
     0
102
RTVSPost2010PropOp34
 70
     1
102
RTVSPost2010Prop35
280
     0
102
RTVSPost2010PropOp35
 70
     1
102
RTVSPost2010Prop36
280
     0
102
RTVSPost2010PropOp36
 70
     1
102
RTVSPost2010Prop37
 90
       50
102
RTVSPost2010PropOp37
 70
     0
102
RTVSPost2010Prop38
140
0.0
102
RTVSPost2010PropOp38
 70
     0
102
RTVSPost2010Prop39
140
1.0
102
RTVSPost2010PropOp39
 70
     0
102
RTVSPost2010Prop40
 90
        0
102
RTVSPost2010PropOp40
 70
     0
102
RTVSPost2010Prop41ColorIndex
 90
       18
102
RTVSPost2010Prop41ColorRGB
 90
        0
102
RTVSPost2010PropOp41
 70
     0
102
RTVSPost2010Prop42
 90
       50
102
RTVSPost2010PropOp42
 70
     0
102
RTVSPost2010Prop43
 90
        3
102
RTVSPost2010PropOp43
 70
     0
102
RTVSPost2010Prop44ColorIndex
 90
        5
102
RTVSPost2010Prop44ColorRGB
 90
      255
102
RTVSPost2010PropOp44
 70
     0
102
RTVSPost2010Prop45
280
     0
102
RTVSPost2010PropOp45
 70
     1
102
RTVSPost2010Prop46
 90
       50
102
RTVSPost2010PropOp46
 70
     0
102
RTVSPost2010Prop47
 90
       50
102
RTVSPost2010PropOp47
 70
     0
102
RTVSPost2010Prop48
 90
       50
102
RTVSPost2010PropOp48
 70
     0
102
RTVSPost2010Prop49
280
     0
102
RTVSPost2010PropOp49
 70
     1
102
RTVSPost2010Prop50
 90
       50
102
RTVSPost2010PropOp50
 70
     0
102
RTVSPost2010Prop51ColorIndex
 90
      256
102
RTVSPost2010Prop51ColorRGB
 90
-16777216
102
RTVSPost2010PropOp51
 70
     0
102
RTVSPost2010Prop52
140
1.0
102
RTVSPost2010PropOp52
 70
     0
102
RTVSPost2010Prop53
 90
        2
102
RTVSPost2010PropOp53
 70
     0
102
RTVSPost2010Prop54
  1
strokes_ogs.tif
102
RTVSPost2010PropOp54
 70
     0
102
RTVSPost2010Prop55
280
     0
102
RTVSPost2010PropOp55
 70
     1
102
RTVSPost2010Prop56
140
1.0
102
RTVSPost2010PropOp56
 70
     0
102
RTVSPost2010Prop57
140
1.0
102
RTVSPost2010PropOp57
 70
     0
102
RTVSPropertyOp0
 70
     0
102
RTVSPropertyOp1
 70
     0
102
RTVSPropertyOp2
 70
     0
102
RTVSPropertyOp3
 70
     0
102
RTVSPropertyOp4
 70
     0
102
RTVSPropertyOp5
 70
     0
102
RTVSPropertyOp6
 70
     0
102
RTVSPropertyOp7
 70
     0
102
RTVSPropertyOp8
 70
     0
102
RTVSPropertyOp9
 70
     0
102
RTVSPropertyOp10
 70
     0
102
RTVSPropertyOp11
 70
     0
102
RTVSPropertyOp12
 70
     0
102
RTVSPropertyOp13
 70
     0
102
RTVSPropertyOp14
 70
     2
102
RTVSPropertyOp15
 70
     0
102
RTVSPropertyOp16
 70
     0
102
RTVSPropertyOp17
 70
     0
102
RTVSPropertyOp18
 70
     0
102
RTVSPropertyOp19
 70
     0
102
RTVSPropertyOp20
 70
     0
102
RTVSPropertyOp21
 70
     0
102
RTVSPropertyOp22
 70
     0
102
RTVSPropertyOp23
 70
     0
102
RTVSPropertyOp24
 70
     0
102
RTVSPropertyOp25
 70
     0
102
RTVSPropertyOp26
 70
     0
102
RTVSPropertyOp27
 70
     0
102
RTVSPropertyOp28
 70
     1
102
RTVSPropertyOp29
 70
     1
102
RTVSPropertyOp30
 70
     1
102
RTVSPropertyOp31
 70
     1
102
RTVSPropertyOp32
 70
     1
102
RTVSPropertyOp33
 70
     1
102
RTVSPropertyOp34
 70
     1
102
RTVSPropertyOp35
 70
     1
102
RTVSPropertyOp36
 70
     1
102
RTVSPropertyOp37
 70
     0
102
RTVSPropertyOp38
 70
     0
102
RTVSPropertyOp39
 70
     0
102
RTVSPropertyOp40
 70
     0
102
RTVSPropertyOp41
 70
     0
102
RTVSPropertyOp42
 70
     0
102
RTVSPropertyOp43
 70
     0
102
RTVSPropertyOp44
 70
     0
102
RTVSPropertyOp45
 70
     1
102
RTVSPropertyOp46
 70
     0
102
RTVSPropertyOp47
 70
     0
102
RTVSPropertyOp48
 70
     0
102
RTVSPropertyOp49
 70
     1
102
RTVSPropertyOp50
 70
     0
102
RTVSPropertyOp51
 70
     0
102
RTVSPropertyOp52
 70
     0
102
RTVSPropertyOp53
 70
     0
102
RTVSPropertyOp54
 70
     0
102
RTVSPropertyOp55
 70
     1
102
RTVSPropertyOp56
 70
     0
102
RTVSPropertyOp57
 70
     0
102
RTVSPropertyOp58
 70
     0
102
RTVSPropertyOp59
 70
     0
102
RTVSPropertyOp60
 70
     0
102
RTVSPropertyOp61
 70
     0
102
RTVSPropertyOp62
 70
     0
  0
XRECORD
  5
BF14
102
{ACAD_REACTORS
330
BF13
102
}
330
BF13
100
AcDbXrecord
280
     1
102
RTVSPost2010Prop28
280
     0
102
RTVSPost2010PropOp28
 70
     1
102
RTVSPost2010Prop29
280
     1
102
RTVSPost2010PropOp29
 70
     1
102
RTVSPost2010Prop30
280
     1
102
RTVSPost2010PropOp30
 70
     1
102
RTVSPost2010Prop31
280
     0
102
RTVSPost2010PropOp31
 70
     1
102
RTVSPost2010Prop32
280
     0
102
RTVSPost2010PropOp32
 70
     1
102
RTVSPost2010Prop33
280
     0
102
RTVSPost2010PropOp33
 70
     1
102
RTVSPost2010Prop34
280
     0
102
RTVSPost2010PropOp34
 70
     1
102
RTVSPost2010Prop35
280
     0
102
RTVSPost2010PropOp35
 70
     1
102
RTVSPost2010Prop36
280
     0
102
RTVSPost2010PropOp36
 70
     1
102
RTVSPost2010Prop37
 90
       50
102
RTVSPost2010PropOp37
 70
     1
102
RTVSPost2010Prop38
140
0.0
102
RTVSPost2010PropOp38
 70
     1
102
RTVSPost2010Prop39
140
1.0
102
RTVSPost2010PropOp39
 70
     1
102
RTVSPost2010Prop40
 90
        0
102
RTVSPost2010PropOp40
 70
     1
102
RTVSPost2010Prop41ColorIndex
 90
       18
102
RTVSPost2010Prop41ColorRGB
 90
        0
102
RTVSPost2010PropOp41
 70
     1
102
RTVSPost2010Prop42
 90
       50
102
RTVSPost2010PropOp42
 70
     1
102
RTVSPost2010Prop43
 90
        3
102
RTVSPost2010PropOp43
 70
     1
102
RTVSPost2010Prop44ColorIndex
 90
        5
102
RTVSPost2010Prop44ColorRGB
 90
      255
102
RTVSPost2010PropOp44
 70
     1
102
RTVSPost2010Prop45
280
     0
102
RTVSPost2010PropOp45
 70
     1
102
RTVSPost2010Prop46
 90
       50
102
RTVSPost2010PropOp46
 70
     1
102
RTVSPost2010Prop47
 90
       50
102
RTVSPost2010PropOp47
 70
     1
102
RTVSPost2010Prop48
 90
       50
102
RTVSPost2010PropOp48
 70
     1
102
RTVSPost2010Prop49
280
     0
102
RTVSPost2010PropOp49
 70
     1
102
RTVSPost2010Prop50
 90
       50
102
RTVSPost2010PropOp50
 70
     1
102
RTVSPost2010Prop51ColorIndex
 90
      256
102
RTVSPost2010Prop51ColorRGB
 90
-16777216
102
RTVSPost2010PropOp51
 70
     0
102
RTVSPost2010Prop52
140
1.0
102
RTVSPost2010PropOp52
 70
     0
102
RTVSPost2010Prop53
 90
        2
102
RTVSPost2010PropOp53
 70
     1
102
RTVSPost2010Prop54
  1
strokes_ogs.tif
102
RTVSPost2010PropOp54
 70
     1
102
RTVSPost2010Prop55
280
     0
102
RTVSPost2010PropOp55
 70
     1
102
RTVSPost2010Prop56
140
1.0
102
RTVSPost2010PropOp56
 70
     1
102
RTVSPost2010Prop57
140
1.0
102
RTVSPost2010PropOp57
 70
     1
102
RTVSPropertyOp0
 70
     1
102
RTVSPropertyOp1
 70
     1
102
RTVSPropertyOp2
 70
     1
102
RTVSPropertyOp3
 70
     1
102
RTVSPropertyOp4
 70
     1
102
RTVSPropertyOp5
 70
     1
102
RTVSPropertyOp6
 70
     1
102
RTVSPropertyOp7
 70
     1
102
RTVSPropertyOp8
 70
     1
102
RTVSPropertyOp9
 70
     1
102
RTVSPropertyOp10
 70
     1
102
RTVSPropertyOp11
 70
     1
102
RTVSPropertyOp12
 70
     1
102
RTVSPropertyOp13
 70
     1
102
RTVSPropertyOp14
 70
     1
102
RTVSPropertyOp15
 70
     1
102
RTVSPropertyOp16
 70
     1
102
RTVSPropertyOp17
 70
     1
102
RTVSPropertyOp18
 70
     1
102
RTVSPropertyOp19
 70
     1
102
RTVSPropertyOp20
 70
     1
102
RTVSPropertyOp21
 70
     1
102
RTVSPropertyOp22
 70
     1
102
RTVSPropertyOp23
 70
     1
102
RTVSPropertyOp24
 70
     1
102
RTVSPropertyOp25
 70
     1
102
RTVSPropertyOp26
 70
     1
102
RTVSPropertyOp27
 70
     1
102
RTVSPropertyOp28
 70
     1
102
RTVSPropertyOp29
 70
     1
102
RTVSPropertyOp30
 70
     1
102
RTVSPropertyOp31
 70
     1
102
RTVSPropertyOp32
 70
     1
102
RTVSPropertyOp33
 70
     1
102
RTVSPropertyOp34
 70
     1
102
RTVSPropertyOp35
 70
     1
102
RTVSPropertyOp36
 70
     1
102
RTVSPropertyOp37
 70
     1
102
RTVSPropertyOp38
 70
     1
102
RTVSPropertyOp39
 70
     1
102
RTVSPropertyOp40
 70
     1
102
RTVSPropertyOp41
 70
     1
102
RTVSPropertyOp42
 70
     1
102
RTVSPropertyOp43
 70
     1
102
RTVSPropertyOp44
 70
     1
102
RTVSPropertyOp45
 70
     1
102
RTVSPropertyOp46
 70
     1
102
RTVSPropertyOp47
 70
     1
102
RTVSPropertyOp48
 70
     1
102
RTVSPropertyOp49
 70
     1
102
RTVSPropertyOp50
 70
     1
102
RTVSPropertyOp51
 70
     0
102
RTVSPropertyOp52
 70
     0
102
RTVSPropertyOp53
 70
     1
102
RTVSPropertyOp54
 70
     1
102
RTVSPropertyOp55
 70
     1
102
RTVSPropertyOp56
 70
     1
102
RTVSPropertyOp57
 70
     1
102
RTVSPropertyOp58
 70
     1
102
RTVSPropertyOp59
 70
     1
102
RTVSPropertyOp60
 70
     1
102
RTVSPropertyOp61
 70
     1
102
RTVSPropertyOp62
 70
     1
  0
XRECORD
  5
BF2A
102
{ACAD_REACTORS
330
BF29
102
}
330
BF29
100
AcDbXrecord
280
     1
102
RTVSPost2010Prop28
280
     0
102
RTVSPost2010PropOp28
 70
     1
102
RTVSPost2010Prop29
280
     1
102
RTVSPost2010PropOp29
 70
     1
102
RTVSPost2010Prop30
280
     1
102
RTVSPost2010PropOp30
 70
     1
102
RTVSPost2010Prop31
280
     0
102
RTVSPost2010PropOp31
 70
     1
102
RTVSPost2010Prop32
280
     0
102
RTVSPost2010PropOp32
 70
     1
102
RTVSPost2010Prop33
280
     0
102
RTVSPost2010PropOp33
 70
     1
102
RTVSPost2010Prop34
280
     0
102
RTVSPost2010PropOp34
 70
     1
102
RTVSPost2010Prop35
280
     0
102
RTVSPost2010PropOp35
 70
     1
102
RTVSPost2010Prop36
280
     0
102
RTVSPost2010PropOp36
 70
     1
102
RTVSPost2010Prop37
 90
       50
102
RTVSPost2010PropOp37
 70
     1
102
RTVSPost2010Prop38
140
0.0
102
RTVSPost2010PropOp38
 70
     1
102
RTVSPost2010Prop39
140
1.0
102
RTVSPost2010PropOp39
 70
     1
102
RTVSPost2010Prop40
 90
        0
102
RTVSPost2010PropOp40
 70
     1
102
RTVSPost2010Prop41ColorIndex
 90
       18
102
RTVSPost2010Prop41ColorRGB
 90
        0
102
RTVSPost2010PropOp41
 70
     1
102
RTVSPost2010Prop42
 90
       50
102
RTVSPost2010PropOp42
 70
     1
102
RTVSPost2010Prop43
 90
        3
102
RTVSPost2010PropOp43
 70
     1
102
RTVSPost2010Prop44ColorIndex
 90
        5
102
RTVSPost2010Prop44ColorRGB
 90
      255
102
RTVSPost2010PropOp44
 70
     1
102
RTVSPost2010Prop45
280
     0
102
RTVSPost2010PropOp45
 70
     1
102
RTVSPost2010Prop46
 90
       50
102
RTVSPost2010PropOp46
 70
     1
102
RTVSPost2010Prop47
 90
       50
102
RTVSPost2010PropOp47
 70
     1
102
RTVSPost2010Prop48
 90
       50
102
RTVSPost2010PropOp48
 70
     1
102
RTVSPost2010Prop49
280
     0
102
RTVSPost2010PropOp49
 70
     1
102
RTVSPost2010Prop50
 90
       50
102
RTVSPost2010PropOp50
 70
     1
102
RTVSPost2010Prop51ColorIndex
 90
      256
102
RTVSPost2010Prop51ColorRGB
 90
-16777216
102
RTVSPost2010PropOp51
 70
     0
102
RTVSPost2010Prop52
140
1.0
102
RTVSPost2010PropOp52
 70
     0
102
RTVSPost2010Prop53
 90
        2
102
RTVSPost2010PropOp53
 70
     1
102
RTVSPost2010Prop54
  1
strokes_ogs.tif
102
RTVSPost2010PropOp54
 70
     1
102
RTVSPost2010Prop55
280
     0
102
RTVSPost2010PropOp55
 70
     1
102
RTVSPost2010Prop56
140
1.0
102
RTVSPost2010PropOp56
 70
     1
102
RTVSPost2010Prop57
140
1.0
102
RTVSPost2010PropOp57
 70
     1
102
RTVSPropertyOp0
 70
     1
102
RTVSPropertyOp1
 70
     1
102
RTVSPropertyOp2
 70
     1
102
RTVSPropertyOp3
 70
     1
102
RTVSPropertyOp4
 70
     1
102
RTVSPropertyOp5
 70
     1
102
RTVSPropertyOp6
 70
     1
102
RTVSPropertyOp7
 70
     1
102
RTVSPropertyOp8
 70
     1
102
RTVSPropertyOp9
 70
     1
102
RTVSPropertyOp10
 70
     1
102
RTVSPropertyOp11
 70
     1
102
RTVSPropertyOp12
 70
     1
102
RTVSPropertyOp13
 70
     1
102
RTVSPropertyOp14
 70
     1
102
RTVSPropertyOp15
 70
     1
102
RTVSPropertyOp16
 70
     1
102
RTVSPropertyOp17
 70
     1
102
RTVSPropertyOp18
 70
     1
102
RTVSPropertyOp19
 70
     1
102
RTVSPropertyOp20
 70
     1
102
RTVSPropertyOp21
 70
     1
102
RTVSPropertyOp22
 70
     1
102
RTVSPropertyOp23
 70
     1
102
RTVSPropertyOp24
 70
     1
102
RTVSPropertyOp25
 70
     1
102
RTVSPropertyOp26
 70
     1
102
RTVSPropertyOp27
 70
     1
102
RTVSPropertyOp28
 70
     1
102
RTVSPropertyOp29
 70
     1
102
RTVSPropertyOp30
 70
     1
102
RTVSPropertyOp31
 70
     1
102
RTVSPropertyOp32
 70
     1
102
RTVSPropertyOp33
 70
     1
102
RTVSPropertyOp34
 70
     1
102
RTVSPropertyOp35
 70
     1
102
RTVSPropertyOp36
 70
     1
102
RTVSPropertyOp37
 70
     1
102
RTVSPropertyOp38
 70
     1
102
RTVSPropertyOp39
 70
     1
102
RTVSPropertyOp40
 70
     1
102
RTVSPropertyOp41
 70
     1
102
RTVSPropertyOp42
 70
     1
102
RTVSPropertyOp43
 70
     1
102
RTVSPropertyOp44
 70
     1
102
RTVSPropertyOp45
 70
     1
102
RTVSPropertyOp46
 70
     1
102
RTVSPropertyOp47
 70
     1
102
RTVSPropertyOp48
 70
     1
102
RTVSPropertyOp49
 70
     1
102
RTVSPropertyOp50
 70
     1
102
RTVSPropertyOp51
 70
     0
102
RTVSPropertyOp52
 70
     0
102
RTVSPropertyOp53
 70
     1
102
RTVSPropertyOp54
 70
     1
102
RTVSPropertyOp55
 70
     1
102
RTVSPropertyOp56
 70
     1
102
RTVSPropertyOp57
 70
     1
102
RTVSPropertyOp58
 70
     1
102
RTVSPropertyOp59
 70
     1
102
RTVSPropertyOp60
 70
     1
102
RTVSPropertyOp61
 70
     1
102
RTVSPropertyOp62
 70
     1
  0
XRECORD
  5
BF28
102
{ACAD_REACTORS
330
BF27
102
}
330
BF27
100
AcDbXrecord
280
     1
102
RTVSPost2010Prop28
280
     0
102
RTVSPost2010PropOp28
 70
     1
102
RTVSPost2010Prop29
280
     1
102
RTVSPost2010PropOp29
 70
     1
102
RTVSPost2010Prop30
280
     1
102
RTVSPost2010PropOp30
 70
     1
102
RTVSPost2010Prop31
280
     0
102
RTVSPost2010PropOp31
 70
     1
102
RTVSPost2010Prop32
280
     0
102
RTVSPost2010PropOp32
 70
     1
102
RTVSPost2010Prop33
280
     0
102
RTVSPost2010PropOp33
 70
     1
102
RTVSPost2010Prop34
280
     0
102
RTVSPost2010PropOp34
 70
     1
102
RTVSPost2010Prop35
280
     0
102
RTVSPost2010PropOp35
 70
     1
102
RTVSPost2010Prop36
280
     0
102
RTVSPost2010PropOp36
 70
     1
102
RTVSPost2010Prop37
 90
       50
102
RTVSPost2010PropOp37
 70
     1
102
RTVSPost2010Prop38
140
0.0
102
RTVSPost2010PropOp38
 70
     1
102
RTVSPost2010Prop39
140
1.0
102
RTVSPost2010PropOp39
 70
     1
102
RTVSPost2010Prop40
 90
        0
102
RTVSPost2010PropOp40
 70
     1
102
RTVSPost2010Prop41ColorIndex
 90
       18
102
RTVSPost2010Prop41ColorRGB
 90
        0
102
RTVSPost2010PropOp41
 70
     1
102
RTVSPost2010Prop42
 90
       50
102
RTVSPost2010PropOp42
 70
     1
102
RTVSPost2010Prop43
 90
        3
102
RTVSPost2010PropOp43
 70
     1
102
RTVSPost2010Prop44ColorIndex
 90
        5
102
RTVSPost2010Prop44ColorRGB
 90
      255
102
RTVSPost2010PropOp44
 70
     1
102
RTVSPost2010Prop45
280
     0
102
RTVSPost2010PropOp45
 70
     1
102
RTVSPost2010Prop46
 90
       50
102
RTVSPost2010PropOp46
 70
     1
102
RTVSPost2010Prop47
 90
       50
102
RTVSPost2010PropOp47
 70
     1
102
RTVSPost2010Prop48
 90
       50
102
RTVSPost2010PropOp48
 70
     1
102
RTVSPost2010Prop49
280
     0
102
RTVSPost2010PropOp49
 70
     1
102
RTVSPost2010Prop50
 90
       50
102
RTVSPost2010PropOp50
 70
     1
102
RTVSPost2010Prop51ColorIndex
 90
      256
102
RTVSPost2010Prop51ColorRGB
 90
-16777216
102
RTVSPost2010PropOp51
 70
     0
102
RTVSPost2010Prop52
140
1.0
102
RTVSPost2010PropOp52
 70
     0
102
RTVSPost2010Prop53
 90
        2
102
RTVSPost2010PropOp53
 70
     1
102
RTVSPost2010Prop54
  1
strokes_ogs.tif
102
RTVSPost2010PropOp54
 70
     1
102
RTVSPost2010Prop55
280
     0
102
RTVSPost2010PropOp55
 70
     1
102
RTVSPost2010Prop56
140
1.0
102
RTVSPost2010PropOp56
 70
     1
102
RTVSPost2010Prop57
140
1.0
102
RTVSPost2010PropOp57
 70
     1
102
RTVSPropertyOp0
 70
     1
102
RTVSPropertyOp1
 70
     1
102
RTVSPropertyOp2
 70
     1
102
RTVSPropertyOp3
 70
     1
102
RTVSPropertyOp4
 70
     1
102
RTVSPropertyOp5
 70
     1
102
RTVSPropertyOp6
 70
     1
102
RTVSPropertyOp7
 70
     1
102
RTVSPropertyOp8
 70
     1
102
RTVSPropertyOp9
 70
     1
102
RTVSPropertyOp10
 70
     1
102
RTVSPropertyOp11
 70
     1
102
RTVSPropertyOp12
 70
     1
102
RTVSPropertyOp13
 70
     1
102
RTVSPropertyOp14
 70
     1
102
RTVSPropertyOp15
 70
     1
102
RTVSPropertyOp16
 70
     1
102
RTVSPropertyOp17
 70
     1
102
RTVSPropertyOp18
 70
     1
102
RTVSPropertyOp19
 70
     1
102
RTVSPropertyOp20
 70
     1
102
RTVSPropertyOp21
 70
     1
102
RTVSPropertyOp22
 70
     1
102
RTVSPropertyOp23
 70
     1
102
RTVSPropertyOp24
 70
     1
102
RTVSPropertyOp25
 70
     1
102
RTVSPropertyOp26
 70
     1
102
RTVSPropertyOp27
 70
     1
102
RTVSPropertyOp28
 70
     1
102
RTVSPropertyOp29
 70
     1
102
RTVSPropertyOp30
 70
     1
102
RTVSPropertyOp31
 70
     1
102
RTVSPropertyOp32
 70
     1
102
RTVSPropertyOp33
 70
     1
102
RTVSPropertyOp34
 70
     1
102
RTVSPropertyOp35
 70
     1
102
RTVSPropertyOp36
 70
     1
102
RTVSPropertyOp37
 70
     1
102
RTVSPropertyOp38
 70
     1
102
RTVSPropertyOp39
 70
     1
102
RTVSPropertyOp40
 70
     1
102
RTVSPropertyOp41
 70
     1
102
RTVSPropertyOp42
 70
     1
102
RTVSPropertyOp43
 70
     1
102
RTVSPropertyOp44
 70
     1
102
RTVSPropertyOp45
 70
     1
102
RTVSPropertyOp46
 70
     1
102
RTVSPropertyOp47
 70
     1
102
RTVSPropertyOp48
 70
     1
102
RTVSPropertyOp49
 70
     1
102
RTVSPropertyOp50
 70
     1
102
RTVSPropertyOp51
 70
     0
102
RTVSPropertyOp52
 70
     0
102
RTVSPropertyOp53
 70
     1
102
RTVSPropertyOp54
 70
     1
102
RTVSPropertyOp55
 70
     1
102
RTVSPropertyOp56
 70
     1
102
RTVSPropertyOp57
 70
     1
102
RTVSPropertyOp58
 70
     1
102
RTVSPropertyOp59
 70
     1
102
RTVSPropertyOp60
 70
     1
102
RTVSPropertyOp61
 70
     1
102
RTVSPropertyOp62
 70
     1
  0
XRECORD
  5
BF22
102
{ACAD_REACTORS
330
BF21
102
}
330
BF21
100
AcDbXrecord
280
     1
102
RTVSPost2010Prop28
280
     0
102
RTVSPost2010PropOp28
 70
     1
102
RTVSPost2010Prop29
280
     1
102
RTVSPost2010PropOp29
 70
     1
102
RTVSPost2010Prop30
280
     1
102
RTVSPost2010PropOp30
 70
     1
102
RTVSPost2010Prop31
280
     0
102
RTVSPost2010PropOp31
 70
     1
102
RTVSPost2010Prop32
280
     0
102
RTVSPost2010PropOp32
 70
     1
102
RTVSPost2010Prop33
280
     0
102
RTVSPost2010PropOp33
 70
     1
102
RTVSPost2010Prop34
280
     0
102
RTVSPost2010PropOp34
 70
     1
102
RTVSPost2010Prop35
280
     0
102
RTVSPost2010PropOp35
 70
     1
102
RTVSPost2010Prop36
280
     0
102
RTVSPost2010PropOp36
 70
     1
102
RTVSPost2010Prop37
 90
       50
102
RTVSPost2010PropOp37
 70
     1
102
RTVSPost2010Prop38
140
0.0
102
RTVSPost2010PropOp38
 70
     1
102
RTVSPost2010Prop39
140
1.0
102
RTVSPost2010PropOp39
 70
     1
102
RTVSPost2010Prop40
 90
        0
102
RTVSPost2010PropOp40
 70
     1
102
RTVSPost2010Prop41ColorIndex
 90
       18
102
RTVSPost2010Prop41ColorRGB
 90
        0
102
RTVSPost2010PropOp41
 70
     1
102
RTVSPost2010Prop42
 90
       50
102
RTVSPost2010PropOp42
 70
     1
102
RTVSPost2010Prop43
 90
        3
102
RTVSPost2010PropOp43
 70
     1
102
RTVSPost2010Prop44ColorIndex
 90
        5
102
RTVSPost2010Prop44ColorRGB
 90
      255
102
RTVSPost2010PropOp44
 70
     1
102
RTVSPost2010Prop45
280
     0
102
RTVSPost2010PropOp45
 70
     1
102
RTVSPost2010Prop46
 90
       50
102
RTVSPost2010PropOp46
 70
     1
102
RTVSPost2010Prop47
 90
       50
102
RTVSPost2010PropOp47
 70
     1
102
RTVSPost2010Prop48
 90
       50
102
RTVSPost2010PropOp48
 70
     1
102
RTVSPost2010Prop49
280
     0
102
RTVSPost2010PropOp49
 70
     1
102
RTVSPost2010Prop50
 90
       50
102
RTVSPost2010PropOp50
 70
     1
102
RTVSPost2010Prop51ColorIndex
 90
      256
102
RTVSPost2010Prop51ColorRGB
 90
-16777216
102
RTVSPost2010PropOp51
 70
     0
102
RTVSPost2010Prop52
140
1.0
102
RTVSPost2010PropOp52
 70
     0
102
RTVSPost2010Prop53
 90
        2
102
RTVSPost2010PropOp53
 70
     1
102
RTVSPost2010Prop54
  1
strokes_ogs.tif
102
RTVSPost2010PropOp54
 70
     1
102
RTVSPost2010Prop55
280
     0
102
RTVSPost2010PropOp55
 70
     1
102
RTVSPost2010Prop56
140
1.0
102
RTVSPost2010PropOp56
 70
     1
102
RTVSPost2010Prop57
140
1.0
102
RTVSPost2010PropOp57
 70
     1
102
RTVSPropertyOp0
 70
     1
102
RTVSPropertyOp1
 70
     1
102
RTVSPropertyOp2
 70
     1
102
RTVSPropertyOp3
 70
     1
102
RTVSPropertyOp4
 70
     1
102
RTVSPropertyOp5
 70
     1
102
RTVSPropertyOp6
 70
     1
102
RTVSPropertyOp7
 70
     1
102
RTVSPropertyOp8
 70
     1
102
RTVSPropertyOp9
 70
     1
102
RTVSPropertyOp10
 70
     1
102
RTVSPropertyOp11
 70
     1
102
RTVSPropertyOp12
 70
     1
102
RTVSPropertyOp13
 70
     1
102
RTVSPropertyOp14
 70
     1
102
RTVSPropertyOp15
 70
     1
102
RTVSPropertyOp16
 70
     1
102
RTVSPropertyOp17
 70
     1
102
RTVSPropertyOp18
 70
     1
102
RTVSPropertyOp19
 70
     1
102
RTVSPropertyOp20
 70
     1
102
RTVSPropertyOp21
 70
     1
102
RTVSPropertyOp22
 70
     1
102
RTVSPropertyOp23
 70
     1
102
RTVSPropertyOp24
 70
     1
102
RTVSPropertyOp25
 70
     1
102
RTVSPropertyOp26
 70
     1
102
RTVSPropertyOp27
 70
     1
102
RTVSPropertyOp28
 70
     1
102
RTVSPropertyOp29
 70
     1
102
RTVSPropertyOp30
 70
     1
102
RTVSPropertyOp31
 70
     1
102
RTVSPropertyOp32
 70
     1
102
RTVSPropertyOp33
 70
     1
102
RTVSPropertyOp34
 70
     1
102
RTVSPropertyOp35
 70
     1
102
RTVSPropertyOp36
 70
     1
102
RTVSPropertyOp37
 70
     1
102
RTVSPropertyOp38
 70
     1
102
RTVSPropertyOp39
 70
     1
102
RTVSPropertyOp40
 70
     1
102
RTVSPropertyOp41
 70
     1
102
RTVSPropertyOp42
 70
     1
102
RTVSPropertyOp43
 70
     1
102
RTVSPropertyOp44
 70
     1
102
RTVSPropertyOp45
 70
     1
102
RTVSPropertyOp46
 70
     1
102
RTVSPropertyOp47
 70
     1
102
RTVSPropertyOp48
 70
     1
102
RTVSPropertyOp49
 70
     1
102
RTVSPropertyOp50
 70
     1
102
RTVSPropertyOp51
 70
     0
102
RTVSPropertyOp52
 70
     0
102
RTVSPropertyOp53
 70
     1
102
RTVSPropertyOp54
 70
     1
102
RTVSPropertyOp55
 70
     1
102
RTVSPropertyOp56
 70
     1
102
RTVSPropertyOp57
 70
     1
102
RTVSPropertyOp58
 70
     1
102
RTVSPropertyOp59
 70
     1
102
RTVSPropertyOp60
 70
     1
102
RTVSPropertyOp61
 70
     1
102
RTVSPropertyOp62
 70
     1
  0
XRECORD
  5
BF24
102
{ACAD_REACTORS
330
BF23
102
}
330
BF23
100
AcDbXrecord
280
     1
102
RTVSPost2010Prop28
280
     0
102
RTVSPost2010PropOp28
 70
     1
102
RTVSPost2010Prop29
280
     1
102
RTVSPost2010PropOp29
 70
     1
102
RTVSPost2010Prop30
280
     1
102
RTVSPost2010PropOp30
 70
     1
102
RTVSPost2010Prop31
280
     0
102
RTVSPost2010PropOp31
 70
     1
102
RTVSPost2010Prop32
280
     0
102
RTVSPost2010PropOp32
 70
     1
102
RTVSPost2010Prop33
280
     0
102
RTVSPost2010PropOp33
 70
     1
102
RTVSPost2010Prop34
280
     0
102
RTVSPost2010PropOp34
 70
     1
102
RTVSPost2010Prop35
280
     0
102
RTVSPost2010PropOp35
 70
     1
102
RTVSPost2010Prop36
280
     0
102
RTVSPost2010PropOp36
 70
     1
102
RTVSPost2010Prop37
 90
       50
102
RTVSPost2010PropOp37
 70
     1
102
RTVSPost2010Prop38
140
0.0
102
RTVSPost2010PropOp38
 70
     1
102
RTVSPost2010Prop39
140
1.0
102
RTVSPost2010PropOp39
 70
     1
102
RTVSPost2010Prop40
 90
        0
102
RTVSPost2010PropOp40
 70
     1
102
RTVSPost2010Prop41ColorIndex
 90
       18
102
RTVSPost2010Prop41ColorRGB
 90
        0
102
RTVSPost2010PropOp41
 70
     1
102
RTVSPost2010Prop42
 90
       50
102
RTVSPost2010PropOp42
 70
     1
102
RTVSPost2010Prop43
 90
        3
102
RTVSPost2010PropOp43
 70
     1
102
RTVSPost2010Prop44ColorIndex
 90
        5
102
RTVSPost2010Prop44ColorRGB
 90
      255
102
RTVSPost2010PropOp44
 70
     1
102
RTVSPost2010Prop45
280
     0
102
RTVSPost2010PropOp45
 70
     1
102
RTVSPost2010Prop46
 90
       50
102
RTVSPost2010PropOp46
 70
     1
102
RTVSPost2010Prop47
 90
       50
102
RTVSPost2010PropOp47
 70
     1
102
RTVSPost2010Prop48
 90
       50
102
RTVSPost2010PropOp48
 70
     1
102
RTVSPost2010Prop49
280
     0
102
RTVSPost2010PropOp49
 70
     1
102
RTVSPost2010Prop50
 90
       50
102
RTVSPost2010PropOp50
 70
     1
102
RTVSPost2010Prop51ColorIndex
 90
      256
102
RTVSPost2010Prop51ColorRGB
 90
-16777216
102
RTVSPost2010PropOp51
 70
     0
102
RTVSPost2010Prop52
140
1.0
102
RTVSPost2010PropOp52
 70
     0
102
RTVSPost2010Prop53
 90
        2
102
RTVSPost2010PropOp53
 70
     1
102
RTVSPost2010Prop54
  1
strokes_ogs.tif
102
RTVSPost2010PropOp54
 70
     1
102
RTVSPost2010Prop55
280
     0
102
RTVSPost2010PropOp55
 70
     1
102
RTVSPost2010Prop56
140
1.0
102
RTVSPost2010PropOp56
 70
     1
102
RTVSPost2010Prop57
140
1.0
102
RTVSPost2010PropOp57
 70
     1
102
RTVSPropertyOp0
 70
     1
102
RTVSPropertyOp1
 70
     1
102
RTVSPropertyOp2
 70
     1
102
RTVSPropertyOp3
 70
     1
102
RTVSPropertyOp4
 70
     1
102
RTVSPropertyOp5
 70
     1
102
RTVSPropertyOp6
 70
     1
102
RTVSPropertyOp7
 70
     1
102
RTVSPropertyOp8
 70
     1
102
RTVSPropertyOp9
 70
     1
102
RTVSPropertyOp10
 70
     1
102
RTVSPropertyOp11
 70
     1
102
RTVSPropertyOp12
 70
     1
102
RTVSPropertyOp13
 70
     1
102
RTVSPropertyOp14
 70
     1
102
RTVSPropertyOp15
 70
     1
102
RTVSPropertyOp16
 70
     1
102
RTVSPropertyOp17
 70
     1
102
RTVSPropertyOp18
 70
     1
102
RTVSPropertyOp19
 70
     1
102
RTVSPropertyOp20
 70
     1
102
RTVSPropertyOp21
 70
     1
102
RTVSPropertyOp22
 70
     1
102
RTVSPropertyOp23
 70
     1
102
RTVSPropertyOp24
 70
     1
102
RTVSPropertyOp25
 70
     1
102
RTVSPropertyOp26
 70
     1
102
RTVSPropertyOp27
 70
     1
102
RTVSPropertyOp28
 70
     1
102
RTVSPropertyOp29
 70
     1
102
RTVSPropertyOp30
 70
     1
102
RTVSPropertyOp31
 70
     1
102
RTVSPropertyOp32
 70
     1
102
RTVSPropertyOp33
 70
     1
102
RTVSPropertyOp34
 70
     1
102
RTVSPropertyOp35
 70
     1
102
RTVSPropertyOp36
 70
     1
102
RTVSPropertyOp37
 70
     1
102
RTVSPropertyOp38
 70
     1
102
RTVSPropertyOp39
 70
     1
102
RTVSPropertyOp40
 70
     1
102
RTVSPropertyOp41
 70
     1
102
RTVSPropertyOp42
 70
     1
102
RTVSPropertyOp43
 70
     1
102
RTVSPropertyOp44
 70
     1
102
RTVSPropertyOp45
 70
     1
102
RTVSPropertyOp46
 70
     1
102
RTVSPropertyOp47
 70
     1
102
RTVSPropertyOp48
 70
     1
102
RTVSPropertyOp49
 70
     1
102
RTVSPropertyOp50
 70
     1
102
RTVSPropertyOp51
 70
     0
102
RTVSPropertyOp52
 70
     0
102
RTVSPropertyOp53
 70
     1
102
RTVSPropertyOp54
 70
     1
102
RTVSPropertyOp55
 70
     1
102
RTVSPropertyOp56
 70
     1
102
RTVSPropertyOp57
 70
     1
102
RTVSPropertyOp58
 70
     1
102
RTVSPropertyOp59
 70
     1
102
RTVSPropertyOp60
 70
     1
102
RTVSPropertyOp61
 70
     1
102
RTVSPropertyOp62
 70
     1
  0
XRECORD
  5
BF1A
102
{ACAD_REACTORS
330
BF19
102
}
330
BF19
100
AcDbXrecord
280
     1
102
RTVSPost2010Prop28
280
     0
102
RTVSPost2010PropOp28
 70
     1
102
RTVSPost2010Prop29
280
     1
102
RTVSPost2010PropOp29
 70
     1
102
RTVSPost2010Prop30
280
     1
102
RTVSPost2010PropOp30
 70
     1
102
RTVSPost2010Prop31
280
     0
102
RTVSPost2010PropOp31
 70
     1
102
RTVSPost2010Prop32
280
     0
102
RTVSPost2010PropOp32
 70
     1
102
RTVSPost2010Prop33
280
     0
102
RTVSPost2010PropOp33
 70
     1
102
RTVSPost2010Prop34
280
     0
102
RTVSPost2010PropOp34
 70
     1
102
RTVSPost2010Prop35
280
     0
102
RTVSPost2010PropOp35
 70
     1
102
RTVSPost2010Prop36
280
     0
102
RTVSPost2010PropOp36
 70
     1
102
RTVSPost2010Prop37
 90
       50
102
RTVSPost2010PropOp37
 70
     1
102
RTVSPost2010Prop38
140
0.0
102
RTVSPost2010PropOp38
 70
     1
102
RTVSPost2010Prop39
140
1.0
102
RTVSPost2010PropOp39
 70
     1
102
RTVSPost2010Prop40
 90
        0
102
RTVSPost2010PropOp40
 70
     1
102
RTVSPost2010Prop41ColorIndex
 90
       18
102
RTVSPost2010Prop41ColorRGB
 90
        0
102
RTVSPost2010PropOp41
 70
     1
102
RTVSPost2010Prop42
 90
       50
102
RTVSPost2010PropOp42
 70
     1
102
RTVSPost2010Prop43
 90
        3
102
RTVSPost2010PropOp43
 70
     1
102
RTVSPost2010Prop44ColorIndex
 90
        5
102
RTVSPost2010Prop44ColorRGB
 90
      255
102
RTVSPost2010PropOp44
 70
     1
102
RTVSPost2010Prop45
280
     0
102
RTVSPost2010PropOp45
 70
     1
102
RTVSPost2010Prop46
 90
       50
102
RTVSPost2010PropOp46
 70
     1
102
RTVSPost2010Prop47
 90
       50
102
RTVSPost2010PropOp47
 70
     1
102
RTVSPost2010Prop48
 90
       50
102
RTVSPost2010PropOp48
 70
     1
102
RTVSPost2010Prop49
280
     0
102
RTVSPost2010PropOp49
 70
     1
102
RTVSPost2010Prop50
 90
       50
102
RTVSPost2010PropOp50
 70
     1
102
RTVSPost2010Prop51ColorIndex
 90
      256
102
RTVSPost2010Prop51ColorRGB
 90
-16777216
102
RTVSPost2010PropOp51
 70
     0
102
RTVSPost2010Prop52
140
1.0
102
RTVSPost2010PropOp52
 70
     0
102
RTVSPost2010Prop53
 90
        2
102
RTVSPost2010PropOp53
 70
     1
102
RTVSPost2010Prop54
  1
strokes_ogs.tif
102
RTVSPost2010PropOp54
 70
     1
102
RTVSPost2010Prop55
280
     0
102
RTVSPost2010PropOp55
 70
     1
102
RTVSPost2010Prop56
140
1.0
102
RTVSPost2010PropOp56
 70
     1
102
RTVSPost2010Prop57
140
1.0
102
RTVSPost2010PropOp57
 70
     1
102
RTVSPropertyOp0
 70
     1
102
RTVSPropertyOp1
 70
     1
102
RTVSPropertyOp2
 70
     1
102
RTVSPropertyOp3
 70
     1
102
RTVSPropertyOp4
 70
     1
102
RTVSPropertyOp5
 70
     1
102
RTVSPropertyOp6
 70
     1
102
RTVSPropertyOp7
 70
     1
102
RTVSPropertyOp8
 70
     1
102
RTVSPropertyOp9
 70
     1
102
RTVSPropertyOp10
 70
     1
102
RTVSPropertyOp11
 70
     1
102
RTVSPropertyOp12
 70
     1
102
RTVSPropertyOp13
 70
     1
102
RTVSPropertyOp14
 70
     1
102
RTVSPropertyOp15
 70
     1
102
RTVSPropertyOp16
 70
     1
102
RTVSPropertyOp17
 70
     1
102
RTVSPropertyOp18
 70
     1
102
RTVSPropertyOp19
 70
     1
102
RTVSPropertyOp20
 70
     1
102
RTVSPropertyOp21
 70
     1
102
RTVSPropertyOp22
 70
     1
102
RTVSPropertyOp23
 70
     1
102
RTVSPropertyOp24
 70
     1
102
RTVSPropertyOp25
 70
     1
102
RTVSPropertyOp26
 70
     1
102
RTVSPropertyOp27
 70
     1
102
RTVSPropertyOp28
 70
     1
102
RTVSPropertyOp29
 70
     1
102
RTVSPropertyOp30
 70
     1
102
RTVSPropertyOp31
 70
     1
102
RTVSPropertyOp32
 70
     1
102
RTVSPropertyOp33
 70
     1
102
RTVSPropertyOp34
 70
     1
102
RTVSPropertyOp35
 70
     1
102
RTVSPropertyOp36
 70
     1
102
RTVSPropertyOp37
 70
     1
102
RTVSPropertyOp38
 70
     1
102
RTVSPropertyOp39
 70
     1
102
RTVSPropertyOp40
 70
     1
102
RTVSPropertyOp41
 70
     1
102
RTVSPropertyOp42
 70
     1
102
RTVSPropertyOp43
 70
     1
102
RTVSPropertyOp44
 70
     1
102
RTVSPropertyOp45
 70
     1
102
RTVSPropertyOp46
 70
     1
102
RTVSPropertyOp47
 70
     1
102
RTVSPropertyOp48
 70
     1
102
RTVSPropertyOp49
 70
     1
102
RTVSPropertyOp50
 70
     1
102
RTVSPropertyOp51
 70
     0
102
RTVSPropertyOp52
 70
     0
102
RTVSPropertyOp53
 70
     1
102
RTVSPropertyOp54
 70
     1
102
RTVSPropertyOp55
 70
     1
102
RTVSPropertyOp56
 70
     1
102
RTVSPropertyOp57
 70
     1
102
RTVSPropertyOp58
 70
     1
102
RTVSPropertyOp59
 70
     1
102
RTVSPropertyOp60
 70
     1
102
RTVSPropertyOp61
 70
     1
102
RTVSPropertyOp62
 70
     1
  0
XRECORD
  5
BF0E
102
{ACAD_REACTORS
330
BF0D
102
}
330
BF0D
100
AcDbXrecord
280
     1
102
RTVSPost2010Prop28
280
     0
102
RTVSPost2010PropOp28
 70
     1
102
RTVSPost2010Prop29
280
     1
102
RTVSPost2010PropOp29
 70
     1
102
RTVSPost2010Prop30
280
     1
102
RTVSPost2010PropOp30
 70
     1
102
RTVSPost2010Prop31
280
     0
102
RTVSPost2010PropOp31
 70
     1
102
RTVSPost2010Prop32
280
     0
102
RTVSPost2010PropOp32
 70
     1
102
RTVSPost2010Prop33
280
     0
102
RTVSPost2010PropOp33
 70
     1
102
RTVSPost2010Prop34
280
     0
102
RTVSPost2010PropOp34
 70
     1
102
RTVSPost2010Prop35
280
     0
102
RTVSPost2010PropOp35
 70
     1
102
RTVSPost2010Prop36
280
     0
102
RTVSPost2010PropOp36
 70
     1
102
RTVSPost2010Prop37
 90
       50
102
RTVSPost2010PropOp37
 70
     1
102
RTVSPost2010Prop38
140
0.0
102
RTVSPost2010PropOp38
 70
     1
102
RTVSPost2010Prop39
140
1.0
102
RTVSPost2010PropOp39
 70
     1
102
RTVSPost2010Prop40
 90
        0
102
RTVSPost2010PropOp40
 70
     1
102
RTVSPost2010Prop41ColorIndex
 90
       18
102
RTVSPost2010Prop41ColorRGB
 90
        0
102
RTVSPost2010PropOp41
 70
     1
102
RTVSPost2010Prop42
 90
       50
102
RTVSPost2010PropOp42
 70
     1
102
RTVSPost2010Prop43
 90
        3
102
RTVSPost2010PropOp43
 70
     1
102
RTVSPost2010Prop44ColorIndex
 90
        5
102
RTVSPost2010Prop44ColorRGB
 90
      255
102
RTVSPost2010PropOp44
 70
     1
102
RTVSPost2010Prop45
280
     0
102
RTVSPost2010PropOp45
 70
     1
102
RTVSPost2010Prop46
 90
       50
102
RTVSPost2010PropOp46
 70
     1
102
RTVSPost2010Prop47
 90
       50
102
RTVSPost2010PropOp47
 70
     1
102
RTVSPost2010Prop48
 90
       50
102
RTVSPost2010PropOp48
 70
     1
102
RTVSPost2010Prop49
280
     0
102
RTVSPost2010PropOp49
 70
     1
102
RTVSPost2010Prop50
 90
       50
102
RTVSPost2010PropOp50
 70
     1
102
RTVSPost2010Prop51ColorIndex
 90
      256
102
RTVSPost2010Prop51ColorRGB
 90
-16777216
102
RTVSPost2010PropOp51
 70
     0
102
RTVSPost2010Prop52
140
1.0
102
RTVSPost2010PropOp52
 70
     0
102
RTVSPost2010Prop53
 90
        2
102
RTVSPost2010PropOp53
 70
     1
102
RTVSPost2010Prop54
  1
strokes_ogs.tif
102
RTVSPost2010PropOp54
 70
     1
102
RTVSPost2010Prop55
280
     0
102
RTVSPost2010PropOp55
 70
     1
102
RTVSPost2010Prop56
140
1.0
102
RTVSPost2010PropOp56
 70
     1
102
RTVSPost2010Prop57
140
1.0
102
RTVSPost2010PropOp57
 70
     1
102
RTVSPropertyOp0
 70
     1
102
RTVSPropertyOp1
 70
     1
102
RTVSPropertyOp2
 70
     1
102
RTVSPropertyOp3
 70
     1
102
RTVSPropertyOp4
 70
     1
102
RTVSPropertyOp5
 70
     1
102
RTVSPropertyOp6
 70
     1
102
RTVSPropertyOp7
 70
     1
102
RTVSPropertyOp8
 70
     1
102
RTVSPropertyOp9
 70
     1
102
RTVSPropertyOp10
 70
     1
102
RTVSPropertyOp11
 70
     1
102
RTVSPropertyOp12
 70
     1
102
RTVSPropertyOp13
 70
     1
102
RTVSPropertyOp14
 70
     1
102
RTVSPropertyOp15
 70
     1
102
RTVSPropertyOp16
 70
     1
102
RTVSPropertyOp17
 70
     1
102
RTVSPropertyOp18
 70
     1
102
RTVSPropertyOp19
 70
     1
102
RTVSPropertyOp20
 70
     1
102
RTVSPropertyOp21
 70
     1
102
RTVSPropertyOp22
 70
     1
102
RTVSPropertyOp23
 70
     1
102
RTVSPropertyOp24
 70
     1
102
RTVSPropertyOp25
 70
     1
102
RTVSPropertyOp26
 70
     1
102
RTVSPropertyOp27
 70
     1
102
RTVSPropertyOp28
 70
     1
102
RTVSPropertyOp29
 70
     1
102
RTVSPropertyOp30
 70
     1
102
RTVSPropertyOp31
 70
     1
102
RTVSPropertyOp32
 70
     1
102
RTVSPropertyOp33
 70
     1
102
RTVSPropertyOp34
 70
     1
102
RTVSPropertyOp35
 70
     1
102
RTVSPropertyOp36
 70
     1
102
RTVSPropertyOp37
 70
     1
102
RTVSPropertyOp38
 70
     1
102
RTVSPropertyOp39
 70
     1
102
RTVSPropertyOp40
 70
     1
102
RTVSPropertyOp41
 70
     1
102
RTVSPropertyOp42
 70
     1
102
RTVSPropertyOp43
 70
     1
102
RTVSPropertyOp44
 70
     1
102
RTVSPropertyOp45
 70
     1
102
RTVSPropertyOp46
 70
     1
102
RTVSPropertyOp47
 70
     1
102
RTVSPropertyOp48
 70
     1
102
RTVSPropertyOp49
 70
     1
102
RTVSPropertyOp50
 70
     1
102
RTVSPropertyOp51
 70
     0
102
RTVSPropertyOp52
 70
     0
102
RTVSPropertyOp53
 70
     1
102
RTVSPropertyOp54
 70
     1
102
RTVSPropertyOp55
 70
     1
102
RTVSPropertyOp56
 70
     1
102
RTVSPropertyOp57
 70
     1
102
RTVSPropertyOp58
 70
     1
102
RTVSPropertyOp59
 70
     1
102
RTVSPropertyOp60
 70
     1
102
RTVSPropertyOp61
 70
     1
102
RTVSPropertyOp62
 70
     1
  0
XRECORD
  5
BF26
102
{ACAD_REACTORS
330
BF25
102
}
330
BF25
100
AcDbXrecord
280
     1
102
RTVSPost2010Prop28
280
     0
102
RTVSPost2010PropOp28
 70
     1
102
RTVSPost2010Prop29
280
     1
102
RTVSPost2010PropOp29
 70
     1
102
RTVSPost2010Prop30
280
     1
102
RTVSPost2010PropOp30
 70
     1
102
RTVSPost2010Prop31
280
     0
102
RTVSPost2010PropOp31
 70
     1
102
RTVSPost2010Prop32
280
     0
102
RTVSPost2010PropOp32
 70
     1
102
RTVSPost2010Prop33
280
     0
102
RTVSPost2010PropOp33
 70
     1
102
RTVSPost2010Prop34
280
     0
102
RTVSPost2010PropOp34
 70
     1
102
RTVSPost2010Prop35
280
     0
102
RTVSPost2010PropOp35
 70
     1
102
RTVSPost2010Prop36
280
     0
102
RTVSPost2010PropOp36
 70
     1
102
RTVSPost2010Prop37
 90
       50
102
RTVSPost2010PropOp37
 70
     1
102
RTVSPost2010Prop38
140
0.0
102
RTVSPost2010PropOp38
 70
     1
102
RTVSPost2010Prop39
140
1.0
102
RTVSPost2010PropOp39
 70
     1
102
RTVSPost2010Prop40
 90
        0
102
RTVSPost2010PropOp40
 70
     1
102
RTVSPost2010Prop41ColorIndex
 90
       18
102
RTVSPost2010Prop41ColorRGB
 90
        0
102
RTVSPost2010PropOp41
 70
     1
102
RTVSPost2010Prop42
 90
       50
102
RTVSPost2010PropOp42
 70
     1
102
RTVSPost2010Prop43
 90
        3
102
RTVSPost2010PropOp43
 70
     1
102
RTVSPost2010Prop44ColorIndex
 90
        5
102
RTVSPost2010Prop44ColorRGB
 90
      255
102
RTVSPost2010PropOp44
 70
     1
102
RTVSPost2010Prop45
280
     0
102
RTVSPost2010PropOp45
 70
     1
102
RTVSPost2010Prop46
 90
       50
102
RTVSPost2010PropOp46
 70
     1
102
RTVSPost2010Prop47
 90
       50
102
RTVSPost2010PropOp47
 70
     1
102
RTVSPost2010Prop48
 90
       50
102
RTVSPost2010PropOp48
 70
     1
102
RTVSPost2010Prop49
280
     0
102
RTVSPost2010PropOp49
 70
     1
102
RTVSPost2010Prop50
 90
       50
102
RTVSPost2010PropOp50
 70
     1
102
RTVSPost2010Prop51ColorIndex
 90
      256
102
RTVSPost2010Prop51ColorRGB
 90
-16777216
102
RTVSPost2010PropOp51
 70
     0
102
RTVSPost2010Prop52
140
1.0
102
RTVSPost2010PropOp52
 70
     0
102
RTVSPost2010Prop53
 90
        2
102
RTVSPost2010PropOp53
 70
     1
102
RTVSPost2010Prop54
  1
strokes_ogs.tif
102
RTVSPost2010PropOp54
 70
     1
102
RTVSPost2010Prop55
280
     0
102
RTVSPost2010PropOp55
 70
     1
102
RTVSPost2010Prop56
140
1.0
102
RTVSPost2010PropOp56
 70
     1
102
RTVSPost2010Prop57
140
1.0
102
RTVSPost2010PropOp57
 70
     1
102
RTVSPropertyOp0
 70
     1
102
RTVSPropertyOp1
 70
     1
102
RTVSPropertyOp2
 70
     1
102
RTVSPropertyOp3
 70
     1
102
RTVSPropertyOp4
 70
     1
102
RTVSPropertyOp5
 70
     1
102
RTVSPropertyOp6
 70
     1
102
RTVSPropertyOp7
 70
     1
102
RTVSPropertyOp8
 70
     1
102
RTVSPropertyOp9
 70
     1
102
RTVSPropertyOp10
 70
     1
102
RTVSPropertyOp11
 70
     1
102
RTVSPropertyOp12
 70
     1
102
RTVSPropertyOp13
 70
     1
102
RTVSPropertyOp14
 70
     1
102
RTVSPropertyOp15
 70
     1
102
RTVSPropertyOp16
 70
     1
102
RTVSPropertyOp17
 70
     1
102
RTVSPropertyOp18
 70
     1
102
RTVSPropertyOp19
 70
     1
102
RTVSPropertyOp20
 70
     1
102
RTVSPropertyOp21
 70
     1
102
RTVSPropertyOp22
 70
     1
102
RTVSPropertyOp23
 70
     1
102
RTVSPropertyOp24
 70
     1
102
RTVSPropertyOp25
 70
     1
102
RTVSPropertyOp26
 70
     1
102
RTVSPropertyOp27
 70
     1
102
RTVSPropertyOp28
 70
     1
102
RTVSPropertyOp29
 70
     1
102
RTVSPropertyOp30
 70
     1
102
RTVSPropertyOp31
 70
     1
102
RTVSPropertyOp32
 70
     1
102
RTVSPropertyOp33
 70
     1
102
RTVSPropertyOp34
 70
     1
102
RTVSPropertyOp35
 70
     1
102
RTVSPropertyOp36
 70
     1
102
RTVSPropertyOp37
 70
     1
102
RTVSPropertyOp38
 70
     1
102
RTVSPropertyOp39
 70
     1
102
RTVSPropertyOp40
 70
     1
102
RTVSPropertyOp41
 70
     1
102
RTVSPropertyOp42
 70
     1
102
RTVSPropertyOp43
 70
     1
102
RTVSPropertyOp44
 70
     1
102
RTVSPropertyOp45
 70
     1
102
RTVSPropertyOp46
 70
     1
102
RTVSPropertyOp47
 70
     1
102
RTVSPropertyOp48
 70
     1
102
RTVSPropertyOp49
 70
     1
102
RTVSPropertyOp50
 70
     1
102
RTVSPropertyOp51
 70
     0
102
RTVSPropertyOp52
 70
     0
102
RTVSPropertyOp53
 70
     1
102
RTVSPropertyOp54
 70
     1
102
RTVSPropertyOp55
 70
     1
102
RTVSPropertyOp56
 70
     1
102
RTVSPropertyOp57
 70
     1
102
RTVSPropertyOp58
 70
     1
102
RTVSPropertyOp59
 70
     1
102
RTVSPropertyOp60
 70
     1
102
RTVSPropertyOp61
 70
     1
102
RTVSPropertyOp62
 70
     1
  0
ENDSEC
  0
EOF
