  0
SECTION
  2
HEADER
  9
$ACADVER
  1
AC1015
  9
$ACADMAINTVER
 70
    20
  9
$DWGCODEPAGE
  3
ANSI_932
  9
$INSBASE
 10
0.0
 20
0.0
 30
0.0
  9
$EXTMIN
 10
726.42743803637
 20
-647.595875
 30
0.0
  9
$EXTMAX
 10
1499.814531099294
 20
460.7010498353562
 30
0.0
  9
$LIMMIN
 10
-302.0
 20
-689.0
  9
$LIMMAX
 10
615.0
 20
462.0
  9
$ORTHOMODE
 70
     0
  9
$REGENMODE
 70
     1
  9
$FILLMODE
 70
     1
  9
$QTEXTMODE
 70
     0
  9
$MIRRTEXT
 70
     1
  9
$LTSCALE
 40
20.0
  9
$ATTMODE
 70
     1
  9
$TEXTSIZE
 40
5.0
  9
$TRACEWID
 40
0.05
  9
$TEXTSTYLE
  7
STANDARD1
  9
$CLAYER
  8
30
  9
$CELTYPE
  6
CONTINUOUS
  9
$CECOLOR
 62
   256
  9
$CELTSCALE
 40
1.0
  9
$DISPSILH
 70
     0
  9
$DIMSCALE
 40
1.0
  9
$DIMASZ
 40
2.0
  9
$DIMEXO
 40
3.0
  9
$DIMDLI
 40
0.5
  9
$DIMRND
 40
0.0
  9
$DIMDLE
 40
0.0
  9
$DIMEXE
 40
0.5
  9
$DIMTP
 40
0.0
  9
$DIMTM
 40
0.0
  9
$DIMTXT
 40
6.0
  9
$DIMCEN
 40
0.09
  9
$DIMTSZ
 40
0.0
  9
$DIMTOL
 70
     0
  9
$DIMLIM
 70
     0
  9
$DIMTIH
 70
     0
  9
$DIMTOH
 70
     1
  9
$DIMSE1
 70
     0
  9
$DIMSE2
 70
     0
  9
$DIMTAD
 70
     3
  9
$DIMZIN
 70
    12
  9
$DIMBLK
  1
OPEN
  9
$DIMASO
 70
     1
  9
$DIMSHO
 70
     1
  9
$DIMPOST
  1

  9
$DIMAPOST
  1

  9
$DIMALT
 70
     0
  9
$DIMALTD
 70
     2
  9
$DIMALTF
 40
25.4
  9
$DIMLFAC
 40
1.0
  9
$DIMTOFL
 70
     0
  9
$DIMTVP
 40
0.0
  9
$DIMTIX
 70
     0
  9
$DIMSOXD
 70
     0
  9
$DIMSAH
 70
     0
  9
$DIMBLK1
  1

  9
$DIMBLK2
  1

  9
$DIMSTYLE
  2
STANDARD1
  9
$DIMCLRD
 70
     0
  9
$DIMCLRE
 70
     0
  9
$DIMCLRT
 70
     0
  9
$DIMTFAC
 40
1.0
  9
$DIMGAP
 40
3.0
  9
$DIMJUST
 70
     0
  9
$DIMSD1
 70
     0
  9
$DIMSD2
 70
     0
  9
$DIMTOLJ
 70
     1
  9
$DIMTZIN
 70
     0
  9
$DIMALTZ
 70
     0
  9
$DIMALTTZ
 70
     0
  9
$DIMUPT
 70
     0
  9
$DIMDEC
 70
     1
  9
$DIMTDEC
 70
     1
  9
$DIMALTU
 70
     2
  9
$DIMALTTD
 70
     2
  9
$DIMTXSTY
  7
STANDARD
  9
$DIMAUNIT
 70
     0
  9
$DIMADEC
 70
     0
  9
$DIMALTRND
 40
0.0
  9
$DIMAZIN
 70
     0
  9
$DIMDSEP
 70
    46
  9
$DIMATFIT
 70
     2
  9
$DIMFRAC
 70
     0
  9
$DIMLDRBLK
  1
OPEN
  9
$DIMLUNIT
 70
     2
  9
$DIMLWD
 70
    -2
  9
$DIMLWE
 70
    -2
  9
$DIMTMOVE
 70
     0
  9
$LUNITS
 70
     2
  9
$LUPREC
 70
     4
  9
$SKETCHINC
 40
0.1
  9
$FILLETRAD
 40
0.0
  9
$AUNITS
 70
     0
  9
$AUPREC
 70
     0
  9
$MENU
  1
.
  9
$ELEVATION
 40
0.0
  9
$PELEVATION
 40
0.0
  9
$THICKNESS
 40
0.0
  9
$LIMCHECK
 70
     0
  9
$CHAMFERA
 40
0.0
  9
$CHAMFERB
 40
0.0
  9
$CHAMFERC
 40
0.0
  9
$CHAMFERD
 40
0.0
  9
$SKPOLY
 70
     0
  9
$TDCREATE
 40
2452286.555658658
  9
$TDUCREATE
 40
2452286.180658658
  9
$TDUPDATE
 40
2457261.405802986
  9
$TDUUPDATE
 40
2457261.030802986
  9
$TDINDWG
 40
1.5657103125
  9
$TDUSRTIMER
 40
1.5657095833
  9
$USRTIMER
 70
     1
  9
$ANGBASE
 50
0.0
  9
$ANGDIR
 70
     0
  9
$PDMODE
 70
     0
  9
$PDSIZE
 40
0.0
  9
$PLINEWID
 40
0.0
  9
$SPLFRAME
 70
     0
  9
$SPLINETYPE
 70
     6
  9
$SPLINESEGS
 70
     8
  9
$HANDSEED
  5
BF01
  9
$SURFTAB1
 70
     6
  9
$SURFTAB2
 70
     6
  9
$SURFTYPE
 70
     6
  9
$SURFU
 70
     6
  9
$SURFV
 70
     6
  9
$UCSBASE
  2

  9
$UCSNAME
  2

  9
$UCSORG
 10
0.0
 20
0.0
 30
0.0
  9
$UCSXDIR
 10
1.0
 20
0.0
 30
0.0
  9
$UCSYDIR
 10
0.0
 20
1.0
 30
0.0
  9
$UCSORTHOREF
  2

  9
$UCSORTHOVIEW
 70
     0
  9
$UCSORGTOP
 10
0.0
 20
0.0
 30
0.0
  9
$UCSORGBOTTOM
 10
0.0
 20
0.0
 30
0.0
  9
$UCSORGLEFT
 10
0.0
 20
0.0
 30
0.0
  9
$UCSORGRIGHT
 10
0.0
 20
0.0
 30
0.0
  9
$UCSORGFRONT
 10
0.0
 20
0.0
 30
0.0
  9
$UCSORGBACK
 10
0.0
 20
0.0
 30
0.0
  9
$PUCSBASE
  2

  9
$PUCSNAME
  2

  9
$PUCSORG
 10
0.0
 20
0.0
 30
0.0
  9
$PUCSXDIR
 10
1.0
 20
0.0
 30
0.0
  9
$PUCSYDIR
 10
0.0
 20
1.0
 30
0.0
  9
$PUCSORTHOREF
  2

  9
$PUCSORTHOVIEW
 70
     0
  9
$PUCSORGTOP
 10
0.0
 20
0.0
 30
0.0
  9
$PUCSORGBOTTOM
 10
0.0
 20
0.0
 30
0.0
  9
$PUCSORGLEFT
 10
0.0
 20
0.0
 30
0.0
  9
$PUCSORGRIGHT
 10
0.0
 20
0.0
 30
0.0
  9
$PUCSORGFRONT
 10
0.0
 20
0.0
 30
0.0
  9
$PUCSORGBACK
 10
0.0
 20
0.0
 30
0.0
  9
$USERI1
 70
     0
  9
$USERI2
 70
     0
  9
$USERI3
 70
     0
  9
$USERI4
 70
     0
  9
$USERI5
 70
     0
  9
$USERR1
 40
0.0
  9
$USERR2
 40
0.0
  9
$USERR3
 40
0.0
  9
$USERR4
 40
0.0
  9
$USERR5
 40
0.0
  9
$WORLDVIEW
 70
     1
  9
$SHADEDGE
 70
     3
  9
$SHADEDIF
 70
    70
  9
$TILEMODE
 70
     1
  9
$MAXACTVP
 70
    48
  9
$PINSBASE
 10
0.0
 20
0.0
 30
0.0
  9
$PLIMCHECK
 70
     0
  9
$PEXTMIN
 10
4.273573370203961
 20
5.205246163471485
 30
0.0
  9
$PEXTMAX
 10
194.6100952986349
 20
283.0697008572913
 30
0.0
  9
$PLIMMIN
 10
-5.873748779296875
 20
-5.873749732971191
  9
$PLIMMAX
 10
204.0995788574218
 20
291.1369009017943
  9
$UNITMODE
 70
     0
  9
$VISRETAIN
 70
     1
  9
$PLINEGEN
 70
     0
  9
$PSLTSCALE
 70
     1
  9
$TREEDEPTH
 70
  3020
  9
$CMLSTYLE
  2
STANDARD
  9
$CMLJUST
 70
     0
  9
$CMLSCALE
 40
1.0
  9
$PROXYGRAPHICS
 70
     1
  9
$MEASUREMENT
 70
     0
  9
$CELWEIGHT
370
    -1
  9
$ENDCAPS
280
     0
  9
$JOINSTYLE
280
     0
  9
$LWDISPLAY
290
     0
  9
$INSUNITS
 70
     0
  9
$HYPERLINKBASE
  1

  9
$STYLESHEET
  1
monochrome.ctb
  9
$XEDIT
290
     1
  9
$CEPSNTYPE
380
     0
  9
$PSTYLEMODE
290
     1
  9
$FINGERPRINTGUID
  2

  9
$VERSIONGUID
  2
{DDE9A0EC-CF47-4E0D-917F-921EC1827AAE}
  9
$EXTNAMES
290
     1
  9
$PSVPSCALE
 40
0.0
  9
$OLESTARTUP
290
     0
  0
ENDSEC
  0
SECTION
  2
CLASSES
  0
CLASS
  1
ACDBDICTIONARYWDFLT
  2
AcDbDictionaryWithDefault
  3
ObjectDBX Classes
 90
        0
280
     0
281
     0
  0
CLASS
  1
ACDBPLACEHOLDER
  2
AcDbPlaceHolder
  3
ObjectDBX Classes
 90
        0
280
     0
281
     0
  0
CLASS
  1
LAYOUT
  2
AcDbLayout
  3
ObjectDBX Classes
 90
        0
280
     0
281
     0
  0
CLASS
  1
DICTIONARYVAR
  2
AcDbDictionaryVar
  3
ObjectDBX Classes
 90
        0
280
     0
281
     0
  0
CLASS
  1
MATERIAL
  2
AcDbMaterial
  3
ObjectDBX Classes
 90
     1153
280
     0
281
     0
  0
CLASS
  1
VISUALSTYLE
  2
AcDbVisualStyle
  3
ObjectDBX Classes
 90
     4095
280
     0
281
     0
  0
CLASS
  1
TABLESTYLE
  2
AcDbTableStyle
  3
ObjectDBX Classes
 90
     4095
280
     0
281
     0
  0
CLASS
  1
SCALE
  2
AcDbScale
  3
ObjectDBX Classes
 90
     1153
280
     0
281
     0
  0
CLASS
  1
MLEADERSTYLE
  2
AcDbMLeaderStyle
  3
ACDB_MLEADERSTYLE_CLASS
 90
     4095
280
     0
281
     0
  0
CLASS
  1
ACDBSECTIONVIEWSTYLE
  2
AcDbSectionViewStyle
  3
ObjectDBX Classes
 90
     1025
280
     0
281
     0
  0
CLASS
  1
ACDBDETAILVIEWSTYLE
  2
AcDbDetailViewStyle
  3
ObjectDBX Classes
 90
     1025
280
     0
281
     0
  0
CLASS
  1
CELLSTYLEMAP
  2
AcDbCellStyleMap
  3
ObjectDBX Classes
 90
     1152
280
     0
281
     0
  0
ENDSEC
  0
SECTION
  2
TABLES
  0
TABLE
  2
VPORT
  5
8
330
0
100
AcDbSymbolTable
 70
     1
  0
VPORT
  5
BDD9
330
8
100
AcDbSymbolTableRecord
100
AcDbViewportTableRecord
  2
*Active
 70
     0
 10
0.0
 20
0.0
 11
1.0
 21
1.0
 12
916.8175020245884
 22
304.3912231874755
 13
0.0
 23
0.0
 14
1.0
 24
1.0
 15
10.0
 25
10.0
 16
0.0
 26
0.0
 36
1.0
 17
0.0
 27
0.0
 37
0.0
 40
159.6027373295835
 41
2.496296296296296
 42
50.0
 43
0.0
 44
0.0
 50
0.0
 51
0.0
 71
     0
 72
   100
 73
     1
 74
     1
 75
     0
 76
     0
 77
     0
 78
     0
281
     0
 65
     1
110
0.0
120
0.0
130
0.0
111
1.0
121
0.0
131
0.0
112
0.0
122
1.0
132
0.0
 79
     0
146
0.0
1001
ACAD_NAV_VCDISPLAY
1070
     3
  0
ENDTAB
  0
TABLE
  2
LTYPE
  5
5
330
0
100
AcDbSymbolTable
 70
     5
  0
LTYPE
  5
13
330
5
100
AcDbSymbolTableRecord
100
AcDbLinetypeTableRecord
  2
BYBLOCK
 70
     0
  3

 72
    65
 73
     0
 40
0.0
  0
LTYPE
  5
14
330
5
100
AcDbSymbolTableRecord
100
AcDbLinetypeTableRecord
  2
BYLAYER
 70
     0
  3

 72
    65
 73
     0
 40
0.0
  0
LTYPE
  5
15
330
5
100
AcDbSymbolTableRecord
100
AcDbLinetypeTableRecord
  2
CONTINUOUS
 70
     0
  3
Solid line
 72
    65
 73
     0
 40
0.0
  0
LTYPE
  5
22
330
5
100
AcDbSymbolTableRecord
100
AcDbLinetypeTableRecord
  2
CONTINOUS
 70
     0
  3
Solid line
 72
    65
 73
     0
 40
0.0
  0
LTYPE
  5
24
330
5
100
AcDbSymbolTableRecord
100
AcDbLinetypeTableRecord
  2
DASHDOT
 70
     0
  3
__ . __ . __ . __ . __ . __ . __ . __ . __ . __
 72
    65
 73
     4
 40
1.0
 49
0.5
 74
     0
 49
-0.25
 74
     0
 49
0.0
 74
     0
 49
-0.25
 74
     0
  0
LTYPE
  5
4C47
330
5
100
AcDbSymbolTableRecord
100
AcDbLinetypeTableRecord
  2
DIVIDE
 70
     0
  3
Divide ____ . . ____ . . ____ . . ____ . . ____
 72
    65
 73
     6
 40
1.25
 49
0.5
 74
     0
 49
-0.25
 74
     0
 49
0.0
 74
     0
 49
-0.25
 74
     0
 49
0.0
 74
     0
 49
-0.25
 74
     0
  0
ENDTAB
  0
TABLE
  2
LAYER
  5
2
330
0
100
AcDbSymbolTable
 70
    12
  0
LAYER
  5
10
102
{ACAD_XDICTIONARY
360
BE54
102
}
330
2
100
AcDbSymbolTableRecord
100
AcDbLayerTableRecord
  2
0
 70
     0
 62
     7
  6
CONTINOUS
370
    -3
390
F
  0
LAYER
  5
2F
102
{ACAD_XDICTIONARY
360
BE56
102
}
330
2
100
AcDbSymbolTableRecord
100
AcDbLayerTableRecord
  2
10
 70
     0
 62
     4
  6
CONTINOUS
370
    -3
390
F
  0
LAYER
  5
31
102
{ACAD_XDICTIONARY
360
BE58
102
}
330
2
100
AcDbSymbolTableRecord
100
AcDbLayerTableRecord
  2
12
 70
     0
 62
     3
  6
CONTINOUS
370
    -3
390
F
  0
LAYER
  5
35
102
{ACAD_XDICTIONARY
360
BE5A
102
}
330
2
100
AcDbSymbolTableRecord
100
AcDbLayerTableRecord
  2
16
 70
     0
 62
     6
  6
DASHDOT
370
    -3
390
F
  0
LAYER
  5
38
102
{ACAD_XDICTIONARY
360
BE5C
102
}
330
2
100
AcDbSymbolTableRecord
100
AcDbLayerTableRecord
  2
19
 70
     0
 62
     7
  6
CONTINOUS
370
    -3
390
F
  0
LAYER
  5
3D
102
{ACAD_XDICTIONARY
360
BE5E
102
}
330
2
100
AcDbSymbolTableRecord
100
AcDbLayerTableRecord
  2
24
 70
     0
 62
     2
  6
CONTINOUS
370
    -3
390
F
  0
LAYER
  5
3A2
102
{ACAD_XDICTIONARY
360
BE60
102
}
330
2
100
AcDbSymbolTableRecord
100
AcDbLayerTableRecord
  2
30
 70
     0
 62
     9
  6
CONTINUOUS
370
    -3
390
F
  0
LAYER
  5
3A4
330
2
100
AcDbSymbolTableRecord
100
AcDbLayerTableRecord
  2
DEFPOINTS
 70
     0
 62
     7
  6
CONTINUOUS
290
     0
370
    -3
390
F
  0
LAYER
  5
3BBA
102
{ACAD_XDICTIONARY
360
BE62
102
}
330
2
100
AcDbSymbolTableRecord
100
AcDbLayerTableRecord
  2
18
 70
     0
 62
     5
  6
DIVIDE
370
    -3
390
F
  0
LAYER
  5
5D4D
102
{ACAD_XDICTIONARY
360
BE64
102
}
330
2
100
AcDbSymbolTableRecord
100
AcDbLayerTableRecord
  2
17
 70
     0
 62
     2
  6
DASHDOT
370
    -3
390
F
  0
LAYER
  5
7355
102
{ACAD_XDICTIONARY
360
BE66
102
}
330
2
100
AcDbSymbolTableRecord
100
AcDbLayerTableRecord
  2
1
 70
     0
 62
     7
  6
CONTINUOUS
370
    -3
390
F
  0
LAYER
  5
76A9
102
{ACAD_XDICTIONARY
360
BE68
102
}
330
2
100
AcDbSymbolTableRecord
100
AcDbLayerTableRecord
  2
TOP
 70
     0
 62
     7
  6
CONTINUOUS
370
    -3
390
F
  0
ENDTAB
  0
TABLE
  2
STYLE
  5
3
330
0
100
AcDbSymbolTable
 70
     5
  0
STYLE
  5
11
330
3
100
AcDbSymbolTableRecord
100
AcDbTextStyleTableRecord
  2
STANDARD
 70
     0
 40
0.0
 41
1.0
 50
0.0
 71
     0
 42
2.0
  3
txt.shx
  4
bigfont.shx
  0
STYLE
  5
42
330
3
100
AcDbSymbolTableRecord
100
AcDbTextStyleTableRecord
  2
STANDARD1
 70
     0
 40
0.0
 41
1.0
 50
0.0
 71
     0
 42
5.0
  3
MONOTXT
  4
BIGFONT
  0
STYLE
  5
7356
330
3
100
AcDbSymbolTableRecord
100
AcDbTextStyleTableRecord
  2
UGMTXT
 70
     0
 40
0.0
 41
1.0
 50
0.0
 71
     0
 42
0.2
  3
ugmtxt
  4
bigfont
  0
STYLE
  5
8AE2
330
3
100
AcDbSymbolTableRecord
100
AcDbTextStyleTableRecord
  2
blockfont
 70
     0
 40
0.0
 41
1.0
 50
0.0
 71
     0
 42
0.2
  3
simplex.shx
  4
bigfont
  0
STYLE
  5
BD5D
330
3
100
AcDbSymbolTableRecord
100
AcDbTextStyleTableRecord
  2

 70
     1
 40
0.0
 41
1.0
 50
0.0
 71
     0
 42
5.0
  3
ltypeshp.shx
  4

  0
ENDTAB
  0
TABLE
  2
VIEW
  5
6
330
0
100
AcDbSymbolTable
 70
     3
  0
VIEW
  5
230C
330
6
100
AcDbSymbolTableRecord
100
AcDbViewTableRecord
  2
OLE1
 70
     0
 40
148.9124878027714
 10
429.4976280407222
 20
2.560626997828478
 41
103.1458057716444
 11
0.0
 21
0.0
 31
1.0
 12
0.0
 22
0.0
 32
0.0
 42
50.0
 43
0.0
 44
0.0
 50
0.0
 71
     0
281
     0
 72
     0
  0
VIEW
  5
230E
330
6
100
AcDbSymbolTableRecord
100
AcDbViewTableRecord
  2
OLE2
 70
     0
 40
170.7786920545775
 10
322.664969958371
 20
-5.978304054290276
 41
102.4672152327465
 11
0.0
 21
0.0
 31
1.0
 12
0.0
 22
0.0
 32
0.0
 42
50.0
 43
0.0
 44
0.0
 50
0.0
 71
     0
281
     0
 72
     0
  0
VIEW
  5
23AA
330
6
100
AcDbSymbolTableRecord
100
AcDbViewTableRecord
  2
OLE3
 70
     0
 40
591.7897393182231
 10
84.79698158148218
 20
-46.09336010803995
 41
388.7920961799953
 11
0.0
 21
0.0
 31
1.0
 12
0.0
 22
0.0
 32
0.0
 42
50.0
 43
0.0
 44
0.0
 50
0.0
 71
     0
281
     0
 72
     0
  0
ENDTAB
  0
TABLE
  2
UCS
  5
7
330
0
100
AcDbSymbolTable
 70
     0
  0
ENDTAB
  0
TABLE
  2
APPID
  5
9
330
0
100
AcDbSymbolTable
 70
     5
  0
APPID
  5
12
330
9
100
AcDbSymbolTableRecord
100
AcDbRegAppTableRecord
  2
ACAD
 70
     0
  0
APPID
  5
ECD
330
9
100
AcDbSymbolTableRecord
100
AcDbRegAppTableRecord
  2
CONTENTBLOCKICON
 70
     0
  0
APPID
  5
BE52
330
9
100
AcDbSymbolTableRecord
100
AcDbRegAppTableRecord
  2
ACAD_EXEMPT_FROM_CAD_STANDARDS
 70
     0
  0
APPID
  5
BE72
330
9
100
AcDbSymbolTableRecord
100
AcDbRegAppTableRecord
  2
ACAD_NAV_VCDISPLAY
 70
     0
  0
APPID
  5
BEFC
330
9
100
AcDbSymbolTableRecord
100
AcDbRegAppTableRecord
  2
ACAD_MLEADERVER
 70
     0
  0
ENDTAB
  0
TABLE
  2
DIMSTYLE
  5
A
330
0
100
AcDbSymbolTable
 70
     2
100
AcDbDimStyleTable
 71
     2
340
BC24
340
175
  0
DIMSTYLE
105
175
330
A
100
AcDbSymbolTableRecord
100
AcDbDimStyleTableRecord
  2
STANDARD
 70
     0
 41
2.0
 42
1.0
 43
0.5
 44
0.5
 73
     0
 77
     3
 78
    12
140
5.0
147
1.0
271
     1
272
     1
340
11
341
3B2
342
3B2
  0
DIMSTYLE
105
BC24
102
{ACAD_REACTORS
330
BBC7
330
BA18
330
B8F8
330
B8CB
330
B8CA
330
B8C5
330
B8C2
330
B8C1
330
B8C0
330
B8BF
330
B8BE
330
B8BD
330
B8BC
330
B700
330
B6FC
330
B6FA
330
B6D4
330
B6D1
330
B6CC
330
B6CB
330
B6C9
330
B6C2
330
B07C
330
B07B
330
B07A
330
A327
330
A319
102
}
330
A
100
AcDbSymbolTableRecord
100
AcDbDimStyleTableRecord
  2
STANDARD1
 70
     0
 41
2.0
 42
3.0
 43
0.5
 44
0.5
 73
     0
 77
     3
 78
    12
140
6.0
147
3.0
271
     1
272
     1
289
     2
340
11
341
3B2
342
3B2
  0
ENDTAB
  0
TABLE
  2
BLOCK_RECORD
  5
1
330
0
100
AcDbSymbolTable
 70
    29
  0
BLOCK_RECORD
  5
1E
102
{ACAD_XDICTIONARY
360
178
102
}
330
1
100
AcDbSymbolTableRecord
100
AcDbBlockTableRecord
  2
*MODEL_SPACE
340
87C9
  0
BLOCK_RECORD
  5
1A
102
{ACAD_XDICTIONARY
360
17A
102
}
330
1
100
AcDbSymbolTableRecord
100
AcDbBlockTableRecord
  2
*PAPER_SPACE
340
87CA
  0
BLOCK_RECORD
  5
3B2
330
1
100
AcDbSymbolTableRecord
100
AcDbBlockTableRecord
  2
_OPEN
340
0
102
{BLKREFS
331
BD18
331
BD19
331
BD28
331
BD29
331
BD30
331
BD31
331
BD40
331
BD41
331
BD56
331
BD57
331
BCB4
331
BCB5
331
BCBE
331
BCBF
331
BCC7
331
BCC8
331
BCD0
331
BCD1
331
BCD9
331
BCDA
331
BCE2
331
BCE3
331
BCEB
331
BCEC
331
BCF4
331
BCF5
331
BCFD
331
BCFE
331
BD06
331
BD07
331
BD0F
331
BD10
331
BC2B
331
BC34
331
BC35
331
BC3D
331
BC3E
331
BC46
331
BC47
331
BC4F
331
BC50
331
BC58
331
BC59
331
BC61
331
BC62
331
BC6A
331
BC6B
331
BC7D
331
BC7E
331
BC86
331
BC87
331
BC98
331
BC99
102
}
  0
BLOCK_RECORD
  5
839C
330
1
100
AcDbSymbolTableRecord
100
AcDbBlockTableRecord
  2
*U1
340
0
102
{BLKREFS
331
BA17
102
}
  0
BLOCK_RECORD
  5
A3DF
330
1
100
AcDbSymbolTableRecord
100
AcDbBlockTableRecord
  2
*D2
340
0
  0
BLOCK_RECORD
  5
A487
330
1
100
AcDbSymbolTableRecord
100
AcDbBlockTableRecord
  2
*D3
340
0
  0
BLOCK_RECORD
  5
B07D
330
1
100
AcDbSymbolTableRecord
100
AcDbBlockTableRecord
  2
*D4
340
0
  0
BLOCK_RECORD
  5
B089
330
1
100
AcDbSymbolTableRecord
100
AcDbBlockTableRecord
  2
*D5
340
0
  0
BLOCK_RECORD
  5
B095
330
1
100
AcDbSymbolTableRecord
100
AcDbBlockTableRecord
  2
*D6
340
0
  0
BLOCK_RECORD
  5
B705
330
1
100
AcDbSymbolTableRecord
100
AcDbBlockTableRecord
  2
*D7
340
0
  0
BLOCK_RECORD
  5
B711
330
1
100
AcDbSymbolTableRecord
100
AcDbBlockTableRecord
  2
*D8
340
0
  0
BLOCK_RECORD
  5
B71D
330
1
100
AcDbSymbolTableRecord
100
AcDbBlockTableRecord
  2
*D9
340
0
  0
BLOCK_RECORD
  5
B729
330
1
100
AcDbSymbolTableRecord
100
AcDbBlockTableRecord
  2
*D10
340
0
  0
BLOCK_RECORD
  5
B735
330
1
100
AcDbSymbolTableRecord
100
AcDbBlockTableRecord
  2
*D11
340
0
  0
BLOCK_RECORD
  5
B741
330
1
100
AcDbSymbolTableRecord
100
AcDbBlockTableRecord
  2
*D12
340
0
  0
BLOCK_RECORD
  5
B74D
330
1
100
AcDbSymbolTableRecord
100
AcDbBlockTableRecord
  2
*D13
340
0
  0
BLOCK_RECORD
  5
B759
330
1
100
AcDbSymbolTableRecord
100
AcDbBlockTableRecord
  2
*D14
340
0
  0
BLOCK_RECORD
  5
B764
330
1
100
AcDbSymbolTableRecord
100
AcDbBlockTableRecord
  2
*D15
340
0
  0
BLOCK_RECORD
  5
B92C
330
1
100
AcDbSymbolTableRecord
100
AcDbBlockTableRecord
  2
*D16
340
0
  0
BLOCK_RECORD
  5
B938
330
1
100
AcDbSymbolTableRecord
100
AcDbBlockTableRecord
  2
*D17
340
0
  0
BLOCK_RECORD
  5
B944
330
1
100
AcDbSymbolTableRecord
100
AcDbBlockTableRecord
  2
*D18
340
0
  0
BLOCK_RECORD
  5
B950
330
1
100
AcDbSymbolTableRecord
100
AcDbBlockTableRecord
  2
*D19
340
0
  0
BLOCK_RECORD
  5
B95C
330
1
100
AcDbSymbolTableRecord
100
AcDbBlockTableRecord
  2
*D20
340
0
  0
BLOCK_RECORD
  5
B96A
330
1
100
AcDbSymbolTableRecord
100
AcDbBlockTableRecord
  2
*D21
340
0
  0
BLOCK_RECORD
  5
B976
330
1
100
AcDbSymbolTableRecord
100
AcDbBlockTableRecord
  2
*D22
340
0
  0
BLOCK_RECORD
  5
B982
330
1
100
AcDbSymbolTableRecord
100
AcDbBlockTableRecord
  2
*D23
340
0
  0
BLOCK_RECORD
  5
B98E
330
1
100
AcDbSymbolTableRecord
100
AcDbBlockTableRecord
  2
*D24
340
0
  0
BLOCK_RECORD
  5
B99A
330
1
100
AcDbSymbolTableRecord
100
AcDbBlockTableRecord
  2
*D25
340
0
  0
BLOCK_RECORD
  5
B9A6
330
1
100
AcDbSymbolTableRecord
100
AcDbBlockTableRecord
  2
*D26
340
0
  0
BLOCK_RECORD
  5
BA19
330
1
100
AcDbSymbolTableRecord
100
AcDbBlockTableRecord
  2
*D27
340
0
  0
BLOCK_RECORD
  5
BBC8
330
1
100
AcDbSymbolTableRecord
100
AcDbBlockTableRecord
  2
*D28
340
0
  0
ENDTAB
  0
ENDSEC
  0
SECTION
  2
BLOCKS
  0
BLOCK
  5
1F
330
1E
100
AcDbEntity
  8
0
100
AcDbBlockBegin
  2
*MODEL_SPACE
 70
     0
 10
0.0
 20
0.0
 30
0.0
  3
*MODEL_SPACE
  1

  0
ENDBLK
  5
20
330
1E
100
AcDbEntity
  8
0
100
AcDbBlockEnd
  0
BLOCK
  5
1B
330
1A
100
AcDbEntity
 67
     1
  8
0
100
AcDbBlockBegin
  2
*PAPER_SPACE
 70
     0
 10
0.0
 20
0.0
 30
0.0
  3
*PAPER_SPACE
  1

  0
ENDBLK
  5
1C
330
1A
100
AcDbEntity
 67
     1
  8
0
100
AcDbBlockEnd
  0
BLOCK
  5
3B6
330
3B2
100
AcDbEntity
  8
0
100
AcDbBlockBegin
  2
_OPEN
 70
     0
 10
0.0
 20
0.0
 30
0.0
  3
_OPEN
  1

  0
LINE
  5
3B3
330
3B2
100
AcDbEntity
  8
30
  6
Continuous
 62
     0
100
AcDbLine
 10
-1.0
 20
0.1666666666666666
 30
0.0
 11
0.0
 21
0.0
 31
0.0
  0
LINE
  5
3B4
330
3B2
100
AcDbEntity
  8
30
  6
Continuous
 62
     0
100
AcDbLine
 10
-1.0
 20
-0.1666666666666666
 30
0.0
 11
0.0
 21
0.0
 31
0.0
  0
LINE
  5
3B5
330
3B2
100
AcDbEntity
  8
30
  6
Continuous
 62
     0
100
AcDbLine
 10
0.0
 20
0.0
 30
0.0
 11
-1.0
 21
0.0
 31
0.0
  0
ENDBLK
  5
3B7
330
3B2
100
AcDbEntity
  8
0
100
AcDbBlockEnd
  0
BLOCK
  5
83A1
330
839C
100
AcDbEntity
  8
TOP
  6
Continuous
 62
     3
100
AcDbBlockBegin
  2
*U1
 70
     1
 10
0.0
 20
0.0
 30
0.0
  3
*U1
  1

  0
LINE
  5
839D
330
839C
100
AcDbEntity
  8
1
  6
ByBlock
 62
     0
100
AcDbLine
 10
548.3527638488361
 20
74.64070630641497
 30
0.0
 11
522.3527638488361
 21
74.64070630641497
 31
0.0
  0
LINE
  5
839E
330
839C
100
AcDbEntity
  8
1
  6
ByBlock
 62
     0
100
AcDbLine
 10
517.8511961722488
 20
100.6647232036204
 30
0.0
 11
522.3527638488361
 21
74.64070630641497
 31
0.0
  0
SOLID
  5
839F
330
839C
100
AcDbEntity
  8
1
  6
ByBlock
 62
     0
100
AcDbTrace
 10
517.8511961722488
 20
100.6647232036204
 30
0.0
 11
518.5205443376235
 21
98.75080465810007
 31
0.0
 12
517.8636330166235
 22
98.63717382314177
 32
0.0
 13
517.8636330166235
 23
98.63717382314177
 33
0.0
  0
TEXT
  5
83A0
330
839C
100
AcDbEntity
  8
TOP
  6
ByBlock
 62
     0
100
AcDbText
 10
548.3527638488361
 20
73.14070629651499
 30
0.0
 40
3.000000019799997
  1
 
 41
1.189062500000023
  7
UGMTXT
100
AcDbText
  0
ENDBLK
  5
83A2
330
839C
100
AcDbEntity
  8
0
100
AcDbBlockEnd
  0
BLOCK
  5
A3E9
330
A3DF
100
AcDbEntity
  8
0
100
AcDbBlockBegin
  2
*D2
 70
     1
 10
0.0
 20
0.0
 30
0.0
  3
*D2
  1

  0
LINE
  5
BD15
330
A3DF
100
AcDbEntity
  8
30
  6
Continuous
 62
     0
370
    -2
100
AcDbLine
 10
785.9829743985537
 20
-152.4710606479325
 30
0.0
 11
785.9829743985537
 21
-202.5669356479324
 31
0.0
  0
LINE
  5
BD16
330
A3DF
100
AcDbEntity
  8
30
  6
Continuous
 62
     0
370
    -2
100
AcDbLine
 10
995.9829743985537
 20
-152.4710606479325
 30
0.0
 11
995.9829743985537
 21
-202.5669356479324
 31
0.0
  0
LINE
  5
BD17
330
A3DF
100
AcDbEntity
  8
30
  6
Continuous
 62
     0
370
    -2
100
AcDbLine
 10
787.9829743985538
 20
-202.0669356479323
 30
0.0
 11
993.9829743985537
 21
-202.0669356479323
 31
0.0
  0
INSERT
  5
BD18
330
A3DF
100
AcDbEntity
  8
30
  6
Continuous
 62
     0
370
    -2
100
AcDbBlockReference
  2
_OPEN
 10
785.9829743985537
 20
-202.0669356479323
 30
0.0
 41
2.0
 42
2.0
 43
2.0
 50
180.0
  0
INSERT
  5
BD19
330
A3DF
100
AcDbEntity
  8
30
  6
Continuous
 62
     0
370
    -2
100
AcDbBlockReference
  2
_OPEN
 10
995.9829743985537
 20
-202.0669356479323
 30
0.0
 41
2.0
 42
2.0
 43
2.0
  0
MTEXT
  5
BD1A
330
A3DF
100
AcDbEntity
  8
30
  6
Continuous
 62
     0
100
AcDbMText
 10
890.9829743985536
 20
-196.0669356479323
 30
0.0
 40
6.0
 41
0.0
 71
     5
 72
     1
  1
\A1; 210 
 73
     1
 44
1.0
1001
ACAD
1000
MTEXTBEGIN
1070
    73
1070
     1
1070
    44
1040
1.0
1070
    74
1070
     0
1000
MTEXTEND
  0
POINT
  5
BD1B
330
A3DF
100
AcDbEntity
  8
DEFPOINTS
  6
Continuous
 62
     0
100
AcDbPoint
 10
785.9829743985537
 20
-149.4710606479324
 30
0.0
  0
POINT
  5
BD1C
330
A3DF
100
AcDbEntity
  8
DEFPOINTS
  6
Continuous
 62
     0
100
AcDbPoint
 10
995.9829743985537
 20
-149.4710606479324
 30
0.0
  0
POINT
  5
BD1D
330
A3DF
100
AcDbEntity
  8
DEFPOINTS
  6
Continuous
 62
     0
100
AcDbPoint
 10
995.9829743985537
 20
-202.0669356479323
 30
0.0
  0
ENDBLK
  5
A3EA
330
A3DF
100
AcDbEntity
  8
0
100
AcDbBlockEnd
  0
BLOCK
  5
A491
330
A487
100
AcDbEntity
  8
0
100
AcDbBlockBegin
  2
*D3
 70
     1
 10
0.0
 20
0.0
 30
0.0
  3
*D3
  1

  0
LINE
  5
BD0C
330
A487
100
AcDbEntity
  8
30
  6
Continuous
 62
     0
370
    -2
100
AcDbLine
 10
840.9829743985538
 20
-528.5
 30
0.0
 11
840.9829743985538
 21
-647.595875
 31
0.0
  0
LINE
  5
BD0D
330
A487
100
AcDbEntity
  8
30
  6
Continuous
 62
     0
370
    -2
100
AcDbLine
 10
940.9829743985538
 20
-528.5
 30
0.0
 11
940.9829743985538
 21
-647.595875
 31
0.0
  0
LINE
  5
BD0E
330
A487
100
AcDbEntity
  8
30
  6
Continuous
 62
     0
370
    -2
100
AcDbLine
 10
842.9829743985537
 20
-647.095875
 30
0.0
 11
938.9829743985538
 21
-647.095875
 31
0.0
  0
INSERT
  5
BD0F
330
A487
100
AcDbEntity
  8
30
  6
Continuous
 62
     0
370
    -2
100
AcDbBlockReference
  2
_OPEN
 10
840.9829743985538
 20
-647.095875
 30
0.0
 41
2.0
 42
2.0
 43
2.0
 50
180.0
  0
INSERT
  5
BD10
330
A487
100
AcDbEntity
  8
30
  6
Continuous
 62
     0
370
    -2
100
AcDbBlockReference
  2
_OPEN
 10
940.9829743985538
 20
-647.095875
 30
0.0
 41
2.0
 42
2.0
 43
2.0
  0
MTEXT
  5
BD11
330
A487
100
AcDbEntity
  8
30
  6
Continuous
 62
     0
100
AcDbMText
 10
890.9829743985538
 20
-641.0958749999998
 30
0.0
 40
6.0
 41
0.0
 71
     5
 72
     1
  1
\A1; 100 
 73
     1
 44
1.0
1001
ACAD
1000
MTEXTBEGIN
1070
    73
1070
     1
1070
    44
1040
1.0
1070
    74
1070
     0
1000
MTEXTEND
  0
POINT
  5
BD12
330
A487
100
AcDbEntity
  8
DEFPOINTS
  6
Continuous
 62
     0
100
AcDbPoint
 10
840.9829743985538
 20
-525.4999999999999
 30
0.0
  0
POINT
  5
BD13
330
A487
100
AcDbEntity
  8
DEFPOINTS
  6
Continuous
 62
     0
100
AcDbPoint
 10
940.9829743985538
 20
-525.4999999999999
 30
0.0
  0
POINT
  5
BD14
330
A487
100
AcDbEntity
  8
DEFPOINTS
  6
Continuous
 62
     0
100
AcDbPoint
 10
940.9829743985538
 20
-647.095875
 30
0.0
  0
ENDBLK
  5
A492
330
A487
100
AcDbEntity
  8
0
100
AcDbBlockEnd
  0
BLOCK
  5
B087
330
B07D
100
AcDbEntity
  8
0
100
AcDbBlockBegin
  2
*D4
 70
     1
 10
0.0
 20
0.0
 30
0.0
  3
*D4
  1

  0
LINE
  5
BD03
330
B07D
100
AcDbEntity
  8
30
  6
Continuous
 62
     0
370
    -2
100
AcDbLine
 10
842.9829743985536
 20
179.5289393520674
 30
0.0
 11
734.92743803637
 21
179.5289393520674
 31
0.0
  0
LINE
  5
BD04
330
B07D
100
AcDbEntity
  8
30
  6
Continuous
 62
     0
370
    -2
100
AcDbLine
 10
842.9829743985536
 20
-170.4710606479324
 30
0.0
 11
734.92743803637
 21
-170.4710606479324
 31
0.0
  0
LINE
  5
BD05
330
B07D
100
AcDbEntity
  8
30
  6
Continuous
 62
     0
370
    -2
100
AcDbLine
 10
735.42743803637
 20
177.5289393520674
 30
0.0
 11
735.42743803637
 21
-168.4710606479324
 31
0.0
  0
INSERT
  5
BD06
330
B07D
100
AcDbEntity
  8
30
  6
Continuous
 62
     0
370
    -2
100
AcDbBlockReference
  2
_OPEN
 10
735.42743803637
 20
179.5289393520674
 30
0.0
 41
2.0
 42
2.0
 43
2.0
 50
90.0
  0
INSERT
  5
BD07
330
B07D
100
AcDbEntity
  8
30
  6
Continuous
 62
     0
370
    -2
100
AcDbBlockReference
  2
_OPEN
 10
735.42743803637
 20
-170.4710606479324
 30
0.0
 41
2.0
 42
2.0
 43
2.0
 50
270.0
  0
MTEXT
  5
BD08
330
B07D
100
AcDbEntity
  8
30
  6
Continuous
 62
     0
100
AcDbMText
 10
729.4274380363701
 20
-0.0469446823908576
 30
0.0
 40
6.0
 41
0.0
 71
     5
 72
     1
  1
\A1;350
 11
0.0000000000000001
 21
1.0
 31
0.0
 73
     1
 44
1.0
1001
ACAD
1000
MTEXTBEGIN
1070
    73
1070
     1
1070
    44
1040
1.0
1070
    74
1070
     0
1000
MTEXTEND
  0
POINT
  5
BD09
330
B07D
100
AcDbEntity
  8
DEFPOINTS
  6
Continuous
 62
     0
100
AcDbPoint
 10
845.9829743985533
 20
179.5289393520674
 30
0.0
  0
POINT
  5
BD0A
330
B07D
100
AcDbEntity
  8
DEFPOINTS
  6
Continuous
 62
     0
100
AcDbPoint
 10
845.9829743985533
 20
-170.4710606479324
 30
0.0
  0
POINT
  5
BD0B
330
B07D
100
AcDbEntity
  8
DEFPOINTS
  6
Continuous
 62
     0
100
AcDbPoint
 10
735.42743803637
 20
-170.4710606479324
 30
0.0
  0
ENDBLK
  5
B088
330
B07D
100
AcDbEntity
  8
0
100
AcDbBlockEnd
  0
BLOCK
  5
B093
330
B089
100
AcDbEntity
  8
0
100
AcDbBlockBegin
  2
*D5
 70
     1
 10
0.0
 20
0.0
 30
0.0
  3
*D5
  1

  0
LINE
  5
BCFA
330
B089
100
AcDbEntity
  8
30
  6
Continuous
 62
     0
370
    -2
100
AcDbLine
 10
782.9829743985536
 20
158.5289393520674
 30
0.0
 11
750.9858567141788
 21
158.5289393520674
 31
0.0
  0
LINE
  5
BCFB
330
B089
100
AcDbEntity
  8
30
  6
Continuous
 62
     0
370
    -2
100
AcDbLine
 10
782.9829743985536
 20
-149.4710606479324
 30
0.0
 11
750.9858567141788
 21
-149.4710606479324
 31
0.0
  0
LINE
  5
BCFC
330
B089
100
AcDbEntity
  8
30
  6
Continuous
 62
     0
370
    -2
100
AcDbLine
 10
751.4858567141788
 20
156.5289393520674
 30
0.0
 11
751.4858567141788
 21
-147.4710606479324
 31
0.0
  0
INSERT
  5
BCFD
330
B089
100
AcDbEntity
  8
30
  6
Continuous
 62
     0
370
    -2
100
AcDbBlockReference
  2
_OPEN
 10
751.4858567141788
 20
158.5289393520674
 30
0.0
 41
2.0
 42
2.0
 43
2.0
 50
90.0
  0
INSERT
  5
BCFE
330
B089
100
AcDbEntity
  8
30
  6
Continuous
 62
     0
370
    -2
100
AcDbBlockReference
  2
_OPEN
 10
751.4858567141788
 20
-149.4710606479324
 30
0.0
 41
2.0
 42
2.0
 43
2.0
 50
270.0
  0
MTEXT
  5
BCFF
330
B089
100
AcDbEntity
  8
30
  6
Continuous
 62
     0
100
AcDbMText
 10
745.4858567141788
 20
2.432749442561542
 30
0.0
 40
6.0
 41
0.0
 71
     5
 72
     1
  1
\A1;308
 11
0.0000000000000001
 21
1.0
 31
0.0
 73
     1
 44
1.0
1001
ACAD
1000
MTEXTBEGIN
1070
    73
1070
     1
1070
    44
1040
1.0
1070
    74
1070
     0
1000
MTEXTEND
  0
POINT
  5
BD00
330
B089
100
AcDbEntity
  8
DEFPOINTS
  6
Continuous
 62
     0
100
AcDbPoint
 10
785.9829743985536
 20
158.5289393520674
 30
0.0
  0
POINT
  5
BD01
330
B089
100
AcDbEntity
  8
DEFPOINTS
  6
Continuous
 62
     0
100
AcDbPoint
 10
785.9829743985536
 20
-149.4710606479324
 30
0.0
  0
POINT
  5
BD02
330
B089
100
AcDbEntity
  8
DEFPOINTS
  6
Continuous
 62
     0
100
AcDbPoint
 10
751.4858567141788
 20
-149.4710606479324
 30
0.0
  0
ENDBLK
  5
B094
330
B089
100
AcDbEntity
  8
0
100
AcDbBlockEnd
  0
BLOCK
  5
B09F
330
B095
100
AcDbEntity
  8
0
100
AcDbBlockBegin
  2
*D6
 70
     1
 10
0.0
 20
0.0
 30
0.0
  3
*D6
  1

  0
LINE
  5
BCF1
330
B095
100
AcDbEntity
  8
30
  6
Continuous
 62
     0
370
    -2
100
AcDbLine
 10
782.9829743985536
 20
141.0289393520674
 30
0.0
 11
769.349650768752
 21
141.0289393520674
 31
0.0
  0
LINE
  5
BCF2
330
B095
100
AcDbEntity
  8
30
  6
Continuous
 62
     0
370
    -2
100
AcDbLine
 10
782.9829743985536
 20
-131.9710606479324
 30
0.0
 11
769.349650768752
 21
-131.9710606479324
 31
0.0
  0
LINE
  5
BCF3
330
B095
100
AcDbEntity
  8
30
  6
Continuous
 62
     0
370
    -2
100
AcDbLine
 10
769.849650768752
 20
139.0289393520674
 30
0.0
 11
769.849650768752
 21
-129.9710606479324
 31
0.0
  0
INSERT
  5
BCF4
330
B095
100
AcDbEntity
  8
30
  6
Continuous
 62
     0
370
    -2
100
AcDbBlockReference
  2
_OPEN
 10
769.849650768752
 20
141.0289393520674
 30
0.0
 41
2.0
 42
2.0
 43
2.0
 50
90.0
  0
INSERT
  5
BCF5
330
B095
100
AcDbEntity
  8
30
  6
Continuous
 62
     0
370
    -2
100
AcDbBlockReference
  2
_OPEN
 10
769.849650768752
 20
-131.9710606479324
 30
0.0
 41
2.0
 42
2.0
 43
2.0
 50
270.0
  0
MTEXT
  5
BCF6
330
B095
100
AcDbEntity
  8
30
  6
Continuous
 62
     0
100
AcDbMText
 10
763.849650768752
 20
14.96450062343956
 30
0.0
 40
6.0
 41
0.0
 71
     5
 72
     1
  1
\A1;273
 11
0.0000000000000001
 21
1.0
 31
0.0
 73
     1
 44
1.0
1001
ACAD
1000
MTEXTBEGIN
1070
    73
1070
     1
1070
    44
1040
1.0
1070
    74
1070
     0
1000
MTEXTEND
  0
POINT
  5
BCF7
330
B095
100
AcDbEntity
  8
DEFPOINTS
  6
Continuous
 62
     0
100
AcDbPoint
 10
785.9829743985536
 20
141.0289393520674
 30
0.0
  0
POINT
  5
BCF8
330
B095
100
AcDbEntity
  8
DEFPOINTS
  6
Continuous
 62
     0
100
AcDbPoint
 10
785.9829743985536
 20
-131.9710606479324
 30
0.0
  0
POINT
  5
BCF9
330
B095
100
AcDbEntity
  8
DEFPOINTS
  6
Continuous
 62
     0
100
AcDbPoint
 10
769.849650768752
 20
-131.9710606479324
 30
0.0
  0
ENDBLK
  5
B0A0
330
B095
100
AcDbEntity
  8
0
100
AcDbBlockEnd
  0
BLOCK
  5
B70F
330
B705
100
AcDbEntity
  8
0
100
AcDbBlockBegin
  2
*D7
 70
     1
 10
0.0
 20
0.0
 30
0.0
  3
*D7
  1

  0
LINE
  5
BCE8
330
B705
100
AcDbEntity
  8
30
  6
Continuous
 62
     0
370
    -2
100
AcDbLine
 10
1177.740803496176
 20
433.1582079486061
 30
0.0
 11
1177.740803496176
 21
442.7762871192651
 31
0.0
  0
LINE
  5
BCE9
330
B705
100
AcDbEntity
  8
30
  6
Continuous
 62
     0
370
    -2
100
AcDbLine
 10
1200.740803496175
 20
393.7651679486061
 30
0.0
 11
1200.740803496175
 21
442.7762871192651
 31
0.0
  0
LINE
  5
BCEA
330
B705
100
AcDbEntity
  8
30
  6
Continuous
 62
     0
370
    -2
100
AcDbLine
 10
1179.740803496174
 20
442.2762871192651
 30
0.0
 11
1198.740803496175
 21
442.2762871192651
 31
0.0
  0
INSERT
  5
BCEB
330
B705
100
AcDbEntity
  8
30
  6
Continuous
 62
     0
370
    -2
100
AcDbBlockReference
  2
_OPEN
 10
1177.740803496176
 20
442.2762871192651
 30
0.0
 41
2.0
 42
2.0
 43
2.0
 50
180.0
  0
INSERT
  5
BCEC
330
B705
100
AcDbEntity
  8
30
  6
Continuous
 62
     0
370
    -2
100
AcDbBlockReference
  2
_OPEN
 10
1200.740803496175
 20
442.2762871192651
 30
0.0
 41
2.0
 42
2.0
 43
2.0
  0
MTEXT
  5
BCED
330
B705
100
AcDbEntity
  8
30
  6
Continuous
 62
     0
100
AcDbMText
 10
1189.240803496175
 20
448.2762871192652
 30
0.0
 40
6.0
 41
0.0
 71
     5
 72
     1
  1
\A1; 23 
 73
     1
 44
1.0
1001
ACAD
1000
MTEXTBEGIN
1070
    73
1070
     1
1070
    44
1040
1.0
1070
    74
1070
     0
1000
MTEXTEND
  0
POINT
  5
BCEE
330
B705
100
AcDbEntity
  8
DEFPOINTS
  6
Continuous
 62
     0
100
AcDbPoint
 10
1177.740803496176
 20
430.1582079486061
 30
0.0
  0
POINT
  5
BCEF
330
B705
100
AcDbEntity
  8
DEFPOINTS
  6
Continuous
 62
     0
100
AcDbPoint
 10
1200.740803496175
 20
390.7651679486061
 30
0.0
  0
POINT
  5
BCF0
330
B705
100
AcDbEntity
  8
DEFPOINTS
  6
Continuous
 62
     0
100
AcDbPoint
 10
1200.740803496175
 20
442.2762871192651
 30
0.0
  0
ENDBLK
  5
B710
330
B705
100
AcDbEntity
  8
0
100
AcDbBlockEnd
  0
BLOCK
  5
B71B
330
B711
100
AcDbEntity
  8
0
100
AcDbBlockBegin
  2
*D8
 70
     1
 10
0.0
 20
0.0
 30
0.0
  3
*D8
  1

  0
LINE
  5
BCDF
330
B711
100
AcDbEntity
  8
30
  6
Continuous
 62
     0
370
    -2
100
AcDbLine
 10
1197.640803496176
 20
244.7651679486061
 30
0.0
 11
1197.640803496176
 21
224.6692929486062
 31
0.0
  0
LINE
  5
BCE0
330
B711
100
AcDbEntity
  8
30
  6
Continuous
 62
     0
370
    -2
100
AcDbLine
 10
1241.140803496175
 20
321.2651679486061
 30
0.0
 11
1241.140803496175
 21
224.6692929486062
 31
0.0
  0
LINE
  5
BCE1
330
B711
100
AcDbEntity
  8
30
  6
Continuous
 62
     0
370
    -2
100
AcDbLine
 10
1199.640803496176
 20
225.1692929486062
 30
0.0
 11
1239.140803496176
 21
225.1692929486062
 31
0.0
  0
INSERT
  5
BCE2
330
B711
100
AcDbEntity
  8
30
  6
Continuous
 62
     0
370
    -2
100
AcDbBlockReference
  2
_OPEN
 10
1197.640803496176
 20
225.1692929486062
 30
0.0
 41
2.0
 42
2.0
 43
2.0
 50
180.0
  0
INSERT
  5
BCE3
330
B711
100
AcDbEntity
  8
30
  6
Continuous
 62
     0
370
    -2
100
AcDbBlockReference
  2
_OPEN
 10
1241.140803496175
 20
225.1692929486062
 30
0.0
 41
2.0
 42
2.0
 43
2.0
  0
MTEXT
  5
BCE4
330
B711
100
AcDbEntity
  8
30
  6
Continuous
 62
     0
100
AcDbMText
 10
1219.390803496176
 20
231.1692929486062
 30
0.0
 40
6.0
 41
0.0
 71
     5
 72
     1
  1
\A1; 43.5 
 73
     1
 44
1.0
1001
ACAD
1000
MTEXTBEGIN
1070
    73
1070
     1
1070
    44
1040
1.0
1070
    74
1070
     0
1000
MTEXTEND
  0
POINT
  5
BCE5
330
B711
100
AcDbEntity
  8
DEFPOINTS
  6
Continuous
 62
     0
100
AcDbPoint
 10
1197.640803496176
 20
247.7651679486061
 30
0.0
  0
POINT
  5
BCE6
330
B711
100
AcDbEntity
  8
DEFPOINTS
  6
Continuous
 62
     0
100
AcDbPoint
 10
1241.140803496175
 20
324.2651679486062
 30
0.0
  0
POINT
  5
BCE7
330
B711
100
AcDbEntity
  8
DEFPOINTS
  6
Continuous
 62
     0
100
AcDbPoint
 10
1241.140803496175
 20
225.1692929486062
 30
0.0
  0
ENDBLK
  5
B71C
330
B711
100
AcDbEntity
  8
0
100
AcDbBlockEnd
  0
BLOCK
  5
B727
330
B71D
100
AcDbEntity
  8
0
100
AcDbBlockBegin
  2
*D9
 70
     1
 10
0.0
 20
0.0
 30
0.0
  3
*D9
  1

  0
LINE
  5
BCD6
330
B71D
100
AcDbEntity
  8
30
  6
Continuous
 62
     0
370
    -2
100
AcDbLine
 10
1205.640803496176
 20
335.2651679486061
 30
0.0
 11
1278.194703496176
 21
335.2651679486061
 31
0.0
  0
LINE
  5
BCD7
330
B71D
100
AcDbEntity
  8
30
  6
Continuous
 62
     0
370
    -2
100
AcDbLine
 10
1250.140803496176
 20
362.2651679486061
 30
0.0
 11
1278.194703496176
 21
362.2651679486061
 31
0.0
  0
LINE
  5
BCD8
330
B71D
100
AcDbEntity
  8
30
  6
Continuous
 62
     0
370
    -2
100
AcDbLine
 10
1277.694703496176
 20
337.2651679486061
 30
0.0
 11
1277.694703496176
 21
360.2651679486061
 31
0.0
  0
INSERT
  5
BCD9
330
B71D
100
AcDbEntity
  8
30
  6
Continuous
 62
     0
370
    -2
100
AcDbBlockReference
  2
_OPEN
 10
1277.694703496176
 20
335.2651679486061
 30
0.0
 41
2.0
 42
2.0
 43
2.0
 50
270.0
  0
INSERT
  5
BCDA
330
B71D
100
AcDbEntity
  8
30
  6
Continuous
 62
     0
370
    -2
100
AcDbBlockReference
  2
_OPEN
 10
1277.694703496176
 20
362.2651679486061
 30
0.0
 41
2.0
 42
2.0
 43
2.0
 50
90.0
  0
MTEXT
  5
BCDB
330
B71D
100
AcDbEntity
  8
30
  6
Continuous
 62
     0
100
AcDbMText
 10
1271.694703496176
 20
348.7651679486063
 30
0.0
 40
6.0
 41
0.0
 71
     5
 72
     1
  1
\A1; 27 
 11
0.0000000000000001
 21
1.0
 31
0.0
 73
     1
 44
1.0
1001
ACAD
1000
MTEXTBEGIN
1070
    73
1070
     1
1070
    44
1040
1.0
1070
    74
1070
     0
1000
MTEXTEND
  0
POINT
  5
BCDC
330
B71D
100
AcDbEntity
  8
DEFPOINTS
  6
Continuous
 62
     0
100
AcDbPoint
 10
1202.640803496175
 20
335.2651679486061
 30
0.0
  0
POINT
  5
BCDD
330
B71D
100
AcDbEntity
  8
DEFPOINTS
  6
Continuous
 62
     0
100
AcDbPoint
 10
1247.140803496176
 20
362.2651679486061
 30
0.0
  0
POINT
  5
BCDE
330
B71D
100
AcDbEntity
  8
DEFPOINTS
  6
Continuous
 62
     0
100
AcDbPoint
 10
1277.694703496176
 20
362.2651679486061
 30
0.0
  0
ENDBLK
  5
B728
330
B71D
100
AcDbEntity
  8
0
100
AcDbBlockEnd
  0
BLOCK
  5
B733
330
B729
100
AcDbEntity
  8
0
100
AcDbBlockBegin
  2
*D10
 70
     1
 10
0.0
 20
0.0
 30
0.0
  3
*D10
  1

  0
LINE
  5
BCCD
330
B729
100
AcDbEntity
  8
30
  6
Continuous
 62
     0
370
    -2
100
AcDbLine
 10
1126.140803496173
 20
299.7651679486061
 30
0.0
 11
1126.140803496173
 21
265.0985012819393
 31
0.0
  0
LINE
  5
BCCE
330
B729
100
AcDbEntity
  8
30
  6
Continuous
 62
     0
370
    -2
100
AcDbLine
 10
1175.140803496175
 20
278.7651679486061
 30
0.0
 11
1175.140803496175
 21
265.0985012819393
 31
0.0
  0
LINE
  5
BCCF
330
B729
100
AcDbEntity
  8
30
  6
Continuous
 62
     0
370
    -2
100
AcDbLine
 10
1128.140803496176
 20
265.5985012819395
 30
0.0
 11
1173.140803496176
 21
265.5985012819395
 31
0.0
  0
INSERT
  5
BCD0
330
B729
100
AcDbEntity
  8
30
  6
Continuous
 62
     0
370
    -2
100
AcDbBlockReference
  2
_OPEN
 10
1126.140803496173
 20
265.5985012819395
 30
0.0
 41
2.0
 42
2.0
 43
2.0
 50
180.0
  0
INSERT
  5
BCD1
330
B729
100
AcDbEntity
  8
30
  6
Continuous
 62
     0
370
    -2
100
AcDbBlockReference
  2
_OPEN
 10
1175.140803496175
 20
265.5985012819395
 30
0.0
 41
2.0
 42
2.0
 43
2.0
  0
MTEXT
  5
BCD2
330
B729
100
AcDbEntity
  8
30
  6
Continuous
 62
     0
100
AcDbMText
 10
1150.640803496176
 20
271.5985012819393
 30
0.0
 40
6.0
 41
0.0
 71
     5
 72
     1
  1
\A1;49
 73
     1
 44
1.0
1001
ACAD
1000
MTEXTBEGIN
1070
    73
1070
     1
1070
    44
1040
1.0
1070
    74
1070
     0
1000
MTEXTEND
  0
POINT
  5
BCD3
330
B729
100
AcDbEntity
  8
DEFPOINTS
  6
Continuous
 62
     0
100
AcDbPoint
 10
1126.140803496173
 20
302.7651679486063
 30
0.0
  0
POINT
  5
BCD4
330
B729
100
AcDbEntity
  8
DEFPOINTS
  6
Continuous
 62
     0
100
AcDbPoint
 10
1175.140803496175
 20
281.7651679486063
 30
0.0
  0
POINT
  5
BCD5
330
B729
100
AcDbEntity
  8
DEFPOINTS
  6
Continuous
 62
     0
100
AcDbPoint
 10
1175.140803496175
 20
265.5985012819395
 30
0.0
  0
ENDBLK
  5
B734
330
B729
100
AcDbEntity
  8
0
100
AcDbBlockEnd
  0
BLOCK
  5
B73F
330
B735
100
AcDbEntity
  8
0
100
AcDbBlockBegin
  2
*D11
 70
     1
 10
0.0
 20
0.0
 30
0.0
  3
*D11
  1

  0
LINE
  5
BCC4
330
B735
100
AcDbEntity
  8
30
  6
Continuous
 62
     0
370
    -2
100
AcDbLine
 10
1126.140803496173
 20
294.7651679486061
 30
0.0
 11
1126.140803496173
 21
224.6692929486062
 31
0.0
  0
LINE
  5
BCC5
330
B735
100
AcDbEntity
  8
30
  6
Continuous
 62
     0
370
    -2
100
AcDbLine
 10
1197.640803496176
 20
244.7651679486061
 30
0.0
 11
1197.640803496176
 21
224.6692929486062
 31
0.0
  0
LINE
  5
BCC6
330
B735
100
AcDbEntity
  8
30
  6
Continuous
 62
     0
370
    -2
100
AcDbLine
 10
1128.140803496176
 20
225.1692929486062
 30
0.0
 11
1195.640803496176
 21
225.1692929486062
 31
0.0
  0
INSERT
  5
BCC7
330
B735
100
AcDbEntity
  8
30
  6
Continuous
 62
     0
370
    -2
100
AcDbBlockReference
  2
_OPEN
 10
1126.140803496173
 20
225.1692929486062
 30
0.0
 41
2.0
 42
2.0
 43
2.0
 50
180.0
  0
INSERT
  5
BCC8
330
B735
100
AcDbEntity
  8
30
  6
Continuous
 62
     0
370
    -2
100
AcDbBlockReference
  2
_OPEN
 10
1197.640803496176
 20
225.1692929486062
 30
0.0
 41
2.0
 42
2.0
 43
2.0
  0
MTEXT
  5
BCC9
330
B735
100
AcDbEntity
  8
30
  6
Continuous
 62
     0
100
AcDbMText
 10
1161.890803496176
 20
231.1692929486062
 30
0.0
 40
6.0
 41
0.0
 71
     5
 72
     1
  1
\A1; 71.5 
 73
     1
 44
1.0
1001
ACAD
1000
MTEXTBEGIN
1070
    73
1070
     1
1070
    44
1040
1.0
1070
    74
1070
     0
1000
MTEXTEND
  0
POINT
  5
BCCA
330
B735
100
AcDbEntity
  8
DEFPOINTS
  6
Continuous
 62
     0
100
AcDbPoint
 10
1126.140803496173
 20
297.7651679486061
 30
0.0
  0
POINT
  5
BCCB
330
B735
100
AcDbEntity
  8
DEFPOINTS
  6
Continuous
 62
     0
100
AcDbPoint
 10
1197.640803496176
 20
247.7651679486061
 30
0.0
  0
POINT
  5
BCCC
330
B735
100
AcDbEntity
  8
DEFPOINTS
  6
Continuous
 62
     0
100
AcDbPoint
 10
1197.640803496176
 20
225.1692929486062
 30
0.0
  0
ENDBLK
  5
B740
330
B735
100
AcDbEntity
  8
0
100
AcDbBlockEnd
  0
BLOCK
  5
B74B
330
B741
100
AcDbEntity
  8
0
100
AcDbBlockBegin
  2
*D12
 70
     1
 10
0.0
 20
0.0
 30
0.0
  3
*D12
  1

  0
LINE
  5
BCBA
330
B741
100
AcDbEntity
  8
30
  6
Continuous
 62
     0
370
    -2
100
AcDbLine
 10
1175.140803496175
 20
278.7651679486061
 30
0.0
 11
1175.140803496175
 21
265.0985012819393
 31
0.0
  0
LINE
  5
BCBB
330
B741
100
AcDbEntity
  8
30
  6
Continuous
 62
     0
370
    -2
100
AcDbLine
 10
1197.640803496176
 20
268.5985012819393
 30
0.0
 11
1197.640803496176
 21
266.0985012819395
 31
0.0
  0
LINE
  5
BCBC
330
B741
100
AcDbEntity
  8
30
  6
Continuous
 62
     0
370
    -2
100
AcDbLine
 10
1177.140803496176
 20
265.5985012819395
 30
0.0
 11
1195.640803496176
 21
265.5985012819395
 31
0.0
  0
LINE
  5
BCBD
330
B741
100
AcDbEntity
  8
30
  6
Continuous
 62
     0
370
    -2
100
AcDbLine
 10
1197.640803496176
 20
265.5985012819395
 30
0.0
 11
1223.640803496176
 21
265.5985012819395
 31
0.0
  0
INSERT
  5
BCBE
330
B741
100
AcDbEntity
  8
30
  6
Continuous
 62
     0
370
    -2
100
AcDbBlockReference
  2
_OPEN
 10
1175.140803496175
 20
265.5985012819395
 30
0.0
 41
2.0
 42
2.0
 43
2.0
 50
180.0
  0
INSERT
  5
BCBF
330
B741
100
AcDbEntity
  8
30
  6
Continuous
 62
     0
370
    -2
100
AcDbBlockReference
  2
_OPEN
 10
1197.640803496176
 20
265.5985012819395
 30
0.0
 41
2.0
 42
2.0
 43
2.0
  0
MTEXT
  5
BCC0
330
B741
100
AcDbEntity
  8
30
  6
Continuous
 62
     0
100
AcDbMText
 10
1211.640803496176
 20
271.5985012819393
 30
0.0
 40
6.0
 41
0.0
 71
     5
 72
     1
  1
\A1;22.5
 73
     1
 44
1.0
1001
ACAD
1000
MTEXTBEGIN
1070
    73
1070
     1
1070
    44
1040
1.0
1070
    74
1070
     0
1000
MTEXTEND
  0
POINT
  5
BCC1
330
B741
100
AcDbEntity
  8
DEFPOINTS
  6
Continuous
 62
     0
100
AcDbPoint
 10
1175.140803496175
 20
281.7651679486063
 30
0.0
  0
POINT
  5
BCC2
330
B741
100
AcDbEntity
  8
DEFPOINTS
  6
Continuous
 62
     0
100
AcDbPoint
 10
1197.640803496176
 20
265.5985012819395
 30
0.0
  0
POINT
  5
BCC3
330
B741
100
AcDbEntity
  8
DEFPOINTS
  6
Continuous
 62
     0
100
AcDbPoint
 10
1197.640803496176
 20
265.5985012819395
 30
0.0
  0
ENDBLK
  5
B74C
330
B741
100
AcDbEntity
  8
0
100
AcDbBlockEnd
  0
BLOCK
  5
B757
330
B74D
100
AcDbEntity
  8
0
100
AcDbBlockBegin
  2
*D13
 70
     1
 10
0.0
 20
0.0
 30
0.0
  3
*D13
  1

  0
LINE
  5
BCB1
330
B74D
100
AcDbEntity
  8
30
  6
Continuous
 62
     0
370
    -2
100
AcDbLine
 10
1312.640803496176
 20
369.7651679486061
 30
0.0
 11
1312.640803496176
 21
393.9420638048996
 31
0.0
  0
LINE
  5
BCB2
330
B74D
100
AcDbEntity
  8
30
  6
Continuous
 62
     0
370
    -2
100
AcDbLine
 10
1352.640803496176
 20
369.7651679486061
 30
0.0
 11
1352.640803496176
 21
393.9420638048996
 31
0.0
  0
LINE
  5
BCB3
330
B74D
100
AcDbEntity
  8
30
  6
Continuous
 62
     0
370
    -2
100
AcDbLine
 10
1314.640803496176
 20
393.4420638048996
 30
0.0
 11
1350.640803496176
 21
393.4420638048996
 31
0.0
  0
INSERT
  5
BCB4
330
B74D
100
AcDbEntity
  8
30
  6
Continuous
 62
     0
370
    -2
100
AcDbBlockReference
  2
_OPEN
 10
1312.640803496176
 20
393.4420638048996
 30
0.0
 41
2.0
 42
2.0
 43
2.0
 50
180.0
  0
INSERT
  5
BCB5
330
B74D
100
AcDbEntity
  8
30
  6
Continuous
 62
     0
370
    -2
100
AcDbBlockReference
  2
_OPEN
 10
1352.640803496176
 20
393.4420638048996
 30
0.0
 41
2.0
 42
2.0
 43
2.0
  0
MTEXT
  5
BCB6
330
B74D
100
AcDbEntity
  8
30
  6
Continuous
 62
     0
100
AcDbMText
 10
1332.640803496176
 20
399.4420638048996
 30
0.0
 40
6.0
 41
0.0
 71
     5
 72
     1
  1
\A1; 40 
 73
     1
 44
1.0
1001
ACAD
1000
MTEXTBEGIN
1070
    73
1070
     1
1070
    44
1040
1.0
1070
    74
1070
     0
1000
MTEXTEND
  0
POINT
  5
BCB7
330
B74D
100
AcDbEntity
  8
DEFPOINTS
  6
Continuous
 62
     0
100
AcDbPoint
 10
1312.640803496176
 20
366.7651679486061
 30
0.0
  0
POINT
  5
BCB8
330
B74D
100
AcDbEntity
  8
DEFPOINTS
  6
Continuous
 62
     0
100
AcDbPoint
 10
1352.640803496176
 20
366.7651679486061
 30
0.0
  0
POINT
  5
BCB9
330
B74D
100
AcDbEntity
  8
DEFPOINTS
  6
Continuous
 62
     0
100
AcDbPoint
 10
1352.640803496176
 20
393.4420638048996
 30
0.0
  0
ENDBLK
  5
B758
330
B74D
100
AcDbEntity
  8
0
100
AcDbBlockEnd
  0
BLOCK
  5
B762
330
B759
100
AcDbEntity
  8
0
100
AcDbBlockBegin
  2
*D14
 70
     1
 10
0.0
 20
0.0
 30
0.0
  3
*D14
  1

  0
LINE
  5
BD25
330
B759
100
AcDbEntity
  8
30
  6
Continuous
 62
     0
370
    -2
100
AcDbLine
 10
1334.923246715969
 20
331.3869676297199
 30
0.0
 11
1330.358365276381
 21
339.1433732674926
 31
0.0
  0
LINE
  5
BD26
330
B759
100
AcDbEntity
  8
30
  6
Continuous
 62
     0
370
    -2
100
AcDbLine
 10
1329.343946996946
 20
340.8670192735936
 30
0.0
 11
1323.184306489248
 21
351.3331553590163
 31
0.0
  0
LINE
  5
BD27
330
B759
100
AcDbEntity
  8
30
  6
Continuous
 62
     0
370
    -2
100
AcDbLine
 10
1323.184306489248
 20
351.3331553590163
 30
0.0
 11
1340.184306489248
 21
351.3331553590167
 31
0.0
  0
INSERT
  5
BD28
330
B759
100
AcDbEntity
  8
30
  6
Continuous
 62
     0
370
    -2
100
AcDbBlockReference
  2
_OPEN
 10
1335.937664995404
 20
329.6633216236191
 30
0.0
 41
2.0
 42
2.0
 43
2.0
 50
300.4781100949433
  0
INSERT
  5
BD29
330
B759
100
AcDbEntity
  8
30
  6
Continuous
 62
     0
370
    -2
100
AcDbBlockReference
  2
_OPEN
 10
1329.343946996946
 20
340.8670192735936
 30
0.0
 41
2.0
 42
2.0
 43
2.0
 50
120.4781100949432
  0
MTEXT
  5
BD2A
102
{ACAD_XDICTIONARY
360
BEC6
102
}
330
B759
100
AcDbEntity
  8
30
  6
Continuous
 62
     0
100
AcDbMText
 10
1333.184306489247
 20
357.3331553590163
 30
0.0
 40
6.0
 41
0.0
 71
     5
 72
     1
  1
\A1;\U+220513
 73
     1
 44
1.0
1001
ACAD
1000
MTEXTBEGIN
1070
    73
1070
     1
1070
    44
1040
1.0
1070
    74
1070
     0
1000
MTEXTEND
  0
POINT
  5
BD2B
330
B759
100
AcDbEntity
  8
DEFPOINTS
  6
Continuous
 62
     0
100
AcDbPoint
 10
1329.343946996946
 20
340.8670192735936
 30
0.0
  0
POINT
  5
BD2C
330
B759
100
AcDbEntity
  8
DEFPOINTS
  6
Continuous
 62
     0
100
AcDbPoint
 10
1335.937664995404
 20
329.6633216236191
 30
0.0
  0
ENDBLK
  5
B763
330
B759
100
AcDbEntity
  8
0
100
AcDbBlockEnd
  0
BLOCK
  5
B76E
330
B764
100
AcDbEntity
  8
0
100
AcDbBlockBegin
  2
*D15
 70
     1
 10
0.0
 20
0.0
 30
0.0
  3
*D15
  1

  0
LINE
  5
BD3D
330
B764
100
AcDbEntity
  8
30
  6
Continuous
 62
     0
370
    -2
100
AcDbLine
 10
1340.640803496176
 20
335.2651679486061
 30
0.0
 11
1393.194703496176
 21
335.2651679486061
 31
0.0
  0
LINE
  5
BD3E
330
B764
100
AcDbEntity
  8
30
  6
Continuous
 62
     0
370
    -2
100
AcDbLine
 10
1360.640803496176
 20
361.7651679486062
 30
0.0
 11
1393.194703496176
 21
361.7651679486062
 31
0.0
  0
LINE
  5
BD3F
330
B764
100
AcDbEntity
  8
30
  6
Continuous
 62
     0
370
    -2
100
AcDbLine
 10
1392.694703496174
 20
337.2651679486061
 30
0.0
 11
1392.694703496174
 21
359.7651679486062
 31
0.0
  0
INSERT
  5
BD40
330
B764
100
AcDbEntity
  8
30
  6
Continuous
 62
     0
370
    -2
100
AcDbBlockReference
  2
_OPEN
 10
1392.694703496174
 20
335.2651679486061
 30
0.0
 41
2.0
 42
2.0
 43
2.0
 50
270.0
  0
INSERT
  5
BD41
330
B764
100
AcDbEntity
  8
30
  6
Continuous
 62
     0
370
    -2
100
AcDbBlockReference
  2
_OPEN
 10
1392.694703496174
 20
361.7651679486062
 30
0.0
 41
2.0
 42
2.0
 43
2.0
 50
90.0
  0
MTEXT
  5
BD42
330
B764
100
AcDbEntity
  8
30
  6
Continuous
 62
     0
100
AcDbMText
 10
1386.694703496176
 20
348.5151679486063
 30
0.0
 40
6.0
 41
0.0
 71
     5
 72
     1
  1
\A1; 26.5 
 11
0.0000000000000001
 21
1.0
 31
0.0
 73
     1
 44
1.0
1001
ACAD
1000
MTEXTBEGIN
1070
    73
1070
     1
1070
    44
1040
1.0
1070
    74
1070
     0
1000
MTEXTEND
  0
POINT
  5
BD43
330
B764
100
AcDbEntity
  8
DEFPOINTS
  6
Continuous
 62
     0
100
AcDbPoint
 10
1337.640803496173
 20
335.2651679486061
 30
0.0
  0
POINT
  5
BD44
330
B764
100
AcDbEntity
  8
DEFPOINTS
  6
Continuous
 62
     0
100
AcDbPoint
 10
1357.640803496176
 20
361.7651679486062
 30
0.0
  0
POINT
  5
BD45
330
B764
100
AcDbEntity
  8
DEFPOINTS
  6
Continuous
 62
     0
100
AcDbPoint
 10
1392.694703496174
 20
361.7651679486062
 30
0.0
  0
ENDBLK
  5
B76F
330
B764
100
AcDbEntity
  8
0
100
AcDbBlockEnd
  0
BLOCK
  5
B936
330
B92C
100
AcDbEntity
  8
0
100
AcDbBlockBegin
  2
*D16
 70
     1
 10
0.0
 20
0.0
 30
0.0
  3
*D16
  1

  0
LINE
  5
BC95
330
B92C
100
AcDbEntity
  8
30
  6
Continuous
 62
     0
370
    -2
100
AcDbLine
 10
1221.082974398552
 20
2.028939352067479
 30
0.0
 11
1221.082974398552
 21
-213.116113022444
 31
0.0
  0
LINE
  5
BC96
330
B92C
100
AcDbEntity
  8
30
  6
Continuous
 62
     0
370
    -2
100
AcDbLine
 10
1348.582974398553
 20
-152.4710606479325
 30
0.0
 11
1348.582974398553
 21
-213.116113022444
 31
0.0
  0
LINE
  5
BC97
330
B92C
100
AcDbEntity
  8
30
  6
Continuous
 62
     0
370
    -2
100
AcDbLine
 10
1223.082974398553
 20
-212.616113022444
 30
0.0
 11
1346.582974398553
 21
-212.616113022444
 31
0.0
  0
INSERT
  5
BC98
330
B92C
100
AcDbEntity
  8
30
  6
Continuous
 62
     0
370
    -2
100
AcDbBlockReference
  2
_OPEN
 10
1221.082974398552
 20
-212.616113022444
 30
0.0
 41
2.0
 42
2.0
 43
2.0
 50
180.0
  0
INSERT
  5
BC99
330
B92C
100
AcDbEntity
  8
30
  6
Continuous
 62
     0
370
    -2
100
AcDbBlockReference
  2
_OPEN
 10
1348.582974398553
 20
-212.616113022444
 30
0.0
 41
2.0
 42
2.0
 43
2.0
  0
MTEXT
  5
BC9A
330
B92C
100
AcDbEntity
  8
30
  6
Continuous
 62
     0
100
AcDbMText
 10
1284.832974398553
 20
-206.616113022444
 30
0.0
 40
6.0
 41
0.0
 71
     5
 72
     1
  1
\A1; 127.5 
 73
     1
 44
1.0
1001
ACAD
1000
MTEXTBEGIN
1070
    73
1070
     1
1070
    44
1040
1.0
1070
    74
1070
     0
1000
MTEXTEND
  0
POINT
  5
BC9B
330
B92C
100
AcDbEntity
  8
DEFPOINTS
  6
Continuous
 62
     0
100
AcDbPoint
 10
1221.082974398552
 20
5.028939352067481
 30
0.0
  0
POINT
  5
BC9C
330
B92C
100
AcDbEntity
  8
DEFPOINTS
  6
Continuous
 62
     0
100
AcDbPoint
 10
1348.582974398553
 20
-149.4710606479324
 30
0.0
  0
POINT
  5
BC9D
330
B92C
100
AcDbEntity
  8
DEFPOINTS
  6
Continuous
 62
     0
100
AcDbPoint
 10
1348.582974398553
 20
-212.616113022444
 30
0.0
  0
ENDBLK
  5
B937
330
B92C
100
AcDbEntity
  8
0
100
AcDbBlockEnd
  0
BLOCK
  5
B942
330
B938
100
AcDbEntity
  8
0
100
AcDbBlockBegin
  2
*D17
 70
     1
 10
0.0
 20
0.0
 30
0.0
  3
*D17
  1

  0
LINE
  5
BD2D
330
B938
100
AcDbEntity
  8
30
  6
Continuous
 62
     0
370
    -2
100
AcDbLine
 10
1203.582974398553
 20
2.028939352067479
 30
0.0
 11
1203.582974398553
 21
-254.1593727868163
 31
0.0
  0
LINE
  5
BD2E
330
B938
100
AcDbEntity
  8
30
  6
Continuous
 62
     0
370
    -2
100
AcDbLine
 10
1123.081904398553
 20
2.028939352067479
 30
0.0
 11
1123.081904398553
 21
-254.1593727868163
 31
0.0
  0
LINE
  5
BD2F
330
B938
100
AcDbEntity
  8
30
  6
Continuous
 62
     0
370
    -2
100
AcDbLine
 10
1201.582974398553
 20
-253.6593727868163
 30
0.0
 11
1125.081904398552
 21
-253.6593727868163
 31
0.0
  0
INSERT
  5
BD30
330
B938
100
AcDbEntity
  8
30
  6
Continuous
 62
     0
370
    -2
100
AcDbBlockReference
  2
_OPEN
 10
1203.582974398553
 20
-253.6593727868163
 30
0.0
 41
2.0
 42
2.0
 43
2.0
  0
INSERT
  5
BD31
330
B938
100
AcDbEntity
  8
30
  6
Continuous
 62
     0
370
    -2
100
AcDbBlockReference
  2
_OPEN
 10
1123.081904398553
 20
-253.6593727868163
 30
0.0
 41
2.0
 42
2.0
 43
2.0
 50
180.0
  0
MTEXT
  5
BD32
330
B938
100
AcDbEntity
  8
30
  6
Continuous
 62
     0
100
AcDbMText
 10
1163.332439398553
 20
-247.6593727868163
 30
0.0
 40
6.0
 41
0.0
 71
     5
 72
     1
  1
\A1; 80.5 
 73
     1
 44
1.0
1001
ACAD
1000
MTEXTBEGIN
1070
    73
1070
     1
1070
    44
1040
1.0
1070
    74
1070
     0
1000
MTEXTEND
  0
POINT
  5
BD33
330
B938
100
AcDbEntity
  8
DEFPOINTS
  6
Continuous
 62
     0
100
AcDbPoint
 10
1203.582974398553
 20
5.028939352067481
 30
0.0
  0
POINT
  5
BD34
330
B938
100
AcDbEntity
  8
DEFPOINTS
  6
Continuous
 62
     0
100
AcDbPoint
 10
1123.081904398553
 20
5.028939352067481
 30
0.0
  0
POINT
  5
BD35
330
B938
100
AcDbEntity
  8
DEFPOINTS
  6
Continuous
 62
     0
100
AcDbPoint
 10
1123.081904398553
 20
-253.6593727868163
 30
0.0
  0
ENDBLK
  5
B943
330
B938
100
AcDbEntity
  8
0
100
AcDbBlockEnd
  0
BLOCK
  5
B94E
330
B944
100
AcDbEntity
  8
0
100
AcDbBlockBegin
  2
*D18
 70
     1
 10
0.0
 20
0.0
 30
0.0
  3
*D18
  1

  0
LINE
  5
BC83
330
B944
100
AcDbEntity
  8
30
  6
Continuous
 62
     0
370
    -2
100
AcDbLine
 10
1203.582974398553
 20
2.028939352067479
 30
0.0
 11
1203.582974398553
 21
-254.1458592733026
 31
0.0
  0
LINE
  5
BC84
330
B944
100
AcDbEntity
  8
30
  6
Continuous
 62
     0
370
    -2
100
AcDbLine
 10
1348.582974398553
 20
-157.4710606479325
 30
0.0
 11
1348.582974398553
 21
-254.1458592733026
 31
0.0
  0
LINE
  5
BC85
330
B944
100
AcDbEntity
  8
30
  6
Continuous
 62
     0
370
    -2
100
AcDbLine
 10
1205.582974398553
 20
-253.6458592733028
 30
0.0
 11
1346.582974398553
 21
-253.6458592733028
 31
0.0
  0
INSERT
  5
BC86
330
B944
100
AcDbEntity
  8
30
  6
Continuous
 62
     0
370
    -2
100
AcDbBlockReference
  2
_OPEN
 10
1203.582974398553
 20
-253.6458592733028
 30
0.0
 41
2.0
 42
2.0
 43
2.0
 50
180.0
  0
INSERT
  5
BC87
330
B944
100
AcDbEntity
  8
30
  6
Continuous
 62
     0
370
    -2
100
AcDbBlockReference
  2
_OPEN
 10
1348.582974398553
 20
-253.6458592733028
 30
0.0
 41
2.0
 42
2.0
 43
2.0
  0
MTEXT
  5
BC88
330
B944
100
AcDbEntity
  8
30
  6
Continuous
 62
     0
100
AcDbMText
 10
1276.082974398553
 20
-247.6458592733028
 30
0.0
 40
6.0
 41
0.0
 71
     5
 72
     1
  1
\A1; 145 
 73
     1
 44
1.0
1001
ACAD
1000
MTEXTBEGIN
1070
    73
1070
     1
1070
    44
1040
1.0
1070
    74
1070
     0
1000
MTEXTEND
  0
POINT
  5
BC89
330
B944
100
AcDbEntity
  8
DEFPOINTS
  6
Continuous
 62
     0
100
AcDbPoint
 10
1203.582974398553
 20
5.028939352067481
 30
0.0
  0
POINT
  5
BC8A
330
B944
100
AcDbEntity
  8
DEFPOINTS
  6
Continuous
 62
     0
100
AcDbPoint
 10
1348.582974398553
 20
-154.4710606479324
 30
0.0
  0
POINT
  5
BC8B
330
B944
100
AcDbEntity
  8
DEFPOINTS
  6
Continuous
 62
     0
100
AcDbPoint
 10
1348.582974398553
 20
-253.6458592733028
 30
0.0
  0
ENDBLK
  5
B94F
330
B944
100
AcDbEntity
  8
0
100
AcDbBlockEnd
  0
BLOCK
  5
B95A
330
B950
100
AcDbEntity
  8
0
100
AcDbBlockBegin
  2
*D19
 70
     1
 10
0.0
 20
0.0
 30
0.0
  3
*D19
  1

  0
LINE
  5
BC7A
330
B950
100
AcDbEntity
  8
30
  6
Continuous
 62
     0
370
    -2
100
AcDbLine
 10
1400.182974398552
 20
-94.47106064793244
 30
0.0
 11
1400.182974398552
 21
-213.116113022444
 31
0.0
  0
LINE
  5
BC7B
330
B950
100
AcDbEntity
  8
30
  6
Continuous
 62
     0
370
    -2
100
AcDbLine
 10
1348.582974398553
 20
-157.4710606479325
 30
0.0
 11
1348.582974398553
 21
-213.116113022444
 31
0.0
  0
LINE
  5
BC7C
330
B950
100
AcDbEntity
  8
30
  6
Continuous
 62
     0
370
    -2
100
AcDbLine
 10
1398.182974398554
 20
-212.616113022444
 30
0.0
 11
1350.582974398553
 21
-212.616113022444
 31
0.0
  0
INSERT
  5
BC7D
330
B950
100
AcDbEntity
  8
30
  6
Continuous
 62
     0
370
    -2
100
AcDbBlockReference
  2
_OPEN
 10
1400.182974398552
 20
-212.616113022444
 30
0.0
 41
2.0
 42
2.0
 43
2.0
  0
INSERT
  5
BC7E
330
B950
100
AcDbEntity
  8
30
  6
Continuous
 62
     0
370
    -2
100
AcDbBlockReference
  2
_OPEN
 10
1348.582974398553
 20
-212.616113022444
 30
0.0
 41
2.0
 42
2.0
 43
2.0
 50
180.0
  0
MTEXT
  5
BC7F
330
B950
100
AcDbEntity
  8
30
  6
Continuous
 62
     0
100
AcDbMText
 10
1374.382974398552
 20
-206.616113022444
 30
0.0
 40
6.0
 41
0.0
 71
     5
 72
     1
  1
\A1; 51.6 
 73
     1
 44
1.0
1001
ACAD
1000
MTEXTBEGIN
1070
    73
1070
     1
1070
    44
1040
1.0
1070
    74
1070
     0
1000
MTEXTEND
  0
POINT
  5
BC80
330
B950
100
AcDbEntity
  8
DEFPOINTS
  6
Continuous
 62
     0
100
AcDbPoint
 10
1400.182974398552
 20
-91.47106064793248
 30
0.0
  0
POINT
  5
BC81
330
B950
100
AcDbEntity
  8
DEFPOINTS
  6
Continuous
 62
     0
100
AcDbPoint
 10
1348.582974398553
 20
-154.4710606479324
 30
0.0
  0
POINT
  5
BC82
330
B950
100
AcDbEntity
  8
DEFPOINTS
  6
Continuous
 62
     0
100
AcDbPoint
 10
1348.582974398553
 20
-212.616113022444
 30
0.0
  0
ENDBLK
  5
B95B
330
B950
100
AcDbEntity
  8
0
100
AcDbBlockEnd
  0
BLOCK
  5
B968
330
B95C
100
AcDbEntity
  8
0
100
AcDbBlockBegin
  2
*D20
 70
     1
 10
0.0
 20
0.0
 30
0.0
  3
*D20
  1

  0
LINE
  5
BD51
330
B95C
100
AcDbEntity
  8
30
  6
Continuous
 62
     0
370
    -2
100
AcDbLine
 10
1237.582974398553
 20
-2.471060647932517
 30
0.0
 11
1237.582974398553
 21
-183.7454079667499
 31
0.0
  0
LINE
  5
BD52
330
B95C
100
AcDbEntity
  8
30
  6
Continuous
 62
     0
370
    -2
100
AcDbLine
 10
1241.582974398553
 20
-51.97106064793252
 30
0.0
 11
1241.582974398553
 21
-183.7454079667499
 31
0.0
  0
LINE
  5
BD53
330
B95C
100
AcDbEntity
  8
30
  6
Continuous
 62
     0
370
    -2
100
AcDbLine
 10
1243.582974398553
 20
-183.2454079667499
 30
0.0
 11
1245.582974398553
 21
-183.2454079667499
 31
0.0
  0
LINE
  5
BD54
330
B95C
100
AcDbEntity
  8
30
  6
Continuous
 62
     0
370
    -2
100
AcDbLine
 10
1235.582974398553
 20
-183.2454079667499
 30
0.0
 11
1219.982974398553
 21
-183.2454079667499
 31
0.0
  0
LINE
  5
BD55
330
B95C
100
AcDbEntity
  8
30
  6
Continuous
 62
     0
370
    -2
100
AcDbLine
 10
1241.582974398553
 20
-183.2454079667499
 30
0.0
 11
1237.582974398553
 21
-183.2454079667499
 31
0.0
  0
INSERT
  5
BD56
330
B95C
100
AcDbEntity
  8
30
  6
Continuous
 62
     0
370
    -2
100
AcDbBlockReference
  2
_OPEN
 10
1241.582974398553
 20
-183.2454079667499
 30
0.0
 41
2.0
 42
2.0
 43
2.0
 50
180.0
  0
INSERT
  5
BD57
330
B95C
100
AcDbEntity
  8
30
  6
Continuous
 62
     0
370
    -2
100
AcDbBlockReference
  2
_OPEN
 10
1237.582974398553
 20
-183.2454079667499
 30
0.0
 41
2.0
 42
2.0
 43
2.0
  0
MTEXT
  5
BD58
330
B95C
100
AcDbEntity
  8
30
  6
Continuous
 62
     0
100
AcDbMText
 10
1226.782974398552
 20
-177.2454079667499
 30
0.0
 40
6.0
 41
0.0
 71
     5
 72
     1
  1
\A1; 4 
 73
     1
 44
1.0
1001
ACAD
1000
MTEXTBEGIN
1070
    73
1070
     1
1070
    44
1040
1.0
1070
    74
1070
     0
1000
MTEXTEND
  0
POINT
  5
BD59
330
B95C
100
AcDbEntity
  8
DEFPOINTS
  6
Continuous
 62
     0
100
AcDbPoint
 10
1237.582974398553
 20
-0.4710606479325179
 30
0.0
  0
POINT
  5
BD5A
330
B95C
100
AcDbEntity
  8
DEFPOINTS
  6
Continuous
 62
     0
100
AcDbPoint
 10
1241.582974398553
 20
-49.97106064793252
 30
0.0
  0
POINT
  5
BD5B
330
B95C
100
AcDbEntity
  8
DEFPOINTS
  6
Continuous
 62
     0
100
AcDbPoint
 10
1241.582974398553
 20
-183.2454079667499
 30
0.0
  0
ENDBLK
  5
B969
330
B95C
100
AcDbEntity
  8
0
100
AcDbBlockEnd
  0
BLOCK
  5
B974
330
B96A
100
AcDbEntity
  8
0
100
AcDbBlockBegin
  2
*D21
 70
     1
 10
0.0
 20
0.0
 30
0.0
  3
*D21
  1

  0
LINE
  5
BC67
330
B96A
100
AcDbEntity
  8
30
  6
Continuous
 62
     0
370
    -2
100
AcDbLine
 10
1241.582974398553
 20
-52.97106064793251
 30
0.0
 11
1241.582974398553
 21
-183.7454079667499
 31
0.0
  0
LINE
  5
BC68
330
B96A
100
AcDbEntity
  8
30
  6
Continuous
 62
     0
370
    -2
100
AcDbLine
 10
1348.582974398553
 20
-157.4710606479325
 30
0.0
 11
1348.582974398553
 21
-183.7454079667499
 31
0.0
  0
LINE
  5
BC69
330
B96A
100
AcDbEntity
  8
30
  6
Continuous
 62
     0
370
    -2
100
AcDbLine
 10
1243.582974398553
 20
-183.2454079667499
 30
0.0
 11
1346.582974398553
 21
-183.2454079667499
 31
0.0
  0
INSERT
  5
BC6A
330
B96A
100
AcDbEntity
  8
30
  6
Continuous
 62
     0
370
    -2
100
AcDbBlockReference
  2
_OPEN
 10
1241.582974398553
 20
-183.2454079667499
 30
0.0
 41
2.0
 42
2.0
 43
2.0
 50
180.0
  0
INSERT
  5
BC6B
330
B96A
100
AcDbEntity
  8
30
  6
Continuous
 62
     0
370
    -2
100
AcDbBlockReference
  2
_OPEN
 10
1348.582974398553
 20
-183.2454079667499
 30
0.0
 41
2.0
 42
2.0
 43
2.0
  0
MTEXT
  5
BC6C
330
B96A
100
AcDbEntity
  8
30
  6
Continuous
 62
     0
100
AcDbMText
 10
1295.082974398553
 20
-177.2454079667499
 30
0.0
 40
6.0
 41
0.0
 71
     5
 72
     1
  1
\A1; 107 
 73
     1
 44
1.0
1001
ACAD
1000
MTEXTBEGIN
1070
    73
1070
     1
1070
    44
1040
1.0
1070
    74
1070
     0
1000
MTEXTEND
  0
POINT
  5
BC6D
330
B96A
100
AcDbEntity
  8
DEFPOINTS
  6
Continuous
 62
     0
100
AcDbPoint
 10
1241.582974398553
 20
-49.97106064793252
 30
0.0
  0
POINT
  5
BC6E
330
B96A
100
AcDbEntity
  8
DEFPOINTS
  6
Continuous
 62
     0
100
AcDbPoint
 10
1348.582974398553
 20
-154.4710606479324
 30
0.0
  0
POINT
  5
BC6F
330
B96A
100
AcDbEntity
  8
DEFPOINTS
  6
Continuous
 62
     0
100
AcDbPoint
 10
1348.582974398553
 20
-183.2454079667499
 30
0.0
  0
ENDBLK
  5
B975
330
B96A
100
AcDbEntity
  8
0
100
AcDbBlockEnd
  0
BLOCK
  5
B980
330
B976
100
AcDbEntity
  8
0
100
AcDbBlockBegin
  2
*D22
 70
     1
 10
0.0
 20
0.0
 30
0.0
  3
*D22
  1

  0
LINE
  5
BC5E
330
B976
100
AcDbEntity
  8
30
  6
Continuous
 62
     0
370
    -2
100
AcDbLine
 10
1245.582974398553
 20
-52.97106064793251
 30
0.0
 11
1245.582974398553
 21
-155.5303143743817
 31
0.0
  0
LINE
  5
BC5F
330
B976
100
AcDbEntity
  8
30
  6
Continuous
 62
     0
370
    -2
100
AcDbLine
 10
1348.582974398553
 20
-157.4710606479325
 30
0.0
 11
1348.582974398553
 21
-155.5303143743817
 31
0.0
  0
LINE
  5
BC60
330
B976
100
AcDbEntity
  8
30
  6
Continuous
 62
     0
370
    -2
100
AcDbLine
 10
1247.582974398553
 20
-155.0303143743817
 30
0.0
 11
1346.582974398553
 21
-155.0303143743817
 31
0.0
  0
INSERT
  5
BC61
330
B976
100
AcDbEntity
  8
30
  6
Continuous
 62
     0
370
    -2
100
AcDbBlockReference
  2
_OPEN
 10
1245.582974398553
 20
-155.0303143743817
 30
0.0
 41
2.0
 42
2.0
 43
2.0
 50
180.0
  0
INSERT
  5
BC62
330
B976
100
AcDbEntity
  8
30
  6
Continuous
 62
     0
370
    -2
100
AcDbBlockReference
  2
_OPEN
 10
1348.582974398553
 20
-155.0303143743817
 30
0.0
 41
2.0
 42
2.0
 43
2.0
  0
MTEXT
  5
BC63
330
B976
100
AcDbEntity
  8
30
  6
Continuous
 62
     0
100
AcDbMText
 10
1297.082974398553
 20
-149.0303143743815
 30
0.0
 40
6.0
 41
0.0
 71
     5
 72
     1
  1
\A1; 103 
 73
     1
 44
1.0
1001
ACAD
1000
MTEXTBEGIN
1070
    73
1070
     1
1070
    44
1040
1.0
1070
    74
1070
     0
1000
MTEXTEND
  0
POINT
  5
BC64
330
B976
100
AcDbEntity
  8
DEFPOINTS
  6
Continuous
 62
     0
100
AcDbPoint
 10
1245.582974398553
 20
-49.97106064793252
 30
0.0
  0
POINT
  5
BC65
330
B976
100
AcDbEntity
  8
DEFPOINTS
  6
Continuous
 62
     0
100
AcDbPoint
 10
1348.582974398553
 20
-154.4710606479324
 30
0.0
  0
POINT
  5
BC66
330
B976
100
AcDbEntity
  8
DEFPOINTS
  6
Continuous
 62
     0
100
AcDbPoint
 10
1348.582974398553
 20
-155.0303143743817
 30
0.0
  0
ENDBLK
  5
B981
330
B976
100
AcDbEntity
  8
0
100
AcDbBlockEnd
  0
BLOCK
  5
B98C
330
B982
100
AcDbEntity
  8
0
100
AcDbBlockBegin
  2
*D23
 70
     1
 10
0.0
 20
0.0
 30
0.0
  3
*D23
  1

  0
LINE
  5
BC55
330
B982
100
AcDbEntity
  8
30
  6
Continuous
 62
     0
370
    -2
100
AcDbLine
 10
1348.582974398553
 20
-157.4710606479325
 30
0.0
 11
1348.582974398553
 21
-254.1458592733026
 31
0.0
  0
LINE
  5
BC56
330
B982
100
AcDbEntity
  8
30
  6
Continuous
 62
     0
370
    -2
100
AcDbLine
 10
1464.582974398553
 20
-157.4710606479325
 30
0.0
 11
1464.582974398553
 21
-254.1458592733026
 31
0.0
  0
LINE
  5
BC57
330
B982
100
AcDbEntity
  8
30
  6
Continuous
 62
     0
370
    -2
100
AcDbLine
 10
1350.582974398553
 20
-253.6458592733028
 30
0.0
 11
1462.582974398553
 21
-253.6458592733028
 31
0.0
  0
INSERT
  5
BC58
330
B982
100
AcDbEntity
  8
30
  6
Continuous
 62
     0
370
    -2
100
AcDbBlockReference
  2
_OPEN
 10
1348.582974398553
 20
-253.6458592733028
 30
0.0
 41
2.0
 42
2.0
 43
2.0
 50
180.0
  0
INSERT
  5
BC59
330
B982
100
AcDbEntity
  8
30
  6
Continuous
 62
     0
370
    -2
100
AcDbBlockReference
  2
_OPEN
 10
1464.582974398553
 20
-253.6458592733028
 30
0.0
 41
2.0
 42
2.0
 43
2.0
  0
MTEXT
  5
BC5A
330
B982
100
AcDbEntity
  8
30
  6
Continuous
 62
     0
100
AcDbMText
 10
1406.582974398552
 20
-247.6458592733028
 30
0.0
 40
6.0
 41
0.0
 71
     5
 72
     1
  1
\A1; 116 
 73
     1
 44
1.0
1001
ACAD
1000
MTEXTBEGIN
1070
    73
1070
     1
1070
    44
1040
1.0
1070
    74
1070
     0
1000
MTEXTEND
  0
POINT
  5
BC5B
330
B982
100
AcDbEntity
  8
DEFPOINTS
  6
Continuous
 62
     0
100
AcDbPoint
 10
1348.582974398553
 20
-154.4710606479324
 30
0.0
  0
POINT
  5
BC5C
330
B982
100
AcDbEntity
  8
DEFPOINTS
  6
Continuous
 62
     0
100
AcDbPoint
 10
1464.582974398553
 20
-154.4710606479324
 30
0.0
  0
POINT
  5
BC5D
330
B982
100
AcDbEntity
  8
DEFPOINTS
  6
Continuous
 62
     0
100
AcDbPoint
 10
1464.582974398553
 20
-253.6458592733028
 30
0.0
  0
ENDBLK
  5
B98D
330
B982
100
AcDbEntity
  8
0
100
AcDbBlockEnd
  0
BLOCK
  5
B998
330
B98E
100
AcDbEntity
  8
0
100
AcDbBlockBegin
  2
*D24
 70
     1
 10
0.0
 20
0.0
 30
0.0
  3
*D24
  1

  0
LINE
  5
BC4C
330
B98E
100
AcDbEntity
  8
30
  6
Continuous
 62
     0
370
    -2
100
AcDbLine
 10
1486.409636627016
 20
0.0289393520674813
 30
0.0
 11
1499.814531099294
 21
0.0289393520674775
 31
0.0
  0
LINE
  5
BC4D
330
B98E
100
AcDbEntity
  8
30
  6
Continuous
 62
     0
370
    -2
100
AcDbLine
 10
1476.582974398551
 20
126.0289393520674
 30
0.0
 11
1499.814531099294
 21
126.0289393520674
 31
0.0
  0
LINE
  5
BC4E
330
B98E
100
AcDbEntity
  8
30
  6
Continuous
 62
     0
370
    -2
100
AcDbLine
 10
1499.314531099294
 20
2.028939352067474
 30
0.0
 11
1499.314531099294
 21
124.0289393520674
 31
0.0
  0
INSERT
  5
BC4F
330
B98E
100
AcDbEntity
  8
30
  6
Continuous
 62
     0
370
    -2
100
AcDbBlockReference
  2
_OPEN
 10
1499.314531099294
 20
0.0289393520674776
 30
0.0
 41
2.0
 42
2.0
 43
2.0
 50
270.0
  0
INSERT
  5
BC50
330
B98E
100
AcDbEntity
  8
30
  6
Continuous
 62
     0
370
    -2
100
AcDbBlockReference
  2
_OPEN
 10
1499.314531099294
 20
126.0289393520674
 30
0.0
 41
2.0
 42
2.0
 43
2.0
 50
90.0
  0
MTEXT
  5
BC51
330
B98E
100
AcDbEntity
  8
30
  6
Continuous
 62
     0
100
AcDbMText
 10
1493.314531099294
 20
63.02893935206771
 30
0.0
 40
6.0
 41
0.0
 71
     5
 72
     1
  1
\A1; 126 
 11
0.0000000000000001
 21
1.0
 31
0.0
 73
     1
 44
1.0
1001
ACAD
1000
MTEXTBEGIN
1070
    73
1070
     1
1070
    44
1040
1.0
1070
    74
1070
     0
1000
MTEXTEND
  0
POINT
  5
BC52
330
B98E
100
AcDbEntity
  8
DEFPOINTS
  6
Continuous
 62
     0
100
AcDbPoint
 10
1483.409636627015
 20
0.0289393520674821
 30
0.0
  0
POINT
  5
BC53
330
B98E
100
AcDbEntity
  8
DEFPOINTS
  6
Continuous
 62
     0
100
AcDbPoint
 10
1473.582974398552
 20
126.0289393520674
 30
0.0
  0
POINT
  5
BC54
330
B98E
100
AcDbEntity
  8
DEFPOINTS
  6
Continuous
 62
     0
100
AcDbPoint
 10
1499.314531099294
 20
126.0289393520674
 30
0.0
  0
ENDBLK
  5
B999
330
B98E
100
AcDbEntity
  8
0
100
AcDbBlockEnd
  0
BLOCK
  5
B9A4
330
B99A
100
AcDbEntity
  8
0
100
AcDbBlockBegin
  2
*D25
 70
     1
 10
0.0
 20
0.0
 30
0.0
  3
*D25
  1

  0
LINE
  5
BC43
330
B99A
100
AcDbEntity
  8
30
  6
Continuous
 62
     0
370
    -2
100
AcDbLine
 10
1486.409636627016
 20
0.0289393520674813
 30
0.0
 11
1499.814531099294
 21
0.0289393520674775
 31
0.0
  0
LINE
  5
BC44
330
B99A
100
AcDbEntity
  8
30
  6
Continuous
 62
     0
370
    -2
100
AcDbLine
 10
1476.582974398551
 20
-116.9710606479325
 30
0.0
 11
1499.814531099294
 21
-116.9710606479325
 31
0.0
  0
LINE
  5
BC45
330
B99A
100
AcDbEntity
  8
30
  6
Continuous
 62
     0
370
    -2
100
AcDbLine
 10
1499.314531099294
 20
-1.971060647932521
 30
0.0
 11
1499.314531099294
 21
-114.9710606479324
 31
0.0
  0
INSERT
  5
BC46
330
B99A
100
AcDbEntity
  8
30
  6
Continuous
 62
     0
370
    -2
100
AcDbBlockReference
  2
_OPEN
 10
1499.314531099294
 20
0.0289393520674776
 30
0.0
 41
2.0
 42
2.0
 43
2.0
 50
90.0
  0
INSERT
  5
BC47
330
B99A
100
AcDbEntity
  8
30
  6
Continuous
 62
     0
370
    -2
100
AcDbBlockReference
  2
_OPEN
 10
1499.314531099294
 20
-116.9710606479325
 30
0.0
 41
2.0
 42
2.0
 43
2.0
 50
270.0
  0
MTEXT
  5
BC48
330
B99A
100
AcDbEntity
  8
30
  6
Continuous
 62
     0
100
AcDbMText
 10
1493.314531099294
 20
-58.47106064793231
 30
0.0
 40
6.0
 41
0.0
 71
     5
 72
     1
  1
\A1; 117 
 11
0.0000000000000001
 21
1.0
 31
0.0
 73
     1
 44
1.0
1001
ACAD
1000
MTEXTBEGIN
1070
    73
1070
     1
1070
    44
1040
1.0
1070
    74
1070
     0
1000
MTEXTEND
  0
POINT
  5
BC49
330
B99A
100
AcDbEntity
  8
DEFPOINTS
  6
Continuous
 62
     0
100
AcDbPoint
 10
1483.409636627015
 20
0.0289393520674821
 30
0.0
  0
POINT
  5
BC4A
330
B99A
100
AcDbEntity
  8
DEFPOINTS
  6
Continuous
 62
     0
100
AcDbPoint
 10
1473.582974398552
 20
-116.9710606479325
 30
0.0
  0
POINT
  5
BC4B
330
B99A
100
AcDbEntity
  8
DEFPOINTS
  6
Continuous
 62
     0
100
AcDbPoint
 10
1499.314531099294
 20
-116.9710606479325
 30
0.0
  0
ENDBLK
  5
B9A5
330
B99A
100
AcDbEntity
  8
0
100
AcDbBlockEnd
  0
BLOCK
  5
B9B0
330
B9A6
100
AcDbEntity
  8
0
100
AcDbBlockBegin
  2
*D26
 70
     1
 10
0.0
 20
0.0
 30
0.0
  3
*D26
  1

  0
LINE
  5
BC3A
330
B9A6
100
AcDbEntity
  8
30
  6
Continuous
 62
     0
370
    -2
100
AcDbLine
 10
1467.582974398552
 20
95.52893935206736
 30
0.0
 11
1475.689264610676
 21
95.52893935206736
 31
0.0
  0
LINE
  5
BC3B
330
B9A6
100
AcDbEntity
  8
30
  6
Continuous
 62
     0
370
    -2
100
AcDbLine
 10
1467.582974398552
 20
-86.47106064793241
 30
0.0
 11
1475.689264610676
 21
-86.47106064793241
 31
0.0
  0
LINE
  5
BC3C
330
B9A6
100
AcDbEntity
  8
30
  6
Continuous
 62
     0
370
    -2
100
AcDbLine
 10
1475.189264610676
 20
93.52893935206735
 30
0.0
 11
1475.189264610676
 21
-84.4710606479324
 31
0.0
  0
INSERT
  5
BC3D
330
B9A6
100
AcDbEntity
  8
30
  6
Continuous
 62
     0
370
    -2
100
AcDbBlockReference
  2
_OPEN
 10
1475.189264610676
 20
95.52893935206736
 30
0.0
 41
2.0
 42
2.0
 43
2.0
 50
90.0
  0
INSERT
  5
BC3E
330
B9A6
100
AcDbEntity
  8
30
  6
Continuous
 62
     0
370
    -2
100
AcDbBlockReference
  2
_OPEN
 10
1475.189264610676
 20
-86.47106064793241
 30
0.0
 41
2.0
 42
2.0
 43
2.0
 50
270.0
  0
MTEXT
  5
BC3F
330
B9A6
100
AcDbEntity
  8
30
  6
Continuous
 62
     0
100
AcDbMText
 10
1469.189264610676
 20
4.528939352067716
 30
0.0
 40
6.0
 41
0.0
 71
     5
 72
     1
  1
\A1;182
 11
0.0000000000000001
 21
1.0
 31
0.0
 73
     1
 44
1.0
1001
ACAD
1000
MTEXTBEGIN
1070
    73
1070
     1
1070
    44
1040
1.0
1070
    74
1070
     0
1000
MTEXTEND
  0
POINT
  5
BC40
330
B9A6
100
AcDbEntity
  8
DEFPOINTS
  6
Continuous
 62
     0
100
AcDbPoint
 10
1464.582974398553
 20
95.52893935206736
 30
0.0
  0
POINT
  5
BC41
330
B9A6
100
AcDbEntity
  8
DEFPOINTS
  6
Continuous
 62
     0
100
AcDbPoint
 10
1464.582974398553
 20
-86.47106064793241
 30
0.0
  0
POINT
  5
BC42
330
B9A6
100
AcDbEntity
  8
DEFPOINTS
  6
Continuous
 62
     0
100
AcDbPoint
 10
1475.189264610676
 20
-86.47106064793241
 30
0.0
  0
ENDBLK
  5
B9B1
330
B9A6
100
AcDbEntity
  8
0
100
AcDbBlockEnd
  0
BLOCK
  5
BA23
330
BA19
100
AcDbEntity
  8
0
100
AcDbBlockBegin
  2
*D27
 70
     1
 10
0.0
 20
0.0
 30
0.0
  3
*D27
  1

  0
LINE
  5
BC31
330
BA19
100
AcDbEntity
  8
30
  6
Continuous
 62
     0
370
    -2
100
AcDbLine
 10
952.4829743985538
 20
-370.5
 30
0.0
 11
1063.232974398553
 21
-370.5
 31
0.0
  0
LINE
  5
BC32
330
BA19
100
AcDbEntity
  8
30
  6
Continuous
 62
     0
370
    -2
100
AcDbLine
 10
953.4829743985538
 20
-520.5
 30
0.0
 11
1063.232974398553
 21
-520.5
 31
0.0
  0
LINE
  5
BC33
330
BA19
100
AcDbEntity
  8
30
  6
Continuous
 62
     0
370
    -2
100
AcDbLine
 10
1062.732974398553
 20
-372.5
 30
0.0
 11
1062.732974398553
 21
-518.5
 31
0.0
  0
INSERT
  5
BC34
330
BA19
100
AcDbEntity
  8
30
  6
Continuous
 62
     0
370
    -2
100
AcDbBlockReference
  2
_OPEN
 10
1062.732974398553
 20
-370.5
 30
0.0
 41
2.0
 42
2.0
 43
2.0
 50
90.0
  0
INSERT
  5
BC35
330
BA19
100
AcDbEntity
  8
30
  6
Continuous
 62
     0
370
    -2
100
AcDbBlockReference
  2
_OPEN
 10
1062.732974398553
 20
-520.5
 30
0.0
 41
2.0
 42
2.0
 43
2.0
 50
270.0
  0
MTEXT
  5
BC36
330
BA19
100
AcDbEntity
  8
30
  6
Continuous
 62
     0
100
AcDbMText
 10
1056.732974398553
 20
-445.4999999999998
 30
0.0
 40
6.0
 41
0.0
 71
     5
 72
     1
  1
\A1;150
 11
0.0000000000000001
 21
1.0
 31
0.0
 73
     1
 44
1.0
1001
ACAD
1000
MTEXTBEGIN
1070
    73
1070
     1
1070
    44
1040
1.0
1070
    74
1070
     0
1000
MTEXTEND
  0
POINT
  5
BC37
330
BA19
100
AcDbEntity
  8
DEFPOINTS
  6
Continuous
 62
     0
100
AcDbPoint
 10
949.4829743985537
 20
-370.5
 30
0.0
  0
POINT
  5
BC38
330
BA19
100
AcDbEntity
  8
DEFPOINTS
  6
Continuous
 62
     0
100
AcDbPoint
 10
950.4829743985537
 20
-520.5
 30
0.0
  0
POINT
  5
BC39
330
BA19
100
AcDbEntity
  8
DEFPOINTS
  6
Continuous
 62
     0
100
AcDbPoint
 10
1062.732974398553
 20
-520.5
 30
0.0
  0
ENDBLK
  5
BA24
330
BA19
100
AcDbEntity
  8
0
100
AcDbBlockEnd
  0
BLOCK
  5
BBD1
330
BBC8
100
AcDbEntity
  8
0
100
AcDbBlockBegin
  2
*D28
 70
     1
 10
0.0
 20
0.0
 30
0.0
  3
*D28
  1

  0
LINE
  5
BC29
330
BBC8
100
AcDbEntity
  8
30
  6
Continuous
 62
     0
370
    -2
100
AcDbLine
 10
946.3762577393552
 20
-366.8719847291068
 30
0.0
 11
950.4612471630647
 21
-364.1240475127297
 31
0.0
  0
LINE
  5
BC2A
330
BBC8
100
AcDbEntity
  8
30
  6
Continuous
 62
     0
370
    -2
100
AcDbLine
 10
950.4612471630647
 20
-364.1240475127297
 30
0.0
 11
963.4612471630646
 21
-364.1240475127297
 31
0.0
  0
INSERT
  5
BC2B
330
BBC8
100
AcDbEntity
  8
30
  6
Continuous
 62
     0
370
    -2
100
AcDbBlockReference
  2
_OPEN
 10
944.7167859421858
 20
-367.9882971201509
 30
0.0
 41
2.0
 42
2.0
 43
2.0
 50
213.9283820445073
  0
MTEXT
  5
BC2C
102
{ACAD_XDICTIONARY
360
BEC4
102
}
330
BBC8
100
AcDbEntity
  8
30
  6
Continuous
 62
     0
100
AcDbMText
 10
958.4612471630647
 20
-358.1240475127298
 30
0.0
 40
6.0
 41
0.0
 71
     5
 72
     1
  1
\A1;\U+22059
 73
     1
 44
1.0
1001
ACAD
1000
MTEXTBEGIN
1070
    73
1070
     1
1070
    44
1040
1.0
1070
    74
1070
     0
1000
MTEXTEND
  0
LINE
  5
BC2D
330
BBC8
100
AcDbEntity
  8
30
  6
Continuous
 62
     0
370
    -2
100
AcDbLine
 10
940.892974398554
 20
-370.5000000000002
 30
0.0
 11
941.0729743985539
 21
-370.5000000000004
 31
0.0
  0
LINE
  5
BC2E
330
BBC8
100
AcDbEntity
  8
30
  6
Continuous
 62
     0
370
    -2
100
AcDbLine
 10
940.9829743985538
 20
-370.5900000000001
 30
0.0
 11
940.9829743985538
 21
-370.4100000000003
 31
0.0
  0
POINT
  5
BC2F
330
BBC8
100
AcDbEntity
  8
DEFPOINTS
  6
Continuous
 62
     0
100
AcDbPoint
 10
944.7167859421858
 20
-367.9882971201509
 30
0.0
  0
POINT
  5
BC30
330
BBC8
100
AcDbEntity
  8
DEFPOINTS
  6
Continuous
 62
     0
100
AcDbPoint
 10
937.2491628549223
 20
-373.0117028798496
 30
0.0
  0
ENDBLK
  5
BBD2
330
BBC8
100
AcDbEntity
  8
0
100
AcDbBlockEnd
  0
ENDSEC
  0
SECTION
  2
ENTITIES
  0
MTEXT
  5
BF3
330
1E
100
AcDbEntity
  8
24
  6
Continuous
100
AcDbMText
 10
142.1181906098743
 20
177.5
 30
0.0
 40
3.0
 41
0.0
 71
     1
 72
     1
  1
\A1;
 73
     1
 44
1.0
1001
ACAD
1000
MTEXTBEGIN
1070
    73
1070
     1
1070
    44
1040
1.0
1070
    74
1070
     0
1000
MTEXTEND
  0
MTEXT
  5
7B0D
330
1E
100
AcDbEntity
  8
30
  6
Continuous
100
AcDbMText
 10
336.0
 20
247.5
 30
0.0
 40
5.0
 41
0.0
 71
     1
 72
     1
  1
\A1;
 73
     1
 44
1.0
1001
ACAD
1000
MTEXTBEGIN
1070
    73
1070
     1
1070
    44
1040
1.0
1070
    74
1070
     0
1000
MTEXTEND
  0
TEXT
  5
85B6
330
1E
100
AcDbEntity
  8
30
100
AcDbText
 10
1030.725443838741
 20
-584.9008348897597
 30
0.0
 40
6.25
  1
Mounting plate
 41
0.7125304878048843
  7
UGMTXT
100
AcDbText
  0
LINE
  5
9F00
330
1E
100
AcDbEntity
  8
10
100
AcDbLine
 10
911.7829743985536
 20
29.67063935206738
 30
0.0
 11
870.1829743985536
 21
29.67063935206738
 31
0.0
  0
LINE
  5
9F06
330
1E
100
AcDbEntity
  8
10
100
AcDbLine
 10
995.9829743985537
 20
55.52893935206737
 30
0.0
 11
785.9829743985536
 21
55.52893935206737
 31
0.0
  0
LINE
  5
9F07
330
1E
100
AcDbEntity
  8
10
100
AcDbLine
 10
909.9829743985536
 20
-29.67106064793256
 30
0.0
 11
915.4829743985537
 21
-29.67106064793256
 31
0.0
  0
LINE
  5
9F08
330
1E
100
AcDbEntity
  8
10
100
AcDbLine
 10
916.6829743985536
 20
45.02893935206748
 30
0.0
 11
916.6829743985536
 21
-44.97106064793252
 31
0.0
  0
LINE
  5
9F1C
330
1E
100
AcDbEntity
  8
10
100
AcDbLine
 10
785.9829743985536
 20
158.5289393520674
 30
0.0
 11
785.9829743985536
 21
-149.4710606479324
 31
0.0
  0
LINE
  5
9F2C
330
1E
100
AcDbEntity
  8
16
100
AcDbLine
 10
1005.982974398553
 20
0.0289393520674821
 30
0.0
 11
775.9829743985537
 21
0.0289393520674821
 31
0.0
  0
LINE
  5
9F2D
330
1E
100
AcDbEntity
  8
12
100
AcDbLine
 10
844.9329743985536
 20
-116.9710606479325
 30
0.0
 11
867.4329743985536
 21
-116.9710606479325
 31
0.0
  0
LINE
  5
9F2F
330
1E
100
AcDbEntity
  8
10
100
AcDbLine
 10
809.7829743985537
 20
136.0289393520674
 30
0.0
 11
832.1829743985535
 21
136.0289393520674
 31
0.0
  0
LINE
  5
9F30
330
1E
100
AcDbEntity
  8
10
100
AcDbLine
 10
995.9829743985537
 20
141.0289393520674
 30
0.0
 11
785.9829743985536
 21
141.0289393520674
 31
0.0
  0
LINE
  5
9F35
330
1E
100
AcDbEntity
  8
10
100
AcDbLine
 10
845.9829743985533
 20
179.5289393520674
 30
0.0
 11
865.9829743985536
 21
179.5289393520674
 31
0.0
  0
LINE
  5
9F44
330
1E
100
AcDbEntity
  8
12
100
AcDbLine
 10
926.1829743985536
 20
137.2789393520674
 30
0.0
 11
926.1829743985536
 21
114.7789393520674
 31
0.0
  0
LINE
  5
9F48
330
1E
100
AcDbEntity
  8
18
 48
2.0
100
AcDbLine
 10
935.9829743985537
 20
-291.5
 30
0.0
 11
935.9829743985537
 21
-270.5
 31
0.0
  0
LINE
  5
9F51
330
1E
100
AcDbEntity
  8
18
 48
2.0
100
AcDbLine
 10
995.9829743985537
 20
-599.4999999999999
 30
0.0
 11
786.3829743985536
 21
-599.4999999999999
 31
0.0
  0
LINE
  5
9F71
330
1E
100
AcDbEntity
  8
10
100
AcDbLine
 10
880.1829743985534
 20
136.0289393520674
 30
0.0
 11
902.1829743985536
 21
136.0289393520674
 31
0.0
  0
LINE
  5
9F72
330
1E
100
AcDbEntity
  8
16
100
AcDbLine
 10
890.9829743985536
 20
-180.2210606479324
 30
0.0
 11
890.9829743985536
 21
189.2789393520673
 31
0.0
  0
LINE
  5
9F75
330
1E
100
AcDbEntity
  8
10
100
AcDbLine
 10
845.9829743985533
 20
-149.4710606479324
 30
0.0
 11
845.9829743985533
 21
-170.4710606479324
 31
0.0
  0
LINE
  5
9F77
330
1E
100
AcDbEntity
  8
18
 48
2.0
100
AcDbLine
 10
845.9829743985537
 20
-599.4999999999999
 30
0.0
 11
845.9829743985537
 21
-620.4999999999999
 31
0.0
  0
LINE
  5
9F9E
330
1E
100
AcDbEntity
  8
10
100
AcDbLine
 10
976.1829743985536
 20
40.02893935206746
 30
0.0
 11
976.1829743985536
 21
-39.97106064793253
 31
0.0
  0
LINE
  5
9FA3
330
1E
100
AcDbEntity
  8
10
100
AcDbLine
 10
911.7829743985536
 20
29.67063935206738
 30
0.0
 11
911.7829743985536
 21
37.19768435206765
 31
0.0
  0
LINE
  5
9FA6
330
1E
100
AcDbEntity
  8
10
  6
DIVIDE
100
AcDbLine
 10
1024.982974398553
 20
-535.5
 30
0.0
 11
757.3829743985536
 21
-535.5
 31
0.0
  0
LINE
  5
9FA9
330
1E
100
AcDbEntity
  8
18
 48
2.0
100
AcDbLine
 10
786.3829743985536
 20
-291.5
 30
0.0
 11
786.3829743985536
 21
-599.4999999999999
 31
0.0
  0
LINE
  5
9FB7
330
1E
100
AcDbEntity
  8
12
100
AcDbLine
 10
926.1829743985536
 20
-105.7210606479324
 30
0.0
 11
926.1829743985536
 21
-128.2210606479324
 31
0.0
  0
LINE
  5
9FC6
330
1E
100
AcDbEntity
  8
10
  6
DIVIDE
100
AcDbLine
 10
1024.982974398553
 20
-355.5
 30
0.0
 11
757.3829743985536
 21
-355.5
 31
0.0
  0
LINE
  5
9FD2
330
1E
100
AcDbEntity
  8
10
100
AcDbLine
 10
810.7829743985536
 20
-44.97106064793252
 30
0.0
 11
971.1829743985536
 21
-44.97106064793252
 31
0.0
  0
LINE
  5
9FD3
330
1E
100
AcDbEntity
  8
10
100
AcDbLine
 10
915.9829743985536
 20
-149.4710606479324
 30
0.0
 11
915.9829743985536
 21
-170.4710606479324
 31
0.0
  0
LINE
  5
9FD7
330
1E
100
AcDbEntity
  8
10
  6
DIVIDE
100
AcDbLine
 10
1024.982974398553
 20
-395.5
 30
0.0
 11
757.3829743985536
 21
-395.5
 31
0.0
  0
LINE
  5
A003
330
1E
100
AcDbEntity
  8
18
 48
2.0
100
AcDbLine
 10
935.9829743985537
 20
-270.5
 30
0.0
 11
915.9829743985538
 21
-270.5
 31
0.0
  0
LINE
  5
A012
330
1E
100
AcDbEntity
  8
10
100
AcDbLine
 10
935.9829743985537
 20
158.5289393520674
 30
0.0
 11
935.9829743985537
 21
179.5289393520674
 31
0.0
  0
LINE
  5
A016
330
1E
100
AcDbEntity
  8
10
100
AcDbLine
 10
908.9829743985536
 20
-25.47106064793251
 30
0.0
 11
908.9829743985536
 21
29.67063935206738
 31
0.0
  0
LINE
  5
A01C
330
1E
100
AcDbEntity
  8
10
100
AcDbLine
 10
995.9829743985537
 20
-149.4710606479324
 30
0.0
 11
995.9829743985537
 21
158.5289393520674
 31
0.0
  0
LINE
  5
A03D
330
1E
100
AcDbEntity
  8
18
 48
2.0
100
AcDbLine
 10
935.9829743985537
 20
-620.4999999999999
 30
0.0
 11
915.9829743985538
 21
-620.4999999999999
 31
0.0
  0
LINE
  5
A042
330
1E
100
AcDbEntity
  8
10
100
AcDbLine
 10
865.9829743985536
 20
-149.4710606479324
 30
0.0
 11
865.9829743985536
 21
-170.4710606479324
 31
0.0
  0
LINE
  5
A046
330
1E
100
AcDbEntity
  8
10
100
AcDbLine
 10
909.9829743985536
 20
-36.57106064793254
 30
0.0
 11
909.9829743985536
 21
-29.67106064793256
 31
0.0
  0
LINE
  5
A04B
330
1E
100
AcDbEntity
  8
10
100
AcDbLine
 10
950.1829743985537
 20
136.0289393520674
 30
0.0
 11
972.1829743985535
 21
136.0289393520674
 31
0.0
  0
LINE
  5
A074
330
1E
100
AcDbEntity
  8
18
 48
2.0
100
AcDbLine
 10
865.9829743985538
 20
-291.5
 30
0.0
 11
865.9829743985538
 21
-270.5
 31
0.0
  0
LINE
  5
A076
330
1E
100
AcDbEntity
  8
10
  6
DIVIDE
100
AcDbLine
 10
1024.982974398553
 20
-500.4999999999998
 30
0.0
 11
761.3115493985532
 21
-500.4999999999998
 31
0.0
  0
LINE
  5
A07D
330
1E
100
AcDbEntity
  8
12
100
AcDbLine
 10
914.9329743985536
 20
-116.9710606479325
 30
0.0
 11
937.4329743985535
 21
-116.9710606479325
 31
0.0
  0
LINE
  5
A080
330
1E
100
AcDbEntity
  8
10
100
AcDbLine
 10
880.1829743985534
 20
-126.9710606479324
 30
0.0
 11
902.1829743985536
 21
-126.9710606479324
 31
0.0
  0
LINE
  5
A084
330
1E
100
AcDbEntity
  8
10
100
AcDbLine
 10
870.1829743985536
 20
29.67063935206738
 30
0.0
 11
870.1829743985536
 21
37.19768435206765
 31
0.0
  0
LINE
  5
A08B
330
1E
100
AcDbEntity
  8
10
100
AcDbLine
 10
995.9829743985537
 20
158.5289393520674
 30
0.0
 11
785.9829743985536
 21
158.5289393520674
 31
0.0
  0
LINE
  5
A0AD
330
1E
100
AcDbEntity
  8
18
 48
2.0
100
AcDbLine
 10
915.9829743985538
 20
-291.5
 30
0.0
 11
915.9829743985538
 21
-270.5
 31
0.0
  0
LINE
  5
A0B1
330
1E
100
AcDbEntity
  8
10
100
AcDbLine
 10
845.9829743985533
 20
158.5289393520674
 30
0.0
 11
845.9829743985533
 21
179.5289393520674
 31
0.0
  0
LINE
  5
A0B3
330
1E
100
AcDbEntity
  8
12
100
AcDbLine
 10
914.9329743985536
 20
126.0289393520674
 30
0.0
 11
937.4329743985535
 21
126.0289393520674
 31
0.0
  0
LINE
  5
A0B7
330
1E
100
AcDbEntity
  8
10
100
AcDbLine
 10
785.9829743985536
 20
-106.9710606479324
 30
0.0
 11
995.9829743985537
 21
-106.9710606479324
 31
0.0
  0
LINE
  5
A0BA
330
1E
100
AcDbEntity
  8
10
100
AcDbLine
 10
995.9829743985537
 20
116.0289393520674
 30
0.0
 11
785.9829743985536
 21
116.0289393520674
 31
0.0
  0
LINE
  5
A0E4
330
1E
100
AcDbEntity
  8
18
 48
2.0
100
AcDbLine
 10
915.9829743985538
 20
-599.4999999999999
 30
0.0
 11
915.9829743985538
 21
-620.4999999999999
 31
0.0
  0
LINE
  5
A0E9
330
1E
100
AcDbEntity
  8
10
100
AcDbLine
 10
935.9829743985537
 20
-170.4710606479324
 30
0.0
 11
915.9829743985536
 21
-170.4710606479324
 31
0.0
  0
LINE
  5
A0EE
330
1E
100
AcDbEntity
  8
10
100
AcDbLine
 10
915.4829743985537
 20
-36.57106064793254
 30
0.0
 11
915.4829743985537
 21
-29.67106064793256
 31
0.0
  0
LINE
  5
A0EF
330
1E
100
AcDbEntity
  8
10
100
AcDbLine
 10
805.7829743985536
 20
40.02893935206746
 30
0.0
 11
805.7829743985536
 21
-39.97106064793253
 31
0.0
  0
LINE
  5
A0F3
330
1E
100
AcDbEntity
  8
10
100
AcDbLine
 10
810.7829743985536
 20
45.02893935206748
 30
0.0
 11
971.1829743985536
 21
45.02893935206748
 31
0.0
  0
LINE
  5
A11C
330
1E
100
AcDbEntity
  8
18
 48
2.0
100
AcDbLine
 10
845.9829743985537
 20
-291.5
 30
0.0
 11
845.9829743985537
 21
-270.5
 31
0.0
  0
LINE
  5
A11E
330
1E
100
AcDbEntity
  8
10
  6
DIVIDE
100
AcDbLine
 10
1024.982974398553
 20
-495.5
 30
0.0
 11
757.3829743985536
 21
-495.5
 31
0.0
  0
LINE
  5
A124
330
1E
100
AcDbEntity
  8
12
100
AcDbLine
 10
856.1829743985535
 20
-105.7210606479324
 30
0.0
 11
856.1829743985535
 21
-128.2210606479324
 31
0.0
  0
LINE
  5
A126
330
1E
100
AcDbEntity
  8
10
100
AcDbLine
 10
908.9829743985536
 20
-25.47106064793251
 30
0.0
 11
872.9829743985535
 21
-25.47106064793251
 31
0.0
  0
LINE
  5
A127
330
1E
100
AcDbEntity
  8
10
100
AcDbLine
 10
865.6829743985536
 20
45.02893935206748
 30
0.0
 11
865.6829743985536
 21
-44.97106064793252
 31
0.0
  0
LINE
  5
A12B
330
1E
100
AcDbEntity
  8
10
100
AcDbLine
 10
916.6829743985536
 20
44.57575435206741
 30
0.0
 11
865.6829743985536
 21
44.57575435206741
 31
0.0
  0
LINE
  5
A132
330
1E
100
AcDbEntity
  8
10
100
AcDbLine
 10
995.9829743985537
 20
-149.4710606479324
 30
0.0
 11
785.9829743985536
 21
-149.4710606479324
 31
0.0
  0
LINE
  5
A153
330
1E
100
AcDbEntity
  8
18
 48
2.0
100
AcDbLine
 10
995.9829743985537
 20
-291.5
 30
0.0
 11
786.3829743985536
 21
-291.5
 31
0.0
  0
LINE
  5
A154
330
1E
100
AcDbEntity
  8
18
 48
2.0
100
AcDbLine
 10
845.9829743985537
 20
-620.4999999999999
 30
0.0
 11
865.9829743985538
 21
-620.4999999999999
 31
0.0
  0
LINE
  5
A158
330
1E
100
AcDbEntity
  8
12
100
AcDbLine
 10
856.1829743985535
 20
137.2789393520674
 30
0.0
 11
856.1829743985535
 21
114.7789393520674
 31
0.0
  0
LINE
  5
A159
330
1E
100
AcDbEntity
  8
10
100
AcDbLine
 10
865.9829743985536
 20
158.5289393520674
 30
0.0
 11
865.9829743985536
 21
179.5289393520674
 31
0.0
  0
LINE
  5
A15D
330
1E
100
AcDbEntity
  8
16
100
AcDbLine
 10
1005.982974398553
 20
-450.0
 30
0.0
 11
776.3829743985536
 21
-450.0
 31
0.0
  0
LINE
  5
A15F
330
1E
100
AcDbEntity
  8
10
100
AcDbLine
 10
872.9829743985535
 20
-25.47106064793251
 30
0.0
 11
872.9829743985535
 21
29.67063935206738
 31
0.0
  0
LINE
  5
A160
330
1E
100
AcDbEntity
  8
10
100
AcDbLine
 10
995.9829743985537
 20
-46.47106064793251
 30
0.0
 11
785.9829743985536
 21
-46.47106064793251
 31
0.0
  0
LINE
  5
A163
330
1E
100
AcDbEntity
  8
10
100
AcDbLine
 10
809.7829743985537
 20
-126.9710606479324
 30
0.0
 11
832.1829743985535
 21
-126.9710606479324
 31
0.0
  0
LINE
  5
A18D
330
1E
100
AcDbEntity
  8
18
 48
2.0
100
AcDbLine
 10
935.9829743985537
 20
-599.4999999999999
 30
0.0
 11
935.9829743985537
 21
-620.4999999999999
 31
0.0
  0
LINE
  5
A18E
330
1E
100
AcDbEntity
  8
10
  6
DIVIDE
100
AcDbLine
 10
1021.054404398552
 20
-390.5
 30
0.0
 11
757.3829743985536
 21
-390.5
 31
0.0
  0
LINE
  5
A192
330
1E
100
AcDbEntity
  8
10
100
AcDbLine
 10
935.9829743985537
 20
-149.4710606479324
 30
0.0
 11
935.9829743985537
 21
-170.4710606479324
 31
0.0
  0
LINE
  5
A196
330
1E
100
AcDbEntity
  8
10
100
AcDbLine
 10
909.9829743985536
 20
-36.57106064793254
 30
0.0
 11
915.4829743985537
 21
-36.57106064793254
 31
0.0
  0
LINE
  5
A197
330
1E
100
AcDbEntity
  8
10
100
AcDbLine
 10
950.1829743985537
 20
-126.9710606479324
 30
0.0
 11
972.1829743985535
 21
-126.9710606479324
 31
0.0
  0
LINE
  5
A19B
330
1E
100
AcDbEntity
  8
10
100
AcDbLine
 10
911.7829743985536
 20
37.19768435206765
 30
0.0
 11
870.1829743985536
 21
37.19768435206765
 31
0.0
  0
LINE
  5
A1C4
330
1E
100
AcDbEntity
  8
18
 48
2.0
100
AcDbLine
 10
845.9829743985537
 20
-270.5
 30
0.0
 11
865.9829743985538
 21
-270.5
 31
0.0
  0
LINE
  5
A1C6
330
1E
100
AcDbEntity
  8
16
100
AcDbLine
 10
890.9829743985538
 20
-630.4999999999997
 30
0.0
 11
890.9829743985538
 21
-260.4999999999999
 31
0.0
  0
LINE
  5
A1C8
330
1E
100
AcDbEntity
  8
10
100
AcDbLine
 10
915.9829743985536
 20
158.5289393520674
 30
0.0
 11
915.9829743985536
 21
179.5289393520674
 31
0.0
  0
LINE
  5
A1CA
330
1E
100
AcDbEntity
  8
10
100
AcDbLine
 10
785.9829743985536
 20
-131.9710606479324
 30
0.0
 11
995.9829743985537
 21
-131.9710606479324
 31
0.0
  0
LINE
  5
A1D9
330
1E
100
AcDbEntity
  8
10
100
AcDbLine
 10
935.9829743985537
 20
179.5289393520674
 30
0.0
 11
915.9829743985536
 21
179.5289393520674
 31
0.0
  0
LINE
  5
A1FA
330
1E
100
AcDbEntity
  8
18
 48
2.0
100
AcDbLine
 10
995.9829743985537
 20
-599.4999999999999
 30
0.0
 11
995.9829743985537
 21
-291.5
 31
0.0
  0
LINE
  5
A1FB
330
1E
100
AcDbEntity
  8
18
 48
2.0
100
AcDbLine
 10
865.9829743985538
 20
-599.4999999999999
 30
0.0
 11
865.9829743985538
 21
-620.4999999999999
 31
0.0
  0
LINE
  5
A1FF
330
1E
100
AcDbEntity
  8
12
100
AcDbLine
 10
844.9329743985536
 20
126.0289393520674
 30
0.0
 11
867.4329743985536
 21
126.0289393520674
 31
0.0
  0
LINE
  5
A200
330
1E
100
AcDbEntity
  8
10
100
AcDbLine
 10
845.9829743985533
 20
-170.4710606479324
 30
0.0
 11
865.9829743985536
 21
-170.4710606479324
 31
0.0
  0
ARC
  5
A203
330
1E
100
AcDbEntity
  8
10
100
AcDbCircle
 10
810.7829743985536
 20
-39.97106064793253
 30
0.0
 40
4.999999999999999
100
AcDbArc
 50
180.0
 51
270.0
  0
CIRCLE
  5
A206
330
1E
100
AcDbEntity
  8
12
100
AcDbCircle
 10
856.1829743985535
 20
126.0289393520674
 30
0.0
 40
8.249999999999998
  0
CIRCLE
  5
A20E
330
1E
100
AcDbEntity
  8
12
100
AcDbCircle
 10
-840.9829743985538
 20
-520.5
 30
0.0
 40
4.499999999999999
210
0.0
220
0.0
230
-1.0
  0
ARC
  5
A20F
330
1E
100
AcDbEntity
  8
10
100
AcDbCircle
 10
809.7829743985537
 20
126.0289393520674
 30
0.0
 40
9.999999999999998
100
AcDbArc
 50
90.0
 51
270.0
  0
ARC
  5
A213
330
1E
100
AcDbEntity
  8
10
100
AcDbCircle
 10
972.1829743985535
 20
-116.9710606479325
 30
0.0
 40
9.999999999999998
100
AcDbArc
 50
270.0
 51
90.0
  0
ARC
  5
A21A
330
1E
100
AcDbEntity
  8
10
100
AcDbCircle
 10
971.1829743985536
 20
-39.97106064793253
 30
0.0
 40
4.999999999999999
100
AcDbArc
 50
270.0
 51
0.0
  0
ARC
  5
A221
330
1E
100
AcDbEntity
  8
10
100
AcDbCircle
 10
832.1829743985535
 20
126.0289393520674
 30
0.0
 40
9.999999999999998
100
AcDbArc
 50
270.0
 51
90.0
  0
ARC
  5
A229
330
1E
100
AcDbEntity
  8
10
100
AcDbCircle
 10
950.1829743985537
 20
126.0289393520674
 30
0.0
 40
9.999999999999998
100
AcDbArc
 50
90.0
 51
270.0
  0
CIRCLE
  5
A22A
330
1E
100
AcDbEntity
  8
12
100
AcDbCircle
 10
-940.9829743985538
 20
-520.5
 30
0.0
 40
4.499999999999999
210
0.0
220
0.0
230
-1.0
  0
ARC
  5
A236
330
1E
100
AcDbEntity
  8
10
100
AcDbCircle
 10
972.1829743985535
 20
126.0289393520674
 30
0.0
 40
9.999999999999998
100
AcDbArc
 50
270.0
 51
90.0
  0
CIRCLE
  5
A23F
330
1E
100
AcDbEntity
  8
12
100
AcDbCircle
 10
856.1829743985535
 20
-116.9710606479325
 30
0.0
 40
8.249999999999998
  0
ARC
  5
A248
330
1E
100
AcDbEntity
  8
10
100
AcDbCircle
 10
902.1829743985536
 20
126.0289393520674
 30
0.0
 40
9.999999999999998
100
AcDbArc
 50
270.0
 51
90.0
  0
CIRCLE
  5
A249
330
1E
100
AcDbEntity
  8
12
100
AcDbCircle
 10
926.1829743985536
 20
-116.9710606479325
 30
0.0
 40
8.249999999999998
  0
ARC
  5
A24A
330
1E
100
AcDbEntity
  8
10
100
AcDbCircle
 10
971.1829743985536
 20
40.02893935206746
 30
0.0
 40
4.999999999999999
100
AcDbArc
 50
0.0
 51
90.0
  0
CIRCLE
  5
A250
330
1E
100
AcDbEntity
  8
12
100
AcDbCircle
 10
840.9829743985538
 20
-370.5
 30
0.0
 40
4.499999999999999
  0
ARC
  5
A251
330
1E
100
AcDbEntity
  8
10
100
AcDbCircle
 10
880.1829743985534
 20
-116.9710606479325
 30
0.0
 40
9.999999999999998
100
AcDbArc
 50
90.0
 51
270.0
  0
CIRCLE
  5
A25A
330
1E
100
AcDbEntity
  8
12
100
AcDbCircle
 10
926.1829743985536
 20
126.0289393520674
 30
0.0
 40
8.249999999999998
  0
ARC
  5
A263
330
1E
100
AcDbEntity
  8
10
100
AcDbCircle
 10
880.1829743985534
 20
126.0289393520674
 30
0.0
 40
9.999999999999998
100
AcDbArc
 50
90.0
 51
270.0
  0
ARC
  5
A264
330
1E
100
AcDbEntity
  8
10
100
AcDbCircle
 10
950.1829743985537
 20
-116.9710606479325
 30
0.0
 40
9.999999999999998
100
AcDbArc
 50
90.0
 51
270.0
  0
ARC
  5
A265
330
1E
100
AcDbEntity
  8
10
100
AcDbCircle
 10
810.7829743985536
 20
40.02893935206746
 30
0.0
 40
4.999999999999999
100
AcDbArc
 50
90.0
 51
180.0
  0
CIRCLE
  5
A26B
330
1E
100
AcDbEntity
  8
12
100
AcDbCircle
 10
940.9829743985538
 20
-370.5
 30
0.0
 40
4.499999999999999
  0
ARC
  5
A26C
330
1E
100
AcDbEntity
  8
10
100
AcDbCircle
 10
902.1829743985536
 20
-116.9710606479325
 30
0.0
 40
9.999999999999998
100
AcDbArc
 50
270.0
 51
90.0
  0
ARC
  5
A275
330
1E
100
AcDbEntity
  8
10
100
AcDbCircle
 10
809.7829743985537
 20
-116.9710606479325
 30
0.0
 40
9.999999999999998
100
AcDbArc
 50
90.0
 51
270.0
  0
ARC
  5
A27D
330
1E
100
AcDbEntity
  8
10
100
AcDbCircle
 10
832.1829743985535
 20
-116.9710606479325
 30
0.0
 40
9.999999999999998
100
AcDbArc
 50
270.0
 51
90.0
  0
SPLINE
  5
A283
330
1E
100
AcDbEntity
  8
10
100
AcDbSpline
210
0.0
220
0.0
230
1.0
 70
     8
 71
     2
 72
     8
 73
     5
 74
     0
 42
0.000000001
 43
0.0000000001
 40
0.0
 40
0.0
 40
0.0
 40
0.375
 40
0.625
 40
1.0
 40
1.0
 40
1.0
 10
1024.982976187132
 20
-495.4999987028758
 30
0.0
 10
1033.018690472847
 20
-502.9999987028758
 30
0.0
 10
1024.982976187132
 20
-515.4999987028758
 30
0.0
 10
1016.947261901417
 20
-527.9999987028758
 30
0.0
 10
1024.982976187132
 20
-535.4999987028755
 30
0.0
  0
SPLINE
  5
A284
330
1E
100
AcDbEntity
  8
10
100
AcDbSpline
210
0.0
220
0.0
230
1.0
 70
     8
 71
     2
 72
     8
 73
     5
 74
     0
 42
0.000000001
 43
0.0000000001
 40
0.0
 40
0.0
 40
0.0
 40
0.375
 40
0.625
 40
1.0
 40
1.0
 40
1.0
 10
757.3829761871317
 20
-495.4999987028758
 30
0.0
 10
765.4186904728458
 20
-502.9999987028758
 30
0.0
 10
757.3829761871317
 20
-515.4999987028758
 30
0.0
 10
749.3472619014169
 20
-527.9999987028758
 30
0.0
 10
757.3829761871317
 20
-535.4999987028755
 30
0.0
  0
SPLINE
  5
A286
330
1E
100
AcDbEntity
  8
10
100
AcDbSpline
210
0.0
220
0.0
230
1.0
 70
     8
 71
     2
 72
     8
 73
     5
 74
     0
 42
0.000000001
 43
0.0000000001
 40
0.0
 40
0.0
 40
0.0
 40
0.375
 40
0.625
 40
1.0
 40
1.0
 40
1.0
 10
757.3829761871317
 20
-355.4999987028756
 30
0.0
 10
765.4186904728458
 20
-362.9999987028758
 30
0.0
 10
757.3829761871317
 20
-375.4999987028758
 30
0.0
 10
749.3472619014169
 20
-387.9999987028758
 30
0.0
 10
757.3829761871317
 20
-395.4999987028756
 30
0.0
  0
SPLINE
  5
A288
330
1E
100
AcDbEntity
  8
10
100
AcDbSpline
210
0.0
220
0.0
230
1.0
 70
     8
 71
     2
 72
     8
 73
     5
 74
     0
 42
0.000000001
 43
0.0000000001
 40
0.0
 40
0.0
 40
0.0
 40
0.375
 40
0.625
 40
1.0
 40
1.0
 40
1.0
 10
1024.982976187132
 20
-355.4999987028756
 30
0.0
 10
1033.018690472847
 20
-362.9999987028758
 30
0.0
 10
1024.982976187132
 20
-375.4999987028758
 30
0.0
 10
1016.947261901417
 20
-387.9999987028758
 30
0.0
 10
1024.982976187132
 20
-395.4999987028756
 30
0.0
  0
LINE
  5
A2FD
330
1E
100
AcDbEntity
  8
12
100
AcDbLine
 10
831.4829743985534
 20
-370.5
 30
0.0
 11
850.4829743985537
 21
-370.5
 31
0.0
  0
LINE
  5
A2FE
330
1E
100
AcDbEntity
  8
12
100
AcDbLine
 10
840.9829743985538
 20
-380.0
 30
0.0
 11
840.9829743985538
 21
-361.0
 31
0.0
  0
LINE
  5
A2FF
330
1E
100
AcDbEntity
  8
12
100
AcDbLine
 10
931.4829743985537
 20
-370.5
 30
0.0
 11
950.4829743985537
 21
-370.5
 31
0.0
  0
LINE
  5
A300
330
1E
100
AcDbEntity
  8
12
100
AcDbLine
 10
940.9829743985538
 20
-380.0
 30
0.0
 11
940.9829743985538
 21
-361.0
 31
0.0
  0
LINE
  5
A301
330
1E
100
AcDbEntity
  8
12
100
AcDbLine
 10
831.4829743985534
 20
-520.5
 30
0.0
 11
850.4829743985537
 21
-520.5
 31
0.0
  0
LINE
  5
A302
330
1E
100
AcDbEntity
  8
12
100
AcDbLine
 10
840.9829743985538
 20
-530.0
 30
0.0
 11
840.9829743985538
 21
-511.0
 31
0.0
  0
LINE
  5
A303
330
1E
100
AcDbEntity
  8
10
100
AcDbLine
 10
931.4829743985537
 20
-520.5
 30
0.0
 11
950.4829743985537
 21
-520.5
 31
0.0
  0
LINE
  5
A304
330
1E
100
AcDbEntity
  8
12
100
AcDbLine
 10
940.9829743985538
 20
-530.0
 30
0.0
 11
940.9829743985538
 21
-511.0
 31
0.0
  0
DIMENSION
  5
A319
330
1E
100
AcDbEntity
  8
30
  6
Continuous
100
AcDbDimension
  2
*D2
 10
995.9829743985537
 20
-202.0669356479323
 30
0.0
 11
890.9829743985536
 21
-196.0669356479323
 31
0.0
 70
    32
  1
 <> 
 71
     5
 42
209.9999999999995
  3
STANDARD1
100
AcDbAlignedDimension
 13
785.9829743985537
 23
-149.4710606479324
 33
0.0
 14
995.9829743985537
 24
-149.4710606479324
 34
0.0
100
AcDbRotatedDimension
  0
DIMENSION
  5
A327
330
1E
100
AcDbEntity
  8
30
  6
Continuous
100
AcDbDimension
  2
*D3
 10
940.9829743985538
 20
-647.095875
 30
0.0
 11
890.9829743985538
 21
-641.0958749999998
 31
0.0
 70
    32
  1
 <> 
 71
     5
 42
100.0
  3
STANDARD1
100
AcDbAlignedDimension
 13
840.9829743985538
 23
-525.4999999999999
 33
0.0
 14
940.9829743985538
 24
-525.4999999999999
 34
0.0
100
AcDbRotatedDimension
  0
MTEXT
  5
AA03
330
1E
100
AcDbEntity
  8
30
  6
Continuous
100
AcDbMText
 10
1320.214759583318
 20
680.7746698871859
 30
0.0
 40
5.0
 41
0.0
 71
     1
 72
     1
  1
\A1;
 73
     1
 44
1.0
1001
ACAD
1000
MTEXTBEGIN
1070
    73
1070
     1
1070
    44
1040
1.0
1070
    74
1070
     0
1000
MTEXTEND
  0
DIMENSION
  5
B07A
330
1E
100
AcDbEntity
  8
30
  6
Continuous
100
AcDbDimension
  2
*D4
 10
735.42743803637
 20
-170.4710606479324
 30
0.0
 11
735.42743803637
 21
-0.0469446823908584
 31
0.0
 70
   160
 71
     5
 42
349.9999999999998
  3
STANDARD1
100
AcDbAlignedDimension
 13
845.9829743985533
 23
179.5289393520674
 33
0.0
 14
845.9829743985533
 24
-170.4710606479324
 34
0.0
 50
90.0
100
AcDbRotatedDimension
  0
DIMENSION
  5
B07B
330
1E
100
AcDbEntity
  8
30
  6
Continuous
100
AcDbDimension
  2
*D5
 10
751.4858567141788
 20
-149.4710606479324
 30
0.0
 11
751.4858567141788
 21
2.432749442561541
 31
0.0
 70
   160
 71
     5
 42
308.0
  3
STANDARD1
100
AcDbAlignedDimension
 13
785.9829743985536
 23
158.5289393520674
 33
0.0
 14
785.9829743985536
 24
-149.4710606479324
 34
0.0
 50
90.0
100
AcDbRotatedDimension
  0
DIMENSION
  5
B07C
330
1E
100
AcDbEntity
  8
30
  6
Continuous
100
AcDbDimension
  2
*D6
 10
769.849650768752
 20
-131.9710606479324
 30
0.0
 11
769.849650768752
 21
14.96450062343956
 31
0.0
 70
   160
 71
     5
 42
273.0
  3
STANDARD1
100
AcDbAlignedDimension
 13
785.9829743985536
 23
141.0289393520674
 33
0.0
 14
785.9829743985536
 24
-131.9710606479324
 34
0.0
 50
90.0
100
AcDbRotatedDimension
  0
DIMENSION
  5
B6C2
330
1E
100
AcDbEntity
  8
30
  6
Continuous
100
AcDbDimension
  2
*D7
 10
1200.740803496175
 20
442.2762871192651
 30
0.0
 11
1189.240803496175
 21
448.2762871192652
 31
0.0
 70
    32
  1
 <> 
 71
     5
 42
23.0
  3
STANDARD1
100
AcDbAlignedDimension
 13
1177.740803496176
 23
430.1582079486061
 33
0.0
 14
1200.740803496175
 24
390.7651679486061
 34
0.0
100
AcDbRotatedDimension
  0
SPLINE
  5
B6C3
330
1E
100
AcDbEntity
  8
30
  6
Continuous
100
AcDbSpline
210
0.0
220
0.0
230
1.0
 70
  1064
 71
     3
 72
    11
 73
     7
 74
     5
 42
0.000000001
 43
0.0000000001
 44
0.0000000001
 40
0.0
 40
0.0
 40
0.0
 40
0.0
 40
36.18454601583454
 40
88.30195938343583
 40
133.8086474653988
 40
205.8330802252091
 40
205.8330802252091
 40
205.8330802252091
 40
205.8330802252091
 10
1154.449882963755
 20
460.7010498353562
 30
0.0
 10
1154.007030451903
 20
447.6938700926787
 30
0.0
 10
1152.926327532562
 20
415.95215757186
 30
0.0
 10
1094.820601418605
 20
400.710369203848
 30
0.0
 10
1109.291930036557
 20
335.7170576837449
 30
0.0
 10
1106.718268435247
 20
298.0417097980906
 30
0.0
 10
1105.141098783307
 20
274.9538200455041
 30
0.0
 11
1154.449882963755
 21
460.7010498353562
 31
0.0
 11
1146.863913391751
 21
425.3206253604481
 31
0.0
 11
1106.40543305783
 21
392.4673736918663
 31
0.0
 11
1105.141098783307
 21
346.9782528053144
 31
0.0
 11
1105.141098783307
 21
274.9538200455041
 31
0.0
  0
LINE
  5
B6C4
330
1E
100
AcDbEntity
  8
10
100
AcDbLine
 10
1177.740803496176
 20
365.7651679486061
 30
0.0
 11
1242.140803496176
 21
365.7651679486061
 31
0.0
  0
LINE
  5
B6C5
330
1E
100
AcDbEntity
  8
10
100
AcDbLine
 10
1242.140803496176
 20
362.2651679486061
 30
0.0
 11
1185.219823496176
 21
362.2651679486061
 31
0.0
  0
LINE
  5
B6C6
330
1E
100
AcDbEntity
  8
12
100
AcDbLine
 10
1241.140803496175
 20
341.2651679486061
 30
0.0
 11
1197.640803496176
 21
341.2651679486061
 31
0.0
  0
LINE
  5
B6C7
330
1E
100
AcDbEntity
  8
12
100
AcDbLine
 10
1241.140803496175
 20
329.2651679486061
 30
0.0
 11
1197.640803496176
 21
329.2651679486061
 31
0.0
  0
LINE
  5
B6C8
330
1E
100
AcDbEntity
  8
1
  6
Continuous
 62
     3
100
AcDbLine
 10
1251.140803496176
 20
335.2651679486061
 30
0.0
 11
1177.640803496176
 21
335.2651679486061
 31
0.0
  0
DIMENSION
  5
B6C9
330
1E
100
AcDbEntity
  8
30
  6
Continuous
100
AcDbDimension
  2
*D8
 10
1241.140803496175
 20
225.1692929486062
 30
0.0
 11
1219.390803496176
 21
231.1692929486062
 31
0.0
 70
    32
  1
 <> 
 71
     5
 42
43.5
  3
STANDARD1
100
AcDbAlignedDimension
 13
1197.640803496176
 23
247.7651679486061
 33
0.0
 14
1241.140803496175
 24
324.2651679486062
 34
0.0
100
AcDbRotatedDimension
  0
LINE
  5
B6CA
330
1E
100
AcDbEntity
  8
10
100
AcDbLine
 10
1126.140803496173
 20
302.7651679486063
 30
0.0
 11
1242.140803496176
 21
302.7651679486063
 31
0.0
  0
DIMENSION
  5
B6CB
330
1E
100
AcDbEntity
  8
30
  6
Continuous
100
AcDbDimension
  2
*D9
 10
1277.694703496176
 20
362.2651679486061
 30
0.0
 11
1271.694703496176
 21
348.7651679486063
 31
0.0
 70
    32
  1
 <> 
 71
     0
 72
     0
 41
0.0
 42
26.99999999999988
  3
STANDARD1
100
AcDbAlignedDimension
 13
1202.640803496175
 23
335.2651679486061
 33
0.0
 14
1247.140803496176
 24
362.2651679486061
 34
0.0
 50
90.0
100
AcDbRotatedDimension
  0
DIMENSION
  5
B6CC
330
1E
100
AcDbEntity
  8
30
  6
Continuous
100
AcDbDimension
  2
*D10
 10
1175.140803496175
 20
265.5985012819395
 30
0.0
 11
1150.640803496176
 21
271.5985012819393
 31
0.0
 70
    32
 71
     5
 42
49.0
  3
STANDARD1
100
AcDbAlignedDimension
 13
1126.140803496173
 23
302.7651679486063
 33
0.0
 14
1175.140803496175
 24
281.7651679486063
 34
0.0
100
AcDbRotatedDimension
  0
LINE
  5
B6CD
330
1E
100
AcDbEntity
  8
10
100
AcDbLine
 10
1175.140803496175
 20
302.7651679486063
 30
0.0
 11
1175.140803496175
 21
281.7651679486063
 31
0.0
  0
LINE
  5
B6CE
330
1E
100
AcDbEntity
  8
10
100
AcDbLine
 10
1160.140803496176
 20
302.7651679486063
 30
0.0
 11
1160.140803496176
 21
281.7651679486063
 31
0.0
  0
LINE
  5
B6CF
330
1E
100
AcDbEntity
  8
1
  6
DASHDOT
 62
     3
100
AcDbLine
 10
1197.640803496176
 20
319.2651679486061
 30
0.0
 11
1197.640803496176
 21
252.7651679486061
 31
0.0
  0
LINE
  5
B6D0
330
1E
100
AcDbEntity
  8
10
100
AcDbLine
 10
1207.640803496176
 20
252.7651679486061
 30
0.0
 11
1207.640803496176
 21
361.7651679486062
 31
0.0
  0
DIMENSION
  5
B6D1
330
1E
100
AcDbEntity
  8
30
  6
Continuous
100
AcDbDimension
  2
*D11
 10
1197.640803496176
 20
225.1692929486062
 30
0.0
 11
1161.890803496176
 21
231.1692929486062
 31
0.0
 70
    32
  1
 <> 
 71
     5
 42
71.5
  3
STANDARD1
100
AcDbAlignedDimension
 13
1126.140803496173
 23
297.7651679486061
 33
0.0
 14
1197.640803496176
 24
247.7651679486061
 34
0.0
100
AcDbRotatedDimension
  0
LINE
  5
B6D2
330
1E
100
AcDbEntity
  8
10
100
AcDbLine
 10
1160.140803496176
 20
281.7651679486063
 30
0.0
 11
1175.140803496175
 21
281.7651679486063
 31
0.0
  0
SPLINE
  5
B6D3
330
1E
100
AcDbEntity
  8
1
  6
Continuous
 62
     3
100
AcDbSpline
210
0.0
220
0.0
230
1.0
 70
     8
 71
     2
 72
     8
 73
     5
 74
     0
 42
0.000000001
 43
0.0000000001
 40
0.0
 40
0.0
 40
0.0
 40
0.375
 40
0.625
 40
1.0
 40
1.0
 40
1.0
 10
1197.640805284754
 20
252.76516924573
 30
0.0
 10
1199.515805284754
 20
256.7830263885872
 30
0.0
 10
1202.640805284755
 20
252.7651692457299
 30
0.0
 10
1205.765805284753
 20
248.747312102873
 30
0.0
 10
1207.640805284754
 20
252.7651692457308
 30
0.0
  0
DIMENSION
  5
B6D4
330
1E
100
AcDbEntity
  8
30
  6
Continuous
100
AcDbDimension
  2
*D12
 10
1197.640803496176
 20
265.5985012819395
 30
0.0
 11
1211.640803496176
 21
271.5985012819393
 31
0.0
 70
    32
 71
     5
 42
22.5
  3
STANDARD1
100
AcDbAlignedDimension
 13
1175.140803496175
 23
281.7651679486063
 33
0.0
 14
1197.640803496176
 24
265.5985012819395
 34
0.0
100
AcDbRotatedDimension
  0
LINE
  5
B6D5
330
1E
100
AcDbEntity
  8
10
100
AcDbLine
 10
1106.924956028459
 20
320.2651679486061
 30
0.0
 11
1126.140803496173
 21
320.2651679486061
 31
0.0
  0
LINE
  5
B6D6
330
1E
100
AcDbEntity
  8
10
100
AcDbLine
 10
1126.140803496173
 20
302.7651679486063
 30
0.0
 11
1126.140803496173
 21
408.9064194597146
 31
0.0
  0
LINE
  5
B6D7
330
1E
100
AcDbEntity
  8
12
100
AcDbLine
 10
1185.240803496174
 20
390.2651679486061
 30
0.0
 11
1185.240803496174
 21
373.2651679486061
 31
0.0
  0
LINE
  5
B6D8
330
1E
100
AcDbEntity
  8
10
100
AcDbLine
 10
1177.740803496176
 20
365.7651679486061
 30
0.0
 11
1177.740803496176
 21
425.1582079486061
 31
0.0
  0
LINE
  5
B6D9
330
1E
100
AcDbEntity
  8
10
100
AcDbLine
 10
1182.740803496175
 20
396.7651679486061
 30
0.0
 11
1182.740803496175
 21
371.7651679486061
 31
0.0
  0
LINE
  5
B6DA
330
1E
100
AcDbEntity
  8
1
  6
Continuous
 62
     3
100
AcDbLine
 10
1175.240803496174
 20
367.0151679486061
 30
0.0
 11
1128.640803496175
 21
367.0151679486061
 31
0.0
  0
LINE
  5
B6DB
330
1E
100
AcDbEntity
  8
12
100
AcDbLine
 10
1217.640803496176
 20
326.2651679486062
 30
0.0
 11
1217.640803496176
 21
344.2651679486061
 31
0.0
  0
LINE
  5
B6DC
330
1E
100
AcDbEntity
  8
10
100
AcDbLine
 10
1197.640803496176
 20
319.2651679486061
 30
0.0
 11
1197.640803496176
 21
351.2651679486062
 31
0.0
  0
LINE
  5
B6DD
330
1E
100
AcDbEntity
  8
12
100
AcDbLine
 10
1210.140803496176
 20
323.2651679486061
 30
0.0
 11
1210.140803496176
 21
347.2651679486062
 31
0.0
  0
SPLINE
  5
B6DE
330
1E
100
AcDbEntity
  8
10
100
AcDbSpline
210
0.0
220
0.0
230
1.0
 70
     8
 71
     2
 72
     8
 73
     5
 74
     0
 42
0.000000001
 43
0.0000000001
 40
0.0
 40
0.0
 40
0.0
 40
0.3780180892680284
 40
0.6300301487800474
 40
1.0
 40
1.0
 40
1.0
 10
1182.740805284754
 20
302.7651692457307
 30
0.0
 10
1191.516859571471
 20
314.6719717085576
 30
0.0
 10
1180.928203645487
 20
334.560145408809
 30
0.0
 10
1191.151688651638
 20
354.2704119363004
 30
0.0
 10
1183.097895029755
 20
365.7651692455782
 30
0.0
  0
LINE
  5
B6DF
330
1E
100
AcDbEntity
  8
10
100
AcDbLine
 10
1196.640803496174
 20
302.7651679486063
 30
0.0
 11
1196.640803496174
 21
306.2651679486061
 31
0.0
  0
LINE
  5
B6E0
330
1E
100
AcDbEntity
  8
10
100
AcDbLine
 10
1196.640803496174
 20
306.2651679486061
 30
0.0
 11
1184.993398496176
 21
306.2651679486061
 31
0.0
  0
LINE
  5
B6E1
330
1E
100
AcDbEntity
  8
12
100
AcDbLine
 10
1197.640803496176
 20
319.2651679486061
 30
0.0
 11
1187.640803496176
 21
319.2651679486061
 31
0.0
  0
LINE
  5
B6E2
330
1E
100
AcDbEntity
  8
1
  6
Continuous
 62
     3
100
AcDbLine
 10
1210.140803496176
 20
323.2651679486061
 30
0.0
 11
1207.640803496176
 21
323.2651679486061
 31
0.0
  0
LINE
  5
B6E3
330
1E
100
AcDbEntity
  8
1
  6
DASHDOT
 62
     3
100
AcDbLine
 10
1217.640803496176
 20
326.2651679486062
 30
0.0
 11
1210.140803496176
 21
326.2651679486062
 31
0.0
  0
LINE
  5
B6E4
330
1E
100
AcDbEntity
  8
1
  6
DASHDOT
 62
     3
100
AcDbLine
 10
1207.640803496176
 20
361.7651679486062
 30
0.0
 11
1197.640803496176
 21
361.7651679486062
 31
0.0
  0
LINE
  5
B6E5
330
1E
100
AcDbEntity
  8
12
100
AcDbLine
 10
1185.240803496174
 20
373.2651679486061
 30
0.0
 11
1182.740803496175
 21
373.2651679486061
 31
0.0
  0
ARC
  5
B6E6
330
1E
100
AcDbEntity
  8
10
100
AcDbCircle
 10
-1177.740803496176
 20
371.7651679486061
 30
0.0
 40
4.999999999999999
210
0.0
220
0.0
230
-1.0
100
AcDbArc
 50
180.0
 51
270.0
  0
LINE
  5
B6E7
330
1E
100
AcDbEntity
  8
12
100
AcDbLine
 10
1197.640803496176
 20
351.2651679486062
 30
0.0
 11
1187.640803496176
 21
351.2651679486062
 31
0.0
  0
LINE
  5
B6E8
330
1E
100
AcDbEntity
  8
1
  6
DASHDOT
 62
     3
100
AcDbLine
 10
1197.640803496176
 20
351.2651679486062
 30
0.0
 11
1197.640803496176
 21
361.7651679486062
 31
0.0
  0
LINE
  5
B6E9
330
1E
100
AcDbEntity
  8
1
  6
Continuous
 62
     3
100
AcDbLine
 10
1210.140803496176
 20
347.2651679486062
 30
0.0
 11
1207.640803496176
 21
347.2651679486062
 31
0.0
  0
LINE
  5
B6EA
330
1E
100
AcDbEntity
  8
12
100
AcDbLine
 10
1217.640803496176
 20
344.2651679486061
 30
0.0
 11
1210.140803496176
 21
344.2651679486061
 31
0.0
  0
LINE
  5
B6EB
330
1E
100
AcDbEntity
  8
1
  6
Continuous
 62
     3
100
AcDbLine
 10
1210.740803496175
 20
381.7651679486061
 30
0.0
 11
1167.740803496176
 21
381.7651679486061
 31
0.0
  0
LINE
  5
B6EC
330
1E
100
AcDbEntity
  8
12
100
AcDbLine
 10
1200.740803496175
 20
385.7651679486061
 30
0.0
 11
1177.740803496176
 21
385.7651679486061
 31
0.0
  0
LINE
  5
B6ED
330
1E
100
AcDbEntity
  8
12
100
AcDbLine
 10
1200.740803496175
 20
377.7651679486061
 30
0.0
 11
1177.740803496176
 21
377.7651679486061
 31
0.0
  0
LINE
  5
B6EE
330
1E
100
AcDbEntity
  8
10
100
AcDbLine
 10
1217.740803496176
 20
406.7651679486059
 30
0.0
 11
1177.740803496176
 21
406.7651679486059
 31
0.0
  0
LINE
  5
B6EF
330
1E
100
AcDbEntity
  8
10
100
AcDbLine
 10
1212.740803496175
 20
401.7651679486061
 30
0.0
 11
1187.740803496174
 21
401.7651679486061
 31
0.0
  0
LINE
  5
B6F0
330
1E
100
AcDbEntity
  8
12
100
AcDbLine
 10
1190.240803496176
 20
389.2651679486061
 30
0.0
 11
1190.240803496176
 21
374.2651679486062
 31
0.0
  0
ARC
  5
B6F1
330
1E
100
AcDbEntity
  8
10
100
AcDbCircle
 10
-1187.740803496174
 20
396.7651679486061
 30
0.0
 40
4.999999999999999
210
0.0
220
0.0
230
-1.0
100
AcDbArc
 50
0.0
 51
90.0
  0
LINE
  5
B6F2
330
1E
100
AcDbEntity
  8
12
100
AcDbLine
 10
1185.240803496174
 20
390.2651679486061
 30
0.0
 11
1182.740803496175
 21
390.2651679486061
 31
0.0
  0
LINE
  5
B6F3
330
1E
100
AcDbEntity
  8
12
100
AcDbLine
 10
1190.240803496176
 20
374.2651679486062
 30
0.0
 11
1185.240803496174
 21
374.2651679486062
 31
0.0
  0
LINE
  5
B6F4
330
1E
100
AcDbEntity
  8
12
100
AcDbLine
 10
1190.240803496176
 20
389.2651679486061
 30
0.0
 11
1185.240803496174
 21
389.2651679486061
 31
0.0
  0
ARC
  5
B6F5
330
1E
100
AcDbEntity
  8
10
100
AcDbCircle
 10
-1212.740803496175
 20
406.7651679486059
 30
0.0
 40
4.999999999999999
210
0.0
220
0.0
230
-1.0
100
AcDbArc
 50
180.0
 51
270.0
  0
LINE
  5
B6F6
330
1E
100
AcDbEntity
  8
12
100
AcDbLine
 10
1200.740803496175
 20
385.7651679486061
 30
0.0
 11
1200.740803496175
 21
377.7651679486061
 31
0.0
  0
LINE
  5
B6F7
330
1E
100
AcDbEntity
  8
24
  6
CONTINOUS
100
AcDbLine
 10
1352.640803496176
 20
252.7651679486061
 30
0.0
 11
1352.640803496176
 21
361.7651679486062
 31
0.0
  0
LINE
  5
B6F8
330
1E
100
AcDbEntity
  8
24
  6
CONTINOUS
100
AcDbLine
 10
1312.640803496176
 20
252.7651679486061
 30
0.0
 11
1312.640803496176
 21
361.7651679486062
 31
0.0
  0
SPLINE
  5
B6F9
330
1E
100
AcDbEntity
  8
24
  6
CONTINOUS
100
AcDbSpline
210
0.0
220
0.0
230
1.0
 70
     8
 71
     2
 72
     8
 73
     5
 74
     0
 42
0.000000001
 43
0.0000000001
 40
0.0
 40
0.0
 40
0.0
 40
0.375
 40
0.625
 40
1.0
 40
1.0
 40
1.0
 10
1312.640805284754
 20
252.7651692457308
 30
0.0
 10
1320.140805284754
 20
256.7830263885876
 30
0.0
 10
1332.640805284754
 20
252.7651692457308
 30
0.0
 10
1345.140805284754
 20
248.7473121028738
 30
0.0
 10
1352.640805284754
 20
252.7651692457308
 30
0.0
  0
DIMENSION
  5
B6FA
330
1E
100
AcDbEntity
  8
30
  6
Continuous
100
AcDbDimension
  2
*D13
 10
1352.640803496176
 20
393.4420638048996
 30
0.0
 11
1332.640803496176
 21
399.4420638048996
 31
0.0
 70
    32
  1
 <> 
 71
     5
 42
40.0
  3
STANDARD1
100
AcDbAlignedDimension
 13
1312.640803496176
 23
366.7651679486061
 33
0.0
 14
1352.640803496176
 24
366.7651679486061
 34
0.0
100
AcDbRotatedDimension
  0
LINE
  5
B6FB
330
1E
100
AcDbEntity
  8
24
  6
CONTINOUS
100
AcDbLine
 10
1312.640803496176
 20
361.7651679486062
 30
0.0
 11
1352.640803496176
 21
361.7651679486062
 31
0.0
  0
DIMENSION
  5
B6FC
330
1E
100
AcDbEntity
  8
30
  6
Continuous
100
AcDbDimension
  2
*D14
 10
1335.937664995404
 20
329.6633216236191
 30
0.0
 11
1333.184306489247
 21
351.3331553590167
 31
0.0
 70
   163
 71
     5
 42
12.99999838750977
  3
STANDARD1
100
AcDbDiametricDimension
 15
1329.343946996946
 25
340.8670192735936
 35
0.0
 40
0.0
  0
LINE
  5
B6FD
330
1E
100
AcDbEntity
  8
24
  6
CONTINOUS
100
AcDbLine
 10
1321.140803496176
 20
335.2651679486061
 30
0.0
 11
1344.140803496176
 21
335.2651679486061
 31
0.0
  0
LINE
  5
B6FE
330
1E
100
AcDbEntity
  8
12
100
AcDbLine
 10
1241.140803496175
 20
329.2651679486061
 30
0.0
 11
1241.140803496175
 21
341.2651679486061
 31
0.0
  0
LINE
  5
B6FF
330
1E
100
AcDbEntity
  8
10
100
AcDbLine
 10
1242.140803496176
 20
302.7651679486063
 30
0.0
 11
1242.140803496176
 21
365.7651679486061
 31
0.0
  0
DIMENSION
  5
B700
330
1E
100
AcDbEntity
  8
30
  6
Continuous
100
AcDbDimension
  2
*D15
 10
1392.694703496174
 20
361.7651679486062
 30
0.0
 11
1392.694703496174
 21
348.5151679486063
 31
0.0
 70
   160
  1
 <> 
 71
     0
 72
     0
 41
0.0
 42
26.49999999999987
  3
STANDARD1
100
AcDbAlignedDimension
 13
1337.640803496173
 23
335.2651679486061
 33
0.0
 14
1357.640803496176
 24
361.7651679486062
 34
0.0
 50
90.0
100
AcDbRotatedDimension
  0
LINE
  5
B701
330
1E
100
AcDbEntity
  8
24
  6
CONTINOUS
100
AcDbLine
 10
1332.640803496176
 20
323.7651679486061
 30
0.0
 11
1332.640803496176
 21
346.7651679486061
 31
0.0
  0
CIRCLE
  5
B702
330
1E
100
AcDbEntity
  8
24
  6
CONTINOUS
100
AcDbCircle
 10
1332.640803496176
 20
335.2651679486061
 30
0.0
 40
6.499999999999999
  0
MTEXT
  5
B703
330
1E
100
AcDbEntity
  8
30
  6
Continuous
100
AcDbMText
 10
1405.687042579551
 20
336.2985418257848
 30
0.0
 40
5.0
 41
0.0
 71
     7
 72
     5
  1
\W01.000;\fsimplex.shx;[max.]
  7
blockfont
 11
0.0
 21
1.0
 31
0.0
 73
     2
 44
0.9036139999999999
1001
ACAD
1000
MTEXTBEGIN
1070
    73
1070
     2
1070
    44
1040
0.9036139999999999
1070
    74
1070
     0
1000
MTEXTEND
  0
MTEXT
  5
B704
330
1E
100
AcDbEntity
  8
30
  6
Continuous
100
AcDbMText
 10
1322.323211119564
 20
403.2364094225758
 30
0.0
 40
5.0
 41
0.0
 71
     7
 72
     5
  1
\W01.000;\fsimplex.shx;[max.]
  7
blockfont
 73
     2
 44
0.9036139999999999
1001
ACAD
1000
MTEXTBEGIN
1070
    73
1070
     2
1070
    44
1040
0.9036139999999999
1070
    74
1070
     0
1000
MTEXTEND
  0
MTEXT
  5
B8BB
330
1E
100
AcDbEntity
  8
19
  6
Continuous
100
AcDbMText
 10
788.1728366576593
 20
340.077883560751
 30
0.0
 40
7.0
 41
183.8897983537087
 71
     1
 72
     5
  1
S800-CF 3P PM,S800-NF 3P PM\PS800-RF 3P PM,S800-PE 3P PM\PS800-NE 3P PM,S800-RE 3P PM\PS800-PE 3P PM,S800-NN 3P PM\PS630-CF 3P PM,S630-NF 3P PM\PS630-RF 3P PM,S630-PF 3P PM\PS630-NE 3P PM,S630-RE 3P PM\PS630-PE 3P PM,S630-GN 3P PM
  7
STANDARD1
 73
     1
 44
1.0
1001
ACAD
1000
MTEXTBEGIN
1070
    73
1070
     1
1070
    44
1040
1.0
1070
    74
1070
     0
1000
MTEXTEND
  0
DIMENSION
  5
B8BC
330
1E
100
AcDbEntity
  8
30
  6
Continuous
100
AcDbDimension
  2
*D16
 10
1348.582974398553
 20
-212.616113022444
 30
0.0
 11
1284.832974398553
 21
-206.616113022444
 31
0.0
 70
    32
  1
 <> 
 71
     5
 42
127.5
  3
STANDARD1
100
AcDbAlignedDimension
 13
1221.082974398552
 23
5.028939352067481
 33
0.0
 14
1348.582974398553
 24
-149.4710606479324
 34
0.0
100
AcDbRotatedDimension
  0
DIMENSION
  5
B8BD
330
1E
100
AcDbEntity
  8
30
  6
Continuous
100
AcDbDimension
  2
*D17
 10
1123.081904398553
 20
-253.6593727868163
 30
0.0
 11
1163.332439398553
 21
-247.6593727868163
 31
0.0
 70
    33
  1
 <> 
 71
     5
 42
80.50106999999981
  3
STANDARD1
100
AcDbAlignedDimension
 13
1203.582974398553
 23
5.028939352067481
 33
0.0
 14
1123.081904398553
 24
5.028939352067481
 34
0.0
  0
DIMENSION
  5
B8BE
330
1E
100
AcDbEntity
  8
30
  6
Continuous
100
AcDbDimension
  2
*D18
 10
1348.582974398553
 20
-253.6458592733028
 30
0.0
 11
1276.082974398553
 21
-247.6458592733028
 31
0.0
 70
    32
  1
 <> 
 71
     5
 42
145.0
  3
STANDARD1
100
AcDbAlignedDimension
 13
1203.582974398553
 23
5.028939352067481
 33
0.0
 14
1348.582974398553
 24
-154.4710606479324
 34
0.0
100
AcDbRotatedDimension
  0
DIMENSION
  5
B8BF
330
1E
100
AcDbEntity
  8
30
  6
Continuous
100
AcDbDimension
  2
*D19
 10
1348.582974398553
 20
-212.616113022444
 30
0.0
 11
1374.382974398552
 21
-206.616113022444
 31
0.0
 70
    32
  1
 <> 
 71
     5
 42
51.60000000000036
  3
STANDARD1
100
AcDbAlignedDimension
 13
1400.182974398552
 23
-91.47106064793248
 33
0.0
 14
1348.582974398553
 24
-154.4710606479324
 34
0.0
100
AcDbRotatedDimension
  0
DIMENSION
  5
B8C0
330
1E
100
AcDbEntity
  8
30
  6
Continuous
100
AcDbDimension
  2
*D20
 10
1241.582974398553
 20
-183.2454079667499
 30
0.0
 11
1226.782974398552
 21
-183.2454079667499
 31
0.0
 70
   160
  1
 <> 
 71
     5
 42
4.0
  3
STANDARD1
100
AcDbAlignedDimension
 13
1237.582974398553
 23
-0.4710606479325179
 33
0.0
 14
1241.582974398553
 24
-49.97106064793252
 34
0.0
100
AcDbRotatedDimension
1001
ACAD
1000
DSTYLE
1002
{
1070
    42
1040
2.0
1070
   172
1070
     1
1002
}
  0
DIMENSION
  5
B8C1
330
1E
100
AcDbEntity
  8
30
  6
Continuous
100
AcDbDimension
  2
*D21
 10
1348.582974398553
 20
-183.2454079667499
 30
0.0
 11
1295.082974398553
 21
-177.2454079667499
 31
0.0
 70
    32
  1
 <> 
 71
     5
 42
107.0
  3
STANDARD1
100
AcDbAlignedDimension
 13
1241.582974398553
 23
-49.97106064793252
 33
0.0
 14
1348.582974398553
 24
-154.4710606479324
 34
0.0
100
AcDbRotatedDimension
  0
DIMENSION
  5
B8C2
330
1E
100
AcDbEntity
  8
30
  6
Continuous
100
AcDbDimension
  2
*D22
 10
1348.582974398553
 20
-155.0303143743817
 30
0.0
 11
1297.082974398553
 21
-149.0303143743815
 31
0.0
 70
    32
  1
 <> 
 71
     5
 42
103.0
  3
STANDARD1
100
AcDbAlignedDimension
 13
1245.582974398553
 23
-49.97106064793252
 33
0.0
 14
1348.582974398553
 24
-154.4710606479324
 34
0.0
100
AcDbRotatedDimension
  0
LINE
  5
B8C3
330
1E
100
AcDbEntity
  8
10
100
AcDbLine
 10
1464.582974398553
 20
-149.4710606479324
 30
0.0
 11
1464.582974398553
 21
-86.47106064793241
 31
0.0
  0
LINE
  5
B8C4
330
1E
100
AcDbEntity
  8
10
100
AcDbLine
 10
1348.582974398553
 20
-149.4710606479324
 30
0.0
 11
1348.582974398553
 21
158.5289393520674
 31
0.0
  0
DIMENSION
  5
B8C5
330
1E
100
AcDbEntity
  8
30
  6
Continuous
100
AcDbDimension
  2
*D23
 10
1464.582974398553
 20
-253.6458592733028
 30
0.0
 11
1406.582974398552
 21
-247.6458592733028
 31
0.0
 70
    32
  1
 <> 
 71
     5
 42
116.0
  3
STANDARD1
100
AcDbAlignedDimension
 13
1348.582974398553
 23
-154.4710606479324
 33
0.0
 14
1464.582974398553
 24
-154.4710606479324
 34
0.0
100
AcDbRotatedDimension
  0
LINE
  5
B8C6
330
1E
100
AcDbEntity
  8
10
100
AcDbLine
 10
1348.582974398553
 20
-149.4710606479324
 30
0.0
 11
1464.582974398553
 21
-149.4710606479324
 31
0.0
  0
LINE
  5
B8C7
330
1E
100
AcDbEntity
  8
10
100
AcDbLine
 10
1382.582974398552
 20
-170.4710606479324
 30
0.0
 11
1397.582974398551
 21
-170.4710606479324
 31
0.0
  0
LINE
  5
B8C8
330
1E
100
AcDbEntity
  8
10
100
AcDbLine
 10
1397.582974398551
 20
-149.4710606479324
 30
0.0
 11
1397.582974398551
 21
-170.4710606479324
 31
0.0
  0
LINE
  5
B8C9
330
1E
100
AcDbEntity
  8
10
100
AcDbLine
 10
1382.582974398552
 20
-149.4710606479324
 30
0.0
 11
1382.582974398552
 21
-170.4710606479324
 31
0.0
  0
DIMENSION
  5
B8CA
330
1E
100
AcDbEntity
  8
30
  6
Continuous
100
AcDbDimension
  2
*D24
 10
1499.314531099294
 20
126.0289393520674
 30
0.0
 11
1493.314531099294
 21
63.02893935206771
 31
0.0
 70
    32
  1
 <> 
 71
     0
 72
     0
 41
0.0
 42
126.0
  3
STANDARD1
100
AcDbAlignedDimension
 13
1483.409636627015
 23
0.0289393520674821
 33
0.0
 14
1473.582974398552
 24
126.0289393520674
 34
0.0
 50
90.0
100
AcDbRotatedDimension
  0
DIMENSION
  5
B8CB
330
1E
100
AcDbEntity
  8
30
  6
Continuous
100
AcDbDimension
  2
*D25
 10
1499.314531099294
 20
-116.9710606479325
 30
0.0
 11
1493.314531099294
 21
-58.47106064793231
 31
0.0
 70
    32
  1
 <> 
 71
     0
 72
     0
 41
0.0
 42
117.0
  3
STANDARD1
100
AcDbAlignedDimension
 13
1483.409636627015
 23
0.0289393520674821
 33
0.0
 14
1473.582974398552
 24
-116.9710606479325
 34
0.0
 50
90.0
100
AcDbRotatedDimension
  0
LINE
  5
B8CC
330
1E
100
AcDbEntity
  8
10
100
AcDbLine
 10
1397.682974398553
 20
-85.2210606479324
 30
0.0
 11
1351.082974398553
 21
-85.2210606479324
 31
0.0
  0
LINE
  5
B8CD
330
1E
100
AcDbEntity
  8
10
100
AcDbLine
 10
1348.582974398553
 20
158.5289393520674
 30
0.0
 11
1464.582974398553
 21
158.5289393520674
 31
0.0
  0
LINE
  5
B8CE
330
1E
100
AcDbEntity
  8
10
100
AcDbLine
 10
1397.682974398553
 20
94.27893935206752
 30
0.0
 11
1351.082974398553
 21
94.27893935206752
 31
0.0
  0
LINE
  5
B8CF
330
1E
100
AcDbEntity
  8
10
100
AcDbLine
 10
1162.075659398553
 20
47.56556435206744
 30
0.0
 11
1198.061044398553
 21
28.76409935206742
 31
0.0
  0
LINE
  5
B8D0
330
1E
100
AcDbEntity
  8
10
100
AcDbLine
 10
1167.224259398553
 20
61.86634935206746
 30
0.0
 11
1206.935979398553
 21
53.41517435206753
 31
0.0
  0
ARC
  5
B8D1
330
1E
100
AcDbEntity
  8
10
100
AcDbCircle
 10
1348.584794951425
 20
3.835124078863767
 30
0.0
 40
225.5060555675518
100
AcDbArc
 50
165.1394483099099
 51
179.6966782288776
  0
ARC
  5
B8D2
330
1E
100
AcDbEntity
  8
10
100
AcDbCircle
 10
1146.986544398552
 20
61.07517435206761
 30
0.0
 40
15.99999999999999
100
AcDbArc
 50
19.39509599999952
 51
301.0049040000026
  0
ARC
  5
B8D3
330
1E
100
AcDbEntity
  8
10
100
AcDbCircle
 10
-1158.834109398553
 20
41.36134435206748
 30
0.0
 40
6.999999999999997
210
0.0
220
0.0
230
-1.0
100
AcDbArc
 50
58.99509599999736
 51
117.5859389999924
  0
ARC
  5
B8D4
330
1E
100
AcDbEntity
  8
10
100
AcDbCircle
 10
1168.681319398553
 20
68.71302435206747
 30
0.0
 40
6.999999999999997
100
AcDbArc
 50
199.3950959999995
 51
257.9859389999945
  0
ARC
  5
B8D5
330
1E
100
AcDbEntity
  8
10
100
AcDbCircle
 10
1737.582974398551
 20
4.528939352067481
 30
0.0
 40
499.9999999999998
100
AcDbArc
 50
176.3756930000029
 51
183.6243069999969
  0
ARC
  5
B8D6
330
1E
100
AcDbEntity
  8
10
100
AcDbCircle
 10
1348.582974398553
 20
5.028939352067481
 30
0.0
 40
127.4999999999999
100
AcDbArc
 50
169.3042220000001
 51
180.0
  0
ARC
  5
B8D7
330
1E
100
AcDbEntity
  8
10
100
AcDbCircle
 10
1348.582974398553
 20
5.028939352067481
 30
0.0
 40
144.9999999999999
100
AcDbArc
 50
169.3042220000001
 51
180.0
  0
LINE
  5
B8D8
330
1E
100
AcDbEntity
  8
10
100
AcDbLine
 10
1245.582974398553
 20
-44.97106064793252
 30
0.0
 11
1245.582974398553
 21
45.02893935206748
 31
0.0
  0
LINE
  5
B8D9
330
1E
100
AcDbEntity
  8
10
100
AcDbLine
 10
1241.582974398553
 20
-44.97106064793252
 30
0.0
 11
1241.582974398553
 21
45.02893935206748
 31
0.0
  0
LINE
  5
B8DA
330
1E
100
AcDbEntity
  8
16
100
AcDbLine
 10
1362.582974398553
 20
0.0289393520674821
 30
0.0
 11
1186.182974398553
 21
0.0289393520674821
 31
0.0
  0
LINE
  5
B8DB
330
1E
100
AcDbEntity
  8
10
100
AcDbLine
 10
1251.582974398553
 20
-131.9710606479324
 30
0.0
 11
1348.582974398553
 21
-131.9710606479324
 31
0.0
  0
LINE
  5
B8DC
330
1E
100
AcDbEntity
  8
10
100
AcDbLine
 10
1249.082974398553
 20
-106.9710606479324
 30
0.0
 11
1249.082974398553
 21
-46.47106064793251
 31
0.0
  0
LINE
  5
B8DD
330
1E
100
AcDbEntity
  8
10
100
AcDbLine
 10
1251.582974398553
 20
-106.9710606479324
 30
0.0
 11
1249.082974398553
 21
-106.9710606479324
 31
0.0
  0
LINE
  5
B8DE
330
1E
100
AcDbEntity
  8
10
100
AcDbLine
 10
1251.582974398553
 20
-131.9710606479324
 30
0.0
 11
1251.582974398553
 21
-106.9710606479324
 31
0.0
  0
LINE
  5
B8DF
330
1E
100
AcDbEntity
  8
10
100
AcDbLine
 10
1245.582974398553
 20
-44.97106064793252
 30
0.0
 11
1238.582974398553
 21
-44.97106064793252
 31
0.0
  0
LINE
  5
B8E0
330
1E
100
AcDbEntity
  8
10
100
AcDbLine
 10
1245.582974398553
 20
-46.47106064793251
 30
0.0
 11
1245.582974398553
 21
-44.97106064793252
 31
0.0
  0
LINE
  5
B8E1
330
1E
100
AcDbEntity
  8
10
100
AcDbLine
 10
1238.582974398553
 20
-44.97106064793252
 30
0.0
 11
1238.582974398553
 21
-27.07802064793259
 31
0.0
  0
LINE
  5
B8E2
330
1E
100
AcDbEntity
  8
10
100
AcDbLine
 10
1249.082974398553
 20
-46.47106064793251
 30
0.0
 11
1245.582974398553
 21
-46.47106064793251
 31
0.0
  0
LINE
  5
B8E3
330
1E
100
AcDbEntity
  8
10
100
AcDbLine
 10
1348.582974398553
 20
141.0289393520674
 30
0.0
 11
1251.582974398553
 21
141.0289393520674
 31
0.0
  0
LINE
  5
B8E4
330
1E
100
AcDbEntity
  8
10
100
AcDbLine
 10
1249.082974398553
 20
55.52893935206737
 30
0.0
 11
1249.082974398553
 21
116.0289393520674
 31
0.0
  0
ARC
  5
B8E5
330
1E
100
AcDbEntity
  8
10
100
AcDbCircle
 10
1223.878894398553
 20
23.72043935206749
 30
0.0
 40
3.999999999999998
100
AcDbArc
 50
250.1999999999921
 51
340.1999999999996
  0
LINE
  5
B8E6
330
1E
100
AcDbEntity
  8
10
100
AcDbLine
 10
1238.507909398553
 20
34.92759435206755
 30
0.0
 11
1209.841279398554
 21
45.24821935206751
 31
0.0
  0
LINE
  5
B8E7
330
1E
100
AcDbEntity
  8
10
100
AcDbLine
 10
1237.872844398553
 20
21.55195935206745
 30
0.0
 11
1205.505434398553
 21
33.2049443520674
 31
0.0
  0
LINE
  5
B8E8
330
1E
100
AcDbEntity
  8
10
100
AcDbLine
 10
1225.117369398553
 20
37.19768435206765
 30
0.0
 11
1222.407464398552
 21
29.67063935206738
 31
0.0
  0
LINE
  5
B8E9
330
1E
100
AcDbEntity
  8
10
100
AcDbLine
 10
1231.398879398553
 20
44.60798935206752
 30
0.0
 11
1206.935979398553
 21
53.41517435206753
 31
0.0
  0
LINE
  5
B8EA
330
1E
100
AcDbEntity
  8
10
100
AcDbLine
 10
1237.964959398553
 20
24.06959435206749
 30
0.0
 11
1222.407464398552
 21
29.67063935206738
 31
0.0
  0
LINE
  5
B8EB
330
1E
100
AcDbEntity
  8
10
100
AcDbLine
 10
1222.523944398553
 20
19.95691435206742
 30
0.0
 11
1198.061044398553
 21
28.76409935206742
 31
0.0
  0
LINE
  5
B8EC
330
1E
100
AcDbEntity
  8
10
100
AcDbLine
 10
1209.841279398554
 20
45.24821935206751
 30
0.0
 11
1205.505434398553
 21
33.2049443520674
 31
0.0
  0
LINE
  5
B8ED
330
1E
100
AcDbEntity
  8
10
100
AcDbLine
 10
1245.582974398553
 20
45.02893935206748
 30
0.0
 11
1245.582974398553
 21
55.52893935206737
 31
0.0
  0
ARC
  5
B8EE
330
1E
100
AcDbEntity
  8
10
100
AcDbCircle
 10
1230.043924398553
 20
40.84446935206742
 30
0.0
 40
3.999999999999998
100
AcDbArc
 50
340.1999999999996
 51
70.20000000000584
  0
LINE
  5
B8EF
330
1E
100
AcDbEntity
  8
10
100
AcDbLine
 10
1238.582974398553
 20
36.13590435206765
 30
0.0
 11
1238.582974398553
 21
45.02893935206748
 31
0.0
  0
LINE
  5
B8F0
330
1E
100
AcDbEntity
  8
10
100
AcDbLine
 10
1233.807449398553
 20
39.48951435206743
 30
0.0
 11
1227.642419398553
 21
22.36548435206747
 31
0.0
  0
LINE
  5
B8F1
330
1E
100
AcDbEntity
  8
10
100
AcDbLine
 10
1238.582974398553
 20
45.02893935206748
 30
0.0
 11
1245.582974398553
 21
45.02893935206748
 31
0.0
  0
LINE
  5
B8F2
330
1E
100
AcDbEntity
  8
10
100
AcDbLine
 10
1238.362014398552
 20
32.42931935206728
 30
0.0
 11
1225.117369398553
 21
37.19768435206765
 31
0.0
  0
LINE
  5
B8F3
330
1E
100
AcDbEntity
  8
10
100
AcDbLine
 10
1249.082974398553
 20
55.52893935206737
 30
0.0
 11
1245.582974398553
 21
55.52893935206737
 31
0.0
  0
LINE
  5
B8F4
330
1E
100
AcDbEntity
  8
10
100
AcDbLine
 10
1251.582974398553
 20
116.0289393520674
 30
0.0
 11
1251.582974398553
 21
141.0289393520674
 31
0.0
  0
LINE
  5
B8F5
330
1E
100
AcDbEntity
  8
10
100
AcDbLine
 10
1251.582974398553
 20
116.0289393520674
 30
0.0
 11
1249.082974398553
 21
116.0289393520674
 31
0.0
  0
LINE
  5
B8F6
330
1E
100
AcDbEntity
  8
10
100
AcDbLine
 10
1382.582974398552
 20
158.5289393520674
 30
0.0
 11
1382.582974398552
 21
179.5289393520674
 31
0.0
  0
LINE
  5
B8F7
330
1E
100
AcDbEntity
  8
10
100
AcDbLine
 10
1397.582974398551
 20
158.5289393520674
 30
0.0
 11
1397.582974398551
 21
179.5289393520674
 31
0.0
  0
DIMENSION
  5
B8F8
330
1E
100
AcDbEntity
  8
30
  6
Continuous
100
AcDbDimension
  2
*D26
 10
1475.189264610676
 20
-86.47106064793241
 30
0.0
 11
1469.189264610676
 21
4.528939352067716
 31
0.0
 70
    32
 71
     5
 42
181.9999999999995
  3
STANDARD1
100
AcDbAlignedDimension
 13
1464.582974398553
 23
95.52893935206736
 33
0.0
 14
1464.582974398553
 24
-86.47106064793241
 34
0.0
 50
90.0
100
AcDbRotatedDimension
  0
LINE
  5
B8F9
330
1E
100
AcDbEntity
  8
10
100
AcDbLine
 10
1400.182974398552
 20
-86.47106064793241
 30
0.0
 11
1400.182974398552
 21
95.52893935206752
 31
0.0
  0
LINE
  5
B8FA
330
1E
100
AcDbEntity
  8
17
100
AcDbLine
 10
1473.582974398552
 20
-116.9710606479325
 30
0.0
 11
1400.082974398553
 21
-116.9710606479325
 31
0.0
  0
LINE
  5
B8FB
330
1E
100
AcDbEntity
  8
10
  6
DIVIDE
100
AcDbLine
 10
1405.182974398551
 20
-55.47106064793246
 30
0.0
 11
1405.182974398551
 21
-80.47106064793245
 31
0.0
  0
LINE
  5
B8FC
330
1E
100
AcDbEntity
  8
10
100
AcDbLine
 10
1463.582974398551
 20
-122.9710606479324
 30
0.0
 11
1420.082974398551
 21
-122.9710606479324
 31
0.0
  0
LINE
  5
B8FD
330
1E
100
AcDbEntity
  8
12
100
AcDbLine
 10
1433.182974398553
 20
-70.47106064793243
 30
0.0
 11
1390.182974398553
 21
-70.47106064793243
 31
0.0
  0
LINE
  5
B8FE
330
1E
100
AcDbEntity
  8
12
100
AcDbLine
 10
1423.182974398551
 20
-74.47106064793252
 30
0.0
 11
1400.182974398552
 21
-74.47106064793252
 31
0.0
  0
LINE
  5
B8FF
330
1E
100
AcDbEntity
  8
12
100
AcDbLine
 10
1423.182974398551
 20
-66.47106064793239
 30
0.0
 11
1400.182974398552
 21
-66.47106064793239
 31
0.0
  0
LINE
  5
B900
330
1E
100
AcDbEntity
  8
10
100
AcDbLine
 10
1400.182974398552
 20
-86.47106064793241
 30
0.0
 11
1464.582974398553
 21
-86.47106064793241
 31
0.0
  0
LINE
  5
B901
330
1E
100
AcDbEntity
  8
10
100
AcDbLine
 10
1463.582974398551
 20
-110.9710606479324
 30
0.0
 11
1420.082974398551
 21
-110.9710606479324
 31
0.0
  0
LINE
  5
B902
330
1E
100
AcDbEntity
  8
10
100
AcDbLine
 10
1420.082974398551
 20
-132.9710606479324
 30
0.0
 11
1420.082974398551
 21
-100.9710606479324
 31
0.0
  0
LINE
  5
B903
330
1E
100
AcDbEntity
  8
10
100
AcDbLine
 10
1420.082974398551
 20
-132.9710606479324
 30
0.0
 11
1410.082974398553
 21
-132.9710606479324
 31
0.0
  0
LINE
  5
B904
330
1E
100
AcDbEntity
  8
10
100
AcDbLine
 10
1420.082974398551
 20
-100.9710606479324
 30
0.0
 11
1410.082974398553
 21
-100.9710606479324
 31
0.0
  0
ARC
  5
B905
330
1E
100
AcDbEntity
  8
10
100
AcDbCircle
 10
-1400.182974398552
 20
-80.47106064793245
 30
0.0
 40
4.999999999999999
210
0.0
220
0.0
230
-1.0
100
AcDbArc
 50
180.0
 51
270.0
  0
LINE
  5
B906
330
1E
100
AcDbEntity
  8
12
100
AcDbLine
 10
1407.682974398553
 20
-78.9710606479324
 30
0.0
 11
1405.182974398551
 21
-78.9710606479324
 31
0.0
  0
LINE
  5
B907
330
1E
100
AcDbEntity
  8
12
100
AcDbLine
 10
1407.682974398553
 20
-61.97106064793252
 30
0.0
 11
1407.682974398553
 21
-78.9710606479324
 31
0.0
  0
LINE
  5
B908
330
1E
100
AcDbEntity
  8
12
100
AcDbLine
 10
1407.682974398553
 20
-61.97106064793252
 30
0.0
 11
1405.182974398551
 21
-61.97106064793252
 31
0.0
  0
LINE
  5
B909
330
1E
100
AcDbEntity
  8
12
100
AcDbLine
 10
1412.682974398553
 20
-77.97106064793243
 30
0.0
 11
1407.682974398553
 21
-77.97106064793243
 31
0.0
  0
LINE
  5
B90A
330
1E
100
AcDbEntity
  8
12
100
AcDbLine
 10
1412.682974398553
 20
-62.97106064793246
 30
0.0
 11
1412.682974398553
 21
-77.97106064793243
 31
0.0
  0
LINE
  5
B90B
330
1E
100
AcDbEntity
  8
12
100
AcDbLine
 10
1412.682974398553
 20
-62.97106064793246
 30
0.0
 11
1407.682974398553
 21
-62.97106064793246
 31
0.0
  0
LINE
  5
B90C
330
1E
100
AcDbEntity
  8
10
100
AcDbLine
 10
1463.582974398551
 20
-122.9710606479324
 30
0.0
 11
1463.582974398551
 21
-110.9710606479324
 31
0.0
  0
LINE
  5
B90D
330
1E
100
AcDbEntity
  8
12
100
AcDbLine
 10
1423.182974398551
 20
-66.47106064793239
 30
0.0
 11
1423.182974398551
 21
-74.47106064793252
 31
0.0
  0
LINE
  5
B90E
330
1E
100
AcDbEntity
  8
10
  6
DIVIDE
100
AcDbLine
 10
1440.182974398553
 20
-45.47106064793251
 30
0.0
 11
1400.182974398552
 21
-45.47106064793251
 31
0.0
  0
LINE
  5
B90F
330
1E
100
AcDbEntity
  8
10
  6
DIVIDE
100
AcDbLine
 10
1435.182974398553
 20
-50.47106064793251
 30
0.0
 11
1410.182974398552
 21
-50.47106064793251
 31
0.0
  0
ARC
  5
B910
330
1E
100
AcDbEntity
  8
10
  6
DIVIDE
100
AcDbCircle
 10
-1410.182974398552
 20
-55.47106064793246
 30
0.0
 40
4.999999999999999
210
0.0
220
0.0
230
-1.0
100
AcDbArc
 50
0.0
 51
90.0
  0
ARC
  5
B911
330
1E
100
AcDbEntity
  8
10
  6
DIVIDE
100
AcDbCircle
 10
-1435.182974398553
 20
-45.47106064793251
 30
0.0
 40
4.999999999999999
210
0.0
220
0.0
230
-1.0
100
AcDbArc
 50
180.0
 51
270.0
  0
LINE
  5
B912
330
1E
100
AcDbEntity
  8
17
100
AcDbLine
 10
1473.582974398552
 20
126.0289393520674
 30
0.0
 11
1400.082974398553
 21
126.0289393520674
 31
0.0
  0
LINE
  5
B913
330
1E
100
AcDbEntity
  8
10
  6
DIVIDE
100
AcDbLine
 10
1405.182974398551
 20
64.52893935206748
 30
0.0
 11
1405.182974398551
 21
89.5289393520675
 31
0.0
  0
LINE
  5
B914
330
1E
100
AcDbEntity
  8
12
100
AcDbLine
 10
1433.182974398553
 20
79.52893935206748
 30
0.0
 11
1390.182974398553
 21
79.52893935206748
 31
0.0
  0
LINE
  5
B915
330
1E
100
AcDbEntity
  8
12
100
AcDbLine
 10
1423.182974398551
 20
75.52893935206748
 30
0.0
 11
1400.182974398552
 21
75.52893935206748
 31
0.0
  0
LINE
  5
B916
330
1E
100
AcDbEntity
  8
10
100
AcDbLine
 10
1423.182974398551
 20
83.52893935206759
 30
0.0
 11
1400.182974398552
 21
83.52893935206759
 31
0.0
  0
LINE
  5
B917
330
1E
100
AcDbEntity
  8
10
  6
DIVIDE
100
AcDbLine
 10
1440.182974398553
 20
54.52893935206748
 30
0.0
 11
1400.182974398552
 21
54.52893935206748
 31
0.0
  0
LINE
  5
B918
330
1E
100
AcDbEntity
  8
10
  6
DIVIDE
100
AcDbLine
 10
1435.182974398553
 20
59.52893935206748
 30
0.0
 11
1410.182974398552
 21
59.52893935206748
 31
0.0
  0
ARC
  5
B919
330
1E
100
AcDbEntity
  8
10
  6
DIVIDE
100
AcDbCircle
 10
1410.182974398552
 20
64.52893935206748
 30
0.0
 40
4.999999999999999
100
AcDbArc
 50
180.0
 51
270.0
  0
LINE
  5
B91A
330
1E
100
AcDbEntity
  8
12
100
AcDbLine
 10
1407.682974398553
 20
88.02893935206752
 30
0.0
 11
1405.182974398551
 21
88.02893935206752
 31
0.0
  0
LINE
  5
B91B
330
1E
100
AcDbEntity
  8
12
100
AcDbLine
 10
1407.682974398553
 20
88.02893935206752
 30
0.0
 11
1407.682974398553
 21
71.02893935206759
 31
0.0
  0
LINE
  5
B91C
330
1E
100
AcDbEntity
  8
12
100
AcDbLine
 10
1412.682974398553
 20
87.0289393520675
 30
0.0
 11
1412.682974398553
 21
72.02893935206748
 31
0.0
  0
LINE
  5
B91D
330
1E
100
AcDbEntity
  8
12
100
AcDbLine
 10
1412.682974398553
 20
72.02893935206748
 30
0.0
 11
1407.682974398553
 21
72.02893935206748
 31
0.0
  0
LINE
  5
B91E
330
1E
100
AcDbEntity
  8
12
100
AcDbLine
 10
1407.682974398553
 20
71.02893935206759
 30
0.0
 11
1405.182974398551
 21
71.02893935206759
 31
0.0
  0
LINE
  5
B91F
330
1E
100
AcDbEntity
  8
12
100
AcDbLine
 10
1412.682974398553
 20
87.0289393520675
 30
0.0
 11
1407.682974398553
 21
87.0289393520675
 31
0.0
  0
ARC
  5
B920
330
1E
100
AcDbEntity
  8
10
  6
DIVIDE
100
AcDbCircle
 10
1435.182974398553
 20
54.52893935206748
 30
0.0
 40
4.999999999999999
100
AcDbArc
 50
0.0
 51
90.0
  0
LINE
  5
B921
330
1E
100
AcDbEntity
  8
12
100
AcDbLine
 10
1423.182974398551
 20
75.52893935206748
 30
0.0
 11
1423.182974398551
 21
83.52893935206759
 31
0.0
  0
LINE
  5
B922
330
1E
100
AcDbEntity
  8
10
100
AcDbLine
 10
1463.582974398551
 20
132.0289393520674
 30
0.0
 11
1420.082974398551
 21
132.0289393520674
 31
0.0
  0
LINE
  5
B923
330
1E
100
AcDbEntity
  8
10
100
AcDbLine
 10
1400.182974398552
 20
95.52893935206752
 30
0.0
 11
1464.582974398553
 21
95.52893935206752
 31
0.0
  0
LINE
  5
B924
330
1E
100
AcDbEntity
  8
10
100
AcDbLine
 10
1463.582974398551
 20
120.0289393520674
 30
0.0
 11
1420.082974398551
 21
120.0289393520674
 31
0.0
  0
LINE
  5
B925
330
1E
100
AcDbEntity
  8
10
100
AcDbLine
 10
1420.082974398551
 20
110.0289393520674
 30
0.0
 11
1420.082974398551
 21
142.0289393520674
 31
0.0
  0
ARC
  5
B926
330
1E
100
AcDbEntity
  8
10
100
AcDbCircle
 10
1400.182974398552
 20
89.5289393520675
 30
0.0
 40
4.999999999999999
100
AcDbArc
 50
0.0
 51
90.0
  0
LINE
  5
B927
330
1E
100
AcDbEntity
  8
10
100
AcDbLine
 10
1420.082974398551
 20
110.0289393520674
 30
0.0
 11
1410.082974398553
 21
110.0289393520674
 31
0.0
  0
LINE
  5
B928
330
1E
100
AcDbEntity
  8
10
100
AcDbLine
 10
1420.082974398551
 20
142.0289393520674
 30
0.0
 11
1410.082974398553
 21
142.0289393520674
 31
0.0
  0
LINE
  5
B929
330
1E
100
AcDbEntity
  8
10
100
AcDbLine
 10
1463.582974398551
 20
120.0289393520674
 30
0.0
 11
1463.582974398551
 21
132.0289393520674
 31
0.0
  0
LINE
  5
B92A
330
1E
100
AcDbEntity
  8
10
100
AcDbLine
 10
1464.582974398553
 20
95.52893935206752
 30
0.0
 11
1464.582974398553
 21
158.5289393520674
 31
0.0
  0
LINE
  5
B92B
330
1E
100
AcDbEntity
  8
10
100
AcDbLine
 10
1382.582974398552
 20
179.5289393520674
 30
0.0
 11
1397.582974398551
 21
179.5289393520674
 31
0.0
  0
INSERT
  5
BA17
330
1E
100
AcDbEntity
  8
30
100
AcDbBlockReference
  2
*U1
 10
-289.1974926142657
 20
-775.4257694737799
 30
0.0
 41
2.5
 42
2.5
 43
2.5
  0
DIMENSION
  5
BA18
330
1E
100
AcDbEntity
  8
30
  6
Continuous
100
AcDbDimension
  2
*D27
 10
1062.732974398553
 20
-520.5
 30
0.0
 11
1056.732974398553
 21
-445.4999999999998
 31
0.0
 70
    32
 71
     5
 42
150.0
  3
STANDARD1
100
AcDbAlignedDimension
 13
949.4829743985537
 23
-370.5
 33
0.0
 14
950.4829743985537
 24
-520.5
 34
0.0
 50
90.0
100
AcDbRotatedDimension
  0
DIMENSION
  5
BBC7
330
1E
100
AcDbEntity
  8
30
  6
Continuous
100
AcDbDimension
  2
*D28
 10
937.2491628549223
 20
-373.0117028798496
 30
0.0
 11
958.4612471630647
 21
-364.1240475127298
 31
0.0
 70
   163
 71
     5
 42
9.000000000000113
  3
STANDARD1
100
AcDbDiametricDimension
 15
944.7167859421858
 25
-367.9882971201509
 35
0.0
 40
0.0
  0
VIEWPORT
  5
9AC
102
{ACAD_XDICTIONARY
360
BEBE
102
}
330
1A
100
AcDbEntity
 67
     1
  8
0
  6
Continuous
100
AcDbViewport
 10
171.9995348790992
 20
144.1384735538403
 30
0.0
 40
488.8676857773511
 41
292.3514905034161
 68
     1
 69
     1
 12
171.9995348790992
 22
144.1384735538403
 13
0.0
 23
0.0
 14
10.0
 24
10.0
 15
10.0
 25
10.0
 16
0.0
 26
0.0
 36
1.0
 17
0.0
 27
0.0
 37
0.0
 42
50.0
 43
0.0
 44
0.0
 45
292.3514905034161
 50
0.0
 51
0.0
 72
   100
 90
    32800
  1

281
     0
 71
     1
 74
     0
110
0.0
120
0.0
130
0.0
111
1.0
121
0.0
131
0.0
112
0.0
122
1.0
132
0.0
 79
     0
146
0.0
  0
ENDSEC
  0
SECTION
  2
OBJECTS
  0
DICTIONARY
  5
C
330
0
100
AcDbDictionary
281
     1
  3
ACAD_CIP_PREVIOUS_PRODUCT_INFO
350
BE51
  3
ACAD_COLOR
350
BE33
  3
ACAD_DETAILVIEWSTYLE
350
BE4C
  3
ACAD_GROUP
350
D
  3
ACAD_LAYOUT
350
19
  3
ACAD_MATERIAL
350
BE01
  3
ACAD_MLEADERSTYLE
350
BE48
  3
ACAD_MLINESTYLE
350
16
  3
ACAD_PLOTSETTINGS
350
18
  3
ACAD_PLOTSTYLENAME
350
E
  3
ACAD_SCALELIST
350
BE36
  3
ACAD_SECTIONVIEWSTYLE
350
BE4A
  3
ACAD_TABLESTYLE
350
BE34
  3
ACAD_VISUALSTYLE
350
BE1A
  3
ACDB_RECOMPOSE_DATA
350
BEBC
  3
ACDBVARIABLEDICTIONARY
350
69C9
  3
DWGPROPS
350
BEBD
  0
DICTIONARY
  5
BE54
330
10
100
AcDbDictionary
280
     1
281
     1
  3
ADSK_XREC_LAYER_RECONCILED
360
BE55
  0
DICTIONARY
  5
BE56
330
2F
100
AcDbDictionary
280
     1
281
     1
  3
ADSK_XREC_LAYER_RECONCILED
360
BE57
  0
DICTIONARY
  5
BE58
330
31
100
AcDbDictionary
280
     1
281
     1
  3
ADSK_XREC_LAYER_RECONCILED
360
BE59
  0
DICTIONARY
  5
BE5A
330
35
100
AcDbDictionary
280
     1
281
     1
  3
ADSK_XREC_LAYER_RECONCILED
360
BE5B
  0
DICTIONARY
  5
BE5C
330
38
100
AcDbDictionary
280
     1
281
     1
  3
ADSK_XREC_LAYER_RECONCILED
360
BE5D
  0
DICTIONARY
  5
BE5E
330
3D
100
AcDbDictionary
280
     1
281
     1
  3
ADSK_XREC_LAYER_RECONCILED
360
BE5F
  0
DICTIONARY
  5
BE60
330
3A2
100
AcDbDictionary
280
     1
281
     1
  3
ADSK_XREC_LAYER_RECONCILED
360
BE61
  0
DICTIONARY
  5
BE62
330
3BBA
100
AcDbDictionary
280
     1
281
     1
  3
ADSK_XREC_LAYER_RECONCILED
360
BE63
  0
DICTIONARY
  5
BE64
330
5D4D
100
AcDbDictionary
280
     1
281
     1
  3
ADSK_XREC_LAYER_RECONCILED
360
BE65
  0
DICTIONARY
  5
BE66
330
7355
100
AcDbDictionary
280
     1
281
     1
  3
ADSK_XREC_LAYER_RECONCILED
360
BE67
  0
DICTIONARY
  5
BE68
330
76A9
100
AcDbDictionary
280
     1
281
     1
  3
ADSK_XREC_LAYER_RECONCILED
360
BE69
  0
DICTIONARY
  5
178
330
1E
100
AcDbDictionary
280
     1
281
     1
  3
ACAD_LAYOUTSELFREF
360
87C3
  0
DICTIONARY
  5
17A
330
1A
100
AcDbDictionary
280
     1
281
     1
  3
ACAD_LAYOUTSELFREF
360
87C2
  0
DICTIONARY
  5
BEC6
330
BD2A
100
AcDbDictionary
280
     1
281
     1
  3
ACAD_MTEXT_RT
360
BEC7
  0
DICTIONARY
  5
BEC4
330
BC2C
100
AcDbDictionary
280
     1
281
     1
  3
ACAD_MTEXT_RT
360
BEC5
  0
DICTIONARY
  5
BEBE
330
9AC
100
AcDbDictionary
280
     1
281
     1
  3
ACAD_XREC_ROUNDTRIP
360
BEBF
  0
XRECORD
  5
BE51
102
{ACAD_REACTORS
330
C
102
}
330
C
100
AcDbXrecord
280
     1
300
ACDLT
300
2015
300
ACDLT_F_S
  0
DICTIONARY
  5
BE33
102
{ACAD_REACTORS
330
C
102
}
330
C
100
AcDbDictionary
281
     1
  0
DICTIONARY
  5
BE4C
102
{ACAD_REACTORS
330
C
102
}
330
C
100
AcDbDictionary
281
     1
  3
Imperial24
350
BE4D
  0
DICTIONARY
  5
D
102
{ACAD_REACTORS
330
C
102
}
330
C
100
AcDbDictionary
281
     1
  0
DICTIONARY
  5
19
102
{ACAD_REACTORS
330
C
102
}
330
C
100
AcDbDictionary
281
     1
  3
Model
350
87C9
  3
ﾚｲｱｳﾄ1
350
87CA
  0
DICTIONARY
  5
BE01
102
{ACAD_REACTORS
330
C
102
}
330
C
100
AcDbDictionary
281
     1
  3
ByBlock
350
BE0A
  3
ByLayer
350
BE02
  3
Global
350
BE12
  0
DICTIONARY
  5
BE48
102
{ACAD_REACTORS
330
C
102
}
330
C
100
AcDbDictionary
281
     1
  3
Standard
350
BE49
  0
DICTIONARY
  5
16
102
{ACAD_REACTORS
330
C
102
}
330
C
100
AcDbDictionary
281
     1
  3
STANDARD
350
17
  0
DICTIONARY
  5
18
102
{ACAD_REACTORS
330
C
102
}
330
C
100
AcDbDictionary
281
     1
  0
ACDBDICTIONARYWDFLT
  5
E
102
{ACAD_REACTORS
330
C
102
}
330
C
100
AcDbDictionary
281
     1
  3
Normal
350
F
100
AcDbDictionaryWithDefault
340
F
  0
DICTIONARY
  5
BE36
102
{ACAD_REACTORS
330
C
102
}
330
C
100
AcDbDictionary
281
     1
  3
A0
350
BE37
  3
A1
350
BE38
  3
A2
350
BE39
  3
A3
350
BE3A
  3
A4
350
BE3B
  3
A5
350
BE3C
  3
A6
350
BE3D
  3
A7
350
BE3E
  3
A8
350
BE3F
  3
A9
350
BE40
  3
B0
350
BE41
  3
B1
350
BE42
  3
B2
350
BE43
  3
B3
350
BE44
  3
B4
350
BE45
  3
B5
350
BE46
  3
B6
350
BE47
  0
DICTIONARY
  5
BE4A
102
{ACAD_REACTORS
330
C
102
}
330
C
100
AcDbDictionary
281
     1
  3
Imperial24
350
BE4B
  0
DICTIONARY
  5
BE34
102
{ACAD_REACTORS
330
C
102
}
330
C
100
AcDbDictionary
281
     1
  3
Standard
350
BE35
  0
DICTIONARY
  5
BE1A
102
{ACAD_REACTORS
330
C
102
}
330
C
100
AcDbDictionary
281
     1
  3
2dWireframe
350
BE20
  3
Basic
350
BE1F
  3
Brighten
350
BE26
  3
ColorChange
350
BE2A
  3
Conceptual
350
BE23
  3
Dim
350
BE25
  3
EdgeColorOff
350
BE32
  3
Facepattern
350
BE29
  3
Flat
350
BE1B
  3
FlatWithEdges
350
BE1C
  3
Gouraud
350
BE1D
  3
GouraudWithEdges
350
BE1E
  3
Hidden
350
BE22
  3
JitterOff
350
BE30
  3
Linepattern
350
BE28
  3
OverhangOff
350
BE31
  3
Realistic
350
BE24
  3
Shaded
350
BE2F
  3
Shaded with edges
350
BE2E
  3
Shades of Gray
350
BE2B
  3
Sketchy
350
BE2C
  3
Thicken
350
BE27
  3
Wireframe
350
BE21
  3
X-Ray
350
BE2D
  0
XRECORD
  5
BEBC
102
{ACAD_REACTORS
330
C
102
}
330
C
100
AcDbXrecord
280
     1
 90
        1
330
BE35
  0
DICTIONARY
  5
69C9
102
{ACAD_REACTORS
330
C
102
}
330
C
100
AcDbDictionary
281
     1
  3
CANNOSCALE
350
BE6E
  3
CMLEADERSTYLE
350
BE6B
  3
CTABLESTYLE
350
BE6A
  3
CVIEWDETAILSTYLE
350
BE6C
  3
CVIEWSECTIONSTYLE
350
BE6D
  3
DIMASSOC
350
69CA
  3
INDEXCTL
350
BE70
  3
SORTENTS
350
BE6F
  3
XCLIPFRAME
350
BE71
  0
XRECORD
  5
BEBD
102
{ACAD_REACTORS
330
C
102
}
330
C
100
AcDbXrecord
280
     1
  1
DWGPROPS COOKIE
  2

  3

  4

  6

  7

  8
ktomoto
  9

300
=
301
=
302
=
303
=
304
=
305
=
306
=
307
=
308
=
309
=
 40
1.565708842592592
 41
2452286.555658658
 42
2457261.405802986
  1

 90
        0
  0
XRECORD
  5
BE55
102
{ACAD_REACTORS
330
BE54
102
}
330
BE54
100
AcDbXrecord
280
     1
290
     1
  0
XRECORD
  5
BE57
102
{ACAD_REACTORS
330
BE56
102
}
330
BE56
100
AcDbXrecord
280
     1
290
     1
  0
XRECORD
  5
BE59
102
{ACAD_REACTORS
330
BE58
102
}
330
BE58
100
AcDbXrecord
280
     1
290
     1
  0
XRECORD
  5
BE5B
102
{ACAD_REACTORS
330
BE5A
102
}
330
BE5A
100
AcDbXrecord
280
     1
290
     1
  0
XRECORD
  5
BE5D
102
{ACAD_REACTORS
330
BE5C
102
}
330
BE5C
100
AcDbXrecord
280
     1
290
     1
  0
XRECORD
  5
BE5F
102
{ACAD_REACTORS
330
BE5E
102
}
330
BE5E
100
AcDbXrecord
280
     1
290
     1
  0
XRECORD
  5
BE61
102
{ACAD_REACTORS
330
BE60
102
}
330
BE60
100
AcDbXrecord
280
     1
290
     1
  0
XRECORD
  5
BE63
102
{ACAD_REACTORS
330
BE62
102
}
330
BE62
100
AcDbXrecord
280
     1
290
     1
  0
XRECORD
  5
BE65
102
{ACAD_REACTORS
330
BE64
102
}
330
BE64
100
AcDbXrecord
280
     1
290
     1
  0
XRECORD
  5
BE67
102
{ACAD_REACTORS
330
BE66
102
}
330
BE66
100
AcDbXrecord
280
     1
290
     1
  0
XRECORD
  5
BE69
102
{ACAD_REACTORS
330
BE68
102
}
330
BE68
100
AcDbXrecord
280
     1
290
     1
  0
XRECORD
  5
87C3
102
{ACAD_REACTORS
330
178
102
}
330
178
100
AcDbXrecord
280
     1
340
1E
  0
XRECORD
  5
87C2
102
{ACAD_REACTORS
330
17A
102
}
330
17A
100
AcDbXrecord
280
     1
340
1A
  0
XRECORD
  5
BEC7
102
{ACAD_REACTORS
330
BEC6
102
}
330
BEC6
100
AcDbXrecord
280
     1
 40
5040.0
  1
\A1;\U+220513
  0
XRECORD
  5
BEC5
102
{ACAD_REACTORS
330
BEC4
102
}
330
BEC4
100
AcDbXrecord
280
     1
 40
4473.0
  1
\A1;\U+22059
  0
XRECORD
  5
BEBF
102
{ACAD_REACTORS
330
BEBE
102
}
330
BEBE
100
AcDbXrecord
280
     1
102
SHADEPLOT
 70
     0
  0
ACDBDETAILVIEWSTYLE
  5
BE4D
102
{ACAD_XDICTIONARY
360
BEFF
102
}
102
{ACAD_REACTORS
330
BE4C
102
}
330
BE4C
100
AcDbModelDocViewStyle
 70
     0
  3
Imperial24
290
     0
100
AcDbDetailViewStyle
 70
     0
 71
     0
 90
        3
 71
     1
340
11
 40
0.24
340
0
 40
0.24
300

 40
0.36
280
     3
 71
     2
340
15
 90
       25
 71
     3
340
11
 40
0.24
 90
        1
 40
0.75
 90
        1
300
%<\AcVar ViewType \f "%tc1">% %<\AcVar ViewDetailId>%\PSCALE %<\AcVar ViewScale \f "%sn">%
 71
     4
340
15
 90
       25
340
15
 90
       25
280
     0
  0
LAYOUT
  5
87C9
102
{ACAD_XDICTIONARY
360
BEC0
102
}
102
{ACAD_REACTORS
330
19
102
}
330
19
100
AcDbPlotSettings
  1

  2
\\NEW_GMMCAD\Canon LBP3800 LIPSLX
  4
A4
  6
OLE1
 40
5.873749732971191
 41
5.873747825622557
 42
5.873748779296875
 43
5.873748779296875
 44
209.9733276367186
 45
296.9259948730469
 46
21.77
 47
31.75
 48
0.0
 49
0.0
140
0.0
141
0.0
142
1.0
143
5.0
 70
 11940
 72
     1
 73
     0
 74
     1
  7
monochrome.ctb
 75
     0
147
0.2
148
-726.4024504916561
149
647.6745730776742
100
AcDbLayout
  1
Model
 70
     1
 71
     0
 10
0.0
 20
0.0
 11
12.0
 21
9.0
 12
0.0
 22
0.0
 32
0.0
 14
0.0
 24
0.0
 34
0.0
 15
0.0
 25
0.0
 35
0.0
146
0.0
 13
0.0
 23
0.0
 33
0.0
 16
1.0
 26
0.0
 36
0.0
 17
0.0
 27
1.0
 37
0.0
 76
     0
330
1E
331
BDD9
  0
LAYOUT
  5
87CA
102
{ACAD_XDICTIONARY
360
BEC2
102
}
102
{ACAD_REACTORS
330
19
102
}
330
19
100
AcDbPlotSettings
  1

  2
LBP5400
  4

  6

 40
0.0
 41
0.0
 42
0.0
 43
0.0
 44
0.0
 45
0.0
 46
0.0
 47
0.0
 48
0.0
 49
0.0
140
0.0
141
0.0
142
1.0
143
1.0
 70
   688
 72
     0
 73
     0
 74
     5
  7
monochrome.stb
 75
    16
147
1.0
148
0.0
149
0.0
100
AcDbLayout
  1
ﾚｲｱｳﾄ1
 70
     1
 71
     1
 10
-5.873748779296875
 20
-5.873749732971191
 11
204.0995788574218
 21
291.1369009017943
 12
0.0
 22
0.0
 32
0.0
 14
4.273573370203961
 24
5.205246163471485
 34
0.0
 15
194.6100952986349
 25
283.0697008572913
 35
0.0
146
0.0
 13
0.0
 23
0.0
 33
0.0
 16
1.0
 26
0.0
 36
0.0
 17
0.0
 27
1.0
 37
0.0
 76
     0
330
1A
331
9AC
  0
MATERIAL
  5
BE0A
102
{ACAD_XDICTIONARY
360
BE0B
102
}
102
{ACAD_REACTORS
330
BE01
102
}
330
BE01
100
AcDbMaterial
  1
ByBlock
 72
     0
 43
0.0208333333333333
 43
0.0
 43
0.0
 43
0.0
 43
0.0
 43
0.0208333333333333
 43
0.0
 43
0.0
 43
0.0
 43
0.0
 43
1.0
 43
0.0
 43
0.0
 43
0.0
 43
0.0
 43
1.0
 77
     0
 47
0.0208333333333333
 47
0.0
 47
0.0
 47
0.0
 47
0.0
 47
0.0208333333333333
 47
0.0
 47
0.0
 47
0.0
 47
0.0
 47
1.0
 47
0.0
 47
0.0
 47
0.0
 47
0.0
 47
1.0
171
     0
 49
0.0208333333333333
 49
0.0
 49
0.0
 49
0.0
 49
0.0
 49
0.0208333333333333
 49
0.0
 49
0.0
 49
0.0
 49
0.0
 49
1.0
 49
0.0
 49
0.0
 49
0.0
 49
0.0
 49
1.0
175
     0
142
0.0208333333333333
142
0.0
142
0.0
142
0.0
142
0.0
142
0.0208333333333333
142
0.0
142
0.0
142
0.0
142
0.0
142
1.0
142
0.0
142
0.0
142
0.0
142
0.0
142
1.0
179
     0
144
0.0208333333333333
144
0.0
144
0.0
144
0.0
144
0.0
144
0.0208333333333333
144
0.0
144
0.0
144
0.0
144
0.0
144
1.0
144
0.0
144
0.0
144
0.0
144
0.0
144
1.0
147
0.0208333333333333
147
0.0
147
0.0
147
0.0
147
0.0
147
0.0208333333333333
147
0.0
147
0.0
147
0.0
147
0.0
147
1.0
147
0.0
147
0.0
147
0.0
147
0.0
147
1.0
  0
MATERIAL
  5
BE02
102
{ACAD_XDICTIONARY
360
BE03
102
}
102
{ACAD_REACTORS
330
BE01
102
}
330
BE01
100
AcDbMaterial
  1
ByLayer
 72
     0
 43
0.0208333333333333
 43
0.0
 43
0.0
 43
0.0
 43
0.0
 43
0.0208333333333333
 43
0.0
 43
0.0
 43
0.0
 43
0.0
 43
1.0
 43
0.0
 43
0.0
 43
0.0
 43
0.0
 43
1.0
 77
     0
 47
0.0208333333333333
 47
0.0
 47
0.0
 47
0.0
 47
0.0
 47
0.0208333333333333
 47
0.0
 47
0.0
 47
0.0
 47
0.0
 47
1.0
 47
0.0
 47
0.0
 47
0.0
 47
0.0
 47
1.0
171
     0
 49
0.0208333333333333
 49
0.0
 49
0.0
 49
0.0
 49
0.0
 49
0.0208333333333333
 49
0.0
 49
0.0
 49
0.0
 49
0.0
 49
1.0
 49
0.0
 49
0.0
 49
0.0
 49
0.0
 49
1.0
175
     0
142
0.0208333333333333
142
0.0
142
0.0
142
0.0
142
0.0
142
0.0208333333333333
142
0.0
142
0.0
142
0.0
142
0.0
142
1.0
142
0.0
142
0.0
142
0.0
142
0.0
142
1.0
179
     0
144
0.0208333333333333
144
0.0
144
0.0
144
0.0
144
0.0
144
0.0208333333333333
144
0.0
144
0.0
144
0.0
144
0.0
144
1.0
144
0.0
144
0.0
144
0.0
144
0.0
144
1.0
147
0.0208333333333333
147
0.0
147
0.0
147
0.0
147
0.0
147
0.0208333333333333
147
0.0
147
0.0
147
0.0
147
0.0
147
1.0
147
0.0
147
0.0
147
0.0
147
0.0
147
1.0
  0
MATERIAL
  5
BE12
102
{ACAD_XDICTIONARY
360
BE13
102
}
102
{ACAD_REACTORS
330
BE01
102
}
330
BE01
100
AcDbMaterial
  1
Global
 72
     0
 43
0.0208333333333333
 43
0.0
 43
0.0
 43
0.0
 43
0.0
 43
0.0208333333333333
 43
0.0
 43
0.0
 43
0.0
 43
0.0
 43
1.0
 43
0.0
 43
0.0
 43
0.0
 43
0.0
 43
1.0
 77
     0
 47
0.0208333333333333
 47
0.0
 47
0.0
 47
0.0
 47
0.0
 47
0.0208333333333333
 47
0.0
 47
0.0
 47
0.0
 47
0.0
 47
1.0
 47
0.0
 47
0.0
 47
0.0
 47
0.0
 47
1.0
171
     0
 49
0.0208333333333333
 49
0.0
 49
0.0
 49
0.0
 49
0.0
 49
0.0208333333333333
 49
0.0
 49
0.0
 49
0.0
 49
0.0
 49
1.0
 49
0.0
 49
0.0
 49
0.0
 49
0.0
 49
1.0
175
     0
142
0.0208333333333333
142
0.0
142
0.0
142
0.0
142
0.0
142
0.0208333333333333
142
0.0
142
0.0
142
0.0
142
0.0
142
1.0
142
0.0
142
0.0
142
0.0
142
0.0
142
1.0
179
     0
144
0.0208333333333333
144
0.0
144
0.0
144
0.0
144
0.0
144
0.0208333333333333
144
0.0
144
0.0
144
0.0
144
0.0
144
1.0
144
0.0
144
0.0
144
0.0
144
0.0
144
1.0
147
0.0208333333333333
147
0.0
147
0.0
147
0.0
147
0.0
147
0.0208333333333333
147
0.0
147
0.0
147
0.0
147
0.0
147
1.0
147
0.0
147
0.0
147
0.0
147
0.0
147
1.0
  0
MLEADERSTYLE
  5
BE49
102
{ACAD_REACTORS
330
BE48
102
}
330
BE48
100
AcDbMLeaderStyle
170
     2
171
     1
172
     0
 90
        2
 40
0.0
 41
0.0
173
     1
 91
-1056964608
340
13
 92
       -2
290
     1
 42
0.09
291
     1
 43
0.36
  3
Standard
 44
0.18
300

342
11
174
     1
178
     6
175
     1
176
     0
 93
-1056964608
 45
0.18
292
     0
297
     0
 46
0.18
 94
-1056964608
 47
1.0
 49
1.0
140
1.0
293
     1
141
0.0
294
     1
177
     0
142
1.0
295
     0
296
     0
143
0.125
1001
ACAD_MLEADERVER
1070
     2
  0
MLINESTYLE
  5
17
102
{ACAD_REACTORS
330
16
102
}
330
16
100
AcDbMlineStyle
  2
STANDARD
 70
     0
  3

 62
   256
 51
90.0
 52
90.0
 71
     2
 49
0.5
 62
   256
  6
BYLAYER
 49
-0.5
 62
   256
  6
BYLAYER
  0
ACDBPLACEHOLDER
  5
F
102
{ACAD_REACTORS
330
E
102
}
330
E
  0
SCALE
  5
BE37
102
{ACAD_REACTORS
330
BE36
102
}
330
BE36
100
AcDbScale
 70
     0
300
1:1
140
1.0
141
1.0
290
     1
  0
SCALE
  5
BE38
102
{ACAD_REACTORS
330
BE36
102
}
330
BE36
100
AcDbScale
 70
     0
300
1/128" = 1'-0"
140
0.0078125
141
12.0
290
     0
  0
SCALE
  5
BE39
102
{ACAD_REACTORS
330
BE36
102
}
330
BE36
100
AcDbScale
 70
     0
300
1/64" = 1'-0"
140
0.015625
141
12.0
290
     0
  0
SCALE
  5
BE3A
102
{ACAD_REACTORS
330
BE36
102
}
330
BE36
100
AcDbScale
 70
     0
300
1/32" = 1'-0"
140
0.03125
141
12.0
290
     0
  0
SCALE
  5
BE3B
102
{ACAD_REACTORS
330
BE36
102
}
330
BE36
100
AcDbScale
 70
     0
300
1/16" = 1'-0"
140
0.0625
141
12.0
290
     0
  0
SCALE
  5
BE3C
102
{ACAD_REACTORS
330
BE36
102
}
330
BE36
100
AcDbScale
 70
     0
300
3/32" = 1'-0"
140
0.09375
141
12.0
290
     0
  0
SCALE
  5
BE3D
102
{ACAD_REACTORS
330
BE36
102
}
330
BE36
100
AcDbScale
 70
     0
300
1/8" = 1'-0"
140
0.125
141
12.0
290
     0
  0
SCALE
  5
BE3E
102
{ACAD_REACTORS
330
BE36
102
}
330
BE36
100
AcDbScale
 70
     0
300
3/16" = 1'-0"
140
0.1875
141
12.0
290
     0
  0
SCALE
  5
BE3F
102
{ACAD_REACTORS
330
BE36
102
}
330
BE36
100
AcDbScale
 70
     0
300
1/4" = 1'-0"
140
0.25
141
12.0
290
     0
  0
SCALE
  5
BE40
102
{ACAD_REACTORS
330
BE36
102
}
330
BE36
100
AcDbScale
 70
     0
300
3/8" = 1'-0"
140
0.375
141
12.0
290
     0
  0
SCALE
  5
BE41
102
{ACAD_REACTORS
330
BE36
102
}
330
BE36
100
AcDbScale
 70
     0
300
1/2" = 1'-0"
140
0.5
141
12.0
290
     0
  0
SCALE
  5
BE42
102
{ACAD_REACTORS
330
BE36
102
}
330
BE36
100
AcDbScale
 70
     0
300
3/4" = 1'-0"
140
0.75
141
12.0
290
     0
  0
SCALE
  5
BE43
102
{ACAD_REACTORS
330
BE36
102
}
330
BE36
100
AcDbScale
 70
     0
300
1" = 1'-0"
140
1.0
141
12.0
290
     0
  0
SCALE
  5
BE44
102
{ACAD_REACTORS
330
BE36
102
}
330
BE36
100
AcDbScale
 70
     0
300
1-1/2" = 1'-0"
140
1.5
141
12.0
290
     0
  0
SCALE
  5
BE45
102
{ACAD_REACTORS
330
BE36
102
}
330
BE36
100
AcDbScale
 70
     0
300
3" = 1'-0"
140
3.0
141
12.0
290
     0
  0
SCALE
  5
BE46
102
{ACAD_REACTORS
330
BE36
102
}
330
BE36
100
AcDbScale
 70
     0
300
6" = 1'-0"
140
6.0
141
12.0
290
     0
  0
SCALE
  5
BE47
102
{ACAD_REACTORS
330
BE36
102
}
330
BE36
100
AcDbScale
 70
     0
300
1'-0" = 1'-0"
140
12.0
141
12.0
290
     0
  0
ACDBSECTIONVIEWSTYLE
  5
BE4B
102
{ACAD_XDICTIONARY
360
BEFD
102
}
102
{ACAD_REACTORS
330
BE4A
102
}
330
BE4A
100
AcDbModelDocViewStyle
 70
     0
  3
Imperial24
290
     0
100
AcDbSectionViewStyle
 70
     0
 71
     0
 90
       78
 71
     1
340
11
 40
0.24
340
0
340
0
 40
0.24
300
I, O, Q, S, X, Z
 40
0.48
 90
        3
 40
0.18
 90
        1
 71
     2
340
15
 90
       25
340
15
 90
       50
 40
0.24
 40
0.0
 40
0.24
 71
     3
340
11
 40
0.24
 90
        1
 40
0.75
 90
        1
300
%<\AcVar ViewType \f "%tc1">% %<\AcVar ViewSectionStartId>%-%<\AcVar ViewSectionEndId>%\PSCALE %<\AcVar ViewScale \f "%sn">%
 71
     4
300
ANSI31
 40
1.0
 90
        0
290
     0
290
     0
 90
        6
 40
0.0
 40
1.570796326794896
 40
0.2617993877991494
 40
1.308996938995747
 40
-0.2617993877991494
 40
1.832595714594046
  0
TABLESTYLE
  5
BE35
102
{ACAD_XDICTIONARY
360
BEBA
102
}
102
{ACAD_REACTORS
330
BE34
102
}
330
BE34
100
AcDbTableStyle
  3
Standard
 70
     0
 71
     0
 40
0.06
 41
0.06
280
     0
281
     0
  7
STANDARD
140
0.18
170
     2
 62
     0
 63
     7
283
     0
274
    -2
284
     1
 64
     0
275
    -2
285
     1
 65
     0
276
    -2
286
     1
 66
     0
277
    -2
287
     1
 67
     0
278
    -2
288
     1
 68
     0
279
    -2
289
     1
 69
     0
  7
STANDARD
140
0.25
170
     5
 62
     0
 63
     7
283
     0
274
    -2
284
     1
 64
     0
275
    -2
285
     1
 65
     0
276
    -2
286
     1
 66
     0
277
    -2
287
     1
 67
     0
278
    -2
288
     1
 68
     0
279
    -2
289
     1
 69
     0
  7
STANDARD
140
0.18
170
     5
 62
     0
 63
     7
283
     0
274
    -2
284
     1
 64
     0
275
    -2
285
     1
 65
     0
276
    -2
286
     1
 66
     0
277
    -2
287
     1
 67
     0
278
    -2
288
     1
 68
     0
279
    -2
289
     1
 69
     0
  0
VISUALSTYLE
  5
BE20
102
{ACAD_XDICTIONARY
360
BED5
102
}
102
{ACAD_REACTORS
330
BE1A
102
}
330
BE1A
100
AcDbVisualStyle
  2
2dWireframe
 70
     4
 71
     0
 72
     2
 73
     0
 90
        0
 40
-0.6
 41
-30.0
 62
     5
 63
     7
 74
     1
 91
        4
 64
     7
 65
   257
 75
     1
175
     1
 42
1.0
 92
        0
 66
   257
 43
1.0
 76
     1
 77
     6
 78
     2
 67
     7
 79
     5
170
     0
171
     0
290
     0
174
     0
 93
        1
 44
0.0
173
     0
291
     0
 45
0.0
1001
ACAD
1000
AcDbSavedByObjectVersion
1070
     0
  0
VISUALSTYLE
  5
BE1F
102
{ACAD_XDICTIONARY
360
BED3
102
}
102
{ACAD_REACTORS
330
BE1A
102
}
330
BE1A
100
AcDbVisualStyle
  2
Basic
 70
     7
 71
     1
 72
     0
 73
     1
 90
        0
 40
-0.6
 41
-30.0
 62
     5
 63
     7
 74
     0
 91
        4
 64
     7
 65
   257
 75
     1
175
     1
 42
1.0
 92
        8
 66
     7
 43
1.0
 76
     1
 77
     6
 78
     2
 67
     7
 79
     5
170
     0
171
     0
290
     0
174
     0
 93
        1
 44
0.0
173
     0
291
     1
 45
0.0
1001
ACAD
1000
AcDbSavedByObjectVersion
1070
     0
  0
VISUALSTYLE
  5
BE26
102
{ACAD_XDICTIONARY
360
BEE1
102
}
102
{ACAD_REACTORS
330
BE1A
102
}
330
BE1A
100
AcDbVisualStyle
  2
Brighten
 70
    12
 71
     2
 72
     2
 73
     0
 90
        0
 40
-0.6
 41
-30.0
 62
     5
 63
     7
 74
     1
 91
        4
 64
     7
 65
   257
 75
     1
175
     1
 42
1.0
 92
        8
 66
     7
 43
1.0
 76
     1
 77
     6
 78
     2
 67
     7
 79
     5
170
     0
171
     0
290
     0
174
     0
 93
        1
 44
50.0
173
     0
291
     1
 45
0.0
1001
ACAD
1000
AcDbSavedByObjectVersion
1070
     0
  0
VISUALSTYLE
  5
BE2A
102
{ACAD_XDICTIONARY
360
BEE9
102
}
102
{ACAD_REACTORS
330
BE1A
102
}
330
BE1A
100
AcDbVisualStyle
  2
ColorChange
 70
    16
 71
     2
 72
     2
 73
     3
 90
        0
 40
-0.6
 41
-30.0
 62
     5
 63
     8
 74
     1
 91
        4
 64
     7
 65
   257
 75
     1
175
     1
 42
1.0
 92
        8
 66
     8
 43
1.0
 76
     1
 77
     6
 78
     2
 67
     7
 79
     5
170
     0
171
     0
290
     0
174
     0
 93
        1
 44
0.0
173
     0
291
     1
 45
0.0
1001
ACAD
1000
AcDbSavedByObjectVersion
1070
     0
  0
VISUALSTYLE
  5
BE23
102
{ACAD_XDICTIONARY
360
BEDB
102
}
102
{ACAD_REACTORS
330
BE1A
102
}
330
BE1A
100
AcDbVisualStyle
  2
Conceptual
 70
     9
 71
     3
 72
     2
 73
     0
 90
        0
 40
-0.6
 41
-30.0
 62
     5
 63
     7
 74
     2
 91
        2
 64
     7
 65
   257
 75
     1
175
     1
 42
179.0
 92
        8
 66
     7
 43
1.0
 76
     1
 77
     6
 78
     2
 67
     7
 79
     3
170
     0
171
     0
290
     0
174
     0
 93
        1
 44
0.0
173
     0
291
     0
 45
0.0
1001
ACAD
1000
AcDbSavedByObjectVersion
1070
     0
  0
VISUALSTYLE
  5
BE25
102
{ACAD_XDICTIONARY
360
BEDF
102
}
102
{ACAD_REACTORS
330
BE1A
102
}
330
BE1A
100
AcDbVisualStyle
  2
Dim
 70
    11
 71
     2
 72
     2
 73
     0
 90
        0
 40
-0.6
 41
-30.0
 62
     5
 63
     7
 74
     1
 91
        4
 64
     7
 65
   257
 75
     1
175
     1
 42
1.0
 92
        8
 66
     7
 43
1.0
 76
     1
 77
     6
 78
     2
 67
     7
 79
     5
170
     0
171
     0
290
     0
174
     0
 93
        1
 44
-50.0
173
     0
291
     1
 45
0.0
1001
ACAD
1000
AcDbSavedByObjectVersion
1070
     0
  0
VISUALSTYLE
  5
BE32
102
{ACAD_XDICTIONARY
360
BEF9
102
}
102
{ACAD_REACTORS
330
BE1A
102
}
330
BE1A
100
AcDbVisualStyle
  2
EdgeColorOff
 70
    22
 71
     2
 72
     2
 73
     0
 90
        0
 40
-0.6
 41
-30.0
 62
     5
 63
     7
 74
     1
 91
        4
 64
     7
 65
   257
 75
     1
175
     1
 42
1.0
 92
        8
 66
     7
 43
1.0
 76
     1
 77
     6
 78
     2
 67
     7
 79
     5
170
     0
171
     0
290
     0
174
     0
 93
        1
 44
0.0
173
     0
291
     1
 45
0.0
1001
ACAD
1000
AcDbSavedByObjectVersion
1070
     0
  0
VISUALSTYLE
  5
BE29
102
{ACAD_XDICTIONARY
360
BEE7
102
}
102
{ACAD_REACTORS
330
BE1A
102
}
330
BE1A
100
AcDbVisualStyle
  2
Facepattern
 70
    15
 71
     2
 72
     2
 73
     0
 90
        0
 40
-0.6
 41
-30.0
 62
     5
 63
     7
 74
     1
 91
        4
 64
     7
 65
   257
 75
     1
175
     1
 42
1.0
 92
        8
 66
     7
 43
1.0
 76
     1
 77
     6
 78
     2
 67
     7
 79
     5
170
     0
171
     0
290
     0
174
     0
 93
        1
 44
0.0
173
     0
291
     1
 45
0.0
1001
ACAD
1000
AcDbSavedByObjectVersion
1070
     0
  0
VISUALSTYLE
  5
BE1B
102
{ACAD_XDICTIONARY
360
BECB
102
}
102
{ACAD_REACTORS
330
BE1A
102
}
330
BE1A
100
AcDbVisualStyle
  2
Flat
 70
     0
 71
     2
 72
     1
 73
     1
 90
        2
 40
-0.6
 41
30.0
 62
     5
 63
     7
 74
     0
 91
        0
 64
     7
 65
   257
 75
     1
175
     1
 42
1.0
 92
        8
 66
     7
 43
1.0
 76
     1
 77
     6
 78
     2
 67
     7
 79
     5
170
     0
171
     0
290
     0
174
     0
 93
       13
 44
0.0
173
     0
291
     1
 45
0.0
1001
ACAD
1000
AcDbSavedByObjectVersion
1070
     0
  0
VISUALSTYLE
  5
BE1C
102
{ACAD_XDICTIONARY
360
BECD
102
}
102
{ACAD_REACTORS
330
BE1A
102
}
330
BE1A
100
AcDbVisualStyle
  2
FlatWithEdges
 70
     1
 71
     2
 72
     1
 73
     1
 90
        2
 40
-0.6
 41
30.0
 62
     5
 63
     7
 74
     1
 91
        0
 64
     7
 65
   257
 75
     1
175
     1
 42
1.0
 92
        0
 66
   257
 43
1.0
 76
     1
 77
     6
 78
     2
 67
     7
 79
     5
170
     0
171
     0
290
     0
174
     0
 93
       13
 44
0.0
173
     0
291
     1
 45
0.0
1001
ACAD
1000
AcDbSavedByObjectVersion
1070
     0
  0
VISUALSTYLE
  5
BE1D
102
{ACAD_XDICTIONARY
360
BECF
102
}
102
{ACAD_REACTORS
330
BE1A
102
}
330
BE1A
100
AcDbVisualStyle
  2
Gouraud
 70
     2
 71
     2
 72
     2
 73
     1
 90
        2
 40
-0.6
 41
30.0
 62
     5
 63
     7
 74
     0
 91
        0
 64
     7
 65
   257
 75
     1
175
     1
 42
1.0
 92
        0
 66
     7
 43
1.0
 76
     1
 77
     6
 78
     2
 67
     7
 79
     5
170
     0
171
     0
290
     0
174
     0
 93
       13
 44
0.0
173
     0
291
     1
 45
0.0
1001
ACAD
1000
AcDbSavedByObjectVersion
1070
     0
  0
VISUALSTYLE
  5
BE1E
102
{ACAD_XDICTIONARY
360
BED1
102
}
102
{ACAD_REACTORS
330
BE1A
102
}
330
BE1A
100
AcDbVisualStyle
  2
GouraudWithEdges
 70
     3
 71
     2
 72
     2
 73
     1
 90
        2
 40
-0.6
 41
30.0
 62
     5
 63
     7
 74
     1
 91
        0
 64
     7
 65
   257
 75
     1
175
     1
 42
1.0
 92
        0
 66
   257
 43
1.0
 76
     1
 77
     6
 78
     2
 67
     7
 79
     5
170
     0
171
     0
290
     0
174
     0
 93
       13
 44
0.0
173
     0
291
     1
 45
0.0
1001
ACAD
1000
AcDbSavedByObjectVersion
1070
     0
  0
VISUALSTYLE
  5
BE22
102
{ACAD_XDICTIONARY
360
BED9
102
}
102
{ACAD_REACTORS
330
BE1A
102
}
330
BE1A
100
AcDbVisualStyle
  2
Hidden
 70
     6
 71
     1
 72
     2
 73
     2
 90
        0
 40
-0.6
 41
-30.0
 62
     5
 63
     7
 74
     2
 91
        2
 64
     7
 65
   257
 75
     2
175
     1
 42
40.0
 92
        0
 66
   257
 43
1.0
 76
     1
 77
     6
 78
     2
 67
     7
 79
     3
170
     0
171
     0
290
     0
174
     0
 93
        1
 44
0.0
173
     0
291
     0
 45
0.0
1001
ACAD
1000
AcDbSavedByObjectVersion
1070
     0
  0
VISUALSTYLE
  5
BE30
102
{ACAD_XDICTIONARY
360
BEF5
102
}
102
{ACAD_REACTORS
330
BE1A
102
}
330
BE1A
100
AcDbVisualStyle
  2
JitterOff
 70
    20
 71
     2
 72
     2
 73
     0
 90
        0
 40
-0.6
 41
-30.0
 62
     5
 63
     7
 74
     1
 91
        4
 64
     7
 65
   257
 75
     1
175
     1
 42
1.0
 92
       10
 66
     7
 43
1.0
 76
     1
 77
     6
 78
     2
 67
     7
 79
     5
170
     0
171
     0
290
     0
174
     0
 93
        1
 44
0.0
173
     0
291
     1
 45
0.0
1001
ACAD
1000
AcDbSavedByObjectVersion
1070
     0
  0
VISUALSTYLE
  5
BE28
102
{ACAD_XDICTIONARY
360
BEE5
102
}
102
{ACAD_REACTORS
330
BE1A
102
}
330
BE1A
100
AcDbVisualStyle
  2
Linepattern
 70
    14
 71
     2
 72
     2
 73
     0
 90
        0
 40
-0.6
 41
-30.0
 62
     5
 63
     7
 74
     1
 91
        4
 64
     7
 65
   257
 75
     7
175
     7
 42
1.0
 92
        8
 66
     7
 43
1.0
 76
     1
 77
     6
 78
     2
 67
     7
 79
     5
170
     0
171
     0
290
     0
174
     0
 93
        1
 44
0.0
173
     0
291
     1
 45
0.0
1001
ACAD
1000
AcDbSavedByObjectVersion
1070
     0
  0
VISUALSTYLE
  5
BE31
102
{ACAD_XDICTIONARY
360
BEF7
102
}
102
{ACAD_REACTORS
330
BE1A
102
}
330
BE1A
100
AcDbVisualStyle
  2
OverhangOff
 70
    21
 71
     2
 72
     2
 73
     0
 90
        0
 40
-0.6
 41
-30.0
 62
     5
 63
     7
 74
     1
 91
        4
 64
     7
 65
   257
 75
     1
175
     1
 42
1.0
 92
        9
 66
     7
 43
1.0
 76
     1
 77
     6
 78
     2
 67
     7
 79
     5
170
     0
171
     0
290
     0
174
     0
 93
        1
 44
0.0
173
     0
291
     1
 45
0.0
1001
ACAD
1000
AcDbSavedByObjectVersion
1070
     0
  0
VISUALSTYLE
  5
BE24
102
{ACAD_XDICTIONARY
360
BEDD
102
}
102
{ACAD_REACTORS
330
BE1A
102
}
330
BE1A
100
AcDbVisualStyle
  2
Realistic
 70
     8
 71
     2
 72
     3
 73
     0
 90
        2
 40
-0.6
 41
30.0
 62
     5
 63
     7
 74
     0
 91
        0
 64
     7
 65
   257
 75
     1
175
     1
 42
1.0
 92
        8
 66
   257
 43
1.0
 76
     1
 77
     6
 78
     2
 67
     7
 79
     3
170
     0
171
     0
290
     0
174
     0
 93
       13
 44
0.0
173
     0
291
     0
 45
0.0
1001
ACAD
1000
AcDbSavedByObjectVersion
1070
     0
  0
VISUALSTYLE
  5
BE2F
102
{ACAD_XDICTIONARY
360
BEF3
102
}
102
{ACAD_REACTORS
330
BE1A
102
}
330
BE1A
100
AcDbVisualStyle
  2
Shaded
 70
    27
 71
     2
 72
     2
 73
     1
 90
        2
 40
-0.6
 41
30.0
 62
     5
 63
     7
 74
     0
 91
        4
 64
     7
 65
   257
 75
     1
175
     1
 42
1.0
 92
        8
 66
   257
 43
1.0
 76
     1
 77
     6
 78
     2
 67
     8
 79
     3
170
     0
171
     0
290
     0
174
     0
 93
        5
 44
0.0
173
     0
291
     0
 45
0.0
1001
ACAD
1000
AcDbSavedByObjectVersion
1070
     0
  0
VISUALSTYLE
  5
BE2E
102
{ACAD_XDICTIONARY
360
BEF1
102
}
102
{ACAD_REACTORS
330
BE1A
102
}
330
BE1A
100
AcDbVisualStyle
  2
Shaded with edges
 70
    26
 71
     2
 72
     2
 73
     1
 90
        2
 40
-0.6
 41
30.0
 62
     5
 63
     7
 74
     1
 91
       10
 64
     7
 65
   257
 75
     2
175
     1
 42
1.0
 92
        8
 66
   257
 43
1.0
 76
     1
 77
     6
 78
     2
 67
     7
 79
     3
170
     0
171
     0
290
     0
174
     0
 93
        5
 44
0.0
173
     0
291
     0
 45
0.0
1001
ACAD
1000
AcDbSavedByObjectVersion
1070
     0
  0
VISUALSTYLE
  5
BE2B
102
{ACAD_XDICTIONARY
360
BEEB
102
}
102
{ACAD_REACTORS
330
BE1A
102
}
330
BE1A
100
AcDbVisualStyle
  2
Shades of Gray
 70
    23
 71
     2
 72
     2
 73
     3
 90
        0
 40
-0.6
 41
-30.0
 62
     5
 63
     7
 74
     2
 91
        2
 64
     7
 65
     7
 75
     1
175
     1
 42
40.0
 92
        8
 66
     7
 43
1.0
 76
     1
 77
     6
 78
     2
 67
     7
 79
     3
170
     0
171
     0
290
     0
174
     0
 93
        1
 44
0.0
173
     0
291
     0
 45
0.0
1001
ACAD
1000
AcDbSavedByObjectVersion
1070
     0
  0
VISUALSTYLE
  5
BE2C
102
{ACAD_XDICTIONARY
360
BEED
102
}
102
{ACAD_REACTORS
330
BE1A
102
}
330
BE1A
100
AcDbVisualStyle
  2
Sketchy
 70
    24
 71
     1
 72
     2
 73
     2
 90
        0
 40
-0.6
 41
-30.0
 62
     5
 63
     7
 74
     2
 91
        2
 64
     7
 65
     7
 75
     1
175
     1
 42
40.0
 92
       11
 66
     7
 43
1.0
 76
     1
 77
     6
 78
     2
 67
     7
 79
     6
170
     0
171
     0
290
     0
174
     0
 93
        1
 44
0.0
173
     0
291
     0
 45
0.0
1001
ACAD
1000
AcDbSavedByObjectVersion
1070
     0
  0
VISUALSTYLE
  5
BE27
102
{ACAD_XDICTIONARY
360
BEE3
102
}
102
{ACAD_REACTORS
330
BE1A
102
}
330
BE1A
100
AcDbVisualStyle
  2
Thicken
 70
    13
 71
     2
 72
     2
 73
     0
 90
        0
 40
-0.6
 41
-30.0
 62
     5
 63
     7
 74
     1
 91
        4
 64
     7
 65
   257
 75
     1
175
     1
 42
1.0
 92
       12
 66
     7
 43
1.0
 76
     1
 77
     6
 78
     2
 67
     7
 79
     5
170
     0
171
     0
290
     0
174
     0
 93
        1
 44
0.0
173
     0
291
     1
 45
0.0
1001
ACAD
1000
AcDbSavedByObjectVersion
1070
     0
  0
VISUALSTYLE
  5
BE21
102
{ACAD_XDICTIONARY
360
BED7
102
}
102
{ACAD_REACTORS
330
BE1A
102
}
330
BE1A
100
AcDbVisualStyle
  2
Wireframe
 70
     5
 71
     0
 72
     2
 73
     0
 90
        0
 40
-0.6
 41
-30.0
 62
     5
 63
     7
 74
     1
 91
        4
 64
     7
 65
   257
 75
     1
175
     1
 42
1.0
 92
        0
 66
   257
 43
1.0
 76
     1
 77
     6
 78
     2
 67
     7
 79
     3
170
     0
171
     0
290
     0
174
     0
 93
        1
 44
0.0
173
     0
291
     0
 45
0.0
1001
ACAD
1000
AcDbSavedByObjectVersion
1070
     0
  0
VISUALSTYLE
  5
BE2D
102
{ACAD_XDICTIONARY
360
BEEF
102
}
102
{ACAD_REACTORS
330
BE1A
102
}
330
BE1A
100
AcDbVisualStyle
  2
X-Ray
 70
    25
 71
     2
 72
     2
 73
     1
 90
        1
 40
0.5
 41
-30.0
 62
     5
 63
     7
 74
     1
 91
        0
 64
     7
 65
   257
 75
     1
175
     1
 42
1.0
 92
        8
 66
     7
 43
1.0
 76
     1
 77
     6
 78
     2
 67
     7
 79
     3
170
     0
171
     0
290
     0
174
     0
 93
       13
 44
0.0
173
     0
291
     0
 45
0.0
1001
ACAD
1000
AcDbSavedByObjectVersion
1070
     0
  0
DICTIONARYVAR
  5
BE6E
102
{ACAD_REACTORS
330
69C9
102
}
330
69C9
100
DictionaryVariables
280
     0
  1
1:1
  0
DICTIONARYVAR
  5
BE6B
102
{ACAD_REACTORS
330
69C9
102
}
330
69C9
100
DictionaryVariables
280
     0
  1
STANDARD
  0
DICTIONARYVAR
  5
BE6A
102
{ACAD_REACTORS
330
69C9
102
}
330
69C9
100
DictionaryVariables
280
     0
  1
STANDARD
  0
DICTIONARYVAR
  5
BE6C
102
{ACAD_REACTORS
330
69C9
102
}
330
69C9
100
DictionaryVariables
280
     0
  1
Imperial24
  0
DICTIONARYVAR
  5
BE6D
102
{ACAD_REACTORS
330
69C9
102
}
330
69C9
100
DictionaryVariables
280
     0
  1
Imperial24
  0
DICTIONARYVAR
  5
69CA
102
{ACAD_REACTORS
330
69C9
102
}
330
69C9
100
DictionaryVariables
280
     0
  1
1
  0
DICTIONARYVAR
  5
BE70
102
{ACAD_REACTORS
330
69C9
102
}
330
69C9
100
DictionaryVariables
280
     0
  1
0
  0
DICTIONARYVAR
  5
BE6F
102
{ACAD_REACTORS
330
69C9
102
}
330
69C9
100
DictionaryVariables
280
     0
  1
127
  0
DICTIONARYVAR
  5
BE71
102
{ACAD_REACTORS
330
69C9
102
}
330
69C9
100
DictionaryVariables
280
     0
  1
2
  0
DICTIONARY
  5
BEFF
330
BE4D
100
AcDbDictionary
280
     1
281
     1
  3
ACAD_XREC_ROUNDTRIP
360
BF00
  0
DICTIONARY
  5
BEC0
330
87C9
100
AcDbDictionary
280
     1
281
     1
  3
ACAD_XREC_ROUNDTRIP
360
BEC1
  0
DICTIONARY
  5
BEC2
330
87CA
100
AcDbDictionary
280
     1
281
     1
  3
ACAD_XREC_ROUNDTRIP
360
BEC3
  0
DICTIONARY
  5
BE0B
330
BE0A
100
AcDbDictionary
280
     1
281
     1
  3
ACAD_XREC_ROUNDTRIP
360
BEC9
  3
BUMPTILE
360
BE0D
  3
DIFFUSETILE
360
BE0C
  3
OPACITYTILE
360
BE10
  3
REFLECTIONTILE
360
BE0F
  3
REFRACTIONTILE
360
BE11
  3
SPECULARTILE
360
BE0E
  0
DICTIONARY
  5
BE03
330
BE02
100
AcDbDictionary
280
     1
281
     1
  3
ACAD_XREC_ROUNDTRIP
360
BEC8
  3
BUMPTILE
360
BE05
  3
DIFFUSETILE
360
BE04
  3
OPACITYTILE
360
BE08
  3
REFLECTIONTILE
360
BE07
  3
REFRACTIONTILE
360
BE09
  3
SPECULARTILE
360
BE06
  0
DICTIONARY
  5
BE13
330
BE12
100
AcDbDictionary
280
     1
281
     1
  3
ACAD_XREC_ROUNDTRIP
360
BECA
  3
BUMPTILE
360
BE15
  3
DIFFUSETILE
360
BE14
  3
OPACITYTILE
360
BE18
  3
REFLECTIONTILE
360
BE17
  3
REFRACTIONTILE
360
BE19
  3
SPECULARTILE
360
BE16
  0
DICTIONARY
  5
BEFD
330
BE4B
100
AcDbDictionary
280
     1
281
     1
  3
ACAD_XREC_ROUNDTRIP
360
BEFE
  0
DICTIONARY
  5
BEBA
330
BE35
100
AcDbDictionary
280
     1
281
     1
  3
ACAD_ROUNDTRIP_2008_TABLESTYLE_CELLSTYLEMAP
360
BEBB
  3
ACAD_XREC_ROUNDTRIP
360
BEFB
  0
DICTIONARY
  5
BED5
330
BE20
100
AcDbDictionary
280
     1
281
     1
  3
ACAD_XREC_ROUNDTRIP
360
BED6
  0
DICTIONARY
  5
BED3
330
BE1F
100
AcDbDictionary
280
     1
281
     1
  3
ACAD_XREC_ROUNDTRIP
360
BED4
  0
DICTIONARY
  5
BEE1
330
BE26
100
AcDbDictionary
280
     1
281
     1
  3
ACAD_XREC_ROUNDTRIP
360
BEE2
  0
DICTIONARY
  5
BEE9
330
BE2A
100
AcDbDictionary
280
     1
281
     1
  3
ACAD_XREC_ROUNDTRIP
360
BEEA
  0
DICTIONARY
  5
BEDB
330
BE23
100
AcDbDictionary
280
     1
281
     1
  3
ACAD_XREC_ROUNDTRIP
360
BEDC
  0
DICTIONARY
  5
BEDF
330
BE25
100
AcDbDictionary
280
     1
281
     1
  3
ACAD_XREC_ROUNDTRIP
360
BEE0
  0
DICTIONARY
  5
BEF9
330
BE32
100
AcDbDictionary
280
     1
281
     1
  3
ACAD_XREC_ROUNDTRIP
360
BEFA
  0
DICTIONARY
  5
BEE7
330
BE29
100
AcDbDictionary
280
     1
281
     1
  3
ACAD_XREC_ROUNDTRIP
360
BEE8
  0
DICTIONARY
  5
BECB
330
BE1B
100
AcDbDictionary
280
     1
281
     1
  3
ACAD_XREC_ROUNDTRIP
360
BECC
  0
DICTIONARY
  5
BECD
330
BE1C
100
AcDbDictionary
280
     1
281
     1
  3
ACAD_XREC_ROUNDTRIP
360
BECE
  0
DICTIONARY
  5
BECF
330
BE1D
100
AcDbDictionary
280
     1
281
     1
  3
ACAD_XREC_ROUNDTRIP
360
BED0
  0
DICTIONARY
  5
BED1
330
BE1E
100
AcDbDictionary
280
     1
281
     1
  3
ACAD_XREC_ROUNDTRIP
360
BED2
  0
DICTIONARY
  5
BED9
330
BE22
100
AcDbDictionary
280
     1
281
     1
  3
ACAD_XREC_ROUNDTRIP
360
BEDA
  0
DICTIONARY
  5
BEF5
330
BE30
100
AcDbDictionary
280
     1
281
     1
  3
ACAD_XREC_ROUNDTRIP
360
BEF6
  0
DICTIONARY
  5
BEE5
330
BE28
100
AcDbDictionary
280
     1
281
     1
  3
ACAD_XREC_ROUNDTRIP
360
BEE6
  0
DICTIONARY
  5
BEF7
330
BE31
100
AcDbDictionary
280
     1
281
     1
  3
ACAD_XREC_ROUNDTRIP
360
BEF8
  0
DICTIONARY
  5
BEDD
330
BE24
100
AcDbDictionary
280
     1
281
     1
  3
ACAD_XREC_ROUNDTRIP
360
BEDE
  0
DICTIONARY
  5
BEF3
330
BE2F
100
AcDbDictionary
280
     1
281
     1
  3
ACAD_XREC_ROUNDTRIP
360
BEF4
  0
DICTIONARY
  5
BEF1
330
BE2E
100
AcDbDictionary
280
     1
281
     1
  3
ACAD_XREC_ROUNDTRIP
360
BEF2
  0
DICTIONARY
  5
BEEB
330
BE2B
100
AcDbDictionary
280
     1
281
     1
  3
ACAD_XREC_ROUNDTRIP
360
BEEC
  0
DICTIONARY
  5
BEED
330
BE2C
100
AcDbDictionary
280
     1
281
     1
  3
ACAD_XREC_ROUNDTRIP
360
BEEE
  0
DICTIONARY
  5
BEE3
330
BE27
100
AcDbDictionary
280
     1
281
     1
  3
ACAD_XREC_ROUNDTRIP
360
BEE4
  0
DICTIONARY
  5
BED7
330
BE21
100
AcDbDictionary
280
     1
281
     1
  3
ACAD_XREC_ROUNDTRIP
360
BED8
  0
DICTIONARY
  5
BEEF
330
BE2D
100
AcDbDictionary
280
     1
281
     1
  3
ACAD_XREC_ROUNDTRIP
360
BEF0
  0
XRECORD
  5
BF00
102
{ACAD_REACTORS
330
BEFF
102
}
330
BEFF
100
AcDbXrecord
280
     1
102
DISPLAYNAME
  1
Imperial24
102
FLAGS
 90
        0
  0
XRECORD
  5
BEC1
102
{ACAD_REACTORS
330
BEC0
102
}
330
BEC0
100
AcDbXrecord
280
     1
102
SHADEPLOT
 70
     0
102
SHADEPLOTRESLEVEL
 70
     2
102
SHADEPLOTCUSTOMDPI
 70
   300
  0
XRECORD
  5
BEC3
102
{ACAD_REACTORS
330
BEC2
102
}
330
BEC2
100
AcDbXrecord
280
     1
102
SHADEPLOT
 70
     0
102
SHADEPLOTRESLEVEL
 70
     2
102
SHADEPLOTCUSTOMDPI
 70
   300
  0
XRECORD
  5
BEC9
102
{ACAD_REACTORS
330
BE0B
102
}
330
BE0B
100
AcDbXrecord
280
     1
102
MATERIAL
148
0.0
149
0.0
149
0.0
 93
        0
 94
      127
282
     0
 72
     0
 77
     0
171
     0
175
     0
179
     0
273
     0
  0
XRECORD
  5
BE0D
102
{ACAD_REACTORS
330
BE0B
102
}
330
BE0B
100
AcDbXrecord
280
     1
270
     1
271
     1
  0
XRECORD
  5
BE0C
102
{ACAD_REACTORS
330
BE0B
102
}
330
BE0B
100
AcDbXrecord
280
     1
270
     1
271
     1
  0
XRECORD
  5
BE10
102
{ACAD_REACTORS
330
BE0B
102
}
330
BE0B
100
AcDbXrecord
280
     1
270
     1
271
     1
  0
XRECORD
  5
BE0F
102
{ACAD_REACTORS
330
BE0B
102
}
330
BE0B
100
AcDbXrecord
280
     1
270
     1
271
     1
  0
XRECORD
  5
BE11
102
{ACAD_REACTORS
330
BE0B
102
}
330
BE0B
100
AcDbXrecord
280
     1
270
     1
271
     1
  0
XRECORD
  5
BE0E
102
{ACAD_REACTORS
330
BE0B
102
}
330
BE0B
100
AcDbXrecord
280
     1
270
     1
271
     1
  0
XRECORD
  5
BEC8
102
{ACAD_REACTORS
330
BE03
102
}
330
BE03
100
AcDbXrecord
280
     1
102
MATERIAL
148
0.0
149
0.0
149
0.0
 93
        0
 94
      127
282
     0
 72
     0
 77
     0
171
     0
175
     0
179
     0
273
     0
  0
XRECORD
  5
BE05
102
{ACAD_REACTORS
330
BE03
102
}
330
BE03
100
AcDbXrecord
280
     1
270
     1
271
     1
  0
XRECORD
  5
BE04
102
{ACAD_REACTORS
330
BE03
102
}
330
BE03
100
AcDbXrecord
280
     1
270
     1
271
     1
  0
XRECORD
  5
BE08
102
{ACAD_REACTORS
330
BE03
102
}
330
BE03
100
AcDbXrecord
280
     1
270
     1
271
     1
  0
XRECORD
  5
BE07
102
{ACAD_REACTORS
330
BE03
102
}
330
BE03
100
AcDbXrecord
280
     1
270
     1
271
     1
  0
XRECORD
  5
BE09
102
{ACAD_REACTORS
330
BE03
102
}
330
BE03
100
AcDbXrecord
280
     1
270
     1
271
     1
  0
XRECORD
  5
BE06
102
{ACAD_REACTORS
330
BE03
102
}
330
BE03
100
AcDbXrecord
280
     1
270
     1
271
     1
  0
XRECORD
  5
BECA
102
{ACAD_REACTORS
330
BE13
102
}
330
BE13
100
AcDbXrecord
280
     1
102
MATERIAL
148
0.0
149
0.0
149
0.0
 93
        0
 94
      127
282
     0
 72
     0
 77
     0
171
     0
175
     0
179
     0
273
     0
  0
XRECORD
  5
BE15
102
{ACAD_REACTORS
330
BE13
102
}
330
BE13
100
AcDbXrecord
280
     1
270
     1
271
     1
  0
XRECORD
  5
BE14
102
{ACAD_REACTORS
330
BE13
102
}
330
BE13
100
AcDbXrecord
280
     1
270
     1
271
     1
  0
XRECORD
  5
BE18
102
{ACAD_REACTORS
330
BE13
102
}
330
BE13
100
AcDbXrecord
280
     1
270
     1
271
     1
  0
XRECORD
  5
BE17
102
{ACAD_REACTORS
330
BE13
102
}
330
BE13
100
AcDbXrecord
280
     1
270
     1
271
     1
  0
XRECORD
  5
BE19
102
{ACAD_REACTORS
330
BE13
102
}
330
BE13
100
AcDbXrecord
280
     1
270
     1
271
     1
  0
XRECORD
  5
BE16
102
{ACAD_REACTORS
330
BE13
102
}
330
BE13
100
AcDbXrecord
280
     1
270
     1
271
     1
  0
XRECORD
  5
BEFE
102
{ACAD_REACTORS
330
BEFD
102
}
330
BEFD
100
AcDbXrecord
280
     1
102
DISPLAYNAME
  1
Imperial24
102
FLAGS
 90
        0
  0
CELLSTYLEMAP
  5
BEBB
102
{ACAD_REACTORS
330
BEBA
102
}
330
BEBA
100
AcDbCellStyleMap
 90
        3
300
CELLSTYLE
  1
TABLEFORMAT_BEGIN
 90
        5
170
     1
 91
        0
 92
    32768
 62
   257
 93
        1
300
CONTENTFORMAT
  1
CONTENTFORMAT_BEGIN
 90
        0
 91
        0
 92
      512
 93
        0
300

 40
0.0
140
1.0
 94
        5
 62
     0
340
11
144
0.25
309
CONTENTFORMAT_END
171
     0
 94
        0
309
TABLEFORMAT_END
  1
CELLSTYLE_BEGIN
 90
        1
 91
        1
300
_TITLE
309
CELLSTYLE_END
300
CELLSTYLE
  1
TABLEFORMAT_BEGIN
 90
        5
170
     1
 91
        0
 92
        0
 62
   257
 93
        1
300
CONTENTFORMAT
  1
CONTENTFORMAT_BEGIN
 90
        0
 91
        0
 92
      512
 93
        0
300

 40
0.0
140
1.0
 94
        5
 62
     0
340
11
144
0.18
309
CONTENTFORMAT_END
171
     0
 94
        0
309
TABLEFORMAT_END
  1
CELLSTYLE_BEGIN
 90
        2
 91
        1
300
_HEADER
309
CELLSTYLE_END
300
CELLSTYLE
  1
TABLEFORMAT_BEGIN
 90
        5
170
     1
 91
        0
 92
        0
 62
   257
 93
        1
300
CONTENTFORMAT
  1
CONTENTFORMAT_BEGIN
 90
        0
 91
        0
 92
      512
 93
        0
300

 40
0.0
140
1.0
 94
        2
 62
     0
340
11
144
0.18
309
CONTENTFORMAT_END
171
     0
 94
        0
309
TABLEFORMAT_END
  1
CELLSTYLE_BEGIN
 90
        3
 91
        2
300
_DATA
309
CELLSTYLE_END
  0
XRECORD
  5
BEFB
102
{ACAD_REACTORS
330
BEBA
102
}
330
BEBA
100
AcDbXrecord
280
     1
102
ACAD_ROUNDTRIP_PRE2007_TABLESTYLE
 90
      512
 91
        0
  1

 92
      512
 93
        0
  2

 94
      512
 95
        0
  3

  0
XRECORD
  5
BED6
102
{ACAD_REACTORS
330
BED5
102
}
330
BED5
100
AcDbXrecord
280
     1
102
RTVSPost2010Prop28
280
     1
102
RTVSPost2010PropOp28
 70
     1
102
RTVSPost2010Prop29
280
     1
102
RTVSPost2010PropOp29
 70
     1
102
RTVSPost2010Prop30
280
     0
102
RTVSPost2010PropOp30
 70
     1
102
RTVSPost2010Prop31
280
     0
102
RTVSPost2010PropOp31
 70
     1
102
RTVSPost2010Prop32
280
     0
102
RTVSPost2010PropOp32
 70
     1
102
RTVSPost2010Prop33
280
     0
102
RTVSPost2010PropOp33
 70
     1
102
RTVSPost2010Prop34
280
     0
102
RTVSPost2010PropOp34
 70
     1
102
RTVSPost2010Prop35
280
     0
102
RTVSPost2010PropOp35
 70
     1
102
RTVSPost2010Prop36
280
     0
102
RTVSPost2010PropOp36
 70
     1
102
RTVSPost2010Prop37
 90
       50
102
RTVSPost2010PropOp37
 70
     1
102
RTVSPost2010Prop38
140
0.0
102
RTVSPost2010PropOp38
 70
     1
102
RTVSPost2010Prop39
140
1.0
102
RTVSPost2010PropOp39
 70
     1
102
RTVSPost2010Prop40
 90
        0
102
RTVSPost2010PropOp40
 70
     1
102
RTVSPost2010Prop41ColorIndex
 90
       18
102
RTVSPost2010Prop41ColorRGB
 90
        0
102
RTVSPost2010PropOp41
 70
     1
102
RTVSPost2010Prop42
 90
       50
102
RTVSPost2010PropOp42
 70
     1
102
RTVSPost2010Prop43
 90
        3
102
RTVSPost2010PropOp43
 70
     1
102
RTVSPost2010Prop44ColorIndex
 90
        5
102
RTVSPost2010Prop44ColorRGB
 90
      255
102
RTVSPost2010PropOp44
 70
     1
102
RTVSPost2010Prop45
280
     0
102
RTVSPost2010PropOp45
 70
     1
102
RTVSPost2010Prop46
 90
       50
102
RTVSPost2010PropOp46
 70
     1
102
RTVSPost2010Prop47
 90
       50
102
RTVSPost2010PropOp47
 70
     1
102
RTVSPost2010Prop48
 90
       50
102
RTVSPost2010PropOp48
 70
     1
102
RTVSPost2010Prop49
280
     0
102
RTVSPost2010PropOp49
 70
     1
102
RTVSPost2010Prop50
 90
       50
102
RTVSPost2010PropOp50
 70
     1
102
RTVSPost2010Prop51ColorIndex
 90
      256
102
RTVSPost2010Prop51ColorRGB
 90
-16777216
102
RTVSPost2010PropOp51
 70
     0
102
RTVSPost2010Prop52
140
1.0
102
RTVSPost2010PropOp52
 70
     0
102
RTVSPost2010Prop53
 90
        2
102
RTVSPost2010PropOp53
 70
     1
102
RTVSPost2010Prop54
  1
strokes_ogs.tif
102
RTVSPost2010PropOp54
 70
     1
102
RTVSPost2010Prop55
280
     0
102
RTVSPost2010PropOp55
 70
     1
102
RTVSPost2010Prop56
140
1.0
102
RTVSPost2010PropOp56
 70
     1
102
RTVSPost2010Prop57
140
1.0
102
RTVSPost2010PropOp57
 70
     1
102
RTVSPropertyOp0
 70
     1
102
RTVSPropertyOp1
 70
     1
102
RTVSPropertyOp2
 70
     1
102
RTVSPropertyOp3
 70
     1
102
RTVSPropertyOp4
 70
     1
102
RTVSPropertyOp5
 70
     1
102
RTVSPropertyOp6
 70
     1
102
RTVSPropertyOp7
 70
     1
102
RTVSPropertyOp8
 70
     1
102
RTVSPropertyOp9
 70
     1
102
RTVSPropertyOp10
 70
     1
102
RTVSPropertyOp11
 70
     1
102
RTVSPropertyOp12
 70
     1
102
RTVSPropertyOp13
 70
     1
102
RTVSPropertyOp14
 70
     1
102
RTVSPropertyOp15
 70
     1
102
RTVSPropertyOp16
 70
     1
102
RTVSPropertyOp17
 70
     1
102
RTVSPropertyOp18
 70
     1
102
RTVSPropertyOp19
 70
     1
102
RTVSPropertyOp20
 70
     1
102
RTVSPropertyOp21
 70
     1
102
RTVSPropertyOp22
 70
     1
102
RTVSPropertyOp23
 70
     1
102
RTVSPropertyOp24
 70
     1
102
RTVSPropertyOp25
 70
     1
102
RTVSPropertyOp26
 70
     1
102
RTVSPropertyOp27
 70
     1
102
RTVSPropertyOp28
 70
     1
102
RTVSPropertyOp29
 70
     1
102
RTVSPropertyOp30
 70
     1
102
RTVSPropertyOp31
 70
     1
102
RTVSPropertyOp32
 70
     1
102
RTVSPropertyOp33
 70
     1
102
RTVSPropertyOp34
 70
     1
102
RTVSPropertyOp35
 70
     1
102
RTVSPropertyOp36
 70
     1
102
RTVSPropertyOp37
 70
     1
102
RTVSPropertyOp38
 70
     1
102
RTVSPropertyOp39
 70
     1
102
RTVSPropertyOp40
 70
     1
102
RTVSPropertyOp41
 70
     1
102
RTVSPropertyOp42
 70
     1
102
RTVSPropertyOp43
 70
     1
102
RTVSPropertyOp44
 70
     1
102
RTVSPropertyOp45
 70
     1
102
RTVSPropertyOp46
 70
     1
102
RTVSPropertyOp47
 70
     1
102
RTVSPropertyOp48
 70
     1
102
RTVSPropertyOp49
 70
     1
102
RTVSPropertyOp50
 70
     1
102
RTVSPropertyOp51
 70
     0
102
RTVSPropertyOp52
 70
     0
102
RTVSPropertyOp53
 70
     1
102
RTVSPropertyOp54
 70
     1
102
RTVSPropertyOp55
 70
     1
102
RTVSPropertyOp56
 70
     1
102
RTVSPropertyOp57
 70
     1
102
RTVSPropertyOp58
 70
     1
102
RTVSPropertyOp59
 70
     1
102
RTVSPropertyOp60
 70
     1
102
RTVSPropertyOp61
 70
     1
102
RTVSPropertyOp62
 70
     1
  0
XRECORD
  5
BED4
102
{ACAD_REACTORS
330
BED3
102
}
330
BED3
100
AcDbXrecord
280
     1
102
RTVSPost2010Prop28
280
     0
102
RTVSPost2010PropOp28
 70
     1
102
RTVSPost2010Prop29
280
     1
102
RTVSPost2010PropOp29
 70
     1
102
RTVSPost2010Prop30
280
     1
102
RTVSPost2010PropOp30
 70
     1
102
RTVSPost2010Prop31
280
     0
102
RTVSPost2010PropOp31
 70
     1
102
RTVSPost2010Prop32
280
     0
102
RTVSPost2010PropOp32
 70
     1
102
RTVSPost2010Prop33
280
     0
102
RTVSPost2010PropOp33
 70
     1
102
RTVSPost2010Prop34
280
     0
102
RTVSPost2010PropOp34
 70
     1
102
RTVSPost2010Prop35
280
     0
102
RTVSPost2010PropOp35
 70
     1
102
RTVSPost2010Prop36
280
     0
102
RTVSPost2010PropOp36
 70
     1
102
RTVSPost2010Prop37
 90
       50
102
RTVSPost2010PropOp37
 70
     1
102
RTVSPost2010Prop38
140
0.0
102
RTVSPost2010PropOp38
 70
     1
102
RTVSPost2010Prop39
140
1.0
102
RTVSPost2010PropOp39
 70
     1
102
RTVSPost2010Prop40
 90
        0
102
RTVSPost2010PropOp40
 70
     1
102
RTVSPost2010Prop41ColorIndex
 90
       18
102
RTVSPost2010Prop41ColorRGB
 90
        0
102
RTVSPost2010PropOp41
 70
     1
102
RTVSPost2010Prop42
 90
       50
102
RTVSPost2010PropOp42
 70
     1
102
RTVSPost2010Prop43
 90
        3
102
RTVSPost2010PropOp43
 70
     1
102
RTVSPost2010Prop44ColorIndex
 90
        5
102
RTVSPost2010Prop44ColorRGB
 90
      255
102
RTVSPost2010PropOp44
 70
     1
102
RTVSPost2010Prop45
280
     0
102
RTVSPost2010PropOp45
 70
     1
102
RTVSPost2010Prop46
 90
       50
102
RTVSPost2010PropOp46
 70
     1
102
RTVSPost2010Prop47
 90
       50
102
RTVSPost2010PropOp47
 70
     1
102
RTVSPost2010Prop48
 90
       50
102
RTVSPost2010PropOp48
 70
     1
102
RTVSPost2010Prop49
280
     0
102
RTVSPost2010PropOp49
 70
     1
102
RTVSPost2010Prop50
 90
       50
102
RTVSPost2010PropOp50
 70
     1
102
RTVSPost2010Prop51ColorIndex
 90
      256
102
RTVSPost2010Prop51ColorRGB
 90
-16777216
102
RTVSPost2010PropOp51
 70
     0
102
RTVSPost2010Prop52
140
1.0
102
RTVSPost2010PropOp52
 70
     0
102
RTVSPost2010Prop53
 90
        2
102
RTVSPost2010PropOp53
 70
     1
102
RTVSPost2010Prop54
  1
strokes_ogs.tif
102
RTVSPost2010PropOp54
 70
     1
102
RTVSPost2010Prop55
280
     0
102
RTVSPost2010PropOp55
 70
     1
102
RTVSPost2010Prop56
140
1.0
102
RTVSPost2010PropOp56
 70
     1
102
RTVSPost2010Prop57
140
1.0
102
RTVSPost2010PropOp57
 70
     1
102
RTVSPropertyOp0
 70
     1
102
RTVSPropertyOp1
 70
     1
102
RTVSPropertyOp2
 70
     1
102
RTVSPropertyOp3
 70
     1
102
RTVSPropertyOp4
 70
     1
102
RTVSPropertyOp5
 70
     1
102
RTVSPropertyOp6
 70
     1
102
RTVSPropertyOp7
 70
     1
102
RTVSPropertyOp8
 70
     1
102
RTVSPropertyOp9
 70
     1
102
RTVSPropertyOp10
 70
     1
102
RTVSPropertyOp11
 70
     1
102
RTVSPropertyOp12
 70
     1
102
RTVSPropertyOp13
 70
     1
102
RTVSPropertyOp14
 70
     1
102
RTVSPropertyOp15
 70
     1
102
RTVSPropertyOp16
 70
     1
102
RTVSPropertyOp17
 70
     1
102
RTVSPropertyOp18
 70
     1
102
RTVSPropertyOp19
 70
     1
102
RTVSPropertyOp20
 70
     1
102
RTVSPropertyOp21
 70
     1
102
RTVSPropertyOp22
 70
     1
102
RTVSPropertyOp23
 70
     1
102
RTVSPropertyOp24
 70
     1
102
RTVSPropertyOp25
 70
     1
102
RTVSPropertyOp26
 70
     1
102
RTVSPropertyOp27
 70
     1
102
RTVSPropertyOp28
 70
     1
102
RTVSPropertyOp29
 70
     1
102
RTVSPropertyOp30
 70
     1
102
RTVSPropertyOp31
 70
     1
102
RTVSPropertyOp32
 70
     1
102
RTVSPropertyOp33
 70
     1
102
RTVSPropertyOp34
 70
     1
102
RTVSPropertyOp35
 70
     1
102
RTVSPropertyOp36
 70
     1
102
RTVSPropertyOp37
 70
     1
102
RTVSPropertyOp38
 70
     1
102
RTVSPropertyOp39
 70
     1
102
RTVSPropertyOp40
 70
     1
102
RTVSPropertyOp41
 70
     1
102
RTVSPropertyOp42
 70
     1
102
RTVSPropertyOp43
 70
     1
102
RTVSPropertyOp44
 70
     1
102
RTVSPropertyOp45
 70
     1
102
RTVSPropertyOp46
 70
     1
102
RTVSPropertyOp47
 70
     1
102
RTVSPropertyOp48
 70
     1
102
RTVSPropertyOp49
 70
     1
102
RTVSPropertyOp50
 70
     1
102
RTVSPropertyOp51
 70
     0
102
RTVSPropertyOp52
 70
     0
102
RTVSPropertyOp53
 70
     1
102
RTVSPropertyOp54
 70
     1
102
RTVSPropertyOp55
 70
     1
102
RTVSPropertyOp56
 70
     1
102
RTVSPropertyOp57
 70
     1
102
RTVSPropertyOp58
 70
     1
102
RTVSPropertyOp59
 70
     1
102
RTVSPropertyOp60
 70
     1
102
RTVSPropertyOp61
 70
     1
102
RTVSPropertyOp62
 70
     1
  0
XRECORD
  5
BEE2
102
{ACAD_REACTORS
330
BEE1
102
}
330
BEE1
100
AcDbXrecord
280
     1
102
RTVSPost2010Prop28
280
     0
102
RTVSPost2010PropOp28
 70
     1
102
RTVSPost2010Prop29
280
     1
102
RTVSPost2010PropOp29
 70
     1
102
RTVSPost2010Prop30
280
     1
102
RTVSPost2010PropOp30
 70
     1
102
RTVSPost2010Prop31
280
     0
102
RTVSPost2010PropOp31
 70
     1
102
RTVSPost2010Prop32
280
     0
102
RTVSPost2010PropOp32
 70
     1
102
RTVSPost2010Prop33
280
     0
102
RTVSPost2010PropOp33
 70
     1
102
RTVSPost2010Prop34
280
     0
102
RTVSPost2010PropOp34
 70
     1
102
RTVSPost2010Prop35
280
     0
102
RTVSPost2010PropOp35
 70
     1
102
RTVSPost2010Prop36
280
     0
102
RTVSPost2010PropOp36
 70
     1
102
RTVSPost2010Prop37
 90
       50
102
RTVSPost2010PropOp37
 70
     1
102
RTVSPost2010Prop38
140
0.0
102
RTVSPost2010PropOp38
 70
     1
102
RTVSPost2010Prop39
140
1.0
102
RTVSPost2010PropOp39
 70
     1
102
RTVSPost2010Prop40
 90
        0
102
RTVSPost2010PropOp40
 70
     1
102
RTVSPost2010Prop41ColorIndex
 90
       18
102
RTVSPost2010Prop41ColorRGB
 90
        0
102
RTVSPost2010PropOp41
 70
     1
102
RTVSPost2010Prop42
 90
       50
102
RTVSPost2010PropOp42
 70
     1
102
RTVSPost2010Prop43
 90
        3
102
RTVSPost2010PropOp43
 70
     1
102
RTVSPost2010Prop44ColorIndex
 90
        5
102
RTVSPost2010Prop44ColorRGB
 90
      255
102
RTVSPost2010PropOp44
 70
     1
102
RTVSPost2010Prop45
280
     0
102
RTVSPost2010PropOp45
 70
     1
102
RTVSPost2010Prop46
 90
       50
102
RTVSPost2010PropOp46
 70
     1
102
RTVSPost2010Prop47
 90
       50
102
RTVSPost2010PropOp47
 70
     1
102
RTVSPost2010Prop48
 90
       50
102
RTVSPost2010PropOp48
 70
     1
102
RTVSPost2010Prop49
280
     0
102
RTVSPost2010PropOp49
 70
     1
102
RTVSPost2010Prop50
 90
       50
102
RTVSPost2010PropOp50
 70
     1
102
RTVSPost2010Prop51ColorIndex
 90
      256
102
RTVSPost2010Prop51ColorRGB
 90
-16777216
102
RTVSPost2010PropOp51
 70
     0
102
RTVSPost2010Prop52
140
1.0
102
RTVSPost2010PropOp52
 70
     0
102
RTVSPost2010Prop53
 90
        2
102
RTVSPost2010PropOp53
 70
     1
102
RTVSPost2010Prop54
  1
strokes_ogs.tif
102
RTVSPost2010PropOp54
 70
     1
102
RTVSPost2010Prop55
280
     0
102
RTVSPost2010PropOp55
 70
     1
102
RTVSPost2010Prop56
140
1.0
102
RTVSPost2010PropOp56
 70
     1
102
RTVSPost2010Prop57
140
1.0
102
RTVSPost2010PropOp57
 70
     1
102
RTVSPropertyOp0
 70
     1
102
RTVSPropertyOp1
 70
     1
102
RTVSPropertyOp2
 70
     1
102
RTVSPropertyOp3
 70
     1
102
RTVSPropertyOp4
 70
     1
102
RTVSPropertyOp5
 70
     1
102
RTVSPropertyOp6
 70
     1
102
RTVSPropertyOp7
 70
     1
102
RTVSPropertyOp8
 70
     1
102
RTVSPropertyOp9
 70
     1
102
RTVSPropertyOp10
 70
     1
102
RTVSPropertyOp11
 70
     1
102
RTVSPropertyOp12
 70
     1
102
RTVSPropertyOp13
 70
     1
102
RTVSPropertyOp14
 70
     1
102
RTVSPropertyOp15
 70
     1
102
RTVSPropertyOp16
 70
     1
102
RTVSPropertyOp17
 70
     1
102
RTVSPropertyOp18
 70
     1
102
RTVSPropertyOp19
 70
     1
102
RTVSPropertyOp20
 70
     1
102
RTVSPropertyOp21
 70
     1
102
RTVSPropertyOp22
 70
     1
102
RTVSPropertyOp23
 70
     1
102
RTVSPropertyOp24
 70
     1
102
RTVSPropertyOp25
 70
     1
102
RTVSPropertyOp26
 70
     1
102
RTVSPropertyOp27
 70
     1
102
RTVSPropertyOp28
 70
     1
102
RTVSPropertyOp29
 70
     1
102
RTVSPropertyOp30
 70
     1
102
RTVSPropertyOp31
 70
     1
102
RTVSPropertyOp32
 70
     1
102
RTVSPropertyOp33
 70
     1
102
RTVSPropertyOp34
 70
     1
102
RTVSPropertyOp35
 70
     1
102
RTVSPropertyOp36
 70
     1
102
RTVSPropertyOp37
 70
     1
102
RTVSPropertyOp38
 70
     1
102
RTVSPropertyOp39
 70
     1
102
RTVSPropertyOp40
 70
     1
102
RTVSPropertyOp41
 70
     1
102
RTVSPropertyOp42
 70
     1
102
RTVSPropertyOp43
 70
     1
102
RTVSPropertyOp44
 70
     1
102
RTVSPropertyOp45
 70
     1
102
RTVSPropertyOp46
 70
     1
102
RTVSPropertyOp47
 70
     1
102
RTVSPropertyOp48
 70
     1
102
RTVSPropertyOp49
 70
     1
102
RTVSPropertyOp50
 70
     1
102
RTVSPropertyOp51
 70
     0
102
RTVSPropertyOp52
 70
     0
102
RTVSPropertyOp53
 70
     1
102
RTVSPropertyOp54
 70
     1
102
RTVSPropertyOp55
 70
     1
102
RTVSPropertyOp56
 70
     1
102
RTVSPropertyOp57
 70
     1
102
RTVSPropertyOp58
 70
     1
102
RTVSPropertyOp59
 70
     1
102
RTVSPropertyOp60
 70
     1
102
RTVSPropertyOp61
 70
     1
102
RTVSPropertyOp62
 70
     1
  0
XRECORD
  5
BEEA
102
{ACAD_REACTORS
330
BEE9
102
}
330
BEE9
100
AcDbXrecord
280
     1
102
RTVSPost2010Prop28
280
     0
102
RTVSPost2010PropOp28
 70
     1
102
RTVSPost2010Prop29
280
     1
102
RTVSPost2010PropOp29
 70
     1
102
RTVSPost2010Prop30
280
     1
102
RTVSPost2010PropOp30
 70
     1
102
RTVSPost2010Prop31
280
     0
102
RTVSPost2010PropOp31
 70
     1
102
RTVSPost2010Prop32
280
     0
102
RTVSPost2010PropOp32
 70
     1
102
RTVSPost2010Prop33
280
     0
102
RTVSPost2010PropOp33
 70
     1
102
RTVSPost2010Prop34
280
     0
102
RTVSPost2010PropOp34
 70
     1
102
RTVSPost2010Prop35
280
     0
102
RTVSPost2010PropOp35
 70
     1
102
RTVSPost2010Prop36
280
     0
102
RTVSPost2010PropOp36
 70
     1
102
RTVSPost2010Prop37
 90
       50
102
RTVSPost2010PropOp37
 70
     1
102
RTVSPost2010Prop38
140
0.0
102
RTVSPost2010PropOp38
 70
     1
102
RTVSPost2010Prop39
140
1.0
102
RTVSPost2010PropOp39
 70
     1
102
RTVSPost2010Prop40
 90
        0
102
RTVSPost2010PropOp40
 70
     1
102
RTVSPost2010Prop41ColorIndex
 90
       18
102
RTVSPost2010Prop41ColorRGB
 90
        0
102
RTVSPost2010PropOp41
 70
     1
102
RTVSPost2010Prop42
 90
       50
102
RTVSPost2010PropOp42
 70
     1
102
RTVSPost2010Prop43
 90
        3
102
RTVSPost2010PropOp43
 70
     1
102
RTVSPost2010Prop44ColorIndex
 90
        5
102
RTVSPost2010Prop44ColorRGB
 90
      255
102
RTVSPost2010PropOp44
 70
     1
102
RTVSPost2010Prop45
280
     0
102
RTVSPost2010PropOp45
 70
     1
102
RTVSPost2010Prop46
 90
       50
102
RTVSPost2010PropOp46
 70
     1
102
RTVSPost2010Prop47
 90
       50
102
RTVSPost2010PropOp47
 70
     1
102
RTVSPost2010Prop48
 90
       50
102
RTVSPost2010PropOp48
 70
     1
102
RTVSPost2010Prop49
280
     0
102
RTVSPost2010PropOp49
 70
     1
102
RTVSPost2010Prop50
 90
       50
102
RTVSPost2010PropOp50
 70
     1
102
RTVSPost2010Prop51ColorIndex
 90
      256
102
RTVSPost2010Prop51ColorRGB
 90
-16777216
102
RTVSPost2010PropOp51
 70
     0
102
RTVSPost2010Prop52
140
1.0
102
RTVSPost2010PropOp52
 70
     0
102
RTVSPost2010Prop53
 90
        2
102
RTVSPost2010PropOp53
 70
     1
102
RTVSPost2010Prop54
  1
strokes_ogs.tif
102
RTVSPost2010PropOp54
 70
     1
102
RTVSPost2010Prop55
280
     0
102
RTVSPost2010PropOp55
 70
     1
102
RTVSPost2010Prop56
140
1.0
102
RTVSPost2010PropOp56
 70
     1
102
RTVSPost2010Prop57
140
1.0
102
RTVSPost2010PropOp57
 70
     1
102
RTVSPropertyOp0
 70
     1
102
RTVSPropertyOp1
 70
     1
102
RTVSPropertyOp2
 70
     1
102
RTVSPropertyOp3
 70
     1
102
RTVSPropertyOp4
 70
     1
102
RTVSPropertyOp5
 70
     1
102
RTVSPropertyOp6
 70
     1
102
RTVSPropertyOp7
 70
     1
102
RTVSPropertyOp8
 70
     1
102
RTVSPropertyOp9
 70
     1
102
RTVSPropertyOp10
 70
     1
102
RTVSPropertyOp11
 70
     1
102
RTVSPropertyOp12
 70
     1
102
RTVSPropertyOp13
 70
     1
102
RTVSPropertyOp14
 70
     1
102
RTVSPropertyOp15
 70
     1
102
RTVSPropertyOp16
 70
     1
102
RTVSPropertyOp17
 70
     1
102
RTVSPropertyOp18
 70
     1
102
RTVSPropertyOp19
 70
     1
102
RTVSPropertyOp20
 70
     1
102
RTVSPropertyOp21
 70
     1
102
RTVSPropertyOp22
 70
     1
102
RTVSPropertyOp23
 70
     1
102
RTVSPropertyOp24
 70
     1
102
RTVSPropertyOp25
 70
     1
102
RTVSPropertyOp26
 70
     1
102
RTVSPropertyOp27
 70
     1
102
RTVSPropertyOp28
 70
     1
102
RTVSPropertyOp29
 70
     1
102
RTVSPropertyOp30
 70
     1
102
RTVSPropertyOp31
 70
     1
102
RTVSPropertyOp32
 70
     1
102
RTVSPropertyOp33
 70
     1
102
RTVSPropertyOp34
 70
     1
102
RTVSPropertyOp35
 70
     1
102
RTVSPropertyOp36
 70
     1
102
RTVSPropertyOp37
 70
     1
102
RTVSPropertyOp38
 70
     1
102
RTVSPropertyOp39
 70
     1
102
RTVSPropertyOp40
 70
     1
102
RTVSPropertyOp41
 70
     1
102
RTVSPropertyOp42
 70
     1
102
RTVSPropertyOp43
 70
     1
102
RTVSPropertyOp44
 70
     1
102
RTVSPropertyOp45
 70
     1
102
RTVSPropertyOp46
 70
     1
102
RTVSPropertyOp47
 70
     1
102
RTVSPropertyOp48
 70
     1
102
RTVSPropertyOp49
 70
     1
102
RTVSPropertyOp50
 70
     1
102
RTVSPropertyOp51
 70
     0
102
RTVSPropertyOp52
 70
     0
102
RTVSPropertyOp53
 70
     1
102
RTVSPropertyOp54
 70
     1
102
RTVSPropertyOp55
 70
     1
102
RTVSPropertyOp56
 70
     1
102
RTVSPropertyOp57
 70
     1
102
RTVSPropertyOp58
 70
     1
102
RTVSPropertyOp59
 70
     1
102
RTVSPropertyOp60
 70
     1
102
RTVSPropertyOp61
 70
     1
102
RTVSPropertyOp62
 70
     1
  0
XRECORD
  5
BEDC
102
{ACAD_REACTORS
330
BEDB
102
}
330
BEDB
100
AcDbXrecord
280
     1
102
RTVSPost2010Prop28
280
     0
102
RTVSPost2010PropOp28
 70
     1
102
RTVSPost2010Prop29
280
     1
102
RTVSPost2010PropOp29
 70
     1
102
RTVSPost2010Prop30
280
     1
102
RTVSPost2010PropOp30
 70
     1
102
RTVSPost2010Prop31
280
     0
102
RTVSPost2010PropOp31
 70
     1
102
RTVSPost2010Prop32
280
     0
102
RTVSPost2010PropOp32
 70
     1
102
RTVSPost2010Prop33
280
     0
102
RTVSPost2010PropOp33
 70
     1
102
RTVSPost2010Prop34
280
     0
102
RTVSPost2010PropOp34
 70
     1
102
RTVSPost2010Prop35
280
     0
102
RTVSPost2010PropOp35
 70
     1
102
RTVSPost2010Prop36
280
     0
102
RTVSPost2010PropOp36
 70
     1
102
RTVSPost2010Prop37
 90
       50
102
RTVSPost2010PropOp37
 70
     1
102
RTVSPost2010Prop38
140
0.0
102
RTVSPost2010PropOp38
 70
     1
102
RTVSPost2010Prop39
140
1.0
102
RTVSPost2010PropOp39
 70
     1
102
RTVSPost2010Prop40
 90
        0
102
RTVSPost2010PropOp40
 70
     1
102
RTVSPost2010Prop41ColorIndex
 90
       18
102
RTVSPost2010Prop41ColorRGB
 90
        0
102
RTVSPost2010PropOp41
 70
     1
102
RTVSPost2010Prop42
 90
       50
102
RTVSPost2010PropOp42
 70
     1
102
RTVSPost2010Prop43
 90
        3
102
RTVSPost2010PropOp43
 70
     1
102
RTVSPost2010Prop44ColorIndex
 90
        5
102
RTVSPost2010Prop44ColorRGB
 90
      255
102
RTVSPost2010PropOp44
 70
     1
102
RTVSPost2010Prop45
280
     0
102
RTVSPost2010PropOp45
 70
     1
102
RTVSPost2010Prop46
 90
       50
102
RTVSPost2010PropOp46
 70
     1
102
RTVSPost2010Prop47
 90
       50
102
RTVSPost2010PropOp47
 70
     1
102
RTVSPost2010Prop48
 90
       50
102
RTVSPost2010PropOp48
 70
     1
102
RTVSPost2010Prop49
280
     0
102
RTVSPost2010PropOp49
 70
     1
102
RTVSPost2010Prop50
 90
       50
102
RTVSPost2010PropOp50
 70
     1
102
RTVSPost2010Prop51ColorIndex
 90
      256
102
RTVSPost2010Prop51ColorRGB
 90
-16777216
102
RTVSPost2010PropOp51
 70
     0
102
RTVSPost2010Prop52
140
1.0
102
RTVSPost2010PropOp52
 70
     0
102
RTVSPost2010Prop53
 90
        2
102
RTVSPost2010PropOp53
 70
     1
102
RTVSPost2010Prop54
  1
strokes_ogs.tif
102
RTVSPost2010PropOp54
 70
     1
102
RTVSPost2010Prop55
280
     0
102
RTVSPost2010PropOp55
 70
     1
102
RTVSPost2010Prop56
140
1.0
102
RTVSPost2010PropOp56
 70
     1
102
RTVSPost2010Prop57
140
1.0
102
RTVSPost2010PropOp57
 70
     1
102
RTVSPropertyOp0
 70
     1
102
RTVSPropertyOp1
 70
     1
102
RTVSPropertyOp2
 70
     1
102
RTVSPropertyOp3
 70
     1
102
RTVSPropertyOp4
 70
     1
102
RTVSPropertyOp5
 70
     1
102
RTVSPropertyOp6
 70
     1
102
RTVSPropertyOp7
 70
     1
102
RTVSPropertyOp8
 70
     1
102
RTVSPropertyOp9
 70
     1
102
RTVSPropertyOp10
 70
     1
102
RTVSPropertyOp11
 70
     1
102
RTVSPropertyOp12
 70
     1
102
RTVSPropertyOp13
 70
     1
102
RTVSPropertyOp14
 70
     1
102
RTVSPropertyOp15
 70
     1
102
RTVSPropertyOp16
 70
     1
102
RTVSPropertyOp17
 70
     1
102
RTVSPropertyOp18
 70
     1
102
RTVSPropertyOp19
 70
     1
102
RTVSPropertyOp20
 70
     1
102
RTVSPropertyOp21
 70
     1
102
RTVSPropertyOp22
 70
     1
102
RTVSPropertyOp23
 70
     1
102
RTVSPropertyOp24
 70
     1
102
RTVSPropertyOp25
 70
     1
102
RTVSPropertyOp26
 70
     1
102
RTVSPropertyOp27
 70
     1
102
RTVSPropertyOp28
 70
     1
102
RTVSPropertyOp29
 70
     1
102
RTVSPropertyOp30
 70
     1
102
RTVSPropertyOp31
 70
     1
102
RTVSPropertyOp32
 70
     1
102
RTVSPropertyOp33
 70
     1
102
RTVSPropertyOp34
 70
     1
102
RTVSPropertyOp35
 70
     1
102
RTVSPropertyOp36
 70
     1
102
RTVSPropertyOp37
 70
     1
102
RTVSPropertyOp38
 70
     1
102
RTVSPropertyOp39
 70
     1
102
RTVSPropertyOp40
 70
     1
102
RTVSPropertyOp41
 70
     1
102
RTVSPropertyOp42
 70
     1
102
RTVSPropertyOp43
 70
     1
102
RTVSPropertyOp44
 70
     1
102
RTVSPropertyOp45
 70
     1
102
RTVSPropertyOp46
 70
     1
102
RTVSPropertyOp47
 70
     1
102
RTVSPropertyOp48
 70
     1
102
RTVSPropertyOp49
 70
     1
102
RTVSPropertyOp50
 70
     1
102
RTVSPropertyOp51
 70
     0
102
RTVSPropertyOp52
 70
     0
102
RTVSPropertyOp53
 70
     1
102
RTVSPropertyOp54
 70
     1
102
RTVSPropertyOp55
 70
     1
102
RTVSPropertyOp56
 70
     1
102
RTVSPropertyOp57
 70
     1
102
RTVSPropertyOp58
 70
     1
102
RTVSPropertyOp59
 70
     1
102
RTVSPropertyOp60
 70
     1
102
RTVSPropertyOp61
 70
     1
102
RTVSPropertyOp62
 70
     1
  0
XRECORD
  5
BEE0
102
{ACAD_REACTORS
330
BEDF
102
}
330
BEDF
100
AcDbXrecord
280
     1
102
RTVSPost2010Prop28
280
     0
102
RTVSPost2010PropOp28
 70
     1
102
RTVSPost2010Prop29
280
     1
102
RTVSPost2010PropOp29
 70
     1
102
RTVSPost2010Prop30
280
     1
102
RTVSPost2010PropOp30
 70
     1
102
RTVSPost2010Prop31
280
     0
102
RTVSPost2010PropOp31
 70
     1
102
RTVSPost2010Prop32
280
     0
102
RTVSPost2010PropOp32
 70
     1
102
RTVSPost2010Prop33
280
     0
102
RTVSPost2010PropOp33
 70
     1
102
RTVSPost2010Prop34
280
     0
102
RTVSPost2010PropOp34
 70
     1
102
RTVSPost2010Prop35
280
     0
102
RTVSPost2010PropOp35
 70
     1
102
RTVSPost2010Prop36
280
     0
102
RTVSPost2010PropOp36
 70
     1
102
RTVSPost2010Prop37
 90
       50
102
RTVSPost2010PropOp37
 70
     1
102
RTVSPost2010Prop38
140
0.0
102
RTVSPost2010PropOp38
 70
     1
102
RTVSPost2010Prop39
140
1.0
102
RTVSPost2010PropOp39
 70
     1
102
RTVSPost2010Prop40
 90
        0
102
RTVSPost2010PropOp40
 70
     1
102
RTVSPost2010Prop41ColorIndex
 90
       18
102
RTVSPost2010Prop41ColorRGB
 90
        0
102
RTVSPost2010PropOp41
 70
     1
102
RTVSPost2010Prop42
 90
       50
102
RTVSPost2010PropOp42
 70
     1
102
RTVSPost2010Prop43
 90
        3
102
RTVSPost2010PropOp43
 70
     1
102
RTVSPost2010Prop44ColorIndex
 90
        5
102
RTVSPost2010Prop44ColorRGB
 90
      255
102
RTVSPost2010PropOp44
 70
     1
102
RTVSPost2010Prop45
280
     0
102
RTVSPost2010PropOp45
 70
     1
102
RTVSPost2010Prop46
 90
       50
102
RTVSPost2010PropOp46
 70
     1
102
RTVSPost2010Prop47
 90
       50
102
RTVSPost2010PropOp47
 70
     1
102
RTVSPost2010Prop48
 90
       50
102
RTVSPost2010PropOp48
 70
     1
102
RTVSPost2010Prop49
280
     0
102
RTVSPost2010PropOp49
 70
     1
102
RTVSPost2010Prop50
 90
       50
102
RTVSPost2010PropOp50
 70
     1
102
RTVSPost2010Prop51ColorIndex
 90
      256
102
RTVSPost2010Prop51ColorRGB
 90
-16777216
102
RTVSPost2010PropOp51
 70
     0
102
RTVSPost2010Prop52
140
1.0
102
RTVSPost2010PropOp52
 70
     0
102
RTVSPost2010Prop53
 90
        2
102
RTVSPost2010PropOp53
 70
     1
102
RTVSPost2010Prop54
  1
strokes_ogs.tif
102
RTVSPost2010PropOp54
 70
     1
102
RTVSPost2010Prop55
280
     0
102
RTVSPost2010PropOp55
 70
     1
102
RTVSPost2010Prop56
140
1.0
102
RTVSPost2010PropOp56
 70
     1
102
RTVSPost2010Prop57
140
1.0
102
RTVSPost2010PropOp57
 70
     1
102
RTVSPropertyOp0
 70
     1
102
RTVSPropertyOp1
 70
     1
102
RTVSPropertyOp2
 70
     1
102
RTVSPropertyOp3
 70
     1
102
RTVSPropertyOp4
 70
     1
102
RTVSPropertyOp5
 70
     1
102
RTVSPropertyOp6
 70
     1
102
RTVSPropertyOp7
 70
     1
102
RTVSPropertyOp8
 70
     1
102
RTVSPropertyOp9
 70
     1
102
RTVSPropertyOp10
 70
     1
102
RTVSPropertyOp11
 70
     1
102
RTVSPropertyOp12
 70
     1
102
RTVSPropertyOp13
 70
     1
102
RTVSPropertyOp14
 70
     1
102
RTVSPropertyOp15
 70
     1
102
RTVSPropertyOp16
 70
     1
102
RTVSPropertyOp17
 70
     1
102
RTVSPropertyOp18
 70
     1
102
RTVSPropertyOp19
 70
     1
102
RTVSPropertyOp20
 70
     1
102
RTVSPropertyOp21
 70
     1
102
RTVSPropertyOp22
 70
     1
102
RTVSPropertyOp23
 70
     1
102
RTVSPropertyOp24
 70
     1
102
RTVSPropertyOp25
 70
     1
102
RTVSPropertyOp26
 70
     1
102
RTVSPropertyOp27
 70
     1
102
RTVSPropertyOp28
 70
     1
102
RTVSPropertyOp29
 70
     1
102
RTVSPropertyOp30
 70
     1
102
RTVSPropertyOp31
 70
     1
102
RTVSPropertyOp32
 70
     1
102
RTVSPropertyOp33
 70
     1
102
RTVSPropertyOp34
 70
     1
102
RTVSPropertyOp35
 70
     1
102
RTVSPropertyOp36
 70
     1
102
RTVSPropertyOp37
 70
     1
102
RTVSPropertyOp38
 70
     1
102
RTVSPropertyOp39
 70
     1
102
RTVSPropertyOp40
 70
     1
102
RTVSPropertyOp41
 70
     1
102
RTVSPropertyOp42
 70
     1
102
RTVSPropertyOp43
 70
     1
102
RTVSPropertyOp44
 70
     1
102
RTVSPropertyOp45
 70
     1
102
RTVSPropertyOp46
 70
     1
102
RTVSPropertyOp47
 70
     1
102
RTVSPropertyOp48
 70
     1
102
RTVSPropertyOp49
 70
     1
102
RTVSPropertyOp50
 70
     1
102
RTVSPropertyOp51
 70
     0
102
RTVSPropertyOp52
 70
     0
102
RTVSPropertyOp53
 70
     1
102
RTVSPropertyOp54
 70
     1
102
RTVSPropertyOp55
 70
     1
102
RTVSPropertyOp56
 70
     1
102
RTVSPropertyOp57
 70
     1
102
RTVSPropertyOp58
 70
     1
102
RTVSPropertyOp59
 70
     1
102
RTVSPropertyOp60
 70
     1
102
RTVSPropertyOp61
 70
     1
102
RTVSPropertyOp62
 70
     1
  0
XRECORD
  5
BEFA
102
{ACAD_REACTORS
330
BEF9
102
}
330
BEF9
100
AcDbXrecord
280
     1
102
RTVSPost2010Prop28
280
     0
102
RTVSPost2010PropOp28
 70
     1
102
RTVSPost2010Prop29
280
     1
102
RTVSPost2010PropOp29
 70
     1
102
RTVSPost2010Prop30
280
     1
102
RTVSPost2010PropOp30
 70
     1
102
RTVSPost2010Prop31
280
     0
102
RTVSPost2010PropOp31
 70
     1
102
RTVSPost2010Prop32
280
     0
102
RTVSPost2010PropOp32
 70
     1
102
RTVSPost2010Prop33
280
     0
102
RTVSPost2010PropOp33
 70
     1
102
RTVSPost2010Prop34
280
     0
102
RTVSPost2010PropOp34
 70
     1
102
RTVSPost2010Prop35
280
     0
102
RTVSPost2010PropOp35
 70
     1
102
RTVSPost2010Prop36
280
     0
102
RTVSPost2010PropOp36
 70
     1
102
RTVSPost2010Prop37
 90
       50
102
RTVSPost2010PropOp37
 70
     0
102
RTVSPost2010Prop38
140
0.0
102
RTVSPost2010PropOp38
 70
     0
102
RTVSPost2010Prop39
140
1.0
102
RTVSPost2010PropOp39
 70
     0
102
RTVSPost2010Prop40
 90
        0
102
RTVSPost2010PropOp40
 70
     0
102
RTVSPost2010Prop41ColorIndex
 90
       18
102
RTVSPost2010Prop41ColorRGB
 90
        0
102
RTVSPost2010PropOp41
 70
     0
102
RTVSPost2010Prop42
 90
       50
102
RTVSPost2010PropOp42
 70
     0
102
RTVSPost2010Prop43
 90
        3
102
RTVSPost2010PropOp43
 70
     0
102
RTVSPost2010Prop44ColorIndex
 90
        5
102
RTVSPost2010Prop44ColorRGB
 90
      255
102
RTVSPost2010PropOp44
 70
     0
102
RTVSPost2010Prop45
280
     0
102
RTVSPost2010PropOp45
 70
     1
102
RTVSPost2010Prop46
 90
       50
102
RTVSPost2010PropOp46
 70
     0
102
RTVSPost2010Prop47
 90
       50
102
RTVSPost2010PropOp47
 70
     0
102
RTVSPost2010Prop48
 90
       50
102
RTVSPost2010PropOp48
 70
     0
102
RTVSPost2010Prop49
280
     0
102
RTVSPost2010PropOp49
 70
     1
102
RTVSPost2010Prop50
 90
       50
102
RTVSPost2010PropOp50
 70
     0
102
RTVSPost2010Prop51ColorIndex
 90
      256
102
RTVSPost2010Prop51ColorRGB
 90
-16777216
102
RTVSPost2010PropOp51
 70
     0
102
RTVSPost2010Prop52
140
1.0
102
RTVSPost2010PropOp52
 70
     0
102
RTVSPost2010Prop53
 90
        2
102
RTVSPost2010PropOp53
 70
     0
102
RTVSPost2010Prop54
  1
strokes_ogs.tif
102
RTVSPost2010PropOp54
 70
     0
102
RTVSPost2010Prop55
280
     0
102
RTVSPost2010PropOp55
 70
     1
102
RTVSPost2010Prop56
140
1.0
102
RTVSPost2010PropOp56
 70
     0
102
RTVSPost2010Prop57
140
1.0
102
RTVSPost2010PropOp57
 70
     0
102
RTVSPropertyOp0
 70
     0
102
RTVSPropertyOp1
 70
     0
102
RTVSPropertyOp2
 70
     0
102
RTVSPropertyOp3
 70
     0
102
RTVSPropertyOp4
 70
     0
102
RTVSPropertyOp5
 70
     0
102
RTVSPropertyOp6
 70
     0
102
RTVSPropertyOp7
 70
     0
102
RTVSPropertyOp8
 70
     0
102
RTVSPropertyOp9
 70
     0
102
RTVSPropertyOp10
 70
     0
102
RTVSPropertyOp11
 70
     0
102
RTVSPropertyOp12
 70
     0
102
RTVSPropertyOp13
 70
     0
102
RTVSPropertyOp14
 70
     2
102
RTVSPropertyOp15
 70
     0
102
RTVSPropertyOp16
 70
     0
102
RTVSPropertyOp17
 70
     0
102
RTVSPropertyOp18
 70
     0
102
RTVSPropertyOp19
 70
     0
102
RTVSPropertyOp20
 70
     0
102
RTVSPropertyOp21
 70
     0
102
RTVSPropertyOp22
 70
     0
102
RTVSPropertyOp23
 70
     0
102
RTVSPropertyOp24
 70
     0
102
RTVSPropertyOp25
 70
     0
102
RTVSPropertyOp26
 70
     0
102
RTVSPropertyOp27
 70
     0
102
RTVSPropertyOp28
 70
     1
102
RTVSPropertyOp29
 70
     1
102
RTVSPropertyOp30
 70
     1
102
RTVSPropertyOp31
 70
     1
102
RTVSPropertyOp32
 70
     1
102
RTVSPropertyOp33
 70
     1
102
RTVSPropertyOp34
 70
     1
102
RTVSPropertyOp35
 70
     1
102
RTVSPropertyOp36
 70
     1
102
RTVSPropertyOp37
 70
     0
102
RTVSPropertyOp38
 70
     0
102
RTVSPropertyOp39
 70
     0
102
RTVSPropertyOp40
 70
     0
102
RTVSPropertyOp41
 70
     0
102
RTVSPropertyOp42
 70
     0
102
RTVSPropertyOp43
 70
     0
102
RTVSPropertyOp44
 70
     0
102
RTVSPropertyOp45
 70
     1
102
RTVSPropertyOp46
 70
     0
102
RTVSPropertyOp47
 70
     0
102
RTVSPropertyOp48
 70
     0
102
RTVSPropertyOp49
 70
     1
102
RTVSPropertyOp50
 70
     0
102
RTVSPropertyOp51
 70
     0
102
RTVSPropertyOp52
 70
     0
102
RTVSPropertyOp53
 70
     0
102
RTVSPropertyOp54
 70
     0
102
RTVSPropertyOp55
 70
     1
102
RTVSPropertyOp56
 70
     0
102
RTVSPropertyOp57
 70
     0
102
RTVSPropertyOp58
 70
     0
102
RTVSPropertyOp59
 70
     0
102
RTVSPropertyOp60
 70
     0
102
RTVSPropertyOp61
 70
     0
102
RTVSPropertyOp62
 70
     0
  0
XRECORD
  5
BEE8
102
{ACAD_REACTORS
330
BEE7
102
}
330
BEE7
100
AcDbXrecord
280
     1
102
RTVSPost2010Prop28
280
     0
102
RTVSPost2010PropOp28
 70
     1
102
RTVSPost2010Prop29
280
     1
102
RTVSPost2010PropOp29
 70
     1
102
RTVSPost2010Prop30
280
     1
102
RTVSPost2010PropOp30
 70
     1
102
RTVSPost2010Prop31
280
     0
102
RTVSPost2010PropOp31
 70
     1
102
RTVSPost2010Prop32
280
     0
102
RTVSPost2010PropOp32
 70
     1
102
RTVSPost2010Prop33
280
     0
102
RTVSPost2010PropOp33
 70
     1
102
RTVSPost2010Prop34
280
     0
102
RTVSPost2010PropOp34
 70
     1
102
RTVSPost2010Prop35
280
     0
102
RTVSPost2010PropOp35
 70
     1
102
RTVSPost2010Prop36
280
     0
102
RTVSPost2010PropOp36
 70
     1
102
RTVSPost2010Prop37
 90
       50
102
RTVSPost2010PropOp37
 70
     1
102
RTVSPost2010Prop38
140
0.0
102
RTVSPost2010PropOp38
 70
     1
102
RTVSPost2010Prop39
140
1.0
102
RTVSPost2010PropOp39
 70
     1
102
RTVSPost2010Prop40
 90
        0
102
RTVSPost2010PropOp40
 70
     1
102
RTVSPost2010Prop41ColorIndex
 90
       18
102
RTVSPost2010Prop41ColorRGB
 90
        0
102
RTVSPost2010PropOp41
 70
     1
102
RTVSPost2010Prop42
 90
       50
102
RTVSPost2010PropOp42
 70
     1
102
RTVSPost2010Prop43
 90
        3
102
RTVSPost2010PropOp43
 70
     1
102
RTVSPost2010Prop44ColorIndex
 90
        5
102
RTVSPost2010Prop44ColorRGB
 90
      255
102
RTVSPost2010PropOp44
 70
     1
102
RTVSPost2010Prop45
280
     0
102
RTVSPost2010PropOp45
 70
     1
102
RTVSPost2010Prop46
 90
       50
102
RTVSPost2010PropOp46
 70
     1
102
RTVSPost2010Prop47
 90
       50
102
RTVSPost2010PropOp47
 70
     1
102
RTVSPost2010Prop48
 90
       50
102
RTVSPost2010PropOp48
 70
     1
102
RTVSPost2010Prop49
280
     0
102
RTVSPost2010PropOp49
 70
     1
102
RTVSPost2010Prop50
 90
       50
102
RTVSPost2010PropOp50
 70
     1
102
RTVSPost2010Prop51ColorIndex
 90
      256
102
RTVSPost2010Prop51ColorRGB
 90
-16777216
102
RTVSPost2010PropOp51
 70
     0
102
RTVSPost2010Prop52
140
1.0
102
RTVSPost2010PropOp52
 70
     0
102
RTVSPost2010Prop53
 90
        2
102
RTVSPost2010PropOp53
 70
     1
102
RTVSPost2010Prop54
  1
strokes_ogs.tif
102
RTVSPost2010PropOp54
 70
     1
102
RTVSPost2010Prop55
280
     0
102
RTVSPost2010PropOp55
 70
     1
102
RTVSPost2010Prop56
140
1.0
102
RTVSPost2010PropOp56
 70
     1
102
RTVSPost2010Prop57
140
1.0
102
RTVSPost2010PropOp57
 70
     1
102
RTVSPropertyOp0
 70
     1
102
RTVSPropertyOp1
 70
     1
102
RTVSPropertyOp2
 70
     1
102
RTVSPropertyOp3
 70
     1
102
RTVSPropertyOp4
 70
     1
102
RTVSPropertyOp5
 70
     1
102
RTVSPropertyOp6
 70
     1
102
RTVSPropertyOp7
 70
     1
102
RTVSPropertyOp8
 70
     1
102
RTVSPropertyOp9
 70
     1
102
RTVSPropertyOp10
 70
     1
102
RTVSPropertyOp11
 70
     1
102
RTVSPropertyOp12
 70
     1
102
RTVSPropertyOp13
 70
     1
102
RTVSPropertyOp14
 70
     1
102
RTVSPropertyOp15
 70
     1
102
RTVSPropertyOp16
 70
     1
102
RTVSPropertyOp17
 70
     1
102
RTVSPropertyOp18
 70
     1
102
RTVSPropertyOp19
 70
     1
102
RTVSPropertyOp20
 70
     1
102
RTVSPropertyOp21
 70
     1
102
RTVSPropertyOp22
 70
     1
102
RTVSPropertyOp23
 70
     1
102
RTVSPropertyOp24
 70
     1
102
RTVSPropertyOp25
 70
     1
102
RTVSPropertyOp26
 70
     1
102
RTVSPropertyOp27
 70
     1
102
RTVSPropertyOp28
 70
     1
102
RTVSPropertyOp29
 70
     1
102
RTVSPropertyOp30
 70
     1
102
RTVSPropertyOp31
 70
     1
102
RTVSPropertyOp32
 70
     1
102
RTVSPropertyOp33
 70
     1
102
RTVSPropertyOp34
 70
     1
102
RTVSPropertyOp35
 70
     1
102
RTVSPropertyOp36
 70
     1
102
RTVSPropertyOp37
 70
     1
102
RTVSPropertyOp38
 70
     1
102
RTVSPropertyOp39
 70
     1
102
RTVSPropertyOp40
 70
     1
102
RTVSPropertyOp41
 70
     1
102
RTVSPropertyOp42
 70
     1
102
RTVSPropertyOp43
 70
     1
102
RTVSPropertyOp44
 70
     1
102
RTVSPropertyOp45
 70
     1
102
RTVSPropertyOp46
 70
     1
102
RTVSPropertyOp47
 70
     1
102
RTVSPropertyOp48
 70
     1
102
RTVSPropertyOp49
 70
     1
102
RTVSPropertyOp50
 70
     1
102
RTVSPropertyOp51
 70
     0
102
RTVSPropertyOp52
 70
     0
102
RTVSPropertyOp53
 70
     1
102
RTVSPropertyOp54
 70
     1
102
RTVSPropertyOp55
 70
     1
102
RTVSPropertyOp56
 70
     1
102
RTVSPropertyOp57
 70
     1
102
RTVSPropertyOp58
 70
     1
102
RTVSPropertyOp59
 70
     1
102
RTVSPropertyOp60
 70
     1
102
RTVSPropertyOp61
 70
     1
102
RTVSPropertyOp62
 70
     1
  0
XRECORD
  5
BECC
102
{ACAD_REACTORS
330
BECB
102
}
330
BECB
100
AcDbXrecord
280
     1
102
RTVSPost2010Prop28
280
     0
102
RTVSPost2010PropOp28
 70
     1
102
RTVSPost2010Prop29
280
     1
102
RTVSPost2010PropOp29
 70
     1
102
RTVSPost2010Prop30
280
     1
102
RTVSPost2010PropOp30
 70
     1
102
RTVSPost2010Prop31
280
     0
102
RTVSPost2010PropOp31
 70
     1
102
RTVSPost2010Prop32
280
     0
102
RTVSPost2010PropOp32
 70
     1
102
RTVSPost2010Prop33
280
     0
102
RTVSPost2010PropOp33
 70
     1
102
RTVSPost2010Prop34
280
     0
102
RTVSPost2010PropOp34
 70
     1
102
RTVSPost2010Prop35
280
     0
102
RTVSPost2010PropOp35
 70
     1
102
RTVSPost2010Prop36
280
     0
102
RTVSPost2010PropOp36
 70
     1
102
RTVSPost2010Prop37
 90
       50
102
RTVSPost2010PropOp37
 70
     1
102
RTVSPost2010Prop38
140
0.0
102
RTVSPost2010PropOp38
 70
     1
102
RTVSPost2010Prop39
140
1.0
102
RTVSPost2010PropOp39
 70
     1
102
RTVSPost2010Prop40
 90
        0
102
RTVSPost2010PropOp40
 70
     1
102
RTVSPost2010Prop41ColorIndex
 90
       18
102
RTVSPost2010Prop41ColorRGB
 90
        0
102
RTVSPost2010PropOp41
 70
     1
102
RTVSPost2010Prop42
 90
       50
102
RTVSPost2010PropOp42
 70
     1
102
RTVSPost2010Prop43
 90
        3
102
RTVSPost2010PropOp43
 70
     1
102
RTVSPost2010Prop44ColorIndex
 90
        5
102
RTVSPost2010Prop44ColorRGB
 90
      255
102
RTVSPost2010PropOp44
 70
     1
102
RTVSPost2010Prop45
280
     0
102
RTVSPost2010PropOp45
 70
     1
102
RTVSPost2010Prop46
 90
       50
102
RTVSPost2010PropOp46
 70
     1
102
RTVSPost2010Prop47
 90
       50
102
RTVSPost2010PropOp47
 70
     1
102
RTVSPost2010Prop48
 90
       50
102
RTVSPost2010PropOp48
 70
     1
102
RTVSPost2010Prop49
280
     0
102
RTVSPost2010PropOp49
 70
     1
102
RTVSPost2010Prop50
 90
       50
102
RTVSPost2010PropOp50
 70
     1
102
RTVSPost2010Prop51ColorIndex
 90
      256
102
RTVSPost2010Prop51ColorRGB
 90
-16777216
102
RTVSPost2010PropOp51
 70
     0
102
RTVSPost2010Prop52
140
1.0
102
RTVSPost2010PropOp52
 70
     0
102
RTVSPost2010Prop53
 90
        2
102
RTVSPost2010PropOp53
 70
     1
102
RTVSPost2010Prop54
  1
strokes_ogs.tif
102
RTVSPost2010PropOp54
 70
     1
102
RTVSPost2010Prop55
280
     0
102
RTVSPost2010PropOp55
 70
     1
102
RTVSPost2010Prop56
140
1.0
102
RTVSPost2010PropOp56
 70
     1
102
RTVSPost2010Prop57
140
1.0
102
RTVSPost2010PropOp57
 70
     1
102
RTVSPropertyOp0
 70
     1
102
RTVSPropertyOp1
 70
     1
102
RTVSPropertyOp2
 70
     1
102
RTVSPropertyOp3
 70
     1
102
RTVSPropertyOp4
 70
     1
102
RTVSPropertyOp5
 70
     1
102
RTVSPropertyOp6
 70
     1
102
RTVSPropertyOp7
 70
     1
102
RTVSPropertyOp8
 70
     1
102
RTVSPropertyOp9
 70
     1
102
RTVSPropertyOp10
 70
     1
102
RTVSPropertyOp11
 70
     1
102
RTVSPropertyOp12
 70
     1
102
RTVSPropertyOp13
 70
     1
102
RTVSPropertyOp14
 70
     1
102
RTVSPropertyOp15
 70
     1
102
RTVSPropertyOp16
 70
     1
102
RTVSPropertyOp17
 70
     1
102
RTVSPropertyOp18
 70
     1
102
RTVSPropertyOp19
 70
     1
102
RTVSPropertyOp20
 70
     1
102
RTVSPropertyOp21
 70
     1
102
RTVSPropertyOp22
 70
     1
102
RTVSPropertyOp23
 70
     1
102
RTVSPropertyOp24
 70
     1
102
RTVSPropertyOp25
 70
     1
102
RTVSPropertyOp26
 70
     1
102
RTVSPropertyOp27
 70
     1
102
RTVSPropertyOp28
 70
     1
102
RTVSPropertyOp29
 70
     1
102
RTVSPropertyOp30
 70
     1
102
RTVSPropertyOp31
 70
     1
102
RTVSPropertyOp32
 70
     1
102
RTVSPropertyOp33
 70
     1
102
RTVSPropertyOp34
 70
     1
102
RTVSPropertyOp35
 70
     1
102
RTVSPropertyOp36
 70
     1
102
RTVSPropertyOp37
 70
     1
102
RTVSPropertyOp38
 70
     1
102
RTVSPropertyOp39
 70
     1
102
RTVSPropertyOp40
 70
     1
102
RTVSPropertyOp41
 70
     1
102
RTVSPropertyOp42
 70
     1
102
RTVSPropertyOp43
 70
     1
102
RTVSPropertyOp44
 70
     1
102
RTVSPropertyOp45
 70
     1
102
RTVSPropertyOp46
 70
     1
102
RTVSPropertyOp47
 70
     1
102
RTVSPropertyOp48
 70
     1
102
RTVSPropertyOp49
 70
     1
102
RTVSPropertyOp50
 70
     1
102
RTVSPropertyOp51
 70
     0
102
RTVSPropertyOp52
 70
     0
102
RTVSPropertyOp53
 70
     1
102
RTVSPropertyOp54
 70
     1
102
RTVSPropertyOp55
 70
     1
102
RTVSPropertyOp56
 70
     1
102
RTVSPropertyOp57
 70
     1
102
RTVSPropertyOp58
 70
     1
102
RTVSPropertyOp59
 70
     1
102
RTVSPropertyOp60
 70
     1
102
RTVSPropertyOp61
 70
     1
102
RTVSPropertyOp62
 70
     1
  0
XRECORD
  5
BECE
102
{ACAD_REACTORS
330
BECD
102
}
330
BECD
100
AcDbXrecord
280
     1
102
RTVSPost2010Prop28
280
     0
102
RTVSPost2010PropOp28
 70
     1
102
RTVSPost2010Prop29
280
     1
102
RTVSPost2010PropOp29
 70
     1
102
RTVSPost2010Prop30
280
     1
102
RTVSPost2010PropOp30
 70
     1
102
RTVSPost2010Prop31
280
     0
102
RTVSPost2010PropOp31
 70
     1
102
RTVSPost2010Prop32
280
     0
102
RTVSPost2010PropOp32
 70
     1
102
RTVSPost2010Prop33
280
     0
102
RTVSPost2010PropOp33
 70
     1
102
RTVSPost2010Prop34
280
     0
102
RTVSPost2010PropOp34
 70
     1
102
RTVSPost2010Prop35
280
     0
102
RTVSPost2010PropOp35
 70
     1
102
RTVSPost2010Prop36
280
     0
102
RTVSPost2010PropOp36
 70
     1
102
RTVSPost2010Prop37
 90
       50
102
RTVSPost2010PropOp37
 70
     1
102
RTVSPost2010Prop38
140
0.0
102
RTVSPost2010PropOp38
 70
     1
102
RTVSPost2010Prop39
140
1.0
102
RTVSPost2010PropOp39
 70
     1
102
RTVSPost2010Prop40
 90
        0
102
RTVSPost2010PropOp40
 70
     1
102
RTVSPost2010Prop41ColorIndex
 90
       18
102
RTVSPost2010Prop41ColorRGB
 90
        0
102
RTVSPost2010PropOp41
 70
     1
102
RTVSPost2010Prop42
 90
       50
102
RTVSPost2010PropOp42
 70
     1
102
RTVSPost2010Prop43
 90
        3
102
RTVSPost2010PropOp43
 70
     1
102
RTVSPost2010Prop44ColorIndex
 90
        5
102
RTVSPost2010Prop44ColorRGB
 90
      255
102
RTVSPost2010PropOp44
 70
     1
102
RTVSPost2010Prop45
280
     0
102
RTVSPost2010PropOp45
 70
     1
102
RTVSPost2010Prop46
 90
       50
102
RTVSPost2010PropOp46
 70
     1
102
RTVSPost2010Prop47
 90
       50
102
RTVSPost2010PropOp47
 70
     1
102
RTVSPost2010Prop48
 90
       50
102
RTVSPost2010PropOp48
 70
     1
102
RTVSPost2010Prop49
280
     0
102
RTVSPost2010PropOp49
 70
     1
102
RTVSPost2010Prop50
 90
       50
102
RTVSPost2010PropOp50
 70
     1
102
RTVSPost2010Prop51ColorIndex
 90
      256
102
RTVSPost2010Prop51ColorRGB
 90
-16777216
102
RTVSPost2010PropOp51
 70
     0
102
RTVSPost2010Prop52
140
1.0
102
RTVSPost2010PropOp52
 70
     0
102
RTVSPost2010Prop53
 90
        2
102
RTVSPost2010PropOp53
 70
     1
102
RTVSPost2010Prop54
  1
strokes_ogs.tif
102
RTVSPost2010PropOp54
 70
     1
102
RTVSPost2010Prop55
280
     0
102
RTVSPost2010PropOp55
 70
     1
102
RTVSPost2010Prop56
140
1.0
102
RTVSPost2010PropOp56
 70
     1
102
RTVSPost2010Prop57
140
1.0
102
RTVSPost2010PropOp57
 70
     1
102
RTVSPropertyOp0
 70
     1
102
RTVSPropertyOp1
 70
     1
102
RTVSPropertyOp2
 70
     1
102
RTVSPropertyOp3
 70
     1
102
RTVSPropertyOp4
 70
     1
102
RTVSPropertyOp5
 70
     1
102
RTVSPropertyOp6
 70
     1
102
RTVSPropertyOp7
 70
     1
102
RTVSPropertyOp8
 70
     1
102
RTVSPropertyOp9
 70
     1
102
RTVSPropertyOp10
 70
     1
102
RTVSPropertyOp11
 70
     1
102
RTVSPropertyOp12
 70
     1
102
RTVSPropertyOp13
 70
     1
102
RTVSPropertyOp14
 70
     1
102
RTVSPropertyOp15
 70
     1
102
RTVSPropertyOp16
 70
     1
102
RTVSPropertyOp17
 70
     1
102
RTVSPropertyOp18
 70
     1
102
RTVSPropertyOp19
 70
     1
102
RTVSPropertyOp20
 70
     1
102
RTVSPropertyOp21
 70
     1
102
RTVSPropertyOp22
 70
     1
102
RTVSPropertyOp23
 70
     1
102
RTVSPropertyOp24
 70
     1
102
RTVSPropertyOp25
 70
     1
102
RTVSPropertyOp26
 70
     1
102
RTVSPropertyOp27
 70
     1
102
RTVSPropertyOp28
 70
     1
102
RTVSPropertyOp29
 70
     1
102
RTVSPropertyOp30
 70
     1
102
RTVSPropertyOp31
 70
     1
102
RTVSPropertyOp32
 70
     1
102
RTVSPropertyOp33
 70
     1
102
RTVSPropertyOp34
 70
     1
102
RTVSPropertyOp35
 70
     1
102
RTVSPropertyOp36
 70
     1
102
RTVSPropertyOp37
 70
     1
102
RTVSPropertyOp38
 70
     1
102
RTVSPropertyOp39
 70
     1
102
RTVSPropertyOp40
 70
     1
102
RTVSPropertyOp41
 70
     1
102
RTVSPropertyOp42
 70
     1
102
RTVSPropertyOp43
 70
     1
102
RTVSPropertyOp44
 70
     1
102
RTVSPropertyOp45
 70
     1
102
RTVSPropertyOp46
 70
     1
102
RTVSPropertyOp47
 70
     1
102
RTVSPropertyOp48
 70
     1
102
RTVSPropertyOp49
 70
     1
102
RTVSPropertyOp50
 70
     1
102
RTVSPropertyOp51
 70
     0
102
RTVSPropertyOp52
 70
     0
102
RTVSPropertyOp53
 70
     1
102
RTVSPropertyOp54
 70
     1
102
RTVSPropertyOp55
 70
     1
102
RTVSPropertyOp56
 70
     1
102
RTVSPropertyOp57
 70
     1
102
RTVSPropertyOp58
 70
     1
102
RTVSPropertyOp59
 70
     1
102
RTVSPropertyOp60
 70
     1
102
RTVSPropertyOp61
 70
     1
102
RTVSPropertyOp62
 70
     1
  0
XRECORD
  5
BED0
102
{ACAD_REACTORS
330
BECF
102
}
330
BECF
100
AcDbXrecord
280
     1
102
RTVSPost2010Prop28
280
     0
102
RTVSPost2010PropOp28
 70
     1
102
RTVSPost2010Prop29
280
     1
102
RTVSPost2010PropOp29
 70
     1
102
RTVSPost2010Prop30
280
     1
102
RTVSPost2010PropOp30
 70
     1
102
RTVSPost2010Prop31
280
     0
102
RTVSPost2010PropOp31
 70
     1
102
RTVSPost2010Prop32
280
     0
102
RTVSPost2010PropOp32
 70
     1
102
RTVSPost2010Prop33
280
     0
102
RTVSPost2010PropOp33
 70
     1
102
RTVSPost2010Prop34
280
     0
102
RTVSPost2010PropOp34
 70
     1
102
RTVSPost2010Prop35
280
     0
102
RTVSPost2010PropOp35
 70
     1
102
RTVSPost2010Prop36
280
     0
102
RTVSPost2010PropOp36
 70
     1
102
RTVSPost2010Prop37
 90
       50
102
RTVSPost2010PropOp37
 70
     1
102
RTVSPost2010Prop38
140
0.0
102
RTVSPost2010PropOp38
 70
     1
102
RTVSPost2010Prop39
140
1.0
102
RTVSPost2010PropOp39
 70
     1
102
RTVSPost2010Prop40
 90
        0
102
RTVSPost2010PropOp40
 70
     1
102
RTVSPost2010Prop41ColorIndex
 90
       18
102
RTVSPost2010Prop41ColorRGB
 90
        0
102
RTVSPost2010PropOp41
 70
     1
102
RTVSPost2010Prop42
 90
       50
102
RTVSPost2010PropOp42
 70
     1
102
RTVSPost2010Prop43
 90
        3
102
RTVSPost2010PropOp43
 70
     1
102
RTVSPost2010Prop44ColorIndex
 90
        5
102
RTVSPost2010Prop44ColorRGB
 90
      255
102
RTVSPost2010PropOp44
 70
     1
102
RTVSPost2010Prop45
280
     0
102
RTVSPost2010PropOp45
 70
     1
102
RTVSPost2010Prop46
 90
       50
102
RTVSPost2010PropOp46
 70
     1
102
RTVSPost2010Prop47
 90
       50
102
RTVSPost2010PropOp47
 70
     1
102
RTVSPost2010Prop48
 90
       50
102
RTVSPost2010PropOp48
 70
     1
102
RTVSPost2010Prop49
280
     0
102
RTVSPost2010PropOp49
 70
     1
102
RTVSPost2010Prop50
 90
       50
102
RTVSPost2010PropOp50
 70
     1
102
RTVSPost2010Prop51ColorIndex
 90
      256
102
RTVSPost2010Prop51ColorRGB
 90
-16777216
102
RTVSPost2010PropOp51
 70
     0
102
RTVSPost2010Prop52
140
1.0
102
RTVSPost2010PropOp52
 70
     0
102
RTVSPost2010Prop53
 90
        2
102
RTVSPost2010PropOp53
 70
     1
102
RTVSPost2010Prop54
  1
strokes_ogs.tif
102
RTVSPost2010PropOp54
 70
     1
102
RTVSPost2010Prop55
280
     0
102
RTVSPost2010PropOp55
 70
     1
102
RTVSPost2010Prop56
140
1.0
102
RTVSPost2010PropOp56
 70
     1
102
RTVSPost2010Prop57
140
1.0
102
RTVSPost2010PropOp57
 70
     1
102
RTVSPropertyOp0
 70
     1
102
RTVSPropertyOp1
 70
     1
102
RTVSPropertyOp2
 70
     1
102
RTVSPropertyOp3
 70
     1
102
RTVSPropertyOp4
 70
     1
102
RTVSPropertyOp5
 70
     1
102
RTVSPropertyOp6
 70
     1
102
RTVSPropertyOp7
 70
     1
102
RTVSPropertyOp8
 70
     1
102
RTVSPropertyOp9
 70
     1
102
RTVSPropertyOp10
 70
     1
102
RTVSPropertyOp11
 70
     1
102
RTVSPropertyOp12
 70
     1
102
RTVSPropertyOp13
 70
     1
102
RTVSPropertyOp14
 70
     1
102
RTVSPropertyOp15
 70
     1
102
RTVSPropertyOp16
 70
     1
102
RTVSPropertyOp17
 70
     1
102
RTVSPropertyOp18
 70
     1
102
RTVSPropertyOp19
 70
     1
102
RTVSPropertyOp20
 70
     1
102
RTVSPropertyOp21
 70
     1
102
RTVSPropertyOp22
 70
     1
102
RTVSPropertyOp23
 70
     1
102
RTVSPropertyOp24
 70
     1
102
RTVSPropertyOp25
 70
     1
102
RTVSPropertyOp26
 70
     1
102
RTVSPropertyOp27
 70
     1
102
RTVSPropertyOp28
 70
     1
102
RTVSPropertyOp29
 70
     1
102
RTVSPropertyOp30
 70
     1
102
RTVSPropertyOp31
 70
     1
102
RTVSPropertyOp32
 70
     1
102
RTVSPropertyOp33
 70
     1
102
RTVSPropertyOp34
 70
     1
102
RTVSPropertyOp35
 70
     1
102
RTVSPropertyOp36
 70
     1
102
RTVSPropertyOp37
 70
     1
102
RTVSPropertyOp38
 70
     1
102
RTVSPropertyOp39
 70
     1
102
RTVSPropertyOp40
 70
     1
102
RTVSPropertyOp41
 70
     1
102
RTVSPropertyOp42
 70
     1
102
RTVSPropertyOp43
 70
     1
102
RTVSPropertyOp44
 70
     1
102
RTVSPropertyOp45
 70
     1
102
RTVSPropertyOp46
 70
     1
102
RTVSPropertyOp47
 70
     1
102
RTVSPropertyOp48
 70
     1
102
RTVSPropertyOp49
 70
     1
102
RTVSPropertyOp50
 70
     1
102
RTVSPropertyOp51
 70
     0
102
RTVSPropertyOp52
 70
     0
102
RTVSPropertyOp53
 70
     1
102
RTVSPropertyOp54
 70
     1
102
RTVSPropertyOp55
 70
     1
102
RTVSPropertyOp56
 70
     1
102
RTVSPropertyOp57
 70
     1
102
RTVSPropertyOp58
 70
     1
102
RTVSPropertyOp59
 70
     1
102
RTVSPropertyOp60
 70
     1
102
RTVSPropertyOp61
 70
     1
102
RTVSPropertyOp62
 70
     1
  0
XRECORD
  5
BED2
102
{ACAD_REACTORS
330
BED1
102
}
330
BED1
100
AcDbXrecord
280
     1
102
RTVSPost2010Prop28
280
     0
102
RTVSPost2010PropOp28
 70
     1
102
RTVSPost2010Prop29
280
     1
102
RTVSPost2010PropOp29
 70
     1
102
RTVSPost2010Prop30
280
     1
102
RTVSPost2010PropOp30
 70
     1
102
RTVSPost2010Prop31
280
     0
102
RTVSPost2010PropOp31
 70
     1
102
RTVSPost2010Prop32
280
     0
102
RTVSPost2010PropOp32
 70
     1
102
RTVSPost2010Prop33
280
     0
102
RTVSPost2010PropOp33
 70
     1
102
RTVSPost2010Prop34
280
     0
102
RTVSPost2010PropOp34
 70
     1
102
RTVSPost2010Prop35
280
     0
102
RTVSPost2010PropOp35
 70
     1
102
RTVSPost2010Prop36
280
     0
102
RTVSPost2010PropOp36
 70
     1
102
RTVSPost2010Prop37
 90
       50
102
RTVSPost2010PropOp37
 70
     1
102
RTVSPost2010Prop38
140
0.0
102
RTVSPost2010PropOp38
 70
     1
102
RTVSPost2010Prop39
140
1.0
102
RTVSPost2010PropOp39
 70
     1
102
RTVSPost2010Prop40
 90
        0
102
RTVSPost2010PropOp40
 70
     1
102
RTVSPost2010Prop41ColorIndex
 90
       18
102
RTVSPost2010Prop41ColorRGB
 90
        0
102
RTVSPost2010PropOp41
 70
     1
102
RTVSPost2010Prop42
 90
       50
102
RTVSPost2010PropOp42
 70
     1
102
RTVSPost2010Prop43
 90
        3
102
RTVSPost2010PropOp43
 70
     1
102
RTVSPost2010Prop44ColorIndex
 90
        5
102
RTVSPost2010Prop44ColorRGB
 90
      255
102
RTVSPost2010PropOp44
 70
     1
102
RTVSPost2010Prop45
280
     0
102
RTVSPost2010PropOp45
 70
     1
102
RTVSPost2010Prop46
 90
       50
102
RTVSPost2010PropOp46
 70
     1
102
RTVSPost2010Prop47
 90
       50
102
RTVSPost2010PropOp47
 70
     1
102
RTVSPost2010Prop48
 90
       50
102
RTVSPost2010PropOp48
 70
     1
102
RTVSPost2010Prop49
280
     0
102
RTVSPost2010PropOp49
 70
     1
102
RTVSPost2010Prop50
 90
       50
102
RTVSPost2010PropOp50
 70
     1
102
RTVSPost2010Prop51ColorIndex
 90
      256
102
RTVSPost2010Prop51ColorRGB
 90
-16777216
102
RTVSPost2010PropOp51
 70
     0
102
RTVSPost2010Prop52
140
1.0
102
RTVSPost2010PropOp52
 70
     0
102
RTVSPost2010Prop53
 90
        2
102
RTVSPost2010PropOp53
 70
     1
102
RTVSPost2010Prop54
  1
strokes_ogs.tif
102
RTVSPost2010PropOp54
 70
     1
102
RTVSPost2010Prop55
280
     0
102
RTVSPost2010PropOp55
 70
     1
102
RTVSPost2010Prop56
140
1.0
102
RTVSPost2010PropOp56
 70
     1
102
RTVSPost2010Prop57
140
1.0
102
RTVSPost2010PropOp57
 70
     1
102
RTVSPropertyOp0
 70
     1
102
RTVSPropertyOp1
 70
     1
102
RTVSPropertyOp2
 70
     1
102
RTVSPropertyOp3
 70
     1
102
RTVSPropertyOp4
 70
     1
102
RTVSPropertyOp5
 70
     1
102
RTVSPropertyOp6
 70
     1
102
RTVSPropertyOp7
 70
     1
102
RTVSPropertyOp8
 70
     1
102
RTVSPropertyOp9
 70
     1
102
RTVSPropertyOp10
 70
     1
102
RTVSPropertyOp11
 70
     1
102
RTVSPropertyOp12
 70
     1
102
RTVSPropertyOp13
 70
     1
102
RTVSPropertyOp14
 70
     1
102
RTVSPropertyOp15
 70
     1
102
RTVSPropertyOp16
 70
     1
102
RTVSPropertyOp17
 70
     1
102
RTVSPropertyOp18
 70
     1
102
RTVSPropertyOp19
 70
     1
102
RTVSPropertyOp20
 70
     1
102
RTVSPropertyOp21
 70
     1
102
RTVSPropertyOp22
 70
     1
102
RTVSPropertyOp23
 70
     1
102
RTVSPropertyOp24
 70
     1
102
RTVSPropertyOp25
 70
     1
102
RTVSPropertyOp26
 70
     1
102
RTVSPropertyOp27
 70
     1
102
RTVSPropertyOp28
 70
     1
102
RTVSPropertyOp29
 70
     1
102
RTVSPropertyOp30
 70
     1
102
RTVSPropertyOp31
 70
     1
102
RTVSPropertyOp32
 70
     1
102
RTVSPropertyOp33
 70
     1
102
RTVSPropertyOp34
 70
     1
102
RTVSPropertyOp35
 70
     1
102
RTVSPropertyOp36
 70
     1
102
RTVSPropertyOp37
 70
     1
102
RTVSPropertyOp38
 70
     1
102
RTVSPropertyOp39
 70
     1
102
RTVSPropertyOp40
 70
     1
102
RTVSPropertyOp41
 70
     1
102
RTVSPropertyOp42
 70
     1
102
RTVSPropertyOp43
 70
     1
102
RTVSPropertyOp44
 70
     1
102
RTVSPropertyOp45
 70
     1
102
RTVSPropertyOp46
 70
     1
102
RTVSPropertyOp47
 70
     1
102
RTVSPropertyOp48
 70
     1
102
RTVSPropertyOp49
 70
     1
102
RTVSPropertyOp50
 70
     1
102
RTVSPropertyOp51
 70
     0
102
RTVSPropertyOp52
 70
     0
102
RTVSPropertyOp53
 70
     1
102
RTVSPropertyOp54
 70
     1
102
RTVSPropertyOp55
 70
     1
102
RTVSPropertyOp56
 70
     1
102
RTVSPropertyOp57
 70
     1
102
RTVSPropertyOp58
 70
     1
102
RTVSPropertyOp59
 70
     1
102
RTVSPropertyOp60
 70
     1
102
RTVSPropertyOp61
 70
     1
102
RTVSPropertyOp62
 70
     1
  0
XRECORD
  5
BEDA
102
{ACAD_REACTORS
330
BED9
102
}
330
BED9
100
AcDbXrecord
280
     1
102
RTVSPost2010Prop28
280
     0
102
RTVSPost2010PropOp28
 70
     1
102
RTVSPost2010Prop29
280
     1
102
RTVSPost2010PropOp29
 70
     1
102
RTVSPost2010Prop30
280
     1
102
RTVSPost2010PropOp30
 70
     1
102
RTVSPost2010Prop31
280
     0
102
RTVSPost2010PropOp31
 70
     1
102
RTVSPost2010Prop32
280
     0
102
RTVSPost2010PropOp32
 70
     1
102
RTVSPost2010Prop33
280
     0
102
RTVSPost2010PropOp33
 70
     1
102
RTVSPost2010Prop34
280
     0
102
RTVSPost2010PropOp34
 70
     1
102
RTVSPost2010Prop35
280
     0
102
RTVSPost2010PropOp35
 70
     1
102
RTVSPost2010Prop36
280
     0
102
RTVSPost2010PropOp36
 70
     1
102
RTVSPost2010Prop37
 90
       50
102
RTVSPost2010PropOp37
 70
     1
102
RTVSPost2010Prop38
140
0.0
102
RTVSPost2010PropOp38
 70
     1
102
RTVSPost2010Prop39
140
1.0
102
RTVSPost2010PropOp39
 70
     1
102
RTVSPost2010Prop40
 90
        0
102
RTVSPost2010PropOp40
 70
     1
102
RTVSPost2010Prop41ColorIndex
 90
       18
102
RTVSPost2010Prop41ColorRGB
 90
        0
102
RTVSPost2010PropOp41
 70
     1
102
RTVSPost2010Prop42
 90
       50
102
RTVSPost2010PropOp42
 70
     1
102
RTVSPost2010Prop43
 90
        3
102
RTVSPost2010PropOp43
 70
     1
102
RTVSPost2010Prop44ColorIndex
 90
        5
102
RTVSPost2010Prop44ColorRGB
 90
      255
102
RTVSPost2010PropOp44
 70
     1
102
RTVSPost2010Prop45
280
     0
102
RTVSPost2010PropOp45
 70
     1
102
RTVSPost2010Prop46
 90
       50
102
RTVSPost2010PropOp46
 70
     1
102
RTVSPost2010Prop47
 90
       50
102
RTVSPost2010PropOp47
 70
     1
102
RTVSPost2010Prop48
 90
       50
102
RTVSPost2010PropOp48
 70
     1
102
RTVSPost2010Prop49
280
     0
102
RTVSPost2010PropOp49
 70
     1
102
RTVSPost2010Prop50
 90
       50
102
RTVSPost2010PropOp50
 70
     1
102
RTVSPost2010Prop51ColorIndex
 90
      256
102
RTVSPost2010Prop51ColorRGB
 90
-16777216
102
RTVSPost2010PropOp51
 70
     0
102
RTVSPost2010Prop52
140
1.0
102
RTVSPost2010PropOp52
 70
     0
102
RTVSPost2010Prop53
 90
        2
102
RTVSPost2010PropOp53
 70
     1
102
RTVSPost2010Prop54
  1
strokes_ogs.tif
102
RTVSPost2010PropOp54
 70
     1
102
RTVSPost2010Prop55
280
     0
102
RTVSPost2010PropOp55
 70
     1
102
RTVSPost2010Prop56
140
1.0
102
RTVSPost2010PropOp56
 70
     1
102
RTVSPost2010Prop57
140
1.0
102
RTVSPost2010PropOp57
 70
     1
102
RTVSPropertyOp0
 70
     1
102
RTVSPropertyOp1
 70
     1
102
RTVSPropertyOp2
 70
     1
102
RTVSPropertyOp3
 70
     1
102
RTVSPropertyOp4
 70
     1
102
RTVSPropertyOp5
 70
     1
102
RTVSPropertyOp6
 70
     1
102
RTVSPropertyOp7
 70
     1
102
RTVSPropertyOp8
 70
     1
102
RTVSPropertyOp9
 70
     1
102
RTVSPropertyOp10
 70
     1
102
RTVSPropertyOp11
 70
     1
102
RTVSPropertyOp12
 70
     1
102
RTVSPropertyOp13
 70
     1
102
RTVSPropertyOp14
 70
     1
102
RTVSPropertyOp15
 70
     1
102
RTVSPropertyOp16
 70
     1
102
RTVSPropertyOp17
 70
     1
102
RTVSPropertyOp18
 70
     1
102
RTVSPropertyOp19
 70
     1
102
RTVSPropertyOp20
 70
     1
102
RTVSPropertyOp21
 70
     1
102
RTVSPropertyOp22
 70
     1
102
RTVSPropertyOp23
 70
     1
102
RTVSPropertyOp24
 70
     1
102
RTVSPropertyOp25
 70
     1
102
RTVSPropertyOp26
 70
     1
102
RTVSPropertyOp27
 70
     1
102
RTVSPropertyOp28
 70
     1
102
RTVSPropertyOp29
 70
     1
102
RTVSPropertyOp30
 70
     1
102
RTVSPropertyOp31
 70
     1
102
RTVSPropertyOp32
 70
     1
102
RTVSPropertyOp33
 70
     1
102
RTVSPropertyOp34
 70
     1
102
RTVSPropertyOp35
 70
     1
102
RTVSPropertyOp36
 70
     1
102
RTVSPropertyOp37
 70
     1
102
RTVSPropertyOp38
 70
     1
102
RTVSPropertyOp39
 70
     1
102
RTVSPropertyOp40
 70
     1
102
RTVSPropertyOp41
 70
     1
102
RTVSPropertyOp42
 70
     1
102
RTVSPropertyOp43
 70
     1
102
RTVSPropertyOp44
 70
     1
102
RTVSPropertyOp45
 70
     1
102
RTVSPropertyOp46
 70
     1
102
RTVSPropertyOp47
 70
     1
102
RTVSPropertyOp48
 70
     1
102
RTVSPropertyOp49
 70
     1
102
RTVSPropertyOp50
 70
     1
102
RTVSPropertyOp51
 70
     0
102
RTVSPropertyOp52
 70
     0
102
RTVSPropertyOp53
 70
     1
102
RTVSPropertyOp54
 70
     1
102
RTVSPropertyOp55
 70
     1
102
RTVSPropertyOp56
 70
     1
102
RTVSPropertyOp57
 70
     1
102
RTVSPropertyOp58
 70
     1
102
RTVSPropertyOp59
 70
     1
102
RTVSPropertyOp60
 70
     1
102
RTVSPropertyOp61
 70
     1
102
RTVSPropertyOp62
 70
     1
  0
XRECORD
  5
BEF6
102
{ACAD_REACTORS
330
BEF5
102
}
330
BEF5
100
AcDbXrecord
280
     1
102
RTVSPost2010Prop28
280
     0
102
RTVSPost2010PropOp28
 70
     1
102
RTVSPost2010Prop29
280
     1
102
RTVSPost2010PropOp29
 70
     1
102
RTVSPost2010Prop30
280
     1
102
RTVSPost2010PropOp30
 70
     1
102
RTVSPost2010Prop31
280
     0
102
RTVSPost2010PropOp31
 70
     1
102
RTVSPost2010Prop32
280
     0
102
RTVSPost2010PropOp32
 70
     1
102
RTVSPost2010Prop33
280
     0
102
RTVSPost2010PropOp33
 70
     1
102
RTVSPost2010Prop34
280
     0
102
RTVSPost2010PropOp34
 70
     1
102
RTVSPost2010Prop35
280
     0
102
RTVSPost2010PropOp35
 70
     1
102
RTVSPost2010Prop36
280
     0
102
RTVSPost2010PropOp36
 70
     1
102
RTVSPost2010Prop37
 90
       50
102
RTVSPost2010PropOp37
 70
     0
102
RTVSPost2010Prop38
140
0.0
102
RTVSPost2010PropOp38
 70
     0
102
RTVSPost2010Prop39
140
1.0
102
RTVSPost2010PropOp39
 70
     0
102
RTVSPost2010Prop40
 90
        0
102
RTVSPost2010PropOp40
 70
     0
102
RTVSPost2010Prop41ColorIndex
 90
       18
102
RTVSPost2010Prop41ColorRGB
 90
        0
102
RTVSPost2010PropOp41
 70
     0
102
RTVSPost2010Prop42
 90
       50
102
RTVSPost2010PropOp42
 70
     0
102
RTVSPost2010Prop43
 90
        3
102
RTVSPost2010PropOp43
 70
     0
102
RTVSPost2010Prop44ColorIndex
 90
        5
102
RTVSPost2010Prop44ColorRGB
 90
      255
102
RTVSPost2010PropOp44
 70
     0
102
RTVSPost2010Prop45
280
     0
102
RTVSPost2010PropOp45
 70
     1
102
RTVSPost2010Prop46
 90
       50
102
RTVSPost2010PropOp46
 70
     0
102
RTVSPost2010Prop47
 90
       50
102
RTVSPost2010PropOp47
 70
     0
102
RTVSPost2010Prop48
 90
       50
102
RTVSPost2010PropOp48
 70
     0
102
RTVSPost2010Prop49
280
     0
102
RTVSPost2010PropOp49
 70
     1
102
RTVSPost2010Prop50
 90
       50
102
RTVSPost2010PropOp50
 70
     0
102
RTVSPost2010Prop51ColorIndex
 90
      256
102
RTVSPost2010Prop51ColorRGB
 90
-16777216
102
RTVSPost2010PropOp51
 70
     0
102
RTVSPost2010Prop52
140
1.0
102
RTVSPost2010PropOp52
 70
     0
102
RTVSPost2010Prop53
 90
        2
102
RTVSPost2010PropOp53
 70
     0
102
RTVSPost2010Prop54
  1
strokes_ogs.tif
102
RTVSPost2010PropOp54
 70
     0
102
RTVSPost2010Prop55
280
     0
102
RTVSPost2010PropOp55
 70
     1
102
RTVSPost2010Prop56
140
1.0
102
RTVSPost2010PropOp56
 70
     0
102
RTVSPost2010Prop57
140
1.0
102
RTVSPost2010PropOp57
 70
     0
102
RTVSPropertyOp0
 70
     0
102
RTVSPropertyOp1
 70
     0
102
RTVSPropertyOp2
 70
     0
102
RTVSPropertyOp3
 70
     0
102
RTVSPropertyOp4
 70
     0
102
RTVSPropertyOp5
 70
     0
102
RTVSPropertyOp6
 70
     0
102
RTVSPropertyOp7
 70
     0
102
RTVSPropertyOp8
 70
     0
102
RTVSPropertyOp9
 70
     0
102
RTVSPropertyOp10
 70
     0
102
RTVSPropertyOp11
 70
     0
102
RTVSPropertyOp12
 70
     0
102
RTVSPropertyOp13
 70
     0
102
RTVSPropertyOp14
 70
     2
102
RTVSPropertyOp15
 70
     0
102
RTVSPropertyOp16
 70
     0
102
RTVSPropertyOp17
 70
     0
102
RTVSPropertyOp18
 70
     0
102
RTVSPropertyOp19
 70
     0
102
RTVSPropertyOp20
 70
     0
102
RTVSPropertyOp21
 70
     0
102
RTVSPropertyOp22
 70
     0
102
RTVSPropertyOp23
 70
     0
102
RTVSPropertyOp24
 70
     0
102
RTVSPropertyOp25
 70
     0
102
RTVSPropertyOp26
 70
     0
102
RTVSPropertyOp27
 70
     0
102
RTVSPropertyOp28
 70
     1
102
RTVSPropertyOp29
 70
     1
102
RTVSPropertyOp30
 70
     1
102
RTVSPropertyOp31
 70
     1
102
RTVSPropertyOp32
 70
     1
102
RTVSPropertyOp33
 70
     1
102
RTVSPropertyOp34
 70
     1
102
RTVSPropertyOp35
 70
     1
102
RTVSPropertyOp36
 70
     1
102
RTVSPropertyOp37
 70
     0
102
RTVSPropertyOp38
 70
     0
102
RTVSPropertyOp39
 70
     0
102
RTVSPropertyOp40
 70
     0
102
RTVSPropertyOp41
 70
     0
102
RTVSPropertyOp42
 70
     0
102
RTVSPropertyOp43
 70
     0
102
RTVSPropertyOp44
 70
     0
102
RTVSPropertyOp45
 70
     1
102
RTVSPropertyOp46
 70
     0
102
RTVSPropertyOp47
 70
     0
102
RTVSPropertyOp48
 70
     0
102
RTVSPropertyOp49
 70
     1
102
RTVSPropertyOp50
 70
     0
102
RTVSPropertyOp51
 70
     0
102
RTVSPropertyOp52
 70
     0
102
RTVSPropertyOp53
 70
     0
102
RTVSPropertyOp54
 70
     0
102
RTVSPropertyOp55
 70
     1
102
RTVSPropertyOp56
 70
     0
102
RTVSPropertyOp57
 70
     0
102
RTVSPropertyOp58
 70
     0
102
RTVSPropertyOp59
 70
     0
102
RTVSPropertyOp60
 70
     0
102
RTVSPropertyOp61
 70
     0
102
RTVSPropertyOp62
 70
     0
  0
XRECORD
  5
BEE6
102
{ACAD_REACTORS
330
BEE5
102
}
330
BEE5
100
AcDbXrecord
280
     1
102
RTVSPost2010Prop28
280
     0
102
RTVSPost2010PropOp28
 70
     1
102
RTVSPost2010Prop29
280
     1
102
RTVSPost2010PropOp29
 70
     1
102
RTVSPost2010Prop30
280
     1
102
RTVSPost2010PropOp30
 70
     1
102
RTVSPost2010Prop31
280
     0
102
RTVSPost2010PropOp31
 70
     1
102
RTVSPost2010Prop32
280
     0
102
RTVSPost2010PropOp32
 70
     1
102
RTVSPost2010Prop33
280
     0
102
RTVSPost2010PropOp33
 70
     1
102
RTVSPost2010Prop34
280
     0
102
RTVSPost2010PropOp34
 70
     1
102
RTVSPost2010Prop35
280
     0
102
RTVSPost2010PropOp35
 70
     1
102
RTVSPost2010Prop36
280
     0
102
RTVSPost2010PropOp36
 70
     1
102
RTVSPost2010Prop37
 90
       50
102
RTVSPost2010PropOp37
 70
     1
102
RTVSPost2010Prop38
140
0.0
102
RTVSPost2010PropOp38
 70
     1
102
RTVSPost2010Prop39
140
1.0
102
RTVSPost2010PropOp39
 70
     1
102
RTVSPost2010Prop40
 90
        0
102
RTVSPost2010PropOp40
 70
     1
102
RTVSPost2010Prop41ColorIndex
 90
       18
102
RTVSPost2010Prop41ColorRGB
 90
        0
102
RTVSPost2010PropOp41
 70
     1
102
RTVSPost2010Prop42
 90
       50
102
RTVSPost2010PropOp42
 70
     1
102
RTVSPost2010Prop43
 90
        3
102
RTVSPost2010PropOp43
 70
     1
102
RTVSPost2010Prop44ColorIndex
 90
        5
102
RTVSPost2010Prop44ColorRGB
 90
      255
102
RTVSPost2010PropOp44
 70
     1
102
RTVSPost2010Prop45
280
     0
102
RTVSPost2010PropOp45
 70
     1
102
RTVSPost2010Prop46
 90
       50
102
RTVSPost2010PropOp46
 70
     1
102
RTVSPost2010Prop47
 90
       50
102
RTVSPost2010PropOp47
 70
     1
102
RTVSPost2010Prop48
 90
       50
102
RTVSPost2010PropOp48
 70
     1
102
RTVSPost2010Prop49
280
     0
102
RTVSPost2010PropOp49
 70
     1
102
RTVSPost2010Prop50
 90
       50
102
RTVSPost2010PropOp50
 70
     1
102
RTVSPost2010Prop51ColorIndex
 90
      256
102
RTVSPost2010Prop51ColorRGB
 90
-16777216
102
RTVSPost2010PropOp51
 70
     0
102
RTVSPost2010Prop52
140
1.0
102
RTVSPost2010PropOp52
 70
     0
102
RTVSPost2010Prop53
 90
        2
102
RTVSPost2010PropOp53
 70
     1
102
RTVSPost2010Prop54
  1
strokes_ogs.tif
102
RTVSPost2010PropOp54
 70
     1
102
RTVSPost2010Prop55
280
     0
102
RTVSPost2010PropOp55
 70
     1
102
RTVSPost2010Prop56
140
1.0
102
RTVSPost2010PropOp56
 70
     1
102
RTVSPost2010Prop57
140
1.0
102
RTVSPost2010PropOp57
 70
     1
102
RTVSPropertyOp0
 70
     1
102
RTVSPropertyOp1
 70
     1
102
RTVSPropertyOp2
 70
     1
102
RTVSPropertyOp3
 70
     1
102
RTVSPropertyOp4
 70
     1
102
RTVSPropertyOp5
 70
     1
102
RTVSPropertyOp6
 70
     1
102
RTVSPropertyOp7
 70
     1
102
RTVSPropertyOp8
 70
     1
102
RTVSPropertyOp9
 70
     1
102
RTVSPropertyOp10
 70
     1
102
RTVSPropertyOp11
 70
     1
102
RTVSPropertyOp12
 70
     1
102
RTVSPropertyOp13
 70
     1
102
RTVSPropertyOp14
 70
     1
102
RTVSPropertyOp15
 70
     1
102
RTVSPropertyOp16
 70
     1
102
RTVSPropertyOp17
 70
     1
102
RTVSPropertyOp18
 70
     1
102
RTVSPropertyOp19
 70
     1
102
RTVSPropertyOp20
 70
     1
102
RTVSPropertyOp21
 70
     1
102
RTVSPropertyOp22
 70
     1
102
RTVSPropertyOp23
 70
     1
102
RTVSPropertyOp24
 70
     1
102
RTVSPropertyOp25
 70
     1
102
RTVSPropertyOp26
 70
     1
102
RTVSPropertyOp27
 70
     1
102
RTVSPropertyOp28
 70
     1
102
RTVSPropertyOp29
 70
     1
102
RTVSPropertyOp30
 70
     1
102
RTVSPropertyOp31
 70
     1
102
RTVSPropertyOp32
 70
     1
102
RTVSPropertyOp33
 70
     1
102
RTVSPropertyOp34
 70
     1
102
RTVSPropertyOp35
 70
     1
102
RTVSPropertyOp36
 70
     1
102
RTVSPropertyOp37
 70
     1
102
RTVSPropertyOp38
 70
     1
102
RTVSPropertyOp39
 70
     1
102
RTVSPropertyOp40
 70
     1
102
RTVSPropertyOp41
 70
     1
102
RTVSPropertyOp42
 70
     1
102
RTVSPropertyOp43
 70
     1
102
RTVSPropertyOp44
 70
     1
102
RTVSPropertyOp45
 70
     1
102
RTVSPropertyOp46
 70
     1
102
RTVSPropertyOp47
 70
     1
102
RTVSPropertyOp48
 70
     1
102
RTVSPropertyOp49
 70
     1
102
RTVSPropertyOp50
 70
     1
102
RTVSPropertyOp51
 70
     0
102
RTVSPropertyOp52
 70
     0
102
RTVSPropertyOp53
 70
     1
102
RTVSPropertyOp54
 70
     1
102
RTVSPropertyOp55
 70
     1
102
RTVSPropertyOp56
 70
     1
102
RTVSPropertyOp57
 70
     1
102
RTVSPropertyOp58
 70
     1
102
RTVSPropertyOp59
 70
     1
102
RTVSPropertyOp60
 70
     1
102
RTVSPropertyOp61
 70
     1
102
RTVSPropertyOp62
 70
     1
  0
XRECORD
  5
BEF8
102
{ACAD_REACTORS
330
BEF7
102
}
330
BEF7
100
AcDbXrecord
280
     1
102
RTVSPost2010Prop28
280
     0
102
RTVSPost2010PropOp28
 70
     1
102
RTVSPost2010Prop29
280
     1
102
RTVSPost2010PropOp29
 70
     1
102
RTVSPost2010Prop30
280
     1
102
RTVSPost2010PropOp30
 70
     1
102
RTVSPost2010Prop31
280
     0
102
RTVSPost2010PropOp31
 70
     1
102
RTVSPost2010Prop32
280
     0
102
RTVSPost2010PropOp32
 70
     1
102
RTVSPost2010Prop33
280
     0
102
RTVSPost2010PropOp33
 70
     1
102
RTVSPost2010Prop34
280
     0
102
RTVSPost2010PropOp34
 70
     1
102
RTVSPost2010Prop35
280
     0
102
RTVSPost2010PropOp35
 70
     1
102
RTVSPost2010Prop36
280
     0
102
RTVSPost2010PropOp36
 70
     1
102
RTVSPost2010Prop37
 90
       50
102
RTVSPost2010PropOp37
 70
     0
102
RTVSPost2010Prop38
140
0.0
102
RTVSPost2010PropOp38
 70
     0
102
RTVSPost2010Prop39
140
1.0
102
RTVSPost2010PropOp39
 70
     0
102
RTVSPost2010Prop40
 90
        0
102
RTVSPost2010PropOp40
 70
     0
102
RTVSPost2010Prop41ColorIndex
 90
       18
102
RTVSPost2010Prop41ColorRGB
 90
        0
102
RTVSPost2010PropOp41
 70
     0
102
RTVSPost2010Prop42
 90
       50
102
RTVSPost2010PropOp42
 70
     0
102
RTVSPost2010Prop43
 90
        3
102
RTVSPost2010PropOp43
 70
     0
102
RTVSPost2010Prop44ColorIndex
 90
        5
102
RTVSPost2010Prop44ColorRGB
 90
      255
102
RTVSPost2010PropOp44
 70
     0
102
RTVSPost2010Prop45
280
     0
102
RTVSPost2010PropOp45
 70
     1
102
RTVSPost2010Prop46
 90
       50
102
RTVSPost2010PropOp46
 70
     0
102
RTVSPost2010Prop47
 90
       50
102
RTVSPost2010PropOp47
 70
     0
102
RTVSPost2010Prop48
 90
       50
102
RTVSPost2010PropOp48
 70
     0
102
RTVSPost2010Prop49
280
     0
102
RTVSPost2010PropOp49
 70
     1
102
RTVSPost2010Prop50
 90
       50
102
RTVSPost2010PropOp50
 70
     0
102
RTVSPost2010Prop51ColorIndex
 90
      256
102
RTVSPost2010Prop51ColorRGB
 90
-16777216
102
RTVSPost2010PropOp51
 70
     0
102
RTVSPost2010Prop52
140
1.0
102
RTVSPost2010PropOp52
 70
     0
102
RTVSPost2010Prop53
 90
        2
102
RTVSPost2010PropOp53
 70
     0
102
RTVSPost2010Prop54
  1
strokes_ogs.tif
102
RTVSPost2010PropOp54
 70
     0
102
RTVSPost2010Prop55
280
     0
102
RTVSPost2010PropOp55
 70
     1
102
RTVSPost2010Prop56
140
1.0
102
RTVSPost2010PropOp56
 70
     0
102
RTVSPost2010Prop57
140
1.0
102
RTVSPost2010PropOp57
 70
     0
102
RTVSPropertyOp0
 70
     0
102
RTVSPropertyOp1
 70
     0
102
RTVSPropertyOp2
 70
     0
102
RTVSPropertyOp3
 70
     0
102
RTVSPropertyOp4
 70
     0
102
RTVSPropertyOp5
 70
     0
102
RTVSPropertyOp6
 70
     0
102
RTVSPropertyOp7
 70
     0
102
RTVSPropertyOp8
 70
     0
102
RTVSPropertyOp9
 70
     0
102
RTVSPropertyOp10
 70
     0
102
RTVSPropertyOp11
 70
     0
102
RTVSPropertyOp12
 70
     0
102
RTVSPropertyOp13
 70
     0
102
RTVSPropertyOp14
 70
     2
102
RTVSPropertyOp15
 70
     0
102
RTVSPropertyOp16
 70
     0
102
RTVSPropertyOp17
 70
     0
102
RTVSPropertyOp18
 70
     0
102
RTVSPropertyOp19
 70
     0
102
RTVSPropertyOp20
 70
     0
102
RTVSPropertyOp21
 70
     0
102
RTVSPropertyOp22
 70
     0
102
RTVSPropertyOp23
 70
     0
102
RTVSPropertyOp24
 70
     0
102
RTVSPropertyOp25
 70
     0
102
RTVSPropertyOp26
 70
     0
102
RTVSPropertyOp27
 70
     0
102
RTVSPropertyOp28
 70
     1
102
RTVSPropertyOp29
 70
     1
102
RTVSPropertyOp30
 70
     1
102
RTVSPropertyOp31
 70
     1
102
RTVSPropertyOp32
 70
     1
102
RTVSPropertyOp33
 70
     1
102
RTVSPropertyOp34
 70
     1
102
RTVSPropertyOp35
 70
     1
102
RTVSPropertyOp36
 70
     1
102
RTVSPropertyOp37
 70
     0
102
RTVSPropertyOp38
 70
     0
102
RTVSPropertyOp39
 70
     0
102
RTVSPropertyOp40
 70
     0
102
RTVSPropertyOp41
 70
     0
102
RTVSPropertyOp42
 70
     0
102
RTVSPropertyOp43
 70
     0
102
RTVSPropertyOp44
 70
     0
102
RTVSPropertyOp45
 70
     1
102
RTVSPropertyOp46
 70
     0
102
RTVSPropertyOp47
 70
     0
102
RTVSPropertyOp48
 70
     0
102
RTVSPropertyOp49
 70
     1
102
RTVSPropertyOp50
 70
     0
102
RTVSPropertyOp51
 70
     0
102
RTVSPropertyOp52
 70
     0
102
RTVSPropertyOp53
 70
     0
102
RTVSPropertyOp54
 70
     0
102
RTVSPropertyOp55
 70
     1
102
RTVSPropertyOp56
 70
     0
102
RTVSPropertyOp57
 70
     0
102
RTVSPropertyOp58
 70
     0
102
RTVSPropertyOp59
 70
     0
102
RTVSPropertyOp60
 70
     0
102
RTVSPropertyOp61
 70
     0
102
RTVSPropertyOp62
 70
     0
  0
XRECORD
  5
BEDE
102
{ACAD_REACTORS
330
BEDD
102
}
330
BEDD
100
AcDbXrecord
280
     1
102
RTVSPost2010Prop28
280
     0
102
RTVSPost2010PropOp28
 70
     1
102
RTVSPost2010Prop29
280
     1
102
RTVSPost2010PropOp29
 70
     1
102
RTVSPost2010Prop30
280
     1
102
RTVSPost2010PropOp30
 70
     1
102
RTVSPost2010Prop31
280
     0
102
RTVSPost2010PropOp31
 70
     1
102
RTVSPost2010Prop32
280
     0
102
RTVSPost2010PropOp32
 70
     1
102
RTVSPost2010Prop33
280
     0
102
RTVSPost2010PropOp33
 70
     1
102
RTVSPost2010Prop34
280
     0
102
RTVSPost2010PropOp34
 70
     1
102
RTVSPost2010Prop35
280
     0
102
RTVSPost2010PropOp35
 70
     1
102
RTVSPost2010Prop36
280
     0
102
RTVSPost2010PropOp36
 70
     1
102
RTVSPost2010Prop37
 90
       50
102
RTVSPost2010PropOp37
 70
     1
102
RTVSPost2010Prop38
140
0.0
102
RTVSPost2010PropOp38
 70
     1
102
RTVSPost2010Prop39
140
1.0
102
RTVSPost2010PropOp39
 70
     1
102
RTVSPost2010Prop40
 90
        0
102
RTVSPost2010PropOp40
 70
     1
102
RTVSPost2010Prop41ColorIndex
 90
       18
102
RTVSPost2010Prop41ColorRGB
 90
        0
102
RTVSPost2010PropOp41
 70
     1
102
RTVSPost2010Prop42
 90
       50
102
RTVSPost2010PropOp42
 70
     1
102
RTVSPost2010Prop43
 90
        3
102
RTVSPost2010PropOp43
 70
     1
102
RTVSPost2010Prop44ColorIndex
 90
        5
102
RTVSPost2010Prop44ColorRGB
 90
      255
102
RTVSPost2010PropOp44
 70
     1
102
RTVSPost2010Prop45
280
     0
102
RTVSPost2010PropOp45
 70
     1
102
RTVSPost2010Prop46
 90
       50
102
RTVSPost2010PropOp46
 70
     1
102
RTVSPost2010Prop47
 90
       50
102
RTVSPost2010PropOp47
 70
     1
102
RTVSPost2010Prop48
 90
       50
102
RTVSPost2010PropOp48
 70
     1
102
RTVSPost2010Prop49
280
     0
102
RTVSPost2010PropOp49
 70
     1
102
RTVSPost2010Prop50
 90
       50
102
RTVSPost2010PropOp50
 70
     1
102
RTVSPost2010Prop51ColorIndex
 90
      256
102
RTVSPost2010Prop51ColorRGB
 90
-16777216
102
RTVSPost2010PropOp51
 70
     0
102
RTVSPost2010Prop52
140
1.0
102
RTVSPost2010PropOp52
 70
     0
102
RTVSPost2010Prop53
 90
        2
102
RTVSPost2010PropOp53
 70
     1
102
RTVSPost2010Prop54
  1
strokes_ogs.tif
102
RTVSPost2010PropOp54
 70
     1
102
RTVSPost2010Prop55
280
     0
102
RTVSPost2010PropOp55
 70
     1
102
RTVSPost2010Prop56
140
1.0
102
RTVSPost2010PropOp56
 70
     1
102
RTVSPost2010Prop57
140
1.0
102
RTVSPost2010PropOp57
 70
     1
102
RTVSPropertyOp0
 70
     1
102
RTVSPropertyOp1
 70
     1
102
RTVSPropertyOp2
 70
     1
102
RTVSPropertyOp3
 70
     1
102
RTVSPropertyOp4
 70
     1
102
RTVSPropertyOp5
 70
     1
102
RTVSPropertyOp6
 70
     1
102
RTVSPropertyOp7
 70
     1
102
RTVSPropertyOp8
 70
     1
102
RTVSPropertyOp9
 70
     1
102
RTVSPropertyOp10
 70
     1
102
RTVSPropertyOp11
 70
     1
102
RTVSPropertyOp12
 70
     1
102
RTVSPropertyOp13
 70
     1
102
RTVSPropertyOp14
 70
     1
102
RTVSPropertyOp15
 70
     1
102
RTVSPropertyOp16
 70
     1
102
RTVSPropertyOp17
 70
     1
102
RTVSPropertyOp18
 70
     1
102
RTVSPropertyOp19
 70
     1
102
RTVSPropertyOp20
 70
     1
102
RTVSPropertyOp21
 70
     1
102
RTVSPropertyOp22
 70
     1
102
RTVSPropertyOp23
 70
     1
102
RTVSPropertyOp24
 70
     1
102
RTVSPropertyOp25
 70
     1
102
RTVSPropertyOp26
 70
     1
102
RTVSPropertyOp27
 70
     1
102
RTVSPropertyOp28
 70
     1
102
RTVSPropertyOp29
 70
     1
102
RTVSPropertyOp30
 70
     1
102
RTVSPropertyOp31
 70
     1
102
RTVSPropertyOp32
 70
     1
102
RTVSPropertyOp33
 70
     1
102
RTVSPropertyOp34
 70
     1
102
RTVSPropertyOp35
 70
     1
102
RTVSPropertyOp36
 70
     1
102
RTVSPropertyOp37
 70
     1
102
RTVSPropertyOp38
 70
     1
102
RTVSPropertyOp39
 70
     1
102
RTVSPropertyOp40
 70
     1
102
RTVSPropertyOp41
 70
     1
102
RTVSPropertyOp42
 70
     1
102
RTVSPropertyOp43
 70
     1
102
RTVSPropertyOp44
 70
     1
102
RTVSPropertyOp45
 70
     1
102
RTVSPropertyOp46
 70
     1
102
RTVSPropertyOp47
 70
     1
102
RTVSPropertyOp48
 70
     1
102
RTVSPropertyOp49
 70
     1
102
RTVSPropertyOp50
 70
     1
102
RTVSPropertyOp51
 70
     0
102
RTVSPropertyOp52
 70
     0
102
RTVSPropertyOp53
 70
     1
102
RTVSPropertyOp54
 70
     1
102
RTVSPropertyOp55
 70
     1
102
RTVSPropertyOp56
 70
     1
102
RTVSPropertyOp57
 70
     1
102
RTVSPropertyOp58
 70
     1
102
RTVSPropertyOp59
 70
     1
102
RTVSPropertyOp60
 70
     1
102
RTVSPropertyOp61
 70
     1
102
RTVSPropertyOp62
 70
     1
  0
XRECORD
  5
BEF4
102
{ACAD_REACTORS
330
BEF3
102
}
330
BEF3
100
AcDbXrecord
280
     1
102
RTVSPost2010Prop28
280
     0
102
RTVSPost2010PropOp28
 70
     1
102
RTVSPost2010Prop29
280
     1
102
RTVSPost2010PropOp29
 70
     1
102
RTVSPost2010Prop30
280
     1
102
RTVSPost2010PropOp30
 70
     1
102
RTVSPost2010Prop31
280
     0
102
RTVSPost2010PropOp31
 70
     1
102
RTVSPost2010Prop32
280
     0
102
RTVSPost2010PropOp32
 70
     1
102
RTVSPost2010Prop33
280
     0
102
RTVSPost2010PropOp33
 70
     1
102
RTVSPost2010Prop34
280
     0
102
RTVSPost2010PropOp34
 70
     1
102
RTVSPost2010Prop35
280
     0
102
RTVSPost2010PropOp35
 70
     1
102
RTVSPost2010Prop36
280
     0
102
RTVSPost2010PropOp36
 70
     1
102
RTVSPost2010Prop37
 90
       50
102
RTVSPost2010PropOp37
 70
     1
102
RTVSPost2010Prop38
140
0.0
102
RTVSPost2010PropOp38
 70
     1
102
RTVSPost2010Prop39
140
1.0
102
RTVSPost2010PropOp39
 70
     1
102
RTVSPost2010Prop40
 90
        0
102
RTVSPost2010PropOp40
 70
     1
102
RTVSPost2010Prop41ColorIndex
 90
       18
102
RTVSPost2010Prop41ColorRGB
 90
        0
102
RTVSPost2010PropOp41
 70
     1
102
RTVSPost2010Prop42
 90
       50
102
RTVSPost2010PropOp42
 70
     1
102
RTVSPost2010Prop43
 90
        3
102
RTVSPost2010PropOp43
 70
     1
102
RTVSPost2010Prop44ColorIndex
 90
        5
102
RTVSPost2010Prop44ColorRGB
 90
      255
102
RTVSPost2010PropOp44
 70
     1
102
RTVSPost2010Prop45
280
     0
102
RTVSPost2010PropOp45
 70
     1
102
RTVSPost2010Prop46
 90
       50
102
RTVSPost2010PropOp46
 70
     1
102
RTVSPost2010Prop47
 90
       50
102
RTVSPost2010PropOp47
 70
     1
102
RTVSPost2010Prop48
 90
       50
102
RTVSPost2010PropOp48
 70
     1
102
RTVSPost2010Prop49
280
     0
102
RTVSPost2010PropOp49
 70
     1
102
RTVSPost2010Prop50
 90
       50
102
RTVSPost2010PropOp50
 70
     1
102
RTVSPost2010Prop51ColorIndex
 90
      256
102
RTVSPost2010Prop51ColorRGB
 90
-16777216
102
RTVSPost2010PropOp51
 70
     0
102
RTVSPost2010Prop52
140
1.0
102
RTVSPost2010PropOp52
 70
     0
102
RTVSPost2010Prop53
 90
        2
102
RTVSPost2010PropOp53
 70
     1
102
RTVSPost2010Prop54
  1
strokes_ogs.tif
102
RTVSPost2010PropOp54
 70
     1
102
RTVSPost2010Prop55
280
     0
102
RTVSPost2010PropOp55
 70
     1
102
RTVSPost2010Prop56
140
1.0
102
RTVSPost2010PropOp56
 70
     1
102
RTVSPost2010Prop57
140
1.0
102
RTVSPost2010PropOp57
 70
     1
102
RTVSPropertyOp0
 70
     1
102
RTVSPropertyOp1
 70
     1
102
RTVSPropertyOp2
 70
     1
102
RTVSPropertyOp3
 70
     1
102
RTVSPropertyOp4
 70
     1
102
RTVSPropertyOp5
 70
     1
102
RTVSPropertyOp6
 70
     1
102
RTVSPropertyOp7
 70
     1
102
RTVSPropertyOp8
 70
     1
102
RTVSPropertyOp9
 70
     1
102
RTVSPropertyOp10
 70
     1
102
RTVSPropertyOp11
 70
     1
102
RTVSPropertyOp12
 70
     1
102
RTVSPropertyOp13
 70
     1
102
RTVSPropertyOp14
 70
     1
102
RTVSPropertyOp15
 70
     1
102
RTVSPropertyOp16
 70
     1
102
RTVSPropertyOp17
 70
     1
102
RTVSPropertyOp18
 70
     1
102
RTVSPropertyOp19
 70
     1
102
RTVSPropertyOp20
 70
     1
102
RTVSPropertyOp21
 70
     1
102
RTVSPropertyOp22
 70
     1
102
RTVSPropertyOp23
 70
     1
102
RTVSPropertyOp24
 70
     1
102
RTVSPropertyOp25
 70
     1
102
RTVSPropertyOp26
 70
     1
102
RTVSPropertyOp27
 70
     1
102
RTVSPropertyOp28
 70
     1
102
RTVSPropertyOp29
 70
     1
102
RTVSPropertyOp30
 70
     1
102
RTVSPropertyOp31
 70
     1
102
RTVSPropertyOp32
 70
     1
102
RTVSPropertyOp33
 70
     1
102
RTVSPropertyOp34
 70
     1
102
RTVSPropertyOp35
 70
     1
102
RTVSPropertyOp36
 70
     1
102
RTVSPropertyOp37
 70
     1
102
RTVSPropertyOp38
 70
     1
102
RTVSPropertyOp39
 70
     1
102
RTVSPropertyOp40
 70
     1
102
RTVSPropertyOp41
 70
     1
102
RTVSPropertyOp42
 70
     1
102
RTVSPropertyOp43
 70
     1
102
RTVSPropertyOp44
 70
     1
102
RTVSPropertyOp45
 70
     1
102
RTVSPropertyOp46
 70
     1
102
RTVSPropertyOp47
 70
     1
102
RTVSPropertyOp48
 70
     1
102
RTVSPropertyOp49
 70
     1
102
RTVSPropertyOp50
 70
     1
102
RTVSPropertyOp51
 70
     0
102
RTVSPropertyOp52
 70
     0
102
RTVSPropertyOp53
 70
     1
102
RTVSPropertyOp54
 70
     1
102
RTVSPropertyOp55
 70
     1
102
RTVSPropertyOp56
 70
     1
102
RTVSPropertyOp57
 70
     1
102
RTVSPropertyOp58
 70
     1
102
RTVSPropertyOp59
 70
     1
102
RTVSPropertyOp60
 70
     1
102
RTVSPropertyOp61
 70
     1
102
RTVSPropertyOp62
 70
     1
  0
XRECORD
  5
BEF2
102
{ACAD_REACTORS
330
BEF1
102
}
330
BEF1
100
AcDbXrecord
280
     1
102
RTVSPost2010Prop28
280
     0
102
RTVSPost2010PropOp28
 70
     1
102
RTVSPost2010Prop29
280
     1
102
RTVSPost2010PropOp29
 70
     1
102
RTVSPost2010Prop30
280
     1
102
RTVSPost2010PropOp30
 70
     1
102
RTVSPost2010Prop31
280
     0
102
RTVSPost2010PropOp31
 70
     1
102
RTVSPost2010Prop32
280
     0
102
RTVSPost2010PropOp32
 70
     1
102
RTVSPost2010Prop33
280
     0
102
RTVSPost2010PropOp33
 70
     1
102
RTVSPost2010Prop34
280
     0
102
RTVSPost2010PropOp34
 70
     1
102
RTVSPost2010Prop35
280
     0
102
RTVSPost2010PropOp35
 70
     1
102
RTVSPost2010Prop36
280
     0
102
RTVSPost2010PropOp36
 70
     1
102
RTVSPost2010Prop37
 90
       50
102
RTVSPost2010PropOp37
 70
     1
102
RTVSPost2010Prop38
140
0.0
102
RTVSPost2010PropOp38
 70
     1
102
RTVSPost2010Prop39
140
1.0
102
RTVSPost2010PropOp39
 70
     1
102
RTVSPost2010Prop40
 90
        0
102
RTVSPost2010PropOp40
 70
     1
102
RTVSPost2010Prop41ColorIndex
 90
       18
102
RTVSPost2010Prop41ColorRGB
 90
        0
102
RTVSPost2010PropOp41
 70
     1
102
RTVSPost2010Prop42
 90
       50
102
RTVSPost2010PropOp42
 70
     1
102
RTVSPost2010Prop43
 90
        3
102
RTVSPost2010PropOp43
 70
     1
102
RTVSPost2010Prop44ColorIndex
 90
        5
102
RTVSPost2010Prop44ColorRGB
 90
      255
102
RTVSPost2010PropOp44
 70
     1
102
RTVSPost2010Prop45
280
     0
102
RTVSPost2010PropOp45
 70
     1
102
RTVSPost2010Prop46
 90
       50
102
RTVSPost2010PropOp46
 70
     1
102
RTVSPost2010Prop47
 90
       50
102
RTVSPost2010PropOp47
 70
     1
102
RTVSPost2010Prop48
 90
       50
102
RTVSPost2010PropOp48
 70
     1
102
RTVSPost2010Prop49
280
     0
102
RTVSPost2010PropOp49
 70
     1
102
RTVSPost2010Prop50
 90
       50
102
RTVSPost2010PropOp50
 70
     1
102
RTVSPost2010Prop51ColorIndex
 90
      256
102
RTVSPost2010Prop51ColorRGB
 90
-16777216
102
RTVSPost2010PropOp51
 70
     0
102
RTVSPost2010Prop52
140
1.0
102
RTVSPost2010PropOp52
 70
     0
102
RTVSPost2010Prop53
 90
        2
102
RTVSPost2010PropOp53
 70
     1
102
RTVSPost2010Prop54
  1
strokes_ogs.tif
102
RTVSPost2010PropOp54
 70
     1
102
RTVSPost2010Prop55
280
     0
102
RTVSPost2010PropOp55
 70
     1
102
RTVSPost2010Prop56
140
1.0
102
RTVSPost2010PropOp56
 70
     1
102
RTVSPost2010Prop57
140
1.0
102
RTVSPost2010PropOp57
 70
     1
102
RTVSPropertyOp0
 70
     1
102
RTVSPropertyOp1
 70
     1
102
RTVSPropertyOp2
 70
     1
102
RTVSPropertyOp3
 70
     1
102
RTVSPropertyOp4
 70
     1
102
RTVSPropertyOp5
 70
     1
102
RTVSPropertyOp6
 70
     1
102
RTVSPropertyOp7
 70
     1
102
RTVSPropertyOp8
 70
     1
102
RTVSPropertyOp9
 70
     1
102
RTVSPropertyOp10
 70
     1
102
RTVSPropertyOp11
 70
     1
102
RTVSPropertyOp12
 70
     1
102
RTVSPropertyOp13
 70
     1
102
RTVSPropertyOp14
 70
     1
102
RTVSPropertyOp15
 70
     1
102
RTVSPropertyOp16
 70
     1
102
RTVSPropertyOp17
 70
     1
102
RTVSPropertyOp18
 70
     1
102
RTVSPropertyOp19
 70
     1
102
RTVSPropertyOp20
 70
     1
102
RTVSPropertyOp21
 70
     1
102
RTVSPropertyOp22
 70
     1
102
RTVSPropertyOp23
 70
     1
102
RTVSPropertyOp24
 70
     1
102
RTVSPropertyOp25
 70
     1
102
RTVSPropertyOp26
 70
     1
102
RTVSPropertyOp27
 70
     1
102
RTVSPropertyOp28
 70
     1
102
RTVSPropertyOp29
 70
     1
102
RTVSPropertyOp30
 70
     1
102
RTVSPropertyOp31
 70
     1
102
RTVSPropertyOp32
 70
     1
102
RTVSPropertyOp33
 70
     1
102
RTVSPropertyOp34
 70
     1
102
RTVSPropertyOp35
 70
     1
102
RTVSPropertyOp36
 70
     1
102
RTVSPropertyOp37
 70
     1
102
RTVSPropertyOp38
 70
     1
102
RTVSPropertyOp39
 70
     1
102
RTVSPropertyOp40
 70
     1
102
RTVSPropertyOp41
 70
     1
102
RTVSPropertyOp42
 70
     1
102
RTVSPropertyOp43
 70
     1
102
RTVSPropertyOp44
 70
     1
102
RTVSPropertyOp45
 70
     1
102
RTVSPropertyOp46
 70
     1
102
RTVSPropertyOp47
 70
     1
102
RTVSPropertyOp48
 70
     1
102
RTVSPropertyOp49
 70
     1
102
RTVSPropertyOp50
 70
     1
102
RTVSPropertyOp51
 70
     0
102
RTVSPropertyOp52
 70
     0
102
RTVSPropertyOp53
 70
     1
102
RTVSPropertyOp54
 70
     1
102
RTVSPropertyOp55
 70
     1
102
RTVSPropertyOp56
 70
     1
102
RTVSPropertyOp57
 70
     1
102
RTVSPropertyOp58
 70
     1
102
RTVSPropertyOp59
 70
     1
102
RTVSPropertyOp60
 70
     1
102
RTVSPropertyOp61
 70
     1
102
RTVSPropertyOp62
 70
     1
  0
XRECORD
  5
BEEC
102
{ACAD_REACTORS
330
BEEB
102
}
330
BEEB
100
AcDbXrecord
280
     1
102
RTVSPost2010Prop28
280
     0
102
RTVSPost2010PropOp28
 70
     1
102
RTVSPost2010Prop29
280
     1
102
RTVSPost2010PropOp29
 70
     1
102
RTVSPost2010Prop30
280
     1
102
RTVSPost2010PropOp30
 70
     1
102
RTVSPost2010Prop31
280
     0
102
RTVSPost2010PropOp31
 70
     1
102
RTVSPost2010Prop32
280
     0
102
RTVSPost2010PropOp32
 70
     1
102
RTVSPost2010Prop33
280
     0
102
RTVSPost2010PropOp33
 70
     1
102
RTVSPost2010Prop34
280
     0
102
RTVSPost2010PropOp34
 70
     1
102
RTVSPost2010Prop35
280
     0
102
RTVSPost2010PropOp35
 70
     1
102
RTVSPost2010Prop36
280
     0
102
RTVSPost2010PropOp36
 70
     1
102
RTVSPost2010Prop37
 90
       50
102
RTVSPost2010PropOp37
 70
     1
102
RTVSPost2010Prop38
140
0.0
102
RTVSPost2010PropOp38
 70
     1
102
RTVSPost2010Prop39
140
1.0
102
RTVSPost2010PropOp39
 70
     1
102
RTVSPost2010Prop40
 90
        0
102
RTVSPost2010PropOp40
 70
     1
102
RTVSPost2010Prop41ColorIndex
 90
       18
102
RTVSPost2010Prop41ColorRGB
 90
        0
102
RTVSPost2010PropOp41
 70
     1
102
RTVSPost2010Prop42
 90
       50
102
RTVSPost2010PropOp42
 70
     1
102
RTVSPost2010Prop43
 90
        3
102
RTVSPost2010PropOp43
 70
     1
102
RTVSPost2010Prop44ColorIndex
 90
        5
102
RTVSPost2010Prop44ColorRGB
 90
      255
102
RTVSPost2010PropOp44
 70
     1
102
RTVSPost2010Prop45
280
     0
102
RTVSPost2010PropOp45
 70
     1
102
RTVSPost2010Prop46
 90
       50
102
RTVSPost2010PropOp46
 70
     1
102
RTVSPost2010Prop47
 90
       50
102
RTVSPost2010PropOp47
 70
     1
102
RTVSPost2010Prop48
 90
       50
102
RTVSPost2010PropOp48
 70
     1
102
RTVSPost2010Prop49
280
     0
102
RTVSPost2010PropOp49
 70
     1
102
RTVSPost2010Prop50
 90
       50
102
RTVSPost2010PropOp50
 70
     1
102
RTVSPost2010Prop51ColorIndex
 90
      256
102
RTVSPost2010Prop51ColorRGB
 90
-16777216
102
RTVSPost2010PropOp51
 70
     0
102
RTVSPost2010Prop52
140
1.0
102
RTVSPost2010PropOp52
 70
     0
102
RTVSPost2010Prop53
 90
        2
102
RTVSPost2010PropOp53
 70
     1
102
RTVSPost2010Prop54
  1
strokes_ogs.tif
102
RTVSPost2010PropOp54
 70
     1
102
RTVSPost2010Prop55
280
     0
102
RTVSPost2010PropOp55
 70
     1
102
RTVSPost2010Prop56
140
1.0
102
RTVSPost2010PropOp56
 70
     1
102
RTVSPost2010Prop57
140
1.0
102
RTVSPost2010PropOp57
 70
     1
102
RTVSPropertyOp0
 70
     1
102
RTVSPropertyOp1
 70
     1
102
RTVSPropertyOp2
 70
     1
102
RTVSPropertyOp3
 70
     1
102
RTVSPropertyOp4
 70
     1
102
RTVSPropertyOp5
 70
     1
102
RTVSPropertyOp6
 70
     1
102
RTVSPropertyOp7
 70
     1
102
RTVSPropertyOp8
 70
     1
102
RTVSPropertyOp9
 70
     1
102
RTVSPropertyOp10
 70
     1
102
RTVSPropertyOp11
 70
     1
102
RTVSPropertyOp12
 70
     1
102
RTVSPropertyOp13
 70
     1
102
RTVSPropertyOp14
 70
     1
102
RTVSPropertyOp15
 70
     1
102
RTVSPropertyOp16
 70
     1
102
RTVSPropertyOp17
 70
     1
102
RTVSPropertyOp18
 70
     1
102
RTVSPropertyOp19
 70
     1
102
RTVSPropertyOp20
 70
     1
102
RTVSPropertyOp21
 70
     1
102
RTVSPropertyOp22
 70
     1
102
RTVSPropertyOp23
 70
     1
102
RTVSPropertyOp24
 70
     1
102
RTVSPropertyOp25
 70
     1
102
RTVSPropertyOp26
 70
     1
102
RTVSPropertyOp27
 70
     1
102
RTVSPropertyOp28
 70
     1
102
RTVSPropertyOp29
 70
     1
102
RTVSPropertyOp30
 70
     1
102
RTVSPropertyOp31
 70
     1
102
RTVSPropertyOp32
 70
     1
102
RTVSPropertyOp33
 70
     1
102
RTVSPropertyOp34
 70
     1
102
RTVSPropertyOp35
 70
     1
102
RTVSPropertyOp36
 70
     1
102
RTVSPropertyOp37
 70
     1
102
RTVSPropertyOp38
 70
     1
102
RTVSPropertyOp39
 70
     1
102
RTVSPropertyOp40
 70
     1
102
RTVSPropertyOp41
 70
     1
102
RTVSPropertyOp42
 70
     1
102
RTVSPropertyOp43
 70
     1
102
RTVSPropertyOp44
 70
     1
102
RTVSPropertyOp45
 70
     1
102
RTVSPropertyOp46
 70
     1
102
RTVSPropertyOp47
 70
     1
102
RTVSPropertyOp48
 70
     1
102
RTVSPropertyOp49
 70
     1
102
RTVSPropertyOp50
 70
     1
102
RTVSPropertyOp51
 70
     0
102
RTVSPropertyOp52
 70
     0
102
RTVSPropertyOp53
 70
     1
102
RTVSPropertyOp54
 70
     1
102
RTVSPropertyOp55
 70
     1
102
RTVSPropertyOp56
 70
     1
102
RTVSPropertyOp57
 70
     1
102
RTVSPropertyOp58
 70
     1
102
RTVSPropertyOp59
 70
     1
102
RTVSPropertyOp60
 70
     1
102
RTVSPropertyOp61
 70
     1
102
RTVSPropertyOp62
 70
     1
  0
XRECORD
  5
BEEE
102
{ACAD_REACTORS
330
BEED
102
}
330
BEED
100
AcDbXrecord
280
     1
102
RTVSPost2010Prop28
280
     0
102
RTVSPost2010PropOp28
 70
     1
102
RTVSPost2010Prop29
280
     1
102
RTVSPost2010PropOp29
 70
     1
102
RTVSPost2010Prop30
280
     1
102
RTVSPost2010PropOp30
 70
     1
102
RTVSPost2010Prop31
280
     0
102
RTVSPost2010PropOp31
 70
     1
102
RTVSPost2010Prop32
280
     0
102
RTVSPost2010PropOp32
 70
     1
102
RTVSPost2010Prop33
280
     0
102
RTVSPost2010PropOp33
 70
     1
102
RTVSPost2010Prop34
280
     0
102
RTVSPost2010PropOp34
 70
     1
102
RTVSPost2010Prop35
280
     0
102
RTVSPost2010PropOp35
 70
     1
102
RTVSPost2010Prop36
280
     0
102
RTVSPost2010PropOp36
 70
     1
102
RTVSPost2010Prop37
 90
       50
102
RTVSPost2010PropOp37
 70
     1
102
RTVSPost2010Prop38
140
0.0
102
RTVSPost2010PropOp38
 70
     1
102
RTVSPost2010Prop39
140
1.0
102
RTVSPost2010PropOp39
 70
     1
102
RTVSPost2010Prop40
 90
        0
102
RTVSPost2010PropOp40
 70
     1
102
RTVSPost2010Prop41ColorIndex
 90
       18
102
RTVSPost2010Prop41ColorRGB
 90
        0
102
RTVSPost2010PropOp41
 70
     1
102
RTVSPost2010Prop42
 90
       50
102
RTVSPost2010PropOp42
 70
     1
102
RTVSPost2010Prop43
 90
        3
102
RTVSPost2010PropOp43
 70
     1
102
RTVSPost2010Prop44ColorIndex
 90
        5
102
RTVSPost2010Prop44ColorRGB
 90
      255
102
RTVSPost2010PropOp44
 70
     1
102
RTVSPost2010Prop45
280
     0
102
RTVSPost2010PropOp45
 70
     1
102
RTVSPost2010Prop46
 90
       50
102
RTVSPost2010PropOp46
 70
     1
102
RTVSPost2010Prop47
 90
       50
102
RTVSPost2010PropOp47
 70
     1
102
RTVSPost2010Prop48
 90
       50
102
RTVSPost2010PropOp48
 70
     1
102
RTVSPost2010Prop49
280
     0
102
RTVSPost2010PropOp49
 70
     1
102
RTVSPost2010Prop50
 90
       50
102
RTVSPost2010PropOp50
 70
     1
102
RTVSPost2010Prop51ColorIndex
 90
      256
102
RTVSPost2010Prop51ColorRGB
 90
-16777216
102
RTVSPost2010PropOp51
 70
     0
102
RTVSPost2010Prop52
140
1.0
102
RTVSPost2010PropOp52
 70
     0
102
RTVSPost2010Prop53
 90
        2
102
RTVSPost2010PropOp53
 70
     1
102
RTVSPost2010Prop54
  1
strokes_ogs.tif
102
RTVSPost2010PropOp54
 70
     1
102
RTVSPost2010Prop55
280
     0
102
RTVSPost2010PropOp55
 70
     1
102
RTVSPost2010Prop56
140
1.0
102
RTVSPost2010PropOp56
 70
     1
102
RTVSPost2010Prop57
140
1.0
102
RTVSPost2010PropOp57
 70
     1
102
RTVSPropertyOp0
 70
     1
102
RTVSPropertyOp1
 70
     1
102
RTVSPropertyOp2
 70
     1
102
RTVSPropertyOp3
 70
     1
102
RTVSPropertyOp4
 70
     1
102
RTVSPropertyOp5
 70
     1
102
RTVSPropertyOp6
 70
     1
102
RTVSPropertyOp7
 70
     1
102
RTVSPropertyOp8
 70
     1
102
RTVSPropertyOp9
 70
     1
102
RTVSPropertyOp10
 70
     1
102
RTVSPropertyOp11
 70
     1
102
RTVSPropertyOp12
 70
     1
102
RTVSPropertyOp13
 70
     1
102
RTVSPropertyOp14
 70
     1
102
RTVSPropertyOp15
 70
     1
102
RTVSPropertyOp16
 70
     1
102
RTVSPropertyOp17
 70
     1
102
RTVSPropertyOp18
 70
     1
102
RTVSPropertyOp19
 70
     1
102
RTVSPropertyOp20
 70
     1
102
RTVSPropertyOp21
 70
     1
102
RTVSPropertyOp22
 70
     1
102
RTVSPropertyOp23
 70
     1
102
RTVSPropertyOp24
 70
     1
102
RTVSPropertyOp25
 70
     1
102
RTVSPropertyOp26
 70
     1
102
RTVSPropertyOp27
 70
     1
102
RTVSPropertyOp28
 70
     1
102
RTVSPropertyOp29
 70
     1
102
RTVSPropertyOp30
 70
     1
102
RTVSPropertyOp31
 70
     1
102
RTVSPropertyOp32
 70
     1
102
RTVSPropertyOp33
 70
     1
102
RTVSPropertyOp34
 70
     1
102
RTVSPropertyOp35
 70
     1
102
RTVSPropertyOp36
 70
     1
102
RTVSPropertyOp37
 70
     1
102
RTVSPropertyOp38
 70
     1
102
RTVSPropertyOp39
 70
     1
102
RTVSPropertyOp40
 70
     1
102
RTVSPropertyOp41
 70
     1
102
RTVSPropertyOp42
 70
     1
102
RTVSPropertyOp43
 70
     1
102
RTVSPropertyOp44
 70
     1
102
RTVSPropertyOp45
 70
     1
102
RTVSPropertyOp46
 70
     1
102
RTVSPropertyOp47
 70
     1
102
RTVSPropertyOp48
 70
     1
102
RTVSPropertyOp49
 70
     1
102
RTVSPropertyOp50
 70
     1
102
RTVSPropertyOp51
 70
     0
102
RTVSPropertyOp52
 70
     0
102
RTVSPropertyOp53
 70
     1
102
RTVSPropertyOp54
 70
     1
102
RTVSPropertyOp55
 70
     1
102
RTVSPropertyOp56
 70
     1
102
RTVSPropertyOp57
 70
     1
102
RTVSPropertyOp58
 70
     1
102
RTVSPropertyOp59
 70
     1
102
RTVSPropertyOp60
 70
     1
102
RTVSPropertyOp61
 70
     1
102
RTVSPropertyOp62
 70
     1
  0
XRECORD
  5
BEE4
102
{ACAD_REACTORS
330
BEE3
102
}
330
BEE3
100
AcDbXrecord
280
     1
102
RTVSPost2010Prop28
280
     0
102
RTVSPost2010PropOp28
 70
     1
102
RTVSPost2010Prop29
280
     1
102
RTVSPost2010PropOp29
 70
     1
102
RTVSPost2010Prop30
280
     1
102
RTVSPost2010PropOp30
 70
     1
102
RTVSPost2010Prop31
280
     0
102
RTVSPost2010PropOp31
 70
     1
102
RTVSPost2010Prop32
280
     0
102
RTVSPost2010PropOp32
 70
     1
102
RTVSPost2010Prop33
280
     0
102
RTVSPost2010PropOp33
 70
     1
102
RTVSPost2010Prop34
280
     0
102
RTVSPost2010PropOp34
 70
     1
102
RTVSPost2010Prop35
280
     0
102
RTVSPost2010PropOp35
 70
     1
102
RTVSPost2010Prop36
280
     0
102
RTVSPost2010PropOp36
 70
     1
102
RTVSPost2010Prop37
 90
       50
102
RTVSPost2010PropOp37
 70
     1
102
RTVSPost2010Prop38
140
0.0
102
RTVSPost2010PropOp38
 70
     1
102
RTVSPost2010Prop39
140
1.0
102
RTVSPost2010PropOp39
 70
     1
102
RTVSPost2010Prop40
 90
        0
102
RTVSPost2010PropOp40
 70
     1
102
RTVSPost2010Prop41ColorIndex
 90
       18
102
RTVSPost2010Prop41ColorRGB
 90
        0
102
RTVSPost2010PropOp41
 70
     1
102
RTVSPost2010Prop42
 90
       50
102
RTVSPost2010PropOp42
 70
     1
102
RTVSPost2010Prop43
 90
        3
102
RTVSPost2010PropOp43
 70
     1
102
RTVSPost2010Prop44ColorIndex
 90
        5
102
RTVSPost2010Prop44ColorRGB
 90
      255
102
RTVSPost2010PropOp44
 70
     1
102
RTVSPost2010Prop45
280
     0
102
RTVSPost2010PropOp45
 70
     1
102
RTVSPost2010Prop46
 90
       50
102
RTVSPost2010PropOp46
 70
     1
102
RTVSPost2010Prop47
 90
       50
102
RTVSPost2010PropOp47
 70
     1
102
RTVSPost2010Prop48
 90
       50
102
RTVSPost2010PropOp48
 70
     1
102
RTVSPost2010Prop49
280
     0
102
RTVSPost2010PropOp49
 70
     1
102
RTVSPost2010Prop50
 90
       50
102
RTVSPost2010PropOp50
 70
     1
102
RTVSPost2010Prop51ColorIndex
 90
      256
102
RTVSPost2010Prop51ColorRGB
 90
-16777216
102
RTVSPost2010PropOp51
 70
     0
102
RTVSPost2010Prop52
140
1.0
102
RTVSPost2010PropOp52
 70
     0
102
RTVSPost2010Prop53
 90
        2
102
RTVSPost2010PropOp53
 70
     1
102
RTVSPost2010Prop54
  1
strokes_ogs.tif
102
RTVSPost2010PropOp54
 70
     1
102
RTVSPost2010Prop55
280
     0
102
RTVSPost2010PropOp55
 70
     1
102
RTVSPost2010Prop56
140
1.0
102
RTVSPost2010PropOp56
 70
     1
102
RTVSPost2010Prop57
140
1.0
102
RTVSPost2010PropOp57
 70
     1
102
RTVSPropertyOp0
 70
     1
102
RTVSPropertyOp1
 70
     1
102
RTVSPropertyOp2
 70
     1
102
RTVSPropertyOp3
 70
     1
102
RTVSPropertyOp4
 70
     1
102
RTVSPropertyOp5
 70
     1
102
RTVSPropertyOp6
 70
     1
102
RTVSPropertyOp7
 70
     1
102
RTVSPropertyOp8
 70
     1
102
RTVSPropertyOp9
 70
     1
102
RTVSPropertyOp10
 70
     1
102
RTVSPropertyOp11
 70
     1
102
RTVSPropertyOp12
 70
     1
102
RTVSPropertyOp13
 70
     1
102
RTVSPropertyOp14
 70
     1
102
RTVSPropertyOp15
 70
     1
102
RTVSPropertyOp16
 70
     1
102
RTVSPropertyOp17
 70
     1
102
RTVSPropertyOp18
 70
     1
102
RTVSPropertyOp19
 70
     1
102
RTVSPropertyOp20
 70
     1
102
RTVSPropertyOp21
 70
     1
102
RTVSPropertyOp22
 70
     1
102
RTVSPropertyOp23
 70
     1
102
RTVSPropertyOp24
 70
     1
102
RTVSPropertyOp25
 70
     1
102
RTVSPropertyOp26
 70
     1
102
RTVSPropertyOp27
 70
     1
102
RTVSPropertyOp28
 70
     1
102
RTVSPropertyOp29
 70
     1
102
RTVSPropertyOp30
 70
     1
102
RTVSPropertyOp31
 70
     1
102
RTVSPropertyOp32
 70
     1
102
RTVSPropertyOp33
 70
     1
102
RTVSPropertyOp34
 70
     1
102
RTVSPropertyOp35
 70
     1
102
RTVSPropertyOp36
 70
     1
102
RTVSPropertyOp37
 70
     1
102
RTVSPropertyOp38
 70
     1
102
RTVSPropertyOp39
 70
     1
102
RTVSPropertyOp40
 70
     1
102
RTVSPropertyOp41
 70
     1
102
RTVSPropertyOp42
 70
     1
102
RTVSPropertyOp43
 70
     1
102
RTVSPropertyOp44
 70
     1
102
RTVSPropertyOp45
 70
     1
102
RTVSPropertyOp46
 70
     1
102
RTVSPropertyOp47
 70
     1
102
RTVSPropertyOp48
 70
     1
102
RTVSPropertyOp49
 70
     1
102
RTVSPropertyOp50
 70
     1
102
RTVSPropertyOp51
 70
     0
102
RTVSPropertyOp52
 70
     0
102
RTVSPropertyOp53
 70
     1
102
RTVSPropertyOp54
 70
     1
102
RTVSPropertyOp55
 70
     1
102
RTVSPropertyOp56
 70
     1
102
RTVSPropertyOp57
 70
     1
102
RTVSPropertyOp58
 70
     1
102
RTVSPropertyOp59
 70
     1
102
RTVSPropertyOp60
 70
     1
102
RTVSPropertyOp61
 70
     1
102
RTVSPropertyOp62
 70
     1
  0
XRECORD
  5
BED8
102
{ACAD_REACTORS
330
BED7
102
}
330
BED7
100
AcDbXrecord
280
     1
102
RTVSPost2010Prop28
280
     0
102
RTVSPost2010PropOp28
 70
     1
102
RTVSPost2010Prop29
280
     1
102
RTVSPost2010PropOp29
 70
     1
102
RTVSPost2010Prop30
280
     1
102
RTVSPost2010PropOp30
 70
     1
102
RTVSPost2010Prop31
280
     0
102
RTVSPost2010PropOp31
 70
     1
102
RTVSPost2010Prop32
280
     0
102
RTVSPost2010PropOp32
 70
     1
102
RTVSPost2010Prop33
280
     0
102
RTVSPost2010PropOp33
 70
     1
102
RTVSPost2010Prop34
280
     0
102
RTVSPost2010PropOp34
 70
     1
102
RTVSPost2010Prop35
280
     0
102
RTVSPost2010PropOp35
 70
     1
102
RTVSPost2010Prop36
280
     0
102
RTVSPost2010PropOp36
 70
     1
102
RTVSPost2010Prop37
 90
       50
102
RTVSPost2010PropOp37
 70
     1
102
RTVSPost2010Prop38
140
0.0
102
RTVSPost2010PropOp38
 70
     1
102
RTVSPost2010Prop39
140
1.0
102
RTVSPost2010PropOp39
 70
     1
102
RTVSPost2010Prop40
 90
        0
102
RTVSPost2010PropOp40
 70
     1
102
RTVSPost2010Prop41ColorIndex
 90
       18
102
RTVSPost2010Prop41ColorRGB
 90
        0
102
RTVSPost2010PropOp41
 70
     1
102
RTVSPost2010Prop42
 90
       50
102
RTVSPost2010PropOp42
 70
     1
102
RTVSPost2010Prop43
 90
        3
102
RTVSPost2010PropOp43
 70
     1
102
RTVSPost2010Prop44ColorIndex
 90
        5
102
RTVSPost2010Prop44ColorRGB
 90
      255
102
RTVSPost2010PropOp44
 70
     1
102
RTVSPost2010Prop45
280
     0
102
RTVSPost2010PropOp45
 70
     1
102
RTVSPost2010Prop46
 90
       50
102
RTVSPost2010PropOp46
 70
     1
102
RTVSPost2010Prop47
 90
       50
102
RTVSPost2010PropOp47
 70
     1
102
RTVSPost2010Prop48
 90
       50
102
RTVSPost2010PropOp48
 70
     1
102
RTVSPost2010Prop49
280
     0
102
RTVSPost2010PropOp49
 70
     1
102
RTVSPost2010Prop50
 90
       50
102
RTVSPost2010PropOp50
 70
     1
102
RTVSPost2010Prop51ColorIndex
 90
      256
102
RTVSPost2010Prop51ColorRGB
 90
-16777216
102
RTVSPost2010PropOp51
 70
     0
102
RTVSPost2010Prop52
140
1.0
102
RTVSPost2010PropOp52
 70
     0
102
RTVSPost2010Prop53
 90
        2
102
RTVSPost2010PropOp53
 70
     1
102
RTVSPost2010Prop54
  1
strokes_ogs.tif
102
RTVSPost2010PropOp54
 70
     1
102
RTVSPost2010Prop55
280
     0
102
RTVSPost2010PropOp55
 70
     1
102
RTVSPost2010Prop56
140
1.0
102
RTVSPost2010PropOp56
 70
     1
102
RTVSPost2010Prop57
140
1.0
102
RTVSPost2010PropOp57
 70
     1
102
RTVSPropertyOp0
 70
     1
102
RTVSPropertyOp1
 70
     1
102
RTVSPropertyOp2
 70
     1
102
RTVSPropertyOp3
 70
     1
102
RTVSPropertyOp4
 70
     1
102
RTVSPropertyOp5
 70
     1
102
RTVSPropertyOp6
 70
     1
102
RTVSPropertyOp7
 70
     1
102
RTVSPropertyOp8
 70
     1
102
RTVSPropertyOp9
 70
     1
102
RTVSPropertyOp10
 70
     1
102
RTVSPropertyOp11
 70
     1
102
RTVSPropertyOp12
 70
     1
102
RTVSPropertyOp13
 70
     1
102
RTVSPropertyOp14
 70
     1
102
RTVSPropertyOp15
 70
     1
102
RTVSPropertyOp16
 70
     1
102
RTVSPropertyOp17
 70
     1
102
RTVSPropertyOp18
 70
     1
102
RTVSPropertyOp19
 70
     1
102
RTVSPropertyOp20
 70
     1
102
RTVSPropertyOp21
 70
     1
102
RTVSPropertyOp22
 70
     1
102
RTVSPropertyOp23
 70
     1
102
RTVSPropertyOp24
 70
     1
102
RTVSPropertyOp25
 70
     1
102
RTVSPropertyOp26
 70
     1
102
RTVSPropertyOp27
 70
     1
102
RTVSPropertyOp28
 70
     1
102
RTVSPropertyOp29
 70
     1
102
RTVSPropertyOp30
 70
     1
102
RTVSPropertyOp31
 70
     1
102
RTVSPropertyOp32
 70
     1
102
RTVSPropertyOp33
 70
     1
102
RTVSPropertyOp34
 70
     1
102
RTVSPropertyOp35
 70
     1
102
RTVSPropertyOp36
 70
     1
102
RTVSPropertyOp37
 70
     1
102
RTVSPropertyOp38
 70
     1
102
RTVSPropertyOp39
 70
     1
102
RTVSPropertyOp40
 70
     1
102
RTVSPropertyOp41
 70
     1
102
RTVSPropertyOp42
 70
     1
102
RTVSPropertyOp43
 70
     1
102
RTVSPropertyOp44
 70
     1
102
RTVSPropertyOp45
 70
     1
102
RTVSPropertyOp46
 70
     1
102
RTVSPropertyOp47
 70
     1
102
RTVSPropertyOp48
 70
     1
102
RTVSPropertyOp49
 70
     1
102
RTVSPropertyOp50
 70
     1
102
RTVSPropertyOp51
 70
     0
102
RTVSPropertyOp52
 70
     0
102
RTVSPropertyOp53
 70
     1
102
RTVSPropertyOp54
 70
     1
102
RTVSPropertyOp55
 70
     1
102
RTVSPropertyOp56
 70
     1
102
RTVSPropertyOp57
 70
     1
102
RTVSPropertyOp58
 70
     1
102
RTVSPropertyOp59
 70
     1
102
RTVSPropertyOp60
 70
     1
102
RTVSPropertyOp61
 70
     1
102
RTVSPropertyOp62
 70
     1
  0
XRECORD
  5
BEF0
102
{ACAD_REACTORS
330
BEEF
102
}
330
BEEF
100
AcDbXrecord
280
     1
102
RTVSPost2010Prop28
280
     0
102
RTVSPost2010PropOp28
 70
     1
102
RTVSPost2010Prop29
280
     1
102
RTVSPost2010PropOp29
 70
     1
102
RTVSPost2010Prop30
280
     1
102
RTVSPost2010PropOp30
 70
     1
102
RTVSPost2010Prop31
280
     0
102
RTVSPost2010PropOp31
 70
     1
102
RTVSPost2010Prop32
280
     0
102
RTVSPost2010PropOp32
 70
     1
102
RTVSPost2010Prop33
280
     0
102
RTVSPost2010PropOp33
 70
     1
102
RTVSPost2010Prop34
280
     0
102
RTVSPost2010PropOp34
 70
     1
102
RTVSPost2010Prop35
280
     0
102
RTVSPost2010PropOp35
 70
     1
102
RTVSPost2010Prop36
280
     0
102
RTVSPost2010PropOp36
 70
     1
102
RTVSPost2010Prop37
 90
       50
102
RTVSPost2010PropOp37
 70
     1
102
RTVSPost2010Prop38
140
0.0
102
RTVSPost2010PropOp38
 70
     1
102
RTVSPost2010Prop39
140
1.0
102
RTVSPost2010PropOp39
 70
     1
102
RTVSPost2010Prop40
 90
        0
102
RTVSPost2010PropOp40
 70
     1
102
RTVSPost2010Prop41ColorIndex
 90
       18
102
RTVSPost2010Prop41ColorRGB
 90
        0
102
RTVSPost2010PropOp41
 70
     1
102
RTVSPost2010Prop42
 90
       50
102
RTVSPost2010PropOp42
 70
     1
102
RTVSPost2010Prop43
 90
        3
102
RTVSPost2010PropOp43
 70
     1
102
RTVSPost2010Prop44ColorIndex
 90
        5
102
RTVSPost2010Prop44ColorRGB
 90
      255
102
RTVSPost2010PropOp44
 70
     1
102
RTVSPost2010Prop45
280
     0
102
RTVSPost2010PropOp45
 70
     1
102
RTVSPost2010Prop46
 90
       50
102
RTVSPost2010PropOp46
 70
     1
102
RTVSPost2010Prop47
 90
       50
102
RTVSPost2010PropOp47
 70
     1
102
RTVSPost2010Prop48
 90
       50
102
RTVSPost2010PropOp48
 70
     1
102
RTVSPost2010Prop49
280
     0
102
RTVSPost2010PropOp49
 70
     1
102
RTVSPost2010Prop50
 90
       50
102
RTVSPost2010PropOp50
 70
     1
102
RTVSPost2010Prop51ColorIndex
 90
      256
102
RTVSPost2010Prop51ColorRGB
 90
-16777216
102
RTVSPost2010PropOp51
 70
     0
102
RTVSPost2010Prop52
140
1.0
102
RTVSPost2010PropOp52
 70
     0
102
RTVSPost2010Prop53
 90
        2
102
RTVSPost2010PropOp53
 70
     1
102
RTVSPost2010Prop54
  1
strokes_ogs.tif
102
RTVSPost2010PropOp54
 70
     1
102
RTVSPost2010Prop55
280
     0
102
RTVSPost2010PropOp55
 70
     1
102
RTVSPost2010Prop56
140
1.0
102
RTVSPost2010PropOp56
 70
     1
102
RTVSPost2010Prop57
140
1.0
102
RTVSPost2010PropOp57
 70
     1
102
RTVSPropertyOp0
 70
     1
102
RTVSPropertyOp1
 70
     1
102
RTVSPropertyOp2
 70
     1
102
RTVSPropertyOp3
 70
     1
102
RTVSPropertyOp4
 70
     1
102
RTVSPropertyOp5
 70
     1
102
RTVSPropertyOp6
 70
     1
102
RTVSPropertyOp7
 70
     1
102
RTVSPropertyOp8
 70
     1
102
RTVSPropertyOp9
 70
     1
102
RTVSPropertyOp10
 70
     1
102
RTVSPropertyOp11
 70
     1
102
RTVSPropertyOp12
 70
     1
102
RTVSPropertyOp13
 70
     1
102
RTVSPropertyOp14
 70
     1
102
RTVSPropertyOp15
 70
     1
102
RTVSPropertyOp16
 70
     1
102
RTVSPropertyOp17
 70
     1
102
RTVSPropertyOp18
 70
     1
102
RTVSPropertyOp19
 70
     1
102
RTVSPropertyOp20
 70
     1
102
RTVSPropertyOp21
 70
     1
102
RTVSPropertyOp22
 70
     1
102
RTVSPropertyOp23
 70
     1
102
RTVSPropertyOp24
 70
     1
102
RTVSPropertyOp25
 70
     1
102
RTVSPropertyOp26
 70
     1
102
RTVSPropertyOp27
 70
     1
102
RTVSPropertyOp28
 70
     1
102
RTVSPropertyOp29
 70
     1
102
RTVSPropertyOp30
 70
     1
102
RTVSPropertyOp31
 70
     1
102
RTVSPropertyOp32
 70
     1
102
RTVSPropertyOp33
 70
     1
102
RTVSPropertyOp34
 70
     1
102
RTVSPropertyOp35
 70
     1
102
RTVSPropertyOp36
 70
     1
102
RTVSPropertyOp37
 70
     1
102
RTVSPropertyOp38
 70
     1
102
RTVSPropertyOp39
 70
     1
102
RTVSPropertyOp40
 70
     1
102
RTVSPropertyOp41
 70
     1
102
RTVSPropertyOp42
 70
     1
102
RTVSPropertyOp43
 70
     1
102
RTVSPropertyOp44
 70
     1
102
RTVSPropertyOp45
 70
     1
102
RTVSPropertyOp46
 70
     1
102
RTVSPropertyOp47
 70
     1
102
RTVSPropertyOp48
 70
     1
102
RTVSPropertyOp49
 70
     1
102
RTVSPropertyOp50
 70
     1
102
RTVSPropertyOp51
 70
     0
102
RTVSPropertyOp52
 70
     0
102
RTVSPropertyOp53
 70
     1
102
RTVSPropertyOp54
 70
     1
102
RTVSPropertyOp55
 70
     1
102
RTVSPropertyOp56
 70
     1
102
RTVSPropertyOp57
 70
     1
102
RTVSPropertyOp58
 70
     1
102
RTVSPropertyOp59
 70
     1
102
RTVSPropertyOp60
 70
     1
102
RTVSPropertyOp61
 70
     1
102
RTVSPropertyOp62
 70
     1
  0
ENDSEC
  0
EOF
