  0
SECTION
  2
HEADER
  9
$ACADVER
  1
AC1015
  9
$ACADMAINTVER
 70
    10
  9
$DWGCODEPAGE
  3
ANSI_932
  9
$INSBASE
 10
0.0
 20
0.0
 30
0.0
  9
$EXTMIN
 10
-160.0886342149328
 20
-810.5995103782033
 30
-0.0000000000000053
  9
$EXTMAX
 10
730.6124299774092
 20
671.9537410186067
 30
0.0000000000000099
  9
$LIMMIN
 10
-396.0
 20
-1187.0
  9
$LIMMAX
 10
1243.0
 20
1822.0
  9
$ORTHOMODE
 70
     1
  9
$REGENMODE
 70
     1
  9
$FILLMODE
 70
     1
  9
$QTEXTMODE
 70
     0
  9
$MIRRTEXT
 70
     1
  9
$LTSCALE
 40
20.0
  9
$ATTMODE
 70
     1
  9
$TEXTSIZE
 40
5.0
  9
$TRACEWID
 40
0.05
  9
$TEXTSTYLE
  7
STANDARD1
  9
$CLAYER
  8
21
  9
$CELTYPE
  6
CONTINUOUS
  9
$CECOLOR
 62
   256
  9
$CELTSCALE
 40
1.0
  9
$DISPSILH
 70
     0
  9
$DIMSCALE
 40
1.0
  9
$DIMASZ
 40
2.0
  9
$DIMEXO
 40
3.0
  9
$DIMDLI
 40
0.5
  9
$DIMRND
 40
0.0
  9
$DIMDLE
 40
0.0
  9
$DIMEXE
 40
0.5
  9
$DIMTP
 40
0.0
  9
$DIMTM
 40
0.0
  9
$DIMTXT
 40
6.0
  9
$DIMCEN
 40
0.09
  9
$DIMTSZ
 40
0.0
  9
$DIMTOL
 70
     0
  9
$DIMLIM
 70
     0
  9
$DIMTIH
 70
     0
  9
$DIMTOH
 70
     1
  9
$DIMSE1
 70
     0
  9
$DIMSE2
 70
     0
  9
$DIMTAD
 70
     3
  9
$DIMZIN
 70
    12
  9
$DIMBLK
  1
OPEN
  9
$DIMASO
 70
     1
  9
$DIMSHO
 70
     1
  9
$DIMPOST
  1

  9
$DIMAPOST
  1

  9
$DIMALT
 70
     0
  9
$DIMALTD
 70
     2
  9
$DIMALTF
 40
25.4
  9
$DIMLFAC
 40
1.0
  9
$DIMTOFL
 70
     0
  9
$DIMTVP
 40
0.0
  9
$DIMTIX
 70
     0
  9
$DIMSOXD
 70
     0
  9
$DIMSAH
 70
     0
  9
$DIMBLK1
  1

  9
$DIMBLK2
  1

  9
$DIMSTYLE
  2
STANDARD1
  9
$DIMCLRD
 70
     0
  9
$DIMCLRE
 70
     0
  9
$DIMCLRT
 70
     0
  9
$DIMTFAC
 40
1.0
  9
$DIMGAP
 40
3.0
  9
$DIMJUST
 70
     0
  9
$DIMSD1
 70
     0
  9
$DIMSD2
 70
     0
  9
$DIMTOLJ
 70
     1
  9
$DIMTZIN
 70
     0
  9
$DIMALTZ
 70
     0
  9
$DIMALTTZ
 70
     0
  9
$DIMUPT
 70
     0
  9
$DIMDEC
 70
     1
  9
$DIMTDEC
 70
     1
  9
$DIMALTU
 70
     2
  9
$DIMALTTD
 70
     2
  9
$DIMTXSTY
  7
STANDARD
  9
$DIMAUNIT
 70
     0
  9
$DIMADEC
 70
     0
  9
$DIMALTRND
 40
0.0
  9
$DIMAZIN
 70
     0
  9
$DIMDSEP
 70
    46
  9
$DIMATFIT
 70
     2
  9
$DIMFRAC
 70
     0
  9
$DIMLDRBLK
  1
OPEN
  9
$DIMLUNIT
 70
     2
  9
$DIMLWD
 70
    -2
  9
$DIMLWE
 70
    -2
  9
$DIMTMOVE
 70
     0
  9
$LUNITS
 70
     2
  9
$LUPREC
 70
     4
  9
$SKETCHINC
 40
0.1
  9
$FILLETRAD
 40
3.0
  9
$AUNITS
 70
     0
  9
$AUPREC
 70
     0
  9
$MENU
  1
.
  9
$ELEVATION
 40
0.0
  9
$PELEVATION
 40
0.0
  9
$THICKNESS
 40
0.0
  9
$LIMCHECK
 70
     0
  9
$CHAMFERA
 40
0.0
  9
$CHAMFERB
 40
0.0
  9
$CHAMFERC
 40
0.0
  9
$CHAMFERD
 40
0.0
  9
$SKPOLY
 70
     0
  9
$TDCREATE
 40
2452286.555658657
  9
$TDUCREATE
 40
2452286.180658657
  9
$TDUPDATE
 40
2454700.704372639
  9
$TDUUPDATE
 40
2454700.329372639
  9
$TDINDWG
 40
2.1153203819
  9
$TDUSRTIMER
 40
2.1153191088
  9
$USRTIMER
 70
     1
  9
$ANGBASE
 50
0.0
  9
$ANGDIR
 70
     0
  9
$PDMODE
 70
     0
  9
$PDSIZE
 40
0.0
  9
$PLINEWID
 40
0.0
  9
$SPLFRAME
 70
     0
  9
$SPLINETYPE
 70
     6
  9
$SPLINESEGS
 70
     8
  9
$HANDSEED
  5
15921
  9
$SURFTAB1
 70
     6
  9
$SURFTAB2
 70
     6
  9
$SURFTYPE
 70
     6
  9
$SURFU
 70
     6
  9
$SURFV
 70
     6
  9
$UCSBASE
  2

  9
$UCSNAME
  2

  9
$UCSORG
 10
0.0
 20
0.0
 30
0.0
  9
$UCSXDIR
 10
1.0
 20
0.0
 30
0.0
  9
$UCSYDIR
 10
0.0
 20
1.0
 30
0.0
  9
$UCSORTHOREF
  2

  9
$UCSORTHOVIEW
 70
     0
  9
$UCSORGTOP
 10
0.0
 20
0.0
 30
0.0
  9
$UCSORGBOTTOM
 10
0.0
 20
0.0
 30
0.0
  9
$UCSORGLEFT
 10
0.0
 20
0.0
 30
0.0
  9
$UCSORGRIGHT
 10
0.0
 20
0.0
 30
0.0
  9
$UCSORGFRONT
 10
0.0
 20
0.0
 30
0.0
  9
$UCSORGBACK
 10
0.0
 20
0.0
 30
0.0
  9
$PUCSBASE
  2

  9
$PUCSNAME
  2

  9
$PUCSORG
 10
0.0
 20
0.0
 30
0.0
  9
$PUCSXDIR
 10
1.0
 20
0.0
 30
0.0
  9
$PUCSYDIR
 10
0.0
 20
1.0
 30
0.0
  9
$PUCSORTHOREF
  2

  9
$PUCSORTHOVIEW
 70
     0
  9
$PUCSORGTOP
 10
0.0
 20
0.0
 30
0.0
  9
$PUCSORGBOTTOM
 10
0.0
 20
0.0
 30
0.0
  9
$PUCSORGLEFT
 10
0.0
 20
0.0
 30
0.0
  9
$PUCSORGRIGHT
 10
0.0
 20
0.0
 30
0.0
  9
$PUCSORGFRONT
 10
0.0
 20
0.0
 30
0.0
  9
$PUCSORGBACK
 10
0.0
 20
0.0
 30
0.0
  9
$USERI1
 70
     0
  9
$USERI2
 70
     0
  9
$USERI3
 70
     0
  9
$USERI4
 70
     0
  9
$USERI5
 70
     0
  9
$USERR1
 40
0.0
  9
$USERR2
 40
0.0
  9
$USERR3
 40
0.0
  9
$USERR4
 40
0.0
  9
$USERR5
 40
0.0
  9
$WORLDVIEW
 70
     1
  9
$SHADEDGE
 70
     3
  9
$SHADEDIF
 70
    70
  9
$TILEMODE
 70
     1
  9
$MAXACTVP
 70
    48
  9
$PINSBASE
 10
0.0
 20
0.0
 30
0.0
  9
$PLIMCHECK
 70
     0
  9
$PEXTMIN
 10
0.0
 20
0.0
 30
0.0
  9
$PEXTMAX
 10
0.0
 20
0.0
 30
0.0
  9
$PLIMMIN
 10
0.0
 20
0.0
  9
$PLIMMAX
 10
0.0
 20
0.0
  9
$UNITMODE
 70
     0
  9
$VISRETAIN
 70
     1
  9
$PLINEGEN
 70
     0
  9
$PSLTSCALE
 70
     1
  9
$TREEDEPTH
 70
  3020
  9
$CMLSTYLE
  2
STANDARD
  9
$CMLJUST
 70
     0
  9
$CMLSCALE
 40
1.0
  9
$PROXYGRAPHICS
 70
     1
  9
$MEASUREMENT
 70
     0
  9
$CELWEIGHT
370
    -1
  9
$ENDCAPS
280
     0
  9
$JOINSTYLE
280
     0
  9
$LWDISPLAY
290
     0
  9
$INSUNITS
 70
     0
  9
$HYPERLINKBASE
  1

  9
$STYLESHEET
  1
monochrome.ctb
  9
$XEDIT
290
     1
  9
$CEPSNTYPE
380
     0
  9
$PSTYLEMODE
290
     1
  9
$FINGERPRINTGUID
  2

  9
$VERSIONGUID
  2
{DC123132-14C1-499E-A248-B7BEE3BE274B}
  9
$EXTNAMES
290
     1
  9
$PSVPSCALE
 40
0.0
  9
$OLESTARTUP
290
     0
  0
ENDSEC
  0
SECTION
  2
CLASSES
  0
CLASS
  1
ACDBDICTIONARYWDFLT
  2
AcDbDictionaryWithDefault
  3
AutoCAD 2000
 90
        0
280
     0
281
     0
  0
CLASS
  1
ACDBPLACEHOLDER
  2
AcDbPlaceHolder
  3
AutoCAD 2000
 90
        0
280
     0
281
     0
  0
CLASS
  1
LAYOUT
  2
AcDbLayout
  3
AutoCAD 2000
 90
        0
280
     0
281
     0
  0
CLASS
  1
LONG_TRANSACTION
  2
AcDbLongTransaction
  3
AutoCAD 2000
 90
    32768
280
     0
281
     0
  0
CLASS
  1
LWPOLYLINE
  2
AcDbPolyline
  3
AutoCAD 2000
 90
    32768
280
     0
281
     1
  0
CLASS
  1
HATCH
  2
AcDbHatch
  3
AutoCAD 2000
 90
    32768
280
     0
281
     1
  0
CLASS
  1
XRECORD
  2
AcDbXrecord
  3
AutoCAD 2000
 90
    32768
280
     0
281
     0
  0
CLASS
  1
LONG_TRANSACTION
  2
AcDbLongTransaction
  3
AutoCAD 2000
 90
    32768
280
     0
281
     0
  0
CLASS
  1
LWPOLYLINE
  2
AcDbPolyline
  3
AutoCAD 2000
 90
    32768
280
     0
281
     1
  0
CLASS
  1
HATCH
  2
AcDbHatch
  3
AutoCAD 2000
 90
    32768
280
     0
281
     1
  0
CLASS
  1
XRECORD
  2
AcDbXrecord
  3
AutoCAD 2000
 90
    32768
280
     0
281
     0
  0
CLASS
  1
LONG_TRANSACTION
  2
AcDbLongTransaction
  3
AutoCAD 2000
 90
    32768
280
     0
281
     0
  0
CLASS
  1
LWPOLYLINE
  2
AcDbPolyline
  3
AutoCAD 2000
 90
    32768
280
     0
281
     1
  0
CLASS
  1
HATCH
  2
AcDbHatch
  3
AutoCAD 2000
 90
    32768
280
     0
281
     1
  0
CLASS
  1
XRECORD
  2
AcDbXrecord
  3
AutoCAD 2000
 90
    32768
280
     0
281
     0
  0
CLASS
  1
LONG_TRANSACTION
  2
AcDbLongTransaction
  3
AutoCAD 2000
 90
    32768
280
     0
281
     0
  0
CLASS
  1
LWPOLYLINE
  2
AcDbPolyline
  3
AutoCAD 2000
 90
    32768
280
     0
281
     1
  0
CLASS
  1
HATCH
  2
AcDbHatch
  3
AutoCAD 2000
 90
    32768
280
     0
281
     1
  0
CLASS
  1
XRECORD
  2
AcDbXrecord
  3
AutoCAD 2000
 90
    32768
280
     0
281
     0
  0
CLASS
  1
LONG_TRANSACTION
  2
AcDbLongTransaction
  3
AutoCAD 2000
 90
    32768
280
     0
281
     0
  0
CLASS
  1
LWPOLYLINE
  2
AcDbPolyline
  3
AutoCAD 2000
 90
    32768
280
     0
281
     1
  0
CLASS
  1
HATCH
  2
AcDbHatch
  3
AutoCAD 2000
 90
    32768
280
     0
281
     1
  0
CLASS
  1
XRECORD
  2
AcDbXrecord
  3
AutoCAD 2000
 90
    32768
280
     0
281
     0
  0
CLASS
  1
LONG_TRANSACTION
  2
AcDbLongTransaction
  3
AutoCAD 2000
 90
    32768
280
     0
281
     0
  0
CLASS
  1
LWPOLYLINE
  2
AcDbPolyline
  3
AutoCAD 2000
 90
    32768
280
     0
281
     1
  0
CLASS
  1
HATCH
  2
AcDbHatch
  3
AutoCAD 2000
 90
    32768
280
     0
281
     1
  0
CLASS
  1
XRECORD
  2
AcDbXrecord
  3
AutoCAD 2000
 90
    32768
280
     0
281
     0
  0
CLASS
  1
LONG_TRANSACTION
  2
AcDbLongTransaction
  3
AutoCAD 2000
 90
    32768
280
     0
281
     0
  0
CLASS
  1
LWPOLYLINE
  2
AcDbPolyline
  3
AutoCAD 2000
 90
    32768
280
     0
281
     1
  0
CLASS
  1
HATCH
  2
AcDbHatch
  3
AutoCAD 2000
 90
    32768
280
     0
281
     1
  0
CLASS
  1
XRECORD
  2
AcDbXrecord
  3
AutoCAD 2000
 90
    32768
280
     0
281
     0
  0
CLASS
  1
LONG_TRANSACTION
  2
AcDbLongTransaction
  3
AutoCAD 2000
 90
    32768
280
     0
281
     0
  0
CLASS
  1
LWPOLYLINE
  2
AcDbPolyline
  3
AutoCAD 2000
 90
    32768
280
     0
281
     1
  0
CLASS
  1
HATCH
  2
AcDbHatch
  3
AutoCAD 2000
 90
    32768
280
     0
281
     1
  0
CLASS
  1
XRECORD
  2
AcDbXrecord
  3
AutoCAD 2000
 90
    32768
280
     0
281
     0
  0
CLASS
  1
LONG_TRANSACTION
  2
AcDbLongTransaction
  3
AutoCAD 2000
 90
    32768
280
     0
281
     0
  0
CLASS
  1
LWPOLYLINE
  2
AcDbPolyline
  3
AutoCAD 2000
 90
    32768
280
     0
281
     1
  0
CLASS
  1
HATCH
  2
AcDbHatch
  3
AutoCAD 2000
 90
    32768
280
     0
281
     1
  0
CLASS
  1
XRECORD
  2
AcDbXrecord
  3
AutoCAD 2000
 90
    32768
280
     0
281
     0
  0
CLASS
  1
LONG_TRANSACTION
  2
AcDbLongTransaction
  3
AutoCAD 2000
 90
    32768
280
     0
281
     0
  0
CLASS
  1
LWPOLYLINE
  2
AcDbPolyline
  3
AutoCAD 2000
 90
    32768
280
     0
281
     1
  0
CLASS
  1
HATCH
  2
AcDbHatch
  3
AutoCAD 2000
 90
    32768
280
     0
281
     1
  0
CLASS
  1
XRECORD
  2
AcDbXrecord
  3
AutoCAD 2000
 90
    32768
280
     0
281
     0
  0
CLASS
  1
LONG_TRANSACTION
  2
AcDbLongTransaction
  3
AutoCAD 2000
 90
    32768
280
     0
281
     0
  0
CLASS
  1
LWPOLYLINE
  2
AcDbPolyline
  3
AutoCAD 2000
 90
    32768
280
     0
281
     1
  0
CLASS
  1
HATCH
  2
AcDbHatch
  3
AutoCAD 2000
 90
    32768
280
     0
281
     1
  0
CLASS
  1
XRECORD
  2
AcDbXrecord
  3
AutoCAD 2000
 90
    32768
280
     0
281
     0
  0
CLASS
  1
LONG_TRANSACTION
  2
AcDbLongTransaction
  3
AutoCAD 2000
 90
    32768
280
     0
281
     0
  0
CLASS
  1
LWPOLYLINE
  2
AcDbPolyline
  3
AutoCAD 2000
 90
    32768
280
     0
281
     1
  0
CLASS
  1
HATCH
  2
AcDbHatch
  3
AutoCAD 2000
 90
    32768
280
     0
281
     1
  0
CLASS
  1
XRECORD
  2
AcDbXrecord
  3
AutoCAD 2000
 90
    32768
280
     0
281
     0
  0
CLASS
  1
LONG_TRANSACTION
  2
AcDbLongTransaction
  3
AutoCAD 2000
 90
    32768
280
     0
281
     0
  0
CLASS
  1
LWPOLYLINE
  2
AcDbPolyline
  3
AutoCAD 2000
 90
    32768
280
     0
281
     1
  0
CLASS
  1
HATCH
  2
AcDbHatch
  3
AutoCAD 2000
 90
    32768
280
     0
281
     1
  0
CLASS
  1
XRECORD
  2
AcDbXrecord
  3
AutoCAD 2000
 90
    32768
280
     0
281
     0
  0
CLASS
  1
LONG_TRANSACTION
  2
AcDbLongTransaction
  3
AutoCAD 2000
 90
    32768
280
     0
281
     0
  0
CLASS
  1
LWPOLYLINE
  2
AcDbPolyline
  3
AutoCAD 2000
 90
    32768
280
     0
281
     1
  0
CLASS
  1
HATCH
  2
AcDbHatch
  3
AutoCAD 2000
 90
    32768
280
     0
281
     1
  0
CLASS
  1
XRECORD
  2
AcDbXrecord
  3
AutoCAD 2000
 90
    32768
280
     0
281
     0
  0
CLASS
  1
LONG_TRANSACTION
  2
AcDbLongTransaction
  3
AutoCAD 2000
 90
    32768
280
     0
281
     0
  0
CLASS
  1
LWPOLYLINE
  2
AcDbPolyline
  3
AutoCAD 2000
 90
    32768
280
     0
281
     1
  0
CLASS
  1
HATCH
  2
AcDbHatch
  3
AutoCAD 2000
 90
    32768
280
     0
281
     1
  0
CLASS
  1
XRECORD
  2
AcDbXrecord
  3
AutoCAD 2000
 90
    32768
280
     0
281
     0
  0
CLASS
  1
LONG_TRANSACTION
  2
AcDbLongTransaction
  3
AutoCAD 2000
 90
    32768
280
     0
281
     0
  0
CLASS
  1
LWPOLYLINE
  2
AcDbPolyline
  3
AutoCAD 2000
 90
    32768
280
     0
281
     1
  0
CLASS
  1
HATCH
  2
AcDbHatch
  3
AutoCAD 2000
 90
    32768
280
     0
281
     1
  0
CLASS
  1
XRECORD
  2
AcDbXrecord
  3
AutoCAD 2000
 90
    32768
280
     0
281
     0
  0
CLASS
  1
LONG_TRANSACTION
  2
AcDbLongTransaction
  3
AutoCAD 2000
 90
    32768
280
     0
281
     0
  0
CLASS
  1
LWPOLYLINE
  2
AcDbPolyline
  3
AutoCAD 2000
 90
    32768
280
     0
281
     1
  0
CLASS
  1
HATCH
  2
AcDbHatch
  3
AutoCAD 2000
 90
    32768
280
     0
281
     1
  0
CLASS
  1
XRECORD
  2
AcDbXrecord
  3
AutoCAD 2000
 90
    32768
280
     0
281
     0
  0
CLASS
  1
LONG_TRANSACTION
  2
AcDbLongTransaction
  3
AutoCAD 2000
 90
    32768
280
     0
281
     0
  0
CLASS
  1
LWPOLYLINE
  2
AcDbPolyline
  3
AutoCAD 2000
 90
    32768
280
     0
281
     1
  0
CLASS
  1
HATCH
  2
AcDbHatch
  3
AutoCAD 2000
 90
    32768
280
     0
281
     1
  0
CLASS
  1
XRECORD
  2
AcDbXrecord
  3
AutoCAD 2000
 90
    32768
280
     0
281
     0
  0
CLASS
  1
LONG_TRANSACTION
  2
AcDbLongTransaction
  3
AutoCAD 2000
 90
    32768
280
     0
281
     0
  0
CLASS
  1
LWPOLYLINE
  2
AcDbPolyline
  3
AutoCAD 2000
 90
    32768
280
     0
281
     1
  0
CLASS
  1
HATCH
  2
AcDbHatch
  3
AutoCAD 2000
 90
    32768
280
     0
281
     1
  0
CLASS
  1
XRECORD
  2
AcDbXrecord
  3
AutoCAD 2000
 90
    32768
280
     0
281
     0
  0
CLASS
  1
LONG_TRANSACTION
  2
AcDbLongTransaction
  3
AutoCAD 2000
 90
    32768
280
     0
281
     0
  0
CLASS
  1
LWPOLYLINE
  2
AcDbPolyline
  3
AutoCAD 2000
 90
    32768
280
     0
281
     1
  0
CLASS
  1
HATCH
  2
AcDbHatch
  3
AutoCAD 2000
 90
    32768
280
     0
281
     1
  0
CLASS
  1
XRECORD
  2
AcDbXrecord
  3
AutoCAD 2000
 90
    32768
280
     0
281
     0
  0
CLASS
  1
LONG_TRANSACTION
  2
AcDbLongTransaction
  3
AutoCAD 2000
 90
    32768
280
     0
281
     0
  0
CLASS
  1
LWPOLYLINE
  2
AcDbPolyline
  3
AutoCAD 2000
 90
    32768
280
     0
281
     1
  0
CLASS
  1
HATCH
  2
AcDbHatch
  3
AutoCAD 2000
 90
    32768
280
     0
281
     1
  0
CLASS
  1
XRECORD
  2
AcDbXrecord
  3
AutoCAD 2000
 90
    32768
280
     0
281
     0
  0
CLASS
  1
LONG_TRANSACTION
  2
AcDbLongTransaction
  3
AutoCAD 2000
 90
    32768
280
     0
281
     0
  0
CLASS
  1
LWPOLYLINE
  2
AcDbPolyline
  3
AutoCAD 2000
 90
    32768
280
     0
281
     1
  0
CLASS
  1
HATCH
  2
AcDbHatch
  3
AutoCAD 2000
 90
    32768
280
     0
281
     1
  0
CLASS
  1
XRECORD
  2
AcDbXrecord
  3
AutoCAD 2000
 90
    32768
280
     0
281
     0
  0
CLASS
  1
LONG_TRANSACTION
  2
AcDbLongTransaction
  3
AutoCAD 2000
 90
    32768
280
     0
281
     0
  0
CLASS
  1
LWPOLYLINE
  2
AcDbPolyline
  3
AutoCAD 2000
 90
    32768
280
     0
281
     1
  0
CLASS
  1
HATCH
  2
AcDbHatch
  3
AutoCAD 2000
 90
    32768
280
     0
281
     1
  0
CLASS
  1
XRECORD
  2
AcDbXrecord
  3
AutoCAD 2000
 90
    32768
280
     0
281
     0
  0
CLASS
  1
LONG_TRANSACTION
  2
AcDbLongTransaction
  3
AutoCAD 2000
 90
    32768
280
     0
281
     0
  0
CLASS
  1
LWPOLYLINE
  2
AcDbPolyline
  3
AutoCAD 2000
 90
    32768
280
     0
281
     1
  0
CLASS
  1
HATCH
  2
AcDbHatch
  3
AutoCAD 2000
 90
    32768
280
     0
281
     1
  0
CLASS
  1
XRECORD
  2
AcDbXrecord
  3
AutoCAD 2000
 90
    32768
280
     0
281
     0
  0
CLASS
  1
LONG_TRANSACTION
  2
AcDbLongTransaction
  3
AutoCAD 2000
 90
    32768
280
     0
281
     0
  0
CLASS
  1
LWPOLYLINE
  2
AcDbPolyline
  3
AutoCAD 2000
 90
    32768
280
     0
281
     1
  0
CLASS
  1
HATCH
  2
AcDbHatch
  3
AutoCAD 2000
 90
    32768
280
     0
281
     1
  0
CLASS
  1
XRECORD
  2
AcDbXrecord
  3
AutoCAD 2000
 90
    32768
280
     0
281
     0
  0
CLASS
  1
LONG_TRANSACTION
  2
AcDbLongTransaction
  3
AutoCAD 2000
 90
    32768
280
     0
281
     0
  0
CLASS
  1
LWPOLYLINE
  2
AcDbPolyline
  3
AutoCAD 2000
 90
    32768
280
     0
281
     1
  0
CLASS
  1
HATCH
  2
AcDbHatch
  3
AutoCAD 2000
 90
    32768
280
     0
281
     1
  0
CLASS
  1
XRECORD
  2
AcDbXrecord
  3
AutoCAD 2000
 90
    32768
280
     0
281
     0
  0
CLASS
  1
LONG_TRANSACTION
  2
AcDbLongTransaction
  3
AutoCAD 2000
 90
    32768
280
     0
281
     0
  0
CLASS
  1
LWPOLYLINE
  2
AcDbPolyline
  3
AutoCAD 2000
 90
    32768
280
     0
281
     1
  0
CLASS
  1
HATCH
  2
AcDbHatch
  3
AutoCAD 2000
 90
    32768
280
     0
281
     1
  0
CLASS
  1
XRECORD
  2
AcDbXrecord
  3
AutoCAD 2000
 90
    32768
280
     0
281
     0
  0
CLASS
  1
LONG_TRANSACTION
  2
AcDbLongTransaction
  3
AutoCAD 2000
 90
    32768
280
     0
281
     0
  0
CLASS
  1
LWPOLYLINE
  2
AcDbPolyline
  3
AutoCAD 2000
 90
    32768
280
     0
281
     1
  0
CLASS
  1
HATCH
  2
AcDbHatch
  3
AutoCAD 2000
 90
    32768
280
     0
281
     1
  0
CLASS
  1
XRECORD
  2
AcDbXrecord
  3
AutoCAD 2000
 90
    32768
280
     0
281
     0
  0
CLASS
  1
LONG_TRANSACTION
  2
AcDbLongTransaction
  3
AutoCAD 2000
 90
    32768
280
     0
281
     0
  0
CLASS
  1
LWPOLYLINE
  2
AcDbPolyline
  3
AutoCAD 2000
 90
    32768
280
     0
281
     1
  0
CLASS
  1
HATCH
  2
AcDbHatch
  3
AutoCAD 2000
 90
    32768
280
     0
281
     1
  0
CLASS
  1
XRECORD
  2
AcDbXrecord
  3
AutoCAD 2000
 90
    32768
280
     0
281
     0
  0
CLASS
  1
LONG_TRANSACTION
  2
AcDbLongTransaction
  3
AutoCAD 2000
 90
    32768
280
     0
281
     0
  0
CLASS
  1
LWPOLYLINE
  2
AcDbPolyline
  3
AutoCAD 2000
 90
    32768
280
     0
281
     1
  0
CLASS
  1
HATCH
  2
AcDbHatch
  3
AutoCAD 2000
 90
    32768
280
     0
281
     1
  0
CLASS
  1
XRECORD
  2
AcDbXrecord
  3
AutoCAD 2000
 90
    32768
280
     0
281
     0
  0
CLASS
  1
LONG_TRANSACTION
  2
AcDbLongTransaction
  3
AutoCAD 2000
 90
    32768
280
     0
281
     0
  0
CLASS
  1
LWPOLYLINE
  2
AcDbPolyline
  3
AutoCAD 2000
 90
    32768
280
     0
281
     1
  0
CLASS
  1
HATCH
  2
AcDbHatch
  3
AutoCAD 2000
 90
    32768
280
     0
281
     1
  0
CLASS
  1
XRECORD
  2
AcDbXrecord
  3
AutoCAD 2000
 90
    32768
280
     0
281
     0
  0
CLASS
  1
LONG_TRANSACTION
  2
AcDbLongTransaction
  3
AutoCAD 2000
 90
    32768
280
     0
281
     0
  0
CLASS
  1
LWPOLYLINE
  2
AcDbPolyline
  3
AutoCAD 2000
 90
    32768
280
     0
281
     1
  0
CLASS
  1
HATCH
  2
AcDbHatch
  3
AutoCAD 2000
 90
    32768
280
     0
281
     1
  0
CLASS
  1
XRECORD
  2
AcDbXrecord
  3
AutoCAD 2000
 90
    32768
280
     0
281
     0
  0
CLASS
  1
LONG_TRANSACTION
  2
AcDbLongTransaction
  3
AutoCAD 2000
 90
    32768
280
     0
281
     0
  0
CLASS
  1
LWPOLYLINE
  2
AcDbPolyline
  3
AutoCAD 2000
 90
    32768
280
     0
281
     1
  0
CLASS
  1
HATCH
  2
AcDbHatch
  3
AutoCAD 2000
 90
    32768
280
     0
281
     1
  0
CLASS
  1
XRECORD
  2
AcDbXrecord
  3
AutoCAD 2000
 90
    32768
280
     0
281
     0
  0
CLASS
  1
DICTIONARYVAR
  2
AcDbDictionaryVar
  3
AutoCAD 2000
 90
        0
280
     0
281
     0
  0
CLASS
  1
LONG_TRANSACTION
  2
AcDbLongTransaction
  3
AutoCAD 2000
 90
    32768
280
     0
281
     0
  0
CLASS
  1
LWPOLYLINE
  2
AcDbPolyline
  3
AutoCAD 2000
 90
    32768
280
     0
281
     1
  0
CLASS
  1
HATCH
  2
AcDbHatch
  3
AutoCAD 2000
 90
    32768
280
     0
281
     1
  0
CLASS
  1
XRECORD
  2
AcDbXrecord
  3
AutoCAD 2000
 90
    32768
280
     0
281
     0
  0
CLASS
  1
LONG_TRANSACTION
  2
AcDbLongTransaction
  3
AutoCAD 2000
 90
    32768
280
     0
281
     0
  0
CLASS
  1
LWPOLYLINE
  2
AcDbPolyline
  3
AutoCAD 2000
 90
    32768
280
     0
281
     1
  0
CLASS
  1
HATCH
  2
AcDbHatch
  3
AutoCAD 2000
 90
    32768
280
     0
281
     1
  0
CLASS
  1
XRECORD
  2
AcDbXrecord
  3
AutoCAD 2000
 90
    32768
280
     0
281
     0
  0
CLASS
  1
LONG_TRANSACTION
  2
AcDbLongTransaction
  3
AutoCAD 2000
 90
    32768
280
     0
281
     0
  0
CLASS
  1
LWPOLYLINE
  2
AcDbPolyline
  3
AutoCAD 2000
 90
    32768
280
     0
281
     1
  0
CLASS
  1
HATCH
  2
AcDbHatch
  3
AutoCAD 2000
 90
    32768
280
     0
281
     1
  0
CLASS
  1
XRECORD
  2
AcDbXrecord
  3
AutoCAD 2000
 90
    32768
280
     0
281
     0
  0
CLASS
  1
LONG_TRANSACTION
  2
AcDbLongTransaction
  3
AutoCAD 2000
 90
    32768
280
     0
281
     0
  0
CLASS
  1
LWPOLYLINE
  2
AcDbPolyline
  3
AutoCAD 2000
 90
    32768
280
     0
281
     1
  0
CLASS
  1
HATCH
  2
AcDbHatch
  3
AutoCAD 2000
 90
    32768
280
     0
281
     1
  0
CLASS
  1
XRECORD
  2
AcDbXrecord
  3
AutoCAD 2000
 90
    32768
280
     0
281
     0
  0
ENDSEC
  0
SECTION
  2
TABLES
  0
TABLE
  2
VPORT
  5
8
330
0
100
AcDbSymbolTable
 70
     3
  0
VPORT
  5
15920
330
8
100
AcDbSymbolTableRecord
100
AcDbViewportTableRecord
  2
*Active
 70
     0
 10
0.0
 20
0.0
 11
1.0
 21
1.0
 12
285.2618978812381
 22
-69.32288467979834
 13
0.0
 23
0.0
 14
1.0
 24
1.0
 15
10.0
 25
10.0
 16
0.0
 26
0.0
 36
1.0
 17
0.0
 27
0.0
 37
0.0
 40
1494.211599376339
 41
1.250656167979002
 42
50.0
 43
0.0
 44
0.0
 50
0.0
 51
0.0
 71
     0
 72
   100
 73
     1
 74
     1
 75
     0
 76
     0
 77
     0
 78
     0
281
     0
 65
     1
110
0.0
120
0.0
130
0.0
111
1.0
121
0.0
131
0.0
112
0.0
122
1.0
132
0.0
 79
     0
146
0.0
  0
ENDTAB
  0
TABLE
  2
LTYPE
  5
5
330
0
100
AcDbSymbolTable
 70
     5
  0
LTYPE
  5
13
330
5
100
AcDbSymbolTableRecord
100
AcDbLinetypeTableRecord
  2
BYBLOCK
 70
     0
  3

 72
    65
 73
     0
 40
0.0
  0
LTYPE
  5
14
330
5
100
AcDbSymbolTableRecord
100
AcDbLinetypeTableRecord
  2
BYLAYER
 70
     0
  3

 72
    65
 73
     0
 40
0.0
  0
LTYPE
  5
15
330
5
100
AcDbSymbolTableRecord
100
AcDbLinetypeTableRecord
  2
CONTINUOUS
 70
     0
  3
Solid line
 72
    65
 73
     0
 40
0.0
  0
LTYPE
  5
22
330
5
100
AcDbSymbolTableRecord
100
AcDbLinetypeTableRecord
  2
CONTINOUS
 70
     0
  3
Solid line
 72
    65
 73
     0
 40
0.0
  0
LTYPE
  5
24
330
5
100
AcDbSymbolTableRecord
100
AcDbLinetypeTableRecord
  2
DASHDOT
 70
     0
  3
__ . __ . __ . __ . __ . __ . __ . __ . __ . __
 72
    65
 73
     4
 40
1.0
 49
0.5
 74
     0
 49
-0.25
 74
     0
 49
0.0
 74
     0
 49
-0.25
 74
     0
  0
LTYPE
  5
4C47
330
5
100
AcDbSymbolTableRecord
100
AcDbLinetypeTableRecord
  2
DIVIDE
 70
     0
  3
Divide ____ . . ____ . . ____ . . ____ . . ____
 72
    65
 73
     6
 40
1.25
 49
0.5
 74
     0
 49
-0.25
 74
     0
 49
0.0
 74
     0
 49
-0.25
 74
     0
 49
0.0
 74
     0
 49
-0.25
 74
     0
  0
LTYPE
  5
7C4F
330
5
100
AcDbSymbolTableRecord
100
AcDbLinetypeTableRecord
  2
DASHED
 70
     0
  3
__ __ __ __ __ __ __ __ __
 72
    65
 73
     2
 40
0.75
 49
0.5
 74
     0
 49
-0.25
 74
     0
  0
ENDTAB
  0
TABLE
  2
LAYER
  5
2
330
0
100
AcDbSymbolTable
 70
    15
  0
LAYER
  5
10
330
2
100
AcDbSymbolTableRecord
100
AcDbLayerTableRecord
  2
0
 70
     0
 62
     7
  6
CONTINOUS
370
    -3
390
F
  0
LAYER
  5
2F
330
2
100
AcDbSymbolTableRecord
100
AcDbLayerTableRecord
  2
10
 70
     0
 62
     4
  6
CONTINOUS
370
    -3
390
F
  0
LAYER
  5
31
330
2
100
AcDbSymbolTableRecord
100
AcDbLayerTableRecord
  2
12
 70
     0
 62
     3
  6
CONTINOUS
370
    -3
390
F
  0
LAYER
  5
35
330
2
100
AcDbSymbolTableRecord
100
AcDbLayerTableRecord
  2
16
 70
     0
 62
     6
  6
DASHDOT
370
    -3
390
F
  0
LAYER
  5
38
330
2
100
AcDbSymbolTableRecord
100
AcDbLayerTableRecord
  2
19
 70
     0
 62
     7
  6
CONTINOUS
370
    -3
390
F
  0
LAYER
  5
3C
330
2
100
AcDbSymbolTableRecord
100
AcDbLayerTableRecord
  2
11
 70
     0
 62
     1
  6
CONTINOUS
370
    -3
390
F
  0
LAYER
  5
3D
330
2
100
AcDbSymbolTableRecord
100
AcDbLayerTableRecord
  2
24
 70
     0
 62
     2
  6
CONTINOUS
370
    -3
390
F
  0
LAYER
  5
3A2
330
2
100
AcDbSymbolTableRecord
100
AcDbLayerTableRecord
  2
30
 70
     0
 62
     9
  6
CONTINUOUS
370
    -3
390
F
  0
LAYER
  5
3A4
330
2
100
AcDbSymbolTableRecord
100
AcDbLayerTableRecord
  2
DEFPOINTS
 70
     0
 62
     7
  6
CONTINUOUS
290
     0
370
    -3
390
F
  0
LAYER
  5
3BBA
330
2
100
AcDbSymbolTableRecord
100
AcDbLayerTableRecord
  2
18
 70
     0
 62
     5
  6
DIVIDE
370
    -3
390
F
  0
LAYER
  5
3BBB
330
2
100
AcDbSymbolTableRecord
100
AcDbLayerTableRecord
  2
21
 70
     0
 62
     7
  6
CONTINUOUS
370
    -3
390
F
  0
LAYER
  5
7355
330
2
100
AcDbSymbolTableRecord
100
AcDbLayerTableRecord
  2
1
 70
     0
 62
     7
  6
CONTINUOUS
370
    -3
390
F
  0
LAYER
  5
970E
330
2
100
AcDbSymbolTableRecord
100
AcDbLayerTableRecord
  2
17
 70
     0
 62
     2
  6
DASHDOT
370
    -3
390
F
  0
LAYER
  5
9BE8
330
2
100
AcDbSymbolTableRecord
100
AcDbLayerTableRecord
  2
225
 70
     0
 62
     7
  6
CONTINUOUS
370
    -3
390
F
  0
LAYER
  5
9BEA
330
2
100
AcDbSymbolTableRecord
100
AcDbLayerTableRecord
  2
160
 70
     0
 62
     7
  6
CONTINUOUS
370
    -3
390
F
  0
ENDTAB
  0
TABLE
  2
STYLE
  5
3
330
0
100
AcDbSymbolTable
 70
     2
  0
STYLE
  5
11
330
3
100
AcDbSymbolTableRecord
100
AcDbTextStyleTableRecord
  2
STANDARD
 70
     0
 40
0.0
 41
1.0
 50
0.0
 71
     0
 42
2.0
  3
txt.shx
  4
bigfont.shx
  0
STYLE
  5
42
330
3
100
AcDbSymbolTableRecord
100
AcDbTextStyleTableRecord
  2
STANDARD1
 70
     0
 40
0.0
 41
1.0
 50
0.0
 71
     0
 42
5.0
  3
MONOTXT
  4
BIGFONT
  0
ENDTAB
  0
TABLE
  2
VIEW
  5
6
330
0
100
AcDbSymbolTable
 70
     3
  0
VIEW
  5
230C
330
6
100
AcDbSymbolTableRecord
100
AcDbViewTableRecord
  2
OLE1
 70
     0
 40
148.9124878027714
 10
429.4976280407222
 20
2.560626997828478
 41
103.1458057716444
 11
0.0
 21
0.0
 31
1.0
 12
0.0
 22
0.0
 32
0.0
 42
50.0
 43
0.0
 44
0.0
 50
0.0
 71
     0
281
     0
 72
     0
  0
VIEW
  5
230E
330
6
100
AcDbSymbolTableRecord
100
AcDbViewTableRecord
  2
OLE2
 70
     0
 40
170.7786920545775
 10
322.664969958371
 20
-5.978304054290276
 41
102.4672152327465
 11
0.0
 21
0.0
 31
1.0
 12
0.0
 22
0.0
 32
0.0
 42
50.0
 43
0.0
 44
0.0
 50
0.0
 71
     0
281
     0
 72
     0
  0
VIEW
  5
23AA
330
6
100
AcDbSymbolTableRecord
100
AcDbViewTableRecord
  2
OLE3
 70
     0
 40
591.7897393182231
 10
84.79698158148218
 20
-46.09336010803995
 41
388.7920961799953
 11
0.0
 21
0.0
 31
1.0
 12
0.0
 22
0.0
 32
0.0
 42
50.0
 43
0.0
 44
0.0
 50
0.0
 71
     0
281
     0
 72
     0
  0
ENDTAB
  0
TABLE
  2
UCS
  5
7
330
0
100
AcDbSymbolTable
 70
     0
  0
ENDTAB
  0
TABLE
  2
APPID
  5
9
330
0
100
AcDbSymbolTable
 70
     2
  0
APPID
  5
12
330
9
100
AcDbSymbolTableRecord
100
AcDbRegAppTableRecord
  2
ACAD
 70
     0
  0
APPID
  5
ECD
330
9
100
AcDbSymbolTableRecord
100
AcDbRegAppTableRecord
  2
CONTENTBLOCKICON
 70
     0
  0
ENDTAB
  0
TABLE
  2
DIMSTYLE
  5
A
330
0
100
AcDbSymbolTable
 70
     2
100
AcDbDimStyleTable
 71
     2
340
9742
340
175
  0
DIMSTYLE
105
175
330
A
100
AcDbSymbolTableRecord
100
AcDbDimStyleTableRecord
  2
STANDARD
 70
     0
 41
2.0
 42
1.0
 43
0.5
 44
0.5
 73
     0
 77
     3
 78
    12
140
5.0
147
1.0
271
     1
272
     1
340
11
341
3B2
342
3B2
  0
DIMSTYLE
105
9742
102
{ACAD_REACTORS
330
1551C
330
15114
330
1510A
330
15109
330
14D4E
330
14D3C
330
14D37
330
14D25
330
13A44
330
13A3F
330
13A28
330
13A25
330
13A21
330
13A20
330
13A1D
330
13A1C
330
13A1B
330
13A1A
330
13A19
330
13A18
330
13A17
330
13A16
330
13A15
330
120B5
330
120B4
330
11FD1
330
11FD0
330
10E4C
330
10E4B
330
15733
330
1578D
102
}
330
A
100
AcDbSymbolTableRecord
100
AcDbDimStyleTableRecord
  2
STANDARD1
 70
     0
 41
2.0
 42
3.0
 43
0.5
 44
0.5
 73
     0
 77
     3
 78
    12
140
6.0
147
3.0
271
     1
272
     1
289
     2
340
11
341
3B2
342
3B2
  0
ENDTAB
  0
TABLE
  2
BLOCK_RECORD
  5
1
330
0
100
AcDbSymbolTable
 70
    37
  0
BLOCK_RECORD
  5
1E
102
{ACAD_XDICTIONARY
360
178
102
}
330
1
100
AcDbSymbolTableRecord
100
AcDbBlockTableRecord
  2
*MODEL_SPACE
340
7AE4
  0
BLOCK_RECORD
  5
1A
102
{ACAD_XDICTIONARY
360
17A
102
}
330
1
100
AcDbSymbolTableRecord
100
AcDbBlockTableRecord
  2
*PAPER_SPACE
340
7AE5
  0
BLOCK_RECORD
  5
3B2
330
1
100
AcDbSymbolTableRecord
100
AcDbBlockTableRecord
  2
_OPEN
340
0
102
{BLKREFS
331
15609
331
15612
331
15613
331
1561B
331
1561C
331
15624
331
15625
331
1562D
331
1562E
331
15636
331
15637
331
1563F
331
15640
331
15648
331
15649
331
15651
331
15652
331
1565B
331
1565C
331
15664
331
15665
331
1566D
331
1566E
331
15676
331
15677
331
1567F
331
15680
331
15688
331
15689
331
15691
331
15692
331
1569A
331
1569B
331
156A4
331
156A5
331
156AD
331
156AE
331
156B7
331
156B8
331
156C0
331
156C1
331
156C9
331
156CA
331
156D2
331
156D3
331
156DB
331
156DC
331
156E5
331
156E6
331
156EE
331
156EF
331
156F7
331
156F8
331
15700
331
15701
331
15709
331
1570A
331
15712
331
15713
331
1571B
331
1571C
331
15724
331
15725
331
1572D
331
1572E
331
15741
331
15751
331
15752
331
1575A
331
1575B
331
15763
331
15764
331
1576C
331
1576D
331
15775
331
15776
331
1577E
331
1577F
331
15787
331
15788
331
15792
331
15793
331
1579D
331
1579E
331
157A6
331
157A7
331
157AF
331
157B0
331
157B9
331
157BA
331
157C2
331
157C3
331
157CB
331
157CC
331
157D4
331
157D5
331
157DD
331
157DE
331
157E6
331
157E7
331
157EF
331
157F0
331
157F8
331
157F9
331
15801
331
15802
331
1580B
331
1580C
331
15814
331
15815
331
1581E
331
1581F
331
15827
331
15828
331
15830
331
15831
331
15839
331
1583A
331
15842
331
15843
331
1584B
331
1584C
331
15855
331
15856
331
1585E
331
1585F
331
15868
331
15869
331
15871
331
15872
331
1587A
331
1587B
331
15883
331
15884
331
1588C
331
1588D
102
}
  0
BLOCK_RECORD
  5
10F1D
330
1
100
AcDbSymbolTableRecord
100
AcDbBlockTableRecord
  2
*D1
340
0
  0
BLOCK_RECORD
  5
10F2A
330
1
100
AcDbSymbolTableRecord
100
AcDbBlockTableRecord
  2
*D2
340
0
  0
BLOCK_RECORD
  5
11FD2
330
1
100
AcDbSymbolTableRecord
100
AcDbBlockTableRecord
  2
*D3
340
0
  0
BLOCK_RECORD
  5
11FDE
330
1
100
AcDbSymbolTableRecord
100
AcDbBlockTableRecord
  2
*D4
340
0
  0
BLOCK_RECORD
  5
120B6
330
1
100
AcDbSymbolTableRecord
100
AcDbBlockTableRecord
  2
*D5
340
0
  0
BLOCK_RECORD
  5
120C2
330
1
100
AcDbSymbolTableRecord
100
AcDbBlockTableRecord
  2
*D6
340
0
  0
BLOCK_RECORD
  5
13A4D
330
1
100
AcDbSymbolTableRecord
100
AcDbBlockTableRecord
  2
*D7
340
0
  0
BLOCK_RECORD
  5
13A5A
330
1
100
AcDbSymbolTableRecord
100
AcDbBlockTableRecord
  2
*D8
340
0
  0
BLOCK_RECORD
  5
13A67
330
1
100
AcDbSymbolTableRecord
100
AcDbBlockTableRecord
  2
*D9
340
0
  0
BLOCK_RECORD
  5
13A7F
330
1
100
AcDbSymbolTableRecord
100
AcDbBlockTableRecord
  2
*D10
340
0
  0
BLOCK_RECORD
  5
13A8C
330
1
100
AcDbSymbolTableRecord
100
AcDbBlockTableRecord
  2
*D11
340
0
  0
BLOCK_RECORD
  5
13A98
330
1
100
AcDbSymbolTableRecord
100
AcDbBlockTableRecord
  2
*D12
340
0
  0
BLOCK_RECORD
  5
13AA4
330
1
100
AcDbSymbolTableRecord
100
AcDbBlockTableRecord
  2
*D13
340
0
  0
BLOCK_RECORD
  5
13AB0
330
1
100
AcDbSymbolTableRecord
100
AcDbBlockTableRecord
  2
*D14
340
0
  0
BLOCK_RECORD
  5
13ABC
330
1
100
AcDbSymbolTableRecord
100
AcDbBlockTableRecord
  2
*D15
340
0
  0
BLOCK_RECORD
  5
13AC8
330
1
100
AcDbSymbolTableRecord
100
AcDbBlockTableRecord
  2
*D16
340
0
  0
BLOCK_RECORD
  5
13AD4
330
1
100
AcDbSymbolTableRecord
100
AcDbBlockTableRecord
  2
*D17
340
0
  0
BLOCK_RECORD
  5
13AE0
330
1
100
AcDbSymbolTableRecord
100
AcDbBlockTableRecord
  2
*D18
340
0
  0
BLOCK_RECORD
  5
13AEC
330
1
100
AcDbSymbolTableRecord
100
AcDbBlockTableRecord
  2
*D19
340
0
  0
BLOCK_RECORD
  5
13AF8
330
1
100
AcDbSymbolTableRecord
100
AcDbBlockTableRecord
  2
*D20
340
0
  0
BLOCK_RECORD
  5
13B04
330
1
100
AcDbSymbolTableRecord
100
AcDbBlockTableRecord
  2
*D21
340
0
  0
BLOCK_RECORD
  5
14D5C
330
1
100
AcDbSymbolTableRecord
100
AcDbBlockTableRecord
  2
*D22
340
0
  0
BLOCK_RECORD
  5
14D8F
330
1
100
AcDbSymbolTableRecord
100
AcDbBlockTableRecord
  2
*D23
340
0
  0
BLOCK_RECORD
  5
14D9B
330
1
100
AcDbSymbolTableRecord
100
AcDbBlockTableRecord
  2
*D24
340
0
  0
BLOCK_RECORD
  5
14DB4
330
1
100
AcDbSymbolTableRecord
100
AcDbBlockTableRecord
  2
*D25
340
0
  0
BLOCK_RECORD
  5
151DF
330
1
100
AcDbSymbolTableRecord
100
AcDbBlockTableRecord
  2
*D26
340
0
  0
BLOCK_RECORD
  5
151EB
330
1
100
AcDbSymbolTableRecord
100
AcDbBlockTableRecord
  2
*D27
340
0
  0
BLOCK_RECORD
  5
151F7
330
1
100
AcDbSymbolTableRecord
100
AcDbBlockTableRecord
  2
*D28
340
0
  0
BLOCK_RECORD
  5
152E8
330
1
100
AcDbSymbolTableRecord
100
AcDbBlockTableRecord
  2
*D29
340
0
  0
BLOCK_RECORD
  5
152F4
330
1
100
AcDbSymbolTableRecord
100
AcDbBlockTableRecord
  2
*D30
340
0
  0
BLOCK_RECORD
  5
1551D
330
1
100
AcDbSymbolTableRecord
100
AcDbBlockTableRecord
  2
*D31
340
0
  0
BLOCK_RECORD
  5
155DE
330
1
100
AcDbSymbolTableRecord
100
AcDbBlockTableRecord
  2
*D32
340
0
  0
BLOCK_RECORD
  5
155EA
330
1
100
AcDbSymbolTableRecord
100
AcDbBlockTableRecord
  2
*D33
340
0
  0
BLOCK_RECORD
  5
15734
330
1
100
AcDbSymbolTableRecord
100
AcDbBlockTableRecord
  2
*D34
340
0
  0
BLOCK_RECORD
  5
1578E
330
1
100
AcDbSymbolTableRecord
100
AcDbBlockTableRecord
  2
*D35
340
0
  0
ENDTAB
  0
ENDSEC
  0
SECTION
  2
BLOCKS
  0
BLOCK
  5
1F
330
1E
100
AcDbEntity
  8
0
100
AcDbBlockBegin
  2
*MODEL_SPACE
 70
     0
 10
0.0
 20
0.0
 30
0.0
  3
*MODEL_SPACE
  1

  0
ENDBLK
  5
20
330
1E
100
AcDbEntity
  8
0
100
AcDbBlockEnd
  0
BLOCK
  5
1B
330
1A
100
AcDbEntity
 67
     1
  8
0
100
AcDbBlockBegin
  2
*PAPER_SPACE
 70
     0
 10
0.0
 20
0.0
 30
0.0
  3
*PAPER_SPACE
  1

  0
ENDBLK
  5
1C
330
1A
100
AcDbEntity
 67
     1
  8
0
100
AcDbBlockEnd
  0
BLOCK
  5
3B6
330
3B2
100
AcDbEntity
  8
0
100
AcDbBlockBegin
  2
_OPEN
 70
     0
 10
0.0
 20
0.0
 30
0.0
  3
_OPEN
  1

  0
LINE
  5
3B3
330
3B2
100
AcDbEntity
  8
30
  6
Continuous
 62
     0
100
AcDbLine
 10
-1.0
 20
0.1666666666666666
 30
0.0
 11
0.0
 21
0.0
 31
0.0
  0
LINE
  5
3B4
330
3B2
100
AcDbEntity
  8
30
  6
Continuous
 62
     0
100
AcDbLine
 10
-1.0
 20
-0.1666666666666666
 30
0.0
 11
0.0
 21
0.0
 31
0.0
  0
LINE
  5
3B5
330
3B2
100
AcDbEntity
  8
30
  6
Continuous
 62
     0
100
AcDbLine
 10
0.0
 20
0.0
 30
0.0
 11
-1.0
 21
0.0
 31
0.0
  0
ENDBLK
  5
3B7
330
3B2
100
AcDbEntity
  8
0
100
AcDbBlockEnd
  0
BLOCK
  5
10F28
330
10F1D
100
AcDbEntity
  8
0
100
AcDbBlockBegin
  2
*D1
 70
     1
 10
0.0
 20
0.0
 30
0.0
  3
*D1
  1

  0
LINE
  5
1577B
330
10F1D
100
AcDbEntity
  8
30
  6
Continuous
 62
     0
370
    -2
100
AcDbLine
 10
-118.0
 20
0.0000000000000008
 30
0.0
 11
-128.796903905832
 21
0.0000000000000039
 31
0.0
  0
LINE
  5
1577C
330
10F1D
100
AcDbEntity
  8
30
  6
Continuous
 62
     0
370
    -2
100
AcDbLine
 10
-108.0
 20
170.0
 30
0.0
 11
-128.796903905832
 21
170.0
 31
0.0
  0
LINE
  5
1577D
330
10F1D
100
AcDbEntity
  8
30
  6
Continuous
 62
     0
370
    -2
100
AcDbLine
 10
-128.2969039058321
 20
2.000000000000003
 30
0.0
 11
-128.2969039058321
 21
168.0
 31
0.0
  0
INSERT
  5
1577E
330
10F1D
100
AcDbEntity
  8
30
  6
Continuous
 62
     0
370
    -2
100
AcDbBlockReference
  2
_OPEN
 10
-128.2969039058321
 20
0.0000000000000038
 30
0.0
 41
2.0
 42
2.0
 43
2.0
 50
270.0
  0
INSERT
  5
1577F
330
10F1D
100
AcDbEntity
  8
30
  6
Continuous
 62
     0
370
    -2
100
AcDbBlockReference
  2
_OPEN
 10
-128.2969039058321
 20
170.0
 30
0.0
 41
2.0
 42
2.0
 43
2.0
 50
90.0
  0
MTEXT
  5
15780
330
10F1D
100
AcDbEntity
  8
30
  6
Continuous
 62
     0
100
AcDbMText
 10
-134.296903905832
 20
84.99999999999998
 30
0.0
 40
6.0
 41
0.0
 71
     5
 72
     1
  1
\A1; 170 
 11
0.0000000000000001
 21
1.0
 31
0.0
 73
     1
 44
1.0
  0
POINT
  5
15781
330
10F1D
100
AcDbEntity
  8
DEFPOINTS
  6
Continuous
 62
     0
100
AcDbPoint
 10
-115.0
 20
0.0
 30
0.0
  0
POINT
  5
15782
330
10F1D
100
AcDbEntity
  8
DEFPOINTS
  6
Continuous
 62
     0
100
AcDbPoint
 10
-105.0
 20
170.0
 30
0.0
  0
POINT
  5
15783
330
10F1D
100
AcDbEntity
  8
DEFPOINTS
  6
Continuous
 62
     0
100
AcDbPoint
 10
-128.2969039058321
 20
170.0
 30
0.0
  0
ENDBLK
  5
10F29
330
10F1D
100
AcDbEntity
  8
0
100
AcDbBlockEnd
  0
BLOCK
  5
10F35
330
10F2A
100
AcDbEntity
  8
0
100
AcDbBlockBegin
  2
*D2
 70
     1
 10
0.0
 20
0.0
 30
0.0
  3
*D2
  1

  0
LINE
  5
15784
330
10F2A
100
AcDbEntity
  8
30
  6
Continuous
 62
     0
370
    -2
100
AcDbLine
 10
-108.0
 20
-140.0
 30
0.0
 11
-128.796903905832
 21
-140.0
 31
0.0
  0
LINE
  5
15785
330
10F2A
100
AcDbEntity
  8
30
  6
Continuous
 62
     0
370
    -2
100
AcDbLine
 10
-119.1969039058312
 20
-0.0000000000009086
 30
0.0
 11
-128.796903905832
 21
-0.0000000000009059
 31
0.0
  0
LINE
  5
15786
330
10F2A
100
AcDbEntity
  8
30
  6
Continuous
 62
     0
370
    -2
100
AcDbLine
 10
-128.2969039058321
 20
-138.0
 30
0.0
 11
-128.2969039058321
 21
-2.000000000000905
 31
0.0
  0
INSERT
  5
15787
330
10F2A
100
AcDbEntity
  8
30
  6
Continuous
 62
     0
370
    -2
100
AcDbBlockReference
  2
_OPEN
 10
-128.2969039058321
 20
-140.0
 30
0.0
 41
2.0
 42
2.0
 43
2.0
 50
270.0
  0
INSERT
  5
15788
330
10F2A
100
AcDbEntity
  8
30
  6
Continuous
 62
     0
370
    -2
100
AcDbBlockReference
  2
_OPEN
 10
-128.2969039058321
 20
-0.0000000000009061
 30
0.0
 41
2.0
 42
2.0
 43
2.0
 50
90.0
  0
MTEXT
  5
15789
330
10F2A
100
AcDbEntity
  8
30
  6
Continuous
 62
     0
100
AcDbMText
 10
-134.296903905832
 20
-70.00000000000047
 30
0.0
 40
6.0
 41
0.0
 71
     5
 72
     1
  1
\A1; 140 
 11
0.0000000000000001
 21
1.0
 31
0.0
 73
     1
 44
1.0
  0
POINT
  5
1578A
330
10F2A
100
AcDbEntity
  8
DEFPOINTS
  6
Continuous
 62
     0
100
AcDbPoint
 10
-105.0
 20
-140.0
 30
0.0
  0
POINT
  5
1578B
330
10F2A
100
AcDbEntity
  8
DEFPOINTS
  6
Continuous
 62
     0
100
AcDbPoint
 10
-116.1969039058312
 20
-0.0000000000009095
 30
0.0
  0
POINT
  5
1578C
330
10F2A
100
AcDbEntity
  8
DEFPOINTS
  6
Continuous
 62
     0
100
AcDbPoint
 10
-128.2969039058321
 20
-0.0000000000009061
 30
0.0
  0
ENDBLK
  5
10F36
330
10F2A
100
AcDbEntity
  8
0
100
AcDbBlockEnd
  0
BLOCK
  5
11FDC
330
11FD2
100
AcDbEntity
  8
0
100
AcDbBlockBegin
  2
*D3
 70
     1
 10
0.0
 20
0.0
 30
0.0
  3
*D3
  1

  0
LINE
  5
1570F
330
11FD2
100
AcDbEntity
  8
30
  6
Continuous
 62
     0
370
    -2
100
AcDbLine
 10
-53.0
 20
-754.0000000000016
 30
0.0
 11
-140.5
 21
-754.0000000000016
 31
0.0
  0
LINE
  5
15710
330
11FD2
100
AcDbEntity
  8
30
  6
Continuous
 62
     0
370
    -2
100
AcDbLine
 10
-120.4711194721602
 20
-600.0000000000007
 30
0.0
 11
-140.5
 21
-600.0000000000007
 31
0.0
  0
LINE
  5
15711
330
11FD2
100
AcDbEntity
  8
30
  6
Continuous
 62
     0
370
    -2
100
AcDbLine
 10
-140.0
 20
-752.0000000000017
 30
0.0
 11
-140.0
 21
-602.0000000000008
 31
0.0
  0
INSERT
  5
15712
330
11FD2
100
AcDbEntity
  8
30
  6
Continuous
 62
     0
370
    -2
100
AcDbBlockReference
  2
_OPEN
 10
-140.0
 20
-754.0000000000016
 30
0.0
 41
2.0
 42
2.0
 43
2.0
 50
270.0
  0
INSERT
  5
15713
330
11FD2
100
AcDbEntity
  8
30
  6
Continuous
 62
     0
370
    -2
100
AcDbBlockReference
  2
_OPEN
 10
-140.0
 20
-600.0000000000007
 30
0.0
 41
2.0
 42
2.0
 43
2.0
 50
90.0
  0
MTEXT
  5
15714
330
11FD2
100
AcDbEntity
  8
30
  6
Continuous
 62
     0
100
AcDbMText
 10
-145.9999999999998
 20
-677.0000000000012
 30
0.0
 40
6.0
 41
0.0
 71
     5
 72
     1
  1
\A1; 154 
 11
0.0000000000000001
 21
1.0
 31
0.0
 73
     1
 44
1.0
  0
POINT
  5
15715
330
11FD2
100
AcDbEntity
  8
DEFPOINTS
  6
Continuous
 62
     0
100
AcDbPoint
 10
-50.0
 20
-754.0000000000016
 30
0.0
  0
POINT
  5
15716
330
11FD2
100
AcDbEntity
  8
DEFPOINTS
  6
Continuous
 62
     0
100
AcDbPoint
 10
-117.4711194721602
 20
-600.0000000000007
 30
0.0
  0
POINT
  5
15717
330
11FD2
100
AcDbEntity
  8
DEFPOINTS
  6
Continuous
 62
     0
100
AcDbPoint
 10
-140.0
 20
-600.0000000000007
 30
0.0
  0
ENDBLK
  5
11FDD
330
11FD2
100
AcDbEntity
  8
0
100
AcDbBlockEnd
  0
BLOCK
  5
11FE8
330
11FDE
100
AcDbEntity
  8
0
100
AcDbBlockBegin
  2
*D4
 70
     1
 10
0.0
 20
0.0
 30
0.0
  3
*D4
  1

  0
LINE
  5
15718
330
11FDE
100
AcDbEntity
  8
30
  6
Continuous
 62
     0
370
    -2
100
AcDbLine
 10
-118.0
 20
-600.0000000000007
 30
0.0
 11
-140.5
 21
-600.0000000000007
 31
0.0
  0
LINE
  5
15719
330
11FDE
100
AcDbEntity
  8
30
  6
Continuous
 62
     0
370
    -2
100
AcDbLine
 10
-53.0
 20
-416.0
 30
0.0
 11
-140.4999999999999
 21
-415.9999999999998
 31
0.0
  0
LINE
  5
1571A
330
11FDE
100
AcDbEntity
  8
30
  6
Continuous
 62
     0
370
    -2
100
AcDbLine
 10
-140.0
 20
-598.0000000000008
 30
0.0
 11
-139.9999999999999
 21
-417.9999999999997
 31
0.0
  0
INSERT
  5
1571B
330
11FDE
100
AcDbEntity
  8
30
  6
Continuous
 62
     0
370
    -2
100
AcDbBlockReference
  2
_OPEN
 10
-140.0
 20
-600.0000000000007
 30
0.0
 41
2.0
 42
2.0
 43
2.0
 50
270.0
  0
INSERT
  5
1571C
330
11FDE
100
AcDbEntity
  8
30
  6
Continuous
 62
     0
370
    -2
100
AcDbBlockReference
  2
_OPEN
 10
-139.9999999999999
 20
-415.9999999999998
 30
0.0
 41
2.0
 42
2.0
 43
2.0
 50
90.0
  0
MTEXT
  5
1571D
330
11FDE
100
AcDbEntity
  8
30
  6
Continuous
 62
     0
100
AcDbMText
 10
-145.9999999999998
 20
-508.0000000000004
 30
0.0
 40
6.0
 41
0.0
 71
     5
 72
     1
  1
\A1; 184 
 11
0.0000000000000001
 21
1.0
 31
0.0
 73
     1
 44
1.0
  0
POINT
  5
1571E
330
11FDE
100
AcDbEntity
  8
DEFPOINTS
  6
Continuous
 62
     0
100
AcDbPoint
 10
-115.0
 20
-600.0000000000007
 30
0.0
  0
POINT
  5
1571F
330
11FDE
100
AcDbEntity
  8
DEFPOINTS
  6
Continuous
 62
     0
100
AcDbPoint
 10
-50.0
 20
-416.0
 30
0.0
  0
POINT
  5
15720
330
11FDE
100
AcDbEntity
  8
DEFPOINTS
  6
Continuous
 62
     0
100
AcDbPoint
 10
-139.9999999999999
 20
-415.9999999999998
 30
0.0
  0
ENDBLK
  5
11FE9
330
11FDE
100
AcDbEntity
  8
0
100
AcDbBlockEnd
  0
BLOCK
  5
120C0
330
120B6
100
AcDbEntity
  8
0
100
AcDbBlockBegin
  2
*D5
 70
     1
 10
0.0
 20
0.0
 30
0.0
  3
*D5
  1

  0
LINE
  5
15706
330
120B6
100
AcDbEntity
  8
30
  6
Continuous
 62
     0
370
    -2
100
AcDbLine
 10
303.4999999999998
 20
-648.9999999999997
 30
0.0
 11
303.4999999999998
 21
-810.5
 31
0.0
  0
LINE
  5
15707
330
120B6
100
AcDbEntity
  8
30
  6
Continuous
 62
     0
370
    -2
100
AcDbLine
 10
496.4999999999998
 20
-648.9999999999992
 30
0.0
 11
496.4999999999998
 21
-810.5
 31
0.0
  0
LINE
  5
15708
330
120B6
100
AcDbEntity
  8
30
  6
Continuous
 62
     0
370
    -2
100
AcDbLine
 10
305.4999999999998
 20
-810.0
 30
0.0
 11
494.5
 21
-810.0
 31
0.0
  0
INSERT
  5
15709
330
120B6
100
AcDbEntity
  8
30
  6
Continuous
 62
     0
370
    -2
100
AcDbBlockReference
  2
_OPEN
 10
303.4999999999998
 20
-810.0
 30
0.0
 41
2.0
 42
2.0
 43
2.0
 50
180.0
  0
INSERT
  5
1570A
330
120B6
100
AcDbEntity
  8
30
  6
Continuous
 62
     0
370
    -2
100
AcDbBlockReference
  2
_OPEN
 10
496.4999999999998
 20
-810.0
 30
0.0
 41
2.0
 42
2.0
 43
2.0
  0
MTEXT
  5
1570B
330
120B6
100
AcDbEntity
  8
30
  6
Continuous
 62
     0
100
AcDbMText
 10
399.9999999999998
 20
-804.0
 30
0.0
 40
6.0
 41
0.0
 71
     5
 72
     1
  1
\A1; 193 
 73
     1
 44
1.0
  0
POINT
  5
1570C
330
120B6
100
AcDbEntity
  8
DEFPOINTS
  6
Continuous
 62
     0
100
AcDbPoint
 10
303.4999999999998
 20
-645.9999999999998
 30
0.0
  0
POINT
  5
1570D
330
120B6
100
AcDbEntity
  8
DEFPOINTS
  6
Continuous
 62
     0
100
AcDbPoint
 10
496.4999999999998
 20
-645.9999999999991
 30
0.0
  0
POINT
  5
1570E
330
120B6
100
AcDbEntity
  8
DEFPOINTS
  6
Continuous
 62
     0
100
AcDbPoint
 10
496.4999999999998
 20
-810.0
 30
0.0
  0
ENDBLK
  5
120C1
330
120B6
100
AcDbEntity
  8
0
100
AcDbBlockEnd
  0
BLOCK
  5
120CC
330
120C2
100
AcDbEntity
  8
0
100
AcDbBlockBegin
  2
*D6
 70
     1
 10
0.0
 20
0.0
 30
0.0
  3
*D6
  1

  0
LINE
  5
156FD
330
120C2
100
AcDbEntity
  8
30
  6
Continuous
 62
     0
370
    -2
100
AcDbLine
 10
300.4999999999999
 20
-550.9999999999991
 30
0.0
 11
274.5
 21
-550.9999999999991
 31
0.0
  0
LINE
  5
156FE
330
120C2
100
AcDbEntity
  8
30
  6
Continuous
 62
     0
370
    -2
100
AcDbLine
 10
300.4999999999999
 20
-648.9999999999997
 30
0.0
 11
274.5
 21
-648.9999999999997
 31
0.0
  0
LINE
  5
156FF
330
120C2
100
AcDbEntity
  8
30
  6
Continuous
 62
     0
370
    -2
100
AcDbLine
 10
275.0
 20
-552.9999999999992
 30
0.0
 11
275.0
 21
-646.9999999999997
 31
0.0
  0
INSERT
  5
15700
330
120C2
100
AcDbEntity
  8
30
  6
Continuous
 62
     0
370
    -2
100
AcDbBlockReference
  2
_OPEN
 10
275.0
 20
-550.9999999999991
 30
0.0
 41
2.0
 42
2.0
 43
2.0
 50
90.0
  0
INSERT
  5
15701
330
120C2
100
AcDbEntity
  8
30
  6
Continuous
 62
     0
370
    -2
100
AcDbBlockReference
  2
_OPEN
 10
275.0
 20
-648.9999999999997
 30
0.0
 41
2.0
 42
2.0
 43
2.0
 50
270.0
  0
MTEXT
  5
15702
330
120C2
100
AcDbEntity
  8
30
  6
Continuous
 62
     0
100
AcDbMText
 10
269.0
 20
-599.9999999999992
 30
0.0
 40
6.0
 41
0.0
 71
     5
 72
     1
  1
\A1;98
 11
0.0000000000000001
 21
1.0
 31
0.0
 73
     1
 44
1.0
  0
POINT
  5
15703
330
120C2
100
AcDbEntity
  8
DEFPOINTS
  6
Continuous
 62
     0
100
AcDbPoint
 10
303.4999999999998
 20
-550.9999999999991
 30
0.0
  0
POINT
  5
15704
330
120C2
100
AcDbEntity
  8
DEFPOINTS
  6
Continuous
 62
     0
100
AcDbPoint
 10
303.4999999999998
 20
-648.9999999999997
 30
0.0
  0
POINT
  5
15705
330
120C2
100
AcDbEntity
  8
DEFPOINTS
  6
Continuous
 62
     0
100
AcDbPoint
 10
275.0
 20
-648.9999999999997
 30
0.0
  0
ENDBLK
  5
120CD
330
120C2
100
AcDbEntity
  8
0
100
AcDbBlockEnd
  0
BLOCK
  5
13A58
330
13A4D
100
AcDbEntity
  8
0
100
AcDbBlockBegin
  2
*D7
 70
     1
 10
0.0
 20
0.0
 30
0.0
  3
*D7
  1

  0
LINE
  5
1568E
330
13A4D
100
AcDbEntity
  8
30
  6
Continuous
 62
     0
370
    -2
100
AcDbLine
 10
513.0
 20
-0.0000000000004556
 30
0.0
 11
730.4999999999997
 21
-0.0000000000005172
 31
0.0
  0
LINE
  5
1568F
330
13A4D
100
AcDbEntity
  8
30
  6
Continuous
 62
     0
370
    -2
100
AcDbLine
 10
693.0
 20
59.99999999999953
 30
0.0
 11
730.4999999999997
 21
59.99999999999952
 31
0.0
  0
LINE
  5
15690
330
13A4D
100
AcDbEntity
  8
30
  6
Continuous
 62
     0
370
    -2
100
AcDbLine
 10
730.0
 20
1.999999999999482
 30
0.0
 11
730.0
 21
57.99999999999952
 31
0.0
  0
INSERT
  5
15691
330
13A4D
100
AcDbEntity
  8
30
  6
Continuous
 62
     0
370
    -2
100
AcDbBlockReference
  2
_OPEN
 10
730.0
 20
-0.0000000000005171
 30
0.0
 41
2.0
 42
2.0
 43
2.0
 50
270.0
  0
INSERT
  5
15692
330
13A4D
100
AcDbEntity
  8
30
  6
Continuous
 62
     0
370
    -2
100
AcDbBlockReference
  2
_OPEN
 10
730.0
 20
59.99999999999952
 30
0.0
 41
2.0
 42
2.0
 43
2.0
 50
90.0
  0
MTEXT
  5
15693
330
13A4D
100
AcDbEntity
  8
30
  6
Continuous
 62
     0
100
AcDbMText
 10
724.0
 20
29.99999999999962
 30
0.0
 40
6.0
 41
0.0
 71
     5
 72
     1
  1
\A1; 60 
 11
0.0000000000000001
 21
1.0
 31
0.0
 73
     1
 44
1.0
  0
POINT
  5
15694
330
13A4D
100
AcDbEntity
  8
DEFPOINTS
  6
Continuous
 62
     0
100
AcDbPoint
 10
510.0
 20
-0.0000000000004547
 30
0.0
  0
POINT
  5
15695
330
13A4D
100
AcDbEntity
  8
DEFPOINTS
  6
Continuous
 62
     0
100
AcDbPoint
 10
690.0
 20
59.99999999999953
 30
0.0
  0
POINT
  5
15696
330
13A4D
100
AcDbEntity
  8
DEFPOINTS
  6
Continuous
 62
     0
100
AcDbPoint
 10
730.0
 20
59.99999999999952
 30
0.0
  0
ENDBLK
  5
13A59
330
13A4D
100
AcDbEntity
  8
0
100
AcDbBlockEnd
  0
BLOCK
  5
13A65
330
13A5A
100
AcDbEntity
  8
0
100
AcDbBlockBegin
  2
*D8
 70
     1
 10
0.0
 20
0.0
 30
0.0
  3
*D8
  1

  0
LINE
  5
15685
330
13A5A
100
AcDbEntity
  8
30
  6
Continuous
 62
     0
370
    -2
100
AcDbLine
 10
643.0
 20
-100.0000000000003
 30
0.0
 11
730.4999999999997
 21
-100.0000000000003
 31
0.0
  0
LINE
  5
15686
330
13A5A
100
AcDbEntity
  8
30
  6
Continuous
 62
     0
370
    -2
100
AcDbLine
 10
513.0
 20
-0.0000000000004556
 30
0.0
 11
730.4999999999997
 21
-0.0000000000005172
 31
0.0
  0
LINE
  5
15687
330
13A5A
100
AcDbEntity
  8
30
  6
Continuous
 62
     0
370
    -2
100
AcDbLine
 10
730.0
 20
-98.00000000000046
 30
0.0
 11
730.0
 21
-2.000000000000516
 31
0.0
  0
INSERT
  5
15688
330
13A5A
100
AcDbEntity
  8
30
  6
Continuous
 62
     0
370
    -2
100
AcDbBlockReference
  2
_OPEN
 10
730.0
 20
-100.0000000000003
 30
0.0
 41
2.0
 42
2.0
 43
2.0
 50
270.0
  0
INSERT
  5
15689
330
13A5A
100
AcDbEntity
  8
30
  6
Continuous
 62
     0
370
    -2
100
AcDbBlockReference
  2
_OPEN
 10
730.0
 20
-0.0000000000005171
 30
0.0
 41
2.0
 42
2.0
 43
2.0
 50
90.0
  0
MTEXT
  5
1568A
330
13A5A
100
AcDbEntity
  8
30
  6
Continuous
 62
     0
100
AcDbMText
 10
724.0
 20
-50.00000000000039
 30
0.0
 40
6.0
 41
0.0
 71
     5
 72
     1
  1
\A1; 100 
 11
0.0000000000000001
 21
1.0
 31
0.0
 73
     1
 44
1.0
  0
POINT
  5
1568B
330
13A5A
100
AcDbEntity
  8
DEFPOINTS
  6
Continuous
 62
     0
100
AcDbPoint
 10
640.0
 20
-100.0000000000003
 30
0.0
  0
POINT
  5
1568C
330
13A5A
100
AcDbEntity
  8
DEFPOINTS
  6
Continuous
 62
     0
100
AcDbPoint
 10
510.0
 20
-0.0000000000004547
 30
0.0
  0
POINT
  5
1568D
330
13A5A
100
AcDbEntity
  8
DEFPOINTS
  6
Continuous
 62
     0
100
AcDbPoint
 10
730.0
 20
-0.0000000000005171
 30
0.0
  0
ENDBLK
  5
13A66
330
13A5A
100
AcDbEntity
  8
0
100
AcDbBlockEnd
  0
BLOCK
  5
13A72
330
13A67
100
AcDbEntity
  8
0
100
AcDbBlockBegin
  2
*D9
 70
     1
 10
0.0
 20
0.0
 30
0.0
  3
*D9
  1

  0
LINE
  5
1567C
330
13A67
100
AcDbEntity
  8
30
  6
Continuous
 62
     0
370
    -2
100
AcDbLine
 10
638.0
 20
27.49999999999953
 30
0.0
 11
690.5
 21
27.49999999999953
 31
0.0
  0
LINE
  5
1567D
330
13A67
100
AcDbEntity
  8
30
  6
Continuous
 62
     0
370
    -2
100
AcDbLine
 10
638.0
 20
92.49999999999955
 30
0.0
 11
690.5
 21
92.49999999999952
 31
0.0
  0
LINE
  5
1567E
330
13A67
100
AcDbEntity
  8
30
  6
Continuous
 62
     0
370
    -2
100
AcDbLine
 10
690.0
 20
29.49999999999953
 30
0.0
 11
690.0
 21
90.49999999999952
 31
0.0
  0
INSERT
  5
1567F
330
13A67
100
AcDbEntity
  8
30
  6
Continuous
 62
     0
370
    -2
100
AcDbBlockReference
  2
_OPEN
 10
690.0
 20
27.49999999999953
 30
0.0
 41
2.0
 42
2.0
 43
2.0
 50
270.0
  0
INSERT
  5
15680
330
13A67
100
AcDbEntity
  8
30
  6
Continuous
 62
     0
370
    -2
100
AcDbBlockReference
  2
_OPEN
 10
690.0
 20
92.49999999999952
 30
0.0
 41
2.0
 42
2.0
 43
2.0
 50
90.0
  0
MTEXT
  5
15681
330
13A67
100
AcDbEntity
  8
30
  6
Continuous
 62
     0
100
AcDbMText
 10
684.0
 20
59.99999999999964
 30
0.0
 40
6.0
 41
0.0
 71
     5
 72
     1
  1
\A1; 65 
 11
0.0000000000000001
 21
1.0
 31
0.0
 73
     1
 44
1.0
  0
POINT
  5
15682
330
13A67
100
AcDbEntity
  8
DEFPOINTS
  6
Continuous
 62
     0
100
AcDbPoint
 10
635.0
 20
27.49999999999953
 30
0.0
  0
POINT
  5
15683
330
13A67
100
AcDbEntity
  8
DEFPOINTS
  6
Continuous
 62
     0
100
AcDbPoint
 10
635.0
 20
92.49999999999955
 30
0.0
  0
POINT
  5
15684
330
13A67
100
AcDbEntity
  8
DEFPOINTS
  6
Continuous
 62
     0
100
AcDbPoint
 10
690.0
 20
92.49999999999952
 30
0.0
  0
ENDBLK
  5
13A73
330
13A67
100
AcDbEntity
  8
0
100
AcDbBlockEnd
  0
BLOCK
  5
13A8A
330
13A7F
100
AcDbEntity
  8
0
100
AcDbBlockBegin
  2
*D10
 70
     1
 10
0.0
 20
0.0
 30
0.0
  3
*D10
  1

  0
LINE
  5
15673
330
13A7F
100
AcDbEntity
  8
30
  6
Continuous
 62
     0
370
    -2
100
AcDbLine
 10
629.0000000000002
 20
45.0
 30
0.0
 11
660.5
 21
44.99999999999999
 31
0.0
  0
LINE
  5
15674
330
13A7F
100
AcDbEntity
  8
30
  6
Continuous
 62
     0
370
    -2
100
AcDbLine
 10
629.0000000000002
 20
75.0
 30
0.0
 11
660.5
 21
75.0
 31
0.0
  0
LINE
  5
15675
330
13A7F
100
AcDbEntity
  8
30
  6
Continuous
 62
     0
370
    -2
100
AcDbLine
 10
660.0
 20
46.99999999999999
 30
0.0
 11
660.0
 21
73.0
 31
0.0
  0
INSERT
  5
15676
330
13A7F
100
AcDbEntity
  8
30
  6
Continuous
 62
     0
370
    -2
100
AcDbBlockReference
  2
_OPEN
 10
660.0
 20
44.99999999999999
 30
0.0
 41
2.0
 42
2.0
 43
2.0
 50
270.0
  0
INSERT
  5
15677
330
13A7F
100
AcDbEntity
  8
30
  6
Continuous
 62
     0
370
    -2
100
AcDbBlockReference
  2
_OPEN
 10
660.0
 20
75.0
 30
0.0
 41
2.0
 42
2.0
 43
2.0
 50
90.0
  0
MTEXT
  5
15678
330
13A7F
100
AcDbEntity
  8
30
  6
Continuous
 62
     0
100
AcDbMText
 10
654.0
 20
60.0000000000001
 30
0.0
 40
6.0
 41
0.0
 71
     5
 72
     1
  1
\A1; 30 
 11
0.0000000000000001
 21
1.0
 31
0.0
 73
     1
 44
1.0
  0
POINT
  5
15679
330
13A7F
100
AcDbEntity
  8
DEFPOINTS
  6
Continuous
 62
     0
100
AcDbPoint
 10
626.0000000000002
 20
45.0
 30
0.0
  0
POINT
  5
1567A
330
13A7F
100
AcDbEntity
  8
DEFPOINTS
  6
Continuous
 62
     0
100
AcDbPoint
 10
626.0000000000002
 20
75.0
 30
0.0
  0
POINT
  5
1567B
330
13A7F
100
AcDbEntity
  8
DEFPOINTS
  6
Continuous
 62
     0
100
AcDbPoint
 10
660.0
 20
75.0
 30
0.0
  0
ENDBLK
  5
13A8B
330
13A7F
100
AcDbEntity
  8
0
100
AcDbBlockEnd
  0
BLOCK
  5
13A96
330
13A8C
100
AcDbEntity
  8
0
100
AcDbBlockBegin
  2
*D11
 70
     1
 10
0.0
 20
0.0
 30
0.0
  3
*D11
  1

  0
LINE
  5
15889
330
13A8C
100
AcDbEntity
  8
30
  6
Continuous
 62
     0
370
    -2
100
AcDbLine
 10
500.0
 20
-172.9999999999999
 30
0.0
 11
500.0
 21
-290.1903068709502
 31
0.0
  0
LINE
  5
1588A
330
13A8C
100
AcDbEntity
  8
30
  6
Continuous
 62
     0
370
    -2
100
AcDbLine
 10
630.0
 20
-140.5000000000003
 30
0.0
 11
630.0
 21
-290.1903068709502
 31
0.0
  0
LINE
  5
1588B
330
13A8C
100
AcDbEntity
  8
30
  6
Continuous
 62
     0
370
    -2
100
AcDbLine
 10
502.0
 20
-289.6903068709502
 30
0.0
 11
628.0
 21
-289.6903068709502
 31
0.0
  0
INSERT
  5
1588C
330
13A8C
100
AcDbEntity
  8
30
  6
Continuous
 62
     0
370
    -2
100
AcDbBlockReference
  2
_OPEN
 10
500.0
 20
-289.6903068709502
 30
0.0
 41
2.0
 42
2.0
 43
2.0
 50
180.0
  0
INSERT
  5
1588D
330
13A8C
100
AcDbEntity
  8
30
  6
Continuous
 62
     0
370
    -2
100
AcDbBlockReference
  2
_OPEN
 10
630.0
 20
-289.6903068709502
 30
0.0
 41
2.0
 42
2.0
 43
2.0
  0
MTEXT
  5
1588E
330
13A8C
100
AcDbEntity
  8
30
  6
Continuous
 62
     0
100
AcDbMText
 10
565.0
 20
-283.6903068709503
 30
0.0
 40
6.0
 41
0.0
 71
     5
 72
     1
  1
\A1; 130 
 73
     1
 44
1.0
  0
POINT
  5
1588F
330
13A8C
100
AcDbEntity
  8
DEFPOINTS
  6
Continuous
 62
     0
100
AcDbPoint
 10
500.0
 20
-169.9999999999999
 30
0.0
  0
POINT
  5
15890
330
13A8C
100
AcDbEntity
  8
DEFPOINTS
  6
Continuous
 62
     0
100
AcDbPoint
 10
630.0
 20
-137.5000000000003
 30
0.0
  0
POINT
  5
15891
330
13A8C
100
AcDbEntity
  8
DEFPOINTS
  6
Continuous
 62
     0
100
AcDbPoint
 10
630.0
 20
-289.6903068709502
 30
0.0
  0
ENDBLK
  5
13A97
330
13A8C
100
AcDbEntity
  8
0
100
AcDbBlockEnd
  0
BLOCK
  5
13AA2
330
13A98
100
AcDbEntity
  8
0
100
AcDbBlockBegin
  2
*D12
 70
     1
 10
0.0
 20
0.0
 30
0.0
  3
*D12
  1

  0
LINE
  5
1586E
330
13A98
100
AcDbEntity
  8
30
  6
Continuous
 62
     0
370
    -2
100
AcDbLine
 10
500.0
 20
-172.9999999999999
 30
0.0
 11
500.0
 21
-261.097667203543
 31
0.0
  0
LINE
  5
1586F
330
13A98
100
AcDbEntity
  8
30
  6
Continuous
 62
     0
370
    -2
100
AcDbLine
 10
615.0
 20
-123.0000000000003
 30
0.0
 11
615.0
 21
-261.097667203543
 31
0.0
  0
LINE
  5
15870
330
13A98
100
AcDbEntity
  8
30
  6
Continuous
 62
     0
370
    -2
100
AcDbLine
 10
502.0
 20
-260.597667203543
 30
0.0
 11
613.0
 21
-260.597667203543
 31
0.0
  0
INSERT
  5
15871
330
13A98
100
AcDbEntity
  8
30
  6
Continuous
 62
     0
370
    -2
100
AcDbBlockReference
  2
_OPEN
 10
500.0
 20
-260.597667203543
 30
0.0
 41
2.0
 42
2.0
 43
2.0
 50
180.0
  0
INSERT
  5
15872
330
13A98
100
AcDbEntity
  8
30
  6
Continuous
 62
     0
370
    -2
100
AcDbBlockReference
  2
_OPEN
 10
615.0
 20
-260.597667203543
 30
0.0
 41
2.0
 42
2.0
 43
2.0
  0
MTEXT
  5
15873
330
13A98
100
AcDbEntity
  8
30
  6
Continuous
 62
     0
100
AcDbMText
 10
557.5
 20
-254.5976672035429
 30
0.0
 40
6.0
 41
0.0
 71
     5
 72
     1
  1
\A1; 115 
 73
     1
 44
1.0
  0
POINT
  5
15874
330
13A98
100
AcDbEntity
  8
DEFPOINTS
  6
Continuous
 62
     0
100
AcDbPoint
 10
500.0
 20
-169.9999999999999
 30
0.0
  0
POINT
  5
15875
330
13A98
100
AcDbEntity
  8
DEFPOINTS
  6
Continuous
 62
     0
100
AcDbPoint
 10
615.0
 20
-120.0000000000003
 30
0.0
  0
POINT
  5
15876
330
13A98
100
AcDbEntity
  8
DEFPOINTS
  6
Continuous
 62
     0
100
AcDbPoint
 10
615.0
 20
-260.597667203543
 30
0.0
  0
ENDBLK
  5
13AA3
330
13A98
100
AcDbEntity
  8
0
100
AcDbBlockEnd
  0
BLOCK
  5
13AAE
330
13AA4
100
AcDbEntity
  8
0
100
AcDbBlockBegin
  2
*D13
 70
     1
 10
0.0
 20
0.0
 30
0.0
  3
*D13
  1

  0
LINE
  5
1582D
330
13AA4
100
AcDbEntity
  8
30
  6
Continuous
 62
     0
370
    -2
100
AcDbLine
 10
500.0
 20
-172.9999999999999
 30
0.0
 11
500.0
 21
-231.2009006393349
 31
0.0
  0
LINE
  5
1582E
330
13AA4
100
AcDbEntity
  8
30
  6
Continuous
 62
     0
370
    -2
100
AcDbLine
 10
585.0
 20
-140.5000000000003
 30
0.0
 11
585.0
 21
-231.2009006393349
 31
0.0
  0
LINE
  5
1582F
330
13AA4
100
AcDbEntity
  8
30
  6
Continuous
 62
     0
370
    -2
100
AcDbLine
 10
502.0
 20
-230.7009006393349
 30
0.0
 11
583.0
 21
-230.7009006393349
 31
0.0
  0
INSERT
  5
15830
330
13AA4
100
AcDbEntity
  8
30
  6
Continuous
 62
     0
370
    -2
100
AcDbBlockReference
  2
_OPEN
 10
500.0
 20
-230.7009006393349
 30
0.0
 41
2.0
 42
2.0
 43
2.0
 50
180.0
  0
INSERT
  5
15831
330
13AA4
100
AcDbEntity
  8
30
  6
Continuous
 62
     0
370
    -2
100
AcDbBlockReference
  2
_OPEN
 10
585.0
 20
-230.7009006393349
 30
0.0
 41
2.0
 42
2.0
 43
2.0
  0
MTEXT
  5
15832
330
13AA4
100
AcDbEntity
  8
30
  6
Continuous
 62
     0
100
AcDbMText
 10
542.4999999999998
 20
-224.7009006393349
 30
0.0
 40
6.0
 41
0.0
 71
     5
 72
     1
  1
\A1; 85 
 73
     1
 44
1.0
  0
POINT
  5
15833
330
13AA4
100
AcDbEntity
  8
DEFPOINTS
  6
Continuous
 62
     0
100
AcDbPoint
 10
500.0
 20
-169.9999999999999
 30
0.0
  0
POINT
  5
15834
330
13AA4
100
AcDbEntity
  8
DEFPOINTS
  6
Continuous
 62
     0
100
AcDbPoint
 10
585.0
 20
-137.5000000000003
 30
0.0
  0
POINT
  5
15835
330
13AA4
100
AcDbEntity
  8
DEFPOINTS
  6
Continuous
 62
     0
100
AcDbPoint
 10
585.0
 20
-230.7009006393349
 30
0.0
  0
ENDBLK
  5
13AAF
330
13AA4
100
AcDbEntity
  8
0
100
AcDbBlockEnd
  0
BLOCK
  5
13ABA
330
13AB0
100
AcDbEntity
  8
0
100
AcDbBlockBegin
  2
*D14
 70
     1
 10
0.0
 20
0.0
 30
0.0
  3
*D14
  1

  0
LINE
  5
156A0
330
13AB0
100
AcDbEntity
  8
30
  6
Continuous
 62
     0
370
    -2
100
AcDbLine
 10
570.0
 20
-123.0000000000003
 30
0.0
 11
570.0
 21
-210.4999999999999
 31
0.0
  0
LINE
  5
156A1
330
13AB0
100
AcDbEntity
  8
30
  6
Continuous
 62
     0
370
    -2
100
AcDbLine
 10
585.0
 20
-140.5000000000003
 30
0.0
 11
585.0
 21
-210.4999999999999
 31
0.0
  0
LINE
  5
156A2
330
13AB0
100
AcDbEntity
  8
30
  6
Continuous
 62
     0
370
    -2
100
AcDbLine
 10
572.0
 20
-210.0
 30
0.0
 11
583.0
 21
-210.0
 31
0.0
  0
LINE
  5
156A3
330
13AB0
100
AcDbEntity
  8
30
  6
Continuous
 62
     0
370
    -2
100
AcDbLine
 10
585.0
 20
-210.0
 30
0.0
 11
604.6
 21
-210.0
 31
0.0
  0
INSERT
  5
156A4
330
13AB0
100
AcDbEntity
  8
30
  6
Continuous
 62
     0
370
    -2
100
AcDbBlockReference
  2
_OPEN
 10
570.0
 20
-210.0
 30
0.0
 41
2.0
 42
2.0
 43
2.0
 50
180.0
  0
INSERT
  5
156A5
330
13AB0
100
AcDbEntity
  8
30
  6
Continuous
 62
     0
370
    -2
100
AcDbBlockReference
  2
_OPEN
 10
585.0
 20
-210.0
 30
0.0
 41
2.0
 42
2.0
 43
2.0
  0
MTEXT
  5
156A6
330
13AB0
100
AcDbEntity
  8
30
  6
Continuous
 62
     0
100
AcDbMText
 10
595.7999999999997
 20
-204.0
 30
0.0
 40
6.0
 41
0.0
 71
     5
 72
     1
  1
\A1; 15 
 73
     1
 44
1.0
  0
POINT
  5
156A7
330
13AB0
100
AcDbEntity
  8
DEFPOINTS
  6
Continuous
 62
     0
100
AcDbPoint
 10
570.0
 20
-120.0000000000003
 30
0.0
  0
POINT
  5
156A8
330
13AB0
100
AcDbEntity
  8
DEFPOINTS
  6
Continuous
 62
     0
100
AcDbPoint
 10
585.0
 20
-137.5000000000003
 30
0.0
  0
POINT
  5
156A9
330
13AB0
100
AcDbEntity
  8
DEFPOINTS
  6
Continuous
 62
     0
100
AcDbPoint
 10
585.0
 20
-210.0
 30
0.0
  0
ENDBLK
  5
13ABB
330
13AB0
100
AcDbEntity
  8
0
100
AcDbBlockEnd
  0
BLOCK
  5
13AC6
330
13ABC
100
AcDbEntity
  8
0
100
AcDbBlockBegin
  2
*D15
 70
     1
 10
0.0
 20
0.0
 30
0.0
  3
*D15
  1

  0
LINE
  5
15697
330
13ABC
100
AcDbEntity
  8
30
  6
Continuous
 62
     0
370
    -2
100
AcDbLine
 10
500.0
 20
-172.9999999999999
 30
0.0
 11
500.0
 21
-210.4999999999999
 31
0.0
  0
LINE
  5
15698
330
13ABC
100
AcDbEntity
  8
30
  6
Continuous
 62
     0
370
    -2
100
AcDbLine
 10
570.0
 20
-123.0000000000003
 30
0.0
 11
570.0
 21
-210.4999999999999
 31
0.0
  0
LINE
  5
15699
330
13ABC
100
AcDbEntity
  8
30
  6
Continuous
 62
     0
370
    -2
100
AcDbLine
 10
502.0
 20
-210.0
 30
0.0
 11
568.0
 21
-210.0
 31
0.0
  0
INSERT
  5
1569A
330
13ABC
100
AcDbEntity
  8
30
  6
Continuous
 62
     0
370
    -2
100
AcDbBlockReference
  2
_OPEN
 10
500.0
 20
-210.0
 30
0.0
 41
2.0
 42
2.0
 43
2.0
 50
180.0
  0
INSERT
  5
1569B
330
13ABC
100
AcDbEntity
  8
30
  6
Continuous
 62
     0
370
    -2
100
AcDbBlockReference
  2
_OPEN
 10
570.0
 20
-210.0
 30
0.0
 41
2.0
 42
2.0
 43
2.0
  0
MTEXT
  5
1569C
330
13ABC
100
AcDbEntity
  8
30
  6
Continuous
 62
     0
100
AcDbMText
 10
535.0
 20
-204.0
 30
0.0
 40
6.0
 41
0.0
 71
     5
 72
     1
  1
\A1; 70 
 73
     1
 44
1.0
  0
POINT
  5
1569D
330
13ABC
100
AcDbEntity
  8
DEFPOINTS
  6
Continuous
 62
     0
100
AcDbPoint
 10
500.0
 20
-169.9999999999999
 30
0.0
  0
POINT
  5
1569E
330
13ABC
100
AcDbEntity
  8
DEFPOINTS
  6
Continuous
 62
     0
100
AcDbPoint
 10
570.0
 20
-120.0000000000003
 30
0.0
  0
POINT
  5
1569F
330
13ABC
100
AcDbEntity
  8
DEFPOINTS
  6
Continuous
 62
     0
100
AcDbPoint
 10
570.0
 20
-210.0
 30
0.0
  0
ENDBLK
  5
13AC7
330
13ABC
100
AcDbEntity
  8
0
100
AcDbBlockEnd
  0
BLOCK
  5
13AD2
330
13AC8
100
AcDbEntity
  8
0
100
AcDbBlockBegin
  2
*D16
 70
     1
 10
0.0
 20
0.0
 30
0.0
  3
*D16
  1

  0
LINE
  5
15864
330
13AC8
100
AcDbEntity
  8
30
  6
Continuous
 62
     0
370
    -2
100
AcDbLine
 10
615.0
 20
-123.0000000000003
 30
0.0
 11
615.0
 21
-261.097667203543
 31
0.0
  0
LINE
  5
15865
330
13AC8
100
AcDbEntity
  8
30
  6
Continuous
 62
     0
370
    -2
100
AcDbLine
 10
630.0
 20
-140.5000000000003
 30
0.0
 11
630.0
 21
-261.097667203543
 31
0.0
  0
LINE
  5
15866
330
13AC8
100
AcDbEntity
  8
30
  6
Continuous
 62
     0
370
    -2
100
AcDbLine
 10
617.0
 20
-260.597667203543
 30
0.0
 11
628.0
 21
-260.597667203543
 31
0.0
  0
LINE
  5
15867
330
13AC8
100
AcDbEntity
  8
30
  6
Continuous
 62
     0
370
    -2
100
AcDbLine
 10
630.0
 20
-260.597667203543
 30
0.0
 11
649.6
 21
-260.597667203543
 31
0.0
  0
INSERT
  5
15868
330
13AC8
100
AcDbEntity
  8
30
  6
Continuous
 62
     0
370
    -2
100
AcDbBlockReference
  2
_OPEN
 10
615.0
 20
-260.597667203543
 30
0.0
 41
2.0
 42
2.0
 43
2.0
 50
180.0
  0
INSERT
  5
15869
330
13AC8
100
AcDbEntity
  8
30
  6
Continuous
 62
     0
370
    -2
100
AcDbBlockReference
  2
_OPEN
 10
630.0
 20
-260.597667203543
 30
0.0
 41
2.0
 42
2.0
 43
2.0
  0
MTEXT
  5
1586A
330
13AC8
100
AcDbEntity
  8
30
  6
Continuous
 62
     0
100
AcDbMText
 10
640.7999999999997
 20
-254.5976672035429
 30
0.0
 40
6.0
 41
0.0
 71
     5
 72
     1
  1
\A1; 15 
 73
     1
 44
1.0
  0
POINT
  5
1586B
330
13AC8
100
AcDbEntity
  8
DEFPOINTS
  6
Continuous
 62
     0
100
AcDbPoint
 10
615.0
 20
-120.0000000000003
 30
0.0
  0
POINT
  5
1586C
330
13AC8
100
AcDbEntity
  8
DEFPOINTS
  6
Continuous
 62
     0
100
AcDbPoint
 10
630.0
 20
-137.5000000000003
 30
0.0
  0
POINT
  5
1586D
330
13AC8
100
AcDbEntity
  8
DEFPOINTS
  6
Continuous
 62
     0
100
AcDbPoint
 10
630.0
 20
-260.597667203543
 30
0.0
  0
ENDBLK
  5
13AD3
330
13AC8
100
AcDbEntity
  8
0
100
AcDbBlockEnd
  0
BLOCK
  5
13ADE
330
13AD4
100
AcDbEntity
  8
0
100
AcDbBlockBegin
  2
*D17
 70
     1
 10
0.0
 20
0.0
 30
0.0
  3
*D17
  1

  0
LINE
  5
15880
330
13AD4
100
AcDbEntity
  8
30
  6
Continuous
 62
     0
370
    -2
100
AcDbLine
 10
229.0
 20
-5.799999999999727
 30
0.0
 11
228.9999999999999
 21
-290.1903068709502
 31
0.0
  0
LINE
  5
15881
330
13AD4
100
AcDbEntity
  8
30
  6
Continuous
 62
     0
370
    -2
100
AcDbLine
 10
309.0
 20
-5.799999999999727
 30
0.0
 11
309.0
 21
-290.1903068709502
 31
0.0
  0
LINE
  5
15882
330
13AD4
100
AcDbEntity
  8
30
  6
Continuous
 62
     0
370
    -2
100
AcDbLine
 10
230.9999999999999
 20
-289.6903068709502
 30
0.0
 11
307.0
 21
-289.6903068709502
 31
0.0
  0
INSERT
  5
15883
330
13AD4
100
AcDbEntity
  8
30
  6
Continuous
 62
     0
370
    -2
100
AcDbBlockReference
  2
_OPEN
 10
228.9999999999999
 20
-289.6903068709502
 30
0.0
 41
2.0
 42
2.0
 43
2.0
 50
180.0
  0
INSERT
  5
15884
330
13AD4
100
AcDbEntity
  8
30
  6
Continuous
 62
     0
370
    -2
100
AcDbBlockReference
  2
_OPEN
 10
309.0
 20
-289.6903068709502
 30
0.0
 41
2.0
 42
2.0
 43
2.0
  0
MTEXT
  5
15885
330
13AD4
100
AcDbEntity
  8
30
  6
Continuous
 62
     0
100
AcDbMText
 10
269.0
 20
-283.6903068709503
 30
0.0
 40
6.0
 41
0.0
 71
     5
 72
     1
  1
\A1; 80 
 73
     1
 44
1.0
  0
POINT
  5
15886
330
13AD4
100
AcDbEntity
  8
DEFPOINTS
  6
Continuous
 62
     0
100
AcDbPoint
 10
229.0
 20
-2.799999999999727
 30
0.0
  0
POINT
  5
15887
330
13AD4
100
AcDbEntity
  8
DEFPOINTS
  6
Continuous
 62
     0
100
AcDbPoint
 10
309.0
 20
-2.799999999999727
 30
0.0
  0
POINT
  5
15888
330
13AD4
100
AcDbEntity
  8
DEFPOINTS
  6
Continuous
 62
     0
100
AcDbPoint
 10
309.0
 20
-289.6903068709502
 30
0.0
  0
ENDBLK
  5
13ADF
330
13AD4
100
AcDbEntity
  8
0
100
AcDbBlockEnd
  0
BLOCK
  5
13AEA
330
13AE0
100
AcDbEntity
  8
0
100
AcDbBlockBegin
  2
*D18
 70
     1
 10
0.0
 20
0.0
 30
0.0
  3
*D18
  1

  0
LINE
  5
15851
330
13AE0
100
AcDbEntity
  8
30
  6
Continuous
 62
     0
370
    -2
100
AcDbLine
 10
343.0
 20
1.500000000000454
 30
0.0
 11
343.0
 21
-261.097667203543
 31
0.0
  0
LINE
  5
15852
330
13AE0
100
AcDbEntity
  8
30
  6
Continuous
 62
     0
370
    -2
100
AcDbLine
 10
353.0
 20
-55.50000000000046
 30
0.0
 11
353.0
 21
-261.097667203543
 31
0.0
  0
LINE
  5
15853
330
13AE0
100
AcDbEntity
  8
30
  6
Continuous
 62
     0
370
    -2
100
AcDbLine
 10
351.0
 20
-260.597667203543
 30
0.0
 11
345.0
 21
-260.597667203543
 31
0.0
  0
LINE
  5
15854
330
13AE0
100
AcDbEntity
  8
30
  6
Continuous
 62
     0
370
    -2
100
AcDbLine
 10
343.0
 20
-260.597667203543
 30
0.0
 11
324.3999999999997
 21
-260.597667203543
 31
0.0
  0
INSERT
  5
15855
330
13AE0
100
AcDbEntity
  8
30
  6
Continuous
 62
     0
370
    -2
100
AcDbBlockReference
  2
_OPEN
 10
353.0
 20
-260.597667203543
 30
0.0
 41
2.0
 42
2.0
 43
2.0
  0
INSERT
  5
15856
330
13AE0
100
AcDbEntity
  8
30
  6
Continuous
 62
     0
370
    -2
100
AcDbBlockReference
  2
_OPEN
 10
343.0
 20
-260.597667203543
 30
0.0
 41
2.0
 42
2.0
 43
2.0
 50
180.0
  0
MTEXT
  5
15857
330
13AE0
100
AcDbEntity
  8
30
  6
Continuous
 62
     0
100
AcDbMText
 10
332.6999999999998
 20
-254.5976672035429
 30
0.0
 40
6.0
 41
0.0
 71
     5
 72
     1
  1
\A1; 10 
 73
     1
 44
1.0
  0
POINT
  5
15858
330
13AE0
100
AcDbEntity
  8
DEFPOINTS
  6
Continuous
 62
     0
100
AcDbPoint
 10
343.0
 20
4.500000000000452
 30
0.0
  0
POINT
  5
15859
330
13AE0
100
AcDbEntity
  8
DEFPOINTS
  6
Continuous
 62
     0
100
AcDbPoint
 10
353.0
 20
-52.50000000000046
 30
0.0
  0
POINT
  5
1585A
330
13AE0
100
AcDbEntity
  8
DEFPOINTS
  6
Continuous
 62
     0
100
AcDbPoint
 10
353.0
 20
-260.597667203543
 30
0.0
  0
ENDBLK
  5
13AEB
330
13AE0
100
AcDbEntity
  8
0
100
AcDbBlockEnd
  0
BLOCK
  5
13AF6
330
13AEC
100
AcDbEntity
  8
0
100
AcDbBlockBegin
  2
*D19
 70
     1
 10
0.0
 20
0.0
 30
0.0
  3
*D19
  1

  0
LINE
  5
15877
330
13AEC
100
AcDbEntity
  8
30
  6
Continuous
 62
     0
370
    -2
100
AcDbLine
 10
309.0
 20
-10.79999999999972
 30
0.0
 11
309.0
 21
-290.1903068709502
 31
0.0
  0
LINE
  5
15878
330
13AEC
100
AcDbEntity
  8
30
  6
Continuous
 62
     0
370
    -2
100
AcDbLine
 10
500.0
 20
-172.9999999999999
 30
0.0
 11
500.0
 21
-290.1903068709502
 31
0.0
  0
LINE
  5
15879
330
13AEC
100
AcDbEntity
  8
30
  6
Continuous
 62
     0
370
    -2
100
AcDbLine
 10
311.0
 20
-289.6903068709502
 30
0.0
 11
498.0
 21
-289.6903068709502
 31
0.0
  0
INSERT
  5
1587A
330
13AEC
100
AcDbEntity
  8
30
  6
Continuous
 62
     0
370
    -2
100
AcDbBlockReference
  2
_OPEN
 10
309.0
 20
-289.6903068709502
 30
0.0
 41
2.0
 42
2.0
 43
2.0
 50
180.0
  0
INSERT
  5
1587B
330
13AEC
100
AcDbEntity
  8
30
  6
Continuous
 62
     0
370
    -2
100
AcDbBlockReference
  2
_OPEN
 10
500.0
 20
-289.6903068709502
 30
0.0
 41
2.0
 42
2.0
 43
2.0
  0
MTEXT
  5
1587C
330
13AEC
100
AcDbEntity
  8
30
  6
Continuous
 62
     0
100
AcDbMText
 10
404.4999999999998
 20
-283.6903068709503
 30
0.0
 40
6.0
 41
0.0
 71
     5
 72
     1
  1
\A1; 191 
 73
     1
 44
1.0
  0
POINT
  5
1587D
330
13AEC
100
AcDbEntity
  8
DEFPOINTS
  6
Continuous
 62
     0
100
AcDbPoint
 10
309.0
 20
-7.799999999999727
 30
0.0
  0
POINT
  5
1587E
330
13AEC
100
AcDbEntity
  8
DEFPOINTS
  6
Continuous
 62
     0
100
AcDbPoint
 10
500.0
 20
-169.9999999999999
 30
0.0
  0
POINT
  5
1587F
330
13AEC
100
AcDbEntity
  8
DEFPOINTS
  6
Continuous
 62
     0
100
AcDbPoint
 10
500.0
 20
-289.6903068709502
 30
0.0
  0
ENDBLK
  5
13AF7
330
13AEC
100
AcDbEntity
  8
0
100
AcDbBlockEnd
  0
BLOCK
  5
13B02
330
13AF8
100
AcDbEntity
  8
0
100
AcDbBlockBegin
  2
*D20
 70
     1
 10
0.0
 20
0.0
 30
0.0
  3
*D20
  1

  0
LINE
  5
1583F
330
13AF8
100
AcDbEntity
  8
30
  6
Continuous
 62
     0
370
    -2
100
AcDbLine
 10
353.0
 20
-55.50000000000046
 30
0.0
 11
353.0
 21
-261.097667203543
 31
0.0
  0
LINE
  5
15840
330
13AF8
100
AcDbEntity
  8
30
  6
Continuous
 62
     0
370
    -2
100
AcDbLine
 10
500.0
 20
-172.9999999999999
 30
0.0
 11
500.0
 21
-261.097667203543
 31
0.0
  0
LINE
  5
15841
330
13AF8
100
AcDbEntity
  8
30
  6
Continuous
 62
     0
370
    -2
100
AcDbLine
 10
355.0
 20
-260.597667203543
 30
0.0
 11
498.0
 21
-260.597667203543
 31
0.0
  0
INSERT
  5
15842
330
13AF8
100
AcDbEntity
  8
30
  6
Continuous
 62
     0
370
    -2
100
AcDbBlockReference
  2
_OPEN
 10
353.0
 20
-260.597667203543
 30
0.0
 41
2.0
 42
2.0
 43
2.0
 50
180.0
  0
INSERT
  5
15843
330
13AF8
100
AcDbEntity
  8
30
  6
Continuous
 62
     0
370
    -2
100
AcDbBlockReference
  2
_OPEN
 10
500.0
 20
-260.597667203543
 30
0.0
 41
2.0
 42
2.0
 43
2.0
  0
MTEXT
  5
15844
330
13AF8
100
AcDbEntity
  8
30
  6
Continuous
 62
     0
100
AcDbMText
 10
426.4999999999998
 20
-254.5976672035429
 30
0.0
 40
6.0
 41
0.0
 71
     5
 72
     1
  1
\A1; 147 
 73
     1
 44
1.0
  0
POINT
  5
15845
330
13AF8
100
AcDbEntity
  8
DEFPOINTS
  6
Continuous
 62
     0
100
AcDbPoint
 10
353.0
 20
-52.50000000000046
 30
0.0
  0
POINT
  5
15846
330
13AF8
100
AcDbEntity
  8
DEFPOINTS
  6
Continuous
 62
     0
100
AcDbPoint
 10
500.0
 20
-169.9999999999999
 30
0.0
  0
POINT
  5
15847
330
13AF8
100
AcDbEntity
  8
DEFPOINTS
  6
Continuous
 62
     0
100
AcDbPoint
 10
500.0
 20
-260.597667203543
 30
0.0
  0
ENDBLK
  5
13B03
330
13AF8
100
AcDbEntity
  8
0
100
AcDbBlockEnd
  0
BLOCK
  5
13B0E
330
13B04
100
AcDbEntity
  8
0
100
AcDbBlockBegin
  2
*D21
 70
     1
 10
0.0
 20
0.0
 30
0.0
  3
*D21
  1

  0
LINE
  5
157F5
330
13B04
100
AcDbEntity
  8
30
  6
Continuous
 62
     0
370
    -2
100
AcDbLine
 10
360.0
 20
-148.0000000000003
 30
0.0
 11
360.0
 21
-231.2009006393349
 31
0.0
  0
LINE
  5
157F6
330
13B04
100
AcDbEntity
  8
30
  6
Continuous
 62
     0
370
    -2
100
AcDbLine
 10
500.0
 20
-172.9999999999999
 30
0.0
 11
500.0
 21
-231.2009006393349
 31
0.0
  0
LINE
  5
157F7
330
13B04
100
AcDbEntity
  8
30
  6
Continuous
 62
     0
370
    -2
100
AcDbLine
 10
362.0
 20
-230.7009006393349
 30
0.0
 11
498.0
 21
-230.7009006393349
 31
0.0
  0
INSERT
  5
157F8
330
13B04
100
AcDbEntity
  8
30
  6
Continuous
 62
     0
370
    -2
100
AcDbBlockReference
  2
_OPEN
 10
360.0
 20
-230.7009006393349
 30
0.0
 41
2.0
 42
2.0
 43
2.0
 50
180.0
  0
INSERT
  5
157F9
330
13B04
100
AcDbEntity
  8
30
  6
Continuous
 62
     0
370
    -2
100
AcDbBlockReference
  2
_OPEN
 10
500.0
 20
-230.7009006393349
 30
0.0
 41
2.0
 42
2.0
 43
2.0
  0
MTEXT
  5
157FA
330
13B04
100
AcDbEntity
  8
30
  6
Continuous
 62
     0
100
AcDbMText
 10
430.0
 20
-224.7009006393349
 30
0.0
 40
6.0
 41
0.0
 71
     5
 72
     1
  1
\A1; 140 
 73
     1
 44
1.0
  0
POINT
  5
157FB
330
13B04
100
AcDbEntity
  8
DEFPOINTS
  6
Continuous
 62
     0
100
AcDbPoint
 10
360.0
 20
-145.0000000000003
 30
0.0
  0
POINT
  5
157FC
330
13B04
100
AcDbEntity
  8
DEFPOINTS
  6
Continuous
 62
     0
100
AcDbPoint
 10
500.0
 20
-169.9999999999999
 30
0.0
  0
POINT
  5
157FD
330
13B04
100
AcDbEntity
  8
DEFPOINTS
  6
Continuous
 62
     0
100
AcDbPoint
 10
500.0
 20
-230.7009006393349
 30
0.0
  0
ENDBLK
  5
13B0F
330
13B04
100
AcDbEntity
  8
0
100
AcDbBlockEnd
  0
BLOCK
  5
14D66
330
14D5C
100
AcDbEntity
  8
0
100
AcDbBlockBegin
  2
*D22
 70
     1
 10
0.0
 20
0.0
 30
0.0
  3
*D22
  1

  0
LINE
  5
157D1
330
14D5C
100
AcDbEntity
  8
30
  6
Continuous
 62
     0
370
    -2
100
AcDbLine
 10
-69.9999999999999
 20
599.0
 30
0.0
 11
-69.9999999999999
 21
663.3286597243268
 31
0.0
  0
LINE
  5
157D2
330
14D5C
100
AcDbEntity
  8
30
  6
Continuous
 62
     0
370
    -2
100
AcDbLine
 10
0.0000000000002276
 20
639.0
 30
0.0
 11
0.000000000000229
 21
663.3286597243268
 31
0.0
  0
LINE
  5
157D3
330
14D5C
100
AcDbEntity
  8
30
  6
Continuous
 62
     0
370
    -2
100
AcDbLine
 10
-67.9999999999999
 20
662.8286597243268
 30
0.0
 11
-1.999999999999771
 21
662.8286597243268
 31
0.0
  0
INSERT
  5
157D4
330
14D5C
100
AcDbEntity
  8
30
  6
Continuous
 62
     0
370
    -2
100
AcDbBlockReference
  2
_OPEN
 10
-69.9999999999999
 20
662.8286597243268
 30
0.0
 41
2.0
 42
2.0
 43
2.0
 50
180.0
  0
INSERT
  5
157D5
330
14D5C
100
AcDbEntity
  8
30
  6
Continuous
 62
     0
370
    -2
100
AcDbBlockReference
  2
_OPEN
 10
0.000000000000229
 20
662.8286597243268
 30
0.0
 41
2.0
 42
2.0
 43
2.0
  0
MTEXT
  5
157D6
330
14D5C
100
AcDbEntity
  8
30
  6
Continuous
 62
     0
100
AcDbMText
 10
-34.99999999999983
 20
668.8286597243268
 30
0.0
 40
6.0
 41
0.0
 71
     5
 72
     1
  1
\A1; 70 
 73
     1
 44
1.0
  0
POINT
  5
157D7
330
14D5C
100
AcDbEntity
  8
DEFPOINTS
  6
Continuous
 62
     0
100
AcDbPoint
 10
-69.9999999999999
 20
596.0
 30
0.0
  0
POINT
  5
157D8
330
14D5C
100
AcDbEntity
  8
DEFPOINTS
  6
Continuous
 62
     0
100
AcDbPoint
 10
0.0000000000002274
 20
636.0
 30
0.0
  0
POINT
  5
157D9
330
14D5C
100
AcDbEntity
  8
DEFPOINTS
  6
Continuous
 62
     0
100
AcDbPoint
 10
0.000000000000229
 20
662.8286597243268
 30
0.0
  0
ENDBLK
  5
14D67
330
14D5C
100
AcDbEntity
  8
0
100
AcDbBlockEnd
  0
BLOCK
  5
14D99
330
14D8F
100
AcDbEntity
  8
0
100
AcDbBlockBegin
  2
*D23
 70
     1
 10
0.0
 20
0.0
 30
0.0
  3
*D23
  1

  0
LINE
  5
157C8
330
14D8F
100
AcDbEntity
  8
30
  6
Continuous
 62
     0
370
    -2
100
AcDbLine
 10
0.0000000000002276
 20
639.0
 30
0.0
 11
0.000000000000229
 21
663.3286597243268
 31
0.0
  0
LINE
  5
157C9
330
14D8F
100
AcDbEntity
  8
30
  6
Continuous
 62
     0
370
    -2
100
AcDbLine
 10
70.0000000000001
 20
599.0
 30
0.0
 11
70.0000000000001
 21
663.3286597243268
 31
0.0
  0
LINE
  5
157CA
330
14D8F
100
AcDbEntity
  8
30
  6
Continuous
 62
     0
370
    -2
100
AcDbLine
 10
2.000000000000227
 20
662.8286597243268
 30
0.0
 11
68.0000000000001
 21
662.8286597243268
 31
0.0
  0
INSERT
  5
157CB
330
14D8F
100
AcDbEntity
  8
30
  6
Continuous
 62
     0
370
    -2
100
AcDbBlockReference
  2
_OPEN
 10
0.000000000000229
 20
662.8286597243268
 30
0.0
 41
2.0
 42
2.0
 43
2.0
 50
180.0
  0
INSERT
  5
157CC
330
14D8F
100
AcDbEntity
  8
30
  6
Continuous
 62
     0
370
    -2
100
AcDbBlockReference
  2
_OPEN
 10
70.0000000000001
 20
662.8286597243268
 30
0.0
 41
2.0
 42
2.0
 43
2.0
  0
MTEXT
  5
157CD
330
14D8F
100
AcDbEntity
  8
30
  6
Continuous
 62
     0
100
AcDbMText
 10
35.00000000000017
 20
668.8286597243268
 30
0.0
 40
6.0
 41
0.0
 71
     5
 72
     1
  1
\A1; 70 
 73
     1
 44
1.0
  0
POINT
  5
157CE
330
14D8F
100
AcDbEntity
  8
DEFPOINTS
  6
Continuous
 62
     0
100
AcDbPoint
 10
0.0000000000002274
 20
636.0
 30
0.0
  0
POINT
  5
157CF
330
14D8F
100
AcDbEntity
  8
DEFPOINTS
  6
Continuous
 62
     0
100
AcDbPoint
 10
70.0000000000001
 20
596.0
 30
0.0
  0
POINT
  5
157D0
330
14D8F
100
AcDbEntity
  8
DEFPOINTS
  6
Continuous
 62
     0
100
AcDbPoint
 10
70.0000000000001
 20
662.8286597243268
 30
0.0
  0
ENDBLK
  5
14D9A
330
14D8F
100
AcDbEntity
  8
0
100
AcDbBlockEnd
  0
BLOCK
  5
14DA5
330
14D9B
100
AcDbEntity
  8
0
100
AcDbBlockBegin
  2
*D24
 70
     1
 10
0.0
 20
0.0
 30
0.0
  3
*D24
  1

  0
LINE
  5
157B5
330
14D9B
100
AcDbEntity
  8
30
  6
Continuous
 62
     0
370
    -2
100
AcDbLine
 10
-7.499999999999772
 20
629.0
 30
0.0
 11
-7.499999999999769
 21
643.3286597243268
 31
0.0
  0
LINE
  5
157B6
330
14D9B
100
AcDbEntity
  8
30
  6
Continuous
 62
     0
370
    -2
100
AcDbLine
 10
7.500000000000227
 20
629.0
 30
0.0
 11
7.500000000000227
 21
643.3286597243268
 31
0.0
  0
LINE
  5
157B7
330
14D9B
100
AcDbEntity
  8
30
  6
Continuous
 62
     0
370
    -2
100
AcDbLine
 10
-5.499999999999769
 20
642.8286597243268
 30
0.0
 11
5.500000000000229
 21
642.8286597243268
 31
0.0
  0
LINE
  5
157B8
330
14D9B
100
AcDbEntity
  8
30
  6
Continuous
 62
     0
370
    -2
100
AcDbLine
 10
7.500000000000227
 20
642.8286597243268
 30
0.0
 11
27.10000000000023
 21
642.8286597243268
 31
0.0
  0
INSERT
  5
157B9
330
14D9B
100
AcDbEntity
  8
30
  6
Continuous
 62
     0
370
    -2
100
AcDbBlockReference
  2
_OPEN
 10
-7.499999999999769
 20
642.8286597243268
 30
0.0
 41
2.0
 42
2.0
 43
2.0
 50
180.0
  0
INSERT
  5
157BA
330
14D9B
100
AcDbEntity
  8
30
  6
Continuous
 62
     0
370
    -2
100
AcDbBlockReference
  2
_OPEN
 10
7.500000000000227
 20
642.8286597243268
 30
0.0
 41
2.0
 42
2.0
 43
2.0
  0
MTEXT
  5
157BB
330
14D9B
100
AcDbEntity
  8
30
  6
Continuous
 62
     0
100
AcDbMText
 10
18.30000000000022
 20
648.8286597243268
 30
0.0
 40
6.0
 41
0.0
 71
     5
 72
     1
  1
\A1; 15 
 73
     1
 44
1.0
  0
POINT
  5
157BC
330
14D9B
100
AcDbEntity
  8
DEFPOINTS
  6
Continuous
 62
     0
100
AcDbPoint
 10
-7.499999999999772
 20
626.0
 30
0.0
  0
POINT
  5
157BD
330
14D9B
100
AcDbEntity
  8
DEFPOINTS
  6
Continuous
 62
     0
100
AcDbPoint
 10
7.500000000000227
 20
626.0
 30
0.0
  0
POINT
  5
157BE
330
14D9B
100
AcDbEntity
  8
DEFPOINTS
  6
Continuous
 62
     0
100
AcDbPoint
 10
7.500000000000227
 20
642.8286597243268
 30
0.0
  0
ENDBLK
  5
14DA6
330
14D9B
100
AcDbEntity
  8
0
100
AcDbBlockEnd
  0
BLOCK
  5
14DBE
330
14DB4
100
AcDbEntity
  8
0
100
AcDbBlockBegin
  2
*D25
 70
     1
 10
0.0
 20
0.0
 30
0.0
  3
*D25
  1

  0
LINE
  5
157DA
330
14DB4
100
AcDbEntity
  8
30
  6
Continuous
 62
     0
370
    -2
100
AcDbLine
 10
70.0000000000001
 20
599.0
 30
0.0
 11
70.0000000000001
 21
663.3286597243268
 31
0.0
  0
LINE
  5
157DB
330
14DB4
100
AcDbEntity
  8
30
  6
Continuous
 62
     0
370
    -2
100
AcDbLine
 10
140.0
 20
639.0
 30
0.0
 11
140.0
 21
663.3286597243268
 31
0.0
  0
LINE
  5
157DC
330
14DB4
100
AcDbEntity
  8
30
  6
Continuous
 62
     0
370
    -2
100
AcDbLine
 10
72.00000000000009
 20
662.8286597243268
 30
0.0
 11
138.0
 21
662.8286597243268
 31
0.0
  0
INSERT
  5
157DD
330
14DB4
100
AcDbEntity
  8
30
  6
Continuous
 62
     0
370
    -2
100
AcDbBlockReference
  2
_OPEN
 10
70.0000000000001
 20
662.8286597243268
 30
0.0
 41
2.0
 42
2.0
 43
2.0
 50
180.0
  0
INSERT
  5
157DE
330
14DB4
100
AcDbEntity
  8
30
  6
Continuous
 62
     0
370
    -2
100
AcDbBlockReference
  2
_OPEN
 10
140.0
 20
662.8286597243268
 30
0.0
 41
2.0
 42
2.0
 43
2.0
  0
MTEXT
  5
157DF
330
14DB4
100
AcDbEntity
  8
30
  6
Continuous
 62
     0
100
AcDbMText
 10
105.0
 20
668.8286597243268
 30
0.0
 40
6.0
 41
0.0
 71
     5
 72
     1
  1
\A1; 70 
 73
     1
 44
1.0
  0
POINT
  5
157E0
330
14DB4
100
AcDbEntity
  8
DEFPOINTS
  6
Continuous
 62
     0
100
AcDbPoint
 10
70.0000000000001
 20
596.0
 30
0.0
  0
POINT
  5
157E1
330
14DB4
100
AcDbEntity
  8
DEFPOINTS
  6
Continuous
 62
     0
100
AcDbPoint
 10
140.0
 20
636.0
 30
0.0
  0
POINT
  5
157E2
330
14DB4
100
AcDbEntity
  8
DEFPOINTS
  6
Continuous
 62
     0
100
AcDbPoint
 10
140.0
 20
662.8286597243268
 30
0.0
  0
ENDBLK
  5
14DBF
330
14DB4
100
AcDbEntity
  8
0
100
AcDbBlockEnd
  0
BLOCK
  5
151E9
330
151DF
100
AcDbEntity
  8
0
100
AcDbBlockBegin
  2
*D26
 70
     1
 10
0.0
 20
0.0
 30
0.0
  3
*D26
  1

  0
LINE
  5
15645
330
151DF
100
AcDbEntity
  8
30
  6
Continuous
 62
     0
370
    -2
100
AcDbLine
 10
-104.9999999999996
 20
-178.0000000000002
 30
0.0
 11
-104.9999999999996
 21
-210.4999999999999
 31
0.0
  0
LINE
  5
15646
330
151DF
100
AcDbEntity
  8
30
  6
Continuous
 62
     0
370
    -2
100
AcDbLine
 10
-0.0000000000000002
 20
-193.0
 30
0.0
 11
-0.0000000000000013
 21
-210.4999999999999
 31
0.0
  0
LINE
  5
15647
330
151DF
100
AcDbEntity
  8
30
  6
Continuous
 62
     0
370
    -2
100
AcDbLine
 10
-102.9999999999997
 20
-210.0
 30
0.0
 11
-2.0
 21
-210.0
 31
0.0
  0
INSERT
  5
15648
330
151DF
100
AcDbEntity
  8
30
  6
Continuous
 62
     0
370
    -2
100
AcDbBlockReference
  2
_OPEN
 10
-104.9999999999996
 20
-210.0
 30
0.0
 41
2.0
 42
2.0
 43
2.0
 50
180.0
  0
INSERT
  5
15649
330
151DF
100
AcDbEntity
  8
30
  6
Continuous
 62
     0
370
    -2
100
AcDbBlockReference
  2
_OPEN
 10
-0.0000000000000012
 20
-210.0
 30
0.0
 41
2.0
 42
2.0
 43
2.0
  0
MTEXT
  5
1564A
330
151DF
100
AcDbEntity
  8
30
  6
Continuous
 62
     0
100
AcDbMText
 10
-52.49999999999989
 20
-204.0
 30
0.0
 40
6.0
 41
0.0
 71
     5
 72
     1
  1
\A1; 105 
 73
     1
 44
1.0
  0
POINT
  5
1564B
330
151DF
100
AcDbEntity
  8
DEFPOINTS
  6
Continuous
 62
     0
100
AcDbPoint
 10
-104.9999999999996
 20
-175.0
 30
0.0
  0
POINT
  5
1564C
330
151DF
100
AcDbEntity
  8
DEFPOINTS
  6
Continuous
 62
     0
100
AcDbPoint
 10
0.0
 20
-190.0000000000002
 30
0.0
  0
POINT
  5
1564D
330
151DF
100
AcDbEntity
  8
DEFPOINTS
  6
Continuous
 62
     0
100
AcDbPoint
 10
-0.0000000000000012
 20
-210.0
 30
0.0
  0
ENDBLK
  5
151EA
330
151DF
100
AcDbEntity
  8
0
100
AcDbBlockEnd
  0
BLOCK
  5
151F5
330
151EB
100
AcDbEntity
  8
0
100
AcDbBlockBegin
  2
*D27
 70
     1
 10
0.0
 20
0.0
 30
0.0
  3
*D27
  1

  0
LINE
  5
1563C
330
151EB
100
AcDbEntity
  8
30
  6
Continuous
 62
     0
370
    -2
100
AcDbLine
 10
-104.9999999999996
 20
-178.0000000000002
 30
0.0
 11
-104.9999999999996
 21
-250.4999999999999
 31
0.0
  0
LINE
  5
1563D
330
151EB
100
AcDbEntity
  8
30
  6
Continuous
 62
     0
370
    -2
100
AcDbLine
 10
175.0
 20
-178.0000000000002
 30
0.0
 11
175.0
 21
-250.4999999999999
 31
0.0
  0
LINE
  5
1563E
330
151EB
100
AcDbEntity
  8
30
  6
Continuous
 62
     0
370
    -2
100
AcDbLine
 10
-102.9999999999997
 20
-250.0
 30
0.0
 11
173.0000000000002
 21
-250.0
 31
0.0
  0
INSERT
  5
1563F
330
151EB
100
AcDbEntity
  8
30
  6
Continuous
 62
     0
370
    -2
100
AcDbBlockReference
  2
_OPEN
 10
-104.9999999999996
 20
-250.0
 30
0.0
 41
2.0
 42
2.0
 43
2.0
 50
180.0
  0
INSERT
  5
15640
330
151EB
100
AcDbEntity
  8
30
  6
Continuous
 62
     0
370
    -2
100
AcDbBlockReference
  2
_OPEN
 10
175.0
 20
-250.0
 30
0.0
 41
2.0
 42
2.0
 43
2.0
  0
MTEXT
  5
15641
330
151EB
100
AcDbEntity
  8
30
  6
Continuous
 62
     0
100
AcDbMText
 10
35.00000000000023
 20
-244.0
 30
0.0
 40
6.0
 41
0.0
 71
     5
 72
     1
  1
\A1; 280 
 73
     1
 44
1.0
  0
POINT
  5
15642
330
151EB
100
AcDbEntity
  8
DEFPOINTS
  6
Continuous
 62
     0
100
AcDbPoint
 10
-104.9999999999996
 20
-175.0
 30
0.0
  0
POINT
  5
15643
330
151EB
100
AcDbEntity
  8
DEFPOINTS
  6
Continuous
 62
     0
100
AcDbPoint
 10
175.0
 20
-175.0
 30
0.0
  0
POINT
  5
15644
330
151EB
100
AcDbEntity
  8
DEFPOINTS
  6
Continuous
 62
     0
100
AcDbPoint
 10
175.0
 20
-250.0
 30
0.0
  0
ENDBLK
  5
151F6
330
151EB
100
AcDbEntity
  8
0
100
AcDbBlockEnd
  0
BLOCK
  5
15201
330
151F7
100
AcDbEntity
  8
0
100
AcDbBlockBegin
  2
*D28
 70
     1
 10
0.0
 20
0.0
 30
0.0
  3
*D28
  1

  0
LINE
  5
15633
330
151F7
100
AcDbEntity
  8
30
  6
Continuous
 62
     0
370
    -2
100
AcDbLine
 10
-0.0000000000000002
 20
-193.0
 30
0.0
 11
-0.0000000000000013
 21
-210.4999999999999
 31
0.0
  0
LINE
  5
15634
330
151F7
100
AcDbEntity
  8
30
  6
Continuous
 62
     0
370
    -2
100
AcDbLine
 10
175.0
 20
-178.0000000000002
 30
0.0
 11
175.0
 21
-210.4999999999999
 31
0.0
  0
LINE
  5
15635
330
151F7
100
AcDbEntity
  8
30
  6
Continuous
 62
     0
370
    -2
100
AcDbLine
 10
1.999999999999998
 20
-210.0
 30
0.0
 11
173.0000000000002
 21
-210.0
 31
0.0
  0
INSERT
  5
15636
330
151F7
100
AcDbEntity
  8
30
  6
Continuous
 62
     0
370
    -2
100
AcDbBlockReference
  2
_OPEN
 10
-0.0000000000000012
 20
-210.0
 30
0.0
 41
2.0
 42
2.0
 43
2.0
 50
180.0
  0
INSERT
  5
15637
330
151F7
100
AcDbEntity
  8
30
  6
Continuous
 62
     0
370
    -2
100
AcDbBlockReference
  2
_OPEN
 10
175.0
 20
-210.0
 30
0.0
 41
2.0
 42
2.0
 43
2.0
  0
MTEXT
  5
15638
330
151F7
100
AcDbEntity
  8
30
  6
Continuous
 62
     0
100
AcDbMText
 10
87.50000000000012
 20
-204.0
 30
0.0
 40
6.0
 41
0.0
 71
     5
 72
     1
  1
\A1; 175 
 73
     1
 44
1.0
  0
POINT
  5
15639
330
151F7
100
AcDbEntity
  8
DEFPOINTS
  6
Continuous
 62
     0
100
AcDbPoint
 10
0.0
 20
-190.0000000000002
 30
0.0
  0
POINT
  5
1563A
330
151F7
100
AcDbEntity
  8
DEFPOINTS
  6
Continuous
 62
     0
100
AcDbPoint
 10
175.0
 20
-175.0
 30
0.0
  0
POINT
  5
1563B
330
151F7
100
AcDbEntity
  8
DEFPOINTS
  6
Continuous
 62
     0
100
AcDbPoint
 10
175.0
 20
-210.0
 30
0.0
  0
ENDBLK
  5
15202
330
151F7
100
AcDbEntity
  8
0
100
AcDbBlockEnd
  0
BLOCK
  5
152F2
330
152E8
100
AcDbEntity
  8
0
100
AcDbBlockBegin
  2
*D29
 70
     1
 10
0.0
 20
0.0
 30
0.0
  3
*D29
  1

  0
LINE
  5
15621
330
152E8
100
AcDbEntity
  8
30
  6
Continuous
 62
     0
370
    -2
100
AcDbLine
 10
-39.00000000000011
 20
-50.5
 30
0.0
 11
-39.00000000000011
 21
-100.5
 31
0.0
  0
LINE
  5
15622
330
152E8
100
AcDbEntity
  8
30
  6
Continuous
 62
     0
370
    -2
100
AcDbLine
 10
38.99999999999942
 20
-50.5
 30
0.0
 11
38.99999999999942
 21
-100.5
 31
0.0
  0
LINE
  5
15623
330
152E8
100
AcDbEntity
  8
30
  6
Continuous
 62
     0
370
    -2
100
AcDbLine
 10
-37.00000000000009
 20
-100.0
 30
0.0
 11
36.99999999999942
 21
-100.0
 31
0.0
  0
INSERT
  5
15624
330
152E8
100
AcDbEntity
  8
30
  6
Continuous
 62
     0
370
    -2
100
AcDbBlockReference
  2
_OPEN
 10
-39.00000000000011
 20
-100.0
 30
0.0
 41
2.0
 42
2.0
 43
2.0
 50
180.0
  0
INSERT
  5
15625
330
152E8
100
AcDbEntity
  8
30
  6
Continuous
 62
     0
370
    -2
100
AcDbBlockReference
  2
_OPEN
 10
38.99999999999942
 20
-100.0
 30
0.0
 41
2.0
 42
2.0
 43
2.0
  0
MTEXT
  5
15626
330
152E8
100
AcDbEntity
  8
30
  6
Continuous
 62
     0
100
AcDbMText
 10
-0.0000000000003407
 20
-94.0
 30
0.0
 40
6.0
 41
0.0
 71
     5
 72
     1
  1
\A1; 78 
 73
     1
 44
1.0
  0
POINT
  5
15627
330
152E8
100
AcDbEntity
  8
DEFPOINTS
  6
Continuous
 62
     0
100
AcDbPoint
 10
-39.00000000000011
 20
-47.5
 30
0.0
  0
POINT
  5
15628
330
152E8
100
AcDbEntity
  8
DEFPOINTS
  6
Continuous
 62
     0
100
AcDbPoint
 10
38.99999999999942
 20
-47.5
 30
0.0
  0
POINT
  5
15629
330
152E8
100
AcDbEntity
  8
DEFPOINTS
  6
Continuous
 62
     0
100
AcDbPoint
 10
38.99999999999942
 20
-100.0
 30
0.0
  0
ENDBLK
  5
152F3
330
152E8
100
AcDbEntity
  8
0
100
AcDbBlockEnd
  0
BLOCK
  5
152FE
330
152F4
100
AcDbEntity
  8
0
100
AcDbBlockBegin
  2
*D30
 70
     1
 10
0.0
 20
0.0
 30
0.0
  3
*D30
  1

  0
LINE
  5
1562A
330
152F4
100
AcDbEntity
  8
30
  6
Continuous
 62
     0
370
    -2
100
AcDbLine
 10
-95.00000000000023
 20
54.50000000000091
 30
0.0
 11
-95.00000000000023
 21
90.5
 31
0.0
  0
LINE
  5
1562B
330
152F4
100
AcDbEntity
  8
30
  6
Continuous
 62
     0
370
    -2
100
AcDbLine
 10
94.99999999999987
 20
54.50000000000091
 30
0.0
 11
94.99999999999987
 21
90.5
 31
0.0
  0
LINE
  5
1562C
330
152F4
100
AcDbEntity
  8
30
  6
Continuous
 62
     0
370
    -2
100
AcDbLine
 10
-93.00000000000023
 20
90.0
 30
0.0
 11
92.99999999999988
 21
90.0
 31
0.0
  0
INSERT
  5
1562D
330
152F4
100
AcDbEntity
  8
30
  6
Continuous
 62
     0
370
    -2
100
AcDbBlockReference
  2
_OPEN
 10
-95.00000000000023
 20
90.0
 30
0.0
 41
2.0
 42
2.0
 43
2.0
 50
180.0
  0
INSERT
  5
1562E
330
152F4
100
AcDbEntity
  8
30
  6
Continuous
 62
     0
370
    -2
100
AcDbBlockReference
  2
_OPEN
 10
94.99999999999987
 20
90.0
 30
0.0
 41
2.0
 42
2.0
 43
2.0
  0
MTEXT
  5
1562F
330
152F4
100
AcDbEntity
  8
30
  6
Continuous
 62
     0
100
AcDbMText
 10
-0.0000000000001702
 20
96.0
 30
0.0
 40
6.0
 41
0.0
 71
     5
 72
     1
  1
\A1; 190 
 73
     1
 44
1.0
  0
POINT
  5
15630
330
152F4
100
AcDbEntity
  8
DEFPOINTS
  6
Continuous
 62
     0
100
AcDbPoint
 10
-95.00000000000023
 20
51.5000000000009
 30
0.0
  0
POINT
  5
15631
330
152F4
100
AcDbEntity
  8
DEFPOINTS
  6
Continuous
 62
     0
100
AcDbPoint
 10
94.99999999999987
 20
51.5000000000009
 30
0.0
  0
POINT
  5
15632
330
152F4
100
AcDbEntity
  8
DEFPOINTS
  6
Continuous
 62
     0
100
AcDbPoint
 10
94.99999999999987
 20
90.0
 30
0.0
  0
ENDBLK
  5
152FF
330
152F4
100
AcDbEntity
  8
0
100
AcDbBlockEnd
  0
BLOCK
  5
15527
330
1551D
100
AcDbEntity
  8
0
100
AcDbBlockBegin
  2
*D31
 70
     1
 10
0.0
 20
0.0
 30
0.0
  3
*D31
  1

  0
LINE
  5
15618
330
1551D
100
AcDbEntity
  8
30
  6
Continuous
 62
     0
370
    -2
100
AcDbLine
 10
-35.0
 20
-772.0000000000001
 30
0.0
 11
-35.0
 21
-810.4999999999991
 31
0.0
  0
LINE
  5
15619
330
1551D
100
AcDbEntity
  8
30
  6
Continuous
 62
     0
370
    -2
100
AcDbLine
 10
35.0
 20
-772.0000000000001
 30
0.0
 11
35.0
 21
-810.4999999999991
 31
0.0
  0
LINE
  5
1561A
330
1551D
100
AcDbEntity
  8
30
  6
Continuous
 62
     0
370
    -2
100
AcDbLine
 10
-33.0
 20
-809.9999999999992
 30
0.0
 11
33.0
 21
-809.9999999999992
 31
0.0
  0
INSERT
  5
1561B
330
1551D
100
AcDbEntity
  8
30
  6
Continuous
 62
     0
370
    -2
100
AcDbBlockReference
  2
_OPEN
 10
-35.0
 20
-809.9999999999992
 30
0.0
 41
2.0
 42
2.0
 43
2.0
 50
180.0
  0
INSERT
  5
1561C
330
1551D
100
AcDbEntity
  8
30
  6
Continuous
 62
     0
370
    -2
100
AcDbBlockReference
  2
_OPEN
 10
35.0
 20
-809.9999999999992
 30
0.0
 41
2.0
 42
2.0
 43
2.0
  0
MTEXT
  5
1561D
330
1551D
100
AcDbEntity
  8
30
  6
Continuous
 62
     0
100
AcDbMText
 10
0.0000000000000004
 20
-803.9999999999992
 30
0.0
 40
6.0
 41
0.0
 71
     5
 72
     1
  1
\A1; 70 
 73
     1
 44
1.0
  0
POINT
  5
1561E
330
1551D
100
AcDbEntity
  8
DEFPOINTS
  6
Continuous
 62
     0
100
AcDbPoint
 10
-35.0
 20
-769.0000000000001
 30
0.0
  0
POINT
  5
1561F
330
1551D
100
AcDbEntity
  8
DEFPOINTS
  6
Continuous
 62
     0
100
AcDbPoint
 10
35.0
 20
-769.0000000000001
 30
0.0
  0
POINT
  5
15620
330
1551D
100
AcDbEntity
  8
DEFPOINTS
  6
Continuous
 62
     0
100
AcDbPoint
 10
35.0
 20
-809.9999999999992
 30
0.0
  0
ENDBLK
  5
15528
330
1551D
100
AcDbEntity
  8
0
100
AcDbBlockEnd
  0
BLOCK
  5
155E8
330
155DE
100
AcDbEntity
  8
0
100
AcDbBlockBegin
  2
*D32
 70
     1
 10
0.0
 20
0.0
 30
0.0
  3
*D32
  1

  0
LINE
  5
1560F
330
155DE
100
AcDbEntity
  8
30
  6
Continuous
 62
     0
370
    -2
100
AcDbLine
 10
359.5
 20
-654.0
 30
0.0
 11
359.5
 21
-792.595875
 31
0.0
  0
LINE
  5
15610
330
155DE
100
AcDbEntity
  8
30
  6
Continuous
 62
     0
370
    -2
100
AcDbLine
 10
440.4999999999997
 20
-654.0
 30
0.0
 11
440.4999999999997
 21
-792.595875
 31
0.0
  0
LINE
  5
15611
330
155DE
100
AcDbEntity
  8
30
  6
Continuous
 62
     0
370
    -2
100
AcDbLine
 10
361.5
 20
-792.0958749999997
 30
0.0
 11
438.4999999999998
 21
-792.0958749999997
 31
0.0
  0
INSERT
  5
15612
330
155DE
100
AcDbEntity
  8
30
  6
Continuous
 62
     0
370
    -2
100
AcDbBlockReference
  2
_OPEN
 10
359.5
 20
-792.0958749999997
 30
0.0
 41
2.0
 42
2.0
 43
2.0
 50
180.0
  0
INSERT
  5
15613
330
155DE
100
AcDbEntity
  8
30
  6
Continuous
 62
     0
370
    -2
100
AcDbBlockReference
  2
_OPEN
 10
440.4999999999997
 20
-792.0958749999997
 30
0.0
 41
2.0
 42
2.0
 43
2.0
  0
MTEXT
  5
15614
330
155DE
100
AcDbEntity
  8
30
  6
Continuous
 62
     0
100
AcDbMText
 10
399.9999999999998
 20
-786.0958749999999
 30
0.0
 40
6.0
 41
0.0
 71
     5
 72
     1
  1
\A1; 81 
 73
     1
 44
1.0
  0
POINT
  5
15615
330
155DE
100
AcDbEntity
  8
DEFPOINTS
  6
Continuous
 62
     0
100
AcDbPoint
 10
359.5
 20
-651.0
 30
0.0
  0
POINT
  5
15616
330
155DE
100
AcDbEntity
  8
DEFPOINTS
  6
Continuous
 62
     0
100
AcDbPoint
 10
440.4999999999997
 20
-651.0
 30
0.0
  0
POINT
  5
15617
330
155DE
100
AcDbEntity
  8
DEFPOINTS
  6
Continuous
 62
     0
100
AcDbPoint
 10
440.4999999999997
 20
-792.0958749999997
 30
0.0
  0
ENDBLK
  5
155E9
330
155DE
100
AcDbEntity
  8
0
100
AcDbBlockEnd
  0
BLOCK
  5
155F3
330
155EA
100
AcDbEntity
  8
0
100
AcDbBlockBegin
  2
*D33
 70
     1
 10
0.0
 20
0.0
 30
0.0
  3
*D33
  1

  0
LINE
  5
15607
330
155EA
100
AcDbEntity
  8
30
  6
Continuous
 62
     0
370
    -2
100
AcDbLine
 10
361.5899257061641
 20
-549.0835210994341
 30
0.0
 11
360.0868486915061
 21
-540.9634736719374
 31
0.0
  0
LINE
  5
15608
330
155EA
100
AcDbEntity
  8
30
  6
Continuous
 62
     0
370
    -2
100
AcDbLine
 10
360.0868486915061
 20
-540.9634736719374
 30
0.0
 11
373.0868486915062
 21
-540.9634736719374
 31
0.0
  0
INSERT
  5
15609
330
155EA
100
AcDbEntity
  8
30
  6
Continuous
 62
     0
370
    -2
100
AcDbBlockReference
  2
_OPEN
 10
361.9539554236983
 20
-551.0501126596601
 30
0.0
 41
2.0
 42
2.0
 43
2.0
 50
280.4871416769974
  0
MTEXT
  5
1560A
330
155EA
100
AcDbEntity
  8
30
  6
Continuous
 62
     0
100
AcDbMText
 10
368.0868486915063
 20
-534.9634736719374
 30
0.0
 40
6.0
 41
0.0
 71
     5
 72
     1
  1
\A1;R3
 73
     1
 44
1.0
  0
LINE
  5
1560B
330
155EA
100
AcDbEntity
  8
30
  6
Continuous
 62
     0
370
    -2
100
AcDbLine
 10
362.4099999999996
 20
-553.9999999999992
 30
0.0
 11
362.5899999999994
 21
-553.9999999999992
 31
0.0
  0
LINE
  5
1560C
330
155EA
100
AcDbEntity
  8
30
  6
Continuous
 62
     0
370
    -2
100
AcDbLine
 10
362.4999999999996
 20
-554.0899999999991
 30
0.0
 11
362.4999999999996
 21
-553.909999999999
 31
0.0
  0
POINT
  5
1560D
330
155EA
100
AcDbEntity
  8
DEFPOINTS
  6
Continuous
 62
     0
100
AcDbPoint
 10
361.9539554236983
 20
-551.0501126596601
 30
0.0
  0
POINT
  5
1560E
330
155EA
100
AcDbEntity
  8
DEFPOINTS
  6
Continuous
 62
     0
100
AcDbPoint
 10
362.4999999999996
 20
-553.9999999999992
 30
0.0
  0
ENDBLK
  5
155F4
330
155EA
100
AcDbEntity
  8
0
100
AcDbBlockEnd
  0
BLOCK
  5
1573D
330
15734
100
AcDbEntity
  8
0
100
AcDbBlockBegin
  2
*D34
 70
     1
 10
0.0
 20
0.0
 30
0.0
  3
*D34
  1

  0
LINE
  5
1573F
330
15734
100
AcDbEntity
  8
30
  6
Continuous
 62
     0
370
    -2
100
AcDbLine
 10
305.4999257061646
 20
-549.0835210994341
 30
0.0
 11
303.9968486915066
 21
-540.9634736719374
 31
0.0
  0
LINE
  5
15740
330
15734
100
AcDbEntity
  8
30
  6
Continuous
 62
     0
370
    -2
100
AcDbLine
 10
303.9968486915066
 20
-540.9634736719374
 30
0.0
 11
316.9968486915066
 21
-540.9634736719376
 31
0.0
  0
INSERT
  5
15741
330
15734
100
AcDbEntity
  8
30
  6
Continuous
 62
     0
370
    -2
100
AcDbBlockReference
  2
_OPEN
 10
305.8639554236987
 20
-551.0501126596603
 30
0.0
 41
2.0
 42
2.0
 43
2.0
 50
280.4871416769966
  0
MTEXT
  5
15742
330
15734
100
AcDbEntity
  8
30
  6
Continuous
 62
     0
100
AcDbMText
 10
311.9968486915066
 20
-534.9634736719377
 30
0.0
 40
6.0
 41
0.0
 71
     5
 72
     1
  1
\A1;R3
 73
     1
 44
1.0
  0
LINE
  5
15743
330
15734
100
AcDbEntity
  8
30
  6
Continuous
 62
     0
370
    -2
100
AcDbLine
 10
306.32
 20
-553.9999999999992
 30
0.0
 11
306.4999999999999
 21
-553.9999999999992
 31
0.0
  0
LINE
  5
15744
330
15734
100
AcDbEntity
  8
30
  6
Continuous
 62
     0
370
    -2
100
AcDbLine
 10
306.41
 20
-554.0899999999991
 30
0.0
 11
306.4099999999999
 21
-553.9099999999991
 31
0.0
  0
POINT
  5
15745
330
15734
100
AcDbEntity
  8
DEFPOINTS
  6
Continuous
 62
     0
100
AcDbPoint
 10
305.8639554236987
 20
-551.0501126596603
 30
0.0
  0
POINT
  5
15746
330
15734
100
AcDbEntity
  8
DEFPOINTS
  6
Continuous
 62
     0
100
AcDbPoint
 10
306.4099999999999
 20
-553.9999999999992
 30
0.0
  0
ENDBLK
  5
1573E
330
15734
100
AcDbEntity
  8
0
100
AcDbBlockEnd
  0
BLOCK
  5
15798
330
1578E
100
AcDbEntity
  8
0
100
AcDbBlockBegin
  2
*D35
 70
     1
 10
0.0
 20
0.0
 30
0.0
  3
*D35
  1

  0
LINE
  5
1579A
330
1578E
100
AcDbEntity
  8
30
  6
Continuous
 62
     0
370
    -2
100
AcDbLine
 10
-108.0
 20
200.0
 30
0.0
 11
-151.5214941293896
 21
200.0
 31
0.0
  0
LINE
  5
1579B
330
1578E
100
AcDbEntity
  8
30
  6
Continuous
 62
     0
370
    -2
100
AcDbLine
 10
-108.0
 20
-170.0
 30
0.0
 11
-151.5214941293898
 21
-170.0
 31
0.0
  0
LINE
  5
1579C
330
1578E
100
AcDbEntity
  8
30
  6
Continuous
 62
     0
370
    -2
100
AcDbLine
 10
-151.0214941293895
 20
198.0
 30
0.0
 11
-151.0214941293895
 21
-168.0
 31
0.0
  0
INSERT
  5
1579D
330
1578E
100
AcDbEntity
  8
30
  6
Continuous
 62
     0
370
    -2
100
AcDbBlockReference
  2
_OPEN
 10
-151.0214941293895
 20
200.0
 30
0.0
 41
2.0
 42
2.0
 43
2.0
 50
90.0
  0
INSERT
  5
1579E
330
1578E
100
AcDbEntity
  8
30
  6
Continuous
 62
     0
370
    -2
100
AcDbBlockReference
  2
_OPEN
 10
-151.0214941293895
 20
-170.0
 30
0.0
 41
2.0
 42
2.0
 43
2.0
 50
270.0
  0
MTEXT
  5
1579F
330
1578E
100
AcDbEntity
  8
30
  6
Continuous
 62
     0
100
AcDbMText
 10
-157.0214941293895
 20
14.99999999999998
 30
0.0
 40
6.0
 41
0.0
 71
     5
 72
     1
  1
\A1;370
 11
0.0000000000000001
 21
1.0
 31
0.0
 73
     1
 44
1.0
  0
POINT
  5
157A0
330
1578E
100
AcDbEntity
  8
DEFPOINTS
  6
Continuous
 62
     0
100
AcDbPoint
 10
-105.0
 20
200.0
 30
0.0
  0
POINT
  5
157A1
330
1578E
100
AcDbEntity
  8
DEFPOINTS
  6
Continuous
 62
     0
100
AcDbPoint
 10
-105.0
 20
-170.0
 30
0.0
  0
POINT
  5
157A2
330
1578E
100
AcDbEntity
  8
DEFPOINTS
  6
Continuous
 62
     0
100
AcDbPoint
 10
-151.0214941293895
 20
-170.0
 30
0.0
  0
ENDBLK
  5
15799
330
1578E
100
AcDbEntity
  8
0
100
AcDbBlockEnd
  0
ENDSEC
  0
SECTION
  2
ENTITIES
  0
MTEXT
  5
BF3
330
1E
100
AcDbEntity
  8
24
  6
Continuous
100
AcDbMText
 10
-860.8818093901257
 20
177.5
 30
0.0
 40
3.0
 41
0.0
 71
     1
 72
     1
  1
\A1;
 73
     1
 44
1.0
  0
LINE
  5
10E4A
330
1E
100
AcDbEntity
  8
16
100
AcDbLine
 10
510.0
 20
0.0000000000000568
 30
0.0
 11
292.1000000000002
 21
0.0000000000000568
 31
0.0
  0
DIMENSION
  5
10E4B
330
1E
100
AcDbEntity
  8
30
  6
Continuous
100
AcDbDimension
  2
*D1
 10
-128.2969039058321
 20
170.0
 30
0.0
 11
-134.296903905832
 21
84.99999999999998
 31
0.0
 70
    32
  1
 <> 
 71
     0
 72
     0
 41
0.0
 42
170.0
  3
STANDARD1
100
AcDbAlignedDimension
 13
-115.0
 23
0.0
 33
0.0
 14
-105.0
 24
170.0
 34
0.0
 50
90.0
100
AcDbRotatedDimension
  0
DIMENSION
  5
10E4C
330
1E
100
AcDbEntity
  8
30
  6
Continuous
100
AcDbDimension
  2
*D2
 10
-128.2969039058321
 20
-0.0000000000009061
 30
0.0
 11
-134.296903905832
 21
-70.00000000000047
 31
0.0
 70
    32
  1
 <> 
 71
     0
 72
     0
 41
0.0
 42
139.9999999999991
  3
STANDARD1
100
AcDbAlignedDimension
 13
-105.0
 23
-140.0
 33
0.0
 14
-116.1969039058312
 24
-0.0000000000009095
 34
0.0
 50
90.0
100
AcDbRotatedDimension
  0
ARC
  5
10E50
330
1E
100
AcDbEntity
  8
1
  6
Continuous
 62
     4
100
AcDbCircle
 10
406.4999999999995
 20
-2.620154999999556
 30
0.0
 40
177.5
100
AcDbArc
 50
161.7763989999946
 51
180.0
  0
ARC
  5
10E51
330
1E
100
AcDbEntity
  8
1
  6
Continuous
 62
     4
100
AcDbCircle
 10
406.4999999999995
 20
-2.620154999999556
 30
0.0
 40
97.5
100
AcDbArc
 50
162.9956370000022
 51
180.0
  0
ARC
  5
10EA3
330
1E
100
AcDbEntity
  8
10
  6
Continuous
100
AcDbCircle
 10
842.9999999999996
 20
4.500000000000511
 30
0.0
 40
500.0
100
AcDbArc
 50
176.3756929999888
 51
183.6243070000111
  0
LINE
  5
10EA6
330
1E
100
AcDbEntity
  8
10
  6
Continuous
100
AcDbLine
 10
343.9999999999995
 20
-47.49999999999993
 30
0.0
 11
343.9999999999995
 21
-27.10696000000092
 31
0.0
  0
LINE
  5
10EA9
330
1E
100
AcDbEntity
  8
10
  6
Continuous
100
AcDbLine
 10
343.9999999999995
 20
36.10696499999909
 30
0.0
 11
343.9999999999995
 21
47.50000000000006
 31
0.0
  0
LINE
  5
10EAA
330
1E
100
AcDbEntity
  8
10
  6
Continuous
100
AcDbLine
 10
343.9999999999995
 20
47.50000000000006
 30
0.0
 11
360.0
 21
47.50000000000006
 31
0.0
  0
LWPOLYLINE
  5
11F85
330
1E
100
AcDbEntity
  8
10
  6
Continuous
100
AcDbPolyline
 90
        9
 70
     0
 43
0.0
 10
500.0
 20
200.0
 10
367.9999999999993
 20
200.0
 10
367.9999999999993
 20
170.0
 10
360.0
 20
170.0
 10
360.0
 20
-139.9999999999999
 10
367.9999999999993
 20
-139.9999999999999
 10
367.9999999999993
 20
-169.9999999999999
 10
500.0
 20
-169.9999999999999
 10
500.0
 20
200.0
  0
LWPOLYLINE
  5
11F86
330
1E
100
AcDbEntity
  8
10
  6
Continuous
100
AcDbPolyline
 90
       11
 70
     0
 43
0.0
 10
264.0054738200764
 20
44.04586291069775
 42
-0.2280087862796968
 10
270.8556642969126
 20
43.98718605965934
 10
306.0927200000023
 20
23.81821500000007
 10
330.1994992049397
 20
14.07844532122664
 42
0.4142135425216232
 10
335.4066607896561
 20
16.28875436337132
 10
342.2245000502929
 20
33.16349771556572
 42
0.4142135822245514
 10
340.0141908583396
 20
38.37065965320817
 10
315.9074100000007
 20
48.11043000000002
 10
276.5493803315998
 20
58.07982118250453
 42
-0.261369876899627
 10
271.581073510368
 20
62.7961311752202
 42
2.80870652995242
 10
264.0054738200764
 20
44.04586291069775
 42
-2.80870652995242
  0
LWPOLYLINE
  5
11F87
330
1E
100
AcDbEntity
  8
10
  6
Continuous
100
AcDbPolyline
 90
        4
 70
     0
 43
0.0
 10
343.1299899999999
 20
16.08036999999973
 10
313.7020954115541
 20
27.97001101863235
 10
318.4970599999997
 20
39.83796499999931
 10
343.6256699999998
 20
29.68534500000037
  0
LWPOLYLINE
  5
11F8B
330
1E
100
AcDbEntity
  8
10
  6
Continuous
100
AcDbPolyline
 90
        4
 70
     1
 43
0.0
 10
352.9999999999994
 20
47.50000000000006
 10
360.0
 20
47.50000000000006
 10
360.0
 20
-47.49999999999993
 10
352.9999999999994
 20
-47.49999999999993
  0
LINE
  5
11F8C
330
1E
100
AcDbEntity
  8
10
  6
Continuous
100
AcDbLine
 10
352.9999999999994
 20
-47.49999999999993
 30
0.0
 11
343.9999999999995
 21
-47.49999999999993
 31
0.0
  0
DIMENSION
  5
11FD0
330
1E
100
AcDbEntity
  8
30
  6
Continuous
100
AcDbDimension
  2
*D4
 10
-139.9999999999999
 20
-415.9999999999998
 30
0.0
 11
-145.9999999999998
 21
-508.0000000000004
 31
0.0
 70
    32
  1
 <> 
 71
     0
 72
     0
 41
0.0
 42
184.0000000000009
  3
STANDARD1
100
AcDbAlignedDimension
 13
-115.0
 23
-600.0000000000007
 33
0.0
 14
-50.0
 24
-416.0
 34
0.0
 50
90.0
100
AcDbRotatedDimension
  0
DIMENSION
  5
11FD1
330
1E
100
AcDbEntity
  8
30
  6
Continuous
100
AcDbDimension
  2
*D3
 10
-140.0
 20
-600.0000000000007
 30
0.0
 11
-145.9999999999998
 21
-677.0000000000012
 31
0.0
 70
    32
  1
 <> 
 71
     0
 72
     0
 41
0.0
 42
154.0000000000009
  3
STANDARD1
100
AcDbAlignedDimension
 13
-50.0
 23
-754.0000000000016
 33
0.0
 14
-117.4711194721602
 24
-600.0000000000007
 34
0.0
 50
90.0
100
AcDbRotatedDimension
  0
MTEXT
  5
12075
330
1E
100
AcDbEntity
  8
19
  6
Continuous
100
AcDbMText
 10
367.6539489227196
 20
349.0820444825398
 30
0.0
 40
8.0
 41
178.128670620229
 71
     1
 72
     5
  1
S1600-NE 4P RC\PS1600-NN 4P RC
  7
STANDARD1
 73
     1
 44
1.0
  0
LINE
  5
12093
330
1E
100
AcDbEntity
  8
18
  6
DIVIDE
100
AcDbLine
 10
295.0
 20
-400.0
 30
0.0
 11
295.0
 21
-770.0
 31
0.0
  0
LINE
  5
12095
330
1E
100
AcDbEntity
  8
16
100
AcDbLine
 10
400.0
 20
-780.0
 30
0.0
 11
400.0
 21
-390.0
 31
0.0
  0
LINE
  5
12099
330
1E
100
AcDbEntity
  8
18
  6
DIVIDE
100
AcDbLine
 10
575.0
 20
-400.0
 30
0.0
 11
295.0
 21
-400.0
 31
0.0
  0
LINE
  5
1209B
330
1E
100
AcDbEntity
  8
16
100
AcDbLine
 10
585.0
 20
-600.0
 30
0.0
 11
285.0
 21
-600.0
 31
0.0
  0
LWPOLYLINE
  5
120B1
330
1E
100
AcDbEntity
  8
18
  6
DIVIDE
100
AcDbPolyline
 90
        4
 70
     1
 43
0.0
 10
295.0
 20
-400.0
 10
575.0
 20
-400.0
 10
575.0
 20
-770.0
 10
295.0
 20
-770.0
  0
LWPOLYLINE
  5
120B3
330
1E
100
AcDbEntity
  8
11
 48
2.0
100
AcDbPolyline
 90
        8
 70
     1
 43
0.0
 10
306.4999999999999
 20
-550.9999999999991
 10
493.5
 20
-550.999999999999
 42
-0.4142135623730951
 10
496.4999999999998
 20
-553.9999999999992
 10
496.4999999999998
 20
-645.9999999999991
 42
-0.4142135623730951
 10
493.5
 20
-648.9999999999992
 10
306.4999999999999
 20
-648.9999999999992
 42
-0.4142135623730951
 10
303.4999999999998
 20
-645.9999999999991
 10
303.4999999999998
 20
-553.9999999999992
 42
-0.414213562373095
  0
DIMENSION
  5
120B4
330
1E
100
AcDbEntity
  8
30
  6
Continuous
100
AcDbDimension
  2
*D5
 10
496.4999999999998
 20
-810.0
 30
0.0
 11
399.9999999999998
 21
-804.0
 31
0.0
 70
    32
  1
 <> 
 71
     5
 42
193.0
  3
STANDARD1
100
AcDbAlignedDimension
 13
303.4999999999998
 23
-645.9999999999998
 33
0.0
 14
496.4999999999998
 24
-645.9999999999991
 34
0.0
100
AcDbRotatedDimension
  0
DIMENSION
  5
120B5
330
1E
100
AcDbEntity
  8
30
  6
Continuous
100
AcDbDimension
  2
*D6
 10
275.0
 20
-648.9999999999997
 30
0.0
 11
269.0
 21
-599.9999999999992
 31
0.0
 70
    32
 71
     5
 42
98.00000000000055
  3
STANDARD1
100
AcDbAlignedDimension
 13
303.4999999999998
 23
-550.9999999999991
 33
0.0
 14
303.4999999999998
 24
-648.9999999999997
 34
0.0
 50
90.0
100
AcDbRotatedDimension
  0
DIMENSION
  5
13A15
330
1E
100
AcDbEntity
  8
30
  6
Continuous
100
AcDbDimension
  2
*D13
 10
585.0
 20
-230.7009006393349
 30
0.0
 11
542.4999999999998
 21
-224.7009006393349
 31
0.0
 70
    32
  1
 <> 
 71
     5
 42
85.0
  3
STANDARD1
100
AcDbAlignedDimension
 13
500.0
 23
-169.9999999999999
 33
0.0
 14
585.0
 24
-137.5000000000003
 34
0.0
100
AcDbRotatedDimension
  0
DIMENSION
  5
13A16
330
1E
100
AcDbEntity
  8
30
  6
Continuous
100
AcDbDimension
  2
*D12
 10
615.0
 20
-260.597667203543
 30
0.0
 11
557.5
 21
-254.5976672035429
 31
0.0
 70
    32
  1
 <> 
 71
     5
 42
115.0
  3
STANDARD1
100
AcDbAlignedDimension
 13
500.0
 23
-169.9999999999999
 33
0.0
 14
615.0
 24
-120.0000000000003
 34
0.0
100
AcDbRotatedDimension
  0
DIMENSION
  5
13A17
330
1E
100
AcDbEntity
  8
30
  6
Continuous
100
AcDbDimension
  2
*D16
 10
630.0
 20
-260.597667203543
 30
0.0
 11
640.7999999999997
 21
-254.5976672035429
 31
0.0
 70
    32
  1
 <> 
 71
     5
 42
15.0
  3
STANDARD1
100
AcDbAlignedDimension
 13
615.0
 23
-120.0000000000003
 33
0.0
 14
630.0
 24
-137.5000000000003
 34
0.0
100
AcDbRotatedDimension
  0
DIMENSION
  5
13A18
330
1E
100
AcDbEntity
  8
30
  6
Continuous
100
AcDbDimension
  2
*D11
 10
630.0
 20
-289.6903068709502
 30
0.0
 11
565.0
 21
-283.6903068709503
 31
0.0
 70
    32
  1
 <> 
 71
     5
 42
130.0
  3
STANDARD1
100
AcDbAlignedDimension
 13
500.0
 23
-169.9999999999999
 33
0.0
 14
630.0
 24
-137.5000000000003
 34
0.0
100
AcDbRotatedDimension
  0
DIMENSION
  5
13A19
330
1E
100
AcDbEntity
  8
30
  6
Continuous
100
AcDbDimension
  2
*D21
 10
500.0
 20
-230.7009006393349
 30
0.0
 11
430.0
 21
-224.7009006393349
 31
0.0
 70
    32
  1
 <> 
 71
     5
 42
140.0
  3
STANDARD1
100
AcDbAlignedDimension
 13
360.0
 23
-145.0000000000003
 33
0.0
 14
500.0
 24
-169.9999999999999
 34
0.0
100
AcDbRotatedDimension
  0
DIMENSION
  5
13A1A
330
1E
100
AcDbEntity
  8
30
  6
Continuous
100
AcDbDimension
  2
*D20
 10
500.0
 20
-260.597667203543
 30
0.0
 11
426.4999999999998
 21
-254.5976672035429
 31
0.0
 70
    32
  1
 <> 
 71
     5
 42
147.0
  3
STANDARD1
100
AcDbAlignedDimension
 13
353.0
 23
-52.50000000000046
 33
0.0
 14
500.0
 24
-169.9999999999999
 34
0.0
100
AcDbRotatedDimension
  0
DIMENSION
  5
13A1B
330
1E
100
AcDbEntity
  8
30
  6
Continuous
100
AcDbDimension
  2
*D19
 10
500.0
 20
-289.6903068709502
 30
0.0
 11
404.4999999999998
 21
-283.6903068709503
 31
0.0
 70
    32
  1
 <> 
 71
     5
 42
191.0
  3
STANDARD1
100
AcDbAlignedDimension
 13
309.0
 23
-7.799999999999727
 33
0.0
 14
500.0
 24
-169.9999999999999
 34
0.0
100
AcDbRotatedDimension
  0
DIMENSION
  5
13A1C
330
1E
100
AcDbEntity
  8
30
  6
Continuous
100
AcDbDimension
  2
*D18
 10
353.0
 20
-260.597667203543
 30
0.0
 11
332.6999999999998
 21
-260.597667203543
 31
0.0
 70
   160
  1
 <> 
 71
     5
 42
10.0
  3
STANDARD1
100
AcDbAlignedDimension
 13
343.0
 23
4.500000000000452
 33
0.0
 14
353.0
 24
-52.50000000000046
 34
0.0
100
AcDbRotatedDimension
  0
DIMENSION
  5
13A1D
330
1E
100
AcDbEntity
  8
30
  6
Continuous
100
AcDbDimension
  2
*D17
 10
309.0
 20
-289.6903068709502
 30
0.0
 11
269.0
 21
-283.6903068709503
 31
0.0
 70
    32
  1
 <> 
 71
     5
 42
80.0
  3
STANDARD1
100
AcDbAlignedDimension
 13
229.0
 23
-2.799999999999727
 33
0.0
 14
309.0
 24
-2.799999999999727
 34
0.0
100
AcDbRotatedDimension
  0
DIMENSION
  5
13A20
330
1E
100
AcDbEntity
  8
30
  6
Continuous
100
AcDbDimension
  2
*D14
 10
585.0
 20
-210.0
 30
0.0
 11
595.7999999999997
 21
-204.0
 31
0.0
 70
    32
  1
 <> 
 71
     5
 42
15.0
  3
STANDARD1
100
AcDbAlignedDimension
 13
570.0
 23
-120.0000000000003
 33
0.0
 14
585.0
 24
-137.5000000000003
 34
0.0
100
AcDbRotatedDimension
  0
DIMENSION
  5
13A21
330
1E
100
AcDbEntity
  8
30
  6
Continuous
100
AcDbDimension
  2
*D15
 10
570.0
 20
-210.0
 30
0.0
 11
535.0
 21
-204.0
 31
0.0
 70
    32
  1
 <> 
 71
     5
 42
70.0
  3
STANDARD1
100
AcDbAlignedDimension
 13
500.0
 23
-169.9999999999999
 33
0.0
 14
570.0
 24
-120.0000000000003
 34
0.0
100
AcDbRotatedDimension
  0
DIMENSION
  5
13A25
330
1E
100
AcDbEntity
  8
30
  6
Continuous
100
AcDbDimension
  2
*D7
 10
730.0
 20
59.99999999999952
 30
0.0
 11
724.0
 21
29.99999999999962
 31
0.0
 70
    32
  1
 <> 
 71
     0
 72
     0
 41
0.0
 42
60.00000000000003
  3
STANDARD1
100
AcDbAlignedDimension
 13
510.0
 23
-0.0000000000004547
 33
0.0
 14
690.0
 24
59.99999999999953
 34
0.0
 50
90.0
100
AcDbRotatedDimension
  0
LINE
  5
13A26
330
1E
100
AcDbEntity
  8
17
100
AcDbLine
 10
640.0
 20
60.0
 30
0.0
 11
490.0
 21
60.0
 31
0.0
  0
LINE
  5
13A27
330
1E
100
AcDbEntity
  8
17
100
AcDbLine
 10
640.0
 20
-100.0
 30
0.0
 11
490.0
 21
-100.0
 31
0.0
  0
DIMENSION
  5
13A28
330
1E
100
AcDbEntity
  8
30
  6
Continuous
100
AcDbDimension
  2
*D8
 10
730.0
 20
-0.0000000000005171
 30
0.0
 11
724.0
 21
-50.00000000000039
 31
0.0
 70
    32
  1
 <> 
 71
     0
 72
     0
 41
0.0
 42
100.0
  3
STANDARD1
100
AcDbAlignedDimension
 13
640.0
 23
-100.0000000000003
 33
0.0
 14
510.0
 24
-0.0000000000004547
 34
0.0
 50
90.0
100
AcDbRotatedDimension
  0
LINE
  5
13A29
330
1E
100
AcDbEntity
  8
17
100
AcDbLine
 10
570.0
 20
-104.0
 30
0.0
 11
570.0
 21
-126.0000000000004
 31
0.0
  0
CIRCLE
  5
13A2A
330
1E
100
AcDbEntity
  8
1
  6
Continuous
 62
     2
100
AcDbCircle
 10
570.0
 20
-115.0
 30
0.0
 40
6.0
  0
LINE
  5
13A2B
330
1E
100
AcDbEntity
  8
17
100
AcDbLine
 10
559.0
 20
-85.0
 30
0.0
 11
581.0000000000002
 21
-85.0
 31
0.0
  0
LINE
  5
13A2C
330
1E
100
AcDbEntity
  8
17
100
AcDbLine
 10
559.0
 20
-115.0
 30
0.0
 11
581.0000000000002
 21
-115.0
 31
0.0
  0
CIRCLE
  5
13A2D
330
1E
100
AcDbEntity
  8
1
  6
Continuous
 62
     2
100
AcDbCircle
 10
570.0
 20
-85.0
 30
0.0
 40
6.0
  0
LINE
  5
13A2E
330
1E
100
AcDbEntity
  8
17
100
AcDbLine
 10
570.0
 20
-74.0
 30
0.0
 11
570.0
 21
-96.00000000000044
 31
0.0
  0
LINE
  5
13A2F
330
1E
100
AcDbEntity
  8
17
100
AcDbLine
 10
570.0
 20
86.0
 30
0.0
 11
570.0
 21
63.99999999999955
 31
0.0
  0
CIRCLE
  5
13A30
330
1E
100
AcDbEntity
  8
1
  6
Continuous
 62
     2
100
AcDbCircle
 10
570.0
 20
75.0
 30
0.0
 40
6.0
  0
CIRCLE
  5
13A32
330
1E
100
AcDbEntity
  8
1
  6
Continuous
 62
     2
100
AcDbCircle
 10
570.0
 20
45.0
 30
0.0
 40
6.0
  0
LINE
  5
13A33
330
1E
100
AcDbEntity
  8
17
100
AcDbLine
 10
570.0
 20
56.0
 30
0.0
 11
570.0
 21
33.99999999999954
 31
0.0
  0
LINE
  5
13A34
330
1E
100
AcDbEntity
  8
17
100
AcDbLine
 10
559.0
 20
75.0
 30
0.0
 11
581.0000000000002
 21
75.0
 31
0.0
  0
LINE
  5
13A35
330
1E
100
AcDbEntity
  8
17
100
AcDbLine
 10
559.0
 20
45.0
 30
0.0
 11
581.0000000000002
 21
45.0
 31
0.0
  0
LINE
  5
13A38
330
1E
100
AcDbEntity
  8
17
100
AcDbLine
 10
615.0
 20
-104.0
 30
0.0
 11
615.0
 21
-126.0000000000004
 31
0.0
  0
LINE
  5
13A39
330
1E
100
AcDbEntity
  8
17
100
AcDbLine
 10
604.0
 20
-115.0
 30
0.0
 11
626.0000000000002
 21
-115.0
 31
0.0
  0
LINE
  5
13A3A
330
1E
100
AcDbEntity
  8
17
100
AcDbLine
 10
604.0
 20
-85.0
 30
0.0
 11
626.0000000000002
 21
-85.0
 31
0.0
  0
CIRCLE
  5
13A3B
330
1E
100
AcDbEntity
  8
1
  6
Continuous
 62
     2
100
AcDbCircle
 10
615.0
 20
-115.0
 30
0.0
 40
6.0
  0
CIRCLE
  5
13A3C
330
1E
100
AcDbEntity
  8
1
  6
Continuous
 62
     2
100
AcDbCircle
 10
615.0
 20
-85.0
 30
0.0
 40
6.0
  0
LINE
  5
13A3D
330
1E
100
AcDbEntity
  8
17
100
AcDbLine
 10
615.0
 20
-74.0
 30
0.0
 11
615.0
 21
-96.00000000000044
 31
0.0
  0
DIMENSION
  5
13A3F
330
1E
100
AcDbEntity
  8
30
  6
Continuous
100
AcDbDimension
  2
*D9
 10
690.0
 20
92.49999999999952
 30
0.0
 11
684.0
 21
59.99999999999964
 31
0.0
 70
    32
  1
 <> 
 71
     0
 72
     0
 41
0.0
 42
65.0
  3
STANDARD1
100
AcDbAlignedDimension
 13
635.0
 23
27.49999999999953
 33
0.0
 14
635.0
 24
92.49999999999955
 34
0.0
 50
90.0
100
AcDbRotatedDimension
  0
LINE
  5
13A41
330
1E
100
AcDbEntity
  8
17
100
AcDbLine
 10
615.0
 20
86.0
 30
0.0
 11
615.0
 21
63.99999999999955
 31
0.0
  0
CIRCLE
  5
13A42
330
1E
100
AcDbEntity
  8
1
  6
Continuous
 62
     2
100
AcDbCircle
 10
615.0
 20
75.0
 30
0.0
 40
6.0
  0
DIMENSION
  5
13A44
330
1E
100
AcDbEntity
  8
30
  6
Continuous
100
AcDbDimension
  2
*D10
 10
660.0
 20
75.0
 30
0.0
 11
654.0
 21
60.0000000000001
 31
0.0
 70
    32
  1
 <> 
 71
     0
 72
     0
 41
0.0
 42
30.0
  3
STANDARD1
100
AcDbAlignedDimension
 13
626.0000000000002
 23
45.0
 33
0.0
 14
626.0000000000002
 24
75.0
 34
0.0
 50
90.0
100
AcDbRotatedDimension
  0
LINE
  5
13A45
330
1E
100
AcDbEntity
  8
17
100
AcDbLine
 10
604.0
 20
45.0
 30
0.0
 11
626.0000000000002
 21
45.0
 31
0.0
  0
LINE
  5
13A46
330
1E
100
AcDbEntity
  8
17
100
AcDbLine
 10
604.0
 20
75.0
 30
0.0
 11
626.0000000000002
 21
75.0
 31
0.0
  0
CIRCLE
  5
13A47
330
1E
100
AcDbEntity
  8
1
  6
Continuous
 62
     2
100
AcDbCircle
 10
615.0
 20
45.0
 30
0.0
 40
6.0
  0
LINE
  5
13A48
330
1E
100
AcDbEntity
  8
17
100
AcDbLine
 10
615.0
 20
56.0
 30
0.0
 11
615.0
 21
33.99999999999954
 31
0.0
  0
LWPOLYLINE
  5
13C6C
330
1E
100
AcDbEntity
  8
21
  6
Continuous
100
AcDbPolyline
 90
        4
 70
     1
 43
0.0
 10
500.0
 20
-67.5
 10
585.0
 20
-67.5
 10
585.0
 20
-132.4999999999999
 10
500.0
 20
-132.4999999999999
  0
LWPOLYLINE
  5
13C6D
330
1E
100
AcDbEntity
  8
21
  6
Continuous
100
AcDbPolyline
 90
        4
 70
     0
 43
0.0
 10
590.0
 20
-67.5
 10
630.0
 20
-67.5
 10
630.0
 20
-132.4999999999999
 10
590.0
 20
-132.4999999999999
  0
LWPOLYLINE
  5
13C6E
330
1E
100
AcDbEntity
  8
21
  6
Continuous
100
AcDbPolyline
 90
        4
 70
     0
 43
0.0
 10
590.0
 20
92.5
 10
630.0
 20
92.5
 10
630.0
 20
27.5
 10
590.0
 20
27.5
  0
LWPOLYLINE
  5
13C6F
330
1E
100
AcDbEntity
  8
21
  6
Continuous
100
AcDbPolyline
 90
        4
 70
     1
 43
0.0
 10
500.0
 20
92.5
 10
585.0
 20
92.5
 10
585.0
 20
27.5
 10
500.0
 20
27.5
  0
LINE
  5
14D24
330
1E
100
AcDbEntity
  8
17
  6
DASHDOT
100
AcDbLine
 10
-82.50000000000012
 20
561.0000000000003
 30
0.0
 11
-57.5000000000001
 21
561.0000000000003
 31
0.0
  0
DIMENSION
  5
14D25
330
1E
100
AcDbEntity
  8
30
  6
Continuous
100
AcDbDimension
  2
*D22
 10
0.000000000000229
 20
662.8286597243268
 30
0.0
 11
-34.99999999999983
 21
668.8286597243268
 31
0.0
 70
    32
  1
 <> 
 71
     5
 42
70.0000000000001
  3
STANDARD1
100
AcDbAlignedDimension
 13
-69.9999999999999
 23
596.0
 33
0.0
 14
0.0000000000002274
 24
636.0
 34
0.0
 50
0.000000000000007
100
AcDbRotatedDimension
  0
LINE
  5
14D2B
330
1E
100
AcDbEntity
  8
17
  6
DASHDOT
100
AcDbLine
 10
-70.0000000000001
 20
476.0000000000003
 30
0.0
 11
-70.0000000000001
 21
596.0000000000002
 31
0.0
  0
LINE
  5
14D35
330
1E
100
AcDbEntity
  8
17
  6
DASHDOT
100
AcDbLine
 10
57.5000000000001
 20
561.0000000000003
 30
0.0
 11
82.50000000000012
 21
561.0000000000003
 31
0.0
  0
DIMENSION
  5
14D37
330
1E
100
AcDbEntity
  8
30
  6
Continuous
100
AcDbDimension
  2
*D23
 10
70.0000000000001
 20
662.8286597243268
 30
0.0
 11
35.00000000000017
 21
668.8286597243268
 31
0.0
 70
    32
  1
 <> 
 71
     5
 42
69.9999999999999
  3
STANDARD1
100
AcDbAlignedDimension
 13
0.0000000000002274
 23
636.0
 33
0.0
 14
70.0000000000001
 24
596.0
 34
0.0
 50
0.000000000000007
100
AcDbRotatedDimension
  0
LINE
  5
14D38
330
1E
100
AcDbEntity
  8
16
100
AcDbLine
 10
0.0
 20
256.0
 30
0.0
 11
0.0
 21
636.0000000000002
 31
0.0
  0
LINE
  5
14D3B
330
1E
100
AcDbEntity
  8
17
  6
DASHDOT
100
AcDbLine
 10
-12.5
 20
606.0000000000002
 30
0.0
 11
12.5
 21
606.0000000000002
 31
0.0
  0
DIMENSION
  5
14D3C
330
1E
100
AcDbEntity
  8
30
  6
Continuous
100
AcDbDimension
  2
*D24
 10
7.500000000000227
 20
642.8286597243268
 30
0.0
 11
18.30000000000022
 21
648.8286597243268
 31
0.0
 70
    32
  1
 <> 
 71
     5
 42
15.0
  3
STANDARD1
100
AcDbAlignedDimension
 13
-7.499999999999772
 23
626.0
 33
0.0
 14
7.500000000000227
 24
626.0
 34
0.0
 50
0.000000000000007
100
AcDbRotatedDimension
  0
LINE
  5
14D4D
330
1E
100
AcDbEntity
  8
17
  6
DASHDOT
100
AcDbLine
 10
127.5000000000001
 20
606.0000000000002
 30
0.0
 11
152.5
 21
606.0000000000002
 31
0.0
  0
DIMENSION
  5
14D4E
330
1E
100
AcDbEntity
  8
30
  6
Continuous
100
AcDbDimension
  2
*D25
 10
140.0
 20
662.8286597243268
 30
0.0
 11
105.0
 21
668.8286597243268
 31
0.0
 70
    32
  1
 <> 
 71
     5
 42
70.0
  3
STANDARD1
100
AcDbAlignedDimension
 13
70.0000000000001
 23
596.0
 33
0.0
 14
140.0
 24
636.0
 34
0.0
 50
0.000000000000007
100
AcDbRotatedDimension
  0
LINE
  5
14D51
330
1E
100
AcDbEntity
  8
17
  6
DASHDOT
100
AcDbLine
 10
70.0000000000001
 20
476.0000000000003
 30
0.0
 11
70.0000000000001
 21
596.0000000000002
 31
0.0
  0
LINE
  5
14D56
330
1E
100
AcDbEntity
  8
17
  6
DASHDOT
100
AcDbLine
 10
140.0
 20
476.0000000000003
 30
0.0
 11
140.0
 21
636.0000000000002
 31
0.0
  0
LWPOLYLINE
  5
14FD6
330
1E
100
AcDbEntity
  8
21
  6
Continuous
100
AcDbPolyline
 90
        4
 70
     1
 43
0.0
 10
130.0
 20
576.0000000000002
 10
150.0
 20
576.0000000000002
 10
150.0
 20
491.0000000000001
 10
130.0
 20
491.0000000000001
  0
LWPOLYLINE
  5
14FD7
330
1E
100
AcDbEntity
  8
21
  6
Continuous
100
AcDbPolyline
 90
        4
 70
     1
 43
0.0
 10
132.4999999999999
 20
621.0000000000002
 10
147.5
 20
621.0000000000002
 10
147.5
 20
576.0000000000002
 10
132.4999999999999
 20
576.0000000000002
  0
LWPOLYLINE
  5
14FD8
330
1E
100
AcDbEntity
  8
21
  6
Continuous
100
AcDbPolyline
 90
        4
 70
     1
 43
0.0
 10
-9.999999999999943
 20
576.0000000000002
 10
10.00000000000005
 20
576.0000000000002
 10
10.00000000000005
 20
491.0000000000001
 10
-9.999999999999943
 20
491.0000000000001
  0
LWPOLYLINE
  5
14FD9
330
1E
100
AcDbEntity
  8
21
  6
Continuous
100
AcDbPolyline
 90
        4
 70
     1
 43
0.0
 10
-7.499999999999943
 20
621.0000000000002
 10
7.500000000000056
 20
621.0000000000002
 10
7.500000000000056
 20
576.0000000000002
 10
-7.499999999999943
 20
576.0000000000002
  0
LWPOLYLINE
  5
14FDA
330
1E
100
AcDbEntity
  8
21
  6
Continuous
100
AcDbPolyline
 90
        4
 70
     1
 43
0.0
 10
62.5000000000001
 20
576.0000000000002
 10
77.50000000000007
 20
576.0000000000002
 10
77.50000000000007
 20
531.0000000000001
 10
62.5000000000001
 20
531.0000000000001
  0
LWPOLYLINE
  5
14FDB
330
1E
100
AcDbEntity
  8
21
  6
Continuous
100
AcDbPolyline
 90
        4
 70
     1
 43
0.0
 10
60.0000000000001
 20
531.0000000000001
 10
80.00000000000007
 20
531.0000000000001
 10
80.00000000000007
 20
491.0000000000001
 10
60.0000000000001
 20
491.0000000000001
  0
LWPOLYLINE
  5
14FDC
330
1E
100
AcDbEntity
  8
21
  6
Continuous
100
AcDbPolyline
 90
        4
 70
     1
 43
0.0
 10
-77.5000000000001
 20
576.0000000000002
 10
-62.5000000000001
 20
576.0000000000002
 10
-62.5000000000001
 20
531.0000000000001
 10
-77.5000000000001
 20
531.0000000000001
  0
LWPOLYLINE
  5
14FDD
330
1E
100
AcDbEntity
  8
21
  6
Continuous
100
AcDbPolyline
 90
        4
 70
     1
 43
0.0
 10
-80.00000000000012
 20
531.0000000000001
 10
-60.0000000000001
 20
531.0000000000001
 10
-60.0000000000001
 20
491.0000000000001
 10
-80.00000000000012
 20
491.0000000000001
  0
LWPOLYLINE
  5
14FDE
330
1E
100
AcDbEntity
  8
10
  6
Continuous
100
AcDbPolyline
 90
        4
 70
     1
 43
0.0
 10
22.5
 20
300.0
 10
-22.5
 20
300.0
 10
-22.5
 20
333.9999999999998
 10
22.5
 20
333.9999999999998
  0
LWPOLYLINE
  5
14FDF
330
1E
100
AcDbEntity
  8
10
  6
Continuous
100
AcDbPolyline
 90
        4
 70
     1
 43
0.0
 10
94.99999999999998
 20
343.9999999999998
 10
-95.0
 20
343.9999999999998
 10
-95.0
 20
351.0000000000001
 10
94.99999999999998
 20
351.0000000000001
  0
LWPOLYLINE
  5
14FE0
330
1E
100
AcDbEntity
  8
10
  6
Continuous
100
AcDbPolyline
 90
        4
 70
     1
 43
0.0
 10
-39.0
 20
333.9999999999998
 10
38.99999999999954
 20
333.9999999999998
 10
38.99999999999954
 20
343.9999999999998
 10
-39.0
 20
343.9999999999998
  0
LWPOLYLINE
  5
14FE1
330
1E
100
AcDbEntity
  8
10
  6
Continuous
100
AcDbPolyline
 90
        4
 70
     1
 43
0.0
 10
-105.0
 20
358.9999999999998
 10
175.0
 20
358.9999999999998
 10
175.0
 20
351.0000000000001
 10
-105.0
 20
351.0000000000001
  0
LWPOLYLINE
  5
14FE2
330
1E
100
AcDbEntity
  8
10
  6
Continuous
100
AcDbPolyline
 90
        4
 70
     1
 43
0.0
 10
-105.0
 20
491.0000000000001
 10
175.0
 20
491.0000000000001
 10
175.0
 20
358.9999999999998
 10
-105.0
 20
358.9999999999998
  0
LINE
  5
15103
330
1E
100
AcDbEntity
  8
16
100
AcDbLine
 10
185.0
 20
0.0
 30
0.0
 11
-115.0
 21
0.0
 31
0.0
  0
DIMENSION
  5
15109
330
1E
100
AcDbEntity
  8
30
  6
Continuous
100
AcDbDimension
  2
*D26
 10
-0.0000000000000012
 20
-210.0
 30
0.0
 11
-52.49999999999989
 21
-204.0
 31
0.0
 70
    32
  1
 <> 
 71
     5
 42
104.9999999999996
  3
STANDARD1
100
AcDbAlignedDimension
 13
-104.9999999999996
 23
-175.0
 33
0.0
 14
0.0
 24
-190.0000000000002
 34
0.0
100
AcDbRotatedDimension
  0
DIMENSION
  5
1510A
330
1E
100
AcDbEntity
  8
30
  6
Continuous
100
AcDbDimension
  2
*D27
 10
175.0
 20
-250.0
 30
0.0
 11
35.00000000000023
 21
-244.0
 31
0.0
 70
    32
  1
 <> 
 71
     5
 42
280.0
  3
STANDARD1
100
AcDbAlignedDimension
 13
-104.9999999999996
 23
-175.0
 33
0.0
 14
175.0
 24
-175.0
 34
0.0
100
AcDbRotatedDimension
  0
LINE
  5
15113
330
1E
100
AcDbEntity
  8
16
100
AcDbLine
 10
0.0
 20
-190.0000000000002
 30
0.0
 11
0.0
 21
240.0
 31
0.0
  0
DIMENSION
  5
15114
330
1E
100
AcDbEntity
  8
30
  6
Continuous
100
AcDbDimension
  2
*D28
 10
175.0
 20
-210.0
 30
0.0
 11
87.50000000000012
 21
-204.0
 31
0.0
 70
    32
  1
 <> 
 71
     5
 42
175.0
  3
STANDARD1
100
AcDbAlignedDimension
 13
0.0
 23
-190.0000000000002
 33
0.0
 14
175.0
 24
-175.0
 34
0.0
100
AcDbRotatedDimension
  0
LINE
  5
15115
330
1E
100
AcDbEntity
  8
12
  6
DASHED
100
AcDbLine
 10
35.19999999999981
 20
-168.5000000000004
 30
0.0
 11
35.19999999999981
 21
-141.5000000000004
 31
0.0
  0
CIRCLE
  5
15116
330
1E
100
AcDbEntity
  8
12
  6
DASHED
100
AcDbCircle
 10
35.19999999999981
 20
-155.0
 30
0.0
 40
8.5
  0
LINE
  5
15117
330
1E
100
AcDbEntity
  8
12
  6
DASHED
100
AcDbLine
 10
-34.80000000000018
 20
-168.5000000000004
 30
0.0
 11
-34.80000000000018
 21
-141.5000000000004
 31
0.0
  0
CIRCLE
  5
15118
330
1E
100
AcDbEntity
  8
12
  6
DASHED
100
AcDbCircle
 10
-34.80000000000018
 20
-155.0
 30
0.0
 40
8.5
  0
LINE
  5
15119
330
1E
100
AcDbEntity
  8
12
  6
DASHED
100
AcDbLine
 10
-48.3000000000004
 20
-155.0
 30
0.0
 11
-21.29999999999995
 21
-155.0
 31
0.0
  0
LINE
  5
1511A
330
1E
100
AcDbEntity
  8
12
  6
DASHED
100
AcDbLine
 10
21.69999999999959
 20
-155.0
 30
0.0
 11
48.70000000000004
 21
-155.0
 31
0.0
  0
LINE
  5
1512F
330
1E
100
AcDbEntity
  8
12
  6
DASHED
100
AcDbLine
 10
-48.3000000000004
 20
185.0
 30
0.0
 11
-21.29999999999995
 21
185.0
 31
0.0
  0
CIRCLE
  5
15130
330
1E
100
AcDbEntity
  8
12
  6
DASHED
100
AcDbCircle
 10
-34.80000000000018
 20
185.0
 30
0.0
 40
8.5
  0
LINE
  5
15131
330
1E
100
AcDbEntity
  8
12
  6
DASHED
100
AcDbLine
 10
-34.80000000000018
 20
171.5000000000002
 30
0.0
 11
-34.80000000000018
 21
198.4999999999995
 31
0.0
  0
LINE
  5
15132
330
1E
100
AcDbEntity
  8
12
  6
DASHED
100
AcDbLine
 10
21.69999999999959
 20
185.0
 30
0.0
 11
48.70000000000004
 21
185.0
 31
0.0
  0
CIRCLE
  5
15133
330
1E
100
AcDbEntity
  8
12
  6
DASHED
100
AcDbCircle
 10
35.19999999999981
 20
185.0
 30
0.0
 40
8.5
  0
LINE
  5
15134
330
1E
100
AcDbEntity
  8
12
  6
DASHED
100
AcDbLine
 10
35.19999999999981
 20
171.5000000000002
 30
0.0
 11
35.19999999999981
 21
198.4999999999995
 31
0.0
  0
CIRCLE
  5
15136
330
1E
100
AcDbEntity
  8
21
  6
Continuous
100
AcDbCircle
 10
140.0
 20
130.0
 30
0.0
 40
10.0
  0
LINE
  5
15137
330
1E
100
AcDbEntity
  8
21
  6
Continuous
100
AcDbLine
 10
135.6249999999999
 20
131.7049550000001
 30
0.0
 11
136.875
 21
132.954955
 31
0.0
  0
LINE
  5
15138
330
1E
100
AcDbEntity
  8
21
  6
Continuous
100
AcDbLine
 10
144.0218949999995
 20
123.75
 30
0.0
 11
144.375
 21
124.1031099999995
 31
0.0
  0
LINE
  5
15139
330
1E
100
AcDbEntity
  8
21
  6
Continuous
100
AcDbLine
 10
135.6249999999999
 20
125.5177699999999
 30
0.0
 11
136.875
 21
126.7677699999999
 31
0.0
  0
LINE
  5
1513A
330
1E
100
AcDbEntity
  8
21
  6
Continuous
100
AcDbLine
 10
141.2331700000003
 20
127.1484599999992
 30
0.0
 11
142.1307100000001
 21
128.0459999999997
 31
0.0
  0
LINE
  5
1513B
330
1E
100
AcDbEntity
  8
21
  6
Continuous
100
AcDbLine
 10
143.125
 20
133.4597099999996
 30
0.0
 11
144.375
 21
134.7097099999996
 31
0.0
  0
LINE
  5
1513C
330
1E
100
AcDbEntity
  8
21
  6
Continuous
100
AcDbLine
 10
135.6249999999999
 20
127.7274749999996
 30
0.0
 11
136.875
 21
128.9774749999996
 31
0.0
  0
LINE
  5
1513D
330
1E
100
AcDbEntity
  8
21
  6
Continuous
100
AcDbLine
 10
139.0494599999997
 20
130.2680499999995
 30
0.0
 11
139.9470000000007
 21
131.1655899999996
 31
0.0
  0
LINE
  5
1513E
330
1E
100
AcDbEntity
  8
21
  6
Continuous
100
AcDbLine
 10
135.6249999999999
 20
129.0532999999997
 30
0.0
 11
136.875
 21
130.3032999999996
 31
0.0
  0
LINE
  5
1513F
330
1E
100
AcDbEntity
  8
21
  6
Continuous
100
AcDbLine
 10
143.125
 20
135.6694199999995
 30
0.0
 11
143.7055850000001
 21
136.25
 31
0.0
  0
LINE
  5
15140
330
1E
100
AcDbEntity
  8
21
  6
Continuous
100
AcDbLine
 10
140.1413149999996
 20
128.7082549999994
 30
0.0
 11
141.0388550000004
 21
129.6057949999999
 31
0.0
  0
LINE
  5
15141
330
1E
100
AcDbEntity
  8
21
  6
Continuous
100
AcDbLine
 10
138.8674799999999
 20
130.5280149999997
 30
0.0
 11
139.7650250000002
 21
131.4255549999993
 31
0.0
  0
LINE
  5
15142
330
1E
100
AcDbEntity
  8
21
  6
Continuous
100
AcDbLine
 10
142.3250250000001
 20
125.5886649999995
 30
0.0
 11
144.375
 21
127.6386399999994
 31
0.0
  0
LINE
  5
15143
330
1E
100
AcDbEntity
  8
21
  6
Continuous
100
AcDbLine
 10
135.6249999999999
 20
128.1694199999996
 30
0.0
 11
136.875
 21
129.4194199999995
 31
0.0
  0
LINE
  5
15144
330
1E
100
AcDbEntity
  8
21
  6
Continuous
100
AcDbLine
 10
135.6249999999999
 20
132.1468949999994
 30
0.0
 11
137.7632849999995
 21
134.2851799999998
 31
0.0
  0
LINE
  5
15145
330
1E
100
AcDbEntity
  8
21
  6
Continuous
100
AcDbLine
 10
137.2297000000002
 20
132.8677049999996
 30
0.0
 11
138.12724
 21
133.7652499999999
 31
0.0
  0
LINE
  5
15146
330
1E
100
AcDbEntity
  8
21
  6
Continuous
100
AcDbLine
 10
143.2349050000004
 20
124.2888399999996
 30
0.0
 11
144.375
 21
125.4289349999999
 31
0.0
  0
LINE
  5
15147
330
1E
100
AcDbEntity
  8
21
  6
Continuous
100
AcDbLine
 10
143.125
 20
135.2274749999996
 30
0.0
 11
144.1475249999996
 21
136.25
 31
0.0
  0
LINE
  5
15148
330
1E
100
AcDbEntity
  8
21
  6
Continuous
100
AcDbLine
 10
143.125
 20
132.1338849999999
 30
0.0
 11
144.375
 21
133.3838849999999
 31
0.0
  0
LINE
  5
15149
330
1E
100
AcDbEntity
  8
21
  6
Continuous
100
AcDbLine
 10
135.6249999999999
 20
134.7985449999995
 30
0.0
 11
136.6714300000001
 21
135.8449749999999
 31
0.0
  0
LINE
  5
1514A
330
1E
100
AcDbEntity
  8
21
  6
Continuous
100
AcDbLine
 10
135.6249999999999
 20
125.0758249999994
 30
0.0
 11
136.875
 21
126.3258249999994
 31
0.0
  0
LINE
  5
1514B
330
1E
100
AcDbEntity
  8
21
  6
Continuous
100
AcDbLine
 10
135.6249999999999
 20
133.4727199999997
 30
0.0
 11
137.2173600000005
 21
135.0650749999997
 31
0.0
  0
LINE
  5
1514C
330
1E
100
AcDbEntity
  8
21
  6
Continuous
100
AcDbLine
 10
143.125
 20
134.3435949999995
 30
0.0
 11
144.375
 21
135.5935949999995
 31
0.0
  0
LINE
  5
1514D
330
1E
100
AcDbEntity
  8
21
  6
Continuous
100
AcDbLine
 10
143.125
 20
130.8080599999996
 30
0.0
 11
144.375
 21
132.0580599999997
 31
0.0
  0
LINE
  5
1514E
330
1E
100
AcDbEntity
  8
21
  6
Continuous
100
AcDbLine
 10
137.5936499999999
 20
132.3477749999999
 30
0.0
 11
138.4911900000008
 21
133.2453149999996
 31
0.0
  0
LINE
  5
1514F
330
1E
100
AcDbEntity
  8
21
  6
Continuous
100
AcDbLine
 10
139.595385
 20
129.4881549999995
 30
0.0
 11
140.4929249999995
 21
130.3856949999999
 31
0.0
  0
LINE
  5
15150
330
1E
100
AcDbEntity
  8
21
  6
Continuous
100
AcDbLine
 10
135.6249999999999
 20
136.1243699999999
 30
0.0
 11
135.7506350000005
 21
136.25
 31
0.0
  0
LINE
  5
15151
330
1E
100
AcDbEntity
  8
21
  6
Continuous
100
AcDbLine
 10
135.6249999999999
 20
134.3566049999995
 30
0.0
 11
136.8534050000004
 21
135.5850099999996
 31
0.0
  0
LINE
  5
15152
330
1E
100
AcDbEntity
  8
21
  6
Continuous
100
AcDbLine
 10
143.125
 20
128.1564099999995
 30
0.0
 11
144.375
 21
129.4064099999995
 31
0.0
  0
LINE
  5
15153
330
1E
100
AcDbEntity
  8
21
  6
Continuous
100
AcDbLine
 10
143.125
 20
134.7855349999995
 30
0.0
 11
144.375
 21
136.0355349999994
 31
0.0
  0
LINE
  5
15154
330
1E
100
AcDbEntity
  8
21
  6
Continuous
100
AcDbLine
 10
135.6249999999999
 20
130.8210699999999
 30
0.0
 11
136.875
 21
132.0710699999999
 31
0.0
  0
LINE
  5
15155
330
1E
100
AcDbEntity
  8
21
  6
Continuous
100
AcDbLine
 10
135.6249999999999
 20
135.6824299999997
 30
0.0
 11
136.192575
 21
136.25
 31
0.0
  0
LINE
  5
15156
330
1E
100
AcDbEntity
  8
21
  6
Continuous
100
AcDbLine
 10
143.05293
 20
124.5488049999996
 30
0.0
 11
144.375
 21
125.8708749999996
 31
0.0
  0
LINE
  5
15157
330
1E
100
AcDbEntity
  8
21
  6
Continuous
100
AcDbLine
 10
136.066945
 20
123.75
 30
0.0
 11
136.875
 21
124.5580599999996
 31
0.0
  0
LINE
  5
15158
330
1E
100
AcDbEntity
  8
21
  6
Continuous
100
AcDbLine
 10
143.125
 20
131.691945
 30
0.0
 11
144.375
 21
132.941945
 31
0.0
  0
LINE
  5
15159
330
1E
100
AcDbEntity
  8
21
  6
Continuous
100
AcDbLine
 10
143.125
 20
130.3661199999996
 30
0.0
 11
144.375
 21
131.6161199999996
 31
0.0
  0
LINE
  5
1515A
330
1E
100
AcDbEntity
  8
21
  6
Continuous
100
AcDbLine
 10
143.125
 20
136.1113599999997
 30
0.0
 11
143.2636450000005
 21
136.25
 31
0.0
  0
LINE
  5
1515B
330
1E
100
AcDbEntity
  8
21
  6
Continuous
100
AcDbLine
 10
137.0477200000004
 20
133.1276749999997
 30
0.0
 11
137.9452649999996
 21
134.0252149999994
 31
0.0
  0
LINE
  5
1515C
330
1E
100
AcDbEntity
  8
21
  6
Continuous
100
AcDbLine
 10
143.4168799999997
 20
124.02887
 30
0.0
 11
144.375
 21
124.9869899999996
 31
0.0
  0
LINE
  5
1515D
330
1E
100
AcDbEntity
  8
21
  6
Continuous
100
AcDbLine
 10
135.6249999999999
 20
132.5888349999995
 30
0.0
 11
137.5813100000004
 21
134.5451449999998
 31
0.0
  0
LINE
  5
1515E
330
1E
100
AcDbEntity
  8
21
  6
Continuous
100
AcDbLine
 10
140.5052650000004
 20
128.1883249999995
 30
0.0
 11
141.4028049999999
 21
129.0858649999998
 31
0.0
  0
LINE
  5
1515F
330
1E
100
AcDbEntity
  8
21
  6
Continuous
100
AcDbLine
 10
143.125
 20
127.2725249999994
 30
0.0
 11
144.375
 21
128.5225249999994
 31
0.0
  0
LINE
  5
15160
330
1E
100
AcDbEntity
  8
21
  6
Continuous
100
AcDbLine
 10
143.125
 20
133.9016499999995
 30
0.0
 11
144.375
 21
135.1516499999995
 31
0.0
  0
LINE
  5
15161
330
1E
100
AcDbEntity
  8
21
  6
Continuous
100
AcDbLine
 10
142.6889800000003
 20
125.0687349999996
 30
0.0
 11
144.375
 21
126.7547599999996
 31
0.0
  0
LINE
  5
15162
330
1E
100
AcDbEntity
  8
21
  6
Continuous
100
AcDbLine
 10
137.9575999999997
 20
131.8278449999995
 30
0.0
 11
138.855145
 21
132.7253849999997
 31
0.0
  0
LINE
  5
15163
330
1E
100
AcDbEntity
  8
21
  6
Continuous
100
AcDbLine
 10
136.5088850000006
 20
123.75
 30
0.0
 11
136.875
 21
124.1161199999996
 31
0.0
  0
LINE
  5
15164
330
1E
100
AcDbEntity
  8
21
  6
Continuous
100
AcDbLine
 10
135.6249999999999
 20
125.9597099999996
 30
0.0
 11
136.875
 21
127.2097099999996
 31
0.0
  0
LINE
  5
15165
330
1E
100
AcDbEntity
  8
21
  6
Continuous
100
AcDbLine
 10
143.125
 20
126.8305849999992
 30
0.0
 11
144.375
 21
128.0805849999994
 31
0.0
  0
LINE
  5
15166
330
1E
100
AcDbEntity
  8
21
  6
Continuous
100
AcDbLine
 10
143.125
 20
131.25
 30
0.0
 11
144.375
 21
132.4999999999999
 31
0.0
  0
LINE
  5
15167
330
1E
100
AcDbEntity
  8
21
  6
Continuous
100
AcDbLine
 10
143.579955
 20
123.75
 30
0.0
 11
144.375
 21
124.5450499999996
 31
0.0
  0
LINE
  5
15168
330
1E
100
AcDbEntity
  8
21
  6
Continuous
100
AcDbLine
 10
138.5035300000004
 20
131.0479449999995
 30
0.0
 11
139.40107
 21
131.9454899999996
 31
0.0
  0
LINE
  5
15169
330
1E
100
AcDbEntity
  8
21
  6
Continuous
100
AcDbLine
 10
141.7790999999999
 20
126.3685649999995
 30
0.0
 11
142.6766400000008
 21
127.2661049999997
 31
0.0
  0
LINE
  5
1516A
330
1E
100
AcDbEntity
  8
21
  6
Continuous
100
AcDbLine
 10
135.6249999999999
 20
130.3791249999999
 30
0.0
 11
136.875
 21
131.6291249999999
 31
0.0
  0
LINE
  5
1516B
330
1E
100
AcDbEntity
  8
21
  6
Continuous
100
AcDbLine
 10
137.7756250000004
 20
132.0878099999997
 30
0.0
 11
138.6731650000001
 21
132.9853499999997
 31
0.0
  0
LINE
  5
1516C
330
1E
100
AcDbEntity
  8
21
  6
Continuous
100
AcDbLine
 10
135.6249999999999
 20
135.2404849999996
 30
0.0
 11
136.4894549999996
 21
136.1049399999992
 31
0.0
  0
LINE
  5
1516D
330
1E
100
AcDbEntity
  8
21
  6
Continuous
100
AcDbLine
 10
135.6249999999999
 20
126.4016499999994
 30
0.0
 11
136.875
 21
127.6516499999995
 31
0.0
  0
LINE
  5
1516E
330
1E
100
AcDbEntity
  8
21
  6
Continuous
100
AcDbLine
 10
138.1395800000007
 20
131.5678799999993
 30
0.0
 11
139.0371200000004
 21
132.4654199999995
 31
0.0
  0
LINE
  5
1516F
330
1E
100
AcDbEntity
  8
21
  6
Continuous
100
AcDbLine
 10
135.6249999999999
 20
123.75
 30
0.0
 11
136.875
 21
125.0
 31
0.0
  0
LINE
  5
15170
330
1E
100
AcDbEntity
  8
21
  6
Continuous
100
AcDbLine
 10
143.125
 20
129.0402949999995
 30
0.0
 11
144.375
 21
130.2902949999998
 31
0.0
  0
LINE
  5
15171
330
1E
100
AcDbEntity
  8
21
  6
Continuous
100
AcDbLine
 10
140.8692200000007
 20
127.6683949999999
 30
0.0
 11
141.7667600000004
 21
128.5659349999995
 31
0.0
  0
LINE
  5
15172
330
1E
100
AcDbEntity
  8
21
  6
Continuous
100
AcDbLine
 10
143.125
 20
127.7144649999998
 30
0.0
 11
144.375
 21
128.9644649999999
 31
0.0
  0
LINE
  5
15173
330
1E
100
AcDbEntity
  8
21
  6
Continuous
100
AcDbLine
 10
135.6249999999999
 20
129.4952449999996
 30
0.0
 11
136.875
 21
130.7452449999997
 31
0.0
  0
LINE
  5
15174
330
1E
100
AcDbEntity
  8
21
  6
Continuous
100
AcDbLine
 10
137.4116749999996
 20
132.6077399999994
 30
0.0
 11
138.3092150000003
 21
133.5052799999996
 31
0.0
  0
LINE
  5
15175
330
1E
100
AcDbEntity
  8
21
  6
Continuous
100
AcDbLine
 10
141.5971200000001
 20
126.6285299999996
 30
0.0
 11
142.4946650000004
 21
127.5260699999998
 31
0.0
  0
LINE
  5
15176
330
1E
100
AcDbEntity
  8
21
  6
Continuous
100
AcDbLine
 10
143.125
 20
133.0177699999999
 30
0.0
 11
144.375
 21
134.2677699999997
 31
0.0
  0
LINE
  5
15177
330
1E
100
AcDbEntity
  8
21
  6
Continuous
100
AcDbLine
 10
143.125
 20
129.9241749999995
 30
0.0
 11
144.375
 21
131.1741749999995
 31
0.0
  0
LINE
  5
15178
330
1E
100
AcDbEntity
  8
21
  6
Continuous
100
AcDbLine
 10
142.5070000000004
 20
125.3287
 30
0.0
 11
144.375
 21
127.1966999999999
 31
0.0
  0
LINE
  5
15179
330
1E
100
AcDbEntity
  8
21
  6
Continuous
100
AcDbLine
 10
139.7773600000004
 20
129.2281849999999
 30
0.0
 11
140.6749049999995
 21
130.1257299999996
 31
0.0
  0
LINE
  5
1517A
330
1E
100
AcDbEntity
  8
21
  6
Continuous
100
AcDbLine
 10
135.6249999999999
 20
128.6113599999997
 30
0.0
 11
136.875
 21
129.8613599999997
 31
0.0
  0
LINE
  5
1517B
330
1E
100
AcDbEntity
  8
21
  6
Continuous
100
AcDbLine
 10
141.9610750000003
 20
126.1085999999999
 30
0.0
 11
142.8586149999999
 21
127.0061399999995
 31
0.0
  0
LINE
  5
1517C
330
1E
100
AcDbEntity
  8
21
  6
Continuous
100
AcDbLine
 10
139.9593400000003
 20
128.9682199999997
 30
0.0
 11
140.85688
 21
129.8657600000001
 31
0.0
  0
LINE
  5
1517D
330
1E
100
AcDbEntity
  8
21
  6
Continuous
100
AcDbLine
 10
139.4134100000008
 20
129.7481199999996
 30
0.0
 11
140.3109500000005
 21
130.6456599999992
 31
0.0
  0
LINE
  5
1517E
330
1E
100
AcDbEntity
  8
21
  6
Continuous
100
AcDbLine
 10
135.6249999999999
 20
133.0307799999995
 30
0.0
 11
137.399335
 21
134.8051099999997
 31
0.0
  0
LINE
  5
1517F
330
1E
100
AcDbEntity
  8
21
  6
Continuous
100
AcDbLine
 10
138.6855049999996
 20
130.78798
 30
0.0
 11
139.5830450000005
 21
131.6855199999995
 31
0.0
  0
LINE
  5
15180
330
1E
100
AcDbEntity
  8
21
  6
Continuous
100
AcDbLine
 10
135.6249999999999
 20
133.9146599999996
 30
0.0
 11
137.0353850000002
 21
135.32504
 31
0.0
  0
LINE
  5
15181
330
1E
100
AcDbEntity
  8
21
  6
Continuous
100
AcDbLine
 10
141.4151449999996
 20
126.8884949999999
 30
0.0
 11
142.3126850000004
 21
127.7860349999996
 31
0.0
  0
LINE
  5
15182
330
1E
100
AcDbEntity
  8
21
  6
Continuous
100
AcDbLine
 10
135.6249999999999
 20
124.6338849999997
 30
0.0
 11
136.875
 21
125.8838849999999
 31
0.0
  0
LINE
  5
15183
330
1E
100
AcDbEntity
  8
21
  6
Continuous
100
AcDbLine
 10
143.125
 20
132.5758249999994
 30
0.0
 11
144.375
 21
133.8258249999994
 31
0.0
  0
LINE
  5
15184
330
1E
100
AcDbEntity
  8
21
  6
Continuous
100
AcDbLine
 10
138.3215549999997
 20
131.3079149999996
 30
0.0
 11
139.2190949999996
 21
132.205455
 31
0.0
  0
LINE
  5
15185
330
1E
100
AcDbEntity
  8
21
  6
Continuous
100
AcDbLine
 10
135.6249999999999
 20
126.8435949999995
 30
0.0
 11
136.875
 21
128.0935949999995
 31
0.0
  0
LINE
  5
15186
330
1E
100
AcDbEntity
  8
21
  6
Continuous
100
AcDbLine
 10
141.051195
 20
127.4084249999996
 30
0.0
 11
141.9487349999996
 21
128.3059699999998
 31
0.0
  0
LINE
  5
15187
330
1E
100
AcDbEntity
  8
21
  6
Continuous
100
AcDbLine
 10
139.2314350000003
 20
130.0080849999999
 30
0.0
 11
140.1289749999999
 21
130.9056249999995
 31
0.0
  0
LINE
  5
15188
330
1E
100
AcDbEntity
  8
21
  6
Continuous
100
AcDbLine
 10
135.6249999999999
 20
127.2855349999995
 30
0.0
 11
136.875
 21
128.5355349999995
 31
0.0
  0
LINE
  5
15189
330
1E
100
AcDbEntity
  8
21
  6
Continuous
100
AcDbLine
 10
143.125
 20
128.5983499999997
 30
0.0
 11
144.375
 21
129.8483499999997
 31
0.0
  0
LINE
  5
1518A
330
1E
100
AcDbEntity
  8
21
  6
Continuous
100
AcDbLine
 10
140.3232899999999
 20
128.4482899999997
 30
0.0
 11
141.2208300000008
 21
129.3458299999997
 31
0.0
  0
LINE
  5
1518B
330
1E
100
AcDbEntity
  8
21
  6
Continuous
100
AcDbLine
 10
135.6249999999999
 20
124.1919449999999
 30
0.0
 11
136.875
 21
125.4419449999998
 31
0.0
  0
LINE
  5
1518C
330
1E
100
AcDbEntity
  8
21
  6
Continuous
100
AcDbLine
 10
140.6872399999997
 20
127.92836
 30
0.0
 11
141.584785
 21
128.8258999999998
 31
0.0
  0
LINE
  5
1518D
330
1E
100
AcDbEntity
  8
21
  6
Continuous
100
AcDbLine
 10
142.1430500000008
 20
125.8486299999997
 30
0.0
 11
143.0405900000003
 21
126.746175
 31
0.0
  0
LINE
  5
1518E
330
1E
100
AcDbEntity
  8
21
  6
Continuous
100
AcDbLine
 10
142.8709549999996
 20
124.8087699999995
 30
0.0
 11
144.375
 21
126.3128149999996
 31
0.0
  0
LINE
  5
1518F
330
1E
100
AcDbEntity
  8
21
  6
Continuous
100
AcDbLine
 10
143.125
 20
129.4822349999996
 30
0.0
 11
144.375
 21
130.7322349999995
 31
0.0
  0
LINE
  5
15190
330
1E
100
AcDbEntity
  8
21
  6
Continuous
100
AcDbLine
 10
135.6249999999999
 20
131.26301
 30
0.0
 11
136.875
 21
132.51301
 31
0.0
  0
LINE
  5
15191
330
1E
100
AcDbEntity
  8
21
  6
Continuous
100
AcDbLine
 10
135.6249999999999
 20
129.9371849999995
 30
0.0
 11
136.875
 21
131.1871849999995
 31
0.0
  0
LWPOLYLINE
  5
152E0
330
1E
100
AcDbEntity
  8
10
  6
Continuous
100
AcDbPolyline
 90
        8
 70
     1
 43
0.0
 10
91.99999999999963
 20
47.5
 10
-92.00000000000022
 20
47.5
 42
0.4142135623730951
 10
-95.00000000000023
 20
44.5
 10
-95.00000000000023
 20
-44.5
 42
0.4142135623730951
 10
-92.00000000000022
 20
-47.5
 10
91.99999999999963
 20
-47.5
 42
0.4142135623730951
 10
94.99999999999966
 20
-44.5
 10
94.99999999999966
 20
44.5
 42
0.4142135623730951
  0
LWPOLYLINE
  5
152E2
330
1E
100
AcDbEntity
  8
10
  6
Continuous
100
AcDbPolyline
 90
        4
 70
     1
 43
0.0
 10
-39.00000000000011
 20
47.5
 10
38.99999999999942
 20
47.5
 10
38.99999999999942
 20
-47.5
 10
-39.00000000000011
 20
-47.5
  0
LWPOLYLINE
  5
152E3
330
1E
100
AcDbEntity
  8
10
  6
Continuous
100
AcDbPolyline
 90
        4
 70
     1
 43
0.0
 10
27.20000000000016
 20
-33.49999999999909
 10
33.20000000000016
 20
-33.49999999999909
 10
33.20000000000016
 20
-41.5000000000009
 10
27.20000000000016
 20
-41.5000000000009
  0
CIRCLE
  5
152E4
330
1E
100
AcDbEntity
  8
10
  6
Continuous
100
AcDbCircle
 10
31.1999999999997
 20
-70.49999999999954
 30
0.0
 40
3.299999999999998
  0
LWPOLYLINE
  5
152E5
330
1E
100
AcDbEntity
  8
10
  6
Continuous
100
AcDbPolyline
 90
        4
 70
     1
 43
0.0
 10
-22.50000000000011
 20
43.33292999999911
 10
22.49999999999988
 20
43.33292999999911
 10
22.49999999999988
 20
31.9322349999993
 10
-22.50000000000011
 20
31.9322349999993
  0
LWPOLYLINE
  5
152E6
330
1E
100
AcDbEntity
  8
10
  6
Continuous
100
AcDbPolyline
 90
        4
 70
     1
 43
0.0
 10
-22.50000000000011
 20
43.33292999999911
 10
22.49999999999988
 20
43.33292999999911
 10
22.49999999999988
 20
-22.99999999999954
 10
-22.50000000000011
 20
-22.99999999999954
  0
LWPOLYLINE
  5
15325
330
1E
100
AcDbEntity
  8
10
  6
Continuous
100
AcDbPolyline
 90
        4
 70
     1
 43
0.0
 10
-105.0
 20
200.0
 10
175.0
 20
200.0
 10
175.0
 20
-170.0
 10
-105.0
 20
-170.0
  0
LWPOLYLINE
  5
15326
330
1E
100
AcDbEntity
  8
10
  6
Continuous
100
AcDbPolyline
 90
        4
 70
     1
 43
0.0
 10
-105.0
 20
170.0
 10
175.0
 20
170.0
 10
175.0
 20
-140.0
 10
-105.0
 20
-140.0
  0
LINE
  5
15395
330
1E
100
AcDbEntity
  8
225
  6
Continuous
 62
     3
100
AcDbLine
 10
487.3999050000001
 20
184.0000000000003
 30
0.0
 11
531.0000000000003
 21
184.0000000000003
 31
0.0
  0
LWPOLYLINE
  5
15396
330
1E
100
AcDbEntity
  8
10
  6
DASHDOT
100
AcDbPolyline
 90
       10
 70
     0
 43
0.0
 10
540.0
 20
209.0000000000002
 10
500.0
 20
209.0000000000002
 10
500.0
 20
169.0
 10
502.0
 20
169.0
 42
0.4142135623730951
 10
505.0
 20
172.0
 10
505.0
 20
199.5000000000002
 42
-0.4142135623730951
 10
509.4999999999997
 20
204.0
 10
537.0
 20
204.0
 42
0.4142135623730951
 10
540.0
 20
207.0000000000002
 10
540.0
 20
209.0000000000002
  0
LINE
  5
15397
330
1E
100
AcDbEntity
  8
160
  6
Continuous
 62
     3
100
AcDbLine
 10
507.5
 20
179.0
 30
0.0
 11
521.0000000000003
 21
179.0
 31
0.0
  0
LINE
  5
15398
330
1E
100
AcDbEntity
  8
160
  6
Continuous
 62
     3
100
AcDbLine
 10
507.5
 20
189.0000000000002
 30
0.0
 11
521.0000000000003
 21
189.0000000000002
 31
0.0
  0
LINE
  5
15399
330
1E
100
AcDbEntity
  8
160
  6
Continuous
 62
     3
100
AcDbLine
 10
515.5
 20
174.1999500000002
 30
0.0
 11
515.5
 21
193.8000500000003
 31
0.0
  0
LINE
  5
1539A
330
1E
100
AcDbEntity
  8
160
  6
Continuous
 62
     3
100
AcDbLine
 10
507.5
 20
193.19995
 30
0.0
 11
505.0
 21
193.19995
 31
0.0
  0
LINE
  5
1539B
330
1E
100
AcDbEntity
  8
160
  6
Continuous
 62
     3
100
AcDbLine
 10
507.5
 20
174.8000499999998
 30
0.0
 11
505.0
 21
174.8000499999998
 31
0.0
  0
LINE
  5
1539C
330
1E
100
AcDbEntity
  8
160
  6
Continuous
 62
     3
100
AcDbLine
 10
507.5
 20
174.1999500000002
 30
0.0
 11
507.5
 21
193.8000500000003
 31
0.0
  0
LINE
  5
1539D
330
1E
100
AcDbEntity
  8
160
  6
Continuous
 62
     3
100
AcDbLine
 10
515.5
 20
174.1999500000002
 30
0.0
 11
507.5
 21
174.1999500000002
 31
0.0
  0
LINE
  5
1539E
330
1E
100
AcDbEntity
  8
160
  6
Continuous
 62
     3
100
AcDbLine
 10
515.5
 20
193.8000500000003
 30
0.0
 11
507.5
 21
193.8000500000003
 31
0.0
  0
LINE
  5
1539F
330
1E
100
AcDbEntity
  8
160
  6
Continuous
 62
     3
100
AcDbLine
 10
521.0000000000003
 20
179.0
 30
0.0
 11
521.0000000000003
 21
189.0000000000002
 31
0.0
  0
LWPOLYLINE
  5
153A0
330
1E
100
AcDbEntity
  8
10
  6
DASHDOT
100
AcDbPolyline
 90
       10
 70
     0
 43
0.0
 10
540.0
 20
-179.0
 10
500.0
 20
-179.0
 10
500.0
 20
-139.0
 10
502.0
 20
-139.0
 42
-0.4142135623730951
 10
505.0
 20
-142.0
 10
505.0
 20
-169.5
 42
0.4142135623730951
 10
509.4999999999997
 20
-174.0
 10
537.0
 20
-174.0
 42
-0.4142135623730951
 10
540.0
 20
-177.0
 10
540.0
 20
-179.0
  0
LINE
  5
153A1
330
1E
100
AcDbEntity
  8
160
  6
Continuous
 62
     3
100
AcDbLine
 10
521.0000000000003
 20
-149.0000000000003
 30
0.0
 11
521.0000000000003
 21
-159.0000000000004
 31
0.0
  0
LINE
  5
153A2
330
1E
100
AcDbEntity
  8
160
  6
Continuous
 62
     3
100
AcDbLine
 10
507.5
 20
-144.1999500000003
 30
0.0
 11
507.5
 21
-163.8000500000003
 31
0.0
  0
LINE
  5
153A3
330
1E
100
AcDbEntity
  8
160
  6
Continuous
 62
     3
100
AcDbLine
 10
515.5
 20
-144.1999500000003
 30
0.0
 11
515.5
 21
-163.8000500000003
 31
0.0
  0
LINE
  5
153A4
330
1E
100
AcDbEntity
  8
225
  6
Continuous
 62
     3
100
AcDbLine
 10
487.3999050000001
 20
-154.0000000000004
 30
0.0
 11
531.0000000000003
 21
-154.0000000000004
 31
0.0
  0
LINE
  5
153A5
330
1E
100
AcDbEntity
  8
160
  6
Continuous
 62
     3
100
AcDbLine
 10
507.5
 20
-159.0000000000004
 30
0.0
 11
521.0000000000003
 21
-159.0000000000004
 31
0.0
  0
LINE
  5
153A6
330
1E
100
AcDbEntity
  8
160
  6
Continuous
 62
     3
100
AcDbLine
 10
507.5
 20
-163.19995
 30
0.0
 11
505.0
 21
-163.19995
 31
0.0
  0
LINE
  5
153A7
330
1E
100
AcDbEntity
  8
160
  6
Continuous
 62
     3
100
AcDbLine
 10
515.5
 20
-163.8000500000003
 30
0.0
 11
507.5
 21
-163.8000500000003
 31
0.0
  0
LINE
  5
153A8
330
1E
100
AcDbEntity
  8
160
  6
Continuous
 62
     3
100
AcDbLine
 10
507.5
 20
-149.0000000000003
 30
0.0
 11
521.0000000000003
 21
-149.0000000000003
 31
0.0
  0
LINE
  5
153A9
330
1E
100
AcDbEntity
  8
160
  6
Continuous
 62
     3
100
AcDbLine
 10
507.5
 20
-144.80005
 30
0.0
 11
505.0
 21
-144.80005
 31
0.0
  0
LINE
  5
153AA
330
1E
100
AcDbEntity
  8
160
  6
Continuous
 62
     3
100
AcDbLine
 10
515.5
 20
-144.1999500000003
 30
0.0
 11
507.5
 21
-144.1999500000003
 31
0.0
  0
LINE
  5
1541F
330
1E
100
AcDbEntity
  8
16
100
AcDbLine
 10
185.0
 20
-600.0
 30
0.0
 11
-115.0
 21
-600.0000000000007
 31
0.0
  0
LINE
  5
15433
330
1E
100
AcDbEntity
  8
16
100
AcDbLine
 10
0.0
 20
-780.0
 30
0.0
 11
0.0
 21
-390.0
 31
0.0
  0
LINE
  5
15435
330
1E
100
AcDbEntity
  8
225
  6
Continuous
 62
     3
100
AcDbLine
 10
-50.0
 20
-754.0
 30
0.0
 11
-20.0
 21
-754.0
 31
0.0
  0
LINE
  5
15436
330
1E
100
AcDbEntity
  8
225
  6
Continuous
 62
     3
100
AcDbLine
 10
-35.0
 20
-769.0000000000001
 30
0.0
 11
-35.0
 21
-739.0000000000001
 31
0.0
  0
CIRCLE
  5
15437
330
1E
100
AcDbEntity
  8
160
  6
Continuous
 62
     3
100
AcDbCircle
 10
-35.0
 20
-754.0
 30
0.0
 40
4.5
  0
CIRCLE
  5
15439
330
1E
100
AcDbEntity
  8
160
  6
Continuous
 62
     3
100
AcDbCircle
 10
35.0
 20
-754.0
 30
0.0
 40
4.5
  0
LINE
  5
1543A
330
1E
100
AcDbEntity
  8
225
  6
Continuous
 62
     3
100
AcDbLine
 10
20.0
 20
-754.0
 30
0.0
 11
50.0
 21
-754.0
 31
0.0
  0
LINE
  5
1543B
330
1E
100
AcDbEntity
  8
225
  6
Continuous
 62
     3
100
AcDbLine
 10
35.0
 20
-769.0000000000001
 30
0.0
 11
35.0
 21
-739.0000000000001
 31
0.0
  0
LINE
  5
1543C
330
1E
100
AcDbEntity
  8
225
  6
Continuous
 62
     3
100
AcDbLine
 10
-50.0
 20
-416.0
 30
0.0
 11
-20.0
 21
-416.0
 31
0.0
  0
LINE
  5
1543D
330
1E
100
AcDbEntity
  8
225
  6
Continuous
 62
     3
100
AcDbLine
 10
-35.0
 20
-401.0
 30
0.0
 11
-35.0
 21
-431.0
 31
0.0
  0
CIRCLE
  5
1543E
330
1E
100
AcDbEntity
  8
160
  6
Continuous
 62
     3
100
AcDbCircle
 10
35.0
 20
-416.0
 30
0.0
 40
4.5
210
0.0
220
0.0
230
-1.0
  0
CIRCLE
  5
15442
330
1E
100
AcDbEntity
  8
160
  6
Continuous
 62
     3
100
AcDbCircle
 10
-35.0
 20
-416.0
 30
0.0
 40
4.5
210
0.0
220
0.0
230
-1.0
  0
LINE
  5
15443
330
1E
100
AcDbEntity
  8
225
  6
Continuous
 62
     3
100
AcDbLine
 10
20.0
 20
-416.0
 30
0.0
 11
50.0
 21
-416.0
 31
0.0
  0
LINE
  5
15444
330
1E
100
AcDbEntity
  8
225
  6
Continuous
 62
     3
100
AcDbLine
 10
35.0
 20
-401.0
 30
0.0
 11
35.0
 21
-431.0
 31
0.0
  0
DIMENSION
  5
1551C
330
1E
100
AcDbEntity
  8
30
  6
Continuous
100
AcDbDimension
  2
*D31
 10
35.0
 20
-809.9999999999992
 30
0.0
 11
0.0000000000000004
 21
-803.9999999999992
 31
0.0
 70
    32
  1
 <> 
 71
     5
 42
70.0
  3
STANDARD1
100
AcDbAlignedDimension
 13
-35.0
 23
-769.0000000000001
 33
0.0
 14
35.0
 24
-769.0000000000001
 34
0.0
100
AcDbRotatedDimension
  0
LWPOLYLINE
  5
15532
330
1E
100
AcDbEntity
  8
18
  6
DIVIDE
100
AcDbPolyline
 90
        4
 70
     1
 43
0.0
 10
-105.0
 20
-400.0
 10
175.0
 20
-400.0
 10
175.0
 20
-770.0
 10
-105.0
 20
-770.0
  0
DIMENSION
  5
15733
330
1E
100
AcDbEntity
  8
30
  6
Continuous
100
AcDbDimension
  2
*D34
 10
306.4099999999999
 20
-553.9999999999992
 30
0.0
 11
311.9968486915066
 21
-540.9634736719376
 31
0.0
 70
   164
 71
     5
 42
3.0
  3
STANDARD1
100
AcDbRadialDimension
 15
305.8639554236987
 25
-551.0501126596603
 35
0.0
 40
0.0
  0
DIMENSION
  5
1578D
330
1E
100
AcDbEntity
  8
30
  6
Continuous
100
AcDbDimension
  2
*D35
 10
-151.0214941293895
 20
-170.0
 30
0.0
 11
-157.0214941293895
 21
14.99999999999998
 31
0.0
 70
    32
 71
     5
 42
370.0
  3
STANDARD1
100
AcDbAlignedDimension
 13
-105.0
 23
200.0
 33
0.0
 14
-105.0
 24
-170.0
 34
0.0
 50
90.0
100
AcDbRotatedDimension
  0
SPLINE
  5
158F6
330
1E
100
AcDbEntity
  8
10
  6
DIVIDE
100
AcDbSpline
210
0.0
220
0.0
230
1.0
 70
     8
 71
     3
 72
    12
 73
     8
 74
     0
 42
0.0000000001
 43
0.0000000001
 40
0.0
 40
0.0
 40
0.0
 40
0.0
 40
0.2
 40
0.4
 40
0.6000000000000001
 40
0.8
 40
1.0
 40
1.0
 40
1.0
 40
1.0
 10
-131.8608380551529
 20
-390.9999987028832
 30
0.0
 10
-131.2192364926531
 20
-391.7746569060032
 30
0.0
 10
-129.9355450864033
 20
-393.3239733122531
 30
0.0
 10
-121.9086896176531
 20
-411.7043444060032
 30
0.0
 10
-135.5644513364032
 20
-415.9614244841332
 30
0.0
 10
-121.5668927426531
 20
-424.0180651091332
 30
0.0
 10
-124.4345685239031
 20
-428.6726061247532
 30
0.0
 10
-125.8686505551531
 20
-430.9999987028832
 30
0.0
  0
LINE
  5
158F7
330
1E
100
AcDbEntity
  8
10
  6
DIVIDE
100
AcDbLine
 10
-127.5610199999998
 20
-398.9999999999998
 30
0.0
 11
189.8854649999998
 21
-398.9999999999998
 31
0.0
  0
LINE
  5
158F8
330
1E
100
AcDbEntity
  8
10
  6
DIVIDE
100
AcDbLine
 10
-131.8608400000002
 20
-390.9999999999998
 30
0.0
 11
192.0849627260966
 21
-390.9999987028832
 31
0.0
  0
LINE
  5
158F9
330
1E
100
AcDbEntity
  8
10
  6
DIVIDE
100
AcDbLine
 10
-125.8686499999997
 20
-430.9999999999998
 30
0.0
 11
195.3164080385968
 21
-430.9999987028832
 31
0.0
  0
SPLINE
  5
158FC
330
1E
100
AcDbEntity
  8
10
  6
DIVIDE
100
AcDbSpline
210
0.0
220
0.0
230
1.0
 70
     8
 71
     3
 72
    11
 73
     7
 74
     0
 42
0.0000000001
 43
0.0000000001
 40
0.0
 40
0.0
 40
0.0
 40
0.0
 40
0.25
 40
0.5
 40
0.75
 40
1.0
 40
1.0
 40
1.0
 40
1.0
 10
195.3164080385968
 20
-430.9999987028832
 30
0.0
 10
192.8420428042266
 20
-426.726317062253
 30
0.0
 10
187.8933123354766
 20
-418.1787096403832
 30
0.0
 10
200.9455584292266
 20
-413.1608873747528
 30
0.0
 10
187.3261736635966
 20
-400.2207018278828
 30
0.0
 10
190.4987810854764
 20
-394.0734850310032
 30
0.0
 10
192.0849627260966
 20
-390.9999987028832
 30
0.0
  0
SPLINE
  5
15901
330
1E
100
AcDbEntity
  8
10
  6
DIVIDE
100
AcDbSpline
210
0.0
220
0.0
230
1.0
 70
     8
 71
     3
 72
    11
 73
     7
 74
     0
 42
0.0000000001
 43
0.0000000001
 40
0.0
 40
0.0
 40
0.0
 40
0.0
 40
0.25
 40
0.5
 40
0.75
 40
1.0
 40
1.0
 40
1.0
 40
1.0
 10
195.3164080385968
 20
-738.9999987028833
 30
0.0
 10
192.8420428042266
 20
-743.2736803435131
 30
0.0
 10
187.8933123354766
 20
-751.8212877653833
 30
0.0
 10
200.9455584292266
 20
-756.8391100310131
 30
0.0
 10
187.3261736635966
 20
-769.7792955778831
 30
0.0
 10
190.4987810854764
 20
-775.9265123747632
 30
0.0
 10
192.0849627260966
 20
-778.9999987028831
 30
0.0
  0
LINE
  5
15903
330
1E
100
AcDbEntity
  8
10
  6
DIVIDE
100
AcDbLine
 10
-127.5610199999998
 20
-771.0
 30
0.0
 11
189.8854649999998
 21
-771.0
 31
0.0
  0
SPLINE
  5
15904
330
1E
100
AcDbEntity
  8
10
  6
DIVIDE
100
AcDbSpline
210
0.0
220
0.0
230
1.0
 70
     8
 71
     3
 72
    12
 73
     8
 74
     0
 42
0.0000000001
 43
0.0000000001
 40
0.0
 40
0.0
 40
0.0
 40
0.0
 40
0.2
 40
0.4
 40
0.6000000000000001
 40
0.8
 40
1.0
 40
1.0
 40
1.0
 40
1.0
 10
-131.8608380551529
 20
-778.9999987028831
 30
0.0
 10
-131.2192364926531
 20
-778.2253404997632
 30
0.0
 10
-129.9355450864033
 20
-776.6760240935131
 30
0.0
 10
-121.9086896176531
 20
-758.2956529997631
 30
0.0
 10
-135.5644513364032
 20
-754.0385729216333
 30
0.0
 10
-121.5668927426531
 20
-745.9819322966333
 30
0.0
 10
-124.4345685239031
 20
-741.3273912810132
 30
0.0
 10
-125.8686505551531
 20
-738.9999987028833
 30
0.0
  0
LINE
  5
15905
330
1E
100
AcDbEntity
  8
10
  6
DIVIDE
100
AcDbLine
 10
-125.8686499999997
 20
-739.0
 30
0.0
 11
195.3164080385968
 21
-738.9999987028833
 31
0.0
  0
LINE
  5
15906
330
1E
100
AcDbEntity
  8
10
  6
DIVIDE
100
AcDbLine
 10
-131.8608400000002
 20
-779.0
 30
0.0
 11
192.0849627260966
 21
-778.9999987028831
 31
0.0
  0
VIEWPORT
  5
9AC
330
1A
100
AcDbEntity
 67
     1
  8
0
  6
Continuous
100
AcDbViewport
 10
0.0
 20
0.0
 30
0.0
 40
0.0
 41
0.0
 68
     1
 69
     1
 12
0.0
 22
0.0
 13
0.0
 23
0.0
 14
10.0
 24
10.0
 15
10.0
 25
10.0
 16
0.0
 26
0.0
 36
1.0
 17
0.0
 27
0.0
 37
0.0
 42
50.0
 43
0.0
 44
0.0
 45
0.0
 50
0.0
 51
0.0
 72
   100
 90
    32800
  1

281
     0
 71
     1
 74
     0
110
0.0
120
0.0
130
0.0
111
1.0
121
0.0
131
0.0
112
0.0
122
1.0
132
0.0
 79
     0
146
0.0
  0
VIEWPORT
  5
1213C
330
1A
100
AcDbEntity
 67
     1
  8
30
  6
Continuous
100
AcDbViewport
 10
0.0
 20
0.0
 30
0.0
 40
0.0
 41
0.0
 68
     2
 69
     2
 12
200.7015858897093
 22
-184.5079469532693
 13
0.0
 23
0.0
 14
1.0
 24
1.0
 15
10.0
 25
10.0
 16
0.0
 26
0.0
 36
1.0
 17
0.0
 27
0.0
 37
0.0
 42
50.0
 43
0.0
 44
0.0
 45
1624.666777614301
 50
0.0
 51
0.0
 72
   100
 90
    33568
  1

281
     0
 71
     1
 74
     0
110
0.0
120
0.0
130
0.0
111
1.0
121
0.0
131
0.0
112
0.0
122
1.0
132
0.0
 79
     0
146
0.0
  0
ENDSEC
  0
SECTION
  2
OBJECTS
  0
DICTIONARY
  5
C
330
0
100
AcDbDictionary
281
     1
  3
ACAD_GROUP
350
D
  3
ACAD_LAYOUT
350
19
  3
ACAD_MLINESTYLE
350
16
  3
ACAD_PLOTSETTINGS
350
18
  3
ACAD_PLOTSTYLENAME
350
E
  3
ACDBHEADERROUNDTRIPXREC
350
158B6
  3
ACDBVARIABLEDICTIONARY
350
69C9
  0
DICTIONARY
  5
178
330
1E
100
AcDbDictionary
280
     1
281
     1
  3
ACAD_LAYOUTSELFREF
360
7AD3
  0
DICTIONARY
  5
17A
330
1A
100
AcDbDictionary
280
     1
281
     1
  3
ACAD_LAYOUTSELFREF
360
7AD2
  0
DICTIONARY
  5
D
102
{ACAD_REACTORS
330
C
102
}
330
C
100
AcDbDictionary
281
     1
  0
DICTIONARY
  5
19
102
{ACAD_REACTORS
330
C
102
}
330
C
100
AcDbDictionary
281
     1
  3
Model
350
7AE4
  3
ﾚｲｱｳﾄ1
350
7AE5
  0
DICTIONARY
  5
16
102
{ACAD_REACTORS
330
C
102
}
330
C
100
AcDbDictionary
281
     1
  3
STANDARD
350
17
  0
DICTIONARY
  5
18
102
{ACAD_REACTORS
330
C
102
}
330
C
100
AcDbDictionary
281
     1
  0
ACDBDICTIONARYWDFLT
  5
E
102
{ACAD_REACTORS
330
C
102
}
330
C
100
AcDbDictionary
281
     1
  3
Normal
350
F
100
AcDbDictionaryWithDefault
340
F
  0
DICTIONARY
  5
158B6
102
{ACAD_REACTORS
330
C
102
}
330
C
100
AcDbDictionary
281
     1
  3
CEPSNTYPE
350
158C0
  3
DIMSTYLEDATA
350
158C4
  3
FINGERPRINTGUID
350
158C1
  3
HYPERLINKBASE
350
158B9
  3
INSUNITS
350
158BF
  3
LAYOUTDICT
350
158BB
  3
LWETCUNION
350
158BE
  3
PLOTSETDICT
350
158BC
  3
PLOTSTYLNAMDICT
350
158BD
  3
PSVPSCALE
350
158C3
  3
PUCSBASE
350
158C7
  3
PUCSORGBACK
350
158CD
  3
PUCSORGBOTTOM
350
158C9
  3
PUCSORGFRONT
350
158CC
  3
PUCSORGLEFT
350
158CA
  3
PUCSORGRIGHT
350
158CB
  3
PUCSORGTOP
350
158C8
  3
PUCSORTHOREF
350
158C5
  3
PUCSORTHOVIEW
350
158C6
  3
STYLESHEET
350
158BA
  3
TSTACKALIGN
350
158B7
  3
TSTACKSIZE
350
158B8
  3
UCSBASE
350
158D0
  3
UCSORGBACK
350
158D6
  3
UCSORGBOTTOM
350
158D2
  3
UCSORGFRONT
350
158D5
  3
UCSORGLEFT
350
158D3
  3
UCSORGRIGHT
350
158D4
  3
UCSORGTOP
350
158D1
  3
UCSORTHOREF
350
158CE
  3
UCSORTHOVIEW
350
158CF
  3
VERSIONGUID
350
158C2
  0
DICTIONARY
  5
69C9
102
{ACAD_REACTORS
330
C
102
}
330
C
100
AcDbDictionary
281
     1
  3
DIMASSOC
350
69CA
  3
SORTENTS
350
F572
  0
XRECORD
  5
7AD3
102
{ACAD_REACTORS
330
178
102
}
330
178
100
AcDbXrecord
280
     1
340
1E
  0
XRECORD
  5
7AD2
102
{ACAD_REACTORS
330
17A
102
}
330
17A
100
AcDbXrecord
280
     1
340
1A
  0
LAYOUT
  5
7AE4
102
{ACAD_REACTORS
330
19
102
}
330
19
100
AcDbPlotSettings
  1

  2
\\NEW_GMMCAD\Canon LBP3800 LIPSLX
  4
A4
  6
OLE1
 40
5.873749732971191
 41
5.873747825622558
 42
5.873748779296875
 43
5.873748779296875
 44
209.9733276367187
 45
296.9259948730469
 46
39.72999999999999
 47
43.75
 48
0.0
 49
0.0
140
0.0
141
0.0
142
1.0
143
7.5
 70
 11940
 72
     1
 73
     0
 74
     1
  7
monochrome.ctb
 75
     0
147
0.1333333333333333
148
160.0886342149328
149
810.5995103782033
100
AcDbLayout
  1
Model
 70
     1
 71
     0
 10
0.0
 20
0.0
 11
12.0
 21
9.0
 12
0.0
 22
0.0
 32
0.0
 14
0.0
 24
0.0
 34
0.0
 15
0.0
 25
0.0
 35
0.0
146
0.0
 13
0.0
 23
0.0
 33
0.0
 16
1.0
 26
0.0
 36
0.0
 17
0.0
 27
1.0
 37
0.0
 76
     0
330
1E
  0
LAYOUT
  5
7AE5
102
{ACAD_REACTORS
330
19
102
}
330
19
100
AcDbPlotSettings
  1

  2
LBP5400
  4

  6

 40
0.0
 41
0.0
 42
0.0
 43
0.0
 44
0.0
 45
0.0
 46
0.0
 47
0.0
 48
0.0
 49
0.0
140
0.0
141
0.0
142
1.0
143
1.0
 70
   688
 72
     0
 73
     1
 74
     1
  7
monochrome.stb
 75
     0
147
1.0
148
0.0
149
0.0
100
AcDbLayout
  1
ﾚｲｱｳﾄ1
 70
     1
 71
     1
 10
0.0
 20
0.0
 11
0.0
 21
0.0
 12
0.0
 22
0.0
 32
0.0
 14
0.0
 24
0.0
 34
0.0
 15
0.0
 25
0.0
 35
0.0
146
0.0
 13
0.0
 23
0.0
 33
0.0
 16
1.0
 26
0.0
 36
0.0
 17
0.0
 27
1.0
 37
0.0
 76
     0
330
1A
331
9AC
  0
MLINESTYLE
  5
17
102
{ACAD_REACTORS
330
16
102
}
330
16
100
AcDbMlineStyle
  2
STANDARD
 70
     0
  3

 62
   256
 51
90.0
 52
90.0
 71
     2
 49
0.5
 62
   256
  6
BYLAYER
 49
-0.5
 62
   256
  6
BYLAYER
  0
ACDBPLACEHOLDER
  5
F
102
{ACAD_REACTORS
330
E
102
}
330
E
  0
XRECORD
  5
158C0
102
{ACAD_REACTORS
330
158B6
102
}
330
158B6
100
AcDbXrecord
280
     1
 90
        0
  0
XRECORD
  5
158C4
102
{ACAD_REACTORS
330
158B6
102
}
330
158B6
100
AcDbXrecord
280
     1
1000
DSTYLE
1002
{
1070
   289
 70
     2
1070
   341
340
3B2
1070
   342
340
3B2
1002
}
  0
XRECORD
  5
158C1
102
{ACAD_REACTORS
330
158B6
102
}
330
158B6
100
AcDbXrecord
280
     1
  1

  0
XRECORD
  5
158B9
102
{ACAD_REACTORS
330
158B6
102
}
330
158B6
100
AcDbXrecord
280
     1
  1

  0
XRECORD
  5
158BF
102
{ACAD_REACTORS
330
158B6
102
}
330
158B6
100
AcDbXrecord
280
     1
 90
        0
  0
XRECORD
  5
158BB
102
{ACAD_REACTORS
330
158B6
102
}
330
158B6
100
AcDbXrecord
280
     1
340
19
  0
XRECORD
  5
158BE
102
{ACAD_REACTORS
330
158B6
102
}
330
158B6
100
AcDbXrecord
280
     1
 90
    10781
  0
XRECORD
  5
158BC
102
{ACAD_REACTORS
330
158B6
102
}
330
158B6
100
AcDbXrecord
280
     1
340
18
  0
XRECORD
  5
158BD
102
{ACAD_REACTORS
330
158B6
102
}
330
158B6
100
AcDbXrecord
280
     1
340
E
  0
XRECORD
  5
158C3
102
{ACAD_REACTORS
330
158B6
102
}
330
158B6
100
AcDbXrecord
280
     1
 40
0.0
  0
XRECORD
  5
158C7
102
{ACAD_REACTORS
330
158B6
102
}
330
158B6
100
AcDbXrecord
280
     1
340
0
  0
XRECORD
  5
158CD
102
{ACAD_REACTORS
330
158B6
102
}
330
158B6
100
AcDbXrecord
280
     1
 10
0.0
 20
0.0
 30
0.0
  0
XRECORD
  5
158C9
102
{ACAD_REACTORS
330
158B6
102
}
330
158B6
100
AcDbXrecord
280
     1
 10
0.0
 20
0.0
 30
0.0
  0
XRECORD
  5
158CC
102
{ACAD_REACTORS
330
158B6
102
}
330
158B6
100
AcDbXrecord
280
     1
 10
0.0
 20
0.0
 30
0.0
  0
XRECORD
  5
158CA
102
{ACAD_REACTORS
330
158B6
102
}
330
158B6
100
AcDbXrecord
280
     1
 10
0.0
 20
0.0
 30
0.0
  0
XRECORD
  5
158CB
102
{ACAD_REACTORS
330
158B6
102
}
330
158B6
100
AcDbXrecord
280
     1
 10
0.0
 20
0.0
 30
0.0
  0
XRECORD
  5
158C8
102
{ACAD_REACTORS
330
158B6
102
}
330
158B6
100
AcDbXrecord
280
     1
 10
0.0
 20
0.0
 30
0.0
  0
XRECORD
  5
158C5
102
{ACAD_REACTORS
330
158B6
102
}
330
158B6
100
AcDbXrecord
280
     1
340
0
  0
XRECORD
  5
158C6
102
{ACAD_REACTORS
330
158B6
102
}
330
158B6
100
AcDbXrecord
280
     1
 70
     0
  0
XRECORD
  5
158BA
102
{ACAD_REACTORS
330
158B6
102
}
330
158B6
100
AcDbXrecord
280
     1
  1
monochrome.ctb
  0
XRECORD
  5
158B7
102
{ACAD_REACTORS
330
158B6
102
}
330
158B6
100
AcDbXrecord
280
     1
 90
        1
  0
XRECORD
  5
158B8
102
{ACAD_REACTORS
330
158B6
102
}
330
158B6
100
AcDbXrecord
280
     1
 90
       70
  0
XRECORD
  5
158D0
102
{ACAD_REACTORS
330
158B6
102
}
330
158B6
100
AcDbXrecord
280
     1
340
0
  0
XRECORD
  5
158D6
102
{ACAD_REACTORS
330
158B6
102
}
330
158B6
100
AcDbXrecord
280
     1
 10
0.0
 20
0.0
 30
0.0
  0
XRECORD
  5
158D2
102
{ACAD_REACTORS
330
158B6
102
}
330
158B6
100
AcDbXrecord
280
     1
 10
0.0
 20
0.0
 30
0.0
  0
XRECORD
  5
158D5
102
{ACAD_REACTORS
330
158B6
102
}
330
158B6
100
AcDbXrecord
280
     1
 10
0.0
 20
0.0
 30
0.0
  0
XRECORD
  5
158D3
102
{ACAD_REACTORS
330
158B6
102
}
330
158B6
100
AcDbXrecord
280
     1
 10
0.0
 20
0.0
 30
0.0
  0
XRECORD
  5
158D4
102
{ACAD_REACTORS
330
158B6
102
}
330
158B6
100
AcDbXrecord
280
     1
 10
0.0
 20
0.0
 30
0.0
  0
XRECORD
  5
158D1
102
{ACAD_REACTORS
330
158B6
102
}
330
158B6
100
AcDbXrecord
280
     1
 10
0.0
 20
0.0
 30
0.0
  0
XRECORD
  5
158CE
102
{ACAD_REACTORS
330
158B6
102
}
330
158B6
100
AcDbXrecord
280
     1
340
0
  0
XRECORD
  5
158CF
102
{ACAD_REACTORS
330
158B6
102
}
330
158B6
100
AcDbXrecord
280
     1
 70
     0
  0
XRECORD
  5
158C2
102
{ACAD_REACTORS
330
158B6
102
}
330
158B6
100
AcDbXrecord
280
     1
  1
{2F107A5E-007C-48EF-AD46-8D6505CCB094}
  0
DICTIONARYVAR
  5
69CA
102
{ACAD_REACTORS
330
69C9
102
}
330
69C9
100
DictionaryVariables
280
     0
  1
1
  0
DICTIONARYVAR
  5
F572
102
{ACAD_REACTORS
330
69C9
102
}
330
69C9
100
DictionaryVariables
280
     0
  1
96
  0
ENDSEC
  0
EOF
