  0
SECTION
  2
HEADER
  9
$ACADVER
  1
AC1015
  9
$ACADMAINTVER
 70
    10
  9
$DWGCODEPAGE
  3
ANSI_932
  9
$INSBASE
 10
0.0
 20
0.0
 30
0.0
  9
$EXTMIN
 10
-270.7999999999998
 20
-870.0
 30
0.0
  9
$EXTMAX
 10
941.0
 20
902.8958749999997
 30
0.0
  9
$LIMMIN
 10
-396.0
 20
-1187.0
  9
$LIMMAX
 10
1243.0
 20
1822.0
  9
$ORTHOMODE
 70
     1
  9
$REGENMODE
 70
     1
  9
$FILLMODE
 70
     1
  9
$QTEXTMODE
 70
     0
  9
$MIRRTEXT
 70
     1
  9
$LTSCALE
 40
20.0
  9
$ATTMODE
 70
     1
  9
$TEXTSIZE
 40
5.0
  9
$TRACEWID
 40
0.05
  9
$TEXTSTYLE
  7
STANDARD1
  9
$CLAYER
  8
30
  9
$CELTYPE
  6
CONTINUOUS
  9
$CECOLOR
 62
   256
  9
$CELTSCALE
 40
1.0
  9
$DISPSILH
 70
     0
  9
$DIMSCALE
 40
1.199999999999999
  9
$DIMASZ
 40
2.0
  9
$DIMEXO
 40
3.0
  9
$DIMDLI
 40
0.5
  9
$DIMRND
 40
0.0
  9
$DIMDLE
 40
0.0
  9
$DIMEXE
 40
0.5
  9
$DIMTP
 40
0.0
  9
$DIMTM
 40
0.0
  9
$DIMTXT
 40
6.0
  9
$DIMCEN
 40
0.09
  9
$DIMTSZ
 40
0.0
  9
$DIMTOL
 70
     0
  9
$DIMLIM
 70
     0
  9
$DIMTIH
 70
     0
  9
$DIMTOH
 70
     1
  9
$DIMSE1
 70
     0
  9
$DIMSE2
 70
     0
  9
$DIMTAD
 70
     3
  9
$DIMZIN
 70
    12
  9
$DIMBLK
  1
OPEN
  9
$DIMASO
 70
     1
  9
$DIMSHO
 70
     1
  9
$DIMPOST
  1

  9
$DIMAPOST
  1

  9
$DIMALT
 70
     0
  9
$DIMALTD
 70
     2
  9
$DIMALTF
 40
25.4
  9
$DIMLFAC
 40
1.0
  9
$DIMTOFL
 70
     0
  9
$DIMTVP
 40
0.0
  9
$DIMTIX
 70
     0
  9
$DIMSOXD
 70
     0
  9
$DIMSAH
 70
     0
  9
$DIMBLK1
  1

  9
$DIMBLK2
  1

  9
$DIMSTYLE
  2
STANDARD1
  9
$DIMCLRD
 70
     0
  9
$DIMCLRE
 70
     0
  9
$DIMCLRT
 70
     0
  9
$DIMTFAC
 40
1.0
  9
$DIMGAP
 40
3.0
  9
$DIMJUST
 70
     0
  9
$DIMSD1
 70
     0
  9
$DIMSD2
 70
     0
  9
$DIMTOLJ
 70
     1
  9
$DIMTZIN
 70
     0
  9
$DIMALTZ
 70
     0
  9
$DIMALTTZ
 70
     0
  9
$DIMUPT
 70
     0
  9
$DIMDEC
 70
     1
  9
$DIMTDEC
 70
     1
  9
$DIMALTU
 70
     2
  9
$DIMALTTD
 70
     2
  9
$DIMTXSTY
  7
STANDARD
  9
$DIMAUNIT
 70
     0
  9
$DIMADEC
 70
     0
  9
$DIMALTRND
 40
0.0
  9
$DIMAZIN
 70
     0
  9
$DIMDSEP
 70
    46
  9
$DIMATFIT
 70
     2
  9
$DIMFRAC
 70
     0
  9
$DIMLDRBLK
  1
OPEN
  9
$DIMLUNIT
 70
     2
  9
$DIMLWD
 70
    -2
  9
$DIMLWE
 70
    -2
  9
$DIMTMOVE
 70
     0
  9
$LUNITS
 70
     2
  9
$LUPREC
 70
     4
  9
$SKETCHINC
 40
0.1
  9
$FILLETRAD
 40
0.0
  9
$AUNITS
 70
     0
  9
$AUPREC
 70
     0
  9
$MENU
  1
.
  9
$ELEVATION
 40
0.0
  9
$PELEVATION
 40
0.0
  9
$THICKNESS
 40
0.0
  9
$LIMCHECK
 70
     0
  9
$CHAMFERA
 40
0.0
  9
$CHAMFERB
 40
0.0
  9
$CHAMFERC
 40
0.0
  9
$CHAMFERD
 40
0.0
  9
$SKPOLY
 70
     0
  9
$TDCREATE
 40
2452286.555658657
  9
$TDUCREATE
 40
2452286.180658657
  9
$TDUPDATE
 40
2456086.714387835
  9
$TDUUPDATE
 40
2456086.339387835
  9
$TDINDWG
 40
2.1618698843
  9
$TDUSRTIMER
 40
2.1618675347
  9
$USRTIMER
 70
     1
  9
$ANGBASE
 50
0.0
  9
$ANGDIR
 70
     0
  9
$PDMODE
 70
     0
  9
$PDSIZE
 40
0.0
  9
$PLINEWID
 40
0.0
  9
$SPLFRAME
 70
     0
  9
$SPLINETYPE
 70
     6
  9
$SPLINESEGS
 70
     8
  9
$HANDSEED
  5
11CEA
  9
$SURFTAB1
 70
     6
  9
$SURFTAB2
 70
     6
  9
$SURFTYPE
 70
     6
  9
$SURFU
 70
     6
  9
$SURFV
 70
     6
  9
$UCSBASE
  2

  9
$UCSNAME
  2

  9
$UCSORG
 10
0.0
 20
0.0
 30
0.0
  9
$UCSXDIR
 10
1.0
 20
0.0
 30
0.0
  9
$UCSYDIR
 10
0.0
 20
1.0
 30
0.0
  9
$UCSORTHOREF
  2

  9
$UCSORTHOVIEW
 70
     0
  9
$UCSORGTOP
 10
0.0
 20
0.0
 30
0.0
  9
$UCSORGBOTTOM
 10
0.0
 20
0.0
 30
0.0
  9
$UCSORGLEFT
 10
0.0
 20
0.0
 30
0.0
  9
$UCSORGRIGHT
 10
0.0
 20
0.0
 30
0.0
  9
$UCSORGFRONT
 10
0.0
 20
0.0
 30
0.0
  9
$UCSORGBACK
 10
0.0
 20
0.0
 30
0.0
  9
$PUCSBASE
  2

  9
$PUCSNAME
  2

  9
$PUCSORG
 10
0.0
 20
0.0
 30
0.0
  9
$PUCSXDIR
 10
1.0
 20
0.0
 30
0.0
  9
$PUCSYDIR
 10
0.0
 20
1.0
 30
0.0
  9
$PUCSORTHOREF
  2

  9
$PUCSORTHOVIEW
 70
     0
  9
$PUCSORGTOP
 10
0.0
 20
0.0
 30
0.0
  9
$PUCSORGBOTTOM
 10
0.0
 20
0.0
 30
0.0
  9
$PUCSORGLEFT
 10
0.0
 20
0.0
 30
0.0
  9
$PUCSORGRIGHT
 10
0.0
 20
0.0
 30
0.0
  9
$PUCSORGFRONT
 10
0.0
 20
0.0
 30
0.0
  9
$PUCSORGBACK
 10
0.0
 20
0.0
 30
0.0
  9
$USERI1
 70
     0
  9
$USERI2
 70
     0
  9
$USERI3
 70
     0
  9
$USERI4
 70
     0
  9
$USERI5
 70
     0
  9
$USERR1
 40
0.0
  9
$USERR2
 40
0.0
  9
$USERR3
 40
0.0
  9
$USERR4
 40
0.0
  9
$USERR5
 40
0.0
  9
$WORLDVIEW
 70
     1
  9
$SHADEDGE
 70
     3
  9
$SHADEDIF
 70
    70
  9
$TILEMODE
 70
     1
  9
$MAXACTVP
 70
    48
  9
$PINSBASE
 10
0.0
 20
0.0
 30
0.0
  9
$PLIMCHECK
 70
     0
  9
$PEXTMIN
 10
4.273573370203961
 20
5.205246163471485
 30
0.0
  9
$PEXTMAX
 10
194.6100952986349
 20
283.0697008572913
 30
0.0
  9
$PLIMMIN
 10
-5.873748779296875
 20
-5.873749732971191
  9
$PLIMMAX
 10
204.0995788574218
 20
291.1369009017943
  9
$UNITMODE
 70
     0
  9
$VISRETAIN
 70
     1
  9
$PLINEGEN
 70
     0
  9
$PSLTSCALE
 70
     1
  9
$TREEDEPTH
 70
  3020
  9
$CMLSTYLE
  2
STANDARD
  9
$CMLJUST
 70
     0
  9
$CMLSCALE
 40
1.0
  9
$PROXYGRAPHICS
 70
     1
  9
$MEASUREMENT
 70
     0
  9
$CELWEIGHT
370
    -1
  9
$ENDCAPS
280
     0
  9
$JOINSTYLE
280
     0
  9
$LWDISPLAY
290
     0
  9
$INSUNITS
 70
     0
  9
$HYPERLINKBASE
  1

  9
$STYLESHEET
  1
MONOCHROME.CTB
  9
$XEDIT
290
     1
  9
$CEPSNTYPE
380
     0
  9
$PSTYLEMODE
290
     1
  9
$FINGERPRINTGUID
  2

  9
$VERSIONGUID
  2
{8E2DA77E-12A3-43D6-B1C9-F193219E9CC4}
  9
$EXTNAMES
290
     1
  9
$PSVPSCALE
 40
0.0
  9
$OLESTARTUP
290
     0
  0
ENDSEC
  0
SECTION
  2
CLASSES
  0
CLASS
  1
ACDBDICTIONARYWDFLT
  2
AcDbDictionaryWithDefault
  3
AutoCAD 2000
 90
        0
280
     0
281
     0
  0
CLASS
  1
ACDBPLACEHOLDER
  2
AcDbPlaceHolder
  3
AutoCAD 2000
 90
        0
280
     0
281
     0
  0
CLASS
  1
LAYOUT
  2
AcDbLayout
  3
AutoCAD 2000
 90
        0
280
     0
281
     0
  0
CLASS
  1
DICTIONARYVAR
  2
AcDbDictionaryVar
  3
AutoCAD 2000
 90
        0
280
     0
281
     0
  0
CLASS
  1
MATERIAL
  2
AcDbMaterial
  3
ObjectDBX Classes
 90
     1153
280
     0
281
     0
  0
CLASS
  1
VISUALSTYLE
  2
AcDbVisualStyle
  3
ObjectDBX Classes
 90
     4095
280
     0
281
     0
  0
CLASS
  1
TABLESTYLE
  2
AcDbTableStyle
  3
ObjectDBX Classes
 90
     4095
280
     0
281
     0
  0
CLASS
  1
SCALE
  2
AcDbScale
  3
ObjectDBX Classes
 90
     1153
280
     0
281
     0
  0
CLASS
  1
MLEADERSTYLE
  2
AcDbMLeaderStyle
  3
ACDB_MLEADERSTYLE_CLASS
 90
     4095
280
     0
281
     0
  0
CLASS
  1
CELLSTYLEMAP
  2
AcDbCellStyleMap
  3
ObjectDBX Classes
 90
     1152
280
     0
281
     0
  0
ENDSEC
  0
SECTION
  2
TABLES
  0
TABLE
  2
VPORT
  5
8
330
0
100
AcDbSymbolTable
 70
     2
  0
VPORT
  5
11CE9
330
8
100
AcDbSymbolTableRecord
100
AcDbViewportTableRecord
  2
*Active
 70
     0
 10
0.0
 20
0.0
 11
1.0
 21
1.0
 12
650.4999999999999
 22
683.4999999999999
 13
0.0
 23
0.0
 14
1.0
 24
1.0
 15
10.0
 25
10.0
 16
0.0
 26
0.0
 36
1.0
 17
0.0
 27
0.0
 37
0.0
 40
355.0
 41
1.614711033274956
 42
50.0
 43
0.0
 44
0.0
 50
0.0
 51
0.0
 71
     0
 72
   100
 73
     1
 74
     1
 75
     1
 76
     0
 77
     0
 78
     0
281
     0
 65
     1
110
0.0
120
0.0
130
0.0
111
1.0
121
0.0
131
0.0
112
0.0
122
1.0
132
0.0
 79
     0
146
0.0
  0
ENDTAB
  0
TABLE
  2
LTYPE
  5
5
330
0
100
AcDbSymbolTable
 70
     8
  0
LTYPE
  5
13
330
5
100
AcDbSymbolTableRecord
100
AcDbLinetypeTableRecord
  2
BYBLOCK
 70
     0
  3

 72
    65
 73
     0
 40
0.0
  0
LTYPE
  5
14
330
5
100
AcDbSymbolTableRecord
100
AcDbLinetypeTableRecord
  2
BYLAYER
 70
     0
  3

 72
    65
 73
     0
 40
0.0
  0
LTYPE
  5
15
330
5
100
AcDbSymbolTableRecord
100
AcDbLinetypeTableRecord
  2
CONTINUOUS
 70
     0
  3
Solid line
 72
    65
 73
     0
 40
0.0
  0
LTYPE
  5
22
330
5
100
AcDbSymbolTableRecord
100
AcDbLinetypeTableRecord
  2
CONTINOUS
 70
     0
  3
Solid line
 72
    65
 73
     0
 40
0.0
  0
LTYPE
  5
24
330
5
100
AcDbSymbolTableRecord
100
AcDbLinetypeTableRecord
  2
DASHDOT
 70
     0
  3
__ . __ . __ . __ . __ . __ . __ . __ . __ . __
 72
    65
 73
     4
 40
1.0
 49
0.5
 74
     0
 49
-0.25
 74
     0
 49
0.0
 74
     0
 49
-0.25
 74
     0
  0
LTYPE
  5
4C47
330
5
100
AcDbSymbolTableRecord
100
AcDbLinetypeTableRecord
  2
DIVIDE
 70
     0
  3
Divide ____ . . ____ . . ____ . . ____ . . ____
 72
    65
 73
     6
 40
1.25
 49
0.5
 74
     0
 49
-0.25
 74
     0
 49
0.0
 74
     0
 49
-0.25
 74
     0
 49
0.0
 74
     0
 49
-0.25
 74
     0
  0
LTYPE
  5
9BE3
330
5
100
AcDbSymbolTableRecord
100
AcDbLinetypeTableRecord
  2
D329
 70
     0
  3
IGESIN-LineFont-D329
 72
    65
 73
     2
 40
1.35
 49
0.75
 74
     0
 49
-0.6
 74
     0
  0
LTYPE
  5
9BE4
330
5
100
AcDbSymbolTableRecord
100
AcDbLinetypeTableRecord
  2
CENTER
 70
     0
  3
____ _ ____ _ ____ _ ____
 72
    65
 73
     4
 40
2.0
 49
1.25
 74
     0
 49
-0.25
 74
     0
 49
0.25
 74
     0
 49
-0.25
 74
     0
  0
LTYPE
  5
9BE5
330
5
100
AcDbSymbolTableRecord
100
AcDbLinetypeTableRecord
  2
PHANTOM
 70
     0
  3
____ _ _ ____ _ _ _____ _ _ ____
 72
    65
 73
     6
 40
2.5
 49
1.25
 74
     0
 49
-0.25
 74
     0
 49
0.25
 74
     0
 49
-0.25
 74
     0
 49
0.25
 74
     0
 49
-0.25
 74
     0
  0
LTYPE
  5
11BD4
330
5
100
AcDbSymbolTableRecord
100
AcDbLinetypeTableRecord
  2
DASHED
 70
     0
  3
__ __ __ __ __ __ __ __ __
 72
    65
 73
     2
 40
0.75
 49
0.5
 74
     0
 49
-0.25
 74
     0
  0
ENDTAB
  0
TABLE
  2
LAYER
  5
2
330
0
100
AcDbSymbolTable
 70
    21
  0
LAYER
  5
10
102
{ACAD_XDICTIONARY
360
11C7B
102
}
330
2
100
AcDbSymbolTableRecord
100
AcDbLayerTableRecord
  2
0
 70
     0
 62
     7
  6
CONTINOUS
370
    -3
390
F
  0
LAYER
  5
2F
102
{ACAD_XDICTIONARY
360
11C7D
102
}
330
2
100
AcDbSymbolTableRecord
100
AcDbLayerTableRecord
  2
10
 70
     0
 62
     4
  6
CONTINOUS
370
    -3
390
F
  0
LAYER
  5
31
102
{ACAD_XDICTIONARY
360
11C7F
102
}
330
2
100
AcDbSymbolTableRecord
100
AcDbLayerTableRecord
  2
12
 70
     0
 62
     3
  6
CONTINOUS
370
    -3
390
F
  0
LAYER
  5
35
102
{ACAD_XDICTIONARY
360
11C81
102
}
330
2
100
AcDbSymbolTableRecord
100
AcDbLayerTableRecord
  2
16
 70
     0
 62
     6
  6
DASHDOT
370
    -3
390
F
  0
LAYER
  5
38
102
{ACAD_XDICTIONARY
360
11C83
102
}
330
2
100
AcDbSymbolTableRecord
100
AcDbLayerTableRecord
  2
19
 70
     0
 62
     7
  6
CONTINOUS
370
    -3
390
F
  0
LAYER
  5
3C
102
{ACAD_XDICTIONARY
360
11C85
102
}
330
2
100
AcDbSymbolTableRecord
100
AcDbLayerTableRecord
  2
11
 70
     0
 62
     1
  6
CONTINOUS
370
    -3
390
F
  0
LAYER
  5
3D
102
{ACAD_XDICTIONARY
360
11C87
102
}
330
2
100
AcDbSymbolTableRecord
100
AcDbLayerTableRecord
  2
24
 70
     0
 62
     2
  6
CONTINOUS
370
    -3
390
F
  0
LAYER
  5
3A2
102
{ACAD_XDICTIONARY
360
11C89
102
}
330
2
100
AcDbSymbolTableRecord
100
AcDbLayerTableRecord
  2
30
 70
     0
 62
     9
  6
CONTINUOUS
370
    -3
390
F
  0
LAYER
  5
3A4
330
2
100
AcDbSymbolTableRecord
100
AcDbLayerTableRecord
  2
DEFPOINTS
 70
     0
 62
     7
  6
CONTINUOUS
290
     0
370
    -3
390
F
  0
LAYER
  5
3BBA
102
{ACAD_XDICTIONARY
360
11C8B
102
}
330
2
100
AcDbSymbolTableRecord
100
AcDbLayerTableRecord
  2
18
 70
     0
 62
     5
  6
DIVIDE
370
    -3
390
F
  0
LAYER
  5
3BBB
102
{ACAD_XDICTIONARY
360
11C8D
102
}
330
2
100
AcDbSymbolTableRecord
100
AcDbLayerTableRecord
  2
21
 70
     0
 62
     7
  6
CONTINUOUS
370
    -3
390
F
  0
LAYER
  5
7355
102
{ACAD_XDICTIONARY
360
11C8F
102
}
330
2
100
AcDbSymbolTableRecord
100
AcDbLayerTableRecord
  2
1
 70
     0
 62
     7
  6
CONTINUOUS
370
    -3
390
F
  0
LAYER
  5
970E
102
{ACAD_XDICTIONARY
360
11C91
102
}
330
2
100
AcDbSymbolTableRecord
100
AcDbLayerTableRecord
  2
17
 70
     0
 62
     2
  6
DASHDOT
370
    -3
390
F
  0
LAYER
  5
9BE6
102
{ACAD_XDICTIONARY
360
11C93
102
}
330
2
100
AcDbSymbolTableRecord
100
AcDbLayerTableRecord
  2
L0_
 70
     0
 62
     7
  6
CONTINUOUS
370
    -3
390
F
  0
LAYER
  5
9BE7
102
{ACAD_XDICTIONARY
360
11C95
102
}
330
2
100
AcDbSymbolTableRecord
100
AcDbLayerTableRecord
  2
L150_
 70
     0
 62
     7
  6
CONTINUOUS
370
    -3
390
F
  0
LAYER
  5
9BE8
102
{ACAD_XDICTIONARY
360
11C97
102
}
330
2
100
AcDbSymbolTableRecord
100
AcDbLayerTableRecord
  2
225
 70
     0
 62
     7
  6
CONTINUOUS
370
    -3
390
F
  0
LAYER
  5
9BE9
102
{ACAD_XDICTIONARY
360
11C99
102
}
330
2
100
AcDbSymbolTableRecord
100
AcDbLayerTableRecord
  2
161
 70
     0
 62
     7
  6
CONTINUOUS
370
    -3
390
F
  0
LAYER
  5
9BEA
102
{ACAD_XDICTIONARY
360
11C9B
102
}
330
2
100
AcDbSymbolTableRecord
100
AcDbLayerTableRecord
  2
160
 70
     0
 62
     7
  6
CONTINUOUS
370
    -3
390
F
  0
LAYER
  5
9BEB
102
{ACAD_XDICTIONARY
360
11C9D
102
}
330
2
100
AcDbSymbolTableRecord
100
AcDbLayerTableRecord
  2
150
 70
     0
 62
     7
  6
CONTINUOUS
370
    -3
390
F
  0
LAYER
  5
9BEC
102
{ACAD_XDICTIONARY
360
11C9F
102
}
330
2
100
AcDbSymbolTableRecord
100
AcDbLayerTableRecord
  2
151
 70
     0
 62
     7
  6
CONTINUOUS
370
    -3
390
F
  0
LAYER
  5
9BED
102
{ACAD_XDICTIONARY
360
11CA1
102
}
330
2
100
AcDbSymbolTableRecord
100
AcDbLayerTableRecord
  2
210
 70
     0
 62
     7
  6
CONTINUOUS
370
    -3
390
F
  0
ENDTAB
  0
TABLE
  2
STYLE
  5
3
330
0
100
AcDbSymbolTable
 70
     3
  0
STYLE
  5
11
330
3
100
AcDbSymbolTableRecord
100
AcDbTextStyleTableRecord
  2
STANDARD
 70
     0
 40
0.0
 41
1.0
 50
0.0
 71
     0
 42
2.0
  3
txt.shx
  4
bigfont.shx
  0
STYLE
  5
42
330
3
100
AcDbSymbolTableRecord
100
AcDbTextStyleTableRecord
  2
STANDARD1
 70
     0
 40
0.0
 41
1.0
 50
0.0
 71
     0
 42
5.0
  3
MONOTXT
  4
BIGFONT
  0
STYLE
  5
9BEE
330
3
100
AcDbSymbolTableRecord
100
AcDbTextStyleTableRecord
  2
blockfont
 70
     0
 40
0.0
 41
1.0
 50
0.0
 71
     0
 42
0.2
  3
simplex.shx
  4
bigfont
  0
ENDTAB
  0
TABLE
  2
VIEW
  5
6
330
0
100
AcDbSymbolTable
 70
     3
  0
VIEW
  5
230C
330
6
100
AcDbSymbolTableRecord
100
AcDbViewTableRecord
  2
OLE1
 70
     0
 40
148.9124878027714
 10
429.4976280407222
 20
2.560626997828478
 41
103.1458057716444
 11
0.0
 21
0.0
 31
1.0
 12
0.0
 22
0.0
 32
0.0
 42
50.0
 43
0.0
 44
0.0
 50
0.0
 71
     0
281
     0
 72
     0
  0
VIEW
  5
230E
330
6
100
AcDbSymbolTableRecord
100
AcDbViewTableRecord
  2
OLE2
 70
     0
 40
170.7786920545775
 10
322.664969958371
 20
-5.978304054290276
 41
102.4672152327465
 11
0.0
 21
0.0
 31
1.0
 12
0.0
 22
0.0
 32
0.0
 42
50.0
 43
0.0
 44
0.0
 50
0.0
 71
     0
281
     0
 72
     0
  0
VIEW
  5
23AA
330
6
100
AcDbSymbolTableRecord
100
AcDbViewTableRecord
  2
OLE3
 70
     0
 40
591.7897393182231
 10
84.79698158148218
 20
-46.09336010803995
 41
388.7920961799953
 11
0.0
 21
0.0
 31
1.0
 12
0.0
 22
0.0
 32
0.0
 42
50.0
 43
0.0
 44
0.0
 50
0.0
 71
     0
281
     0
 72
     0
  0
ENDTAB
  0
TABLE
  2
UCS
  5
7
330
0
100
AcDbSymbolTable
 70
     0
  0
ENDTAB
  0
TABLE
  2
APPID
  5
9
330
0
100
AcDbSymbolTable
 70
     5
  0
APPID
  5
12
330
9
100
AcDbSymbolTableRecord
100
AcDbRegAppTableRecord
  2
ACAD
 70
     0
  0
APPID
  5
ECD
330
9
100
AcDbSymbolTableRecord
100
AcDbRegAppTableRecord
  2
CONTENTBLOCKICON
 70
     0
  0
APPID
  5
11C79
330
9
100
AcDbSymbolTableRecord
100
AcDbRegAppTableRecord
  2
ACAD_EXEMPT_FROM_CAD_STANDARDS
 70
     0
  0
APPID
  5
11CA5
330
9
100
AcDbSymbolTableRecord
100
AcDbRegAppTableRecord
  2
DCO15
 70
     0
  0
APPID
  5
11CE0
330
9
100
AcDbSymbolTableRecord
100
AcDbRegAppTableRecord
  2
ACAD_MLEADERVER
 70
     0
  0
ENDTAB
  0
TABLE
  2
DIMSTYLE
  5
A
330
0
100
AcDbSymbolTable
 70
     2
100
AcDbDimStyleTable
 71
     2
340
9742
340
175
  0
DIMSTYLE
105
175
330
A
100
AcDbSymbolTableRecord
100
AcDbDimStyleTableRecord
  2
STANDARD
 70
     0
 41
2.0
 42
1.0
 43
0.5
 44
0.5
 73
     0
 77
     3
 78
    12
140
5.0
147
1.0
271
     1
272
     1
340
11
341
3B2
342
3B2
  0
DIMSTYLE
105
9742
102
{ACAD_REACTORS
330
116B2
330
1167F
330
11652
330
114FB
330
114FA
330
11483
330
11482
330
11481
330
11480
330
112D9
330
112D5
330
10BA4
330
F643
330
F642
330
F641
330
F640
330
E2D6
330
E24C
330
E24B
330
E24A
330
E246
330
E245
330
E238
330
E01E
330
E01D
330
DFC5
330
DFB0
330
DFAF
330
DFAC
330
E295
330
E309
330
E296
102
}
330
A
100
AcDbSymbolTableRecord
100
AcDbDimStyleTableRecord
  2
STANDARD1
 70
     0
 40
1.199999999999999
 41
2.0
 42
3.0
 43
0.5
 44
0.5
 73
     0
 77
     3
 78
    12
140
6.0
147
3.0
271
     1
272
     1
289
     2
340
11
341
3B2
342
3B2
  0
ENDTAB
  0
TABLE
  2
BLOCK_RECORD
  5
1
330
0
100
AcDbSymbolTable
 70
    41
  0
BLOCK_RECORD
  5
1E
102
{ACAD_XDICTIONARY
360
178
102
}
330
1
100
AcDbSymbolTableRecord
100
AcDbBlockTableRecord
  2
*MODEL_SPACE
340
7AE4
  0
BLOCK_RECORD
  5
1A
102
{ACAD_XDICTIONARY
360
17A
102
}
330
1
100
AcDbSymbolTableRecord
100
AcDbBlockTableRecord
  2
*PAPER_SPACE
340
7AE5
  0
BLOCK_RECORD
  5
3B2
330
1
100
AcDbSymbolTableRecord
100
AcDbBlockTableRecord
  2
_OPEN
340
0
102
{BLKREFS
331
116FB
331
116FC
331
1170B
331
1172F
331
11730
331
11738
331
11739
331
11741
331
11742
331
1174A
331
1174B
331
1175C
331
1175D
331
11765
331
11766
331
11810
331
11811
331
11819
331
1181A
331
11822
331
11823
331
1182B
331
1182C
331
11834
331
11835
331
118B6
331
118B7
331
118BF
331
118C0
331
1193D
331
1193E
331
11946
331
11947
331
1194F
331
11950
331
11958
331
11959
331
11AF3
331
11AF4
331
11AFC
331
11AFD
331
11B05
331
11B06
331
11B0E
331
11B0F
331
11B17
331
11B18
331
11B20
331
11B21
331
11B28
331
11B31
331
11B32
331
11B3A
331
11B3B
331
11B43
331
11B44
331
11B4C
331
11B4D
331
11B55
331
11B56
331
11B5E
331
11B5F
331
11B67
331
11B68
331
11B70
331
11B71
331
11B79
331
11B7A
331
11B82
331
11B83
102
}
  0
BLOCK_RECORD
  5
C565
330
1
100
AcDbSymbolTableRecord
100
AcDbBlockTableRecord
  2
_D22
340
0
  0
BLOCK_RECORD
  5
C56E
330
1
100
AcDbSymbolTableRecord
100
AcDbBlockTableRecord
  2
_D23
340
0
  0
BLOCK_RECORD
  5
C577
330
1
100
AcDbSymbolTableRecord
100
AcDbBlockTableRecord
  2
_D24
340
0
  0
BLOCK_RECORD
  5
E046
330
1
100
AcDbSymbolTableRecord
100
AcDbBlockTableRecord
  2
*D4
340
0
  0
BLOCK_RECORD
  5
E052
330
1
100
AcDbSymbolTableRecord
100
AcDbBlockTableRecord
  2
*D5
340
0
  0
BLOCK_RECORD
  5
E05E
330
1
100
AcDbSymbolTableRecord
100
AcDbBlockTableRecord
  2
*D6
340
0
  0
BLOCK_RECORD
  5
E06A
330
1
100
AcDbSymbolTableRecord
100
AcDbBlockTableRecord
  2
*D7
340
0
  0
BLOCK_RECORD
  5
E076
330
1
100
AcDbSymbolTableRecord
100
AcDbBlockTableRecord
  2
*D8
340
0
  0
BLOCK_RECORD
  5
E082
330
1
100
AcDbSymbolTableRecord
100
AcDbBlockTableRecord
  2
*D9
340
0
  0
BLOCK_RECORD
  5
E08E
330
1
100
AcDbSymbolTableRecord
100
AcDbBlockTableRecord
  2
*D10
340
0
  0
BLOCK_RECORD
  5
E30B
330
1
100
AcDbSymbolTableRecord
100
AcDbBlockTableRecord
  2
*D11
340
0
  0
BLOCK_RECORD
  5
E318
330
1
100
AcDbSymbolTableRecord
100
AcDbBlockTableRecord
  2
*D12
340
0
  0
BLOCK_RECORD
  5
E324
330
1
100
AcDbSymbolTableRecord
100
AcDbBlockTableRecord
  2
*D13
340
0
  0
BLOCK_RECORD
  5
E330
330
1
100
AcDbSymbolTableRecord
100
AcDbBlockTableRecord
  2
*D14
340
0
  0
BLOCK_RECORD
  5
E33C
330
1
100
AcDbSymbolTableRecord
100
AcDbBlockTableRecord
  2
*D15
340
0
  0
BLOCK_RECORD
  5
E348
330
1
100
AcDbSymbolTableRecord
100
AcDbBlockTableRecord
  2
*D16
340
0
  0
BLOCK_RECORD
  5
E354
330
1
100
AcDbSymbolTableRecord
100
AcDbBlockTableRecord
  2
*D17
340
0
  0
BLOCK_RECORD
  5
E360
330
1
100
AcDbSymbolTableRecord
100
AcDbBlockTableRecord
  2
*D18
340
0
  0
BLOCK_RECORD
  5
E36D
330
1
100
AcDbSymbolTableRecord
100
AcDbBlockTableRecord
  2
*D19
340
0
  0
BLOCK_RECORD
  5
E385
330
1
100
AcDbSymbolTableRecord
100
AcDbBlockTableRecord
  2
*D20
340
0
  0
BLOCK_RECORD
  5
F644
330
1
100
AcDbSymbolTableRecord
100
AcDbBlockTableRecord
  2
*D21
340
0
  0
BLOCK_RECORD
  5
F650
330
1
100
AcDbSymbolTableRecord
100
AcDbBlockTableRecord
  2
*D22
340
0
  0
BLOCK_RECORD
  5
F65C
330
1
100
AcDbSymbolTableRecord
100
AcDbBlockTableRecord
  2
*D23
340
0
  0
BLOCK_RECORD
  5
F668
330
1
100
AcDbSymbolTableRecord
100
AcDbBlockTableRecord
  2
*D24
340
0
  0
BLOCK_RECORD
  5
10BCB
330
1
100
AcDbSymbolTableRecord
100
AcDbBlockTableRecord
  2
*D25
340
0
  0
BLOCK_RECORD
  5
112DB
330
1
100
AcDbSymbolTableRecord
100
AcDbBlockTableRecord
  2
*D26
340
0
  0
BLOCK_RECORD
  5
112E7
330
1
100
AcDbSymbolTableRecord
100
AcDbBlockTableRecord
  2
*D27
340
0
  0
BLOCK_RECORD
  5
112F3
330
1
100
AcDbSymbolTableRecord
100
AcDbBlockTableRecord
  2
*D28
340
0
  0
BLOCK_RECORD
  5
112FF
330
1
100
AcDbSymbolTableRecord
100
AcDbBlockTableRecord
  2
*D29
340
0
  0
BLOCK_RECORD
  5
11484
330
1
100
AcDbSymbolTableRecord
100
AcDbBlockTableRecord
  2
*D30
340
0
  0
BLOCK_RECORD
  5
11490
330
1
100
AcDbSymbolTableRecord
100
AcDbBlockTableRecord
  2
*D31
340
0
  0
BLOCK_RECORD
  5
1149C
330
1
100
AcDbSymbolTableRecord
100
AcDbBlockTableRecord
  2
*D32
340
0
  0
BLOCK_RECORD
  5
114A8
330
1
100
AcDbSymbolTableRecord
100
AcDbBlockTableRecord
  2
*D33
340
0
  0
BLOCK_RECORD
  5
114FC
330
1
100
AcDbSymbolTableRecord
100
AcDbBlockTableRecord
  2
*D34
340
0
  0
BLOCK_RECORD
  5
11509
330
1
100
AcDbSymbolTableRecord
100
AcDbBlockTableRecord
  2
*D35
340
0
  0
BLOCK_RECORD
  5
1163F
330
1
100
AcDbSymbolTableRecord
100
AcDbBlockTableRecord
  2
_D29
340
0
  0
BLOCK_RECORD
  5
11658
330
1
100
AcDbSymbolTableRecord
100
AcDbBlockTableRecord
  2
*D37
340
0
  0
BLOCK_RECORD
  5
116B4
330
1
100
AcDbSymbolTableRecord
100
AcDbBlockTableRecord
  2
*D38
340
0
  0
BLOCK_RECORD
  5
116BD
330
1
100
AcDbSymbolTableRecord
100
AcDbBlockTableRecord
  2
*D39
340
0
  0
BLOCK_RECORD
  5
116C6
330
1
100
AcDbSymbolTableRecord
100
AcDbBlockTableRecord
  2
*D40
340
0
  0
ENDTAB
  0
ENDSEC
  0
SECTION
  2
BLOCKS
  0
BLOCK
  5
1F
330
1E
100
AcDbEntity
  8
0
100
AcDbBlockBegin
  2
*MODEL_SPACE
 70
     0
 10
0.0
 20
0.0
 30
0.0
  3
*MODEL_SPACE
  1

  0
ENDBLK
  5
20
330
1E
100
AcDbEntity
  8
0
100
AcDbBlockEnd
  0
BLOCK
  5
1B
330
1A
100
AcDbEntity
 67
     1
  8
0
100
AcDbBlockBegin
  2
*PAPER_SPACE
 70
     0
 10
0.0
 20
0.0
 30
0.0
  3
*PAPER_SPACE
  1

  0
ENDBLK
  5
1C
330
1A
100
AcDbEntity
 67
     1
  8
0
100
AcDbBlockEnd
  0
BLOCK
  5
3B6
330
3B2
100
AcDbEntity
  8
0
100
AcDbBlockBegin
  2
_OPEN
 70
     0
 10
0.0
 20
0.0
 30
0.0
  3
_OPEN
  1

  0
LINE
  5
3B3
330
3B2
100
AcDbEntity
  8
30
  6
Continuous
 62
     0
100
AcDbLine
 10
-1.0
 20
0.1666666666666666
 30
0.0
 11
0.0
 21
0.0
 31
0.0
  0
LINE
  5
3B4
330
3B2
100
AcDbEntity
  8
30
  6
Continuous
 62
     0
100
AcDbLine
 10
-1.0
 20
-0.1666666666666666
 30
0.0
 11
0.0
 21
0.0
 31
0.0
  0
LINE
  5
3B5
330
3B2
100
AcDbEntity
  8
30
  6
Continuous
 62
     0
100
AcDbLine
 10
0.0
 20
0.0
 30
0.0
 11
-1.0
 21
0.0
 31
0.0
  0
ENDBLK
  5
3B7
330
3B2
100
AcDbEntity
  8
0
100
AcDbBlockEnd
  0
BLOCK
  5
C56C
330
C565
100
AcDbEntity
  8
0
100
AcDbBlockBegin
  2
_D22
 70
     0
 10
0.0
 20
0.0
 30
0.0
  3
_D22
  1

  0
MTEXT
  5
C566
330
C565
100
AcDbEntity
  8
1
  6
Continuous
 62
     2
100
AcDbMText
 10
83.73317900000001
 20
129.192708
 30
0.0
 40
2.5
 41
0.0
 71
     7
 72
     5
  1
\W01.000;\fsimplex.shx;15
  7
blockfont
 73
     2
 44
0.9036139999999999
1001
ACAD
1000
MTEXTBEGIN
1070
    73
1070
     2
1070
    44
1040
0.9036139999999999
1070
    74
1070
     0
1000
MTEXTEND
  0
LINE
  5
C567
330
C565
100
AcDbEntity
  8
1
 62
     4
100
AcDbLine
 10
89.00921999999999
 20
148.319175
 30
0.0
 11
89.00921999999999
 21
127.75
 31
0.0
  0
LINE
  5
C568
330
C565
100
AcDbEntity
  8
1
 62
     4
100
AcDbLine
 10
92.00922
 20
148.319175
 30
0.0
 11
92.00922
 21
127.75
 31
0.0
  0
LINE
  5
C569
330
C565
100
AcDbEntity
  8
1
 62
     4
100
AcDbLine
 10
98.25922
 20
128.75
 30
0.0
 11
83.295679
 21
128.75
 31
0.0
  0
SOLID
  5
C56A
330
C565
100
AcDbEntity
  8
1
 62
     4
100
AcDbTrace
 10
89.00921999999999
 20
128.75
 30
0.0
 11
87.00922199999999
 21
128.40993
 31
0.0
 12
87.00921899999999
 22
129.0900699999999
 32
0.0
 13
89.00921999999999
 23
128.75
 33
0.0
  0
SOLID
  5
C56B
330
C565
100
AcDbEntity
  8
1
 62
     4
100
AcDbTrace
 10
92.00922
 20
128.75
 30
0.0
 11
94.00921899999998
 21
129.0900699999999
 31
0.0
 12
94.009222
 22
128.40993
 32
0.0
 13
92.00922
 23
128.75
 33
0.0
  0
ENDBLK
  5
C56D
330
C565
100
AcDbEntity
  8
0
100
AcDbBlockEnd
  0
BLOCK
  5
C575
330
C56E
100
AcDbEntity
  8
0
100
AcDbBlockBegin
  2
_D23
 70
     0
 10
0.0
 20
0.0
 30
0.0
  3
_D23
  1

  0
MTEXT
  5
C56F
330
C56E
100
AcDbEntity
  8
1
  6
Continuous
 62
     2
100
AcDbMText
 10
96.08995
 20
121.692708
 30
0.0
 40
2.5
 41
0.0
 71
     7
 72
     5
  1
\W01.000;\fsimplex.shx;70
  7
blockfont
 73
     2
 44
0.9036139999999999
1001
ACAD
1000
MTEXTBEGIN
1070
    73
1070
     2
1070
    44
1040
0.9036139999999999
1070
    74
1070
     0
1000
MTEXTEND
  0
LINE
  5
C570
330
C56E
100
AcDbEntity
  8
1
 62
     4
100
AcDbLine
 10
90.50921999999999
 20
145.319175
 30
0.0
 11
90.50921999999999
 21
120.25
 31
0.0
  0
LINE
  5
C571
330
C56E
100
AcDbEntity
  8
1
 62
     4
100
AcDbLine
 10
104.50922
 20
138.3191749999999
 30
0.0
 11
104.50922
 21
120.25
 31
0.0
  0
LINE
  5
C572
330
C56E
100
AcDbEntity
  8
1
 62
     4
100
AcDbLine
 10
90.50921999999999
 20
121.25
 30
0.0
 11
104.50922
 21
121.25
 31
0.0
  0
SOLID
  5
C573
330
C56E
100
AcDbEntity
  8
1
 62
     4
100
AcDbTrace
 10
90.50921999999999
 20
121.25
 30
0.0
 11
92.50921899999999
 21
121.5900699999999
 31
0.0
 12
92.50922199999999
 22
120.90993
 32
0.0
 13
90.50921999999999
 23
121.25
 33
0.0
  0
SOLID
  5
C574
330
C56E
100
AcDbEntity
  8
1
 62
     4
100
AcDbTrace
 10
104.50922
 20
121.25
 30
0.0
 11
102.5092219999997
 21
120.90993
 31
0.0
 12
102.5092189999996
 22
121.5900699999999
 32
0.0
 13
104.50922
 23
121.25
 33
0.0
  0
ENDBLK
  5
C576
330
C56E
100
AcDbEntity
  8
0
100
AcDbBlockEnd
  0
BLOCK
  5
C57E
330
C577
100
AcDbEntity
  8
0
100
AcDbBlockBegin
  2
_D24
 70
     0
 10
0.0
 20
0.0
 30
0.0
  3
_D24
  1

  0
MTEXT
  5
C578
330
C577
100
AcDbEntity
  8
1
  6
Continuous
 62
     2
100
AcDbMText
 10
110.08995
 20
121.692708
 30
0.0
 40
2.5
 41
0.0
 71
     7
 72
     5
  1
\W01.000;\fsimplex.shx;70
  7
blockfont
 73
     2
 44
0.9036139999999999
1001
ACAD
1000
MTEXTBEGIN
1070
    73
1070
     2
1070
    44
1040
0.9036139999999999
1070
    74
1070
     0
1000
MTEXTEND
  0
LINE
  5
C579
330
C577
100
AcDbEntity
  8
1
 62
     4
100
AcDbLine
 10
104.50922
 20
138.3191749999999
 30
0.0
 11
104.50922
 21
120.25
 31
0.0
  0
LINE
  5
C57A
330
C577
100
AcDbEntity
  8
1
 62
     4
100
AcDbLine
 10
118.5092199999999
 20
145.319175
 30
0.0
 11
118.5092199999999
 21
120.25
 31
0.0
  0
LINE
  5
C57B
330
C577
100
AcDbEntity
  8
1
 62
     4
100
AcDbLine
 10
104.50922
 20
121.25
 30
0.0
 11
118.5092199999999
 21
121.25
 31
0.0
  0
SOLID
  5
C57C
330
C577
100
AcDbEntity
  8
1
 62
     4
100
AcDbTrace
 10
104.50922
 20
121.25
 30
0.0
 11
106.5092189999996
 21
121.5900699999999
 31
0.0
 12
106.5092219999999
 22
120.90993
 32
0.0
 13
104.50922
 23
121.25
 33
0.0
  0
SOLID
  5
C57D
330
C577
100
AcDbEntity
  8
1
 62
     4
100
AcDbTrace
 10
118.5092199999999
 20
121.25
 30
0.0
 11
116.509222
 21
120.90993
 31
0.0
 12
116.5092189999999
 22
121.5900699999999
 32
0.0
 13
118.5092199999999
 23
121.25
 33
0.0
  0
ENDBLK
  5
C57F
330
C577
100
AcDbEntity
  8
0
100
AcDbBlockEnd
  0
BLOCK
  5
E050
330
E046
100
AcDbEntity
  8
0
100
AcDbBlockBegin
  2
*D4
 70
     1
 10
0.0
 20
0.0
 30
0.0
  3
*D4
  1

  0
LINE
  5
11831
330
E046
100
AcDbEntity
  8
30
  6
Continuous
 62
     0
370
    -2
100
AcDbLine
 10
150.0
 20
-228.6001199999992
 30
0.0
 11
150.0
 21
-290.6
 31
0.0
  0
LINE
  5
11832
330
E046
100
AcDbEntity
  8
30
  6
Continuous
 62
     0
370
    -2
100
AcDbLine
 10
178.0000000000009
 20
-212.1001199999992
 30
0.0
 11
178.0000000000009
 21
-290.6
 31
0.0
  0
LINE
  5
11833
330
E046
100
AcDbEntity
  8
30
  6
Continuous
 62
     0
370
    -2
100
AcDbLine
 10
152.4
 20
-290.0
 30
0.0
 11
175.6000000000009
 21
-290.0
 31
0.0
  0
INSERT
  5
11834
330
E046
100
AcDbEntity
  8
30
  6
Continuous
 62
     0
370
    -2
100
AcDbBlockReference
  2
_OPEN
 10
150.0
 20
-290.0
 30
0.0
 41
2.399999999999999
 42
2.399999999999999
 43
2.399999999999999
 50
180.0
  0
INSERT
  5
11835
330
E046
100
AcDbEntity
  8
30
  6
Continuous
 62
     0
370
    -2
100
AcDbBlockReference
  2
_OPEN
 10
178.0000000000009
 20
-290.0
 30
0.0
 41
2.399999999999999
 42
2.399999999999999
 43
2.399999999999999
  0
MTEXT
  5
11836
330
E046
100
AcDbEntity
  8
30
  6
Continuous
 62
     0
100
AcDbMText
 10
164.0000000000004
 20
-282.8
 30
0.0
 40
7.199999999999997
 41
0.0
 71
     5
 72
     1
  1
\A1; 28 
 73
     1
 44
1.0
1001
ACAD
1000
MTEXTBEGIN
1070
    73
1070
     1
1070
    44
1040
1.0
1070
    74
1070
     0
1000
MTEXTEND
  0
POINT
  5
11837
330
E046
100
AcDbEntity
  8
DEFPOINTS
  6
Continuous
 62
     0
100
AcDbPoint
 10
150.0
 20
-225.000119999999
 30
0.0
  0
POINT
  5
11838
330
E046
100
AcDbEntity
  8
DEFPOINTS
  6
Continuous
 62
     0
100
AcDbPoint
 10
178.0000000000009
 20
-208.500119999999
 30
0.0
  0
POINT
  5
11839
330
E046
100
AcDbEntity
  8
DEFPOINTS
  6
Continuous
 62
     0
100
AcDbPoint
 10
178.0000000000009
 20
-290.0
 30
0.0
  0
ENDBLK
  5
E051
330
E046
100
AcDbEntity
  8
0
100
AcDbBlockEnd
  0
BLOCK
  5
E05C
330
E052
100
AcDbEntity
  8
0
100
AcDbBlockBegin
  2
*D5
 70
     1
 10
0.0
 20
0.0
 30
0.0
  3
*D5
  1

  0
LINE
  5
11828
330
E052
100
AcDbEntity
  8
30
  6
Continuous
 62
     0
370
    -2
100
AcDbLine
 10
-177.999999999999
 20
-212.1001199999992
 30
0.0
 11
-177.999999999999
 21
-290.6
 31
0.0
  0
LINE
  5
11829
330
E052
100
AcDbEntity
  8
30
  6
Continuous
 62
     0
370
    -2
100
AcDbLine
 10
-150.0
 20
-228.6001199999992
 30
0.0
 11
-150.0
 21
-290.6
 31
0.0
  0
LINE
  5
1182A
330
E052
100
AcDbEntity
  8
30
  6
Continuous
 62
     0
370
    -2
100
AcDbLine
 10
-175.599999999999
 20
-290.0
 30
0.0
 11
-152.4
 21
-290.0
 31
0.0
  0
INSERT
  5
1182B
330
E052
100
AcDbEntity
  8
30
  6
Continuous
 62
     0
370
    -2
100
AcDbBlockReference
  2
_OPEN
 10
-177.999999999999
 20
-290.0
 30
0.0
 41
2.399999999999999
 42
2.399999999999999
 43
2.399999999999999
 50
180.0
  0
INSERT
  5
1182C
330
E052
100
AcDbEntity
  8
30
  6
Continuous
 62
     0
370
    -2
100
AcDbBlockReference
  2
_OPEN
 10
-150.0
 20
-290.0
 30
0.0
 41
2.399999999999999
 42
2.399999999999999
 43
2.399999999999999
  0
MTEXT
  5
1182D
330
E052
100
AcDbEntity
  8
30
  6
Continuous
 62
     0
100
AcDbMText
 10
-163.9999999999995
 20
-282.8
 30
0.0
 40
7.199999999999997
 41
0.0
 71
     5
 72
     1
  1
\A1; 28 
 73
     1
 44
1.0
1001
ACAD
1000
MTEXTBEGIN
1070
    73
1070
     1
1070
    44
1040
1.0
1070
    74
1070
     0
1000
MTEXTEND
  0
POINT
  5
1182E
330
E052
100
AcDbEntity
  8
DEFPOINTS
  6
Continuous
 62
     0
100
AcDbPoint
 10
-177.999999999999
 20
-208.500119999999
 30
0.0
  0
POINT
  5
1182F
330
E052
100
AcDbEntity
  8
DEFPOINTS
  6
Continuous
 62
     0
100
AcDbPoint
 10
-150.0
 20
-225.000119999999
 30
0.0
  0
POINT
  5
11830
330
E052
100
AcDbEntity
  8
DEFPOINTS
  6
Continuous
 62
     0
100
AcDbPoint
 10
-150.0
 20
-290.0
 30
0.0
  0
ENDBLK
  5
E05D
330
E052
100
AcDbEntity
  8
0
100
AcDbBlockEnd
  0
BLOCK
  5
E068
330
E05E
100
AcDbEntity
  8
0
100
AcDbBlockBegin
  2
*D6
 70
     1
 10
0.0
 20
0.0
 30
0.0
  3
*D6
  1

  0
LINE
  5
1181F
330
E05E
100
AcDbEntity
  8
30
  6
Continuous
 62
     0
370
    -2
100
AcDbLine
 10
-150.0
 20
-228.6001199999992
 30
0.0
 11
-150.0
 21
-290.6
 31
0.0
  0
LINE
  5
11820
330
E05E
100
AcDbEntity
  8
30
  6
Continuous
 62
     0
370
    -2
100
AcDbLine
 10
150.0
 20
-228.6001199999992
 30
0.0
 11
150.0
 21
-290.6
 31
0.0
  0
LINE
  5
11821
330
E05E
100
AcDbEntity
  8
30
  6
Continuous
 62
     0
370
    -2
100
AcDbLine
 10
-147.5999999999999
 20
-290.0
 30
0.0
 11
147.5999999999999
 21
-290.0
 31
0.0
  0
INSERT
  5
11822
330
E05E
100
AcDbEntity
  8
30
  6
Continuous
 62
     0
370
    -2
100
AcDbBlockReference
  2
_OPEN
 10
-150.0
 20
-290.0
 30
0.0
 41
2.399999999999999
 42
2.399999999999999
 43
2.399999999999999
 50
180.0
  0
INSERT
  5
11823
330
E05E
100
AcDbEntity
  8
30
  6
Continuous
 62
     0
370
    -2
100
AcDbBlockReference
  2
_OPEN
 10
150.0
 20
-290.0
 30
0.0
 41
2.399999999999999
 42
2.399999999999999
 43
2.399999999999999
  0
MTEXT
  5
11824
330
E05E
100
AcDbEntity
  8
30
  6
Continuous
 62
     0
100
AcDbMText
 10
0.0000000000000004
 20
-282.8
 30
0.0
 40
7.199999999999997
 41
0.0
 71
     5
 72
     1
  1
\A1; 300  (max.)
 73
     1
 44
1.0
1001
ACAD
1000
MTEXTBEGIN
1070
    73
1070
     1
1070
    44
1040
1.0
1070
    74
1070
     0
1000
MTEXTEND
  0
POINT
  5
11825
330
E05E
100
AcDbEntity
  8
DEFPOINTS
  6
Continuous
 62
     0
100
AcDbPoint
 10
-150.0
 20
-225.000119999999
 30
0.0
  0
POINT
  5
11826
330
E05E
100
AcDbEntity
  8
DEFPOINTS
  6
Continuous
 62
     0
100
AcDbPoint
 10
150.0
 20
-225.000119999999
 30
0.0
  0
POINT
  5
11827
330
E05E
100
AcDbEntity
  8
DEFPOINTS
  6
Continuous
 62
     0
100
AcDbPoint
 10
150.0
 20
-290.0
 30
0.0
  0
ENDBLK
  5
E069
330
E05E
100
AcDbEntity
  8
0
100
AcDbBlockEnd
  0
BLOCK
  5
E074
330
E06A
100
AcDbEntity
  8
0
100
AcDbBlockBegin
  2
*D7
 70
     1
 10
0.0
 20
0.0
 30
0.0
  3
*D7
  1

  0
LINE
  5
11816
330
E06A
100
AcDbEntity
  8
30
  6
Continuous
 62
     0
370
    -2
100
AcDbLine
 10
-39.0
 20
-51.1
 30
0.0
 11
-39.0
 21
-90.6
 31
0.0
  0
LINE
  5
11817
330
E06A
100
AcDbEntity
  8
30
  6
Continuous
 62
     0
370
    -2
100
AcDbLine
 10
39.0
 20
-51.1
 30
0.0
 11
39.0
 21
-90.6
 31
0.0
  0
LINE
  5
11818
330
E06A
100
AcDbEntity
  8
30
  6
Continuous
 62
     0
370
    -2
100
AcDbLine
 10
-36.6
 20
-90.0
 30
0.0
 11
36.6
 21
-90.0
 31
0.0
  0
INSERT
  5
11819
330
E06A
100
AcDbEntity
  8
30
  6
Continuous
 62
     0
370
    -2
100
AcDbBlockReference
  2
_OPEN
 10
-39.0
 20
-90.0
 30
0.0
 41
2.399999999999999
 42
2.399999999999999
 43
2.399999999999999
 50
180.0
  0
INSERT
  5
1181A
330
E06A
100
AcDbEntity
  8
30
  6
Continuous
 62
     0
370
    -2
100
AcDbBlockReference
  2
_OPEN
 10
39.0
 20
-90.0
 30
0.0
 41
2.399999999999999
 42
2.399999999999999
 43
2.399999999999999
  0
MTEXT
  5
1181B
330
E06A
100
AcDbEntity
  8
30
  6
Continuous
 62
     0
100
AcDbMText
 10
0.0000000000000004
 20
-82.79999999999999
 30
0.0
 40
7.199999999999997
 41
0.0
 71
     5
 72
     1
  1
\A1; 78 
 73
     1
 44
1.0
1001
ACAD
1000
MTEXTBEGIN
1070
    73
1070
     1
1070
    44
1040
1.0
1070
    74
1070
     0
1000
MTEXTEND
  0
POINT
  5
1181C
330
E06A
100
AcDbEntity
  8
DEFPOINTS
  6
Continuous
 62
     0
100
AcDbPoint
 10
-39.0
 20
-47.5
 30
0.0
  0
POINT
  5
1181D
330
E06A
100
AcDbEntity
  8
DEFPOINTS
  6
Continuous
 62
     0
100
AcDbPoint
 10
39.0
 20
-47.5
 30
0.0
  0
POINT
  5
1181E
330
E06A
100
AcDbEntity
  8
DEFPOINTS
  6
Continuous
 62
     0
100
AcDbPoint
 10
39.0
 20
-90.0
 30
0.0
  0
ENDBLK
  5
E075
330
E06A
100
AcDbEntity
  8
0
100
AcDbBlockEnd
  0
BLOCK
  5
E080
330
E076
100
AcDbEntity
  8
0
100
AcDbBlockBegin
  2
*D8
 70
     1
 10
0.0
 20
0.0
 30
0.0
  3
*D8
  1

  0
LINE
  5
1180D
330
E076
100
AcDbEntity
  8
30
  6
Continuous
 62
     0
370
    -2
100
AcDbLine
 10
-95.0
 20
55.09999999999954
 30
0.0
 11
-95.0
 21
100.6
 31
0.0
  0
LINE
  5
1180E
330
E076
100
AcDbEntity
  8
30
  6
Continuous
 62
     0
370
    -2
100
AcDbLine
 10
95.0
 20
55.09999999999954
 30
0.0
 11
95.0
 21
100.6
 31
0.0
  0
LINE
  5
1180F
330
E076
100
AcDbEntity
  8
30
  6
Continuous
 62
     0
370
    -2
100
AcDbLine
 10
-92.59999999999999
 20
100.0
 30
0.0
 11
92.59999999999999
 21
100.0
 31
0.0
  0
INSERT
  5
11810
330
E076
100
AcDbEntity
  8
30
  6
Continuous
 62
     0
370
    -2
100
AcDbBlockReference
  2
_OPEN
 10
-95.0
 20
100.0
 30
0.0
 41
2.399999999999999
 42
2.399999999999999
 43
2.399999999999999
 50
180.0
  0
INSERT
  5
11811
330
E076
100
AcDbEntity
  8
30
  6
Continuous
 62
     0
370
    -2
100
AcDbBlockReference
  2
_OPEN
 10
95.0
 20
100.0
 30
0.0
 41
2.399999999999999
 42
2.399999999999999
 43
2.399999999999999
  0
MTEXT
  5
11812
330
E076
100
AcDbEntity
  8
30
  6
Continuous
 62
     0
100
AcDbMText
 10
0.0000000000000004
 20
107.2
 30
0.0
 40
7.199999999999997
 41
0.0
 71
     5
 72
     1
  1
\A1; 190 
 73
     1
 44
1.0
1001
ACAD
1000
MTEXTBEGIN
1070
    73
1070
     1
1070
    44
1040
1.0
1070
    74
1070
     0
1000
MTEXTEND
  0
POINT
  5
11813
330
E076
100
AcDbEntity
  8
DEFPOINTS
  6
Continuous
 62
     0
100
AcDbPoint
 10
-95.0
 20
51.49999999999955
 30
0.0
  0
POINT
  5
11814
330
E076
100
AcDbEntity
  8
DEFPOINTS
  6
Continuous
 62
     0
100
AcDbPoint
 10
95.0
 20
51.49999999999955
 30
0.0
  0
POINT
  5
11815
330
E076
100
AcDbEntity
  8
DEFPOINTS
  6
Continuous
 62
     0
100
AcDbPoint
 10
95.0
 20
100.0
 30
0.0
  0
ENDBLK
  5
E081
330
E076
100
AcDbEntity
  8
0
100
AcDbBlockEnd
  0
BLOCK
  5
E08C
330
E082
100
AcDbEntity
  8
0
100
AcDbBlockBegin
  2
*D9
 70
     1
 10
0.0
 20
0.0
 30
0.0
  3
*D9
  1

  0
LINE
  5
118B3
330
E082
100
AcDbEntity
  8
30
  6
Continuous
 62
     0
370
    -2
100
AcDbLine
 10
70.0000000000001
 20
809.5999999999984
 30
0.0
 11
70.0000000000001
 21
892.6958749999995
 31
0.0
  0
LINE
  5
118B4
330
E082
100
AcDbEntity
  8
30
  6
Continuous
 62
     0
370
    -2
100
AcDbLine
 10
0.0000000000001139
 20
864.5997549999993
 30
0.0
 11
0.0000000000001156
 21
892.6958749999995
 31
0.0
  0
LINE
  5
118B5
330
E082
100
AcDbEntity
  8
30
  6
Continuous
 62
     0
370
    -2
100
AcDbLine
 10
67.60000000000011
 20
892.0958749999995
 30
0.0
 11
2.400000000000115
 21
892.0958749999995
 31
0.0
  0
INSERT
  5
118B6
330
E082
100
AcDbEntity
  8
30
  6
Continuous
 62
     0
370
    -2
100
AcDbBlockReference
  2
_OPEN
 10
70.0000000000001
 20
892.0958749999995
 30
0.0
 41
2.399999999999999
 42
2.399999999999999
 43
2.399999999999999
  0
INSERT
  5
118B7
330
E082
100
AcDbEntity
  8
30
  6
Continuous
 62
     0
370
    -2
100
AcDbBlockReference
  2
_OPEN
 10
0.0000000000001156
 20
892.0958749999995
 30
0.0
 41
2.399999999999999
 42
2.399999999999999
 43
2.399999999999999
 50
180.0
  0
MTEXT
  5
118B8
330
E082
100
AcDbEntity
  8
30
  6
Continuous
 62
     0
100
AcDbMText
 10
35.0000000000001
 20
899.2958749999997
 30
0.0
 40
7.199999999999997
 41
0.0
 71
     5
 72
     1
  1
\A1; 70 
 73
     1
 44
1.0
1001
ACAD
1000
MTEXTBEGIN
1070
    73
1070
     1
1070
    44
1040
1.0
1070
    74
1070
     0
1000
MTEXTEND
  0
POINT
  5
118B9
330
E082
100
AcDbEntity
  8
DEFPOINTS
  6
Continuous
 62
     0
100
AcDbPoint
 10
70.0000000000001
 20
805.9999999999986
 30
0.0
  0
POINT
  5
118BA
330
E082
100
AcDbEntity
  8
DEFPOINTS
  6
Continuous
 62
     0
100
AcDbPoint
 10
0.0000000000001137
 20
860.9997549999992
 30
0.0
  0
POINT
  5
118BB
330
E082
100
AcDbEntity
  8
DEFPOINTS
  6
Continuous
 62
     0
100
AcDbPoint
 10
0.0000000000001156
 20
892.0958749999995
 30
0.0
  0
ENDBLK
  5
E08D
330
E082
100
AcDbEntity
  8
0
100
AcDbBlockEnd
  0
BLOCK
  5
E098
330
E08E
100
AcDbEntity
  8
0
100
AcDbBlockBegin
  2
*D10
 70
     1
 10
0.0
 20
0.0
 30
0.0
  3
*D10
  1

  0
LINE
  5
118BC
330
E08E
100
AcDbEntity
  8
30
  6
Continuous
 62
     0
370
    -2
100
AcDbLine
 10
0.000000000000113
 20
859.5997549999994
 30
0.0
 11
0.000000000000115
 21
892.6958749999995
 31
0.0
  0
LINE
  5
118BD
330
E08E
100
AcDbEntity
  8
30
  6
Continuous
 62
     0
370
    -2
100
AcDbLine
 10
-69.9999999999999
 20
809.5999999999984
 30
0.0
 11
-69.9999999999999
 21
892.6958749999995
 31
0.0
  0
LINE
  5
118BE
330
E08E
100
AcDbEntity
  8
30
  6
Continuous
 62
     0
370
    -2
100
AcDbLine
 10
-2.399999999999884
 20
892.0958749999995
 30
0.0
 11
-67.59999999999988
 21
892.0958749999995
 31
0.0
  0
INSERT
  5
118BF
330
E08E
100
AcDbEntity
  8
30
  6
Continuous
 62
     0
370
    -2
100
AcDbBlockReference
  2
_OPEN
 10
0.000000000000115
 20
892.0958749999995
 30
0.0
 41
2.399999999999999
 42
2.399999999999999
 43
2.399999999999999
  0
INSERT
  5
118C0
330
E08E
100
AcDbEntity
  8
30
  6
Continuous
 62
     0
370
    -2
100
AcDbBlockReference
  2
_OPEN
 10
-69.9999999999999
 20
892.0958749999995
 30
0.0
 41
2.399999999999999
 42
2.399999999999999
 43
2.399999999999999
 50
180.0
  0
MTEXT
  5
118C1
330
E08E
100
AcDbEntity
  8
30
  6
Continuous
 62
     0
100
AcDbMText
 10
-34.99999999999988
 20
899.2958749999997
 30
0.0
 40
7.199999999999997
 41
0.0
 71
     5
 72
     1
  1
\A1; 70 
 73
     1
 44
1.0
1001
ACAD
1000
MTEXTBEGIN
1070
    73
1070
     1
1070
    44
1040
1.0
1070
    74
1070
     0
1000
MTEXTEND
  0
POINT
  5
118C2
330
E08E
100
AcDbEntity
  8
DEFPOINTS
  6
Continuous
 62
     0
100
AcDbPoint
 10
0.0000000000001128
 20
855.9997549999993
 30
0.0
  0
POINT
  5
118C3
330
E08E
100
AcDbEntity
  8
DEFPOINTS
  6
Continuous
 62
     0
100
AcDbPoint
 10
-69.9999999999999
 20
805.9999999999986
 30
0.0
  0
POINT
  5
118C4
330
E08E
100
AcDbEntity
  8
DEFPOINTS
  6
Continuous
 62
     0
100
AcDbPoint
 10
-69.9999999999999
 20
892.0958749999995
 30
0.0
  0
ENDBLK
  5
E099
330
E08E
100
AcDbEntity
  8
0
100
AcDbBlockEnd
  0
BLOCK
  5
E316
330
E30B
100
AcDbEntity
  8
0
100
AcDbBlockBegin
  2
*D11
 70
     1
 10
0.0
 20
0.0
 30
0.0
  3
*D11
  1

  0
LINE
  5
11B49
330
E30B
100
AcDbEntity
  8
30
  6
Continuous
 62
     0
370
    -2
100
AcDbLine
 10
917.3907749999999
 20
-0.0000000000004558
 30
0.0
 11
937.5538999999999
 21
-0.0000000000004615
 31
0.0
  0
LINE
  5
11B4A
330
E30B
100
AcDbEntity
  8
30
  6
Continuous
 62
     0
370
    -2
100
AcDbLine
 10
933.6
 20
60.0
 30
0.0
 11
937.5538999999999
 21
60.0
 31
0.0
  0
LINE
  5
11B4B
330
E30B
100
AcDbEntity
  8
30
  6
Continuous
 62
     0
370
    -2
100
AcDbLine
 10
936.9538999999999
 20
2.399999999999538
 30
0.0
 11
936.9538999999999
 21
57.6
 31
0.0
  0
INSERT
  5
11B4C
330
E30B
100
AcDbEntity
  8
30
  6
Continuous
 62
     0
370
    -2
100
AcDbBlockReference
  2
_OPEN
 10
936.9538999999999
 20
-0.0000000000004613
 30
0.0
 41
2.399999999999999
 42
2.399999999999999
 43
2.399999999999999
 50
270.0
  0
INSERT
  5
11B4D
330
E30B
100
AcDbEntity
  8
30
  6
Continuous
 62
     0
370
    -2
100
AcDbBlockReference
  2
_OPEN
 10
936.9538999999999
 20
60.0
 30
0.0
 41
2.399999999999999
 42
2.399999999999999
 43
2.399999999999999
 50
90.0
  0
MTEXT
  5
11B4E
330
E30B
100
AcDbEntity
  8
30
  6
Continuous
 62
     0
100
AcDbMText
 10
929.7538999999996
 20
29.99999999999992
 30
0.0
 40
7.199999999999997
 41
0.0
 71
     5
 72
     1
  1
\A1; 60 
 11
0.0000000000000001
 21
1.0
 31
0.0
 73
     1
 44
1.0
1001
ACAD
1000
MTEXTBEGIN
1070
    73
1070
     1
1070
    44
1040
1.0
1070
    74
1070
     0
1000
MTEXTEND
  0
POINT
  5
11B4F
330
E30B
100
AcDbEntity
  8
DEFPOINTS
  6
Continuous
 62
     0
100
AcDbPoint
 10
913.790775
 20
-0.0000000000004547
 30
0.0
  0
POINT
  5
11B50
330
E30B
100
AcDbEntity
  8
DEFPOINTS
  6
Continuous
 62
     0
100
AcDbPoint
 10
930.0
 20
60.0
 30
0.0
  0
POINT
  5
11B51
330
E30B
100
AcDbEntity
  8
DEFPOINTS
  6
Continuous
 62
     0
100
AcDbPoint
 10
936.9538999999999
 20
60.0
 30
0.0
  0
ENDBLK
  5
E317
330
E30B
100
AcDbEntity
  8
0
100
AcDbBlockEnd
  0
BLOCK
  5
E322
330
E318
100
AcDbEntity
  8
0
100
AcDbBlockBegin
  2
*D12
 70
     1
 10
0.0
 20
0.0
 30
0.0
  3
*D12
  1

  0
LINE
  5
11B14
330
E318
100
AcDbEntity
  8
30
  6
Continuous
 62
     0
370
    -2
100
AcDbLine
 10
228.9999999999995
 20
-8.600015000000075
 30
0.0
 11
228.9999999999995
 21
-370.5133029023181
 31
0.0
  0
LINE
  5
11B15
330
E318
100
AcDbEntity
  8
30
  6
Continuous
 62
     0
370
    -2
100
AcDbLine
 10
755.0000000000003
 20
-228.6000000000004
 30
0.0
 11
755.0000000000003
 21
-370.5133029023181
 31
0.0
  0
LINE
  5
11B16
330
E318
100
AcDbEntity
  8
30
  6
Continuous
 62
     0
370
    -2
100
AcDbLine
 10
231.3999999999995
 20
-369.9133029023182
 30
0.0
 11
752.6000000000005
 21
-369.9133029023182
 31
0.0
  0
INSERT
  5
11B17
330
E318
100
AcDbEntity
  8
30
  6
Continuous
 62
     0
370
    -2
100
AcDbBlockReference
  2
_OPEN
 10
228.9999999999995
 20
-369.9133029023182
 30
0.0
 41
2.399999999999999
 42
2.399999999999999
 43
2.399999999999999
 50
180.0
  0
INSERT
  5
11B18
330
E318
100
AcDbEntity
  8
30
  6
Continuous
 62
     0
370
    -2
100
AcDbBlockReference
  2
_OPEN
 10
755.0000000000003
 20
-369.9133029023182
 30
0.0
 41
2.399999999999999
 42
2.399999999999999
 43
2.399999999999999
  0
MTEXT
  5
11B19
330
E318
100
AcDbEntity
  8
30
  6
Continuous
 62
     0
100
AcDbMText
 10
492.0
 20
-362.7133029023182
 30
0.0
 40
7.199999999999997
 41
0.0
 71
     5
 72
     1
  1
\A1; 526 
 73
     1
 44
1.0
1001
ACAD
1000
MTEXTBEGIN
1070
    73
1070
     1
1070
    44
1040
1.0
1070
    74
1070
     0
1000
MTEXTEND
  0
POINT
  5
11B1A
330
E318
100
AcDbEntity
  8
DEFPOINTS
  6
Continuous
 62
     0
100
AcDbPoint
 10
228.9999999999995
 20
-5.000015000000074
 30
0.0
  0
POINT
  5
11B1B
330
E318
100
AcDbEntity
  8
DEFPOINTS
  6
Continuous
 62
     0
100
AcDbPoint
 10
755.0000000000003
 20
-225.0000000000004
 30
0.0
  0
POINT
  5
11B1C
330
E318
100
AcDbEntity
  8
DEFPOINTS
  6
Continuous
 62
     0
100
AcDbPoint
 10
755.0000000000003
 20
-369.9133029023182
 30
0.0
  0
ENDBLK
  5
E323
330
E318
100
AcDbEntity
  8
0
100
AcDbBlockEnd
  0
BLOCK
  5
E32E
330
E324
100
AcDbEntity
  8
0
100
AcDbBlockBegin
  2
*D13
 70
     1
 10
0.0
 20
0.0
 30
0.0
  3
*D13
  1

  0
LINE
  5
11B76
330
E324
100
AcDbEntity
  8
30
  6
Continuous
 62
     0
370
    -2
100
AcDbLine
 10
472.9999999999995
 20
-69.9872350000006
 30
0.0
 11
472.9999999999995
 21
-310.2985455819513
 31
0.0
  0
LINE
  5
11B77
330
E324
100
AcDbEntity
  8
30
  6
Continuous
 62
     0
370
    -2
100
AcDbLine
 10
755.0000000000003
 20
-228.6000000000004
 30
0.0
 11
755.0000000000003
 21
-310.2985455819513
 31
0.0
  0
LINE
  5
11B78
330
E324
100
AcDbEntity
  8
30
  6
Continuous
 62
     0
370
    -2
100
AcDbLine
 10
475.3999999999995
 20
-309.6985455819512
 30
0.0
 11
752.6000000000005
 21
-309.6985455819512
 31
0.0
  0
INSERT
  5
11B79
330
E324
100
AcDbEntity
  8
30
  6
Continuous
 62
     0
370
    -2
100
AcDbBlockReference
  2
_OPEN
 10
472.9999999999995
 20
-309.6985455819512
 30
0.0
 41
2.399999999999999
 42
2.399999999999999
 43
2.399999999999999
 50
180.0
  0
INSERT
  5
11B7A
330
E324
100
AcDbEntity
  8
30
  6
Continuous
 62
     0
370
    -2
100
AcDbBlockReference
  2
_OPEN
 10
755.0000000000003
 20
-309.6985455819512
 30
0.0
 41
2.399999999999999
 42
2.399999999999999
 43
2.399999999999999
  0
MTEXT
  5
11B7B
330
E324
100
AcDbEntity
  8
30
  6
Continuous
 62
     0
100
AcDbMText
 10
614.0
 20
-302.4985455819513
 30
0.0
 40
7.199999999999997
 41
0.0
 71
     5
 72
     1
  1
\A1; 282 
 73
     1
 44
1.0
1001
ACAD
1000
MTEXTBEGIN
1070
    73
1070
     1
1070
    44
1040
1.0
1070
    74
1070
     0
1000
MTEXTEND
  0
POINT
  5
11B7C
330
E324
100
AcDbEntity
  8
DEFPOINTS
  6
Continuous
 62
     0
100
AcDbPoint
 10
472.9999999999995
 20
-66.3872350000006
 30
0.0
  0
POINT
  5
11B7D
330
E324
100
AcDbEntity
  8
DEFPOINTS
  6
Continuous
 62
     0
100
AcDbPoint
 10
755.0000000000003
 20
-225.0000000000004
 30
0.0
  0
POINT
  5
11B7E
330
E324
100
AcDbEntity
  8
DEFPOINTS
  6
Continuous
 62
     0
100
AcDbPoint
 10
755.0000000000003
 20
-309.6985455819512
 30
0.0
  0
ENDBLK
  5
E32F
330
E324
100
AcDbEntity
  8
0
100
AcDbBlockEnd
  0
BLOCK
  5
E33A
330
E330
100
AcDbEntity
  8
0
100
AcDbBlockBegin
  2
*D14
 70
     1
 10
0.0
 20
0.0
 30
0.0
  3
*D14
  1

  0
LINE
  5
11B6D
330
E330
100
AcDbEntity
  8
30
  6
Continuous
 62
     0
370
    -2
100
AcDbLine
 10
482.9999999999991
 20
-56.10000000000045
 30
0.0
 11
482.9999999999991
 21
-290.6
 31
0.0
  0
LINE
  5
11B6E
330
E330
100
AcDbEntity
  8
30
  6
Continuous
 62
     0
370
    -2
100
AcDbLine
 10
755.0000000000003
 20
-228.6000000000004
 30
0.0
 11
755.0000000000003
 21
-290.6
 31
0.0
  0
LINE
  5
11B6F
330
E330
100
AcDbEntity
  8
30
  6
Continuous
 62
     0
370
    -2
100
AcDbLine
 10
485.3999999999992
 20
-290.0
 30
0.0
 11
752.6000000000005
 21
-290.0
 31
0.0
  0
INSERT
  5
11B70
330
E330
100
AcDbEntity
  8
30
  6
Continuous
 62
     0
370
    -2
100
AcDbBlockReference
  2
_OPEN
 10
482.9999999999991
 20
-290.0
 30
0.0
 41
2.399999999999999
 42
2.399999999999999
 43
2.399999999999999
 50
180.0
  0
INSERT
  5
11B71
330
E330
100
AcDbEntity
  8
30
  6
Continuous
 62
     0
370
    -2
100
AcDbBlockReference
  2
_OPEN
 10
755.0000000000003
 20
-290.0
 30
0.0
 41
2.399999999999999
 42
2.399999999999999
 43
2.399999999999999
  0
MTEXT
  5
11B72
330
E330
100
AcDbEntity
  8
30
  6
Continuous
 62
     0
100
AcDbMText
 10
619.0
 20
-282.8
 30
0.0
 40
7.199999999999997
 41
0.0
 71
     5
 72
     1
  1
\A1; 272 
 73
     1
 44
1.0
1001
ACAD
1000
MTEXTBEGIN
1070
    73
1070
     1
1070
    44
1040
1.0
1070
    74
1070
     0
1000
MTEXTEND
  0
POINT
  5
11B73
330
E330
100
AcDbEntity
  8
DEFPOINTS
  6
Continuous
 62
     0
100
AcDbPoint
 10
482.9999999999991
 20
-52.50000000000046
 30
0.0
  0
POINT
  5
11B74
330
E330
100
AcDbEntity
  8
DEFPOINTS
  6
Continuous
 62
     0
100
AcDbPoint
 10
755.0000000000003
 20
-225.0000000000004
 30
0.0
  0
POINT
  5
11B75
330
E330
100
AcDbEntity
  8
DEFPOINTS
  6
Continuous
 62
     0
100
AcDbPoint
 10
755.0000000000003
 20
-290.0
 30
0.0
  0
ENDBLK
  5
E33B
330
E330
100
AcDbEntity
  8
0
100
AcDbBlockEnd
  0
BLOCK
  5
E346
330
E33C
100
AcDbEntity
  8
0
100
AcDbBlockBegin
  2
*D15
 70
     1
 10
0.0
 20
0.0
 30
0.0
  3
*D15
  1

  0
LINE
  5
11B0B
330
E33C
100
AcDbEntity
  8
30
  6
Continuous
 62
     0
370
    -2
100
AcDbLine
 10
358.9999999999993
 20
-6.399999999999726
 30
0.0
 11
358.9999999999993
 21
-330.5048362127724
 31
0.0
  0
LINE
  5
11B0C
330
E33C
100
AcDbEntity
  8
30
  6
Continuous
 62
     0
370
    -2
100
AcDbLine
 10
438.9999999999995
 20
-6.399999999999726
 30
0.0
 11
438.9999999999995
 21
-330.5048362127724
 31
0.0
  0
LINE
  5
11B0D
330
E33C
100
AcDbEntity
  8
30
  6
Continuous
 62
     0
370
    -2
100
AcDbLine
 10
361.3999999999994
 20
-329.9048362127723
 30
0.0
 11
436.5999999999996
 21
-329.9048362127723
 31
0.0
  0
INSERT
  5
11B0E
330
E33C
100
AcDbEntity
  8
30
  6
Continuous
 62
     0
370
    -2
100
AcDbBlockReference
  2
_OPEN
 10
358.9999999999993
 20
-329.9048362127723
 30
0.0
 41
2.399999999999999
 42
2.399999999999999
 43
2.399999999999999
 50
180.0
  0
INSERT
  5
11B0F
330
E33C
100
AcDbEntity
  8
30
  6
Continuous
 62
     0
370
    -2
100
AcDbBlockReference
  2
_OPEN
 10
438.9999999999995
 20
-329.9048362127723
 30
0.0
 41
2.399999999999999
 42
2.399999999999999
 43
2.399999999999999
  0
MTEXT
  5
11B10
330
E33C
100
AcDbEntity
  8
30
  6
Continuous
 62
     0
100
AcDbMText
 10
398.9999999999993
 20
-322.7048362127723
 30
0.0
 40
7.199999999999997
 41
0.0
 71
     5
 72
     1
  1
\A1; 80 
 73
     1
 44
1.0
1001
ACAD
1000
MTEXTBEGIN
1070
    73
1070
     1
1070
    44
1040
1.0
1070
    74
1070
     0
1000
MTEXTEND
  0
POINT
  5
11B11
330
E33C
100
AcDbEntity
  8
DEFPOINTS
  6
Continuous
 62
     0
100
AcDbPoint
 10
358.9999999999993
 20
-2.799999999999727
 30
0.0
  0
POINT
  5
11B12
330
E33C
100
AcDbEntity
  8
DEFPOINTS
  6
Continuous
 62
     0
100
AcDbPoint
 10
438.9999999999995
 20
-2.799999999999727
 30
0.0
  0
POINT
  5
11B13
330
E33C
100
AcDbEntity
  8
DEFPOINTS
  6
Continuous
 62
     0
100
AcDbPoint
 10
438.9999999999995
 20
-329.9048362127723
 30
0.0
  0
ENDBLK
  5
E347
330
E33C
100
AcDbEntity
  8
0
100
AcDbBlockEnd
  0
BLOCK
  5
E352
330
E348
100
AcDbEntity
  8
0
100
AcDbBlockBegin
  2
*D16
 70
     1
 10
0.0
 20
0.0
 30
0.0
  3
*D16
  1

  0
LINE
  5
11B02
330
E348
100
AcDbEntity
  8
30
  6
Continuous
 62
     0
370
    -2
100
AcDbLine
 10
358.9999999999993
 20
-11.39999999999972
 30
0.0
 11
358.9999999999993
 21
-350.7111320575454
 31
0.0
  0
LINE
  5
11B03
330
E348
100
AcDbEntity
  8
30
  6
Continuous
 62
     0
370
    -2
100
AcDbLine
 10
755.0000000000003
 20
-228.6000000000004
 30
0.0
 11
755.0000000000003
 21
-350.7111320575454
 31
0.0
  0
LINE
  5
11B04
330
E348
100
AcDbEntity
  8
30
  6
Continuous
 62
     0
370
    -2
100
AcDbLine
 10
361.3999999999994
 20
-350.1111320575454
 30
0.0
 11
752.6000000000005
 21
-350.1111320575454
 31
0.0
  0
INSERT
  5
11B05
330
E348
100
AcDbEntity
  8
30
  6
Continuous
 62
     0
370
    -2
100
AcDbBlockReference
  2
_OPEN
 10
358.9999999999993
 20
-350.1111320575454
 30
0.0
 41
2.399999999999999
 42
2.399999999999999
 43
2.399999999999999
 50
180.0
  0
INSERT
  5
11B06
330
E348
100
AcDbEntity
  8
30
  6
Continuous
 62
     0
370
    -2
100
AcDbBlockReference
  2
_OPEN
 10
755.0000000000003
 20
-350.1111320575454
 30
0.0
 41
2.399999999999999
 42
2.399999999999999
 43
2.399999999999999
  0
MTEXT
  5
11B07
330
E348
100
AcDbEntity
  8
30
  6
Continuous
 62
     0
100
AcDbMText
 10
557.0
 20
-342.9111320575453
 30
0.0
 40
7.199999999999997
 41
0.0
 71
     5
 72
     1
  1
\A1; 396 
 73
     1
 44
1.0
1001
ACAD
1000
MTEXTBEGIN
1070
    73
1070
     1
1070
    44
1040
1.0
1070
    74
1070
     0
1000
MTEXTEND
  0
POINT
  5
11B08
330
E348
100
AcDbEntity
  8
DEFPOINTS
  6
Continuous
 62
     0
100
AcDbPoint
 10
358.9999999999993
 20
-7.799999999999727
 30
0.0
  0
POINT
  5
11B09
330
E348
100
AcDbEntity
  8
DEFPOINTS
  6
Continuous
 62
     0
100
AcDbPoint
 10
755.0000000000003
 20
-225.0000000000004
 30
0.0
  0
POINT
  5
11B0A
330
E348
100
AcDbEntity
  8
DEFPOINTS
  6
Continuous
 62
     0
100
AcDbPoint
 10
755.0000000000003
 20
-350.1111320575454
 30
0.0
  0
ENDBLK
  5
E353
330
E348
100
AcDbEntity
  8
0
100
AcDbBlockEnd
  0
BLOCK
  5
E35E
330
E354
100
AcDbEntity
  8
0
100
AcDbBlockBegin
  2
*D17
 70
     1
 10
0.0
 20
0.0
 30
0.0
  3
*D17
  1

  0
LINE
  5
11B64
330
E354
100
AcDbEntity
  8
30
  6
Continuous
 62
     0
370
    -2
100
AcDbLine
 10
438.9999999999995
 20
-11.39999999999972
 30
0.0
 11
438.9999999999995
 21
-330.5048362127724
 31
0.0
  0
LINE
  5
11B65
330
E354
100
AcDbEntity
  8
30
  6
Continuous
 62
     0
370
    -2
100
AcDbLine
 10
755.0000000000003
 20
-228.6000000000004
 30
0.0
 11
755.0000000000003
 21
-330.5048362127724
 31
0.0
  0
LINE
  5
11B66
330
E354
100
AcDbEntity
  8
30
  6
Continuous
 62
     0
370
    -2
100
AcDbLine
 10
441.3999999999994
 20
-329.9048362127723
 30
0.0
 11
752.6000000000005
 21
-329.9048362127723
 31
0.0
  0
INSERT
  5
11B67
330
E354
100
AcDbEntity
  8
30
  6
Continuous
 62
     0
370
    -2
100
AcDbBlockReference
  2
_OPEN
 10
438.9999999999995
 20
-329.9048362127723
 30
0.0
 41
2.399999999999999
 42
2.399999999999999
 43
2.399999999999999
 50
180.0
  0
INSERT
  5
11B68
330
E354
100
AcDbEntity
  8
30
  6
Continuous
 62
     0
370
    -2
100
AcDbBlockReference
  2
_OPEN
 10
755.0000000000003
 20
-329.9048362127723
 30
0.0
 41
2.399999999999999
 42
2.399999999999999
 43
2.399999999999999
  0
MTEXT
  5
11B69
330
E354
100
AcDbEntity
  8
30
  6
Continuous
 62
     0
100
AcDbMText
 10
597.0
 20
-322.7048362127723
 30
0.0
 40
7.199999999999997
 41
0.0
 71
     5
 72
     1
  1
\A1; 316 
 73
     1
 44
1.0
1001
ACAD
1000
MTEXTBEGIN
1070
    73
1070
     1
1070
    44
1040
1.0
1070
    74
1070
     0
1000
MTEXTEND
  0
POINT
  5
11B6A
330
E354
100
AcDbEntity
  8
DEFPOINTS
  6
Continuous
 62
     0
100
AcDbPoint
 10
438.9999999999995
 20
-7.799999999999727
 30
0.0
  0
POINT
  5
11B6B
330
E354
100
AcDbEntity
  8
DEFPOINTS
  6
Continuous
 62
     0
100
AcDbPoint
 10
755.0000000000003
 20
-225.0000000000004
 30
0.0
  0
POINT
  5
11B6C
330
E354
100
AcDbEntity
  8
DEFPOINTS
  6
Continuous
 62
     0
100
AcDbPoint
 10
755.0000000000003
 20
-329.9048362127723
 30
0.0
  0
ENDBLK
  5
E35F
330
E354
100
AcDbEntity
  8
0
100
AcDbBlockEnd
  0
BLOCK
  5
E36B
330
E360
100
AcDbEntity
  8
0
100
AcDbBlockBegin
  2
*D18
 70
     1
 10
0.0
 20
0.0
 30
0.0
  3
*D18
  1

  0
LINE
  5
11B5B
330
E360
100
AcDbEntity
  8
30
  6
Continuous
 62
     0
370
    -2
100
AcDbLine
 10
883.6000000000005
 20
22.49999999999953
 30
0.0
 11
920.0539
 21
22.49999999999953
 31
0.0
  0
LINE
  5
11B5C
330
E360
100
AcDbEntity
  8
30
  6
Continuous
 62
     0
370
    -2
100
AcDbLine
 10
883.6000000000005
 20
97.49999999999957
 30
0.0
 11
920.0539
 21
97.49999999999957
 31
0.0
  0
LINE
  5
11B5D
330
E360
100
AcDbEntity
  8
30
  6
Continuous
 62
     0
370
    -2
100
AcDbLine
 10
919.4539
 20
24.89999999999954
 30
0.0
 11
919.4539
 21
95.09999999999953
 31
0.0
  0
INSERT
  5
11B5E
330
E360
100
AcDbEntity
  8
30
  6
Continuous
 62
     0
370
    -2
100
AcDbBlockReference
  2
_OPEN
 10
919.4539
 20
22.49999999999953
 30
0.0
 41
2.399999999999999
 42
2.399999999999999
 43
2.399999999999999
 50
270.0
  0
INSERT
  5
11B5F
330
E360
100
AcDbEntity
  8
30
  6
Continuous
 62
     0
370
    -2
100
AcDbBlockReference
  2
_OPEN
 10
919.4539
 20
97.49999999999957
 30
0.0
 41
2.399999999999999
 42
2.399999999999999
 43
2.399999999999999
 50
90.0
  0
MTEXT
  5
11B60
330
E360
100
AcDbEntity
  8
30
  6
Continuous
 62
     0
100
AcDbMText
 10
912.2539000000001
 20
59.99999999999968
 30
0.0
 40
7.199999999999997
 41
0.0
 71
     5
 72
     1
  1
\A1; 75 
 11
0.0000000000000001
 21
1.0
 31
0.0
 73
     1
 44
1.0
1001
ACAD
1000
MTEXTBEGIN
1070
    73
1070
     1
1070
    44
1040
1.0
1070
    74
1070
     0
1000
MTEXTEND
  0
POINT
  5
11B61
330
E360
100
AcDbEntity
  8
DEFPOINTS
  6
Continuous
 62
     0
100
AcDbPoint
 10
880.0000000000004
 20
22.49999999999953
 30
0.0
  0
POINT
  5
11B62
330
E360
100
AcDbEntity
  8
DEFPOINTS
  6
Continuous
 62
     0
100
AcDbPoint
 10
880.0000000000004
 20
97.49999999999957
 30
0.0
  0
POINT
  5
11B63
330
E360
100
AcDbEntity
  8
DEFPOINTS
  6
Continuous
 62
     0
100
AcDbPoint
 10
919.4539
 20
97.49999999999957
 30
0.0
  0
ENDBLK
  5
E36C
330
E360
100
AcDbEntity
  8
0
100
AcDbBlockEnd
  0
BLOCK
  5
E378
330
E36D
100
AcDbEntity
  8
0
100
AcDbBlockBegin
  2
*D19
 70
     1
 10
0.0
 20
0.0
 30
0.0
  3
*D19
  1

  0
LINE
  5
11B52
330
E36D
100
AcDbEntity
  8
30
  6
Continuous
 62
     0
370
    -2
100
AcDbLine
 10
883.6000000000005
 20
-100.0000000000003
 30
0.0
 11
937.5538999999999
 21
-100.0000000000003
 31
0.0
  0
LINE
  5
11B53
330
E36D
100
AcDbEntity
  8
30
  6
Continuous
 62
     0
370
    -2
100
AcDbLine
 10
912.3907749999997
 20
-0.0000000000004558
 30
0.0
 11
937.5538999999999
 21
-0.0000000000004629
 31
0.0
  0
LINE
  5
11B54
330
E36D
100
AcDbEntity
  8
30
  6
Continuous
 62
     0
370
    -2
100
AcDbLine
 10
936.9538999999999
 20
-97.60000000000047
 30
0.0
 11
936.9538999999999
 21
-2.400000000000459
 31
0.0
  0
INSERT
  5
11B55
330
E36D
100
AcDbEntity
  8
30
  6
Continuous
 62
     0
370
    -2
100
AcDbBlockReference
  2
_OPEN
 10
936.9538999999999
 20
-100.0000000000003
 30
0.0
 41
2.399999999999999
 42
2.399999999999999
 43
2.399999999999999
 50
270.0
  0
INSERT
  5
11B56
330
E36D
100
AcDbEntity
  8
30
  6
Continuous
 62
     0
370
    -2
100
AcDbBlockReference
  2
_OPEN
 10
936.9538999999999
 20
-0.0000000000004627
 30
0.0
 41
2.399999999999999
 42
2.399999999999999
 43
2.399999999999999
 50
90.0
  0
MTEXT
  5
11B57
330
E36D
100
AcDbEntity
  8
30
  6
Continuous
 62
     0
100
AcDbMText
 10
929.7538999999996
 20
-50.00000000000031
 30
0.0
 40
7.199999999999997
 41
0.0
 71
     5
 72
     1
  1
\A1; 100 
 11
0.0000000000000001
 21
1.0
 31
0.0
 73
     1
 44
1.0
1001
ACAD
1000
MTEXTBEGIN
1070
    73
1070
     1
1070
    44
1040
1.0
1070
    74
1070
     0
1000
MTEXTEND
  0
POINT
  5
11B58
330
E36D
100
AcDbEntity
  8
DEFPOINTS
  6
Continuous
 62
     0
100
AcDbPoint
 10
880.0000000000004
 20
-100.0000000000003
 30
0.0
  0
POINT
  5
11B59
330
E36D
100
AcDbEntity
  8
DEFPOINTS
  6
Continuous
 62
     0
100
AcDbPoint
 10
908.7907750000001
 20
-0.0000000000004547
 30
0.0
  0
POINT
  5
11B5A
330
E36D
100
AcDbEntity
  8
DEFPOINTS
  6
Continuous
 62
     0
100
AcDbPoint
 10
936.9538999999999
 20
-0.0000000000004627
 30
0.0
  0
ENDBLK
  5
E379
330
E36D
100
AcDbEntity
  8
0
100
AcDbBlockEnd
  0
BLOCK
  5
E390
330
E385
100
AcDbEntity
  8
0
100
AcDbBlockBegin
  2
*D20
 70
     1
 10
0.0
 20
0.0
 30
0.0
  3
*D20
  1

  0
LINE
  5
11B7F
330
E385
100
AcDbEntity
  8
30
  6
Continuous
 62
     0
370
    -2
100
AcDbLine
 10
863.6000000000002
 20
34.99999999999953
 30
0.0
 11
901.5539
 21
34.99999999999953
 31
0.0
  0
LINE
  5
11B80
330
E385
100
AcDbEntity
  8
30
  6
Continuous
 62
     0
370
    -2
100
AcDbLine
 10
863.6000000000002
 20
84.99999999999955
 30
0.0
 11
901.5539
 21
84.99999999999953
 31
0.0
  0
LINE
  5
11B81
330
E385
100
AcDbEntity
  8
30
  6
Continuous
 62
     0
370
    -2
100
AcDbLine
 10
900.9539
 20
37.39999999999954
 30
0.0
 11
900.9539
 21
82.59999999999953
 31
0.0
  0
INSERT
  5
11B82
330
E385
100
AcDbEntity
  8
30
  6
Continuous
 62
     0
370
    -2
100
AcDbBlockReference
  2
_OPEN
 10
900.9539
 20
34.99999999999953
 30
0.0
 41
2.399999999999999
 42
2.399999999999999
 43
2.399999999999999
 50
270.0
  0
INSERT
  5
11B83
330
E385
100
AcDbEntity
  8
30
  6
Continuous
 62
     0
370
    -2
100
AcDbBlockReference
  2
_OPEN
 10
900.9539
 20
84.99999999999953
 30
0.0
 41
2.399999999999999
 42
2.399999999999999
 43
2.399999999999999
 50
90.0
  0
MTEXT
  5
11B84
330
E385
100
AcDbEntity
  8
30
  6
Continuous
 62
     0
100
AcDbMText
 10
893.7538999999999
 20
59.99999999999968
 30
0.0
 40
7.199999999999997
 41
0.0
 71
     5
 72
     1
  1
\A1; 50 
 11
0.0000000000000001
 21
1.0
 31
0.0
 73
     1
 44
1.0
1001
ACAD
1000
MTEXTBEGIN
1070
    73
1070
     1
1070
    44
1040
1.0
1070
    74
1070
     0
1000
MTEXTEND
  0
POINT
  5
11B85
330
E385
100
AcDbEntity
  8
DEFPOINTS
  6
Continuous
 62
     0
100
AcDbPoint
 10
860.0000000000003
 20
34.99999999999953
 30
0.0
  0
POINT
  5
11B86
330
E385
100
AcDbEntity
  8
DEFPOINTS
  6
Continuous
 62
     0
100
AcDbPoint
 10
860.0000000000003
 20
84.99999999999955
 30
0.0
  0
POINT
  5
11B87
330
E385
100
AcDbEntity
  8
DEFPOINTS
  6
Continuous
 62
     0
100
AcDbPoint
 10
900.9539
 20
84.99999999999953
 30
0.0
  0
ENDBLK
  5
E391
330
E385
100
AcDbEntity
  8
0
100
AcDbBlockEnd
  0
BLOCK
  5
F64E
330
F644
100
AcDbEntity
  8
0
100
AcDbBlockBegin
  2
*D21
 70
     1
 10
0.0
 20
0.0
 30
0.0
  3
*D21
  1

  0
LINE
  5
11AF9
330
F644
100
AcDbEntity
  8
30
  6
Continuous
 62
     0
370
    -2
100
AcDbLine
 10
360.0000000000004
 20
178.5999999999995
 30
0.0
 11
360.0000000000004
 21
460.6
 31
0.0
  0
LINE
  5
11AFA
330
F644
100
AcDbEntity
  8
30
  6
Continuous
 62
     0
370
    -2
100
AcDbLine
 10
755.0000000000003
 20
313.5999999999995
 30
0.0
 11
755.0000000000003
 21
460.6
 31
0.0
  0
LINE
  5
11AFB
330
F644
100
AcDbEntity
  8
30
  6
Continuous
 62
     0
370
    -2
100
AcDbLine
 10
362.4000000000003
 20
460.0
 30
0.0
 11
752.6000000000005
 21
460.0
 31
0.0
  0
INSERT
  5
11AFC
330
F644
100
AcDbEntity
  8
30
  6
Continuous
 62
     0
370
    -2
100
AcDbBlockReference
  2
_OPEN
 10
360.0000000000004
 20
460.0
 30
0.0
 41
2.399999999999999
 42
2.399999999999999
 43
2.399999999999999
 50
180.0
  0
INSERT
  5
11AFD
330
F644
100
AcDbEntity
  8
30
  6
Continuous
 62
     0
370
    -2
100
AcDbBlockReference
  2
_OPEN
 10
755.0000000000003
 20
460.0
 30
0.0
 41
2.399999999999999
 42
2.399999999999999
 43
2.399999999999999
  0
MTEXT
  5
11AFE
330
F644
100
AcDbEntity
  8
30
  6
Continuous
 62
     0
100
AcDbMText
 10
557.5000000000003
 20
467.1999999999998
 30
0.0
 40
7.199999999999997
 41
0.0
 71
     5
 72
     1
  1
\A1; 395 
 73
     1
 44
1.0
1001
ACAD
1000
MTEXTBEGIN
1070
    73
1070
     1
1070
    44
1040
1.0
1070
    74
1070
     0
1000
MTEXTEND
  0
POINT
  5
11AFF
330
F644
100
AcDbEntity
  8
DEFPOINTS
  6
Continuous
 62
     0
100
AcDbPoint
 10
360.0000000000004
 20
174.9999999999995
 30
0.0
  0
POINT
  5
11B00
330
F644
100
AcDbEntity
  8
DEFPOINTS
  6
Continuous
 62
     0
100
AcDbPoint
 10
755.0000000000003
 20
309.9999999999993
 30
0.0
  0
POINT
  5
11B01
330
F644
100
AcDbEntity
  8
DEFPOINTS
  6
Continuous
 62
     0
100
AcDbPoint
 10
755.0000000000003
 20
460.0
 30
0.0
  0
ENDBLK
  5
F64F
330
F644
100
AcDbEntity
  8
0
100
AcDbBlockEnd
  0
BLOCK
  5
F65A
330
F650
100
AcDbEntity
  8
0
100
AcDbBlockBegin
  2
*D22
 70
     1
 10
0.0
 20
0.0
 30
0.0
  3
*D22
  1

  0
LINE
  5
11B40
330
F650
100
AcDbEntity
  8
30
  6
Continuous
 62
     0
370
    -2
100
AcDbLine
 10
430.0000000000004
 20
178.5999999999995
 30
0.0
 11
430.0000000000004
 21
420.6
 31
0.0
  0
LINE
  5
11B41
330
F650
100
AcDbEntity
  8
30
  6
Continuous
 62
     0
370
    -2
100
AcDbLine
 10
755.0000000000003
 20
313.5999999999995
 30
0.0
 11
755.0000000000003
 21
420.6
 31
0.0
  0
LINE
  5
11B42
330
F650
100
AcDbEntity
  8
30
  6
Continuous
 62
     0
370
    -2
100
AcDbLine
 10
432.4000000000004
 20
420.0
 30
0.0
 11
752.6000000000005
 21
420.0
 31
0.0
  0
INSERT
  5
11B43
330
F650
100
AcDbEntity
  8
30
  6
Continuous
 62
     0
370
    -2
100
AcDbBlockReference
  2
_OPEN
 10
430.0000000000004
 20
420.0
 30
0.0
 41
2.399999999999999
 42
2.399999999999999
 43
2.399999999999999
 50
180.0
  0
INSERT
  5
11B44
330
F650
100
AcDbEntity
  8
30
  6
Continuous
 62
     0
370
    -2
100
AcDbBlockReference
  2
_OPEN
 10
755.0000000000003
 20
420.0
 30
0.0
 41
2.399999999999999
 42
2.399999999999999
 43
2.399999999999999
  0
MTEXT
  5
11B45
330
F650
100
AcDbEntity
  8
30
  6
Continuous
 62
     0
100
AcDbMText
 10
592.5000000000002
 20
427.2
 30
0.0
 40
7.199999999999997
 41
0.0
 71
     5
 72
     1
  1
\A1; 325 
 73
     1
 44
1.0
1001
ACAD
1000
MTEXTBEGIN
1070
    73
1070
     1
1070
    44
1040
1.0
1070
    74
1070
     0
1000
MTEXTEND
  0
POINT
  5
11B46
330
F650
100
AcDbEntity
  8
DEFPOINTS
  6
Continuous
 62
     0
100
AcDbPoint
 10
430.0000000000004
 20
174.9999999999995
 30
0.0
  0
POINT
  5
11B47
330
F650
100
AcDbEntity
  8
DEFPOINTS
  6
Continuous
 62
     0
100
AcDbPoint
 10
755.0000000000003
 20
309.9999999999993
 30
0.0
  0
POINT
  5
11B48
330
F650
100
AcDbEntity
  8
DEFPOINTS
  6
Continuous
 62
     0
100
AcDbPoint
 10
755.0000000000003
 20
420.0
 30
0.0
  0
ENDBLK
  5
F65B
330
F650
100
AcDbEntity
  8
0
100
AcDbBlockEnd
  0
BLOCK
  5
F666
330
F65C
100
AcDbEntity
  8
0
100
AcDbBlockBegin
  2
*D23
 70
     1
 10
0.0
 20
0.0
 30
0.0
  3
*D23
  1

  0
LINE
  5
11B37
330
F65C
100
AcDbEntity
  8
30
  6
Continuous
 62
     0
370
    -2
100
AcDbLine
 10
460.0000000000004
 20
178.5999999999995
 30
0.0
 11
460.0000000000004
 21
380.6
 31
0.0
  0
LINE
  5
11B38
330
F65C
100
AcDbEntity
  8
30
  6
Continuous
 62
     0
370
    -2
100
AcDbLine
 10
755.0000000000003
 20
313.5999999999995
 30
0.0
 11
755.0000000000003
 21
380.6
 31
0.0
  0
LINE
  5
11B39
330
F65C
100
AcDbEntity
  8
30
  6
Continuous
 62
     0
370
    -2
100
AcDbLine
 10
462.4000000000004
 20
380.0
 30
0.0
 11
752.6000000000005
 21
380.0
 31
0.0
  0
INSERT
  5
11B3A
330
F65C
100
AcDbEntity
  8
30
  6
Continuous
 62
     0
370
    -2
100
AcDbBlockReference
  2
_OPEN
 10
460.0000000000004
 20
380.0
 30
0.0
 41
2.399999999999999
 42
2.399999999999999
 43
2.399999999999999
 50
180.0
  0
INSERT
  5
11B3B
330
F65C
100
AcDbEntity
  8
30
  6
Continuous
 62
     0
370
    -2
100
AcDbBlockReference
  2
_OPEN
 10
755.0000000000003
 20
380.0
 30
0.0
 41
2.399999999999999
 42
2.399999999999999
 43
2.399999999999999
  0
MTEXT
  5
11B3C
330
F65C
100
AcDbEntity
  8
30
  6
Continuous
 62
     0
100
AcDbMText
 10
607.5000000000002
 20
387.1999999999998
 30
0.0
 40
7.199999999999997
 41
0.0
 71
     5
 72
     1
  1
\A1; 295 
 73
     1
 44
1.0
1001
ACAD
1000
MTEXTBEGIN
1070
    73
1070
     1
1070
    44
1040
1.0
1070
    74
1070
     0
1000
MTEXTEND
  0
POINT
  5
11B3D
330
F65C
100
AcDbEntity
  8
DEFPOINTS
  6
Continuous
 62
     0
100
AcDbPoint
 10
460.0000000000004
 20
174.9999999999995
 30
0.0
  0
POINT
  5
11B3E
330
F65C
100
AcDbEntity
  8
DEFPOINTS
  6
Continuous
 62
     0
100
AcDbPoint
 10
755.0000000000003
 20
309.9999999999993
 30
0.0
  0
POINT
  5
11B3F
330
F65C
100
AcDbEntity
  8
DEFPOINTS
  6
Continuous
 62
     0
100
AcDbPoint
 10
755.0000000000003
 20
380.0
 30
0.0
  0
ENDBLK
  5
F667
330
F65C
100
AcDbEntity
  8
0
100
AcDbBlockEnd
  0
BLOCK
  5
F672
330
F668
100
AcDbEntity
  8
0
100
AcDbBlockBegin
  2
*D24
 70
     1
 10
0.0
 20
0.0
 30
0.0
  3
*D24
  1

  0
LINE
  5
11B2E
330
F668
100
AcDbEntity
  8
30
  6
Continuous
 62
     0
370
    -2
100
AcDbLine
 10
490.0000000000003
 20
178.5999999999995
 30
0.0
 11
490.0000000000003
 21
340.6
 31
0.0
  0
LINE
  5
11B2F
330
F668
100
AcDbEntity
  8
30
  6
Continuous
 62
     0
370
    -2
100
AcDbLine
 10
755.0000000000003
 20
313.5999999999995
 30
0.0
 11
755.0000000000003
 21
340.6
 31
0.0
  0
LINE
  5
11B30
330
F668
100
AcDbEntity
  8
30
  6
Continuous
 62
     0
370
    -2
100
AcDbLine
 10
492.4000000000003
 20
340.0
 30
0.0
 11
752.6000000000005
 21
340.0
 31
0.0
  0
INSERT
  5
11B31
330
F668
100
AcDbEntity
  8
30
  6
Continuous
 62
     0
370
    -2
100
AcDbBlockReference
  2
_OPEN
 10
490.0000000000003
 20
340.0
 30
0.0
 41
2.399999999999999
 42
2.399999999999999
 43
2.399999999999999
 50
180.0
  0
INSERT
  5
11B32
330
F668
100
AcDbEntity
  8
30
  6
Continuous
 62
     0
370
    -2
100
AcDbBlockReference
  2
_OPEN
 10
755.0000000000003
 20
340.0
 30
0.0
 41
2.399999999999999
 42
2.399999999999999
 43
2.399999999999999
  0
MTEXT
  5
11B33
330
F668
100
AcDbEntity
  8
30
  6
Continuous
 62
     0
100
AcDbMText
 10
622.5000000000002
 20
347.1999999999998
 30
0.0
 40
7.199999999999997
 41
0.0
 71
     5
 72
     1
  1
\A1; 265 
 73
     1
 44
1.0
1001
ACAD
1000
MTEXTBEGIN
1070
    73
1070
     1
1070
    44
1040
1.0
1070
    74
1070
     0
1000
MTEXTEND
  0
POINT
  5
11B34
330
F668
100
AcDbEntity
  8
DEFPOINTS
  6
Continuous
 62
     0
100
AcDbPoint
 10
490.0000000000003
 20
174.9999999999995
 30
0.0
  0
POINT
  5
11B35
330
F668
100
AcDbEntity
  8
DEFPOINTS
  6
Continuous
 62
     0
100
AcDbPoint
 10
755.0000000000003
 20
309.9999999999993
 30
0.0
  0
POINT
  5
11B36
330
F668
100
AcDbEntity
  8
DEFPOINTS
  6
Continuous
 62
     0
100
AcDbPoint
 10
755.0000000000003
 20
340.0
 30
0.0
  0
ENDBLK
  5
F673
330
F668
100
AcDbEntity
  8
0
100
AcDbBlockEnd
  0
BLOCK
  5
10BD5
330
10BCB
100
AcDbEntity
  8
0
100
AcDbBlockBegin
  2
*D25
 70
     1
 10
0.0
 20
0.0
 30
0.0
  3
*D25
  1

  0
LINE
  5
11943
330
10BCB
100
AcDbEntity
  8
30
  6
Continuous
 62
     0
370
    -2
100
AcDbLine
 10
-112.5
 20
-411.3999999999998
 30
0.0
 11
-112.5
 21
-349.3999999999998
 31
0.0
  0
LINE
  5
11944
330
10BCB
100
AcDbEntity
  8
30
  6
Continuous
 62
     0
370
    -2
100
AcDbLine
 10
112.5
 20
-411.3999999999998
 30
0.0
 11
112.5
 21
-349.3999999999998
 31
0.0
  0
LINE
  5
11945
330
10BCB
100
AcDbEntity
  8
30
  6
Continuous
 62
     0
370
    -2
100
AcDbLine
 10
-110.0999999999999
 20
-350.0
 30
0.0
 11
110.0999999999999
 21
-350.0
 31
0.0
  0
INSERT
  5
11946
330
10BCB
100
AcDbEntity
  8
30
  6
Continuous
 62
     0
370
    -2
100
AcDbBlockReference
  2
_OPEN
 10
-112.5
 20
-350.0
 30
0.0
 41
2.399999999999999
 42
2.399999999999999
 43
2.399999999999999
 50
180.0
  0
INSERT
  5
11947
330
10BCB
100
AcDbEntity
  8
30
  6
Continuous
 62
     0
370
    -2
100
AcDbBlockReference
  2
_OPEN
 10
112.5
 20
-350.0
 30
0.0
 41
2.399999999999999
 42
2.399999999999999
 43
2.399999999999999
  0
MTEXT
  5
11948
330
10BCB
100
AcDbEntity
  8
30
  6
Continuous
 62
     0
100
AcDbMText
 10
0.0000000000000004
 20
-342.8
 30
0.0
 40
7.199999999999997
 41
0.0
 71
     5
 72
     1
  1
\A1; 225 
 73
     1
 44
1.0
1001
ACAD
1000
MTEXTBEGIN
1070
    73
1070
     1
1070
    44
1040
1.0
1070
    74
1070
     0
1000
MTEXTEND
  0
POINT
  5
11949
330
10BCB
100
AcDbEntity
  8
DEFPOINTS
  6
Continuous
 62
     0
100
AcDbPoint
 10
-112.5
 20
-415.0
 30
0.0
  0
POINT
  5
1194A
330
10BCB
100
AcDbEntity
  8
DEFPOINTS
  6
Continuous
 62
     0
100
AcDbPoint
 10
112.5
 20
-415.0
 30
0.0
  0
POINT
  5
1194B
330
10BCB
100
AcDbEntity
  8
DEFPOINTS
  6
Continuous
 62
     0
100
AcDbPoint
 10
112.5
 20
-350.0
 30
0.0
  0
ENDBLK
  5
10BD6
330
10BCB
100
AcDbEntity
  8
0
100
AcDbBlockEnd
  0
BLOCK
  5
112E5
330
112DB
100
AcDbEntity
  8
0
100
AcDbBlockBegin
  2
*D26
 70
     1
 10
0.0
 20
0.0
 30
0.0
  3
*D26
  1

  0
LINE
  5
11759
330
112DB
100
AcDbEntity
  8
30
  6
Continuous
 62
     0
370
    -2
100
AcDbLine
 10
395.0
 20
-591.4000000000004
 30
0.0
 11
395.0
 21
-499.3999999999998
 31
0.0
  0
LINE
  5
1175A
330
112DB
100
AcDbEntity
  8
30
  6
Continuous
 62
     0
370
    -2
100
AcDbLine
 10
675.0
 20
-591.4000000000004
 30
0.0
 11
675.0
 21
-499.3999999999998
 31
0.0
  0
LINE
  5
1175B
330
112DB
100
AcDbEntity
  8
30
  6
Continuous
 62
     0
370
    -2
100
AcDbLine
 10
397.3999999999998
 20
-500.0
 30
0.0
 11
672.5999999999998
 21
-500.0
 31
0.0
  0
INSERT
  5
1175C
330
112DB
100
AcDbEntity
  8
30
  6
Continuous
 62
     0
370
    -2
100
AcDbBlockReference
  2
_OPEN
 10
395.0
 20
-500.0
 30
0.0
 41
2.399999999999999
 42
2.399999999999999
 43
2.399999999999999
 50
180.0
  0
INSERT
  5
1175D
330
112DB
100
AcDbEntity
  8
30
  6
Continuous
 62
     0
370
    -2
100
AcDbBlockReference
  2
_OPEN
 10
675.0
 20
-500.0
 30
0.0
 41
2.399999999999999
 42
2.399999999999999
 43
2.399999999999999
  0
MTEXT
  5
1175E
330
112DB
100
AcDbEntity
  8
30
  6
Continuous
 62
     0
100
AcDbMText
 10
535.0
 20
-492.7999999999998
 30
0.0
 40
7.199999999999997
 41
0.0
 71
     5
 72
     1
  1
\A1; 280 
 73
     1
 44
1.0
1001
ACAD
1000
MTEXTBEGIN
1070
    73
1070
     1
1070
    44
1040
1.0
1070
    74
1070
     0
1000
MTEXTEND
  0
POINT
  5
1175F
330
112DB
100
AcDbEntity
  8
DEFPOINTS
  6
Continuous
 62
     0
100
AcDbPoint
 10
395.0
 20
-595.0000000000001
 30
0.0
  0
POINT
  5
11760
330
112DB
100
AcDbEntity
  8
DEFPOINTS
  6
Continuous
 62
     0
100
AcDbPoint
 10
675.0
 20
-595.0000000000001
 30
0.0
  0
POINT
  5
11761
330
112DB
100
AcDbEntity
  8
DEFPOINTS
  6
Continuous
 62
     0
100
AcDbPoint
 10
675.0
 20
-500.0
 30
0.0
  0
ENDBLK
  5
112E6
330
112DB
100
AcDbEntity
  8
0
100
AcDbBlockEnd
  0
BLOCK
  5
112F1
330
112E7
100
AcDbEntity
  8
0
100
AcDbBlockBegin
  2
*D27
 70
     1
 10
0.0
 20
0.0
 30
0.0
  3
*D27
  1

  0
LINE
  5
11762
330
112E7
100
AcDbEntity
  8
30
  6
Continuous
 62
     0
370
    -2
100
AcDbLine
 10
395.0
 20
-591.4000000000004
 30
0.0
 11
395.0
 21
-549.3999999999998
 31
0.0
  0
LINE
  5
11763
330
112E7
100
AcDbEntity
  8
30
  6
Continuous
 62
     0
370
    -2
100
AcDbLine
 10
605.0
 20
-591.4000000000004
 30
0.0
 11
605.0
 21
-549.3999999999998
 31
0.0
  0
LINE
  5
11764
330
112E7
100
AcDbEntity
  8
30
  6
Continuous
 62
     0
370
    -2
100
AcDbLine
 10
397.3999999999998
 20
-550.0
 30
0.0
 11
602.6
 21
-550.0
 31
0.0
  0
INSERT
  5
11765
330
112E7
100
AcDbEntity
  8
30
  6
Continuous
 62
     0
370
    -2
100
AcDbBlockReference
  2
_OPEN
 10
395.0
 20
-550.0
 30
0.0
 41
2.399999999999999
 42
2.399999999999999
 43
2.399999999999999
 50
180.0
  0
INSERT
  5
11766
330
112E7
100
AcDbEntity
  8
30
  6
Continuous
 62
     0
370
    -2
100
AcDbBlockReference
  2
_OPEN
 10
605.0
 20
-550.0
 30
0.0
 41
2.399999999999999
 42
2.399999999999999
 43
2.399999999999999
  0
MTEXT
  5
11767
330
112E7
100
AcDbEntity
  8
30
  6
Continuous
 62
     0
100
AcDbMText
 10
500.0
 20
-542.7999999999998
 30
0.0
 40
7.199999999999997
 41
0.0
 71
     5
 72
     1
  1
\A1; 210 
 73
     1
 44
1.0
1001
ACAD
1000
MTEXTBEGIN
1070
    73
1070
     1
1070
    44
1040
1.0
1070
    74
1070
     0
1000
MTEXTEND
  0
POINT
  5
11768
330
112E7
100
AcDbEntity
  8
DEFPOINTS
  6
Continuous
 62
     0
100
AcDbPoint
 10
395.0
 20
-595.0000000000001
 30
0.0
  0
POINT
  5
11769
330
112E7
100
AcDbEntity
  8
DEFPOINTS
  6
Continuous
 62
     0
100
AcDbPoint
 10
605.0
 20
-595.0000000000001
 30
0.0
  0
POINT
  5
1176A
330
112E7
100
AcDbEntity
  8
DEFPOINTS
  6
Continuous
 62
     0
100
AcDbPoint
 10
605.0
 20
-550.0
 30
0.0
  0
ENDBLK
  5
112F2
330
112E7
100
AcDbEntity
  8
0
100
AcDbBlockEnd
  0
BLOCK
  5
112FD
330
112F3
100
AcDbEntity
  8
0
100
AcDbBlockBegin
  2
*D28
 70
     1
 10
0.0
 20
0.0
 30
0.0
  3
*D28
  1

  0
LINE
  5
11AF0
330
112F3
100
AcDbEntity
  8
30
  6
Continuous
 62
     0
370
    -2
100
AcDbLine
 10
283.4999999999999
 20
-654.6000000000002
 30
0.0
 11
283.4999999999999
 21
-820.5999999999997
 31
0.0
  0
LINE
  5
11AF1
330
112F3
100
AcDbEntity
  8
30
  6
Continuous
 62
     0
370
    -2
100
AcDbLine
 10
476.4999999999998
 20
-654.6000000000002
 30
0.0
 11
476.4999999999998
 21
-820.5999999999997
 31
0.0
  0
LINE
  5
11AF2
330
112F3
100
AcDbEntity
  8
30
  6
Continuous
 62
     0
370
    -2
100
AcDbLine
 10
285.8999999999998
 20
-820.0
 30
0.0
 11
474.1
 21
-820.0
 31
0.0
  0
INSERT
  5
11AF3
330
112F3
100
AcDbEntity
  8
30
  6
Continuous
 62
     0
370
    -2
100
AcDbBlockReference
  2
_OPEN
 10
283.4999999999999
 20
-820.0
 30
0.0
 41
2.399999999999999
 42
2.399999999999999
 43
2.399999999999999
 50
180.0
  0
INSERT
  5
11AF4
330
112F3
100
AcDbEntity
  8
30
  6
Continuous
 62
     0
370
    -2
100
AcDbBlockReference
  2
_OPEN
 10
476.4999999999998
 20
-820.0
 30
0.0
 41
2.399999999999999
 42
2.399999999999999
 43
2.399999999999999
  0
MTEXT
  5
11AF5
330
112F3
100
AcDbEntity
  8
30
  6
Continuous
 62
     0
100
AcDbMText
 10
380.0
 20
-812.8
 30
0.0
 40
7.199999999999997
 41
0.0
 71
     5
 72
     1
  1
\A1; 193 
 73
     1
 44
1.0
1001
ACAD
1000
MTEXTBEGIN
1070
    73
1070
     1
1070
    44
1040
1.0
1070
    74
1070
     0
1000
MTEXTEND
  0
POINT
  5
11AF6
330
112F3
100
AcDbEntity
  8
DEFPOINTS
  6
Continuous
 62
     0
100
AcDbPoint
 10
283.4999999999999
 20
-651.0000000000006
 30
0.0
  0
POINT
  5
11AF7
330
112F3
100
AcDbEntity
  8
DEFPOINTS
  6
Continuous
 62
     0
100
AcDbPoint
 10
476.4999999999998
 20
-651.0000000000006
 30
0.0
  0
POINT
  5
11AF8
330
112F3
100
AcDbEntity
  8
DEFPOINTS
  6
Continuous
 62
     0
100
AcDbPoint
 10
476.4999999999998
 20
-820.0
 30
0.0
  0
ENDBLK
  5
112FE
330
112F3
100
AcDbEntity
  8
0
100
AcDbBlockEnd
  0
BLOCK
  5
11309
330
112FF
100
AcDbEntity
  8
0
100
AcDbBlockBegin
  2
*D29
 70
     1
 10
0.0
 20
0.0
 30
0.0
  3
*D29
  1

  0
LINE
  5
11B1D
330
112FF
100
AcDbEntity
  8
30
  6
Continuous
 62
     0
370
    -2
100
AcDbLine
 10
277.8999999999999
 20
-649.0000000000001
 30
0.0
 11
239.3999999999999
 21
-649.0000000000001
 31
0.0
  0
LINE
  5
11B1E
330
112FF
100
AcDbEntity
  8
30
  6
Continuous
 62
     0
370
    -2
100
AcDbLine
 10
277.8999999999999
 20
-551.0000000000003
 30
0.0
 11
239.4
 21
-551.0000000000003
 31
0.0
  0
LINE
  5
11B1F
330
112FF
100
AcDbEntity
  8
30
  6
Continuous
 62
     0
370
    -2
100
AcDbLine
 10
239.9999999999999
 20
-646.6000000000002
 30
0.0
 11
240.0
 21
-553.4000000000003
 31
0.0
  0
INSERT
  5
11B20
330
112FF
100
AcDbEntity
  8
30
  6
Continuous
 62
     0
370
    -2
100
AcDbBlockReference
  2
_OPEN
 10
239.9999999999999
 20
-649.0000000000001
 30
0.0
 41
2.399999999999999
 42
2.399999999999999
 43
2.399999999999999
 50
270.0
  0
INSERT
  5
11B21
330
112FF
100
AcDbEntity
  8
30
  6
Continuous
 62
     0
370
    -2
100
AcDbBlockReference
  2
_OPEN
 10
240.0
 20
-551.0000000000003
 30
0.0
 41
2.399999999999999
 42
2.399999999999999
 43
2.399999999999999
 50
90.0
  0
MTEXT
  5
11B22
330
112FF
100
AcDbEntity
  8
30
  6
Continuous
 62
     0
100
AcDbMText
 10
232.8
 20
-600.0000000000002
 30
0.0
 40
7.199999999999997
 41
0.0
 71
     5
 72
     1
  1
\A1; 98 
 11
0.0000000000000001
 21
1.0
 31
0.0
 73
     1
 44
1.0
1001
ACAD
1000
MTEXTBEGIN
1070
    73
1070
     1
1070
    44
1040
1.0
1070
    74
1070
     0
1000
MTEXTEND
  0
POINT
  5
11B23
330
112FF
100
AcDbEntity
  8
DEFPOINTS
  6
Continuous
 62
     0
100
AcDbPoint
 10
281.4999999999999
 20
-649.0000000000001
 30
0.0
  0
POINT
  5
11B24
330
112FF
100
AcDbEntity
  8
DEFPOINTS
  6
Continuous
 62
     0
100
AcDbPoint
 10
281.4999999999999
 20
-551.0000000000003
 30
0.0
  0
POINT
  5
11B25
330
112FF
100
AcDbEntity
  8
DEFPOINTS
  6
Continuous
 62
     0
100
AcDbPoint
 10
240.0
 20
-551.0000000000003
 30
0.0
  0
ENDBLK
  5
1130A
330
112FF
100
AcDbEntity
  8
0
100
AcDbBlockEnd
  0
BLOCK
  5
1148E
330
11484
100
AcDbEntity
  8
0
100
AcDbBlockBegin
  2
*D30
 70
     1
 10
0.0
 20
0.0
 30
0.0
  3
*D30
  1

  0
LINE
  5
11747
330
11484
100
AcDbEntity
  8
30
  6
Continuous
 62
     0
370
    -2
100
AcDbLine
 10
-158.599999999999
 20
-219.9999999999995
 30
0.0
 11
-260.6
 21
-219.9999999999995
 31
0.0
  0
LINE
  5
11748
330
11484
100
AcDbEntity
  8
30
  6
Continuous
 62
     0
370
    -2
100
AcDbLine
 10
-123.599999999999
 20
304.9999999999993
 30
0.0
 11
-260.6
 21
304.9999999999996
 31
0.0
  0
LINE
  5
11749
330
11484
100
AcDbEntity
  8
30
  6
Continuous
 62
     0
370
    -2
100
AcDbLine
 10
-260.0
 20
-217.5999999999995
 30
0.0
 11
-260.0
 21
302.5999999999996
 31
0.0
  0
INSERT
  5
1174A
330
11484
100
AcDbEntity
  8
30
  6
Continuous
 62
     0
370
    -2
100
AcDbBlockReference
  2
_OPEN
 10
-260.0
 20
-219.9999999999995
 30
0.0
 41
2.399999999999999
 42
2.399999999999999
 43
2.399999999999999
 50
270.0
  0
INSERT
  5
1174B
330
11484
100
AcDbEntity
  8
30
  6
Continuous
 62
     0
370
    -2
100
AcDbBlockReference
  2
_OPEN
 10
-260.0
 20
304.9999999999996
 30
0.0
 41
2.399999999999999
 42
2.399999999999999
 43
2.399999999999999
 50
90.0
  0
MTEXT
  5
1174C
330
11484
100
AcDbEntity
  8
30
  6
Continuous
 62
     0
100
AcDbMText
 10
-267.2
 20
42.5
 30
0.0
 40
7.199999999999997
 41
0.0
 71
     5
 72
     1
  1
\A1; 525 
 11
0.0000000000000001
 21
1.0
 31
0.0
 73
     1
 44
1.0
1001
ACAD
1000
MTEXTBEGIN
1070
    73
1070
     1
1070
    44
1040
1.0
1070
    74
1070
     0
1000
MTEXTEND
  0
POINT
  5
1174D
330
11484
100
AcDbEntity
  8
DEFPOINTS
  6
Continuous
 62
     0
100
AcDbPoint
 10
-154.999999999999
 20
-219.9999999999995
 30
0.0
  0
POINT
  5
1174E
330
11484
100
AcDbEntity
  8
DEFPOINTS
  6
Continuous
 62
     0
100
AcDbPoint
 10
-119.999999999999
 20
304.9999999999993
 30
0.0
  0
POINT
  5
1174F
330
11484
100
AcDbEntity
  8
DEFPOINTS
  6
Continuous
 62
     0
100
AcDbPoint
 10
-260.0
 20
304.9999999999996
 30
0.0
  0
ENDBLK
  5
1148F
330
11484
100
AcDbEntity
  8
0
100
AcDbBlockEnd
  0
BLOCK
  5
1149A
330
11490
100
AcDbEntity
  8
0
100
AcDbBlockBegin
  2
*D31
 70
     1
 10
0.0
 20
0.0
 30
0.0
  3
*D31
  1

  0
LINE
  5
1173E
330
11490
100
AcDbEntity
  8
30
  6
Continuous
 62
     0
370
    -2
100
AcDbLine
 10
-158.599999999999
 20
-219.9999999999995
 30
0.0
 11
-220.5999999999999
 21
-219.9999999999995
 31
0.0
  0
LINE
  5
1173F
330
11490
100
AcDbEntity
  8
30
  6
Continuous
 62
     0
370
    -2
100
AcDbLine
 10
-205.7474600000009
 20
-0.0000000000004537
 30
0.0
 11
-220.5999999999999
 21
-0.0000000000004495
 31
0.0
  0
LINE
  5
11740
330
11490
100
AcDbEntity
  8
30
  6
Continuous
 62
     0
370
    -2
100
AcDbLine
 10
-220.0
 20
-217.5999999999995
 30
0.0
 11
-220.0
 21
-2.400000000000449
 31
0.0
  0
INSERT
  5
11741
330
11490
100
AcDbEntity
  8
30
  6
Continuous
 62
     0
370
    -2
100
AcDbBlockReference
  2
_OPEN
 10
-220.0
 20
-219.9999999999995
 30
0.0
 41
2.399999999999999
 42
2.399999999999999
 43
2.399999999999999
 50
270.0
  0
INSERT
  5
11742
330
11490
100
AcDbEntity
  8
30
  6
Continuous
 62
     0
370
    -2
100
AcDbBlockReference
  2
_OPEN
 10
-220.0
 20
-0.0000000000004497
 30
0.0
 41
2.399999999999999
 42
2.399999999999999
 43
2.399999999999999
 50
90.0
  0
MTEXT
  5
11743
330
11490
100
AcDbEntity
  8
30
  6
Continuous
 62
     0
100
AcDbMText
 10
-227.1999999999999
 20
-110.0
 30
0.0
 40
7.199999999999997
 41
0.0
 71
     5
 72
     1
  1
\A1; 220 
 11
0.0000000000000001
 21
1.0
 31
0.0
 73
     1
 44
1.0
1001
ACAD
1000
MTEXTBEGIN
1070
    73
1070
     1
1070
    44
1040
1.0
1070
    74
1070
     0
1000
MTEXTEND
  0
POINT
  5
11744
330
11490
100
AcDbEntity
  8
DEFPOINTS
  6
Continuous
 62
     0
100
AcDbPoint
 10
-154.999999999999
 20
-219.9999999999995
 30
0.0
  0
POINT
  5
11745
330
11490
100
AcDbEntity
  8
DEFPOINTS
  6
Continuous
 62
     0
100
AcDbPoint
 10
-202.147460000001
 20
-0.0000000000004547
 30
0.0
  0
POINT
  5
11746
330
11490
100
AcDbEntity
  8
DEFPOINTS
  6
Continuous
 62
     0
100
AcDbPoint
 10
-220.0
 20
-0.0000000000004497
 30
0.0
  0
ENDBLK
  5
1149B
330
11490
100
AcDbEntity
  8
0
100
AcDbBlockEnd
  0
BLOCK
  5
114A6
330
1149C
100
AcDbEntity
  8
0
100
AcDbBlockBegin
  2
*D32
 70
     1
 10
0.0
 20
0.0
 30
0.0
  3
*D32
  1

  0
LINE
  5
11735
330
1149C
100
AcDbEntity
  8
30
  6
Continuous
 62
     0
370
    -2
100
AcDbLine
 10
-158.599999999999
 20
199.9999999999995
 30
0.0
 11
-220.5999999999999
 21
199.9999999999995
 31
0.0
  0
LINE
  5
11736
330
1149C
100
AcDbEntity
  8
30
  6
Continuous
 62
     0
370
    -2
100
AcDbLine
 10
-123.599999999999
 20
304.9999999999993
 30
0.0
 11
-220.5999999999999
 21
304.9999999999996
 31
0.0
  0
LINE
  5
11737
330
1149C
100
AcDbEntity
  8
30
  6
Continuous
 62
     0
370
    -2
100
AcDbLine
 10
-220.0
 20
202.3999999999996
 30
0.0
 11
-220.0
 21
302.5999999999996
 31
0.0
  0
INSERT
  5
11738
330
1149C
100
AcDbEntity
  8
30
  6
Continuous
 62
     0
370
    -2
100
AcDbBlockReference
  2
_OPEN
 10
-220.0
 20
199.9999999999995
 30
0.0
 41
2.399999999999999
 42
2.399999999999999
 43
2.399999999999999
 50
270.0
  0
INSERT
  5
11739
330
1149C
100
AcDbEntity
  8
30
  6
Continuous
 62
     0
370
    -2
100
AcDbBlockReference
  2
_OPEN
 10
-220.0
 20
304.9999999999996
 30
0.0
 41
2.399999999999999
 42
2.399999999999999
 43
2.399999999999999
 50
90.0
  0
MTEXT
  5
1173A
330
1149C
100
AcDbEntity
  8
30
  6
Continuous
 62
     0
100
AcDbMText
 10
-227.1999999999999
 20
252.4999999999995
 30
0.0
 40
7.199999999999997
 41
0.0
 71
     5
 72
     1
  1
\A1; 105 
 11
0.0000000000000001
 21
1.0
 31
0.0
 73
     1
 44
1.0
1001
ACAD
1000
MTEXTBEGIN
1070
    73
1070
     1
1070
    44
1040
1.0
1070
    74
1070
     0
1000
MTEXTEND
  0
POINT
  5
1173B
330
1149C
100
AcDbEntity
  8
DEFPOINTS
  6
Continuous
 62
     0
100
AcDbPoint
 10
-154.999999999999
 20
199.9999999999995
 30
0.0
  0
POINT
  5
1173C
330
1149C
100
AcDbEntity
  8
DEFPOINTS
  6
Continuous
 62
     0
100
AcDbPoint
 10
-119.999999999999
 20
304.9999999999993
 30
0.0
  0
POINT
  5
1173D
330
1149C
100
AcDbEntity
  8
DEFPOINTS
  6
Continuous
 62
     0
100
AcDbPoint
 10
-220.0
 20
304.9999999999996
 30
0.0
  0
ENDBLK
  5
114A7
330
1149C
100
AcDbEntity
  8
0
100
AcDbBlockEnd
  0
BLOCK
  5
114B2
330
114A8
100
AcDbEntity
  8
0
100
AcDbBlockBegin
  2
*D33
 70
     1
 10
0.0
 20
0.0
 30
0.0
  3
*D33
  1

  0
LINE
  5
1172C
330
114A8
100
AcDbEntity
  8
30
  6
Continuous
 62
     0
370
    -2
100
AcDbLine
 10
-210.7474600000009
 20
-0.0000000000004537
 30
0.0
 11
-220.5999999999999
 21
-0.0000000000004509
 31
0.0
  0
LINE
  5
1172D
330
114A8
100
AcDbEntity
  8
30
  6
Continuous
 62
     0
370
    -2
100
AcDbLine
 10
-158.599999999999
 20
199.9999999999995
 30
0.0
 11
-220.5999999999999
 21
199.9999999999995
 31
0.0
  0
LINE
  5
1172E
330
114A8
100
AcDbEntity
  8
30
  6
Continuous
 62
     0
370
    -2
100
AcDbLine
 10
-220.0
 20
2.399999999999548
 30
0.0
 11
-220.0
 21
197.5999999999995
 31
0.0
  0
INSERT
  5
1172F
330
114A8
100
AcDbEntity
  8
30
  6
Continuous
 62
     0
370
    -2
100
AcDbBlockReference
  2
_OPEN
 10
-220.0
 20
-0.0000000000004511
 30
0.0
 41
2.399999999999999
 42
2.399999999999999
 43
2.399999999999999
 50
270.0
  0
INSERT
  5
11730
330
114A8
100
AcDbEntity
  8
30
  6
Continuous
 62
     0
370
    -2
100
AcDbBlockReference
  2
_OPEN
 10
-220.0
 20
199.9999999999995
 30
0.0
 41
2.399999999999999
 42
2.399999999999999
 43
2.399999999999999
 50
90.0
  0
MTEXT
  5
11731
330
114A8
100
AcDbEntity
  8
30
  6
Continuous
 62
     0
100
AcDbMText
 10
-227.1999999999999
 20
99.99999999999952
 30
0.0
 40
7.199999999999997
 41
0.0
 71
     5
 72
     1
  1
\A1; 200 
 11
0.0000000000000001
 21
1.0
 31
0.0
 73
     1
 44
1.0
1001
ACAD
1000
MTEXTBEGIN
1070
    73
1070
     1
1070
    44
1040
1.0
1070
    74
1070
     0
1000
MTEXTEND
  0
POINT
  5
11732
330
114A8
100
AcDbEntity
  8
DEFPOINTS
  6
Continuous
 62
     0
100
AcDbPoint
 10
-207.1474600000009
 20
-0.0000000000004547
 30
0.0
  0
POINT
  5
11733
330
114A8
100
AcDbEntity
  8
DEFPOINTS
  6
Continuous
 62
     0
100
AcDbPoint
 10
-154.999999999999
 20
199.9999999999995
 30
0.0
  0
POINT
  5
11734
330
114A8
100
AcDbEntity
  8
DEFPOINTS
  6
Continuous
 62
     0
100
AcDbPoint
 10
-220.0
 20
199.9999999999995
 30
0.0
  0
ENDBLK
  5
114B3
330
114A8
100
AcDbEntity
  8
0
100
AcDbBlockEnd
  0
BLOCK
  5
11507
330
114FC
100
AcDbEntity
  8
0
100
AcDbBlockBegin
  2
*D34
 70
     1
 10
0.0
 20
0.0
 30
0.0
  3
*D34
  1

  0
LINE
  5
11955
330
114FC
100
AcDbEntity
  8
30
  6
Continuous
 62
     0
370
    -2
100
AcDbLine
 10
-131.0999999999999
 20
-790.0
 30
0.0
 11
-220.5999999999999
 21
-790.0
 31
0.0
  0
LINE
  5
11956
330
114FC
100
AcDbEntity
  8
30
  6
Continuous
 62
     0
370
    -2
100
AcDbLine
 10
-163.6000000000009
 20
-600.0
 30
0.0
 11
-220.5999999999999
 21
-600.0
 31
0.0
  0
LINE
  5
11957
330
114FC
100
AcDbEntity
  8
30
  6
Continuous
 62
     0
370
    -2
100
AcDbLine
 10
-220.0
 20
-787.6
 30
0.0
 11
-220.0
 21
-602.4
 31
0.0
  0
INSERT
  5
11958
330
114FC
100
AcDbEntity
  8
30
  6
Continuous
 62
     0
370
    -2
100
AcDbBlockReference
  2
_OPEN
 10
-220.0
 20
-790.0
 30
0.0
 41
2.399999999999999
 42
2.399999999999999
 43
2.399999999999999
 50
270.0
  0
INSERT
  5
11959
330
114FC
100
AcDbEntity
  8
30
  6
Continuous
 62
     0
370
    -2
100
AcDbBlockReference
  2
_OPEN
 10
-220.0
 20
-600.0
 30
0.0
 41
2.399999999999999
 42
2.399999999999999
 43
2.399999999999999
 50
90.0
  0
MTEXT
  5
1195A
330
114FC
100
AcDbEntity
  8
30
  6
Continuous
 62
     0
100
AcDbMText
 10
-227.1999999999998
 20
-695.0
 30
0.0
 40
7.199999999999997
 41
0.0
 71
     5
 72
     1
  1
\A1; 190 
 11
0.0000000000000001
 21
1.0
 31
0.0
 73
     1
 44
1.0
1001
ACAD
1000
MTEXTBEGIN
1070
    73
1070
     1
1070
    44
1040
1.0
1070
    74
1070
     0
1000
MTEXTEND
  0
POINT
  5
1195B
330
114FC
100
AcDbEntity
  8
DEFPOINTS
  6
Continuous
 62
     0
100
AcDbPoint
 10
-127.5
 20
-790.0
 30
0.0
  0
POINT
  5
1195C
330
114FC
100
AcDbEntity
  8
DEFPOINTS
  6
Continuous
 62
     0
100
AcDbPoint
 10
-160.0000000000009
 20
-600.0
 30
0.0
  0
POINT
  5
1195D
330
114FC
100
AcDbEntity
  8
DEFPOINTS
  6
Continuous
 62
     0
100
AcDbPoint
 10
-220.0
 20
-600.0
 30
0.0
  0
ENDBLK
  5
11508
330
114FC
100
AcDbEntity
  8
0
100
AcDbBlockEnd
  0
BLOCK
  5
11514
330
11509
100
AcDbEntity
  8
0
100
AcDbBlockBegin
  2
*D35
 70
     1
 10
0.0
 20
0.0
 30
0.0
  3
*D35
  1

  0
LINE
  5
1194C
330
11509
100
AcDbEntity
  8
30
  6
Continuous
 62
     0
370
    -2
100
AcDbLine
 10
-168.6000000000009
 20
-600.0
 30
0.0
 11
-220.5999999999999
 21
-600.0
 31
0.0
  0
LINE
  5
1194D
330
11509
100
AcDbEntity
  8
30
  6
Continuous
 62
     0
370
    -2
100
AcDbLine
 10
-131.0999999999999
 20
-429.9999999999998
 30
0.0
 11
-220.5999999999999
 21
-429.9999999999998
 31
0.0
  0
LINE
  5
1194E
330
11509
100
AcDbEntity
  8
30
  6
Continuous
 62
     0
370
    -2
100
AcDbLine
 10
-220.0
 20
-597.5999999999998
 30
0.0
 11
-220.0
 21
-432.3999999999998
 31
0.0
  0
INSERT
  5
1194F
330
11509
100
AcDbEntity
  8
30
  6
Continuous
 62
     0
370
    -2
100
AcDbBlockReference
  2
_OPEN
 10
-220.0
 20
-600.0
 30
0.0
 41
2.399999999999999
 42
2.399999999999999
 43
2.399999999999999
 50
270.0
  0
INSERT
  5
11950
330
11509
100
AcDbEntity
  8
30
  6
Continuous
 62
     0
370
    -2
100
AcDbBlockReference
  2
_OPEN
 10
-220.0
 20
-429.9999999999998
 30
0.0
 41
2.399999999999999
 42
2.399999999999999
 43
2.399999999999999
 50
90.0
  0
MTEXT
  5
11951
330
11509
100
AcDbEntity
  8
30
  6
Continuous
 62
     0
100
AcDbMText
 10
-227.1999999999999
 20
-515.0
 30
0.0
 40
7.199999999999997
 41
0.0
 71
     5
 72
     1
  1
\A1; 170 
 11
0.0000000000000001
 21
1.0
 31
0.0
 73
     1
 44
1.0
1001
ACAD
1000
MTEXTBEGIN
1070
    73
1070
     1
1070
    44
1040
1.0
1070
    74
1070
     0
1000
MTEXTEND
  0
POINT
  5
11952
330
11509
100
AcDbEntity
  8
DEFPOINTS
  6
Continuous
 62
     0
100
AcDbPoint
 10
-165.0000000000009
 20
-600.0
 30
0.0
  0
POINT
  5
11953
330
11509
100
AcDbEntity
  8
DEFPOINTS
  6
Continuous
 62
     0
100
AcDbPoint
 10
-127.5
 20
-430.0
 30
0.0
  0
POINT
  5
11954
330
11509
100
AcDbEntity
  8
DEFPOINTS
  6
Continuous
 62
     0
100
AcDbPoint
 10
-220.0
 20
-429.9999999999998
 30
0.0
  0
ENDBLK
  5
11515
330
11509
100
AcDbEntity
  8
0
100
AcDbBlockEnd
  0
BLOCK
  5
11646
330
1163F
100
AcDbEntity
  8
0
100
AcDbBlockBegin
  2
_D29
 70
     0
 10
0.0
 20
0.0
 30
0.0
  3
_D29
  1

  0
MTEXT
  5
11640
330
1163F
100
AcDbEntity
  8
1
  6
Continuous
 62
     2
100
AcDbMText
 10
294.7590640000001
 20
51.692708
 30
0.0
 40
2.5
 41
0.0
 71
     7
 72
     5
  1
\W01.000;\fsimplex.shx;200
  7
blockfont
 73
     2
 44
0.9036139999999999
1001
ACAD
1000
MTEXTBEGIN
1070
    73
1070
     2
1070
    44
1040
0.9036139999999999
1070
    74
1070
     0
1000
MTEXTEND
  0
LINE
  5
11641
330
1163F
100
AcDbEntity
  8
1
 62
     4
100
AcDbLine
 10
277.1692199999999
 20
69.21917500000001
 30
0.0
 11
277.1692199999999
 21
50.25
 31
0.0
  0
LINE
  5
11642
330
1163F
100
AcDbEntity
  8
1
 62
     4
100
AcDbLine
 10
317.1692199999998
 20
69.21917500000001
 30
0.0
 11
317.1692199999998
 21
50.25
 31
0.0
  0
LINE
  5
11643
330
1163F
100
AcDbEntity
  8
1
 62
     4
100
AcDbLine
 10
277.1692199999999
 20
51.25
 30
0.0
 11
317.1692199999998
 21
51.25
 31
0.0
  0
SOLID
  5
11644
330
1163F
100
AcDbEntity
  8
1
 62
     4
100
AcDbTrace
 10
277.1692199999999
 20
51.25
 30
0.0
 11
279.169219
 21
51.59007
 31
0.0
 12
279.1692220000001
 22
50.90993
 32
0.0
 13
277.1692199999999
 23
51.25
 33
0.0
  0
SOLID
  5
11645
330
1163F
100
AcDbEntity
  8
1
 62
     4
100
AcDbTrace
 10
317.1692199999998
 20
51.25
 30
0.0
 11
315.1692220000001
 21
50.90993
 31
0.0
 12
315.1692189999999
 22
51.59007
 32
0.0
 13
317.1692199999998
 23
51.25
 33
0.0
  0
ENDBLK
  5
11647
330
1163F
100
AcDbEntity
  8
0
100
AcDbBlockEnd
  0
BLOCK
  5
11662
330
11658
100
AcDbEntity
  8
0
100
AcDbBlockBegin
  2
*D37
 70
     1
 10
0.0
 20
0.0
 30
0.0
  3
*D37
  1

  0
LINE
  5
1193A
330
11658
100
AcDbEntity
  8
30
  6
Continuous
 62
     0
370
    -2
100
AcDbLine
 10
-100.0
 20
-833.6
 30
0.0
 11
-100.0
 21
-851.37473503282
 31
0.0
  0
LINE
  5
1193B
330
11658
100
AcDbEntity
  8
30
  6
Continuous
 62
     0
370
    -2
100
AcDbLine
 10
100.0
 20
-833.6
 30
0.0
 11
100.0
 21
-851.37473503282
 31
0.0
  0
LINE
  5
1193C
330
11658
100
AcDbEntity
  8
30
  6
Continuous
 62
     0
370
    -2
100
AcDbLine
 10
-97.59999999999999
 20
-850.77473503282
 30
0.0
 11
97.59999999999999
 21
-850.77473503282
 31
0.0
  0
INSERT
  5
1193D
330
11658
100
AcDbEntity
  8
30
  6
Continuous
 62
     0
370
    -2
100
AcDbBlockReference
  2
_OPEN
 10
-100.0
 20
-850.77473503282
 30
0.0
 41
2.399999999999999
 42
2.399999999999999
 43
2.399999999999999
 50
180.0
  0
INSERT
  5
1193E
330
11658
100
AcDbEntity
  8
30
  6
Continuous
 62
     0
370
    -2
100
AcDbBlockReference
  2
_OPEN
 10
100.0
 20
-850.77473503282
 30
0.0
 41
2.399999999999999
 42
2.399999999999999
 43
2.399999999999999
  0
MTEXT
  5
1193F
330
11658
100
AcDbEntity
  8
30
  6
Continuous
 62
     0
100
AcDbMText
 10
0.0000000000000004
 20
-843.5747350328197
 30
0.0
 40
7.199999999999997
 41
0.0
 71
     5
 72
     1
  1
\A1; 200 
 73
     1
 44
1.0
1001
ACAD
1000
MTEXTBEGIN
1070
    73
1070
     1
1070
    44
1040
1.0
1070
    74
1070
     0
1000
MTEXTEND
  0
POINT
  5
11940
330
11658
100
AcDbEntity
  8
DEFPOINTS
  6
Continuous
 62
     0
100
AcDbPoint
 10
-100.0
 20
-830.0
 30
0.0
  0
POINT
  5
11941
330
11658
100
AcDbEntity
  8
DEFPOINTS
  6
Continuous
 62
     0
100
AcDbPoint
 10
100.0
 20
-830.0
 30
0.0
  0
POINT
  5
11942
330
11658
100
AcDbEntity
  8
DEFPOINTS
  6
Continuous
 62
     0
100
AcDbPoint
 10
100.0
 20
-850.77473503282
 30
0.0
  0
ENDBLK
  5
11663
330
11658
100
AcDbEntity
  8
0
100
AcDbBlockEnd
  0
BLOCK
  5
116BB
330
116B4
100
AcDbEntity
  8
0
100
AcDbBlockBegin
  2
*D38
 70
     1
 10
0.0
 20
0.0
 30
0.0
  3
*D38
  1

  0
LINE
  5
11709
330
116B4
100
AcDbEntity
  8
30
  6
Continuous
 62
     0
370
    -2
100
AcDbLine
 10
460.9112448004703
 20
-748.8390062084927
 30
0.0
 11
458.4868486915062
 21
-740.9634736719372
 31
0.0
  0
LINE
  5
1170A
330
116B4
100
AcDbEntity
  8
30
  6
Continuous
 62
     0
370
    -2
100
AcDbLine
 10
458.4868486915062
 20
-740.9634736719372
 30
0.0
 11
474.0868486915061
 21
-740.9634736719372
 31
0.0
  0
INSERT
  5
1170B
330
116B4
100
AcDbEntity
  8
30
  6
Continuous
 62
     0
370
    -2
100
AcDbBlockReference
  2
_OPEN
 10
461.6173582224832
 20
-751.1327812269403
 30
0.0
 41
2.399999999999999
 42
2.399999999999999
 43
2.399999999999999
 50
287.110406918526
  0
MTEXT
  5
1170C
330
116B4
100
AcDbEntity
  8
30
  6
Continuous
 62
     0
100
AcDbMText
 10
468.0868486915062
 20
-733.7634736719373
 30
0.0
 40
7.199999999999997
 41
0.0
 71
     5
 72
     1
  1
\A1;R3
 73
     1
 44
1.0
1001
ACAD
1000
MTEXTBEGIN
1070
    73
1070
     1
1070
    44
1040
1.0
1070
    74
1070
     0
1000
MTEXTEND
  0
LINE
  5
1170D
330
116B4
100
AcDbEntity
  8
30
  6
Continuous
 62
     0
370
    -2
100
AcDbLine
 10
462.3919999999997
 20
-753.9999999999992
 30
0.0
 11
462.6079999999996
 21
-753.9999999999992
 31
0.0
  0
LINE
  5
1170E
330
116B4
100
AcDbEntity
  8
30
  6
Continuous
 62
     0
370
    -2
100
AcDbLine
 10
462.4999999999996
 20
-754.1079999999992
 30
0.0
 11
462.4999999999997
 21
-753.8919999999992
 31
0.0
  0
POINT
  5
1170F
330
116B4
100
AcDbEntity
  8
DEFPOINTS
  6
Continuous
 62
     0
100
AcDbPoint
 10
461.6173582224832
 20
-751.1327812269403
 30
0.0
  0
POINT
  5
11710
330
116B4
100
AcDbEntity
  8
DEFPOINTS
  6
Continuous
 62
     0
100
AcDbPoint
 10
462.4999999999996
 20
-753.9999999999992
 30
0.0
  0
ENDBLK
  5
116BC
330
116B4
100
AcDbEntity
  8
0
100
AcDbBlockEnd
  0
BLOCK
  5
116C4
330
116BD
100
AcDbEntity
  8
0
100
AcDbBlockBegin
  2
*D39
 70
     1
 10
0.0
 20
0.0
 30
0.0
  3
*D39
  1

  0
LINE
  5
11B26
330
116BD
100
AcDbEntity
  8
30
  6
Continuous
 62
     0
370
    -2
100
AcDbLine
 10
285.4083083781633
 20
-548.7115021600824
 30
0.0
 11
283.0331876353771
 21
-537.2056696827415
 31
0.0
  0
LINE
  5
11B27
330
116BD
100
AcDbEntity
  8
30
  6
Continuous
 62
     0
370
    -2
100
AcDbLine
 10
283.0331876353771
 20
-537.2056696827415
 30
0.0
 11
298.6331876353771
 21
-537.2056696827415
 31
0.0
  0
INSERT
  5
11B28
330
116BD
100
AcDbEntity
  8
30
  6
Continuous
 62
     0
370
    -2
100
AcDbBlockReference
  2
_OPEN
 10
285.8935046545352
 20
-551.0619456444901
 30
0.0
 41
2.399999999999999
 42
2.399999999999999
 43
2.399999999999999
 50
281.6635977056046
  0
MTEXT
  5
11B29
330
116BD
100
AcDbEntity
  8
30
  6
Continuous
 62
     0
100
AcDbMText
 10
292.6331876353771
 20
-530.0056696827416
 30
0.0
 40
7.199999999999997
 41
0.0
 71
     5
 72
     1
  1
\A1;R3
 73
     1
 44
1.0
1001
ACAD
1000
MTEXTBEGIN
1070
    73
1070
     1
1070
    44
1040
1.0
1070
    74
1070
     0
1000
MTEXTEND
  0
LINE
  5
11B2A
330
116BD
100
AcDbEntity
  8
30
  6
Continuous
 62
     0
370
    -2
100
AcDbLine
 10
286.3919999999998
 20
-554.0
 30
0.0
 11
286.608
 21
-554.0
 31
0.0
  0
LINE
  5
11B2B
330
116BD
100
AcDbEntity
  8
30
  6
Continuous
 62
     0
370
    -2
100
AcDbLine
 10
286.5
 20
-554.108
 30
0.0
 11
286.5
 21
-553.8919999999998
 31
0.0
  0
POINT
  5
11B2C
330
116BD
100
AcDbEntity
  8
DEFPOINTS
  6
Continuous
 62
     0
100
AcDbPoint
 10
285.8935046545352
 20
-551.0619456444901
 30
0.0
  0
POINT
  5
11B2D
330
116BD
100
AcDbEntity
  8
DEFPOINTS
  6
Continuous
 62
     0
100
AcDbPoint
 10
286.5
 20
-554.0
 30
0.0
  0
ENDBLK
  5
116C5
330
116BD
100
AcDbEntity
  8
0
100
AcDbBlockEnd
  0
BLOCK
  5
116D0
330
116C6
100
AcDbEntity
  8
0
100
AcDbBlockBegin
  2
*D40
 70
     1
 10
0.0
 20
0.0
 30
0.0
  3
*D40
  1

  0
LINE
  5
116F8
330
116C6
100
AcDbEntity
  8
30
  6
Continuous
 62
     0
370
    -2
100
AcDbLine
 10
459.4999999999997
 20
-854.6000000000001
 30
0.0
 11
459.4999999999997
 21
-992.695875
 31
0.0
  0
LINE
  5
116F9
330
116C6
100
AcDbEntity
  8
30
  6
Continuous
 62
     0
370
    -2
100
AcDbLine
 10
540.4999999999996
 20
-854.6000000000001
 30
0.0
 11
540.4999999999996
 21
-992.695875
 31
0.0
  0
LINE
  5
116FA
330
116C6
100
AcDbEntity
  8
30
  6
Continuous
 62
     0
370
    -2
100
AcDbLine
 10
461.8999999999998
 20
-992.095875
 30
0.0
 11
538.0999999999998
 21
-992.095875
 31
0.0
  0
INSERT
  5
116FB
330
116C6
100
AcDbEntity
  8
30
  6
Continuous
 62
     0
370
    -2
100
AcDbBlockReference
  2
_OPEN
 10
459.4999999999997
 20
-992.095875
 30
0.0
 41
2.399999999999999
 42
2.399999999999999
 43
2.399999999999999
 50
180.0
  0
INSERT
  5
116FC
330
116C6
100
AcDbEntity
  8
30
  6
Continuous
 62
     0
370
    -2
100
AcDbBlockReference
  2
_OPEN
 10
540.4999999999996
 20
-992.095875
 30
0.0
 41
2.399999999999999
 42
2.399999999999999
 43
2.399999999999999
  0
MTEXT
  5
116FD
330
116C6
100
AcDbEntity
  8
30
  6
Continuous
 62
     0
100
AcDbMText
 10
499.9999999999998
 20
-984.8958750000001
 30
0.0
 40
7.199999999999997
 41
0.0
 71
     5
 72
     1
  1
\A1; 81 
 73
     1
 44
1.0
1001
ACAD
1000
MTEXTBEGIN
1070
    73
1070
     1
1070
    44
1040
1.0
1070
    74
1070
     0
1000
MTEXTEND
  0
POINT
  5
116FE
330
116C6
100
AcDbEntity
  8
DEFPOINTS
  6
Continuous
 62
     0
100
AcDbPoint
 10
459.4999999999997
 20
-851.0
 30
0.0
  0
POINT
  5
116FF
330
116C6
100
AcDbEntity
  8
DEFPOINTS
  6
Continuous
 62
     0
100
AcDbPoint
 10
540.4999999999996
 20
-851.0
 30
0.0
  0
POINT
  5
11700
330
116C6
100
AcDbEntity
  8
DEFPOINTS
  6
Continuous
 62
     0
100
AcDbPoint
 10
540.4999999999996
 20
-992.095875
 30
0.0
  0
ENDBLK
  5
116D1
330
116C6
100
AcDbEntity
  8
0
100
AcDbBlockEnd
  0
ENDSEC
  0
SECTION
  2
ENTITIES
  0
MTEXT
  5
BF3
330
1E
100
AcDbEntity
  8
24
  6
Continuous
100
AcDbMText
 10
-860.8818093901257
 20
177.5
 30
0.0
 40
3.0
 41
0.0
 71
     1
 72
     1
  1
\A1;
 73
     1
 44
1.0
1001
ACAD
1000
MTEXTBEGIN
1070
    73
1070
     1
1070
    44
1040
1.0
1070
    74
1070
     0
1000
MTEXTEND
  0
LINE
  5
DFAB
330
1E
100
AcDbEntity
  8
16
100
AcDbLine
 10
0.0
 20
-240.0
 30
0.0
 11
0.0
 21
-107.4999999999999
 31
0.0
  0
DIMENSION
  5
DFAC
330
1E
100
AcDbEntity
  8
30
  6
Continuous
100
AcDbDimension
  2
*D4
 10
178.0000000000009
 20
-290.0
 30
0.0
 11
164.0000000000004
 21
-282.8
 31
0.0
 70
    32
  1
 <> 
 71
     5
 42
28.00000000000091
  3
STANDARD1
100
AcDbAlignedDimension
 13
150.0
 23
-225.000119999999
 33
0.0
 14
178.0000000000009
 24
-208.500119999999
 34
0.0
100
AcDbRotatedDimension
  0
DIMENSION
  5
DFAF
330
1E
100
AcDbEntity
  8
30
  6
Continuous
100
AcDbDimension
  2
*D5
 10
-150.0
 20
-290.0
 30
0.0
 11
-163.9999999999995
 21
-282.8
 31
0.0
 70
    32
  1
 <> 
 71
     5
 42
27.99999999999909
  3
STANDARD1
100
AcDbAlignedDimension
 13
-177.999999999999
 23
-208.500119999999
 33
0.0
 14
-150.0
 24
-225.000119999999
 34
0.0
100
AcDbRotatedDimension
  0
DIMENSION
  5
DFB0
330
1E
100
AcDbEntity
  8
30
  6
Continuous
100
AcDbDimension
  2
*D6
 10
150.0
 20
-290.0
 30
0.0
 11
0.0000000000000004
 21
-282.8
 31
0.0
 70
    32
  1
 <>  (max.)
 71
     5
 42
300.0
  3
STANDARD1
100
AcDbAlignedDimension
 13
-150.0
 23
-225.000119999999
 33
0.0
 14
150.0
 24
-225.000119999999
 34
0.0
100
AcDbRotatedDimension
  0
LINE
  5
DFB4
330
1E
100
AcDbEntity
  8
17
100
AcDbLine
 10
21.70000000000072
 20
185.0
 30
0.0
 11
48.69999999999982
 21
185.0
 31
0.0
  0
CIRCLE
  5
DFB5
330
1E
100
AcDbEntity
  8
17
100
AcDbCircle
 10
35.19999999999981
 20
185.0
 30
0.0
 40
8.5
  0
LINE
  5
DFB8
330
1E
100
AcDbEntity
  8
17
100
AcDbLine
 10
21.70000000000072
 20
-155.0
 30
0.0
 11
48.69999999999982
 21
-155.0
 31
0.0
  0
CIRCLE
  5
DFB9
330
1E
100
AcDbEntity
  8
17
100
AcDbCircle
 10
35.19999999999981
 20
-155.0
 30
0.0
 40
8.5
  0
CIRCLE
  5
DFBB
330
1E
100
AcDbEntity
  8
10
  6
Continuous
100
AcDbCircle
 10
31.19999999999981
 20
-70.49999999999954
 30
0.0
 40
3.299999999999998
  0
LINE
  5
DFBC
330
1E
100
AcDbEntity
  8
16
100
AcDbLine
 10
195.0
 20
0.0
 30
0.0
 11
-205.0
 21
0.0
 31
0.0
  0
DIMENSION
  5
DFC5
330
1E
100
AcDbEntity
  8
30
  6
Continuous
100
AcDbDimension
  2
*D8
 10
95.0
 20
100.0
 30
0.0
 11
0.0000000000000004
 21
107.2
 31
0.0
 70
    32
  1
 <> 
 71
     5
 42
190.0
  3
STANDARD1
100
AcDbAlignedDimension
 13
-95.0
 23
51.49999999999955
 33
0.0
 14
95.0
 24
51.49999999999955
 34
0.0
100
AcDbRotatedDimension
  0
LINE
  5
DFD2
330
1E
100
AcDbEntity
  8
160
  6
Continuous
 62
   211
100
AcDbLine
 10
-178.0
 20
-25.0
 30
0.0
 11
-178.0
 21
105.0
 31
0.0
  0
LINE
  5
DFD4
330
1E
100
AcDbEntity
  8
16
100
AcDbLine
 10
0.0
 20
-77.5
 30
0.0
 11
0.0
 21
90.0
 31
0.0
  0
LINE
  5
DFD6
330
1E
100
AcDbEntity
  8
12
  6
DASHDOT
 62
     3
100
AcDbLine
 10
-123.5
 20
-190.0001199999995
 30
0.0
 11
-101.5
 21
-190.0001199999995
 31
0.0
  0
CIRCLE
  5
DFD7
330
1E
100
AcDbEntity
  8
12
  6
DASHDOT
 62
     3
100
AcDbCircle
 10
-112.5
 20
-190.0001199999995
 30
0.0
 40
6.0
  0
LINE
  5
DFD9
330
1E
100
AcDbEntity
  8
12
  6
DASHDOT
 62
     3
100
AcDbLine
 10
-112.5
 20
-201.00012
 30
0.0
 11
-112.5
 21
-179.0001200000006
 31
0.0
  0
CIRCLE
  5
DFDA
330
1E
100
AcDbEntity
  8
17
100
AcDbCircle
 10
-34.80000000000018
 20
-155.0
 30
0.0
 40
8.5
  0
LINE
  5
DFDB
330
1E
100
AcDbEntity
  8
17
100
AcDbLine
 10
-34.80000000000018
 20
-168.5000000000004
 30
0.0
 11
-34.80000000000018
 21
-141.4999999999995
 31
0.0
  0
LINE
  5
DFDC
330
1E
100
AcDbEntity
  8
17
100
AcDbLine
 10
-48.29999999999927
 20
-155.0
 30
0.0
 11
-21.30000000000018
 21
-155.0
 31
0.0
  0
LINE
  5
DFEF
330
1E
100
AcDbEntity
  8
16
100
AcDbLine
 10
0.0
 20
120.0
 30
0.0
 11
0.0
 21
340.0
 31
0.0
  0
LINE
  5
DFF3
330
1E
100
AcDbEntity
  8
12
  6
DASHDOT
 62
     3
100
AcDbLine
 10
-123.5
 20
170.0
 30
0.0
 11
-101.5
 21
170.0
 31
0.0
  0
CIRCLE
  5
DFF4
330
1E
100
AcDbEntity
  8
12
  6
DASHDOT
 62
     3
100
AcDbCircle
 10
-112.5
 20
170.0
 30
0.0
 40
6.0
  0
LINE
  5
DFF5
330
1E
100
AcDbEntity
  8
12
  6
DASHDOT
 62
     3
100
AcDbLine
 10
-112.5
 20
158.9999999999995
 30
0.0
 11
-112.5
 21
181.0000000000004
 31
0.0
  0
CIRCLE
  5
DFF9
330
1E
100
AcDbEntity
  8
17
100
AcDbCircle
 10
-34.80000000000018
 20
185.0
 30
0.0
 40
8.5
  0
LINE
  5
DFFA
330
1E
100
AcDbEntity
  8
17
 48
1.8
100
AcDbLine
 10
-34.80000000000018
 20
171.4999999999995
 30
0.0
 11
-34.80000000000018
 21
198.5000000000004
 31
0.0
  0
LINE
  5
DFFB
330
1E
100
AcDbEntity
  8
17
 48
1.8
100
AcDbLine
 10
-48.29999999999927
 20
185.0
 30
0.0
 11
-21.30000000000018
 21
185.0
 31
0.0
  0
LINE
  5
E007
330
1E
100
AcDbEntity
  8
17
100
AcDbLine
 10
35.19999999999981
 20
-168.5000000000004
 30
0.0
 11
35.19999999999981
 21
-141.4999999999995
 31
0.0
  0
LINE
  5
E008
330
1E
100
AcDbEntity
  8
12
  6
DASHDOT
 62
     3
100
AcDbLine
 10
112.5
 20
-201.00012
 30
0.0
 11
112.5
 21
-179.0001200000006
 31
0.0
  0
CIRCLE
  5
E009
330
1E
100
AcDbEntity
  8
12
  6
DASHDOT
 62
     3
100
AcDbCircle
 10
112.5
 20
-190.0001199999995
 30
0.0
 40
6.0
  0
LINE
  5
E00A
330
1E
100
AcDbEntity
  8
12
  6
DASHDOT
 62
     3
100
AcDbLine
 10
101.5
 20
-190.0001199999995
 30
0.0
 11
123.5
 21
-190.0001199999995
 31
0.0
  0
LINE
  5
E017
330
1E
100
AcDbEntity
  8
17
100
AcDbLine
 10
35.19999999999981
 20
171.4999999999995
 30
0.0
 11
35.19999999999981
 21
198.5000000000004
 31
0.0
  0
LINE
  5
E018
330
1E
100
AcDbEntity
  8
12
  6
DASHDOT
 62
     3
100
AcDbLine
 10
112.5
 20
158.9999999999995
 30
0.0
 11
112.5
 21
181.0000000000004
 31
0.0
  0
CIRCLE
  5
E019
330
1E
100
AcDbEntity
  8
12
  6
DASHDOT
 62
     3
100
AcDbCircle
 10
112.5
 20
170.0
 30
0.0
 40
6.0
  0
LINE
  5
E01A
330
1E
100
AcDbEntity
  8
12
  6
DASHDOT
 62
     3
100
AcDbLine
 10
101.5
 20
170.0
 30
0.0
 11
123.5
 21
170.0
 31
0.0
  0
DIMENSION
  5
E01D
330
1E
100
AcDbEntity
  8
30
  6
Continuous
100
AcDbDimension
  2
*D9
 10
0.0000000000001156
 20
892.0958749999995
 30
0.0
 11
35.0000000000001
 21
899.2958749999997
 31
0.0
 70
    32
  1
 <> 
 71
     5
 42
70.0
  3
STANDARD1
100
AcDbAlignedDimension
 13
70.0000000000001
 23
805.9999999999986
 33
0.0
 14
0.0000000000001137
 24
860.9997549999992
 34
0.0
 50
180.0
100
AcDbRotatedDimension
  0
DIMENSION
  5
E01E
330
1E
100
AcDbEntity
  8
30
  6
Continuous
100
AcDbDimension
  2
*D10
 10
-69.9999999999999
 20
892.0958749999995
 30
0.0
 11
-34.99999999999988
 21
899.2958749999997
 31
0.0
 70
    32
  1
 <> 
 71
     5
 42
70.0
  3
STANDARD1
100
AcDbAlignedDimension
 13
0.0000000000001128
 23
855.9997549999993
 33
0.0
 14
-69.9999999999999
 24
805.9999999999986
 34
0.0
 50
180.0
100
AcDbRotatedDimension
  0
LINE
  5
E021
330
1E
100
AcDbEntity
  8
16
100
AcDbLine
 10
0.0000000000000568
 20
385.0
 30
0.0
 11
0.0000000000001137
 21
855.0
 31
0.0
  0
LINE
  5
E029
330
1E
100
AcDbEntity
  8
17
  6
DASHDOT
100
AcDbLine
 10
52.5000000000001
 20
765.9999999999991
 30
0.0
 11
87.5000000000001
 21
765.9999999999991
 31
0.0
  0
LINE
  5
E02A
330
1E
100
AcDbEntity
  8
17
  6
DASHDOT
100
AcDbLine
 10
70.0000000000001
 20
686.0000000000002
 30
0.0
 11
70.0000000000001
 21
805.9999999999991
 31
0.0
  0
LINE
  5
E02D
330
1E
100
AcDbEntity
  8
17
  6
DASHDOT
100
AcDbLine
 10
-17.49999999999989
 20
815.9999999999991
 30
0.0
 11
17.50000000000011
 21
815.9999999999991
 31
0.0
  0
LINE
  5
E02E
330
1E
100
AcDbEntity
  8
12
  6
DASHDOT
 62
     3
100
AcDbLine
 10
115.0
 20
501.0000000000004
 30
0.0
 11
85.00000000000007
 21
501.0000000000004
 31
0.0
  0
CIRCLE
  5
E02F
330
1E
100
AcDbEntity
  8
12
  6
DASHDOT
 62
     3
100
AcDbCircle
 10
100.0
 20
501.0000000000004
 30
0.0
 40
6.0
  0
LINE
  5
E030
330
1E
100
AcDbEntity
  8
12
  6
DASHDOT
 62
     3
100
AcDbLine
 10
100.0
 20
486.0000000000002
 30
0.0
 11
100.0
 21
516.0000000000003
 31
0.0
  0
LINE
  5
E03C
330
1E
100
AcDbEntity
  8
17
  6
DASHDOT
100
AcDbLine
 10
-69.9999999999999
 20
686.0000000000002
 30
0.0
 11
-69.9999999999999
 21
805.9999999999991
 31
0.0
  0
LINE
  5
E03D
330
1E
100
AcDbEntity
  8
17
  6
DASHDOT
100
AcDbLine
 10
-52.49999999999989
 20
765.9999999999991
 30
0.0
 11
-87.49999999999991
 21
765.9999999999991
 31
0.0
  0
CIRCLE
  5
E03F
330
1E
100
AcDbEntity
  8
12
  6
DASHDOT
 62
     3
100
AcDbCircle
 10
-99.99999999999992
 20
501.0000000000004
 30
0.0
 40
6.0
  0
LINE
  5
E041
330
1E
100
AcDbEntity
  8
12
  6
DASHDOT
 62
     3
100
AcDbLine
 10
-84.99999999999992
 20
501.0000000000004
 30
0.0
 11
-114.9999999999999
 21
501.0000000000004
 31
0.0
  0
LINE
  5
E042
330
1E
100
AcDbEntity
  8
12
  6
DASHDOT
 62
     3
100
AcDbLine
 10
-99.99999999999992
 20
486.0000000000002
 30
0.0
 11
-99.99999999999992
 21
516.0000000000003
 31
0.0
  0
DIMENSION
  5
E238
330
1E
100
AcDbEntity
  8
30
  6
Continuous
100
AcDbDimension
  2
*D12
 10
755.0000000000003
 20
-369.9133029023182
 30
0.0
 11
492.0
 21
-362.7133029023182
 31
0.0
 70
    32
  1
 <> 
 71
     5
 42
526.0000000000006
  3
STANDARD1
100
AcDbAlignedDimension
 13
228.9999999999995
 23
-5.000015000000074
 33
0.0
 14
755.0000000000003
 24
-225.0000000000004
 34
0.0
100
AcDbRotatedDimension
  0
LINE
  5
E239
330
1E
100
AcDbEntity
  8
16
100
AcDbLine
 10
908.7907750000001
 20
0.0
 30
0.0
 11
164.508545
 21
0.0
 31
0.0
  0
ARC
  5
E23E
330
1E
100
AcDbEntity
  8
210
  6
Continuous
 62
     4
100
AcDbCircle
 10
417.9999999999995
 20
0.0
 30
0.0
 40
189.0
100
AcDbArc
 50
177.7486789999993
 51
180.0000050000005
  0
LINE
  5
E241
330
1E
100
AcDbEntity
  8
12
100
AcDbLine
 10
536.2499999999998
 20
-236.0000000000004
 30
0.0
 11
536.2499999999998
 21
-229.5000000000004
 31
0.0
  0
LINE
  5
E242
330
1E
100
AcDbEntity
  8
12
100
AcDbLine
 10
532.5
 20
-236.0000000000004
 30
0.0
 11
532.5
 21
-227.4999999999999
 31
0.0
  0
LINE
  5
E243
330
1E
100
AcDbEntity
  8
12
100
AcDbLine
 10
543.75
 20
-236.0000000000004
 30
0.0
 11
543.75
 21
-229.5000000000004
 31
0.0
  0
LINE
  5
E244
330
1E
100
AcDbEntity
  8
12
100
AcDbLine
 10
547.5
 20
-236.0000000000004
 30
0.0
 11
547.5
 21
-227.4999999999999
 31
0.0
  0
DIMENSION
  5
E245
330
1E
100
AcDbEntity
  8
30
  6
Continuous
100
AcDbDimension
  2
*D13
 10
755.0000000000003
 20
-309.6985455819512
 30
0.0
 11
614.0
 21
-302.4985455819513
 31
0.0
 70
    32
  1
 <> 
 71
     5
 42
282.0000000000007
  3
STANDARD1
100
AcDbAlignedDimension
 13
472.9999999999995
 23
-66.3872350000006
 33
0.0
 14
755.0000000000003
 24
-225.0000000000004
 34
0.0
100
AcDbRotatedDimension
  0
DIMENSION
  5
E246
330
1E
100
AcDbEntity
  8
30
  6
Continuous
100
AcDbDimension
  2
*D14
 10
755.0000000000003
 20
-290.0
 30
0.0
 11
619.0
 21
-282.8
 31
0.0
 70
    32
  1
 <> 
 71
     5
 42
272.0000000000009
  3
STANDARD1
100
AcDbAlignedDimension
 13
482.9999999999991
 23
-52.50000000000046
 33
0.0
 14
755.0000000000003
 24
-225.0000000000004
 34
0.0
100
AcDbRotatedDimension
  0
LINE
  5
E247
330
1E
100
AcDbEntity
  8
12
100
AcDbLine
 10
540.0
 20
-205.0
 30
0.0
 11
540.0
 21
-242.9999999999995
 31
0.0
  0
DIMENSION
  5
E24A
330
1E
100
AcDbEntity
  8
30
  6
Continuous
100
AcDbDimension
  2
*D15
 10
438.9999999999995
 20
-329.9048362127723
 30
0.0
 11
398.9999999999993
 21
-322.7048362127723
 31
0.0
 70
    32
  1
 <> 
 71
     5
 42
80.0
  3
STANDARD1
100
AcDbAlignedDimension
 13
358.9999999999993
 23
-2.799999999999727
 33
0.0
 14
438.9999999999995
 24
-2.799999999999727
 34
0.0
100
AcDbRotatedDimension
  0
DIMENSION
  5
E24B
330
1E
100
AcDbEntity
  8
30
  6
Continuous
100
AcDbDimension
  2
*D16
 10
755.0000000000003
 20
-350.1111320575454
 30
0.0
 11
557.0
 21
-342.9111320575453
 31
0.0
 70
    32
  1
 <> 
 71
     5
 42
396.0000000000008
  3
STANDARD1
100
AcDbAlignedDimension
 13
358.9999999999993
 23
-7.799999999999727
 33
0.0
 14
755.0000000000003
 24
-225.0000000000004
 34
0.0
100
AcDbRotatedDimension
  0
DIMENSION
  5
E24C
330
1E
100
AcDbEntity
  8
30
  6
Continuous
100
AcDbDimension
  2
*D17
 10
755.0000000000003
 20
-329.9048362127723
 30
0.0
 11
597.0
 21
-322.7048362127723
 31
0.0
 70
    32
  1
 <> 
 71
     5
 42
316.0000000000008
  3
STANDARD1
100
AcDbAlignedDimension
 13
438.9999999999995
 23
-7.799999999999727
 33
0.0
 14
755.0000000000003
 24
-225.0000000000004
 34
0.0
100
AcDbRotatedDimension
  0
LINE
  5
E251
330
1E
100
AcDbEntity
  8
12
100
AcDbLine
 10
532.5
 20
-236.0000000000004
 30
0.0
 11
547.5
 21
-236.0000000000004
 31
0.0
  0
LINE
  5
E252
330
1E
100
AcDbEntity
  8
12
100
AcDbLine
 10
536.0000000000003
 20
-237.9999999999995
 30
0.0
 11
543.9999999999994
 21
-237.9999999999995
 31
0.0
  0
LINE
  5
E253
330
1E
100
AcDbEntity
  8
12
100
AcDbLine
 10
536.0000000000003
 20
-237.9999999999995
 30
0.0
 11
536.0000000000003
 21
-236.0000000000004
 31
0.0
  0
LINE
  5
E254
330
1E
100
AcDbEntity
  8
12
100
AcDbLine
 10
543.9999999999994
 20
-237.9999999999995
 30
0.0
 11
543.9999999999994
 21
-236.0000000000004
 31
0.0
  0
LINE
  5
E258
330
1E
100
AcDbEntity
  8
16
100
AcDbLine
 10
640.0
 20
0.0
 30
0.0
 11
422.1000000000001
 21
0.0
 31
0.0
  0
LINE
  5
E259
330
1E
100
AcDbEntity
  8
160
  6
Continuous
 62
     3
100
AcDbLine
 10
632.0000000000002
 20
200.0
 30
0.0
 11
495.0
 21
40.0
 31
0.0
  0
LINE
  5
E25C
330
1E
100
AcDbEntity
  8
150
  6
PHANTOM
 62
    95
 48
6.726172
100
AcDbLine
 10
390.5089150000002
 20
227.4563
 30
0.0
 11
490.0
 21
14.09692500000025
 31
0.0
  0
LINE
  5
E25D
330
1E
100
AcDbEntity
  8
150
  6
PHANTOM
 62
    95
 48
5.531367999999997
100
AcDbLine
 10
408.1818850000001
 20
235.6975099999999
 30
0.0
 11
490.0
 21
60.23828500000036
 31
0.0
  0
LINE
  5
E25F
330
1E
100
AcDbEntity
  8
150
  6
PHANTOM
 62
    95
 48
2.185331
100
AcDbLine
 10
360.0
 20
170.0
 30
0.0
 11
360.0
 21
93.51343000000042
 31
0.0
  0
LINE
  5
E260
330
1E
100
AcDbEntity
  8
150
  6
PHANTOM
 62
    95
 48
2.185331
100
AcDbLine
 10
430.0
 20
170.0
 30
0.0
 11
430.0
 21
93.51343000000042
 31
0.0
  0
LINE
  5
E261
330
1E
100
AcDbEntity
  8
150
  6
PHANTOM
 62
    95
 48
2.274741999999998
100
AcDbLine
 10
460.0
 20
170.0
 30
0.0
 11
460.0
 21
90.38403499999958
 31
0.0
  0
ARC
  5
E263
330
1E
100
AcDbEntity
  8
1
  6
Continuous
 62
     4
100
AcDbCircle
 10
536.4999999999993
 20
-2.799999999999727
 30
0.0
 40
177.5
100
AcDbArc
 50
161.7763989999946
 51
180.0
  0
LINE
  5
E264
330
1E
100
AcDbEntity
  8
160
  6
Continuous
 62
     3
100
AcDbLine
 10
560.0
 20
-50.0
 30
0.0
 11
560.0
 21
-170.0
 31
0.0
  0
LINE
  5
E266
330
1E
100
AcDbEntity
  8
160
  6
Continuous
 62
     3
100
AcDbLine
 10
497.9999999999995
 20
-170.0
 30
0.0
 11
560.0
 21
-170.0
 31
0.0
  0
LINE
  5
E26B
330
1E
100
AcDbEntity
  8
12
100
AcDbLine
 10
532.5
 20
-229.5000000000004
 30
0.0
 11
547.5
 21
-229.5000000000004
 31
0.0
  0
LINE
  5
E26C
330
1E
100
AcDbEntity
  8
12
100
AcDbLine
 10
531.0000000000003
 20
-227.4999999999999
 30
0.0
 11
548.9999999999993
 21
-227.4999999999999
 31
0.0
  0
LINE
  5
E26D
330
1E
100
AcDbEntity
  8
12
100
AcDbLine
 10
531.0000000000003
 20
-227.4999999999999
 30
0.0
 11
531.0000000000003
 21
-226.0000000000004
 31
0.0
  0
LINE
  5
E26E
330
1E
100
AcDbEntity
  8
12
100
AcDbLine
 10
548.9999999999993
 20
-227.4999999999999
 30
0.0
 11
548.9999999999993
 21
-226.0000000000004
 31
0.0
  0
ARC
  5
E276
330
1E
100
AcDbEntity
  8
1
  6
Continuous
 62
     4
100
AcDbCircle
 10
536.4999999999993
 20
-2.799999999999727
 30
0.0
 40
97.5
100
AcDbArc
 50
162.995637000006
 51
180.0
  0
LINE
  5
E280
330
1E
100
AcDbEntity
  8
160
  6
Continuous
 62
     3
100
AcDbLine
 10
495.0
 20
40.0
 30
0.0
 11
495.0
 21
-50.0
 31
0.0
  0
ARC
  5
E282
330
1E
100
AcDbEntity
  8
10
  6
Continuous
100
AcDbCircle
 10
972.9999999999996
 20
4.500000000000452
 30
0.0
 40
500.0
100
AcDbArc
 50
176.3756929999893
 51
183.6243070000103
  0
LINE
  5
E283
330
1E
100
AcDbEntity
  8
160
  6
Continuous
 62
     3
100
AcDbLine
 10
495.0
 20
-50.0
 30
0.0
 11
560.0
 21
-50.0
 31
0.0
  0
LINE
  5
E284
330
1E
100
AcDbEntity
  8
10
  6
Continuous
100
AcDbLine
 10
490.0
 20
-47.5
 30
0.0
 11
473.9999999999993
 21
-47.5
 31
0.0
  0
LINE
  5
E285
330
1E
100
AcDbEntity
  8
10
  6
Continuous
100
AcDbLine
 10
473.9999999999993
 20
-47.5
 30
0.0
 11
473.9999999999993
 21
-27.10695999999961
 31
0.0
  0
LINE
  5
E286
330
1E
100
AcDbEntity
  8
10
  6
Continuous
100
AcDbLine
 10
473.9999999999993
 20
36.1069650000004
 30
0.0
 11
473.9999999999993
 21
47.5
 31
0.0
  0
LINE
  5
E287
330
1E
100
AcDbEntity
  8
10
  6
Continuous
100
AcDbLine
 10
473.9999999999993
 20
47.5
 30
0.0
 11
490.0
 21
47.5
 31
0.0
  0
LINE
  5
E288
330
1E
100
AcDbEntity
  8
150
  6
PHANTOM
 62
    95
 48
0.863818
100
AcDbLine
 10
367.9999999999993
 20
200.0
 30
0.0
 11
380.9572749999992
 21
200.0
 31
0.0
  0
LINE
  5
E289
330
1E
100
AcDbEntity
  8
150
  6
PHANTOM
 62
    95
 48
2.0
100
AcDbLine
 10
367.9999999999993
 20
170.0
 30
0.0
 11
367.9999999999993
 21
200.0
 31
0.0
  0
LINE
  5
E28A
330
1E
100
AcDbEntity
  8
150
  6
PHANTOM
 62
    95
 48
0.533333
100
AcDbLine
 10
360.0
 20
170.0
 30
0.0
 11
367.9999999999993
 21
170.0
 31
0.0
  0
LINE
  5
E28B
330
1E
100
AcDbEntity
  8
150
  6
PHANTOM
 62
    95
 48
0.845785
100
AcDbLine
 10
467.9999999999995
 20
200.0
 30
0.0
 11
480.6867699999997
 21
200.0
 31
0.0
  0
LINE
  5
E28C
330
1E
100
AcDbEntity
  8
150
  6
PHANTOM
 62
    95
 48
2.0
100
AcDbLine
 10
467.9999999999995
 20
170.0
 30
0.0
 11
467.9999999999995
 21
200.0
 31
0.0
  0
LINE
  5
E28D
330
1E
100
AcDbEntity
  8
150
  6
PHANTOM
 62
    95
 48
2.0
100
AcDbLine
 10
437.9999999999993
 20
170.0
 30
0.0
 11
437.9999999999993
 21
200.0
 31
0.0
  0
LINE
  5
E28E
330
1E
100
AcDbEntity
  8
150
  6
PHANTOM
 62
    95
 48
0.533333
100
AcDbLine
 10
460.0
 20
170.0
 30
0.0
 11
467.9999999999995
 21
170.0
 31
0.0
  0
LINE
  5
E28F
330
1E
100
AcDbEntity
  8
150
  6
PHANTOM
 62
    95
 48
0.533333
100
AcDbLine
 10
430.0
 20
170.0
 30
0.0
 11
437.9999999999993
 21
170.0
 31
0.0
  0
LINE
  5
E291
330
1E
100
AcDbEntity
  8
150
  6
PHANTOM
 62
    95
 48
1.300003
100
AcDbLine
 10
408.1818850000001
 20
235.6975099999999
 30
0.0
 11
390.5089150000002
 21
227.4563
 31
0.0
  0
LINE
  5
E292
330
1E
100
AcDbEntity
  8
150
  6
PHANTOM
 62
    95
 48
0.863818
100
AcDbLine
 10
437.9999999999993
 20
200.0
 30
0.0
 11
450.9572749999993
 21
200.0
 31
0.0
  0
DIMENSION
  5
E295
330
1E
100
AcDbEntity
  8
30
  6
Continuous
100
AcDbDimension
  2
*D18
 10
919.4539
 20
97.49999999999957
 30
0.0
 11
912.2539000000001
 21
59.99999999999968
 31
0.0
 70
    32
  1
 <> 
 71
     0
 72
     0
 41
0.0
 42
75.0
  3
STANDARD1
100
AcDbAlignedDimension
 13
880.0000000000004
 23
22.49999999999953
 33
0.0
 14
880.0000000000004
 24
97.49999999999957
 34
0.0
 50
90.0
100
AcDbRotatedDimension
  0
DIMENSION
  5
E296
330
1E
100
AcDbEntity
  8
30
  6
Continuous
100
AcDbDimension
  2
*D19
 10
936.9538999999999
 20
-0.0000000000004627
 30
0.0
 11
929.7538999999996
 21
-50.00000000000031
 31
0.0
 70
    32
  1
 <> 
 71
     0
 72
     0
 41
0.0
 42
100.0
  3
STANDARD1
100
AcDbAlignedDimension
 13
880.0000000000004
 23
-100.0000000000003
 33
0.0
 14
908.7907750000001
 24
-0.0000000000004547
 34
0.0
 50
90.0
100
AcDbRotatedDimension
  0
LINE
  5
E29B
330
1E
100
AcDbEntity
  8
17
  6
DASHDOT
100
AcDbLine
 10
740.0
 20
60.0
 30
0.0
 11
825.0
 21
60.0
 31
0.0
  0
LINE
  5
E29D
330
1E
100
AcDbEntity
  8
12
100
AcDbLine
 10
762.5
 20
-198.9999999999995
 30
0.0
 11
761.0000000000003
 21
-198.9999999999995
 31
0.0
  0
LINE
  5
E29F
330
1E
100
AcDbEntity
  8
12
100
AcDbLine
 10
762.5
 20
-181.0000000000004
 30
0.0
 11
761.0000000000003
 21
-181.0000000000004
 31
0.0
  0
LINE
  5
E2A2
330
1E
100
AcDbEntity
  8
12
100
AcDbLine
 10
740.0
 20
-190.0
 30
0.0
 11
777.9999999999995
 21
-190.0
 31
0.0
  0
LINE
  5
E2A3
330
1E
100
AcDbEntity
  8
17
  6
DASHDOT
100
AcDbLine
 10
740.0
 20
-100.0
 30
0.0
 11
825.0
 21
-100.0
 31
0.0
  0
LINE
  5
E2A7
330
1E
100
AcDbEntity
  8
17
  6
DASHDOT
100
AcDbLine
 10
855.0
 20
-55.0
 30
0.0
 11
855.0
 21
-145.0
 31
0.0
  0
LINE
  5
E2A8
330
1E
100
AcDbEntity
  8
17
  6
DASHDOT
100
AcDbLine
 10
805.0
 20
-55.0
 30
0.0
 11
805.0
 21
-145.0
 31
0.0
  0
CIRCLE
  5
E2AA
330
1E
100
AcDbEntity
  8
1
  6
Continuous
 62
     2
100
AcDbCircle
 10
855.0
 20
-125.0
 30
0.0
 40
6.0
  0
CIRCLE
  5
E2AB
330
1E
100
AcDbEntity
  8
1
  6
Continuous
 62
     2
100
AcDbCircle
 10
855.0
 20
-100.0
 30
0.0
 40
6.0
  0
CIRCLE
  5
E2AC
330
1E
100
AcDbEntity
  8
1
  6
Continuous
 62
     2
100
AcDbCircle
 10
855.0
 20
-75.0
 30
0.0
 40
6.0
  0
LINE
  5
E2AD
330
1E
100
AcDbEntity
  8
17
  6
DASHDOT
100
AcDbLine
 10
835.0
 20
-125.0
 30
0.0
 11
875.0
 21
-125.0
 31
0.0
  0
LINE
  5
E2AF
330
1E
100
AcDbEntity
  8
17
  6
DASHDOT
100
AcDbLine
 10
835.0
 20
-100.0
 30
0.0
 11
875.0
 21
-100.0
 31
0.0
  0
LINE
  5
E2B0
330
1E
100
AcDbEntity
  8
17
  6
DASHDOT
100
AcDbLine
 10
835.0
 20
-75.0
 30
0.0
 11
875.0
 21
-75.0
 31
0.0
  0
LINE
  5
E2B3
330
1E
100
AcDbEntity
  8
12
100
AcDbLine
 10
771.0000000000003
 20
-186.25
 30
0.0
 11
764.5000000000003
 21
-186.25
 31
0.0
  0
LINE
  5
E2B4
330
1E
100
AcDbEntity
  8
12
100
AcDbLine
 10
771.0000000000003
 20
-197.5
 30
0.0
 11
762.5
 21
-197.5
 31
0.0
  0
LINE
  5
E2B5
330
1E
100
AcDbEntity
  8
12
100
AcDbLine
 10
771.0000000000003
 20
-182.5
 30
0.0
 11
762.5
 21
-182.5
 31
0.0
  0
LINE
  5
E2B6
330
1E
100
AcDbEntity
  8
12
100
AcDbLine
 10
771.0000000000003
 20
-193.75
 30
0.0
 11
764.5000000000003
 21
-193.75
 31
0.0
  0
LINE
  5
E2B7
330
1E
100
AcDbEntity
  8
12
100
AcDbLine
 10
762.5
 20
-198.9999999999995
 30
0.0
 11
762.5
 21
-181.0000000000004
 31
0.0
  0
LINE
  5
E2B8
330
1E
100
AcDbEntity
  8
12
100
AcDbLine
 10
764.5000000000003
 20
-197.5
 30
0.0
 11
764.5000000000003
 21
-182.5
 31
0.0
  0
LINE
  5
E2B9
330
1E
100
AcDbEntity
  8
12
100
AcDbLine
 10
771.0000000000003
 20
-197.5
 30
0.0
 11
771.0000000000003
 21
-182.5
 31
0.0
  0
LINE
  5
E2BA
330
1E
100
AcDbEntity
  8
12
100
AcDbLine
 10
772.9999999999995
 20
-193.9999999999995
 30
0.0
 11
772.9999999999995
 21
-186.0000000000004
 31
0.0
  0
LINE
  5
E2BB
330
1E
100
AcDbEntity
  8
12
100
AcDbLine
 10
772.9999999999995
 20
-193.9999999999995
 30
0.0
 11
771.0000000000003
 21
-193.9999999999995
 31
0.0
  0
LINE
  5
E2BC
330
1E
100
AcDbEntity
  8
12
100
AcDbLine
 10
772.9999999999995
 20
-186.0000000000004
 30
0.0
 11
771.0000000000003
 21
-186.0000000000004
 31
0.0
  0
CIRCLE
  5
E2BE
330
1E
100
AcDbEntity
  8
1
  6
Continuous
 62
     2
100
AcDbCircle
 10
805.0
 20
-125.0
 30
0.0
 40
6.0
  0
CIRCLE
  5
E2BF
330
1E
100
AcDbEntity
  8
1
  6
Continuous
 62
     2
100
AcDbCircle
 10
805.0
 20
-100.0
 30
0.0
 40
6.0
  0
LINE
  5
E2C0
330
1E
100
AcDbEntity
  8
17
  6
DASHDOT
100
AcDbLine
 10
785.0
 20
-125.0
 30
0.0
 11
825.0
 21
-125.0
 31
0.0
  0
LINE
  5
E2C1
330
1E
100
AcDbEntity
  8
17
  6
DASHDOT
100
AcDbLine
 10
785.0
 20
-75.0
 30
0.0
 11
825.0
 21
-75.0
 31
0.0
  0
CIRCLE
  5
E2C2
330
1E
100
AcDbEntity
  8
1
  6
Continuous
 62
     2
100
AcDbCircle
 10
805.0
 20
-75.0
 30
0.0
 40
6.0
  0
CIRCLE
  5
E2C4
330
1E
100
AcDbEntity
  8
1
  6
Continuous
 62
     2
100
AcDbCircle
 10
855.0
 20
60.0
 30
0.0
 40
6.0
  0
CIRCLE
  5
E2C5
330
1E
100
AcDbEntity
  8
1
  6
Continuous
 62
     2
100
AcDbCircle
 10
855.0
 20
35.0
 30
0.0
 40
6.0
  0
CIRCLE
  5
E2C6
330
1E
100
AcDbEntity
  8
1
  6
Continuous
 62
     2
100
AcDbCircle
 10
855.0
 20
85.0
 30
0.0
 40
6.0
  0
LINE
  5
E2C7
330
1E
100
AcDbEntity
  8
17
  6
DASHDOT
100
AcDbLine
 10
835.0
 20
60.0
 30
0.0
 11
895.0
 21
60.0
 31
0.0
  0
LINE
  5
E2C9
330
1E
100
AcDbEntity
  8
17
  6
DASHDOT
100
AcDbLine
 10
835.0
 20
35.0
 30
0.0
 11
875.0
 21
35.0
 31
0.0
  0
LINE
  5
E2CC
330
1E
100
AcDbEntity
  8
17
  6
DASHDOT
100
AcDbLine
 10
835.0
 20
85.0
 30
0.0
 11
875.0
 21
85.0
 31
0.0
  0
LINE
  5
E2CD
330
1E
100
AcDbEntity
  8
17
  6
DASHDOT
100
AcDbLine
 10
855.0
 20
15.0
 30
0.0
 11
855.0
 21
105.0
 31
0.0
  0
LINE
  5
E2CE
330
1E
100
AcDbEntity
  8
17
  6
DASHDOT
100
AcDbLine
 10
805.0
 20
15.0
 30
0.0
 11
805.0
 21
105.0
 31
0.0
  0
CIRCLE
  5
E2CF
330
1E
100
AcDbEntity
  8
1
  6
Continuous
 62
     2
100
AcDbCircle
 10
805.0
 20
35.0
 30
0.0
 40
6.0
  0
CIRCLE
  5
E2D0
330
1E
100
AcDbEntity
  8
1
  6
Continuous
 62
     2
100
AcDbCircle
 10
805.0
 20
60.0
 30
0.0
 40
6.0
  0
CIRCLE
  5
E2D1
330
1E
100
AcDbEntity
  8
1
  6
Continuous
 62
     2
100
AcDbCircle
 10
805.0
 20
85.0
 30
0.0
 40
6.0
  0
LINE
  5
E2D2
330
1E
100
AcDbEntity
  8
17
  6
DASHDOT
100
AcDbLine
 10
785.0
 20
35.0
 30
0.0
 11
825.0
 21
35.0
 31
0.0
  0
LINE
  5
E2D3
330
1E
100
AcDbEntity
  8
17
  6
DASHDOT
100
AcDbLine
 10
785.0
 20
85.0
 30
0.0
 11
825.0
 21
85.0
 31
0.0
  0
DIMENSION
  5
E2D6
330
1E
100
AcDbEntity
  8
30
  6
Continuous
100
AcDbDimension
  2
*D20
 10
900.9539
 20
84.99999999999953
 30
0.0
 11
893.7538999999999
 21
59.99999999999968
 31
0.0
 70
    32
  1
 <> 
 71
     0
 72
     0
 41
0.0
 42
50.0
  3
STANDARD1
100
AcDbAlignedDimension
 13
860.0000000000003
 23
34.99999999999953
 33
0.0
 14
860.0000000000003
 24
84.99999999999955
 34
0.0
 50
90.0
100
AcDbRotatedDimension
  0
LINE
  5
E2DB
330
1E
100
AcDbEntity
  8
12
100
AcDbLine
 10
762.5
 20
178.9999999999995
 30
0.0
 11
761.0000000000003
 21
178.9999999999995
 31
0.0
  0
LINE
  5
E2DC
330
1E
100
AcDbEntity
  8
12
100
AcDbLine
 10
762.5
 20
161.0000000000004
 30
0.0
 11
761.0000000000003
 21
161.0000000000004
 31
0.0
  0
LINE
  5
E2DD
330
1E
100
AcDbEntity
  8
12
100
AcDbLine
 10
740.0
 20
170.0
 30
0.0
 11
777.9999999999995
 21
170.0
 31
0.0
  0
LINE
  5
E2DE
330
1E
100
AcDbEntity
  8
161
  6
Continuous
 62
     3
100
AcDbLine
 10
651.0000000000006
 20
295.0
 30
0.0
 11
651.0000000000006
 21
220.0
 31
0.0
  0
LINE
  5
E2DF
330
1E
100
AcDbEntity
  8
161
  6
Continuous
 62
     3
100
AcDbLine
 10
700.0
 20
215.0
 30
0.0
 11
722.9999999999995
 21
285.0
 31
0.0
  0
LINE
  5
E2E0
330
1E
100
AcDbEntity
  8
161
  6
Continuous
 62
     3
100
AcDbLine
 10
670.0
 20
280.0
 30
0.0
 11
670.0
 21
225.0
 31
0.0
  0
LINE
  5
E2E1
330
1E
100
AcDbEntity
  8
161
  6
Continuous
 62
     3
100
AcDbLine
 10
677.0000000000002
 20
280.0
 30
0.0
 11
677.0000000000002
 21
225.0
 31
0.0
  0
LINE
  5
E2E3
330
1E
100
AcDbEntity
  8
161
  6
Continuous
 62
     3
100
AcDbLine
 10
740.0
 20
207.9999999999995
 30
0.0
 11
740.0
 21
285.0
 31
0.0
  0
LINE
  5
E2E4
330
1E
100
AcDbEntity
  8
161
  6
Continuous
 62
     3
100
AcDbLine
 10
646.0000000000002
 20
295.0
 30
0.0
 11
646.0000000000002
 21
265.0
 31
0.0
  0
LINE
  5
E2E6
330
1E
100
AcDbEntity
  8
161
  6
Continuous
 62
     3
100
AcDbLine
 10
651.0000000000006
 20
225.0
 30
0.0
 11
670.0
 21
225.0
 31
0.0
  0
LINE
  5
E2E8
330
1E
100
AcDbEntity
  8
10
  6
Continuous
 62
     2
100
AcDbLine
 10
602.9999999999994
 20
265.0
 30
0.0
 11
632.9999999999994
 21
265.0
 31
0.0
  0
LINE
  5
E2E9
330
1E
100
AcDbEntity
  8
161
  6
Continuous
 62
     3
100
AcDbLine
 10
602.9999999999994
 20
235.0
 30
0.0
 11
632.9999999999994
 21
265.0
 31
0.0
  0
LINE
  5
E2ED
330
1E
100
AcDbEntity
  8
161
  6
Continuous
 62
     3
100
AcDbLine
 10
631.0000000000002
 20
200.0
 30
0.0
 11
651.0000000000006
 21
220.0
 31
0.0
  0
LINE
  5
E2EE
330
1E
100
AcDbEntity
  8
161
  6
Continuous
 62
     3
100
AcDbLine
 10
632.9999999999994
 20
265.0
 30
0.0
 11
651.0000000000006
 21
265.0
 31
0.0
  0
LINE
  5
E2F1
330
1E
100
AcDbEntity
  8
161
  6
Continuous
 62
     3
100
AcDbLine
 10
700.0
 20
207.9999999999995
 30
0.0
 11
755.0
 21
207.9999999999995
 31
0.0
  0
LINE
  5
E2F2
330
1E
100
AcDbEntity
  8
161
  6
Continuous
 62
     3
100
AcDbLine
 10
700.0
 20
200.0
 30
0.0
 11
700.0
 21
215.0
 31
0.0
  0
LINE
  5
E2F3
330
1E
100
AcDbEntity
  8
161
  6
Continuous
 62
     3
100
AcDbLine
 10
670.0
 20
244.5000000000004
 30
0.0
 11
677.0000000000002
 21
244.5000000000004
 31
0.0
  0
LINE
  5
E2F4
330
1E
100
AcDbEntity
  8
161
  6
Continuous
 62
     3
100
AcDbLine
 10
670.0
 20
260.4999999999995
 30
0.0
 11
677.0000000000002
 21
260.4999999999995
 31
0.0
  0
LINE
  5
E2F5
330
1E
100
AcDbEntity
  8
161
  6
Continuous
 62
     3
100
AcDbLine
 10
677.0000000000002
 20
225.0
 30
0.0
 11
703.28577
 21
225.0
 31
0.0
  0
LINE
  5
E2F6
330
1E
100
AcDbEntity
  8
161
  6
Continuous
 62
     3
100
AcDbLine
 10
651.0000000000006
 20
280.0
 30
0.0
 11
670.0
 21
280.0
 31
0.0
  0
LINE
  5
E2F7
330
1E
100
AcDbEntity
  8
161
  6
Continuous
 62
     3
100
AcDbLine
 10
651.0000000000006
 20
295.0
 30
0.0
 11
755.0
 21
295.0
 31
0.0
  0
LINE
  5
E2F9
330
1E
100
AcDbEntity
  8
161
  6
Continuous
 62
     3
100
AcDbLine
 10
632.9999999999994
 20
295.0
 30
0.0
 11
646.0000000000002
 21
295.0
 31
0.0
  0
LINE
  5
E2FA
330
1E
100
AcDbEntity
  8
161
  6
Continuous
 62
     3
100
AcDbLine
 10
677.0000000000002
 20
280.0
 30
0.0
 11
721.3571799999997
 21
280.0
 31
0.0
  0
LINE
  5
E2FB
330
1E
100
AcDbEntity
  8
161
  6
Continuous
 62
     3
100
AcDbLine
 10
722.9999999999995
 20
285.0
 30
0.0
 11
740.0
 21
285.0
 31
0.0
  0
LINE
  5
E2FC
330
1E
100
AcDbEntity
  8
12
100
AcDbLine
 10
771.0000000000003
 20
173.75
 30
0.0
 11
764.5000000000003
 21
173.75
 31
0.0
  0
LINE
  5
E2FD
330
1E
100
AcDbEntity
  8
12
100
AcDbLine
 10
771.0000000000003
 20
162.5
 30
0.0
 11
762.5
 21
162.5
 31
0.0
  0
LINE
  5
E2FE
330
1E
100
AcDbEntity
  8
12
100
AcDbLine
 10
771.0000000000003
 20
166.25
 30
0.0
 11
764.5000000000003
 21
166.25
 31
0.0
  0
LINE
  5
E2FF
330
1E
100
AcDbEntity
  8
12
100
AcDbLine
 10
771.0000000000003
 20
177.5
 30
0.0
 11
762.5
 21
177.5
 31
0.0
  0
LINE
  5
E300
330
1E
100
AcDbEntity
  8
12
100
AcDbLine
 10
764.5000000000003
 20
162.5
 30
0.0
 11
764.5000000000003
 21
177.5
 31
0.0
  0
LINE
  5
E301
330
1E
100
AcDbEntity
  8
12
100
AcDbLine
 10
762.5
 20
161.0000000000004
 30
0.0
 11
762.5
 21
178.9999999999995
 31
0.0
  0
LINE
  5
E302
330
1E
100
AcDbEntity
  8
12
100
AcDbLine
 10
772.9999999999995
 20
173.9999999999995
 30
0.0
 11
771.0000000000003
 21
173.9999999999995
 31
0.0
  0
LINE
  5
E303
330
1E
100
AcDbEntity
  8
12
100
AcDbLine
 10
772.9999999999995
 20
166.0000000000003
 30
0.0
 11
772.9999999999995
 21
173.9999999999995
 31
0.0
  0
LINE
  5
E304
330
1E
100
AcDbEntity
  8
12
100
AcDbLine
 10
771.0000000000003
 20
162.5
 30
0.0
 11
771.0000000000003
 21
177.5
 31
0.0
  0
LINE
  5
E305
330
1E
100
AcDbEntity
  8
12
100
AcDbLine
 10
772.9999999999995
 20
166.0000000000003
 30
0.0
 11
771.0000000000003
 21
166.0000000000003
 31
0.0
  0
DIMENSION
  5
E309
330
1E
100
AcDbEntity
  8
30
  6
Continuous
100
AcDbDimension
  2
*D11
 10
936.9538999999999
 20
60.0
 30
0.0
 11
929.7538999999996
 21
29.99999999999992
 31
0.0
 70
    32
  1
 <> 
 71
     0
 72
     0
 41
0.0
 42
60.00000000000046
  3
STANDARD1
100
AcDbAlignedDimension
 13
913.790775
 23
-0.0000000000004547
 33
0.0
 14
930.0
 24
60.0
 34
0.0
 50
90.0
100
AcDbRotatedDimension
  0
LINE
  5
E30A
330
1E
100
AcDbEntity
  8
17
  6
DASHDOT
100
AcDbLine
 10
921.0
 20
60.0
 30
0.0
 11
941.0
 21
60.0
 31
0.0
  0
LWPOLYLINE
  5
F00B
330
1E
100
AcDbEntity
  8
10
  6
Continuous
100
AcDbPolyline
 90
        8
 70
     1
 43
0.0
 10
-94.0
 20
47.5
 10
94.0
 20
47.5
 42
-0.4142135623730951
 10
95.0
 20
46.5
 10
95.0
 20
-46.5
 42
-0.4142135623730951
 10
94.0
 20
-47.5
 10
-94.0
 20
-47.5
 42
-0.4142135623730951
 10
-95.0
 20
-46.5
 10
-95.0
 20
46.5
 42
-0.4142135623730951
  0
LWPOLYLINE
  5
F017
330
1E
100
AcDbEntity
  8
10
  6
Continuous
100
AcDbPolyline
 90
        4
 70
     1
 43
0.0
 10
-39.0
 20
47.5
 10
39.0
 20
47.5
 10
39.0
 20
-47.5
 10
-39.0
 20
-47.5
  0
LWPOLYLINE
  5
F018
330
1E
100
AcDbEntity
  8
10
  6
Continuous
100
AcDbPolyline
 90
        4
 70
     1
 43
0.0
 10
27.19999999999981
 20
-33.50000000000044
 10
33.20000000000073
 20
-33.50000000000044
 10
33.20000000000073
 20
-41.49999999999955
 10
27.19999999999981
 20
-41.49999999999955
  0
LWPOLYLINE
  5
F019
330
1E
100
AcDbEntity
  8
10
  6
Continuous
100
AcDbPolyline
 90
        4
 70
     1
 43
0.0
 10
-22.5
 20
43.33293000000002
 10
22.5
 20
43.33293000000002
 10
22.5
 20
-22.99999999999954
 10
-22.5
 20
-22.99999999999954
  0
LWPOLYLINE
  5
F01A
330
1E
100
AcDbEntity
  8
10
  6
Continuous
100
AcDbPolyline
 90
        4
 70
     1
 43
0.0
 10
-22.5
 20
43.33293000000002
 10
22.5
 20
43.33293000000002
 10
22.5
 20
31.93223500000068
 10
-22.5
 20
31.93223500000068
  0
LWPOLYLINE
  5
F049
330
1E
100
AcDbEntity
  8
10
  6
Continuous
100
AcDbPolyline
 90
        4
 70
     1
 43
0.0
 10
-105.0
 20
200.0
 10
105.0
 20
200.0
 10
105.0
 20
-170.0
 10
-105.0
 20
-170.0
  0
LWPOLYLINE
  5
F04A
330
1E
100
AcDbEntity
  8
10
  6
Continuous
100
AcDbPolyline
 90
        4
 70
     1
 43
0.0
 10
-105.0
 20
-140.0
 10
105.0
 20
-140.0
 10
105.0
 20
-170.0
 10
-105.0
 20
-170.0
  0
LWPOLYLINE
  5
F04B
330
1E
100
AcDbEntity
  8
10
  6
Continuous
100
AcDbPolyline
 90
        4
 70
     1
 43
0.0
 10
-105.0
 20
200.0
 10
105.0
 20
200.0
 10
105.0
 20
170.0
 10
-105.0
 20
170.0
  0
LWPOLYLINE
  5
F067
330
1E
100
AcDbEntity
  8
10
  6
Continuous
100
AcDbPolyline
 90
        4
 70
     1
 43
0.0
 10
-150.0
 20
200.0
 10
150.0
 20
200.0
 10
150.0
 20
-220.0001199999995
 10
-150.0
 20
-220.0001199999995
  0
LWPOLYLINE
  5
F068
330
1E
100
AcDbEntity
  8
10
  6
Continuous
100
AcDbPolyline
 90
        4
 70
     1
 43
0.0
 10
150.0
 20
-45.00000000000002
 10
178.0000000000009
 20
-45.00000000000002
 10
178.0000000000009
 20
-203.5001199999999
 10
150.0
 20
-203.5001199999999
  0
LWPOLYLINE
  5
F069
330
1E
100
AcDbEntity
  8
10
  6
Continuous
100
AcDbPolyline
 90
        4
 70
     1
 43
0.0
 10
-178.0
 20
-45.0
 10
-150.0
 20
-45.0
 10
-150.0
 20
-203.5001199999999
 10
-178.0
 20
-203.5001199999999
  0
LWPOLYLINE
  5
F06A
330
1E
100
AcDbEntity
  8
10
  6
Continuous
100
AcDbPolyline
 90
        4
 70
     1
 43
0.0
 10
-178.0
 20
105.0
 10
-150.0
 20
105.0
 10
-150.0
 20
-25.0
 10
-178.0
 20
-25.0
  0
LWPOLYLINE
  5
F06B
330
1E
100
AcDbEntity
  8
10
  6
Continuous
100
AcDbPolyline
 90
        4
 70
     1
 43
0.0
 10
-150.0
 20
207.9999999999995
 10
-115.0
 20
207.9999999999995
 10
-115.0
 20
200.0
 10
-150.0
 20
200.0
  0
LWPOLYLINE
  5
F06C
330
1E
100
AcDbEntity
  8
10
  6
Continuous
100
AcDbPolyline
 90
        4
 70
     1
 43
0.0
 10
115.0
 20
207.9999999999995
 10
150.0
 20
207.9999999999995
 10
150.0
 20
200.0
 10
115.0
 20
200.0
  0
LWPOLYLINE
  5
F06E
330
1E
100
AcDbEntity
  8
10
  6
Continuous
100
AcDbPolyline
 90
        4
 70
     1
 43
0.0
 10
-115.0
 20
305.0
 10
115.0
 20
305.0
 10
115.0
 20
200.0
 10
-115.0
 20
200.0
  0
LWPOLYLINE
  5
F533
330
1E
100
AcDbEntity
  8
10
  6
Continuous
100
AcDbPolyline
 90
        4
 70
     1
 43
0.0
 10
-22.49999999999994
 20
433.9999999999995
 10
22.50000000000005
 20
433.9999999999995
 10
22.50000000000005
 20
400.0
 10
-22.49999999999994
 20
400.0
  0
LWPOLYLINE
  5
F534
330
1E
100
AcDbEntity
  8
10
  6
Continuous
100
AcDbPolyline
 90
        4
 70
     1
 43
0.0
 10
-38.99999999999993
 20
443.9999999999995
 10
39.00000000000005
 20
443.9999999999995
 10
39.00000000000005
 20
433.9999999999995
 10
-38.99999999999993
 20
433.9999999999995
  0
LWPOLYLINE
  5
F535
330
1E
100
AcDbEntity
  8
10
  6
Continuous
100
AcDbPolyline
 90
        4
 70
     1
 43
0.0
 10
-38.99999999999993
 20
451.0000000000004
 10
39.00000000000005
 20
451.0000000000004
 10
39.00000000000005
 20
443.9999999999995
 10
-38.99999999999993
 20
443.9999999999995
  0
LWPOLYLINE
  5
F536
330
1E
100
AcDbEntity
  8
10
  6
Continuous
100
AcDbPolyline
 90
        4
 70
     1
 43
0.0
 10
-149.9999999999999
 20
715.9999999999991
 10
150.0
 20
715.9999999999991
 10
150.0
 20
451.0000000000004
 10
-149.9999999999999
 20
451.0000000000004
  0
LWPOLYLINE
  5
F549
330
1E
100
AcDbEntity
  8
21
  6
Continuous
100
AcDbPolyline
 90
        4
 70
     1
 43
0.0
 10
-77.4999999999999
 20
785.9999999999991
 10
-62.49999999999989
 20
785.9999999999991
 10
-62.49999999999989
 20
715.9999999999991
 10
-77.4999999999999
 20
715.9999999999991
  0
LWPOLYLINE
  5
F54A
330
1E
100
AcDbEntity
  8
21
  6
Continuous
100
AcDbPolyline
 90
        4
 70
     1
 43
0.0
 10
-7.499999999999888
 20
835.999999999999
 10
7.500000000000097
 20
835.999999999999
 10
7.500000000000097
 20
715.9999999999991
 10
-7.499999999999888
 20
715.9999999999991
  0
LWPOLYLINE
  5
F54B
330
1E
100
AcDbEntity
  8
21
  6
Continuous
100
AcDbPolyline
 90
        4
 70
     1
 43
0.0
 10
62.5000000000001
 20
785.9999999999991
 10
77.5000000000001
 20
785.9999999999991
 10
77.5000000000001
 20
715.9999999999991
 10
62.5000000000001
 20
715.9999999999991
  0
LWPOLYLINE
  5
F554
330
1E
100
AcDbEntity
  8
10
  6
Continuous
100
AcDbPolyline
 90
       11
 70
     0
 43
0.0
 10
498.0000000000003
 20
200.0
 10
498.0000000000003
 20
170.0
 10
490.0
 20
170.0
 10
490.0
 20
-140.0
 10
498.0000000000003
 20
-140.0
 10
498.0000000000003
 20
-170.0
 10
495.0
 20
-170.0
 10
495.0
 20
-220.0
 10
755.0
 20
-220.0
 10
755.0
 20
200.0
 10
498.0000000000003
 20
200.0
  0
LWPOLYLINE
  5
F555
330
1E
100
AcDbEntity
  8
10
  6
Continuous
100
AcDbPolyline
 90
        8
 70
     0
 43
0.0
 10
593.0000000000005
 20
200.0
 10
593.0000000000005
 20
225.0
 10
603.0000000000002
 20
235.0
 10
603.0000000000002
 20
265.0
 10
633.0000000000002
 20
265.0
 10
633.0000000000002
 20
305.0
 10
755.0
 20
305.0
 10
755.0
 20
200.0
  0
LWPOLYLINE
  5
F556
330
1E
100
AcDbEntity
  8
21
  6
Continuous
100
AcDbPolyline
 90
        4
 70
     1
 43
0.0
 10
755.0
 20
97.5
 10
825.0
 20
97.5
 10
825.0
 20
22.5
 10
755.0
 20
22.5
  0
LWPOLYLINE
  5
F557
330
1E
100
AcDbEntity
  8
21
  6
Continuous
100
AcDbPolyline
 90
        4
 70
     0
 43
0.0
 10
835.0
 20
97.5
 10
875.0
 20
97.5
 10
875.0
 20
22.5
 10
835.0
 20
22.5
  0
LWPOLYLINE
  5
F558
330
1E
100
AcDbEntity
  8
21
  6
Continuous
100
AcDbPolyline
 90
        4
 70
     1
 43
0.0
 10
755.0
 20
-62.5
 10
825.0
 20
-62.5
 10
825.0
 20
-137.5
 10
755.0
 20
-137.5
  0
LWPOLYLINE
  5
F559
330
1E
100
AcDbEntity
  8
21
  6
Continuous
100
AcDbPolyline
 90
        4
 70
     0
 43
0.0
 10
835.0
 20
-62.5
 10
875.0
 20
-62.5
 10
875.0
 20
-137.5
 10
835.0
 20
-137.5
  0
LWPOLYLINE
  5
F55A
330
1E
100
AcDbEntity
  8
10
  6
Continuous
100
AcDbPolyline
 90
        4
 70
     1
 43
0.0
 10
482.9999999999991
 20
47.5
 10
490.0
 20
47.5
 10
490.0
 20
-47.5
 10
482.9999999999991
 20
-47.5
  0
LWPOLYLINE
  5
F55B
330
1E
100
AcDbEntity
  8
10
  6
Continuous
100
AcDbPolyline
 90
       11
 70
     0
 43
0.0
 10
394.0054729885492
 20
43.86601585259927
 42
-0.2280087862796968
 10
400.8556634653855
 20
43.80733900156086
 10
436.092719168475
 20
23.6383679419016
 10
460.1994983734122
 20
13.89859826312817
 42
0.4142135425216232
 10
465.4066599581287
 20
16.10890730527284
 10
472.2244992187657
 20
32.98365065746725
 42
0.4142135822245514
 10
470.0141900268122
 20
38.19081259510971
 10
445.9074091684732
 20
47.93058294190155
 10
406.5493795000723
 20
57.89997412440607
 42
-0.261369876899627
 10
401.5810726788409
 20
62.61628411712171
 42
2.80870652995242
 10
394.0054729885492
 20
43.86601585259927
 42
-2.80870652995242
  0
LWPOLYLINE
  5
F562
330
1E
100
AcDbEntity
  8
10
  6
Continuous
100
AcDbPolyline
 90
        4
 70
     0
 43
0.0
 10
258.2291537549786
 20
18.11352055135356
 42
2.808706600173469
 10
257.170770979946
 20
-2.081579087241738
 42
-0.2613698712072261
 10
263.6667870513448
 20
0.0931523818118505
 10
303.5505200000002
 20
-7.504934999999477
  0
LINE
  5
F567
330
1E
100
AcDbEntity
  8
10
  6
Continuous
100
AcDbLine
 10
264.462238322593
 20
15.27167937816114
 30
0.0
 11
264.4622419023609
 21
15.27167967787169
 31
0.0
  0
LWPOLYLINE
  5
F574
330
1E
100
AcDbEntity
  8
10
  6
Continuous
100
AcDbPolyline
 90
        3
 70
     0
 43
0.0
 10
258.2291537549786
 20
18.11352055135356
 42
0.2613700528618676
 10
264.4622625276425
 20
15.27168140468986
 10
304.9217199999998
 20
18.65915999999969
  0
LWPOLYLINE
  5
F576
330
1E
100
AcDbEntity
  8
10
  6
Continuous
100
AcDbPolyline
 90
        4
 70
     0
 43
0.0
 10
473.1299899999998
 20
15.90052499999956
 10
443.702095
 20
27.79016499999988
 10
448.4970590593291
 20
39.65812038005596
 10
473.6256668038349
 20
29.50550629133381
  0
DIMENSION
  5
F640
330
1E
100
AcDbEntity
  8
30
  6
Continuous
100
AcDbDimension
  2
*D21
 10
755.0000000000003
 20
460.0
 30
0.0
 11
557.5000000000003
 21
467.1999999999998
 31
0.0
 70
    32
  1
 <> 
 71
     5
 42
395.0
  3
STANDARD1
100
AcDbAlignedDimension
 13
360.0000000000004
 23
174.9999999999995
 33
0.0
 14
755.0000000000003
 24
309.9999999999993
 34
0.0
100
AcDbRotatedDimension
  0
DIMENSION
  5
F641
330
1E
100
AcDbEntity
  8
30
  6
Continuous
100
AcDbDimension
  2
*D22
 10
755.0000000000003
 20
420.0
 30
0.0
 11
592.5000000000002
 21
427.2
 31
0.0
 70
    32
  1
 <> 
 71
     5
 42
325.0
  3
STANDARD1
100
AcDbAlignedDimension
 13
430.0000000000004
 23
174.9999999999995
 33
0.0
 14
755.0000000000003
 24
309.9999999999993
 34
0.0
100
AcDbRotatedDimension
  0
DIMENSION
  5
F642
330
1E
100
AcDbEntity
  8
30
  6
Continuous
100
AcDbDimension
  2
*D23
 10
755.0000000000003
 20
380.0
 30
0.0
 11
607.5000000000002
 21
387.1999999999998
 31
0.0
 70
    32
  1
 <> 
 71
     5
 42
295.0
  3
STANDARD1
100
AcDbAlignedDimension
 13
460.0000000000004
 23
174.9999999999995
 33
0.0
 14
755.0000000000003
 24
309.9999999999993
 34
0.0
100
AcDbRotatedDimension
  0
DIMENSION
  5
F643
330
1E
100
AcDbEntity
  8
30
  6
Continuous
100
AcDbDimension
  2
*D24
 10
755.0000000000003
 20
340.0
 30
0.0
 11
622.5000000000002
 21
347.1999999999998
 31
0.0
 70
    32
  1
 <> 
 71
     5
 42
265.0
  3
STANDARD1
100
AcDbAlignedDimension
 13
490.0000000000003
 23
174.9999999999995
 33
0.0
 14
755.0000000000003
 24
309.9999999999993
 34
0.0
100
AcDbRotatedDimension
  0
MTEXT
  5
F6E0
330
1E
100
AcDbEntity
  8
19
  6
Continuous
100
AcDbMText
 10
562.4882010055183
 20
679.7341642448607
 30
0.0
 40
10.0
 41
161.0747
 71
     1
 72
     5
  1
S1600-NE 3P DR\PS1600-NN 3P DR\P\P 
  7
STANDARD1
 73
     1
 44
1.0
1001
ACAD
1000
MTEXTBEGIN
1070
    73
1070
     1
1070
    44
1040
1.0
1070
    74
1070
     0
1000
MTEXTEND
  0
LINE
  5
10BA0
330
1E
100
AcDbEntity
  8
16
100
AcDbLine
 10
-190.0
 20
-600.0
 30
0.0
 11
160.0
 21
-600.0
 31
0.0
  0
DIMENSION
  5
10BA4
330
1E
100
AcDbEntity
  8
30
  6
Continuous
100
AcDbDimension
  2
*D25
 10
112.5
 20
-350.0
 30
0.0
 11
0.0000000000000004
 21
-342.8
 31
0.0
 70
    32
  1
 <> 
 71
     5
 42
225.0
  3
STANDARD1
100
AcDbAlignedDimension
 13
-112.5
 23
-415.0
 33
0.0
 14
112.5
 24
-415.0
 34
0.0
100
AcDbRotatedDimension
  0
LINE
  5
10BA5
330
1E
100
AcDbEntity
  8
16
100
AcDbLine
 10
-160.0
 20
-600.0
 30
0.0
 11
160.0
 21
-600.0
 31
0.0
  0
LINE
  5
10BAD
330
1E
100
AcDbEntity
  8
16
100
AcDbLine
 10
0.0
 20
-840.0
 30
0.0
 11
0.0
 21
-370.0
 31
0.0
  0
LINE
  5
10BAE
330
1E
100
AcDbEntity
  8
225
  6
Continuous
 62
     3
100
AcDbLine
 10
-127.5
 20
-790.0
 30
0.0
 11
-97.5
 21
-790.0
 31
0.0
  0
CIRCLE
  5
10BAF
330
1E
100
AcDbEntity
  8
160
  6
Continuous
 62
     3
100
AcDbCircle
 10
-112.5
 20
-790.0
 30
0.0
 40
6.0
  0
LINE
  5
10BB3
330
1E
100
AcDbEntity
  8
225
  6
Continuous
 62
     3
100
AcDbLine
 10
-112.5
 20
-805.0
 30
0.0
 11
-112.5
 21
-775.0
 31
0.0
  0
LINE
  5
10BB5
330
1E
100
AcDbEntity
  8
225
  6
Continuous
 62
     3
100
AcDbLine
 10
-127.5
 20
-430.0
 30
0.0
 11
-97.5
 21
-430.0
 31
0.0
  0
CIRCLE
  5
10BB6
330
1E
100
AcDbEntity
  8
160
  6
Continuous
 62
     3
100
AcDbCircle
 10
112.5
 20
-430.0
 30
0.0
 40
6.0
210
0.0
220
0.0
230
-1.0
  0
LINE
  5
10BBB
330
1E
100
AcDbEntity
  8
225
  6
Continuous
 62
     3
100
AcDbLine
 10
-112.5
 20
-415.0
 30
0.0
 11
-112.5
 21
-445.0
 31
0.0
  0
LINE
  5
10BBC
330
1E
100
AcDbEntity
  8
18
 48
2.0
100
AcDbLine
 10
150.0
 20
-820.0
 30
0.0
 11
150.0
 21
-400.0
 31
0.0
  0
LINE
  5
10BBD
330
1E
100
AcDbEntity
  8
12
100
AcDbLine
 10
97.5
 20
-790.0
 30
0.0
 11
127.5
 21
-790.0
 31
0.0
  0
CIRCLE
  5
10BBE
330
1E
100
AcDbEntity
  8
12
100
AcDbCircle
 10
112.5
 20
-790.0
 30
0.0
 40
6.0
  0
LINE
  5
10BBF
330
1E
100
AcDbEntity
  8
12
100
AcDbLine
 10
112.5
 20
-805.0
 30
0.0
 11
112.5
 21
-775.0
 31
0.0
  0
LINE
  5
10BC5
330
1E
100
AcDbEntity
  8
225
  6
Continuous
 62
     3
100
AcDbLine
 10
97.5
 20
-430.0
 30
0.0
 11
127.5
 21
-430.0
 31
0.0
  0
CIRCLE
  5
10BC6
330
1E
100
AcDbEntity
  8
160
  6
Continuous
 62
     3
100
AcDbCircle
 10
-112.5
 20
-430.0
 30
0.0
 40
6.0
210
0.0
220
0.0
230
-1.0
  0
LINE
  5
10BC7
330
1E
100
AcDbEntity
  8
225
  6
Continuous
 62
     3
100
AcDbLine
 10
112.5
 20
-415.0
 30
0.0
 11
112.5
 21
-445.0
 31
0.0
  0
LWPOLYLINE
  5
112C7
330
1E
100
AcDbEntity
  8
10
  6
DASHDOT
100
AcDbPolyline
 90
       10
 70
     0
 43
0.0
 10
755.0
 20
150.0
 10
758.0
 20
150.0
 42
0.4142135623730951
 10
761.0
 20
153.0
 10
761.0
 20
188.4999999999999
 42
-0.4142135623730951
 10
766.5
 20
194.0
 10
802.0
 20
194.0
 42
0.4142135623730951
 10
805.0
 20
197.0
 10
805.0
 20
200.0
 10
755.0
 20
200.0
 10
755.0
 20
150.0
  0
LWPOLYLINE
  5
112C9
330
1E
100
AcDbEntity
  8
10
  6
DASHDOT
100
AcDbPolyline
 90
       10
 70
     0
 43
0.0
 10
755.0
 20
-170.0
 10
758.0
 20
-170.0
 42
-0.4142135623730951
 10
761.0
 20
-173.0
 10
761.0
 20
-208.4999999999999
 42
0.4142135623730951
 10
766.5
 20
-214.0
 10
802.0
 20
-214.0
 42
-0.4142135623730951
 10
805.0
 20
-217.0
 10
805.0
 20
-220.0
 10
755.0
 20
-220.0
 10
755.0
 20
-170.0
  0
LWPOLYLINE
  5
112D0
330
1E
100
AcDbEntity
  8
10
  6
DASHDOT
100
AcDbPolyline
 90
       10
 70
     0
 43
0.0
 10
570.0
 20
-270.0
 10
567.0
 20
-270.0
 42
-0.4142135623730951
 10
564.0
 20
-267.0
 10
564.0
 20
-231.4999999999999
 42
0.4142135623730951
 10
558.4999999999999
 20
-226.0
 10
523.0
 20
-226.0
 42
-0.4142135623730951
 10
520.0
 20
-223.0
 10
520.0
 20
-220.0
 10
570.0
 20
-220.0
 10
570.0
 20
-270.0
  0
LWPOLYLINE
  5
112D2
330
1E
100
AcDbEntity
  8
18
  6
DIVIDE
100
AcDbPolyline
 90
        4
 70
     1
 43
0.0
 10
485.0
 20
-770.0
 10
275.0
 20
-770.0
 10
275.0
 20
-400.0
 10
485.0
 20
-400.0
  0
LWPOLYLINE
  5
112D3
330
1E
100
AcDbEntity
  8
18
  6
DIVIDE
100
AcDbPolyline
 90
        4
 70
     1
 43
0.0
 10
275.0
 20
-400.0
 10
485.0
 20
-400.0
 10
485.0
 20
-770.0
 10
275.0
 20
-770.0
  0
LWPOLYLINE
  5
112D4
330
1E
100
AcDbEntity
  8
11
 48
2.0
100
AcDbPolyline
 90
        8
 70
     1
 43
0.0
 10
286.4999999999998
 20
-551.0
 10
473.4999999999997
 20
-551.0
 42
-0.4142135623730951
 10
476.4999999999997
 20
-554.0
 10
476.4999999999997
 20
-646.0
 42
-0.4142135623730951
 10
473.4999999999997
 20
-649.0
 10
286.4999999999998
 20
-649.0
 42
-0.4142135623730951
 10
283.4999999999997
 20
-646.0
 10
283.4999999999997
 20
-554.0
 42
-0.4142135623730951
  0
DIMENSION
  5
112D5
330
1E
100
AcDbEntity
  8
30
  6
Continuous
100
AcDbDimension
  2
*D28
 10
476.4999999999998
 20
-820.0
 30
0.0
 11
380.0
 21
-812.8
 31
0.0
 70
    32
  1
 <> 
 71
     5
 42
193.0
  3
STANDARD1
100
AcDbAlignedDimension
 13
283.4999999999999
 23
-651.0000000000006
 33
0.0
 14
476.4999999999998
 24
-651.0000000000006
 34
0.0
100
AcDbRotatedDimension
  0
LINE
  5
112D8
330
1E
100
AcDbEntity
  8
16
100
AcDbLine
 10
495.0
 20
-600.0
 30
0.0
 11
265.0
 21
-600.0
 31
0.0
  0
DIMENSION
  5
112D9
330
1E
100
AcDbEntity
  8
30
  6
Continuous
100
AcDbDimension
  2
*D29
 10
240.0
 20
-551.0000000000003
 30
0.0
 11
232.8
 21
-600.0000000000002
 31
0.0
 70
    32
  1
 <> 
 71
     0
 72
     0
 41
0.0
 42
98.0
  3
STANDARD1
100
AcDbAlignedDimension
 13
281.4999999999999
 23
-649.0000000000001
 33
0.0
 14
281.4999999999999
 24
-551.0000000000003
 34
0.0
 50
90.0
100
AcDbRotatedDimension
  0
LINE
  5
112DA
330
1E
100
AcDbEntity
  8
16
100
AcDbLine
 10
380.0
 20
-780.0
 30
0.0
 11
380.0
 21
-390.0
 31
0.0
  0
LWPOLYLINE
  5
1135E
330
1E
100
AcDbEntity
  8
18
 48
2.0
100
AcDbPolyline
 90
        4
 70
     1
 43
0.0
 10
-150.0
 20
-400.0
 10
150.0
 20
-400.0
 10
150.0
 20
-820.0
 10
-150.0
 20
-820.0
  0
LINE
  5
1137B
330
1E
100
AcDbEntity
  8
1
  6
Continuous
 62
     3
100
AcDbLine
 10
-100.0
 20
-835.9999999999995
 30
0.0
 11
-100.0
 21
-815.9999999999994
 31
0.0
  0
LINE
  5
1137C
330
1E
100
AcDbEntity
  8
1
  6
Continuous
 62
     3
100
AcDbLine
 10
100.0
 20
-835.9999999999995
 30
0.0
 11
100.0
 21
-815.9999999999994
 31
0.0
  0
DIMENSION
  5
11480
330
1E
100
AcDbEntity
  8
30
  6
Continuous
100
AcDbDimension
  2
*D30
 10
-260.0
 20
304.9999999999996
 30
0.0
 11
-267.2
 21
42.5
 31
0.0
 70
    32
  1
 <> 
 71
     0
 72
     0
 41
0.0
 42
524.9999999999992
  3
STANDARD1
100
AcDbAlignedDimension
 13
-154.999999999999
 23
-219.9999999999995
 33
0.0
 14
-119.999999999999
 24
304.9999999999993
 34
0.0
 50
90.0
100
AcDbRotatedDimension
  0
DIMENSION
  5
11481
330
1E
100
AcDbEntity
  8
30
  6
Continuous
100
AcDbDimension
  2
*D31
 10
-220.0
 20
-0.0000000000004497
 30
0.0
 11
-227.1999999999999
 21
-110.0
 31
0.0
 70
    32
  1
 <> 
 71
     0
 72
     0
 41
0.0
 42
219.9999999999989
  3
STANDARD1
100
AcDbAlignedDimension
 13
-154.999999999999
 23
-219.9999999999995
 33
0.0
 14
-202.147460000001
 24
-0.0000000000004547
 34
0.0
 50
90.0
100
AcDbRotatedDimension
  0
DIMENSION
  5
11482
330
1E
100
AcDbEntity
  8
30
  6
Continuous
100
AcDbDimension
  2
*D32
 10
-220.0
 20
304.9999999999996
 30
0.0
 11
-227.1999999999999
 21
252.4999999999995
 31
0.0
 70
    32
  1
 <> 
 71
     0
 72
     0
 41
0.0
 42
105.0
  3
STANDARD1
100
AcDbAlignedDimension
 13
-154.999999999999
 23
199.9999999999995
 33
0.0
 14
-119.999999999999
 24
304.9999999999993
 34
0.0
 50
90.0
100
AcDbRotatedDimension
  0
DIMENSION
  5
11483
330
1E
100
AcDbEntity
  8
30
  6
Continuous
100
AcDbDimension
  2
*D33
 10
-220.0
 20
199.9999999999995
 30
0.0
 11
-227.1999999999999
 21
99.99999999999952
 31
0.0
 70
    32
  1
 <> 
 71
     0
 72
     0
 41
0.0
 42
200.0
  3
STANDARD1
100
AcDbAlignedDimension
 13
-207.1474600000009
 23
-0.0000000000004547
 33
0.0
 14
-154.999999999999
 24
199.9999999999995
 34
0.0
 50
90.0
100
AcDbRotatedDimension
  0
DIMENSION
  5
114FA
330
1E
100
AcDbEntity
  8
30
  6
Continuous
100
AcDbDimension
  2
*D34
 10
-220.0
 20
-600.0
 30
0.0
 11
-227.1999999999998
 21
-695.0
 31
0.0
 70
    32
  1
 <> 
 71
     0
 72
     0
 41
0.0
 42
190.0
  3
STANDARD1
100
AcDbAlignedDimension
 13
-127.5
 23
-790.0
 33
0.0
 14
-160.0000000000009
 24
-600.0
 34
0.0
 50
90.0
100
AcDbRotatedDimension
  0
DIMENSION
  5
114FB
330
1E
100
AcDbEntity
  8
30
  6
Continuous
100
AcDbDimension
  2
*D35
 10
-220.0
 20
-429.9999999999998
 30
0.0
 11
-227.1999999999999
 21
-515.0
 31
0.0
 70
    32
  1
 <> 
 71
     0
 72
     0
 41
0.0
 42
170.0
  3
STANDARD1
100
AcDbAlignedDimension
 13
-165.0000000000009
 23
-600.0
 33
0.0
 14
-127.5
 24
-430.0
 34
0.0
 50
90.0
100
AcDbRotatedDimension
  0
DIMENSION
  5
11652
330
1E
100
AcDbEntity
  8
30
  6
Continuous
100
AcDbDimension
  2
*D37
 10
100.0
 20
-850.77473503282
 30
0.0
 11
0.0000000000000004
 21
-843.5747350328197
 31
0.0
 70
    32
  1
 <> 
 71
     5
 42
200.0
  3
STANDARD1
100
AcDbAlignedDimension
 13
-100.0
 23
-830.0
 33
0.0
 14
100.0
 24
-830.0
 34
0.0
100
AcDbRotatedDimension
  0
LINE
  5
11655
330
1E
100
AcDbEntity
  8
1
  6
Continuous
 62
     3
100
AcDbLine
 10
100.0
 20
-830.0
 30
0.0
 11
100.0
 21
-810.0
 31
0.0
  0
MTEXT
  5
11657
330
1E
100
AcDbEntity
  8
30
  6
Continuous
100
AcDbMText
 10
126.2970110529394
 20
-838.6040494819145
 30
0.0
 40
6.0
 41
0.0
 71
     7
 72
     5
  1
\W01.000;\fsimplex.shx; 2-%%c12
  7
blockfont
 73
     2
 44
0.9036139999999999
1001
ACAD
1000
MTEXTBEGIN
1070
    73
1070
     2
1070
    44
1040
0.9036139999999999
1070
    74
1070
     0
1000
MTEXTEND
  0
LEADER
  5
1167F
330
1E
100
AcDbEntity
  8
30
  6
Continuous
100
AcDbLeader
  3
STANDARD1
 76
     3
 10
100.0
 20
-820.0
 30
0.0
 10
126.0403733880208
 20
-838.8686687010576
 30
0.0
 10
165.2812775723095
 20
-838.8686687010576
 30
0.0
  0
DIMENSION
  5
116B2
330
1E
100
AcDbEntity
  8
30
  6
Continuous
100
AcDbDimension
  2
*D39
 10
286.5
 20
-554.0
 30
0.0
 11
292.6331876353771
 21
-537.2056696827415
 31
0.0
 70
   164
 71
     5
 42
3.000000000000226
  3
STANDARD1
100
AcDbRadialDimension
 15
285.8935046545352
 25
-551.0619456444901
 35
0.0
 40
0.0
  0
SPLINE
  5
11BEF
330
1E
100
AcDbEntity
  8
10
  6
DIVIDE
100
AcDbSpline
210
0.0
220
0.0
230
1.0
 70
     8
 71
     3
 72
    11
 73
     7
 74
     0
 42
0.0000000001
 43
0.0000000001
 40
0.0
 40
0.0
 40
0.0
 40
0.0
 40
0.2833144085062783
 40
0.486217675199677
 40
0.6891209418930757
 40
1.0
 40
1.0
 40
1.0
 40
1.0
 10
173.1033282146233
 20
-449.9999987028822
 30
0.0
 10
170.3967307646973
 20
-444.3180248703088
 30
0.0
 10
161.2266278883675
 20
-432.8415687199322
 30
0.0
 10
176.0030880681776
 20
-427.1608873747537
 30
0.0
 10
159.9678331318355
 20
-411.9253111913649
 30
0.0
 10
168.1120450996264
 20
-404.9777651450997
 30
0.0
 10
169.2130488520055
 20
-399.9999987028866
 30
0.0
  0
LINE
  5
11BF1
330
1E
100
AcDbEntity
  8
10
  6
DIVIDE
100
AcDbLine
 10
-179.7440053610484
 20
-400.0
 30
0.0
 11
169.2130496389513
 21
-400.0
 31
0.0
  0
LINE
  5
11BF2
330
1E
100
AcDbEntity
  8
10
  6
DIVIDE
100
AcDbLine
 10
-172.5034903610485
 20
-405.9999999999998
 30
0.0
 11
164.9429946389511
 21
-405.9999999999998
 31
0.0
  0
SPLINE
  5
11BF4
330
1E
100
AcDbEntity
  8
10
  6
DIVIDE
100
AcDbSpline
210
0.0
220
0.0
230
1.0
 70
     8
 71
     3
 72
    12
 73
     8
 74
     0
 42
0.0000000001
 43
0.0000000001
 40
0.0
 40
0.0
 40
0.0
 40
0.0
 40
0.2981950869445847
 40
0.4472929234364825
 40
0.5963907599283801
 40
0.7454885964202777
 40
1.0
 40
1.0
 40
1.0
 40
1.0
 10
-179.744003386715
 20
-399.9999987026114
 30
0.0
 10
-176.4285148149529
 20
-406.9013916332978
 30
0.0
 10
-177.553623420334
 20
-401.1972070294373
 30
0.0
 10
-166.8511599787021
 20
-425.7043444060036
 30
0.0
 10
-180.5069216974521
 20
-429.9614244841335
 30
0.0
 10
-163.2105614206244
 20
-439.9167719068723
 30
0.0
 10
-172.929015085513
 20
-445.8738658098766
 30
0.0
 10
-172.7754640064623
 20
-449.9999987029395
 30
0.0
  0
LINE
  5
11BF5
330
1E
100
AcDbEntity
  8
10
  6
DIVIDE
100
AcDbLine
 10
-172.7754653610485
 20
-450.0
 30
0.0
 11
173.1033282146233
 21
-449.9999987028822
 31
0.0
  0
SPLINE
  5
11BF7
330
1E
100
AcDbEntity
  8
10
  6
DIVIDE
100
AcDbSpline
210
0.0
220
0.0
230
1.0
 70
     8
 71
     3
 72
    11
 73
     7
 74
     0
 42
0.0000000001
 43
0.0000000001
 40
0.0
 40
0.0
 40
0.0
 40
0.0
 40
0.25
 40
0.5
 40
0.75
 40
1.0
 40
1.0
 40
1.0
 40
1.0
 10
167.1424923650478
 20
-819.9999987028826
 30
0.0
 10
171.024524012036
 20
-830.0022370465248
 30
0.0
 10
176.48591581791
 20
-841.806994075716
 30
0.0
 10
174.6347936418925
 20
-848.3052956599587
 30
0.0
 10
166.1596579686076
 20
-855.9824859907804
 30
0.0
 10
162.5503354890699
 20
-862.4897580776726
 30
0.0
 10
169.3085239556575
 20
-869.9999987028837
 30
0.0
  0
LINE
  5
11BF8
330
1E
100
AcDbEntity
  8
10
  6
DIVIDE
100
AcDbLine
 10
-172.5034903610485
 20
-826.0
 30
0.0
 11
164.9429946389511
 21
-826.0
 31
0.0
  0
LINE
  5
11BF9
330
1E
100
AcDbEntity
  8
10
  6
DIVIDE
100
AcDbLine
 10
-171.8765346380926
 20
-869.9999987028837
 30
0.0
 11
169.308524638951
 21
-870.0
 31
0.0
  0
SPLINE
  5
11BFA
330
1E
100
AcDbEntity
  8
10
  6
DIVIDE
100
AcDbSpline
210
0.0
220
0.0
230
1.0
 70
     8
 71
     3
 72
    12
 73
     8
 74
     0
 42
0.0000000001
 43
0.0000000001
 40
0.0
 40
0.0
 40
0.0
 40
0.0
 40
0.2
 40
0.4
 40
0.6000000000000001
 40
0.8
 40
1.0
 40
1.0
 40
1.0
 40
1.0
 10
170.3739376775475
 20
-769.9999987028826
 30
0.0
 10
162.7575314275578
 20
-777.4999987028778
 30
0.0
 10
161.5225119896976
 20
-785.0104157732422
 30
0.0
 10
162.4334828709855
 20
-793.212263513773
 30
0.0
 10
168.5859143427004
 20
-799.2880327478286
 30
0.0
 10
172.4121552813102
 20
-806.5207628330986
 30
0.0
 10
170.1823729522365
 20
-813.7843913163838
 30
0.0
 10
167.1424923650478
 20
-819.9999987028826
 30
0.0
  0
LINE
  5
11BFB
330
1E
100
AcDbEntity
  8
10
  6
DIVIDE
100
AcDbLine
 10
-170.8111209162019
 20
-769.9999987028826
 30
0.0
 11
170.3739396389513
 21
-770.0
 31
0.0
  0
LINE
  5
11BFC
330
1E
100
AcDbEntity
  8
10
  6
DIVIDE
100
AcDbLine
 10
-172.5034903610485
 20
-814.0
 30
0.0
 11
164.9429946389511
 21
-814.0
 31
0.0
  0
LINE
  5
11BFD
330
1E
100
AcDbEntity
  8
10
  6
DIVIDE
100
AcDbLine
 10
-174.0425662287023
 20
-819.9999987028826
 30
0.0
 11
167.142494638951
 21
-820.0
 31
0.0
  0
SPLINE
  5
11BFE
330
1E
100
AcDbEntity
  8
10
  6
DIVIDE
100
AcDbSpline
210
0.0
220
0.0
230
1.0
 70
     8
 71
     3
 72
    11
 73
     7
 74
     0
 42
0.0000000001
 43
0.0000000001
 40
0.0
 40
0.0
 40
0.0
 40
0.0
 40
0.25
 40
0.5
 40
0.75
 40
1.0
 40
1.0
 40
1.0
 40
1.0
 10
-174.0425662287023
 20
-819.9999987028826
 30
0.0
 10
-170.160534581714
 20
-830.0022370465248
 30
0.0
 10
-164.6991427758401
 20
-841.806994075716
 30
0.0
 10
-166.550264951857
 20
-848.3052956599587
 30
0.0
 10
-175.0254006251419
 20
-855.9824859907804
 30
0.0
 10
-178.63472310468
 20
-862.4897580776726
 30
0.0
 10
-171.8765346380926
 20
-869.9999987028837
 30
0.0
  0
SPLINE
  5
11C00
330
1E
100
AcDbEntity
  8
1
  6
Continuous
 62
    95
100
AcDbSpline
210
0.0
220
0.0
230
1.0
 70
     8
 71
     3
 72
    12
 73
     8
 74
     0
 42
0.0000000001
 43
0.0000000001
 40
0.0
 40
0.0
 40
0.0
 40
0.0
 40
0.2
 40
0.4
 40
0.6000000000000001
 40
0.8
 40
1.0
 40
1.0
 40
1.0
 40
1.0
 10
-170.8111209162019
 20
-769.9999987028826
 30
0.0
 10
-178.4275271661923
 20
-777.4999987028778
 30
0.0
 10
-179.662546604052
 20
-785.0104157732422
 30
0.0
 10
-178.7515757227643
 20
-793.212263513773
 30
0.0
 10
-172.5991442510491
 20
-799.2880327478286
 30
0.0
 10
-168.7729033124398
 20
-806.5207628330986
 30
0.0
 10
-171.0026856415135
 20
-813.7843913163838
 30
0.0
 10
-174.0425662287023
 20
-819.9999987028826
 30
0.0
  0
VIEWPORT
  5
9AC
102
{ACAD_XDICTIONARY
360
11CB0
102
}
330
1A
100
AcDbEntity
 67
     1
  8
0
  6
Continuous
100
AcDbViewport
 10
171.9995348790992
 20
144.1384735538403
 30
0.0
 40
488.8676857773511
 41
292.3514905034161
 68
     1
 69
     1
 12
171.9995348790992
 22
144.1384735538403
 13
0.0
 23
0.0
 14
10.0
 24
10.0
 15
10.0
 25
10.0
 16
0.0
 26
0.0
 36
1.0
 17
0.0
 27
0.0
 37
0.0
 42
50.0
 43
0.0
 44
0.0
 45
292.3514905034161
 50
0.0
 51
0.0
 72
   100
 90
    32800
  1

281
     0
 71
     1
 74
     0
110
0.0
120
0.0
130
0.0
111
1.0
121
0.0
131
0.0
112
0.0
122
1.0
132
0.0
 79
     0
146
0.0
  0
ENDSEC
  0
SECTION
  2
OBJECTS
  0
DICTIONARY
  5
C
330
0
100
AcDbDictionary
281
     1
  3
ACAD_COLOR
350
11C4E
  3
ACAD_GROUP
350
D
  3
ACAD_LAYOUT
350
19
  3
ACAD_MATERIAL
350
11C21
  3
ACAD_MLEADERSTYLE
350
11C73
  3
ACAD_MLINESTYLE
350
16
  3
ACAD_PLOTSETTINGS
350
18
  3
ACAD_PLOTSTYLENAME
350
E
  3
ACAD_SCALELIST
350
11C51
  3
ACAD_TABLESTYLE
350
11C4F
  3
ACAD_VISUALSTYLE
350
11C3A
  3
ACDB_RECOMPOSE_DATA
350
11CAE
  3
ACDBVARIABLEDICTIONARY
350
69C9
  3
ASE_INDEX_DICTIONARY
350
11CA4
  3
DWGPROPS
350
11CAF
  0
DICTIONARY
  5
11C7B
330
10
100
AcDbDictionary
280
     1
281
     1
  3
ADSK_XREC_LAYER_RECONCILED
360
11C7C
  0
DICTIONARY
  5
11C7D
330
2F
100
AcDbDictionary
280
     1
281
     1
  3
ADSK_XREC_LAYER_RECONCILED
360
11C7E
  0
DICTIONARY
  5
11C7F
330
31
100
AcDbDictionary
280
     1
281
     1
  3
ADSK_XREC_LAYER_RECONCILED
360
11C80
  0
DICTIONARY
  5
11C81
330
35
100
AcDbDictionary
280
     1
281
     1
  3
ADSK_XREC_LAYER_RECONCILED
360
11C82
  0
DICTIONARY
  5
11C83
330
38
100
AcDbDictionary
280
     1
281
     1
  3
ADSK_XREC_LAYER_RECONCILED
360
11C84
  0
DICTIONARY
  5
11C85
330
3C
100
AcDbDictionary
280
     1
281
     1
  3
ADSK_XREC_LAYER_RECONCILED
360
11C86
  0
DICTIONARY
  5
11C87
330
3D
100
AcDbDictionary
280
     1
281
     1
  3
ADSK_XREC_LAYER_RECONCILED
360
11C88
  0
DICTIONARY
  5
11C89
330
3A2
100
AcDbDictionary
280
     1
281
     1
  3
ADSK_XREC_LAYER_RECONCILED
360
11C8A
  0
DICTIONARY
  5
11C8B
330
3BBA
100
AcDbDictionary
280
     1
281
     1
  3
ADSK_XREC_LAYER_RECONCILED
360
11C8C
  0
DICTIONARY
  5
11C8D
330
3BBB
100
AcDbDictionary
280
     1
281
     1
  3
ADSK_XREC_LAYER_RECONCILED
360
11C8E
  0
DICTIONARY
  5
11C8F
330
7355
100
AcDbDictionary
280
     1
281
     1
  3
ADSK_XREC_LAYER_RECONCILED
360
11C90
  0
DICTIONARY
  5
11C91
330
970E
100
AcDbDictionary
280
     1
281
     1
  3
ADSK_XREC_LAYER_RECONCILED
360
11C92
  0
DICTIONARY
  5
11C93
330
9BE6
100
AcDbDictionary
280
     1
281
     1
  3
ADSK_XREC_LAYER_RECONCILED
360
11C94
  0
DICTIONARY
  5
11C95
330
9BE7
100
AcDbDictionary
280
     1
281
     1
  3
ADSK_XREC_LAYER_RECONCILED
360
11C96
  0
DICTIONARY
  5
11C97
330
9BE8
100
AcDbDictionary
280
     1
281
     1
  3
ADSK_XREC_LAYER_RECONCILED
360
11C98
  0
DICTIONARY
  5
11C99
330
9BE9
100
AcDbDictionary
280
     1
281
     1
  3
ADSK_XREC_LAYER_RECONCILED
360
11C9A
  0
DICTIONARY
  5
11C9B
330
9BEA
100
AcDbDictionary
280
     1
281
     1
  3
ADSK_XREC_LAYER_RECONCILED
360
11C9C
  0
DICTIONARY
  5
11C9D
330
9BEB
100
AcDbDictionary
280
     1
281
     1
  3
ADSK_XREC_LAYER_RECONCILED
360
11C9E
  0
DICTIONARY
  5
11C9F
330
9BEC
100
AcDbDictionary
280
     1
281
     1
  3
ADSK_XREC_LAYER_RECONCILED
360
11CA0
  0
DICTIONARY
  5
11CA1
330
9BED
100
AcDbDictionary
280
     1
281
     1
  3
ADSK_XREC_LAYER_RECONCILED
360
11CA2
  0
DICTIONARY
  5
178
330
1E
100
AcDbDictionary
280
     1
281
     1
  3
ACAD_LAYOUTSELFREF
360
7AD3
  0
DICTIONARY
  5
17A
330
1A
100
AcDbDictionary
280
     1
281
     1
  3
ACAD_LAYOUTSELFREF
360
7AD2
  0
DICTIONARY
  5
11CB0
330
9AC
100
AcDbDictionary
280
     1
281
     1
  3
ACAD_XREC_ROUNDTRIP
360
11CB1
  0
DICTIONARY
  5
11C4E
102
{ACAD_REACTORS
330
C
102
}
330
C
100
AcDbDictionary
281
     1
  0
DICTIONARY
  5
D
102
{ACAD_REACTORS
330
C
102
}
330
C
100
AcDbDictionary
281
     1
  0
DICTIONARY
  5
19
102
{ACAD_REACTORS
330
C
102
}
330
C
100
AcDbDictionary
281
     1
  3
Model
350
7AE4
  3
ﾚｲｱｳﾄ1
350
7AE5
  0
DICTIONARY
  5
11C21
102
{ACAD_REACTORS
330
C
102
}
330
C
100
AcDbDictionary
281
     1
  3
ByBlock
350
11C2A
  3
ByLayer
350
11C22
  3
Global
350
11C32
  0
DICTIONARY
  5
11C73
102
{ACAD_REACTORS
330
C
102
}
330
C
100
AcDbDictionary
281
     1
  3
Standard
350
11C74
  0
DICTIONARY
  5
16
102
{ACAD_REACTORS
330
C
102
}
330
C
100
AcDbDictionary
281
     1
  3
STANDARD
350
17
  0
DICTIONARY
  5
18
102
{ACAD_REACTORS
330
C
102
}
330
C
100
AcDbDictionary
281
     1
  0
ACDBDICTIONARYWDFLT
  5
E
102
{ACAD_REACTORS
330
C
102
}
330
C
100
AcDbDictionary
281
     1
  3
Normal
350
F
100
AcDbDictionaryWithDefault
340
F
  0
DICTIONARY
  5
11C51
102
{ACAD_REACTORS
330
C
102
}
330
C
100
AcDbDictionary
281
     1
  3
A0
350
11C52
  3
A1
350
11C53
  3
A2
350
11C54
  3
A3
350
11C55
  3
A4
350
11C56
  3
A5
350
11C57
  3
A6
350
11C58
  3
A7
350
11C59
  3
A8
350
11C5A
  3
A9
350
11C5B
  3
B0
350
11C5C
  3
B1
350
11C5D
  3
B2
350
11C5E
  3
B3
350
11C5F
  3
B4
350
11C60
  3
B5
350
11C61
  3
B6
350
11C62
  3
B7
350
11C63
  3
B8
350
11C64
  3
B9
350
11C65
  3
C0
350
11C66
  3
C1
350
11C67
  3
C2
350
11C68
  3
C3
350
11C69
  3
C4
350
11C6A
  3
C5
350
11C6B
  3
C6
350
11C6C
  3
C7
350
11C6D
  3
C8
350
11C6E
  3
C9
350
11C6F
  3
D0
350
11C70
  3
D1
350
11C71
  3
D2
350
11C72
  0
DICTIONARY
  5
11C4F
102
{ACAD_REACTORS
330
C
102
}
330
C
100
AcDbDictionary
281
     1
  3
Standard
350
11C50
  0
DICTIONARY
  5
11C3A
102
{ACAD_REACTORS
330
C
102
}
330
C
100
AcDbDictionary
281
     1
  3
2dWireframe
350
11C40
  3
3D Hidden
350
11C42
  3
3dWireframe
350
11C41
  3
Basic
350
11C3F
  3
Brighten
350
11C46
  3
ColorChange
350
11C4A
  3
Conceptual
350
11C43
  3
Dim
350
11C45
  3
EdgeColorOff
350
11C4D
  3
Facepattern
350
11C49
  3
Flat
350
11C3B
  3
FlatWithEdges
350
11C3C
  3
Gouraud
350
11C3D
  3
GouraudWithEdges
350
11C3E
  3
JitterOff
350
11C4B
  3
Linepattern
350
11C48
  3
OverhangOff
350
11C4C
  3
Realistic
350
11C44
  3
Thicken
350
11C47
  0
XRECORD
  5
11CAE
102
{ACAD_REACTORS
330
C
102
}
330
C
100
AcDbXrecord
280
     1
 90
        1
330
11C50
  0
DICTIONARY
  5
69C9
102
{ACAD_REACTORS
330
C
102
}
330
C
100
AcDbDictionary
281
     1
  3
CANNOSCALE
350
11CA9
  3
CMLEADERSTYLE
350
11CA8
  3
CTABLESTYLE
350
11CA7
  3
DIMASSOC
350
69CA
  3
INDEXCTL
350
11CAA
  3
SORTENTS
350
F572
  3
XCLIPFRAME
350
11CAB
  0
DICTIONARY
  5
11CA4
102
{ACAD_REACTORS
330
C
102
}
330
C
100
AcDbDictionary
281
     1
  3
ASEBlockHierarchyIndexRecord
350
11CA6
1001
DCO15
1040
1734069915.421
  0
XRECORD
  5
11CAF
102
{ACAD_REACTORS
330
C
102
}
330
C
100
AcDbXrecord
280
     1
  1
DWGPROPS COOKIE
  2

  3

  4

  6

  7

  8
cadm
  9

300
=
301
=
302
=
303
=
304
=
305
=
306
=
307
=
308
=
309
=
 40
2.161375810185185
 41
2452286.555658658
 42
2455873.465502558
  1

 90
        0
  0
XRECORD
  5
11C7C
102
{ACAD_REACTORS
330
11C7B
102
}
330
11C7B
100
AcDbXrecord
280
     1
290
     1
  0
XRECORD
  5
11C7E
102
{ACAD_REACTORS
330
11C7D
102
}
330
11C7D
100
AcDbXrecord
280
     1
290
     1
  0
XRECORD
  5
11C80
102
{ACAD_REACTORS
330
11C7F
102
}
330
11C7F
100
AcDbXrecord
280
     1
290
     1
  0
XRECORD
  5
11C82
102
{ACAD_REACTORS
330
11C81
102
}
330
11C81
100
AcDbXrecord
280
     1
290
     1
  0
XRECORD
  5
11C84
102
{ACAD_REACTORS
330
11C83
102
}
330
11C83
100
AcDbXrecord
280
     1
290
     1
  0
XRECORD
  5
11C86
102
{ACAD_REACTORS
330
11C85
102
}
330
11C85
100
AcDbXrecord
280
     1
290
     1
  0
XRECORD
  5
11C88
102
{ACAD_REACTORS
330
11C87
102
}
330
11C87
100
AcDbXrecord
280
     1
290
     1
  0
XRECORD
  5
11C8A
102
{ACAD_REACTORS
330
11C89
102
}
330
11C89
100
AcDbXrecord
280
     1
290
     1
  0
XRECORD
  5
11C8C
102
{ACAD_REACTORS
330
11C8B
102
}
330
11C8B
100
AcDbXrecord
280
     1
290
     1
  0
XRECORD
  5
11C8E
102
{ACAD_REACTORS
330
11C8D
102
}
330
11C8D
100
AcDbXrecord
280
     1
290
     1
  0
XRECORD
  5
11C90
102
{ACAD_REACTORS
330
11C8F
102
}
330
11C8F
100
AcDbXrecord
280
     1
290
     1
  0
XRECORD
  5
11C92
102
{ACAD_REACTORS
330
11C91
102
}
330
11C91
100
AcDbXrecord
280
     1
290
     1
  0
XRECORD
  5
11C94
102
{ACAD_REACTORS
330
11C93
102
}
330
11C93
100
AcDbXrecord
280
     1
290
     1
  0
XRECORD
  5
11C96
102
{ACAD_REACTORS
330
11C95
102
}
330
11C95
100
AcDbXrecord
280
     1
290
     1
  0
XRECORD
  5
11C98
102
{ACAD_REACTORS
330
11C97
102
}
330
11C97
100
AcDbXrecord
280
     1
290
     1
  0
XRECORD
  5
11C9A
102
{ACAD_REACTORS
330
11C99
102
}
330
11C99
100
AcDbXrecord
280
     1
290
     1
  0
XRECORD
  5
11C9C
102
{ACAD_REACTORS
330
11C9B
102
}
330
11C9B
100
AcDbXrecord
280
     1
290
     1
  0
XRECORD
  5
11C9E
102
{ACAD_REACTORS
330
11C9D
102
}
330
11C9D
100
AcDbXrecord
280
     1
290
     1
  0
XRECORD
  5
11CA0
102
{ACAD_REACTORS
330
11C9F
102
}
330
11C9F
100
AcDbXrecord
280
     1
290
     1
  0
XRECORD
  5
11CA2
102
{ACAD_REACTORS
330
11CA1
102
}
330
11CA1
100
AcDbXrecord
280
     1
290
     1
  0
XRECORD
  5
7AD3
102
{ACAD_REACTORS
330
178
102
}
330
178
100
AcDbXrecord
280
     1
340
1E
  0
XRECORD
  5
7AD2
102
{ACAD_REACTORS
330
17A
102
}
330
17A
100
AcDbXrecord
280
     1
340
1A
  0
XRECORD
  5
11CB1
102
{ACAD_REACTORS
330
11CB0
102
}
330
11CB0
100
AcDbXrecord
280
     1
102
SHADEPLOT
 70
     0
  0
LAYOUT
  5
7AE4
102
{ACAD_XDICTIONARY
360
11CB2
102
}
102
{ACAD_REACTORS
330
19
102
}
330
19
100
AcDbPlotSettings
  1

  2
\\NEW_GMMCAD\Canon LBP3800 LIPSLX
  4
A4
  6
OLE1
 40
5.873749732971191
 41
5.873747825622557
 42
5.873748779296875
 43
5.873748779296875
 44
209.9733276367186
 45
296.9259948730469
 46
18.32
 47
24.39
 48
0.0
 49
0.0
140
0.0
141
0.0
142
1.0
143
7.5
 70
 11940
 72
     1
 73
     0
 74
     1
  7
monochrome.ctb
 75
     0
147
0.1333333333333333
148
270.8791922052382
149
870.0577471417583
100
AcDbLayout
  1
Model
 70
     1
 71
     0
 10
0.0
 20
0.0
 11
12.0
 21
9.0
 12
0.0
 22
0.0
 32
0.0
 14
0.0
 24
0.0
 34
0.0
 15
0.0
 25
0.0
 35
0.0
146
0.0
 13
0.0
 23
0.0
 33
0.0
 16
1.0
 26
0.0
 36
0.0
 17
0.0
 27
1.0
 37
0.0
 76
     0
330
1E
331
11C1C
  0
LAYOUT
  5
7AE5
102
{ACAD_XDICTIONARY
360
11CB4
102
}
102
{ACAD_REACTORS
330
19
102
}
330
19
100
AcDbPlotSettings
  1

  2
LBP5400
  4

  6

 40
0.0
 41
0.0
 42
0.0
 43
0.0
 44
0.0
 45
0.0
 46
0.0
 47
0.0
 48
0.0
 49
0.0
140
0.0
141
0.0
142
1.0
143
1.0
 70
   688
 72
     0
 73
     0
 74
     5
  7
monochrome.stb
 75
    16
147
1.0
148
0.0
149
0.0
100
AcDbLayout
  1
ﾚｲｱｳﾄ1
 70
     1
 71
     1
 10
-5.873748779296875
 20
-5.873749732971191
 11
204.0995788574218
 21
291.1369009017943
 12
0.0
 22
0.0
 32
0.0
 14
4.273573370203961
 24
5.205246163471485
 34
0.0
 15
194.6100952986349
 25
283.0697008572913
 35
0.0
146
0.0
 13
0.0
 23
0.0
 33
0.0
 16
1.0
 26
0.0
 36
0.0
 17
0.0
 27
1.0
 37
0.0
 76
     0
330
1A
331
9AC
  0
MATERIAL
  5
11C2A
102
{ACAD_XDICTIONARY
360
11C2B
102
}
102
{ACAD_REACTORS
330
11C21
102
}
330
11C21
100
AcDbMaterial
  1
ByBlock
 72
     0
 43
0.0208333333333333
 43
0.0
 43
0.0
 43
0.0
 43
0.0
 43
0.0208333333333333
 43
0.0
 43
0.0
 43
0.0
 43
0.0
 43
1.0
 43
0.0
 43
0.0
 43
0.0
 43
0.0
 43
1.0
 77
     0
 47
0.0208333333333333
 47
0.0
 47
0.0
 47
0.0
 47
0.0
 47
0.0208333333333333
 47
0.0
 47
0.0
 47
0.0
 47
0.0
 47
1.0
 47
0.0
 47
0.0
 47
0.0
 47
0.0
 47
1.0
171
     0
 49
0.0208333333333333
 49
0.0
 49
0.0
 49
0.0
 49
0.0
 49
0.0208333333333333
 49
0.0
 49
0.0
 49
0.0
 49
0.0
 49
1.0
 49
0.0
 49
0.0
 49
0.0
 49
0.0
 49
1.0
175
     0
142
0.0208333333333333
142
0.0
142
0.0
142
0.0
142
0.0
142
0.0208333333333333
142
0.0
142
0.0
142
0.0
142
0.0
142
1.0
142
0.0
142
0.0
142
0.0
142
0.0
142
1.0
179
     0
144
0.0208333333333333
144
0.0
144
0.0
144
0.0
144
0.0
144
0.0208333333333333
144
0.0
144
0.0
144
0.0
144
0.0
144
1.0
144
0.0
144
0.0
144
0.0
144
0.0
144
1.0
147
0.0208333333333333
147
0.0
147
0.0
147
0.0
147
0.0
147
0.0208333333333333
147
0.0
147
0.0
147
0.0
147
0.0
147
1.0
147
0.0
147
0.0
147
0.0
147
0.0
147
1.0
  0
MATERIAL
  5
11C22
102
{ACAD_XDICTIONARY
360
11C23
102
}
102
{ACAD_REACTORS
330
11C21
102
}
330
11C21
100
AcDbMaterial
  1
ByLayer
 72
     0
 43
0.0208333333333333
 43
0.0
 43
0.0
 43
0.0
 43
0.0
 43
0.0208333333333333
 43
0.0
 43
0.0
 43
0.0
 43
0.0
 43
1.0
 43
0.0
 43
0.0
 43
0.0
 43
0.0
 43
1.0
 77
     0
 47
0.0208333333333333
 47
0.0
 47
0.0
 47
0.0
 47
0.0
 47
0.0208333333333333
 47
0.0
 47
0.0
 47
0.0
 47
0.0
 47
1.0
 47
0.0
 47
0.0
 47
0.0
 47
0.0
 47
1.0
171
     0
 49
0.0208333333333333
 49
0.0
 49
0.0
 49
0.0
 49
0.0
 49
0.0208333333333333
 49
0.0
 49
0.0
 49
0.0
 49
0.0
 49
1.0
 49
0.0
 49
0.0
 49
0.0
 49
0.0
 49
1.0
175
     0
142
0.0208333333333333
142
0.0
142
0.0
142
0.0
142
0.0
142
0.0208333333333333
142
0.0
142
0.0
142
0.0
142
0.0
142
1.0
142
0.0
142
0.0
142
0.0
142
0.0
142
1.0
179
     0
144
0.0208333333333333
144
0.0
144
0.0
144
0.0
144
0.0
144
0.0208333333333333
144
0.0
144
0.0
144
0.0
144
0.0
144
1.0
144
0.0
144
0.0
144
0.0
144
0.0
144
1.0
147
0.0208333333333333
147
0.0
147
0.0
147
0.0
147
0.0
147
0.0208333333333333
147
0.0
147
0.0
147
0.0
147
0.0
147
1.0
147
0.0
147
0.0
147
0.0
147
0.0
147
1.0
  0
MATERIAL
  5
11C32
102
{ACAD_XDICTIONARY
360
11C33
102
}
102
{ACAD_REACTORS
330
11C21
102
}
330
11C21
100
AcDbMaterial
  1
Global
 72
     0
 43
0.0208333333333333
 43
0.0
 43
0.0
 43
0.0
 43
0.0
 43
0.0208333333333333
 43
0.0
 43
0.0
 43
0.0
 43
0.0
 43
1.0
 43
0.0
 43
0.0
 43
0.0
 43
0.0
 43
1.0
 77
     0
 47
0.0208333333333333
 47
0.0
 47
0.0
 47
0.0
 47
0.0
 47
0.0208333333333333
 47
0.0
 47
0.0
 47
0.0
 47
0.0
 47
1.0
 47
0.0
 47
0.0
 47
0.0
 47
0.0
 47
1.0
171
     0
 49
0.0208333333333333
 49
0.0
 49
0.0
 49
0.0
 49
0.0
 49
0.0208333333333333
 49
0.0
 49
0.0
 49
0.0
 49
0.0
 49
1.0
 49
0.0
 49
0.0
 49
0.0
 49
0.0
 49
1.0
175
     0
142
0.0208333333333333
142
0.0
142
0.0
142
0.0
142
0.0
142
0.0208333333333333
142
0.0
142
0.0
142
0.0
142
0.0
142
1.0
142
0.0
142
0.0
142
0.0
142
0.0
142
1.0
179
     0
144
0.0208333333333333
144
0.0
144
0.0
144
0.0
144
0.0
144
0.0208333333333333
144
0.0
144
0.0
144
0.0
144
0.0
144
1.0
144
0.0
144
0.0
144
0.0
144
0.0
144
1.0
147
0.0208333333333333
147
0.0
147
0.0
147
0.0
147
0.0
147
0.0208333333333333
147
0.0
147
0.0
147
0.0
147
0.0
147
1.0
147
0.0
147
0.0
147
0.0
147
0.0
147
1.0
  0
MLEADERSTYLE
  5
11C74
102
{ACAD_REACTORS
330
11C73
102
}
330
11C73
100
AcDbMLeaderStyle
170
     2
171
     1
172
     0
 90
        2
 40
0.0
 41
0.0
173
     1
 91
-1056964608
340
13
 92
       -2
290
     1
 42
0.09
291
     1
 43
0.36
  3
Standard
 44
0.18
300

342
11
174
     1
178
     6
175
     1
176
     0
 93
-1056964608
 45
0.18
292
     0
297
     0
 46
0.18
 94
-1056964608
 47
1.0
 49
1.0
140
1.0
293
     1
141
0.0
294
     1
177
     0
142
1.0
295
     0
296
     0
143
0.125
1001
ACAD_MLEADERVER
1070
     2
  0
MLINESTYLE
  5
17
102
{ACAD_REACTORS
330
16
102
}
330
16
100
AcDbMlineStyle
  2
STANDARD
 70
     0
  3

 62
   256
 51
90.0
 52
90.0
 71
     2
 49
0.5
 62
   256
  6
BYLAYER
 49
-0.5
 62
   256
  6
BYLAYER
  0
ACDBPLACEHOLDER
  5
F
102
{ACAD_REACTORS
330
E
102
}
330
E
  0
SCALE
  5
11C52
102
{ACAD_REACTORS
330
11C51
102
}
330
11C51
100
AcDbScale
 70
     0
300
1:1
140
1.0
141
1.0
290
     1
  0
SCALE
  5
11C53
102
{ACAD_REACTORS
330
11C51
102
}
330
11C51
100
AcDbScale
 70
     0
300
1:2
140
1.0
141
2.0
290
     0
  0
SCALE
  5
11C54
102
{ACAD_REACTORS
330
11C51
102
}
330
11C51
100
AcDbScale
 70
     0
300
1:4
140
1.0
141
4.0
290
     0
  0
SCALE
  5
11C55
102
{ACAD_REACTORS
330
11C51
102
}
330
11C51
100
AcDbScale
 70
     0
300
1:5
140
1.0
141
5.0
290
     0
  0
SCALE
  5
11C56
102
{ACAD_REACTORS
330
11C51
102
}
330
11C51
100
AcDbScale
 70
     0
300
1:8
140
1.0
141
8.0
290
     0
  0
SCALE
  5
11C57
102
{ACAD_REACTORS
330
11C51
102
}
330
11C51
100
AcDbScale
 70
     0
300
1:10
140
1.0
141
10.0
290
     0
  0
SCALE
  5
11C58
102
{ACAD_REACTORS
330
11C51
102
}
330
11C51
100
AcDbScale
 70
     0
300
1:16
140
1.0
141
16.0
290
     0
  0
SCALE
  5
11C59
102
{ACAD_REACTORS
330
11C51
102
}
330
11C51
100
AcDbScale
 70
     0
300
1:20
140
1.0
141
20.0
290
     0
  0
SCALE
  5
11C5A
102
{ACAD_REACTORS
330
11C51
102
}
330
11C51
100
AcDbScale
 70
     0
300
1:30
140
1.0
141
30.0
290
     0
  0
SCALE
  5
11C5B
102
{ACAD_REACTORS
330
11C51
102
}
330
11C51
100
AcDbScale
 70
     0
300
1:40
140
1.0
141
40.0
290
     0
  0
SCALE
  5
11C5C
102
{ACAD_REACTORS
330
11C51
102
}
330
11C51
100
AcDbScale
 70
     0
300
1:50
140
1.0
141
50.0
290
     0
  0
SCALE
  5
11C5D
102
{ACAD_REACTORS
330
11C51
102
}
330
11C51
100
AcDbScale
 70
     0
300
1:100
140
1.0
141
100.0
290
     0
  0
SCALE
  5
11C5E
102
{ACAD_REACTORS
330
11C51
102
}
330
11C51
100
AcDbScale
 70
     0
300
2:1
140
2.0
141
1.0
290
     0
  0
SCALE
  5
11C5F
102
{ACAD_REACTORS
330
11C51
102
}
330
11C51
100
AcDbScale
 70
     0
300
4:1
140
4.0
141
1.0
290
     0
  0
SCALE
  5
11C60
102
{ACAD_REACTORS
330
11C51
102
}
330
11C51
100
AcDbScale
 70
     0
300
8:1
140
8.0
141
1.0
290
     0
  0
SCALE
  5
11C61
102
{ACAD_REACTORS
330
11C51
102
}
330
11C51
100
AcDbScale
 70
     0
300
10:1
140
10.0
141
1.0
290
     0
  0
SCALE
  5
11C62
102
{ACAD_REACTORS
330
11C51
102
}
330
11C51
100
AcDbScale
 70
     0
300
100:1
140
100.0
141
1.0
290
     0
  0
SCALE
  5
11C63
102
{ACAD_REACTORS
330
11C51
102
}
330
11C51
100
AcDbScale
 70
     0
300
1/128" = 1'-0"
140
0.0078125
141
12.0
290
     0
  0
SCALE
  5
11C64
102
{ACAD_REACTORS
330
11C51
102
}
330
11C51
100
AcDbScale
 70
     0
300
1/64" = 1'-0"
140
0.015625
141
12.0
290
     0
  0
SCALE
  5
11C65
102
{ACAD_REACTORS
330
11C51
102
}
330
11C51
100
AcDbScale
 70
     0
300
1/32" = 1'-0"
140
0.03125
141
12.0
290
     0
  0
SCALE
  5
11C66
102
{ACAD_REACTORS
330
11C51
102
}
330
11C51
100
AcDbScale
 70
     0
300
1/16" = 1'-0"
140
0.0625
141
12.0
290
     0
  0
SCALE
  5
11C67
102
{ACAD_REACTORS
330
11C51
102
}
330
11C51
100
AcDbScale
 70
     0
300
3/32" = 1'-0"
140
0.09375
141
12.0
290
     0
  0
SCALE
  5
11C68
102
{ACAD_REACTORS
330
11C51
102
}
330
11C51
100
AcDbScale
 70
     0
300
1/8" = 1'-0"
140
0.125
141
12.0
290
     0
  0
SCALE
  5
11C69
102
{ACAD_REACTORS
330
11C51
102
}
330
11C51
100
AcDbScale
 70
     0
300
3/16" = 1'-0"
140
0.1875
141
12.0
290
     0
  0
SCALE
  5
11C6A
102
{ACAD_REACTORS
330
11C51
102
}
330
11C51
100
AcDbScale
 70
     0
300
1/4" = 1'-0"
140
0.25
141
12.0
290
     0
  0
SCALE
  5
11C6B
102
{ACAD_REACTORS
330
11C51
102
}
330
11C51
100
AcDbScale
 70
     0
300
3/8" = 1'-0"
140
0.375
141
12.0
290
     0
  0
SCALE
  5
11C6C
102
{ACAD_REACTORS
330
11C51
102
}
330
11C51
100
AcDbScale
 70
     0
300
1/2" = 1'-0"
140
0.5
141
12.0
290
     0
  0
SCALE
  5
11C6D
102
{ACAD_REACTORS
330
11C51
102
}
330
11C51
100
AcDbScale
 70
     0
300
3/4" = 1'-0"
140
0.75
141
12.0
290
     0
  0
SCALE
  5
11C6E
102
{ACAD_REACTORS
330
11C51
102
}
330
11C51
100
AcDbScale
 70
     0
300
1" = 1'-0"
140
1.0
141
12.0
290
     0
  0
SCALE
  5
11C6F
102
{ACAD_REACTORS
330
11C51
102
}
330
11C51
100
AcDbScale
 70
     0
300
1-1/2" = 1'-0"
140
1.5
141
12.0
290
     0
  0
SCALE
  5
11C70
102
{ACAD_REACTORS
330
11C51
102
}
330
11C51
100
AcDbScale
 70
     0
300
3" = 1'-0"
140
3.0
141
12.0
290
     0
  0
SCALE
  5
11C71
102
{ACAD_REACTORS
330
11C51
102
}
330
11C51
100
AcDbScale
 70
     0
300
6" = 1'-0"
140
6.0
141
12.0
290
     0
  0
SCALE
  5
11C72
102
{ACAD_REACTORS
330
11C51
102
}
330
11C51
100
AcDbScale
 70
     0
300
1'-0" = 1'-0"
140
12.0
141
12.0
290
     0
  0
TABLESTYLE
  5
11C50
102
{ACAD_XDICTIONARY
360
11CAC
102
}
102
{ACAD_REACTORS
330
11C4F
102
}
330
11C4F
100
AcDbTableStyle
  3
Standard
 70
     0
 71
     0
 40
0.06
 41
0.06
280
     0
281
     0
  7
STANDARD
140
0.18
170
     2
 62
     0
 63
     7
283
     0
274
    -2
284
     1
 64
     0
275
    -2
285
     1
 65
     0
276
    -2
286
     1
 66
     0
277
    -2
287
     1
 67
     0
278
    -2
288
     1
 68
     0
279
    -2
289
     1
 69
     0
  7
STANDARD
140
0.25
170
     5
 62
     0
 63
     7
283
     0
274
    -2
284
     1
 64
     0
275
    -2
285
     1
 65
     0
276
    -2
286
     1
 66
     0
277
    -2
287
     1
 67
     0
278
    -2
288
     1
 68
     0
279
    -2
289
     1
 69
     0
  7
STANDARD
140
0.18
170
     5
 62
     0
 63
     7
283
     0
274
    -2
284
     1
 64
     0
275
    -2
285
     1
 65
     0
276
    -2
286
     1
 66
     0
277
    -2
287
     1
 67
     0
278
    -2
288
     1
 68
     0
279
    -2
289
     1
 69
     0
  0
VISUALSTYLE
  5
11C40
102
{ACAD_XDICTIONARY
360
11CC3
102
}
102
{ACAD_REACTORS
330
11C3A
102
}
330
11C3A
100
AcDbVisualStyle
  2
2dWireframe
 70
     4
 71
     0
 72
     2
 73
     0
 90
        0
 40
-0.6
 41
-30.0
 62
     5
 63
     7
 74
     1
 91
        4
 64
     7
 65
   257
 75
     1
175
     1
 42
1.0
 92
        0
 66
   257
 43
1.0
 76
     1
 77
     6
 78
     2
 67
     7
 79
     5
170
     0
171
     0
290
     0
174
     0
 93
        1
 44
0.0
173
     0
291
     0
 45
0.0
1001
ACAD
1000
AcDbSavedByObjectVersion
1070
     0
  0
VISUALSTYLE
  5
11C42
102
{ACAD_XDICTIONARY
360
11CC7
102
}
102
{ACAD_REACTORS
330
11C3A
102
}
330
11C3A
100
AcDbVisualStyle
  2
3D Hidden
 70
     6
 71
     1
 72
     2
 73
     2
 90
        0
 40
-0.6
 41
-30.0
 62
     5
 63
     7
 74
     2
 91
        2
 64
     7
 65
   257
 75
     2
175
     1
 42
179.0
 92
        0
 66
   257
 43
1.0
 76
     1
 77
     6
 78
     2
 67
     7
 79
     3
170
     0
171
     0
290
     0
174
     0
 93
        1
 44
0.0
173
     0
291
     0
 45
0.0
1001
ACAD
1000
AcDbSavedByObjectVersion
1070
     0
  0
VISUALSTYLE
  5
11C41
102
{ACAD_XDICTIONARY
360
11CC5
102
}
102
{ACAD_REACTORS
330
11C3A
102
}
330
11C3A
100
AcDbVisualStyle
  2
3dWireframe
 70
     5
 71
     0
 72
     2
 73
     0
 90
        0
 40
-0.6
 41
-30.0
 62
     5
 63
     7
 74
     1
 91
        4
 64
     7
 65
   257
 75
     1
175
     1
 42
1.0
 92
        0
 66
   257
 43
1.0
 76
     1
 77
     6
 78
     2
 67
     7
 79
     5
170
     0
171
     0
290
     0
174
     0
 93
        1
 44
0.0
173
     0
291
     0
 45
0.0
1001
ACAD
1000
AcDbSavedByObjectVersion
1070
     0
  0
VISUALSTYLE
  5
11C3F
102
{ACAD_XDICTIONARY
360
11CC1
102
}
102
{ACAD_REACTORS
330
11C3A
102
}
330
11C3A
100
AcDbVisualStyle
  2
Basic
 70
     7
 71
     1
 72
     0
 73
     1
 90
        0
 40
-0.6
 41
-30.0
 62
     5
 63
     7
 74
     0
 91
        4
 64
     7
 65
   257
 75
     1
175
     1
 42
1.0
 92
        8
 66
     7
 43
1.0
 76
     1
 77
     6
 78
     2
 67
     7
 79
     5
170
     0
171
     0
290
     0
174
     0
 93
        1
 44
0.0
173
     0
291
     1
 45
0.0
1001
ACAD
1000
AcDbSavedByObjectVersion
1070
     0
  0
VISUALSTYLE
  5
11C46
102
{ACAD_XDICTIONARY
360
11CCF
102
}
102
{ACAD_REACTORS
330
11C3A
102
}
330
11C3A
100
AcDbVisualStyle
  2
Brighten
 70
    12
 71
     2
 72
     2
 73
     0
 90
        0
 40
-0.6
 41
-30.0
 62
     5
 63
     7
 74
     1
 91
        4
 64
     7
 65
   257
 75
     1
175
     1
 42
1.0
 92
        8
 66
     7
 43
1.0
 76
     1
 77
     6
 78
     2
 67
     7
 79
     5
170
     0
171
     0
290
     0
174
     0
 93
        1
 44
50.0
173
     0
291
     1
 45
0.0
1001
ACAD
1000
AcDbSavedByObjectVersion
1070
     0
  0
VISUALSTYLE
  5
11C4A
102
{ACAD_XDICTIONARY
360
11CD7
102
}
102
{ACAD_REACTORS
330
11C3A
102
}
330
11C3A
100
AcDbVisualStyle
  2
ColorChange
 70
    16
 71
     2
 72
     2
 73
     3
 90
        0
 40
-0.6
 41
-30.0
 62
     5
 63
     8
 74
     1
 91
        4
 64
     7
 65
   257
 75
     1
175
     1
 42
1.0
 92
        8
 66
     8
 43
1.0
 76
     1
 77
     6
 78
     2
 67
     7
 79
     5
170
     0
171
     0
290
     0
174
     0
 93
        1
 44
0.0
173
     0
291
     1
 45
0.0
1001
ACAD
1000
AcDbSavedByObjectVersion
1070
     0
  0
VISUALSTYLE
  5
11C43
102
{ACAD_XDICTIONARY
360
11CC9
102
}
102
{ACAD_REACTORS
330
11C3A
102
}
330
11C3A
100
AcDbVisualStyle
  2
Conceptual
 70
     9
 71
     3
 72
     2
 73
     0
 90
        0
 40
-0.6
 41
-30.0
 62
     5
 63
     7
 74
     2
 91
        2
 64
     7
 65
   257
 75
     1
175
     1
 42
179.0
 92
        8
 66
     7
 43
1.0
 76
     1
 77
     6
 78
     2
 67
     7
 79
     3
170
     0
171
     0
290
     0
174
     0
 93
        1
 44
0.0
173
     0
291
     0
 45
0.0
1001
ACAD
1000
AcDbSavedByObjectVersion
1070
     0
  0
VISUALSTYLE
  5
11C45
102
{ACAD_XDICTIONARY
360
11CCD
102
}
102
{ACAD_REACTORS
330
11C3A
102
}
330
11C3A
100
AcDbVisualStyle
  2
Dim
 70
    11
 71
     2
 72
     2
 73
     0
 90
        0
 40
-0.6
 41
-30.0
 62
     5
 63
     7
 74
     1
 91
        4
 64
     7
 65
   257
 75
     1
175
     1
 42
1.0
 92
        8
 66
     7
 43
1.0
 76
     1
 77
     6
 78
     2
 67
     7
 79
     5
170
     0
171
     0
290
     0
174
     0
 93
        1
 44
-50.0
173
     0
291
     1
 45
0.0
1001
ACAD
1000
AcDbSavedByObjectVersion
1070
     0
  0
VISUALSTYLE
  5
11C4D
102
{ACAD_XDICTIONARY
360
11CDD
102
}
102
{ACAD_REACTORS
330
11C3A
102
}
330
11C3A
100
AcDbVisualStyle
  2
EdgeColorOff
 70
    22
 71
     2
 72
     2
 73
     0
 90
        0
 40
-0.6
 41
-30.0
 62
     5
 63
     7
 74
     1
 91
        4
 64
     7
 65
   257
 75
     1
175
     1
 42
1.0
 92
        8
 66
     7
 43
1.0
 76
     1
 77
     6
 78
     2
 67
     7
 79
     5
170
     0
171
     0
290
     0
174
     0
 93
        1
 44
0.0
173
     0
291
     1
 45
0.0
1001
ACAD
1000
AcDbSavedByObjectVersion
1070
     0
  0
VISUALSTYLE
  5
11C49
102
{ACAD_XDICTIONARY
360
11CD5
102
}
102
{ACAD_REACTORS
330
11C3A
102
}
330
11C3A
100
AcDbVisualStyle
  2
Facepattern
 70
    15
 71
     2
 72
     2
 73
     0
 90
        0
 40
-0.6
 41
-30.0
 62
     5
 63
     7
 74
     1
 91
        4
 64
     7
 65
   257
 75
     1
175
     1
 42
1.0
 92
        8
 66
     7
 43
1.0
 76
     1
 77
     6
 78
     2
 67
     7
 79
     5
170
     0
171
     0
290
     0
174
     0
 93
        1
 44
0.0
173
     0
291
     1
 45
0.0
1001
ACAD
1000
AcDbSavedByObjectVersion
1070
     0
  0
VISUALSTYLE
  5
11C3B
102
{ACAD_XDICTIONARY
360
11CB9
102
}
102
{ACAD_REACTORS
330
11C3A
102
}
330
11C3A
100
AcDbVisualStyle
  2
Flat
 70
     0
 71
     2
 72
     1
 73
     1
 90
        2
 40
-0.6
 41
30.0
 62
     5
 63
     7
 74
     0
 91
        4
 64
     7
 65
   257
 75
     1
175
     1
 42
1.0
 92
        8
 66
     7
 43
1.0
 76
     1
 77
     6
 78
     2
 67
     7
 79
     5
170
     0
171
     0
290
     0
174
     0
 93
       13
 44
0.0
173
     0
291
     1
 45
0.0
1001
ACAD
1000
AcDbSavedByObjectVersion
1070
     0
  0
VISUALSTYLE
  5
11C3C
102
{ACAD_XDICTIONARY
360
11CBB
102
}
102
{ACAD_REACTORS
330
11C3A
102
}
330
11C3A
100
AcDbVisualStyle
  2
FlatWithEdges
 70
     1
 71
     2
 72
     1
 73
     1
 90
        2
 40
-0.6
 41
30.0
 62
     5
 63
     7
 74
     1
 91
        4
 64
     7
 65
   257
 75
     1
175
     1
 42
1.0
 92
        0
 66
   257
 43
1.0
 76
     1
 77
     6
 78
     2
 67
     7
 79
     5
170
     0
171
     0
290
     0
174
     0
 93
       13
 44
0.0
173
     0
291
     1
 45
0.0
1001
ACAD
1000
AcDbSavedByObjectVersion
1070
     0
  0
VISUALSTYLE
  5
11C3D
102
{ACAD_XDICTIONARY
360
11CBD
102
}
102
{ACAD_REACTORS
330
11C3A
102
}
330
11C3A
100
AcDbVisualStyle
  2
Gouraud
 70
     2
 71
     2
 72
     2
 73
     1
 90
        2
 40
-0.6
 41
30.0
 62
     5
 63
     7
 74
     0
 91
        4
 64
     7
 65
   257
 75
     1
175
     1
 42
1.0
 92
        0
 66
     7
 43
1.0
 76
     1
 77
     6
 78
     2
 67
     7
 79
     5
170
     0
171
     0
290
     0
174
     0
 93
       13
 44
0.0
173
     0
291
     1
 45
0.0
1001
ACAD
1000
AcDbSavedByObjectVersion
1070
     0
  0
VISUALSTYLE
  5
11C3E
102
{ACAD_XDICTIONARY
360
11CBF
102
}
102
{ACAD_REACTORS
330
11C3A
102
}
330
11C3A
100
AcDbVisualStyle
  2
GouraudWithEdges
 70
     3
 71
     2
 72
     2
 73
     1
 90
        2
 40
-0.6
 41
30.0
 62
     5
 63
     7
 74
     1
 91
        4
 64
     7
 65
   257
 75
     1
175
     1
 42
1.0
 92
        0
 66
   257
 43
1.0
 76
     1
 77
     6
 78
     2
 67
     7
 79
     5
170
     0
171
     0
290
     0
174
     0
 93
       13
 44
0.0
173
     0
291
     1
 45
0.0
1001
ACAD
1000
AcDbSavedByObjectVersion
1070
     0
  0
VISUALSTYLE
  5
11C4B
102
{ACAD_XDICTIONARY
360
11CD9
102
}
102
{ACAD_REACTORS
330
11C3A
102
}
330
11C3A
100
AcDbVisualStyle
  2
JitterOff
 70
    20
 71
     2
 72
     2
 73
     0
 90
        0
 40
-0.6
 41
-30.0
 62
     5
 63
     7
 74
     1
 91
        4
 64
     7
 65
   257
 75
     1
175
     1
 42
1.0
 92
       10
 66
     7
 43
1.0
 76
     1
 77
     6
 78
     2
 67
     7
 79
     5
170
     0
171
     0
290
     0
174
     0
 93
        1
 44
0.0
173
     0
291
     1
 45
0.0
1001
ACAD
1000
AcDbSavedByObjectVersion
1070
     0
  0
VISUALSTYLE
  5
11C48
102
{ACAD_XDICTIONARY
360
11CD3
102
}
102
{ACAD_REACTORS
330
11C3A
102
}
330
11C3A
100
AcDbVisualStyle
  2
Linepattern
 70
    14
 71
     2
 72
     2
 73
     0
 90
        0
 40
-0.6
 41
-30.0
 62
     5
 63
     7
 74
     1
 91
        4
 64
     7
 65
   257
 75
     7
175
     7
 42
1.0
 92
        8
 66
     7
 43
1.0
 76
     1
 77
     6
 78
     2
 67
     7
 79
     5
170
     0
171
     0
290
     0
174
     0
 93
        1
 44
0.0
173
     0
291
     1
 45
0.0
1001
ACAD
1000
AcDbSavedByObjectVersion
1070
     0
  0
VISUALSTYLE
  5
11C4C
102
{ACAD_XDICTIONARY
360
11CDB
102
}
102
{ACAD_REACTORS
330
11C3A
102
}
330
11C3A
100
AcDbVisualStyle
  2
OverhangOff
 70
    21
 71
     2
 72
     2
 73
     0
 90
        0
 40
-0.6
 41
-30.0
 62
     5
 63
     7
 74
     1
 91
        4
 64
     7
 65
   257
 75
     1
175
     1
 42
1.0
 92
        9
 66
     7
 43
1.0
 76
     1
 77
     6
 78
     2
 67
     7
 79
     5
170
     0
171
     0
290
     0
174
     0
 93
        1
 44
0.0
173
     0
291
     1
 45
0.0
1001
ACAD
1000
AcDbSavedByObjectVersion
1070
     0
  0
VISUALSTYLE
  5
11C44
102
{ACAD_XDICTIONARY
360
11CCB
102
}
102
{ACAD_REACTORS
330
11C3A
102
}
330
11C3A
100
AcDbVisualStyle
  2
Realistic
 70
     8
 71
     2
 72
     2
 73
     0
 90
        0
 40
-0.6
 41
-30.0
 62
     5
 63
     7
 74
     1
 91
        0
 64
     7
 65
   257
 75
     1
175
     1
 42
1.0
 92
        8
 66
     8
 43
1.0
 76
     1
 77
     6
 78
     2
 67
     7
 79
     5
170
     0
171
     0
290
     0
174
     0
 93
       13
 44
0.0
173
     0
291
     0
 45
0.0
1001
ACAD
1000
AcDbSavedByObjectVersion
1070
     0
  0
VISUALSTYLE
  5
11C47
102
{ACAD_XDICTIONARY
360
11CD1
102
}
102
{ACAD_REACTORS
330
11C3A
102
}
330
11C3A
100
AcDbVisualStyle
  2
Thicken
 70
    13
 71
     2
 72
     2
 73
     0
 90
        0
 40
-0.6
 41
-30.0
 62
     5
 63
     7
 74
     1
 91
        4
 64
     7
 65
   257
 75
     1
175
     1
 42
1.0
 92
       12
 66
     7
 43
1.0
 76
     1
 77
     6
 78
     2
 67
     7
 79
     5
170
     0
171
     0
290
     0
174
     0
 93
        1
 44
0.0
173
     0
291
     1
 45
0.0
1001
ACAD
1000
AcDbSavedByObjectVersion
1070
     0
  0
DICTIONARYVAR
  5
11CA9
102
{ACAD_REACTORS
330
69C9
102
}
330
69C9
100
DictionaryVariables
280
     0
  1
1:1
  0
DICTIONARYVAR
  5
11CA8
102
{ACAD_REACTORS
330
69C9
102
}
330
69C9
100
DictionaryVariables
280
     0
  1
STANDARD
  0
DICTIONARYVAR
  5
11CA7
102
{ACAD_REACTORS
330
69C9
102
}
330
69C9
100
DictionaryVariables
280
     0
  1
STANDARD
  0
DICTIONARYVAR
  5
69CA
102
{ACAD_REACTORS
330
69C9
102
}
330
69C9
100
DictionaryVariables
280
     0
  1
1
  0
DICTIONARYVAR
  5
11CAA
102
{ACAD_REACTORS
330
69C9
102
}
330
69C9
100
DictionaryVariables
280
     0
  1
0
  0
DICTIONARYVAR
  5
F572
102
{ACAD_REACTORS
330
69C9
102
}
330
69C9
100
DictionaryVariables
280
     0
  1
96
  0
DICTIONARYVAR
  5
11CAB
102
{ACAD_REACTORS
330
69C9
102
}
330
69C9
100
DictionaryVariables
280
     0
  1
2
  0
XRECORD
  5
11CA6
102
{ACAD_REACTORS
330
11CA4
102
}
330
11CA4
100
AcDbXrecord
280
     1
330
11834
330
11835
330
1182B
330
1182C
330
11822
330
11823
330
11819
330
1181A
330
11810
330
11811
330
118B6
330
118B7
330
118BF
330
118C0
330
11B4C
330
11B4D
330
11B17
330
11B18
330
11B79
330
11B7A
330
11B70
330
11B71
330
11B0E
330
11B0F
330
11B05
330
11B06
330
11B67
330
11B68
330
11B5E
330
11B5F
330
11B55
330
11B56
330
11B82
330
11B83
330
11AFC
330
11AFD
330
11B43
330
11B44
330
11B3A
330
11B3B
330
11B31
330
11B32
330
11946
330
11947
330
1175C
330
1175D
330
11765
330
11766
330
11AF3
330
11AF4
330
11B20
330
11B21
330
1174A
330
1174B
330
11741
330
11742
330
11738
330
11739
330
1172F
330
11730
330
11958
330
11959
330
1194F
330
11950
330
1193D
330
1193E
330
1170B
330
11B28
330
116FB
330
116FC
  0
DICTIONARY
  5
11CB2
330
7AE4
100
AcDbDictionary
280
     1
281
     1
  3
ACAD_XREC_ROUNDTRIP
360
11CB3
  0
DICTIONARY
  5
11CB4
330
7AE5
100
AcDbDictionary
280
     1
281
     1
  3
ACAD_XREC_ROUNDTRIP
360
11CB5
  0
DICTIONARY
  5
11C2B
330
11C2A
100
AcDbDictionary
280
     1
281
     1
  3
ACAD_XREC_ROUNDTRIP
360
11CB7
  3
BUMPTILE
360
11C2D
  3
DIFFUSETILE
360
11C2C
  3
OPACITYTILE
360
11C30
  3
REFLECTIONTILE
360
11C2F
  3
REFRACTIONTILE
360
11C31
  3
SPECULARTILE
360
11C2E
  0
DICTIONARY
  5
11C23
330
11C22
100
AcDbDictionary
280
     1
281
     1
  3
ACAD_XREC_ROUNDTRIP
360
11CB6
  3
BUMPTILE
360
11C25
  3
DIFFUSETILE
360
11C24
  3
OPACITYTILE
360
11C28
  3
REFLECTIONTILE
360
11C27
  3
REFRACTIONTILE
360
11C29
  3
SPECULARTILE
360
11C26
  0
DICTIONARY
  5
11C33
330
11C32
100
AcDbDictionary
280
     1
281
     1
  3
ACAD_XREC_ROUNDTRIP
360
11CB8
  3
BUMPTILE
360
11C35
  3
DIFFUSETILE
360
11C34
  3
OPACITYTILE
360
11C38
  3
REFLECTIONTILE
360
11C37
  3
REFRACTIONTILE
360
11C39
  3
SPECULARTILE
360
11C36
  0
DICTIONARY
  5
11CAC
330
11C50
100
AcDbDictionary
280
     1
281
     1
  3
ACAD_ROUNDTRIP_2008_TABLESTYLE_CELLSTYLEMAP
360
11CAD
  3
ACAD_XREC_ROUNDTRIP
360
11CDF
  0
DICTIONARY
  5
11CC3
330
11C40
100
AcDbDictionary
280
     1
281
     1
  3
ACAD_XREC_ROUNDTRIP
360
11CC4
  0
DICTIONARY
  5
11CC7
330
11C42
100
AcDbDictionary
280
     1
281
     1
  3
ACAD_XREC_ROUNDTRIP
360
11CC8
  0
DICTIONARY
  5
11CC5
330
11C41
100
AcDbDictionary
280
     1
281
     1
  3
ACAD_XREC_ROUNDTRIP
360
11CC6
  0
DICTIONARY
  5
11CC1
330
11C3F
100
AcDbDictionary
280
     1
281
     1
  3
ACAD_XREC_ROUNDTRIP
360
11CC2
  0
DICTIONARY
  5
11CCF
330
11C46
100
AcDbDictionary
280
     1
281
     1
  3
ACAD_XREC_ROUNDTRIP
360
11CD0
  0
DICTIONARY
  5
11CD7
330
11C4A
100
AcDbDictionary
280
     1
281
     1
  3
ACAD_XREC_ROUNDTRIP
360
11CD8
  0
DICTIONARY
  5
11CC9
330
11C43
100
AcDbDictionary
280
     1
281
     1
  3
ACAD_XREC_ROUNDTRIP
360
11CCA
  0
DICTIONARY
  5
11CCD
330
11C45
100
AcDbDictionary
280
     1
281
     1
  3
ACAD_XREC_ROUNDTRIP
360
11CCE
  0
DICTIONARY
  5
11CDD
330
11C4D
100
AcDbDictionary
280
     1
281
     1
  3
ACAD_XREC_ROUNDTRIP
360
11CDE
  0
DICTIONARY
  5
11CD5
330
11C49
100
AcDbDictionary
280
     1
281
     1
  3
ACAD_XREC_ROUNDTRIP
360
11CD6
  0
DICTIONARY
  5
11CB9
330
11C3B
100
AcDbDictionary
280
     1
281
     1
  3
ACAD_XREC_ROUNDTRIP
360
11CBA
  0
DICTIONARY
  5
11CBB
330
11C3C
100
AcDbDictionary
280
     1
281
     1
  3
ACAD_XREC_ROUNDTRIP
360
11CBC
  0
DICTIONARY
  5
11CBD
330
11C3D
100
AcDbDictionary
280
     1
281
     1
  3
ACAD_XREC_ROUNDTRIP
360
11CBE
  0
DICTIONARY
  5
11CBF
330
11C3E
100
AcDbDictionary
280
     1
281
     1
  3
ACAD_XREC_ROUNDTRIP
360
11CC0
  0
DICTIONARY
  5
11CD9
330
11C4B
100
AcDbDictionary
280
     1
281
     1
  3
ACAD_XREC_ROUNDTRIP
360
11CDA
  0
DICTIONARY
  5
11CD3
330
11C48
100
AcDbDictionary
280
     1
281
     1
  3
ACAD_XREC_ROUNDTRIP
360
11CD4
  0
DICTIONARY
  5
11CDB
330
11C4C
100
AcDbDictionary
280
     1
281
     1
  3
ACAD_XREC_ROUNDTRIP
360
11CDC
  0
DICTIONARY
  5
11CCB
330
11C44
100
AcDbDictionary
280
     1
281
     1
  3
ACAD_XREC_ROUNDTRIP
360
11CCC
  0
DICTIONARY
  5
11CD1
330
11C47
100
AcDbDictionary
280
     1
281
     1
  3
ACAD_XREC_ROUNDTRIP
360
11CD2
  0
XRECORD
  5
11CB3
102
{ACAD_REACTORS
330
11CB2
102
}
330
11CB2
100
AcDbXrecord
280
     1
102
SHADEPLOT
 70
     0
102
SHADEPLOTRESLEVEL
 70
     2
102
SHADEPLOTCUSTOMDPI
 70
   300
  0
XRECORD
  5
11CB5
102
{ACAD_REACTORS
330
11CB4
102
}
330
11CB4
100
AcDbXrecord
280
     1
102
SHADEPLOT
 70
     0
102
SHADEPLOTRESLEVEL
 70
     2
102
SHADEPLOTCUSTOMDPI
 70
   300
  0
XRECORD
  5
11CB7
102
{ACAD_REACTORS
330
11C2B
102
}
330
11C2B
100
AcDbXrecord
280
     1
102
MATERIAL
148
0.0
149
0.0
149
0.0
 93
        0
 94
      127
282
     0
 72
     0
 77
     0
171
     0
175
     0
179
     0
273
     0
  0
XRECORD
  5
11C2D
102
{ACAD_REACTORS
330
11C2B
102
}
330
11C2B
100
AcDbXrecord
280
     1
270
     1
271
     1
  0
XRECORD
  5
11C2C
102
{ACAD_REACTORS
330
11C2B
102
}
330
11C2B
100
AcDbXrecord
280
     1
270
     1
271
     1
  0
XRECORD
  5
11C30
102
{ACAD_REACTORS
330
11C2B
102
}
330
11C2B
100
AcDbXrecord
280
     1
270
     1
271
     1
  0
XRECORD
  5
11C2F
102
{ACAD_REACTORS
330
11C2B
102
}
330
11C2B
100
AcDbXrecord
280
     1
270
     1
271
     1
  0
XRECORD
  5
11C31
102
{ACAD_REACTORS
330
11C2B
102
}
330
11C2B
100
AcDbXrecord
280
     1
270
     1
271
     1
  0
XRECORD
  5
11C2E
102
{ACAD_REACTORS
330
11C2B
102
}
330
11C2B
100
AcDbXrecord
280
     1
270
     1
271
     1
  0
XRECORD
  5
11CB6
102
{ACAD_REACTORS
330
11C23
102
}
330
11C23
100
AcDbXrecord
280
     1
102
MATERIAL
148
0.0
149
0.0
149
0.0
 93
        0
 94
      127
282
     0
 72
     0
 77
     0
171
     0
175
     0
179
     0
273
     0
  0
XRECORD
  5
11C25
102
{ACAD_REACTORS
330
11C23
102
}
330
11C23
100
AcDbXrecord
280
     1
270
     1
271
     1
  0
XRECORD
  5
11C24
102
{ACAD_REACTORS
330
11C23
102
}
330
11C23
100
AcDbXrecord
280
     1
270
     1
271
     1
  0
XRECORD
  5
11C28
102
{ACAD_REACTORS
330
11C23
102
}
330
11C23
100
AcDbXrecord
280
     1
270
     1
271
     1
  0
XRECORD
  5
11C27
102
{ACAD_REACTORS
330
11C23
102
}
330
11C23
100
AcDbXrecord
280
     1
270
     1
271
     1
  0
XRECORD
  5
11C29
102
{ACAD_REACTORS
330
11C23
102
}
330
11C23
100
AcDbXrecord
280
     1
270
     1
271
     1
  0
XRECORD
  5
11C26
102
{ACAD_REACTORS
330
11C23
102
}
330
11C23
100
AcDbXrecord
280
     1
270
     1
271
     1
  0
XRECORD
  5
11CB8
102
{ACAD_REACTORS
330
11C33
102
}
330
11C33
100
AcDbXrecord
280
     1
102
MATERIAL
148
0.0
149
0.0
149
0.0
 93
        0
 94
      127
282
     0
 72
     0
 77
     0
171
     0
175
     0
179
     0
273
     0
  0
XRECORD
  5
11C35
102
{ACAD_REACTORS
330
11C33
102
}
330
11C33
100
AcDbXrecord
280
     1
270
     1
271
     1
  0
XRECORD
  5
11C34
102
{ACAD_REACTORS
330
11C33
102
}
330
11C33
100
AcDbXrecord
280
     1
270
     1
271
     1
  0
XRECORD
  5
11C38
102
{ACAD_REACTORS
330
11C33
102
}
330
11C33
100
AcDbXrecord
280
     1
270
     1
271
     1
  0
XRECORD
  5
11C37
102
{ACAD_REACTORS
330
11C33
102
}
330
11C33
100
AcDbXrecord
280
     1
270
     1
271
     1
  0
XRECORD
  5
11C39
102
{ACAD_REACTORS
330
11C33
102
}
330
11C33
100
AcDbXrecord
280
     1
270
     1
271
     1
  0
XRECORD
  5
11C36
102
{ACAD_REACTORS
330
11C33
102
}
330
11C33
100
AcDbXrecord
280
     1
270
     1
271
     1
  0
CELLSTYLEMAP
  5
11CAD
102
{ACAD_REACTORS
330
11CAC
102
}
330
11CAC
100
AcDbCellStyleMap
 90
        3
300
CELLSTYLE
  1
TABLEFORMAT_BEGIN
 90
        5
170
     1
 91
        0
 92
    32768
 62
   257
 93
        1
300
CONTENTFORMAT
  1
CONTENTFORMAT_BEGIN
 90
        0
 91
        0
 92
      512
 93
        0
300

 40
0.0
140
1.0
 94
        5
 62
     0
340
11
144
0.25
309
CONTENTFORMAT_END
171
     0
 94
        0
309
TABLEFORMAT_END
  1
CELLSTYLE_BEGIN
 90
        1
 91
        1
300
_TITLE
309
CELLSTYLE_END
300
CELLSTYLE
  1
TABLEFORMAT_BEGIN
 90
        5
170
     1
 91
        0
 92
        0
 62
   257
 93
        1
300
CONTENTFORMAT
  1
CONTENTFORMAT_BEGIN
 90
        0
 91
        0
 92
      512
 93
        0
300

 40
0.0
140
1.0
 94
        5
 62
     0
340
11
144
0.18
309
CONTENTFORMAT_END
171
     0
 94
        0
309
TABLEFORMAT_END
  1
CELLSTYLE_BEGIN
 90
        2
 91
        1
300
_HEADER
309
CELLSTYLE_END
300
CELLSTYLE
  1
TABLEFORMAT_BEGIN
 90
        5
170
     1
 91
        0
 92
        0
 62
   257
 93
        1
300
CONTENTFORMAT
  1
CONTENTFORMAT_BEGIN
 90
        0
 91
        0
 92
      512
 93
        0
300

 40
0.0
140
1.0
 94
        2
 62
     0
340
11
144
0.18
309
CONTENTFORMAT_END
171
     0
 94
        0
309
TABLEFORMAT_END
  1
CELLSTYLE_BEGIN
 90
        3
 91
        2
300
_DATA
309
CELLSTYLE_END
  0
XRECORD
  5
11CDF
102
{ACAD_REACTORS
330
11CAC
102
}
330
11CAC
100
AcDbXrecord
280
     1
102
ACAD_ROUNDTRIP_PRE2007_TABLESTYLE
 90
      512
 91
        0
  1

 92
      512
 93
        0
  2

 94
      512
 95
        0
  3

  0
XRECORD
  5
11CC4
102
{ACAD_REACTORS
330
11CC3
102
}
330
11CC3
100
AcDbXrecord
280
     1
102
RTVSPropertyOp0
 70
     1
102
RTVSPropertyOp1
 70
     1
102
RTVSPropertyOp2
 70
     1
102
RTVSPropertyOp3
 70
     1
102
RTVSPropertyOp4
 70
     1
102
RTVSPropertyOp5
 70
     1
102
RTVSPropertyOp6
 70
     1
102
RTVSPropertyOp7
 70
     1
102
RTVSPropertyOp8
 70
     1
102
RTVSPropertyOp9
 70
     1
102
RTVSPropertyOp10
 70
     1
102
RTVSPropertyOp11
 70
     1
102
RTVSPropertyOp12
 70
     1
102
RTVSPropertyOp13
 70
     1
102
RTVSPropertyOp14
 70
     1
102
RTVSPropertyOp15
 70
     1
102
RTVSPropertyOp16
 70
     1
102
RTVSPropertyOp17
 70
     1
102
RTVSPropertyOp18
 70
     1
102
RTVSPropertyOp19
 70
     1
102
RTVSPropertyOp20
 70
     1
102
RTVSPropertyOp21
 70
     1
102
RTVSPropertyOp22
 70
     1
102
RTVSPropertyOp23
 70
     1
102
RTVSPropertyOp24
 70
     1
102
RTVSPropertyOp25
 70
     1
102
RTVSPropertyOp26
 70
     1
102
RTVSPropertyOp27
 70
     1
  0
XRECORD
  5
11CC8
102
{ACAD_REACTORS
330
11CC7
102
}
330
11CC7
100
AcDbXrecord
280
     1
102
RTVSPropertyOp0
 70
     1
102
RTVSPropertyOp1
 70
     1
102
RTVSPropertyOp2
 70
     1
102
RTVSPropertyOp3
 70
     1
102
RTVSPropertyOp4
 70
     1
102
RTVSPropertyOp5
 70
     1
102
RTVSPropertyOp6
 70
     1
102
RTVSPropertyOp7
 70
     1
102
RTVSPropertyOp8
 70
     1
102
RTVSPropertyOp9
 70
     1
102
RTVSPropertyOp10
 70
     1
102
RTVSPropertyOp11
 70
     1
102
RTVSPropertyOp12
 70
     1
102
RTVSPropertyOp13
 70
     1
102
RTVSPropertyOp14
 70
     1
102
RTVSPropertyOp15
 70
     1
102
RTVSPropertyOp16
 70
     1
102
RTVSPropertyOp17
 70
     1
102
RTVSPropertyOp18
 70
     1
102
RTVSPropertyOp19
 70
     1
102
RTVSPropertyOp20
 70
     1
102
RTVSPropertyOp21
 70
     1
102
RTVSPropertyOp22
 70
     1
102
RTVSPropertyOp23
 70
     1
102
RTVSPropertyOp24
 70
     1
102
RTVSPropertyOp25
 70
     1
102
RTVSPropertyOp26
 70
     1
102
RTVSPropertyOp27
 70
     1
  0
XRECORD
  5
11CC6
102
{ACAD_REACTORS
330
11CC5
102
}
330
11CC5
100
AcDbXrecord
280
     1
102
RTVSPropertyOp0
 70
     1
102
RTVSPropertyOp1
 70
     1
102
RTVSPropertyOp2
 70
     1
102
RTVSPropertyOp3
 70
     1
102
RTVSPropertyOp4
 70
     1
102
RTVSPropertyOp5
 70
     1
102
RTVSPropertyOp6
 70
     1
102
RTVSPropertyOp7
 70
     1
102
RTVSPropertyOp8
 70
     1
102
RTVSPropertyOp9
 70
     1
102
RTVSPropertyOp10
 70
     1
102
RTVSPropertyOp11
 70
     1
102
RTVSPropertyOp12
 70
     1
102
RTVSPropertyOp13
 70
     1
102
RTVSPropertyOp14
 70
     1
102
RTVSPropertyOp15
 70
     1
102
RTVSPropertyOp16
 70
     1
102
RTVSPropertyOp17
 70
     1
102
RTVSPropertyOp18
 70
     1
102
RTVSPropertyOp19
 70
     1
102
RTVSPropertyOp20
 70
     1
102
RTVSPropertyOp21
 70
     1
102
RTVSPropertyOp22
 70
     1
102
RTVSPropertyOp23
 70
     1
102
RTVSPropertyOp24
 70
     1
102
RTVSPropertyOp25
 70
     1
102
RTVSPropertyOp26
 70
     1
102
RTVSPropertyOp27
 70
     1
  0
XRECORD
  5
11CC2
102
{ACAD_REACTORS
330
11CC1
102
}
330
11CC1
100
AcDbXrecord
280
     1
102
RTVSPropertyOp0
 70
     1
102
RTVSPropertyOp1
 70
     1
102
RTVSPropertyOp2
 70
     1
102
RTVSPropertyOp3
 70
     1
102
RTVSPropertyOp4
 70
     1
102
RTVSPropertyOp5
 70
     1
102
RTVSPropertyOp6
 70
     1
102
RTVSPropertyOp7
 70
     1
102
RTVSPropertyOp8
 70
     1
102
RTVSPropertyOp9
 70
     1
102
RTVSPropertyOp10
 70
     1
102
RTVSPropertyOp11
 70
     1
102
RTVSPropertyOp12
 70
     1
102
RTVSPropertyOp13
 70
     1
102
RTVSPropertyOp14
 70
     1
102
RTVSPropertyOp15
 70
     1
102
RTVSPropertyOp16
 70
     1
102
RTVSPropertyOp17
 70
     1
102
RTVSPropertyOp18
 70
     1
102
RTVSPropertyOp19
 70
     1
102
RTVSPropertyOp20
 70
     1
102
RTVSPropertyOp21
 70
     1
102
RTVSPropertyOp22
 70
     1
102
RTVSPropertyOp23
 70
     1
102
RTVSPropertyOp24
 70
     1
102
RTVSPropertyOp25
 70
     1
102
RTVSPropertyOp26
 70
     1
102
RTVSPropertyOp27
 70
     1
  0
XRECORD
  5
11CD0
102
{ACAD_REACTORS
330
11CCF
102
}
330
11CCF
100
AcDbXrecord
280
     1
102
RTVSPropertyOp0
 70
     1
102
RTVSPropertyOp1
 70
     1
102
RTVSPropertyOp2
 70
     1
102
RTVSPropertyOp3
 70
     1
102
RTVSPropertyOp4
 70
     1
102
RTVSPropertyOp5
 70
     1
102
RTVSPropertyOp6
 70
     1
102
RTVSPropertyOp7
 70
     1
102
RTVSPropertyOp8
 70
     1
102
RTVSPropertyOp9
 70
     1
102
RTVSPropertyOp10
 70
     1
102
RTVSPropertyOp11
 70
     1
102
RTVSPropertyOp12
 70
     1
102
RTVSPropertyOp13
 70
     1
102
RTVSPropertyOp14
 70
     1
102
RTVSPropertyOp15
 70
     1
102
RTVSPropertyOp16
 70
     1
102
RTVSPropertyOp17
 70
     1
102
RTVSPropertyOp18
 70
     1
102
RTVSPropertyOp19
 70
     1
102
RTVSPropertyOp20
 70
     1
102
RTVSPropertyOp21
 70
     1
102
RTVSPropertyOp22
 70
     1
102
RTVSPropertyOp23
 70
     1
102
RTVSPropertyOp24
 70
     1
102
RTVSPropertyOp25
 70
     1
102
RTVSPropertyOp26
 70
     1
102
RTVSPropertyOp27
 70
     1
  0
XRECORD
  5
11CD8
102
{ACAD_REACTORS
330
11CD7
102
}
330
11CD7
100
AcDbXrecord
280
     1
102
RTVSPropertyOp0
 70
     1
102
RTVSPropertyOp1
 70
     1
102
RTVSPropertyOp2
 70
     1
102
RTVSPropertyOp3
 70
     1
102
RTVSPropertyOp4
 70
     1
102
RTVSPropertyOp5
 70
     1
102
RTVSPropertyOp6
 70
     1
102
RTVSPropertyOp7
 70
     1
102
RTVSPropertyOp8
 70
     1
102
RTVSPropertyOp9
 70
     1
102
RTVSPropertyOp10
 70
     1
102
RTVSPropertyOp11
 70
     1
102
RTVSPropertyOp12
 70
     1
102
RTVSPropertyOp13
 70
     1
102
RTVSPropertyOp14
 70
     1
102
RTVSPropertyOp15
 70
     1
102
RTVSPropertyOp16
 70
     1
102
RTVSPropertyOp17
 70
     1
102
RTVSPropertyOp18
 70
     1
102
RTVSPropertyOp19
 70
     1
102
RTVSPropertyOp20
 70
     1
102
RTVSPropertyOp21
 70
     1
102
RTVSPropertyOp22
 70
     1
102
RTVSPropertyOp23
 70
     1
102
RTVSPropertyOp24
 70
     1
102
RTVSPropertyOp25
 70
     1
102
RTVSPropertyOp26
 70
     1
102
RTVSPropertyOp27
 70
     1
  0
XRECORD
  5
11CCA
102
{ACAD_REACTORS
330
11CC9
102
}
330
11CC9
100
AcDbXrecord
280
     1
102
RTVSPropertyOp0
 70
     1
102
RTVSPropertyOp1
 70
     1
102
RTVSPropertyOp2
 70
     1
102
RTVSPropertyOp3
 70
     1
102
RTVSPropertyOp4
 70
     1
102
RTVSPropertyOp5
 70
     1
102
RTVSPropertyOp6
 70
     1
102
RTVSPropertyOp7
 70
     1
102
RTVSPropertyOp8
 70
     1
102
RTVSPropertyOp9
 70
     1
102
RTVSPropertyOp10
 70
     1
102
RTVSPropertyOp11
 70
     1
102
RTVSPropertyOp12
 70
     1
102
RTVSPropertyOp13
 70
     1
102
RTVSPropertyOp14
 70
     1
102
RTVSPropertyOp15
 70
     1
102
RTVSPropertyOp16
 70
     1
102
RTVSPropertyOp17
 70
     1
102
RTVSPropertyOp18
 70
     1
102
RTVSPropertyOp19
 70
     1
102
RTVSPropertyOp20
 70
     1
102
RTVSPropertyOp21
 70
     1
102
RTVSPropertyOp22
 70
     1
102
RTVSPropertyOp23
 70
     1
102
RTVSPropertyOp24
 70
     1
102
RTVSPropertyOp25
 70
     1
102
RTVSPropertyOp26
 70
     1
102
RTVSPropertyOp27
 70
     1
  0
XRECORD
  5
11CCE
102
{ACAD_REACTORS
330
11CCD
102
}
330
11CCD
100
AcDbXrecord
280
     1
102
RTVSPropertyOp0
 70
     1
102
RTVSPropertyOp1
 70
     1
102
RTVSPropertyOp2
 70
     1
102
RTVSPropertyOp3
 70
     1
102
RTVSPropertyOp4
 70
     1
102
RTVSPropertyOp5
 70
     1
102
RTVSPropertyOp6
 70
     1
102
RTVSPropertyOp7
 70
     1
102
RTVSPropertyOp8
 70
     1
102
RTVSPropertyOp9
 70
     1
102
RTVSPropertyOp10
 70
     1
102
RTVSPropertyOp11
 70
     1
102
RTVSPropertyOp12
 70
     1
102
RTVSPropertyOp13
 70
     1
102
RTVSPropertyOp14
 70
     1
102
RTVSPropertyOp15
 70
     1
102
RTVSPropertyOp16
 70
     1
102
RTVSPropertyOp17
 70
     1
102
RTVSPropertyOp18
 70
     1
102
RTVSPropertyOp19
 70
     1
102
RTVSPropertyOp20
 70
     1
102
RTVSPropertyOp21
 70
     1
102
RTVSPropertyOp22
 70
     1
102
RTVSPropertyOp23
 70
     1
102
RTVSPropertyOp24
 70
     1
102
RTVSPropertyOp25
 70
     1
102
RTVSPropertyOp26
 70
     1
102
RTVSPropertyOp27
 70
     1
  0
XRECORD
  5
11CDE
102
{ACAD_REACTORS
330
11CDD
102
}
330
11CDD
100
AcDbXrecord
280
     1
102
RTVSPropertyOp0
 70
     0
102
RTVSPropertyOp1
 70
     0
102
RTVSPropertyOp2
 70
     0
102
RTVSPropertyOp3
 70
     0
102
RTVSPropertyOp4
 70
     0
102
RTVSPropertyOp5
 70
     0
102
RTVSPropertyOp6
 70
     0
102
RTVSPropertyOp7
 70
     0
102
RTVSPropertyOp8
 70
     0
102
RTVSPropertyOp9
 70
     0
102
RTVSPropertyOp10
 70
     0
102
RTVSPropertyOp11
 70
     0
102
RTVSPropertyOp12
 70
     0
102
RTVSPropertyOp13
 70
     0
102
RTVSPropertyOp14
 70
     2
102
RTVSPropertyOp15
 70
     0
102
RTVSPropertyOp16
 70
     0
102
RTVSPropertyOp17
 70
     0
102
RTVSPropertyOp18
 70
     0
102
RTVSPropertyOp19
 70
     0
102
RTVSPropertyOp20
 70
     0
102
RTVSPropertyOp21
 70
     0
102
RTVSPropertyOp22
 70
     0
102
RTVSPropertyOp23
 70
     0
102
RTVSPropertyOp24
 70
     0
102
RTVSPropertyOp25
 70
     0
102
RTVSPropertyOp26
 70
     0
102
RTVSPropertyOp27
 70
     0
  0
XRECORD
  5
11CD6
102
{ACAD_REACTORS
330
11CD5
102
}
330
11CD5
100
AcDbXrecord
280
     1
102
RTVSPropertyOp0
 70
     1
102
RTVSPropertyOp1
 70
     1
102
RTVSPropertyOp2
 70
     1
102
RTVSPropertyOp3
 70
     1
102
RTVSPropertyOp4
 70
     1
102
RTVSPropertyOp5
 70
     1
102
RTVSPropertyOp6
 70
     1
102
RTVSPropertyOp7
 70
     1
102
RTVSPropertyOp8
 70
     1
102
RTVSPropertyOp9
 70
     1
102
RTVSPropertyOp10
 70
     1
102
RTVSPropertyOp11
 70
     1
102
RTVSPropertyOp12
 70
     1
102
RTVSPropertyOp13
 70
     1
102
RTVSPropertyOp14
 70
     1
102
RTVSPropertyOp15
 70
     1
102
RTVSPropertyOp16
 70
     1
102
RTVSPropertyOp17
 70
     1
102
RTVSPropertyOp18
 70
     1
102
RTVSPropertyOp19
 70
     1
102
RTVSPropertyOp20
 70
     1
102
RTVSPropertyOp21
 70
     1
102
RTVSPropertyOp22
 70
     1
102
RTVSPropertyOp23
 70
     1
102
RTVSPropertyOp24
 70
     1
102
RTVSPropertyOp25
 70
     1
102
RTVSPropertyOp26
 70
     1
102
RTVSPropertyOp27
 70
     1
  0
XRECORD
  5
11CBA
102
{ACAD_REACTORS
330
11CB9
102
}
330
11CB9
100
AcDbXrecord
280
     1
102
RTVSPropertyOp0
 70
     1
102
RTVSPropertyOp1
 70
     1
102
RTVSPropertyOp2
 70
     1
102
RTVSPropertyOp3
 70
     1
102
RTVSPropertyOp4
 70
     1
102
RTVSPropertyOp5
 70
     1
102
RTVSPropertyOp6
 70
     1
102
RTVSPropertyOp7
 70
     1
102
RTVSPropertyOp8
 70
     1
102
RTVSPropertyOp9
 70
     1
102
RTVSPropertyOp10
 70
     1
102
RTVSPropertyOp11
 70
     1
102
RTVSPropertyOp12
 70
     1
102
RTVSPropertyOp13
 70
     1
102
RTVSPropertyOp14
 70
     1
102
RTVSPropertyOp15
 70
     1
102
RTVSPropertyOp16
 70
     1
102
RTVSPropertyOp17
 70
     1
102
RTVSPropertyOp18
 70
     1
102
RTVSPropertyOp19
 70
     1
102
RTVSPropertyOp20
 70
     1
102
RTVSPropertyOp21
 70
     1
102
RTVSPropertyOp22
 70
     1
102
RTVSPropertyOp23
 70
     1
102
RTVSPropertyOp24
 70
     1
102
RTVSPropertyOp25
 70
     1
102
RTVSPropertyOp26
 70
     1
102
RTVSPropertyOp27
 70
     1
  0
XRECORD
  5
11CBC
102
{ACAD_REACTORS
330
11CBB
102
}
330
11CBB
100
AcDbXrecord
280
     1
102
RTVSPropertyOp0
 70
     1
102
RTVSPropertyOp1
 70
     1
102
RTVSPropertyOp2
 70
     1
102
RTVSPropertyOp3
 70
     1
102
RTVSPropertyOp4
 70
     1
102
RTVSPropertyOp5
 70
     1
102
RTVSPropertyOp6
 70
     1
102
RTVSPropertyOp7
 70
     1
102
RTVSPropertyOp8
 70
     1
102
RTVSPropertyOp9
 70
     1
102
RTVSPropertyOp10
 70
     1
102
RTVSPropertyOp11
 70
     1
102
RTVSPropertyOp12
 70
     1
102
RTVSPropertyOp13
 70
     1
102
RTVSPropertyOp14
 70
     1
102
RTVSPropertyOp15
 70
     1
102
RTVSPropertyOp16
 70
     1
102
RTVSPropertyOp17
 70
     1
102
RTVSPropertyOp18
 70
     1
102
RTVSPropertyOp19
 70
     1
102
RTVSPropertyOp20
 70
     1
102
RTVSPropertyOp21
 70
     1
102
RTVSPropertyOp22
 70
     1
102
RTVSPropertyOp23
 70
     1
102
RTVSPropertyOp24
 70
     1
102
RTVSPropertyOp25
 70
     1
102
RTVSPropertyOp26
 70
     1
102
RTVSPropertyOp27
 70
     1
  0
XRECORD
  5
11CBE
102
{ACAD_REACTORS
330
11CBD
102
}
330
11CBD
100
AcDbXrecord
280
     1
102
RTVSPropertyOp0
 70
     1
102
RTVSPropertyOp1
 70
     1
102
RTVSPropertyOp2
 70
     1
102
RTVSPropertyOp3
 70
     1
102
RTVSPropertyOp4
 70
     1
102
RTVSPropertyOp5
 70
     1
102
RTVSPropertyOp6
 70
     1
102
RTVSPropertyOp7
 70
     1
102
RTVSPropertyOp8
 70
     1
102
RTVSPropertyOp9
 70
     1
102
RTVSPropertyOp10
 70
     1
102
RTVSPropertyOp11
 70
     1
102
RTVSPropertyOp12
 70
     1
102
RTVSPropertyOp13
 70
     1
102
RTVSPropertyOp14
 70
     1
102
RTVSPropertyOp15
 70
     1
102
RTVSPropertyOp16
 70
     1
102
RTVSPropertyOp17
 70
     1
102
RTVSPropertyOp18
 70
     1
102
RTVSPropertyOp19
 70
     1
102
RTVSPropertyOp20
 70
     1
102
RTVSPropertyOp21
 70
     1
102
RTVSPropertyOp22
 70
     1
102
RTVSPropertyOp23
 70
     1
102
RTVSPropertyOp24
 70
     1
102
RTVSPropertyOp25
 70
     1
102
RTVSPropertyOp26
 70
     1
102
RTVSPropertyOp27
 70
     1
  0
XRECORD
  5
11CC0
102
{ACAD_REACTORS
330
11CBF
102
}
330
11CBF
100
AcDbXrecord
280
     1
102
RTVSPropertyOp0
 70
     1
102
RTVSPropertyOp1
 70
     1
102
RTVSPropertyOp2
 70
     1
102
RTVSPropertyOp3
 70
     1
102
RTVSPropertyOp4
 70
     1
102
RTVSPropertyOp5
 70
     1
102
RTVSPropertyOp6
 70
     1
102
RTVSPropertyOp7
 70
     1
102
RTVSPropertyOp8
 70
     1
102
RTVSPropertyOp9
 70
     1
102
RTVSPropertyOp10
 70
     1
102
RTVSPropertyOp11
 70
     1
102
RTVSPropertyOp12
 70
     1
102
RTVSPropertyOp13
 70
     1
102
RTVSPropertyOp14
 70
     1
102
RTVSPropertyOp15
 70
     1
102
RTVSPropertyOp16
 70
     1
102
RTVSPropertyOp17
 70
     1
102
RTVSPropertyOp18
 70
     1
102
RTVSPropertyOp19
 70
     1
102
RTVSPropertyOp20
 70
     1
102
RTVSPropertyOp21
 70
     1
102
RTVSPropertyOp22
 70
     1
102
RTVSPropertyOp23
 70
     1
102
RTVSPropertyOp24
 70
     1
102
RTVSPropertyOp25
 70
     1
102
RTVSPropertyOp26
 70
     1
102
RTVSPropertyOp27
 70
     1
  0
XRECORD
  5
11CDA
102
{ACAD_REACTORS
330
11CD9
102
}
330
11CD9
100
AcDbXrecord
280
     1
102
RTVSPropertyOp0
 70
     0
102
RTVSPropertyOp1
 70
     0
102
RTVSPropertyOp2
 70
     0
102
RTVSPropertyOp3
 70
     0
102
RTVSPropertyOp4
 70
     0
102
RTVSPropertyOp5
 70
     0
102
RTVSPropertyOp6
 70
     0
102
RTVSPropertyOp7
 70
     0
102
RTVSPropertyOp8
 70
     0
102
RTVSPropertyOp9
 70
     0
102
RTVSPropertyOp10
 70
     0
102
RTVSPropertyOp11
 70
     0
102
RTVSPropertyOp12
 70
     0
102
RTVSPropertyOp13
 70
     0
102
RTVSPropertyOp14
 70
     2
102
RTVSPropertyOp15
 70
     0
102
RTVSPropertyOp16
 70
     0
102
RTVSPropertyOp17
 70
     0
102
RTVSPropertyOp18
 70
     0
102
RTVSPropertyOp19
 70
     0
102
RTVSPropertyOp20
 70
     0
102
RTVSPropertyOp21
 70
     0
102
RTVSPropertyOp22
 70
     0
102
RTVSPropertyOp23
 70
     0
102
RTVSPropertyOp24
 70
     0
102
RTVSPropertyOp25
 70
     0
102
RTVSPropertyOp26
 70
     0
102
RTVSPropertyOp27
 70
     0
  0
XRECORD
  5
11CD4
102
{ACAD_REACTORS
330
11CD3
102
}
330
11CD3
100
AcDbXrecord
280
     1
102
RTVSPropertyOp0
 70
     1
102
RTVSPropertyOp1
 70
     1
102
RTVSPropertyOp2
 70
     1
102
RTVSPropertyOp3
 70
     1
102
RTVSPropertyOp4
 70
     1
102
RTVSPropertyOp5
 70
     1
102
RTVSPropertyOp6
 70
     1
102
RTVSPropertyOp7
 70
     1
102
RTVSPropertyOp8
 70
     1
102
RTVSPropertyOp9
 70
     1
102
RTVSPropertyOp10
 70
     1
102
RTVSPropertyOp11
 70
     1
102
RTVSPropertyOp12
 70
     1
102
RTVSPropertyOp13
 70
     1
102
RTVSPropertyOp14
 70
     1
102
RTVSPropertyOp15
 70
     1
102
RTVSPropertyOp16
 70
     1
102
RTVSPropertyOp17
 70
     1
102
RTVSPropertyOp18
 70
     1
102
RTVSPropertyOp19
 70
     1
102
RTVSPropertyOp20
 70
     1
102
RTVSPropertyOp21
 70
     1
102
RTVSPropertyOp22
 70
     1
102
RTVSPropertyOp23
 70
     1
102
RTVSPropertyOp24
 70
     1
102
RTVSPropertyOp25
 70
     1
102
RTVSPropertyOp26
 70
     1
102
RTVSPropertyOp27
 70
     1
  0
XRECORD
  5
11CDC
102
{ACAD_REACTORS
330
11CDB
102
}
330
11CDB
100
AcDbXrecord
280
     1
102
RTVSPropertyOp0
 70
     0
102
RTVSPropertyOp1
 70
     0
102
RTVSPropertyOp2
 70
     0
102
RTVSPropertyOp3
 70
     0
102
RTVSPropertyOp4
 70
     0
102
RTVSPropertyOp5
 70
     0
102
RTVSPropertyOp6
 70
     0
102
RTVSPropertyOp7
 70
     0
102
RTVSPropertyOp8
 70
     0
102
RTVSPropertyOp9
 70
     0
102
RTVSPropertyOp10
 70
     0
102
RTVSPropertyOp11
 70
     0
102
RTVSPropertyOp12
 70
     0
102
RTVSPropertyOp13
 70
     0
102
RTVSPropertyOp14
 70
     2
102
RTVSPropertyOp15
 70
     0
102
RTVSPropertyOp16
 70
     0
102
RTVSPropertyOp17
 70
     0
102
RTVSPropertyOp18
 70
     0
102
RTVSPropertyOp19
 70
     0
102
RTVSPropertyOp20
 70
     0
102
RTVSPropertyOp21
 70
     0
102
RTVSPropertyOp22
 70
     0
102
RTVSPropertyOp23
 70
     0
102
RTVSPropertyOp24
 70
     0
102
RTVSPropertyOp25
 70
     0
102
RTVSPropertyOp26
 70
     0
102
RTVSPropertyOp27
 70
     0
  0
XRECORD
  5
11CCC
102
{ACAD_REACTORS
330
11CCB
102
}
330
11CCB
100
AcDbXrecord
280
     1
102
RTVSPropertyOp0
 70
     1
102
RTVSPropertyOp1
 70
     1
102
RTVSPropertyOp2
 70
     1
102
RTVSPropertyOp3
 70
     1
102
RTVSPropertyOp4
 70
     1
102
RTVSPropertyOp5
 70
     1
102
RTVSPropertyOp6
 70
     1
102
RTVSPropertyOp7
 70
     1
102
RTVSPropertyOp8
 70
     1
102
RTVSPropertyOp9
 70
     1
102
RTVSPropertyOp10
 70
     1
102
RTVSPropertyOp11
 70
     1
102
RTVSPropertyOp12
 70
     1
102
RTVSPropertyOp13
 70
     1
102
RTVSPropertyOp14
 70
     1
102
RTVSPropertyOp15
 70
     1
102
RTVSPropertyOp16
 70
     1
102
RTVSPropertyOp17
 70
     1
102
RTVSPropertyOp18
 70
     1
102
RTVSPropertyOp19
 70
     1
102
RTVSPropertyOp20
 70
     1
102
RTVSPropertyOp21
 70
     1
102
RTVSPropertyOp22
 70
     1
102
RTVSPropertyOp23
 70
     1
102
RTVSPropertyOp24
 70
     1
102
RTVSPropertyOp25
 70
     1
102
RTVSPropertyOp26
 70
     1
102
RTVSPropertyOp27
 70
     1
  0
XRECORD
  5
11CD2
102
{ACAD_REACTORS
330
11CD1
102
}
330
11CD1
100
AcDbXrecord
280
     1
102
RTVSPropertyOp0
 70
     1
102
RTVSPropertyOp1
 70
     1
102
RTVSPropertyOp2
 70
     1
102
RTVSPropertyOp3
 70
     1
102
RTVSPropertyOp4
 70
     1
102
RTVSPropertyOp5
 70
     1
102
RTVSPropertyOp6
 70
     1
102
RTVSPropertyOp7
 70
     1
102
RTVSPropertyOp8
 70
     1
102
RTVSPropertyOp9
 70
     1
102
RTVSPropertyOp10
 70
     1
102
RTVSPropertyOp11
 70
     1
102
RTVSPropertyOp12
 70
     1
102
RTVSPropertyOp13
 70
     1
102
RTVSPropertyOp14
 70
     1
102
RTVSPropertyOp15
 70
     1
102
RTVSPropertyOp16
 70
     1
102
RTVSPropertyOp17
 70
     1
102
RTVSPropertyOp18
 70
     1
102
RTVSPropertyOp19
 70
     1
102
RTVSPropertyOp20
 70
     1
102
RTVSPropertyOp21
 70
     1
102
RTVSPropertyOp22
 70
     1
102
RTVSPropertyOp23
 70
     1
102
RTVSPropertyOp24
 70
     1
102
RTVSPropertyOp25
 70
     1
102
RTVSPropertyOp26
 70
     1
102
RTVSPropertyOp27
 70
     1
  0
ENDSEC
  0
EOF
