  0
SECTION
  2
HEADER
  9
$ACADVER
  1
AC1015
  9
$ACADMAINTVER
 70
    10
  9
$DWGCODEPAGE
  3
ANSI_932
  9
$INSBASE
 10
0.0
 20
0.0
 30
0.0
  9
$EXTMIN
 10
-189.2182540367566
 20
-780.5581005031217
 30
-0.0000000349181948
  9
$EXTMAX
 10
680.7231494634452
 20
603.8718304208851
 30
0.0000000814935746
  9
$LIMMIN
 10
-324.0
 20
-1046.0
  9
$LIMMAX
 10
2908.0
 20
954.0
  9
$ORTHOMODE
 70
     1
  9
$REGENMODE
 70
     1
  9
$FILLMODE
 70
     1
  9
$QTEXTMODE
 70
     0
  9
$MIRRTEXT
 70
     1
  9
$LTSCALE
 40
30.0
  9
$ATTMODE
 70
     1
  9
$TEXTSIZE
 40
5.0
  9
$TRACEWID
 40
0.05
  9
$TEXTSTYLE
  7
STANDARD1
  9
$CLAYER
  8
30
  9
$CELTYPE
  6
CONTINUOUS
  9
$CECOLOR
 62
   256
  9
$CELTSCALE
 40
1.0
  9
$DISPSILH
 70
     0
  9
$DIMSCALE
 40
1.0
  9
$DIMASZ
 40
2.0
  9
$DIMEXO
 40
3.0
  9
$DIMDLI
 40
0.5
  9
$DIMRND
 40
0.0
  9
$DIMDLE
 40
0.0
  9
$DIMEXE
 40
0.5
  9
$DIMTP
 40
0.0
  9
$DIMTM
 40
0.0
  9
$DIMTXT
 40
6.0
  9
$DIMCEN
 40
0.09
  9
$DIMTSZ
 40
0.0
  9
$DIMTOL
 70
     0
  9
$DIMLIM
 70
     0
  9
$DIMTIH
 70
     0
  9
$DIMTOH
 70
     1
  9
$DIMSE1
 70
     0
  9
$DIMSE2
 70
     0
  9
$DIMTAD
 70
     3
  9
$DIMZIN
 70
    12
  9
$DIMBLK
  1
OPEN
  9
$DIMASO
 70
     1
  9
$DIMSHO
 70
     1
  9
$DIMPOST
  1

  9
$DIMAPOST
  1

  9
$DIMALT
 70
     0
  9
$DIMALTD
 70
     2
  9
$DIMALTF
 40
25.4
  9
$DIMLFAC
 40
1.0
  9
$DIMTOFL
 70
     0
  9
$DIMTVP
 40
0.0
  9
$DIMTIX
 70
     0
  9
$DIMSOXD
 70
     0
  9
$DIMSAH
 70
     0
  9
$DIMBLK1
  1

  9
$DIMBLK2
  1

  9
$DIMSTYLE
  2
STANDARD1
  9
$DIMCLRD
 70
     0
  9
$DIMCLRE
 70
     0
  9
$DIMCLRT
 70
     0
  9
$DIMTFAC
 40
1.0
  9
$DIMGAP
 40
3.0
  9
$DIMJUST
 70
     0
  9
$DIMSD1
 70
     0
  9
$DIMSD2
 70
     0
  9
$DIMTOLJ
 70
     1
  9
$DIMTZIN
 70
     0
  9
$DIMALTZ
 70
     0
  9
$DIMALTTZ
 70
     0
  9
$DIMUPT
 70
     0
  9
$DIMDEC
 70
     1
  9
$DIMTDEC
 70
     1
  9
$DIMALTU
 70
     2
  9
$DIMALTTD
 70
     2
  9
$DIMTXSTY
  7
STANDARD
  9
$DIMAUNIT
 70
     0
  9
$DIMADEC
 70
     0
  9
$DIMALTRND
 40
0.0
  9
$DIMAZIN
 70
     0
  9
$DIMDSEP
 70
    46
  9
$DIMATFIT
 70
     2
  9
$DIMFRAC
 70
     0
  9
$DIMLDRBLK
  1
OPEN
  9
$DIMLUNIT
 70
     2
  9
$DIMLWD
 70
    -2
  9
$DIMLWE
 70
    -2
  9
$DIMTMOVE
 70
     0
  9
$LUNITS
 70
     2
  9
$LUPREC
 70
     4
  9
$SKETCHINC
 40
0.1
  9
$FILLETRAD
 40
0.0
  9
$AUNITS
 70
     0
  9
$AUPREC
 70
     0
  9
$MENU
  1
.
  9
$ELEVATION
 40
0.0
  9
$PELEVATION
 40
0.0
  9
$THICKNESS
 40
0.0
  9
$LIMCHECK
 70
     0
  9
$CHAMFERA
 40
0.0
  9
$CHAMFERB
 40
0.0
  9
$CHAMFERC
 40
0.0
  9
$CHAMFERD
 40
0.0
  9
$SKPOLY
 70
     0
  9
$TDCREATE
 40
2452286.555658657
  9
$TDUCREATE
 40
2452286.180658657
  9
$TDUPDATE
 40
2454697.485628611
  9
$TDUUPDATE
 40
2454697.110628611
  9
$TDINDWG
 40
1.4010613310
  9
$TDUSRTIMER
 40
1.4010607870
  9
$USRTIMER
 70
     1
  9
$ANGBASE
 50
0.0
  9
$ANGDIR
 70
     0
  9
$PDMODE
 70
     0
  9
$PDSIZE
 40
0.0
  9
$PLINEWID
 40
0.0
  9
$SPLFRAME
 70
     0
  9
$SPLINETYPE
 70
     6
  9
$SPLINESEGS
 70
     8
  9
$HANDSEED
  5
9F00
  9
$SURFTAB1
 70
     6
  9
$SURFTAB2
 70
     6
  9
$SURFTYPE
 70
     6
  9
$SURFU
 70
     6
  9
$SURFV
 70
     6
  9
$UCSBASE
  2

  9
$UCSNAME
  2

  9
$UCSORG
 10
0.0
 20
0.0
 30
0.0
  9
$UCSXDIR
 10
1.0
 20
0.0
 30
0.0
  9
$UCSYDIR
 10
0.0
 20
1.0
 30
0.0
  9
$UCSORTHOREF
  2

  9
$UCSORTHOVIEW
 70
     0
  9
$UCSORGTOP
 10
0.0
 20
0.0
 30
0.0
  9
$UCSORGBOTTOM
 10
0.0
 20
0.0
 30
0.0
  9
$UCSORGLEFT
 10
0.0
 20
0.0
 30
0.0
  9
$UCSORGRIGHT
 10
0.0
 20
0.0
 30
0.0
  9
$UCSORGFRONT
 10
0.0
 20
0.0
 30
0.0
  9
$UCSORGBACK
 10
0.0
 20
0.0
 30
0.0
  9
$PUCSBASE
  2

  9
$PUCSNAME
  2

  9
$PUCSORG
 10
0.0
 20
0.0
 30
0.0
  9
$PUCSXDIR
 10
1.0
 20
0.0
 30
0.0
  9
$PUCSYDIR
 10
0.0
 20
1.0
 30
0.0
  9
$PUCSORTHOREF
  2

  9
$PUCSORTHOVIEW
 70
     0
  9
$PUCSORGTOP
 10
0.0
 20
0.0
 30
0.0
  9
$PUCSORGBOTTOM
 10
0.0
 20
0.0
 30
0.0
  9
$PUCSORGLEFT
 10
0.0
 20
0.0
 30
0.0
  9
$PUCSORGRIGHT
 10
0.0
 20
0.0
 30
0.0
  9
$PUCSORGFRONT
 10
0.0
 20
0.0
 30
0.0
  9
$PUCSORGBACK
 10
0.0
 20
0.0
 30
0.0
  9
$USERI1
 70
     0
  9
$USERI2
 70
     0
  9
$USERI3
 70
     0
  9
$USERI4
 70
     0
  9
$USERI5
 70
     0
  9
$USERR1
 40
0.0
  9
$USERR2
 40
0.0
  9
$USERR3
 40
0.0
  9
$USERR4
 40
0.0
  9
$USERR5
 40
0.0
  9
$WORLDVIEW
 70
     1
  9
$SHADEDGE
 70
     3
  9
$SHADEDIF
 70
    70
  9
$TILEMODE
 70
     1
  9
$MAXACTVP
 70
    48
  9
$PINSBASE
 10
0.0
 20
0.0
 30
0.0
  9
$PLIMCHECK
 70
     0
  9
$PEXTMIN
 10
4.273573370203961
 20
5.205246163471485
 30
0.0
  9
$PEXTMAX
 10
194.6100952986349
 20
283.0697008572913
 30
0.0
  9
$PLIMMIN
 10
-5.873748779296875
 20
-5.873749732971191
  9
$PLIMMAX
 10
204.0995788574218
 20
291.1369009017943
  9
$UNITMODE
 70
     0
  9
$VISRETAIN
 70
     1
  9
$PLINEGEN
 70
     0
  9
$PSLTSCALE
 70
     1
  9
$TREEDEPTH
 70
  3020
  9
$CMLSTYLE
  2
STANDARD
  9
$CMLJUST
 70
     0
  9
$CMLSCALE
 40
1.0
  9
$PROXYGRAPHICS
 70
     1
  9
$MEASUREMENT
 70
     0
  9
$CELWEIGHT
370
    -1
  9
$ENDCAPS
280
     0
  9
$JOINSTYLE
280
     0
  9
$LWDISPLAY
290
     0
  9
$INSUNITS
 70
     0
  9
$HYPERLINKBASE
  1

  9
$STYLESHEET
  1
monochrome.ctb
  9
$XEDIT
290
     1
  9
$CEPSNTYPE
380
     0
  9
$PSTYLEMODE
290
     1
  9
$FINGERPRINTGUID
  2

  9
$VERSIONGUID
  2
{0C1C60E9-DBE3-4123-99C6-E69D4729D027}
  9
$EXTNAMES
290
     1
  9
$PSVPSCALE
 40
0.0
  9
$OLESTARTUP
290
     0
  0
ENDSEC
  0
SECTION
  2
CLASSES
  0
CLASS
  1
ACDBDICTIONARYWDFLT
  2
AcDbDictionaryWithDefault
  3
AutoCAD 2000
 90
        0
280
     0
281
     0
  0
CLASS
  1
ACDBPLACEHOLDER
  2
AcDbPlaceHolder
  3
AutoCAD 2000
 90
        0
280
     0
281
     0
  0
CLASS
  1
LAYOUT
  2
AcDbLayout
  3
AutoCAD 2000
 90
        0
280
     0
281
     0
  0
CLASS
  1
LONG_TRANSACTION
  2
AcDbLongTransaction
  3
AutoCAD 2000
 90
    32768
280
     0
281
     0
  0
CLASS
  1
LWPOLYLINE
  2
AcDbPolyline
  3
AutoCAD 2000
 90
    32768
280
     0
281
     1
  0
CLASS
  1
HATCH
  2
AcDbHatch
  3
AutoCAD 2000
 90
    32768
280
     0
281
     1
  0
CLASS
  1
XRECORD
  2
AcDbXrecord
  3
AutoCAD 2000
 90
    32768
280
     0
281
     0
  0
CLASS
  1
LONG_TRANSACTION
  2
AcDbLongTransaction
  3
AutoCAD 2000
 90
    32768
280
     0
281
     0
  0
CLASS
  1
LWPOLYLINE
  2
AcDbPolyline
  3
AutoCAD 2000
 90
    32768
280
     0
281
     1
  0
CLASS
  1
HATCH
  2
AcDbHatch
  3
AutoCAD 2000
 90
    32768
280
     0
281
     1
  0
CLASS
  1
XRECORD
  2
AcDbXrecord
  3
AutoCAD 2000
 90
    32768
280
     0
281
     0
  0
CLASS
  1
LONG_TRANSACTION
  2
AcDbLongTransaction
  3
AutoCAD 2000
 90
    32768
280
     0
281
     0
  0
CLASS
  1
LWPOLYLINE
  2
AcDbPolyline
  3
AutoCAD 2000
 90
    32768
280
     0
281
     1
  0
CLASS
  1
HATCH
  2
AcDbHatch
  3
AutoCAD 2000
 90
    32768
280
     0
281
     1
  0
CLASS
  1
XRECORD
  2
AcDbXrecord
  3
AutoCAD 2000
 90
    32768
280
     0
281
     0
  0
CLASS
  1
LONG_TRANSACTION
  2
AcDbLongTransaction
  3
AutoCAD 2000
 90
    32768
280
     0
281
     0
  0
CLASS
  1
LWPOLYLINE
  2
AcDbPolyline
  3
AutoCAD 2000
 90
    32768
280
     0
281
     1
  0
CLASS
  1
HATCH
  2
AcDbHatch
  3
AutoCAD 2000
 90
    32768
280
     0
281
     1
  0
CLASS
  1
XRECORD
  2
AcDbXrecord
  3
AutoCAD 2000
 90
    32768
280
     0
281
     0
  0
CLASS
  1
LONG_TRANSACTION
  2
AcDbLongTransaction
  3
AutoCAD 2000
 90
    32768
280
     0
281
     0
  0
CLASS
  1
LWPOLYLINE
  2
AcDbPolyline
  3
AutoCAD 2000
 90
    32768
280
     0
281
     1
  0
CLASS
  1
HATCH
  2
AcDbHatch
  3
AutoCAD 2000
 90
    32768
280
     0
281
     1
  0
CLASS
  1
XRECORD
  2
AcDbXrecord
  3
AutoCAD 2000
 90
    32768
280
     0
281
     0
  0
CLASS
  1
LONG_TRANSACTION
  2
AcDbLongTransaction
  3
AutoCAD 2000
 90
    32768
280
     0
281
     0
  0
CLASS
  1
LWPOLYLINE
  2
AcDbPolyline
  3
AutoCAD 2000
 90
    32768
280
     0
281
     1
  0
CLASS
  1
HATCH
  2
AcDbHatch
  3
AutoCAD 2000
 90
    32768
280
     0
281
     1
  0
CLASS
  1
XRECORD
  2
AcDbXrecord
  3
AutoCAD 2000
 90
    32768
280
     0
281
     0
  0
CLASS
  1
LONG_TRANSACTION
  2
AcDbLongTransaction
  3
AutoCAD 2000
 90
    32768
280
     0
281
     0
  0
CLASS
  1
LWPOLYLINE
  2
AcDbPolyline
  3
AutoCAD 2000
 90
    32768
280
     0
281
     1
  0
CLASS
  1
HATCH
  2
AcDbHatch
  3
AutoCAD 2000
 90
    32768
280
     0
281
     1
  0
CLASS
  1
XRECORD
  2
AcDbXrecord
  3
AutoCAD 2000
 90
    32768
280
     0
281
     0
  0
CLASS
  1
LONG_TRANSACTION
  2
AcDbLongTransaction
  3
AutoCAD 2000
 90
    32768
280
     0
281
     0
  0
CLASS
  1
LWPOLYLINE
  2
AcDbPolyline
  3
AutoCAD 2000
 90
    32768
280
     0
281
     1
  0
CLASS
  1
HATCH
  2
AcDbHatch
  3
AutoCAD 2000
 90
    32768
280
     0
281
     1
  0
CLASS
  1
XRECORD
  2
AcDbXrecord
  3
AutoCAD 2000
 90
    32768
280
     0
281
     0
  0
CLASS
  1
LONG_TRANSACTION
  2
AcDbLongTransaction
  3
AutoCAD 2000
 90
    32768
280
     0
281
     0
  0
CLASS
  1
LWPOLYLINE
  2
AcDbPolyline
  3
AutoCAD 2000
 90
    32768
280
     0
281
     1
  0
CLASS
  1
HATCH
  2
AcDbHatch
  3
AutoCAD 2000
 90
    32768
280
     0
281
     1
  0
CLASS
  1
XRECORD
  2
AcDbXrecord
  3
AutoCAD 2000
 90
    32768
280
     0
281
     0
  0
CLASS
  1
LONG_TRANSACTION
  2
AcDbLongTransaction
  3
AutoCAD 2000
 90
    32768
280
     0
281
     0
  0
CLASS
  1
LWPOLYLINE
  2
AcDbPolyline
  3
AutoCAD 2000
 90
    32768
280
     0
281
     1
  0
CLASS
  1
HATCH
  2
AcDbHatch
  3
AutoCAD 2000
 90
    32768
280
     0
281
     1
  0
CLASS
  1
XRECORD
  2
AcDbXrecord
  3
AutoCAD 2000
 90
    32768
280
     0
281
     0
  0
CLASS
  1
LONG_TRANSACTION
  2
AcDbLongTransaction
  3
AutoCAD 2000
 90
    32768
280
     0
281
     0
  0
CLASS
  1
LWPOLYLINE
  2
AcDbPolyline
  3
AutoCAD 2000
 90
    32768
280
     0
281
     1
  0
CLASS
  1
HATCH
  2
AcDbHatch
  3
AutoCAD 2000
 90
    32768
280
     0
281
     1
  0
CLASS
  1
XRECORD
  2
AcDbXrecord
  3
AutoCAD 2000
 90
    32768
280
     0
281
     0
  0
CLASS
  1
LONG_TRANSACTION
  2
AcDbLongTransaction
  3
AutoCAD 2000
 90
    32768
280
     0
281
     0
  0
CLASS
  1
LWPOLYLINE
  2
AcDbPolyline
  3
AutoCAD 2000
 90
    32768
280
     0
281
     1
  0
CLASS
  1
HATCH
  2
AcDbHatch
  3
AutoCAD 2000
 90
    32768
280
     0
281
     1
  0
CLASS
  1
XRECORD
  2
AcDbXrecord
  3
AutoCAD 2000
 90
    32768
280
     0
281
     0
  0
CLASS
  1
LONG_TRANSACTION
  2
AcDbLongTransaction
  3
AutoCAD 2000
 90
    32768
280
     0
281
     0
  0
CLASS
  1
LWPOLYLINE
  2
AcDbPolyline
  3
AutoCAD 2000
 90
    32768
280
     0
281
     1
  0
CLASS
  1
HATCH
  2
AcDbHatch
  3
AutoCAD 2000
 90
    32768
280
     0
281
     1
  0
CLASS
  1
XRECORD
  2
AcDbXrecord
  3
AutoCAD 2000
 90
    32768
280
     0
281
     0
  0
CLASS
  1
LONG_TRANSACTION
  2
AcDbLongTransaction
  3
AutoCAD 2000
 90
    32768
280
     0
281
     0
  0
CLASS
  1
LWPOLYLINE
  2
AcDbPolyline
  3
AutoCAD 2000
 90
    32768
280
     0
281
     1
  0
CLASS
  1
HATCH
  2
AcDbHatch
  3
AutoCAD 2000
 90
    32768
280
     0
281
     1
  0
CLASS
  1
XRECORD
  2
AcDbXrecord
  3
AutoCAD 2000
 90
    32768
280
     0
281
     0
  0
CLASS
  1
LONG_TRANSACTION
  2
AcDbLongTransaction
  3
AutoCAD 2000
 90
    32768
280
     0
281
     0
  0
CLASS
  1
LWPOLYLINE
  2
AcDbPolyline
  3
AutoCAD 2000
 90
    32768
280
     0
281
     1
  0
CLASS
  1
HATCH
  2
AcDbHatch
  3
AutoCAD 2000
 90
    32768
280
     0
281
     1
  0
CLASS
  1
XRECORD
  2
AcDbXrecord
  3
AutoCAD 2000
 90
    32768
280
     0
281
     0
  0
CLASS
  1
LONG_TRANSACTION
  2
AcDbLongTransaction
  3
AutoCAD 2000
 90
    32768
280
     0
281
     0
  0
CLASS
  1
LWPOLYLINE
  2
AcDbPolyline
  3
AutoCAD 2000
 90
    32768
280
     0
281
     1
  0
CLASS
  1
HATCH
  2
AcDbHatch
  3
AutoCAD 2000
 90
    32768
280
     0
281
     1
  0
CLASS
  1
XRECORD
  2
AcDbXrecord
  3
AutoCAD 2000
 90
    32768
280
     0
281
     0
  0
CLASS
  1
LONG_TRANSACTION
  2
AcDbLongTransaction
  3
AutoCAD 2000
 90
    32768
280
     0
281
     0
  0
CLASS
  1
LWPOLYLINE
  2
AcDbPolyline
  3
AutoCAD 2000
 90
    32768
280
     0
281
     1
  0
CLASS
  1
HATCH
  2
AcDbHatch
  3
AutoCAD 2000
 90
    32768
280
     0
281
     1
  0
CLASS
  1
XRECORD
  2
AcDbXrecord
  3
AutoCAD 2000
 90
    32768
280
     0
281
     0
  0
CLASS
  1
LONG_TRANSACTION
  2
AcDbLongTransaction
  3
AutoCAD 2000
 90
    32768
280
     0
281
     0
  0
CLASS
  1
LWPOLYLINE
  2
AcDbPolyline
  3
AutoCAD 2000
 90
    32768
280
     0
281
     1
  0
CLASS
  1
HATCH
  2
AcDbHatch
  3
AutoCAD 2000
 90
    32768
280
     0
281
     1
  0
CLASS
  1
XRECORD
  2
AcDbXrecord
  3
AutoCAD 2000
 90
    32768
280
     0
281
     0
  0
CLASS
  1
LONG_TRANSACTION
  2
AcDbLongTransaction
  3
AutoCAD 2000
 90
    32768
280
     0
281
     0
  0
CLASS
  1
LWPOLYLINE
  2
AcDbPolyline
  3
AutoCAD 2000
 90
    32768
280
     0
281
     1
  0
CLASS
  1
HATCH
  2
AcDbHatch
  3
AutoCAD 2000
 90
    32768
280
     0
281
     1
  0
CLASS
  1
XRECORD
  2
AcDbXrecord
  3
AutoCAD 2000
 90
    32768
280
     0
281
     0
  0
CLASS
  1
LONG_TRANSACTION
  2
AcDbLongTransaction
  3
AutoCAD 2000
 90
    32768
280
     0
281
     0
  0
CLASS
  1
LWPOLYLINE
  2
AcDbPolyline
  3
AutoCAD 2000
 90
    32768
280
     0
281
     1
  0
CLASS
  1
HATCH
  2
AcDbHatch
  3
AutoCAD 2000
 90
    32768
280
     0
281
     1
  0
CLASS
  1
XRECORD
  2
AcDbXrecord
  3
AutoCAD 2000
 90
    32768
280
     0
281
     0
  0
CLASS
  1
LONG_TRANSACTION
  2
AcDbLongTransaction
  3
AutoCAD 2000
 90
    32768
280
     0
281
     0
  0
CLASS
  1
LWPOLYLINE
  2
AcDbPolyline
  3
AutoCAD 2000
 90
    32768
280
     0
281
     1
  0
CLASS
  1
HATCH
  2
AcDbHatch
  3
AutoCAD 2000
 90
    32768
280
     0
281
     1
  0
CLASS
  1
XRECORD
  2
AcDbXrecord
  3
AutoCAD 2000
 90
    32768
280
     0
281
     0
  0
CLASS
  1
LONG_TRANSACTION
  2
AcDbLongTransaction
  3
AutoCAD 2000
 90
    32768
280
     0
281
     0
  0
CLASS
  1
LWPOLYLINE
  2
AcDbPolyline
  3
AutoCAD 2000
 90
    32768
280
     0
281
     1
  0
CLASS
  1
HATCH
  2
AcDbHatch
  3
AutoCAD 2000
 90
    32768
280
     0
281
     1
  0
CLASS
  1
XRECORD
  2
AcDbXrecord
  3
AutoCAD 2000
 90
    32768
280
     0
281
     0
  0
CLASS
  1
LONG_TRANSACTION
  2
AcDbLongTransaction
  3
AutoCAD 2000
 90
    32768
280
     0
281
     0
  0
CLASS
  1
LWPOLYLINE
  2
AcDbPolyline
  3
AutoCAD 2000
 90
    32768
280
     0
281
     1
  0
CLASS
  1
HATCH
  2
AcDbHatch
  3
AutoCAD 2000
 90
    32768
280
     0
281
     1
  0
CLASS
  1
XRECORD
  2
AcDbXrecord
  3
AutoCAD 2000
 90
    32768
280
     0
281
     0
  0
CLASS
  1
LONG_TRANSACTION
  2
AcDbLongTransaction
  3
AutoCAD 2000
 90
    32768
280
     0
281
     0
  0
CLASS
  1
LWPOLYLINE
  2
AcDbPolyline
  3
AutoCAD 2000
 90
    32768
280
     0
281
     1
  0
CLASS
  1
HATCH
  2
AcDbHatch
  3
AutoCAD 2000
 90
    32768
280
     0
281
     1
  0
CLASS
  1
XRECORD
  2
AcDbXrecord
  3
AutoCAD 2000
 90
    32768
280
     0
281
     0
  0
CLASS
  1
LONG_TRANSACTION
  2
AcDbLongTransaction
  3
AutoCAD 2000
 90
    32768
280
     0
281
     0
  0
CLASS
  1
LWPOLYLINE
  2
AcDbPolyline
  3
AutoCAD 2000
 90
    32768
280
     0
281
     1
  0
CLASS
  1
HATCH
  2
AcDbHatch
  3
AutoCAD 2000
 90
    32768
280
     0
281
     1
  0
CLASS
  1
XRECORD
  2
AcDbXrecord
  3
AutoCAD 2000
 90
    32768
280
     0
281
     0
  0
CLASS
  1
LONG_TRANSACTION
  2
AcDbLongTransaction
  3
AutoCAD 2000
 90
    32768
280
     0
281
     0
  0
CLASS
  1
LWPOLYLINE
  2
AcDbPolyline
  3
AutoCAD 2000
 90
    32768
280
     0
281
     1
  0
CLASS
  1
HATCH
  2
AcDbHatch
  3
AutoCAD 2000
 90
    32768
280
     0
281
     1
  0
CLASS
  1
XRECORD
  2
AcDbXrecord
  3
AutoCAD 2000
 90
    32768
280
     0
281
     0
  0
CLASS
  1
LONG_TRANSACTION
  2
AcDbLongTransaction
  3
AutoCAD 2000
 90
    32768
280
     0
281
     0
  0
CLASS
  1
LWPOLYLINE
  2
AcDbPolyline
  3
AutoCAD 2000
 90
    32768
280
     0
281
     1
  0
CLASS
  1
HATCH
  2
AcDbHatch
  3
AutoCAD 2000
 90
    32768
280
     0
281
     1
  0
CLASS
  1
XRECORD
  2
AcDbXrecord
  3
AutoCAD 2000
 90
    32768
280
     0
281
     0
  0
CLASS
  1
LONG_TRANSACTION
  2
AcDbLongTransaction
  3
AutoCAD 2000
 90
    32768
280
     0
281
     0
  0
CLASS
  1
LWPOLYLINE
  2
AcDbPolyline
  3
AutoCAD 2000
 90
    32768
280
     0
281
     1
  0
CLASS
  1
HATCH
  2
AcDbHatch
  3
AutoCAD 2000
 90
    32768
280
     0
281
     1
  0
CLASS
  1
XRECORD
  2
AcDbXrecord
  3
AutoCAD 2000
 90
    32768
280
     0
281
     0
  0
CLASS
  1
LONG_TRANSACTION
  2
AcDbLongTransaction
  3
AutoCAD 2000
 90
    32768
280
     0
281
     0
  0
CLASS
  1
LWPOLYLINE
  2
AcDbPolyline
  3
AutoCAD 2000
 90
    32768
280
     0
281
     1
  0
CLASS
  1
HATCH
  2
AcDbHatch
  3
AutoCAD 2000
 90
    32768
280
     0
281
     1
  0
CLASS
  1
XRECORD
  2
AcDbXrecord
  3
AutoCAD 2000
 90
    32768
280
     0
281
     0
  0
CLASS
  1
LONG_TRANSACTION
  2
AcDbLongTransaction
  3
AutoCAD 2000
 90
    32768
280
     0
281
     0
  0
CLASS
  1
LWPOLYLINE
  2
AcDbPolyline
  3
AutoCAD 2000
 90
    32768
280
     0
281
     1
  0
CLASS
  1
HATCH
  2
AcDbHatch
  3
AutoCAD 2000
 90
    32768
280
     0
281
     1
  0
CLASS
  1
XRECORD
  2
AcDbXrecord
  3
AutoCAD 2000
 90
    32768
280
     0
281
     0
  0
CLASS
  1
LONG_TRANSACTION
  2
AcDbLongTransaction
  3
AutoCAD 2000
 90
    32768
280
     0
281
     0
  0
CLASS
  1
LWPOLYLINE
  2
AcDbPolyline
  3
AutoCAD 2000
 90
    32768
280
     0
281
     1
  0
CLASS
  1
HATCH
  2
AcDbHatch
  3
AutoCAD 2000
 90
    32768
280
     0
281
     1
  0
CLASS
  1
XRECORD
  2
AcDbXrecord
  3
AutoCAD 2000
 90
    32768
280
     0
281
     0
  0
CLASS
  1
LONG_TRANSACTION
  2
AcDbLongTransaction
  3
AutoCAD 2000
 90
    32768
280
     0
281
     0
  0
CLASS
  1
LWPOLYLINE
  2
AcDbPolyline
  3
AutoCAD 2000
 90
    32768
280
     0
281
     1
  0
CLASS
  1
HATCH
  2
AcDbHatch
  3
AutoCAD 2000
 90
    32768
280
     0
281
     1
  0
CLASS
  1
XRECORD
  2
AcDbXrecord
  3
AutoCAD 2000
 90
    32768
280
     0
281
     0
  0
CLASS
  1
LONG_TRANSACTION
  2
AcDbLongTransaction
  3
AutoCAD 2000
 90
    32768
280
     0
281
     0
  0
CLASS
  1
LWPOLYLINE
  2
AcDbPolyline
  3
AutoCAD 2000
 90
    32768
280
     0
281
     1
  0
CLASS
  1
HATCH
  2
AcDbHatch
  3
AutoCAD 2000
 90
    32768
280
     0
281
     1
  0
CLASS
  1
XRECORD
  2
AcDbXrecord
  3
AutoCAD 2000
 90
    32768
280
     0
281
     0
  0
CLASS
  1
DICTIONARYVAR
  2
AcDbDictionaryVar
  3
AutoCAD 2000
 90
        0
280
     0
281
     0
  0
CLASS
  1
LONG_TRANSACTION
  2
AcDbLongTransaction
  3
AutoCAD 2000
 90
    32768
280
     0
281
     0
  0
CLASS
  1
LWPOLYLINE
  2
AcDbPolyline
  3
AutoCAD 2000
 90
    32768
280
     0
281
     1
  0
CLASS
  1
HATCH
  2
AcDbHatch
  3
AutoCAD 2000
 90
    32768
280
     0
281
     1
  0
CLASS
  1
XRECORD
  2
AcDbXrecord
  3
AutoCAD 2000
 90
    32768
280
     0
281
     0
  0
CLASS
  1
LONG_TRANSACTION
  2
AcDbLongTransaction
  3
AutoCAD 2000
 90
    32768
280
     0
281
     0
  0
CLASS
  1
LWPOLYLINE
  2
AcDbPolyline
  3
AutoCAD 2000
 90
    32768
280
     0
281
     1
  0
CLASS
  1
HATCH
  2
AcDbHatch
  3
AutoCAD 2000
 90
    32768
280
     0
281
     1
  0
CLASS
  1
XRECORD
  2
AcDbXrecord
  3
AutoCAD 2000
 90
    32768
280
     0
281
     0
  0
CLASS
  1
LONG_TRANSACTION
  2
AcDbLongTransaction
  3
AutoCAD 2000
 90
    32768
280
     0
281
     0
  0
CLASS
  1
LWPOLYLINE
  2
AcDbPolyline
  3
AutoCAD 2000
 90
    32768
280
     0
281
     1
  0
CLASS
  1
HATCH
  2
AcDbHatch
  3
AutoCAD 2000
 90
    32768
280
     0
281
     1
  0
CLASS
  1
XRECORD
  2
AcDbXrecord
  3
AutoCAD 2000
 90
    32768
280
     0
281
     0
  0
CLASS
  1
LONG_TRANSACTION
  2
AcDbLongTransaction
  3
AutoCAD 2000
 90
    32768
280
     0
281
     0
  0
CLASS
  1
LWPOLYLINE
  2
AcDbPolyline
  3
AutoCAD 2000
 90
    32768
280
     0
281
     1
  0
CLASS
  1
HATCH
  2
AcDbHatch
  3
AutoCAD 2000
 90
    32768
280
     0
281
     1
  0
CLASS
  1
XRECORD
  2
AcDbXrecord
  3
AutoCAD 2000
 90
    32768
280
     0
281
     0
  0
ENDSEC
  0
SECTION
  2
TABLES
  0
TABLE
  2
VPORT
  5
8
330
0
100
AcDbSymbolTable
 70
     5
  0
VPORT
  5
9EDE
330
8
100
AcDbSymbolTableRecord
100
AcDbViewportTableRecord
  2
*Active
 70
     0
 10
0.0
 20
0.0
 11
1.0
 21
1.0
 12
197.2455072455081
 22
-119.5019743580535
 13
0.0
 23
0.0
 14
1.0
 24
1.0
 15
20.0
 25
20.0
 16
0.0
 26
0.0
 36
1.0
 17
0.0
 27
0.0
 37
0.0
 40
1606.160381481084
 41
1.566970091027308
 42
50.0
 43
0.0
 44
0.0
 50
0.0
 51
0.0
 71
     0
 72
   100
 73
     1
 74
     1
 75
     1
 76
     0
 77
     0
 78
     0
281
     0
 65
     1
110
0.0
120
0.0
130
0.0
111
1.0
121
0.0
131
0.0
112
0.0
122
1.0
132
0.0
 79
     0
146
0.0
  0
ENDTAB
  0
TABLE
  2
LTYPE
  5
5
330
0
100
AcDbSymbolTable
 70
     5
  0
LTYPE
  5
13
330
5
100
AcDbSymbolTableRecord
100
AcDbLinetypeTableRecord
  2
BYBLOCK
 70
     0
  3

 72
    65
 73
     0
 40
0.0
  0
LTYPE
  5
14
330
5
100
AcDbSymbolTableRecord
100
AcDbLinetypeTableRecord
  2
BYLAYER
 70
     0
  3

 72
    65
 73
     0
 40
0.0
  0
LTYPE
  5
15
330
5
100
AcDbSymbolTableRecord
100
AcDbLinetypeTableRecord
  2
CONTINUOUS
 70
     0
  3
Solid line
 72
    65
 73
     0
 40
0.0
  0
LTYPE
  5
22
330
5
100
AcDbSymbolTableRecord
100
AcDbLinetypeTableRecord
  2
CONTINOUS
 70
     0
  3
Solid line
 72
    65
 73
     0
 40
0.0
  0
LTYPE
  5
24
330
5
100
AcDbSymbolTableRecord
100
AcDbLinetypeTableRecord
  2
DASHDOT
 70
     0
  3
__ . __ . __ . __ . __ . __ . __ . __ . __ . __
 72
    65
 73
     4
 40
1.0
 49
0.5
 74
     0
 49
-0.25
 74
     0
 49
0.0
 74
     0
 49
-0.25
 74
     0
  0
LTYPE
  5
4C47
330
5
100
AcDbSymbolTableRecord
100
AcDbLinetypeTableRecord
  2
DIVIDE
 70
     0
  3
Divide ____ . . ____ . . ____ . . ____ . . ____
 72
    65
 73
     6
 40
1.25
 49
0.5
 74
     0
 49
-0.25
 74
     0
 49
0.0
 74
     0
 49
-0.25
 74
     0
 49
0.0
 74
     0
 49
-0.25
 74
     0
  0
LTYPE
  5
7CD5
330
5
100
AcDbSymbolTableRecord
100
AcDbLinetypeTableRecord
  2
CENTER
 70
     0
  3
____ _ ____ _ ____ _ ____
 72
    65
 73
     4
 40
2.0
 49
1.25
 74
     0
 49
-0.25
 74
     0
 49
0.25
 74
     0
 49
-0.25
 74
     0
  0
ENDTAB
  0
TABLE
  2
LAYER
  5
2
330
0
100
AcDbSymbolTable
 70
    13
  0
LAYER
  5
10
330
2
100
AcDbSymbolTableRecord
100
AcDbLayerTableRecord
  2
0
 70
     0
 62
     7
  6
CONTINOUS
370
    -3
390
F
  0
LAYER
  5
2F
330
2
100
AcDbSymbolTableRecord
100
AcDbLayerTableRecord
  2
10
 70
     0
 62
     4
  6
CONTINOUS
370
    -3
390
F
  0
LAYER
  5
31
330
2
100
AcDbSymbolTableRecord
100
AcDbLayerTableRecord
  2
12
 70
     0
 62
     3
  6
CONTINOUS
370
    -3
390
F
  0
LAYER
  5
35
330
2
100
AcDbSymbolTableRecord
100
AcDbLayerTableRecord
  2
16
 70
     0
 62
     6
  6
DASHDOT
370
    -3
390
F
  0
LAYER
  5
38
330
2
100
AcDbSymbolTableRecord
100
AcDbLayerTableRecord
  2
19
 70
     0
 62
     7
  6
CONTINOUS
370
    -3
390
F
  0
LAYER
  5
3C
330
2
100
AcDbSymbolTableRecord
100
AcDbLayerTableRecord
  2
11
 70
     0
 62
     1
  6
CONTINOUS
370
    -3
390
F
  0
LAYER
  5
3D
330
2
100
AcDbSymbolTableRecord
100
AcDbLayerTableRecord
  2
24
 70
     0
 62
     2
  6
CONTINOUS
370
    -3
390
F
  0
LAYER
  5
3A2
330
2
100
AcDbSymbolTableRecord
100
AcDbLayerTableRecord
  2
30
 70
     0
 62
     9
  6
CONTINUOUS
370
    -3
390
F
  0
LAYER
  5
3A4
330
2
100
AcDbSymbolTableRecord
100
AcDbLayerTableRecord
  2
DEFPOINTS
 70
     0
 62
     7
  6
CONTINUOUS
290
     0
370
    -3
390
F
  0
LAYER
  5
3BBA
330
2
100
AcDbSymbolTableRecord
100
AcDbLayerTableRecord
  2
18
 70
     0
 62
     5
  6
DIVIDE
370
    -3
390
F
  0
LAYER
  5
3BBB
330
2
100
AcDbSymbolTableRecord
100
AcDbLayerTableRecord
  2
21
 70
     0
 62
     7
  6
CONTINUOUS
370
    -3
390
F
  0
LAYER
  5
5D4D
330
2
100
AcDbSymbolTableRecord
100
AcDbLayerTableRecord
  2
17
 70
     0
 62
     2
  6
DASHDOT
370
    -3
390
F
  0
LAYER
  5
7355
330
2
100
AcDbSymbolTableRecord
100
AcDbLayerTableRecord
  2
1
 70
     0
 62
     7
  6
CONTINUOUS
370
    -3
390
F
  0
ENDTAB
  0
TABLE
  2
STYLE
  5
3
330
0
100
AcDbSymbolTable
 70
     2
  0
STYLE
  5
11
330
3
100
AcDbSymbolTableRecord
100
AcDbTextStyleTableRecord
  2
STANDARD
 70
     0
 40
0.0
 41
1.0
 50
0.0
 71
     0
 42
2.0
  3
txt.shx
  4
bigfont.shx
  0
STYLE
  5
42
330
3
100
AcDbSymbolTableRecord
100
AcDbTextStyleTableRecord
  2
STANDARD1
 70
     0
 40
0.0
 41
1.0
 50
0.0
 71
     0
 42
5.0
  3
MONOTXT
  4
BIGFONT
  0
ENDTAB
  0
TABLE
  2
VIEW
  5
6
330
0
100
AcDbSymbolTable
 70
     3
  0
VIEW
  5
230C
330
6
100
AcDbSymbolTableRecord
100
AcDbViewTableRecord
  2
OLE1
 70
     0
 40
148.9124878027714
 10
429.4976280407222
 20
2.560626997828478
 41
103.1458057716444
 11
0.0
 21
0.0
 31
1.0
 12
0.0
 22
0.0
 32
0.0
 42
50.0
 43
0.0
 44
0.0
 50
0.0
 71
     0
281
     0
 72
     0
  0
VIEW
  5
230E
330
6
100
AcDbSymbolTableRecord
100
AcDbViewTableRecord
  2
OLE2
 70
     0
 40
170.7786920545775
 10
322.664969958371
 20
-5.978304054290276
 41
102.4672152327465
 11
0.0
 21
0.0
 31
1.0
 12
0.0
 22
0.0
 32
0.0
 42
50.0
 43
0.0
 44
0.0
 50
0.0
 71
     0
281
     0
 72
     0
  0
VIEW
  5
23AA
330
6
100
AcDbSymbolTableRecord
100
AcDbViewTableRecord
  2
OLE3
 70
     0
 40
591.7897393182231
 10
84.79698158148218
 20
-46.09336010803995
 41
388.7920961799953
 11
0.0
 21
0.0
 31
1.0
 12
0.0
 22
0.0
 32
0.0
 42
50.0
 43
0.0
 44
0.0
 50
0.0
 71
     0
281
     0
 72
     0
  0
ENDTAB
  0
TABLE
  2
UCS
  5
7
330
0
100
AcDbSymbolTable
 70
     0
  0
ENDTAB
  0
TABLE
  2
APPID
  5
9
330
0
100
AcDbSymbolTable
 70
     2
  0
APPID
  5
12
330
9
100
AcDbSymbolTableRecord
100
AcDbRegAppTableRecord
  2
ACAD
 70
     0
  0
APPID
  5
ECD
330
9
100
AcDbSymbolTableRecord
100
AcDbRegAppTableRecord
  2
CONTENTBLOCKICON
 70
     0
  0
ENDTAB
  0
TABLE
  2
DIMSTYLE
  5
A
330
0
100
AcDbSymbolTable
 70
     2
100
AcDbDimStyleTable
 71
     2
340
85E3
340
175
  0
DIMSTYLE
105
175
330
A
100
AcDbSymbolTableRecord
100
AcDbDimStyleTableRecord
  2
STANDARD
 70
     0
 41
2.0
 42
1.0
 43
0.5
 44
0.5
 73
     0
 77
     3
 78
    12
140
5.0
147
1.0
271
     1
272
     1
340
11
341
3B2
342
3B2
  0
DIMSTYLE
105
85E3
102
{ACAD_REACTORS
330
9535
330
951B
330
94E4
330
94D7
330
7EA7
330
7EA5
330
7E9C
330
7E9D
330
7E9E
330
7E9F
330
7EA2
330
7EA3
330
7EB1
330
7EB2
330
7E9A
330
7EB4
330
7EA1
330
7EA0
330
7EAE
330
9A0A
330
7E8E
330
7EA9
330
7EA8
330
7E99
330
9DF1
330
9DFE
330
9E59
330
9E8A
102
}
330
A
100
AcDbSymbolTableRecord
100
AcDbDimStyleTableRecord
  2
STANDARD1
 70
     0
 41
2.0
 42
3.0
 43
0.5
 44
0.5
 73
     0
 77
     3
 78
    12
140
6.0
147
3.0
271
     1
272
     1
289
     2
340
11
341
3B2
342
3B2
  0
ENDTAB
  0
TABLE
  2
BLOCK_RECORD
  5
1
330
0
100
AcDbSymbolTable
 70
    30
  0
BLOCK_RECORD
  5
1E
102
{ACAD_XDICTIONARY
360
178
102
}
330
1
100
AcDbSymbolTableRecord
100
AcDbBlockTableRecord
  2
*MODEL_SPACE
340
7AE4
  0
BLOCK_RECORD
  5
1A
102
{ACAD_XDICTIONARY
360
17A
102
}
330
1
100
AcDbSymbolTableRecord
100
AcDbBlockTableRecord
  2
*PAPER_SPACE
340
7AE5
  0
BLOCK_RECORD
  5
3B2
330
1
100
AcDbSymbolTableRecord
100
AcDbBlockTableRecord
  2
_OPEN
340
0
102
{BLKREFS
331
9572
331
9573
331
9583
331
958C
331
958D
331
9AE4
331
9AE5
331
9D15
331
9D16
331
9D1E
331
9D1F
331
9D27
331
9D28
331
9D30
331
9D31
331
9D39
331
9D3A
331
9D42
331
9D43
331
9D4C
331
9D4D
331
9D55
331
9D56
331
9D5E
331
9D5F
331
9D67
331
9D68
331
9D6F
331
9D70
331
9D78
331
9D79
331
9D83
331
9D84
331
9D8C
331
9D8D
331
9D95
331
9D96
331
9D9E
331
9D9F
331
9DD7
331
9DD8
331
9DE0
331
9DE1
331
9DE9
331
9DEA
331
9E0E
331
9E0F
331
9E17
331
9E18
331
9E40
331
9E41
331
9E49
331
9E4A
331
9E52
331
9E53
331
9E73
331
9E74
331
9E84
331
9E85
331
9E8F
331
9E90
331
9E9A
331
9E9B
331
9EA3
331
9EA4
331
9EAC
331
9EAD
331
9EB5
331
9EB6
102
}
  0
BLOCK_RECORD
  5
8041
330
1
100
AcDbSymbolTableRecord
100
AcDbBlockTableRecord
  2
*D1
340
0
  0
BLOCK_RECORD
  5
80C2
330
1
100
AcDbSymbolTableRecord
100
AcDbBlockTableRecord
  2
*D2
340
0
  0
BLOCK_RECORD
  5
80CE
330
1
100
AcDbSymbolTableRecord
100
AcDbBlockTableRecord
  2
*D3
340
0
  0
BLOCK_RECORD
  5
80E6
330
1
100
AcDbSymbolTableRecord
100
AcDbBlockTableRecord
  2
*D4
340
0
  0
BLOCK_RECORD
  5
80F2
330
1
100
AcDbSymbolTableRecord
100
AcDbBlockTableRecord
  2
*D5
340
0
  0
BLOCK_RECORD
  5
80FE
330
1
100
AcDbSymbolTableRecord
100
AcDbBlockTableRecord
  2
*D6
340
0
  0
BLOCK_RECORD
  5
810A
330
1
100
AcDbSymbolTableRecord
100
AcDbBlockTableRecord
  2
*D7
340
0
  0
BLOCK_RECORD
  5
8111
330
1
100
AcDbSymbolTableRecord
100
AcDbBlockTableRecord
  2
*D8
340
0
  0
BLOCK_RECORD
  5
811D
330
1
100
AcDbSymbolTableRecord
100
AcDbBlockTableRecord
  2
*D9
340
0
  0
BLOCK_RECORD
  5
8129
330
1
100
AcDbSymbolTableRecord
100
AcDbBlockTableRecord
  2
*D10
340
0
  0
BLOCK_RECORD
  5
8135
330
1
100
AcDbSymbolTableRecord
100
AcDbBlockTableRecord
  2
*D11
340
0
  0
BLOCK_RECORD
  5
814D
330
1
100
AcDbSymbolTableRecord
100
AcDbBlockTableRecord
  2
*D12
340
0
  0
BLOCK_RECORD
  5
8165
330
1
100
AcDbSymbolTableRecord
100
AcDbBlockTableRecord
  2
*D13
340
0
  0
BLOCK_RECORD
  5
8171
330
1
100
AcDbSymbolTableRecord
100
AcDbBlockTableRecord
  2
*D14
340
0
  0
BLOCK_RECORD
  5
817D
330
1
100
AcDbSymbolTableRecord
100
AcDbBlockTableRecord
  2
*D15
340
0
  0
BLOCK_RECORD
  5
81BD
330
1
100
AcDbSymbolTableRecord
100
AcDbBlockTableRecord
  2
*D16
340
0
  0
BLOCK_RECORD
  5
81E4
330
1
100
AcDbSymbolTableRecord
100
AcDbBlockTableRecord
  2
*D17
340
0
  0
BLOCK_RECORD
  5
81F1
330
1
100
AcDbSymbolTableRecord
100
AcDbBlockTableRecord
  2
*D18
340
0
  0
BLOCK_RECORD
  5
81FE
330
1
100
AcDbSymbolTableRecord
100
AcDbBlockTableRecord
  2
*D19
340
0
  0
BLOCK_RECORD
  5
820B
330
1
100
AcDbSymbolTableRecord
100
AcDbBlockTableRecord
  2
*D20
340
0
  0
BLOCK_RECORD
  5
94D8
330
1
100
AcDbSymbolTableRecord
100
AcDbBlockTableRecord
  2
*D21
340
0
  0
BLOCK_RECORD
  5
94E5
330
1
100
AcDbSymbolTableRecord
100
AcDbBlockTableRecord
  2
*D22
340
0
  0
BLOCK_RECORD
  5
951C
330
1
100
AcDbSymbolTableRecord
100
AcDbBlockTableRecord
  2
*D23
340
0
  0
BLOCK_RECORD
  5
9536
330
1
100
AcDbSymbolTableRecord
100
AcDbBlockTableRecord
  2
*D24
340
0
  0
BLOCK_RECORD
  5
9A0B
330
1
100
AcDbSymbolTableRecord
100
AcDbBlockTableRecord
  2
*D25
340
0
  0
BLOCK_RECORD
  5
9DF2
330
1
100
AcDbSymbolTableRecord
100
AcDbBlockTableRecord
  2
*D26
340
0
  0
BLOCK_RECORD
  5
9DFF
330
1
100
AcDbSymbolTableRecord
100
AcDbBlockTableRecord
  2
*D27
340
0
  0
BLOCK_RECORD
  5
9E64
330
1
100
AcDbSymbolTableRecord
100
AcDbBlockTableRecord
  2
*D28
340
0
  0
BLOCK_RECORD
  5
9E8B
330
1
100
AcDbSymbolTableRecord
100
AcDbBlockTableRecord
  2
*D29
340
0
  0
ENDTAB
  0
ENDSEC
  0
SECTION
  2
BLOCKS
  0
BLOCK
  5
1F
330
1E
100
AcDbEntity
  8
0
100
AcDbBlockBegin
  2
*MODEL_SPACE
 70
     0
 10
0.0
 20
0.0
 30
0.0
  3
*MODEL_SPACE
  1

  0
ENDBLK
  5
20
330
1E
100
AcDbEntity
  8
0
100
AcDbBlockEnd
  0
BLOCK
  5
1B
330
1A
100
AcDbEntity
 67
     1
  8
0
100
AcDbBlockBegin
  2
*PAPER_SPACE
 70
     0
 10
0.0
 20
0.0
 30
0.0
  3
*PAPER_SPACE
  1

  0
ENDBLK
  5
1C
330
1A
100
AcDbEntity
 67
     1
  8
0
100
AcDbBlockEnd
  0
BLOCK
  5
3B6
330
3B2
100
AcDbEntity
  8
0
100
AcDbBlockBegin
  2
_OPEN
 70
     0
 10
0.0
 20
0.0
 30
0.0
  3
_OPEN
  1

  0
LINE
  5
3B3
330
3B2
100
AcDbEntity
  8
30
  6
Continuous
 62
     0
100
AcDbLine
 10
-1.0
 20
0.1666666666666666
 30
0.0
 11
0.0
 21
0.0
 31
0.0
  0
LINE
  5
3B4
330
3B2
100
AcDbEntity
  8
30
  6
Continuous
 62
     0
100
AcDbLine
 10
-1.0
 20
-0.1666666666666666
 30
0.0
 11
0.0
 21
0.0
 31
0.0
  0
LINE
  5
3B5
330
3B2
100
AcDbEntity
  8
30
  6
Continuous
 62
     0
100
AcDbLine
 10
0.0
 20
0.0
 30
0.0
 11
-1.0
 21
0.0
 31
0.0
  0
ENDBLK
  5
3B7
330
3B2
100
AcDbEntity
  8
0
100
AcDbBlockEnd
  0
BLOCK
  5
804A
330
8041
100
AcDbEntity
  8
0
100
AcDbBlockBegin
  2
*D1
 70
     1
 10
0.0
 20
0.0
 30
0.0
  3
*D1
  1

  0
LINE
  5
9D64
330
8041
100
AcDbEntity
  8
30
  6
Continuous
 62
     0
370
    -2
100
AcDbLine
 10
600.3370676044901
 20
-133.2967685639431
 30
0.0
 11
597.6629323955111
 21
-124.7032264360566
 31
0.0
  0
LINE
  5
9D65
330
8041
100
AcDbEntity
  8
30
  6
Continuous
 62
     0
370
    -2
100
AcDbLine
 10
597.0686800000006
 20
-122.7935499999999
 30
0.0
 11
596.4744276044902
 21
-120.8838735639433
 31
0.0
  0
LINE
  5
9D66
330
8041
100
AcDbEntity
  8
30
  6
Continuous
 62
     0
370
    -2
100
AcDbLine
 10
596.4744276044902
 20
-120.8838735639433
 30
0.0
 11
579.4744276044902
 21
-120.8838735639433
 31
0.0
  0
INSERT
  5
9D67
330
8041
100
AcDbEntity
  8
30
  6
Continuous
 62
     0
370
    -2
100
AcDbBlockReference
  2
_OPEN
 10
600.9313200000006
 20
-135.2064449999997
 30
0.0
 41
2.0
 42
2.0
 43
2.0
 50
287.2850773868906
  0
INSERT
  5
9D68
330
8041
100
AcDbEntity
  8
30
  6
Continuous
 62
     0
370
    -2
100
AcDbBlockReference
  2
_OPEN
 10
597.0686800000006
 20
-122.7935499999999
 30
0.0
 41
2.0
 42
2.0
 43
2.0
 50
107.2850773868905
  0
MTEXT
  5
9D69
330
8041
100
AcDbEntity
  8
30
  6
Continuous
 62
     0
100
AcDbMText
 10
586.4744276044901
 20
-114.8838735639433
 30
0.0
 40
6.0
 41
0.0
 71
     5
 72
     1
  1
\A1;\U+220513
 73
     1
 44
1.0
  0
POINT
  5
9D6A
330
8041
100
AcDbEntity
  8
DEFPOINTS
  6
Continuous
 62
     0
100
AcDbPoint
 10
597.0686800000006
 20
-122.7935499999999
 30
0.0
  0
POINT
  5
9D6B
330
8041
100
AcDbEntity
  8
DEFPOINTS
  6
Continuous
 62
     0
100
AcDbPoint
 10
600.9313200000006
 20
-135.2064449999997
 30
0.0
  0
ENDBLK
  5
804B
330
8041
100
AcDbEntity
  8
0
100
AcDbBlockEnd
  0
BLOCK
  5
80CC
330
80C2
100
AcDbEntity
  8
0
100
AcDbBlockBegin
  2
*D2
 70
     1
 10
0.0
 20
0.0
 30
0.0
  3
*D2
  1

  0
LINE
  5
9DD4
330
80C2
100
AcDbEntity
  8
30
  6
Continuous
 62
     0
370
    -2
100
AcDbLine
 10
-92.5
 20
554.6309358295168
 30
0.0
 11
-92.5
 21
568.7268108295167
 31
0.0
  0
LINE
  5
9DD5
330
80C2
100
AcDbEntity
  8
30
  6
Continuous
 62
     0
370
    -2
100
AcDbLine
 10
-47.5
 20
554.6309358295168
 30
0.0
 11
-47.5
 21
568.7268108295167
 31
0.0
  0
LINE
  5
9DD6
330
80C2
100
AcDbEntity
  8
30
  6
Continuous
 62
     0
370
    -2
100
AcDbLine
 10
-90.5
 20
568.2268108295168
 30
0.0
 11
-49.5
 21
568.2268108295168
 31
0.0
  0
INSERT
  5
9DD7
330
80C2
100
AcDbEntity
  8
30
  6
Continuous
 62
     0
370
    -2
100
AcDbBlockReference
  2
_OPEN
 10
-92.5
 20
568.2268108295168
 30
0.0
 41
2.0
 42
2.0
 43
2.0
 50
180.0
  0
INSERT
  5
9DD8
330
80C2
100
AcDbEntity
  8
30
  6
Continuous
 62
     0
370
    -2
100
AcDbBlockReference
  2
_OPEN
 10
-47.5
 20
568.2268108295168
 30
0.0
 41
2.0
 42
2.0
 43
2.0
  0
MTEXT
  5
9DD9
330
80C2
100
AcDbEntity
  8
30
  6
Continuous
 62
     0
100
AcDbMText
 10
-70.0
 20
574.2268108295168
 30
0.0
 40
6.0
 41
0.0
 71
     5
 72
     1
  1
\A1; 45 
 73
     1
 44
1.0
  0
POINT
  5
9DDA
330
80C2
100
AcDbEntity
  8
DEFPOINTS
  6
Continuous
 62
     0
100
AcDbPoint
 10
-92.5
 20
551.6309358295168
 30
0.0
  0
POINT
  5
9DDB
330
80C2
100
AcDbEntity
  8
DEFPOINTS
  6
Continuous
 62
     0
100
AcDbPoint
 10
-47.5
 20
551.6309358295168
 30
0.0
  0
POINT
  5
9DDC
330
80C2
100
AcDbEntity
  8
DEFPOINTS
  6
Continuous
 62
     0
100
AcDbPoint
 10
-47.5
 20
568.2268108295168
 30
0.0
  0
ENDBLK
  5
80CD
330
80C2
100
AcDbEntity
  8
0
100
AcDbBlockEnd
  0
BLOCK
  5
80D8
330
80CE
100
AcDbEntity
  8
0
100
AcDbBlockBegin
  2
*D3
 70
     1
 10
0.0
 20
0.0
 30
0.0
  3
*D3
  1

  0
LINE
  5
9D5B
330
80CE
100
AcDbEntity
  8
30
  6
Continuous
 62
     0
370
    -2
100
AcDbLine
 10
524.0000000000009
 20
-96.00000000000006
 30
0.0
 11
524.0000000000009
 21
-55.09587500000003
 31
0.0
  0
LINE
  5
9D5C
330
80CE
100
AcDbEntity
  8
30
  6
Continuous
 62
     0
370
    -2
100
AcDbLine
 10
664.0002450000006
 20
-96.00000000000006
 30
0.0
 11
664.0002450000006
 21
-55.09587500000003
 31
0.0
  0
LINE
  5
9D5D
330
80CE
100
AcDbEntity
  8
30
  6
Continuous
 62
     0
370
    -2
100
AcDbLine
 10
526.0000000000009
 20
-55.59587500000003
 30
0.0
 11
662.0002450000006
 21
-55.59587500000003
 31
0.0
  0
INSERT
  5
9D5E
330
80CE
100
AcDbEntity
  8
30
  6
Continuous
 62
     0
370
    -2
100
AcDbBlockReference
  2
_OPEN
 10
524.0000000000009
 20
-55.59587500000003
 30
0.0
 41
2.0
 42
2.0
 43
2.0
 50
180.0
  0
INSERT
  5
9D5F
330
80CE
100
AcDbEntity
  8
30
  6
Continuous
 62
     0
370
    -2
100
AcDbBlockReference
  2
_OPEN
 10
664.0002450000006
 20
-55.59587500000003
 30
0.0
 41
2.0
 42
2.0
 43
2.0
  0
MTEXT
  5
9D60
330
80CE
100
AcDbEntity
  8
30
  6
Continuous
 62
     0
100
AcDbMText
 10
594.0001225000007
 20
-49.59587500000004
 30
0.0
 40
6.0
 41
0.0
 71
     5
 72
     1
  1
\A1; 140 
 73
     1
 44
1.0
  0
POINT
  5
9D61
330
80CE
100
AcDbEntity
  8
DEFPOINTS
  6
Continuous
 62
     0
100
AcDbPoint
 10
524.0000000000009
 20
-99.00000000000005
 30
0.0
  0
POINT
  5
9D62
330
80CE
100
AcDbEntity
  8
DEFPOINTS
  6
Continuous
 62
     0
100
AcDbPoint
 10
664.0002450000006
 20
-99.00000000000005
 30
0.0
  0
POINT
  5
9D63
330
80CE
100
AcDbEntity
  8
DEFPOINTS
  6
Continuous
 62
     0
100
AcDbPoint
 10
664.0002450000006
 20
-55.59587500000003
 30
0.0
  0
ENDBLK
  5
80D9
330
80CE
100
AcDbEntity
  8
0
100
AcDbBlockEnd
  0
BLOCK
  5
80F0
330
80E6
100
AcDbEntity
  8
0
100
AcDbBlockBegin
  2
*D4
 70
     1
 10
0.0
 20
0.0
 30
0.0
  3
*D4
  1

  0
LINE
  5
9D75
330
80E6
100
AcDbEntity
  8
30
  6
Continuous
 62
     0
370
    -2
100
AcDbLine
 10
539.0000000000009
 20
-164.0
 30
0.0
 11
539.0000000000009
 21
-225.595875
 31
0.0
  0
LINE
  5
9D76
330
80E6
100
AcDbEntity
  8
30
  6
Continuous
 62
     0
370
    -2
100
AcDbLine
 10
559.0000000000009
 20
-137.0
 30
0.0
 11
559.0000000000009
 21
-225.595875
 31
0.0
  0
LINE
  5
9D77
330
80E6
100
AcDbEntity
  8
30
  6
Continuous
 62
     0
370
    -2
100
AcDbLine
 10
541.0000000000009
 20
-225.095875
 30
0.0
 11
557.0000000000009
 21
-225.095875
 31
0.0
  0
INSERT
  5
9D78
330
80E6
100
AcDbEntity
  8
30
  6
Continuous
 62
     0
370
    -2
100
AcDbBlockReference
  2
_OPEN
 10
539.0000000000009
 20
-225.095875
 30
0.0
 41
2.0
 42
2.0
 43
2.0
 50
180.0
  0
INSERT
  5
9D79
330
80E6
100
AcDbEntity
  8
30
  6
Continuous
 62
     0
370
    -2
100
AcDbBlockReference
  2
_OPEN
 10
559.0000000000009
 20
-225.095875
 30
0.0
 41
2.0
 42
2.0
 43
2.0
  0
MTEXT
  5
9D7A
330
80E6
100
AcDbEntity
  8
30
  6
Continuous
 62
     0
100
AcDbMText
 10
549.0000000000009
 20
-219.095875
 30
0.0
 40
6.0
 41
0.0
 71
     5
 72
     1
  1
\A1; 20 
 73
     1
 44
1.0
  0
POINT
  5
9D7B
330
80E6
100
AcDbEntity
  8
DEFPOINTS
  6
Continuous
 62
     0
100
AcDbPoint
 10
539.0000000000009
 20
-161.0
 30
0.0
  0
POINT
  5
9D7C
330
80E6
100
AcDbEntity
  8
DEFPOINTS
  6
Continuous
 62
     0
100
AcDbPoint
 10
559.0000000000009
 20
-134.0
 30
0.0
  0
POINT
  5
9D7D
330
80E6
100
AcDbEntity
  8
DEFPOINTS
  6
Continuous
 62
     0
100
AcDbPoint
 10
559.0000000000009
 20
-225.095875
 30
0.0
  0
ENDBLK
  5
80F1
330
80E6
100
AcDbEntity
  8
0
100
AcDbBlockEnd
  0
BLOCK
  5
80FC
330
80F2
100
AcDbEntity
  8
0
100
AcDbBlockBegin
  2
*D5
 70
     1
 10
0.0
 20
0.0
 30
0.0
  3
*D5
  1

  0
LINE
  5
9D48
330
80F2
100
AcDbEntity
  8
30
  6
Continuous
 62
     0
370
    -2
100
AcDbLine
 10
599.0000000000009
 20
-137.0
 30
0.0
 11
599.0000000000009
 21
-225.595875
 31
0.0
  0
LINE
  5
9D49
330
80F2
100
AcDbEntity
  8
30
  6
Continuous
 62
     0
370
    -2
100
AcDbLine
 10
614.0000000000009
 20
-159.5
 30
0.0
 11
614.0000000000009
 21
-225.595875
 31
0.0
  0
LINE
  5
9D4A
330
80F2
100
AcDbEntity
  8
30
  6
Continuous
 62
     0
370
    -2
100
AcDbLine
 10
601.0000000000009
 20
-225.095875
 30
0.0
 11
612.0000000000008
 21
-225.095875
 31
0.0
  0
LINE
  5
9D4B
330
80F2
100
AcDbEntity
  8
30
  6
Continuous
 62
     0
370
    -2
100
AcDbLine
 10
614.0000000000009
 20
-225.095875
 30
0.0
 11
633.6000000000009
 21
-225.095875
 31
0.0
  0
INSERT
  5
9D4C
330
80F2
100
AcDbEntity
  8
30
  6
Continuous
 62
     0
370
    -2
100
AcDbBlockReference
  2
_OPEN
 10
599.0000000000009
 20
-225.095875
 30
0.0
 41
2.0
 42
2.0
 43
2.0
 50
180.0
  0
INSERT
  5
9D4D
330
80F2
100
AcDbEntity
  8
30
  6
Continuous
 62
     0
370
    -2
100
AcDbBlockReference
  2
_OPEN
 10
614.0000000000009
 20
-225.095875
 30
0.0
 41
2.0
 42
2.0
 43
2.0
  0
MTEXT
  5
9D4E
330
80F2
100
AcDbEntity
  8
30
  6
Continuous
 62
     0
100
AcDbMText
 10
624.8000000000009
 20
-219.095875
 30
0.0
 40
6.0
 41
0.0
 71
     5
 72
     1
  1
\A1; 15 
 73
     1
 44
1.0
  0
POINT
  5
9D4F
330
80F2
100
AcDbEntity
  8
DEFPOINTS
  6
Continuous
 62
     0
100
AcDbPoint
 10
599.0000000000009
 20
-134.0
 30
0.0
  0
POINT
  5
9D50
330
80F2
100
AcDbEntity
  8
DEFPOINTS
  6
Continuous
 62
     0
100
AcDbPoint
 10
614.0000000000009
 20
-156.5
 30
0.0
  0
POINT
  5
9D51
330
80F2
100
AcDbEntity
  8
DEFPOINTS
  6
Continuous
 62
     0
100
AcDbPoint
 10
614.0000000000009
 20
-225.095875
 30
0.0
  0
ENDBLK
  5
80FD
330
80F2
100
AcDbEntity
  8
0
100
AcDbBlockEnd
  0
BLOCK
  5
8108
330
80FE
100
AcDbEntity
  8
0
100
AcDbBlockBegin
  2
*D6
 70
     1
 10
0.0
 20
0.0
 30
0.0
  3
*D6
  1

  0
LINE
  5
9D6C
330
80FE
100
AcDbEntity
  8
30
  6
Continuous
 62
     0
370
    -2
100
AcDbLine
 10
567.0000000000008
 20
-137.0
 30
0.0
 11
567.0000000000008
 21
-225.595875
 31
0.0
  0
LINE
  5
9D6D
330
80FE
100
AcDbEntity
  8
30
  6
Continuous
 62
     0
370
    -2
100
AcDbLine
 10
599.0000000000009
 20
-137.0
 30
0.0
 11
599.0000000000009
 21
-225.595875
 31
0.0
  0
LINE
  5
9D6E
330
80FE
100
AcDbEntity
  8
30
  6
Continuous
 62
     0
370
    -2
100
AcDbLine
 10
569.0000000000009
 20
-225.095875
 30
0.0
 11
597.0000000000009
 21
-225.095875
 31
0.0
  0
INSERT
  5
9D6F
330
80FE
100
AcDbEntity
  8
30
  6
Continuous
 62
     0
370
    -2
100
AcDbBlockReference
  2
_OPEN
 10
567.0000000000008
 20
-225.095875
 30
0.0
 41
2.0
 42
2.0
 43
2.0
 50
180.0
  0
INSERT
  5
9D70
330
80FE
100
AcDbEntity
  8
30
  6
Continuous
 62
     0
370
    -2
100
AcDbBlockReference
  2
_OPEN
 10
599.0000000000009
 20
-225.095875
 30
0.0
 41
2.0
 42
2.0
 43
2.0
  0
MTEXT
  5
9D71
330
80FE
100
AcDbEntity
  8
30
  6
Continuous
 62
     0
100
AcDbMText
 10
583.0000000000008
 20
-219.095875
 30
0.0
 40
6.0
 41
0.0
 71
     5
 72
     1
  1
\A1; 32 
 73
     1
 44
1.0
  0
POINT
  5
9D72
330
80FE
100
AcDbEntity
  8
DEFPOINTS
  6
Continuous
 62
     0
100
AcDbPoint
 10
567.0000000000008
 20
-134.0
 30
0.0
  0
POINT
  5
9D73
330
80FE
100
AcDbEntity
  8
DEFPOINTS
  6
Continuous
 62
     0
100
AcDbPoint
 10
599.0000000000009
 20
-134.0
 30
0.0
  0
POINT
  5
9D74
330
80FE
100
AcDbEntity
  8
DEFPOINTS
  6
Continuous
 62
     0
100
AcDbPoint
 10
599.0000000000009
 20
-225.095875
 30
0.0
  0
ENDBLK
  5
8109
330
80FE
100
AcDbEntity
  8
0
100
AcDbBlockEnd
  0
BLOCK
  5
810F
330
810A
100
AcDbEntity
  8
0
100
AcDbBlockBegin
  2
*D7
 70
     1
 10
0.0
 20
0.0
 30
0.0
  3
*D7
  1

  0
LINE
  5
9D7E
330
810A
100
AcDbEntity
  8
30
  6
Continuous
 62
     0
370
    -2
100
AcDbLine
 10
559.0000000000009
 20
-132.0
 30
0.0
 11
559.0000000000009
 21
-225.595875
 31
0.0
  0
LINE
  5
9D7F
330
810A
100
AcDbEntity
  8
30
  6
Continuous
 62
     0
370
    -2
100
AcDbLine
 10
567.0000000000008
 20
-132.0
 30
0.0
 11
567.0000000000008
 21
-225.595875
 31
0.0
  0
LINE
  5
9D80
330
810A
100
AcDbEntity
  8
30
  6
Continuous
 62
     0
370
    -2
100
AcDbLine
 10
557.0000000000009
 20
-225.095875
 30
0.0
 11
555.0000000000009
 21
-225.095875
 31
0.0
  0
LINE
  5
9D81
330
810A
100
AcDbEntity
  8
30
  6
Continuous
 62
     0
370
    -2
100
AcDbLine
 10
569.0000000000009
 20
-225.095875
 30
0.0
 11
571.0000000000008
 21
-225.095875
 31
0.0
  0
LINE
  5
9D82
330
810A
100
AcDbEntity
  8
30
  6
Continuous
 62
     0
370
    -2
100
AcDbLine
 10
559.0000000000009
 20
-225.095875
 30
0.0
 11
567.0000000000008
 21
-225.095875
 31
0.0
  0
INSERT
  5
9D83
330
810A
100
AcDbEntity
  8
30
  6
Continuous
 62
     0
370
    -2
100
AcDbBlockReference
  2
_OPEN
 10
559.0000000000009
 20
-225.095875
 30
0.0
 41
2.0
 42
2.0
 43
2.0
  0
INSERT
  5
9D84
330
810A
100
AcDbEntity
  8
30
  6
Continuous
 62
     0
370
    -2
100
AcDbBlockReference
  2
_OPEN
 10
567.0000000000008
 20
-225.095875
 30
0.0
 41
2.0
 42
2.0
 43
2.0
 50
180.0
  0
MTEXT
  5
9D85
330
810A
100
AcDbEntity
  8
30
  6
Continuous
 62
     0
100
AcDbMText
 10
563.0000000000008
 20
-219.095875
 30
0.0
 40
6.0
 41
0.0
 71
     5
 72
     1
  1
\A1;8 
 73
     1
 44
1.0
  0
POINT
  5
9D86
330
810A
100
AcDbEntity
  8
DEFPOINTS
  6
Continuous
 62
     0
100
AcDbPoint
 10
559.0000000000009
 20
-129.0
 30
0.0
  0
POINT
  5
9D87
330
810A
100
AcDbEntity
  8
DEFPOINTS
  6
Continuous
 62
     0
100
AcDbPoint
 10
567.0000000000008
 20
-129.0
 30
0.0
  0
POINT
  5
9D88
330
810A
100
AcDbEntity
  8
DEFPOINTS
  6
Continuous
 62
     0
100
AcDbPoint
 10
567.0000000000008
 20
-225.095875
 30
0.0
  0
ENDBLK
  5
8110
330
810A
100
AcDbEntity
  8
0
100
AcDbBlockEnd
  0
BLOCK
  5
811B
330
8111
100
AcDbEntity
  8
0
100
AcDbBlockBegin
  2
*D8
 70
     1
 10
0.0
 20
0.0
 30
0.0
  3
*D8
  1

  0
LINE
  5
9D12
330
8111
100
AcDbEntity
  8
30
  6
Continuous
 62
     0
370
    -2
100
AcDbLine
 10
252.0000000000009
 20
-20.6201549999999
 30
0.0
 11
252.0000000000008
 21
-300.595875
 31
0.0
  0
LINE
  5
9D13
330
8111
100
AcDbEntity
  8
30
  6
Continuous
 62
     0
370
    -2
100
AcDbLine
 10
332.0000000000009
 20
-20.6201549999999
 30
0.0
 11
332.0000000000009
 21
-300.595875
 31
0.0
  0
LINE
  5
9D14
330
8111
100
AcDbEntity
  8
30
  6
Continuous
 62
     0
370
    -2
100
AcDbLine
 10
254.0000000000008
 20
-300.095875
 30
0.0
 11
330.0000000000009
 21
-300.095875
 31
0.0
  0
INSERT
  5
9D15
330
8111
100
AcDbEntity
  8
30
  6
Continuous
 62
     0
370
    -2
100
AcDbBlockReference
  2
_OPEN
 10
252.0000000000008
 20
-300.095875
 30
0.0
 41
2.0
 42
2.0
 43
2.0
 50
180.0
  0
INSERT
  5
9D16
330
8111
100
AcDbEntity
  8
30
  6
Continuous
 62
     0
370
    -2
100
AcDbBlockReference
  2
_OPEN
 10
332.0000000000009
 20
-300.095875
 30
0.0
 41
2.0
 42
2.0
 43
2.0
  0
MTEXT
  5
9D17
330
8111
100
AcDbEntity
  8
30
  6
Continuous
 62
     0
100
AcDbMText
 10
292.0000000000009
 20
-294.095875
 30
0.0
 40
6.0
 41
0.0
 71
     5
 72
     1
  1
\A1; 80 
 73
     1
 44
1.0
  0
POINT
  5
9D18
330
8111
100
AcDbEntity
  8
DEFPOINTS
  6
Continuous
 62
     0
100
AcDbPoint
 10
252.0000000000009
 20
-17.62015499999989
 30
0.0
  0
POINT
  5
9D19
330
8111
100
AcDbEntity
  8
DEFPOINTS
  6
Continuous
 62
     0
100
AcDbPoint
 10
332.0000000000009
 20
-17.62015499999989
 30
0.0
  0
POINT
  5
9D1A
330
8111
100
AcDbEntity
  8
DEFPOINTS
  6
Continuous
 62
     0
100
AcDbPoint
 10
332.0000000000009
 20
-300.095875
 30
0.0
  0
ENDBLK
  5
811C
330
8111
100
AcDbEntity
  8
0
100
AcDbBlockEnd
  0
BLOCK
  5
8127
330
811D
100
AcDbEntity
  8
0
100
AcDbBlockBegin
  2
*D9
 70
     1
 10
0.0
 20
0.0
 30
0.0
  3
*D9
  1

  0
LINE
  5
9D1B
330
811D
100
AcDbEntity
  8
30
  6
Continuous
 62
     0
370
    -2
100
AcDbLine
 10
332.0000000000009
 20
-25.6201549999999
 30
0.0
 11
332.0000000000009
 21
-300.595875
 31
0.0
  0
LINE
  5
9D1C
330
811D
100
AcDbEntity
  8
30
  6
Continuous
 62
     0
370
    -2
100
AcDbLine
 10
398.0000000000009
 20
-218.0
 30
0.0
 11
398.0000000000009
 21
-300.595875
 31
0.0
  0
LINE
  5
9D1D
330
811D
100
AcDbEntity
  8
30
  6
Continuous
 62
     0
370
    -2
100
AcDbLine
 10
334.0000000000009
 20
-300.095875
 30
0.0
 11
396.0000000000009
 21
-300.095875
 31
0.0
  0
INSERT
  5
9D1E
330
811D
100
AcDbEntity
  8
30
  6
Continuous
 62
     0
370
    -2
100
AcDbBlockReference
  2
_OPEN
 10
332.0000000000009
 20
-300.095875
 30
0.0
 41
2.0
 42
2.0
 43
2.0
 50
180.0
  0
INSERT
  5
9D1F
330
811D
100
AcDbEntity
  8
30
  6
Continuous
 62
     0
370
    -2
100
AcDbBlockReference
  2
_OPEN
 10
398.0000000000009
 20
-300.095875
 30
0.0
 41
2.0
 42
2.0
 43
2.0
  0
MTEXT
  5
9D20
330
811D
100
AcDbEntity
  8
30
  6
Continuous
 62
     0
100
AcDbMText
 10
365.0000000000009
 20
-294.095875
 30
0.0
 40
6.0
 41
0.0
 71
     5
 72
     1
  1
\A1; 66 
 73
     1
 44
1.0
  0
POINT
  5
9D21
330
811D
100
AcDbEntity
  8
DEFPOINTS
  6
Continuous
 62
     0
100
AcDbPoint
 10
332.0000000000009
 20
-22.62015499999989
 30
0.0
  0
POINT
  5
9D22
330
811D
100
AcDbEntity
  8
DEFPOINTS
  6
Continuous
 62
     0
100
AcDbPoint
 10
398.0000000000009
 20
-215.0
 30
0.0
  0
POINT
  5
9D23
330
811D
100
AcDbEntity
  8
DEFPOINTS
  6
Continuous
 62
     0
100
AcDbPoint
 10
398.0000000000009
 20
-300.095875
 30
0.0
  0
ENDBLK
  5
8128
330
811D
100
AcDbEntity
  8
0
100
AcDbBlockEnd
  0
BLOCK
  5
8133
330
8129
100
AcDbEntity
  8
0
100
AcDbBlockBegin
  2
*D10
 70
     1
 10
0.0
 20
0.0
 30
0.0
  3
*D10
  1

  0
LINE
  5
9D24
330
8129
100
AcDbEntity
  8
30
  6
Continuous
 62
     0
370
    -2
100
AcDbLine
 10
380.0000000000009
 20
-218.0
 30
0.0
 11
380.0000000000009
 21
-263.095875
 31
0.0
  0
LINE
  5
9D25
330
8129
100
AcDbEntity
  8
30
  6
Continuous
 62
     0
370
    -2
100
AcDbLine
 10
398.0000000000009
 20
-218.0
 30
0.0
 11
398.0000000000009
 21
-263.095875
 31
0.0
  0
LINE
  5
9D26
330
8129
100
AcDbEntity
  8
30
  6
Continuous
 62
     0
370
    -2
100
AcDbLine
 10
382.0000000000009
 20
-262.595875
 30
0.0
 11
396.0000000000009
 21
-262.595875
 31
0.0
  0
INSERT
  5
9D27
330
8129
100
AcDbEntity
  8
30
  6
Continuous
 62
     0
370
    -2
100
AcDbBlockReference
  2
_OPEN
 10
380.0000000000009
 20
-262.595875
 30
0.0
 41
2.0
 42
2.0
 43
2.0
 50
180.0
  0
INSERT
  5
9D28
330
8129
100
AcDbEntity
  8
30
  6
Continuous
 62
     0
370
    -2
100
AcDbBlockReference
  2
_OPEN
 10
398.0000000000009
 20
-262.595875
 30
0.0
 41
2.0
 42
2.0
 43
2.0
  0
MTEXT
  5
9D29
330
8129
100
AcDbEntity
  8
30
  6
Continuous
 62
     0
100
AcDbMText
 10
389.0000000000009
 20
-256.595875
 30
0.0
 40
6.0
 41
0.0
 71
     5
 72
     1
  1
\A1; 18 
 73
     1
 44
1.0
  0
POINT
  5
9D2A
330
8129
100
AcDbEntity
  8
DEFPOINTS
  6
Continuous
 62
     0
100
AcDbPoint
 10
380.0000000000009
 20
-215.0
 30
0.0
  0
POINT
  5
9D2B
330
8129
100
AcDbEntity
  8
DEFPOINTS
  6
Continuous
 62
     0
100
AcDbPoint
 10
398.0000000000009
 20
-215.0
 30
0.0
  0
POINT
  5
9D2C
330
8129
100
AcDbEntity
  8
DEFPOINTS
  6
Continuous
 62
     0
100
AcDbPoint
 10
398.0000000000009
 20
-262.595875
 30
0.0
  0
ENDBLK
  5
8134
330
8129
100
AcDbEntity
  8
0
100
AcDbBlockEnd
  0
BLOCK
  5
813F
330
8135
100
AcDbEntity
  8
0
100
AcDbBlockBegin
  2
*D11
 70
     1
 10
0.0
 20
0.0
 30
0.0
  3
*D11
  1

  0
LINE
  5
9E81
330
8135
100
AcDbEntity
  8
30
  6
Continuous
 62
     0
370
    -2
100
AcDbLine
 10
398.0000000000009
 20
-258.0
 30
0.0
 11
398.0000000000009
 21
-300.595875
 31
0.0
  0
LINE
  5
9E82
330
8135
100
AcDbEntity
  8
30
  6
Continuous
 62
     0
370
    -2
100
AcDbLine
 10
503.0000000000009
 20
-188.0
 30
0.0
 11
503.0000000000009
 21
-300.595875
 31
0.0
  0
LINE
  5
9E83
330
8135
100
AcDbEntity
  8
30
  6
Continuous
 62
     0
370
    -2
100
AcDbLine
 10
400.0000000000008
 20
-300.095875
 30
0.0
 11
501.0000000000009
 21
-300.095875
 31
0.0
  0
INSERT
  5
9E84
330
8135
100
AcDbEntity
  8
30
  6
Continuous
 62
     0
370
    -2
100
AcDbBlockReference
  2
_OPEN
 10
398.0000000000009
 20
-300.095875
 30
0.0
 41
2.0
 42
2.0
 43
2.0
 50
180.0
  0
INSERT
  5
9E85
330
8135
100
AcDbEntity
  8
30
  6
Continuous
 62
     0
370
    -2
100
AcDbBlockReference
  2
_OPEN
 10
503.0000000000009
 20
-300.095875
 30
0.0
 41
2.0
 42
2.0
 43
2.0
  0
MTEXT
  5
9E86
330
8135
100
AcDbEntity
  8
30
  6
Continuous
 62
     0
100
AcDbMText
 10
450.5000000000008
 20
-294.095875
 30
0.0
 40
6.0
 41
0.0
 71
     5
 72
     1
  1
\A1; 105 
 73
     1
 44
1.0
  0
POINT
  5
9E87
330
8135
100
AcDbEntity
  8
DEFPOINTS
  6
Continuous
 62
     0
100
AcDbPoint
 10
398.0000000000009
 20
-255.0
 30
0.0
  0
POINT
  5
9E88
330
8135
100
AcDbEntity
  8
DEFPOINTS
  6
Continuous
 62
     0
100
AcDbPoint
 10
503.0000000000009
 20
-185.0
 30
0.0
  0
POINT
  5
9E89
330
8135
100
AcDbEntity
  8
DEFPOINTS
  6
Continuous
 62
     0
100
AcDbPoint
 10
503.0000000000009
 20
-300.095875
 30
0.0
  0
ENDBLK
  5
8140
330
8135
100
AcDbEntity
  8
0
100
AcDbBlockEnd
  0
BLOCK
  5
8157
330
814D
100
AcDbEntity
  8
0
100
AcDbBlockBegin
  2
*D12
 70
     1
 10
0.0
 20
0.0
 30
0.0
  3
*D12
  1

  0
LINE
  5
9E46
330
814D
100
AcDbEntity
  8
30
  6
Continuous
 62
     0
370
    -2
100
AcDbLine
 10
-113.0000649999992
 20
-718.5000000000001
 30
0.0
 11
-113.0000649999992
 21
-760.5958750000001
 31
0.0
  0
LINE
  5
9E47
330
814D
100
AcDbEntity
  8
30
  6
Continuous
 62
     0
370
    -2
100
AcDbLine
 10
182.9999350000007
 20
-718.5000000000001
 30
0.0
 11
182.9999350000007
 21
-760.5958750000001
 31
0.0
  0
LINE
  5
9E48
330
814D
100
AcDbEntity
  8
30
  6
Continuous
 62
     0
370
    -2
100
AcDbLine
 10
-111.0000649999992
 20
-760.0958750000001
 30
0.0
 11
180.9999350000007
 21
-760.0958750000001
 31
0.0
  0
INSERT
  5
9E49
330
814D
100
AcDbEntity
  8
30
  6
Continuous
 62
     0
370
    -2
100
AcDbBlockReference
  2
_OPEN
 10
-113.0000649999992
 20
-760.0958750000001
 30
0.0
 41
2.0
 42
2.0
 43
2.0
 50
180.0
  0
INSERT
  5
9E4A
330
814D
100
AcDbEntity
  8
30
  6
Continuous
 62
     0
370
    -2
100
AcDbBlockReference
  2
_OPEN
 10
182.9999350000007
 20
-760.0958750000001
 30
0.0
 41
2.0
 42
2.0
 43
2.0
  0
MTEXT
  5
9E4B
330
814D
100
AcDbEntity
  8
30
  6
Continuous
 62
     0
100
AcDbMText
 10
34.99993500000073
 20
-754.0958750000002
 30
0.0
 40
6.0
 41
0.0
 71
     5
 72
     1
  1
\A1; 296 
 73
     1
 44
1.0
  0
POINT
  5
9E4C
330
814D
100
AcDbEntity
  8
DEFPOINTS
  6
Continuous
 62
     0
100
AcDbPoint
 10
-113.0000649999992
 20
-715.5000000000001
 30
0.0
  0
POINT
  5
9E4D
330
814D
100
AcDbEntity
  8
DEFPOINTS
  6
Continuous
 62
     0
100
AcDbPoint
 10
182.9999350000007
 20
-715.5000000000001
 30
0.0
  0
POINT
  5
9E4E
330
814D
100
AcDbEntity
  8
DEFPOINTS
  6
Continuous
 62
     0
100
AcDbPoint
 10
182.9999350000007
 20
-760.0958750000001
 30
0.0
  0
ENDBLK
  5
8158
330
814D
100
AcDbEntity
  8
0
100
AcDbBlockEnd
  0
BLOCK
  5
816F
330
8165
100
AcDbEntity
  8
0
100
AcDbBlockBegin
  2
*D13
 70
     1
 10
0.0
 20
0.0
 30
0.0
  3
*D13
  1

  0
LINE
  5
9E3D
330
8165
100
AcDbEntity
  8
30
  6
Continuous
 62
     0
370
    -2
100
AcDbLine
 10
-122.5000649999992
 20
-606.0
 30
0.0
 11
-122.5000649999992
 21
-780.5
 31
0.0
  0
LINE
  5
9E3E
330
8165
100
AcDbEntity
  8
30
  6
Continuous
 62
     0
370
    -2
100
AcDbLine
 10
192.5000600000003
 20
-606.0
 30
0.0
 11
192.5000600000003
 21
-780.5
 31
0.0
  0
LINE
  5
9E3F
330
8165
100
AcDbEntity
  8
30
  6
Continuous
 62
     0
370
    -2
100
AcDbLine
 10
-120.5000649999992
 20
-780.0
 30
0.0
 11
190.5000600000002
 21
-780.0
 31
0.0
  0
INSERT
  5
9E40
330
8165
100
AcDbEntity
  8
30
  6
Continuous
 62
     0
370
    -2
100
AcDbBlockReference
  2
_OPEN
 10
-122.5000649999992
 20
-780.0
 30
0.0
 41
2.0
 42
2.0
 43
2.0
 50
180.0
  0
INSERT
  5
9E41
330
8165
100
AcDbEntity
  8
30
  6
Continuous
 62
     0
370
    -2
100
AcDbBlockReference
  2
_OPEN
 10
192.5000600000003
 20
-780.0
 30
0.0
 41
2.0
 42
2.0
 43
2.0
  0
MTEXT
  5
9E42
330
8165
100
AcDbEntity
  8
30
  6
Continuous
 62
     0
100
AcDbMText
 10
34.99999750000051
 20
-774.0
 30
0.0
 40
6.0
 41
0.0
 71
     5
 72
     1
  1
\A1; 315 
 73
     1
 44
1.0
  0
POINT
  5
9E43
330
8165
100
AcDbEntity
  8
DEFPOINTS
  6
Continuous
 62
     0
100
AcDbPoint
 10
-122.5000649999992
 20
-603.0
 30
0.0
  0
POINT
  5
9E44
330
8165
100
AcDbEntity
  8
DEFPOINTS
  6
Continuous
 62
     0
100
AcDbPoint
 10
192.5000600000003
 20
-603.0
 30
0.0
  0
POINT
  5
9E45
330
8165
100
AcDbEntity
  8
DEFPOINTS
  6
Continuous
 62
     0
100
AcDbPoint
 10
192.5000600000003
 20
-780.0
 30
0.0
  0
ENDBLK
  5
8170
330
8165
100
AcDbEntity
  8
0
100
AcDbBlockEnd
  0
BLOCK
  5
817B
330
8171
100
AcDbEntity
  8
0
100
AcDbBlockBegin
  2
*D14
 70
     1
 10
0.0
 20
0.0
 30
0.0
  3
*D14
  1

  0
LINE
  5
9DE6
330
8171
100
AcDbEntity
  8
30
  6
Continuous
 62
     0
370
    -2
100
AcDbLine
 10
0.0000000000000002
 20
539.6309358295168
 30
0.0
 11
0.0000000000000036
 21
595.2268108295168
 31
0.0
  0
LINE
  5
9DE7
330
8171
100
AcDbEntity
  8
30
  6
Continuous
 62
     0
370
    -2
100
AcDbLine
 10
70.0
 20
539.6309358295168
 30
0.0
 11
70.0
 21
595.2268108295168
 31
0.0
  0
LINE
  5
9DE8
330
8171
100
AcDbEntity
  8
30
  6
Continuous
 62
     0
370
    -2
100
AcDbLine
 10
2.000000000000003
 20
594.7268108295168
 30
0.0
 11
68.0
 21
594.7268108295168
 31
0.0
  0
INSERT
  5
9DE9
330
8171
100
AcDbEntity
  8
30
  6
Continuous
 62
     0
370
    -2
100
AcDbBlockReference
  2
_OPEN
 10
0.0000000000000036
 20
594.7268108295168
 30
0.0
 41
2.0
 42
2.0
 43
2.0
 50
180.0
  0
INSERT
  5
9DEA
330
8171
100
AcDbEntity
  8
30
  6
Continuous
 62
     0
370
    -2
100
AcDbBlockReference
  2
_OPEN
 10
70.0
 20
594.7268108295168
 30
0.0
 41
2.0
 42
2.0
 43
2.0
  0
MTEXT
  5
9DEB
330
8171
100
AcDbEntity
  8
30
  6
Continuous
 62
     0
100
AcDbMText
 10
35.0
 20
600.7268108295168
 30
0.0
 40
6.0
 41
0.0
 71
     5
 72
     1
  1
\A1; 70 
 73
     1
 44
1.0
  0
POINT
  5
9DEC
330
8171
100
AcDbEntity
  8
DEFPOINTS
  6
Continuous
 62
     0
100
AcDbPoint
 10
0.0
 20
536.6309358295167
 30
0.0
  0
POINT
  5
9DED
330
8171
100
AcDbEntity
  8
DEFPOINTS
  6
Continuous
 62
     0
100
AcDbPoint
 10
70.0
 20
536.6309358295167
 30
0.0
  0
POINT
  5
9DEE
330
8171
100
AcDbEntity
  8
DEFPOINTS
  6
Continuous
 62
     0
100
AcDbPoint
 10
70.0
 20
594.7268108295168
 30
0.0
  0
ENDBLK
  5
817C
330
8171
100
AcDbEntity
  8
0
100
AcDbBlockEnd
  0
BLOCK
  5
8187
330
817D
100
AcDbEntity
  8
0
100
AcDbBlockBegin
  2
*D15
 70
     1
 10
0.0
 20
0.0
 30
0.0
  3
*D15
  1

  0
LINE
  5
9DDD
330
817D
100
AcDbEntity
  8
30
  6
Continuous
 62
     0
370
    -2
100
AcDbLine
 10
-70.0
 20
580.6309358295168
 30
0.0
 11
-70.0
 21
595.2268108295168
 31
0.0
  0
LINE
  5
9DDE
330
817D
100
AcDbEntity
  8
30
  6
Continuous
 62
     0
370
    -2
100
AcDbLine
 10
0.0000000000000002
 20
539.6309358295168
 30
0.0
 11
0.0000000000000036
 21
595.2268108295168
 31
0.0
  0
LINE
  5
9DDF
330
817D
100
AcDbEntity
  8
30
  6
Continuous
 62
     0
370
    -2
100
AcDbLine
 10
-68.0
 20
594.7268108295168
 30
0.0
 11
-1.999999999999996
 21
594.7268108295168
 31
0.0
  0
INSERT
  5
9DE0
330
817D
100
AcDbEntity
  8
30
  6
Continuous
 62
     0
370
    -2
100
AcDbBlockReference
  2
_OPEN
 10
-70.0
 20
594.7268108295168
 30
0.0
 41
2.0
 42
2.0
 43
2.0
 50
180.0
  0
INSERT
  5
9DE1
330
817D
100
AcDbEntity
  8
30
  6
Continuous
 62
     0
370
    -2
100
AcDbBlockReference
  2
_OPEN
 10
0.0000000000000036
 20
594.7268108295168
 30
0.0
 41
2.0
 42
2.0
 43
2.0
  0
MTEXT
  5
9DE2
330
817D
100
AcDbEntity
  8
30
  6
Continuous
 62
     0
100
AcDbMText
 10
-35.0
 20
600.7268108295168
 30
0.0
 40
6.0
 41
0.0
 71
     5
 72
     1
  1
\A1; 70 
 73
     1
 44
1.0
  0
POINT
  5
9DE3
330
817D
100
AcDbEntity
  8
DEFPOINTS
  6
Continuous
 62
     0
100
AcDbPoint
 10
-70.0
 20
577.6309358295168
 30
0.0
  0
POINT
  5
9DE4
330
817D
100
AcDbEntity
  8
DEFPOINTS
  6
Continuous
 62
     0
100
AcDbPoint
 10
0.0
 20
536.6309358295167
 30
0.0
  0
POINT
  5
9DE5
330
817D
100
AcDbEntity
  8
DEFPOINTS
  6
Continuous
 62
     0
100
AcDbPoint
 10
0.0000000000000036
 20
594.7268108295168
 30
0.0
  0
ENDBLK
  5
8188
330
817D
100
AcDbEntity
  8
0
100
AcDbBlockEnd
  0
BLOCK
  5
81C8
330
81BD
100
AcDbEntity
  8
0
100
AcDbBlockBegin
  2
*D16
 70
     1
 10
0.0
 20
0.0
 30
0.0
  3
*D16
  1

  0
LINE
  5
9D89
330
81BD
100
AcDbEntity
  8
30
  6
Continuous
 62
     0
370
    -2
100
AcDbLine
 10
551.0000000000009
 20
-135.4999999999998
 30
0.0
 11
546.4999999999999
 21
-135.4999999999998
 31
0.0
  0
LINE
  5
9D8A
330
81BD
100
AcDbEntity
  8
30
  6
Continuous
 62
     0
370
    -2
100
AcDbLine
 10
551.0000000000009
 20
-122.5
 30
0.0
 11
546.4999999999999
 21
-122.5
 31
0.0
  0
LINE
  5
9D8B
330
81BD
100
AcDbEntity
  8
30
  6
Continuous
 62
     0
370
    -2
100
AcDbLine
 10
547.0
 20
-133.4999999999998
 30
0.0
 11
547.0
 21
-124.5
 31
0.0
  0
INSERT
  5
9D8C
330
81BD
100
AcDbEntity
  8
30
  6
Continuous
 62
     0
370
    -2
100
AcDbBlockReference
  2
_OPEN
 10
547.0
 20
-135.4999999999998
 30
0.0
 41
2.0
 42
2.0
 43
2.0
 50
270.0
  0
INSERT
  5
9D8D
330
81BD
100
AcDbEntity
  8
30
  6
Continuous
 62
     0
370
    -2
100
AcDbBlockReference
  2
_OPEN
 10
547.0
 20
-122.5
 30
0.0
 41
2.0
 42
2.0
 43
2.0
 50
90.0
  0
MTEXT
  5
9D8E
330
81BD
100
AcDbEntity
  8
30
  6
Continuous
 62
     0
100
AcDbMText
 10
541.0
 20
-128.9999999999998
 30
0.0
 40
6.0
 41
0.0
 71
     5
 72
     1
  1
\A1; 13 
 11
0.0000000000000001
 21
1.0
 31
0.0
 73
     1
 44
1.0
  0
POINT
  5
9D8F
330
81BD
100
AcDbEntity
  8
DEFPOINTS
  6
Continuous
 62
     0
100
AcDbPoint
 10
554.0000000000008
 20
-135.4999999999998
 30
0.0
  0
POINT
  5
9D90
330
81BD
100
AcDbEntity
  8
DEFPOINTS
  6
Continuous
 62
     0
100
AcDbPoint
 10
554.0000000000008
 20
-122.5
 30
0.0
  0
POINT
  5
9D91
330
81BD
100
AcDbEntity
  8
DEFPOINTS
  6
Continuous
 62
     0
100
AcDbPoint
 10
547.0
 20
-122.5
 30
0.0
  0
ENDBLK
  5
81C9
330
81BD
100
AcDbEntity
  8
0
100
AcDbBlockEnd
  0
BLOCK
  5
81EF
330
81E4
100
AcDbEntity
  8
0
100
AcDbBlockBegin
  2
*D17
 70
     1
 10
0.0
 20
0.0
 30
0.0
  3
*D17
  1

  0
LINE
  5
9D36
330
81E4
100
AcDbEntity
  8
30
  6
Continuous
 62
     0
370
    -2
100
AcDbLine
 10
521.0000000000008
 20
-0.0000000000000577
 30
0.0
 11
680.4999999999999
 21
-0.0000000000001029
 31
0.0
  0
LINE
  5
9D37
330
81E4
100
AcDbEntity
  8
30
  6
Continuous
 62
     0
370
    -2
100
AcDbLine
 10
637.0
 20
129.0
 30
0.0
 11
680.4999999999999
 21
129.0
 31
0.0
  0
LINE
  5
9D38
330
81E4
100
AcDbEntity
  8
30
  6
Continuous
 62
     0
370
    -2
100
AcDbLine
 10
680.0
 20
1.999999999999897
 30
0.0
 11
680.0
 21
126.9999999999999
 31
0.0
  0
INSERT
  5
9D39
330
81E4
100
AcDbEntity
  8
30
  6
Continuous
 62
     0
370
    -2
100
AcDbBlockReference
  2
_OPEN
 10
680.0
 20
-0.0000000000001027
 30
0.0
 41
2.0
 42
2.0
 43
2.0
 50
270.0
  0
INSERT
  5
9D3A
330
81E4
100
AcDbEntity
  8
30
  6
Continuous
 62
     0
370
    -2
100
AcDbBlockReference
  2
_OPEN
 10
680.0
 20
129.0
 30
0.0
 41
2.0
 42
2.0
 43
2.0
 50
90.0
  0
MTEXT
  5
9D3B
330
81E4
100
AcDbEntity
  8
30
  6
Continuous
 62
     0
100
AcDbMText
 10
674.0
 20
64.50000000000006
 30
0.0
 40
6.0
 41
0.0
 71
     5
 72
     1
  1
\A1; 129 
 11
0.0000000000000001
 21
1.0
 31
0.0
 73
     1
 44
1.0
  0
POINT
  5
9D3C
330
81E4
100
AcDbEntity
  8
DEFPOINTS
  6
Continuous
 62
     0
100
AcDbPoint
 10
518.0000000000009
 20
-0.0000000000000568
 30
0.0
  0
POINT
  5
9D3D
330
81E4
100
AcDbEntity
  8
DEFPOINTS
  6
Continuous
 62
     0
100
AcDbPoint
 10
634.0
 20
129.0
 30
0.0
  0
POINT
  5
9D3E
330
81E4
100
AcDbEntity
  8
DEFPOINTS
  6
Continuous
 62
     0
100
AcDbPoint
 10
680.0
 20
129.0
 30
0.0
  0
ENDBLK
  5
81F0
330
81E4
100
AcDbEntity
  8
0
100
AcDbBlockEnd
  0
BLOCK
  5
81FC
330
81F1
100
AcDbEntity
  8
0
100
AcDbBlockBegin
  2
*D18
 70
     1
 10
0.0
 20
0.0
 30
0.0
  3
*D18
  1

  0
LINE
  5
9D52
330
81F1
100
AcDbEntity
  8
30
  6
Continuous
 62
     0
370
    -2
100
AcDbLine
 10
641.5539000000007
 20
-129.0
 30
0.0
 11
680.4999999999999
 21
-129.0
 31
0.0
  0
LINE
  5
9D53
330
81F1
100
AcDbEntity
  8
30
  6
Continuous
 62
     0
370
    -2
100
AcDbLine
 10
516.0000000000009
 20
-0.0000000000000577
 30
0.0
 11
680.4999999999999
 21
-0.0000000000001043
 31
0.0
  0
LINE
  5
9D54
330
81F1
100
AcDbEntity
  8
30
  6
Continuous
 62
     0
370
    -2
100
AcDbLine
 10
680.0
 20
-127.0
 30
0.0
 11
680.0
 21
-2.000000000000103
 31
0.0
  0
INSERT
  5
9D55
330
81F1
100
AcDbEntity
  8
30
  6
Continuous
 62
     0
370
    -2
100
AcDbBlockReference
  2
_OPEN
 10
680.0
 20
-129.0
 30
0.0
 41
2.0
 42
2.0
 43
2.0
 50
270.0
  0
INSERT
  5
9D56
330
81F1
100
AcDbEntity
  8
30
  6
Continuous
 62
     0
370
    -2
100
AcDbBlockReference
  2
_OPEN
 10
680.0
 20
-0.0000000000001042
 30
0.0
 41
2.0
 42
2.0
 43
2.0
 50
90.0
  0
MTEXT
  5
9D57
330
81F1
100
AcDbEntity
  8
30
  6
Continuous
 62
     0
100
AcDbMText
 10
674.0
 20
-64.49999999999997
 30
0.0
 40
6.0
 41
0.0
 71
     5
 72
     1
  1
\A1; 129 
 11
0.0000000000000001
 21
1.0
 31
0.0
 73
     1
 44
1.0
  0
POINT
  5
9D58
330
81F1
100
AcDbEntity
  8
DEFPOINTS
  6
Continuous
 62
     0
100
AcDbPoint
 10
638.5539000000008
 20
-129.0
 30
0.0
  0
POINT
  5
9D59
330
81F1
100
AcDbEntity
  8
DEFPOINTS
  6
Continuous
 62
     0
100
AcDbPoint
 10
513.0000000000008
 20
-0.0000000000000568
 30
0.0
  0
POINT
  5
9D5A
330
81F1
100
AcDbEntity
  8
DEFPOINTS
  6
Continuous
 62
     0
100
AcDbPoint
 10
680.0
 20
-0.0000000000001042
 30
0.0
  0
ENDBLK
  5
81FD
330
81F1
100
AcDbEntity
  8
0
100
AcDbBlockEnd
  0
BLOCK
  5
8209
330
81FE
100
AcDbEntity
  8
0
100
AcDbBlockBegin
  2
*D19
 70
     1
 10
0.0
 20
0.0
 30
0.0
  3
*D19
  1

  0
LINE
  5
9D3F
330
81FE
100
AcDbEntity
  8
30
  6
Continuous
 62
     0
370
    -2
100
AcDbLine
 10
641.5539000000007
 20
-129.0
 30
0.0
 11
700.4999999999999
 21
-129.0
 31
0.0
  0
LINE
  5
9D40
330
81FE
100
AcDbEntity
  8
30
  6
Continuous
 62
     0
370
    -2
100
AcDbLine
 10
637.0
 20
129.0
 30
0.0
 11
700.4999999999999
 21
129.0
 31
0.0
  0
LINE
  5
9D41
330
81FE
100
AcDbEntity
  8
30
  6
Continuous
 62
     0
370
    -2
100
AcDbLine
 10
700.0
 20
-127.0
 30
0.0
 11
700.0
 21
126.9999999999999
 31
0.0
  0
INSERT
  5
9D42
330
81FE
100
AcDbEntity
  8
30
  6
Continuous
 62
     0
370
    -2
100
AcDbBlockReference
  2
_OPEN
 10
700.0
 20
-129.0
 30
0.0
 41
2.0
 42
2.0
 43
2.0
 50
270.0
  0
INSERT
  5
9D43
330
81FE
100
AcDbEntity
  8
30
  6
Continuous
 62
     0
370
    -2
100
AcDbBlockReference
  2
_OPEN
 10
700.0
 20
129.0
 30
0.0
 41
2.0
 42
2.0
 43
2.0
 50
90.0
  0
MTEXT
  5
9D44
330
81FE
100
AcDbEntity
  8
30
  6
Continuous
 62
     0
100
AcDbMText
 10
694.0
 20
0.0000000000000716
 30
0.0
 40
6.0
 41
0.0
 71
     5
 72
     1
  1
\A1; 258 
 11
0.0000000000000001
 21
1.0
 31
0.0
 73
     1
 44
1.0
  0
POINT
  5
9D45
330
81FE
100
AcDbEntity
  8
DEFPOINTS
  6
Continuous
 62
     0
100
AcDbPoint
 10
638.5539000000008
 20
-129.0
 30
0.0
  0
POINT
  5
9D46
330
81FE
100
AcDbEntity
  8
DEFPOINTS
  6
Continuous
 62
     0
100
AcDbPoint
 10
634.0
 20
129.0
 30
0.0
  0
POINT
  5
9D47
330
81FE
100
AcDbEntity
  8
DEFPOINTS
  6
Continuous
 62
     0
100
AcDbPoint
 10
700.0
 20
129.0
 30
0.0
  0
ENDBLK
  5
820A
330
81FE
100
AcDbEntity
  8
0
100
AcDbBlockEnd
  0
BLOCK
  5
8216
330
820B
100
AcDbEntity
  8
0
100
AcDbBlockBegin
  2
*D20
 70
     1
 10
0.0
 20
0.0
 30
0.0
  3
*D20
  1

  0
LINE
  5
9D9B
330
820B
100
AcDbEntity
  8
30
  6
Continuous
 62
     0
370
    -2
100
AcDbLine
 10
622.0000000000009
 20
123.0000000000001
 30
0.0
 11
634.4999999999999
 21
123.0000000000001
 31
0.0
  0
LINE
  5
9D9C
330
820B
100
AcDbEntity
  8
30
  6
Continuous
 62
     0
370
    -2
100
AcDbLine
 10
622.0000000000009
 20
134.9999999999999
 30
0.0
 11
634.4999999999999
 21
134.9999999999999
 31
0.0
  0
LINE
  5
9D9D
330
820B
100
AcDbEntity
  8
30
  6
Continuous
 62
     0
370
    -2
100
AcDbLine
 10
634.0
 20
125.0000000000001
 30
0.0
 11
634.0
 21
132.9999999999999
 31
0.0
  0
INSERT
  5
9D9E
330
820B
100
AcDbEntity
  8
30
  6
Continuous
 62
     0
370
    -2
100
AcDbBlockReference
  2
_OPEN
 10
634.0
 20
123.0000000000001
 30
0.0
 41
2.0
 42
2.0
 43
2.0
 50
270.0
  0
INSERT
  5
9D9F
330
820B
100
AcDbEntity
  8
30
  6
Continuous
 62
     0
370
    -2
100
AcDbBlockReference
  2
_OPEN
 10
634.0
 20
134.9999999999999
 30
0.0
 41
2.0
 42
2.0
 43
2.0
 50
90.0
  0
MTEXT
  5
9DA0
330
820B
100
AcDbEntity
  8
30
  6
Continuous
 62
     0
100
AcDbMText
 10
628.0
 20
129.0000000000001
 30
0.0
 40
6.0
 41
0.0
 71
     5
 72
     1
  1
\A1;12 
 11
0.0000000000000001
 21
1.0
 31
0.0
 73
     1
 44
1.0
  0
POINT
  5
9DA1
330
820B
100
AcDbEntity
  8
DEFPOINTS
  6
Continuous
 62
     0
100
AcDbPoint
 10
619.0000000000009
 20
123.0000000000001
 30
0.0
  0
POINT
  5
9DA2
330
820B
100
AcDbEntity
  8
DEFPOINTS
  6
Continuous
 62
     0
100
AcDbPoint
 10
619.0000000000009
 20
134.9999999999999
 30
0.0
  0
POINT
  5
9DA3
330
820B
100
AcDbEntity
  8
DEFPOINTS
  6
Continuous
 62
     0
100
AcDbPoint
 10
634.0
 20
134.9999999999999
 30
0.0
  0
ENDBLK
  5
8217
330
820B
100
AcDbEntity
  8
0
100
AcDbBlockEnd
  0
BLOCK
  5
94E2
330
94D8
100
AcDbEntity
  8
0
100
AcDbBlockBegin
  2
*D21
 70
     1
 10
0.0
 20
0.0
 30
0.0
  3
*D21
  1

  0
LINE
  5
9589
330
94D8
100
AcDbEntity
  8
30
  6
Continuous
 62
     0
370
    -2
100
AcDbLine
 10
-135.0000649999997
 20
-412.9999999999999
 30
0.0
 11
-157.4999999999999
 21
-412.9999999999999
 31
0.0
  0
LINE
  5
958A
330
94D8
100
AcDbEntity
  8
30
  6
Continuous
 62
     0
370
    -2
100
AcDbLine
 10
-135.0000649999997
 20
-598.0
 30
0.0
 11
-157.5
 21
-598.0
 31
0.0
  0
LINE
  5
958B
330
94D8
100
AcDbEntity
  8
30
  6
Continuous
 62
     0
370
    -2
100
AcDbLine
 10
-156.9999999999999
 20
-414.9999999999998
 30
0.0
 11
-157.0
 21
-596.0
 31
0.0
  0
INSERT
  5
958C
330
94D8
100
AcDbEntity
  8
30
  6
Continuous
 62
     0
370
    -2
100
AcDbBlockReference
  2
_OPEN
 10
-156.9999999999999
 20
-412.9999999999999
 30
0.0
 41
2.0
 42
2.0
 43
2.0
 50
90.0
  0
INSERT
  5
958D
330
94D8
100
AcDbEntity
  8
30
  6
Continuous
 62
     0
370
    -2
100
AcDbBlockReference
  2
_OPEN
 10
-157.0
 20
-598.0
 30
0.0
 41
2.0
 42
2.0
 43
2.0
 50
270.0
  0
MTEXT
  5
958E
330
94D8
100
AcDbEntity
  8
30
  6
Continuous
 62
     0
100
AcDbMText
 10
-162.9999999999999
 20
-505.4999999999999
 30
0.0
 40
6.0
 41
0.0
 71
     5
 72
     1
  1
\A1;185
 11
0.0000000000000001
 21
1.0
 31
0.0
 73
     1
 44
1.0
  0
POINT
  5
958F
330
94D8
100
AcDbEntity
  8
DEFPOINTS
  6
Continuous
 62
     0
100
AcDbPoint
 10
-132.0000649999997
 20
-412.9999999999999
 30
0.0
  0
POINT
  5
9590
330
94D8
100
AcDbEntity
  8
DEFPOINTS
  6
Continuous
 62
     0
100
AcDbPoint
 10
-132.0000649999997
 20
-598.0
 30
0.0
  0
POINT
  5
9591
330
94D8
100
AcDbEntity
  8
DEFPOINTS
  6
Continuous
 62
     0
100
AcDbPoint
 10
-157.0
 20
-598.0
 30
0.0
  0
ENDBLK
  5
94E3
330
94D8
100
AcDbEntity
  8
0
100
AcDbBlockEnd
  0
BLOCK
  5
94EE
330
94E5
100
AcDbEntity
  8
0
100
AcDbBlockBegin
  2
*D22
 70
     1
 10
0.0
 20
0.0
 30
0.0
  3
*D22
  1

  0
LINE
  5
9581
330
94E5
100
AcDbEntity
  8
30
  6
Continuous
 62
     0
370
    -2
100
AcDbLine
 10
-125.9600337313512
 20
-407.4973991260431
 30
0.0
 11
-136.3333983333327
 21
-391.0
 31
0.0
  0
LINE
  5
9582
330
94E5
100
AcDbEntity
  8
30
  6
Continuous
 62
     0
370
    -2
100
AcDbLine
 10
-136.3333983333327
 20
-391.0
 30
0.0
 11
-149.3333983333327
 21
-391.0
 31
0.0
  0
INSERT
  5
9583
330
94E5
100
AcDbEntity
  8
30
  6
Continuous
 62
     0
370
    -2
100
AcDbBlockReference
  2
_OPEN
 10
-124.8954279678585
 20
-409.1905070872606
 30
0.0
 41
2.0
 42
2.0
 43
2.0
 50
302.1611837200986
  0
MTEXT
  5
9584
330
94E5
100
AcDbEntity
  8
30
  6
Continuous
 62
     0
100
AcDbMText
 10
-144.3333983333328
 20
-385.0
 30
0.0
 40
6.0
 41
0.0
 71
     5
 72
     1
  1
\A1;\U+22059
 73
     1
 44
1.0
  0
LINE
  5
9585
330
94E5
100
AcDbEntity
  8
30
  6
Continuous
 62
     0
370
    -2
100
AcDbLine
 10
-122.5900649999997
 20
-412.9999999999999
 30
0.0
 11
-122.4100649999997
 21
-412.9999999999999
 31
0.0
  0
LINE
  5
9586
330
94E5
100
AcDbEntity
  8
30
  6
Continuous
 62
     0
370
    -2
100
AcDbLine
 10
-122.5000649999998
 20
-413.0899999999999
 30
0.0
 11
-122.5000649999997
 21
-412.9099999999999
 31
0.0
  0
POINT
  5
9587
330
94E5
100
AcDbEntity
  8
DEFPOINTS
  6
Continuous
 62
     0
100
AcDbPoint
 10
-124.8954279678585
 20
-409.1905070872606
 30
0.0
  0
POINT
  5
9588
330
94E5
100
AcDbEntity
  8
DEFPOINTS
  6
Continuous
 62
     0
100
AcDbPoint
 10
-120.1047020321409
 20
-416.8094929127392
 30
0.0
  0
ENDBLK
  5
94EF
330
94E5
100
AcDbEntity
  8
0
100
AcDbBlockEnd
  0
BLOCK
  5
9526
330
951C
100
AcDbEntity
  8
0
100
AcDbBlockBegin
  2
*D23
 70
     1
 10
0.0
 20
0.0
 30
0.0
  3
*D23
  1

  0
LINE
  5
9E4F
330
951C
100
AcDbEntity
  8
30
  6
Continuous
 62
     0
370
    -2
100
AcDbLine
 10
-134.0
 20
-212.9999999999999
 30
0.0
 11
-134.0
 21
-240.5
 31
0.0
  0
LINE
  5
9E50
330
951C
100
AcDbEntity
  8
30
  6
Continuous
 62
     0
370
    -2
100
AcDbLine
 10
204.0
 20
-212.9999999999999
 30
0.0
 11
204.0
 21
-240.5
 31
0.0
  0
LINE
  5
9E51
330
951C
100
AcDbEntity
  8
30
  6
Continuous
 62
     0
370
    -2
100
AcDbLine
 10
-132.0
 20
-240.0
 30
0.0
 11
202.0
 21
-240.0
 31
0.0
  0
INSERT
  5
9E52
330
951C
100
AcDbEntity
  8
30
  6
Continuous
 62
     0
370
    -2
100
AcDbBlockReference
  2
_OPEN
 10
-134.0
 20
-240.0
 30
0.0
 41
2.0
 42
2.0
 43
2.0
 50
180.0
  0
INSERT
  5
9E53
330
951C
100
AcDbEntity
  8
30
  6
Continuous
 62
     0
370
    -2
100
AcDbBlockReference
  2
_OPEN
 10
204.0
 20
-240.0
 30
0.0
 41
2.0
 42
2.0
 43
2.0
  0
MTEXT
  5
9E54
330
951C
100
AcDbEntity
  8
30
  6
Continuous
 62
     0
100
AcDbMText
 10
35.0
 20
-234.0
 30
0.0
 40
6.0
 41
0.0
 71
     5
 72
     1
  1
\A1;338
 73
     1
 44
1.0
  0
POINT
  5
9E55
330
951C
100
AcDbEntity
  8
DEFPOINTS
  6
Continuous
 62
     0
100
AcDbPoint
 10
-134.0
 20
-209.9999999999999
 30
0.0
  0
POINT
  5
9E56
330
951C
100
AcDbEntity
  8
DEFPOINTS
  6
Continuous
 62
     0
100
AcDbPoint
 10
204.0
 20
-209.9999999999999
 30
0.0
  0
POINT
  5
9E57
330
951C
100
AcDbEntity
  8
DEFPOINTS
  6
Continuous
 62
     0
100
AcDbPoint
 10
204.0
 20
-240.0
 30
0.0
  0
ENDBLK
  5
9527
330
951C
100
AcDbEntity
  8
0
100
AcDbBlockEnd
  0
BLOCK
  5
9540
330
9536
100
AcDbEntity
  8
0
100
AcDbBlockBegin
  2
*D24
 70
     1
 10
0.0
 20
0.0
 30
0.0
  3
*D24
  1

  0
LINE
  5
956F
330
9536
100
AcDbEntity
  8
30
  6
Continuous
 62
     0
370
    -2
100
AcDbLine
 10
-137.0
 20
210.0
 30
0.0
 11
-180.4999999999999
 21
210.0
 31
0.0
  0
LINE
  5
9570
330
9536
100
AcDbEntity
  8
30
  6
Continuous
 62
     0
370
    -2
100
AcDbLine
 10
-137.0
 20
-209.9999999999999
 30
0.0
 11
-180.5
 21
-209.9999999999999
 31
0.0
  0
LINE
  5
9571
330
9536
100
AcDbEntity
  8
30
  6
Continuous
 62
     0
370
    -2
100
AcDbLine
 10
-179.9999999999999
 20
208.0
 30
0.0
 11
-180.0
 21
-207.9999999999999
 31
0.0
  0
INSERT
  5
9572
330
9536
100
AcDbEntity
  8
30
  6
Continuous
 62
     0
370
    -2
100
AcDbBlockReference
  2
_OPEN
 10
-179.9999999999999
 20
210.0
 30
0.0
 41
2.0
 42
2.0
 43
2.0
 50
90.0
  0
INSERT
  5
9573
330
9536
100
AcDbEntity
  8
30
  6
Continuous
 62
     0
370
    -2
100
AcDbBlockReference
  2
_OPEN
 10
-180.0
 20
-209.9999999999999
 30
0.0
 41
2.0
 42
2.0
 43
2.0
 50
270.0
  0
MTEXT
  5
9574
330
9536
100
AcDbEntity
  8
30
  6
Continuous
 62
     0
100
AcDbMText
 10
-186.0
 20
0.0000000000000394
 30
0.0
 40
6.0
 41
0.0
 71
     5
 72
     1
  1
\A1;420
 11
0.0000000000000001
 21
1.0
 31
0.0
 73
     1
 44
1.0
  0
POINT
  5
9575
330
9536
100
AcDbEntity
  8
DEFPOINTS
  6
Continuous
 62
     0
100
AcDbPoint
 10
-134.0
 20
210.0
 30
0.0
  0
POINT
  5
9576
330
9536
100
AcDbEntity
  8
DEFPOINTS
  6
Continuous
 62
     0
100
AcDbPoint
 10
-134.0
 20
-209.9999999999999
 30
0.0
  0
POINT
  5
9577
330
9536
100
AcDbEntity
  8
DEFPOINTS
  6
Continuous
 62
     0
100
AcDbPoint
 10
-180.0
 20
-209.9999999999999
 30
0.0
  0
ENDBLK
  5
9541
330
9536
100
AcDbEntity
  8
0
100
AcDbBlockEnd
  0
BLOCK
  5
9A15
330
9A0B
100
AcDbEntity
  8
0
100
AcDbBlockBegin
  2
*D25
 70
     1
 10
0.0
 20
0.0
 30
0.0
  3
*D25
  1

  0
LINE
  5
9D92
330
9A0B
100
AcDbEntity
  8
30
  6
Continuous
 62
     0
370
    -2
100
AcDbLine
 10
621.0000000000008
 20
-106.5000000000001
 30
0.0
 11
639.0539000000008
 21
-106.5000000000001
 31
0.0
  0
LINE
  5
9D93
330
9A0B
100
AcDbEntity
  8
30
  6
Continuous
 62
     0
370
    -2
100
AcDbLine
 10
621.0000000000008
 20
-151.5000000000001
 30
0.0
 11
639.0539000000008
 21
-151.5000000000001
 31
0.0
  0
LINE
  5
9D94
330
9A0B
100
AcDbEntity
  8
30
  6
Continuous
 62
     0
370
    -2
100
AcDbLine
 10
638.5539000000008
 20
-108.5000000000001
 30
0.0
 11
638.5539000000008
 21
-149.5000000000001
 31
0.0
  0
INSERT
  5
9D95
330
9A0B
100
AcDbEntity
  8
30
  6
Continuous
 62
     0
370
    -2
100
AcDbBlockReference
  2
_OPEN
 10
638.5539000000008
 20
-106.5000000000001
 30
0.0
 41
2.0
 42
2.0
 43
2.0
 50
90.0
  0
INSERT
  5
9D96
330
9A0B
100
AcDbEntity
  8
30
  6
Continuous
 62
     0
370
    -2
100
AcDbBlockReference
  2
_OPEN
 10
638.5539000000008
 20
-151.5000000000001
 30
0.0
 41
2.0
 42
2.0
 43
2.0
 50
270.0
  0
MTEXT
  5
9D97
330
9A0B
100
AcDbEntity
  8
30
  6
Continuous
 62
     0
100
AcDbMText
 10
632.5539000000008
 20
-129.0
 30
0.0
 40
6.0
 41
0.0
 71
     5
 72
     1
  1
\A1; 45 
 11
0.0000000000000001
 21
1.0
 31
0.0
 73
     1
 44
1.0
  0
POINT
  5
9D98
330
9A0B
100
AcDbEntity
  8
DEFPOINTS
  6
Continuous
 62
     0
100
AcDbPoint
 10
618.0000000000009
 20
-106.5000000000001
 30
0.0
  0
POINT
  5
9D99
330
9A0B
100
AcDbEntity
  8
DEFPOINTS
  6
Continuous
 62
     0
100
AcDbPoint
 10
618.0000000000009
 20
-151.5000000000001
 30
0.0
  0
POINT
  5
9D9A
330
9A0B
100
AcDbEntity
  8
DEFPOINTS
  6
Continuous
 62
     0
100
AcDbPoint
 10
638.5539000000008
 20
-151.5000000000001
 30
0.0
  0
ENDBLK
  5
9A16
330
9A0B
100
AcDbEntity
  8
0
100
AcDbBlockEnd
  0
BLOCK
  5
9DFC
330
9DF2
100
AcDbEntity
  8
0
100
AcDbBlockBegin
  2
*D26
 70
     1
 10
0.0
 20
0.0
 30
0.0
  3
*D26
  1

  0
LINE
  5
9EB2
330
9DF2
100
AcDbEntity
  8
30
  6
Continuous
 62
     0
370
    -2
100
AcDbLine
 10
-108.0
 20
185.0
 30
0.0
 11
-159.4999999999999
 21
185.0
 31
0.0
  0
LINE
  5
9EB3
330
9DF2
100
AcDbEntity
  8
30
  6
Continuous
 62
     0
370
    -2
100
AcDbLine
 10
-137.0
 20
-15.0
 30
0.0
 11
-159.4999999999999
 21
-14.99999999999999
 31
0.0
  0
LINE
  5
9EB4
330
9DF2
100
AcDbEntity
  8
30
  6
Continuous
 62
     0
370
    -2
100
AcDbLine
 10
-158.9999999999999
 20
183.0
 30
0.0
 11
-158.9999999999999
 21
-12.99999999999999
 31
0.0
  0
INSERT
  5
9EB5
330
9DF2
100
AcDbEntity
  8
30
  6
Continuous
 62
     0
370
    -2
100
AcDbBlockReference
  2
_OPEN
 10
-158.9999999999999
 20
185.0
 30
0.0
 41
2.0
 42
2.0
 43
2.0
 50
90.0
  0
INSERT
  5
9EB6
330
9DF2
100
AcDbEntity
  8
30
  6
Continuous
 62
     0
370
    -2
100
AcDbBlockReference
  2
_OPEN
 10
-158.9999999999999
 20
-14.99999999999999
 30
0.0
 41
2.0
 42
2.0
 43
2.0
 50
270.0
  0
MTEXT
  5
9EB7
330
9DF2
100
AcDbEntity
  8
30
  6
Continuous
 62
     0
100
AcDbMText
 10
-164.9999999999999
 20
85.00000000000001
 30
0.0
 40
6.0
 41
0.0
 71
     5
 72
     1
  1
\A1;200
 11
0.0000000000000001
 21
1.0
 31
0.0
 73
     1
 44
1.0
  0
POINT
  5
9EB8
330
9DF2
100
AcDbEntity
  8
DEFPOINTS
  6
Continuous
 62
     0
100
AcDbPoint
 10
-105.0
 20
185.0
 30
0.0
  0
POINT
  5
9EB9
330
9DF2
100
AcDbEntity
  8
DEFPOINTS
  6
Continuous
 62
     0
100
AcDbPoint
 10
-134.0
 20
-15.0
 30
0.0
  0
POINT
  5
9EBA
330
9DF2
100
AcDbEntity
  8
DEFPOINTS
  6
Continuous
 62
     0
100
AcDbPoint
 10
-158.9999999999999
 20
-14.99999999999999
 30
0.0
  0
ENDBLK
  5
9DFD
330
9DF2
100
AcDbEntity
  8
0
100
AcDbBlockEnd
  0
BLOCK
  5
9E09
330
9DFF
100
AcDbEntity
  8
0
100
AcDbBlockBegin
  2
*D27
 70
     1
 10
0.0
 20
0.0
 30
0.0
  3
*D27
  1

  0
LINE
  5
9EA9
330
9DFF
100
AcDbEntity
  8
30
  6
Continuous
 62
     0
370
    -2
100
AcDbLine
 10
-137.0
 20
-15.0
 30
0.0
 11
-159.4999999999999
 21
-14.99999999999999
 31
0.0
  0
LINE
  5
9EAA
330
9DFF
100
AcDbEntity
  8
30
  6
Continuous
 62
     0
370
    -2
100
AcDbLine
 10
-108.0
 20
-184.9999999999999
 30
0.0
 11
-159.4999999999999
 21
-184.9999999999999
 31
0.0
  0
LINE
  5
9EAB
330
9DFF
100
AcDbEntity
  8
30
  6
Continuous
 62
     0
370
    -2
100
AcDbLine
 10
-158.9999999999999
 20
-16.99999999999999
 30
0.0
 11
-159.0
 21
-182.9999999999999
 31
0.0
  0
INSERT
  5
9EAC
330
9DFF
100
AcDbEntity
  8
30
  6
Continuous
 62
     0
370
    -2
100
AcDbBlockReference
  2
_OPEN
 10
-158.9999999999999
 20
-14.99999999999999
 30
0.0
 41
2.0
 42
2.0
 43
2.0
 50
90.0
  0
INSERT
  5
9EAD
330
9DFF
100
AcDbEntity
  8
30
  6
Continuous
 62
     0
370
    -2
100
AcDbBlockReference
  2
_OPEN
 10
-159.0
 20
-184.9999999999999
 30
0.0
 41
2.0
 42
2.0
 43
2.0
 50
270.0
  0
MTEXT
  5
9EAE
330
9DFF
100
AcDbEntity
  8
30
  6
Continuous
 62
     0
100
AcDbMText
 10
-164.9999999999999
 20
-100.0
 30
0.0
 40
6.0
 41
0.0
 71
     5
 72
     1
  1
\A1;170
 11
0.0000000000000001
 21
1.0
 31
0.0
 73
     1
 44
1.0
  0
POINT
  5
9EAF
330
9DFF
100
AcDbEntity
  8
DEFPOINTS
  6
Continuous
 62
     0
100
AcDbPoint
 10
-134.0
 20
-15.0
 30
0.0
  0
POINT
  5
9EB0
330
9DFF
100
AcDbEntity
  8
DEFPOINTS
  6
Continuous
 62
     0
100
AcDbPoint
 10
-105.0
 20
-184.9999999999999
 30
0.0
  0
POINT
  5
9EB1
330
9DFF
100
AcDbEntity
  8
DEFPOINTS
  6
Continuous
 62
     0
100
AcDbPoint
 10
-159.0
 20
-184.9999999999999
 30
0.0
  0
ENDBLK
  5
9E0A
330
9DFF
100
AcDbEntity
  8
0
100
AcDbBlockEnd
  0
BLOCK
  5
9E6E
330
9E64
100
AcDbEntity
  8
0
100
AcDbBlockBegin
  2
*D28
 70
     1
 10
0.0
 20
0.0
 30
0.0
  3
*D28
  1

  0
LINE
  5
9E70
330
9E64
100
AcDbEntity
  8
30
  6
Continuous
 62
     0
370
    -2
100
AcDbLine
 10
70.0
 20
539.6309358295168
 30
0.0
 11
70.0
 21
595.2268108295168
 31
0.0
  0
LINE
  5
9E71
330
9E64
100
AcDbEntity
  8
30
  6
Continuous
 62
     0
370
    -2
100
AcDbLine
 10
140.0
 20
539.6309358295168
 30
0.0
 11
140.0
 21
595.2268108295168
 31
0.0
  0
LINE
  5
9E72
330
9E64
100
AcDbEntity
  8
30
  6
Continuous
 62
     0
370
    -2
100
AcDbLine
 10
72.0
 20
594.7268108295168
 30
0.0
 11
138.0
 21
594.7268108295168
 31
0.0
  0
INSERT
  5
9E73
330
9E64
100
AcDbEntity
  8
30
  6
Continuous
 62
     0
370
    -2
100
AcDbBlockReference
  2
_OPEN
 10
70.0
 20
594.7268108295168
 30
0.0
 41
2.0
 42
2.0
 43
2.0
 50
180.0
  0
INSERT
  5
9E74
330
9E64
100
AcDbEntity
  8
30
  6
Continuous
 62
     0
370
    -2
100
AcDbBlockReference
  2
_OPEN
 10
140.0
 20
594.7268108295168
 30
0.0
 41
2.0
 42
2.0
 43
2.0
  0
MTEXT
  5
9E75
330
9E64
100
AcDbEntity
  8
30
  6
Continuous
 62
     0
100
AcDbMText
 10
105.0
 20
600.7268108295168
 30
0.0
 40
6.0
 41
0.0
 71
     5
 72
     1
  1
\A1; 70 
 73
     1
 44
1.0
  0
POINT
  5
9E76
330
9E64
100
AcDbEntity
  8
DEFPOINTS
  6
Continuous
 62
     0
100
AcDbPoint
 10
70.0
 20
536.6309358295167
 30
0.0
  0
POINT
  5
9E77
330
9E64
100
AcDbEntity
  8
DEFPOINTS
  6
Continuous
 62
     0
100
AcDbPoint
 10
140.0
 20
536.6309358295167
 30
0.0
  0
POINT
  5
9E78
330
9E64
100
AcDbEntity
  8
DEFPOINTS
  6
Continuous
 62
     0
100
AcDbPoint
 10
140.0
 20
594.7268108295168
 30
0.0
  0
ENDBLK
  5
9E6F
330
9E64
100
AcDbEntity
  8
0
100
AcDbBlockEnd
  0
BLOCK
  5
9E95
330
9E8B
100
AcDbEntity
  8
0
100
AcDbBlockBegin
  2
*D29
 70
     1
 10
0.0
 20
0.0
 30
0.0
  3
*D29
  1

  0
LINE
  5
9E8C
330
9E8B
100
AcDbEntity
  8
30
  6
Continuous
 62
     0
370
    -2
100
AcDbLine
 10
503.0000000000009
 20
-188.0
 30
0.0
 11
503.0000000000009
 21
-300.595875
 31
0.0
  0
LINE
  5
9E8D
330
9E8B
100
AcDbEntity
  8
30
  6
Continuous
 62
     0
370
    -2
100
AcDbLine
 10
614.0000000000009
 20
-154.5000000000001
 30
0.0
 11
614.0000000000009
 21
-300.595875
 31
0.0
  0
LINE
  5
9E8E
330
9E8B
100
AcDbEntity
  8
30
  6
Continuous
 62
     0
370
    -2
100
AcDbLine
 10
505.0000000000009
 20
-300.095875
 30
0.0
 11
612.0000000000008
 21
-300.095875
 31
0.0
  0
INSERT
  5
9E8F
330
9E8B
100
AcDbEntity
  8
30
  6
Continuous
 62
     0
370
    -2
100
AcDbBlockReference
  2
_OPEN
 10
503.0000000000009
 20
-300.095875
 30
0.0
 41
2.0
 42
2.0
 43
2.0
 50
180.0
  0
INSERT
  5
9E90
330
9E8B
100
AcDbEntity
  8
30
  6
Continuous
 62
     0
370
    -2
100
AcDbBlockReference
  2
_OPEN
 10
614.0000000000009
 20
-300.095875
 30
0.0
 41
2.0
 42
2.0
 43
2.0
  0
MTEXT
  5
9E91
330
9E8B
100
AcDbEntity
  8
30
  6
Continuous
 62
     0
100
AcDbMText
 10
558.5000000000008
 20
-294.095875
 30
0.0
 40
6.0
 41
0.0
 71
     5
 72
     1
  1
\A1;111
 73
     1
 44
1.0
  0
POINT
  5
9E92
330
9E8B
100
AcDbEntity
  8
DEFPOINTS
  6
Continuous
 62
     0
100
AcDbPoint
 10
503.0000000000009
 20
-185.0
 30
0.0
  0
POINT
  5
9E93
330
9E8B
100
AcDbEntity
  8
DEFPOINTS
  6
Continuous
 62
     0
100
AcDbPoint
 10
614.0000000000009
 20
-151.5000000000001
 30
0.0
  0
POINT
  5
9E94
330
9E8B
100
AcDbEntity
  8
DEFPOINTS
  6
Continuous
 62
     0
100
AcDbPoint
 10
614.0000000000009
 20
-300.095875
 30
0.0
  0
ENDBLK
  5
9E96
330
9E8B
100
AcDbEntity
  8
0
100
AcDbBlockEnd
  0
ENDSEC
  0
SECTION
  2
ENTITIES
  0
MTEXT
  5
BF3
330
1E
100
AcDbEntity
  8
24
  6
Continuous
100
AcDbMText
 10
-974.8818093901256
 20
176.5
 30
0.0
 40
3.0
 41
0.0
 71
     1
 72
     1
  1
\A1;
 73
     1
 44
1.0
  0
DIMENSION
  5
7E8E
330
1E
100
AcDbEntity
  8
30
  6
Continuous
100
AcDbDimension
  2
*D1
 10
600.9313200000006
 20
-135.2064449999997
 30
0.0
 11
586.4744276044901
 21
-114.8838735639433
 31
0.0
 70
    35
 71
     5
 42
12.99999807886979
  3
STANDARD1
100
AcDbDiametricDimension
 15
597.0686800000006
 25
-122.7935499999999
 35
0.0
 40
0.0
  0
DIMENSION
  5
7E99
330
1E
100
AcDbEntity
  8
30
  6
Continuous
100
AcDbDimension
  2
*D2
 10
-47.5
 20
568.2268108295168
 30
0.0
 11
-70.0
 21
574.2268108295168
 31
0.0
 70
    32
  1
 <> 
 71
     5
 42
45.0
  3
STANDARD1
100
AcDbAlignedDimension
 13
-92.5
 23
551.6309358295168
 33
0.0
 14
-47.5
 24
551.6309358295168
 34
0.0
100
AcDbRotatedDimension
  0
DIMENSION
  5
7E9A
330
1E
100
AcDbEntity
  8
30
  6
Continuous
100
AcDbDimension
  2
*D3
 10
664.0002450000006
 20
-55.59587500000003
 30
0.0
 11
594.0001225000007
 21
-49.59587500000004
 31
0.0
 70
    32
  1
 <> 
 71
     5
 42
140.0002449999997
  3
STANDARD1
100
AcDbAlignedDimension
 13
524.0000000000009
 23
-99.00000000000005
 33
0.0
 14
664.0002450000006
 24
-99.00000000000005
 34
0.0
100
AcDbRotatedDimension
  0
DIMENSION
  5
7E9C
330
1E
100
AcDbEntity
  8
30
  6
Continuous
100
AcDbDimension
  2
*D4
 10
559.0000000000009
 20
-225.095875
 30
0.0
 11
549.0000000000009
 21
-219.095875
 31
0.0
 70
    32
  1
 <> 
 71
     5
 42
20.0
  3
STANDARD1
100
AcDbAlignedDimension
 13
539.0000000000009
 23
-161.0
 33
0.0
 14
559.0000000000009
 24
-134.0
 34
0.0
100
AcDbRotatedDimension
  0
DIMENSION
  5
7E9D
330
1E
100
AcDbEntity
  8
30
  6
Continuous
100
AcDbDimension
  2
*D5
 10
614.0000000000009
 20
-225.095875
 30
0.0
 11
624.8000000000009
 21
-219.095875
 31
0.0
 70
    32
  1
 <> 
 71
     5
 42
15.0
  3
STANDARD1
100
AcDbAlignedDimension
 13
599.0000000000009
 23
-134.0
 33
0.0
 14
614.0000000000009
 24
-156.5
 34
0.0
100
AcDbRotatedDimension
  0
DIMENSION
  5
7E9E
330
1E
100
AcDbEntity
  8
30
  6
Continuous
100
AcDbDimension
  2
*D6
 10
599.0000000000009
 20
-225.095875
 30
0.0
 11
583.0000000000008
 21
-219.095875
 31
0.0
 70
    32
  1
 <> 
 71
     5
 42
32.0
  3
STANDARD1
100
AcDbAlignedDimension
 13
567.0000000000008
 23
-134.0
 33
0.0
 14
599.0000000000009
 24
-134.0
 34
0.0
100
AcDbRotatedDimension
  0
DIMENSION
  5
7E9F
330
1E
100
AcDbEntity
  8
30
  6
Continuous
100
AcDbDimension
  2
*D7
 10
567.0000000000008
 20
-225.095875
 30
0.0
 11
563.0000000000008
 21
-225.095875
 31
0.0
 70
   160
  1
<> 
 71
     5
 42
8.0
  3
STANDARD1
100
AcDbAlignedDimension
 13
559.0000000000009
 23
-129.0
 33
0.0
 14
567.0000000000008
 24
-129.0
 34
0.0
100
AcDbRotatedDimension
1001
ACAD
1000
DSTYLE
1002
{
1070
   172
1070
     1
1002
}
  0
DIMENSION
  5
7EA0
330
1E
100
AcDbEntity
  8
30
  6
Continuous
100
AcDbDimension
  2
*D8
 10
332.0000000000009
 20
-300.095875
 30
0.0
 11
292.0000000000009
 21
-294.095875
 31
0.0
 70
    32
  1
 <> 
 71
     5
 42
80.0
  3
STANDARD1
100
AcDbAlignedDimension
 13
252.0000000000009
 23
-17.62015499999989
 33
0.0
 14
332.0000000000009
 24
-17.62015499999989
 34
0.0
100
AcDbRotatedDimension
  0
DIMENSION
  5
7EA1
330
1E
100
AcDbEntity
  8
30
  6
Continuous
100
AcDbDimension
  2
*D9
 10
398.0000000000009
 20
-300.095875
 30
0.0
 11
365.0000000000009
 21
-294.095875
 31
0.0
 70
    32
  1
 <> 
 71
     5
 42
66.0
  3
STANDARD1
100
AcDbAlignedDimension
 13
332.0000000000009
 23
-22.62015499999989
 33
0.0
 14
398.0000000000009
 24
-215.0
 34
0.0
100
AcDbRotatedDimension
  0
DIMENSION
  5
7EA2
330
1E
100
AcDbEntity
  8
30
  6
Continuous
100
AcDbDimension
  2
*D10
 10
398.0000000000009
 20
-262.595875
 30
0.0
 11
389.0000000000009
 21
-256.595875
 31
0.0
 70
    32
  1
 <> 
 71
     5
 42
18.0
  3
STANDARD1
100
AcDbAlignedDimension
 13
380.0000000000009
 23
-215.0
 33
0.0
 14
398.0000000000009
 24
-215.0
 34
0.0
100
AcDbRotatedDimension
  0
DIMENSION
  5
7EA3
330
1E
100
AcDbEntity
  8
30
  6
Continuous
100
AcDbDimension
  2
*D11
 10
503.0000000000009
 20
-300.095875
 30
0.0
 11
450.5000000000008
 21
-294.095875
 31
0.0
 70
    32
  1
 <> 
 71
     5
 42
105.0
  3
STANDARD1
100
AcDbAlignedDimension
 13
398.0000000000009
 23
-255.0
 33
0.0
 14
503.0000000000009
 24
-185.0
 34
0.0
100
AcDbRotatedDimension
  0
DIMENSION
  5
7EA5
330
1E
100
AcDbEntity
  8
30
  6
Continuous
100
AcDbDimension
  2
*D12
 10
182.9999350000007
 20
-760.0958750000001
 30
0.0
 11
34.99993500000073
 21
-754.0958750000002
 31
0.0
 70
    32
  1
 <> 
 71
     5
 42
296.0
  3
STANDARD1
100
AcDbAlignedDimension
 13
-113.0000649999992
 23
-715.5000000000001
 33
0.0
 14
182.9999350000007
 24
-715.5000000000001
 34
0.0
100
AcDbRotatedDimension
  0
DIMENSION
  5
7EA7
330
1E
100
AcDbEntity
  8
30
  6
Continuous
100
AcDbDimension
  2
*D13
 10
192.5000600000003
 20
-780.0
 30
0.0
 11
34.99999750000051
 21
-774.0
 31
0.0
 70
    32
  1
 <> 
 71
     5
 42
315.0001249999995
  3
STANDARD1
100
AcDbAlignedDimension
 13
-122.5000649999992
 23
-603.0
 33
0.0
 14
192.5000600000003
 24
-603.0
 34
0.0
100
AcDbRotatedDimension
  0
DIMENSION
  5
7EA8
330
1E
100
AcDbEntity
  8
30
  6
Continuous
100
AcDbDimension
  2
*D14
 10
70.0
 20
594.7268108295168
 30
0.0
 11
35.0
 21
600.7268108295168
 31
0.0
 70
    32
  1
 <> 
 71
     5
 42
70.0
  3
STANDARD1
100
AcDbAlignedDimension
 13
0.0
 23
536.6309358295167
 33
0.0
 14
70.0
 24
536.6309358295167
 34
0.0
100
AcDbRotatedDimension
  0
DIMENSION
  5
7EA9
330
1E
100
AcDbEntity
  8
30
  6
Continuous
100
AcDbDimension
  2
*D15
 10
0.0000000000000036
 20
594.7268108295168
 30
0.0
 11
-35.0
 21
600.7268108295168
 31
0.0
 70
    32
  1
 <> 
 71
     5
 42
70.0
  3
STANDARD1
100
AcDbAlignedDimension
 13
-70.0
 23
577.6309358295168
 33
0.0
 14
0.0
 24
536.6309358295167
 34
0.0
100
AcDbRotatedDimension
  0
DIMENSION
  5
7EAE
330
1E
100
AcDbEntity
  8
30
  6
Continuous
100
AcDbDimension
  2
*D16
 10
547.0
 20
-122.5
 30
0.0
 11
547.0
 21
-128.9999999999998
 31
0.0
 70
   160
  1
 <> 
 71
     0
 72
     0
 41
0.0
 42
12.99999999999978
  3
STANDARD1
100
AcDbAlignedDimension
 13
554.0000000000008
 23
-135.4999999999998
 33
0.0
 14
554.0000000000008
 24
-122.5
 34
0.0
 50
90.0
100
AcDbRotatedDimension
  0
DIMENSION
  5
7EB1
330
1E
100
AcDbEntity
  8
30
  6
Continuous
100
AcDbDimension
  2
*D17
 10
680.0
 20
129.0
 30
0.0
 11
674.0
 21
64.50000000000006
 31
0.0
 70
    32
  1
 <> 
 71
     0
 72
     0
 41
0.0
 42
129.0
  3
STANDARD1
100
AcDbAlignedDimension
 13
518.0000000000009
 23
-0.0000000000000568
 33
0.0
 14
634.0
 24
129.0
 34
0.0
 50
90.0
100
AcDbRotatedDimension
  0
DIMENSION
  5
7EB2
330
1E
100
AcDbEntity
  8
30
  6
Continuous
100
AcDbDimension
  2
*D18
 10
680.0
 20
-0.0000000000001042
 30
0.0
 11
674.0
 21
-64.49999999999997
 31
0.0
 70
    32
  1
 <> 
 71
     0
 72
     0
 41
0.0
 42
128.9999999999999
  3
STANDARD1
100
AcDbAlignedDimension
 13
638.5539000000008
 23
-129.0
 33
0.0
 14
513.0000000000008
 24
-0.0000000000000568
 34
0.0
 50
90.0
100
AcDbRotatedDimension
  0
DIMENSION
  5
7EB4
330
1E
100
AcDbEntity
  8
30
  6
Continuous
100
AcDbDimension
  2
*D20
 10
634.0
 20
134.9999999999999
 30
0.0
 11
634.0
 21
129.0000000000001
 31
0.0
 70
   160
  1
<> 
 71
     5
 42
11.99999999999977
  3
STANDARD1
100
AcDbAlignedDimension
 13
619.0000000000009
 23
123.0000000000001
 33
0.0
 14
619.0000000000009
 24
134.9999999999999
 34
0.0
 50
90.0
100
AcDbRotatedDimension
  0
LINE
  5
7EF0
330
1E
100
AcDbEntity
  8
12
100
AcDbLine
 10
192.5
 20
-101.9999999999999
 30
0.0
 11
192.5
 21
-82.99999999999988
 31
0.0
  0
LINE
  5
7EF1
330
1E
100
AcDbEntity
  8
12
100
AcDbLine
 10
183.0
 20
-92.50000000000005
 30
0.0
 11
202.0
 21
-92.50000000000005
 31
0.0
  0
LINE
  5
7EF2
330
1E
100
AcDbEntity
  8
12
100
AcDbLine
 10
192.5
 20
83.00000000000016
 30
0.0
 11
192.5
 21
102.0000000000001
 31
0.0
  0
LINE
  5
7EF3
330
1E
100
AcDbEntity
  8
12
100
AcDbLine
 10
183.0
 20
92.49999999999994
 30
0.0
 11
202.0
 21
92.49999999999994
 31
0.0
  0
LINE
  5
7EF4
330
1E
100
AcDbEntity
  8
12
100
AcDbLine
 10
-122.5
 20
-101.9999999999999
 30
0.0
 11
-122.5
 21
-82.99999999999988
 31
0.0
  0
LINE
  5
7EF5
330
1E
100
AcDbEntity
  8
12
100
AcDbLine
 10
-132.0
 20
-92.50000000000005
 30
0.0
 11
-113.0
 21
-92.50000000000005
 31
0.0
  0
LINE
  5
7EF6
330
1E
100
AcDbEntity
  8
12
100
AcDbLine
 10
-122.5
 20
83.00000000000016
 30
0.0
 11
-122.5
 21
102.0000000000001
 31
0.0
  0
LINE
  5
7EF7
330
1E
100
AcDbEntity
  8
12
100
AcDbLine
 10
-132.0
 20
92.49999999999994
 30
0.0
 11
-113.0
 21
92.49999999999994
 31
0.0
  0
LINE
  5
7EF8
330
1E
100
AcDbEntity
  8
12
  6
DASHDOT
 62
     3
100
AcDbLine
 10
-122.5000649999997
 20
-607.5
 30
0.0
 11
-122.5000649999997
 21
-588.4999999999999
 31
0.0
  0
LINE
  5
7EF9
330
1E
100
AcDbEntity
  8
12
  6
DASHDOT
 62
     3
100
AcDbLine
 10
-132.0000649999997
 20
-598.0
 30
0.0
 11
-113.0000649999997
 21
-598.0
 31
0.0
  0
LINE
  5
7EFA
330
1E
100
AcDbEntity
  8
12
  6
DASHDOT
 62
     3
100
AcDbLine
 10
-122.5000649999997
 20
-422.4999999999999
 30
0.0
 11
-122.5000649999997
 21
-403.5
 31
0.0
  0
LINE
  5
7EFB
330
1E
100
AcDbEntity
  8
12
  6
DASHDOT
 62
     3
100
AcDbLine
 10
-132.0000649999997
 20
-412.9999999999999
 30
0.0
 11
-113.0000649999997
 21
-412.9999999999999
 31
0.0
  0
LINE
  5
7EFC
330
1E
100
AcDbEntity
  8
1
  6
CENTER
 62
     3
 48
1.266666999999999
100
AcDbLine
 10
192.5000600000003
 20
-607.5
 30
0.0
 11
192.5000600000003
 21
-588.4999999999999
 31
0.0
  0
LINE
  5
7EFD
330
1E
100
AcDbEntity
  8
12
  6
DASHDOT
 62
     3
100
AcDbLine
 10
183.0000600000003
 20
-598.0
 30
0.0
 11
202.0000600000003
 21
-598.0
 31
0.0
  0
LINE
  5
7EFE
330
1E
100
AcDbEntity
  8
12
  6
DASHDOT
 62
     3
100
AcDbLine
 10
192.5000600000003
 20
-422.4999999999999
 30
0.0
 11
192.5000600000003
 21
-403.5
 31
0.0
  0
LINE
  5
7EFF
330
1E
100
AcDbEntity
  8
12
  6
DASHDOT
 62
     3
100
AcDbLine
 10
183.0000600000003
 20
-412.9999999999999
 30
0.0
 11
202.0000600000003
 21
-412.9999999999999
 31
0.0
  0
LINE
  5
7F08
330
1E
100
AcDbEntity
  8
17
  6
DASHDOT
100
AcDbLine
 10
58.5
 20
499.6309358295168
 30
0.0
 11
81.5
 21
499.6309358295168
 31
0.0
  0
LINE
  5
7F09
330
1E
100
AcDbEntity
  8
17
  6
DASHDOT
100
AcDbLine
 10
58.5
 20
491.6309358295166
 30
0.0
 11
81.5
 21
491.6309358295166
 31
0.0
  0
LINE
  5
7F0A
330
1E
100
AcDbEntity
  8
17
  6
DASHDOT
100
AcDbLine
 10
70.0
 20
511.1309358295168
 30
0.0
 11
70.0
 21
480.1309358295168
 31
0.0
  0
LINE
  5
7F0B
330
1E
100
AcDbEntity
  8
17
  6
DASHDOT
100
AcDbLine
 10
-11.5
 20
499.6309358295168
 30
0.0
 11
11.5
 21
499.6309358295168
 31
0.0
  0
LINE
  5
7F0C
330
1E
100
AcDbEntity
  8
17
  6
DASHDOT
100
AcDbLine
 10
-11.5
 20
491.6309358295166
 30
0.0
 11
11.5
 21
491.6309358295166
 31
0.0
  0
LINE
  5
7F0D
330
1E
100
AcDbEntity
  8
17
  6
DASHDOT
100
AcDbLine
 10
0.0
 20
511.1309358295168
 30
0.0
 11
0.0
 21
480.1309358295168
 31
0.0
  0
LINE
  5
7F0E
330
1E
100
AcDbEntity
  8
17
  6
DASHDOT
100
AcDbLine
 10
-81.5
 20
499.6309358295168
 30
0.0
 11
-58.5
 21
499.6309358295168
 31
0.0
  0
LINE
  5
7F0F
330
1E
100
AcDbEntity
  8
17
  6
DASHDOT
100
AcDbLine
 10
-81.5
 20
491.6309358295166
 30
0.0
 11
-58.5
 21
491.6309358295166
 31
0.0
  0
LINE
  5
7F10
330
1E
100
AcDbEntity
  8
17
  6
DASHDOT
100
AcDbLine
 10
-70.0
 20
511.1309358295168
 30
0.0
 11
-70.0
 21
480.1309358295168
 31
0.0
  0
LINE
  5
7F11
330
1E
100
AcDbEntity
  8
17
  6
DASHDOT
100
AcDbLine
 10
70.0
 20
543.1309358295168
 30
0.0
 11
70.0
 21
520.1309358295168
 31
0.0
  0
LINE
  5
7F12
330
1E
100
AcDbEntity
  8
17
  6
DASHDOT
100
AcDbLine
 10
58.5
 20
531.6309358295167
 30
0.0
 11
81.5
 21
531.6309358295167
 31
0.0
  0
LINE
  5
7F13
330
1E
100
AcDbEntity
  8
17
  6
DASHDOT
100
AcDbLine
 10
0.0
 20
543.1309358295168
 30
0.0
 11
0.0
 21
520.1309358295168
 31
0.0
  0
LINE
  5
7F14
330
1E
100
AcDbEntity
  8
17
  6
DASHDOT
100
AcDbLine
 10
-11.5
 20
531.6309358295167
 30
0.0
 11
11.5
 21
531.6309358295167
 31
0.0
  0
LINE
  5
7F15
330
1E
100
AcDbEntity
  8
17
  6
DASHDOT
100
AcDbLine
 10
-70.0
 20
543.1309358295168
 30
0.0
 11
-70.0
 21
520.1309358295168
 31
0.0
  0
LINE
  5
7F16
330
1E
100
AcDbEntity
  8
17
  6
DASHDOT
100
AcDbLine
 10
-81.5
 20
531.6309358295167
 30
0.0
 11
-58.5
 21
531.6309358295167
 31
0.0
  0
SPLINE
  5
7F3A
330
1E
100
AcDbEntity
  8
18
100
AcDbSpline
210
0.0
220
0.0
230
1.0
 70
     8
 71
     3
 72
    10
 73
     6
 74
     0
 42
0.0000000001
 43
0.0000000001
 40
0.0
 40
0.0
 40
0.0
 40
0.0
 40
0.3333333333333333
 40
0.6666666666666666
 40
1.0
 40
1.0
 40
1.0
 40
1.0
 10
398.0000017885736
 20
-249.9999987028791
 30
0.0
 10
399.0097824529953
 20
-251.1187978015319
 30
0.0
 10
400.4332149336368
 20
-251.1187978015319
 30
0.0
 10
401.6376578018716
 20
-250.6808185767193
 30
0.0
 10
402.9515954763091
 20
-249.8048601270937
 30
0.0
 10
403.0000017885736
 20
-249.9999987028791
 30
0.0
  0
SPLINE
  5
7F3B
330
1E
100
AcDbEntity
  8
18
100
AcDbSpline
210
0.0
220
0.0
230
1.0
 70
     8
 71
     3
 72
    10
 73
     6
 74
     0
 42
0.0000000001
 43
0.0000000001
 40
0.0
 40
0.0
 40
0.0
 40
0.0
 40
0.3333333333333333
 40
0.6666666666666666
 40
1.0
 40
1.0
 40
1.0
 40
1.0
 10
398.0000017885736
 20
250.000001297121
 30
0.0
 10
399.0097824529953
 20
248.8812021984683
 30
0.0
 10
400.4332149336368
 20
248.8812021984683
 30
0.0
 10
401.6376578018716
 20
249.3191814232811
 30
0.0
 10
402.9515954763091
 20
250.1951398729065
 30
0.0
 10
403.0000017885736
 20
250.000001297121
 30
0.0
  0
ARC
  5
7F40
330
1E
100
AcDbEntity
  8
17
  6
DASHDOT
100
AcDbCircle
 10
70.0
 20
499.6309358295168
 30
0.0
 40
6.500000000000002
100
AcDbArc
 50
0.0
 51
180.0
  0
ARC
  5
7F41
330
1E
100
AcDbEntity
  8
17
  6
DASHDOT
100
AcDbCircle
 10
70.0
 20
491.6309358295166
 30
0.0
 40
6.500000000000002
100
AcDbArc
 50
180.0
 51
0.0
  0
ARC
  5
7F42
330
1E
100
AcDbEntity
  8
1
  6
Continuous
 62
     4
100
AcDbCircle
 10
429.5000000000004
 20
-17.62015499999984
 30
0.0
 40
97.50000000000003
100
AcDbArc
 50
162.9956370000027
 51
180.0
  0
ARC
  5
7F44
330
1E
100
AcDbEntity
  8
1
  6
Continuous
 62
     4
100
AcDbCircle
 10
866.0000000000009
 20
-10.49999999999977
 30
0.0
 40
500.0000000000001
100
AcDbArc
 50
176.3756929999994
 51
183.6243070000005
  0
CIRCLE
  5
7F47
330
1E
100
AcDbEntity
  8
12
100
AcDbCircle
 10
-122.5
 20
-92.50000000000005
 30
0.0
 40
4.500000000000001
  0
CIRCLE
  5
7F48
330
1E
100
AcDbEntity
  8
17
  6
DASHDOT
100
AcDbCircle
 10
70.0
 20
531.6309358295167
 30
0.0
 40
6.500000000000002
  0
CIRCLE
  5
7F4A
330
1E
100
AcDbEntity
  8
12
  6
DASHDOT
 62
     3
100
AcDbCircle
 10
-122.5000649999997
 20
-412.9999999999999
 30
0.0
 40
4.500000000000001
  0
ARC
  5
7F4C
330
1E
100
AcDbEntity
  8
1
  6
Continuous
 62
     2
100
AcDbCircle
 10
567.0000000000004
 20
-129.0000000000001
 30
0.0
 40
6.500000000000002
100
AcDbArc
 50
270.0
 51
90.0
  0
ARC
  5
7F51
330
1E
100
AcDbEntity
  8
17
  6
DASHDOT
100
AcDbCircle
 10
-70.0
 20
491.6309358295166
 30
0.0
 40
6.500000000000002
100
AcDbArc
 50
180.0
 51
0.0
  0
CIRCLE
  5
7F54
330
1E
100
AcDbEntity
  8
12
  6
DASHDOT
 62
     3
100
AcDbCircle
 10
-122.5000649999997
 20
-598.0
 30
0.0
 40
4.500000000000001
  0
CIRCLE
  5
7F57
330
1E
100
AcDbEntity
  8
12
100
AcDbCircle
 10
192.5
 20
92.49999999999994
 30
0.0
 40
4.500000000000001
  0
ARC
  5
7F5A
330
1E
100
AcDbEntity
  8
17
  6
DASHDOT
100
AcDbCircle
 10
0.0
 20
499.6309358295168
 30
0.0
 40
6.500000000000002
100
AcDbArc
 50
0.0
 51
180.0
  0
CIRCLE
  5
7F5B
330
1E
100
AcDbEntity
  8
1
  6
Continuous
 62
     2
100
AcDbCircle
 10
599.0000000000009
 20
-129.0000000000001
 30
0.0
 40
6.500000000000002
  0
ARC
  5
7F5C
330
1E
100
AcDbEntity
  8
17
  6
DASHDOT
100
AcDbCircle
 10
0.0
 20
491.6309358295166
 30
0.0
 40
6.500000000000002
100
AcDbArc
 50
180.0
 51
0.0
  0
CIRCLE
  5
7F5D
330
1E
100
AcDbEntity
  8
12
  6
DASHDOT
 62
     3
100
AcDbCircle
 10
192.5000600000003
 20
-598.0
 30
0.0
 40
4.500000000000001
  0
CIRCLE
  5
7F63
330
1E
100
AcDbEntity
  8
12
100
AcDbCircle
 10
192.5
 20
-92.50000000000005
 30
0.0
 40
4.500000000000001
  0
ARC
  5
7F64
330
1E
100
AcDbEntity
  8
17
  6
DASHDOT
100
AcDbCircle
 10
-70.0
 20
499.6309358295168
 30
0.0
 40
6.500000000000002
100
AcDbArc
 50
0.0
 51
180.0
  0
ARC
  5
7F66
330
1E
100
AcDbEntity
  8
1
  6
Continuous
 62
     4
100
AcDbCircle
 10
429.5000000000004
 20
-17.62015499999984
 30
0.0
 40
177.5
100
AcDbArc
 50
161.7763990000006
 51
180.0
  0
CIRCLE
  5
7F67
330
1E
100
AcDbEntity
  8
17
  6
DASHDOT
100
AcDbCircle
 10
-70.0
 20
531.6309358295167
 30
0.0
 40
6.500000000000002
  0
CIRCLE
  5
7F6D
330
1E
100
AcDbEntity
  8
12
  6
DASHDOT
 62
     3
100
AcDbCircle
 10
192.5000600000003
 20
-412.9999999999999
 30
0.0
 40
4.500000000000001
  0
ARC
  5
7F6E
330
1E
100
AcDbEntity
  8
1
  6
Continuous
 62
     2
100
AcDbCircle
 10
559.0000000000009
 20
-129.0000000000001
 30
0.0
 40
6.500000000000002
100
AcDbArc
 50
90.0
 51
270.0
  0
CIRCLE
  5
7F72
330
1E
100
AcDbEntity
  8
17
  6
DASHDOT
100
AcDbCircle
 10
0.0
 20
531.6309358295167
 30
0.0
 40
6.500000000000002
  0
CIRCLE
  5
7F73
330
1E
100
AcDbEntity
  8
12
100
AcDbCircle
 10
-122.5
 20
92.49999999999994
 30
0.0
 40
4.500000000000001
  0
LINE
  5
7F74
330
1E
100
AcDbEntity
  8
1
  6
Continuous
 62
     2
 60
     1
100
AcDbLine
 10
105.0
 20
-15.0
 30
0.0
 11
104.9949999999998
 21
-15.0
 31
0.0
  0
LINE
  5
7F75
330
1E
100
AcDbEntity
  8
1
  6
Continuous
 62
     2
 60
     1
100
AcDbLine
 10
1595.000000000001
 20
-122.5
 30
0.0
 11
1595.000000000001
 21
-122.4949999999998
 31
0.0
  0
LINE
  5
7F76
330
1E
100
AcDbEntity
  8
10
  6
Continuous
100
AcDbLine
 10
39.0
 20
-62.50000000000006
 30
0.0
 11
39.0
 21
32.49999999999994
 31
0.0
  0
LINE
  5
7F78
330
1E
100
AcDbEntity
  8
1
  6
Continuous
 62
     2
100
AcDbLine
 10
22.5
 20
28.33292999999997
 30
0.0
 11
-22.5
 21
28.33292999999997
 31
0.0
  0
LINE
  5
7F79
330
1E
100
AcDbEntity
  8
1
  6
Continuous
 62
     4
100
AcDbLine
 10
398.0000000000009
 20
-210.0
 30
0.0
 11
398.0000000000009
 21
210.0
 31
0.0
  0
LINE
  5
7F7A
330
1E
100
AcDbEntity
  8
17
  6
DASHDOT
100
AcDbLine
 10
567.0000000000004
 20
-140.4999999999998
 30
0.0
 11
567.0000000000004
 21
-117.5
 31
0.0
  0
LINE
  5
7F7B
330
1E
100
AcDbEntity
  8
17
  6
DASHDOT
100
AcDbLine
 10
-6.5
 20
499.6309358295168
 30
0.0
 11
-6.5
 21
491.6309358295166
 31
0.0
  0
LINE
  5
7F7D
330
1E
100
AcDbEntity
  8
17
  6
DASHDOT
100
AcDbLine
 10
599.0000000000009
 20
117.5
 30
0.0
 11
599.0000000000009
 21
140.5000000000002
 31
0.0
  0
LINE
  5
7F7E
330
1E
100
AcDbEntity
  8
16
100
AcDbLine
 10
0.0
 20
-224.9999999999999
 30
0.0
 11
0.0
 21
62.49999999999994
 31
0.0
  0
LINE
  5
7F8A
330
1E
100
AcDbEntity
  8
16
100
AcDbLine
 10
271.0
 20
-15.0
 30
0.0
 11
-185.0
 21
-15.0
 31
0.0
  0
LINE
  5
7F92
330
1E
100
AcDbEntity
  8
18
100
AcDbLine
 10
539.0000000000009
 20
153.5002450000001
 30
0.0
 11
539.0000000000009
 21
151.5002450000004
 31
0.0
  0
LINE
  5
7F95
330
1E
100
AcDbEntity
  8
18
100
AcDbLine
 10
524.0000000000009
 20
-104.0000000000001
 30
0.0
 11
664.0002450000006
 21
-104.0000000000001
 31
0.0
  0
LINE
  5
7F96
330
1E
100
AcDbEntity
  8
17
  6
DASHDOT
100
AcDbLine
 10
559.0000000000009
 20
-140.4999999999998
 30
0.0
 11
559.0000000000009
 21
-117.5
 31
0.0
  0
LINE
  5
7F98
330
1E
100
AcDbEntity
  8
17
  6
DASHDOT
100
AcDbLine
 10
63.5
 20
499.6309358295168
 30
0.0
 11
63.5
 21
491.6309358295166
 31
0.0
  0
LINE
  5
7F9C
330
1E
100
AcDbEntity
  8
1
  6
Continuous
 62
     2
100
AcDbLine
 10
614.0000000000009
 20
-151.5000000000001
 30
0.0
 11
614.0000000000009
 21
-106.5000000000001
 31
0.0
  0
LINE
  5
7F9E
330
1E
100
AcDbEntity
  8
10
  6
Continuous
100
AcDbLine
 10
22.5
 20
-37.99999999999982
 30
0.0
 11
22.5
 21
28.33292999999997
 31
0.0
  0
LINE
  5
7F9F
330
1E
100
AcDbEntity
  8
1
  6
Continuous
 62
     4
100
AcDbLine
 10
380.0000000000004
 20
-62.5
 30
0.0
 11
367.0000000000004
 21
-62.5
 31
0.0
  0
LINE
  5
7FA2
330
1E
100
AcDbEntity
  8
18
100
AcDbLine
 10
403.0000000000009
 20
250.0
 30
0.0
 11
403.0000000000009
 21
-249.9999999999999
 31
0.0
  0
LINE
  5
7FA7
330
1E
100
AcDbEntity
  8
18
100
AcDbLine
 10
664.0002450000006
 20
-104.0000000000001
 30
0.0
 11
664.0002450000006
 21
-154.0000000000001
 31
0.0
  0
LINE
  5
7FAD
330
1E
100
AcDbEntity
  8
1
  6
Continuous
 62
     2
100
AcDbLine
 10
559.0000000000009
 20
-135.4999999999998
 30
0.0
 11
567.0000000000004
 21
-135.4999999999998
 31
0.0
  0
LINE
  5
7FAE
330
1E
100
AcDbEntity
  8
16
100
AcDbLine
 10
0.0
 20
236.6309358295166
 30
0.0
 11
0.0
 21
556.6309358295167
 31
0.0
  0
LINE
  5
7FAF
330
1E
100
AcDbEntity
  8
17
  6
DASHDOT
100
AcDbLine
 10
76.5
 20
491.6309358295166
 30
0.0
 11
76.5
 21
499.6309358295168
 31
0.0
  0
LINE
  5
7FB2
330
1E
100
AcDbEntity
  8
18
100
AcDbLine
 10
244.0
 20
334.6309358295167
 30
0.0
 11
-174.0
 21
334.6309358295167
 31
0.0
  0
LINE
  5
7FB9
330
1E
100
AcDbEntity
  8
1
  6
Continuous
 62
     4
100
AcDbLine
 10
366.6256700000003
 20
14.68534500000009
 30
0.0
 11
341.4970600000005
 21
24.83796500000016
 31
0.0
  0
LINE
  5
7FBC
330
1E
100
AcDbEntity
  8
18
100
AcDbLine
 10
503.0000000000009
 20
-156.0
 30
0.0
 11
539.0000000000009
 21
-156.0
 31
0.0
  0
LINE
  5
7FBD
330
1E
100
AcDbEntity
  8
18
100
AcDbLine
 10
503.0000000000009
 20
153.5002450000001
 30
0.0
 11
539.0000000000009
 21
153.5002450000001
 31
0.0
  0
LINE
  5
7FC0
330
1E
100
AcDbEntity
  8
17
  6
DASHDOT
100
AcDbLine
 10
-76.5
 20
499.6309358295168
 30
0.0
 11
-76.5
 21
491.6309358295166
 31
0.0
  0
LINE
  5
7FC5
330
1E
100
AcDbEntity
  8
17
  6
DASHDOT
100
AcDbLine
 10
559.0000000000009
 20
117.5
 30
0.0
 11
559.0000000000009
 21
140.5000000000002
 31
0.0
  0
LINE
  5
7FC8
330
1E
100
AcDbEntity
  8
16
100
AcDbLine
 10
0.0
 20
-740.5000000000002
 30
0.0
 11
0.0
 21
-270.4999999999997
 31
0.0
  0
LINE
  5
7FCE
330
1E
100
AcDbEntity
  8
17
  6
DASHDOT
100
AcDbLine
 10
503.0000000000009
 20
-129.0000000000001
 30
0.0
 11
614.0000000000009
 21
-129.0000000000001
 31
0.0
  0
LINE
  5
7FCF
330
1E
100
AcDbEntity
  8
1
  6
Continuous
 62
     4
100
AcDbLine
 10
380.0000000000004
 20
-210.0
 30
0.0
 11
380.0000000000004
 21
210.0
 31
0.0
  0
LINE
  5
7FD0
330
1E
100
AcDbEntity
  8
18
100
AcDbLine
 10
503.0000000000009
 20
151.5002450000004
 30
0.0
 11
539.0000000000009
 21
151.5002450000004
 31
0.0
  0
LINE
  5
7FD1
330
1E
100
AcDbEntity
  8
18
100
AcDbLine
 10
524.0000000000009
 20
-104.0000000000001
 30
0.0
 11
524.0000000000009
 21
-154.0000000000001
 31
0.0
  0
LINE
  5
7FD5
330
1E
100
AcDbEntity
  8
1
  6
Continuous
 62
     2
100
AcDbLine
 10
614.0000000000009
 20
123.0000000000002
 30
0.0
 11
614.0000000000009
 21
135.0
 31
0.0
  0
LINE
  5
7FD7
330
1E
100
AcDbEntity
  8
18
100
AcDbLine
 10
524.0000000000009
 20
-154.0000000000001
 30
0.0
 11
503.0000000000009
 21
-154.0000000000001
 31
0.0
  0
LINE
  5
7FD8
330
1E
100
AcDbEntity
  8
1
  6
Continuous
 62
     4
100
AcDbLine
 10
376.0000000000004
 20
-62.5
 30
0.0
 11
376.0000000000004
 21
32.5
 31
0.0
  0
LINE
  5
7FDC
330
1E
100
AcDbEntity
  8
1
  6
Continuous
 62
     2
100
AcDbLine
 10
559.0000000000009
 20
-122.5
 30
0.0
 11
567.0000000000004
 21
-122.5
 31
0.0
  0
LINE
  5
7FE0
330
1E
100
AcDbEntity
  8
18
100
AcDbLine
 10
398.0000000000009
 20
250.0
 30
0.0
 11
398.0000000000009
 21
-249.9999999999999
 31
0.0
  0
LINE
  5
7FE4
330
1E
100
AcDbEntity
  8
16
100
AcDbLine
 10
513.0000000000008
 20
0.0
 30
0.0
 11
315.1000000000003
 21
0.0
 31
0.0
  0
LINE
  5
7FEC
330
1E
100
AcDbEntity
  8
16
100
AcDbLine
 10
-144.0000649999997
 20
-505.4999999999999
 30
0.0
 11
213.9999350000007
 21
-505.4999999999999
 31
0.0
  0
LINE
  5
7FED
330
1E
100
AcDbEntity
  8
17
  6
DASHDOT
100
AcDbLine
 10
6.5
 20
491.6309358295166
 30
0.0
 11
6.5
 21
499.6309358295168
 31
0.0
  0
LINE
  5
7FEE
330
1E
100
AcDbEntity
  8
18
100
AcDbLine
 10
524.0000000000009
 20
-154.0000000000001
 30
0.0
 11
664.0002450000006
 21
-154.0000000000001
 31
0.0
  0
LINE
  5
7FF0
330
1E
100
AcDbEntity
  8
1
  6
Continuous
 62
     4
100
AcDbLine
 10
367.0000000000004
 20
32.5
 30
0.0
 11
380.0000000000004
 21
32.5
 31
0.0
  0
LINE
  5
7FF4
330
1E
100
AcDbEntity
  8
1
  6
Continuous
 62
     2
100
AcDbLine
 10
-22.5
 20
-37.99999999999982
 30
0.0
 11
-22.5
 21
28.33292999999997
 31
0.0
  0
LINE
  5
7FF5
330
1E
100
AcDbEntity
  8
1
  6
Continuous
 62
     2
100
AcDbLine
 10
503.0000000000009
 20
-106.5000000000001
 30
0.0
 11
614.0000000000009
 21
-106.5000000000001
 31
0.0
  0
LINE
  5
7FF7
330
1E
100
AcDbEntity
  8
1
  6
Continuous
 62
     2
100
AcDbLine
 10
503.0000000000009
 20
-151.5000000000001
 30
0.0
 11
614.0000000000009
 21
-151.5000000000001
 31
0.0
  0
LINE
  5
7FFB
330
1E
100
AcDbEntity
  8
1
  6
Continuous
 62
     4
100
AcDbLine
 10
367.0000000000004
 20
21.10696500000017
 30
0.0
 11
367.0000000000004
 21
32.5
 31
0.0
  0
LINE
  5
7FFC
330
1E
100
AcDbEntity
  8
17
  6
DASHDOT
100
AcDbLine
 10
-63.5
 20
491.6309358295166
 30
0.0
 11
-63.5
 21
499.6309358295168
 31
0.0
  0
LINE
  5
7FFF
330
1E
100
AcDbEntity
  8
1
  6
Continuous
 62
     2
100
AcDbLine
 10
503.0000000000009
 20
135.0
 30
0.0
 11
614.0000000000009
 21
135.0
 31
0.0
  0
LINE
  5
8008
330
1E
100
AcDbEntity
  8
16
100
AcDbLine
 10
0.0
 20
87.49999999999994
 30
0.0
 11
0.0
 21
225.0
 31
0.0
  0
LINE
  5
800B
330
1E
100
AcDbEntity
  8
18
100
AcDbLine
 10
244.0
 20
334.6309358295167
 30
0.0
 11
244.0
 21
329.6309358295167
 31
0.0
  0
LINE
  5
800E
330
1E
100
AcDbEntity
  8
1
  6
Continuous
 62
     4
100
AcDbLine
 10
367.0000000000004
 20
-62.5
 30
0.0
 11
367.0000000000004
 21
-42.10695999999984
 31
0.0
  0
LINE
  5
800F
330
1E
100
AcDbEntity
  8
1
  6
Continuous
 62
     4
100
AcDbLine
 10
380.0000000000004
 20
-210.0
 30
0.0
 11
398.0000000000009
 21
-210.0
 31
0.0
  0
LINE
  5
8015
330
1E
100
AcDbEntity
  8
18
100
AcDbLine
 10
-174.0
 20
334.6309358295167
 30
0.0
 11
-174.0
 21
329.6309358295167
 31
0.0
  0
LINE
  5
801C
330
1E
100
AcDbEntity
  8
18
100
AcDbLine
 10
539.0000000000009
 20
-154.0000000000001
 30
0.0
 11
539.0000000000009
 21
-156.0
 31
0.0
  0
LINE
  5
801E
330
1E
100
AcDbEntity
  8
1
  6
Continuous
 62
     2
100
AcDbLine
 10
503.0000000000009
 20
123.0000000000002
 30
0.0
 11
614.0000000000009
 21
123.0000000000002
 31
0.0
  0
LINE
  5
8020
330
1E
100
AcDbEntity
  8
10
  6
Continuous
100
AcDbLine
 10
22.5
 20
16.93223500000016
 30
0.0
 11
-22.5
 21
16.93223500000016
 31
0.0
  0
LINE
  5
8023
330
1E
100
AcDbEntity
  8
1
  6
Continuous
 62
     2
100
AcDbLine
 10
22.5
 20
-37.99999999999982
 30
0.0
 11
-22.5
 21
-37.99999999999982
 31
0.0
  0
LINE
  5
8028
330
1E
100
AcDbEntity
  8
17
  6
DASHDOT
100
AcDbLine
 10
599.0000000000009
 20
-140.4999999999998
 30
0.0
 11
599.0000000000009
 21
-117.5
 31
0.0
  0
LINE
  5
8029
330
1E
100
AcDbEntity
  8
17
  6
DASHDOT
100
AcDbLine
 10
567.0000000000004
 20
117.5
 30
0.0
 11
567.0000000000004
 21
140.5000000000002
 31
0.0
  0
LINE
  5
8031
330
1E
100
AcDbEntity
  8
18
100
AcDbLine
 10
244.0
 20
329.6309358295167
 30
0.0
 11
-174.0
 21
329.6309358295167
 31
0.0
  0
LINE
  5
8038
330
1E
100
AcDbEntity
  8
10
  6
Continuous
100
AcDbLine
 10
-39.0
 20
-62.50000000000006
 30
0.0
 11
-39.0
 21
32.49999999999994
 31
0.0
  0
LINE
  5
8039
330
1E
100
AcDbEntity
  8
1
  6
Continuous
 62
     4
100
AcDbLine
 10
380.0000000000004
 20
210.0
 30
0.0
 11
398.0000000000009
 21
210.0
 31
0.0
  0
LINE
  5
803C
330
1E
100
AcDbEntity
  8
17
  6
DASHDOT
100
AcDbLine
 10
503.0000000000009
 20
129.0000000000002
 30
0.0
 11
614.0000000000009
 21
129.0000000000002
 31
0.0
  0
MTEXT
  5
8E7F
330
1E
100
AcDbEntity
  8
19
  6
Continuous
100
AcDbMText
 10
399.610468093967
 20
339.3388107421993
 30
0.0
 40
8.0
 41
131.2564427456381
 71
     1
 72
     5
  1
S1250-NE 4P FP\PS1250-GE 4P FP\PS1250-NN 4P FP
  7
STANDARD1
 73
     1
 44
1.0
  0
LWPOLYLINE
  5
9220
330
1E
100
AcDbEntity
  8
10
  6
Continuous
100
AcDbPolyline
 90
        4
 70
     1
 43
0.0
 10
-134.0
 20
210.0
 10
204.0
 20
210.0
 10
204.0
 20
-209.9999999999999
 10
-134.0
 20
-209.9999999999999
  0
LWPOLYLINE
  5
9221
330
1E
100
AcDbEntity
  8
10
  6
Continuous
100
AcDbPolyline
 90
        4
 70
     1
 43
0.0
 10
-105.0
 20
185.0
 10
175.0
 20
185.0
 10
175.0
 20
-184.9999999999999
 10
-105.0
 20
-184.9999999999999
  0
LWPOLYLINE
  5
9222
330
1E
100
AcDbEntity
  8
10
  6
Continuous
100
AcDbPolyline
 90
        4
 70
     1
 43
0.0
 10
-22.5
 20
28.33292999999997
 10
22.5
 20
28.33292999999997
 10
22.5
 20
-37.99999999999982
 10
-22.5
 20
-37.99999999999982
  0
LINE
  5
9223
330
1E
100
AcDbEntity
  8
10
  6
Continuous
100
AcDbLine
 10
-22.5
 20
16.93223500000016
 30
0.0
 11
22.5
 21
16.93223500000016
 31
0.0
  0
LINE
  5
9224
330
1E
100
AcDbEntity
  8
10
  6
Continuous
100
AcDbLine
 10
-39.0
 20
32.49999999999994
 30
0.0
 11
-39.0
 21
-62.50000000000006
 31
0.0
  0
LINE
  5
9225
330
1E
100
AcDbEntity
  8
10
  6
Continuous
100
AcDbLine
 10
39.0
 20
32.49999999999994
 30
0.0
 11
39.0
 21
-62.50000000000006
 31
0.0
  0
LWPOLYLINE
  5
9226
330
1E
100
AcDbEntity
  8
10
  6
Continuous
100
AcDbPolyline
 90
        4
 70
     1
 43
0.0
 10
33.20000000000004
 20
-48.49999999999994
 10
33.20000000000004
 20
-56.50000000000005
 10
27.20000000000004
 20
-56.50000000000005
 10
27.20000000000004
 20
-48.49999999999994
  0
LWPOLYLINE
  5
922A
330
1E
100
AcDbEntity
  8
10
  6
Continuous
100
AcDbPolyline
 90
        8
 70
     1
 43
0.0
 10
-94.0
 20
32.49999999999994
 10
94.0
 20
32.50000000000005
 42
-0.4142135623730951
 10
95.0
 20
31.50000000000005
 10
95.0
 20
-61.50000000000005
 42
-0.4142135623730951
 10
94.0
 20
-62.50000000000006
 10
-94.0
 20
-62.50000000000006
 42
-0.4142135623730951
 10
-95.0
 20
-61.50000000000005
 10
-95.0
 20
31.50000000000005
 42
-0.4142135623730951
  0
LWPOLYLINE
  5
9232
330
1E
100
AcDbEntity
  8
1
  6
Continuous
 62
     4
100
AcDbPolyline
 90
        4
 70
     1
 43
0.0
 10
204.0
 20
329.6309358295167
 10
204.0
 20
311.6309358295166
 10
-134.0
 20
311.6309358295166
 10
-134.0
 20
329.6309358295167
  0
LWPOLYLINE
  5
9236
330
1E
100
AcDbEntity
  8
1
  6
Continuous
 62
     4
100
AcDbPolyline
 90
        4
 70
     0
 43
0.0
 10
95.0
 20
311.6309358295166
 10
95.0
 20
304.6309358295167
 10
-95.0
 20
304.6309358295167
 10
-95.0
 20
311.6309358295166
  0
LWPOLYLINE
  5
9239
330
1E
100
AcDbEntity
  8
1
  6
Continuous
 62
     4
100
AcDbPolyline
 90
        4
 70
     0
 43
0.0
 10
-39.0
 20
304.6309358295167
 10
-39.0
 20
298.6309358295166
 10
39.0
 20
298.6309358295166
 10
39.0
 20
304.6309358295167
  0
LWPOLYLINE
  5
923C
330
1E
100
AcDbEntity
  8
1
  6
Continuous
 62
     4
100
AcDbPolyline
 90
        4
 70
     0
 43
0.0
 10
-22.5
 20
298.6309358295166
 10
-22.5
 20
264.6309358295167
 10
22.5
 20
264.6309358295167
 10
22.5
 20
298.6309358295166
  0
LWPOLYLINE
  5
923F
330
1E
100
AcDbEntity
  8
1
  6
Continuous
 62
     4
100
AcDbPolyline
 90
        4
 70
     0
 43
0.0
 10
-105.0
 20
329.6309358295167
 10
-105.0
 20
435.6309358295168
 10
175.0
 20
435.6309358295168
 10
175.0
 20
329.6309358295167
  0
LWPOLYLINE
  5
94BD
330
1E
100
AcDbEntity
  8
11
  6
Continuous
100
AcDbPolyline
 90
        4
 70
     1
 43
0.0
 10
182.9999350000002
 20
-300.4999999999997
 10
-113.0000649999997
 20
-300.4999999999997
 10
-113.0000649999997
 20
-710.5000000000002
 10
182.9999350000002
 20
-710.5000000000002
  0
LWPOLYLINE
  5
94C1
330
1E
100
AcDbEntity
  8
18
100
AcDbPolyline
 90
        4
 70
     1
 43
0.0
 10
204.0000600000003
 20
-295.4999999999997
 10
204.0000600000003
 20
-715.5000000000002
 10
-134.0000649999997
 20
-715.5000000000002
 10
-134.0000649999997
 20
-295.4999999999997
  0
DIMENSION
  5
94D7
330
1E
100
AcDbEntity
  8
30
  6
Continuous
100
AcDbDimension
  2
*D21
 10
-157.0
 20
-598.0
 30
0.0
 11
-162.9999999999999
 21
-505.4999999999999
 31
0.0
 70
    32
 71
     5
 42
185.0
  3
STANDARD1
100
AcDbAlignedDimension
 13
-132.0000649999997
 23
-412.9999999999999
 33
0.0
 14
-132.0000649999997
 24
-598.0
 34
0.0
 50
90.0
100
AcDbRotatedDimension
  0
DIMENSION
  5
94E4
330
1E
100
AcDbEntity
  8
30
  6
Continuous
100
AcDbDimension
  2
*D22
 10
-120.1047020321409
 20
-416.8094929127392
 30
0.0
 11
-144.3333983333328
 21
-391.0
 31
0.0
 70
   163
 71
     5
 42
9.0
  3
STANDARD1
100
AcDbDiametricDimension
 15
-124.8954279678585
 25
-409.1905070872606
 35
0.0
 40
0.0
  0
DIMENSION
  5
951B
330
1E
100
AcDbEntity
  8
30
  6
Continuous
100
AcDbDimension
  2
*D23
 10
204.0
 20
-240.0
 30
0.0
 11
35.0
 21
-234.0
 31
0.0
 70
    32
 71
     5
 42
338.0
  3
STANDARD1
100
AcDbAlignedDimension
 13
-134.0
 23
-209.9999999999999
 33
0.0
 14
204.0
 24
-209.9999999999999
 34
0.0
100
AcDbRotatedDimension
  0
DIMENSION
  5
9535
330
1E
100
AcDbEntity
  8
30
  6
Continuous
100
AcDbDimension
  2
*D24
 10
-180.0
 20
-209.9999999999999
 30
0.0
 11
-180.0
 21
0.0000000000000386
 31
0.0
 70
   160
 71
     5
 42
420.0
  3
STANDARD1
100
AcDbAlignedDimension
 13
-134.0
 23
210.0
 33
0.0
 14
-134.0
 24
-209.9999999999999
 34
0.0
 50
90.0
100
AcDbRotatedDimension
  0
LWPOLYLINE
  5
98FF
330
1E
100
AcDbEntity
  8
1
  6
Continuous
 62
     4
100
AcDbPolyline
 90
        4
 70
     0
 43
0.0
 10
293.8556050000006
 20
28.98721999999997
 10
329.0927200000005
 20
8.818215000000236
 10
353.2019903437146
 20
-0.9225611640332509
 42
0.4140168221581689
 10
358.4066604182674
 20
1.288753626336177
  0
LWPOLYLINE
  5
9900
330
1E
100
AcDbEntity
  8
1
  6
Continuous
 62
     4
100
AcDbPolyline
 90
        3
 70
     0
 43
0.0
 10
341.4970600000005
 20
24.83796500000016
 10
336.7020950000005
 20
12.97001000000022
 10
366.1299900000003
 20
1.080370000000243
  0
LWPOLYLINE
  5
9905
330
1E
100
AcDbEntity
  8
1
  6
Continuous
 62
     4
100
AcDbPolyline
 90
        6
 70
     0
 43
0.0
 10
294.5810743201145
 20
47.79613099952753
 42
0.2615333910258073
 10
299.5535371705291
 20
43.07876825496596
 10
338.9074100000007
 20
33.11043000000017
 10
363.011699656252
 20
23.3716661640472
 42
-0.414213553162787
 10
365.2255062110888
 20
18.16599046040493
 10
358.4066600000005
 20
1.288750000000163
  0
LWPOLYLINE
  5
9906
330
1E
100
AcDbEntity
  8
1
  6
Continuous
 62
     4
100
AcDbPolyline
 90
        2
 70
     0
 43
0.0
 10
294.5810736968822
 20
47.79613057250884
 42
2.808706617579457
 10
287.0054738200833
 20
29.04586291070232
  0
LWPOLYLINE
  5
9907
330
1E
100
AcDbEntity
  8
1
  6
Continuous
 62
     4
100
AcDbPolyline
 90
        2
 70
     0
 43
0.0
 10
-287.0054742662141
 20
29.04586310156805
 42
0.2613698915360997
 10
-293.8556019096785
 20
28.98721672990952
210
0.0
220
0.0
230
-1.0
  0
LWPOLYLINE
  5
990B
330
1E
100
AcDbEntity
  8
1
  6
Continuous
 62
     4
100
AcDbPolyline
 90
        4
 70
     0
 43
0.0
 10
398.0000000000009
 20
-185.0
 10
503.0000000000009
 20
-185.0
 10
503.0000000000009
 20
185.0
 10
398.0000000000009
 20
185.0
  0
DIMENSION
  5
9A0A
330
1E
100
AcDbEntity
  8
30
  6
Continuous
100
AcDbDimension
  2
*D25
 10
638.5539000000008
 20
-151.5000000000001
 30
0.0
 11
632.5539000000008
 21
-129.0
 31
0.0
 70
    32
  1
 <> 
 71
     0
 72
     0
 41
0.0
 42
45.0
  3
STANDARD1
100
AcDbAlignedDimension
 13
618.0000000000009
 23
-106.5000000000001
 33
0.0
 14
618.0000000000009
 24
-151.5000000000001
 34
0.0
 50
90.0
100
AcDbRotatedDimension
  0
LINE
  5
9AE1
330
1E
100
AcDbEntity
  8
30
  6
Continuous
100
AcDbLine
 10
539.0000000000009
 20
161.5002450000001
 30
0.0
 11
539.0000000000009
 21
180.1926950000001
 31
0.0
  0
LINE
  5
9AE2
330
1E
100
AcDbEntity
  8
30
  6
Continuous
100
AcDbLine
 10
614.0000000000009
 20
143.0
 30
0.0
 11
614.0000000000009
 21
180.1926950000001
 31
0.0
  0
LINE
  5
9AE3
330
1E
100
AcDbEntity
  8
30
  6
Continuous
100
AcDbLine
 10
541.0000000000009
 20
179.6926950000001
 30
0.0
 11
612.0000000000008
 21
179.6926950000001
 31
0.0
  0
INSERT
  5
9AE4
330
1E
100
AcDbEntity
  8
30
  6
Continuous
100
AcDbBlockReference
  2
_OPEN
 10
539.0000000000009
 20
179.6926950000001
 30
0.0
 41
2.0
 42
2.0
 43
2.0
 50
180.0
  0
INSERT
  5
9AE5
330
1E
100
AcDbEntity
  8
30
  6
Continuous
100
AcDbBlockReference
  2
_OPEN
 10
614.0000000000009
 20
179.6926950000001
 30
0.0
 41
2.0
 42
2.0
 43
2.0
  0
MTEXT
  5
9AE6
330
1E
100
AcDbEntity
  8
30
  6
Continuous
100
AcDbMText
 10
576.5000000000009
 20
185.6926950000001
 30
0.0
 40
6.0
 41
0.0
 71
     5
 72
     1
  1
\A1; 75  or less
 73
     1
 44
1.0
  0
LWPOLYLINE
  5
9DBF
330
1E
100
AcDbEntity
  8
21
  6
Continuous
100
AcDbPolyline
 90
        4
 70
     0
 43
0.0
 10
-92.5
 20
435.6309358295168
 10
-92.5
 20
546.6309358295167
 10
-47.5
 20
546.6309358295167
 10
-47.5
 20
435.6309358295168
  0
LWPOLYLINE
  5
9DEF
330
1E
100
AcDbEntity
  8
21
  6
Continuous
100
AcDbPolyline
 90
        4
 70
     0
 43
0.0
 10
-22.5
 20
435.6309358295168
 10
-22.5
 20
546.6309358295167
 10
22.5
 20
546.6309358295167
 10
22.5
 20
435.6309358295168
  0
LWPOLYLINE
  5
9DF0
330
1E
100
AcDbEntity
  8
21
  6
Continuous
100
AcDbPolyline
 90
        4
 70
     0
 43
0.0
 10
47.5
 20
435.6309358295168
 10
47.5
 20
546.6309358295167
 10
92.5
 20
546.6309358295167
 10
92.5
 20
435.6309358295168
  0
DIMENSION
  5
9DF1
330
1E
100
AcDbEntity
  8
30
  6
Continuous
100
AcDbDimension
  2
*D26
 10
-158.9999999999999
 20
-14.99999999999999
 30
0.0
 11
-164.9999999999999
 21
85.00000000000001
 31
0.0
 70
    32
 71
     5
 42
200.0
  3
STANDARD1
100
AcDbAlignedDimension
 13
-105.0
 23
185.0
 33
0.0
 14
-134.0
 24
-15.0
 34
0.0
 50
90.0
100
AcDbRotatedDimension
  0
DIMENSION
  5
9DFE
330
1E
100
AcDbEntity
  8
30
  6
Continuous
100
AcDbDimension
  2
*D27
 10
-159.0
 20
-184.9999999999999
 30
0.0
 11
-164.9999999999999
 21
-100.0
 31
0.0
 70
    32
 71
     5
 42
169.9999999999999
  3
STANDARD1
100
AcDbAlignedDimension
 13
-134.0
 23
-15.0
 33
0.0
 14
-105.0
 24
-184.9999999999999
 34
0.0
 50
90.0
100
AcDbRotatedDimension
  0
LWPOLYLINE
  5
9E58
330
1E
100
AcDbEntity
  8
21
  6
Continuous
100
AcDbPolyline
 90
        4
 70
     0
 43
0.0
 10
117.5
 20
435.6309358295168
 10
117.5
 20
546.6309358295167
 10
162.5
 20
546.6309358295167
 10
162.5
 20
435.6309358295168
  0
DIMENSION
  5
9E59
330
1E
100
AcDbEntity
  8
30
  6
Continuous
100
AcDbDimension
  2
*D28
 10
140.0
 20
594.7268108295168
 30
0.0
 11
105.0
 21
600.7268108295168
 31
0.0
 70
    32
  1
 <> 
 71
     5
 42
70.0
  3
STANDARD1
100
AcDbAlignedDimension
 13
70.0
 23
536.6309358295167
 33
0.0
 14
140.0
 24
536.6309358295167
 34
0.0
100
AcDbRotatedDimension
  0
LINE
  5
9E5A
330
1E
100
AcDbEntity
  8
17
  6
DASHDOT
100
AcDbLine
 10
128.4999999999999
 20
491.6309358295166
 30
0.0
 11
151.5
 21
491.6309358295166
 31
0.0
  0
LINE
  5
9E5B
330
1E
100
AcDbEntity
  8
17
  6
DASHDOT
100
AcDbLine
 10
128.4999999999999
 20
499.6309358295168
 30
0.0
 11
151.5
 21
499.6309358295168
 31
0.0
  0
LINE
  5
9E5C
330
1E
100
AcDbEntity
  8
17
  6
DASHDOT
100
AcDbLine
 10
146.5
 20
491.6309358295166
 30
0.0
 11
146.5
 21
499.6309358295168
 31
0.0
  0
LINE
  5
9E5D
330
1E
100
AcDbEntity
  8
17
  6
DASHDOT
100
AcDbLine
 10
133.4999999999999
 20
499.6309358295168
 30
0.0
 11
133.4999999999999
 21
491.6309358295166
 31
0.0
  0
ARC
  5
9E5E
330
1E
100
AcDbEntity
  8
17
  6
DASHDOT
100
AcDbCircle
 10
140.0
 20
491.6309358295166
 30
0.0
 40
6.500000000000002
100
AcDbArc
 50
180.0
 51
0.0
  0
ARC
  5
9E5F
330
1E
100
AcDbEntity
  8
17
  6
DASHDOT
100
AcDbCircle
 10
140.0
 20
499.6309358295168
 30
0.0
 40
6.500000000000002
100
AcDbArc
 50
0.0
 51
180.0
  0
LINE
  5
9E60
330
1E
100
AcDbEntity
  8
17
  6
DASHDOT
100
AcDbLine
 10
140.0
 20
511.1309358295168
 30
0.0
 11
140.0
 21
480.1309358295168
 31
0.0
  0
LINE
  5
9E61
330
1E
100
AcDbEntity
  8
17
  6
DASHDOT
100
AcDbLine
 10
128.4999999999999
 20
531.6309358295167
 30
0.0
 11
151.5
 21
531.6309358295167
 31
0.0
  0
CIRCLE
  5
9E62
330
1E
100
AcDbEntity
  8
17
  6
DASHDOT
100
AcDbCircle
 10
140.0
 20
531.6309358295167
 30
0.0
 40
6.500000000000002
  0
LINE
  5
9E63
330
1E
100
AcDbEntity
  8
17
  6
DASHDOT
100
AcDbLine
 10
140.0
 20
543.1309358295168
 30
0.0
 11
140.0
 21
520.1309358295168
 31
0.0
  0
DIMENSION
  5
9E8A
330
1E
100
AcDbEntity
  8
30
  6
Continuous
100
AcDbDimension
  2
*D29
 10
614.0000000000009
 20
-300.095875
 30
0.0
 11
558.5000000000008
 21
-294.095875
 31
0.0
 70
    32
 71
     5
 42
111.0
  3
STANDARD1
100
AcDbAlignedDimension
 13
503.0000000000009
 23
-185.0
 33
0.0
 14
614.0000000000009
 24
-151.5000000000001
 34
0.0
100
AcDbRotatedDimension
  0
VIEWPORT
  5
9AC
330
1A
100
AcDbEntity
 67
     1
  8
0
  6
Continuous
100
AcDbViewport
 10
171.9995348790992
 20
144.1384735538403
 30
0.0
 40
488.8676857773511
 41
292.3514905034161
 68
     1
 69
     1
 12
171.9995348790992
 22
144.1384735538403
 13
0.0
 23
0.0
 14
10.0
 24
10.0
 15
10.0
 25
10.0
 16
0.0
 26
0.0
 36
1.0
 17
0.0
 27
0.0
 37
0.0
 42
50.0
 43
0.0
 44
0.0
 45
292.3514905034161
 50
0.0
 51
0.0
 72
   100
 90
    32800
  1

281
     0
 71
     1
 74
     0
110
0.0
120
0.0
130
0.0
111
1.0
121
0.0
131
0.0
112
0.0
122
1.0
132
0.0
 79
     0
146
0.0
  0
ENDSEC
  0
SECTION
  2
OBJECTS
  0
DICTIONARY
  5
C
330
0
100
AcDbDictionary
281
     1
  3
ACAD_GROUP
350
D
  3
ACAD_LAYOUT
350
19
  3
ACAD_MLINESTYLE
350
16
  3
ACAD_PLOTSETTINGS
350
18
  3
ACAD_PLOTSTYLENAME
350
E
  3
ACDBHEADERROUNDTRIPXREC
350
9EDF
  3
ACDBVARIABLEDICTIONARY
350
69C9
  0
DICTIONARY
  5
178
330
1E
100
AcDbDictionary
280
     1
281
     1
  3
ACAD_LAYOUTSELFREF
360
7AD3
  0
DICTIONARY
  5
17A
330
1A
100
AcDbDictionary
280
     1
281
     1
  3
ACAD_LAYOUTSELFREF
360
7AD2
  0
DICTIONARY
  5
D
102
{ACAD_REACTORS
330
C
102
}
330
C
100
AcDbDictionary
281
     1
  0
DICTIONARY
  5
19
102
{ACAD_REACTORS
330
C
102
}
330
C
100
AcDbDictionary
281
     1
  3
Model
350
7AE4
  3
ﾚｲｱｳﾄ1
350
7AE5
  0
DICTIONARY
  5
16
102
{ACAD_REACTORS
330
C
102
}
330
C
100
AcDbDictionary
281
     1
  3
STANDARD
350
17
  0
DICTIONARY
  5
18
102
{ACAD_REACTORS
330
C
102
}
330
C
100
AcDbDictionary
281
     1
  0
ACDBDICTIONARYWDFLT
  5
E
102
{ACAD_REACTORS
330
C
102
}
330
C
100
AcDbDictionary
281
     1
  3
Normal
350
F
100
AcDbDictionaryWithDefault
340
F
  0
DICTIONARY
  5
9EDF
102
{ACAD_REACTORS
330
C
102
}
330
C
100
AcDbDictionary
281
     1
  3
CEPSNTYPE
350
9EE9
  3
DIMSTYLEDATA
350
9EED
  3
FINGERPRINTGUID
350
9EEA
  3
HYPERLINKBASE
350
9EE2
  3
INSUNITS
350
9EE8
  3
LAYOUTDICT
350
9EE4
  3
LWETCUNION
350
9EE7
  3
PLOTSETDICT
350
9EE5
  3
PLOTSTYLNAMDICT
350
9EE6
  3
PSVPSCALE
350
9EEC
  3
PUCSBASE
350
9EF0
  3
PUCSORGBACK
350
9EF6
  3
PUCSORGBOTTOM
350
9EF2
  3
PUCSORGFRONT
350
9EF5
  3
PUCSORGLEFT
350
9EF3
  3
PUCSORGRIGHT
350
9EF4
  3
PUCSORGTOP
350
9EF1
  3
PUCSORTHOREF
350
9EEE
  3
PUCSORTHOVIEW
350
9EEF
  3
STYLESHEET
350
9EE3
  3
TSTACKALIGN
350
9EE0
  3
TSTACKSIZE
350
9EE1
  3
UCSBASE
350
9EF9
  3
UCSORGBACK
350
9EFF
  3
UCSORGBOTTOM
350
9EFB
  3
UCSORGFRONT
350
9EFE
  3
UCSORGLEFT
350
9EFC
  3
UCSORGRIGHT
350
9EFD
  3
UCSORGTOP
350
9EFA
  3
UCSORTHOREF
350
9EF7
  3
UCSORTHOVIEW
350
9EF8
  3
VERSIONGUID
350
9EEB
  0
DICTIONARY
  5
69C9
102
{ACAD_REACTORS
330
C
102
}
330
C
100
AcDbDictionary
281
     1
  3
DIMASSOC
350
69CA
  0
XRECORD
  5
7AD3
102
{ACAD_REACTORS
330
178
102
}
330
178
100
AcDbXrecord
280
     1
340
1E
  0
XRECORD
  5
7AD2
102
{ACAD_REACTORS
330
17A
102
}
330
17A
100
AcDbXrecord
280
     1
340
1A
  0
LAYOUT
  5
7AE4
102
{ACAD_REACTORS
330
19
102
}
330
19
100
AcDbPlotSettings
  1

  2
DocuWorks Printer
  4
A4
  6
OLE1
 40
5.408083438873291
 41
5.408078670501708
 42
5.408096313476562
 43
5.4080810546875
 44
210.0156707763671
 45
297.0106506347656
 46
12.61
 47
4.65
 48
0.0
 49
0.0
140
0.0
141
0.0
142
1.0
143
5.0
 70
 11940
 72
     1
 73
     0
 74
     1
  7
monochrome.ctb
 75
     0
147
0.2
148
189.2182540367566
149
780.5581005031217
100
AcDbLayout
  1
Model
 70
     1
 71
     0
 10
0.0
 20
0.0
 11
12.0
 21
9.0
 12
0.0
 22
0.0
 32
0.0
 14
0.0
 24
0.0
 34
0.0
 15
0.0
 25
0.0
 35
0.0
146
0.0
 13
0.0
 23
0.0
 33
0.0
 16
1.0
 26
0.0
 36
0.0
 17
0.0
 27
1.0
 37
0.0
 76
     0
330
1E
  0
LAYOUT
  5
7AE5
102
{ACAD_REACTORS
330
19
102
}
330
19
100
AcDbPlotSettings
  1

  2
LBP5400
  4

  6

 40
0.0
 41
0.0
 42
0.0
 43
0.0
 44
0.0
 45
0.0
 46
0.0
 47
0.0
 48
0.0
 49
0.0
140
0.0
141
0.0
142
1.0
143
1.0
 70
   688
 72
     0
 73
     0
 74
     5
  7
monochrome.stb
 75
    16
147
1.0
148
0.0
149
0.0
100
AcDbLayout
  1
ﾚｲｱｳﾄ1
 70
     1
 71
     1
 10
-5.873748779296875
 20
-5.873749732971191
 11
204.0995788574218
 21
291.1369009017943
 12
0.0
 22
0.0
 32
0.0
 14
4.273573370203961
 24
5.205246163471485
 34
0.0
 15
194.6100952986349
 25
283.0697008572913
 35
0.0
146
0.0
 13
0.0
 23
0.0
 33
0.0
 16
1.0
 26
0.0
 36
0.0
 17
0.0
 27
1.0
 37
0.0
 76
     0
330
1A
331
9AC
  0
MLINESTYLE
  5
17
102
{ACAD_REACTORS
330
16
102
}
330
16
100
AcDbMlineStyle
  2
STANDARD
 70
     0
  3

 62
   256
 51
90.0
 52
90.0
 71
     2
 49
0.5
 62
   256
  6
BYLAYER
 49
-0.5
 62
   256
  6
BYLAYER
  0
ACDBPLACEHOLDER
  5
F
102
{ACAD_REACTORS
330
E
102
}
330
E
  0
XRECORD
  5
9EE9
102
{ACAD_REACTORS
330
9EDF
102
}
330
9EDF
100
AcDbXrecord
280
     1
 90
        0
  0
XRECORD
  5
9EED
102
{ACAD_REACTORS
330
9EDF
102
}
330
9EDF
100
AcDbXrecord
280
     1
1000
DSTYLE
1002
{
1070
   289
 70
     2
1070
   341
340
3B2
1070
   342
340
3B2
1002
}
  0
XRECORD
  5
9EEA
102
{ACAD_REACTORS
330
9EDF
102
}
330
9EDF
100
AcDbXrecord
280
     1
  1

  0
XRECORD
  5
9EE2
102
{ACAD_REACTORS
330
9EDF
102
}
330
9EDF
100
AcDbXrecord
280
     1
  1

  0
XRECORD
  5
9EE8
102
{ACAD_REACTORS
330
9EDF
102
}
330
9EDF
100
AcDbXrecord
280
     1
 90
        0
  0
XRECORD
  5
9EE4
102
{ACAD_REACTORS
330
9EDF
102
}
330
9EDF
100
AcDbXrecord
280
     1
340
19
  0
XRECORD
  5
9EE7
102
{ACAD_REACTORS
330
9EDF
102
}
330
9EDF
100
AcDbXrecord
280
     1
 90
    10781
  0
XRECORD
  5
9EE5
102
{ACAD_REACTORS
330
9EDF
102
}
330
9EDF
100
AcDbXrecord
280
     1
340
18
  0
XRECORD
  5
9EE6
102
{ACAD_REACTORS
330
9EDF
102
}
330
9EDF
100
AcDbXrecord
280
     1
340
E
  0
XRECORD
  5
9EEC
102
{ACAD_REACTORS
330
9EDF
102
}
330
9EDF
100
AcDbXrecord
280
     1
 40
0.0
  0
XRECORD
  5
9EF0
102
{ACAD_REACTORS
330
9EDF
102
}
330
9EDF
100
AcDbXrecord
280
     1
340
0
  0
XRECORD
  5
9EF6
102
{ACAD_REACTORS
330
9EDF
102
}
330
9EDF
100
AcDbXrecord
280
     1
 10
0.0
 20
0.0
 30
0.0
  0
XRECORD
  5
9EF2
102
{ACAD_REACTORS
330
9EDF
102
}
330
9EDF
100
AcDbXrecord
280
     1
 10
0.0
 20
0.0
 30
0.0
  0
XRECORD
  5
9EF5
102
{ACAD_REACTORS
330
9EDF
102
}
330
9EDF
100
AcDbXrecord
280
     1
 10
0.0
 20
0.0
 30
0.0
  0
XRECORD
  5
9EF3
102
{ACAD_REACTORS
330
9EDF
102
}
330
9EDF
100
AcDbXrecord
280
     1
 10
0.0
 20
0.0
 30
0.0
  0
XRECORD
  5
9EF4
102
{ACAD_REACTORS
330
9EDF
102
}
330
9EDF
100
AcDbXrecord
280
     1
 10
0.0
 20
0.0
 30
0.0
  0
XRECORD
  5
9EF1
102
{ACAD_REACTORS
330
9EDF
102
}
330
9EDF
100
AcDbXrecord
280
     1
 10
0.0
 20
0.0
 30
0.0
  0
XRECORD
  5
9EEE
102
{ACAD_REACTORS
330
9EDF
102
}
330
9EDF
100
AcDbXrecord
280
     1
340
0
  0
XRECORD
  5
9EEF
102
{ACAD_REACTORS
330
9EDF
102
}
330
9EDF
100
AcDbXrecord
280
     1
 70
     0
  0
XRECORD
  5
9EE3
102
{ACAD_REACTORS
330
9EDF
102
}
330
9EDF
100
AcDbXrecord
280
     1
  1
monochrome.ctb
  0
XRECORD
  5
9EE0
102
{ACAD_REACTORS
330
9EDF
102
}
330
9EDF
100
AcDbXrecord
280
     1
 90
        1
  0
XRECORD
  5
9EE1
102
{ACAD_REACTORS
330
9EDF
102
}
330
9EDF
100
AcDbXrecord
280
     1
 90
       70
  0
XRECORD
  5
9EF9
102
{ACAD_REACTORS
330
9EDF
102
}
330
9EDF
100
AcDbXrecord
280
     1
340
0
  0
XRECORD
  5
9EFF
102
{ACAD_REACTORS
330
9EDF
102
}
330
9EDF
100
AcDbXrecord
280
     1
 10
0.0
 20
0.0
 30
0.0
  0
XRECORD
  5
9EFB
102
{ACAD_REACTORS
330
9EDF
102
}
330
9EDF
100
AcDbXrecord
280
     1
 10
0.0
 20
0.0
 30
0.0
  0
XRECORD
  5
9EFE
102
{ACAD_REACTORS
330
9EDF
102
}
330
9EDF
100
AcDbXrecord
280
     1
 10
0.0
 20
0.0
 30
0.0
  0
XRECORD
  5
9EFC
102
{ACAD_REACTORS
330
9EDF
102
}
330
9EDF
100
AcDbXrecord
280
     1
 10
0.0
 20
0.0
 30
0.0
  0
XRECORD
  5
9EFD
102
{ACAD_REACTORS
330
9EDF
102
}
330
9EDF
100
AcDbXrecord
280
     1
 10
0.0
 20
0.0
 30
0.0
  0
XRECORD
  5
9EFA
102
{ACAD_REACTORS
330
9EDF
102
}
330
9EDF
100
AcDbXrecord
280
     1
 10
0.0
 20
0.0
 30
0.0
  0
XRECORD
  5
9EF7
102
{ACAD_REACTORS
330
9EDF
102
}
330
9EDF
100
AcDbXrecord
280
     1
340
0
  0
XRECORD
  5
9EF8
102
{ACAD_REACTORS
330
9EDF
102
}
330
9EDF
100
AcDbXrecord
280
     1
 70
     0
  0
XRECORD
  5
9EEB
102
{ACAD_REACTORS
330
9EDF
102
}
330
9EDF
100
AcDbXrecord
280
     1
  1
{0C1C60E9-DBE3-4123-99C6-E69D4729D027}
  0
DICTIONARYVAR
  5
69CA
102
{ACAD_REACTORS
330
69C9
102
}
330
69C9
100
DictionaryVariables
280
     0
  1
1
  0
ENDSEC
  0
EOF
