  0
SECTION
  2
HEADER
  9
$ACADVER
  1
AC1015
  9
$ACADMAINTVER
 70
    10
  9
$DWGCODEPAGE
  3
ANSI_932
  9
$INSBASE
 10
0.0
 20
0.0
 30
0.0
  9
$EXTMIN
 10
-206.0321160781108
 20
-754.5993606599504
 30
-0.0000000000112498
  9
$EXTMAX
 10
717.5610229167627
 20
611.166019647343
 30
0.0000000000002956
  9
$LIMMIN
 10
-391.0
 20
-1004.0
  9
$LIMMAX
 10
1094.0
 20
836.0
  9
$ORTHOMODE
 70
     1
  9
$REGENMODE
 70
     1
  9
$FILLMODE
 70
     1
  9
$QTEXTMODE
 70
     0
  9
$MIRRTEXT
 70
     1
  9
$LTSCALE
 40
20.0
  9
$ATTMODE
 70
     1
  9
$TEXTSIZE
 40
5.0
  9
$TRACEWID
 40
0.05
  9
$TEXTSTYLE
  7
STANDARD1
  9
$CLAYER
  8
10
  9
$CELTYPE
  6
CONTINUOUS
  9
$CECOLOR
 62
   256
  9
$CELTSCALE
 40
1.0
  9
$DISPSILH
 70
     0
  9
$DIMSCALE
 40
1.0
  9
$DIMASZ
 40
2.0
  9
$DIMEXO
 40
3.0
  9
$DIMDLI
 40
0.5
  9
$DIMRND
 40
0.0
  9
$DIMDLE
 40
0.0
  9
$DIMEXE
 40
0.5
  9
$DIMTP
 40
0.0
  9
$DIMTM
 40
0.0
  9
$DIMTXT
 40
6.0
  9
$DIMCEN
 40
0.09
  9
$DIMTSZ
 40
0.0
  9
$DIMTOL
 70
     0
  9
$DIMLIM
 70
     0
  9
$DIMTIH
 70
     0
  9
$DIMTOH
 70
     1
  9
$DIMSE1
 70
     0
  9
$DIMSE2
 70
     0
  9
$DIMTAD
 70
     3
  9
$DIMZIN
 70
    12
  9
$DIMBLK
  1
OPEN
  9
$DIMASO
 70
     1
  9
$DIMSHO
 70
     1
  9
$DIMPOST
  1

  9
$DIMAPOST
  1

  9
$DIMALT
 70
     0
  9
$DIMALTD
 70
     2
  9
$DIMALTF
 40
25.4
  9
$DIMLFAC
 40
1.0
  9
$DIMTOFL
 70
     0
  9
$DIMTVP
 40
0.0
  9
$DIMTIX
 70
     0
  9
$DIMSOXD
 70
     0
  9
$DIMSAH
 70
     0
  9
$DIMBLK1
  1

  9
$DIMBLK2
  1

  9
$DIMSTYLE
  2
STANDARD1
  9
$DIMCLRD
 70
     0
  9
$DIMCLRE
 70
     0
  9
$DIMCLRT
 70
     0
  9
$DIMTFAC
 40
1.0
  9
$DIMGAP
 40
3.0
  9
$DIMJUST
 70
     0
  9
$DIMSD1
 70
     0
  9
$DIMSD2
 70
     0
  9
$DIMTOLJ
 70
     1
  9
$DIMTZIN
 70
     0
  9
$DIMALTZ
 70
     0
  9
$DIMALTTZ
 70
     0
  9
$DIMUPT
 70
     0
  9
$DIMDEC
 70
     1
  9
$DIMTDEC
 70
     1
  9
$DIMALTU
 70
     2
  9
$DIMALTTD
 70
     2
  9
$DIMTXSTY
  7
STANDARD
  9
$DIMAUNIT
 70
     0
  9
$DIMADEC
 70
     0
  9
$DIMALTRND
 40
0.0
  9
$DIMAZIN
 70
     0
  9
$DIMDSEP
 70
    46
  9
$DIMATFIT
 70
     2
  9
$DIMFRAC
 70
     0
  9
$DIMLDRBLK
  1
OPEN
  9
$DIMLUNIT
 70
     2
  9
$DIMLWD
 70
    -2
  9
$DIMLWE
 70
    -2
  9
$DIMTMOVE
 70
     0
  9
$LUNITS
 70
     2
  9
$LUPREC
 70
     4
  9
$SKETCHINC
 40
0.1
  9
$FILLETRAD
 40
0.0
  9
$AUNITS
 70
     0
  9
$AUPREC
 70
     0
  9
$MENU
  1
.
  9
$ELEVATION
 40
0.0
  9
$PELEVATION
 40
0.0
  9
$THICKNESS
 40
0.0
  9
$LIMCHECK
 70
     0
  9
$CHAMFERA
 40
0.0
  9
$CHAMFERB
 40
0.0
  9
$CHAMFERC
 40
0.0
  9
$CHAMFERD
 40
0.0
  9
$SKPOLY
 70
     0
  9
$TDCREATE
 40
2452286.555658657
  9
$TDUCREATE
 40
2452286.180658657
  9
$TDUPDATE
 40
2454700.846862696
  9
$TDUUPDATE
 40
2454700.471862696
  9
$TDINDWG
 40
1.4360785301
  9
$TDUSRTIMER
 40
1.4360772569
  9
$USRTIMER
 70
     1
  9
$ANGBASE
 50
0.0
  9
$ANGDIR
 70
     0
  9
$PDMODE
 70
     0
  9
$PDSIZE
 40
0.0
  9
$PLINEWID
 40
0.0
  9
$SPLFRAME
 70
     0
  9
$SPLINETYPE
 70
     6
  9
$SPLINESEGS
 70
     8
  9
$HANDSEED
  5
D1EF
  9
$SURFTAB1
 70
     6
  9
$SURFTAB2
 70
     6
  9
$SURFTYPE
 70
     6
  9
$SURFU
 70
     6
  9
$SURFV
 70
     6
  9
$UCSBASE
  2

  9
$UCSNAME
  2

  9
$UCSORG
 10
0.0
 20
0.0
 30
0.0
  9
$UCSXDIR
 10
1.0
 20
0.0
 30
0.0
  9
$UCSYDIR
 10
0.0
 20
1.0
 30
0.0
  9
$UCSORTHOREF
  2

  9
$UCSORTHOVIEW
 70
     0
  9
$UCSORGTOP
 10
0.0
 20
0.0
 30
0.0
  9
$UCSORGBOTTOM
 10
0.0
 20
0.0
 30
0.0
  9
$UCSORGLEFT
 10
0.0
 20
0.0
 30
0.0
  9
$UCSORGRIGHT
 10
0.0
 20
0.0
 30
0.0
  9
$UCSORGFRONT
 10
0.0
 20
0.0
 30
0.0
  9
$UCSORGBACK
 10
0.0
 20
0.0
 30
0.0
  9
$PUCSBASE
  2

  9
$PUCSNAME
  2

  9
$PUCSORG
 10
0.0
 20
0.0
 30
0.0
  9
$PUCSXDIR
 10
1.0
 20
0.0
 30
0.0
  9
$PUCSYDIR
 10
0.0
 20
1.0
 30
0.0
  9
$PUCSORTHOREF
  2

  9
$PUCSORTHOVIEW
 70
     0
  9
$PUCSORGTOP
 10
0.0
 20
0.0
 30
0.0
  9
$PUCSORGBOTTOM
 10
0.0
 20
0.0
 30
0.0
  9
$PUCSORGLEFT
 10
0.0
 20
0.0
 30
0.0
  9
$PUCSORGRIGHT
 10
0.0
 20
0.0
 30
0.0
  9
$PUCSORGFRONT
 10
0.0
 20
0.0
 30
0.0
  9
$PUCSORGBACK
 10
0.0
 20
0.0
 30
0.0
  9
$USERI1
 70
     0
  9
$USERI2
 70
     0
  9
$USERI3
 70
     0
  9
$USERI4
 70
     0
  9
$USERI5
 70
     0
  9
$USERR1
 40
0.0
  9
$USERR2
 40
0.0
  9
$USERR3
 40
0.0
  9
$USERR4
 40
0.0
  9
$USERR5
 40
0.0
  9
$WORLDVIEW
 70
     1
  9
$SHADEDGE
 70
     3
  9
$SHADEDIF
 70
    70
  9
$TILEMODE
 70
     1
  9
$MAXACTVP
 70
    48
  9
$PINSBASE
 10
0.0
 20
0.0
 30
0.0
  9
$PLIMCHECK
 70
     0
  9
$PEXTMIN
 10
4.273573370203961
 20
5.205246163471485
 30
0.0
  9
$PEXTMAX
 10
194.6100952986349
 20
283.0697008572913
 30
0.0
  9
$PLIMMIN
 10
-5.873748779296875
 20
-5.873749732971191
  9
$PLIMMAX
 10
204.0995788574218
 20
291.1369009017943
  9
$UNITMODE
 70
     0
  9
$VISRETAIN
 70
     1
  9
$PLINEGEN
 70
     0
  9
$PSLTSCALE
 70
     1
  9
$TREEDEPTH
 70
  3020
  9
$CMLSTYLE
  2
STANDARD
  9
$CMLJUST
 70
     0
  9
$CMLSCALE
 40
1.0
  9
$PROXYGRAPHICS
 70
     1
  9
$MEASUREMENT
 70
     0
  9
$CELWEIGHT
370
    -1
  9
$ENDCAPS
280
     0
  9
$JOINSTYLE
280
     0
  9
$LWDISPLAY
290
     0
  9
$INSUNITS
 70
     0
  9
$HYPERLINKBASE
  1

  9
$STYLESHEET
  1
monochrome.ctb
  9
$XEDIT
290
     1
  9
$CEPSNTYPE
380
     0
  9
$PSTYLEMODE
290
     1
  9
$FINGERPRINTGUID
  2

  9
$VERSIONGUID
  2
{7EAD1CA9-3484-4D7F-AF63-396F60ACE575}
  9
$EXTNAMES
290
     1
  9
$PSVPSCALE
 40
0.0
  9
$OLESTARTUP
290
     0
  0
ENDSEC
  0
SECTION
  2
CLASSES
  0
CLASS
  1
ACDBDICTIONARYWDFLT
  2
AcDbDictionaryWithDefault
  3
AutoCAD 2000
 90
        0
280
     0
281
     0
  0
CLASS
  1
ACDBPLACEHOLDER
  2
AcDbPlaceHolder
  3
AutoCAD 2000
 90
        0
280
     0
281
     0
  0
CLASS
  1
LAYOUT
  2
AcDbLayout
  3
AutoCAD 2000
 90
        0
280
     0
281
     0
  0
CLASS
  1
LONG_TRANSACTION
  2
AcDbLongTransaction
  3
AutoCAD 2000
 90
    32768
280
     0
281
     0
  0
CLASS
  1
LWPOLYLINE
  2
AcDbPolyline
  3
AutoCAD 2000
 90
    32768
280
     0
281
     1
  0
CLASS
  1
HATCH
  2
AcDbHatch
  3
AutoCAD 2000
 90
    32768
280
     0
281
     1
  0
CLASS
  1
XRECORD
  2
AcDbXrecord
  3
AutoCAD 2000
 90
    32768
280
     0
281
     0
  0
CLASS
  1
LONG_TRANSACTION
  2
AcDbLongTransaction
  3
AutoCAD 2000
 90
    32768
280
     0
281
     0
  0
CLASS
  1
LWPOLYLINE
  2
AcDbPolyline
  3
AutoCAD 2000
 90
    32768
280
     0
281
     1
  0
CLASS
  1
HATCH
  2
AcDbHatch
  3
AutoCAD 2000
 90
    32768
280
     0
281
     1
  0
CLASS
  1
XRECORD
  2
AcDbXrecord
  3
AutoCAD 2000
 90
    32768
280
     0
281
     0
  0
CLASS
  1
LONG_TRANSACTION
  2
AcDbLongTransaction
  3
AutoCAD 2000
 90
    32768
280
     0
281
     0
  0
CLASS
  1
LWPOLYLINE
  2
AcDbPolyline
  3
AutoCAD 2000
 90
    32768
280
     0
281
     1
  0
CLASS
  1
HATCH
  2
AcDbHatch
  3
AutoCAD 2000
 90
    32768
280
     0
281
     1
  0
CLASS
  1
XRECORD
  2
AcDbXrecord
  3
AutoCAD 2000
 90
    32768
280
     0
281
     0
  0
CLASS
  1
LONG_TRANSACTION
  2
AcDbLongTransaction
  3
AutoCAD 2000
 90
    32768
280
     0
281
     0
  0
CLASS
  1
LWPOLYLINE
  2
AcDbPolyline
  3
AutoCAD 2000
 90
    32768
280
     0
281
     1
  0
CLASS
  1
HATCH
  2
AcDbHatch
  3
AutoCAD 2000
 90
    32768
280
     0
281
     1
  0
CLASS
  1
XRECORD
  2
AcDbXrecord
  3
AutoCAD 2000
 90
    32768
280
     0
281
     0
  0
CLASS
  1
LONG_TRANSACTION
  2
AcDbLongTransaction
  3
AutoCAD 2000
 90
    32768
280
     0
281
     0
  0
CLASS
  1
LWPOLYLINE
  2
AcDbPolyline
  3
AutoCAD 2000
 90
    32768
280
     0
281
     1
  0
CLASS
  1
HATCH
  2
AcDbHatch
  3
AutoCAD 2000
 90
    32768
280
     0
281
     1
  0
CLASS
  1
XRECORD
  2
AcDbXrecord
  3
AutoCAD 2000
 90
    32768
280
     0
281
     0
  0
CLASS
  1
LONG_TRANSACTION
  2
AcDbLongTransaction
  3
AutoCAD 2000
 90
    32768
280
     0
281
     0
  0
CLASS
  1
LWPOLYLINE
  2
AcDbPolyline
  3
AutoCAD 2000
 90
    32768
280
     0
281
     1
  0
CLASS
  1
HATCH
  2
AcDbHatch
  3
AutoCAD 2000
 90
    32768
280
     0
281
     1
  0
CLASS
  1
XRECORD
  2
AcDbXrecord
  3
AutoCAD 2000
 90
    32768
280
     0
281
     0
  0
CLASS
  1
LONG_TRANSACTION
  2
AcDbLongTransaction
  3
AutoCAD 2000
 90
    32768
280
     0
281
     0
  0
CLASS
  1
LWPOLYLINE
  2
AcDbPolyline
  3
AutoCAD 2000
 90
    32768
280
     0
281
     1
  0
CLASS
  1
HATCH
  2
AcDbHatch
  3
AutoCAD 2000
 90
    32768
280
     0
281
     1
  0
CLASS
  1
XRECORD
  2
AcDbXrecord
  3
AutoCAD 2000
 90
    32768
280
     0
281
     0
  0
CLASS
  1
LONG_TRANSACTION
  2
AcDbLongTransaction
  3
AutoCAD 2000
 90
    32768
280
     0
281
     0
  0
CLASS
  1
LWPOLYLINE
  2
AcDbPolyline
  3
AutoCAD 2000
 90
    32768
280
     0
281
     1
  0
CLASS
  1
HATCH
  2
AcDbHatch
  3
AutoCAD 2000
 90
    32768
280
     0
281
     1
  0
CLASS
  1
XRECORD
  2
AcDbXrecord
  3
AutoCAD 2000
 90
    32768
280
     0
281
     0
  0
CLASS
  1
LONG_TRANSACTION
  2
AcDbLongTransaction
  3
AutoCAD 2000
 90
    32768
280
     0
281
     0
  0
CLASS
  1
LWPOLYLINE
  2
AcDbPolyline
  3
AutoCAD 2000
 90
    32768
280
     0
281
     1
  0
CLASS
  1
HATCH
  2
AcDbHatch
  3
AutoCAD 2000
 90
    32768
280
     0
281
     1
  0
CLASS
  1
XRECORD
  2
AcDbXrecord
  3
AutoCAD 2000
 90
    32768
280
     0
281
     0
  0
CLASS
  1
LONG_TRANSACTION
  2
AcDbLongTransaction
  3
AutoCAD 2000
 90
    32768
280
     0
281
     0
  0
CLASS
  1
LWPOLYLINE
  2
AcDbPolyline
  3
AutoCAD 2000
 90
    32768
280
     0
281
     1
  0
CLASS
  1
HATCH
  2
AcDbHatch
  3
AutoCAD 2000
 90
    32768
280
     0
281
     1
  0
CLASS
  1
XRECORD
  2
AcDbXrecord
  3
AutoCAD 2000
 90
    32768
280
     0
281
     0
  0
CLASS
  1
LONG_TRANSACTION
  2
AcDbLongTransaction
  3
AutoCAD 2000
 90
    32768
280
     0
281
     0
  0
CLASS
  1
LWPOLYLINE
  2
AcDbPolyline
  3
AutoCAD 2000
 90
    32768
280
     0
281
     1
  0
CLASS
  1
HATCH
  2
AcDbHatch
  3
AutoCAD 2000
 90
    32768
280
     0
281
     1
  0
CLASS
  1
XRECORD
  2
AcDbXrecord
  3
AutoCAD 2000
 90
    32768
280
     0
281
     0
  0
CLASS
  1
LONG_TRANSACTION
  2
AcDbLongTransaction
  3
AutoCAD 2000
 90
    32768
280
     0
281
     0
  0
CLASS
  1
LWPOLYLINE
  2
AcDbPolyline
  3
AutoCAD 2000
 90
    32768
280
     0
281
     1
  0
CLASS
  1
HATCH
  2
AcDbHatch
  3
AutoCAD 2000
 90
    32768
280
     0
281
     1
  0
CLASS
  1
XRECORD
  2
AcDbXrecord
  3
AutoCAD 2000
 90
    32768
280
     0
281
     0
  0
CLASS
  1
LONG_TRANSACTION
  2
AcDbLongTransaction
  3
AutoCAD 2000
 90
    32768
280
     0
281
     0
  0
CLASS
  1
LWPOLYLINE
  2
AcDbPolyline
  3
AutoCAD 2000
 90
    32768
280
     0
281
     1
  0
CLASS
  1
HATCH
  2
AcDbHatch
  3
AutoCAD 2000
 90
    32768
280
     0
281
     1
  0
CLASS
  1
XRECORD
  2
AcDbXrecord
  3
AutoCAD 2000
 90
    32768
280
     0
281
     0
  0
CLASS
  1
LONG_TRANSACTION
  2
AcDbLongTransaction
  3
AutoCAD 2000
 90
    32768
280
     0
281
     0
  0
CLASS
  1
LWPOLYLINE
  2
AcDbPolyline
  3
AutoCAD 2000
 90
    32768
280
     0
281
     1
  0
CLASS
  1
HATCH
  2
AcDbHatch
  3
AutoCAD 2000
 90
    32768
280
     0
281
     1
  0
CLASS
  1
XRECORD
  2
AcDbXrecord
  3
AutoCAD 2000
 90
    32768
280
     0
281
     0
  0
CLASS
  1
LONG_TRANSACTION
  2
AcDbLongTransaction
  3
AutoCAD 2000
 90
    32768
280
     0
281
     0
  0
CLASS
  1
LWPOLYLINE
  2
AcDbPolyline
  3
AutoCAD 2000
 90
    32768
280
     0
281
     1
  0
CLASS
  1
HATCH
  2
AcDbHatch
  3
AutoCAD 2000
 90
    32768
280
     0
281
     1
  0
CLASS
  1
XRECORD
  2
AcDbXrecord
  3
AutoCAD 2000
 90
    32768
280
     0
281
     0
  0
CLASS
  1
LONG_TRANSACTION
  2
AcDbLongTransaction
  3
AutoCAD 2000
 90
    32768
280
     0
281
     0
  0
CLASS
  1
LWPOLYLINE
  2
AcDbPolyline
  3
AutoCAD 2000
 90
    32768
280
     0
281
     1
  0
CLASS
  1
HATCH
  2
AcDbHatch
  3
AutoCAD 2000
 90
    32768
280
     0
281
     1
  0
CLASS
  1
XRECORD
  2
AcDbXrecord
  3
AutoCAD 2000
 90
    32768
280
     0
281
     0
  0
CLASS
  1
LONG_TRANSACTION
  2
AcDbLongTransaction
  3
AutoCAD 2000
 90
    32768
280
     0
281
     0
  0
CLASS
  1
LWPOLYLINE
  2
AcDbPolyline
  3
AutoCAD 2000
 90
    32768
280
     0
281
     1
  0
CLASS
  1
HATCH
  2
AcDbHatch
  3
AutoCAD 2000
 90
    32768
280
     0
281
     1
  0
CLASS
  1
XRECORD
  2
AcDbXrecord
  3
AutoCAD 2000
 90
    32768
280
     0
281
     0
  0
CLASS
  1
LONG_TRANSACTION
  2
AcDbLongTransaction
  3
AutoCAD 2000
 90
    32768
280
     0
281
     0
  0
CLASS
  1
LWPOLYLINE
  2
AcDbPolyline
  3
AutoCAD 2000
 90
    32768
280
     0
281
     1
  0
CLASS
  1
HATCH
  2
AcDbHatch
  3
AutoCAD 2000
 90
    32768
280
     0
281
     1
  0
CLASS
  1
XRECORD
  2
AcDbXrecord
  3
AutoCAD 2000
 90
    32768
280
     0
281
     0
  0
CLASS
  1
LONG_TRANSACTION
  2
AcDbLongTransaction
  3
AutoCAD 2000
 90
    32768
280
     0
281
     0
  0
CLASS
  1
LWPOLYLINE
  2
AcDbPolyline
  3
AutoCAD 2000
 90
    32768
280
     0
281
     1
  0
CLASS
  1
HATCH
  2
AcDbHatch
  3
AutoCAD 2000
 90
    32768
280
     0
281
     1
  0
CLASS
  1
XRECORD
  2
AcDbXrecord
  3
AutoCAD 2000
 90
    32768
280
     0
281
     0
  0
CLASS
  1
LONG_TRANSACTION
  2
AcDbLongTransaction
  3
AutoCAD 2000
 90
    32768
280
     0
281
     0
  0
CLASS
  1
LWPOLYLINE
  2
AcDbPolyline
  3
AutoCAD 2000
 90
    32768
280
     0
281
     1
  0
CLASS
  1
HATCH
  2
AcDbHatch
  3
AutoCAD 2000
 90
    32768
280
     0
281
     1
  0
CLASS
  1
XRECORD
  2
AcDbXrecord
  3
AutoCAD 2000
 90
    32768
280
     0
281
     0
  0
CLASS
  1
LONG_TRANSACTION
  2
AcDbLongTransaction
  3
AutoCAD 2000
 90
    32768
280
     0
281
     0
  0
CLASS
  1
LWPOLYLINE
  2
AcDbPolyline
  3
AutoCAD 2000
 90
    32768
280
     0
281
     1
  0
CLASS
  1
HATCH
  2
AcDbHatch
  3
AutoCAD 2000
 90
    32768
280
     0
281
     1
  0
CLASS
  1
XRECORD
  2
AcDbXrecord
  3
AutoCAD 2000
 90
    32768
280
     0
281
     0
  0
CLASS
  1
LONG_TRANSACTION
  2
AcDbLongTransaction
  3
AutoCAD 2000
 90
    32768
280
     0
281
     0
  0
CLASS
  1
LWPOLYLINE
  2
AcDbPolyline
  3
AutoCAD 2000
 90
    32768
280
     0
281
     1
  0
CLASS
  1
HATCH
  2
AcDbHatch
  3
AutoCAD 2000
 90
    32768
280
     0
281
     1
  0
CLASS
  1
XRECORD
  2
AcDbXrecord
  3
AutoCAD 2000
 90
    32768
280
     0
281
     0
  0
CLASS
  1
LONG_TRANSACTION
  2
AcDbLongTransaction
  3
AutoCAD 2000
 90
    32768
280
     0
281
     0
  0
CLASS
  1
LWPOLYLINE
  2
AcDbPolyline
  3
AutoCAD 2000
 90
    32768
280
     0
281
     1
  0
CLASS
  1
HATCH
  2
AcDbHatch
  3
AutoCAD 2000
 90
    32768
280
     0
281
     1
  0
CLASS
  1
XRECORD
  2
AcDbXrecord
  3
AutoCAD 2000
 90
    32768
280
     0
281
     0
  0
CLASS
  1
LONG_TRANSACTION
  2
AcDbLongTransaction
  3
AutoCAD 2000
 90
    32768
280
     0
281
     0
  0
CLASS
  1
LWPOLYLINE
  2
AcDbPolyline
  3
AutoCAD 2000
 90
    32768
280
     0
281
     1
  0
CLASS
  1
HATCH
  2
AcDbHatch
  3
AutoCAD 2000
 90
    32768
280
     0
281
     1
  0
CLASS
  1
XRECORD
  2
AcDbXrecord
  3
AutoCAD 2000
 90
    32768
280
     0
281
     0
  0
CLASS
  1
LONG_TRANSACTION
  2
AcDbLongTransaction
  3
AutoCAD 2000
 90
    32768
280
     0
281
     0
  0
CLASS
  1
LWPOLYLINE
  2
AcDbPolyline
  3
AutoCAD 2000
 90
    32768
280
     0
281
     1
  0
CLASS
  1
HATCH
  2
AcDbHatch
  3
AutoCAD 2000
 90
    32768
280
     0
281
     1
  0
CLASS
  1
XRECORD
  2
AcDbXrecord
  3
AutoCAD 2000
 90
    32768
280
     0
281
     0
  0
CLASS
  1
LONG_TRANSACTION
  2
AcDbLongTransaction
  3
AutoCAD 2000
 90
    32768
280
     0
281
     0
  0
CLASS
  1
LWPOLYLINE
  2
AcDbPolyline
  3
AutoCAD 2000
 90
    32768
280
     0
281
     1
  0
CLASS
  1
HATCH
  2
AcDbHatch
  3
AutoCAD 2000
 90
    32768
280
     0
281
     1
  0
CLASS
  1
XRECORD
  2
AcDbXrecord
  3
AutoCAD 2000
 90
    32768
280
     0
281
     0
  0
CLASS
  1
LONG_TRANSACTION
  2
AcDbLongTransaction
  3
AutoCAD 2000
 90
    32768
280
     0
281
     0
  0
CLASS
  1
LWPOLYLINE
  2
AcDbPolyline
  3
AutoCAD 2000
 90
    32768
280
     0
281
     1
  0
CLASS
  1
HATCH
  2
AcDbHatch
  3
AutoCAD 2000
 90
    32768
280
     0
281
     1
  0
CLASS
  1
XRECORD
  2
AcDbXrecord
  3
AutoCAD 2000
 90
    32768
280
     0
281
     0
  0
CLASS
  1
LONG_TRANSACTION
  2
AcDbLongTransaction
  3
AutoCAD 2000
 90
    32768
280
     0
281
     0
  0
CLASS
  1
LWPOLYLINE
  2
AcDbPolyline
  3
AutoCAD 2000
 90
    32768
280
     0
281
     1
  0
CLASS
  1
HATCH
  2
AcDbHatch
  3
AutoCAD 2000
 90
    32768
280
     0
281
     1
  0
CLASS
  1
XRECORD
  2
AcDbXrecord
  3
AutoCAD 2000
 90
    32768
280
     0
281
     0
  0
CLASS
  1
LONG_TRANSACTION
  2
AcDbLongTransaction
  3
AutoCAD 2000
 90
    32768
280
     0
281
     0
  0
CLASS
  1
LWPOLYLINE
  2
AcDbPolyline
  3
AutoCAD 2000
 90
    32768
280
     0
281
     1
  0
CLASS
  1
HATCH
  2
AcDbHatch
  3
AutoCAD 2000
 90
    32768
280
     0
281
     1
  0
CLASS
  1
XRECORD
  2
AcDbXrecord
  3
AutoCAD 2000
 90
    32768
280
     0
281
     0
  0
CLASS
  1
LONG_TRANSACTION
  2
AcDbLongTransaction
  3
AutoCAD 2000
 90
    32768
280
     0
281
     0
  0
CLASS
  1
LWPOLYLINE
  2
AcDbPolyline
  3
AutoCAD 2000
 90
    32768
280
     0
281
     1
  0
CLASS
  1
HATCH
  2
AcDbHatch
  3
AutoCAD 2000
 90
    32768
280
     0
281
     1
  0
CLASS
  1
XRECORD
  2
AcDbXrecord
  3
AutoCAD 2000
 90
    32768
280
     0
281
     0
  0
CLASS
  1
LONG_TRANSACTION
  2
AcDbLongTransaction
  3
AutoCAD 2000
 90
    32768
280
     0
281
     0
  0
CLASS
  1
LWPOLYLINE
  2
AcDbPolyline
  3
AutoCAD 2000
 90
    32768
280
     0
281
     1
  0
CLASS
  1
HATCH
  2
AcDbHatch
  3
AutoCAD 2000
 90
    32768
280
     0
281
     1
  0
CLASS
  1
XRECORD
  2
AcDbXrecord
  3
AutoCAD 2000
 90
    32768
280
     0
281
     0
  0
CLASS
  1
LONG_TRANSACTION
  2
AcDbLongTransaction
  3
AutoCAD 2000
 90
    32768
280
     0
281
     0
  0
CLASS
  1
LWPOLYLINE
  2
AcDbPolyline
  3
AutoCAD 2000
 90
    32768
280
     0
281
     1
  0
CLASS
  1
HATCH
  2
AcDbHatch
  3
AutoCAD 2000
 90
    32768
280
     0
281
     1
  0
CLASS
  1
XRECORD
  2
AcDbXrecord
  3
AutoCAD 2000
 90
    32768
280
     0
281
     0
  0
CLASS
  1
LONG_TRANSACTION
  2
AcDbLongTransaction
  3
AutoCAD 2000
 90
    32768
280
     0
281
     0
  0
CLASS
  1
LWPOLYLINE
  2
AcDbPolyline
  3
AutoCAD 2000
 90
    32768
280
     0
281
     1
  0
CLASS
  1
HATCH
  2
AcDbHatch
  3
AutoCAD 2000
 90
    32768
280
     0
281
     1
  0
CLASS
  1
XRECORD
  2
AcDbXrecord
  3
AutoCAD 2000
 90
    32768
280
     0
281
     0
  0
CLASS
  1
DICTIONARYVAR
  2
AcDbDictionaryVar
  3
AutoCAD 2000
 90
        0
280
     0
281
     0
  0
CLASS
  1
LONG_TRANSACTION
  2
AcDbLongTransaction
  3
AutoCAD 2000
 90
    32768
280
     0
281
     0
  0
CLASS
  1
LWPOLYLINE
  2
AcDbPolyline
  3
AutoCAD 2000
 90
    32768
280
     0
281
     1
  0
CLASS
  1
HATCH
  2
AcDbHatch
  3
AutoCAD 2000
 90
    32768
280
     0
281
     1
  0
CLASS
  1
XRECORD
  2
AcDbXrecord
  3
AutoCAD 2000
 90
    32768
280
     0
281
     0
  0
CLASS
  1
LONG_TRANSACTION
  2
AcDbLongTransaction
  3
AutoCAD 2000
 90
    32768
280
     0
281
     0
  0
CLASS
  1
LWPOLYLINE
  2
AcDbPolyline
  3
AutoCAD 2000
 90
    32768
280
     0
281
     1
  0
CLASS
  1
HATCH
  2
AcDbHatch
  3
AutoCAD 2000
 90
    32768
280
     0
281
     1
  0
CLASS
  1
XRECORD
  2
AcDbXrecord
  3
AutoCAD 2000
 90
    32768
280
     0
281
     0
  0
CLASS
  1
LONG_TRANSACTION
  2
AcDbLongTransaction
  3
AutoCAD 2000
 90
    32768
280
     0
281
     0
  0
CLASS
  1
LWPOLYLINE
  2
AcDbPolyline
  3
AutoCAD 2000
 90
    32768
280
     0
281
     1
  0
CLASS
  1
HATCH
  2
AcDbHatch
  3
AutoCAD 2000
 90
    32768
280
     0
281
     1
  0
CLASS
  1
XRECORD
  2
AcDbXrecord
  3
AutoCAD 2000
 90
    32768
280
     0
281
     0
  0
ENDSEC
  0
SECTION
  2
TABLES
  0
TABLE
  2
VPORT
  5
8
330
0
100
AcDbSymbolTable
 70
     2
  0
VPORT
  5
D1CD
330
8
100
AcDbSymbolTableRecord
100
AcDbViewportTableRecord
  2
*Active
 70
     0
 10
0.0
 20
0.0
 11
1.0
 21
1.0
 12
255.7644534193258
 22
-71.71667050630367
 13
0.0
 23
0.0
 14
1.0
 24
1.0
 15
20.0
 25
20.0
 16
0.0
 26
0.0
 36
1.0
 17
0.0
 27
0.0
 37
0.0
 40
1379.26553233669
 41
1.264026402640264
 42
50.0
 43
0.0
 44
0.0
 50
0.0
 51
0.0
 71
     0
 72
   100
 73
     1
 74
     1
 75
     1
 76
     1
 77
     0
 78
     0
281
     0
 65
     1
110
0.0
120
0.0
130
0.0
111
1.0
121
0.0
131
0.0
112
0.0
122
1.0
132
0.0
 79
     0
146
0.0
  0
ENDTAB
  0
TABLE
  2
LTYPE
  5
5
330
0
100
AcDbSymbolTable
 70
     4
  0
LTYPE
  5
13
330
5
100
AcDbSymbolTableRecord
100
AcDbLinetypeTableRecord
  2
BYBLOCK
 70
     0
  3

 72
    65
 73
     0
 40
0.0
  0
LTYPE
  5
14
330
5
100
AcDbSymbolTableRecord
100
AcDbLinetypeTableRecord
  2
BYLAYER
 70
     0
  3

 72
    65
 73
     0
 40
0.0
  0
LTYPE
  5
15
330
5
100
AcDbSymbolTableRecord
100
AcDbLinetypeTableRecord
  2
CONTINUOUS
 70
     0
  3
Solid line
 72
    65
 73
     0
 40
0.0
  0
LTYPE
  5
22
330
5
100
AcDbSymbolTableRecord
100
AcDbLinetypeTableRecord
  2
CONTINOUS
 70
     0
  3
Solid line
 72
    65
 73
     0
 40
0.0
  0
LTYPE
  5
24
330
5
100
AcDbSymbolTableRecord
100
AcDbLinetypeTableRecord
  2
DASHDOT
 70
     0
  3
__ . __ . __ . __ . __ . __ . __ . __ . __ . __
 72
    65
 73
     4
 40
1.0
 49
0.5
 74
     0
 49
-0.25
 74
     0
 49
0.0
 74
     0
 49
-0.25
 74
     0
  0
LTYPE
  5
4C47
330
5
100
AcDbSymbolTableRecord
100
AcDbLinetypeTableRecord
  2
DIVIDE
 70
     0
  3
Divide ____ . . ____ . . ____ . . ____ . . ____
 72
    65
 73
     6
 40
1.25
 49
0.5
 74
     0
 49
-0.25
 74
     0
 49
0.0
 74
     0
 49
-0.25
 74
     0
 49
0.0
 74
     0
 49
-0.25
 74
     0
  0
ENDTAB
  0
TABLE
  2
LAYER
  5
2
330
0
100
AcDbSymbolTable
 70
    16
  0
LAYER
  5
10
330
2
100
AcDbSymbolTableRecord
100
AcDbLayerTableRecord
  2
0
 70
     0
 62
     7
  6
CONTINOUS
370
    -3
390
F
  0
LAYER
  5
2F
330
2
100
AcDbSymbolTableRecord
100
AcDbLayerTableRecord
  2
10
 70
     0
 62
     4
  6
CONTINOUS
370
    -3
390
F
  0
LAYER
  5
31
330
2
100
AcDbSymbolTableRecord
100
AcDbLayerTableRecord
  2
12
 70
     0
 62
     3
  6
CONTINOUS
370
    -3
390
F
  0
LAYER
  5
35
330
2
100
AcDbSymbolTableRecord
100
AcDbLayerTableRecord
  2
16
 70
     0
 62
     6
  6
DASHDOT
370
    -3
390
F
  0
LAYER
  5
38
330
2
100
AcDbSymbolTableRecord
100
AcDbLayerTableRecord
  2
19
 70
     0
 62
     7
  6
CONTINOUS
370
    -3
390
F
  0
LAYER
  5
3C
330
2
100
AcDbSymbolTableRecord
100
AcDbLayerTableRecord
  2
11
 70
     0
 62
     1
  6
CONTINOUS
370
    -3
390
F
  0
LAYER
  5
3D
330
2
100
AcDbSymbolTableRecord
100
AcDbLayerTableRecord
  2
24
 70
     0
 62
     2
  6
CONTINOUS
370
    -3
390
F
  0
LAYER
  5
3A2
330
2
100
AcDbSymbolTableRecord
100
AcDbLayerTableRecord
  2
30
 70
     0
 62
     9
  6
CONTINUOUS
370
    -3
390
F
  0
LAYER
  5
3A4
330
2
100
AcDbSymbolTableRecord
100
AcDbLayerTableRecord
  2
DEFPOINTS
 70
     0
 62
     7
  6
CONTINUOUS
290
     0
370
    -3
390
F
  0
LAYER
  5
3BBA
330
2
100
AcDbSymbolTableRecord
100
AcDbLayerTableRecord
  2
18
 70
     0
 62
     5
  6
DIVIDE
370
    -3
390
F
  0
LAYER
  5
5D4D
330
2
100
AcDbSymbolTableRecord
100
AcDbLayerTableRecord
  2
17
 70
     0
 62
     2
  6
DASHDOT
370
    -3
390
F
  0
LAYER
  5
7355
330
2
100
AcDbSymbolTableRecord
100
AcDbLayerTableRecord
  2
1
 70
     0
 62
     7
  6
CONTINUOUS
370
    -3
390
F
  0
LAYER
  5
A063
330
2
100
AcDbSymbolTableRecord
100
AcDbLayerTableRecord
  2
160
 70
     0
 62
     7
  6
CONTINUOUS
370
    -3
390
F
  0
LAYER
  5
A064
330
2
100
AcDbSymbolTableRecord
100
AcDbLayerTableRecord
  2
225
 70
     0
 62
     7
  6
CONTINUOUS
370
    -3
390
F
  0
LAYER
  5
A065
330
2
100
AcDbSymbolTableRecord
100
AcDbLayerTableRecord
  2
150
 70
     0
 62
     7
  6
CONTINUOUS
370
    -3
390
F
  0
LAYER
  5
AFBB
330
2
100
AcDbSymbolTableRecord
100
AcDbLayerTableRecord
  2
21
 70
     0
 62
     7
  6
CONTINUOUS
370
    -3
390
F
  0
ENDTAB
  0
TABLE
  2
STYLE
  5
3
330
0
100
AcDbSymbolTable
 70
     3
  0
STYLE
  5
11
330
3
100
AcDbSymbolTableRecord
100
AcDbTextStyleTableRecord
  2
STANDARD
 70
     0
 40
0.0
 41
1.0
 50
0.0
 71
     0
 42
2.0
  3
txt.shx
  4
bigfont.shx
  0
STYLE
  5
42
330
3
100
AcDbSymbolTableRecord
100
AcDbTextStyleTableRecord
  2
STANDARD1
 70
     0
 40
0.0
 41
1.0
 50
0.0
 71
     0
 42
5.0
  3
MONOTXT
  4
BIGFONT
  0
STYLE
  5
CEFE
330
3
100
AcDbSymbolTableRecord
100
AcDbTextStyleTableRecord
  2

 70
     1
 40
0.0
 41
1.0
 50
0.0
 71
     0
 42
5.0
  3
ltypeshp.shx
  4

  0
ENDTAB
  0
TABLE
  2
VIEW
  5
6
330
0
100
AcDbSymbolTable
 70
     3
  0
VIEW
  5
230C
330
6
100
AcDbSymbolTableRecord
100
AcDbViewTableRecord
  2
OLE1
 70
     0
 40
148.9124878027714
 10
429.4976280407222
 20
2.560626997828478
 41
103.1458057716444
 11
0.0
 21
0.0
 31
1.0
 12
0.0
 22
0.0
 32
0.0
 42
50.0
 43
0.0
 44
0.0
 50
0.0
 71
     0
281
     0
 72
     0
  0
VIEW
  5
230E
330
6
100
AcDbSymbolTableRecord
100
AcDbViewTableRecord
  2
OLE2
 70
     0
 40
170.7786920545775
 10
322.664969958371
 20
-5.978304054290276
 41
102.4672152327465
 11
0.0
 21
0.0
 31
1.0
 12
0.0
 22
0.0
 32
0.0
 42
50.0
 43
0.0
 44
0.0
 50
0.0
 71
     0
281
     0
 72
     0
  0
VIEW
  5
23AA
330
6
100
AcDbSymbolTableRecord
100
AcDbViewTableRecord
  2
OLE3
 70
     0
 40
591.7897393182231
 10
84.79698158148218
 20
-46.09336010803995
 41
388.7920961799953
 11
0.0
 21
0.0
 31
1.0
 12
0.0
 22
0.0
 32
0.0
 42
50.0
 43
0.0
 44
0.0
 50
0.0
 71
     0
281
     0
 72
     0
  0
ENDTAB
  0
TABLE
  2
UCS
  5
7
330
0
100
AcDbSymbolTable
 70
     0
  0
ENDTAB
  0
TABLE
  2
APPID
  5
9
330
0
100
AcDbSymbolTable
 70
     2
  0
APPID
  5
12
330
9
100
AcDbSymbolTableRecord
100
AcDbRegAppTableRecord
  2
ACAD
 70
     0
  0
APPID
  5
ECD
330
9
100
AcDbSymbolTableRecord
100
AcDbRegAppTableRecord
  2
CONTENTBLOCKICON
 70
     0
  0
ENDTAB
  0
TABLE
  2
DIMSTYLE
  5
A
330
0
100
AcDbSymbolTable
 70
     2
100
AcDbDimStyleTable
 71
     2
340
AFBC
340
175
  0
DIMSTYLE
105
175
330
A
100
AcDbSymbolTableRecord
100
AcDbDimStyleTableRecord
  2
STANDARD
 70
     0
 41
2.0
 42
1.0
 43
0.5
 44
0.5
 73
     0
 77
     3
 78
    12
140
5.0
147
1.0
271
     1
272
     1
340
11
341
3B2
342
3B2
  0
DIMSTYLE
105
AFBC
102
{ACAD_REACTORS
330
A642
330
A62A
330
A629
330
A627
330
A625
330
A624
330
A622
330
A75D
330
A75B
330
B484
330
B476
330
A75C
330
B58B
330
B58C
330
B593
330
B594
330
B595
330
A798
330
A758
330
A7D2
330
B90E
330
B912
330
B921
330
B924
330
B935
330
BA57
330
BB20
330
BB38
330
BB4D
330
A732
330
A733
330
A738
330
A73E
330
A731
330
A73F
102
}
330
A
100
AcDbSymbolTableRecord
100
AcDbDimStyleTableRecord
  2
STANDARD1
 70
     0
 41
2.0
 42
3.0
 43
0.5
 44
0.5
 73
     0
 77
     3
 78
    12
140
6.0
147
3.0
271
     1
272
     1
289
     2
340
11
341
3B2
342
3B2
  0
ENDTAB
  0
TABLE
  2
BLOCK_RECORD
  5
1
330
0
100
AcDbSymbolTable
 70
    42
  0
BLOCK_RECORD
  5
1E
102
{ACAD_XDICTIONARY
360
178
102
}
330
1
100
AcDbSymbolTableRecord
100
AcDbBlockTableRecord
  2
*MODEL_SPACE
340
8B11
  0
BLOCK_RECORD
  5
1A
102
{ACAD_XDICTIONARY
360
17A
102
}
330
1
100
AcDbSymbolTableRecord
100
AcDbBlockTableRecord
  2
*PAPER_SPACE
340
8B12
  0
BLOCK_RECORD
  5
3B2
330
1
100
AcDbSymbolTableRecord
100
AcDbBlockTableRecord
  2
_OPEN
340
0
102
{BLKREFS
331
B174
331
B175
331
B186
331
B187
331
B9D7
331
B9D8
331
B9E0
331
B9E1
331
B9E9
331
B9EA
331
B9F2
331
B9F3
331
B9FA
331
B9FB
331
C7F0
331
C7F1
331
C937
331
C938
331
C940
331
C941
331
C949
331
C94A
331
C96D
331
C96E
331
C991
331
C992
331
C9A4
331
C9A5
331
CBB9
331
CBBA
331
CBCB
331
CBCC
331
CC0A
331
CC0B
331
CCF4
331
CCF5
331
CCFD
331
CCFE
331
CD06
331
CD07
331
CD0F
331
CD10
331
CD18
331
CD19
331
CD22
331
CD23
331
CD2B
331
CD2C
331
CD36
331
CD37
331
CD3F
331
CD40
331
CD48
331
CD49
331
CD51
331
CD52
331
CD5A
331
CD5B
331
CD63
331
CD64
331
CD6C
331
CD6D
331
CD75
331
CD76
331
CDDE
331
CDDF
331
CE0B
331
CE0C
331
CE13
331
CE14
331
CE1C
331
CE1D
331
CE25
331
CE26
331
CE2D
331
CE35
331
CE3E
331
CE3F
331
CE47
331
CE48
331
CE50
331
CE51
331
CE59
331
CE5A
331
CE62
331
CE63
331
CE6A
331
CE6B
331
CE86
331
CE87
331
CE8E
331
CE8F
331
CE97
331
CE98
331
CEA0
331
CEA1
331
CEA9
331
CEAA
331
CEB2
331
CEB3
331
CEBB
331
CEBC
331
CEC4
331
CEC5
331
CECD
331
CECE
331
CED6
331
CED7
331
CEDF
331
CEE0
331
CEE8
331
CEE9
331
CEF1
331
CEF2
331
CF02
331
CF03
331
CF0B
331
CF0C
331
CF14
331
CF15
331
CF1E
331
CF1F
331
CF27
331
CF28
331
CF30
331
CF31
331
CF39
331
CF3A
331
CF42
331
CF43
331
CF4C
331
CF4D
331
CF55
331
CF56
331
CF5E
331
CF5F
331
CF67
331
CF68
331
CF70
331
CF71
331
CF79
331
CF7A
331
CF82
331
CF83
331
CF8B
331
CF8C
331
CF93
331
CF9C
331
CF9D
331
CFA4
331
CFAD
331
CFAE
331
CFB6
331
CFB7
331
CFC1
331
CFC2
331
CFCA
331
CFCB
331
CFD3
331
CFD4
331
CFDC
331
CFDD
331
CFE5
331
CFE6
331
CFEE
331
CFEF
331
CFF7
331
CFF8
331
D000
331
D001
331
D009
331
D00A
331
D011
331
D012
331
D01A
331
D01B
331
D023
331
D024
331
D02C
331
D02D
331
D035
331
D036
331
D03E
331
D03F
331
D047
331
D048
331
D04F
331
D050
331
D057
331
D05F
331
D068
331
D069
331
D071
331
D072
331
D07A
331
D07B
331
D083
331
D084
331
D0AF
331
D0B0
331
D0B8
331
D0B9
331
D0C1
331
D0C2
331
D0CA
331
D0CB
331
D0D3
331
D0D4
331
D0DC
331
D0DD
331
D0E5
331
D0E6
331
D0EE
331
D0EF
331
D0F8
331
D0F9
331
D101
331
D102
331
D10A
331
D10B
331
D113
331
D114
331
D11C
331
D11D
331
D124
331
D12C
331
D135
331
D136
331
D140
331
D141
331
D149
331
D14A
331
D152
331
D153
331
D15B
331
D15C
331
D164
331
D165
331
D16D
331
D16E
102
}
  0
BLOCK_RECORD
  5
A91A
330
1
100
AcDbSymbolTableRecord
100
AcDbBlockTableRecord
  2
*D1
340
0
  0
BLOCK_RECORD
  5
A932
330
1
100
AcDbSymbolTableRecord
100
AcDbBlockTableRecord
  2
*D2
340
0
  0
BLOCK_RECORD
  5
A93F
330
1
100
AcDbSymbolTableRecord
100
AcDbBlockTableRecord
  2
*D3
340
0
  0
BLOCK_RECORD
  5
A94B
330
1
100
AcDbSymbolTableRecord
100
AcDbBlockTableRecord
  2
*D4
340
0
  0
BLOCK_RECORD
  5
A958
330
1
100
AcDbSymbolTableRecord
100
AcDbBlockTableRecord
  2
*D5
340
0
  0
BLOCK_RECORD
  5
A965
330
1
100
AcDbSymbolTableRecord
100
AcDbBlockTableRecord
  2
*D6
340
0
  0
BLOCK_RECORD
  5
A972
330
1
100
AcDbSymbolTableRecord
100
AcDbBlockTableRecord
  2
*D7
340
0
  0
BLOCK_RECORD
  5
A97E
330
1
100
AcDbSymbolTableRecord
100
AcDbBlockTableRecord
  2
*D8
340
0
  0
BLOCK_RECORD
  5
A98A
330
1
100
AcDbSymbolTableRecord
100
AcDbBlockTableRecord
  2
*D9
340
0
  0
BLOCK_RECORD
  5
A995
330
1
100
AcDbSymbolTableRecord
100
AcDbBlockTableRecord
  2
*D10
340
0
  0
BLOCK_RECORD
  5
AA8A
330
1
100
AcDbSymbolTableRecord
100
AcDbBlockTableRecord
  2
*D11
340
0
  0
BLOCK_RECORD
  5
AA97
330
1
100
AcDbSymbolTableRecord
100
AcDbBlockTableRecord
  2
*D12
340
0
  0
BLOCK_RECORD
  5
AAA4
330
1
100
AcDbSymbolTableRecord
100
AcDbBlockTableRecord
  2
*D13
340
0
  0
BLOCK_RECORD
  5
AAB0
330
1
100
AcDbSymbolTableRecord
100
AcDbBlockTableRecord
  2
*D14
340
0
  0
BLOCK_RECORD
  5
AABB
330
1
100
AcDbSymbolTableRecord
100
AcDbBlockTableRecord
  2
*D15
340
0
  0
BLOCK_RECORD
  5
AAC8
330
1
100
AcDbSymbolTableRecord
100
AcDbBlockTableRecord
  2
*D16
340
0
  0
BLOCK_RECORD
  5
AAD5
330
1
100
AcDbSymbolTableRecord
100
AcDbBlockTableRecord
  2
*D17
340
0
  0
BLOCK_RECORD
  5
AAE2
330
1
100
AcDbSymbolTableRecord
100
AcDbBlockTableRecord
  2
*D18
340
0
  0
BLOCK_RECORD
  5
AAEE
330
1
100
AcDbSymbolTableRecord
100
AcDbBlockTableRecord
  2
*D19
340
0
  0
BLOCK_RECORD
  5
AAFA
330
1
100
AcDbSymbolTableRecord
100
AcDbBlockTableRecord
  2
*D20
340
0
  0
BLOCK_RECORD
  5
AB06
330
1
100
AcDbSymbolTableRecord
100
AcDbBlockTableRecord
  2
*D21
340
0
  0
BLOCK_RECORD
  5
AB4C
330
1
100
AcDbSymbolTableRecord
100
AcDbBlockTableRecord
  2
*D22
340
0
  0
BLOCK_RECORD
  5
B477
330
1
100
AcDbSymbolTableRecord
100
AcDbBlockTableRecord
  2
*D23
340
0
  0
BLOCK_RECORD
  5
B485
330
1
100
AcDbSymbolTableRecord
100
AcDbBlockTableRecord
  2
*D24
340
0
  0
BLOCK_RECORD
  5
B596
330
1
100
AcDbSymbolTableRecord
100
AcDbBlockTableRecord
  2
*D25
340
0
  0
BLOCK_RECORD
  5
B5A3
330
1
100
AcDbSymbolTableRecord
100
AcDbBlockTableRecord
  2
*D26
340
0
  0
BLOCK_RECORD
  5
B5AF
330
1
100
AcDbSymbolTableRecord
100
AcDbBlockTableRecord
  2
*D27
340
0
  0
BLOCK_RECORD
  5
B5BB
330
1
100
AcDbSymbolTableRecord
100
AcDbBlockTableRecord
  2
*D28
340
0
  0
BLOCK_RECORD
  5
B5C7
330
1
100
AcDbSymbolTableRecord
100
AcDbBlockTableRecord
  2
*D29
340
0
  0
BLOCK_RECORD
  5
B5D3
330
1
100
AcDbSymbolTableRecord
100
AcDbBlockTableRecord
  2
*D30
340
0
  0
BLOCK_RECORD
  5
B976
330
1
100
AcDbSymbolTableRecord
100
AcDbBlockTableRecord
  2
*D31
340
0
  0
BLOCK_RECORD
  5
B982
330
1
100
AcDbSymbolTableRecord
100
AcDbBlockTableRecord
  2
*D32
340
0
  0
BLOCK_RECORD
  5
B98E
330
1
100
AcDbSymbolTableRecord
100
AcDbBlockTableRecord
  2
*D33
340
0
  0
BLOCK_RECORD
  5
B99A
330
1
100
AcDbSymbolTableRecord
100
AcDbBlockTableRecord
  2
*D34
340
0
  0
BLOCK_RECORD
  5
B9C8
330
1
100
AcDbSymbolTableRecord
100
AcDbBlockTableRecord
  2
*D35
340
0
  0
BLOCK_RECORD
  5
BA58
330
1
100
AcDbSymbolTableRecord
100
AcDbBlockTableRecord
  2
*D36
340
0
  0
BLOCK_RECORD
  5
BB4F
330
1
100
AcDbSymbolTableRecord
100
AcDbBlockTableRecord
  2
*D37
340
0
  0
BLOCK_RECORD
  5
BB8A
330
1
100
AcDbSymbolTableRecord
100
AcDbBlockTableRecord
  2
*D38
340
0
  0
BLOCK_RECORD
  5
BBA2
330
1
100
AcDbSymbolTableRecord
100
AcDbBlockTableRecord
  2
*D39
340
0
  0
BLOCK_RECORD
  5
BBB9
330
1
100
AcDbSymbolTableRecord
100
AcDbBlockTableRecord
  2
*D40
340
0
  0
BLOCK_RECORD
  5
BBC4
330
1
100
AcDbSymbolTableRecord
100
AcDbBlockTableRecord
  2
*D41
340
0
  0
ENDTAB
  0
ENDSEC
  0
SECTION
  2
BLOCKS
  0
BLOCK
  5
1F
330
1E
100
AcDbEntity
  8
0
100
AcDbBlockBegin
  2
*MODEL_SPACE
 70
     0
 10
0.0
 20
0.0
 30
0.0
  3
*MODEL_SPACE
  1

  0
ENDBLK
  5
20
330
1E
100
AcDbEntity
  8
0
100
AcDbBlockEnd
  0
BLOCK
  5
1B
330
1A
100
AcDbEntity
 67
     1
  8
0
100
AcDbBlockBegin
  2
*PAPER_SPACE
 70
     0
 10
0.0
 20
0.0
 30
0.0
  3
*PAPER_SPACE
  1

  0
ENDBLK
  5
1C
330
1A
100
AcDbEntity
 67
     1
  8
0
100
AcDbBlockEnd
  0
BLOCK
  5
3B6
330
3B2
100
AcDbEntity
  8
0
100
AcDbBlockBegin
  2
_OPEN
 70
     0
 10
0.0
 20
0.0
 30
0.0
  3
_OPEN
  1

  0
LINE
  5
3B3
330
3B2
100
AcDbEntity
  8
30
  6
Continuous
 62
     0
100
AcDbLine
 10
-1.0
 20
0.1666666666666666
 30
0.0
 11
0.0
 21
0.0
 31
0.0
  0
LINE
  5
3B4
330
3B2
100
AcDbEntity
  8
30
  6
Continuous
 62
     0
100
AcDbLine
 10
-1.0
 20
-0.1666666666666666
 30
0.0
 11
0.0
 21
0.0
 31
0.0
  0
LINE
  5
3B5
330
3B2
100
AcDbEntity
  8
30
  6
Continuous
 62
     0
100
AcDbLine
 10
0.0
 20
0.0
 30
0.0
 11
-1.0
 21
0.0
 31
0.0
  0
ENDBLK
  5
3B7
330
3B2
100
AcDbEntity
  8
0
100
AcDbBlockEnd
  0
BLOCK
  5
A924
330
A91A
100
AcDbEntity
  8
0
100
AcDbBlockBegin
  2
*D1
 70
     1
 10
0.0
 20
0.0
 30
0.0
  3
*D1
  1

  0
LINE
  5
CC07
330
A91A
100
AcDbEntity
  8
30
  6
Continuous
 62
     0
370
    -2
100
AcDbLine
 10
-95.0
 20
54.50000000000006
 30
0.0
 11
-95.0
 21
84.90412500000008
 31
0.0
  0
LINE
  5
CC08
330
A91A
100
AcDbEntity
  8
30
  6
Continuous
 62
     0
370
    -2
100
AcDbLine
 10
95.0
 20
54.50000000000006
 30
0.0
 11
95.0
 21
84.90412500000008
 31
0.0
  0
LINE
  5
CC09
330
A91A
100
AcDbEntity
  8
30
  6
Continuous
 62
     0
370
    -2
100
AcDbLine
 10
-93.0
 20
84.40412500000006
 30
0.0
 11
93.0
 21
84.40412500000006
 31
0.0
  0
INSERT
  5
CC0A
330
A91A
100
AcDbEntity
  8
30
  6
Continuous
 62
     0
370
    -2
100
AcDbBlockReference
  2
_OPEN
 10
-95.0
 20
84.40412500000006
 30
0.0
 41
2.0
 42
2.0
 43
2.0
 50
180.0
  0
INSERT
  5
CC0B
330
A91A
100
AcDbEntity
  8
30
  6
Continuous
 62
     0
370
    -2
100
AcDbBlockReference
  2
_OPEN
 10
95.0
 20
84.40412500000006
 30
0.0
 41
2.0
 42
2.0
 43
2.0
  0
MTEXT
  5
CC0C
330
A91A
100
AcDbEntity
  8
30
  6
Continuous
 62
     0
100
AcDbMText
 10
0.0000000000000004
 20
90.40412500000007
 30
0.0
 40
6.0
 41
0.0
 71
     5
 72
     1
  1
\A1; 190 
 73
     1
 44
1.0
  0
POINT
  5
CC0D
330
A91A
100
AcDbEntity
  8
DEFPOINTS
  6
Continuous
 62
     0
100
AcDbPoint
 10
-95.0
 20
51.50000000000005
 30
0.0
  0
POINT
  5
CC0E
330
A91A
100
AcDbEntity
  8
DEFPOINTS
  6
Continuous
 62
     0
100
AcDbPoint
 10
95.0
 20
51.50000000000005
 30
0.0
  0
POINT
  5
CC0F
330
A91A
100
AcDbEntity
  8
DEFPOINTS
  6
Continuous
 62
     0
100
AcDbPoint
 10
95.0
 20
84.40412500000006
 30
0.0
  0
ENDBLK
  5
A925
330
A91A
100
AcDbEntity
  8
0
100
AcDbBlockEnd
  0
BLOCK
  5
A93D
330
A932
100
AcDbEntity
  8
0
100
AcDbBlockBegin
  2
*D2
 70
     1
 10
0.0
 20
0.0
 30
0.0
  3
*D2
  1

  0
LINE
  5
D06E
330
A932
100
AcDbEntity
  8
30
  6
Continuous
 62
     0
370
    -2
100
AcDbLine
 10
-113.0001199999997
 20
-169.9999999999999
 30
0.0
 11
-197.4540199999997
 21
-169.9999999999999
 31
0.0
  0
LINE
  5
D06F
330
A932
100
AcDbEntity
  8
30
  6
Continuous
 62
     0
370
    -2
100
AcDbLine
 10
-113.0001199999997
 20
200.0
 30
0.0
 11
-197.4540199999994
 21
200.0
 31
0.0
  0
LINE
  5
D070
330
A932
100
AcDbEntity
  8
30
  6
Continuous
 62
     0
370
    -2
100
AcDbLine
 10
-196.9540199999997
 20
-167.9999999999999
 30
0.0
 11
-196.9540199999995
 21
198.0
 31
0.0
  0
INSERT
  5
D071
330
A932
100
AcDbEntity
  8
30
  6
Continuous
 62
     0
370
    -2
100
AcDbBlockReference
  2
_OPEN
 10
-196.9540199999997
 20
-169.9999999999999
 30
0.0
 41
2.0
 42
2.0
 43
2.0
 50
270.0
  0
INSERT
  5
D072
330
A932
100
AcDbEntity
  8
30
  6
Continuous
 62
     0
370
    -2
100
AcDbBlockReference
  2
_OPEN
 10
-196.9540199999995
 20
200.0
 30
0.0
 41
2.0
 42
2.0
 43
2.0
 50
90.0
  0
MTEXT
  5
D073
330
A932
100
AcDbEntity
  8
30
  6
Continuous
 62
     0
100
AcDbMText
 10
-202.9540199999996
 20
15.00000000000002
 30
0.0
 40
6.0
 41
0.0
 71
     5
 72
     1
  1
\A1; 370 
 11
0.0000000000000001
 21
1.0
 31
0.0
 73
     1
 44
1.0
  0
POINT
  5
D074
330
A932
100
AcDbEntity
  8
DEFPOINTS
  6
Continuous
 62
     0
100
AcDbPoint
 10
-110.0001199999997
 20
-169.9999999999999
 30
0.0
  0
POINT
  5
D075
330
A932
100
AcDbEntity
  8
DEFPOINTS
  6
Continuous
 62
     0
100
AcDbPoint
 10
-110.0001199999997
 20
200.0
 30
0.0
  0
POINT
  5
D076
330
A932
100
AcDbEntity
  8
DEFPOINTS
  6
Continuous
 62
     0
100
AcDbPoint
 10
-196.9540199999995
 20
200.0
 30
0.0
  0
ENDBLK
  5
A93E
330
A932
100
AcDbEntity
  8
0
100
AcDbBlockEnd
  0
BLOCK
  5
A949
330
A93F
100
AcDbEntity
  8
0
100
AcDbBlockBegin
  2
*D3
 70
     1
 10
0.0
 20
0.0
 30
0.0
  3
*D3
  1

  0
LINE
  5
D080
330
A93F
100
AcDbEntity
  8
30
  6
Continuous
 62
     0
370
    -2
100
AcDbLine
 10
-149.0001199999996
 20
0.0000000000000577
 30
0.0
 11
-177.9540199999997
 21
0.0000000000000659
 31
0.0
  0
LINE
  5
D081
330
A93F
100
AcDbEntity
  8
30
  6
Continuous
 62
     0
370
    -2
100
AcDbLine
 10
-108.0001199999997
 20
199.9999999999999
 30
0.0
 11
-177.9540199999996
 21
199.9999999999999
 31
0.0
  0
LINE
  5
D082
330
A93F
100
AcDbEntity
  8
30
  6
Continuous
 62
     0
370
    -2
100
AcDbLine
 10
-177.4540199999997
 20
2.000000000000063
 30
0.0
 11
-177.4540199999995
 21
197.9999999999999
 31
0.0
  0
INSERT
  5
D083
330
A93F
100
AcDbEntity
  8
30
  6
Continuous
 62
     0
370
    -2
100
AcDbBlockReference
  2
_OPEN
 10
-177.4540199999997
 20
0.0000000000000658
 30
0.0
 41
2.0
 42
2.0
 43
2.0
 50
270.0
  0
INSERT
  5
D084
330
A93F
100
AcDbEntity
  8
30
  6
Continuous
 62
     0
370
    -2
100
AcDbBlockReference
  2
_OPEN
 10
-177.4540199999995
 20
199.9999999999999
 30
0.0
 41
2.0
 42
2.0
 43
2.0
 50
90.0
  0
MTEXT
  5
D085
330
A93F
100
AcDbEntity
  8
30
  6
Continuous
 62
     0
100
AcDbMText
 10
-183.4540199999997
 20
100.0
 30
0.0
 40
6.0
 41
0.0
 71
     5
 72
     1
  1
\A1; 200 
 11
0.0000000000000001
 21
1.0
 31
0.0
 73
     1
 44
1.0
  0
POINT
  5
D086
330
A93F
100
AcDbEntity
  8
DEFPOINTS
  6
Continuous
 62
     0
100
AcDbPoint
 10
-146.0001199999996
 20
0.0000000000000568
 30
0.0
  0
POINT
  5
D087
330
A93F
100
AcDbEntity
  8
DEFPOINTS
  6
Continuous
 62
     0
100
AcDbPoint
 10
-105.0001199999996
 20
199.9999999999999
 30
0.0
  0
POINT
  5
D088
330
A93F
100
AcDbEntity
  8
DEFPOINTS
  6
Continuous
 62
     0
100
AcDbPoint
 10
-177.4540199999995
 20
199.9999999999999
 30
0.0
  0
ENDBLK
  5
A94A
330
A93F
100
AcDbEntity
  8
0
100
AcDbBlockEnd
  0
BLOCK
  5
A956
330
A94B
100
AcDbEntity
  8
0
100
AcDbBlockBegin
  2
*D4
 70
     1
 10
0.0
 20
0.0
 30
0.0
  3
*D4
  1

  0
LINE
  5
D065
330
A94B
100
AcDbEntity
  8
30
  6
Continuous
 62
     0
370
    -2
100
AcDbLine
 10
-113.0001199999997
 20
-169.9999999999999
 30
0.0
 11
-177.9540199999997
 21
-169.9999999999999
 31
0.0
  0
LINE
  5
D066
330
A94B
100
AcDbEntity
  8
30
  6
Continuous
 62
     0
370
    -2
100
AcDbLine
 10
-177.0001199999994
 20
0.000000000000056
 30
0.0
 11
-176.9540199999996
 21
0.000000000000056
 31
0.0
  0
LINE
  5
D067
330
A94B
100
AcDbEntity
  8
30
  6
Continuous
 62
     0
370
    -2
100
AcDbLine
 10
-177.4540199999997
 20
-167.9999999999999
 30
0.0
 11
-177.4540199999995
 21
-1.999999999999944
 31
0.0
  0
INSERT
  5
D068
330
A94B
100
AcDbEntity
  8
30
  6
Continuous
 62
     0
370
    -2
100
AcDbBlockReference
  2
_OPEN
 10
-177.4540199999997
 20
-169.9999999999999
 30
0.0
 41
2.0
 42
2.0
 43
2.0
 50
270.0
  0
INSERT
  5
D069
330
A94B
100
AcDbEntity
  8
30
  6
Continuous
 62
     0
370
    -2
100
AcDbBlockReference
  2
_OPEN
 10
-177.4540199999995
 20
0.0000000000000561
 30
0.0
 41
2.0
 42
2.0
 43
2.0
 50
90.0
  0
MTEXT
  5
D06A
330
A94B
100
AcDbEntity
  8
30
  6
Continuous
 62
     0
100
AcDbMText
 10
-183.4540199999995
 20
-84.99999999999996
 30
0.0
 40
6.0
 41
0.0
 71
     5
 72
     1
  1
\A1; 170 
 11
0.0000000000000001
 21
1.0
 31
0.0
 73
     1
 44
1.0
  0
POINT
  5
D06B
330
A94B
100
AcDbEntity
  8
DEFPOINTS
  6
Continuous
 62
     0
100
AcDbPoint
 10
-110.0001199999997
 20
-169.9999999999999
 30
0.0
  0
POINT
  5
D06C
330
A94B
100
AcDbEntity
  8
DEFPOINTS
  6
Continuous
 62
     0
100
AcDbPoint
 10
-180.0001199999995
 20
0.0000000000000568
 30
0.0
  0
POINT
  5
D06D
330
A94B
100
AcDbEntity
  8
DEFPOINTS
  6
Continuous
 62
     0
100
AcDbPoint
 10
-177.4540199999995
 20
0.0000000000000561
 30
0.0
  0
ENDBLK
  5
A957
330
A94B
100
AcDbEntity
  8
0
100
AcDbBlockEnd
  0
BLOCK
  5
A963
330
A958
100
AcDbEntity
  8
0
100
AcDbBlockBegin
  2
*D5
 70
     1
 10
0.0
 20
0.0
 30
0.0
  3
*D5
  1

  0
LINE
  5
CEE5
330
A958
100
AcDbEntity
  8
30
  6
Continuous
 62
     0
370
    -2
100
AcDbLine
 10
108.0
 20
-0.0000000000000008
 30
0.0
 11
127.9538999999999
 21
-0.0000000000000065
 31
0.0
  0
LINE
  5
CEE6
330
A958
100
AcDbEntity
  8
30
  6
Continuous
 62
     0
370
    -2
100
AcDbLine
 10
102.0
 20
47.50000000000006
 30
0.0
 11
127.9538999999999
 21
47.50000000000005
 31
0.0
  0
LINE
  5
CEE7
330
A958
100
AcDbEntity
  8
30
  6
Continuous
 62
     0
370
    -2
100
AcDbLine
 10
127.4538999999997
 20
1.999999999999993
 30
0.0
 11
127.4538999999997
 21
45.50000000000005
 31
0.0
  0
INSERT
  5
CEE8
330
A958
100
AcDbEntity
  8
30
  6
Continuous
 62
     0
370
    -2
100
AcDbBlockReference
  2
_OPEN
 10
127.4538999999997
 20
-0.0000000000000064
 30
0.0
 41
2.0
 42
2.0
 43
2.0
 50
270.0
  0
INSERT
  5
CEE9
330
A958
100
AcDbEntity
  8
30
  6
Continuous
 62
     0
370
    -2
100
AcDbBlockReference
  2
_OPEN
 10
127.4538999999997
 20
47.50000000000005
 30
0.0
 41
2.0
 42
2.0
 43
2.0
 50
90.0
  0
MTEXT
  5
CEEA
330
A958
100
AcDbEntity
  8
30
  6
Continuous
 62
     0
100
AcDbMText
 10
121.4538999999999
 20
23.75000000000003
 30
0.0
 40
6.0
 41
0.0
 71
     5
 72
     1
  1
\A1; 47.5 
 11
0.0000000000000001
 21
1.0
 31
0.0
 73
     1
 44
1.0
  0
POINT
  5
CEEB
330
A958
100
AcDbEntity
  8
DEFPOINTS
  6
Continuous
 62
     0
100
AcDbPoint
 10
105.0
 20
0.0
 30
0.0
  0
POINT
  5
CEEC
330
A958
100
AcDbEntity
  8
DEFPOINTS
  6
Continuous
 62
     0
100
AcDbPoint
 10
99.0
 20
47.50000000000006
 30
0.0
  0
POINT
  5
CEED
330
A958
100
AcDbEntity
  8
DEFPOINTS
  6
Continuous
 62
     0
100
AcDbPoint
 10
127.4538999999997
 20
47.50000000000005
 30
0.0
  0
ENDBLK
  5
A964
330
A958
100
AcDbEntity
  8
0
100
AcDbBlockEnd
  0
BLOCK
  5
A970
330
A965
100
AcDbEntity
  8
0
100
AcDbBlockBegin
  2
*D6
 70
     1
 10
0.0
 20
0.0
 30
0.0
  3
*D6
  1

  0
LINE
  5
D077
330
A965
100
AcDbEntity
  8
30
  6
Continuous
 62
     0
370
    -2
100
AcDbLine
 10
-102.0001199999996
 20
-47.49999999999993
 30
0.0
 11
-157.4540199999995
 21
-47.49999999999992
 31
0.0
  0
LINE
  5
D078
330
A965
100
AcDbEntity
  8
30
  6
Continuous
 62
     0
370
    -2
100
AcDbLine
 10
-102.0001199999996
 20
47.50000000000006
 30
0.0
 11
-157.4540199999995
 21
47.50000000000006
 31
0.0
  0
LINE
  5
D079
330
A965
100
AcDbEntity
  8
30
  6
Continuous
 62
     0
370
    -2
100
AcDbLine
 10
-156.9540199999995
 20
-45.49999999999992
 30
0.0
 11
-156.9540199999995
 21
45.50000000000006
 31
0.0
  0
INSERT
  5
D07A
330
A965
100
AcDbEntity
  8
30
  6
Continuous
 62
     0
370
    -2
100
AcDbBlockReference
  2
_OPEN
 10
-156.9540199999995
 20
-47.49999999999992
 30
0.0
 41
2.0
 42
2.0
 43
2.0
 50
270.0
  0
INSERT
  5
D07B
330
A965
100
AcDbEntity
  8
30
  6
Continuous
 62
     0
370
    -2
100
AcDbBlockReference
  2
_OPEN
 10
-156.9540199999995
 20
47.50000000000006
 30
0.0
 41
2.0
 42
2.0
 43
2.0
 50
90.0
  0
MTEXT
  5
D07C
330
A965
100
AcDbEntity
  8
30
  6
Continuous
 62
     0
100
AcDbMText
 10
-162.9540199999994
 20
0.0000000000000459
 30
0.0
 40
6.0
 41
0.0
 71
     5
 72
     1
  1
\A1; 95 
 11
0.0000000000000001
 21
1.0
 31
0.0
 73
     1
 44
1.0
  0
POINT
  5
D07D
330
A965
100
AcDbEntity
  8
DEFPOINTS
  6
Continuous
 62
     0
100
AcDbPoint
 10
-99.0001199999997
 20
-47.49999999999993
 30
0.0
  0
POINT
  5
D07E
330
A965
100
AcDbEntity
  8
DEFPOINTS
  6
Continuous
 62
     0
100
AcDbPoint
 10
-99.0001199999997
 20
47.50000000000006
 30
0.0
  0
POINT
  5
D07F
330
A965
100
AcDbEntity
  8
DEFPOINTS
  6
Continuous
 62
     0
100
AcDbPoint
 10
-156.9540199999995
 20
47.50000000000006
 30
0.0
  0
ENDBLK
  5
A971
330
A965
100
AcDbEntity
  8
0
100
AcDbBlockEnd
  0
BLOCK
  5
A97C
330
A972
100
AcDbEntity
  8
0
100
AcDbBlockBegin
  2
*D7
 70
     1
 10
0.0
 20
0.0
 30
0.0
  3
*D7
  1

  0
LINE
  5
CEDC
330
A972
100
AcDbEntity
  8
30
  6
Continuous
 62
     0
370
    -2
100
AcDbLine
 10
-105.0
 20
-177.9999999999999
 30
0.0
 11
-105.0
 21
-222.0
 31
0.0
  0
LINE
  5
CEDD
330
A972
100
AcDbEntity
  8
30
  6
Continuous
 62
     0
370
    -2
100
AcDbLine
 10
105.0
 20
-177.9999999999999
 30
0.0
 11
105.0
 21
-222.0
 31
0.0
  0
LINE
  5
CEDE
330
A972
100
AcDbEntity
  8
30
  6
Continuous
 62
     0
370
    -2
100
AcDbLine
 10
-103.0
 20
-221.4999999999999
 30
0.0
 11
103.0
 21
-221.4999999999999
 31
0.0
  0
INSERT
  5
CEDF
330
A972
100
AcDbEntity
  8
30
  6
Continuous
 62
     0
370
    -2
100
AcDbBlockReference
  2
_OPEN
 10
-105.0
 20
-221.4999999999999
 30
0.0
 41
2.0
 42
2.0
 43
2.0
 50
180.0
  0
INSERT
  5
CEE0
330
A972
100
AcDbEntity
  8
30
  6
Continuous
 62
     0
370
    -2
100
AcDbBlockReference
  2
_OPEN
 10
105.0
 20
-221.4999999999999
 30
0.0
 41
2.0
 42
2.0
 43
2.0
  0
MTEXT
  5
CEE1
330
A972
100
AcDbEntity
  8
30
  6
Continuous
 62
     0
100
AcDbMText
 10
0.0000000000000004
 20
-215.5
 30
0.0
 40
6.0
 41
0.0
 71
     5
 72
     1
  1
\A1; 210 
 73
     1
 44
1.0
  0
POINT
  5
CEE2
330
A972
100
AcDbEntity
  8
DEFPOINTS
  6
Continuous
 62
     0
100
AcDbPoint
 10
-105.0
 20
-174.9999999999999
 30
0.0
  0
POINT
  5
CEE3
330
A972
100
AcDbEntity
  8
DEFPOINTS
  6
Continuous
 62
     0
100
AcDbPoint
 10
105.0
 20
-174.9999999999999
 30
0.0
  0
POINT
  5
CEE4
330
A972
100
AcDbEntity
  8
DEFPOINTS
  6
Continuous
 62
     0
100
AcDbPoint
 10
105.0
 20
-221.4999999999999
 30
0.0
  0
ENDBLK
  5
A97D
330
A972
100
AcDbEntity
  8
0
100
AcDbBlockEnd
  0
BLOCK
  5
A988
330
A97E
100
AcDbEntity
  8
0
100
AcDbBlockBegin
  2
*D8
 70
     1
 10
0.0
 20
0.0
 30
0.0
  3
*D8
  1

  0
LINE
  5
CBC8
330
A97E
100
AcDbEntity
  8
30
  6
Continuous
 62
     0
370
    -2
100
AcDbLine
 10
-105.0
 20
-177.9999999999999
 30
0.0
 11
-105.0
 21
-201.5
 31
0.0
  0
LINE
  5
CBC9
330
A97E
100
AcDbEntity
  8
30
  6
Continuous
 62
     0
370
    -2
100
AcDbLine
 10
-0.0000000000000002
 20
-175.9999999999999
 30
0.0
 11
-0.0000000000000017
 21
-201.5
 31
0.0
  0
LINE
  5
CBCA
330
A97E
100
AcDbEntity
  8
30
  6
Continuous
 62
     0
370
    -2
100
AcDbLine
 10
-103.0
 20
-201.0
 30
0.0
 11
-2.0
 21
-201.0
 31
0.0
  0
INSERT
  5
CBCB
330
A97E
100
AcDbEntity
  8
30
  6
Continuous
 62
     0
370
    -2
100
AcDbBlockReference
  2
_OPEN
 10
-105.0
 20
-201.0
 30
0.0
 41
2.0
 42
2.0
 43
2.0
 50
180.0
  0
INSERT
  5
CBCC
330
A97E
100
AcDbEntity
  8
30
  6
Continuous
 62
     0
370
    -2
100
AcDbBlockReference
  2
_OPEN
 10
-0.0000000000000017
 20
-201.0
 30
0.0
 41
2.0
 42
2.0
 43
2.0
  0
MTEXT
  5
CBCD
330
A97E
100
AcDbEntity
  8
30
  6
Continuous
 62
     0
100
AcDbMText
 10
-52.5
 20
-195.0
 30
0.0
 40
6.0
 41
0.0
 71
     5
 72
     1
  1
\A1; 105 
 73
     1
 44
1.0
  0
POINT
  5
CBCE
330
A97E
100
AcDbEntity
  8
DEFPOINTS
  6
Continuous
 62
     0
100
AcDbPoint
 10
-105.0
 20
-174.9999999999999
 30
0.0
  0
POINT
  5
CBCF
330
A97E
100
AcDbEntity
  8
DEFPOINTS
  6
Continuous
 62
     0
100
AcDbPoint
 10
0.0
 20
-172.9999999999999
 30
0.0
  0
POINT
  5
CBD0
330
A97E
100
AcDbEntity
  8
DEFPOINTS
  6
Continuous
 62
     0
100
AcDbPoint
 10
-0.0000000000000017
 20
-201.0
 30
0.0
  0
ENDBLK
  5
A989
330
A97E
100
AcDbEntity
  8
0
100
AcDbBlockEnd
  0
BLOCK
  5
A993
330
A98A
100
AcDbEntity
  8
0
100
AcDbBlockBegin
  2
*D9
 70
     1
 10
0.0
 20
0.0
 30
0.0
  3
*D9
  1

  0
LINE
  5
CECA
330
A98A
100
AcDbEntity
  8
30
  6
Continuous
 62
     0
370
    -2
100
AcDbLine
 10
-0.0000000000000002
 20
-143.0
 30
0.0
 11
-0.0000000000000038
 21
-201.5
 31
0.0
  0
LINE
  5
CECB
330
A98A
100
AcDbEntity
  8
30
  6
Continuous
 62
     0
370
    -2
100
AcDbLine
 10
105.0
 20
-172.9999999999999
 30
0.0
 11
105.0
 21
-201.5
 31
0.0
  0
LINE
  5
CECC
330
A98A
100
AcDbEntity
  8
30
  6
Continuous
 62
     0
370
    -2
100
AcDbLine
 10
1.999999999999995
 20
-201.0
 30
0.0
 11
103.0
 21
-201.0
 31
0.0
  0
INSERT
  5
CECD
330
A98A
100
AcDbEntity
  8
30
  6
Continuous
 62
     0
370
    -2
100
AcDbBlockReference
  2
_OPEN
 10
-0.0000000000000037
 20
-201.0
 30
0.0
 41
2.0
 42
2.0
 43
2.0
 50
180.0
  0
INSERT
  5
CECE
330
A98A
100
AcDbEntity
  8
30
  6
Continuous
 62
     0
370
    -2
100
AcDbBlockReference
  2
_OPEN
 10
105.0
 20
-201.0
 30
0.0
 41
2.0
 42
2.0
 43
2.0
  0
MTEXT
  5
CECF
330
A98A
100
AcDbEntity
  8
30
  6
Continuous
 62
     0
100
AcDbMText
 10
52.5
 20
-195.0
 30
0.0
 40
6.0
 41
0.0
 71
     5
 72
     1
  1
\A1; 105 
 73
     1
 44
1.0
  0
POINT
  5
CED0
330
A98A
100
AcDbEntity
  8
DEFPOINTS
  6
Continuous
 62
     0
100
AcDbPoint
 10
0.0
 20
-140.0
 30
0.0
  0
POINT
  5
CED1
330
A98A
100
AcDbEntity
  8
DEFPOINTS
  6
Continuous
 62
     0
100
AcDbPoint
 10
105.0
 20
-169.9999999999999
 30
0.0
  0
POINT
  5
CED2
330
A98A
100
AcDbEntity
  8
DEFPOINTS
  6
Continuous
 62
     0
100
AcDbPoint
 10
105.0
 20
-201.0
 30
0.0
  0
ENDBLK
  5
A994
330
A98A
100
AcDbEntity
  8
0
100
AcDbBlockEnd
  0
BLOCK
  5
A99F
330
A995
100
AcDbEntity
  8
0
100
AcDbBlockBegin
  2
*D10
 70
     1
 10
0.0
 20
0.0
 30
0.0
  3
*D10
  1

  0
LINE
  5
CBB6
330
A995
100
AcDbEntity
  8
30
  6
Continuous
 62
     0
370
    -2
100
AcDbLine
 10
-39.0
 20
-55.49999999999993
 30
0.0
 11
-39.0
 21
-103.5958749999999
 31
0.0
  0
LINE
  5
CBB7
330
A995
100
AcDbEntity
  8
30
  6
Continuous
 62
     0
370
    -2
100
AcDbLine
 10
39.0
 20
-55.49999999999993
 30
0.0
 11
39.0
 21
-103.5958749999999
 31
0.0
  0
LINE
  5
CBB8
330
A995
100
AcDbEntity
  8
30
  6
Continuous
 62
     0
370
    -2
100
AcDbLine
 10
-37.0
 20
-103.0958749999999
 30
0.0
 11
37.0
 21
-103.0958749999999
 31
0.0
  0
INSERT
  5
CBB9
330
A995
100
AcDbEntity
  8
30
  6
Continuous
 62
     0
370
    -2
100
AcDbBlockReference
  2
_OPEN
 10
-39.0
 20
-103.0958749999999
 30
0.0
 41
2.0
 42
2.0
 43
2.0
 50
180.0
  0
INSERT
  5
CBBA
330
A995
100
AcDbEntity
  8
30
  6
Continuous
 62
     0
370
    -2
100
AcDbBlockReference
  2
_OPEN
 10
39.0
 20
-103.0958749999999
 30
0.0
 41
2.0
 42
2.0
 43
2.0
  0
MTEXT
  5
CBBB
330
A995
100
AcDbEntity
  8
30
  6
Continuous
 62
     0
100
AcDbMText
 10
0.0000000000000004
 20
-97.09587499999992
 30
0.0
 40
6.0
 41
0.0
 71
     5
 72
     1
  1
\A1; 78 
 73
     1
 44
1.0
  0
POINT
  5
CBBC
330
A995
100
AcDbEntity
  8
DEFPOINTS
  6
Continuous
 62
     0
100
AcDbPoint
 10
-39.0
 20
-52.49999999999993
 30
0.0
  0
POINT
  5
CBBD
330
A995
100
AcDbEntity
  8
DEFPOINTS
  6
Continuous
 62
     0
100
AcDbPoint
 10
39.0
 20
-52.49999999999993
 30
0.0
  0
POINT
  5
CBBE
330
A995
100
AcDbEntity
  8
DEFPOINTS
  6
Continuous
 62
     0
100
AcDbPoint
 10
39.0
 20
-103.0958749999999
 30
0.0
  0
ENDBLK
  5
A9A0
330
A995
100
AcDbEntity
  8
0
100
AcDbBlockEnd
  0
BLOCK
  5
AA95
330
AA8A
100
AcDbEntity
  8
0
100
AcDbBlockBegin
  2
*D11
 70
     1
 10
0.0
 20
0.0
 30
0.0
  3
*D11
  1

  0
LINE
  5
D03B
330
AA8A
100
AcDbEntity
  8
30
  6
Continuous
 62
     0
370
    -2
100
AcDbLine
 10
53.0
 20
-585.0000000000002
 30
0.0
 11
177.1538999999997
 21
-585.0000000000002
 31
0.0
  0
LINE
  5
D03C
330
AA8A
100
AcDbEntity
  8
30
  6
Continuous
 62
     0
370
    -2
100
AcDbLine
 10
127.9999999999995
 20
-521.0
 30
0.0
 11
177.1538999999997
 21
-521.0
 31
0.0
  0
LINE
  5
D03D
330
AA8A
100
AcDbEntity
  8
30
  6
Continuous
 62
     0
370
    -2
100
AcDbLine
 10
176.6538999999997
 20
-583.0000000000002
 30
0.0
 11
176.6538999999998
 21
-523.0
 31
0.0
  0
INSERT
  5
D03E
330
AA8A
100
AcDbEntity
  8
30
  6
Continuous
 62
     0
370
    -2
100
AcDbBlockReference
  2
_OPEN
 10
176.6538999999997
 20
-585.0000000000002
 30
0.0
 41
2.0
 42
2.0
 43
2.0
 50
270.0
  0
INSERT
  5
D03F
330
AA8A
100
AcDbEntity
  8
30
  6
Continuous
 62
     0
370
    -2
100
AcDbBlockReference
  2
_OPEN
 10
176.6538999999998
 20
-521.0
 30
0.0
 41
2.0
 42
2.0
 43
2.0
 50
90.0
  0
MTEXT
  5
D040
330
AA8A
100
AcDbEntity
  8
30
  6
Continuous
 62
     0
100
AcDbMText
 10
170.6538999999998
 20
-553.0000000000001
 30
0.0
 40
6.0
 41
0.0
 71
     5
 72
     1
  1
\A1; 64 
 11
0.0000000000000001
 21
1.0
 31
0.0
 73
     1
 44
1.0
  0
POINT
  5
D041
330
AA8A
100
AcDbEntity
  8
DEFPOINTS
  6
Continuous
 62
     0
100
AcDbPoint
 10
50.0
 20
-585.0000000000002
 30
0.0
  0
POINT
  5
D042
330
AA8A
100
AcDbEntity
  8
DEFPOINTS
  6
Continuous
 62
     0
100
AcDbPoint
 10
124.9999999999995
 20
-521.0
 30
0.0
  0
POINT
  5
D043
330
AA8A
100
AcDbEntity
  8
DEFPOINTS
  6
Continuous
 62
     0
100
AcDbPoint
 10
176.6538999999998
 20
-521.0
 30
0.0
  0
ENDBLK
  5
AA96
330
AA8A
100
AcDbEntity
  8
0
100
AcDbBlockEnd
  0
BLOCK
  5
AAA2
330
AA97
100
AcDbEntity
  8
0
100
AcDbBlockBegin
  2
*D12
 70
     1
 10
0.0
 20
0.0
 30
0.0
  3
*D12
  1

  0
LINE
  5
D032
330
AA97
100
AcDbEntity
  8
30
  6
Continuous
 62
     0
370
    -2
100
AcDbLine
 10
129.1679699999992
 20
-600.0000000000002
 30
0.0
 11
177.6538999999995
 21
-600.0000000000002
 31
0.0
  0
LINE
  5
D033
330
AA97
100
AcDbEntity
  8
30
  6
Continuous
 62
     0
370
    -2
100
AcDbLine
 10
53.0
 20
-585.0000000000002
 30
0.0
 11
177.6538999999995
 21
-585.0000000000002
 31
0.0
  0
LINE
  5
D034
330
AA97
100
AcDbEntity
  8
30
  6
Continuous
 62
     0
370
    -2
100
AcDbLine
 10
177.1538999999995
 20
-598.0000000000002
 30
0.0
 11
177.1538999999995
 21
-587.0000000000002
 31
0.0
  0
INSERT
  5
D035
330
AA97
100
AcDbEntity
  8
30
  6
Continuous
 62
     0
370
    -2
100
AcDbBlockReference
  2
_OPEN
 10
177.1538999999995
 20
-600.0000000000002
 30
0.0
 41
2.0
 42
2.0
 43
2.0
 50
270.0
  0
INSERT
  5
D036
330
AA97
100
AcDbEntity
  8
30
  6
Continuous
 62
     0
370
    -2
100
AcDbBlockReference
  2
_OPEN
 10
177.1538999999995
 20
-585.0000000000002
 30
0.0
 41
2.0
 42
2.0
 43
2.0
 50
90.0
  0
MTEXT
  5
D037
330
AA97
100
AcDbEntity
  8
30
  6
Continuous
 62
     0
100
AcDbMText
 10
171.1538999999997
 20
-592.4999999999998
 30
0.0
 40
6.0
 41
0.0
 71
     5
 72
     1
  1
\A1;15 
 11
0.0000000000000001
 21
1.0
 31
0.0
 73
     1
 44
1.0
  0
POINT
  5
D038
330
AA97
100
AcDbEntity
  8
DEFPOINTS
  6
Continuous
 62
     0
100
AcDbPoint
 10
126.1679699999995
 20
-600.0000000000002
 30
0.0
  0
POINT
  5
D039
330
AA97
100
AcDbEntity
  8
DEFPOINTS
  6
Continuous
 62
     0
100
AcDbPoint
 10
50.0
 20
-585.0000000000002
 30
0.0
  0
POINT
  5
D03A
330
AA97
100
AcDbEntity
  8
DEFPOINTS
  6
Continuous
 62
     0
100
AcDbPoint
 10
177.1538999999995
 20
-585.0000000000002
 30
0.0
  0
ENDBLK
  5
AAA3
330
AA97
100
AcDbEntity
  8
0
100
AcDbBlockEnd
  0
BLOCK
  5
AAAE
330
AAA4
100
AcDbEntity
  8
0
100
AcDbBlockBegin
  2
*D13
 70
     1
 10
0.0
 20
0.0
 30
0.0
  3
*D13
  1

  0
LINE
  5
D017
330
AAA4
100
AcDbEntity
  8
30
  6
Continuous
 62
     0
370
    -2
100
AcDbLine
 10
-45.0
 20
-593.0000000000002
 30
0.0
 11
-45.0
 21
-754.5958750000003
 31
0.0
  0
LINE
  5
D018
330
AAA4
100
AcDbEntity
  8
30
  6
Continuous
 62
     0
370
    -2
100
AcDbLine
 10
45.0
 20
-593.0000000000002
 30
0.0
 11
44.99999999999999
 21
-754.5958750000003
 31
0.0
  0
LINE
  5
D019
330
AAA4
100
AcDbEntity
  8
30
  6
Continuous
 62
     0
370
    -2
100
AcDbLine
 10
-43.0
 20
-754.0958750000003
 30
0.0
 11
42.99999999999999
 21
-754.0958750000003
 31
0.0
  0
INSERT
  5
D01A
330
AAA4
100
AcDbEntity
  8
30
  6
Continuous
 62
     0
370
    -2
100
AcDbBlockReference
  2
_OPEN
 10
-45.0
 20
-754.0958750000003
 30
0.0
 41
2.0
 42
2.0
 43
2.0
 50
180.0
  0
INSERT
  5
D01B
330
AAA4
100
AcDbEntity
  8
30
  6
Continuous
 62
     0
370
    -2
100
AcDbBlockReference
  2
_OPEN
 10
44.99999999999999
 20
-754.0958750000003
 30
0.0
 41
2.0
 42
2.0
 43
2.0
  0
MTEXT
  5
D01C
330
AAA4
100
AcDbEntity
  8
30
  6
Continuous
 62
     0
100
AcDbMText
 10
-0.0000000000000067
 20
-748.0958750000001
 30
0.0
 40
6.0
 41
0.0
 71
     5
 72
     1
  1
\A1; 90 
 73
     1
 44
1.0
  0
POINT
  5
D01D
330
AAA4
100
AcDbEntity
  8
DEFPOINTS
  6
Continuous
 62
     0
100
AcDbPoint
 10
-45.0
 20
-590.0000000000002
 30
0.0
  0
POINT
  5
D01E
330
AAA4
100
AcDbEntity
  8
DEFPOINTS
  6
Continuous
 62
     0
100
AcDbPoint
 10
45.0
 20
-590.0000000000002
 30
0.0
  0
POINT
  5
D01F
330
AAA4
100
AcDbEntity
  8
DEFPOINTS
  6
Continuous
 62
     0
100
AcDbPoint
 10
44.99999999999999
 20
-754.0958750000003
 30
0.0
  0
ENDBLK
  5
AAAF
330
AAA4
100
AcDbEntity
  8
0
100
AcDbBlockEnd
  0
BLOCK
  5
AAB9
330
AAB0
100
AcDbEntity
  8
0
100
AcDbBlockBegin
  2
*D14
 70
     1
 10
0.0
 20
0.0
 30
0.0
  3
*D14
  1

  0
LINE
  5
D044
330
AAB0
100
AcDbEntity
  8
30
  6
Continuous
 62
     0
370
    -2
100
AcDbLine
 10
46.7782173020215
 20
-588.0146232314802
 30
0.0
 11
43.22178769797935
 21
-581.9853767685206
 31
0.0
  0
LINE
  5
D045
330
AAB0
100
AcDbEntity
  8
30
  6
Continuous
 62
     0
370
    -2
100
AcDbLine
 10
42.20566499999992
 20
-580.2627350000002
 30
0.0
 11
41.18954230202056
 21
-578.5400932314797
 31
0.0
  0
LINE
  5
D046
330
AAB0
100
AcDbEntity
  8
30
  6
Continuous
 62
     0
370
    -2
100
AcDbLine
 10
41.18954230202056
 20
-578.5400932314797
 30
0.0
 11
26.18954230202048
 21
-578.5400932314797
 31
0.0
  0
INSERT
  5
D047
330
AAB0
100
AcDbEntity
  8
30
  6
Continuous
 62
     0
370
    -2
100
AcDbBlockReference
  2
_OPEN
 10
47.79434000000086
 20
-589.7372650000007
 30
0.0
 41
2.0
 42
2.0
 43
2.0
 50
300.5347832386408
  0
INSERT
  5
D048
330
AAB0
100
AcDbEntity
  8
30
  6
Continuous
 62
     0
370
    -2
100
AcDbBlockReference
  2
_OPEN
 10
42.20566499999992
 20
-580.2627350000002
 30
0.0
 41
2.0
 42
2.0
 43
2.0
 50
120.5347832386407
  0
MTEXT
  5
D049
330
AAB0
100
AcDbEntity
  8
30
  6
Continuous
 62
     0
100
AcDbMText
 10
32.18954230202057
 20
-572.5400932314797
 30
0.0
 40
6.0
 41
0.0
 71
     5
 72
     1
  1
\A1;\U+220511
 73
     1
 44
1.0
  0
POINT
  5
D04A
330
AAB0
100
AcDbEntity
  8
DEFPOINTS
  6
Continuous
 62
     0
100
AcDbPoint
 10
42.20566499999992
 20
-580.2627350000002
 30
0.0
  0
POINT
  5
D04B
330
AAB0
100
AcDbEntity
  8
DEFPOINTS
  6
Continuous
 62
     0
100
AcDbPoint
 10
47.79434000000086
 20
-589.7372650000007
 30
0.0
  0
ENDBLK
  5
AABA
330
AAB0
100
AcDbEntity
  8
0
100
AcDbBlockEnd
  0
BLOCK
  5
AAC6
330
AABB
100
AcDbEntity
  8
0
100
AcDbBlockBegin
  2
*D15
 70
     1
 10
0.0
 20
0.0
 30
0.0
  3
*D15
  1

  0
LINE
  5
D029
330
AABB
100
AcDbEntity
  8
30
  6
Continuous
 62
     0
370
    -2
100
AcDbLine
 10
132.9999999999995
 20
-521.0
 30
0.0
 11
177.1538999999997
 21
-521.0
 31
0.0
  0
LINE
  5
D02A
330
AABB
100
AcDbEntity
  8
30
  6
Continuous
 62
     0
370
    -2
100
AcDbLine
 10
53.0
 20
-427.0000000000002
 30
0.0
 11
177.1538999999997
 21
-427.0000000000003
 31
0.0
  0
LINE
  5
D02B
330
AABB
100
AcDbEntity
  8
30
  6
Continuous
 62
     0
370
    -2
100
AcDbLine
 10
176.6538999999997
 20
-519.0
 30
0.0
 11
176.6538999999998
 21
-429.0000000000001
 31
0.0
  0
INSERT
  5
D02C
330
AABB
100
AcDbEntity
  8
30
  6
Continuous
 62
     0
370
    -2
100
AcDbBlockReference
  2
_OPEN
 10
176.6538999999997
 20
-521.0
 30
0.0
 41
2.0
 42
2.0
 43
2.0
 50
270.0
  0
INSERT
  5
D02D
330
AABB
100
AcDbEntity
  8
30
  6
Continuous
 62
     0
370
    -2
100
AcDbBlockReference
  2
_OPEN
 10
176.6538999999998
 20
-427.0000000000003
 30
0.0
 41
2.0
 42
2.0
 43
2.0
 50
90.0
  0
MTEXT
  5
D02E
330
AABB
100
AcDbEntity
  8
30
  6
Continuous
 62
     0
100
AcDbMText
 10
170.6538999999998
 20
-474.0000000000001
 30
0.0
 40
6.0
 41
0.0
 71
     5
 72
     1
  1
\A1; 94 
 11
0.0000000000000001
 21
1.0
 31
0.0
 73
     1
 44
1.0
  0
POINT
  5
D02F
330
AABB
100
AcDbEntity
  8
DEFPOINTS
  6
Continuous
 62
     0
100
AcDbPoint
 10
129.9999999999995
 20
-521.0
 30
0.0
  0
POINT
  5
D030
330
AABB
100
AcDbEntity
  8
DEFPOINTS
  6
Continuous
 62
     0
100
AcDbPoint
 10
50.0
 20
-427.0000000000002
 30
0.0
  0
POINT
  5
D031
330
AABB
100
AcDbEntity
  8
DEFPOINTS
  6
Continuous
 62
     0
100
AcDbPoint
 10
176.6538999999998
 20
-427.0000000000003
 30
0.0
  0
ENDBLK
  5
AAC7
330
AABB
100
AcDbEntity
  8
0
100
AcDbBlockEnd
  0
BLOCK
  5
AAD3
330
AAC8
100
AcDbEntity
  8
0
100
AcDbBlockBegin
  2
*D16
 70
     1
 10
0.0
 20
0.0
 30
0.0
  3
*D16
  1

  0
LINE
  5
D020
330
AAC8
100
AcDbEntity
  8
30
  6
Continuous
 62
     0
370
    -2
100
AcDbLine
 10
53.0
 20
-427.0000000000002
 30
0.0
 11
177.1538999999997
 21
-427.0000000000003
 31
0.0
  0
LINE
  5
D021
330
AAC8
100
AcDbEntity
  8
30
  6
Continuous
 62
     0
370
    -2
100
AcDbLine
 10
133.3164099999994
 20
-412.0000000000001
 30
0.0
 11
177.1538999999997
 21
-412.0000000000001
 31
0.0
  0
LINE
  5
D022
330
AAC8
100
AcDbEntity
  8
30
  6
Continuous
 62
     0
370
    -2
100
AcDbLine
 10
176.6538999999997
 20
-425.0000000000001
 30
0.0
 11
176.6538999999997
 21
-414.0000000000001
 31
0.0
  0
INSERT
  5
D023
330
AAC8
100
AcDbEntity
  8
30
  6
Continuous
 62
     0
370
    -2
100
AcDbBlockReference
  2
_OPEN
 10
176.6538999999997
 20
-427.0000000000003
 30
0.0
 41
2.0
 42
2.0
 43
2.0
 50
270.0
  0
INSERT
  5
D024
330
AAC8
100
AcDbEntity
  8
30
  6
Continuous
 62
     0
370
    -2
100
AcDbBlockReference
  2
_OPEN
 10
176.6538999999997
 20
-412.0000000000001
 30
0.0
 41
2.0
 42
2.0
 43
2.0
 50
90.0
  0
MTEXT
  5
D025
330
AAC8
100
AcDbEntity
  8
30
  6
Continuous
 62
     0
100
AcDbMText
 10
170.6538999999998
 20
-419.4999999999997
 30
0.0
 40
6.0
 41
0.0
 71
     5
 72
     1
  1
\A1;15 
 11
0.0000000000000001
 21
1.0
 31
0.0
 73
     1
 44
1.0
  0
POINT
  5
D026
330
AAC8
100
AcDbEntity
  8
DEFPOINTS
  6
Continuous
 62
     0
100
AcDbPoint
 10
50.0
 20
-427.0000000000002
 30
0.0
  0
POINT
  5
D027
330
AAC8
100
AcDbEntity
  8
DEFPOINTS
  6
Continuous
 62
     0
100
AcDbPoint
 10
130.3164099999994
 20
-412.0000000000001
 30
0.0
  0
POINT
  5
D028
330
AAC8
100
AcDbEntity
  8
DEFPOINTS
  6
Continuous
 62
     0
100
AcDbPoint
 10
176.6538999999997
 20
-412.0000000000001
 30
0.0
  0
ENDBLK
  5
AAD4
330
AAC8
100
AcDbEntity
  8
0
100
AcDbBlockEnd
  0
BLOCK
  5
AAE0
330
AAD5
100
AcDbEntity
  8
0
100
AcDbBlockBegin
  2
*D17
 70
     1
 10
0.0
 20
0.0
 30
0.0
  3
*D17
  1

  0
LINE
  5
D161
330
AAD5
100
AcDbEntity
  8
30
  6
Continuous
 62
     0
370
    -2
100
AcDbLine
 10
588.9072299999997
 20
-0.0000000000008513
 30
0.0
 11
717.4539
 21
-0.0000000000008877
 31
0.0
  0
LINE
  5
D162
330
AAD5
100
AcDbEntity
  8
30
  6
Continuous
 62
     0
370
    -2
100
AcDbLine
 10
662.0476699999998
 20
143.999999999999
 30
0.0
 11
717.4539
 21
143.999999999999
 31
0.0
  0
LINE
  5
D163
330
AAD5
100
AcDbEntity
  8
30
  6
Continuous
 62
     0
370
    -2
100
AcDbLine
 10
716.9539
 20
1.99999999999911
 30
0.0
 11
716.9539
 21
141.999999999999
 31
0.0
  0
INSERT
  5
D164
330
AAD5
100
AcDbEntity
  8
30
  6
Continuous
 62
     0
370
    -2
100
AcDbBlockReference
  2
_OPEN
 10
716.9539
 20
-0.0000000000008876
 30
0.0
 41
2.0
 42
2.0
 43
2.0
 50
270.0
  0
INSERT
  5
D165
330
AAD5
100
AcDbEntity
  8
30
  6
Continuous
 62
     0
370
    -2
100
AcDbBlockReference
  2
_OPEN
 10
716.9539
 20
143.999999999999
 30
0.0
 41
2.0
 42
2.0
 43
2.0
 50
90.0
  0
MTEXT
  5
D166
330
AAD5
100
AcDbEntity
  8
30
  6
Continuous
 62
     0
100
AcDbMText
 10
710.9538999999998
 20
71.99999999999923
 30
0.0
 40
6.0
 41
0.0
 71
     5
 72
     1
  1
\A1; 144 
 11
0.0000000000000001
 21
1.0
 31
0.0
 73
     1
 44
1.0
  0
POINT
  5
D167
330
AAD5
100
AcDbEntity
  8
DEFPOINTS
  6
Continuous
 62
     0
100
AcDbPoint
 10
585.9072299999998
 20
-0.0000000000008504
 30
0.0
  0
POINT
  5
D168
330
AAD5
100
AcDbEntity
  8
DEFPOINTS
  6
Continuous
 62
     0
100
AcDbPoint
 10
659.0476699999998
 20
143.999999999999
 30
0.0
  0
POINT
  5
D169
330
AAD5
100
AcDbEntity
  8
DEFPOINTS
  6
Continuous
 62
     0
100
AcDbPoint
 10
716.9539
 20
143.999999999999
 30
0.0
  0
ENDBLK
  5
AAE1
330
AAD5
100
AcDbEntity
  8
0
100
AcDbBlockEnd
  0
BLOCK
  5
AAEC
330
AAE2
100
AcDbEntity
  8
0
100
AcDbBlockBegin
  2
*D18
 70
     1
 10
0.0
 20
0.0
 30
0.0
  3
*D18
  1

  0
LINE
  5
D158
330
AAE2
100
AcDbEntity
  8
30
  6
Continuous
 62
     0
370
    -2
100
AcDbLine
 10
498.0
 20
-93.00000000000084
 30
0.0
 11
498.0
 21
-239.8322434222734
 31
0.0
  0
LINE
  5
D159
330
AAE2
100
AcDbEntity
  8
30
  6
Continuous
 62
     0
370
    -2
100
AcDbLine
 10
560.0
 20
-151.0000000000008
 30
0.0
 11
560.0
 21
-239.8322434222734
 31
0.0
  0
LINE
  5
D15A
330
AAE2
100
AcDbEntity
  8
30
  6
Continuous
 62
     0
370
    -2
100
AcDbLine
 10
500.0
 20
-239.3322434222735
 30
0.0
 11
558.0
 21
-239.3322434222735
 31
0.0
  0
INSERT
  5
D15B
330
AAE2
100
AcDbEntity
  8
30
  6
Continuous
 62
     0
370
    -2
100
AcDbBlockReference
  2
_OPEN
 10
498.0
 20
-239.3322434222735
 30
0.0
 41
2.0
 42
2.0
 43
2.0
 50
180.0
  0
INSERT
  5
D15C
330
AAE2
100
AcDbEntity
  8
30
  6
Continuous
 62
     0
370
    -2
100
AcDbBlockReference
  2
_OPEN
 10
560.0
 20
-239.3322434222735
 30
0.0
 41
2.0
 42
2.0
 43
2.0
  0
MTEXT
  5
D15D
330
AAE2
100
AcDbEntity
  8
30
  6
Continuous
 62
     0
100
AcDbMText
 10
529.0
 20
-233.3322434222734
 30
0.0
 40
6.0
 41
0.0
 71
     5
 72
     1
  1
\A1; 62 
 73
     1
 44
1.0
  0
POINT
  5
D15E
330
AAE2
100
AcDbEntity
  8
DEFPOINTS
  6
Continuous
 62
     0
100
AcDbPoint
 10
498.0
 20
-90.00000000000083
 30
0.0
  0
POINT
  5
D15F
330
AAE2
100
AcDbEntity
  8
DEFPOINTS
  6
Continuous
 62
     0
100
AcDbPoint
 10
560.0
 20
-148.0000000000008
 30
0.0
  0
POINT
  5
D160
330
AAE2
100
AcDbEntity
  8
DEFPOINTS
  6
Continuous
 62
     0
100
AcDbPoint
 10
560.0
 20
-239.3322434222735
 30
0.0
  0
ENDBLK
  5
AAED
330
AAE2
100
AcDbEntity
  8
0
100
AcDbBlockEnd
  0
BLOCK
  5
AAF8
330
AAEE
100
AcDbEntity
  8
0
100
AcDbBlockBegin
  2
*D19
 70
     1
 10
0.0
 20
0.0
 30
0.0
  3
*D19
  1

  0
LINE
  5
D14F
330
AAEE
100
AcDbEntity
  8
30
  6
Continuous
 62
     0
370
    -2
100
AcDbLine
 10
560.0
 20
-151.0000000000008
 30
0.0
 11
560.0
 21
-239.8322434222734
 31
0.0
  0
LINE
  5
D150
330
AAEE
100
AcDbEntity
  8
30
  6
Continuous
 62
     0
370
    -2
100
AcDbLine
 10
590.0002449999997
 20
-132.0000000000009
 30
0.0
 11
590.0002449999997
 21
-239.8322434222734
 31
0.0
  0
LINE
  5
D151
330
AAEE
100
AcDbEntity
  8
30
  6
Continuous
 62
     0
370
    -2
100
AcDbLine
 10
562.0
 20
-239.3322434222735
 30
0.0
 11
588.0002449999997
 21
-239.3322434222735
 31
0.0
  0
INSERT
  5
D152
330
AAEE
100
AcDbEntity
  8
30
  6
Continuous
 62
     0
370
    -2
100
AcDbBlockReference
  2
_OPEN
 10
560.0
 20
-239.3322434222735
 30
0.0
 41
2.0
 42
2.0
 43
2.0
 50
180.0
  0
INSERT
  5
D153
330
AAEE
100
AcDbEntity
  8
30
  6
Continuous
 62
     0
370
    -2
100
AcDbBlockReference
  2
_OPEN
 10
590.0002449999997
 20
-239.3322434222735
 30
0.0
 41
2.0
 42
2.0
 43
2.0
  0
MTEXT
  5
D154
330
AAEE
100
AcDbEntity
  8
30
  6
Continuous
 62
     0
100
AcDbMText
 10
575.0001224999997
 20
-233.3322434222734
 30
0.0
 40
6.0
 41
0.0
 71
     5
 72
     1
  1
\A1; 30 
 73
     1
 44
1.0
  0
POINT
  5
D155
330
AAEE
100
AcDbEntity
  8
DEFPOINTS
  6
Continuous
 62
     0
100
AcDbPoint
 10
560.0
 20
-148.0000000000008
 30
0.0
  0
POINT
  5
D156
330
AAEE
100
AcDbEntity
  8
DEFPOINTS
  6
Continuous
 62
     0
100
AcDbPoint
 10
590.0002449999997
 20
-129.0000000000009
 30
0.0
  0
POINT
  5
D157
330
AAEE
100
AcDbEntity
  8
DEFPOINTS
  6
Continuous
 62
     0
100
AcDbPoint
 10
590.0002449999997
 20
-239.3322434222735
 30
0.0
  0
ENDBLK
  5
AAF9
330
AAEE
100
AcDbEntity
  8
0
100
AcDbBlockEnd
  0
BLOCK
  5
AB04
330
AAFA
100
AcDbEntity
  8
0
100
AcDbBlockBegin
  2
*D20
 70
     1
 10
0.0
 20
0.0
 30
0.0
  3
*D20
  1

  0
LINE
  5
D0E2
330
AAFA
100
AcDbEntity
  8
30
  6
Continuous
 62
     0
370
    -2
100
AcDbLine
 10
498.0
 20
-93.00000000000084
 30
0.0
 11
498.0
 21
-103.5000000000009
 31
0.0
  0
LINE
  5
D0E3
330
AAFA
100
AcDbEntity
  8
30
  6
Continuous
 62
     0
370
    -2
100
AcDbLine
 10
519.0
 20
-72.00000000000095
 30
0.0
 11
519.0
 21
-103.5000000000009
 31
0.0
  0
LINE
  5
D0E4
330
AAFA
100
AcDbEntity
  8
30
  6
Continuous
 62
     0
370
    -2
100
AcDbLine
 10
500.0
 20
-103.0000000000009
 30
0.0
 11
517.0
 21
-103.0000000000009
 31
0.0
  0
INSERT
  5
D0E5
330
AAFA
100
AcDbEntity
  8
30
  6
Continuous
 62
     0
370
    -2
100
AcDbBlockReference
  2
_OPEN
 10
498.0
 20
-103.0000000000009
 30
0.0
 41
2.0
 42
2.0
 43
2.0
 50
180.0
  0
INSERT
  5
D0E6
330
AAFA
100
AcDbEntity
  8
30
  6
Continuous
 62
     0
370
    -2
100
AcDbBlockReference
  2
_OPEN
 10
519.0
 20
-103.0000000000009
 30
0.0
 41
2.0
 42
2.0
 43
2.0
  0
MTEXT
  5
D0E7
330
AAFA
100
AcDbEntity
  8
30
  6
Continuous
 62
     0
100
AcDbMText
 10
508.4999999999998
 20
-97.00000000000091
 30
0.0
 40
6.0
 41
0.0
 71
     5
 72
     1
  1
\A1; 21 
 73
     1
 44
1.0
  0
POINT
  5
D0E8
330
AAFA
100
AcDbEntity
  8
DEFPOINTS
  6
Continuous
 62
     0
100
AcDbPoint
 10
498.0
 20
-90.00000000000083
 30
0.0
  0
POINT
  5
D0E9
330
AAFA
100
AcDbEntity
  8
DEFPOINTS
  6
Continuous
 62
     0
100
AcDbPoint
 10
519.0
 20
-69.00000000000097
 30
0.0
  0
POINT
  5
D0EA
330
AAFA
100
AcDbEntity
  8
DEFPOINTS
  6
Continuous
 62
     0
100
AcDbPoint
 10
519.0
 20
-103.0000000000009
 30
0.0
  0
ENDBLK
  5
AB05
330
AAFA
100
AcDbEntity
  8
0
100
AcDbBlockEnd
  0
BLOCK
  5
AB11
330
AB06
100
AcDbEntity
  8
0
100
AcDbBlockBegin
  2
*D21
 70
     1
 10
0.0
 20
0.0
 30
0.0
  3
*D21
  1

  0
LINE
  5
D0D9
330
AB06
100
AcDbEntity
  8
30
  6
Continuous
 62
     0
370
    -2
100
AcDbLine
 10
678.0002450000002
 20
-114.0000000000007
 30
0.0
 11
717.4539
 21
-114.0000000000007
 31
0.0
  0
LINE
  5
D0DA
330
AB06
100
AcDbEntity
  8
30
  6
Continuous
 62
     0
370
    -2
100
AcDbLine
 10
588.9072299999997
 20
-0.0000000000008513
 30
0.0
 11
717.4539
 21
-0.0000000000008877
 31
0.0
  0
LINE
  5
D0DB
330
AB06
100
AcDbEntity
  8
30
  6
Continuous
 62
     0
370
    -2
100
AcDbLine
 10
716.9539
 20
-112.0000000000007
 30
0.0
 11
716.9539
 21
-2.000000000000885
 31
0.0
  0
INSERT
  5
D0DC
330
AB06
100
AcDbEntity
  8
30
  6
Continuous
 62
     0
370
    -2
100
AcDbBlockReference
  2
_OPEN
 10
716.9539
 20
-114.0000000000007
 30
0.0
 41
2.0
 42
2.0
 43
2.0
 50
270.0
  0
INSERT
  5
D0DD
330
AB06
100
AcDbEntity
  8
30
  6
Continuous
 62
     0
370
    -2
100
AcDbBlockReference
  2
_OPEN
 10
716.9539
 20
-0.0000000000008876
 30
0.0
 41
2.0
 42
2.0
 43
2.0
 50
90.0
  0
MTEXT
  5
D0DE
330
AB06
100
AcDbEntity
  8
30
  6
Continuous
 62
     0
100
AcDbMText
 10
710.9538999999998
 20
-57.00000000000075
 30
0.0
 40
6.0
 41
0.0
 71
     5
 72
     1
  1
\A1; 114 
 11
0.0000000000000001
 21
1.0
 31
0.0
 73
     1
 44
1.0
  0
POINT
  5
D0DF
330
AB06
100
AcDbEntity
  8
DEFPOINTS
  6
Continuous
 62
     0
100
AcDbPoint
 10
675.0002450000001
 20
-114.0000000000007
 30
0.0
  0
POINT
  5
D0E0
330
AB06
100
AcDbEntity
  8
DEFPOINTS
  6
Continuous
 62
     0
100
AcDbPoint
 10
585.9072299999998
 20
-0.0000000000008504
 30
0.0
  0
POINT
  5
D0E1
330
AB06
100
AcDbEntity
  8
DEFPOINTS
  6
Continuous
 62
     0
100
AcDbPoint
 10
716.9539
 20
-0.0000000000008876
 30
0.0
  0
ENDBLK
  5
AB12
330
AB06
100
AcDbEntity
  8
0
100
AcDbBlockEnd
  0
BLOCK
  5
AB57
330
AB4C
100
AcDbEntity
  8
0
100
AcDbBlockBegin
  2
*D22
 70
     1
 10
0.0
 20
0.0
 30
0.0
  3
*D22
  1

  0
LINE
  5
D16A
330
AB4C
100
AcDbEntity
  8
30
  6
Continuous
 62
     0
370
    -2
100
AcDbLine
 10
653.0002450000002
 20
136.4999999999989
 30
0.0
 11
688.7539000000002
 21
136.4999999999989
 31
0.0
  0
LINE
  5
D16B
330
AB4C
100
AcDbEntity
  8
30
  6
Continuous
 62
     0
370
    -2
100
AcDbLine
 10
653.0002450000002
 20
151.499999999999
 30
0.0
 11
688.7539000000002
 21
151.499999999999
 31
0.0
  0
LINE
  5
D16C
330
AB4C
100
AcDbEntity
  8
30
  6
Continuous
 62
     0
370
    -2
100
AcDbLine
 10
688.2539000000001
 20
138.499999999999
 30
0.0
 11
688.2539000000001
 21
149.4999999999991
 31
0.0
  0
INSERT
  5
D16D
330
AB4C
100
AcDbEntity
  8
30
  6
Continuous
 62
     0
370
    -2
100
AcDbBlockReference
  2
_OPEN
 10
688.2539000000001
 20
136.4999999999989
 30
0.0
 41
2.0
 42
2.0
 43
2.0
 50
270.0
  0
INSERT
  5
D16E
330
AB4C
100
AcDbEntity
  8
30
  6
Continuous
 62
     0
370
    -2
100
AcDbBlockReference
  2
_OPEN
 10
688.2539000000001
 20
151.499999999999
 30
0.0
 41
2.0
 42
2.0
 43
2.0
 50
90.0
  0
MTEXT
  5
D16F
330
AB4C
100
AcDbEntity
  8
30
  6
Continuous
 62
     0
100
AcDbMText
 10
682.2539000000001
 20
143.999999999999
 30
0.0
 40
6.0
 41
0.0
 71
     5
 72
     1
  1
\A1; 15 
 11
0.0000000000000001
 21
1.0
 31
0.0
 73
     1
 44
1.0
  0
POINT
  5
D170
330
AB4C
100
AcDbEntity
  8
DEFPOINTS
  6
Continuous
 62
     0
100
AcDbPoint
 10
650.0002450000001
 20
136.4999999999989
 30
0.0
  0
POINT
  5
D171
330
AB4C
100
AcDbEntity
  8
DEFPOINTS
  6
Continuous
 62
     0
100
AcDbPoint
 10
650.0002450000001
 20
151.499999999999
 30
0.0
  0
POINT
  5
D172
330
AB4C
100
AcDbEntity
  8
DEFPOINTS
  6
Continuous
 62
     0
100
AcDbPoint
 10
688.2539000000001
 20
151.499999999999
 30
0.0
  0
ENDBLK
  5
AB58
330
AB4C
100
AcDbEntity
  8
0
100
AcDbBlockEnd
  0
BLOCK
  5
B482
330
B477
100
AcDbEntity
  8
0
100
AcDbBlockBegin
  2
*D23
 70
     1
 10
0.0
 20
0.0
 30
0.0
  3
*D23
  1

  0
LINE
  5
D13B
330
B477
100
AcDbEntity
  8
30
  6
Continuous
 62
     0
370
    -2
100
AcDbLine
 10
590.0002449999997
 20
-132.0000000000009
 30
0.0
 11
590.0002449999997
 21
-239.8322434222734
 31
0.0
  0
LINE
  5
D13C
330
B477
100
AcDbEntity
  8
30
  6
Continuous
 62
     0
370
    -2
100
AcDbLine
 10
598.0002450000001
 20
-132.0000000000009
 30
0.0
 11
598.0002450000001
 21
-239.8322434222734
 31
0.0
  0
LINE
  5
D13D
330
B477
100
AcDbEntity
  8
30
  6
Continuous
 62
     0
370
    -2
100
AcDbLine
 10
588.0002449999997
 20
-239.3322434222735
 30
0.0
 11
586.0002449999996
 21
-239.3322434222735
 31
0.0
  0
LINE
  5
D13E
330
B477
100
AcDbEntity
  8
30
  6
Continuous
 62
     0
370
    -2
100
AcDbLine
 10
600.0002450000001
 20
-239.3322434222735
 30
0.0
 11
602.0002450000001
 21
-239.3322434222735
 31
0.0
  0
LINE
  5
D13F
330
B477
100
AcDbEntity
  8
30
  6
Continuous
 62
     0
370
    -2
100
AcDbLine
 10
590.0002449999997
 20
-239.3322434222735
 30
0.0
 11
598.0002450000001
 21
-239.3322434222735
 31
0.0
  0
INSERT
  5
D140
330
B477
100
AcDbEntity
  8
30
  6
Continuous
 62
     0
370
    -2
100
AcDbBlockReference
  2
_OPEN
 10
590.0002449999997
 20
-239.3322434222735
 30
0.0
 41
2.0
 42
2.0
 43
2.0
  0
INSERT
  5
D141
330
B477
100
AcDbEntity
  8
30
  6
Continuous
 62
     0
370
    -2
100
AcDbBlockReference
  2
_OPEN
 10
598.0002450000001
 20
-239.3322434222735
 30
0.0
 41
2.0
 42
2.0
 43
2.0
 50
180.0
  0
MTEXT
  5
D142
330
B477
100
AcDbEntity
  8
30
  6
Continuous
 62
     0
100
AcDbMText
 10
594.0002449999997
 20
-233.3322434222734
 30
0.0
 40
6.0
 41
0.0
 71
     5
 72
     1
  1
\A1;8
 73
     1
 44
1.0
  0
POINT
  5
D143
330
B477
100
AcDbEntity
  8
DEFPOINTS
  6
Continuous
 62
     0
100
AcDbPoint
 10
590.0002449999997
 20
-129.0000000000009
 30
0.0
  0
POINT
  5
D144
330
B477
100
AcDbEntity
  8
DEFPOINTS
  6
Continuous
 62
     0
100
AcDbPoint
 10
598.0002450000001
 20
-129.0000000000009
 30
0.0
  0
POINT
  5
D145
330
B477
100
AcDbEntity
  8
DEFPOINTS
  6
Continuous
 62
     0
100
AcDbPoint
 10
598.0002450000001
 20
-239.3322434222735
 30
0.0
  0
ENDBLK
  5
B483
330
B477
100
AcDbEntity
  8
0
100
AcDbBlockEnd
  0
BLOCK
  5
B48F
330
B485
100
AcDbEntity
  8
0
100
AcDbBlockBegin
  2
*D24
 70
     1
 10
0.0
 20
0.0
 30
0.0
  3
*D24
  1

  0
LINE
  5
D146
330
B485
100
AcDbEntity
  8
30
  6
Continuous
 62
     0
370
    -2
100
AcDbLine
 10
598.0002450000001
 20
-135.0000000000009
 30
0.0
 11
598.0002450000001
 21
-239.845756935787
 31
0.0
  0
LINE
  5
D147
330
B485
100
AcDbEntity
  8
30
  6
Continuous
 62
     0
370
    -2
100
AcDbLine
 10
630.0002449999997
 20
-132.0000000000009
 30
0.0
 11
630.0002449999997
 21
-239.845756935787
 31
0.0
  0
LINE
  5
D148
330
B485
100
AcDbEntity
  8
30
  6
Continuous
 62
     0
370
    -2
100
AcDbLine
 10
600.0002450000001
 20
-239.345756935787
 30
0.0
 11
628.0002449999997
 21
-239.345756935787
 31
0.0
  0
INSERT
  5
D149
330
B485
100
AcDbEntity
  8
30
  6
Continuous
 62
     0
370
    -2
100
AcDbBlockReference
  2
_OPEN
 10
598.0002450000001
 20
-239.345756935787
 30
0.0
 41
2.0
 42
2.0
 43
2.0
 50
180.0
  0
INSERT
  5
D14A
330
B485
100
AcDbEntity
  8
30
  6
Continuous
 62
     0
370
    -2
100
AcDbBlockReference
  2
_OPEN
 10
630.0002449999997
 20
-239.345756935787
 30
0.0
 41
2.0
 42
2.0
 43
2.0
  0
MTEXT
  5
D14B
330
B485
100
AcDbEntity
  8
30
  6
Continuous
 62
     0
100
AcDbMText
 10
614.0002449999997
 20
-233.345756935787
 30
0.0
 40
6.0
 41
0.0
 71
     5
 72
     1
  1
\A1;32
 73
     1
 44
1.0
  0
POINT
  5
D14C
330
B485
100
AcDbEntity
  8
DEFPOINTS
  6
Continuous
 62
     0
100
AcDbPoint
 10
598.0002450000001
 20
-132.0000000000009
 30
0.0
  0
POINT
  5
D14D
330
B485
100
AcDbEntity
  8
DEFPOINTS
  6
Continuous
 62
     0
100
AcDbPoint
 10
630.0002449999997
 20
-129.0000000000009
 30
0.0
  0
POINT
  5
D14E
330
B485
100
AcDbEntity
  8
DEFPOINTS
  6
Continuous
 62
     0
100
AcDbPoint
 10
630.0002449999997
 20
-239.345756935787
 30
0.0
  0
ENDBLK
  5
B490
330
B485
100
AcDbEntity
  8
0
100
AcDbBlockEnd
  0
BLOCK
  5
B5A1
330
B596
100
AcDbEntity
  8
0
100
AcDbBlockBegin
  2
*D25
 70
     1
 10
0.0
 20
0.0
 30
0.0
  3
*D25
  1

  0
LINE
  5
D0F4
330
B596
100
AcDbEntity
  8
30
  6
Continuous
 62
     0
370
    -2
100
AcDbLine
 10
343.0
 20
1.49999999999909
 30
0.0
 11
343.0
 21
-259.8322434222736
 31
0.0
  0
LINE
  5
D0F5
330
B596
100
AcDbEntity
  8
30
  6
Continuous
 62
     0
370
    -2
100
AcDbLine
 10
353.0
 20
-55.50000000000091
 30
0.0
 11
353.0
 21
-259.8322434222736
 31
0.0
  0
LINE
  5
D0F6
330
B596
100
AcDbEntity
  8
30
  6
Continuous
 62
     0
370
    -2
100
AcDbLine
 10
351.0
 20
-259.3322434222736
 30
0.0
 11
345.0
 21
-259.3322434222736
 31
0.0
  0
LINE
  5
D0F7
330
B596
100
AcDbEntity
  8
30
  6
Continuous
 62
     0
370
    -2
100
AcDbLine
 10
343.0
 20
-259.3322434222736
 30
0.0
 11
324.3999999999997
 21
-259.3322434222736
 31
0.0
  0
INSERT
  5
D0F8
330
B596
100
AcDbEntity
  8
30
  6
Continuous
 62
     0
370
    -2
100
AcDbBlockReference
  2
_OPEN
 10
353.0
 20
-259.3322434222736
 30
0.0
 41
2.0
 42
2.0
 43
2.0
  0
INSERT
  5
D0F9
330
B596
100
AcDbEntity
  8
30
  6
Continuous
 62
     0
370
    -2
100
AcDbBlockReference
  2
_OPEN
 10
343.0
 20
-259.3322434222736
 30
0.0
 41
2.0
 42
2.0
 43
2.0
 50
180.0
  0
MTEXT
  5
D0FA
330
B596
100
AcDbEntity
  8
30
  6
Continuous
 62
     0
100
AcDbMText
 10
332.6999999999998
 20
-253.3322434222736
 30
0.0
 40
6.0
 41
0.0
 71
     5
 72
     1
  1
\A1; 10 
 73
     1
 44
1.0
  0
POINT
  5
D0FB
330
B596
100
AcDbEntity
  8
DEFPOINTS
  6
Continuous
 62
     0
100
AcDbPoint
 10
343.0
 20
4.499999999999091
 30
0.0
  0
POINT
  5
D0FC
330
B596
100
AcDbEntity
  8
DEFPOINTS
  6
Continuous
 62
     0
100
AcDbPoint
 10
353.0
 20
-52.50000000000091
 30
0.0
  0
POINT
  5
D0FD
330
B596
100
AcDbEntity
  8
DEFPOINTS
  6
Continuous
 62
     0
100
AcDbPoint
 10
353.0
 20
-259.3322434222736
 30
0.0
  0
ENDBLK
  5
B5A2
330
B596
100
AcDbEntity
  8
0
100
AcDbBlockEnd
  0
BLOCK
  5
B5AD
330
B5A3
100
AcDbEntity
  8
0
100
AcDbBlockBegin
  2
*D26
 70
     1
 10
0.0
 20
0.0
 30
0.0
  3
*D26
  1

  0
LINE
  5
D0D0
330
B5A3
100
AcDbEntity
  8
30
  6
Continuous
 62
     0
370
    -2
100
AcDbLine
 10
229.0
 20
-5.800000000000862
 30
0.0
 11
228.9999999999999
 21
-279.8322434222736
 31
0.0
  0
LINE
  5
D0D1
330
B5A3
100
AcDbEntity
  8
30
  6
Continuous
 62
     0
370
    -2
100
AcDbLine
 10
309.0
 20
-5.800000000000862
 30
0.0
 11
309.0
 21
-279.8322434222736
 31
0.0
  0
LINE
  5
D0D2
330
B5A3
100
AcDbEntity
  8
30
  6
Continuous
 62
     0
370
    -2
100
AcDbLine
 10
230.9999999999999
 20
-279.3322434222736
 30
0.0
 11
307.0
 21
-279.3322434222736
 31
0.0
  0
INSERT
  5
D0D3
330
B5A3
100
AcDbEntity
  8
30
  6
Continuous
 62
     0
370
    -2
100
AcDbBlockReference
  2
_OPEN
 10
228.9999999999999
 20
-279.3322434222736
 30
0.0
 41
2.0
 42
2.0
 43
2.0
 50
180.0
  0
INSERT
  5
D0D4
330
B5A3
100
AcDbEntity
  8
30
  6
Continuous
 62
     0
370
    -2
100
AcDbBlockReference
  2
_OPEN
 10
309.0
 20
-279.3322434222736
 30
0.0
 41
2.0
 42
2.0
 43
2.0
  0
MTEXT
  5
D0D5
330
B5A3
100
AcDbEntity
  8
30
  6
Continuous
 62
     0
100
AcDbMText
 10
269.0
 20
-273.3322434222736
 30
0.0
 40
6.0
 41
0.0
 71
     5
 72
     1
  1
\A1; 80 
 73
     1
 44
1.0
  0
POINT
  5
D0D6
330
B5A3
100
AcDbEntity
  8
DEFPOINTS
  6
Continuous
 62
     0
100
AcDbPoint
 10
229.0
 20
-2.80000000000086
 30
0.0
  0
POINT
  5
D0D7
330
B5A3
100
AcDbEntity
  8
DEFPOINTS
  6
Continuous
 62
     0
100
AcDbPoint
 10
309.0
 20
-2.80000000000086
 30
0.0
  0
POINT
  5
D0D8
330
B5A3
100
AcDbEntity
  8
DEFPOINTS
  6
Continuous
 62
     0
100
AcDbPoint
 10
309.0
 20
-279.3322434222736
 30
0.0
  0
ENDBLK
  5
B5AE
330
B5A3
100
AcDbEntity
  8
0
100
AcDbBlockEnd
  0
BLOCK
  5
B5B9
330
B5AF
100
AcDbEntity
  8
0
100
AcDbBlockBegin
  2
*D27
 70
     1
 10
0.0
 20
0.0
 30
0.0
  3
*D27
  1

  0
LINE
  5
D0EB
330
B5AF
100
AcDbEntity
  8
30
  6
Continuous
 62
     0
370
    -2
100
AcDbLine
 10
352.0000000000004
 20
-140.0000000000017
 30
0.0
 11
279.4999999999999
 21
-140.0000000000017
 31
0.0
  0
LINE
  5
D0EC
330
B5AF
100
AcDbEntity
  8
30
  6
Continuous
 62
     0
370
    -2
100
AcDbLine
 10
289.1000000000008
 20
-0.0000000000018159
 30
0.0
 11
279.4999999999999
 21
-0.0000000000018132
 31
0.0
  0
LINE
  5
D0ED
330
B5AF
100
AcDbEntity
  8
30
  6
Continuous
 62
     0
370
    -2
100
AcDbLine
 10
279.9999999999999
 20
-138.0000000000015
 30
0.0
 11
280.0
 21
-2.000000000001813
 31
0.0
  0
INSERT
  5
D0EE
330
B5AF
100
AcDbEntity
  8
30
  6
Continuous
 62
     0
370
    -2
100
AcDbBlockReference
  2
_OPEN
 10
279.9999999999999
 20
-140.0000000000017
 30
0.0
 41
2.0
 42
2.0
 43
2.0
 50
270.0
  0
INSERT
  5
D0EF
330
B5AF
100
AcDbEntity
  8
30
  6
Continuous
 62
     0
370
    -2
100
AcDbBlockReference
  2
_OPEN
 10
280.0
 20
-0.0000000000018134
 30
0.0
 41
2.0
 42
2.0
 43
2.0
 50
90.0
  0
MTEXT
  5
D0F0
330
B5AF
100
AcDbEntity
  8
30
  6
Continuous
 62
     0
100
AcDbMText
 10
274.0
 20
-70.00000000000174
 30
0.0
 40
6.0
 41
0.0
 71
     5
 72
     1
  1
\A1; 140 
 11
0.0000000000000001
 21
1.0
 31
0.0
 73
     1
 44
1.0
  0
POINT
  5
D0F1
330
B5AF
100
AcDbEntity
  8
DEFPOINTS
  6
Continuous
 62
     0
100
AcDbPoint
 10
355.0000000000004
 20
-140.0000000000017
 30
0.0
  0
POINT
  5
D0F2
330
B5AF
100
AcDbEntity
  8
DEFPOINTS
  6
Continuous
 62
     0
100
AcDbPoint
 10
292.1000000000008
 20
-0.0000000000018168
 30
0.0
  0
POINT
  5
D0F3
330
B5AF
100
AcDbEntity
  8
DEFPOINTS
  6
Continuous
 62
     0
100
AcDbPoint
 10
280.0
 20
-0.0000000000018134
 30
0.0
  0
ENDBLK
  5
B5BA
330
B5AF
100
AcDbEntity
  8
0
100
AcDbBlockEnd
  0
BLOCK
  5
B5C5
330
B5BB
100
AcDbEntity
  8
0
100
AcDbBlockBegin
  2
*D28
 70
     1
 10
0.0
 20
0.0
 30
0.0
  3
*D28
  1

  0
LINE
  5
D132
330
B5BB
100
AcDbEntity
  8
30
  6
Continuous
 62
     0
370
    -2
100
AcDbLine
 10
360.0
 20
-148.0000000000009
 30
0.0
 11
360.0
 21
-239.8322434222734
 31
0.0
  0
LINE
  5
D133
330
B5BB
100
AcDbEntity
  8
30
  6
Continuous
 62
     0
370
    -2
100
AcDbLine
 10
480.0
 20
-178.0000000000009
 30
0.0
 11
480.0
 21
-239.8322434222734
 31
0.0
  0
LINE
  5
D134
330
B5BB
100
AcDbEntity
  8
30
  6
Continuous
 62
     0
370
    -2
100
AcDbLine
 10
362.0
 20
-239.3322434222735
 30
0.0
 11
478.0
 21
-239.3322434222735
 31
0.0
  0
INSERT
  5
D135
330
B5BB
100
AcDbEntity
  8
30
  6
Continuous
 62
     0
370
    -2
100
AcDbBlockReference
  2
_OPEN
 10
360.0
 20
-239.3322434222735
 30
0.0
 41
2.0
 42
2.0
 43
2.0
 50
180.0
  0
INSERT
  5
D136
330
B5BB
100
AcDbEntity
  8
30
  6
Continuous
 62
     0
370
    -2
100
AcDbBlockReference
  2
_OPEN
 10
480.0
 20
-239.3322434222735
 30
0.0
 41
2.0
 42
2.0
 43
2.0
  0
MTEXT
  5
D137
330
B5BB
100
AcDbEntity
  8
30
  6
Continuous
 62
     0
100
AcDbMText
 10
420.0
 20
-233.3322434222734
 30
0.0
 40
6.0
 41
0.0
 71
     5
 72
     1
  1
\A1; 120 
 73
     1
 44
1.0
  0
POINT
  5
D138
330
B5BB
100
AcDbEntity
  8
DEFPOINTS
  6
Continuous
 62
     0
100
AcDbPoint
 10
360.0
 20
-145.0000000000009
 30
0.0
  0
POINT
  5
D139
330
B5BB
100
AcDbEntity
  8
DEFPOINTS
  6
Continuous
 62
     0
100
AcDbPoint
 10
480.0
 20
-175.0000000000009
 30
0.0
  0
POINT
  5
D13A
330
B5BB
100
AcDbEntity
  8
DEFPOINTS
  6
Continuous
 62
     0
100
AcDbPoint
 10
480.0
 20
-239.3322434222735
 30
0.0
  0
ENDBLK
  5
B5C6
330
B5BB
100
AcDbEntity
  8
0
100
AcDbBlockEnd
  0
BLOCK
  5
B5D1
330
B5C7
100
AcDbEntity
  8
0
100
AcDbBlockBegin
  2
*D29
 70
     1
 10
0.0
 20
0.0
 30
0.0
  3
*D29
  1

  0
LINE
  5
D0FE
330
B5C7
100
AcDbEntity
  8
30
  6
Continuous
 62
     0
370
    -2
100
AcDbLine
 10
353.0
 20
-55.50000000000091
 30
0.0
 11
353.0
 21
-259.8322434222736
 31
0.0
  0
LINE
  5
D0FF
330
B5C7
100
AcDbEntity
  8
30
  6
Continuous
 62
     0
370
    -2
100
AcDbLine
 10
480.0
 20
-178.0000000000009
 30
0.0
 11
480.0
 21
-259.8322434222736
 31
0.0
  0
LINE
  5
D100
330
B5C7
100
AcDbEntity
  8
30
  6
Continuous
 62
     0
370
    -2
100
AcDbLine
 10
355.0
 20
-259.3322434222736
 30
0.0
 11
478.0
 21
-259.3322434222736
 31
0.0
  0
INSERT
  5
D101
330
B5C7
100
AcDbEntity
  8
30
  6
Continuous
 62
     0
370
    -2
100
AcDbBlockReference
  2
_OPEN
 10
353.0
 20
-259.3322434222736
 30
0.0
 41
2.0
 42
2.0
 43
2.0
 50
180.0
  0
INSERT
  5
D102
330
B5C7
100
AcDbEntity
  8
30
  6
Continuous
 62
     0
370
    -2
100
AcDbBlockReference
  2
_OPEN
 10
480.0
 20
-259.3322434222736
 30
0.0
 41
2.0
 42
2.0
 43
2.0
  0
MTEXT
  5
D103
330
B5C7
100
AcDbEntity
  8
30
  6
Continuous
 62
     0
100
AcDbMText
 10
416.5
 20
-253.3322434222736
 30
0.0
 40
6.0
 41
0.0
 71
     5
 72
     1
  1
\A1; 127 
 73
     1
 44
1.0
  0
POINT
  5
D104
330
B5C7
100
AcDbEntity
  8
DEFPOINTS
  6
Continuous
 62
     0
100
AcDbPoint
 10
353.0
 20
-52.50000000000091
 30
0.0
  0
POINT
  5
D105
330
B5C7
100
AcDbEntity
  8
DEFPOINTS
  6
Continuous
 62
     0
100
AcDbPoint
 10
480.0
 20
-175.0000000000009
 30
0.0
  0
POINT
  5
D106
330
B5C7
100
AcDbEntity
  8
DEFPOINTS
  6
Continuous
 62
     0
100
AcDbPoint
 10
480.0
 20
-259.3322434222736
 30
0.0
  0
ENDBLK
  5
B5D2
330
B5C7
100
AcDbEntity
  8
0
100
AcDbBlockEnd
  0
BLOCK
  5
B5DD
330
B5D3
100
AcDbEntity
  8
0
100
AcDbBlockBegin
  2
*D30
 70
     1
 10
0.0
 20
0.0
 30
0.0
  3
*D30
  1

  0
LINE
  5
D107
330
B5D3
100
AcDbEntity
  8
30
  6
Continuous
 62
     0
370
    -2
100
AcDbLine
 10
309.0
 20
-10.80000000000086
 30
0.0
 11
309.0
 21
-279.8322434222736
 31
0.0
  0
LINE
  5
D108
330
B5D3
100
AcDbEntity
  8
30
  6
Continuous
 62
     0
370
    -2
100
AcDbLine
 10
480.0
 20
-173.0000000000009
 30
0.0
 11
480.0
 21
-279.8322434222736
 31
0.0
  0
LINE
  5
D109
330
B5D3
100
AcDbEntity
  8
30
  6
Continuous
 62
     0
370
    -2
100
AcDbLine
 10
311.0
 20
-279.3322434222736
 30
0.0
 11
478.0
 21
-279.3322434222736
 31
0.0
  0
INSERT
  5
D10A
330
B5D3
100
AcDbEntity
  8
30
  6
Continuous
 62
     0
370
    -2
100
AcDbBlockReference
  2
_OPEN
 10
309.0
 20
-279.3322434222736
 30
0.0
 41
2.0
 42
2.0
 43
2.0
 50
180.0
  0
INSERT
  5
D10B
330
B5D3
100
AcDbEntity
  8
30
  6
Continuous
 62
     0
370
    -2
100
AcDbBlockReference
  2
_OPEN
 10
480.0
 20
-279.3322434222736
 30
0.0
 41
2.0
 42
2.0
 43
2.0
  0
MTEXT
  5
D10C
330
B5D3
100
AcDbEntity
  8
30
  6
Continuous
 62
     0
100
AcDbMText
 10
394.5
 20
-273.3322434222736
 30
0.0
 40
6.0
 41
0.0
 71
     5
 72
     1
  1
\A1; 171 
 73
     1
 44
1.0
  0
POINT
  5
D10D
330
B5D3
100
AcDbEntity
  8
DEFPOINTS
  6
Continuous
 62
     0
100
AcDbPoint
 10
309.0
 20
-7.800000000000862
 30
0.0
  0
POINT
  5
D10E
330
B5D3
100
AcDbEntity
  8
DEFPOINTS
  6
Continuous
 62
     0
100
AcDbPoint
 10
480.0
 20
-170.0000000000009
 30
0.0
  0
POINT
  5
D10F
330
B5D3
100
AcDbEntity
  8
DEFPOINTS
  6
Continuous
 62
     0
100
AcDbPoint
 10
480.0
 20
-279.3322434222736
 30
0.0
  0
ENDBLK
  5
B5DE
330
B5D3
100
AcDbEntity
  8
0
100
AcDbBlockEnd
  0
BLOCK
  5
B980
330
B976
100
AcDbEntity
  8
0
100
AcDbBlockBegin
  2
*D31
 70
     1
 10
0.0
 20
0.0
 30
0.0
  3
*D31
  1

  0
LINE
  5
CFE2
330
B976
100
AcDbEntity
  8
30
 62
     0
370
    -2
100
AcDbLine
 10
-0.0000599999998483
 20
557.9999999999996
 30
0.0
 11
-0.0000599999998456
 21
602.595875
 31
0.0
  0
LINE
  5
CFE3
330
B976
100
AcDbEntity
  8
30
 62
     0
370
    -2
100
AcDbLine
 10
69.99994000000015
 20
557.9999999999996
 30
0.0
 11
69.99994000000015
 21
602.595875
 31
0.0
  0
LINE
  5
CFE4
330
B976
100
AcDbEntity
  8
30
 62
     0
370
    -2
100
AcDbLine
 10
1.999940000000154
 20
602.095875
 30
0.0
 11
67.99994000000015
 21
602.095875
 31
0.0
  0
INSERT
  5
CFE5
330
B976
100
AcDbEntity
  8
30
 62
     0
370
    -2
100
AcDbBlockReference
  2
_OPEN
 10
-0.0000599999998456
 20
602.095875
 30
0.0
 41
2.0
 42
2.0
 43
2.0
 50
180.0
  0
INSERT
  5
CFE6
330
B976
100
AcDbEntity
  8
30
 62
     0
370
    -2
100
AcDbBlockReference
  2
_OPEN
 10
69.99994000000015
 20
602.095875
 30
0.0
 41
2.0
 42
2.0
 43
2.0
  0
MTEXT
  5
CFE7
330
B976
100
AcDbEntity
  8
30
 62
     0
100
AcDbMText
 10
34.99994000000013
 20
608.0958749999997
 30
0.0
 40
6.0
 41
0.0
 71
     5
 72
     1
  1
\A1; 70 
 73
     1
 44
1.0
  0
POINT
  5
CFE8
330
B976
100
AcDbEntity
  8
DEFPOINTS
 62
     0
100
AcDbPoint
 10
-0.0000599999998485
 20
554.9999999999998
 30
0.0
  0
POINT
  5
CFE9
330
B976
100
AcDbEntity
  8
DEFPOINTS
 62
     0
100
AcDbPoint
 10
69.99994000000015
 20
554.9999999999998
 30
0.0
  0
POINT
  5
CFEA
330
B976
100
AcDbEntity
  8
DEFPOINTS
 62
     0
100
AcDbPoint
 10
69.99994000000015
 20
602.095875
 30
0.0
  0
ENDBLK
  5
B981
330
B976
100
AcDbEntity
  8
0
100
AcDbBlockEnd
  0
BLOCK
  5
B98C
330
B982
100
AcDbEntity
  8
0
100
AcDbBlockBegin
  2
*D32
 70
     1
 10
0.0
 20
0.0
 30
0.0
  3
*D32
  1

  0
LINE
  5
CFF4
330
B982
100
AcDbEntity
  8
30
 62
     0
370
    -2
100
AcDbLine
 10
-70.00005999999984
 20
595.0
 30
0.0
 11
-70.00005999999984
 21
602.595875
 31
0.0
  0
LINE
  5
CFF5
330
B982
100
AcDbEntity
  8
30
 62
     0
370
    -2
100
AcDbLine
 10
-0.0000599999998483
 20
557.9999999999996
 30
0.0
 11
-0.0000599999998456
 21
602.595875
 31
0.0
  0
LINE
  5
CFF6
330
B982
100
AcDbEntity
  8
30
 62
     0
370
    -2
100
AcDbLine
 10
-68.00005999999985
 20
602.095875
 30
0.0
 11
-2.000059999999844
 21
602.095875
 31
0.0
  0
INSERT
  5
CFF7
330
B982
100
AcDbEntity
  8
30
 62
     0
370
    -2
100
AcDbBlockReference
  2
_OPEN
 10
-70.00005999999984
 20
602.095875
 30
0.0
 41
2.0
 42
2.0
 43
2.0
 50
180.0
  0
INSERT
  5
CFF8
330
B982
100
AcDbEntity
  8
30
 62
     0
370
    -2
100
AcDbBlockReference
  2
_OPEN
 10
-0.0000599999998456
 20
602.095875
 30
0.0
 41
2.0
 42
2.0
 43
2.0
  0
MTEXT
  5
CFF9
330
B982
100
AcDbEntity
  8
30
 62
     0
100
AcDbMText
 10
-35.00005999999984
 20
608.0958749999997
 30
0.0
 40
6.0
 41
0.0
 71
     5
 72
     1
  1
\A1; 70 
 73
     1
 44
1.0
  0
POINT
  5
CFFA
330
B982
100
AcDbEntity
  8
DEFPOINTS
 62
     0
100
AcDbPoint
 10
-70.00005999999984
 20
592.0
 30
0.0
  0
POINT
  5
CFFB
330
B982
100
AcDbEntity
  8
DEFPOINTS
 62
     0
100
AcDbPoint
 10
-0.0000599999998485
 20
554.9999999999998
 30
0.0
  0
POINT
  5
CFFC
330
B982
100
AcDbEntity
  8
DEFPOINTS
 62
     0
100
AcDbPoint
 10
-0.0000599999998456
 20
602.095875
 30
0.0
  0
ENDBLK
  5
B98D
330
B982
100
AcDbEntity
  8
0
100
AcDbBlockEnd
  0
BLOCK
  5
B998
330
B98E
100
AcDbEntity
  8
0
100
AcDbBlockBegin
  2
*D33
 70
     1
 10
0.0
 20
0.0
 30
0.0
  3
*D33
  1

  0
LINE
  5
CFEB
330
B98E
100
AcDbEntity
  8
30
 62
     0
370
    -2
100
AcDbLine
 10
-92.50005999999984
 20
572.9999999999997
 30
0.0
 11
-92.50005999999984
 21
580.0958749999997
 31
0.0
  0
LINE
  5
CFEC
330
B98E
100
AcDbEntity
  8
30
 62
     0
370
    -2
100
AcDbLine
 10
-47.50005999999984
 20
572.9999999999997
 30
0.0
 11
-47.50005999999984
 21
580.0958749999997
 31
0.0
  0
LINE
  5
CFED
330
B98E
100
AcDbEntity
  8
30
 62
     0
370
    -2
100
AcDbLine
 10
-90.50005999999985
 20
579.5958749999997
 30
0.0
 11
-49.50005999999985
 21
579.5958749999997
 31
0.0
  0
INSERT
  5
CFEE
330
B98E
100
AcDbEntity
  8
30
 62
     0
370
    -2
100
AcDbBlockReference
  2
_OPEN
 10
-92.50005999999984
 20
579.5958749999997
 30
0.0
 41
2.0
 42
2.0
 43
2.0
 50
180.0
  0
INSERT
  5
CFEF
330
B98E
100
AcDbEntity
  8
30
 62
     0
370
    -2
100
AcDbBlockReference
  2
_OPEN
 10
-47.50005999999984
 20
579.5958749999997
 30
0.0
 41
2.0
 42
2.0
 43
2.0
  0
MTEXT
  5
CFF0
330
B98E
100
AcDbEntity
  8
30
 62
     0
100
AcDbMText
 10
-70.00005999999984
 20
585.595875
 30
0.0
 40
6.0
 41
0.0
 71
     5
 72
     1
  1
\A1; 45 
 73
     1
 44
1.0
  0
POINT
  5
CFF1
330
B98E
100
AcDbEntity
  8
DEFPOINTS
 62
     0
100
AcDbPoint
 10
-92.50005999999984
 20
569.9999999999997
 30
0.0
  0
POINT
  5
CFF2
330
B98E
100
AcDbEntity
  8
DEFPOINTS
 62
     0
100
AcDbPoint
 10
-47.50005999999984
 20
569.9999999999997
 30
0.0
  0
POINT
  5
CFF3
330
B98E
100
AcDbEntity
  8
DEFPOINTS
 62
     0
100
AcDbPoint
 10
-47.50005999999984
 20
579.5958749999997
 30
0.0
  0
ENDBLK
  5
B999
330
B98E
100
AcDbEntity
  8
0
100
AcDbBlockEnd
  0
BLOCK
  5
B9A3
330
B99A
100
AcDbEntity
  8
0
100
AcDbBlockBegin
  2
*D34
 70
     1
 10
0.0
 20
0.0
 30
0.0
  3
*D34
  1

  0
LINE
  5
D006
330
B99A
100
AcDbEntity
  8
30
 62
     0
370
    -2
100
AcDbLine
 10
65.88226278925725
 20
548.1959077673152
 30
0.0
 11
74.12732221074453
 21
551.804092232684
 31
0.0
  0
LINE
  5
D007
330
B99A
100
AcDbEntity
  8
30
 62
     0
370
    -2
100
AcDbLine
 10
75.95955763774184
 20
552.6059110027659
 30
0.0
 11
95.00491250000123
 21
560.9404966059154
 31
0.0
  0
LINE
  5
D008
330
B99A
100
AcDbEntity
  8
30
 62
     0
370
    -2
100
AcDbLine
 10
95.00491250000123
 20
560.9404966059154
 30
0.0
 11
112.004912500001
 21
560.9404966059154
 31
0.0
  0
INSERT
  5
D009
330
B99A
100
AcDbEntity
  8
30
 62
     0
370
    -2
100
AcDbBlockReference
  2
_OPEN
 10
64.0500273622599
 20
547.3940889972335
 30
0.0
 41
2.0
 42
2.0
 43
2.0
 50
203.635040844774
  0
INSERT
  5
D00A
330
B99A
100
AcDbEntity
  8
30
 62
     0
370
    -2
100
AcDbBlockReference
  2
_OPEN
 10
75.95955763774184
 20
552.6059110027659
 30
0.0
 41
2.0
 42
2.0
 43
2.0
 50
23.63504084477403
  0
MTEXT
  5
D00B
330
B99A
100
AcDbEntity
  8
30
 62
     0
100
AcDbMText
 10
105.004912500001
 20
566.9404966059151
 30
0.0
 40
6.0
 41
0.0
 71
     5
 72
     1
  1
\A1;\U+220513
 73
     1
 44
1.0
  0
POINT
  5
D00C
330
B99A
100
AcDbEntity
  8
DEFPOINTS
 62
     0
100
AcDbPoint
 10
75.95955763774184
 20
552.6059110027659
 30
0.0
  0
POINT
  5
D00D
330
B99A
100
AcDbEntity
  8
DEFPOINTS
 62
     0
100
AcDbPoint
 10
64.0500273622599
 20
547.3940889972335
 30
0.0
  0
ENDBLK
  5
B9A4
330
B99A
100
AcDbEntity
  8
0
100
AcDbBlockEnd
  0
BLOCK
  5
B9D2
330
B9C8
100
AcDbEntity
  8
0
100
AcDbBlockBegin
  2
*D35
 70
     1
 10
0.0
 20
0.0
 30
0.0
  3
*D35
  1

  0
LINE
  5
CFFD
330
B9C8
100
AcDbEntity
  8
30
 62
     0
370
    -2
100
AcDbLine
 10
63.5047925000001
 20
512.0
 30
0.0
 11
63.5047925000001
 21
528.0
 31
0.0
  0
LINE
  5
CFFE
330
B9C8
100
AcDbEntity
  8
30
 62
     0
370
    -2
100
AcDbLine
 10
76.50479250000012
 20
512.0
 30
0.0
 11
76.50479250000012
 21
528.0
 31
0.0
  0
LINE
  5
CFFF
330
B9C8
100
AcDbEntity
  8
30
 62
     0
370
    -2
100
AcDbLine
 10
65.50479250000012
 20
527.5
 30
0.0
 11
74.50479250000012
 21
527.5
 31
0.0
  0
INSERT
  5
D000
330
B9C8
100
AcDbEntity
  8
30
 62
     0
370
    -2
100
AcDbBlockReference
  2
_OPEN
 10
63.5047925000001
 20
527.5
 30
0.0
 41
2.0
 42
2.0
 43
2.0
 50
180.0
  0
INSERT
  5
D001
330
B9C8
100
AcDbEntity
  8
30
 62
     0
370
    -2
100
AcDbBlockReference
  2
_OPEN
 10
76.50479250000012
 20
527.5
 30
0.0
 41
2.0
 42
2.0
 43
2.0
  0
MTEXT
  5
D002
330
B9C8
100
AcDbEntity
  8
30
 62
     0
100
AcDbMText
 10
70.00479250000012
 20
533.4999999999999
 30
0.0
 40
6.0
 41
0.0
 71
     5
 72
     1
  1
\A1;13 
 73
     1
 44
1.0
  0
POINT
  5
D003
330
B9C8
100
AcDbEntity
  8
DEFPOINTS
 62
     0
100
AcDbPoint
 10
63.5047925000001
 20
509.0
 30
0.0
  0
POINT
  5
D004
330
B9C8
100
AcDbEntity
  8
DEFPOINTS
 62
     0
100
AcDbPoint
 10
76.50479250000012
 20
509.0
 30
0.0
  0
POINT
  5
D005
330
B9C8
100
AcDbEntity
  8
DEFPOINTS
 62
     0
100
AcDbPoint
 10
76.50479250000012
 20
527.5
 30
0.0
  0
ENDBLK
  5
B9D3
330
B9C8
100
AcDbEntity
  8
0
100
AcDbBlockEnd
  0
BLOCK
  5
BA62
330
BA58
100
AcDbEntity
  8
0
100
AcDbBlockBegin
  2
*D36
 70
     1
 10
0.0
 20
0.0
 30
0.0
  3
*D36
  1

  0
LINE
  5
D119
330
BA58
100
AcDbEntity
  8
30
  6
Continuous
 62
     0
370
    -2
100
AcDbLine
 10
480.0
 20
-173.0000000000009
 30
0.0
 11
480.0
 21
-239.8322434222734
 31
0.0
  0
LINE
  5
D11A
330
BA58
100
AcDbEntity
  8
30
  6
Continuous
 62
     0
370
    -2
100
AcDbLine
 10
498.0
 20
-172.0000000000009
 30
0.0
 11
498.0
 21
-239.8322434222734
 31
0.0
  0
LINE
  5
D11B
330
BA58
100
AcDbEntity
  8
30
  6
Continuous
 62
     0
370
    -2
100
AcDbLine
 10
482.0
 20
-239.3322434222735
 30
0.0
 11
496.0
 21
-239.3322434222735
 31
0.0
  0
INSERT
  5
D11C
330
BA58
100
AcDbEntity
  8
30
  6
Continuous
 62
     0
370
    -2
100
AcDbBlockReference
  2
_OPEN
 10
480.0
 20
-239.3322434222735
 30
0.0
 41
2.0
 42
2.0
 43
2.0
 50
180.0
  0
INSERT
  5
D11D
330
BA58
100
AcDbEntity
  8
30
  6
Continuous
 62
     0
370
    -2
100
AcDbBlockReference
  2
_OPEN
 10
498.0
 20
-239.3322434222735
 30
0.0
 41
2.0
 42
2.0
 43
2.0
  0
MTEXT
  5
D11E
330
BA58
100
AcDbEntity
  8
30
  6
Continuous
 62
     0
100
AcDbMText
 10
489.0
 20
-233.3322434222734
 30
0.0
 40
6.0
 41
0.0
 71
     5
 72
     1
  1
\A1;18
 73
     1
 44
1.0
  0
POINT
  5
D11F
330
BA58
100
AcDbEntity
  8
DEFPOINTS
  6
Continuous
 62
     0
100
AcDbPoint
 10
480.0
 20
-170.0000000000009
 30
0.0
  0
POINT
  5
D120
330
BA58
100
AcDbEntity
  8
DEFPOINTS
  6
Continuous
 62
     0
100
AcDbPoint
 10
498.0
 20
-169.0000000000009
 30
0.0
  0
POINT
  5
D121
330
BA58
100
AcDbEntity
  8
DEFPOINTS
  6
Continuous
 62
     0
100
AcDbPoint
 10
498.0
 20
-239.3322434222735
 30
0.0
  0
ENDBLK
  5
BA63
330
BA58
100
AcDbEntity
  8
0
100
AcDbBlockEnd
  0
BLOCK
  5
BB59
330
BB4F
100
AcDbEntity
  8
0
100
AcDbBlockBegin
  2
*D37
 70
     1
 10
0.0
 20
0.0
 30
0.0
  3
*D37
  1

  0
LINE
  5
D110
330
BB4F
100
AcDbEntity
  8
30
  6
Continuous
 62
     0
370
    -2
100
AcDbLine
 10
263.5
 20
-568.9999999999997
 30
0.0
 11
263.5
 21
-730.4999999999997
 31
0.0
  0
LINE
  5
D111
330
BB4F
100
AcDbEntity
  8
30
  6
Continuous
 62
     0
370
    -2
100
AcDbLine
 10
456.5
 20
-568.9999999999988
 30
0.0
 11
456.5
 21
-730.4999999999997
 31
0.0
  0
LINE
  5
D112
330
BB4F
100
AcDbEntity
  8
30
  6
Continuous
 62
     0
370
    -2
100
AcDbLine
 10
265.5
 20
-730.0
 30
0.0
 11
454.4999999999998
 21
-730.0
 31
0.0
  0
INSERT
  5
D113
330
BB4F
100
AcDbEntity
  8
30
  6
Continuous
 62
     0
370
    -2
100
AcDbBlockReference
  2
_OPEN
 10
263.5
 20
-730.0
 30
0.0
 41
2.0
 42
2.0
 43
2.0
 50
180.0
  0
INSERT
  5
D114
330
BB4F
100
AcDbEntity
  8
30
  6
Continuous
 62
     0
370
    -2
100
AcDbBlockReference
  2
_OPEN
 10
456.5
 20
-730.0
 30
0.0
 41
2.0
 42
2.0
 43
2.0
  0
MTEXT
  5
D115
330
BB4F
100
AcDbEntity
  8
30
  6
Continuous
 62
     0
100
AcDbMText
 10
360.0
 20
-724.0
 30
0.0
 40
6.0
 41
0.0
 71
     5
 72
     1
  1
\A1; 193 
 73
     1
 44
1.0
  0
POINT
  5
D116
330
BB4F
100
AcDbEntity
  8
DEFPOINTS
  6
Continuous
 62
     0
100
AcDbPoint
 10
263.5
 20
-565.9999999999997
 30
0.0
  0
POINT
  5
D117
330
BB4F
100
AcDbEntity
  8
DEFPOINTS
  6
Continuous
 62
     0
100
AcDbPoint
 10
456.5
 20
-565.9999999999992
 30
0.0
  0
POINT
  5
D118
330
BB4F
100
AcDbEntity
  8
DEFPOINTS
  6
Continuous
 62
     0
100
AcDbPoint
 10
456.5
 20
-730.0
 30
0.0
  0
ENDBLK
  5
BB5A
330
BB4F
100
AcDbEntity
  8
0
100
AcDbBlockEnd
  0
BLOCK
  5
BB94
330
BB8A
100
AcDbEntity
  8
0
100
AcDbBlockBegin
  2
*D38
 70
     1
 10
0.0
 20
0.0
 30
0.0
  3
*D38
  1

  0
LINE
  5
D0C7
330
BB8A
100
AcDbEntity
  8
30
  6
Continuous
 62
     0
370
    -2
100
AcDbLine
 10
260.4999999999999
 20
-470.9999999999991
 30
0.0
 11
234.5
 21
-470.9999999999991
 31
0.0
  0
LINE
  5
D0C8
330
BB8A
100
AcDbEntity
  8
30
  6
Continuous
 62
     0
370
    -2
100
AcDbLine
 10
260.4999999999999
 20
-568.9999999999997
 30
0.0
 11
234.5
 21
-568.9999999999996
 31
0.0
  0
LINE
  5
D0C9
330
BB8A
100
AcDbEntity
  8
30
  6
Continuous
 62
     0
370
    -2
100
AcDbLine
 10
235.0
 20
-472.9999999999991
 30
0.0
 11
235.0
 21
-566.9999999999996
 31
0.0
  0
INSERT
  5
D0CA
330
BB8A
100
AcDbEntity
  8
30
  6
Continuous
 62
     0
370
    -2
100
AcDbBlockReference
  2
_OPEN
 10
235.0
 20
-470.9999999999991
 30
0.0
 41
2.0
 42
2.0
 43
2.0
 50
90.0
  0
INSERT
  5
D0CB
330
BB8A
100
AcDbEntity
  8
30
  6
Continuous
 62
     0
370
    -2
100
AcDbBlockReference
  2
_OPEN
 10
235.0
 20
-568.9999999999996
 30
0.0
 41
2.0
 42
2.0
 43
2.0
 50
270.0
  0
MTEXT
  5
D0CC
330
BB8A
100
AcDbEntity
  8
30
  6
Continuous
 62
     0
100
AcDbMText
 10
229.0
 20
-519.9999999999994
 30
0.0
 40
6.0
 41
0.0
 71
     5
 72
     1
  1
\A1;98
 11
0.0000000000000001
 21
1.0
 31
0.0
 73
     1
 44
1.0
  0
POINT
  5
D0CD
330
BB8A
100
AcDbEntity
  8
DEFPOINTS
  6
Continuous
 62
     0
100
AcDbPoint
 10
263.5
 20
-470.9999999999991
 30
0.0
  0
POINT
  5
D0CE
330
BB8A
100
AcDbEntity
  8
DEFPOINTS
  6
Continuous
 62
     0
100
AcDbPoint
 10
263.5
 20
-568.9999999999997
 30
0.0
  0
POINT
  5
D0CF
330
BB8A
100
AcDbEntity
  8
DEFPOINTS
  6
Continuous
 62
     0
100
AcDbPoint
 10
235.0
 20
-568.9999999999996
 30
0.0
  0
ENDBLK
  5
BB95
330
BB8A
100
AcDbEntity
  8
0
100
AcDbBlockEnd
  0
BLOCK
  5
BBAC
330
BBA2
100
AcDbEntity
  8
0
100
AcDbBlockBegin
  2
*D39
 70
     1
 10
0.0
 20
0.0
 30
0.0
  3
*D39
  1

  0
LINE
  5
CF76
330
BBA2
100
AcDbEntity
  8
30
  6
Continuous
 62
     0
370
    -2
100
AcDbLine
 10
419.5
 20
-604.0
 30
0.0
 11
419.5
 21
-742.5958749999997
 31
0.0
  0
LINE
  5
CF77
330
BBA2
100
AcDbEntity
  8
30
  6
Continuous
 62
     0
370
    -2
100
AcDbLine
 10
500.4999999999998
 20
-604.0
 30
0.0
 11
500.4999999999998
 21
-742.5958749999997
 31
0.0
  0
LINE
  5
CF78
330
BBA2
100
AcDbEntity
  8
30
  6
Continuous
 62
     0
370
    -2
100
AcDbLine
 10
421.4999999999998
 20
-742.0958749999997
 30
0.0
 11
498.4999999999997
 21
-742.0958749999997
 31
0.0
  0
INSERT
  5
CF79
330
BBA2
100
AcDbEntity
  8
30
  6
Continuous
 62
     0
370
    -2
100
AcDbBlockReference
  2
_OPEN
 10
419.5
 20
-742.0958749999997
 30
0.0
 41
2.0
 42
2.0
 43
2.0
 50
180.0
  0
INSERT
  5
CF7A
330
BBA2
100
AcDbEntity
  8
30
  6
Continuous
 62
     0
370
    -2
100
AcDbBlockReference
  2
_OPEN
 10
500.4999999999998
 20
-742.0958749999997
 30
0.0
 41
2.0
 42
2.0
 43
2.0
  0
MTEXT
  5
CF7B
330
BBA2
100
AcDbEntity
  8
30
  6
Continuous
 62
     0
100
AcDbMText
 10
459.9999999999998
 20
-736.0958749999999
 30
0.0
 40
6.0
 41
0.0
 71
     5
 72
     1
  1
\A1; 81 
 73
     1
 44
1.0
  0
POINT
  5
CF7C
330
BBA2
100
AcDbEntity
  8
DEFPOINTS
  6
Continuous
 62
     0
100
AcDbPoint
 10
419.5
 20
-601.0
 30
0.0
  0
POINT
  5
CF7D
330
BBA2
100
AcDbEntity
  8
DEFPOINTS
  6
Continuous
 62
     0
100
AcDbPoint
 10
500.4999999999998
 20
-601.0
 30
0.0
  0
POINT
  5
CF7E
330
BBA2
100
AcDbEntity
  8
DEFPOINTS
  6
Continuous
 62
     0
100
AcDbPoint
 10
500.4999999999998
 20
-742.0958749999997
 30
0.0
  0
ENDBLK
  5
BBAD
330
BBA2
100
AcDbEntity
  8
0
100
AcDbBlockEnd
  0
BLOCK
  5
BBC2
330
BBB9
100
AcDbEntity
  8
0
100
AcDbBlockBegin
  2
*D40
 70
     1
 10
0.0
 20
0.0
 30
0.0
  3
*D40
  1

  0
LINE
  5
D122
330
BBB9
100
AcDbEntity
  8
30
  6
Continuous
 62
     0
370
    -2
100
AcDbLine
 10
265.4999257061644
 20
-469.0835210994356
 30
0.0
 11
263.9968486915055
 21
-460.963473671937
 31
0.0
  0
LINE
  5
D123
330
BBB9
100
AcDbEntity
  8
30
  6
Continuous
 62
     0
370
    -2
100
AcDbLine
 10
263.9968486915055
 20
-460.963473671937
 30
0.0
 11
276.9968486915054
 21
-460.9634736719367
 31
0.0
  0
INSERT
  5
D124
330
BBB9
100
AcDbEntity
  8
30
  6
Continuous
 62
     0
370
    -2
100
AcDbBlockReference
  2
_OPEN
 10
265.8639554236989
 20
-471.0501126596613
 30
0.0
 41
2.0
 42
2.0
 43
2.0
 50
280.4871416770032
  0
MTEXT
  5
D125
330
BBB9
100
AcDbEntity
  8
30
  6
Continuous
 62
     0
100
AcDbMText
 10
271.9968486915055
 20
-454.9634736719371
 30
0.0
 40
6.0
 41
0.0
 71
     5
 72
     1
  1
\A1;R3
 73
     1
 44
1.0
  0
LINE
  5
D126
330
BBB9
100
AcDbEntity
  8
30
  6
Continuous
 62
     0
370
    -2
100
AcDbLine
 10
266.3200000000005
 20
-474.0000000000001
 30
0.0
 11
266.5000000000004
 21
-474.0000000000001
 31
0.0
  0
LINE
  5
D127
330
BBB9
100
AcDbEntity
  8
30
  6
Continuous
 62
     0
370
    -2
100
AcDbLine
 10
266.4100000000004
 20
-474.0900000000003
 30
0.0
 11
266.4100000000004
 21
-473.9100000000001
 31
0.0
  0
POINT
  5
D128
330
BBB9
100
AcDbEntity
  8
DEFPOINTS
  6
Continuous
 62
     0
100
AcDbPoint
 10
265.8639554236989
 20
-471.0501126596613
 30
0.0
  0
POINT
  5
D129
330
BBB9
100
AcDbEntity
  8
DEFPOINTS
  6
Continuous
 62
     0
100
AcDbPoint
 10
266.4100000000004
 20
-474.0000000000001
 30
0.0
  0
ENDBLK
  5
BBC3
330
BBB9
100
AcDbEntity
  8
0
100
AcDbBlockEnd
  0
BLOCK
  5
BBCD
330
BBC4
100
AcDbEntity
  8
0
100
AcDbBlockBegin
  2
*D41
 70
     1
 10
0.0
 20
0.0
 30
0.0
  3
*D41
  1

  0
LINE
  5
D12A
330
BBC4
100
AcDbEntity
  8
30
  6
Continuous
 62
     0
370
    -2
100
AcDbLine
 10
321.5899257061656
 20
-469.0835210994353
 30
0.0
 11
320.0868486915068
 21
-460.963473671937
 31
0.0
  0
LINE
  5
D12B
330
BBC4
100
AcDbEntity
  8
30
  6
Continuous
 62
     0
370
    -2
100
AcDbLine
 10
320.0868486915068
 20
-460.963473671937
 30
0.0
 11
333.0868486915068
 21
-460.963473671937
 31
0.0
  0
INSERT
  5
D12C
330
BBC4
100
AcDbEntity
  8
30
  6
Continuous
 62
     0
370
    -2
100
AcDbBlockReference
  2
_OPEN
 10
321.9539554237
 20
-471.0501126596613
 30
0.0
 41
2.0
 42
2.0
 43
2.0
 50
280.4871416770021
  0
MTEXT
  5
D12D
330
BBC4
100
AcDbEntity
  8
30
  6
Continuous
 62
     0
100
AcDbMText
 10
328.0868486915067
 20
-454.9634736719371
 30
0.0
 40
6.0
 41
0.0
 71
     5
 72
     1
  1
\A1;R3
 73
     1
 44
1.0
  0
LINE
  5
D12E
330
BBC4
100
AcDbEntity
  8
30
  6
Continuous
 62
     0
370
    -2
100
AcDbLine
 10
322.4100000000016
 20
-474.0
 30
0.0
 11
322.5900000000015
 21
-474.0
 31
0.0
  0
LINE
  5
D12F
330
BBC4
100
AcDbEntity
  8
30
  6
Continuous
 62
     0
370
    -2
100
AcDbLine
 10
322.5000000000016
 20
-474.0899999999999
 30
0.0
 11
322.5000000000016
 21
-473.91
 31
0.0
  0
POINT
  5
D130
330
BBC4
100
AcDbEntity
  8
DEFPOINTS
  6
Continuous
 62
     0
100
AcDbPoint
 10
321.9539554237
 20
-471.0501126596613
 30
0.0
  0
POINT
  5
D131
330
BBC4
100
AcDbEntity
  8
DEFPOINTS
  6
Continuous
 62
     0
100
AcDbPoint
 10
322.5000000000013
 20
-474.0
 30
0.0
  0
ENDBLK
  5
BBCE
330
BBC4
100
AcDbEntity
  8
0
100
AcDbBlockEnd
  0
ENDSEC
  0
SECTION
  2
ENTITIES
  0
MTEXT
  5
BF3
330
1E
100
AcDbEntity
  8
24
  6
Continuous
100
AcDbMText
 10
-1330.881809390125
 20
176.5
 30
0.0
 40
3.0
 41
0.0
 71
     1
 72
     1
  1
\A1;
 73
     1
 44
1.0
  0
MTEXT
  5
7B0D
330
1E
100
AcDbEntity
  8
30
  6
Continuous
100
AcDbMText
 10
-1137.0
 20
246.4999999999999
 30
0.0
 40
5.0
 41
0.0
 71
     1
 72
     1
  1
\A1;
 73
     1
 44
1.0
  0
MTEXT
  5
8780
330
1E
100
AcDbEntity
  8
30
  6
Continuous
100
AcDbMText
 10
-1137.0
 20
270.0
 30
0.0
 40
5.0
 41
0.0
 71
     1
 72
     1
  1
\A1;
 73
     1
 44
1.0
  0
MTEXT
  5
89B2
330
1E
100
AcDbEntity
  8
30
  6
Continuous
100
AcDbMText
 10
-1144.0
 20
278.4999999999999
 30
0.0
 40
5.0
 41
0.0
 71
     1
 72
     1
  1
\A1;
 73
     1
 44
1.0
  0
LINE
  5
A432
330
1E
100
AcDbEntity
  8
16
100
AcDbLine
 10
230.252445
 20
-0.0000000000009095
 30
0.0
 11
585.9072299999998
 21
-0.0000000000009095
 31
0.0
  0
LINE
  5
A620
330
1E
100
AcDbEntity
  8
16
100
AcDbLine
 10
0.0
 20
-85.49999999999981
 30
0.0
 11
0.0
 21
74.50000000000017
 31
0.0
  0
DIMENSION
  5
A622
330
1E
100
AcDbEntity
  8
30
  6
Continuous
100
AcDbDimension
  2
*D1
 10
95.0
 20
84.40412500000006
 30
0.0
 11
0.0000000000000004
 21
90.40412500000007
 31
0.0
 70
    32
  1
 <> 
 71
     5
 42
190.0
  3
STANDARD1
100
AcDbAlignedDimension
 13
-95.0
 23
51.50000000000005
 33
0.0
 14
95.0
 24
51.50000000000005
 34
0.0
100
AcDbRotatedDimension
  0
DIMENSION
  5
A624
330
1E
100
AcDbEntity
  8
30
  6
Continuous
100
AcDbDimension
  2
*D2
 10
-196.9540199999995
 20
200.0
 30
0.0
 11
-202.9540199999996
 21
15.00000000000002
 31
0.0
 70
    32
  1
 <> 
 71
     0
 72
     0
 41
0.0
 42
370.0
  3
STANDARD1
100
AcDbAlignedDimension
 13
-110.0001199999997
 23
-169.9999999999999
 33
0.0
 14
-110.0001199999997
 24
200.0
 34
0.0
 50
90.0
100
AcDbRotatedDimension
  0
DIMENSION
  5
A625
330
1E
100
AcDbEntity
  8
30
  6
Continuous
100
AcDbDimension
  2
*D3
 10
-177.4540199999995
 20
199.9999999999999
 30
0.0
 11
-183.4540199999997
 21
100.0
 31
0.0
 70
    32
  1
 <> 
 71
     0
 72
     0
 41
0.0
 42
199.9999999999999
  3
STANDARD1
100
AcDbAlignedDimension
 13
-146.0001199999996
 23
0.0000000000000568
 33
0.0
 14
-105.0001199999996
 24
199.9999999999999
 34
0.0
 50
90.0
100
AcDbRotatedDimension
  0
LINE
  5
A626
330
1E
100
AcDbEntity
  8
16
100
AcDbLine
 10
146.0
 20
0.0
 30
0.0
 11
-115.0
 21
0.0
 31
0.0
  0
DIMENSION
  5
A627
330
1E
100
AcDbEntity
  8
30
  6
Continuous
100
AcDbDimension
  2
*D4
 10
-177.4540199999995
 20
0.0000000000000561
 30
0.0
 11
-183.4540199999995
 21
-84.99999999999996
 31
0.0
 70
    32
  1
 <> 
 71
     0
 72
     0
 41
0.0
 42
170.0
  3
STANDARD1
100
AcDbAlignedDimension
 13
-110.0001199999997
 23
-169.9999999999999
 33
0.0
 14
-180.0001199999995
 24
0.0000000000000568
 34
0.0
 50
90.0
100
AcDbRotatedDimension
  0
DIMENSION
  5
A629
330
1E
100
AcDbEntity
  8
30
  6
Continuous
100
AcDbDimension
  2
*D6
 10
-156.9540199999995
 20
47.50000000000006
 30
0.0
 11
-162.9540199999994
 21
0.0000000000000459
 31
0.0
 70
    32
  1
 <> 
 71
     0
 72
     0
 41
0.0
 42
95.0
  3
STANDARD1
100
AcDbAlignedDimension
 13
-99.0001199999997
 23
-47.49999999999993
 33
0.0
 14
-99.0001199999997
 24
47.50000000000006
 34
0.0
 50
90.0
100
AcDbRotatedDimension
  0
DIMENSION
  5
A62A
330
1E
100
AcDbEntity
  8
30
  6
Continuous
100
AcDbDimension
  2
*D7
 10
105.0
 20
-221.4999999999999
 30
0.0
 11
0.0000000000000004
 21
-215.5
 31
0.0
 70
    32
  1
 <> 
 71
     5
 42
210.0
  3
STANDARD1
100
AcDbAlignedDimension
 13
-105.0
 23
-174.9999999999999
 33
0.0
 14
105.0
 24
-174.9999999999999
 34
0.0
100
AcDbRotatedDimension
  0
LINE
  5
A63B
330
1E
100
AcDbEntity
  8
10
  6
Continuous
100
AcDbLine
 10
-105.0
 20
-140.0
 30
0.0
 11
105.0
 21
-140.0
 31
0.0
  0
LINE
  5
A63C
330
1E
100
AcDbEntity
  8
10
  6
Continuous
100
AcDbLine
 10
22.49999999999977
 20
43.33292999999996
 30
0.0
 11
-22.5
 21
43.33292999999996
 31
0.0
  0
LINE
  5
A63D
330
1E
100
AcDbEntity
  8
10
  6
Continuous
100
AcDbLine
 10
94.0
 20
47.50000000000006
 30
0.0
 11
-94.0
 21
47.50000000000006
 31
0.0
  0
LINE
  5
A63F
330
1E
100
AcDbEntity
  8
10
  6
Continuous
100
AcDbLine
 10
22.49999999999977
 20
-22.99999999999982
 30
0.0
 11
-22.5
 21
-22.99999999999982
 31
0.0
  0
LINE
  5
A640
330
1E
100
AcDbEntity
  8
10
  6
Continuous
100
AcDbLine
 10
94.0
 20
-47.5
 30
0.0
 11
-94.0
 21
-47.5
 31
0.0
  0
LINE
  5
A641
330
1E
100
AcDbEntity
  8
10
  6
Continuous
100
AcDbLine
 10
22.49999999999977
 20
31.93223500000016
 30
0.0
 11
-22.5
 21
31.93223500000016
 31
0.0
  0
DIMENSION
  5
A642
330
1E
100
AcDbEntity
  8
30
  6
Continuous
100
AcDbDimension
  2
*D10
 10
39.0
 20
-103.0958749999999
 30
0.0
 11
0.0000000000000004
 21
-97.09587499999992
 31
0.0
 70
    32
  1
 <> 
 71
     5
 42
78.0
  3
STANDARD1
100
AcDbAlignedDimension
 13
-39.0
 23
-52.49999999999993
 33
0.0
 14
39.0
 24
-52.49999999999993
 34
0.0
100
AcDbRotatedDimension
  0
CIRCLE
  5
A644
330
1E
100
AcDbEntity
  8
17
100
AcDbCircle
 10
-34.79999999999995
 20
-155.0
 30
0.0
 40
8.5
  0
LINE
  5
A645
330
1E
100
AcDbEntity
  8
17
100
AcDbLine
 10
-48.30000000000018
 20
-155.0
 30
0.0
 11
-21.29999999999995
 21
-155.0
 31
0.0
  0
LINE
  5
A646
330
1E
100
AcDbEntity
  8
17
100
AcDbLine
 10
-34.79999999999995
 20
-168.4999999999999
 30
0.0
 11
-34.79999999999995
 21
-141.5
 31
0.0
  0
LINE
  5
A647
330
1E
100
AcDbEntity
  8
10
  6
Continuous
100
AcDbLine
 10
-95.0
 20
-46.50000000000003
 30
0.0
 11
-95.0
 21
46.50000000000003
 31
0.0
  0
ARC
  5
A649
330
1E
100
AcDbEntity
  8
10
  6
Continuous
100
AcDbCircle
 10
-94.0
 20
-46.50000000000003
 30
0.0
 40
1.0
100
AcDbArc
 50
180.0
 51
270.0
  0
ARC
  5
A64A
330
1E
100
AcDbEntity
  8
10
  6
Continuous
100
AcDbCircle
 10
-94.0
 20
46.50000000000003
 30
0.0
 40
1.0
100
AcDbArc
 50
90.0
 51
180.0
  0
LINE
  5
A64B
330
1E
100
AcDbEntity
  8
10
  6
Continuous
100
AcDbLine
 10
-22.5
 20
-22.99999999999982
 30
0.0
 11
-22.5
 21
43.33292999999996
 31
0.0
  0
LINE
  5
A64E
330
1E
100
AcDbEntity
  8
17
100
AcDbLine
 10
21.69999999999981
 20
-155.0
 30
0.0
 11
48.69999999999982
 21
-155.0
 31
0.0
  0
CIRCLE
  5
A64F
330
1E
100
AcDbEntity
  8
17
100
AcDbCircle
 10
35.20000000000004
 20
-155.0
 30
0.0
 40
8.5
  0
LINE
  5
A650
330
1E
100
AcDbEntity
  8
17
100
AcDbLine
 10
35.20000000000004
 20
-168.4999999999999
 30
0.0
 11
35.20000000000004
 21
-141.5
 31
0.0
  0
LINE
  5
A651
330
1E
100
AcDbEntity
  8
10
  6
Continuous
100
AcDbLine
 10
94.99999999999976
 20
-46.50000000000003
 30
0.0
 11
94.99999999999976
 21
46.50000000000003
 31
0.0
  0
LINE
  5
A652
330
1E
100
AcDbEntity
  8
10
  6
Continuous
100
AcDbLine
 10
22.49999999999977
 20
-22.99999999999982
 30
0.0
 11
22.49999999999977
 21
43.33292999999996
 31
0.0
  0
ARC
  5
A658
330
1E
100
AcDbEntity
  8
10
  6
Continuous
100
AcDbCircle
 10
94.0
 20
-46.50000000000003
 30
0.0
 40
1.0
100
AcDbArc
 50
270.0
 51
0.0
  0
ARC
  5
A659
330
1E
100
AcDbEntity
  8
10
  6
Continuous
100
AcDbCircle
 10
94.0
 20
46.50000000000003
 30
0.0
 40
1.0
100
AcDbArc
 50
0.0
 51
90.0
  0
LINE
  5
A66F
330
1E
100
AcDbEntity
  8
10
  6
Continuous
100
AcDbLine
 10
105.0
 20
170.0
 30
0.0
 11
-105.0
 21
170.0
 31
0.0
  0
CIRCLE
  5
A672
330
1E
100
AcDbEntity
  8
17
100
AcDbCircle
 10
-34.79999999999995
 20
185.0
 30
0.0
 40
8.5
  0
LINE
  5
A673
330
1E
100
AcDbEntity
  8
17
100
AcDbLine
 10
-48.30000000000018
 20
185.0
 30
0.0
 11
-21.29999999999995
 21
185.0
 31
0.0
  0
LINE
  5
A674
330
1E
100
AcDbEntity
  8
17
100
AcDbLine
 10
-34.79999999999995
 20
171.5
 30
0.0
 11
-34.79999999999995
 21
198.4999999999999
 31
0.0
  0
CIRCLE
  5
A679
330
1E
100
AcDbEntity
  8
17
100
AcDbCircle
 10
35.20000000000004
 20
185.0
 30
0.0
 40
8.5
  0
LINE
  5
A67A
330
1E
100
AcDbEntity
  8
17
100
AcDbLine
 10
35.20000000000004
 20
171.5
 30
0.0
 11
35.20000000000004
 21
198.4999999999999
 31
0.0
  0
LINE
  5
A67B
330
1E
100
AcDbEntity
  8
17
100
AcDbLine
 10
21.69999999999981
 20
185.0
 30
0.0
 11
48.69999999999982
 21
185.0
 31
0.0
  0
LINE
  5
A6DF
330
1E
100
AcDbEntity
  8
18
  6
DIVIDE
100
AcDbLine
 10
-105.0
 20
-321.0
 30
0.0
 11
104.9999999999994
 21
-321.0
 31
0.0
  0
LINE
  5
A6E0
330
1E
100
AcDbEntity
  8
10
  6
DIVIDE
100
AcDbLine
 10
-105.0
 20
-560.0000000000001
 30
0.0
 11
104.9999999999994
 21
-560.0000000000001
 31
0.0
  0
LINE
  5
A6E1
330
1E
100
AcDbEntity
  8
10
  6
DIVIDE
100
AcDbLine
 10
-127.561035
 20
-444.0000000000002
 30
0.0
 11
119.8854999999998
 21
-444.0000000000002
 31
0.0
  0
LINE
  5
A6E2
330
1E
100
AcDbEntity
  8
10
  6
DIVIDE
100
AcDbLine
 10
-105.0
 20
-452.0000000000002
 30
0.0
 11
104.9999999999994
 21
-452.0000000000002
 31
0.0
  0
LINE
  5
A6E3
330
1E
100
AcDbEntity
  8
10
  6
DIVIDE
100
AcDbLine
 10
-129.22998
 20
-568.0000000000002
 30
0.0
 11
121.2546400000001
 21
-568.0000000000002
 31
0.0
  0
LINE
  5
A6E4
330
1E
100
AcDbEntity
  8
18
  6
DIVIDE
100
AcDbLine
 10
-105.0
 20
-691.0000000000003
 30
0.0
 11
104.9999999999994
 21
-691.0000000000003
 31
0.0
  0
LINE
  5
A6E5
330
1E
100
AcDbEntity
  8
10
  6
DIVIDE
100
AcDbLine
 10
-105.0
 20
-412.0000000000001
 30
0.0
 11
104.9999999999994
 21
-412.0000000000001
 31
0.0
  0
LINE
  5
A6E6
330
1E
100
AcDbEntity
  8
10
  6
DIVIDE
100
AcDbLine
 10
-105.0
 20
-600.0000000000002
 30
0.0
 11
104.9999999999994
 21
-600.0000000000002
 31
0.0
  0
LINE
  5
A6FF
330
1E
100
AcDbEntity
  8
18
  6
DIVIDE
100
AcDbLine
 10
-105.0
 20
-691.0000000000003
 30
0.0
 11
-105.0
 21
-321.0
 31
0.0
  0
SPLINE
  5
A714
330
1E
100
AcDbEntity
  8
10
  6
DASHDOT
100
AcDbSpline
210
0.0
220
0.0
230
1.0
 70
     8
 71
     3
 72
    12
 73
     8
 74
     0
 42
0.0000000001
 43
0.0000000001
 40
0.0
 40
0.0
 40
0.0
 40
0.0
 40
0.2
 40
0.4
 40
0.6000000000000001
 40
0.8
 40
1.0
 40
1.0
 40
1.0
 40
1.0
 10
-131.8608380551639
 20
-559.9999987028223
 30
0.0
 10
-130.3881818051638
 20
-561.0566393278221
 30
0.0
 10
-127.4428693051635
 20
-563.1701647184522
 30
0.0
 10
-131.8784161801634
 20
-577.3188463590722
 30
0.0
 10
-125.3437482114136
 20
-582.4633776090725
 30
0.0
 10
-130.7470685239138
 20
-591.2026354215722
 30
0.0
 10
-131.5610333676634
 20
-597.0676256559523
 30
0.0
 10
-131.9677716489138
 20
-599.9999987028225
 30
0.0
  0
LINE
  5
A715
330
1E
100
AcDbEntity
  8
10
  6
DASHDOT
100
AcDbLine
 10
-131.9677699999999
 20
-600.0000000000002
 30
0.0
 11
-105.0
 21
-600.0000000000002
 31
0.0
  0
LINE
  5
A716
330
1E
100
AcDbEntity
  8
10
  6
DASHDOT
100
AcDbLine
 10
-131.8608400000002
 20
-560.0000000000001
 30
0.0
 11
-105.0
 21
-560.0000000000001
 31
0.0
  0
SPLINE
  5
A72C
330
1E
100
AcDbEntity
  8
10
  6
DASHDOT
100
AcDbSpline
210
0.0
220
0.0
230
1.0
 70
     8
 71
     3
 72
    12
 73
     8
 74
     0
 42
0.0000000001
 43
0.0000000001
 40
0.0
 40
0.0
 40
0.0
 40
0.0
 40
0.2
 40
0.4
 40
0.6000000000000001
 40
0.8
 40
1.0
 40
1.0
 40
1.0
 40
1.0
 10
-131.8608380551639
 20
-451.999998702822
 30
0.0
 10
-131.2192364926634
 20
-451.2253404997021
 30
0.0
 10
-129.9355450864134
 20
-449.6760240934523
 30
0.0
 10
-121.9086896176635
 20
-431.2956529997022
 30
0.0
 10
-135.5644513364135
 20
-427.0385729215725
 30
0.0
 10
-121.5668927426635
 20
-418.9819322965725
 30
0.0
 10
-124.4345685239135
 20
-414.3273912809521
 30
0.0
 10
-125.8686505551636
 20
-411.999998702822
 30
0.0
  0
LINE
  5
A72D
330
1E
100
AcDbEntity
  8
10
  6
DASHDOT
100
AcDbLine
 10
-131.8608400000002
 20
-452.0000000000002
 30
0.0
 11
-105.0
 21
-452.0000000000002
 31
0.0
  0
LINE
  5
A72E
330
1E
100
AcDbEntity
  8
10
  6
DASHDOT
100
AcDbLine
 10
-125.8686500000002
 20
-412.0000000000001
 30
0.0
 11
-105.0
 21
-412.0000000000001
 31
0.0
  0
LINE
  5
A730
330
1E
100
AcDbEntity
  8
18
  6
DIVIDE
100
AcDbLine
 10
104.9999999999994
 20
-691.0000000000003
 30
0.0
 11
104.9999999999994
 21
-321.0
 31
0.0
  0
DIMENSION
  5
A731
330
1E
100
AcDbEntity
  8
30
  6
Continuous
100
AcDbDimension
  2
*D11
 10
176.6538999999998
 20
-521.0
 30
0.0
 11
170.6538999999998
 21
-553.0000000000001
 31
0.0
 70
    32
  1
 <> 
 71
     0
 72
     0
 41
0.0
 42
64.00000000000023
  3
STANDARD1
100
AcDbAlignedDimension
 13
50.0
 23
-585.0000000000002
 33
0.0
 14
124.9999999999995
 24
-521.0
 34
0.0
 50
90.0
100
AcDbRotatedDimension
  0
DIMENSION
  5
A732
330
1E
100
AcDbEntity
  8
30
  6
Continuous
100
AcDbDimension
  2
*D12
 10
177.1538999999995
 20
-585.0000000000002
 30
0.0
 11
177.1538999999997
 21
-592.4999999999998
 31
0.0
 70
   160
  1
<> 
 71
     5
 42
15.0
  3
STANDARD1
100
AcDbAlignedDimension
 13
126.1679699999995
 23
-600.0000000000002
 33
0.0
 14
50.0
 24
-585.0000000000002
 34
0.0
 50
90.0
100
AcDbRotatedDimension
  0
DIMENSION
  5
A733
330
1E
100
AcDbEntity
  8
30
  6
Continuous
100
AcDbDimension
  2
*D13
 10
44.99999999999999
 20
-754.0958750000003
 30
0.0
 11
-0.0000000000000067
 21
-748.0958750000001
 31
0.0
 70
    32
  1
 <> 
 71
     5
 42
90.0
  3
STANDARD1
100
AcDbAlignedDimension
 13
-45.0
 23
-590.0000000000002
 33
0.0
 14
45.0
 24
-590.0000000000002
 34
0.0
100
AcDbRotatedDimension
  0
LINE
  5
A734
330
1E
100
AcDbEntity
  8
12
100
AcDbLine
 10
-60.0
 20
-585.0000000000002
 30
0.0
 11
-30.0
 21
-585.0000000000002
 31
0.0
  0
CIRCLE
  5
A735
330
1E
100
AcDbEntity
  8
12
100
AcDbCircle
 10
-45.0
 20
-585.0000000000002
 30
0.0
 40
5.5
  0
LINE
  5
A736
330
1E
100
AcDbEntity
  8
12
100
AcDbLine
 10
-45.0
 20
-600.0000000000002
 30
0.0
 11
-45.0
 21
-570.0000000000001
 31
0.0
  0
LINE
  5
A737
330
1E
100
AcDbEntity
  8
12
100
AcDbLine
 10
30.0
 20
-585.0000000000002
 30
0.0
 11
60.0
 21
-585.0000000000002
 31
0.0
  0
DIMENSION
  5
A738
330
1E
100
AcDbEntity
  8
30
  6
Continuous
100
AcDbDimension
  2
*D14
 10
47.79434000000086
 20
-589.7372650000007
 30
0.0
 11
32.18954230202057
 21
-572.5400932314797
 31
0.0
 70
    35
 71
     5
 42
11.00000031711567
  3
STANDARD1
100
AcDbDiametricDimension
 15
42.20566499999992
 25
-580.2627350000002
 35
0.0
 40
0.0
  0
LINE
  5
A739
330
1E
100
AcDbEntity
  8
12
100
AcDbLine
 10
45.0
 20
-600.0000000000002
 30
0.0
 11
45.0
 21
-570.0000000000001
 31
0.0
  0
CIRCLE
  5
A73A
330
1E
100
AcDbEntity
  8
12
100
AcDbCircle
 10
45.0
 20
-585.0000000000002
 30
0.0
 40
5.5
  0
SPLINE
  5
A73B
330
1E
100
AcDbEntity
  8
10
  6
DASHDOT
100
AcDbSpline
210
0.0
220
0.0
230
1.0
 70
     8
 71
     3
 72
    12
 73
     8
 74
     0
 42
0.0000000001
 43
0.0000000001
 40
0.0
 40
0.0
 40
0.0
 40
0.0
 40
0.2
 40
0.4
 40
0.6000000000000001
 40
0.8
 40
1.0
 40
1.0
 40
1.0
 40
1.0
 10
125.2739275698361
 20
-559.9999987028223
 30
0.0
 10
125.5502947573363
 20
-561.5334459684523
 30
0.0
 10
126.1030291323361
 20
-564.6000963590722
 30
0.0
 10
115.6167010073362
 20
-571.5998522184523
 30
0.0
 10
130.4731463198363
 20
-576.7441393278223
 30
0.0
 10
114.1342791323362
 20
-592.6323229215722
 30
0.0
 10
118.8232439760863
 20
-597.5441881559523
 30
0.0
 10
121.1679705385863
 20
-599.9999987028225
 30
0.0
  0
LINE
  5
A73C
330
1E
100
AcDbEntity
  8
10
  6
DASHDOT
100
AcDbLine
 10
104.9999999999994
 20
-600.0000000000002
 30
0.0
 11
121.1679699999995
 21
-600.0000000000002
 31
0.0
  0
LINE
  5
A73D
330
1E
100
AcDbEntity
  8
10
  6
DASHDOT
100
AcDbLine
 10
104.9999999999994
 20
-560.0000000000001
 30
0.0
 11
125.2739299999992
 21
-560.0000000000001
 31
0.0
  0
DIMENSION
  5
A73E
330
1E
100
AcDbEntity
  8
30
  6
Continuous
100
AcDbDimension
  2
*D15
 10
176.6538999999998
 20
-427.0000000000003
 30
0.0
 11
170.6538999999998
 21
-474.0000000000001
 31
0.0
 70
    32
  1
 <> 
 71
     0
 72
     0
 41
0.0
 42
93.99999999999977
  3
STANDARD1
100
AcDbAlignedDimension
 13
129.9999999999995
 23
-521.0
 33
0.0
 14
50.0
 24
-427.0000000000002
 34
0.0
 50
90.0
100
AcDbRotatedDimension
  0
DIMENSION
  5
A73F
330
1E
100
AcDbEntity
  8
30
  6
Continuous
100
AcDbDimension
  2
*D16
 10
176.6538999999997
 20
-412.0000000000001
 30
0.0
 11
176.6538999999998
 21
-419.4999999999997
 31
0.0
 70
   160
  1
<> 
 71
     5
 42
15.00000000000005
  3
STANDARD1
100
AcDbAlignedDimension
 13
50.0
 23
-427.0000000000002
 33
0.0
 14
130.3164099999994
 24
-412.0000000000001
 34
0.0
 50
90.0
100
AcDbRotatedDimension
  0
LINE
  5
A740
330
1E
100
AcDbEntity
  8
12
100
AcDbLine
 10
-60.0
 20
-427.0000000000002
 30
0.0
 11
-30.0
 21
-427.0000000000002
 31
0.0
  0
CIRCLE
  5
A741
330
1E
100
AcDbEntity
  8
12
100
AcDbCircle
 10
-45.0
 20
-427.0000000000002
 30
0.0
 40
5.5
  0
LINE
  5
A742
330
1E
100
AcDbEntity
  8
12
100
AcDbLine
 10
-45.0
 20
-442.0000000000001
 30
0.0
 11
-45.0
 21
-412.0000000000001
 31
0.0
  0
LINE
  5
A743
330
1E
100
AcDbEntity
  8
12
100
AcDbLine
 10
30.0
 20
-427.0000000000002
 30
0.0
 11
60.0
 21
-427.0000000000002
 31
0.0
  0
LINE
  5
A744
330
1E
100
AcDbEntity
  8
12
100
AcDbLine
 10
45.0
 20
-442.0000000000001
 30
0.0
 11
45.0
 21
-412.0000000000001
 31
0.0
  0
CIRCLE
  5
A745
330
1E
100
AcDbEntity
  8
12
100
AcDbCircle
 10
45.0
 20
-427.0000000000002
 30
0.0
 40
5.5
  0
SPLINE
  5
A749
330
1E
100
AcDbEntity
  8
10
  6
DASHDOT
100
AcDbSpline
210
0.0
220
0.0
230
1.0
 70
     8
 71
     3
 72
    11
 73
     7
 74
     0
 42
0.0000000001
 43
0.0000000001
 40
0.0
 40
0.0
 40
0.0
 40
0.0
 40
0.25
 40
0.5
 40
0.75
 40
1.0
 40
1.0
 40
1.0
 40
1.0
 10
125.3164080385863
 20
-411.999998702822
 30
0.0
 10
122.8420428042162
 20
-416.2736803434524
 30
0.0
 10
117.8933123354662
 20
-424.821287765322
 30
0.0
 10
130.9455584292159
 20
-429.8391100309522
 30
0.0
 10
117.3261736635861
 20
-442.7792955778222
 30
0.0
 10
120.4987810854659
 20
-448.9265123747022
 30
0.0
 10
122.0849627260861
 20
-451.999998702822
 30
0.0
  0
LINE
  5
A74A
330
1E
100
AcDbEntity
  8
10
  6
DASHDOT
100
AcDbLine
 10
104.9999999999994
 20
-452.0000000000002
 30
0.0
 11
122.0849649999995
 21
-452.0000000000002
 31
0.0
  0
LINE
  5
A74B
330
1E
100
AcDbEntity
  8
10
  6
DASHDOT
100
AcDbLine
 10
104.9999999999994
 20
-412.0000000000001
 30
0.0
 11
125.3164099999994
 21
-412.0000000000001
 31
0.0
  0
LINE
  5
A74C
330
1E
100
AcDbEntity
  8
18
  6
DIVIDE
100
AcDbLine
 10
481.3000000000004
 20
-220.0000000000005
 30
0.0
 11
481.3000000000004
 21
249.9999999999991
 31
0.0
  0
LINE
  5
A74D
330
1E
100
AcDbEntity
  8
160
  6
Continuous
 62
     3
100
AcDbLine
 10
495.3999049999997
 20
106.9999999999992
 30
0.0
 11
495.3999049999997
 21
-77.0000000000008
 31
0.0
  0
LINE
  5
A74E
330
1E
100
AcDbEntity
  8
160
  6
Continuous
 62
     3
100
AcDbLine
 10
480.0
 20
198.9999999999989
 30
0.0
 11
480.0
 21
-169.0000000000009
 31
0.0
  0
LINE
  5
A751
330
1E
100
AcDbEntity
  8
18
  6
DIVIDE
100
AcDbLine
 10
486.3000000000003
 20
-220.0000000000005
 30
0.0
 11
486.3000000000003
 21
249.9999999999991
 31
0.0
  0
ARC
  5
A756
330
1E
100
AcDbEntity
  8
10
  6
DIVIDE
100
AcDbCircle
 10
535.0
 20
70.99999999999903
 30
0.0
 40
3.0
100
AcDbArc
 50
0.0
 51
90.00000299999769
  0
DIMENSION
  5
A758
330
1E
100
AcDbEntity
  8
30
  6
Continuous
100
AcDbDimension
  2
*D17
 10
716.9539
 20
143.999999999999
 30
0.0
 11
710.9538999999998
 21
71.99999999999923
 31
0.0
 70
    32
  1
 <> 
 71
     0
 72
     0
 41
0.0
 42
144.0
  3
STANDARD1
100
AcDbAlignedDimension
 13
585.9072299999998
 23
-0.0000000000008504
 33
0.0
 14
659.0476699999998
 24
143.999999999999
 34
0.0
 50
90.0
100
AcDbRotatedDimension
  0
DIMENSION
  5
A75B
330
1E
100
AcDbEntity
  8
30
  6
Continuous
100
AcDbDimension
  2
*D18
 10
560.0
 20
-239.3322434222735
 30
0.0
 11
529.0
 21
-233.3322434222734
 31
0.0
 70
    32
  1
 <> 
 71
     5
 42
62.0
  3
STANDARD1
100
AcDbAlignedDimension
 13
498.0
 23
-90.00000000000083
 33
0.0
 14
560.0
 24
-148.0000000000008
 34
0.0
100
AcDbRotatedDimension
  0
DIMENSION
  5
A75C
330
1E
100
AcDbEntity
  8
30
  6
Continuous
100
AcDbDimension
  2
*D19
 10
590.0002449999997
 20
-239.3322434222735
 30
0.0
 11
575.0001224999997
 21
-233.3322434222734
 31
0.0
 70
    32
  1
 <> 
 71
     5
 42
30.00024499999971
  3
STANDARD1
100
AcDbAlignedDimension
 13
560.0
 23
-148.0000000000008
 33
0.0
 14
590.0002449999997
 24
-129.0000000000009
 34
0.0
100
AcDbRotatedDimension
  0
DIMENSION
  5
A75D
330
1E
100
AcDbEntity
  8
30
  6
Continuous
100
AcDbDimension
  2
*D20
 10
519.0
 20
-103.0000000000009
 30
0.0
 11
508.4999999999998
 21
-97.00000000000091
 31
0.0
 70
    32
  1
 <> 
 71
     5
 42
21.0
  3
STANDARD1
100
AcDbAlignedDimension
 13
498.0
 23
-90.00000000000083
 33
0.0
 14
519.0
 24
-69.00000000000097
 34
0.0
100
AcDbRotatedDimension
  0
LINE
  5
A75E
330
1E
100
AcDbEntity
  8
18
  6
DIVIDE
100
AcDbLine
 10
485.0
 20
-220.0000000000005
 30
0.0
 11
480.0
 21
-220.0000000000005
 31
0.0
  0
LINE
  5
A767
330
1E
100
AcDbEntity
  8
10
  6
DASHDOT
100
AcDbLine
 10
503.0
 20
-48.50000000000084
 30
0.0
 11
503.0
 21
-76.00000000000084
 31
0.0
  0
LINE
  5
A768
330
1E
100
AcDbEntity
  8
12
100
AcDbLine
 10
513.4999999999998
 20
-54.19995000000089
 30
0.0
 11
513.4999999999998
 21
-73.80005000000074
 31
0.0
  0
LINE
  5
A769
330
1E
100
AcDbEntity
  8
160
  6
Continuous
 62
     3
100
AcDbLine
 10
505.4999999999998
 20
-54.19995000000089
 30
0.0
 11
505.4999999999998
 21
-73.80005000000074
 31
0.0
  0
LINE
  5
A774
330
1E
100
AcDbEntity
  8
160
  6
Continuous
 62
     3
100
AcDbLine
 10
505.4999999999998
 20
-73.19995000000068
 30
0.0
 11
503.0
 21
-73.19995000000068
 31
0.0
  0
LINE
  5
A775
330
1E
100
AcDbEntity
  8
12
100
AcDbLine
 10
513.4999999999998
 20
-73.80005000000074
 30
0.0
 11
505.4999999999998
 21
-73.80005000000074
 31
0.0
  0
LINE
  5
A776
330
1E
100
AcDbEntity
  8
160
  6
Continuous
 62
     3
100
AcDbLine
 10
495.3999049999997
 20
-77.0000000000008
 30
0.0
 11
498.0
 21
-77.0000000000008
 31
0.0
  0
LINE
  5
A777
330
1E
100
AcDbEntity
  8
150
  6
Continuous
 62
    95
100
AcDbLine
 10
498.0
 20
-79.00000000000097
 30
0.0
 11
500.0
 21
-79.00000000000097
 31
0.0
  0
ARC
  5
A778
330
1E
100
AcDbEntity
  8
10
  6
Continuous
100
AcDbCircle
 10
500.0
 20
-76.00000000000084
 30
0.0
 40
3.0
100
AcDbArc
 50
270.0000009999949
 51
0.0000100000010064
  0
LINE
  5
A77D
330
1E
100
AcDbEntity
  8
10
  6
DIVIDE
100
AcDbLine
 10
507.5
 20
-44.00000000000097
 30
0.0
 11
535.0
 21
-44.00000000000097
 31
0.0
  0
LINE
  5
A77F
330
1E
100
AcDbEntity
  8
12
100
AcDbLine
 10
505.4999999999998
 20
-59.00000000000098
 30
0.0
 11
519.0
 21
-59.00000000000098
 31
0.0
  0
LINE
  5
A780
330
1E
100
AcDbEntity
  8
10
  6
DIVIDE
100
AcDbLine
 10
498.0
 20
-39.00000000000096
 30
0.0
 11
538.0
 21
-39.00000000000096
 31
0.0
  0
LINE
  5
A781
330
1E
100
AcDbEntity
  8
12
  6
DASHDOT
100
AcDbLine
 10
485.3999049999996
 20
-64.00000000000097
 30
0.0
 11
529.0
 21
-64.00000000000097
 31
0.0
  0
LINE
  5
A782
330
1E
100
AcDbEntity
  8
12
100
AcDbLine
 10
505.4999999999998
 20
-69.00000000000097
 30
0.0
 11
519.0
 21
-69.00000000000097
 31
0.0
  0
LINE
  5
A783
330
1E
100
AcDbEntity
  8
12
100
AcDbLine
 10
513.4999999999998
 20
-54.19995000000089
 30
0.0
 11
505.4999999999998
 21
-54.19995000000089
 31
0.0
  0
LINE
  5
A784
330
1E
100
AcDbEntity
  8
160
  6
Continuous
 62
     3
100
AcDbLine
 10
505.4999999999998
 20
-54.80005000000097
 30
0.0
 11
503.0
 21
-54.80005000000097
 31
0.0
  0
ARC
  5
A785
330
1E
100
AcDbEntity
  8
10
  6
DASHDOT
100
AcDbCircle
 10
507.5
 20
-48.50000000000084
 30
0.0
 40
4.5
100
AcDbArc
 50
90.00000299999769
 51
180.0000050000005
  0
LINE
  5
A788
330
1E
100
AcDbEntity
  8
160
  6
Continuous
 62
     3
100
AcDbLine
 10
519.0
 20
-59.00000000000098
 30
0.0
 11
519.0
 21
-69.00000000000097
 31
0.0
  0
LINE
  5
A789
330
1E
100
AcDbEntity
  8
10
  6
DIVIDE
100
AcDbLine
 10
538.0
 20
-39.00000000000096
 30
0.0
 11
538.0
 21
-41.00000000000085
 31
0.0
  0
ARC
  5
A78A
330
1E
100
AcDbEntity
  8
10
  6
DIVIDE
100
AcDbCircle
 10
535.0
 20
-41.00000000000085
 30
0.0
 40
3.0
100
AcDbArc
 50
270.0000009999949
 51
0.0000100000010064
  0
LINE
  5
A78D
330
1E
100
AcDbEntity
  8
10
  6
DIVIDE
100
AcDbLine
 10
498.0
 20
68.99999999999915
 30
0.0
 11
538.0
 21
68.99999999999915
 31
0.0
  0
LINE
  5
A797
330
1E
100
AcDbEntity
  8
10
  6
DIVIDE
100
AcDbLine
 10
538.0
 20
70.99999999999903
 30
0.0
 11
538.0
 21
68.99999999999915
 31
0.0
  0
DIMENSION
  5
A798
330
1E
100
AcDbEntity
  8
30
  6
Continuous
100
AcDbDimension
  2
*D21
 10
716.9539
 20
-0.0000000000008876
 30
0.0
 11
710.9538999999998
 21
-57.00000000000075
 31
0.0
 70
    32
  1
 <> 
 71
     0
 72
     0
 41
0.0
 42
113.9999999999999
  3
STANDARD1
100
AcDbAlignedDimension
 13
675.0002450000001
 23
-114.0000000000007
 33
0.0
 14
585.9072299999998
 24
-0.0000000000008504
 34
0.0
 50
90.0
100
AcDbRotatedDimension
  0
LINE
  5
A7B2
330
1E
100
AcDbEntity
  8
17
100
AcDbLine
 10
530.0
 20
143.999999999999
 30
0.0
 11
659.0476699999998
 21
143.999999999999
 31
0.0
  0
LINE
  5
A7B8
330
1E
100
AcDbEntity
  8
160
  6
Continuous
 62
     3
100
AcDbLine
 10
560.0
 20
136.4999999999989
 30
0.0
 11
560.0
 21
151.499999999999
 31
0.0
  0
LINE
  5
A7BA
330
1E
100
AcDbEntity
  8
10
  6
DIVIDE
100
AcDbLine
 10
507.5
 20
73.99999999999916
 30
0.0
 11
535.0
 21
73.99999999999916
 31
0.0
  0
LINE
  5
A7BB
330
1E
100
AcDbEntity
  8
12
  6
DASHDOT
100
AcDbLine
 10
485.3999049999996
 20
93.99999999999916
 30
0.0
 11
529.0
 21
93.99999999999916
 31
0.0
  0
LINE
  5
A7BC
330
1E
100
AcDbEntity
  8
12
100
AcDbLine
 10
505.4999999999998
 20
98.99999999999916
 30
0.0
 11
519.0
 21
98.99999999999916
 31
0.0
  0
LINE
  5
A7BD
330
1E
100
AcDbEntity
  8
12
100
AcDbLine
 10
505.4999999999998
 20
88.99999999999916
 30
0.0
 11
519.0
 21
88.99999999999916
 31
0.0
  0
ARC
  5
A7BE
330
1E
100
AcDbEntity
  8
10
  6
Continuous
100
AcDbCircle
 10
500.0
 20
105.999999999999
 30
0.0
 40
3.0
100
AcDbArc
 50
0.0
 51
89.9999920000018
  0
LINE
  5
A7BF
330
1E
100
AcDbEntity
  8
12
100
AcDbLine
 10
513.4999999999998
 20
84.19994999999909
 30
0.0
 11
505.4999999999998
 21
84.19994999999909
 31
0.0
  0
LINE
  5
A7C0
330
1E
100
AcDbEntity
  8
12
100
AcDbLine
 10
505.4999999999998
 20
103.8000499999992
 30
0.0
 11
505.4999999999998
 21
84.19994999999909
 31
0.0
  0
LINE
  5
A7C1
330
1E
100
AcDbEntity
  8
12
100
AcDbLine
 10
505.4999999999998
 20
84.8000499999992
 30
0.0
 11
503.0
 21
84.8000499999992
 31
0.0
  0
LINE
  5
A7C2
330
1E
100
AcDbEntity
  8
12
100
AcDbLine
 10
505.4999999999998
 20
103.199949999999
 30
0.0
 11
503.0
 21
103.199949999999
 31
0.0
  0
LINE
  5
A7C3
330
1E
100
AcDbEntity
  8
12
100
AcDbLine
 10
513.4999999999998
 20
103.8000499999992
 30
0.0
 11
505.4999999999998
 21
103.8000499999992
 31
0.0
  0
LINE
  5
A7C4
330
1E
100
AcDbEntity
  8
12
100
AcDbLine
 10
513.4999999999998
 20
103.8000499999992
 30
0.0
 11
513.4999999999998
 21
84.19994999999909
 31
0.0
  0
LINE
  5
A7C5
330
1E
100
AcDbEntity
  8
10
  6
DASHDOT
100
AcDbLine
 10
503.0
 20
105.999999999999
 30
0.0
 11
503.0
 21
78.49999999999903
 31
0.0
  0
ARC
  5
A7C6
330
1E
100
AcDbEntity
  8
10
  6
DASHDOT
100
AcDbCircle
 10
507.5
 20
78.49999999999903
 30
0.0
 40
4.5
100
AcDbArc
 50
180.0000050000005
 51
270.0000009999949
  0
LINE
  5
A7C7
330
1E
100
AcDbEntity
  8
160
  6
Continuous
 62
     3
100
AcDbLine
 10
495.3999049999997
 20
106.9999999999992
 30
0.0
 11
498.0
 21
106.9999999999992
 31
0.0
  0
LINE
  5
A7C8
330
1E
100
AcDbEntity
  8
10
  6
DASHDOT
100
AcDbLine
 10
498.0
 20
108.999999999999
 30
0.0
 11
500.0
 21
108.999999999999
 31
0.0
  0
LINE
  5
A7C9
330
1E
100
AcDbEntity
  8
12
100
AcDbLine
 10
519.0
 20
98.99999999999916
 30
0.0
 11
519.0
 21
88.99999999999916
 31
0.0
  0
LINE
  5
A7D1
330
1E
100
AcDbEntity
  8
18
  6
DIVIDE
100
AcDbLine
 10
481.3000000000004
 20
249.9999999999991
 30
0.0
 11
486.3000000000003
 21
249.9999999999991
 31
0.0
  0
DIMENSION
  5
A7D2
330
1E
100
AcDbEntity
  8
30
  6
Continuous
100
AcDbDimension
  2
*D22
 10
688.2539000000001
 20
151.499999999999
 30
0.0
 11
688.2539000000001
 21
143.999999999999
 31
0.0
 70
   160
  1
 <> 
 71
     0
 72
     0
 41
0.0
 42
15.0
  3
STANDARD1
100
AcDbAlignedDimension
 13
650.0002450000001
 23
136.4999999999989
 33
0.0
 14
650.0002450000001
 24
151.499999999999
 34
0.0
 50
90.0
100
AcDbRotatedDimension
  0
LINE
  5
A7D3
330
1E
100
AcDbEntity
  8
17
100
AcDbLine
 10
590.0002449999997
 20
158.999999999999
 30
0.0
 11
590.0002449999997
 21
128.999999999999
 31
0.0
  0
LINE
  5
A7D4
330
1E
100
AcDbEntity
  8
17
100
AcDbLine
 10
598.0002450000001
 20
158.999999999999
 30
0.0
 11
598.0002450000001
 21
128.999999999999
 31
0.0
  0
LINE
  5
A7D6
330
1E
100
AcDbEntity
  8
17
100
AcDbLine
 10
630.0002449999997
 20
158.999999999999
 30
0.0
 11
630.0002449999997
 21
128.999999999999
 31
0.0
  0
LWPOLYLINE
  5
AE7D
330
1E
100
AcDbEntity
  8
10
  6
Continuous
100
AcDbPolyline
 90
        4
 70
     1
 43
0.0
 10
-105.0
 20
200.0
 10
105.0
 20
200.0
 10
105.0
 20
-170.0
 10
-105.0
 20
-170.0
  0
LWPOLYLINE
  5
AE7E
330
1E
100
AcDbEntity
  8
10
  6
Continuous
100
AcDbPolyline
 90
        4
 70
     1
 43
0.0
 10
-39.0
 20
47.50000000000006
 10
39.0
 20
47.50000000000006
 10
39.0
 20
-47.5
 10
-39.0
 20
-47.5
  0
DIMENSION
  5
B476
330
1E
100
AcDbEntity
  8
30
  6
Continuous
100
AcDbDimension
  2
*D23
 10
598.0002450000001
 20
-239.3322434222735
 30
0.0
 11
594.0002449999997
 21
-233.3322434222734
 31
0.0
 70
    32
 71
     5
 42
8.000000000000454
  3
STANDARD1
100
AcDbAlignedDimension
 13
590.0002449999997
 23
-129.0000000000009
 33
0.0
 14
598.0002450000001
 24
-129.0000000000009
 34
0.0
100
AcDbRotatedDimension
1001
ACAD
1000
DSTYLE
1002
{
1070
   172
1070
     1
1070
   174
1070
     1
1002
}
  0
DIMENSION
  5
B484
330
1E
100
AcDbEntity
  8
30
  6
Continuous
100
AcDbDimension
  2
*D24
 10
630.0002449999997
 20
-239.345756935787
 30
0.0
 11
614.0002449999997
 21
-233.345756935787
 31
0.0
 70
    32
 71
     5
 42
31.99999999999953
  3
STANDARD1
100
AcDbAlignedDimension
 13
598.0002450000001
 23
-132.0000000000009
 33
0.0
 14
630.0002449999997
 24
-129.0000000000009
 34
0.0
100
AcDbRotatedDimension
  0
LWPOLYLINE
  5
B58A
330
1E
100
AcDbEntity
  8
10
  6
Continuous
100
AcDbPolyline
 90
       11
 70
     0
 43
0.0
 10
264.0054738200769
 20
44.04586291069676
 42
-0.2280087862796968
 10
270.8556642969131
 20
43.98718605965835
 10
306.0927200000028
 20
23.8182149999991
 10
330.1994992049403
 20
14.07844532122567
 42
0.4142135425216232
 10
335.4066607896565
 20
16.28875436337034
 10
342.2245000502935
 20
33.16349771556474
 42
0.4142135822245514
 10
340.01419085834
 20
38.37065965320721
 10
315.9074100000011
 20
48.11042999999902
 10
276.5493803316001
 20
58.07982118250357
 42
-0.261369876899627
 10
271.5810735103687
 20
62.79613117521922
 42
2.80870652995242
 10
264.0054738200769
 20
44.04586291069676
 42
-2.80870652995242
  0
DIMENSION
  5
B58B
330
1E
100
AcDbEntity
  8
30
  6
Continuous
100
AcDbDimension
  2
*D25
 10
353.0
 20
-259.3322434222736
 30
0.0
 11
332.6999999999998
 21
-259.3322434222736
 31
0.0
 70
   160
  1
 <> 
 71
     5
 42
10.0
  3
STANDARD1
100
AcDbAlignedDimension
 13
343.0
 23
4.499999999999091
 33
0.0
 14
353.0
 24
-52.50000000000091
 34
0.0
100
AcDbRotatedDimension
1001
ACAD
1000
DSTYLE
1002
{
1070
    74
1070
     0
1070
   174
1070
     1
1002
}
  0
DIMENSION
  5
B58C
330
1E
100
AcDbEntity
  8
30
  6
Continuous
100
AcDbDimension
  2
*D26
 10
309.0
 20
-279.3322434222736
 30
0.0
 11
269.0
 21
-273.3322434222736
 31
0.0
 70
    32
  1
 <> 
 71
     5
 42
80.0
  3
STANDARD1
100
AcDbAlignedDimension
 13
229.0
 23
-2.80000000000086
 33
0.0
 14
309.0
 24
-2.80000000000086
 34
0.0
100
AcDbRotatedDimension
  0
LINE
  5
B58D
330
1E
100
AcDbEntity
  8
10
  6
Continuous
100
AcDbLine
 10
353.0
 20
-47.50000000000091
 30
0.0
 11
353.0
 21
47.49999999999909
 31
0.0
  0
LWPOLYLINE
  5
B58E
330
1E
100
AcDbEntity
  8
10
  6
Continuous
100
AcDbPolyline
 90
        4
 70
     0
 43
0.0
 10
360.0
 20
47.49999999999909
 10
344.0
 20
47.49999999999909
 10
344.0
 20
-47.50000000000091
 10
360.0
 20
-47.50000000000091
  0
LWPOLYLINE
  5
B590
330
1E
100
AcDbEntity
  8
10
  6
Continuous
100
AcDbPolyline
 90
        4
 70
     0
 43
0.0
 10
343.1299900000003
 20
16.08036999999876
 10
313.7020954115546
 20
27.97001101863134
 10
318.4970600000001
 20
39.83796499999835
 10
343.6256700000003
 20
29.68534499999941
  0
ARC
  5
B591
330
1E
100
AcDbEntity
  8
1
  6
Continuous
 62
     4
100
AcDbCircle
 10
406.5
 20
-2.800000000000864
 30
0.0
 40
177.5
100
AcDbArc
 50
161.7763989999955
 51
180.0
  0
ARC
  5
B592
330
1E
100
AcDbEntity
  8
1
  6
Continuous
 62
     4
100
AcDbCircle
 10
406.5
 20
-2.800000000000864
 30
0.0
 40
97.5
100
AcDbArc
 50
162.9956369999973
 51
180.0
  0
DIMENSION
  5
B593
330
1E
100
AcDbEntity
  8
30
  6
Continuous
100
AcDbDimension
  2
*D28
 10
480.0
 20
-239.3322434222735
 30
0.0
 11
420.0
 21
-233.3322434222734
 31
0.0
 70
    32
  1
 <> 
 71
     5
 42
120.0
  3
STANDARD1
100
AcDbAlignedDimension
 13
360.0
 23
-145.0000000000009
 33
0.0
 14
480.0
 24
-175.0000000000009
 34
0.0
100
AcDbRotatedDimension
  0
DIMENSION
  5
B594
330
1E
100
AcDbEntity
  8
30
  6
Continuous
100
AcDbDimension
  2
*D29
 10
480.0
 20
-259.3322434222736
 30
0.0
 11
416.5
 21
-253.3322434222736
 31
0.0
 70
    32
  1
 <> 
 71
     5
 42
127.0
  3
STANDARD1
100
AcDbAlignedDimension
 13
353.0
 23
-52.50000000000091
 33
0.0
 14
480.0
 24
-175.0000000000009
 34
0.0
100
AcDbRotatedDimension
  0
DIMENSION
  5
B595
330
1E
100
AcDbEntity
  8
30
  6
Continuous
100
AcDbDimension
  2
*D30
 10
480.0
 20
-279.3322434222736
 30
0.0
 11
394.5
 21
-273.3322434222736
 31
0.0
 70
    32
  1
 <> 
 71
     5
 42
171.0
  3
STANDARD1
100
AcDbAlignedDimension
 13
309.0
 23
-7.800000000000862
 33
0.0
 14
480.0
 24
-170.0000000000009
 34
0.0
100
AcDbRotatedDimension
  0
LWPOLYLINE
  5
B616
330
1E
100
AcDbEntity
  8
10
  6
Continuous
100
AcDbPolyline
 90
        9
 70
     0
 43
0.0
 10
480.0
 20
199.999999999999
 10
368.0
 20
199.999999999999
 10
368.0
 20
169.999999999999
 10
360.0
 20
169.999999999999
 10
360.0
 20
-140.0000000000009
 10
368.0
 20
-140.0000000000009
 10
368.0
 20
-170.0000000000009
 10
480.0
 20
-170.0000000000009
 10
480.0
 20
199.999999999999
  0
LWPOLYLINE
  5
B618
330
1E
100
AcDbEntity
  8
10
  6
Continuous
100
AcDbPolyline
 90
       12
 70
     0
 43
0.0
 10
480.0
 20
198.9999999999989
 10
523.0
 20
198.9999999999989
 10
523.0
 20
172.9999999999989
 10
560.0
 20
172.9999999999989
 10
560.0
 20
114.9999999999991
 10
498.0
 20
114.9999999999991
 10
498.0
 20
-85.0000000000009
 10
560.0
 20
-85.0000000000009
 10
560.0
 20
-143.0000000000005
 10
523.0
 20
-143.0000000000005
 10
523.0
 20
-169.0000000000009
 10
479.9999999999995
 20
-169.0000000000009
  0
SPLINE
  5
B8F0
330
1E
100
AcDbEntity
  8
18
100
AcDbSpline
210
0.0
220
0.0
230
1.0
 70
     8
 71
     3
 72
    12
 73
     8
 74
     0
 42
0.0000000001
 43
0.0000000001
 40
0.0
 40
0.0
 40
0.0
 40
0.0
 40
0.2
 40
0.4
 40
0.6000000000000001
 40
0.8
 40
1.0
 40
1.0
 40
1.0
 40
1.0
 10
129.7142351870465
 20
417.9999987028677
 30
0.0
 10
129.6741961245463
 20
419.0136705778678
 30
0.0
 10
129.5941179995466
 20
421.0412584684978
 30
0.0
 10
119.1756609682965
 20
435.8344713591177
 30
0.0
 10
129.1781023745466
 20
442.7441393278678
 30
0.0
 10
122.1146258120465
 20
449.1223131559975
 30
0.0
 10
126.7733172182965
 20
455.040770187248
 30
0.0
 10
129.1024187807966
 20
457.999998702868
 30
0.0
  0
SPLINE
  5
B8F1
330
1E
100
AcDbEntity
  8
18
100
AcDbSpline
210
0.0
220
0.0
230
1.0
 70
     8
 71
     3
 72
    12
 73
     8
 74
     0
 42
0.0000000001
 43
0.0000000001
 40
0.0
 40
0.0
 40
0.0
 40
0.0
 40
0.2
 40
0.4
 40
0.6000000000000001
 40
0.8
 40
1.0
 40
1.0
 40
1.0
 40
1.0
 10
-133.7651349301434
 20
417.9999987028677
 30
0.0
 10
-133.6088849301434
 20
419.0915514372476
 30
0.0
 10
-133.2963849301431
 20
421.2749010466176
 30
0.0
 10
-124.6225568051435
 20
434.9003893278676
 30
0.0
 10
-135.3749982113935
 20
438.7380358122476
 30
0.0
 10
-127.3212872738934
 20
451.0624987028676
 30
0.0
 10
-131.6171857113935
 20
455.6874987028677
 30
0.0
 10
-133.7651349301434
 20
457.999998702868
 30
0.0
  0
LINE
  5
B8F3
330
1E
100
AcDbEntity
  8
16
100
AcDbLine
 10
-0.0000599999998485
 20
213.9999999999997
 30
0.0
 11
-0.0000599999998485
 21
564.9999999999997
 31
0.0
  0
LWPOLYLINE
  5
B8F4
330
1E
100
AcDbEntity
  8
10
  6
Continuous
100
AcDbPolyline
 90
        4
 70
     1
 43
0.0
 10
-105.0
 20
279.9999999999998
 10
104.99988
 20
279.9999999999998
 10
104.99988
 20
479.9999999999998
 10
-105.0
 20
479.9999999999998
  0
LINE
  5
B8F5
330
1E
100
AcDbEntity
  8
18
100
AcDbLine
 10
-133.7651350000001
 20
418.0
 30
0.0
 11
104.9998800000003
 21
418.0
 31
0.0
  0
LINE
  5
B8F6
330
1E
100
AcDbEntity
  8
18
100
AcDbLine
 10
-131.9288299999996
 20
423.0
 30
0.0
 11
104.9998800000003
 21
423.0
 31
0.0
  0
LWPOLYLINE
  5
B8F7
330
1E
100
AcDbEntity
  8
10
  6
Continuous
100
AcDbPolyline
 90
        4
 70
     0
 43
0.0
 10
-20.00005999999984
 20
268.9999999999999
 10
-20.00005999999962
 20
228.9999999999998
 10
19.99994000000014
 20
228.9999999999998
 10
19.99993999999992
 20
268.9999999999999
  0
LWPOLYLINE
  5
B8F9
330
1E
100
AcDbEntity
  8
10
  6
Continuous
100
AcDbPolyline
 90
        4
 70
     0
 43
0.0
 10
-39.00006000000006
 20
273.0
 10
-39.00006000000006
 20
268.9999999999999
 10
38.99993999999992
 20
268.9999999999999
 10
38.99993999999992
 20
273.0
  0
LINE
  5
B8FB
330
1E
100
AcDbEntity
  8
10
  6
Continuous
100
AcDbLine
 10
-105.0
 20
399.9999999999997
 30
0.0
 11
104.9998800000003
 21
399.9999999999997
 31
0.0
  0
LINE
  5
B8FC
330
1E
100
AcDbEntity
  8
10
  6
Continuous
100
AcDbLine
 10
-105.0
 20
288.0
 30
0.0
 11
104.9998800000003
 21
288.0
 31
0.0
  0
LWPOLYLINE
  5
B8FD
330
1E
100
AcDbEntity
  8
10
  6
Continuous
100
AcDbPolyline
 90
        4
 70
     0
 43
0.0
 10
-95.00982500000008
 20
279.9999999999998
 10
-95.00982500000008
 20
273.0
 10
94.99017499999991
 20
273.0
 10
94.99017499999991
 20
279.9999999999998
  0
LINE
  5
B90A
330
1E
100
AcDbEntity
  8
18
100
AcDbLine
 10
104.9998800000003
 20
418.0
 30
0.0
 11
129.7142349999999
 21
418.0
 31
0.0
  0
LINE
  5
B90B
330
1E
100
AcDbEntity
  8
18
100
AcDbLine
 10
104.9998800000003
 20
423.0
 30
0.0
 11
127.8776699999996
 21
423.0
 31
0.0
  0
LWPOLYLINE
  5
B90C
330
1E
100
AcDbEntity
  8
21
  6
Continuous
100
AcDbPolyline
 90
        4
 70
     0
 43
0.0
 10
-22.49520749999987
 20
480.4999999999997
 10
-22.49520749999987
 20
565.4999999999997
 10
22.50479250000011
 20
565.4999999999997
 10
22.50479250000011
 20
480.4999999999997
  0
LINE
  5
B90D
330
1E
100
AcDbEntity
  8
18
100
AcDbLine
 10
-133.7651350000001
 20
458.0
 30
0.0
 11
104.9998800000003
 21
458.0
 31
0.0
  0
DIMENSION
  5
B90E
330
1E
100
AcDbEntity
  8
30
100
AcDbDimension
  2
*D31
 10
69.99994000000015
 20
602.095875
 30
0.0
 11
34.99994000000013
 21
608.0958749999997
 31
0.0
 70
    32
  1
 <> 
 71
     5
 42
70.0
  3
STANDARD1
100
AcDbAlignedDimension
 13
-0.0000599999998485
 23
554.9999999999998
 33
0.0
 14
69.99994000000015
 24
554.9999999999998
 34
0.0
100
AcDbRotatedDimension
  0
LWPOLYLINE
  5
B90F
330
1E
100
AcDbEntity
  8
21
  6
Continuous
100
AcDbPolyline
 90
        4
 70
     0
 43
0.0
 10
-92.49520749999986
 20
479.9999999999998
 10
-92.49520749999986
 20
564.9999999999997
 10
-47.49520749999986
 20
564.9999999999997
 10
-47.49520749999986
 20
479.9999999999998
  0
CIRCLE
  5
B910
330
1E
100
AcDbEntity
  8
17
  6
DASHDOT
100
AcDbCircle
 10
-69.9952075000001
 20
549.9999999999999
 30
0.0
 40
6.5
  0
CIRCLE
  5
B911
330
1E
100
AcDbEntity
  8
17
  6
DASHDOT
100
AcDbCircle
 10
0.0047924999998941
 20
550.4999999999999
 30
0.0
 40
6.5
  0
DIMENSION
  5
B912
330
1E
100
AcDbEntity
  8
30
100
AcDbDimension
  2
*D32
 10
-0.0000599999998456
 20
602.095875
 30
0.0
 11
-35.00005999999984
 21
608.0958749999997
 31
0.0
 70
    32
  1
 <> 
 71
     5
 42
70.0
  3
STANDARD1
100
AcDbAlignedDimension
 13
-70.00005999999984
 23
592.0
 33
0.0
 14
-0.0000599999998485
 24
554.9999999999998
 34
0.0
100
AcDbRotatedDimension
  0
LINE
  5
B913
330
1E
100
AcDbEntity
  8
17
  6
DASHDOT
100
AcDbLine
 10
-84.99520750000009
 20
549.9999999999999
 30
0.0
 11
-54.9952075000001
 21
549.9999999999999
 31
0.0
  0
LINE
  5
B914
330
1E
100
AcDbEntity
  8
17
  6
DASHDOT
100
AcDbLine
 10
-84.99520750000009
 20
518.0
 30
0.0
 11
-54.9952075000001
 21
518.0
 31
0.0
  0
LINE
  5
B915
330
1E
100
AcDbEntity
  8
17
  6
DASHDOT
100
AcDbLine
 10
-84.99520750000009
 20
509.9999999999996
 30
0.0
 11
-54.9952075000001
 21
509.9999999999996
 31
0.0
  0
LINE
  5
B916
330
1E
100
AcDbEntity
  8
17
  6
DASHDOT
100
AcDbLine
 10
-63.4952075000001
 20
509.9999999999996
 30
0.0
 11
-63.4952075000001
 21
518.0
 31
0.0
  0
LINE
  5
B917
330
1E
100
AcDbEntity
  8
17
  6
DASHDOT
100
AcDbLine
 10
-76.49520750000011
 20
509.9999999999996
 30
0.0
 11
-76.49520750000011
 21
518.0
 31
0.0
  0
ARC
  5
B918
330
1E
100
AcDbEntity
  8
17
  6
DASHDOT
100
AcDbCircle
 10
-69.9952075000001
 20
518.0
 30
0.0
 40
6.5
100
AcDbArc
 50
359.999989999999
 51
179.9999949999993
  0
ARC
  5
B919
330
1E
100
AcDbEntity
  8
17
  6
DASHDOT
100
AcDbCircle
 10
-69.9952075000001
 20
509.9999999999996
 30
0.0
 40
6.5
100
AcDbArc
 50
179.9999949999993
 51
0.0
  0
LINE
  5
B91A
330
1E
100
AcDbEntity
  8
17
  6
DASHDOT
100
AcDbLine
 10
-14.9952075000001
 20
510.4999999999995
 30
0.0
 11
15.00479249999989
 21
510.4999999999995
 31
0.0
  0
LINE
  5
B91B
330
1E
100
AcDbEntity
  8
17
  6
DASHDOT
100
AcDbLine
 10
-14.9952075000001
 20
518.5
 30
0.0
 11
15.00479249999989
 21
518.5
 31
0.0
  0
ARC
  5
B91C
330
1E
100
AcDbEntity
  8
17
  6
DASHDOT
100
AcDbCircle
 10
0.0047924999998941
 20
518.5
 30
0.0
 40
6.5
100
AcDbArc
 50
359.999989999999
 51
179.9999949999993
  0
ARC
  5
B91D
330
1E
100
AcDbEntity
  8
17
  6
DASHDOT
100
AcDbCircle
 10
0.0047924999998941
 20
510.4999999999995
 30
0.0
 40
6.5
100
AcDbArc
 50
179.9999949999993
 51
0.0
  0
LINE
  5
B91E
330
1E
100
AcDbEntity
  8
17
  6
DASHDOT
100
AcDbLine
 10
-6.495207500000105
 20
510.4999999999995
 30
0.0
 11
-6.495207500000105
 21
518.5
 31
0.0
  0
LINE
  5
B91F
330
1E
100
AcDbEntity
  8
17
  6
DASHDOT
100
AcDbLine
 10
6.504792499999894
 20
510.4999999999995
 30
0.0
 11
6.504792499999894
 21
518.5
 31
0.0
  0
LINE
  5
B920
330
1E
100
AcDbEntity
  8
17
  6
DASHDOT
100
AcDbLine
 10
-14.9952075000001
 20
550.4999999999999
 30
0.0
 11
15.00479249999989
 21
550.4999999999999
 31
0.0
  0
DIMENSION
  5
B921
330
1E
100
AcDbEntity
  8
30
100
AcDbDimension
  2
*D33
 10
-47.50005999999984
 20
579.5958749999997
 30
0.0
 11
-70.00005999999984
 21
585.595875
 31
0.0
 70
    32
  1
 <> 
 71
     5
 42
45.0
  3
STANDARD1
100
AcDbAlignedDimension
 13
-92.50005999999984
 23
569.9999999999997
 33
0.0
 14
-47.50005999999984
 24
569.9999999999997
 34
0.0
100
AcDbRotatedDimension
  0
DIMENSION
  5
B924
330
1E
100
AcDbEntity
  8
30
100
AcDbDimension
  2
*D34
 10
64.0500273622599
 20
547.3940889972335
 30
0.0
 11
105.004912500001
 21
560.9404966059153
 31
0.0
 70
   163
 71
     5
 42
12.99999999999909
  3
STANDARD1
100
AcDbDiametricDimension
 15
75.95955763774184
 25
552.6059110027659
 35
0.0
 40
0.0
  0
LWPOLYLINE
  5
B926
330
1E
100
AcDbEntity
  8
21
  6
Continuous
100
AcDbPolyline
 90
        4
 70
     0
 43
0.0
 10
47.50479250000011
 20
479.9999999999998
 10
47.50479250000011
 20
564.9999999999997
 10
92.50479250000013
 20
564.9999999999997
 10
92.50479250000013
 20
479.9999999999998
  0
CIRCLE
  5
B927
330
1E
100
AcDbEntity
  8
17
  6
DASHDOT
100
AcDbCircle
 10
70.00479249999989
 20
549.9999999999999
 30
0.0
 40
6.5
  0
LINE
  5
B929
330
1E
100
AcDbEntity
  8
17
  6
DASHDOT
100
AcDbLine
 10
55.00479249999989
 20
509.9999999999996
 30
0.0
 11
85.00479249999989
 21
509.9999999999996
 31
0.0
  0
LINE
  5
B92A
330
1E
100
AcDbEntity
  8
17
  6
DASHDOT
100
AcDbLine
 10
55.00479249999989
 20
518.0
 30
0.0
 11
85.00479249999989
 21
518.0
 31
0.0
  0
LINE
  5
B92B
330
1E
100
AcDbEntity
  8
17
  6
DASHDOT
100
AcDbLine
 10
55.00479249999989
 20
549.9999999999999
 30
0.0
 11
85.00479249999989
 21
549.9999999999999
 31
0.0
  0
ARC
  5
B92C
330
1E
100
AcDbEntity
  8
17
  6
DASHDOT
100
AcDbCircle
 10
70.00479249999989
 20
518.0
 30
0.0
 40
6.5
100
AcDbArc
 50
359.999989999999
 51
179.9999949999993
  0
ARC
  5
B92D
330
1E
100
AcDbEntity
  8
17
  6
DASHDOT
100
AcDbCircle
 10
70.00479249999989
 20
509.9999999999996
 30
0.0
 40
6.5
100
AcDbArc
 50
179.9999949999993
 51
0.0
  0
LINE
  5
B92F
330
1E
100
AcDbEntity
  8
17
  6
DASHDOT
100
AcDbLine
 10
63.50479249999989
 20
509.9999999999996
 30
0.0
 11
63.50479249999989
 21
518.0
 31
0.0
  0
LINE
  5
B930
330
1E
100
AcDbEntity
  8
17
  6
DASHDOT
100
AcDbLine
 10
76.50479249999989
 20
509.9999999999996
 30
0.0
 11
76.50479249999989
 21
518.0
 31
0.0
  0
LINE
  5
B931
330
1E
100
AcDbEntity
  8
18
100
AcDbLine
 10
104.9998800000003
 20
458.0
 30
0.0
 11
129.1024200000001
 21
458.0
 31
0.0
  0
DIMENSION
  5
B935
330
1E
100
AcDbEntity
  8
30
100
AcDbDimension
  2
*D35
 10
76.50479250000012
 20
527.5
 30
0.0
 11
70.00479250000012
 21
527.5
 31
0.0
 70
   160
  1
<> 
 71
     5
 42
13.0
  3
STANDARD1
100
AcDbAlignedDimension
 13
63.5047925000001
 23
509.0
 33
0.0
 14
76.50479250000012
 24
509.0
 34
0.0
100
AcDbRotatedDimension
  0
LWPOLYLINE
  5
BA47
330
1E
100
AcDbEntity
  8
21
  6
Continuous
100
AcDbPolyline
 90
        4
 70
     0
 43
0.0
 10
560.0
 20
136.4999999999989
 10
645.0002449999997
 20
136.4999999999989
 10
645.0002449999997
 20
151.499999999999
 10
560.0
 20
151.499999999999
  0
LINE
  5
BA51
330
1E
100
AcDbEntity
  8
17
100
AcDbLine
 10
630.0002449999997
 20
-99.00000000000083
 30
0.0
 11
630.0002449999997
 21
-129.0000000000008
 31
0.0
  0
LINE
  5
BA52
330
1E
100
AcDbEntity
  8
17
100
AcDbLine
 10
598.0002450000001
 20
-99.00000000000083
 30
0.0
 11
598.0002450000001
 21
-129.0000000000008
 31
0.0
  0
LINE
  5
BA53
330
1E
100
AcDbEntity
  8
17
100
AcDbLine
 10
590.0002449999997
 20
-99.00000000000083
 30
0.0
 11
590.0002449999997
 21
-129.0000000000008
 31
0.0
  0
LINE
  5
BA54
330
1E
100
AcDbEntity
  8
17
100
AcDbLine
 10
530.0
 20
-114.0000000000007
 30
0.0
 11
659.0476699999998
 21
-114.0000000000007
 31
0.0
  0
LWPOLYLINE
  5
BA55
330
1E
100
AcDbEntity
  8
21
  6
Continuous
100
AcDbPolyline
 90
        4
 70
     0
 43
0.0
 10
560.0
 20
-121.5000000000008
 10
645.0002449999997
 20
-121.5000000000008
 10
645.0002449999997
 20
-106.5000000000007
 10
560.0
 20
-106.5000000000007
  0
DIMENSION
  5
BA57
330
1E
100
AcDbEntity
  8
30
  6
Continuous
100
AcDbDimension
  2
*D36
 10
498.0
 20
-239.3322434222735
 30
0.0
 11
489.0
 21
-233.3322434222734
 31
0.0
 70
    32
 71
     5
 42
18.0
  3
STANDARD1
100
AcDbAlignedDimension
 13
480.0
 23
-170.0000000000009
 33
0.0
 14
498.0
 24
-169.0000000000009
 34
0.0
100
AcDbRotatedDimension
  0
DIMENSION
  5
BB20
330
1E
100
AcDbEntity
  8
30
  6
Continuous
100
AcDbDimension
  2
*D37
 10
456.5
 20
-730.0
 30
0.0
 11
360.0
 21
-724.0
 31
0.0
 70
    32
  1
 <> 
 71
     5
 42
193.0
  3
STANDARD1
100
AcDbAlignedDimension
 13
263.5
 23
-565.9999999999997
 33
0.0
 14
456.5
 24
-565.9999999999992
 34
0.0
100
AcDbRotatedDimension
  0
LWPOLYLINE
  5
BB21
330
1E
100
AcDbEntity
  8
11
 48
2.0
100
AcDbPolyline
 90
        8
 70
     1
 43
0.0
 10
266.5
 20
-470.9999999999991
 10
453.5
 20
-470.9999999999991
 42
-0.4142135623730951
 10
456.5
 20
-473.9999999999991
 10
456.5
 20
-565.9999999999992
 42
-0.4142135623730951
 10
453.5
 20
-568.9999999999988
 10
266.5
 20
-568.9999999999988
 42
-0.4142135623730951
 10
263.5
 20
-565.9999999999992
 10
263.5
 20
-473.9999999999991
 42
-0.414213562373095
  0
LWPOLYLINE
  5
BB22
330
1E
100
AcDbEntity
  8
18
  6
DIVIDE
100
AcDbPolyline
 90
        4
 70
     1
 43
0.0
 10
255.0
 20
-320.0
 10
465.0
 20
-320.0
 10
465.0
 20
-690.0
 10
255.0
 20
-690.0
  0
LWPOLYLINE
  5
BB23
330
1E
100
AcDbEntity
  8
18
  6
DIVIDE
100
AcDbPolyline
 90
        4
 70
     1
 43
0.0
 10
255.0
 20
-320.0
 10
465.0
 20
-320.0
 10
465.0
 20
-690.0
 10
255.0
 20
-690.0
  0
LINE
  5
BB24
330
1E
100
AcDbEntity
  8
16
100
AcDbLine
 10
475.0
 20
-520.0
 30
0.0
 11
245.0
 21
-520.0
 31
0.0
  0
LINE
  5
BB25
330
1E
100
AcDbEntity
  8
18
  6
DIVIDE
100
AcDbLine
 10
465.0
 20
-320.0
 30
0.0
 11
255.0
 21
-320.0
 31
0.0
  0
LINE
  5
BB2C
330
1E
100
AcDbEntity
  8
16
100
AcDbLine
 10
-145.0
 20
-521.0
 30
0.0
 11
115.0
 21
-521.0
 31
0.0
  0
LINE
  5
BB2D
330
1E
100
AcDbEntity
  8
16
100
AcDbLine
 10
115.0
 20
-521.0
 30
0.0
 11
-115.0
 21
-521.0
 31
0.0
  0
LINE
  5
BB36
330
1E
100
AcDbEntity
  8
16
100
AcDbLine
 10
0.0
 20
-701.0
 30
0.0
 11
0.0
 21
-311.0
 31
0.0
  0
DIMENSION
  5
BB38
330
1E
100
AcDbEntity
  8
30
  6
Continuous
100
AcDbDimension
  2
*D38
 10
235.0
 20
-568.9999999999996
 30
0.0
 11
229.0
 21
-519.9999999999994
 31
0.0
 70
    32
 71
     5
 42
98.00000000000052
  3
STANDARD1
100
AcDbAlignedDimension
 13
263.5
 23
-470.9999999999991
 33
0.0
 14
263.5
 24
-568.9999999999997
 34
0.0
 50
90.0
100
AcDbRotatedDimension
  0
LINE
  5
BB39
330
1E
100
AcDbEntity
  8
16
100
AcDbLine
 10
360.0
 20
-700.0
 30
0.0
 11
360.0
 21
-310.0
 31
0.0
  0
LINE
  5
BB3A
330
1E
100
AcDbEntity
  8
18
  6
DIVIDE
100
AcDbLine
 10
255.0
 20
-320.0
 30
0.0
 11
255.0
 21
-690.0
 31
0.0
  0
LINE
  5
BB3B
330
1E
100
AcDbEntity
  8
16
100
AcDbLine
 10
0.0
 20
-701.0
 30
0.0
 11
0.0
 21
-311.0
 31
0.0
  0
DIMENSION
  5
BB4D
330
1E
100
AcDbEntity
  8
30
  6
Continuous
100
AcDbDimension
  2
*D40
 10
266.4100000000004
 20
-474.0000000000001
 30
0.0
 11
271.9968486915055
 21
-460.963473671937
 31
0.0
 70
   164
 71
     5
 42
2.999999999999828
  3
STANDARD1
100
AcDbRadialDimension
 15
265.8639554236989
 25
-471.0501126596613
 35
0.0
 40
0.0
  0
LWPOLYLINE
  5
C6F3
330
1E
100
AcDbEntity
  8
10
  6
Continuous
100
AcDbPolyline
 90
        6
 70
     1
 43
0.0
 10
505.0
 20
45.49999999999914
 10
505.0
 20
55.49999999999915
 10
498.0
 20
55.49999999999915
 10
498.0
 20
22.49999999999908
 10
518.0
 20
22.49999999999908
 10
518.0
 20
45.49999999999914
  0
LWPOLYLINE
  5
C6F9
330
1E
100
AcDbEntity
  8
10
  6
Continuous
100
AcDbPolyline
 90
        6
 70
     1
 43
0.0
 10
518.0
 20
-15.50000000000073
 10
505.0
 20
-15.50000000000073
 10
505.0
 20
-25.50000000000073
 10
498.0
 20
-25.50000000000073
 10
498.0
 20
7.499999999999093
 10
518.0
 20
7.499999999999093
  0
MTEXT
  5
C886
330
1E
100
AcDbEntity
  8
19
  6
Continuous
100
AcDbMText
 10
366.5104680939673
 20
350.753776640948
 30
0.0
 40
8.0
 41
131.2564427456379
 71
     1
 72
     5
  1
S1250-NE 3P PM\PS1250-GE 3P PM\PS1250-NN 3P PM
  7
STANDARD1
 73
     1
 44
1.0
  0
CIRCLE
  5
C99F
330
1E
100
AcDbEntity
  8
10
  6
Continuous
100
AcDbCircle
 10
31.19999999999981
 20
-70.49999999999982
 30
0.0
 40
3.299999999999998
  0
LWPOLYLINE
  5
C9A0
330
1E
100
AcDbEntity
  8
10
  6
Continuous
100
AcDbPolyline
 90
        4
 70
     1
 43
0.0
 10
27.19999999999981
 20
-33.49999999999994
 10
33.20000000000003
 20
-33.49999999999994
 10
33.20000000000003
 20
-41.50000000000003
 10
27.19999999999981
 20
-41.50000000000003
  0
VIEWPORT
  5
9AC
330
1A
100
AcDbEntity
 67
     1
  8
0
  6
Continuous
100
AcDbViewport
 10
171.9995348790992
 20
144.1384735538403
 30
0.0
 40
488.8676857773511
 41
292.3514905034161
 68
     1
 69
     1
 12
171.9995348790992
 22
144.1384735538403
 13
0.0
 23
0.0
 14
10.0
 24
10.0
 15
10.0
 25
10.0
 16
0.0
 26
0.0
 36
1.0
 17
0.0
 27
0.0
 37
0.0
 42
50.0
 43
0.0
 44
0.0
 45
292.3514905034161
 50
0.0
 51
0.0
 72
   100
 90
    32800
  1

281
     0
 71
     1
 74
     0
110
0.0
120
0.0
130
0.0
111
1.0
121
0.0
131
0.0
112
0.0
122
1.0
132
0.0
 79
     0
146
0.0
  0
ENDSEC
  0
SECTION
  2
OBJECTS
  0
DICTIONARY
  5
C
330
0
100
AcDbDictionary
281
     1
  3
ACAD_GROUP
350
D
  3
ACAD_LAYOUT
350
19
  3
ACAD_MLINESTYLE
350
16
  3
ACAD_PLOTSETTINGS
350
18
  3
ACAD_PLOTSTYLENAME
350
E
  3
ACDBHEADERROUNDTRIPXREC
350
D1CE
  3
ACDBVARIABLEDICTIONARY
350
69C9
  0
DICTIONARY
  5
178
330
1E
100
AcDbDictionary
280
     1
281
     1
  3
ACAD_LAYOUTSELFREF
360
8B0B
  0
DICTIONARY
  5
17A
330
1A
100
AcDbDictionary
280
     1
281
     1
  3
ACAD_LAYOUTSELFREF
360
8B0A
  0
DICTIONARY
  5
D
102
{ACAD_REACTORS
330
C
102
}
330
C
100
AcDbDictionary
281
     1
  0
DICTIONARY
  5
19
102
{ACAD_REACTORS
330
C
102
}
330
C
100
AcDbDictionary
281
     1
  3
Model
350
8B11
  3
ﾚｲｱｳﾄ1
350
8B12
  0
DICTIONARY
  5
16
102
{ACAD_REACTORS
330
C
102
}
330
C
100
AcDbDictionary
281
     1
  3
STANDARD
350
17
  0
DICTIONARY
  5
18
102
{ACAD_REACTORS
330
C
102
}
330
C
100
AcDbDictionary
281
     1
  0
ACDBDICTIONARYWDFLT
  5
E
102
{ACAD_REACTORS
330
C
102
}
330
C
100
AcDbDictionary
281
     1
  3
Normal
350
F
100
AcDbDictionaryWithDefault
340
F
  0
DICTIONARY
  5
D1CE
102
{ACAD_REACTORS
330
C
102
}
330
C
100
AcDbDictionary
281
     1
  3
CEPSNTYPE
350
D1D8
  3
DIMSTYLEDATA
350
D1DC
  3
FINGERPRINTGUID
350
D1D9
  3
HYPERLINKBASE
350
D1D1
  3
INSUNITS
350
D1D7
  3
LAYOUTDICT
350
D1D3
  3
LWETCUNION
350
D1D6
  3
PLOTSETDICT
350
D1D4
  3
PLOTSTYLNAMDICT
350
D1D5
  3
PSVPSCALE
350
D1DB
  3
PUCSBASE
350
D1DF
  3
PUCSORGBACK
350
D1E5
  3
PUCSORGBOTTOM
350
D1E1
  3
PUCSORGFRONT
350
D1E4
  3
PUCSORGLEFT
350
D1E2
  3
PUCSORGRIGHT
350
D1E3
  3
PUCSORGTOP
350
D1E0
  3
PUCSORTHOREF
350
D1DD
  3
PUCSORTHOVIEW
350
D1DE
  3
STYLESHEET
350
D1D2
  3
TSTACKALIGN
350
D1CF
  3
TSTACKSIZE
350
D1D0
  3
UCSBASE
350
D1E8
  3
UCSORGBACK
350
D1EE
  3
UCSORGBOTTOM
350
D1EA
  3
UCSORGFRONT
350
D1ED
  3
UCSORGLEFT
350
D1EB
  3
UCSORGRIGHT
350
D1EC
  3
UCSORGTOP
350
D1E9
  3
UCSORTHOREF
350
D1E6
  3
UCSORTHOVIEW
350
D1E7
  3
VERSIONGUID
350
D1DA
  0
DICTIONARY
  5
69C9
102
{ACAD_REACTORS
330
C
102
}
330
C
100
AcDbDictionary
281
     1
  3
DIMASSOC
350
69CA
  0
XRECORD
  5
8B0B
102
{ACAD_REACTORS
330
178
102
}
330
178
100
AcDbXrecord
280
     1
340
1E
  0
XRECORD
  5
8B0A
102
{ACAD_REACTORS
330
17A
102
}
330
17A
100
AcDbXrecord
280
     1
340
1A
  0
LAYOUT
  5
8B11
102
{ACAD_REACTORS
330
19
102
}
330
19
100
AcDbPlotSettings
  1

  2
自動 RICOH IPSiO NX760 RPDL (PRINT_SERV 上)
  4
A4
  6
OLE1
 40
5.831417
 41
4.942422999999998
 42
7.609405999999999
 43
5.789093
 44
209.9733279999999
 45
296.968323
 46
5.91
 47
6.54
 48
0.0
 49
0.0
140
0.0
141
0.0
142
1.0
143
5.0
 70
 11940
 72
     1
 73
     0
 74
     1
  7
monochrome.ctb
 75
     0
147
0.2
148
206.0321160781108
149
754.5993606599504
100
AcDbLayout
  1
Model
 70
     1
 71
     0
 10
0.0
 20
0.0
 11
12.0
 21
9.0
 12
0.0
 22
0.0
 32
0.0
 14
0.0
 24
0.0
 34
0.0
 15
0.0
 25
0.0
 35
0.0
146
0.0
 13
0.0
 23
0.0
 33
0.0
 16
1.0
 26
0.0
 36
0.0
 17
0.0
 27
1.0
 37
0.0
 76
     0
330
1E
  0
LAYOUT
  5
8B12
102
{ACAD_REACTORS
330
19
102
}
330
19
100
AcDbPlotSettings
  1

  2
LBP5400
  4

  6

 40
0.0
 41
0.0
 42
0.0
 43
0.0
 44
0.0
 45
0.0
 46
0.0
 47
0.0
 48
0.0
 49
0.0
140
0.0
141
0.0
142
1.0
143
1.0
 70
   688
 72
     0
 73
     0
 74
     5
  7
monochrome.stb
 75
    16
147
1.0
148
0.0
149
0.0
100
AcDbLayout
  1
ﾚｲｱｳﾄ1
 70
     1
 71
     1
 10
-5.873748779296875
 20
-5.873749732971191
 11
204.0995788574218
 21
291.1369009017943
 12
0.0
 22
0.0
 32
0.0
 14
4.273573370203961
 24
5.205246163471485
 34
0.0
 15
194.6100952986349
 25
283.0697008572913
 35
0.0
146
0.0
 13
0.0
 23
0.0
 33
0.0
 16
1.0
 26
0.0
 36
0.0
 17
0.0
 27
1.0
 37
0.0
 76
     0
330
1A
331
9AC
  0
MLINESTYLE
  5
17
102
{ACAD_REACTORS
330
16
102
}
330
16
100
AcDbMlineStyle
  2
STANDARD
 70
     0
  3

 62
   256
 51
90.0
 52
90.0
 71
     2
 49
0.5
 62
   256
  6
BYLAYER
 49
-0.5
 62
   256
  6
BYLAYER
  0
ACDBPLACEHOLDER
  5
F
102
{ACAD_REACTORS
330
E
102
}
330
E
  0
XRECORD
  5
D1D8
102
{ACAD_REACTORS
330
D1CE
102
}
330
D1CE
100
AcDbXrecord
280
     1
 90
        0
  0
XRECORD
  5
D1DC
102
{ACAD_REACTORS
330
D1CE
102
}
330
D1CE
100
AcDbXrecord
280
     1
1000
DSTYLE
1002
{
1070
   289
 70
     2
1070
   341
340
3B2
1070
   342
340
3B2
1002
}
  0
XRECORD
  5
D1D9
102
{ACAD_REACTORS
330
D1CE
102
}
330
D1CE
100
AcDbXrecord
280
     1
  1

  0
XRECORD
  5
D1D1
102
{ACAD_REACTORS
330
D1CE
102
}
330
D1CE
100
AcDbXrecord
280
     1
  1

  0
XRECORD
  5
D1D7
102
{ACAD_REACTORS
330
D1CE
102
}
330
D1CE
100
AcDbXrecord
280
     1
 90
        0
  0
XRECORD
  5
D1D3
102
{ACAD_REACTORS
330
D1CE
102
}
330
D1CE
100
AcDbXrecord
280
     1
340
19
  0
XRECORD
  5
D1D6
102
{ACAD_REACTORS
330
D1CE
102
}
330
D1CE
100
AcDbXrecord
280
     1
 90
    10781
  0
XRECORD
  5
D1D4
102
{ACAD_REACTORS
330
D1CE
102
}
330
D1CE
100
AcDbXrecord
280
     1
340
18
  0
XRECORD
  5
D1D5
102
{ACAD_REACTORS
330
D1CE
102
}
330
D1CE
100
AcDbXrecord
280
     1
340
E
  0
XRECORD
  5
D1DB
102
{ACAD_REACTORS
330
D1CE
102
}
330
D1CE
100
AcDbXrecord
280
     1
 40
0.0
  0
XRECORD
  5
D1DF
102
{ACAD_REACTORS
330
D1CE
102
}
330
D1CE
100
AcDbXrecord
280
     1
340
0
  0
XRECORD
  5
D1E5
102
{ACAD_REACTORS
330
D1CE
102
}
330
D1CE
100
AcDbXrecord
280
     1
 10
0.0
 20
0.0
 30
0.0
  0
XRECORD
  5
D1E1
102
{ACAD_REACTORS
330
D1CE
102
}
330
D1CE
100
AcDbXrecord
280
     1
 10
0.0
 20
0.0
 30
0.0
  0
XRECORD
  5
D1E4
102
{ACAD_REACTORS
330
D1CE
102
}
330
D1CE
100
AcDbXrecord
280
     1
 10
0.0
 20
0.0
 30
0.0
  0
XRECORD
  5
D1E2
102
{ACAD_REACTORS
330
D1CE
102
}
330
D1CE
100
AcDbXrecord
280
     1
 10
0.0
 20
0.0
 30
0.0
  0
XRECORD
  5
D1E3
102
{ACAD_REACTORS
330
D1CE
102
}
330
D1CE
100
AcDbXrecord
280
     1
 10
0.0
 20
0.0
 30
0.0
  0
XRECORD
  5
D1E0
102
{ACAD_REACTORS
330
D1CE
102
}
330
D1CE
100
AcDbXrecord
280
     1
 10
0.0
 20
0.0
 30
0.0
  0
XRECORD
  5
D1DD
102
{ACAD_REACTORS
330
D1CE
102
}
330
D1CE
100
AcDbXrecord
280
     1
340
0
  0
XRECORD
  5
D1DE
102
{ACAD_REACTORS
330
D1CE
102
}
330
D1CE
100
AcDbXrecord
280
     1
 70
     0
  0
XRECORD
  5
D1D2
102
{ACAD_REACTORS
330
D1CE
102
}
330
D1CE
100
AcDbXrecord
280
     1
  1
monochrome.ctb
  0
XRECORD
  5
D1CF
102
{ACAD_REACTORS
330
D1CE
102
}
330
D1CE
100
AcDbXrecord
280
     1
 90
        1
  0
XRECORD
  5
D1D0
102
{ACAD_REACTORS
330
D1CE
102
}
330
D1CE
100
AcDbXrecord
280
     1
 90
       70
  0
XRECORD
  5
D1E8
102
{ACAD_REACTORS
330
D1CE
102
}
330
D1CE
100
AcDbXrecord
280
     1
340
0
  0
XRECORD
  5
D1EE
102
{ACAD_REACTORS
330
D1CE
102
}
330
D1CE
100
AcDbXrecord
280
     1
 10
0.0
 20
0.0
 30
0.0
  0
XRECORD
  5
D1EA
102
{ACAD_REACTORS
330
D1CE
102
}
330
D1CE
100
AcDbXrecord
280
     1
 10
0.0
 20
0.0
 30
0.0
  0
XRECORD
  5
D1ED
102
{ACAD_REACTORS
330
D1CE
102
}
330
D1CE
100
AcDbXrecord
280
     1
 10
0.0
 20
0.0
 30
0.0
  0
XRECORD
  5
D1EB
102
{ACAD_REACTORS
330
D1CE
102
}
330
D1CE
100
AcDbXrecord
280
     1
 10
0.0
 20
0.0
 30
0.0
  0
XRECORD
  5
D1EC
102
{ACAD_REACTORS
330
D1CE
102
}
330
D1CE
100
AcDbXrecord
280
     1
 10
0.0
 20
0.0
 30
0.0
  0
XRECORD
  5
D1E9
102
{ACAD_REACTORS
330
D1CE
102
}
330
D1CE
100
AcDbXrecord
280
     1
 10
0.0
 20
0.0
 30
0.0
  0
XRECORD
  5
D1E6
102
{ACAD_REACTORS
330
D1CE
102
}
330
D1CE
100
AcDbXrecord
280
     1
340
0
  0
XRECORD
  5
D1E7
102
{ACAD_REACTORS
330
D1CE
102
}
330
D1CE
100
AcDbXrecord
280
     1
 70
     0
  0
XRECORD
  5
D1DA
102
{ACAD_REACTORS
330
D1CE
102
}
330
D1CE
100
AcDbXrecord
280
     1
  1
{7EAD1CA9-3484-4D7F-AF63-396F60ACE575}
  0
DICTIONARYVAR
  5
69CA
102
{ACAD_REACTORS
330
69C9
102
}
330
69C9
100
DictionaryVariables
280
     0
  1
1
  0
ENDSEC
  0
EOF
