  0
SECTION
  2
HEADER
  9
$ACADVER
  1
AC1015
  9
$ACADMAINTVER
 70
    10
  9
$DWGCODEPAGE
  3
ANSI_932
  9
$INSBASE
 10
0.0
 20
0.0
 30
0.0
  9
$EXTMIN
 10
-189.0
 20
-800.5
 30
0.0
  9
$EXTMAX
 10
501.0
 20
579.9999999999998
 30
0.0
  9
$LIMMIN
 10
-396.0
 20
-1187.0
  9
$LIMMAX
 10
1243.0
 20
1822.0
  9
$ORTHOMODE
 70
     1
  9
$REGENMODE
 70
     1
  9
$FILLMODE
 70
     1
  9
$QTEXTMODE
 70
     0
  9
$MIRRTEXT
 70
     1
  9
$LTSCALE
 40
10.0
  9
$ATTMODE
 70
     1
  9
$TEXTSIZE
 40
5.0
  9
$TRACEWID
 40
0.05
  9
$TEXTSTYLE
  7
STANDARD1
  9
$CLAYER
  8
30
  9
$CELTYPE
  6
CONTINUOUS
  9
$CECOLOR
 62
   256
  9
$CELTSCALE
 40
1.0
  9
$DISPSILH
 70
     0
  9
$DIMSCALE
 40
1.0
  9
$DIMASZ
 40
2.0
  9
$DIMEXO
 40
3.0
  9
$DIMDLI
 40
0.5
  9
$DIMRND
 40
0.0
  9
$DIMDLE
 40
0.0
  9
$DIMEXE
 40
0.5
  9
$DIMTP
 40
0.0
  9
$DIMTM
 40
0.0
  9
$DIMTXT
 40
6.0
  9
$DIMCEN
 40
0.09
  9
$DIMTSZ
 40
0.0
  9
$DIMTOL
 70
     0
  9
$DIMLIM
 70
     0
  9
$DIMTIH
 70
     0
  9
$DIMTOH
 70
     1
  9
$DIMSE1
 70
     0
  9
$DIMSE2
 70
     0
  9
$DIMTAD
 70
     3
  9
$DIMZIN
 70
    12
  9
$DIMBLK
  1
OPEN
  9
$DIMASO
 70
     1
  9
$DIMSHO
 70
     1
  9
$DIMPOST
  1

  9
$DIMAPOST
  1

  9
$DIMALT
 70
     0
  9
$DIMALTD
 70
     2
  9
$DIMALTF
 40
25.4
  9
$DIMLFAC
 40
1.0
  9
$DIMTOFL
 70
     0
  9
$DIMTVP
 40
0.0
  9
$DIMTIX
 70
     0
  9
$DIMSOXD
 70
     0
  9
$DIMSAH
 70
     0
  9
$DIMBLK1
  1

  9
$DIMBLK2
  1

  9
$DIMSTYLE
  2
STANDARD1
  9
$DIMCLRD
 70
     0
  9
$DIMCLRE
 70
     0
  9
$DIMCLRT
 70
     0
  9
$DIMTFAC
 40
1.0
  9
$DIMGAP
 40
3.0
  9
$DIMJUST
 70
     0
  9
$DIMSD1
 70
     0
  9
$DIMSD2
 70
     0
  9
$DIMTOLJ
 70
     1
  9
$DIMTZIN
 70
     0
  9
$DIMALTZ
 70
     0
  9
$DIMALTTZ
 70
     0
  9
$DIMUPT
 70
     0
  9
$DIMDEC
 70
     1
  9
$DIMTDEC
 70
     1
  9
$DIMALTU
 70
     2
  9
$DIMALTTD
 70
     2
  9
$DIMTXSTY
  7
STANDARD
  9
$DIMAUNIT
 70
     0
  9
$DIMADEC
 70
     0
  9
$DIMALTRND
 40
0.0
  9
$DIMAZIN
 70
     0
  9
$DIMDSEP
 70
    46
  9
$DIMATFIT
 70
     2
  9
$DIMFRAC
 70
     0
  9
$DIMLDRBLK
  1
OPEN
  9
$DIMLUNIT
 70
     2
  9
$DIMLWD
 70
    -2
  9
$DIMLWE
 70
    -2
  9
$DIMTMOVE
 70
     0
  9
$LUNITS
 70
     2
  9
$LUPREC
 70
     4
  9
$SKETCHINC
 40
0.1
  9
$FILLETRAD
 40
1.0
  9
$AUNITS
 70
     0
  9
$AUPREC
 70
     0
  9
$MENU
  1
.
  9
$ELEVATION
 40
0.0
  9
$PELEVATION
 40
0.0
  9
$THICKNESS
 40
0.0
  9
$LIMCHECK
 70
     0
  9
$CHAMFERA
 40
0.0
  9
$CHAMFERB
 40
0.0
  9
$CHAMFERC
 40
0.0
  9
$CHAMFERD
 40
0.0
  9
$SKPOLY
 70
     0
  9
$TDCREATE
 40
2452286.555658657
  9
$TDUCREATE
 40
2452286.180658657
  9
$TDUPDATE
 40
2454697.444293252
  9
$TDUUPDATE
 40
2454697.069293252
  9
$TDINDWG
 40
2.0619608449
  9
$TDUSRTIMER
 40
2.0619604861
  9
$USRTIMER
 70
     1
  9
$ANGBASE
 50
0.0
  9
$ANGDIR
 70
     0
  9
$PDMODE
 70
     0
  9
$PDSIZE
 40
0.0
  9
$PLINEWID
 40
0.0
  9
$SPLFRAME
 70
     0
  9
$SPLINETYPE
 70
     6
  9
$SPLINESEGS
 70
     8
  9
$HANDSEED
  5
14A47
  9
$SURFTAB1
 70
     6
  9
$SURFTAB2
 70
     6
  9
$SURFTYPE
 70
     6
  9
$SURFU
 70
     6
  9
$SURFV
 70
     6
  9
$UCSBASE
  2

  9
$UCSNAME
  2

  9
$UCSORG
 10
0.0
 20
0.0
 30
0.0
  9
$UCSXDIR
 10
1.0
 20
0.0
 30
0.0
  9
$UCSYDIR
 10
0.0
 20
1.0
 30
0.0
  9
$UCSORTHOREF
  2

  9
$UCSORTHOVIEW
 70
     0
  9
$UCSORGTOP
 10
0.0
 20
0.0
 30
0.0
  9
$UCSORGBOTTOM
 10
0.0
 20
0.0
 30
0.0
  9
$UCSORGLEFT
 10
0.0
 20
0.0
 30
0.0
  9
$UCSORGRIGHT
 10
0.0
 20
0.0
 30
0.0
  9
$UCSORGFRONT
 10
0.0
 20
0.0
 30
0.0
  9
$UCSORGBACK
 10
0.0
 20
0.0
 30
0.0
  9
$PUCSBASE
  2

  9
$PUCSNAME
  2

  9
$PUCSORG
 10
0.0
 20
0.0
 30
0.0
  9
$PUCSXDIR
 10
1.0
 20
0.0
 30
0.0
  9
$PUCSYDIR
 10
0.0
 20
1.0
 30
0.0
  9
$PUCSORTHOREF
  2

  9
$PUCSORTHOVIEW
 70
     0
  9
$PUCSORGTOP
 10
0.0
 20
0.0
 30
0.0
  9
$PUCSORGBOTTOM
 10
0.0
 20
0.0
 30
0.0
  9
$PUCSORGLEFT
 10
0.0
 20
0.0
 30
0.0
  9
$PUCSORGRIGHT
 10
0.0
 20
0.0
 30
0.0
  9
$PUCSORGFRONT
 10
0.0
 20
0.0
 30
0.0
  9
$PUCSORGBACK
 10
0.0
 20
0.0
 30
0.0
  9
$USERI1
 70
     0
  9
$USERI2
 70
     0
  9
$USERI3
 70
     0
  9
$USERI4
 70
     0
  9
$USERI5
 70
     0
  9
$USERR1
 40
0.0
  9
$USERR2
 40
0.0
  9
$USERR3
 40
0.0
  9
$USERR4
 40
0.0
  9
$USERR5
 40
0.0
  9
$WORLDVIEW
 70
     1
  9
$SHADEDGE
 70
     3
  9
$SHADEDIF
 70
    70
  9
$TILEMODE
 70
     1
  9
$MAXACTVP
 70
    48
  9
$PINSBASE
 10
0.0
 20
0.0
 30
0.0
  9
$PLIMCHECK
 70
     0
  9
$PEXTMIN
 10
0.0
 20
0.0
 30
0.0
  9
$PEXTMAX
 10
0.0
 20
0.0
 30
0.0
  9
$PLIMMIN
 10
0.0
 20
0.0
  9
$PLIMMAX
 10
0.0
 20
0.0
  9
$UNITMODE
 70
     0
  9
$VISRETAIN
 70
     1
  9
$PLINEGEN
 70
     0
  9
$PSLTSCALE
 70
     1
  9
$TREEDEPTH
 70
  3020
  9
$CMLSTYLE
  2
STANDARD
  9
$CMLJUST
 70
     0
  9
$CMLSCALE
 40
1.0
  9
$PROXYGRAPHICS
 70
     1
  9
$MEASUREMENT
 70
     0
  9
$CELWEIGHT
370
    -1
  9
$ENDCAPS
280
     0
  9
$JOINSTYLE
280
     0
  9
$LWDISPLAY
290
     0
  9
$INSUNITS
 70
     0
  9
$HYPERLINKBASE
  1

  9
$STYLESHEET
  1
MONOCHROME.CTB
  9
$XEDIT
290
     1
  9
$CEPSNTYPE
380
     0
  9
$PSTYLEMODE
290
     1
  9
$FINGERPRINTGUID
  2

  9
$VERSIONGUID
  2
{A97E65D8-ED56-49EA-8EF0-4498F9A3426E}
  9
$EXTNAMES
290
     1
  9
$PSVPSCALE
 40
0.0
  9
$OLESTARTUP
290
     0
  0
ENDSEC
  0
SECTION
  2
CLASSES
  0
CLASS
  1
ACDBDICTIONARYWDFLT
  2
AcDbDictionaryWithDefault
  3
AutoCAD 2000
 90
        0
280
     0
281
     0
  0
CLASS
  1
ACDBPLACEHOLDER
  2
AcDbPlaceHolder
  3
AutoCAD 2000
 90
        0
280
     0
281
     0
  0
CLASS
  1
LAYOUT
  2
AcDbLayout
  3
AutoCAD 2000
 90
        0
280
     0
281
     0
  0
CLASS
  1
LONG_TRANSACTION
  2
AcDbLongTransaction
  3
AutoCAD 2000
 90
    32768
280
     0
281
     0
  0
CLASS
  1
LWPOLYLINE
  2
AcDbPolyline
  3
AutoCAD 2000
 90
    32768
280
     0
281
     1
  0
CLASS
  1
HATCH
  2
AcDbHatch
  3
AutoCAD 2000
 90
    32768
280
     0
281
     1
  0
CLASS
  1
XRECORD
  2
AcDbXrecord
  3
AutoCAD 2000
 90
    32768
280
     0
281
     0
  0
CLASS
  1
LONG_TRANSACTION
  2
AcDbLongTransaction
  3
AutoCAD 2000
 90
    32768
280
     0
281
     0
  0
CLASS
  1
LWPOLYLINE
  2
AcDbPolyline
  3
AutoCAD 2000
 90
    32768
280
     0
281
     1
  0
CLASS
  1
HATCH
  2
AcDbHatch
  3
AutoCAD 2000
 90
    32768
280
     0
281
     1
  0
CLASS
  1
XRECORD
  2
AcDbXrecord
  3
AutoCAD 2000
 90
    32768
280
     0
281
     0
  0
CLASS
  1
LONG_TRANSACTION
  2
AcDbLongTransaction
  3
AutoCAD 2000
 90
    32768
280
     0
281
     0
  0
CLASS
  1
LWPOLYLINE
  2
AcDbPolyline
  3
AutoCAD 2000
 90
    32768
280
     0
281
     1
  0
CLASS
  1
HATCH
  2
AcDbHatch
  3
AutoCAD 2000
 90
    32768
280
     0
281
     1
  0
CLASS
  1
XRECORD
  2
AcDbXrecord
  3
AutoCAD 2000
 90
    32768
280
     0
281
     0
  0
CLASS
  1
LONG_TRANSACTION
  2
AcDbLongTransaction
  3
AutoCAD 2000
 90
    32768
280
     0
281
     0
  0
CLASS
  1
LWPOLYLINE
  2
AcDbPolyline
  3
AutoCAD 2000
 90
    32768
280
     0
281
     1
  0
CLASS
  1
HATCH
  2
AcDbHatch
  3
AutoCAD 2000
 90
    32768
280
     0
281
     1
  0
CLASS
  1
XRECORD
  2
AcDbXrecord
  3
AutoCAD 2000
 90
    32768
280
     0
281
     0
  0
CLASS
  1
LONG_TRANSACTION
  2
AcDbLongTransaction
  3
AutoCAD 2000
 90
    32768
280
     0
281
     0
  0
CLASS
  1
LWPOLYLINE
  2
AcDbPolyline
  3
AutoCAD 2000
 90
    32768
280
     0
281
     1
  0
CLASS
  1
HATCH
  2
AcDbHatch
  3
AutoCAD 2000
 90
    32768
280
     0
281
     1
  0
CLASS
  1
XRECORD
  2
AcDbXrecord
  3
AutoCAD 2000
 90
    32768
280
     0
281
     0
  0
CLASS
  1
LONG_TRANSACTION
  2
AcDbLongTransaction
  3
AutoCAD 2000
 90
    32768
280
     0
281
     0
  0
CLASS
  1
LWPOLYLINE
  2
AcDbPolyline
  3
AutoCAD 2000
 90
    32768
280
     0
281
     1
  0
CLASS
  1
HATCH
  2
AcDbHatch
  3
AutoCAD 2000
 90
    32768
280
     0
281
     1
  0
CLASS
  1
XRECORD
  2
AcDbXrecord
  3
AutoCAD 2000
 90
    32768
280
     0
281
     0
  0
CLASS
  1
LONG_TRANSACTION
  2
AcDbLongTransaction
  3
AutoCAD 2000
 90
    32768
280
     0
281
     0
  0
CLASS
  1
LWPOLYLINE
  2
AcDbPolyline
  3
AutoCAD 2000
 90
    32768
280
     0
281
     1
  0
CLASS
  1
HATCH
  2
AcDbHatch
  3
AutoCAD 2000
 90
    32768
280
     0
281
     1
  0
CLASS
  1
XRECORD
  2
AcDbXrecord
  3
AutoCAD 2000
 90
    32768
280
     0
281
     0
  0
CLASS
  1
LONG_TRANSACTION
  2
AcDbLongTransaction
  3
AutoCAD 2000
 90
    32768
280
     0
281
     0
  0
CLASS
  1
LWPOLYLINE
  2
AcDbPolyline
  3
AutoCAD 2000
 90
    32768
280
     0
281
     1
  0
CLASS
  1
HATCH
  2
AcDbHatch
  3
AutoCAD 2000
 90
    32768
280
     0
281
     1
  0
CLASS
  1
XRECORD
  2
AcDbXrecord
  3
AutoCAD 2000
 90
    32768
280
     0
281
     0
  0
CLASS
  1
LONG_TRANSACTION
  2
AcDbLongTransaction
  3
AutoCAD 2000
 90
    32768
280
     0
281
     0
  0
CLASS
  1
LWPOLYLINE
  2
AcDbPolyline
  3
AutoCAD 2000
 90
    32768
280
     0
281
     1
  0
CLASS
  1
HATCH
  2
AcDbHatch
  3
AutoCAD 2000
 90
    32768
280
     0
281
     1
  0
CLASS
  1
XRECORD
  2
AcDbXrecord
  3
AutoCAD 2000
 90
    32768
280
     0
281
     0
  0
CLASS
  1
LONG_TRANSACTION
  2
AcDbLongTransaction
  3
AutoCAD 2000
 90
    32768
280
     0
281
     0
  0
CLASS
  1
LWPOLYLINE
  2
AcDbPolyline
  3
AutoCAD 2000
 90
    32768
280
     0
281
     1
  0
CLASS
  1
HATCH
  2
AcDbHatch
  3
AutoCAD 2000
 90
    32768
280
     0
281
     1
  0
CLASS
  1
XRECORD
  2
AcDbXrecord
  3
AutoCAD 2000
 90
    32768
280
     0
281
     0
  0
CLASS
  1
LONG_TRANSACTION
  2
AcDbLongTransaction
  3
AutoCAD 2000
 90
    32768
280
     0
281
     0
  0
CLASS
  1
LWPOLYLINE
  2
AcDbPolyline
  3
AutoCAD 2000
 90
    32768
280
     0
281
     1
  0
CLASS
  1
HATCH
  2
AcDbHatch
  3
AutoCAD 2000
 90
    32768
280
     0
281
     1
  0
CLASS
  1
XRECORD
  2
AcDbXrecord
  3
AutoCAD 2000
 90
    32768
280
     0
281
     0
  0
CLASS
  1
LONG_TRANSACTION
  2
AcDbLongTransaction
  3
AutoCAD 2000
 90
    32768
280
     0
281
     0
  0
CLASS
  1
LWPOLYLINE
  2
AcDbPolyline
  3
AutoCAD 2000
 90
    32768
280
     0
281
     1
  0
CLASS
  1
HATCH
  2
AcDbHatch
  3
AutoCAD 2000
 90
    32768
280
     0
281
     1
  0
CLASS
  1
XRECORD
  2
AcDbXrecord
  3
AutoCAD 2000
 90
    32768
280
     0
281
     0
  0
CLASS
  1
LONG_TRANSACTION
  2
AcDbLongTransaction
  3
AutoCAD 2000
 90
    32768
280
     0
281
     0
  0
CLASS
  1
LWPOLYLINE
  2
AcDbPolyline
  3
AutoCAD 2000
 90
    32768
280
     0
281
     1
  0
CLASS
  1
HATCH
  2
AcDbHatch
  3
AutoCAD 2000
 90
    32768
280
     0
281
     1
  0
CLASS
  1
XRECORD
  2
AcDbXrecord
  3
AutoCAD 2000
 90
    32768
280
     0
281
     0
  0
CLASS
  1
LONG_TRANSACTION
  2
AcDbLongTransaction
  3
AutoCAD 2000
 90
    32768
280
     0
281
     0
  0
CLASS
  1
LWPOLYLINE
  2
AcDbPolyline
  3
AutoCAD 2000
 90
    32768
280
     0
281
     1
  0
CLASS
  1
HATCH
  2
AcDbHatch
  3
AutoCAD 2000
 90
    32768
280
     0
281
     1
  0
CLASS
  1
XRECORD
  2
AcDbXrecord
  3
AutoCAD 2000
 90
    32768
280
     0
281
     0
  0
CLASS
  1
LONG_TRANSACTION
  2
AcDbLongTransaction
  3
AutoCAD 2000
 90
    32768
280
     0
281
     0
  0
CLASS
  1
LWPOLYLINE
  2
AcDbPolyline
  3
AutoCAD 2000
 90
    32768
280
     0
281
     1
  0
CLASS
  1
HATCH
  2
AcDbHatch
  3
AutoCAD 2000
 90
    32768
280
     0
281
     1
  0
CLASS
  1
XRECORD
  2
AcDbXrecord
  3
AutoCAD 2000
 90
    32768
280
     0
281
     0
  0
CLASS
  1
LONG_TRANSACTION
  2
AcDbLongTransaction
  3
AutoCAD 2000
 90
    32768
280
     0
281
     0
  0
CLASS
  1
LWPOLYLINE
  2
AcDbPolyline
  3
AutoCAD 2000
 90
    32768
280
     0
281
     1
  0
CLASS
  1
HATCH
  2
AcDbHatch
  3
AutoCAD 2000
 90
    32768
280
     0
281
     1
  0
CLASS
  1
XRECORD
  2
AcDbXrecord
  3
AutoCAD 2000
 90
    32768
280
     0
281
     0
  0
CLASS
  1
LONG_TRANSACTION
  2
AcDbLongTransaction
  3
AutoCAD 2000
 90
    32768
280
     0
281
     0
  0
CLASS
  1
LWPOLYLINE
  2
AcDbPolyline
  3
AutoCAD 2000
 90
    32768
280
     0
281
     1
  0
CLASS
  1
HATCH
  2
AcDbHatch
  3
AutoCAD 2000
 90
    32768
280
     0
281
     1
  0
CLASS
  1
XRECORD
  2
AcDbXrecord
  3
AutoCAD 2000
 90
    32768
280
     0
281
     0
  0
CLASS
  1
LONG_TRANSACTION
  2
AcDbLongTransaction
  3
AutoCAD 2000
 90
    32768
280
     0
281
     0
  0
CLASS
  1
LWPOLYLINE
  2
AcDbPolyline
  3
AutoCAD 2000
 90
    32768
280
     0
281
     1
  0
CLASS
  1
HATCH
  2
AcDbHatch
  3
AutoCAD 2000
 90
    32768
280
     0
281
     1
  0
CLASS
  1
XRECORD
  2
AcDbXrecord
  3
AutoCAD 2000
 90
    32768
280
     0
281
     0
  0
CLASS
  1
LONG_TRANSACTION
  2
AcDbLongTransaction
  3
AutoCAD 2000
 90
    32768
280
     0
281
     0
  0
CLASS
  1
LWPOLYLINE
  2
AcDbPolyline
  3
AutoCAD 2000
 90
    32768
280
     0
281
     1
  0
CLASS
  1
HATCH
  2
AcDbHatch
  3
AutoCAD 2000
 90
    32768
280
     0
281
     1
  0
CLASS
  1
XRECORD
  2
AcDbXrecord
  3
AutoCAD 2000
 90
    32768
280
     0
281
     0
  0
CLASS
  1
LONG_TRANSACTION
  2
AcDbLongTransaction
  3
AutoCAD 2000
 90
    32768
280
     0
281
     0
  0
CLASS
  1
LWPOLYLINE
  2
AcDbPolyline
  3
AutoCAD 2000
 90
    32768
280
     0
281
     1
  0
CLASS
  1
HATCH
  2
AcDbHatch
  3
AutoCAD 2000
 90
    32768
280
     0
281
     1
  0
CLASS
  1
XRECORD
  2
AcDbXrecord
  3
AutoCAD 2000
 90
    32768
280
     0
281
     0
  0
CLASS
  1
LONG_TRANSACTION
  2
AcDbLongTransaction
  3
AutoCAD 2000
 90
    32768
280
     0
281
     0
  0
CLASS
  1
LWPOLYLINE
  2
AcDbPolyline
  3
AutoCAD 2000
 90
    32768
280
     0
281
     1
  0
CLASS
  1
HATCH
  2
AcDbHatch
  3
AutoCAD 2000
 90
    32768
280
     0
281
     1
  0
CLASS
  1
XRECORD
  2
AcDbXrecord
  3
AutoCAD 2000
 90
    32768
280
     0
281
     0
  0
CLASS
  1
LONG_TRANSACTION
  2
AcDbLongTransaction
  3
AutoCAD 2000
 90
    32768
280
     0
281
     0
  0
CLASS
  1
LWPOLYLINE
  2
AcDbPolyline
  3
AutoCAD 2000
 90
    32768
280
     0
281
     1
  0
CLASS
  1
HATCH
  2
AcDbHatch
  3
AutoCAD 2000
 90
    32768
280
     0
281
     1
  0
CLASS
  1
XRECORD
  2
AcDbXrecord
  3
AutoCAD 2000
 90
    32768
280
     0
281
     0
  0
CLASS
  1
LONG_TRANSACTION
  2
AcDbLongTransaction
  3
AutoCAD 2000
 90
    32768
280
     0
281
     0
  0
CLASS
  1
LWPOLYLINE
  2
AcDbPolyline
  3
AutoCAD 2000
 90
    32768
280
     0
281
     1
  0
CLASS
  1
HATCH
  2
AcDbHatch
  3
AutoCAD 2000
 90
    32768
280
     0
281
     1
  0
CLASS
  1
XRECORD
  2
AcDbXrecord
  3
AutoCAD 2000
 90
    32768
280
     0
281
     0
  0
CLASS
  1
LONG_TRANSACTION
  2
AcDbLongTransaction
  3
AutoCAD 2000
 90
    32768
280
     0
281
     0
  0
CLASS
  1
LWPOLYLINE
  2
AcDbPolyline
  3
AutoCAD 2000
 90
    32768
280
     0
281
     1
  0
CLASS
  1
HATCH
  2
AcDbHatch
  3
AutoCAD 2000
 90
    32768
280
     0
281
     1
  0
CLASS
  1
XRECORD
  2
AcDbXrecord
  3
AutoCAD 2000
 90
    32768
280
     0
281
     0
  0
CLASS
  1
LONG_TRANSACTION
  2
AcDbLongTransaction
  3
AutoCAD 2000
 90
    32768
280
     0
281
     0
  0
CLASS
  1
LWPOLYLINE
  2
AcDbPolyline
  3
AutoCAD 2000
 90
    32768
280
     0
281
     1
  0
CLASS
  1
HATCH
  2
AcDbHatch
  3
AutoCAD 2000
 90
    32768
280
     0
281
     1
  0
CLASS
  1
XRECORD
  2
AcDbXrecord
  3
AutoCAD 2000
 90
    32768
280
     0
281
     0
  0
CLASS
  1
LONG_TRANSACTION
  2
AcDbLongTransaction
  3
AutoCAD 2000
 90
    32768
280
     0
281
     0
  0
CLASS
  1
LWPOLYLINE
  2
AcDbPolyline
  3
AutoCAD 2000
 90
    32768
280
     0
281
     1
  0
CLASS
  1
HATCH
  2
AcDbHatch
  3
AutoCAD 2000
 90
    32768
280
     0
281
     1
  0
CLASS
  1
XRECORD
  2
AcDbXrecord
  3
AutoCAD 2000
 90
    32768
280
     0
281
     0
  0
CLASS
  1
LONG_TRANSACTION
  2
AcDbLongTransaction
  3
AutoCAD 2000
 90
    32768
280
     0
281
     0
  0
CLASS
  1
LWPOLYLINE
  2
AcDbPolyline
  3
AutoCAD 2000
 90
    32768
280
     0
281
     1
  0
CLASS
  1
HATCH
  2
AcDbHatch
  3
AutoCAD 2000
 90
    32768
280
     0
281
     1
  0
CLASS
  1
XRECORD
  2
AcDbXrecord
  3
AutoCAD 2000
 90
    32768
280
     0
281
     0
  0
CLASS
  1
LONG_TRANSACTION
  2
AcDbLongTransaction
  3
AutoCAD 2000
 90
    32768
280
     0
281
     0
  0
CLASS
  1
LWPOLYLINE
  2
AcDbPolyline
  3
AutoCAD 2000
 90
    32768
280
     0
281
     1
  0
CLASS
  1
HATCH
  2
AcDbHatch
  3
AutoCAD 2000
 90
    32768
280
     0
281
     1
  0
CLASS
  1
XRECORD
  2
AcDbXrecord
  3
AutoCAD 2000
 90
    32768
280
     0
281
     0
  0
CLASS
  1
LONG_TRANSACTION
  2
AcDbLongTransaction
  3
AutoCAD 2000
 90
    32768
280
     0
281
     0
  0
CLASS
  1
LWPOLYLINE
  2
AcDbPolyline
  3
AutoCAD 2000
 90
    32768
280
     0
281
     1
  0
CLASS
  1
HATCH
  2
AcDbHatch
  3
AutoCAD 2000
 90
    32768
280
     0
281
     1
  0
CLASS
  1
XRECORD
  2
AcDbXrecord
  3
AutoCAD 2000
 90
    32768
280
     0
281
     0
  0
CLASS
  1
LONG_TRANSACTION
  2
AcDbLongTransaction
  3
AutoCAD 2000
 90
    32768
280
     0
281
     0
  0
CLASS
  1
LWPOLYLINE
  2
AcDbPolyline
  3
AutoCAD 2000
 90
    32768
280
     0
281
     1
  0
CLASS
  1
HATCH
  2
AcDbHatch
  3
AutoCAD 2000
 90
    32768
280
     0
281
     1
  0
CLASS
  1
XRECORD
  2
AcDbXrecord
  3
AutoCAD 2000
 90
    32768
280
     0
281
     0
  0
CLASS
  1
LONG_TRANSACTION
  2
AcDbLongTransaction
  3
AutoCAD 2000
 90
    32768
280
     0
281
     0
  0
CLASS
  1
LWPOLYLINE
  2
AcDbPolyline
  3
AutoCAD 2000
 90
    32768
280
     0
281
     1
  0
CLASS
  1
HATCH
  2
AcDbHatch
  3
AutoCAD 2000
 90
    32768
280
     0
281
     1
  0
CLASS
  1
XRECORD
  2
AcDbXrecord
  3
AutoCAD 2000
 90
    32768
280
     0
281
     0
  0
CLASS
  1
LONG_TRANSACTION
  2
AcDbLongTransaction
  3
AutoCAD 2000
 90
    32768
280
     0
281
     0
  0
CLASS
  1
LWPOLYLINE
  2
AcDbPolyline
  3
AutoCAD 2000
 90
    32768
280
     0
281
     1
  0
CLASS
  1
HATCH
  2
AcDbHatch
  3
AutoCAD 2000
 90
    32768
280
     0
281
     1
  0
CLASS
  1
XRECORD
  2
AcDbXrecord
  3
AutoCAD 2000
 90
    32768
280
     0
281
     0
  0
CLASS
  1
LONG_TRANSACTION
  2
AcDbLongTransaction
  3
AutoCAD 2000
 90
    32768
280
     0
281
     0
  0
CLASS
  1
LWPOLYLINE
  2
AcDbPolyline
  3
AutoCAD 2000
 90
    32768
280
     0
281
     1
  0
CLASS
  1
HATCH
  2
AcDbHatch
  3
AutoCAD 2000
 90
    32768
280
     0
281
     1
  0
CLASS
  1
XRECORD
  2
AcDbXrecord
  3
AutoCAD 2000
 90
    32768
280
     0
281
     0
  0
CLASS
  1
DICTIONARYVAR
  2
AcDbDictionaryVar
  3
AutoCAD 2000
 90
        0
280
     0
281
     0
  0
CLASS
  1
LONG_TRANSACTION
  2
AcDbLongTransaction
  3
AutoCAD 2000
 90
    32768
280
     0
281
     0
  0
CLASS
  1
LWPOLYLINE
  2
AcDbPolyline
  3
AutoCAD 2000
 90
    32768
280
     0
281
     1
  0
CLASS
  1
HATCH
  2
AcDbHatch
  3
AutoCAD 2000
 90
    32768
280
     0
281
     1
  0
CLASS
  1
XRECORD
  2
AcDbXrecord
  3
AutoCAD 2000
 90
    32768
280
     0
281
     0
  0
CLASS
  1
LONG_TRANSACTION
  2
AcDbLongTransaction
  3
AutoCAD 2000
 90
    32768
280
     0
281
     0
  0
CLASS
  1
LWPOLYLINE
  2
AcDbPolyline
  3
AutoCAD 2000
 90
    32768
280
     0
281
     1
  0
CLASS
  1
HATCH
  2
AcDbHatch
  3
AutoCAD 2000
 90
    32768
280
     0
281
     1
  0
CLASS
  1
XRECORD
  2
AcDbXrecord
  3
AutoCAD 2000
 90
    32768
280
     0
281
     0
  0
CLASS
  1
LONG_TRANSACTION
  2
AcDbLongTransaction
  3
AutoCAD 2000
 90
    32768
280
     0
281
     0
  0
CLASS
  1
LWPOLYLINE
  2
AcDbPolyline
  3
AutoCAD 2000
 90
    32768
280
     0
281
     1
  0
CLASS
  1
HATCH
  2
AcDbHatch
  3
AutoCAD 2000
 90
    32768
280
     0
281
     1
  0
CLASS
  1
XRECORD
  2
AcDbXrecord
  3
AutoCAD 2000
 90
    32768
280
     0
281
     0
  0
CLASS
  1
LONG_TRANSACTION
  2
AcDbLongTransaction
  3
AutoCAD 2000
 90
    32768
280
     0
281
     0
  0
CLASS
  1
LWPOLYLINE
  2
AcDbPolyline
  3
AutoCAD 2000
 90
    32768
280
     0
281
     1
  0
CLASS
  1
HATCH
  2
AcDbHatch
  3
AutoCAD 2000
 90
    32768
280
     0
281
     1
  0
CLASS
  1
XRECORD
  2
AcDbXrecord
  3
AutoCAD 2000
 90
    32768
280
     0
281
     0
  0
ENDSEC
  0
SECTION
  2
TABLES
  0
TABLE
  2
VPORT
  5
8
330
0
100
AcDbSymbolTable
 70
     3
  0
VPORT
  5
14A25
330
8
100
AcDbSymbolTableRecord
100
AcDbViewportTableRecord
  2
*Active
 70
     0
 10
0.0
 20
0.0
 11
1.0
 21
1.0
 12
257.0131830951452
 22
-139.7421855573775
 13
0.0
 23
0.0
 14
1.0
 24
1.0
 15
10.0
 25
10.0
 16
0.0
 26
0.0
 36
1.0
 17
0.0
 27
0.0
 37
0.0
 40
1317.330500921181
 41
1.566970091027308
 42
50.0
 43
0.0
 44
0.0
 50
0.0
 51
0.0
 71
     0
 72
   100
 73
     1
 74
     1
 75
     0
 76
     0
 77
     0
 78
     0
281
     0
 65
     1
110
0.0
120
0.0
130
0.0
111
1.0
121
0.0
131
0.0
112
0.0
122
1.0
132
0.0
 79
     0
146
0.0
  0
ENDTAB
  0
TABLE
  2
LTYPE
  5
5
330
0
100
AcDbSymbolTable
 70
     5
  0
LTYPE
  5
13
330
5
100
AcDbSymbolTableRecord
100
AcDbLinetypeTableRecord
  2
BYBLOCK
 70
     0
  3

 72
    65
 73
     0
 40
0.0
  0
LTYPE
  5
14
330
5
100
AcDbSymbolTableRecord
100
AcDbLinetypeTableRecord
  2
BYLAYER
 70
     0
  3

 72
    65
 73
     0
 40
0.0
  0
LTYPE
  5
15
330
5
100
AcDbSymbolTableRecord
100
AcDbLinetypeTableRecord
  2
CONTINUOUS
 70
     0
  3
Solid line
 72
    65
 73
     0
 40
0.0
  0
LTYPE
  5
22
330
5
100
AcDbSymbolTableRecord
100
AcDbLinetypeTableRecord
  2
CONTINOUS
 70
     0
  3
Solid line
 72
    65
 73
     0
 40
0.0
  0
LTYPE
  5
24
330
5
100
AcDbSymbolTableRecord
100
AcDbLinetypeTableRecord
  2
DASHDOT
 70
     0
  3
__ . __ . __ . __ . __ . __ . __ . __ . __ . __
 72
    65
 73
     4
 40
1.0
 49
0.5
 74
     0
 49
-0.25
 74
     0
 49
0.0
 74
     0
 49
-0.25
 74
     0
  0
LTYPE
  5
4C47
330
5
100
AcDbSymbolTableRecord
100
AcDbLinetypeTableRecord
  2
DIVIDE
 70
     0
  3
Divide ____ . . ____ . . ____ . . ____ . . ____
 72
    65
 73
     6
 40
1.25
 49
0.5
 74
     0
 49
-0.25
 74
     0
 49
0.0
 74
     0
 49
-0.25
 74
     0
 49
0.0
 74
     0
 49
-0.25
 74
     0
  0
LTYPE
  5
7C4F
330
5
100
AcDbSymbolTableRecord
100
AcDbLinetypeTableRecord
  2
DASHED
 70
     0
  3
__ __ __ __ __ __ __ __ __
 72
    65
 73
     2
 40
0.75
 49
0.5
 74
     0
 49
-0.25
 74
     0
  0
ENDTAB
  0
TABLE
  2
LAYER
  5
2
330
0
100
AcDbSymbolTable
 70
    14
  0
LAYER
  5
10
330
2
100
AcDbSymbolTableRecord
100
AcDbLayerTableRecord
  2
0
 70
     0
 62
     7
  6
CONTINOUS
370
    -3
390
F
  0
LAYER
  5
2F
330
2
100
AcDbSymbolTableRecord
100
AcDbLayerTableRecord
  2
10
 70
     0
 62
     4
  6
CONTINOUS
370
    -3
390
F
  0
LAYER
  5
31
330
2
100
AcDbSymbolTableRecord
100
AcDbLayerTableRecord
  2
12
 70
     0
 62
     3
  6
CONTINOUS
370
    -3
390
F
  0
LAYER
  5
35
330
2
100
AcDbSymbolTableRecord
100
AcDbLayerTableRecord
  2
16
 70
     0
 62
     6
  6
DASHDOT
370
    -3
390
F
  0
LAYER
  5
38
330
2
100
AcDbSymbolTableRecord
100
AcDbLayerTableRecord
  2
19
 70
     0
 62
     7
  6
CONTINOUS
370
    -3
390
F
  0
LAYER
  5
3C
330
2
100
AcDbSymbolTableRecord
100
AcDbLayerTableRecord
  2
11
 70
     0
 62
     1
  6
CONTINOUS
370
    -3
390
F
  0
LAYER
  5
3D
330
2
100
AcDbSymbolTableRecord
100
AcDbLayerTableRecord
  2
24
 70
     0
 62
     2
  6
CONTINOUS
370
    -3
390
F
  0
LAYER
  5
3A2
330
2
100
AcDbSymbolTableRecord
100
AcDbLayerTableRecord
  2
30
 70
     0
 62
     9
  6
CONTINUOUS
370
    -3
390
F
  0
LAYER
  5
3A4
330
2
100
AcDbSymbolTableRecord
100
AcDbLayerTableRecord
  2
DEFPOINTS
 70
     0
 62
     7
  6
CONTINUOUS
290
     0
370
    -3
390
F
  0
LAYER
  5
3BBA
330
2
100
AcDbSymbolTableRecord
100
AcDbLayerTableRecord
  2
18
 70
     0
 62
     5
  6
DIVIDE
370
    -3
390
F
  0
LAYER
  5
7355
330
2
100
AcDbSymbolTableRecord
100
AcDbLayerTableRecord
  2
1
 70
     0
 62
     7
  6
CONTINUOUS
370
    -3
390
F
  0
LAYER
  5
970E
330
2
100
AcDbSymbolTableRecord
100
AcDbLayerTableRecord
  2
17
 70
     0
 62
     2
  6
DASHDOT
370
    -3
390
F
  0
LAYER
  5
9BE8
330
2
100
AcDbSymbolTableRecord
100
AcDbLayerTableRecord
  2
225
 70
     0
 62
     7
  6
CONTINUOUS
370
    -3
390
F
  0
LAYER
  5
9BEA
330
2
100
AcDbSymbolTableRecord
100
AcDbLayerTableRecord
  2
160
 70
     0
 62
     7
  6
CONTINUOUS
370
    -3
390
F
  0
ENDTAB
  0
TABLE
  2
STYLE
  5
3
330
0
100
AcDbSymbolTable
 70
     2
  0
STYLE
  5
11
330
3
100
AcDbSymbolTableRecord
100
AcDbTextStyleTableRecord
  2
STANDARD
 70
     0
 40
0.0
 41
1.0
 50
0.0
 71
     0
 42
2.0
  3
txt.shx
  4
bigfont.shx
  0
STYLE
  5
42
330
3
100
AcDbSymbolTableRecord
100
AcDbTextStyleTableRecord
  2
STANDARD1
 70
     0
 40
0.0
 41
1.0
 50
0.0
 71
     0
 42
5.0
  3
MONOTXT
  4
BIGFONT
  0
ENDTAB
  0
TABLE
  2
VIEW
  5
6
330
0
100
AcDbSymbolTable
 70
     3
  0
VIEW
  5
230C
330
6
100
AcDbSymbolTableRecord
100
AcDbViewTableRecord
  2
OLE1
 70
     0
 40
148.9124878027714
 10
429.4976280407222
 20
2.560626997828478
 41
103.1458057716444
 11
0.0
 21
0.0
 31
1.0
 12
0.0
 22
0.0
 32
0.0
 42
50.0
 43
0.0
 44
0.0
 50
0.0
 71
     0
281
     0
 72
     0
  0
VIEW
  5
230E
330
6
100
AcDbSymbolTableRecord
100
AcDbViewTableRecord
  2
OLE2
 70
     0
 40
170.7786920545775
 10
322.664969958371
 20
-5.978304054290276
 41
102.4672152327465
 11
0.0
 21
0.0
 31
1.0
 12
0.0
 22
0.0
 32
0.0
 42
50.0
 43
0.0
 44
0.0
 50
0.0
 71
     0
281
     0
 72
     0
  0
VIEW
  5
23AA
330
6
100
AcDbSymbolTableRecord
100
AcDbViewTableRecord
  2
OLE3
 70
     0
 40
591.7897393182231
 10
84.79698158148218
 20
-46.09336010803995
 41
388.7920961799953
 11
0.0
 21
0.0
 31
1.0
 12
0.0
 22
0.0
 32
0.0
 42
50.0
 43
0.0
 44
0.0
 50
0.0
 71
     0
281
     0
 72
     0
  0
ENDTAB
  0
TABLE
  2
UCS
  5
7
330
0
100
AcDbSymbolTable
 70
     0
  0
ENDTAB
  0
TABLE
  2
APPID
  5
9
330
0
100
AcDbSymbolTable
 70
     2
  0
APPID
  5
12
330
9
100
AcDbSymbolTableRecord
100
AcDbRegAppTableRecord
  2
ACAD
 70
     0
  0
APPID
  5
ECD
330
9
100
AcDbSymbolTableRecord
100
AcDbRegAppTableRecord
  2
CONTENTBLOCKICON
 70
     0
  0
ENDTAB
  0
TABLE
  2
DIMSTYLE
  5
A
330
0
100
AcDbSymbolTable
 70
     2
100
AcDbDimStyleTable
 71
     2
340
9742
340
175
  0
DIMSTYLE
105
175
102
{ACAD_REACTORS
330
13617
102
}
330
A
100
AcDbSymbolTableRecord
100
AcDbDimStyleTableRecord
  2
STANDARD
 70
     0
 41
2.0
 42
1.0
 43
0.5
 44
0.5
 73
     0
 77
     3
 78
    12
140
5.0
147
1.0
271
     1
272
     1
340
11
341
3B2
342
3B2
  0
DIMSTYLE
105
9742
102
{ACAD_REACTORS
330
115E3
330
115E5
330
115E4
330
115E6
330
10DD9
330
10DF0
330
10E62
330
10E6B
330
10E4B
330
10E4C
330
11673
330
11FD1
330
11FD0
330
1200E
330
120B4
330
120B5
330
12F28
330
12F29
330
12F2D
330
12F2E
330
13491
330
13C2A
330
13C37
330
13A62
330
13A66
330
13A65
330
13A63
330
13A64
330
13A61
330
13A6E
330
13DF8
330
141EF
330
13685
330
147BA
330
14899
330
14975
330
149C2
330
149C3
330
149C4
330
149C5
102
}
330
A
100
AcDbSymbolTableRecord
100
AcDbDimStyleTableRecord
  2
STANDARD1
 70
     0
 41
2.0
 42
3.0
 43
0.5
 44
0.5
 73
     0
 77
     3
 78
    12
140
6.0
147
3.0
271
     1
272
     1
289
     2
340
11
341
3B2
342
3B2
  0
ENDTAB
  0
TABLE
  2
BLOCK_RECORD
  5
1
330
0
100
AcDbSymbolTable
 70
    52
  0
BLOCK_RECORD
  5
1E
102
{ACAD_XDICTIONARY
360
178
102
}
330
1
100
AcDbSymbolTableRecord
100
AcDbBlockTableRecord
  2
*MODEL_SPACE
340
7AE4
  0
BLOCK_RECORD
  5
1A
102
{ACAD_XDICTIONARY
360
17A
102
}
330
1
100
AcDbSymbolTableRecord
100
AcDbBlockTableRecord
  2
*PAPER_SPACE
340
7AE5
  0
BLOCK_RECORD
  5
3B2
330
1
100
AcDbSymbolTableRecord
100
AcDbBlockTableRecord
  2
_OPEN
340
0
102
{BLKREFS
331
13737
331
13738
331
13740
331
13741
331
13749
331
1374A
331
13752
331
13753
331
1379A
331
1379B
331
137A3
331
137A4
331
137D0
331
137D1
331
137E2
331
137E3
331
13E31
331
13E32
331
13E43
331
13E44
331
13E4C
331
13E4D
331
13E56
331
13E57
331
13E5F
331
13E60
331
13E68
331
13E69
331
13E71
331
13E72
331
13E7A
331
13E7B
331
13E83
331
13E84
331
13E8C
331
13E8D
331
13E95
331
13E96
331
13E9E
331
13E9F
331
13EA7
331
13EA8
331
140A1
331
140A2
331
1419F
331
141A0
331
141A8
331
141A9
331
141B1
331
141B2
331
141CE
331
141CF
331
14213
331
14214
331
14241
331
14242
331
14798
331
14799
331
147CB
331
147CC
331
1485D
331
1485E
331
1488A
331
1488B
331
14893
331
14894
331
148A9
331
148AA
331
14936
331
14937
331
1493F
331
14945
331
14946
331
1494E
331
1494F
331
14957
331
14958
331
14960
331
14961
331
14969
331
1496A
331
14972
331
1497A
331
1497B
331
1499B
331
1499C
331
149B2
331
149B3
331
149A6
331
149A7
331
1498C
331
1498D
331
149FE
331
149FF
331
14A06
331
14A07
331
14A0F
331
14A10
331
14A18
331
14A19
102
}
  0
BLOCK_RECORD
  5
10ED6
330
1
100
AcDbSymbolTableRecord
100
AcDbBlockTableRecord
  2
*D1
340
0
  0
BLOCK_RECORD
  5
10EEE
330
1
100
AcDbSymbolTableRecord
100
AcDbBlockTableRecord
  2
*D2
340
0
  0
BLOCK_RECORD
  5
10F1D
330
1
100
AcDbSymbolTableRecord
100
AcDbBlockTableRecord
  2
*D3
340
0
  0
BLOCK_RECORD
  5
10F2A
330
1
100
AcDbSymbolTableRecord
100
AcDbBlockTableRecord
  2
*D4
340
0
  0
BLOCK_RECORD
  5
10F73
330
1
100
AcDbSymbolTableRecord
100
AcDbBlockTableRecord
  2
*D5
340
0
  0
BLOCK_RECORD
  5
10F7F
330
1
100
AcDbSymbolTableRecord
100
AcDbBlockTableRecord
  2
*D6
340
0
  0
BLOCK_RECORD
  5
115E8
330
1
100
AcDbSymbolTableRecord
100
AcDbBlockTableRecord
  2
*D7
340
0
  0
BLOCK_RECORD
  5
115F4
330
1
100
AcDbSymbolTableRecord
100
AcDbBlockTableRecord
  2
*D8
340
0
  0
BLOCK_RECORD
  5
11600
330
1
100
AcDbSymbolTableRecord
100
AcDbBlockTableRecord
  2
*D9
340
0
  0
BLOCK_RECORD
  5
1160C
330
1
100
AcDbSymbolTableRecord
100
AcDbBlockTableRecord
  2
*D10
340
0
  0
BLOCK_RECORD
  5
11674
330
1
100
AcDbSymbolTableRecord
100
AcDbBlockTableRecord
  2
*D11
340
0
  0
BLOCK_RECORD
  5
11FD2
330
1
100
AcDbSymbolTableRecord
100
AcDbBlockTableRecord
  2
*D12
340
0
  0
BLOCK_RECORD
  5
11FDE
330
1
100
AcDbSymbolTableRecord
100
AcDbBlockTableRecord
  2
*D13
340
0
  0
BLOCK_RECORD
  5
1200F
330
1
100
AcDbSymbolTableRecord
100
AcDbBlockTableRecord
  2
*D14
340
0
  0
BLOCK_RECORD
  5
120B6
330
1
100
AcDbSymbolTableRecord
100
AcDbBlockTableRecord
  2
*D15
340
0
  0
BLOCK_RECORD
  5
120C2
330
1
100
AcDbSymbolTableRecord
100
AcDbBlockTableRecord
  2
*D16
340
0
  0
BLOCK_RECORD
  5
12F31
330
1
100
AcDbSymbolTableRecord
100
AcDbBlockTableRecord
  2
*D17
340
0
  0
BLOCK_RECORD
  5
12F3D
330
1
100
AcDbSymbolTableRecord
100
AcDbBlockTableRecord
  2
*D18
340
0
  0
BLOCK_RECORD
  5
12F6D
330
1
100
AcDbSymbolTableRecord
100
AcDbBlockTableRecord
  2
*D19
340
0
  0
BLOCK_RECORD
  5
12F79
330
1
100
AcDbSymbolTableRecord
100
AcDbBlockTableRecord
  2
*D20
340
0
  0
BLOCK_RECORD
  5
12F85
330
1
100
AcDbSymbolTableRecord
100
AcDbBlockTableRecord
  2
*D21
340
0
  0
BLOCK_RECORD
  5
12F91
330
1
100
AcDbSymbolTableRecord
100
AcDbBlockTableRecord
  2
*D22
340
0
  0
BLOCK_RECORD
  5
133CF
330
1
100
AcDbSymbolTableRecord
100
AcDbBlockTableRecord
  2
*D23
340
0
  0
BLOCK_RECORD
  5
13492
330
1
100
AcDbSymbolTableRecord
100
AcDbBlockTableRecord
  2
*D24
340
0
  0
BLOCK_RECORD
  5
134C2
330
1
100
AcDbSymbolTableRecord
100
AcDbBlockTableRecord
  2
*D25
340
0
  0
BLOCK_RECORD
  5
1368D
330
1
100
AcDbSymbolTableRecord
100
AcDbBlockTableRecord
  2
*D26
340
0
  0
BLOCK_RECORD
  5
136BD
330
1
100
AcDbSymbolTableRecord
100
AcDbBlockTableRecord
  2
*D27
340
0
  0
BLOCK_RECORD
  5
136C9
330
1
100
AcDbSymbolTableRecord
100
AcDbBlockTableRecord
  2
*D28
340
0
  0
BLOCK_RECORD
  5
136D5
330
1
100
AcDbSymbolTableRecord
100
AcDbBlockTableRecord
  2
*D29
340
0
  0
BLOCK_RECORD
  5
13AB7
330
1
100
AcDbSymbolTableRecord
100
AcDbBlockTableRecord
  2
*D30
340
0
  0
BLOCK_RECORD
  5
13AC3
330
1
100
AcDbSymbolTableRecord
100
AcDbBlockTableRecord
  2
*D31
340
0
  0
BLOCK_RECORD
  5
13ACF
330
1
100
AcDbSymbolTableRecord
100
AcDbBlockTableRecord
  2
*D32
340
0
  0
BLOCK_RECORD
  5
13ADB
330
1
100
AcDbSymbolTableRecord
100
AcDbBlockTableRecord
  2
*D33
340
0
  0
BLOCK_RECORD
  5
13AE8
330
1
100
AcDbSymbolTableRecord
100
AcDbBlockTableRecord
  2
*D34
340
0
  0
BLOCK_RECORD
  5
13AF4
330
1
100
AcDbSymbolTableRecord
100
AcDbBlockTableRecord
  2
*D35
340
0
  0
BLOCK_RECORD
  5
13B0C
330
1
100
AcDbSymbolTableRecord
100
AcDbBlockTableRecord
  2
*D36
340
0
  0
BLOCK_RECORD
  5
13C2B
330
1
100
AcDbSymbolTableRecord
100
AcDbBlockTableRecord
  2
*D37
340
0
  0
BLOCK_RECORD
  5
13C38
330
1
100
AcDbSymbolTableRecord
100
AcDbBlockTableRecord
  2
*D38
340
0
  0
BLOCK_RECORD
  5
13DF9
330
1
100
AcDbSymbolTableRecord
100
AcDbBlockTableRecord
  2
*D39
340
0
  0
BLOCK_RECORD
  5
141F0
330
1
100
AcDbSymbolTableRecord
100
AcDbBlockTableRecord
  2
*D40
340
0
  0
BLOCK_RECORD
  5
147BB
330
1
100
AcDbSymbolTableRecord
100
AcDbBlockTableRecord
  2
*D41
340
0
  0
BLOCK_RECORD
  5
1489A
330
1
100
AcDbSymbolTableRecord
100
AcDbBlockTableRecord
  2
*D42
340
0
  0
BLOCK_RECORD
  5
14976
330
1
100
AcDbSymbolTableRecord
100
AcDbBlockTableRecord
  2
*D43
340
0
  0
BLOCK_RECORD
  5
149C6
330
1
100
AcDbSymbolTableRecord
100
AcDbBlockTableRecord
  2
*D48
340
0
  0
BLOCK_RECORD
  5
149D4
330
1
100
AcDbSymbolTableRecord
100
AcDbBlockTableRecord
  2
*D49
340
0
  0
BLOCK_RECORD
  5
149E0
330
1
100
AcDbSymbolTableRecord
100
AcDbBlockTableRecord
  2
*D50
340
0
  0
BLOCK_RECORD
  5
149EC
330
1
100
AcDbSymbolTableRecord
100
AcDbBlockTableRecord
  2
*D51
340
0
  0
ENDTAB
  0
ENDSEC
  0
SECTION
  2
BLOCKS
  0
BLOCK
  5
1F
330
1E
100
AcDbEntity
  8
0
100
AcDbBlockBegin
  2
*MODEL_SPACE
 70
     0
 10
0.0
 20
0.0
 30
0.0
  3
*MODEL_SPACE
  1

  0
ENDBLK
  5
20
330
1E
100
AcDbEntity
  8
0
100
AcDbBlockEnd
  0
BLOCK
  5
1B
330
1A
100
AcDbEntity
 67
     1
  8
0
100
AcDbBlockBegin
  2
*PAPER_SPACE
 70
     0
 10
0.0
 20
0.0
 30
0.0
  3
*PAPER_SPACE
  1

  0
ENDBLK
  5
1C
330
1A
100
AcDbEntity
 67
     1
  8
0
100
AcDbBlockEnd
  0
BLOCK
  5
3B6
330
3B2
100
AcDbEntity
  8
0
100
AcDbBlockBegin
  2
_OPEN
 70
     0
 10
0.0
 20
0.0
 30
0.0
  3
_OPEN
  1

  0
LINE
  5
3B3
330
3B2
100
AcDbEntity
  8
30
  6
Continuous
 62
     0
100
AcDbLine
 10
-1.0
 20
0.1666666666666666
 30
0.0
 11
0.0
 21
0.0
 31
0.0
  0
LINE
  5
3B4
330
3B2
100
AcDbEntity
  8
30
  6
Continuous
 62
     0
100
AcDbLine
 10
-1.0
 20
-0.1666666666666666
 30
0.0
 11
0.0
 21
0.0
 31
0.0
  0
LINE
  5
3B5
330
3B2
100
AcDbEntity
  8
30
  6
Continuous
 62
     0
100
AcDbLine
 10
0.0
 20
0.0
 30
0.0
 11
-1.0
 21
0.0
 31
0.0
  0
ENDBLK
  5
3B7
330
3B2
100
AcDbEntity
  8
0
100
AcDbBlockEnd
  0
BLOCK
  5
10EE0
330
10ED6
100
AcDbEntity
  8
0
100
AcDbBlockBegin
  2
*D1
 70
     1
 10
0.0
 20
0.0
 30
0.0
  3
*D1
  1

  0
LINE
  5
14890
330
10ED6
100
AcDbEntity
  8
30
  6
Continuous
 62
     0
370
    -2
100
AcDbLine
 10
-70.0
 20
-267.5000000000004
 30
0.0
 11
-70.0
 21
-290.4198416280937
 31
0.0
  0
LINE
  5
14891
330
10ED6
100
AcDbEntity
  8
30
  6
Continuous
 62
     0
370
    -2
100
AcDbLine
 10
-0.0000000000000002
 20
-252.9999999999998
 30
0.0
 11
-0.0000000000000025
 21
-290.4198416280937
 31
0.0
  0
LINE
  5
14892
330
10ED6
100
AcDbEntity
  8
30
  6
Continuous
 62
     0
370
    -2
100
AcDbLine
 10
-68.0
 20
-289.9198416280937
 30
0.0
 11
-2.000000000000002
 21
-289.9198416280937
 31
0.0
  0
INSERT
  5
14893
330
10ED6
100
AcDbEntity
  8
30
  6
Continuous
 62
     0
370
    -2
100
AcDbBlockReference
  2
_OPEN
 10
-70.0
 20
-289.9198416280937
 30
0.0
 41
2.0
 42
2.0
 43
2.0
 50
180.0
  0
INSERT
  5
14894
330
10ED6
100
AcDbEntity
  8
30
  6
Continuous
 62
     0
370
    -2
100
AcDbBlockReference
  2
_OPEN
 10
-0.0000000000000024
 20
-289.9198416280937
 30
0.0
 41
2.0
 42
2.0
 43
2.0
  0
MTEXT
  5
14895
330
10ED6
100
AcDbEntity
  8
30
  6
Continuous
 62
     0
100
AcDbMText
 10
-35.0
 20
-283.9198416280937
 30
0.0
 40
6.0
 41
0.0
 71
     5
 72
     1
  1
\A1; 70 
 73
     1
 44
1.0
  0
POINT
  5
14896
330
10ED6
100
AcDbEntity
  8
DEFPOINTS
  6
Continuous
 62
     0
100
AcDbPoint
 10
-70.0
 20
-264.5000000000004
 30
0.0
  0
POINT
  5
14897
330
10ED6
100
AcDbEntity
  8
DEFPOINTS
  6
Continuous
 62
     0
100
AcDbPoint
 10
0.0
 20
-249.9999999999999
 30
0.0
  0
POINT
  5
14898
330
10ED6
100
AcDbEntity
  8
DEFPOINTS
  6
Continuous
 62
     0
100
AcDbPoint
 10
-0.0000000000000024
 20
-289.9198416280937
 30
0.0
  0
ENDBLK
  5
10EE1
330
10ED6
100
AcDbEntity
  8
0
100
AcDbBlockEnd
  0
BLOCK
  5
10EF8
330
10EEE
100
AcDbEntity
  8
0
100
AcDbBlockBegin
  2
*D2
 70
     1
 10
0.0
 20
0.0
 30
0.0
  3
*D2
  1

  0
LINE
  5
1485A
330
10EEE
100
AcDbEntity
  8
30
  6
Continuous
 62
     0
370
    -2
100
AcDbLine
 10
47.5
 20
-252.9999999999998
 30
0.0
 11
47.5
 21
-270.3945311999282
 31
0.0
  0
LINE
  5
1485B
330
10EEE
100
AcDbEntity
  8
30
  6
Continuous
 62
     0
370
    -2
100
AcDbLine
 10
92.5
 20
-252.9999999999998
 30
0.0
 11
92.5
 21
-270.3945311999282
 31
0.0
  0
LINE
  5
1485C
330
10EEE
100
AcDbEntity
  8
30
  6
Continuous
 62
     0
370
    -2
100
AcDbLine
 10
49.50000000000001
 20
-269.8945311999282
 30
0.0
 11
90.5
 21
-269.8945311999282
 31
0.0
  0
INSERT
  5
1485D
330
10EEE
100
AcDbEntity
  8
30
  6
Continuous
 62
     0
370
    -2
100
AcDbBlockReference
  2
_OPEN
 10
47.5
 20
-269.8945311999282
 30
0.0
 41
2.0
 42
2.0
 43
2.0
 50
180.0
  0
INSERT
  5
1485E
330
10EEE
100
AcDbEntity
  8
30
  6
Continuous
 62
     0
370
    -2
100
AcDbBlockReference
  2
_OPEN
 10
92.5
 20
-269.8945311999282
 30
0.0
 41
2.0
 42
2.0
 43
2.0
  0
MTEXT
  5
1485F
330
10EEE
100
AcDbEntity
  8
30
  6
Continuous
 62
     0
100
AcDbMText
 10
70.0
 20
-263.8945311999282
 30
0.0
 40
6.0
 41
0.0
 71
     5
 72
     1
  1
\A1; 45 
 73
     1
 44
1.0
  0
POINT
  5
14860
330
10EEE
100
AcDbEntity
  8
DEFPOINTS
  6
Continuous
 62
     0
100
AcDbPoint
 10
47.5
 20
-249.9999999999999
 30
0.0
  0
POINT
  5
14861
330
10EEE
100
AcDbEntity
  8
DEFPOINTS
  6
Continuous
 62
     0
100
AcDbPoint
 10
92.5
 20
-249.9999999999999
 30
0.0
  0
POINT
  5
14862
330
10EEE
100
AcDbEntity
  8
DEFPOINTS
  6
Continuous
 62
     0
100
AcDbPoint
 10
92.5
 20
-269.8945311999282
 30
0.0
  0
ENDBLK
  5
10EF9
330
10EEE
100
AcDbEntity
  8
0
100
AcDbBlockEnd
  0
BLOCK
  5
10F28
330
10F1D
100
AcDbEntity
  8
0
100
AcDbBlockBegin
  2
*D3
 70
     1
 10
0.0
 20
0.0
 30
0.0
  3
*D3
  1

  0
LINE
  5
13E40
330
10F1D
100
AcDbEntity
  8
30
  6
Continuous
 62
     0
370
    -2
100
AcDbLine
 10
284.1000000000012
 20
-0.0000000000009086
 30
0.0
 11
279.5000000000003
 21
-0.0000000000009073
 31
0.0
  0
LINE
  5
13E41
330
10F1D
100
AcDbEntity
  8
30
  6
Continuous
 62
     0
370
    -2
100
AcDbLine
 10
352.0000000000009
 20
169.999999999999
 30
0.0
 11
279.5000000000004
 21
169.9999999999991
 31
0.0
  0
LINE
  5
13E42
330
10F1D
100
AcDbEntity
  8
30
  6
Continuous
 62
     0
370
    -2
100
AcDbLine
 10
280.0000000000003
 20
1.999999999999092
 30
0.0
 11
280.0000000000004
 21
167.9999999999991
 31
0.0
  0
INSERT
  5
13E43
330
10F1D
100
AcDbEntity
  8
30
  6
Continuous
 62
     0
370
    -2
100
AcDbBlockReference
  2
_OPEN
 10
280.0000000000003
 20
-0.0000000000009075
 30
0.0
 41
2.0
 42
2.0
 43
2.0
 50
270.0
  0
INSERT
  5
13E44
330
10F1D
100
AcDbEntity
  8
30
  6
Continuous
 62
     0
370
    -2
100
AcDbBlockReference
  2
_OPEN
 10
280.0000000000004
 20
169.9999999999991
 30
0.0
 41
2.0
 42
2.0
 43
2.0
 50
90.0
  0
MTEXT
  5
13E45
330
10F1D
100
AcDbEntity
  8
30
  6
Continuous
 62
     0
100
AcDbMText
 10
274.0000000000004
 20
84.99999999999914
 30
0.0
 40
6.0
 41
0.0
 71
     5
 72
     1
  1
\A1; 170 
 11
0.0000000000000001
 21
1.0
 31
0.0
 73
     1
 44
1.0
  0
POINT
  5
13E46
330
10F1D
100
AcDbEntity
  8
DEFPOINTS
  6
Continuous
 62
     0
100
AcDbPoint
 10
287.1000000000012
 20
-0.0000000000009095
 30
0.0
  0
POINT
  5
13E47
330
10F1D
100
AcDbEntity
  8
DEFPOINTS
  6
Continuous
 62
     0
100
AcDbPoint
 10
355.0000000000009
 20
169.999999999999
 30
0.0
  0
POINT
  5
13E48
330
10F1D
100
AcDbEntity
  8
DEFPOINTS
  6
Continuous
 62
     0
100
AcDbPoint
 10
280.0000000000004
 20
169.9999999999991
 30
0.0
  0
ENDBLK
  5
10F29
330
10F1D
100
AcDbEntity
  8
0
100
AcDbBlockEnd
  0
BLOCK
  5
10F35
330
10F2A
100
AcDbEntity
  8
0
100
AcDbBlockBegin
  2
*D4
 70
     1
 10
0.0
 20
0.0
 30
0.0
  3
*D4
  1

  0
LINE
  5
13E49
330
10F2A
100
AcDbEntity
  8
30
  6
Continuous
 62
     0
370
    -2
100
AcDbLine
 10
352.0000000000009
 20
-140.0000000000009
 30
0.0
 11
279.5000000000003
 21
-140.0000000000008
 31
0.0
  0
LINE
  5
13E4A
330
10F2A
100
AcDbEntity
  8
30
  6
Continuous
 62
     0
370
    -2
100
AcDbLine
 10
289.1000000000012
 20
-0.0000000000009086
 30
0.0
 11
279.5000000000004
 21
-0.0000000000009059
 31
0.0
  0
LINE
  5
13E4B
330
10F2A
100
AcDbEntity
  8
30
  6
Continuous
 62
     0
370
    -2
100
AcDbLine
 10
280.0000000000003
 20
-138.0000000000008
 30
0.0
 11
280.0000000000004
 21
-2.000000000000905
 31
0.0
  0
INSERT
  5
13E4C
330
10F2A
100
AcDbEntity
  8
30
  6
Continuous
 62
     0
370
    -2
100
AcDbBlockReference
  2
_OPEN
 10
280.0000000000003
 20
-140.0000000000008
 30
0.0
 41
2.0
 42
2.0
 43
2.0
 50
270.0
  0
INSERT
  5
13E4D
330
10F2A
100
AcDbEntity
  8
30
  6
Continuous
 62
     0
370
    -2
100
AcDbBlockReference
  2
_OPEN
 10
280.0000000000004
 20
-0.0000000000009061
 30
0.0
 41
2.0
 42
2.0
 43
2.0
 50
90.0
  0
MTEXT
  5
13E4E
330
10F2A
100
AcDbEntity
  8
30
  6
Continuous
 62
     0
100
AcDbMText
 10
274.0000000000004
 20
-70.00000000000085
 30
0.0
 40
6.0
 41
0.0
 71
     5
 72
     1
  1
\A1; 140 
 11
0.0000000000000001
 21
1.0
 31
0.0
 73
     1
 44
1.0
  0
POINT
  5
13E4F
330
10F2A
100
AcDbEntity
  8
DEFPOINTS
  6
Continuous
 62
     0
100
AcDbPoint
 10
355.0000000000009
 20
-140.0000000000009
 30
0.0
  0
POINT
  5
13E50
330
10F2A
100
AcDbEntity
  8
DEFPOINTS
  6
Continuous
 62
     0
100
AcDbPoint
 10
292.1000000000012
 20
-0.0000000000009095
 30
0.0
  0
POINT
  5
13E51
330
10F2A
100
AcDbEntity
  8
DEFPOINTS
  6
Continuous
 62
     0
100
AcDbPoint
 10
280.0000000000004
 20
-0.0000000000009061
 30
0.0
  0
ENDBLK
  5
10F36
330
10F2A
100
AcDbEntity
  8
0
100
AcDbBlockEnd
  0
BLOCK
  5
10F7D
330
10F73
100
AcDbEntity
  8
0
100
AcDbBlockBegin
  2
*D5
 70
     1
 10
0.0
 20
0.0
 30
0.0
  3
*D5
  1

  0
LINE
  5
13E89
330
10F73
100
AcDbEntity
  8
30
  6
Continuous
 62
     0
370
    -2
100
AcDbLine
 10
451.0000000000004
 20
-252.9999999999998
 30
0.0
 11
451.0000000000004
 21
-280.4999999999999
 31
0.0
  0
LINE
  5
13E8A
330
10F73
100
AcDbEntity
  8
30
  6
Continuous
 62
     0
370
    -2
100
AcDbLine
 10
480.0000000000004
 20
-178.0000000000008
 30
0.0
 11
480.0000000000004
 21
-280.4999999999999
 31
0.0
  0
LINE
  5
13E8B
330
10F73
100
AcDbEntity
  8
30
  6
Continuous
 62
     0
370
    -2
100
AcDbLine
 10
453.0000000000004
 20
-279.9999999999999
 30
0.0
 11
478.0000000000004
 21
-279.9999999999999
 31
0.0
  0
INSERT
  5
13E8C
330
10F73
100
AcDbEntity
  8
30
  6
Continuous
 62
     0
370
    -2
100
AcDbBlockReference
  2
_OPEN
 10
451.0000000000004
 20
-279.9999999999999
 30
0.0
 41
2.0
 42
2.0
 43
2.0
 50
180.0
  0
INSERT
  5
13E8D
330
10F73
100
AcDbEntity
  8
30
  6
Continuous
 62
     0
370
    -2
100
AcDbBlockReference
  2
_OPEN
 10
480.0000000000004
 20
-279.9999999999999
 30
0.0
 41
2.0
 42
2.0
 43
2.0
  0
MTEXT
  5
13E8E
330
10F73
100
AcDbEntity
  8
30
  6
Continuous
 62
     0
100
AcDbMText
 10
465.5000000000004
 20
-273.9999999999999
 30
0.0
 40
6.0
 41
0.0
 71
     5
 72
     1
  1
\A1; 29 
 73
     1
 44
1.0
  0
POINT
  5
13E8F
330
10F73
100
AcDbEntity
  8
DEFPOINTS
  6
Continuous
 62
     0
100
AcDbPoint
 10
451.0000000000004
 20
-249.9999999999999
 30
0.0
  0
POINT
  5
13E90
330
10F73
100
AcDbEntity
  8
DEFPOINTS
  6
Continuous
 62
     0
100
AcDbPoint
 10
480.0000000000004
 20
-175.0000000000007
 30
0.0
  0
POINT
  5
13E91
330
10F73
100
AcDbEntity
  8
DEFPOINTS
  6
Continuous
 62
     0
100
AcDbPoint
 10
480.0000000000004
 20
-279.9999999999999
 30
0.0
  0
ENDBLK
  5
10F7E
330
10F73
100
AcDbEntity
  8
0
100
AcDbBlockEnd
  0
BLOCK
  5
10F89
330
10F7F
100
AcDbEntity
  8
0
100
AcDbBlockBegin
  2
*D6
 70
     1
 10
0.0
 20
0.0
 30
0.0
  3
*D6
  1

  0
LINE
  5
13E92
330
10F7F
100
AcDbEntity
  8
30
  6
Continuous
 62
     0
370
    -2
100
AcDbLine
 10
437.0000000000004
 20
-252.9999999999998
 30
0.0
 11
437.0000000000004
 21
-280.4999999999999
 31
0.0
  0
LINE
  5
13E93
330
10F7F
100
AcDbEntity
  8
30
  6
Continuous
 62
     0
370
    -2
100
AcDbLine
 10
451.0000000000004
 20
-252.9999999999998
 30
0.0
 11
451.0000000000004
 21
-280.4999999999999
 31
0.0
  0
LINE
  5
13E94
330
10F7F
100
AcDbEntity
  8
30
  6
Continuous
 62
     0
370
    -2
100
AcDbLine
 10
439.0000000000005
 20
-279.9999999999999
 30
0.0
 11
449.0000000000004
 21
-279.9999999999999
 31
0.0
  0
INSERT
  5
13E95
330
10F7F
100
AcDbEntity
  8
30
  6
Continuous
 62
     0
370
    -2
100
AcDbBlockReference
  2
_OPEN
 10
437.0000000000004
 20
-279.9999999999999
 30
0.0
 41
2.0
 42
2.0
 43
2.0
 50
180.0
  0
INSERT
  5
13E96
330
10F7F
100
AcDbEntity
  8
30
  6
Continuous
 62
     0
370
    -2
100
AcDbBlockReference
  2
_OPEN
 10
451.0000000000004
 20
-279.9999999999999
 30
0.0
 41
2.0
 42
2.0
 43
2.0
  0
MTEXT
  5
13E97
330
10F7F
100
AcDbEntity
  8
30
  6
Continuous
 62
     0
100
AcDbMText
 10
444.0
 20
-273.9999999999999
 30
0.0
 40
6.0
 41
0.0
 71
     5
 72
     1
  1
\A1;14 
 73
     1
 44
1.0
  0
POINT
  5
13E98
330
10F7F
100
AcDbEntity
  8
DEFPOINTS
  6
Continuous
 62
     0
100
AcDbPoint
 10
437.0000000000004
 20
-249.9999999999999
 30
0.0
  0
POINT
  5
13E99
330
10F7F
100
AcDbEntity
  8
DEFPOINTS
  6
Continuous
 62
     0
100
AcDbPoint
 10
451.0000000000004
 20
-249.9999999999999
 30
0.0
  0
POINT
  5
13E9A
330
10F7F
100
AcDbEntity
  8
DEFPOINTS
  6
Continuous
 62
     0
100
AcDbPoint
 10
451.0000000000004
 20
-279.9999999999999
 30
0.0
  0
ENDBLK
  5
10F8A
330
10F7F
100
AcDbEntity
  8
0
100
AcDbBlockEnd
  0
BLOCK
  5
115F2
330
115E8
100
AcDbEntity
  8
0
100
AcDbBlockBegin
  2
*D7
 70
     1
 10
0.0
 20
0.0
 30
0.0
  3
*D7
  1

  0
LINE
  5
141A5
330
115E8
100
AcDbEntity
  8
30
  6
Continuous
 62
     0
370
    -2
100
AcDbLine
 10
-0.0000000000000036
 20
514.0
 30
0.0
 11
-0.0000000000000001
 21
571.4999999999998
 31
0.0
  0
LINE
  5
141A6
330
115E8
100
AcDbEntity
  8
30
  6
Continuous
 62
     0
370
    -2
100
AcDbLine
 10
69.99794894980687
 20
514.0
 30
0.0
 11
69.99794894980687
 21
571.4999999999998
 31
0.0
  0
LINE
  5
141A7
330
115E8
100
AcDbEntity
  8
30
  6
Continuous
 62
     0
370
    -2
100
AcDbLine
 10
1.999999999999999
 20
570.9999999999998
 30
0.0
 11
67.99794894980687
 21
570.9999999999998
 31
0.0
  0
INSERT
  5
141A8
330
115E8
100
AcDbEntity
  8
30
  6
Continuous
 62
     0
370
    -2
100
AcDbBlockReference
  2
_OPEN
 10
-0.0000000000000001
 20
570.9999999999998
 30
0.0
 41
2.0
 42
2.0
 43
2.0
 50
180.0
  0
INSERT
  5
141A9
330
115E8
100
AcDbEntity
  8
30
  6
Continuous
 62
     0
370
    -2
100
AcDbBlockReference
  2
_OPEN
 10
69.99794894980687
 20
570.9999999999998
 30
0.0
 41
2.0
 42
2.0
 43
2.0
  0
MTEXT
  5
141AA
330
115E8
100
AcDbEntity
  8
30
  6
Continuous
 62
     0
100
AcDbMText
 10
34.99897447490343
 20
576.9999999999997
 30
0.0
 40
6.0
 41
0.0
 71
     5
 72
     1
  1
\A1;70
 73
     1
 44
1.0
  0
POINT
  5
141AB
330
115E8
100
AcDbEntity
  8
DEFPOINTS
  6
Continuous
 62
     0
100
AcDbPoint
 10
-0.0000000000000038
 20
511.0
 30
0.0
  0
POINT
  5
141AC
330
115E8
100
AcDbEntity
  8
DEFPOINTS
  6
Continuous
 62
     0
100
AcDbPoint
 10
69.99794894980687
 20
511.0
 30
0.0
  0
POINT
  5
141AD
330
115E8
100
AcDbEntity
  8
DEFPOINTS
  6
Continuous
 62
     0
100
AcDbPoint
 10
69.99794894980687
 20
570.9999999999998
 30
0.0
  0
ENDBLK
  5
115F3
330
115E8
100
AcDbEntity
  8
0
100
AcDbBlockEnd
  0
BLOCK
  5
115FE
330
115F4
100
AcDbEntity
  8
0
100
AcDbBlockBegin
  2
*D8
 70
     1
 10
0.0
 20
0.0
 30
0.0
  3
*D8
  1

  0
LINE
  5
141AE
330
115F4
100
AcDbEntity
  8
30
  6
Continuous
 62
     0
370
    -2
100
AcDbLine
 10
-70.0
 20
514.0
 30
0.0
 11
-70.0
 21
571.4999999999998
 31
0.0
  0
LINE
  5
141AF
330
115F4
100
AcDbEntity
  8
30
  6
Continuous
 62
     0
370
    -2
100
AcDbLine
 10
-0.0000000000000036
 20
514.0
 30
0.0
 11
-0.0000000000000001
 21
571.4999999999998
 31
0.0
  0
LINE
  5
141B0
330
115F4
100
AcDbEntity
  8
30
  6
Continuous
 62
     0
370
    -2
100
AcDbLine
 10
-68.0
 20
570.9999999999998
 30
0.0
 11
-2.0
 21
570.9999999999998
 31
0.0
  0
INSERT
  5
141B1
330
115F4
100
AcDbEntity
  8
30
  6
Continuous
 62
     0
370
    -2
100
AcDbBlockReference
  2
_OPEN
 10
-70.0
 20
570.9999999999998
 30
0.0
 41
2.0
 42
2.0
 43
2.0
 50
180.0
  0
INSERT
  5
141B2
330
115F4
100
AcDbEntity
  8
30
  6
Continuous
 62
     0
370
    -2
100
AcDbBlockReference
  2
_OPEN
 10
-0.0000000000000001
 20
570.9999999999998
 30
0.0
 41
2.0
 42
2.0
 43
2.0
  0
MTEXT
  5
141B3
330
115F4
100
AcDbEntity
  8
30
  6
Continuous
 62
     0
100
AcDbMText
 10
-35.0
 20
576.9999999999997
 30
0.0
 40
6.0
 41
0.0
 71
     5
 72
     1
  1
\A1;70
 73
     1
 44
1.0
  0
POINT
  5
141B4
330
115F4
100
AcDbEntity
  8
DEFPOINTS
  6
Continuous
 62
     0
100
AcDbPoint
 10
-70.0
 20
511.0
 30
0.0
  0
POINT
  5
141B5
330
115F4
100
AcDbEntity
  8
DEFPOINTS
  6
Continuous
 62
     0
100
AcDbPoint
 10
-0.0000000000000038
 20
511.0
 30
0.0
  0
POINT
  5
141B6
330
115F4
100
AcDbEntity
  8
DEFPOINTS
  6
Continuous
 62
     0
100
AcDbPoint
 10
-0.0000000000000001
 20
570.9999999999998
 30
0.0
  0
ENDBLK
  5
115FF
330
115F4
100
AcDbEntity
  8
0
100
AcDbBlockEnd
  0
BLOCK
  5
1160A
330
11600
100
AcDbEntity
  8
0
100
AcDbBlockBegin
  2
*D9
 70
     1
 10
0.0
 20
0.0
 30
0.0
  3
*D9
  1

  0
LINE
  5
1419C
330
11600
100
AcDbEntity
  8
30
  6
Continuous
 62
     0
370
    -2
100
AcDbLine
 10
-105.0020510501931
 20
545.0
 30
0.0
 11
-105.0020510501931
 21
571.4999999999998
 31
0.0
  0
LINE
  5
1419D
330
11600
100
AcDbEntity
  8
30
  6
Continuous
 62
     0
370
    -2
100
AcDbLine
 10
-70.0
 20
514.0
 30
0.0
 11
-70.0
 21
571.4999999999998
 31
0.0
  0
LINE
  5
1419E
330
11600
100
AcDbEntity
  8
30
  6
Continuous
 62
     0
370
    -2
100
AcDbLine
 10
-103.0020510501931
 20
570.9999999999998
 30
0.0
 11
-72.0
 21
570.9999999999998
 31
0.0
  0
INSERT
  5
1419F
330
11600
100
AcDbEntity
  8
30
  6
Continuous
 62
     0
370
    -2
100
AcDbBlockReference
  2
_OPEN
 10
-105.0020510501931
 20
570.9999999999998
 30
0.0
 41
2.0
 42
2.0
 43
2.0
 50
180.0
  0
INSERT
  5
141A0
330
11600
100
AcDbEntity
  8
30
  6
Continuous
 62
     0
370
    -2
100
AcDbBlockReference
  2
_OPEN
 10
-70.0
 20
570.9999999999998
 30
0.0
 41
2.0
 42
2.0
 43
2.0
  0
MTEXT
  5
141A1
330
11600
100
AcDbEntity
  8
30
  6
Continuous
 62
     0
100
AcDbMText
 10
-87.50102552509657
 20
576.9999999999997
 30
0.0
 40
6.0
 41
0.0
 71
     5
 72
     1
  1
\A1;35
 73
     1
 44
1.0
  0
POINT
  5
141A2
330
11600
100
AcDbEntity
  8
DEFPOINTS
  6
Continuous
 62
     0
100
AcDbPoint
 10
-105.0020510501931
 20
542.0
 30
0.0
  0
POINT
  5
141A3
330
11600
100
AcDbEntity
  8
DEFPOINTS
  6
Continuous
 62
     0
100
AcDbPoint
 10
-70.0
 20
511.0
 30
0.0
  0
POINT
  5
141A4
330
11600
100
AcDbEntity
  8
DEFPOINTS
  6
Continuous
 62
     0
100
AcDbPoint
 10
-70.0
 20
570.9999999999998
 30
0.0
  0
ENDBLK
  5
1160B
330
11600
100
AcDbEntity
  8
0
100
AcDbBlockEnd
  0
BLOCK
  5
11616
330
1160C
100
AcDbEntity
  8
0
100
AcDbBlockBegin
  2
*D10
 70
     1
 10
0.0
 20
0.0
 30
0.0
  3
*D10
  1

  0
LINE
  5
141CB
330
1160C
100
AcDbEntity
  8
30
  6
Continuous
 62
     0
370
    -2
100
AcDbLine
 10
69.99794894980687
 20
514.0
 30
0.0
 11
69.99794894980687
 21
571.4999999999996
 31
0.0
  0
LINE
  5
141CC
330
1160C
100
AcDbEntity
  8
30
  6
Continuous
 62
     0
370
    -2
100
AcDbLine
 10
105.0020510501926
 20
545.0
 30
0.0
 11
105.0020510501926
 21
571.4999999999996
 31
0.0
  0
LINE
  5
141CD
330
1160C
100
AcDbEntity
  8
30
  6
Continuous
 62
     0
370
    -2
100
AcDbLine
 10
71.99794894980687
 20
570.9999999999996
 30
0.0
 11
103.0020510501926
 21
570.9999999999996
 31
0.0
  0
INSERT
  5
141CE
330
1160C
100
AcDbEntity
  8
30
  6
Continuous
 62
     0
370
    -2
100
AcDbBlockReference
  2
_OPEN
 10
69.99794894980687
 20
570.9999999999996
 30
0.0
 41
2.0
 42
2.0
 43
2.0
 50
180.0
  0
INSERT
  5
141CF
330
1160C
100
AcDbEntity
  8
30
  6
Continuous
 62
     0
370
    -2
100
AcDbBlockReference
  2
_OPEN
 10
105.0020510501926
 20
570.9999999999996
 30
0.0
 41
2.0
 42
2.0
 43
2.0
  0
MTEXT
  5
141D0
330
1160C
100
AcDbEntity
  8
30
  6
Continuous
 62
     0
100
AcDbMText
 10
87.49999999999976
 20
576.9999999999996
 30
0.0
 40
6.0
 41
0.0
 71
     5
 72
     1
  1
\A1;35
 73
     1
 44
1.0
  0
POINT
  5
141D1
330
1160C
100
AcDbEntity
  8
DEFPOINTS
  6
Continuous
 62
     0
100
AcDbPoint
 10
69.99794894980687
 20
511.0
 30
0.0
  0
POINT
  5
141D2
330
1160C
100
AcDbEntity
  8
DEFPOINTS
  6
Continuous
 62
     0
100
AcDbPoint
 10
105.0020510501926
 20
542.0
 30
0.0
  0
POINT
  5
141D3
330
1160C
100
AcDbEntity
  8
DEFPOINTS
  6
Continuous
 62
     0
100
AcDbPoint
 10
105.0020510501926
 20
570.9999999999996
 30
0.0
  0
ENDBLK
  5
11617
330
1160C
100
AcDbEntity
  8
0
100
AcDbBlockEnd
  0
BLOCK
  5
1167E
330
11674
100
AcDbEntity
  8
0
100
AcDbBlockBegin
  2
*D11
 70
     1
 10
0.0
 20
0.0
 30
0.0
  3
*D11
  1

  0
LINE
  5
1423D
330
11674
100
AcDbEntity
  8
30
  6
Continuous
 62
     0
370
    -2
100
AcDbLine
 10
95.5
 20
511.0
 30
0.0
 11
135.5
 21
510.9999999999999
 31
0.0
  0
LINE
  5
1423E
330
11674
100
AcDbEntity
  8
30
  6
Continuous
 62
     0
370
    -2
100
AcDbLine
 10
110.3999999999978
 20
542.0000000000003
 30
0.0
 11
135.5
 21
542.0000000000003
 31
0.0
  0
LINE
  5
1423F
330
11674
100
AcDbEntity
  8
30
  6
Continuous
 62
     0
370
    -2
100
AcDbLine
 10
135.0
 20
513.0
 30
0.0
 11
135.0
 21
540.0000000000003
 31
0.0
  0
MTEXT
  5
14240
330
11674
100
AcDbEntity
  8
30
  6
Continuous
 62
     0
100
AcDbMText
 10
150.0
 20
521.0
 30
0.0
 40
6.0
 41
0.0
 71
     5
 72
     1
  1
\A1;ON SIDE 31\POFF SIDE 29
 11
0.0000000000000001
 21
1.0
 31
0.0
 73
     1
 44
1.0
  0
INSERT
  5
14241
330
11674
100
AcDbEntity
  8
30
  6
Continuous
 62
     0
370
    -2
100
AcDbBlockReference
  2
_OPEN
 10
135.0
 20
510.9999999999999
 30
0.0
 41
2.0
 42
2.0
 43
2.0
 50
270.0
  0
INSERT
  5
14242
330
11674
100
AcDbEntity
  8
30
  6
Continuous
 62
     0
370
    -2
100
AcDbBlockReference
  2
_OPEN
 10
135.0
 20
542.0000000000003
 30
0.0
 41
2.0
 42
2.0
 43
2.0
 50
90.0
  0
POINT
  5
14243
330
11674
100
AcDbEntity
  8
DEFPOINTS
  6
Continuous
 62
     0
100
AcDbPoint
 10
92.5
 20
511.0
 30
0.0
  0
POINT
  5
14244
330
11674
100
AcDbEntity
  8
DEFPOINTS
  6
Continuous
 62
     0
100
AcDbPoint
 10
107.3999999999978
 20
542.0000000000003
 30
0.0
  0
POINT
  5
14245
330
11674
100
AcDbEntity
  8
DEFPOINTS
  6
Continuous
 62
     0
100
AcDbPoint
 10
135.0
 20
542.0000000000003
 30
0.0
  0
ENDBLK
  5
1167F
330
11674
100
AcDbEntity
  8
0
100
AcDbBlockEnd
  0
BLOCK
  5
11FDC
330
11FD2
100
AcDbEntity
  8
0
100
AcDbBlockBegin
  2
*D12
 70
     1
 10
0.0
 20
0.0
 30
0.0
  3
*D12
  1

  0
LINE
  5
14942
330
11FD2
100
AcDbEntity
  8
30
  6
Continuous
 62
     0
370
    -2
100
AcDbLine
 10
-53.0
 20
-744.0000000000009
 30
0.0
 11
-140.5
 21
-744.0000000000009
 31
0.0
  0
LINE
  5
14943
330
11FD2
100
AcDbEntity
  8
30
  6
Continuous
 62
     0
370
    -2
100
AcDbLine
 10
-120.4711194721603
 20
-590.0
 30
0.0
 11
-140.5
 21
-590.0
 31
0.0
  0
LINE
  5
14944
330
11FD2
100
AcDbEntity
  8
30
  6
Continuous
 62
     0
370
    -2
100
AcDbLine
 10
-140.0
 20
-742.0000000000008
 30
0.0
 11
-140.0
 21
-592.0
 31
0.0
  0
INSERT
  5
14945
330
11FD2
100
AcDbEntity
  8
30
  6
Continuous
 62
     0
370
    -2
100
AcDbBlockReference
  2
_OPEN
 10
-140.0
 20
-744.0000000000009
 30
0.0
 41
2.0
 42
2.0
 43
2.0
 50
270.0
  0
INSERT
  5
14946
330
11FD2
100
AcDbEntity
  8
30
  6
Continuous
 62
     0
370
    -2
100
AcDbBlockReference
  2
_OPEN
 10
-140.0
 20
-590.0
 30
0.0
 41
2.0
 42
2.0
 43
2.0
 50
90.0
  0
MTEXT
  5
14947
330
11FD2
100
AcDbEntity
  8
30
  6
Continuous
 62
     0
100
AcDbMText
 10
-145.9999999999999
 20
-667.0000000000004
 30
0.0
 40
6.0
 41
0.0
 71
     5
 72
     1
  1
\A1; 154 
 11
0.0000000000000001
 21
1.0
 31
0.0
 73
     1
 44
1.0
  0
POINT
  5
14948
330
11FD2
100
AcDbEntity
  8
DEFPOINTS
  6
Continuous
 62
     0
100
AcDbPoint
 10
-50.0
 20
-744.0000000000009
 30
0.0
  0
POINT
  5
14949
330
11FD2
100
AcDbEntity
  8
DEFPOINTS
  6
Continuous
 62
     0
100
AcDbPoint
 10
-117.4711194721603
 20
-590.0
 30
0.0
  0
POINT
  5
1494A
330
11FD2
100
AcDbEntity
  8
DEFPOINTS
  6
Continuous
 62
     0
100
AcDbPoint
 10
-140.0
 20
-590.0
 30
0.0
  0
ENDBLK
  5
11FDD
330
11FD2
100
AcDbEntity
  8
0
100
AcDbBlockEnd
  0
BLOCK
  5
11FE8
330
11FDE
100
AcDbEntity
  8
0
100
AcDbBlockBegin
  2
*D13
 70
     1
 10
0.0
 20
0.0
 30
0.0
  3
*D13
  1

  0
LINE
  5
1495D
330
11FDE
100
AcDbEntity
  8
30
  6
Continuous
 62
     0
370
    -2
100
AcDbLine
 10
-118.0
 20
-590.0
 30
0.0
 11
-140.5
 21
-590.0
 31
0.0
  0
LINE
  5
1495E
330
11FDE
100
AcDbEntity
  8
30
  6
Continuous
 62
     0
370
    -2
100
AcDbLine
 10
-53.0
 20
-405.999999999999
 30
0.0
 11
-140.5
 21
-405.999999999999
 31
0.0
  0
LINE
  5
1495F
330
11FDE
100
AcDbEntity
  8
30
  6
Continuous
 62
     0
370
    -2
100
AcDbLine
 10
-140.0
 20
-588.0
 30
0.0
 11
-140.0
 21
-407.999999999999
 31
0.0
  0
INSERT
  5
14960
330
11FDE
100
AcDbEntity
  8
30
  6
Continuous
 62
     0
370
    -2
100
AcDbBlockReference
  2
_OPEN
 10
-140.0
 20
-590.0
 30
0.0
 41
2.0
 42
2.0
 43
2.0
 50
270.0
  0
INSERT
  5
14961
330
11FDE
100
AcDbEntity
  8
30
  6
Continuous
 62
     0
370
    -2
100
AcDbBlockReference
  2
_OPEN
 10
-140.0
 20
-405.999999999999
 30
0.0
 41
2.0
 42
2.0
 43
2.0
 50
90.0
  0
MTEXT
  5
14962
330
11FDE
100
AcDbEntity
  8
30
  6
Continuous
 62
     0
100
AcDbMText
 10
-145.9999999999999
 20
-497.9999999999995
 30
0.0
 40
6.0
 41
0.0
 71
     5
 72
     1
  1
\A1; 184 
 11
0.0000000000000001
 21
1.0
 31
0.0
 73
     1
 44
1.0
  0
POINT
  5
14963
330
11FDE
100
AcDbEntity
  8
DEFPOINTS
  6
Continuous
 62
     0
100
AcDbPoint
 10
-115.0
 20
-590.0
 30
0.0
  0
POINT
  5
14964
330
11FDE
100
AcDbEntity
  8
DEFPOINTS
  6
Continuous
 62
     0
100
AcDbPoint
 10
-50.0
 20
-405.999999999999
 30
0.0
  0
POINT
  5
14965
330
11FDE
100
AcDbEntity
  8
DEFPOINTS
  6
Continuous
 62
     0
100
AcDbPoint
 10
-140.0
 20
-405.999999999999
 30
0.0
  0
ENDBLK
  5
11FE9
330
11FDE
100
AcDbEntity
  8
0
100
AcDbBlockEnd
  0
BLOCK
  5
12019
330
1200F
100
AcDbEntity
  8
0
100
AcDbBlockBegin
  2
*D14
 70
     1
 10
0.0
 20
0.0
 30
0.0
  3
*D14
  1

  0
LINE
  5
14954
330
1200F
100
AcDbEntity
  8
30
  6
Continuous
 62
     0
370
    -2
100
AcDbLine
 10
-35.00000000000001
 20
-762.0000000000008
 30
0.0
 11
-35.00000000000001
 21
-800.5
 31
0.0
  0
LINE
  5
14955
330
1200F
100
AcDbEntity
  8
30
  6
Continuous
 62
     0
370
    -2
100
AcDbLine
 10
34.99999999999998
 20
-762.0000000000008
 30
0.0
 11
34.99999999999998
 21
-800.5
 31
0.0
  0
LINE
  5
14956
330
1200F
100
AcDbEntity
  8
30
  6
Continuous
 62
     0
370
    -2
100
AcDbLine
 10
-33.00000000000001
 20
-800.0
 30
0.0
 11
32.99999999999998
 21
-800.0
 31
0.0
  0
INSERT
  5
14957
330
1200F
100
AcDbEntity
  8
30
  6
Continuous
 62
     0
370
    -2
100
AcDbBlockReference
  2
_OPEN
 10
-35.00000000000001
 20
-800.0
 30
0.0
 41
2.0
 42
2.0
 43
2.0
 50
180.0
  0
INSERT
  5
14958
330
1200F
100
AcDbEntity
  8
30
  6
Continuous
 62
     0
370
    -2
100
AcDbBlockReference
  2
_OPEN
 10
34.99999999999998
 20
-800.0
 30
0.0
 41
2.0
 42
2.0
 43
2.0
  0
MTEXT
  5
14959
330
1200F
100
AcDbEntity
  8
30
  6
Continuous
 62
     0
100
AcDbMText
 10
-0.0000000000000138
 20
-794.0
 30
0.0
 40
6.0
 41
0.0
 71
     5
 72
     1
  1
\A1; 70 
 73
     1
 44
1.0
  0
POINT
  5
1495A
330
1200F
100
AcDbEntity
  8
DEFPOINTS
  6
Continuous
 62
     0
100
AcDbPoint
 10
-35.00000000000001
 20
-759.0000000000009
 30
0.0
  0
POINT
  5
1495B
330
1200F
100
AcDbEntity
  8
DEFPOINTS
  6
Continuous
 62
     0
100
AcDbPoint
 10
34.99999999999998
 20
-759.0000000000009
 30
0.0
  0
POINT
  5
1495C
330
1200F
100
AcDbEntity
  8
DEFPOINTS
  6
Continuous
 62
     0
100
AcDbPoint
 10
34.99999999999998
 20
-800.0
 30
0.0
  0
ENDBLK
  5
1201A
330
1200F
100
AcDbEntity
  8
0
100
AcDbBlockEnd
  0
BLOCK
  5
120C0
330
120B6
100
AcDbEntity
  8
0
100
AcDbBlockBegin
  2
*D15
 70
     1
 10
0.0
 20
0.0
 30
0.0
  3
*D15
  1

  0
LINE
  5
14933
330
120B6
100
AcDbEntity
  8
30
  6
Continuous
 62
     0
370
    -2
100
AcDbLine
 10
253.4999999999998
 20
-638.9999999999997
 30
0.0
 11
253.4999999999998
 21
-800.5
 31
0.0
  0
LINE
  5
14934
330
120B6
100
AcDbEntity
  8
30
  6
Continuous
 62
     0
370
    -2
100
AcDbLine
 10
446.4999999999999
 20
-638.999999999999
 30
0.0
 11
446.4999999999999
 21
-800.5
 31
0.0
  0
LINE
  5
14935
330
120B6
100
AcDbEntity
  8
30
  6
Continuous
 62
     0
370
    -2
100
AcDbLine
 10
255.4999999999998
 20
-800.0
 30
0.0
 11
444.5
 21
-800.0
 31
0.0
  0
INSERT
  5
14936
330
120B6
100
AcDbEntity
  8
30
  6
Continuous
 62
     0
370
    -2
100
AcDbBlockReference
  2
_OPEN
 10
253.4999999999998
 20
-800.0
 30
0.0
 41
2.0
 42
2.0
 43
2.0
 50
180.0
  0
INSERT
  5
14937
330
120B6
100
AcDbEntity
  8
30
  6
Continuous
 62
     0
370
    -2
100
AcDbBlockReference
  2
_OPEN
 10
446.4999999999999
 20
-800.0
 30
0.0
 41
2.0
 42
2.0
 43
2.0
  0
MTEXT
  5
14938
330
120B6
100
AcDbEntity
  8
30
  6
Continuous
 62
     0
100
AcDbMText
 10
349.9999999999999
 20
-794.0
 30
0.0
 40
6.0
 41
0.0
 71
     5
 72
     1
  1
\A1; 193 
 73
     1
 44
1.0
  0
POINT
  5
14939
330
120B6
100
AcDbEntity
  8
DEFPOINTS
  6
Continuous
 62
     0
100
AcDbPoint
 10
253.4999999999998
 20
-635.9999999999997
 30
0.0
  0
POINT
  5
1493A
330
120B6
100
AcDbEntity
  8
DEFPOINTS
  6
Continuous
 62
     0
100
AcDbPoint
 10
446.4999999999999
 20
-635.9999999999991
 30
0.0
  0
POINT
  5
1493B
330
120B6
100
AcDbEntity
  8
DEFPOINTS
  6
Continuous
 62
     0
100
AcDbPoint
 10
446.4999999999999
 20
-800.0
 30
0.0
  0
ENDBLK
  5
120C1
330
120B6
100
AcDbEntity
  8
0
100
AcDbBlockEnd
  0
BLOCK
  5
120CC
330
120C2
100
AcDbEntity
  8
0
100
AcDbBlockBegin
  2
*D16
 70
     1
 10
0.0
 20
0.0
 30
0.0
  3
*D16
  1

  0
LINE
  5
1494B
330
120C2
100
AcDbEntity
  8
30
  6
Continuous
 62
     0
370
    -2
100
AcDbLine
 10
250.4999999999999
 20
-540.9999999999992
 30
0.0
 11
224.5
 21
-540.9999999999992
 31
0.0
  0
LINE
  5
1494C
330
120C2
100
AcDbEntity
  8
30
  6
Continuous
 62
     0
370
    -2
100
AcDbLine
 10
250.4999999999999
 20
-638.9999999999997
 30
0.0
 11
224.5
 21
-638.9999999999997
 31
0.0
  0
LINE
  5
1494D
330
120C2
100
AcDbEntity
  8
30
  6
Continuous
 62
     0
370
    -2
100
AcDbLine
 10
225.0
 20
-542.9999999999991
 30
0.0
 11
225.0
 21
-636.9999999999997
 31
0.0
  0
INSERT
  5
1494E
330
120C2
100
AcDbEntity
  8
30
  6
Continuous
 62
     0
370
    -2
100
AcDbBlockReference
  2
_OPEN
 10
225.0
 20
-540.9999999999992
 30
0.0
 41
2.0
 42
2.0
 43
2.0
 50
90.0
  0
INSERT
  5
1494F
330
120C2
100
AcDbEntity
  8
30
  6
Continuous
 62
     0
370
    -2
100
AcDbBlockReference
  2
_OPEN
 10
225.0
 20
-638.9999999999997
 30
0.0
 41
2.0
 42
2.0
 43
2.0
 50
270.0
  0
MTEXT
  5
14950
330
120C2
100
AcDbEntity
  8
30
  6
Continuous
 62
     0
100
AcDbMText
 10
219.0000000000001
 20
-589.9999999999995
 30
0.0
 40
6.0
 41
0.0
 71
     5
 72
     1
  1
\A1;98
 11
0.0000000000000001
 21
1.0
 31
0.0
 73
     1
 44
1.0
  0
POINT
  5
14951
330
120C2
100
AcDbEntity
  8
DEFPOINTS
  6
Continuous
 62
     0
100
AcDbPoint
 10
253.4999999999998
 20
-540.9999999999992
 30
0.0
  0
POINT
  5
14952
330
120C2
100
AcDbEntity
  8
DEFPOINTS
  6
Continuous
 62
     0
100
AcDbPoint
 10
253.4999999999998
 20
-638.9999999999997
 30
0.0
  0
POINT
  5
14953
330
120C2
100
AcDbEntity
  8
DEFPOINTS
  6
Continuous
 62
     0
100
AcDbPoint
 10
225.0
 20
-638.9999999999997
 30
0.0
  0
ENDBLK
  5
120CD
330
120C2
100
AcDbEntity
  8
0
100
AcDbBlockEnd
  0
BLOCK
  5
12F3B
330
12F31
100
AcDbEntity
  8
0
100
AcDbBlockBegin
  2
*D17
 70
     1
 10
0.0
 20
0.0
 30
0.0
  3
*D17
  1

  0
LINE
  5
137CD
330
12F31
100
AcDbEntity
  8
30
  6
Continuous
 62
     0
370
    -2
100
AcDbLine
 10
-112.9999999999995
 20
-169.9999999999997
 30
0.0
 11
-180.5
 21
-169.9999999999997
 31
0.0
  0
LINE
  5
137CE
330
12F31
100
AcDbEntity
  8
30
  6
Continuous
 62
     0
370
    -2
100
AcDbLine
 10
-108.0
 20
200.0
 30
0.0
 11
-180.4999999999999
 21
200.0
 31
0.0
  0
LINE
  5
137CF
330
12F31
100
AcDbEntity
  8
30
  6
Continuous
 62
     0
370
    -2
100
AcDbLine
 10
-180.0
 20
-167.9999999999997
 30
0.0
 11
-179.9999999999999
 21
198.0
 31
0.0
  0
INSERT
  5
137D0
330
12F31
100
AcDbEntity
  8
30
  6
Continuous
 62
     0
370
    -2
100
AcDbBlockReference
  2
_OPEN
 10
-180.0
 20
-169.9999999999997
 30
0.0
 41
2.0
 42
2.0
 43
2.0
 50
270.0
  0
INSERT
  5
137D1
330
12F31
100
AcDbEntity
  8
30
  6
Continuous
 62
     0
370
    -2
100
AcDbBlockReference
  2
_OPEN
 10
-179.9999999999999
 20
200.0
 30
0.0
 41
2.0
 42
2.0
 43
2.0
 50
90.0
  0
MTEXT
  5
137D2
330
12F31
100
AcDbEntity
  8
30
  6
Continuous
 62
     0
100
AcDbMText
 10
-186.0
 20
15.00000000000009
 30
0.0
 40
6.0
 41
0.0
 71
     5
 72
     1
  1
\A1; 370 
 11
0.0000000000000001
 21
1.0
 31
0.0
 73
     1
 44
1.0
  0
POINT
  5
137D3
330
12F31
100
AcDbEntity
  8
DEFPOINTS
  6
Continuous
 62
     0
100
AcDbPoint
 10
-109.9999999999995
 20
-169.9999999999997
 30
0.0
  0
POINT
  5
137D4
330
12F31
100
AcDbEntity
  8
DEFPOINTS
  6
Continuous
 62
     0
100
AcDbPoint
 10
-105.0
 20
200.0
 30
0.0
  0
POINT
  5
137D5
330
12F31
100
AcDbEntity
  8
DEFPOINTS
  6
Continuous
 62
     0
100
AcDbPoint
 10
-179.9999999999999
 20
200.0
 30
0.0
  0
ENDBLK
  5
12F3C
330
12F31
100
AcDbEntity
  8
0
100
AcDbBlockEnd
  0
BLOCK
  5
12F47
330
12F3D
100
AcDbEntity
  8
0
100
AcDbBlockBegin
  2
*D18
 70
     1
 10
0.0
 20
0.0
 30
0.0
  3
*D18
  1

  0
LINE
  5
137A0
330
12F3D
100
AcDbEntity
  8
30
  6
Continuous
 62
     0
370
    -2
100
AcDbLine
 10
-112.9999999999995
 20
-169.9999999999997
 30
0.0
 11
-160.5
 21
-169.9999999999997
 31
0.0
  0
LINE
  5
137A1
330
12F3D
100
AcDbEntity
  8
30
  6
Continuous
 62
     0
370
    -2
100
AcDbLine
 10
-108.0
 20
-0.0000000000002265
 30
0.0
 11
-160.5
 21
-0.0000000000002117
 31
0.0
  0
LINE
  5
137A2
330
12F3D
100
AcDbEntity
  8
30
  6
Continuous
 62
     0
370
    -2
100
AcDbLine
 10
-160.0
 20
-167.9999999999997
 30
0.0
 11
-160.0
 21
-2.000000000000211
 31
0.0
  0
INSERT
  5
137A3
330
12F3D
100
AcDbEntity
  8
30
  6
Continuous
 62
     0
370
    -2
100
AcDbBlockReference
  2
_OPEN
 10
-160.0
 20
-169.9999999999997
 30
0.0
 41
2.0
 42
2.0
 43
2.0
 50
270.0
  0
INSERT
  5
137A4
330
12F3D
100
AcDbEntity
  8
30
  6
Continuous
 62
     0
370
    -2
100
AcDbBlockReference
  2
_OPEN
 10
-160.0
 20
-0.0000000000002118
 30
0.0
 41
2.0
 42
2.0
 43
2.0
 50
90.0
  0
MTEXT
  5
137A5
330
12F3D
100
AcDbEntity
  8
30
  6
Continuous
 62
     0
100
AcDbMText
 10
-166.0
 20
-85.00000000000001
 30
0.0
 40
6.0
 41
0.0
 71
     5
 72
     1
  1
\A1; 170 
 11
0.0000000000000001
 21
1.0
 31
0.0
 73
     1
 44
1.0
  0
POINT
  5
137A6
330
12F3D
100
AcDbEntity
  8
DEFPOINTS
  6
Continuous
 62
     0
100
AcDbPoint
 10
-109.9999999999995
 20
-169.9999999999997
 30
0.0
  0
POINT
  5
137A7
330
12F3D
100
AcDbEntity
  8
DEFPOINTS
  6
Continuous
 62
     0
100
AcDbPoint
 10
-105.0
 20
-0.0000000000002274
 30
0.0
  0
POINT
  5
137A8
330
12F3D
100
AcDbEntity
  8
DEFPOINTS
  6
Continuous
 62
     0
100
AcDbPoint
 10
-160.0
 20
-0.0000000000002118
 30
0.0
  0
ENDBLK
  5
12F48
330
12F3D
100
AcDbEntity
  8
0
100
AcDbBlockEnd
  0
BLOCK
  5
12F77
330
12F6D
100
AcDbEntity
  8
0
100
AcDbBlockBegin
  2
*D19
 70
     1
 10
0.0
 20
0.0
 30
0.0
  3
*D19
  1

  0
LINE
  5
137DF
330
12F6D
100
AcDbEntity
  8
30
  6
Continuous
 62
     0
370
    -2
100
AcDbLine
 10
-108.0
 20
200.0
 30
0.0
 11
-160.4999999999999
 21
200.0
 31
0.0
  0
LINE
  5
137E0
330
12F6D
100
AcDbEntity
  8
30
  6
Continuous
 62
     0
370
    -2
100
AcDbLine
 10
-95.5
 20
280.0
 30
0.0
 11
-160.4999999999999
 21
280.0
 31
0.0
  0
LINE
  5
137E1
330
12F6D
100
AcDbEntity
  8
30
  6
Continuous
 62
     0
370
    -2
100
AcDbLine
 10
-160.0
 20
202.0
 30
0.0
 11
-160.0
 21
278.0
 31
0.0
  0
INSERT
  5
137E2
330
12F6D
100
AcDbEntity
  8
30
  6
Continuous
 62
     0
370
    -2
100
AcDbBlockReference
  2
_OPEN
 10
-160.0
 20
200.0
 30
0.0
 41
2.0
 42
2.0
 43
2.0
 50
270.0
  0
INSERT
  5
137E3
330
12F6D
100
AcDbEntity
  8
30
  6
Continuous
 62
     0
370
    -2
100
AcDbBlockReference
  2
_OPEN
 10
-160.0
 20
280.0
 30
0.0
 41
2.0
 42
2.0
 43
2.0
 50
90.0
  0
MTEXT
  5
137E4
330
12F6D
100
AcDbEntity
  8
30
  6
Continuous
 62
     0
100
AcDbMText
 10
-166.0
 20
240.0
 30
0.0
 40
6.0
 41
0.0
 71
     5
 72
     1
  1
\A1; 80 
 11
0.0000000000000001
 21
1.0
 31
0.0
 73
     1
 44
1.0
  0
POINT
  5
137E5
330
12F6D
100
AcDbEntity
  8
DEFPOINTS
  6
Continuous
 62
     0
100
AcDbPoint
 10
-105.0
 20
200.0
 30
0.0
  0
POINT
  5
137E6
330
12F6D
100
AcDbEntity
  8
DEFPOINTS
  6
Continuous
 62
     0
100
AcDbPoint
 10
-92.5
 20
280.0
 30
0.0
  0
POINT
  5
137E7
330
12F6D
100
AcDbEntity
  8
DEFPOINTS
  6
Continuous
 62
     0
100
AcDbPoint
 10
-160.0
 20
280.0
 30
0.0
  0
ENDBLK
  5
12F78
330
12F6D
100
AcDbEntity
  8
0
100
AcDbBlockEnd
  0
BLOCK
  5
12F83
330
12F79
100
AcDbEntity
  8
0
100
AcDbBlockBegin
  2
*D20
 70
     1
 10
0.0
 20
0.0
 30
0.0
  3
*D20
  1

  0
LINE
  5
13797
330
12F79
100
AcDbEntity
  8
30
  6
Continuous
 62
     0
370
    -2
100
AcDbLine
 10
-108.0
 20
-0.0000000000002265
 30
0.0
 11
-160.5
 21
-0.0000000000002117
 31
0.0
  0
LINE
  5
13798
330
12F79
100
AcDbEntity
  8
30
  6
Continuous
 62
     0
370
    -2
100
AcDbLine
 10
-108.0
 20
200.0
 30
0.0
 11
-160.4999999999999
 21
200.0
 31
0.0
  0
LINE
  5
13799
330
12F79
100
AcDbEntity
  8
30
  6
Continuous
 62
     0
370
    -2
100
AcDbLine
 10
-160.0
 20
1.999999999999788
 30
0.0
 11
-160.0
 21
198.0
 31
0.0
  0
INSERT
  5
1379A
330
12F79
100
AcDbEntity
  8
30
  6
Continuous
 62
     0
370
    -2
100
AcDbBlockReference
  2
_OPEN
 10
-160.0
 20
-0.0000000000002118
 30
0.0
 41
2.0
 42
2.0
 43
2.0
 50
270.0
  0
INSERT
  5
1379B
330
12F79
100
AcDbEntity
  8
30
  6
Continuous
 62
     0
370
    -2
100
AcDbBlockReference
  2
_OPEN
 10
-160.0
 20
200.0
 30
0.0
 41
2.0
 42
2.0
 43
2.0
 50
90.0
  0
MTEXT
  5
1379C
330
12F79
100
AcDbEntity
  8
30
  6
Continuous
 62
     0
100
AcDbMText
 10
-166.0
 20
99.99999999999987
 30
0.0
 40
6.0
 41
0.0
 71
     5
 72
     1
  1
\A1; 200 
 11
0.0000000000000001
 21
1.0
 31
0.0
 73
     1
 44
1.0
  0
POINT
  5
1379D
330
12F79
100
AcDbEntity
  8
DEFPOINTS
  6
Continuous
 62
     0
100
AcDbPoint
 10
-105.0
 20
-0.0000000000002274
 30
0.0
  0
POINT
  5
1379E
330
12F79
100
AcDbEntity
  8
DEFPOINTS
  6
Continuous
 62
     0
100
AcDbPoint
 10
-105.0
 20
200.0
 30
0.0
  0
POINT
  5
1379F
330
12F79
100
AcDbEntity
  8
DEFPOINTS
  6
Continuous
 62
     0
100
AcDbPoint
 10
-160.0
 20
200.0
 30
0.0
  0
ENDBLK
  5
12F84
330
12F79
100
AcDbEntity
  8
0
100
AcDbBlockEnd
  0
BLOCK
  5
12F8F
330
12F85
100
AcDbEntity
  8
0
100
AcDbBlockBegin
  2
*D21
 70
     1
 10
0.0
 20
0.0
 30
0.0
  3
*D21
  1

  0
LINE
  5
1374F
330
12F85
100
AcDbEntity
  8
30
  6
Continuous
 62
     0
370
    -2
100
AcDbLine
 10
-95.00000000000023
 20
-47.5
 30
0.0
 11
-136.5
 21
-47.49999999999999
 31
0.0
  0
LINE
  5
13750
330
12F85
100
AcDbEntity
  8
30
  6
Continuous
 62
     0
370
    -2
100
AcDbLine
 10
-95.00000000000023
 20
47.49999999999978
 30
0.0
 11
-136.5
 21
47.49999999999979
 31
0.0
  0
LINE
  5
13751
330
12F85
100
AcDbEntity
  8
30
  6
Continuous
 62
     0
370
    -2
100
AcDbLine
 10
-136.0
 20
-45.49999999999999
 30
0.0
 11
-136.0
 21
45.49999999999979
 31
0.0
  0
INSERT
  5
13752
330
12F85
100
AcDbEntity
  8
30
  6
Continuous
 62
     0
370
    -2
100
AcDbBlockReference
  2
_OPEN
 10
-136.0
 20
-47.49999999999999
 30
0.0
 41
2.0
 42
2.0
 43
2.0
 50
270.0
  0
INSERT
  5
13753
330
12F85
100
AcDbEntity
  8
30
  6
Continuous
 62
     0
370
    -2
100
AcDbBlockReference
  2
_OPEN
 10
-136.0
 20
47.49999999999979
 30
0.0
 41
2.0
 42
2.0
 43
2.0
 50
90.0
  0
MTEXT
  5
13754
330
12F85
100
AcDbEntity
  8
30
  6
Continuous
 62
     0
100
AcDbMText
 10
-142.0
 20
-0.0000000000001188
 30
0.0
 40
6.0
 41
0.0
 71
     5
 72
     1
  1
\A1; 95 
 11
0.0000000000000001
 21
1.0
 31
0.0
 73
     1
 44
1.0
  0
POINT
  5
13755
330
12F85
100
AcDbEntity
  8
DEFPOINTS
  6
Continuous
 62
     0
100
AcDbPoint
 10
-92.00000000000022
 20
-47.5
 30
0.0
  0
POINT
  5
13756
330
12F85
100
AcDbEntity
  8
DEFPOINTS
  6
Continuous
 62
     0
100
AcDbPoint
 10
-92.00000000000022
 20
47.49999999999978
 30
0.0
  0
POINT
  5
13757
330
12F85
100
AcDbEntity
  8
DEFPOINTS
  6
Continuous
 62
     0
100
AcDbPoint
 10
-136.0
 20
47.49999999999979
 30
0.0
  0
ENDBLK
  5
12F90
330
12F85
100
AcDbEntity
  8
0
100
AcDbBlockEnd
  0
BLOCK
  5
12F9B
330
12F91
100
AcDbEntity
  8
0
100
AcDbBlockBegin
  2
*D22
 70
     1
 10
0.0
 20
0.0
 30
0.0
  3
*D22
  1

  0
LINE
  5
13746
330
12F91
100
AcDbEntity
  8
30
  6
Continuous
 62
     0
370
    -2
100
AcDbLine
 10
-108.0
 20
-0.0000000000002265
 30
0.0
 11
-119.5
 21
-0.0000000000002233
 31
0.0
  0
LINE
  5
13747
330
12F91
100
AcDbEntity
  8
30
  6
Continuous
 62
     0
370
    -2
100
AcDbLine
 10
-95.00000000000023
 20
47.49999999999978
 30
0.0
 11
-119.5
 21
47.49999999999979
 31
0.0
  0
LINE
  5
13748
330
12F91
100
AcDbEntity
  8
30
  6
Continuous
 62
     0
370
    -2
100
AcDbLine
 10
-119.0
 20
1.999999999999776
 30
0.0
 11
-119.0
 21
45.49999999999979
 31
0.0
  0
INSERT
  5
13749
330
12F91
100
AcDbEntity
  8
30
  6
Continuous
 62
     0
370
    -2
100
AcDbBlockReference
  2
_OPEN
 10
-119.0
 20
-0.0000000000002234
 30
0.0
 41
2.0
 42
2.0
 43
2.0
 50
270.0
  0
INSERT
  5
1374A
330
12F91
100
AcDbEntity
  8
30
  6
Continuous
 62
     0
370
    -2
100
AcDbBlockReference
  2
_OPEN
 10
-119.0
 20
47.49999999999979
 30
0.0
 41
2.0
 42
2.0
 43
2.0
 50
90.0
  0
MTEXT
  5
1374B
330
12F91
100
AcDbEntity
  8
30
  6
Continuous
 62
     0
100
AcDbMText
 10
-125.0
 20
23.74999999999976
 30
0.0
 40
6.0
 41
0.0
 71
     5
 72
     1
  1
\A1; 47.5 
 11
0.0000000000000001
 21
1.0
 31
0.0
 73
     1
 44
1.0
  0
POINT
  5
1374C
330
12F91
100
AcDbEntity
  8
DEFPOINTS
  6
Continuous
 62
     0
100
AcDbPoint
 10
-105.0
 20
-0.0000000000002274
 30
0.0
  0
POINT
  5
1374D
330
12F91
100
AcDbEntity
  8
DEFPOINTS
  6
Continuous
 62
     0
100
AcDbPoint
 10
-92.00000000000022
 20
47.49999999999978
 30
0.0
  0
POINT
  5
1374E
330
12F91
100
AcDbEntity
  8
DEFPOINTS
  6
Continuous
 62
     0
100
AcDbPoint
 10
-119.0
 20
47.49999999999979
 30
0.0
  0
ENDBLK
  5
12F9C
330
12F91
100
AcDbEntity
  8
0
100
AcDbBlockEnd
  0
BLOCK
  5
133D9
330
133CF
100
AcDbEntity
  8
0
100
AcDbBlockBegin
  2
*D23
 70
     1
 10
0.0
 20
0.0
 30
0.0
  3
*D23
  1

  0
LINE
  5
14966
330
133CF
100
AcDbEntity
  8
30
  6
Continuous
 62
     0
370
    -2
100
AcDbLine
 10
309.5
 20
-644.0
 30
0.0
 11
309.5
 21
-782.5958749999999
 31
0.0
  0
LINE
  5
14967
330
133CF
100
AcDbEntity
  8
30
  6
Continuous
 62
     0
370
    -2
100
AcDbLine
 10
390.4999999999997
 20
-644.0
 30
0.0
 11
390.4999999999997
 21
-782.5958749999999
 31
0.0
  0
LINE
  5
14968
330
133CF
100
AcDbEntity
  8
30
  6
Continuous
 62
     0
370
    -2
100
AcDbLine
 10
311.5
 20
-782.0958749999999
 30
0.0
 11
388.4999999999998
 21
-782.0958749999999
 31
0.0
  0
INSERT
  5
14969
330
133CF
100
AcDbEntity
  8
30
  6
Continuous
 62
     0
370
    -2
100
AcDbBlockReference
  2
_OPEN
 10
309.5
 20
-782.0958749999999
 30
0.0
 41
2.0
 42
2.0
 43
2.0
 50
180.0
  0
INSERT
  5
1496A
330
133CF
100
AcDbEntity
  8
30
  6
Continuous
 62
     0
370
    -2
100
AcDbBlockReference
  2
_OPEN
 10
390.4999999999997
 20
-782.0958749999999
 30
0.0
 41
2.0
 42
2.0
 43
2.0
  0
MTEXT
  5
1496B
330
133CF
100
AcDbEntity
  8
30
  6
Continuous
 62
     0
100
AcDbMText
 10
349.9999999999999
 20
-776.095875
 30
0.0
 40
6.0
 41
0.0
 71
     5
 72
     1
  1
\A1; 81 
 73
     1
 44
1.0
  0
POINT
  5
1496C
330
133CF
100
AcDbEntity
  8
DEFPOINTS
  6
Continuous
 62
     0
100
AcDbPoint
 10
309.5
 20
-641.0
 30
0.0
  0
POINT
  5
1496D
330
133CF
100
AcDbEntity
  8
DEFPOINTS
  6
Continuous
 62
     0
100
AcDbPoint
 10
390.4999999999997
 20
-641.0
 30
0.0
  0
POINT
  5
1496E
330
133CF
100
AcDbEntity
  8
DEFPOINTS
  6
Continuous
 62
     0
100
AcDbPoint
 10
390.4999999999997
 20
-782.0958749999999
 30
0.0
  0
ENDBLK
  5
133DA
330
133CF
100
AcDbEntity
  8
0
100
AcDbBlockEnd
  0
BLOCK
  5
13499
330
13492
100
AcDbEntity
  8
0
100
AcDbBlockBegin
  2
*D24
 70
     1
 10
0.0
 20
0.0
 30
0.0
  3
*D24
  1

  0
LINE
  5
1493C
330
13492
100
AcDbEntity
  8
30
  6
Continuous
 62
     0
370
    -2
100
AcDbLine
 10
273.9999999999993
 20
-550.9999999999993
 30
0.0
 11
260.9999999999993
 21
-550.9999999999991
 31
0.0
  0
LINE
  5
1493D
330
13492
100
AcDbEntity
  8
30
  6
Continuous
 62
     0
370
    -2
100
AcDbLine
 10
260.9999999999993
 20
-550.9999999999991
 30
0.0
 11
255.9592424086862
 21
-543.1588215246222
 31
0.0
  0
MTEXT
  5
1493E
330
13492
100
AcDbEntity
  8
30
  6
Continuous
 62
     0
100
AcDbMText
 10
268.9999999999992
 20
-544.9999999999993
 30
0.0
 40
6.0
 41
0.0
 71
     5
 72
     1
  1
\A1;R3
 73
     1
 44
1.0
  0
INSERT
  5
1493F
330
13492
100
AcDbEntity
  8
30
  6
Continuous
 62
     0
370
    -2
100
AcDbBlockReference
  2
_OPEN
 10
254.8777272260593
 20
-541.476464573869
 30
0.0
 41
2.0
 42
2.0
 43
2.0
 50
122.7352262721041
  0
POINT
  5
14940
330
13492
100
AcDbEntity
  8
DEFPOINTS
  6
Continuous
 62
     0
100
AcDbPoint
 10
254.8777272260593
 20
-541.476464573869
 30
0.0
  0
POINT
  5
14941
330
13492
100
AcDbEntity
  8
DEFPOINTS
  6
Continuous
 62
     0
100
AcDbPoint
 10
256.4999999999996
 20
-543.9999999999988
 30
0.0
  0
ENDBLK
  5
1349A
330
13492
100
AcDbEntity
  8
0
100
AcDbBlockEnd
  0
BLOCK
  5
134C9
330
134C2
100
AcDbEntity
  8
0
100
AcDbBlockBegin
  2
*D25
 70
     1
 10
0.0
 20
0.0
 30
0.0
  3
*D25
  1

  0
LINE
  5
1496F
330
134C2
100
AcDbEntity
  8
30
  6
Continuous
 62
     0
370
    -2
100
AcDbLine
 10
329.9999999999996
 20
-551.0000000000003
 30
0.0
 11
316.9999999999995
 21
-551.0000000000003
 31
0.0
  0
LINE
  5
14970
330
134C2
100
AcDbEntity
  8
30
  6
Continuous
 62
     0
370
    -2
100
AcDbLine
 10
316.9999999999995
 20
-551.0000000000003
 30
0.0
 11
311.9592424086862
 21
-543.1588215246231
 31
0.0
  0
MTEXT
  5
14971
330
134C2
100
AcDbEntity
  8
30
  6
Continuous
 62
     0
100
AcDbMText
 10
324.9999999999996
 20
-545.0000000000001
 30
0.0
 40
6.0
 41
0.0
 71
     5
 72
     1
  1
\A1;R3
 73
     1
 44
1.0
  0
INSERT
  5
14972
330
134C2
100
AcDbEntity
  8
30
  6
Continuous
 62
     0
370
    -2
100
AcDbBlockReference
  2
_OPEN
 10
310.8777272260592
 20
-541.4764645738699
 30
0.0
 41
2.0
 42
2.0
 43
2.0
 50
122.735226272105
  0
POINT
  5
14973
330
134C2
100
AcDbEntity
  8
DEFPOINTS
  6
Continuous
 62
     0
100
AcDbPoint
 10
310.8777272260592
 20
-541.4764645738699
 30
0.0
  0
POINT
  5
14974
330
134C2
100
AcDbEntity
  8
DEFPOINTS
  6
Continuous
 62
     0
100
AcDbPoint
 10
312.4999999999998
 20
-543.9999999999997
 30
0.0
  0
ENDBLK
  5
134CA
330
134C2
100
AcDbEntity
  8
0
100
AcDbBlockEnd
  0
BLOCK
  5
13697
330
1368D
100
AcDbEntity
  8
0
100
AcDbBlockBegin
  2
*D26
 70
     1
 10
0.0
 20
0.0
 30
0.0
  3
*D26
  1

  0
LINE
  5
14887
330
1368D
100
AcDbEntity
  8
30
  6
Continuous
 62
     0
370
    -2
100
AcDbLine
 10
-105.0
 20
-176.0
 30
0.0
 11
-105.0
 21
-320.4263156757433
 31
0.0
  0
LINE
  5
14888
330
1368D
100
AcDbEntity
  8
30
  6
Continuous
 62
     0
370
    -2
100
AcDbLine
 10
105.0
 20
-176.0
 30
0.0
 11
104.9999999999999
 21
-320.4263156757433
 31
0.0
  0
LINE
  5
14889
330
1368D
100
AcDbEntity
  8
30
  6
Continuous
 62
     0
370
    -2
100
AcDbLine
 10
-103.0
 20
-319.9263156757433
 30
0.0
 11
102.9999999999999
 21
-319.9263156757433
 31
0.0
  0
INSERT
  5
1488A
330
1368D
100
AcDbEntity
  8
30
  6
Continuous
 62
     0
370
    -2
100
AcDbBlockReference
  2
_OPEN
 10
-105.0
 20
-319.9263156757433
 30
0.0
 41
2.0
 42
2.0
 43
2.0
 50
180.0
  0
INSERT
  5
1488B
330
1368D
100
AcDbEntity
  8
30
  6
Continuous
 62
     0
370
    -2
100
AcDbBlockReference
  2
_OPEN
 10
104.9999999999999
 20
-319.9263156757433
 30
0.0
 41
2.0
 42
2.0
 43
2.0
  0
MTEXT
  5
1488C
330
1368D
100
AcDbEntity
  8
30
  6
Continuous
 62
     0
100
AcDbMText
 10
-0.000000000000014
 20
-316.4263156757433
 30
0.0
 40
5.0
 41
0.0
 71
     5
 72
     1
  1
\A1; 210 
 73
     1
 44
1.0
  0
POINT
  5
1488D
330
1368D
100
AcDbEntity
  8
DEFPOINTS
  6
Continuous
 62
     0
100
AcDbPoint
 10
-105.0
 20
-175.0
 30
0.0
  0
POINT
  5
1488E
330
1368D
100
AcDbEntity
  8
DEFPOINTS
  6
Continuous
 62
     0
100
AcDbPoint
 10
105.0
 20
-175.0
 30
0.0
  0
POINT
  5
1488F
330
1368D
100
AcDbEntity
  8
DEFPOINTS
  6
Continuous
 62
     0
100
AcDbPoint
 10
104.9999999999999
 20
-319.9263156757433
 30
0.0
  0
ENDBLK
  5
13698
330
1368D
100
AcDbEntity
  8
0
100
AcDbBlockEnd
  0
BLOCK
  5
136C7
330
136BD
100
AcDbEntity
  8
0
100
AcDbBlockBegin
  2
*D27
 70
     1
 10
0.0
 20
0.0
 30
0.0
  3
*D27
  1

  0
LINE
  5
1373D
330
136BD
100
AcDbEntity
  8
30
  6
Continuous
 62
     0
370
    -2
100
AcDbLine
 10
-39.0
 20
-55.5
 30
0.0
 11
-39.0
 21
-82.5
 31
0.0
  0
LINE
  5
1373E
330
136BD
100
AcDbEntity
  8
30
  6
Continuous
 62
     0
370
    -2
100
AcDbLine
 10
39.0
 20
-55.5
 30
0.0
 11
39.0
 21
-82.5
 31
0.0
  0
LINE
  5
1373F
330
136BD
100
AcDbEntity
  8
30
  6
Continuous
 62
     0
370
    -2
100
AcDbLine
 10
-37.0
 20
-82.0
 30
0.0
 11
37.0
 21
-82.0
 31
0.0
  0
INSERT
  5
13740
330
136BD
100
AcDbEntity
  8
30
  6
Continuous
 62
     0
370
    -2
100
AcDbBlockReference
  2
_OPEN
 10
-39.0
 20
-82.0
 30
0.0
 41
2.0
 42
2.0
 43
2.0
 50
180.0
  0
INSERT
  5
13741
330
136BD
100
AcDbEntity
  8
30
  6
Continuous
 62
     0
370
    -2
100
AcDbBlockReference
  2
_OPEN
 10
39.0
 20
-82.0
 30
0.0
 41
2.0
 42
2.0
 43
2.0
  0
MTEXT
  5
13742
330
136BD
100
AcDbEntity
  8
30
  6
Continuous
 62
     0
100
AcDbMText
 10
0.0000000000000004
 20
-76.0
 30
0.0
 40
6.0
 41
0.0
 71
     5
 72
     1
  1
\A1; 78 
 73
     1
 44
1.0
  0
POINT
  5
13743
330
136BD
100
AcDbEntity
  8
DEFPOINTS
  6
Continuous
 62
     0
100
AcDbPoint
 10
-39.0
 20
-52.5
 30
0.0
  0
POINT
  5
13744
330
136BD
100
AcDbEntity
  8
DEFPOINTS
  6
Continuous
 62
     0
100
AcDbPoint
 10
39.0
 20
-52.5
 30
0.0
  0
POINT
  5
13745
330
136BD
100
AcDbEntity
  8
DEFPOINTS
  6
Continuous
 62
     0
100
AcDbPoint
 10
39.0
 20
-82.0
 30
0.0
  0
ENDBLK
  5
136C8
330
136BD
100
AcDbEntity
  8
0
100
AcDbBlockEnd
  0
BLOCK
  5
136D3
330
136C9
100
AcDbEntity
  8
0
100
AcDbBlockBegin
  2
*D28
 70
     1
 10
0.0
 20
0.0
 30
0.0
  3
*D28
  1

  0
LINE
  5
13734
330
136C9
100
AcDbEntity
  8
30
  6
Continuous
 62
     0
370
    -2
100
AcDbLine
 10
-95.0
 20
54.5
 30
0.0
 11
-95.0
 21
67.5
 31
0.0
  0
LINE
  5
13735
330
136C9
100
AcDbEntity
  8
30
  6
Continuous
 62
     0
370
    -2
100
AcDbLine
 10
95.0
 20
54.5
 30
0.0
 11
95.0
 21
67.5
 31
0.0
  0
LINE
  5
13736
330
136C9
100
AcDbEntity
  8
30
  6
Continuous
 62
     0
370
    -2
100
AcDbLine
 10
-93.0
 20
67.0
 30
0.0
 11
93.0
 21
67.0
 31
0.0
  0
INSERT
  5
13737
330
136C9
100
AcDbEntity
  8
30
  6
Continuous
 62
     0
370
    -2
100
AcDbBlockReference
  2
_OPEN
 10
-95.0
 20
67.0
 30
0.0
 41
2.0
 42
2.0
 43
2.0
 50
180.0
  0
INSERT
  5
13738
330
136C9
100
AcDbEntity
  8
30
  6
Continuous
 62
     0
370
    -2
100
AcDbBlockReference
  2
_OPEN
 10
95.0
 20
67.0
 30
0.0
 41
2.0
 42
2.0
 43
2.0
  0
MTEXT
  5
13739
330
136C9
100
AcDbEntity
  8
30
  6
Continuous
 62
     0
100
AcDbMText
 10
0.0000000000000004
 20
73.0
 30
0.0
 40
6.0
 41
0.0
 71
     5
 72
     1
  1
\A1; 190 
 73
     1
 44
1.0
  0
POINT
  5
1373A
330
136C9
100
AcDbEntity
  8
DEFPOINTS
  6
Continuous
 62
     0
100
AcDbPoint
 10
-95.0
 20
51.5
 30
0.0
  0
POINT
  5
1373B
330
136C9
100
AcDbEntity
  8
DEFPOINTS
  6
Continuous
 62
     0
100
AcDbPoint
 10
95.0
 20
51.5
 30
0.0
  0
POINT
  5
1373C
330
136C9
100
AcDbEntity
  8
DEFPOINTS
  6
Continuous
 62
     0
100
AcDbPoint
 10
95.0
 20
67.0
 30
0.0
  0
ENDBLK
  5
136D4
330
136C9
100
AcDbEntity
  8
0
100
AcDbBlockEnd
  0
BLOCK
  5
136DE
330
136D5
100
AcDbEntity
  8
0
100
AcDbBlockBegin
  2
*D29
 70
     1
 10
0.0
 20
0.0
 30
0.0
  3
*D29
  1

  0
LINE
  5
14795
330
136D5
100
AcDbEntity
  8
30
  6
Continuous
 62
     0
370
    -2
100
AcDbLine
 10
71.2362482315153
 20
260.6731441781664
 30
0.0
 11
68.76375676848454
 21
269.326860821834
 31
0.0
  0
LINE
  5
14796
330
136D5
100
AcDbEntity
  8
30
  6
Continuous
 62
     0
370
    -2
100
AcDbLine
 10
68.21431430859274
 20
271.2499086588022
 30
0.0
 11
61.99999999999995
 21
292.9999999999998
 31
0.0
  0
LINE
  5
14797
330
136D5
100
AcDbEntity
  8
30
  6
Continuous
 62
     0
370
    -2
100
AcDbLine
 10
61.99999999999995
 20
292.9999999999998
 30
0.0
 11
78.99999999999995
 21
292.9999999999998
 31
0.0
  0
INSERT
  5
14798
330
136D5
100
AcDbEntity
  8
30
  6
Continuous
 62
     0
370
    -2
100
AcDbBlockReference
  2
_OPEN
 10
71.78569069140715
 20
258.7500963411982
 30
0.0
 41
2.0
 42
2.0
 43
2.0
 50
285.9454019818432
  0
INSERT
  5
14799
330
136D5
100
AcDbEntity
  8
30
  6
Continuous
 62
     0
370
    -2
100
AcDbBlockReference
  2
_OPEN
 10
68.21431430859274
 20
271.2499086588022
 30
0.0
 41
2.0
 42
2.0
 43
2.0
 50
105.9454019818433
  0
MTEXT
  5
1479A
330
136D5
100
AcDbEntity
  8
30
  6
Continuous
 62
     0
100
AcDbMText
 10
71.99999999999997
 20
298.9999999999998
 30
0.0
 40
6.0
 41
0.0
 71
     5
 72
     1
  1
\A1;\U+220513
 73
     1
 44
1.0
  0
POINT
  5
1479B
330
136D5
100
AcDbEntity
  8
DEFPOINTS
  6
Continuous
 62
     0
100
AcDbPoint
 10
68.21431430859274
 20
271.2499086588022
 30
0.0
  0
POINT
  5
1479C
330
136D5
100
AcDbEntity
  8
DEFPOINTS
  6
Continuous
 62
     0
100
AcDbPoint
 10
71.78569069140715
 20
258.7500963411982
 30
0.0
  0
ENDBLK
  5
136DF
330
136D5
100
AcDbEntity
  8
0
100
AcDbBlockEnd
  0
BLOCK
  5
13AC1
330
13AB7
100
AcDbEntity
  8
0
100
AcDbBlockBegin
  2
*D30
 70
     1
 10
0.0
 20
0.0
 30
0.0
  3
*D30
  1

  0
LINE
  5
13E65
330
13AB7
100
AcDbEntity
  8
30
  6
Continuous
 62
     0
370
    -2
100
AcDbLine
 10
229.0
 20
-5.620155000000067
 30
0.0
 11
228.9999999999999
 21
-360.4999999999999
 31
0.0
  0
LINE
  5
13E66
330
13AB7
100
AcDbEntity
  8
30
  6
Continuous
 62
     0
370
    -2
100
AcDbLine
 10
309.0
 20
-5.620155000000067
 30
0.0
 11
309.0
 21
-360.4999999999999
 31
0.0
  0
LINE
  5
13E67
330
13AB7
100
AcDbEntity
  8
30
  6
Continuous
 62
     0
370
    -2
100
AcDbLine
 10
230.9999999999999
 20
-360.0
 30
0.0
 11
307.0
 21
-360.0
 31
0.0
  0
INSERT
  5
13E68
330
13AB7
100
AcDbEntity
  8
30
  6
Continuous
 62
     0
370
    -2
100
AcDbBlockReference
  2
_OPEN
 10
228.9999999999999
 20
-360.0
 30
0.0
 41
2.0
 42
2.0
 43
2.0
 50
180.0
  0
INSERT
  5
13E69
330
13AB7
100
AcDbEntity
  8
30
  6
Continuous
 62
     0
370
    -2
100
AcDbBlockReference
  2
_OPEN
 10
309.0
 20
-360.0
 30
0.0
 41
2.0
 42
2.0
 43
2.0
  0
MTEXT
  5
13E6A
330
13AB7
100
AcDbEntity
  8
30
  6
Continuous
 62
     0
100
AcDbMText
 10
269.0
 20
-354.0
 30
0.0
 40
6.0
 41
0.0
 71
     5
 72
     1
  1
\A1; 80 
 73
     1
 44
1.0
  0
POINT
  5
13E6B
330
13AB7
100
AcDbEntity
  8
DEFPOINTS
  6
Continuous
 62
     0
100
AcDbPoint
 10
229.0
 20
-2.620155000000067
 30
0.0
  0
POINT
  5
13E6C
330
13AB7
100
AcDbEntity
  8
DEFPOINTS
  6
Continuous
 62
     0
100
AcDbPoint
 10
309.0
 20
-2.620155000000067
 30
0.0
  0
POINT
  5
13E6D
330
13AB7
100
AcDbEntity
  8
DEFPOINTS
  6
Continuous
 62
     0
100
AcDbPoint
 10
309.0
 20
-360.0
 30
0.0
  0
ENDBLK
  5
13AC2
330
13AB7
100
AcDbEntity
  8
0
100
AcDbBlockEnd
  0
BLOCK
  5
13ACD
330
13AC3
100
AcDbEntity
  8
0
100
AcDbBlockBegin
  2
*D31
 70
     1
 10
0.0
 20
0.0
 30
0.0
  3
*D31
  1

  0
LINE
  5
13E5C
330
13AC3
100
AcDbEntity
  8
30
  6
Continuous
 62
     0
370
    -2
100
AcDbLine
 10
309.0
 20
-10.62015500000006
 30
0.0
 11
309.0
 21
-360.4999999999999
 31
0.0
  0
LINE
  5
13E5D
330
13AC3
100
AcDbEntity
  8
30
  6
Continuous
 62
     0
370
    -2
100
AcDbLine
 10
480.0
 20
-178.0
 30
0.0
 11
480.0
 21
-360.4999999999999
 31
0.0
  0
LINE
  5
13E5E
330
13AC3
100
AcDbEntity
  8
30
  6
Continuous
 62
     0
370
    -2
100
AcDbLine
 10
311.0
 20
-360.0
 30
0.0
 11
478.0
 21
-360.0
 31
0.0
  0
INSERT
  5
13E5F
330
13AC3
100
AcDbEntity
  8
30
  6
Continuous
 62
     0
370
    -2
100
AcDbBlockReference
  2
_OPEN
 10
309.0
 20
-360.0
 30
0.0
 41
2.0
 42
2.0
 43
2.0
 50
180.0
  0
INSERT
  5
13E60
330
13AC3
100
AcDbEntity
  8
30
  6
Continuous
 62
     0
370
    -2
100
AcDbBlockReference
  2
_OPEN
 10
480.0
 20
-360.0
 30
0.0
 41
2.0
 42
2.0
 43
2.0
  0
MTEXT
  5
13E61
330
13AC3
100
AcDbEntity
  8
30
  6
Continuous
 62
     0
100
AcDbMText
 10
394.5
 20
-354.0
 30
0.0
 40
6.0
 41
0.0
 71
     5
 72
     1
  1
\A1; 171 
 73
     1
 44
1.0
  0
POINT
  5
13E62
330
13AC3
100
AcDbEntity
  8
DEFPOINTS
  6
Continuous
 62
     0
100
AcDbPoint
 10
309.0
 20
-7.620155000000067
 30
0.0
  0
POINT
  5
13E63
330
13AC3
100
AcDbEntity
  8
DEFPOINTS
  6
Continuous
 62
     0
100
AcDbPoint
 10
480.0
 20
-175.0
 30
0.0
  0
POINT
  5
13E64
330
13AC3
100
AcDbEntity
  8
DEFPOINTS
  6
Continuous
 62
     0
100
AcDbPoint
 10
480.0
 20
-360.0
 30
0.0
  0
ENDBLK
  5
13ACE
330
13AC3
100
AcDbEntity
  8
0
100
AcDbBlockEnd
  0
BLOCK
  5
13AD9
330
13ACF
100
AcDbEntity
  8
0
100
AcDbBlockBegin
  2
*D32
 70
     1
 10
0.0
 20
0.0
 30
0.0
  3
*D32
  1

  0
LINE
  5
13E6E
330
13ACF
100
AcDbEntity
  8
30
  6
Continuous
 62
     0
370
    -2
100
AcDbLine
 10
353.0
 20
-55.5
 30
0.0
 11
353.0
 21
-340.5
 31
0.0
  0
LINE
  5
13E6F
330
13ACF
100
AcDbEntity
  8
30
  6
Continuous
 62
     0
370
    -2
100
AcDbLine
 10
480.0
 20
-178.0
 30
0.0
 11
480.0
 21
-340.5
 31
0.0
  0
LINE
  5
13E70
330
13ACF
100
AcDbEntity
  8
30
  6
Continuous
 62
     0
370
    -2
100
AcDbLine
 10
355.0
 20
-340.0
 30
0.0
 11
478.0
 21
-340.0
 31
0.0
  0
INSERT
  5
13E71
330
13ACF
100
AcDbEntity
  8
30
  6
Continuous
 62
     0
370
    -2
100
AcDbBlockReference
  2
_OPEN
 10
353.0
 20
-340.0
 30
0.0
 41
2.0
 42
2.0
 43
2.0
 50
180.0
  0
INSERT
  5
13E72
330
13ACF
100
AcDbEntity
  8
30
  6
Continuous
 62
     0
370
    -2
100
AcDbBlockReference
  2
_OPEN
 10
480.0
 20
-340.0
 30
0.0
 41
2.0
 42
2.0
 43
2.0
  0
MTEXT
  5
13E73
330
13ACF
100
AcDbEntity
  8
30
  6
Continuous
 62
     0
100
AcDbMText
 10
416.5
 20
-334.0
 30
0.0
 40
6.0
 41
0.0
 71
     5
 72
     1
  1
\A1; 127 
 73
     1
 44
1.0
  0
POINT
  5
13E74
330
13ACF
100
AcDbEntity
  8
DEFPOINTS
  6
Continuous
 62
     0
100
AcDbPoint
 10
353.0
 20
-52.5
 30
0.0
  0
POINT
  5
13E75
330
13ACF
100
AcDbEntity
  8
DEFPOINTS
  6
Continuous
 62
     0
100
AcDbPoint
 10
480.0
 20
-175.0
 30
0.0
  0
POINT
  5
13E76
330
13ACF
100
AcDbEntity
  8
DEFPOINTS
  6
Continuous
 62
     0
100
AcDbPoint
 10
480.0
 20
-340.0
 30
0.0
  0
ENDBLK
  5
13ADA
330
13ACF
100
AcDbEntity
  8
0
100
AcDbBlockEnd
  0
BLOCK
  5
13AE6
330
13ADB
100
AcDbEntity
  8
0
100
AcDbBlockBegin
  2
*D33
 70
     1
 10
0.0
 20
0.0
 30
0.0
  3
*D33
  1

  0
LINE
  5
13E52
330
13ADB
100
AcDbEntity
  8
30
  6
Continuous
 62
     0
370
    -2
100
AcDbLine
 10
343.0
 20
1.5
 30
0.0
 11
343.0
 21
-340.5
 31
0.0
  0
LINE
  5
13E53
330
13ADB
100
AcDbEntity
  8
30
  6
Continuous
 62
     0
370
    -2
100
AcDbLine
 10
353.0
 20
-55.5
 30
0.0
 11
353.0
 21
-340.5
 31
0.0
  0
LINE
  5
13E54
330
13ADB
100
AcDbEntity
  8
30
  6
Continuous
 62
     0
370
    -2
100
AcDbLine
 10
351.0
 20
-340.0
 30
0.0
 11
345.0
 21
-340.0
 31
0.0
  0
LINE
  5
13E55
330
13ADB
100
AcDbEntity
  8
30
  6
Continuous
 62
     0
370
    -2
100
AcDbLine
 10
343.0
 20
-340.0
 30
0.0
 11
324.3999999999999
 21
-340.0
 31
0.0
  0
INSERT
  5
13E56
330
13ADB
100
AcDbEntity
  8
30
  6
Continuous
 62
     0
370
    -2
100
AcDbBlockReference
  2
_OPEN
 10
353.0
 20
-340.0
 30
0.0
 41
2.0
 42
2.0
 43
2.0
  0
INSERT
  5
13E57
330
13ADB
100
AcDbEntity
  8
30
  6
Continuous
 62
     0
370
    -2
100
AcDbBlockReference
  2
_OPEN
 10
343.0
 20
-340.0
 30
0.0
 41
2.0
 42
2.0
 43
2.0
 50
180.0
  0
MTEXT
  5
13E58
330
13ADB
100
AcDbEntity
  8
30
  6
Continuous
 62
     0
100
AcDbMText
 10
332.6999999999999
 20
-334.0
 30
0.0
 40
6.0
 41
0.0
 71
     5
 72
     1
  1
\A1; 10 
 73
     1
 44
1.0
  0
POINT
  5
13E59
330
13ADB
100
AcDbEntity
  8
DEFPOINTS
  6
Continuous
 62
     0
100
AcDbPoint
 10
343.0
 20
4.5
 30
0.0
  0
POINT
  5
13E5A
330
13ADB
100
AcDbEntity
  8
DEFPOINTS
  6
Continuous
 62
     0
100
AcDbPoint
 10
353.0
 20
-52.5
 30
0.0
  0
POINT
  5
13E5B
330
13ADB
100
AcDbEntity
  8
DEFPOINTS
  6
Continuous
 62
     0
100
AcDbPoint
 10
353.0
 20
-340.0
 30
0.0
  0
ENDBLK
  5
13AE7
330
13ADB
100
AcDbEntity
  8
0
100
AcDbBlockEnd
  0
BLOCK
  5
13AF2
330
13AE8
100
AcDbEntity
  8
0
100
AcDbBlockBegin
  2
*D34
 70
     1
 10
0.0
 20
0.0
 30
0.0
  3
*D34
  1

  0
LINE
  5
13E77
330
13AE8
100
AcDbEntity
  8
30
  6
Continuous
 62
     0
370
    -2
100
AcDbLine
 10
360.0
 20
-148.0
 30
0.0
 11
360.0
 21
-320.5
 31
0.0
  0
LINE
  5
13E78
330
13AE8
100
AcDbEntity
  8
30
  6
Continuous
 62
     0
370
    -2
100
AcDbLine
 10
480.0
 20
-178.0
 30
0.0
 11
480.0
 21
-320.5
 31
0.0
  0
LINE
  5
13E79
330
13AE8
100
AcDbEntity
  8
30
  6
Continuous
 62
     0
370
    -2
100
AcDbLine
 10
362.0
 20
-320.0
 30
0.0
 11
478.0
 21
-320.0
 31
0.0
  0
INSERT
  5
13E7A
330
13AE8
100
AcDbEntity
  8
30
  6
Continuous
 62
     0
370
    -2
100
AcDbBlockReference
  2
_OPEN
 10
360.0
 20
-320.0
 30
0.0
 41
2.0
 42
2.0
 43
2.0
 50
180.0
  0
INSERT
  5
13E7B
330
13AE8
100
AcDbEntity
  8
30
  6
Continuous
 62
     0
370
    -2
100
AcDbBlockReference
  2
_OPEN
 10
480.0
 20
-320.0
 30
0.0
 41
2.0
 42
2.0
 43
2.0
  0
MTEXT
  5
13E7C
330
13AE8
100
AcDbEntity
  8
30
  6
Continuous
 62
     0
100
AcDbMText
 10
420.0
 20
-314.0
 30
0.0
 40
6.0
 41
0.0
 71
     5
 72
     1
  1
\A1; 120 
 73
     1
 44
1.0
  0
POINT
  5
13E7D
330
13AE8
100
AcDbEntity
  8
DEFPOINTS
  6
Continuous
 62
     0
100
AcDbPoint
 10
360.0
 20
-145.0
 30
0.0
  0
POINT
  5
13E7E
330
13AE8
100
AcDbEntity
  8
DEFPOINTS
  6
Continuous
 62
     0
100
AcDbPoint
 10
480.0
 20
-175.0
 30
0.0
  0
POINT
  5
13E7F
330
13AE8
100
AcDbEntity
  8
DEFPOINTS
  6
Continuous
 62
     0
100
AcDbPoint
 10
480.0
 20
-320.0
 30
0.0
  0
ENDBLK
  5
13AF3
330
13AE8
100
AcDbEntity
  8
0
100
AcDbBlockEnd
  0
BLOCK
  5
13AFE
330
13AF4
100
AcDbEntity
  8
0
100
AcDbBlockBegin
  2
*D35
 70
     1
 10
0.0
 20
0.0
 30
0.0
  3
*D35
  1

  0
LINE
  5
13E80
330
13AF4
100
AcDbEntity
  8
30
  6
Continuous
 62
     0
370
    -2
100
AcDbLine
 10
368.0
 20
-178.0
 30
0.0
 11
368.0
 21
-300.595875
 31
0.0
  0
LINE
  5
13E81
330
13AF4
100
AcDbEntity
  8
30
  6
Continuous
 62
     0
370
    -2
100
AcDbLine
 10
480.0
 20
-178.0
 30
0.0
 11
480.0
 21
-300.595875
 31
0.0
  0
LINE
  5
13E82
330
13AF4
100
AcDbEntity
  8
30
  6
Continuous
 62
     0
370
    -2
100
AcDbLine
 10
370.0
 20
-300.0958749999999
 30
0.0
 11
478.0
 21
-300.0958749999999
 31
0.0
  0
INSERT
  5
13E83
330
13AF4
100
AcDbEntity
  8
30
  6
Continuous
 62
     0
370
    -2
100
AcDbBlockReference
  2
_OPEN
 10
368.0
 20
-300.0958749999999
 30
0.0
 41
2.0
 42
2.0
 43
2.0
 50
180.0
  0
INSERT
  5
13E84
330
13AF4
100
AcDbEntity
  8
30
  6
Continuous
 62
     0
370
    -2
100
AcDbBlockReference
  2
_OPEN
 10
480.0
 20
-300.0958749999999
 30
0.0
 41
2.0
 42
2.0
 43
2.0
  0
MTEXT
  5
13E85
330
13AF4
100
AcDbEntity
  8
30
  6
Continuous
 62
     0
100
AcDbMText
 10
424.0
 20
-294.0958749999999
 30
0.0
 40
6.0
 41
0.0
 71
     5
 72
     1
  1
\A1; 112 
 73
     1
 44
1.0
  0
POINT
  5
13E86
330
13AF4
100
AcDbEntity
  8
DEFPOINTS
  6
Continuous
 62
     0
100
AcDbPoint
 10
368.0
 20
-175.0
 30
0.0
  0
POINT
  5
13E87
330
13AF4
100
AcDbEntity
  8
DEFPOINTS
  6
Continuous
 62
     0
100
AcDbPoint
 10
480.0
 20
-175.0
 30
0.0
  0
POINT
  5
13E88
330
13AF4
100
AcDbEntity
  8
DEFPOINTS
  6
Continuous
 62
     0
100
AcDbPoint
 10
480.0
 20
-300.0958749999999
 30
0.0
  0
ENDBLK
  5
13AFF
330
13AF4
100
AcDbEntity
  8
0
100
AcDbBlockEnd
  0
BLOCK
  5
13B16
330
13B0C
100
AcDbEntity
  8
0
100
AcDbBlockBegin
  2
*D36
 70
     1
 10
0.0
 20
0.0
 30
0.0
  3
*D36
  1

  0
LINE
  5
1409E
330
13B0C
100
AcDbEntity
  8
30
  6
Continuous
 62
     0
370
    -2
100
AcDbLine
 10
449.0
 20
288.0
 30
0.0
 11
449.0
 21
334.5
 31
0.0
  0
LINE
  5
1409F
330
13B0C
100
AcDbEntity
  8
30
  6
Continuous
 62
     0
370
    -2
100
AcDbLine
 10
480.0
 20
208.0
 30
0.0
 11
480.0
 21
334.5
 31
0.0
  0
LINE
  5
140A0
330
13B0C
100
AcDbEntity
  8
30
  6
Continuous
 62
     0
370
    -2
100
AcDbLine
 10
451.0
 20
334.0
 30
0.0
 11
478.0
 21
334.0
 31
0.0
  0
INSERT
  5
140A1
330
13B0C
100
AcDbEntity
  8
30
  6
Continuous
 62
     0
370
    -2
100
AcDbBlockReference
  2
_OPEN
 10
449.0
 20
334.0
 30
0.0
 41
2.0
 42
2.0
 43
2.0
 50
180.0
  0
INSERT
  5
140A2
330
13B0C
100
AcDbEntity
  8
30
  6
Continuous
 62
     0
370
    -2
100
AcDbBlockReference
  2
_OPEN
 10
480.0
 20
334.0
 30
0.0
 41
2.0
 42
2.0
 43
2.0
  0
MTEXT
  5
140A3
330
13B0C
100
AcDbEntity
  8
30
  6
Continuous
 62
     0
100
AcDbMText
 10
464.5
 20
340.0
 30
0.0
 40
6.0
 41
0.0
 71
     5
 72
     1
  1
\A1; 31 
 73
     1
 44
1.0
  0
POINT
  5
140A4
330
13B0C
100
AcDbEntity
  8
DEFPOINTS
  6
Continuous
 62
     0
100
AcDbPoint
 10
449.0
 20
285.0
 30
0.0
  0
POINT
  5
140A5
330
13B0C
100
AcDbEntity
  8
DEFPOINTS
  6
Continuous
 62
     0
100
AcDbPoint
 10
480.0
 20
205.0
 30
0.0
  0
POINT
  5
140A6
330
13B0C
100
AcDbEntity
  8
DEFPOINTS
  6
Continuous
 62
     0
100
AcDbPoint
 10
480.0
 20
334.0
 30
0.0
  0
ENDBLK
  5
13B17
330
13B0C
100
AcDbEntity
  8
0
100
AcDbBlockEnd
  0
BLOCK
  5
13C35
330
13C2B
100
AcDbEntity
  8
0
100
AcDbBlockBegin
  2
*D37
 70
     1
 10
0.0
 20
0.0
 30
0.0
  3
*D37
  1

  0
LINE
  5
13E9B
330
13C2B
100
AcDbEntity
  8
30
  6
Continuous
 62
     0
370
    -2
100
AcDbLine
 10
452.0000000000004
 20
-142.4999999999994
 30
0.0
 11
452.0000000000004
 21
-122.4999999999999
 31
0.0
  0
LINE
  5
13E9C
330
13C2B
100
AcDbEntity
  8
30
  6
Continuous
 62
     0
370
    -2
100
AcDbLine
 10
480.0
 20
-146.9999999999998
 30
0.0
 11
480.0
 21
-122.4999999999999
 31
0.0
  0
LINE
  5
13E9D
330
13C2B
100
AcDbEntity
  8
30
  6
Continuous
 62
     0
370
    -2
100
AcDbLine
 10
454.0000000000004
 20
-122.9999999999999
 30
0.0
 11
478.0
 21
-122.9999999999999
 31
0.0
  0
INSERT
  5
13E9E
330
13C2B
100
AcDbEntity
  8
30
  6
Continuous
 62
     0
370
    -2
100
AcDbBlockReference
  2
_OPEN
 10
452.0000000000004
 20
-122.9999999999999
 30
0.0
 41
2.0
 42
2.0
 43
2.0
 50
180.0
  0
INSERT
  5
13E9F
330
13C2B
100
AcDbEntity
  8
30
  6
Continuous
 62
     0
370
    -2
100
AcDbBlockReference
  2
_OPEN
 10
480.0
 20
-122.9999999999999
 30
0.0
 41
2.0
 42
2.0
 43
2.0
  0
MTEXT
  5
13EA0
330
13C2B
100
AcDbEntity
  8
30
  6
Continuous
 62
     0
100
AcDbMText
 10
466.0000000000002
 20
-116.9999999999999
 30
0.0
 40
6.0
 41
0.0
 71
     5
 72
     1
  1
\A1;28
 73
     1
 44
1.0
  0
POINT
  5
13EA1
330
13C2B
100
AcDbEntity
  8
DEFPOINTS
  6
Continuous
 62
     0
100
AcDbPoint
 10
452.0000000000004
 20
-145.4999999999994
 30
0.0
  0
POINT
  5
13EA2
330
13C2B
100
AcDbEntity
  8
DEFPOINTS
  6
Continuous
 62
     0
100
AcDbPoint
 10
480.0
 20
-149.9999999999998
 30
0.0
  0
POINT
  5
13EA3
330
13C2B
100
AcDbEntity
  8
DEFPOINTS
  6
Continuous
 62
     0
100
AcDbPoint
 10
480.0
 20
-122.9999999999999
 30
0.0
  0
ENDBLK
  5
13C36
330
13C2B
100
AcDbEntity
  8
0
100
AcDbBlockEnd
  0
BLOCK
  5
13C42
330
13C38
100
AcDbEntity
  8
0
100
AcDbBlockBegin
  2
*D38
 70
     1
 10
0.0
 20
0.0
 30
0.0
  3
*D38
  1

  0
LINE
  5
13EA4
330
13C38
100
AcDbEntity
  8
30
  6
Continuous
 62
     0
370
    -2
100
AcDbLine
 10
480.0
 20
-146.9999999999998
 30
0.0
 11
480.0
 21
-122.4999999999999
 31
0.0
  0
LINE
  5
13EA5
330
13C38
100
AcDbEntity
  8
30
  6
Continuous
 62
     0
370
    -2
100
AcDbLine
 10
497.9999999999995
 20
-146.9999999999998
 30
0.0
 11
497.9999999999995
 21
-122.4999999999999
 31
0.0
  0
LINE
  5
13EA6
330
13C38
100
AcDbEntity
  8
30
  6
Continuous
 62
     0
370
    -2
100
AcDbLine
 10
482.0
 20
-122.9999999999999
 30
0.0
 11
495.9999999999995
 21
-122.9999999999999
 31
0.0
  0
INSERT
  5
13EA7
330
13C38
100
AcDbEntity
  8
30
  6
Continuous
 62
     0
370
    -2
100
AcDbBlockReference
  2
_OPEN
 10
480.0
 20
-122.9999999999999
 30
0.0
 41
2.0
 42
2.0
 43
2.0
 50
180.0
  0
INSERT
  5
13EA8
330
13C38
100
AcDbEntity
  8
30
  6
Continuous
 62
     0
370
    -2
100
AcDbBlockReference
  2
_OPEN
 10
497.9999999999995
 20
-122.9999999999999
 30
0.0
 41
2.0
 42
2.0
 43
2.0
  0
MTEXT
  5
13EA9
330
13C38
100
AcDbEntity
  8
30
  6
Continuous
 62
     0
100
AcDbMText
 10
488.9999999999997
 20
-116.9999999999999
 30
0.0
 40
6.0
 41
0.0
 71
     5
 72
     1
  1
\A1;18
 73
     1
 44
1.0
  0
POINT
  5
13EAA
330
13C38
100
AcDbEntity
  8
DEFPOINTS
  6
Continuous
 62
     0
100
AcDbPoint
 10
480.0
 20
-149.9999999999998
 30
0.0
  0
POINT
  5
13EAB
330
13C38
100
AcDbEntity
  8
DEFPOINTS
  6
Continuous
 62
     0
100
AcDbPoint
 10
497.9999999999995
 20
-149.9999999999998
 30
0.0
  0
POINT
  5
13EAC
330
13C38
100
AcDbEntity
  8
DEFPOINTS
  6
Continuous
 62
     0
100
AcDbPoint
 10
497.9999999999995
 20
-122.9999999999999
 30
0.0
  0
ENDBLK
  5
13C43
330
13C38
100
AcDbEntity
  8
0
100
AcDbBlockEnd
  0
BLOCK
  5
13E04
330
13DF9
100
AcDbEntity
  8
0
100
AcDbBlockBegin
  2
*D39
 70
     1
 10
0.0
 20
0.0
 30
0.0
  3
*D39
  1

  0
LINE
  5
13E2E
330
13DF9
100
AcDbEntity
  8
30
  6
Continuous
 62
     0
370
    -2
100
AcDbLine
 10
449.0
 20
283.0
 30
0.0
 11
449.0
 21
334.5
 31
0.0
  0
LINE
  5
13E2F
330
13DF9
100
AcDbEntity
  8
30
  6
Continuous
 62
     0
370
    -2
100
AcDbLine
 10
435.0
 20
283.0
 30
0.0
 11
435.0
 21
334.5
 31
0.0
  0
LINE
  5
13E30
330
13DF9
100
AcDbEntity
  8
30
  6
Continuous
 62
     0
370
    -2
100
AcDbLine
 10
447.0
 20
334.0
 30
0.0
 11
437.0
 21
334.0
 31
0.0
  0
INSERT
  5
13E31
330
13DF9
100
AcDbEntity
  8
30
  6
Continuous
 62
     0
370
    -2
100
AcDbBlockReference
  2
_OPEN
 10
449.0
 20
334.0
 30
0.0
 41
2.0
 42
2.0
 43
2.0
  0
INSERT
  5
13E32
330
13DF9
100
AcDbEntity
  8
30
  6
Continuous
 62
     0
370
    -2
100
AcDbBlockReference
  2
_OPEN
 10
435.0
 20
334.0
 30
0.0
 41
2.0
 42
2.0
 43
2.0
 50
180.0
  0
MTEXT
  5
13E33
330
13DF9
100
AcDbEntity
  8
30
  6
Continuous
 62
     0
100
AcDbMText
 10
443.0
 20
340.0
 30
0.0
 40
6.0
 41
0.0
 71
     5
 72
     1
  1
\A1;14
 73
     1
 44
1.0
  0
POINT
  5
13E34
330
13DF9
100
AcDbEntity
  8
DEFPOINTS
  6
Continuous
 62
     0
100
AcDbPoint
 10
449.0
 20
280.0
 30
0.0
  0
POINT
  5
13E35
330
13DF9
100
AcDbEntity
  8
DEFPOINTS
  6
Continuous
 62
     0
100
AcDbPoint
 10
435.0
 20
280.0
 30
0.0
  0
POINT
  5
13E36
330
13DF9
100
AcDbEntity
  8
DEFPOINTS
  6
Continuous
 62
     0
100
AcDbPoint
 10
435.0
 20
334.0
 30
0.0
  0
ENDBLK
  5
13E05
330
13DF9
100
AcDbEntity
  8
0
100
AcDbBlockEnd
  0
BLOCK
  5
141FC
330
141F0
100
AcDbEntity
  8
0
100
AcDbBlockBegin
  2
*D40
 70
     1
 10
0.0
 20
0.0
 30
0.0
  3
*D40
  1

  0
LINE
  5
14210
330
141F0
100
AcDbEntity
  8
30
  6
Continuous
 62
     0
370
    -2
100
AcDbLine
 10
95.5
 20
511.0
 30
0.0
 11
135.5
 21
510.9999999999999
 31
0.0
  0
LINE
  5
14211
330
141F0
100
AcDbEntity
  8
30
  6
Continuous
 62
     0
370
    -2
100
AcDbLine
 10
95.5
 20
497.0
 30
0.0
 11
135.5
 21
496.9999999999999
 31
0.0
  0
LINE
  5
14212
330
141F0
100
AcDbEntity
  8
30
  6
Continuous
 62
     0
370
    -2
100
AcDbLine
 10
135.0
 20
508.9999999999999
 30
0.0
 11
135.0
 21
498.9999999999999
 31
0.0
  0
INSERT
  5
14213
330
141F0
100
AcDbEntity
  8
30
  6
Continuous
 62
     0
370
    -2
100
AcDbBlockReference
  2
_OPEN
 10
135.0
 20
510.9999999999999
 30
0.0
 41
2.0
 42
2.0
 43
2.0
 50
90.0
  0
INSERT
  5
14214
330
141F0
100
AcDbEntity
  8
30
  6
Continuous
 62
     0
370
    -2
100
AcDbBlockReference
  2
_OPEN
 10
135.0
 20
496.9999999999999
 30
0.0
 41
2.0
 42
2.0
 43
2.0
 50
270.0
  0
MTEXT
  5
14215
330
141F0
100
AcDbEntity
  8
30
  6
Continuous
 62
     0
100
AcDbMText
 10
129.0
 20
504.0
 30
0.0
 40
6.0
 41
0.0
 71
     5
 72
     1
  1
\A1;14
 11
0.0000000000000001
 21
1.0
 31
0.0
 73
     1
 44
1.0
  0
POINT
  5
14216
330
141F0
100
AcDbEntity
  8
DEFPOINTS
  6
Continuous
 62
     0
100
AcDbPoint
 10
92.5
 20
511.0
 30
0.0
  0
POINT
  5
14217
330
141F0
100
AcDbEntity
  8
DEFPOINTS
  6
Continuous
 62
     0
100
AcDbPoint
 10
92.5
 20
497.0
 30
0.0
  0
POINT
  5
14218
330
141F0
100
AcDbEntity
  8
DEFPOINTS
  6
Continuous
 62
     0
100
AcDbPoint
 10
135.0
 20
496.9999999999999
 30
0.0
  0
ENDBLK
  5
141FD
330
141F0
100
AcDbEntity
  8
0
100
AcDbBlockEnd
  0
BLOCK
  5
147C6
330
147BB
100
AcDbEntity
  8
0
100
AcDbBlockBegin
  2
*D41
 70
     1
 10
0.0
 20
0.0
 30
0.0
  3
*D41
  1

  0
LINE
  5
147C8
330
147BB
100
AcDbEntity
  8
30
  6
Continuous
 62
     0
370
    -2
100
AcDbLine
 10
63.5
 20
230.0
 30
0.0
 11
63.5
 21
204.4999999999999
 31
0.0
  0
LINE
  5
147C9
330
147BB
100
AcDbEntity
  8
30
  6
Continuous
 62
     0
370
    -2
100
AcDbLine
 10
76.5
 20
230.0
 30
0.0
 11
76.5
 21
204.4999999999999
 31
0.0
  0
LINE
  5
147CA
330
147BB
100
AcDbEntity
  8
30
  6
Continuous
 62
     0
370
    -2
100
AcDbLine
 10
65.5
 20
205.0
 30
0.0
 11
74.5
 21
205.0
 31
0.0
  0
INSERT
  5
147CB
330
147BB
100
AcDbEntity
  8
30
  6
Continuous
 62
     0
370
    -2
100
AcDbBlockReference
  2
_OPEN
 10
63.5
 20
205.0
 30
0.0
 41
2.0
 42
2.0
 43
2.0
 50
180.0
  0
INSERT
  5
147CC
330
147BB
100
AcDbEntity
  8
30
  6
Continuous
 62
     0
370
    -2
100
AcDbBlockReference
  2
_OPEN
 10
76.5
 20
205.0
 30
0.0
 41
2.0
 42
2.0
 43
2.0
  0
MTEXT
  5
147CD
330
147BB
100
AcDbEntity
  8
30
  6
Continuous
 62
     0
100
AcDbMText
 10
70.0
 20
211.0
 30
0.0
 40
6.0
 41
0.0
 71
     5
 72
     1
  1
\A1;13
 73
     1
 44
1.0
  0
POINT
  5
147CE
330
147BB
100
AcDbEntity
  8
DEFPOINTS
  6
Continuous
 62
     0
100
AcDbPoint
 10
63.5
 20
233.0
 30
0.0
  0
POINT
  5
147CF
330
147BB
100
AcDbEntity
  8
DEFPOINTS
  6
Continuous
 62
     0
100
AcDbPoint
 10
76.5
 20
233.0
 30
0.0
  0
POINT
  5
147D0
330
147BB
100
AcDbEntity
  8
DEFPOINTS
  6
Continuous
 62
     0
100
AcDbPoint
 10
76.5
 20
205.0
 30
0.0
  0
ENDBLK
  5
147C7
330
147BB
100
AcDbEntity
  8
0
100
AcDbBlockEnd
  0
BLOCK
  5
148A4
330
1489A
100
AcDbEntity
  8
0
100
AcDbBlockBegin
  2
*D42
 70
     1
 10
0.0
 20
0.0
 30
0.0
  3
*D42
  1

  0
LINE
  5
148A6
330
1489A
100
AcDbEntity
  8
30
  6
Continuous
 62
     0
370
    -2
100
AcDbLine
 10
-0.0000000000000002
 20
-267.5000000000004
 30
0.0
 11
-0.0000000000000016
 21
-290.4198416280937
 31
0.0
  0
LINE
  5
148A7
330
1489A
100
AcDbEntity
  8
30
  6
Continuous
 62
     0
370
    -2
100
AcDbLine
 10
70.0
 20
-252.9999999999998
 30
0.0
 11
70.0
 21
-290.4198416280937
 31
0.0
  0
LINE
  5
148A8
330
1489A
100
AcDbEntity
  8
30
  6
Continuous
 62
     0
370
    -2
100
AcDbLine
 10
1.999999999999998
 20
-289.9198416280937
 30
0.0
 11
68.0
 21
-289.9198416280937
 31
0.0
  0
INSERT
  5
148A9
330
1489A
100
AcDbEntity
  8
30
  6
Continuous
 62
     0
370
    -2
100
AcDbBlockReference
  2
_OPEN
 10
-0.0000000000000016
 20
-289.9198416280937
 30
0.0
 41
2.0
 42
2.0
 43
2.0
 50
180.0
  0
INSERT
  5
148AA
330
1489A
100
AcDbEntity
  8
30
  6
Continuous
 62
     0
370
    -2
100
AcDbBlockReference
  2
_OPEN
 10
70.0
 20
-289.9198416280937
 30
0.0
 41
2.0
 42
2.0
 43
2.0
  0
MTEXT
  5
148AB
330
1489A
100
AcDbEntity
  8
30
  6
Continuous
 62
     0
100
AcDbMText
 10
35.0
 20
-283.9198416280937
 30
0.0
 40
6.0
 41
0.0
 71
     5
 72
     1
  1
\A1; 70 
 73
     1
 44
1.0
  0
POINT
  5
148AC
330
1489A
100
AcDbEntity
  8
DEFPOINTS
  6
Continuous
 62
     0
100
AcDbPoint
 10
0.0
 20
-264.5000000000004
 30
0.0
  0
POINT
  5
148AD
330
1489A
100
AcDbEntity
  8
DEFPOINTS
  6
Continuous
 62
     0
100
AcDbPoint
 10
70.0
 20
-249.9999999999999
 30
0.0
  0
POINT
  5
148AE
330
1489A
100
AcDbEntity
  8
DEFPOINTS
  6
Continuous
 62
     0
100
AcDbPoint
 10
70.0
 20
-289.9198416280937
 30
0.0
  0
ENDBLK
  5
148A5
330
1489A
100
AcDbEntity
  8
0
100
AcDbBlockEnd
  0
BLOCK
  5
14980
330
14976
100
AcDbEntity
  8
0
100
AcDbBlockBegin
  2
*D43
 70
     1
 10
0.0
 20
0.0
 30
0.0
  3
*D43
  1

  0
LINE
  5
14977
330
14976
100
AcDbEntity
  8
30
  6
Continuous
 62
     0
370
    -2
100
AcDbLine
 10
-39.25
 20
310.0
 30
0.0
 11
-120.1396806544671
 21
310.0
 31
0.0
  0
LINE
  5
14978
330
14976
100
AcDbEntity
  8
30
  6
Continuous
 62
     0
370
    -2
100
AcDbLine
 10
-95.5
 20
200.0
 30
0.0
 11
-120.1396806544671
 21
200.0
 31
0.0
  0
LINE
  5
14979
330
14976
100
AcDbEntity
  8
30
  6
Continuous
 62
     0
370
    -2
100
AcDbLine
 10
-119.6396806544671
 20
308.0
 30
0.0
 11
-119.6396806544671
 21
202.0
 31
0.0
  0
INSERT
  5
1497A
330
14976
100
AcDbEntity
  8
30
  6
Continuous
 62
     0
370
    -2
100
AcDbBlockReference
  2
_OPEN
 10
-119.6396806544671
 20
310.0
 30
0.0
 41
2.0
 42
2.0
 43
2.0
 50
90.0
  0
INSERT
  5
1497B
330
14976
100
AcDbEntity
  8
30
  6
Continuous
 62
     0
370
    -2
100
AcDbBlockReference
  2
_OPEN
 10
-119.6396806544671
 20
200.0
 30
0.0
 41
2.0
 42
2.0
 43
2.0
 50
270.0
  0
MTEXT
  5
1497C
330
14976
100
AcDbEntity
  8
30
  6
Continuous
 62
     0
100
AcDbMText
 10
-125.6396806544672
 20
255.0
 30
0.0
 40
6.0
 41
0.0
 71
     5
 72
     1
  1
\A1;110
 11
0.0000000000000001
 21
1.0
 31
0.0
 73
     1
 44
1.0
  0
POINT
  5
1497D
330
14976
100
AcDbEntity
  8
DEFPOINTS
  6
Continuous
 62
     0
100
AcDbPoint
 10
-36.25
 20
310.0
 30
0.0
  0
POINT
  5
1497E
330
14976
100
AcDbEntity
  8
DEFPOINTS
  6
Continuous
 62
     0
100
AcDbPoint
 10
-92.5
 20
200.0
 30
0.0
  0
POINT
  5
1497F
330
14976
100
AcDbEntity
  8
DEFPOINTS
  6
Continuous
 62
     0
100
AcDbPoint
 10
-119.6396806544671
 20
200.0
 30
0.0
  0
ENDBLK
  5
14981
330
14976
100
AcDbEntity
  8
0
100
AcDbBlockEnd
  0
BLOCK
  5
149D2
330
149C6
100
AcDbEntity
  8
0
100
AcDbBlockBegin
  2
*D48
 70
     1
 10
0.0
 20
0.0
 30
0.0
  3
*D48
  1

  0
LINE
  5
149F8
330
149C6
100
AcDbEntity
  8
30
  6
Continuous
 62
     0
370
    -2
100
AcDbLine
 10
65.49999999999963
 20
-202.9999999999997
 30
0.0
 11
122.7411874274876
 21
-202.9999999999997
 31
0.0
  0
LINE
  5
149F9
330
149C6
100
AcDbEntity
  8
30
  6
Continuous
 62
     0
370
    -2
100
AcDbLine
 10
65.49999999999963
 20
-194.9999999999997
 30
0.0
 11
122.7411874274876
 21
-194.9999999999997
 31
0.0
  0
LINE
  5
149FA
330
149C6
100
AcDbEntity
  8
30
  6
Continuous
 62
     0
370
    -2
100
AcDbLine
 10
122.2411874274876
 20
-204.9999999999997
 30
0.0
 11
122.2411874274876
 21
-206.9999999999997
 31
0.0
  0
LINE
  5
149FB
330
149C6
100
AcDbEntity
  8
30
  6
Continuous
 62
     0
370
    -2
100
AcDbLine
 10
122.2411874274876
 20
-192.9999999999998
 30
0.0
 11
122.2411874274876
 21
-190.9999999999998
 31
0.0
  0
MTEXT
  5
149FC
330
149C6
100
AcDbEntity
  8
30
  6
Continuous
 62
     0
100
AcDbMText
 10
116.0416694375644
 20
-200.9525246916012
 30
0.0
 40
6.0
 41
0.0
 71
     5
 72
     1
  1
\A1; 8 
 11
0.0000000000000001
 21
1.0
 31
0.0
 73
     1
 44
1.0
  0
LINE
  5
149FD
330
149C6
100
AcDbEntity
  8
30
  6
Continuous
 62
     0
370
    -2
100
AcDbLine
 10
122.2411874274876
 20
-202.9999999999997
 30
0.0
 11
122.2411874274876
 21
-194.9999999999997
 31
0.0
  0
INSERT
  5
149FE
330
149C6
100
AcDbEntity
  8
30
  6
Continuous
 62
     0
370
    -2
100
AcDbBlockReference
  2
_OPEN
 10
122.2411874274876
 20
-202.9999999999997
 30
0.0
 41
2.0
 42
2.0
 43
2.0
 50
90.0
  0
INSERT
  5
149FF
330
149C6
100
AcDbEntity
  8
30
  6
Continuous
 62
     0
370
    -2
100
AcDbBlockReference
  2
_OPEN
 10
122.2411874274876
 20
-194.9999999999997
 30
0.0
 41
2.0
 42
2.0
 43
2.0
 50
270.0
  0
POINT
  5
14A00
330
149C6
100
AcDbEntity
  8
DEFPOINTS
  6
Continuous
 62
     0
100
AcDbPoint
 10
62.49999999999963
 20
-202.9999999999996
 30
0.0
  0
POINT
  5
14A01
330
149C6
100
AcDbEntity
  8
DEFPOINTS
  6
Continuous
 62
     0
100
AcDbPoint
 10
62.49999999999963
 20
-194.9999999999997
 30
0.0
  0
POINT
  5
14A02
330
149C6
100
AcDbEntity
  8
DEFPOINTS
  6
Continuous
 62
     0
100
AcDbPoint
 10
122.2411874274876
 20
-194.9999999999997
 30
0.0
  0
ENDBLK
  5
149D3
330
149C6
100
AcDbEntity
  8
0
100
AcDbBlockEnd
  0
BLOCK
  5
149DE
330
149D4
100
AcDbEntity
  8
0
100
AcDbBlockBegin
  2
*D49
 70
     1
 10
0.0
 20
0.0
 30
0.0
  3
*D49
  1

  0
LINE
  5
14A03
330
149D4
100
AcDbEntity
  8
30
  6
Continuous
 62
     0
370
    -2
100
AcDbLine
 10
85.49999999999981
 20
-249.9999999999996
 30
0.0
 11
122.7411874274876
 21
-249.9999999999996
 31
0.0
  0
LINE
  5
14A04
330
149D4
100
AcDbEntity
  8
30
  6
Continuous
 62
     0
370
    -2
100
AcDbLine
 10
65.49999999999963
 20
-234.9999999999996
 30
0.0
 11
122.7411874274876
 21
-234.9999999999996
 31
0.0
  0
LINE
  5
14A05
330
149D4
100
AcDbEntity
  8
30
  6
Continuous
 62
     0
370
    -2
100
AcDbLine
 10
122.2411874274876
 20
-247.9999999999996
 30
0.0
 11
122.2411874274876
 21
-236.9999999999996
 31
0.0
  0
INSERT
  5
14A06
330
149D4
100
AcDbEntity
  8
30
  6
Continuous
 62
     0
370
    -2
100
AcDbBlockReference
  2
_OPEN
 10
122.2411874274876
 20
-249.9999999999996
 30
0.0
 41
2.0
 42
2.0
 43
2.0
 50
270.0
  0
INSERT
  5
14A07
330
149D4
100
AcDbEntity
  8
30
  6
Continuous
 62
     0
370
    -2
100
AcDbBlockReference
  2
_OPEN
 10
122.2411874274876
 20
-234.9999999999996
 30
0.0
 41
2.0
 42
2.0
 43
2.0
 50
90.0
  0
MTEXT
  5
14A08
330
149D4
100
AcDbEntity
  8
30
  6
Continuous
 62
     0
100
AcDbMText
 10
116.2411874274876
 20
-245.9050493832026
 30
0.0
 40
6.0
 41
0.0
 71
     5
 72
     1
  1
\A1; 15 
 11
0.0000000000000001
 21
1.0
 31
0.0
 73
     1
 44
1.0
  0
POINT
  5
14A09
330
149D4
100
AcDbEntity
  8
DEFPOINTS
  6
Continuous
 62
     0
100
AcDbPoint
 10
82.4999999999998
 20
-249.9999999999996
 30
0.0
  0
POINT
  5
14A0A
330
149D4
100
AcDbEntity
  8
DEFPOINTS
  6
Continuous
 62
     0
100
AcDbPoint
 10
62.49999999999963
 20
-234.9999999999995
 30
0.0
  0
POINT
  5
14A0B
330
149D4
100
AcDbEntity
  8
DEFPOINTS
  6
Continuous
 62
     0
100
AcDbPoint
 10
122.2411874274876
 20
-234.9999999999996
 30
0.0
  0
ENDBLK
  5
149DF
330
149D4
100
AcDbEntity
  8
0
100
AcDbBlockEnd
  0
BLOCK
  5
149EA
330
149E0
100
AcDbEntity
  8
0
100
AcDbBlockBegin
  2
*D50
 70
     1
 10
0.0
 20
0.0
 30
0.0
  3
*D50
  1

  0
LINE
  5
14A0C
330
149E0
100
AcDbEntity
  8
30
  6
Continuous
 62
     0
370
    -2
100
AcDbLine
 10
65.49999999999963
 20
-234.9999999999996
 30
0.0
 11
122.7411874274876
 21
-234.9999999999996
 31
0.0
  0
LINE
  5
14A0D
330
149E0
100
AcDbEntity
  8
30
  6
Continuous
 62
     0
370
    -2
100
AcDbLine
 10
65.49999999999963
 20
-202.9999999999997
 30
0.0
 11
122.7411874274876
 21
-202.9999999999997
 31
0.0
  0
LINE
  5
14A0E
330
149E0
100
AcDbEntity
  8
30
  6
Continuous
 62
     0
370
    -2
100
AcDbLine
 10
122.2411874274876
 20
-232.9999999999996
 30
0.0
 11
122.2411874274876
 21
-204.9999999999997
 31
0.0
  0
INSERT
  5
14A0F
330
149E0
100
AcDbEntity
  8
30
  6
Continuous
 62
     0
370
    -2
100
AcDbBlockReference
  2
_OPEN
 10
122.2411874274876
 20
-234.9999999999996
 30
0.0
 41
2.0
 42
2.0
 43
2.0
 50
270.0
  0
INSERT
  5
14A10
330
149E0
100
AcDbEntity
  8
30
  6
Continuous
 62
     0
370
    -2
100
AcDbBlockReference
  2
_OPEN
 10
122.2411874274876
 20
-202.9999999999997
 30
0.0
 41
2.0
 42
2.0
 43
2.0
 50
90.0
  0
MTEXT
  5
14A11
330
149E0
100
AcDbEntity
  8
30
  6
Continuous
 62
     0
100
AcDbMText
 10
116.2411874274876
 20
-218.9999999999996
 30
0.0
 40
6.0
 41
0.0
 71
     5
 72
     1
  1
\A1; 32 
 11
0.0000000000000001
 21
1.0
 31
0.0
 73
     1
 44
1.0
  0
POINT
  5
14A12
330
149E0
100
AcDbEntity
  8
DEFPOINTS
  6
Continuous
 62
     0
100
AcDbPoint
 10
62.49999999999963
 20
-234.9999999999995
 30
0.0
  0
POINT
  5
14A13
330
149E0
100
AcDbEntity
  8
DEFPOINTS
  6
Continuous
 62
     0
100
AcDbPoint
 10
62.49999999999963
 20
-202.9999999999996
 30
0.0
  0
POINT
  5
14A14
330
149E0
100
AcDbEntity
  8
DEFPOINTS
  6
Continuous
 62
     0
100
AcDbPoint
 10
122.2411874274876
 20
-202.9999999999997
 30
0.0
  0
ENDBLK
  5
149EB
330
149E0
100
AcDbEntity
  8
0
100
AcDbBlockEnd
  0
BLOCK
  5
149F6
330
149EC
100
AcDbEntity
  8
0
100
AcDbBlockBegin
  2
*D51
 70
     1
 10
0.0
 20
0.0
 30
0.0
  3
*D51
  1

  0
LINE
  5
14A15
330
149EC
100
AcDbEntity
  8
30
  6
Continuous
 62
     0
370
    -2
100
AcDbLine
 10
65.49999999999963
 20
-194.9999999999997
 30
0.0
 11
122.7411874274876
 21
-194.9999999999997
 31
0.0
  0
LINE
  5
14A16
330
149EC
100
AcDbEntity
  8
30
  6
Continuous
 62
     0
370
    -2
100
AcDbLine
 10
100.4999999999998
 20
-169.9999999999998
 30
0.0
 11
122.7411874274876
 21
-169.9999999999998
 31
0.0
  0
LINE
  5
14A17
330
149EC
100
AcDbEntity
  8
30
  6
Continuous
 62
     0
370
    -2
100
AcDbLine
 10
122.2411874274876
 20
-192.9999999999998
 30
0.0
 11
122.2411874274876
 21
-171.9999999999998
 31
0.0
  0
INSERT
  5
14A18
330
149EC
100
AcDbEntity
  8
30
  6
Continuous
 62
     0
370
    -2
100
AcDbBlockReference
  2
_OPEN
 10
122.2411874274876
 20
-194.9999999999997
 30
0.0
 41
2.0
 42
2.0
 43
2.0
 50
270.0
  0
INSERT
  5
14A19
330
149EC
100
AcDbEntity
  8
30
  6
Continuous
 62
     0
370
    -2
100
AcDbBlockReference
  2
_OPEN
 10
122.2411874274876
 20
-169.9999999999998
 30
0.0
 41
2.0
 42
2.0
 43
2.0
 50
90.0
  0
MTEXT
  5
14A1A
330
149EC
100
AcDbEntity
  8
30
  6
Continuous
 62
     0
100
AcDbMText
 10
116.2411874274876
 20
-182.4999999999998
 30
0.0
 40
6.0
 41
0.0
 71
     5
 72
     1
  1
\A1; 25 
 11
0.0000000000000001
 21
1.0
 31
0.0
 73
     1
 44
1.0
  0
POINT
  5
14A1B
330
149EC
100
AcDbEntity
  8
DEFPOINTS
  6
Continuous
 62
     0
100
AcDbPoint
 10
62.49999999999963
 20
-194.9999999999997
 30
0.0
  0
POINT
  5
14A1C
330
149EC
100
AcDbEntity
  8
DEFPOINTS
  6
Continuous
 62
     0
100
AcDbPoint
 10
97.4999999999998
 20
-169.9999999999998
 30
0.0
  0
POINT
  5
14A1D
330
149EC
100
AcDbEntity
  8
DEFPOINTS
  6
Continuous
 62
     0
100
AcDbPoint
 10
122.2411874274876
 20
-169.9999999999998
 30
0.0
  0
ENDBLK
  5
149F7
330
149EC
100
AcDbEntity
  8
0
100
AcDbBlockEnd
  0
ENDSEC
  0
SECTION
  2
ENTITIES
  0
MTEXT
  5
BF3
330
1E
100
AcDbEntity
  8
24
  6
Continuous
100
AcDbMText
 10
-860.8818093901257
 20
177.5
 30
0.0
 40
3.0
 41
0.0
 71
     1
 72
     1
  1
\A1;
 73
     1
 44
1.0
  0
LINE
  5
10DD5
330
1E
100
AcDbEntity
  8
16
100
AcDbLine
 10
0.0
 20
-280.0
 30
0.0
 11
0.0
 21
310.0
 31
0.0
  0
DIMENSION
  5
10DD9
330
1E
100
AcDbEntity
  8
30
  6
Continuous
100
AcDbDimension
  2
*D1
 10
-0.0000000000000024
 20
-289.9198416280937
 30
0.0
 11
-35.0
 21
-283.9198416280937
 31
0.0
 70
    32
  1
 <> 
 71
     5
 42
70.0
  3
STANDARD1
100
AcDbAlignedDimension
 13
-70.0
 23
-264.5000000000004
 33
0.0
 14
0.0
 24
-249.9999999999999
 34
0.0
100
AcDbRotatedDimension
  0
DIMENSION
  5
10DF0
330
1E
100
AcDbEntity
  8
30
  6
Continuous
100
AcDbDimension
  2
*D2
 10
92.5
 20
-269.8945311999282
 30
0.0
 11
70.0
 21
-263.8945311999282
 31
0.0
 70
    32
  1
 <> 
 71
     5
 42
44.99999999999999
  3
STANDARD1
100
AcDbAlignedDimension
 13
47.5
 23
-249.9999999999999
 33
0.0
 14
92.5
 24
-249.9999999999999
 34
0.0
100
AcDbRotatedDimension
  0
DIMENSION
  5
10E4B
330
1E
100
AcDbEntity
  8
30
  6
Continuous
100
AcDbDimension
  2
*D3
 10
280.0000000000004
 20
169.9999999999991
 30
0.0
 11
274.0000000000004
 21
84.99999999999914
 31
0.0
 70
    32
  1
 <> 
 71
     0
 72
     0
 41
0.0
 42
170.0
  3
STANDARD1
100
AcDbAlignedDimension
 13
287.1000000000012
 23
-0.0000000000009095
 33
0.0
 14
355.0000000000009
 24
169.999999999999
 34
0.0
 50
90.0
100
AcDbRotatedDimension
  0
DIMENSION
  5
10E4C
330
1E
100
AcDbEntity
  8
30
  6
Continuous
100
AcDbDimension
  2
*D4
 10
280.0000000000004
 20
-0.0000000000009061
 30
0.0
 11
274.0000000000004
 21
-70.00000000000085
 31
0.0
 70
    32
  1
 <> 
 71
     0
 72
     0
 41
0.0
 42
139.9999999999999
  3
STANDARD1
100
AcDbAlignedDimension
 13
355.0000000000009
 23
-140.0000000000009
 33
0.0
 14
292.1000000000012
 24
-0.0000000000009095
 34
0.0
 50
90.0
100
AcDbRotatedDimension
  0
DIMENSION
  5
10E62
330
1E
100
AcDbEntity
  8
30
  6
Continuous
100
AcDbDimension
  2
*D5
 10
480.0000000000004
 20
-279.9999999999999
 30
0.0
 11
465.5000000000004
 21
-273.9999999999999
 31
0.0
 70
    32
  1
 <> 
 71
     5
 42
29.0
  3
STANDARD1
100
AcDbAlignedDimension
 13
451.0000000000004
 23
-249.9999999999999
 33
0.0
 14
480.0000000000004
 24
-175.0000000000007
 34
0.0
100
AcDbRotatedDimension
  0
DIMENSION
  5
10E6B
330
1E
100
AcDbEntity
  8
30
  6
Continuous
100
AcDbDimension
  2
*D6
 10
451.0000000000004
 20
-279.9999999999999
 30
0.0
 11
444.0
 21
-279.9999999999999
 31
0.0
 70
   160
  1
<> 
 71
     5
 42
14.0
  3
STANDARD1
100
AcDbAlignedDimension
 13
437.0000000000004
 23
-249.9999999999999
 33
0.0
 14
451.0000000000004
 24
-249.9999999999999
 34
0.0
100
AcDbRotatedDimension
  0
LWPOLYLINE
  5
115BD
330
1E
100
AcDbEntity
  8
10
  6
Continuous
100
AcDbPolyline
 90
        4
 70
     1
 43
0.0
 10
-105.0
 20
542.0
 10
105.0
 20
542.0
 10
104.9999999999999
 20
430.0
 10
-105.0
 20
430.0
  0
LWPOLYLINE
  5
115C2
330
1E
100
AcDbEntity
  8
10
  6
Continuous
100
AcDbPolyline
 90
        4
 70
     1
 43
0.0
 10
-105.0
 20
430.0
 10
104.9999999999999
 20
430.0
 10
104.9999999999999
 20
422.0000000000004
 10
-105.0
 20
422.0000000000004
  0
LWPOLYLINE
  5
115D0
330
1E
100
AcDbEntity
  8
10
  6
Continuous
100
AcDbPolyline
 90
        4
 70
     1
 43
0.0
 10
94.99999999999998
 20
415.0
 10
-95.00000000000001
 20
415.0
 10
-95.00000000000001
 20
422.0000000000004
 10
94.99999999999998
 20
422.0000000000004
  0
LWPOLYLINE
  5
115D1
330
1E
100
AcDbEntity
  8
10
  6
Continuous
100
AcDbPolyline
 90
        4
 70
     1
 43
0.0
 10
-39.00000000000002
 20
405.0000000000001
 10
38.99999999999952
 20
405.0
 10
38.99999999999952
 20
415.0
 10
-39.00000000000002
 20
415.0
  0
LWPOLYLINE
  5
115D7
330
1E
100
AcDbEntity
  8
10
  6
Continuous
100
AcDbPolyline
 90
        4
 70
     1
 43
0.0
 10
22.49999999999997
 20
371.0000000000002
 10
-22.50000000000002
 20
371.0000000000002
 10
-22.50000000000001
 20
405.0
 10
22.49999999999998
 20
405.0
  0
LWPOLYLINE
  5
115E0
330
1E
100
AcDbEntity
  8
10
  6
Continuous
100
AcDbPolyline
 90
        4
 70
     1
 43
0.0
 10
-92.5
 20
511.0
 10
-47.5
 20
511.0
 10
-47.5
 20
497.0
 10
-92.5
 20
497.0
  0
LWPOLYLINE
  5
115E1
330
1E
100
AcDbEntity
  8
10
  6
Continuous
100
AcDbPolyline
 90
        4
 70
     1
 43
0.0
 10
-22.5
 20
511.0
 10
22.49999999999999
 20
511.0
 10
22.49999999999999
 20
497.0
 10
-22.5
 20
497.0
  0
LWPOLYLINE
  5
115E2
330
1E
100
AcDbEntity
  8
10
  6
Continuous
100
AcDbPolyline
 90
        4
 70
     1
 43
0.0
 10
47.49999999999999
 20
511.0
 10
92.5
 20
511.0
 10
92.5
 20
497.0
 10
47.49999999999999
 20
497.0
  0
DIMENSION
  5
115E3
330
1E
100
AcDbEntity
  8
30
  6
Continuous
100
AcDbDimension
  2
*D7
 10
69.99794894980687
 20
570.9999999999998
 30
0.0
 11
34.99897447490343
 21
576.9999999999997
 31
0.0
 70
    32
 71
     5
 42
69.99794894980687
  3
STANDARD1
100
AcDbAlignedDimension
 13
-0.0000000000000038
 23
511.0
 33
0.0
 14
69.99794894980687
 24
511.0
 34
0.0
100
AcDbRotatedDimension
  0
DIMENSION
  5
115E4
330
1E
100
AcDbEntity
  8
30
  6
Continuous
100
AcDbDimension
  2
*D9
 10
-70.0
 20
570.9999999999998
 30
0.0
 11
-87.50102552509657
 21
576.9999999999997
 31
0.0
 70
    32
 71
     5
 42
35.00205105019313
  3
STANDARD1
100
AcDbAlignedDimension
 13
-105.0020510501931
 23
542.0
 33
0.0
 14
-70.0
 24
511.0
 34
0.0
100
AcDbRotatedDimension
  0
DIMENSION
  5
115E5
330
1E
100
AcDbEntity
  8
30
  6
Continuous
100
AcDbDimension
  2
*D8
 10
-0.0000000000000001
 20
570.9999999999998
 30
0.0
 11
-35.0
 21
576.9999999999997
 31
0.0
 70
    32
 71
     5
 42
70.0
  3
STANDARD1
100
AcDbAlignedDimension
 13
-70.0
 23
511.0
 33
0.0
 14
-0.0000000000000038
 24
511.0
 34
0.0
100
AcDbRotatedDimension
  0
DIMENSION
  5
115E6
330
1E
100
AcDbEntity
  8
30
  6
Continuous
100
AcDbDimension
  2
*D10
 10
105.0020510501926
 20
570.9999999999996
 30
0.0
 11
87.49999999999976
 21
576.9999999999996
 31
0.0
 70
    32
 71
     5
 42
35.0041021003858
  3
STANDARD1
100
AcDbAlignedDimension
 13
69.99794894980687
 23
511.0
 33
0.0
 14
105.0020510501926
 24
542.0
 34
0.0
100
AcDbRotatedDimension
  0
LINE
  5
115E7
330
1E
100
AcDbEntity
  8
16
100
AcDbLine
 10
-0.0020510501931312
 20
556.0
 30
0.0
 11
-0.0020510501931597
 21
361.0000000000002
 31
0.0
  0
DIMENSION
  5
11673
330
1E
100
AcDbEntity
  8
30
  6
Continuous
100
AcDbDimension
  2
*D11
 10
135.0
 20
542.0000000000003
 30
0.0
 11
150.0
 21
521.0
 31
0.0
 70
   160
  1
ON SIDE 31\POFF SIDE 29
 71
     5
 42
31.00000000000034
 53
90.0
  3
STANDARD1
100
AcDbAlignedDimension
 13
92.5
 23
511.0
 33
0.0
 14
107.3999999999978
 24
542.0000000000003
 34
0.0
 50
89.99999999999998
100
AcDbRotatedDimension
1001
ACAD
1000
DSTYLE
1002
{
1070
   279
1070
     2
1002
}
  0
LINE
  5
11FB2
330
1E
100
AcDbEntity
  8
16
100
AcDbLine
 10
0.0
 20
-770.0
 30
0.0
 11
0.0
 21
-380.0
 31
0.0
  0
LINE
  5
11FB7
330
1E
100
AcDbEntity
  8
225
  6
Continuous
 62
     3
100
AcDbLine
 10
-50.0
 20
-744.0000000000009
 30
0.0
 11
-20.0
 21
-744.0000000000009
 31
0.0
  0
LINE
  5
11FB8
330
1E
100
AcDbEntity
  8
225
  6
Continuous
 62
     3
100
AcDbLine
 10
-35.0
 20
-759.0000000000009
 30
0.0
 11
-35.0
 21
-729.0000000000008
 31
0.0
  0
CIRCLE
  5
11FB9
330
1E
100
AcDbEntity
  8
160
  6
Continuous
 62
     3
100
AcDbCircle
 10
-35.0
 20
-744.0000000000009
 30
0.0
 40
4.5
  0
CIRCLE
  5
11FBA
330
1E
100
AcDbEntity
  8
160
  6
Continuous
 62
     3
100
AcDbCircle
 10
35.0
 20
-744.0000000000009
 30
0.0
 40
4.5
  0
LINE
  5
11FBB
330
1E
100
AcDbEntity
  8
225
  6
Continuous
 62
     3
100
AcDbLine
 10
20.0
 20
-744.0000000000009
 30
0.0
 11
50.0
 21
-744.0000000000009
 31
0.0
  0
LINE
  5
11FBC
330
1E
100
AcDbEntity
  8
225
  6
Continuous
 62
     3
100
AcDbLine
 10
35.0
 20
-759.0000000000009
 30
0.0
 11
35.0
 21
-729.0000000000008
 31
0.0
  0
LINE
  5
11FC1
330
1E
100
AcDbEntity
  8
225
  6
Continuous
 62
     3
100
AcDbLine
 10
-35.0
 20
-420.9999999999991
 30
0.0
 11
-35.0
 21
-390.999999999999
 31
0.0
  0
LINE
  5
11FC2
330
1E
100
AcDbEntity
  8
225
  6
Continuous
 62
     3
100
AcDbLine
 10
-50.0
 20
-405.999999999999
 30
0.0
 11
-20.0
 21
-405.999999999999
 31
0.0
  0
CIRCLE
  5
11FC3
330
1E
100
AcDbEntity
  8
160
  6
Continuous
 62
     3
100
AcDbCircle
 10
-35.0
 20
-405.999999999999
 30
0.0
 40
4.5
  0
LINE
  5
11FC4
330
1E
100
AcDbEntity
  8
225
  6
Continuous
 62
     3
100
AcDbLine
 10
35.0
 20
-420.9999999999991
 30
0.0
 11
35.0
 21
-390.999999999999
 31
0.0
  0
CIRCLE
  5
11FC5
330
1E
100
AcDbEntity
  8
160
  6
Continuous
 62
     3
100
AcDbCircle
 10
35.0
 20
-405.999999999999
 30
0.0
 40
4.5
  0
LINE
  5
11FC6
330
1E
100
AcDbEntity
  8
225
  6
Continuous
 62
     3
100
AcDbLine
 10
20.0
 20
-405.999999999999
 30
0.0
 11
50.0
 21
-405.999999999999
 31
0.0
  0
LWPOLYLINE
  5
11FCE
330
1E
100
AcDbEntity
  8
18
  6
DIVIDE
100
AcDbPolyline
 90
        4
 70
     1
 43
0.0
 10
-105.0
 20
-390.0
 10
104.9999999999999
 20
-390.0
 10
104.9999999999999
 20
-760.0
 10
-105.0
 20
-760.0
  0
LINE
  5
11FCF
330
1E
100
AcDbEntity
  8
16
100
AcDbLine
 10
115.0
 20
-590.0
 30
0.0
 11
-115.0
 21
-590.0
 31
0.0
  0
DIMENSION
  5
11FD0
330
1E
100
AcDbEntity
  8
30
  6
Continuous
100
AcDbDimension
  2
*D13
 10
-140.0
 20
-405.999999999999
 30
0.0
 11
-145.9999999999999
 21
-497.9999999999995
 31
0.0
 70
    32
  1
 <> 
 71
     0
 72
     0
 41
0.0
 42
184.0000000000009
  3
STANDARD1
100
AcDbAlignedDimension
 13
-115.0
 23
-590.0
 33
0.0
 14
-50.0
 24
-405.999999999999
 34
0.0
 50
90.0
100
AcDbRotatedDimension
  0
DIMENSION
  5
11FD1
330
1E
100
AcDbEntity
  8
30
  6
Continuous
100
AcDbDimension
  2
*D12
 10
-140.0
 20
-590.0
 30
0.0
 11
-145.9999999999999
 21
-667.0000000000004
 31
0.0
 70
    32
  1
 <> 
 71
     0
 72
     0
 41
0.0
 42
154.0000000000009
  3
STANDARD1
100
AcDbAlignedDimension
 13
-50.0
 23
-744.0000000000009
 33
0.0
 14
-117.4711194721603
 24
-590.0
 34
0.0
 50
90.0
100
AcDbRotatedDimension
  0
DIMENSION
  5
1200E
330
1E
100
AcDbEntity
  8
30
  6
Continuous
100
AcDbDimension
  2
*D14
 10
34.99999999999998
 20
-800.0
 30
0.0
 11
-0.0000000000000138
 21
-794.0
 31
0.0
 70
    32
  1
 <> 
 71
     5
 42
70.0
  3
STANDARD1
100
AcDbAlignedDimension
 13
-35.00000000000001
 23
-759.0000000000009
 33
0.0
 14
34.99999999999998
 24
-759.0000000000009
 34
0.0
100
AcDbRotatedDimension
  0
MTEXT
  5
12075
330
1E
100
AcDbEntity
  8
19
  6
Continuous
100
AcDbMText
 10
318.1041004604671
 20
390.141760114146
 30
0.0
 40
8.0
 41
178.128670620229
 71
     1
 72
     5
  1
S1250-NE 3P FC\PS1250-GE 3P FC\PS1250-NN 3P FC
  7
STANDARD1
 73
     1
 44
1.0
  0
LINE
  5
12093
330
1E
100
AcDbEntity
  8
18
  6
DIVIDE
100
AcDbLine
 10
245.0
 20
-390.0
 30
0.0
 11
245.0
 21
-760.0
 31
0.0
  0
LINE
  5
12095
330
1E
100
AcDbEntity
  8
16
100
AcDbLine
 10
350.0
 20
-770.0
 30
0.0
 11
350.0
 21
-380.0
 31
0.0
  0
LINE
  5
1209B
330
1E
100
AcDbEntity
  8
16
100
AcDbLine
 10
475.0
 20
-590.0
 30
0.0
 11
235.0
 21
-590.0
 31
0.0
  0
LWPOLYLINE
  5
120B0
330
1E
100
AcDbEntity
  8
18
  6
DIVIDE
100
AcDbPolyline
 90
        4
 70
     1
 43
0.0
 10
245.0
 20
-390.0
 10
455.0
 20
-390.0
 10
455.0
 20
-760.0
 10
245.0
 20
-760.0
  0
LWPOLYLINE
  5
120B3
330
1E
100
AcDbEntity
  8
11
 48
2.0
100
AcDbPolyline
 90
        8
 70
     1
 43
0.0
 10
256.4999999999999
 20
-540.9999999999992
 10
443.5
 20
-540.9999999999991
 42
-0.4142135623730951
 10
446.4999999999999
 20
-543.999999999999
 10
446.4999999999999
 20
-635.9999999999991
 42
-0.4142135623730951
 10
443.5
 20
-638.999999999999
 10
256.4999999999999
 20
-638.999999999999
 42
-0.4142135623730951
 10
253.4999999999998
 20
-635.9999999999991
 10
253.4999999999998
 20
-543.9999999999992
 42
-0.4142135623730948
  0
DIMENSION
  5
120B4
330
1E
100
AcDbEntity
  8
30
  6
Continuous
100
AcDbDimension
  2
*D15
 10
446.4999999999999
 20
-800.0
 30
0.0
 11
349.9999999999999
 21
-794.0
 31
0.0
 70
    32
  1
 <> 
 71
     5
 42
193.0000000000001
  3
STANDARD1
100
AcDbAlignedDimension
 13
253.4999999999998
 23
-635.9999999999997
 33
0.0
 14
446.4999999999999
 24
-635.9999999999991
 34
0.0
100
AcDbRotatedDimension
  0
DIMENSION
  5
120B5
330
1E
100
AcDbEntity
  8
30
  6
Continuous
100
AcDbDimension
  2
*D16
 10
225.0
 20
-638.9999999999997
 30
0.0
 11
219.0000000000001
 21
-589.9999999999995
 31
0.0
 70
    32
 71
     5
 42
98.00000000000057
  3
STANDARD1
100
AcDbAlignedDimension
 13
253.4999999999998
 23
-540.9999999999992
 33
0.0
 14
253.4999999999998
 24
-638.9999999999997
 34
0.0
 50
90.0
100
AcDbRotatedDimension
  0
DIMENSION
  5
12F28
330
1E
100
AcDbEntity
  8
30
  6
Continuous
100
AcDbDimension
  2
*D17
 10
-179.9999999999999
 20
200.0
 30
0.0
 11
-186.0
 21
15.00000000000009
 31
0.0
 70
    32
  1
 <> 
 71
     0
 72
     0
 41
0.0
 42
369.9999999999997
  3
STANDARD1
100
AcDbAlignedDimension
 13
-109.9999999999995
 23
-169.9999999999997
 33
0.0
 14
-105.0
 24
200.0
 34
0.0
 50
90.0
100
AcDbRotatedDimension
  0
DIMENSION
  5
12F29
330
1E
100
AcDbEntity
  8
30
  6
Continuous
100
AcDbDimension
  2
*D18
 10
-160.0
 20
-0.0000000000002118
 30
0.0
 11
-166.0
 21
-85.00000000000001
 31
0.0
 70
    32
  1
 <> 
 71
     0
 72
     0
 41
0.0
 42
169.9999999999995
  3
STANDARD1
100
AcDbAlignedDimension
 13
-109.9999999999995
 23
-169.9999999999997
 33
0.0
 14
-105.0
 24
-0.0000000000002274
 34
0.0
 50
90.0
100
AcDbRotatedDimension
  0
DIMENSION
  5
12F2D
330
1E
100
AcDbEntity
  8
30
  6
Continuous
100
AcDbDimension
  2
*D19
 10
-160.0
 20
280.0
 30
0.0
 11
-166.0
 21
240.0
 31
0.0
 70
    32
  1
 <> 
 71
     0
 72
     0
 41
0.0
 42
80.00000000000003
  3
STANDARD1
100
AcDbAlignedDimension
 13
-105.0
 23
200.0
 33
0.0
 14
-92.5
 24
280.0
 34
0.0
 50
90.0
100
AcDbRotatedDimension
  0
DIMENSION
  5
12F2E
330
1E
100
AcDbEntity
  8
30
  6
Continuous
100
AcDbDimension
  2
*D20
 10
-160.0
 20
200.0
 30
0.0
 11
-166.0
 21
99.99999999999987
 31
0.0
 70
    32
  1
 <> 
 71
     0
 72
     0
 41
0.0
 42
200.0000000000002
  3
STANDARD1
100
AcDbAlignedDimension
 13
-105.0
 23
-0.0000000000002274
 33
0.0
 14
-105.0
 24
200.0
 34
0.0
 50
90.0
100
AcDbRotatedDimension
  0
DIMENSION
  5
13491
330
1E
100
AcDbEntity
  8
30
  6
Continuous
100
AcDbDimension
  2
*D24
 10
256.4999999999996
 20
-543.9999999999988
 30
0.0
 11
260.9999999999992
 21
-550.9999999999993
 31
0.0
 70
   164
 71
     5
 42
3.0
  3
STANDARD1
100
AcDbRadialDimension
 15
254.8777272260593
 25
-541.476464573869
 35
0.0
 40
0.0
1001
ACAD
1000
DSTYLE
1002
{
1070
   279
1070
     1
1002
}
  0
DIMENSION
  5
13617
330
1E
100
AcDbEntity
  8
30
  6
Continuous
100
AcDbDimension
  2
*D26
 10
104.9999999999999
 20
-319.9263156757433
 30
0.0
 11
-0.000000000000014
 21
-316.4263156757433
 31
0.0
 70
    32
  1
 <> 
 71
     5
 42
210.0
  3
STANDARD
100
AcDbAlignedDimension
 13
-105.0
 23
-175.0
 33
0.0
 14
105.0
 24
-175.0
 34
0.0
100
AcDbRotatedDimension
1001
ACAD
1000
DSTYLE
1002
{
1070
    79
1070
     3
1002
}
  0
LINE
  5
13618
330
1E
100
AcDbEntity
  8
16
100
AcDbLine
 10
0.0
 20
-259.9999999999998
 30
0.0
 11
0.0
 21
290.0
 31
0.0
  0
LINE
  5
1362B
330
1E
100
AcDbEntity
  8
17
  6
DASHDOT
100
AcDbLine
 10
-70.0
 20
274.5
 30
0.0
 11
-70.0
 21
215.5
 31
0.0
  0
LINE
  5
1362D
330
1E
100
AcDbEntity
  8
18
100
AcDbLine
 10
-36.25
 20
200.0
 30
0.0
 11
-36.25
 21
310.0
 31
0.0
  0
LINE
  5
1362E
330
1E
100
AcDbEntity
  8
18
100
AcDbLine
 10
33.75
 20
200.0
 30
0.0
 11
33.75
 21
310.0
 31
0.0
  0
LINE
  5
1362F
330
1E
100
AcDbEntity
  8
18
100
AcDbLine
 10
-33.75
 20
200.0
 30
0.0
 11
-33.75
 21
310.0
 31
0.0
  0
LINE
  5
13630
330
1E
100
AcDbEntity
  8
18
100
AcDbLine
 10
36.25
 20
200.0
 30
0.0
 11
36.25
 21
310.0
 31
0.0
  0
LINE
  5
1363D
330
1E
100
AcDbEntity
  8
10
  6
Continuous
100
AcDbLine
 10
-105.0
 20
-139.9999999999998
 30
0.0
 11
105.0
 21
-139.9999999999998
 31
0.0
  0
CIRCLE
  5
1363F
330
1E
100
AcDbEntity
  8
24
  6
CONTINOUS
100
AcDbCircle
 10
-34.80000000000007
 20
-154.9999999999998
 30
0.0
 40
8.5
  0
LINE
  5
13640
330
1E
100
AcDbEntity
  8
24
  6
CONTINOUS
100
AcDbLine
 10
-34.80000000000007
 20
-143.7499999999998
 30
0.0
 11
-34.80000000000007
 21
-166.2499999999998
 31
0.0
  0
LINE
  5
13646
330
1E
100
AcDbEntity
  8
24
  6
CONTINOUS
100
AcDbLine
 10
-46.05000000000006
 20
-154.9999999999998
 30
0.0
 11
-23.55000000000007
 21
-154.9999999999998
 31
0.0
  0
CIRCLE
  5
13647
330
1E
100
AcDbEntity
  8
24
  6
CONTINOUS
100
AcDbCircle
 10
35.19999999999993
 20
-154.9999999999998
 30
0.0
 40
8.5
  0
LINE
  5
13648
330
1E
100
AcDbEntity
  8
24
  6
CONTINOUS
100
AcDbLine
 10
35.19999999999993
 20
-143.7499999999998
 30
0.0
 11
35.19999999999993
 21
-166.2499999999998
 31
0.0
  0
LINE
  5
1364E
330
1E
100
AcDbEntity
  8
24
  6
CONTINOUS
100
AcDbLine
 10
23.94999999999993
 20
-154.9999999999998
 30
0.0
 11
46.44999999999993
 21
-154.9999999999998
 31
0.0
  0
LINE
  5
13652
330
1E
100
AcDbEntity
  8
16
100
AcDbLine
 10
115.0
 20
0.0
 30
0.0
 11
-115.0
 21
0.0
 31
0.0
  0
CIRCLE
  5
13658
330
1E
100
AcDbEntity
  8
10
  6
Continuous
100
AcDbCircle
 10
31.20000000000004
 20
-70.49999999999989
 30
0.0
 40
3.3
  0
LINE
  5
13667
330
1E
100
AcDbEntity
  8
10
  6
Continuous
100
AcDbLine
 10
105.0
 20
170.0
 30
0.0
 11
-105.0
 21
170.0
 31
0.0
  0
CIRCLE
  5
13668
330
1E
100
AcDbEntity
  8
24
  6
CONTINOUS
100
AcDbCircle
 10
-34.80000000000007
 20
185.0
 30
0.0
 40
8.5
  0
LINE
  5
13669
330
1E
100
AcDbEntity
  8
24
  6
CONTINOUS
100
AcDbLine
 10
-34.80000000000007
 20
196.25
 30
0.0
 11
-34.80000000000007
 21
173.75
 31
0.0
  0
LINE
  5
1366A
330
1E
100
AcDbEntity
  8
24
  6
CONTINOUS
100
AcDbLine
 10
-46.05000000000006
 20
185.0
 30
0.0
 11
-23.55000000000007
 21
185.0
 31
0.0
  0
ARC
  5
1366B
330
1E
100
AcDbEntity
  8
17
  6
DASHDOT
100
AcDbCircle
 10
-70.0
 20
225.0
 30
0.0
 40
6.5
100
AcDbArc
 50
180.0
 51
0.0
  0
ARC
  5
1366C
330
1E
100
AcDbEntity
  8
17
  6
DASHDOT
100
AcDbCircle
 10
-70.0
 20
233.0
 30
0.0
 40
6.5
100
AcDbArc
 50
0.0
 51
180.0
  0
LINE
  5
1366D
330
1E
100
AcDbEntity
  8
17
  6
DASHDOT
100
AcDbLine
 10
-79.5
 20
233.0
 30
0.0
 11
-60.5
 21
233.0
 31
0.0
  0
LINE
  5
1366E
330
1E
100
AcDbEntity
  8
17
  6
DASHDOT
100
AcDbLine
 10
-79.5
 20
225.0
 30
0.0
 11
-60.5
 21
225.0
 31
0.0
  0
LINE
  5
1366F
330
1E
100
AcDbEntity
  8
17
  6
DASHDOT
100
AcDbLine
 10
-76.5
 20
233.0
 30
0.0
 11
-76.5
 21
225.0
 31
0.0
  0
LINE
  5
13670
330
1E
100
AcDbEntity
  8
17
  6
DASHDOT
100
AcDbLine
 10
-63.5
 20
233.0
 30
0.0
 11
-63.5
 21
225.0
 31
0.0
  0
CIRCLE
  5
13671
330
1E
100
AcDbEntity
  8
24
  6
CONTINOUS
100
AcDbCircle
 10
35.19999999999993
 20
185.0
 30
0.0
 40
8.5
  0
LINE
  5
13672
330
1E
100
AcDbEntity
  8
24
  6
CONTINOUS
100
AcDbLine
 10
35.19999999999993
 20
196.25
 30
0.0
 11
35.19999999999993
 21
173.75
 31
0.0
  0
LINE
  5
13673
330
1E
100
AcDbEntity
  8
24
  6
CONTINOUS
100
AcDbLine
 10
23.94999999999993
 20
185.0
 30
0.0
 11
46.44999999999993
 21
185.0
 31
0.0
  0
CIRCLE
  5
13680
330
1E
100
AcDbEntity
  8
17
  6
DASHDOT
100
AcDbCircle
 10
-70.0
 20
265.0
 30
0.0
 40
6.5
  0
LINE
  5
13681
330
1E
100
AcDbEntity
  8
17
  6
DASHDOT
100
AcDbLine
 10
-79.5
 20
265.0
 30
0.0
 11
-60.5
 21
265.0
 31
0.0
  0
LINE
  5
13684
330
1E
100
AcDbEntity
  8
18
100
AcDbLine
 10
-36.25
 20
310.0
 30
0.0
 11
-33.75
 21
310.0
 31
0.0
  0
DIMENSION
  5
13685
330
1E
100
AcDbEntity
  8
30
  6
Continuous
100
AcDbDimension
  2
*D29
 10
71.78569069140715
 20
258.7500963411982
 30
0.0
 11
71.99999999999997
 21
292.9999999999998
 31
0.0
 70
   163
 71
     5
 42
13.00000143242482
  3
STANDARD1
100
AcDbDiametricDimension
 15
68.21431430859274
 25
271.2499086588022
 35
0.0
 40
0.0
  0
LINE
  5
1368C
330
1E
100
AcDbEntity
  8
18
100
AcDbLine
 10
33.75
 20
310.0
 30
0.0
 11
36.25
 21
310.0
 31
0.0
  0
LWPOLYLINE
  5
1371E
330
1E
100
AcDbEntity
  8
10
  6
Continuous
100
AcDbPolyline
 90
        4
 70
     1
 43
0.0
 10
105.0
 20
-169.9999999999998
 10
105.0
 20
200.0
 10
-105.0
 20
200.0
 10
-105.0
 20
-169.9999999999998
  0
LINE
  5
13A5F
330
1E
100
AcDbEntity
  8
10
  6
Continuous
100
AcDbLine
 10
451.0000000000004
 20
-169.9999999999998
 30
0.0
 11
451.0000000000004
 21
-249.9999999999999
 31
0.0
  0
LINE
  5
13A60
330
1E
100
AcDbEntity
  8
10
  6
Continuous
100
AcDbLine
 10
437.0000000000004
 20
-169.9999999999998
 30
0.0
 11
437.0000000000004
 21
-249.9999999999999
 31
0.0
  0
DIMENSION
  5
13A61
330
1E
100
AcDbEntity
  8
30
  6
Continuous
100
AcDbDimension
  2
*D30
 10
309.0
 20
-360.0
 30
0.0
 11
269.0
 21
-354.0
 31
0.0
 70
    32
  1
 <> 
 71
     5
 42
80.0
  3
STANDARD1
100
AcDbAlignedDimension
 13
229.0
 23
-2.620155000000067
 33
0.0
 14
309.0
 24
-2.620155000000067
 34
0.0
100
AcDbRotatedDimension
  0
DIMENSION
  5
13A62
330
1E
100
AcDbEntity
  8
30
  6
Continuous
100
AcDbDimension
  2
*D31
 10
480.0
 20
-360.0
 30
0.0
 11
394.5
 21
-354.0
 31
0.0
 70
    32
  1
 <> 
 71
     5
 42
171.0
  3
STANDARD1
100
AcDbAlignedDimension
 13
309.0
 23
-7.620155000000067
 33
0.0
 14
480.0
 24
-175.0
 34
0.0
100
AcDbRotatedDimension
  0
DIMENSION
  5
13A63
330
1E
100
AcDbEntity
  8
30
  6
Continuous
100
AcDbDimension
  2
*D32
 10
480.0
 20
-340.0
 30
0.0
 11
416.5
 21
-334.0
 31
0.0
 70
    32
  1
 <> 
 71
     5
 42
127.0
  3
STANDARD1
100
AcDbAlignedDimension
 13
353.0
 23
-52.5
 33
0.0
 14
480.0
 24
-175.0
 34
0.0
100
AcDbRotatedDimension
  0
DIMENSION
  5
13A64
330
1E
100
AcDbEntity
  8
30
  6
Continuous
100
AcDbDimension
  2
*D33
 10
353.0
 20
-340.0
 30
0.0
 11
332.6999999999999
 21
-340.0
 31
0.0
 70
   160
  1
 <> 
 71
     5
 42
10.0
  3
STANDARD1
100
AcDbAlignedDimension
 13
343.0
 23
4.5
 33
0.0
 14
353.0
 24
-52.5
 34
0.0
100
AcDbRotatedDimension
1001
ACAD
1000
DSTYLE
1002
{
1070
   172
1070
     1
1002
}
  0
DIMENSION
  5
13A65
330
1E
100
AcDbEntity
  8
30
  6
Continuous
100
AcDbDimension
  2
*D34
 10
480.0
 20
-320.0
 30
0.0
 11
420.0
 21
-314.0
 31
0.0
 70
    32
  1
 <> 
 71
     5
 42
120.0
  3
STANDARD1
100
AcDbAlignedDimension
 13
360.0
 23
-145.0
 33
0.0
 14
480.0
 24
-175.0
 34
0.0
100
AcDbRotatedDimension
  0
DIMENSION
  5
13A66
330
1E
100
AcDbEntity
  8
30
  6
Continuous
100
AcDbDimension
  2
*D35
 10
480.0
 20
-300.0958749999999
 30
0.0
 11
424.0
 21
-294.0958749999999
 31
0.0
 70
    32
  1
 <> 
 71
     5
 42
112.0
  3
STANDARD1
100
AcDbAlignedDimension
 13
368.0
 23
-175.0
 33
0.0
 14
480.0
 24
-175.0
 34
0.0
100
AcDbRotatedDimension
  0
LINE
  5
13A6A
330
1E
100
AcDbEntity
  8
10
  6
Continuous
100
AcDbLine
 10
451.0000000000004
 20
-249.9999999999999
 30
0.0
 11
437.0000000000004
 21
-249.9999999999999
 31
0.0
  0
LINE
  5
13A6B
330
1E
100
AcDbEntity
  8
17
  6
DASHDOT
100
AcDbLine
 10
432.5000000000004
 20
-234.9999999999998
 30
0.0
 11
455.5000000000005
 21
-234.9999999999998
 31
0.0
  0
DIMENSION
  5
13A6E
330
1E
100
AcDbEntity
  8
30
  6
Continuous
100
AcDbDimension
  2
*D36
 10
480.0
 20
334.0
 30
0.0
 11
464.5
 21
340.0
 31
0.0
 70
    32
  1
 <> 
 71
     5
 42
31.0
  3
STANDARD1
100
AcDbAlignedDimension
 13
449.0
 23
285.0
 33
0.0
 14
480.0
 24
205.0
 34
0.0
100
AcDbRotatedDimension
  0
ARC
  5
13A70
330
1E
100
AcDbEntity
  8
1
  6
Continuous
 62
     4
100
AcDbCircle
 10
406.5
 20
-2.620154999999954
 30
0.0
 40
177.5
100
AcDbArc
 50
161.776399000001
 51
180.0
  0
ARC
  5
13A71
330
1E
100
AcDbEntity
  8
1
  6
Continuous
 62
     4
100
AcDbCircle
 10
406.5
 20
-2.620154999999954
 30
0.0
 40
97.5
100
AcDbArc
 50
162.9956369999989
 51
180.0
  0
LINE
  5
13A75
330
1E
100
AcDbEntity
  8
10
  6
Continuous
100
AcDbLine
 10
353.0
 20
-47.5
 30
0.0
 11
353.0
 21
47.5
 31
0.0
  0
LINE
  5
13A7B
330
1E
100
AcDbEntity
  8
12
  6
DASHED
100
AcDbLine
 10
368.0
 20
-145.5
 30
0.0
 11
452.0
 21
-145.5
 31
0.0
  0
LINE
  5
13A7C
330
1E
100
AcDbEntity
  8
12
  6
DASHED
100
AcDbLine
 10
368.0
 20
-162.4999999999998
 30
0.0
 11
452.0
 21
-162.4999999999998
 31
0.0
  0
LINE
  5
13A80
330
1E
100
AcDbEntity
  8
12
  6
DASHED
100
AcDbLine
 10
446.0
 20
-151.33
 30
0.0
 11
446.0
 21
-156.6699999999999
 31
0.0
  0
LINE
  5
13A81
330
1E
100
AcDbEntity
  8
12
  6
DASHED
100
AcDbLine
 10
452.0
 20
-162.4999999999998
 30
0.0
 11
452.0
 21
-145.5
 31
0.0
  0
LINE
  5
13A82
330
1E
100
AcDbEntity
  8
1
  6
Continuous
 62
   113
100
AcDbLine
 10
498.0
 20
-149.9999999999998
 30
0.0
 11
498.0
 21
-158.0
 31
0.0
  0
LINE
  5
13A83
330
1E
100
AcDbEntity
  8
12
  6
DASHED
100
AcDbLine
 10
443.6999999999998
 20
-154.0
 30
0.0
 11
501.0
 21
-154.0
 31
0.0
  0
LINE
  5
13A84
330
1E
100
AcDbEntity
  8
12
  6
DASHED
100
AcDbLine
 10
452.0
 20
-158.0
 30
0.0
 11
480.0
 21
-158.0
 31
0.0
  0
LINE
  5
13A85
330
1E
100
AcDbEntity
  8
17
  6
DASHDOT
100
AcDbLine
 10
432.5000000000004
 20
-203.0
 30
0.0
 11
455.5000000000005
 21
-203.0
 31
0.0
  0
LINE
  5
13A86
330
1E
100
AcDbEntity
  8
17
  6
DASHDOT
100
AcDbLine
 10
432.5000000000004
 20
-194.9999999999998
 30
0.0
 11
455.5000000000005
 21
-194.9999999999998
 31
0.0
  0
ARC
  5
13A87
330
1E
100
AcDbEntity
  8
12
  6
DASHED
100
AcDbCircle
 10
451.3299999999999
 20
-156.6699999999999
 30
0.0
 40
5.329999999999999
100
AcDbArc
 50
180.0
 51
270.0
  0
LINE
  5
13A88
330
1E
100
AcDbEntity
  8
12
  6
DASHED
100
AcDbLine
 10
452.0
 20
-161.9999999999999
 30
0.0
 11
451.3299999999999
 21
-161.9999999999999
 31
0.0
  0
LINE
  5
13A8A
330
1E
100
AcDbEntity
  8
1
  6
Continuous
 62
   113
100
AcDbLine
 10
480.0
 20
-158.0
 30
0.0
 11
498.0
 21
-158.0
 31
0.0
  0
LINE
  5
13A8B
330
1E
100
AcDbEntity
  8
12
  6
DASHED
100
AcDbLine
 10
452.0
 20
-149.9999999999998
 30
0.0
 11
480.0
 21
-149.9999999999998
 31
0.0
  0
ARC
  5
13A8D
330
1E
100
AcDbEntity
  8
12
  6
DASHED
100
AcDbCircle
 10
451.3299999999999
 20
-151.33
 30
0.0
 40
5.329999999999999
100
AcDbArc
 50
90.0
 51
180.0
  0
LINE
  5
13A8E
330
1E
100
AcDbEntity
  8
12
  6
DASHED
100
AcDbLine
 10
452.0
 20
-146.0
 30
0.0
 11
451.3299999999999
 21
-146.0
 31
0.0
  0
LINE
  5
13A8F
330
1E
100
AcDbEntity
  8
1
  6
Continuous
 62
   113
100
AcDbLine
 10
480.0
 20
-149.9999999999998
 30
0.0
 11
498.0
 21
-149.9999999999998
 31
0.0
  0
LINE
  5
13A90
330
1E
100
AcDbEntity
  8
16
100
AcDbLine
 10
490.0
 20
0.0
 30
0.0
 11
292.0999999999999
 21
0.0
 31
0.0
  0
LINE
  5
13AA5
330
1E
100
AcDbEntity
  8
17
  6
DASHDOT
100
AcDbLine
 10
430.4999999999999
 20
225.0
 30
0.0
 11
455.4999999999999
 21
225.0
 31
0.0
  0
LINE
  5
13AA6
330
1E
100
AcDbEntity
  8
17
  6
DASHDOT
100
AcDbLine
 10
430.4999999999999
 20
233.0
 30
0.0
 11
455.4999999999999
 21
233.0
 31
0.0
  0
LINE
  5
13AA8
330
1E
100
AcDbEntity
  8
17
  6
DASHDOT
100
AcDbLine
 10
430.4999999999999
 20
265.0
 30
0.0
 11
453.5
 21
265.0
 31
0.0
  0
DIMENSION
  5
13C2A
330
1E
100
AcDbEntity
  8
30
  6
Continuous
100
AcDbDimension
  2
*D37
 10
480.0
 20
-122.9999999999999
 30
0.0
 11
466.0000000000002
 21
-116.9999999999999
 31
0.0
 70
    32
 71
     5
 42
27.99999999999954
  3
STANDARD1
100
AcDbAlignedDimension
 13
452.0000000000004
 23
-145.4999999999994
 33
0.0
 14
480.0
 24
-149.9999999999998
 34
0.0
100
AcDbRotatedDimension
  0
DIMENSION
  5
13C37
330
1E
100
AcDbEntity
  8
30
  6
Continuous
100
AcDbDimension
  2
*D38
 10
497.9999999999995
 20
-122.9999999999999
 30
0.0
 11
488.9999999999997
 21
-116.9999999999999
 31
0.0
 70
    32
 71
     5
 42
17.99999999999954
  3
STANDARD1
100
AcDbAlignedDimension
 13
480.0
 23
-149.9999999999998
 33
0.0
 14
497.9999999999995
 24
-149.9999999999998
 34
0.0
100
AcDbRotatedDimension
  0
LWPOLYLINE
  5
13C85
330
1E
100
AcDbEntity
  8
10
  6
Continuous
100
AcDbPolyline
 90
        8
 70
     1
 43
0.0
 10
480.0
 20
-169.9999999999998
 10
480.0
 20
200.0
 10
368.0
 20
200.0
 10
368.0
 20
170.0
 10
360.0
 20
170.0
 10
360.0
 20
-139.9999999999998
 10
368.0
 20
-139.9999999999998
 10
368.0
 20
-169.9999999999998
  0
LWPOLYLINE
  5
13C90
330
1E
100
AcDbEntity
  8
10
  6
Continuous
100
AcDbPolyline
 90
        3
 70
     0
 43
0.0
 10
360.0
 20
-47.5
 10
344.0
 20
-47.5
 10
344.0
 20
-27.10695999999984
  0
LWPOLYLINE
  5
13C92
330
1E
100
AcDbEntity
  8
10
  6
Continuous
100
AcDbPolyline
 90
        6
 70
     0
 43
0.0
 10
360.0
 20
47.5
 10
344.0
 20
47.5
 10
343.6256699999999
 20
29.68534499999998
 10
344.0
 20
-27.10696125855858
 10
344.0
 20
-47.5
 10
360.0
 20
-47.5
  0
LWPOLYLINE
  5
13CEF
330
1E
100
AcDbEntity
  8
10
  6
Continuous
100
AcDbPolyline
 90
        4
 70
     0
 43
0.0
 10
343.6256699999999
 20
29.68534499999998
 10
318.4970599999999
 20
39.83796500000005
 10
313.7020950000001
 20
27.97001000000022
 10
343.1299900000001
 20
16.08037000000012
  0
LWPOLYLINE
  5
13CFB
330
1E
100
AcDbEntity
  8
10
  6
Continuous
100
AcDbPolyline
 90
       11
 70
     0
 43
0.0
 10
264.0054738200767
 20
44.04586291069849
 42
-0.2280087862796968
 10
270.8556642969131
 20
43.98718605966009
 10
306.0927200000026
 20
23.81821500000082
 10
330.1994992049401
 20
14.07844532122739
 42
0.4142135425216231
 10
335.4066607896563
 20
16.28875436337206
 10
342.2245000502933
 20
33.16349771556646
 42
0.4142135822245512
 10
340.0141908583398
 20
38.37065965320893
 10
315.9074100000009
 20
48.11043000000076
 10
276.5493803316001
 20
58.07982118250528
 42
-0.261369876899627
 10
271.5810735103684
 20
62.79613117522093
 42
2.80870652995242
 10
264.0054738200767
 20
44.04586291069849
 42
-2.80870652995242
  0
DIMENSION
  5
13DF8
330
1E
100
AcDbEntity
  8
30
  6
Continuous
100
AcDbDimension
  2
*D39
 10
435.0
 20
334.0
 30
0.0
 11
443.0
 21
334.0
 31
0.0
 70
   160
 71
     5
 42
14.0
  3
STANDARD1
100
AcDbAlignedDimension
 13
449.0
 23
280.0
 33
0.0
 14
435.0
 24
280.0
 34
0.0
100
AcDbRotatedDimension
  0
LWPOLYLINE
  5
13E18
330
1E
100
AcDbEntity
  8
10
  6
Continuous
100
AcDbPolyline
 90
        4
 70
     0
 43
0.0
 10
435.0
 20
200.0
 10
435.0
 20
280.0
 10
449.0
 20
280.0
 10
449.0
 20
200.0
  0
DIMENSION
  5
141EF
330
1E
100
AcDbEntity
  8
30
  6
Continuous
100
AcDbDimension
  2
*D40
 10
135.0
 20
496.9999999999999
 30
0.0
 11
135.0
 21
504.0
 31
0.0
 70
   160
 71
     5
 42
14.0
  3
STANDARD1
100
AcDbAlignedDimension
 13
92.5
 23
511.0
 33
0.0
 14
92.5
 24
497.0
 34
0.0
 50
90.0
100
AcDbRotatedDimension
  0
LWPOLYLINE
  5
1476C
330
1E
100
AcDbEntity
  8
10
  6
Continuous
100
AcDbPolyline
 90
        4
 70
     0
 43
0.0
 10
-92.5
 20
200.0
 10
-92.5
 20
280.0
 10
-47.5
 20
280.0
 10
-47.5
 20
200.0
  0
LINE
  5
14781
330
1E
100
AcDbEntity
  8
17
  6
DASHDOT
100
AcDbLine
 10
-9.5
 20
265.0
 30
0.0
 11
9.5
 21
265.0
 31
0.0
  0
LINE
  5
14782
330
1E
100
AcDbEntity
  8
17
  6
DASHDOT
100
AcDbLine
 10
-9.5
 20
225.0
 30
0.0
 11
9.5
 21
225.0
 31
0.0
  0
LINE
  5
14783
330
1E
100
AcDbEntity
  8
17
  6
DASHDOT
100
AcDbLine
 10
-9.5
 20
233.0
 30
0.0
 11
9.5
 21
233.0
 31
0.0
  0
LWPOLYLINE
  5
14784
330
1E
100
AcDbEntity
  8
10
  6
Continuous
100
AcDbPolyline
 90
        4
 70
     0
 43
0.0
 10
-22.5
 20
200.0
 10
-22.5
 20
280.0
 10
22.5
 20
280.0
 10
22.5
 20
200.0
  0
CIRCLE
  5
14785
330
1E
100
AcDbEntity
  8
17
  6
DASHDOT
100
AcDbCircle
 10
0.0
 20
265.0
 30
0.0
 40
6.5
  0
LINE
  5
14786
330
1E
100
AcDbEntity
  8
17
  6
DASHDOT
100
AcDbLine
 10
0.0
 20
274.5
 30
0.0
 11
0.0
 21
215.5
 31
0.0
  0
LINE
  5
14787
330
1E
100
AcDbEntity
  8
17
  6
DASHDOT
100
AcDbLine
 10
6.5
 20
233.0
 30
0.0
 11
6.5
 21
225.0
 31
0.0
  0
LINE
  5
14788
330
1E
100
AcDbEntity
  8
17
  6
DASHDOT
100
AcDbLine
 10
-6.5
 20
233.0
 30
0.0
 11
-6.5
 21
225.0
 31
0.0
  0
ARC
  5
14789
330
1E
100
AcDbEntity
  8
17
  6
DASHDOT
100
AcDbCircle
 10
0.0
 20
233.0
 30
0.0
 40
6.5
100
AcDbArc
 50
0.0
 51
180.0
  0
ARC
  5
1478A
330
1E
100
AcDbEntity
  8
17
  6
DASHDOT
100
AcDbCircle
 10
0.0
 20
225.0
 30
0.0
 40
6.5
100
AcDbArc
 50
180.0
 51
0.0
  0
ARC
  5
1478B
330
1E
100
AcDbEntity
  8
17
  6
DASHDOT
100
AcDbCircle
 10
70.0
 20
225.0
 30
0.0
 40
6.5
100
AcDbArc
 50
180.0
 51
0.0
  0
ARC
  5
1478C
330
1E
100
AcDbEntity
  8
17
  6
DASHDOT
100
AcDbCircle
 10
70.0
 20
233.0
 30
0.0
 40
6.5
100
AcDbArc
 50
0.0
 51
180.0
  0
CIRCLE
  5
1478D
330
1E
100
AcDbEntity
  8
17
  6
DASHDOT
100
AcDbCircle
 10
70.0
 20
265.0
 30
0.0
 40
6.5
  0
LWPOLYLINE
  5
1478E
330
1E
100
AcDbEntity
  8
10
  6
Continuous
100
AcDbPolyline
 90
        4
 70
     0
 43
0.0
 10
47.5
 20
200.0
 10
47.5
 20
280.0
 10
92.5
 20
280.0
 10
92.5
 20
200.0
  0
LINE
  5
1478F
330
1E
100
AcDbEntity
  8
17
  6
DASHDOT
100
AcDbLine
 10
60.5
 20
233.0
 30
0.0
 11
79.5
 21
233.0
 31
0.0
  0
LINE
  5
14790
330
1E
100
AcDbEntity
  8
17
  6
DASHDOT
100
AcDbLine
 10
60.5
 20
225.0
 30
0.0
 11
79.5
 21
225.0
 31
0.0
  0
LINE
  5
14791
330
1E
100
AcDbEntity
  8
17
  6
DASHDOT
100
AcDbLine
 10
60.5
 20
265.0
 30
0.0
 11
79.5
 21
265.0
 31
0.0
  0
LINE
  5
14792
330
1E
100
AcDbEntity
  8
17
  6
DASHDOT
100
AcDbLine
 10
63.5
 20
233.0
 30
0.0
 11
63.5
 21
225.0
 31
0.0
  0
LINE
  5
14793
330
1E
100
AcDbEntity
  8
17
  6
DASHDOT
100
AcDbLine
 10
70.0
 20
274.5
 30
0.0
 11
70.0
 21
215.5
 31
0.0
  0
LINE
  5
14794
330
1E
100
AcDbEntity
  8
17
  6
DASHDOT
100
AcDbLine
 10
76.5
 20
233.0
 30
0.0
 11
76.5
 21
225.0
 31
0.0
  0
DIMENSION
  5
147BA
330
1E
100
AcDbEntity
  8
30
  6
Continuous
100
AcDbDimension
  2
*D41
 10
76.5
 20
205.0
 30
0.0
 11
70.0
 21
205.0
 31
0.0
 70
   160
 71
     5
 42
13.0
  3
STANDARD1
100
AcDbAlignedDimension
 13
63.5
 23
233.0
 33
0.0
 14
76.5
 24
233.0
 34
0.0
100
AcDbRotatedDimension
  0
LWPOLYLINE
  5
147D4
330
1E
100
AcDbEntity
  8
1
  6
Continuous
 62
     2
100
AcDbPolyline
 90
        2
 70
     0
 43
0.0
 10
-95.0
 20
-46.50000000000011
 42
0.4142135623730951
 10
-94.0
 20
-47.50000000000011
  0
LWPOLYLINE
  5
147D5
330
1E
100
AcDbEntity
  8
1
  6
Continuous
 62
     2
100
AcDbPolyline
 90
        2
 70
     0
 43
0.0
 10
-94.0
 20
47.5
 42
0.4142135623730951
 10
-95.0
 20
46.5
  0
LWPOLYLINE
  5
147D6
330
1E
100
AcDbEntity
  8
10
  6
Continuous
100
AcDbPolyline
 90
        2
 70
     0
 43
0.0
 10
33.19999999999993
 20
-41.50000000000011
 10
33.19999999999993
 20
-33.5
  0
LWPOLYLINE
  5
147D7
330
1E
100
AcDbEntity
  8
10
  6
Continuous
100
AcDbPolyline
 90
        2
 70
     0
 43
0.0
 10
27.20000000000004
 20
-41.50000000000011
 10
27.20000000000004
 20
-33.5
  0
LWPOLYLINE
  5
147D8
330
1E
100
AcDbEntity
  8
10
  6
Continuous
100
AcDbPolyline
 90
        2
 70
     0
 43
0.0
 10
-39.0
 20
-47.5
 10
-39.0
 20
47.5
  0
LWPOLYLINE
  5
147D9
330
1E
100
AcDbEntity
  8
10
  6
Continuous
100
AcDbPolyline
 90
        2
 70
     0
 43
0.0
 10
27.20000000000004
 20
-41.50000000000011
 10
33.19999999999993
 20
-41.50000000000011
  0
LWPOLYLINE
  5
147DA
330
1E
100
AcDbEntity
  8
10
  6
Continuous
100
AcDbPolyline
 90
        4
 70
     1
 43
0.0
 10
22.5
 20
43.33292999999992
 10
-22.5
 20
43.33292999999992
 10
-22.5
 20
-22.99999999999988
 10
22.5
 20
-22.99999999999988
  0
LWPOLYLINE
  5
147DB
330
1E
100
AcDbEntity
  8
10
  6
Continuous
100
AcDbPolyline
 90
        2
 70
     0
 43
0.0
 10
22.5
 20
31.9322350000001
 10
-22.5
 20
31.9322350000001
  0
LWPOLYLINE
  5
147DF
330
1E
100
AcDbEntity
  8
10
  6
Continuous
100
AcDbPolyline
 90
        2
 70
     0
 43
0.0
 10
27.20000000000004
 20
-33.5
 10
33.19999999999993
 20
-33.5
  0
LWPOLYLINE
  5
147E1
330
1E
100
AcDbEntity
  8
10
  6
Continuous
100
AcDbPolyline
 90
        2
 70
     0
 43
0.0
 10
39.0
 20
-47.5
 10
39.0
 20
47.5
  0
ARC
  5
147E5
330
1E
100
AcDbEntity
  8
10
  6
Continuous
100
AcDbCircle
 10
-94.0
 20
-46.5
 30
0.0
 40
1.0
100
AcDbArc
 50
180.0
 51
270.0
  0
ARC
  5
147E7
330
1E
100
AcDbEntity
  8
10
  6
Continuous
100
AcDbCircle
 10
-94.0
 20
46.5
 30
0.0
 40
1.0
100
AcDbArc
 50
90.0
 51
180.0
  0
ARC
  5
147E9
330
1E
100
AcDbEntity
  8
10
  6
Continuous
100
AcDbCircle
 10
94.0
 20
46.5
 30
0.0
 40
1.0
100
AcDbArc
 50
0.0
 51
90.0
  0
ARC
  5
147EC
330
1E
100
AcDbEntity
  8
10
  6
Continuous
100
AcDbCircle
 10
-94.0
 20
-46.5
 30
0.0
 40
1.0
100
AcDbArc
 50
180.0
 51
270.0
  0
ARC
  5
147ED
330
1E
100
AcDbEntity
  8
10
  6
Continuous
100
AcDbCircle
 10
-94.0
 20
46.5
 30
0.0
 40
1.0
100
AcDbArc
 50
90.0
 51
180.0
  0
ARC
  5
147EE
330
1E
100
AcDbEntity
  8
10
  6
Continuous
100
AcDbCircle
 10
94.0
 20
46.5
 30
0.0
 40
1.0
100
AcDbArc
 50
0.0
 51
90.0
  0
ARC
  5
147EF
330
1E
100
AcDbEntity
  8
10
  6
Continuous
100
AcDbCircle
 10
-94.0
 20
46.5
 30
0.0
 40
1.0
100
AcDbArc
 50
90.0
 51
180.0
  0
LWPOLYLINE
  5
147F2
330
1E
100
AcDbEntity
  8
10
  6
Continuous
100
AcDbPolyline
 90
        8
 70
     0
 43
0.0
 10
95.0
 20
46.5
 10
95.0
 20
-46.5
 42
-0.4142135623730951
 10
94.0
 20
-47.5
 10
-94.0
 20
-47.5
 42
-0.4142135623730951
 10
-95.0
 20
-46.5
 10
-95.0
 20
46.5
 42
-0.4142135623730951
 10
-94.0
 20
47.5
 10
94.0
 20
47.5
  0
LINE
  5
147F9
330
1E
100
AcDbEntity
  8
17
  6
DASHDOT
100
AcDbLine
 10
-79.5
 20
-234.9999999999998
 30
0.0
 11
-60.49999999999999
 21
-234.9999999999998
 31
0.0
  0
LINE
  5
147FA
330
1E
100
AcDbEntity
  8
17
  6
DASHDOT
100
AcDbLine
 10
-79.5
 20
-194.9999999999998
 30
0.0
 11
-60.49999999999999
 21
-194.9999999999998
 31
0.0
  0
LINE
  5
147FB
330
1E
100
AcDbEntity
  8
17
  6
DASHDOT
100
AcDbLine
 10
-79.5
 20
-202.9999999999998
 30
0.0
 11
-60.49999999999999
 21
-202.9999999999998
 31
0.0
  0
LWPOLYLINE
  5
147FC
330
1E
100
AcDbEntity
  8
10
  6
Continuous
100
AcDbPolyline
 90
        4
 70
     0
 43
0.0
 10
-92.5
 20
-169.9999999999998
 10
-92.5
 20
-249.9999999999999
 10
-47.49999999999999
 20
-249.9999999999999
 10
-47.49999999999999
 20
-169.9999999999998
  0
CIRCLE
  5
147FD
330
1E
100
AcDbEntity
  8
17
  6
DASHDOT
100
AcDbCircle
 10
-70.0
 20
-234.9999999999998
 30
0.0
 40
6.5
  0
LINE
  5
147FE
330
1E
100
AcDbEntity
  8
17
  6
DASHDOT
100
AcDbLine
 10
-70.0
 20
-244.4999999999999
 30
0.0
 11
-70.0
 21
-185.4999999999998
 31
0.0
  0
LINE
  5
147FF
330
1E
100
AcDbEntity
  8
17
  6
DASHDOT
100
AcDbLine
 10
-63.49999999999999
 20
-202.9999999999998
 30
0.0
 11
-63.49999999999999
 21
-194.9999999999998
 31
0.0
  0
LINE
  5
14800
330
1E
100
AcDbEntity
  8
17
  6
DASHDOT
100
AcDbLine
 10
-76.5
 20
-202.9999999999998
 30
0.0
 11
-76.5
 21
-194.9999999999998
 31
0.0
  0
ARC
  5
14801
330
1E
100
AcDbEntity
  8
17
  6
DASHDOT
100
AcDbCircle
 10
-70.0
 20
-202.9999999999998
 30
0.0
 40
6.5
100
AcDbArc
 50
180.0
 51
0.0
  0
ARC
  5
14802
330
1E
100
AcDbEntity
  8
17
  6
DASHDOT
100
AcDbCircle
 10
-70.0
 20
-194.9999999999998
 30
0.0
 40
6.5
100
AcDbArc
 50
0.0
 51
180.0
  0
ARC
  5
14803
330
1E
100
AcDbEntity
  8
17
  6
DASHDOT
100
AcDbCircle
 10
0.0000000000000071
 20
-194.9999999999998
 30
0.0
 40
6.5
100
AcDbArc
 50
0.0
 51
180.0
  0
ARC
  5
14804
330
1E
100
AcDbEntity
  8
17
  6
DASHDOT
100
AcDbCircle
 10
0.0000000000000071
 20
-202.9999999999998
 30
0.0
 40
6.5
100
AcDbArc
 50
180.0
 51
0.0
  0
CIRCLE
  5
14805
330
1E
100
AcDbEntity
  8
17
  6
DASHDOT
100
AcDbCircle
 10
0.0000000000000071
 20
-234.9999999999998
 30
0.0
 40
6.5
  0
LWPOLYLINE
  5
14806
330
1E
100
AcDbEntity
  8
10
  6
Continuous
100
AcDbPolyline
 90
        4
 70
     0
 43
0.0
 10
-22.49999999999999
 20
-169.9999999999998
 10
-22.49999999999999
 20
-249.9999999999999
 10
22.5
 20
-249.9999999999999
 10
22.5
 20
-169.9999999999998
  0
LINE
  5
14807
330
1E
100
AcDbEntity
  8
17
  6
DASHDOT
100
AcDbLine
 10
-9.499999999999992
 20
-202.9999999999998
 30
0.0
 11
9.500000000000007
 21
-202.9999999999998
 31
0.0
  0
LINE
  5
14808
330
1E
100
AcDbEntity
  8
17
  6
DASHDOT
100
AcDbLine
 10
-9.499999999999992
 20
-194.9999999999998
 30
0.0
 11
9.500000000000007
 21
-194.9999999999998
 31
0.0
  0
LINE
  5
14809
330
1E
100
AcDbEntity
  8
17
  6
DASHDOT
100
AcDbLine
 10
-9.499999999999992
 20
-234.9999999999998
 30
0.0
 11
9.500000000000007
 21
-234.9999999999998
 31
0.0
  0
LINE
  5
1480A
330
1E
100
AcDbEntity
  8
17
  6
DASHDOT
100
AcDbLine
 10
-6.499999999999992
 20
-202.9999999999998
 30
0.0
 11
-6.499999999999992
 21
-194.9999999999998
 31
0.0
  0
LINE
  5
1480B
330
1E
100
AcDbEntity
  8
17
  6
DASHDOT
100
AcDbLine
 10
0.0000000000000071
 20
-244.4999999999999
 30
0.0
 11
0.0000000000000071
 21
-185.4999999999998
 31
0.0
  0
LINE
  5
1480C
330
1E
100
AcDbEntity
  8
17
  6
DASHDOT
100
AcDbLine
 10
6.500000000000007
 20
-202.9999999999998
 30
0.0
 11
6.500000000000007
 21
-194.9999999999998
 31
0.0
  0
LINE
  5
1480E
330
1E
100
AcDbEntity
  8
17
  6
DASHDOT
100
AcDbLine
 10
60.5
 20
-234.9999999999998
 30
0.0
 11
79.5
 21
-234.9999999999998
 31
0.0
  0
LINE
  5
1480F
330
1E
100
AcDbEntity
  8
17
  6
DASHDOT
100
AcDbLine
 10
60.5
 20
-194.9999999999998
 30
0.0
 11
79.5
 21
-194.9999999999998
 31
0.0
  0
LINE
  5
14810
330
1E
100
AcDbEntity
  8
17
  6
DASHDOT
100
AcDbLine
 10
60.5
 20
-202.9999999999998
 30
0.0
 11
79.5
 21
-202.9999999999998
 31
0.0
  0
LWPOLYLINE
  5
14811
330
1E
100
AcDbEntity
  8
10
  6
Continuous
100
AcDbPolyline
 90
        4
 70
     0
 43
0.0
 10
47.5
 20
-169.9999999999998
 10
47.5
 20
-249.9999999999999
 10
92.5
 20
-249.9999999999999
 10
92.5
 20
-169.9999999999998
  0
CIRCLE
  5
14812
330
1E
100
AcDbEntity
  8
17
  6
DASHDOT
100
AcDbCircle
 10
70.0
 20
-234.9999999999998
 30
0.0
 40
6.5
  0
ARC
  5
14813
330
1E
100
AcDbEntity
  8
17
  6
DASHDOT
100
AcDbCircle
 10
70.0
 20
-202.9999999999998
 30
0.0
 40
6.5
100
AcDbArc
 50
180.0
 51
0.0
  0
ARC
  5
14814
330
1E
100
AcDbEntity
  8
17
  6
DASHDOT
100
AcDbCircle
 10
70.0
 20
-194.9999999999998
 30
0.0
 40
6.5
100
AcDbArc
 50
0.0
 51
180.0
  0
LINE
  5
14815
330
1E
100
AcDbEntity
  8
17
  6
DASHDOT
100
AcDbLine
 10
70.0
 20
-244.4999999999999
 30
0.0
 11
70.0
 21
-185.4999999999998
 31
0.0
  0
LINE
  5
14816
330
1E
100
AcDbEntity
  8
17
  6
DASHDOT
100
AcDbLine
 10
63.50000000000001
 20
-202.9999999999998
 30
0.0
 11
63.50000000000001
 21
-194.9999999999998
 31
0.0
  0
LINE
  5
14817
330
1E
100
AcDbEntity
  8
17
  6
DASHDOT
100
AcDbLine
 10
76.5
 20
-202.9999999999998
 30
0.0
 11
76.5
 21
-194.9999999999998
 31
0.0
  0
DIMENSION
  5
14899
330
1E
100
AcDbEntity
  8
30
  6
Continuous
100
AcDbDimension
  2
*D42
 10
70.0
 20
-289.9198416280937
 30
0.0
 11
35.0
 21
-283.9198416280937
 31
0.0
 70
    32
  1
 <> 
 71
     5
 42
70.0
  3
STANDARD1
100
AcDbAlignedDimension
 13
0.0
 23
-264.5000000000004
 33
0.0
 14
70.0
 24
-249.9999999999999
 34
0.0
100
AcDbRotatedDimension
  0
DIMENSION
  5
14975
330
1E
100
AcDbEntity
  8
30
  6
Continuous
100
AcDbDimension
  2
*D43
 10
-119.6396806544671
 20
200.0
 30
0.0
 11
-125.6396806544672
 21
255.0
 31
0.0
 70
    32
 71
     5
 42
110.0
  3
STANDARD1
100
AcDbAlignedDimension
 13
-36.25
 23
310.0
 33
0.0
 14
-92.5
 24
200.0
 34
0.0
 50
90.0
100
AcDbRotatedDimension
  0
DIMENSION
  5
149C2
330
1E
100
AcDbEntity
  8
30
  6
Continuous
100
AcDbDimension
  2
*D48
 10
122.2411874274876
 20
-194.9999999999997
 30
0.0
 11
116.0416694375644
 21
-200.9525246916012
 31
0.0
 70
   160
  1
 <> 
 71
     0
 72
     0
 41
0.0
 42
7.999999999999914
  3
STANDARD1
100
AcDbAlignedDimension
 13
62.49999999999963
 23
-202.9999999999996
 33
0.0
 14
62.49999999999963
 24
-194.9999999999997
 34
0.0
 50
90.0
100
AcDbRotatedDimension
1001
ACAD
1000
DSTYLE
1002
{
1070
   172
1070
     1
1070
   279
1070
     2
1002
}
  0
DIMENSION
  5
149C3
330
1E
100
AcDbEntity
  8
30
  6
Continuous
100
AcDbDimension
  2
*D49
 10
122.2411874274876
 20
-234.9999999999996
 30
0.0
 11
122.2411874274876
 21
-245.9050493832026
 31
0.0
 70
   160
  1
 <> 
 71
     0
 72
     0
 41
0.0
 42
15.00000000000008
  3
STANDARD1
100
AcDbAlignedDimension
 13
82.4999999999998
 23
-249.9999999999996
 33
0.0
 14
62.49999999999963
 24
-234.9999999999995
 34
0.0
 50
90.0
100
AcDbRotatedDimension
  0
DIMENSION
  5
149C4
330
1E
100
AcDbEntity
  8
30
  6
Continuous
100
AcDbDimension
  2
*D50
 10
122.2411874274876
 20
-202.9999999999997
 30
0.0
 11
116.2411874274876
 21
-218.9999999999996
 31
0.0
 70
    32
  1
 <> 
 71
     0
 72
     0
 41
0.0
 42
31.99999999999988
  3
STANDARD1
100
AcDbAlignedDimension
 13
62.49999999999963
 23
-234.9999999999995
 33
0.0
 14
62.49999999999963
 24
-202.9999999999996
 34
0.0
 50
90.0
100
AcDbRotatedDimension
  0
DIMENSION
  5
149C5
330
1E
100
AcDbEntity
  8
30
  6
Continuous
100
AcDbDimension
  2
*D51
 10
122.2411874274876
 20
-169.9999999999998
 30
0.0
 11
116.2411874274876
 21
-182.4999999999998
 31
0.0
 70
    32
  1
 <> 
 71
     0
 72
     0
 41
0.0
 42
24.99999999999991
  3
STANDARD1
100
AcDbAlignedDimension
 13
62.49999999999963
 23
-194.9999999999997
 33
0.0
 14
97.4999999999998
 24
-169.9999999999998
 34
0.0
 50
90.0
100
AcDbRotatedDimension
  0
VIEWPORT
  5
9AC
330
1A
100
AcDbEntity
 67
     1
  8
0
  6
Continuous
100
AcDbViewport
 10
0.0
 20
0.0
 30
0.0
 40
0.0
 41
0.0
 68
     1
 69
     1
 12
0.0
 22
0.0
 13
0.0
 23
0.0
 14
10.0
 24
10.0
 15
10.0
 25
10.0
 16
0.0
 26
0.0
 36
1.0
 17
0.0
 27
0.0
 37
0.0
 42
50.0
 43
0.0
 44
0.0
 45
0.0
 50
0.0
 51
0.0
 72
   100
 90
    32800
  1

281
     0
 71
     1
 74
     0
110
0.0
120
0.0
130
0.0
111
1.0
121
0.0
131
0.0
112
0.0
122
1.0
132
0.0
 79
     0
146
0.0
  0
VIEWPORT
  5
1213C
330
1A
100
AcDbEntity
 67
     1
  8
30
  6
Continuous
100
AcDbViewport
 10
0.0
 20
0.0
 30
0.0
 40
0.0
 41
0.0
 68
    -1
 69
     2
 12
200.7015858897093
 22
-184.5079469532693
 13
0.0
 23
0.0
 14
1.0
 24
1.0
 15
10.0
 25
10.0
 16
0.0
 26
0.0
 36
1.0
 17
0.0
 27
0.0
 37
0.0
 42
50.0
 43
0.0
 44
0.0
 45
1624.666777614301
 50
0.0
 51
0.0
 72
   100
 90
    33568
  1

281
     0
 71
     1
 74
     0
110
0.0
120
0.0
130
0.0
111
1.0
121
0.0
131
0.0
112
0.0
122
1.0
132
0.0
 79
     0
146
0.0
  0
ENDSEC
  0
SECTION
  2
OBJECTS
  0
DICTIONARY
  5
C
330
0
100
AcDbDictionary
281
     1
  3
ACAD_GROUP
350
D
  3
ACAD_LAYOUT
350
19
  3
ACAD_MLINESTYLE
350
16
  3
ACAD_PLOTSETTINGS
350
18
  3
ACAD_PLOTSTYLENAME
350
E
  3
ACDBHEADERROUNDTRIPXREC
350
14A26
  3
ACDBVARIABLEDICTIONARY
350
69C9
  0
DICTIONARY
  5
178
330
1E
100
AcDbDictionary
280
     1
281
     1
  3
ACAD_LAYOUTSELFREF
360
7AD3
  0
DICTIONARY
  5
17A
330
1A
100
AcDbDictionary
280
     1
281
     1
  3
ACAD_LAYOUTSELFREF
360
7AD2
  0
DICTIONARY
  5
D
102
{ACAD_REACTORS
330
C
102
}
330
C
100
AcDbDictionary
281
     1
  0
DICTIONARY
  5
19
102
{ACAD_REACTORS
330
C
102
}
330
C
100
AcDbDictionary
281
     1
  3
Model
350
7AE4
  3
ﾚｲｱｳﾄ1
350
7AE5
  0
DICTIONARY
  5
16
102
{ACAD_REACTORS
330
C
102
}
330
C
100
AcDbDictionary
281
     1
  3
STANDARD
350
17
  0
DICTIONARY
  5
18
102
{ACAD_REACTORS
330
C
102
}
330
C
100
AcDbDictionary
281
     1
  0
ACDBDICTIONARYWDFLT
  5
E
102
{ACAD_REACTORS
330
C
102
}
330
C
100
AcDbDictionary
281
     1
  3
Normal
350
F
100
AcDbDictionaryWithDefault
340
F
  0
DICTIONARY
  5
14A26
102
{ACAD_REACTORS
330
C
102
}
330
C
100
AcDbDictionary
281
     1
  3
CEPSNTYPE
350
14A30
  3
DIMSTYLEDATA
350
14A34
  3
FINGERPRINTGUID
350
14A31
  3
HYPERLINKBASE
350
14A29
  3
INSUNITS
350
14A2F
  3
LAYOUTDICT
350
14A2B
  3
LWETCUNION
350
14A2E
  3
PLOTSETDICT
350
14A2C
  3
PLOTSTYLNAMDICT
350
14A2D
  3
PSVPSCALE
350
14A33
  3
PUCSBASE
350
14A37
  3
PUCSORGBACK
350
14A3D
  3
PUCSORGBOTTOM
350
14A39
  3
PUCSORGFRONT
350
14A3C
  3
PUCSORGLEFT
350
14A3A
  3
PUCSORGRIGHT
350
14A3B
  3
PUCSORGTOP
350
14A38
  3
PUCSORTHOREF
350
14A35
  3
PUCSORTHOVIEW
350
14A36
  3
STYLESHEET
350
14A2A
  3
TSTACKALIGN
350
14A27
  3
TSTACKSIZE
350
14A28
  3
UCSBASE
350
14A40
  3
UCSORGBACK
350
14A46
  3
UCSORGBOTTOM
350
14A42
  3
UCSORGFRONT
350
14A45
  3
UCSORGLEFT
350
14A43
  3
UCSORGRIGHT
350
14A44
  3
UCSORGTOP
350
14A41
  3
UCSORTHOREF
350
14A3E
  3
UCSORTHOVIEW
350
14A3F
  3
VERSIONGUID
350
14A32
  0
DICTIONARY
  5
69C9
102
{ACAD_REACTORS
330
C
102
}
330
C
100
AcDbDictionary
281
     1
  3
DIMASSOC
350
69CA
  3
SORTENTS
350
F572
  0
XRECORD
  5
7AD3
102
{ACAD_REACTORS
330
178
102
}
330
178
100
AcDbXrecord
280
     1
340
1E
  0
XRECORD
  5
7AD2
102
{ACAD_REACTORS
330
17A
102
}
330
17A
100
AcDbXrecord
280
     1
340
1A
  0
LAYOUT
  5
7AE4
102
{ACAD_REACTORS
330
19
102
}
330
19
100
AcDbPlotSettings
  1

  2
LBP5400
  4

  6

 40
0.0
 41
0.0
 42
0.0
 43
0.0
 44
0.0
 45
0.0
 46
0.0
 47
0.0
 48
0.0
 49
0.0
140
0.0
141
0.0
142
1.0
143
1.0
 70
 11952
 72
     0
 73
     1
 74
     0
  7
monochrome.stb
 75
     0
147
1.0
148
9156.934009523196
149
17586.84453491656
100
AcDbLayout
  1
Model
 70
     1
 71
     0
 10
0.0
 20
0.0
 11
12.0
 21
9.0
 12
0.0
 22
0.0
 32
0.0
 14
0.0
 24
0.0
 34
0.0
 15
0.0
 25
0.0
 35
0.0
146
0.0
 13
0.0
 23
0.0
 33
0.0
 16
1.0
 26
0.0
 36
0.0
 17
0.0
 27
1.0
 37
0.0
 76
     0
330
1E
  0
LAYOUT
  5
7AE5
102
{ACAD_REACTORS
330
19
102
}
330
19
100
AcDbPlotSettings
  1

  2
LBP5400
  4

  6

 40
0.0
 41
0.0
 42
0.0
 43
0.0
 44
0.0
 45
0.0
 46
0.0
 47
0.0
 48
0.0
 49
0.0
140
0.0
141
0.0
142
1.0
143
1.0
 70
   688
 72
     0
 73
     1
 74
     1
  7
monochrome.stb
 75
     0
147
1.0
148
0.0
149
0.0
100
AcDbLayout
  1
ﾚｲｱｳﾄ1
 70
     1
 71
     1
 10
0.0
 20
0.0
 11
0.0
 21
0.0
 12
0.0
 22
0.0
 32
0.0
 14
0.0
 24
0.0
 34
0.0
 15
0.0
 25
0.0
 35
0.0
146
0.0
 13
0.0
 23
0.0
 33
0.0
 16
1.0
 26
0.0
 36
0.0
 17
0.0
 27
1.0
 37
0.0
 76
     0
330
1A
331
9AC
  0
MLINESTYLE
  5
17
102
{ACAD_REACTORS
330
16
102
}
330
16
100
AcDbMlineStyle
  2
STANDARD
 70
     0
  3

 62
   256
 51
90.0
 52
90.0
 71
     2
 49
0.5
 62
   256
  6
BYLAYER
 49
-0.5
 62
   256
  6
BYLAYER
  0
ACDBPLACEHOLDER
  5
F
102
{ACAD_REACTORS
330
E
102
}
330
E
  0
XRECORD
  5
14A30
102
{ACAD_REACTORS
330
14A26
102
}
330
14A26
100
AcDbXrecord
280
     1
 90
        0
  0
XRECORD
  5
14A34
102
{ACAD_REACTORS
330
14A26
102
}
330
14A26
100
AcDbXrecord
280
     1
1000
DSTYLE
1002
{
1070
   289
 70
     2
1070
   341
340
3B2
1070
   342
340
3B2
1002
}
  0
XRECORD
  5
14A31
102
{ACAD_REACTORS
330
14A26
102
}
330
14A26
100
AcDbXrecord
280
     1
  1

  0
XRECORD
  5
14A29
102
{ACAD_REACTORS
330
14A26
102
}
330
14A26
100
AcDbXrecord
280
     1
  1

  0
XRECORD
  5
14A2F
102
{ACAD_REACTORS
330
14A26
102
}
330
14A26
100
AcDbXrecord
280
     1
 90
        0
  0
XRECORD
  5
14A2B
102
{ACAD_REACTORS
330
14A26
102
}
330
14A26
100
AcDbXrecord
280
     1
340
19
  0
XRECORD
  5
14A2E
102
{ACAD_REACTORS
330
14A26
102
}
330
14A26
100
AcDbXrecord
280
     1
 90
    10781
  0
XRECORD
  5
14A2C
102
{ACAD_REACTORS
330
14A26
102
}
330
14A26
100
AcDbXrecord
280
     1
340
18
  0
XRECORD
  5
14A2D
102
{ACAD_REACTORS
330
14A26
102
}
330
14A26
100
AcDbXrecord
280
     1
340
E
  0
XRECORD
  5
14A33
102
{ACAD_REACTORS
330
14A26
102
}
330
14A26
100
AcDbXrecord
280
     1
 40
0.0
  0
XRECORD
  5
14A37
102
{ACAD_REACTORS
330
14A26
102
}
330
14A26
100
AcDbXrecord
280
     1
340
0
  0
XRECORD
  5
14A3D
102
{ACAD_REACTORS
330
14A26
102
}
330
14A26
100
AcDbXrecord
280
     1
 10
0.0
 20
0.0
 30
0.0
  0
XRECORD
  5
14A39
102
{ACAD_REACTORS
330
14A26
102
}
330
14A26
100
AcDbXrecord
280
     1
 10
0.0
 20
0.0
 30
0.0
  0
XRECORD
  5
14A3C
102
{ACAD_REACTORS
330
14A26
102
}
330
14A26
100
AcDbXrecord
280
     1
 10
0.0
 20
0.0
 30
0.0
  0
XRECORD
  5
14A3A
102
{ACAD_REACTORS
330
14A26
102
}
330
14A26
100
AcDbXrecord
280
     1
 10
0.0
 20
0.0
 30
0.0
  0
XRECORD
  5
14A3B
102
{ACAD_REACTORS
330
14A26
102
}
330
14A26
100
AcDbXrecord
280
     1
 10
0.0
 20
0.0
 30
0.0
  0
XRECORD
  5
14A38
102
{ACAD_REACTORS
330
14A26
102
}
330
14A26
100
AcDbXrecord
280
     1
 10
0.0
 20
0.0
 30
0.0
  0
XRECORD
  5
14A35
102
{ACAD_REACTORS
330
14A26
102
}
330
14A26
100
AcDbXrecord
280
     1
340
0
  0
XRECORD
  5
14A36
102
{ACAD_REACTORS
330
14A26
102
}
330
14A26
100
AcDbXrecord
280
     1
 70
     0
  0
XRECORD
  5
14A2A
102
{ACAD_REACTORS
330
14A26
102
}
330
14A26
100
AcDbXrecord
280
     1
  1
MONOCHROME.CTB
  0
XRECORD
  5
14A27
102
{ACAD_REACTORS
330
14A26
102
}
330
14A26
100
AcDbXrecord
280
     1
 90
        1
  0
XRECORD
  5
14A28
102
{ACAD_REACTORS
330
14A26
102
}
330
14A26
100
AcDbXrecord
280
     1
 90
       70
  0
XRECORD
  5
14A40
102
{ACAD_REACTORS
330
14A26
102
}
330
14A26
100
AcDbXrecord
280
     1
340
0
  0
XRECORD
  5
14A46
102
{ACAD_REACTORS
330
14A26
102
}
330
14A26
100
AcDbXrecord
280
     1
 10
0.0
 20
0.0
 30
0.0
  0
XRECORD
  5
14A42
102
{ACAD_REACTORS
330
14A26
102
}
330
14A26
100
AcDbXrecord
280
     1
 10
0.0
 20
0.0
 30
0.0
  0
XRECORD
  5
14A45
102
{ACAD_REACTORS
330
14A26
102
}
330
14A26
100
AcDbXrecord
280
     1
 10
0.0
 20
0.0
 30
0.0
  0
XRECORD
  5
14A43
102
{ACAD_REACTORS
330
14A26
102
}
330
14A26
100
AcDbXrecord
280
     1
 10
0.0
 20
0.0
 30
0.0
  0
XRECORD
  5
14A44
102
{ACAD_REACTORS
330
14A26
102
}
330
14A26
100
AcDbXrecord
280
     1
 10
0.0
 20
0.0
 30
0.0
  0
XRECORD
  5
14A41
102
{ACAD_REACTORS
330
14A26
102
}
330
14A26
100
AcDbXrecord
280
     1
 10
0.0
 20
0.0
 30
0.0
  0
XRECORD
  5
14A3E
102
{ACAD_REACTORS
330
14A26
102
}
330
14A26
100
AcDbXrecord
280
     1
340
0
  0
XRECORD
  5
14A3F
102
{ACAD_REACTORS
330
14A26
102
}
330
14A26
100
AcDbXrecord
280
     1
 70
     0
  0
XRECORD
  5
14A32
102
{ACAD_REACTORS
330
14A26
102
}
330
14A26
100
AcDbXrecord
280
     1
  1
{A97E65D8-ED56-49EA-8EF0-4498F9A3426E}
  0
DICTIONARYVAR
  5
69CA
102
{ACAD_REACTORS
330
69C9
102
}
330
69C9
100
DictionaryVariables
280
     0
  1
1
  0
DICTIONARYVAR
  5
F572
102
{ACAD_REACTORS
330
69C9
102
}
330
69C9
100
DictionaryVariables
280
     0
  1
96
  0
ENDSEC
  0
EOF
