  0
SECTION
  2
HEADER
  9
$ACADVER
  1
AC1015
  9
$ACADMAINTVER
 70
    10
  9
$DWGCODEPAGE
  3
ANSI_932
  9
$INSBASE
 10
0.0
 20
0.0
 30
0.0
  9
$EXTMIN
 10
-159.5254336138318
 20
-556.3389252521319
 30
-0.0000000349181948
  9
$EXTMAX
 10
620.0900445555921
 20
551.2314176042927
 30
0.0000000814935747
  9
$LIMMIN
 10
-400.0
 20
-616.0
  9
$LIMMAX
 10
677.0
 20
630.0
  9
$ORTHOMODE
 70
     0
  9
$REGENMODE
 70
     1
  9
$FILLMODE
 70
     1
  9
$QTEXTMODE
 70
     0
  9
$MIRRTEXT
 70
     1
  9
$LTSCALE
 40
10.0
  9
$ATTMODE
 70
     1
  9
$TEXTSIZE
 40
5.0
  9
$TRACEWID
 40
0.05
  9
$TEXTSTYLE
  7
STANDARD1
  9
$CLAYER
  8
30
  9
$CELTYPE
  6
CONTINUOUS
  9
$CECOLOR
 62
   256
  9
$CELTSCALE
 40
1.0
  9
$DISPSILH
 70
     0
  9
$DIMSCALE
 40
1.0
  9
$DIMASZ
 40
2.0
  9
$DIMEXO
 40
3.0
  9
$DIMDLI
 40
0.5
  9
$DIMRND
 40
0.0
  9
$DIMDLE
 40
0.0
  9
$DIMEXE
 40
0.5
  9
$DIMTP
 40
0.0
  9
$DIMTM
 40
0.0
  9
$DIMTXT
 40
6.0
  9
$DIMCEN
 40
0.09
  9
$DIMTSZ
 40
0.0
  9
$DIMTOL
 70
     0
  9
$DIMLIM
 70
     0
  9
$DIMTIH
 70
     0
  9
$DIMTOH
 70
     1
  9
$DIMSE1
 70
     0
  9
$DIMSE2
 70
     0
  9
$DIMTAD
 70
     3
  9
$DIMZIN
 70
    12
  9
$DIMBLK
  1
OPEN
  9
$DIMASO
 70
     1
  9
$DIMSHO
 70
     1
  9
$DIMPOST
  1

  9
$DIMAPOST
  1

  9
$DIMALT
 70
     0
  9
$DIMALTD
 70
     2
  9
$DIMALTF
 40
25.4
  9
$DIMLFAC
 40
1.0
  9
$DIMTOFL
 70
     0
  9
$DIMTVP
 40
0.0
  9
$DIMTIX
 70
     0
  9
$DIMSOXD
 70
     0
  9
$DIMSAH
 70
     0
  9
$DIMBLK1
  1

  9
$DIMBLK2
  1

  9
$DIMSTYLE
  2
STANDARD1
  9
$DIMCLRD
 70
     0
  9
$DIMCLRE
 70
     0
  9
$DIMCLRT
 70
     0
  9
$DIMTFAC
 40
1.0
  9
$DIMGAP
 40
3.0
  9
$DIMJUST
 70
     0
  9
$DIMSD1
 70
     0
  9
$DIMSD2
 70
     0
  9
$DIMTOLJ
 70
     1
  9
$DIMTZIN
 70
     0
  9
$DIMALTZ
 70
     0
  9
$DIMALTTZ
 70
     0
  9
$DIMUPT
 70
     0
  9
$DIMDEC
 70
     1
  9
$DIMTDEC
 70
     1
  9
$DIMALTU
 70
     2
  9
$DIMALTTD
 70
     2
  9
$DIMTXSTY
  7
STANDARD
  9
$DIMAUNIT
 70
     0
  9
$DIMADEC
 70
     0
  9
$DIMALTRND
 40
0.0
  9
$DIMAZIN
 70
     0
  9
$DIMDSEP
 70
    46
  9
$DIMATFIT
 70
     2
  9
$DIMFRAC
 70
     0
  9
$DIMLDRBLK
  1
OPEN
  9
$DIMLUNIT
 70
     2
  9
$DIMLWD
 70
    -2
  9
$DIMLWE
 70
    -2
  9
$DIMTMOVE
 70
     0
  9
$LUNITS
 70
     2
  9
$LUPREC
 70
     3
  9
$SKETCHINC
 40
0.1
  9
$FILLETRAD
 40
0.0
  9
$AUNITS
 70
     0
  9
$AUPREC
 70
     0
  9
$MENU
  1
.
  9
$ELEVATION
 40
0.0
  9
$PELEVATION
 40
0.0
  9
$THICKNESS
 40
0.0
  9
$LIMCHECK
 70
     0
  9
$CHAMFERA
 40
0.0
  9
$CHAMFERB
 40
0.0
  9
$CHAMFERC
 40
0.0
  9
$CHAMFERD
 40
0.0
  9
$SKPOLY
 70
     0
  9
$TDCREATE
 40
2452286.555658657
  9
$TDUCREATE
 40
2452286.180658657
  9
$TDUPDATE
 40
2454701.489028680
  9
$TDUUPDATE
 40
2454701.114028680
  9
$TDINDWG
 40
1.5959644676
  9
$TDUSRTIMER
 40
1.5959594444
  9
$USRTIMER
 70
     1
  9
$ANGBASE
 50
0.0
  9
$ANGDIR
 70
     0
  9
$PDMODE
 70
     0
  9
$PDSIZE
 40
0.0
  9
$PLINEWID
 40
0.0
  9
$SPLFRAME
 70
     0
  9
$SPLINETYPE
 70
     6
  9
$SPLINESEGS
 70
     8
  9
$HANDSEED
  5
E190
  9
$SURFTAB1
 70
     6
  9
$SURFTAB2
 70
     6
  9
$SURFTYPE
 70
     6
  9
$SURFU
 70
     6
  9
$SURFV
 70
     6
  9
$UCSBASE
  2

  9
$UCSNAME
  2

  9
$UCSORG
 10
0.0
 20
0.0
 30
0.0
  9
$UCSXDIR
 10
1.0
 20
0.0
 30
0.0
  9
$UCSYDIR
 10
0.0
 20
1.0
 30
0.0
  9
$UCSORTHOREF
  2

  9
$UCSORTHOVIEW
 70
     0
  9
$UCSORGTOP
 10
0.0
 20
0.0
 30
0.0
  9
$UCSORGBOTTOM
 10
0.0
 20
0.0
 30
0.0
  9
$UCSORGLEFT
 10
0.0
 20
0.0
 30
0.0
  9
$UCSORGRIGHT
 10
0.0
 20
0.0
 30
0.0
  9
$UCSORGFRONT
 10
0.0
 20
0.0
 30
0.0
  9
$UCSORGBACK
 10
0.0
 20
0.0
 30
0.0
  9
$PUCSBASE
  2

  9
$PUCSNAME
  2

  9
$PUCSORG
 10
0.0
 20
0.0
 30
0.0
  9
$PUCSXDIR
 10
1.0
 20
0.0
 30
0.0
  9
$PUCSYDIR
 10
0.0
 20
1.0
 30
0.0
  9
$PUCSORTHOREF
  2

  9
$PUCSORTHOVIEW
 70
     0
  9
$PUCSORGTOP
 10
0.0
 20
0.0
 30
0.0
  9
$PUCSORGBOTTOM
 10
0.0
 20
0.0
 30
0.0
  9
$PUCSORGLEFT
 10
0.0
 20
0.0
 30
0.0
  9
$PUCSORGRIGHT
 10
0.0
 20
0.0
 30
0.0
  9
$PUCSORGFRONT
 10
0.0
 20
0.0
 30
0.0
  9
$PUCSORGBACK
 10
0.0
 20
0.0
 30
0.0
  9
$USERI1
 70
     0
  9
$USERI2
 70
     0
  9
$USERI3
 70
     0
  9
$USERI4
 70
     0
  9
$USERI5
 70
     0
  9
$USERR1
 40
0.0
  9
$USERR2
 40
0.0
  9
$USERR3
 40
0.0
  9
$USERR4
 40
0.0
  9
$USERR5
 40
0.0
  9
$WORLDVIEW
 70
     1
  9
$SHADEDGE
 70
     3
  9
$SHADEDIF
 70
    70
  9
$TILEMODE
 70
     1
  9
$MAXACTVP
 70
    48
  9
$PINSBASE
 10
0.0
 20
0.0
 30
0.0
  9
$PLIMCHECK
 70
     0
  9
$PEXTMIN
 10
4.273573
 20
5.205245999999998
 30
0.0
  9
$PEXTMAX
 10
194.610095
 20
283.0697009999996
 30
0.0
  9
$PLIMMIN
 10
-5.873749
 20
-5.87375
  9
$PLIMMAX
 10
204.099579
 20
291.1369009999999
  9
$UNITMODE
 70
     0
  9
$VISRETAIN
 70
     1
  9
$PLINEGEN
 70
     0
  9
$PSLTSCALE
 70
     1
  9
$TREEDEPTH
 70
  3020
  9
$CMLSTYLE
  2
STANDARD
  9
$CMLJUST
 70
     0
  9
$CMLSCALE
 40
1.0
  9
$PROXYGRAPHICS
 70
     1
  9
$MEASUREMENT
 70
     0
  9
$CELWEIGHT
370
    -1
  9
$ENDCAPS
280
     0
  9
$JOINSTYLE
280
     0
  9
$LWDISPLAY
290
     0
  9
$INSUNITS
 70
     0
  9
$HYPERLINKBASE
  1

  9
$STYLESHEET
  1
monochrome.ctb
  9
$XEDIT
290
     1
  9
$CEPSNTYPE
380
     0
  9
$PSTYLEMODE
290
     1
  9
$FINGERPRINTGUID
  2

  9
$VERSIONGUID
  2
{56CCF5B8-876A-4CAD-98D0-1996AA520134}
  9
$EXTNAMES
290
     1
  9
$PSVPSCALE
 40
0.0
  9
$OLESTARTUP
290
     0
  0
ENDSEC
  0
SECTION
  2
CLASSES
  0
CLASS
  1
ACDBDICTIONARYWDFLT
  2
AcDbDictionaryWithDefault
  3
AutoCAD 2000
 90
        0
280
     0
281
     0
  0
CLASS
  1
ACDBPLACEHOLDER
  2
AcDbPlaceHolder
  3
AutoCAD 2000
 90
        0
280
     0
281
     0
  0
CLASS
  1
LAYOUT
  2
AcDbLayout
  3
AutoCAD 2000
 90
        0
280
     0
281
     0
  0
CLASS
  1
LONG_TRANSACTION
  2
AcDbLongTransaction
  3
AutoCAD 2000
 90
    32768
280
     0
281
     0
  0
CLASS
  1
LWPOLYLINE
  2
AcDbPolyline
  3
AutoCAD 2000
 90
    32768
280
     0
281
     1
  0
CLASS
  1
HATCH
  2
AcDbHatch
  3
AutoCAD 2000
 90
    32768
280
     0
281
     1
  0
CLASS
  1
XRECORD
  2
AcDbXrecord
  3
AutoCAD 2000
 90
    32768
280
     0
281
     0
  0
CLASS
  1
LONG_TRANSACTION
  2
AcDbLongTransaction
  3
AutoCAD 2000
 90
    32768
280
     0
281
     0
  0
CLASS
  1
LWPOLYLINE
  2
AcDbPolyline
  3
AutoCAD 2000
 90
    32768
280
     0
281
     1
  0
CLASS
  1
HATCH
  2
AcDbHatch
  3
AutoCAD 2000
 90
    32768
280
     0
281
     1
  0
CLASS
  1
XRECORD
  2
AcDbXrecord
  3
AutoCAD 2000
 90
    32768
280
     0
281
     0
  0
CLASS
  1
LONG_TRANSACTION
  2
AcDbLongTransaction
  3
AutoCAD 2000
 90
    32768
280
     0
281
     0
  0
CLASS
  1
LWPOLYLINE
  2
AcDbPolyline
  3
AutoCAD 2000
 90
    32768
280
     0
281
     1
  0
CLASS
  1
HATCH
  2
AcDbHatch
  3
AutoCAD 2000
 90
    32768
280
     0
281
     1
  0
CLASS
  1
XRECORD
  2
AcDbXrecord
  3
AutoCAD 2000
 90
    32768
280
     0
281
     0
  0
CLASS
  1
LONG_TRANSACTION
  2
AcDbLongTransaction
  3
AutoCAD 2000
 90
    32768
280
     0
281
     0
  0
CLASS
  1
LWPOLYLINE
  2
AcDbPolyline
  3
AutoCAD 2000
 90
    32768
280
     0
281
     1
  0
CLASS
  1
HATCH
  2
AcDbHatch
  3
AutoCAD 2000
 90
    32768
280
     0
281
     1
  0
CLASS
  1
XRECORD
  2
AcDbXrecord
  3
AutoCAD 2000
 90
    32768
280
     0
281
     0
  0
CLASS
  1
LONG_TRANSACTION
  2
AcDbLongTransaction
  3
AutoCAD 2000
 90
    32768
280
     0
281
     0
  0
CLASS
  1
LWPOLYLINE
  2
AcDbPolyline
  3
AutoCAD 2000
 90
    32768
280
     0
281
     1
  0
CLASS
  1
HATCH
  2
AcDbHatch
  3
AutoCAD 2000
 90
    32768
280
     0
281
     1
  0
CLASS
  1
XRECORD
  2
AcDbXrecord
  3
AutoCAD 2000
 90
    32768
280
     0
281
     0
  0
CLASS
  1
LONG_TRANSACTION
  2
AcDbLongTransaction
  3
AutoCAD 2000
 90
    32768
280
     0
281
     0
  0
CLASS
  1
LWPOLYLINE
  2
AcDbPolyline
  3
AutoCAD 2000
 90
    32768
280
     0
281
     1
  0
CLASS
  1
HATCH
  2
AcDbHatch
  3
AutoCAD 2000
 90
    32768
280
     0
281
     1
  0
CLASS
  1
XRECORD
  2
AcDbXrecord
  3
AutoCAD 2000
 90
    32768
280
     0
281
     0
  0
CLASS
  1
LONG_TRANSACTION
  2
AcDbLongTransaction
  3
AutoCAD 2000
 90
    32768
280
     0
281
     0
  0
CLASS
  1
LWPOLYLINE
  2
AcDbPolyline
  3
AutoCAD 2000
 90
    32768
280
     0
281
     1
  0
CLASS
  1
HATCH
  2
AcDbHatch
  3
AutoCAD 2000
 90
    32768
280
     0
281
     1
  0
CLASS
  1
XRECORD
  2
AcDbXrecord
  3
AutoCAD 2000
 90
    32768
280
     0
281
     0
  0
CLASS
  1
LONG_TRANSACTION
  2
AcDbLongTransaction
  3
AutoCAD 2000
 90
    32768
280
     0
281
     0
  0
CLASS
  1
LWPOLYLINE
  2
AcDbPolyline
  3
AutoCAD 2000
 90
    32768
280
     0
281
     1
  0
CLASS
  1
HATCH
  2
AcDbHatch
  3
AutoCAD 2000
 90
    32768
280
     0
281
     1
  0
CLASS
  1
XRECORD
  2
AcDbXrecord
  3
AutoCAD 2000
 90
    32768
280
     0
281
     0
  0
CLASS
  1
LONG_TRANSACTION
  2
AcDbLongTransaction
  3
AutoCAD 2000
 90
    32768
280
     0
281
     0
  0
CLASS
  1
LWPOLYLINE
  2
AcDbPolyline
  3
AutoCAD 2000
 90
    32768
280
     0
281
     1
  0
CLASS
  1
HATCH
  2
AcDbHatch
  3
AutoCAD 2000
 90
    32768
280
     0
281
     1
  0
CLASS
  1
XRECORD
  2
AcDbXrecord
  3
AutoCAD 2000
 90
    32768
280
     0
281
     0
  0
CLASS
  1
LONG_TRANSACTION
  2
AcDbLongTransaction
  3
AutoCAD 2000
 90
    32768
280
     0
281
     0
  0
CLASS
  1
LWPOLYLINE
  2
AcDbPolyline
  3
AutoCAD 2000
 90
    32768
280
     0
281
     1
  0
CLASS
  1
HATCH
  2
AcDbHatch
  3
AutoCAD 2000
 90
    32768
280
     0
281
     1
  0
CLASS
  1
XRECORD
  2
AcDbXrecord
  3
AutoCAD 2000
 90
    32768
280
     0
281
     0
  0
CLASS
  1
LONG_TRANSACTION
  2
AcDbLongTransaction
  3
AutoCAD 2000
 90
    32768
280
     0
281
     0
  0
CLASS
  1
LWPOLYLINE
  2
AcDbPolyline
  3
AutoCAD 2000
 90
    32768
280
     0
281
     1
  0
CLASS
  1
HATCH
  2
AcDbHatch
  3
AutoCAD 2000
 90
    32768
280
     0
281
     1
  0
CLASS
  1
XRECORD
  2
AcDbXrecord
  3
AutoCAD 2000
 90
    32768
280
     0
281
     0
  0
CLASS
  1
LONG_TRANSACTION
  2
AcDbLongTransaction
  3
AutoCAD 2000
 90
    32768
280
     0
281
     0
  0
CLASS
  1
LWPOLYLINE
  2
AcDbPolyline
  3
AutoCAD 2000
 90
    32768
280
     0
281
     1
  0
CLASS
  1
HATCH
  2
AcDbHatch
  3
AutoCAD 2000
 90
    32768
280
     0
281
     1
  0
CLASS
  1
XRECORD
  2
AcDbXrecord
  3
AutoCAD 2000
 90
    32768
280
     0
281
     0
  0
CLASS
  1
LONG_TRANSACTION
  2
AcDbLongTransaction
  3
AutoCAD 2000
 90
    32768
280
     0
281
     0
  0
CLASS
  1
LWPOLYLINE
  2
AcDbPolyline
  3
AutoCAD 2000
 90
    32768
280
     0
281
     1
  0
CLASS
  1
HATCH
  2
AcDbHatch
  3
AutoCAD 2000
 90
    32768
280
     0
281
     1
  0
CLASS
  1
XRECORD
  2
AcDbXrecord
  3
AutoCAD 2000
 90
    32768
280
     0
281
     0
  0
CLASS
  1
LONG_TRANSACTION
  2
AcDbLongTransaction
  3
AutoCAD 2000
 90
    32768
280
     0
281
     0
  0
CLASS
  1
LWPOLYLINE
  2
AcDbPolyline
  3
AutoCAD 2000
 90
    32768
280
     0
281
     1
  0
CLASS
  1
HATCH
  2
AcDbHatch
  3
AutoCAD 2000
 90
    32768
280
     0
281
     1
  0
CLASS
  1
XRECORD
  2
AcDbXrecord
  3
AutoCAD 2000
 90
    32768
280
     0
281
     0
  0
CLASS
  1
LONG_TRANSACTION
  2
AcDbLongTransaction
  3
AutoCAD 2000
 90
    32768
280
     0
281
     0
  0
CLASS
  1
LWPOLYLINE
  2
AcDbPolyline
  3
AutoCAD 2000
 90
    32768
280
     0
281
     1
  0
CLASS
  1
HATCH
  2
AcDbHatch
  3
AutoCAD 2000
 90
    32768
280
     0
281
     1
  0
CLASS
  1
XRECORD
  2
AcDbXrecord
  3
AutoCAD 2000
 90
    32768
280
     0
281
     0
  0
CLASS
  1
LONG_TRANSACTION
  2
AcDbLongTransaction
  3
AutoCAD 2000
 90
    32768
280
     0
281
     0
  0
CLASS
  1
LWPOLYLINE
  2
AcDbPolyline
  3
AutoCAD 2000
 90
    32768
280
     0
281
     1
  0
CLASS
  1
HATCH
  2
AcDbHatch
  3
AutoCAD 2000
 90
    32768
280
     0
281
     1
  0
CLASS
  1
XRECORD
  2
AcDbXrecord
  3
AutoCAD 2000
 90
    32768
280
     0
281
     0
  0
CLASS
  1
LONG_TRANSACTION
  2
AcDbLongTransaction
  3
AutoCAD 2000
 90
    32768
280
     0
281
     0
  0
CLASS
  1
LWPOLYLINE
  2
AcDbPolyline
  3
AutoCAD 2000
 90
    32768
280
     0
281
     1
  0
CLASS
  1
HATCH
  2
AcDbHatch
  3
AutoCAD 2000
 90
    32768
280
     0
281
     1
  0
CLASS
  1
XRECORD
  2
AcDbXrecord
  3
AutoCAD 2000
 90
    32768
280
     0
281
     0
  0
CLASS
  1
LONG_TRANSACTION
  2
AcDbLongTransaction
  3
AutoCAD 2000
 90
    32768
280
     0
281
     0
  0
CLASS
  1
LWPOLYLINE
  2
AcDbPolyline
  3
AutoCAD 2000
 90
    32768
280
     0
281
     1
  0
CLASS
  1
HATCH
  2
AcDbHatch
  3
AutoCAD 2000
 90
    32768
280
     0
281
     1
  0
CLASS
  1
XRECORD
  2
AcDbXrecord
  3
AutoCAD 2000
 90
    32768
280
     0
281
     0
  0
CLASS
  1
LONG_TRANSACTION
  2
AcDbLongTransaction
  3
AutoCAD 2000
 90
    32768
280
     0
281
     0
  0
CLASS
  1
LWPOLYLINE
  2
AcDbPolyline
  3
AutoCAD 2000
 90
    32768
280
     0
281
     1
  0
CLASS
  1
HATCH
  2
AcDbHatch
  3
AutoCAD 2000
 90
    32768
280
     0
281
     1
  0
CLASS
  1
XRECORD
  2
AcDbXrecord
  3
AutoCAD 2000
 90
    32768
280
     0
281
     0
  0
CLASS
  1
LONG_TRANSACTION
  2
AcDbLongTransaction
  3
AutoCAD 2000
 90
    32768
280
     0
281
     0
  0
CLASS
  1
LWPOLYLINE
  2
AcDbPolyline
  3
AutoCAD 2000
 90
    32768
280
     0
281
     1
  0
CLASS
  1
HATCH
  2
AcDbHatch
  3
AutoCAD 2000
 90
    32768
280
     0
281
     1
  0
CLASS
  1
XRECORD
  2
AcDbXrecord
  3
AutoCAD 2000
 90
    32768
280
     0
281
     0
  0
CLASS
  1
LONG_TRANSACTION
  2
AcDbLongTransaction
  3
AutoCAD 2000
 90
    32768
280
     0
281
     0
  0
CLASS
  1
LWPOLYLINE
  2
AcDbPolyline
  3
AutoCAD 2000
 90
    32768
280
     0
281
     1
  0
CLASS
  1
HATCH
  2
AcDbHatch
  3
AutoCAD 2000
 90
    32768
280
     0
281
     1
  0
CLASS
  1
XRECORD
  2
AcDbXrecord
  3
AutoCAD 2000
 90
    32768
280
     0
281
     0
  0
CLASS
  1
LONG_TRANSACTION
  2
AcDbLongTransaction
  3
AutoCAD 2000
 90
    32768
280
     0
281
     0
  0
CLASS
  1
LWPOLYLINE
  2
AcDbPolyline
  3
AutoCAD 2000
 90
    32768
280
     0
281
     1
  0
CLASS
  1
HATCH
  2
AcDbHatch
  3
AutoCAD 2000
 90
    32768
280
     0
281
     1
  0
CLASS
  1
XRECORD
  2
AcDbXrecord
  3
AutoCAD 2000
 90
    32768
280
     0
281
     0
  0
CLASS
  1
LONG_TRANSACTION
  2
AcDbLongTransaction
  3
AutoCAD 2000
 90
    32768
280
     0
281
     0
  0
CLASS
  1
LWPOLYLINE
  2
AcDbPolyline
  3
AutoCAD 2000
 90
    32768
280
     0
281
     1
  0
CLASS
  1
HATCH
  2
AcDbHatch
  3
AutoCAD 2000
 90
    32768
280
     0
281
     1
  0
CLASS
  1
XRECORD
  2
AcDbXrecord
  3
AutoCAD 2000
 90
    32768
280
     0
281
     0
  0
CLASS
  1
LONG_TRANSACTION
  2
AcDbLongTransaction
  3
AutoCAD 2000
 90
    32768
280
     0
281
     0
  0
CLASS
  1
LWPOLYLINE
  2
AcDbPolyline
  3
AutoCAD 2000
 90
    32768
280
     0
281
     1
  0
CLASS
  1
HATCH
  2
AcDbHatch
  3
AutoCAD 2000
 90
    32768
280
     0
281
     1
  0
CLASS
  1
XRECORD
  2
AcDbXrecord
  3
AutoCAD 2000
 90
    32768
280
     0
281
     0
  0
CLASS
  1
LONG_TRANSACTION
  2
AcDbLongTransaction
  3
AutoCAD 2000
 90
    32768
280
     0
281
     0
  0
CLASS
  1
LWPOLYLINE
  2
AcDbPolyline
  3
AutoCAD 2000
 90
    32768
280
     0
281
     1
  0
CLASS
  1
HATCH
  2
AcDbHatch
  3
AutoCAD 2000
 90
    32768
280
     0
281
     1
  0
CLASS
  1
XRECORD
  2
AcDbXrecord
  3
AutoCAD 2000
 90
    32768
280
     0
281
     0
  0
CLASS
  1
LONG_TRANSACTION
  2
AcDbLongTransaction
  3
AutoCAD 2000
 90
    32768
280
     0
281
     0
  0
CLASS
  1
LWPOLYLINE
  2
AcDbPolyline
  3
AutoCAD 2000
 90
    32768
280
     0
281
     1
  0
CLASS
  1
HATCH
  2
AcDbHatch
  3
AutoCAD 2000
 90
    32768
280
     0
281
     1
  0
CLASS
  1
XRECORD
  2
AcDbXrecord
  3
AutoCAD 2000
 90
    32768
280
     0
281
     0
  0
CLASS
  1
LONG_TRANSACTION
  2
AcDbLongTransaction
  3
AutoCAD 2000
 90
    32768
280
     0
281
     0
  0
CLASS
  1
LWPOLYLINE
  2
AcDbPolyline
  3
AutoCAD 2000
 90
    32768
280
     0
281
     1
  0
CLASS
  1
HATCH
  2
AcDbHatch
  3
AutoCAD 2000
 90
    32768
280
     0
281
     1
  0
CLASS
  1
XRECORD
  2
AcDbXrecord
  3
AutoCAD 2000
 90
    32768
280
     0
281
     0
  0
CLASS
  1
LONG_TRANSACTION
  2
AcDbLongTransaction
  3
AutoCAD 2000
 90
    32768
280
     0
281
     0
  0
CLASS
  1
LWPOLYLINE
  2
AcDbPolyline
  3
AutoCAD 2000
 90
    32768
280
     0
281
     1
  0
CLASS
  1
HATCH
  2
AcDbHatch
  3
AutoCAD 2000
 90
    32768
280
     0
281
     1
  0
CLASS
  1
XRECORD
  2
AcDbXrecord
  3
AutoCAD 2000
 90
    32768
280
     0
281
     0
  0
CLASS
  1
LONG_TRANSACTION
  2
AcDbLongTransaction
  3
AutoCAD 2000
 90
    32768
280
     0
281
     0
  0
CLASS
  1
LWPOLYLINE
  2
AcDbPolyline
  3
AutoCAD 2000
 90
    32768
280
     0
281
     1
  0
CLASS
  1
HATCH
  2
AcDbHatch
  3
AutoCAD 2000
 90
    32768
280
     0
281
     1
  0
CLASS
  1
XRECORD
  2
AcDbXrecord
  3
AutoCAD 2000
 90
    32768
280
     0
281
     0
  0
CLASS
  1
LONG_TRANSACTION
  2
AcDbLongTransaction
  3
AutoCAD 2000
 90
    32768
280
     0
281
     0
  0
CLASS
  1
LWPOLYLINE
  2
AcDbPolyline
  3
AutoCAD 2000
 90
    32768
280
     0
281
     1
  0
CLASS
  1
HATCH
  2
AcDbHatch
  3
AutoCAD 2000
 90
    32768
280
     0
281
     1
  0
CLASS
  1
XRECORD
  2
AcDbXrecord
  3
AutoCAD 2000
 90
    32768
280
     0
281
     0
  0
CLASS
  1
LONG_TRANSACTION
  2
AcDbLongTransaction
  3
AutoCAD 2000
 90
    32768
280
     0
281
     0
  0
CLASS
  1
LWPOLYLINE
  2
AcDbPolyline
  3
AutoCAD 2000
 90
    32768
280
     0
281
     1
  0
CLASS
  1
HATCH
  2
AcDbHatch
  3
AutoCAD 2000
 90
    32768
280
     0
281
     1
  0
CLASS
  1
XRECORD
  2
AcDbXrecord
  3
AutoCAD 2000
 90
    32768
280
     0
281
     0
  0
CLASS
  1
LONG_TRANSACTION
  2
AcDbLongTransaction
  3
AutoCAD 2000
 90
    32768
280
     0
281
     0
  0
CLASS
  1
LWPOLYLINE
  2
AcDbPolyline
  3
AutoCAD 2000
 90
    32768
280
     0
281
     1
  0
CLASS
  1
HATCH
  2
AcDbHatch
  3
AutoCAD 2000
 90
    32768
280
     0
281
     1
  0
CLASS
  1
XRECORD
  2
AcDbXrecord
  3
AutoCAD 2000
 90
    32768
280
     0
281
     0
  0
CLASS
  1
LONG_TRANSACTION
  2
AcDbLongTransaction
  3
AutoCAD 2000
 90
    32768
280
     0
281
     0
  0
CLASS
  1
LWPOLYLINE
  2
AcDbPolyline
  3
AutoCAD 2000
 90
    32768
280
     0
281
     1
  0
CLASS
  1
HATCH
  2
AcDbHatch
  3
AutoCAD 2000
 90
    32768
280
     0
281
     1
  0
CLASS
  1
XRECORD
  2
AcDbXrecord
  3
AutoCAD 2000
 90
    32768
280
     0
281
     0
  0
CLASS
  1
DICTIONARYVAR
  2
AcDbDictionaryVar
  3
AutoCAD 2000
 90
        0
280
     0
281
     0
  0
CLASS
  1
LONG_TRANSACTION
  2
AcDbLongTransaction
  3
AutoCAD 2000
 90
    32768
280
     0
281
     0
  0
CLASS
  1
LWPOLYLINE
  2
AcDbPolyline
  3
AutoCAD 2000
 90
    32768
280
     0
281
     1
  0
CLASS
  1
HATCH
  2
AcDbHatch
  3
AutoCAD 2000
 90
    32768
280
     0
281
     1
  0
CLASS
  1
XRECORD
  2
AcDbXrecord
  3
AutoCAD 2000
 90
    32768
280
     0
281
     0
  0
CLASS
  1
LONG_TRANSACTION
  2
AcDbLongTransaction
  3
AutoCAD 2000
 90
    32768
280
     0
281
     0
  0
CLASS
  1
LWPOLYLINE
  2
AcDbPolyline
  3
AutoCAD 2000
 90
    32768
280
     0
281
     1
  0
CLASS
  1
HATCH
  2
AcDbHatch
  3
AutoCAD 2000
 90
    32768
280
     0
281
     1
  0
CLASS
  1
XRECORD
  2
AcDbXrecord
  3
AutoCAD 2000
 90
    32768
280
     0
281
     0
  0
CLASS
  1
LONG_TRANSACTION
  2
AcDbLongTransaction
  3
AutoCAD 2000
 90
    32768
280
     0
281
     0
  0
CLASS
  1
LWPOLYLINE
  2
AcDbPolyline
  3
AutoCAD 2000
 90
    32768
280
     0
281
     1
  0
CLASS
  1
HATCH
  2
AcDbHatch
  3
AutoCAD 2000
 90
    32768
280
     0
281
     1
  0
CLASS
  1
XRECORD
  2
AcDbXrecord
  3
AutoCAD 2000
 90
    32768
280
     0
281
     0
  0
CLASS
  1
LONG_TRANSACTION
  2
AcDbLongTransaction
  3
AutoCAD 2000
 90
    32768
280
     0
281
     0
  0
CLASS
  1
LWPOLYLINE
  2
AcDbPolyline
  3
AutoCAD 2000
 90
    32768
280
     0
281
     1
  0
CLASS
  1
HATCH
  2
AcDbHatch
  3
AutoCAD 2000
 90
    32768
280
     0
281
     1
  0
CLASS
  1
XRECORD
  2
AcDbXrecord
  3
AutoCAD 2000
 90
    32768
280
     0
281
     0
  0
CLASS
  1
LONG_TRANSACTION
  2
AcDbLongTransaction
  3
AutoCAD 2000
 90
    32768
280
     0
281
     0
  0
CLASS
  1
LWPOLYLINE
  2
AcDbPolyline
  3
AutoCAD 2000
 90
    32768
280
     0
281
     1
  0
CLASS
  1
HATCH
  2
AcDbHatch
  3
AutoCAD 2000
 90
    32768
280
     0
281
     1
  0
CLASS
  1
XRECORD
  2
AcDbXrecord
  3
AutoCAD 2000
 90
    32768
280
     0
281
     0
  0
CLASS
  1
LONG_TRANSACTION
  2
AcDbLongTransaction
  3
AutoCAD 2000
 90
    32768
280
     0
281
     0
  0
CLASS
  1
LWPOLYLINE
  2
AcDbPolyline
  3
AutoCAD 2000
 90
    32768
280
     0
281
     1
  0
CLASS
  1
HATCH
  2
AcDbHatch
  3
AutoCAD 2000
 90
    32768
280
     0
281
     1
  0
CLASS
  1
XRECORD
  2
AcDbXrecord
  3
AutoCAD 2000
 90
    32768
280
     0
281
     0
  0
CLASS
  1
LONG_TRANSACTION
  2
AcDbLongTransaction
  3
AutoCAD 2000
 90
    32768
280
     0
281
     0
  0
CLASS
  1
LWPOLYLINE
  2
AcDbPolyline
  3
AutoCAD 2000
 90
    32768
280
     0
281
     1
  0
CLASS
  1
HATCH
  2
AcDbHatch
  3
AutoCAD 2000
 90
    32768
280
     0
281
     1
  0
CLASS
  1
XRECORD
  2
AcDbXrecord
  3
AutoCAD 2000
 90
    32768
280
     0
281
     0
  0
CLASS
  1
LONG_TRANSACTION
  2
AcDbLongTransaction
  3
AutoCAD 2000
 90
    32768
280
     0
281
     0
  0
CLASS
  1
LWPOLYLINE
  2
AcDbPolyline
  3
AutoCAD 2000
 90
    32768
280
     0
281
     1
  0
CLASS
  1
HATCH
  2
AcDbHatch
  3
AutoCAD 2000
 90
    32768
280
     0
281
     1
  0
CLASS
  1
XRECORD
  2
AcDbXrecord
  3
AutoCAD 2000
 90
    32768
280
     0
281
     0
  0
CLASS
  1
LONG_TRANSACTION
  2
AcDbLongTransaction
  3
AutoCAD 2000
 90
    32768
280
     0
281
     0
  0
CLASS
  1
LWPOLYLINE
  2
AcDbPolyline
  3
AutoCAD 2000
 90
    32768
280
     0
281
     1
  0
CLASS
  1
HATCH
  2
AcDbHatch
  3
AutoCAD 2000
 90
    32768
280
     0
281
     1
  0
CLASS
  1
XRECORD
  2
AcDbXrecord
  3
AutoCAD 2000
 90
    32768
280
     0
281
     0
  0
CLASS
  1
LONG_TRANSACTION
  2
AcDbLongTransaction
  3
AutoCAD 2000
 90
    32768
280
     0
281
     0
  0
CLASS
  1
LWPOLYLINE
  2
AcDbPolyline
  3
AutoCAD 2000
 90
    32768
280
     0
281
     1
  0
CLASS
  1
HATCH
  2
AcDbHatch
  3
AutoCAD 2000
 90
    32768
280
     0
281
     1
  0
CLASS
  1
XRECORD
  2
AcDbXrecord
  3
AutoCAD 2000
 90
    32768
280
     0
281
     0
  0
CLASS
  1
LONG_TRANSACTION
  2
AcDbLongTransaction
  3
AutoCAD 2000
 90
    32768
280
     0
281
     0
  0
CLASS
  1
LWPOLYLINE
  2
AcDbPolyline
  3
AutoCAD 2000
 90
    32768
280
     0
281
     1
  0
CLASS
  1
HATCH
  2
AcDbHatch
  3
AutoCAD 2000
 90
    32768
280
     0
281
     1
  0
CLASS
  1
XRECORD
  2
AcDbXrecord
  3
AutoCAD 2000
 90
    32768
280
     0
281
     0
  0
CLASS
  1
LONG_TRANSACTION
  2
AcDbLongTransaction
  3
AutoCAD 2000
 90
    32768
280
     0
281
     0
  0
CLASS
  1
LWPOLYLINE
  2
AcDbPolyline
  3
AutoCAD 2000
 90
    32768
280
     0
281
     1
  0
CLASS
  1
HATCH
  2
AcDbHatch
  3
AutoCAD 2000
 90
    32768
280
     0
281
     1
  0
CLASS
  1
XRECORD
  2
AcDbXrecord
  3
AutoCAD 2000
 90
    32768
280
     0
281
     0
  0
CLASS
  1
LONG_TRANSACTION
  2
AcDbLongTransaction
  3
AutoCAD 2000
 90
    32768
280
     0
281
     0
  0
CLASS
  1
LWPOLYLINE
  2
AcDbPolyline
  3
AutoCAD 2000
 90
    32768
280
     0
281
     1
  0
CLASS
  1
HATCH
  2
AcDbHatch
  3
AutoCAD 2000
 90
    32768
280
     0
281
     1
  0
CLASS
  1
XRECORD
  2
AcDbXrecord
  3
AutoCAD 2000
 90
    32768
280
     0
281
     0
  0
CLASS
  1
LONG_TRANSACTION
  2
AcDbLongTransaction
  3
AutoCAD 2000
 90
    32768
280
     0
281
     0
  0
CLASS
  1
LWPOLYLINE
  2
AcDbPolyline
  3
AutoCAD 2000
 90
    32768
280
     0
281
     1
  0
CLASS
  1
HATCH
  2
AcDbHatch
  3
AutoCAD 2000
 90
    32768
280
     0
281
     1
  0
CLASS
  1
XRECORD
  2
AcDbXrecord
  3
AutoCAD 2000
 90
    32768
280
     0
281
     0
  0
CLASS
  1
LONG_TRANSACTION
  2
AcDbLongTransaction
  3
AutoCAD 2000
 90
    32768
280
     0
281
     0
  0
CLASS
  1
LWPOLYLINE
  2
AcDbPolyline
  3
AutoCAD 2000
 90
    32768
280
     0
281
     1
  0
CLASS
  1
HATCH
  2
AcDbHatch
  3
AutoCAD 2000
 90
    32768
280
     0
281
     1
  0
CLASS
  1
XRECORD
  2
AcDbXrecord
  3
AutoCAD 2000
 90
    32768
280
     0
281
     0
  0
CLASS
  1
LONG_TRANSACTION
  2
AcDbLongTransaction
  3
AutoCAD 2000
 90
    32768
280
     0
281
     0
  0
CLASS
  1
LWPOLYLINE
  2
AcDbPolyline
  3
AutoCAD 2000
 90
    32768
280
     0
281
     1
  0
CLASS
  1
HATCH
  2
AcDbHatch
  3
AutoCAD 2000
 90
    32768
280
     0
281
     1
  0
CLASS
  1
XRECORD
  2
AcDbXrecord
  3
AutoCAD 2000
 90
    32768
280
     0
281
     0
  0
CLASS
  1
LONG_TRANSACTION
  2
AcDbLongTransaction
  3
AutoCAD 2000
 90
    32768
280
     0
281
     0
  0
CLASS
  1
LWPOLYLINE
  2
AcDbPolyline
  3
AutoCAD 2000
 90
    32768
280
     0
281
     1
  0
CLASS
  1
HATCH
  2
AcDbHatch
  3
AutoCAD 2000
 90
    32768
280
     0
281
     1
  0
CLASS
  1
XRECORD
  2
AcDbXrecord
  3
AutoCAD 2000
 90
    32768
280
     0
281
     0
  0
ENDSEC
  0
SECTION
  2
TABLES
  0
TABLE
  2
VPORT
  5
8
330
0
100
AcDbSymbolTable
 70
     3
  0
VPORT
  5
E16E
330
8
100
AcDbSymbolTableRecord
100
AcDbViewportTableRecord
  2
*Active
 70
     0
 10
0.0
 20
0.0
 11
1.0
 21
1.0
 12
297.0371836990733
 22
-27.39726496122898
 13
0.0
 23
0.0
 14
1.0
 24
1.0
 15
10.0
 25
10.0
 16
0.0
 26
0.0
 36
1.0
 17
0.0
 27
0.0
 37
0.0
 40
1045.424192234528
 41
1.566970091027308
 42
50.0
 43
0.0
 44
0.0
 50
0.0
 51
0.0
 71
     0
 72
   100
 73
     1
 74
     1
 75
     0
 76
     0
 77
     0
 78
     0
281
     0
 65
     1
110
0.0
120
0.0
130
0.0
111
1.0
121
0.0
131
0.0
112
0.0
122
1.0
132
0.0
 79
     0
146
0.0
  0
ENDTAB
  0
TABLE
  2
LTYPE
  5
5
330
0
100
AcDbSymbolTable
 70
     6
  0
LTYPE
  5
13
330
5
100
AcDbSymbolTableRecord
100
AcDbLinetypeTableRecord
  2
BYBLOCK
 70
     0
  3

 72
    65
 73
     0
 40
0.0
  0
LTYPE
  5
14
330
5
100
AcDbSymbolTableRecord
100
AcDbLinetypeTableRecord
  2
BYLAYER
 70
     0
  3

 72
    65
 73
     0
 40
0.0
  0
LTYPE
  5
15
330
5
100
AcDbSymbolTableRecord
100
AcDbLinetypeTableRecord
  2
CONTINUOUS
 70
     0
  3
Solid line
 72
    65
 73
     0
 40
0.0
  0
LTYPE
  5
22
330
5
100
AcDbSymbolTableRecord
100
AcDbLinetypeTableRecord
  2
CONTINOUS
 70
     0
  3
Solid line
 72
    65
 73
     0
 40
0.0
  0
LTYPE
  5
23
330
5
100
AcDbSymbolTableRecord
100
AcDbLinetypeTableRecord
  2
DASHED
 70
     0
  3
__ __ __ __ __ __ __ __ __ __ __ __ __ __ __
 72
    65
 73
     2
 40
0.75
 49
0.5
 74
     0
 49
-0.25
 74
     0
  0
LTYPE
  5
24
330
5
100
AcDbSymbolTableRecord
100
AcDbLinetypeTableRecord
  2
DASHDOT
 70
     0
  3
__ . __ . __ . __ . __ . __ . __ . __ . __ . __
 72
    65
 73
     4
 40
1.0
 49
0.5
 74
     0
 49
-0.25
 74
     0
 49
0.0
 74
     0
 49
-0.25
 74
     0
  0
LTYPE
  5
4C47
330
5
100
AcDbSymbolTableRecord
100
AcDbLinetypeTableRecord
  2
DIVIDE
 70
     0
  3
Divide ____ . . ____ . . ____ . . ____ . . ____
 72
    65
 73
     6
 40
1.25
 49
0.5
 74
     0
 49
-0.25
 74
     0
 49
0.0
 74
     0
 49
-0.25
 74
     0
 49
0.0
 74
     0
 49
-0.25
 74
     0
  0
LTYPE
  5
6265
330
5
100
AcDbSymbolTableRecord
100
AcDbLinetypeTableRecord
  2
CENTER
 70
     0
  3
Center ____ _ ____ _ ____ _ ____ _ ____ _ ____
 72
    65
 73
     4
 40
50.8
 49
31.75
 74
     0
 49
-6.349999999999997
 74
     0
 49
6.349999999999997
 74
     0
 49
-6.349999999999997
 74
     0
  0
ENDTAB
  0
TABLE
  2
LAYER
  5
2
330
0
100
AcDbSymbolTable
 70
    12
  0
LAYER
  5
10
330
2
100
AcDbSymbolTableRecord
100
AcDbLayerTableRecord
  2
0
 70
     0
 62
     7
  6
CONTINOUS
370
    -3
390
F
  0
LAYER
  5
2F
330
2
100
AcDbSymbolTableRecord
100
AcDbLayerTableRecord
  2
10
 70
     0
 62
     4
  6
CONTINOUS
370
    -3
390
F
  0
LAYER
  5
31
330
2
100
AcDbSymbolTableRecord
100
AcDbLayerTableRecord
  2
12
 70
     0
 62
     3
  6
CONTINOUS
370
    -3
390
F
  0
LAYER
  5
35
330
2
100
AcDbSymbolTableRecord
100
AcDbLayerTableRecord
  2
16
 70
     4
 62
     6
  6
DASHDOT
370
    -3
390
F
  0
LAYER
  5
38
330
2
100
AcDbSymbolTableRecord
100
AcDbLayerTableRecord
  2
19
 70
     0
 62
     7
  6
CONTINOUS
370
    -3
390
F
  0
LAYER
  5
3D
330
2
100
AcDbSymbolTableRecord
100
AcDbLayerTableRecord
  2
24
 70
     0
 62
     2
  6
CONTINOUS
370
    -3
390
F
  0
LAYER
  5
3A2
330
2
100
AcDbSymbolTableRecord
100
AcDbLayerTableRecord
  2
30
 70
     0
 62
     9
  6
CONTINUOUS
370
    -3
390
F
  0
LAYER
  5
3A4
330
2
100
AcDbSymbolTableRecord
100
AcDbLayerTableRecord
  2
DEFPOINTS
 70
     0
 62
     7
  6
CONTINUOUS
290
     0
370
    -3
390
F
  0
LAYER
  5
3BBA
330
2
100
AcDbSymbolTableRecord
100
AcDbLayerTableRecord
  2
18
 70
     0
 62
     5
  6
DIVIDE
370
    -3
390
F
  0
LAYER
  5
7837
330
2
100
AcDbSymbolTableRecord
100
AcDbLayerTableRecord
  2
17
 70
     0
 62
     2
  6
DASHDOT
370
    -3
390
F
  0
LAYER
  5
7BC8
330
2
100
AcDbSymbolTableRecord
100
AcDbLayerTableRecord
  2
1
 70
     0
 62
     7
  6
CONTINUOUS
370
    -3
390
F
  0
LAYER
  5
8A0F
330
2
100
AcDbSymbolTableRecord
100
AcDbLayerTableRecord
  2
21
 70
     0
 62
     7
  6
CONTINUOUS
370
    -3
390
F
  0
ENDTAB
  0
TABLE
  2
STYLE
  5
3
330
0
100
AcDbSymbolTable
 70
     2
  0
STYLE
  5
11
330
3
100
AcDbSymbolTableRecord
100
AcDbTextStyleTableRecord
  2
STANDARD
 70
     0
 40
0.0
 41
1.0
 50
0.0
 71
     0
 42
2.0
  3
txt.shx
  4
bigfont.shx
  0
STYLE
  5
42
330
3
100
AcDbSymbolTableRecord
100
AcDbTextStyleTableRecord
  2
STANDARD1
 70
     0
 40
0.0
 41
1.0
 50
0.0
 71
     0
 42
5.0
  3
MONOTXT
  4
BIGFONT
  0
ENDTAB
  0
TABLE
  2
VIEW
  5
6
330
0
100
AcDbSymbolTable
 70
     3
  0
VIEW
  5
230C
330
6
100
AcDbSymbolTableRecord
100
AcDbViewTableRecord
  2
OLE1
 70
     0
 40
148.912488
 10
429.497628
 20
2.560627
 41
103.145806
 11
0.0
 21
0.0
 31
1.0
 12
0.0
 22
0.0
 32
0.0
 42
50.0
 43
0.0
 44
0.0
 50
0.0
 71
     0
281
     0
 72
     0
  0
VIEW
  5
230E
330
6
100
AcDbSymbolTableRecord
100
AcDbViewTableRecord
  2
OLE2
 70
     0
 40
170.778692
 10
322.66497
 20
-5.978304
 41
102.467215
 11
0.0
 21
0.0
 31
1.0
 12
0.0
 22
0.0
 32
0.0
 42
50.0
 43
0.0
 44
0.0
 50
0.0
 71
     0
281
     0
 72
     0
  0
VIEW
  5
23AA
330
6
100
AcDbSymbolTableRecord
100
AcDbViewTableRecord
  2
OLE3
 70
     0
 40
591.7897389999998
 10
84.79698199999999
 20
-46.09335999999998
 41
388.792096
 11
0.0
 21
0.0
 31
1.0
 12
0.0
 22
0.0
 32
0.0
 42
50.0
 43
0.0
 44
0.0
 50
0.0
 71
     0
281
     0
 72
     0
  0
ENDTAB
  0
TABLE
  2
UCS
  5
7
330
0
100
AcDbSymbolTable
 70
     0
  0
ENDTAB
  0
TABLE
  2
APPID
  5
9
330
0
100
AcDbSymbolTable
 70
     2
  0
APPID
  5
12
330
9
100
AcDbSymbolTableRecord
100
AcDbRegAppTableRecord
  2
ACAD
 70
     0
  0
APPID
  5
ECD
330
9
100
AcDbSymbolTableRecord
100
AcDbRegAppTableRecord
  2
CONTENTBLOCKICON
 70
     0
  0
ENDTAB
  0
TABLE
  2
DIMSTYLE
  5
A
330
0
100
AcDbSymbolTable
 70
     2
100
AcDbDimStyleTable
 71
     2
340
DEA8
340
175
  0
DIMSTYLE
105
175
330
A
100
AcDbSymbolTableRecord
100
AcDbDimStyleTableRecord
  2
STANDARD
 70
     0
 41
2.0
 42
1.0
 43
0.5
 44
0.5
 73
     0
 77
     3
 78
    12
140
6.0
147
1.0
271
     1
272
     1
340
11
341
3B2
342
3B2
  0
DIMSTYLE
105
DEA8
102
{ACAD_REACTORS
330
DD08
330
DCFC
330
D810
330
D80F
330
D80E
330
D80D
330
D80C
330
C966
330
C95A
330
C957
330
C935
330
C92E
330
C915
330
C914
330
C912
330
C90B
330
C90A
330
C909
330
C908
330
C905
330
C8FB
330
C8FA
330
C8F9
330
C8F7
330
C3FF
330
BB43
330
BAE5
330
BAE4
330
BAE1
330
BABF
330
BABE
330
B8C4
330
B8C3
330
B8C1
330
B8AB
330
B8AA
330
B8A9
330
B8A7
330
E08D
330
E0E3
102
}
330
A
100
AcDbSymbolTableRecord
100
AcDbDimStyleTableRecord
  2
STANDARD1
 70
     0
 41
2.0
 42
3.0
 43
0.5
 44
0.5
 73
     0
 77
     3
 78
    12
140
6.0
147
3.0
271
     1
272
     1
289
     2
340
11
341
3B2
342
3B2
  0
ENDTAB
  0
TABLE
  2
BLOCK_RECORD
  5
1
330
0
100
AcDbSymbolTable
 70
    43
  0
BLOCK_RECORD
  5
1E
102
{ACAD_XDICTIONARY
360
178
102
}
330
1
100
AcDbSymbolTableRecord
100
AcDbBlockTableRecord
  2
*MODEL_SPACE
340
9913
  0
BLOCK_RECORD
  5
1A
102
{ACAD_XDICTIONARY
360
17A
102
}
330
1
100
AcDbSymbolTableRecord
100
AcDbBlockTableRecord
  2
*PAPER_SPACE
340
9914
  0
BLOCK_RECORD
  5
3B2
330
1
100
AcDbSymbolTableRecord
100
AcDbBlockTableRecord
  2
_OPEN
340
0
102
{BLKREFS
331
D973
331
D974
331
D97C
331
D97D
331
D985
331
D986
331
D98E
331
D98F
331
D997
331
D998
331
D9A0
331
D9A1
331
D9BB
331
D9BC
331
D9D5
331
D9D6
331
DA2D
331
DA2E
331
DA36
331
DA37
331
DA3F
331
DA40
331
DA5C
331
DA5D
331
DA65
331
DA6D
331
DA6E
331
DA77
331
DA78
331
DA80
331
DA81
331
DA89
331
DA8A
331
DA92
331
DA93
331
DA9B
331
DA9C
331
DAA4
331
DAA5
331
DAAE
331
DAAF
331
DAC0
331
DAC1
331
DAD3
331
DAD4
331
DAE5
331
DAE6
331
DAF0
331
DAF1
331
DC13
331
DC14
331
DC1C
331
DC1D
331
DC2F
331
DC30
331
DC42
331
DC43
331
DC54
331
DC55
331
DC5D
331
DC5E
331
DC66
331
DC67
331
DC6F
331
DC70
331
DC78
331
DC79
331
DC89
331
DC91
331
DCF6
331
DCF7
331
DD01
331
DD21
331
DD22
331
DD2A
331
DD2B
331
DD3A
331
DD3B
331
DD43
331
DD4B
331
DD4C
331
DD54
331
DD55
331
DD5D
331
DD5E
331
DD66
331
DD67
331
DD6F
331
DD70
331
DD78
331
DD79
331
DD81
331
DD82
331
DD8A
331
DD8B
331
DD93
331
DD94
331
DD9C
331
DDA4
331
DDA5
331
DDAD
331
DDAE
331
DDB6
331
DDB7
331
DDBF
331
DDC0
331
DDC8
331
DDC9
331
DDD1
331
DDD2
331
DDDA
331
DDDB
331
DDE3
331
DDE4
331
DDEC
331
DDED
331
DDF5
331
DDFD
331
DDFE
331
DE06
331
DE07
331
DE0F
331
DE10
331
DE19
331
DE1A
331
DE22
331
DE23
331
DE2B
331
DE33
331
DE34
331
DE3D
331
DE3E
331
DE46
331
DE47
331
DE4F
331
DE50
331
DE58
331
DE59
331
DE61
331
DE62
331
DE6A
331
DE6B
331
DE74
331
DE75
331
DE7D
331
DE7E
331
DE86
331
DE87
331
DE90
331
DE91
331
DE99
331
DE9A
331
DEA2
331
DEA3
331
DEB1
331
DEB2
331
DEBA
331
DEBB
331
DEC2
331
DEC3
331
DECC
331
DECD
331
DED5
331
DED6
331
DEDE
331
DEDF
331
DEE7
331
DEE8
331
DEF0
331
DEF1
331
DEF9
331
DEFA
331
DF02
331
DF03
331
DF0B
331
DF0C
331
DF13
331
DF1C
331
DF1D
331
DF25
331
DF26
331
DF2E
331
DF2F
331
DF37
331
DF38
331
DF40
331
DF41
331
DF49
331
DF4A
331
DF52
331
DF53
331
DF5B
331
DF5C
331
DF64
331
DF65
331
DF6D
331
DF6E
331
DF75
331
DF76
331
DF7E
331
DF7F
331
DF87
331
DF88
331
DF91
331
DF92
331
DF9A
331
DF9B
331
DFA3
331
DFA4
331
DFAB
331
DFAC
331
DFB4
331
DFB5
331
DFBD
331
DFBE
331
DFC6
331
DFC7
331
DFCF
331
DFD0
331
DFD8
331
DFD9
331
DFE1
331
DFE2
331
DFEB
331
DFEC
331
DFF4
331
DFF5
331
DFFD
331
DFFE
331
E007
331
E008
331
E010
331
E011
331
E01B
331
E01C
331
E026
331
E027
331
E030
331
E031
331
E03B
331
E03C
331
E046
331
E047
331
E051
331
E052
331
E05A
331
E05B
331
E063
331
E064
331
E06C
331
E06D
331
E075
331
E076
331
E07E
331
E07F
331
E087
331
E088
331
E094
331
E095
331
E09F
331
E0A0
331
E0D4
331
E0DC
331
E0E7
331
E0F1
331
E0F9
102
}
  0
BLOCK_RECORD
  5
BB5B
330
1
100
AcDbSymbolTableRecord
100
AcDbBlockTableRecord
  2
*D1
340
0
  0
BLOCK_RECORD
  5
BB72
330
1
100
AcDbSymbolTableRecord
100
AcDbBlockTableRecord
  2
*D2
340
0
  0
BLOCK_RECORD
  5
BB7F
330
1
100
AcDbSymbolTableRecord
100
AcDbBlockTableRecord
  2
*D3
340
0
  0
BLOCK_RECORD
  5
BB8B
330
1
100
AcDbSymbolTableRecord
100
AcDbBlockTableRecord
  2
*D4
340
0
  0
BLOCK_RECORD
  5
BB97
330
1
100
AcDbSymbolTableRecord
100
AcDbBlockTableRecord
  2
*D5
340
0
  0
BLOCK_RECORD
  5
BBB0
330
1
100
AcDbSymbolTableRecord
100
AcDbBlockTableRecord
  2
*D6
340
0
  0
BLOCK_RECORD
  5
BBBC
330
1
100
AcDbSymbolTableRecord
100
AcDbBlockTableRecord
  2
*D7
340
0
  0
BLOCK_RECORD
  5
BCA2
330
1
100
AcDbSymbolTableRecord
100
AcDbBlockTableRecord
  2
*D8
340
0
  0
BLOCK_RECORD
  5
BDB5
330
1
100
AcDbSymbolTableRecord
100
AcDbBlockTableRecord
  2
*D9
340
0
  0
BLOCK_RECORD
  5
BDC0
330
1
100
AcDbSymbolTableRecord
100
AcDbBlockTableRecord
  2
*D10
340
0
  0
BLOCK_RECORD
  5
BDE5
330
1
100
AcDbSymbolTableRecord
100
AcDbBlockTableRecord
  2
*D11
340
0
  0
BLOCK_RECORD
  5
BDF1
330
1
100
AcDbSymbolTableRecord
100
AcDbBlockTableRecord
  2
*D12
340
0
  0
BLOCK_RECORD
  5
BDFD
330
1
100
AcDbSymbolTableRecord
100
AcDbBlockTableRecord
  2
*D13
340
0
  0
BLOCK_RECORD
  5
C400
330
1
100
AcDbSymbolTableRecord
100
AcDbBlockTableRecord
  2
*D14
340
0
  0
BLOCK_RECORD
  5
C980
330
1
100
AcDbSymbolTableRecord
100
AcDbBlockTableRecord
  2
*D15
340
0
  0
BLOCK_RECORD
  5
C99A
330
1
100
AcDbSymbolTableRecord
100
AcDbBlockTableRecord
  2
*D16
340
0
  0
BLOCK_RECORD
  5
C9A6
330
1
100
AcDbSymbolTableRecord
100
AcDbBlockTableRecord
  2
*D17
340
0
  0
BLOCK_RECORD
  5
C9B2
330
1
100
AcDbSymbolTableRecord
100
AcDbBlockTableRecord
  2
*D18
340
0
  0
BLOCK_RECORD
  5
C9BE
330
1
100
AcDbSymbolTableRecord
100
AcDbBlockTableRecord
  2
*D19
340
0
  0
BLOCK_RECORD
  5
C9C9
330
1
100
AcDbSymbolTableRecord
100
AcDbBlockTableRecord
  2
*D20
340
0
  0
BLOCK_RECORD
  5
C9D5
330
1
100
AcDbSymbolTableRecord
100
AcDbBlockTableRecord
  2
*D21
340
0
  0
BLOCK_RECORD
  5
C9E1
330
1
100
AcDbSymbolTableRecord
100
AcDbBlockTableRecord
  2
*D22
340
0
  0
BLOCK_RECORD
  5
C9ED
330
1
100
AcDbSymbolTableRecord
100
AcDbBlockTableRecord
  2
*D23
340
0
  0
BLOCK_RECORD
  5
C9F9
330
1
100
AcDbSymbolTableRecord
100
AcDbBlockTableRecord
  2
*D24
340
0
  0
BLOCK_RECORD
  5
CA05
330
1
100
AcDbSymbolTableRecord
100
AcDbBlockTableRecord
  2
*D25
340
0
  0
BLOCK_RECORD
  5
CA11
330
1
100
AcDbSymbolTableRecord
100
AcDbBlockTableRecord
  2
*D26
340
0
  0
BLOCK_RECORD
  5
CA28
330
1
100
AcDbSymbolTableRecord
100
AcDbBlockTableRecord
  2
*D27
340
0
  0
BLOCK_RECORD
  5
CA34
330
1
100
AcDbSymbolTableRecord
100
AcDbBlockTableRecord
  2
*D28
340
0
  0
BLOCK_RECORD
  5
CA40
330
1
100
AcDbSymbolTableRecord
100
AcDbBlockTableRecord
  2
*D29
340
0
  0
BLOCK_RECORD
  5
CA4B
330
1
100
AcDbSymbolTableRecord
100
AcDbBlockTableRecord
  2
*D30
340
0
  0
BLOCK_RECORD
  5
CA57
330
1
100
AcDbSymbolTableRecord
100
AcDbBlockTableRecord
  2
*D31
340
0
  0
BLOCK_RECORD
  5
CA63
330
1
100
AcDbSymbolTableRecord
100
AcDbBlockTableRecord
  2
*D32
340
0
  0
BLOCK_RECORD
  5
CA6F
330
1
100
AcDbSymbolTableRecord
100
AcDbBlockTableRecord
  2
*D33
340
0
  0
BLOCK_RECORD
  5
D811
330
1
100
AcDbSymbolTableRecord
100
AcDbBlockTableRecord
  2
*D34
340
0
  0
BLOCK_RECORD
  5
D81D
330
1
100
AcDbSymbolTableRecord
100
AcDbBlockTableRecord
  2
*D35
340
0
  0
BLOCK_RECORD
  5
D829
330
1
100
AcDbSymbolTableRecord
100
AcDbBlockTableRecord
  2
*D36
340
0
  0
BLOCK_RECORD
  5
D836
330
1
100
AcDbSymbolTableRecord
100
AcDbBlockTableRecord
  2
*D37
340
0
  0
BLOCK_RECORD
  5
D842
330
1
100
AcDbSymbolTableRecord
100
AcDbBlockTableRecord
  2
*D38
340
0
  0
BLOCK_RECORD
  5
DCFD
330
1
100
AcDbSymbolTableRecord
100
AcDbBlockTableRecord
  2
*D39
340
0
  0
BLOCK_RECORD
  5
DD09
330
1
100
AcDbSymbolTableRecord
100
AcDbBlockTableRecord
  2
*D40
340
0
  0
BLOCK_RECORD
  5
E08E
330
1
100
AcDbSymbolTableRecord
100
AcDbBlockTableRecord
  2
*D41
340
0
  0
BLOCK_RECORD
  5
E0E4
330
1
100
AcDbSymbolTableRecord
100
AcDbBlockTableRecord
  2
*D42
340
0
  0
ENDTAB
  0
ENDSEC
  0
SECTION
  2
BLOCKS
  0
BLOCK
  5
1F
330
1E
100
AcDbEntity
  8
0
100
AcDbBlockBegin
  2
*MODEL_SPACE
 70
     0
 10
0.0
 20
0.0
 30
0.0
  3
*MODEL_SPACE
  1

  0
ENDBLK
  5
20
330
1E
100
AcDbEntity
  8
0
100
AcDbBlockEnd
  0
BLOCK
  5
1B
330
1A
100
AcDbEntity
 67
     1
  8
0
100
AcDbBlockBegin
  2
*PAPER_SPACE
 70
     0
 10
0.0
 20
0.0
 30
0.0
  3
*PAPER_SPACE
  1

  0
ENDBLK
  5
1C
330
1A
100
AcDbEntity
 67
     1
  8
0
100
AcDbBlockEnd
  0
BLOCK
  5
3B6
330
3B2
100
AcDbEntity
  8
0
100
AcDbBlockBegin
  2
_OPEN
 70
     0
 10
0.0
 20
0.0
 30
0.0
  3
_OPEN
  1

  0
LINE
  5
3B3
330
3B2
100
AcDbEntity
  8
30
  6
Continuous
 62
     0
100
AcDbLine
 10
-1.0
 20
0.166667
 30
0.0
 11
0.0
 21
0.0
 31
0.0
  0
LINE
  5
3B4
330
3B2
100
AcDbEntity
  8
30
  6
Continuous
 62
     0
100
AcDbLine
 10
-1.0
 20
-0.166667
 30
0.0
 11
0.0
 21
0.0
 31
0.0
  0
LINE
  5
3B5
330
3B2
100
AcDbEntity
  8
30
  6
Continuous
 62
     0
100
AcDbLine
 10
0.0
 20
0.0
 30
0.0
 11
-1.0
 21
0.0
 31
0.0
  0
ENDBLK
  5
3B7
330
3B2
100
AcDbEntity
  8
0
100
AcDbBlockEnd
  0
BLOCK
  5
BB64
330
BB5B
100
AcDbEntity
  8
0
100
AcDbBlockBegin
  2
*D1
 70
     1
 10
0.0
 20
0.0
 30
0.0
  3
*D1
  1

  0
LINE
  5
E00D
330
BB5B
100
AcDbEntity
  8
30
  6
Continuous
 62
     0
370
    -2
100
AcDbLine
 10
356.0
 20
-47.99999999999993
 30
0.0
 11
356.0
 21
-209.5
 31
0.0
  0
LINE
  5
E00E
330
BB5B
100
AcDbEntity
  8
30
  6
Continuous
 62
     0
370
    -2
100
AcDbLine
 10
463.0
 20
138.0
 30
0.0
 11
463.0
 21
-209.5
 31
0.0
  0
LINE
  5
E00F
330
BB5B
100
AcDbEntity
  8
30
  6
Continuous
 62
     0
370
    -2
100
AcDbLine
 10
358.0
 20
-209.0
 30
0.0
 11
461.0
 21
-209.0
 31
0.0
  0
INSERT
  5
E010
330
BB5B
100
AcDbEntity
  8
30
  6
Continuous
 62
     0
370
    -2
100
AcDbBlockReference
  2
_OPEN
 10
356.0
 20
-209.0
 30
0.0
 41
2.0
 42
2.0
 43
2.0
 50
180.0
  0
INSERT
  5
E011
330
BB5B
100
AcDbEntity
  8
30
  6
Continuous
 62
     0
370
    -2
100
AcDbBlockReference
  2
_OPEN
 10
463.0
 20
-209.0
 30
0.0
 41
2.0
 42
2.0
 43
2.0
  0
MTEXT
  5
E012
330
BB5B
100
AcDbEntity
  8
30
  6
Continuous
 62
     0
100
AcDbMText
 10
409.4999999999997
 20
-203.0
 30
0.0
 40
6.0
 41
0.0
 71
     5
 72
     1
  1
\A1; 107 
 73
     1
 44
1.0
  0
POINT
  5
E013
330
BB5B
100
AcDbEntity
  8
DEFPOINTS
  6
Continuous
 62
     0
100
AcDbPoint
 10
356.0
 20
-44.99999999999993
 30
0.0
  0
POINT
  5
E014
330
BB5B
100
AcDbEntity
  8
DEFPOINTS
  6
Continuous
 62
     0
100
AcDbPoint
 10
463.0
 20
141.0
 30
0.0
  0
POINT
  5
E015
330
BB5B
100
AcDbEntity
  8
DEFPOINTS
  6
Continuous
 62
     0
100
AcDbPoint
 10
463.0
 20
-209.0
 30
0.0
  0
ENDBLK
  5
BB65
330
BB5B
100
AcDbEntity
  8
0
100
AcDbBlockEnd
  0
BLOCK
  5
BB7D
330
BB72
100
AcDbEntity
  8
0
100
AcDbBlockBegin
  2
*D2
 70
     1
 10
0.0
 20
0.0
 30
0.0
  3
*D2
  1

  0
LINE
  5
E021
330
BB72
100
AcDbEntity
  8
30
  6
Continuous
 62
     0
370
    -2
100
AcDbLine
 10
352.0
 20
-3.499999999999943
 30
0.0
 11
352.0
 21
-209.5
 31
0.0
  0
LINE
  5
E022
330
BB72
100
AcDbEntity
  8
30
  6
Continuous
 62
     0
370
    -2
100
AcDbLine
 10
356.0
 20
-52.99999999999993
 30
0.0
 11
356.0
 21
-209.5
 31
0.0
  0
LINE
  5
E023
330
BB72
100
AcDbEntity
  8
30
  6
Continuous
 62
     0
370
    -2
100
AcDbLine
 10
358.0
 20
-209.0
 30
0.0
 11
360.0
 21
-209.0
 31
0.0
  0
LINE
  5
E024
330
BB72
100
AcDbEntity
  8
30
  6
Continuous
 62
     0
370
    -2
100
AcDbLine
 10
350.0
 20
-209.0
 30
0.0
 11
334.3999999999998
 21
-209.0
 31
0.0
  0
LINE
  5
E025
330
BB72
100
AcDbEntity
  8
30
  6
Continuous
 62
     0
370
    -2
100
AcDbLine
 10
356.0
 20
-209.0
 30
0.0
 11
352.0
 21
-209.0
 31
0.0
  0
INSERT
  5
E026
330
BB72
100
AcDbEntity
  8
30
  6
Continuous
 62
     0
370
    -2
100
AcDbBlockReference
  2
_OPEN
 10
356.0
 20
-209.0
 30
0.0
 41
2.0
 42
2.0
 43
2.0
 50
180.0
  0
INSERT
  5
E027
330
BB72
100
AcDbEntity
  8
30
  6
Continuous
 62
     0
370
    -2
100
AcDbBlockReference
  2
_OPEN
 10
352.0
 20
-209.0
 30
0.0
 41
2.0
 42
2.0
 43
2.0
  0
MTEXT
  5
E028
330
BB72
100
AcDbEntity
  8
30
  6
Continuous
 62
     0
100
AcDbMText
 10
341.1999999999999
 20
-203.0
 30
0.0
 40
6.0
 41
0.0
 71
     5
 72
     1
  1
\A1; 4 
 73
     1
 44
1.0
  0
POINT
  5
E029
330
BB72
100
AcDbEntity
  8
DEFPOINTS
  6
Continuous
 62
     0
100
AcDbPoint
 10
352.0
 20
-0.4999999999999434
 30
0.0
  0
POINT
  5
E02A
330
BB72
100
AcDbEntity
  8
DEFPOINTS
  6
Continuous
 62
     0
100
AcDbPoint
 10
356.0
 20
-49.99999999999993
 30
0.0
  0
POINT
  5
E02B
330
BB72
100
AcDbEntity
  8
DEFPOINTS
  6
Continuous
 62
     0
100
AcDbPoint
 10
356.0
 20
-209.0
 30
0.0
  0
ENDBLK
  5
BB7E
330
BB72
100
AcDbEntity
  8
0
100
AcDbBlockEnd
  0
BLOCK
  5
BB89
330
BB7F
100
AcDbEntity
  8
0
100
AcDbBlockBegin
  2
*D3
 70
     1
 10
0.0
 20
0.0
 30
0.0
  3
*D3
  1

  0
LINE
  5
DFFA
330
BB7F
100
AcDbEntity
  8
30
  6
Continuous
 62
     0
370
    -2
100
AcDbLine
 10
318.0
 20
-2.999999999999943
 30
0.0
 11
318.0
 21
-231.5958749999998
 31
0.0
  0
LINE
  5
DFFB
330
BB7F
100
AcDbEntity
  8
30
  6
Continuous
 62
     0
370
    -2
100
AcDbLine
 10
463.0
 20
-189.9999999999999
 30
0.0
 11
463.0
 21
-231.5958749999998
 31
0.0
  0
LINE
  5
DFFC
330
BB7F
100
AcDbEntity
  8
30
  6
Continuous
 62
     0
370
    -2
100
AcDbLine
 10
320.0
 20
-231.0958749999997
 30
0.0
 11
461.0
 21
-231.0958749999997
 31
0.0
  0
INSERT
  5
DFFD
330
BB7F
100
AcDbEntity
  8
30
  6
Continuous
 62
     0
370
    -2
100
AcDbBlockReference
  2
_OPEN
 10
318.0
 20
-231.0958749999997
 30
0.0
 41
2.0
 42
2.0
 43
2.0
 50
180.0
  0
INSERT
  5
DFFE
330
BB7F
100
AcDbEntity
  8
30
  6
Continuous
 62
     0
370
    -2
100
AcDbBlockReference
  2
_OPEN
 10
463.0
 20
-231.0958749999997
 30
0.0
 41
2.0
 42
2.0
 43
2.0
  0
MTEXT
  5
DFFF
330
BB7F
100
AcDbEntity
  8
30
  6
Continuous
 62
     0
100
AcDbMText
 10
390.5
 20
-225.0958749999998
 30
0.0
 40
6.0
 41
0.0
 71
     5
 72
     1
  1
\A1; 145 
 73
     1
 44
1.0
  0
POINT
  5
E000
330
BB7F
100
AcDbEntity
  8
DEFPOINTS
  6
Continuous
 62
     0
100
AcDbPoint
 10
318.0
 20
0.0000000000000568
 30
0.0
  0
POINT
  5
E001
330
BB7F
100
AcDbEntity
  8
DEFPOINTS
  6
Continuous
 62
     0
100
AcDbPoint
 10
463.0
 20
-186.9999999999999
 30
0.0
  0
POINT
  5
E002
330
BB7F
100
AcDbEntity
  8
DEFPOINTS
  6
Continuous
 62
     0
100
AcDbPoint
 10
463.0
 20
-231.0958749999997
 30
0.0
  0
ENDBLK
  5
BB8A
330
BB7F
100
AcDbEntity
  8
0
100
AcDbBlockEnd
  0
BLOCK
  5
BB95
330
BB8B
100
AcDbEntity
  8
0
100
AcDbBlockBegin
  2
*D4
 70
     1
 10
0.0
 20
0.0
 30
0.0
  3
*D4
  1

  0
LINE
  5
DFF1
330
BB8B
100
AcDbEntity
  8
30
  6
Continuous
 62
     0
370
    -2
100
AcDbLine
 10
318.0
 20
1.999999999999943
 30
0.0
 11
318.0
 21
-232.0958749999998
 31
0.0
  0
LINE
  5
DFF2
330
BB8B
100
AcDbEntity
  8
30
  6
Continuous
 62
     0
370
    -2
100
AcDbLine
 10
237.4989299999999
 20
1.999999999999943
 30
0.0
 11
237.4989299999997
 21
-232.0958749999998
 31
0.0
  0
LINE
  5
DFF3
330
BB8B
100
AcDbEntity
  8
30
  6
Continuous
 62
     0
370
    -2
100
AcDbLine
 10
316.0
 20
-231.5958749999998
 30
0.0
 11
239.4989299999997
 21
-231.5958749999998
 31
0.0
  0
INSERT
  5
DFF4
330
BB8B
100
AcDbEntity
  8
30
  6
Continuous
 62
     0
370
    -2
100
AcDbBlockReference
  2
_OPEN
 10
318.0
 20
-231.5958749999998
 30
0.0
 41
2.0
 42
2.0
 43
2.0
  0
INSERT
  5
DFF5
330
BB8B
100
AcDbEntity
  8
30
  6
Continuous
 62
     0
370
    -2
100
AcDbBlockReference
  2
_OPEN
 10
237.4989299999997
 20
-231.5958749999998
 30
0.0
 41
2.0
 42
2.0
 43
2.0
 50
180.0
  0
MTEXT
  5
DFF6
330
BB8B
100
AcDbEntity
  8
30
  6
Continuous
 62
     0
100
AcDbMText
 10
277.7494649999999
 20
-225.5958749999998
 30
0.0
 40
6.0
 41
0.0
 71
     5
 72
     1
  1
\A1; 80.5 
 73
     1
 44
1.0
  0
POINT
  5
DFF7
330
BB8B
100
AcDbEntity
  8
DEFPOINTS
  6
Continuous
 62
     0
100
AcDbPoint
 10
318.0
 20
4.999999999999943
 30
0.0
  0
POINT
  5
DFF8
330
BB8B
100
AcDbEntity
  8
DEFPOINTS
  6
Continuous
 62
     0
100
AcDbPoint
 10
237.4989299999999
 20
4.999999999999943
 30
0.0
  0
POINT
  5
DFF9
330
BB8B
100
AcDbEntity
  8
DEFPOINTS
  6
Continuous
 62
     0
100
AcDbPoint
 10
237.4989299999997
 20
-231.5958749999998
 30
0.0
  0
ENDBLK
  5
BB96
330
BB8B
100
AcDbEntity
  8
0
100
AcDbBlockEnd
  0
BLOCK
  5
BBA1
330
BB97
100
AcDbEntity
  8
0
100
AcDbBlockBegin
  2
*D5
 70
     1
 10
0.0
 20
0.0
 30
0.0
  3
*D5
  1

  0
LINE
  5
DFE7
330
BB97
100
AcDbEntity
  8
30
  6
Continuous
 62
     0
370
    -2
100
AcDbLine
 10
-75.79999999999995
 20
504.1271619249113
 30
0.0
 11
-75.79999999999995
 21
486.7230369249113
 31
0.0
  0
LINE
  5
DFE8
330
BB97
100
AcDbEntity
  8
30
  6
Continuous
 62
     0
370
    -2
100
AcDbLine
 10
-63.79999999999995
 20
420.1271619249113
 30
0.0
 11
-63.79999999999995
 21
487.7230369249113
 31
0.0
  0
LINE
  5
DFE9
330
BB97
100
AcDbEntity
  8
30
  6
Continuous
 62
     0
370
    -2
100
AcDbLine
 10
-73.79999999999995
 20
487.2230369249114
 30
0.0
 11
-65.79999999999995
 21
487.2230369249114
 31
0.0
  0
LINE
  5
DFEA
330
BB97
100
AcDbEntity
  8
30
  6
Continuous
 62
     0
370
    -2
100
AcDbLine
 10
-63.79999999999995
 20
487.2230369249114
 30
0.0
 11
-44.19999999999993
 21
487.2230369249114
 31
0.0
  0
INSERT
  5
DFEB
330
BB97
100
AcDbEntity
  8
30
  6
Continuous
 62
     0
370
    -2
100
AcDbBlockReference
  2
_OPEN
 10
-75.79999999999995
 20
487.2230369249114
 30
0.0
 41
2.0
 42
2.0
 43
2.0
 50
180.0
  0
INSERT
  5
DFEC
330
BB97
100
AcDbEntity
  8
30
  6
Continuous
 62
     0
370
    -2
100
AcDbBlockReference
  2
_OPEN
 10
-63.79999999999995
 20
487.2230369249114
 30
0.0
 41
2.0
 42
2.0
 43
2.0
  0
MTEXT
  5
DFED
330
BB97
100
AcDbEntity
  8
30
  6
Continuous
 62
     0
100
AcDbMText
 10
-52.99999999999995
 20
493.2230369249113
 30
0.0
 40
6.0
 41
0.0
 71
     5
 72
     1
  1
\A1; 12 
 73
     1
 44
1.0
  0
POINT
  5
DFEE
330
BB97
100
AcDbEntity
  8
DEFPOINTS
  6
Continuous
 62
     0
100
AcDbPoint
 10
-75.79999999999995
 20
507.1271619249113
 30
0.0
  0
POINT
  5
DFEF
330
BB97
100
AcDbEntity
  8
DEFPOINTS
  6
Continuous
 62
     0
100
AcDbPoint
 10
-63.79999999999995
 20
417.1271619249113
 30
0.0
  0
POINT
  5
DFF0
330
BB97
100
AcDbEntity
  8
DEFPOINTS
  6
Continuous
 62
     0
100
AcDbPoint
 10
-63.79999999999995
 20
487.2230369249114
 30
0.0
  0
ENDBLK
  5
BBA2
330
BB97
100
AcDbEntity
  8
0
100
AcDbBlockEnd
  0
BLOCK
  5
BBBA
330
BBB0
100
AcDbEntity
  8
0
100
AcDbBlockBegin
  2
*D6
 70
     1
 10
0.0
 20
0.0
 30
0.0
  3
*D6
  1

  0
LINE
  5
DFDE
330
BBB0
100
AcDbEntity
  8
30
  6
Continuous
 62
     0
370
    -2
100
AcDbLine
 10
0.2000000000000456
 20
520.1271619249113
 30
0.0
 11
0.200000000000047
 21
542.7230369249111
 31
0.0
  0
LINE
  5
DFDF
330
BBB0
100
AcDbEntity
  8
30
  6
Continuous
 62
     0
370
    -2
100
AcDbLine
 10
70.20000000000003
 20
520.1271619249113
 30
0.0
 11
70.20000000000003
 21
542.7230369249111
 31
0.0
  0
LINE
  5
DFE0
330
BBB0
100
AcDbEntity
  8
30
  6
Continuous
 62
     0
370
    -2
100
AcDbLine
 10
2.200000000000045
 20
542.2230369249112
 30
0.0
 11
68.20000000000003
 21
542.2230369249112
 31
0.0
  0
INSERT
  5
DFE1
330
BBB0
100
AcDbEntity
  8
30
  6
Continuous
 62
     0
370
    -2
100
AcDbBlockReference
  2
_OPEN
 10
0.200000000000047
 20
542.2230369249112
 30
0.0
 41
2.0
 42
2.0
 43
2.0
 50
180.0
  0
INSERT
  5
DFE2
330
BBB0
100
AcDbEntity
  8
30
  6
Continuous
 62
     0
370
    -2
100
AcDbBlockReference
  2
_OPEN
 10
70.20000000000003
 20
542.2230369249112
 30
0.0
 41
2.0
 42
2.0
 43
2.0
  0
MTEXT
  5
DFE3
330
BBB0
100
AcDbEntity
  8
30
  6
Continuous
 62
     0
100
AcDbMText
 10
35.20000000000004
 20
548.2230369249113
 30
0.0
 40
6.0
 41
0.0
 71
     5
 72
     1
  1
\A1; 70 
 73
     1
 44
1.0
  0
POINT
  5
DFE4
330
BBB0
100
AcDbEntity
  8
DEFPOINTS
  6
Continuous
 62
     0
100
AcDbPoint
 10
0.2000000000000455
 20
517.1271619249113
 30
0.0
  0
POINT
  5
DFE5
330
BBB0
100
AcDbEntity
  8
DEFPOINTS
  6
Continuous
 62
     0
100
AcDbPoint
 10
70.20000000000003
 20
517.1271619249113
 30
0.0
  0
POINT
  5
DFE6
330
BBB0
100
AcDbEntity
  8
DEFPOINTS
  6
Continuous
 62
     0
100
AcDbPoint
 10
70.20000000000003
 20
542.2230369249112
 30
0.0
  0
ENDBLK
  5
BBBB
330
BBB0
100
AcDbEntity
  8
0
100
AcDbBlockEnd
  0
BLOCK
  5
BBC6
330
BBBC
100
AcDbEntity
  8
0
100
AcDbBlockBegin
  2
*D7
 70
     1
 10
0.0
 20
0.0
 30
0.0
  3
*D7
  1

  0
LINE
  5
DFD5
330
BBBC
100
AcDbEntity
  8
30
  6
Continuous
 62
     0
370
    -2
100
AcDbLine
 10
-69.79999999999995
 20
520.1271619249113
 30
0.0
 11
-69.79999999999995
 21
542.7230369249111
 31
0.0
  0
LINE
  5
DFD6
330
BBBC
100
AcDbEntity
  8
30
  6
Continuous
 62
     0
370
    -2
100
AcDbLine
 10
0.2000000000000456
 20
520.1271619249113
 30
0.0
 11
0.200000000000047
 21
542.7230369249111
 31
0.0
  0
LINE
  5
DFD7
330
BBBC
100
AcDbEntity
  8
30
  6
Continuous
 62
     0
370
    -2
100
AcDbLine
 10
-67.79999999999995
 20
542.2230369249112
 30
0.0
 11
-1.799999999999952
 21
542.2230369249112
 31
0.0
  0
INSERT
  5
DFD8
330
BBBC
100
AcDbEntity
  8
30
  6
Continuous
 62
     0
370
    -2
100
AcDbBlockReference
  2
_OPEN
 10
-69.79999999999995
 20
542.2230369249112
 30
0.0
 41
2.0
 42
2.0
 43
2.0
 50
180.0
  0
INSERT
  5
DFD9
330
BBBC
100
AcDbEntity
  8
30
  6
Continuous
 62
     0
370
    -2
100
AcDbBlockReference
  2
_OPEN
 10
0.200000000000047
 20
542.2230369249112
 30
0.0
 41
2.0
 42
2.0
 43
2.0
  0
MTEXT
  5
DFDA
330
BBBC
100
AcDbEntity
  8
30
  6
Continuous
 62
     0
100
AcDbMText
 10
-34.79999999999995
 20
548.2230369249113
 30
0.0
 40
6.0
 41
0.0
 71
     5
 72
     1
  1
\A1; 70 
 73
     1
 44
1.0
  0
POINT
  5
DFDB
330
BBBC
100
AcDbEntity
  8
DEFPOINTS
  6
Continuous
 62
     0
100
AcDbPoint
 10
-69.79999999999995
 20
517.1271619249113
 30
0.0
  0
POINT
  5
DFDC
330
BBBC
100
AcDbEntity
  8
DEFPOINTS
  6
Continuous
 62
     0
100
AcDbPoint
 10
0.2000000000000455
 20
517.1271619249113
 30
0.0
  0
POINT
  5
DFDD
330
BBBC
100
AcDbEntity
  8
DEFPOINTS
  6
Continuous
 62
     0
100
AcDbPoint
 10
0.200000000000047
 20
542.2230369249112
 30
0.0
  0
ENDBLK
  5
BBC7
330
BBBC
100
AcDbEntity
  8
0
100
AcDbBlockEnd
  0
BLOCK
  5
BCAB
330
BCA2
100
AcDbEntity
  8
0
100
AcDbBlockBegin
  2
*D8
 70
     1
 10
0.0
 20
0.0
 30
0.0
  3
*D8
  1

  0
LINE
  5
DFA0
330
BCA2
100
AcDbEntity
  8
30
  6
Continuous
 62
     0
370
    -2
100
AcDbLine
 10
566.2578264463494
 20
-121.4106338432081
 30
0.0
 11
563.7421735536515
 21
-112.7693661567918
 31
0.0
  0
LINE
  5
DFA1
330
BCA2
100
AcDbEntity
  8
30
  6
Continuous
 62
     0
370
    -2
100
AcDbLine
 10
563.183139635142
 20
-110.8490846467116
 30
0.0
 11
550.9999999999994
 21
-69.00000000000004
 31
0.0
  0
LINE
  5
DFA2
330
BCA2
100
AcDbEntity
  8
30
  6
Continuous
 62
     0
370
    -2
100
AcDbLine
 10
550.9999999999994
 20
-69.00000000000004
 30
0.0
 11
533.9999999999994
 21
-69.0000000000001
 31
0.0
  0
INSERT
  5
DFA3
330
BCA2
100
AcDbEntity
  8
30
  6
Continuous
 62
     0
370
    -2
100
AcDbBlockReference
  2
_OPEN
 10
566.816860364859
 20
-123.3309153532882
 30
0.0
 41
2.0
 42
2.0
 43
2.0
 50
286.2313774513753
  0
INSERT
  5
DFA4
330
BCA2
100
AcDbEntity
  8
30
  6
Continuous
 62
     0
370
    -2
100
AcDbBlockReference
  2
_OPEN
 10
563.183139635142
 20
-110.8490846467116
 30
0.0
 41
2.0
 42
2.0
 43
2.0
 50
106.2313774513751
  0
MTEXT
  5
DFA5
330
BCA2
100
AcDbEntity
  8
30
  6
Continuous
 62
     0
100
AcDbMText
 10
540.9999999999994
 20
-63.0
 30
0.0
 40
6.0
 41
0.0
 71
     5
 72
     1
  1
\A1;\U+220513
 73
     1
 44
1.0
  0
POINT
  5
DFA6
330
BCA2
100
AcDbEntity
  8
DEFPOINTS
  6
Continuous
 62
     0
100
AcDbPoint
 10
563.183139635142
 20
-110.8490846467116
 30
0.0
  0
POINT
  5
DFA7
330
BCA2
100
AcDbEntity
  8
DEFPOINTS
  6
Continuous
 62
     0
100
AcDbPoint
 10
566.816860364859
 20
-123.3309153532882
 30
0.0
  0
ENDBLK
  5
BCAC
330
BCA2
100
AcDbEntity
  8
0
100
AcDbBlockEnd
  0
BLOCK
  5
BDBE
330
BDB5
100
AcDbEntity
  8
0
100
AcDbBlockBegin
  2
*D9
 70
     1
 10
0.0
 20
0.0
 30
0.0
  3
*D9
  1

  0
LINE
  5
DFCC
330
BDB5
100
AcDbEntity
  8
30
  6
Continuous
 62
     0
370
    -2
100
AcDbLine
 10
360.0
 20
-47.99999999999993
 30
0.0
 11
360.0
 21
-190.5
 31
0.0
  0
LINE
  5
DFCD
330
BDB5
100
AcDbEntity
  8
30
  6
Continuous
 62
     0
370
    -2
100
AcDbLine
 10
463.0
 20
138.0
 30
0.0
 11
463.0
 21
-190.5
 31
0.0
  0
LINE
  5
DFCE
330
BDB5
100
AcDbEntity
  8
30
  6
Continuous
 62
     0
370
    -2
100
AcDbLine
 10
362.0
 20
-190.0
 30
0.0
 11
461.0
 21
-190.0
 31
0.0
  0
INSERT
  5
DFCF
330
BDB5
100
AcDbEntity
  8
30
  6
Continuous
 62
     0
370
    -2
100
AcDbBlockReference
  2
_OPEN
 10
360.0
 20
-190.0
 30
0.0
 41
2.0
 42
2.0
 43
2.0
 50
180.0
  0
INSERT
  5
DFD0
330
BDB5
100
AcDbEntity
  8
30
  6
Continuous
 62
     0
370
    -2
100
AcDbBlockReference
  2
_OPEN
 10
463.0
 20
-190.0
 30
0.0
 41
2.0
 42
2.0
 43
2.0
  0
MTEXT
  5
DFD1
330
BDB5
100
AcDbEntity
  8
30
  6
Continuous
 62
     0
100
AcDbMText
 10
411.5
 20
-184.0
 30
0.0
 40
6.0
 41
0.0
 71
     5
 72
     1
  1
\A1; 103 
 73
     1
 44
1.0
  0
POINT
  5
DFD2
330
BDB5
100
AcDbEntity
  8
DEFPOINTS
  6
Continuous
 62
     0
100
AcDbPoint
 10
360.0
 20
-44.99999999999993
 30
0.0
  0
POINT
  5
DFD3
330
BDB5
100
AcDbEntity
  8
DEFPOINTS
  6
Continuous
 62
     0
100
AcDbPoint
 10
463.0
 20
141.0
 30
0.0
  0
POINT
  5
DFD4
330
BDB5
100
AcDbEntity
  8
DEFPOINTS
  6
Continuous
 62
     0
100
AcDbPoint
 10
463.0
 20
-190.0
 30
0.0
  0
ENDBLK
  5
BDBF
330
BDB5
100
AcDbEntity
  8
0
100
AcDbBlockEnd
  0
BLOCK
  5
BDCB
330
BDC0
100
AcDbEntity
  8
0
100
AcDbBlockBegin
  2
*D10
 70
     1
 10
0.0
 20
0.0
 30
0.0
  3
*D10
  1

  0
LINE
  5
DFC3
330
BDC0
100
AcDbEntity
  8
30
  6
Continuous
 62
     0
370
    -2
100
AcDbLine
 10
573.0
 20
126.0000000000001
 30
0.0
 11
620.0538999999999
 21
126.0000000000001
 31
0.0
  0
LINE
  5
DFC4
330
BDC0
100
AcDbEntity
  8
30
  6
Continuous
 62
     0
370
    -2
100
AcDbLine
 10
485.0
 20
0.000000000000056
 30
0.0
 11
620.0538999999999
 21
0.0000000000000177
 31
0.0
  0
LINE
  5
DFC5
330
BDC0
100
AcDbEntity
  8
30
  6
Continuous
 62
     0
370
    -2
100
AcDbLine
 10
619.5538999999999
 20
124.0000000000001
 30
0.0
 11
619.5538999999999
 21
2.000000000000015
 31
0.0
  0
INSERT
  5
DFC6
330
BDC0
100
AcDbEntity
  8
30
  6
Continuous
 62
     0
370
    -2
100
AcDbBlockReference
  2
_OPEN
 10
619.5538999999999
 20
126.0000000000001
 30
0.0
 41
2.0
 42
2.0
 43
2.0
 50
90.0
  0
INSERT
  5
DFC7
330
BDC0
100
AcDbEntity
  8
30
  6
Continuous
 62
     0
370
    -2
100
AcDbBlockReference
  2
_OPEN
 10
619.5538999999999
 20
0.0000000000000179
 30
0.0
 41
2.0
 42
2.0
 43
2.0
 50
270.0
  0
MTEXT
  5
DFC8
330
BDC0
100
AcDbEntity
  8
30
  6
Continuous
 62
     0
100
AcDbMText
 10
613.5538999999997
 20
63.00000000000019
 30
0.0
 40
6.0
 41
0.0
 71
     5
 72
     1
  1
\A1; 126 
 11
0.0000000000000001
 21
1.0
 31
0.0
 73
     1
 44
1.0
  0
POINT
  5
DFC9
330
BDC0
100
AcDbEntity
  8
DEFPOINTS
  6
Continuous
 62
     0
100
AcDbPoint
 10
570.0
 20
126.0000000000001
 30
0.0
  0
POINT
  5
DFCA
330
BDC0
100
AcDbEntity
  8
DEFPOINTS
  6
Continuous
 62
     0
100
AcDbPoint
 10
482.0
 20
0.0000000000000568
 30
0.0
  0
POINT
  5
DFCB
330
BDC0
100
AcDbEntity
  8
DEFPOINTS
  6
Continuous
 62
     0
100
AcDbPoint
 10
619.5538999999999
 20
0.0000000000000179
 30
0.0
  0
ENDBLK
  5
BDCC
330
BDC0
100
AcDbEntity
  8
0
100
AcDbBlockEnd
  0
BLOCK
  5
BDEF
330
BDE5
100
AcDbEntity
  8
0
100
AcDbBlockBegin
  2
*D11
 70
     1
 10
0.0
 20
0.0
 30
0.0
  3
*D11
  1

  0
LINE
  5
DFBA
330
BDE5
100
AcDbEntity
  8
30
  6
Continuous
 62
     0
370
    -2
100
AcDbLine
 10
435.0
 20
-100.7499999999997
 30
0.0
 11
435.0
 21
-71.59587499999992
 31
0.0
  0
LINE
  5
DFBB
330
BDE5
100
AcDbEntity
  8
30
  6
Continuous
 62
     0
370
    -2
100
AcDbLine
 10
463.0
 20
-75.3458749999999
 30
0.0
 11
463.0
 21
-71.59587499999992
 31
0.0
  0
LINE
  5
DFBC
330
BDE5
100
AcDbEntity
  8
30
  6
Continuous
 62
     0
370
    -2
100
AcDbLine
 10
437.0
 20
-72.09587499999992
 30
0.0
 11
461.0
 21
-72.09587499999992
 31
0.0
  0
INSERT
  5
DFBD
330
BDE5
100
AcDbEntity
  8
30
  6
Continuous
 62
     0
370
    -2
100
AcDbBlockReference
  2
_OPEN
 10
435.0
 20
-72.09587499999992
 30
0.0
 41
2.0
 42
2.0
 43
2.0
 50
180.0
  0
INSERT
  5
DFBE
330
BDE5
100
AcDbEntity
  8
30
  6
Continuous
 62
     0
370
    -2
100
AcDbBlockReference
  2
_OPEN
 10
463.0
 20
-72.09587499999992
 30
0.0
 41
2.0
 42
2.0
 43
2.0
  0
MTEXT
  5
DFBF
330
BDE5
100
AcDbEntity
  8
30
  6
Continuous
 62
     0
100
AcDbMText
 10
449.0
 20
-66.09587499999992
 30
0.0
 40
6.0
 41
0.0
 71
     5
 72
     1
  1
\A1; 28 
 73
     1
 44
1.0
  0
POINT
  5
DFC0
330
BDE5
100
AcDbEntity
  8
DEFPOINTS
  6
Continuous
 62
     0
100
AcDbPoint
 10
435.0
 20
-103.7499999999997
 30
0.0
  0
POINT
  5
DFC1
330
BDE5
100
AcDbEntity
  8
DEFPOINTS
  6
Continuous
 62
     0
100
AcDbPoint
 10
463.0
 20
-78.34587499999989
 30
0.0
  0
POINT
  5
DFC2
330
BDE5
100
AcDbEntity
  8
DEFPOINTS
  6
Continuous
 62
     0
100
AcDbPoint
 10
463.0
 20
-72.09587499999992
 30
0.0
  0
ENDBLK
  5
BDF0
330
BDE5
100
AcDbEntity
  8
0
100
AcDbBlockEnd
  0
BLOCK
  5
BDFB
330
BDF1
100
AcDbEntity
  8
0
100
AcDbBlockBegin
  2
*D12
 70
     1
 10
0.0
 20
0.0
 30
0.0
  3
*D12
  1

  0
LINE
  5
DFB1
330
BDF1
100
AcDbEntity
  8
30
  6
Continuous
 62
     0
370
    -2
100
AcDbLine
 10
476.0
 20
-104.9999999999997
 30
0.0
 11
476.0
 21
-71.59587499999992
 31
0.0
  0
LINE
  5
DFB2
330
BDF1
100
AcDbEntity
  8
30
  6
Continuous
 62
     0
370
    -2
100
AcDbLine
 10
463.0
 20
-75.3458749999999
 30
0.0
 11
463.0
 21
-71.59587499999992
 31
0.0
  0
LINE
  5
DFB3
330
BDF1
100
AcDbEntity
  8
30
  6
Continuous
 62
     0
370
    -2
100
AcDbLine
 10
474.0
 20
-72.09587499999992
 30
0.0
 11
465.0
 21
-72.09587499999992
 31
0.0
  0
INSERT
  5
DFB4
330
BDF1
100
AcDbEntity
  8
30
  6
Continuous
 62
     0
370
    -2
100
AcDbBlockReference
  2
_OPEN
 10
476.0
 20
-72.09587499999992
 30
0.0
 41
2.0
 42
2.0
 43
2.0
  0
INSERT
  5
DFB5
330
BDF1
100
AcDbEntity
  8
30
  6
Continuous
 62
     0
370
    -2
100
AcDbBlockReference
  2
_OPEN
 10
463.0
 20
-72.09587499999992
 30
0.0
 41
2.0
 42
2.0
 43
2.0
 50
180.0
  0
MTEXT
  5
DFB6
330
BDF1
100
AcDbEntity
  8
30
  6
Continuous
 62
     0
100
AcDbMText
 10
469.5
 20
-66.09587499999992
 30
0.0
 40
6.0
 41
0.0
 71
     5
 72
     1
  1
\A1; 13 
 73
     1
 44
1.0
  0
POINT
  5
DFB7
330
BDF1
100
AcDbEntity
  8
DEFPOINTS
  6
Continuous
 62
     0
100
AcDbPoint
 10
476.0
 20
-107.9999999999997
 30
0.0
  0
POINT
  5
DFB8
330
BDF1
100
AcDbEntity
  8
DEFPOINTS
  6
Continuous
 62
     0
100
AcDbPoint
 10
463.0
 20
-78.34587499999989
 30
0.0
  0
POINT
  5
DFB9
330
BDF1
100
AcDbEntity
  8
DEFPOINTS
  6
Continuous
 62
     0
100
AcDbPoint
 10
463.0
 20
-72.09587499999992
 30
0.0
  0
ENDBLK
  5
BDFC
330
BDF1
100
AcDbEntity
  8
0
100
AcDbBlockEnd
  0
BLOCK
  5
BE08
330
BDFD
100
AcDbEntity
  8
0
100
AcDbBlockBegin
  2
*D13
 70
     1
 10
0.0
 20
0.0
 30
0.0
  3
*D13
  1

  0
LINE
  5
DFA8
330
BDFD
100
AcDbEntity
  8
30
  6
Continuous
 62
     0
370
    -2
100
AcDbLine
 10
592.0
 20
-94.49999999999993
 30
0.0
 11
610.0538999999997
 21
-94.49999999999995
 31
0.0
  0
LINE
  5
DFA9
330
BDFD
100
AcDbEntity
  8
30
  6
Continuous
 62
     0
370
    -2
100
AcDbLine
 10
592.0
 20
-139.4999999999999
 30
0.0
 11
610.0538999999997
 21
-139.4999999999999
 31
0.0
  0
LINE
  5
DFAA
330
BDFD
100
AcDbEntity
  8
30
  6
Continuous
 62
     0
370
    -2
100
AcDbLine
 10
609.5538999999997
 20
-96.49999999999996
 30
0.0
 11
609.5538999999997
 21
-137.4999999999999
 31
0.0
  0
INSERT
  5
DFAB
330
BDFD
100
AcDbEntity
  8
30
  6
Continuous
 62
     0
370
    -2
100
AcDbBlockReference
  2
_OPEN
 10
609.5538999999997
 20
-94.49999999999995
 30
0.0
 41
2.0
 42
2.0
 43
2.0
 50
90.0
  0
INSERT
  5
DFAC
330
BDFD
100
AcDbEntity
  8
30
  6
Continuous
 62
     0
370
    -2
100
AcDbBlockReference
  2
_OPEN
 10
609.5538999999997
 20
-139.4999999999999
 30
0.0
 41
2.0
 42
2.0
 43
2.0
 50
270.0
  0
MTEXT
  5
DFAD
330
BDFD
100
AcDbEntity
  8
30
  6
Continuous
 62
     0
100
AcDbMText
 10
603.5538999999999
 20
-116.9999999999997
 30
0.0
 40
6.0
 41
0.0
 71
     5
 72
     1
  1
\A1; 45 
 11
0.0000000000000001
 21
1.0
 31
0.0
 73
     1
 44
1.0
  0
POINT
  5
DFAE
330
BDFD
100
AcDbEntity
  8
DEFPOINTS
  6
Continuous
 62
     0
100
AcDbPoint
 10
589.0
 20
-94.49999999999993
 30
0.0
  0
POINT
  5
DFAF
330
BDFD
100
AcDbEntity
  8
DEFPOINTS
  6
Continuous
 62
     0
100
AcDbPoint
 10
589.0
 20
-139.4999999999999
 30
0.0
  0
POINT
  5
DFB0
330
BDFD
100
AcDbEntity
  8
DEFPOINTS
  6
Continuous
 62
     0
100
AcDbPoint
 10
609.5538999999997
 20
-139.4999999999999
 30
0.0
  0
ENDBLK
  5
BE09
330
BDFD
100
AcDbEntity
  8
0
100
AcDbBlockEnd
  0
BLOCK
  5
C40A
330
C400
100
AcDbEntity
  8
0
100
AcDbBlockBegin
  2
*D14
 70
     1
 10
0.0
 20
0.0
 30
0.0
  3
*D14
  1

  0
LINE
  5
DF97
330
C400
100
AcDbEntity
  8
30
  6
Continuous
 62
     0
370
    -2
100
AcDbLine
 10
485.0
 20
0.000000000000056
 30
0.0
 11
620.0538999999999
 21
0.0000000000000177
 31
0.0
  0
LINE
  5
DF98
330
C400
100
AcDbEntity
  8
30
  6
Continuous
 62
     0
370
    -2
100
AcDbLine
 10
612.5538999999998
 20
-116.9999999999999
 30
0.0
 11
620.0538999999999
 21
-116.9999999999999
 31
0.0
  0
LINE
  5
DF99
330
C400
100
AcDbEntity
  8
30
  6
Continuous
 62
     0
370
    -2
100
AcDbLine
 10
619.5538999999999
 20
-1.99999999999998
 30
0.0
 11
619.5538999999999
 21
-114.9999999999999
 31
0.0
  0
INSERT
  5
DF9A
330
C400
100
AcDbEntity
  8
30
  6
Continuous
 62
     0
370
    -2
100
AcDbBlockReference
  2
_OPEN
 10
619.5538999999999
 20
0.0000000000000179
 30
0.0
 41
2.0
 42
2.0
 43
2.0
 50
90.0
  0
INSERT
  5
DF9B
330
C400
100
AcDbEntity
  8
30
  6
Continuous
 62
     0
370
    -2
100
AcDbBlockReference
  2
_OPEN
 10
619.5538999999999
 20
-116.9999999999999
 30
0.0
 41
2.0
 42
2.0
 43
2.0
 50
270.0
  0
MTEXT
  5
DF9C
330
C400
100
AcDbEntity
  8
30
  6
Continuous
 62
     0
100
AcDbMText
 10
613.5538999999997
 20
-58.49999999999988
 30
0.0
 40
6.0
 41
0.0
 71
     5
 72
     1
  1
\A1;117
 11
0.0000000000000001
 21
1.0
 31
0.0
 73
     1
 44
1.0
  0
POINT
  5
DF9D
330
C400
100
AcDbEntity
  8
DEFPOINTS
  6
Continuous
 62
     0
100
AcDbPoint
 10
482.0
 20
0.0000000000000568
 30
0.0
  0
POINT
  5
DF9E
330
C400
100
AcDbEntity
  8
DEFPOINTS
  6
Continuous
 62
     0
100
AcDbPoint
 10
609.5538999999997
 20
-116.9999999999999
 30
0.0
  0
POINT
  5
DF9F
330
C400
100
AcDbEntity
  8
DEFPOINTS
  6
Continuous
 62
     0
100
AcDbPoint
 10
619.5538999999999
 20
-116.9999999999999
 30
0.0
  0
ENDBLK
  5
C40B
330
C400
100
AcDbEntity
  8
0
100
AcDbBlockEnd
  0
BLOCK
  5
C98B
330
C980
100
AcDbEntity
  8
0
100
AcDbBlockBegin
  2
*D15
 70
     1
 10
0.0
 20
0.0
 30
0.0
  3
*D15
  1

  0
LINE
  5
E036
330
C980
100
AcDbEntity
  8
30
  6
Continuous
 62
     0
370
    -2
100
AcDbLine
 10
109.0
 20
-217.7235549737853
 30
0.0
 11
176.4692079724309
 21
-217.7235549737853
 31
0.0
  0
LINE
  5
E037
330
C980
100
AcDbEntity
  8
30
  6
Continuous
 62
     0
370
    -2
100
AcDbLine
 10
108.0
 20
-212.7235549737851
 30
0.0
 11
176.4692079724309
 21
-212.7235549737851
 31
0.0
  0
LINE
  5
E038
330
C980
100
AcDbEntity
  8
30
  6
Continuous
 62
     0
370
    -2
100
AcDbLine
 10
175.9692079724309
 20
-219.7235549737853
 30
0.0
 11
175.9692079724309
 21
-221.7235549737853
 31
0.0
  0
LINE
  5
E039
330
C980
100
AcDbEntity
  8
30
  6
Continuous
 62
     0
370
    -2
100
AcDbLine
 10
175.9692079724309
 20
-210.723554973785
 30
0.0
 11
175.9692079724309
 21
-208.723554973785
 31
0.0
  0
LINE
  5
E03A
330
C980
100
AcDbEntity
  8
30
  6
Continuous
 62
     0
370
    -2
100
AcDbLine
 10
175.9692079724309
 20
-217.7235549737853
 30
0.0
 11
175.9692079724309
 21
-212.7235549737851
 31
0.0
  0
INSERT
  5
E03B
330
C980
100
AcDbEntity
  8
30
  6
Continuous
 62
     0
370
    -2
100
AcDbBlockReference
  2
_OPEN
 10
175.9692079724309
 20
-217.7235549737853
 30
0.0
 41
2.0
 42
2.0
 43
2.0
 50
90.0
  0
INSERT
  5
E03C
330
C980
100
AcDbEntity
  8
30
  6
Continuous
 62
     0
370
    -2
100
AcDbBlockReference
  2
_OPEN
 10
175.9692079724309
 20
-212.7235549737851
 30
0.0
 41
2.0
 42
2.0
 43
2.0
 50
270.0
  0
MTEXT
  5
E03D
330
C980
100
AcDbEntity
  8
30
  6
Continuous
 62
     0
100
AcDbMText
 10
170.4692079724309
 20
-215.223554973785
 30
0.0
 40
5.0
 41
0.0
 71
     5
 72
     1
  1
\A1;5
 11
0.0000000000000001
 21
1.0
 31
0.0
 73
     1
 44
1.0
  0
POINT
  5
E03E
330
C980
100
AcDbEntity
  8
DEFPOINTS
  6
Continuous
 62
     0
100
AcDbPoint
 10
106.0
 20
-217.7235549737853
 30
0.0
  0
POINT
  5
E03F
330
C980
100
AcDbEntity
  8
DEFPOINTS
  6
Continuous
 62
     0
100
AcDbPoint
 10
105.0
 20
-212.7235549737851
 30
0.0
  0
POINT
  5
E040
330
C980
100
AcDbEntity
  8
DEFPOINTS
  6
Continuous
 62
     0
100
AcDbPoint
 10
175.9692079724309
 20
-212.7235549737851
 30
0.0
  0
ENDBLK
  5
C98C
330
C980
100
AcDbEntity
  8
0
100
AcDbBlockEnd
  0
BLOCK
  5
C9A4
330
C99A
100
AcDbEntity
  8
0
100
AcDbBlockBegin
  2
*D16
 70
     1
 10
0.0
 20
0.0
 30
0.0
  3
*D16
  1

  0
LINE
  5
DF84
330
C99A
100
AcDbEntity
  8
30
  6
Continuous
 62
     0
370
    -2
100
AcDbLine
 10
-82.79999999999995
 20
50.99999999999894
 30
0.0
 11
-119.0986045047431
 21
50.99999999999896
 31
0.0
  0
LINE
  5
DF85
330
C99A
100
AcDbEntity
  8
30
  6
Continuous
 62
     0
370
    -2
100
AcDbLine
 10
-82.79999999999995
 20
-39.00000000000115
 30
0.0
 11
-119.0986045047431
 21
-39.00000000000114
 31
0.0
  0
LINE
  5
DF86
330
C99A
100
AcDbEntity
  8
30
  6
Continuous
 62
     0
370
    -2
100
AcDbLine
 10
-118.5986045047432
 20
48.99999999999896
 30
0.0
 11
-118.5986045047432
 21
-37.00000000000113
 31
0.0
  0
INSERT
  5
DF87
330
C99A
100
AcDbEntity
  8
30
  6
Continuous
 62
     0
370
    -2
100
AcDbBlockReference
  2
_OPEN
 10
-118.5986045047432
 20
50.99999999999896
 30
0.0
 41
2.0
 42
2.0
 43
2.0
 50
90.0
  0
INSERT
  5
DF88
330
C99A
100
AcDbEntity
  8
30
  6
Continuous
 62
     0
370
    -2
100
AcDbBlockReference
  2
_OPEN
 10
-118.5986045047432
 20
-39.00000000000114
 30
0.0
 41
2.0
 42
2.0
 43
2.0
 50
270.0
  0
MTEXT
  5
DF89
330
C99A
100
AcDbEntity
  8
30
  6
Continuous
 62
     0
100
AcDbMText
 10
-124.5986045047432
 20
5.999999999998888
 30
0.0
 40
6.0
 41
0.0
 71
     5
 72
     1
  1
\A1;90
 11
0.0000000000000001
 21
1.0
 31
0.0
 73
     1
 44
1.0
  0
POINT
  5
DF8A
330
C99A
100
AcDbEntity
  8
DEFPOINTS
  6
Continuous
 62
     0
100
AcDbPoint
 10
-79.79999999999995
 20
50.99999999999894
 30
0.0
  0
POINT
  5
DF8B
330
C99A
100
AcDbEntity
  8
DEFPOINTS
  6
Continuous
 62
     0
100
AcDbPoint
 10
-79.79999999999995
 20
-39.00000000000115
 30
0.0
  0
POINT
  5
DF8C
330
C99A
100
AcDbEntity
  8
DEFPOINTS
  6
Continuous
 62
     0
100
AcDbPoint
 10
-118.5986045047432
 20
-39.00000000000114
 30
0.0
  0
ENDBLK
  5
C9A5
330
C99A
100
AcDbEntity
  8
0
100
AcDbBlockEnd
  0
BLOCK
  5
C9B0
330
C9A6
100
AcDbEntity
  8
0
100
AcDbBlockBegin
  2
*D17
 70
     1
 10
0.0
 20
0.0
 30
0.0
  3
*D17
  1

  0
LINE
  5
DF7B
330
C9A6
100
AcDbEntity
  8
30
  6
Continuous
 62
     0
370
    -2
100
AcDbLine
 10
-107.9999999999996
 20
61.49999999999891
 30
0.0
 11
-138.3479123954373
 21
61.49999999999891
 31
0.0
  0
LINE
  5
DF7C
330
C9A6
100
AcDbEntity
  8
30
  6
Continuous
 62
     0
370
    -2
100
AcDbLine
 10
-107.9999999999996
 20
-40.50000000000093
 30
0.0
 11
-138.3479123954373
 21
-40.50000000000093
 31
0.0
  0
LINE
  5
DF7D
330
C9A6
100
AcDbEntity
  8
30
  6
Continuous
 62
     0
370
    -2
100
AcDbLine
 10
-137.8479123954371
 20
59.49999999999892
 30
0.0
 11
-137.8479123954371
 21
-38.50000000000093
 31
0.0
  0
INSERT
  5
DF7E
330
C9A6
100
AcDbEntity
  8
30
  6
Continuous
 62
     0
370
    -2
100
AcDbBlockReference
  2
_OPEN
 10
-137.8479123954371
 20
61.49999999999891
 30
0.0
 41
2.0
 42
2.0
 43
2.0
 50
90.0
  0
INSERT
  5
DF7F
330
C9A6
100
AcDbEntity
  8
30
  6
Continuous
 62
     0
370
    -2
100
AcDbBlockReference
  2
_OPEN
 10
-137.8479123954371
 20
-40.50000000000093
 30
0.0
 41
2.0
 42
2.0
 43
2.0
 50
270.0
  0
MTEXT
  5
DF80
330
C9A6
100
AcDbEntity
  8
30
  6
Continuous
 62
     0
100
AcDbMText
 10
-143.8479123954373
 20
10.49999999999897
 30
0.0
 40
6.0
 41
0.0
 71
     5
 72
     1
  1
\A1;102
 11
0.0000000000000001
 21
1.0
 31
0.0
 73
     1
 44
1.0
  0
POINT
  5
DF81
330
C9A6
100
AcDbEntity
  8
DEFPOINTS
  6
Continuous
 62
     0
100
AcDbPoint
 10
-104.9999999999996
 20
61.49999999999891
 30
0.0
  0
POINT
  5
DF82
330
C9A6
100
AcDbEntity
  8
DEFPOINTS
  6
Continuous
 62
     0
100
AcDbPoint
 10
-104.9999999999996
 20
-40.50000000000093
 30
0.0
  0
POINT
  5
DF83
330
C9A6
100
AcDbEntity
  8
DEFPOINTS
  6
Continuous
 62
     0
100
AcDbPoint
 10
-137.8479123954371
 20
-40.50000000000093
 30
0.0
  0
ENDBLK
  5
C9B1
330
C9A6
100
AcDbEntity
  8
0
100
AcDbBlockEnd
  0
BLOCK
  5
C9BC
330
C9B2
100
AcDbEntity
  8
0
100
AcDbBlockBegin
  2
*D18
 70
     1
 10
0.0
 20
0.0
 30
0.0
  3
*D18
  1

  0
LINE
  5
DF72
330
C9B2
100
AcDbEntity
  8
30
  6
Continuous
 62
     0
370
    -2
100
AcDbLine
 10
-108.0
 20
146.9999999999989
 30
0.0
 11
-151.019138894417
 21
146.9999999999989
 31
0.0
  0
LINE
  5
DF73
330
C9B2
100
AcDbEntity
  8
30
  6
Continuous
 62
     0
370
    -2
100
AcDbLine
 10
-107.9999999999996
 20
-126.000000000001
 30
0.0
 11
-151.019138894417
 21
-126.000000000001
 31
0.0
  0
LINE
  5
DF74
330
C9B2
100
AcDbEntity
  8
30
  6
Continuous
 62
     0
370
    -2
100
AcDbLine
 10
-150.519138894417
 20
144.999999999999
 30
0.0
 11
-150.5191388944171
 21
-124.0000000000009
 31
0.0
  0
INSERT
  5
DF75
330
C9B2
100
AcDbEntity
  8
30
  6
Continuous
 62
     0
370
    -2
100
AcDbBlockReference
  2
_OPEN
 10
-150.519138894417
 20
146.9999999999989
 30
0.0
 41
2.0
 42
2.0
 43
2.0
 50
90.0
  0
INSERT
  5
DF76
330
C9B2
100
AcDbEntity
  8
30
  6
Continuous
 62
     0
370
    -2
100
AcDbBlockReference
  2
_OPEN
 10
-150.5191388944171
 20
-126.000000000001
 30
0.0
 41
2.0
 42
2.0
 43
2.0
 50
270.0
  0
MTEXT
  5
DF77
330
C9B2
100
AcDbEntity
  8
30
  6
Continuous
 62
     0
100
AcDbMText
 10
-156.519138894417
 20
10.49999999999898
 30
0.0
 40
6.0
 41
0.0
 71
     5
 72
     1
  1
\A1;273
 11
0.0000000000000001
 21
1.0
 31
0.0
 73
     1
 44
1.0
  0
POINT
  5
DF78
330
C9B2
100
AcDbEntity
  8
DEFPOINTS
  6
Continuous
 62
     0
100
AcDbPoint
 10
-105.0
 20
146.9999999999989
 30
0.0
  0
POINT
  5
DF79
330
C9B2
100
AcDbEntity
  8
DEFPOINTS
  6
Continuous
 62
     0
100
AcDbPoint
 10
-104.9999999999996
 20
-126.000000000001
 30
0.0
  0
POINT
  5
DF7A
330
C9B2
100
AcDbEntity
  8
DEFPOINTS
  6
Continuous
 62
     0
100
AcDbPoint
 10
-150.5191388944171
 20
-126.000000000001
 30
0.0
  0
ENDBLK
  5
C9BD
330
C9B2
100
AcDbEntity
  8
0
100
AcDbBlockEnd
  0
BLOCK
  5
C9C7
330
C9BE
100
AcDbEntity
  8
0
100
AcDbBlockBegin
  2
*D19
 70
     1
 10
0.0
 20
0.0
 30
0.0
  3
*D19
  1

  0
LINE
  5
DF6A
330
C9BE
100
AcDbEntity
  8
30
  6
Continuous
 62
     0
370
    -2
100
AcDbLine
 10
-110.8797099357999
 20
-317.1486786163106
 30
0.0
 11
-115.1202900642
 21
-327.2984313312596
 31
0.0
  0
LINE
  5
DF6B
330
C9BE
100
AcDbEntity
  8
30
  6
Continuous
 62
     0
370
    -2
100
AcDbLine
 10
-115.8913046330001
 20
-329.1438409157958
 30
0.0
 11
-122.2060449099833
 21
-344.2580588600016
 31
0.0
  0
LINE
  5
DF6C
330
C9BE
100
AcDbEntity
  8
30
  6
Continuous
 62
     0
370
    -2
100
AcDbLine
 10
-122.2060449099833
 20
-344.2580588600016
 30
0.0
 11
-139.2060449099832
 21
-344.2580588600018
 31
0.0
  0
INSERT
  5
DF6D
330
C9BE
100
AcDbEntity
  8
30
  6
Continuous
 62
     0
370
    -2
100
AcDbBlockReference
  2
_OPEN
 10
-110.1086953669998
 20
-315.3032690317745
 30
0.0
 41
2.0
 42
2.0
 43
2.0
 50
67.32476329374346
  0
INSERT
  5
DF6E
330
C9BE
100
AcDbEntity
  8
30
  6
Continuous
 62
     0
370
    -2
100
AcDbBlockReference
  2
_OPEN
 10
-115.8913046330001
 20
-329.1438409157958
 30
0.0
 41
2.0
 42
2.0
 43
2.0
 50
247.3247632937433
  0
MTEXT
  5
DF6F
330
C9BE
100
AcDbEntity
  8
30
  6
Continuous
 62
     0
100
AcDbMText
 10
-132.2060449099832
 20
-338.2580588600016
 30
0.0
 40
6.0
 41
0.0
 71
     5
 72
     1
  1
\A1;\U+220515
 73
     1
 44
1.0
  0
POINT
  5
DF70
330
C9BE
100
AcDbEntity
  8
DEFPOINTS
  6
Continuous
 62
     0
100
AcDbPoint
 10
-115.8913046330001
 20
-329.1438409157958
 30
0.0
  0
POINT
  5
DF71
330
C9BE
100
AcDbEntity
  8
DEFPOINTS
  6
Continuous
 62
     0
100
AcDbPoint
 10
-110.1086953669998
 20
-315.3032690317745
 30
0.0
  0
ENDBLK
  5
C9C8
330
C9BE
100
AcDbEntity
  8
0
100
AcDbBlockEnd
  0
BLOCK
  5
C9D3
330
C9C9
100
AcDbEntity
  8
0
100
AcDbBlockBegin
  2
*D20
 70
     1
 10
0.0
 20
0.0
 30
0.0
  3
*D20
  1

  0
LINE
  5
DF61
330
C9C9
100
AcDbEntity
  8
30
  6
Continuous
 62
     0
370
    -2
100
AcDbLine
 10
108.0
 20
-353.7235549737851
 30
0.0
 11
176.4692079724305
 21
-353.7235549737853
 31
0.0
  0
LINE
  5
DF62
330
C9C9
100
AcDbEntity
  8
30
  6
Continuous
 62
     0
370
    -2
100
AcDbLine
 10
56.18257999999967
 20
-480.7235549737852
 30
0.0
 11
176.4692079724304
 21
-480.7235549737852
 31
0.0
  0
LINE
  5
DF63
330
C9C9
100
AcDbEntity
  8
30
  6
Continuous
 62
     0
370
    -2
100
AcDbLine
 10
175.9692079724304
 20
-355.7235549737853
 30
0.0
 11
175.9692079724304
 21
-478.7235549737853
 31
0.0
  0
INSERT
  5
DF64
330
C9C9
100
AcDbEntity
  8
30
  6
Continuous
 62
     0
370
    -2
100
AcDbBlockReference
  2
_OPEN
 10
175.9692079724304
 20
-353.7235549737853
 30
0.0
 41
2.0
 42
2.0
 43
2.0
 50
90.0
  0
INSERT
  5
DF65
330
C9C9
100
AcDbEntity
  8
30
  6
Continuous
 62
     0
370
    -2
100
AcDbBlockReference
  2
_OPEN
 10
175.9692079724304
 20
-480.7235549737852
 30
0.0
 41
2.0
 42
2.0
 43
2.0
 50
270.0
  0
MTEXT
  5
DF66
330
C9C9
100
AcDbEntity
  8
30
  6
Continuous
 62
     0
100
AcDbMText
 10
169.9692079724304
 20
-417.2235549737853
 30
0.0
 40
6.0
 41
0.0
 71
     5
 72
     1
  1
\A1; 127 
 11
0.0000000000000001
 21
1.0
 31
0.0
 73
     1
 44
1.0
  0
POINT
  5
DF67
330
C9C9
100
AcDbEntity
  8
DEFPOINTS
  6
Continuous
 62
     0
100
AcDbPoint
 10
105.0
 20
-353.7235549737851
 30
0.0
  0
POINT
  5
DF68
330
C9C9
100
AcDbEntity
  8
DEFPOINTS
  6
Continuous
 62
     0
100
AcDbPoint
 10
53.18257999999968
 20
-480.7235549737852
 30
0.0
  0
POINT
  5
DF69
330
C9C9
100
AcDbEntity
  8
DEFPOINTS
  6
Continuous
 62
     0
100
AcDbPoint
 10
175.9692079724304
 20
-480.7235549737852
 30
0.0
  0
ENDBLK
  5
C9D4
330
C9C9
100
AcDbEntity
  8
0
100
AcDbBlockEnd
  0
BLOCK
  5
C9DF
330
C9D5
100
AcDbEntity
  8
0
100
AcDbBlockBegin
  2
*D21
 70
     1
 10
0.0
 20
0.0
 30
0.0
  3
*D21
  1

  0
LINE
  5
E057
330
C9D5
100
AcDbEntity
  8
30
  6
Continuous
 62
     0
370
    -2
100
AcDbLine
 10
116.0
 20
-470.7235549737853
 30
0.0
 11
157.0245325812547
 21
-470.7235549737854
 31
0.0
  0
LINE
  5
E058
330
C9D5
100
AcDbEntity
  8
30
  6
Continuous
 62
     0
370
    -2
100
AcDbLine
 10
108.0
 20
-353.7235549737851
 30
0.0
 11
157.0245325812547
 21
-353.7235549737853
 31
0.0
  0
LINE
  5
E059
330
C9D5
100
AcDbEntity
  8
30
  6
Continuous
 62
     0
370
    -2
100
AcDbLine
 10
156.5245325812547
 20
-468.7235549737853
 30
0.0
 11
156.5245325812547
 21
-355.7235549737853
 31
0.0
  0
INSERT
  5
E05A
330
C9D5
100
AcDbEntity
  8
30
  6
Continuous
 62
     0
370
    -2
100
AcDbBlockReference
  2
_OPEN
 10
156.5245325812547
 20
-470.7235549737854
 30
0.0
 41
2.0
 42
2.0
 43
2.0
 50
270.0
  0
INSERT
  5
E05B
330
C9D5
100
AcDbEntity
  8
30
  6
Continuous
 62
     0
370
    -2
100
AcDbBlockReference
  2
_OPEN
 10
156.5245325812547
 20
-353.7235549737853
 30
0.0
 41
2.0
 42
2.0
 43
2.0
 50
90.0
  0
MTEXT
  5
E05C
330
C9D5
100
AcDbEntity
  8
30
  6
Continuous
 62
     0
100
AcDbMText
 10
150.5245325812548
 20
-412.2235549737853
 30
0.0
 40
6.0
 41
0.0
 71
     5
 72
     1
  1
\A1; 117 
 11
0.0000000000000001
 21
1.0
 31
0.0
 73
     1
 44
1.0
  0
POINT
  5
E05D
330
C9D5
100
AcDbEntity
  8
DEFPOINTS
  6
Continuous
 62
     0
100
AcDbPoint
 10
113.0
 20
-470.7235549737853
 30
0.0
  0
POINT
  5
E05E
330
C9D5
100
AcDbEntity
  8
DEFPOINTS
  6
Continuous
 62
     0
100
AcDbPoint
 10
105.0
 20
-353.7235549737851
 30
0.0
  0
POINT
  5
E05F
330
C9D5
100
AcDbEntity
  8
DEFPOINTS
  6
Continuous
 62
     0
100
AcDbPoint
 10
156.5245325812547
 20
-353.7235549737853
 30
0.0
  0
ENDBLK
  5
C9E0
330
C9D5
100
AcDbEntity
  8
0
100
AcDbBlockEnd
  0
BLOCK
  5
C9EB
330
C9E1
100
AcDbEntity
  8
0
100
AcDbBlockBegin
  2
*D22
 70
     1
 10
0.0
 20
0.0
 30
0.0
  3
*D22
  1

  0
LINE
  5
E07B
330
C9E1
100
AcDbEntity
  8
30
  6
Continuous
 62
     0
370
    -2
100
AcDbLine
 10
70.0
 20
-478.723554973785
 30
0.0
 11
70.0
 21
-556.3194299737849
 31
0.0
  0
LINE
  5
E07C
330
C9E1
100
AcDbEntity
  8
30
  6
Continuous
 62
     0
370
    -2
100
AcDbLine
 10
113.0
 20
-331.2235549737851
 30
0.0
 11
112.9999999999999
 21
-556.3194299737849
 31
0.0
  0
LINE
  5
E07D
330
C9E1
100
AcDbEntity
  8
30
  6
Continuous
 62
     0
370
    -2
100
AcDbLine
 10
72.0
 20
-555.8194299737849
 30
0.0
 11
110.9999999999997
 21
-555.8194299737849
 31
0.0
  0
INSERT
  5
E07E
330
C9E1
100
AcDbEntity
  8
30
  6
Continuous
 62
     0
370
    -2
100
AcDbBlockReference
  2
_OPEN
 10
70.0
 20
-555.8194299737849
 30
0.0
 41
2.0
 42
2.0
 43
2.0
 50
180.0
  0
INSERT
  5
E07F
330
C9E1
100
AcDbEntity
  8
30
  6
Continuous
 62
     0
370
    -2
100
AcDbBlockReference
  2
_OPEN
 10
112.9999999999999
 20
-555.8194299737849
 30
0.0
 41
2.0
 42
2.0
 43
2.0
  0
MTEXT
  5
E080
330
C9E1
100
AcDbEntity
  8
30
  6
Continuous
 62
     0
100
AcDbMText
 10
91.5
 20
-549.8194299737852
 30
0.0
 40
6.0
 41
0.0
 71
     5
 72
     1
  1
\A1; 43 
 73
     1
 44
1.0
  0
POINT
  5
E081
330
C9E1
100
AcDbEntity
  8
DEFPOINTS
  6
Continuous
 62
     0
100
AcDbPoint
 10
70.0
 20
-475.7235549737853
 30
0.0
  0
POINT
  5
E082
330
C9E1
100
AcDbEntity
  8
DEFPOINTS
  6
Continuous
 62
     0
100
AcDbPoint
 10
113.0
 20
-328.2235549737851
 30
0.0
  0
POINT
  5
E083
330
C9E1
100
AcDbEntity
  8
DEFPOINTS
  6
Continuous
 62
     0
100
AcDbPoint
 10
112.9999999999999
 20
-555.8194299737849
 30
0.0
  0
ENDBLK
  5
C9EC
330
C9E1
100
AcDbEntity
  8
0
100
AcDbBlockEnd
  0
BLOCK
  5
C9F7
330
C9ED
100
AcDbEntity
  8
0
100
AcDbBlockBegin
  2
*D23
 70
     1
 10
0.0
 20
0.0
 30
0.0
  3
*D23
  1

  0
LINE
  5
DF46
330
C9ED
100
AcDbEntity
  8
30
  6
Continuous
 62
     0
370
    -2
100
AcDbLine
 10
-70.0
 20
-478.723554973785
 30
0.0
 11
-70.0
 21
-556.3194299737849
 31
0.0
  0
LINE
  5
DF47
330
C9ED
100
AcDbEntity
  8
30
  6
Continuous
 62
     0
370
    -2
100
AcDbLine
 10
-113.0
 20
-330.2235549737851
 30
0.0
 11
-113.0
 21
-556.3194299737849
 31
0.0
  0
LINE
  5
DF48
330
C9ED
100
AcDbEntity
  8
30
  6
Continuous
 62
     0
370
    -2
100
AcDbLine
 10
-72.0
 20
-555.8194299737849
 30
0.0
 11
-111.0
 21
-555.8194299737849
 31
0.0
  0
INSERT
  5
DF49
330
C9ED
100
AcDbEntity
  8
30
  6
Continuous
 62
     0
370
    -2
100
AcDbBlockReference
  2
_OPEN
 10
-70.0
 20
-555.8194299737849
 30
0.0
 41
2.0
 42
2.0
 43
2.0
  0
INSERT
  5
DF4A
330
C9ED
100
AcDbEntity
  8
30
  6
Continuous
 62
     0
370
    -2
100
AcDbBlockReference
  2
_OPEN
 10
-113.0
 20
-555.8194299737849
 30
0.0
 41
2.0
 42
2.0
 43
2.0
 50
180.0
  0
MTEXT
  5
DF4B
330
C9ED
100
AcDbEntity
  8
30
  6
Continuous
 62
     0
100
AcDbMText
 10
-91.5
 20
-549.8194299737852
 30
0.0
 40
6.0
 41
0.0
 71
     5
 72
     1
  1
\A1; 43 
 73
     1
 44
1.0
  0
POINT
  5
DF4C
330
C9ED
100
AcDbEntity
  8
DEFPOINTS
  6
Continuous
 62
     0
100
AcDbPoint
 10
-70.0
 20
-475.7235549737853
 30
0.0
  0
POINT
  5
DF4D
330
C9ED
100
AcDbEntity
  8
DEFPOINTS
  6
Continuous
 62
     0
100
AcDbPoint
 10
-113.0
 20
-327.2235549737851
 30
0.0
  0
POINT
  5
DF4E
330
C9ED
100
AcDbEntity
  8
DEFPOINTS
  6
Continuous
 62
     0
100
AcDbPoint
 10
-113.0
 20
-555.8194299737849
 30
0.0
  0
ENDBLK
  5
C9F8
330
C9ED
100
AcDbEntity
  8
0
100
AcDbBlockEnd
  0
BLOCK
  5
CA03
330
C9F9
100
AcDbEntity
  8
0
100
AcDbBlockBegin
  2
*D24
 70
     1
 10
0.0
 20
0.0
 30
0.0
  3
*D24
  1

  0
LINE
  5
DF3D
330
C9F9
100
AcDbEntity
  8
30
  6
Continuous
 62
     0
370
    -2
100
AcDbLine
 10
-35.0
 20
-478.723554973785
 30
0.0
 11
-35.0
 21
-521.3194299737851
 31
0.0
  0
LINE
  5
DF3E
330
C9F9
100
AcDbEntity
  8
30
  6
Continuous
 62
     0
370
    -2
100
AcDbLine
 10
35.0
 20
-478.723554973785
 30
0.0
 11
35.0
 21
-521.3194299737851
 31
0.0
  0
LINE
  5
DF3F
330
C9F9
100
AcDbEntity
  8
30
  6
Continuous
 62
     0
370
    -2
100
AcDbLine
 10
-33.0
 20
-520.8194299737852
 30
0.0
 11
33.0
 21
-520.8194299737852
 31
0.0
  0
INSERT
  5
DF40
330
C9F9
100
AcDbEntity
  8
30
  6
Continuous
 62
     0
370
    -2
100
AcDbBlockReference
  2
_OPEN
 10
-35.0
 20
-520.8194299737852
 30
0.0
 41
2.0
 42
2.0
 43
2.0
 50
180.0
  0
INSERT
  5
DF41
330
C9F9
100
AcDbEntity
  8
30
  6
Continuous
 62
     0
370
    -2
100
AcDbBlockReference
  2
_OPEN
 10
35.0
 20
-520.8194299737852
 30
0.0
 41
2.0
 42
2.0
 43
2.0
  0
MTEXT
  5
DF42
330
C9F9
100
AcDbEntity
  8
30
  6
Continuous
 62
     0
100
AcDbMText
 10
0.0000000000000004
 20
-514.8194299737849
 30
0.0
 40
6.0
 41
0.0
 71
     5
 72
     1
  1
\A1; 70 
 73
     1
 44
1.0
  0
POINT
  5
DF43
330
C9F9
100
AcDbEntity
  8
DEFPOINTS
  6
Continuous
 62
     0
100
AcDbPoint
 10
-35.0
 20
-475.7235549737853
 30
0.0
  0
POINT
  5
DF44
330
C9F9
100
AcDbEntity
  8
DEFPOINTS
  6
Continuous
 62
     0
100
AcDbPoint
 10
35.0
 20
-475.7235549737853
 30
0.0
  0
POINT
  5
DF45
330
C9F9
100
AcDbEntity
  8
DEFPOINTS
  6
Continuous
 62
     0
100
AcDbPoint
 10
35.0
 20
-520.8194299737852
 30
0.0
  0
ENDBLK
  5
CA04
330
C9F9
100
AcDbEntity
  8
0
100
AcDbBlockEnd
  0
BLOCK
  5
CA0F
330
CA05
100
AcDbEntity
  8
0
100
AcDbBlockBegin
  2
*D25
 70
     1
 10
0.0
 20
0.0
 30
0.0
  3
*D25
  1

  0
LINE
  5
DF34
330
CA05
100
AcDbEntity
  8
30
  6
Continuous
 62
     0
370
    -2
100
AcDbLine
 10
-0.0000000000000002
 20
-478.723554973785
 30
0.0
 11
-0.0000000000000049
 21
-556.3194299737849
 31
0.0
  0
LINE
  5
DF35
330
CA05
100
AcDbEntity
  8
30
  6
Continuous
 62
     0
370
    -2
100
AcDbLine
 10
70.0
 20
-478.723554973785
 30
0.0
 11
70.0
 21
-556.3194299737849
 31
0.0
  0
LINE
  5
DF36
330
CA05
100
AcDbEntity
  8
30
  6
Continuous
 62
     0
370
    -2
100
AcDbLine
 10
1.999999999999995
 20
-555.8194299737849
 30
0.0
 11
68.0
 21
-555.8194299737849
 31
0.0
  0
INSERT
  5
DF37
330
CA05
100
AcDbEntity
  8
30
  6
Continuous
 62
     0
370
    -2
100
AcDbBlockReference
  2
_OPEN
 10
-0.0000000000000049
 20
-555.8194299737849
 30
0.0
 41
2.0
 42
2.0
 43
2.0
 50
180.0
  0
INSERT
  5
DF38
330
CA05
100
AcDbEntity
  8
30
  6
Continuous
 62
     0
370
    -2
100
AcDbBlockReference
  2
_OPEN
 10
70.0
 20
-555.8194299737849
 30
0.0
 41
2.0
 42
2.0
 43
2.0
  0
MTEXT
  5
DF39
330
CA05
100
AcDbEntity
  8
30
  6
Continuous
 62
     0
100
AcDbMText
 10
35.0
 20
-549.8194299737852
 30
0.0
 40
6.0
 41
0.0
 71
     5
 72
     1
  1
\A1; 70 
 73
     1
 44
1.0
  0
POINT
  5
DF3A
330
CA05
100
AcDbEntity
  8
DEFPOINTS
  6
Continuous
 62
     0
100
AcDbPoint
 10
0.0
 20
-475.7235549737853
 30
0.0
  0
POINT
  5
DF3B
330
CA05
100
AcDbEntity
  8
DEFPOINTS
  6
Continuous
 62
     0
100
AcDbPoint
 10
70.0
 20
-475.7235549737853
 30
0.0
  0
POINT
  5
DF3C
330
CA05
100
AcDbEntity
  8
DEFPOINTS
  6
Continuous
 62
     0
100
AcDbPoint
 10
70.0
 20
-555.8194299737849
 30
0.0
  0
ENDBLK
  5
CA10
330
CA05
100
AcDbEntity
  8
0
100
AcDbBlockEnd
  0
BLOCK
  5
CA1B
330
CA11
100
AcDbEntity
  8
0
100
AcDbBlockBegin
  2
*D26
 70
     1
 10
0.0
 20
0.0
 30
0.0
  3
*D26
  1

  0
LINE
  5
E060
330
CA11
100
AcDbEntity
  8
30
  6
Continuous
 62
     0
370
    -2
100
AcDbLine
 10
-70.0
 20
-478.723554973785
 30
0.0
 11
-70.0
 21
-556.3194299737849
 31
0.0
  0
LINE
  5
E061
330
CA11
100
AcDbEntity
  8
30
  6
Continuous
 62
     0
370
    -2
100
AcDbLine
 10
-0.0000000000000002
 20
-523.8194299737852
 30
0.0
 11
-0.0000000000000022
 21
-556.3194299737849
 31
0.0
  0
LINE
  5
E062
330
CA11
100
AcDbEntity
  8
30
  6
Continuous
 62
     0
370
    -2
100
AcDbLine
 10
-68.0
 20
-555.8194299737849
 30
0.0
 11
-2.000000000000002
 21
-555.8194299737849
 31
0.0
  0
INSERT
  5
E063
330
CA11
100
AcDbEntity
  8
30
  6
Continuous
 62
     0
370
    -2
100
AcDbBlockReference
  2
_OPEN
 10
-70.0
 20
-555.8194299737849
 30
0.0
 41
2.0
 42
2.0
 43
2.0
 50
180.0
  0
INSERT
  5
E064
330
CA11
100
AcDbEntity
  8
30
  6
Continuous
 62
     0
370
    -2
100
AcDbBlockReference
  2
_OPEN
 10
-0.0000000000000021
 20
-555.8194299737849
 30
0.0
 41
2.0
 42
2.0
 43
2.0
  0
MTEXT
  5
E065
330
CA11
100
AcDbEntity
  8
30
  6
Continuous
 62
     0
100
AcDbMText
 10
-35.0
 20
-549.8194299737852
 30
0.0
 40
6.0
 41
0.0
 71
     5
 72
     1
  1
\A1; 70 
 73
     1
 44
1.0
  0
POINT
  5
E066
330
CA11
100
AcDbEntity
  8
DEFPOINTS
  6
Continuous
 62
     0
100
AcDbPoint
 10
-70.0
 20
-475.7235549737853
 30
0.0
  0
POINT
  5
E067
330
CA11
100
AcDbEntity
  8
DEFPOINTS
  6
Continuous
 62
     0
100
AcDbPoint
 10
0.0
 20
-520.8194299737852
 30
0.0
  0
POINT
  5
E068
330
CA11
100
AcDbEntity
  8
DEFPOINTS
  6
Continuous
 62
     0
100
AcDbPoint
 10
-0.0000000000000021
 20
-555.8194299737849
 30
0.0
  0
ENDBLK
  5
CA1C
330
CA11
100
AcDbEntity
  8
0
100
AcDbBlockEnd
  0
BLOCK
  5
CA32
330
CA28
100
AcDbEntity
  8
0
100
AcDbBlockBegin
  2
*D27
 70
     1
 10
0.0
 20
0.0
 30
0.0
  3
*D27
  1

  0
LINE
  5
DF22
330
CA28
100
AcDbEntity
  8
30
  6
Continuous
 62
     0
370
    -2
100
AcDbLine
 10
-104.9999999999996
 20
-134.0000000000009
 30
0.0
 11
-104.9999999999996
 21
-161.5958750000009
 31
0.0
  0
LINE
  5
DF23
330
CA28
100
AcDbEntity
  8
30
  6
Continuous
 62
     0
370
    -2
100
AcDbLine
 10
105.0
 20
-134.0000000000009
 30
0.0
 11
105.0
 21
-161.5958750000009
 31
0.0
  0
LINE
  5
DF24
330
CA28
100
AcDbEntity
  8
30
  6
Continuous
 62
     0
370
    -2
100
AcDbLine
 10
-102.9999999999997
 20
-161.0958750000009
 30
0.0
 11
103.0
 21
-161.0958750000009
 31
0.0
  0
INSERT
  5
DF25
330
CA28
100
AcDbEntity
  8
30
  6
Continuous
 62
     0
370
    -2
100
AcDbBlockReference
  2
_OPEN
 10
-104.9999999999996
 20
-161.0958750000009
 30
0.0
 41
2.0
 42
2.0
 43
2.0
 50
180.0
  0
INSERT
  5
DF26
330
CA28
100
AcDbEntity
  8
30
  6
Continuous
 62
     0
370
    -2
100
AcDbBlockReference
  2
_OPEN
 10
105.0
 20
-161.0958750000009
 30
0.0
 41
2.0
 42
2.0
 43
2.0
  0
MTEXT
  5
DF27
330
CA28
100
AcDbEntity
  8
30
  6
Continuous
 62
     0
100
AcDbMText
 10
0.0000000000000572
 20
-155.0958750000009
 30
0.0
 40
6.0
 41
0.0
 71
     5
 72
     1
  1
\A1; 210 
 73
     1
 44
1.0
  0
POINT
  5
DF28
330
CA28
100
AcDbEntity
  8
DEFPOINTS
  6
Continuous
 62
     0
100
AcDbPoint
 10
-104.9999999999996
 20
-131.0000000000009
 30
0.0
  0
POINT
  5
DF29
330
CA28
100
AcDbEntity
  8
DEFPOINTS
  6
Continuous
 62
     0
100
AcDbPoint
 10
105.0
 20
-131.0000000000009
 30
0.0
  0
POINT
  5
DF2A
330
CA28
100
AcDbEntity
  8
DEFPOINTS
  6
Continuous
 62
     0
100
AcDbPoint
 10
105.0
 20
-161.0958750000009
 30
0.0
  0
ENDBLK
  5
CA33
330
CA28
100
AcDbEntity
  8
0
100
AcDbBlockEnd
  0
BLOCK
  5
CA3E
330
CA34
100
AcDbEntity
  8
0
100
AcDbBlockBegin
  2
*D28
 70
     1
 10
0.0
 20
0.0
 30
0.0
  3
*D28
  1

  0
LINE
  5
E069
330
CA34
100
AcDbEntity
  8
30
  6
Continuous
 62
     0
370
    -2
100
AcDbLine
 10
123.0
 20
-353.7235549737851
 30
0.0
 11
157.0245325812547
 21
-353.7235549737853
 31
0.0
  0
LINE
  5
E06A
330
CA34
100
AcDbEntity
  8
30
  6
Continuous
 62
     0
370
    -2
100
AcDbLine
 10
108.0
 20
-227.7235549737853
 30
0.0
 11
157.0245325812547
 21
-227.7235549737853
 31
0.0
  0
LINE
  5
E06B
330
CA34
100
AcDbEntity
  8
30
  6
Continuous
 62
     0
370
    -2
100
AcDbLine
 10
156.5245325812547
 20
-351.7235549737853
 30
0.0
 11
156.5245325812547
 21
-229.7235549737853
 31
0.0
  0
INSERT
  5
E06C
330
CA34
100
AcDbEntity
  8
30
  6
Continuous
 62
     0
370
    -2
100
AcDbBlockReference
  2
_OPEN
 10
156.5245325812547
 20
-353.7235549737853
 30
0.0
 41
2.0
 42
2.0
 43
2.0
 50
270.0
  0
INSERT
  5
E06D
330
CA34
100
AcDbEntity
  8
30
  6
Continuous
 62
     0
370
    -2
100
AcDbBlockReference
  2
_OPEN
 10
156.5245325812547
 20
-227.7235549737853
 30
0.0
 41
2.0
 42
2.0
 43
2.0
 50
90.0
  0
MTEXT
  5
E06E
330
CA34
100
AcDbEntity
  8
30
  6
Continuous
 62
     0
100
AcDbMText
 10
150.5245325812548
 20
-290.7235549737853
 30
0.0
 40
6.0
 41
0.0
 71
     5
 72
     1
  1
\A1; 126 
 11
0.0000000000000001
 21
1.0
 31
0.0
 73
     1
 44
1.0
  0
POINT
  5
E06F
330
CA34
100
AcDbEntity
  8
DEFPOINTS
  6
Continuous
 62
     0
100
AcDbPoint
 10
120.0
 20
-353.7235549737851
 30
0.0
  0
POINT
  5
E070
330
CA34
100
AcDbEntity
  8
DEFPOINTS
  6
Continuous
 62
     0
100
AcDbPoint
 10
105.0
 20
-227.7235549737853
 30
0.0
  0
POINT
  5
E071
330
CA34
100
AcDbEntity
  8
DEFPOINTS
  6
Continuous
 62
     0
100
AcDbPoint
 10
156.5245325812547
 20
-227.7235549737853
 30
0.0
  0
ENDBLK
  5
CA3F
330
CA34
100
AcDbEntity
  8
0
100
AcDbBlockEnd
  0
BLOCK
  5
CA49
330
CA40
100
AcDbEntity
  8
0
100
AcDbBlockBegin
  2
*D29
 70
     1
 10
0.0
 20
0.0
 30
0.0
  3
*D29
  1

  0
LINE
  5
E0DA
330
CA40
100
AcDbEntity
  8
30
  6
Continuous
 62
     0
370
    -2
100
AcDbLine
 10
-36.1179174586214
 20
-222.7601310690022
 30
0.0
 11
-42.99999999999879
 21
-192.7585372007016
 31
0.0
  0
LINE
  5
E0DB
330
CA40
100
AcDbEntity
  8
30
  6
Continuous
 62
     0
370
    -2
100
AcDbLine
 10
-42.99999999999879
 20
-192.7585372007016
 30
0.0
 11
-29.9999999999988
 21
-192.7585372007016
 31
0.0
  0
INSERT
  5
E0DC
330
CA40
100
AcDbEntity
  8
30
  6
Continuous
 62
     0
370
    -2
100
AcDbBlockReference
  2
_OPEN
 10
-35.67075047517289
 20
-224.7095006309155
 30
0.0
 41
2.0
 42
2.0
 43
2.0
 50
282.9195963585774
  0
MTEXT
  5
E0DD
330
CA40
100
AcDbEntity
  8
30
  6
Continuous
 62
     0
100
AcDbMText
 10
-34.99999999999887
 20
-186.7585372007016
 30
0.0
 40
6.0
 41
0.0
 71
     5
 72
     1
  1
\A1;M6
 73
     1
 44
1.0
  0
LINE
  5
E0DE
330
CA40
100
AcDbEntity
  8
30
  6
Continuous
 62
     0
370
    -2
100
AcDbLine
 10
-35.09000000000014
 20
-227.6335549737851
 30
0.0
 11
-34.91000000000013
 21
-227.6335549737851
 31
0.0
  0
LINE
  5
E0DF
330
CA40
100
AcDbEntity
  8
30
  6
Continuous
 62
     0
370
    -2
100
AcDbLine
 10
-35.00000000000013
 20
-227.7235549737851
 30
0.0
 11
-35.00000000000015
 21
-227.5435549737852
 31
0.0
  0
POINT
  5
E0E0
330
CA40
100
AcDbEntity
  8
DEFPOINTS
  6
Continuous
 62
     0
100
AcDbPoint
 10
-35.67075047517289
 20
-224.7095006309155
 30
0.0
  0
POINT
  5
E0E1
330
CA40
100
AcDbEntity
  8
DEFPOINTS
  6
Continuous
 62
     0
100
AcDbPoint
 10
-34.32924952482736
 20
-230.5576093166549
 30
0.0
  0
ENDBLK
  5
CA4A
330
CA40
100
AcDbEntity
  8
0
100
AcDbBlockEnd
  0
BLOCK
  5
CA55
330
CA4B
100
AcDbEntity
  8
0
100
AcDbBlockBegin
  2
*D30
 70
     1
 10
0.0
 20
0.0
 30
0.0
  3
*D30
  1

  0
LINE
  5
DF08
330
CA4B
100
AcDbEntity
  8
30
  6
Continuous
 62
     0
370
    -2
100
AcDbLine
 10
-25.29999999999994
 20
-47.00000000000096
 30
0.0
 11
-25.29999999999994
 21
-66.59587500000093
 31
0.0
  0
LINE
  5
DF09
330
CA4B
100
AcDbEntity
  8
30
  6
Continuous
 62
     0
370
    -2
100
AcDbLine
 10
25.69999999999993
 20
-47.00000000000096
 30
0.0
 11
25.69999999999993
 21
-66.59587500000093
 31
0.0
  0
LINE
  5
DF0A
330
CA4B
100
AcDbEntity
  8
30
  6
Continuous
 62
     0
370
    -2
100
AcDbLine
 10
-23.29999999999994
 20
-66.09587500000093
 30
0.0
 11
23.69999999999993
 21
-66.09587500000093
 31
0.0
  0
INSERT
  5
DF0B
330
CA4B
100
AcDbEntity
  8
30
  6
Continuous
 62
     0
370
    -2
100
AcDbBlockReference
  2
_OPEN
 10
-25.29999999999994
 20
-66.09587500000093
 30
0.0
 41
2.0
 42
2.0
 43
2.0
 50
180.0
  0
INSERT
  5
DF0C
330
CA4B
100
AcDbEntity
  8
30
  6
Continuous
 62
     0
370
    -2
100
AcDbBlockReference
  2
_OPEN
 10
25.69999999999993
 20
-66.09587500000093
 30
0.0
 41
2.0
 42
2.0
 43
2.0
  0
MTEXT
  5
DF0D
330
CA4B
100
AcDbEntity
  8
30
  6
Continuous
 62
     0
100
AcDbMText
 10
0.199999999999989
 20
-60.09587500000094
 30
0.0
 40
6.0
 41
0.0
 71
     5
 72
     1
  1
\A1; 51 
 73
     1
 44
1.0
  0
POINT
  5
DF0E
330
CA4B
100
AcDbEntity
  8
DEFPOINTS
  6
Continuous
 62
     0
100
AcDbPoint
 10
-25.29999999999994
 20
-44.00000000000097
 30
0.0
  0
POINT
  5
DF0F
330
CA4B
100
AcDbEntity
  8
DEFPOINTS
  6
Continuous
 62
     0
100
AcDbPoint
 10
25.69999999999993
 20
-44.00000000000097
 30
0.0
  0
POINT
  5
DF10
330
CA4B
100
AcDbEntity
  8
DEFPOINTS
  6
Continuous
 62
     0
100
AcDbPoint
 10
25.69999999999993
 20
-66.09587500000093
 30
0.0
  0
ENDBLK
  5
CA56
330
CA4B
100
AcDbEntity
  8
0
100
AcDbBlockEnd
  0
BLOCK
  5
CA61
330
CA57
100
AcDbEntity
  8
0
100
AcDbBlockBegin
  2
*D31
 70
     1
 10
0.0
 20
0.0
 30
0.0
  3
*D31
  1

  0
LINE
  5
DEFF
330
CA57
100
AcDbEntity
  8
30
  6
Continuous
 62
     0
370
    -2
100
AcDbLine
 10
108.0
 20
-217.7235549737853
 30
0.0
 11
176.4692079724309
 21
-217.7235549737853
 31
0.0
  0
LINE
  5
DF00
330
CA57
100
AcDbEntity
  8
30
  6
Continuous
 62
     0
370
    -2
100
AcDbLine
 10
108.0
 20
-353.7235549737851
 30
0.0
 11
176.4692079724309
 21
-353.7235549737853
 31
0.0
  0
LINE
  5
DF01
330
CA57
100
AcDbEntity
  8
30
  6
Continuous
 62
     0
370
    -2
100
AcDbLine
 10
175.9692079724309
 20
-219.7235549737853
 30
0.0
 11
175.9692079724309
 21
-351.7235549737853
 31
0.0
  0
INSERT
  5
DF02
330
CA57
100
AcDbEntity
  8
30
  6
Continuous
 62
     0
370
    -2
100
AcDbBlockReference
  2
_OPEN
 10
175.9692079724309
 20
-217.7235549737853
 30
0.0
 41
2.0
 42
2.0
 43
2.0
 50
90.0
  0
INSERT
  5
DF03
330
CA57
100
AcDbEntity
  8
30
  6
Continuous
 62
     0
370
    -2
100
AcDbBlockReference
  2
_OPEN
 10
175.9692079724309
 20
-353.7235549737853
 30
0.0
 41
2.0
 42
2.0
 43
2.0
 50
270.0
  0
MTEXT
  5
DF04
330
CA57
100
AcDbEntity
  8
30
  6
Continuous
 62
     0
100
AcDbMText
 10
169.9692079724307
 20
-285.7235549737853
 30
0.0
 40
6.0
 41
0.0
 71
     5
 72
     1
  1
\A1; 136 
 11
0.0000000000000001
 21
1.0
 31
0.0
 73
     1
 44
1.0
  0
POINT
  5
DF05
330
CA57
100
AcDbEntity
  8
DEFPOINTS
  6
Continuous
 62
     0
100
AcDbPoint
 10
105.0
 20
-217.7235549737853
 30
0.0
  0
POINT
  5
DF06
330
CA57
100
AcDbEntity
  8
DEFPOINTS
  6
Continuous
 62
     0
100
AcDbPoint
 10
105.0
 20
-353.7235549737851
 30
0.0
  0
POINT
  5
DF07
330
CA57
100
AcDbEntity
  8
DEFPOINTS
  6
Continuous
 62
     0
100
AcDbPoint
 10
175.9692079724309
 20
-353.7235549737853
 30
0.0
  0
ENDBLK
  5
CA62
330
CA57
100
AcDbEntity
  8
0
100
AcDbBlockEnd
  0
BLOCK
  5
CA6D
330
CA63
100
AcDbEntity
  8
0
100
AcDbBlockBegin
  2
*D32
 70
     1
 10
0.0
 20
0.0
 30
0.0
  3
*D32
  1

  0
LINE
  5
E072
330
CA63
100
AcDbEntity
  8
30
  6
Continuous
 62
     0
370
    -2
100
AcDbLine
 10
109.0
 20
-353.7235549737851
 30
0.0
 11
139.6539000000002
 21
-353.7235549737853
 31
0.0
  0
LINE
  5
E073
330
CA63
100
AcDbEntity
  8
30
  6
Continuous
 62
     0
370
    -2
100
AcDbLine
 10
115.9999999999997
 20
-323.2235549737853
 30
0.0
 11
139.6539000000002
 21
-323.2235549737854
 31
0.0
  0
LINE
  5
E074
330
CA63
100
AcDbEntity
  8
30
  6
Continuous
 62
     0
370
    -2
100
AcDbLine
 10
139.1539000000002
 20
-351.7235549737853
 30
0.0
 11
139.1539000000002
 21
-325.2235549737854
 31
0.0
  0
INSERT
  5
E075
330
CA63
100
AcDbEntity
  8
30
  6
Continuous
 62
     0
370
    -2
100
AcDbBlockReference
  2
_OPEN
 10
139.1539000000002
 20
-353.7235549737853
 30
0.0
 41
2.0
 42
2.0
 43
2.0
 50
270.0
  0
INSERT
  5
E076
330
CA63
100
AcDbEntity
  8
30
  6
Continuous
 62
     0
370
    -2
100
AcDbBlockReference
  2
_OPEN
 10
139.1539000000002
 20
-323.2235549737854
 30
0.0
 41
2.0
 42
2.0
 43
2.0
 50
90.0
  0
MTEXT
  5
E077
330
CA63
100
AcDbEntity
  8
30
  6
Continuous
 62
     0
100
AcDbMText
 10
133.1539000000003
 20
-338.4735549737853
 30
0.0
 40
6.0
 41
0.0
 71
     5
 72
     1
  1
\A1; 30.5 
 11
0.0000000000000001
 21
1.0
 31
0.0
 73
     1
 44
1.0
  0
POINT
  5
E078
330
CA63
100
AcDbEntity
  8
DEFPOINTS
  6
Continuous
 62
     0
100
AcDbPoint
 10
106.0
 20
-353.7235549737851
 30
0.0
  0
POINT
  5
E079
330
CA63
100
AcDbEntity
  8
DEFPOINTS
  6
Continuous
 62
     0
100
AcDbPoint
 10
112.9999999999997
 20
-323.2235549737853
 30
0.0
  0
POINT
  5
E07A
330
CA63
100
AcDbEntity
  8
DEFPOINTS
  6
Continuous
 62
     0
100
AcDbPoint
 10
139.1539000000002
 20
-323.2235549737854
 30
0.0
  0
ENDBLK
  5
CA6E
330
CA63
100
AcDbEntity
  8
0
100
AcDbBlockEnd
  0
BLOCK
  5
CA79
330
CA6F
100
AcDbEntity
  8
0
100
AcDbBlockBegin
  2
*D33
 70
     1
 10
0.0
 20
0.0
 30
0.0
  3
*D33
  1

  0
LINE
  5
DEED
330
CA6F
100
AcDbEntity
  8
30
  6
Continuous
 62
     0
370
    -2
100
AcDbLine
 10
-84.79999999999995
 20
53.99999999999891
 30
0.0
 11
-84.79999999999995
 21
84.40412499999894
 31
0.0
  0
LINE
  5
DEEE
330
CA6F
100
AcDbEntity
  8
30
  6
Continuous
 62
     0
370
    -2
100
AcDbLine
 10
85.19999999999994
 20
53.99999999999891
 30
0.0
 11
85.19999999999994
 21
84.40412499999894
 31
0.0
  0
LINE
  5
DEEF
330
CA6F
100
AcDbEntity
  8
30
  6
Continuous
 62
     0
370
    -2
100
AcDbLine
 10
-82.79999999999995
 20
83.90412499999895
 30
0.0
 11
83.19999999999993
 21
83.90412499999895
 31
0.0
  0
INSERT
  5
DEF0
330
CA6F
100
AcDbEntity
  8
30
  6
Continuous
 62
     0
370
    -2
100
AcDbBlockReference
  2
_OPEN
 10
-84.79999999999995
 20
83.90412499999895
 30
0.0
 41
2.0
 42
2.0
 43
2.0
 50
180.0
  0
INSERT
  5
DEF1
330
CA6F
100
AcDbEntity
  8
30
  6
Continuous
 62
     0
370
    -2
100
AcDbBlockReference
  2
_OPEN
 10
85.19999999999994
 20
83.90412499999895
 30
0.0
 41
2.0
 42
2.0
 43
2.0
  0
MTEXT
  5
DEF2
330
CA6F
100
AcDbEntity
  8
30
  6
Continuous
 62
     0
100
AcDbMText
 10
0.199999999999989
 20
89.90412499999893
 30
0.0
 40
6.0
 41
0.0
 71
     5
 72
     1
  1
\A1; 170 
 73
     1
 44
1.0
  0
POINT
  5
DEF3
330
CA6F
100
AcDbEntity
  8
DEFPOINTS
  6
Continuous
 62
     0
100
AcDbPoint
 10
-84.79999999999995
 20
50.99999999999892
 30
0.0
  0
POINT
  5
DEF4
330
CA6F
100
AcDbEntity
  8
DEFPOINTS
  6
Continuous
 62
     0
100
AcDbPoint
 10
85.19999999999994
 20
50.99999999999892
 30
0.0
  0
POINT
  5
DEF5
330
CA6F
100
AcDbEntity
  8
DEFPOINTS
  6
Continuous
 62
     0
100
AcDbPoint
 10
85.19999999999994
 20
83.90412499999895
 30
0.0
  0
ENDBLK
  5
CA7A
330
CA6F
100
AcDbEntity
  8
0
100
AcDbBlockEnd
  0
BLOCK
  5
D81B
330
D811
100
AcDbEntity
  8
0
100
AcDbBlockBegin
  2
*D34
 70
     1
 10
0.0
 20
0.0
 30
0.0
  3
*D34
  1

  0
LINE
  5
DEE4
330
D811
100
AcDbEntity
  8
30
  6
Continuous
 62
     0
370
    -2
100
AcDbLine
 10
463.0
 20
-205.5670221558808
 30
0.0
 11
463.0
 21
-208.0670221558808
 31
0.0
  0
LINE
  5
DEE5
330
D811
100
AcDbEntity
  8
30
  6
Continuous
 62
     0
370
    -2
100
AcDbLine
 10
585.0
 20
-141.4999999999998
 30
0.0
 11
585.0
 21
-209.0670221558807
 31
0.0
  0
LINE
  5
DEE6
330
D811
100
AcDbEntity
  8
30
  6
Continuous
 62
     0
370
    -2
100
AcDbLine
 10
465.0
 20
-208.5670221558808
 30
0.0
 11
583.0
 21
-208.5670221558808
 31
0.0
  0
INSERT
  5
DEE7
330
D811
100
AcDbEntity
  8
30
  6
Continuous
 62
     0
370
    -2
100
AcDbBlockReference
  2
_OPEN
 10
463.0
 20
-208.5670221558808
 30
0.0
 41
2.0
 42
2.0
 43
2.0
 50
180.0
  0
INSERT
  5
DEE8
330
D811
100
AcDbEntity
  8
30
  6
Continuous
 62
     0
370
    -2
100
AcDbBlockReference
  2
_OPEN
 10
585.0
 20
-208.5670221558808
 30
0.0
 41
2.0
 42
2.0
 43
2.0
  0
MTEXT
  5
DEE9
330
D811
100
AcDbEntity
  8
30
  6
Continuous
 62
     0
100
AcDbMText
 10
524.0
 20
-202.5670221558808
 30
0.0
 40
6.0
 41
0.0
 71
     5
 72
     1
  1
\A1;122
 73
     1
 44
1.0
  0
POINT
  5
DEEA
330
D811
100
AcDbEntity
  8
DEFPOINTS
  6
Continuous
 62
     0
100
AcDbPoint
 10
463.0
 20
-208.5670221558808
 30
0.0
  0
POINT
  5
DEEB
330
D811
100
AcDbEntity
  8
DEFPOINTS
  6
Continuous
 62
     0
100
AcDbPoint
 10
585.0
 20
-138.4999999999998
 30
0.0
  0
POINT
  5
DEEC
330
D811
100
AcDbEntity
  8
DEFPOINTS
  6
Continuous
 62
     0
100
AcDbPoint
 10
585.0
 20
-208.5670221558808
 30
0.0
  0
ENDBLK
  5
D81C
330
D811
100
AcDbEntity
  8
0
100
AcDbBlockEnd
  0
BLOCK
  5
D827
330
D81D
100
AcDbEntity
  8
0
100
AcDbBlockBegin
  2
*D35
 70
     1
 10
0.0
 20
0.0
 30
0.0
  3
*D35
  1

  0
LINE
  5
DEDB
330
D81D
100
AcDbEntity
  8
30
  6
Continuous
 62
     0
370
    -2
100
AcDbLine
 10
463.0
 20
-187.5
 30
0.0
 11
463.0
 21
-190.0
 31
0.0
  0
LINE
  5
DEDC
330
D81D
100
AcDbEntity
  8
30
  6
Continuous
 62
     0
370
    -2
100
AcDbLine
 10
525.0
 20
-151.4999999999999
 30
0.0
 11
525.0
 21
-191.0
 31
0.0
  0
LINE
  5
DEDD
330
D81D
100
AcDbEntity
  8
30
  6
Continuous
 62
     0
370
    -2
100
AcDbLine
 10
465.0
 20
-190.5
 30
0.0
 11
523.0
 21
-190.5
 31
0.0
  0
INSERT
  5
DEDE
330
D81D
100
AcDbEntity
  8
30
  6
Continuous
 62
     0
370
    -2
100
AcDbBlockReference
  2
_OPEN
 10
463.0
 20
-190.5
 30
0.0
 41
2.0
 42
2.0
 43
2.0
 50
180.0
  0
INSERT
  5
DEDF
330
D81D
100
AcDbEntity
  8
30
  6
Continuous
 62
     0
370
    -2
100
AcDbBlockReference
  2
_OPEN
 10
525.0
 20
-190.5
 30
0.0
 41
2.0
 42
2.0
 43
2.0
  0
MTEXT
  5
DEE0
330
D81D
100
AcDbEntity
  8
30
  6
Continuous
 62
     0
100
AcDbMText
 10
494.0
 20
-184.4999999999999
 30
0.0
 40
6.0
 41
0.0
 71
     5
 72
     1
  1
\A1;62
 73
     1
 44
1.0
  0
POINT
  5
DEE1
330
D81D
100
AcDbEntity
  8
DEFPOINTS
  6
Continuous
 62
     0
100
AcDbPoint
 10
463.0
 20
-190.5
 30
0.0
  0
POINT
  5
DEE2
330
D81D
100
AcDbEntity
  8
DEFPOINTS
  6
Continuous
 62
     0
100
AcDbPoint
 10
525.0
 20
-148.4999999999999
 30
0.0
  0
POINT
  5
DEE3
330
D81D
100
AcDbEntity
  8
DEFPOINTS
  6
Continuous
 62
     0
100
AcDbPoint
 10
525.0
 20
-190.5
 30
0.0
  0
ENDBLK
  5
D828
330
D81D
100
AcDbEntity
  8
0
100
AcDbBlockEnd
  0
BLOCK
  5
D834
330
D829
100
AcDbEntity
  8
0
100
AcDbBlockBegin
  2
*D36
 70
     1
 10
0.0
 20
0.0
 30
0.0
  3
*D36
  1

  0
LINE
  5
DED2
330
D829
100
AcDbEntity
  8
30
  6
Continuous
 62
     0
370
    -2
100
AcDbLine
 10
533.0
 20
-151.4999999999999
 30
0.0
 11
533.0
 21
-191.0
 31
0.0
  0
LINE
  5
DED3
330
D829
100
AcDbEntity
  8
30
  6
Continuous
 62
     0
370
    -2
100
AcDbLine
 10
565.0
 20
-126.4999999999999
 30
0.0
 11
565.0
 21
-191.0
 31
0.0
  0
LINE
  5
DED4
330
D829
100
AcDbEntity
  8
30
  6
Continuous
 62
     0
370
    -2
100
AcDbLine
 10
535.0
 20
-190.5
 30
0.0
 11
563.0
 21
-190.5
 31
0.0
  0
INSERT
  5
DED5
330
D829
100
AcDbEntity
  8
30
  6
Continuous
 62
     0
370
    -2
100
AcDbBlockReference
  2
_OPEN
 10
533.0
 20
-190.5
 30
0.0
 41
2.0
 42
2.0
 43
2.0
 50
180.0
  0
INSERT
  5
DED6
330
D829
100
AcDbEntity
  8
30
  6
Continuous
 62
     0
370
    -2
100
AcDbBlockReference
  2
_OPEN
 10
565.0
 20
-190.5
 30
0.0
 41
2.0
 42
2.0
 43
2.0
  0
MTEXT
  5
DED7
330
D829
100
AcDbEntity
  8
30
  6
Continuous
 62
     0
100
AcDbMText
 10
553.0
 20
-184.4999999999999
 30
0.0
 40
6.0
 41
0.0
 71
     5
 72
     1
  1
\A1;32
 73
     1
 44
1.0
  0
POINT
  5
DED8
330
D829
100
AcDbEntity
  8
DEFPOINTS
  6
Continuous
 62
     0
100
AcDbPoint
 10
533.0
 20
-148.4999999999999
 30
0.0
  0
POINT
  5
DED9
330
D829
100
AcDbEntity
  8
DEFPOINTS
  6
Continuous
 62
     0
100
AcDbPoint
 10
565.0
 20
-123.4999999999997
 30
0.0
  0
POINT
  5
DEDA
330
D829
100
AcDbEntity
  8
DEFPOINTS
  6
Continuous
 62
     0
100
AcDbPoint
 10
565.0
 20
-190.5
 30
0.0
  0
ENDBLK
  5
D835
330
D829
100
AcDbEntity
  8
0
100
AcDbBlockEnd
  0
BLOCK
  5
D840
330
D836
100
AcDbEntity
  8
0
100
AcDbBlockBegin
  2
*D37
 70
     1
 10
0.0
 20
0.0
 30
0.0
  3
*D37
  1

  0
LINE
  5
E016
330
D836
100
AcDbEntity
  8
30
  6
Continuous
 62
     0
370
    -2
100
AcDbLine
 10
525.0
 20
-154.4999999999999
 30
0.0
 11
525.0
 21
-191.0
 31
0.0
  0
LINE
  5
E017
330
D836
100
AcDbEntity
  8
30
  6
Continuous
 62
     0
370
    -2
100
AcDbLine
 10
533.0
 20
-174.0
 30
0.0
 11
533.0
 21
-191.0
 31
0.0
  0
LINE
  5
E018
330
D836
100
AcDbEntity
  8
30
  6
Continuous
 62
     0
370
    -2
100
AcDbLine
 10
523.0
 20
-190.5
 30
0.0
 11
521.0
 21
-190.5
 31
0.0
  0
LINE
  5
E019
330
D836
100
AcDbEntity
  8
30
  6
Continuous
 62
     0
370
    -2
100
AcDbLine
 10
535.0
 20
-190.5
 30
0.0
 11
537.0
 21
-190.5
 31
0.0
  0
LINE
  5
E01A
330
D836
100
AcDbEntity
  8
30
  6
Continuous
 62
     0
370
    -2
100
AcDbLine
 10
525.0
 20
-190.5
 30
0.0
 11
533.0
 21
-190.5
 31
0.0
  0
INSERT
  5
E01B
330
D836
100
AcDbEntity
  8
30
  6
Continuous
 62
     0
370
    -2
100
AcDbBlockReference
  2
_OPEN
 10
525.0
 20
-190.5
 30
0.0
 41
2.0
 42
2.0
 43
2.0
  0
INSERT
  5
E01C
330
D836
100
AcDbEntity
  8
30
  6
Continuous
 62
     0
370
    -2
100
AcDbBlockReference
  2
_OPEN
 10
533.0
 20
-190.5
 30
0.0
 41
2.0
 42
2.0
 43
2.0
 50
180.0
  0
MTEXT
  5
E01D
330
D836
100
AcDbEntity
  8
30
  6
Continuous
 62
     0
100
AcDbMText
 10
529.0
 20
-184.4999999999999
 30
0.0
 40
6.0
 41
0.0
 71
     5
 72
     1
  1
\A1;8
 73
     1
 44
1.0
  0
POINT
  5
E01E
330
D836
100
AcDbEntity
  8
DEFPOINTS
  6
Continuous
 62
     0
100
AcDbPoint
 10
525.0
 20
-151.4999999999999
 30
0.0
  0
POINT
  5
E01F
330
D836
100
AcDbEntity
  8
DEFPOINTS
  6
Continuous
 62
     0
100
AcDbPoint
 10
533.0
 20
-171.0
 30
0.0
  0
POINT
  5
E020
330
D836
100
AcDbEntity
  8
DEFPOINTS
  6
Continuous
 62
     0
100
AcDbPoint
 10
533.0
 20
-190.5
 30
0.0
  0
ENDBLK
  5
D841
330
D836
100
AcDbEntity
  8
0
100
AcDbBlockEnd
  0
BLOCK
  5
D84C
330
D842
100
AcDbEntity
  8
0
100
AcDbBlockBegin
  2
*D38
 70
     1
 10
0.0
 20
0.0
 30
0.0
  3
*D38
  1

  0
LINE
  5
E084
330
D842
100
AcDbEntity
  8
30
  6
Continuous
 62
     0
370
    -2
100
AcDbLine
 10
565.0
 20
-151.4999999999999
 30
0.0
 11
565.0
 21
-190.9864864338933
 31
0.0
  0
LINE
  5
E085
330
D842
100
AcDbEntity
  8
30
  6
Continuous
 62
     0
370
    -2
100
AcDbLine
 10
585.0
 20
-160.4467112499683
 30
0.0
 11
585.0
 21
-190.9864864338933
 31
0.0
  0
LINE
  5
E086
330
D842
100
AcDbEntity
  8
30
  6
Continuous
 62
     0
370
    -2
100
AcDbLine
 10
567.0
 20
-190.486486433893
 30
0.0
 11
583.0
 21
-190.486486433893
 31
0.0
  0
INSERT
  5
E087
330
D842
100
AcDbEntity
  8
30
  6
Continuous
 62
     0
370
    -2
100
AcDbBlockReference
  2
_OPEN
 10
565.0
 20
-190.486486433893
 30
0.0
 41
2.0
 42
2.0
 43
2.0
 50
180.0
  0
INSERT
  5
E088
330
D842
100
AcDbEntity
  8
30
  6
Continuous
 62
     0
370
    -2
100
AcDbBlockReference
  2
_OPEN
 10
585.0
 20
-190.486486433893
 30
0.0
 41
2.0
 42
2.0
 43
2.0
  0
MTEXT
  5
E089
330
D842
100
AcDbEntity
  8
30
  6
Continuous
 62
     0
100
AcDbMText
 10
575.0
 20
-184.4864864338933
 30
0.0
 40
6.0
 41
0.0
 71
     5
 72
     1
  1
\A1;20
 73
     1
 44
1.0
  0
POINT
  5
E08A
330
D842
100
AcDbEntity
  8
DEFPOINTS
  6
Continuous
 62
     0
100
AcDbPoint
 10
565.0
 20
-148.4999999999999
 30
0.0
  0
POINT
  5
E08B
330
D842
100
AcDbEntity
  8
DEFPOINTS
  6
Continuous
 62
     0
100
AcDbPoint
 10
585.0
 20
-157.4467112499683
 30
0.0
  0
POINT
  5
E08C
330
D842
100
AcDbEntity
  8
DEFPOINTS
  6
Continuous
 62
     0
100
AcDbPoint
 10
585.0
 20
-190.486486433893
 30
0.0
  0
ENDBLK
  5
D84D
330
D842
100
AcDbEntity
  8
0
100
AcDbBlockEnd
  0
BLOCK
  5
DD06
330
DCFD
100
AcDbEntity
  8
0
100
AcDbBlockBegin
  2
*D39
 70
     1
 10
0.0
 20
0.0
 30
0.0
  3
*D39
  1

  0
LINE
  5
DEB7
330
DCFD
100
AcDbEntity
  8
30
  6
Continuous
 62
     0
370
    -2
100
AcDbLine
 10
-80.95264340257887
 20
-491.5151302507076
 30
0.0
 11
-59.04735659742105
 21
-449.9319796968623
 31
0.0
  0
LINE
  5
DEB8
330
DCFD
100
AcDbEntity
  8
30
  6
Continuous
 62
     0
370
    -2
100
AcDbLine
 10
-58.11521673337175
 20
-448.1624839286133
 30
0.0
 11
-54.13122825533957
 21
-440.5996159250872
 31
0.0
  0
LINE
  5
DEB9
330
DCFD
100
AcDbEntity
  8
30
  6
Continuous
 62
     0
370
    -2
100
AcDbLine
 10
-54.13122825533957
 20
-440.5996159250872
 30
0.0
 11
-37.13122825533954
 21
-440.5996159250872
 31
0.0
  0
INSERT
  5
DEBA
330
DCFD
100
AcDbEntity
  8
30
  6
Continuous
 62
     0
370
    -2
100
AcDbBlockReference
  2
_OPEN
 10
-81.88478326662812
 20
-493.2846260189561
 30
0.0
 41
2.0
 42
2.0
 43
2.0
 50
242.2205117884233
  0
INSERT
  5
DEBB
330
DCFD
100
AcDbEntity
  8
30
  6
Continuous
 62
     0
370
    -2
100
AcDbBlockReference
  2
_OPEN
 10
-58.11521673337175
 20
-448.1624839286133
 30
0.0
 41
2.0
 42
2.0
 43
2.0
 50
62.22051178842333
  0
MTEXT
  5
DEBC
330
DCFD
100
AcDbEntity
  8
30
  6
Continuous
 62
     0
100
AcDbMText
 10
-44.13122825533953
 20
-434.5996159250872
 30
0.0
 40
6.0
 41
0.0
 71
     5
 72
     1
  1
\A1;\U+220551
 73
     1
 44
1.0
  0
POINT
  5
DEBD
330
DCFD
100
AcDbEntity
  8
DEFPOINTS
  6
Continuous
 62
     0
100
AcDbPoint
 10
-58.11521673337175
 20
-448.1624839286133
 30
0.0
  0
POINT
  5
DEBE
330
DCFD
100
AcDbEntity
  8
DEFPOINTS
  6
Continuous
 62
     0
100
AcDbPoint
 10
-81.88478326662812
 20
-493.2846260189561
 30
0.0
  0
ENDBLK
  5
DD07
330
DCFD
100
AcDbEntity
  8
0
100
AcDbBlockEnd
  0
BLOCK
  5
DD13
330
DD09
100
AcDbEntity
  8
0
100
AcDbBlockBegin
  2
*D40
 70
     1
 10
0.0
 20
0.0
 30
0.0
  3
*D40
  1

  0
LINE
  5
E04C
330
DD09
100
AcDbEntity
  8
30
  6
Continuous
 62
     0
370
    -2
100
AcDbLine
 10
109.4999999999995
 20
-485.7235549737853
 30
0.0
 11
176.4692079724304
 21
-485.7235549737855
 31
0.0
  0
LINE
  5
E04D
330
DD09
100
AcDbEntity
  8
30
  6
Continuous
 62
     0
370
    -2
100
AcDbLine
 10
108.4999999999995
 20
-480.7235549737852
 30
0.0
 11
176.4692079724304
 21
-480.7235549737852
 31
0.0
  0
LINE
  5
E04E
330
DD09
100
AcDbEntity
  8
30
  6
Continuous
 62
     0
370
    -2
100
AcDbLine
 10
175.9692079724304
 20
-487.7235549737855
 30
0.0
 11
175.9692079724304
 21
-489.7235549737855
 31
0.0
  0
LINE
  5
E04F
330
DD09
100
AcDbEntity
  8
30
  6
Continuous
 62
     0
370
    -2
100
AcDbLine
 10
175.9692079724304
 20
-478.7235549737854
 30
0.0
 11
175.9692079724304
 21
-476.7235549737853
 31
0.0
  0
LINE
  5
E050
330
DD09
100
AcDbEntity
  8
30
  6
Continuous
 62
     0
370
    -2
100
AcDbLine
 10
175.9692079724304
 20
-485.7235549737855
 30
0.0
 11
175.9692079724304
 21
-480.7235549737852
 31
0.0
  0
INSERT
  5
E051
330
DD09
100
AcDbEntity
  8
30
  6
Continuous
 62
     0
370
    -2
100
AcDbBlockReference
  2
_OPEN
 10
175.9692079724304
 20
-485.7235549737855
 30
0.0
 41
2.0
 42
2.0
 43
2.0
 50
90.0
  0
INSERT
  5
E052
330
DD09
100
AcDbEntity
  8
30
  6
Continuous
 62
     0
370
    -2
100
AcDbBlockReference
  2
_OPEN
 10
175.9692079724304
 20
-480.7235549737852
 30
0.0
 41
2.0
 42
2.0
 43
2.0
 50
270.0
  0
MTEXT
  5
E053
330
DD09
100
AcDbEntity
  8
30
  6
Continuous
 62
     0
100
AcDbMText
 10
170.4692079724305
 20
-483.2235549737854
 30
0.0
 40
5.0
 41
0.0
 71
     5
 72
     1
  1
\A1;5
 11
0.0000000000000001
 21
1.0
 31
0.0
 73
     1
 44
1.0
  0
POINT
  5
E054
330
DD09
100
AcDbEntity
  8
DEFPOINTS
  6
Continuous
 62
     0
100
AcDbPoint
 10
106.4999999999995
 20
-485.7235549737853
 30
0.0
  0
POINT
  5
E055
330
DD09
100
AcDbEntity
  8
DEFPOINTS
  6
Continuous
 62
     0
100
AcDbPoint
 10
105.4999999999995
 20
-480.7235549737852
 30
0.0
  0
POINT
  5
E056
330
DD09
100
AcDbEntity
  8
DEFPOINTS
  6
Continuous
 62
     0
100
AcDbPoint
 10
175.9692079724304
 20
-480.7235549737852
 30
0.0
  0
ENDBLK
  5
DD14
330
DD09
100
AcDbEntity
  8
0
100
AcDbBlockEnd
  0
BLOCK
  5
E09A
330
E08E
100
AcDbEntity
  8
0
100
AcDbBlockBegin
  2
*D41
 70
     1
 10
0.0
 20
0.0
 30
0.0
  3
*D41
  1

  0
LINE
  5
E09C
330
E08E
100
AcDbEntity
  8
30
  6
Continuous
 62
     0
370
    -2
100
AcDbLine
 10
532.0
 20
-110.4999999999997
 30
0.0
 11
552.5840630160936
 21
-110.4999999999997
 31
0.0
  0
LINE
  5
E09D
330
E08E
100
AcDbEntity
  8
30
  6
Continuous
 62
     0
370
    -2
100
AcDbLine
 10
531.9999999999999
 20
-123.4999999999996
 30
0.0
 11
552.5840630160936
 21
-123.4999999999996
 31
0.0
  0
LINE
  5
E09E
330
E08E
100
AcDbEntity
  8
30
  6
Continuous
 62
     0
370
    -2
100
AcDbLine
 10
552.0840630160936
 20
-112.4999999999998
 30
0.0
 11
552.0840630160936
 21
-121.4999999999996
 31
0.0
  0
INSERT
  5
E09F
330
E08E
100
AcDbEntity
  8
30
  6
Continuous
 62
     0
370
    -2
100
AcDbBlockReference
  2
_OPEN
 10
552.0840630160936
 20
-110.4999999999997
 30
0.0
 41
2.0
 42
2.0
 43
2.0
 50
90.0
  0
INSERT
  5
E0A0
330
E08E
100
AcDbEntity
  8
30
  6
Continuous
 62
     0
370
    -2
100
AcDbBlockReference
  2
_OPEN
 10
552.0840630160936
 20
-123.4999999999996
 30
0.0
 41
2.0
 42
2.0
 43
2.0
 50
270.0
  0
MTEXT
  5
E0A1
330
E08E
100
AcDbEntity
  8
30
  6
Continuous
 62
     0
100
AcDbMText
 10
546.0840630160936
 20
-116.9999999999997
 30
0.0
 40
6.0
 41
0.0
 71
     5
 72
     1
  1
\A1;13
 11
0.0000000000000001
 21
1.0
 31
0.0
 73
     1
 44
1.0
  0
POINT
  5
E0A2
330
E08E
100
AcDbEntity
  8
DEFPOINTS
  6
Continuous
 62
     0
100
AcDbPoint
 10
529.0
 20
-110.4999999999997
 30
0.0
  0
POINT
  5
E0A3
330
E08E
100
AcDbEntity
  8
DEFPOINTS
  6
Continuous
 62
     0
100
AcDbPoint
 10
528.9999999999999
 20
-123.4999999999996
 30
0.0
  0
POINT
  5
E0A4
330
E08E
100
AcDbEntity
  8
DEFPOINTS
  6
Continuous
 62
     0
100
AcDbPoint
 10
552.0840630160936
 20
-123.4999999999996
 30
0.0
  0
ENDBLK
  5
E09B
330
E08E
100
AcDbEntity
  8
0
100
AcDbBlockEnd
  0
BLOCK
  5
E0ED
330
E0E4
100
AcDbEntity
  8
0
100
AcDbBlockBegin
  2
*D42
 70
     1
 10
0.0
 20
0.0
 30
0.0
  3
*D42
  1

  0
LINE
  5
E0F7
330
E0E4
100
AcDbEntity
  8
30
  6
Continuous
 62
     0
370
    -2
100
AcDbLine
 10
-35.71846296392857
 20
-221.7667260380626
 30
0.0
 11
-38.09837012760681
 21
-202.034741831927
 31
0.0
  0
LINE
  5
E0F8
330
E0E4
100
AcDbEntity
  8
30
  6
Continuous
 62
     0
370
    -2
100
AcDbLine
 10
-38.09837012760681
 20
-202.034741831927
 30
0.0
 11
-25.0983701276068
 21
-202.034741831927
 31
0.0
  0
INSERT
  5
E0F9
330
E0E4
100
AcDbEntity
  8
30
  6
Continuous
 62
     0
370
    -2
100
AcDbBlockReference
  2
_OPEN
 10
-35.47897530928571
 20
-223.7523356833035
 30
0.0
 41
2.0
 42
2.0
 43
2.0
 50
276.877318362411
  0
MTEXT
  5
E0FA
330
E0E4
100
AcDbEntity
  8
30
  6
Continuous
 62
     0
100
AcDbMText
 10
-30.09837012760682
 20
-196.0347418319271
 30
0.0
 40
6.0
 41
0.0
 71
     5
 72
     1
  1
\A1;M8
 73
     1
 44
1.0
  0
LINE
  5
E0FB
330
E0E4
100
AcDbEntity
  8
30
  6
Continuous
 62
     0
370
    -2
100
AcDbLine
 10
-35.08999999999999
 20
-227.7235549737851
 30
0.0
 11
-34.90999999999999
 21
-227.7235549737851
 31
0.0
  0
LINE
  5
E0FC
330
E0E4
100
AcDbEntity
  8
30
  6
Continuous
 62
     0
370
    -2
100
AcDbLine
 10
-35.0
 20
-227.8135549737851
 30
0.0
 11
-35.0
 21
-227.6335549737851
 31
0.0
  0
POINT
  5
E0FD
330
E0E4
100
AcDbEntity
  8
DEFPOINTS
  6
Continuous
 62
     0
100
AcDbPoint
 10
-35.47897530928571
 20
-223.7523356833035
 30
0.0
  0
POINT
  5
E0FE
330
E0E4
100
AcDbEntity
  8
DEFPOINTS
  6
Continuous
 62
     0
100
AcDbPoint
 10
-34.52102469071427
 20
-231.6947742642669
 30
0.0
  0
ENDBLK
  5
E0EE
330
E0E4
100
AcDbEntity
  8
0
100
AcDbBlockEnd
  0
ENDSEC
  0
SECTION
  2
ENTITIES
  0
MTEXT
  5
BF3
330
1E
100
AcDbEntity
  8
24
  6
Continuous
100
AcDbMText
 10
-959.1964146395261
 20
176.6241271810525
 30
0.0
 40
3.0
 41
0.0
 71
     1
 72
     1
  1
\A1;
 73
     1
 44
1.0
  0
MTEXT
  5
5C78
330
1E
100
AcDbEntity
  8
30
  6
Continuous
100
AcDbMText
 10
-937.8487462462183
 20
89.27438432631687
 30
0.0
 40
4.0
 41
0.0
 71
     9
 72
     1
  1

 73
     1
 44
1.0
  0
MTEXT
  5
6200
330
1E
100
AcDbEntity
  8
30
  6
Continuous
100
AcDbMText
 10
-939.5495044815866
 20
91.5141847924192
 30
0.0
 40
4.0
 41
0.0
 71
     9
 72
     1
  1

 73
     1
 44
1.0
  0
MTEXT
  5
7CA7
330
1E
100
AcDbEntity
  8
30
  6
Continuous
100
AcDbMText
 10
-889.3098634446728
 20
139.798061097065
 30
0.0
 40
4.0
 41
0.0
 71
     9
 72
     1
  1
\A1;
 73
     1
 44
1.0
  0
MTEXT
  5
7CA9
330
1E
100
AcDbEntity
  8
30
  6
Continuous
100
AcDbMText
 10
-882.5696240950307
 20
137.0851630158117
 30
0.0
 40
4.0
 41
0.0
 71
     9
 72
     1
  1
\A1;
 73
     1
 44
1.0
  0
MTEXT
  5
7E8C
330
1E
100
AcDbEntity
  8
19
  6
Continuous
100
AcDbMText
 10
432.0271133366653
 20
258.0232394114066
 30
0.0
 40
5.0
 41
75.9755525904107
 71
     1
 72
     5
  1
S1000-CE 3P RC\PS1000-NN 3P RC\PS1000-ND 3P RC
  7
STANDARD1
 73
     1
 44
1.0
  0
LINE
  5
9F2E
330
1E
100
AcDbEntity
  8
16
100
AcDbLine
 10
0.0
 20
517.1271619249113
 30
0.0
 11
0.0
 21
232.1271619249114
 31
0.0
  0
LINE
  5
9F3A
330
1E
100
AcDbEntity
  8
16
100
AcDbLine
 10
0.0
 20
-141.9999999999999
 30
0.0
 11
0.0
 21
151.0
 31
0.0
  0
LINE
  5
9FA8
330
1E
100
AcDbEntity
  8
16
100
AcDbLine
 10
184.9999999999995
 20
0.0
 30
0.0
 11
-114.5999999999999
 21
0.0
 31
0.0
  0
DIMENSION
  5
B8A7
330
1E
100
AcDbEntity
  8
30
  6
Continuous
100
AcDbDimension
  2
*D1
 10
463.0
 20
-209.0
 30
0.0
 11
409.4999999999997
 21
-203.0
 31
0.0
 70
    32
  1
 <> 
 71
     5
 42
107.0
  3
STANDARD1
100
AcDbAlignedDimension
 13
356.0
 23
-44.99999999999993
 33
0.0
 14
463.0
 24
141.0
 34
0.0
100
AcDbRotatedDimension
  0
DIMENSION
  5
B8A9
330
1E
100
AcDbEntity
  8
30
  6
Continuous
100
AcDbDimension
  2
*D2
 10
356.0
 20
-209.0
 30
0.0
 11
341.1999999999999
 21
-209.0
 31
0.0
 70
   160
  1
 <> 
 71
     5
 42
4.0
  3
STANDARD1
100
AcDbAlignedDimension
 13
352.0
 23
-0.4999999999999434
 33
0.0
 14
356.0
 24
-49.99999999999993
 34
0.0
100
AcDbRotatedDimension
1001
ACAD
1000
DSTYLE
1002
{
1070
   172
1070
     1
1002
}
  0
DIMENSION
  5
B8AA
330
1E
100
AcDbEntity
  8
30
  6
Continuous
100
AcDbDimension
  2
*D3
 10
463.0
 20
-231.0958749999997
 30
0.0
 11
390.5
 21
-225.0958749999998
 31
0.0
 70
    32
  1
 <> 
 71
     5
 42
145.0
  3
STANDARD1
100
AcDbAlignedDimension
 13
318.0
 23
0.0000000000000568
 33
0.0
 14
463.0
 24
-186.9999999999999
 34
0.0
100
AcDbRotatedDimension
  0
DIMENSION
  5
B8AB
330
1E
100
AcDbEntity
  8
30
  6
Continuous
100
AcDbDimension
  2
*D4
 10
237.4989299999997
 20
-231.5958749999998
 30
0.0
 11
277.7494649999999
 21
-225.5958749999998
 31
0.0
 70
    33
  1
 <> 
 71
     5
 42
80.50107000000009
  3
STANDARD1
100
AcDbAlignedDimension
 13
318.0
 23
4.999999999999943
 33
0.0
 14
237.4989299999999
 24
4.999999999999943
 34
0.0
  0
LINE
  5
B8AF
330
1E
100
AcDbEntity
  8
17
100
AcDbLine
 10
-69.79999999999995
 20
517.1271619249113
 30
0.0
 11
-69.79999999999995
 21
375.1271619249115
 31
0.0
  0
LINE
  5
B8B5
330
1E
100
AcDbEntity
  8
17
100
AcDbLine
 10
70.20000000000003
 20
517.1271619249113
 30
0.0
 11
70.20000000000003
 21
375.1271619249115
 31
0.0
  0
DIMENSION
  5
B8C1
330
1E
100
AcDbEntity
  8
30
  6
Continuous
100
AcDbDimension
  2
*D5
 10
-63.79999999999995
 20
487.2230369249114
 30
0.0
 11
-52.99999999999995
 21
493.2230369249113
 31
0.0
 70
    32
  1
 <> 
 71
     5
 42
12.0
  3
STANDARD1
100
AcDbAlignedDimension
 13
-75.79999999999995
 23
507.1271619249113
 33
0.0
 14
-63.79999999999995
 24
417.1271619249113
 34
0.0
100
AcDbRotatedDimension
  0
DIMENSION
  5
B8C3
330
1E
100
AcDbEntity
  8
30
  6
Continuous
100
AcDbDimension
  2
*D6
 10
70.20000000000003
 20
542.2230369249112
 30
0.0
 11
35.20000000000004
 21
548.2230369249113
 31
0.0
 70
    32
  1
 <> 
 71
     5
 42
70.0
  3
STANDARD1
100
AcDbAlignedDimension
 13
0.2000000000000455
 23
517.1271619249113
 33
0.0
 14
70.20000000000003
 24
517.1271619249113
 34
0.0
100
AcDbRotatedDimension
  0
DIMENSION
  5
B8C4
330
1E
100
AcDbEntity
  8
30
  6
Continuous
100
AcDbDimension
  2
*D7
 10
0.200000000000047
 20
542.2230369249112
 30
0.0
 11
-34.79999999999995
 21
548.2230369249113
 31
0.0
 70
    32
  1
 <> 
 71
     5
 42
70.0
  3
STANDARD1
100
AcDbAlignedDimension
 13
-69.79999999999995
 23
517.1271619249113
 33
0.0
 14
0.2000000000000455
 24
517.1271619249113
 34
0.0
100
AcDbRotatedDimension
  0
DIMENSION
  5
BABE
330
1E
100
AcDbEntity
  8
30
  6
Continuous
100
AcDbDimension
  2
*D9
 10
463.0
 20
-190.0
 30
0.0
 11
411.5
 21
-184.0
 31
0.0
 70
    32
  1
 <> 
 71
     5
 42
103.0
  3
STANDARD1
100
AcDbAlignedDimension
 13
360.0
 23
-44.99999999999993
 33
0.0
 14
463.0
 24
141.0
 34
0.0
100
AcDbRotatedDimension
  0
DIMENSION
  5
BABF
330
1E
100
AcDbEntity
  8
30
  6
Continuous
100
AcDbDimension
  2
*D10
 10
619.5538999999999
 20
0.0000000000000179
 30
0.0
 11
613.5538999999997
 21
63.00000000000019
 31
0.0
 70
    32
  1
 <> 
 71
     0
 72
     0
 41
0.0
 42
126.0000000000001
  3
STANDARD1
100
AcDbAlignedDimension
 13
570.0
 23
126.0000000000001
 33
0.0
 14
482.0
 24
0.0000000000000568
 34
0.0
 50
90.0
100
AcDbRotatedDimension
  0
LINE
  5
BAC8
330
1E
100
AcDbEntity
  8
17
100
AcDbLine
 10
533.0
 20
-85.49999999999995
 30
0.0
 11
533.0
 21
-148.4999999999999
 31
0.0
  0
LINE
  5
BAC9
330
1E
100
AcDbEntity
  8
17
100
AcDbLine
 10
565.0
 20
-85.49999999999995
 30
0.0
 11
565.0
 21
-148.4999999999999
 31
0.0
  0
LINE
  5
BACA
330
1E
100
AcDbEntity
  8
17
100
AcDbLine
 10
525.0
 20
-85.49999999999995
 30
0.0
 11
525.0
 21
-148.4999999999999
 31
0.0
  0
LINE
  5
BAD3
330
1E
100
AcDbEntity
  8
12
  6
DASHED
100
AcDbLine
 10
426.6999999999998
 20
-116.9999999999999
 30
0.0
 11
479.0
 21
-116.9999999999999
 31
0.0
  0
DIMENSION
  5
BAE1
330
1E
100
AcDbEntity
  8
30
  6
Continuous
100
AcDbDimension
  2
*D11
 10
463.0
 20
-72.09587499999992
 30
0.0
 11
449.0
 21
-66.09587499999992
 31
0.0
 70
    32
  1
 <> 
 71
     5
 42
28.0
  3
STANDARD1
100
AcDbAlignedDimension
 13
435.0
 23
-103.7499999999997
 33
0.0
 14
463.0
 24
-78.34587499999989
 34
0.0
100
AcDbRotatedDimension
  0
DIMENSION
  5
BAE4
330
1E
100
AcDbEntity
  8
30
  6
Continuous
100
AcDbDimension
  2
*D12
 10
463.0
 20
-72.09587499999992
 30
0.0
 11
469.5
 21
-72.09587499999992
 31
0.0
 70
   160
  1
 <> 
 71
     5
 42
13.0
  3
STANDARD1
100
AcDbAlignedDimension
 13
476.0
 23
-107.9999999999997
 33
0.0
 14
463.0
 24
-78.34587499999989
 34
0.0
100
AcDbRotatedDimension
  0
DIMENSION
  5
BAE5
330
1E
100
AcDbEntity
  8
30
  6
Continuous
100
AcDbDimension
  2
*D13
 10
609.5538999999997
 20
-139.4999999999999
 30
0.0
 11
603.5538999999999
 21
-116.9999999999997
 31
0.0
 70
    32
  1
 <> 
 71
     0
 72
     0
 41
0.0
 42
44.99999999999999
  3
STANDARD1
100
AcDbAlignedDimension
 13
589.0
 23
-94.49999999999993
 33
0.0
 14
589.0
 24
-139.4999999999999
 34
0.0
 50
90.0
100
AcDbRotatedDimension
  0
LINE
  5
BAE6
330
1E
100
AcDbEntity
  8
17
100
AcDbLine
 10
587.0
 20
-116.9999999999999
 30
0.0
 11
556.228724828853
 21
-116.9999999999999
 31
0.0
  0
CIRCLE
  5
BAE8
330
1E
100
AcDbEntity
  8
17
  6
CONTINOUS
100
AcDbCircle
 10
565.0
 20
-116.9999999999999
 30
0.0
 40
6.499999999999997
  0
LINE
  5
BAFD
330
1E
100
AcDbEntity
  8
10
  6
CONTINOUS
100
AcDbLine
 10
356.0
 20
-45.0
 30
0.0
 11
356.0
 21
44.99999999999997
 31
0.0
  0
ARC
  5
BB00
330
1E
100
AcDbEntity
  8
30
  6
Continuous
100
AcDbCircle
 10
463.0
 20
5.0
 30
0.0
 40
144.9999999999999
100
AcDbArc
 50
169.3042220000005
 51
180.0
  0
ARC
  5
BB01
330
1E
100
AcDbEntity
  8
30
  6
Continuous
100
AcDbCircle
 10
463.0018205528718
 20
3.806184726795841
 30
0.0
 40
225.5060555675519
100
AcDbArc
 50
165.1394483099086
 51
179.6966782288776
  0
LINE
  5
BB02
330
1E
100
AcDbEntity
  8
16
100
AcDbLine
 10
477.0
 20
0.0
 30
0.0
 11
300.5999999999999
 21
0.0
 31
0.0
  0
LINE
  5
BB09
330
1E
100
AcDbEntity
  8
10
  6
CONTINOUS
100
AcDbLine
 10
345.8159049999999
 20
44.57905000000006
 30
0.0
 11
321.3530049999998
 21
53.38623500000007
 31
0.0
  0
ARC
  5
BB0A
330
1E
100
AcDbEntity
  8
10
  6
CONTINOUS
100
AcDbCircle
 10
261.4035699999999
 20
61.04623500000013
 30
0.0
 40
15.99999999999999
100
AcDbArc
 50
19.39509599999932
 51
301.0049040000016
  0
LINE
  5
BB0B
330
1E
100
AcDbEntity
  8
10
  6
CONTINOUS
100
AcDbLine
 10
324.258305
 20
45.21927999999999
 30
0.0
 11
319.9224599999997
 21
33.17600499999996
 31
0.0
  0
LINE
  5
BB0C
330
1E
100
AcDbEntity
  8
10
  6
CONTINOUS
100
AcDbLine
 10
336.9409699999994
 20
19.92797499999993
 30
0.0
 11
312.4780699999998
 21
28.73515999999993
 31
0.0
  0
LINE
  5
BB0D
330
1E
100
AcDbEntity
  8
10
  6
CONTINOUS
100
AcDbLine
 10
352.2898699999998
 20
21.52302000000003
 30
0.0
 11
319.9224599999997
 21
33.17600499999996
 31
0.0
  0
LINE
  5
BB0E
330
1E
100
AcDbEntity
  8
10
  6
CONTINOUS
100
AcDbLine
 10
276.4926849999999
 20
47.53662499999999
 30
0.0
 11
312.4780699999998
 21
28.73515999999993
 31
0.0
  0
ARC
  5
BB0F
330
1E
100
AcDbEntity
  8
10
  6
CONTINOUS
100
AcDbCircle
 10
-273.2511349999999
 20
41.33240499999994
 30
0.0
 40
6.999999999999997
210
0.0
220
0.0
230
-1.0
100
AcDbArc
 50
58.99509599999825
 51
117.5859390000052
  0
LINE
  5
BB10
330
1E
100
AcDbEntity
  8
10
  6
CONTINOUS
100
AcDbLine
 10
348.2244749999998
 20
39.46057499999993
 30
0.0
 11
342.0594449999998
 21
22.33654499999996
 31
0.0
  0
LINE
  5
BB11
330
1E
100
AcDbEntity
  8
10
  6
CONTINOUS
100
AcDbLine
 10
339.5343949999996
 20
37.16874500000017
 30
0.0
 11
336.8244899999999
 21
29.64169999999994
 31
0.0
  0
LINE
  5
BB12
330
1E
100
AcDbEntity
  8
10
  6
CONTINOUS
100
AcDbLine
 10
352.3819849999998
 20
24.04065499999999
 30
0.0
 11
336.8244899999999
 21
29.64169999999994
 31
0.0
  0
ARC
  5
BB13
330
1E
100
AcDbEntity
  8
10
  6
CONTINOUS
100
AcDbCircle
 10
338.29592
 20
23.69150000000003
 30
0.0
 40
3.999999999999998
100
AcDbArc
 50
250.2000000000051
 51
340.2
  0
LINE
  5
BB15
330
1E
100
AcDbEntity
  8
10
  6
CONTINOUS
100
AcDbLine
 10
352.7790399999998
 20
32.40037999999982
 30
0.0
 11
339.5343949999996
 21
37.16874500000017
 31
0.0
  0
LINE
  5
BB17
330
1E
100
AcDbEntity
  8
10
  6
CONTINOUS
100
AcDbLine
 10
352.924935
 20
34.89865500000005
 30
0.0
 11
324.258305
 21
45.21927999999999
 31
0.0
  0
ARC
  5
BB18
330
1E
100
AcDbEntity
  8
10
  6
CONTINOUS
100
AcDbCircle
 10
344.4609499999998
 20
40.81552999999995
 30
0.0
 40
3.999999999999998
100
AcDbArc
 50
340.2
 51
70.20000000000518
  0
LINE
  5
BB19
330
1E
100
AcDbEntity
  8
10
  6
CONTINOUS
100
AcDbLine
 10
281.6412849999998
 20
61.83740999999995
 30
0.0
 11
321.3530049999998
 21
53.38623500000007
 31
0.0
  0
ARC
  5
BB1A
330
1E
100
AcDbEntity
  8
10
  6
CONTINOUS
100
AcDbCircle
 10
283.0983449999998
 20
68.68408499999998
 30
0.0
 40
6.999999999999997
100
AcDbArc
 50
199.3950959999986
 51
257.9859389999948
  0
LINE
  5
BB3B
330
1E
100
AcDbEntity
  8
17
100
AcDbLine
 10
565.0
 20
157.4999999999999
 30
0.0
 11
565.0
 21
94.50000000000001
 31
0.0
  0
LINE
  5
BB3D
330
1E
100
AcDbEntity
  8
17
100
AcDbLine
 10
533.0
 20
157.4999999999999
 30
0.0
 11
533.0
 21
94.50000000000001
 31
0.0
  0
LINE
  5
BB3E
330
1E
100
AcDbEntity
  8
17
100
AcDbLine
 10
525.0
 20
157.4999999999999
 30
0.0
 11
525.0
 21
94.50000000000001
 31
0.0
  0
CIRCLE
  5
BB42
330
1E
100
AcDbEntity
  8
17
  6
CONTINOUS
100
AcDbCircle
 10
565.0
 20
126.0
 30
0.0
 40
6.499999999999997
  0
DIMENSION
  5
BB43
330
1E
100
AcDbEntity
  8
30
  6
Continuous
100
AcDbDimension
  2
*D8
 10
566.816860364859
 20
-123.3309153532882
 30
0.0
 11
540.9999999999994
 21
-69.0
 31
0.0
 70
   163
 71
     5
 42
13.00000092804673
  3
STANDARD1
100
AcDbDiametricDimension
 15
563.183139635142
 25
-110.8490846467116
 35
0.0
 40
0.0
  0
LINE
  5
BB45
330
1E
100
AcDbEntity
  8
17
100
AcDbLine
 10
595.0
 20
126.0
 30
0.0
 11
463.0
 21
126.0
 31
0.0
  0
LWPOLYLINE
  5
C2E5
330
1E
100
AcDbEntity
  8
18
100
AcDbPolyline
 90
        6
 70
     0
 43
0.0
 10
110.0
 20
385.1271619249115
 10
145.0
 20
385.1271619249115
 10
145.0
 20
390.1271619249115
 10
-136.09145
 20
390.1271619249115
 10
-136.09145
 20
385.1271619249115
 10
-109.5999999999999
 20
385.1271619249115
  0
LWPOLYLINE
  5
C2E6
330
1E
100
AcDbEntity
  8
10
  6
CONTINOUS
100
AcDbPolyline
 90
        4
 70
     0
 43
0.0
 10
-20.79999999999995
 20
274.1271619249113
 10
-20.79999999999995
 20
242.1271619249115
 10
20.79999999999995
 20
242.1271619249115
 10
20.79999999999995
 20
274.1271619249113
  0
LWPOLYLINE
  5
C2E7
330
1E
100
AcDbEntity
  8
10
  6
CONTINOUS
100
AcDbPolyline
 90
        4
 70
     0
 43
0.0
 10
-13.79999999999995
 20
274.1271619249113
 10
-13.79999999999995
 20
260.1271619249114
 10
14.20000000000003
 20
260.1271619249114
 10
14.20000000000003
 20
274.1271619249113
  0
LWPOLYLINE
  5
C2E8
330
1E
100
AcDbEntity
  8
10
  6
CONTINOUS
100
AcDbPolyline
 90
        4
 70
     0
 43
0.0
 10
-25.29999999999994
 20
278.1271619249114
 10
-25.29999999999994
 20
274.1271619249113
 10
25.70000000000003
 20
274.1271619249113
 10
25.70000000000003
 20
278.1271619249114
  0
LWPOLYLINE
  5
C2E9
330
1E
100
AcDbEntity
  8
10
  6
CONTINOUS
100
AcDbPolyline
 90
        4
 70
     0
 43
0.0
 10
-84.79999999999995
 20
282.1271619249115
 10
-84.79999999999995
 20
278.1271619249114
 10
85.20000000000004
 20
278.1271619249114
 10
85.20000000000004
 20
282.1271619249115
  0
LWPOLYLINE
  5
C2EA
330
1E
100
AcDbEntity
  8
10
  6
CONTINOUS
100
AcDbPolyline
 90
        4
 70
     1
 43
0.0
 10
-104.5999999999999
 20
385.1271619249115
 10
105.0
 20
385.1271619249115
 10
105.0
 20
282.1271619249115
 10
-104.5999999999999
 20
282.1271619249115
  0
LWPOLYLINE
  5
C2EB
330
1E
100
AcDbEntity
  8
21
  6
Continuous
100
AcDbPolyline
 90
        3
 70
     0
 43
0.0
 10
-75.79999999999995
 20
422.1271619249113
 10
-81.60000000000001
 20
422.1271619249113
 10
-81.60000000000001
 20
385.1271619249115
  0
LWPOLYLINE
  5
C2EC
330
1E
100
AcDbEntity
  8
21
  6
Continuous
100
AcDbPolyline
 90
        3
 70
     0
 43
0.0
 10
-63.79999999999995
 20
422.1271619249113
 10
-58.0
 20
422.1271619249113
 10
-58.0
 20
385.1271619249115
  0
LWPOLYLINE
  5
C2ED
330
1E
100
AcDbEntity
  8
21
  6
Continuous
100
AcDbPolyline
 90
        4
 70
     1
 43
0.0
 10
-63.79999999999995
 20
507.1271619249113
 10
-75.79999999999995
 20
507.1271619249113
 10
-75.79999999999995
 20
417.1271619249113
 10
-63.79999999999995
 20
417.1271619249113
  0
LWPOLYLINE
  5
C2EE
330
1E
100
AcDbEntity
  8
21
  6
Continuous
100
AcDbPolyline
 90
        3
 70
     0
 43
0.0
 10
6.200000000000045
 20
422.1271619249113
 10
11.99999999999975
 20
422.1271619249113
 10
11.99999999999975
 20
385.1271619249115
  0
LWPOLYLINE
  5
C2EF
330
1E
100
AcDbEntity
  8
21
  6
Continuous
100
AcDbPolyline
 90
        4
 70
     1
 43
0.0
 10
6.200000000000045
 20
507.1271619249113
 10
-5.799999999999952
 20
507.1271619249113
 10
-5.799999999999952
 20
417.1271619249113
 10
6.200000000000045
 20
417.1271619249113
  0
LWPOLYLINE
  5
C2F0
330
1E
100
AcDbEntity
  8
21
  6
Continuous
100
AcDbPolyline
 90
        3
 70
     0
 43
0.0
 10
-5.799999999999952
 20
422.1271619249113
 10
-11.60000000000013
 20
422.1271619249113
 10
-11.60000000000013
 20
385.1271619249115
  0
LWPOLYLINE
  5
C2F1
330
1E
100
AcDbEntity
  8
21
  6
Continuous
100
AcDbPolyline
 90
        3
 70
     0
 43
0.0
 10
64.20000000000005
 20
422.1271619249113
 10
58.39999999999985
 20
422.1271619249113
 10
58.39999999999985
 20
385.1271619249115
  0
LWPOLYLINE
  5
C2F2
330
1E
100
AcDbEntity
  8
21
  6
Continuous
100
AcDbPolyline
 90
        3
 70
     0
 43
0.0
 10
76.20000000000004
 20
422.1271619249113
 10
81.99999999999976
 20
422.1271619249113
 10
81.99999999999976
 20
385.1271619249115
  0
LWPOLYLINE
  5
C2F3
330
1E
100
AcDbEntity
  8
21
  6
Continuous
100
AcDbPolyline
 90
        4
 70
     1
 43
0.0
 10
76.20000000000004
 20
507.1271619249113
 10
64.20000000000005
 20
507.1271619249113
 10
64.20000000000005
 20
417.1271619249113
 10
76.20000000000004
 20
417.1271619249113
  0
LWPOLYLINE
  5
C3A4
330
1E
100
AcDbEntity
  8
10
  6
CONTINOUS
100
AcDbPolyline
 90
        4
 70
     0
 43
0.0
 10
360.0
 20
44.99999999999997
 10
353.0
 20
44.99999999999997
 10
353.0
 20
-45.0
 10
360.0
 20
-45.0
  0
LWPOLYLINE
  5
C3A5
330
1E
100
AcDbEntity
  8
10
  6
CONTINOUS
100
AcDbPolyline
 90
       13
 70
     0
 43
0.0
 10
463.0
 20
141.0
 10
366.0
 20
141.0
 10
366.0
 20
116.0
 10
363.5
 20
116.0
 10
363.5
 20
55.49999999999993
 10
360.0
 20
55.49999999999993
 10
360.0
 20
-46.49999999999989
 10
363.5
 20
-46.49999999999989
 10
363.5
 20
-107.0
 10
366.0
 20
-107.0
 10
366.0
 20
-131.9999999999999
 10
463.0
 20
-131.9999999999999
 10
463.0
 20
141.0
  0
LWPOLYLINE
  5
C3A8
330
1E
100
AcDbEntity
  8
18
100
AcDbPolyline
 90
        6
 70
     0
 43
0.0
 10
463.0
 20
146.0
 10
463.0
 20
191.0
 10
468.0000017885786
 20
191.0000012971245
 10
468.0000017885786
 20
-181.9999987028754
 10
463.0000017885781
 20
-181.9999987028754
 10
463.0
 20
-136.9999999999999
  0
LWPOLYLINE
  5
C3EC
330
1E
100
AcDbEntity
  8
12
  6
DASHED
100
AcDbPolyline
 90
        4
 70
     0
 43
0.0
 10
366.0
 20
-108.7499999999999
 10
435.0
 20
-108.7499999999999
 10
435.0
 20
-125.2499999999997
 10
366.0
 20
-125.2499999999997
  0
LWPOLYLINE
  5
C3ED
330
1E
100
AcDbEntity
  8
12
  6
DASHED
100
AcDbPolyline
 90
        6
 70
     0
 43
0.0
 10
435.0
 20
-108.9999999999996
 10
434.3299999999998
 20
-108.9999999999996
 42
0.4142135623730863
 10
429.0
 20
-114.3299999999999
 10
429.0
 20
-119.6699999999997
 42
0.4142135623730919
 10
434.3299999999998
 20
-124.9999999999999
 10
435.0
 20
-124.9999999999999
  0
LWPOLYLINE
  5
C3EF
330
1E
100
AcDbEntity
  8
12
  6
DASHED
100
AcDbPolyline
 90
        4
 70
     0
 43
0.0
 10
435.0
 20
-112.9999999999999
 10
476.0
 20
-112.9999999999999
 10
476.0000000000001
 20
-120.9999999999999
 10
435.0
 20
-120.9999999999999
  0
LWPOLYLINE
  5
C3FA
330
1E
100
AcDbEntity
  8
21
  6
Continuous
100
AcDbPolyline
 90
        4
 70
     0
 43
0.0
 10
463.0
 20
137.7999999999999
 10
500.0
 20
137.7999999999999
 10
500.0
 20
114.1999999999999
 10
463.0
 20
114.1999999999999
  0
LWPOLYLINE
  5
C3FB
330
1E
100
AcDbEntity
  8
17
  6
CONTINOUS
100
AcDbPolyline
 90
        5
 70
     1
 43
0.0
 10
533.0
 20
132.4999999999999
 10
525.0
 20
132.4999999999999
 42
0.9999999999999998
 10
525.0
 20
119.5
 10
533.0
 20
119.4999999999997
 42
1.000000000000005
 10
533.0
 20
132.4999999999999
  0
LWPOLYLINE
  5
C3FD
330
1E
100
AcDbEntity
  8
21
  6
Continuous
100
AcDbPolyline
 90
       10
 70
     0
 43
0.0
 10
495.0
 20
114.1999999999999
 10
495.0
 20
104.4999999999999
 42
0.4142135623730951
 10
496.0
 20
103.4999999999999
 10
584.0
 20
103.4999999999999
 42
0.4142135623730951
 10
585.0
 20
104.4999999999999
 10
585.0
 20
147.4999999999999
 42
0.4142135623730703
 10
584.0
 20
148.5
 10
496.0
 20
148.5
 42
0.41421356237312
 10
495.0
 20
147.4999999999999
 10
495.0
 20
137.7999999999999
  0
DIMENSION
  5
C3FF
330
1E
100
AcDbEntity
  8
30
  6
Continuous
100
AcDbDimension
  2
*D14
 10
619.5538999999999
 20
-116.9999999999999
 30
0.0
 11
613.5538999999997
 21
-58.49999999999988
 31
0.0
 70
    32
 71
     5
 42
117.0
  3
STANDARD1
100
AcDbAlignedDimension
 13
482.0
 23
0.0000000000000568
 33
0.0
 14
609.5538999999997
 24
-116.9999999999999
 34
0.0
 50
90.0
100
AcDbRotatedDimension
  0
LWPOLYLINE
  5
C40C
330
1E
100
AcDbEntity
  8
21
  6
Continuous
100
AcDbPolyline
 90
        4
 70
     0
 43
0.0
 10
463.0
 20
-105.1999999999999
 10
500.0
 20
-105.1999999999999
 10
500.0
 20
-128.7999999999997
 10
463.0
 20
-128.7999999999997
  0
LWPOLYLINE
  5
C40D
330
1E
100
AcDbEntity
  8
21
  6
Continuous
100
AcDbPolyline
 90
       10
 70
     0
 43
0.0
 10
495.0
 20
-128.7999999999997
 10
495.0
 20
-138.4999999999998
 42
0.4142135623730951
 10
496.0
 20
-139.4999999999998
 10
584.0
 20
-139.4999999999998
 42
0.4142135623730951
 10
585.0
 20
-138.4999999999998
 10
585.0
 20
-95.49999999999995
 42
0.4142135623730703
 10
584.0
 20
-94.49999999999986
 10
496.0
 20
-94.49999999999986
 42
0.41421356237312
 10
495.0
 20
-95.49999999999995
 10
495.0
 20
-105.1999999999999
  0
LWPOLYLINE
  5
C40E
330
1E
100
AcDbEntity
  8
17
  6
CONTINOUS
100
AcDbPolyline
 90
        5
 70
     1
 43
0.0
 10
533.0
 20
-110.4999999999997
 10
525.0
 20
-110.4999999999997
 42
0.9999999999999998
 10
525.0
 20
-123.4999999999996
 10
533.0
 20
-123.4999999999997
 42
1.000000000000005
 10
533.0
 20
-110.4999999999997
  0
DIMENSION
  5
C8F7
330
1E
100
AcDbEntity
  8
30
  6
Continuous
100
AcDbDimension
  2
*D15
 10
175.9692079724309
 20
-212.7235549737851
 30
0.0
 11
175.9692079724309
 21
-215.223554973785
 31
0.0
 70
   160
 71
     5
 42
5.000000000000142
  3
STANDARD1
100
AcDbAlignedDimension
 13
106.0
 23
-217.7235549737853
 33
0.0
 14
105.0
 24
-212.7235549737851
 34
0.0
 50
90.0
100
AcDbRotatedDimension
1001
ACAD
1000
DSTYLE
1002
{
1070
   172
1070
     1
1070
   140
1040
5.0
1002
}
  0
DIMENSION
  5
C8F9
330
1E
100
AcDbEntity
  8
30
  6
Continuous
100
AcDbDimension
  2
*D16
 10
-118.5986045047432
 20
-39.00000000000114
 30
0.0
 11
-124.5986045047432
 21
5.999999999998888
 31
0.0
 70
    32
 71
     5
 42
90.00000000000012
  3
STANDARD1
100
AcDbAlignedDimension
 13
-79.79999999999995
 23
50.99999999999894
 33
0.0
 14
-79.79999999999995
 24
-39.00000000000115
 34
0.0
 50
90.0
100
AcDbRotatedDimension
  0
DIMENSION
  5
C8FA
330
1E
100
AcDbEntity
  8
30
  6
Continuous
100
AcDbDimension
  2
*D17
 10
-137.8479123954371
 20
-40.50000000000093
 30
0.0
 11
-143.8479123954373
 21
10.49999999999897
 31
0.0
 70
    32
 71
     5
 42
101.9999999999997
  3
STANDARD1
100
AcDbAlignedDimension
 13
-104.9999999999996
 23
61.49999999999891
 33
0.0
 14
-104.9999999999996
 24
-40.50000000000093
 34
0.0
 50
90.0
100
AcDbRotatedDimension
  0
DIMENSION
  5
C8FB
330
1E
100
AcDbEntity
  8
30
  6
Continuous
100
AcDbDimension
  2
*D18
 10
-150.5191388944171
 20
-126.000000000001
 30
0.0
 11
-156.519138894417
 21
10.49999999999898
 31
0.0
 70
    32
 71
     5
 42
273.0
  3
STANDARD1
100
AcDbAlignedDimension
 13
-105.0
 23
146.9999999999989
 33
0.0
 14
-104.9999999999996
 24
-126.000000000001
 34
0.0
 50
90.0
100
AcDbRotatedDimension
  0
LINE
  5
C8FC
330
1E
100
AcDbEntity
  8
10
  6
CONTINOUS
100
AcDbLine
 10
19.0
 20
-30.60000000000098
 30
0.0
 11
19.0
 21
-23.70000000000101
 31
0.0
  0
LINE
  5
C8FD
330
1E
100
AcDbEntity
  8
10
  6
CONTINOUS
100
AcDbLine
 10
85.19999999999994
 20
45.99999999999897
 30
0.0
 11
85.19999999999994
 21
-34.00000000000102
 31
0.0
  0
LINE
  5
C8FE
330
1E
100
AcDbEntity
  8
10
  6
CONTINOUS
100
AcDbLine
 10
-25.29999999999994
 20
50.99999999999894
 30
0.0
 11
-25.29999999999994
 21
-39.00000000000102
 31
0.0
  0
LINE
  5
C8FF
330
1E
100
AcDbEntity
  8
10
  6
CONTINOUS
100
AcDbLine
 10
-84.79999999999995
 20
45.99999999999897
 30
0.0
 11
-84.79999999999995
 21
-34.00000000000102
 31
0.0
  0
LINE
  5
C900
330
1E
100
AcDbEntity
  8
10
  6
CONTINOUS
100
AcDbLine
 10
25.70000000000003
 20
50.99999999999894
 30
0.0
 11
25.70000000000003
 21
-39.00000000000102
 31
0.0
  0
LINE
  5
C901
330
1E
100
AcDbEntity
  8
10
  6
CONTINOUS
100
AcDbLine
 10
24.5
 20
-30.60000000000098
 30
0.0
 11
24.5
 21
-23.70000000000101
 31
0.0
  0
LINE
  5
C902
330
1E
100
AcDbEntity
  8
10
  6
CONTINOUS
100
AcDbLine
 10
-104.9999999999996
 20
146.9999999999989
 30
0.0
 11
-104.9999999999996
 21
-126.000000000001
 31
0.0
  0
LINE
  5
C904
330
1E
100
AcDbEntity
  8
10
  6
CONTINOUS
100
AcDbLine
 10
105.0
 20
-126.000000000001
 30
0.0
 11
105.0
 21
146.9999999999989
 31
0.0
  0
DIMENSION
  5
C905
330
1E
100
AcDbEntity
  8
30
  6
Continuous
100
AcDbDimension
  2
*D19
 10
-110.1086953669998
 20
-315.3032690317745
 30
0.0
 11
-132.2060449099832
 21
-344.2580588600016
 31
0.0
 70
   163
 71
     5
 42
14.99999999999976
  3
STANDARD1
100
AcDbDiametricDimension
 15
-115.8913046330001
 25
-329.1438409157958
 35
0.0
 40
0.0
  0
DIMENSION
  5
C908
330
1E
100
AcDbEntity
  8
30
  6
Continuous
100
AcDbDimension
  2
*D20
 10
175.9692079724304
 20
-480.7235549737852
 30
0.0
 11
169.9692079724304
 21
-417.2235549737853
 31
0.0
 70
    32
  1
 <> 
 71
     0
 72
     0
 41
0.0
 42
127.0
  3
STANDARD1
100
AcDbAlignedDimension
 13
105.0
 23
-353.7235549737851
 33
0.0
 14
53.18257999999968
 24
-480.7235549737852
 34
0.0
 50
90.0
100
AcDbRotatedDimension
  0
DIMENSION
  5
C909
330
1E
100
AcDbEntity
  8
30
  6
Continuous
100
AcDbDimension
  2
*D21
 10
156.5245325812547
 20
-353.7235549737853
 30
0.0
 11
150.5245325812548
 21
-412.2235549737853
 31
0.0
 70
    32
  1
 <> 
 71
     0
 72
     0
 41
0.0
 42
117.0
  3
STANDARD1
100
AcDbAlignedDimension
 13
113.0
 23
-470.7235549737853
 33
0.0
 14
105.0
 24
-353.7235549737851
 34
0.0
 50
90.0
100
AcDbRotatedDimension
  0
DIMENSION
  5
C90A
330
1E
100
AcDbEntity
  8
30
  6
Continuous
100
AcDbDimension
  2
*D22
 10
112.9999999999999
 20
-555.8194299737849
 30
0.0
 11
91.5
 21
-549.8194299737852
 31
0.0
 70
    32
  1
 <> 
 71
     5
 42
43.0
  3
STANDARD1
100
AcDbAlignedDimension
 13
70.0
 23
-475.7235549737853
 33
0.0
 14
113.0
 24
-328.2235549737851
 34
0.0
100
AcDbRotatedDimension
  0
DIMENSION
  5
C90B
330
1E
100
AcDbEntity
  8
30
  6
Continuous
100
AcDbDimension
  2
*D23
 10
-113.0
 20
-555.8194299737849
 30
0.0
 11
-91.5
 21
-549.8194299737852
 31
0.0
 70
    32
  1
 <> 
 71
     5
 42
43.0
  3
STANDARD1
100
AcDbAlignedDimension
 13
-70.0
 23
-475.7235549737853
 33
0.0
 14
-113.0
 24
-327.2235549737851
 34
0.0
100
AcDbRotatedDimension
  0
LINE
  5
C90E
330
1E
100
AcDbEntity
  8
16
100
AcDbLine
 10
0.0
 20
-495.7235549737853
 30
0.0
 11
0.0
 21
-202.7235549737854
 31
0.0
  0
DIMENSION
  5
C912
330
1E
100
AcDbEntity
  8
30
  6
Continuous
100
AcDbDimension
  2
*D24
 10
35.0
 20
-520.8194299737852
 30
0.0
 11
0.0000000000000004
 21
-514.8194299737849
 31
0.0
 70
    32
  1
 <> 
 71
     5
 42
70.0
  3
STANDARD1
100
AcDbAlignedDimension
 13
-35.0
 23
-475.7235549737853
 33
0.0
 14
35.0
 24
-475.7235549737853
 34
0.0
100
AcDbRotatedDimension
  0
DIMENSION
  5
C914
330
1E
100
AcDbEntity
  8
30
  6
Continuous
100
AcDbDimension
  2
*D25
 10
70.0
 20
-555.8194299737849
 30
0.0
 11
35.0
 21
-549.8194299737852
 31
0.0
 70
    32
  1
 <> 
 71
     5
 42
70.0
  3
STANDARD1
100
AcDbAlignedDimension
 13
0.0
 23
-475.7235549737853
 33
0.0
 14
70.0
 24
-475.7235549737853
 34
0.0
100
AcDbRotatedDimension
  0
DIMENSION
  5
C915
330
1E
100
AcDbEntity
  8
30
  6
Continuous
100
AcDbDimension
  2
*D26
 10
-0.0000000000000021
 20
-555.8194299737849
 30
0.0
 11
-35.0
 21
-549.8194299737852
 31
0.0
 70
    32
  1
 <> 
 71
     5
 42
70.0
  3
STANDARD1
100
AcDbAlignedDimension
 13
-70.0
 23
-475.7235549737853
 33
0.0
 14
0.0
 24
-520.8194299737852
 34
0.0
100
AcDbRotatedDimension
  0
LINE
  5
C929
330
1E
100
AcDbEntity
  8
10
  6
CONTINOUS
100
AcDbLine
 10
-79.79999999999995
 20
-39.00000000000102
 30
0.0
 11
80.19999999999994
 21
-39.00000000000102
 31
0.0
  0
LINE
  5
C92A
330
1E
100
AcDbEntity
  8
10
  6
CONTINOUS
100
AcDbLine
 10
105.0
 20
-40.50000000000093
 30
0.0
 11
-104.9999999999996
 21
-40.50000000000093
 31
0.0
  0
LINE
  5
C92B
330
1E
100
AcDbEntity
  8
10
  6
CONTINOUS
100
AcDbLine
 10
-104.9999999999996
 20
-101.000000000001
 30
0.0
 11
105.0
 21
-101.000000000001
 31
0.0
  0
LINE
  5
C92C
330
1E
100
AcDbEntity
  8
12
  6
DASHED
100
AcDbLine
 10
23.95000000000004
 20
-111.0000000000009
 30
0.0
 11
46.44999999999993
 21
-111.0000000000009
 31
0.0
  0
LINE
  5
C92D
330
1E
100
AcDbEntity
  8
10
  6
CONTINOUS
100
AcDbLine
 10
-104.9999999999996
 20
-126.000000000001
 30
0.0
 11
105.0
 21
-126.000000000001
 31
0.0
  0
DIMENSION
  5
C92E
330
1E
100
AcDbEntity
  8
30
  6
Continuous
100
AcDbDimension
  2
*D27
 10
105.0
 20
-161.0958750000009
 30
0.0
 11
0.0000000000000572
 21
-155.0958750000009
 31
0.0
 70
    32
  1
 <> 
 71
     5
 42
209.9999999999996
  3
STANDARD1
100
AcDbAlignedDimension
 13
-104.9999999999996
 23
-131.0000000000009
 33
0.0
 14
105.0
 24
-131.0000000000009
 34
0.0
100
AcDbRotatedDimension
  0
CIRCLE
  5
C92F
330
1E
100
AcDbEntity
  8
12
  6
DASHED
100
AcDbCircle
 10
35.20000000000004
 20
-111.0000000000009
 30
0.0
 40
8.249999999999996
  0
LINE
  5
C934
330
1E
100
AcDbEntity
  8
16
100
AcDbLine
 10
114.9999999999997
 20
-353.7235549737853
 30
0.0
 11
-114.6000000000001
 21
-353.7235549737853
 31
0.0
  0
DIMENSION
  5
C935
330
1E
100
AcDbEntity
  8
30
  6
Continuous
100
AcDbDimension
  2
*D28
 10
156.5245325812547
 20
-227.7235549737853
 30
0.0
 11
150.5245325812548
 21
-290.7235549737853
 31
0.0
 70
    32
  1
 <> 
 71
     0
 72
     0
 41
0.0
 42
125.9999999999999
  3
STANDARD1
100
AcDbAlignedDimension
 13
120.0
 23
-353.7235549737851
 33
0.0
 14
105.0
 24
-227.7235549737853
 34
0.0
 50
90.0
100
AcDbRotatedDimension
  0
LINE
  5
C944
330
1E
100
AcDbEntity
  8
12
  6
DASHED
100
AcDbLine
 10
-46.04999999999995
 20
-111.0000000000009
 30
0.0
 11
-23.54999999999994
 21
-111.0000000000009
 31
0.0
  0
ARC
  5
C945
330
1E
100
AcDbEntity
  8
10
  6
CONTINOUS
100
AcDbCircle
 10
-58.79999999999995
 20
-111.0000000000009
 30
0.0
 40
9.999999999999996
100
AcDbArc
 50
270.0
 51
90.0
  0
ARC
  5
C946
330
1E
100
AcDbEntity
  8
10
  6
CONTINOUS
100
AcDbCircle
 10
-80.79999999999996
 20
-111.0000000000009
 30
0.0
 40
9.999999999999996
100
AcDbArc
 50
90.0
 51
270.0
  0
LINE
  5
C947
330
1E
100
AcDbEntity
  8
10
  6
CONTINOUS
100
AcDbLine
 10
-80.79999999999996
 20
-121.0000000000009
 30
0.0
 11
-58.79999999999995
 21
-121.0000000000009
 31
0.0
  0
ARC
  5
C948
330
1E
100
AcDbEntity
  8
10
  6
CONTINOUS
100
AcDbCircle
 10
-79.79999999999995
 20
-34.00000000000102
 30
0.0
 40
4.999999999999998
100
AcDbArc
 50
180.0
 51
270.0
  0
CIRCLE
  5
C949
330
1E
100
AcDbEntity
  8
12
  6
DASHED
100
AcDbCircle
 10
-34.79999999999995
 20
-111.0000000000009
 30
0.0
 40
8.249999999999996
  0
ARC
  5
C94A
330
1E
100
AcDbEntity
  8
10
  6
CONTINOUS
100
AcDbCircle
 10
11.20000000000002
 20
-111.0000000000009
 30
0.0
 40
9.999999999999996
100
AcDbArc
 50
270.0
 51
90.0
  0
ARC
  5
C94B
330
1E
100
AcDbEntity
  8
10
  6
CONTINOUS
100
AcDbCircle
 10
-10.79999999999994
 20
-111.0000000000009
 30
0.0
 40
9.999999999999996
100
AcDbArc
 50
90.0
 51
270.0
  0
LINE
  5
C94C
330
1E
100
AcDbEntity
  8
12
  6
DASHED
100
AcDbLine
 10
-34.79999999999995
 20
-99.750000000001
 30
0.0
 11
-34.79999999999995
 21
-122.2500000000009
 31
0.0
  0
LINE
  5
C94D
330
1E
100
AcDbEntity
  8
10
  6
CONTINOUS
100
AcDbLine
 10
-10.79999999999994
 20
-121.0000000000009
 30
0.0
 11
11.20000000000002
 21
-121.0000000000009
 31
0.0
  0
LINE
  5
C94F
330
1E
100
AcDbEntity
  8
10
  6
CONTINOUS
100
AcDbLine
 10
19.0
 20
-30.60000000000098
 30
0.0
 11
24.5
 21
-30.60000000000098
 31
0.0
  0
DIMENSION
  5
C957
330
1E
100
AcDbEntity
  8
30
  6
Continuous
100
AcDbDimension
  2
*D31
 10
175.9692079724309
 20
-353.7235549737853
 30
0.0
 11
169.9692079724307
 21
-285.7235549737853
 31
0.0
 70
    32
  1
 <> 
 71
     0
 72
     0
 41
0.0
 42
135.9999999999999
  3
STANDARD1
100
AcDbAlignedDimension
 13
105.0
 23
-217.7235549737853
 33
0.0
 14
105.0
 24
-353.7235549737851
 34
0.0
 50
90.0
100
AcDbRotatedDimension
  0
DIMENSION
  5
C95A
330
1E
100
AcDbEntity
  8
30
  6
Continuous
100
AcDbDimension
  2
*D32
 10
139.1539000000002
 20
-323.2235549737854
 30
0.0
 11
133.1539000000003
 21
-338.4735549737853
 31
0.0
 70
    32
  1
 <> 
 71
     0
 72
     0
 41
0.0
 42
30.49999999999994
  3
STANDARD1
100
AcDbAlignedDimension
 13
106.0
 23
-353.7235549737851
 33
0.0
 14
112.9999999999997
 24
-323.2235549737853
 34
0.0
 50
90.0
100
AcDbRotatedDimension
  0
ARC
  5
C95B
330
1E
100
AcDbEntity
  8
10
  6
CONTINOUS
100
AcDbCircle
 10
81.20000000000004
 20
-111.0000000000009
 30
0.0
 40
9.999999999999996
100
AcDbArc
 50
270.0
 51
90.0
  0
ARC
  5
C95C
330
1E
100
AcDbEntity
  8
10
  6
CONTINOUS
100
AcDbCircle
 10
59.19999999999993
 20
-111.0000000000009
 30
0.0
 40
9.999999999999996
100
AcDbArc
 50
90.0
 51
270.0
  0
LINE
  5
C95D
330
1E
100
AcDbEntity
  8
12
  6
DASHED
100
AcDbLine
 10
35.20000000000004
 20
-99.750000000001
 30
0.0
 11
35.20000000000004
 21
-122.2500000000009
 31
0.0
  0
LINE
  5
C95E
330
1E
100
AcDbEntity
  8
10
  6
CONTINOUS
100
AcDbLine
 10
59.19999999999993
 20
-121.0000000000009
 30
0.0
 11
81.20000000000004
 21
-121.0000000000009
 31
0.0
  0
ARC
  5
C95F
330
1E
100
AcDbEntity
  8
10
  6
CONTINOUS
100
AcDbCircle
 10
80.19999999999994
 20
-34.00000000000102
 30
0.0
 40
4.999999999999998
100
AcDbArc
 50
270.0
 51
0.0
  0
LINE
  5
C960
330
1E
100
AcDbEntity
  8
10
  6
CONTINOUS
100
AcDbLine
 10
105.0
 20
146.9999999999989
 30
0.0
 11
-104.9999999999996
 21
146.9999999999989
 31
0.0
  0
LINE
  5
C961
330
1E
100
AcDbEntity
  8
12
  6
DASHED
100
AcDbLine
 10
23.95000000000004
 20
131.999999999999
 30
0.0
 11
46.44999999999993
 21
131.999999999999
 31
0.0
  0
LINE
  5
C962
330
1E
100
AcDbEntity
  8
10
  6
CONTINOUS
100
AcDbLine
 10
105.0
 20
121.9999999999989
 30
0.0
 11
-104.9999999999996
 21
121.9999999999989
 31
0.0
  0
LINE
  5
C963
330
1E
100
AcDbEntity
  8
10
  6
CONTINOUS
100
AcDbLine
 10
105.0
 20
61.49999999999891
 30
0.0
 11
-104.9999999999996
 21
61.49999999999891
 31
0.0
  0
LINE
  5
C964
330
1E
100
AcDbEntity
  8
10
  6
CONTINOUS
100
AcDbLine
 10
-79.79999999999995
 20
50.99999999999894
 30
0.0
 11
80.19999999999994
 21
50.99999999999894
 31
0.0
  0
DIMENSION
  5
C966
330
1E
100
AcDbEntity
  8
30
  6
Continuous
100
AcDbDimension
  2
*D33
 10
85.19999999999994
 20
83.90412499999895
 30
0.0
 11
0.199999999999989
 21
89.90412499999893
 31
0.0
 70
    32
  1
 <> 
 71
     5
 42
169.9999999999996
  3
STANDARD1
100
AcDbAlignedDimension
 13
-84.79999999999995
 23
50.99999999999892
 33
0.0
 14
85.19999999999994
 24
50.99999999999892
 34
0.0
100
AcDbRotatedDimension
  0
CIRCLE
  5
C967
330
1E
100
AcDbEntity
  8
12
  6
DASHED
100
AcDbCircle
 10
35.20000000000004
 20
131.999999999999
 30
0.0
 40
8.249999999999996
  0
ARC
  5
C968
330
1E
100
AcDbEntity
  8
10
  6
CONTINOUS
100
AcDbCircle
 10
-80.79999999999996
 20
131.999999999999
 30
0.0
 40
9.999999999999996
100
AcDbArc
 50
90.0
 51
270.0
  0
ARC
  5
C969
330
1E
100
AcDbEntity
  8
10
  6
CONTINOUS
100
AcDbCircle
 10
11.20000000000002
 20
131.999999999999
 30
0.0
 40
9.999999999999996
100
AcDbArc
 50
270.0
 51
90.0
  0
ARC
  5
C96A
330
1E
100
AcDbEntity
  8
10
  6
CONTINOUS
100
AcDbCircle
 10
-10.79999999999994
 20
131.999999999999
 30
0.0
 40
9.999999999999996
100
AcDbArc
 50
90.0
 51
270.0
  0
ARC
  5
C96B
330
1E
100
AcDbEntity
  8
10
  6
CONTINOUS
100
AcDbCircle
 10
-58.79999999999995
 20
131.999999999999
 30
0.0
 40
9.999999999999996
100
AcDbArc
 50
270.0
 51
90.0
  0
CIRCLE
  5
C96C
330
1E
100
AcDbEntity
  8
12
  6
DASHED
100
AcDbCircle
 10
-34.79999999999995
 20
131.999999999999
 30
0.0
 40
8.249999999999996
  0
LINE
  5
C96D
330
1E
100
AcDbEntity
  8
12
  6
DASHED
100
AcDbLine
 10
-34.79999999999995
 20
143.249999999999
 30
0.0
 11
-34.79999999999995
 21
120.749999999999
 31
0.0
  0
LINE
  5
C96E
330
1E
100
AcDbEntity
  8
12
  6
DASHED
100
AcDbLine
 10
-46.04999999999995
 20
131.999999999999
 30
0.0
 11
-23.54999999999994
 21
131.999999999999
 31
0.0
  0
ARC
  5
C96F
330
1E
100
AcDbEntity
  8
10
  6
CONTINOUS
100
AcDbCircle
 10
-79.79999999999995
 20
45.99999999999897
 30
0.0
 40
4.999999999999998
100
AcDbArc
 50
90.0
 51
180.0
  0
LINE
  5
C970
330
1E
100
AcDbEntity
  8
10
  6
CONTINOUS
100
AcDbLine
 10
20.80000000000006
 20
35.64169999999892
 30
0.0
 11
-20.79999999999995
 21
35.64169999999892
 31
0.0
  0
LINE
  5
C971
330
1E
100
AcDbEntity
  8
10
  6
CONTINOUS
100
AcDbLine
 10
25.70000000000003
 20
50.54681499999887
 30
0.0
 11
-25.29999999999994
 21
50.54681499999887
 31
0.0
  0
LINE
  5
C972
330
1E
100
AcDbEntity
  8
10
  6
CONTINOUS
100
AcDbLine
 10
20.80000000000006
 20
43.16874499999914
 30
0.0
 11
-20.79999999999995
 21
43.16874499999914
 31
0.0
  0
LINE
  5
C973
330
1E
100
AcDbEntity
  8
10
  6
CONTINOUS
100
AcDbLine
 10
18.0
 20
-19.50000000000099
 30
0.0
 11
-18.0
 21
-19.50000000000099
 31
0.0
  0
LINE
  5
C974
330
1E
100
AcDbEntity
  8
10
  6
CONTINOUS
100
AcDbLine
 10
-18.0
 20
-19.50000000000099
 30
0.0
 11
-18.0
 21
35.64169999999892
 31
0.0
  0
LINE
  5
C975
330
1E
100
AcDbEntity
  8
10
  6
CONTINOUS
100
AcDbLine
 10
-20.79999999999995
 20
35.64169999999892
 30
0.0
 11
-20.79999999999995
 21
43.16874499999914
 31
0.0
  0
LINE
  5
C976
330
1E
100
AcDbEntity
  8
10
  6
CONTINOUS
100
AcDbLine
 10
18.0
 20
-19.50000000000099
 30
0.0
 11
18.0
 21
35.64169999999892
 31
0.0
  0
LINE
  5
C977
330
1E
100
AcDbEntity
  8
10
  6
CONTINOUS
100
AcDbLine
 10
19.0
 20
-23.70000000000101
 30
0.0
 11
24.5
 21
-23.70000000000101
 31
0.0
  0
LINE
  5
C978
330
1E
100
AcDbEntity
  8
10
  6
CONTINOUS
100
AcDbLine
 10
20.80000000000006
 20
35.64169999999892
 30
0.0
 11
20.80000000000006
 21
43.16874499999914
 31
0.0
  0
LINE
  5
C979
330
1E
100
AcDbEntity
  8
10
  6
CONTINOUS
100
AcDbLine
 10
-80.79999999999996
 20
141.999999999999
 30
0.0
 11
-58.79999999999995
 21
141.999999999999
 31
0.0
  0
LINE
  5
C97A
330
1E
100
AcDbEntity
  8
10
  6
CONTINOUS
100
AcDbLine
 10
-10.79999999999994
 20
141.999999999999
 30
0.0
 11
11.20000000000002
 21
141.999999999999
 31
0.0
  0
ARC
  5
C97B
330
1E
100
AcDbEntity
  8
10
  6
CONTINOUS
100
AcDbCircle
 10
81.20000000000004
 20
131.999999999999
 30
0.0
 40
9.999999999999996
100
AcDbArc
 50
270.0
 51
90.0
  0
ARC
  5
C97C
330
1E
100
AcDbEntity
  8
10
  6
CONTINOUS
100
AcDbCircle
 10
59.19999999999993
 20
131.999999999999
 30
0.0
 40
9.999999999999996
100
AcDbArc
 50
90.0
 51
270.0
  0
LINE
  5
C97D
330
1E
100
AcDbEntity
  8
12
  6
DASHED
100
AcDbLine
 10
35.20000000000004
 20
143.249999999999
 30
0.0
 11
35.20000000000004
 21
120.749999999999
 31
0.0
  0
ARC
  5
C97E
330
1E
100
AcDbEntity
  8
10
  6
CONTINOUS
100
AcDbCircle
 10
80.19999999999994
 20
45.99999999999897
 30
0.0
 40
4.999999999999998
100
AcDbArc
 50
0.0
 51
90.0
  0
LINE
  5
C97F
330
1E
100
AcDbEntity
  8
10
  6
CONTINOUS
100
AcDbLine
 10
59.19999999999993
 20
141.999999999999
 30
0.0
 11
81.20000000000004
 21
141.999999999999
 31
0.0
  0
DIMENSION
  5
D80C
330
1E
100
AcDbEntity
  8
30
  6
Continuous
100
AcDbDimension
  2
*D34
 10
585.0
 20
-208.5670221558808
 30
0.0
 11
524.0
 21
-202.5670221558808
 31
0.0
 70
    32
 71
     5
 42
122.0
  3
STANDARD1
100
AcDbAlignedDimension
 13
463.0
 23
-208.5670221558808
 33
0.0
 14
585.0
 24
-138.4999999999998
 34
0.0
100
AcDbRotatedDimension
  0
DIMENSION
  5
D80D
330
1E
100
AcDbEntity
  8
30
  6
Continuous
100
AcDbDimension
  2
*D35
 10
525.0
 20
-190.5
 30
0.0
 11
494.0
 21
-184.4999999999999
 31
0.0
 70
    32
 71
     5
 42
62.0
  3
STANDARD1
100
AcDbAlignedDimension
 13
463.0
 23
-190.5
 33
0.0
 14
525.0
 24
-148.4999999999999
 34
0.0
100
AcDbRotatedDimension
  0
DIMENSION
  5
D80E
330
1E
100
AcDbEntity
  8
30
  6
Continuous
100
AcDbDimension
  2
*D36
 10
565.0
 20
-190.5
 30
0.0
 11
553.0
 21
-190.5
 31
0.0
 70
   160
 71
     5
 42
32.0
  3
STANDARD1
100
AcDbAlignedDimension
 13
533.0
 23
-148.4999999999999
 33
0.0
 14
565.0
 24
-123.4999999999997
 34
0.0
100
AcDbRotatedDimension
  0
DIMENSION
  5
D80F
330
1E
100
AcDbEntity
  8
30
  6
Continuous
100
AcDbDimension
  2
*D37
 10
533.0
 20
-190.5
 30
0.0
 11
529.0
 21
-190.5
 31
0.0
 70
   160
 71
     5
 42
8.0
  3
STANDARD1
100
AcDbAlignedDimension
 13
525.0
 23
-151.4999999999999
 33
0.0
 14
533.0
 24
-171.0
 34
0.0
100
AcDbRotatedDimension
1001
ACAD
1000
DSTYLE
1002
{
1070
   172
1070
     1
1002
}
  0
DIMENSION
  5
D810
330
1E
100
AcDbEntity
  8
30
  6
Continuous
100
AcDbDimension
  2
*D38
 10
585.0
 20
-190.486486433893
 30
0.0
 11
575.0
 21
-184.4864864338933
 31
0.0
 70
    32
 71
     5
 42
20.0
  3
STANDARD1
100
AcDbAlignedDimension
 13
565.0
 23
-148.4999999999999
 33
0.0
 14
585.0
 24
-157.4467112499683
 34
0.0
100
AcDbRotatedDimension
  0
LINE
  5
DBC8
330
1E
100
AcDbEntity
  8
18
  6
DIVIDE
100
AcDbLine
 10
-104.6
 20
-212.7235549737851
 30
0.0
 11
-104.6
 21
-485.723554973785
 31
0.0
  0
LINE
  5
DBC9
330
1E
100
AcDbEntity
  8
18
  6
DIVIDE
100
AcDbLine
 10
105.0
 20
-485.723554973785
 30
0.0
 11
105.0
 21
-212.7235549737851
 31
0.0
  0
LINE
  5
DBCA
330
1E
100
AcDbEntity
  8
16
100
AcDbLine
 10
0.0
 20
-495.7235549737851
 30
0.0
 11
0.0
 21
-202.723554973785
 31
0.0
  0
LINE
  5
DBCB
330
1E
100
AcDbEntity
  8
18
  6
DIVIDE
100
AcDbLine
 10
105.0
 20
-485.723554973785
 30
0.0
 11
-104.6
 21
-485.723554973785
 31
0.0
  0
ARC
  5
DBCC
330
1E
100
AcDbEntity
  8
12
  6
DASHED
100
AcDbCircle
 10
70.0
 20
-470.7235549737851
 30
0.0
 40
25.5
210
0.0
220
0.0
230
-1.0
100
AcDbArc
 50
216.0318790000006
 51
203.0887719999964
  0
LINE
  5
DBCD
330
1E
100
AcDbEntity
  8
12
  6
DASHED
100
AcDbLine
 10
-100.5000000000002
 20
-470.7235549737851
 30
0.0
 11
-39.50000000000022
 21
-470.7235549737851
 31
0.0
  0
ARC
  5
DBCE
330
1E
100
AcDbEntity
  8
12
  6
DASHED
100
AcDbCircle
 10
0.0
 20
-470.7235549737851
 30
0.0
 40
25.5
210
0.0
220
0.0
230
-1.0
100
AcDbArc
 50
336.9112280000035
 51
203.0887719999964
  0
ARC
  5
DBCF
330
1E
100
AcDbEntity
  8
12
  6
DASHED
100
AcDbCircle
 10
-70.0
 20
-470.7235549737851
 30
0.0
 40
25.5
210
0.0
220
0.0
230
-1.0
100
AcDbArc
 50
336.9112280000035
 51
323.9681209999993
  0
LINE
  5
DBD0
330
1E
100
AcDbEntity
  8
12
  6
DASHED
100
AcDbLine
 10
-70.0
 20
-501.2235549737853
 30
0.0
 11
-70.0
 21
-440.2235549737853
 31
0.0
  0
LINE
  5
DBD1
330
1E
100
AcDbEntity
  8
1
  6
CENTER
 62
     3
 48
4.066666999999998
100
AcDbLine
 10
0.0
 20
-501.2235549737853
 30
0.0
 11
0.0
 21
-440.2235549737853
 31
0.0
  0
LINE
  5
DBD2
330
1E
100
AcDbEntity
  8
12
  6
DASHED
100
AcDbLine
 10
70.0
 20
-501.2235549737853
 30
0.0
 11
70.0
 21
-440.2235549737853
 31
0.0
  0
LINE
  5
DBD3
330
1E
100
AcDbEntity
  8
1
  6
Continuous
 62
     3
100
AcDbLine
 10
20.62158999999974
 20
-485.723554973785
 30
0.0
 11
49.37840999999981
 21
-485.723554973785
 31
0.0
  0
ARC
  5
DBD4
330
1E
100
AcDbEntity
  8
12
  6
DASHED
100
AcDbCircle
 10
0.0
 20
-470.7235549737851
 30
0.0
 40
25.5
210
0.0
220
0.0
230
-1.0
100
AcDbArc
 50
216.0318790000006
 51
323.9681209999993
  0
LINE
  5
DBD5
330
1E
100
AcDbEntity
  8
1
  6
Continuous
 62
     3
100
AcDbLine
 10
-20.62159000000018
 20
-485.723554973785
 30
0.0
 11
-49.37841000000026
 21
-485.723554973785
 31
0.0
  0
LINE
  5
DBD6
330
1E
100
AcDbEntity
  8
1
  6
Continuous
 62
     3
100
AcDbLine
 10
46.54259499999989
 20
-480.7235549737852
 30
0.0
 11
23.45740999999951
 21
-480.7235549737852
 31
0.0
  0
LINE
  5
DBD7
330
1E
100
AcDbEntity
  8
12
  6
DASHED
100
AcDbLine
 10
39.49999999999977
 20
-470.7235549737851
 30
0.0
 11
100.4999999999997
 21
-470.7235549737851
 31
0.0
  0
LINE
  5
DBD8
330
1E
100
AcDbEntity
  8
12
  6
DASHED
100
AcDbLine
 10
-30.50000000000022
 20
-470.7235549737851
 30
0.0
 11
30.49999999999977
 21
-470.7235549737851
 31
0.0
  0
LINE
  5
DBD9
330
1E
100
AcDbEntity
  8
12
  6
DASHED
100
AcDbLine
 10
-41.00000000000045
 20
-470.7235549737851
 30
0.0
 11
-29.00000000000023
 21
-470.7235549737851
 31
0.0
  0
LINE
  5
DBDA
330
1E
100
AcDbEntity
  8
1
  6
Continuous
 62
     3
100
AcDbLine
 10
-23.45740500000009
 20
-480.7235549737852
 30
0.0
 11
-46.54259000000045
 21
-480.7235549737852
 31
0.0
  0
LINE
  5
DBDB
330
1E
100
AcDbEntity
  8
12
  6
DASHED
100
AcDbLine
 10
-35.0
 20
-464.7235549737851
 30
0.0
 11
-35.0
 21
-476.7235549737853
 31
0.0
  0
CIRCLE
  5
DBDC
330
1E
100
AcDbEntity
  8
12
  6
DASHED
100
AcDbCircle
 10
-35.0
 20
-470.7235549737851
 30
0.0
 40
4.0
  0
LINE
  5
DBDD
330
1E
100
AcDbEntity
  8
1
  6
Continuous
 62
     3
100
AcDbLine
 10
28.99999999999954
 20
-470.7235549737851
 30
0.0
 11
40.99999999999977
 21
-470.7235549737851
 31
0.0
  0
LINE
  5
DBDE
330
1E
100
AcDbEntity
  8
12
  6
DASHED
100
AcDbLine
 10
35.0
 20
-476.7235549737853
 30
0.0
 11
35.0
 21
-464.7235549737851
 31
0.0
  0
LINE
  5
DBDF
330
1E
100
AcDbEntity
  8
12
  6
DASHED
100
AcDbLine
 10
35.0
 20
-464.7235549737851
 30
0.0
 11
35.0
 21
-476.7235549737853
 31
0.0
  0
CIRCLE
  5
DBE0
330
1E
100
AcDbEntity
  8
12
  6
DASHED
100
AcDbCircle
 10
35.0
 20
-470.7235549737851
 30
0.0
 40
4.0
  0
LINE
  5
DBE1
330
1E
100
AcDbEntity
  8
18
  6
DIVIDE
100
AcDbLine
 10
105.0
 20
-212.7235549737851
 30
0.0
 11
-104.6
 21
-212.7235549737851
 31
0.0
  0
LINE
  5
DBE2
330
1E
100
AcDbEntity
  8
16
100
AcDbLine
 10
115.0
 20
-353.7235549737853
 30
0.0
 11
-114.6000000000001
 21
-353.7235549737853
 31
0.0
  0
ARC
  5
DBE3
330
1E
100
AcDbEntity
  8
12
  6
DASHED
100
AcDbCircle
 10
-70.0
 20
-227.7235549737853
 30
0.0
 40
25.5
100
AcDbArc
 50
36.03187900000065
 51
23.08877199999646
  0
LINE
  5
DBE4
330
1E
100
AcDbEntity
  8
12
  6
DASHED
100
AcDbLine
 10
-100.5000000000002
 20
-227.7235549737853
 30
0.0
 11
-39.50000000000022
 21
-227.7235549737853
 31
0.0
  0
CIRCLE
  5
DBE5
330
1E
100
AcDbEntity
  8
12
  6
DASHED
100
AcDbCircle
 10
113.0000000000002
 20
-322.2235549737853
 30
0.0
 40
7.5
210
0.0
220
0.0
230
-1.0
  0
LINE
  5
DBE6
330
1E
100
AcDbEntity
  8
12
  6
DASHED
100
AcDbLine
 10
-113.0000000000002
 20
-334.7235549737853
 30
0.0
 11
-113.0000000000002
 21
-309.7235549737853
 31
0.0
  0
LINE
  5
DBE7
330
1E
100
AcDbEntity
  8
1
  6
CENTER
 62
     3
 48
1.666666999999999
100
AcDbLine
 10
-125.5000000000002
 20
-322.2235549737853
 30
0.0
 11
-100.5000000000002
 21
-322.2235549737853
 31
0.0
  0
CIRCLE
  5
DBE8
330
1E
100
AcDbEntity
  8
12
  6
DASHED
100
AcDbCircle
 10
112.9999999999997
 20
-323.2235549737853
 30
0.0
 40
7.5
  0
LINE
  5
DBE9
330
1E
100
AcDbEntity
  8
1
  6
CENTER
 62
     3
 48
1.666666999999999
100
AcDbLine
 10
112.9999999999997
 20
-335.7235549737853
 30
0.0
 11
112.9999999999997
 21
-310.7235549737853
 31
0.0
  0
LINE
  5
DBEA
330
1E
100
AcDbEntity
  8
12
  6
DASHED
100
AcDbLine
 10
100.4999999999997
 20
-323.2235549737853
 30
0.0
 11
125.4999999999997
 21
-323.2235549737853
 31
0.0
  0
ARC
  5
DBEB
330
1E
100
AcDbEntity
  8
12
  6
DASHED
100
AcDbCircle
 10
0.0
 20
-227.7235549737853
 30
0.0
 40
25.5
100
AcDbArc
 50
36.03187900000065
 51
143.9681209999993
  0
ARC
  5
DBEC
330
1E
100
AcDbEntity
  8
12
  6
DASHED
100
AcDbCircle
 10
70.0
 20
-227.7235549737853
 30
0.0
 40
25.5
100
AcDbArc
 50
156.9112280000035
 51
143.9681209999993
  0
ARC
  5
DBED
330
1E
100
AcDbEntity
  8
12
  6
DASHED
100
AcDbCircle
 10
0.0
 20
-227.7235549737853
 30
0.0
 40
25.5
100
AcDbArc
 50
156.9112280000035
 51
23.08877199999646
  0
LINE
  5
DBEE
330
1E
100
AcDbEntity
  8
12
  6
DASHED
100
AcDbLine
 10
-70.0
 20
-258.2235549737853
 30
0.0
 11
-70.0
 21
-197.2235549737853
 31
0.0
  0
LINE
  5
DBEF
330
1E
100
AcDbEntity
  8
1
  6
CENTER
 62
     3
 48
4.066666999999998
100
AcDbLine
 10
0.0
 20
-258.2235549737853
 30
0.0
 11
0.0
 21
-197.2235549737853
 31
0.0
  0
LINE
  5
DBF0
330
1E
100
AcDbEntity
  8
12
  6
DASHED
100
AcDbLine
 10
70.0
 20
-258.2235549737853
 30
0.0
 11
70.0
 21
-197.2235549737853
 31
0.0
  0
LINE
  5
DBF1
330
1E
100
AcDbEntity
  8
1
  6
Continuous
 62
     3
100
AcDbLine
 10
20.62158999999974
 20
-212.7235549737851
 30
0.0
 11
49.37840999999981
 21
-212.7235549737851
 31
0.0
  0
LINE
  5
DBF2
330
1E
100
AcDbEntity
  8
12
  6
DASHED
100
AcDbLine
 10
46.54259499999989
 20
-217.7235549737853
 30
0.0
 11
23.45740999999951
 21
-217.7235549737853
 31
0.0
  0
LINE
  5
DBF3
330
1E
100
AcDbEntity
  8
12
  6
DASHED
100
AcDbLine
 10
39.49999999999977
 20
-227.7235549737853
 30
0.0
 11
100.4999999999997
 21
-227.7235549737853
 31
0.0
  0
LINE
  5
DBF4
330
1E
100
AcDbEntity
  8
12
  6
DASHED
100
AcDbLine
 10
-30.50000000000022
 20
-227.7235549737853
 30
0.0
 11
30.49999999999977
 21
-227.7235549737853
 31
0.0
  0
LINE
  5
DBF5
330
1E
100
AcDbEntity
  8
12
  6
DASHED
100
AcDbLine
 10
-20.62159000000018
 20
-212.7235549737851
 30
0.0
 11
-49.37841000000026
 21
-212.7235549737851
 31
0.0
  0
LINE
  5
DBF6
330
1E
100
AcDbEntity
  8
12
  6
DASHED
100
AcDbLine
 10
-23.45740500000009
 20
-217.7235549737853
 30
0.0
 11
-46.54259000000045
 21
-217.7235549737853
 31
0.0
  0
LINE
  5
DBF7
330
1E
100
AcDbEntity
  8
1
  6
Continuous
 62
     3
100
AcDbLine
 10
-41.00000000000045
 20
-227.7235549737853
 30
0.0
 11
-29.00000000000023
 21
-227.7235549737853
 31
0.0
  0
LINE
  5
DBF8
330
1E
100
AcDbEntity
  8
1
  6
Continuous
 62
     3
100
AcDbLine
 10
-35.0
 20
-221.7235549737853
 30
0.0
 11
-35.0
 21
-233.7235549737853
 31
0.0
  0
CIRCLE
  5
DBF9
330
1E
100
AcDbEntity
  8
12
  6
DASHED
100
AcDbCircle
 10
-35.0
 20
-227.7235549737853
 30
0.0
 40
4.0
  0
LINE
  5
DBFA
330
1E
100
AcDbEntity
  8
1
  6
Continuous
 62
     3
100
AcDbLine
 10
35.0
 20
-221.7235549737853
 30
0.0
 11
35.0
 21
-233.7235549737853
 31
0.0
  0
LINE
  5
DBFB
330
1E
100
AcDbEntity
  8
1
  6
Continuous
 62
     3
100
AcDbLine
 10
28.99999999999954
 20
-227.7235549737853
 30
0.0
 11
40.99999999999977
 21
-227.7235549737853
 31
0.0
  0
CIRCLE
  5
DBFC
330
1E
100
AcDbEntity
  8
12
  6
DASHED
100
AcDbCircle
 10
35.0
 20
-227.7235549737853
 30
0.0
 40
4.0
  0
DIMENSION
  5
DCFC
330
1E
100
AcDbEntity
  8
30
  6
Continuous
100
AcDbDimension
  2
*D39
 10
-81.88478326662812
 20
-493.2846260189561
 30
0.0
 11
-44.13122825533953
 21
-440.5996159250872
 31
0.0
 70
   163
 71
     5
 42
50.99999999999994
  3
STANDARD1
100
AcDbDiametricDimension
 15
-58.11521673337175
 25
-448.1624839286133
 35
0.0
 40
0.0
  0
DIMENSION
  5
DD08
330
1E
100
AcDbEntity
  8
30
  6
Continuous
100
AcDbDimension
  2
*D40
 10
175.9692079724304
 20
-480.7235549737852
 30
0.0
 11
175.9692079724304
 21
-483.2235549737854
 31
0.0
 70
   160
 71
     5
 42
5.000000000000113
  3
STANDARD1
100
AcDbAlignedDimension
 13
106.4999999999995
 23
-485.7235549737853
 33
0.0
 14
105.4999999999995
 24
-480.7235549737852
 34
0.0
 50
90.0
100
AcDbRotatedDimension
1001
ACAD
1000
DSTYLE
1002
{
1070
   140
1040
5.0
1070
   172
1070
     1
1002
}
  0
DIMENSION
  5
E08D
330
1E
100
AcDbEntity
  8
30
  6
Continuous
100
AcDbDimension
  2
*D41
 10
552.0840630160936
 20
-123.4999999999996
 30
0.0
 11
552.0840630160936
 21
-116.9999999999997
 31
0.0
 70
   160
 71
     5
 42
13.00000000000002
  3
STANDARD1
100
AcDbAlignedDimension
 13
529.0
 23
-110.4999999999997
 33
0.0
 14
528.9999999999999
 24
-123.4999999999996
 34
0.0
 50
90.0
100
AcDbRotatedDimension
  0
LINE
  5
E0A5
330
1E
100
AcDbEntity
  8
17
100
AcDbLine
 10
541.5690455340437
 20
-116.9999999999999
 30
0.0
 11
463.0
 21
-116.9999999999999
 31
0.0
  0
DIMENSION
  5
E0E3
330
1E
100
AcDbEntity
  8
30
  6
Continuous
100
AcDbDimension
  2
*D42
 10
-34.52102469071427
 20
-231.6947742642669
 30
0.0
 11
-30.09837012760682
 21
-202.034741831927
 31
0.0
 70
   163
  1
M8
 71
     5
 42
7.999999999999971
  3
STANDARD1
100
AcDbDiametricDimension
 15
-35.47897530928571
 25
-223.7523356833035
 35
0.0
 40
0.0
  0
VIEWPORT
  5
9AC
330
1A
100
AcDbEntity
 67
     1
  8
0
  6
Continuous
100
AcDbViewport
 10
171.999535
 20
144.1384739999999
 30
0.0
 40
488.867686
 41
292.351491
 68
    -1
 69
     1
 12
171.999535
 22
144.1384739999999
 13
0.0
 23
0.0
 14
10.0
 24
10.0
 15
10.0
 25
10.0
 16
0.0
 26
0.0
 36
1.0
 17
0.0
 27
0.0
 37
0.0
 42
50.0
 43
0.0
 44
0.0
 45
292.351491
 50
0.0
 51
0.0
 72
   100
 90
    32800
  1

281
     0
 71
     1
 74
     0
110
0.0
120
0.0
130
0.0
111
1.0
121
0.0
131
0.0
112
0.0
122
1.0
132
0.0
 79
     0
146
0.0
  0
ENDSEC
  0
SECTION
  2
OBJECTS
  0
DICTIONARY
  5
C
330
0
100
AcDbDictionary
281
     1
  3
ACAD_GROUP
350
D
  3
ACAD_LAYOUT
350
19
  3
ACAD_MLINESTYLE
350
16
  3
ACAD_PLOTSETTINGS
350
18
  3
ACAD_PLOTSTYLENAME
350
E
  3
AcadDim
350
E0E2
  3
ACDBHEADERROUNDTRIPXREC
350
E16F
  3
ACDBVARIABLEDICTIONARY
350
5697
  0
DICTIONARY
  5
178
330
1E
100
AcDbDictionary
280
     1
281
     1
  3
ACAD_LAYOUTSELFREF
360
98E8
  0
DICTIONARY
  5
17A
330
1A
100
AcDbDictionary
280
     1
281
     1
  3
ACAD_LAYOUTSELFREF
360
98E7
  0
DICTIONARY
  5
D
102
{ACAD_REACTORS
330
C
102
}
330
C
100
AcDbDictionary
281
     1
  0
DICTIONARY
  5
19
102
{ACAD_REACTORS
330
C
102
}
330
C
100
AcDbDictionary
281
     1
  3
Model
350
9913
  3
ﾚｲｱｳﾄ1
350
9914
  0
DICTIONARY
  5
16
102
{ACAD_REACTORS
330
C
102
}
330
C
100
AcDbDictionary
281
     1
  3
STANDARD
350
17
  0
DICTIONARY
  5
18
102
{ACAD_REACTORS
330
C
102
}
330
C
100
AcDbDictionary
281
     1
  0
ACDBDICTIONARYWDFLT
  5
E
102
{ACAD_REACTORS
330
C
102
}
330
C
100
AcDbDictionary
281
     1
  3
Normal
350
F
100
AcDbDictionaryWithDefault
340
F
  0
XRECORD
  5
E0E2
102
{ACAD_REACTORS
330
C
102
}
330
C
100
AcDbXrecord
280
     1
 90
   990106
  3

 60
     0
 61
     0
 62
     1
 63
     3
 64
     0
 65
     0
 66
     0
 67
     3
 68
     1
 69
     0
 70
     0
 71
     0
 72
     0
 40
0.0
170
     0
340
7CA9
  0
DICTIONARY
  5
E16F
102
{ACAD_REACTORS
330
C
102
}
330
C
100
AcDbDictionary
281
     1
  3
CEPSNTYPE
350
E179
  3
DIMSTYLEDATA
350
E17D
  3
FINGERPRINTGUID
350
E17A
  3
HYPERLINKBASE
350
E172
  3
INSUNITS
350
E178
  3
LAYOUTDICT
350
E174
  3
LWETCUNION
350
E177
  3
PLOTSETDICT
350
E175
  3
PLOTSTYLNAMDICT
350
E176
  3
PSVPSCALE
350
E17C
  3
PUCSBASE
350
E180
  3
PUCSORGBACK
350
E186
  3
PUCSORGBOTTOM
350
E182
  3
PUCSORGFRONT
350
E185
  3
PUCSORGLEFT
350
E183
  3
PUCSORGRIGHT
350
E184
  3
PUCSORGTOP
350
E181
  3
PUCSORTHOREF
350
E17E
  3
PUCSORTHOVIEW
350
E17F
  3
STYLESHEET
350
E173
  3
TSTACKALIGN
350
E170
  3
TSTACKSIZE
350
E171
  3
UCSBASE
350
E189
  3
UCSORGBACK
350
E18F
  3
UCSORGBOTTOM
350
E18B
  3
UCSORGFRONT
350
E18E
  3
UCSORGLEFT
350
E18C
  3
UCSORGRIGHT
350
E18D
  3
UCSORGTOP
350
E18A
  3
UCSORTHOREF
350
E187
  3
UCSORTHOVIEW
350
E188
  3
VERSIONGUID
350
E17B
  0
DICTIONARY
  5
5697
102
{ACAD_REACTORS
330
C
102
}
330
C
100
AcDbDictionary
281
     1
  3
DIMASSOC
350
5698
  0
XRECORD
  5
98E8
102
{ACAD_REACTORS
330
178
102
}
330
178
100
AcDbXrecord
280
     1
340
1E
  0
XRECORD
  5
98E7
102
{ACAD_REACTORS
330
17A
102
}
330
17A
100
AcDbXrecord
280
     1
340
1A
  0
LAYOUT
  5
9913
102
{ACAD_REACTORS
330
19
102
}
330
19
100
AcDbPlotSettings
  1

  2
DocuWorks Printer
  4
A4
  6
OLE1
 40
5.408083438873291
 41
5.408078670501708
 42
5.408096313476562
 43
5.4080810546875
 44
210.0156707763671
 45
297.0106506347656
 46
21.64
 47
32.34
 48
0.0
 49
0.0
140
0.0
141
0.0
142
1.0
143
5.0
 70
 11940
 72
     1
 73
     0
 74
     1
  7
monochrome.ctb
 75
     0
147
0.2
148
159.5254336138318
149
556.3389252521319
100
AcDbLayout
  1
Model
 70
     1
 71
     0
 10
0.0
 20
0.0
 11
12.0
 21
9.0
 12
0.0
 22
0.0
 32
0.0
 14
0.0
 24
0.0
 34
0.0
 15
0.0
 25
0.0
 35
0.0
146
0.0
 13
0.0
 23
0.0
 33
0.0
 16
1.0
 26
0.0
 36
0.0
 17
0.0
 27
1.0
 37
0.0
 76
     0
330
1E
  0
LAYOUT
  5
9914
102
{ACAD_REACTORS
330
19
102
}
330
19
100
AcDbPlotSettings
  1

  2
LBP5400
  4

  6

 40
0.0
 41
0.0
 42
0.0
 43
0.0
 44
0.0
 45
0.0
 46
0.0
 47
0.0
 48
0.0
 49
0.0
140
0.0
141
0.0
142
1.0
143
1.0
 70
   688
 72
     0
 73
     0
 74
     5
  7
monochrome.ctb
 75
    16
147
1.0
148
0.0
149
0.0
100
AcDbLayout
  1
ﾚｲｱｳﾄ1
 70
     1
 71
     1
 10
-5.873749
 20
-5.87375
 11
204.099579
 21
291.1369009999999
 12
0.0
 22
0.0
 32
0.0
 14
4.273573
 24
5.205245999999998
 34
0.0
 15
194.610095
 25
283.0697009999996
 35
0.0
146
0.0
 13
0.0
 23
0.0
 33
0.0
 16
1.0
 26
0.0
 36
0.0
 17
0.0
 27
1.0
 37
0.0
 76
     0
330
1A
  0
MLINESTYLE
  5
17
102
{ACAD_REACTORS
330
16
102
}
330
16
100
AcDbMlineStyle
  2
STANDARD
 70
     0
  3

 62
   256
 51
90.0
 52
90.0
 71
     2
 49
0.5
 62
   256
  6
BYLAYER
 49
-0.5
 62
   256
  6
BYLAYER
  0
ACDBPLACEHOLDER
  5
F
102
{ACAD_REACTORS
330
E
102
}
330
E
  0
XRECORD
  5
E179
102
{ACAD_REACTORS
330
E16F
102
}
330
E16F
100
AcDbXrecord
280
     1
 90
        0
  0
XRECORD
  5
E17D
102
{ACAD_REACTORS
330
E16F
102
}
330
E16F
100
AcDbXrecord
280
     1
1000
DSTYLE
1002
{
1070
   289
 70
     2
1070
   341
340
3B2
1070
   342
340
3B2
1002
}
  0
XRECORD
  5
E17A
102
{ACAD_REACTORS
330
E16F
102
}
330
E16F
100
AcDbXrecord
280
     1
  1

  0
XRECORD
  5
E172
102
{ACAD_REACTORS
330
E16F
102
}
330
E16F
100
AcDbXrecord
280
     1
  1

  0
XRECORD
  5
E178
102
{ACAD_REACTORS
330
E16F
102
}
330
E16F
100
AcDbXrecord
280
     1
 90
        0
  0
XRECORD
  5
E174
102
{ACAD_REACTORS
330
E16F
102
}
330
E16F
100
AcDbXrecord
280
     1
340
19
  0
XRECORD
  5
E177
102
{ACAD_REACTORS
330
E16F
102
}
330
E16F
100
AcDbXrecord
280
     1
 90
    10781
  0
XRECORD
  5
E175
102
{ACAD_REACTORS
330
E16F
102
}
330
E16F
100
AcDbXrecord
280
     1
340
18
  0
XRECORD
  5
E176
102
{ACAD_REACTORS
330
E16F
102
}
330
E16F
100
AcDbXrecord
280
     1
340
E
  0
XRECORD
  5
E17C
102
{ACAD_REACTORS
330
E16F
102
}
330
E16F
100
AcDbXrecord
280
     1
 40
0.0
  0
XRECORD
  5
E180
102
{ACAD_REACTORS
330
E16F
102
}
330
E16F
100
AcDbXrecord
280
     1
340
0
  0
XRECORD
  5
E186
102
{ACAD_REACTORS
330
E16F
102
}
330
E16F
100
AcDbXrecord
280
     1
 10
0.0
 20
0.0
 30
0.0
  0
XRECORD
  5
E182
102
{ACAD_REACTORS
330
E16F
102
}
330
E16F
100
AcDbXrecord
280
     1
 10
0.0
 20
0.0
 30
0.0
  0
XRECORD
  5
E185
102
{ACAD_REACTORS
330
E16F
102
}
330
E16F
100
AcDbXrecord
280
     1
 10
0.0
 20
0.0
 30
0.0
  0
XRECORD
  5
E183
102
{ACAD_REACTORS
330
E16F
102
}
330
E16F
100
AcDbXrecord
280
     1
 10
0.0
 20
0.0
 30
0.0
  0
XRECORD
  5
E184
102
{ACAD_REACTORS
330
E16F
102
}
330
E16F
100
AcDbXrecord
280
     1
 10
0.0
 20
0.0
 30
0.0
  0
XRECORD
  5
E181
102
{ACAD_REACTORS
330
E16F
102
}
330
E16F
100
AcDbXrecord
280
     1
 10
0.0
 20
0.0
 30
0.0
  0
XRECORD
  5
E17E
102
{ACAD_REACTORS
330
E16F
102
}
330
E16F
100
AcDbXrecord
280
     1
340
0
  0
XRECORD
  5
E17F
102
{ACAD_REACTORS
330
E16F
102
}
330
E16F
100
AcDbXrecord
280
     1
 70
     0
  0
XRECORD
  5
E173
102
{ACAD_REACTORS
330
E16F
102
}
330
E16F
100
AcDbXrecord
280
     1
  1
monochrome.ctb
  0
XRECORD
  5
E170
102
{ACAD_REACTORS
330
E16F
102
}
330
E16F
100
AcDbXrecord
280
     1
 90
        1
  0
XRECORD
  5
E171
102
{ACAD_REACTORS
330
E16F
102
}
330
E16F
100
AcDbXrecord
280
     1
 90
       70
  0
XRECORD
  5
E189
102
{ACAD_REACTORS
330
E16F
102
}
330
E16F
100
AcDbXrecord
280
     1
340
0
  0
XRECORD
  5
E18F
102
{ACAD_REACTORS
330
E16F
102
}
330
E16F
100
AcDbXrecord
280
     1
 10
0.0
 20
0.0
 30
0.0
  0
XRECORD
  5
E18B
102
{ACAD_REACTORS
330
E16F
102
}
330
E16F
100
AcDbXrecord
280
     1
 10
0.0
 20
0.0
 30
0.0
  0
XRECORD
  5
E18E
102
{ACAD_REACTORS
330
E16F
102
}
330
E16F
100
AcDbXrecord
280
     1
 10
0.0
 20
0.0
 30
0.0
  0
XRECORD
  5
E18C
102
{ACAD_REACTORS
330
E16F
102
}
330
E16F
100
AcDbXrecord
280
     1
 10
0.0
 20
0.0
 30
0.0
  0
XRECORD
  5
E18D
102
{ACAD_REACTORS
330
E16F
102
}
330
E16F
100
AcDbXrecord
280
     1
 10
0.0
 20
0.0
 30
0.0
  0
XRECORD
  5
E18A
102
{ACAD_REACTORS
330
E16F
102
}
330
E16F
100
AcDbXrecord
280
     1
 10
0.0
 20
0.0
 30
0.0
  0
XRECORD
  5
E187
102
{ACAD_REACTORS
330
E16F
102
}
330
E16F
100
AcDbXrecord
280
     1
340
0
  0
XRECORD
  5
E188
102
{ACAD_REACTORS
330
E16F
102
}
330
E16F
100
AcDbXrecord
280
     1
 70
     0
  0
XRECORD
  5
E17B
102
{ACAD_REACTORS
330
E16F
102
}
330
E16F
100
AcDbXrecord
280
     1
  1
{56CCF5B8-876A-4CAD-98D0-1996AA520134}
  0
DICTIONARYVAR
  5
5698
102
{ACAD_REACTORS
330
5697
102
}
330
5697
100
DictionaryVariables
280
     0
  1
1
  0
ENDSEC
  0
EOF
