  0
SECTION
  2
HEADER
  9
$ACADVER
  1
AC1014
  9
$ACADMAINTVER
 70
     9
  9
$DWGCODEPAGE
  3
ANSI_932
  9
$INSBASE
 10
0.0
 20
0.0
 30
0.0
  9
$EXTMIN
 10
-126.0391832222687
 20
-573.5155059238741
 30
-0.0000000000112498
  9
$EXTMAX
 10
402.6673291773386
 20
443.4255592938507
 30
0.0000000000002956
  9
$LIMMIN
 10
-138.0
 20
-536.0
  9
$LIMMAX
 10
435.0
 20
423.0
  9
$ORTHOMODE
 70
     1
  9
$REGENMODE
 70
     1
  9
$FILLMODE
 70
     1
  9
$QTEXTMODE
 70
     0
  9
$MIRRTEXT
 70
     1
  9
$DRAGMODE
 70
     2
  9
$LTSCALE
 40
10.0
  9
$OSMODE
 70
    37
  9
$ATTMODE
 70
     1
  9
$TEXTSIZE
 40
5.0
  9
$TRACEWID
 40
0.05
  9
$TEXTSTYLE
  7
STANDARD1
  9
$CLAYER
  8
30
  9
$CELTYPE
  6
CONTINUOUS
  9
$CECOLOR
 62
   256
  9
$CELTSCALE
 40
1.0
  9
$DELOBJ
 70
     1
  9
$DISPSILH
 70
     0
  9
$DIMSCALE
 40
1.0
  9
$DIMASZ
 40
2.0
  9
$DIMEXO
 40
1.0
  9
$DIMDLI
 40
0.5
  9
$DIMRND
 40
0.0
  9
$DIMDLE
 40
0.0
  9
$DIMEXE
 40
0.5
  9
$DIMTP
 40
0.0
  9
$DIMTM
 40
0.0
  9
$DIMTXT
 40
5.0
  9
$DIMCEN
 40
0.09
  9
$DIMTSZ
 40
0.0
  9
$DIMTOL
 70
     0
  9
$DIMLIM
 70
     0
  9
$DIMTIH
 70
     0
  9
$DIMTOH
 70
     1
  9
$DIMSE1
 70
     0
  9
$DIMSE2
 70
     0
  9
$DIMTAD
 70
     3
  9
$DIMZIN
 70
    12
  9
$DIMBLK
  1
OPEN
  9
$DIMASO
 70
     1
  9
$DIMSHO
 70
     1
  9
$DIMPOST
  1

  9
$DIMAPOST
  1

  9
$DIMALT
 70
     0
  9
$DIMALTD
 70
     2
  9
$DIMALTF
 40
25.4
  9
$DIMLFAC
 40
1.0
  9
$DIMTOFL
 70
     0
  9
$DIMTVP
 40
0.0
  9
$DIMTIX
 70
     0
  9
$DIMSOXD
 70
     0
  9
$DIMSAH
 70
     0
  9
$DIMBLK1
  1

  9
$DIMBLK2
  1

  9
$DIMSTYLE
  2
STANDARD
  9
$DIMCLRD
 70
     0
  9
$DIMCLRE
 70
     0
  9
$DIMCLRT
 70
     0
  9
$DIMTFAC
 40
1.0
  9
$DIMGAP
 40
1.0
  9
$DIMJUST
 70
     0
  9
$DIMSD1
 70
     0
  9
$DIMSD2
 70
     0
  9
$DIMTOLJ
 70
     1
  9
$DIMTZIN
 70
     0
  9
$DIMALTZ
 70
     0
  9
$DIMALTTZ
 70
     0
  9
$DIMFIT
 70
     3
  9
$DIMUPT
 70
     0
  9
$DIMUNIT
 70
     2
  9
$DIMDEC
 70
     1
  9
$DIMTDEC
 70
     1
  9
$DIMALTU
 70
     2
  9
$DIMALTTD
 70
     2
  9
$DIMTXSTY
  7
STANDARD
  9
$DIMAUNIT
 70
     0
  9
$LUNITS
 70
     2
  9
$LUPREC
 70
     4
  9
$SKETCHINC
 40
0.1
  9
$FILLETRAD
 40
0.0
  9
$AUNITS
 70
     0
  9
$AUPREC
 70
     0
  9
$MENU
  1
.
  9
$ELEVATION
 40
0.0
  9
$PELEVATION
 40
0.0
  9
$THICKNESS
 40
0.0
  9
$LIMCHECK
 70
     0
  9
$BLIPMODE
 70
     0
  9
$CHAMFERA
 40
0.0
  9
$CHAMFERB
 40
0.0
  9
$CHAMFERC
 40
0.0
  9
$CHAMFERD
 40
0.0
  9
$SKPOLY
 70
     0
  9
$TDCREATE
 40
2452286.555658657
  9
$TDUPDATE
 40
2453187.705385914
  9
$TDINDWG
 40
1.4266000231
  9
$TDUSRTIMER
 40
1.4266000231
  9
$USRTIMER
 70
     1
  9
$ANGBASE
 50
0.0
  9
$ANGDIR
 70
     0
  9
$PDMODE
 70
     0
  9
$PDSIZE
 40
0.0
  9
$PLINEWID
 40
0.0
  9
$COORDS
 70
     1
  9
$SPLFRAME
 70
     0
  9
$SPLINETYPE
 70
     6
  9
$SPLINESEGS
 70
     8
  9
$ATTDIA
 70
     0
  9
$ATTREQ
 70
     1
  9
$HANDLING
 70
 22529
  9
$HANDSEED
  5
6D3D
  9
$SURFTAB1
 70
     6
  9
$SURFTAB2
 70
     6
  9
$SURFTYPE
 70
     6
  9
$SURFU
 70
     6
  9
$SURFV
 70
     6
  9
$UCSNAME
  2

  9
$UCSORG
 10
0.0
 20
0.0
 30
0.0
  9
$UCSXDIR
 10
1.0
 20
0.0
 30
0.0
  9
$UCSYDIR
 10
0.0
 20
1.0
 30
0.0
  9
$PUCSNAME
  2

  9
$PUCSORG
 10
0.0
 20
0.0
 30
0.0
  9
$PUCSXDIR
 10
1.0
 20
0.0
 30
0.0
  9
$PUCSYDIR
 10
0.0
 20
1.0
 30
0.0
  9
$USERI1
 70
     0
  9
$USERI2
 70
     0
  9
$USERI3
 70
     0
  9
$USERI4
 70
     0
  9
$USERI5
 70
     0
  9
$USERR1
 40
0.0
  9
$USERR2
 40
0.0
  9
$USERR3
 40
0.0
  9
$USERR4
 40
0.0
  9
$USERR5
 40
0.0
  9
$WORLDVIEW
 70
     1
  9
$SHADEDGE
 70
     3
  9
$SHADEDIF
 70
    70
  9
$TILEMODE
 70
     1
  9
$MAXACTVP
 70
    48
  9
$PINSBASE
 10
0.0
 20
0.0
 30
0.0
  9
$PLIMCHECK
 70
     0
  9
$PEXTMIN
 10
4.273573370203961
 20
5.205246163471485
 30
0.0
  9
$PEXTMAX
 10
194.6100952986349
 20
283.0697008572913
 30
0.0
  9
$PLIMMIN
 10
-5.873748779296875
 20
-5.873749732971191
  9
$PLIMMAX
 10
204.0995788574218
 20
291.1369009017943
  9
$UNITMODE
 70
     0
  9
$VISRETAIN
 70
     1
  9
$PLINEGEN
 70
     0
  9
$PSLTSCALE
 70
     1
  9
$TREEDEPTH
 70
  3020
  9
$PICKSTYLE
 70
     1
  9
$CMLSTYLE
  2
STANDARD
  9
$CMLJUST
 70
     0
  9
$CMLSCALE
 40
1.0
  9
$PROXYGRAPHICS
 70
     1
  9
$MEASUREMENT
 70
     0
  0
ENDSEC
  0
SECTION
  2
CLASSES
  0
CLASS
  1
ACDBDICTIONARYWDFLT
  2
AcDbDictionaryWithDefault
  3
AutoCAD 2000
 90
        0
280
     0
281
     0
  0
CLASS
  1
ACDBPLACEHOLDER
  2
AcDbPlaceHolder
  3
AutoCAD 2000
 90
        0
280
     0
281
     0
  0
CLASS
  1
LAYOUT
  2
AcDbLayout
  3
AutoCAD 2000
 90
        0
280
     0
281
     0
  0
CLASS
  1
LONG_TRANSACTION
  2
AcDbLongTransaction
  3
AutoCAD 2000
 90
        0
280
     0
281
     0
  0
CLASS
  1
LWPOLYLINE
  2
AcDbPolyline
  3
AutoCAD 2000
 90
        0
280
     0
281
     1
  0
CLASS
  1
HATCH
  2
AcDbHatch
  3
AutoCAD 2000
 90
        0
280
     0
281
     1
  0
CLASS
  1
XRECORD
  2
AcDbXrecord
  3
AutoCAD 2000
 90
        0
280
     0
281
     0
  0
CLASS
  1
LONG_TRANSACTION
  2
AcDbLongTransaction
  3
AutoCAD 2000
 90
        0
280
     0
281
     0
  0
CLASS
  1
LWPOLYLINE
  2
AcDbPolyline
  3
AutoCAD 2000
 90
        0
280
     0
281
     1
  0
CLASS
  1
HATCH
  2
AcDbHatch
  3
AutoCAD 2000
 90
        0
280
     0
281
     1
  0
CLASS
  1
XRECORD
  2
AcDbXrecord
  3
AutoCAD 2000
 90
        0
280
     0
281
     0
  0
CLASS
  1
LONG_TRANSACTION
  2
AcDbLongTransaction
  3
AutoCAD 2000
 90
        0
280
     0
281
     0
  0
CLASS
  1
LWPOLYLINE
  2
AcDbPolyline
  3
AutoCAD 2000
 90
        0
280
     0
281
     1
  0
CLASS
  1
HATCH
  2
AcDbHatch
  3
AutoCAD 2000
 90
        0
280
     0
281
     1
  0
CLASS
  1
XRECORD
  2
AcDbXrecord
  3
AutoCAD 2000
 90
        0
280
     0
281
     0
  0
CLASS
  1
LONG_TRANSACTION
  2
AcDbLongTransaction
  3
AutoCAD 2000
 90
        0
280
     0
281
     0
  0
CLASS
  1
LWPOLYLINE
  2
AcDbPolyline
  3
AutoCAD 2000
 90
        0
280
     0
281
     1
  0
CLASS
  1
HATCH
  2
AcDbHatch
  3
AutoCAD 2000
 90
        0
280
     0
281
     1
  0
CLASS
  1
XRECORD
  2
AcDbXrecord
  3
AutoCAD 2000
 90
        0
280
     0
281
     0
  0
CLASS
  1
LONG_TRANSACTION
  2
AcDbLongTransaction
  3
AutoCAD 2000
 90
        0
280
     0
281
     0
  0
CLASS
  1
LWPOLYLINE
  2
AcDbPolyline
  3
AutoCAD 2000
 90
        0
280
     0
281
     1
  0
CLASS
  1
HATCH
  2
AcDbHatch
  3
AutoCAD 2000
 90
        0
280
     0
281
     1
  0
CLASS
  1
XRECORD
  2
AcDbXrecord
  3
AutoCAD 2000
 90
        0
280
     0
281
     0
  0
CLASS
  1
LONG_TRANSACTION
  2
AcDbLongTransaction
  3
AutoCAD 2000
 90
        0
280
     0
281
     0
  0
CLASS
  1
LWPOLYLINE
  2
AcDbPolyline
  3
AutoCAD 2000
 90
        0
280
     0
281
     1
  0
CLASS
  1
HATCH
  2
AcDbHatch
  3
AutoCAD 2000
 90
        0
280
     0
281
     1
  0
CLASS
  1
XRECORD
  2
AcDbXrecord
  3
AutoCAD 2000
 90
        0
280
     0
281
     0
  0
CLASS
  1
LONG_TRANSACTION
  2
AcDbLongTransaction
  3
AutoCAD 2000
 90
        0
280
     0
281
     0
  0
CLASS
  1
LWPOLYLINE
  2
AcDbPolyline
  3
AutoCAD 2000
 90
        0
280
     0
281
     1
  0
CLASS
  1
HATCH
  2
AcDbHatch
  3
AutoCAD 2000
 90
        0
280
     0
281
     1
  0
CLASS
  1
XRECORD
  2
AcDbXrecord
  3
AutoCAD 2000
 90
        0
280
     0
281
     0
  0
CLASS
  1
LONG_TRANSACTION
  2
AcDbLongTransaction
  3
AutoCAD 2000
 90
        0
280
     0
281
     0
  0
CLASS
  1
LWPOLYLINE
  2
AcDbPolyline
  3
AutoCAD 2000
 90
        0
280
     0
281
     1
  0
CLASS
  1
HATCH
  2
AcDbHatch
  3
AutoCAD 2000
 90
        0
280
     0
281
     1
  0
CLASS
  1
XRECORD
  2
AcDbXrecord
  3
AutoCAD 2000
 90
        0
280
     0
281
     0
  0
CLASS
  1
LONG_TRANSACTION
  2
AcDbLongTransaction
  3
AutoCAD 2000
 90
        0
280
     0
281
     0
  0
CLASS
  1
LWPOLYLINE
  2
AcDbPolyline
  3
AutoCAD 2000
 90
        0
280
     0
281
     1
  0
CLASS
  1
HATCH
  2
AcDbHatch
  3
AutoCAD 2000
 90
        0
280
     0
281
     1
  0
CLASS
  1
XRECORD
  2
AcDbXrecord
  3
AutoCAD 2000
 90
        0
280
     0
281
     0
  0
CLASS
  1
LONG_TRANSACTION
  2
AcDbLongTransaction
  3
AutoCAD 2000
 90
        0
280
     0
281
     0
  0
CLASS
  1
LWPOLYLINE
  2
AcDbPolyline
  3
AutoCAD 2000
 90
        0
280
     0
281
     1
  0
CLASS
  1
HATCH
  2
AcDbHatch
  3
AutoCAD 2000
 90
        0
280
     0
281
     1
  0
CLASS
  1
XRECORD
  2
AcDbXrecord
  3
AutoCAD 2000
 90
        0
280
     0
281
     0
  0
CLASS
  1
LONG_TRANSACTION
  2
AcDbLongTransaction
  3
AutoCAD 2000
 90
        0
280
     0
281
     0
  0
CLASS
  1
LWPOLYLINE
  2
AcDbPolyline
  3
AutoCAD 2000
 90
        0
280
     0
281
     1
  0
CLASS
  1
HATCH
  2
AcDbHatch
  3
AutoCAD 2000
 90
        0
280
     0
281
     1
  0
CLASS
  1
XRECORD
  2
AcDbXrecord
  3
AutoCAD 2000
 90
        0
280
     0
281
     0
  0
CLASS
  1
LONG_TRANSACTION
  2
AcDbLongTransaction
  3
AutoCAD 2000
 90
        0
280
     0
281
     0
  0
CLASS
  1
LWPOLYLINE
  2
AcDbPolyline
  3
AutoCAD 2000
 90
        0
280
     0
281
     1
  0
CLASS
  1
HATCH
  2
AcDbHatch
  3
AutoCAD 2000
 90
        0
280
     0
281
     1
  0
CLASS
  1
XRECORD
  2
AcDbXrecord
  3
AutoCAD 2000
 90
        0
280
     0
281
     0
  0
CLASS
  1
LONG_TRANSACTION
  2
AcDbLongTransaction
  3
AutoCAD 2000
 90
        0
280
     0
281
     0
  0
CLASS
  1
LWPOLYLINE
  2
AcDbPolyline
  3
AutoCAD 2000
 90
        0
280
     0
281
     1
  0
CLASS
  1
HATCH
  2
AcDbHatch
  3
AutoCAD 2000
 90
        0
280
     0
281
     1
  0
CLASS
  1
XRECORD
  2
AcDbXrecord
  3
AutoCAD 2000
 90
        0
280
     0
281
     0
  0
CLASS
  1
LONG_TRANSACTION
  2
AcDbLongTransaction
  3
AutoCAD 2000
 90
        0
280
     0
281
     0
  0
CLASS
  1
LWPOLYLINE
  2
AcDbPolyline
  3
AutoCAD 2000
 90
        0
280
     0
281
     1
  0
CLASS
  1
HATCH
  2
AcDbHatch
  3
AutoCAD 2000
 90
        0
280
     0
281
     1
  0
CLASS
  1
XRECORD
  2
AcDbXrecord
  3
AutoCAD 2000
 90
        0
280
     0
281
     0
  0
CLASS
  1
LONG_TRANSACTION
  2
AcDbLongTransaction
  3
AutoCAD 2000
 90
        0
280
     0
281
     0
  0
CLASS
  1
LWPOLYLINE
  2
AcDbPolyline
  3
AutoCAD 2000
 90
        0
280
     0
281
     1
  0
CLASS
  1
HATCH
  2
AcDbHatch
  3
AutoCAD 2000
 90
        0
280
     0
281
     1
  0
CLASS
  1
XRECORD
  2
AcDbXrecord
  3
AutoCAD 2000
 90
        0
280
     0
281
     0
  0
CLASS
  1
LONG_TRANSACTION
  2
AcDbLongTransaction
  3
AutoCAD 2000
 90
        0
280
     0
281
     0
  0
CLASS
  1
LWPOLYLINE
  2
AcDbPolyline
  3
AutoCAD 2000
 90
        0
280
     0
281
     1
  0
CLASS
  1
HATCH
  2
AcDbHatch
  3
AutoCAD 2000
 90
        0
280
     0
281
     1
  0
CLASS
  1
XRECORD
  2
AcDbXrecord
  3
AutoCAD 2000
 90
        0
280
     0
281
     0
  0
CLASS
  1
LONG_TRANSACTION
  2
AcDbLongTransaction
  3
AutoCAD 2000
 90
        0
280
     0
281
     0
  0
CLASS
  1
LWPOLYLINE
  2
AcDbPolyline
  3
AutoCAD 2000
 90
        0
280
     0
281
     1
  0
CLASS
  1
HATCH
  2
AcDbHatch
  3
AutoCAD 2000
 90
        0
280
     0
281
     1
  0
CLASS
  1
XRECORD
  2
AcDbXrecord
  3
AutoCAD 2000
 90
        0
280
     0
281
     0
  0
CLASS
  1
LONG_TRANSACTION
  2
AcDbLongTransaction
  3
AutoCAD 2000
 90
        0
280
     0
281
     0
  0
CLASS
  1
LWPOLYLINE
  2
AcDbPolyline
  3
AutoCAD 2000
 90
        0
280
     0
281
     1
  0
CLASS
  1
HATCH
  2
AcDbHatch
  3
AutoCAD 2000
 90
        0
280
     0
281
     1
  0
CLASS
  1
XRECORD
  2
AcDbXrecord
  3
AutoCAD 2000
 90
        0
280
     0
281
     0
  0
CLASS
  1
LONG_TRANSACTION
  2
AcDbLongTransaction
  3
AutoCAD 2000
 90
        0
280
     0
281
     0
  0
CLASS
  1
LWPOLYLINE
  2
AcDbPolyline
  3
AutoCAD 2000
 90
        0
280
     0
281
     1
  0
CLASS
  1
HATCH
  2
AcDbHatch
  3
AutoCAD 2000
 90
        0
280
     0
281
     1
  0
CLASS
  1
XRECORD
  2
AcDbXrecord
  3
AutoCAD 2000
 90
        0
280
     0
281
     0
  0
CLASS
  1
LONG_TRANSACTION
  2
AcDbLongTransaction
  3
AutoCAD 2000
 90
        0
280
     0
281
     0
  0
CLASS
  1
LWPOLYLINE
  2
AcDbPolyline
  3
AutoCAD 2000
 90
        0
280
     0
281
     1
  0
CLASS
  1
HATCH
  2
AcDbHatch
  3
AutoCAD 2000
 90
        0
280
     0
281
     1
  0
CLASS
  1
XRECORD
  2
AcDbXrecord
  3
AutoCAD 2000
 90
        0
280
     0
281
     0
  0
CLASS
  1
LONG_TRANSACTION
  2
AcDbLongTransaction
  3
AutoCAD 2000
 90
        0
280
     0
281
     0
  0
CLASS
  1
LWPOLYLINE
  2
AcDbPolyline
  3
AutoCAD 2000
 90
        0
280
     0
281
     1
  0
CLASS
  1
HATCH
  2
AcDbHatch
  3
AutoCAD 2000
 90
        0
280
     0
281
     1
  0
CLASS
  1
XRECORD
  2
AcDbXrecord
  3
AutoCAD 2000
 90
        0
280
     0
281
     0
  0
CLASS
  1
LONG_TRANSACTION
  2
AcDbLongTransaction
  3
AutoCAD 2000
 90
        0
280
     0
281
     0
  0
CLASS
  1
LWPOLYLINE
  2
AcDbPolyline
  3
AutoCAD 2000
 90
        0
280
     0
281
     1
  0
CLASS
  1
HATCH
  2
AcDbHatch
  3
AutoCAD 2000
 90
        0
280
     0
281
     1
  0
CLASS
  1
XRECORD
  2
AcDbXrecord
  3
AutoCAD 2000
 90
        0
280
     0
281
     0
  0
CLASS
  1
LONG_TRANSACTION
  2
AcDbLongTransaction
  3
AutoCAD 2000
 90
        0
280
     0
281
     0
  0
CLASS
  1
LWPOLYLINE
  2
AcDbPolyline
  3
AutoCAD 2000
 90
        0
280
     0
281
     1
  0
CLASS
  1
HATCH
  2
AcDbHatch
  3
AutoCAD 2000
 90
        0
280
     0
281
     1
  0
CLASS
  1
XRECORD
  2
AcDbXrecord
  3
AutoCAD 2000
 90
        0
280
     0
281
     0
  0
CLASS
  1
LONG_TRANSACTION
  2
AcDbLongTransaction
  3
AutoCAD 2000
 90
        0
280
     0
281
     0
  0
CLASS
  1
LWPOLYLINE
  2
AcDbPolyline
  3
AutoCAD 2000
 90
        0
280
     0
281
     1
  0
CLASS
  1
HATCH
  2
AcDbHatch
  3
AutoCAD 2000
 90
        0
280
     0
281
     1
  0
CLASS
  1
XRECORD
  2
AcDbXrecord
  3
AutoCAD 2000
 90
        0
280
     0
281
     0
  0
CLASS
  1
LONG_TRANSACTION
  2
AcDbLongTransaction
  3
AutoCAD 2000
 90
        0
280
     0
281
     0
  0
CLASS
  1
LWPOLYLINE
  2
AcDbPolyline
  3
AutoCAD 2000
 90
        0
280
     0
281
     1
  0
CLASS
  1
HATCH
  2
AcDbHatch
  3
AutoCAD 2000
 90
        0
280
     0
281
     1
  0
CLASS
  1
XRECORD
  2
AcDbXrecord
  3
AutoCAD 2000
 90
        0
280
     0
281
     0
  0
CLASS
  1
LONG_TRANSACTION
  2
AcDbLongTransaction
  3
AutoCAD 2000
 90
        0
280
     0
281
     0
  0
CLASS
  1
LWPOLYLINE
  2
AcDbPolyline
  3
AutoCAD 2000
 90
        0
280
     0
281
     1
  0
CLASS
  1
HATCH
  2
AcDbHatch
  3
AutoCAD 2000
 90
        0
280
     0
281
     1
  0
CLASS
  1
XRECORD
  2
AcDbXrecord
  3
AutoCAD 2000
 90
        0
280
     0
281
     0
  0
CLASS
  1
LONG_TRANSACTION
  2
AcDbLongTransaction
  3
AutoCAD 2000
 90
        0
280
     0
281
     0
  0
CLASS
  1
LWPOLYLINE
  2
AcDbPolyline
  3
AutoCAD 2000
 90
        0
280
     0
281
     1
  0
CLASS
  1
HATCH
  2
AcDbHatch
  3
AutoCAD 2000
 90
        0
280
     0
281
     1
  0
CLASS
  1
XRECORD
  2
AcDbXrecord
  3
AutoCAD 2000
 90
        0
280
     0
281
     0
  0
CLASS
  1
DICTIONARYVAR
  2
AcDbDictionaryVar
  3
AutoCAD 2000
 90
        0
280
     0
281
     0
  0
CLASS
  1
LONG_TRANSACTION
  2
AcDbLongTransaction
  3
AutoCAD 2000
 90
        0
280
     0
281
     0
  0
CLASS
  1
LWPOLYLINE
  2
AcDbPolyline
  3
AutoCAD 2000
 90
        0
280
     0
281
     1
  0
CLASS
  1
HATCH
  2
AcDbHatch
  3
AutoCAD 2000
 90
        0
280
     0
281
     1
  0
CLASS
  1
XRECORD
  2
AcDbXrecord
  3
AutoCAD 2000
 90
        0
280
     0
281
     0
  0
CLASS
  1
LONG_TRANSACTION
  2
AcDbLongTransaction
  3
AutoCAD 2000
 90
        0
280
     0
281
     0
  0
CLASS
  1
LWPOLYLINE
  2
AcDbPolyline
  3
AutoCAD 2000
 90
        0
280
     0
281
     1
  0
CLASS
  1
HATCH
  2
AcDbHatch
  3
AutoCAD 2000
 90
        0
280
     0
281
     1
  0
CLASS
  1
XRECORD
  2
AcDbXrecord
  3
AutoCAD 2000
 90
        0
280
     0
281
     0
  0
CLASS
  1
LONG_TRANSACTION
  2
AcDbLongTransaction
  3
AutoCAD 2000
 90
        0
280
     0
281
     0
  0
CLASS
  1
LWPOLYLINE
  2
AcDbPolyline
  3
AutoCAD 2000
 90
        0
280
     0
281
     1
  0
CLASS
  1
HATCH
  2
AcDbHatch
  3
AutoCAD 2000
 90
        0
280
     0
281
     1
  0
CLASS
  1
XRECORD
  2
AcDbXrecord
  3
AutoCAD 2000
 90
        0
280
     0
281
     0
  0
CLASS
  1
LONG_TRANSACTION
  2
AcDbLongTransaction
  3
AutoCAD 2000
 90
        0
280
     0
281
     0
  0
CLASS
  1
LWPOLYLINE
  2
AcDbPolyline
  3
AutoCAD 2000
 90
        0
280
     0
281
     1
  0
CLASS
  1
HATCH
  2
AcDbHatch
  3
AutoCAD 2000
 90
        0
280
     0
281
     1
  0
CLASS
  1
XRECORD
  2
AcDbXrecord
  3
AutoCAD 2000
 90
        0
280
     0
281
     0
  0
ENDSEC
  0
SECTION
  2
TABLES
  0
TABLE
  2
VPORT
  5
8
330
0
100
AcDbSymbolTable
 70
     3
  0
VPORT
  5
6D07
330
8
100
AcDbSymbolTableRecord
100
AcDbViewportTableRecord
  2
*ACTIVE
 70
     0
 10
0.0
 20
0.0
 11
1.0
 21
1.0
 12
138.3140729775353
 22
-65.04497568297927
 13
0.0
 23
0.0
 14
1.0
 24
1.0
 15
10.0
 25
10.0
 16
0.0
 26
0.0
 36
1.0
 17
0.0
 27
0.0
 37
0.0
 40
1024.671480437516
 41
1.543859649122806
 42
50.0
 43
0.0
 44
0.0
 50
0.0
 51
0.0
 71
     0
 72
   100
 73
     1
 74
     1
 75
     0
 76
     0
 77
     0
 78
     0
  0
ENDTAB
  0
TABLE
  2
LTYPE
  5
5
330
0
100
AcDbSymbolTable
 70
     9
  0
LTYPE
  5
13
330
5
100
AcDbSymbolTableRecord
100
AcDbLinetypeTableRecord
  2
BYBLOCK
 70
     0
  3

 72
    65
 73
     0
 40
0.0
  0
LTYPE
  5
14
330
5
100
AcDbSymbolTableRecord
100
AcDbLinetypeTableRecord
  2
BYLAYER
 70
     0
  3

 72
    65
 73
     0
 40
0.0
  0
LTYPE
  5
15
330
5
100
AcDbSymbolTableRecord
100
AcDbLinetypeTableRecord
  2
CONTINUOUS
 70
     0
  3
Solid line
 72
    65
 73
     0
 40
0.0
  0
LTYPE
  5
22
330
5
100
AcDbSymbolTableRecord
100
AcDbLinetypeTableRecord
  2
CONTINOUS
 70
     0
  3
Solid line
 72
    65
 73
     0
 40
0.0
  0
LTYPE
  5
23
330
5
100
AcDbSymbolTableRecord
100
AcDbLinetypeTableRecord
  2
DASHED
 70
     0
  3
__ __ __ __ __ __ __ __ __ __ __ __ __ __ __
 72
    65
 73
     2
 40
0.75
 49
0.5
 74
     0
 49
-0.25
 74
     0
  0
LTYPE
  5
24
330
5
100
AcDbSymbolTableRecord
100
AcDbLinetypeTableRecord
  2
DASHDOT
 70
     0
  3
__ . __ . __ . __ . __ . __ . __ . __ . __ . __
 72
    65
 73
     4
 40
1.0
 49
0.5
 74
     0
 49
-0.25
 74
     0
 49
0.0
 74
     0
 49
-0.25
 74
     0
  0
LTYPE
  5
3932
330
5
100
AcDbSymbolTableRecord
100
AcDbLinetypeTableRecord
  2
DIVIDE
 70
     0
  3
Divide ____ . . ____ . . ____ . . ____ . . ____
 72
    65
 73
     6
 40
1.25
 49
0.5
 74
     0
 49
-0.25
 74
     0
 49
0.0
 74
     0
 49
-0.25
 74
     0
 49
0.0
 74
     0
 49
-0.25
 74
     0
  0
LTYPE
  5
3EE4
330
5
100
AcDbSymbolTableRecord
100
AcDbLinetypeTableRecord
  2
D289
 70
     0
  3
IGESIN-LineFont-D289
 72
    65
 73
     2
 40
1.35
 49
0.75
 74
     0
 49
-0.6
 74
     0
  0
LTYPE
  5
3EE5
330
5
100
AcDbSymbolTableRecord
100
AcDbLinetypeTableRecord
  2
D301
 70
     0
  3
IGESIN-LineFont-D301
 72
    65
 73
     4
 40
9.449999999999999
 49
7.5
 74
     0
 49
-0.6
 74
     0
 49
0.75
 74
     0
 49
-0.6
 74
     0
  0
LTYPE
  5
40C8
330
5
100
AcDbSymbolTableRecord
100
AcDbLinetypeTableRecord
  2
D299
 70
     0
  3
IGESIN-LineFont-D299
 72
    65
 73
     4
 40
9.449999999999999
 49
7.5
 74
     0
 49
-0.6
 74
     0
 49
0.75
 74
     0
 49
-0.6
 74
     0
  0
LTYPE
  5
5036
330
5
100
AcDbSymbolTableRecord
100
AcDbLinetypeTableRecord
  2
D131
 70
     0
  3
IGESIN-LineFont-D131
 72
    65
 73
     6
 40
11.29999999999999
 49
8.0
 74
     0
 49
-0.6
 74
     0
 49
0.75
 74
     0
 49
-0.6
 74
     0
 49
0.75
 74
     0
 49
-0.6
 74
     0
  0
ENDTAB
  0
TABLE
  2
LAYER
  5
2
330
0
100
AcDbSymbolTable
 70
    18
  0
LAYER
  5
10
330
2
100
AcDbSymbolTableRecord
100
AcDbLayerTableRecord
  2
0
 70
     0
 62
     7
  6
CONTINOUS
  0
LAYER
  5
2F
330
2
100
AcDbSymbolTableRecord
100
AcDbLayerTableRecord
  2
10
 70
     0
 62
     4
  6
CONTINOUS
  0
LAYER
  5
31
330
2
100
AcDbSymbolTableRecord
100
AcDbLayerTableRecord
  2
12
 70
     0
 62
     3
  6
CONTINOUS
  0
LAYER
  5
35
330
2
100
AcDbSymbolTableRecord
100
AcDbLayerTableRecord
  2
16
 70
     4
 62
     6
  6
DASHDOT
  0
LAYER
  5
36
330
2
100
AcDbSymbolTableRecord
100
AcDbLayerTableRecord
  2
17
 70
     0
 62
     2
  6
DASHDOT
  0
LAYER
  5
38
330
2
100
AcDbSymbolTableRecord
100
AcDbLayerTableRecord
  2
19
 70
     0
 62
     7
  6
CONTINOUS
  0
LAYER
  5
3C
330
2
100
AcDbSymbolTableRecord
100
AcDbLayerTableRecord
  2
11
 70
     0
 62
     1
  6
CONTINOUS
  0
LAYER
  5
3D
330
2
100
AcDbSymbolTableRecord
100
AcDbLayerTableRecord
  2
24
 70
     0
 62
     2
  6
CONTINOUS
  0
LAYER
  5
3A2
330
2
100
AcDbSymbolTableRecord
100
AcDbLayerTableRecord
  2
30
 70
     0
 62
     9
  6
CONTINUOUS
  0
LAYER
  5
3A4
330
2
100
AcDbSymbolTableRecord
100
AcDbLayerTableRecord
  2
DEFPOINTS
 70
     0
 62
     7
  6
CONTINUOUS
  0
LAYER
  5
3933
330
2
100
AcDbSymbolTableRecord
100
AcDbLayerTableRecord
  2
18
 70
     0
 62
     5
  6
DIVIDE
  0
LAYER
  5
4709
330
2
100
AcDbSymbolTableRecord
100
AcDbLayerTableRecord
  2
L0_
 70
     0
 62
     7
  6
CONTINUOUS
  0
LAYER
  5
470A
330
2
100
AcDbSymbolTableRecord
100
AcDbLayerTableRecord
  2
L225_
 70
     0
 62
     7
  6
CONTINUOUS
  0
LAYER
  5
470B
330
2
100
AcDbSymbolTableRecord
100
AcDbLayerTableRecord
  2
L210_
 70
     0
 62
     7
  6
CONTINUOUS
  0
LAYER
  5
5037
330
2
100
AcDbSymbolTableRecord
100
AcDbLayerTableRecord
  2
L10_
 70
     0
 62
     7
  6
CONTINUOUS
  0
LAYER
  5
6310
330
2
100
AcDbSymbolTableRecord
100
AcDbLayerTableRecord
  2
1
 70
     0
 62
     7
  6
CONTINUOUS
  0
LAYER
  5
6311
330
2
100
AcDbSymbolTableRecord
100
AcDbLayerTableRecord
  2
2
 70
     0
 62
     7
  6
CONTINUOUS
  0
LAYER
  5
6312
330
2
100
AcDbSymbolTableRecord
100
AcDbLayerTableRecord
  2
4
 70
     0
 62
     7
  6
CONTINUOUS
  0
ENDTAB
  0
TABLE
  2
STYLE
  5
3
330
0
100
AcDbSymbolTable
 70
     3
  0
STYLE
  5
11
330
3
100
AcDbSymbolTableRecord
100
AcDbTextStyleTableRecord
  2
STANDARD
 70
     0
 40
0.0
 41
1.0
 50
0.0
 71
     0
 42
2.0
  3
txt.shx
  4
bigfont.shx
  0
STYLE
  5
42
330
3
100
AcDbSymbolTableRecord
100
AcDbTextStyleTableRecord
  2
STANDARD1
 70
     0
 40
0.0
 41
1.0
 50
0.0
 71
     0
 42
5.0
  3
MONOTXT
  4
BIGFONT
  0
STYLE
  5
3ACF
330
3
100
AcDbSymbolTableRecord
100
AcDbTextStyleTableRecord
  2
SYMBOL3
 70
     0
 40
0.0
 41
1.0
 50
0.0
 71
     0
 42
0.2
  3
iges1003
  4

  0
ENDTAB
  0
TABLE
  2
VIEW
  5
6
330
0
100
AcDbSymbolTable
 70
     3
  0
VIEW
  5
230C
330
6
100
AcDbSymbolTableRecord
100
AcDbViewTableRecord
  2
OLE1
 70
     0
 40
148.9124878027714
 10
429.4976280407222
 20
2.560626997828478
 41
103.1458057716444
 11
0.0
 21
0.0
 31
1.0
 12
0.0
 22
0.0
 32
0.0
 42
50.0
 43
0.0
 44
0.0
 50
0.0
 71
     0
  0
VIEW
  5
230E
330
6
100
AcDbSymbolTableRecord
100
AcDbViewTableRecord
  2
OLE2
 70
     0
 40
170.7786920545775
 10
322.664969958371
 20
-5.978304054290276
 41
102.4672152327465
 11
0.0
 21
0.0
 31
1.0
 12
0.0
 22
0.0
 32
0.0
 42
50.0
 43
0.0
 44
0.0
 50
0.0
 71
     0
  0
VIEW
  5
23AA
330
6
100
AcDbSymbolTableRecord
100
AcDbViewTableRecord
  2
OLE3
 70
     0
 40
591.7897393182231
 10
84.79698158148218
 20
-46.09336010803995
 41
388.7920961799953
 11
0.0
 21
0.0
 31
1.0
 12
0.0
 22
0.0
 32
0.0
 42
50.0
 43
0.0
 44
0.0
 50
0.0
 71
     0
  0
ENDTAB
  0
TABLE
  2
UCS
  5
7
330
0
100
AcDbSymbolTable
 70
     0
  0
ENDTAB
  0
TABLE
  2
APPID
  5
9
330
0
100
AcDbSymbolTable
 70
     2
  0
APPID
  5
12
330
9
100
AcDbSymbolTableRecord
100
AcDbRegAppTableRecord
  2
ACAD
 70
     0
  0
APPID
  5
ECD
330
9
100
AcDbSymbolTableRecord
100
AcDbRegAppTableRecord
  2
CONTENTBLOCKICON
 70
     0
  0
ENDTAB
  0
TABLE
  2
DIMSTYLE
  5
A
330
0
100
AcDbSymbolTable
 70
     1
  0
DIMSTYLE
105
175
102
{ACAD_REACTORS
330
62E9
330
62F6
330
6303
330
6483
330
6484
330
6485
330
6486
330
64EE
330
655E
330
656B
330
6588
330
657B
330
65D8
330
669A
330
669C
330
669B
330
669E
330
6699
330
674E
330
6849
330
6868
330
6995
330
6A9C
330
6A9D
330
6A9E
102
}
330
A
100
AcDbSymbolTableRecord
100
AcDbDimStyleTableRecord
  2
STANDARD
 70
     0
  3

  4

  5
OPEN
  6

  7

 40
1.0
 41
2.0
 42
1.0
 43
0.5
 44
0.5
 45
0.0
 46
0.0
 47
0.0
 48
0.0
140
5.0
141
0.09
142
0.0
143
25.4
144
1.0
145
0.0
146
1.0
147
1.0
 71
     0
 72
     0
 73
     0
 74
     1
 75
     0
 76
     0
 77
     3
 78
    12
170
     0
171
     2
172
     0
173
     0
174
     0
175
     0
176
     0
177
     0
178
     0
270
     2
271
     1
272
     1
273
     2
274
     2
340
11
275
     0
280
     0
281
     0
282
     0
283
     1
284
     0
285
     0
286
     0
287
     3
288
     0
  0
ENDTAB
  0
TABLE
  2
BLOCK_RECORD
  5
1
330
0
100
AcDbSymbolTable
 70
    34
  0
BLOCK_RECORD
  5
1E
102
{ACAD_XDICTIONARY
360
178
102
}
330
1
100
AcDbSymbolTableRecord
100
AcDbBlockTableRecord
  2
*MODEL_SPACE
  0
BLOCK_RECORD
  5
1A
102
{ACAD_XDICTIONARY
360
17A
102
}
330
1
100
AcDbSymbolTableRecord
100
AcDbBlockTableRecord
  2
*PAPER_SPACE
  0
BLOCK_RECORD
  5
3B2
330
1
100
AcDbSymbolTableRecord
100
AcDbBlockTableRecord
  2
_OPEN
  0
BLOCK_RECORD
  5
46F7
330
1
100
AcDbSymbolTableRecord
100
AcDbBlockTableRecord
  2
B837
  0
BLOCK_RECORD
  5
46FC
330
1
100
AcDbSymbolTableRecord
100
AcDbBlockTableRecord
  2
*D2
  0
BLOCK_RECORD
  5
4704
330
1
100
AcDbSymbolTableRecord
100
AcDbBlockTableRecord
  2
B841
  0
BLOCK_RECORD
  5
62EA
330
1
100
AcDbSymbolTableRecord
100
AcDbBlockTableRecord
  2
*D4
  0
BLOCK_RECORD
  5
62F7
330
1
100
AcDbSymbolTableRecord
100
AcDbBlockTableRecord
  2
*D5
  0
BLOCK_RECORD
  5
6304
330
1
100
AcDbSymbolTableRecord
100
AcDbBlockTableRecord
  2
*D6
  0
BLOCK_RECORD
  5
6487
330
1
100
AcDbSymbolTableRecord
100
AcDbBlockTableRecord
  2
*D7
  0
BLOCK_RECORD
  5
6493
330
1
100
AcDbSymbolTableRecord
100
AcDbBlockTableRecord
  2
*D8
  0
BLOCK_RECORD
  5
649F
330
1
100
AcDbSymbolTableRecord
100
AcDbBlockTableRecord
  2
*D9
  0
BLOCK_RECORD
  5
64AB
330
1
100
AcDbSymbolTableRecord
100
AcDbBlockTableRecord
  2
*D10
  0
BLOCK_RECORD
  5
64EF
330
1
100
AcDbSymbolTableRecord
100
AcDbBlockTableRecord
  2
*D11
  0
BLOCK_RECORD
  5
655F
330
1
100
AcDbSymbolTableRecord
100
AcDbBlockTableRecord
  2
*D12
  0
BLOCK_RECORD
  5
656C
330
1
100
AcDbSymbolTableRecord
100
AcDbBlockTableRecord
  2
*D13
  0
BLOCK_RECORD
  5
657C
330
1
100
AcDbSymbolTableRecord
100
AcDbBlockTableRecord
  2
*D14
  0
BLOCK_RECORD
  5
6589
330
1
100
AcDbSymbolTableRecord
100
AcDbBlockTableRecord
  2
*D15
  0
BLOCK_RECORD
  5
65D9
330
1
100
AcDbSymbolTableRecord
100
AcDbBlockTableRecord
  2
*D16
  0
BLOCK_RECORD
  5
66A1
330
1
100
AcDbSymbolTableRecord
100
AcDbBlockTableRecord
  2
*D17
  0
BLOCK_RECORD
  5
66AE
330
1
100
AcDbSymbolTableRecord
100
AcDbBlockTableRecord
  2
*D18
  0
BLOCK_RECORD
  5
66BA
330
1
100
AcDbSymbolTableRecord
100
AcDbBlockTableRecord
  2
*D19
  0
BLOCK_RECORD
  5
66C6
330
1
100
AcDbSymbolTableRecord
100
AcDbBlockTableRecord
  2
*D20
  0
BLOCK_RECORD
  5
66D3
330
1
100
AcDbSymbolTableRecord
100
AcDbBlockTableRecord
  2
*D21
  0
BLOCK_RECORD
  5
66EB
330
1
100
AcDbSymbolTableRecord
100
AcDbBlockTableRecord
  2
*D22
  0
BLOCK_RECORD
  5
674F
330
1
100
AcDbSymbolTableRecord
100
AcDbBlockTableRecord
  2
*D23
  0
BLOCK_RECORD
  5
6783
330
1
100
AcDbSymbolTableRecord
100
AcDbBlockTableRecord
  2
*D24
  0
BLOCK_RECORD
  5
678F
330
1
100
AcDbSymbolTableRecord
100
AcDbBlockTableRecord
  2
*D25
  0
BLOCK_RECORD
  5
679C
330
1
100
AcDbSymbolTableRecord
100
AcDbBlockTableRecord
  2
*D26
  0
BLOCK_RECORD
  5
684A
330
1
100
AcDbSymbolTableRecord
100
AcDbBlockTableRecord
  2
*D27
  0
BLOCK_RECORD
  5
6869
330
1
100
AcDbSymbolTableRecord
100
AcDbBlockTableRecord
  2
*D28
  0
BLOCK_RECORD
  5
6999
330
1
100
AcDbSymbolTableRecord
100
AcDbBlockTableRecord
  2
*D29
  0
BLOCK_RECORD
  5
69D6
330
1
100
AcDbSymbolTableRecord
100
AcDbBlockTableRecord
  2
A$C21C6432C
  0
BLOCK_RECORD
  5
6A9F
330
1
100
AcDbSymbolTableRecord
100
AcDbBlockTableRecord
  2
*D31
  0
BLOCK_RECORD
  5
6AAA
330
1
100
AcDbSymbolTableRecord
100
AcDbBlockTableRecord
  2
*D32
  0
BLOCK_RECORD
  5
6AB6
330
1
100
AcDbSymbolTableRecord
100
AcDbBlockTableRecord
  2
*D33
  0
ENDTAB
  0
ENDSEC
  0
SECTION
  2
BLOCKS
  0
BLOCK
  5
1F
330
1E
100
AcDbEntity
  8
0
100
AcDbBlockBegin
  2
*MODEL_SPACE
 70
     0
 10
0.0
 20
0.0
 30
0.0
  3
*MODEL_SPACE
  1

  0
ENDBLK
  5
20
330
1E
100
AcDbEntity
  8
0
100
AcDbBlockEnd
  0
BLOCK
  5
1B
330
1A
100
AcDbEntity
 67
     1
  8
0
100
AcDbBlockBegin
  2
*PAPER_SPACE
 70
     0
 10
0.0
 20
0.0
 30
0.0
  3
*PAPER_SPACE
  1

  0
ENDBLK
  5
1C
330
1A
100
AcDbEntity
 67
     1
  8
0
100
AcDbBlockEnd
  0
BLOCK
  5
3B6
330
3B2
100
AcDbEntity
  8
0
100
AcDbBlockBegin
  2
_OPEN
 70
     0
 10
0.0
 20
0.0
 30
0.0
  3
_OPEN
  1

  0
LINE
  5
3B3
330
3B2
100
AcDbEntity
  8
30
  6
CONTINUOUS
 62
     0
100
AcDbLine
 10
-1.0
 20
0.1666666666666666
 30
0.0
 11
0.0
 21
0.0
 31
0.0
  0
LINE
  5
3B4
330
3B2
100
AcDbEntity
  8
30
  6
CONTINUOUS
 62
     0
100
AcDbLine
 10
-1.0
 20
-0.1666666666666666
 30
0.0
 11
0.0
 21
0.0
 31
0.0
  0
LINE
  5
3B5
330
3B2
100
AcDbEntity
  8
30
  6
CONTINUOUS
 62
     0
100
AcDbLine
 10
0.0
 20
0.0
 30
0.0
 11
-1.0
 21
0.0
 31
0.0
  0
ENDBLK
  5
3B7
330
3B2
100
AcDbEntity
  8
0
100
AcDbBlockEnd
  0
BLOCK
  5
46FA
330
46F7
100
AcDbEntity
  8
L0_
  6
CONTINUOUS
100
AcDbBlockBegin
  2
B837
 70
     0
 10
0.0
 20
0.0
 30
0.0
  3
B837
  1

  0
TEXT
  5
46F8
330
46F7
100
AcDbEntity
  8
L0_
  6
CONTINUOUS
100
AcDbText
 10
1984.080078125
 20
1307.4332275391
 30
0.0
 40
12.0
  1
n
 41
2.863636363636363
  7
SYMBOL3
 72
     5
 11
2002.080078125
 21
1307.4332275391
 31
0.0
100
AcDbText
 73
     2
  0
TEXT
  5
46F9
330
46F7
100
AcDbEntity
  8
L0_
  6
CONTINUOUS
100
AcDbText
 10
2002.080078125
 20
1307.4332275391
 30
0.0
 40
12.0
  1
11
 41
1.399999999999996
  7
SYMBOL3
 72
     5
 11
2018.880078125
 21
1307.4332275391
 31
0.0
100
AcDbText
 73
     2
  0
ENDBLK
  5
46FB
330
46F7
100
AcDbEntity
  8
L0_
  6
CONTINUOUS
100
AcDbBlockEnd
  0
BLOCK
  5
4702
330
46FC
100
AcDbEntity
  8
0
100
AcDbBlockBegin
  2
*D2
 70
     1
 10
0.0
 20
0.0
 30
0.0
  3
*D2
  1

  0
LINE
  5
46FD
330
46FC
100
AcDbEntity
  8
0
  6
BYBLOCK
100
AcDbLine
 10
1898.22736365133
 20
1423.275805577404
 30
0.0
 11
1967.691924827207
 21
1303.385779126032
 31
0.0
  0
LINE
  5
46FE
330
46FC
100
AcDbEntity
  8
0
  6
BYBLOCK
100
AcDbLine
 10
1967.691924827207
 20
1303.385779126032
 30
0.0
 11
1967.781924827207
 21
1303.385779126032
 31
0.0
  0
SOLID
  5
46FF
330
46FC
100
AcDbEntity
  8
0
  6
BYBLOCK
100
AcDbTrace
 10
1896.064224802247
 20
1422.022477878998
 30
0.0
 11
1900.390502500411
 21
1424.529133275809
 31
0.0
 12
1890.7073974609
 22
1436.2546386719
 32
0.0
 13
1890.7073974609
 23
1436.2546386719
 33
0.0
  0
POINT
  5
4700
330
46FC
100
AcDbEntity
  8
DEFPOINTS
  6
BYBLOCK
 62
     0
100
AcDbPoint
 10
1890.7073974609
 20
1436.2546386719
 30
0.0
  0
POINT
  5
4701
330
46FC
100
AcDbEntity
  8
DEFPOINTS
  6
BYBLOCK
 62
     0
100
AcDbPoint
 10
1885.1927490235
 20
1445.7724609375
 30
0.0
  0
ENDBLK
  5
4703
330
46FC
100
AcDbEntity
  8
0
100
AcDbBlockEnd
  0
BLOCK
  5
4707
330
4704
100
AcDbEntity
  8
L210_
100
AcDbBlockBegin
  2
B841
 70
     0
 10
0.0
 20
0.0
 30
0.0
  3
B841
  1

  0
DIMENSION
  5
4705
330
4704
100
AcDbEntity
  8
L210_
100
AcDbDimension
  2
*D2
 10
1885.1927490235
 20
1445.7724609375
 30
0.0
 11
1383.832452522427
 21
1488.7211914063
 31
0.0
 70
     3
  1
 
100
AcDbDiametricDimension
 15
1890.7073974609
 25
1436.2546386719
 35
0.0
 40
153.5602529655158
  0
INSERT
  5
4706
330
4704
100
AcDbEntity
  8
L0_
  6
CONTINUOUS
100
AcDbBlockReference
  2
B837
 10
0.0
 20
0.0
 30
0.0
  0
ENDBLK
  5
4708
330
4704
100
AcDbEntity
  8
L210_
100
AcDbBlockEnd
  0
BLOCK
  5
62F4
330
62EA
100
AcDbEntity
  8
0
100
AcDbBlockBegin
  2
*D4
 70
     1
 10
0.0
 20
0.0
 30
0.0
  3
*D4
  1

  0
LINE
  5
62EB
330
62EA
100
AcDbEntity
  8
30
  6
CONTINUOUS
 62
     0
100
AcDbLine
 10
-54.0
 20
45.0
 30
0.0
 11
-92.49999999999998
 21
45.00000000000002
 31
0.0
  0
LINE
  5
62EC
330
62EA
100
AcDbEntity
  8
30
  6
CONTINUOUS
 62
     0
100
AcDbLine
 10
-54.0
 20
-44.99999999999999
 30
0.0
 11
-92.5
 21
-44.99999999999998
 31
0.0
  0
LINE
  5
62ED
330
62EA
100
AcDbEntity
  8
30
  6
CONTINUOUS
 62
     0
100
AcDbLine
 10
-91.99999999999995
 20
43.00000000000002
 30
0.0
 11
-92.0
 21
-42.99999999999998
 31
0.0
  0
INSERT
  5
62EE
330
62EA
100
AcDbEntity
  8
30
  6
CONTINUOUS
 62
     0
100
AcDbBlockReference
  2
_OPEN
 10
-91.99999999999995
 20
45.00000000000002
 30
0.0
 41
2.0
 42
2.0
 43
2.0
 50
90.0
  0
INSERT
  5
62EF
330
62EA
100
AcDbEntity
  8
30
  6
CONTINUOUS
 62
     0
100
AcDbBlockReference
  2
_OPEN
 10
-92.0
 20
-44.99999999999998
 30
0.0
 41
2.0
 42
2.0
 43
2.0
 50
270.0
  0
MTEXT
  5
62F0
330
62EA
100
AcDbEntity
  8
30
  6
CONTINUOUS
 62
     0
100
AcDbMText
 10
-95.49999999999998
 20
0.0000000000000061
 30
0.0
 40
5.0
 41
0.0
 71
     5
 72
     1
  1
\A1;90
 11
0.0000000000000001
 21
1.0
 31
0.0
1001
ACAD
1000
MTEXTBEGIN
1070
    73
1070
     1
1070
    44
1040
1.0
1070
    74
1070
     0
1000
MTEXTEND
1000
MTEXTBEGIN
1070
    73
1070
     1
1070
    44
1040
1.0
1070
    74
1070
     0
1000
MTEXTEND
1000
MTEXTBEGIN
1070
    73
1070
     1
1070
    44
1040
1.0
1070
    74
1070
     0
1000
MTEXTEND
1000
MTEXTBEGIN
1070
    73
1070
     1
1070
    44
1040
1.0
1070
    74
1070
     0
1000
MTEXTEND
  0
POINT
  5
62F1
330
62EA
100
AcDbEntity
  8
DEFPOINTS
  6
CONTINUOUS
 62
     0
100
AcDbPoint
 10
-53.0
 20
45.0
 30
0.0
  0
POINT
  5
62F2
330
62EA
100
AcDbEntity
  8
DEFPOINTS
  6
CONTINUOUS
 62
     0
100
AcDbPoint
 10
-53.0
 20
-44.99999999999999
 30
0.0
  0
POINT
  5
62F3
330
62EA
100
AcDbEntity
  8
DEFPOINTS
  6
CONTINUOUS
 62
     0
100
AcDbPoint
 10
-92.0
 20
-44.99999999999998
 30
0.0
  0
ENDBLK
  5
62F5
330
62EA
100
AcDbEntity
  8
0
100
AcDbBlockEnd
  0
BLOCK
  5
6301
330
62F7
100
AcDbEntity
  8
0
100
AcDbBlockBegin
  2
*D5
 70
     1
 10
0.0
 20
0.0
 30
0.0
  3
*D5
  1

  0
LINE
  5
62F8
330
62F7
100
AcDbEntity
  8
30
  6
CONTINUOUS
 62
     0
100
AcDbLine
 10
-71.0
 20
50.99999999999899
 30
0.0
 11
-106.4999999999999
 21
50.999999999999
 31
0.0
  0
LINE
  5
62F9
330
62F7
100
AcDbEntity
  8
30
  6
CONTINUOUS
 62
     0
100
AcDbLine
 10
-71.0
 20
-50.99999999999997
 30
0.0
 11
-106.4999999999999
 21
-50.99999999999997
 31
0.0
  0
LINE
  5
62FA
330
62F7
100
AcDbEntity
  8
30
  6
CONTINUOUS
 62
     0
100
AcDbLine
 10
-105.9999999999996
 20
48.99999999999899
 30
0.0
 11
-106.0
 21
-48.99999999999998
 31
0.0
  0
INSERT
  5
62FB
330
62F7
100
AcDbEntity
  8
30
  6
CONTINUOUS
 62
     0
100
AcDbBlockReference
  2
_OPEN
 10
-105.9999999999996
 20
50.999999999999
 30
0.0
 41
2.0
 42
2.0
 43
2.0
 50
90.0
  0
INSERT
  5
62FC
330
62F7
100
AcDbEntity
  8
30
  6
CONTINUOUS
 62
     0
100
AcDbBlockReference
  2
_OPEN
 10
-106.0
 20
-50.99999999999997
 30
0.0
 41
2.0
 42
2.0
 43
2.0
 50
270.0
  0
MTEXT
  5
62FD
330
62F7
100
AcDbEntity
  8
30
  6
CONTINUOUS
 62
     0
100
AcDbMText
 10
-109.4999999999999
 20
-0.0000000000005047
 30
0.0
 40
5.0
 41
0.0
 71
     5
 72
     1
  1
\A1;102
 11
0.0000000000000001
 21
1.0
 31
0.0
1001
ACAD
1000
MTEXTBEGIN
1070
    73
1070
     1
1070
    44
1040
1.0
1070
    74
1070
     0
1000
MTEXTEND
1000
MTEXTBEGIN
1070
    73
1070
     1
1070
    44
1040
1.0
1070
    74
1070
     0
1000
MTEXTEND
1000
MTEXTBEGIN
1070
    73
1070
     1
1070
    44
1040
1.0
1070
    74
1070
     0
1000
MTEXTEND
1000
MTEXTBEGIN
1070
    73
1070
     1
1070
    44
1040
1.0
1070
    74
1070
     0
1000
MTEXTEND
  0
POINT
  5
62FE
330
62F7
100
AcDbEntity
  8
DEFPOINTS
  6
CONTINUOUS
 62
     0
100
AcDbPoint
 10
-70.0
 20
50.99999999999899
 30
0.0
  0
POINT
  5
62FF
330
62F7
100
AcDbEntity
  8
DEFPOINTS
  6
CONTINUOUS
 62
     0
100
AcDbPoint
 10
-70.0
 20
-50.99999999999997
 30
0.0
  0
POINT
  5
6300
330
62F7
100
AcDbEntity
  8
DEFPOINTS
  6
CONTINUOUS
 62
     0
100
AcDbPoint
 10
-106.0
 20
-50.99999999999997
 30
0.0
  0
ENDBLK
  5
6302
330
62F7
100
AcDbEntity
  8
0
100
AcDbBlockEnd
  0
BLOCK
  5
630E
330
6304
100
AcDbEntity
  8
0
100
AcDbBlockBegin
  2
*D6
 70
     1
 10
0.0
 20
0.0
 30
0.0
  3
*D6
  1

  0
LINE
  5
6B6D
330
6304
100
AcDbEntity
  8
30
  6
CONTINUOUS
 62
     0
100
AcDbLine
 10
-71.0
 20
130.0
 30
0.0
 11
-120.4999999999996
 21
130.0
 31
0.0
  0
LINE
  5
6B6E
330
6304
100
AcDbEntity
  8
30
  6
CONTINUOUS
 62
     0
100
AcDbLine
 10
-71.0
 20
-130.0
 30
0.0
 11
-120.5
 21
-130.0
 31
0.0
  0
LINE
  5
6B6F
330
6304
100
AcDbEntity
  8
30
  6
CONTINUOUS
 62
     0
100
AcDbLine
 10
-119.9999999999999
 20
128.0
 30
0.0
 11
-120.0
 21
-128.0
 31
0.0
  0
INSERT
  5
6B70
330
6304
100
AcDbEntity
  8
30
  6
CONTINUOUS
 62
     0
100
AcDbBlockReference
  2
_OPEN
 10
-119.9999999999999
 20
130.0
 30
0.0
 41
2.0
 42
2.0
 43
2.0
 50
90.0
  0
INSERT
  5
6B71
330
6304
100
AcDbEntity
  8
30
  6
CONTINUOUS
 62
     0
100
AcDbBlockReference
  2
_OPEN
 10
-120.0
 20
-130.0
 30
0.0
 41
2.0
 42
2.0
 43
2.0
 50
270.0
  0
MTEXT
  5
6B72
330
6304
100
AcDbEntity
  8
30
  6
CONTINUOUS
 62
     0
100
AcDbMText
 10
-123.5
 20
-0.0000000000000206
 30
0.0
 40
5.0
 41
0.0
 71
     5
 72
     1
  1
\A1;260
 11
0.0000000000000001
 21
1.0
 31
0.0
1001
ACAD
1000
MTEXTBEGIN
1070
    73
1070
     1
1070
    44
1040
1.0
1070
    74
1070
     0
1000
MTEXTEND
1000
MTEXTBEGIN
1070
    73
1070
     1
1070
    44
1040
1.0
1070
    74
1070
     0
1000
MTEXTEND
1000
MTEXTBEGIN
1070
    73
1070
     1
1070
    44
1040
1.0
1070
    74
1070
     0
1000
MTEXTEND
1000
MTEXTBEGIN
1070
    73
1070
     1
1070
    44
1040
1.0
1070
    74
1070
     0
1000
MTEXTEND
  0
POINT
  5
6B73
330
6304
100
AcDbEntity
  8
DEFPOINTS
  6
CONTINUOUS
 62
     0
100
AcDbPoint
 10
-70.0
 20
130.0
 30
0.0
  0
POINT
  5
6B74
330
6304
100
AcDbEntity
  8
DEFPOINTS
  6
CONTINUOUS
 62
     0
100
AcDbPoint
 10
-70.0
 20
-130.0
 30
0.0
  0
POINT
  5
6B75
330
6304
100
AcDbEntity
  8
DEFPOINTS
  6
CONTINUOUS
 62
     0
100
AcDbPoint
 10
-120.0
 20
-130.0
 30
0.0
  0
ENDBLK
  5
630F
330
6304
100
AcDbEntity
  8
0
100
AcDbBlockEnd
  0
BLOCK
  5
6491
330
6487
100
AcDbEntity
  8
0
100
AcDbBlockBegin
  2
*D7
 70
     1
 10
0.0
 20
0.0
 30
0.0
  3
*D7
  1

  0
LINE
  5
6516
330
6487
100
AcDbEntity
  8
30
  6
CONTINUOUS
 62
     0
100
AcDbLine
 10
-67.5
 20
-172.9995117188
 30
0.0
 11
-67.5
 21
-210.0004882811999
 31
0.0
  0
LINE
  5
6517
330
6487
100
AcDbEntity
  8
30
  6
CONTINUOUS
 62
     0
100
AcDbLine
 10
-7.5
 20
-172.9995117188
 30
0.0
 11
-7.500000000000002
 21
-210.0004882811999
 31
0.0
  0
LINE
  5
6518
330
6487
100
AcDbEntity
  8
30
  6
CONTINUOUS
 62
     0
100
AcDbLine
 10
-65.5
 20
-209.5004882811999
 30
0.0
 11
-9.500000000000003
 21
-209.5004882811999
 31
0.0
  0
INSERT
  5
6519
330
6487
100
AcDbEntity
  8
30
  6
CONTINUOUS
 62
     0
100
AcDbBlockReference
  2
_OPEN
 10
-67.5
 20
-209.5004882811999
 30
0.0
 41
2.0
 42
2.0
 43
2.0
 50
180.0
  0
INSERT
  5
651A
330
6487
100
AcDbEntity
  8
30
  6
CONTINUOUS
 62
     0
100
AcDbBlockReference
  2
_OPEN
 10
-7.500000000000002
 20
-209.5004882811999
 30
0.0
 41
2.0
 42
2.0
 43
2.0
  0
MTEXT
  5
651B
330
6487
100
AcDbEntity
  8
30
  6
CONTINUOUS
 62
     0
100
AcDbMText
 10
-35.0
 20
-206.0004882811999
 30
0.0
 40
5.0
 41
0.0
 71
     5
 72
     1
  1
\A1;60
1001
ACAD
1000
MTEXTBEGIN
1070
    73
1070
     1
1070
    44
1040
1.0
1070
    74
1070
     0
1000
MTEXTEND
1000
MTEXTBEGIN
1070
    73
1070
     1
1070
    44
1040
1.0
1070
    74
1070
     0
1000
MTEXTEND
1000
MTEXTBEGIN
1070
    73
1070
     1
1070
    44
1040
1.0
1070
    74
1070
     0
1000
MTEXTEND
1000
MTEXTBEGIN
1070
    73
1070
     1
1070
    44
1040
1.0
1070
    74
1070
     0
1000
MTEXTEND
  0
POINT
  5
651C
330
6487
100
AcDbEntity
  8
DEFPOINTS
  6
CONTINUOUS
 62
     0
100
AcDbPoint
 10
-67.5
 20
-171.9995117188
 30
0.0
  0
POINT
  5
651D
330
6487
100
AcDbEntity
  8
DEFPOINTS
  6
CONTINUOUS
 62
     0
100
AcDbPoint
 10
-7.5
 20
-171.9995117188
 30
0.0
  0
POINT
  5
651E
330
6487
100
AcDbEntity
  8
DEFPOINTS
  6
CONTINUOUS
 62
     0
100
AcDbPoint
 10
-7.500000000000002
 20
-209.5004882811999
 30
0.0
  0
ENDBLK
  5
6492
330
6487
100
AcDbEntity
  8
0
100
AcDbBlockEnd
  0
BLOCK
  5
649D
330
6493
100
AcDbEntity
  8
0
100
AcDbBlockBegin
  2
*D8
 70
     1
 10
0.0
 20
0.0
 30
0.0
  3
*D8
  1

  0
LINE
  5
650D
330
6493
100
AcDbEntity
  8
30
  6
CONTINUOUS
 62
     0
100
AcDbLine
 10
-0.0000000000000001
 20
-125.9997558593999
 30
0.0
 11
-0.0000000000000046
 21
-200.4999999999999
 31
0.0
  0
LINE
  5
650E
330
6493
100
AcDbEntity
  8
30
  6
CONTINUOUS
 62
     0
100
AcDbLine
 10
52.5
 20
-172.0
 30
0.0
 11
52.5
 21
-200.4999999999999
 31
0.0
  0
LINE
  5
650F
330
6493
100
AcDbEntity
  8
30
  6
CONTINUOUS
 62
     0
100
AcDbLine
 10
1.999999999999995
 20
-200.0
 30
0.0
 11
50.5
 21
-200.0
 31
0.0
  0
INSERT
  5
6510
330
6493
100
AcDbEntity
  8
30
  6
CONTINUOUS
 62
     0
100
AcDbBlockReference
  2
_OPEN
 10
-0.0000000000000046
 20
-200.0
 30
0.0
 41
2.0
 42
2.0
 43
2.0
 50
180.0
  0
INSERT
  5
6511
330
6493
100
AcDbEntity
  8
30
  6
CONTINUOUS
 62
     0
100
AcDbBlockReference
  2
_OPEN
 10
52.5
 20
-200.0
 30
0.0
 41
2.0
 42
2.0
 43
2.0
  0
MTEXT
  5
6512
330
6493
100
AcDbEntity
  8
30
  6
CONTINUOUS
 62
     0
100
AcDbMText
 10
26.25
 20
-196.5
 30
0.0
 40
5.0
 41
0.0
 71
     5
 72
     1
  1
\A1;52.5
1001
ACAD
1000
MTEXTBEGIN
1070
    73
1070
     1
1070
    44
1040
1.0
1070
    74
1070
     0
1000
MTEXTEND
1000
MTEXTBEGIN
1070
    73
1070
     1
1070
    44
1040
1.0
1070
    74
1070
     0
1000
MTEXTEND
1000
MTEXTBEGIN
1070
    73
1070
     1
1070
    44
1040
1.0
1070
    74
1070
     0
1000
MTEXTEND
1000
MTEXTBEGIN
1070
    73
1070
     1
1070
    44
1040
1.0
1070
    74
1070
     0
1000
MTEXTEND
  0
POINT
  5
6513
330
6493
100
AcDbEntity
  8
DEFPOINTS
  6
CONTINUOUS
 62
     0
100
AcDbPoint
 10
0.0
 20
-124.9997558593999
 30
0.0
  0
POINT
  5
6514
330
6493
100
AcDbEntity
  8
DEFPOINTS
  6
CONTINUOUS
 62
     0
100
AcDbPoint
 10
52.5
 20
-171.0
 30
0.0
  0
POINT
  5
6515
330
6493
100
AcDbEntity
  8
DEFPOINTS
  6
CONTINUOUS
 62
     0
100
AcDbPoint
 10
52.5
 20
-200.0
 30
0.0
  0
ENDBLK
  5
649E
330
6493
100
AcDbEntity
  8
0
100
AcDbBlockEnd
  0
BLOCK
  5
64A9
330
649F
100
AcDbEntity
  8
0
100
AcDbBlockBegin
  2
*D9
 70
     1
 10
0.0
 20
0.0
 30
0.0
  3
*D9
  1

  0
LINE
  5
6504
330
649F
100
AcDbEntity
  8
30
  6
CONTINUOUS
 62
     0
100
AcDbLine
 10
-7.5
 20
-173.9995117188
 30
0.0
 11
-7.500000000000002
 21
-210.0004882811999
 31
0.0
  0
LINE
  5
6505
330
649F
100
AcDbEntity
  8
30
  6
CONTINUOUS
 62
     0
100
AcDbLine
 10
52.5
 20
-172.9995117188
 30
0.0
 11
52.5
 21
-210.0004882811999
 31
0.0
  0
LINE
  5
6506
330
649F
100
AcDbEntity
  8
30
  6
CONTINUOUS
 62
     0
100
AcDbLine
 10
-5.500000000000002
 20
-209.5004882811999
 30
0.0
 11
50.5
 21
-209.5004882811999
 31
0.0
  0
INSERT
  5
6507
330
649F
100
AcDbEntity
  8
30
  6
CONTINUOUS
 62
     0
100
AcDbBlockReference
  2
_OPEN
 10
-7.500000000000002
 20
-209.5004882811999
 30
0.0
 41
2.0
 42
2.0
 43
2.0
 50
180.0
  0
INSERT
  5
6508
330
649F
100
AcDbEntity
  8
30
  6
CONTINUOUS
 62
     0
100
AcDbBlockReference
  2
_OPEN
 10
52.5
 20
-209.5004882811999
 30
0.0
 41
2.0
 42
2.0
 43
2.0
  0
MTEXT
  5
6509
330
649F
100
AcDbEntity
  8
30
  6
CONTINUOUS
 62
     0
100
AcDbMText
 10
22.5
 20
-206.0004882811999
 30
0.0
 40
5.0
 41
0.0
 71
     5
 72
     1
  1
\A1;60
1001
ACAD
1000
MTEXTBEGIN
1070
    73
1070
     1
1070
    44
1040
1.0
1070
    74
1070
     0
1000
MTEXTEND
1000
MTEXTBEGIN
1070
    73
1070
     1
1070
    44
1040
1.0
1070
    74
1070
     0
1000
MTEXTEND
1000
MTEXTBEGIN
1070
    73
1070
     1
1070
    44
1040
1.0
1070
    74
1070
     0
1000
MTEXTEND
1000
MTEXTBEGIN
1070
    73
1070
     1
1070
    44
1040
1.0
1070
    74
1070
     0
1000
MTEXTEND
  0
POINT
  5
650A
330
649F
100
AcDbEntity
  8
DEFPOINTS
  6
CONTINUOUS
 62
     0
100
AcDbPoint
 10
-7.5
 20
-172.9995117188
 30
0.0
  0
POINT
  5
650B
330
649F
100
AcDbEntity
  8
DEFPOINTS
  6
CONTINUOUS
 62
     0
100
AcDbPoint
 10
52.5
 20
-171.9995117188
 30
0.0
  0
POINT
  5
650C
330
649F
100
AcDbEntity
  8
DEFPOINTS
  6
CONTINUOUS
 62
     0
100
AcDbPoint
 10
52.5
 20
-209.5004882811999
 30
0.0
  0
ENDBLK
  5
64AA
330
649F
100
AcDbEntity
  8
0
100
AcDbBlockEnd
  0
BLOCK
  5
64B5
330
64AB
100
AcDbEntity
  8
0
100
AcDbBlockBegin
  2
*D10
 70
     1
 10
0.0
 20
0.0
 30
0.0
  3
*D10
  1

  0
LINE
  5
651F
330
64AB
100
AcDbEntity
  8
30
  6
CONTINUOUS
 62
     0
100
AcDbLine
 10
52.5
 20
-175.9990234375998
 30
0.0
 11
52.5
 21
-210.0004882811999
 31
0.0
  0
LINE
  5
6520
330
64AB
100
AcDbEntity
  8
30
  6
CONTINUOUS
 62
     0
100
AcDbLine
 10
112.5
 20
-174.9990234375998
 30
0.0
 11
112.5
 21
-210.0004882811999
 31
0.0
  0
LINE
  5
6521
330
64AB
100
AcDbEntity
  8
30
  6
CONTINUOUS
 62
     0
100
AcDbLine
 10
54.5
 20
-209.5004882811999
 30
0.0
 11
110.4999999999999
 21
-209.5004882811999
 31
0.0
  0
INSERT
  5
6522
330
64AB
100
AcDbEntity
  8
30
  6
CONTINUOUS
 62
     0
100
AcDbBlockReference
  2
_OPEN
 10
52.5
 20
-209.5004882811999
 30
0.0
 41
2.0
 42
2.0
 43
2.0
 50
180.0
  0
INSERT
  5
6523
330
64AB
100
AcDbEntity
  8
30
  6
CONTINUOUS
 62
     0
100
AcDbBlockReference
  2
_OPEN
 10
112.5
 20
-209.5004882811999
 30
0.0
 41
2.0
 42
2.0
 43
2.0
  0
MTEXT
  5
6524
330
64AB
100
AcDbEntity
  8
30
  6
CONTINUOUS
 62
     0
100
AcDbMText
 10
82.5
 20
-206.0004882811999
 30
0.0
 40
5.0
 41
0.0
 71
     5
 72
     1
  1
\A1;60
1001
ACAD
1000
MTEXTBEGIN
1070
    73
1070
     1
1070
    44
1040
1.0
1070
    74
1070
     0
1000
MTEXTEND
1000
MTEXTBEGIN
1070
    73
1070
     1
1070
    44
1040
1.0
1070
    74
1070
     0
1000
MTEXTEND
1000
MTEXTBEGIN
1070
    73
1070
     1
1070
    44
1040
1.0
1070
    74
1070
     0
1000
MTEXTEND
1000
MTEXTBEGIN
1070
    73
1070
     1
1070
    44
1040
1.0
1070
    74
1070
     0
1000
MTEXTEND
  0
POINT
  5
6525
330
64AB
100
AcDbEntity
  8
DEFPOINTS
  6
CONTINUOUS
 62
     0
100
AcDbPoint
 10
52.5
 20
-174.9990234375998
 30
0.0
  0
POINT
  5
6526
330
64AB
100
AcDbEntity
  8
DEFPOINTS
  6
CONTINUOUS
 62
     0
100
AcDbPoint
 10
112.5
 20
-173.9990234375999
 30
0.0
  0
POINT
  5
6527
330
64AB
100
AcDbEntity
  8
DEFPOINTS
  6
CONTINUOUS
 62
     0
100
AcDbPoint
 10
112.5
 20
-209.5004882811999
 30
0.0
  0
ENDBLK
  5
64B6
330
64AB
100
AcDbEntity
  8
0
100
AcDbBlockEnd
  0
BLOCK
  5
64F9
330
64EF
100
AcDbEntity
  8
0
100
AcDbBlockBegin
  2
*D11
 70
     1
 10
0.0
 20
0.0
 30
0.0
  3
*D11
  1

  0
LINE
  5
64FB
330
64EF
100
AcDbEntity
  8
30
  6
CONTINUOUS
 62
     0
100
AcDbLine
 10
6.5
 20
-174.5
 30
0.0
 11
6.499999999999999
 21
-186.6755559797565
 31
0.0
  0
LINE
  5
64FC
330
64EF
100
AcDbEntity
  8
30
  6
CONTINUOUS
 62
     0
100
AcDbLine
 10
-21.49999999999999
 20
-174.4063720703
 30
0.0
 11
-21.49999999999999
 21
-186.6755559797565
 31
0.0
  0
LINE
  5
64FD
330
64EF
100
AcDbEntity
  8
30
  6
CONTINUOUS
 62
     0
100
AcDbLine
 10
4.499999999999999
 20
-186.1755559797568
 30
0.0
 11
-19.5
 21
-186.1755559797568
 31
0.0
  0
INSERT
  5
64FE
330
64EF
100
AcDbEntity
  8
30
  6
CONTINUOUS
 62
     0
100
AcDbBlockReference
  2
_OPEN
 10
6.499999999999999
 20
-186.1755559797568
 30
0.0
 41
2.0
 42
2.0
 43
2.0
  0
INSERT
  5
64FF
330
64EF
100
AcDbEntity
  8
30
  6
CONTINUOUS
 62
     0
100
AcDbBlockReference
  2
_OPEN
 10
-21.49999999999999
 20
-186.1755559797568
 30
0.0
 41
2.0
 42
2.0
 43
2.0
 50
180.0
  0
MTEXT
  5
6500
330
64EF
100
AcDbEntity
  8
30
  6
CONTINUOUS
 62
     0
100
AcDbMText
 10
-7.5
 20
-182.6755559797568
 30
0.0
 40
5.0
 41
0.0
 71
     5
 72
     1
  1
\A1;28
1001
ACAD
1000
MTEXTBEGIN
1070
    73
1070
     1
1070
    44
1040
1.0
1070
    74
1070
     0
1000
MTEXTEND
1000
MTEXTBEGIN
1070
    73
1070
     1
1070
    44
1040
1.0
1070
    74
1070
     0
1000
MTEXTEND
1000
MTEXTBEGIN
1070
    73
1070
     1
1070
    44
1040
1.0
1070
    74
1070
     0
1000
MTEXTEND
1000
MTEXTBEGIN
1070
    73
1070
     1
1070
    44
1040
1.0
1070
    74
1070
     0
1000
MTEXTEND
  0
POINT
  5
6501
330
64EF
100
AcDbEntity
  8
DEFPOINTS
  6
CONTINUOUS
 62
     0
100
AcDbPoint
 10
6.5
 20
-173.5
 30
0.0
  0
POINT
  5
6502
330
64EF
100
AcDbEntity
  8
DEFPOINTS
  6
CONTINUOUS
 62
     0
100
AcDbPoint
 10
-21.49999999999999
 20
-173.4063720703
 30
0.0
  0
POINT
  5
6503
330
64EF
100
AcDbEntity
  8
DEFPOINTS
  6
CONTINUOUS
 62
     0
100
AcDbPoint
 10
-21.49999999999999
 20
-186.1755559797568
 30
0.0
  0
ENDBLK
  5
64FA
330
64EF
100
AcDbEntity
  8
0
100
AcDbBlockEnd
  0
BLOCK
  5
6569
330
655F
100
AcDbEntity
  8
0
100
AcDbBlockBegin
  2
*D12
 70
     1
 10
0.0
 20
0.0
 30
0.0
  3
*D12
  1

  0
LINE
  5
6560
330
655F
100
AcDbEntity
  8
30
  6
CONTINUOUS
 62
     0
100
AcDbLine
 10
-30.5
 20
-293.0
 30
0.0
 11
-116.4999999999997
 21
-293.0
 31
0.0
  0
LINE
  5
6561
330
655F
100
AcDbEntity
  8
30
  6
CONTINUOUS
 62
     0
100
AcDbLine
 10
-30.5
 20
-507.0
 30
0.0
 11
-116.5
 21
-507.0
 31
0.0
  0
LINE
  5
6562
330
655F
100
AcDbEntity
  8
30
  6
CONTINUOUS
 62
     0
100
AcDbLine
 10
-115.9999999999999
 20
-295.0
 30
0.0
 11
-116.0
 21
-505.0
 31
0.0
  0
INSERT
  5
6563
330
655F
100
AcDbEntity
  8
30
  6
CONTINUOUS
 62
     0
100
AcDbBlockReference
  2
_OPEN
 10
-115.9999999999999
 20
-293.0
 30
0.0
 41
2.0
 42
2.0
 43
2.0
 50
90.0
  0
INSERT
  5
6564
330
655F
100
AcDbEntity
  8
30
  6
CONTINUOUS
 62
     0
100
AcDbBlockReference
  2
_OPEN
 10
-116.0
 20
-507.0
 30
0.0
 41
2.0
 42
2.0
 43
2.0
 50
270.0
  0
MTEXT
  5
6565
330
655F
100
AcDbEntity
  8
30
  6
CONTINUOUS
 62
     0
100
AcDbMText
 10
-119.4999999999996
 20
-400.0
 30
0.0
 40
5.0
 41
0.0
 71
     5
 72
     1
  1
\A1;214
 11
0.0000000000000001
 21
1.0
 31
0.0
1001
ACAD
1000
MTEXTBEGIN
1070
    73
1070
     1
1070
    44
1040
1.0
1070
    74
1070
     0
1000
MTEXTEND
1000
MTEXTBEGIN
1070
    73
1070
     1
1070
    44
1040
1.0
1070
    74
1070
     0
1000
MTEXTEND
1000
MTEXTBEGIN
1070
    73
1070
     1
1070
    44
1040
1.0
1070
    74
1070
     0
1000
MTEXTEND
1000
MTEXTBEGIN
1070
    73
1070
     1
1070
    44
1040
1.0
1070
    74
1070
     0
1000
MTEXTEND
  0
POINT
  5
6566
330
655F
100
AcDbEntity
  8
DEFPOINTS
  6
CONTINUOUS
 62
     0
100
AcDbPoint
 10
-29.5
 20
-293.0
 30
0.0
  0
POINT
  5
6567
330
655F
100
AcDbEntity
  8
DEFPOINTS
  6
CONTINUOUS
 62
     0
100
AcDbPoint
 10
-29.5
 20
-507.0
 30
0.0
  0
POINT
  5
6568
330
655F
100
AcDbEntity
  8
DEFPOINTS
  6
CONTINUOUS
 62
     0
100
AcDbPoint
 10
-116.0
 20
-507.0
 30
0.0
  0
ENDBLK
  5
656A
330
655F
100
AcDbEntity
  8
0
100
AcDbBlockEnd
  0
BLOCK
  5
6576
330
656C
100
AcDbEntity
  8
0
100
AcDbBlockBegin
  2
*D13
 70
     1
 10
0.0
 20
0.0
 30
0.0
  3
*D13
  1

  0
LINE
  5
656D
330
656C
100
AcDbEntity
  8
30
  6
CONTINUOUS
 62
     0
100
AcDbLine
 10
-22.5
 20
-515.0
 30
0.0
 11
-22.5
 21
-573.5
 31
0.0
  0
LINE
  5
656E
330
656C
100
AcDbEntity
  8
30
  6
CONTINUOUS
 62
     0
100
AcDbLine
 10
22.5
 20
-515.0
 30
0.0
 11
22.49999999999999
 21
-573.5
 31
0.0
  0
LINE
  5
656F
330
656C
100
AcDbEntity
  8
30
  6
CONTINUOUS
 62
     0
100
AcDbLine
 10
-20.5
 20
-573.0
 30
0.0
 11
20.49999999999998
 21
-573.0
 31
0.0
  0
INSERT
  5
6570
330
656C
100
AcDbEntity
  8
30
  6
CONTINUOUS
 62
     0
100
AcDbBlockReference
  2
_OPEN
 10
-22.5
 20
-573.0
 30
0.0
 41
2.0
 42
2.0
 43
2.0
 50
180.0
  0
INSERT
  5
6571
330
656C
100
AcDbEntity
  8
30
  6
CONTINUOUS
 62
     0
100
AcDbBlockReference
  2
_OPEN
 10
22.49999999999999
 20
-573.0
 30
0.0
 41
2.0
 42
2.0
 43
2.0
  0
MTEXT
  5
6572
330
656C
100
AcDbEntity
  8
30
  6
CONTINUOUS
 62
     0
100
AcDbMText
 10
-0.0000000000000033
 20
-569.5
 30
0.0
 40
5.0
 41
0.0
 71
     5
 72
     1
  1
\A1;45
1001
ACAD
1000
MTEXTBEGIN
1070
    73
1070
     1
1070
    44
1040
1.0
1070
    74
1070
     0
1000
MTEXTEND
1000
MTEXTBEGIN
1070
    73
1070
     1
1070
    44
1040
1.0
1070
    74
1070
     0
1000
MTEXTEND
1000
MTEXTBEGIN
1070
    73
1070
     1
1070
    44
1040
1.0
1070
    74
1070
     0
1000
MTEXTEND
1000
MTEXTBEGIN
1070
    73
1070
     1
1070
    44
1040
1.0
1070
    74
1070
     0
1000
MTEXTEND
  0
POINT
  5
6573
330
656C
100
AcDbEntity
  8
DEFPOINTS
  6
CONTINUOUS
 62
     0
100
AcDbPoint
 10
-22.5
 20
-514.0
 30
0.0
  0
POINT
  5
6574
330
656C
100
AcDbEntity
  8
DEFPOINTS
  6
CONTINUOUS
 62
     0
100
AcDbPoint
 10
22.5
 20
-514.0
 30
0.0
  0
POINT
  5
6575
330
656C
100
AcDbEntity
  8
DEFPOINTS
  6
CONTINUOUS
 62
     0
100
AcDbPoint
 10
22.49999999999999
 20
-573.0
 30
0.0
  0
ENDBLK
  5
6577
330
656C
100
AcDbEntity
  8
0
100
AcDbBlockEnd
  0
BLOCK
  5
6586
330
657C
100
AcDbEntity
  8
0
100
AcDbBlockBegin
  2
*D14
 70
     1
 10
0.0
 20
0.0
 30
0.0
  3
*D14
  1

  0
LINE
  5
65BB
330
657C
100
AcDbEntity
  8
30
  6
CONTINUOUS
 62
     0
100
AcDbLine
 10
201.0
 20
-354.0
 30
0.0
 11
172.5
 21
-354.0
 31
0.0
  0
LINE
  5
65BC
330
657C
100
AcDbEntity
  8
30
  6
CONTINUOUS
 62
     0
100
AcDbLine
 10
195.0
 20
-446.0
 30
0.0
 11
172.5
 21
-446.0
 31
0.0
  0
LINE
  5
65BD
330
657C
100
AcDbEntity
  8
30
  6
CONTINUOUS
 62
     0
100
AcDbLine
 10
173.0
 20
-356.0
 30
0.0
 11
173.0
 21
-444.0
 31
0.0
  0
INSERT
  5
65BE
330
657C
100
AcDbEntity
  8
30
  6
CONTINUOUS
 62
     0
100
AcDbBlockReference
  2
_OPEN
 10
173.0
 20
-354.0
 30
0.0
 41
2.0
 42
2.0
 43
2.0
 50
90.0
  0
INSERT
  5
65BF
330
657C
100
AcDbEntity
  8
30
  6
CONTINUOUS
 62
     0
100
AcDbBlockReference
  2
_OPEN
 10
173.0
 20
-446.0
 30
0.0
 41
2.0
 42
2.0
 43
2.0
 50
270.0
  0
MTEXT
  5
65C0
330
657C
100
AcDbEntity
  8
30
  6
CONTINUOUS
 62
     0
100
AcDbMText
 10
169.5
 20
-399.9999999999998
 30
0.0
 40
5.0
 41
0.0
 71
     5
 72
     1
  1
\A1;92
 11
0.0000000000000001
 21
1.0
 31
0.0
1001
ACAD
1000
MTEXTBEGIN
1070
    73
1070
     1
1070
    44
1040
1.0
1070
    74
1070
     0
1000
MTEXTEND
1000
MTEXTBEGIN
1070
    73
1070
     1
1070
    44
1040
1.0
1070
    74
1070
     0
1000
MTEXTEND
1000
MTEXTBEGIN
1070
    73
1070
     1
1070
    44
1040
1.0
1070
    74
1070
     0
1000
MTEXTEND
1000
MTEXTBEGIN
1070
    73
1070
     1
1070
    44
1040
1.0
1070
    74
1070
     0
1000
MTEXTEND
  0
POINT
  5
65C1
330
657C
100
AcDbEntity
  8
DEFPOINTS
  6
CONTINUOUS
 62
     0
100
AcDbPoint
 10
202.0
 20
-354.0
 30
0.0
  0
POINT
  5
65C2
330
657C
100
AcDbEntity
  8
DEFPOINTS
  6
CONTINUOUS
 62
     0
100
AcDbPoint
 10
196.0
 20
-446.0
 30
0.0
  0
POINT
  5
65C3
330
657C
100
AcDbEntity
  8
DEFPOINTS
  6
CONTINUOUS
 62
     0
100
AcDbPoint
 10
173.0
 20
-446.0
 30
0.0
  0
ENDBLK
  5
6587
330
657C
100
AcDbEntity
  8
0
100
AcDbBlockEnd
  0
BLOCK
  5
6593
330
6589
100
AcDbEntity
  8
0
100
AcDbBlockBegin
  2
*D15
 70
     1
 10
0.0
 20
0.0
 30
0.0
  3
*D15
  1

  0
LINE
  5
65B1
330
6589
100
AcDbEntity
  8
30
  6
CONTINUOUS
 62
     0
100
AcDbLine
 10
196.0
 20
-447.0
 30
0.0
 11
196.0
 21
-462.5
 31
0.0
  0
LINE
  5
65B2
330
6589
100
AcDbEntity
  8
30
  6
CONTINUOUS
 62
     0
100
AcDbLine
 10
314.0
 20
-447.0
 30
0.0
 11
314.0
 21
-462.5
 31
0.0
  0
LINE
  5
65B3
330
6589
100
AcDbEntity
  8
30
  6
CONTINUOUS
 62
     0
100
AcDbLine
 10
198.0
 20
-462.0
 30
0.0
 11
312.0
 21
-462.0
 31
0.0
  0
INSERT
  5
65B4
330
6589
100
AcDbEntity
  8
30
  6
CONTINUOUS
 62
     0
100
AcDbBlockReference
  2
_OPEN
 10
196.0
 20
-462.0
 30
0.0
 41
2.0
 42
2.0
 43
2.0
 50
180.0
  0
INSERT
  5
65B5
330
6589
100
AcDbEntity
  8
30
  6
CONTINUOUS
 62
     0
100
AcDbBlockReference
  2
_OPEN
 10
314.0
 20
-462.0
 30
0.0
 41
2.0
 42
2.0
 43
2.0
  0
MTEXT
  5
65B6
330
6589
100
AcDbEntity
  8
30
  6
CONTINUOUS
 62
     0
100
AcDbMText
 10
255.0
 20
-458.4999999999998
 30
0.0
 40
5.0
 41
0.0
 71
     5
 72
     1
  1
\A1;118
1001
ACAD
1000
MTEXTBEGIN
1070
    73
1070
     1
1070
    44
1040
1.0
1070
    74
1070
     0
1000
MTEXTEND
1000
MTEXTBEGIN
1070
    73
1070
     1
1070
    44
1040
1.0
1070
    74
1070
     0
1000
MTEXTEND
1000
MTEXTBEGIN
1070
    73
1070
     1
1070
    44
1040
1.0
1070
    74
1070
     0
1000
MTEXTEND
1000
MTEXTBEGIN
1070
    73
1070
     1
1070
    44
1040
1.0
1070
    74
1070
     0
1000
MTEXTEND
  0
POINT
  5
65B7
330
6589
100
AcDbEntity
  8
DEFPOINTS
  6
CONTINUOUS
 62
     0
100
AcDbPoint
 10
196.0
 20
-446.0
 30
0.0
  0
POINT
  5
65B8
330
6589
100
AcDbEntity
  8
DEFPOINTS
  6
CONTINUOUS
 62
     0
100
AcDbPoint
 10
314.0
 20
-446.0
 30
0.0
  0
POINT
  5
65B9
330
6589
100
AcDbEntity
  8
DEFPOINTS
  6
CONTINUOUS
 62
     0
100
AcDbPoint
 10
314.0
 20
-462.0
 30
0.0
  0
ENDBLK
  5
6594
330
6589
100
AcDbEntity
  8
0
100
AcDbBlockEnd
  0
BLOCK
  5
65E2
330
65D9
100
AcDbEntity
  8
0
100
AcDbBlockBegin
  2
*D16
 70
     1
 10
0.0
 20
0.0
 30
0.0
  3
*D16
  1

  0
LINE
  5
65DA
330
65D9
100
AcDbEntity
  8
30
  6
CONTINUOUS
 62
     0
100
AcDbLine
 10
161.6666666666658
 20
-465.9999999999998
 30
0.0
 11
170.999999999999
 21
-465.9999999999998
 31
0.0
  0
LINE
  5
65DB
330
65D9
100
AcDbEntity
  8
30
  6
CONTINUOUS
 62
     0
100
AcDbLine
 10
170.999999999999
 20
-465.9999999999998
 30
0.0
 11
195.8704676549936
 21
-445.1408980958117
 31
0.0
  0
MTEXT
  5
65DC
330
65D9
100
AcDbEntity
  8
30
  6
CONTINUOUS
 62
     0
100
AcDbMText
 10
165.8333333333325
 20
-462.4999999999998
 30
0.0
 40
5.0
 41
0.0
 71
     5
 72
     1
  1
\A1;R6
1001
ACAD
1000
MTEXTBEGIN
1070
    73
1070
     1
1070
    44
1040
1.0
1070
    74
1070
     0
1000
MTEXTEND
1000
MTEXTBEGIN
1070
    73
1070
     1
1070
    44
1040
1.0
1070
    74
1070
     0
1000
MTEXTEND
1000
MTEXTBEGIN
1070
    73
1070
     1
1070
    44
1040
1.0
1070
    74
1070
     0
1000
MTEXTEND
1000
MTEXTBEGIN
1070
    73
1070
     1
1070
    44
1040
1.0
1070
    74
1070
     0
1000
MTEXTEND
  0
INSERT
  5
65DD
330
65D9
100
AcDbEntity
  8
30
  6
CONTINUOUS
 62
     0
100
AcDbBlockReference
  2
_OPEN
 10
197.4028507412452
 20
-443.8556735718588
 30
0.0
 41
2.0
 42
2.0
 43
2.0
 50
39.98688624496333
  0
LINE
  5
65DE
330
65D9
100
AcDbEntity
  8
30
  6
CONTINUOUS
 62
     0
100
AcDbLine
 10
201.9099999999999
 20
-440.0
 30
0.0
 11
202.09
 21
-440.0
 31
0.0
  0
LINE
  5
65DF
330
65D9
100
AcDbEntity
  8
30
  6
CONTINUOUS
 62
     0
100
AcDbLine
 10
202.0
 20
-440.09
 30
0.0
 11
202.0
 21
-439.91
 31
0.0
  0
POINT
  5
65E0
330
65D9
100
AcDbEntity
  8
DEFPOINTS
  6
CONTINUOUS
 62
     0
100
AcDbPoint
 10
197.4028507412452
 20
-443.8556735718588
 30
0.0
  0
POINT
  5
65E1
330
65D9
100
AcDbEntity
  8
DEFPOINTS
  6
CONTINUOUS
 62
     0
100
AcDbPoint
 10
202.0
 20
-440.0
 30
0.0
  0
ENDBLK
  5
65E3
330
65D9
100
AcDbEntity
  8
0
100
AcDbBlockEnd
  0
BLOCK
  5
66AC
330
66A1
100
AcDbEntity
  8
0
100
AcDbBlockBegin
  2
*D17
 70
     1
 10
0.0
 20
0.0
 30
0.0
  3
*D17
  1

  0
LINE
  5
6738
330
66A1
100
AcDbEntity
  8
30
  6
CONTINUOUS
 62
     0
100
AcDbLine
 10
361.3937097878775
 20
-117.9997558594
 30
0.0
 11
361.3937097878775
 21
-140.4997558594
 31
0.0
  0
LINE
  5
6739
330
66A1
100
AcDbEntity
  8
30
  6
CONTINUOUS
 62
     0
100
AcDbLine
 10
376.0936609597775
 20
-113.9997558594
 30
0.0
 11
376.0936609597775
 21
-140.4997558594
 31
0.0
  0
LINE
  5
673A
330
66A1
100
AcDbEntity
  8
30
  6
CONTINUOUS
 62
     0
100
AcDbLine
 10
363.3937097878775
 20
-139.9997558594
 30
0.0
 11
374.0936609597775
 21
-139.9997558594
 31
0.0
  0
LINE
  5
673B
330
66A1
100
AcDbEntity
  8
30
  6
CONTINUOUS
 62
     0
100
AcDbLine
 10
376.0936609597775
 20
-139.9997558594
 30
0.0
 11
402.6666666666666
 21
-139.9997558594
 31
0.0
  0
INSERT
  5
673C
330
66A1
100
AcDbEntity
  8
30
  6
CONTINUOUS
 62
     0
100
AcDbBlockReference
  2
_OPEN
 10
361.3937097878775
 20
-139.9997558594
 30
0.0
 41
2.0
 42
2.0
 43
2.0
 50
180.0
  0
INSERT
  5
673D
330
66A1
100
AcDbEntity
  8
30
  6
CONTINUOUS
 62
     0
100
AcDbBlockReference
  2
_OPEN
 10
376.0936609597775
 20
-139.9997558594
 30
0.0
 41
2.0
 42
2.0
 43
2.0
  0
MTEXT
  5
673E
330
66A1
100
AcDbEntity
  8
30
  6
CONTINUOUS
 62
     0
100
AcDbMText
 10
395.0
 20
-136.4997558594
 30
0.0
 40
5.0
 41
0.0
 71
     5
 72
     1
  1
\A1;14.7
1001
ACAD
1000
MTEXTBEGIN
1070
    73
1070
     1
1070
    44
1040
1.0
1070
    74
1070
     0
1000
MTEXTEND
1000
MTEXTBEGIN
1070
    73
1070
     1
1070
    44
1040
1.0
1070
    74
1070
     0
1000
MTEXTEND
1000
MTEXTBEGIN
1070
    73
1070
     1
1070
    44
1040
1.0
1070
    74
1070
     0
1000
MTEXTEND
1000
MTEXTBEGIN
1070
    73
1070
     1
1070
    44
1040
1.0
1070
    74
1070
     0
1000
MTEXTEND
  0
POINT
  5
673F
330
66A1
100
AcDbEntity
  8
DEFPOINTS
  6
CONTINUOUS
 62
     0
100
AcDbPoint
 10
361.3937097878775
 20
-116.9997558594
 30
0.0
  0
POINT
  5
6740
330
66A1
100
AcDbEntity
  8
DEFPOINTS
  6
CONTINUOUS
 62
     0
100
AcDbPoint
 10
376.0936609597775
 20
-112.9997558594
 30
0.0
  0
POINT
  5
6741
330
66A1
100
AcDbEntity
  8
DEFPOINTS
  6
CONTINUOUS
 62
     0
100
AcDbPoint
 10
376.0936609597775
 20
-139.9997558594
 30
0.0
  0
ENDBLK
  5
66AD
330
66A1
100
AcDbEntity
  8
0
100
AcDbBlockEnd
  0
BLOCK
  5
66B8
330
66AE
100
AcDbEntity
  8
0
100
AcDbBlockBegin
  2
*D18
 70
     1
 10
0.0
 20
0.0
 30
0.0
  3
*D18
  1

  0
LINE
  5
6745
330
66AE
100
AcDbEntity
  8
30
  6
CONTINUOUS
 62
     0
100
AcDbLine
 10
361.3937097878775
 20
-131.0
 30
0.0
 11
361.3937097878775
 21
-190.4997558593999
 31
0.0
  0
LINE
  5
6746
330
66AE
100
AcDbEntity
  8
30
  6
CONTINUOUS
 62
     0
100
AcDbLine
 10
326.3937097878776
 20
-175.5
 30
0.0
 11
326.3937097878776
 21
-190.4997558593999
 31
0.0
  0
LINE
  5
6747
330
66AE
100
AcDbEntity
  8
30
  6
CONTINUOUS
 62
     0
100
AcDbLine
 10
359.3937097878775
 20
-189.9997558593997
 30
0.0
 11
328.3937097878776
 21
-189.9997558593997
 31
0.0
  0
INSERT
  5
6748
330
66AE
100
AcDbEntity
  8
30
  6
CONTINUOUS
 62
     0
100
AcDbBlockReference
  2
_OPEN
 10
361.3937097878775
 20
-189.9997558593997
 30
0.0
 41
2.0
 42
2.0
 43
2.0
  0
INSERT
  5
6749
330
66AE
100
AcDbEntity
  8
30
  6
CONTINUOUS
 62
     0
100
AcDbBlockReference
  2
_OPEN
 10
326.3937097878776
 20
-189.9997558593997
 30
0.0
 41
2.0
 42
2.0
 43
2.0
 50
180.0
  0
MTEXT
  5
674A
330
66AE
100
AcDbEntity
  8
30
  6
CONTINUOUS
 62
     0
100
AcDbMText
 10
343.8937097878775
 20
-186.4997558594
 30
0.0
 40
5.0
 41
0.0
 71
     5
 72
     1
  1
\A1;35
1001
ACAD
1000
MTEXTBEGIN
1070
    73
1070
     1
1070
    44
1040
1.0
1070
    74
1070
     0
1000
MTEXTEND
1000
MTEXTBEGIN
1070
    73
1070
     1
1070
    44
1040
1.0
1070
    74
1070
     0
1000
MTEXTEND
1000
MTEXTBEGIN
1070
    73
1070
     1
1070
    44
1040
1.0
1070
    74
1070
     0
1000
MTEXTEND
1000
MTEXTBEGIN
1070
    73
1070
     1
1070
    44
1040
1.0
1070
    74
1070
     0
1000
MTEXTEND
  0
POINT
  5
674B
330
66AE
100
AcDbEntity
  8
DEFPOINTS
  6
CONTINUOUS
 62
     0
100
AcDbPoint
 10
361.3937097878775
 20
-130.0
 30
0.0
  0
POINT
  5
674C
330
66AE
100
AcDbEntity
  8
DEFPOINTS
  6
CONTINUOUS
 62
     0
100
AcDbPoint
 10
326.3937097878776
 20
-174.5
 30
0.0
  0
POINT
  5
674D
330
66AE
100
AcDbEntity
  8
DEFPOINTS
  6
CONTINUOUS
 62
     0
100
AcDbPoint
 10
326.3937097878776
 20
-189.9997558593997
 30
0.0
  0
ENDBLK
  5
66B9
330
66AE
100
AcDbEntity
  8
0
100
AcDbBlockEnd
  0
BLOCK
  5
66C4
330
66BA
100
AcDbEntity
  8
0
100
AcDbBlockBegin
  2
*D19
 70
     1
 10
0.0
 20
0.0
 30
0.0
  3
*D19
  1

  0
LINE
  5
670A
330
66BA
100
AcDbEntity
  8
30
  6
CONTINUOUS
 62
     0
100
AcDbLine
 10
361.3937097878775
 20
-132.0
 30
0.0
 11
361.3937097878775
 21
-140.4997558594
 31
0.0
  0
LINE
  5
670B
330
66BA
100
AcDbEntity
  8
30
  6
CONTINUOUS
 62
     0
100
AcDbLine
 10
258.3937097878775
 20
-56.99975585940005
 30
0.0
 11
258.3937097878775
 21
-140.4997558594
 31
0.0
  0
LINE
  5
670C
330
66BA
100
AcDbEntity
  8
30
  6
CONTINUOUS
 62
     0
100
AcDbLine
 10
359.3937097878775
 20
-139.9997558594
 30
0.0
 11
260.3937097878775
 21
-139.9997558594
 31
0.0
  0
INSERT
  5
670D
330
66BA
100
AcDbEntity
  8
30
  6
CONTINUOUS
 62
     0
100
AcDbBlockReference
  2
_OPEN
 10
361.3937097878775
 20
-139.9997558594
 30
0.0
 41
2.0
 42
2.0
 43
2.0
  0
INSERT
  5
670E
330
66BA
100
AcDbEntity
  8
30
  6
CONTINUOUS
 62
     0
100
AcDbBlockReference
  2
_OPEN
 10
258.3937097878775
 20
-139.9997558594
 30
0.0
 41
2.0
 42
2.0
 43
2.0
 50
180.0
  0
MTEXT
  5
670F
330
66BA
100
AcDbEntity
  8
30
  6
CONTINUOUS
 62
     0
100
AcDbMText
 10
309.8937097878776
 20
-136.4997558594
 30
0.0
 40
5.0
 41
0.0
 71
     5
 72
     1
  1
\A1;103
1001
ACAD
1000
MTEXTBEGIN
1070
    73
1070
     1
1070
    44
1040
1.0
1070
    74
1070
     0
1000
MTEXTEND
1000
MTEXTBEGIN
1070
    73
1070
     1
1070
    44
1040
1.0
1070
    74
1070
     0
1000
MTEXTEND
1000
MTEXTBEGIN
1070
    73
1070
     1
1070
    44
1040
1.0
1070
    74
1070
     0
1000
MTEXTEND
1000
MTEXTBEGIN
1070
    73
1070
     1
1070
    44
1040
1.0
1070
    74
1070
     0
1000
MTEXTEND
  0
POINT
  5
6710
330
66BA
100
AcDbEntity
  8
DEFPOINTS
  6
CONTINUOUS
 62
     0
100
AcDbPoint
 10
361.3937097878775
 20
-131.0
 30
0.0
  0
POINT
  5
6711
330
66BA
100
AcDbEntity
  8
DEFPOINTS
  6
CONTINUOUS
 62
     0
100
AcDbPoint
 10
258.3937097878775
 20
-55.99975585940004
 30
0.0
  0
POINT
  5
6712
330
66BA
100
AcDbEntity
  8
DEFPOINTS
  6
CONTINUOUS
 62
     0
100
AcDbPoint
 10
258.3937097878775
 20
-139.9997558594
 30
0.0
  0
ENDBLK
  5
66C5
330
66BA
100
AcDbEntity
  8
0
100
AcDbBlockEnd
  0
BLOCK
  5
66D1
330
66C6
100
AcDbEntity
  8
0
100
AcDbBlockBegin
  2
*D20
 70
     1
 10
0.0
 20
0.0
 30
0.0
  3
*D20
  1

  0
LINE
  5
6C18
330
66C6
100
AcDbEntity
  8
30
  6
CONTINUOUS
 62
     0
100
AcDbLine
 10
258.3937097878775
 20
-56.99975585940005
 30
0.0
 11
258.3937097878775
 21
-140.8330891927334
 31
0.0
  0
LINE
  5
6C19
330
66C6
100
AcDbEntity
  8
30
  6
CONTINUOUS
 62
     0
100
AcDbLine
 10
250.3937097878774
 20
-46.0
 30
0.0
 11
250.3937097878774
 21
-140.8330891927334
 31
0.0
  0
LINE
  5
6C1A
330
66C6
100
AcDbEntity
  8
30
  6
CONTINUOUS
 62
     0
100
AcDbLine
 10
256.3937097878775
 20
-140.3330891927334
 30
0.0
 11
252.3937097878774
 21
-140.3330891927334
 31
0.0
  0
INSERT
  5
6C1B
330
66C6
100
AcDbEntity
  8
30
  6
CONTINUOUS
 62
     0
100
AcDbBlockReference
  2
_OPEN
 10
258.3937097878775
 20
-140.3330891927334
 30
0.0
 41
2.0
 42
2.0
 43
2.0
  0
INSERT
  5
6C1C
330
66C6
100
AcDbEntity
  8
30
  6
CONTINUOUS
 62
     0
100
AcDbBlockReference
  2
_OPEN
 10
250.3937097878774
 20
-140.3330891927334
 30
0.0
 41
2.0
 42
2.0
 43
2.0
 50
180.0
  0
MTEXT
  5
6C1D
330
66C6
100
AcDbEntity
  8
30
  6
CONTINUOUS
 62
     0
100
AcDbMText
 10
254.3937097878774
 20
-136.8330891927334
 30
0.0
 40
5.0
 41
0.0
 71
     5
 72
     1
  1
\A1;8
1001
ACAD
1000
MTEXTBEGIN
1070
    73
1070
     1
1070
    44
1040
1.0
1070
    74
1070
     0
1000
MTEXTEND
1000
MTEXTBEGIN
1070
    73
1070
     1
1070
    44
1040
1.0
1070
    74
1070
     0
1000
MTEXTEND
  0
POINT
  5
6C1E
330
66C6
100
AcDbEntity
  8
DEFPOINTS
  6
CONTINUOUS
 62
     0
100
AcDbPoint
 10
258.3937097878775
 20
-55.99975585940004
 30
0.0
  0
POINT
  5
6C1F
330
66C6
100
AcDbEntity
  8
DEFPOINTS
  6
CONTINUOUS
 62
     0
100
AcDbPoint
 10
250.3937097878774
 20
-45.0
 30
0.0
  0
POINT
  5
6C20
330
66C6
100
AcDbEntity
  8
DEFPOINTS
  6
CONTINUOUS
 62
     0
100
AcDbPoint
 10
250.3937097878774
 20
-140.3330891927334
 30
0.0
  0
ENDBLK
  5
66D2
330
66C6
100
AcDbEntity
  8
0
100
AcDbBlockEnd
  0
BLOCK
  5
66DD
330
66D3
100
AcDbEntity
  8
0
100
AcDbBlockBegin
  2
*D21
 70
     1
 10
0.0
 20
0.0
 30
0.0
  3
*D21
  1

  0
LINE
  5
6C0F
330
66D3
100
AcDbEntity
  8
30
  6
CONTINUOUS
 62
     0
100
AcDbLine
 10
361.3937097878775
 20
-91.49975585940003
 30
0.0
 11
361.3937097878775
 21
-150.4997558594
 31
0.0
  0
LINE
  5
6C10
330
66D3
100
AcDbEntity
  8
30
  6
CONTINUOUS
 62
     0
100
AcDbLine
 10
216.3937097878775
 20
-1.0
 30
0.0
 11
216.3937097878775
 21
-150.4997558594
 31
0.0
  0
LINE
  5
6C11
330
66D3
100
AcDbEntity
  8
30
  6
CONTINUOUS
 62
     0
100
AcDbLine
 10
359.3937097878775
 20
-149.9997558594
 30
0.0
 11
218.3937097878775
 21
-149.9997558594
 31
0.0
  0
INSERT
  5
6C12
330
66D3
100
AcDbEntity
  8
30
  6
CONTINUOUS
 62
     0
100
AcDbBlockReference
  2
_OPEN
 10
361.3937097878775
 20
-149.9997558594
 30
0.0
 41
2.0
 42
2.0
 43
2.0
  0
INSERT
  5
6C13
330
66D3
100
AcDbEntity
  8
30
  6
CONTINUOUS
 62
     0
100
AcDbBlockReference
  2
_OPEN
 10
216.3937097878775
 20
-149.9997558594
 30
0.0
 41
2.0
 42
2.0
 43
2.0
 50
180.0
  0
MTEXT
  5
6C14
330
66D3
100
AcDbEntity
  8
30
  6
CONTINUOUS
 62
     0
100
AcDbMText
 10
288.8937097878775
 20
-146.4997558594
 30
0.0
 40
5.0
 41
0.0
 71
     5
 72
     1
  1
\A1;145
1001
ACAD
1000
MTEXTBEGIN
1070
    73
1070
     1
1070
    44
1040
1.0
1070
    74
1070
     0
1000
MTEXTEND
1000
MTEXTBEGIN
1070
    73
1070
     1
1070
    44
1040
1.0
1070
    74
1070
     0
1000
MTEXTEND
  0
POINT
  5
6C15
330
66D3
100
AcDbEntity
  8
DEFPOINTS
  6
CONTINUOUS
 62
     0
100
AcDbPoint
 10
361.3937097878775
 20
-90.49975585940003
 30
0.0
  0
POINT
  5
6C16
330
66D3
100
AcDbEntity
  8
DEFPOINTS
  6
CONTINUOUS
 62
     0
100
AcDbPoint
 10
216.3937097878775
 20
0.0
 30
0.0
  0
POINT
  5
6C17
330
66D3
100
AcDbEntity
  8
DEFPOINTS
  6
CONTINUOUS
 62
     0
100
AcDbPoint
 10
216.3937097878775
 20
-149.9997558594
 30
0.0
  0
ENDBLK
  5
66DE
330
66D3
100
AcDbEntity
  8
0
100
AcDbBlockEnd
  0
BLOCK
  5
66F5
330
66EB
100
AcDbEntity
  8
0
100
AcDbBlockBegin
  2
*D22
 70
     1
 10
0.0
 20
0.0
 30
0.0
  3
*D22
  1

  0
LINE
  5
6BEA
330
66EB
100
AcDbEntity
  8
30
  6
CONTINUOUS
 62
     0
100
AcDbLine
 10
257.3937097878775
 20
0.0002441405999679
 30
0.0
 11
215.5
 21
0.0002441405999798
 31
0.0
  0
LINE
  5
6BEB
330
66EB
100
AcDbEntity
  8
30
  6
CONTINUOUS
 62
     0
100
AcDbLine
 10
257.3937097878775
 20
-55.99975585940004
 30
0.0
 11
215.5
 21
-55.99975585940004
 31
0.0
  0
LINE
  5
6BEC
330
66EB
100
AcDbEntity
  8
30
  6
CONTINUOUS
 62
     0
100
AcDbLine
 10
216.0
 20
-1.999755859400019
 30
0.0
 11
216.0
 21
-53.99975585940005
 31
0.0
  0
INSERT
  5
6BED
330
66EB
100
AcDbEntity
  8
30
  6
CONTINUOUS
 62
     0
100
AcDbBlockReference
  2
_OPEN
 10
216.0
 20
0.0002441405999796
 30
0.0
 41
2.0
 42
2.0
 43
2.0
 50
90.0
  0
INSERT
  5
6BEE
330
66EB
100
AcDbEntity
  8
30
  6
CONTINUOUS
 62
     0
100
AcDbBlockReference
  2
_OPEN
 10
216.0
 20
-55.99975585940004
 30
0.0
 41
2.0
 42
2.0
 43
2.0
 50
270.0
  0
MTEXT
  5
6BEF
330
66EB
100
AcDbEntity
  8
30
  6
CONTINUOUS
 62
     0
100
AcDbMText
 10
212.5
 20
-27.99975585939998
 30
0.0
 40
5.0
 41
0.0
 71
     5
 72
     1
  1
\A1;56
 11
0.0000000000000001
 21
1.0
 31
0.0
1001
ACAD
1000
MTEXTBEGIN
1070
    73
1070
     1
1070
    44
1040
1.0
1070
    74
1070
     0
1000
MTEXTEND
1000
MTEXTBEGIN
1070
    73
1070
     1
1070
    44
1040
1.0
1070
    74
1070
     0
1000
MTEXTEND
  0
POINT
  5
6BF0
330
66EB
100
AcDbEntity
  8
DEFPOINTS
  6
CONTINUOUS
 62
     0
100
AcDbPoint
 10
258.3937097878775
 20
0.0002441405999676
 30
0.0
  0
POINT
  5
6BF1
330
66EB
100
AcDbEntity
  8
DEFPOINTS
  6
CONTINUOUS
 62
     0
100
AcDbPoint
 10
258.3937097878775
 20
-55.99975585940004
 30
0.0
  0
POINT
  5
6BF2
330
66EB
100
AcDbEntity
  8
DEFPOINTS
  6
CONTINUOUS
 62
     0
100
AcDbPoint
 10
216.0
 20
-55.99975585940004
 30
0.0
  0
ENDBLK
  5
66F6
330
66EB
100
AcDbEntity
  8
0
100
AcDbBlockEnd
  0
BLOCK
  5
6759
330
674F
100
AcDbEntity
  8
0
100
AcDbBlockBegin
  2
*D23
 70
     1
 10
0.0
 20
0.0
 30
0.0
  3
*D23
  1

  0
LINE
  5
6750
330
674F
100
AcDbEntity
  8
30
  6
CONTINUOUS
 62
     0
100
AcDbLine
 10
326.3937097878776
 20
-175.5
 30
0.0
 11
326.3937097878776
 21
-190.4997558593999
 31
0.0
  0
LINE
  5
6751
330
674F
100
AcDbEntity
  8
30
  6
CONTINUOUS
 62
     0
100
AcDbLine
 10
318.3937097878775
 20
-175.5
 30
0.0
 11
318.3937097878775
 21
-190.4997558593999
 31
0.0
  0
LINE
  5
6752
330
674F
100
AcDbEntity
  8
30
  6
CONTINUOUS
 62
     0
100
AcDbLine
 10
324.3937097878776
 20
-189.9997558593997
 30
0.0
 11
320.3937097878776
 21
-189.9997558593997
 31
0.0
  0
INSERT
  5
6753
330
674F
100
AcDbEntity
  8
30
  6
CONTINUOUS
 62
     0
100
AcDbBlockReference
  2
_OPEN
 10
326.3937097878776
 20
-189.9997558593997
 30
0.0
 41
2.0
 42
2.0
 43
2.0
  0
INSERT
  5
6754
330
674F
100
AcDbEntity
  8
30
  6
CONTINUOUS
 62
     0
100
AcDbBlockReference
  2
_OPEN
 10
318.3937097878775
 20
-189.9997558593997
 30
0.0
 41
2.0
 42
2.0
 43
2.0
 50
180.0
  0
MTEXT
  5
6755
330
674F
100
AcDbEntity
  8
30
  6
CONTINUOUS
 62
     0
100
AcDbMText
 10
322.3937097878776
 20
-186.4997558594
 30
0.0
 40
5.0
 41
0.0
 71
     5
 72
     1
  1
\A1;8
1001
ACAD
1000
MTEXTBEGIN
1070
    73
1070
     1
1070
    44
1040
1.0
1070
    74
1070
     0
1000
MTEXTEND
1000
MTEXTBEGIN
1070
    73
1070
     1
1070
    44
1040
1.0
1070
    74
1070
     0
1000
MTEXTEND
1000
MTEXTBEGIN
1070
    73
1070
     1
1070
    44
1040
1.0
1070
    74
1070
     0
1000
MTEXTEND
1000
MTEXTBEGIN
1070
    73
1070
     1
1070
    44
1040
1.0
1070
    74
1070
     0
1000
MTEXTEND
  0
POINT
  5
6756
330
674F
100
AcDbEntity
  8
DEFPOINTS
  6
CONTINUOUS
 62
     0
100
AcDbPoint
 10
326.3937097878776
 20
-174.5
 30
0.0
  0
POINT
  5
6757
330
674F
100
AcDbEntity
  8
DEFPOINTS
  6
CONTINUOUS
 62
     0
100
AcDbPoint
 10
318.3937097878775
 20
-174.5
 30
0.0
  0
POINT
  5
6758
330
674F
100
AcDbEntity
  8
DEFPOINTS
  6
CONTINUOUS
 62
     0
100
AcDbPoint
 10
318.3937097878775
 20
-189.9997558593997
 30
0.0
  0
ENDBLK
  5
675A
330
674F
100
AcDbEntity
  8
0
100
AcDbBlockEnd
  0
BLOCK
  5
678C
330
6783
100
AcDbEntity
  8
0
100
AcDbBlockBegin
  2
*D24
 70
     1
 10
0.0
 20
0.0
 30
0.0
  3
*D24
  1

  0
LINE
  5
6887
330
6783
100
AcDbEntity
  8
30
  6
CONTINUOUS
 62
     0
100
AcDbLine
 10
250.0
 20
213.0
 30
0.0
 11
239.0
 21
213.0
 31
0.0
  0
LINE
  5
6888
330
6783
100
AcDbEntity
  8
30
  6
CONTINUOUS
 62
     0
100
AcDbLine
 10
239.0
 20
213.0
 30
0.0
 11
227.0730360603085
 21
195.2276184780823
 31
0.0
  0
MTEXT
  5
6889
330
6783
100
AcDbEntity
  8
30
  6
CONTINUOUS
 62
     0
100
AcDbMText
 10
245.0
 20
216.5
 30
0.0
 40
5.0
 41
0.0
 71
     5
 72
     1
  1
\A1;\U+220511
1001
ACAD
1000
MTEXTBEGIN
1070
    73
1070
     1
1070
    44
1040
1.0
1070
    74
1070
     0
1000
MTEXTEND
1000
MTEXTBEGIN
1070
    73
1070
     1
1070
    44
1040
1.0
1070
    74
1070
     0
1000
MTEXTEND
1000
MTEXTBEGIN
1070
    73
1070
     1
1070
    44
1040
1.0
1070
    74
1070
     0
1000
MTEXTEND
1000
MTEXTBEGIN
1070
    73
1070
     1
1070
    44
1040
1.0
1070
    74
1070
     0
1000
MTEXTEND
  0
INSERT
  5
688A
330
6783
100
AcDbEntity
  8
30
  6
CONTINUOUS
 62
     0
100
AcDbBlockReference
  2
_OPEN
 10
225.9585490543265
 20
193.5669202172603
 30
0.0
 41
2.0
 42
2.0
 43
2.0
 50
236.1346188546504
  0
LINE
  5
688B
330
6783
100
AcDbEntity
  8
30
  6
CONTINUOUS
 62
     0
100
AcDbLine
 10
222.803709787876
 20
189.0
 30
0.0
 11
222.983709787876
 21
189.0
 31
0.0
  0
LINE
  5
688C
330
6783
100
AcDbEntity
  8
30
  6
CONTINUOUS
 62
     0
100
AcDbLine
 10
222.8937097878761
 20
188.91
 30
0.0
 11
222.8937097878761
 21
189.09
 31
0.0
  0
POINT
  5
688D
330
6783
100
AcDbEntity
  8
DEFPOINTS
  6
CONTINUOUS
 62
     0
100
AcDbPoint
 10
225.9585490543265
 20
193.5669202172603
 30
0.0
  0
POINT
  5
688E
330
6783
100
AcDbEntity
  8
DEFPOINTS
  6
CONTINUOUS
 62
     0
100
AcDbPoint
 10
219.8288705214255
 20
184.4330797827394
 30
0.0
  0
ENDBLK
  5
678D
330
6783
100
AcDbEntity
  8
0
100
AcDbBlockEnd
  0
BLOCK
  5
6799
330
678F
100
AcDbEntity
  8
0
100
AcDbBlockBegin
  2
*D25
 70
     1
 10
0.0
 20
0.0
 30
0.0
  3
*D25
  1

  0
LINE
  5
6875
330
678F
100
AcDbEntity
  8
30
  6
CONTINUOUS
 62
     0
100
AcDbLine
 10
215.0
 20
189.0
 30
0.0
 11
202.4999999999999
 21
189.0
 31
0.0
  0
LINE
  5
6876
330
678F
100
AcDbEntity
  8
30
  6
CONTINUOUS
 62
     0
100
AcDbLine
 10
209.0
 20
177.0
 30
0.0
 11
202.4999999999999
 21
177.0
 31
0.0
  0
LINE
  5
6877
330
678F
100
AcDbEntity
  8
30
  6
CONTINUOUS
 62
     0
100
AcDbLine
 10
202.9999999999999
 20
187.0
 30
0.0
 11
202.9999999999999
 21
179.0
 31
0.0
  0
INSERT
  5
6878
330
678F
100
AcDbEntity
  8
30
  6
CONTINUOUS
 62
     0
100
AcDbBlockReference
  2
_OPEN
 10
202.9999999999999
 20
189.0
 30
0.0
 41
2.0
 42
2.0
 43
2.0
 50
90.0
  0
INSERT
  5
6879
330
678F
100
AcDbEntity
  8
30
  6
CONTINUOUS
 62
     0
100
AcDbBlockReference
  2
_OPEN
 10
202.9999999999999
 20
177.0
 30
0.0
 41
2.0
 42
2.0
 43
2.0
 50
270.0
  0
MTEXT
  5
687A
330
678F
100
AcDbEntity
  8
30
  6
CONTINUOUS
 62
     0
100
AcDbMText
 10
195.3333333333332
 20
183.0
 30
0.0
 40
5.0
 41
0.0
 71
     5
 72
     1
  1
\A1;12\PMAX
 11
0.0000000000000001
 21
1.0
 31
0.0
1001
ACAD
1000
MTEXTBEGIN
1070
    73
1070
     1
1070
    44
1040
1.0
1070
    74
1070
     0
1000
MTEXTEND
1000
MTEXTBEGIN
1070
    73
1070
     1
1070
    44
1040
1.0
1070
    74
1070
     0
1000
MTEXTEND
1000
MTEXTBEGIN
1070
    73
1070
     1
1070
    44
1040
1.0
1070
    74
1070
     0
1000
MTEXTEND
1000
MTEXTBEGIN
1070
    73
1070
     1
1070
    44
1040
1.0
1070
    74
1070
     0
1000
MTEXTEND
  0
POINT
  5
687B
330
678F
100
AcDbEntity
  8
DEFPOINTS
  6
CONTINUOUS
 62
     0
100
AcDbPoint
 10
216.0
 20
189.0
 30
0.0
  0
POINT
  5
687C
330
678F
100
AcDbEntity
  8
DEFPOINTS
  6
CONTINUOUS
 62
     0
100
AcDbPoint
 10
210.0
 20
177.0
 30
0.0
  0
POINT
  5
687D
330
678F
100
AcDbEntity
  8
DEFPOINTS
  6
CONTINUOUS
 62
     0
100
AcDbPoint
 10
202.9999999999999
 20
177.0
 30
0.0
  0
ENDBLK
  5
679A
330
678F
100
AcDbEntity
  8
0
100
AcDbBlockEnd
  0
BLOCK
  5
67A6
330
679C
100
AcDbEntity
  8
0
100
AcDbBlockBegin
  2
*D26
 70
     1
 10
0.0
 20
0.0
 30
0.0
  3
*D26
  1

  0
LINE
  5
687E
330
679C
100
AcDbEntity
  8
30
  6
CONTINUOUS
 62
     0
100
AcDbLine
 10
210.3937097878762
 20
176.0
 30
0.0
 11
210.3937097878762
 21
157.5
 31
0.0
  0
LINE
  5
687F
330
679C
100
AcDbEntity
  8
30
  6
CONTINUOUS
 62
     0
100
AcDbLine
 10
235.3937097878763
 20
176.0
 30
0.0
 11
235.3937097878763
 21
157.5
 31
0.0
  0
LINE
  5
6880
330
679C
100
AcDbEntity
  8
30
  6
CONTINUOUS
 62
     0
100
AcDbLine
 10
212.3937097878762
 20
158.0
 30
0.0
 11
233.3937097878763
 21
158.0
 31
0.0
  0
INSERT
  5
6881
330
679C
100
AcDbEntity
  8
30
  6
CONTINUOUS
 62
     0
100
AcDbBlockReference
  2
_OPEN
 10
210.3937097878762
 20
158.0
 30
0.0
 41
2.0
 42
2.0
 43
2.0
 50
180.0
  0
INSERT
  5
6882
330
679C
100
AcDbEntity
  8
30
  6
CONTINUOUS
 62
     0
100
AcDbBlockReference
  2
_OPEN
 10
235.3937097878763
 20
158.0
 30
0.0
 41
2.0
 42
2.0
 43
2.0
  0
MTEXT
  5
6883
330
679C
100
AcDbEntity
  8
30
  6
CONTINUOUS
 62
     0
100
AcDbMText
 10
222.8937097878762
 20
165.6666666666666
 30
0.0
 40
5.0
 41
0.0
 71
     5
 72
     1
  1
\A1;25\PMAX
1001
ACAD
1000
MTEXTBEGIN
1070
    73
1070
     1
1070
    44
1040
1.0
1070
    74
1070
     0
1000
MTEXTEND
1000
MTEXTBEGIN
1070
    73
1070
     1
1070
    44
1040
1.0
1070
    74
1070
     0
1000
MTEXTEND
1000
MTEXTBEGIN
1070
    73
1070
     1
1070
    44
1040
1.0
1070
    74
1070
     0
1000
MTEXTEND
1000
MTEXTBEGIN
1070
    73
1070
     1
1070
    44
1040
1.0
1070
    74
1070
     0
1000
MTEXTEND
  0
POINT
  5
6884
330
679C
100
AcDbEntity
  8
DEFPOINTS
  6
CONTINUOUS
 62
     0
100
AcDbPoint
 10
210.3937097878762
 20
177.0
 30
0.0
  0
POINT
  5
6885
330
679C
100
AcDbEntity
  8
DEFPOINTS
  6
CONTINUOUS
 62
     0
100
AcDbPoint
 10
235.3937097878763
 20
177.0
 30
0.0
  0
POINT
  5
6886
330
679C
100
AcDbEntity
  8
DEFPOINTS
  6
CONTINUOUS
 62
     0
100
AcDbPoint
 10
235.3937097878763
 20
158.0
 30
0.0
  0
ENDBLK
  5
67A7
330
679C
100
AcDbEntity
  8
0
100
AcDbBlockEnd
  0
BLOCK
  5
6854
330
684A
100
AcDbEntity
  8
0
100
AcDbBlockBegin
  2
*D27
 70
     1
 10
0.0
 20
0.0
 30
0.0
  3
*D27
  1

  0
LINE
  5
685F
330
684A
100
AcDbEntity
  8
30
  6
CONTINUOUS
 62
     0
100
AcDbLine
 10
361.3937097878775
 20
131.0
 30
0.0
 11
361.3937097878775
 21
202.4999999999999
 31
0.0
  0
LINE
  5
6860
330
684A
100
AcDbEntity
  8
30
  6
CONTINUOUS
 62
     0
100
AcDbLine
 10
325.3937097878775
 20
175.5
 30
0.0
 11
325.3937097878775
 21
202.4999999999999
 31
0.0
  0
LINE
  5
6861
330
684A
100
AcDbEntity
  8
30
  6
CONTINUOUS
 62
     0
100
AcDbLine
 10
359.3937097878775
 20
202.0
 30
0.0
 11
327.3937097878775
 21
202.0
 31
0.0
  0
INSERT
  5
6862
330
684A
100
AcDbEntity
  8
30
  6
CONTINUOUS
 62
     0
100
AcDbBlockReference
  2
_OPEN
 10
361.3937097878775
 20
202.0
 30
0.0
 41
2.0
 42
2.0
 43
2.0
  0
INSERT
  5
6863
330
684A
100
AcDbEntity
  8
30
  6
CONTINUOUS
 62
     0
100
AcDbBlockReference
  2
_OPEN
 10
325.3937097878775
 20
202.0
 30
0.0
 41
2.0
 42
2.0
 43
2.0
 50
180.0
  0
MTEXT
  5
6864
330
684A
100
AcDbEntity
  8
30
  6
CONTINUOUS
 62
     0
100
AcDbMText
 10
343.3937097878775
 20
205.5
 30
0.0
 40
5.0
 41
0.0
 71
     5
 72
     1
  1
\A1;36
1001
ACAD
1000
MTEXTBEGIN
1070
    73
1070
     1
1070
    44
1040
1.0
1070
    74
1070
     0
1000
MTEXTEND
1000
MTEXTBEGIN
1070
    73
1070
     1
1070
    44
1040
1.0
1070
    74
1070
     0
1000
MTEXTEND
1000
MTEXTBEGIN
1070
    73
1070
     1
1070
    44
1040
1.0
1070
    74
1070
     0
1000
MTEXTEND
1000
MTEXTBEGIN
1070
    73
1070
     1
1070
    44
1040
1.0
1070
    74
1070
     0
1000
MTEXTEND
  0
POINT
  5
6865
330
684A
100
AcDbEntity
  8
DEFPOINTS
  6
CONTINUOUS
 62
     0
100
AcDbPoint
 10
361.3937097878775
 20
130.0
 30
0.0
  0
POINT
  5
6866
330
684A
100
AcDbEntity
  8
DEFPOINTS
  6
CONTINUOUS
 62
     0
100
AcDbPoint
 10
325.3937097878775
 20
174.5
 30
0.0
  0
POINT
  5
6867
330
684A
100
AcDbEntity
  8
DEFPOINTS
  6
CONTINUOUS
 62
     0
100
AcDbPoint
 10
325.3937097878775
 20
202.0
 30
0.0
  0
ENDBLK
  5
6855
330
684A
100
AcDbEntity
  8
0
100
AcDbBlockEnd
  0
BLOCK
  5
6873
330
6869
100
AcDbEntity
  8
0
100
AcDbBlockBegin
  2
*D28
 70
     1
 10
0.0
 20
0.0
 30
0.0
  3
*D28
  1

  0
LINE
  5
686A
330
6869
100
AcDbEntity
  8
30
  6
CONTINUOUS
 62
     0
100
AcDbLine
 10
325.3937097878775
 20
175.5
 30
0.0
 11
325.3937097878775
 21
202.4999999999999
 31
0.0
  0
LINE
  5
686B
330
6869
100
AcDbEntity
  8
30
  6
CONTINUOUS
 62
     0
100
AcDbLine
 10
317.3937097878775
 20
175.5
 30
0.0
 11
317.3937097878775
 21
202.4999999999999
 31
0.0
  0
LINE
  5
686C
330
6869
100
AcDbEntity
  8
30
  6
CONTINUOUS
 62
     0
100
AcDbLine
 10
323.3937097878775
 20
202.0
 30
0.0
 11
319.3937097878775
 21
202.0
 31
0.0
  0
INSERT
  5
686D
330
6869
100
AcDbEntity
  8
30
  6
CONTINUOUS
 62
     0
100
AcDbBlockReference
  2
_OPEN
 10
325.3937097878775
 20
202.0
 30
0.0
 41
2.0
 42
2.0
 43
2.0
  0
INSERT
  5
686E
330
6869
100
AcDbEntity
  8
30
  6
CONTINUOUS
 62
     0
100
AcDbBlockReference
  2
_OPEN
 10
317.3937097878775
 20
202.0
 30
0.0
 41
2.0
 42
2.0
 43
2.0
 50
180.0
  0
MTEXT
  5
686F
330
6869
100
AcDbEntity
  8
30
  6
CONTINUOUS
 62
     0
100
AcDbMText
 10
321.3937097878775
 20
205.5
 30
0.0
 40
5.0
 41
0.0
 71
     5
 72
     1
  1
\A1;8
1001
ACAD
1000
MTEXTBEGIN
1070
    73
1070
     1
1070
    44
1040
1.0
1070
    74
1070
     0
1000
MTEXTEND
1000
MTEXTBEGIN
1070
    73
1070
     1
1070
    44
1040
1.0
1070
    74
1070
     0
1000
MTEXTEND
1000
MTEXTBEGIN
1070
    73
1070
     1
1070
    44
1040
1.0
1070
    74
1070
     0
1000
MTEXTEND
1000
MTEXTBEGIN
1070
    73
1070
     1
1070
    44
1040
1.0
1070
    74
1070
     0
1000
MTEXTEND
  0
POINT
  5
6870
330
6869
100
AcDbEntity
  8
DEFPOINTS
  6
CONTINUOUS
 62
     0
100
AcDbPoint
 10
325.3937097878775
 20
174.5
 30
0.0
  0
POINT
  5
6871
330
6869
100
AcDbEntity
  8
DEFPOINTS
  6
CONTINUOUS
 62
     0
100
AcDbPoint
 10
317.3937097878775
 20
174.5
 30
0.0
  0
POINT
  5
6872
330
6869
100
AcDbEntity
  8
DEFPOINTS
  6
CONTINUOUS
 62
     0
100
AcDbPoint
 10
317.3937097878775
 20
202.0
 30
0.0
  0
ENDBLK
  5
6874
330
6869
100
AcDbEntity
  8
0
100
AcDbBlockEnd
  0
BLOCK
  5
69A3
330
6999
100
AcDbEntity
  8
0
100
AcDbBlockBegin
  2
*D29
 70
     1
 10
0.0
 20
0.0
 30
0.0
  3
*D29
  1

  0
LINE
  5
6D2B
330
6999
100
AcDbEntity
  8
30
  6
CONTINUOUS
 62
     0
100
AcDbLine
 10
115.0
 20
414.8668703350357
 30
0.0
 11
138.0776291422274
 21
414.8668703350356
 31
0.0
  0
LINE
  5
6D2C
330
6999
100
AcDbEntity
  8
30
  6
CONTINUOUS
 62
     0
100
AcDbLine
 10
103.8658105864999
 20
378.8668703350356
 30
0.0
 11
138.0776291422274
 21
378.8668703350355
 31
0.0
  0
LINE
  5
6D2D
330
6999
100
AcDbEntity
  8
30
  6
CONTINUOUS
 62
     0
100
AcDbLine
 10
137.5776291422274
 20
412.8668703350355
 30
0.0
 11
137.5776291422274
 21
380.8668703350355
 31
0.0
  0
MTEXT
  5
6D2E
330
6999
100
AcDbEntity
  8
30
  6
CONTINUOUS
 62
     0
100
AcDbMText
 10
165.0
 20
396.1773353471171
 30
0.0
 40
5.0
 41
0.0
 71
     5
 72
     1
  1
\A1;ON SIDE 36\POFF SIDE 35
  0
INSERT
  5
6D2F
330
6999
100
AcDbEntity
  8
30
  6
CONTINUOUS
 62
     0
100
AcDbBlockReference
  2
_OPEN
 10
137.5776291422274
 20
414.8668703350356
 30
0.0
 41
2.0
 42
2.0
 43
2.0
 50
90.0
  0
INSERT
  5
6D30
330
6999
100
AcDbEntity
  8
30
  6
CONTINUOUS
 62
     0
100
AcDbBlockReference
  2
_OPEN
 10
137.5776291422274
 20
378.8668703350355
 30
0.0
 41
2.0
 42
2.0
 43
2.0
 50
270.0
  0
POINT
  5
6D31
330
6999
100
AcDbEntity
  8
DEFPOINTS
  6
CONTINUOUS
 62
     0
100
AcDbPoint
 10
114.0
 20
414.8668703350357
 30
0.0
  0
POINT
  5
6D32
330
6999
100
AcDbEntity
  8
DEFPOINTS
  6
CONTINUOUS
 62
     0
100
AcDbPoint
 10
102.8658105864999
 20
378.8668703350356
 30
0.0
  0
POINT
  5
6D33
330
6999
100
AcDbEntity
  8
DEFPOINTS
  6
CONTINUOUS
 62
     0
100
AcDbPoint
 10
137.5776291422274
 20
378.8668703350355
 30
0.0
  0
ENDBLK
  5
69A4
330
6999
100
AcDbEntity
  8
0
100
AcDbBlockEnd
  0
BLOCK
  5
69E0
330
69D6
100
AcDbEntity
  8
0
100
AcDbBlockBegin
  2
A$C21C6432C
 70
     0
 10
0.0
 20
0.0
 30
0.0
  3
A$C21C6432C
  1

  0
LINE
  5
69D7
330
69D6
100
AcDbEntity
  8
10
  6
CONTINOUS
100
AcDbLine
 10
57.99999999999998
 20
-107.0
 30
0.0
 11
-57.99999999999998
 21
-107.0
 31
0.0
  0
LINE
  5
69D8
330
69D6
100
AcDbEntity
  8
10
  6
CONTINOUS
100
AcDbLine
 10
-57.99999999999998
 20
-107.0
 30
0.0
 11
-57.99999999999998
 21
-103.0
 31
0.0
  0
LINE
  5
69D9
330
69D6
100
AcDbEntity
  8
10
  6
CONTINOUS
100
AcDbLine
 10
17.00000000000006
 20
-139.5
 30
0.0
 11
-17.00000000000008
 21
-139.5
 31
0.0
  0
LINE
  5
69DA
330
69D6
100
AcDbEntity
  8
10
  6
CONTINOUS
100
AcDbLine
 10
18.00000000000001
 20
-111.0
 30
0.0
 11
-17.99999999999992
 21
-111.0
 31
0.0
  0
LINE
  5
69DB
330
69D6
100
AcDbEntity
  8
10
  6
CONTINOUS
100
AcDbLine
 10
-17.00000000000008
 20
-139.5
 30
0.0
 11
-17.00000000000008
 21
-111.0
 31
0.0
  0
LINE
  5
69DC
330
69D6
100
AcDbEntity
  8
10
  6
CONTINOUS
100
AcDbLine
 10
-17.99999999999992
 20
-111.0
 30
0.0
 11
-17.99999999999992
 21
-107.0
 31
0.0
  0
LINE
  5
69DD
330
69D6
100
AcDbEntity
  8
10
  6
CONTINOUS
100
AcDbLine
 10
17.00000000000006
 20
-139.5
 30
0.0
 11
17.00000000000006
 21
-111.0
 31
0.0
  0
LINE
  5
69DE
330
69D6
100
AcDbEntity
  8
10
  6
CONTINOUS
100
AcDbLine
 10
18.00000000000001
 20
-111.0
 30
0.0
 11
18.00000000000001
 21
-107.0
 31
0.0
  0
LINE
  5
69DF
330
69D6
100
AcDbEntity
  8
10
  6
CONTINOUS
100
AcDbLine
 10
57.99999999999998
 20
-107.0
 30
0.0
 11
57.99999999999998
 21
-103.0
 31
0.0
  0
ENDBLK
  5
69E1
330
69D6
100
AcDbEntity
  8
0
100
AcDbBlockEnd
  0
BLOCK
  5
6AA8
330
6A9F
100
AcDbEntity
  8
0
100
AcDbBlockBegin
  2
*D31
 70
     1
 10
0.0
 20
0.0
 30
0.0
  3
*D31
  1

  0
LINE
  5
6AC2
330
6A9F
100
AcDbEntity
  8
30
  6
CONTINUOUS
 62
     0
100
AcDbLine
 10
-49.03630463015013
 20
184.4805147390155
 30
0.0
 11
-61.7029712968168
 21
184.4805147390155
 31
0.0
  0
LINE
  5
6AC3
330
6A9F
100
AcDbEntity
  8
30
  6
CONTINUOUS
 62
     0
100
AcDbLine
 10
-61.7029712968168
 20
184.4805147390155
 30
0.0
 11
-63.79872832906372
 21
168.9194700724087
 31
0.0
  0
MTEXT
  5
6AC4
330
6A9F
100
AcDbEntity
  8
30
  6
CONTINUOUS
 62
     0
100
AcDbMText
 10
-54.86963796348344
 20
187.9805147390158
 30
0.0
 40
5.0
 41
0.0
 71
     5
 72
     1
  1
\A1;\U+220514
1001
ACAD
1000
MTEXTBEGIN
1070
    73
1070
     1
1070
    44
1040
1.0
1070
    74
1070
     0
1000
MTEXTEND
1000
MTEXTBEGIN
1070
    73
1070
     1
1070
    44
1040
1.0
1070
    74
1070
     0
1000
MTEXTEND
1000
MTEXTBEGIN
1070
    73
1070
     1
1070
    44
1040
1.0
1070
    74
1070
     0
1000
MTEXTEND
1000
MTEXTBEGIN
1070
    73
1070
     1
1070
    44
1040
1.0
1070
    74
1070
     0
1000
MTEXTEND
  0
INSERT
  5
6AC5
330
6A9F
100
AcDbEntity
  8
30
  6
CONTINUOUS
 62
     0
100
AcDbBlockReference
  2
_OPEN
 10
-64.06567758927178
 20
166.9373656118733
 30
0.0
 41
2.0
 42
2.0
 43
2.0
 50
262.3295756164606
  0
LINE
  5
6AC6
330
6A9F
100
AcDbEntity
  8
30
  6
CONTINUOUS
 62
     0
100
AcDbLine
 10
-65.08999999999993
 20
159.9999999999995
 30
0.0
 11
-64.90999999999994
 21
159.9999999999995
 31
0.0
  0
LINE
  5
6AC7
330
6A9F
100
AcDbEntity
  8
30
  6
CONTINUOUS
 62
     0
100
AcDbLine
 10
-64.99999999999996
 20
159.9099999999993
 30
0.0
 11
-64.99999999999992
 21
160.0899999999993
 31
0.0
  0
POINT
  5
6AC8
330
6A9F
100
AcDbEntity
  8
DEFPOINTS
  6
CONTINUOUS
 62
     0
100
AcDbPoint
 10
-64.06567758927178
 20
166.9373656118733
 30
0.0
  0
POINT
  5
6AC9
330
6A9F
100
AcDbEntity
  8
DEFPOINTS
  6
CONTINUOUS
 62
     0
100
AcDbPoint
 10
-65.93432241072811
 20
153.0626343881255
 30
0.0
  0
ENDBLK
  5
6AA9
330
6A9F
100
AcDbEntity
  8
0
100
AcDbBlockEnd
  0
BLOCK
  5
6AB4
330
6AAA
100
AcDbEntity
  8
0
100
AcDbBlockBegin
  2
*D32
 70
     1
 10
0.0
 20
0.0
 30
0.0
  3
*D32
  1

  0
LINE
  5
6B52
330
6AAA
100
AcDbEntity
  8
30
  6
CONTINUOUS
 62
     0
100
AcDbLine
 10
-86.00000000000004
 20
174.4999999999995
 30
0.0
 11
-120.4999999999996
 21
174.4999999999995
 31
0.0
  0
LINE
  5
6B53
330
6AAA
100
AcDbEntity
  8
30
  6
CONTINUOUS
 62
     0
100
AcDbLine
 10
-83.00000000000004
 20
159.9999999999996
 30
0.0
 11
-120.4999999999996
 21
159.9999999999996
 31
0.0
  0
LINE
  5
6B54
330
6AAA
100
AcDbEntity
  8
30
  6
CONTINUOUS
 62
     0
100
AcDbLine
 10
-119.9999999999999
 20
172.4999999999995
 30
0.0
 11
-119.9999999999999
 21
161.9999999999996
 31
0.0
  0
INSERT
  5
6B55
330
6AAA
100
AcDbEntity
  8
30
  6
CONTINUOUS
 62
     0
100
AcDbBlockReference
  2
_OPEN
 10
-119.9999999999999
 20
174.4999999999995
 30
0.0
 41
2.0
 42
2.0
 43
2.0
 50
90.0
  0
INSERT
  5
6B56
330
6AAA
100
AcDbEntity
  8
30
  6
CONTINUOUS
 62
     0
100
AcDbBlockReference
  2
_OPEN
 10
-119.9999999999999
 20
159.9999999999996
 30
0.0
 41
2.0
 42
2.0
 43
2.0
 50
270.0
  0
MTEXT
  5
6B57
330
6AAA
100
AcDbEntity
  8
30
  6
CONTINUOUS
 62
     0
100
AcDbMText
 10
-123.4999999999996
 20
168.0
 30
0.0
 40
5.0
 41
0.0
 71
     5
 72
     1
  1
\A1;14.5
 11
0.0000000000000001
 21
1.0
 31
0.0
1001
ACAD
1000
MTEXTBEGIN
1070
    73
1070
     1
1070
    44
1040
1.0
1070
    74
1070
     0
1000
MTEXTEND
1000
MTEXTBEGIN
1070
    73
1070
     1
1070
    44
1040
1.0
1070
    74
1070
     0
1000
MTEXTEND
1000
MTEXTBEGIN
1070
    73
1070
     1
1070
    44
1040
1.0
1070
    74
1070
     0
1000
MTEXTEND
1000
MTEXTBEGIN
1070
    73
1070
     1
1070
    44
1040
1.0
1070
    74
1070
     0
1000
MTEXTEND
  0
POINT
  5
6B58
330
6AAA
100
AcDbEntity
  8
DEFPOINTS
  6
CONTINUOUS
 62
     0
100
AcDbPoint
 10
-85.00000000000005
 20
174.4999999999995
 30
0.0
  0
POINT
  5
6B59
330
6AAA
100
AcDbEntity
  8
DEFPOINTS
  6
CONTINUOUS
 62
     0
100
AcDbPoint
 10
-82.00000000000004
 20
159.9999999999996
 30
0.0
  0
POINT
  5
6B5A
330
6AAA
100
AcDbEntity
  8
DEFPOINTS
  6
CONTINUOUS
 62
     0
100
AcDbPoint
 10
-119.9999999999999
 20
159.9999999999996
 30
0.0
  0
ENDBLK
  5
6AB5
330
6AAA
100
AcDbEntity
  8
0
100
AcDbBlockEnd
  0
BLOCK
  5
6AC0
330
6AB6
100
AcDbEntity
  8
0
100
AcDbBlockBegin
  2
*D33
 70
     1
 10
0.0
 20
0.0
 30
0.0
  3
*D33
  1

  0
LINE
  5
6D34
330
6AB6
100
AcDbEntity
  8
30
  6
CONTINUOUS
 62
     0
100
AcDbLine
 10
-83.00000000000004
 20
159.9999999999996
 30
0.0
 11
-120.4999999999998
 21
159.9999999999996
 31
0.0
  0
LINE
  5
6D35
330
6AB6
100
AcDbEntity
  8
30
  6
CONTINUOUS
 62
     0
100
AcDbLine
 10
-82.00000000000008
 20
129.9999999999996
 30
0.0
 11
-120.4999999999998
 21
129.9999999999996
 31
0.0
  0
LINE
  5
6D36
330
6AB6
100
AcDbEntity
  8
30
  6
CONTINUOUS
 62
     0
100
AcDbLine
 10
-119.9999999999999
 20
157.9999999999996
 30
0.0
 11
-119.9999999999999
 21
131.9999999999996
 31
0.0
  0
INSERT
  5
6D37
330
6AB6
100
AcDbEntity
  8
30
  6
CONTINUOUS
 62
     0
100
AcDbBlockReference
  2
_OPEN
 10
-119.9999999999999
 20
159.9999999999996
 30
0.0
 41
2.0
 42
2.0
 43
2.0
 50
90.0
  0
INSERT
  5
6D38
330
6AB6
100
AcDbEntity
  8
30
  6
CONTINUOUS
 62
     0
100
AcDbBlockReference
  2
_OPEN
 10
-119.9999999999999
 20
129.9999999999996
 30
0.0
 41
2.0
 42
2.0
 43
2.0
 50
270.0
  0
MTEXT
  5
6D39
330
6AB6
100
AcDbEntity
  8
30
  6
CONTINUOUS
 62
     0
100
AcDbMText
 10
-123.4999999999999
 20
144.9999999999995
 30
0.0
 40
5.0
 41
0.0
 71
     5
 72
     1
  1
\A1;30
 11
0.0000000000000001
 21
1.0
 31
0.0
  0
POINT
  5
6D3A
330
6AB6
100
AcDbEntity
  8
DEFPOINTS
  6
CONTINUOUS
 62
     0
100
AcDbPoint
 10
-82.00000000000004
 20
159.9999999999996
 30
0.0
  0
POINT
  5
6D3B
330
6AB6
100
AcDbEntity
  8
DEFPOINTS
  6
CONTINUOUS
 62
     0
100
AcDbPoint
 10
-81.00000000000006
 20
129.9999999999996
 30
0.0
  0
POINT
  5
6D3C
330
6AB6
100
AcDbEntity
  8
DEFPOINTS
  6
CONTINUOUS
 62
     0
100
AcDbPoint
 10
-119.9999999999999
 20
129.9999999999996
 30
0.0
  0
ENDBLK
  5
6AC1
330
6AB6
100
AcDbEntity
  8
0
100
AcDbBlockEnd
  0
ENDSEC
  0
SECTION
  2
ENTITIES
  0
LINE
  5
B4
330
1E
100
AcDbEntity
  8
16
100
AcDbLine
 10
0.0
 20
-103.0468365449968
 30
0.0
 11
0.0
 21
127.0131747161824
 31
0.0
  0
LINE
  5
B5
330
1E
100
AcDbEntity
  8
16
100
AcDbLine
 10
117.6361914121164
 20
0.0000000000000107
 30
0.0
 11
-84.91303328305713
 21
0.0
 31
0.0
  0
MTEXT
  5
BF3
330
1E
100
AcDbEntity
  8
24
  6
CONTINUOUS
100
AcDbMText
 10
142.1181906098743
 20
177.5
 30
0.0
 40
3.0
 41
0.0
 71
     1
 72
     1
  1
\A1;
1001
ACAD
1000
MTEXTBEGIN
1070
    73
1070
     1
1070
    44
1040
1.0
1070
    74
1070
     0
1000
MTEXTEND
1000
MTEXTBEGIN
1070
    73
1070
     1
1070
    44
1040
1.0
1070
    74
1070
     0
1000
MTEXTEND
1000
MTEXTBEGIN
1070
    73
1070
     1
1070
    44
1040
1.0
1070
    74
1070
     0
1000
MTEXTEND
1000
MTEXTBEGIN
1070
    73
1070
     1
1070
    44
1040
1.0
1070
    74
1070
     0
1000
MTEXTEND
  0
LINE
  5
1C9A
330
1E
100
AcDbEntity
  8
16
100
AcDbLine
 10
0.0
 20
270.0
 30
0.0
 11
0.0
 21
443.4100391630391
 31
0.0
  0
LINE
  5
1C9B
330
1E
100
AcDbEntity
  8
16
100
AcDbLine
 10
319.1890316890181
 20
0.0
 30
0.0
 11
211.3937097878773
 21
0.0
 31
0.0
  0
LINE
  5
2233
330
1E
100
AcDbEntity
  8
16
100
AcDbLine
 10
255.0
 20
-523.6562038539962
 30
0.0
 11
255.0
 21
-271.75
 31
0.0
  0
LINE
  5
2234
330
1E
100
AcDbEntity
  8
16
100
AcDbLine
 10
387.1634296945397
 20
-400.0
 30
0.0
 11
153.1043600603313
 21
-400.0
 31
0.0
  0
LINE
  5
2260
330
1E
100
AcDbEntity
  8
16
100
AcDbLine
 10
132.1634296945399
 20
-400.0
 30
0.0
 11
-101.8956399396685
 21
-400.0
 31
0.0
  0
LINE
  5
2261
330
1E
100
AcDbEntity
  8
16
100
AcDbLine
 10
0.0
 20
-540.1562038539962
 30
0.0
 11
0.0
 21
-259.0
 31
0.0
  0
MTEXT
  5
5D8A
330
1E
100
AcDbEntity
  8
19
  6
CONTINUOUS
100
AcDbMText
 10
233.0
 20
396.0
 30
0.0
 40
7.0
 41
150.0
 71
     1
 72
     5
  1
ZS400-NF 4P FC + BAR\PZS400-GF 4P FC + BAR
  7
STANDARD1
1001
ACAD
1000
MTEXTBEGIN
1070
    73
1070
     1
1070
    44
1040
1.0
1070
    74
1070
     0
1000
MTEXTEND
1000
MTEXTBEGIN
1070
    73
1070
     1
1070
    44
1040
1.0
1070
    74
1070
     0
1000
MTEXTEND
1000
MTEXTBEGIN
1070
    73
1070
     1
1070
    44
1040
1.0
1070
    74
1070
     0
1000
MTEXTEND
1000
MTEXTBEGIN
1070
    73
1070
     1
1070
    44
1040
1.0
1070
    74
1070
     0
1000
MTEXTEND
  0
LINE
  5
60D4
330
1E
100
AcDbEntity
  8
10
  6
CONTINUOUS
100
AcDbLine
 10
-18.0
 20
-30.99999999999998
 30
0.0
 11
-18.0
 21
31.00000000000001
 31
0.0
  0
LINE
  5
60D5
330
1E
100
AcDbEntity
  8
10
  6
CONTINUOUS
100
AcDbLine
 10
18.0
 20
-30.99999999999998
 30
0.0
 11
18.00000000000005
 21
31.00000000000001
 31
0.0
  0
CIRCLE
  5
60D7
330
1E
100
AcDbEntity
  8
10
  6
CONTINUOUS
100
AcDbCircle
 10
40.95000000000005
 20
-9.999999999999984
 30
0.0
 40
3.5
  0
LINE
  5
60D8
330
1E
100
AcDbEntity
  8
10
  6
CONTINUOUS
100
AcDbLine
 10
-25.49999999999977
 20
-44.99999999999999
 30
0.0
 11
-25.49999999999988
 21
45.0
 31
0.0
  0
LINE
  5
60D9
330
1E
100
AcDbEntity
  8
10
  6
CONTINUOUS
100
AcDbLine
 10
25.49999999999982
 20
-44.99999999999999
 30
0.0
 11
25.49999999999988
 21
45.0
 31
0.0
  0
LINE
  5
60DA
330
1E
100
AcDbEntity
  8
10
  6
CONTINUOUS
100
AcDbLine
 10
-70.0
 20
130.0
 30
0.0
 11
-70.0
 21
-130.0
 31
0.0
  0
LINE
  5
60DB
330
1E
100
AcDbEntity
  8
10
  6
CONTINUOUS
100
AcDbLine
 10
-58.0
 20
40.0
 30
0.0
 11
-58.0
 21
-39.99999999999998
 31
0.0
  0
LINE
  5
60DC
330
1E
100
AcDbEntity
  8
10
  6
CONTINOUS
100
AcDbLine
 10
115.0
 20
130.0
 30
0.0
 11
115.0
 21
-130.0
 31
0.0
  0
LINE
  5
60DD
330
1E
100
AcDbEntity
  8
10
  6
CONTINUOUS
100
AcDbLine
 10
58.0
 20
40.0
 30
0.0
 11
58.0
 21
-39.99999999999998
 31
0.0
  0
LINE
  5
60DE
330
1E
100
AcDbEntity
  8
12
  6
DASHED
100
AcDbLine
 10
-14.5
 20
-106.9999999999996
 30
0.0
 11
-30.5
 21
-106.9999999999996
 31
0.0
  0
CIRCLE
  5
60DF
330
1E
100
AcDbEntity
  8
12
  6
DASHED
100
AcDbCircle
 10
-22.5
 20
-106.9999999999996
 30
0.0
 40
4.0
  0
LINE
  5
60E0
330
1E
100
AcDbEntity
  8
10
  6
CONTINUOUS
100
AcDbLine
 10
-70.0
 20
-130.0
 30
0.0
 11
115.0
 21
-130.0
 31
0.0
  0
LINE
  5
60E1
330
1E
100
AcDbEntity
  8
10
  6
CONTINUOUS
100
AcDbLine
 10
-70.0
 20
-50.99999999999997
 30
0.0
 11
115.0
 21
-50.99999999999997
 31
0.0
  0
LINE
  5
60E2
330
1E
100
AcDbEntity
  8
10
  6
CONTINUOUS
100
AcDbLine
 10
-53.0
 20
-44.99999999999999
 30
0.0
 11
53.0
 21
-44.99999999999999
 31
0.0
  0
LINE
  5
60E3
330
1E
100
AcDbEntity
  8
10
  6
CONTINOUS
100
AcDbLine
 10
-81.5
 20
-152.0
 30
0.0
 11
-59.0
 21
-130.0
 31
0.0
  0
LINE
  5
60E4
330
1E
100
AcDbEntity
  8
10
  6
CONTINOUS
100
AcDbLine
 10
-31.0
 20
-130.0
 30
0.0
 11
-53.5
 21
-156.0
 31
0.0
  0
LINE
  5
60E5
330
1E
100
AcDbEntity
  8
10
  6
CONTINUOUS
 62
     2
100
AcDbLine
 10
-78.5
 20
-160.0
 30
0.0
 11
-56.5
 21
-160.0
 31
0.0
  0
LINE
  5
60E6
330
1E
100
AcDbEntity
  8
10
  6
CONTINOUS
100
AcDbLine
 10
-81.5
 20
-174.5
 30
0.0
 11
-53.5
 21
-174.5
 31
0.0
  0
LINE
  5
60E7
330
1E
100
AcDbEntity
  8
10
  6
CONTINUOUS
 62
     2
100
AcDbLine
 10
-67.5
 20
-149.0
 30
0.0
 11
-67.5
 21
-171.0
 31
0.0
  0
LINE
  5
60E8
330
1E
100
AcDbEntity
  8
10
  6
CONTINOUS
100
AcDbLine
 10
-81.5
 20
-174.5
 30
0.0
 11
-81.5
 21
-152.0
 31
0.0
  0
CIRCLE
  5
60E9
330
1E
100
AcDbEntity
  8
10
  6
CONTINUOUS
 62
     2
100
AcDbCircle
 10
67.5
 20
-160.0
 30
0.0
 40
7.0
210
0.0
220
0.0
230
-1.0
  0
LINE
  5
60EA
330
1E
100
AcDbEntity
  8
10
  6
CONTINOUS
100
AcDbLine
 10
-53.5
 20
-174.5
 30
0.0
 11
-53.5
 21
-156.0
 31
0.0
  0
LINE
  5
60EB
330
1E
100
AcDbEntity
  8
10
  6
CONTINUOUS
100
AcDbLine
 10
-50.5
 20
-113.9999999999999
 30
0.0
 11
-50.5
 21
-130.0
 31
0.0
  0
LINE
  5
60EC
330
1E
100
AcDbEntity
  8
10
  6
CONTINUOUS
100
AcDbLine
 10
-39.5
 20
-113.9999999999999
 30
0.0
 11
-39.5
 21
-130.0
 31
0.0
  0
LINE
  5
60ED
330
1E
100
AcDbEntity
  8
24
  6
CONTINOUS
100
AcDbLine
 10
-45.0
 20
-122.9999999999999
 30
0.0
 11
-45.0
 21
-104.9999999999996
 31
0.0
  0
LINE
  5
60EE
330
1E
100
AcDbEntity
  8
24
  6
CONTINOUS
100
AcDbLine
 10
-53.99999999999995
 20
-113.9999999999999
 30
0.0
 11
-36.0
 21
-113.9999999999999
 31
0.0
  0
ARC
  5
60EF
330
1E
100
AcDbEntity
  8
10
  6
CONTINUOUS
100
AcDbCircle
 10
45.0
 20
-113.9999999999999
 30
0.0
 40
8.0
210
0.0
220
0.0
230
-1.0
100
AcDbArc
 50
226.5674634422111
 51
313.4325365577887
  0
ARC
  5
60F0
330
1E
100
AcDbEntity
  8
10
  6
CONTINUOUS
100
AcDbCircle
 10
45.0
 20
-113.9999999999999
 30
0.0
 40
5.5
210
0.0
220
0.0
230
-1.0
100
AcDbArc
 50
0.0
 51
180.0
  0
LINE
  5
60F1
330
1E
100
AcDbEntity
  8
24
  6
CONTINOUS
100
AcDbLine
 10
-41.0
 20
-111.6905989232414
 30
0.0
 11
-41.0
 21
-116.3094010767587
 31
0.0
  0
LINE
  5
60F2
330
1E
100
AcDbEntity
  8
24
  6
CONTINOUS
100
AcDbLine
 10
-45.0
 20
-109.3811978464831
 30
0.0
 11
-41.0
 21
-111.6905989232414
 31
0.0
  0
LINE
  5
60F3
330
1E
100
AcDbEntity
  8
24
  6
CONTINOUS
100
AcDbLine
 10
-49.0
 20
-111.6905989232414
 30
0.0
 11
-45.0
 21
-109.3811978464831
 31
0.0
  0
LINE
  5
60F4
330
1E
100
AcDbEntity
  8
24
  6
CONTINOUS
100
AcDbLine
 10
-49.0
 20
-116.3094010767587
 30
0.0
 11
-49.0
 21
-111.6905989232414
 31
0.0
  0
LINE
  5
60F5
330
1E
100
AcDbEntity
  8
24
  6
CONTINOUS
100
AcDbLine
 10
-45.0
 20
-118.6188021535169
 30
0.0
 11
-49.0
 21
-116.3094010767587
 31
0.0
  0
LINE
  5
60F6
330
1E
100
AcDbEntity
  8
24
  6
CONTINOUS
100
AcDbLine
 10
-41.0
 20
-116.3094010767587
 30
0.0
 11
-45.0
 21
-118.6188021535169
 31
0.0
  0
ARC
  5
60F7
330
1E
100
AcDbEntity
  8
10
  6
CONTINUOUS
100
AcDbCircle
 10
-53.0
 20
-39.99999999999998
 30
0.0
 40
5.0
100
AcDbArc
 50
180.0
 51
270.0
  0
LINE
  5
60F8
330
1E
100
AcDbEntity
  8
10
  6
CONTINUOUS
 62
     2
100
AcDbLine
 10
101.4999999999997
 20
-160.0
 30
0.0
 11
123.4999999999996
 21
-160.0
 31
0.0
  0
CIRCLE
  5
60F9
330
1E
100
AcDbEntity
  8
10
  6
CONTINUOUS
 62
     2
100
AcDbCircle
 10
-112.4999999999998
 20
-160.0
 30
0.0
 40
7.0
210
0.0
220
0.0
230
-1.0
  0
LINE
  5
60FA
330
1E
100
AcDbEntity
  8
10
  6
CONTINOUS
100
AcDbLine
 10
104.0
 20
-130.0
 30
0.0
 11
126.5
 21
-152.0
 31
0.0
  0
LINE
  5
60FB
330
1E
100
AcDbEntity
  8
10
  6
CONTINOUS
100
AcDbLine
 10
98.49999999999987
 20
-174.5
 30
0.0
 11
126.4999999999997
 21
-174.5
 31
0.0
  0
LINE
  5
60FC
330
1E
100
AcDbEntity
  8
12
  6
DASHED
100
AcDbLine
 10
22.5
 20
-98.99999999999998
 30
0.0
 11
22.5
 21
-114.9999999999999
 31
0.0
  0
LINE
  5
60FD
330
1E
100
AcDbEntity
  8
12
  6
DASHED
100
AcDbLine
 10
-22.5
 20
-98.99999999999998
 30
0.0
 11
-22.5
 21
-114.9999999999999
 31
0.0
  0
LINE
  5
60FE
330
1E
100
AcDbEntity
  8
24
  6
CONTINOUS
100
AcDbLine
 10
41.0
 20
-111.6905989232414
 30
0.0
 11
45.0
 21
-109.3811978464831
 31
0.0
  0
LINE
  5
60FF
330
1E
100
AcDbEntity
  8
24
  6
CONTINOUS
100
AcDbLine
 10
45.0
 20
-118.6188021535169
 30
0.0
 11
41.0
 21
-116.3094010767587
 31
0.0
  0
LINE
  5
6100
330
1E
100
AcDbEntity
  8
24
  6
CONTINOUS
100
AcDbLine
 10
36.00000000000003
 20
-113.9999999999999
 30
0.0
 11
54.0
 21
-113.9999999999999
 31
0.0
  0
ARC
  5
6101
330
1E
100
AcDbEntity
  8
10
  6
CONTINUOUS
100
AcDbCircle
 10
-45.0
 20
-113.9999999999999
 30
0.0
 40
8.0
210
0.0
220
0.0
230
-1.0
100
AcDbArc
 50
226.5674634422111
 51
313.4325365577887
  0
ARC
  5
6102
330
1E
100
AcDbEntity
  8
10
  6
CONTINUOUS
100
AcDbCircle
 10
-45.0
 20
-113.9999999999999
 30
0.0
 40
5.5
210
0.0
220
0.0
230
-1.0
100
AcDbArc
 50
0.0
 51
180.0
  0
LINE
  5
6103
330
1E
100
AcDbEntity
  8
10
  6
CONTINOUS
100
AcDbLine
 10
38.5
 20
-174.5
 30
0.0
 11
66.49999999999988
 21
-174.5
 31
0.0
  0
LINE
  5
6104
330
1E
100
AcDbEntity
  8
10
  6
CONTINOUS
100
AcDbLine
 10
38.5
 20
-150.0000000000003
 30
0.0
 11
31.0
 21
-130.0
 31
0.0
  0
LINE
  5
6105
330
1E
100
AcDbEntity
  8
10
  6
CONTINOUS
100
AcDbLine
 10
14.0
 20
-130.0
 30
0.0
 11
6.5
 21
-150.0000000000003
 31
0.0
  0
LINE
  5
6106
330
1E
100
AcDbEntity
  8
10
  6
CONTINOUS
100
AcDbLine
 10
-21.49999999999999
 20
-150.0000000000003
 30
0.0
 11
-14.0
 21
-130.0
 31
0.0
  0
LINE
  5
6107
330
1E
100
AcDbEntity
  8
10
  6
CONTINUOUS
 62
     2
100
AcDbLine
 10
-7.5
 20
-149.0
 30
0.0
 11
-7.5
 21
-171.0
 31
0.0
  0
LINE
  5
6108
330
1E
100
AcDbEntity
  8
10
  6
CONTINOUS
100
AcDbLine
 10
6.5
 20
-174.5
 30
0.0
 11
6.5
 21
-150.0000000000003
 31
0.0
  0
LINE
  5
6109
330
1E
100
AcDbEntity
  8
10
  6
CONTINOUS
100
AcDbLine
 10
-21.49999999999999
 20
-174.5
 30
0.0
 11
-21.49999999999999
 21
-150.0000000000003
 31
0.0
  0
LINE
  5
610A
330
1E
100
AcDbEntity
  8
10
  6
CONTINOUS
100
AcDbLine
 10
-21.49999999999999
 20
-174.5
 30
0.0
 11
6.5
 21
-174.5
 31
0.0
  0
LINE
  5
610B
330
1E
100
AcDbEntity
  8
10
  6
CONTINUOUS
 62
     2
100
AcDbLine
 10
-18.5
 20
-160.0
 30
0.0
 11
3.5
 21
-160.0
 31
0.0
  0
CIRCLE
  5
610C
330
1E
100
AcDbEntity
  8
10
  6
CONTINUOUS
 62
     2
100
AcDbCircle
 10
7.5
 20
-160.0
 30
0.0
 40
7.0
210
0.0
220
0.0
230
-1.0
  0
LINE
  5
610D
330
1E
100
AcDbEntity
  8
10
  6
CONTINOUS
100
AcDbLine
 10
38.5
 20
-174.5
 30
0.0
 11
38.5
 21
-150.0000000000003
 31
0.0
  0
LINE
  5
610E
330
1E
100
AcDbEntity
  8
24
  6
CONTINOUS
100
AcDbLine
 10
-8.999999999999943
 20
-113.9999999999999
 30
0.0
 11
9.0
 21
-113.9999999999999
 31
0.0
  0
LINE
  5
610F
330
1E
100
AcDbEntity
  8
10
  6
CONTINUOUS
100
AcDbLine
 10
-5.5
 20
-113.9999999999999
 30
0.0
 11
-5.5
 21
-130.0
 31
0.0
  0
LINE
  5
6110
330
1E
100
AcDbEntity
  8
10
  6
CONTINUOUS
100
AcDbLine
 10
5.5
 20
-113.9999999999999
 30
0.0
 11
5.5
 21
-130.0
 31
0.0
  0
LINE
  5
6111
330
1E
100
AcDbEntity
  8
24
  6
CONTINOUS
100
AcDbLine
 10
0.0
 20
-122.9999999999999
 30
0.0
 11
0.0
 21
-104.9999999999996
 31
0.0
  0
LINE
  5
6112
330
1E
100
AcDbEntity
  8
24
  6
CONTINOUS
100
AcDbLine
 10
4.0
 20
-111.6905989232414
 30
0.0
 11
4.0
 21
-116.3094010767587
 31
0.0
  0
LINE
  5
6113
330
1E
100
AcDbEntity
  8
24
  6
CONTINOUS
100
AcDbLine
 10
0.0
 20
-109.3811978464831
 30
0.0
 11
4.0
 21
-111.6905989232414
 31
0.0
  0
LINE
  5
6114
330
1E
100
AcDbEntity
  8
24
  6
CONTINOUS
100
AcDbLine
 10
-4.0
 20
-111.6905989232414
 30
0.0
 11
0.0
 21
-109.3811978464831
 31
0.0
  0
LINE
  5
6115
330
1E
100
AcDbEntity
  8
24
  6
CONTINOUS
100
AcDbLine
 10
-4.0
 20
-116.3094010767587
 30
0.0
 11
-4.0
 21
-111.6905989232414
 31
0.0
  0
LINE
  5
6116
330
1E
100
AcDbEntity
  8
24
  6
CONTINOUS
100
AcDbLine
 10
0.0
 20
-118.6188021535169
 30
0.0
 11
-4.0
 21
-116.3094010767587
 31
0.0
  0
LINE
  5
6117
330
1E
100
AcDbEntity
  8
24
  6
CONTINOUS
100
AcDbLine
 10
4.0
 20
-116.3094010767587
 30
0.0
 11
0.0
 21
-118.6188021535169
 31
0.0
  0
ARC
  5
6118
330
1E
100
AcDbEntity
  8
10
  6
CONTINUOUS
100
AcDbCircle
 10
0.0
 20
-113.9999999999999
 30
0.0
 40
8.0
210
0.0
220
0.0
230
-1.0
100
AcDbArc
 50
226.5674634422111
 51
313.4325365577887
  0
ARC
  5
6119
330
1E
100
AcDbEntity
  8
10
  6
CONTINUOUS
100
AcDbCircle
 10
0.0
 20
-113.9999999999999
 30
0.0
 40
5.5
210
0.0
220
0.0
230
-1.0
100
AcDbArc
 50
0.0
 51
180.0
  0
LINE
  5
611A
330
1E
100
AcDbEntity
  8
10
  6
CONTINUOUS
100
AcDbLine
 10
39.5
 20
-113.9999999999999
 30
0.0
 11
39.5
 21
-130.0
 31
0.0
  0
LINE
  5
611B
330
1E
100
AcDbEntity
  8
12
  6
DASHED
100
AcDbLine
 10
30.5
 20
-106.9999999999996
 30
0.0
 11
14.5
 21
-106.9999999999996
 31
0.0
  0
CIRCLE
  5
611C
330
1E
100
AcDbEntity
  8
12
  6
DASHED
100
AcDbCircle
 10
22.5
 20
-106.9999999999996
 30
0.0
 40
4.0
  0
LINE
  5
611D
330
1E
100
AcDbEntity
  8
24
  6
CONTINOUS
100
AcDbLine
 10
41.0
 20
-116.3094010767587
 30
0.0
 11
41.0
 21
-111.6905989232414
 31
0.0
  0
LINE
  5
611E
330
1E
100
AcDbEntity
  8
10
  6
CONTINOUS
100
AcDbLine
 10
59.0
 20
-130.0
 30
0.0
 11
66.5
 21
-150.0000000000003
 31
0.0
  0
LINE
  5
611F
330
1E
100
AcDbEntity
  8
10
  6
CONTINOUS
100
AcDbLine
 10
98.50000000000001
 20
-156.0
 30
0.0
 11
76.0
 21
-130.0
 31
0.0
  0
LINE
  5
6120
330
1E
100
AcDbEntity
  8
10
  6
CONTINUOUS
 62
     2
100
AcDbLine
 10
52.49999999999989
 20
-149.0
 30
0.0
 11
52.49999999999989
 21
-171.0
 31
0.0
  0
LINE
  5
6121
330
1E
100
AcDbEntity
  8
10
  6
CONTINOUS
100
AcDbLine
 10
66.49999999999988
 20
-174.5
 30
0.0
 11
66.5
 21
-150.0000000000003
 31
0.0
  0
LINE
  5
6122
330
1E
100
AcDbEntity
  8
10
  6
CONTINUOUS
 62
     2
100
AcDbLine
 10
41.5
 20
-160.0
 30
0.0
 11
63.49999999999988
 21
-160.0
 31
0.0
  0
CIRCLE
  5
6123
330
1E
100
AcDbEntity
  8
10
  6
CONTINUOUS
 62
     2
100
AcDbCircle
 10
-52.49999999999989
 20
-160.0
 30
0.0
 40
7.0
210
0.0
220
0.0
230
-1.0
  0
LINE
  5
6124
330
1E
100
AcDbEntity
  8
10
  6
CONTINOUS
100
AcDbLine
 10
98.49999999999987
 20
-174.5
 30
0.0
 11
98.50000000000001
 21
-156.0
 31
0.0
  0
LINE
  5
6125
330
1E
100
AcDbEntity
  8
10
  6
CONTINUOUS
100
AcDbLine
 10
50.5
 20
-113.9999999999999
 30
0.0
 11
50.5
 21
-130.0
 31
0.0
  0
LINE
  5
6126
330
1E
100
AcDbEntity
  8
24
  6
CONTINOUS
100
AcDbLine
 10
45.0
 20
-122.9999999999999
 30
0.0
 11
45.0
 21
-104.9999999999996
 31
0.0
  0
LINE
  5
6127
330
1E
100
AcDbEntity
  8
24
  6
CONTINOUS
100
AcDbLine
 10
49.0
 20
-111.6905989232414
 30
0.0
 11
49.0
 21
-116.3094010767587
 31
0.0
  0
LINE
  5
6128
330
1E
100
AcDbEntity
  8
24
  6
CONTINOUS
100
AcDbLine
 10
45.0
 20
-109.3811978464831
 30
0.0
 11
49.0
 21
-111.6905989232414
 31
0.0
  0
LINE
  5
6129
330
1E
100
AcDbEntity
  8
24
  6
CONTINOUS
100
AcDbLine
 10
49.0
 20
-116.3094010767587
 30
0.0
 11
45.0
 21
-118.6188021535169
 31
0.0
  0
LINE
  5
612A
330
1E
100
AcDbEntity
  8
10
  6
CONTINUOUS
100
AcDbLine
 10
84.50000000000001
 20
-113.9999999999999
 30
0.0
 11
84.50000000000001
 21
-130.0
 31
0.0
  0
LINE
  5
612B
330
1E
100
AcDbEntity
  8
10
  6
CONTINUOUS
100
AcDbLine
 10
95.5
 20
-113.9999999999999
 30
0.0
 11
95.5
 21
-130.0
 31
0.0
  0
LINE
  5
612C
330
1E
100
AcDbEntity
  8
24
  6
CONTINOUS
100
AcDbLine
 10
90.0
 20
-122.9999999999999
 30
0.0
 11
90.0
 21
-104.9999999999996
 31
0.0
  0
LINE
  5
612D
330
1E
100
AcDbEntity
  8
24
  6
CONTINOUS
100
AcDbLine
 10
90.0
 20
-109.3811978464831
 30
0.0
 11
94.0
 21
-111.6905989232414
 31
0.0
  0
LINE
  5
612E
330
1E
100
AcDbEntity
  8
24
  6
CONTINOUS
100
AcDbLine
 10
94.0
 20
-116.3094010767587
 30
0.0
 11
90.0
 21
-118.6188021535169
 31
0.0
  0
LINE
  5
612F
330
1E
100
AcDbEntity
  8
24
  6
CONTINOUS
100
AcDbLine
 10
81.00000000000013
 20
-113.9999999999999
 30
0.0
 11
99.0
 21
-113.9999999999999
 31
0.0
  0
ARC
  5
6130
330
1E
100
AcDbEntity
  8
10
  6
CONTINUOUS
100
AcDbCircle
 10
-90.0
 20
-113.9999999999999
 30
0.0
 40
8.0
210
0.0
220
0.0
230
-1.0
100
AcDbArc
 50
226.5674634422111
 51
313.4325365577887
  0
ARC
  5
6131
330
1E
100
AcDbEntity
  8
10
  6
CONTINUOUS
100
AcDbCircle
 10
-90.0
 20
-113.9999999999999
 30
0.0
 40
5.5
210
0.0
220
0.0
230
-1.0
100
AcDbArc
 50
0.0
 51
180.0
  0
LINE
  5
6132
330
1E
100
AcDbEntity
  8
24
  6
CONTINOUS
100
AcDbLine
 10
86.0
 20
-111.6905989232414
 30
0.0
 11
90.0
 21
-109.3811978464831
 31
0.0
  0
LINE
  5
6133
330
1E
100
AcDbEntity
  8
24
  6
CONTINOUS
100
AcDbLine
 10
86.0
 20
-116.3094010767587
 30
0.0
 11
86.0
 21
-111.6905989232414
 31
0.0
  0
LINE
  5
6134
330
1E
100
AcDbEntity
  8
24
  6
CONTINOUS
100
AcDbLine
 10
90.0
 20
-118.6188021535169
 30
0.0
 11
86.0
 21
-116.3094010767587
 31
0.0
  0
LINE
  5
6135
330
1E
100
AcDbEntity
  8
24
  6
CONTINOUS
100
AcDbLine
 10
94.0
 20
-111.6905989232414
 30
0.0
 11
94.0
 21
-116.3094010767587
 31
0.0
  0
LINE
  5
6136
330
1E
100
AcDbEntity
  8
10
  6
CONTINUOUS
100
AcDbLine
 10
36.95000000000003
 20
-28.99999999999998
 30
0.0
 11
44.95000000000003
 21
-28.99999999999998
 31
0.0
  0
LINE
  5
6137
330
1E
100
AcDbEntity
  8
10
  6
CONTINUOUS
100
AcDbLine
 10
36.95000000000003
 20
-23.99999999999998
 30
0.0
 11
44.95000000000003
 21
-23.99999999999998
 31
0.0
  0
LINE
  5
6138
330
1E
100
AcDbEntity
  8
10
  6
CONTINUOUS
100
AcDbLine
 10
36.95000000000003
 20
-25.99999999999998
 30
0.0
 11
44.95000000000003
 21
-25.99999999999998
 31
0.0
  0
LINE
  5
6139
330
1E
100
AcDbEntity
  8
10
  6
CONTINUOUS
100
AcDbLine
 10
36.95000000000003
 20
-20.99999999999998
 30
0.0
 11
44.95000000000003
 21
-20.99999999999998
 31
0.0
  0
LINE
  5
613A
330
1E
100
AcDbEntity
  8
10
  6
CONTINUOUS
100
AcDbLine
 10
18.0
 20
-30.99999999999998
 30
0.0
 11
-18.0
 21
-30.99999999999998
 31
0.0
  0
LINE
  5
613B
330
1E
100
AcDbEntity
  8
10
  6
CONTINUOUS
100
AcDbLine
 10
24.30000000000005
 20
-33.84999999999989
 30
0.0
 11
24.30000000000005
 21
-40.4499999999999
 31
0.0
  0
LINE
  5
613C
330
1E
100
AcDbEntity
  8
10
  6
CONTINUOUS
100
AcDbLine
 10
19.0
 20
-40.4499999999999
 30
0.0
 11
24.29999999999994
 21
-40.4499999999999
 31
0.0
  0
LINE
  5
613D
330
1E
100
AcDbEntity
  8
10
  6
CONTINUOUS
100
AcDbLine
 10
19.0
 20
-33.84999999999989
 30
0.0
 11
24.29999999999994
 21
-33.84999999999989
 31
0.0
  0
LINE
  5
613E
330
1E
100
AcDbEntity
  8
10
  6
CONTINUOUS
100
AcDbLine
 10
19.0
 20
-33.84999999999989
 30
0.0
 11
19.0
 21
-40.4499999999999
 31
0.0
  0
LINE
  5
613F
330
1E
100
AcDbEntity
  8
10
  6
CONTINUOUS
100
AcDbLine
 10
36.95000000000003
 20
-25.99999999999998
 30
0.0
 11
36.95000000000003
 21
-28.99999999999998
 31
0.0
  0
LINE
  5
6140
330
1E
100
AcDbEntity
  8
10
  6
CONTINUOUS
100
AcDbLine
 10
36.95000000000003
 20
-20.99999999999998
 30
0.0
 11
36.95000000000003
 21
-23.99999999999998
 31
0.0
  0
ARC
  5
6141
330
1E
100
AcDbEntity
  8
10
  6
CONTINUOUS
100
AcDbCircle
 10
53.0
 20
-39.99999999999998
 30
0.0
 40
5.0
100
AcDbArc
 50
270.0
 51
0.0
  0
LINE
  5
6142
330
1E
100
AcDbEntity
  8
10
  6
CONTINUOUS
100
AcDbLine
 10
44.95000000000003
 20
-25.99999999999998
 30
0.0
 11
44.95000000000003
 21
-28.99999999999998
 31
0.0
  0
LINE
  5
6143
330
1E
100
AcDbEntity
  8
10
  6
CONTINUOUS
100
AcDbLine
 10
44.95000000000003
 20
-20.99999999999998
 30
0.0
 11
44.95000000000003
 21
-23.99999999999998
 31
0.0
  0
LINE
  5
6144
330
1E
100
AcDbEntity
  8
10
  6
CONTINUOUS
 62
     2
100
AcDbLine
 10
112.4999999999998
 20
-149.0
 30
0.0
 11
112.4999999999998
 21
-171.0
 31
0.0
  0
LINE
  5
6145
330
1E
100
AcDbEntity
  8
10
  6
CONTINOUS
100
AcDbLine
 10
126.4999999999997
 20
-174.5
 30
0.0
 11
126.5
 21
-152.0
 31
0.0
  0
LINE
  5
614A
330
1E
100
AcDbEntity
  8
10
  6
CONTINUOUS
100
AcDbLine
 10
-70.0
 20
50.99999999999899
 30
0.0
 11
115.0
 21
50.99999999999899
 31
0.0
  0
LINE
  5
614B
330
1E
100
AcDbEntity
  8
10
  6
CONTINUOUS
100
AcDbLine
 10
-53.0
 20
45.0
 30
0.0
 11
53.0
 21
45.0
 31
0.0
  0
LINE
  5
614C
330
1E
100
AcDbEntity
  8
10
  6
CONTINOUS
100
AcDbLine
 10
115.0
 20
130.0
 30
0.0
 11
-70.0
 21
130.0
 31
0.0
  0
ARC
  5
614E
330
1E
100
AcDbEntity
  8
10
  6
CONTINUOUS
100
AcDbCircle
 10
-53.0
 20
40.0
 30
0.0
 40
5.0
100
AcDbArc
 50
90.0
 51
180.0
  0
CIRCLE
  5
6160
330
1E
100
AcDbEntity
  8
10
  6
CONTINUOUS
100
AcDbCircle
 10
90.0
 20
86.75000000000002
 30
0.0
 40
8.0
  0
LINE
  5
6161
330
1E
100
AcDbEntity
  8
10
  6
CONTINUOUS
100
AcDbLine
 10
92.44234283555442
 20
82.38904197665569
 30
0.0
 11
93.49999999999999
 21
83.44669914110125
 31
0.0
  0
LINE
  5
6162
330
1E
100
AcDbEntity
  8
10
  6
CONTINUOUS
100
AcDbLine
 10
86.5
 20
81.75000000000002
 30
0.0
 11
87.5
 21
82.75000000000002
 31
0.0
  0
LINE
  5
6163
330
1E
100
AcDbEntity
  8
10
  6
CONTINUOUS
100
AcDbLine
 10
92.73350445133713
 20
81.97309681125195
 30
0.0
 11
93.49999999999999
 21
82.73959235991481
 31
0.0
  0
LINE
  5
6164
330
1E
100
AcDbEntity
  8
10
  6
CONTINUOUS
100
AcDbLine
 10
93.49999999999999
 20
81.75000000000002
 30
0.0
 11
93.49999999999999
 21
91.75000000000002
 31
0.0
  0
LINE
  5
6165
330
1E
100
AcDbEntity
  8
10
  6
CONTINUOUS
100
AcDbLine
 10
86.5
 20
81.75000000000002
 30
0.0
 11
86.5
 21
91.75000000000002
 31
0.0
  0
LINE
  5
6166
330
1E
100
AcDbEntity
  8
10
  6
CONTINUOUS
100
AcDbLine
 10
92.58792364344571
 20
82.18106939395376
 30
0.0
 11
93.49999999999999
 21
83.09314575050803
 31
0.0
  0
LINE
  5
6167
330
1E
100
AcDbEntity
  8
10
  6
CONTINUOUS
100
AcDbLine
 10
87.5
 20
89.44953174173328
 30
0.0
 11
92.88967221921335
 21
81.75000000000002
 31
0.0
  0
LINE
  5
6168
330
1E
100
AcDbEntity
  8
10
  6
CONTINUOUS
100
AcDbLine
 10
86.5
 20
82.10355339059313
 30
0.0
 11
87.5
 21
83.10355339059311
 31
0.0
  0
LINE
  5
6169
330
1E
100
AcDbEntity
  8
10
  6
CONTINUOUS
100
AcDbLine
 10
87.5
 20
89.44953174173328
 30
0.0
 11
87.5
 21
81.75000000000002
 31
0.0
  0
CIRCLE
  5
616A
330
1E
100
AcDbEntity
  8
10
  6
CONTINUOUS
100
AcDbCircle
 10
40.95000000000005
 20
5.000000000000011
 30
0.0
 40
5.5
  0
CIRCLE
  5
616B
330
1E
100
AcDbEntity
  8
10
  6
CONTINUOUS
100
AcDbCircle
 10
40.95000000000005
 20
5.000000000000011
 30
0.0
 40
3.5
  0
LINE
  5
616C
330
1E
100
AcDbEntity
  8
10
  6
CONTINUOUS
100
AcDbLine
 10
-17.0
 20
17.0337027253521
 30
0.0
 11
-17.0
 21
39.33264411704204
 31
0.0
  0
LINE
  5
616D
330
1E
100
AcDbEntity
  8
10
  6
CONTINUOUS
100
AcDbLine
 10
17.00000000000005
 20
17.0337027253521
 30
0.0
 11
17.00000000000005
 21
39.33264411704204
 31
0.0
  0
LINE
  5
616E
330
1E
100
AcDbEntity
  8
10
  6
CONTINUOUS
100
AcDbLine
 10
17.00000000000011
 20
17.03370272535222
 30
0.0
 11
-16.99999999999993
 21
17.03370272535222
 31
0.0
  0
LINE
  5
616F
330
1E
100
AcDbEntity
  8
10
  6
CONTINUOUS
100
AcDbLine
 10
17.00000000000011
 20
28.03853193396584
 30
0.0
 11
-17.0
 21
28.03853193396584
 31
0.0
  0
LINE
  5
6170
330
1E
100
AcDbEntity
  8
10
  6
CONTINUOUS
100
AcDbLine
 10
-17.0
 20
31.00000000000001
 30
0.0
 11
-18.0
 21
31.00000000000001
 31
0.0
  0
LINE
  5
6171
330
1E
100
AcDbEntity
  8
10
  6
CONTINUOUS
100
AcDbLine
 10
18.0
 20
31.00000000000001
 30
0.0
 11
17.00000000000005
 21
31.00000000000001
 31
0.0
  0
LINE
  5
6172
330
1E
100
AcDbEntity
  8
10
  6
CONTINUOUS
100
AcDbLine
 10
17.00000000000011
 20
39.33264411704204
 30
0.0
 11
-17.0
 21
39.33264411704204
 31
0.0
  0
ARC
  5
6173
330
1E
100
AcDbEntity
  8
10
  6
CONTINUOUS
100
AcDbCircle
 10
53.0
 20
40.0
 30
0.0
 40
5.0
100
AcDbArc
 50
0.0
 51
90.0
  0
LINE
  5
6174
330
1E
100
AcDbEntity
  8
10
  6
CONTINUOUS
100
AcDbLine
 10
86.85355339059332
 20
81.75000000000002
 30
0.0
 11
87.5
 21
82.3964466094068
 31
0.0
  0
LINE
  5
6175
330
1E
100
AcDbEntity
  8
10
  6
CONTINUOUS
100
AcDbLine
 10
87.20710678118654
 20
81.75000000000002
 30
0.0
 11
87.5
 21
82.04289321881368
 31
0.0
  0
LINE
  5
6176
330
1E
100
AcDbEntity
  8
10
  6
CONTINUOUS
100
AcDbLine
 10
86.5
 20
81.75000000000002
 30
0.0
 11
87.5
 21
81.75000000000002
 31
0.0
  0
LINE
  5
6177
330
1E
100
AcDbEntity
  8
10
  6
CONTINUOUS
100
AcDbLine
 10
92.86396103067852
 20
81.75000000000002
 30
0.0
 11
93.49999999999999
 21
82.38603896932159
 31
0.0
  0
LINE
  5
6178
330
1E
100
AcDbEntity
  8
10
  6
CONTINUOUS
100
AcDbLine
 10
93.21751442127174
 20
81.75000000000002
 30
0.0
 11
93.49999999999999
 21
82.03248557872827
 31
0.0
  0
LINE
  5
6179
330
1E
100
AcDbEntity
  8
10
  6
CONTINUOUS
100
AcDbLine
 10
93.49999999999999
 20
81.75000000000002
 30
0.0
 11
92.88967221921335
 21
81.75000000000002
 31
0.0
  0
LINE
  5
6199
330
1E
100
AcDbEntity
  8
10
  6
CONTINUOUS
100
AcDbLine
 10
89.38514586983627
 20
86.75646621339559
 30
0.0
 11
90.10317855311472
 21
87.47449889667404
 31
0.0
  0
LINE
  5
619A
330
1E
100
AcDbEntity
  8
10
  6
CONTINUOUS
100
AcDbLine
 10
89.67630748561907
 20
86.34052104799195
 30
0.0
 11
90.39434016889757
 21
87.05855373127031
 31
0.0
  0
LINE
  5
619B
330
1E
100
AcDbEntity
  8
10
  6
CONTINUOUS
100
AcDbLine
 10
89.53072667772769
 20
86.54849363069391
 30
0.0
 11
90.24875936100611
 21
87.26652631397213
 31
0.0
  0
LINE
  5
619C
330
1E
100
AcDbEntity
  8
10
  6
CONTINUOUS
100
AcDbLine
 10
89.82188829351036
 20
86.13254846528993
 30
0.0
 11
90.5399209767887
 21
86.85058114856849
 31
0.0
  0
LINE
  5
619D
330
1E
100
AcDbEntity
  8
10
  6
CONTINUOUS
100
AcDbLine
 10
87.11032778078665
 20
91.75000000000002
 30
0.0
 11
92.5
 21
84.05046825826651
 31
0.0
  0
LINE
  5
619E
330
1E
100
AcDbEntity
  8
10
  6
CONTINUOUS
100
AcDbLine
 10
89.96746910140165
 20
85.92457588258803
 30
0.0
 11
90.68550178468012
 21
86.64260856586658
 31
0.0
  0
LINE
  5
619F
330
1E
100
AcDbEntity
  8
10
  6
CONTINUOUS
100
AcDbLine
 10
86.5
 20
91.29594154601765
 30
0.0
 11
86.95405845398239
 21
91.75000000000002
 31
0.0
  0
LINE
  5
61A0
330
1E
100
AcDbEntity
  8
10
  6
CONTINUOUS
100
AcDbLine
 10
88.22049940670558
 20
88.42024687501123
 30
0.0
 11
88.93853208998406
 21
89.13827955828958
 31
0.0
  0
LINE
  5
61A1
330
1E
100
AcDbEntity
  8
10
  6
CONTINUOUS
100
AcDbLine
 10
86.5
 20
85.9926406871191
 30
0.0
 11
87.5
 21
86.9926406871191
 31
0.0
  0
LINE
  5
61A2
330
1E
100
AcDbEntity
  8
10
  6
CONTINUOUS
100
AcDbLine
 10
86.5
 20
83.51776695296623
 30
0.0
 11
87.5
 21
84.51776695296622
 31
0.0
  0
LINE
  5
61A3
330
1E
100
AcDbEntity
  8
10
  6
CONTINUOUS
100
AcDbLine
 10
88.94840344616225
 20
87.38038396150169
 30
0.0
 11
89.66643612944073
 21
88.09841664478005
 31
0.0
  0
LINE
  5
61A4
330
1E
100
AcDbEntity
  8
10
  6
CONTINUOUS
100
AcDbLine
 10
86.5
 20
91.64949493661074
 30
0.0
 11
86.60050506338905
 21
91.75000000000002
 31
0.0
  0
LINE
  5
61A5
330
1E
100
AcDbEntity
  8
10
  6
CONTINUOUS
100
AcDbLine
 10
88.07491859881428
 20
88.62821945771271
 30
0.0
 11
88.79295128209276
 21
89.3462521409914
 31
0.0
  0
LINE
  5
61A6
330
1E
100
AcDbEntity
  8
10
  6
CONTINUOUS
100
AcDbLine
 10
86.5
 20
84.22487373415277
 30
0.0
 11
87.5
 21
85.22487373415279
 31
0.0
  0
LINE
  5
61A7
330
1E
100
AcDbEntity
  8
10
  6
CONTINUOUS
100
AcDbLine
 10
86.5
 20
85.63908729652576
 30
0.0
 11
87.5
 21
86.63908729652574
 31
0.0
  0
LINE
  5
61A8
330
1E
100
AcDbEntity
  8
10
  6
CONTINUOUS
100
AcDbLine
 10
86.5
 20
89.52817459305142
 30
0.0
 11
87.77388562685326
 21
90.80206021990468
 31
0.0
  0
LINE
  5
61A9
330
1E
100
AcDbEntity
  8
10
  6
CONTINUOUS
100
AcDbLine
 10
86.5
 20
89.88172798364464
 30
0.0
 11
87.62830481896195
 21
91.01003280260682
 31
0.0
  0
LINE
  5
61AA
330
1E
100
AcDbEntity
  8
10
  6
CONTINUOUS
100
AcDbLine
 10
86.5
 20
84.93198051533909
 30
0.0
 11
87.5
 21
85.93198051533907
 31
0.0
  0
LINE
  5
61AB
330
1E
100
AcDbEntity
  8
10
  6
CONTINUOUS
100
AcDbLine
 10
86.5
 20
91.75000000000002
 30
0.0
 11
87.11032778078665
 21
91.75000000000002
 31
0.0
  0
LINE
  5
61AC
330
1E
100
AcDbEntity
  8
10
  6
CONTINUOUS
100
AcDbLine
 10
86.5
 20
84.57842712474599
 30
0.0
 11
87.5
 21
85.57842712474601
 31
0.0
  0
LINE
  5
61AD
330
1E
100
AcDbEntity
  8
10
  6
CONTINUOUS
100
AcDbLine
 10
86.5
 20
90.94238815542452
 30
0.0
 11
87.19156239528798
 21
91.63395055071241
 31
0.0
  0
LINE
  5
61AE
330
1E
100
AcDbEntity
  8
10
  6
CONTINUOUS
100
AcDbLine
 10
88.65724183037958
 20
87.79632912690512
 30
0.0
 11
89.37527451365804
 21
88.51436181018392
 31
0.0
  0
LINE
  5
61AF
330
1E
100
AcDbEntity
  8
10
  6
CONTINUOUS
100
AcDbLine
 10
86.5
 20
87.40685424949196
 30
0.0
 11
87.5
 21
88.40685424949198
 31
0.0
  0
LINE
  5
61B0
330
1E
100
AcDbEntity
  8
10
  6
CONTINUOUS
100
AcDbLine
 10
88.80282263827098
 20
87.58835654420343
 30
0.0
 11
89.52085532154944
 21
88.30638922748176
 31
0.0
  0
LINE
  5
61B1
330
1E
100
AcDbEntity
  8
10
  6
CONTINUOUS
100
AcDbLine
 10
86.5
 20
83.16421356237276
 30
0.0
 11
87.5
 21
84.16421356237277
 31
0.0
  0
LINE
  5
61B2
330
1E
100
AcDbEntity
  8
10
  6
CONTINUOUS
100
AcDbLine
 10
88.51166102248829
 20
88.00430170960716
 30
0.0
 11
89.22969370576664
 21
88.72233439288562
 31
0.0
  0
LINE
  5
61B3
330
1E
100
AcDbEntity
  8
10
  6
CONTINUOUS
100
AcDbLine
 10
86.5
 20
86.34619407771221
 30
0.0
 11
87.5
 21
87.34619407771221
 31
0.0
  0
LINE
  5
61B4
330
1E
100
AcDbEntity
  8
10
  6
CONTINUOUS
100
AcDbLine
 10
86.5
 20
90.58883476483121
 30
0.0
 11
87.33714320317927
 21
91.42597796801034
 31
0.0
  0
LINE
  5
61B5
330
1E
100
AcDbEntity
  8
10
  6
CONTINUOUS
100
AcDbLine
 10
86.5
 20
82.81066017177989
 30
0.0
 11
87.5
 21
83.81066017177991
 31
0.0
  0
LINE
  5
61B6
330
1E
100
AcDbEntity
  8
10
  6
CONTINUOUS
100
AcDbLine
 10
88.36608021459687
 20
88.2122742923093
 30
0.0
 11
89.08411289787535
 21
88.93030697558767
 31
0.0
  0
LINE
  5
61B7
330
1E
100
AcDbEntity
  8
10
  6
CONTINUOUS
100
AcDbLine
 10
86.5
 20
90.23528137423808
 30
0.0
 11
87.48272401107067
 21
91.2180053853083
 31
0.0
  0
LINE
  5
61B8
330
1E
100
AcDbEntity
  8
10
  6
CONTINUOUS
100
AcDbLine
 10
87.78375698303159
 20
89.04416462311679
 30
0.0
 11
88.50178966631006
 21
89.76219730639538
 31
0.0
  0
LINE
  5
61B9
330
1E
100
AcDbEntity
  8
10
  6
CONTINUOUS
100
AcDbLine
 10
86.5
 20
82.45710678118646
 30
0.0
 11
87.5
 21
83.45710678118646
 31
0.0
  0
LINE
  5
61BA
330
1E
100
AcDbEntity
  8
10
  6
CONTINUOUS
100
AcDbLine
 10
86.5
 20
89.17462120245831
 30
0.0
 11
87.91946643474465
 21
90.59408763720286
 31
0.0
  0
LINE
  5
61BB
330
1E
100
AcDbEntity
  8
10
  6
CONTINUOUS
100
AcDbLine
 10
86.5
 20
86.69974746830543
 30
0.0
 11
87.5
 21
87.69974746830543
 31
0.0
  0
LINE
  5
61BC
330
1E
100
AcDbEntity
  8
10
  6
CONTINUOUS
100
AcDbLine
 10
86.5
 20
88.46751442127153
 30
0.0
 11
88.21062805052736
 21
90.17814247179911
 31
0.0
  0
LINE
  5
61BD
330
1E
100
AcDbEntity
  8
10
  6
CONTINUOUS
100
AcDbLine
 10
86.5
 20
87.05330085889853
 30
0.0
 11
87.5
 21
88.05330085889854
 31
0.0
  0
LINE
  5
61BE
330
1E
100
AcDbEntity
  8
10
  6
CONTINUOUS
100
AcDbLine
 10
86.5
 20
87.7604076400852
 30
0.0
 11
87.5
 21
88.7604076400852
 31
0.0
  0
LINE
  5
61BF
330
1E
100
AcDbEntity
  8
10
  6
CONTINUOUS
100
AcDbLine
 10
89.09398425405369
 20
87.17241137879968
 30
0.0
 11
89.81201693733202
 21
87.89044406207779
 31
0.0
  0
LINE
  5
61C0
330
1E
100
AcDbEntity
  8
10
  6
CONTINUOUS
100
AcDbLine
 10
86.5
 20
83.87132034355934
 30
0.0
 11
87.5
 21
84.87132034355933
 31
0.0
  0
LINE
  5
61C1
330
1E
100
AcDbEntity
  8
10
  6
CONTINUOUS
100
AcDbLine
 10
87.6381761751403
 20
89.2521372058187
 30
0.0
 11
88.35620885841866
 21
89.97016988909718
 31
0.0
  0
LINE
  5
61C2
330
1E
100
AcDbEntity
  8
10
  6
CONTINUOUS
100
AcDbLine
 10
86.5
 20
88.11396103067831
 30
0.0
 11
87.5
 21
89.11396103067831
 31
0.0
  0
LINE
  5
61C3
330
1E
100
AcDbEntity
  8
10
  6
CONTINUOUS
100
AcDbLine
 10
87.92933779092289
 20
88.83619204041499
 30
0.0
 11
88.64737047420133
 21
89.55422472369333
 31
0.0
  0
LINE
  5
61C4
330
1E
100
AcDbEntity
  8
10
  6
CONTINUOUS
100
AcDbLine
 10
86.5
 20
85.28553390593222
 30
0.0
 11
87.5
 21
86.2855339059322
 31
0.0
  0
LINE
  5
61C5
330
1E
100
AcDbEntity
  8
10
  6
CONTINUOUS
100
AcDbLine
 10
86.5
 20
88.82106781186498
 30
0.0
 11
88.06504724263607
 21
90.38611505450084
 31
0.0
  0
LINE
  5
61C6
330
1E
100
AcDbEntity
  8
10
  6
CONTINUOUS
100
AcDbLine
 10
89.23956506194498
 20
86.96443879609764
 30
0.0
 11
89.95759774522332
 21
87.68247147937598
 31
0.0
  0
LINE
  5
61C7
330
1E
100
AcDbEntity
  8
10
  6
CONTINUOUS
100
AcDbLine
 10
91.86001960398902
 20
83.22093230746316
 30
0.0
 11
93.49999999999999
 21
84.86091270347435
 31
0.0
  0
LINE
  5
61C8
330
1E
100
AcDbEntity
  8
10
  6
CONTINUOUS
100
AcDbLine
 10
92.5
 20
88.45710678118646
 30
0.0
 11
93.49999999999999
 21
89.45710678118645
 31
0.0
  0
LINE
  5
61C9
330
1E
100
AcDbEntity
  8
10
  6
CONTINUOUS
100
AcDbLine
 10
91.13211556453235
 20
84.2607952209728
 30
0.0
 11
91.85014824781092
 21
84.97882790425116
 31
0.0
  0
LINE
  5
61CA
330
1E
100
AcDbEntity
  8
10
  6
CONTINUOUS
100
AcDbLine
 10
90.54979233296696
 20
85.0926855517803
 30
0.0
 11
91.26782501624539
 21
85.81071823505878
 31
0.0
  0
LINE
  5
61CB
330
1E
100
AcDbEntity
  8
10
  6
CONTINUOUS
100
AcDbLine
 10
92.5
 20
90.22487373415279
 30
0.0
 11
93.49999999999999
 21
91.22487373415278
 31
0.0
  0
LINE
  5
61CC
330
1E
100
AcDbEntity
  8
10
  6
CONTINUOUS
100
AcDbLine
 10
92.5
 20
88.10355339059311
 30
0.0
 11
93.49999999999999
 21
89.10355339059313
 31
0.0
  0
LINE
  5
61CD
330
1E
100
AcDbEntity
  8
10
  6
CONTINUOUS
100
AcDbLine
 10
92.5
 20
85.62867965644072
 30
0.0
 11
93.49999999999999
 21
86.62867965644069
 31
0.0
  0
LINE
  5
61CE
330
1E
100
AcDbEntity
  8
10
  6
CONTINUOUS
100
AcDbLine
 10
90.25863071718424
 20
85.50863071718472
 30
0.0
 11
90.97666340046279
 21
86.22666340046285
 31
0.0
  0
LINE
  5
61CF
330
1E
100
AcDbEntity
  8
10
  6
CONTINUOUS
100
AcDbLine
 10
92.5
 20
87.3964466094069
 30
0.0
 11
93.49999999999999
 21
88.3964466094069
 31
0.0
  0
LINE
  5
61D0
330
1E
100
AcDbEntity
  8
10
  6
CONTINUOUS
100
AcDbLine
 10
91.27769637242376
 20
84.05282263827087
 30
0.0
 11
91.99572905570198
 21
84.77085532154923
 31
0.0
  0
LINE
  5
61D1
330
1E
100
AcDbEntity
  8
10
  6
CONTINUOUS
100
AcDbLine
 10
92.5
 20
84.05046825826651
 30
0.0
 11
92.5
 21
91.75000000000002
 31
0.0
  0
LINE
  5
61D2
330
1E
100
AcDbEntity
  8
10
  6
CONTINUOUS
100
AcDbLine
 10
92.5
 20
84.21446609406759
 30
0.0
 11
93.49999999999999
 21
85.21446609406757
 31
0.0
  0
LINE
  5
61D3
330
1E
100
AcDbEntity
  8
10
  6
CONTINUOUS
100
AcDbLine
 10
90.11304990929295
 20
85.71660329988619
 30
0.0
 11
90.83108259257143
 21
86.43463598316431
 31
0.0
  0
LINE
  5
61D4
330
1E
100
AcDbEntity
  8
10
  6
CONTINUOUS
100
AcDbLine
 10
92.5
 20
89.16421356237277
 30
0.0
 11
93.49999999999999
 21
90.16421356237279
 31
0.0
  0
LINE
  5
61D5
330
1E
100
AcDbEntity
  8
10
  6
CONTINUOUS
100
AcDbLine
 10
92.5
 20
87.75000000000002
 30
0.0
 11
93.49999999999999
 21
88.75000000000001
 31
0.0
  0
LINE
  5
61D6
330
1E
100
AcDbEntity
  8
10
  6
CONTINUOUS
100
AcDbLine
 10
91.42327718031515
 20
83.84485005556873
 30
0.0
 11
92.14130986359341
 21
84.56288273884753
 31
0.0
  0
LINE
  5
61D7
330
1E
100
AcDbEntity
  8
10
  6
CONTINUOUS
100
AcDbLine
 10
92.5
 20
89.5177669529662
 30
0.0
 11
93.49999999999999
 21
90.51776695296622
 31
0.0
  0
LINE
  5
61D8
330
1E
100
AcDbEntity
  8
10
  6
CONTINUOUS
100
AcDbLine
 10
92.5
 20
88.81066017177991
 30
0.0
 11
93.49999999999999
 21
89.8106601717799
 31
0.0
  0
LINE
  5
61D9
330
1E
100
AcDbEntity
  8
10
  6
CONTINUOUS
100
AcDbLine
 10
92.5
 20
85.27512626584714
 30
0.0
 11
93.49999999999999
 21
86.27512626584715
 31
0.0
  0
LINE
  5
61DA
330
1E
100
AcDbEntity
  8
10
  6
CONTINUOUS
100
AcDbLine
 10
92.00560041188044
 20
83.01295972476159
 30
0.0
 11
93.49999999999999
 21
84.50735931288091
 31
0.0
  0
LINE
  5
61DB
330
1E
100
AcDbEntity
  8
10
  6
CONTINUOUS
100
AcDbLine
 10
90.98653475664093
 20
84.46876780367473
 30
0.0
 11
91.70456743991929
 21
85.18680048695321
 31
0.0
  0
LINE
  5
61DC
330
1E
100
AcDbEntity
  8
10
  6
CONTINUOUS
100
AcDbLine
 10
92.5
 20
91.75000000000002
 30
0.0
 11
93.49999999999999
 21
91.75000000000002
 31
0.0
  0
LINE
  5
61DD
330
1E
100
AcDbEntity
  8
10
  6
CONTINUOUS
100
AcDbLine
 10
92.5
 20
86.68933982822009
 30
0.0
 11
93.49999999999999
 21
87.6893398282201
 31
0.0
  0
LINE
  5
61DE
330
1E
100
AcDbEntity
  8
10
  6
CONTINUOUS
100
AcDbLine
 10
92.15118121977171
 20
82.80498714205945
 30
0.0
 11
93.49999999999999
 21
84.15380592228782
 31
0.0
  0
LINE
  5
61DF
330
1E
100
AcDbEntity
  8
10
  6
CONTINUOUS
100
AcDbLine
 10
92.5
 20
91.63908729652575
 30
0.0
 11
92.61091270347435
 21
91.75000000000002
 31
0.0
  0
LINE
  5
61E0
330
1E
100
AcDbEntity
  8
10
  6
CONTINUOUS
100
AcDbLine
 10
91.71443879609773
 20
83.4289048901653
 30
0.0
 11
92.43247147937609
 21
84.14693757344378
 31
0.0
  0
LINE
  5
61E1
330
1E
100
AcDbEntity
  8
10
  6
CONTINUOUS
100
AcDbLine
 10
90.84095394874964
 20
84.67674038637666
 30
0.0
 11
91.5589866320281
 21
85.39477306965501
 31
0.0
  0
LINE
  5
61E2
330
1E
100
AcDbEntity
  8
10
  6
CONTINUOUS
100
AcDbLine
 10
90.40421152507551
 20
85.30065813448233
 30
0.0
 11
91.12224420835413
 21
86.01869081776071
 31
0.0
  0
LINE
  5
61E3
330
1E
100
AcDbEntity
  8
10
  6
CONTINUOUS
100
AcDbLine
 10
92.5
 20
90.93198051533907
 30
0.0
 11
93.31801948466068
 21
91.75000000000002
 31
0.0
  0
LINE
  5
61E4
330
1E
100
AcDbEntity
  8
10
  6
CONTINUOUS
100
AcDbLine
 10
92.5
 20
89.87132034355942
 30
0.0
 11
93.49999999999999
 21
90.8713203435593
 31
0.0
  0
LINE
  5
61E5
330
1E
100
AcDbEntity
  8
10
  6
CONTINUOUS
100
AcDbLine
 10
92.5
 20
90.57842712474601
 30
0.0
 11
93.49999999999999
 21
91.578427124746
 31
0.0
  0
LINE
  5
61E6
330
1E
100
AcDbEntity
  8
10
  6
CONTINUOUS
100
AcDbLine
 10
92.5
 20
91.2855339059322
 30
0.0
 11
92.96446609406755
 21
91.75000000000002
 31
0.0
  0
LINE
  5
61E7
330
1E
100
AcDbEntity
  8
10
  6
CONTINUOUS
100
AcDbLine
 10
90.69537314085836
 20
84.88471296907848
 30
0.0
 11
91.4134058241367
 21
85.60274565235683
 31
0.0
  0
LINE
  5
61E8
330
1E
100
AcDbEntity
  8
10
  6
CONTINUOUS
100
AcDbLine
 10
92.5
 20
85.98223304703379
 30
0.0
 11
93.49999999999999
 21
86.98223304703381
 31
0.0
  0
LINE
  5
61E9
330
1E
100
AcDbEntity
  8
10
  6
CONTINUOUS
100
AcDbLine
 10
92.5
 20
87.04289321881368
 30
0.0
 11
93.49999999999999
 21
88.04289321881368
 31
0.0
  0
LINE
  5
61EA
330
1E
100
AcDbEntity
  8
10
  6
CONTINUOUS
100
AcDbLine
 10
92.5
 20
84.5680194846607
 30
0.0
 11
93.49999999999999
 21
85.5680194846607
 31
0.0
  0
LINE
  5
61EB
330
1E
100
AcDbEntity
  8
10
  6
CONTINUOUS
100
AcDbLine
 10
92.29676202766311
 20
82.59701455935759
 30
0.0
 11
93.49999999999999
 21
83.80025253169437
 31
0.0
  0
LINE
  5
61EC
330
1E
100
AcDbEntity
  8
10
  6
CONTINUOUS
100
AcDbLine
 10
92.5
 20
86.33578643762701
 30
0.0
 11
93.49999999999999
 21
87.33578643762703
 31
0.0
  0
LINE
  5
61ED
330
1E
100
AcDbEntity
  8
10
  6
CONTINUOUS
100
AcDbLine
 10
92.5
 20
84.9215728752538
 30
0.0
 11
93.49999999999999
 21
85.92157287525379
 31
0.0
  0
LINE
  5
61EE
330
1E
100
AcDbEntity
  8
10
  6
CONTINUOUS
100
AcDbLine
 10
91.5688579882063
 20
83.63687747286714
 30
0.0
 11
92.28689067148469
 21
84.35491015614571
 31
0.0
  0
LINE
  5
6211
330
1E
100
AcDbEntity
  8
18
100
AcDbLine
 10
115.0
 20
-270.0
 30
0.0
 11
-69.99999999999977
 21
-270.0
 31
0.0
  0
LINE
  5
6212
330
1E
100
AcDbEntity
  8
18
100
AcDbLine
 10
-69.99999999999977
 20
-530.0
 30
0.0
 11
115.0
 21
-530.0
 31
0.0
  0
LINE
  5
6213
330
1E
100
AcDbEntity
  8
18
100
AcDbLine
 10
-69.99999999999977
 20
-270.0
 30
0.0
 11
-69.99999999999977
 21
-530.0
 31
0.0
  0
LINE
  5
6215
330
1E
100
AcDbEntity
  8
12
  6
DASHDOT
100
AcDbLine
 10
-22.5
 20
-500.0
 30
0.0
 11
-22.5
 21
-514.0
 31
0.0
  0
CIRCLE
  5
6216
330
1E
100
AcDbEntity
  8
12
  6
DASHDOT
100
AcDbCircle
 10
22.5
 20
-507.0
 30
0.0
 40
3.0
210
0.0
220
0.0
230
-1.0
  0
LINE
  5
6217
330
1E
100
AcDbEntity
  8
12
  6
DASHDOT
100
AcDbLine
 10
-29.5
 20
-507.0
 30
0.0
 11
-15.5
 21
-507.0
 31
0.0
  0
LINE
  5
6218
330
1E
100
AcDbEntity
  8
12
  6
DASHDOT
100
AcDbLine
 10
22.5
 20
-500.0
 30
0.0
 11
22.5
 21
-514.0
 31
0.0
  0
CIRCLE
  5
6219
330
1E
100
AcDbEntity
  8
12
  6
DASHDOT
100
AcDbCircle
 10
22.5
 20
-507.0
 30
0.0
 40
3.0
  0
LINE
  5
621A
330
1E
100
AcDbEntity
  8
12
  6
DASHDOT
100
AcDbLine
 10
15.5
 20
-507.0
 30
0.0
 11
29.5
 21
-507.0
 31
0.0
  0
LINE
  5
621B
330
1E
100
AcDbEntity
  8
12
  6
DASHDOT
100
AcDbLine
 10
-22.5
 20
-286.0
 30
0.0
 11
-22.5
 21
-300.0
 31
0.0
  0
LINE
  5
621C
330
1E
100
AcDbEntity
  8
12
  6
DASHDOT
100
AcDbLine
 10
-29.5
 20
-293.0
 30
0.0
 11
-15.5
 21
-293.0
 31
0.0
  0
CIRCLE
  5
621D
330
1E
100
AcDbEntity
  8
12
  6
DASHDOT
100
AcDbCircle
 10
-22.5
 20
-293.0
 30
0.0
 40
3.0
  0
LINE
  5
621E
330
1E
100
AcDbEntity
  8
12
  6
DASHDOT
100
AcDbLine
 10
15.5
 20
-293.0
 30
0.0
 11
29.5
 21
-293.0
 31
0.0
  0
LINE
  5
621F
330
1E
100
AcDbEntity
  8
12
  6
DASHDOT
100
AcDbLine
 10
22.5
 20
-286.0
 30
0.0
 11
22.5
 21
-300.0
 31
0.0
  0
CIRCLE
  5
6220
330
1E
100
AcDbEntity
  8
12
  6
DASHDOT
100
AcDbCircle
 10
-22.5
 20
-293.0
 30
0.0
 40
3.0
210
0.0
220
0.0
230
-1.0
  0
LINE
  5
6221
330
1E
100
AcDbEntity
  8
18
100
AcDbLine
 10
115.0
 20
-270.0
 30
0.0
 11
115.0
 21
-530.0
 31
0.0
  0
LINE
  5
6236
330
1E
100
AcDbEntity
  8
11
  6
CONTINUOUS
100
AcDbLine
 10
202.0
 20
-446.0
 30
0.0
 11
308.0
 21
-446.0
 31
0.0
  0
LINE
  5
6237
330
1E
100
AcDbEntity
  8
11
  6
CONTINUOUS
100
AcDbLine
 10
202.0
 20
-354.0
 30
0.0
 11
308.0
 21
-354.0
 31
0.0
  0
LINE
  5
6239
330
1E
100
AcDbEntity
  8
18
100
AcDbLine
 10
185.0
 20
-530.0
 30
0.0
 11
370.0
 21
-530.0
 31
0.0
  0
LINE
  5
623A
330
1E
100
AcDbEntity
  8
18
100
AcDbLine
 10
370.0
 20
-270.0
 30
0.0
 11
185.0
 21
-270.0
 31
0.0
  0
LINE
  5
623C
330
1E
100
AcDbEntity
  8
11
  6
CONTINUOUS
100
AcDbLine
 10
196.0
 20
-360.0
 30
0.0
 11
196.0
 21
-440.0
 31
0.0
  0
LINE
  5
623E
330
1E
100
AcDbEntity
  8
18
100
AcDbLine
 10
185.0
 20
-270.0
 30
0.0
 11
185.0
 21
-530.0
 31
0.0
  0
ARC
  5
623F
330
1E
100
AcDbEntity
  8
11
  6
CONTINUOUS
100
AcDbCircle
 10
202.0
 20
-440.0
 30
0.0
 40
6.0
100
AcDbArc
 50
180.0
 51
270.0
  0
ARC
  5
6240
330
1E
100
AcDbEntity
  8
11
  6
CONTINUOUS
100
AcDbCircle
 10
202.0
 20
-360.0
 30
0.0
 40
6.0
100
AcDbArc
 50
90.0
 51
180.0
  0
LINE
  5
6241
330
1E
100
AcDbEntity
  8
11
  6
CONTINUOUS
100
AcDbLine
 10
314.0
 20
-360.0
 30
0.0
 11
314.0
 21
-440.0
 31
0.0
  0
LINE
  5
6242
330
1E
100
AcDbEntity
  8
18
100
AcDbLine
 10
370.0
 20
-270.0
 30
0.0
 11
370.0
 21
-530.0
 31
0.0
  0
ARC
  5
6244
330
1E
100
AcDbEntity
  8
11
  6
CONTINUOUS
100
AcDbCircle
 10
308.0
 20
-440.0
 30
0.0
 40
6.0
100
AcDbArc
 50
270.0
 51
0.0
  0
ARC
  5
6245
330
1E
100
AcDbEntity
  8
11
  6
CONTINUOUS
100
AcDbCircle
 10
308.0
 20
-360.0
 30
0.0
 40
6.0
100
AcDbArc
 50
0.0
 51
90.0
  0
LINE
  5
628C
330
1E
100
AcDbEntity
  8
10
  6
CONTINUOUS
100
AcDbLine
 10
250.3937097878774
 20
1.5
 30
0.0
 11
250.3937097878774
 21
-45.0
 31
0.0
  0
LINE
  5
628D
330
1E
100
AcDbEntity
  8
10
  6
CONTINUOUS
100
AcDbLine
 10
361.3937097878775
 20
130.0
 30
0.0
 11
361.3937097878775
 21
-130.0
 31
0.0
  0
LINE
  5
628E
330
1E
100
AcDbEntity
  8
10
  6
CONTINUOUS
100
AcDbLine
 10
254.3937097878774
 20
45.0
 30
0.0
 11
254.3937097878774
 21
-45.0
 31
0.0
  0
LINE
  5
628F
330
1E
100
AcDbEntity
  8
10
  6
CONTINUOUS
100
AcDbLine
 10
258.3937097878775
 20
51.0
 30
0.0
 11
258.3937097878775
 21
-51.0
 31
0.0
  0
LINE
  5
6290
330
1E
100
AcDbEntity
  8
12
  6
DASHED
100
AcDbLine
 10
276.093709787877
 20
-109.25
 30
0.0
 11
361.3937097878775
 21
-109.25
 31
0.0
  0
LINE
  5
6291
330
1E
100
AcDbEntity
  8
12
  6
DASHED
100
AcDbLine
 10
276.093709787877
 20
-104.75
 30
0.0
 11
361.3937097878775
 21
-104.75
 31
0.0
  0
LINE
  5
6292
330
1E
100
AcDbEntity
  8
12
  6
DASHED
100
AcDbLine
 10
260.3937097878775
 20
-107.0
 30
0.0
 11
385.3937097878775
 21
-107.0
 31
0.0
  0
LINE
  5
6293
330
1E
100
AcDbEntity
  8
10
  6
CONTINUOUS
100
AcDbLine
 10
264.3937097878775
 20
-130.0
 30
0.0
 11
361.3937097878775
 21
-130.0
 31
0.0
  0
LINE
  5
6294
330
1E
100
AcDbEntity
  8
10
  6
CONTINUOUS
100
AcDbLine
 10
264.3937097878775
 20
-51.0
 30
0.0
 11
264.3937097878775
 21
-130.0
 31
0.0
  0
LINE
  5
6295
330
1E
100
AcDbEntity
  8
12
  6
DASHED
100
AcDbLine
 10
276.093709787877
 20
-102.75
 30
0.0
 11
276.093709787877
 21
-111.25
 31
0.0
  0
LINE
  5
6296
330
1E
100
AcDbEntity
  8
12
  6
DASHED
100
AcDbLine
 10
270.093709787877
 20
-102.75
 30
0.0
 11
270.093709787877
 21
-111.25
 31
0.0
  0
LINE
  5
6297
330
1E
100
AcDbEntity
  8
12
  6
DASHED
100
AcDbLine
 10
276.093709787877
 20
-109.25
 30
0.0
 11
276.093709787877
 21
-111.25
 31
0.0
  0
LINE
  5
6298
330
1E
100
AcDbEntity
  8
12
  6
DASHED
100
AcDbLine
 10
264.393709787877
 20
-111.25
 30
0.0
 11
276.093709787877
 21
-111.25
 31
0.0
  0
LINE
  5
6299
330
1E
100
AcDbEntity
  8
12
  6
DASHED
100
AcDbLine
 10
264.393709787877
 20
-102.75
 30
0.0
 11
276.093709787877
 21
-102.75
 31
0.0
  0
LINE
  5
629A
330
1E
100
AcDbEntity
  8
12
  6
DASHED
100
AcDbLine
 10
276.093709787877
 20
-102.75
 30
0.0
 11
276.093709787877
 21
-104.75
 31
0.0
  0
LINE
  5
629B
330
1E
100
AcDbEntity
  8
10
  6
CONTINUOUS
100
AcDbLine
 10
258.3937097878775
 20
-51.0
 30
0.0
 11
264.3937097878775
 21
-51.0
 31
0.0
  0
LINE
  5
629C
330
1E
100
AcDbEntity
  8
10
  6
CONTINUOUS
100
AcDbLine
 10
250.3937097878774
 20
-45.0
 30
0.0
 11
258.3937097878775
 21
-45.0
 31
0.0
  0
LINE
  5
629D
330
1E
100
AcDbEntity
  8
10
  6
CONTINOUS
100
AcDbLine
 10
326.3937097878776
 20
-174.5
 30
0.0
 11
326.3937097878776
 21
-130.0
 31
0.0
  0
LINE
  5
629E
330
1E
100
AcDbEntity
  8
10
  6
CONTINOUS
100
AcDbLine
 10
318.3937097878775
 20
-174.5
 30
0.0
 11
318.3937097878775
 21
-130.0
 31
0.0
  0
LINE
  5
629F
330
1E
100
AcDbEntity
  8
10
  6
CONTINUOUS
 62
     2
100
AcDbLine
 10
309.3937097878775
 20
-160.0
 30
0.0
 11
333.3937097878775
 21
-160.0
 31
0.0
  0
LINE
  5
62A0
330
1E
100
AcDbEntity
  8
10
  6
CONTINOUS
100
AcDbLine
 10
318.3937097878775
 20
-174.5
 30
0.0
 11
326.3937097878776
 21
-174.5
 31
0.0
  0
LINE
  5
62A1
330
1E
100
AcDbEntity
  8
12
  6
DASHED
100
AcDbLine
 10
376.0937097878776
 20
-104.75
 30
0.0
 11
376.0937097878776
 21
-109.25
 31
0.0
  0
LINE
  5
62A2
330
1E
100
AcDbEntity
  8
12
  6
DASHED
100
AcDbLine
 10
361.3937097878775
 20
-109.25
 30
0.0
 11
376.0937097878776
 21
-109.25
 31
0.0
  0
LINE
  5
62A3
330
1E
100
AcDbEntity
  8
12
  6
DASHED
100
AcDbLine
 10
361.3937097878775
 20
-104.75
 30
0.0
 11
376.0937097878776
 21
-104.75
 31
0.0
  0
LINE
  5
62A5
330
1E
100
AcDbEntity
  8
10
  6
CONTINUOUS
100
AcDbLine
 10
361.3937097878775
 20
130.0
 30
0.0
 11
264.3937097878775
 21
130.0
 31
0.0
  0
LINE
  5
62A6
330
1E
100
AcDbEntity
  8
10
  6
CONTINUOUS
100
AcDbLine
 10
250.8937097878773
 20
10.5
 30
0.0
 11
250.8937097878773
 21
-0.5
 31
0.0
  0
LINE
  5
62A7
330
1E
100
AcDbEntity
  8
10
  6
CONTINUOUS
100
AcDbLine
 10
248.8937097878773
 20
8.5
 30
0.0
 11
248.8937097878773
 21
1.5
 31
0.0
  0
ARC
  5
62A8
330
1E
100
AcDbEntity
  8
30
  6
CONTINUOUS
100
AcDbCircle
 10
307.7937097878777
 20
2.799999999999954
 30
0.0
 40
91.39999999999997
100
AcDbArc
 50
164.0139175463448
 51
180.0
  0
LINE
  5
62AA
330
1E
100
AcDbEntity
  8
0
100
AcDbLine
 10
216.3937097878775
 20
2.799999999999954
 30
0.0
 11
216.3937097878775
 21
0.0
 31
0.0
  0
LINE
  5
62AC
330
1E
100
AcDbEntity
  8
10
  6
CONTINUOUS
100
AcDbLine
 10
250.8937097878773
 20
-0.5
 30
0.0
 11
254.3937097878774
 21
-0.5
 31
0.0
  0
LINE
  5
62AD
330
1E
100
AcDbEntity
  8
10
  6
CONTINUOUS
100
AcDbLine
 10
248.8937097878773
 20
1.5
 30
0.0
 11
250.8937097878773
 21
1.5
 31
0.0
  0
LINE
  5
62AE
330
1E
100
AcDbEntity
  8
10
  6
CONTINUOUS
100
AcDbLine
 10
250.3937097878774
 20
17.03370272535215
 30
0.0
 11
219.7427216854254
 21
28.03853193396582
 31
0.0
  0
LINE
  5
62AF
330
1E
100
AcDbEntity
  8
10
  6
CONTINUOUS
100
AcDbLine
 10
250.3937097878774
 20
29.78370889367914
 30
0.0
 11
223.7977223014651
 21
39.33264411704215
 31
0.0
  0
LINE
  5
62B0
330
1E
100
AcDbEntity
  8
10
  6
CONTINUOUS
100
AcDbLine
 10
250.3937097878774
 20
19.15870375340688
 30
0.0
 11
236.8891353884183
 21
24.00734139942028
 31
0.0
  0
LINE
  5
62B1
330
1E
100
AcDbEntity
  8
10
  6
CONTINUOUS
100
AcDbLine
 10
250.3937097878774
 20
27.65870786562459
 30
0.0
 11
239.592469132445
 21
31.53674952147116
 31
0.0
  0
LINE
  5
62B2
330
1E
100
AcDbEntity
  8
10
  6
CONTINUOUS
100
AcDbLine
 10
239.592469132445
 20
31.53674952147145
 30
0.0
 11
236.8891353884183
 21
24.0073413994205
 31
0.0
  0
LINE
  5
62B3
330
1E
100
AcDbEntity
  8
10
  6
CONTINUOUS
100
AcDbLine
 10
223.7977223014651
 20
39.33264411704215
 30
0.0
 11
219.7427216854253
 21
28.0385319339656
 31
0.0
  0
LINE
  5
62B4
330
1E
100
AcDbEntity
  8
10
  6
CONTINUOUS
100
AcDbLine
 10
250.3937097878774
 20
45.0
 30
0.0
 11
250.3937097878774
 21
8.50000000000011
 31
0.0
  0
LINE
  5
62B5
330
1E
100
AcDbEntity
  8
10
  6
CONTINUOUS
100
AcDbLine
 10
248.8937097878773
 20
8.5
 30
0.0
 11
250.8937097878773
 21
8.5
 31
0.0
  0
LINE
  5
62B6
330
1E
100
AcDbEntity
  8
10
  6
CONTINUOUS
100
AcDbLine
 10
250.8937097878773
 20
10.5
 30
0.0
 11
254.3937097878774
 21
10.5
 31
0.0
  0
LINE
  5
62B7
330
1E
100
AcDbEntity
  8
10
  6
CONTINUOUS
100
AcDbLine
 10
250.3937097878774
 20
45.0
 30
0.0
 11
258.3937097878775
 21
45.0
 31
0.0
  0
LINE
  5
62B8
330
1E
100
AcDbEntity
  8
10
  6
CONTINUOUS
100
AcDbLine
 10
264.3937097878775
 20
130.0
 30
0.0
 11
264.3937097878775
 21
51.0
 31
0.0
  0
LINE
  5
62B9
330
1E
100
AcDbEntity
  8
10
  6
CONTINUOUS
100
AcDbLine
 10
258.3937097878775
 20
51.0
 30
0.0
 11
264.3937097878775
 21
51.0
 31
0.0
  0
DIMENSION
  5
62E9
330
1E
100
AcDbEntity
  8
30
  6
CONTINUOUS
100
AcDbDimension
  2
*D4
 10
-92.0
 20
-44.99999999999998
 30
0.0
 11
-95.49999999999998
 21
0.0000000000000061
 31
0.0
 70
    32
  3
STANDARD
100
AcDbAlignedDimension
 13
-53.0
 23
45.0
 33
0.0
 14
-53.0
 24
-44.99999999999999
 34
0.0
 50
90.0
100
AcDbRotatedDimension
  0
DIMENSION
  5
62F6
330
1E
100
AcDbEntity
  8
30
  6
CONTINUOUS
100
AcDbDimension
  2
*D5
 10
-106.0
 20
-50.99999999999997
 30
0.0
 11
-109.4999999999999
 21
-0.0000000000005047
 31
0.0
 70
    32
  3
STANDARD
100
AcDbAlignedDimension
 13
-70.0
 23
50.99999999999899
 33
0.0
 14
-70.0
 24
-50.99999999999997
 34
0.0
 50
90.0
100
AcDbRotatedDimension
  0
DIMENSION
  5
6303
330
1E
100
AcDbEntity
  8
30
  6
CONTINUOUS
100
AcDbDimension
  2
*D6
 10
-120.0
 20
-130.0
 30
0.0
 11
-123.5
 21
-0.0000000000000206
 31
0.0
 70
    32
  3
STANDARD
100
AcDbAlignedDimension
 13
-70.0
 23
130.0
 33
0.0
 14
-70.0
 24
-130.0
 34
0.0
 50
90.0
100
AcDbRotatedDimension
  0
DIMENSION
  5
6483
330
1E
100
AcDbEntity
  8
30
  6
CONTINUOUS
100
AcDbDimension
  2
*D7
 10
-7.500000000000002
 20
-209.5004882811999
 30
0.0
 11
-35.0
 21
-209.5004882811999
 31
0.0
 70
   160
  3
STANDARD
100
AcDbAlignedDimension
 13
-67.5
 23
-171.9995117188
 33
0.0
 14
-7.5
 24
-171.9995117188
 34
0.0
100
AcDbRotatedDimension
  0
DIMENSION
  5
6484
330
1E
100
AcDbEntity
  8
30
  6
CONTINUOUS
100
AcDbDimension
  2
*D8
 10
52.5
 20
-200.0
 30
0.0
 11
26.25
 21
-196.5
 31
0.0
 70
    32
  3
STANDARD
100
AcDbAlignedDimension
 13
0.0
 23
-124.9997558593999
 33
0.0
 14
52.5
 24
-171.0
 34
0.0
100
AcDbRotatedDimension
  0
DIMENSION
  5
6485
330
1E
100
AcDbEntity
  8
30
  6
CONTINUOUS
100
AcDbDimension
  2
*D9
 10
52.5
 20
-209.5004882811999
 30
0.0
 11
22.5
 21
-206.0004882811999
 31
0.0
 70
    32
  3
STANDARD
100
AcDbAlignedDimension
 13
-7.5
 23
-172.9995117188
 33
0.0
 14
52.5
 24
-171.9995117188
 34
0.0
100
AcDbRotatedDimension
  0
DIMENSION
  5
6486
330
1E
100
AcDbEntity
  8
30
  6
CONTINUOUS
100
AcDbDimension
  2
*D10
 10
112.5
 20
-209.5004882811999
 30
0.0
 11
82.5
 21
-206.0004882811999
 31
0.0
 70
    32
  3
STANDARD
100
AcDbAlignedDimension
 13
52.5
 23
-174.9990234375998
 33
0.0
 14
112.5
 24
-173.9990234375999
 34
0.0
100
AcDbRotatedDimension
  0
DIMENSION
  5
64EE
330
1E
100
AcDbEntity
  8
30
  6
CONTINUOUS
100
AcDbDimension
  2
*D11
 10
-21.49999999999999
 20
-186.1755559797568
 30
0.0
 11
-7.5
 21
-186.1755559797568
 31
0.0
 70
   160
  3
STANDARD
100
AcDbAlignedDimension
 13
6.5
 23
-173.5
 33
0.0
 14
-21.49999999999999
 24
-173.4063720703
 34
0.0
 50
180.0
100
AcDbRotatedDimension
  0
ARC
  5
6528
330
1E
100
AcDbEntity
  8
10
  6
CONTINUOUS
100
AcDbCircle
 10
0.000000000000012
 20
114.0
 30
0.0
 40
8.0
210
0.0
220
0.0
230
-1.0
100
AcDbArc
 50
46.5674634422112
 51
133.4325365577887
  0
ARC
  5
6529
330
1E
100
AcDbEntity
  8
10
  6
CONTINUOUS
100
AcDbCircle
 10
0.000000000000012
 20
114.0
 30
0.0
 40
5.5
210
0.0
220
0.0
230
-1.0
100
AcDbArc
 50
180.0
 51
0.0
  0
LINE
  5
652A
330
1E
100
AcDbEntity
  8
24
  6
CONTINOUS
100
AcDbLine
 10
-8.999999999999953
 20
114.0
 30
0.0
 11
8.999999999999987
 21
114.0
 31
0.0
  0
LINE
  5
652B
330
1E
100
AcDbEntity
  8
24
  6
CONTINOUS
100
AcDbLine
 10
3.999999999999986
 20
116.3094010767587
 30
0.0
 11
-0.0000000000000125
 21
118.6188021535169
 31
0.0
  0
LINE
  5
652C
330
1E
100
AcDbEntity
  8
24
  6
CONTINOUS
100
AcDbLine
 10
-0.0000000000000115
 20
109.3811978464831
 30
0.0
 11
3.999999999999986
 21
111.6905989232414
 31
0.0
  0
ARC
  5
652D
330
1E
100
AcDbEntity
  8
10
  6
CONTINUOUS
100
AcDbCircle
 10
45.0
 20
114.0
 30
0.0
 40
8.0
210
0.0
220
0.0
230
-1.0
100
AcDbArc
 50
46.5674634422112
 51
133.4325365577887
  0
ARC
  5
652E
330
1E
100
AcDbEntity
  8
10
  6
CONTINUOUS
100
AcDbCircle
 10
45.0
 20
114.0
 30
0.0
 40
5.5
210
0.0
220
0.0
230
-1.0
100
AcDbArc
 50
180.0
 51
0.0
  0
LINE
  5
652F
330
1E
100
AcDbEntity
  8
24
  6
CONTINOUS
100
AcDbLine
 10
-53.99999999999995
 20
114.0
 30
0.0
 11
-36.0
 21
114.0
 31
0.0
  0
LINE
  5
6530
330
1E
100
AcDbEntity
  8
10
  6
CONTINUOUS
100
AcDbLine
 10
-50.5
 20
114.0
 30
0.0
 11
-50.5
 21
130.0
 31
0.0
  0
CIRCLE
  5
6531
330
1E
100
AcDbEntity
  8
12
  6
DASHED
100
AcDbCircle
 10
-22.50000000000001
 20
107.0
 30
0.0
 40
4.0
  0
LINE
  5
6532
330
1E
100
AcDbEntity
  8
12
  6
DASHED
100
AcDbLine
 10
-14.50000000000001
 20
107.0
 30
0.0
 11
-30.50000000000001
 21
107.0
 31
0.0
  0
LINE
  5
6533
330
1E
100
AcDbEntity
  8
10
  6
CONTINUOUS
100
AcDbLine
 10
-39.50000000000001
 20
114.0
 30
0.0
 11
-39.50000000000001
 21
130.0
 31
0.0
  0
LINE
  5
6534
330
1E
100
AcDbEntity
  8
24
  6
CONTINOUS
100
AcDbLine
 10
-49.00000000000002
 20
116.3094010767587
 30
0.0
 11
-49.00000000000002
 21
111.6905989232414
 31
0.0
  0
LINE
  5
6535
330
1E
100
AcDbEntity
  8
24
  6
CONTINOUS
100
AcDbLine
 10
-41.0
 20
111.6905989232414
 30
0.0
 11
-41.0
 21
116.3094010767587
 31
0.0
  0
LINE
  5
6536
330
1E
100
AcDbEntity
  8
24
  6
CONTINOUS
100
AcDbLine
 10
-45.0
 20
123.0
 30
0.0
 11
-45.0
 21
105.0
 31
0.0
  0
LINE
  5
6537
330
1E
100
AcDbEntity
  8
24
  6
CONTINOUS
100
AcDbLine
 10
-41.0
 20
116.3094010767587
 30
0.0
 11
-45.0
 21
118.6188021535169
 31
0.0
  0
LINE
  5
6538
330
1E
100
AcDbEntity
  8
24
  6
CONTINOUS
100
AcDbLine
 10
-45.0
 20
118.6188021535169
 30
0.0
 11
-49.00000000000002
 21
116.3094010767587
 31
0.0
  0
LINE
  5
6539
330
1E
100
AcDbEntity
  8
24
  6
CONTINOUS
100
AcDbLine
 10
-49.00000000000002
 20
111.6905989232414
 30
0.0
 11
-45.0
 21
109.3811978464831
 31
0.0
  0
LINE
  5
653A
330
1E
100
AcDbEntity
  8
24
  6
CONTINOUS
100
AcDbLine
 10
-45.0
 20
109.3811978464831
 30
0.0
 11
-41.0
 21
111.6905989232414
 31
0.0
  0
LINE
  5
653B
330
1E
100
AcDbEntity
  8
10
  6
CONTINUOUS
100
AcDbLine
 10
-5.500000000000011
 20
114.0
 30
0.0
 11
-5.500000000000013
 21
130.0
 31
0.0
  0
LINE
  5
653C
330
1E
100
AcDbEntity
  8
24
  6
CONTINOUS
100
AcDbLine
 10
-4.000000000000011
 20
116.3094010767587
 30
0.0
 11
-4.000000000000011
 21
111.6905989232414
 31
0.0
  0
LINE
  5
653D
330
1E
100
AcDbEntity
  8
24
  6
CONTINOUS
100
AcDbLine
 10
-0.0000000000000129
 20
123.0
 30
0.0
 11
-0.0000000000000111
 21
105.0
 31
0.0
  0
LINE
  5
653E
330
1E
100
AcDbEntity
  8
12
  6
DASHED
100
AcDbLine
 10
-22.50000000000001
 20
99.0
 30
0.0
 11
-22.50000000000001
 21
115.0
 31
0.0
  0
LINE
  5
653F
330
1E
100
AcDbEntity
  8
24
  6
CONTINOUS
100
AcDbLine
 10
-0.0000000000000125
 20
118.6188021535169
 30
0.0
 11
-4.000000000000011
 21
116.3094010767587
 31
0.0
  0
LINE
  5
6540
330
1E
100
AcDbEntity
  8
24
  6
CONTINOUS
100
AcDbLine
 10
-4.000000000000011
 20
111.6905989232414
 30
0.0
 11
-0.0000000000000115
 21
109.3811978464831
 31
0.0
  0
LINE
  5
6541
330
1E
100
AcDbEntity
  8
12
  6
DASHED
100
AcDbLine
 10
30.49999999999998
 20
107.0
 30
0.0
 11
14.49999999999999
 21
107.0
 31
0.0
  0
LINE
  5
6542
330
1E
100
AcDbEntity
  8
10
  6
CONTINUOUS
100
AcDbLine
 10
5.499999999999986
 20
114.0
 30
0.0
 11
5.499999999999986
 21
130.0
 31
0.0
  0
LINE
  5
6543
330
1E
100
AcDbEntity
  8
24
  6
CONTINOUS
100
AcDbLine
 10
3.999999999999986
 20
111.6905989232414
 30
0.0
 11
3.999999999999986
 21
116.3094010767587
 31
0.0
  0
LINE
  5
6544
330
1E
100
AcDbEntity
  8
12
  6
DASHED
100
AcDbLine
 10
22.49999999999999
 20
99.0
 30
0.0
 11
22.49999999999999
 21
115.0
 31
0.0
  0
CIRCLE
  5
6545
330
1E
100
AcDbEntity
  8
12
  6
DASHED
100
AcDbCircle
 10
22.49999999999999
 20
107.0
 30
0.0
 40
4.0
  0
LINE
  5
6546
330
1E
100
AcDbEntity
  8
10
  6
CONTINUOUS
100
AcDbLine
 10
50.49999999999998
 20
114.0
 30
0.0
 11
50.49999999999998
 21
130.0
 31
0.0
  0
LINE
  5
6547
330
1E
100
AcDbEntity
  8
10
  6
CONTINUOUS
100
AcDbLine
 10
39.49999999999996
 20
114.0
 30
0.0
 11
39.49999999999996
 21
130.0
 31
0.0
  0
LINE
  5
6548
330
1E
100
AcDbEntity
  8
24
  6
CONTINOUS
100
AcDbLine
 10
48.99999999999998
 20
111.6905989232414
 30
0.0
 11
48.99999999999998
 21
116.3094010767587
 31
0.0
  0
LINE
  5
6549
330
1E
100
AcDbEntity
  8
24
  6
CONTINOUS
100
AcDbLine
 10
44.99999999999999
 20
123.0
 30
0.0
 11
44.99999999999999
 21
105.0
 31
0.0
  0
LINE
  5
654A
330
1E
100
AcDbEntity
  8
24
  6
CONTINOUS
100
AcDbLine
 10
40.99999999999996
 20
116.3094010767587
 30
0.0
 11
40.99999999999996
 21
111.6905989232414
 31
0.0
  0
ARC
  5
654B
330
1E
100
AcDbEntity
  8
10
  6
CONTINUOUS
100
AcDbCircle
 10
-44.99999999999999
 20
114.0
 30
0.0
 40
8.0
210
0.0
220
0.0
230
-1.0
100
AcDbArc
 50
46.5674634422112
 51
133.4325365577887
  0
LINE
  5
654C
330
1E
100
AcDbEntity
  8
24
  6
CONTINOUS
100
AcDbLine
 10
44.99999999999999
 20
118.6188021535169
 30
0.0
 11
40.99999999999996
 21
116.3094010767587
 31
0.0
  0
LINE
  5
654D
330
1E
100
AcDbEntity
  8
24
  6
CONTINOUS
100
AcDbLine
 10
48.99999999999998
 20
116.3094010767587
 30
0.0
 11
44.99999999999999
 21
118.6188021535169
 31
0.0
  0
ARC
  5
654E
330
1E
100
AcDbEntity
  8
10
  6
CONTINUOUS
100
AcDbCircle
 10
-44.99999999999999
 20
114.0
 30
0.0
 40
5.5
210
0.0
220
0.0
230
-1.0
100
AcDbArc
 50
180.0
 51
0.0
  0
LINE
  5
654F
330
1E
100
AcDbEntity
  8
24
  6
CONTINOUS
100
AcDbLine
 10
36.00000000000003
 20
114.0
 30
0.0
 11
53.99999999999998
 21
114.0
 31
0.0
  0
LINE
  5
6550
330
1E
100
AcDbEntity
  8
24
  6
CONTINOUS
100
AcDbLine
 10
40.99999999999996
 20
111.6905989232414
 30
0.0
 11
44.99999999999999
 21
109.3811978464831
 31
0.0
  0
LINE
  5
6551
330
1E
100
AcDbEntity
  8
24
  6
CONTINOUS
100
AcDbLine
 10
44.99999999999999
 20
109.3811978464831
 30
0.0
 11
48.99999999999998
 21
111.6905989232414
 31
0.0
  0
LINE
  5
6552
330
1E
100
AcDbEntity
  8
10
  6
CONTINUOUS
100
AcDbLine
 10
84.49999999999999
 20
114.0
 30
0.0
 11
84.49999999999999
 21
130.0
 31
0.0
  0
LINE
  5
6553
330
1E
100
AcDbEntity
  8
10
  6
CONTINUOUS
100
AcDbLine
 10
95.49999999999998
 20
114.0
 30
0.0
 11
95.49999999999998
 21
130.0
 31
0.0
  0
LINE
  5
6554
330
1E
100
AcDbEntity
  8
24
  6
CONTINOUS
100
AcDbLine
 10
93.99999999999998
 20
111.6905989232414
 30
0.0
 11
93.99999999999998
 21
116.3094010767587
 31
0.0
  0
LINE
  5
6555
330
1E
100
AcDbEntity
  8
24
  6
CONTINOUS
100
AcDbLine
 10
85.99999999999999
 20
116.3094010767587
 30
0.0
 11
85.99999999999999
 21
111.6905989232414
 31
0.0
  0
LINE
  5
6556
330
1E
100
AcDbEntity
  8
24
  6
CONTINOUS
100
AcDbLine
 10
89.99999999999998
 20
123.0
 30
0.0
 11
89.99999999999998
 21
105.0
 31
0.0
  0
ARC
  5
6557
330
1E
100
AcDbEntity
  8
10
  6
CONTINUOUS
100
AcDbCircle
 10
-89.99999999999998
 20
114.0
 30
0.0
 40
8.0
210
0.0
220
0.0
230
-1.0
100
AcDbArc
 50
46.5674634422112
 51
133.4325365577887
  0
LINE
  5
6558
330
1E
100
AcDbEntity
  8
24
  6
CONTINOUS
100
AcDbLine
 10
93.99999999999998
 20
116.3094010767587
 30
0.0
 11
89.99999999999998
 21
118.6188021535169
 31
0.0
  0
LINE
  5
6559
330
1E
100
AcDbEntity
  8
24
  6
CONTINOUS
100
AcDbLine
 10
89.99999999999998
 20
118.6188021535169
 30
0.0
 11
85.99999999999999
 21
116.3094010767587
 31
0.0
  0
ARC
  5
655A
330
1E
100
AcDbEntity
  8
10
  6
CONTINUOUS
100
AcDbCircle
 10
-89.99999999999998
 20
114.0
 30
0.0
 40
5.5
210
0.0
220
0.0
230
-1.0
100
AcDbArc
 50
180.0
 51
0.0
  0
LINE
  5
655B
330
1E
100
AcDbEntity
  8
24
  6
CONTINOUS
100
AcDbLine
 10
81.0000000000001
 20
114.0
 30
0.0
 11
98.99999999999998
 21
114.0
 31
0.0
  0
LINE
  5
655C
330
1E
100
AcDbEntity
  8
24
  6
CONTINOUS
100
AcDbLine
 10
89.99999999999998
 20
109.3811978464831
 30
0.0
 11
93.99999999999998
 21
111.6905989232414
 31
0.0
  0
LINE
  5
655D
330
1E
100
AcDbEntity
  8
24
  6
CONTINOUS
100
AcDbLine
 10
85.99999999999999
 20
111.6905989232414
 30
0.0
 11
89.99999999999998
 21
109.3811978464831
 31
0.0
  0
DIMENSION
  5
655E
330
1E
100
AcDbEntity
  8
30
  6
CONTINUOUS
100
AcDbDimension
  2
*D12
 10
-116.0
 20
-507.0
 30
0.0
 11
-119.4999999999996
 21
-400.0
 31
0.0
 70
    32
  3
STANDARD
100
AcDbAlignedDimension
 13
-29.5
 23
-293.0
 33
0.0
 14
-29.5
 24
-507.0
 34
0.0
 50
90.0
100
AcDbRotatedDimension
  0
DIMENSION
  5
656B
330
1E
100
AcDbEntity
  8
30
  6
CONTINUOUS
100
AcDbDimension
  2
*D13
 10
22.49999999999999
 20
-573.0
 30
0.0
 11
-0.0000000000000033
 21
-569.5
 31
0.0
 70
    32
  3
STANDARD
100
AcDbAlignedDimension
 13
-22.5
 23
-514.0
 33
0.0
 14
22.5
 24
-514.0
 34
0.0
100
AcDbRotatedDimension
  0
LEADER
  5
6578
330
1E
100
AcDbEntity
  8
30
  6
CONTINUOUS
100
AcDbLeader
  3
STANDARD
 76
     3
 10
25.14777470489898
 20
-500.9416939151058
 30
0.0
 10
28.51757401958218
 20
-489.5364243490304
 30
0.0
 10
59.290277156128
 20
-489.5927781609698
 30
0.0
1001
ACAD
1000
DSTYLE
1002
{
1070
     5
1000
OPEN
1070
   342
1005
3B2
1002
}
  0
LINE
  5
6579
330
1E
100
AcDbEntity
  8
12
  6
DASHDOT
100
AcDbLine
 10
18.18757812485796
 20
-506.9997558594
 30
0.0
 11
26.8383585275319
 21
-506.9997558594
 31
0.0
  0
TEXT
  5
657A
330
1E
100
AcDbEntity
  8
30
  6
CONTINUOUS
100
AcDbText
 10
40.50306764299683
 20
-489.2571764883533
 30
0.0
 40
5.0
  1
M6
100
AcDbText
  0
DIMENSION
  5
657B
330
1E
100
AcDbEntity
  8
30
  6
CONTINUOUS
100
AcDbDimension
  2
*D14
 10
173.0
 20
-446.0
 30
0.0
 11
169.5
 21
-399.9999999999998
 31
0.0
 70
    32
  3
STANDARD
100
AcDbAlignedDimension
 13
202.0
 23
-354.0
 33
0.0
 14
196.0
 24
-446.0
 34
0.0
 50
90.0
100
AcDbRotatedDimension
  0
DIMENSION
  5
6588
330
1E
100
AcDbEntity
  8
30
  6
CONTINUOUS
100
AcDbDimension
  2
*D15
 10
314.0
 20
-462.0
 30
0.0
 11
255.0
 21
-458.4999999999998
 31
0.0
 70
    32
  3
STANDARD
100
AcDbAlignedDimension
 13
196.0
 23
-446.0
 33
0.0
 14
314.0
 24
-446.0
 34
0.0
100
AcDbRotatedDimension
  0
DIMENSION
  5
65D8
330
1E
100
AcDbEntity
  8
30
  6
CONTINUOUS
100
AcDbDimension
  2
*D16
 10
202.0
 20
-440.0
 30
0.0
 11
165.8333333333325
 21
-465.9999999999998
 31
0.0
 70
   164
  3
STANDARD
100
AcDbRadialDimension
 15
197.4028507412452
 25
-443.8556735718588
 35
0.0
 40
0.0
1001
ACAD
1000
DSTYLE
1002
{
1070
   288
1070
     1
1002
}
  0
DIMENSION
  5
6699
330
1E
100
AcDbEntity
  8
30
  6
CONTINUOUS
100
AcDbDimension
  2
*D21
 10
216.3937097878775
 20
-149.9997558594
 30
0.0
 11
288.8937097878775
 21
-146.4997558594
 31
0.0
 70
    32
  3
STANDARD
100
AcDbAlignedDimension
 13
361.3937097878775
 23
-90.49975585940003
 33
0.0
 14
216.3937097878775
 24
0.0
 34
0.0
100
AcDbRotatedDimension
  0
DIMENSION
  5
669A
330
1E
100
AcDbEntity
  8
30
  6
CONTINUOUS
100
AcDbDimension
  2
*D17
 10
376.0936609597775
 20
-139.9997558594
 30
0.0
 11
395.0
 21
-139.9997558594
 31
0.0
 70
   160
  3
STANDARD
100
AcDbAlignedDimension
 13
361.3937097878775
 23
-116.9997558594
 33
0.0
 14
376.0936609597775
 24
-112.9997558594
 34
0.0
100
AcDbRotatedDimension
  0
DIMENSION
  5
669B
330
1E
100
AcDbEntity
  8
30
  6
CONTINUOUS
100
AcDbDimension
  2
*D19
 10
258.3937097878775
 20
-139.9997558594
 30
0.0
 11
309.8937097878776
 21
-136.4997558594
 31
0.0
 70
    32
  3
STANDARD
100
AcDbAlignedDimension
 13
361.3937097878775
 23
-131.0
 33
0.0
 14
258.3937097878775
 24
-55.99975585940004
 34
0.0
100
AcDbRotatedDimension
  0
DIMENSION
  5
669C
330
1E
100
AcDbEntity
  8
30
  6
CONTINUOUS
100
AcDbDimension
  2
*D18
 10
326.3937097878776
 20
-189.9997558593997
 30
0.0
 11
343.8937097878775
 21
-186.4997558594
 31
0.0
 70
    32
  3
STANDARD
100
AcDbAlignedDimension
 13
361.3937097878775
 23
-130.0
 33
0.0
 14
326.3937097878776
 24
-174.5
 34
0.0
100
AcDbRotatedDimension
  0
DIMENSION
  5
669E
330
1E
100
AcDbEntity
  8
30
  6
CONTINUOUS
100
AcDbDimension
  2
*D20
 10
250.3937097878774
 20
-140.3330891927334
 30
0.0
 11
254.3937097878774
 21
-136.8330891927334
 31
0.0
 70
    32
  3
STANDARD
100
AcDbAlignedDimension
 13
258.3937097878775
 23
-55.99975585940004
 33
0.0
 14
250.3937097878774
 24
-45.0
 34
0.0
100
AcDbRotatedDimension
  0
LEADER
  5
6743
330
1E
100
AcDbEntity
  8
30
  6
CONTINUOUS
100
AcDbLeader
  3
STANDARD
 76
     3
 10
361.3937097878775
 20
-106.0
 30
0.0
 10
381.5450628219668
 20
-85.84763201255174
 30
0.0
 10
395.0638628843039
 20
-85.8370630914487
 30
0.0
211
-1.0
221
0.0
231
0.0
1001
ACAD
1000
DSTYLE
1002
{
1070
     5
1000
OPEN
1070
   342
1005
3B2
1002
}
  0
TEXT
  5
6744
330
1E
100
AcDbEntity
  8
30
  6
CONTINUOUS
100
AcDbText
 10
383.472019801799
 20
-84.32555634370919
 30
0.0
 40
4.0
  1
M6
100
AcDbText
  0
DIMENSION
  5
674E
330
1E
100
AcDbEntity
  8
30
  6
CONTINUOUS
100
AcDbDimension
  2
*D23
 10
318.3937097878775
 20
-189.9997558593997
 30
0.0
 11
322.3937097878776
 21
-186.4997558594
 31
0.0
 70
    32
  3
STANDARD
100
AcDbAlignedDimension
 13
326.3937097878776
 23
-174.5
 33
0.0
 14
318.3937097878775
 24
-174.5
 34
0.0
100
AcDbRotatedDimension
  0
LINE
  5
677B
330
1E
100
AcDbEntity
  8
10
  6
CONTINUOUS
 62
     2
100
AcDbLine
 10
308.3937097878775
 20
160.0
 30
0.0
 11
332.3937097878776
 21
160.0
 31
0.0
  0
LINE
  5
677C
330
1E
100
AcDbEntity
  8
10
  6
CONTINOUS
100
AcDbLine
 10
317.3937097878775
 20
174.5
 30
0.0
 11
317.3937097878775
 21
130.0
 31
0.0
  0
LINE
  5
677D
330
1E
100
AcDbEntity
  8
10
  6
CONTINOUS
100
AcDbLine
 10
325.3937097878775
 20
174.5
 30
0.0
 11
325.3937097878775
 21
130.0
 31
0.0
  0
LINE
  5
677E
330
1E
100
AcDbEntity
  8
10
  6
CONTINOUS
100
AcDbLine
 10
317.3937097878775
 20
174.5
 30
0.0
 11
325.3937097878775
 21
174.5
 31
0.0
  0
DIMENSION
  5
6849
330
1E
100
AcDbEntity
  8
30
  6
CONTINUOUS
100
AcDbDimension
  2
*D27
 10
325.3937097878775
 20
202.0
 30
0.0
 11
343.3937097878775
 21
205.5
 31
0.0
 70
    32
  3
STANDARD
100
AcDbAlignedDimension
 13
361.3937097878775
 23
130.0
 33
0.0
 14
325.3937097878775
 24
174.5
 34
0.0
100
AcDbRotatedDimension
  0
DIMENSION
  5
6868
330
1E
100
AcDbEntity
  8
30
  6
CONTINUOUS
100
AcDbDimension
  2
*D28
 10
317.3937097878775
 20
202.0
 30
0.0
 11
321.3937097878775
 21
205.5
 31
0.0
 70
    32
  3
STANDARD
100
AcDbAlignedDimension
 13
325.3937097878775
 23
174.5
 33
0.0
 14
317.3937097878775
 24
174.5
 34
0.0
100
AcDbRotatedDimension
  0
LINE
  5
6974
330
1E
100
AcDbEntity
  8
17
  6
DASHDOT
100
AcDbLine
 10
-32.64061876137698
 20
381.9334351675177
 30
0.0
 11
-57.35936876137697
 21
381.9334351675177
 31
0.0
  0
LINE
  5
6975
330
1E
100
AcDbEntity
  8
17
  6
DASHDOT
100
AcDbLine
 10
-32.33419538193704
 20
381.9334351675177
 30
0.0
 11
-57.33419538193704
 21
381.9334351675177
 31
0.0
  0
LINE
  5
6976
330
1E
100
AcDbEntity
  8
24
  6
CONTINOUS
100
AcDbLine
 10
-59.13424421003703
 20
381.9334351675177
 30
0.0
 11
-31.13424421003703
 21
381.9334351675177
 31
0.0
  0
LWPOLYLINE
  5
6977
330
1E
100
AcDbEntity
  8
24
  6
CONTINOUS
100
AcDbPolyline
 90
        2
 70
     0
 43
0.001
 10
-59.13424421003705
 20
378.8668703350356
 10
-31.13424421003704
 20
378.8668703350356
  0
LWPOLYLINE
  5
6978
330
1E
100
AcDbEntity
  8
10
  6
CONTINOUS
100
AcDbPolyline
 90
        4
 70
     1
 43
0.0
 10
-31.13424421003704
 20
378.8668703350356
 10
-81.54999999999995
 20
378.8668703350356
 10
-81.54999999999995
 20
370.8668703350356
 10
-31.13424421003704
 20
370.8668703350356
  0
LWPOLYLINE
  5
6979
330
1E
100
AcDbEntity
  8
10
  6
CONTINOUS
100
AcDbPolyline
 90
        4
 70
     0
 43
0.0
 10
-59.13424421003705
 20
379.9334351675176
 10
-59.13424421003705
 20
323.8668703350356
 10
-31.13424421003706
 20
323.8668703350356
 10
-31.13424421003704
 20
379.9334351675176
  0
LWPOLYLINE
  5
697A
330
1E
100
AcDbEntity
  8
24
  6
CONTINOUS
100
AcDbPolyline
 90
        2
 70
     0
 43
0.001
 10
-59.13424421003705
 20
381.9334351675177
 10
-59.13424421003705
 20
378.8668703350356
  0
LWPOLYLINE
  5
697B
330
1E
100
AcDbEntity
  8
10
  6
CONTINOUS
100
AcDbPolyline
 90
        4
 70
     0
 43
0.0
 10
-14.13424421003703
 20
379.9334351675176
 10
-14.13424421003706
 20
323.8668703350356
 10
13.86575578996291
 20
323.8668703350356
 10
13.86575578996291
 20
379.9334351675176
  0
LINE
  5
697C
330
1E
100
AcDbEntity
  8
24
  6
CONTINOUS
100
AcDbLine
 10
-35.09794538193701
 20
381.9334351675177
 30
0.0
 11
-48.57044538193708
 21
381.9334351675177
 31
0.0
  0
LINE
  5
697D
330
1E
100
AcDbEntity
  8
24
  6
CONTINOUS
100
AcDbLine
 10
-50.81725433935975
 20
381.9334351675177
 30
0.0
 11
-50.81725433935975
 21
378.8668703350356
 31
0.0
  0
LINE
  5
697E
330
1E
100
AcDbEntity
  8
24
  6
CONTINOUS
100
AcDbLine
 10
-39.18273318339419
 20
381.9334351675177
 30
0.0
 11
-39.18273318339419
 21
378.8668703350356
 31
0.0
  0
LWPOLYLINE
  5
697F
330
1E
100
AcDbEntity
  8
24
  6
CONTINOUS
100
AcDbPolyline
 90
        2
 70
     0
 43
0.001
 10
-31.13424421003704
 20
381.9334351675177
 10
-31.13424421003704
 20
378.8668703350356
  0
LINE
  5
6980
330
1E
100
AcDbEntity
  8
17
  6
DASHDOT
100
AcDbLine
 10
6.359381238623011
 20
381.9334351675177
 30
0.0
 11
-12.35936876137698
 21
381.9334351675177
 31
0.0
  0
LINE
  5
6981
330
1E
100
AcDbEntity
  8
17
  6
DASHDOT
100
AcDbLine
 10
6.665804618062947
 20
381.9334351675177
 30
0.0
 11
-12.33419538193704
 21
381.9334351675177
 31
0.0
  0
LINE
  5
6982
330
1E
100
AcDbEntity
  8
24
  6
CONTINOUS
100
AcDbLine
 10
-14.13424421003703
 20
381.9334351675177
 30
0.0
 11
13.86575578996291
 21
381.9334351675177
 31
0.0
  0
LWPOLYLINE
  5
6983
330
1E
100
AcDbEntity
  8
24
  6
CONTINOUS
100
AcDbPolyline
 90
        2
 70
     0
 43
0.001
 10
-14.13424421003703
 20
378.8668703350356
 10
13.86575578996291
 20
378.8668703350356
  0
LINE
  5
6984
330
1E
100
AcDbEntity
  8
24
  6
CONTINOUS
100
AcDbLine
 10
3.90205461806299
 20
381.9334351675177
 30
0.0
 11
-9.570445381937091
 21
381.9334351675177
 31
0.0
  0
LWPOLYLINE
  5
6986
330
1E
100
AcDbEntity
  8
24
  6
CONTINOUS
100
AcDbPolyline
 90
        2
 70
     0
 43
0.001
 10
-14.13424421003703
 20
381.9334351675177
 10
-14.13424421003703
 20
378.8668703350356
  0
LINE
  5
6987
330
1E
100
AcDbEntity
  8
24
  6
CONTINOUS
100
AcDbLine
 10
-5.817254339359761
 20
381.9334351675177
 30
0.0
 11
-5.817254339359761
 21
378.8668703350356
 31
0.0
  0
LINE
  5
6988
330
1E
100
AcDbEntity
  8
24
  6
CONTINOUS
100
AcDbLine
 10
5.817266816605792
 20
381.9334351675177
 30
0.0
 11
5.817266816605792
 21
378.8668703350356
 31
0.0
  0
LWPOLYLINE
  5
6989
330
1E
100
AcDbEntity
  8
24
  6
CONTINOUS
100
AcDbPolyline
 90
        2
 70
     0
 43
0.001
 10
13.86575578996291
 20
381.9334351675177
 10
13.86575578996291
 20
378.8668703350356
  0
LWPOLYLINE
  5
698A
330
1E
100
AcDbEntity
  8
10
  6
CONTINOUS
100
AcDbPolyline
 90
        4
 70
     0
 43
0.0
 10
30.86575578996294
 20
379.9334351675176
 10
30.86575578996293
 20
323.8668703350356
 10
58.86575578996292
 20
323.8668703350356
 10
58.86575578996295
 20
379.9334351675176
  0
LINE
  5
698B
330
1E
100
AcDbEntity
  8
24
  6
CONTINOUS
100
AcDbLine
 10
30.86575578996296
 20
381.9334351675177
 30
0.0
 11
58.86575578996295
 21
381.9334351675177
 31
0.0
  0
LWPOLYLINE
  5
698C
330
1E
100
AcDbEntity
  8
24
  6
CONTINOUS
100
AcDbPolyline
 90
        2
 70
     0
 43
0.001
 10
30.86575578996294
 20
378.8668703350356
 10
58.86575578996295
 20
378.8668703350356
  0
LINE
  5
698D
330
1E
100
AcDbEntity
  8
17
  6
DASHDOT
100
AcDbLine
 10
57.359381238623
 20
381.9334351675177
 30
0.0
 11
32.64063123862301
 21
381.9334351675177
 31
0.0
  0
LINE
  5
698E
330
1E
100
AcDbEntity
  8
17
  6
DASHDOT
100
AcDbLine
 10
57.66580461806293
 20
381.9334351675177
 30
0.0
 11
32.66580461806295
 21
381.9334351675177
 31
0.0
  0
LWPOLYLINE
  5
6990
330
1E
100
AcDbEntity
  8
24
  6
CONTINOUS
100
AcDbPolyline
 90
        2
 70
     0
 43
0.001
 10
30.86575578996294
 20
381.9334351675177
 10
30.86575578996294
 20
378.8668703350356
  0
LINE
  5
6991
330
1E
100
AcDbEntity
  8
24
  6
CONTINOUS
100
AcDbLine
 10
48.90205461806298
 20
381.9334351675177
 30
0.0
 11
41.42955461806289
 21
381.9334351675177
 31
0.0
  0
LINE
  5
6992
330
1E
100
AcDbEntity
  8
24
  6
CONTINOUS
100
AcDbLine
 10
39.1827456606402
 20
381.9334351675177
 30
0.0
 11
39.1827456606402
 21
378.8668703350356
 31
0.0
  0
LINE
  5
6993
330
1E
100
AcDbEntity
  8
24
  6
CONTINOUS
100
AcDbLine
 10
50.81726681660579
 20
381.9334351675177
 30
0.0
 11
50.81726681660579
 21
378.8668703350356
 31
0.0
  0
LWPOLYLINE
  5
6994
330
1E
100
AcDbEntity
  8
24
  6
CONTINOUS
100
AcDbPolyline
 90
        2
 70
     0
 43
0.001
 10
58.86575578996295
 20
381.9334351675177
 10
58.86575578996295
 20
378.8668703350356
  0
DIMENSION
  5
6995
330
1E
100
AcDbEntity
  8
30
  6
CONTINUOUS
100
AcDbDimension
  2
*D29
 10
137.5776291422274
 20
378.8668703350355
 30
0.0
 11
165.0
 21
396.1773353471171
 31
0.0
 70
   160
  1
ON SIDE 36\POFF SIDE 35
  3
STANDARD
100
AcDbAlignedDimension
 13
114.0
 23
414.8668703350357
 33
0.0
 14
102.8658105864999
 24
378.8668703350356
 34
0.0
 50
90.0
100
AcDbRotatedDimension
1001
ACAD
1000
DSTYLE
1002
{
1070
   287
1070
     5
1070
   287
1070
     5
1070
   287
1070
     5
1070
   287
1070
     5
1070
   287
1070
     5
1070
   287
1070
     5
1070
   287
1070
     5
1070
   287
1070
     5
1070
   287
1070
     5
1070
   279
1070
     2
1070
    79
1070
     3
1002
}
  0
LINE
  5
6996
330
1E
100
AcDbEntity
  8
17
  6
DASHDOT
100
AcDbLine
 10
-44.99999376137696
 20
391.3003055025535
 30
0.0
 11
-44.99999376137696
 21
316.9668459209356
 31
0.0
  0
LINE
  5
6997
330
1E
100
AcDbEntity
  8
17
  6
DASHDOT
100
AcDbLine
 10
0.0000062386230155
 20
391.3003055025535
 30
0.0
 11
0.0000062386230013
 21
316.9668459209356
 31
0.0
  0
LINE
  5
6998
330
1E
100
AcDbEntity
  8
17
  6
DASHDOT
100
AcDbLine
 10
45.00000623862301
 20
391.3003055025535
 30
0.0
 11
45.00000623862301
 21
316.9668459209356
 31
0.0
  0
LINE
  5
69B9
330
1E
100
AcDbEntity
  8
17
  6
DASHDOT
100
AcDbLine
 10
90.00001247724602
 20
391.3003055025535
 30
0.0
 11
90.00001247724602
 21
316.9668459209356
 31
0.0
  0
LWPOLYLINE
  5
69BA
330
1E
100
AcDbEntity
  8
10
  6
CONTINOUS
100
AcDbPolyline
 90
        4
 70
     0
 43
0.0
 10
75.86576202858593
 20
379.9334351675176
 10
75.86576202858593
 20
323.8668703350356
 10
103.8657620285859
 20
323.8668703350356
 10
103.8657620285859
 20
379.9334351675176
  0
LINE
  5
69BB
330
1E
100
AcDbEntity
  8
17
  6
DASHDOT
100
AcDbLine
 10
102.6658108566859
 20
381.9334351675177
 30
0.0
 11
77.66581085668597
 21
381.9334351675177
 31
0.0
  0
LINE
  5
69BC
330
1E
100
AcDbEntity
  8
17
  6
DASHDOT
100
AcDbLine
 10
102.3593874772459
 20
381.9334351675177
 30
0.0
 11
77.64063747724603
 21
381.9334351675177
 31
0.0
  0
LWPOLYLINE
  5
69BD
330
1E
100
AcDbEntity
  8
24
  6
CONTINOUS
100
AcDbPolyline
 90
        2
 70
     0
 43
0.001
 10
75.86576202858593
 20
378.8668703350356
 10
103.8657620285859
 20
378.8668703350356
  0
LINE
  5
69BE
330
1E
100
AcDbEntity
  8
24
  6
CONTINOUS
100
AcDbLine
 10
75.86576202858593
 20
381.9334351675177
 30
0.0
 11
103.8657620285859
 21
381.9334351675177
 31
0.0
  0
LWPOLYLINE
  5
69BF
330
1E
100
AcDbEntity
  8
24
  6
CONTINOUS
100
AcDbPolyline
 90
        2
 70
     0
 43
0.001
 10
75.86576202858593
 20
381.9334351675177
 10
75.86576202858593
 20
378.8668703350356
  0
LINE
  5
69C0
330
1E
100
AcDbEntity
  8
24
  6
CONTINOUS
100
AcDbLine
 10
93.90206085668598
 20
381.9334351675177
 30
0.0
 11
86.42956085668592
 21
381.9334351675177
 31
0.0
  0
LINE
  5
69C1
330
1E
100
AcDbEntity
  8
24
  6
CONTINOUS
100
AcDbLine
 10
84.18275189926324
 20
381.9334351675177
 30
0.0
 11
84.18275189926324
 21
378.8668703350356
 31
0.0
  0
LWPOLYLINE
  5
69C2
330
1E
100
AcDbEntity
  8
24
  6
CONTINOUS
100
AcDbPolyline
 90
        2
 70
     0
 43
0.001
 10
103.8657620285859
 20
381.9334351675177
 10
103.8657620285859
 20
378.8668703350356
  0
LINE
  5
69C3
330
1E
100
AcDbEntity
  8
24
  6
CONTINOUS
100
AcDbLine
 10
95.8172730552288
 20
381.9334351675177
 30
0.0
 11
95.8172730552288
 21
378.8668703350356
 31
0.0
  0
LWPOLYLINE
  5
69C9
330
1E
100
AcDbEntity
  8
10
  6
CONTINOUS
100
AcDbPolyline
 90
        4
 70
     1
 43
0.0
 10
-21.68424421003703
 20
378.8668703350356
 10
13.86575578996291
 20
378.8668703350356
 10
13.86575578996291
 20
370.8668703350356
 10
-21.68424421003703
 20
370.8668703350356
  0
LWPOLYLINE
  5
69CA
330
1E
100
AcDbEntity
  8
10
  6
CONTINOUS
100
AcDbPolyline
 90
        4
 70
     1
 43
0.0
 10
30.86575578996294
 20
378.8668703350356
 10
66.36575578996282
 20
378.8668703350356
 10
66.36575578996282
 20
370.8668703350356
 10
30.86575578996294
 20
370.8668703350356
  0
LWPOLYLINE
  5
69CB
330
1E
100
AcDbEntity
  8
10
  6
CONTINOUS
100
AcDbPolyline
 90
        4
 70
     1
 43
0.0
 10
75.86576202858593
 20
378.8668703350356
 10
126.3657620285858
 20
378.8668703350356
 10
126.3657620285858
 20
370.8668703350356
 10
75.86576202858593
 20
370.8668703350356
  0
LINE
  5
69F0
330
1E
100
AcDbEntity
  8
10
  6
CONTINOUS
100
AcDbLine
 10
57.99999999999998
 20
307.8668703350357
 30
0.0
 11
-57.99999999999998
 21
307.8668703350357
 31
0.0
  0
LINE
  5
69F1
330
1E
100
AcDbEntity
  8
10
  6
CONTINOUS
100
AcDbLine
 10
-57.99999999999998
 20
307.8668703350357
 30
0.0
 11
-57.99999999999998
 21
311.8668703350357
 31
0.0
  0
LINE
  5
69F2
330
1E
100
AcDbEntity
  8
10
  6
CONTINOUS
100
AcDbLine
 10
17.00000000000006
 20
275.3668703350355
 30
0.0
 11
-17.00000000000008
 21
275.3668703350355
 31
0.0
  0
LINE
  5
69F3
330
1E
100
AcDbEntity
  8
10
  6
CONTINOUS
100
AcDbLine
 10
18.00000000000001
 20
303.8668703350356
 30
0.0
 11
-17.99999999999992
 21
303.8668703350356
 31
0.0
  0
LINE
  5
69F4
330
1E
100
AcDbEntity
  8
10
  6
CONTINOUS
100
AcDbLine
 10
-17.00000000000008
 20
275.3668703350355
 30
0.0
 11
-17.00000000000008
 21
303.8668703350356
 31
0.0
  0
LINE
  5
69F5
330
1E
100
AcDbEntity
  8
10
  6
CONTINOUS
100
AcDbLine
 10
-17.99999999999992
 20
303.8668703350356
 30
0.0
 11
-17.99999999999992
 21
307.8668703350357
 31
0.0
  0
LINE
  5
69F6
330
1E
100
AcDbEntity
  8
10
  6
CONTINOUS
100
AcDbLine
 10
17.00000000000006
 20
275.3668703350355
 30
0.0
 11
17.00000000000006
 21
303.8668703350356
 31
0.0
  0
LINE
  5
69F7
330
1E
100
AcDbEntity
  8
10
  6
CONTINOUS
100
AcDbLine
 10
18.00000000000001
 20
303.8668703350356
 30
0.0
 11
18.00000000000001
 21
307.8668703350357
 31
0.0
  0
LINE
  5
69F8
330
1E
100
AcDbEntity
  8
10
  6
CONTINOUS
100
AcDbLine
 10
57.99999999999998
 20
307.8668703350357
 30
0.0
 11
57.99999999999998
 21
311.8668703350357
 31
0.0
  0
LINE
  5
69FA
330
1E
100
AcDbEntity
  8
10
  6
CONTINOUS
100
AcDbLine
 10
-69.99999999999999
 20
311.8668703350357
 30
0.0
 11
115.0
 21
311.8668703350357
 31
0.0
  0
LINE
  5
69FB
330
1E
100
AcDbEntity
  8
10
100
AcDbLine
 10
115.0
 20
317.8668703350357
 30
0.0
 11
115.0
 21
311.8668703350357
 31
0.0
  0
LINE
  5
69FC
330
1E
100
AcDbEntity
  8
10
  6
CONTINOUS
100
AcDbLine
 10
-69.99999999999999
 20
317.8668703350357
 30
0.0
 11
-69.99999999999999
 21
311.8668703350357
 31
0.0
  0
LINE
  5
6A47
330
1E
100
AcDbEntity
  8
10
  6
CONTINUOUS
100
AcDbLine
 10
-81.5
 20
152.0
 30
0.0
 11
-59.0
 21
130.0
 31
0.0
  0
LINE
  5
6A48
330
1E
100
AcDbEntity
  8
10
  6
CONTINUOUS
100
AcDbLine
 10
-81.5
 20
174.5
 30
0.0
 11
-53.5
 21
174.5
 31
0.0
  0
LINE
  5
6A49
330
1E
100
AcDbEntity
  8
10
  6
CONTINUOUS
 62
     2
100
AcDbLine
 10
-78.5
 20
160.0
 30
0.0
 11
-56.5
 21
160.0
 31
0.0
  0
LINE
  5
6A4A
330
1E
100
AcDbEntity
  8
10
  6
CONTINUOUS
100
AcDbLine
 10
-81.5
 20
174.5
 30
0.0
 11
-81.5
 21
152.0
 31
0.0
  0
LINE
  5
6A4B
330
1E
100
AcDbEntity
  8
10
  6
CONTINUOUS
100
AcDbLine
 10
-53.5
 20
174.5
 30
0.0
 11
-53.5
 21
156.0
 31
0.0
  0
LINE
  5
6A4C
330
1E
100
AcDbEntity
  8
10
  6
CONTINUOUS
100
AcDbLine
 10
-31.0
 20
130.0
 30
0.0
 11
-53.5
 21
156.0
 31
0.0
  0
CIRCLE
  5
6A4D
330
1E
100
AcDbEntity
  8
10
  6
CONTINUOUS
 62
     2
100
AcDbCircle
 10
67.5
 20
160.0
 30
0.0
 40
7.0
210
0.0
220
0.0
230
-1.0
  0
LINE
  5
6A4E
330
1E
100
AcDbEntity
  8
10
  6
CONTINUOUS
 62
     2
100
AcDbLine
 10
-67.5
 20
149.0
 30
0.0
 11
-67.5
 21
171.0
 31
0.0
  0
LINE
  5
6A4F
330
1E
100
AcDbEntity
  8
10
  6
CONTINUOUS
100
AcDbLine
 10
38.5
 20
174.5
 30
0.0
 11
66.49999999999988
 21
174.5
 31
0.0
  0
LINE
  5
6A50
330
1E
100
AcDbEntity
  8
10
  6
CONTINUOUS
 62
     2
100
AcDbLine
 10
41.5
 20
160.0
 30
0.0
 11
63.49999999999988
 21
160.0
 31
0.0
  0
CIRCLE
  5
6A51
330
1E
100
AcDbEntity
  8
10
  6
CONTINUOUS
 62
     2
100
AcDbCircle
 10
-52.49999999999989
 20
160.0
 30
0.0
 40
7.0
210
0.0
220
0.0
230
-1.0
  0
LINE
  5
6A52
330
1E
100
AcDbEntity
  8
18
100
AcDbLine
 10
-20.5
 20
130.0
 30
0.0
 11
-20.5
 21
239.9999999999999
 31
0.0
  0
LINE
  5
6A53
330
1E
100
AcDbEntity
  8
18
100
AcDbLine
 10
-24.5
 20
130.0
 30
0.0
 11
-24.5
 21
239.9999999999999
 31
0.0
  0
LINE
  5
6A54
330
1E
100
AcDbEntity
  8
10
  6
CONTINUOUS
100
AcDbLine
 10
6.5
 20
174.5
 30
0.0
 11
6.5
 21
150.0000000000003
 31
0.0
  0
LINE
  5
6A55
330
1E
100
AcDbEntity
  8
10
  6
CONTINUOUS
100
AcDbLine
 10
-21.49999999999999
 20
174.5
 30
0.0
 11
-21.49999999999999
 21
150.0000000000003
 31
0.0
  0
CIRCLE
  5
6A56
330
1E
100
AcDbEntity
  8
10
  6
CONTINUOUS
 62
     2
100
AcDbCircle
 10
7.5
 20
160.0
 30
0.0
 40
7.0
210
0.0
220
0.0
230
-1.0
  0
LINE
  5
6A57
330
1E
100
AcDbEntity
  8
10
  6
CONTINUOUS
 62
     2
100
AcDbLine
 10
-18.5
 20
160.0
 30
0.0
 11
3.5
 21
160.0
 31
0.0
  0
LINE
  5
6A58
330
1E
100
AcDbEntity
  8
10
  6
CONTINUOUS
100
AcDbLine
 10
-21.49999999999999
 20
150.0000000000003
 30
0.0
 11
-14.0
 21
130.0
 31
0.0
  0
LINE
  5
6A59
330
1E
100
AcDbEntity
  8
10
  6
CONTINUOUS
100
AcDbLine
 10
14.0
 20
130.0
 30
0.0
 11
6.5
 21
150.0000000000003
 31
0.0
  0
LINE
  5
6A5A
330
1E
100
AcDbEntity
  8
10
  6
CONTINUOUS
100
AcDbLine
 10
-7.5
 20
149.0
 30
0.0
 11
-7.5
 21
171.0
 31
0.0
  0
LINE
  5
6A5B
330
1E
100
AcDbEntity
  8
10
  6
CONTINUOUS
100
AcDbLine
 10
-21.49999999999999
 20
174.5
 30
0.0
 11
6.5
 21
174.5
 31
0.0
  0
LINE
  5
6A5C
330
1E
100
AcDbEntity
  8
18
100
AcDbLine
 10
-24.5
 20
239.9999999999999
 30
0.0
 11
-20.5
 21
239.9999999999999
 31
0.0
  0
LINE
  5
6A5D
330
1E
100
AcDbEntity
  8
18
100
AcDbLine
 10
20.5
 20
130.0
 30
0.0
 11
20.5
 21
239.9999999999999
 31
0.0
  0
LINE
  5
6A5E
330
1E
100
AcDbEntity
  8
10
  6
CONTINUOUS
100
AcDbLine
 10
38.5
 20
174.5
 30
0.0
 11
38.5
 21
150.0000000000003
 31
0.0
  0
LINE
  5
6A5F
330
1E
100
AcDbEntity
  8
18
100
AcDbLine
 10
24.5
 20
130.0
 30
0.0
 11
24.5
 21
239.9999999999999
 31
0.0
  0
LINE
  5
6A60
330
1E
100
AcDbEntity
  8
10
  6
CONTINUOUS
100
AcDbLine
 10
38.5
 20
150.0000000000003
 30
0.0
 11
31.0
 21
130.0
 31
0.0
  0
LINE
  5
6A61
330
1E
100
AcDbEntity
  8
10
  6
CONTINUOUS
 62
     2
100
AcDbLine
 10
52.49999999999989
 20
149.0
 30
0.0
 11
52.49999999999989
 21
171.0
 31
0.0
  0
LINE
  5
6A62
330
1E
100
AcDbEntity
  8
18
100
AcDbLine
 10
20.5
 20
239.9999999999999
 30
0.0
 11
24.5
 21
239.9999999999999
 31
0.0
  0
LINE
  5
6A63
330
1E
100
AcDbEntity
  8
10
  6
CONTINUOUS
100
AcDbLine
 10
98.49999999999987
 20
174.5
 30
0.0
 11
126.4999999999997
 21
174.5
 31
0.0
  0
LINE
  5
6A64
330
1E
100
AcDbEntity
  8
10
  6
CONTINUOUS
 62
     2
100
AcDbLine
 10
101.4999999999997
 20
160.0
 30
0.0
 11
123.4999999999996
 21
160.0
 31
0.0
  0
LINE
  5
6A65
330
1E
100
AcDbEntity
  8
18
100
AcDbLine
 10
65.5
 20
130.0
 30
0.0
 11
65.5
 21
239.9999999999999
 31
0.0
  0
LINE
  5
6A66
330
1E
100
AcDbEntity
  8
18
100
AcDbLine
 10
69.5
 20
130.0
 30
0.0
 11
69.5
 21
239.9999999999999
 31
0.0
  0
LINE
  5
6A67
330
1E
100
AcDbEntity
  8
10
  6
CONTINUOUS
100
AcDbLine
 10
66.49999999999988
 20
174.5
 30
0.0
 11
66.5
 21
150.0000000000003
 31
0.0
  0
LINE
  5
6A68
330
1E
100
AcDbEntity
  8
10
  6
CONTINUOUS
100
AcDbLine
 10
98.49999999999987
 20
174.5
 30
0.0
 11
98.50000000000001
 21
156.0
 31
0.0
  0
LINE
  5
6A69
330
1E
100
AcDbEntity
  8
10
  6
CONTINUOUS
100
AcDbLine
 10
98.50000000000001
 20
156.0
 30
0.0
 11
76.0
 21
130.0
 31
0.0
  0
LINE
  5
6A6A
330
1E
100
AcDbEntity
  8
10
  6
CONTINUOUS
100
AcDbLine
 10
59.0
 20
130.0
 30
0.0
 11
66.5
 21
150.0000000000003
 31
0.0
  0
LINE
  5
6A6B
330
1E
100
AcDbEntity
  8
18
100
AcDbLine
 10
65.5
 20
239.9999999999999
 30
0.0
 11
69.5
 21
239.9999999999999
 31
0.0
  0
LINE
  5
6A6C
330
1E
100
AcDbEntity
  8
10
  6
CONTINUOUS
100
AcDbLine
 10
126.4999999999997
 20
174.5
 30
0.0
 11
126.5
 21
152.0
 31
0.0
  0
LINE
  5
6A6D
330
1E
100
AcDbEntity
  8
10
  6
CONTINUOUS
100
AcDbLine
 10
104.0
 20
130.0
 30
0.0
 11
126.5
 21
152.0
 31
0.0
  0
CIRCLE
  5
6A6E
330
1E
100
AcDbEntity
  8
10
  6
CONTINUOUS
 62
     2
100
AcDbCircle
 10
-112.4999999999998
 20
160.0
 30
0.0
 40
7.0
210
0.0
220
0.0
230
-1.0
  0
LINE
  5
6A6F
330
1E
100
AcDbEntity
  8
10
  6
CONTINUOUS
 62
     2
100
AcDbLine
 10
112.4999999999998
 20
149.0
 30
0.0
 11
112.4999999999998
 21
171.0
 31
0.0
  0
DIMENSION
  5
6A9C
330
1E
100
AcDbEntity
  8
30
  6
CONTINUOUS
100
AcDbDimension
  2
*D31
 10
-65.93432241072811
 20
153.0626343881255
 30
0.0
 11
-54.86963796348344
 21
184.4805147390158
 31
0.0
 70
   163
  3
STANDARD
100
AcDbDiametricDimension
 15
-64.06567758927178
 25
166.9373656118733
 35
0.0
 40
0.0
1001
ACAD
1000
DSTYLE
1002
{
1070
    79
1070
     3
1070
   288
1070
     1
1002
}
  0
DIMENSION
  5
6A9D
330
1E
100
AcDbEntity
  8
30
  6
CONTINUOUS
100
AcDbDimension
  2
*D32
 10
-119.9999999999999
 20
159.9999999999996
 30
0.0
 11
-119.9999999999999
 21
168.0
 31
0.0
 70
   160
  3
STANDARD
100
AcDbAlignedDimension
 13
-85.00000000000005
 23
174.4999999999995
 33
0.0
 14
-82.00000000000004
 24
159.9999999999996
 34
0.0
 50
90.0
100
AcDbRotatedDimension
1001
ACAD
1000
DSTYLE
1002
{
1070
    79
1070
     3
1002
}
  0
DIMENSION
  5
6A9E
330
1E
100
AcDbEntity
  8
30
  6
CONTINUOUS
100
AcDbDimension
  2
*D33
 10
-119.9999999999999
 20
129.9999999999996
 30
0.0
 11
-123.4999999999999
 21
144.9999999999995
 31
0.0
 70
    32
  3
STANDARD
100
AcDbAlignedDimension
 13
-82.00000000000004
 23
159.9999999999996
 33
0.0
 14
-81.00000000000006
 24
129.9999999999996
 34
0.0
 50
90.0
100
AcDbRotatedDimension
1001
ACAD
1000
DSTYLE
1002
{
1070
   287
1070
     4
1070
   287
1070
     4
1070
   287
1070
     4
1070
   287
1070
     4
1070
   287
1070
     4
1070
   287
1070
     4
1070
   287
1070
     4
1070
   287
1070
     4
1070
   287
1070
     4
1070
   287
1070
     4
1070
   279
1070
     1
1070
    79
1070
     3
1002
}
  0
LINE
  5
6CCD
330
1E
100
AcDbEntity
  8
10
  6
CONTINOUS
100
AcDbLine
 10
115.0
 20
317.8668703350357
 30
0.0
 11
-69.99993896483989
 21
317.8668703350357
 31
0.0
  0
LINE
  5
6CCE
330
1E
100
AcDbEntity
  8
10
  6
CONTINOUS
100
AcDbLine
 10
-69.99993896483989
 20
317.8668703350357
 30
0.0
 11
-69.99993896483989
 21
414.8668703350357
 31
0.0
  0
LINE
  5
6CCF
330
1E
100
AcDbEntity
  8
10
  6
CONTINOUS
100
AcDbLine
 10
-69.99993896483989
 20
414.8668703350357
 30
0.0
 11
115.0
 21
414.8668703350357
 31
0.0
  0
LINE
  5
6CD0
330
1E
100
AcDbEntity
  8
10
  6
CONTINOUS
100
AcDbLine
 10
115.0
 20
414.8668703350357
 30
0.0
 11
115.0
 21
317.8668703350357
 31
0.0
  0
VIEWPORT
  5
9AC
330
1A
100
AcDbEntity
 67
     1
  8
0
  6
CONTINUOUS
100
AcDbViewport
 10
171.9995348790992
 20
144.1384735538403
 30
0.0
 40
488.8676857773511
 41
292.3514905034161
 68
     1
 69
     1
1001
ACAD
1000
MVIEW
1002
{
1070
    16
1010
0.0
1020
0.0
1030
0.0
1010
0.0
1020
0.0
1030
1.0
1040
0.0
1040
292.3514905034161
1040
171.9995348790992
1040
144.1384735538403
1040
50.0
1040
0.0
1040
0.0
1070
     0
1070
   100
1070
     1
1070
     1
1070
     0
1070
     0
1070
     0
1070
     0
1040
0.0
1040
0.0
1040
0.0
1040
10.0
1040
10.0
1040
10.0
1040
10.0
1070
     0
1002
{
1002
}
1002
}
  0
ENDSEC
  0
SECTION
  2
OBJECTS
  0
DICTIONARY
  5
C
330
0
100
AcDbDictionary
  3
ACAD_GROUP
350
D
  3
ACAD_LAYOUT
350
19
  3
ACAD_MLINESTYLE
350
16
  3
ACAD_PLOTSETTINGS
350
18
  3
ACAD_PLOTSTYLENAME
350
E
  3
ACDBHEADERROUNDTRIPXREC
350
6D08
  3
ACDBVARIABLEDICTIONARY
350
5FA7
  0
DICTIONARY
  5
178
330
1E
100
AcDbDictionary
280
     1
  3
ACAD_LAYOUTSELFREF
360
6D2A
  0
DICTIONARY
  5
17A
330
1A
100
AcDbDictionary
280
     1
  3
ACAD_LAYOUTSELFREF
360
6D29
  0
DICTIONARY
  5
D
102
{ACAD_REACTORS
330
C
102
}
330
C
100
AcDbDictionary
  0
DICTIONARY
  5
19
102
{ACAD_REACTORS
330
C
102
}
330
C
100
AcDbDictionary
  0
DICTIONARY
  5
16
102
{ACAD_REACTORS
330
C
102
}
330
C
100
AcDbDictionary
  3
STANDARD
350
17
  0
DICTIONARY
  5
18
102
{ACAD_REACTORS
330
C
102
}
330
C
100
AcDbDictionary
  0
ACDBDICTIONARYWDFLT
  5
E
102
{ACAD_REACTORS
330
C
102
}
330
C
100
AcDbDictionary
281
     1
  3
Normal
350
F
100
AcDbDictionaryWithDefault
340
F
  0
DICTIONARY
  5
6D08
102
{ACAD_REACTORS
330
C
102
}
330
C
100
AcDbDictionary
  3
CEPSNTYPE
350
6D12
  3
DIMSTYLEDATA
350
6D16
  3
FINGERPRINTGUID
350
6D13
  3
HYPERLINKBASE
350
6D0B
  3
INSUNITS
350
6D11
  3
LAYOUTDICT
350
6D0D
  3
LWETCUNION
350
6D10
  3
PLOTSETDICT
350
6D0E
  3
PLOTSTYLNAMDICT
350
6D0F
  3
PSVPSCALE
350
6D15
  3
PUCSBASE
350
6D19
  3
PUCSORGBACK
350
6D1F
  3
PUCSORGBOTTOM
350
6D1B
  3
PUCSORGFRONT
350
6D1E
  3
PUCSORGLEFT
350
6D1C
  3
PUCSORGRIGHT
350
6D1D
  3
PUCSORGTOP
350
6D1A
  3
PUCSORTHOREF
350
6D17
  3
PUCSORTHOVIEW
350
6D18
  3
STYLESHEET
350
6D0C
  3
TSTACKALIGN
350
6D09
  3
TSTACKSIZE
350
6D0A
  3
UCSBASE
350
6D22
  3
UCSORGBACK
350
6D28
  3
UCSORGBOTTOM
350
6D24
  3
UCSORGFRONT
350
6D27
  3
UCSORGLEFT
350
6D25
  3
UCSORGRIGHT
350
6D26
  3
UCSORGTOP
350
6D23
  3
UCSORTHOREF
350
6D20
  3
UCSORTHOVIEW
350
6D21
  3
VERSIONGUID
350
6D14
  0
DICTIONARY
  5
5FA7
102
{ACAD_REACTORS
330
C
102
}
330
C
100
AcDbDictionary
  3
DIMASSOC
350
5FA8
  0
XRECORD
  5
6D2A
102
{ACAD_REACTORS
330
178
102
}
330
178
100
AcDbXrecord
340
1E
  0
XRECORD
  5
6D29
102
{ACAD_REACTORS
330
17A
102
}
330
17A
100
AcDbXrecord
340
1A
  0
MLINESTYLE
  5
17
102
{ACAD_REACTORS
330
16
102
}
330
16
100
AcDbMlineStyle
  2
STANDARD
 70
     0
  3

 62
   256
 51
90.0
 52
90.0
 71
     2
 49
0.5
 62
   256
  6
BYLAYER
 49
-0.5
 62
   256
  6
BYLAYER
  0
ACDBPLACEHOLDER
  5
F
102
{ACAD_REACTORS
330
E
102
}
330
E
100
AcDbPlaceHolder
280
     0
  0
XRECORD
  5
6D12
102
{ACAD_REACTORS
330
6D08
102
}
330
6D08
100
AcDbXrecord
 90
        0
  0
XRECORD
  5
6D16
102
{ACAD_REACTORS
330
6D08
102
}
330
6D08
100
AcDbXrecord
1000
DSTYLE
1002
{
1070
    79
 70
     3
1070
   341
340
3B2
1070
   342
340
3B2
1002
}
  0
XRECORD
  5
6D13
102
{ACAD_REACTORS
330
6D08
102
}
330
6D08
100
AcDbXrecord
  1

  0
XRECORD
  5
6D0B
102
{ACAD_REACTORS
330
6D08
102
}
330
6D08
100
AcDbXrecord
  1

  0
XRECORD
  5
6D11
102
{ACAD_REACTORS
330
6D08
102
}
330
6D08
100
AcDbXrecord
 90
        0
  0
XRECORD
  5
6D0D
102
{ACAD_REACTORS
330
6D08
102
}
330
6D08
100
AcDbXrecord
340
19
  0
XRECORD
  5
6D10
102
{ACAD_REACTORS
330
6D08
102
}
330
6D08
100
AcDbXrecord
 90
    10781
  0
XRECORD
  5
6D0E
102
{ACAD_REACTORS
330
6D08
102
}
330
6D08
100
AcDbXrecord
340
18
  0
XRECORD
  5
6D0F
102
{ACAD_REACTORS
330
6D08
102
}
330
6D08
100
AcDbXrecord
340
E
  0
XRECORD
  5
6D15
102
{ACAD_REACTORS
330
6D08
102
}
330
6D08
100
AcDbXrecord
 40
0.0
  0
XRECORD
  5
6D19
102
{ACAD_REACTORS
330
6D08
102
}
330
6D08
100
AcDbXrecord
340
0
  0
XRECORD
  5
6D1F
102
{ACAD_REACTORS
330
6D08
102
}
330
6D08
100
AcDbXrecord
 10
0.0
 20
0.0
 30
0.0
  0
XRECORD
  5
6D1B
102
{ACAD_REACTORS
330
6D08
102
}
330
6D08
100
AcDbXrecord
 10
0.0
 20
0.0
 30
0.0
  0
XRECORD
  5
6D1E
102
{ACAD_REACTORS
330
6D08
102
}
330
6D08
100
AcDbXrecord
 10
0.0
 20
0.0
 30
0.0
  0
XRECORD
  5
6D1C
102
{ACAD_REACTORS
330
6D08
102
}
330
6D08
100
AcDbXrecord
 10
0.0
 20
0.0
 30
0.0
  0
XRECORD
  5
6D1D
102
{ACAD_REACTORS
330
6D08
102
}
330
6D08
100
AcDbXrecord
 10
0.0
 20
0.0
 30
0.0
  0
XRECORD
  5
6D1A
102
{ACAD_REACTORS
330
6D08
102
}
330
6D08
100
AcDbXrecord
 10
0.0
 20
0.0
 30
0.0
  0
XRECORD
  5
6D17
102
{ACAD_REACTORS
330
6D08
102
}
330
6D08
100
AcDbXrecord
340
0
  0
XRECORD
  5
6D18
102
{ACAD_REACTORS
330
6D08
102
}
330
6D08
100
AcDbXrecord
 70
     0
  0
XRECORD
  5
6D0C
102
{ACAD_REACTORS
330
6D08
102
}
330
6D08
100
AcDbXrecord
  1
monochrome.ctb
  0
XRECORD
  5
6D09
102
{ACAD_REACTORS
330
6D08
102
}
330
6D08
100
AcDbXrecord
 90
        1
  0
XRECORD
  5
6D0A
102
{ACAD_REACTORS
330
6D08
102
}
330
6D08
100
AcDbXrecord
 90
       70
  0
XRECORD
  5
6D22
102
{ACAD_REACTORS
330
6D08
102
}
330
6D08
100
AcDbXrecord
340
0
  0
XRECORD
  5
6D28
102
{ACAD_REACTORS
330
6D08
102
}
330
6D08
100
AcDbXrecord
 10
0.0
 20
0.0
 30
0.0
  0
XRECORD
  5
6D24
102
{ACAD_REACTORS
330
6D08
102
}
330
6D08
100
AcDbXrecord
 10
0.0
 20
0.0
 30
0.0
  0
XRECORD
  5
6D27
102
{ACAD_REACTORS
330
6D08
102
}
330
6D08
100
AcDbXrecord
 10
0.0
 20
0.0
 30
0.0
  0
XRECORD
  5
6D25
102
{ACAD_REACTORS
330
6D08
102
}
330
6D08
100
AcDbXrecord
 10
0.0
 20
0.0
 30
0.0
  0
XRECORD
  5
6D26
102
{ACAD_REACTORS
330
6D08
102
}
330
6D08
100
AcDbXrecord
 10
0.0
 20
0.0
 30
0.0
  0
XRECORD
  5
6D23
102
{ACAD_REACTORS
330
6D08
102
}
330
6D08
100
AcDbXrecord
 10
0.0
 20
0.0
 30
0.0
  0
XRECORD
  5
6D20
102
{ACAD_REACTORS
330
6D08
102
}
330
6D08
100
AcDbXrecord
340
0
  0
XRECORD
  5
6D21
102
{ACAD_REACTORS
330
6D08
102
}
330
6D08
100
AcDbXrecord
 70
     0
  0
XRECORD
  5
6D14
102
{ACAD_REACTORS
330
6D08
102
}
330
6D08
100
AcDbXrecord
  1
{FD3FC5A7-2FBD-448E-8774-5C13CE8B493C}
  0
DICTIONARYVAR
  5
5FA8
102
{ACAD_REACTORS
330
5FA7
102
}
330
5FA7
100
DictionaryVariables
280
     0
  1
1
  0
ENDSEC
  0
EOF
