  0
SECTION
  2
HEADER
  9
$ACADVER
  1
AC1014
  9
$ACADMAINTVER
 70
     9
  9
$DWGCODEPAGE
  3
ANSI_932
  9
$INSBASE
 10
0.0
 20
0.0
 30
0.0
  9
$EXTMIN
 10
-122.5533200387683
 20
-513.176437593298
 30
-0.0015258207003583
  9
$EXTMAX
 10
499.3643222537944
 20
499.5944439986201
 30
0.0000000349246037
  9
$LIMMIN
 10
-296.316999476111
 20
-370.7034300441653
  9
$LIMMAX
 10
623.3128432133979
 20
328.6261559379898
  9
$ORTHOMODE
 70
     1
  9
$REGENMODE
 70
     1
  9
$FILLMODE
 70
     1
  9
$QTEXTMODE
 70
     0
  9
$MIRRTEXT
 70
     1
  9
$DRAGMODE
 70
     2
  9
$LTSCALE
 40
10.0
  9
$OSMODE
 70
    37
  9
$ATTMODE
 70
     1
  9
$TEXTSIZE
 40
5.0
  9
$TRACEWID
 40
0.05
  9
$TEXTSTYLE
  7
STANDARD1
  9
$CLAYER
  8
30
  9
$CELTYPE
  6
CONTINUOUS
  9
$CECOLOR
 62
   256
  9
$CELTSCALE
 40
1.0
  9
$DELOBJ
 70
     1
  9
$DISPSILH
 70
     0
  9
$DIMSCALE
 40
1.0
  9
$DIMASZ
 40
2.0
  9
$DIMEXO
 40
1.0
  9
$DIMDLI
 40
0.5
  9
$DIMRND
 40
0.0
  9
$DIMDLE
 40
0.0
  9
$DIMEXE
 40
0.5
  9
$DIMTP
 40
0.0
  9
$DIMTM
 40
0.0
  9
$DIMTXT
 40
6.0
  9
$DIMCEN
 40
0.09
  9
$DIMTSZ
 40
0.0
  9
$DIMTOL
 70
     0
  9
$DIMLIM
 70
     0
  9
$DIMTIH
 70
     0
  9
$DIMTOH
 70
     1
  9
$DIMSE1
 70
     0
  9
$DIMSE2
 70
     0
  9
$DIMTAD
 70
     3
  9
$DIMZIN
 70
    12
  9
$DIMBLK
  1
OPEN
  9
$DIMASO
 70
     1
  9
$DIMSHO
 70
     1
  9
$DIMPOST
  1

  9
$DIMAPOST
  1

  9
$DIMALT
 70
     0
  9
$DIMALTD
 70
     2
  9
$DIMALTF
 40
25.4
  9
$DIMLFAC
 40
1.0
  9
$DIMTOFL
 70
     0
  9
$DIMTVP
 40
0.0
  9
$DIMTIX
 70
     0
  9
$DIMSOXD
 70
     0
  9
$DIMSAH
 70
     0
  9
$DIMBLK1
  1

  9
$DIMBLK2
  1

  9
$DIMSTYLE
  2
STANDARD
  9
$DIMCLRD
 70
     0
  9
$DIMCLRE
 70
     0
  9
$DIMCLRT
 70
     0
  9
$DIMTFAC
 40
1.0
  9
$DIMGAP
 40
1.0
  9
$DIMJUST
 70
     0
  9
$DIMSD1
 70
     0
  9
$DIMSD2
 70
     0
  9
$DIMTOLJ
 70
     1
  9
$DIMTZIN
 70
     0
  9
$DIMALTZ
 70
     0
  9
$DIMALTTZ
 70
     0
  9
$DIMFIT
 70
     3
  9
$DIMUPT
 70
     0
  9
$DIMUNIT
 70
     2
  9
$DIMDEC
 70
     1
  9
$DIMTDEC
 70
     1
  9
$DIMALTU
 70
     2
  9
$DIMALTTD
 70
     2
  9
$DIMTXSTY
  7
STANDARD
  9
$DIMAUNIT
 70
     0
  9
$LUNITS
 70
     2
  9
$LUPREC
 70
     4
  9
$SKETCHINC
 40
0.1
  9
$FILLETRAD
 40
0.0
  9
$AUNITS
 70
     0
  9
$AUPREC
 70
     0
  9
$MENU
  1
.
  9
$ELEVATION
 40
0.0
  9
$PELEVATION
 40
0.0
  9
$THICKNESS
 40
0.0
  9
$LIMCHECK
 70
     0
  9
$BLIPMODE
 70
     0
  9
$CHAMFERA
 40
0.0
  9
$CHAMFERB
 40
0.0
  9
$CHAMFERC
 40
0.0
  9
$CHAMFERD
 40
0.0
  9
$SKPOLY
 70
     0
  9
$TDCREATE
 40
2452286.555658657
  9
$TDUPDATE
 40
2453226.927222222
  9
$TDINDWG
 40
1.3992180093
  9
$TDUSRTIMER
 40
1.3992153356
  9
$USRTIMER
 70
     1
  9
$ANGBASE
 50
0.0
  9
$ANGDIR
 70
     0
  9
$PDMODE
 70
     0
  9
$PDSIZE
 40
0.0
  9
$PLINEWID
 40
0.0
  9
$COORDS
 70
     0
  9
$SPLFRAME
 70
     0
  9
$SPLINETYPE
 70
     6
  9
$SPLINESEGS
 70
     8
  9
$ATTDIA
 70
     0
  9
$ATTREQ
 70
     1
  9
$HANDLING
 70
 22529
  9
$HANDSEED
  5
9147
  9
$SURFTAB1
 70
     6
  9
$SURFTAB2
 70
     6
  9
$SURFTYPE
 70
     6
  9
$SURFU
 70
     6
  9
$SURFV
 70
     6
  9
$UCSNAME
  2

  9
$UCSORG
 10
0.0
 20
0.0
 30
0.0
  9
$UCSXDIR
 10
1.0
 20
0.0
 30
0.0
  9
$UCSYDIR
 10
0.0
 20
1.0
 30
0.0
  9
$PUCSNAME
  2

  9
$PUCSORG
 10
0.0
 20
0.0
 30
0.0
  9
$PUCSXDIR
 10
1.0
 20
0.0
 30
0.0
  9
$PUCSYDIR
 10
0.0
 20
1.0
 30
0.0
  9
$USERI1
 70
     0
  9
$USERI2
 70
     0
  9
$USERI3
 70
     0
  9
$USERI4
 70
     0
  9
$USERI5
 70
     0
  9
$USERR1
 40
0.0
  9
$USERR2
 40
0.0
  9
$USERR3
 40
0.0
  9
$USERR4
 40
0.0
  9
$USERR5
 40
0.0
  9
$WORLDVIEW
 70
     1
  9
$SHADEDGE
 70
     3
  9
$SHADEDIF
 70
    70
  9
$TILEMODE
 70
     1
  9
$MAXACTVP
 70
    48
  9
$PINSBASE
 10
0.0
 20
0.0
 30
0.0
  9
$PLIMCHECK
 70
     0
  9
$PEXTMIN
 10
4.273573
 20
5.205245999999998
 30
0.0
  9
$PEXTMAX
 10
194.610095
 20
283.0697009999996
 30
0.0
  9
$PLIMMIN
 10
-5.873749
 20
-5.87375
  9
$PLIMMAX
 10
204.099579
 20
291.1369009999999
  9
$UNITMODE
 70
     0
  9
$VISRETAIN
 70
     1
  9
$PLINEGEN
 70
     0
  9
$PSLTSCALE
 70
     1
  9
$TREEDEPTH
 70
  3020
  9
$PICKSTYLE
 70
     1
  9
$CMLSTYLE
  2
STANDARD
  9
$CMLJUST
 70
     0
  9
$CMLSCALE
 40
1.0
  9
$PROXYGRAPHICS
 70
     1
  9
$MEASUREMENT
 70
     0
  0
ENDSEC
  0
SECTION
  2
CLASSES
  0
CLASS
  1
ACDBDICTIONARYWDFLT
  2
AcDbDictionaryWithDefault
  3
AutoCAD 2000
 90
        0
280
     0
281
     0
  0
CLASS
  1
ACDBPLACEHOLDER
  2
AcDbPlaceHolder
  3
AutoCAD 2000
 90
        0
280
     0
281
     0
  0
CLASS
  1
LAYOUT
  2
AcDbLayout
  3
AutoCAD 2000
 90
        0
280
     0
281
     0
  0
CLASS
  1
LONG_TRANSACTION
  2
AcDbLongTransaction
  3
AutoCAD 2000
 90
        0
280
     0
281
     0
  0
CLASS
  1
LWPOLYLINE
  2
AcDbPolyline
  3
AutoCAD 2000
 90
        0
280
     0
281
     1
  0
CLASS
  1
HATCH
  2
AcDbHatch
  3
AutoCAD 2000
 90
        0
280
     0
281
     1
  0
CLASS
  1
XRECORD
  2
AcDbXrecord
  3
AutoCAD 2000
 90
        0
280
     0
281
     0
  0
CLASS
  1
LONG_TRANSACTION
  2
AcDbLongTransaction
  3
AutoCAD 2000
 90
        0
280
     0
281
     0
  0
CLASS
  1
LWPOLYLINE
  2
AcDbPolyline
  3
AutoCAD 2000
 90
        0
280
     0
281
     1
  0
CLASS
  1
HATCH
  2
AcDbHatch
  3
AutoCAD 2000
 90
        0
280
     0
281
     1
  0
CLASS
  1
XRECORD
  2
AcDbXrecord
  3
AutoCAD 2000
 90
        0
280
     0
281
     0
  0
CLASS
  1
LONG_TRANSACTION
  2
AcDbLongTransaction
  3
AutoCAD 2000
 90
        0
280
     0
281
     0
  0
CLASS
  1
LWPOLYLINE
  2
AcDbPolyline
  3
AutoCAD 2000
 90
        0
280
     0
281
     1
  0
CLASS
  1
HATCH
  2
AcDbHatch
  3
AutoCAD 2000
 90
        0
280
     0
281
     1
  0
CLASS
  1
XRECORD
  2
AcDbXrecord
  3
AutoCAD 2000
 90
        0
280
     0
281
     0
  0
CLASS
  1
LONG_TRANSACTION
  2
AcDbLongTransaction
  3
AutoCAD 2000
 90
        0
280
     0
281
     0
  0
CLASS
  1
LWPOLYLINE
  2
AcDbPolyline
  3
AutoCAD 2000
 90
        0
280
     0
281
     1
  0
CLASS
  1
HATCH
  2
AcDbHatch
  3
AutoCAD 2000
 90
        0
280
     0
281
     1
  0
CLASS
  1
XRECORD
  2
AcDbXrecord
  3
AutoCAD 2000
 90
        0
280
     0
281
     0
  0
CLASS
  1
LONG_TRANSACTION
  2
AcDbLongTransaction
  3
AutoCAD 2000
 90
        0
280
     0
281
     0
  0
CLASS
  1
LWPOLYLINE
  2
AcDbPolyline
  3
AutoCAD 2000
 90
        0
280
     0
281
     1
  0
CLASS
  1
HATCH
  2
AcDbHatch
  3
AutoCAD 2000
 90
        0
280
     0
281
     1
  0
CLASS
  1
XRECORD
  2
AcDbXrecord
  3
AutoCAD 2000
 90
        0
280
     0
281
     0
  0
CLASS
  1
LONG_TRANSACTION
  2
AcDbLongTransaction
  3
AutoCAD 2000
 90
        0
280
     0
281
     0
  0
CLASS
  1
LWPOLYLINE
  2
AcDbPolyline
  3
AutoCAD 2000
 90
        0
280
     0
281
     1
  0
CLASS
  1
HATCH
  2
AcDbHatch
  3
AutoCAD 2000
 90
        0
280
     0
281
     1
  0
CLASS
  1
XRECORD
  2
AcDbXrecord
  3
AutoCAD 2000
 90
        0
280
     0
281
     0
  0
CLASS
  1
LONG_TRANSACTION
  2
AcDbLongTransaction
  3
AutoCAD 2000
 90
        0
280
     0
281
     0
  0
CLASS
  1
LWPOLYLINE
  2
AcDbPolyline
  3
AutoCAD 2000
 90
        0
280
     0
281
     1
  0
CLASS
  1
HATCH
  2
AcDbHatch
  3
AutoCAD 2000
 90
        0
280
     0
281
     1
  0
CLASS
  1
XRECORD
  2
AcDbXrecord
  3
AutoCAD 2000
 90
        0
280
     0
281
     0
  0
CLASS
  1
LONG_TRANSACTION
  2
AcDbLongTransaction
  3
AutoCAD 2000
 90
        0
280
     0
281
     0
  0
CLASS
  1
LWPOLYLINE
  2
AcDbPolyline
  3
AutoCAD 2000
 90
        0
280
     0
281
     1
  0
CLASS
  1
HATCH
  2
AcDbHatch
  3
AutoCAD 2000
 90
        0
280
     0
281
     1
  0
CLASS
  1
XRECORD
  2
AcDbXrecord
  3
AutoCAD 2000
 90
        0
280
     0
281
     0
  0
CLASS
  1
LONG_TRANSACTION
  2
AcDbLongTransaction
  3
AutoCAD 2000
 90
        0
280
     0
281
     0
  0
CLASS
  1
LWPOLYLINE
  2
AcDbPolyline
  3
AutoCAD 2000
 90
        0
280
     0
281
     1
  0
CLASS
  1
HATCH
  2
AcDbHatch
  3
AutoCAD 2000
 90
        0
280
     0
281
     1
  0
CLASS
  1
XRECORD
  2
AcDbXrecord
  3
AutoCAD 2000
 90
        0
280
     0
281
     0
  0
CLASS
  1
LONG_TRANSACTION
  2
AcDbLongTransaction
  3
AutoCAD 2000
 90
        0
280
     0
281
     0
  0
CLASS
  1
LWPOLYLINE
  2
AcDbPolyline
  3
AutoCAD 2000
 90
        0
280
     0
281
     1
  0
CLASS
  1
HATCH
  2
AcDbHatch
  3
AutoCAD 2000
 90
        0
280
     0
281
     1
  0
CLASS
  1
XRECORD
  2
AcDbXrecord
  3
AutoCAD 2000
 90
        0
280
     0
281
     0
  0
CLASS
  1
LONG_TRANSACTION
  2
AcDbLongTransaction
  3
AutoCAD 2000
 90
        0
280
     0
281
     0
  0
CLASS
  1
LWPOLYLINE
  2
AcDbPolyline
  3
AutoCAD 2000
 90
        0
280
     0
281
     1
  0
CLASS
  1
HATCH
  2
AcDbHatch
  3
AutoCAD 2000
 90
        0
280
     0
281
     1
  0
CLASS
  1
XRECORD
  2
AcDbXrecord
  3
AutoCAD 2000
 90
        0
280
     0
281
     0
  0
CLASS
  1
LONG_TRANSACTION
  2
AcDbLongTransaction
  3
AutoCAD 2000
 90
        0
280
     0
281
     0
  0
CLASS
  1
LWPOLYLINE
  2
AcDbPolyline
  3
AutoCAD 2000
 90
        0
280
     0
281
     1
  0
CLASS
  1
HATCH
  2
AcDbHatch
  3
AutoCAD 2000
 90
        0
280
     0
281
     1
  0
CLASS
  1
XRECORD
  2
AcDbXrecord
  3
AutoCAD 2000
 90
        0
280
     0
281
     0
  0
CLASS
  1
LONG_TRANSACTION
  2
AcDbLongTransaction
  3
AutoCAD 2000
 90
        0
280
     0
281
     0
  0
CLASS
  1
LWPOLYLINE
  2
AcDbPolyline
  3
AutoCAD 2000
 90
        0
280
     0
281
     1
  0
CLASS
  1
HATCH
  2
AcDbHatch
  3
AutoCAD 2000
 90
        0
280
     0
281
     1
  0
CLASS
  1
XRECORD
  2
AcDbXrecord
  3
AutoCAD 2000
 90
        0
280
     0
281
     0
  0
CLASS
  1
LONG_TRANSACTION
  2
AcDbLongTransaction
  3
AutoCAD 2000
 90
        0
280
     0
281
     0
  0
CLASS
  1
LWPOLYLINE
  2
AcDbPolyline
  3
AutoCAD 2000
 90
        0
280
     0
281
     1
  0
CLASS
  1
HATCH
  2
AcDbHatch
  3
AutoCAD 2000
 90
        0
280
     0
281
     1
  0
CLASS
  1
XRECORD
  2
AcDbXrecord
  3
AutoCAD 2000
 90
        0
280
     0
281
     0
  0
CLASS
  1
LONG_TRANSACTION
  2
AcDbLongTransaction
  3
AutoCAD 2000
 90
        0
280
     0
281
     0
  0
CLASS
  1
LWPOLYLINE
  2
AcDbPolyline
  3
AutoCAD 2000
 90
        0
280
     0
281
     1
  0
CLASS
  1
HATCH
  2
AcDbHatch
  3
AutoCAD 2000
 90
        0
280
     0
281
     1
  0
CLASS
  1
XRECORD
  2
AcDbXrecord
  3
AutoCAD 2000
 90
        0
280
     0
281
     0
  0
CLASS
  1
LONG_TRANSACTION
  2
AcDbLongTransaction
  3
AutoCAD 2000
 90
        0
280
     0
281
     0
  0
CLASS
  1
LWPOLYLINE
  2
AcDbPolyline
  3
AutoCAD 2000
 90
        0
280
     0
281
     1
  0
CLASS
  1
HATCH
  2
AcDbHatch
  3
AutoCAD 2000
 90
        0
280
     0
281
     1
  0
CLASS
  1
XRECORD
  2
AcDbXrecord
  3
AutoCAD 2000
 90
        0
280
     0
281
     0
  0
CLASS
  1
LONG_TRANSACTION
  2
AcDbLongTransaction
  3
AutoCAD 2000
 90
        0
280
     0
281
     0
  0
CLASS
  1
LWPOLYLINE
  2
AcDbPolyline
  3
AutoCAD 2000
 90
        0
280
     0
281
     1
  0
CLASS
  1
HATCH
  2
AcDbHatch
  3
AutoCAD 2000
 90
        0
280
     0
281
     1
  0
CLASS
  1
XRECORD
  2
AcDbXrecord
  3
AutoCAD 2000
 90
        0
280
     0
281
     0
  0
CLASS
  1
LONG_TRANSACTION
  2
AcDbLongTransaction
  3
AutoCAD 2000
 90
        0
280
     0
281
     0
  0
CLASS
  1
LWPOLYLINE
  2
AcDbPolyline
  3
AutoCAD 2000
 90
        0
280
     0
281
     1
  0
CLASS
  1
HATCH
  2
AcDbHatch
  3
AutoCAD 2000
 90
        0
280
     0
281
     1
  0
CLASS
  1
XRECORD
  2
AcDbXrecord
  3
AutoCAD 2000
 90
        0
280
     0
281
     0
  0
CLASS
  1
LONG_TRANSACTION
  2
AcDbLongTransaction
  3
AutoCAD 2000
 90
        0
280
     0
281
     0
  0
CLASS
  1
LWPOLYLINE
  2
AcDbPolyline
  3
AutoCAD 2000
 90
        0
280
     0
281
     1
  0
CLASS
  1
HATCH
  2
AcDbHatch
  3
AutoCAD 2000
 90
        0
280
     0
281
     1
  0
CLASS
  1
XRECORD
  2
AcDbXrecord
  3
AutoCAD 2000
 90
        0
280
     0
281
     0
  0
CLASS
  1
LONG_TRANSACTION
  2
AcDbLongTransaction
  3
AutoCAD 2000
 90
        0
280
     0
281
     0
  0
CLASS
  1
LWPOLYLINE
  2
AcDbPolyline
  3
AutoCAD 2000
 90
        0
280
     0
281
     1
  0
CLASS
  1
HATCH
  2
AcDbHatch
  3
AutoCAD 2000
 90
        0
280
     0
281
     1
  0
CLASS
  1
XRECORD
  2
AcDbXrecord
  3
AutoCAD 2000
 90
        0
280
     0
281
     0
  0
CLASS
  1
LONG_TRANSACTION
  2
AcDbLongTransaction
  3
AutoCAD 2000
 90
        0
280
     0
281
     0
  0
CLASS
  1
LWPOLYLINE
  2
AcDbPolyline
  3
AutoCAD 2000
 90
        0
280
     0
281
     1
  0
CLASS
  1
HATCH
  2
AcDbHatch
  3
AutoCAD 2000
 90
        0
280
     0
281
     1
  0
CLASS
  1
XRECORD
  2
AcDbXrecord
  3
AutoCAD 2000
 90
        0
280
     0
281
     0
  0
CLASS
  1
LONG_TRANSACTION
  2
AcDbLongTransaction
  3
AutoCAD 2000
 90
        0
280
     0
281
     0
  0
CLASS
  1
LWPOLYLINE
  2
AcDbPolyline
  3
AutoCAD 2000
 90
        0
280
     0
281
     1
  0
CLASS
  1
HATCH
  2
AcDbHatch
  3
AutoCAD 2000
 90
        0
280
     0
281
     1
  0
CLASS
  1
XRECORD
  2
AcDbXrecord
  3
AutoCAD 2000
 90
        0
280
     0
281
     0
  0
CLASS
  1
LONG_TRANSACTION
  2
AcDbLongTransaction
  3
AutoCAD 2000
 90
        0
280
     0
281
     0
  0
CLASS
  1
LWPOLYLINE
  2
AcDbPolyline
  3
AutoCAD 2000
 90
        0
280
     0
281
     1
  0
CLASS
  1
HATCH
  2
AcDbHatch
  3
AutoCAD 2000
 90
        0
280
     0
281
     1
  0
CLASS
  1
XRECORD
  2
AcDbXrecord
  3
AutoCAD 2000
 90
        0
280
     0
281
     0
  0
CLASS
  1
LONG_TRANSACTION
  2
AcDbLongTransaction
  3
AutoCAD 2000
 90
        0
280
     0
281
     0
  0
CLASS
  1
LWPOLYLINE
  2
AcDbPolyline
  3
AutoCAD 2000
 90
        0
280
     0
281
     1
  0
CLASS
  1
HATCH
  2
AcDbHatch
  3
AutoCAD 2000
 90
        0
280
     0
281
     1
  0
CLASS
  1
XRECORD
  2
AcDbXrecord
  3
AutoCAD 2000
 90
        0
280
     0
281
     0
  0
CLASS
  1
LONG_TRANSACTION
  2
AcDbLongTransaction
  3
AutoCAD 2000
 90
        0
280
     0
281
     0
  0
CLASS
  1
LWPOLYLINE
  2
AcDbPolyline
  3
AutoCAD 2000
 90
        0
280
     0
281
     1
  0
CLASS
  1
HATCH
  2
AcDbHatch
  3
AutoCAD 2000
 90
        0
280
     0
281
     1
  0
CLASS
  1
XRECORD
  2
AcDbXrecord
  3
AutoCAD 2000
 90
        0
280
     0
281
     0
  0
CLASS
  1
LONG_TRANSACTION
  2
AcDbLongTransaction
  3
AutoCAD 2000
 90
        0
280
     0
281
     0
  0
CLASS
  1
LWPOLYLINE
  2
AcDbPolyline
  3
AutoCAD 2000
 90
        0
280
     0
281
     1
  0
CLASS
  1
HATCH
  2
AcDbHatch
  3
AutoCAD 2000
 90
        0
280
     0
281
     1
  0
CLASS
  1
XRECORD
  2
AcDbXrecord
  3
AutoCAD 2000
 90
        0
280
     0
281
     0
  0
CLASS
  1
LONG_TRANSACTION
  2
AcDbLongTransaction
  3
AutoCAD 2000
 90
        0
280
     0
281
     0
  0
CLASS
  1
LWPOLYLINE
  2
AcDbPolyline
  3
AutoCAD 2000
 90
        0
280
     0
281
     1
  0
CLASS
  1
HATCH
  2
AcDbHatch
  3
AutoCAD 2000
 90
        0
280
     0
281
     1
  0
CLASS
  1
XRECORD
  2
AcDbXrecord
  3
AutoCAD 2000
 90
        0
280
     0
281
     0
  0
CLASS
  1
LONG_TRANSACTION
  2
AcDbLongTransaction
  3
AutoCAD 2000
 90
        0
280
     0
281
     0
  0
CLASS
  1
LWPOLYLINE
  2
AcDbPolyline
  3
AutoCAD 2000
 90
        0
280
     0
281
     1
  0
CLASS
  1
HATCH
  2
AcDbHatch
  3
AutoCAD 2000
 90
        0
280
     0
281
     1
  0
CLASS
  1
XRECORD
  2
AcDbXrecord
  3
AutoCAD 2000
 90
        0
280
     0
281
     0
  0
CLASS
  1
LONG_TRANSACTION
  2
AcDbLongTransaction
  3
AutoCAD 2000
 90
        0
280
     0
281
     0
  0
CLASS
  1
LWPOLYLINE
  2
AcDbPolyline
  3
AutoCAD 2000
 90
        0
280
     0
281
     1
  0
CLASS
  1
HATCH
  2
AcDbHatch
  3
AutoCAD 2000
 90
        0
280
     0
281
     1
  0
CLASS
  1
XRECORD
  2
AcDbXrecord
  3
AutoCAD 2000
 90
        0
280
     0
281
     0
  0
CLASS
  1
LONG_TRANSACTION
  2
AcDbLongTransaction
  3
AutoCAD 2000
 90
        0
280
     0
281
     0
  0
CLASS
  1
LWPOLYLINE
  2
AcDbPolyline
  3
AutoCAD 2000
 90
        0
280
     0
281
     1
  0
CLASS
  1
HATCH
  2
AcDbHatch
  3
AutoCAD 2000
 90
        0
280
     0
281
     1
  0
CLASS
  1
XRECORD
  2
AcDbXrecord
  3
AutoCAD 2000
 90
        0
280
     0
281
     0
  0
CLASS
  1
LONG_TRANSACTION
  2
AcDbLongTransaction
  3
AutoCAD 2000
 90
        0
280
     0
281
     0
  0
CLASS
  1
LWPOLYLINE
  2
AcDbPolyline
  3
AutoCAD 2000
 90
        0
280
     0
281
     1
  0
CLASS
  1
HATCH
  2
AcDbHatch
  3
AutoCAD 2000
 90
        0
280
     0
281
     1
  0
CLASS
  1
XRECORD
  2
AcDbXrecord
  3
AutoCAD 2000
 90
        0
280
     0
281
     0
  0
CLASS
  1
LONG_TRANSACTION
  2
AcDbLongTransaction
  3
AutoCAD 2000
 90
        0
280
     0
281
     0
  0
CLASS
  1
LWPOLYLINE
  2
AcDbPolyline
  3
AutoCAD 2000
 90
        0
280
     0
281
     1
  0
CLASS
  1
HATCH
  2
AcDbHatch
  3
AutoCAD 2000
 90
        0
280
     0
281
     1
  0
CLASS
  1
XRECORD
  2
AcDbXrecord
  3
AutoCAD 2000
 90
        0
280
     0
281
     0
  0
CLASS
  1
LONG_TRANSACTION
  2
AcDbLongTransaction
  3
AutoCAD 2000
 90
        0
280
     0
281
     0
  0
CLASS
  1
LWPOLYLINE
  2
AcDbPolyline
  3
AutoCAD 2000
 90
        0
280
     0
281
     1
  0
CLASS
  1
HATCH
  2
AcDbHatch
  3
AutoCAD 2000
 90
        0
280
     0
281
     1
  0
CLASS
  1
XRECORD
  2
AcDbXrecord
  3
AutoCAD 2000
 90
        0
280
     0
281
     0
  0
CLASS
  1
DICTIONARYVAR
  2
AcDbDictionaryVar
  3
AutoCAD 2000
 90
        0
280
     0
281
     0
  0
CLASS
  1
LONG_TRANSACTION
  2
AcDbLongTransaction
  3
AutoCAD 2000
 90
        0
280
     0
281
     0
  0
CLASS
  1
LWPOLYLINE
  2
AcDbPolyline
  3
AutoCAD 2000
 90
        0
280
     0
281
     1
  0
CLASS
  1
HATCH
  2
AcDbHatch
  3
AutoCAD 2000
 90
        0
280
     0
281
     1
  0
CLASS
  1
XRECORD
  2
AcDbXrecord
  3
AutoCAD 2000
 90
        0
280
     0
281
     0
  0
CLASS
  1
LONG_TRANSACTION
  2
AcDbLongTransaction
  3
AutoCAD 2000
 90
        0
280
     0
281
     0
  0
CLASS
  1
LWPOLYLINE
  2
AcDbPolyline
  3
AutoCAD 2000
 90
        0
280
     0
281
     1
  0
CLASS
  1
HATCH
  2
AcDbHatch
  3
AutoCAD 2000
 90
        0
280
     0
281
     1
  0
CLASS
  1
XRECORD
  2
AcDbXrecord
  3
AutoCAD 2000
 90
        0
280
     0
281
     0
  0
CLASS
  1
LONG_TRANSACTION
  2
AcDbLongTransaction
  3
AutoCAD 2000
 90
        0
280
     0
281
     0
  0
CLASS
  1
LWPOLYLINE
  2
AcDbPolyline
  3
AutoCAD 2000
 90
        0
280
     0
281
     1
  0
CLASS
  1
HATCH
  2
AcDbHatch
  3
AutoCAD 2000
 90
        0
280
     0
281
     1
  0
CLASS
  1
XRECORD
  2
AcDbXrecord
  3
AutoCAD 2000
 90
        0
280
     0
281
     0
  0
CLASS
  1
LONG_TRANSACTION
  2
AcDbLongTransaction
  3
AutoCAD 2000
 90
        0
280
     0
281
     0
  0
CLASS
  1
LWPOLYLINE
  2
AcDbPolyline
  3
AutoCAD 2000
 90
        0
280
     0
281
     1
  0
CLASS
  1
HATCH
  2
AcDbHatch
  3
AutoCAD 2000
 90
        0
280
     0
281
     1
  0
CLASS
  1
XRECORD
  2
AcDbXrecord
  3
AutoCAD 2000
 90
        0
280
     0
281
     0
  0
CLASS
  1
LONG_TRANSACTION
  2
AcDbLongTransaction
  3
AutoCAD 2000
 90
        0
280
     0
281
     0
  0
CLASS
  1
LWPOLYLINE
  2
AcDbPolyline
  3
AutoCAD 2000
 90
        0
280
     0
281
     1
  0
CLASS
  1
HATCH
  2
AcDbHatch
  3
AutoCAD 2000
 90
        0
280
     0
281
     1
  0
CLASS
  1
XRECORD
  2
AcDbXrecord
  3
AutoCAD 2000
 90
        0
280
     0
281
     0
  0
CLASS
  1
LONG_TRANSACTION
  2
AcDbLongTransaction
  3
AutoCAD 2000
 90
        0
280
     0
281
     0
  0
CLASS
  1
LWPOLYLINE
  2
AcDbPolyline
  3
AutoCAD 2000
 90
        0
280
     0
281
     1
  0
CLASS
  1
HATCH
  2
AcDbHatch
  3
AutoCAD 2000
 90
        0
280
     0
281
     1
  0
CLASS
  1
XRECORD
  2
AcDbXrecord
  3
AutoCAD 2000
 90
        0
280
     0
281
     0
  0
CLASS
  1
LONG_TRANSACTION
  2
AcDbLongTransaction
  3
AutoCAD 2000
 90
        0
280
     0
281
     0
  0
CLASS
  1
LWPOLYLINE
  2
AcDbPolyline
  3
AutoCAD 2000
 90
        0
280
     0
281
     1
  0
CLASS
  1
HATCH
  2
AcDbHatch
  3
AutoCAD 2000
 90
        0
280
     0
281
     1
  0
CLASS
  1
XRECORD
  2
AcDbXrecord
  3
AutoCAD 2000
 90
        0
280
     0
281
     0
  0
CLASS
  1
LONG_TRANSACTION
  2
AcDbLongTransaction
  3
AutoCAD 2000
 90
        0
280
     0
281
     0
  0
CLASS
  1
LWPOLYLINE
  2
AcDbPolyline
  3
AutoCAD 2000
 90
        0
280
     0
281
     1
  0
CLASS
  1
HATCH
  2
AcDbHatch
  3
AutoCAD 2000
 90
        0
280
     0
281
     1
  0
CLASS
  1
XRECORD
  2
AcDbXrecord
  3
AutoCAD 2000
 90
        0
280
     0
281
     0
  0
CLASS
  1
LONG_TRANSACTION
  2
AcDbLongTransaction
  3
AutoCAD 2000
 90
        0
280
     0
281
     0
  0
CLASS
  1
LWPOLYLINE
  2
AcDbPolyline
  3
AutoCAD 2000
 90
        0
280
     0
281
     1
  0
CLASS
  1
HATCH
  2
AcDbHatch
  3
AutoCAD 2000
 90
        0
280
     0
281
     1
  0
CLASS
  1
XRECORD
  2
AcDbXrecord
  3
AutoCAD 2000
 90
        0
280
     0
281
     0
  0
CLASS
  1
LONG_TRANSACTION
  2
AcDbLongTransaction
  3
AutoCAD 2000
 90
        0
280
     0
281
     0
  0
CLASS
  1
LWPOLYLINE
  2
AcDbPolyline
  3
AutoCAD 2000
 90
        0
280
     0
281
     1
  0
CLASS
  1
HATCH
  2
AcDbHatch
  3
AutoCAD 2000
 90
        0
280
     0
281
     1
  0
CLASS
  1
XRECORD
  2
AcDbXrecord
  3
AutoCAD 2000
 90
        0
280
     0
281
     0
  0
CLASS
  1
LONG_TRANSACTION
  2
AcDbLongTransaction
  3
AutoCAD 2000
 90
        0
280
     0
281
     0
  0
CLASS
  1
LWPOLYLINE
  2
AcDbPolyline
  3
AutoCAD 2000
 90
        0
280
     0
281
     1
  0
CLASS
  1
HATCH
  2
AcDbHatch
  3
AutoCAD 2000
 90
        0
280
     0
281
     1
  0
CLASS
  1
XRECORD
  2
AcDbXrecord
  3
AutoCAD 2000
 90
        0
280
     0
281
     0
  0
CLASS
  1
LONG_TRANSACTION
  2
AcDbLongTransaction
  3
AutoCAD 2000
 90
        0
280
     0
281
     0
  0
CLASS
  1
LWPOLYLINE
  2
AcDbPolyline
  3
AutoCAD 2000
 90
        0
280
     0
281
     1
  0
CLASS
  1
HATCH
  2
AcDbHatch
  3
AutoCAD 2000
 90
        0
280
     0
281
     1
  0
CLASS
  1
XRECORD
  2
AcDbXrecord
  3
AutoCAD 2000
 90
        0
280
     0
281
     0
  0
CLASS
  1
LONG_TRANSACTION
  2
AcDbLongTransaction
  3
AutoCAD 2000
 90
        0
280
     0
281
     0
  0
CLASS
  1
LWPOLYLINE
  2
AcDbPolyline
  3
AutoCAD 2000
 90
        0
280
     0
281
     1
  0
CLASS
  1
HATCH
  2
AcDbHatch
  3
AutoCAD 2000
 90
        0
280
     0
281
     1
  0
CLASS
  1
XRECORD
  2
AcDbXrecord
  3
AutoCAD 2000
 90
        0
280
     0
281
     0
  0
CLASS
  1
LONG_TRANSACTION
  2
AcDbLongTransaction
  3
AutoCAD 2000
 90
        0
280
     0
281
     0
  0
CLASS
  1
LWPOLYLINE
  2
AcDbPolyline
  3
AutoCAD 2000
 90
        0
280
     0
281
     1
  0
CLASS
  1
HATCH
  2
AcDbHatch
  3
AutoCAD 2000
 90
        0
280
     0
281
     1
  0
CLASS
  1
XRECORD
  2
AcDbXrecord
  3
AutoCAD 2000
 90
        0
280
     0
281
     0
  0
CLASS
  1
LONG_TRANSACTION
  2
AcDbLongTransaction
  3
AutoCAD 2000
 90
        0
280
     0
281
     0
  0
CLASS
  1
LWPOLYLINE
  2
AcDbPolyline
  3
AutoCAD 2000
 90
        0
280
     0
281
     1
  0
CLASS
  1
HATCH
  2
AcDbHatch
  3
AutoCAD 2000
 90
        0
280
     0
281
     1
  0
CLASS
  1
XRECORD
  2
AcDbXrecord
  3
AutoCAD 2000
 90
        0
280
     0
281
     0
  0
CLASS
  1
LONG_TRANSACTION
  2
AcDbLongTransaction
  3
AutoCAD 2000
 90
        0
280
     0
281
     0
  0
CLASS
  1
LWPOLYLINE
  2
AcDbPolyline
  3
AutoCAD 2000
 90
        0
280
     0
281
     1
  0
CLASS
  1
HATCH
  2
AcDbHatch
  3
AutoCAD 2000
 90
        0
280
     0
281
     1
  0
CLASS
  1
XRECORD
  2
AcDbXrecord
  3
AutoCAD 2000
 90
        0
280
     0
281
     0
  0
CLASS
  1
LONG_TRANSACTION
  2
AcDbLongTransaction
  3
AutoCAD 2000
 90
        0
280
     0
281
     0
  0
CLASS
  1
LWPOLYLINE
  2
AcDbPolyline
  3
AutoCAD 2000
 90
        0
280
     0
281
     1
  0
CLASS
  1
HATCH
  2
AcDbHatch
  3
AutoCAD 2000
 90
        0
280
     0
281
     1
  0
CLASS
  1
XRECORD
  2
AcDbXrecord
  3
AutoCAD 2000
 90
        0
280
     0
281
     0
  0
ENDSEC
  0
SECTION
  2
TABLES
  0
TABLE
  2
VPORT
  5
8
330
0
100
AcDbSymbolTable
 70
     2
  0
VPORT
  5
9107
330
8
100
AcDbSymbolTableRecord
100
AcDbViewportTableRecord
  2
*ACTIVE
 70
     0
 10
0.0
 20
0.0
 11
1.0
 21
1.0
 12
188.4055011075129
 22
-6.790996797338948
 13
0.0
 23
0.0
 14
1.0
 24
1.0
 15
10.0
 25
10.0
 16
0.0
 26
0.0
 36
1.0
 17
0.0
 27
0.0
 37
0.0
 40
1025.838892967297
 41
2.161637931034482
 42
50.0
 43
0.0
 44
0.0
 50
0.0
 51
0.0
 71
     0
 72
   100
 73
     1
 74
     1
 75
     0
 76
     0
 77
     0
 78
     0
  0
ENDTAB
  0
TABLE
  2
LTYPE
  5
5
330
0
100
AcDbSymbolTable
 70
     8
  0
LTYPE
  5
13
330
5
100
AcDbSymbolTableRecord
100
AcDbLinetypeTableRecord
  2
BYBLOCK
 70
     0
  3

 72
    65
 73
     0
 40
0.0
  0
LTYPE
  5
14
330
5
100
AcDbSymbolTableRecord
100
AcDbLinetypeTableRecord
  2
BYLAYER
 70
     0
  3

 72
    65
 73
     0
 40
0.0
  0
LTYPE
  5
15
330
5
100
AcDbSymbolTableRecord
100
AcDbLinetypeTableRecord
  2
CONTINUOUS
 70
     0
  3
Solid line
 72
    65
 73
     0
 40
0.0
  0
LTYPE
  5
22
330
5
100
AcDbSymbolTableRecord
100
AcDbLinetypeTableRecord
  2
CONTINOUS
 70
     0
  3
Solid line
 72
    65
 73
     0
 40
0.0
  0
LTYPE
  5
23
330
5
100
AcDbSymbolTableRecord
100
AcDbLinetypeTableRecord
  2
DASHED
 70
     0
  3
__ __ __ __ __ __ __ __ __ __ __ __ __ __ __
 72
    65
 73
     2
 40
0.75
 49
0.5
 74
     0
 49
-0.25
 74
     0
  0
LTYPE
  5
24
330
5
100
AcDbSymbolTableRecord
100
AcDbLinetypeTableRecord
  2
DASHDOT
 70
     0
  3
__ . __ . __ . __ . __ . __ . __ . __ . __ . __
 72
    65
 73
     4
 40
1.0
 49
0.5
 74
     0
 49
-0.25
 74
     0
 49
0.0
 74
     0
 49
-0.25
 74
     0
  0
LTYPE
  5
4C47
330
5
100
AcDbSymbolTableRecord
100
AcDbLinetypeTableRecord
  2
DIVIDE
 70
     0
  3
Divide ____ . . ____ . . ____ . . ____ . . ____
 72
    65
 73
     6
 40
1.25
 49
0.5
 74
     0
 49
-0.25
 74
     0
 49
0.0
 74
     0
 49
-0.25
 74
     0
 49
0.0
 74
     0
 49
-0.25
 74
     0
  0
LTYPE
  5
6265
330
5
100
AcDbSymbolTableRecord
100
AcDbLinetypeTableRecord
  2
CENTER
 70
     0
  3
Center ____ _ ____ _ ____ _ ____ _ ____ _ ____
 72
    65
 73
     4
 40
50.8
 49
31.75
 74
     0
 49
-6.349999999999997
 74
     0
 49
6.349999999999997
 74
     0
 49
-6.349999999999997
 74
     0
  0
LTYPE
  5
685F
330
5
100
AcDbSymbolTableRecord
100
AcDbLinetypeTableRecord
  2
PHANTOM
 70
     0
  3
Phantom ______  __  __  ______  __  __  ______
 72
    65
 73
     6
 40
63.5
 49
31.75
 74
     0
 49
-6.349999999999997
 74
     0
 49
6.349999999999997
 74
     0
 49
-6.349999999999997
 74
     0
 49
6.349999999999997
 74
     0
 49
-6.349999999999997
 74
     0
  0
LTYPE
  5
6FA1
330
5
100
AcDbSymbolTableRecord
100
AcDbLinetypeTableRecord
  2
HIDDEN
 70
     0
  3
_ _ _ _ _ _ _ _ _ _ _ _ _ _ _ _ _ _ _ _ _ _ _
 72
    65
 73
     2
 40
0.5
 49
0.25
 74
     0
 49
-0.25
 74
     0
  0
ENDTAB
  0
TABLE
  2
LAYER
  5
2
330
0
100
AcDbSymbolTable
 70
    16
  0
LAYER
  5
10
330
2
100
AcDbSymbolTableRecord
100
AcDbLayerTableRecord
  2
0
 70
     0
 62
     7
  6
CONTINOUS
  0
LAYER
  5
2F
330
2
100
AcDbSymbolTableRecord
100
AcDbLayerTableRecord
  2
10
 70
     0
 62
     4
  6
CONTINOUS
  0
LAYER
  5
31
330
2
100
AcDbSymbolTableRecord
100
AcDbLayerTableRecord
  2
12
 70
     0
 62
     3
  6
CONTINOUS
  0
LAYER
  5
35
330
2
100
AcDbSymbolTableRecord
100
AcDbLayerTableRecord
  2
16
 70
     0
 62
     6
  6
DASHDOT
  0
LAYER
  5
38
330
2
100
AcDbSymbolTableRecord
100
AcDbLayerTableRecord
  2
19
 70
     0
 62
     7
  6
CONTINOUS
  0
LAYER
  5
3D
330
2
100
AcDbSymbolTableRecord
100
AcDbLayerTableRecord
  2
24
 70
     0
 62
     2
  6
CONTINOUS
  0
LAYER
  5
3A2
330
2
100
AcDbSymbolTableRecord
100
AcDbLayerTableRecord
  2
30
 70
     0
 62
     9
  6
CONTINUOUS
  0
LAYER
  5
3A4
330
2
100
AcDbSymbolTableRecord
100
AcDbLayerTableRecord
  2
DEFPOINTS
 70
     0
 62
     7
  6
CONTINUOUS
  0
LAYER
  5
3BBA
330
2
100
AcDbSymbolTableRecord
100
AcDbLayerTableRecord
  2
18
 70
     0
 62
     5
  6
DIVIDE
  0
LAYER
  5
67A8
330
2
100
AcDbSymbolTableRecord
100
AcDbLayerTableRecord
  2
11
 70
     0
 62
     1
  6
CONTINOUS
  0
LAYER
  5
7837
330
2
100
AcDbSymbolTableRecord
100
AcDbLayerTableRecord
  2
17
 70
     0
 62
     2
  6
DASHDOT
  0
LAYER
  5
7BC8
330
2
100
AcDbSymbolTableRecord
100
AcDbLayerTableRecord
  2
1
 70
     0
 62
     7
  6
CONTINUOUS
  0
LAYER
  5
7BC9
330
2
100
AcDbSymbolTableRecord
100
AcDbLayerTableRecord
  2
2
 70
     0
 62
     7
  6
CONTINUOUS
  0
LAYER
  5
8037
330
2
100
AcDbSymbolTableRecord
100
AcDbLayerTableRecord
  2
TOP
 70
     0
 62
     7
  6
CONTINUOUS
  0
LAYER
  5
8A0F
330
2
100
AcDbSymbolTableRecord
100
AcDbLayerTableRecord
  2
21
 70
     0
 62
     7
  6
CONTINUOUS
  0
LAYER
  5
8CDE
330
2
100
AcDbSymbolTableRecord
100
AcDbLayerTableRecord
  2
22
 70
     0
 62
     3
  6
CONTINUOUS
  0
ENDTAB
  0
TABLE
  2
STYLE
  5
3
330
0
100
AcDbSymbolTable
 70
     4
  0
STYLE
  5
11
330
3
100
AcDbSymbolTableRecord
100
AcDbTextStyleTableRecord
  2
STANDARD
 70
     0
 40
0.0
 41
1.0
 50
0.0
 71
     0
 42
2.0
  3
txt.shx
  4
bigfont.shx
  0
STYLE
  5
42
330
3
100
AcDbSymbolTableRecord
100
AcDbTextStyleTableRecord
  2
STANDARD1
 70
     0
 40
0.0
 41
1.0
 50
0.0
 71
     0
 42
5.0
  3
MONOTXT
  4
BIGFONT
  0
STYLE
  5
6861
330
3
100
AcDbSymbolTableRecord
100
AcDbTextStyleTableRecord
  2
MX_NOTE_STANDARD
 70
     0
 40
0.0
 41
1.0
 50
0.0
 71
     0
 42
5.891046
  3
txt.shx
  4
extfont.shx
  0
STYLE
  5
6D9B
330
3
100
AcDbSymbolTableRecord
100
AcDbTextStyleTableRecord
  2
UGMTXT
 70
     0
 40
0.0
 41
1.0
 50
0.0
 71
     0
 42
0.2
  3
ugmtxt
  4
bigfont
  0
ENDTAB
  0
TABLE
  2
VIEW
  5
6
330
0
100
AcDbSymbolTable
 70
     3
  0
VIEW
  5
230C
330
6
100
AcDbSymbolTableRecord
100
AcDbViewTableRecord
  2
OLE1
 70
     0
 40
148.912488
 10
429.497628
 20
2.560627
 41
103.145806
 11
0.0
 21
0.0
 31
1.0
 12
0.0
 22
0.0
 32
0.0
 42
50.0
 43
0.0
 44
0.0
 50
0.0
 71
     0
  0
VIEW
  5
230E
330
6
100
AcDbSymbolTableRecord
100
AcDbViewTableRecord
  2
OLE2
 70
     0
 40
170.778692
 10
322.66497
 20
-5.978304
 41
102.467215
 11
0.0
 21
0.0
 31
1.0
 12
0.0
 22
0.0
 32
0.0
 42
50.0
 43
0.0
 44
0.0
 50
0.0
 71
     0
  0
VIEW
  5
23AA
330
6
100
AcDbSymbolTableRecord
100
AcDbViewTableRecord
  2
OLE3
 70
     0
 40
591.7897389999998
 10
84.79698199999999
 20
-46.09335999999998
 41
388.792096
 11
0.0
 21
0.0
 31
1.0
 12
0.0
 22
0.0
 32
0.0
 42
50.0
 43
0.0
 44
0.0
 50
0.0
 71
     0
  0
ENDTAB
  0
TABLE
  2
UCS
  5
7
330
0
100
AcDbSymbolTable
 70
     0
  0
ENDTAB
  0
TABLE
  2
APPID
  5
9
330
0
100
AcDbSymbolTable
 70
     2
  0
APPID
  5
12
330
9
100
AcDbSymbolTableRecord
100
AcDbRegAppTableRecord
  2
ACAD
 70
     0
  0
APPID
  5
ECD
330
9
100
AcDbSymbolTableRecord
100
AcDbRegAppTableRecord
  2
CONTENTBLOCKICON
 70
     0
  0
ENDTAB
  0
TABLE
  2
DIMSTYLE
  5
A
330
0
100
AcDbSymbolTable
 70
     1
  0
DIMSTYLE
105
175
102
{ACAD_REACTORS
330
8764
330
886F
330
887C
330
8889
330
8896
330
88B5
330
88DD
330
88EA
330
88F7
330
8904
330
8911
330
891E
330
894F
330
8B23
330
8C0C
330
8C0D
330
8C0E
330
8C0F
330
8E22
330
8E2E
330
8E42
330
8E4F
330
8E77
330
8E84
330
82C9
330
82CA
330
82CB
330
82CC
330
82D0
330
82D2
330
82D7
330
82E5
330
82EB
330
82F0
330
82FE
330
82FF
330
831D
102
}
330
A
100
AcDbSymbolTableRecord
100
AcDbDimStyleTableRecord
  2
STANDARD
 70
     0
  3

  4

  5
OPEN
  6

  7

 40
1.0
 41
2.0
 42
1.0
 43
0.5
 44
0.5
 45
0.0
 46
0.0
 47
0.0
 48
0.0
140
6.0
141
0.09
142
0.0
143
25.4
144
1.0
145
0.0
146
1.0
147
1.0
 71
     0
 72
     0
 73
     0
 74
     1
 75
     0
 76
     0
 77
     3
 78
    12
170
     0
171
     2
172
     0
173
     0
174
     0
175
     0
176
     0
177
     0
178
     0
270
     2
271
     1
272
     1
273
     2
274
     2
340
11
275
     0
280
     0
281
     0
282
     0
283
     1
284
     0
285
     0
286
     0
287
     3
288
     0
  0
ENDTAB
  0
TABLE
  2
BLOCK_RECORD
  5
1
330
0
100
AcDbSymbolTable
 70
    50
  0
BLOCK_RECORD
  5
1E
102
{ACAD_XDICTIONARY
360
178
102
}
330
1
100
AcDbSymbolTableRecord
100
AcDbBlockTableRecord
  2
*MODEL_SPACE
  0
BLOCK_RECORD
  5
1A
102
{ACAD_XDICTIONARY
360
17A
102
}
330
1
100
AcDbSymbolTableRecord
100
AcDbBlockTableRecord
  2
*PAPER_SPACE
  0
BLOCK_RECORD
  5
3B2
330
1
100
AcDbSymbolTableRecord
100
AcDbBlockTableRecord
  2
_OPEN
  0
BLOCK_RECORD
  5
676A
330
1
100
AcDbSymbolTableRecord
100
AcDbBlockTableRecord
  2
_OPEN30
  0
BLOCK_RECORD
  5
6D9C
330
1
100
AcDbSymbolTableRecord
100
AcDbBlockTableRecord
  2
A$C21544DCF
  0
BLOCK_RECORD
  5
725D
330
1
100
AcDbSymbolTableRecord
100
AcDbBlockTableRecord
  2
A$C15744025
  0
BLOCK_RECORD
  5
81E7
330
1
100
AcDbSymbolTableRecord
100
AcDbBlockTableRecord
  2
*U4
  0
BLOCK_RECORD
  5
81EB
330
1
100
AcDbSymbolTableRecord
100
AcDbBlockTableRecord
  2
*U5
  0
BLOCK_RECORD
  5
81F4
330
1
100
AcDbSymbolTableRecord
100
AcDbBlockTableRecord
  2
*U6
  0
BLOCK_RECORD
  5
81FA
330
1
100
AcDbSymbolTableRecord
100
AcDbBlockTableRecord
  2
*U7
  0
BLOCK_RECORD
  5
8203
330
1
100
AcDbSymbolTableRecord
100
AcDbBlockTableRecord
  2
*U8
  0
BLOCK_RECORD
  5
8208
330
1
100
AcDbSymbolTableRecord
100
AcDbBlockTableRecord
  2
*U9
  0
BLOCK_RECORD
  5
8210
330
1
100
AcDbSymbolTableRecord
100
AcDbBlockTableRecord
  2
*U10
  0
BLOCK_RECORD
  5
8217
330
1
100
AcDbSymbolTableRecord
100
AcDbBlockTableRecord
  2
*U11
  0
BLOCK_RECORD
  5
821E
330
1
100
AcDbSymbolTableRecord
100
AcDbBlockTableRecord
  2
*D12
  0
BLOCK_RECORD
  5
822B
330
1
100
AcDbSymbolTableRecord
100
AcDbBlockTableRecord
  2
*D13
  0
BLOCK_RECORD
  5
8238
330
1
100
AcDbSymbolTableRecord
100
AcDbBlockTableRecord
  2
*D14
  0
BLOCK_RECORD
  5
8245
330
1
100
AcDbSymbolTableRecord
100
AcDbBlockTableRecord
  2
*D15
  0
BLOCK_RECORD
  5
8252
330
1
100
AcDbSymbolTableRecord
100
AcDbBlockTableRecord
  2
*D16
  0
BLOCK_RECORD
  5
825F
330
1
100
AcDbSymbolTableRecord
100
AcDbBlockTableRecord
  2
*D17
  0
BLOCK_RECORD
  5
826C
330
1
100
AcDbSymbolTableRecord
100
AcDbBlockTableRecord
  2
*D18
  0
BLOCK_RECORD
  5
8279
330
1
100
AcDbSymbolTableRecord
100
AcDbBlockTableRecord
  2
*D19
  0
BLOCK_RECORD
  5
8286
330
1
100
AcDbSymbolTableRecord
100
AcDbBlockTableRecord
  2
*D20
  0
BLOCK_RECORD
  5
8293
330
1
100
AcDbSymbolTableRecord
100
AcDbBlockTableRecord
  2
*D21
  0
BLOCK_RECORD
  5
82A0
330
1
100
AcDbSymbolTableRecord
100
AcDbBlockTableRecord
  2
*D22
  0
BLOCK_RECORD
  5
82AD
330
1
100
AcDbSymbolTableRecord
100
AcDbBlockTableRecord
  2
*D23
  0
BLOCK_RECORD
  5
82BA
330
1
100
AcDbSymbolTableRecord
100
AcDbBlockTableRecord
  2
*D24
  0
BLOCK_RECORD
  5
82C7
330
1
100
AcDbSymbolTableRecord
100
AcDbBlockTableRecord
  2
A$C430B49B3
  0
BLOCK_RECORD
  5
8765
330
1
100
AcDbSymbolTableRecord
100
AcDbBlockTableRecord
  2
*D26
  0
BLOCK_RECORD
  5
8870
330
1
100
AcDbSymbolTableRecord
100
AcDbBlockTableRecord
  2
*D27
  0
BLOCK_RECORD
  5
887D
330
1
100
AcDbSymbolTableRecord
100
AcDbBlockTableRecord
  2
*D28
  0
BLOCK_RECORD
  5
888A
330
1
100
AcDbSymbolTableRecord
100
AcDbBlockTableRecord
  2
*D29
  0
BLOCK_RECORD
  5
8897
330
1
100
AcDbSymbolTableRecord
100
AcDbBlockTableRecord
  2
*D30
  0
BLOCK_RECORD
  5
88B6
330
1
100
AcDbSymbolTableRecord
100
AcDbBlockTableRecord
  2
*D31
  0
BLOCK_RECORD
  5
88DE
330
1
100
AcDbSymbolTableRecord
100
AcDbBlockTableRecord
  2
*D32
  0
BLOCK_RECORD
  5
88EB
330
1
100
AcDbSymbolTableRecord
100
AcDbBlockTableRecord
  2
*D33
  0
BLOCK_RECORD
  5
88F8
330
1
100
AcDbSymbolTableRecord
100
AcDbBlockTableRecord
  2
*D34
  0
BLOCK_RECORD
  5
8905
330
1
100
AcDbSymbolTableRecord
100
AcDbBlockTableRecord
  2
*D35
  0
BLOCK_RECORD
  5
8912
330
1
100
AcDbSymbolTableRecord
100
AcDbBlockTableRecord
  2
*D36
  0
BLOCK_RECORD
  5
891F
330
1
100
AcDbSymbolTableRecord
100
AcDbBlockTableRecord
  2
*D37
  0
BLOCK_RECORD
  5
8950
330
1
100
AcDbSymbolTableRecord
100
AcDbBlockTableRecord
  2
*D38
  0
BLOCK_RECORD
  5
8B26
330
1
100
AcDbSymbolTableRecord
100
AcDbBlockTableRecord
  2
*D39
  0
BLOCK_RECORD
  5
8C10
330
1
100
AcDbSymbolTableRecord
100
AcDbBlockTableRecord
  2
*D40
  0
BLOCK_RECORD
  5
8C1C
330
1
100
AcDbSymbolTableRecord
100
AcDbBlockTableRecord
  2
*D41
  0
BLOCK_RECORD
  5
8C28
330
1
100
AcDbSymbolTableRecord
100
AcDbBlockTableRecord
  2
*D42
  0
BLOCK_RECORD
  5
8C34
330
1
100
AcDbSymbolTableRecord
100
AcDbBlockTableRecord
  2
*D43
  0
BLOCK_RECORD
  5
8E23
330
1
100
AcDbSymbolTableRecord
100
AcDbBlockTableRecord
  2
*D44
  0
BLOCK_RECORD
  5
8E2F
330
1
100
AcDbSymbolTableRecord
100
AcDbBlockTableRecord
  2
*D45
  0
BLOCK_RECORD
  5
8E43
330
1
100
AcDbSymbolTableRecord
100
AcDbBlockTableRecord
  2
*D46
  0
BLOCK_RECORD
  5
8E50
330
1
100
AcDbSymbolTableRecord
100
AcDbBlockTableRecord
  2
*D47
  0
BLOCK_RECORD
  5
8E78
330
1
100
AcDbSymbolTableRecord
100
AcDbBlockTableRecord
  2
*D48
  0
BLOCK_RECORD
  5
8E85
330
1
100
AcDbSymbolTableRecord
100
AcDbBlockTableRecord
  2
*D49
  0
ENDTAB
  0
ENDSEC
  0
SECTION
  2
BLOCKS
  0
BLOCK
  5
1F
330
1E
100
AcDbEntity
  8
0
100
AcDbBlockBegin
  2
*MODEL_SPACE
 70
     0
 10
0.0
 20
0.0
 30
0.0
  3
*MODEL_SPACE
  1

  0
ENDBLK
  5
20
330
1E
100
AcDbEntity
  8
0
100
AcDbBlockEnd
  0
BLOCK
  5
1B
330
1A
100
AcDbEntity
 67
     1
  8
0
100
AcDbBlockBegin
  2
*PAPER_SPACE
 70
     0
 10
0.0
 20
0.0
 30
0.0
  3
*PAPER_SPACE
  1

  0
ENDBLK
  5
1C
330
1A
100
AcDbEntity
 67
     1
  8
0
100
AcDbBlockEnd
  0
BLOCK
  5
3B6
330
3B2
100
AcDbEntity
  8
0
100
AcDbBlockBegin
  2
_OPEN
 70
     0
 10
0.0
 20
0.0
 30
0.0
  3
_OPEN
  1

  0
LINE
  5
3B3
330
3B2
100
AcDbEntity
  8
30
  6
CONTINUOUS
 62
     0
100
AcDbLine
 10
-1.0
 20
0.166667
 30
0.0
 11
0.0
 21
0.0
 31
0.0
  0
LINE
  5
3B4
330
3B2
100
AcDbEntity
  8
30
  6
CONTINUOUS
 62
     0
100
AcDbLine
 10
-1.0
 20
-0.166667
 30
0.0
 11
0.0
 21
0.0
 31
0.0
  0
LINE
  5
3B5
330
3B2
100
AcDbEntity
  8
30
  6
CONTINUOUS
 62
     0
100
AcDbLine
 10
0.0
 20
0.0
 30
0.0
 11
-1.0
 21
0.0
 31
0.0
  0
ENDBLK
  5
3B7
330
3B2
100
AcDbEntity
  8
0
100
AcDbBlockEnd
  0
BLOCK
  5
676E
330
676A
100
AcDbEntity
  8
0
100
AcDbBlockBegin
  2
_OPEN30
 70
     0
 10
0.0
 20
0.0
 30
0.0
  3
_OPEN30
  1

  0
LINE
  5
676B
330
676A
100
AcDbEntity
  8
0
  6
BYBLOCK
 62
     0
100
AcDbLine
 10
-1.0
 20
0.26794919
 30
0.0
 11
0.0
 21
0.0
 31
0.0
  0
LINE
  5
676C
330
676A
100
AcDbEntity
  8
0
  6
BYBLOCK
 62
     0
100
AcDbLine
 10
0.0
 20
0.0
 30
0.0
 11
-1.0
 21
-0.26794919
 31
0.0
  0
LINE
  5
676D
330
676A
100
AcDbEntity
  8
0
  6
BYBLOCK
 62
     0
100
AcDbLine
 10
0.0
 20
0.0
 30
0.0
 11
-1.0
 21
0.0
 31
0.0
  0
ENDBLK
  5
676F
330
676A
100
AcDbEntity
  8
0
100
AcDbBlockEnd
  0
BLOCK
  5
6E0C
330
6D9C
100
AcDbEntity
  8
0
100
AcDbBlockBegin
  2
A$C21544DCF
 70
     0
 10
0.0
 20
0.0
 30
0.0
  3
A$C21544DCF
  1

  0
LINE
  5
6D9D
330
6D9C
100
AcDbEntity
  8
0
  6
CONTINUOUS
100
AcDbLine
 10
0.0
 20
92.5
 30
0.0
 11
0.0
 21
-92.5
 31
0.0
  0
LINE
  5
6D9E
330
6D9C
100
AcDbEntity
  8
0
  6
CONTINUOUS
100
AcDbLine
 10
-52.5
 20
82.5
 30
0.0
 11
-52.5
 21
-82.5
 31
0.0
  0
LINE
  5
6D9F
330
6D9C
100
AcDbEntity
  8
0
  6
CONTINUOUS
100
AcDbLine
 10
52.5
 20
-82.5
 30
0.0
 11
52.5
 21
82.5
 31
0.0
  0
ARC
  5
6DA0
330
6D9C
100
AcDbEntity
  8
0
  6
CONTINUOUS
100
AcDbCircle
 10
28.0
 20
-65.0
 30
0.0
 40
5.0
210
0.0
220
0.0
230
-1.0
100
AcDbArc
 50
90.0
 51
180.0
  0
LINE
  5
6DA1
330
6D9C
100
AcDbEntity
  8
0
  6
CONTINUOUS
100
AcDbLine
 10
-49.0
 20
-25.0
 30
0.0
 11
49.0
 21
-25.0
 31
0.0
  0
LINE
  5
6DA2
330
6D9C
100
AcDbEntity
  8
0
  6
CONTINUOUS
100
AcDbLine
 10
-49.0
 20
25.0
 30
0.0
 11
49.0
 21
25.0
 31
0.0
  0
LINE
  5
6DA3
330
6D9C
100
AcDbEntity
  8
0
  6
CONTINUOUS
100
AcDbLine
 10
-52.5
 20
-51.0
 30
0.0
 11
47.0
 21
-51.0
 31
0.0
  0
LINE
  5
6DA4
330
6D9C
100
AcDbEntity
  8
0
  6
CONTINUOUS
100
AcDbLine
 10
-52.5
 20
-82.5
 30
0.0
 11
47.0
 21
-82.5
 31
0.0
  0
LINE
  5
6DA5
330
6D9C
100
AcDbEntity
  8
0
  6
CONTINUOUS
100
AcDbLine
 10
-57.5
 20
0.0
 30
0.0
 11
58.2251927359449
 21
0.0
 31
0.0
  0
LINE
  5
6DA6
330
6D9C
100
AcDbEntity
  8
0
  6
CONTINUOUS
100
AcDbLine
 10
-49.0
 20
-25.0
 30
0.0
 11
49.0
 21
-25.0
 31
0.0
  0
CIRCLE
  5
6DA7
330
6D9C
100
AcDbEntity
  8
0
  6
CONTINUOUS
100
AcDbCircle
 10
-35.0
 20
-72.0
 30
0.0
 40
5.0
  0
LINE
  5
6DA8
330
6D9C
100
AcDbEntity
  8
0
  6
CONTINUOUS
100
AcDbLine
 10
-47.0
 20
-82.5
 30
0.0
 11
-47.0
 21
-65.0
 31
0.0
  0
LINE
  5
6DA9
330
6D9C
100
AcDbEntity
  8
0
  6
CONTINUOUS
100
AcDbLine
 10
-35.0
 20
-65.0
 30
0.0
 11
-35.0
 21
-79.0
 31
0.0
  0
LINE
  5
6DAA
330
6D9C
100
AcDbEntity
  8
0
  6
CONTINUOUS
100
AcDbLine
 10
-49.0
 20
25.0
 30
0.0
 11
-49.0
 21
-25.0
 31
0.0
  0
ARC
  5
6DAB
330
6D9C
100
AcDbEntity
  8
0
  6
CONTINUOUS
100
AcDbCircle
 10
42.0
 20
-65.0
 30
0.0
 40
5.0
210
0.0
220
0.0
230
-1.0
100
AcDbArc
 50
0.0
 51
90.0
  0
LINE
  5
6DAC
330
6D9C
100
AcDbEntity
  8
0
  6
CONTINUOUS
100
AcDbLine
 10
-42.0
 20
-72.0
 30
0.0
 11
-28.0
 21
-72.0
 31
0.0
  0
LINE
  5
6DAD
330
6D9C
100
AcDbEntity
  8
0
  6
CONTINUOUS
100
AcDbLine
 10
-28.0
 20
-60.0
 30
0.0
 11
-42.0
 21
-60.0
 31
0.0
  0
CIRCLE
  5
6DAE
330
6D9C
100
AcDbEntity
  8
0
  6
CONTINUOUS
100
AcDbCircle
 10
35.0
 20
-72.0
 30
0.0
 40
5.0
  0
CIRCLE
  5
6DAF
330
6D9C
100
AcDbEntity
  8
0
  6
CONTINUOUS
100
AcDbCircle
 10
0.0
 20
-72.0
 30
0.0
 40
5.0
  0
LINE
  5
6DB0
330
6D9C
100
AcDbEntity
  8
0
  6
CONTINUOUS
100
AcDbLine
 10
-23.0
 20
-82.5
 30
0.0
 11
-23.0
 21
-65.0
 31
0.0
  0
LINE
  5
6DB1
330
6D9C
100
AcDbEntity
  8
0
  6
CONTINUOUS
100
AcDbLine
 10
12.0
 20
-82.5
 30
0.0
 11
12.0
 21
-65.0
 31
0.0
  0
LINE
  5
6DB2
330
6D9C
100
AcDbEntity
  8
0
  6
CONTINUOUS
100
AcDbLine
 10
-12.0
 20
-82.5
 30
0.0
 11
-12.0
 21
-65.0
 31
0.0
  0
LINE
  5
6DB3
330
6D9C
100
AcDbEntity
  8
0
  6
CONTINUOUS
100
AcDbLine
 10
47.0
 20
-82.5
 30
0.0
 11
47.0
 21
-65.0
 31
0.0
  0
LINE
  5
6DB4
330
6D9C
100
AcDbEntity
  8
0
  6
CONTINUOUS
100
AcDbLine
 10
23.0
 20
-82.5
 30
0.0
 11
23.0
 21
-65.0
 31
0.0
  0
LINE
  5
6DB5
330
6D9C
100
AcDbEntity
  8
0
  6
CONTINUOUS
100
AcDbLine
 10
35.0
 20
-65.0
 30
0.0
 11
35.0
 21
-79.0
 31
0.0
  0
LINE
  5
6DB6
330
6D9C
100
AcDbEntity
  8
0
  6
CONTINUOUS
100
AcDbLine
 10
49.0
 20
-25.0
 30
0.0
 11
49.0
 21
-131.5101879612343
 31
0.0
  0
LINE
  5
6DB7
330
6D9C
100
AcDbEntity
  8
0
  6
CONTINUOUS
100
AcDbLine
 10
47.0
 20
-25.0
 30
0.0
 11
47.0
 21
-131.5214696541707
 31
0.0
  0
LINE
  5
6DB8
330
6D9C
100
AcDbEntity
  8
0
  6
CONTINUOUS
100
AcDbLine
 10
48.0
 20
-149.845960942616
 30
0.0
 11
48.0
 21
-153.845960942616
 31
0.0
  0
LINE
  5
6DB9
330
6D9C
100
AcDbEntity
  8
0
  6
CONTINUOUS
100
AcDbLine
 10
47.0
 20
-134.5214696541707
 30
0.0
 11
47.0
 21
-153.845960942616
 31
0.0
  0
LINE
  5
6DBA
330
6D9C
100
AcDbEntity
  8
0
  6
CONTINUOUS
100
AcDbLine
 10
49.0
 20
-134.5101879612343
 30
0.0
 11
49.0
 21
-153.845960942616
 31
0.0
  0
SPLINE
  5
6DBB
330
6D9C
100
AcDbEntity
  8
0
  6
CONTINUOUS
100
AcDbSpline
210
0.0
220
0.0
230
1.0
 70
     8
 71
     3
 72
    12
 73
     8
 74
     0
 42
0.0000000001
 43
0.0000000001
 40
0.0
 40
0.0
 40
0.0
 40
0.0
 40
0.25
 40
0.5
 40
0.75
 40
0.9027560157721172
 40
1.0
 40
1.0
 40
1.0
 40
1.0
 10
49.0
 20
-153.845960942616
 30
0.0
 10
49.15692719906866
 20
-155.0345150325693
 30
0.0
 10
49.37589598553778
 20
-155.9207784093739
 30
0.0
 10
49.76687264274589
 20
-157.0318195661038
 30
0.0
 10
50.35438487459838
 20
-158.4317914732045
 30
0.0
 10
50.65699082607824
 20
-159.2027110017873
 30
0.0
 10
50.9174311296145
 20
-159.8815494359974
 30
0.0
 10
51.10274862781523
 20
-160.4220588057494
 30
0.0
  0
SPLINE
  5
6DBC
330
6D9C
100
AcDbEntity
  8
0
  6
CONTINUOUS
100
AcDbSpline
210
0.0
220
0.0
230
1.0
 70
     8
 71
     3
 72
    12
 73
     8
 74
     0
 42
0.0000000001
 43
0.0000000001
 40
0.0
 40
0.0
 40
0.0
 40
0.0
 40
0.25
 40
0.5
 40
0.75
 40
0.9027560157721172
 40
1.0
 40
1.0
 40
1.0
 40
1.0
 10
47.0
 20
-153.845960942616
 30
0.0
 10
46.84307280093134
 20
-155.0345150325693
 30
0.0
 10
46.6241040144622
 20
-155.9207784093739
 30
0.0
 10
46.23312735725408
 20
-157.0318195661038
 30
0.0
 10
45.64561512540166
 20
-158.4317914732045
 30
0.0
 10
45.34300917392175
 20
-159.2027110017873
 30
0.0
 10
45.0825688703855
 20
-159.8815494359974
 30
0.0
 10
44.8972513721848
 20
-160.4220588057494
 30
0.0
  0
ARC
  5
6DBD
330
6D9C
100
AcDbEntity
  8
0
  6
CONTINUOUS
100
AcDbCircle
 10
48.0
 20
-161.545960942616
 30
0.0
 40
3.299999999999998
100
AcDbArc
 50
160.0881997351804
 51
19.91180026481925
  0
CIRCLE
  5
6DBE
330
6D9C
100
AcDbEntity
  8
0
  6
CONTINUOUS
100
AcDbCircle
 10
48.0
 20
-161.545960942616
 30
0.0
 40
2.149999999999999
  0
LINE
  5
6DBF
330
6D9C
100
AcDbEntity
  8
0
  6
CONTINUOUS
100
AcDbLine
 10
47.0
 20
-153.845960942616
 30
0.0
 11
49.0
 21
-153.845960942616
 31
0.0
  0
LINE
  5
6DC0
330
6D9C
100
AcDbEntity
  8
0
  6
CONTINUOUS
100
AcDbLine
 10
47.0
 20
-149.845960942616
 30
0.0
 11
49.0
 21
-149.845960942616
 31
0.0
  0
SPLINE
  5
6DC1
330
6D9C
100
AcDbEntity
  8
0
  6
CONTINUOUS
100
AcDbSpline
210
0.0
220
0.0
230
1.0
 70
     8
 71
     3
 72
     8
 73
     4
 74
     0
 42
0.0000000001
 43
0.0000000001
 40
0.0
 40
0.0
 40
0.0
 40
0.0
 40
1.0
 40
1.0
 40
1.0
 40
1.0
 10
47.00000000073258
 20
-134.5214696541707
 30
0.0
 10
47.5463266700256
 20
-133.5619339293595
 30
0.0
 10
48.48752698565374
 20
-135.8187863795232
 30
0.0
 10
49.00000000116675
 20
-134.5101879612343
 30
0.0
  0
SPLINE
  5
6DC2
330
6D9C
100
AcDbEntity
  8
0
  6
CONTINUOUS
100
AcDbSpline
210
0.0
220
0.0
230
1.0
 70
     8
 71
     3
 72
     8
 73
     4
 74
     0
 42
0.0000000001
 43
0.0000000001
 40
0.0
 40
0.0
 40
0.0
 40
0.0
 40
1.0
 40
1.0
 40
1.0
 40
1.0
 10
47.00000000073258
 20
-131.5214696541707
 30
0.0
 10
47.5463266700256
 20
-130.5619339293595
 30
0.0
 10
48.48752698565374
 20
-132.8187863795232
 30
0.0
 10
49.00000000116675
 20
-131.5101879612343
 30
0.0
  0
LINE
  5
6DC3
330
6D9C
100
AcDbEntity
  8
0
  6
CONTINUOUS
100
AcDbLine
 10
49.0
 20
-82.5
 30
0.0
 11
52.5
 21
-82.5
 31
0.0
  0
LINE
  5
6DC4
330
6D9C
100
AcDbEntity
  8
0
  6
CONTINUOUS
100
AcDbLine
 10
-11.0
 20
25.0
 30
0.0
 11
-11.0
 21
-25.0
 31
0.0
  0
LINE
  5
6DC5
330
6D9C
100
AcDbEntity
  8
0
  6
CONTINUOUS
100
AcDbLine
 10
11.0
 20
25.0
 30
0.0
 11
11.0
 21
-25.0
 31
0.0
  0
LINE
  5
6DC6
330
6D9C
100
AcDbEntity
  8
0
  6
CONTINUOUS
100
AcDbLine
 10
49.0
 20
25.0
 30
0.0
 11
49.0
 21
-25.0
 31
0.0
  0
CIRCLE
  5
6DC7
330
6D9C
100
AcDbEntity
  8
0
  6
CONTINUOUS
100
AcDbCircle
 10
17.5
 20
-63.0
 30
0.0
 40
4.0
  0
LINE
  5
6DC8
330
6D9C
100
AcDbEntity
  8
0
  6
CONTINUOUS
100
AcDbLine
 10
12.0
 20
-63.0
 30
0.0
 11
23.0
 21
-63.0
 31
0.0
  0
LINE
  5
6DC9
330
6D9C
100
AcDbEntity
  8
0
  6
CONTINUOUS
100
AcDbLine
 10
7.0
 20
-60.0
 30
0.0
 11
-7.0
 21
-60.0
 31
0.0
  0
LINE
  5
6DCA
330
6D9C
100
AcDbEntity
  8
0
  6
CONTINUOUS
100
AcDbLine
 10
-7.0
 20
-72.0
 30
0.0
 11
7.0
 21
-72.0
 31
0.0
  0
ARC
  5
6DCB
330
6D9C
100
AcDbEntity
  8
0
  6
CONTINUOUS
100
AcDbCircle
 10
7.0
 20
-65.0
 30
0.0
 40
5.0
210
0.0
220
0.0
230
-1.0
100
AcDbArc
 50
0.0
 51
90.0
  0
ARC
  5
6DCC
330
6D9C
100
AcDbEntity
  8
0
  6
CONTINUOUS
100
AcDbCircle
 10
-7.0
 20
-65.0
 30
0.0
 40
5.0
210
0.0
220
0.0
230
-1.0
100
AcDbArc
 50
90.0
 51
180.0
  0
LINE
  5
6DCD
330
6D9C
100
AcDbEntity
  8
0
  6
CONTINUOUS
100
AcDbLine
 10
17.5
 20
-57.5
 30
0.0
 11
17.5
 21
-68.5
 31
0.0
  0
LINE
  5
6DCE
330
6D9C
100
AcDbEntity
  8
0
  6
CONTINUOUS
100
AcDbLine
 10
42.0
 20
-60.0
 30
0.0
 11
28.0
 21
-60.0
 31
0.0
  0
LINE
  5
6DCF
330
6D9C
100
AcDbEntity
  8
0
  6
CONTINUOUS
100
AcDbLine
 10
28.0
 20
-72.0
 30
0.0
 11
42.0
 21
-72.0
 31
0.0
  0
ARC
  5
6DD0
330
6D9C
100
AcDbEntity
  8
0
  6
CONTINUOUS
100
AcDbCircle
 10
-28.0
 20
-65.0
 30
0.0
 40
5.0
210
0.0
220
0.0
230
-1.0
100
AcDbArc
 50
0.0
 51
90.0
  0
ARC
  5
6DD1
330
6D9C
100
AcDbEntity
  8
0
  6
CONTINUOUS
100
AcDbCircle
 10
-42.0
 20
-65.0
 30
0.0
 40
5.0
210
0.0
220
0.0
230
-1.0
100
AcDbArc
 50
90.0
 51
180.0
  0
LINE
  5
6DD2
330
6D9C
100
AcDbEntity
  8
0
  6
CONTINUOUS
100
AcDbLine
 10
49.0
 20
-51.0
 30
0.0
 11
52.5
 21
-51.0
 31
0.0
  0
LINE
  5
6DD3
330
6D9C
100
AcDbEntity
  8
0
  6
CONTINUOUS
100
AcDbLine
 10
-7.0
 20
-18.5
 30
0.0
 11
-6.999999999999943
 21
20.15486870581022
 31
0.0
  0
LINE
  5
6DD4
330
6D9C
100
AcDbEntity
  8
0
  6
CONTINUOUS
100
AcDbLine
 10
7.0
 20
-18.5
 30
0.0
 11
7.000000000000056
 21
20.15486870581028
 31
0.0
  0
LINE
  5
6DD5
330
6D9C
100
AcDbEntity
  8
0
  6
CONTINUOUS
100
AcDbLine
 10
-7.0
 20
-18.5
 30
0.0
 11
7.0
 21
-18.5
 31
0.0
  0
LINE
  5
6DD6
330
6D9C
100
AcDbEntity
  8
0
  6
CONTINUOUS
100
AcDbLine
 10
7.0
 20
6.840789306861521
 30
0.0
 11
-6.999999999999147
 21
6.84078930686158
 31
0.0
  0
LINE
  5
6DD7
330
6D9C
100
AcDbEntity
  8
0
  6
CONTINUOUS
100
AcDbLine
 10
7.0
 20
20.15486870581028
 30
0.0
 11
-7.000000000000909
 21
20.15486870581022
 31
0.0
  0
LINE
  5
6DD8
330
6D9C
100
AcDbEntity
  8
0
  6
CONTINUOUS
100
AcDbLine
 10
7.0
 20
15.23995644007664
 30
0.0
 11
-7.0
 21
15.23995644007664
 31
0.0
  0
LINE
  5
6DD9
330
6D9C
100
AcDbEntity
  8
0
  6
CONTINUOUS
100
AcDbLine
 10
31.10000000000002
 20
10.0495722744776
 30
0.0
 11
31.10000000000002
 21
-6.431389353983262
 31
0.0
  0
LINE
  5
6DDA
330
6D9C
100
AcDbEntity
  8
0
  6
CONTINUOUS
100
AcDbLine
 10
31.60000000000001
 20
-6.33774752654889
 30
0.0
 11
31.60000000000001
 21
-16.98662646131889
 31
0.0
  0
LINE
  5
6DDB
330
6D9C
100
AcDbEntity
  8
0
  6
CONTINUOUS
100
AcDbLine
 10
27.0
 20
-7.000000000000027
 30
0.0
 11
27.0
 21
-11.00000000000002
 31
0.0
  0
LINE
  5
6DDC
330
6D9C
100
AcDbEntity
  8
0
  6
CONTINUOUS
100
AcDbLine
 10
36.19999999999999
 20
-7.000000000000027
 30
0.0
 11
36.19999999999999
 21
-11.00000000000002
 31
0.0
  0
LINE
  5
6DDD
330
6D9C
100
AcDbEntity
  8
0
  6
CONTINUOUS
100
AcDbLine
 10
27.0
 20
-12.0
 30
0.0
 11
36.2000000000001
 21
-12.0
 31
0.0
  0
LINE
  5
6DDE
330
6D9C
100
AcDbEntity
  8
0
  6
CONTINUOUS
100
AcDbLine
 10
27.0
 20
-16.0
 30
0.0
 11
36.2000000000001
 21
-16.0
 31
0.0
  0
LINE
  5
6DDF
330
6D9C
100
AcDbEntity
  8
0
  6
CONTINUOUS
100
AcDbLine
 10
25.36102323011846
 20
-14.0
 30
0.0
 11
37.44706175765649
 21
-14.0
 31
0.0
  0
LINE
  5
6DE0
330
6D9C
100
AcDbEntity
  8
0
  6
CONTINUOUS
100
AcDbLine
 10
27.0
 20
-11.0
 30
0.0
 11
36.2000000000001
 21
-11.0
 31
0.0
  0
LINE
  5
6DE1
330
6D9C
100
AcDbEntity
  8
0
  6
CONTINUOUS
100
AcDbLine
 10
27.0
 20
-12.00000000000001
 30
0.0
 11
27.0
 21
-16.00000000000003
 31
0.0
  0
LINE
  5
6DE2
330
6D9C
100
AcDbEntity
  8
0
  6
CONTINUOUS
100
AcDbLine
 10
36.19999999999999
 20
-12.00000000000001
 30
0.0
 11
36.19999999999999
 21
-16.00000000000003
 31
0.0
  0
CIRCLE
  5
6DE3
330
6D9C
100
AcDbEntity
  8
0
  6
CONTINUOUS
100
AcDbCircle
 10
31.10000000000002
 20
-1.900000000000004
 30
0.0
 40
2.5
  0
CIRCLE
  5
6DE4
330
6D9C
100
AcDbEntity
  8
0
  6
CONTINUOUS
100
AcDbCircle
 10
31.10000000000002
 20
-1.900000000000004
 30
0.0
 40
3.6
  0
LINE
  5
6DE5
330
6D9C
100
AcDbEntity
  8
0
  6
CONTINUOUS
100
AcDbLine
 10
25.4609078460486
 20
-1.900000000000004
 30
0.0
 11
36.34833098242575
 21
-1.900000000000004
 31
0.0
  0
LINE
  5
6DE6
330
6D9C
100
AcDbEntity
  8
0
  6
CONTINUOUS
100
AcDbLine
 10
27.0
 20
-7.0
 30
0.0
 11
36.2000000000001
 21
-7.0
 31
0.0
  0
LINE
  5
6DE7
330
6D9C
100
AcDbEntity
  8
0
  6
CONTINUOUS
100
AcDbLine
 10
25.36102323011846
 20
-9.0
 30
0.0
 11
37.44706175765649
 21
-9.0
 31
0.0
  0
CIRCLE
  5
6DE8
330
6D9C
100
AcDbEntity
  8
0
  6
CONTINUOUS
100
AcDbCircle
 10
31.10000000000002
 20
5.799999999999952
 30
0.0
 40
2.75
  0
LINE
  5
6DE9
330
6D9C
100
AcDbEntity
  8
0
  6
CONTINUOUS
100
AcDbLine
 10
25.4609078460486
 20
5.800000000000013
 30
0.0
 11
36.34833098242575
 21
5.800000000000013
 31
0.0
  0
ARC
  5
6DEA
330
6D9C
100
AcDbEntity
  8
0
  6
CONTINUOUS
100
AcDbCircle
 10
-28.0
 20
65.0
 30
0.0
 40
5.0
100
AcDbArc
 50
270.0
 51
0.0
  0
LINE
  5
6DEB
330
6D9C
100
AcDbEntity
  8
0
  6
CONTINUOUS
100
AcDbLine
 10
-52.5
 20
51.0
 30
0.0
 11
52.5
 21
51.0
 31
0.0
  0
LINE
  5
6DEC
330
6D9C
100
AcDbEntity
  8
0
  6
CONTINUOUS
100
AcDbLine
 10
52.5
 20
82.5
 30
0.0
 11
-52.5
 21
82.5
 31
0.0
  0
LINE
  5
6DED
330
6D9C
100
AcDbEntity
  8
0
  6
CONTINUOUS
100
AcDbLine
 10
-47.0
 20
82.5
 30
0.0
 11
-47.0
 21
65.0
 31
0.0
  0
ARC
  5
6DEE
330
6D9C
100
AcDbEntity
  8
0
  6
CONTINUOUS
100
AcDbCircle
 10
-42.0
 20
65.0
 30
0.0
 40
5.0
100
AcDbArc
 50
180.0
 51
270.0
  0
CIRCLE
  5
6DEF
330
6D9C
100
AcDbEntity
  8
0
  6
CONTINUOUS
100
AcDbCircle
 10
-35.0
 20
72.0
 30
0.0
 40
5.0
  0
LINE
  5
6DF0
330
6D9C
100
AcDbEntity
  8
0
  6
CONTINUOUS
100
AcDbLine
 10
-35.0
 20
79.0
 30
0.0
 11
-35.0
 21
65.0
 31
0.0
  0
LINE
  5
6DF1
330
6D9C
100
AcDbEntity
  8
0
  6
CONTINUOUS
100
AcDbLine
 10
-28.0
 20
60.0
 30
0.0
 11
-42.0
 21
60.0
 31
0.0
  0
LINE
  5
6DF2
330
6D9C
100
AcDbEntity
  8
0
  6
CONTINUOUS
100
AcDbLine
 10
-42.0
 20
72.0
 30
0.0
 11
-28.0
 21
72.0
 31
0.0
  0
LINE
  5
6DF3
330
6D9C
100
AcDbEntity
  8
0
  6
CONTINUOUS
100
AcDbLine
 10
-23.0
 20
82.5
 30
0.0
 11
-23.0
 21
65.0
 31
0.0
  0
LINE
  5
6DF4
330
6D9C
100
AcDbEntity
  8
0
  6
CONTINUOUS
100
AcDbLine
 10
12.0
 20
82.5
 30
0.0
 11
12.0
 21
65.0
 31
0.0
  0
LINE
  5
6DF5
330
6D9C
100
AcDbEntity
  8
0
  6
CONTINUOUS
100
AcDbLine
 10
-12.0
 20
82.5
 30
0.0
 11
-12.0
 21
65.0
 31
0.0
  0
LINE
  5
6DF6
330
6D9C
100
AcDbEntity
  8
0
  6
CONTINUOUS
100
AcDbLine
 10
23.0
 20
82.5
 30
0.0
 11
23.0
 21
65.0
 31
0.0
  0
LINE
  5
6DF7
330
6D9C
100
AcDbEntity
  8
0
  6
CONTINUOUS
100
AcDbLine
 10
47.0
 20
82.5
 30
0.0
 11
47.0
 21
65.0
 31
0.0
  0
CIRCLE
  5
6DF8
330
6D9C
100
AcDbEntity
  8
0
  6
CONTINUOUS
100
AcDbCircle
 10
0.0
 20
72.0
 30
0.0
 40
5.0
  0
LINE
  5
6DF9
330
6D9C
100
AcDbEntity
  8
0
  6
CONTINUOUS
100
AcDbLine
 10
7.0
 20
60.0
 30
0.0
 11
-7.0
 21
60.0
 31
0.0
  0
LINE
  5
6DFA
330
6D9C
100
AcDbEntity
  8
0
  6
CONTINUOUS
100
AcDbLine
 10
-7.0
 20
72.0
 30
0.0
 11
7.0
 21
72.0
 31
0.0
  0
LINE
  5
6DFB
330
6D9C
100
AcDbEntity
  8
0
  6
CONTINUOUS
100
AcDbLine
 10
-17.5
 20
68.5
 30
0.0
 11
-17.5
 21
57.5
 31
0.0
  0
ARC
  5
6DFC
330
6D9C
100
AcDbEntity
  8
0
  6
CONTINUOUS
100
AcDbCircle
 10
-7.0
 20
65.0
 30
0.0
 40
5.0
100
AcDbArc
 50
180.0
 51
270.0
  0
LINE
  5
6DFD
330
6D9C
100
AcDbEntity
  8
0
  6
CONTINUOUS
100
AcDbLine
 10
-23.0
 20
63.0
 30
0.0
 11
-12.0
 21
63.0
 31
0.0
  0
CIRCLE
  5
6DFE
330
6D9C
100
AcDbEntity
  8
0
  6
CONTINUOUS
100
AcDbCircle
 10
-17.5
 20
63.0
 30
0.0
 40
4.0
  0
ARC
  5
6DFF
330
6D9C
100
AcDbEntity
  8
0
  6
CONTINUOUS
100
AcDbCircle
 10
7.0
 20
65.0
 30
0.0
 40
5.0
100
AcDbArc
 50
270.0
 51
0.0
  0
LINE
  5
6E00
330
6D9C
100
AcDbEntity
  8
0
  6
CONTINUOUS
100
AcDbLine
 10
42.0
 20
60.0
 30
0.0
 11
28.0
 21
60.0
 31
0.0
  0
LINE
  5
6E01
330
6D9C
100
AcDbEntity
  8
0
  6
CONTINUOUS
100
AcDbLine
 10
28.0
 20
72.0
 30
0.0
 11
42.0
 21
72.0
 31
0.0
  0
CIRCLE
  5
6E02
330
6D9C
100
AcDbEntity
  8
0
  6
CONTINUOUS
100
AcDbCircle
 10
35.0
 20
72.0
 30
0.0
 40
5.0
  0
LINE
  5
6E03
330
6D9C
100
AcDbEntity
  8
0
  6
CONTINUOUS
100
AcDbLine
 10
35.0
 20
79.0
 30
0.0
 11
35.0
 21
65.0
 31
0.0
  0
ARC
  5
6E04
330
6D9C
100
AcDbEntity
  8
0
  6
CONTINUOUS
100
AcDbCircle
 10
28.0
 20
65.0
 30
0.0
 40
5.0
100
AcDbArc
 50
180.0
 51
270.0
  0
ARC
  5
6E05
330
6D9C
100
AcDbEntity
  8
0
  6
CONTINUOUS
100
AcDbCircle
 10
42.0
 20
65.0
 30
0.0
 40
5.0
100
AcDbArc
 50
270.0
 51
0.0
  0
LINE
  5
6E06
330
6D9C
100
AcDbEntity
  8
0
  6
PHANTOM
100
AcDbLine
 10
19.0
 20
129.4999999999999
 30
0.0
 11
19.0
 21
82.49999999999992
 31
0.0
  0
LINE
  5
6E07
330
6D9C
100
AcDbEntity
  8
0
  6
PHANTOM
100
AcDbLine
 10
16.0
 20
129.4999999999999
 30
0.0
 11
16.0
 21
82.49999999999992
 31
0.0
  0
LINE
  5
6E08
330
6D9C
100
AcDbEntity
  8
0
  6
PHANTOM
100
AcDbLine
 10
-16.0
 20
129.4999999999999
 30
0.0
 11
-16.0
 21
82.49999999999992
 31
0.0
  0
LINE
  5
6E09
330
6D9C
100
AcDbEntity
  8
0
  6
PHANTOM
100
AcDbLine
 10
-19.0
 20
129.4999999999999
 30
0.0
 11
-19.0
 21
82.49999999999992
 31
0.0
  0
LINE
  5
6E0A
330
6D9C
100
AcDbEntity
  8
0
  6
PHANTOM
100
AcDbLine
 10
-16.0
 20
129.4999999999999
 30
0.0
 11
-19.0
 21
129.4999999999999
 31
0.0
  0
LINE
  5
6E0B
330
6D9C
100
AcDbEntity
  8
0
  6
PHANTOM
100
AcDbLine
 10
16.0
 20
129.4999999999999
 30
0.0
 11
19.0
 21
129.4999999999999
 31
0.0
  0
ENDBLK
  5
6E0D
330
6D9C
100
AcDbEntity
  8
0
100
AcDbBlockEnd
  0
BLOCK
  5
731F
330
725D
100
AcDbEntity
  8
0
100
AcDbBlockBegin
  2
A$C15744025
 70
     0
 10
0.0
 20
0.0
 30
0.0
  3
A$C15744025
  1

  0
LINE
  5
725E
330
725D
100
AcDbEntity
  8
0
100
AcDbLine
 10
46.0
 20
-174.5
 30
0.0
 11
74.0
 21
-174.5
 31
0.0
  0
LINE
  5
725F
330
725D
100
AcDbEntity
  8
0
100
AcDbLine
 10
49.0
 20
-160.0
 30
0.0
 11
71.0
 21
-160.0
 31
0.0
  0
LINE
  5
7260
330
725D
100
AcDbEntity
  8
0
100
AcDbLine
 10
49.0
 20
160.0000000000002
 30
0.0
 11
71.0
 21
160.0000000000002
 31
0.0
  0
LINE
  5
7261
330
725D
100
AcDbEntity
  8
0
100
AcDbLine
 10
46.0
 20
174.5000000000002
 30
0.0
 11
74.0
 21
174.5000000000002
 31
0.0
  0
LINE
  5
7262
330
725D
100
AcDbEntity
  8
0
100
AcDbLine
 10
-70.00000000000007
 20
50.99999999999909
 30
0.0
 11
70.0
 21
50.99999999999909
 31
0.0
  0
LINE
  5
7263
330
725D
100
AcDbEntity
  8
0
100
AcDbLine
 10
-53.0
 20
45.0000000000001
 30
0.0
 11
53.0
 21
45.0000000000001
 31
0.0
  0
LINE
  5
7264
330
725D
100
AcDbEntity
  8
0
100
AcDbLine
 10
70.0
 20
130.0
 30
0.0
 11
-70.00000000000007
 21
130.0
 31
0.0
  0
LINE
  5
7265
330
725D
100
AcDbEntity
  8
0
100
AcDbLine
 10
-53.0
 20
-45.0
 30
0.0
 11
53.0
 21
-45.0
 31
0.0
  0
LINE
  5
7266
330
725D
100
AcDbEntity
  8
0
100
AcDbLine
 10
-75.00000000000007
 20
0.0
 30
0.0
 11
75.0
 21
0.0
 31
0.0
  0
LINE
  5
7267
330
725D
100
AcDbEntity
  8
0
100
AcDbLine
 10
36.0
 20
-114.0
 30
0.0
 11
54.0
 21
-114.0
 31
0.0
  0
LINE
  5
7268
330
725D
100
AcDbEntity
  8
0
100
AcDbLine
 10
36.0
 20
114.0000000000001
 30
0.0
 11
54.0
 21
114.0000000000001
 31
0.0
  0
LINE
  5
7269
330
725D
100
AcDbEntity
  8
0
100
AcDbLine
 10
-70.00000000000007
 20
-130.0
 30
0.0
 11
70.0
 21
-130.0
 31
0.0
  0
LINE
  5
726A
330
725D
100
AcDbEntity
  8
0
100
AcDbLine
 10
-70.00000000000007
 20
-51.0
 30
0.0
 11
70.0
 21
-51.0
 31
0.0
  0
LINE
  5
726B
330
725D
100
AcDbEntity
  8
0
100
AcDbLine
 10
0.0
 20
178.5
 30
0.0
 11
0.0
 21
-178.5
 31
0.0
  0
LINE
  5
726C
330
725D
100
AcDbEntity
  8
0
100
AcDbLine
 10
-25.49999999999977
 20
-45.0
 30
0.0
 11
-25.5
 21
45.0000000000001
 31
0.0
  0
LINE
  5
726D
330
725D
100
AcDbEntity
  8
0
100
AcDbLine
 10
25.49999999999977
 20
-45.0
 30
0.0
 11
25.49999999999977
 21
45.0000000000001
 31
0.0
  0
LINE
  5
726E
330
725D
100
AcDbEntity
  8
0
100
AcDbLine
 10
-70.00000000000007
 20
130.0
 30
0.0
 11
-70.00000000000007
 21
-130.0
 31
0.0
  0
ARC
  5
726F
330
725D
100
AcDbEntity
  8
0
100
AcDbCircle
 10
-53.0
 20
-40.0
 30
0.0
 40
5.0
100
AcDbArc
 50
180.0
 51
270.0
  0
LINE
  5
7270
330
725D
100
AcDbEntity
  8
0
100
AcDbLine
 10
-71.00000000000004
 20
-160.0
 30
0.0
 11
-49.0
 21
-160.0
 31
0.0
  0
LINE
  5
7271
330
725D
100
AcDbEntity
  8
0
100
AcDbLine
 10
-74.00000000000004
 20
-150.0000000000003
 30
0.0
 11
-59.0
 21
-130.0000000000003
 31
0.0
  0
LINE
  5
7272
330
725D
100
AcDbEntity
  8
0
100
AcDbLine
 10
-74.00000000000004
 20
-174.5
 30
0.0
 11
-46.0
 21
-174.5
 31
0.0
  0
CIRCLE
  5
7273
330
725D
100
AcDbEntity
  8
0
100
AcDbCircle
 10
60.0
 20
-160.0
 30
0.0
 40
7.0
210
0.0
220
0.0
230
-1.0
  0
LINE
  5
7274
330
725D
100
AcDbEntity
  8
0
100
AcDbLine
 10
-74.00000000000004
 20
-174.5
 30
0.0
 11
-74.00000000000004
 21
-150.0000000000003
 31
0.0
  0
LINE
  5
7275
330
725D
100
AcDbEntity
  8
0
100
AcDbLine
 10
14.0
 20
-174.5
 30
0.0
 11
14.0
 21
-130.0
 31
0.0
  0
LINE
  5
7276
330
725D
100
AcDbEntity
  8
0
100
AcDbLine
 10
31.0
 20
-130.0000000000003
 30
0.0
 11
46.0
 21
-150.0000000000003
 31
0.0
  0
LINE
  5
7277
330
725D
100
AcDbEntity
  8
0
100
AcDbLine
 10
-46.0
 20
-150.0000000000003
 30
0.0
 11
-31.0
 21
-130.0000000000003
 31
0.0
  0
LINE
  5
7278
330
725D
100
AcDbEntity
  8
0
100
AcDbLine
 10
-14.0
 20
-174.5
 30
0.0
 11
-14.0
 21
-130.0
 31
0.0
  0
LINE
  5
7279
330
725D
100
AcDbEntity
  8
0
100
AcDbLine
 10
-11.0
 20
-160.0
 30
0.0
 11
11.0
 21
-160.0
 31
0.0
  0
LINE
  5
727A
330
725D
100
AcDbEntity
  8
0
100
AcDbLine
 10
-14.0
 20
-174.5
 30
0.0
 11
14.0
 21
-174.5
 31
0.0
  0
CIRCLE
  5
727B
330
725D
100
AcDbEntity
  8
0
100
AcDbCircle
 10
0.0
 20
-160.0
 30
0.0
 40
7.0
210
0.0
220
0.0
230
-1.0
  0
LINE
  5
727C
330
725D
100
AcDbEntity
  8
0
100
AcDbLine
 10
-60.0
 20
-149.0
 30
0.0
 11
-60.0
 21
-171.0
 31
0.0
  0
LINE
  5
727D
330
725D
100
AcDbEntity
  8
0
100
AcDbLine
 10
-46.0
 20
-174.5
 30
0.0
 11
-46.0
 21
-150.0000000000003
 31
0.0
  0
LINE
  5
727E
330
725D
100
AcDbEntity
  8
0
100
AcDbLine
 10
46.0
 20
-174.5
 30
0.0
 11
46.0
 21
-150.0000000000003
 31
0.0
  0
LINE
  5
727F
330
725D
100
AcDbEntity
  8
0
100
AcDbLine
 10
-9.0
 20
-114.0
 30
0.0
 11
9.0
 21
-114.0
 31
0.0
  0
LINE
  5
7280
330
725D
100
AcDbEntity
  8
0
100
AcDbLine
 10
-45.0000000000001
 20
-109.3811978464831
 30
0.0
 11
-41.0
 21
-111.6905989232416
 31
0.0
  0
LINE
  5
7281
330
725D
100
AcDbEntity
  8
0
100
AcDbLine
 10
-49.0
 20
-111.6905989232416
 30
0.0
 11
-45.0000000000001
 21
-109.3811978464831
 31
0.0
  0
LINE
  5
7282
330
725D
100
AcDbEntity
  8
0
100
AcDbLine
 10
-45.0
 20
-123.0
 30
0.0
 11
-45.0
 21
-105.0
 31
0.0
  0
ARC
  5
7283
330
725D
100
AcDbEntity
  8
0
100
AcDbCircle
 10
45.0
 20
-114.0
 30
0.0
 40
5.5
210
0.0
220
0.0
230
-1.0
100
AcDbArc
 50
0.0
 51
180.0
  0
LINE
  5
7284
330
725D
100
AcDbEntity
  8
0
100
AcDbLine
 10
-54.0
 20
-114.0
 30
0.0
 11
-36.0
 21
-114.0
 31
0.0
  0
LINE
  5
7285
330
725D
100
AcDbEntity
  8
0
100
AcDbLine
 10
-41.0
 20
-111.6905989232416
 30
0.0
 11
-41.0
 21
-116.3094010767586
 31
0.0
  0
LINE
  5
7286
330
725D
100
AcDbEntity
  8
0
100
AcDbLine
 10
-49.0
 20
-116.3094010767586
 30
0.0
 11
-49.0
 21
-111.6905989232416
 31
0.0
  0
LINE
  5
7287
330
725D
100
AcDbEntity
  8
0
100
AcDbLine
 10
-45.0
 20
-118.6188021535169
 30
0.0
 11
-49.0
 21
-116.3094010767586
 31
0.0
  0
LINE
  5
7288
330
725D
100
AcDbEntity
  8
0
100
AcDbLine
 10
-41.0
 20
-116.3094010767586
 30
0.0
 11
-45.0
 21
-118.6188021535169
 31
0.0
  0
LINE
  5
7289
330
725D
100
AcDbEntity
  8
0
100
AcDbLine
 10
-50.5
 20
-114.0
 30
0.0
 11
-50.5
 21
-130.0
 31
0.0
  0
LINE
  5
728A
330
725D
100
AcDbEntity
  8
0
100
AcDbLine
 10
-39.5
 20
-114.0
 30
0.0
 11
-39.5
 21
-130.0
 31
0.0
  0
ARC
  5
728B
330
725D
100
AcDbEntity
  8
0
100
AcDbCircle
 10
45.0
 20
-114.0
 30
0.0
 40
8.0
210
0.0
220
0.0
230
-1.0
100
AcDbArc
 50
226.5674634422111
 51
313.4325365577887
  0
LINE
  5
728C
330
725D
100
AcDbEntity
  8
0
100
AcDbLine
 10
-22.5
 20
-99.0
 30
0.0
 11
-22.5
 21
-115.0
 31
0.0
  0
CIRCLE
  5
728D
330
725D
100
AcDbEntity
  8
0
100
AcDbCircle
 10
-22.5
 20
-107.0
 30
0.0
 40
4.0
  0
LINE
  5
728E
330
725D
100
AcDbEntity
  8
0
100
AcDbLine
 10
-14.5
 20
-107.0
 30
0.0
 11
-30.5
 21
-107.0
 31
0.0
  0
LINE
  5
728F
330
725D
100
AcDbEntity
  8
0
100
AcDbLine
 10
30.5
 20
-107.0
 30
0.0
 11
14.5
 21
-107.0
 31
0.0
  0
CIRCLE
  5
7290
330
725D
100
AcDbEntity
  8
0
100
AcDbCircle
 10
22.5
 20
-107.0
 30
0.0
 40
4.0
  0
LINE
  5
7291
330
725D
100
AcDbEntity
  8
0
100
AcDbLine
 10
-0.0000000000001137
 20
-109.3811978464831
 30
0.0
 11
4.0
 21
-111.6905989232416
 31
0.0
  0
LINE
  5
7292
330
725D
100
AcDbEntity
  8
0
100
AcDbLine
 10
-4.0
 20
-111.6905989232416
 30
0.0
 11
-0.0000000000001137
 21
-109.3811978464831
 31
0.0
  0
LINE
  5
7293
330
725D
100
AcDbEntity
  8
0
100
AcDbLine
 10
22.5
 20
-99.0
 30
0.0
 11
22.5
 21
-115.0
 31
0.0
  0
LINE
  5
7294
330
725D
100
AcDbEntity
  8
0
100
AcDbLine
 10
0.0
 20
-123.0
 30
0.0
 11
0.0
 21
-105.0
 31
0.0
  0
ARC
  5
7295
330
725D
100
AcDbEntity
  8
0
100
AcDbCircle
 10
0.0
 20
-114.0
 30
0.0
 40
5.5
210
0.0
220
0.0
230
-1.0
100
AcDbArc
 50
0.0
 51
180.0
  0
LINE
  5
7296
330
725D
100
AcDbEntity
  8
0
100
AcDbLine
 10
4.0
 20
-111.6905989232416
 30
0.0
 11
4.0
 21
-116.3094010767586
 31
0.0
  0
LINE
  5
7297
330
725D
100
AcDbEntity
  8
0
100
AcDbLine
 10
-4.0
 20
-116.3094010767586
 30
0.0
 11
-4.0
 21
-111.6905989232416
 31
0.0
  0
LINE
  5
7298
330
725D
100
AcDbEntity
  8
0
100
AcDbLine
 10
0.0
 20
-118.6188021535169
 30
0.0
 11
-4.0
 21
-116.3094010767586
 31
0.0
  0
LINE
  5
7299
330
725D
100
AcDbEntity
  8
0
100
AcDbLine
 10
4.0
 20
-116.3094010767586
 30
0.0
 11
0.0
 21
-118.6188021535169
 31
0.0
  0
LINE
  5
729A
330
725D
100
AcDbEntity
  8
0
100
AcDbLine
 10
-5.5
 20
-114.0
 30
0.0
 11
-5.5
 21
-130.0
 31
0.0
  0
LINE
  5
729B
330
725D
100
AcDbEntity
  8
0
100
AcDbLine
 10
5.5
 20
-114.0
 30
0.0
 11
5.5
 21
-130.0
 31
0.0
  0
ARC
  5
729C
330
725D
100
AcDbEntity
  8
0
100
AcDbCircle
 10
0.0
 20
-114.0
 30
0.0
 40
8.0
210
0.0
220
0.0
230
-1.0
100
AcDbArc
 50
226.5674634422111
 51
313.4325365577887
  0
LINE
  5
729D
330
725D
100
AcDbEntity
  8
0
100
AcDbLine
 10
44.99999999999988
 20
-109.3811978464831
 30
0.0
 11
49.0
 21
-111.6905989232416
 31
0.0
  0
LINE
  5
729E
330
725D
100
AcDbEntity
  8
0
100
AcDbLine
 10
41.0
 20
-111.6905989232416
 30
0.0
 11
44.99999999999988
 21
-109.3811978464831
 31
0.0
  0
LINE
  5
729F
330
725D
100
AcDbEntity
  8
0
100
AcDbLine
 10
45.0
 20
-123.0
 30
0.0
 11
45.0
 21
-105.0
 31
0.0
  0
ARC
  5
72A0
330
725D
100
AcDbEntity
  8
0
100
AcDbCircle
 10
-45.0
 20
-114.0
 30
0.0
 40
5.5
210
0.0
220
0.0
230
-1.0
100
AcDbArc
 50
0.0
 51
180.0
  0
LINE
  5
72A1
330
725D
100
AcDbEntity
  8
0
100
AcDbLine
 10
49.0
 20
-111.6905989232416
 30
0.0
 11
49.0
 21
-116.3094010767586
 31
0.0
  0
LINE
  5
72A2
330
725D
100
AcDbEntity
  8
0
100
AcDbLine
 10
41.0
 20
-116.3094010767586
 30
0.0
 11
41.0
 21
-111.6905989232416
 31
0.0
  0
LINE
  5
72A3
330
725D
100
AcDbEntity
  8
0
100
AcDbLine
 10
45.0
 20
-118.6188021535169
 30
0.0
 11
41.0
 21
-116.3094010767586
 31
0.0
  0
LINE
  5
72A4
330
725D
100
AcDbEntity
  8
0
100
AcDbLine
 10
49.0
 20
-116.3094010767586
 30
0.0
 11
45.0
 21
-118.6188021535169
 31
0.0
  0
LINE
  5
72A5
330
725D
100
AcDbEntity
  8
0
100
AcDbLine
 10
39.5
 20
-114.0
 30
0.0
 11
39.5
 21
-130.0
 31
0.0
  0
LINE
  5
72A6
330
725D
100
AcDbEntity
  8
0
100
AcDbLine
 10
50.5
 20
-114.0
 30
0.0
 11
50.5
 21
-130.0
 31
0.0
  0
ARC
  5
72A7
330
725D
100
AcDbEntity
  8
0
100
AcDbCircle
 10
-45.0
 20
-114.0
 30
0.0
 40
8.0
210
0.0
220
0.0
230
-1.0
100
AcDbArc
 50
226.5674634422111
 51
313.4325365577887
  0
LINE
  5
72A8
330
725D
100
AcDbEntity
  8
0
100
AcDbLine
 10
14.0
 20
174.5000000000002
 30
0.0
 11
14.0
 21
130.0
 31
0.0
  0
LINE
  5
72A9
330
725D
100
AcDbEntity
  8
0
100
AcDbLine
 10
31.0
 20
130.0
 30
0.0
 11
46.0
 21
150.0
 31
0.0
  0
LINE
  5
72AA
330
725D
100
AcDbEntity
  8
0
100
AcDbLine
 10
-46.0
 20
150.0
 30
0.0
 11
-31.0
 21
130.0
 31
0.0
  0
LINE
  5
72AB
330
725D
100
AcDbEntity
  8
0
100
AcDbLine
 10
-74.00000000000004
 20
150.0
 30
0.0
 11
-59.0
 21
130.0
 31
0.0
  0
LINE
  5
72AC
330
725D
100
AcDbEntity
  8
0
100
AcDbLine
 10
-14.0
 20
174.5000000000002
 30
0.0
 11
-14.0
 21
130.0
 31
0.0
  0
LINE
  5
72AD
330
725D
100
AcDbEntity
  8
0
100
AcDbLine
 10
17.99999999999988
 20
-31.0
 30
0.0
 11
-18.0
 21
-31.0
 31
0.0
  0
LINE
  5
72AE
330
725D
100
AcDbEntity
  8
0
100
AcDbLine
 10
17.0
 20
17.0337027253521
 30
0.0
 11
-17.0
 21
17.0337027253521
 31
0.0
  0
LINE
  5
72AF
330
725D
100
AcDbEntity
  8
0
100
AcDbLine
 10
17.0
 20
28.03853193396571
 30
0.0
 11
-17.00000000000011
 21
28.03853193396571
 31
0.0
  0
LINE
  5
72B0
330
725D
100
AcDbEntity
  8
0
100
AcDbLine
 10
17.0
 20
39.33264411704204
 30
0.0
 11
-17.00000000000011
 21
39.33264411704204
 31
0.0
  0
LINE
  5
72B1
330
725D
100
AcDbEntity
  8
0
100
AcDbLine
 10
-18.0
 20
-31.0
 30
0.0
 11
-18.00000000000011
 21
31.00000000000011
 31
0.0
  0
LINE
  5
72B2
330
725D
100
AcDbEntity
  8
0
100
AcDbLine
 10
-58.0
 20
40.00000000000009
 30
0.0
 11
-58.0
 21
-40.0
 31
0.0
  0
ARC
  5
72B3
330
725D
100
AcDbEntity
  8
0
100
AcDbCircle
 10
-53.0
 20
40.00000000000009
 30
0.0
 40
5.0
100
AcDbArc
 50
90.0
 51
180.0
  0
LINE
  5
72B4
330
725D
100
AcDbEntity
  8
0
100
AcDbLine
 10
-17.00000000000011
 20
17.0337027253521
 30
0.0
 11
-17.00000000000011
 21
39.33264411704204
 31
0.0
  0
LINE
  5
72B5
330
725D
100
AcDbEntity
  8
0
100
AcDbLine
 10
-17.00000000000011
 20
31.00000000000011
 30
0.0
 11
-18.00000000000011
 21
31.00000000000011
 31
0.0
  0
LINE
  5
72B6
330
725D
100
AcDbEntity
  8
0
100
AcDbLine
 10
17.99999999999988
 20
-31.0
 30
0.0
 11
18.0
 21
31.00000000000011
 31
0.0
  0
CIRCLE
  5
72B7
330
725D
100
AcDbEntity
  8
0
100
AcDbCircle
 10
40.94999999999993
 20
5.0
 30
0.0
 40
5.5
  0
CIRCLE
  5
72B8
330
725D
100
AcDbEntity
  8
0
100
AcDbCircle
 10
40.94999999999993
 20
5.0
 30
0.0
 40
3.5
  0
LINE
  5
72B9
330
725D
100
AcDbEntity
  8
0
100
AcDbLine
 10
19.0
 20
-40.45000000000015
 30
0.0
 11
24.29999999999994
 21
-40.45000000000015
 31
0.0
  0
LINE
  5
72BA
330
725D
100
AcDbEntity
  8
0
100
AcDbLine
 10
19.0
 20
-33.85000000000013
 30
0.0
 11
24.29999999999994
 21
-33.85000000000013
 31
0.0
  0
LINE
  5
72BB
330
725D
100
AcDbEntity
  8
0
100
AcDbLine
 10
19.0
 20
-33.85000000000013
 30
0.0
 11
19.0
 21
-40.45000000000015
 31
0.0
  0
LINE
  5
72BC
330
725D
100
AcDbEntity
  8
0
100
AcDbLine
 10
36.94999999999993
 20
-28.5
 30
0.0
 11
44.94999999999993
 21
-28.5
 31
0.0
  0
LINE
  5
72BD
330
725D
100
AcDbEntity
  8
0
100
AcDbLine
 10
36.94999999999993
 20
-23.5
 30
0.0
 11
44.94999999999993
 21
-23.5
 31
0.0
  0
LINE
  5
72BE
330
725D
100
AcDbEntity
  8
0
100
AcDbLine
 10
36.94999999999993
 20
-25.5
 30
0.0
 11
44.94999999999993
 21
-25.5
 31
0.0
  0
LINE
  5
72BF
330
725D
100
AcDbEntity
  8
0
100
AcDbLine
 10
36.94999999999993
 20
-20.5
 30
0.0
 11
44.94999999999993
 21
-20.5
 31
0.0
  0
LINE
  5
72C0
330
725D
100
AcDbEntity
  8
0
100
AcDbLine
 10
36.94999999999993
 20
-25.5
 30
0.0
 11
36.94999999999993
 21
-28.5
 31
0.0
  0
LINE
  5
72C1
330
725D
100
AcDbEntity
  8
0
100
AcDbLine
 10
36.94999999999993
 20
-20.5
 30
0.0
 11
36.94999999999993
 21
-23.5
 31
0.0
  0
LINE
  5
72C2
330
725D
100
AcDbEntity
  8
0
100
AcDbLine
 10
24.29999999999994
 20
-33.85000000000013
 30
0.0
 11
24.29999999999994
 21
-40.45000000000015
 31
0.0
  0
LINE
  5
72C3
330
725D
100
AcDbEntity
  8
0
100
AcDbLine
 10
44.94999999999993
 20
-25.5
 30
0.0
 11
44.94999999999993
 21
-28.5
 31
0.0
  0
LINE
  5
72C4
330
725D
100
AcDbEntity
  8
0
100
AcDbLine
 10
44.94999999999993
 20
-20.5
 30
0.0
 11
44.94999999999993
 21
-23.5
 31
0.0
  0
CIRCLE
  5
72C5
330
725D
100
AcDbEntity
  8
0
100
AcDbCircle
 10
40.94999999999993
 20
-10.0
 30
0.0
 40
3.5
  0
LINE
  5
72C6
330
725D
100
AcDbEntity
  8
0
100
AcDbLine
 10
17.0
 20
17.0337027253521
 30
0.0
 11
17.0
 21
39.33264411704204
 31
0.0
  0
LINE
  5
72C7
330
725D
100
AcDbEntity
  8
0
100
AcDbLine
 10
18.0
 20
31.00000000000011
 30
0.0
 11
17.0
 21
31.00000000000011
 31
0.0
  0
LINE
  5
72C8
330
725D
100
AcDbEntity
  8
0
100
AcDbLine
 10
-9.0
 20
114.0000000000001
 30
0.0
 11
9.0
 21
114.0000000000001
 31
0.0
  0
LINE
  5
72C9
330
725D
100
AcDbEntity
  8
0
100
AcDbLine
 10
-50.5
 20
114.0000000000001
 30
0.0
 11
-50.5
 21
130.0
 31
0.0
  0
LINE
  5
72CA
330
725D
100
AcDbEntity
  8
0
100
AcDbLine
 10
-39.5
 20
114.0000000000001
 30
0.0
 11
-39.5
 21
130.0
 31
0.0
  0
LINE
  5
72CB
330
725D
100
AcDbEntity
  8
0
100
AcDbLine
 10
-45.0
 20
105.0
 30
0.0
 11
-45.0
 21
123.0000000000001
 31
0.0
  0
ARC
  5
72CC
330
725D
100
AcDbEntity
  8
0
100
AcDbCircle
 10
-45.0
 20
114.0000000000001
 30
0.0
 40
5.5
100
AcDbArc
 50
180.0
 51
0.0
  0
LINE
  5
72CD
330
725D
100
AcDbEntity
  8
0
100
AcDbLine
 10
-54.0
 20
114.0000000000001
 30
0.0
 11
-36.0
 21
114.0000000000001
 31
0.0
  0
LINE
  5
72CE
330
725D
100
AcDbEntity
  8
0
100
AcDbLine
 10
-41.0
 20
111.6905989232412
 30
0.0
 11
-41.0
 21
116.3094010767582
 31
0.0
  0
LINE
  5
72CF
330
725D
100
AcDbEntity
  8
0
100
AcDbLine
 10
-45.0000000000001
 20
109.3811978464827
 30
0.0
 11
-41.0
 21
111.6905989232412
 31
0.0
  0
LINE
  5
72D0
330
725D
100
AcDbEntity
  8
0
100
AcDbLine
 10
-49.0
 20
111.6905989232412
 30
0.0
 11
-45.0000000000001
 21
109.3811978464827
 31
0.0
  0
LINE
  5
72D1
330
725D
100
AcDbEntity
  8
0
100
AcDbLine
 10
-49.0
 20
116.3094010767582
 30
0.0
 11
-49.0
 21
111.6905989232412
 31
0.0
  0
LINE
  5
72D2
330
725D
100
AcDbEntity
  8
0
100
AcDbLine
 10
-45.0
 20
118.6188021535167
 30
0.0
 11
-49.0
 21
116.3094010767582
 31
0.0
  0
LINE
  5
72D3
330
725D
100
AcDbEntity
  8
0
100
AcDbLine
 10
-41.0
 20
116.3094010767582
 30
0.0
 11
-45.0
 21
118.6188021535167
 31
0.0
  0
ARC
  5
72D4
330
725D
100
AcDbEntity
  8
0
100
AcDbCircle
 10
-45.0
 20
114.0000000000001
 30
0.0
 40
8.0
100
AcDbArc
 50
46.5674634422112
 51
133.4325365577887
  0
CIRCLE
  5
72D5
330
725D
100
AcDbEntity
  8
0
100
AcDbCircle
 10
22.50000000000011
 20
107.0
 30
0.0
 40
4.0
210
0.0
220
0.0
230
-1.0
  0
LINE
  5
72D6
330
725D
100
AcDbEntity
  8
0
100
AcDbLine
 10
-14.5
 20
107.0
 30
0.0
 11
-30.5
 21
107.0
 31
0.0
  0
LINE
  5
72D7
330
725D
100
AcDbEntity
  8
0
100
AcDbLine
 10
-22.5
 20
115.0000000000001
 30
0.0
 11
-22.5
 21
99.00000000000012
 31
0.0
  0
LINE
  5
72D8
330
725D
100
AcDbEntity
  8
0
100
AcDbLine
 10
30.5
 20
107.0
 30
0.0
 11
14.5
 21
107.0
 31
0.0
  0
CIRCLE
  5
72D9
330
725D
100
AcDbEntity
  8
0
100
AcDbCircle
 10
-22.49999999999988
 20
107.0
 30
0.0
 40
4.0
210
0.0
220
0.0
230
-1.0
  0
LINE
  5
72DA
330
725D
100
AcDbEntity
  8
0
100
AcDbLine
 10
-5.5
 20
114.0000000000001
 30
0.0
 11
-5.5
 21
130.0
 31
0.0
  0
LINE
  5
72DB
330
725D
100
AcDbEntity
  8
0
100
AcDbLine
 10
5.5
 20
114.0000000000001
 30
0.0
 11
5.5
 21
130.0
 31
0.0
  0
LINE
  5
72DC
330
725D
100
AcDbEntity
  8
0
100
AcDbLine
 10
0.0
 20
105.0
 30
0.0
 11
0.0
 21
123.0000000000001
 31
0.0
  0
ARC
  5
72DD
330
725D
100
AcDbEntity
  8
0
100
AcDbCircle
 10
0.0
 20
114.0000000000001
 30
0.0
 40
5.5
100
AcDbArc
 50
180.0
 51
0.0
  0
LINE
  5
72DE
330
725D
100
AcDbEntity
  8
0
100
AcDbLine
 10
4.0
 20
111.6905989232412
 30
0.0
 11
4.0
 21
116.3094010767582
 31
0.0
  0
LINE
  5
72DF
330
725D
100
AcDbEntity
  8
0
100
AcDbLine
 10
-0.0000000000001137
 20
109.3811978464827
 30
0.0
 11
4.0
 21
111.6905989232412
 31
0.0
  0
LINE
  5
72E0
330
725D
100
AcDbEntity
  8
0
100
AcDbLine
 10
-4.0
 20
111.6905989232412
 30
0.0
 11
-0.0000000000001137
 21
109.3811978464827
 31
0.0
  0
LINE
  5
72E1
330
725D
100
AcDbEntity
  8
0
100
AcDbLine
 10
-4.0
 20
116.3094010767582
 30
0.0
 11
-4.0
 21
111.6905989232412
 31
0.0
  0
LINE
  5
72E2
330
725D
100
AcDbEntity
  8
0
100
AcDbLine
 10
0.0
 20
118.6188021535167
 30
0.0
 11
-4.0
 21
116.3094010767582
 31
0.0
  0
LINE
  5
72E3
330
725D
100
AcDbEntity
  8
0
100
AcDbLine
 10
4.0
 20
116.3094010767582
 30
0.0
 11
0.0
 21
118.6188021535167
 31
0.0
  0
LINE
  5
72E4
330
725D
100
AcDbEntity
  8
0
100
AcDbLine
 10
22.5
 20
115.0000000000001
 30
0.0
 11
22.5
 21
99.00000000000012
 31
0.0
  0
ARC
  5
72E5
330
725D
100
AcDbEntity
  8
0
100
AcDbCircle
 10
0.0
 20
114.0000000000001
 30
0.0
 40
8.0
100
AcDbArc
 50
46.5674634422112
 51
133.4325365577887
  0
LINE
  5
72E6
330
725D
100
AcDbEntity
  8
0
100
AcDbLine
 10
39.5
 20
114.0000000000001
 30
0.0
 11
39.5
 21
130.0
 31
0.0
  0
LINE
  5
72E7
330
725D
100
AcDbEntity
  8
0
100
AcDbLine
 10
50.5
 20
114.0000000000001
 30
0.0
 11
50.5
 21
130.0
 31
0.0
  0
LINE
  5
72E8
330
725D
100
AcDbEntity
  8
0
100
AcDbLine
 10
45.0
 20
105.0
 30
0.0
 11
45.0
 21
123.0000000000001
 31
0.0
  0
ARC
  5
72E9
330
725D
100
AcDbEntity
  8
0
100
AcDbCircle
 10
45.0
 20
114.0000000000001
 30
0.0
 40
5.5
100
AcDbArc
 50
180.0
 51
0.0
  0
LINE
  5
72EA
330
725D
100
AcDbEntity
  8
0
100
AcDbLine
 10
49.0
 20
111.6905989232412
 30
0.0
 11
49.0
 21
116.3094010767582
 31
0.0
  0
LINE
  5
72EB
330
725D
100
AcDbEntity
  8
0
100
AcDbLine
 10
44.99999999999988
 20
109.3811978464827
 30
0.0
 11
49.0
 21
111.6905989232412
 31
0.0
  0
LINE
  5
72EC
330
725D
100
AcDbEntity
  8
0
100
AcDbLine
 10
41.0
 20
111.6905989232412
 30
0.0
 11
44.99999999999988
 21
109.3811978464827
 31
0.0
  0
LINE
  5
72ED
330
725D
100
AcDbEntity
  8
0
100
AcDbLine
 10
41.0
 20
116.3094010767582
 30
0.0
 11
41.0
 21
111.6905989232412
 31
0.0
  0
LINE
  5
72EE
330
725D
100
AcDbEntity
  8
0
100
AcDbLine
 10
45.0
 20
118.6188021535167
 30
0.0
 11
41.0
 21
116.3094010767582
 31
0.0
  0
LINE
  5
72EF
330
725D
100
AcDbEntity
  8
0
100
AcDbLine
 10
49.0
 20
116.3094010767582
 30
0.0
 11
45.0
 21
118.6188021535167
 31
0.0
  0
ARC
  5
72F0
330
725D
100
AcDbEntity
  8
0
100
AcDbCircle
 10
45.0
 20
114.0000000000001
 30
0.0
 40
8.0
100
AcDbArc
 50
46.5674634422112
 51
133.4325365577887
  0
LINE
  5
72F1
330
725D
100
AcDbEntity
  8
0
100
AcDbLine
 10
-74.00000000000004
 20
174.5000000000002
 30
0.0
 11
-46.0
 21
174.5000000000002
 31
0.0
  0
LINE
  5
72F2
330
725D
100
AcDbEntity
  8
0
100
AcDbLine
 10
-71.00000000000004
 20
160.0000000000002
 30
0.0
 11
-49.0
 21
160.0000000000002
 31
0.0
  0
CIRCLE
  5
72F3
330
725D
100
AcDbEntity
  8
0
100
AcDbCircle
 10
-60.0
 20
160.0000000000002
 30
0.0
 40
7.0
  0
LINE
  5
72F4
330
725D
100
AcDbEntity
  8
0
100
AcDbLine
 10
-74.00000000000004
 20
174.5000000000002
 30
0.0
 11
-74.00000000000004
 21
150.0
 31
0.0
  0
LINE
  5
72F5
330
725D
100
AcDbEntity
  8
0
100
AcDbLine
 10
-11.0
 20
160.0000000000002
 30
0.0
 11
11.0
 21
160.0000000000002
 31
0.0
  0
LINE
  5
72F6
330
725D
100
AcDbEntity
  8
0
100
AcDbLine
 10
-14.0
 20
174.5000000000002
 30
0.0
 11
14.0
 21
174.5000000000002
 31
0.0
  0
CIRCLE
  5
72F7
330
725D
100
AcDbEntity
  8
0
100
AcDbCircle
 10
0.0
 20
160.0000000000002
 30
0.0
 40
7.0
  0
LINE
  5
72F8
330
725D
100
AcDbEntity
  8
0
100
AcDbLine
 10
-60.0
 20
171.0
 30
0.0
 11
-60.0
 21
149.0
 31
0.0
  0
LINE
  5
72F9
330
725D
100
AcDbEntity
  8
0
100
AcDbLine
 10
-46.0
 20
174.5000000000002
 30
0.0
 11
-46.0
 21
150.0
 31
0.0
  0
LINE
  5
72FA
330
725D
100
AcDbEntity
  8
0
100
AcDbLine
 10
46.0
 20
174.5000000000002
 30
0.0
 11
46.0
 21
150.0
 31
0.0
  0
ARC
  5
72FB
330
725D
100
AcDbEntity
  8
0
100
AcDbCircle
 10
53.0
 20
-40.0
 30
0.0
 40
5.0
100
AcDbArc
 50
270.0
 51
0.0
  0
LINE
  5
72FC
330
725D
100
AcDbEntity
  8
0
100
AcDbLine
 10
70.0
 20
130.0
 30
0.0
 11
70.0
 21
-130.0
 31
0.0
  0
LINE
  5
72FD
330
725D
100
AcDbEntity
  8
0
100
AcDbLine
 10
101.2499999999999
 20
-220.0727983283795
 30
0.0
 11
101.2499999999999
 21
-245.0
 31
0.0
  0
LINE
  5
72FE
330
725D
100
AcDbEntity
  8
0
100
AcDbLine
 10
99.25
 20
-218.6397501985154
 30
0.0
 11
99.25
 21
-245.0
 31
0.0
  0
LINE
  5
72FF
330
725D
100
AcDbEntity
  8
0
100
AcDbLine
 10
98.54999999999996
 20
-245.0
 30
0.0
 11
98.54999999999996
 21
-249.946911919693
 31
0.0
  0
LINE
  5
7300
330
725D
100
AcDbEntity
  8
0
100
AcDbLine
 10
101.9499999999996
 20
-245.0
 30
0.0
 11
101.9499999999996
 21
-249.946911919693
 31
0.0
  0
LINE
  5
7301
330
725D
100
AcDbEntity
  8
0
100
AcDbLine
 10
98.20195134105155
 20
-251.578859039728
 30
0.0
 11
96.59804865894841
 21
-255.1680528799646
 31
0.0
  0
ARC
  5
7302
330
725D
100
AcDbEntity
  8
0
100
AcDbCircle
 10
100.2499999999999
 20
-256.8
 30
0.0
 40
4.0
100
AcDbArc
 50
155.9215699388889
 51
24.07843006111111
  0
LINE
  5
7303
330
725D
100
AcDbEntity
  8
0
100
AcDbLine
 10
98.54999999999996
 20
-249.8
 30
0.0
 11
101.9499999999996
 21
-249.8
 31
0.0
  0
LINE
  5
7304
330
725D
100
AcDbEntity
  8
0
100
AcDbLine
 10
102.2980486589484
 20
-251.578859039728
 30
0.0
 11
103.9019513410514
 21
-255.1680528799646
 31
0.0
  0
ARC
  5
7305
330
725D
100
AcDbEntity
  8
0
100
AcDbCircle
 10
94.54999999999996
 20
-249.946911919693
 30
0.0
 40
4.0
100
AcDbArc
 50
335.9215699388887
 51
0.0
  0
CIRCLE
  5
7306
330
725D
100
AcDbEntity
  8
0
100
AcDbCircle
 10
100.2499999999999
 20
-256.8
 30
0.0
 40
2.149999999999999
  0
ARC
  5
7307
330
725D
100
AcDbEntity
  8
0
100
AcDbCircle
 10
105.9499999999996
 20
-249.946911919693
 30
0.0
 40
4.0
100
AcDbArc
 50
180.0
 51
204.0784300611111
  0
LINE
  5
7308
330
725D
100
AcDbEntity
  8
0
100
AcDbLine
 10
98.54999999999996
 20
-245.0
 30
0.0
 11
101.9499999999996
 21
-245.0
 31
0.0
  0
LINE
  5
7309
330
725D
100
AcDbEntity
  8
0
100
AcDbLine
 10
59.25
 20
-130.0
 30
0.0
 11
59.25
 21
-175.0
 31
0.0
  0
LINE
  5
730A
330
725D
100
AcDbEntity
  8
0
100
AcDbLine
 10
61.25
 20
-130.0
 30
0.0
 11
61.25
 21
-175.0
 31
0.0
  0
LINE
  5
730B
330
725D
100
AcDbEntity
  8
0
100
AcDbLine
 10
74.0
 20
-150.0000000000003
 30
0.0
 11
59.0
 21
-130.0000000000003
 31
0.0
  0
ARC
  5
730C
330
725D
100
AcDbEntity
  8
0
100
AcDbCircle
 10
71.25
 20
-175.0
 30
0.0
 40
10.0
100
AcDbArc
 50
180.0
 51
270.0
  0
ARC
  5
730D
330
725D
100
AcDbEntity
  8
0
100
AcDbCircle
 10
71.25
 20
-175.0
 30
0.0
 40
12.0
100
AcDbArc
 50
180.0
 51
270.0
  0
LINE
  5
730E
330
725D
100
AcDbEntity
  8
0
100
AcDbLine
 10
71.25
 20
-185.0
 30
0.0
 11
89.25
 21
-185.0
 31
0.0
  0
LINE
  5
730F
330
725D
100
AcDbEntity
  8
0
100
AcDbLine
 10
71.25
 20
-187.0
 30
0.0
 11
89.25
 21
-187.0
 31
0.0
  0
LINE
  5
7310
330
725D
100
AcDbEntity
  8
0
100
AcDbLine
 10
101.2499999999999
 20
-197.0
 30
0.0
 11
101.2499999999999
 21
-218.0727983283795
 31
0.0
  0
LINE
  5
7311
330
725D
100
AcDbEntity
  8
0
100
AcDbLine
 10
99.25
 20
-197.0
 30
0.0
 11
99.25
 21
-216.6397501985156
 31
0.0
  0
SPLINE
  5
7312
330
725D
100
AcDbEntity
  8
0
100
AcDbSpline
210
0.0
220
0.0
230
1.0
 70
     8
 71
     3
 72
     8
 73
     4
 74
     0
 42
0.0000000001
 43
0.0000000001
 40
0.0
 40
0.0
 40
0.0
 40
0.0
 40
1.0
 40
1.0
 40
1.0
 40
1.0
 10
96.25
 20
-219.0
 30
0.0
 10
98.25000000000001
 20
-215.0
 30
0.0
 10
102.2499999999999
 20
-224.0
 30
0.0
 10
104.2499999999999
 20
-219.0
 30
0.0
  0
SPLINE
  5
7313
330
725D
100
AcDbEntity
  8
0
100
AcDbSpline
210
0.0
220
0.0
230
1.0
 70
     8
 71
     3
 72
     8
 73
     4
 74
     0
 42
0.0000000001
 43
0.0000000001
 40
0.0
 40
0.0
 40
0.0
 40
0.0
 40
1.0
 40
1.0
 40
1.0
 40
1.0
 10
96.25
 20
-217.0
 30
0.0
 10
98.25000000000001
 20
-213.0
 30
0.0
 10
102.2499999999999
 20
-222.0
 30
0.0
 10
104.2499999999999
 20
-217.0
 30
0.0
  0
ARC
  5
7314
330
725D
100
AcDbEntity
  8
0
100
AcDbCircle
 10
89.25
 20
-197.0
 30
0.0
 40
12.0
100
AcDbArc
 50
0.0
 51
90.0
  0
ARC
  5
7315
330
725D
100
AcDbEntity
  8
0
100
AcDbCircle
 10
89.25
 20
-197.0
 30
0.0
 40
10.0
100
AcDbArc
 50
0.0
 51
90.0
  0
LINE
  5
7316
330
725D
100
AcDbEntity
  8
0
100
AcDbLine
 10
60.0
 20
-149.0
 30
0.0
 11
60.0
 21
-171.0
 31
0.0
  0
LINE
  5
7317
330
725D
100
AcDbEntity
  8
0
100
AcDbLine
 10
74.0
 20
-174.5
 30
0.0
 11
74.0
 21
-150.0000000000003
 31
0.0
  0
CIRCLE
  5
7318
330
725D
100
AcDbEntity
  8
0
100
AcDbCircle
 10
-60.0
 20
-160.0
 30
0.0
 40
7.0
210
0.0
220
0.0
230
-1.0
  0
LINE
  5
7319
330
725D
100
AcDbEntity
  8
0
100
AcDbLine
 10
74.0
 20
150.0
 30
0.0
 11
59.0
 21
130.0
 31
0.0
  0
LINE
  5
731A
330
725D
100
AcDbEntity
  8
0
100
AcDbLine
 10
58.0
 20
40.00000000000009
 30
0.0
 11
58.0
 21
-40.0
 31
0.0
  0
ARC
  5
731B
330
725D
100
AcDbEntity
  8
0
100
AcDbCircle
 10
53.0
 20
40.00000000000009
 30
0.0
 40
5.0
100
AcDbArc
 50
0.0
 51
90.0
  0
LINE
  5
731C
330
725D
100
AcDbEntity
  8
0
100
AcDbLine
 10
60.0
 20
171.0
 30
0.0
 11
60.0
 21
149.0
 31
0.0
  0
LINE
  5
731D
330
725D
100
AcDbEntity
  8
0
100
AcDbLine
 10
74.0
 20
174.5000000000002
 30
0.0
 11
74.0
 21
150.0
 31
0.0
  0
CIRCLE
  5
731E
330
725D
100
AcDbEntity
  8
0
100
AcDbCircle
 10
60.0
 20
160.0000000000002
 30
0.0
 40
7.0
  0
ENDBLK
  5
7320
330
725D
100
AcDbEntity
  8
0
100
AcDbBlockEnd
  0
BLOCK
  5
81E9
330
81E7
100
AcDbEntity
  8
TOP
  6
CONTINUOUS
 62
     4
100
AcDbBlockBegin
  2
*U4
 70
     1
 10
0.0
 20
0.0
 30
0.0
  3
*U4
  1

  0
TEXT
  5
81E8
330
81E7
100
AcDbEntity
  8
TOP
  6
BYBLOCK
 62
     0
100
AcDbText
 10
286.5
 20
136.5988377856377
 30
0.0
 40
2.500000003799998
  1
6
 50
90.00000000000005
 41
1.189062499999995
  7
UGMTXT
100
AcDbText
  0
ENDBLK
  5
81EA
330
81E7
100
AcDbEntity
  8
0
100
AcDbBlockEnd
  0
BLOCK
  5
81F2
330
81EB
100
AcDbEntity
  8
TOP
  6
CONTINUOUS
 62
     4
100
AcDbBlockBegin
  2
*U5
 70
     1
 10
0.0
 20
0.0
 30
0.0
  3
*U5
  1

  0
LINE
  5
81EC
330
81EB
100
AcDbEntity
  8
1
  6
BYBLOCK
 62
     0
100
AcDbLine
 10
288.8511961722489
 20
79.86472320362056
 30
0.0
 11
298.7500000084996
 21
79.86472320362056
 31
0.0
  0
LINE
  5
81ED
330
81EB
100
AcDbEntity
  8
1
  6
BYBLOCK
 62
     0
100
AcDbLine
 10
288.6511961722486
 20
137.4647232036204
 30
0.0
 11
298.7500000084996
 21
137.4647232036204
 31
0.0
  0
LINE
  5
81EE
330
81EB
100
AcDbEntity
  8
1
  6
BYBLOCK
 62
     0
100
AcDbLine
 10
297.7500000018998
 20
79.86472320362056
 30
0.0
 11
297.7500000018998
 21
137.4647232036204
 31
0.0
  0
SOLID
  5
81EF
330
81EB
100
AcDbEntity
  8
1
  6
BYBLOCK
 62
     0
100
AcDbTrace
 10
297.7500000018998
 20
79.86472320362056
 30
0.0
 11
297.4166666663666
 21
81.86472321682058
 31
0.0
 12
298.0833333374332
 22
81.86472321682058
 32
0.0
 13
298.0833333374332
 23
81.86472321682058
 33
0.0
  0
SOLID
  5
81F0
330
81EB
100
AcDbEntity
  8
1
  6
BYBLOCK
 62
     0
100
AcDbTrace
 10
297.7500000018998
 20
137.4647232036204
 30
0.0
 11
298.0833333374332
 21
135.4647231904205
 31
0.0
 12
297.4166666663666
 22
135.4647231904205
 32
0.0
 13
297.4166666663666
 23
135.4647231904205
 33
0.0
  0
TEXT
  5
81F1
330
81EB
100
AcDbEntity
  8
TOP
  6
BYBLOCK
 62
     0
100
AcDbText
 10
296.4999999999998
 20
105.817066949292
 30
0.0
 40
2.500000003799998
  1
144
 50
89.99999999999404
 41
0.8542968749999968
  7
UGMTXT
100
AcDbText
  0
ENDBLK
  5
81F3
330
81EB
100
AcDbEntity
  8
0
100
AcDbBlockEnd
  0
BLOCK
  5
81F8
330
81F4
100
AcDbEntity
  8
TOP
  6
CONTINUOUS
 62
     4
100
AcDbBlockBegin
  2
*U6
 70
     1
 10
0.0
 20
0.0
 30
0.0
  3
*U6
  1

  0
LINE
  5
81F5
330
81F4
100
AcDbEntity
  8
1
  6
BYBLOCK
 62
     0
100
AcDbLine
 10
277.8511961722488
 20
79.86472320362056
 30
0.0
 11
283.0330054314933
 21
79.86472320362056
 31
0.0
  0
LINE
  5
81F6
330
81F4
100
AcDbEntity
  8
1
  6
BYBLOCK
 62
     0
100
AcDbLine
 10
275.6511961722486
 20
137.4647232036204
 30
0.0
 11
283.0330054314933
 21
137.4647232036204
 31
0.0
  0
TEXT
  5
81F7
330
81F4
100
AcDbEntity
  8
TOP
  6
BYBLOCK
 62
     0
100
AcDbText
 10
280.7830054229933
 20
107.7988377856377
 30
0.0
 40
2.500000003799998
  1
 
 50
89.99999999999404
 41
1.189062499999995
  7
UGMTXT
100
AcDbText
  0
ENDBLK
  5
81F9
330
81F4
100
AcDbEntity
  8
0
100
AcDbBlockEnd
  0
BLOCK
  5
8201
330
81FA
100
AcDbEntity
  8
TOP
  6
CONTINUOUS
 62
     4
100
AcDbBlockBegin
  2
*U7
 70
     1
 10
0.0
 20
0.0
 30
0.0
  3
*U7
  1

  0
LINE
  5
81FB
330
81FA
100
AcDbEntity
  8
1
  6
BYBLOCK
 62
     0
100
AcDbLine
 10
244.8511961722486
 20
82.86472321022058
 30
0.0
 11
244.8511961722486
 21
94.7500000047
 31
0.0
  0
LINE
  5
81FC
330
81FA
100
AcDbEntity
  8
1
  6
BYBLOCK
 62
     0
100
AcDbLine
 10
253.6511961722488
 20
80.86472321022059
 30
0.0
 11
253.6511961722488
 21
94.7500000047
 31
0.0
  0
LINE
  5
81FD
330
81FA
100
AcDbEntity
  8
1
  6
BYBLOCK
 62
     0
100
AcDbLine
 10
244.8511961722486
 20
93.74999999809999
 30
0.0
 11
253.6511961722488
 21
93.74999999809999
 31
0.0
  0
SOLID
  5
81FE
330
81FA
100
AcDbEntity
  8
1
  6
BYBLOCK
 62
     0
100
AcDbTrace
 10
244.8511961722486
 20
93.74999999809999
 30
0.0
 11
246.8511961854487
 21
94.08333333363335
 31
0.0
 12
246.8511961854487
 22
93.41666666256669
 32
0.0
 13
246.8511961854487
 23
93.41666666256669
 33
0.0
  0
SOLID
  5
81FF
330
81FA
100
AcDbEntity
  8
1
  6
BYBLOCK
 62
     0
100
AcDbTrace
 10
253.6511961722488
 20
93.74999999809999
 30
0.0
 11
251.6511961590488
 21
93.41666666256669
 31
0.0
 12
251.6511961590488
 22
94.08333333363335
 32
0.0
 13
251.6511961590488
 23
94.08333333363335
 33
0.0
  0
TEXT
  5
8200
330
81FA
100
AcDbEntity
  8
TOP
  6
BYBLOCK
 62
     0
100
AcDbText
 10
247.3944253360929
 20
95.0
 30
0.0
 40
2.500000003799998
  1
22
 41
0.8912499999999965
  7
UGMTXT
100
AcDbText
  0
ENDBLK
  5
8202
330
81FA
100
AcDbEntity
  8
0
100
AcDbBlockEnd
  0
BLOCK
  5
8206
330
8203
100
AcDbEntity
  8
TOP
  6
CONTINUOUS
 62
     4
100
AcDbBlockBegin
  2
*U8
 70
     1
 10
0.0
 20
0.0
 30
0.0
  3
*U8
  1

  0
TEXT
  5
8204
330
8203
100
AcDbEntity
  8
TOP
  6
BYBLOCK
 62
     0
100
AcDbText
 10
242.2747888281548
 20
66.49794109708203
 30
0.0
 40
2.500000003799998
  1
9
 41
1.189062499999995
  7
UGMTXT
100
AcDbText
  0
TEXT
  5
8205
330
8203
100
AcDbEntity
  8
TOP
  6
BYBLOCK
 62
     0
100
AcDbText
 10
238.5815829186545
 20
65.24794109518203
 30
0.0
 40
2.500000003799998
  1
%%c
 41
1.519902056402508
  7
UGMTXT
100
AcDbText
  0
ENDBLK
  5
8207
330
8203
100
AcDbEntity
  8
0
100
AcDbBlockEnd
  0
BLOCK
  5
820E
330
8208
100
AcDbEntity
  8
TOP
  6
CONTINUOUS
 62
     4
100
AcDbBlockBegin
  2
*U9
 70
     1
 10
0.0
 20
0.0
 30
0.0
  3
*U9
  1

  0
LINE
  5
8209
330
8208
100
AcDbEntity
  8
1
  6
BYBLOCK
 62
     0
100
AcDbLine
 10
244.5229385704191
 20
65.56346219772153
 30
0.0
 11
237.5229385704189
 21
65.56346219772153
 31
0.0
  0
LINE
  5
820A
330
8208
100
AcDbEntity
  8
1
  6
BYBLOCK
 62
     0
100
AcDbLine
 10
252.6827479511676
 20
78.34745327276291
 30
0.0
 11
244.5229385704191
 21
65.56346219772153
 31
0.0
  0
SOLID
  5
820B
330
8208
100
AcDbEntity
  8
1
  6
BYBLOCK
 62
     0
100
AcDbTrace
 10
252.6827479511676
 20
78.34745327276291
 30
0.0
 11
251.887670280063
 21
76.48225551855867
 31
0.0
 12
251.3257184501105
 22
76.84094004725229
 32
0.0
 13
251.3257184501105
 23
76.84094004725229
 33
0.0
  0
TEXT
  5
820C
330
8208
100
AcDbEntity
  8
TOP
  6
BYBLOCK
 62
     0
100
AcDbText
 10
235.7911677344535
 20
64.31346219582156
 30
0.0
 40
2.500000003799998
  1
 
 41
1.189062499999995
  7
UGMTXT
100
AcDbText
  0
TEXT
  5
820D
330
8208
100
AcDbEntity
  8
TOP
  6
BYBLOCK
 62
     0
100
AcDbText
 10
234.0593968984879
 20
64.31346219582156
 30
0.0
 40
2.500000003799998
  1
 
 41
1.189062499999995
  7
UGMTXT
100
AcDbText
  0
ENDBLK
  5
820F
330
8208
100
AcDbEntity
  8
0
100
AcDbBlockEnd
  0
BLOCK
  5
8215
330
8210
100
AcDbEntity
  8
TOP
  6
CONTINUOUS
 62
     3
100
AcDbBlockBegin
  2
*U10
 70
     1
 10
0.0
 20
0.0
 30
0.0
  3
*U10
  1

  0
LINE
  5
8211
330
8210
100
AcDbEntity
  8
1
  6
BYBLOCK
 62
     0
100
AcDbLine
 10
269.7924859750975
 20
155.7087578669337
 30
0.0
 11
239.7924859750975
 21
155.7087578669337
 31
0.0
  0
LINE
  5
8212
330
8210
100
AcDbEntity
  8
1
  6
BYBLOCK
 62
     0
100
AcDbLine
 10
232.5311961722487
 20
145.5647232036205
 30
0.0
 11
239.7924859750975
 21
155.7087578669337
 31
0.0
  0
SOLID
  5
8213
330
8210
100
AcDbEntity
  8
1
  6
BYBLOCK
 62
     0
100
AcDbTrace
 10
232.5311961722487
 20
145.5647232036205
 30
0.0
 11
233.4242749741016
 21
147.3850312597085
 31
0.0
 12
233.9663706246246
 22
146.9969890506703
 32
0.0
 13
233.9663706246246
 23
146.9969890506703
 33
0.0
  0
TEXT
  5
8214
330
8210
100
AcDbEntity
  8
TOP
  6
BYBLOCK
 62
     0
100
AcDbText
 10
269.7924859750975
 20
154.2087578570335
 30
0.0
 40
3.000000019799997
  1
 
 41
1.189062499999995
  7
UGMTXT
100
AcDbText
  0
ENDBLK
  5
8216
330
8210
100
AcDbEntity
  8
0
100
AcDbBlockEnd
  0
BLOCK
  5
821C
330
8217
100
AcDbEntity
  8
TOP
  6
CONTINUOUS
 62
     4
100
AcDbBlockBegin
  2
*U11
 70
     1
 10
0.0
 20
0.0
 30
0.0
  3
*U11
  1

  0
LINE
  5
8218
330
8217
100
AcDbEntity
  8
1
  6
BYBLOCK
 62
     0
100
AcDbLine
 10
306.2784190863161
 20
59.91889685550898
 30
0.0
 11
280.2784190863159
 21
59.91889685550898
 31
0.0
  0
LINE
  5
8219
330
8217
100
AcDbEntity
  8
1
  6
BYBLOCK
 62
     0
100
AcDbLine
 10
270.2555202442598
 20
75.86472320362054
 30
0.0
 11
280.2784190863159
 21
59.91889685550898
 31
0.0
  0
SOLID
  5
821A
330
8217
100
AcDbEntity
  8
1
  6
BYBLOCK
 62
     0
100
AcDbTrace
 10
270.2555202442598
 20
75.86472320362054
 30
0.0
 11
271.6020624429755
 21
74.3488289881638
 31
0.0
 12
271.0376350110049
 22
73.99405282725358
 32
0.0
 13
271.0376350110049
 23
73.99405282725358
 33
0.0
  0
TEXT
  5
821B
330
8217
100
AcDbEntity
  8
TOP
  6
BYBLOCK
 62
     0
100
AcDbText
 10
306.2784190863161
 20
58.66889685550898
 30
0.0
 40
2.5
  1
 
 41
1.054062500000009
  7
UGMTXT
100
AcDbText
  0
ENDBLK
  5
821D
330
8217
100
AcDbEntity
  8
0
100
AcDbBlockEnd
  0
BLOCK
  5
8229
330
821E
100
AcDbEntity
  8
0
100
AcDbBlockBegin
  2
*D12
 70
     1
 10
0.0
 20
0.0
 30
0.0
  3
*D12
  1

  0
LINE
  5
821F
330
821E
100
AcDbEntity
  8
0
 62
     0
100
AcDbLine
 10
194.4511961722488
 20
107.6022231970203
 30
0.0
 11
194.4511961722488
 21
24.30294463882411
 31
0.0
  0
LINE
  5
8220
330
821E
100
AcDbEntity
  8
0
 62
     0
100
AcDbLine
 10
231.2511961722488
 20
75.60222320362058
 30
0.0
 11
231.2511961722488
 21
24.30294463882411
 31
0.0
  0
LINE
  5
8221
330
821E
100
AcDbEntity
  8
0
 62
     0
100
AcDbLine
 10
194.6311961722486
 20
24.48294463882412
 30
0.0
 11
212.2297676008201
 21
24.48294463882412
 31
0.0
  0
LINE
  5
8222
330
821E
100
AcDbEntity
  8
0
 62
     0
100
AcDbLine
 10
231.0711961722486
 20
24.48294463882412
 30
0.0
 11
213.4726247436773
 21
24.48294463882412
 31
0.0
  0
SOLID
  5
8223
330
821E
100
AcDbEntity
  8
0
 62
     0
100
AcDbTrace
 10
194.6311961722486
 20
24.51294463882412
 30
0.0
 11
194.6311961722486
 21
24.45294463882412
 31
0.0
 12
194.4511961722488
 22
24.48294463882412
 32
0.0
 13
194.4511961722488
 23
24.48294463882412
 33
0.0
  0
SOLID
  5
8224
330
821E
100
AcDbEntity
  8
0
 62
     0
100
AcDbTrace
 10
231.0711961722486
 20
24.51294463882412
 30
0.0
 11
231.0711961722486
 21
24.45294463882412
 31
0.0
 12
231.2511961722488
 22
24.48294463882412
 32
0.0
 13
231.2511961722488
 23
24.48294463882412
 33
0.0
  0
MTEXT
  5
8225
330
821E
100
AcDbEntity
  8
0
 62
     0
100
AcDbMText
 10
212.8511961722487
 20
24.48294463882412
 30
0.0
 40
0.18
 41
0.0
 71
     5
 72
     1
  1
\A1;36.8000
1001
ACAD
1000
MTEXTBEGIN
1070
    73
1070
     1
1070
    44
1040
1.0
1070
    74
1070
     0
1000
MTEXTEND
1000
MTEXTBEGIN
1070
    73
1070
     1
1070
    44
1040
1.0
1070
    74
1070
     0
1000
MTEXTEND
  0
POINT
  5
8226
330
821E
100
AcDbEntity
  8
DEFPOINTS
 62
     0
100
AcDbPoint
 10
194.4511961722488
 20
107.6647231970204
 30
0.0
  0
POINT
  5
8227
330
821E
100
AcDbEntity
  8
DEFPOINTS
 62
     0
100
AcDbPoint
 10
231.2511961722488
 20
75.66472320362058
 30
0.0
  0
POINT
  5
8228
330
821E
100
AcDbEntity
  8
DEFPOINTS
 62
     0
100
AcDbPoint
 10
231.2511961722488
 20
24.48294463882412
 30
0.0
  0
ENDBLK
  5
822A
330
821E
100
AcDbEntity
  8
0
100
AcDbBlockEnd
  0
BLOCK
  5
8236
330
822B
100
AcDbEntity
  8
0
100
AcDbBlockBegin
  2
*D13
 70
     1
 10
0.0
 20
0.0
 30
0.0
  3
*D13
  1

  0
LINE
  5
822C
330
822B
100
AcDbEntity
  8
0
 62
     0
100
AcDbLine
 10
202.4511961722488
 20
98.60222320362058
 30
0.0
 11
202.4511961722488
 21
34.3029446388241
 31
0.0
  0
LINE
  5
822D
330
822B
100
AcDbEntity
  8
0
 62
     0
100
AcDbLine
 10
231.2511961722488
 20
75.60222320362058
 30
0.0
 11
231.2511961722488
 21
34.30294463882411
 31
0.0
  0
LINE
  5
822E
330
822B
100
AcDbEntity
  8
0
 62
     0
100
AcDbLine
 10
202.6311961722488
 20
34.4829446388241
 30
0.0
 11
216.22976760082
 21
34.4829446388241
 31
0.0
  0
LINE
  5
822F
330
822B
100
AcDbEntity
  8
0
 62
     0
100
AcDbLine
 10
231.0711961722486
 20
34.4829446388241
 30
0.0
 11
217.4726247436774
 21
34.4829446388241
 31
0.0
  0
SOLID
  5
8230
330
822B
100
AcDbEntity
  8
0
 62
     0
100
AcDbTrace
 10
202.6311961722488
 20
34.51294463882411
 30
0.0
 11
202.6311961722488
 21
34.4529446388241
 31
0.0
 12
202.4511961722488
 22
34.4829446388241
 32
0.0
 13
202.4511961722488
 23
34.4829446388241
 33
0.0
  0
SOLID
  5
8231
330
822B
100
AcDbEntity
  8
0
 62
     0
100
AcDbTrace
 10
231.0711961722486
 20
34.51294463882411
 30
0.0
 11
231.0711961722486
 21
34.4529446388241
 31
0.0
 12
231.2511961722488
 22
34.4829446388241
 32
0.0
 13
231.2511961722488
 23
34.4829446388241
 33
0.0
  0
MTEXT
  5
8232
330
822B
100
AcDbEntity
  8
0
 62
     0
100
AcDbMText
 10
216.8511961722486
 20
34.4829446388241
 30
0.0
 40
0.18
 41
0.0
 71
     5
 72
     1
  1
\A1;28.8000
1001
ACAD
1000
MTEXTBEGIN
1070
    73
1070
     1
1070
    44
1040
1.0
1070
    74
1070
     0
1000
MTEXTEND
1000
MTEXTBEGIN
1070
    73
1070
     1
1070
    44
1040
1.0
1070
    74
1070
     0
1000
MTEXTEND
  0
POINT
  5
8233
330
822B
100
AcDbEntity
  8
DEFPOINTS
 62
     0
100
AcDbPoint
 10
202.4511961722488
 20
98.66472320362058
 30
0.0
  0
POINT
  5
8234
330
822B
100
AcDbEntity
  8
DEFPOINTS
 62
     0
100
AcDbPoint
 10
231.2511961722488
 20
75.66472320362058
 30
0.0
  0
POINT
  5
8235
330
822B
100
AcDbEntity
  8
DEFPOINTS
 62
     0
100
AcDbPoint
 10
231.2511961722488
 20
34.4829446388241
 30
0.0
  0
ENDBLK
  5
8237
330
822B
100
AcDbEntity
  8
0
100
AcDbBlockEnd
  0
BLOCK
  5
8243
330
8238
100
AcDbEntity
  8
0
100
AcDbBlockBegin
  2
*D14
 70
     1
 10
0.0
 20
0.0
 30
0.0
  3
*D14
  1

  0
LINE
  5
8239
330
8238
100
AcDbEntity
  8
0
 62
     0
100
AcDbLine
 10
206.8511961722486
 20
75.60222320362058
 30
0.0
 11
206.8511961722486
 21
54.30294463882412
 31
0.0
  0
LINE
  5
823A
330
8238
100
AcDbEntity
  8
0
 62
     0
100
AcDbLine
 10
231.2511961722488
 20
75.60222320362058
 30
0.0
 11
231.2511961722488
 21
54.30294463882412
 31
0.0
  0
LINE
  5
823B
330
8238
100
AcDbEntity
  8
0
 62
     0
100
AcDbLine
 10
207.0311961722488
 20
54.48294463882412
 30
0.0
 11
218.42976760082
 21
54.48294463882412
 31
0.0
  0
LINE
  5
823C
330
8238
100
AcDbEntity
  8
0
 62
     0
100
AcDbLine
 10
231.0711961722486
 20
54.48294463882412
 30
0.0
 11
219.6726247436773
 21
54.48294463882412
 31
0.0
  0
SOLID
  5
823D
330
8238
100
AcDbEntity
  8
0
 62
     0
100
AcDbTrace
 10
207.0311961722488
 20
54.51294463882412
 30
0.0
 11
207.0311961722488
 21
54.45294463882412
 31
0.0
 12
206.8511961722486
 22
54.48294463882412
 32
0.0
 13
206.8511961722486
 23
54.48294463882412
 33
0.0
  0
SOLID
  5
823E
330
8238
100
AcDbEntity
  8
0
 62
     0
100
AcDbTrace
 10
231.0711961722486
 20
54.51294463882412
 30
0.0
 11
231.0711961722486
 21
54.45294463882412
 31
0.0
 12
231.2511961722488
 22
54.48294463882412
 32
0.0
 13
231.2511961722488
 23
54.48294463882412
 33
0.0
  0
MTEXT
  5
823F
330
8238
100
AcDbEntity
  8
0
 62
     0
100
AcDbMText
 10
219.0511961722488
 20
54.48294463882412
 30
0.0
 40
0.18
 41
0.0
 71
     5
 72
     1
  1
\A1;24.4000
1001
ACAD
1000
MTEXTBEGIN
1070
    73
1070
     1
1070
    44
1040
1.0
1070
    74
1070
     0
1000
MTEXTEND
1000
MTEXTBEGIN
1070
    73
1070
     1
1070
    44
1040
1.0
1070
    74
1070
     0
1000
MTEXTEND
  0
POINT
  5
8240
330
8238
100
AcDbEntity
  8
DEFPOINTS
 62
     0
100
AcDbPoint
 10
206.8511961722486
 20
75.66472320362058
 30
0.0
  0
POINT
  5
8241
330
8238
100
AcDbEntity
  8
DEFPOINTS
 62
     0
100
AcDbPoint
 10
231.2511961722488
 20
75.66472320362058
 30
0.0
  0
POINT
  5
8242
330
8238
100
AcDbEntity
  8
DEFPOINTS
 62
     0
100
AcDbPoint
 10
231.2511961722488
 20
54.48294463882412
 30
0.0
  0
ENDBLK
  5
8244
330
8238
100
AcDbEntity
  8
0
100
AcDbBlockEnd
  0
BLOCK
  5
8250
330
8245
100
AcDbEntity
  8
0
100
AcDbBlockBegin
  2
*D15
 70
     1
 10
0.0
 20
0.0
 30
0.0
  3
*D15
  1

  0
LINE
  5
8246
330
8245
100
AcDbEntity
  8
0
 62
     0
100
AcDbLine
 10
204.0511961722488
 20
88.20222320362059
 30
0.0
 11
204.0511961722488
 21
44.30294463882412
 31
0.0
  0
LINE
  5
8247
330
8245
100
AcDbEntity
  8
0
 62
     0
100
AcDbLine
 10
231.2511961722488
 20
75.60222320362058
 30
0.0
 11
231.2511961722488
 21
44.30294463882412
 31
0.0
  0
LINE
  5
8248
330
8245
100
AcDbEntity
  8
0
 62
     0
100
AcDbLine
 10
204.2311961722488
 20
44.48294463882412
 30
0.0
 11
217.0297676008202
 21
44.48294463882412
 31
0.0
  0
LINE
  5
8249
330
8245
100
AcDbEntity
  8
0
 62
     0
100
AcDbLine
 10
231.0711961722486
 20
44.48294463882412
 30
0.0
 11
218.2726247436773
 21
44.48294463882412
 31
0.0
  0
SOLID
  5
824A
330
8245
100
AcDbEntity
  8
0
 62
     0
100
AcDbTrace
 10
204.2311961722488
 20
44.51294463882411
 30
0.0
 11
204.2311961722488
 21
44.45294463882412
 31
0.0
 12
204.0511961722488
 22
44.48294463882412
 32
0.0
 13
204.0511961722488
 23
44.48294463882412
 33
0.0
  0
SOLID
  5
824B
330
8245
100
AcDbEntity
  8
0
 62
     0
100
AcDbTrace
 10
231.0711961722486
 20
44.51294463882411
 30
0.0
 11
231.0711961722486
 21
44.45294463882412
 31
0.0
 12
231.2511961722488
 22
44.48294463882412
 32
0.0
 13
231.2511961722488
 23
44.48294463882412
 33
0.0
  0
MTEXT
  5
824C
330
8245
100
AcDbEntity
  8
0
 62
     0
100
AcDbMText
 10
217.6511961722487
 20
44.48294463882412
 30
0.0
 40
0.18
 41
0.0
 71
     5
 72
     1
  1
\A1;27.2000
1001
ACAD
1000
MTEXTBEGIN
1070
    73
1070
     1
1070
    44
1040
1.0
1070
    74
1070
     0
1000
MTEXTEND
1000
MTEXTBEGIN
1070
    73
1070
     1
1070
    44
1040
1.0
1070
    74
1070
     0
1000
MTEXTEND
  0
POINT
  5
824D
330
8245
100
AcDbEntity
  8
DEFPOINTS
 62
     0
100
AcDbPoint
 10
204.0511961722488
 20
88.26472320362059
 30
0.0
  0
POINT
  5
824E
330
8245
100
AcDbEntity
  8
DEFPOINTS
 62
     0
100
AcDbPoint
 10
231.2511961722488
 20
75.66472320362058
 30
0.0
  0
POINT
  5
824F
330
8245
100
AcDbEntity
  8
DEFPOINTS
 62
     0
100
AcDbPoint
 10
231.2511961722488
 20
44.48294463882412
 30
0.0
  0
ENDBLK
  5
8251
330
8245
100
AcDbEntity
  8
0
100
AcDbBlockEnd
  0
BLOCK
  5
825D
330
8252
100
AcDbEntity
  8
0
100
AcDbBlockBegin
  2
*D16
 70
     1
 10
0.0
 20
0.0
 30
0.0
  3
*D16
  1

  0
LINE
  5
8253
330
8252
100
AcDbEntity
  8
0
 62
     0
100
AcDbLine
 10
200.8511961722486
 20
98.60222320362058
 30
0.0
 11
200.8511961722486
 21
34.30294463882411
 31
0.0
  0
LINE
  5
8254
330
8252
100
AcDbEntity
  8
0
 62
     0
100
AcDbLine
 10
202.4511961722488
 20
98.60222320362058
 30
0.0
 11
202.4511961722488
 21
34.30294463882411
 31
0.0
  0
LINE
  5
8255
330
8252
100
AcDbEntity
  8
0
 62
     0
100
AcDbLine
 10
201.0311961722488
 20
34.48294463882412
 30
0.0
 11
201.1326247436774
 21
34.48294463882412
 31
0.0
  0
LINE
  5
8256
330
8252
100
AcDbEntity
  8
0
 62
     0
100
AcDbLine
 10
202.2711961722488
 20
34.48294463882412
 30
0.0
 11
202.1697676008201
 21
34.48294463882412
 31
0.0
  0
SOLID
  5
8257
330
8252
100
AcDbEntity
  8
0
 62
     0
100
AcDbTrace
 10
201.0311961722488
 20
34.51294463882411
 30
0.0
 11
201.0311961722488
 21
34.45294463882412
 31
0.0
 12
200.8511961722486
 22
34.48294463882412
 32
0.0
 13
200.8511961722486
 23
34.48294463882412
 33
0.0
  0
SOLID
  5
8258
330
8252
100
AcDbEntity
  8
0
 62
     0
100
AcDbTrace
 10
202.2711961722488
 20
34.51294463882411
 30
0.0
 11
202.2711961722488
 21
34.45294463882412
 31
0.0
 12
202.4511961722488
 22
34.48294463882412
 32
0.0
 13
202.4511961722488
 23
34.48294463882412
 33
0.0
  0
MTEXT
  5
8259
330
8252
100
AcDbEntity
  8
0
 62
     0
100
AcDbMText
 10
201.6511961722488
 20
34.48294463882412
 30
0.0
 40
0.18
 41
0.0
 71
     5
 72
     1
  1
\A1;1.6000
1001
ACAD
1000
MTEXTBEGIN
1070
    73
1070
     1
1070
    44
1040
1.0
1070
    74
1070
     0
1000
MTEXTEND
1000
MTEXTBEGIN
1070
    73
1070
     1
1070
    44
1040
1.0
1070
    74
1070
     0
1000
MTEXTEND
  0
POINT
  5
825A
330
8252
100
AcDbEntity
  8
DEFPOINTS
 62
     0
100
AcDbPoint
 10
200.8511961722486
 20
98.66472320362058
 30
0.0
  0
POINT
  5
825B
330
8252
100
AcDbEntity
  8
DEFPOINTS
 62
     0
100
AcDbPoint
 10
202.4511961722488
 20
98.66472320362058
 30
0.0
  0
POINT
  5
825C
330
8252
100
AcDbEntity
  8
DEFPOINTS
 62
     0
100
AcDbPoint
 10
202.4511961722488
 20
34.48294463882412
 30
0.0
  0
ENDBLK
  5
825E
330
8252
100
AcDbEntity
  8
0
100
AcDbBlockEnd
  0
BLOCK
  5
826A
330
825F
100
AcDbEntity
  8
0
100
AcDbBlockBegin
  2
*D17
 70
     1
 10
0.0
 20
0.0
 30
0.0
  3
*D17
  1

  0
LINE
  5
8260
330
825F
100
AcDbEntity
  8
0
 62
     0
100
AcDbLine
 10
203.9886961722487
 20
129.0647232036205
 30
0.0
 11
178.5700000019
 21
129.0647232036205
 31
0.0
  0
LINE
  5
8261
330
825F
100
AcDbEntity
  8
0
 62
     0
100
AcDbLine
 10
203.9886961722487
 20
88.26472320362059
 30
0.0
 11
178.5700000019
 21
88.26472320362059
 31
0.0
  0
LINE
  5
8262
330
825F
100
AcDbEntity
  8
0
 62
     0
100
AcDbLine
 10
178.7500000019
 20
128.8847232036204
 30
0.0
 11
178.7500000019
 21
108.8447232036204
 31
0.0
  0
LINE
  5
8263
330
825F
100
AcDbEntity
  8
0
 62
     0
100
AcDbLine
 10
178.7500000019
 20
88.44472320362058
 30
0.0
 11
178.7500000019
 21
108.4847232036205
 31
0.0
  0
SOLID
  5
8264
330
825F
100
AcDbEntity
  8
0
 62
     0
100
AcDbTrace
 10
178.7200000019
 20
128.8847232036204
 30
0.0
 11
178.7800000018999
 21
128.8847232036204
 31
0.0
 12
178.7500000019
 22
129.0647232036205
 32
0.0
 13
178.7500000019
 23
129.0647232036205
 33
0.0
  0
SOLID
  5
8265
330
825F
100
AcDbEntity
  8
0
 62
     0
100
AcDbTrace
 10
178.7200000019
 20
88.44472320362058
 30
0.0
 11
178.7800000018999
 21
88.44472320362058
 31
0.0
 12
178.7500000019
 22
88.26472320362059
 32
0.0
 13
178.7500000019
 23
88.26472320362059
 33
0.0
  0
MTEXT
  5
8266
330
825F
100
AcDbEntity
  8
0
 62
     0
100
AcDbMText
 10
178.7500000019
 20
108.6647232036205
 30
0.0
 40
0.18
 41
0.0
 71
     5
 72
     1
  1
\A1;40.8000
1001
ACAD
1000
MTEXTBEGIN
1070
    73
1070
     1
1070
    44
1040
1.0
1070
    74
1070
     0
1000
MTEXTEND
1000
MTEXTBEGIN
1070
    73
1070
     1
1070
    44
1040
1.0
1070
    74
1070
     0
1000
MTEXTEND
  0
POINT
  5
8267
330
825F
100
AcDbEntity
  8
DEFPOINTS
 62
     0
100
AcDbPoint
 10
204.0511961722488
 20
129.0647232036205
 30
0.0
  0
POINT
  5
8268
330
825F
100
AcDbEntity
  8
DEFPOINTS
 62
     0
100
AcDbPoint
 10
204.0511961722488
 20
88.26472320362059
 30
0.0
  0
POINT
  5
8269
330
825F
100
AcDbEntity
  8
DEFPOINTS
 62
     0
100
AcDbPoint
 10
178.7500000019
 20
88.26472320362059
 30
0.0
  0
ENDBLK
  5
826B
330
825F
100
AcDbEntity
  8
0
100
AcDbBlockEnd
  0
BLOCK
  5
8277
330
826C
100
AcDbEntity
  8
0
100
AcDbBlockBegin
  2
*D18
 70
     1
 10
0.0
 20
0.0
 30
0.0
  3
*D18
  1

  0
LINE
  5
826D
330
826C
100
AcDbEntity
  8
0
 62
     0
100
AcDbLine
 10
200.7886961722486
 20
98.66472320362058
 30
0.0
 11
186.0700000018999
 21
98.66472320362058
 31
0.0
  0
LINE
  5
826E
330
826C
100
AcDbEntity
  8
0
 62
     0
100
AcDbLine
 10
200.7886961722486
 20
118.6647232036204
 30
0.0
 11
186.0700000018999
 21
118.6647232036204
 31
0.0
  0
LINE
  5
826F
330
826C
100
AcDbEntity
  8
0
 62
     0
100
AcDbLine
 10
186.2500000018999
 20
98.84472320362059
 30
0.0
 11
186.2500000018999
 21
108.4847232036205
 31
0.0
  0
LINE
  5
8270
330
826C
100
AcDbEntity
  8
0
 62
     0
100
AcDbLine
 10
186.2500000018999
 20
118.4847232036204
 30
0.0
 11
186.2500000018999
 21
108.8447232036204
 31
0.0
  0
SOLID
  5
8271
330
826C
100
AcDbEntity
  8
0
 62
     0
100
AcDbTrace
 10
186.2200000018999
 20
98.84472320362059
 30
0.0
 11
186.2800000018999
 21
98.84472320362059
 31
0.0
 12
186.2500000018999
 22
98.66472320362058
 32
0.0
 13
186.2500000018999
 23
98.66472320362058
 33
0.0
  0
SOLID
  5
8272
330
826C
100
AcDbEntity
  8
0
 62
     0
100
AcDbTrace
 10
186.2200000018999
 20
118.4847232036204
 30
0.0
 11
186.2800000018999
 21
118.4847232036204
 31
0.0
 12
186.2500000018999
 22
118.6647232036204
 32
0.0
 13
186.2500000018999
 23
118.6647232036204
 33
0.0
  0
MTEXT
  5
8273
330
826C
100
AcDbEntity
  8
0
 62
     0
100
AcDbMText
 10
186.2500000018999
 20
108.6647232036205
 30
0.0
 40
0.18
 41
0.0
 71
     5
 72
     1
  1
\A1;20.0000
1001
ACAD
1000
MTEXTBEGIN
1070
    73
1070
     1
1070
    44
1040
1.0
1070
    74
1070
     0
1000
MTEXTEND
1000
MTEXTBEGIN
1070
    73
1070
     1
1070
    44
1040
1.0
1070
    74
1070
     0
1000
MTEXTEND
  0
POINT
  5
8274
330
826C
100
AcDbEntity
  8
DEFPOINTS
 62
     0
100
AcDbPoint
 10
200.8511961722486
 20
98.66472320362058
 30
0.0
  0
POINT
  5
8275
330
826C
100
AcDbEntity
  8
DEFPOINTS
 62
     0
100
AcDbPoint
 10
200.8511961722486
 20
118.6647232036204
 30
0.0
  0
POINT
  5
8276
330
826C
100
AcDbEntity
  8
DEFPOINTS
 62
     0
100
AcDbPoint
 10
186.2500000018999
 20
118.6647232036204
 30
0.0
  0
ENDBLK
  5
8278
330
826C
100
AcDbEntity
  8
0
100
AcDbBlockEnd
  0
BLOCK
  5
8284
330
8279
100
AcDbEntity
  8
0
100
AcDbBlockBegin
  2
*D19
 70
     1
 10
0.0
 20
0.0
 30
0.0
  3
*D19
  1

  0
LINE
  5
827A
330
8279
100
AcDbEntity
  8
0
 62
     0
100
AcDbLine
 10
231.2511961722488
 20
75.60222320362058
 30
0.0
 11
231.2511961722488
 21
44.30294463882412
 31
0.0
  0
LINE
  5
827B
330
8279
100
AcDbEntity
  8
0
 62
     0
100
AcDbLine
 10
273.6511961722488
 20
79.80222320362056
 30
0.0
 11
273.6511961722488
 21
44.30294463882412
 31
0.0
  0
LINE
  5
827C
330
8279
100
AcDbEntity
  8
0
 62
     0
100
AcDbLine
 10
231.4311961722486
 20
44.48294463882412
 30
0.0
 11
251.82976760082
 21
44.48294463882412
 31
0.0
  0
LINE
  5
827D
330
8279
100
AcDbEntity
  8
0
 62
     0
100
AcDbLine
 10
273.4711961722488
 20
44.48294463882412
 30
0.0
 11
253.0726247436774
 21
44.48294463882412
 31
0.0
  0
SOLID
  5
827E
330
8279
100
AcDbEntity
  8
0
 62
     0
100
AcDbTrace
 10
231.4311961722486
 20
44.51294463882411
 30
0.0
 11
231.4311961722486
 21
44.45294463882412
 31
0.0
 12
231.2511961722488
 22
44.48294463882412
 32
0.0
 13
231.2511961722488
 23
44.48294463882412
 33
0.0
  0
SOLID
  5
827F
330
8279
100
AcDbEntity
  8
0
 62
     0
100
AcDbTrace
 10
273.4711961722488
 20
44.51294463882411
 30
0.0
 11
273.4711961722488
 21
44.45294463882412
 31
0.0
 12
273.6511961722488
 22
44.48294463882412
 32
0.0
 13
273.6511961722488
 23
44.48294463882412
 33
0.0
  0
MTEXT
  5
8280
330
8279
100
AcDbEntity
  8
0
 62
     0
100
AcDbMText
 10
252.4511961722488
 20
44.48294463882412
 30
0.0
 40
0.18
 41
0.0
 71
     5
 72
     1
  1
\A1;42.4000
1001
ACAD
1000
MTEXTBEGIN
1070
    73
1070
     1
1070
    44
1040
1.0
1070
    74
1070
     0
1000
MTEXTEND
1000
MTEXTBEGIN
1070
    73
1070
     1
1070
    44
1040
1.0
1070
    74
1070
     0
1000
MTEXTEND
  0
POINT
  5
8281
330
8279
100
AcDbEntity
  8
DEFPOINTS
 62
     0
100
AcDbPoint
 10
231.2511961722488
 20
75.66472320362058
 30
0.0
  0
POINT
  5
8282
330
8279
100
AcDbEntity
  8
DEFPOINTS
 62
     0
100
AcDbPoint
 10
273.6511961722488
 20
79.86472320362056
 30
0.0
  0
POINT
  5
8283
330
8279
100
AcDbEntity
  8
DEFPOINTS
 62
     0
100
AcDbPoint
 10
273.6511961722488
 20
44.48294463882412
 30
0.0
  0
ENDBLK
  5
8285
330
8279
100
AcDbEntity
  8
0
100
AcDbBlockEnd
  0
BLOCK
  5
8291
330
8286
100
AcDbEntity
  8
0
100
AcDbBlockBegin
  2
*D20
 70
     1
 10
0.0
 20
0.0
 30
0.0
  3
*D20
  1

  0
LINE
  5
8287
330
8286
100
AcDbEntity
  8
0
 62
     0
100
AcDbLine
 10
231.2511961722488
 20
75.60222320362058
 30
0.0
 11
231.2511961722488
 21
54.30294463882412
 31
0.0
  0
LINE
  5
8288
330
8286
100
AcDbEntity
  8
0
 62
     0
100
AcDbLine
 10
259.6511961722486
 20
79.80222320362056
 30
0.0
 11
259.6511961722486
 21
54.30294463882412
 31
0.0
  0
LINE
  5
8289
330
8286
100
AcDbEntity
  8
0
 62
     0
100
AcDbLine
 10
231.4311961722486
 20
54.48294463882412
 30
0.0
 11
244.8297676008202
 21
54.48294463882412
 31
0.0
  0
LINE
  5
828A
330
8286
100
AcDbEntity
  8
0
 62
     0
100
AcDbLine
 10
259.4711961722488
 20
54.48294463882412
 30
0.0
 11
246.0726247436773
 21
54.48294463882412
 31
0.0
  0
SOLID
  5
828B
330
8286
100
AcDbEntity
  8
0
 62
     0
100
AcDbTrace
 10
231.4311961722486
 20
54.51294463882412
 30
0.0
 11
231.4311961722486
 21
54.45294463882412
 31
0.0
 12
231.2511961722488
 22
54.48294463882412
 32
0.0
 13
231.2511961722488
 23
54.48294463882412
 33
0.0
  0
SOLID
  5
828C
330
8286
100
AcDbEntity
  8
0
 62
     0
100
AcDbTrace
 10
259.4711961722488
 20
54.51294463882412
 30
0.0
 11
259.4711961722488
 21
54.45294463882412
 31
0.0
 12
259.6511961722486
 22
54.48294463882412
 32
0.0
 13
259.6511961722486
 23
54.48294463882412
 33
0.0
  0
MTEXT
  5
828D
330
8286
100
AcDbEntity
  8
0
 62
     0
100
AcDbMText
 10
245.4511961722487
 20
54.48294463882412
 30
0.0
 40
0.18
 41
0.0
 71
     5
 72
     1
  1
\A1;28.4000
1001
ACAD
1000
MTEXTBEGIN
1070
    73
1070
     1
1070
    44
1040
1.0
1070
    74
1070
     0
1000
MTEXTEND
1000
MTEXTBEGIN
1070
    73
1070
     1
1070
    44
1040
1.0
1070
    74
1070
     0
1000
MTEXTEND
  0
POINT
  5
828E
330
8286
100
AcDbEntity
  8
DEFPOINTS
 62
     0
100
AcDbPoint
 10
231.2511961722488
 20
75.66472320362058
 30
0.0
  0
POINT
  5
828F
330
8286
100
AcDbEntity
  8
DEFPOINTS
 62
     0
100
AcDbPoint
 10
259.6511961722486
 20
79.86472320362056
 30
0.0
  0
POINT
  5
8290
330
8286
100
AcDbEntity
  8
DEFPOINTS
 62
     0
100
AcDbPoint
 10
259.6511961722486
 20
54.48294463882412
 30
0.0
  0
ENDBLK
  5
8292
330
8286
100
AcDbEntity
  8
0
100
AcDbBlockEnd
  0
BLOCK
  5
829E
330
8293
100
AcDbEntity
  8
0
100
AcDbBlockBegin
  2
*D21
 70
     1
 10
0.0
 20
0.0
 30
0.0
  3
*D21
  1

  0
LINE
  5
8294
330
8293
100
AcDbEntity
  8
0
 62
     0
100
AcDbLine
 10
253.6511961722488
 20
78.80222319702058
 30
0.0
 11
253.6511961722488
 21
64.3029446388241
 31
0.0
  0
LINE
  5
8295
330
8293
100
AcDbEntity
  8
0
 62
     0
100
AcDbLine
 10
259.6511961722486
 20
75.67911756359629
 30
0.0
 11
259.6511961722486
 21
64.3029446388241
 31
0.0
  0
LINE
  5
8296
330
8293
100
AcDbEntity
  8
0
 62
     0
100
AcDbLine
 10
253.8311961722488
 20
64.48294463882409
 30
0.0
 11
256.1154818865345
 21
64.48294463882409
 31
0.0
  0
LINE
  5
8297
330
8293
100
AcDbEntity
  8
0
 62
     0
100
AcDbLine
 10
259.4711961722488
 20
64.48294463882409
 30
0.0
 11
257.1869104579631
 21
64.48294463882409
 31
0.0
  0
SOLID
  5
8298
330
8293
100
AcDbEntity
  8
0
 62
     0
100
AcDbTrace
 10
253.8311961722488
 20
64.51294463882409
 30
0.0
 11
253.8311961722488
 21
64.45294463882409
 31
0.0
 12
253.6511961722488
 22
64.48294463882409
 32
0.0
 13
253.6511961722488
 23
64.48294463882409
 33
0.0
  0
SOLID
  5
8299
330
8293
100
AcDbEntity
  8
0
 62
     0
100
AcDbTrace
 10
259.4711961722488
 20
64.51294463882409
 30
0.0
 11
259.4711961722488
 21
64.45294463882409
 31
0.0
 12
259.6511961722486
 22
64.48294463882409
 32
0.0
 13
259.6511961722486
 23
64.48294463882409
 33
0.0
  0
MTEXT
  5
829A
330
8293
100
AcDbEntity
  8
0
 62
     0
100
AcDbMText
 10
256.6511961722486
 20
64.48294463882409
 30
0.0
 40
0.18
 41
0.0
 71
     5
 72
     1
  1
\A1;6.0000
1001
ACAD
1000
MTEXTBEGIN
1070
    73
1070
     1
1070
    44
1040
1.0
1070
    74
1070
     0
1000
MTEXTEND
1000
MTEXTBEGIN
1070
    73
1070
     1
1070
    44
1040
1.0
1070
    74
1070
     0
1000
MTEXTEND
  0
POINT
  5
829B
330
8293
100
AcDbEntity
  8
DEFPOINTS
 62
     0
100
AcDbPoint
 10
253.6511961722488
 20
78.86472319702058
 30
0.0
  0
POINT
  5
829C
330
8293
100
AcDbEntity
  8
DEFPOINTS
 62
     0
100
AcDbPoint
 10
259.6511961722486
 20
75.74161756359629
 30
0.0
  0
POINT
  5
829D
330
8293
100
AcDbEntity
  8
DEFPOINTS
 62
     0
100
AcDbPoint
 10
259.6511961722486
 20
64.48294463882409
 30
0.0
  0
ENDBLK
  5
829F
330
8293
100
AcDbEntity
  8
0
100
AcDbBlockEnd
  0
BLOCK
  5
82AB
330
82A0
100
AcDbEntity
  8
0
100
AcDbBlockBegin
  2
*D22
 70
     1
 10
0.0
 20
0.0
 30
0.0
  3
*D22
  1

  0
LINE
  5
82A1
330
82A0
100
AcDbEntity
  8
0
 62
     0
100
AcDbLine
 10
267.6511961722486
 20
78.80222319702058
 30
0.0
 11
267.6511961722486
 21
64.3029446388241
 31
0.0
  0
LINE
  5
82A2
330
82A0
100
AcDbEntity
  8
0
 62
     0
100
AcDbLine
 10
273.6511961722488
 20
75.67911756359629
 30
0.0
 11
273.6511961722488
 21
64.3029446388241
 31
0.0
  0
LINE
  5
82A3
330
82A0
100
AcDbEntity
  8
0
 62
     0
100
AcDbLine
 10
267.8311961722485
 20
64.48294463882409
 30
0.0
 11
270.1154818865345
 21
64.48294463882409
 31
0.0
  0
LINE
  5
82A4
330
82A0
100
AcDbEntity
  8
0
 62
     0
100
AcDbLine
 10
273.4711961722488
 20
64.48294463882409
 30
0.0
 11
271.1869104579631
 21
64.48294463882409
 31
0.0
  0
SOLID
  5
82A5
330
82A0
100
AcDbEntity
  8
0
 62
     0
100
AcDbTrace
 10
267.8311961722485
 20
64.51294463882409
 30
0.0
 11
267.8311961722485
 21
64.45294463882409
 31
0.0
 12
267.6511961722486
 22
64.48294463882409
 32
0.0
 13
267.6511961722486
 23
64.48294463882409
 33
0.0
  0
SOLID
  5
82A6
330
82A0
100
AcDbEntity
  8
0
 62
     0
100
AcDbTrace
 10
273.4711961722488
 20
64.51294463882409
 30
0.0
 11
273.4711961722488
 21
64.45294463882409
 31
0.0
 12
273.6511961722488
 22
64.48294463882409
 32
0.0
 13
273.6511961722488
 23
64.48294463882409
 33
0.0
  0
MTEXT
  5
82A7
330
82A0
100
AcDbEntity
  8
0
 62
     0
100
AcDbMText
 10
270.6511961722485
 20
64.48294463882409
 30
0.0
 40
0.18
 41
0.0
 71
     5
 72
     1
  1
\A1;6.0000
1001
ACAD
1000
MTEXTBEGIN
1070
    73
1070
     1
1070
    44
1040
1.0
1070
    74
1070
     0
1000
MTEXTEND
1000
MTEXTBEGIN
1070
    73
1070
     1
1070
    44
1040
1.0
1070
    74
1070
     0
1000
MTEXTEND
  0
POINT
  5
82A8
330
82A0
100
AcDbEntity
  8
DEFPOINTS
 62
     0
100
AcDbPoint
 10
267.6511961722486
 20
78.86472319702058
 30
0.0
  0
POINT
  5
82A9
330
82A0
100
AcDbEntity
  8
DEFPOINTS
 62
     0
100
AcDbPoint
 10
273.6511961722488
 20
75.74161756359629
 30
0.0
  0
POINT
  5
82AA
330
82A0
100
AcDbEntity
  8
DEFPOINTS
 62
     0
100
AcDbPoint
 10
273.6511961722488
 20
64.48294463882409
 30
0.0
  0
ENDBLK
  5
82AC
330
82A0
100
AcDbEntity
  8
0
100
AcDbBlockEnd
  0
BLOCK
  5
82B8
330
82AD
100
AcDbEntity
  8
0
100
AcDbBlockBegin
  2
*D23
 70
     1
 10
0.0
 20
0.0
 30
0.0
  3
*D23
  1

  0
LINE
  5
82AE
330
82AD
100
AcDbEntity
  8
0
 62
     0
100
AcDbLine
 10
272.6418994025243
 20
75.86472320362054
 30
0.0
 11
287.9300000019
 21
75.86472320362054
 31
0.0
  0
LINE
  5
82AF
330
82AD
100
AcDbEntity
  8
0
 62
     0
100
AcDbLine
 10
272.6418994025243
 20
83.86472320362058
 30
0.0
 11
287.9300000019
 21
83.86472320362058
 31
0.0
  0
LINE
  5
82B0
330
82AD
100
AcDbEntity
  8
0
 62
     0
100
AcDbLine
 10
287.7500000018999
 20
76.04472320362058
 30
0.0
 11
287.7500000018999
 21
79.68472320362057
 31
0.0
  0
LINE
  5
82B1
330
82AD
100
AcDbEntity
  8
0
 62
     0
100
AcDbLine
 10
287.7500000018999
 20
83.68472320362057
 30
0.0
 11
287.7500000018999
 21
80.04472320362058
 31
0.0
  0
SOLID
  5
82B2
330
82AD
100
AcDbEntity
  8
0
 62
     0
100
AcDbTrace
 10
287.7200000018996
 20
76.04472320362058
 30
0.0
 11
287.7800000018996
 21
76.04472320362058
 31
0.0
 12
287.7500000018999
 22
75.86472320362054
 32
0.0
 13
287.7500000018999
 23
75.86472320362054
 33
0.0
  0
SOLID
  5
82B3
330
82AD
100
AcDbEntity
  8
0
 62
     0
100
AcDbTrace
 10
287.7200000018996
 20
83.68472320362057
 30
0.0
 11
287.7800000018996
 21
83.68472320362057
 31
0.0
 12
287.7500000018999
 22
83.86472320362058
 32
0.0
 13
287.7500000018999
 23
83.86472320362058
 33
0.0
  0
MTEXT
  5
82B4
330
82AD
100
AcDbEntity
  8
0
 62
     0
100
AcDbMText
 10
287.7500000018999
 20
79.8647232036206
 30
0.0
 40
0.18
 41
0.0
 71
     5
 72
     1
  1
\A1;8.0000
1001
ACAD
1000
MTEXTBEGIN
1070
    73
1070
     1
1070
    44
1040
1.0
1070
    74
1070
     0
1000
MTEXTEND
1000
MTEXTBEGIN
1070
    73
1070
     1
1070
    44
1040
1.0
1070
    74
1070
     0
1000
MTEXTEND
  0
POINT
  5
82B5
330
82AD
100
AcDbEntity
  8
DEFPOINTS
 62
     0
100
AcDbPoint
 10
272.5793994025242
 20
75.86472320362054
 30
0.0
  0
POINT
  5
82B6
330
82AD
100
AcDbEntity
  8
DEFPOINTS
 62
     0
100
AcDbPoint
 10
272.5793994025242
 20
83.86472320362058
 30
0.0
  0
POINT
  5
82B7
330
82AD
100
AcDbEntity
  8
DEFPOINTS
 62
     0
100
AcDbPoint
 10
287.7500000018999
 20
83.86472320362058
 30
0.0
  0
ENDBLK
  5
82B9
330
82AD
100
AcDbEntity
  8
0
100
AcDbBlockEnd
  0
BLOCK
  5
82C5
330
82BA
100
AcDbEntity
  8
0
100
AcDbBlockBegin
  2
*D24
 70
     1
 10
0.0
 20
0.0
 30
0.0
  3
*D24
  1

  0
LINE
  5
82BB
330
82BA
100
AcDbEntity
  8
0
 62
     0
100
AcDbLine
 10
273.7136961722486
 20
136.2647232036204
 30
0.0
 11
287.9300000019
 21
136.2647232036204
 31
0.0
  0
LINE
  5
82BC
330
82BA
100
AcDbEntity
  8
0
 62
     0
100
AcDbLine
 10
273.7136961722486
 20
138.6647232036205
 30
0.0
 11
287.9300000019
 21
138.6647232036205
 31
0.0
  0
LINE
  5
82BD
330
82BA
100
AcDbEntity
  8
0
 62
     0
100
AcDbLine
 10
287.7500000018999
 20
136.4447232036205
 30
0.0
 11
287.7500000018999
 21
137.2847232036205
 31
0.0
  0
LINE
  5
82BE
330
82BA
100
AcDbEntity
  8
0
 62
     0
100
AcDbLine
 10
287.7500000018999
 20
138.4847232036202
 30
0.0
 11
287.7500000018999
 21
137.6447232036204
 31
0.0
  0
SOLID
  5
82BF
330
82BA
100
AcDbEntity
  8
0
 62
     0
100
AcDbTrace
 10
287.7200000018996
 20
136.4447232036205
 30
0.0
 11
287.7800000018996
 21
136.4447232036205
 31
0.0
 12
287.7500000018999
 22
136.2647232036204
 32
0.0
 13
287.7500000018999
 23
136.2647232036204
 33
0.0
  0
SOLID
  5
82C0
330
82BA
100
AcDbEntity
  8
0
 62
     0
100
AcDbTrace
 10
287.7200000018996
 20
138.4847232036202
 30
0.0
 11
287.7800000018996
 21
138.4847232036202
 31
0.0
 12
287.7500000018999
 22
138.6647232036205
 32
0.0
 13
287.7500000018999
 23
138.6647232036205
 33
0.0
  0
MTEXT
  5
82C1
330
82BA
100
AcDbEntity
  8
0
 62
     0
100
AcDbMText
 10
287.7500000018999
 20
137.4647232036204
 30
0.0
 40
0.18
 41
0.0
 71
     5
 72
     1
  1
\A1;2.4000
1001
ACAD
1000
MTEXTBEGIN
1070
    73
1070
     1
1070
    44
1040
1.0
1070
    74
1070
     0
1000
MTEXTEND
1000
MTEXTBEGIN
1070
    73
1070
     1
1070
    44
1040
1.0
1070
    74
1070
     0
1000
MTEXTEND
  0
POINT
  5
82C2
330
82BA
100
AcDbEntity
  8
DEFPOINTS
 62
     0
100
AcDbPoint
 10
273.6511961722488
 20
136.2647232036204
 30
0.0
  0
POINT
  5
82C3
330
82BA
100
AcDbEntity
  8
DEFPOINTS
 62
     0
100
AcDbPoint
 10
273.6511961722488
 20
138.6647232036205
 30
0.0
  0
POINT
  5
82C4
330
82BA
100
AcDbEntity
  8
DEFPOINTS
 62
     0
100
AcDbPoint
 10
287.7500000018999
 20
138.6647232036205
 30
0.0
  0
ENDBLK
  5
82C6
330
82BA
100
AcDbEntity
  8
0
100
AcDbBlockEnd
  0
BLOCK
  5
8324
330
82C7
100
AcDbEntity
  8
0
100
AcDbBlockBegin
  2
A$C430B49B3
 70
     0
 10
0.0
 20
0.0
 30
0.0
  3
A$C430B49B3
  1

  0
LINE
  5
82C8
330
82C7
100
AcDbEntity
  8
0
100
AcDbLine
 10
-27.68000000000003
 20
-33.0
 30
0.0
 11
-3.279999999999971
 21
-33.0
 31
0.0
  0
DIMENSION
  5
82C9
330
82C7
100
AcDbEntity
  8
0
100
AcDbDimension
  2
*D12
 10
-3.279999999999971
 20
-84.18177856479646
 30
0.0
 11
-21.68
 21
-84.18177856479646
 31
0.0
 12
-234.5311961722488
 22
-108.6647232036205
 32
0.0
  3
STANDARD
100
AcDbAlignedDimension
 13
-40.08000000000001
 23
-1.000000006600018
 33
0.0
 14
-3.279999999999971
 24
-33.0
 34
0.0
 50
180.0
100
AcDbRotatedDimension
1001
ACAD
1000
DSTYLE
1002
{
1070
   340
1005
11
1002
}
  0
DIMENSION
  5
82CA
330
82C7
100
AcDbEntity
  8
0
100
AcDbDimension
  2
*D13
 10
-3.279999999999971
 20
-74.18177856479649
 30
0.0
 11
-17.67999999999998
 21
-74.18177856479649
 31
0.0
 12
-234.5311961722488
 22
-108.6647232036205
 32
0.0
  3
STANDARD
100
AcDbAlignedDimension
 13
-32.07999999999998
 23
-10.0
 33
0.0
 14
-3.279999999999971
 24
-33.0
 34
0.0
 50
180.0
100
AcDbRotatedDimension
1001
ACAD
1000
DSTYLE
1002
{
1070
   340
1005
11
1002
}
  0
DIMENSION
  5
82CB
330
82C7
100
AcDbEntity
  8
0
100
AcDbDimension
  2
*D14
 10
-3.279999999999971
 20
-54.18177856479646
 30
0.0
 11
-15.48
 21
-54.18177856479646
 31
0.0
 12
-234.5311961722488
 22
-108.6647232036205
 32
0.0
  3
STANDARD
100
AcDbAlignedDimension
 13
-27.68000000000003
 23
-33.0
 33
0.0
 14
-3.279999999999971
 24
-33.0
 34
0.0
 50
180.0
100
AcDbRotatedDimension
1001
ACAD
1000
DSTYLE
1002
{
1070
   340
1005
11
1002
}
  0
DIMENSION
  5
82CC
330
82C7
100
AcDbEntity
  8
0
100
AcDbDimension
  2
*D15
 10
-3.279999999999971
 20
-64.18177856479646
 30
0.0
 11
-16.87999999999999
 21
-64.18177856479646
 31
0.0
 12
-234.5311961722488
 22
-108.6647232036205
 32
0.0
  3
STANDARD
100
AcDbAlignedDimension
 13
-30.47999999999999
 23
-20.39999999999998
 33
0.0
 14
-3.279999999999971
 24
-33.0
 34
0.0
 50
180.0
100
AcDbRotatedDimension
1001
ACAD
1000
DSTYLE
1002
{
1070
   340
1005
11
1002
}
  0
LINE
  5
82CD
330
82C7
100
AcDbEntity
  8
0
100
AcDbLine
 10
-42.07999999999997
 20
0.0
 30
0.0
 11
0.0
 21
0.0
 31
0.0
  0
LINE
  5
82CE
330
82C7
100
AcDbEntity
  8
0
100
AcDbLine
 10
-3.279999999999971
 20
33.0
 30
0.0
 11
-27.68000000000003
 21
33.0
 31
0.0
  0
LINE
  5
82CF
330
82C7
100
AcDbEntity
  8
0
100
AcDbLine
 10
-27.68000000000003
 20
33.0
 30
0.0
 11
-27.68000000000003
 21
20.4
 31
0.0
  0
DIMENSION
  5
82D0
330
82C7
100
AcDbEntity
  8
0
100
AcDbDimension
  2
*D16
 10
-32.07999999999998
 20
-74.18177856479646
 30
0.0
 11
-32.87999999999998
 21
-74.18177856479646
 31
0.0
 12
-234.5311961722488
 22
-108.6647232036205
 32
0.0
  3
STANDARD
100
AcDbAlignedDimension
 13
-33.68000000000003
 23
-10.0
 33
0.0
 14
-32.07999999999998
 24
-10.0
 34
0.0
 50
180.0
100
AcDbRotatedDimension
1001
ACAD
1000
DSTYLE
1002
{
1070
   340
1005
11
1002
}
  0
LINE
  5
82D1
330
82C7
100
AcDbEntity
  8
0
100
AcDbLine
 10
-30.47999999999999
 20
20.4
 30
0.0
 11
-30.47999999999999
 21
-20.39999999999998
 31
0.0
  0
DIMENSION
  5
82D2
330
82C7
100
AcDbEntity
  8
0
100
AcDbDimension
  2
*D17
 10
-55.78119617034881
 20
-20.39999999999998
 30
0.0
 11
-55.78119617034881
 21
0.0000000000000426
 31
0.0
 12
-234.5311961722488
 22
-108.6647232036205
 32
0.0
  3
STANDARD
100
AcDbAlignedDimension
 13
-30.47999999999999
 23
20.4
 33
0.0
 14
-30.47999999999999
 24
-20.39999999999998
 34
0.0
 50
90.0
100
AcDbRotatedDimension
1001
ACAD
1000
DSTYLE
1002
{
1070
   340
1005
11
1002
}
  0
LINE
  5
82D3
330
82C7
100
AcDbEntity
  8
0
100
AcDbLine
 10
-27.68000000000003
 20
-20.39999999999998
 30
0.0
 11
-27.68000000000003
 21
-33.0
 31
0.0
  0
LINE
  5
82D4
330
82C7
100
AcDbEntity
  8
0
100
AcDbLine
 10
-30.47999999999999
 20
-20.39999999999998
 30
0.0
 11
-27.68000000000003
 21
-20.39999999999998
 31
0.0
  0
LINE
  5
82D5
330
82C7
100
AcDbEntity
  8
0
100
AcDbLine
 10
-32.07999999999998
 20
10.0
 30
0.0
 11
-32.07999999999998
 21
-10.0
 31
0.0
  0
LINE
  5
82D6
330
82C7
100
AcDbEntity
  8
0
100
AcDbLine
 10
-33.68000000000003
 20
10.0
 30
0.0
 11
-33.68000000000003
 21
-10.0
 31
0.0
  0
DIMENSION
  5
82D7
330
82C7
100
AcDbEntity
  8
0
100
AcDbDimension
  2
*D18
 10
-48.28119617034881
 20
10.0
 30
0.0
 11
-48.28119617034886
 21
0.0000000000000284
 31
0.0
 12
-234.5311961722488
 22
-108.6647232036205
 32
0.0
  3
STANDARD
100
AcDbAlignedDimension
 13
-33.68000000000003
 23
-10.0
 33
0.0
 14
-33.68000000000003
 24
10.0
 34
0.0
 50
90.0
100
AcDbRotatedDimension
1001
ACAD
1000
DSTYLE
1002
{
1070
   340
1005
11
1002
}
  0
ARC
  5
82D8
330
82C7
100
AcDbEntity
  8
0
100
AcDbCircle
 10
-27.68000000000003
 20
0.0
 30
0.0
 40
12.4
100
AcDbArc
 50
150.5534441956585
 51
180.0
  0
TEXT
  5
82D9
330
82C7
100
AcDbEntity
  8
0
100
AcDbText
 10
-44.37157603634952
 20
-2.968220372277641
 30
0.0
 40
3.000000019799997
  1
L
 41
1.189062499999995
  7
UGMTXT
100
AcDbText
  0
TEXT
  5
82DA
330
82C7
100
AcDbEntity
  8
0
100
AcDbText
 10
-45.19869650616015
 20
-1.470672531620991
 30
0.0
 40
3.000000019799997
  1
C
 41
1.189062499999995
  7
UGMTXT
100
AcDbText
  0
LINE
  5
82DB
330
82C7
100
AcDbEntity
  8
0
100
AcDbLine
 10
-33.68000000000003
 20
-10.0
 30
0.0
 11
-30.47999999999999
 21
-10.0
 31
0.0
  0
LINE
  5
82DC
330
82C7
100
AcDbEntity
  8
0
100
AcDbLine
 10
-33.68000000000003
 20
5.666174735772003
 30
0.0
 11
-37.10151807259561
 21
8.061947482324226
 31
0.0
  0
LINE
  5
82DD
330
82C7
100
AcDbEntity
  8
0
100
AcDbLine
 10
-33.68000000000003
 20
2.736315722744503
 30
0.0
 11
-38.47810151983807
 21
6.095982576030664
 31
0.0
  0
LINE
  5
82DE
330
82C7
100
AcDbEntity
  8
0
100
AcDbLine
 10
-38.47810151983807
 20
6.095982576030664
 30
0.0
 11
-37.10151807259561
 21
8.061947482324226
 31
0.0
  0
LINE
  5
82DF
330
82C7
100
AcDbEntity
  8
0
100
AcDbLine
 10
-33.68000000000003
 20
10.0
 30
0.0
 11
-30.47999999999999
 21
10.0
 31
0.0
  0
LINE
  5
82E0
330
82C7
100
AcDbEntity
  8
0
100
AcDbLine
 10
-30.47999999999999
 20
20.4
 30
0.0
 11
-27.68000000000003
 21
20.4
 31
0.0
  0
LINE
  5
82E1
330
82C7
100
AcDbEntity
  8
0
100
AcDbLine
 10
-2.0
 20
44.99999999999997
 30
0.0
 11
-2.0
 21
-45.0
 31
0.0
  0
LINE
  5
82E2
330
82C7
100
AcDbEntity
  8
0
100
AcDbLine
 10
-3.279999999999971
 20
33.0
 30
0.0
 11
-3.279999999999971
 21
-33.0
 31
0.0
  0
INSERT
  5
82E3
330
82C7
100
AcDbEntity
  8
0
100
AcDbBlockReference
  2
*U6
 10
-234.5311961722488
 20
-108.6647232036205
 30
0.0
  0
INSERT
  5
82E4
330
82C7
100
AcDbEntity
  8
0
100
AcDbBlockReference
  2
*U5
 10
-234.5311961722488
 20
-108.6647232036205
 30
0.0
  0
DIMENSION
  5
82E5
330
82C7
100
AcDbEntity
  8
0
100
AcDbDimension
  2
*D19
 10
39.11999999999999
 20
-64.18177856479646
 30
0.0
 11
17.92000000000001
 21
-64.18177856479646
 31
0.0
 12
-234.5311961722488
 22
-108.6647232036205
 32
0.0
  3
STANDARD
100
AcDbAlignedDimension
 13
-3.279999999999971
 23
-33.0
 33
0.0
 14
39.11999999999999
 24
-28.8
 34
0.0
 50
180.0
100
AcDbRotatedDimension
1001
ACAD
1000
DSTYLE
1002
{
1070
   340
1005
11
1002
}
  0
LINE
  5
82E6
330
82C7
100
AcDbEntity
  8
0
100
AcDbLine
 10
-5.280000000000056
 20
-28.8
 30
0.0
 11
43.32000000000005
 21
-28.8
 31
0.0
  0
LINE
  5
82E7
330
82C7
100
AcDbEntity
  8
0
100
AcDbLine
 10
25.13776346213933
 20
-24.8
 30
0.0
 11
38.04820323027547
 21
-24.8
 31
0.0
  0
LINE
  5
82E8
330
82C7
100
AcDbEntity
  8
0
100
AcDbLine
 10
25.13776346213933
 20
-32.80000000000001
 30
0.0
 11
38.04820323027547
 21
-32.80000000000001
 31
0.0
  0
TEXT
  5
82E9
330
82C7
100
AcDbEntity
  8
0
100
AcDbText
 10
9.258752767119915
 20
-8.888304652245892
 30
0.0
 40
2.500000003799998
  1
Conductor overlap max.
 41
0.8002884615384591
  7
UGMTXT
100
AcDbText
  0
INSERT
  5
82EA
330
82C7
100
AcDbEntity
  8
0
100
AcDbBlockReference
  2
*U7
 10
-234.5311961722488
 20
-108.6647232036205
 30
0.0
  0
DIMENSION
  5
82EB
330
82C7
100
AcDbEntity
  8
0
100
AcDbDimension
  2
*D20
 10
25.12
 20
-54.18177856479646
 30
0.0
 11
10.92
 21
-54.18177856479646
 31
0.0
 12
-234.5311961722488
 22
-108.6647232036205
 32
0.0
  3
STANDARD
100
AcDbAlignedDimension
 13
-3.279999999999971
 23
-33.0
 33
0.0
 14
25.12
 24
-28.8
 34
0.0
 50
180.0
100
AcDbRotatedDimension
1001
ACAD
1000
DSTYLE
1002
{
1070
   340
1005
11
1002
}
  0
INSERT
  5
82EC
330
82C7
100
AcDbEntity
  8
0
100
AcDbBlockReference
  2
*U9
 10
-234.5311961722488
 20
-108.6647232036205
 30
0.0
  0
LINE
  5
82ED
330
82C7
100
AcDbEntity
  8
0
100
AcDbLine
 10
-3.279999999999943
 20
-32.80000000000001
 30
0.0
 11
24.04820323027546
 21
-32.80000000000001
 31
0.0
  0
LINE
  5
82EE
330
82C7
100
AcDbEntity
  8
0
100
AcDbLine
 10
-3.279999999999943
 20
-24.8
 30
0.0
 11
24.04820323027546
 21
-24.8
 31
0.0
  0
LINE
  5
82EF
330
82C7
100
AcDbEntity
  8
0
100
AcDbLine
 10
-3.279999999999971
 20
-33.0
 30
0.0
 11
-3.279999999999971
 21
-45.0
 31
0.0
  0
DIMENSION
  5
82F0
330
82C7
100
AcDbEntity
  8
0
100
AcDbDimension
  2
*D21
 10
25.12
 20
-44.18177856479649
 30
0.0
 11
22.12
 21
-44.18177856479649
 31
0.0
 12
-234.5311961722488
 22
-108.6647232036205
 32
0.0
  3
STANDARD
100
AcDbAlignedDimension
 13
19.12
 23
-29.8000000066
 33
0.0
 14
25.12
 24
-32.92310564002429
 34
0.0
 50
180.0
100
AcDbRotatedDimension
1001
ACAD
1000
DSTYLE
1002
{
1070
   340
1005
11
1002
}
  0
INSERT
  5
82F1
330
82C7
100
AcDbEntity
  8
0
100
AcDbBlockReference
  2
*U8
 10
-234.5311961722488
 20
-108.6647232036205
 30
0.0
  0
LINE
  5
82F2
330
82C7
100
AcDbEntity
  8
0
100
AcDbLine
 10
7.720000000000027
 20
-24.8
 30
0.0
 11
7.720000000000027
 21
-32.80000000000001
 31
0.0
  0
ARC
  5
82F3
330
82C7
100
AcDbEntity
  8
0
100
AcDbCircle
 10
-18.0659666924148
 20
-28.8
 30
0.0
 40
8.0
210
0.0
220
0.0
230
-1.0
100
AcDbArc
 50
330.0000000000001
 51
345.5224878140701
  0
LINE
  5
82F4
330
82C7
100
AcDbEntity
  8
0
100
AcDbLine
 10
7.720000000000027
 20
-30.8
 30
0.0
 11
10.31999999999996
 21
-30.8
 31
0.0
  0
ARC
  5
82F5
330
82C7
100
AcDbEntity
  8
0
100
AcDbCircle
 10
-18.0659666924148
 20
-28.8
 30
0.0
 40
8.0
210
0.0
220
0.0
230
-1.0
100
AcDbArc
 50
14.47751218592986
 51
29.99999999999971
  0
LINE
  5
82F6
330
82C7
100
AcDbEntity
  8
0
100
AcDbLine
 10
7.720000000000027
 20
-26.80000000000001
 30
0.0
 11
10.31999999999996
 21
-26.80000000000001
 31
0.0
  0
ARC
  5
82F7
330
82C7
100
AcDbEntity
  8
0
100
AcDbCircle
 10
17.12
 20
-28.8
 30
0.0
 40
8.0
100
AcDbArc
 50
330.0000000000001
 51
29.99999999999971
  0
CIRCLE
  5
82F8
330
82C7
100
AcDbEntity
  8
0
100
AcDbCircle
 10
19.12
 20
-28.8
 30
0.0
 40
1.8
  0
LINE
  5
82F9
330
82C7
100
AcDbEntity
  8
0
100
AcDbLine
 10
19.12
 20
-23.6
 30
0.0
 11
19.12
 21
-34.0
 31
0.0
  0
ARC
  5
82FA
330
82C7
100
AcDbEntity
  8
0
100
AcDbCircle
 10
-32.06596669241479
 20
-28.8
 30
0.0
 40
8.0
210
0.0
220
0.0
230
-1.0
100
AcDbArc
 50
330.0000000000001
 51
339.0869051817058
  0
ARC
  5
82FB
330
82C7
100
AcDbEntity
  8
0
100
AcDbCircle
 10
-32.06596669241479
 20
-28.8
 30
0.0
 40
8.0
210
0.0
220
0.0
230
-1.0
100
AcDbArc
 50
20.91309481829421
 51
29.99999999999971
  0
TEXT
  5
82FC
330
82C7
100
AcDbEntity
  8
0
100
AcDbText
 10
46.12168764323729
 20
-47.66992576698525
 30
0.0
 40
2.5
  1
turned 45
 41
0.8116586538461458
  7
UGMTXT
100
AcDbText
  0
TEXT
  5
82FD
330
82C7
100
AcDbEntity
  8
0
100
AcDbText
 10
46.12168764323729
 20
-43.91992576698524
 30
0.0
 40
2.5
  1
Stud can be
 41
0.8081054687499921
  7
UGMTXT
100
AcDbText
  0
DIMENSION
  5
82FE
330
82C7
100
AcDbEntity
  8
0
100
AcDbDimension
  2
*D22
 10
39.11999999999999
 20
-44.18177856479649
 30
0.0
 11
36.12
 21
-44.18177856479649
 31
0.0
 12
-234.5311961722488
 22
-108.6647232036205
 32
0.0
  3
STANDARD
100
AcDbAlignedDimension
 13
33.11999999999999
 23
-29.8000000066
 33
0.0
 14
39.11999999999999
 24
-32.92310564002429
 34
0.0
 50
180.0
100
AcDbRotatedDimension
1001
ACAD
1000
DSTYLE
1002
{
1070
   340
1005
11
1002
}
  0
DIMENSION
  5
82FF
330
82C7
100
AcDbEntity
  8
0
100
AcDbDimension
  2
*D23
 10
53.21880382965114
 20
-24.8
 30
0.0
 11
53.21880382965114
 21
-28.79999999999996
 31
0.0
 12
-234.5311961722488
 22
-108.6647232036205
 32
0.0
  3
STANDARD
100
AcDbAlignedDimension
 13
38.04820323027547
 23
-32.80000000000001
 33
0.0
 14
38.04820323027547
 24
-24.8
 34
0.0
 50
270.0
100
AcDbRotatedDimension
1001
ACAD
1000
DSTYLE
1002
{
1070
   340
1005
11
1002
}
  0
CIRCLE
  5
8300
330
82C7
100
AcDbEntity
  8
0
100
AcDbCircle
 10
33.11999999999999
 20
-28.8
 30
0.0
 40
1.8
  0
ARC
  5
8301
330
82C7
100
AcDbEntity
  8
0
100
AcDbCircle
 10
31.12
 20
-28.8
 30
0.0
 40
8.0
100
AcDbArc
 50
330.0000000000001
 51
29.99999999999971
  0
LINE
  5
8302
330
82C7
100
AcDbEntity
  8
0
100
AcDbLine
 10
33.11999999999999
 20
-23.6
 30
0.0
 11
33.11999999999999
 21
-34.0
 31
0.0
  0
TEXT
  5
8303
330
82C7
100
AcDbEntity
  8
0
100
AcDbText
 10
64.49151233339147
 20
-47.64279706231334
 30
0.0
 40
2.5
  1
,
 41
1.189062499999988
  7
UGMTXT
100
AcDbText
  0
TEXT
  5
8304
330
82C7
100
AcDbEntity
  8
0
100
AcDbText
 10
63.95762514323706
 20
-47.66992576698525
 30
0.0
 40
2.5
  1
%%d
 41
1.484374999999988
  7
UGMTXT
100
AcDbText
  0
LINE
  5
8305
330
82C7
100
AcDbEntity
  8
0
100
AcDbLine
 10
-5.279999999999971
 20
28.8
 30
0.0
 11
41.11999999999992
 21
28.8
 31
0.0
  0
LINE
  5
8306
330
82C7
100
AcDbEntity
  8
0
100
AcDbLine
 10
26.51999999999992
 20
30.0
 30
0.0
 11
39.11999999999999
 21
30.0
 31
0.0
  0
LINE
  5
8307
330
82C7
100
AcDbEntity
  8
0
100
AcDbLine
 10
26.51999999999992
 20
27.59999999999999
 30
0.0
 11
39.11999999999999
 21
27.59999999999999
 31
0.0
  0
INSERT
  5
8308
330
82C7
100
AcDbEntity
  8
0
100
AcDbBlockReference
  2
*U10
 10
-234.5311961722488
 20
-108.6647232036205
 30
0.0
  0
LINE
  5
8309
330
82C7
100
AcDbEntity
  8
0
100
AcDbLine
 10
-3.279999999999971
 20
24.8
 30
0.0
 11
23.92
 21
24.8
 31
0.0
  0
LINE
  5
830A
330
82C7
100
AcDbEntity
  8
0
100
AcDbLine
 10
-3.279999999999971
 20
32.80000000000001
 30
0.0
 11
23.92
 21
32.80000000000001
 31
0.0
  0
LINE
  5
830B
330
82C7
100
AcDbEntity
  8
0
100
AcDbLine
 10
-3.279999999999971
 20
33.0
 30
0.0
 11
-3.279999999999971
 21
45.0
 31
0.0
  0
LINE
  5
830C
330
82C7
100
AcDbEntity
  8
0
100
AcDbLine
 10
10.31999999999996
 20
27.59999999999999
 30
0.0
 11
25.12
 21
27.59999999999999
 31
0.0
  0
LINE
  5
830D
330
82C7
100
AcDbEntity
  8
0
100
AcDbLine
 10
10.31999999999996
 20
30.0
 30
0.0
 11
25.12
 21
30.0
 31
0.0
  0
LINE
  5
830E
330
82C7
100
AcDbEntity
  8
0
100
AcDbLine
 10
10.31999999999996
 20
30.8
 30
0.0
 11
10.31999999999996
 21
30.0
 31
0.0
  0
LINE
  5
830F
330
82C7
100
AcDbEntity
  8
0
100
AcDbLine
 10
7.720000000000027
 20
32.80000000000001
 30
0.0
 11
7.720000000000027
 21
24.8
 31
0.0
  0
LINE
  5
8310
330
82C7
100
AcDbEntity
  8
0
100
AcDbLine
 10
10.31999999999996
 20
27.59999999999999
 30
0.0
 11
10.31999999999996
 21
26.80000000000001
 31
0.0
  0
LINE
  5
8311
330
82C7
100
AcDbEntity
  8
0
100
AcDbLine
 10
7.720000000000027
 20
26.80000000000001
 30
0.0
 11
10.31999999999996
 21
26.80000000000001
 31
0.0
  0
LINE
  5
8312
330
82C7
100
AcDbEntity
  8
0
100
AcDbLine
 10
7.720000000000027
 20
30.8
 30
0.0
 11
10.31999999999996
 21
30.8
 31
0.0
  0
LINE
  5
8313
330
82C7
100
AcDbEntity
  8
0
100
AcDbLine
 10
23.92
 20
32.80000000000001
 30
0.0
 11
23.92
 21
30.0
 31
0.0
  0
LINE
  5
8314
330
82C7
100
AcDbEntity
  8
0
100
AcDbLine
 10
26.51999999999998
 20
30.8
 30
0.0
 11
26.51999999999998
 21
30.0
 31
0.0
  0
LINE
  5
8315
330
82C7
100
AcDbEntity
  8
0
100
AcDbLine
 10
19.12
 20
34.0
 30
0.0
 11
19.12
 21
23.59999999999998
 31
0.0
  0
LINE
  5
8316
330
82C7
100
AcDbEntity
  8
0
100
AcDbLine
 10
23.92
 20
27.59999999999999
 30
0.0
 11
23.92
 21
24.8
 31
0.0
  0
LINE
  5
8317
330
82C7
100
AcDbEntity
  8
0
100
AcDbLine
 10
23.92
 20
26.80000000000001
 30
0.0
 11
26.51999999999998
 21
26.80000000000001
 31
0.0
  0
LINE
  5
8318
330
82C7
100
AcDbEntity
  8
0
100
AcDbLine
 10
25.12
 20
27.59999999999999
 30
0.0
 11
25.12
 21
30.0
 31
0.0
  0
LINE
  5
8319
330
82C7
100
AcDbEntity
  8
0
100
AcDbLine
 10
26.51999999999998
 20
27.59999999999999
 30
0.0
 11
26.51999999999998
 21
26.80000000000001
 31
0.0
  0
LINE
  5
831A
330
82C7
100
AcDbEntity
  8
0
100
AcDbLine
 10
23.92
 20
30.8
 30
0.0
 11
26.51999999999998
 21
30.8
 31
0.0
  0
TEXT
  5
831B
330
82C7
100
AcDbEntity
  8
0
100
AcDbText
 10
6.721407994417856
 20
43.68527679637938
 30
0.0
 40
2.5
  1
(max. t3.2)
 41
0.8081054687500007
  7
UGMTXT
100
AcDbText
  0
TEXT
  5
831C
330
82C7
100
AcDbEntity
  8
0
100
AcDbText
 10
6.721407994417856
 20
48.68527679637939
 30
0.0
 40
2.5
  1
Mounting plate
 41
0.8047256097560964
  7
UGMTXT
100
AcDbText
  0
DIMENSION
  5
831D
330
82C7
100
AcDbEntity
  8
0
100
AcDbDimension
  2
*D24
 10
53.21880382965114
 20
30.0
 30
0.0
 11
53.21880382965111
 21
28.8
 31
0.0
 12
-234.5311961722488
 22
-108.6647232036205
 32
0.0
  3
STANDARD
100
AcDbAlignedDimension
 13
39.11999999999999
 23
27.59999999999999
 33
0.0
 14
39.11999999999999
 24
30.0
 34
0.0
 50
270.0
100
AcDbRotatedDimension
1001
ACAD
1000
DSTYLE
1002
{
1070
   340
1005
11
1002
}
  0
LINE
  5
831E
330
82C7
100
AcDbEntity
  8
0
100
AcDbLine
 10
33.11999999999999
 20
34.0
 30
0.0
 11
33.11999999999999
 21
23.59999999999998
 31
0.0
  0
LINE
  5
831F
330
82C7
100
AcDbEntity
  8
0
100
AcDbLine
 10
39.11999999999999
 20
27.59999999999999
 30
0.0
 11
39.11999999999999
 21
30.0
 31
0.0
  0
INSERT
  5
8320
330
82C7
100
AcDbEntity
  8
0
100
AcDbBlockReference
  2
*U4
 10
-234.5311961722488
 20
-108.6647232036205
 30
0.0
  0
INSERT
  5
8321
330
82C7
100
AcDbEntity
  8
0
100
AcDbBlockReference
  2
*U11
 10
-234.5311961722488
 20
-108.6647232036205
 30
0.0
  0
TEXT
  5
8322
330
82C7
100
AcDbEntity
  8
0
100
AcDbText
 10
70.64512514323695
 20
-47.66992576698525
 30
0.0
 40
2.5
  1
%%d
 41
1.484374999999988
  7
UGMTXT
100
AcDbText
  0
TEXT
  5
8323
330
82C7
100
AcDbEntity
  8
0
100
AcDbText
 10
66.68158347657038
 20
-47.66992576698525
 30
0.0
 40
2.5
  1
90
 41
0.8912499999999909
  7
UGMTXT
100
AcDbText
  0
ENDBLK
  5
8325
330
82C7
100
AcDbEntity
  8
0
100
AcDbBlockEnd
  0
BLOCK
  5
876F
330
8765
100
AcDbEntity
  8
0
100
AcDbBlockBegin
  2
*D26
 70
     1
 10
0.0
 20
0.0
 30
0.0
  3
*D26
  1

  0
LINE
  5
8866
330
8765
100
AcDbEntity
  8
30
 62
     0
100
AcDbLine
 10
451.3776491012275
 20
-102.5000000000005
 30
0.0
 11
451.3776491012275
 21
-76.46948209542689
 31
0.0
  0
LINE
  5
8867
330
8765
100
AcDbEntity
  8
30
 62
     0
100
AcDbLine
 10
411.3776491012273
 20
-102.4999999999991
 30
0.0
 11
411.3776491012273
 21
-76.46948209542689
 31
0.0
  0
LINE
  5
8868
330
8765
100
AcDbEntity
  8
30
 62
     0
100
AcDbLine
 10
449.3776491012275
 20
-76.96948209542687
 30
0.0
 11
413.3776491012275
 21
-76.96948209542687
 31
0.0
  0
INSERT
  5
8869
330
8765
100
AcDbEntity
  8
30
 62
     0
100
AcDbBlockReference
  2
_OPEN
 10
451.3776491012275
 20
-76.96948209542687
 30
0.0
 41
2.0
 42
2.0
 43
2.0
  0
INSERT
  5
886A
330
8765
100
AcDbEntity
  8
30
 62
     0
100
AcDbBlockReference
  2
_OPEN
 10
411.3776491012273
 20
-76.96948209542687
 30
0.0
 41
2.0
 42
2.0
 43
2.0
 50
180.0
  0
MTEXT
  5
886B
330
8765
100
AcDbEntity
  8
30
 62
     0
100
AcDbMText
 10
431.3776491012275
 20
-72.96948209542687
 30
0.0
 40
6.0
 41
0.0
 71
     5
 72
     1
  1
\A1;40
1001
ACAD
1000
MTEXTBEGIN
1070
    73
1070
     1
1070
    44
1040
1.0
1070
    74
1070
     0
1000
MTEXTEND
1000
MTEXTBEGIN
1070
    73
1070
     1
1070
    44
1040
1.0
1070
    74
1070
     0
1000
MTEXTEND
  0
POINT
  5
886C
330
8765
100
AcDbEntity
  8
DEFPOINTS
 62
     0
100
AcDbPoint
 10
451.3776491012275
 20
-103.5000000000005
 30
0.0
  0
POINT
  5
886D
330
8765
100
AcDbEntity
  8
DEFPOINTS
 62
     0
100
AcDbPoint
 10
411.3776491012273
 20
-103.499999999999
 30
0.0
  0
POINT
  5
886E
330
8765
100
AcDbEntity
  8
DEFPOINTS
 62
     0
100
AcDbPoint
 10
411.3776491012273
 20
-76.96948209542687
 30
0.0
  0
ENDBLK
  5
8770
330
8765
100
AcDbEntity
  8
0
100
AcDbBlockEnd
  0
BLOCK
  5
887A
330
8870
100
AcDbEntity
  8
0
100
AcDbBlockBegin
  2
*D27
 70
     1
 10
0.0
 20
0.0
 30
0.0
  3
*D27
  1

  0
LINE
  5
8871
330
8870
100
AcDbEntity
  8
30
  6
CONTINUOUS
 62
     0
100
AcDbLine
 10
467.3776491012273
 20
-99.00000000000069
 30
0.0
 11
487.1218772238089
 21
-99.00000000000069
 31
0.0
  0
LINE
  5
8872
330
8870
100
AcDbEntity
  8
30
  6
CONTINUOUS
 62
     0
100
AcDbLine
 10
467.3776491012273
 20
-129.0000000000006
 30
0.0
 11
487.1218772238089
 21
-129.0000000000006
 31
0.0
  0
LINE
  5
8873
330
8870
100
AcDbEntity
  8
30
  6
CONTINUOUS
 62
     0
100
AcDbLine
 10
486.6218772238089
 20
-101.0000000000006
 30
0.0
 11
486.6218772238089
 21
-127.0000000000006
 31
0.0
  0
INSERT
  5
8874
330
8870
100
AcDbEntity
  8
30
  6
CONTINUOUS
 62
     0
100
AcDbBlockReference
  2
_OPEN
 10
486.6218772238089
 20
-99.00000000000069
 30
0.0
 41
2.0
 42
2.0
 43
2.0
 50
90.0
  0
INSERT
  5
8875
330
8870
100
AcDbEntity
  8
30
  6
CONTINUOUS
 62
     0
100
AcDbBlockReference
  2
_OPEN
 10
486.6218772238089
 20
-129.0000000000006
 30
0.0
 41
2.0
 42
2.0
 43
2.0
 50
270.0
  0
MTEXT
  5
8876
330
8870
100
AcDbEntity
  8
30
  6
CONTINUOUS
 62
     0
100
AcDbMText
 10
482.6218772238089
 20
-114.0000000000005
 30
0.0
 40
6.0
 41
0.0
 71
     5
 72
     1
  1
\A1;30
 11
0.0000000000000001
 21
1.0
 31
0.0
1001
ACAD
1000
MTEXTBEGIN
1070
    73
1070
     1
1070
    44
1040
1.0
1070
    74
1070
     0
1000
MTEXTEND
1000
MTEXTBEGIN
1070
    73
1070
     1
1070
    44
1040
1.0
1070
    74
1070
     0
1000
MTEXTEND
  0
POINT
  5
8877
330
8870
100
AcDbEntity
  8
DEFPOINTS
  6
CONTINUOUS
 62
     0
100
AcDbPoint
 10
466.3776491012273
 20
-99.00000000000069
 30
0.0
  0
POINT
  5
8878
330
8870
100
AcDbEntity
  8
DEFPOINTS
  6
CONTINUOUS
 62
     0
100
AcDbPoint
 10
466.3776491012273
 20
-129.0000000000006
 30
0.0
  0
POINT
  5
8879
330
8870
100
AcDbEntity
  8
DEFPOINTS
  6
CONTINUOUS
 62
     0
100
AcDbPoint
 10
486.6218772238089
 20
-129.0000000000006
 30
0.0
  0
ENDBLK
  5
887B
330
8870
100
AcDbEntity
  8
0
100
AcDbBlockEnd
  0
BLOCK
  5
8887
330
887D
100
AcDbEntity
  8
0
100
AcDbBlockBegin
  2
*D28
 70
     1
 10
0.0
 20
0.0
 30
0.0
  3
*D28
  1

  0
LINE
  5
887E
330
887D
100
AcDbEntity
  8
30
  6
CONTINUOUS
 62
     0
100
AcDbLine
 10
475.3776491012273
 20
114.0000000000001
 30
0.0
 11
499.3510709019318
 21
114.0000000000001
 31
0.0
  0
LINE
  5
887F
330
887D
100
AcDbEntity
  8
30
  6
CONTINUOUS
 62
     0
100
AcDbLine
 10
475.3776491012273
 20
-114.0000000000007
 30
0.0
 11
499.3510709019318
 21
-114.0000000000007
 31
0.0
  0
LINE
  5
8880
330
887D
100
AcDbEntity
  8
30
  6
CONTINUOUS
 62
     0
100
AcDbLine
 10
498.8510709019318
 20
112.0
 30
0.0
 11
498.8510709019318
 21
-112.0000000000007
 31
0.0
  0
INSERT
  5
8881
330
887D
100
AcDbEntity
  8
30
  6
CONTINUOUS
 62
     0
100
AcDbBlockReference
  2
_OPEN
 10
498.8510709019318
 20
114.0000000000001
 30
0.0
 41
2.0
 42
2.0
 43
2.0
 50
90.0
  0
INSERT
  5
8882
330
887D
100
AcDbEntity
  8
30
  6
CONTINUOUS
 62
     0
100
AcDbBlockReference
  2
_OPEN
 10
498.8510709019318
 20
-114.0000000000007
 30
0.0
 41
2.0
 42
2.0
 43
2.0
 50
270.0
  0
MTEXT
  5
8883
330
887D
100
AcDbEntity
  8
30
  6
CONTINUOUS
 62
     0
100
AcDbMText
 10
494.8510709019318
 20
-0.0000000000002716
 30
0.0
 40
6.0
 41
0.0
 71
     5
 72
     1
  1
\A1;228
 11
0.0000000000000001
 21
1.0
 31
0.0
1001
ACAD
1000
MTEXTBEGIN
1070
    73
1070
     1
1070
    44
1040
1.0
1070
    74
1070
     0
1000
MTEXTEND
1000
MTEXTBEGIN
1070
    73
1070
     1
1070
    44
1040
1.0
1070
    74
1070
     0
1000
MTEXTEND
  0
POINT
  5
8884
330
887D
100
AcDbEntity
  8
DEFPOINTS
  6
CONTINUOUS
 62
     0
100
AcDbPoint
 10
474.3776491012273
 20
114.0000000000001
 30
0.0
  0
POINT
  5
8885
330
887D
100
AcDbEntity
  8
DEFPOINTS
  6
CONTINUOUS
 62
     0
100
AcDbPoint
 10
474.3776491012273
 20
-114.0000000000007
 30
0.0
  0
POINT
  5
8886
330
887D
100
AcDbEntity
  8
DEFPOINTS
  6
CONTINUOUS
 62
     0
100
AcDbPoint
 10
498.8510709019318
 20
-114.0000000000007
 30
0.0
  0
ENDBLK
  5
8888
330
887D
100
AcDbEntity
  8
0
100
AcDbBlockEnd
  0
BLOCK
  5
8894
330
888A
100
AcDbEntity
  8
0
100
AcDbBlockBegin
  2
*D29
 70
     1
 10
0.0
 20
0.0
 30
0.0
  3
*D29
  1

  0
LINE
  5
88C1
330
888A
100
AcDbEntity
  8
30
  6
CONTINUOUS
 62
     0
100
AcDbLine
 10
211.3776491012281
 20
-0.9999999999998802
 30
0.0
 11
211.3776491012281
 21
-193.9509781491146
 31
0.0
  0
LINE
  5
88C2
330
888A
100
AcDbEntity
  8
30
  6
CONTINUOUS
 62
     0
100
AcDbLine
 10
356.3776491012282
 20
-131.0
 30
0.0
 11
356.3776491012282
 21
-193.9509781491146
 31
0.0
  0
LINE
  5
88C3
330
888A
100
AcDbEntity
  8
30
  6
CONTINUOUS
 62
     0
100
AcDbLine
 10
213.3776491012281
 20
-193.4509781491146
 30
0.0
 11
354.3776491012282
 21
-193.4509781491146
 31
0.0
  0
INSERT
  5
88C4
330
888A
100
AcDbEntity
  8
30
  6
CONTINUOUS
 62
     0
100
AcDbBlockReference
  2
_OPEN
 10
211.3776491012281
 20
-193.4509781491146
 30
0.0
 41
2.0
 42
2.0
 43
2.0
 50
180.0
  0
INSERT
  5
88C5
330
888A
100
AcDbEntity
  8
30
  6
CONTINUOUS
 62
     0
100
AcDbBlockReference
  2
_OPEN
 10
356.3776491012282
 20
-193.4509781491146
 30
0.0
 41
2.0
 42
2.0
 43
2.0
  0
MTEXT
  5
88C6
330
888A
100
AcDbEntity
  8
30
  6
CONTINUOUS
 62
     0
100
AcDbMText
 10
283.8776491012282
 20
-189.4509781491144
 30
0.0
 40
6.0
 41
0.0
 71
     5
 72
     1
  1
\A1;145
1001
ACAD
1000
MTEXTBEGIN
1070
    73
1070
     1
1070
    44
1040
1.0
1070
    74
1070
     0
1000
MTEXTEND
1000
MTEXTBEGIN
1070
    73
1070
     1
1070
    44
1040
1.0
1070
    74
1070
     0
1000
MTEXTEND
  0
POINT
  5
88C7
330
888A
100
AcDbEntity
  8
DEFPOINTS
  6
CONTINUOUS
 62
     0
100
AcDbPoint
 10
211.3776491012281
 20
0.0000000000001197
 30
0.0
  0
POINT
  5
88C8
330
888A
100
AcDbEntity
  8
DEFPOINTS
  6
CONTINUOUS
 62
     0
100
AcDbPoint
 10
356.3776491012282
 20
-130.0
 30
0.0
  0
POINT
  5
88C9
330
888A
100
AcDbEntity
  8
DEFPOINTS
  6
CONTINUOUS
 62
     0
100
AcDbPoint
 10
356.3776491012282
 20
-193.4509781491146
 30
0.0
  0
ENDBLK
  5
8895
330
888A
100
AcDbEntity
  8
0
100
AcDbBlockEnd
  0
BLOCK
  5
88A2
330
8897
100
AcDbEntity
  8
0
100
AcDbBlockBegin
  2
*D30
 70
     1
 10
0.0
 20
0.0
 30
0.0
  3
*D30
  1

  0
LINE
  5
88CA
330
8897
100
AcDbEntity
  8
30
  6
CONTINUOUS
 62
     0
100
AcDbLine
 10
245.3776491012281
 20
-45.99999999999988
 30
0.0
 11
245.3776491012281
 21
-175.3067634479553
 31
0.0
  0
LINE
  5
88CB
330
8897
100
AcDbEntity
  8
30
  6
CONTINUOUS
 62
     0
100
AcDbLine
 10
249.3776491012281
 20
-45.99999999999988
 30
0.0
 11
249.3776491012281
 21
-175.3067634479553
 31
0.0
  0
LINE
  5
88CC
330
8897
100
AcDbEntity
  8
30
  6
CONTINUOUS
 62
     0
100
AcDbLine
 10
243.377649101228
 20
-174.806763447955
 30
0.0
 11
241.3776491012281
 21
-174.806763447955
 31
0.0
  0
LINE
  5
88CD
330
8897
100
AcDbEntity
  8
30
  6
CONTINUOUS
 62
     0
100
AcDbLine
 10
251.3776491012281
 20
-174.806763447955
 30
0.0
 11
259.3776491012282
 21
-174.806763447955
 31
0.0
  0
INSERT
  5
88CE
330
8897
100
AcDbEntity
  8
30
  6
CONTINUOUS
 62
     0
100
AcDbBlockReference
  2
_OPEN
 10
245.3776491012281
 20
-174.806763447955
 30
0.0
 41
2.0
 42
2.0
 43
2.0
  0
INSERT
  5
88CF
330
8897
100
AcDbEntity
  8
30
  6
CONTINUOUS
 62
     0
100
AcDbBlockReference
  2
_OPEN
 10
249.3776491012281
 20
-174.806763447955
 30
0.0
 41
2.0
 42
2.0
 43
2.0
 50
180.0
  0
MTEXT
  5
88D0
330
8897
100
AcDbEntity
  8
30
  6
CONTINUOUS
 62
     0
100
AcDbMText
 10
256.3776491012282
 20
-170.806763447955
 30
0.0
 40
6.0
 41
0.0
 71
     5
 72
     1
  1
\A1;4
1001
ACAD
1000
MTEXTBEGIN
1070
    73
1070
     1
1070
    44
1040
1.0
1070
    74
1070
     0
1000
MTEXTEND
1000
MTEXTBEGIN
1070
    73
1070
     1
1070
    44
1040
1.0
1070
    74
1070
     0
1000
MTEXTEND
  0
POINT
  5
88D1
330
8897
100
AcDbEntity
  8
DEFPOINTS
  6
CONTINUOUS
 62
     0
100
AcDbPoint
 10
245.3776491012281
 20
-44.99999999999988
 30
0.0
  0
POINT
  5
88D2
330
8897
100
AcDbEntity
  8
DEFPOINTS
  6
CONTINUOUS
 62
     0
100
AcDbPoint
 10
249.3776491012281
 20
-44.99999999999988
 30
0.0
  0
POINT
  5
88D3
330
8897
100
AcDbEntity
  8
DEFPOINTS
  6
CONTINUOUS
 62
     0
100
AcDbPoint
 10
249.3776491012281
 20
-174.806763447955
 30
0.0
  0
ENDBLK
  5
88A3
330
8897
100
AcDbEntity
  8
0
100
AcDbBlockEnd
  0
BLOCK
  5
88BF
330
88B6
100
AcDbEntity
  8
0
100
AcDbBlockBegin
  2
*D31
 70
     1
 10
0.0
 20
0.0
 30
0.0
  3
*D31
  1

  0
LINE
  5
88D4
330
88B6
100
AcDbEntity
  8
30
  6
CONTINUOUS
 62
     0
100
AcDbLine
 10
249.3776491012281
 20
-155.7338396098456
 30
0.0
 11
249.3776491012281
 21
-175.3067634479553
 31
0.0
  0
LINE
  5
88D5
330
88B6
100
AcDbEntity
  8
30
  6
CONTINUOUS
 62
     0
100
AcDbLine
 10
356.3776491012282
 20
-132.0
 30
0.0
 11
356.3776491012282
 21
-175.3067634479553
 31
0.0
  0
LINE
  5
88D6
330
88B6
100
AcDbEntity
  8
30
  6
CONTINUOUS
 62
     0
100
AcDbLine
 10
251.3776491012281
 20
-174.806763447955
 30
0.0
 11
354.3776491012282
 21
-174.806763447955
 31
0.0
  0
INSERT
  5
88D7
330
88B6
100
AcDbEntity
  8
30
  6
CONTINUOUS
 62
     0
100
AcDbBlockReference
  2
_OPEN
 10
249.3776491012281
 20
-174.806763447955
 30
0.0
 41
2.0
 42
2.0
 43
2.0
 50
180.0
  0
INSERT
  5
88D8
330
88B6
100
AcDbEntity
  8
30
  6
CONTINUOUS
 62
     0
100
AcDbBlockReference
  2
_OPEN
 10
356.3776491012282
 20
-174.806763447955
 30
0.0
 41
2.0
 42
2.0
 43
2.0
  0
MTEXT
  5
88D9
330
88B6
100
AcDbEntity
  8
30
  6
CONTINUOUS
 62
     0
100
AcDbMText
 10
302.8776491012282
 20
-170.806763447955
 30
0.0
 40
6.0
 41
0.0
 71
     5
 72
     1
  1
\A1;107
1001
ACAD
1000
MTEXTBEGIN
1070
    73
1070
     1
1070
    44
1040
1.0
1070
    74
1070
     0
1000
MTEXTEND
1000
MTEXTBEGIN
1070
    73
1070
     1
1070
    44
1040
1.0
1070
    74
1070
     0
1000
MTEXTEND
  0
POINT
  5
88DA
330
88B6
100
AcDbEntity
  8
DEFPOINTS
  6
CONTINUOUS
 62
     0
100
AcDbPoint
 10
249.3776491012281
 20
-154.7338396098457
 30
0.0
  0
POINT
  5
88DB
330
88B6
100
AcDbEntity
  8
DEFPOINTS
  6
CONTINUOUS
 62
     0
100
AcDbPoint
 10
356.3776491012282
 20
-131.0
 30
0.0
  0
POINT
  5
88DC
330
88B6
100
AcDbEntity
  8
DEFPOINTS
  6
CONTINUOUS
 62
     0
100
AcDbPoint
 10
356.3776491012282
 20
-174.806763447955
 30
0.0
  0
ENDBLK
  5
88C0
330
88B6
100
AcDbEntity
  8
0
100
AcDbBlockEnd
  0
BLOCK
  5
88E8
330
88DE
100
AcDbEntity
  8
0
100
AcDbBlockBegin
  2
*D32
 70
     1
 10
0.0
 20
0.0
 30
0.0
  3
*D32
  1

  0
LINE
  5
88DF
330
88DE
100
AcDbEntity
  8
30
  6
CONTINUOUS
 62
     0
100
AcDbLine
 10
253.3776491012281
 20
-51.99999999999988
 30
0.0
 11
253.3776491012281
 21
-161.1628788587822
 31
0.0
  0
LINE
  5
88E0
330
88DE
100
AcDbEntity
  8
30
  6
CONTINUOUS
 62
     0
100
AcDbLine
 10
356.3776491012282
 20
-131.0
 30
0.0
 11
356.3776491012282
 21
-161.1628788587822
 31
0.0
  0
LINE
  5
88E1
330
88DE
100
AcDbEntity
  8
30
  6
CONTINUOUS
 62
     0
100
AcDbLine
 10
255.3776491012281
 20
-160.6628788587821
 30
0.0
 11
354.3776491012282
 21
-160.6628788587821
 31
0.0
  0
INSERT
  5
88E2
330
88DE
100
AcDbEntity
  8
30
  6
CONTINUOUS
 62
     0
100
AcDbBlockReference
  2
_OPEN
 10
253.3776491012281
 20
-160.6628788587821
 30
0.0
 41
2.0
 42
2.0
 43
2.0
 50
180.0
  0
INSERT
  5
88E3
330
88DE
100
AcDbEntity
  8
30
  6
CONTINUOUS
 62
     0
100
AcDbBlockReference
  2
_OPEN
 10
356.3776491012282
 20
-160.6628788587821
 30
0.0
 41
2.0
 42
2.0
 43
2.0
  0
MTEXT
  5
88E4
330
88DE
100
AcDbEntity
  8
30
  6
CONTINUOUS
 62
     0
100
AcDbMText
 10
304.8776491012282
 20
-156.6628788587822
 30
0.0
 40
6.0
 41
0.0
 71
     5
 72
     1
  1
\A1;103
1001
ACAD
1000
MTEXTBEGIN
1070
    73
1070
     1
1070
    44
1040
1.0
1070
    74
1070
     0
1000
MTEXTEND
1000
MTEXTBEGIN
1070
    73
1070
     1
1070
    44
1040
1.0
1070
    74
1070
     0
1000
MTEXTEND
  0
POINT
  5
88E5
330
88DE
100
AcDbEntity
  8
DEFPOINTS
  6
CONTINUOUS
 62
     0
100
AcDbPoint
 10
253.3776491012281
 20
-50.99999999999988
 30
0.0
  0
POINT
  5
88E6
330
88DE
100
AcDbEntity
  8
DEFPOINTS
  6
CONTINUOUS
 62
     0
100
AcDbPoint
 10
356.3776491012282
 20
-130.0
 30
0.0
  0
POINT
  5
88E7
330
88DE
100
AcDbEntity
  8
DEFPOINTS
  6
CONTINUOUS
 62
     0
100
AcDbPoint
 10
356.3776491012282
 20
-160.6628788587821
 30
0.0
  0
ENDBLK
  5
88E9
330
88DE
100
AcDbEntity
  8
0
100
AcDbBlockEnd
  0
BLOCK
  5
88F5
330
88EB
100
AcDbEntity
  8
0
100
AcDbBlockBegin
  2
*D33
 70
     1
 10
0.0
 20
0.0
 30
0.0
  3
*D33
  1

  0
LINE
  5
88EC
330
88EB
100
AcDbEntity
  8
30
  6
CONTINUOUS
 62
     0
100
AcDbLine
 10
259.3776491012282
 20
-131.0
 30
0.0
 11
259.3776491012282
 21
-147.6618973152594
 31
0.0
  0
LINE
  5
88ED
330
88EB
100
AcDbEntity
  8
30
  6
CONTINUOUS
 62
     0
100
AcDbLine
 10
356.3776491012282
 20
-132.0
 30
0.0
 11
356.3776491012282
 21
-147.6618973152594
 31
0.0
  0
LINE
  5
88EE
330
88EB
100
AcDbEntity
  8
30
  6
CONTINUOUS
 62
     0
100
AcDbLine
 10
261.3776491012282
 20
-147.1618973152594
 30
0.0
 11
354.3776491012282
 21
-147.1618973152594
 31
0.0
  0
INSERT
  5
88EF
330
88EB
100
AcDbEntity
  8
30
  6
CONTINUOUS
 62
     0
100
AcDbBlockReference
  2
_OPEN
 10
259.3776491012282
 20
-147.1618973152594
 30
0.0
 41
2.0
 42
2.0
 43
2.0
 50
180.0
  0
INSERT
  5
88F0
330
88EB
100
AcDbEntity
  8
30
  6
CONTINUOUS
 62
     0
100
AcDbBlockReference
  2
_OPEN
 10
356.3776491012282
 20
-147.1618973152594
 30
0.0
 41
2.0
 42
2.0
 43
2.0
  0
MTEXT
  5
88F1
330
88EB
100
AcDbEntity
  8
30
  6
CONTINUOUS
 62
     0
100
AcDbMText
 10
307.8776491012281
 20
-143.1618973152594
 30
0.0
 40
6.0
 41
0.0
 71
     5
 72
     1
  1
\A1;97
1001
ACAD
1000
MTEXTBEGIN
1070
    73
1070
     1
1070
    44
1040
1.0
1070
    74
1070
     0
1000
MTEXTEND
1000
MTEXTBEGIN
1070
    73
1070
     1
1070
    44
1040
1.0
1070
    74
1070
     0
1000
MTEXTEND
  0
POINT
  5
88F2
330
88EB
100
AcDbEntity
  8
DEFPOINTS
  6
CONTINUOUS
 62
     0
100
AcDbPoint
 10
259.3776491012282
 20
-130.0
 30
0.0
  0
POINT
  5
88F3
330
88EB
100
AcDbEntity
  8
DEFPOINTS
  6
CONTINUOUS
 62
     0
100
AcDbPoint
 10
356.3776491012282
 20
-131.0
 30
0.0
  0
POINT
  5
88F4
330
88EB
100
AcDbEntity
  8
DEFPOINTS
  6
CONTINUOUS
 62
     0
100
AcDbPoint
 10
356.3776491012282
 20
-147.1618973152594
 30
0.0
  0
ENDBLK
  5
88F6
330
88EB
100
AcDbEntity
  8
0
100
AcDbBlockEnd
  0
BLOCK
  5
8902
330
88F8
100
AcDbEntity
  8
0
100
AcDbBlockBegin
  2
*D34
 70
     1
 10
0.0
 20
0.0
 30
0.0
  3
*D34
  1

  0
LINE
  5
8ECF
330
88F8
100
AcDbEntity
  8
30
  6
CONTINUOUS
 62
     0
100
AcDbLine
 10
356.3776491012282
 20
-146.6618973152594
 30
0.0
 11
356.3776491012282
 21
-147.1618973152594
 31
0.0
  0
LINE
  5
8ED0
330
88F8
100
AcDbEntity
  8
30
  6
CONTINUOUS
 62
     0
100
AcDbLine
 10
426.3776491012275
 20
-129.9999999999992
 30
0.0
 11
426.3776491012275
 21
-148.1618973152594
 31
0.0
  0
LINE
  5
8ED1
330
88F8
100
AcDbEntity
  8
30
  6
CONTINUOUS
 62
     0
100
AcDbLine
 10
358.3776491012282
 20
-147.6618973152594
 30
0.0
 11
424.3776491012273
 21
-147.6618973152594
 31
0.0
  0
INSERT
  5
8ED2
330
88F8
100
AcDbEntity
  8
30
  6
CONTINUOUS
 62
     0
100
AcDbBlockReference
  2
_OPEN
 10
356.3776491012282
 20
-147.6618973152594
 30
0.0
 41
2.0
 42
2.0
 43
2.0
 50
180.0
  0
INSERT
  5
8ED3
330
88F8
100
AcDbEntity
  8
30
  6
CONTINUOUS
 62
     0
100
AcDbBlockReference
  2
_OPEN
 10
426.3776491012275
 20
-147.6618973152594
 30
0.0
 41
2.0
 42
2.0
 43
2.0
  0
MTEXT
  5
8ED4
330
88F8
100
AcDbEntity
  8
30
  6
CONTINUOUS
 62
     0
100
AcDbMText
 10
391.3776491012278
 20
-143.6618973152594
 30
0.0
 40
6.0
 41
0.0
 71
     5
 72
     1
  1
\A1;70
1001
ACAD
1000
MTEXTBEGIN
1070
    73
1070
     1
1070
    44
1040
1.0
1070
    74
1070
     0
1000
MTEXTEND
1000
MTEXTBEGIN
1070
    73
1070
     1
1070
    44
1040
1.0
1070
    74
1070
     0
1000
MTEXTEND
  0
POINT
  5
8ED5
330
88F8
100
AcDbEntity
  8
DEFPOINTS
  6
CONTINUOUS
 62
     0
100
AcDbPoint
 10
356.3776491012282
 20
-147.6618973152594
 30
0.0
  0
POINT
  5
8ED6
330
88F8
100
AcDbEntity
  8
DEFPOINTS
  6
CONTINUOUS
 62
     0
100
AcDbPoint
 10
426.3776491012275
 20
-128.9999999999992
 30
0.0
  0
POINT
  5
8ED7
330
88F8
100
AcDbEntity
  8
DEFPOINTS
  6
CONTINUOUS
 62
     0
100
AcDbPoint
 10
426.3776491012275
 20
-147.6618973152594
 30
0.0
  0
ENDBLK
  5
8903
330
88F8
100
AcDbEntity
  8
0
100
AcDbBlockEnd
  0
BLOCK
  5
890F
330
8905
100
AcDbEntity
  8
0
100
AcDbBlockBegin
  2
*D35
 70
     1
 10
0.0
 20
0.0
 30
0.0
  3
*D35
  1

  0
LINE
  5
8906
330
8905
100
AcDbEntity
  8
30
  6
CONTINUOUS
 62
     0
100
AcDbLine
 10
411.3776491012273
 20
-125.4999999999992
 30
0.0
 11
411.3776491012273
 21
-139.4476261261002
 31
0.0
  0
LINE
  5
8907
330
8905
100
AcDbEntity
  8
30
  6
CONTINUOUS
 62
     0
100
AcDbLine
 10
426.3776491012275
 20
-129.9999999999992
 30
0.0
 11
426.3776491012275
 21
-139.4476261261002
 31
0.0
  0
LINE
  5
8908
330
8905
100
AcDbEntity
  8
30
  6
CONTINUOUS
 62
     0
100
AcDbLine
 10
413.3776491012275
 20
-138.9476261261002
 30
0.0
 11
424.3776491012273
 21
-138.9476261261002
 31
0.0
  0
INSERT
  5
8909
330
8905
100
AcDbEntity
  8
30
  6
CONTINUOUS
 62
     0
100
AcDbBlockReference
  2
_OPEN
 10
411.3776491012273
 20
-138.9476261261002
 30
0.0
 41
2.0
 42
2.0
 43
2.0
 50
180.0
  0
INSERT
  5
890A
330
8905
100
AcDbEntity
  8
30
  6
CONTINUOUS
 62
     0
100
AcDbBlockReference
  2
_OPEN
 10
426.3776491012275
 20
-138.9476261261002
 30
0.0
 41
2.0
 42
2.0
 43
2.0
  0
MTEXT
  5
890B
330
8905
100
AcDbEntity
  8
30
  6
CONTINUOUS
 62
     0
100
AcDbMText
 10
418.8776491012275
 20
-134.9476261261002
 30
0.0
 40
6.0
 41
0.0
 71
     5
 72
     1
  1
\A1;15
1001
ACAD
1000
MTEXTBEGIN
1070
    73
1070
     1
1070
    44
1040
1.0
1070
    74
1070
     0
1000
MTEXTEND
1000
MTEXTBEGIN
1070
    73
1070
     1
1070
    44
1040
1.0
1070
    74
1070
     0
1000
MTEXTEND
  0
POINT
  5
890C
330
8905
100
AcDbEntity
  8
DEFPOINTS
  6
CONTINUOUS
 62
     0
100
AcDbPoint
 10
411.3776491012273
 20
-124.4999999999992
 30
0.0
  0
POINT
  5
890D
330
8905
100
AcDbEntity
  8
DEFPOINTS
  6
CONTINUOUS
 62
     0
100
AcDbPoint
 10
426.3776491012275
 20
-128.9999999999992
 30
0.0
  0
POINT
  5
890E
330
8905
100
AcDbEntity
  8
DEFPOINTS
  6
CONTINUOUS
 62
     0
100
AcDbPoint
 10
426.3776491012275
 20
-138.9476261261002
 30
0.0
  0
ENDBLK
  5
8910
330
8905
100
AcDbEntity
  8
0
100
AcDbBlockEnd
  0
BLOCK
  5
891C
330
8912
100
AcDbEntity
  8
0
100
AcDbBlockBegin
  2
*D36
 70
     1
 10
0.0
 20
0.0
 30
0.0
  3
*D36
  1

  0
LINE
  5
8913
330
8912
100
AcDbEntity
  8
30
  6
CONTINUOUS
 62
     0
100
AcDbLine
 10
451.3776491012275
 20
-125.5000000000005
 30
0.0
 11
451.3776491012275
 21
-139.4476261261002
 31
0.0
  0
LINE
  5
8914
330
8912
100
AcDbEntity
  8
30
  6
CONTINUOUS
 62
     0
100
AcDbLine
 10
466.3776491012273
 20
-130.0000000000006
 30
0.0
 11
466.3776491012273
 21
-139.4476261261002
 31
0.0
  0
LINE
  5
8915
330
8912
100
AcDbEntity
  8
30
  6
CONTINUOUS
 62
     0
100
AcDbLine
 10
453.3776491012273
 20
-138.9476261261002
 30
0.0
 11
464.3776491012273
 21
-138.9476261261002
 31
0.0
  0
INSERT
  5
8916
330
8912
100
AcDbEntity
  8
30
  6
CONTINUOUS
 62
     0
100
AcDbBlockReference
  2
_OPEN
 10
451.3776491012275
 20
-138.9476261261002
 30
0.0
 41
2.0
 42
2.0
 43
2.0
 50
180.0
  0
INSERT
  5
8917
330
8912
100
AcDbEntity
  8
30
  6
CONTINUOUS
 62
     0
100
AcDbBlockReference
  2
_OPEN
 10
466.3776491012273
 20
-138.9476261261002
 30
0.0
 41
2.0
 42
2.0
 43
2.0
  0
MTEXT
  5
8918
330
8912
100
AcDbEntity
  8
30
  6
CONTINUOUS
 62
     0
100
AcDbMText
 10
458.8776491012273
 20
-134.9476261261002
 30
0.0
 40
6.0
 41
0.0
 71
     5
 72
     1
  1
\A1;15
1001
ACAD
1000
MTEXTBEGIN
1070
    73
1070
     1
1070
    44
1040
1.0
1070
    74
1070
     0
1000
MTEXTEND
1000
MTEXTBEGIN
1070
    73
1070
     1
1070
    44
1040
1.0
1070
    74
1070
     0
1000
MTEXTEND
  0
POINT
  5
8919
330
8912
100
AcDbEntity
  8
DEFPOINTS
  6
CONTINUOUS
 62
     0
100
AcDbPoint
 10
451.3776491012275
 20
-124.5000000000006
 30
0.0
  0
POINT
  5
891A
330
8912
100
AcDbEntity
  8
DEFPOINTS
  6
CONTINUOUS
 62
     0
100
AcDbPoint
 10
466.3776491012273
 20
-129.0000000000006
 30
0.0
  0
POINT
  5
891B
330
8912
100
AcDbEntity
  8
DEFPOINTS
  6
CONTINUOUS
 62
     0
100
AcDbPoint
 10
466.3776491012273
 20
-138.9476261261002
 30
0.0
  0
ENDBLK
  5
891D
330
8912
100
AcDbEntity
  8
0
100
AcDbBlockEnd
  0
BLOCK
  5
8929
330
891F
100
AcDbEntity
  8
0
100
AcDbBlockBegin
  2
*D37
 70
     1
 10
0.0
 20
0.0
 30
0.0
  3
*D37
  1

  0
LINE
  5
8946
330
891F
100
AcDbEntity
  8
30
  6
CONTINUOUS
 62
     0
100
AcDbLine
 10
356.3776491012282
 20
-159.3295448587821
 30
0.0
 11
356.3776491012282
 21
-159.8295448587821
 31
0.0
  0
LINE
  5
8947
330
891F
100
AcDbEntity
  8
30
  6
CONTINUOUS
 62
     0
100
AcDbLine
 10
466.3776491012273
 20
-130.0000000000006
 30
0.0
 11
466.3776491012273
 21
-160.8295448587821
 31
0.0
  0
LINE
  5
8948
330
891F
100
AcDbEntity
  8
30
  6
CONTINUOUS
 62
     0
100
AcDbLine
 10
358.3776491012282
 20
-160.3295448587821
 30
0.0
 11
464.3776491012273
 21
-160.3295448587821
 31
0.0
  0
INSERT
  5
8949
330
891F
100
AcDbEntity
  8
30
  6
CONTINUOUS
 62
     0
100
AcDbBlockReference
  2
_OPEN
 10
356.3776491012282
 20
-160.3295448587821
 30
0.0
 41
2.0
 42
2.0
 43
2.0
 50
180.0
  0
INSERT
  5
894A
330
891F
100
AcDbEntity
  8
30
  6
CONTINUOUS
 62
     0
100
AcDbBlockReference
  2
_OPEN
 10
466.3776491012273
 20
-160.3295448587821
 30
0.0
 41
2.0
 42
2.0
 43
2.0
  0
MTEXT
  5
894B
330
891F
100
AcDbEntity
  8
30
  6
CONTINUOUS
 62
     0
100
AcDbMText
 10
411.3776491012278
 20
-156.3295448587821
 30
0.0
 40
6.0
 41
0.0
 71
     5
 72
     1
  1
\A1;110
1001
ACAD
1000
MTEXTBEGIN
1070
    73
1070
     1
1070
    44
1040
1.0
1070
    74
1070
     0
1000
MTEXTEND
1000
MTEXTBEGIN
1070
    73
1070
     1
1070
    44
1040
1.0
1070
    74
1070
     0
1000
MTEXTEND
  0
POINT
  5
894C
330
891F
100
AcDbEntity
  8
DEFPOINTS
  6
CONTINUOUS
 62
     0
100
AcDbPoint
 10
356.3776491012282
 20
-160.3295448587821
 30
0.0
  0
POINT
  5
894D
330
891F
100
AcDbEntity
  8
DEFPOINTS
  6
CONTINUOUS
 62
     0
100
AcDbPoint
 10
466.3776491012273
 20
-129.0000000000006
 30
0.0
  0
POINT
  5
894E
330
891F
100
AcDbEntity
  8
DEFPOINTS
  6
CONTINUOUS
 62
     0
100
AcDbPoint
 10
466.3776491012273
 20
-160.3295448587821
 30
0.0
  0
ENDBLK
  5
892A
330
891F
100
AcDbEntity
  8
0
100
AcDbBlockEnd
  0
BLOCK
  5
8959
330
8950
100
AcDbEntity
  8
0
100
AcDbBlockBegin
  2
*D38
 70
     1
 10
0.0
 20
0.0
 30
0.0
  3
*D38
  1

  0
LINE
  5
8951
330
8950
100
AcDbEntity
  8
30
  6
CONTINUOUS
 62
     0
100
AcDbLine
 10
483.3906850908733
 20
-75.3983811832914
 30
0.0
 11
468.3906850908734
 21
-75.39838118329139
 31
0.0
  0
LINE
  5
8952
330
8950
100
AcDbEntity
  8
30
  6
CONTINUOUS
 62
     0
100
AcDbLine
 10
468.3906850908734
 20
-75.39838118329139
 30
0.0
 11
454.805708106009
 21
-106.2219275228545
 31
0.0
  0
MTEXT
  5
8953
330
8950
100
AcDbEntity
  8
30
  6
CONTINUOUS
 62
     0
100
AcDbMText
 10
476.3906850908733
 20
-71.39838118329134
 30
0.0
 40
6.0
 41
0.0
 71
     5
 72
     1
  1
\A1;\U+220513
1001
ACAD
1000
MTEXTBEGIN
1070
    73
1070
     1
1070
    44
1040
1.0
1070
    74
1070
     0
1000
MTEXTEND
1000
MTEXTBEGIN
1070
    73
1070
     1
1070
    44
1040
1.0
1070
    74
1070
     0
1000
MTEXTEND
  0
INSERT
  5
8954
330
8950
100
AcDbEntity
  8
30
  6
CONTINUOUS
 62
     0
100
AcDbBlockReference
  2
_OPEN
 10
453.9991059872368
 20
-108.0520622233595
 30
0.0
 41
2.0
 42
2.0
 43
2.0
 50
246.2152934870918
  0
LINE
  5
8955
330
8950
100
AcDbEntity
  8
30
  6
CONTINUOUS
 62
     0
100
AcDbLine
 10
451.2876491012276
 20
-114.0000000000007
 30
0.0
 11
451.4676491012273
 21
-114.0000000000005
 31
0.0
  0
LINE
  5
8956
330
8950
100
AcDbEntity
  8
30
  6
CONTINUOUS
 62
     0
100
AcDbLine
 10
451.3776491012276
 20
-114.0900000000005
 30
0.0
 11
451.3776491012276
 21
-113.9100000000003
 31
0.0
  0
POINT
  5
8957
330
8950
100
AcDbEntity
  8
DEFPOINTS
  6
CONTINUOUS
 62
     0
100
AcDbPoint
 10
453.9991059872368
 20
-108.0520622233595
 30
0.0
  0
POINT
  5
8958
330
8950
100
AcDbEntity
  8
DEFPOINTS
  6
CONTINUOUS
 62
     0
100
AcDbPoint
 10
448.7561922152182
 20
-119.9479377766417
 30
0.0
  0
ENDBLK
  5
895A
330
8950
100
AcDbEntity
  8
0
100
AcDbBlockEnd
  0
BLOCK
  5
8B30
330
8B26
100
AcDbEntity
  8
0
100
AcDbBlockBegin
  2
*D39
 70
     1
 10
0.0
 20
0.0
 30
0.0
  3
*D39
  1

  0
LINE
  5
912B
330
8B26
100
AcDbEntity
  8
30
 62
     0
100
AcDbLine
 10
26.49998966844745
 20
366.6999586737895
 30
0.0
 11
105.9964340825962
 21
366.6999586737895
 31
0.0
  0
LINE
  5
912C
330
8B26
100
AcDbEntity
  8
30
 62
     0
100
AcDbLine
 10
88.99951489410572
 20
352.0
 30
0.0
 11
105.9964340825962
 21
352.0
 31
0.0
  0
LINE
  5
912D
330
8B26
100
AcDbEntity
  8
30
 62
     0
100
AcDbLine
 10
105.4964340825963
 20
364.6999586737895
 30
0.0
 11
105.4964340825963
 21
354.0
 31
0.0
  0
LINE
  5
912E
330
8B26
100
AcDbEntity
  8
30
 62
     0
100
AcDbLine
 10
105.4964340825963
 20
359.3499793368947
 30
0.0
 11
118.4964340825962
 21
359.3499793368947
 31
0.0
  0
LINE
  5
912F
330
8B26
100
AcDbEntity
  8
30
 62
     0
100
AcDbLine
 10
118.4964340825962
 20
359.3499793368947
 30
0.0
 11
136.4964340825963
 21
359.3499793368946
 31
0.0
  0
MTEXT
  5
9130
330
8B26
100
AcDbEntity
  8
30
 62
     0
100
AcDbMText
 10
127.4964340825962
 20
363.3499793368947
 30
0.0
 40
6.0
 41
0.0
 71
     5
 72
     1
  1
\A1;14.7
  0
INSERT
  5
9131
330
8B26
100
AcDbEntity
  8
30
 62
     0
100
AcDbBlockReference
  2
_OPEN
 10
105.4964340825963
 20
366.6999586737895
 30
0.0
 41
2.0
 42
2.0
 43
2.0
 50
90.0
  0
INSERT
  5
9132
330
8B26
100
AcDbEntity
  8
30
 62
     0
100
AcDbBlockReference
  2
_OPEN
 10
105.4964340825963
 20
352.0
 30
0.0
 41
2.0
 42
2.0
 43
2.0
 50
270.0
  0
POINT
  5
9133
330
8B26
100
AcDbEntity
  8
DEFPOINTS
 62
     0
100
AcDbPoint
 10
25.49998966844745
 20
366.6999586737895
 30
0.0
  0
POINT
  5
9134
330
8B26
100
AcDbEntity
  8
DEFPOINTS
 62
     0
100
AcDbPoint
 10
87.99951489410572
 20
352.0
 30
0.0
  0
POINT
  5
9135
330
8B26
100
AcDbEntity
  8
DEFPOINTS
 62
     0
100
AcDbPoint
 10
105.4964340825963
 20
352.0
 30
0.0
  0
ENDBLK
  5
8B31
330
8B26
100
AcDbEntity
  8
0
100
AcDbBlockEnd
  0
BLOCK
  5
8C1A
330
8C10
100
AcDbEntity
  8
0
100
AcDbBlockBegin
  2
*D40
 70
     1
 10
0.0
 20
0.0
 30
0.0
  3
*D40
  1

  0
LINE
  5
8C40
330
8C10
100
AcDbEntity
  8
30
  6
CONTINUOUS
 62
     0
100
AcDbLine
 10
-71.00000000000004
 20
130.0
 30
0.0
 11
-116.0191388944171
 21
130.0
 31
0.0
  0
LINE
  5
8C41
330
8C10
100
AcDbEntity
  8
30
  6
CONTINUOUS
 62
     0
100
AcDbLine
 10
-71.00000000000004
 20
-130.0
 30
0.0
 11
-116.0191388944172
 21
-130.0
 31
0.0
  0
LINE
  5
8C42
330
8C10
100
AcDbEntity
  8
30
  6
CONTINUOUS
 62
     0
100
AcDbLine
 10
-115.519138894417
 20
128.0
 30
0.0
 11
-115.5191388944172
 21
-128.0
 31
0.0
  0
INSERT
  5
8C43
330
8C10
100
AcDbEntity
  8
30
  6
CONTINUOUS
 62
     0
100
AcDbBlockReference
  2
_OPEN
 10
-115.519138894417
 20
130.0
 30
0.0
 41
2.0
 42
2.0
 43
2.0
 50
90.0
  0
INSERT
  5
8C44
330
8C10
100
AcDbEntity
  8
30
  6
CONTINUOUS
 62
     0
100
AcDbBlockReference
  2
_OPEN
 10
-115.5191388944172
 20
-130.0
 30
0.0
 41
2.0
 42
2.0
 43
2.0
 50
270.0
  0
MTEXT
  5
8C45
330
8C10
100
AcDbEntity
  8
30
  6
CONTINUOUS
 62
     0
100
AcDbMText
 10
-119.519138894417
 20
-0.0000000000000209
 30
0.0
 40
6.0
 41
0.0
 71
     5
 72
     1
  1
\A1;260
 11
0.0000000000000001
 21
1.0
 31
0.0
1001
ACAD
1000
MTEXTBEGIN
1070
    73
1070
     1
1070
    44
1040
1.0
1070
    74
1070
     0
1000
MTEXTEND
1000
MTEXTBEGIN
1070
    73
1070
     1
1070
    44
1040
1.0
1070
    74
1070
     0
1000
MTEXTEND
  0
POINT
  5
8C46
330
8C10
100
AcDbEntity
  8
DEFPOINTS
  6
CONTINUOUS
 62
     0
100
AcDbPoint
 10
-70.00000000000007
 20
130.0
 30
0.0
  0
POINT
  5
8C47
330
8C10
100
AcDbEntity
  8
DEFPOINTS
  6
CONTINUOUS
 62
     0
100
AcDbPoint
 10
-70.00000000000007
 20
-130.0
 30
0.0
  0
POINT
  5
8C48
330
8C10
100
AcDbEntity
  8
DEFPOINTS
  6
CONTINUOUS
 62
     0
100
AcDbPoint
 10
-115.5191388944172
 20
-130.0
 30
0.0
  0
ENDBLK
  5
8C1B
330
8C10
100
AcDbEntity
  8
0
100
AcDbBlockEnd
  0
BLOCK
  5
8C26
330
8C1C
100
AcDbEntity
  8
0
100
AcDbBlockBegin
  2
*D41
 70
     1
 10
0.0
 20
0.0
 30
0.0
  3
*D41
  1

  0
LINE
  5
8C49
330
8C1C
100
AcDbEntity
  8
30
  6
CONTINUOUS
 62
     0
100
AcDbLine
 10
-54.0
 20
45.0000000000001
 30
0.0
 11
-91.89860450474336
 21
45.0000000000001
 31
0.0
  0
LINE
  5
8C4A
330
8C1C
100
AcDbEntity
  8
30
  6
CONTINUOUS
 62
     0
100
AcDbLine
 10
-54.0
 20
-45.0
 30
0.0
 11
-91.89860450474339
 21
-44.99999999999999
 31
0.0
  0
LINE
  5
8C4B
330
8C1C
100
AcDbEntity
  8
30
  6
CONTINUOUS
 62
     0
100
AcDbLine
 10
-91.39860450474335
 20
43.0000000000001
 30
0.0
 11
-91.39860450474341
 21
-42.99999999999999
 31
0.0
  0
INSERT
  5
8C4C
330
8C1C
100
AcDbEntity
  8
30
  6
CONTINUOUS
 62
     0
100
AcDbBlockReference
  2
_OPEN
 10
-91.39860450474335
 20
45.0000000000001
 30
0.0
 41
2.0
 42
2.0
 43
2.0
 50
90.0
  0
INSERT
  5
8C4D
330
8C1C
100
AcDbEntity
  8
30
  6
CONTINUOUS
 62
     0
100
AcDbBlockReference
  2
_OPEN
 10
-91.39860450474341
 20
-44.99999999999999
 30
0.0
 41
2.0
 42
2.0
 43
2.0
 50
270.0
  0
MTEXT
  5
8C4E
330
8C1C
100
AcDbEntity
  8
30
  6
CONTINUOUS
 62
     0
100
AcDbMText
 10
-95.39860450474336
 20
0.0000000000000487
 30
0.0
 40
6.0
 41
0.0
 71
     5
 72
     1
  1
\A1;90
 11
0.0000000000000001
 21
1.0
 31
0.0
1001
ACAD
1000
MTEXTBEGIN
1070
    73
1070
     1
1070
    44
1040
1.0
1070
    74
1070
     0
1000
MTEXTEND
1000
MTEXTBEGIN
1070
    73
1070
     1
1070
    44
1040
1.0
1070
    74
1070
     0
1000
MTEXTEND
  0
POINT
  5
8C4F
330
8C1C
100
AcDbEntity
  8
DEFPOINTS
  6
CONTINUOUS
 62
     0
100
AcDbPoint
 10
-53.0
 20
45.0000000000001
 30
0.0
  0
POINT
  5
8C50
330
8C1C
100
AcDbEntity
  8
DEFPOINTS
  6
CONTINUOUS
 62
     0
100
AcDbPoint
 10
-53.0
 20
-45.0
 30
0.0
  0
POINT
  5
8C51
330
8C1C
100
AcDbEntity
  8
DEFPOINTS
  6
CONTINUOUS
 62
     0
100
AcDbPoint
 10
-91.39860450474341
 20
-44.99999999999999
 30
0.0
  0
ENDBLK
  5
8C27
330
8C1C
100
AcDbEntity
  8
0
100
AcDbBlockEnd
  0
BLOCK
  5
8C32
330
8C28
100
AcDbEntity
  8
0
100
AcDbBlockBegin
  2
*D42
 70
     1
 10
0.0
 20
0.0
 30
0.0
  3
*D42
  1

  0
LINE
  5
8C52
330
8C28
100
AcDbEntity
  8
30
  6
CONTINUOUS
 62
     0
100
AcDbLine
 10
-71.00000000000004
 20
50.99999999999909
 30
0.0
 11
-104.3479123954376
 21
50.99999999999909
 31
0.0
  0
LINE
  5
8C53
330
8C28
100
AcDbEntity
  8
30
  6
CONTINUOUS
 62
     0
100
AcDbLine
 10
-71.00000000000004
 20
-51.0
 30
0.0
 11
-104.3479123954376
 21
-50.99999999999999
 31
0.0
  0
LINE
  5
8C54
330
8C28
100
AcDbEntity
  8
30
  6
CONTINUOUS
 62
     0
100
AcDbLine
 10
-103.8479123954376
 20
48.99999999999909
 30
0.0
 11
-103.8479123954376
 21
-48.99999999999999
 31
0.0
  0
INSERT
  5
8C55
330
8C28
100
AcDbEntity
  8
30
  6
CONTINUOUS
 62
     0
100
AcDbBlockReference
  2
_OPEN
 10
-103.8479123954376
 20
50.99999999999909
 30
0.0
 41
2.0
 42
2.0
 43
2.0
 50
90.0
  0
INSERT
  5
8C56
330
8C28
100
AcDbEntity
  8
30
  6
CONTINUOUS
 62
     0
100
AcDbBlockReference
  2
_OPEN
 10
-103.8479123954376
 20
-50.99999999999999
 30
0.0
 41
2.0
 42
2.0
 43
2.0
 50
270.0
  0
MTEXT
  5
8C57
330
8C28
100
AcDbEntity
  8
30
  6
CONTINUOUS
 62
     0
100
AcDbMText
 10
-107.8479123954376
 20
-0.0000000000004621
 30
0.0
 40
6.0
 41
0.0
 71
     5
 72
     1
  1
\A1;102
 11
0.0000000000000001
 21
1.0
 31
0.0
1001
ACAD
1000
MTEXTBEGIN
1070
    73
1070
     1
1070
    44
1040
1.0
1070
    74
1070
     0
1000
MTEXTEND
1000
MTEXTBEGIN
1070
    73
1070
     1
1070
    44
1040
1.0
1070
    74
1070
     0
1000
MTEXTEND
  0
POINT
  5
8C58
330
8C28
100
AcDbEntity
  8
DEFPOINTS
  6
CONTINUOUS
 62
     0
100
AcDbPoint
 10
-70.00000000000007
 20
50.99999999999909
 30
0.0
  0
POINT
  5
8C59
330
8C28
100
AcDbEntity
  8
DEFPOINTS
  6
CONTINUOUS
 62
     0
100
AcDbPoint
 10
-70.00000000000007
 20
-51.0
 30
0.0
  0
POINT
  5
8C5A
330
8C28
100
AcDbEntity
  8
DEFPOINTS
  6
CONTINUOUS
 62
     0
100
AcDbPoint
 10
-103.8479123954376
 20
-50.99999999999999
 30
0.0
  0
ENDBLK
  5
8C33
330
8C28
100
AcDbEntity
  8
0
100
AcDbBlockEnd
  0
BLOCK
  5
8C3E
330
8C34
100
AcDbEntity
  8
0
100
AcDbBlockBegin
  2
*D43
 70
     1
 10
0.0
 20
0.0
 30
0.0
  3
*D43
  1

  0
LINE
  5
8C5B
330
8C34
100
AcDbEntity
  8
30
  6
CONTINUOUS
 62
     0
100
AcDbLine
 10
-70.00000000000007
 20
-131.0
 30
0.0
 11
-70.00000000000007
 21
-154.2989500761053
 31
0.0
  0
LINE
  5
8C5C
330
8C34
100
AcDbEntity
  8
30
  6
CONTINUOUS
 62
     0
100
AcDbLine
 10
70.0
 20
-131.0
 30
0.0
 11
70.0
 21
-154.2989500761053
 31
0.0
  0
LINE
  5
8C5D
330
8C34
100
AcDbEntity
  8
30
  6
CONTINUOUS
 62
     0
100
AcDbLine
 10
-68.00000000000007
 20
-153.7989500761053
 30
0.0
 11
68.0
 21
-153.7989500761053
 31
0.0
  0
INSERT
  5
8C5E
330
8C34
100
AcDbEntity
  8
30
  6
CONTINUOUS
 62
     0
100
AcDbBlockReference
  2
_OPEN
 10
-70.00000000000007
 20
-153.7989500761053
 30
0.0
 41
2.0
 42
2.0
 43
2.0
 50
180.0
  0
INSERT
  5
8C5F
330
8C34
100
AcDbEntity
  8
30
  6
CONTINUOUS
 62
     0
100
AcDbBlockReference
  2
_OPEN
 10
70.0
 20
-153.7989500761053
 30
0.0
 41
2.0
 42
2.0
 43
2.0
  0
MTEXT
  5
8C60
330
8C34
100
AcDbEntity
  8
30
  6
CONTINUOUS
 62
     0
100
AcDbMText
 10
-0.0000000000000282
 20
-149.7989500761053
 30
0.0
 40
6.0
 41
0.0
 71
     5
 72
     1
  1
\A1;140
1001
ACAD
1000
MTEXTBEGIN
1070
    73
1070
     1
1070
    44
1040
1.0
1070
    74
1070
     0
1000
MTEXTEND
1000
MTEXTBEGIN
1070
    73
1070
     1
1070
    44
1040
1.0
1070
    74
1070
     0
1000
MTEXTEND
  0
POINT
  5
8C61
330
8C34
100
AcDbEntity
  8
DEFPOINTS
  6
CONTINUOUS
 62
     0
100
AcDbPoint
 10
-70.00000000000007
 20
-130.0
 30
0.0
  0
POINT
  5
8C62
330
8C34
100
AcDbEntity
  8
DEFPOINTS
  6
CONTINUOUS
 62
     0
100
AcDbPoint
 10
70.0
 20
-130.0
 30
0.0
  0
POINT
  5
8C63
330
8C34
100
AcDbEntity
  8
DEFPOINTS
  6
CONTINUOUS
 62
     0
100
AcDbPoint
 10
70.0
 20
-153.7989500761053
 30
0.0
  0
ENDBLK
  5
8C3F
330
8C34
100
AcDbEntity
  8
0
100
AcDbBlockEnd
  0
BLOCK
  5
8E2C
330
8E23
100
AcDbEntity
  8
0
100
AcDbBlockBegin
  2
*D44
 70
     1
 10
0.0
 20
0.0
 30
0.0
  3
*D44
  1

  0
LINE
  5
9136
330
8E23
100
AcDbEntity
  8
30
  6
CONTINUOUS
 62
     0
100
AcDbLine
 10
-107.7206689410614
 20
-513.1455345229753
 30
0.0
 11
-90.72066894106148
 21
-513.1455345229753
 31
0.0
  0
LINE
  5
9137
330
8E23
100
AcDbEntity
  8
30
  6
CONTINUOUS
 62
     0
100
AcDbLine
 10
-90.72066894106148
 20
-513.1455345229753
 30
0.0
 11
-60.19229002851045
 21
-487.0074718408156
 31
0.0
  0
MTEXT
  5
9138
330
8E23
100
AcDbEntity
  8
30
  6
CONTINUOUS
 62
     0
100
AcDbMText
 10
-99.72066894106152
 20
-509.1455345229754
 30
0.0
 40
6.0
 41
0.0
 71
     5
 72
     1
  1
\A1;\U+220536
  0
INSERT
  5
9139
330
8E23
100
AcDbEntity
  8
30
  6
CONTINUOUS
 62
     0
100
AcDbBlockReference
  2
_OPEN
 10
-58.67306102565942
 20
-485.7067246567341
 30
0.0
 41
2.0
 42
2.0
 43
2.0
 50
40.56977503654605
  0
LINE
  5
913A
330
8E23
100
AcDbEntity
  8
30
  6
CONTINUOUS
 62
     0
100
AcDbLine
 10
-45.08999999999978
 20
-473.9999999999999
 30
0.0
 11
-44.90999999999977
 21
-473.9999999999999
 31
0.0
  0
LINE
  5
913B
330
8E23
100
AcDbEntity
  8
30
  6
CONTINUOUS
 62
     0
100
AcDbLine
 10
-44.99999999999977
 20
-474.0899999999999
 30
0.0
 11
-44.99999999999983
 21
-473.9099999999999
 31
0.0
  0
POINT
  5
913C
330
8E23
100
AcDbEntity
  8
DEFPOINTS
  6
CONTINUOUS
 62
     0
100
AcDbPoint
 10
-58.67306102565942
 20
-485.7067246567341
 30
0.0
  0
POINT
  5
913D
330
8E23
100
AcDbEntity
  8
DEFPOINTS
  6
CONTINUOUS
 62
     0
100
AcDbPoint
 10
-31.32693897434006
 20
-462.2932753432656
 30
0.0
  0
ENDBLK
  5
8E2D
330
8E23
100
AcDbEntity
  8
0
100
AcDbBlockEnd
  0
BLOCK
  5
8E38
330
8E2F
100
AcDbEntity
  8
0
100
AcDbBlockBegin
  2
*D45
 70
     1
 10
0.0
 20
0.0
 30
0.0
  3
*D45
  1

  0
LINE
  5
8EE0
330
8E2F
100
AcDbEntity
  8
12
 62
     0
100
AcDbLine
 10
-42.74744083389131
 20
-214.0023890902475
 30
0.0
 11
-31.74744083389117
 21
-214.0023890902475
 31
0.0
  0
LINE
  5
8EE1
330
8E2F
100
AcDbEntity
  8
12
 62
     0
100
AcDbLine
 10
-31.74744083389117
 20
-214.0023890902475
 30
0.0
 11
-23.65365071662137
 21
-248.1349110980331
 31
0.0
  0
MTEXT
  5
8EE2
330
8E2F
100
AcDbEntity
  8
12
 62
     0
100
AcDbMText
 10
-37.74744083389127
 20
-210.0023890902475
 30
0.0
 40
6.0
 41
0.0
 71
     5
 72
     1
  1
\A1;M6
1001
ACAD
1000
MTEXTBEGIN
1070
    73
1070
     1
1070
    44
1040
1.0
1070
    74
1070
     0
1000
MTEXTEND
1000
MTEXTBEGIN
1070
    73
1070
     1
1070
    44
1040
1.0
1070
    74
1070
     0
1000
MTEXTEND
  0
INSERT
  5
8EE3
330
8E2F
100
AcDbEntity
  8
12
 62
     0
100
AcDbBlockReference
  2
_OPEN
 10
-23.19219042997282
 20
-250.0809466588199
 30
0.0
 41
2.0
 42
2.0
 43
2.0
 50
283.3400621368918
  0
LINE
  5
8EE4
330
8E2F
100
AcDbEntity
  8
12
 62
     0
100
AcDbLine
 10
-22.58999999999999
 20
-252.9999999999999
 30
0.0
 11
-22.40999999999999
 21
-252.9999999999998
 31
0.0
  0
LINE
  5
8EE5
330
8E2F
100
AcDbEntity
  8
12
 62
     0
100
AcDbLine
 10
-22.49999999999999
 20
-253.0899999999999
 30
0.0
 11
-22.5
 21
-252.9099999999997
 31
0.0
  0
POINT
  5
8EE6
330
8E2F
100
AcDbEntity
  8
DEFPOINTS
 62
     0
100
AcDbPoint
 10
-23.19219042997282
 20
-250.0809466588199
 30
0.0
  0
POINT
  5
8EE7
330
8E2F
100
AcDbEntity
  8
DEFPOINTS
 62
     0
100
AcDbPoint
 10
-21.80780957002717
 20
-255.9190533411799
 30
0.0
  0
ENDBLK
  5
8E39
330
8E2F
100
AcDbEntity
  8
0
100
AcDbBlockEnd
  0
BLOCK
  5
8E4D
330
8E43
100
AcDbEntity
  8
0
100
AcDbBlockBegin
  2
*D46
 70
     1
 10
0.0
 20
0.0
 30
0.0
  3
*D46
  1

  0
LINE
  5
8E6E
330
8E43
100
AcDbEntity
  8
30
  6
CONTINUOUS
 62
     0
100
AcDbLine
 10
64.00000000000045
 20
-246.0
 30
0.0
 11
120.5739101136593
 21
-246.0
 31
0.0
  0
LINE
  5
8E6F
330
8E43
100
AcDbEntity
  8
30
  6
CONTINUOUS
 62
     0
100
AcDbLine
 10
64.00000000000047
 20
-474.0
 30
0.0
 11
120.5739101136593
 21
-474.0
 31
0.0
  0
LINE
  5
8E70
330
8E43
100
AcDbEntity
  8
30
  6
CONTINUOUS
 62
     0
100
AcDbLine
 10
120.0739101136597
 20
-248.0
 30
0.0
 11
120.0739101136593
 21
-472.0
 31
0.0
  0
INSERT
  5
8E71
330
8E43
100
AcDbEntity
  8
30
  6
CONTINUOUS
 62
     0
100
AcDbBlockReference
  2
_OPEN
 10
120.0739101136597
 20
-246.0
 30
0.0
 41
2.0
 42
2.0
 43
2.0
 50
90.0
  0
INSERT
  5
8E72
330
8E43
100
AcDbEntity
  8
30
  6
CONTINUOUS
 62
     0
100
AcDbBlockReference
  2
_OPEN
 10
120.0739101136593
 20
-474.0
 30
0.0
 41
2.0
 42
2.0
 43
2.0
 50
270.0
  0
MTEXT
  5
8E73
330
8E43
100
AcDbEntity
  8
30
  6
CONTINUOUS
 62
     0
100
AcDbMText
 10
116.0739101136597
 20
-360.0
 30
0.0
 40
6.0
 41
0.0
 71
     5
 72
     1
  1
\A1;228
 11
0.0000000000000001
 21
1.0
 31
0.0
1001
ACAD
1000
MTEXTBEGIN
1070
    73
1070
     1
1070
    44
1040
1.0
1070
    74
1070
     0
1000
MTEXTEND
1000
MTEXTBEGIN
1070
    73
1070
     1
1070
    44
1040
1.0
1070
    74
1070
     0
1000
MTEXTEND
  0
POINT
  5
8E74
330
8E43
100
AcDbEntity
  8
DEFPOINTS
  6
CONTINUOUS
 62
     0
100
AcDbPoint
 10
63.00000000000046
 20
-246.0
 30
0.0
  0
POINT
  5
8E75
330
8E43
100
AcDbEntity
  8
DEFPOINTS
  6
CONTINUOUS
 62
     0
100
AcDbPoint
 10
63.00000000000046
 20
-474.0
 30
0.0
  0
POINT
  5
8E76
330
8E43
100
AcDbEntity
  8
DEFPOINTS
  6
CONTINUOUS
 62
     0
100
AcDbPoint
 10
120.0739101136593
 20
-474.0
 30
0.0
  0
ENDBLK
  5
8E4E
330
8E43
100
AcDbEntity
  8
0
100
AcDbBlockEnd
  0
BLOCK
  5
8E5A
330
8E50
100
AcDbEntity
  8
0
100
AcDbBlockBegin
  2
*D47
 70
     1
 10
0.0
 20
0.0
 30
0.0
  3
*D47
  1

  0
LINE
  5
8E51
330
8E50
100
AcDbEntity
  8
30
  6
CONTINUOUS
 62
     0
100
AcDbLine
 10
30.5
 20
-253.0
 30
0.0
 11
99.82114719794124
 21
-253.0
 31
0.0
  0
LINE
  5
8E52
330
8E50
100
AcDbEntity
  8
30
  6
CONTINUOUS
 62
     0
100
AcDbLine
 10
30.5
 20
-467.0
 30
0.0
 11
99.82114719794118
 21
-467.0
 31
0.0
  0
LINE
  5
8E53
330
8E50
100
AcDbEntity
  8
30
  6
CONTINUOUS
 62
     0
100
AcDbLine
 10
99.32114719794121
 20
-255.0
 30
0.0
 11
99.32114719794114
 21
-465.0
 31
0.0
  0
INSERT
  5
8E54
330
8E50
100
AcDbEntity
  8
30
  6
CONTINUOUS
 62
     0
100
AcDbBlockReference
  2
_OPEN
 10
99.32114719794121
 20
-253.0
 30
0.0
 41
2.0
 42
2.0
 43
2.0
 50
90.0
  0
INSERT
  5
8E55
330
8E50
100
AcDbEntity
  8
30
  6
CONTINUOUS
 62
     0
100
AcDbBlockReference
  2
_OPEN
 10
99.32114719794114
 20
-467.0
 30
0.0
 41
2.0
 42
2.0
 43
2.0
 50
270.0
  0
MTEXT
  5
8E56
330
8E50
100
AcDbEntity
  8
30
  6
CONTINUOUS
 62
     0
100
AcDbMText
 10
95.32114719794122
 20
-360.0
 30
0.0
 40
6.0
 41
0.0
 71
     5
 72
     1
  1
\A1;214
 11
0.0000000000000001
 21
1.0
 31
0.0
1001
ACAD
1000
MTEXTBEGIN
1070
    73
1070
     1
1070
    44
1040
1.0
1070
    74
1070
     0
1000
MTEXTEND
1000
MTEXTBEGIN
1070
    73
1070
     1
1070
    44
1040
1.0
1070
    74
1070
     0
1000
MTEXTEND
  0
POINT
  5
8E57
330
8E50
100
AcDbEntity
  8
DEFPOINTS
  6
CONTINUOUS
 62
     0
100
AcDbPoint
 10
29.5
 20
-253.0
 30
0.0
  0
POINT
  5
8E58
330
8E50
100
AcDbEntity
  8
DEFPOINTS
  6
CONTINUOUS
 62
     0
100
AcDbPoint
 10
29.5
 20
-467.0
 30
0.0
  0
POINT
  5
8E59
330
8E50
100
AcDbEntity
  8
DEFPOINTS
  6
CONTINUOUS
 62
     0
100
AcDbPoint
 10
99.32114719794114
 20
-467.0
 30
0.0
  0
ENDBLK
  5
8E5B
330
8E50
100
AcDbEntity
  8
0
100
AcDbBlockEnd
  0
BLOCK
  5
8E82
330
8E78
100
AcDbEntity
  8
0
100
AcDbBlockBegin
  2
*D48
 70
     1
 10
0.0
 20
0.0
 30
0.0
  3
*D48
  1

  0
LINE
  5
8EA4
330
8E78
100
AcDbEntity
  8
30
  6
CONTINUOUS
 62
     0
100
AcDbLine
 10
-45.00003051758002
 20
418.5
 30
0.0
 11
-45.00003051758002
 21
493.0635362125029
 31
0.0
  0
LINE
  5
8EA5
330
8E78
100
AcDbEntity
  8
30
  6
CONTINUOUS
 62
     0
100
AcDbLine
 10
-0.0000305175800576
 20
458.4999999999998
 30
0.0
 11
-0.0000305175800555
 21
493.0635362125029
 31
0.0
  0
LINE
  5
8EA6
330
8E78
100
AcDbEntity
  8
30
  6
CONTINUOUS
 62
     0
100
AcDbLine
 10
-43.00003051758002
 20
492.5635362125029
 30
0.0
 11
-2.000030517580055
 21
492.5635362125029
 31
0.0
  0
INSERT
  5
8EA7
330
8E78
100
AcDbEntity
  8
30
  6
CONTINUOUS
 62
     0
100
AcDbBlockReference
  2
_OPEN
 10
-45.00003051758002
 20
492.5635362125029
 30
0.0
 41
2.0
 42
2.0
 43
2.0
 50
180.0
  0
INSERT
  5
8EA8
330
8E78
100
AcDbEntity
  8
30
  6
CONTINUOUS
 62
     0
100
AcDbBlockReference
  2
_OPEN
 10
-0.0000305175800556
 20
492.5635362125029
 30
0.0
 41
2.0
 42
2.0
 43
2.0
  0
MTEXT
  5
8EA9
330
8E78
100
AcDbEntity
  8
30
  6
CONTINUOUS
 62
     0
100
AcDbMText
 10
-22.50003051758003
 20
496.5635362125029
 30
0.0
 40
6.0
 41
0.0
 71
     5
 72
     1
  1
\A1;45
1001
ACAD
1000
MTEXTBEGIN
1070
    73
1070
     1
1070
    44
1040
1.0
1070
    74
1070
     0
1000
MTEXTEND
1000
MTEXTBEGIN
1070
    73
1070
     1
1070
    44
1040
1.0
1070
    74
1070
     0
1000
MTEXTEND
  0
POINT
  5
8EAA
330
8E78
100
AcDbEntity
  8
DEFPOINTS
  6
CONTINUOUS
 62
     0
100
AcDbPoint
 10
-45.00003051758002
 20
417.4999999999998
 30
0.0
  0
POINT
  5
8EAB
330
8E78
100
AcDbEntity
  8
DEFPOINTS
  6
CONTINUOUS
 62
     0
100
AcDbPoint
 10
-0.0000305175800577
 20
457.5000000000001
 30
0.0
  0
POINT
  5
8EAC
330
8E78
100
AcDbEntity
  8
DEFPOINTS
  6
CONTINUOUS
 62
     0
100
AcDbPoint
 10
-0.0000305175800556
 20
492.5635362125029
 30
0.0
  0
ENDBLK
  5
8E83
330
8E78
100
AcDbEntity
  8
0
100
AcDbBlockEnd
  0
BLOCK
  5
8E8F
330
8E85
100
AcDbEntity
  8
0
100
AcDbBlockBegin
  2
*D49
 70
     1
 10
0.0
 20
0.0
 30
0.0
  3
*D49
  1

  0
LINE
  5
913E
330
8E85
100
AcDbEntity
  8
30
  6
CONTINUOUS
 62
     0
100
AcDbLine
 10
-0.0000305175800576
 20
458.5000000000001
 30
0.0
 11
-0.0000305175800555
 21
493.0635362125029
 31
0.0
  0
LINE
  5
913F
330
8E85
100
AcDbEntity
  8
30
  6
CONTINUOUS
 62
     0
100
AcDbLine
 10
44.99996948241994
 20
418.4999999999998
 30
0.0
 11
44.99996948241995
 21
493.0635362125029
 31
0.0
  0
LINE
  5
9140
330
8E85
100
AcDbEntity
  8
30
  6
CONTINUOUS
 62
     0
100
AcDbLine
 10
1.999969482419944
 20
492.5635362125029
 30
0.0
 11
42.99996948241995
 21
492.5635362125029
 31
0.0
  0
INSERT
  5
9141
330
8E85
100
AcDbEntity
  8
30
  6
CONTINUOUS
 62
     0
100
AcDbBlockReference
  2
_OPEN
 10
-0.0000305175800556
 20
492.5635362125029
 30
0.0
 41
2.0
 42
2.0
 43
2.0
 50
180.0
  0
INSERT
  5
9142
330
8E85
100
AcDbEntity
  8
30
  6
CONTINUOUS
 62
     0
100
AcDbBlockReference
  2
_OPEN
 10
44.99996948241995
 20
492.5635362125029
 30
0.0
 41
2.0
 42
2.0
 43
2.0
  0
MTEXT
  5
9143
330
8E85
100
AcDbEntity
  8
30
  6
CONTINUOUS
 62
     0
100
AcDbMText
 10
22.49996948241994
 20
496.5635362125029
 30
0.0
 40
6.0
 41
0.0
 71
     5
 72
     1
  1
\A1;45
  0
POINT
  5
9144
330
8E85
100
AcDbEntity
  8
DEFPOINTS
  6
CONTINUOUS
 62
     0
100
AcDbPoint
 10
-0.0000305175800577
 20
457.5000000000001
 30
0.0
  0
POINT
  5
9145
330
8E85
100
AcDbEntity
  8
DEFPOINTS
  6
CONTINUOUS
 62
     0
100
AcDbPoint
 10
44.99996948241994
 20
417.4999999999998
 30
0.0
  0
POINT
  5
9146
330
8E85
100
AcDbEntity
  8
DEFPOINTS
  6
CONTINUOUS
 62
     0
100
AcDbPoint
 10
44.99996948241995
 20
492.5635362125029
 30
0.0
  0
ENDBLK
  5
8E90
330
8E85
100
AcDbEntity
  8
0
100
AcDbBlockEnd
  0
ENDSEC
  0
SECTION
  2
ENTITIES
  0
LINE
  5
B4
330
1E
100
AcDbEntity
  8
16
100
AcDbLine
 10
0.0
 20
-101.8246001220914
 30
0.0
 11
0.0
 21
105.6073578546832
 31
0.0
  0
LINE
  5
B5
330
1E
100
AcDbEntity
  8
16
100
AcDbLine
 10
90.16482132696999
 20
-0.0000000000000027
 30
0.0
 11
-83.90588178115756
 21
-0.0000000000000027
 31
0.0
  0
MTEXT
  5
BF3
330
1E
100
AcDbEntity
  8
24
  6
CONTINUOUS
100
AcDbMText
 10
140.9820964648283
 20
176.3476821548369
 30
0.0
 40
3.0
 41
0.0
 71
     1
 72
     1
  1
\A1;
1001
ACAD
1000
MTEXTBEGIN
1070
    73
1070
     1
1070
    44
1040
1.0
1070
    74
1070
     0
1000
MTEXTEND
1000
MTEXTBEGIN
1070
    73
1070
     1
1070
    44
1040
1.0
1070
    74
1070
     0
1000
MTEXTEND
  0
LINE
  5
1C9B
330
1E
100
AcDbEntity
  8
16
100
AcDbLine
 10
402.2681462467813
 20
0.0000000000001137
 30
0.0
 11
218.4871519556748
 21
0.0000000000001137
 31
0.0
  0
MTEXT
  5
5C78
330
1E
100
AcDbEntity
  8
30
  6
CONTINUOUS
100
AcDbMText
 10
162.3297648581359
 20
88.99793930010117
 30
0.0
 40
4.0
 41
0.0
 71
     9
 72
     1
  1

1001
ACAD
1000
MTEXTBEGIN
1070
    73
1070
     1
1070
    44
1040
1.0
1070
    74
1070
     0
1000
MTEXTEND
1000
MTEXTBEGIN
1070
    73
1070
     1
1070
    44
1040
1.0
1070
    74
1070
     0
1000
MTEXTEND
  0
MTEXT
  5
6200
330
1E
100
AcDbEntity
  8
30
  6
CONTINUOUS
100
AcDbMText
 10
160.6290066227675
 20
91.2377397662035
 30
0.0
 40
4.0
 41
0.0
 71
     9
 72
     1
  1

1001
ACAD
1000
MTEXTBEGIN
1070
    73
1070
     1
1070
    44
1040
1.0
1070
    74
1070
     0
1000
MTEXTEND
1000
MTEXTBEGIN
1070
    73
1070
     1
1070
    44
1040
1.0
1070
    74
1070
     0
1000
MTEXTEND
  0
LINE
  5
67E2
330
1E
100
AcDbEntity
  8
16
100
AcDbLine
 10
0.0
 20
-506.6279096442683
 30
0.0
 11
0.0
 21
-207.9249011857708
 31
0.0
  0
LINE
  5
67E5
330
1E
100
AcDbEntity
  8
16
100
AcDbLine
 10
87.06681156507483
 20
-360.0
 30
0.0
 11
-118.1067106947925
 21
-360.0
 31
0.0
  0
LINE
  5
7868
330
1E
100
AcDbEntity
  8
16
100
AcDbLine
 10
-0.0000610351601154
 20
175.7950414536304
 30
0.0
 11
0.0
 21
399.3504142871282
 31
0.0
  0
MTEXT
  5
7CA7
330
1E
100
AcDbEntity
  8
30
  6
CONTINUOUS
100
AcDbMText
 10
210.8686476596813
 20
139.5216160708496
 30
0.0
 40
4.0
 41
0.0
 71
     9
 72
     1
  1
\A1;
1001
ACAD
1000
MTEXTBEGIN
1070
    73
1070
     1
1070
    44
1040
1.0
1070
    74
1070
     0
1000
MTEXTEND
1000
MTEXTBEGIN
1070
    73
1070
     1
1070
    44
1040
1.0
1070
    74
1070
     0
1000
MTEXTEND
  0
MTEXT
  5
7CA9
330
1E
100
AcDbEntity
  8
30
  6
CONTINUOUS
100
AcDbMText
 10
217.6088870093234
 20
136.808717989596
 30
0.0
 40
4.0
 41
0.0
 71
     9
 72
     1
  1
\A1;
1001
ACAD
1000
MTEXTBEGIN
1070
    73
1070
     1
1070
    44
1040
1.0
1070
    74
1070
     0
1000
MTEXTEND
1000
MTEXTBEGIN
1070
    73
1070
     1
1070
    44
1040
1.0
1070
    74
1070
     0
1000
MTEXTEND
  0
MTEXT
  5
7E8C
330
1E
100
AcDbEntity
  8
19
  6
CONTINUOUS
100
AcDbMText
 10
267.7398605821716
 20
343.2119150700267
 30
0.0
 40
5.0
 41
94.44410000000001
 71
     1
 72
     5
  1
ZE400-NF 3P RC\PZS400-NF 3P RC\PZS400-GF 3P RC
  7
STANDARD1
1001
ACAD
1000
MTEXTBEGIN
1070
    73
1070
     1
1070
    44
1040
1.0
1070
    74
1070
     0
1000
MTEXTEND
1000
MTEXTBEGIN
1070
    73
1070
     1
1070
    44
1040
1.0
1070
    74
1070
     0
1000
MTEXTEND
  0
LINE
  5
8726
330
1E
100
AcDbEntity
  8
18
100
AcDbLine
 10
360.3776491012282
 20
150.0
 30
0.0
 11
360.3776491012282
 21
-150.0
 31
0.0
  0
LINE
  5
8728
330
1E
100
AcDbEntity
  8
10
100
AcDbLine
 10
356.3776491012282
 20
130.0
 30
0.0
 11
356.3776491012282
 21
-130.0
 31
0.0
  0
LINE
  5
8729
330
1E
100
AcDbEntity
  8
10
100
AcDbLine
 10
259.3776491012282
 20
-50.99999999999988
 30
0.0
 11
259.3776491012282
 21
-130.0
 31
0.0
  0
LINE
  5
872A
330
1E
100
AcDbEntity
  8
21
  6
CENTER
100
AcDbLine
 10
348.3776491012283
 20
-113.9999999999991
 30
0.0
 11
474.3776491012273
 21
-114.0000000000007
 31
0.0
  0
LINE
  5
872C
330
1E
100
AcDbEntity
  8
21
100
AcDbLine
 10
430.3776491012275
 20
-99.00000000000069
 30
0.0
 11
466.3776491012273
 21
-99.00000000000069
 31
0.0
  0
LINE
  5
872D
330
1E
100
AcDbEntity
  8
21
100
AcDbLine
 10
430.3776491012275
 20
-129.0000000000006
 30
0.0
 11
466.3776491012273
 21
-129.0000000000006
 31
0.0
  0
LINE
  5
872E
330
1E
100
AcDbEntity
  8
10
100
AcDbLine
 10
259.3776491012282
 20
-130.0
 30
0.0
 11
356.3776491012282
 21
-130.0
 31
0.0
  0
LINE
  5
872F
330
1E
100
AcDbEntity
  8
18
100
AcDbLine
 10
356.3776491012282
 20
-150.0
 30
0.0
 11
360.3776491012282
 21
-150.0
 31
0.0
  0
LINE
  5
8730
330
1E
100
AcDbEntity
  8
21
100
AcDbLine
 10
356.3776491012277
 20
-101.999999999999
 30
0.0
 11
386.3776491012277
 21
-101.999999999999
 31
0.0
  0
LINE
  5
8731
330
1E
100
AcDbEntity
  8
21
100
AcDbLine
 10
356.3776491012277
 20
-125.9999999999992
 30
0.0
 11
386.3776491012277
 21
-125.9999999999992
 31
0.0
  0
LINE
  5
8732
330
1E
100
AcDbEntity
  8
21
100
AcDbLine
 10
356.3776491012277
 20
-125.9999999999992
 30
0.0
 11
356.3776491012277
 21
-101.999999999999
 31
0.0
  0
LINE
  5
8734
330
1E
100
AcDbEntity
  8
21
100
AcDbLine
 10
393.8776491012275
 20
-98.99999999999909
 30
0.0
 11
426.3776491012275
 21
-98.99999999999909
 31
0.0
  0
LINE
  5
8735
330
1E
100
AcDbEntity
  8
21
100
AcDbLine
 10
393.8776491012275
 20
-128.9999999999992
 30
0.0
 11
426.3776491012275
 21
-128.9999999999992
 31
0.0
  0
LINE
  5
8736
330
1E
100
AcDbEntity
  8
21
100
AcDbLine
 10
393.8776491012277
 20
-98.99999999999909
 30
0.0
 11
426.3776491012275
 21
-98.99999999999909
 31
0.0
  0
LINE
  5
8737
330
1E
100
AcDbEntity
  8
21
100
AcDbLine
 10
393.8776491012277
 20
-128.9999999999992
 30
0.0
 11
426.3776491012275
 21
-128.9999999999992
 31
0.0
  0
CIRCLE
  5
8738
330
1E
100
AcDbEntity
  8
17
100
AcDbCircle
 10
411.3776491012273
 20
-113.9999999999991
 30
0.0
 40
6.5
  0
LINE
  5
8739
330
1E
100
AcDbEntity
  8
21
100
AcDbLine
 10
386.3776491012277
 20
-125.9999999999992
 30
0.0
 11
386.3776491012277
 21
-101.999999999999
 31
0.0
  0
LINE
  5
873A
330
1E
100
AcDbEntity
  8
21
100
AcDbLine
 10
386.3776491012277
 20
-122.499999999999
 30
0.0
 11
387.3776491012277
 21
-122.499999999999
 31
0.0
  0
ARC
  5
873B
330
1E
100
AcDbEntity
  8
21
100
AcDbCircle
 10
393.8776491012277
 20
-122.499999999999
 30
0.0
 40
6.5
100
AcDbArc
 50
180.0
 51
270.0
  0
LINE
  5
873C
330
1E
100
AcDbEntity
  8
21
100
AcDbLine
 10
386.3776491012277
 20
-105.499999999999
 30
0.0
 11
387.3776491012277
 21
-105.499999999999
 31
0.0
  0
ARC
  5
873D
330
1E
100
AcDbEntity
  8
21
100
AcDbCircle
 10
393.8776491012277
 20
-105.499999999999
 30
0.0
 40
6.5
100
AcDbArc
 50
90.0
 51
180.0
  0
LINE
  5
873E
330
1E
100
AcDbEntity
  8
17
100
AcDbLine
 10
411.3776491012273
 20
-103.499999999999
 30
0.0
 11
411.3776491012273
 21
-124.4999999999992
 31
0.0
  0
LINE
  5
873F
330
1E
100
AcDbEntity
  8
21
100
AcDbLine
 10
426.3776491012275
 20
-128.9999999999992
 30
0.0
 11
426.3776491012275
 21
-98.99999999999909
 31
0.0
  0
LINE
  5
8740
330
1E
100
AcDbEntity
  8
17
100
AcDbLine
 10
451.3776491012275
 20
-103.5000000000005
 30
0.0
 11
451.3776491012275
 21
-124.5000000000006
 31
0.0
  0
LINE
  5
8741
330
1E
100
AcDbEntity
  8
21
100
AcDbLine
 10
466.3776491012273
 20
-129.0000000000006
 30
0.0
 11
466.3776491012273
 21
-99.00000000000069
 31
0.0
  0
CIRCLE
  5
8742
330
1E
100
AcDbEntity
  8
17
100
AcDbCircle
 10
451.3776491012275
 20
-114.0000000000005
 30
0.0
 40
6.5
  0
LINE
  5
8743
330
1E
100
AcDbEntity
  8
21
  6
CENTER
100
AcDbLine
 10
348.3776491012294
 20
114.0000000000009
 30
0.0
 11
474.3776491012273
 21
114.0000000000001
 31
0.0
  0
LINE
  5
8744
330
1E
100
AcDbEntity
  8
21
100
AcDbLine
 10
430.3776491012275
 20
118.0000000000001
 30
0.0
 11
466.3776491012273
 21
118.0000000000001
 31
0.0
  0
LINE
  5
8745
330
1E
100
AcDbEntity
  8
21
100
AcDbLine
 10
430.3776491012275
 20
110.0
 30
0.0
 11
466.3776491012273
 21
110.0
 31
0.0
  0
LINE
  5
8746
330
1E
100
AcDbEntity
  8
17
100
AcDbLine
 10
411.3776491012273
 20
126.0000000000001
 30
0.0
 11
411.3776491012273
 21
102.0
 31
0.0
  0
LINE
  5
8747
330
1E
100
AcDbEntity
  8
21
100
AcDbLine
 10
426.3776491012275
 20
110.0
 30
0.0
 11
426.3776491012275
 21
118.0000000000001
 31
0.0
  0
LINE
  5
8748
330
1E
100
AcDbEntity
  8
21
100
AcDbLine
 10
386.3776491012277
 20
102.0000000000009
 30
0.0
 11
386.3776491012277
 21
126.0000000000009
 31
0.0
  0
LINE
  5
8749
330
1E
100
AcDbEntity
  8
21
100
AcDbLine
 10
356.3776491012277
 20
102.0000000000009
 30
0.0
 11
356.3776491012277
 21
126.0000000000009
 31
0.0
  0
LINE
  5
874A
330
1E
100
AcDbEntity
  8
10
100
AcDbLine
 10
259.3776491012282
 20
130.0
 30
0.0
 11
259.3776491012282
 21
51.00000000000012
 31
0.0
  0
LINE
  5
874C
330
1E
100
AcDbEntity
  8
10
100
AcDbLine
 10
249.3776491012281
 20
45.0000000000001
 30
0.0
 11
249.3776491012281
 21
-44.99999999999988
 31
0.0
  0
LINE
  5
874D
330
1E
100
AcDbEntity
  8
10
100
AcDbLine
 10
245.3776491012281
 20
45.0000000000001
 30
0.0
 11
245.3776491012281
 21
-44.99999999999988
 31
0.0
  0
LINE
  5
874E
330
1E
100
AcDbEntity
  8
10
100
AcDbLine
 10
245.3776491012281
 20
17.82776060571437
 30
0.0
 11
223.9827070350031
 21
32.8086603200453
 31
0.0
  0
LINE
  5
874F
330
1E
100
AcDbEntity
  8
10
100
AcDbLine
 10
217.0997897987906
 20
22.97883578857738
 30
0.0
 11
223.9827070350031
 21
32.8086603200453
 31
0.0
  0
LINE
  5
8750
330
1E
100
AcDbEntity
  8
10
100
AcDbLine
 10
253.3776491012281
 20
51.00000000000012
 30
0.0
 11
253.3776491012281
 21
-50.99999999999988
 31
0.0
  0
LINE
  5
8751
330
1E
100
AcDbEntity
  8
10
100
AcDbLine
 10
245.3776491012281
 20
-44.99999999999988
 30
0.0
 11
253.3776491012281
 21
-44.99999999999988
 31
0.0
  0
LINE
  5
8752
330
1E
100
AcDbEntity
  8
10
100
AcDbLine
 10
245.3776491012281
 20
3.178465540576893
 30
0.0
 11
217.0997897987906
 21
22.97883578857738
 31
0.0
  0
ARC
  5
8753
330
1E
100
AcDbEntity
  8
30
100
AcDbCircle
 10
260.3776491012282
 20
0.0000000000001137
 30
0.0
 40
49.0
100
AcDbArc
 50
152.0334613153785
 51
180.0
  0
LINE
  5
8754
330
1E
100
AcDbEntity
  8
10
100
AcDbLine
 10
253.3776491012281
 20
-50.99999999999988
 30
0.0
 11
259.3776491012282
 21
-50.99999999999988
 31
0.0
  0
LINE
  5
8755
330
1E
100
AcDbEntity
  8
10
100
AcDbLine
 10
245.3776491012281
 20
45.0000000000001
 30
0.0
 11
253.3776491012281
 21
45.0000000000001
 31
0.0
  0
LINE
  5
8756
330
1E
100
AcDbEntity
  8
10
100
AcDbLine
 10
253.3776491012281
 20
51.00000000000012
 30
0.0
 11
259.3776491012282
 21
51.00000000000012
 31
0.0
  0
LINE
  5
8757
330
1E
100
AcDbEntity
  8
21
100
AcDbLine
 10
356.3776491012277
 20
102.0000000000009
 30
0.0
 11
386.3776491012277
 21
102.0000000000009
 31
0.0
  0
LINE
  5
8758
330
1E
100
AcDbEntity
  8
21
100
AcDbLine
 10
387.3776491012277
 20
110.0
 30
0.0
 11
426.3776491012275
 21
110.0
 31
0.0
  0
LINE
  5
8759
330
1E
100
AcDbEntity
  8
21
100
AcDbLine
 10
387.3776491012277
 20
105.5000000000009
 30
0.0
 11
387.3776491012277
 21
110.0
 31
0.0
  0
LINE
  5
875A
330
1E
100
AcDbEntity
  8
21
100
AcDbLine
 10
386.3776491012277
 20
105.5000000000009
 30
0.0
 11
387.3776491012277
 21
105.5000000000009
 31
0.0
  0
LINE
  5
875B
330
1E
100
AcDbEntity
  8
10
100
AcDbLine
 10
356.3776491012282
 20
130.0
 30
0.0
 11
259.3776491012282
 21
130.0
 31
0.0
  0
LINE
  5
875C
330
1E
100
AcDbEntity
  8
21
100
AcDbLine
 10
356.3776491012277
 20
126.0000000000009
 30
0.0
 11
386.3776491012277
 21
126.0000000000009
 31
0.0
  0
LINE
  5
875D
330
1E
100
AcDbEntity
  8
18
100
AcDbLine
 10
356.3776491012282
 20
150.0
 30
0.0
 11
360.3776491012282
 21
150.0
 31
0.0
  0
LINE
  5
875E
330
1E
100
AcDbEntity
  8
21
100
AcDbLine
 10
387.3776491012277
 20
118.0000000000001
 30
0.0
 11
426.3776491012275
 21
118.0000000000001
 31
0.0
  0
LINE
  5
875F
330
1E
100
AcDbEntity
  8
21
100
AcDbLine
 10
387.3776491012277
 20
122.5000000000009
 30
0.0
 11
387.3776491012277
 21
118.0000000000001
 31
0.0
  0
LINE
  5
8760
330
1E
100
AcDbEntity
  8
21
100
AcDbLine
 10
386.3776491012277
 20
122.5000000000009
 30
0.0
 11
387.3776491012277
 21
122.5000000000009
 31
0.0
  0
LINE
  5
8761
330
1E
100
AcDbEntity
  8
17
100
AcDbLine
 10
451.3776491012275
 20
126.0000000000001
 30
0.0
 11
451.3776491012275
 21
102.0
 31
0.0
  0
LINE
  5
8762
330
1E
100
AcDbEntity
  8
21
100
AcDbLine
 10
466.3776491012273
 20
110.0
 30
0.0
 11
466.3776491012273
 21
118.0000000000001
 31
0.0
  0
LINE
  5
8763
330
1E
100
AcDbEntity
  8
18
100
AcDbLine
 10
356.3776491012282
 20
150.0
 30
0.0
 11
356.3776491012282
 21
-150.0
 31
0.0
  0
DIMENSION
  5
8764
330
1E
100
AcDbEntity
  8
30
100
AcDbDimension
  2
*D26
 10
411.3776491012273
 20
-76.96948209542687
 30
0.0
 11
431.3776491012275
 21
-72.96948209542687
 31
0.0
 70
    32
  3
STANDARD
100
AcDbAlignedDimension
 13
451.3776491012275
 23
-103.5000000000005
 33
0.0
 14
411.3776491012273
 24
-103.499999999999
 34
0.0
100
AcDbRotatedDimension
  0
DIMENSION
  5
886F
330
1E
100
AcDbEntity
  8
30
  6
CONTINUOUS
100
AcDbDimension
  2
*D27
 10
486.6218772238089
 20
-129.0000000000006
 30
0.0
 11
482.6218772238089
 21
-114.0000000000005
 31
0.0
 70
    32
  3
STANDARD
100
AcDbAlignedDimension
 13
466.3776491012273
 23
-99.00000000000069
 33
0.0
 14
466.3776491012273
 24
-129.0000000000006
 34
0.0
 50
90.0
100
AcDbRotatedDimension
1001
ACAD
1000
DSTYLE
1002
{
1070
    79
1070
     3
1002
}
  0
DIMENSION
  5
887C
330
1E
100
AcDbEntity
  8
30
  6
CONTINUOUS
100
AcDbDimension
  2
*D28
 10
498.8510709019318
 20
-114.0000000000007
 30
0.0
 11
494.8510709019318
 21
-0.0000000000002716
 31
0.0
 70
    32
  3
STANDARD
100
AcDbAlignedDimension
 13
474.3776491012273
 23
114.0000000000001
 33
0.0
 14
474.3776491012273
 24
-114.0000000000007
 34
0.0
 50
90.0
100
AcDbRotatedDimension
1001
ACAD
1000
DSTYLE
1002
{
1070
    79
1070
     3
1002
}
  0
DIMENSION
  5
8889
330
1E
100
AcDbEntity
  8
30
  6
CONTINUOUS
100
AcDbDimension
  2
*D29
 10
356.3776491012282
 20
-193.4509781491146
 30
0.0
 11
283.8776491012282
 21
-189.4509781491144
 31
0.0
 70
    32
  3
STANDARD
100
AcDbAlignedDimension
 13
211.3776491012281
 23
0.0000000000001197
 33
0.0
 14
356.3776491012282
 24
-130.0
 34
0.0
100
AcDbRotatedDimension
1001
ACAD
1000
DSTYLE
1002
{
1070
    79
1070
     3
1002
}
  0
DIMENSION
  5
8896
330
1E
100
AcDbEntity
  8
30
  6
CONTINUOUS
100
AcDbDimension
  2
*D30
 10
249.3776491012281
 20
-174.806763447955
 30
0.0
 11
256.3776491012282
 21
-170.806763447955
 31
0.0
 70
    32
  3
STANDARD
100
AcDbAlignedDimension
 13
245.3776491012281
 23
-44.99999999999988
 33
0.0
 14
249.3776491012281
 24
-44.99999999999988
 34
0.0
100
AcDbRotatedDimension
1001
ACAD
1000
DSTYLE
1002
{
1070
    79
1070
     3
1002
}
  0
DIMENSION
  5
88B5
330
1E
100
AcDbEntity
  8
30
  6
CONTINUOUS
100
AcDbDimension
  2
*D31
 10
356.3776491012282
 20
-174.806763447955
 30
0.0
 11
302.8776491012282
 21
-170.806763447955
 31
0.0
 70
    32
  3
STANDARD
100
AcDbAlignedDimension
 13
249.3776491012281
 23
-154.7338396098457
 33
0.0
 14
356.3776491012282
 24
-131.0
 34
0.0
100
AcDbRotatedDimension
1001
ACAD
1000
DSTYLE
1002
{
1070
    79
1070
     3
1002
}
  0
DIMENSION
  5
88DD
330
1E
100
AcDbEntity
  8
30
  6
CONTINUOUS
100
AcDbDimension
  2
*D32
 10
356.3776491012282
 20
-160.6628788587821
 30
0.0
 11
304.8776491012282
 21
-156.6628788587822
 31
0.0
 70
    32
  3
STANDARD
100
AcDbAlignedDimension
 13
253.3776491012281
 23
-50.99999999999988
 33
0.0
 14
356.3776491012282
 24
-130.0
 34
0.0
100
AcDbRotatedDimension
1001
ACAD
1000
DSTYLE
1002
{
1070
    79
1070
     3
1002
}
  0
DIMENSION
  5
88EA
330
1E
100
AcDbEntity
  8
30
  6
CONTINUOUS
100
AcDbDimension
  2
*D33
 10
356.3776491012282
 20
-147.1618973152594
 30
0.0
 11
307.8776491012281
 21
-143.1618973152594
 31
0.0
 70
    32
  3
STANDARD
100
AcDbAlignedDimension
 13
259.3776491012282
 23
-130.0
 33
0.0
 14
356.3776491012282
 24
-131.0
 34
0.0
100
AcDbRotatedDimension
1001
ACAD
1000
DSTYLE
1002
{
1070
    79
1070
     3
1002
}
  0
DIMENSION
  5
88F7
330
1E
100
AcDbEntity
  8
30
  6
CONTINUOUS
100
AcDbDimension
  2
*D34
 10
426.3776491012275
 20
-147.6618973152594
 30
0.0
 11
391.3776491012278
 21
-143.6618973152594
 31
0.0
 70
    32
  3
STANDARD
100
AcDbAlignedDimension
 13
356.3776491012282
 23
-147.6618973152594
 33
0.0
 14
426.3776491012275
 24
-128.9999999999992
 34
0.0
100
AcDbRotatedDimension
1001
ACAD
1000
DSTYLE
1002
{
1070
    79
1070
     3
1002
}
  0
DIMENSION
  5
8904
330
1E
100
AcDbEntity
  8
30
  6
CONTINUOUS
100
AcDbDimension
  2
*D35
 10
426.3776491012275
 20
-138.9476261261002
 30
0.0
 11
418.8776491012275
 21
-134.9476261261002
 31
0.0
 70
    32
  3
STANDARD
100
AcDbAlignedDimension
 13
411.3776491012273
 23
-124.4999999999992
 33
0.0
 14
426.3776491012275
 24
-128.9999999999992
 34
0.0
100
AcDbRotatedDimension
1001
ACAD
1000
DSTYLE
1002
{
1070
    79
1070
     3
1002
}
  0
DIMENSION
  5
8911
330
1E
100
AcDbEntity
  8
30
  6
CONTINUOUS
100
AcDbDimension
  2
*D36
 10
466.3776491012273
 20
-138.9476261261002
 30
0.0
 11
458.8776491012273
 21
-134.9476261261002
 31
0.0
 70
    32
  3
STANDARD
100
AcDbAlignedDimension
 13
451.3776491012275
 23
-124.5000000000006
 33
0.0
 14
466.3776491012273
 24
-129.0000000000006
 34
0.0
100
AcDbRotatedDimension
1001
ACAD
1000
DSTYLE
1002
{
1070
    79
1070
     3
1002
}
  0
DIMENSION
  5
891E
330
1E
100
AcDbEntity
  8
30
  6
CONTINUOUS
100
AcDbDimension
  2
*D37
 10
466.3776491012273
 20
-160.3295448587821
 30
0.0
 11
411.3776491012278
 21
-156.3295448587821
 31
0.0
 70
    32
  3
STANDARD
100
AcDbAlignedDimension
 13
356.3776491012282
 23
-160.3295448587821
 33
0.0
 14
466.3776491012273
 24
-129.0000000000006
 34
0.0
100
AcDbRotatedDimension
1001
ACAD
1000
DSTYLE
1002
{
1070
    79
1070
     3
1002
}
  0
DIMENSION
  5
894F
330
1E
100
AcDbEntity
  8
30
  6
CONTINUOUS
100
AcDbDimension
  2
*D38
 10
448.7561922152182
 20
-119.9479377766417
 30
0.0
 11
476.3906850908733
 21
-75.39838118329133
 31
0.0
 70
   163
  3
STANDARD
100
AcDbDiametricDimension
 15
453.9991059872368
 25
-108.0520622233595
 35
0.0
 40
0.0
1001
ACAD
1000
DSTYLE
1002
{
1070
    79
1070
     3
1070
   288
1070
     1
1002
}
  0
LINE
  5
8999
330
1E
100
AcDbEntity
  8
21
100
AcDbLine
 10
32.99996948241994
 20
352.0
 30
0.0
 11
32.99996948241994
 21
382.0
 31
0.0
  0
LINE
  5
899A
330
1E
100
AcDbEntity
  8
21
100
AcDbLine
 10
56.99996948241994
 20
352.0
 30
0.0
 11
56.99996948241994
 21
382.0
 31
0.0
  0
LINE
  5
899B
330
1E
100
AcDbEntity
  8
21
100
AcDbLine
 10
-33.00003051758003
 20
352.0
 30
0.0
 11
-33.00003051758003
 21
382.0
 31
0.0
  0
LINE
  5
899C
330
1E
100
AcDbEntity
  8
21
100
AcDbLine
 10
-13.00003051758005
 20
352.0
 30
0.0
 11
-13.00003051758005
 21
384.8095842401767
 31
0.0
  0
LINE
  5
899D
330
1E
100
AcDbEntity
  8
21
100
AcDbLine
 10
12.99996948241993
 20
352.0
 30
0.0
 11
12.99996948241993
 21
384.8095842401767
 31
0.0
  0
LINE
  5
899E
330
1E
100
AcDbEntity
  8
21
100
AcDbLine
 10
-57.00003051758002
 20
352.0
 30
0.0
 11
-57.00003051758002
 21
382.0
 31
0.0
  0
LINE
  5
89A0
330
1E
100
AcDbEntity
  8
10
  6
CONTINOUS
100
AcDbLine
 10
-70.00003051758003
 20
255.0
 30
0.0
 11
69.99996948241994
 21
255.0
 31
0.0
  0
LINE
  5
89A1
330
1E
100
AcDbEntity
  8
10
  6
CONTINOUS
100
AcDbLine
 10
-70.00003051758003
 20
249.0
 30
0.0
 11
69.99996948241994
 21
249.0
 31
0.0
  0
LINE
  5
89A2
330
1E
100
AcDbEntity
  8
10
  6
CONTINOUS
100
AcDbLine
 10
-58.00003051758003
 20
245.0
 30
0.0
 11
57.99996948241994
 21
245.0
 31
0.0
  0
LINE
  5
89A3
330
1E
100
AcDbEntity
  8
0
100
AcDbLine
 10
-70.00003051758003
 20
352.0
 30
0.0
 11
69.99996948241994
 21
352.0
 31
0.0
  0
LINE
  5
89A4
330
1E
100
AcDbEntity
  8
10
  6
CONTINOUS
100
AcDbLine
 10
-70.00003051758003
 20
249.0
 30
0.0
 11
-70.00003051758003
 21
352.0
 31
0.0
  0
LINE
  5
89A5
330
1E
100
AcDbEntity
  8
10
  6
CONTINOUS
100
AcDbLine
 10
-58.00003051758003
 20
245.0
 30
0.0
 11
-58.00003051758003
 21
249.0
 31
0.0
  0
LINE
  5
89A6
330
1E
100
AcDbEntity
  8
10
  6
CONTINOUS
100
AcDbLine
 10
-17.0000305175801
 20
212.5
 30
0.0
 11
16.99996948242005
 21
212.5
 31
0.0
  0
LINE
  5
89A7
330
1E
100
AcDbEntity
  8
10
  6
CONTINOUS
100
AcDbLine
 10
-18.00003051758005
 20
241.0
 30
0.0
 11
17.99996948241988
 21
241.0
 31
0.0
  0
LINE
  5
89A8
330
1E
100
AcDbEntity
  8
10
  6
CONTINOUS
100
AcDbLine
 10
-17.0000305175801
 20
212.5
 30
0.0
 11
-17.0000305175801
 21
241.0
 31
0.0
  0
LINE
  5
89A9
330
1E
100
AcDbEntity
  8
10
  6
CONTINOUS
100
AcDbLine
 10
-18.00003051758005
 20
241.0
 30
0.0
 11
-18.00003051758005
 21
245.0
 31
0.0
  0
LINE
  5
89AA
330
1E
100
AcDbEntity
  8
10
  6
CONTINOUS
100
AcDbLine
 10
16.99996948242005
 20
212.5
 30
0.0
 11
16.99996948242005
 21
241.0
 31
0.0
  0
LINE
  5
89AB
330
1E
100
AcDbEntity
  8
10
  6
CONTINOUS
100
AcDbLine
 10
17.99996948241988
 20
241.0
 30
0.0
 11
17.99996948241988
 21
245.0
 31
0.0
  0
LINE
  5
89AC
330
1E
100
AcDbEntity
  8
10
  6
CONTINOUS
100
AcDbLine
 10
69.99996948241994
 20
249.0
 30
0.0
 11
69.99996948241994
 21
352.0
 31
0.0
  0
LINE
  5
89AD
330
1E
100
AcDbEntity
  8
10
  6
CONTINOUS
100
AcDbLine
 10
57.99996948241994
 20
245.0
 30
0.0
 11
57.99996948241994
 21
249.0
 31
0.0
  0
LINE
  5
89AE
330
1E
100
AcDbEntity
  8
21
100
AcDbLine
 10
-57.0000305175801
 20
382.0
 30
0.0
 11
-33.00003051758003
 21
382.0
 31
0.0
  0
LINE
  5
89AF
330
1E
100
AcDbEntity
  8
17
100
AcDbLine
 10
-55.50003051758003
 20
407.0
 30
0.0
 11
-34.50003051758001
 21
407.0
 31
0.0
  0
LINE
  5
89B0
330
1E
100
AcDbEntity
  8
0
100
AcDbLine
 10
-60.00003051758003
 20
422.0
 30
0.0
 11
-30.00003051758003
 21
422.0
 31
0.0
  0
CIRCLE
  5
89B1
330
1E
100
AcDbEntity
  8
17
100
AcDbCircle
 10
-45.00003051758002
 20
407.0
 30
0.0
 40
6.5
  0
LINE
  5
89B2
330
1E
100
AcDbEntity
  8
21
100
AcDbLine
 10
-60.00003051758003
 20
389.4999999999998
 30
0.0
 11
-60.00003051758003
 21
422.0
 31
0.0
  0
LINE
  5
89B3
330
1E
100
AcDbEntity
  8
21
100
AcDbLine
 10
-60.00003051758003
 20
389.4999999999998
 30
0.0
 11
-60.00003051758003
 21
422.0
 31
0.0
  0
LINE
  5
89B4
330
1E
100
AcDbEntity
  8
17
100
AcDbLine
 10
-45.00003051758002
 20
396.5
 30
0.0
 11
-45.00003051758002
 21
417.4999999999998
 31
0.0
  0
ARC
  5
89B5
330
1E
100
AcDbEntity
  8
21
100
AcDbCircle
 10
-53.50003051758003
 20
389.4999999999998
 30
0.0
 40
6.5
100
AcDbArc
 50
180.0
 51
270.0
  0
LINE
  5
89B6
330
1E
100
AcDbEntity
  8
21
100
AcDbLine
 10
-53.50003051758003
 20
382.0
 30
0.0
 11
-53.50003051758003
 21
383.0
 31
0.0
  0
LINE
  5
89B7
330
1E
100
AcDbEntity
  8
21
100
AcDbLine
 10
-30.00003051758003
 20
389.4999999999998
 30
0.0
 11
-30.00003051758003
 21
422.0
 31
0.0
  0
LINE
  5
89B8
330
1E
100
AcDbEntity
  8
21
100
AcDbLine
 10
-30.00003051758003
 20
389.4999999999998
 30
0.0
 11
-30.00003051758003
 21
422.0
 31
0.0
  0
LINE
  5
89B9
330
1E
100
AcDbEntity
  8
21
100
AcDbLine
 10
-15.00003051758005
 20
389.4999999999998
 30
0.0
 11
-15.00003051758005
 21
462.0
 31
0.0
  0
LINE
  5
89BA
330
1E
100
AcDbEntity
  8
21
100
AcDbLine
 10
14.99996948241991
 20
389.4999999999998
 30
0.0
 11
14.99996948241991
 21
462.0
 31
0.0
  0
LINE
  5
89BB
330
1E
100
AcDbEntity
  8
21
100
AcDbLine
 10
-15.00003051758005
 20
389.4999999999998
 30
0.0
 11
-15.00003051758005
 21
462.0
 31
0.0
  0
LINE
  5
89BC
330
1E
100
AcDbEntity
  8
21
100
AcDbLine
 10
14.99996948241991
 20
389.4999999999998
 30
0.0
 11
14.99996948241991
 21
462.0
 31
0.0
  0
LINE
  5
89BD
330
1E
100
AcDbEntity
  8
21
100
AcDbLine
 10
-36.50003051758003
 20
382.0
 30
0.0
 11
-36.50003051758003
 21
383.0
 31
0.0
  0
ARC
  5
89BE
330
1E
100
AcDbEntity
  8
21
100
AcDbCircle
 10
-36.50003051758003
 20
389.4999999999998
 30
0.0
 40
6.5
100
AcDbArc
 50
270.0
 51
0.0
  0
ARC
  5
89BF
330
1E
100
AcDbEntity
  8
21
100
AcDbCircle
 10
-8.500030517580057
 20
389.4999999999998
 30
0.0
 40
6.5
100
AcDbArc
 50
180.0
 51
226.1869385395983
  0
ARC
  5
89C0
330
1E
100
AcDbEntity
  8
21
100
AcDbCircle
 10
8.499969482419942
 20
389.4999999999998
 30
0.0
 40
6.5
100
AcDbArc
 50
313.8130614604015
 51
0.0
  0
LINE
  5
89C1
330
1E
100
AcDbEntity
  8
0
100
AcDbLine
 10
-15.00003051758005
 20
423.0
 30
0.0
 11
14.99996948241991
 21
423.0
 31
0.0
  0
LINE
  5
89C2
330
1E
100
AcDbEntity
  8
21
100
AcDbLine
 10
-15.00003051758005
 20
462.0
 30
0.0
 11
14.99996948241991
 21
462.0
 31
0.0
  0
CIRCLE
  5
89C3
330
1E
100
AcDbEntity
  8
17
100
AcDbCircle
 10
-0.0000305175800577
 20
447.0
 30
0.0
 40
6.5
  0
LINE
  5
89C4
330
1E
100
AcDbEntity
  8
17
100
AcDbLine
 10
-0.0000305175800577
 20
436.5
 30
0.0
 11
-0.0000305175800577
 21
457.5000000000001
 31
0.0
  0
LINE
  5
89C5
330
1E
100
AcDbEntity
  8
17
100
AcDbLine
 10
-10.50003051758005
 20
447.0
 30
0.0
 11
10.49996948241993
 21
447.0
 31
0.0
  0
LINE
  5
89C6
330
1E
100
AcDbEntity
  8
21
100
AcDbLine
 10
29.99996948241994
 20
389.4999999999998
 30
0.0
 11
29.99996948241994
 21
422.0
 31
0.0
  0
LINE
  5
89C7
330
1E
100
AcDbEntity
  8
21
100
AcDbLine
 10
59.99996948241994
 20
389.4999999999998
 30
0.0
 11
59.99996948241994
 21
422.0
 31
0.0
  0
LINE
  5
89C8
330
1E
100
AcDbEntity
  8
21
100
AcDbLine
 10
29.99996948241994
 20
389.4999999999998
 30
0.0
 11
29.99996948241994
 21
422.0
 31
0.0
  0
LINE
  5
89C9
330
1E
100
AcDbEntity
  8
21
100
AcDbLine
 10
59.99996948241994
 20
389.4999999999998
 30
0.0
 11
59.99996948241994
 21
422.0
 31
0.0
  0
LINE
  5
89CA
330
1E
100
AcDbEntity
  8
21
100
AcDbLine
 10
32.99996948241988
 20
382.0
 30
0.0
 11
56.99996948241994
 21
382.0
 31
0.0
  0
LINE
  5
89CB
330
1E
100
AcDbEntity
  8
17
100
AcDbLine
 10
34.49996948241994
 20
407.0
 30
0.0
 11
55.49996948241994
 21
407.0
 31
0.0
  0
LINE
  5
89CC
330
1E
100
AcDbEntity
  8
17
100
AcDbLine
 10
44.99996948241994
 20
396.5
 30
0.0
 11
44.99996948241994
 21
417.4999999999998
 31
0.0
  0
LINE
  5
89CD
330
1E
100
AcDbEntity
  8
21
100
AcDbLine
 10
36.49996948241994
 20
382.0
 30
0.0
 11
36.49996948241994
 21
383.0
 31
0.0
  0
ARC
  5
89CE
330
1E
100
AcDbEntity
  8
21
100
AcDbCircle
 10
36.49996948241994
 20
389.4999999999998
 30
0.0
 40
6.5
100
AcDbArc
 50
180.0
 51
270.0
  0
CIRCLE
  5
89CF
330
1E
100
AcDbEntity
  8
17
100
AcDbCircle
 10
44.99996948241994
 20
407.0
 30
0.0
 40
6.5
  0
LINE
  5
89D0
330
1E
100
AcDbEntity
  8
21
100
AcDbLine
 10
53.49996948241994
 20
382.0
 30
0.0
 11
53.49996948241994
 21
383.0
 31
0.0
  0
ARC
  5
89D1
330
1E
100
AcDbEntity
  8
21
100
AcDbCircle
 10
53.49996948241994
 20
389.4999999999998
 30
0.0
 40
6.5
100
AcDbArc
 50
270.0
 51
0.0
  0
LINE
  5
89D2
330
1E
100
AcDbEntity
  8
0
100
AcDbLine
 10
29.99996948241994
 20
422.0
 30
0.0
 11
59.99996948241994
 21
422.0
 31
0.0
  0
LINE
  5
8B22
330
1E
100
AcDbEntity
  8
18
100
AcDbLine
 10
87.9995148941057
 20
355.1999834695158
 30
0.0
 11
-91.99955526616077
 21
355.1999834695158
 31
0.0
  0
DIMENSION
  5
8B23
330
1E
100
AcDbEntity
  8
30
100
AcDbDimension
  2
*D39
 10
105.4964340825963
 20
352.0
 30
0.0
 11
119.4964340825962
 21
363.3499793368947
 31
0.0
 70
    32
  3
STANDARD
100
AcDbAlignedDimension
 13
25.49998966844745
 23
366.6999586737895
 33
0.0
 14
87.9995148941057
 24
352.0
 34
0.0
 50
90.0
100
AcDbRotatedDimension
1001
ACAD
1000
DSTYLE
1002
{
1070
   287
1070
     4
1070
   287
1070
     4
1070
   287
1070
     4
1070
   287
1070
     4
1070
   287
1070
     4
1070
   287
1070
     4
1070
    79
1070
     3
1070
   279
1070
     1
1002
}
  0
LINE
  5
8B24
330
1E
100
AcDbEntity
  8
18
100
AcDbLine
 10
87.9995148941057
 20
352.0
 30
0.0
 11
67.99961820963165
 21
352.0
 31
0.0
  0
LINE
  5
8B25
330
1E
100
AcDbEntity
  8
18
100
AcDbLine
 10
-71.99965858168673
 20
352.0
 30
0.0
 11
-91.99955526616077
 21
352.0
 31
0.0
  0
LINE
  5
8B9C
330
1E
100
AcDbEntity
  8
10
  6
CONTINOUS
100
AcDbLine
 10
-69.99999999999997
 20
130.0
 30
0.0
 11
-69.99999999999997
 21
-130.0
 31
0.0
  0
LINE
  5
8B9D
330
1E
100
AcDbEntity
  8
10
  6
CONTINOUS
100
AcDbLine
 10
70.0
 20
-130.0
 30
0.0
 11
70.0
 21
130.0
 31
0.0
  0
LINE
  5
8B9E
330
1E
100
AcDbEntity
  8
12
  6
DASHED
100
AcDbLine
 10
30.5
 20
-107.0
 30
0.0
 11
14.5
 21
-107.0
 31
0.0
  0
LINE
  5
8B9F
330
1E
100
AcDbEntity
  8
10
  6
CONTINOUS
100
AcDbLine
 10
-69.99999999999997
 20
-130.0
 30
0.0
 11
70.0
 21
-130.0
 31
0.0
  0
CIRCLE
  5
8BA0
330
1E
100
AcDbEntity
  8
12
  6
DASHED
100
AcDbCircle
 10
22.5
 20
-107.0
 30
0.0
 40
4.0
  0
LINE
  5
8BA1
330
1E
100
AcDbEntity
  8
10
  6
CONTINOUS
100
AcDbLine
 10
-53.99999999999997
 20
-114.0
 30
0.0
 11
-35.99999999999996
 21
-114.0
 31
0.0
  0
CIRCLE
  5
8BA2
330
1E
100
AcDbEntity
  8
10
  6
CONTINOUS
100
AcDbCircle
 10
-44.99999999999997
 20
-114.0
 30
0.0
 40
5.0
  0
LINE
  5
8BA3
330
1E
100
AcDbEntity
  8
10
  6
CONTINOUS
100
AcDbLine
 10
-44.99999999999997
 20
-123.0
 30
0.0
 11
-44.99999999999997
 21
-105.0
 31
0.0
  0
LINE
  5
8BA4
330
1E
100
AcDbEntity
  8
12
  6
DASHED
100
AcDbLine
 10
-14.5
 20
-107.0
 30
0.0
 11
-30.49999999999997
 21
-107.0
 31
0.0
  0
LINE
  5
8BA5
330
1E
100
AcDbEntity
  8
12
  6
DASHED
100
AcDbLine
 10
-22.5
 20
-99.0
 30
0.0
 11
-22.5
 21
-115.0
 31
0.0
  0
CIRCLE
  5
8BA6
330
1E
100
AcDbEntity
  8
12
  6
DASHED
100
AcDbCircle
 10
-22.5
 20
-107.0
 30
0.0
 40
4.0
  0
LINE
  5
8BA7
330
1E
100
AcDbEntity
  8
10
  6
CONTINOUS
100
AcDbLine
 10
0.0
 20
-123.0
 30
0.0
 11
0.0
 21
-105.0
 31
0.0
  0
CIRCLE
  5
8BA8
330
1E
100
AcDbEntity
  8
10
  6
CONTINOUS
100
AcDbCircle
 10
0.0
 20
-114.0
 30
0.0
 40
5.0
  0
LINE
  5
8BA9
330
1E
100
AcDbEntity
  8
10
  6
CONTINOUS
100
AcDbLine
 10
-9.0
 20
-114.0
 30
0.0
 11
9.0
 21
-114.0
 31
0.0
  0
LINE
  5
8BAA
330
1E
100
AcDbEntity
  8
10
  6
CONTINOUS
100
AcDbLine
 10
36.0
 20
-114.0
 30
0.0
 11
54.0
 21
-114.0
 31
0.0
  0
LINE
  5
8BAB
330
1E
100
AcDbEntity
  8
10
  6
CONTINOUS
100
AcDbLine
 10
45.0
 20
-123.0
 30
0.0
 11
45.0
 21
-105.0
 31
0.0
  0
CIRCLE
  5
8BAC
330
1E
100
AcDbEntity
  8
10
  6
CONTINOUS
100
AcDbCircle
 10
45.0
 20
-114.0
 30
0.0
 40
5.0
  0
LINE
  5
8BAD
330
1E
100
AcDbEntity
  8
12
  6
DASHED
100
AcDbLine
 10
22.5
 20
-99.0
 30
0.0
 11
22.5
 21
-115.0
 31
0.0
  0
LINE
  5
8BAE
330
1E
100
AcDbEntity
  8
10
  6
CONTINOUS
100
AcDbLine
 10
45.0
 20
105.0
 30
0.0
 11
45.0
 21
123.0
 31
0.0
  0
LINE
  5
8BAF
330
1E
100
AcDbEntity
  8
10
  6
CONTINOUS
100
AcDbLine
 10
0.0
 20
105.0
 30
0.0
 11
0.0
 21
123.0
 31
0.0
  0
LINE
  5
8BB0
330
1E
100
AcDbEntity
  8
10
  6
CONTINOUS
100
AcDbLine
 10
-44.99999999999997
 20
105.0
 30
0.0
 11
-44.99999999999997
 21
123.0
 31
0.0
  0
CIRCLE
  5
8BB1
330
1E
100
AcDbEntity
  8
10
  6
CONTINOUS
100
AcDbCircle
 10
-45.0
 20
114.0
 30
0.0
 40
5.0
210
0.0
220
0.0
230
-1.0
  0
CIRCLE
  5
8BB2
330
1E
100
AcDbEntity
  8
10
  6
CONTINOUS
100
AcDbCircle
 10
0.0
 20
114.0
 30
0.0
 40
5.0
210
0.0
220
0.0
230
-1.0
  0
CIRCLE
  5
8BB3
330
1E
100
AcDbEntity
  8
10
  6
CONTINOUS
100
AcDbCircle
 10
44.99999999999997
 20
114.0
 30
0.0
 40
5.0
210
0.0
220
0.0
230
-1.0
  0
LINE
  5
8BB4
330
1E
100
AcDbEntity
  8
12
  6
DASHED
100
AcDbLine
 10
30.5
 20
107.0
 30
0.0
 11
14.5
 21
107.0
 31
0.0
  0
LINE
  5
8BB6
330
1E
100
AcDbEntity
  8
10
  6
CONTINOUS
100
AcDbLine
 10
-69.99999999999997
 20
-51.0
 30
0.0
 11
70.0
 21
-51.0
 31
0.0
  0
LINE
  5
8BB7
330
1E
100
AcDbEntity
  8
10
  6
CONTINOUS
100
AcDbLine
 10
-69.99999999999997
 20
50.99999999999909
 30
0.0
 11
70.0
 21
50.99999999999909
 31
0.0
  0
LINE
  5
8BB8
330
1E
100
AcDbEntity
  8
10
  6
CONTINOUS
100
AcDbLine
 10
-52.99999999999997
 20
-45.0
 30
0.0
 11
53.0
 21
-45.0
 31
0.0
  0
LINE
  5
8BB9
330
1E
100
AcDbEntity
  8
10
  6
CONTINOUS
100
AcDbLine
 10
-52.99999999999997
 20
45.0
 30
0.0
 11
53.0
 21
45.0
 31
0.0
  0
CIRCLE
  5
8BBA
330
1E
100
AcDbEntity
  8
12
  6
DASHED
100
AcDbCircle
 10
-22.5
 20
107.0
 30
0.0
 40
4.0
210
0.0
220
0.0
230
-1.0
  0
LINE
  5
8BBB
330
1E
100
AcDbEntity
  8
10
  6
CONTINOUS
100
AcDbLine
 10
-57.99999999999997
 20
40.0
 30
0.0
 11
-57.99999999999997
 21
-40.0
 31
0.0
  0
LINE
  5
8BBC
330
1E
100
AcDbEntity
  8
10
  6
CONTINOUS
100
AcDbLine
 10
-25.49999999999977
 20
-45.0
 30
0.0
 11
-25.49999999999986
 21
45.0
 31
0.0
  0
LINE
  5
8BBD
330
1E
100
AcDbEntity
  8
10
  6
CONTINOUS
100
AcDbLine
 10
18.0
 20
-34.0
 30
0.0
 11
18.00000000000011
 21
34.0
 31
0.0
  0
LINE
  5
8BBE
330
1E
100
AcDbEntity
  8
10
  6
CONTINOUS
100
AcDbLine
 10
17.00000000000011
 20
22.97883578857727
 30
0.0
 11
17.00000000000011
 21
32.80866032004519
 31
0.0
  0
LINE
  5
8BBF
330
1E
100
AcDbEntity
  8
10
  6
CONTINOUS
100
AcDbLine
 10
-18.0
 20
-34.0
 30
0.0
 11
-18.00000000000005
 21
34.0
 31
0.0
  0
LINE
  5
8BC0
330
1E
100
AcDbEntity
  8
10
  6
CONTINOUS
100
AcDbLine
 10
-17.00000000000005
 20
22.97883578857727
 30
0.0
 11
-17.00000000000005
 21
32.80866032004519
 31
0.0
  0
ARC
  5
8BC1
330
1E
100
AcDbEntity
  8
10
  6
CONTINOUS
100
AcDbCircle
 10
-52.99999999999997
 20
-40.0
 30
0.0
 40
5.0
100
AcDbArc
 50
180.0
 51
270.0
  0
LINE
  5
8BC2
330
1E
100
AcDbEntity
  8
10
  6
CONTINOUS
100
AcDbLine
 10
18.0
 20
-34.0
 30
0.0
 11
-18.0
 21
-34.0
 31
0.0
  0
LINE
  5
8BC3
330
1E
100
AcDbEntity
  8
10
  6
CONTINOUS
100
AcDbLine
 10
17.00000000000022
 20
22.97883578857727
 30
0.0
 11
-17.0
 21
22.97883578857727
 31
0.0
  0
LINE
  5
8BC4
330
1E
100
AcDbEntity
  8
10
  6
CONTINOUS
100
AcDbLine
 10
-53.99999999999997
 20
114.0
 30
0.0
 11
-35.99999999999996
 21
114.0
 31
0.0
  0
ARC
  5
8BC5
330
1E
100
AcDbEntity
  8
10
  6
CONTINOUS
100
AcDbCircle
 10
-52.99999999999997
 20
40.0
 30
0.0
 40
5.0
100
AcDbArc
 50
90.0
 51
180.0
  0
LINE
  5
8BC6
330
1E
100
AcDbEntity
  8
10
  6
CONTINOUS
100
AcDbLine
 10
18.0
 20
34.0
 30
0.0
 11
-18.00000000000005
 21
34.0
 31
0.0
  0
LINE
  5
8BC7
330
1E
100
AcDbEntity
  8
10
  6
CONTINOUS
100
AcDbLine
 10
16.99999999999993
 20
32.80866032004519
 30
0.0
 11
-17.00000000000005
 21
32.80866032004519
 31
0.0
  0
LINE
  5
8BC8
330
1E
100
AcDbEntity
  8
12
  6
DASHED
100
AcDbLine
 10
-14.5
 20
107.0
 30
0.0
 11
-30.49999999999997
 21
107.0
 31
0.0
  0
LINE
  5
8BC9
330
1E
100
AcDbEntity
  8
12
  6
DASHED
100
AcDbLine
 10
-22.5
 20
115.0
 30
0.0
 11
-22.5
 21
99.0
 31
0.0
  0
CIRCLE
  5
8BCA
330
1E
100
AcDbEntity
  8
12
  6
DASHED
100
AcDbCircle
 10
22.5
 20
107.0
 30
0.0
 40
4.0
210
0.0
220
0.0
230
-1.0
  0
LINE
  5
8BCB
330
1E
100
AcDbEntity
  8
10
  6
CONTINOUS
100
AcDbLine
 10
-9.0
 20
114.0
 30
0.0
 11
9.0
 21
114.0
 31
0.0
  0
LINE
  5
8BCC
330
1E
100
AcDbEntity
  8
10
  6
CONTINOUS
100
AcDbLine
 10
58.0
 20
40.0
 30
0.0
 11
58.0
 21
-40.0
 31
0.0
  0
LINE
  5
8BCD
330
1E
100
AcDbEntity
  8
10
  6
CONTINOUS
100
AcDbLine
 10
25.49999999999977
 20
-45.0
 30
0.0
 11
25.49999999999982
 21
45.0
 31
0.0
  0
ARC
  5
8BCE
330
1E
100
AcDbEntity
  8
10
  6
CONTINOUS
100
AcDbCircle
 10
53.0
 20
-40.0
 30
0.0
 40
5.0
100
AcDbArc
 50
270.0
 51
0.0
  0
ARC
  5
8BCF
330
1E
100
AcDbEntity
  8
10
  6
CONTINOUS
100
AcDbCircle
 10
53.0
 20
40.0
 30
0.0
 40
5.0
100
AcDbArc
 50
0.0
 51
90.0
  0
LINE
  5
8BD0
330
1E
100
AcDbEntity
  8
10
  6
CONTINOUS
100
AcDbLine
 10
36.0
 20
114.0
 30
0.0
 11
54.0
 21
114.0
 31
0.0
  0
LINE
  5
8BD1
330
1E
100
AcDbEntity
  8
12
  6
DASHED
100
AcDbLine
 10
22.5
 20
115.0
 30
0.0
 11
22.5
 21
99.0
 31
0.0
  0
LINE
  5
8BD2
330
1E
100
AcDbEntity
  8
10
  6
CONTINOUS
100
AcDbLine
 10
70.0
 20
130.0
 30
0.0
 11
-69.99999999999997
 21
130.0
 31
0.0
  0
DIMENSION
  5
8C0C
330
1E
100
AcDbEntity
  8
30
  6
CONTINUOUS
100
AcDbDimension
  2
*D40
 10
-115.5191388944172
 20
-130.0
 30
0.0
 11
-119.519138894417
 21
-0.0000000000000209
 31
0.0
 70
    32
  3
STANDARD
100
AcDbAlignedDimension
 13
-70.00000000000007
 23
130.0
 33
0.0
 14
-70.00000000000007
 24
-130.0
 34
0.0
 50
90.0
100
AcDbRotatedDimension
1001
ACAD
1000
DSTYLE
1002
{
1070
    79
1070
     3
1002
}
  0
DIMENSION
  5
8C0D
330
1E
100
AcDbEntity
  8
30
  6
CONTINUOUS
100
AcDbDimension
  2
*D41
 10
-91.39860450474341
 20
-44.99999999999999
 30
0.0
 11
-95.39860450474336
 21
0.0000000000000487
 31
0.0
 70
    32
  3
STANDARD
100
AcDbAlignedDimension
 13
-53.0
 23
45.0000000000001
 33
0.0
 14
-53.0
 24
-45.0
 34
0.0
 50
90.0
100
AcDbRotatedDimension
1001
ACAD
1000
DSTYLE
1002
{
1070
    79
1070
     3
1002
}
  0
DIMENSION
  5
8C0E
330
1E
100
AcDbEntity
  8
30
  6
CONTINUOUS
100
AcDbDimension
  2
*D42
 10
-103.8479123954376
 20
-50.99999999999999
 30
0.0
 11
-107.8479123954376
 21
-0.0000000000004621
 31
0.0
 70
    32
  3
STANDARD
100
AcDbAlignedDimension
 13
-70.00000000000007
 23
50.99999999999909
 33
0.0
 14
-70.00000000000007
 24
-51.0
 34
0.0
 50
90.0
100
AcDbRotatedDimension
1001
ACAD
1000
DSTYLE
1002
{
1070
    79
1070
     3
1002
}
  0
DIMENSION
  5
8C0F
330
1E
100
AcDbEntity
  8
30
  6
CONTINUOUS
100
AcDbDimension
  2
*D43
 10
70.0
 20
-153.7989500761053
 30
0.0
 11
-0.0000000000000282
 21
-149.7989500761053
 31
0.0
 70
    32
  3
STANDARD
100
AcDbAlignedDimension
 13
-70.00000000000007
 23
-130.0
 33
0.0
 14
70.0
 24
-130.0
 34
0.0
100
AcDbRotatedDimension
1001
ACAD
1000
DSTYLE
1002
{
1070
    79
1070
     3
1002
}
  0
LINE
  5
8C6D
330
1E
100
AcDbEntity
  8
12
100
AcDbLine
 10
-24.49998966844748
 20
352.0
 30
0.0
 11
-24.49998966844748
 21
366.6999586737895
 31
0.0
  0
LINE
  5
8C6E
330
1E
100
AcDbEntity
  8
12
100
AcDbLine
 10
-20.50001033155251
 20
352.0
 30
0.0
 11
-20.50001033155251
 21
366.6999586737895
 31
0.0
  0
LINE
  5
8C6F
330
1E
100
AcDbEntity
  8
12
100
AcDbLine
 10
-20.50001033155251
 20
366.6999586737895
 30
0.0
 11
-24.49998966844748
 21
366.6999586737895
 31
0.0
  0
LINE
  5
8C70
330
1E
100
AcDbEntity
  8
12
100
AcDbLine
 10
21.50001033155248
 20
352.0
 30
0.0
 11
21.50001033155248
 21
366.6999586737895
 31
0.0
  0
LINE
  5
8C71
330
1E
100
AcDbEntity
  8
12
100
AcDbLine
 10
25.49998966844745
 20
352.0
 30
0.0
 11
25.49998966844745
 21
366.6999586737895
 31
0.0
  0
LINE
  5
8C72
330
1E
100
AcDbEntity
  8
12
100
AcDbLine
 10
25.49998966844745
 20
366.6999586737895
 30
0.0
 11
21.50001033155248
 21
366.6999586737895
 31
0.0
  0
LINE
  5
8DE7
330
1E
100
AcDbEntity
  8
12
  6
DASHED
100
AcDbLine
 10
-21.99999999999953
 20
-474.0
 30
0.0
 11
22.00000000000045
 21
-474.0
 31
0.0
  0
LINE
  5
8DE8
330
1E
100
AcDbEntity
  8
12
  6
DASHED
100
AcDbLine
 10
-21.99999999999953
 20
-246.0
 30
0.0
 11
22.00000000000045
 21
-246.0
 31
0.0
  0
LINE
  5
8DE9
330
1E
100
AcDbEntity
  8
12
  6
DASHED
100
AcDbLine
 10
18.00000000000044
 20
-474.0
 30
0.0
 11
27.00000000000045
 21
-474.0
 31
0.0
  0
LINE
  5
8DEA
330
1E
100
AcDbEntity
  8
12
  6
DASHED
100
AcDbLine
 10
16.12451549659725
 20
-482.0
 30
0.0
 11
28.87548450340341
 21
-482.0
 31
0.0
  0
LINE
  5
8DEB
330
1E
100
AcDbEntity
  8
22
100
AcDbLine
 10
18.00000000000044
 20
-246.0
 30
0.0
 11
27.00000000000045
 21
-246.0
 31
0.0
  0
LINE
  5
8DEC
330
1E
100
AcDbEntity
  8
22
100
AcDbLine
 10
16.12451549659725
 20
-238.0
 30
0.0
 11
28.87548450340341
 21
-238.0
 31
0.0
  0
LINE
  5
8DED
330
1E
100
AcDbEntity
  8
12
  6
DASHED
100
AcDbLine
 10
15.5
 20
-467.0
 30
0.0
 11
29.5
 21
-467.0
 31
0.0
  0
LINE
  5
8DEE
330
1E
100
AcDbEntity
  8
12
  6
DASHED
100
AcDbLine
 10
15.5
 20
-253.0
 30
0.0
 11
29.5
 21
-253.0
 31
0.0
  0
LINE
  5
8DF0
330
1E
100
AcDbEntity
  8
18
  6
DIVIDE
100
AcDbLine
 10
70.0
 20
-230.0
 30
0.0
 11
-70.0
 21
-230.0
 31
0.0
  0
LINE
  5
8DF1
330
1E
100
AcDbEntity
  8
18
  6
DIVIDE
100
AcDbLine
 10
-70.0
 20
-490.0000000000002
 30
0.0
 11
70.0
 21
-490.0000000000002
 31
0.0
  0
CIRCLE
  5
8DF2
330
1E
100
AcDbEntity
  8
12
  6
DASHED
100
AcDbCircle
 10
-22.5
 20
-253.0
 30
0.0
 40
3.0
210
0.0
220
0.0
230
-1.0
  0
CIRCLE
  5
8DF3
330
1E
100
AcDbEntity
  8
12
  6
DASHED
100
AcDbCircle
 10
22.5
 20
-467.0
 30
0.0
 40
3.0
  0
LINE
  5
8DF5
330
1E
100
AcDbEntity
  8
18
  6
DIVIDE
100
AcDbLine
 10
-70.0
 20
-230.0
 30
0.0
 11
-70.0
 21
-490.0000000000002
 31
0.0
  0
LINE
  5
8DF6
330
1E
100
AcDbEntity
  8
12
  6
DASHED
100
AcDbLine
 10
-66.99999999999977
 20
-474.0
 30
0.0
 11
-22.99999999999954
 21
-474.0
 31
0.0
  0
ARC
  5
8DF7
330
1E
100
AcDbEntity
  8
22
100
AcDbCircle
 10
44.99999999999977
 20
-474.0
 30
0.0
 40
18.0
210
0.0
220
0.0
230
-1.0
100
AcDbArc
 50
206.3877999612437
 51
180.0
  0
LINE
  5
8DF8
330
1E
100
AcDbEntity
  8
12
  6
DASHED
100
AcDbLine
 10
-44.99999999999977
 20
-452.0
 30
0.0
 11
-44.99999999999977
 21
-496.0
 31
0.0
  0
LINE
  5
8DF9
330
1E
100
AcDbEntity
  8
22
100
AcDbLine
 10
0.0000000000004547
 20
-452.0
 30
0.0
 11
0.0000000000004547
 21
-496.0
 31
0.0
  0
ARC
  5
8DFA
330
1E
100
AcDbEntity
  8
22
100
AcDbCircle
 10
-0.0000000000004547
 20
-474.0
 30
0.0
 40
18.0
210
0.0
220
0.0
230
-1.0
100
AcDbArc
 50
0.0
 51
180.0
  0
ARC
  5
8DFB
330
1E
100
AcDbEntity
  8
22
100
AcDbCircle
 10
-0.0000000000004547
 20
-474.0
 30
0.0
 40
18.0
210
0.0
220
0.0
230
-1.0
100
AcDbArc
 50
206.3877999612437
 51
333.6122000387049
  0
LINE
  5
8DFC
330
1E
100
AcDbEntity
  8
12
  6
DASHED
100
AcDbLine
 10
-28.87548450340272
 20
-482.0
 30
0.0
 11
-16.12451549659658
 21
-482.0
 31
0.0
  0
LINE
  5
8DFD
330
1E
100
AcDbEntity
  8
12
  6
DASHED
100
AcDbLine
 10
-29.5
 20
-467.0
 30
0.0
 11
-15.5
 21
-467.0
 31
0.0
  0
LINE
  5
8DFE
330
1E
100
AcDbEntity
  8
12
  6
DASHED
100
AcDbLine
 10
-26.99999999999953
 20
-474.0
 30
0.0
 11
-17.99999999999953
 21
-474.0
 31
0.0
  0
LINE
  5
8DFF
330
1E
100
AcDbEntity
  8
12
  6
DASHED
100
AcDbLine
 10
-22.5
 20
-460.0
 30
0.0
 11
-22.5
 21
-474.0
 31
0.0
  0
CIRCLE
  5
8E00
330
1E
100
AcDbEntity
  8
12
  6
DASHED
100
AcDbCircle
 10
22.5
 20
-467.0
 30
0.0
 40
3.0
210
0.0
220
0.0
230
-1.0
  0
LINE
  5
8E01
330
1E
100
AcDbEntity
  8
22
100
AcDbLine
 10
0.0000000000004547
 20
-224.0
 30
0.0
 11
0.0000000000004547
 21
-268.0
 31
0.0
  0
LINE
  5
8E02
330
1E
100
AcDbEntity
  8
12
  6
DASHED
100
AcDbLine
 10
-44.99999999999977
 20
-224.0
 30
0.0
 11
-44.99999999999977
 21
-268.0
 31
0.0
  0
ARC
  5
8E03
330
1E
100
AcDbEntity
  8
22
100
AcDbCircle
 10
-44.99999999999977
 20
-246.0
 30
0.0
 40
18.0
100
AcDbArc
 50
26.38779996124371
 51
0.0
  0
LINE
  5
8E04
330
1E
100
AcDbEntity
  8
12
  6
DASHED
100
AcDbLine
 10
-66.99999999999977
 20
-246.0
 30
0.0
 11
-22.99999999999954
 21
-246.0
 31
0.0
  0
ARC
  5
8E05
330
1E
100
AcDbEntity
  8
22
100
AcDbCircle
 10
0.0000000000004547
 20
-246.0
 30
0.0
 40
18.0
100
AcDbArc
 50
180.0
 51
0.0
  0
LINE
  5
8E06
330
1E
100
AcDbEntity
  8
12
  6
DASHED
100
AcDbLine
 10
-29.5
 20
-253.0
 30
0.0
 11
-15.5
 21
-253.0
 31
0.0
  0
LINE
  5
8E07
330
1E
100
AcDbEntity
  8
22
100
AcDbLine
 10
-26.99999999999953
 20
-246.0
 30
0.0
 11
-17.99999999999953
 21
-246.0
 31
0.0
  0
LINE
  5
8E08
330
1E
100
AcDbEntity
  8
12
  6
DASHED
100
AcDbLine
 10
-22.5
 20
-246.0
 30
0.0
 11
-22.5
 21
-260.0
 31
0.0
  0
CIRCLE
  5
8E09
330
1E
100
AcDbEntity
  8
12
  6
DASHED
100
AcDbCircle
 10
-22.5
 20
-253.0
 30
0.0
 40
3.0
  0
ARC
  5
8E0A
330
1E
100
AcDbEntity
  8
22
100
AcDbCircle
 10
0.0000000000004547
 20
-246.0
 30
0.0
 40
18.0
100
AcDbArc
 50
26.38779996124371
 51
153.6122000387049
  0
LINE
  5
8E0B
330
1E
100
AcDbEntity
  8
22
100
AcDbLine
 10
-28.87548450340272
 20
-238.0
 30
0.0
 11
-16.12451549659658
 21
-238.0
 31
0.0
  0
LINE
  5
8E0C
330
1E
100
AcDbEntity
  8
18
  6
DIVIDE
100
AcDbLine
 10
70.0
 20
-490.0000000000002
 30
0.0
 11
70.0
 21
-230.0
 31
0.0
  0
LINE
  5
8E0D
330
1E
100
AcDbEntity
  8
12
  6
DASHED
100
AcDbLine
 10
45.00000000000045
 20
-452.0
 30
0.0
 11
45.00000000000045
 21
-496.0
 31
0.0
  0
LINE
  5
8E0E
330
1E
100
AcDbEntity
  8
12
  6
DASHED
100
AcDbLine
 10
23.00000000000044
 20
-474.0
 30
0.0
 11
67.00000000000045
 21
-474.0
 31
0.0
  0
ARC
  5
8E0F
330
1E
100
AcDbEntity
  8
22
100
AcDbCircle
 10
-45.00000000000045
 20
-474.0
 30
0.0
 40
18.0
210
0.0
220
0.0
230
-1.0
100
AcDbArc
 50
0.0
 51
333.6122000387561
  0
LINE
  5
8E10
330
1E
100
AcDbEntity
  8
12
  6
DASHED
100
AcDbLine
 10
22.5
 20
-460.0
 30
0.0
 11
22.5
 21
-474.0
 31
0.0
  0
LINE
  5
8E11
330
1E
100
AcDbEntity
  8
12
  6
DASHED
100
AcDbLine
 10
45.00000000000045
 20
-224.0
 30
0.0
 11
45.00000000000045
 21
-268.0
 31
0.0
  0
ARC
  5
8E12
330
1E
100
AcDbEntity
  8
22
100
AcDbCircle
 10
45.00000000000045
 20
-246.0
 30
0.0
 40
18.0
100
AcDbArc
 50
180.0
 51
153.612200038756
  0
LINE
  5
8E13
330
1E
100
AcDbEntity
  8
12
  6
DASHED
100
AcDbLine
 10
23.00000000000044
 20
-246.0
 30
0.0
 11
67.00000000000045
 21
-246.0
 31
0.0
  0
LINE
  5
8E14
330
1E
100
AcDbEntity
  8
12
  6
DASHED
100
AcDbLine
 10
22.5
 20
-246.0
 30
0.0
 11
22.5
 21
-260.0
 31
0.0
  0
DIMENSION
  5
8E22
330
1E
100
AcDbEntity
  8
30
  6
CONTINUOUS
100
AcDbDimension
  2
*D44
 10
-31.32693897434006
 20
-462.2932753432656
 30
0.0
 11
-90.72066894106146
 21
-513.1455345229754
 31
0.0
 70
   163
  3
STANDARD
100
AcDbDiametricDimension
 15
-58.67306102565942
 25
-485.7067246567341
 35
0.0
 40
0.0
1001
ACAD
1000
DSTYLE
1002
{
1070
   287
1070
     4
1070
   287
1070
     4
1070
   287
1070
     4
1070
   287
1070
     4
1070
   287
1070
     4
1070
   287
1070
     4
1070
    79
1070
     3
1070
   279
1070
     1
1070
   288
1070
     1
1002
}
  0
DIMENSION
  5
8E2E
330
1E
100
AcDbEntity
  8
12
100
AcDbDimension
  2
*D45
 10
-21.80780957002717
 20
-255.9190533411799
 30
0.0
 11
-37.74744083389127
 21
-214.0023890902475
 31
0.0
 70
   163
  1
M6
  3
STANDARD
100
AcDbDiametricDimension
 15
-23.19219042997282
 25
-250.0809466588199
 35
0.0
 40
0.0
1001
ACAD
1000
DSTYLE
1002
{
1070
    79
1070
     3
1070
   288
1070
     1
1002
}
  0
DIMENSION
  5
8E42
330
1E
100
AcDbEntity
  8
30
  6
CONTINUOUS
100
AcDbDimension
  2
*D46
 10
120.0739101136593
 20
-474.0
 30
0.0
 11
116.0739101136597
 21
-360.0
 31
0.0
 70
    32
  3
STANDARD
100
AcDbAlignedDimension
 13
63.00000000000046
 23
-246.0
 33
0.0
 14
63.00000000000046
 24
-474.0
 34
0.0
 50
90.0
100
AcDbRotatedDimension
1001
ACAD
1000
DSTYLE
1002
{
1070
    79
1070
     3
1002
}
  0
DIMENSION
  5
8E4F
330
1E
100
AcDbEntity
  8
30
  6
CONTINUOUS
100
AcDbDimension
  2
*D47
 10
99.32114719794114
 20
-467.0
 30
0.0
 11
95.32114719794122
 21
-360.0
 31
0.0
 70
    32
  3
STANDARD
100
AcDbAlignedDimension
 13
29.5
 23
-253.0
 33
0.0
 14
29.5
 24
-467.0
 34
0.0
 50
90.0
100
AcDbRotatedDimension
1001
ACAD
1000
DSTYLE
1002
{
1070
    79
1070
     3
1002
}
  0
DIMENSION
  5
8E77
330
1E
100
AcDbEntity
  8
30
  6
CONTINUOUS
100
AcDbDimension
  2
*D48
 10
-0.0000305175800556
 20
492.5635362125029
 30
0.0
 11
-22.50003051758003
 21
496.5635362125029
 31
0.0
 70
    32
  3
STANDARD
100
AcDbAlignedDimension
 13
-45.00003051758002
 23
417.4999999999998
 33
0.0
 14
-0.0000305175800577
 24
457.5000000000001
 34
0.0
100
AcDbRotatedDimension
1001
ACAD
1000
DSTYLE
1002
{
1070
    79
1070
     3
1002
}
  0
DIMENSION
  5
8E84
330
1E
100
AcDbEntity
  8
30
  6
CONTINUOUS
100
AcDbDimension
  2
*D49
 10
44.99996948241995
 20
492.5635362125029
 30
0.0
 11
22.49996948241994
 21
496.5635362125029
 31
0.0
 70
    32
  3
STANDARD
100
AcDbAlignedDimension
 13
-0.0000305175800577
 23
457.5000000000001
 33
0.0
 14
44.99996948241994
 24
417.4999999999998
 34
0.0
100
AcDbRotatedDimension
1001
ACAD
1000
DSTYLE
1002
{
1070
   287
1070
     4
1070
   287
1070
     4
1070
   287
1070
     4
1070
   287
1070
     4
1070
   287
1070
     4
1070
   287
1070
     4
1070
   279
1070
     1
1070
    79
1070
     3
1002
}
  0
LINE
  5
90A1
330
1E
100
AcDbEntity
  8
10
  6
CONTINUOUS
100
AcDbLine
 10
36.50000000000005
 20
-24.0
 30
0.0
 11
44.50000000000005
 21
-24.0
 31
0.0
  0
LINE
  5
90A2
330
1E
100
AcDbEntity
  8
10
  6
CONTINUOUS
100
AcDbLine
 10
36.50000000000005
 20
-21.0
 30
0.0
 11
44.50000000000005
 21
-21.0
 31
0.0
  0
LINE
  5
90A3
330
1E
100
AcDbEntity
  8
10
  6
CONTINUOUS
100
AcDbLine
 10
36.50000000000005
 20
-29.0
 30
0.0
 11
44.50000000000005
 21
-29.0
 31
0.0
  0
LINE
  5
90A4
330
1E
100
AcDbEntity
  8
10
  6
CONTINUOUS
100
AcDbLine
 10
36.50000000000005
 20
-26.0
 30
0.0
 11
44.50000000000005
 21
-26.0
 31
0.0
  0
LINE
  5
90A5
330
1E
100
AcDbEntity
  8
10
  6
CONTINUOUS
100
AcDbLine
 10
36.50000000000005
 20
-21.0
 30
0.0
 11
36.50000000000005
 21
-24.0
 31
0.0
  0
LINE
  5
90A6
330
1E
100
AcDbEntity
  8
10
  6
CONTINUOUS
100
AcDbLine
 10
36.50000000000005
 20
-26.0
 30
0.0
 11
36.50000000000005
 21
-29.0
 31
0.0
  0
LINE
  5
90A7
330
1E
100
AcDbEntity
  8
10
  6
CONTINUOUS
100
AcDbLine
 10
44.50000000000005
 20
-21.0
 30
0.0
 11
44.50000000000005
 21
-24.0
 31
0.0
  0
LINE
  5
90A8
330
1E
100
AcDbEntity
  8
10
  6
CONTINUOUS
100
AcDbLine
 10
44.50000000000005
 20
-26.0
 30
0.0
 11
44.50000000000005
 21
-29.0
 31
0.0
  0
CIRCLE
  5
90A9
330
1E
100
AcDbEntity
  8
10
  6
CONTINUOUS
100
AcDbCircle
 10
40.50000000000006
 20
8.0
 30
0.0
 40
5.0
  0
CIRCLE
  5
90AA
330
1E
100
AcDbEntity
  8
10
  6
CONTINUOUS
100
AcDbCircle
 10
40.50000000000006
 20
8.0
 30
0.0
 40
3.5
  0
CIRCLE
  5
90AB
330
1E
100
AcDbEntity
  8
10
  6
CONTINUOUS
100
AcDbCircle
 10
40.50000000000006
 20
-7.0
 30
0.0
 40
3.5
  0
VIEWPORT
  5
9AC
330
1A
100
AcDbEntity
 67
     1
  8
0
  6
CONTINUOUS
100
AcDbViewport
 10
171.999535
 20
144.1384739999999
 30
0.0
 40
488.867686
 41
292.351491
 68
    -1
 69
     1
1001
ACAD
1000
MVIEW
1002
{
1070
    16
1010
0.0
1020
0.0
1030
0.0
1010
0.0
1020
0.0
1030
1.0
1040
0.0
1040
292.351491
1040
171.999535
1040
144.1384739999999
1040
50.0
1040
0.0
1040
0.0
1070
     0
1070
   100
1070
     1
1070
     1
1070
     0
1070
     0
1070
     0
1070
     0
1040
0.0
1040
0.0
1040
0.0
1040
10.0
1040
10.0
1040
10.0
1040
10.0
1070
     0
1002
{
1002
}
1002
}
  0
ENDSEC
  0
SECTION
  2
OBJECTS
  0
DICTIONARY
  5
C
330
0
100
AcDbDictionary
  3
ACAD_GROUP
350
D
  3
ACAD_LAYOUT
350
19
  3
ACAD_MLINESTYLE
350
16
  3
ACAD_PLOTSETTINGS
350
18
  3
ACAD_PLOTSTYLENAME
350
E
  3
ACADDIM
350
6D5E
  3
ACDBHEADERROUNDTRIPXREC
350
9108
  3
ACDBVARIABLEDICTIONARY
350
5697
  0
DICTIONARY
  5
178
330
1E
100
AcDbDictionary
280
     1
  3
ACAD_LAYOUTSELFREF
360
912A
  0
DICTIONARY
  5
17A
330
1A
100
AcDbDictionary
280
     1
  3
ACAD_LAYOUTSELFREF
360
9129
  0
DICTIONARY
  5
D
102
{ACAD_REACTORS
330
C
102
}
330
C
100
AcDbDictionary
  0
DICTIONARY
  5
19
102
{ACAD_REACTORS
330
C
102
}
330
C
100
AcDbDictionary
  0
DICTIONARY
  5
16
102
{ACAD_REACTORS
330
C
102
}
330
C
100
AcDbDictionary
  3
STANDARD
350
17
  0
DICTIONARY
  5
18
102
{ACAD_REACTORS
330
C
102
}
330
C
100
AcDbDictionary
  0
ACDBDICTIONARYWDFLT
  5
E
102
{ACAD_REACTORS
330
C
102
}
330
C
100
AcDbDictionary
281
     1
  3
Normal
350
F
100
AcDbDictionaryWithDefault
340
F
  0
XRECORD
  5
6D5E
102
{ACAD_REACTORS
330
C
102
}
330
C
100
AcDbXrecord
 90
   990106
  3

 60
     0
 61
     0
 62
     1
 63
     3
 64
     0
 65
     0
 66
     0
 67
     3
 68
     1
 69
     0
 70
     0
 71
     0
 72
     0
 40
0.0
170
     0
340
7CA9
  0
DICTIONARY
  5
9108
102
{ACAD_REACTORS
330
C
102
}
330
C
100
AcDbDictionary
  3
CEPSNTYPE
350
9112
  3
DIMSTYLEDATA
350
9116
  3
FINGERPRINTGUID
350
9113
  3
HYPERLINKBASE
350
910B
  3
INSUNITS
350
9111
  3
LAYOUTDICT
350
910D
  3
LWETCUNION
350
9110
  3
PLOTSETDICT
350
910E
  3
PLOTSTYLNAMDICT
350
910F
  3
PSVPSCALE
350
9115
  3
PUCSBASE
350
9119
  3
PUCSORGBACK
350
911F
  3
PUCSORGBOTTOM
350
911B
  3
PUCSORGFRONT
350
911E
  3
PUCSORGLEFT
350
911C
  3
PUCSORGRIGHT
350
911D
  3
PUCSORGTOP
350
911A
  3
PUCSORTHOREF
350
9117
  3
PUCSORTHOVIEW
350
9118
  3
STYLESHEET
350
910C
  3
TSTACKALIGN
350
9109
  3
TSTACKSIZE
350
910A
  3
UCSBASE
350
9122
  3
UCSORGBACK
350
9128
  3
UCSORGBOTTOM
350
9124
  3
UCSORGFRONT
350
9127
  3
UCSORGLEFT
350
9125
  3
UCSORGRIGHT
350
9126
  3
UCSORGTOP
350
9123
  3
UCSORTHOREF
350
9120
  3
UCSORTHOVIEW
350
9121
  3
VERSIONGUID
350
9114
  0
DICTIONARY
  5
5697
102
{ACAD_REACTORS
330
C
102
}
330
C
100
AcDbDictionary
  3
DIMASSOC
350
5698
  0
XRECORD
  5
912A
102
{ACAD_REACTORS
330
178
102
}
330
178
100
AcDbXrecord
340
1E
  0
XRECORD
  5
9129
102
{ACAD_REACTORS
330
17A
102
}
330
17A
100
AcDbXrecord
340
1A
  0
MLINESTYLE
  5
17
102
{ACAD_REACTORS
330
16
102
}
330
16
100
AcDbMlineStyle
  2
STANDARD
 70
     0
  3

 62
   256
 51
90.0
 52
90.0
 71
     2
 49
0.5
 62
   256
  6
BYLAYER
 49
-0.5
 62
   256
  6
BYLAYER
  0
ACDBPLACEHOLDER
  5
F
102
{ACAD_REACTORS
330
E
102
}
330
E
100
AcDbPlaceHolder
280
     0
  0
XRECORD
  5
9112
102
{ACAD_REACTORS
330
9108
102
}
330
9108
100
AcDbXrecord
 90
        0
  0
XRECORD
  5
9116
102
{ACAD_REACTORS
330
9108
102
}
330
9108
100
AcDbXrecord
1000
DSTYLE
1002
{
1070
    79
 70
     3
1070
   341
340
3B2
1070
   342
340
3B2
1002
}
  0
XRECORD
  5
9113
102
{ACAD_REACTORS
330
9108
102
}
330
9108
100
AcDbXrecord
  1

  0
XRECORD
  5
910B
102
{ACAD_REACTORS
330
9108
102
}
330
9108
100
AcDbXrecord
  1

  0
XRECORD
  5
9111
102
{ACAD_REACTORS
330
9108
102
}
330
9108
100
AcDbXrecord
 90
        0
  0
XRECORD
  5
910D
102
{ACAD_REACTORS
330
9108
102
}
330
9108
100
AcDbXrecord
340
19
  0
XRECORD
  5
9110
102
{ACAD_REACTORS
330
9108
102
}
330
9108
100
AcDbXrecord
 90
    10781
  0
XRECORD
  5
910E
102
{ACAD_REACTORS
330
9108
102
}
330
9108
100
AcDbXrecord
340
18
  0
XRECORD
  5
910F
102
{ACAD_REACTORS
330
9108
102
}
330
9108
100
AcDbXrecord
340
E
  0
XRECORD
  5
9115
102
{ACAD_REACTORS
330
9108
102
}
330
9108
100
AcDbXrecord
 40
0.0
  0
XRECORD
  5
9119
102
{ACAD_REACTORS
330
9108
102
}
330
9108
100
AcDbXrecord
340
0
  0
XRECORD
  5
911F
102
{ACAD_REACTORS
330
9108
102
}
330
9108
100
AcDbXrecord
 10
0.0
 20
0.0
 30
0.0
  0
XRECORD
  5
911B
102
{ACAD_REACTORS
330
9108
102
}
330
9108
100
AcDbXrecord
 10
0.0
 20
0.0
 30
0.0
  0
XRECORD
  5
911E
102
{ACAD_REACTORS
330
9108
102
}
330
9108
100
AcDbXrecord
 10
0.0
 20
0.0
 30
0.0
  0
XRECORD
  5
911C
102
{ACAD_REACTORS
330
9108
102
}
330
9108
100
AcDbXrecord
 10
0.0
 20
0.0
 30
0.0
  0
XRECORD
  5
911D
102
{ACAD_REACTORS
330
9108
102
}
330
9108
100
AcDbXrecord
 10
0.0
 20
0.0
 30
0.0
  0
XRECORD
  5
911A
102
{ACAD_REACTORS
330
9108
102
}
330
9108
100
AcDbXrecord
 10
0.0
 20
0.0
 30
0.0
  0
XRECORD
  5
9117
102
{ACAD_REACTORS
330
9108
102
}
330
9108
100
AcDbXrecord
340
0
  0
XRECORD
  5
9118
102
{ACAD_REACTORS
330
9108
102
}
330
9108
100
AcDbXrecord
 70
     0
  0
XRECORD
  5
910C
102
{ACAD_REACTORS
330
9108
102
}
330
9108
100
AcDbXrecord
  1
kiki.ctb
  0
XRECORD
  5
9109
102
{ACAD_REACTORS
330
9108
102
}
330
9108
100
AcDbXrecord
 90
        1
  0
XRECORD
  5
910A
102
{ACAD_REACTORS
330
9108
102
}
330
9108
100
AcDbXrecord
 90
       70
  0
XRECORD
  5
9122
102
{ACAD_REACTORS
330
9108
102
}
330
9108
100
AcDbXrecord
340
0
  0
XRECORD
  5
9128
102
{ACAD_REACTORS
330
9108
102
}
330
9108
100
AcDbXrecord
 10
0.0
 20
0.0
 30
0.0
  0
XRECORD
  5
9124
102
{ACAD_REACTORS
330
9108
102
}
330
9108
100
AcDbXrecord
 10
0.0
 20
0.0
 30
0.0
  0
XRECORD
  5
9127
102
{ACAD_REACTORS
330
9108
102
}
330
9108
100
AcDbXrecord
 10
0.0
 20
0.0
 30
0.0
  0
XRECORD
  5
9125
102
{ACAD_REACTORS
330
9108
102
}
330
9108
100
AcDbXrecord
 10
0.0
 20
0.0
 30
0.0
  0
XRECORD
  5
9126
102
{ACAD_REACTORS
330
9108
102
}
330
9108
100
AcDbXrecord
 10
0.0
 20
0.0
 30
0.0
  0
XRECORD
  5
9123
102
{ACAD_REACTORS
330
9108
102
}
330
9108
100
AcDbXrecord
 10
0.0
 20
0.0
 30
0.0
  0
XRECORD
  5
9120
102
{ACAD_REACTORS
330
9108
102
}
330
9108
100
AcDbXrecord
340
0
  0
XRECORD
  5
9121
102
{ACAD_REACTORS
330
9108
102
}
330
9108
100
AcDbXrecord
 70
     0
  0
XRECORD
  5
9114
102
{ACAD_REACTORS
330
9108
102
}
330
9108
100
AcDbXrecord
  1
{EF213095-DFEE-4918-816C-34292EB1FE59}
  0
DICTIONARYVAR
  5
5698
102
{ACAD_REACTORS
330
5697
102
}
330
5697
100
DictionaryVariables
280
     0
  1
1
  0
ENDSEC
  0
EOF
