  0
SECTION
  2
HEADER
  9
$ACADVER
  1
AC1014
  9
$ACADMAINTVER
 70
     9
  9
$DWGCODEPAGE
  3
ANSI_932
  9
$INSBASE
 10
0.0
 20
0.0
 30
0.0
  9
$EXTMIN
 10
-125.9317721970335
 20
-519.2040664304705
 30
0.0
  9
$EXTMAX
 10
399.7122762463085
 20
410.251144283447
 30
0.0
  9
$LIMMIN
 10
-296.316999476111
 20
-370.7034300441653
  9
$LIMMAX
 10
623.3128432133979
 20
328.6261559379898
  9
$ORTHOMODE
 70
     1
  9
$REGENMODE
 70
     1
  9
$FILLMODE
 70
     1
  9
$QTEXTMODE
 70
     0
  9
$MIRRTEXT
 70
     1
  9
$DRAGMODE
 70
     2
  9
$LTSCALE
 40
10.0
  9
$OSMODE
 70
    39
  9
$ATTMODE
 70
     1
  9
$TEXTSIZE
 40
5.0
  9
$TRACEWID
 40
0.05
  9
$TEXTSTYLE
  7
STANDARD1
  9
$CLAYER
  8
30
  9
$CELTYPE
  6
CONTINUOUS
  9
$CECOLOR
 62
   256
  9
$CELTSCALE
 40
1.0
  9
$DELOBJ
 70
     1
  9
$DISPSILH
 70
     0
  9
$DIMSCALE
 40
1.0
  9
$DIMASZ
 40
2.0
  9
$DIMEXO
 40
1.0
  9
$DIMDLI
 40
0.5
  9
$DIMRND
 40
0.0
  9
$DIMDLE
 40
0.0
  9
$DIMEXE
 40
0.5
  9
$DIMTP
 40
0.0
  9
$DIMTM
 40
0.0
  9
$DIMTXT
 40
4.0
  9
$DIMCEN
 40
0.09
  9
$DIMTSZ
 40
0.0
  9
$DIMTOL
 70
     0
  9
$DIMLIM
 70
     0
  9
$DIMTIH
 70
     0
  9
$DIMTOH
 70
     1
  9
$DIMSE1
 70
     0
  9
$DIMSE2
 70
     0
  9
$DIMTAD
 70
     3
  9
$DIMZIN
 70
    12
  9
$DIMBLK
  1
OPEN
  9
$DIMASO
 70
     1
  9
$DIMSHO
 70
     1
  9
$DIMPOST
  1

  9
$DIMAPOST
  1

  9
$DIMALT
 70
     0
  9
$DIMALTD
 70
     2
  9
$DIMALTF
 40
25.4
  9
$DIMLFAC
 40
1.0
  9
$DIMTOFL
 70
     0
  9
$DIMTVP
 40
0.0
  9
$DIMTIX
 70
     0
  9
$DIMSOXD
 70
     0
  9
$DIMSAH
 70
     0
  9
$DIMBLK1
  1

  9
$DIMBLK2
  1

  9
$DIMSTYLE
  2
STANDARD
  9
$DIMCLRD
 70
     0
  9
$DIMCLRE
 70
     0
  9
$DIMCLRT
 70
     0
  9
$DIMTFAC
 40
1.0
  9
$DIMGAP
 40
1.0
  9
$DIMJUST
 70
     0
  9
$DIMSD1
 70
     0
  9
$DIMSD2
 70
     0
  9
$DIMTOLJ
 70
     1
  9
$DIMTZIN
 70
     0
  9
$DIMALTZ
 70
     0
  9
$DIMALTTZ
 70
     0
  9
$DIMFIT
 70
     3
  9
$DIMUPT
 70
     0
  9
$DIMUNIT
 70
     2
  9
$DIMDEC
 70
     1
  9
$DIMTDEC
 70
     1
  9
$DIMALTU
 70
     2
  9
$DIMALTTD
 70
     2
  9
$DIMTXSTY
  7
STANDARD
  9
$DIMAUNIT
 70
     0
  9
$LUNITS
 70
     2
  9
$LUPREC
 70
     4
  9
$SKETCHINC
 40
0.1
  9
$FILLETRAD
 40
0.0
  9
$AUNITS
 70
     0
  9
$AUPREC
 70
     0
  9
$MENU
  1
.
  9
$ELEVATION
 40
0.0
  9
$PELEVATION
 40
0.0
  9
$THICKNESS
 40
0.0
  9
$LIMCHECK
 70
     0
  9
$BLIPMODE
 70
     0
  9
$CHAMFERA
 40
0.0
  9
$CHAMFERB
 40
0.0
  9
$CHAMFERC
 40
0.0
  9
$CHAMFERD
 40
0.0
  9
$SKPOLY
 70
     0
  9
$TDCREATE
 40
2452286.555658657
  9
$TDUPDATE
 40
2453187.671550555
  9
$TDINDWG
 40
1.3287190625
  9
$TDUSRTIMER
 40
1.3287166782
  9
$USRTIMER
 70
     1
  9
$ANGBASE
 50
0.0
  9
$ANGDIR
 70
     0
  9
$PDMODE
 70
     0
  9
$PDSIZE
 40
0.0
  9
$PLINEWID
 40
0.0
  9
$COORDS
 70
     0
  9
$SPLFRAME
 70
     0
  9
$SPLINETYPE
 70
     6
  9
$SPLINESEGS
 70
     8
  9
$ATTDIA
 70
     0
  9
$ATTREQ
 70
     0
  9
$HANDLING
 70
 22529
  9
$HANDSEED
  5
8C15
  9
$SURFTAB1
 70
     6
  9
$SURFTAB2
 70
     6
  9
$SURFTYPE
 70
     6
  9
$SURFU
 70
     6
  9
$SURFV
 70
     6
  9
$UCSNAME
  2

  9
$UCSORG
 10
0.0
 20
0.0
 30
0.0
  9
$UCSXDIR
 10
1.0
 20
0.0
 30
0.0
  9
$UCSYDIR
 10
0.0
 20
1.0
 30
0.0
  9
$PUCSNAME
  2

  9
$PUCSORG
 10
0.0
 20
0.0
 30
0.0
  9
$PUCSXDIR
 10
1.0
 20
0.0
 30
0.0
  9
$PUCSYDIR
 10
0.0
 20
1.0
 30
0.0
  9
$USERI1
 70
     0
  9
$USERI2
 70
     0
  9
$USERI3
 70
     0
  9
$USERI4
 70
     0
  9
$USERI5
 70
     0
  9
$USERR1
 40
0.0
  9
$USERR2
 40
0.0
  9
$USERR3
 40
0.0
  9
$USERR4
 40
0.0
  9
$USERR5
 40
0.0
  9
$WORLDVIEW
 70
     1
  9
$SHADEDGE
 70
     3
  9
$SHADEDIF
 70
    70
  9
$TILEMODE
 70
     1
  9
$MAXACTVP
 70
    48
  9
$PINSBASE
 10
0.0
 20
0.0
 30
0.0
  9
$PLIMCHECK
 70
     0
  9
$PEXTMIN
 10
4.273573
 20
5.205245999999998
 30
0.0
  9
$PEXTMAX
 10
194.610095
 20
283.0697009999996
 30
0.0
  9
$PLIMMIN
 10
-5.873749
 20
-5.87375
  9
$PLIMMAX
 10
204.099579
 20
291.1369009999999
  9
$UNITMODE
 70
     0
  9
$VISRETAIN
 70
     1
  9
$PLINEGEN
 70
     0
  9
$PSLTSCALE
 70
     1
  9
$TREEDEPTH
 70
  3020
  9
$PICKSTYLE
 70
     1
  9
$CMLSTYLE
  2
STANDARD
  9
$CMLJUST
 70
     0
  9
$CMLSCALE
 40
1.0
  9
$PROXYGRAPHICS
 70
     1
  9
$MEASUREMENT
 70
     0
  0
ENDSEC
  0
SECTION
  2
CLASSES
  0
CLASS
  1
ACDBDICTIONARYWDFLT
  2
AcDbDictionaryWithDefault
  3
AutoCAD 2000
 90
        0
280
     0
281
     0
  0
CLASS
  1
ACDBPLACEHOLDER
  2
AcDbPlaceHolder
  3
AutoCAD 2000
 90
        0
280
     0
281
     0
  0
CLASS
  1
LAYOUT
  2
AcDbLayout
  3
AutoCAD 2000
 90
        0
280
     0
281
     0
  0
CLASS
  1
LONG_TRANSACTION
  2
AcDbLongTransaction
  3
AutoCAD 2000
 90
        0
280
     0
281
     0
  0
CLASS
  1
LWPOLYLINE
  2
AcDbPolyline
  3
AutoCAD 2000
 90
        0
280
     0
281
     1
  0
CLASS
  1
HATCH
  2
AcDbHatch
  3
AutoCAD 2000
 90
        0
280
     0
281
     1
  0
CLASS
  1
XRECORD
  2
AcDbXrecord
  3
AutoCAD 2000
 90
        0
280
     0
281
     0
  0
CLASS
  1
LONG_TRANSACTION
  2
AcDbLongTransaction
  3
AutoCAD 2000
 90
        0
280
     0
281
     0
  0
CLASS
  1
LWPOLYLINE
  2
AcDbPolyline
  3
AutoCAD 2000
 90
        0
280
     0
281
     1
  0
CLASS
  1
HATCH
  2
AcDbHatch
  3
AutoCAD 2000
 90
        0
280
     0
281
     1
  0
CLASS
  1
XRECORD
  2
AcDbXrecord
  3
AutoCAD 2000
 90
        0
280
     0
281
     0
  0
CLASS
  1
LONG_TRANSACTION
  2
AcDbLongTransaction
  3
AutoCAD 2000
 90
        0
280
     0
281
     0
  0
CLASS
  1
LWPOLYLINE
  2
AcDbPolyline
  3
AutoCAD 2000
 90
        0
280
     0
281
     1
  0
CLASS
  1
HATCH
  2
AcDbHatch
  3
AutoCAD 2000
 90
        0
280
     0
281
     1
  0
CLASS
  1
XRECORD
  2
AcDbXrecord
  3
AutoCAD 2000
 90
        0
280
     0
281
     0
  0
CLASS
  1
LONG_TRANSACTION
  2
AcDbLongTransaction
  3
AutoCAD 2000
 90
        0
280
     0
281
     0
  0
CLASS
  1
LWPOLYLINE
  2
AcDbPolyline
  3
AutoCAD 2000
 90
        0
280
     0
281
     1
  0
CLASS
  1
HATCH
  2
AcDbHatch
  3
AutoCAD 2000
 90
        0
280
     0
281
     1
  0
CLASS
  1
XRECORD
  2
AcDbXrecord
  3
AutoCAD 2000
 90
        0
280
     0
281
     0
  0
CLASS
  1
LONG_TRANSACTION
  2
AcDbLongTransaction
  3
AutoCAD 2000
 90
        0
280
     0
281
     0
  0
CLASS
  1
LWPOLYLINE
  2
AcDbPolyline
  3
AutoCAD 2000
 90
        0
280
     0
281
     1
  0
CLASS
  1
HATCH
  2
AcDbHatch
  3
AutoCAD 2000
 90
        0
280
     0
281
     1
  0
CLASS
  1
XRECORD
  2
AcDbXrecord
  3
AutoCAD 2000
 90
        0
280
     0
281
     0
  0
CLASS
  1
LONG_TRANSACTION
  2
AcDbLongTransaction
  3
AutoCAD 2000
 90
        0
280
     0
281
     0
  0
CLASS
  1
LWPOLYLINE
  2
AcDbPolyline
  3
AutoCAD 2000
 90
        0
280
     0
281
     1
  0
CLASS
  1
HATCH
  2
AcDbHatch
  3
AutoCAD 2000
 90
        0
280
     0
281
     1
  0
CLASS
  1
XRECORD
  2
AcDbXrecord
  3
AutoCAD 2000
 90
        0
280
     0
281
     0
  0
CLASS
  1
LONG_TRANSACTION
  2
AcDbLongTransaction
  3
AutoCAD 2000
 90
        0
280
     0
281
     0
  0
CLASS
  1
LWPOLYLINE
  2
AcDbPolyline
  3
AutoCAD 2000
 90
        0
280
     0
281
     1
  0
CLASS
  1
HATCH
  2
AcDbHatch
  3
AutoCAD 2000
 90
        0
280
     0
281
     1
  0
CLASS
  1
XRECORD
  2
AcDbXrecord
  3
AutoCAD 2000
 90
        0
280
     0
281
     0
  0
CLASS
  1
LONG_TRANSACTION
  2
AcDbLongTransaction
  3
AutoCAD 2000
 90
        0
280
     0
281
     0
  0
CLASS
  1
LWPOLYLINE
  2
AcDbPolyline
  3
AutoCAD 2000
 90
        0
280
     0
281
     1
  0
CLASS
  1
HATCH
  2
AcDbHatch
  3
AutoCAD 2000
 90
        0
280
     0
281
     1
  0
CLASS
  1
XRECORD
  2
AcDbXrecord
  3
AutoCAD 2000
 90
        0
280
     0
281
     0
  0
CLASS
  1
LONG_TRANSACTION
  2
AcDbLongTransaction
  3
AutoCAD 2000
 90
        0
280
     0
281
     0
  0
CLASS
  1
LWPOLYLINE
  2
AcDbPolyline
  3
AutoCAD 2000
 90
        0
280
     0
281
     1
  0
CLASS
  1
HATCH
  2
AcDbHatch
  3
AutoCAD 2000
 90
        0
280
     0
281
     1
  0
CLASS
  1
XRECORD
  2
AcDbXrecord
  3
AutoCAD 2000
 90
        0
280
     0
281
     0
  0
CLASS
  1
LONG_TRANSACTION
  2
AcDbLongTransaction
  3
AutoCAD 2000
 90
        0
280
     0
281
     0
  0
CLASS
  1
LWPOLYLINE
  2
AcDbPolyline
  3
AutoCAD 2000
 90
        0
280
     0
281
     1
  0
CLASS
  1
HATCH
  2
AcDbHatch
  3
AutoCAD 2000
 90
        0
280
     0
281
     1
  0
CLASS
  1
XRECORD
  2
AcDbXrecord
  3
AutoCAD 2000
 90
        0
280
     0
281
     0
  0
CLASS
  1
LONG_TRANSACTION
  2
AcDbLongTransaction
  3
AutoCAD 2000
 90
        0
280
     0
281
     0
  0
CLASS
  1
LWPOLYLINE
  2
AcDbPolyline
  3
AutoCAD 2000
 90
        0
280
     0
281
     1
  0
CLASS
  1
HATCH
  2
AcDbHatch
  3
AutoCAD 2000
 90
        0
280
     0
281
     1
  0
CLASS
  1
XRECORD
  2
AcDbXrecord
  3
AutoCAD 2000
 90
        0
280
     0
281
     0
  0
CLASS
  1
LONG_TRANSACTION
  2
AcDbLongTransaction
  3
AutoCAD 2000
 90
        0
280
     0
281
     0
  0
CLASS
  1
LWPOLYLINE
  2
AcDbPolyline
  3
AutoCAD 2000
 90
        0
280
     0
281
     1
  0
CLASS
  1
HATCH
  2
AcDbHatch
  3
AutoCAD 2000
 90
        0
280
     0
281
     1
  0
CLASS
  1
XRECORD
  2
AcDbXrecord
  3
AutoCAD 2000
 90
        0
280
     0
281
     0
  0
CLASS
  1
LONG_TRANSACTION
  2
AcDbLongTransaction
  3
AutoCAD 2000
 90
        0
280
     0
281
     0
  0
CLASS
  1
LWPOLYLINE
  2
AcDbPolyline
  3
AutoCAD 2000
 90
        0
280
     0
281
     1
  0
CLASS
  1
HATCH
  2
AcDbHatch
  3
AutoCAD 2000
 90
        0
280
     0
281
     1
  0
CLASS
  1
XRECORD
  2
AcDbXrecord
  3
AutoCAD 2000
 90
        0
280
     0
281
     0
  0
CLASS
  1
LONG_TRANSACTION
  2
AcDbLongTransaction
  3
AutoCAD 2000
 90
        0
280
     0
281
     0
  0
CLASS
  1
LWPOLYLINE
  2
AcDbPolyline
  3
AutoCAD 2000
 90
        0
280
     0
281
     1
  0
CLASS
  1
HATCH
  2
AcDbHatch
  3
AutoCAD 2000
 90
        0
280
     0
281
     1
  0
CLASS
  1
XRECORD
  2
AcDbXrecord
  3
AutoCAD 2000
 90
        0
280
     0
281
     0
  0
CLASS
  1
LONG_TRANSACTION
  2
AcDbLongTransaction
  3
AutoCAD 2000
 90
        0
280
     0
281
     0
  0
CLASS
  1
LWPOLYLINE
  2
AcDbPolyline
  3
AutoCAD 2000
 90
        0
280
     0
281
     1
  0
CLASS
  1
HATCH
  2
AcDbHatch
  3
AutoCAD 2000
 90
        0
280
     0
281
     1
  0
CLASS
  1
XRECORD
  2
AcDbXrecord
  3
AutoCAD 2000
 90
        0
280
     0
281
     0
  0
CLASS
  1
LONG_TRANSACTION
  2
AcDbLongTransaction
  3
AutoCAD 2000
 90
        0
280
     0
281
     0
  0
CLASS
  1
LWPOLYLINE
  2
AcDbPolyline
  3
AutoCAD 2000
 90
        0
280
     0
281
     1
  0
CLASS
  1
HATCH
  2
AcDbHatch
  3
AutoCAD 2000
 90
        0
280
     0
281
     1
  0
CLASS
  1
XRECORD
  2
AcDbXrecord
  3
AutoCAD 2000
 90
        0
280
     0
281
     0
  0
CLASS
  1
LONG_TRANSACTION
  2
AcDbLongTransaction
  3
AutoCAD 2000
 90
        0
280
     0
281
     0
  0
CLASS
  1
LWPOLYLINE
  2
AcDbPolyline
  3
AutoCAD 2000
 90
        0
280
     0
281
     1
  0
CLASS
  1
HATCH
  2
AcDbHatch
  3
AutoCAD 2000
 90
        0
280
     0
281
     1
  0
CLASS
  1
XRECORD
  2
AcDbXrecord
  3
AutoCAD 2000
 90
        0
280
     0
281
     0
  0
CLASS
  1
LONG_TRANSACTION
  2
AcDbLongTransaction
  3
AutoCAD 2000
 90
        0
280
     0
281
     0
  0
CLASS
  1
LWPOLYLINE
  2
AcDbPolyline
  3
AutoCAD 2000
 90
        0
280
     0
281
     1
  0
CLASS
  1
HATCH
  2
AcDbHatch
  3
AutoCAD 2000
 90
        0
280
     0
281
     1
  0
CLASS
  1
XRECORD
  2
AcDbXrecord
  3
AutoCAD 2000
 90
        0
280
     0
281
     0
  0
CLASS
  1
LONG_TRANSACTION
  2
AcDbLongTransaction
  3
AutoCAD 2000
 90
        0
280
     0
281
     0
  0
CLASS
  1
LWPOLYLINE
  2
AcDbPolyline
  3
AutoCAD 2000
 90
        0
280
     0
281
     1
  0
CLASS
  1
HATCH
  2
AcDbHatch
  3
AutoCAD 2000
 90
        0
280
     0
281
     1
  0
CLASS
  1
XRECORD
  2
AcDbXrecord
  3
AutoCAD 2000
 90
        0
280
     0
281
     0
  0
CLASS
  1
LONG_TRANSACTION
  2
AcDbLongTransaction
  3
AutoCAD 2000
 90
        0
280
     0
281
     0
  0
CLASS
  1
LWPOLYLINE
  2
AcDbPolyline
  3
AutoCAD 2000
 90
        0
280
     0
281
     1
  0
CLASS
  1
HATCH
  2
AcDbHatch
  3
AutoCAD 2000
 90
        0
280
     0
281
     1
  0
CLASS
  1
XRECORD
  2
AcDbXrecord
  3
AutoCAD 2000
 90
        0
280
     0
281
     0
  0
CLASS
  1
LONG_TRANSACTION
  2
AcDbLongTransaction
  3
AutoCAD 2000
 90
        0
280
     0
281
     0
  0
CLASS
  1
LWPOLYLINE
  2
AcDbPolyline
  3
AutoCAD 2000
 90
        0
280
     0
281
     1
  0
CLASS
  1
HATCH
  2
AcDbHatch
  3
AutoCAD 2000
 90
        0
280
     0
281
     1
  0
CLASS
  1
XRECORD
  2
AcDbXrecord
  3
AutoCAD 2000
 90
        0
280
     0
281
     0
  0
CLASS
  1
LONG_TRANSACTION
  2
AcDbLongTransaction
  3
AutoCAD 2000
 90
        0
280
     0
281
     0
  0
CLASS
  1
LWPOLYLINE
  2
AcDbPolyline
  3
AutoCAD 2000
 90
        0
280
     0
281
     1
  0
CLASS
  1
HATCH
  2
AcDbHatch
  3
AutoCAD 2000
 90
        0
280
     0
281
     1
  0
CLASS
  1
XRECORD
  2
AcDbXrecord
  3
AutoCAD 2000
 90
        0
280
     0
281
     0
  0
CLASS
  1
LONG_TRANSACTION
  2
AcDbLongTransaction
  3
AutoCAD 2000
 90
        0
280
     0
281
     0
  0
CLASS
  1
LWPOLYLINE
  2
AcDbPolyline
  3
AutoCAD 2000
 90
        0
280
     0
281
     1
  0
CLASS
  1
HATCH
  2
AcDbHatch
  3
AutoCAD 2000
 90
        0
280
     0
281
     1
  0
CLASS
  1
XRECORD
  2
AcDbXrecord
  3
AutoCAD 2000
 90
        0
280
     0
281
     0
  0
CLASS
  1
LONG_TRANSACTION
  2
AcDbLongTransaction
  3
AutoCAD 2000
 90
        0
280
     0
281
     0
  0
CLASS
  1
LWPOLYLINE
  2
AcDbPolyline
  3
AutoCAD 2000
 90
        0
280
     0
281
     1
  0
CLASS
  1
HATCH
  2
AcDbHatch
  3
AutoCAD 2000
 90
        0
280
     0
281
     1
  0
CLASS
  1
XRECORD
  2
AcDbXrecord
  3
AutoCAD 2000
 90
        0
280
     0
281
     0
  0
CLASS
  1
LONG_TRANSACTION
  2
AcDbLongTransaction
  3
AutoCAD 2000
 90
        0
280
     0
281
     0
  0
CLASS
  1
LWPOLYLINE
  2
AcDbPolyline
  3
AutoCAD 2000
 90
        0
280
     0
281
     1
  0
CLASS
  1
HATCH
  2
AcDbHatch
  3
AutoCAD 2000
 90
        0
280
     0
281
     1
  0
CLASS
  1
XRECORD
  2
AcDbXrecord
  3
AutoCAD 2000
 90
        0
280
     0
281
     0
  0
CLASS
  1
LONG_TRANSACTION
  2
AcDbLongTransaction
  3
AutoCAD 2000
 90
        0
280
     0
281
     0
  0
CLASS
  1
LWPOLYLINE
  2
AcDbPolyline
  3
AutoCAD 2000
 90
        0
280
     0
281
     1
  0
CLASS
  1
HATCH
  2
AcDbHatch
  3
AutoCAD 2000
 90
        0
280
     0
281
     1
  0
CLASS
  1
XRECORD
  2
AcDbXrecord
  3
AutoCAD 2000
 90
        0
280
     0
281
     0
  0
CLASS
  1
LONG_TRANSACTION
  2
AcDbLongTransaction
  3
AutoCAD 2000
 90
        0
280
     0
281
     0
  0
CLASS
  1
LWPOLYLINE
  2
AcDbPolyline
  3
AutoCAD 2000
 90
        0
280
     0
281
     1
  0
CLASS
  1
HATCH
  2
AcDbHatch
  3
AutoCAD 2000
 90
        0
280
     0
281
     1
  0
CLASS
  1
XRECORD
  2
AcDbXrecord
  3
AutoCAD 2000
 90
        0
280
     0
281
     0
  0
CLASS
  1
LONG_TRANSACTION
  2
AcDbLongTransaction
  3
AutoCAD 2000
 90
        0
280
     0
281
     0
  0
CLASS
  1
LWPOLYLINE
  2
AcDbPolyline
  3
AutoCAD 2000
 90
        0
280
     0
281
     1
  0
CLASS
  1
HATCH
  2
AcDbHatch
  3
AutoCAD 2000
 90
        0
280
     0
281
     1
  0
CLASS
  1
XRECORD
  2
AcDbXrecord
  3
AutoCAD 2000
 90
        0
280
     0
281
     0
  0
CLASS
  1
LONG_TRANSACTION
  2
AcDbLongTransaction
  3
AutoCAD 2000
 90
        0
280
     0
281
     0
  0
CLASS
  1
LWPOLYLINE
  2
AcDbPolyline
  3
AutoCAD 2000
 90
        0
280
     0
281
     1
  0
CLASS
  1
HATCH
  2
AcDbHatch
  3
AutoCAD 2000
 90
        0
280
     0
281
     1
  0
CLASS
  1
XRECORD
  2
AcDbXrecord
  3
AutoCAD 2000
 90
        0
280
     0
281
     0
  0
CLASS
  1
LONG_TRANSACTION
  2
AcDbLongTransaction
  3
AutoCAD 2000
 90
        0
280
     0
281
     0
  0
CLASS
  1
LWPOLYLINE
  2
AcDbPolyline
  3
AutoCAD 2000
 90
        0
280
     0
281
     1
  0
CLASS
  1
HATCH
  2
AcDbHatch
  3
AutoCAD 2000
 90
        0
280
     0
281
     1
  0
CLASS
  1
XRECORD
  2
AcDbXrecord
  3
AutoCAD 2000
 90
        0
280
     0
281
     0
  0
CLASS
  1
LONG_TRANSACTION
  2
AcDbLongTransaction
  3
AutoCAD 2000
 90
        0
280
     0
281
     0
  0
CLASS
  1
LWPOLYLINE
  2
AcDbPolyline
  3
AutoCAD 2000
 90
        0
280
     0
281
     1
  0
CLASS
  1
HATCH
  2
AcDbHatch
  3
AutoCAD 2000
 90
        0
280
     0
281
     1
  0
CLASS
  1
XRECORD
  2
AcDbXrecord
  3
AutoCAD 2000
 90
        0
280
     0
281
     0
  0
CLASS
  1
LONG_TRANSACTION
  2
AcDbLongTransaction
  3
AutoCAD 2000
 90
        0
280
     0
281
     0
  0
CLASS
  1
LWPOLYLINE
  2
AcDbPolyline
  3
AutoCAD 2000
 90
        0
280
     0
281
     1
  0
CLASS
  1
HATCH
  2
AcDbHatch
  3
AutoCAD 2000
 90
        0
280
     0
281
     1
  0
CLASS
  1
XRECORD
  2
AcDbXrecord
  3
AutoCAD 2000
 90
        0
280
     0
281
     0
  0
CLASS
  1
LONG_TRANSACTION
  2
AcDbLongTransaction
  3
AutoCAD 2000
 90
        0
280
     0
281
     0
  0
CLASS
  1
LWPOLYLINE
  2
AcDbPolyline
  3
AutoCAD 2000
 90
        0
280
     0
281
     1
  0
CLASS
  1
HATCH
  2
AcDbHatch
  3
AutoCAD 2000
 90
        0
280
     0
281
     1
  0
CLASS
  1
XRECORD
  2
AcDbXrecord
  3
AutoCAD 2000
 90
        0
280
     0
281
     0
  0
CLASS
  1
DICTIONARYVAR
  2
AcDbDictionaryVar
  3
AutoCAD 2000
 90
        0
280
     0
281
     0
  0
CLASS
  1
LONG_TRANSACTION
  2
AcDbLongTransaction
  3
AutoCAD 2000
 90
        0
280
     0
281
     0
  0
CLASS
  1
LWPOLYLINE
  2
AcDbPolyline
  3
AutoCAD 2000
 90
        0
280
     0
281
     1
  0
CLASS
  1
HATCH
  2
AcDbHatch
  3
AutoCAD 2000
 90
        0
280
     0
281
     1
  0
CLASS
  1
XRECORD
  2
AcDbXrecord
  3
AutoCAD 2000
 90
        0
280
     0
281
     0
  0
CLASS
  1
LONG_TRANSACTION
  2
AcDbLongTransaction
  3
AutoCAD 2000
 90
        0
280
     0
281
     0
  0
CLASS
  1
LWPOLYLINE
  2
AcDbPolyline
  3
AutoCAD 2000
 90
        0
280
     0
281
     1
  0
CLASS
  1
HATCH
  2
AcDbHatch
  3
AutoCAD 2000
 90
        0
280
     0
281
     1
  0
CLASS
  1
XRECORD
  2
AcDbXrecord
  3
AutoCAD 2000
 90
        0
280
     0
281
     0
  0
CLASS
  1
LONG_TRANSACTION
  2
AcDbLongTransaction
  3
AutoCAD 2000
 90
        0
280
     0
281
     0
  0
CLASS
  1
LWPOLYLINE
  2
AcDbPolyline
  3
AutoCAD 2000
 90
        0
280
     0
281
     1
  0
CLASS
  1
HATCH
  2
AcDbHatch
  3
AutoCAD 2000
 90
        0
280
     0
281
     1
  0
CLASS
  1
XRECORD
  2
AcDbXrecord
  3
AutoCAD 2000
 90
        0
280
     0
281
     0
  0
CLASS
  1
LONG_TRANSACTION
  2
AcDbLongTransaction
  3
AutoCAD 2000
 90
        0
280
     0
281
     0
  0
CLASS
  1
LWPOLYLINE
  2
AcDbPolyline
  3
AutoCAD 2000
 90
        0
280
     0
281
     1
  0
CLASS
  1
HATCH
  2
AcDbHatch
  3
AutoCAD 2000
 90
        0
280
     0
281
     1
  0
CLASS
  1
XRECORD
  2
AcDbXrecord
  3
AutoCAD 2000
 90
        0
280
     0
281
     0
  0
CLASS
  1
LONG_TRANSACTION
  2
AcDbLongTransaction
  3
AutoCAD 2000
 90
        0
280
     0
281
     0
  0
CLASS
  1
LWPOLYLINE
  2
AcDbPolyline
  3
AutoCAD 2000
 90
        0
280
     0
281
     1
  0
CLASS
  1
HATCH
  2
AcDbHatch
  3
AutoCAD 2000
 90
        0
280
     0
281
     1
  0
CLASS
  1
XRECORD
  2
AcDbXrecord
  3
AutoCAD 2000
 90
        0
280
     0
281
     0
  0
CLASS
  1
LONG_TRANSACTION
  2
AcDbLongTransaction
  3
AutoCAD 2000
 90
        0
280
     0
281
     0
  0
CLASS
  1
LWPOLYLINE
  2
AcDbPolyline
  3
AutoCAD 2000
 90
        0
280
     0
281
     1
  0
CLASS
  1
HATCH
  2
AcDbHatch
  3
AutoCAD 2000
 90
        0
280
     0
281
     1
  0
CLASS
  1
XRECORD
  2
AcDbXrecord
  3
AutoCAD 2000
 90
        0
280
     0
281
     0
  0
CLASS
  1
LONG_TRANSACTION
  2
AcDbLongTransaction
  3
AutoCAD 2000
 90
        0
280
     0
281
     0
  0
CLASS
  1
LWPOLYLINE
  2
AcDbPolyline
  3
AutoCAD 2000
 90
        0
280
     0
281
     1
  0
CLASS
  1
HATCH
  2
AcDbHatch
  3
AutoCAD 2000
 90
        0
280
     0
281
     1
  0
CLASS
  1
XRECORD
  2
AcDbXrecord
  3
AutoCAD 2000
 90
        0
280
     0
281
     0
  0
CLASS
  1
LONG_TRANSACTION
  2
AcDbLongTransaction
  3
AutoCAD 2000
 90
        0
280
     0
281
     0
  0
CLASS
  1
LWPOLYLINE
  2
AcDbPolyline
  3
AutoCAD 2000
 90
        0
280
     0
281
     1
  0
CLASS
  1
HATCH
  2
AcDbHatch
  3
AutoCAD 2000
 90
        0
280
     0
281
     1
  0
CLASS
  1
XRECORD
  2
AcDbXrecord
  3
AutoCAD 2000
 90
        0
280
     0
281
     0
  0
CLASS
  1
LONG_TRANSACTION
  2
AcDbLongTransaction
  3
AutoCAD 2000
 90
        0
280
     0
281
     0
  0
CLASS
  1
LWPOLYLINE
  2
AcDbPolyline
  3
AutoCAD 2000
 90
        0
280
     0
281
     1
  0
CLASS
  1
HATCH
  2
AcDbHatch
  3
AutoCAD 2000
 90
        0
280
     0
281
     1
  0
CLASS
  1
XRECORD
  2
AcDbXrecord
  3
AutoCAD 2000
 90
        0
280
     0
281
     0
  0
CLASS
  1
LONG_TRANSACTION
  2
AcDbLongTransaction
  3
AutoCAD 2000
 90
        0
280
     0
281
     0
  0
CLASS
  1
LWPOLYLINE
  2
AcDbPolyline
  3
AutoCAD 2000
 90
        0
280
     0
281
     1
  0
CLASS
  1
HATCH
  2
AcDbHatch
  3
AutoCAD 2000
 90
        0
280
     0
281
     1
  0
CLASS
  1
XRECORD
  2
AcDbXrecord
  3
AutoCAD 2000
 90
        0
280
     0
281
     0
  0
CLASS
  1
LONG_TRANSACTION
  2
AcDbLongTransaction
  3
AutoCAD 2000
 90
        0
280
     0
281
     0
  0
CLASS
  1
LWPOLYLINE
  2
AcDbPolyline
  3
AutoCAD 2000
 90
        0
280
     0
281
     1
  0
CLASS
  1
HATCH
  2
AcDbHatch
  3
AutoCAD 2000
 90
        0
280
     0
281
     1
  0
CLASS
  1
XRECORD
  2
AcDbXrecord
  3
AutoCAD 2000
 90
        0
280
     0
281
     0
  0
CLASS
  1
LONG_TRANSACTION
  2
AcDbLongTransaction
  3
AutoCAD 2000
 90
        0
280
     0
281
     0
  0
CLASS
  1
LWPOLYLINE
  2
AcDbPolyline
  3
AutoCAD 2000
 90
        0
280
     0
281
     1
  0
CLASS
  1
HATCH
  2
AcDbHatch
  3
AutoCAD 2000
 90
        0
280
     0
281
     1
  0
CLASS
  1
XRECORD
  2
AcDbXrecord
  3
AutoCAD 2000
 90
        0
280
     0
281
     0
  0
CLASS
  1
LONG_TRANSACTION
  2
AcDbLongTransaction
  3
AutoCAD 2000
 90
        0
280
     0
281
     0
  0
CLASS
  1
LWPOLYLINE
  2
AcDbPolyline
  3
AutoCAD 2000
 90
        0
280
     0
281
     1
  0
CLASS
  1
HATCH
  2
AcDbHatch
  3
AutoCAD 2000
 90
        0
280
     0
281
     1
  0
CLASS
  1
XRECORD
  2
AcDbXrecord
  3
AutoCAD 2000
 90
        0
280
     0
281
     0
  0
CLASS
  1
LONG_TRANSACTION
  2
AcDbLongTransaction
  3
AutoCAD 2000
 90
        0
280
     0
281
     0
  0
CLASS
  1
LWPOLYLINE
  2
AcDbPolyline
  3
AutoCAD 2000
 90
        0
280
     0
281
     1
  0
CLASS
  1
HATCH
  2
AcDbHatch
  3
AutoCAD 2000
 90
        0
280
     0
281
     1
  0
CLASS
  1
XRECORD
  2
AcDbXrecord
  3
AutoCAD 2000
 90
        0
280
     0
281
     0
  0
CLASS
  1
LONG_TRANSACTION
  2
AcDbLongTransaction
  3
AutoCAD 2000
 90
        0
280
     0
281
     0
  0
CLASS
  1
LWPOLYLINE
  2
AcDbPolyline
  3
AutoCAD 2000
 90
        0
280
     0
281
     1
  0
CLASS
  1
HATCH
  2
AcDbHatch
  3
AutoCAD 2000
 90
        0
280
     0
281
     1
  0
CLASS
  1
XRECORD
  2
AcDbXrecord
  3
AutoCAD 2000
 90
        0
280
     0
281
     0
  0
CLASS
  1
LONG_TRANSACTION
  2
AcDbLongTransaction
  3
AutoCAD 2000
 90
        0
280
     0
281
     0
  0
CLASS
  1
LWPOLYLINE
  2
AcDbPolyline
  3
AutoCAD 2000
 90
        0
280
     0
281
     1
  0
CLASS
  1
HATCH
  2
AcDbHatch
  3
AutoCAD 2000
 90
        0
280
     0
281
     1
  0
CLASS
  1
XRECORD
  2
AcDbXrecord
  3
AutoCAD 2000
 90
        0
280
     0
281
     0
  0
ENDSEC
  0
SECTION
  2
TABLES
  0
TABLE
  2
VPORT
  5
8
330
0
100
AcDbSymbolTable
 70
     3
  0
VPORT
  5
8BBB
330
8
100
AcDbSymbolTableRecord
100
AcDbViewportTableRecord
  2
*ACTIVE
 70
     0
 10
0.0
 20
0.0
 11
1.0
 21
1.0
 12
136.8713732814488
 22
-54.4764589094554
 13
0.0
 23
0.0
 14
1.0
 24
1.0
 15
10.0
 25
10.0
 16
0.0
 26
0.0
 36
1.0
 17
0.0
 27
0.0
 37
0.0
 40
937.0780362919369
 41
1.119047619047619
 42
50.0
 43
0.0
 44
0.0
 50
0.0
 51
0.0
 71
     0
 72
   100
 73
     1
 74
     1
 75
     0
 76
     0
 77
     0
 78
     0
  0
ENDTAB
  0
TABLE
  2
LTYPE
  5
5
330
0
100
AcDbSymbolTable
 70
     8
  0
LTYPE
  5
13
330
5
100
AcDbSymbolTableRecord
100
AcDbLinetypeTableRecord
  2
BYBLOCK
 70
     0
  3

 72
    65
 73
     0
 40
0.0
  0
LTYPE
  5
14
330
5
100
AcDbSymbolTableRecord
100
AcDbLinetypeTableRecord
  2
BYLAYER
 70
     0
  3

 72
    65
 73
     0
 40
0.0
  0
LTYPE
  5
15
330
5
100
AcDbSymbolTableRecord
100
AcDbLinetypeTableRecord
  2
CONTINUOUS
 70
     0
  3
Solid line
 72
    65
 73
     0
 40
0.0
  0
LTYPE
  5
22
330
5
100
AcDbSymbolTableRecord
100
AcDbLinetypeTableRecord
  2
CONTINOUS
 70
     0
  3
Solid line
 72
    65
 73
     0
 40
0.0
  0
LTYPE
  5
23
330
5
100
AcDbSymbolTableRecord
100
AcDbLinetypeTableRecord
  2
DASHED
 70
     0
  3
__ __ __ __ __ __ __ __ __ __ __ __ __ __ __
 72
    65
 73
     2
 40
0.75
 49
0.5
 74
     0
 49
-0.25
 74
     0
  0
LTYPE
  5
24
330
5
100
AcDbSymbolTableRecord
100
AcDbLinetypeTableRecord
  2
DASHDOT
 70
     0
  3
__ . __ . __ . __ . __ . __ . __ . __ . __ . __
 72
    65
 73
     4
 40
1.0
 49
0.5
 74
     0
 49
-0.25
 74
     0
 49
0.0
 74
     0
 49
-0.25
 74
     0
  0
LTYPE
  5
4C47
330
5
100
AcDbSymbolTableRecord
100
AcDbLinetypeTableRecord
  2
DIVIDE
 70
     0
  3
Divide ____ . . ____ . . ____ . . ____ . . ____
 72
    65
 73
     6
 40
1.25
 49
0.5
 74
     0
 49
-0.25
 74
     0
 49
0.0
 74
     0
 49
-0.25
 74
     0
 49
0.0
 74
     0
 49
-0.25
 74
     0
  0
LTYPE
  5
6265
330
5
100
AcDbSymbolTableRecord
100
AcDbLinetypeTableRecord
  2
CENTER
 70
     0
  3
Center ____ _ ____ _ ____ _ ____ _ ____ _ ____
 72
    65
 73
     4
 40
50.8
 49
31.75
 74
     0
 49
-6.349999999999997
 74
     0
 49
6.349999999999997
 74
     0
 49
-6.349999999999997
 74
     0
  0
LTYPE
  5
685F
330
5
100
AcDbSymbolTableRecord
100
AcDbLinetypeTableRecord
  2
PHANTOM
 70
     0
  3
Phantom ______  __  __  ______  __  __  ______
 72
    65
 73
     6
 40
63.5
 49
31.75
 74
     0
 49
-6.349999999999997
 74
     0
 49
6.349999999999997
 74
     0
 49
-6.349999999999997
 74
     0
 49
6.349999999999997
 74
     0
 49
-6.349999999999997
 74
     0
  0
LTYPE
  5
6FA1
330
5
100
AcDbSymbolTableRecord
100
AcDbLinetypeTableRecord
  2
HIDDEN
 70
     0
  3
_ _ _ _ _ _ _ _ _ _ _ _ _ _ _ _ _ _ _ _ _ _ _
 72
    65
 73
     2
 40
0.5
 49
0.25
 74
     0
 49
-0.25
 74
     0
  0
ENDTAB
  0
TABLE
  2
LAYER
  5
2
330
0
100
AcDbSymbolTable
 70
    13
  0
LAYER
  5
10
330
2
100
AcDbSymbolTableRecord
100
AcDbLayerTableRecord
  2
0
 70
     0
 62
     7
  6
CONTINOUS
  0
LAYER
  5
2F
330
2
100
AcDbSymbolTableRecord
100
AcDbLayerTableRecord
  2
10
 70
     0
 62
     4
  6
CONTINOUS
  0
LAYER
  5
31
330
2
100
AcDbSymbolTableRecord
100
AcDbLayerTableRecord
  2
12
 70
     0
 62
     3
  6
CONTINOUS
  0
LAYER
  5
35
330
2
100
AcDbSymbolTableRecord
100
AcDbLayerTableRecord
  2
16
 70
     0
 62
     6
  6
DASHDOT
  0
LAYER
  5
38
330
2
100
AcDbSymbolTableRecord
100
AcDbLayerTableRecord
  2
19
 70
     0
 62
     7
  6
CONTINOUS
  0
LAYER
  5
3D
330
2
100
AcDbSymbolTableRecord
100
AcDbLayerTableRecord
  2
24
 70
     0
 62
     2
  6
CONTINOUS
  0
LAYER
  5
3A2
330
2
100
AcDbSymbolTableRecord
100
AcDbLayerTableRecord
  2
30
 70
     0
 62
     9
  6
CONTINUOUS
  0
LAYER
  5
3A4
330
2
100
AcDbSymbolTableRecord
100
AcDbLayerTableRecord
  2
DEFPOINTS
 70
     0
 62
     7
  6
CONTINUOUS
  0
LAYER
  5
3BBA
330
2
100
AcDbSymbolTableRecord
100
AcDbLayerTableRecord
  2
18
 70
     0
 62
     5
  6
DIVIDE
  0
LAYER
  5
67A8
330
2
100
AcDbSymbolTableRecord
100
AcDbLayerTableRecord
  2
11
 70
     0
 62
     1
  6
CONTINOUS
  0
LAYER
  5
7837
330
2
100
AcDbSymbolTableRecord
100
AcDbLayerTableRecord
  2
17
 70
     0
 62
     2
  6
DASHDOT
  0
LAYER
  5
7BC8
330
2
100
AcDbSymbolTableRecord
100
AcDbLayerTableRecord
  2
1
 70
     0
 62
     7
  6
CONTINUOUS
  0
LAYER
  5
7BC9
330
2
100
AcDbSymbolTableRecord
100
AcDbLayerTableRecord
  2
2
 70
     0
 62
     7
  6
CONTINUOUS
  0
ENDTAB
  0
TABLE
  2
STYLE
  5
3
330
0
100
AcDbSymbolTable
 70
     4
  0
STYLE
  5
11
330
3
100
AcDbSymbolTableRecord
100
AcDbTextStyleTableRecord
  2
STANDARD
 70
     0
 40
0.0
 41
1.0
 50
0.0
 71
     0
 42
2.0
  3
txt.shx
  4
bigfont.shx
  0
STYLE
  5
42
330
3
100
AcDbSymbolTableRecord
100
AcDbTextStyleTableRecord
  2
STANDARD1
 70
     0
 40
0.0
 41
1.0
 50
0.0
 71
     0
 42
5.0
  3
MONOTXT
  4
BIGFONT
  0
STYLE
  5
6861
330
3
100
AcDbSymbolTableRecord
100
AcDbTextStyleTableRecord
  2
MX_NOTE_STANDARD
 70
     0
 40
0.0
 41
1.0
 50
0.0
 71
     0
 42
5.891046
  3
txt.shx
  4
extfont.shx
  0
STYLE
  5
6D9B
330
3
100
AcDbSymbolTableRecord
100
AcDbTextStyleTableRecord
  2
UGMTXT
 70
     0
 40
0.0
 41
1.0
 50
0.0
 71
     0
 42
0.2
  3
ugmtxt
  4
bigfont
  0
ENDTAB
  0
TABLE
  2
VIEW
  5
6
330
0
100
AcDbSymbolTable
 70
     3
  0
VIEW
  5
230C
330
6
100
AcDbSymbolTableRecord
100
AcDbViewTableRecord
  2
OLE1
 70
     0
 40
148.912488
 10
429.497628
 20
2.560627
 41
103.145806
 11
0.0
 21
0.0
 31
1.0
 12
0.0
 22
0.0
 32
0.0
 42
50.0
 43
0.0
 44
0.0
 50
0.0
 71
     0
  0
VIEW
  5
230E
330
6
100
AcDbSymbolTableRecord
100
AcDbViewTableRecord
  2
OLE2
 70
     0
 40
170.778692
 10
322.66497
 20
-5.978304
 41
102.467215
 11
0.0
 21
0.0
 31
1.0
 12
0.0
 22
0.0
 32
0.0
 42
50.0
 43
0.0
 44
0.0
 50
0.0
 71
     0
  0
VIEW
  5
23AA
330
6
100
AcDbSymbolTableRecord
100
AcDbViewTableRecord
  2
OLE3
 70
     0
 40
591.7897389999998
 10
84.79698199999999
 20
-46.09335999999998
 41
388.792096
 11
0.0
 21
0.0
 31
1.0
 12
0.0
 22
0.0
 32
0.0
 42
50.0
 43
0.0
 44
0.0
 50
0.0
 71
     0
  0
ENDTAB
  0
TABLE
  2
UCS
  5
7
330
0
100
AcDbSymbolTable
 70
     0
  0
ENDTAB
  0
TABLE
  2
APPID
  5
9
330
0
100
AcDbSymbolTable
 70
     2
  0
APPID
  5
12
330
9
100
AcDbSymbolTableRecord
100
AcDbRegAppTableRecord
  2
ACAD
 70
     0
  0
APPID
  5
ECD
330
9
100
AcDbSymbolTableRecord
100
AcDbRegAppTableRecord
  2
CONTENTBLOCKICON
 70
     0
  0
ENDTAB
  0
TABLE
  2
DIMSTYLE
  5
A
330
0
100
AcDbSymbolTable
 70
     1
  0
DIMSTYLE
105
175
102
{ACAD_REACTORS
330
7671
330
767E
330
7694
330
76A8
330
76B5
330
76C3
330
76D0
330
76DD
330
7895
330
78B0
330
78C5
330
7B7C
330
7BE2
330
7CAD
330
7CBA
330
7CC7
330
7DAE
330
7E23
330
8575
330
8589
330
858A
330
8807
330
882F
330
883C
330
8849
330
8856
330
88A1
330
88B7
102
}
330
A
100
AcDbSymbolTableRecord
100
AcDbDimStyleTableRecord
  2
STANDARD
 70
     0
  3

  4

  5
OPEN
  6

  7

 40
1.0
 41
2.0
 42
1.0
 43
0.5
 44
0.5
 45
0.0
 46
0.0
 47
0.0
 48
0.0
140
4.0
141
0.09
142
0.0
143
25.4
144
1.0
145
0.0
146
1.0
147
1.0
 71
     0
 72
     0
 73
     0
 74
     1
 75
     0
 76
     0
 77
     3
 78
    12
170
     0
171
     2
172
     0
173
     0
174
     0
175
     0
176
     0
177
     0
178
     0
270
     2
271
     1
272
     1
273
     2
274
     2
340
11
275
     0
280
     0
281
     0
282
     0
283
     1
284
     0
285
     0
286
     0
287
     3
288
     0
  0
ENDTAB
  0
TABLE
  2
BLOCK_RECORD
  5
1
330
0
100
AcDbSymbolTable
 70
    33
  0
BLOCK_RECORD
  5
1E
102
{ACAD_XDICTIONARY
360
178
102
}
330
1
100
AcDbSymbolTableRecord
100
AcDbBlockTableRecord
  2
*MODEL_SPACE
  0
BLOCK_RECORD
  5
1A
102
{ACAD_XDICTIONARY
360
17A
102
}
330
1
100
AcDbSymbolTableRecord
100
AcDbBlockTableRecord
  2
*PAPER_SPACE
  0
BLOCK_RECORD
  5
3B2
330
1
100
AcDbSymbolTableRecord
100
AcDbBlockTableRecord
  2
_OPEN
  0
BLOCK_RECORD
  5
676A
330
1
100
AcDbSymbolTableRecord
100
AcDbBlockTableRecord
  2
_OPEN30
  0
BLOCK_RECORD
  5
6D9C
330
1
100
AcDbSymbolTableRecord
100
AcDbBlockTableRecord
  2
A$C21544DCF
  0
BLOCK_RECORD
  5
725D
330
1
100
AcDbSymbolTableRecord
100
AcDbBlockTableRecord
  2
A$C15744025
  0
BLOCK_RECORD
  5
7672
330
1
100
AcDbSymbolTableRecord
100
AcDbBlockTableRecord
  2
*D4
  0
BLOCK_RECORD
  5
767F
330
1
100
AcDbSymbolTableRecord
100
AcDbBlockTableRecord
  2
*D5
  0
BLOCK_RECORD
  5
7695
330
1
100
AcDbSymbolTableRecord
100
AcDbBlockTableRecord
  2
*D6
  0
BLOCK_RECORD
  5
76A9
330
1
100
AcDbSymbolTableRecord
100
AcDbBlockTableRecord
  2
*D7
  0
BLOCK_RECORD
  5
76B6
330
1
100
AcDbSymbolTableRecord
100
AcDbBlockTableRecord
  2
*D8
  0
BLOCK_RECORD
  5
76C4
330
1
100
AcDbSymbolTableRecord
100
AcDbBlockTableRecord
  2
*D9
  0
BLOCK_RECORD
  5
76D1
330
1
100
AcDbSymbolTableRecord
100
AcDbBlockTableRecord
  2
*D10
  0
BLOCK_RECORD
  5
76DE
330
1
100
AcDbSymbolTableRecord
100
AcDbBlockTableRecord
  2
*D11
  0
BLOCK_RECORD
  5
7896
330
1
100
AcDbSymbolTableRecord
100
AcDbBlockTableRecord
  2
*D12
  0
BLOCK_RECORD
  5
78B1
330
1
100
AcDbSymbolTableRecord
100
AcDbBlockTableRecord
  2
*D13
  0
BLOCK_RECORD
  5
78C6
330
1
100
AcDbSymbolTableRecord
100
AcDbBlockTableRecord
  2
*D14
  0
BLOCK_RECORD
  5
7B7E
330
1
100
AcDbSymbolTableRecord
100
AcDbBlockTableRecord
  2
*D15
  0
BLOCK_RECORD
  5
7BE3
330
1
100
AcDbSymbolTableRecord
100
AcDbBlockTableRecord
  2
*D16
  0
BLOCK_RECORD
  5
7CAE
330
1
100
AcDbSymbolTableRecord
100
AcDbBlockTableRecord
  2
*D17
  0
BLOCK_RECORD
  5
7CBB
330
1
100
AcDbSymbolTableRecord
100
AcDbBlockTableRecord
  2
*D18
  0
BLOCK_RECORD
  5
7CC8
330
1
100
AcDbSymbolTableRecord
100
AcDbBlockTableRecord
  2
*D19
  0
BLOCK_RECORD
  5
7DAF
330
1
100
AcDbSymbolTableRecord
100
AcDbBlockTableRecord
  2
*D20
  0
BLOCK_RECORD
  5
7E24
330
1
100
AcDbSymbolTableRecord
100
AcDbBlockTableRecord
  2
*D21
  0
BLOCK_RECORD
  5
86C2
330
1
100
AcDbSymbolTableRecord
100
AcDbBlockTableRecord
  2
*D22
  0
BLOCK_RECORD
  5
86CE
330
1
100
AcDbSymbolTableRecord
100
AcDbBlockTableRecord
  2
*D23
  0
BLOCK_RECORD
  5
86DA
330
1
100
AcDbSymbolTableRecord
100
AcDbBlockTableRecord
  2
*D24
  0
BLOCK_RECORD
  5
8808
330
1
100
AcDbSymbolTableRecord
100
AcDbBlockTableRecord
  2
*D25
  0
BLOCK_RECORD
  5
8830
330
1
100
AcDbSymbolTableRecord
100
AcDbBlockTableRecord
  2
*D26
  0
BLOCK_RECORD
  5
883D
330
1
100
AcDbSymbolTableRecord
100
AcDbBlockTableRecord
  2
*D27
  0
BLOCK_RECORD
  5
884A
330
1
100
AcDbSymbolTableRecord
100
AcDbBlockTableRecord
  2
*D28
  0
BLOCK_RECORD
  5
8857
330
1
100
AcDbSymbolTableRecord
100
AcDbBlockTableRecord
  2
*D29
  0
BLOCK_RECORD
  5
88A2
330
1
100
AcDbSymbolTableRecord
100
AcDbBlockTableRecord
  2
*D30
  0
BLOCK_RECORD
  5
88B8
330
1
100
AcDbSymbolTableRecord
100
AcDbBlockTableRecord
  2
*D31
  0
ENDTAB
  0
ENDSEC
  0
SECTION
  2
BLOCKS
  0
BLOCK
  5
1F
330
1E
100
AcDbEntity
  8
0
100
AcDbBlockBegin
  2
*MODEL_SPACE
 70
     0
 10
0.0
 20
0.0
 30
0.0
  3
*MODEL_SPACE
  1

  0
ENDBLK
  5
20
330
1E
100
AcDbEntity
  8
0
100
AcDbBlockEnd
  0
BLOCK
  5
1B
330
1A
100
AcDbEntity
 67
     1
  8
0
100
AcDbBlockBegin
  2
*PAPER_SPACE
 70
     0
 10
0.0
 20
0.0
 30
0.0
  3
*PAPER_SPACE
  1

  0
ENDBLK
  5
1C
330
1A
100
AcDbEntity
 67
     1
  8
0
100
AcDbBlockEnd
  0
BLOCK
  5
3B6
330
3B2
100
AcDbEntity
  8
0
100
AcDbBlockBegin
  2
_OPEN
 70
     0
 10
0.0
 20
0.0
 30
0.0
  3
_OPEN
  1

  0
LINE
  5
3B3
330
3B2
100
AcDbEntity
  8
30
  6
CONTINUOUS
 62
     0
100
AcDbLine
 10
-1.0
 20
0.166667
 30
0.0
 11
0.0
 21
0.0
 31
0.0
  0
LINE
  5
3B4
330
3B2
100
AcDbEntity
  8
30
  6
CONTINUOUS
 62
     0
100
AcDbLine
 10
-1.0
 20
-0.166667
 30
0.0
 11
0.0
 21
0.0
 31
0.0
  0
LINE
  5
3B5
330
3B2
100
AcDbEntity
  8
30
  6
CONTINUOUS
 62
     0
100
AcDbLine
 10
0.0
 20
0.0
 30
0.0
 11
-1.0
 21
0.0
 31
0.0
  0
ENDBLK
  5
3B7
330
3B2
100
AcDbEntity
  8
0
100
AcDbBlockEnd
  0
BLOCK
  5
676E
330
676A
100
AcDbEntity
  8
0
100
AcDbBlockBegin
  2
_OPEN30
 70
     0
 10
0.0
 20
0.0
 30
0.0
  3
_OPEN30
  1

  0
LINE
  5
676B
330
676A
100
AcDbEntity
  8
0
  6
BYBLOCK
 62
     0
100
AcDbLine
 10
-1.0
 20
0.26794919
 30
0.0
 11
0.0
 21
0.0
 31
0.0
  0
LINE
  5
676C
330
676A
100
AcDbEntity
  8
0
  6
BYBLOCK
 62
     0
100
AcDbLine
 10
0.0
 20
0.0
 30
0.0
 11
-1.0
 21
-0.26794919
 31
0.0
  0
LINE
  5
676D
330
676A
100
AcDbEntity
  8
0
  6
BYBLOCK
 62
     0
100
AcDbLine
 10
0.0
 20
0.0
 30
0.0
 11
-1.0
 21
0.0
 31
0.0
  0
ENDBLK
  5
676F
330
676A
100
AcDbEntity
  8
0
100
AcDbBlockEnd
  0
BLOCK
  5
6E0C
330
6D9C
100
AcDbEntity
  8
0
100
AcDbBlockBegin
  2
A$C21544DCF
 70
     0
 10
0.0
 20
0.0
 30
0.0
  3
A$C21544DCF
  1

  0
LINE
  5
6D9D
330
6D9C
100
AcDbEntity
  8
0
  6
CONTINUOUS
100
AcDbLine
 10
0.0
 20
92.5
 30
0.0
 11
0.0
 21
-92.5
 31
0.0
  0
LINE
  5
6D9E
330
6D9C
100
AcDbEntity
  8
0
  6
CONTINUOUS
100
AcDbLine
 10
-52.5
 20
82.5
 30
0.0
 11
-52.5
 21
-82.5
 31
0.0
  0
LINE
  5
6D9F
330
6D9C
100
AcDbEntity
  8
0
  6
CONTINUOUS
100
AcDbLine
 10
52.5
 20
-82.5
 30
0.0
 11
52.5
 21
82.5
 31
0.0
  0
ARC
  5
6DA0
330
6D9C
100
AcDbEntity
  8
0
  6
CONTINUOUS
100
AcDbCircle
 10
28.0
 20
-65.0
 30
0.0
 40
5.0
210
0.0
220
0.0
230
-1.0
100
AcDbArc
 50
90.0
 51
180.0
  0
LINE
  5
6DA1
330
6D9C
100
AcDbEntity
  8
0
  6
CONTINUOUS
100
AcDbLine
 10
-49.0
 20
-25.0
 30
0.0
 11
49.0
 21
-25.0
 31
0.0
  0
LINE
  5
6DA2
330
6D9C
100
AcDbEntity
  8
0
  6
CONTINUOUS
100
AcDbLine
 10
-49.0
 20
25.0
 30
0.0
 11
49.0
 21
25.0
 31
0.0
  0
LINE
  5
6DA3
330
6D9C
100
AcDbEntity
  8
0
  6
CONTINUOUS
100
AcDbLine
 10
-52.5
 20
-51.0
 30
0.0
 11
47.0
 21
-51.0
 31
0.0
  0
LINE
  5
6DA4
330
6D9C
100
AcDbEntity
  8
0
  6
CONTINUOUS
100
AcDbLine
 10
-52.5
 20
-82.5
 30
0.0
 11
47.0
 21
-82.5
 31
0.0
  0
LINE
  5
6DA5
330
6D9C
100
AcDbEntity
  8
0
  6
CONTINUOUS
100
AcDbLine
 10
-57.5
 20
0.0
 30
0.0
 11
58.2251927359449
 21
0.0
 31
0.0
  0
LINE
  5
6DA6
330
6D9C
100
AcDbEntity
  8
0
  6
CONTINUOUS
100
AcDbLine
 10
-49.0
 20
-25.0
 30
0.0
 11
49.0
 21
-25.0
 31
0.0
  0
CIRCLE
  5
6DA7
330
6D9C
100
AcDbEntity
  8
0
  6
CONTINUOUS
100
AcDbCircle
 10
-35.0
 20
-72.0
 30
0.0
 40
5.0
  0
LINE
  5
6DA8
330
6D9C
100
AcDbEntity
  8
0
  6
CONTINUOUS
100
AcDbLine
 10
-47.0
 20
-82.5
 30
0.0
 11
-47.0
 21
-65.0
 31
0.0
  0
LINE
  5
6DA9
330
6D9C
100
AcDbEntity
  8
0
  6
CONTINUOUS
100
AcDbLine
 10
-35.0
 20
-65.0
 30
0.0
 11
-35.0
 21
-79.0
 31
0.0
  0
LINE
  5
6DAA
330
6D9C
100
AcDbEntity
  8
0
  6
CONTINUOUS
100
AcDbLine
 10
-49.0
 20
25.0
 30
0.0
 11
-49.0
 21
-25.0
 31
0.0
  0
ARC
  5
6DAB
330
6D9C
100
AcDbEntity
  8
0
  6
CONTINUOUS
100
AcDbCircle
 10
42.0
 20
-65.0
 30
0.0
 40
5.0
210
0.0
220
0.0
230
-1.0
100
AcDbArc
 50
0.0
 51
90.0
  0
LINE
  5
6DAC
330
6D9C
100
AcDbEntity
  8
0
  6
CONTINUOUS
100
AcDbLine
 10
-42.0
 20
-72.0
 30
0.0
 11
-28.0
 21
-72.0
 31
0.0
  0
LINE
  5
6DAD
330
6D9C
100
AcDbEntity
  8
0
  6
CONTINUOUS
100
AcDbLine
 10
-28.0
 20
-60.0
 30
0.0
 11
-42.0
 21
-60.0
 31
0.0
  0
CIRCLE
  5
6DAE
330
6D9C
100
AcDbEntity
  8
0
  6
CONTINUOUS
100
AcDbCircle
 10
35.0
 20
-72.0
 30
0.0
 40
5.0
  0
CIRCLE
  5
6DAF
330
6D9C
100
AcDbEntity
  8
0
  6
CONTINUOUS
100
AcDbCircle
 10
0.0
 20
-72.0
 30
0.0
 40
5.0
  0
LINE
  5
6DB0
330
6D9C
100
AcDbEntity
  8
0
  6
CONTINUOUS
100
AcDbLine
 10
-23.0
 20
-82.5
 30
0.0
 11
-23.0
 21
-65.0
 31
0.0
  0
LINE
  5
6DB1
330
6D9C
100
AcDbEntity
  8
0
  6
CONTINUOUS
100
AcDbLine
 10
12.0
 20
-82.5
 30
0.0
 11
12.0
 21
-65.0
 31
0.0
  0
LINE
  5
6DB2
330
6D9C
100
AcDbEntity
  8
0
  6
CONTINUOUS
100
AcDbLine
 10
-12.0
 20
-82.5
 30
0.0
 11
-12.0
 21
-65.0
 31
0.0
  0
LINE
  5
6DB3
330
6D9C
100
AcDbEntity
  8
0
  6
CONTINUOUS
100
AcDbLine
 10
47.0
 20
-82.5
 30
0.0
 11
47.0
 21
-65.0
 31
0.0
  0
LINE
  5
6DB4
330
6D9C
100
AcDbEntity
  8
0
  6
CONTINUOUS
100
AcDbLine
 10
23.0
 20
-82.5
 30
0.0
 11
23.0
 21
-65.0
 31
0.0
  0
LINE
  5
6DB5
330
6D9C
100
AcDbEntity
  8
0
  6
CONTINUOUS
100
AcDbLine
 10
35.0
 20
-65.0
 30
0.0
 11
35.0
 21
-79.0
 31
0.0
  0
LINE
  5
6DB6
330
6D9C
100
AcDbEntity
  8
0
  6
CONTINUOUS
100
AcDbLine
 10
49.0
 20
-25.0
 30
0.0
 11
49.0
 21
-131.5101879612343
 31
0.0
  0
LINE
  5
6DB7
330
6D9C
100
AcDbEntity
  8
0
  6
CONTINUOUS
100
AcDbLine
 10
47.0
 20
-25.0
 30
0.0
 11
47.0
 21
-131.5214696541707
 31
0.0
  0
LINE
  5
6DB8
330
6D9C
100
AcDbEntity
  8
0
  6
CONTINUOUS
100
AcDbLine
 10
48.0
 20
-149.845960942616
 30
0.0
 11
48.0
 21
-153.845960942616
 31
0.0
  0
LINE
  5
6DB9
330
6D9C
100
AcDbEntity
  8
0
  6
CONTINUOUS
100
AcDbLine
 10
47.0
 20
-134.5214696541707
 30
0.0
 11
47.0
 21
-153.845960942616
 31
0.0
  0
LINE
  5
6DBA
330
6D9C
100
AcDbEntity
  8
0
  6
CONTINUOUS
100
AcDbLine
 10
49.0
 20
-134.5101879612343
 30
0.0
 11
49.0
 21
-153.845960942616
 31
0.0
  0
SPLINE
  5
6DBB
330
6D9C
100
AcDbEntity
  8
0
  6
CONTINUOUS
100
AcDbSpline
210
0.0
220
0.0
230
1.0
 70
     8
 71
     3
 72
    12
 73
     8
 74
     0
 42
0.0000000001
 43
0.0000000001
 40
0.0
 40
0.0
 40
0.0
 40
0.0
 40
0.25
 40
0.5
 40
0.75
 40
0.9027560157721172
 40
1.0
 40
1.0
 40
1.0
 40
1.0
 10
49.0
 20
-153.845960942616
 30
0.0
 10
49.15692719906866
 20
-155.0345150325693
 30
0.0
 10
49.37589598553778
 20
-155.9207784093739
 30
0.0
 10
49.76687264274589
 20
-157.0318195661038
 30
0.0
 10
50.35438487459838
 20
-158.4317914732045
 30
0.0
 10
50.65699082607824
 20
-159.2027110017873
 30
0.0
 10
50.9174311296145
 20
-159.8815494359974
 30
0.0
 10
51.10274862781523
 20
-160.4220588057494
 30
0.0
  0
SPLINE
  5
6DBC
330
6D9C
100
AcDbEntity
  8
0
  6
CONTINUOUS
100
AcDbSpline
210
0.0
220
0.0
230
1.0
 70
     8
 71
     3
 72
    12
 73
     8
 74
     0
 42
0.0000000001
 43
0.0000000001
 40
0.0
 40
0.0
 40
0.0
 40
0.0
 40
0.25
 40
0.5
 40
0.75
 40
0.9027560157721172
 40
1.0
 40
1.0
 40
1.0
 40
1.0
 10
47.0
 20
-153.845960942616
 30
0.0
 10
46.84307280093134
 20
-155.0345150325693
 30
0.0
 10
46.6241040144622
 20
-155.9207784093739
 30
0.0
 10
46.23312735725408
 20
-157.0318195661038
 30
0.0
 10
45.64561512540166
 20
-158.4317914732045
 30
0.0
 10
45.34300917392175
 20
-159.2027110017873
 30
0.0
 10
45.0825688703855
 20
-159.8815494359974
 30
0.0
 10
44.8972513721848
 20
-160.4220588057494
 30
0.0
  0
ARC
  5
6DBD
330
6D9C
100
AcDbEntity
  8
0
  6
CONTINUOUS
100
AcDbCircle
 10
48.0
 20
-161.545960942616
 30
0.0
 40
3.299999999999998
100
AcDbArc
 50
160.0881997351804
 51
19.91180026481925
  0
CIRCLE
  5
6DBE
330
6D9C
100
AcDbEntity
  8
0
  6
CONTINUOUS
100
AcDbCircle
 10
48.0
 20
-161.545960942616
 30
0.0
 40
2.149999999999999
  0
LINE
  5
6DBF
330
6D9C
100
AcDbEntity
  8
0
  6
CONTINUOUS
100
AcDbLine
 10
47.0
 20
-153.845960942616
 30
0.0
 11
49.0
 21
-153.845960942616
 31
0.0
  0
LINE
  5
6DC0
330
6D9C
100
AcDbEntity
  8
0
  6
CONTINUOUS
100
AcDbLine
 10
47.0
 20
-149.845960942616
 30
0.0
 11
49.0
 21
-149.845960942616
 31
0.0
  0
SPLINE
  5
6DC1
330
6D9C
100
AcDbEntity
  8
0
  6
CONTINUOUS
100
AcDbSpline
210
0.0
220
0.0
230
1.0
 70
     8
 71
     3
 72
     8
 73
     4
 74
     0
 42
0.0000000001
 43
0.0000000001
 40
0.0
 40
0.0
 40
0.0
 40
0.0
 40
1.0
 40
1.0
 40
1.0
 40
1.0
 10
47.00000000073258
 20
-134.5214696541707
 30
0.0
 10
47.5463266700256
 20
-133.5619339293595
 30
0.0
 10
48.48752698565374
 20
-135.8187863795232
 30
0.0
 10
49.00000000116675
 20
-134.5101879612343
 30
0.0
  0
SPLINE
  5
6DC2
330
6D9C
100
AcDbEntity
  8
0
  6
CONTINUOUS
100
AcDbSpline
210
0.0
220
0.0
230
1.0
 70
     8
 71
     3
 72
     8
 73
     4
 74
     0
 42
0.0000000001
 43
0.0000000001
 40
0.0
 40
0.0
 40
0.0
 40
0.0
 40
1.0
 40
1.0
 40
1.0
 40
1.0
 10
47.00000000073258
 20
-131.5214696541707
 30
0.0
 10
47.5463266700256
 20
-130.5619339293595
 30
0.0
 10
48.48752698565374
 20
-132.8187863795232
 30
0.0
 10
49.00000000116675
 20
-131.5101879612343
 30
0.0
  0
LINE
  5
6DC3
330
6D9C
100
AcDbEntity
  8
0
  6
CONTINUOUS
100
AcDbLine
 10
49.0
 20
-82.5
 30
0.0
 11
52.5
 21
-82.5
 31
0.0
  0
LINE
  5
6DC4
330
6D9C
100
AcDbEntity
  8
0
  6
CONTINUOUS
100
AcDbLine
 10
-11.0
 20
25.0
 30
0.0
 11
-11.0
 21
-25.0
 31
0.0
  0
LINE
  5
6DC5
330
6D9C
100
AcDbEntity
  8
0
  6
CONTINUOUS
100
AcDbLine
 10
11.0
 20
25.0
 30
0.0
 11
11.0
 21
-25.0
 31
0.0
  0
LINE
  5
6DC6
330
6D9C
100
AcDbEntity
  8
0
  6
CONTINUOUS
100
AcDbLine
 10
49.0
 20
25.0
 30
0.0
 11
49.0
 21
-25.0
 31
0.0
  0
CIRCLE
  5
6DC7
330
6D9C
100
AcDbEntity
  8
0
  6
CONTINUOUS
100
AcDbCircle
 10
17.5
 20
-63.0
 30
0.0
 40
4.0
  0
LINE
  5
6DC8
330
6D9C
100
AcDbEntity
  8
0
  6
CONTINUOUS
100
AcDbLine
 10
12.0
 20
-63.0
 30
0.0
 11
23.0
 21
-63.0
 31
0.0
  0
LINE
  5
6DC9
330
6D9C
100
AcDbEntity
  8
0
  6
CONTINUOUS
100
AcDbLine
 10
7.0
 20
-60.0
 30
0.0
 11
-7.0
 21
-60.0
 31
0.0
  0
LINE
  5
6DCA
330
6D9C
100
AcDbEntity
  8
0
  6
CONTINUOUS
100
AcDbLine
 10
-7.0
 20
-72.0
 30
0.0
 11
7.0
 21
-72.0
 31
0.0
  0
ARC
  5
6DCB
330
6D9C
100
AcDbEntity
  8
0
  6
CONTINUOUS
100
AcDbCircle
 10
7.0
 20
-65.0
 30
0.0
 40
5.0
210
0.0
220
0.0
230
-1.0
100
AcDbArc
 50
0.0
 51
90.0
  0
ARC
  5
6DCC
330
6D9C
100
AcDbEntity
  8
0
  6
CONTINUOUS
100
AcDbCircle
 10
-7.0
 20
-65.0
 30
0.0
 40
5.0
210
0.0
220
0.0
230
-1.0
100
AcDbArc
 50
90.0
 51
180.0
  0
LINE
  5
6DCD
330
6D9C
100
AcDbEntity
  8
0
  6
CONTINUOUS
100
AcDbLine
 10
17.5
 20
-57.5
 30
0.0
 11
17.5
 21
-68.5
 31
0.0
  0
LINE
  5
6DCE
330
6D9C
100
AcDbEntity
  8
0
  6
CONTINUOUS
100
AcDbLine
 10
42.0
 20
-60.0
 30
0.0
 11
28.0
 21
-60.0
 31
0.0
  0
LINE
  5
6DCF
330
6D9C
100
AcDbEntity
  8
0
  6
CONTINUOUS
100
AcDbLine
 10
28.0
 20
-72.0
 30
0.0
 11
42.0
 21
-72.0
 31
0.0
  0
ARC
  5
6DD0
330
6D9C
100
AcDbEntity
  8
0
  6
CONTINUOUS
100
AcDbCircle
 10
-28.0
 20
-65.0
 30
0.0
 40
5.0
210
0.0
220
0.0
230
-1.0
100
AcDbArc
 50
0.0
 51
90.0
  0
ARC
  5
6DD1
330
6D9C
100
AcDbEntity
  8
0
  6
CONTINUOUS
100
AcDbCircle
 10
-42.0
 20
-65.0
 30
0.0
 40
5.0
210
0.0
220
0.0
230
-1.0
100
AcDbArc
 50
90.0
 51
180.0
  0
LINE
  5
6DD2
330
6D9C
100
AcDbEntity
  8
0
  6
CONTINUOUS
100
AcDbLine
 10
49.0
 20
-51.0
 30
0.0
 11
52.5
 21
-51.0
 31
0.0
  0
LINE
  5
6DD3
330
6D9C
100
AcDbEntity
  8
0
  6
CONTINUOUS
100
AcDbLine
 10
-7.0
 20
-18.5
 30
0.0
 11
-6.999999999999943
 21
20.15486870581022
 31
0.0
  0
LINE
  5
6DD4
330
6D9C
100
AcDbEntity
  8
0
  6
CONTINUOUS
100
AcDbLine
 10
7.0
 20
-18.5
 30
0.0
 11
7.000000000000056
 21
20.15486870581028
 31
0.0
  0
LINE
  5
6DD5
330
6D9C
100
AcDbEntity
  8
0
  6
CONTINUOUS
100
AcDbLine
 10
-7.0
 20
-18.5
 30
0.0
 11
7.0
 21
-18.5
 31
0.0
  0
LINE
  5
6DD6
330
6D9C
100
AcDbEntity
  8
0
  6
CONTINUOUS
100
AcDbLine
 10
7.0
 20
6.840789306861521
 30
0.0
 11
-6.999999999999147
 21
6.84078930686158
 31
0.0
  0
LINE
  5
6DD7
330
6D9C
100
AcDbEntity
  8
0
  6
CONTINUOUS
100
AcDbLine
 10
7.0
 20
20.15486870581028
 30
0.0
 11
-7.000000000000909
 21
20.15486870581022
 31
0.0
  0
LINE
  5
6DD8
330
6D9C
100
AcDbEntity
  8
0
  6
CONTINUOUS
100
AcDbLine
 10
7.0
 20
15.23995644007664
 30
0.0
 11
-7.0
 21
15.23995644007664
 31
0.0
  0
LINE
  5
6DD9
330
6D9C
100
AcDbEntity
  8
0
  6
CONTINUOUS
100
AcDbLine
 10
31.10000000000002
 20
10.0495722744776
 30
0.0
 11
31.10000000000002
 21
-6.431389353983262
 31
0.0
  0
LINE
  5
6DDA
330
6D9C
100
AcDbEntity
  8
0
  6
CONTINUOUS
100
AcDbLine
 10
31.60000000000001
 20
-6.33774752654889
 30
0.0
 11
31.60000000000001
 21
-16.98662646131889
 31
0.0
  0
LINE
  5
6DDB
330
6D9C
100
AcDbEntity
  8
0
  6
CONTINUOUS
100
AcDbLine
 10
27.0
 20
-7.000000000000027
 30
0.0
 11
27.0
 21
-11.00000000000002
 31
0.0
  0
LINE
  5
6DDC
330
6D9C
100
AcDbEntity
  8
0
  6
CONTINUOUS
100
AcDbLine
 10
36.19999999999999
 20
-7.000000000000027
 30
0.0
 11
36.19999999999999
 21
-11.00000000000002
 31
0.0
  0
LINE
  5
6DDD
330
6D9C
100
AcDbEntity
  8
0
  6
CONTINUOUS
100
AcDbLine
 10
27.0
 20
-12.0
 30
0.0
 11
36.2000000000001
 21
-12.0
 31
0.0
  0
LINE
  5
6DDE
330
6D9C
100
AcDbEntity
  8
0
  6
CONTINUOUS
100
AcDbLine
 10
27.0
 20
-16.0
 30
0.0
 11
36.2000000000001
 21
-16.0
 31
0.0
  0
LINE
  5
6DDF
330
6D9C
100
AcDbEntity
  8
0
  6
CONTINUOUS
100
AcDbLine
 10
25.36102323011846
 20
-14.0
 30
0.0
 11
37.44706175765649
 21
-14.0
 31
0.0
  0
LINE
  5
6DE0
330
6D9C
100
AcDbEntity
  8
0
  6
CONTINUOUS
100
AcDbLine
 10
27.0
 20
-11.0
 30
0.0
 11
36.2000000000001
 21
-11.0
 31
0.0
  0
LINE
  5
6DE1
330
6D9C
100
AcDbEntity
  8
0
  6
CONTINUOUS
100
AcDbLine
 10
27.0
 20
-12.00000000000001
 30
0.0
 11
27.0
 21
-16.00000000000003
 31
0.0
  0
LINE
  5
6DE2
330
6D9C
100
AcDbEntity
  8
0
  6
CONTINUOUS
100
AcDbLine
 10
36.19999999999999
 20
-12.00000000000001
 30
0.0
 11
36.19999999999999
 21
-16.00000000000003
 31
0.0
  0
CIRCLE
  5
6DE3
330
6D9C
100
AcDbEntity
  8
0
  6
CONTINUOUS
100
AcDbCircle
 10
31.10000000000002
 20
-1.900000000000004
 30
0.0
 40
2.5
  0
CIRCLE
  5
6DE4
330
6D9C
100
AcDbEntity
  8
0
  6
CONTINUOUS
100
AcDbCircle
 10
31.10000000000002
 20
-1.900000000000004
 30
0.0
 40
3.6
  0
LINE
  5
6DE5
330
6D9C
100
AcDbEntity
  8
0
  6
CONTINUOUS
100
AcDbLine
 10
25.4609078460486
 20
-1.900000000000004
 30
0.0
 11
36.34833098242575
 21
-1.900000000000004
 31
0.0
  0
LINE
  5
6DE6
330
6D9C
100
AcDbEntity
  8
0
  6
CONTINUOUS
100
AcDbLine
 10
27.0
 20
-7.0
 30
0.0
 11
36.2000000000001
 21
-7.0
 31
0.0
  0
LINE
  5
6DE7
330
6D9C
100
AcDbEntity
  8
0
  6
CONTINUOUS
100
AcDbLine
 10
25.36102323011846
 20
-9.0
 30
0.0
 11
37.44706175765649
 21
-9.0
 31
0.0
  0
CIRCLE
  5
6DE8
330
6D9C
100
AcDbEntity
  8
0
  6
CONTINUOUS
100
AcDbCircle
 10
31.10000000000002
 20
5.799999999999952
 30
0.0
 40
2.75
  0
LINE
  5
6DE9
330
6D9C
100
AcDbEntity
  8
0
  6
CONTINUOUS
100
AcDbLine
 10
25.4609078460486
 20
5.800000000000013
 30
0.0
 11
36.34833098242575
 21
5.800000000000013
 31
0.0
  0
ARC
  5
6DEA
330
6D9C
100
AcDbEntity
  8
0
  6
CONTINUOUS
100
AcDbCircle
 10
-28.0
 20
65.0
 30
0.0
 40
5.0
100
AcDbArc
 50
270.0
 51
0.0
  0
LINE
  5
6DEB
330
6D9C
100
AcDbEntity
  8
0
  6
CONTINUOUS
100
AcDbLine
 10
-52.5
 20
51.0
 30
0.0
 11
52.5
 21
51.0
 31
0.0
  0
LINE
  5
6DEC
330
6D9C
100
AcDbEntity
  8
0
  6
CONTINUOUS
100
AcDbLine
 10
52.5
 20
82.5
 30
0.0
 11
-52.5
 21
82.5
 31
0.0
  0
LINE
  5
6DED
330
6D9C
100
AcDbEntity
  8
0
  6
CONTINUOUS
100
AcDbLine
 10
-47.0
 20
82.5
 30
0.0
 11
-47.0
 21
65.0
 31
0.0
  0
ARC
  5
6DEE
330
6D9C
100
AcDbEntity
  8
0
  6
CONTINUOUS
100
AcDbCircle
 10
-42.0
 20
65.0
 30
0.0
 40
5.0
100
AcDbArc
 50
180.0
 51
270.0
  0
CIRCLE
  5
6DEF
330
6D9C
100
AcDbEntity
  8
0
  6
CONTINUOUS
100
AcDbCircle
 10
-35.0
 20
72.0
 30
0.0
 40
5.0
  0
LINE
  5
6DF0
330
6D9C
100
AcDbEntity
  8
0
  6
CONTINUOUS
100
AcDbLine
 10
-35.0
 20
79.0
 30
0.0
 11
-35.0
 21
65.0
 31
0.0
  0
LINE
  5
6DF1
330
6D9C
100
AcDbEntity
  8
0
  6
CONTINUOUS
100
AcDbLine
 10
-28.0
 20
60.0
 30
0.0
 11
-42.0
 21
60.0
 31
0.0
  0
LINE
  5
6DF2
330
6D9C
100
AcDbEntity
  8
0
  6
CONTINUOUS
100
AcDbLine
 10
-42.0
 20
72.0
 30
0.0
 11
-28.0
 21
72.0
 31
0.0
  0
LINE
  5
6DF3
330
6D9C
100
AcDbEntity
  8
0
  6
CONTINUOUS
100
AcDbLine
 10
-23.0
 20
82.5
 30
0.0
 11
-23.0
 21
65.0
 31
0.0
  0
LINE
  5
6DF4
330
6D9C
100
AcDbEntity
  8
0
  6
CONTINUOUS
100
AcDbLine
 10
12.0
 20
82.5
 30
0.0
 11
12.0
 21
65.0
 31
0.0
  0
LINE
  5
6DF5
330
6D9C
100
AcDbEntity
  8
0
  6
CONTINUOUS
100
AcDbLine
 10
-12.0
 20
82.5
 30
0.0
 11
-12.0
 21
65.0
 31
0.0
  0
LINE
  5
6DF6
330
6D9C
100
AcDbEntity
  8
0
  6
CONTINUOUS
100
AcDbLine
 10
23.0
 20
82.5
 30
0.0
 11
23.0
 21
65.0
 31
0.0
  0
LINE
  5
6DF7
330
6D9C
100
AcDbEntity
  8
0
  6
CONTINUOUS
100
AcDbLine
 10
47.0
 20
82.5
 30
0.0
 11
47.0
 21
65.0
 31
0.0
  0
CIRCLE
  5
6DF8
330
6D9C
100
AcDbEntity
  8
0
  6
CONTINUOUS
100
AcDbCircle
 10
0.0
 20
72.0
 30
0.0
 40
5.0
  0
LINE
  5
6DF9
330
6D9C
100
AcDbEntity
  8
0
  6
CONTINUOUS
100
AcDbLine
 10
7.0
 20
60.0
 30
0.0
 11
-7.0
 21
60.0
 31
0.0
  0
LINE
  5
6DFA
330
6D9C
100
AcDbEntity
  8
0
  6
CONTINUOUS
100
AcDbLine
 10
-7.0
 20
72.0
 30
0.0
 11
7.0
 21
72.0
 31
0.0
  0
LINE
  5
6DFB
330
6D9C
100
AcDbEntity
  8
0
  6
CONTINUOUS
100
AcDbLine
 10
-17.5
 20
68.5
 30
0.0
 11
-17.5
 21
57.5
 31
0.0
  0
ARC
  5
6DFC
330
6D9C
100
AcDbEntity
  8
0
  6
CONTINUOUS
100
AcDbCircle
 10
-7.0
 20
65.0
 30
0.0
 40
5.0
100
AcDbArc
 50
180.0
 51
270.0
  0
LINE
  5
6DFD
330
6D9C
100
AcDbEntity
  8
0
  6
CONTINUOUS
100
AcDbLine
 10
-23.0
 20
63.0
 30
0.0
 11
-12.0
 21
63.0
 31
0.0
  0
CIRCLE
  5
6DFE
330
6D9C
100
AcDbEntity
  8
0
  6
CONTINUOUS
100
AcDbCircle
 10
-17.5
 20
63.0
 30
0.0
 40
4.0
  0
ARC
  5
6DFF
330
6D9C
100
AcDbEntity
  8
0
  6
CONTINUOUS
100
AcDbCircle
 10
7.0
 20
65.0
 30
0.0
 40
5.0
100
AcDbArc
 50
270.0
 51
0.0
  0
LINE
  5
6E00
330
6D9C
100
AcDbEntity
  8
0
  6
CONTINUOUS
100
AcDbLine
 10
42.0
 20
60.0
 30
0.0
 11
28.0
 21
60.0
 31
0.0
  0
LINE
  5
6E01
330
6D9C
100
AcDbEntity
  8
0
  6
CONTINUOUS
100
AcDbLine
 10
28.0
 20
72.0
 30
0.0
 11
42.0
 21
72.0
 31
0.0
  0
CIRCLE
  5
6E02
330
6D9C
100
AcDbEntity
  8
0
  6
CONTINUOUS
100
AcDbCircle
 10
35.0
 20
72.0
 30
0.0
 40
5.0
  0
LINE
  5
6E03
330
6D9C
100
AcDbEntity
  8
0
  6
CONTINUOUS
100
AcDbLine
 10
35.0
 20
79.0
 30
0.0
 11
35.0
 21
65.0
 31
0.0
  0
ARC
  5
6E04
330
6D9C
100
AcDbEntity
  8
0
  6
CONTINUOUS
100
AcDbCircle
 10
28.0
 20
65.0
 30
0.0
 40
5.0
100
AcDbArc
 50
180.0
 51
270.0
  0
ARC
  5
6E05
330
6D9C
100
AcDbEntity
  8
0
  6
CONTINUOUS
100
AcDbCircle
 10
42.0
 20
65.0
 30
0.0
 40
5.0
100
AcDbArc
 50
270.0
 51
0.0
  0
LINE
  5
6E06
330
6D9C
100
AcDbEntity
  8
0
  6
PHANTOM
100
AcDbLine
 10
19.0
 20
129.4999999999999
 30
0.0
 11
19.0
 21
82.49999999999992
 31
0.0
  0
LINE
  5
6E07
330
6D9C
100
AcDbEntity
  8
0
  6
PHANTOM
100
AcDbLine
 10
16.0
 20
129.4999999999999
 30
0.0
 11
16.0
 21
82.49999999999992
 31
0.0
  0
LINE
  5
6E08
330
6D9C
100
AcDbEntity
  8
0
  6
PHANTOM
100
AcDbLine
 10
-16.0
 20
129.4999999999999
 30
0.0
 11
-16.0
 21
82.49999999999992
 31
0.0
  0
LINE
  5
6E09
330
6D9C
100
AcDbEntity
  8
0
  6
PHANTOM
100
AcDbLine
 10
-19.0
 20
129.4999999999999
 30
0.0
 11
-19.0
 21
82.49999999999992
 31
0.0
  0
LINE
  5
6E0A
330
6D9C
100
AcDbEntity
  8
0
  6
PHANTOM
100
AcDbLine
 10
-16.0
 20
129.4999999999999
 30
0.0
 11
-19.0
 21
129.4999999999999
 31
0.0
  0
LINE
  5
6E0B
330
6D9C
100
AcDbEntity
  8
0
  6
PHANTOM
100
AcDbLine
 10
16.0
 20
129.4999999999999
 30
0.0
 11
19.0
 21
129.4999999999999
 31
0.0
  0
ENDBLK
  5
6E0D
330
6D9C
100
AcDbEntity
  8
0
100
AcDbBlockEnd
  0
BLOCK
  5
731F
330
725D
100
AcDbEntity
  8
0
100
AcDbBlockBegin
  2
A$C15744025
 70
     0
 10
0.0
 20
0.0
 30
0.0
  3
A$C15744025
  1

  0
LINE
  5
725E
330
725D
100
AcDbEntity
  8
0
100
AcDbLine
 10
46.0
 20
-174.5
 30
0.0
 11
74.0
 21
-174.5
 31
0.0
  0
LINE
  5
725F
330
725D
100
AcDbEntity
  8
0
100
AcDbLine
 10
49.0
 20
-160.0
 30
0.0
 11
71.0
 21
-160.0
 31
0.0
  0
LINE
  5
7260
330
725D
100
AcDbEntity
  8
0
100
AcDbLine
 10
49.0
 20
160.0000000000002
 30
0.0
 11
71.0
 21
160.0000000000002
 31
0.0
  0
LINE
  5
7261
330
725D
100
AcDbEntity
  8
0
100
AcDbLine
 10
46.0
 20
174.5000000000002
 30
0.0
 11
74.0
 21
174.5000000000002
 31
0.0
  0
LINE
  5
7262
330
725D
100
AcDbEntity
  8
0
100
AcDbLine
 10
-70.00000000000007
 20
50.99999999999909
 30
0.0
 11
70.0
 21
50.99999999999909
 31
0.0
  0
LINE
  5
7263
330
725D
100
AcDbEntity
  8
0
100
AcDbLine
 10
-53.0
 20
45.0000000000001
 30
0.0
 11
53.0
 21
45.0000000000001
 31
0.0
  0
LINE
  5
7264
330
725D
100
AcDbEntity
  8
0
100
AcDbLine
 10
70.0
 20
130.0
 30
0.0
 11
-70.00000000000007
 21
130.0
 31
0.0
  0
LINE
  5
7265
330
725D
100
AcDbEntity
  8
0
100
AcDbLine
 10
-53.0
 20
-45.0
 30
0.0
 11
53.0
 21
-45.0
 31
0.0
  0
LINE
  5
7266
330
725D
100
AcDbEntity
  8
0
100
AcDbLine
 10
-75.00000000000007
 20
0.0
 30
0.0
 11
75.0
 21
0.0
 31
0.0
  0
LINE
  5
7267
330
725D
100
AcDbEntity
  8
0
100
AcDbLine
 10
36.0
 20
-114.0
 30
0.0
 11
54.0
 21
-114.0
 31
0.0
  0
LINE
  5
7268
330
725D
100
AcDbEntity
  8
0
100
AcDbLine
 10
36.0
 20
114.0000000000001
 30
0.0
 11
54.0
 21
114.0000000000001
 31
0.0
  0
LINE
  5
7269
330
725D
100
AcDbEntity
  8
0
100
AcDbLine
 10
-70.00000000000007
 20
-130.0
 30
0.0
 11
70.0
 21
-130.0
 31
0.0
  0
LINE
  5
726A
330
725D
100
AcDbEntity
  8
0
100
AcDbLine
 10
-70.00000000000007
 20
-51.0
 30
0.0
 11
70.0
 21
-51.0
 31
0.0
  0
LINE
  5
726B
330
725D
100
AcDbEntity
  8
0
100
AcDbLine
 10
0.0
 20
178.5
 30
0.0
 11
0.0
 21
-178.5
 31
0.0
  0
LINE
  5
726C
330
725D
100
AcDbEntity
  8
0
100
AcDbLine
 10
-25.49999999999977
 20
-45.0
 30
0.0
 11
-25.5
 21
45.0000000000001
 31
0.0
  0
LINE
  5
726D
330
725D
100
AcDbEntity
  8
0
100
AcDbLine
 10
25.49999999999977
 20
-45.0
 30
0.0
 11
25.49999999999977
 21
45.0000000000001
 31
0.0
  0
LINE
  5
726E
330
725D
100
AcDbEntity
  8
0
100
AcDbLine
 10
-70.00000000000007
 20
130.0
 30
0.0
 11
-70.00000000000007
 21
-130.0
 31
0.0
  0
ARC
  5
726F
330
725D
100
AcDbEntity
  8
0
100
AcDbCircle
 10
-53.0
 20
-40.0
 30
0.0
 40
5.0
100
AcDbArc
 50
180.0
 51
270.0
  0
LINE
  5
7270
330
725D
100
AcDbEntity
  8
0
100
AcDbLine
 10
-71.00000000000004
 20
-160.0
 30
0.0
 11
-49.0
 21
-160.0
 31
0.0
  0
LINE
  5
7271
330
725D
100
AcDbEntity
  8
0
100
AcDbLine
 10
-74.00000000000004
 20
-150.0000000000003
 30
0.0
 11
-59.0
 21
-130.0000000000003
 31
0.0
  0
LINE
  5
7272
330
725D
100
AcDbEntity
  8
0
100
AcDbLine
 10
-74.00000000000004
 20
-174.5
 30
0.0
 11
-46.0
 21
-174.5
 31
0.0
  0
CIRCLE
  5
7273
330
725D
100
AcDbEntity
  8
0
100
AcDbCircle
 10
60.0
 20
-160.0
 30
0.0
 40
7.0
210
0.0
220
0.0
230
-1.0
  0
LINE
  5
7274
330
725D
100
AcDbEntity
  8
0
100
AcDbLine
 10
-74.00000000000004
 20
-174.5
 30
0.0
 11
-74.00000000000004
 21
-150.0000000000003
 31
0.0
  0
LINE
  5
7275
330
725D
100
AcDbEntity
  8
0
100
AcDbLine
 10
14.0
 20
-174.5
 30
0.0
 11
14.0
 21
-130.0
 31
0.0
  0
LINE
  5
7276
330
725D
100
AcDbEntity
  8
0
100
AcDbLine
 10
31.0
 20
-130.0000000000003
 30
0.0
 11
46.0
 21
-150.0000000000003
 31
0.0
  0
LINE
  5
7277
330
725D
100
AcDbEntity
  8
0
100
AcDbLine
 10
-46.0
 20
-150.0000000000003
 30
0.0
 11
-31.0
 21
-130.0000000000003
 31
0.0
  0
LINE
  5
7278
330
725D
100
AcDbEntity
  8
0
100
AcDbLine
 10
-14.0
 20
-174.5
 30
0.0
 11
-14.0
 21
-130.0
 31
0.0
  0
LINE
  5
7279
330
725D
100
AcDbEntity
  8
0
100
AcDbLine
 10
-11.0
 20
-160.0
 30
0.0
 11
11.0
 21
-160.0
 31
0.0
  0
LINE
  5
727A
330
725D
100
AcDbEntity
  8
0
100
AcDbLine
 10
-14.0
 20
-174.5
 30
0.0
 11
14.0
 21
-174.5
 31
0.0
  0
CIRCLE
  5
727B
330
725D
100
AcDbEntity
  8
0
100
AcDbCircle
 10
0.0
 20
-160.0
 30
0.0
 40
7.0
210
0.0
220
0.0
230
-1.0
  0
LINE
  5
727C
330
725D
100
AcDbEntity
  8
0
100
AcDbLine
 10
-60.0
 20
-149.0
 30
0.0
 11
-60.0
 21
-171.0
 31
0.0
  0
LINE
  5
727D
330
725D
100
AcDbEntity
  8
0
100
AcDbLine
 10
-46.0
 20
-174.5
 30
0.0
 11
-46.0
 21
-150.0000000000003
 31
0.0
  0
LINE
  5
727E
330
725D
100
AcDbEntity
  8
0
100
AcDbLine
 10
46.0
 20
-174.5
 30
0.0
 11
46.0
 21
-150.0000000000003
 31
0.0
  0
LINE
  5
727F
330
725D
100
AcDbEntity
  8
0
100
AcDbLine
 10
-9.0
 20
-114.0
 30
0.0
 11
9.0
 21
-114.0
 31
0.0
  0
LINE
  5
7280
330
725D
100
AcDbEntity
  8
0
100
AcDbLine
 10
-45.0000000000001
 20
-109.3811978464831
 30
0.0
 11
-41.0
 21
-111.6905989232416
 31
0.0
  0
LINE
  5
7281
330
725D
100
AcDbEntity
  8
0
100
AcDbLine
 10
-49.0
 20
-111.6905989232416
 30
0.0
 11
-45.0000000000001
 21
-109.3811978464831
 31
0.0
  0
LINE
  5
7282
330
725D
100
AcDbEntity
  8
0
100
AcDbLine
 10
-45.0
 20
-123.0
 30
0.0
 11
-45.0
 21
-105.0
 31
0.0
  0
ARC
  5
7283
330
725D
100
AcDbEntity
  8
0
100
AcDbCircle
 10
45.0
 20
-114.0
 30
0.0
 40
5.5
210
0.0
220
0.0
230
-1.0
100
AcDbArc
 50
0.0
 51
180.0
  0
LINE
  5
7284
330
725D
100
AcDbEntity
  8
0
100
AcDbLine
 10
-54.0
 20
-114.0
 30
0.0
 11
-36.0
 21
-114.0
 31
0.0
  0
LINE
  5
7285
330
725D
100
AcDbEntity
  8
0
100
AcDbLine
 10
-41.0
 20
-111.6905989232416
 30
0.0
 11
-41.0
 21
-116.3094010767586
 31
0.0
  0
LINE
  5
7286
330
725D
100
AcDbEntity
  8
0
100
AcDbLine
 10
-49.0
 20
-116.3094010767586
 30
0.0
 11
-49.0
 21
-111.6905989232416
 31
0.0
  0
LINE
  5
7287
330
725D
100
AcDbEntity
  8
0
100
AcDbLine
 10
-45.0
 20
-118.6188021535169
 30
0.0
 11
-49.0
 21
-116.3094010767586
 31
0.0
  0
LINE
  5
7288
330
725D
100
AcDbEntity
  8
0
100
AcDbLine
 10
-41.0
 20
-116.3094010767586
 30
0.0
 11
-45.0
 21
-118.6188021535169
 31
0.0
  0
LINE
  5
7289
330
725D
100
AcDbEntity
  8
0
100
AcDbLine
 10
-50.5
 20
-114.0
 30
0.0
 11
-50.5
 21
-130.0
 31
0.0
  0
LINE
  5
728A
330
725D
100
AcDbEntity
  8
0
100
AcDbLine
 10
-39.5
 20
-114.0
 30
0.0
 11
-39.5
 21
-130.0
 31
0.0
  0
ARC
  5
728B
330
725D
100
AcDbEntity
  8
0
100
AcDbCircle
 10
45.0
 20
-114.0
 30
0.0
 40
8.0
210
0.0
220
0.0
230
-1.0
100
AcDbArc
 50
226.5674634422111
 51
313.4325365577887
  0
LINE
  5
728C
330
725D
100
AcDbEntity
  8
0
100
AcDbLine
 10
-22.5
 20
-99.0
 30
0.0
 11
-22.5
 21
-115.0
 31
0.0
  0
CIRCLE
  5
728D
330
725D
100
AcDbEntity
  8
0
100
AcDbCircle
 10
-22.5
 20
-107.0
 30
0.0
 40
4.0
  0
LINE
  5
728E
330
725D
100
AcDbEntity
  8
0
100
AcDbLine
 10
-14.5
 20
-107.0
 30
0.0
 11
-30.5
 21
-107.0
 31
0.0
  0
LINE
  5
728F
330
725D
100
AcDbEntity
  8
0
100
AcDbLine
 10
30.5
 20
-107.0
 30
0.0
 11
14.5
 21
-107.0
 31
0.0
  0
CIRCLE
  5
7290
330
725D
100
AcDbEntity
  8
0
100
AcDbCircle
 10
22.5
 20
-107.0
 30
0.0
 40
4.0
  0
LINE
  5
7291
330
725D
100
AcDbEntity
  8
0
100
AcDbLine
 10
-0.0000000000001137
 20
-109.3811978464831
 30
0.0
 11
4.0
 21
-111.6905989232416
 31
0.0
  0
LINE
  5
7292
330
725D
100
AcDbEntity
  8
0
100
AcDbLine
 10
-4.0
 20
-111.6905989232416
 30
0.0
 11
-0.0000000000001137
 21
-109.3811978464831
 31
0.0
  0
LINE
  5
7293
330
725D
100
AcDbEntity
  8
0
100
AcDbLine
 10
22.5
 20
-99.0
 30
0.0
 11
22.5
 21
-115.0
 31
0.0
  0
LINE
  5
7294
330
725D
100
AcDbEntity
  8
0
100
AcDbLine
 10
0.0
 20
-123.0
 30
0.0
 11
0.0
 21
-105.0
 31
0.0
  0
ARC
  5
7295
330
725D
100
AcDbEntity
  8
0
100
AcDbCircle
 10
0.0
 20
-114.0
 30
0.0
 40
5.5
210
0.0
220
0.0
230
-1.0
100
AcDbArc
 50
0.0
 51
180.0
  0
LINE
  5
7296
330
725D
100
AcDbEntity
  8
0
100
AcDbLine
 10
4.0
 20
-111.6905989232416
 30
0.0
 11
4.0
 21
-116.3094010767586
 31
0.0
  0
LINE
  5
7297
330
725D
100
AcDbEntity
  8
0
100
AcDbLine
 10
-4.0
 20
-116.3094010767586
 30
0.0
 11
-4.0
 21
-111.6905989232416
 31
0.0
  0
LINE
  5
7298
330
725D
100
AcDbEntity
  8
0
100
AcDbLine
 10
0.0
 20
-118.6188021535169
 30
0.0
 11
-4.0
 21
-116.3094010767586
 31
0.0
  0
LINE
  5
7299
330
725D
100
AcDbEntity
  8
0
100
AcDbLine
 10
4.0
 20
-116.3094010767586
 30
0.0
 11
0.0
 21
-118.6188021535169
 31
0.0
  0
LINE
  5
729A
330
725D
100
AcDbEntity
  8
0
100
AcDbLine
 10
-5.5
 20
-114.0
 30
0.0
 11
-5.5
 21
-130.0
 31
0.0
  0
LINE
  5
729B
330
725D
100
AcDbEntity
  8
0
100
AcDbLine
 10
5.5
 20
-114.0
 30
0.0
 11
5.5
 21
-130.0
 31
0.0
  0
ARC
  5
729C
330
725D
100
AcDbEntity
  8
0
100
AcDbCircle
 10
0.0
 20
-114.0
 30
0.0
 40
8.0
210
0.0
220
0.0
230
-1.0
100
AcDbArc
 50
226.5674634422111
 51
313.4325365577887
  0
LINE
  5
729D
330
725D
100
AcDbEntity
  8
0
100
AcDbLine
 10
44.99999999999988
 20
-109.3811978464831
 30
0.0
 11
49.0
 21
-111.6905989232416
 31
0.0
  0
LINE
  5
729E
330
725D
100
AcDbEntity
  8
0
100
AcDbLine
 10
41.0
 20
-111.6905989232416
 30
0.0
 11
44.99999999999988
 21
-109.3811978464831
 31
0.0
  0
LINE
  5
729F
330
725D
100
AcDbEntity
  8
0
100
AcDbLine
 10
45.0
 20
-123.0
 30
0.0
 11
45.0
 21
-105.0
 31
0.0
  0
ARC
  5
72A0
330
725D
100
AcDbEntity
  8
0
100
AcDbCircle
 10
-45.0
 20
-114.0
 30
0.0
 40
5.5
210
0.0
220
0.0
230
-1.0
100
AcDbArc
 50
0.0
 51
180.0
  0
LINE
  5
72A1
330
725D
100
AcDbEntity
  8
0
100
AcDbLine
 10
49.0
 20
-111.6905989232416
 30
0.0
 11
49.0
 21
-116.3094010767586
 31
0.0
  0
LINE
  5
72A2
330
725D
100
AcDbEntity
  8
0
100
AcDbLine
 10
41.0
 20
-116.3094010767586
 30
0.0
 11
41.0
 21
-111.6905989232416
 31
0.0
  0
LINE
  5
72A3
330
725D
100
AcDbEntity
  8
0
100
AcDbLine
 10
45.0
 20
-118.6188021535169
 30
0.0
 11
41.0
 21
-116.3094010767586
 31
0.0
  0
LINE
  5
72A4
330
725D
100
AcDbEntity
  8
0
100
AcDbLine
 10
49.0
 20
-116.3094010767586
 30
0.0
 11
45.0
 21
-118.6188021535169
 31
0.0
  0
LINE
  5
72A5
330
725D
100
AcDbEntity
  8
0
100
AcDbLine
 10
39.5
 20
-114.0
 30
0.0
 11
39.5
 21
-130.0
 31
0.0
  0
LINE
  5
72A6
330
725D
100
AcDbEntity
  8
0
100
AcDbLine
 10
50.5
 20
-114.0
 30
0.0
 11
50.5
 21
-130.0
 31
0.0
  0
ARC
  5
72A7
330
725D
100
AcDbEntity
  8
0
100
AcDbCircle
 10
-45.0
 20
-114.0
 30
0.0
 40
8.0
210
0.0
220
0.0
230
-1.0
100
AcDbArc
 50
226.5674634422111
 51
313.4325365577887
  0
LINE
  5
72A8
330
725D
100
AcDbEntity
  8
0
100
AcDbLine
 10
14.0
 20
174.5000000000002
 30
0.0
 11
14.0
 21
130.0
 31
0.0
  0
LINE
  5
72A9
330
725D
100
AcDbEntity
  8
0
100
AcDbLine
 10
31.0
 20
130.0
 30
0.0
 11
46.0
 21
150.0
 31
0.0
  0
LINE
  5
72AA
330
725D
100
AcDbEntity
  8
0
100
AcDbLine
 10
-46.0
 20
150.0
 30
0.0
 11
-31.0
 21
130.0
 31
0.0
  0
LINE
  5
72AB
330
725D
100
AcDbEntity
  8
0
100
AcDbLine
 10
-74.00000000000004
 20
150.0
 30
0.0
 11
-59.0
 21
130.0
 31
0.0
  0
LINE
  5
72AC
330
725D
100
AcDbEntity
  8
0
100
AcDbLine
 10
-14.0
 20
174.5000000000002
 30
0.0
 11
-14.0
 21
130.0
 31
0.0
  0
LINE
  5
72AD
330
725D
100
AcDbEntity
  8
0
100
AcDbLine
 10
17.99999999999988
 20
-31.0
 30
0.0
 11
-18.0
 21
-31.0
 31
0.0
  0
LINE
  5
72AE
330
725D
100
AcDbEntity
  8
0
100
AcDbLine
 10
17.0
 20
17.0337027253521
 30
0.0
 11
-17.0
 21
17.0337027253521
 31
0.0
  0
LINE
  5
72AF
330
725D
100
AcDbEntity
  8
0
100
AcDbLine
 10
17.0
 20
28.03853193396571
 30
0.0
 11
-17.00000000000011
 21
28.03853193396571
 31
0.0
  0
LINE
  5
72B0
330
725D
100
AcDbEntity
  8
0
100
AcDbLine
 10
17.0
 20
39.33264411704204
 30
0.0
 11
-17.00000000000011
 21
39.33264411704204
 31
0.0
  0
LINE
  5
72B1
330
725D
100
AcDbEntity
  8
0
100
AcDbLine
 10
-18.0
 20
-31.0
 30
0.0
 11
-18.00000000000011
 21
31.00000000000011
 31
0.0
  0
LINE
  5
72B2
330
725D
100
AcDbEntity
  8
0
100
AcDbLine
 10
-58.0
 20
40.00000000000009
 30
0.0
 11
-58.0
 21
-40.0
 31
0.0
  0
ARC
  5
72B3
330
725D
100
AcDbEntity
  8
0
100
AcDbCircle
 10
-53.0
 20
40.00000000000009
 30
0.0
 40
5.0
100
AcDbArc
 50
90.0
 51
180.0
  0
LINE
  5
72B4
330
725D
100
AcDbEntity
  8
0
100
AcDbLine
 10
-17.00000000000011
 20
17.0337027253521
 30
0.0
 11
-17.00000000000011
 21
39.33264411704204
 31
0.0
  0
LINE
  5
72B5
330
725D
100
AcDbEntity
  8
0
100
AcDbLine
 10
-17.00000000000011
 20
31.00000000000011
 30
0.0
 11
-18.00000000000011
 21
31.00000000000011
 31
0.0
  0
LINE
  5
72B6
330
725D
100
AcDbEntity
  8
0
100
AcDbLine
 10
17.99999999999988
 20
-31.0
 30
0.0
 11
18.0
 21
31.00000000000011
 31
0.0
  0
CIRCLE
  5
72B7
330
725D
100
AcDbEntity
  8
0
100
AcDbCircle
 10
40.94999999999993
 20
5.0
 30
0.0
 40
5.5
  0
CIRCLE
  5
72B8
330
725D
100
AcDbEntity
  8
0
100
AcDbCircle
 10
40.94999999999993
 20
5.0
 30
0.0
 40
3.5
  0
LINE
  5
72B9
330
725D
100
AcDbEntity
  8
0
100
AcDbLine
 10
19.0
 20
-40.45000000000015
 30
0.0
 11
24.29999999999994
 21
-40.45000000000015
 31
0.0
  0
LINE
  5
72BA
330
725D
100
AcDbEntity
  8
0
100
AcDbLine
 10
19.0
 20
-33.85000000000013
 30
0.0
 11
24.29999999999994
 21
-33.85000000000013
 31
0.0
  0
LINE
  5
72BB
330
725D
100
AcDbEntity
  8
0
100
AcDbLine
 10
19.0
 20
-33.85000000000013
 30
0.0
 11
19.0
 21
-40.45000000000015
 31
0.0
  0
LINE
  5
72BC
330
725D
100
AcDbEntity
  8
0
100
AcDbLine
 10
36.94999999999993
 20
-28.5
 30
0.0
 11
44.94999999999993
 21
-28.5
 31
0.0
  0
LINE
  5
72BD
330
725D
100
AcDbEntity
  8
0
100
AcDbLine
 10
36.94999999999993
 20
-23.5
 30
0.0
 11
44.94999999999993
 21
-23.5
 31
0.0
  0
LINE
  5
72BE
330
725D
100
AcDbEntity
  8
0
100
AcDbLine
 10
36.94999999999993
 20
-25.5
 30
0.0
 11
44.94999999999993
 21
-25.5
 31
0.0
  0
LINE
  5
72BF
330
725D
100
AcDbEntity
  8
0
100
AcDbLine
 10
36.94999999999993
 20
-20.5
 30
0.0
 11
44.94999999999993
 21
-20.5
 31
0.0
  0
LINE
  5
72C0
330
725D
100
AcDbEntity
  8
0
100
AcDbLine
 10
36.94999999999993
 20
-25.5
 30
0.0
 11
36.94999999999993
 21
-28.5
 31
0.0
  0
LINE
  5
72C1
330
725D
100
AcDbEntity
  8
0
100
AcDbLine
 10
36.94999999999993
 20
-20.5
 30
0.0
 11
36.94999999999993
 21
-23.5
 31
0.0
  0
LINE
  5
72C2
330
725D
100
AcDbEntity
  8
0
100
AcDbLine
 10
24.29999999999994
 20
-33.85000000000013
 30
0.0
 11
24.29999999999994
 21
-40.45000000000015
 31
0.0
  0
LINE
  5
72C3
330
725D
100
AcDbEntity
  8
0
100
AcDbLine
 10
44.94999999999993
 20
-25.5
 30
0.0
 11
44.94999999999993
 21
-28.5
 31
0.0
  0
LINE
  5
72C4
330
725D
100
AcDbEntity
  8
0
100
AcDbLine
 10
44.94999999999993
 20
-20.5
 30
0.0
 11
44.94999999999993
 21
-23.5
 31
0.0
  0
CIRCLE
  5
72C5
330
725D
100
AcDbEntity
  8
0
100
AcDbCircle
 10
40.94999999999993
 20
-10.0
 30
0.0
 40
3.5
  0
LINE
  5
72C6
330
725D
100
AcDbEntity
  8
0
100
AcDbLine
 10
17.0
 20
17.0337027253521
 30
0.0
 11
17.0
 21
39.33264411704204
 31
0.0
  0
LINE
  5
72C7
330
725D
100
AcDbEntity
  8
0
100
AcDbLine
 10
18.0
 20
31.00000000000011
 30
0.0
 11
17.0
 21
31.00000000000011
 31
0.0
  0
LINE
  5
72C8
330
725D
100
AcDbEntity
  8
0
100
AcDbLine
 10
-9.0
 20
114.0000000000001
 30
0.0
 11
9.0
 21
114.0000000000001
 31
0.0
  0
LINE
  5
72C9
330
725D
100
AcDbEntity
  8
0
100
AcDbLine
 10
-50.5
 20
114.0000000000001
 30
0.0
 11
-50.5
 21
130.0
 31
0.0
  0
LINE
  5
72CA
330
725D
100
AcDbEntity
  8
0
100
AcDbLine
 10
-39.5
 20
114.0000000000001
 30
0.0
 11
-39.5
 21
130.0
 31
0.0
  0
LINE
  5
72CB
330
725D
100
AcDbEntity
  8
0
100
AcDbLine
 10
-45.0
 20
105.0
 30
0.0
 11
-45.0
 21
123.0000000000001
 31
0.0
  0
ARC
  5
72CC
330
725D
100
AcDbEntity
  8
0
100
AcDbCircle
 10
-45.0
 20
114.0000000000001
 30
0.0
 40
5.5
100
AcDbArc
 50
180.0
 51
0.0
  0
LINE
  5
72CD
330
725D
100
AcDbEntity
  8
0
100
AcDbLine
 10
-54.0
 20
114.0000000000001
 30
0.0
 11
-36.0
 21
114.0000000000001
 31
0.0
  0
LINE
  5
72CE
330
725D
100
AcDbEntity
  8
0
100
AcDbLine
 10
-41.0
 20
111.6905989232412
 30
0.0
 11
-41.0
 21
116.3094010767582
 31
0.0
  0
LINE
  5
72CF
330
725D
100
AcDbEntity
  8
0
100
AcDbLine
 10
-45.0000000000001
 20
109.3811978464827
 30
0.0
 11
-41.0
 21
111.6905989232412
 31
0.0
  0
LINE
  5
72D0
330
725D
100
AcDbEntity
  8
0
100
AcDbLine
 10
-49.0
 20
111.6905989232412
 30
0.0
 11
-45.0000000000001
 21
109.3811978464827
 31
0.0
  0
LINE
  5
72D1
330
725D
100
AcDbEntity
  8
0
100
AcDbLine
 10
-49.0
 20
116.3094010767582
 30
0.0
 11
-49.0
 21
111.6905989232412
 31
0.0
  0
LINE
  5
72D2
330
725D
100
AcDbEntity
  8
0
100
AcDbLine
 10
-45.0
 20
118.6188021535167
 30
0.0
 11
-49.0
 21
116.3094010767582
 31
0.0
  0
LINE
  5
72D3
330
725D
100
AcDbEntity
  8
0
100
AcDbLine
 10
-41.0
 20
116.3094010767582
 30
0.0
 11
-45.0
 21
118.6188021535167
 31
0.0
  0
ARC
  5
72D4
330
725D
100
AcDbEntity
  8
0
100
AcDbCircle
 10
-45.0
 20
114.0000000000001
 30
0.0
 40
8.0
100
AcDbArc
 50
46.5674634422112
 51
133.4325365577887
  0
CIRCLE
  5
72D5
330
725D
100
AcDbEntity
  8
0
100
AcDbCircle
 10
22.50000000000011
 20
107.0
 30
0.0
 40
4.0
210
0.0
220
0.0
230
-1.0
  0
LINE
  5
72D6
330
725D
100
AcDbEntity
  8
0
100
AcDbLine
 10
-14.5
 20
107.0
 30
0.0
 11
-30.5
 21
107.0
 31
0.0
  0
LINE
  5
72D7
330
725D
100
AcDbEntity
  8
0
100
AcDbLine
 10
-22.5
 20
115.0000000000001
 30
0.0
 11
-22.5
 21
99.00000000000012
 31
0.0
  0
LINE
  5
72D8
330
725D
100
AcDbEntity
  8
0
100
AcDbLine
 10
30.5
 20
107.0
 30
0.0
 11
14.5
 21
107.0
 31
0.0
  0
CIRCLE
  5
72D9
330
725D
100
AcDbEntity
  8
0
100
AcDbCircle
 10
-22.49999999999988
 20
107.0
 30
0.0
 40
4.0
210
0.0
220
0.0
230
-1.0
  0
LINE
  5
72DA
330
725D
100
AcDbEntity
  8
0
100
AcDbLine
 10
-5.5
 20
114.0000000000001
 30
0.0
 11
-5.5
 21
130.0
 31
0.0
  0
LINE
  5
72DB
330
725D
100
AcDbEntity
  8
0
100
AcDbLine
 10
5.5
 20
114.0000000000001
 30
0.0
 11
5.5
 21
130.0
 31
0.0
  0
LINE
  5
72DC
330
725D
100
AcDbEntity
  8
0
100
AcDbLine
 10
0.0
 20
105.0
 30
0.0
 11
0.0
 21
123.0000000000001
 31
0.0
  0
ARC
  5
72DD
330
725D
100
AcDbEntity
  8
0
100
AcDbCircle
 10
0.0
 20
114.0000000000001
 30
0.0
 40
5.5
100
AcDbArc
 50
180.0
 51
0.0
  0
LINE
  5
72DE
330
725D
100
AcDbEntity
  8
0
100
AcDbLine
 10
4.0
 20
111.6905989232412
 30
0.0
 11
4.0
 21
116.3094010767582
 31
0.0
  0
LINE
  5
72DF
330
725D
100
AcDbEntity
  8
0
100
AcDbLine
 10
-0.0000000000001137
 20
109.3811978464827
 30
0.0
 11
4.0
 21
111.6905989232412
 31
0.0
  0
LINE
  5
72E0
330
725D
100
AcDbEntity
  8
0
100
AcDbLine
 10
-4.0
 20
111.6905989232412
 30
0.0
 11
-0.0000000000001137
 21
109.3811978464827
 31
0.0
  0
LINE
  5
72E1
330
725D
100
AcDbEntity
  8
0
100
AcDbLine
 10
-4.0
 20
116.3094010767582
 30
0.0
 11
-4.0
 21
111.6905989232412
 31
0.0
  0
LINE
  5
72E2
330
725D
100
AcDbEntity
  8
0
100
AcDbLine
 10
0.0
 20
118.6188021535167
 30
0.0
 11
-4.0
 21
116.3094010767582
 31
0.0
  0
LINE
  5
72E3
330
725D
100
AcDbEntity
  8
0
100
AcDbLine
 10
4.0
 20
116.3094010767582
 30
0.0
 11
0.0
 21
118.6188021535167
 31
0.0
  0
LINE
  5
72E4
330
725D
100
AcDbEntity
  8
0
100
AcDbLine
 10
22.5
 20
115.0000000000001
 30
0.0
 11
22.5
 21
99.00000000000012
 31
0.0
  0
ARC
  5
72E5
330
725D
100
AcDbEntity
  8
0
100
AcDbCircle
 10
0.0
 20
114.0000000000001
 30
0.0
 40
8.0
100
AcDbArc
 50
46.5674634422112
 51
133.4325365577887
  0
LINE
  5
72E6
330
725D
100
AcDbEntity
  8
0
100
AcDbLine
 10
39.5
 20
114.0000000000001
 30
0.0
 11
39.5
 21
130.0
 31
0.0
  0
LINE
  5
72E7
330
725D
100
AcDbEntity
  8
0
100
AcDbLine
 10
50.5
 20
114.0000000000001
 30
0.0
 11
50.5
 21
130.0
 31
0.0
  0
LINE
  5
72E8
330
725D
100
AcDbEntity
  8
0
100
AcDbLine
 10
45.0
 20
105.0
 30
0.0
 11
45.0
 21
123.0000000000001
 31
0.0
  0
ARC
  5
72E9
330
725D
100
AcDbEntity
  8
0
100
AcDbCircle
 10
45.0
 20
114.0000000000001
 30
0.0
 40
5.5
100
AcDbArc
 50
180.0
 51
0.0
  0
LINE
  5
72EA
330
725D
100
AcDbEntity
  8
0
100
AcDbLine
 10
49.0
 20
111.6905989232412
 30
0.0
 11
49.0
 21
116.3094010767582
 31
0.0
  0
LINE
  5
72EB
330
725D
100
AcDbEntity
  8
0
100
AcDbLine
 10
44.99999999999988
 20
109.3811978464827
 30
0.0
 11
49.0
 21
111.6905989232412
 31
0.0
  0
LINE
  5
72EC
330
725D
100
AcDbEntity
  8
0
100
AcDbLine
 10
41.0
 20
111.6905989232412
 30
0.0
 11
44.99999999999988
 21
109.3811978464827
 31
0.0
  0
LINE
  5
72ED
330
725D
100
AcDbEntity
  8
0
100
AcDbLine
 10
41.0
 20
116.3094010767582
 30
0.0
 11
41.0
 21
111.6905989232412
 31
0.0
  0
LINE
  5
72EE
330
725D
100
AcDbEntity
  8
0
100
AcDbLine
 10
45.0
 20
118.6188021535167
 30
0.0
 11
41.0
 21
116.3094010767582
 31
0.0
  0
LINE
  5
72EF
330
725D
100
AcDbEntity
  8
0
100
AcDbLine
 10
49.0
 20
116.3094010767582
 30
0.0
 11
45.0
 21
118.6188021535167
 31
0.0
  0
ARC
  5
72F0
330
725D
100
AcDbEntity
  8
0
100
AcDbCircle
 10
45.0
 20
114.0000000000001
 30
0.0
 40
8.0
100
AcDbArc
 50
46.5674634422112
 51
133.4325365577887
  0
LINE
  5
72F1
330
725D
100
AcDbEntity
  8
0
100
AcDbLine
 10
-74.00000000000004
 20
174.5000000000002
 30
0.0
 11
-46.0
 21
174.5000000000002
 31
0.0
  0
LINE
  5
72F2
330
725D
100
AcDbEntity
  8
0
100
AcDbLine
 10
-71.00000000000004
 20
160.0000000000002
 30
0.0
 11
-49.0
 21
160.0000000000002
 31
0.0
  0
CIRCLE
  5
72F3
330
725D
100
AcDbEntity
  8
0
100
AcDbCircle
 10
-60.0
 20
160.0000000000002
 30
0.0
 40
7.0
  0
LINE
  5
72F4
330
725D
100
AcDbEntity
  8
0
100
AcDbLine
 10
-74.00000000000004
 20
174.5000000000002
 30
0.0
 11
-74.00000000000004
 21
150.0
 31
0.0
  0
LINE
  5
72F5
330
725D
100
AcDbEntity
  8
0
100
AcDbLine
 10
-11.0
 20
160.0000000000002
 30
0.0
 11
11.0
 21
160.0000000000002
 31
0.0
  0
LINE
  5
72F6
330
725D
100
AcDbEntity
  8
0
100
AcDbLine
 10
-14.0
 20
174.5000000000002
 30
0.0
 11
14.0
 21
174.5000000000002
 31
0.0
  0
CIRCLE
  5
72F7
330
725D
100
AcDbEntity
  8
0
100
AcDbCircle
 10
0.0
 20
160.0000000000002
 30
0.0
 40
7.0
  0
LINE
  5
72F8
330
725D
100
AcDbEntity
  8
0
100
AcDbLine
 10
-60.0
 20
171.0
 30
0.0
 11
-60.0
 21
149.0
 31
0.0
  0
LINE
  5
72F9
330
725D
100
AcDbEntity
  8
0
100
AcDbLine
 10
-46.0
 20
174.5000000000002
 30
0.0
 11
-46.0
 21
150.0
 31
0.0
  0
LINE
  5
72FA
330
725D
100
AcDbEntity
  8
0
100
AcDbLine
 10
46.0
 20
174.5000000000002
 30
0.0
 11
46.0
 21
150.0
 31
0.0
  0
ARC
  5
72FB
330
725D
100
AcDbEntity
  8
0
100
AcDbCircle
 10
53.0
 20
-40.0
 30
0.0
 40
5.0
100
AcDbArc
 50
270.0
 51
0.0
  0
LINE
  5
72FC
330
725D
100
AcDbEntity
  8
0
100
AcDbLine
 10
70.0
 20
130.0
 30
0.0
 11
70.0
 21
-130.0
 31
0.0
  0
LINE
  5
72FD
330
725D
100
AcDbEntity
  8
0
100
AcDbLine
 10
101.2499999999999
 20
-220.0727983283795
 30
0.0
 11
101.2499999999999
 21
-245.0
 31
0.0
  0
LINE
  5
72FE
330
725D
100
AcDbEntity
  8
0
100
AcDbLine
 10
99.25
 20
-218.6397501985154
 30
0.0
 11
99.25
 21
-245.0
 31
0.0
  0
LINE
  5
72FF
330
725D
100
AcDbEntity
  8
0
100
AcDbLine
 10
98.54999999999996
 20
-245.0
 30
0.0
 11
98.54999999999996
 21
-249.946911919693
 31
0.0
  0
LINE
  5
7300
330
725D
100
AcDbEntity
  8
0
100
AcDbLine
 10
101.9499999999996
 20
-245.0
 30
0.0
 11
101.9499999999996
 21
-249.946911919693
 31
0.0
  0
LINE
  5
7301
330
725D
100
AcDbEntity
  8
0
100
AcDbLine
 10
98.20195134105155
 20
-251.578859039728
 30
0.0
 11
96.59804865894841
 21
-255.1680528799646
 31
0.0
  0
ARC
  5
7302
330
725D
100
AcDbEntity
  8
0
100
AcDbCircle
 10
100.2499999999999
 20
-256.8
 30
0.0
 40
4.0
100
AcDbArc
 50
155.9215699388889
 51
24.07843006111111
  0
LINE
  5
7303
330
725D
100
AcDbEntity
  8
0
100
AcDbLine
 10
98.54999999999996
 20
-249.8
 30
0.0
 11
101.9499999999996
 21
-249.8
 31
0.0
  0
LINE
  5
7304
330
725D
100
AcDbEntity
  8
0
100
AcDbLine
 10
102.2980486589484
 20
-251.578859039728
 30
0.0
 11
103.9019513410514
 21
-255.1680528799646
 31
0.0
  0
ARC
  5
7305
330
725D
100
AcDbEntity
  8
0
100
AcDbCircle
 10
94.54999999999996
 20
-249.946911919693
 30
0.0
 40
4.0
100
AcDbArc
 50
335.9215699388887
 51
0.0
  0
CIRCLE
  5
7306
330
725D
100
AcDbEntity
  8
0
100
AcDbCircle
 10
100.2499999999999
 20
-256.8
 30
0.0
 40
2.149999999999999
  0
ARC
  5
7307
330
725D
100
AcDbEntity
  8
0
100
AcDbCircle
 10
105.9499999999996
 20
-249.946911919693
 30
0.0
 40
4.0
100
AcDbArc
 50
180.0
 51
204.0784300611111
  0
LINE
  5
7308
330
725D
100
AcDbEntity
  8
0
100
AcDbLine
 10
98.54999999999996
 20
-245.0
 30
0.0
 11
101.9499999999996
 21
-245.0
 31
0.0
  0
LINE
  5
7309
330
725D
100
AcDbEntity
  8
0
100
AcDbLine
 10
59.25
 20
-130.0
 30
0.0
 11
59.25
 21
-175.0
 31
0.0
  0
LINE
  5
730A
330
725D
100
AcDbEntity
  8
0
100
AcDbLine
 10
61.25
 20
-130.0
 30
0.0
 11
61.25
 21
-175.0
 31
0.0
  0
LINE
  5
730B
330
725D
100
AcDbEntity
  8
0
100
AcDbLine
 10
74.0
 20
-150.0000000000003
 30
0.0
 11
59.0
 21
-130.0000000000003
 31
0.0
  0
ARC
  5
730C
330
725D
100
AcDbEntity
  8
0
100
AcDbCircle
 10
71.25
 20
-175.0
 30
0.0
 40
10.0
100
AcDbArc
 50
180.0
 51
270.0
  0
ARC
  5
730D
330
725D
100
AcDbEntity
  8
0
100
AcDbCircle
 10
71.25
 20
-175.0
 30
0.0
 40
12.0
100
AcDbArc
 50
180.0
 51
270.0
  0
LINE
  5
730E
330
725D
100
AcDbEntity
  8
0
100
AcDbLine
 10
71.25
 20
-185.0
 30
0.0
 11
89.25
 21
-185.0
 31
0.0
  0
LINE
  5
730F
330
725D
100
AcDbEntity
  8
0
100
AcDbLine
 10
71.25
 20
-187.0
 30
0.0
 11
89.25
 21
-187.0
 31
0.0
  0
LINE
  5
7310
330
725D
100
AcDbEntity
  8
0
100
AcDbLine
 10
101.2499999999999
 20
-197.0
 30
0.0
 11
101.2499999999999
 21
-218.0727983283795
 31
0.0
  0
LINE
  5
7311
330
725D
100
AcDbEntity
  8
0
100
AcDbLine
 10
99.25
 20
-197.0
 30
0.0
 11
99.25
 21
-216.6397501985156
 31
0.0
  0
SPLINE
  5
7312
330
725D
100
AcDbEntity
  8
0
100
AcDbSpline
210
0.0
220
0.0
230
1.0
 70
     8
 71
     3
 72
     8
 73
     4
 74
     0
 42
0.0000000001
 43
0.0000000001
 40
0.0
 40
0.0
 40
0.0
 40
0.0
 40
1.0
 40
1.0
 40
1.0
 40
1.0
 10
96.25
 20
-219.0
 30
0.0
 10
98.25000000000001
 20
-215.0
 30
0.0
 10
102.2499999999999
 20
-224.0
 30
0.0
 10
104.2499999999999
 20
-219.0
 30
0.0
  0
SPLINE
  5
7313
330
725D
100
AcDbEntity
  8
0
100
AcDbSpline
210
0.0
220
0.0
230
1.0
 70
     8
 71
     3
 72
     8
 73
     4
 74
     0
 42
0.0000000001
 43
0.0000000001
 40
0.0
 40
0.0
 40
0.0
 40
0.0
 40
1.0
 40
1.0
 40
1.0
 40
1.0
 10
96.25
 20
-217.0
 30
0.0
 10
98.25000000000001
 20
-213.0
 30
0.0
 10
102.2499999999999
 20
-222.0
 30
0.0
 10
104.2499999999999
 20
-217.0
 30
0.0
  0
ARC
  5
7314
330
725D
100
AcDbEntity
  8
0
100
AcDbCircle
 10
89.25
 20
-197.0
 30
0.0
 40
12.0
100
AcDbArc
 50
0.0
 51
90.0
  0
ARC
  5
7315
330
725D
100
AcDbEntity
  8
0
100
AcDbCircle
 10
89.25
 20
-197.0
 30
0.0
 40
10.0
100
AcDbArc
 50
0.0
 51
90.0
  0
LINE
  5
7316
330
725D
100
AcDbEntity
  8
0
100
AcDbLine
 10
60.0
 20
-149.0
 30
0.0
 11
60.0
 21
-171.0
 31
0.0
  0
LINE
  5
7317
330
725D
100
AcDbEntity
  8
0
100
AcDbLine
 10
74.0
 20
-174.5
 30
0.0
 11
74.0
 21
-150.0000000000003
 31
0.0
  0
CIRCLE
  5
7318
330
725D
100
AcDbEntity
  8
0
100
AcDbCircle
 10
-60.0
 20
-160.0
 30
0.0
 40
7.0
210
0.0
220
0.0
230
-1.0
  0
LINE
  5
7319
330
725D
100
AcDbEntity
  8
0
100
AcDbLine
 10
74.0
 20
150.0
 30
0.0
 11
59.0
 21
130.0
 31
0.0
  0
LINE
  5
731A
330
725D
100
AcDbEntity
  8
0
100
AcDbLine
 10
58.0
 20
40.00000000000009
 30
0.0
 11
58.0
 21
-40.0
 31
0.0
  0
ARC
  5
731B
330
725D
100
AcDbEntity
  8
0
100
AcDbCircle
 10
53.0
 20
40.00000000000009
 30
0.0
 40
5.0
100
AcDbArc
 50
0.0
 51
90.0
  0
LINE
  5
731C
330
725D
100
AcDbEntity
  8
0
100
AcDbLine
 10
60.0
 20
171.0
 30
0.0
 11
60.0
 21
149.0
 31
0.0
  0
LINE
  5
731D
330
725D
100
AcDbEntity
  8
0
100
AcDbLine
 10
74.0
 20
174.5000000000002
 30
0.0
 11
74.0
 21
150.0
 31
0.0
  0
CIRCLE
  5
731E
330
725D
100
AcDbEntity
  8
0
100
AcDbCircle
 10
60.0
 20
160.0000000000002
 30
0.0
 40
7.0
  0
ENDBLK
  5
7320
330
725D
100
AcDbEntity
  8
0
100
AcDbBlockEnd
  0
BLOCK
  5
767C
330
7672
100
AcDbEntity
  8
0
100
AcDbBlockBegin
  2
*D4
 70
     1
 10
0.0
 20
0.0
 30
0.0
  3
*D4
  1

  0
LINE
  5
768B
330
7672
100
AcDbEntity
  8
30
  6
CONTINUOUS
 62
     0
100
AcDbLine
 10
-35.04569613739295
 20
-253.0
 30
0.0
 11
-97.59969543092026
 21
-252.9999999999999
 31
0.0
  0
LINE
  5
768C
330
7672
100
AcDbEntity
  8
30
  6
CONTINUOUS
 62
     0
100
AcDbLine
 10
-35.04569613739295
 20
-466.9999999999998
 30
0.0
 11
-97.59969543092028
 21
-466.9999999999998
 31
0.0
  0
LINE
  5
768D
330
7672
100
AcDbEntity
  8
30
  6
CONTINUOUS
 62
     0
100
AcDbLine
 10
-97.09969543092023
 20
-254.9999999999999
 30
0.0
 11
-97.09969543092029
 21
-464.9999999999998
 31
0.0
  0
INSERT
  5
768E
330
7672
100
AcDbEntity
  8
30
  6
CONTINUOUS
 62
     0
100
AcDbBlockReference
  2
_OPEN
 10
-97.09969543092023
 20
-252.9999999999999
 30
0.0
 41
2.0
 42
2.0
 43
2.0
 50
90.0
  0
INSERT
  5
768F
330
7672
100
AcDbEntity
  8
30
  6
CONTINUOUS
 62
     0
100
AcDbBlockReference
  2
_OPEN
 10
-97.09969543092029
 20
-466.9999999999998
 30
0.0
 41
2.0
 42
2.0
 43
2.0
 50
270.0
  0
MTEXT
  5
7690
330
7672
100
AcDbEntity
  8
30
  6
CONTINUOUS
 62
     0
100
AcDbMText
 10
-100.0996954309202
 20
-360.0
 30
0.0
 40
4.0
 41
0.0
 71
     5
 72
     1
  1
\A1;214
 11
0.0000000000000001
 21
1.0
 31
0.0
1001
ACAD
1000
MTEXTBEGIN
1070
    73
1070
     1
1070
    44
1040
1.0
1070
    74
1070
     0
1000
MTEXTEND
1000
MTEXTBEGIN
1070
    73
1070
     1
1070
    44
1040
1.0
1070
    74
1070
     0
1000
MTEXTEND
1000
MTEXTBEGIN
1070
    73
1070
     1
1070
    44
1040
1.0
1070
    74
1070
     0
1000
MTEXTEND
  0
POINT
  5
7691
330
7672
100
AcDbEntity
  8
DEFPOINTS
  6
CONTINUOUS
 62
     0
100
AcDbPoint
 10
-34.04569613739295
 20
-253.0
 30
0.0
  0
POINT
  5
7692
330
7672
100
AcDbEntity
  8
DEFPOINTS
  6
CONTINUOUS
 62
     0
100
AcDbPoint
 10
-34.04569613739295
 20
-466.9999999999998
 30
0.0
  0
POINT
  5
7693
330
7672
100
AcDbEntity
  8
DEFPOINTS
  6
CONTINUOUS
 62
     0
100
AcDbPoint
 10
-97.09969543092029
 20
-466.9999999999998
 30
0.0
  0
ENDBLK
  5
767D
330
7672
100
AcDbEntity
  8
0
100
AcDbBlockEnd
  0
BLOCK
  5
7689
330
767F
100
AcDbEntity
  8
0
100
AcDbBlockBegin
  2
*D5
 70
     1
 10
0.0
 20
0.0
 30
0.0
  3
*D5
  1

  0
LINE
  5
7680
330
767F
100
AcDbEntity
  8
30
  6
CONTINUOUS
 62
     0
100
AcDbLine
 10
-22.5
 20
-474.9999999999998
 30
0.0
 11
-22.5
 21
-519.2040664304705
 31
0.0
  0
LINE
  5
7681
330
767F
100
AcDbEntity
  8
30
  6
CONTINUOUS
 62
     0
100
AcDbLine
 10
22.5
 20
-474.9999999999998
 30
0.0
 11
22.49999999999999
 21
-519.2040664304705
 31
0.0
  0
LINE
  5
7682
330
767F
100
AcDbEntity
  8
30
  6
CONTINUOUS
 62
     0
100
AcDbLine
 10
-20.5
 20
-518.7040664304706
 30
0.0
 11
20.49999999999998
 21
-518.7040664304706
 31
0.0
  0
INSERT
  5
7683
330
767F
100
AcDbEntity
  8
30
  6
CONTINUOUS
 62
     0
100
AcDbBlockReference
  2
_OPEN
 10
-22.5
 20
-518.7040664304706
 30
0.0
 41
2.0
 42
2.0
 43
2.0
 50
180.0
  0
INSERT
  5
7684
330
767F
100
AcDbEntity
  8
30
  6
CONTINUOUS
 62
     0
100
AcDbBlockReference
  2
_OPEN
 10
22.49999999999999
 20
-518.7040664304706
 30
0.0
 41
2.0
 42
2.0
 43
2.0
  0
MTEXT
  5
7685
330
767F
100
AcDbEntity
  8
30
  6
CONTINUOUS
 62
     0
100
AcDbMText
 10
-0.0000000000000034
 20
-515.7040664304705
 30
0.0
 40
4.0
 41
0.0
 71
     5
 72
     1
  1
\A1;45
1001
ACAD
1000
MTEXTBEGIN
1070
    73
1070
     1
1070
    44
1040
1.0
1070
    74
1070
     0
1000
MTEXTEND
1000
MTEXTBEGIN
1070
    73
1070
     1
1070
    44
1040
1.0
1070
    74
1070
     0
1000
MTEXTEND
1000
MTEXTBEGIN
1070
    73
1070
     1
1070
    44
1040
1.0
1070
    74
1070
     0
1000
MTEXTEND
  0
POINT
  5
7686
330
767F
100
AcDbEntity
  8
DEFPOINTS
  6
CONTINUOUS
 62
     0
100
AcDbPoint
 10
-22.5
 20
-473.9999999999998
 30
0.0
  0
POINT
  5
7687
330
767F
100
AcDbEntity
  8
DEFPOINTS
  6
CONTINUOUS
 62
     0
100
AcDbPoint
 10
22.5
 20
-473.9999999999998
 30
0.0
  0
POINT
  5
7688
330
767F
100
AcDbEntity
  8
DEFPOINTS
  6
CONTINUOUS
 62
     0
100
AcDbPoint
 10
22.49999999999999
 20
-518.7040664304706
 30
0.0
  0
ENDBLK
  5
768A
330
767F
100
AcDbEntity
  8
0
100
AcDbBlockEnd
  0
BLOCK
  5
769E
330
7695
100
AcDbEntity
  8
0
100
AcDbBlockBegin
  2
*D6
 70
     1
 10
0.0
 20
0.0
 30
0.0
  3
*D6
  1

  0
LINE
  5
87C8
330
7695
100
AcDbEntity
  8
30
  6
CONTINUOUS
 62
     0
100
AcDbLine
 10
361.6597496400636
 20
-306.031299459585
 30
0.0
 11
353.993082973395
 21
-306.0312994595848
 31
0.0
  0
LINE
  5
87C9
330
7695
100
AcDbEntity
  8
30
  6
CONTINUOUS
 62
     0
100
AcDbLine
 10
353.993082973395
 20
-306.0312994595848
 30
0.0
 11
330.2934498468415
 21
-316.7128143752423
 31
0.0
  0
MTEXT
  5
87CA
330
7695
100
AcDbEntity
  8
30
  6
CONTINUOUS
 62
     0
100
AcDbMText
 10
358.3264163067303
 20
-303.0312994595849
 30
0.0
 40
4.0
 41
0.0
 71
     5
 72
     1
  1
\A1;R6
1001
ACAD
1000
MTEXTBEGIN
1070
    73
1070
     1
1070
    44
1040
1.0
1070
    74
1070
     0
1000
MTEXTEND
1000
MTEXTBEGIN
1070
    73
1070
     1
1070
    44
1040
1.0
1070
    74
1070
     0
1000
MTEXTEND
1000
MTEXTBEGIN
1070
    73
1070
     1
1070
    44
1040
1.0
1070
    74
1070
     0
1000
MTEXTEND
  0
INSERT
  5
87CB
330
7695
100
AcDbEntity
  8
30
  6
CONTINUOUS
 62
     0
100
AcDbBlockReference
  2
_OPEN
 10
328.4700873851312
 20
-317.5346107814316
 30
0.0
 41
2.0
 42
2.0
 43
2.0
 50
204.2612710120878
  0
LINE
  5
87CC
330
7695
100
AcDbEntity
  8
30
  6
CONTINUOUS
 62
     0
100
AcDbLine
 10
322.91
 20
-320.0000000000001
 30
0.0
 11
323.0899999999998
 21
-320.0000000000001
 31
0.0
  0
LINE
  5
87CD
330
7695
100
AcDbEntity
  8
30
  6
CONTINUOUS
 62
     0
100
AcDbLine
 10
323.0
 20
-320.0899999999998
 30
0.0
 11
323.0
 21
-319.9100000000001
 31
0.0
  0
POINT
  5
87CE
330
7695
100
AcDbEntity
  8
DEFPOINTS
  6
CONTINUOUS
 62
     0
100
AcDbPoint
 10
328.4700873851312
 20
-317.5346107814316
 30
0.0
  0
POINT
  5
87CF
330
7695
100
AcDbEntity
  8
DEFPOINTS
  6
CONTINUOUS
 62
     0
100
AcDbPoint
 10
323.0
 20
-320.0000000000001
 30
0.0
  0
ENDBLK
  5
769F
330
7695
100
AcDbEntity
  8
0
100
AcDbBlockEnd
  0
BLOCK
  5
76B3
330
76A9
100
AcDbEntity
  8
0
100
AcDbBlockBegin
  2
*D7
 70
     1
 10
0.0
 20
0.0
 30
0.0
  3
*D7
  1

  0
LINE
  5
87B6
330
76A9
100
AcDbEntity
  8
30
  6
CONTINUOUS
 62
     0
100
AcDbLine
 10
211.0
 20
-401.0
 30
0.0
 11
211.0
 21
-431.4055588177362
 31
0.0
  0
LINE
  5
87B7
330
76A9
100
AcDbEntity
  8
30
  6
CONTINUOUS
 62
     0
100
AcDbLine
 10
329.0
 20
-401.0
 30
0.0
 11
329.0
 21
-431.4055588177362
 31
0.0
  0
LINE
  5
87B8
330
76A9
100
AcDbEntity
  8
30
  6
CONTINUOUS
 62
     0
100
AcDbLine
 10
213.0
 20
-430.9055588177362
 30
0.0
 11
327.0
 21
-430.9055588177362
 31
0.0
  0
INSERT
  5
87B9
330
76A9
100
AcDbEntity
  8
30
  6
CONTINUOUS
 62
     0
100
AcDbBlockReference
  2
_OPEN
 10
211.0
 20
-430.9055588177362
 30
0.0
 41
2.0
 42
2.0
 43
2.0
 50
180.0
  0
INSERT
  5
87BA
330
76A9
100
AcDbEntity
  8
30
  6
CONTINUOUS
 62
     0
100
AcDbBlockReference
  2
_OPEN
 10
329.0
 20
-430.9055588177362
 30
0.0
 41
2.0
 42
2.0
 43
2.0
  0
MTEXT
  5
87BB
330
76A9
100
AcDbEntity
  8
30
  6
CONTINUOUS
 62
     0
100
AcDbMText
 10
270.0
 20
-427.9055588177362
 30
0.0
 40
4.0
 41
0.0
 71
     5
 72
     1
  1
\A1;118
1001
ACAD
1000
MTEXTBEGIN
1070
    73
1070
     1
1070
    44
1040
1.0
1070
    74
1070
     0
1000
MTEXTEND
1000
MTEXTBEGIN
1070
    73
1070
     1
1070
    44
1040
1.0
1070
    74
1070
     0
1000
MTEXTEND
1000
MTEXTBEGIN
1070
    73
1070
     1
1070
    44
1040
1.0
1070
    74
1070
     0
1000
MTEXTEND
  0
POINT
  5
87BC
330
76A9
100
AcDbEntity
  8
DEFPOINTS
  6
CONTINUOUS
 62
     0
100
AcDbPoint
 10
211.0
 20
-400.0
 30
0.0
  0
POINT
  5
87BD
330
76A9
100
AcDbEntity
  8
DEFPOINTS
  6
CONTINUOUS
 62
     0
100
AcDbPoint
 10
329.0
 20
-400.0
 30
0.0
  0
POINT
  5
87BE
330
76A9
100
AcDbEntity
  8
DEFPOINTS
  6
CONTINUOUS
 62
     0
100
AcDbPoint
 10
329.0
 20
-430.9055588177362
 30
0.0
  0
ENDBLK
  5
76B4
330
76A9
100
AcDbEntity
  8
0
100
AcDbBlockEnd
  0
BLOCK
  5
76C0
330
76B6
100
AcDbEntity
  8
0
100
AcDbBlockBegin
  2
*D8
 70
     1
 10
0.0
 20
0.0
 30
0.0
  3
*D8
  1

  0
LINE
  5
87BF
330
76B6
100
AcDbEntity
  8
30
  6
CONTINUOUS
 62
     0
100
AcDbLine
 10
324.0
 20
-313.9999999999998
 30
0.0
 11
363.5844752481832
 21
-313.9999999999998
 31
0.0
  0
LINE
  5
87C0
330
76B6
100
AcDbEntity
  8
30
  6
CONTINUOUS
 62
     0
100
AcDbLine
 10
324.0
 20
-406.0
 30
0.0
 11
363.5844752481832
 21
-406.0
 31
0.0
  0
LINE
  5
87C1
330
76B6
100
AcDbEntity
  8
30
  6
CONTINUOUS
 62
     0
100
AcDbLine
 10
363.0844752481832
 20
-315.9999999999998
 30
0.0
 11
363.0844752481832
 21
-404.0
 31
0.0
  0
INSERT
  5
87C2
330
76B6
100
AcDbEntity
  8
30
  6
CONTINUOUS
 62
     0
100
AcDbBlockReference
  2
_OPEN
 10
363.0844752481832
 20
-313.9999999999998
 30
0.0
 41
2.0
 42
2.0
 43
2.0
 50
90.0
  0
INSERT
  5
87C3
330
76B6
100
AcDbEntity
  8
30
  6
CONTINUOUS
 62
     0
100
AcDbBlockReference
  2
_OPEN
 10
363.0844752481832
 20
-406.0
 30
0.0
 41
2.0
 42
2.0
 43
2.0
 50
270.0
  0
MTEXT
  5
87C4
330
76B6
100
AcDbEntity
  8
30
  6
CONTINUOUS
 62
     0
100
AcDbMText
 10
360.0844752481833
 20
-359.9999999999998
 30
0.0
 40
4.0
 41
0.0
 71
     5
 72
     1
  1
\A1;92
 11
0.0000000000000001
 21
1.0
 31
0.0
1001
ACAD
1000
MTEXTBEGIN
1070
    73
1070
     1
1070
    44
1040
1.0
1070
    74
1070
     0
1000
MTEXTEND
1000
MTEXTBEGIN
1070
    73
1070
     1
1070
    44
1040
1.0
1070
    74
1070
     0
1000
MTEXTEND
1000
MTEXTBEGIN
1070
    73
1070
     1
1070
    44
1040
1.0
1070
    74
1070
     0
1000
MTEXTEND
  0
POINT
  5
87C5
330
76B6
100
AcDbEntity
  8
DEFPOINTS
  6
CONTINUOUS
 62
     0
100
AcDbPoint
 10
323.0
 20
-313.9999999999998
 30
0.0
  0
POINT
  5
87C6
330
76B6
100
AcDbEntity
  8
DEFPOINTS
  6
CONTINUOUS
 62
     0
100
AcDbPoint
 10
323.0
 20
-406.0
 30
0.0
  0
POINT
  5
87C7
330
76B6
100
AcDbEntity
  8
DEFPOINTS
  6
CONTINUOUS
 62
     0
100
AcDbPoint
 10
363.0844752481832
 20
-406.0
 30
0.0
  0
ENDBLK
  5
76C1
330
76B6
100
AcDbEntity
  8
0
100
AcDbBlockEnd
  0
BLOCK
  5
76CE
330
76C4
100
AcDbEntity
  8
0
100
AcDbBlockBegin
  2
*D9
 70
     1
 10
0.0
 20
0.0
 30
0.0
  3
*D9
  1

  0
LINE
  5
87FB
330
76C4
100
AcDbEntity
  8
30
  6
CONTINUOUS
 62
     0
100
AcDbLine
 10
357.7699465681198
 20
144.2621828604458
 30
0.0
 11
357.7699465681198
 21
129.1759028429516
 31
0.0
  0
LINE
  5
87FC
330
76C4
100
AcDbEntity
  8
30
  6
CONTINUOUS
 62
     0
100
AcDbLine
 10
382.7699465681196
 20
144.2621828604458
 30
0.0
 11
382.7699465681196
 21
129.1759028429516
 31
0.0
  0
LINE
  5
87FD
330
76C4
100
AcDbEntity
  8
30
  6
CONTINUOUS
 62
     0
100
AcDbLine
 10
359.7699465681198
 20
129.6759028429516
 30
0.0
 11
380.7699465681196
 21
129.6759028429516
 31
0.0
  0
INSERT
  5
87FE
330
76C4
100
AcDbEntity
  8
30
  6
CONTINUOUS
 62
     0
100
AcDbBlockReference
  2
_OPEN
 10
357.7699465681198
 20
129.6759028429516
 30
0.0
 41
2.0
 42
2.0
 43
2.0
 50
180.0
  0
INSERT
  5
87FF
330
76C4
100
AcDbEntity
  8
30
  6
CONTINUOUS
 62
     0
100
AcDbBlockReference
  2
_OPEN
 10
382.7699465681196
 20
129.6759028429516
 30
0.0
 41
2.0
 42
2.0
 43
2.0
  0
MTEXT
  5
8800
330
76C4
100
AcDbEntity
  8
30
  6
CONTINUOUS
 62
     0
100
AcDbMText
 10
370.2699465681198
 20
132.6759028429516
 30
0.0
 40
4.0
 41
0.0
 71
     5
 72
     1
  1
\A1;25
1001
ACAD
1000
MTEXTBEGIN
1070
    73
1070
     1
1070
    44
1040
1.0
1070
    74
1070
     0
1000
MTEXTEND
1000
MTEXTBEGIN
1070
    73
1070
     1
1070
    44
1040
1.0
1070
    74
1070
     0
1000
MTEXTEND
1000
MTEXTBEGIN
1070
    73
1070
     1
1070
    44
1040
1.0
1070
    74
1070
     0
1000
MTEXTEND
  0
POINT
  5
8801
330
76C4
100
AcDbEntity
  8
DEFPOINTS
  6
CONTINUOUS
 62
     0
100
AcDbPoint
 10
357.7699465681198
 20
145.2621828604461
 30
0.0
  0
POINT
  5
8802
330
76C4
100
AcDbEntity
  8
DEFPOINTS
  6
CONTINUOUS
 62
     0
100
AcDbPoint
 10
382.7699465681196
 20
145.2621828604461
 30
0.0
  0
POINT
  5
8803
330
76C4
100
AcDbEntity
  8
DEFPOINTS
  6
CONTINUOUS
 62
     0
100
AcDbPoint
 10
382.7699465681196
 20
129.6759028429516
 30
0.0
  0
ENDBLK
  5
76CF
330
76C4
100
AcDbEntity
  8
0
100
AcDbBlockEnd
  0
BLOCK
  5
76DB
330
76D1
100
AcDbEntity
  8
0
100
AcDbBlockBegin
  2
*D10
 70
     1
 10
0.0
 20
0.0
 30
0.0
  3
*D10
  1

  0
LINE
  5
87F2
330
76D1
100
AcDbEntity
  8
30
  6
CONTINUOUS
 62
     0
100
AcDbLine
 10
383.7699465681196
 20
145.2621828604461
 30
0.0
 11
399.7122762463085
 21
145.2621828604461
 31
0.0
  0
LINE
  5
87F3
330
76D1
100
AcDbEntity
  8
30
  6
CONTINUOUS
 62
     0
100
AcDbLine
 10
378.7699465681196
 20
157.2621828604461
 30
0.0
 11
399.7122762463085
 21
157.2621828604461
 31
0.0
  0
LINE
  5
87F4
330
76D1
100
AcDbEntity
  8
30
  6
CONTINUOUS
 62
     0
100
AcDbLine
 10
399.2122762463086
 20
147.2621828604459
 30
0.0
 11
399.2122762463086
 21
155.2621828604461
 31
0.0
  0
INSERT
  5
87F5
330
76D1
100
AcDbEntity
  8
30
  6
CONTINUOUS
 62
     0
100
AcDbBlockReference
  2
_OPEN
 10
399.2122762463086
 20
145.2621828604461
 30
0.0
 41
2.0
 42
2.0
 43
2.0
 50
270.0
  0
INSERT
  5
87F6
330
76D1
100
AcDbEntity
  8
30
  6
CONTINUOUS
 62
     0
100
AcDbBlockReference
  2
_OPEN
 10
399.2122762463086
 20
157.2621828604461
 30
0.0
 41
2.0
 42
2.0
 43
2.0
 50
90.0
  0
MTEXT
  5
87F7
330
76D1
100
AcDbEntity
  8
30
  6
CONTINUOUS
 62
     0
100
AcDbMText
 10
396.2122762463085
 20
151.2621828604459
 30
0.0
 40
4.0
 41
0.0
 71
     5
 72
     1
  1
\A1;12
 11
0.0000000000000001
 21
1.0
 31
0.0
1001
ACAD
1000
MTEXTBEGIN
1070
    73
1070
     1
1070
    44
1040
1.0
1070
    74
1070
     0
1000
MTEXTEND
1000
MTEXTBEGIN
1070
    73
1070
     1
1070
    44
1040
1.0
1070
    74
1070
     0
1000
MTEXTEND
1000
MTEXTBEGIN
1070
    73
1070
     1
1070
    44
1040
1.0
1070
    74
1070
     0
1000
MTEXTEND
  0
POINT
  5
87F8
330
76D1
100
AcDbEntity
  8
DEFPOINTS
  6
CONTINUOUS
 62
     0
100
AcDbPoint
 10
382.7699465681196
 20
145.2621828604461
 30
0.0
  0
POINT
  5
87F9
330
76D1
100
AcDbEntity
  8
DEFPOINTS
  6
CONTINUOUS
 62
     0
100
AcDbPoint
 10
377.7699465681196
 20
157.2621828604461
 30
0.0
  0
POINT
  5
87FA
330
76D1
100
AcDbEntity
  8
DEFPOINTS
  6
CONTINUOUS
 62
     0
100
AcDbPoint
 10
399.2122762463086
 20
157.2621828604461
 30
0.0
  0
ENDBLK
  5
76DC
330
76D1
100
AcDbEntity
  8
0
100
AcDbBlockEnd
  0
BLOCK
  5
76E7
330
76DE
100
AcDbEntity
  8
0
100
AcDbBlockBegin
  2
*D11
 70
     1
 10
0.0
 20
0.0
 30
0.0
  3
*D11
  1

  0
LINE
  5
87EA
330
76DE
100
AcDbEntity
  8
30
  6
CONTINUOUS
 62
     0
100
AcDbLine
 10
397.7347867019194
 20
180.2634688469851
 30
0.0
 11
388.7347867019186
 21
180.263468846985
 31
0.0
  0
LINE
  5
87EB
330
76DE
100
AcDbEntity
  8
30
  6
CONTINUOUS
 62
     0
100
AcDbLine
 10
388.7347867019186
 20
180.263468846985
 30
0.0
 11
374.9650463159395
 21
163.1107757132626
 31
0.0
  0
MTEXT
  5
87EC
330
76DE
100
AcDbEntity
  8
30
  6
CONTINUOUS
 62
     0
100
AcDbMText
 10
393.7347867019194
 20
183.263468846985
 30
0.0
 40
4.0
 41
0.0
 71
     5
 72
     1
  1
\A1;\U+220511
1001
ACAD
1000
MTEXTBEGIN
1070
    73
1070
     1
1070
    44
1040
1.0
1070
    74
1070
     0
1000
MTEXTEND
1000
MTEXTBEGIN
1070
    73
1070
     1
1070
    44
1040
1.0
1070
    74
1070
     0
1000
MTEXTEND
1000
MTEXTBEGIN
1070
    73
1070
     1
1070
    44
1040
1.0
1070
    74
1070
     0
1000
MTEXTEND
  0
INSERT
  5
87ED
330
76DE
100
AcDbEntity
  8
30
  6
CONTINUOUS
 62
     0
100
AcDbBlockReference
  2
_OPEN
 10
373.7130197165208
 20
161.5511509525116
 30
0.0
 41
2.0
 42
2.0
 43
2.0
 50
231.2434003354124
  0
LINE
  5
87EE
330
76DE
100
AcDbEntity
  8
30
  6
CONTINUOUS
 62
     0
100
AcDbLine
 10
370.1799465681193
 20
157.2621828604461
 30
0.0
 11
370.3599465681191
 21
157.2621828604459
 31
0.0
  0
LINE
  5
87EF
330
76DE
100
AcDbEntity
  8
30
  6
CONTINUOUS
 62
     0
100
AcDbLine
 10
370.2699465681192
 20
157.1721828604458
 30
0.0
 11
370.2699465681192
 21
157.3521828604459
 31
0.0
  0
POINT
  5
87F0
330
76DE
100
AcDbEntity
  8
DEFPOINTS
  6
CONTINUOUS
 62
     0
100
AcDbPoint
 10
373.7130197165208
 20
161.5511509525116
 30
0.0
  0
POINT
  5
87F1
330
76DE
100
AcDbEntity
  8
DEFPOINTS
  6
CONTINUOUS
 62
     0
100
AcDbPoint
 10
366.8268734197178
 20
152.9732147683805
 30
0.0
  0
ENDBLK
  5
76E8
330
76DE
100
AcDbEntity
  8
0
100
AcDbBlockEnd
  0
BLOCK
  5
78A0
330
7896
100
AcDbEntity
  8
0
100
AcDbBlockBegin
  2
*D12
 70
     1
 10
0.0
 20
0.0
 30
0.0
  3
*D12
  1

  0
LINE
  5
87D0
330
7896
100
AcDbEntity
  8
30
  6
CONTINUOUS
 62
     0
100
AcDbLine
 10
324.2585283399446
 20
-131.9999999999998
 30
0.0
 11
324.2585283399446
 21
-149.8060655566289
 31
0.0
  0
LINE
  5
87D1
330
7896
100
AcDbEntity
  8
30
  6
CONTINUOUS
 62
     0
100
AcDbLine
 10
223.2585283399445
 20
-149.3060655566289
 30
0.0
 11
322.2585283399446
 21
-149.3060655566289
 31
0.0
  0
INSERT
  5
87D2
330
7896
100
AcDbEntity
  8
30
  6
CONTINUOUS
 62
     0
100
AcDbBlockReference
  2
_OPEN
 10
221.2585283399445
 20
-149.3060655566289
 30
0.0
 41
2.0
 42
2.0
 43
2.0
 50
180.0
  0
INSERT
  5
87D3
330
7896
100
AcDbEntity
  8
30
  6
CONTINUOUS
 62
     0
100
AcDbBlockReference
  2
_OPEN
 10
324.2585283399446
 20
-149.3060655566289
 30
0.0
 41
2.0
 42
2.0
 43
2.0
  0
MTEXT
  5
87D4
330
7896
100
AcDbEntity
  8
30
  6
CONTINUOUS
 62
     0
100
AcDbMText
 10
272.7585283399446
 20
-146.3060655566289
 30
0.0
 40
4.0
 41
0.0
 71
     5
 72
     1
  1
\A1;103
1001
ACAD
1000
MTEXTBEGIN
1070
    73
1070
     1
1070
    44
1040
1.0
1070
    74
1070
     0
1000
MTEXTEND
1000
MTEXTBEGIN
1070
    73
1070
     1
1070
    44
1040
1.0
1070
    74
1070
     0
1000
MTEXTEND
1000
MTEXTBEGIN
1070
    73
1070
     1
1070
    44
1040
1.0
1070
    74
1070
     0
1000
MTEXTEND
  0
POINT
  5
87D5
330
7896
100
AcDbEntity
  8
DEFPOINTS
  6
CONTINUOUS
 62
     0
100
AcDbPoint
 10
221.2585283399445
 20
-149.8060655566289
 30
0.0
  0
POINT
  5
87D6
330
7896
100
AcDbEntity
  8
DEFPOINTS
  6
CONTINUOUS
 62
     0
100
AcDbPoint
 10
324.2585283399446
 20
-130.9999999999998
 30
0.0
  0
POINT
  5
87D7
330
7896
100
AcDbEntity
  8
DEFPOINTS
  6
CONTINUOUS
 62
     0
100
AcDbPoint
 10
324.2585283399446
 20
-149.3060655566289
 30
0.0
  0
ENDBLK
  5
78A1
330
7896
100
AcDbEntity
  8
0
100
AcDbBlockEnd
  0
BLOCK
  5
78BB
330
78B1
100
AcDbEntity
  8
0
100
AcDbBlockBegin
  2
*D13
 70
     1
 10
0.0
 20
0.0
 30
0.0
  3
*D13
  1

  0
LINE
  5
87AD
330
78B1
100
AcDbEntity
  8
30
  6
CONTINUOUS
 62
     0
100
AcDbLine
 10
213.2585283399444
 20
-45.99999999999988
 30
0.0
 11
213.2585283399444
 21
-150.3060655566289
 31
0.0
  0
LINE
  5
87AE
330
78B1
100
AcDbEntity
  8
30
  6
CONTINUOUS
 62
     0
100
AcDbLine
 10
221.2585283399445
 20
-45.99999999999988
 30
0.0
 11
221.2585283399445
 21
-150.3060655566289
 31
0.0
  0
LINE
  5
87AF
330
78B1
100
AcDbEntity
  8
30
  6
CONTINUOUS
 62
     0
100
AcDbLine
 10
215.2585283399444
 20
-149.8060655566289
 30
0.0
 11
219.2585283399445
 21
-149.8060655566289
 31
0.0
  0
INSERT
  5
87B0
330
78B1
100
AcDbEntity
  8
30
  6
CONTINUOUS
 62
     0
100
AcDbBlockReference
  2
_OPEN
 10
213.2585283399444
 20
-149.8060655566289
 30
0.0
 41
2.0
 42
2.0
 43
2.0
 50
180.0
  0
INSERT
  5
87B1
330
78B1
100
AcDbEntity
  8
30
  6
CONTINUOUS
 62
     0
100
AcDbBlockReference
  2
_OPEN
 10
221.2585283399445
 20
-149.8060655566289
 30
0.0
 41
2.0
 42
2.0
 43
2.0
  0
MTEXT
  5
87B2
330
78B1
100
AcDbEntity
  8
30
  6
CONTINUOUS
 62
     0
100
AcDbMText
 10
217.2585283399445
 20
-146.8060655566289
 30
0.0
 40
4.0
 41
0.0
 71
     5
 72
     1
  1
\A1;8
1001
ACAD
1000
MTEXTBEGIN
1070
    73
1070
     1
1070
    44
1040
1.0
1070
    74
1070
     0
1000
MTEXTEND
1000
MTEXTBEGIN
1070
    73
1070
     1
1070
    44
1040
1.0
1070
    74
1070
     0
1000
MTEXTEND
1000
MTEXTBEGIN
1070
    73
1070
     1
1070
    44
1040
1.0
1070
    74
1070
     0
1000
MTEXTEND
  0
POINT
  5
87B3
330
78B1
100
AcDbEntity
  8
DEFPOINTS
  6
CONTINUOUS
 62
     0
100
AcDbPoint
 10
213.2585283399444
 20
-44.99999999999988
 30
0.0
  0
POINT
  5
87B4
330
78B1
100
AcDbEntity
  8
DEFPOINTS
  6
CONTINUOUS
 62
     0
100
AcDbPoint
 10
221.2585283399445
 20
-44.99999999999988
 30
0.0
  0
POINT
  5
87B5
330
78B1
100
AcDbEntity
  8
DEFPOINTS
  6
CONTINUOUS
 62
     0
100
AcDbPoint
 10
221.2585283399445
 20
-149.8060655566289
 30
0.0
  0
ENDBLK
  5
78BC
330
78B1
100
AcDbEntity
  8
0
100
AcDbBlockEnd
  0
BLOCK
  5
78D0
330
78C6
100
AcDbEntity
  8
0
100
AcDbBlockBegin
  2
*D14
 70
     1
 10
0.0
 20
0.0
 30
0.0
  3
*D14
  1

  0
LINE
  5
87A4
330
78C6
100
AcDbEntity
  8
30
  6
CONTINUOUS
 62
     0
100
AcDbLine
 10
179.3075402374921
 20
-0.9999999999998864
 30
0.0
 11
179.3075402374921
 21
-164.9538407233289
 31
0.0
  0
LINE
  5
87A5
330
78C6
100
AcDbEntity
  8
30
  6
CONTINUOUS
 62
     0
100
AcDbLine
 10
324.2585283399446
 20
-150.8060655566289
 30
0.0
 11
324.2585283399446
 21
-164.9538407233289
 31
0.0
  0
LINE
  5
87A6
330
78C6
100
AcDbEntity
  8
30
  6
CONTINUOUS
 62
     0
100
AcDbLine
 10
181.3075402374922
 20
-164.4538407233292
 30
0.0
 11
322.2585283399446
 21
-164.4538407233292
 31
0.0
  0
INSERT
  5
87A7
330
78C6
100
AcDbEntity
  8
30
  6
CONTINUOUS
 62
     0
100
AcDbBlockReference
  2
_OPEN
 10
179.3075402374921
 20
-164.4538407233292
 30
0.0
 41
2.0
 42
2.0
 43
2.0
 50
180.0
  0
INSERT
  5
87A8
330
78C6
100
AcDbEntity
  8
30
  6
CONTINUOUS
 62
     0
100
AcDbBlockReference
  2
_OPEN
 10
324.2585283399446
 20
-164.4538407233292
 30
0.0
 41
2.0
 42
2.0
 43
2.0
  0
MTEXT
  5
87A9
330
78C6
100
AcDbEntity
  8
30
  6
CONTINUOUS
 62
     0
100
AcDbMText
 10
251.7830342887183
 20
-161.4538407233292
 30
0.0
 40
4.0
 41
0.0
 71
     5
 72
     1
  1
\A1;145
1001
ACAD
1000
MTEXTBEGIN
1070
    73
1070
     1
1070
    44
1040
1.0
1070
    74
1070
     0
1000
MTEXTEND
1000
MTEXTBEGIN
1070
    73
1070
     1
1070
    44
1040
1.0
1070
    74
1070
     0
1000
MTEXTEND
1000
MTEXTBEGIN
1070
    73
1070
     1
1070
    44
1040
1.0
1070
    74
1070
     0
1000
MTEXTEND
  0
POINT
  5
87AA
330
78C6
100
AcDbEntity
  8
DEFPOINTS
  6
CONTINUOUS
 62
     0
100
AcDbPoint
 10
179.3075402374921
 20
0.0000000000001137
 30
0.0
  0
POINT
  5
87AB
330
78C6
100
AcDbEntity
  8
DEFPOINTS
  6
CONTINUOUS
 62
     0
100
AcDbPoint
 10
324.2585283399446
 20
-149.8060655566289
 30
0.0
  0
POINT
  5
87AC
330
78C6
100
AcDbEntity
  8
DEFPOINTS
  6
CONTINUOUS
 62
     0
100
AcDbPoint
 10
324.2585283399446
 20
-164.4538407233292
 30
0.0
  0
ENDBLK
  5
78D1
330
78C6
100
AcDbEntity
  8
0
100
AcDbBlockEnd
  0
BLOCK
  5
7B87
330
7B7E
100
AcDbEntity
  8
0
100
AcDbBlockBegin
  2
*D15
 70
     1
 10
0.0
 20
0.0
 30
0.0
  3
*D15
  1

  0
LINE
  5
7E30
330
7B7E
100
AcDbEntity
  8
30
  6
CONTINUOUS
 62
     0
100
AcDbLine
 10
-60.82578153975052
 20
-220.6800347238195
 30
0.0
 11
-46.82578153975025
 21
-220.6800347238195
 31
0.0
  0
LINE
  5
7E31
330
7B7E
100
AcDbEntity
  8
30
  6
CONTINUOUS
 62
     0
100
AcDbLine
 10
-46.82578153975025
 20
-220.6800347238195
 30
0.0
 11
-25.50678366760537
 21
-249.0050967500799
 31
0.0
  0
MTEXT
  5
7E32
330
7B7E
100
AcDbEntity
  8
30
  6
CONTINUOUS
 62
     0
100
AcDbMText
 10
-57.4924482064172
 20
-217.6800347238195
 30
0.0
 40
4.0
 41
0.0
 71
     5
 72
     1
  1
\A1;M6
1001
ACAD
1000
MTEXTBEGIN
1070
    73
1070
     1
1070
    44
1040
1.0
1070
    74
1070
     0
1000
MTEXTEND
1000
MTEXTBEGIN
1070
    73
1070
     1
1070
    44
1040
1.0
1070
    74
1070
     0
1000
MTEXTEND
1000
MTEXTBEGIN
1070
    73
1070
     1
1070
    44
1040
1.0
1070
    74
1070
     0
1000
MTEXTEND
  0
INSERT
  5
7E33
330
7B7E
100
AcDbEntity
  8
30
  6
CONTINUOUS
 62
     0
100
AcDbBlockReference
  2
_OPEN
 10
-24.30407020056323
 20
-250.6030580500479
 30
0.0
 41
2.0
 42
2.0
 43
2.0
 50
306.9671284485148
  0
LINE
  5
7E34
330
7B7E
100
AcDbEntity
  8
30
  6
CONTINUOUS
 62
     0
100
AcDbLine
 10
-22.59000000000003
 20
-252.9999999999998
 30
0.0
 11
-22.41000000000004
 21
-252.9999999999998
 31
0.0
  0
LINE
  5
7E35
330
7B7E
100
AcDbEntity
  8
30
  6
CONTINUOUS
 62
     0
100
AcDbLine
 10
-22.50000000000003
 20
-253.0899999999999
 30
0.0
 11
-22.50000000000003
 21
-252.9099999999997
 31
0.0
  0
POINT
  5
7E36
330
7B7E
100
AcDbEntity
  8
DEFPOINTS
  6
CONTINUOUS
 62
     0
100
AcDbPoint
 10
-24.30407020056323
 20
-250.6030580500479
 30
0.0
  0
POINT
  5
7E37
330
7B7E
100
AcDbEntity
  8
DEFPOINTS
  6
CONTINUOUS
 62
     0
100
AcDbPoint
 10
-20.69592979943676
 20
-255.3969419499519
 30
0.0
  0
ENDBLK
  5
7B88
330
7B7E
100
AcDbEntity
  8
0
100
AcDbBlockEnd
  0
BLOCK
  5
7BED
330
7BE3
100
AcDbEntity
  8
0
100
AcDbBlockBegin
  2
*D16
 70
     1
 10
0.0
 20
0.0
 30
0.0
  3
*D16
  1

  0
LINE
  5
87E1
330
7BE3
100
AcDbEntity
  8
30
  6
CONTINUOUS
 62
     0
100
AcDbLine
 10
324.2585283399446
 20
131.0000000000002
 30
0.0
 11
324.2585283399446
 21
148.563506906613
 31
0.0
  0
LINE
  5
87E2
330
7BE3
100
AcDbEntity
  8
30
  6
CONTINUOUS
 62
     0
100
AcDbLine
 10
288.2585283399446
 20
131.0000000000002
 30
0.0
 11
288.2585283399446
 21
148.563506906613
 31
0.0
  0
LINE
  5
87E3
330
7BE3
100
AcDbEntity
  8
30
  6
CONTINUOUS
 62
     0
100
AcDbLine
 10
322.2585283399446
 20
148.063506906613
 30
0.0
 11
290.2585283399446
 21
148.063506906613
 31
0.0
  0
INSERT
  5
87E4
330
7BE3
100
AcDbEntity
  8
30
  6
CONTINUOUS
 62
     0
100
AcDbBlockReference
  2
_OPEN
 10
324.2585283399446
 20
148.063506906613
 30
0.0
 41
2.0
 42
2.0
 43
2.0
  0
INSERT
  5
87E5
330
7BE3
100
AcDbEntity
  8
30
  6
CONTINUOUS
 62
     0
100
AcDbBlockReference
  2
_OPEN
 10
288.2585283399446
 20
148.063506906613
 30
0.0
 41
2.0
 42
2.0
 43
2.0
 50
180.0
  0
MTEXT
  5
87E6
330
7BE3
100
AcDbEntity
  8
30
  6
CONTINUOUS
 62
     0
100
AcDbMText
 10
306.2585283399446
 20
151.063506906613
 30
0.0
 40
4.0
 41
0.0
 71
     5
 72
     1
  1
\A1;36
1001
ACAD
1000
MTEXTBEGIN
1070
    73
1070
     1
1070
    44
1040
1.0
1070
    74
1070
     0
1000
MTEXTEND
1000
MTEXTBEGIN
1070
    73
1070
     1
1070
    44
1040
1.0
1070
    74
1070
     0
1000
MTEXTEND
1000
MTEXTBEGIN
1070
    73
1070
     1
1070
    44
1040
1.0
1070
    74
1070
     0
1000
MTEXTEND
  0
POINT
  5
87E7
330
7BE3
100
AcDbEntity
  8
DEFPOINTS
  6
CONTINUOUS
 62
     0
100
AcDbPoint
 10
324.2585283399446
 20
130.0000000000002
 30
0.0
  0
POINT
  5
87E8
330
7BE3
100
AcDbEntity
  8
DEFPOINTS
  6
CONTINUOUS
 62
     0
100
AcDbPoint
 10
288.2585283399446
 20
130.0000000000002
 30
0.0
  0
POINT
  5
87E9
330
7BE3
100
AcDbEntity
  8
DEFPOINTS
  6
CONTINUOUS
 62
     0
100
AcDbPoint
 10
288.2585283399446
 20
148.063506906613
 30
0.0
  0
ENDBLK
  5
7BEE
330
7BE3
100
AcDbEntity
  8
0
100
AcDbBlockEnd
  0
BLOCK
  5
7CB8
330
7CAE
100
AcDbEntity
  8
0
100
AcDbBlockBegin
  2
*D17
 70
     1
 10
0.0
 20
0.0
 30
0.0
  3
*D17
  1

  0
LINE
  5
7CAF
330
7CAE
100
AcDbEntity
  8
30
  6
CONTINUOUS
 62
     0
100
AcDbLine
 10
-70.00000623862297
 20
391.4369478956378
 30
0.0
 11
-70.00000623862297
 21
405.751144283447
 31
0.0
  0
LINE
  5
7CB0
330
7CAE
100
AcDbEntity
  8
30
  6
CONTINUOUS
 62
     0
100
AcDbLine
 10
-45.00000000000002
 20
361.5189316457163
 30
0.0
 11
-45.00000000000002
 21
405.751144283447
 31
0.0
  0
LINE
  5
7CB1
330
7CAE
100
AcDbEntity
  8
30
  6
CONTINUOUS
 62
     0
100
AcDbLine
 10
-68.00000623862297
 20
405.251144283447
 30
0.0
 11
-47.00000000000001
 21
405.251144283447
 31
0.0
  0
INSERT
  5
7CB2
330
7CAE
100
AcDbEntity
  8
30
  6
CONTINUOUS
 62
     0
100
AcDbBlockReference
  2
_OPEN
 10
-70.00000623862297
 20
405.251144283447
 30
0.0
 41
2.0
 42
2.0
 43
2.0
 50
180.0
  0
INSERT
  5
7CB3
330
7CAE
100
AcDbEntity
  8
30
  6
CONTINUOUS
 62
     0
100
AcDbBlockReference
  2
_OPEN
 10
-45.00000000000002
 20
405.251144283447
 30
0.0
 41
2.0
 42
2.0
 43
2.0
  0
MTEXT
  5
7CB4
330
7CAE
100
AcDbEntity
  8
30
  6
CONTINUOUS
 62
     0
100
AcDbMText
 10
-57.50000311931151
 20
408.251144283447
 30
0.0
 40
4.0
 41
0.0
 71
     5
 72
     1
  1
\A1;25
1001
ACAD
1000
MTEXTBEGIN
1070
    73
1070
     1
1070
    44
1040
1.0
1070
    74
1070
     0
1000
MTEXTEND
1000
MTEXTBEGIN
1070
    73
1070
     1
1070
    44
1040
1.0
1070
    74
1070
     0
1000
MTEXTEND
1000
MTEXTBEGIN
1070
    73
1070
     1
1070
    44
1040
1.0
1070
    74
1070
     0
1000
MTEXTEND
  0
POINT
  5
7CB5
330
7CAE
100
AcDbEntity
  8
DEFPOINTS
  6
CONTINUOUS
 62
     0
100
AcDbPoint
 10
-70.00000623862297
 20
390.4369478956378
 30
0.0
  0
POINT
  5
7CB6
330
7CAE
100
AcDbEntity
  8
DEFPOINTS
  6
CONTINUOUS
 62
     0
100
AcDbPoint
 10
-45.00000000000002
 20
360.5189316457162
 30
0.0
  0
POINT
  5
7CB7
330
7CAE
100
AcDbEntity
  8
DEFPOINTS
  6
CONTINUOUS
 62
     0
100
AcDbPoint
 10
-45.00000000000002
 20
405.251144283447
 30
0.0
  0
ENDBLK
  5
7CB9
330
7CAE
100
AcDbEntity
  8
0
100
AcDbBlockEnd
  0
BLOCK
  5
7CC5
330
7CBB
100
AcDbEntity
  8
0
100
AcDbBlockBegin
  2
*D18
 70
     1
 10
0.0
 20
0.0
 30
0.0
  3
*D18
  1

  0
LINE
  5
8BDF
330
7CBB
100
AcDbEntity
  8
30
  6
CONTINUOUS
 62
     0
100
AcDbLine
 10
-45.00000000000002
 20
361.5189316457161
 30
0.0
 11
-45.00000000000002
 21
405.751144283447
 31
0.0
  0
LINE
  5
8BE0
330
7CBB
100
AcDbEntity
  8
30
  6
CONTINUOUS
 62
     0
100
AcDbLine
 10
-0.0000206044744376
 20
361.5189316457161
 30
0.0
 11
-0.0000206044744349
 21
405.751144283447
 31
0.0
  0
LINE
  5
8BE1
330
7CBB
100
AcDbEntity
  8
30
  6
CONTINUOUS
 62
     0
100
AcDbLine
 10
-43.00000000000002
 20
405.251144283447
 30
0.0
 11
-2.000020604474435
 21
405.251144283447
 31
0.0
  0
INSERT
  5
8BE2
330
7CBB
100
AcDbEntity
  8
30
  6
CONTINUOUS
 62
     0
100
AcDbBlockReference
  2
_OPEN
 10
-45.00000000000002
 20
405.251144283447
 30
0.0
 41
2.0
 42
2.0
 43
2.0
 50
180.0
  0
INSERT
  5
8BE3
330
7CBB
100
AcDbEntity
  8
30
  6
CONTINUOUS
 62
     0
100
AcDbBlockReference
  2
_OPEN
 10
-0.000020604474435
 20
405.251144283447
 30
0.0
 41
2.0
 42
2.0
 43
2.0
  0
MTEXT
  5
8BE4
330
7CBB
100
AcDbEntity
  8
30
  6
CONTINUOUS
 62
     0
100
AcDbMText
 10
-22.50001030223722
 20
408.251144283447
 30
0.0
 40
4.0
 41
0.0
 71
     5
 72
     1
  1
\A1;45
  0
POINT
  5
8BE5
330
7CBB
100
AcDbEntity
  8
DEFPOINTS
  6
CONTINUOUS
 62
     0
100
AcDbPoint
 10
-45.00000000000002
 20
360.5189316457162
 30
0.0
  0
POINT
  5
8BE6
330
7CBB
100
AcDbEntity
  8
DEFPOINTS
  6
CONTINUOUS
 62
     0
100
AcDbPoint
 10
-0.0000206044744377
 20
360.5189316457162
 30
0.0
  0
POINT
  5
8BE7
330
7CBB
100
AcDbEntity
  8
DEFPOINTS
  6
CONTINUOUS
 62
     0
100
AcDbPoint
 10
-0.000020604474435
 20
405.251144283447
 30
0.0
  0
ENDBLK
  5
7CC6
330
7CBB
100
AcDbEntity
  8
0
100
AcDbBlockEnd
  0
BLOCK
  5
7CD2
330
7CC8
100
AcDbEntity
  8
0
100
AcDbBlockBegin
  2
*D19
 70
     1
 10
0.0
 20
0.0
 30
0.0
  3
*D19
  1

  0
LINE
  5
8BE8
330
7CC8
100
AcDbEntity
  8
30
  6
CONTINUOUS
 62
     0
100
AcDbLine
 10
-0.0000206044744376
 20
361.5189316457161
 30
0.0
 11
-0.0000206044744349
 21
405.751144283447
 31
0.0
  0
LINE
  5
8BE9
330
7CC8
100
AcDbEntity
  8
30
  6
CONTINUOUS
 62
     0
100
AcDbLine
 10
45.0
 20
355.4369478956378
 30
0.0
 11
45.0
 21
405.751144283447
 31
0.0
  0
LINE
  5
8BEA
330
7CC8
100
AcDbEntity
  8
30
  6
CONTINUOUS
 62
     0
100
AcDbLine
 10
1.999979395525565
 20
405.251144283447
 30
0.0
 11
43.0
 21
405.251144283447
 31
0.0
  0
INSERT
  5
8BEB
330
7CC8
100
AcDbEntity
  8
30
  6
CONTINUOUS
 62
     0
100
AcDbBlockReference
  2
_OPEN
 10
-0.000020604474435
 20
405.251144283447
 30
0.0
 41
2.0
 42
2.0
 43
2.0
 50
180.0
  0
INSERT
  5
8BEC
330
7CC8
100
AcDbEntity
  8
30
  6
CONTINUOUS
 62
     0
100
AcDbBlockReference
  2
_OPEN
 10
45.0
 20
405.251144283447
 30
0.0
 41
2.0
 42
2.0
 43
2.0
  0
MTEXT
  5
8BED
330
7CC8
100
AcDbEntity
  8
30
  6
CONTINUOUS
 62
     0
100
AcDbMText
 10
22.49998969776278
 20
408.251144283447
 30
0.0
 40
4.0
 41
0.0
 71
     5
 72
     1
  1
\A1;45
  0
POINT
  5
8BEE
330
7CC8
100
AcDbEntity
  8
DEFPOINTS
  6
CONTINUOUS
 62
     0
100
AcDbPoint
 10
-0.0000206044744377
 20
360.5189316457162
 30
0.0
  0
POINT
  5
8BEF
330
7CC8
100
AcDbEntity
  8
DEFPOINTS
  6
CONTINUOUS
 62
     0
100
AcDbPoint
 10
45.0
 20
354.4369478956378
 30
0.0
  0
POINT
  5
8BF0
330
7CC8
100
AcDbEntity
  8
DEFPOINTS
  6
CONTINUOUS
 62
     0
100
AcDbPoint
 10
45.0
 20
405.251144283447
 30
0.0
  0
ENDBLK
  5
7CD3
330
7CC8
100
AcDbEntity
  8
0
100
AcDbBlockEnd
  0
BLOCK
  5
7DB9
330
7DAF
100
AcDbEntity
  8
0
100
AcDbBlockBegin
  2
*D20
 70
     1
 10
0.0
 20
0.0
 30
0.0
  3
*D20
  1

  0
LINE
  5
8BF1
330
7DAF
100
AcDbEntity
  8
30
  6
CONTINUOUS
 62
     0
100
AcDbLine
 10
115.9999452034627
 20
390.4369478956378
 30
0.0
 11
139.0775743456902
 21
390.4369478956378
 31
0.0
  0
LINE
  5
8BF2
330
7DAF
100
AcDbEntity
  8
30
  6
CONTINUOUS
 62
     0
100
AcDbLine
 10
109.5048398215564
 20
354.4369478956378
 30
0.0
 11
139.0775743456902
 21
354.4369478956377
 31
0.0
  0
LINE
  5
8BF3
330
7DAF
100
AcDbEntity
  8
30
  6
CONTINUOUS
 62
     0
100
AcDbLine
 10
138.5775743456902
 20
388.4369478956378
 30
0.0
 11
138.5775743456902
 21
356.4369478956377
 31
0.0
  0
MTEXT
  5
8BF4
330
7DAF
100
AcDbEntity
  8
30
  6
CONTINUOUS
 62
     0
100
AcDbMText
 10
160.0397376512239
 20
371.7474129077193
 30
0.0
 40
4.0
 41
0.0
 71
     5
 72
     1
  1
\A1;ON SIDE 36\POFF SIDE 35
  0
INSERT
  5
8BF5
330
7DAF
100
AcDbEntity
  8
30
  6
CONTINUOUS
 62
     0
100
AcDbBlockReference
  2
_OPEN
 10
138.5775743456902
 20
390.4369478956378
 30
0.0
 41
2.0
 42
2.0
 43
2.0
 50
90.0
  0
INSERT
  5
8BF6
330
7DAF
100
AcDbEntity
  8
30
  6
CONTINUOUS
 62
     0
100
AcDbBlockReference
  2
_OPEN
 10
138.5775743456902
 20
354.4369478956377
 30
0.0
 41
2.0
 42
2.0
 43
2.0
 50
270.0
  0
POINT
  5
8BF7
330
7DAF
100
AcDbEntity
  8
DEFPOINTS
  6
CONTINUOUS
 62
     0
100
AcDbPoint
 10
114.9999452034627
 20
390.4369478956378
 30
0.0
  0
POINT
  5
8BF8
330
7DAF
100
AcDbEntity
  8
DEFPOINTS
  6
CONTINUOUS
 62
     0
100
AcDbPoint
 10
108.5048398215564
 20
354.4369478956378
 30
0.0
  0
POINT
  5
8BF9
330
7DAF
100
AcDbEntity
  8
DEFPOINTS
  6
CONTINUOUS
 62
     0
100
AcDbPoint
 10
138.5775743456902
 20
354.4369478956377
 30
0.0
  0
ENDBLK
  5
7DBA
330
7DAF
100
AcDbEntity
  8
0
100
AcDbBlockEnd
  0
BLOCK
  5
7E2E
330
7E24
100
AcDbEntity
  8
0
100
AcDbBlockBegin
  2
*D21
 70
     1
 10
0.0
 20
0.0
 30
0.0
  3
*D21
  1

  0
LINE
  5
87D8
330
7E24
100
AcDbEntity
  8
30
  6
CONTINUOUS
 62
     0
100
AcDbLine
 10
324.2585283399446
 20
-130.9999999999998
 30
0.0
 11
324.2585283399446
 21
-140.1885260678299
 31
0.0
  0
LINE
  5
87D9
330
7E24
100
AcDbEntity
  8
30
  6
CONTINUOUS
 62
     0
100
AcDbLine
 10
289.2585283399446
 20
-130.9999999999998
 30
0.0
 11
289.2585283399446
 21
-140.1885260678299
 31
0.0
  0
LINE
  5
87DA
330
7E24
100
AcDbEntity
  8
30
  6
CONTINUOUS
 62
     0
100
AcDbLine
 10
322.2585283399446
 20
-139.6885260678299
 30
0.0
 11
291.2585283399446
 21
-139.6885260678299
 31
0.0
  0
INSERT
  5
87DB
330
7E24
100
AcDbEntity
  8
30
  6
CONTINUOUS
 62
     0
100
AcDbBlockReference
  2
_OPEN
 10
324.2585283399446
 20
-139.6885260678299
 30
0.0
 41
2.0
 42
2.0
 43
2.0
  0
INSERT
  5
87DC
330
7E24
100
AcDbEntity
  8
30
  6
CONTINUOUS
 62
     0
100
AcDbBlockReference
  2
_OPEN
 10
289.2585283399446
 20
-139.6885260678299
 30
0.0
 41
2.0
 42
2.0
 43
2.0
 50
180.0
  0
MTEXT
  5
87DD
330
7E24
100
AcDbEntity
  8
30
  6
CONTINUOUS
 62
     0
100
AcDbMText
 10
306.7585283399446
 20
-136.6885260678299
 30
0.0
 40
4.0
 41
0.0
 71
     5
 72
     1
  1
\A1;35
1001
ACAD
1000
MTEXTBEGIN
1070
    73
1070
     1
1070
    44
1040
1.0
1070
    74
1070
     0
1000
MTEXTEND
1000
MTEXTBEGIN
1070
    73
1070
     1
1070
    44
1040
1.0
1070
    74
1070
     0
1000
MTEXTEND
1000
MTEXTBEGIN
1070
    73
1070
     1
1070
    44
1040
1.0
1070
    74
1070
     0
1000
MTEXTEND
  0
POINT
  5
87DE
330
7E24
100
AcDbEntity
  8
DEFPOINTS
  6
CONTINUOUS
 62
     0
100
AcDbPoint
 10
324.2585283399446
 20
-129.9999999999998
 30
0.0
  0
POINT
  5
87DF
330
7E24
100
AcDbEntity
  8
DEFPOINTS
  6
CONTINUOUS
 62
     0
100
AcDbPoint
 10
289.2585283399446
 20
-129.9999999999998
 30
0.0
  0
POINT
  5
87E0
330
7E24
100
AcDbEntity
  8
DEFPOINTS
  6
CONTINUOUS
 62
     0
100
AcDbPoint
 10
289.2585283399446
 20
-139.6885260678299
 30
0.0
  0
ENDBLK
  5
7E2F
330
7E24
100
AcDbEntity
  8
0
100
AcDbBlockEnd
  0
BLOCK
  5
86CC
330
86C2
100
AcDbEntity
  8
0
100
AcDbBlockBegin
  2
*D22
 70
     1
 10
0.0
 20
0.0
 30
0.0
  3
*D22
  1

  0
LINE
  5
8814
330
86C2
100
AcDbEntity
  8
30
  6
CONTINUOUS
 62
     0
100
AcDbLine
 10
-71.0
 20
130.0
 30
0.0
 11
-121.2651061970336
 21
130.0
 31
0.0
  0
LINE
  5
8815
330
86C2
100
AcDbEntity
  8
30
  6
CONTINUOUS
 62
     0
100
AcDbLine
 10
-71.0
 20
-130.0
 30
0.0
 11
-121.2651061970336
 21
-130.0
 31
0.0
  0
LINE
  5
8816
330
86C2
100
AcDbEntity
  8
30
  6
CONTINUOUS
 62
     0
100
AcDbLine
 10
-120.7651061970336
 20
128.0
 30
0.0
 11
-120.7651061970336
 21
-128.0
 31
0.0
  0
INSERT
  5
8817
330
86C2
100
AcDbEntity
  8
30
  6
CONTINUOUS
 62
     0
100
AcDbBlockReference
  2
_OPEN
 10
-120.7651061970336
 20
130.0
 30
0.0
 41
2.0
 42
2.0
 43
2.0
 50
90.0
  0
INSERT
  5
8818
330
86C2
100
AcDbEntity
  8
30
  6
CONTINUOUS
 62
     0
100
AcDbBlockReference
  2
_OPEN
 10
-120.7651061970336
 20
-130.0
 30
0.0
 41
2.0
 42
2.0
 43
2.0
 50
270.0
  0
MTEXT
  5
8819
330
86C2
100
AcDbEntity
  8
30
  6
CONTINUOUS
 62
     0
100
AcDbMText
 10
-123.7651061970336
 20
-0.0000000000000207
 30
0.0
 40
4.0
 41
0.0
 71
     5
 72
     1
  1
\A1;260
 11
0.0000000000000001
 21
1.0
 31
0.0
1001
ACAD
1000
MTEXTBEGIN
1070
    73
1070
     1
1070
    44
1040
1.0
1070
    74
1070
     0
1000
MTEXTEND
1000
MTEXTBEGIN
1070
    73
1070
     1
1070
    44
1040
1.0
1070
    74
1070
     0
1000
MTEXTEND
1000
MTEXTBEGIN
1070
    73
1070
     1
1070
    44
1040
1.0
1070
    74
1070
     0
1000
MTEXTEND
  0
POINT
  5
881A
330
86C2
100
AcDbEntity
  8
DEFPOINTS
  6
CONTINUOUS
 62
     0
100
AcDbPoint
 10
-70.0
 20
130.0
 30
0.0
  0
POINT
  5
881B
330
86C2
100
AcDbEntity
  8
DEFPOINTS
  6
CONTINUOUS
 62
     0
100
AcDbPoint
 10
-70.0
 20
-130.0
 30
0.0
  0
POINT
  5
881C
330
86C2
100
AcDbEntity
  8
DEFPOINTS
  6
CONTINUOUS
 62
     0
100
AcDbPoint
 10
-120.7651061970336
 20
-130.0
 30
0.0
  0
ENDBLK
  5
86CD
330
86C2
100
AcDbEntity
  8
0
100
AcDbBlockEnd
  0
BLOCK
  5
86D8
330
86CE
100
AcDbEntity
  8
0
100
AcDbBlockBegin
  2
*D23
 70
     1
 10
0.0
 20
0.0
 30
0.0
  3
*D23
  1

  0
LINE
  5
8728
330
86CE
100
AcDbEntity
  8
30
  6
CONTINUOUS
 62
     0
100
AcDbLine
 10
-71.0
 20
50.99999999999899
 30
0.0
 11
-106.4999999999999
 21
50.999999999999
 31
0.0
  0
LINE
  5
8729
330
86CE
100
AcDbEntity
  8
30
  6
CONTINUOUS
 62
     0
100
AcDbLine
 10
-71.0
 20
-50.99999999999997
 30
0.0
 11
-106.4999999999999
 21
-50.99999999999997
 31
0.0
  0
LINE
  5
872A
330
86CE
100
AcDbEntity
  8
30
  6
CONTINUOUS
 62
     0
100
AcDbLine
 10
-105.9999999999996
 20
48.99999999999899
 30
0.0
 11
-106.0
 21
-48.99999999999998
 31
0.0
  0
INSERT
  5
872B
330
86CE
100
AcDbEntity
  8
30
  6
CONTINUOUS
 62
     0
100
AcDbBlockReference
  2
_OPEN
 10
-105.9999999999996
 20
50.999999999999
 30
0.0
 41
2.0
 42
2.0
 43
2.0
 50
90.0
  0
INSERT
  5
872C
330
86CE
100
AcDbEntity
  8
30
  6
CONTINUOUS
 62
     0
100
AcDbBlockReference
  2
_OPEN
 10
-106.0
 20
-50.99999999999997
 30
0.0
 41
2.0
 42
2.0
 43
2.0
 50
270.0
  0
MTEXT
  5
872D
330
86CE
100
AcDbEntity
  8
30
  6
CONTINUOUS
 62
     0
100
AcDbMText
 10
-108.9999999999996
 20
-0.0000000000005047
 30
0.0
 40
4.0
 41
0.0
 71
     5
 72
     1
  1
\A1;102
 11
0.0000000000000001
 21
1.0
 31
0.0
1001
ACAD
1000
MTEXTBEGIN
1070
    73
1070
     1
1070
    44
1040
1.0
1070
    74
1070
     0
1000
MTEXTEND
1000
MTEXTBEGIN
1070
    73
1070
     1
1070
    44
1040
1.0
1070
    74
1070
     0
1000
MTEXTEND
1000
MTEXTBEGIN
1070
    73
1070
     1
1070
    44
1040
1.0
1070
    74
1070
     0
1000
MTEXTEND
  0
POINT
  5
872E
330
86CE
100
AcDbEntity
  8
DEFPOINTS
  6
CONTINUOUS
 62
     0
100
AcDbPoint
 10
-70.0
 20
50.99999999999899
 30
0.0
  0
POINT
  5
872F
330
86CE
100
AcDbEntity
  8
DEFPOINTS
  6
CONTINUOUS
 62
     0
100
AcDbPoint
 10
-70.0
 20
-50.99999999999997
 30
0.0
  0
POINT
  5
8730
330
86CE
100
AcDbEntity
  8
DEFPOINTS
  6
CONTINUOUS
 62
     0
100
AcDbPoint
 10
-106.0
 20
-50.99999999999997
 30
0.0
  0
ENDBLK
  5
86D9
330
86CE
100
AcDbEntity
  8
0
100
AcDbBlockEnd
  0
BLOCK
  5
86E4
330
86DA
100
AcDbEntity
  8
0
100
AcDbBlockBegin
  2
*D24
 70
     1
 10
0.0
 20
0.0
 30
0.0
  3
*D24
  1

  0
LINE
  5
8731
330
86DA
100
AcDbEntity
  8
30
  6
CONTINUOUS
 62
     0
100
AcDbLine
 10
-54.0
 20
45.0
 30
0.0
 11
-92.49999999999998
 21
45.00000000000002
 31
0.0
  0
LINE
  5
8732
330
86DA
100
AcDbEntity
  8
30
  6
CONTINUOUS
 62
     0
100
AcDbLine
 10
-54.0
 20
-44.99999999999999
 30
0.0
 11
-92.5
 21
-44.99999999999998
 31
0.0
  0
LINE
  5
8733
330
86DA
100
AcDbEntity
  8
30
  6
CONTINUOUS
 62
     0
100
AcDbLine
 10
-91.99999999999995
 20
43.00000000000002
 30
0.0
 11
-92.0
 21
-42.99999999999998
 31
0.0
  0
INSERT
  5
8734
330
86DA
100
AcDbEntity
  8
30
  6
CONTINUOUS
 62
     0
100
AcDbBlockReference
  2
_OPEN
 10
-91.99999999999995
 20
45.00000000000002
 30
0.0
 41
2.0
 42
2.0
 43
2.0
 50
90.0
  0
INSERT
  5
8735
330
86DA
100
AcDbEntity
  8
30
  6
CONTINUOUS
 62
     0
100
AcDbBlockReference
  2
_OPEN
 10
-92.0
 20
-44.99999999999998
 30
0.0
 41
2.0
 42
2.0
 43
2.0
 50
270.0
  0
MTEXT
  5
8736
330
86DA
100
AcDbEntity
  8
30
  6
CONTINUOUS
 62
     0
100
AcDbMText
 10
-94.99999999999998
 20
0.000000000000006
 30
0.0
 40
4.0
 41
0.0
 71
     5
 72
     1
  1
\A1;90
 11
0.0000000000000001
 21
1.0
 31
0.0
1001
ACAD
1000
MTEXTBEGIN
1070
    73
1070
     1
1070
    44
1040
1.0
1070
    74
1070
     0
1000
MTEXTEND
1000
MTEXTBEGIN
1070
    73
1070
     1
1070
    44
1040
1.0
1070
    74
1070
     0
1000
MTEXTEND
1000
MTEXTBEGIN
1070
    73
1070
     1
1070
    44
1040
1.0
1070
    74
1070
     0
1000
MTEXTEND
  0
POINT
  5
8737
330
86DA
100
AcDbEntity
  8
DEFPOINTS
  6
CONTINUOUS
 62
     0
100
AcDbPoint
 10
-53.0
 20
45.0
 30
0.0
  0
POINT
  5
8738
330
86DA
100
AcDbEntity
  8
DEFPOINTS
  6
CONTINUOUS
 62
     0
100
AcDbPoint
 10
-53.0
 20
-44.99999999999999
 30
0.0
  0
POINT
  5
8739
330
86DA
100
AcDbEntity
  8
DEFPOINTS
  6
CONTINUOUS
 62
     0
100
AcDbPoint
 10
-92.0
 20
-44.99999999999998
 30
0.0
  0
ENDBLK
  5
86E5
330
86DA
100
AcDbEntity
  8
0
100
AcDbBlockEnd
  0
BLOCK
  5
8812
330
8808
100
AcDbEntity
  8
0
100
AcDbBlockBegin
  2
*D25
 70
     1
 10
0.0
 20
0.0
 30
0.0
  3
*D25
  1

  0
LINE
  5
8826
330
8808
100
AcDbEntity
  8
30
  6
CONTINUOUS
 62
     0
100
AcDbLine
 10
-71.0
 20
130.0
 30
0.0
 11
-121.4317721970336
 21
130.0
 31
0.0
  0
LINE
  5
8827
330
8808
100
AcDbEntity
  8
30
  6
CONTINUOUS
 62
     0
100
AcDbLine
 10
-21.49999999999999
 20
239.9999999999999
 30
0.0
 11
-121.4317721970336
 21
239.9999999999999
 31
0.0
  0
LINE
  5
8828
330
8808
100
AcDbEntity
  8
30
  6
CONTINUOUS
 62
     0
100
AcDbLine
 10
-120.9317721970335
 20
132.0
 30
0.0
 11
-120.9317721970335
 21
237.9999999999999
 31
0.0
  0
INSERT
  5
8829
330
8808
100
AcDbEntity
  8
30
  6
CONTINUOUS
 62
     0
100
AcDbBlockReference
  2
_OPEN
 10
-120.9317721970335
 20
130.0
 30
0.0
 41
2.0
 42
2.0
 43
2.0
 50
270.0
  0
INSERT
  5
882A
330
8808
100
AcDbEntity
  8
30
  6
CONTINUOUS
 62
     0
100
AcDbBlockReference
  2
_OPEN
 10
-120.9317721970335
 20
239.9999999999999
 30
0.0
 41
2.0
 42
2.0
 43
2.0
 50
90.0
  0
MTEXT
  5
882B
330
8808
100
AcDbEntity
  8
30
  6
CONTINUOUS
 62
     0
100
AcDbMText
 10
-123.9317721970335
 20
184.9999999999999
 30
0.0
 40
4.0
 41
0.0
 71
     5
 72
     1
  1
\A1;110
 11
0.0000000000000001
 21
1.0
 31
0.0
1001
ACAD
1000
MTEXTBEGIN
1070
    73
1070
     1
1070
    44
1040
1.0
1070
    74
1070
     0
1000
MTEXTEND
1000
MTEXTBEGIN
1070
    73
1070
     1
1070
    44
1040
1.0
1070
    74
1070
     0
1000
MTEXTEND
1000
MTEXTBEGIN
1070
    73
1070
     1
1070
    44
1040
1.0
1070
    74
1070
     0
1000
MTEXTEND
  0
POINT
  5
882C
330
8808
100
AcDbEntity
  8
DEFPOINTS
  6
CONTINUOUS
 62
     0
100
AcDbPoint
 10
-70.0
 20
130.0
 30
0.0
  0
POINT
  5
882D
330
8808
100
AcDbEntity
  8
DEFPOINTS
  6
CONTINUOUS
 62
     0
100
AcDbPoint
 10
-20.5
 20
239.9999999999999
 30
0.0
  0
POINT
  5
882E
330
8808
100
AcDbEntity
  8
DEFPOINTS
  6
CONTINUOUS
 62
     0
100
AcDbPoint
 10
-120.9317721970335
 20
239.9999999999999
 30
0.0
  0
ENDBLK
  5
8813
330
8808
100
AcDbEntity
  8
0
100
AcDbBlockEnd
  0
BLOCK
  5
883A
330
8830
100
AcDbEntity
  8
0
100
AcDbBlockBegin
  2
*D26
 70
     1
 10
0.0
 20
0.0
 30
0.0
  3
*D26
  1

  0
LINE
  5
8831
330
8830
100
AcDbEntity
  8
30
  6
CONTINUOUS
 62
     0
100
AcDbLine
 10
-70.0
 20
-131.0
 30
0.0
 11
-70.0
 21
-164.9538407233289
 31
0.0
  0
LINE
  5
8832
330
8830
100
AcDbEntity
  8
30
  6
CONTINUOUS
 62
     0
100
AcDbLine
 10
115.0
 20
-131.0
 30
0.0
 11
115.0
 21
-164.9538407233289
 31
0.0
  0
LINE
  5
8833
330
8830
100
AcDbEntity
  8
30
  6
CONTINUOUS
 62
     0
100
AcDbLine
 10
-68.0
 20
-164.4538407233292
 30
0.0
 11
113.0
 21
-164.4538407233292
 31
0.0
  0
INSERT
  5
8834
330
8830
100
AcDbEntity
  8
30
  6
CONTINUOUS
 62
     0
100
AcDbBlockReference
  2
_OPEN
 10
-70.0
 20
-164.4538407233292
 30
0.0
 41
2.0
 42
2.0
 43
2.0
 50
180.0
  0
INSERT
  5
8835
330
8830
100
AcDbEntity
  8
30
  6
CONTINUOUS
 62
     0
100
AcDbBlockReference
  2
_OPEN
 10
115.0
 20
-164.4538407233292
 30
0.0
 41
2.0
 42
2.0
 43
2.0
  0
MTEXT
  5
8836
330
8830
100
AcDbEntity
  8
30
  6
CONTINUOUS
 62
     0
100
AcDbMText
 10
22.5
 20
-161.4538407233292
 30
0.0
 40
4.0
 41
0.0
 71
     5
 72
     1
  1
\A1;185
1001
ACAD
1000
MTEXTBEGIN
1070
    73
1070
     1
1070
    44
1040
1.0
1070
    74
1070
     0
1000
MTEXTEND
1000
MTEXTBEGIN
1070
    73
1070
     1
1070
    44
1040
1.0
1070
    74
1070
     0
1000
MTEXTEND
1000
MTEXTBEGIN
1070
    73
1070
     1
1070
    44
1040
1.0
1070
    74
1070
     0
1000
MTEXTEND
  0
POINT
  5
8837
330
8830
100
AcDbEntity
  8
DEFPOINTS
  6
CONTINUOUS
 62
     0
100
AcDbPoint
 10
-70.0
 20
-130.0
 30
0.0
  0
POINT
  5
8838
330
8830
100
AcDbEntity
  8
DEFPOINTS
  6
CONTINUOUS
 62
     0
100
AcDbPoint
 10
115.0
 20
-130.0
 30
0.0
  0
POINT
  5
8839
330
8830
100
AcDbEntity
  8
DEFPOINTS
  6
CONTINUOUS
 62
     0
100
AcDbPoint
 10
115.0
 20
-164.4538407233292
 30
0.0
  0
ENDBLK
  5
883B
330
8830
100
AcDbEntity
  8
0
100
AcDbBlockEnd
  0
BLOCK
  5
8847
330
883D
100
AcDbEntity
  8
0
100
AcDbBlockBegin
  2
*D27
 70
     1
 10
0.0
 20
0.0
 30
0.0
  3
*D27
  1

  0
LINE
  5
883E
330
883D
100
AcDbEntity
  8
30
  6
CONTINUOUS
 62
     0
100
AcDbLine
 10
-45.0
 20
-122.9999999999999
 30
0.0
 11
-45.0
 21
-143.4326664853055
 31
0.0
  0
LINE
  5
883F
330
883D
100
AcDbEntity
  8
30
  6
CONTINUOUS
 62
     0
100
AcDbLine
 10
-0.0000000000000001
 20
-123.9999999999999
 30
0.0
 11
-0.0000000000000013
 21
-143.4326664853055
 31
0.0
  0
LINE
  5
8840
330
883D
100
AcDbEntity
  8
30
  6
CONTINUOUS
 62
     0
100
AcDbLine
 10
-43.0
 20
-142.9326664853055
 30
0.0
 11
-2.0
 21
-142.9326664853055
 31
0.0
  0
INSERT
  5
8841
330
883D
100
AcDbEntity
  8
30
  6
CONTINUOUS
 62
     0
100
AcDbBlockReference
  2
_OPEN
 10
-45.0
 20
-142.9326664853055
 30
0.0
 41
2.0
 42
2.0
 43
2.0
 50
180.0
  0
INSERT
  5
8842
330
883D
100
AcDbEntity
  8
30
  6
CONTINUOUS
 62
     0
100
AcDbBlockReference
  2
_OPEN
 10
-0.0000000000000012
 20
-142.9326664853055
 30
0.0
 41
2.0
 42
2.0
 43
2.0
  0
MTEXT
  5
8843
330
883D
100
AcDbEntity
  8
30
  6
CONTINUOUS
 62
     0
100
AcDbMText
 10
-22.5
 20
-139.9326664853056
 30
0.0
 40
4.0
 41
0.0
 71
     5
 72
     1
  1
\A1;45
1001
ACAD
1000
MTEXTBEGIN
1070
    73
1070
     1
1070
    44
1040
1.0
1070
    74
1070
     0
1000
MTEXTEND
1000
MTEXTBEGIN
1070
    73
1070
     1
1070
    44
1040
1.0
1070
    74
1070
     0
1000
MTEXTEND
1000
MTEXTBEGIN
1070
    73
1070
     1
1070
    44
1040
1.0
1070
    74
1070
     0
1000
MTEXTEND
  0
POINT
  5
8844
330
883D
100
AcDbEntity
  8
DEFPOINTS
  6
CONTINUOUS
 62
     0
100
AcDbPoint
 10
-45.0
 20
-121.9999999999999
 30
0.0
  0
POINT
  5
8845
330
883D
100
AcDbEntity
  8
DEFPOINTS
  6
CONTINUOUS
 62
     0
100
AcDbPoint
 10
0.0
 20
-122.9999999999999
 30
0.0
  0
POINT
  5
8846
330
883D
100
AcDbEntity
  8
DEFPOINTS
  6
CONTINUOUS
 62
     0
100
AcDbPoint
 10
-0.0000000000000012
 20
-142.9326664853055
 30
0.0
  0
ENDBLK
  5
8848
330
883D
100
AcDbEntity
  8
0
100
AcDbBlockEnd
  0
BLOCK
  5
8854
330
884A
100
AcDbEntity
  8
0
100
AcDbBlockBegin
  2
*D28
 70
     1
 10
0.0
 20
0.0
 30
0.0
  3
*D28
  1

  0
LINE
  5
8BFA
330
884A
100
AcDbEntity
  8
30
  6
CONTINUOUS
 62
     0
100
AcDbLine
 10
-0.0000000000000001
 20
-123.9999999999999
 30
0.0
 11
-0.0000000000000013
 21
-143.4326664853055
 31
0.0
  0
LINE
  5
8BFB
330
884A
100
AcDbEntity
  8
30
  6
CONTINUOUS
 62
     0
100
AcDbLine
 10
45.0
 20
-123.9999999999999
 30
0.0
 11
45.0
 21
-143.4326664853055
 31
0.0
  0
LINE
  5
8BFC
330
884A
100
AcDbEntity
  8
30
  6
CONTINUOUS
 62
     0
100
AcDbLine
 10
1.999999999999998
 20
-142.9326664853055
 30
0.0
 11
43.0
 21
-142.9326664853055
 31
0.0
  0
INSERT
  5
8BFD
330
884A
100
AcDbEntity
  8
30
  6
CONTINUOUS
 62
     0
100
AcDbBlockReference
  2
_OPEN
 10
-0.0000000000000012
 20
-142.9326664853055
 30
0.0
 41
2.0
 42
2.0
 43
2.0
 50
180.0
  0
INSERT
  5
8BFE
330
884A
100
AcDbEntity
  8
30
  6
CONTINUOUS
 62
     0
100
AcDbBlockReference
  2
_OPEN
 10
45.0
 20
-142.9326664853055
 30
0.0
 41
2.0
 42
2.0
 43
2.0
  0
MTEXT
  5
8BFF
330
884A
100
AcDbEntity
  8
30
  6
CONTINUOUS
 62
     0
100
AcDbMText
 10
22.5
 20
-139.9326664853055
 30
0.0
 40
4.0
 41
0.0
 71
     5
 72
     1
  1
\A1;45
  0
POINT
  5
8C00
330
884A
100
AcDbEntity
  8
DEFPOINTS
  6
CONTINUOUS
 62
     0
100
AcDbPoint
 10
0.0
 20
-122.9999999999999
 30
0.0
  0
POINT
  5
8C01
330
884A
100
AcDbEntity
  8
DEFPOINTS
  6
CONTINUOUS
 62
     0
100
AcDbPoint
 10
45.0
 20
-122.9999999999999
 30
0.0
  0
POINT
  5
8C02
330
884A
100
AcDbEntity
  8
DEFPOINTS
  6
CONTINUOUS
 62
     0
100
AcDbPoint
 10
45.0
 20
-142.9326664853055
 30
0.0
  0
ENDBLK
  5
8855
330
884A
100
AcDbEntity
  8
0
100
AcDbBlockEnd
  0
BLOCK
  5
8861
330
8857
100
AcDbEntity
  8
0
100
AcDbBlockBegin
  2
*D29
 70
     1
 10
0.0
 20
0.0
 30
0.0
  3
*D29
  1

  0
LINE
  5
8C03
330
8857
100
AcDbEntity
  8
30
  6
CONTINUOUS
 62
     0
100
AcDbLine
 10
45.0
 20
-123.9999999999999
 30
0.0
 11
45.0
 21
-143.4326664853055
 31
0.0
  0
LINE
  5
8C04
330
8857
100
AcDbEntity
  8
30
  6
CONTINUOUS
 62
     0
100
AcDbLine
 10
90.0
 20
-123.9999999999999
 30
0.0
 11
90.0
 21
-143.4326664853055
 31
0.0
  0
LINE
  5
8C05
330
8857
100
AcDbEntity
  8
30
  6
CONTINUOUS
 62
     0
100
AcDbLine
 10
47.0
 20
-142.9326664853055
 30
0.0
 11
88.0
 21
-142.9326664853055
 31
0.0
  0
INSERT
  5
8C06
330
8857
100
AcDbEntity
  8
30
  6
CONTINUOUS
 62
     0
100
AcDbBlockReference
  2
_OPEN
 10
45.0
 20
-142.9326664853055
 30
0.0
 41
2.0
 42
2.0
 43
2.0
 50
180.0
  0
INSERT
  5
8C07
330
8857
100
AcDbEntity
  8
30
  6
CONTINUOUS
 62
     0
100
AcDbBlockReference
  2
_OPEN
 10
90.0
 20
-142.9326664853055
 30
0.0
 41
2.0
 42
2.0
 43
2.0
  0
MTEXT
  5
8C08
330
8857
100
AcDbEntity
  8
30
  6
CONTINUOUS
 62
     0
100
AcDbMText
 10
67.5
 20
-139.9326664853055
 30
0.0
 40
4.0
 41
0.0
 71
     5
 72
     1
  1
\A1;45
  0
POINT
  5
8C09
330
8857
100
AcDbEntity
  8
DEFPOINTS
  6
CONTINUOUS
 62
     0
100
AcDbPoint
 10
45.0
 20
-122.9999999999999
 30
0.0
  0
POINT
  5
8C0A
330
8857
100
AcDbEntity
  8
DEFPOINTS
  6
CONTINUOUS
 62
     0
100
AcDbPoint
 10
90.0
 20
-122.9999999999999
 30
0.0
  0
POINT
  5
8C0B
330
8857
100
AcDbEntity
  8
DEFPOINTS
  6
CONTINUOUS
 62
     0
100
AcDbPoint
 10
90.0
 20
-142.9326664853055
 30
0.0
  0
ENDBLK
  5
8862
330
8857
100
AcDbEntity
  8
0
100
AcDbBlockEnd
  0
BLOCK
  5
88AC
330
88A2
100
AcDbEntity
  8
0
100
AcDbBlockBegin
  2
*D30
 70
     1
 10
0.0
 20
0.0
 30
0.0
  3
*D30
  1

  0
LINE
  5
8C0C
330
88A2
100
AcDbEntity
  8
30
  6
CONTINUOUS
 62
     0
100
AcDbLine
 10
44.99997939552556
 20
361.5189316457161
 30
0.0
 11
44.99997939552556
 21
405.751144283447
 31
0.0
  0
LINE
  5
8C0D
330
88A2
100
AcDbEntity
  8
30
  6
CONTINUOUS
 62
     0
100
AcDbLine
 10
90.0
 20
355.4369478956378
 30
0.0
 11
90.0
 21
405.751144283447
 31
0.0
  0
LINE
  5
8C0E
330
88A2
100
AcDbEntity
  8
30
  6
CONTINUOUS
 62
     0
100
AcDbLine
 10
46.99997939552555
 20
405.251144283447
 30
0.0
 11
88.0
 21
405.251144283447
 31
0.0
  0
INSERT
  5
8C0F
330
88A2
100
AcDbEntity
  8
30
  6
CONTINUOUS
 62
     0
100
AcDbBlockReference
  2
_OPEN
 10
44.99997939552556
 20
405.251144283447
 30
0.0
 41
2.0
 42
2.0
 43
2.0
 50
180.0
  0
INSERT
  5
8C10
330
88A2
100
AcDbEntity
  8
30
  6
CONTINUOUS
 62
     0
100
AcDbBlockReference
  2
_OPEN
 10
90.0
 20
405.251144283447
 30
0.0
 41
2.0
 42
2.0
 43
2.0
  0
MTEXT
  5
8C11
330
88A2
100
AcDbEntity
  8
30
  6
CONTINUOUS
 62
     0
100
AcDbMText
 10
67.49998969776277
 20
408.251144283447
 30
0.0
 40
4.0
 41
0.0
 71
     5
 72
     1
  1
\A1;45
  0
POINT
  5
8C12
330
88A2
100
AcDbEntity
  8
DEFPOINTS
  6
CONTINUOUS
 62
     0
100
AcDbPoint
 10
44.99997939552556
 20
360.5189316457162
 30
0.0
  0
POINT
  5
8C13
330
88A2
100
AcDbEntity
  8
DEFPOINTS
  6
CONTINUOUS
 62
     0
100
AcDbPoint
 10
90.0
 20
354.4369478956378
 30
0.0
  0
POINT
  5
8C14
330
88A2
100
AcDbEntity
  8
DEFPOINTS
  6
CONTINUOUS
 62
     0
100
AcDbPoint
 10
90.0
 20
405.251144283447
 30
0.0
  0
ENDBLK
  5
88AD
330
88A2
100
AcDbEntity
  8
0
100
AcDbBlockEnd
  0
BLOCK
  5
88C2
330
88B8
100
AcDbEntity
  8
0
100
AcDbBlockBegin
  2
*D31
 70
     1
 10
0.0
 20
0.0
 30
0.0
  3
*D31
  1

  0
LINE
  5
88B9
330
88B8
100
AcDbEntity
  8
30
  6
CONTINUOUS
 62
     0
100
AcDbLine
 10
90.0
 20
391.4369478956378
 30
0.0
 11
90.0
 21
405.751144283447
 31
0.0
  0
LINE
  5
88BA
330
88B8
100
AcDbEntity
  8
30
  6
CONTINUOUS
 62
     0
100
AcDbLine
 10
115.0
 20
391.4369478956378
 30
0.0
 11
115.0
 21
405.751144283447
 31
0.0
  0
LINE
  5
88BB
330
88B8
100
AcDbEntity
  8
30
  6
CONTINUOUS
 62
     0
100
AcDbLine
 10
92.0
 20
405.251144283447
 30
0.0
 11
113.0
 21
405.251144283447
 31
0.0
  0
INSERT
  5
88BC
330
88B8
100
AcDbEntity
  8
30
  6
CONTINUOUS
 62
     0
100
AcDbBlockReference
  2
_OPEN
 10
90.0
 20
405.251144283447
 30
0.0
 41
2.0
 42
2.0
 43
2.0
 50
180.0
  0
INSERT
  5
88BD
330
88B8
100
AcDbEntity
  8
30
  6
CONTINUOUS
 62
     0
100
AcDbBlockReference
  2
_OPEN
 10
115.0
 20
405.251144283447
 30
0.0
 41
2.0
 42
2.0
 43
2.0
  0
MTEXT
  5
88BE
330
88B8
100
AcDbEntity
  8
30
  6
CONTINUOUS
 62
     0
100
AcDbMText
 10
102.4999999999999
 20
408.251144283447
 30
0.0
 40
4.0
 41
0.0
 71
     5
 72
     1
  1
\A1;25
1001
ACAD
1000
MTEXTBEGIN
1070
    73
1070
     1
1070
    44
1040
1.0
1070
    74
1070
     0
1000
MTEXTEND
1000
MTEXTBEGIN
1070
    73
1070
     1
1070
    44
1040
1.0
1070
    74
1070
     0
1000
MTEXTEND
1000
MTEXTBEGIN
1070
    73
1070
     1
1070
    44
1040
1.0
1070
    74
1070
     0
1000
MTEXTEND
  0
POINT
  5
88BF
330
88B8
100
AcDbEntity
  8
DEFPOINTS
  6
CONTINUOUS
 62
     0
100
AcDbPoint
 10
90.0
 20
390.4369478956378
 30
0.0
  0
POINT
  5
88C0
330
88B8
100
AcDbEntity
  8
DEFPOINTS
  6
CONTINUOUS
 62
     0
100
AcDbPoint
 10
115.0
 20
390.4369478956378
 30
0.0
  0
POINT
  5
88C1
330
88B8
100
AcDbEntity
  8
DEFPOINTS
  6
CONTINUOUS
 62
     0
100
AcDbPoint
 10
115.0
 20
405.251144283447
 30
0.0
  0
ENDBLK
  5
88C3
330
88B8
100
AcDbEntity
  8
0
100
AcDbBlockEnd
  0
ENDSEC
  0
SECTION
  2
ENTITIES
  0
LINE
  5
B4
330
1E
100
AcDbEntity
  8
16
100
AcDbLine
 10
0.0
 20
-101.8246001220914
 30
0.0
 11
0.0
 21
105.6073578546832
 31
0.0
  0
LINE
  5
B5
330
1E
100
AcDbEntity
  8
16
100
AcDbLine
 10
71.77465564206305
 20
-0.0000000000000027
 30
0.0
 11
-83.90588178115756
 21
-0.0000000000000027
 31
0.0
  0
MTEXT
  5
BF3
330
1E
100
AcDbEntity
  8
24
  6
CONTINUOUS
100
AcDbMText
 10
140.9820964648283
 20
176.3476821548369
 30
0.0
 40
3.0
 41
0.0
 71
     1
 72
     1
  1
\A1;
1001
ACAD
1000
MTEXTBEGIN
1070
    73
1070
     1
1070
    44
1040
1.0
1070
    74
1070
     0
1000
MTEXTEND
1000
MTEXTBEGIN
1070
    73
1070
     1
1070
    44
1040
1.0
1070
    74
1070
     0
1000
MTEXTEND
1000
MTEXTBEGIN
1070
    73
1070
     1
1070
    44
1040
1.0
1070
    74
1070
     0
1000
MTEXTEND
  0
LINE
  5
1C9B
330
1E
100
AcDbEntity
  8
16
100
AcDbLine
 10
352.2681462467813
 20
0.0000000000001137
 30
0.0
 11
168.4871519556748
 21
0.0000000000001137
 31
0.0
  0
MTEXT
  5
5C78
330
1E
100
AcDbEntity
  8
30
  6
CONTINUOUS
100
AcDbMText
 10
162.3297648581359
 20
88.99793930010117
 30
0.0
 40
4.0
 41
0.0
 71
     9
 72
     1
  1

1001
ACAD
1000
MTEXTBEGIN
1070
    73
1070
     1
1070
    44
1040
1.0
1070
    74
1070
     0
1000
MTEXTEND
1000
MTEXTBEGIN
1070
    73
1070
     1
1070
    44
1040
1.0
1070
    74
1070
     0
1000
MTEXTEND
1000
MTEXTBEGIN
1070
    73
1070
     1
1070
    44
1040
1.0
1070
    74
1070
     0
1000
MTEXTEND
  0
MTEXT
  5
6200
330
1E
100
AcDbEntity
  8
30
  6
CONTINUOUS
100
AcDbMText
 10
160.6290066227675
 20
91.2377397662035
 30
0.0
 40
4.0
 41
0.0
 71
     9
 72
     1
  1

1001
ACAD
1000
MTEXTBEGIN
1070
    73
1070
     1
1070
    44
1040
1.0
1070
    74
1070
     0
1000
MTEXTEND
1000
MTEXTBEGIN
1070
    73
1070
     1
1070
    44
1040
1.0
1070
    74
1070
     0
1000
MTEXTEND
1000
MTEXTBEGIN
1070
    73
1070
     1
1070
    44
1040
1.0
1070
    74
1070
     0
1000
MTEXTEND
  0
LINE
  5
67DB
330
1E
100
AcDbEntity
  8
16
100
AcDbLine
 10
370.0
 20
-360.0
 30
0.0
 11
150.0
 21
-360.0
 31
0.0
  0
LINE
  5
67E2
330
1E
100
AcDbEntity
  8
16
100
AcDbLine
 10
0.0
 20
-506.6279096442683
 30
0.0
 11
0.0
 21
-207.9249011857708
 31
0.0
  0
LINE
  5
67E5
330
1E
100
AcDbEntity
  8
16
100
AcDbLine
 10
87.06681156507483
 20
-360.0
 30
0.0
 11
-118.1067106947925
 21
-360.0
 31
0.0
  0
LINE
  5
67F8
330
1E
100
AcDbEntity
  8
16
100
AcDbLine
 10
270.0
 20
-507.899000675821
 30
0.0
 11
270.0
 21
-210.5283865792193
 31
0.0
  0
LINE
  5
7598
330
1E
100
AcDbEntity
  8
10
  6
CONTINOUS
100
AcDbLine
 10
213.2585283399444
 20
1.500000000000106
 30
0.0
 11
213.2585283399444
 21
-44.99999999999988
 31
0.0
  0
LINE
  5
7599
330
1E
100
AcDbEntity
  8
10
  6
CONTINOUS
100
AcDbLine
 10
324.2585283399446
 20
130.0000000000002
 30
0.0
 11
324.2585283399446
 21
-129.9999999999998
 31
0.0
  0
LINE
  5
759A
330
1E
100
AcDbEntity
  8
10
  6
CONTINOUS
100
AcDbLine
 10
217.2585283399445
 20
45.00000000000023
 30
0.0
 11
217.2585283399445
 21
-44.99999999999988
 31
0.0
  0
LINE
  5
759B
330
1E
100
AcDbEntity
  8
10
  6
CONTINOUS
100
AcDbLine
 10
221.2585283399445
 20
51.00000000000022
 30
0.0
 11
221.2585283399445
 21
-50.99999999999988
 31
0.0
  0
LINE
  5
759E
330
1E
100
AcDbEntity
  8
10
  6
CONTINOUS
100
AcDbLine
 10
227.2585283399444
 20
-129.9999999999998
 30
0.0
 11
324.2585283399446
 21
-129.9999999999998
 31
0.0
  0
LINE
  5
75A0
330
1E
100
AcDbEntity
  8
10
  6
CONTINOUS
100
AcDbLine
 10
221.2585283399445
 20
-50.99999999999988
 30
0.0
 11
227.2585283399444
 21
-50.99999999999988
 31
0.0
  0
LINE
  5
75A1
330
1E
100
AcDbEntity
  8
10
  6
CONTINOUS
100
AcDbLine
 10
213.2585283399444
 20
-44.99999999999988
 30
0.0
 11
221.2585283399445
 21
-44.99999999999988
 31
0.0
  0
LINE
  5
75A2
330
1E
100
AcDbEntity
  8
10
  6
CONTINOUS
100
AcDbLine
 10
227.2585283399444
 20
-50.99999999999988
 30
0.0
 11
227.2585283399444
 21
-129.9999999999998
 31
0.0
  0
LINE
  5
75A7
330
1E
100
AcDbEntity
  8
10
  6
CONTINOUS
100
AcDbLine
 10
324.2585283399446
 20
130.0000000000002
 30
0.0
 11
227.2585283399444
 21
130.0000000000002
 31
0.0
  0
LINE
  5
75AC
330
1E
100
AcDbEntity
  8
10
  6
CONTINOUS
100
AcDbLine
 10
213.2585283399444
 20
17.03370272535221
 30
0.0
 11
182.6075402374922
 21
28.03853193396617
 31
0.0
  0
LINE
  5
75AD
330
1E
100
AcDbEntity
  8
10
  6
CONTINOUS
100
AcDbLine
 10
213.2585283399444
 20
29.78370889367932
 30
0.0
 11
186.662540853532
 21
39.33264411704215
 31
0.0
  0
LINE
  5
75AE
330
1E
100
AcDbEntity
  8
10
  6
CONTINOUS
100
AcDbLine
 10
186.662540853532
 20
39.33264411704215
 30
0.0
 11
182.607540237492
 21
28.03853193396582
 31
0.0
  0
LINE
  5
75AF
330
1E
100
AcDbEntity
  8
10
  6
CONTINOUS
100
AcDbLine
 10
202.4572876845119
 20
31.53674952147162
 30
0.0
 11
199.7539539404849
 21
24.0073413994205
 31
0.0
  0
LINE
  5
75B0
330
1E
100
AcDbEntity
  8
10
  6
CONTINOUS
100
AcDbLine
 10
213.2585283399444
 20
45.00000000000023
 30
0.0
 11
213.2585283399444
 21
0.0000000000001137
 31
0.0
  0
LINE
  5
75B1
330
1E
100
AcDbEntity
  8
10
  6
CONTINOUS
100
AcDbLine
 10
213.2585283399444
 20
19.15870375340692
 30
0.0
 11
199.7539539404849
 21
24.00734139942028
 31
0.0
  0
LINE
  5
75B4
330
1E
100
AcDbEntity
  8
10
  6
CONTINOUS
100
AcDbLine
 10
213.2585283399444
 20
27.65870786562482
 30
0.0
 11
202.4572876845119
 21
31.53674952147105
 31
0.0
  0
LINE
  5
75B5
330
1E
100
AcDbEntity
  8
10
  6
CONTINOUS
100
AcDbLine
 10
213.2585283399444
 20
45.00000000000023
 30
0.0
 11
221.2585283399445
 21
45.00000000000023
 31
0.0
  0
LINE
  5
75B6
330
1E
100
AcDbEntity
  8
10
  6
CONTINOUS
100
AcDbLine
 10
221.2585283399445
 20
51.00000000000022
 30
0.0
 11
227.2585283399444
 21
51.00000000000022
 31
0.0
  0
LINE
  5
75B7
330
1E
100
AcDbEntity
  8
10
  6
CONTINOUS
100
AcDbLine
 10
227.2585283399444
 20
130.0000000000002
 30
0.0
 11
227.2585283399444
 21
51.00000000000022
 31
0.0
  0
LINE
  5
75EA
330
1E
100
AcDbEntity
  8
12
  6
DASHED
100
AcDbLine
 10
238.958528339944
 20
-109.2499999999997
 30
0.0
 11
324.2585283399446
 21
-109.2499999999997
 31
0.0
  0
LINE
  5
75EB
330
1E
100
AcDbEntity
  8
12
  6
DASHED
100
AcDbLine
 10
238.958528339944
 20
-104.7499999999996
 30
0.0
 11
324.2585283399446
 21
-104.7499999999996
 31
0.0
  0
LINE
  5
75EC
330
1E
100
AcDbEntity
  8
12
  6
DASHED
100
AcDbLine
 10
223.2585283399445
 20
-106.9999999999996
 30
0.0
 11
348.2585283399446
 21
-106.9999999999996
 31
0.0
  0
LINE
  5
75ED
330
1E
100
AcDbEntity
  8
12
  6
DASHED
100
AcDbLine
 10
227.2585283399444
 20
-111.2499999999996
 30
0.0
 11
238.958528339944
 21
-111.2499999999996
 31
0.0
  0
LINE
  5
75EE
330
1E
100
AcDbEntity
  8
12
  6
DASHED
100
AcDbLine
 10
227.2585283399444
 20
-102.7499999999996
 30
0.0
 11
238.958528339944
 21
-102.7499999999996
 31
0.0
  0
LINE
  5
75EF
330
1E
100
AcDbEntity
  8
12
  6
DASHED
100
AcDbLine
 10
232.9585283399441
 20
-102.7499999999996
 30
0.0
 11
232.9585283399441
 21
-111.2499999999996
 31
0.0
  0
LINE
  5
75F0
330
1E
100
AcDbEntity
  8
12
  6
DASHED
100
AcDbLine
 10
238.958528339944
 20
-102.7499999999996
 30
0.0
 11
238.958528339944
 21
-111.2499999999996
 31
0.0
  0
LINE
  5
75F1
330
1E
100
AcDbEntity
  8
12
  6
DASHED
100
AcDbLine
 10
238.958528339944
 20
-109.2499999999997
 30
0.0
 11
238.958528339944
 21
-111.2499999999996
 31
0.0
  0
LINE
  5
75F2
330
1E
100
AcDbEntity
  8
12
  6
DASHED
100
AcDbLine
 10
238.958528339944
 20
-102.7499999999996
 30
0.0
 11
238.958528339944
 21
-104.7499999999996
 31
0.0
  0
LINE
  5
75F3
330
1E
100
AcDbEntity
  8
12
  6
DASHED
100
AcDbLine
 10
324.2585283399446
 20
-109.2499999999997
 30
0.0
 11
338.9585283399446
 21
-109.2499999999997
 31
0.0
  0
LINE
  5
75F4
330
1E
100
AcDbEntity
  8
12
  6
DASHED
100
AcDbLine
 10
324.2585283399446
 20
-104.7499999999996
 30
0.0
 11
338.9585283399446
 21
-104.7499999999996
 31
0.0
  0
LINE
  5
75F5
330
1E
100
AcDbEntity
  8
12
  6
DASHED
100
AcDbLine
 10
338.9585283399446
 20
-104.7499999999996
 30
0.0
 11
338.9585283399446
 21
-109.2499999999997
 31
0.0
  0
LINE
  5
7604
330
1E
100
AcDbEntity
  8
24
  6
CONTINOUS
100
AcDbLine
 10
370.2699465681196
 20
164.7621828604461
 30
0.0
 11
370.2699465681198
 21
149.7621828604461
 31
0.0
  0
LINE
  5
7605
330
1E
100
AcDbEntity
  8
24
  6
CONTINOUS
100
AcDbLine
 10
382.7699465681196
 20
172.9120863596155
 30
0.0
 11
382.7699465681196
 21
145.2621828604461
 31
0.0
  0
LINE
  5
7606
330
1E
100
AcDbEntity
  8
24
  6
CONTINOUS
100
AcDbLine
 10
357.7699465681198
 20
174.403465051346
 30
0.0
 11
357.7699465681198
 21
145.2621828604461
 31
0.0
  0
LINE
  5
7607
330
1E
100
AcDbEntity
  8
24
  6
CONTINOUS
100
AcDbLine
 10
357.7699465681198
 20
145.2621828604461
 30
0.0
 11
382.7699465681196
 21
145.2621828604461
 31
0.0
  0
LINE
  5
7608
330
1E
100
AcDbEntity
  8
24
  6
CONTINOUS
100
AcDbLine
 10
362.7699465681196
 20
157.2621828604461
 30
0.0
 11
377.7699465681196
 21
157.2621828604461
 31
0.0
  0
CIRCLE
  5
7609
330
1E
100
AcDbEntity
  8
24
  6
CONTINOUS
100
AcDbCircle
 10
370.2699465681196
 20
157.2621828604461
 30
0.0
 40
5.5
  0
ARC
  5
760A
330
1E
100
AcDbEntity
  8
24
  6
CONTINOUS
100
AcDbCircle
 10
375.2575283890661
 20
177.7581008892939
 30
0.0
 40
7.5
100
AcDbArc
 50
251.3586110284597
 51
294.2039969225343
  0
LINE
  5
760B
330
1E
100
AcDbEntity
  8
24
  6
CONTINOUS
100
AcDbLine
 10
361.4520975210171
 20
173.487969964126
 30
0.0
 11
372.8601993707253
 21
170.6515677276307
 31
0.0
  0
ARC
  5
760C
330
1E
100
AcDbEntity
  8
24
  6
CONTINOUS
100
AcDbCircle
 10
358.8949465681196
 20
165.9076679250184
 30
0.0
 40
8.0
100
AcDbArc
 50
71.35861102845979
 51
97.5431319679577
  0
LINE
  5
760D
330
1E
100
AcDbEntity
  8
24
  6
CONTINOUS
100
AcDbLine
 10
378.3324283529356
 20
170.9174145047126
 30
0.0
 11
382.7699465681196
 21
172.9120863596155
 31
0.0
  0
CIRCLE
  5
7624
330
1E
100
AcDbEntity
  8
12
  6
CONTINUOUS
 62
     3
100
AcDbCircle
 10
-22.5
 20
-253.0
 30
0.0
 40
3.0
210
0.0
220
0.0
230
-1.0
  0
CIRCLE
  5
7625
330
1E
100
AcDbEntity
  8
12
  6
CONTINUOUS
 62
     3
100
AcDbCircle
 10
-22.5
 20
-253.0
 30
0.0
 40
3.0
  0
LINE
  5
7627
330
1E
100
AcDbEntity
  8
18
  6
DIVIDE
100
AcDbLine
 10
-70.0
 20
-230.0
 30
0.0
 11
-70.0
 21
-489.9999999999998
 31
0.0
  0
LINE
  5
7628
330
1E
100
AcDbEntity
  8
18
  6
DIVIDE
100
AcDbLine
 10
70.0
 20
-489.9999999999998
 30
0.0
 11
70.0
 21
-230.0
 31
0.0
  0
LINE
  5
7629
330
1E
100
AcDbEntity
  8
12
  6
CONTINUOUS
 62
     3
100
AcDbLine
 10
22.5
 20
-246.0
 30
0.0
 11
22.5
 21
-260.0
 31
0.0
  0
LINE
  5
762A
330
1E
100
AcDbEntity
  8
12
  6
CONTINUOUS
 62
     3
100
AcDbLine
 10
-22.5
 20
-246.0
 30
0.0
 11
-22.5
 21
-260.0
 31
0.0
  0
LINE
  5
762C
330
1E
100
AcDbEntity
  8
18
  6
DIVIDE
100
AcDbLine
 10
-70.0
 20
-489.9999999999998
 30
0.0
 11
70.0
 21
-489.9999999999998
 31
0.0
  0
LINE
  5
762D
330
1E
100
AcDbEntity
  8
12
  6
CONTINUOUS
 62
     3
100
AcDbLine
 10
-29.5
 20
-466.9999999999998
 30
0.0
 11
-15.5
 21
-466.9999999999998
 31
0.0
  0
CIRCLE
  5
762E
330
1E
100
AcDbEntity
  8
12
  6
CONTINUOUS
 62
     3
100
AcDbCircle
 10
22.5
 20
-466.9999999999998
 30
0.0
 40
3.0
210
0.0
220
0.0
230
-1.0
  0
LINE
  5
762F
330
1E
100
AcDbEntity
  8
12
  6
CONTINUOUS
 62
     3
100
AcDbLine
 10
-22.5
 20
-459.9999999999998
 30
0.0
 11
-22.5
 21
-473.9999999999998
 31
0.0
  0
LINE
  5
7630
330
1E
100
AcDbEntity
  8
12
  6
CONTINUOUS
 62
     3
100
AcDbLine
 10
15.5
 20
-466.9999999999998
 30
0.0
 11
29.5
 21
-466.9999999999998
 31
0.0
  0
CIRCLE
  5
7631
330
1E
100
AcDbEntity
  8
12
  6
CONTINUOUS
 62
     3
100
AcDbCircle
 10
22.5
 20
-466.9999999999998
 30
0.0
 40
3.0
  0
LINE
  5
7632
330
1E
100
AcDbEntity
  8
12
  6
CONTINUOUS
 62
     3
100
AcDbLine
 10
22.5
 20
-459.9999999999998
 30
0.0
 11
22.5
 21
-473.9999999999998
 31
0.0
  0
LINE
  5
7633
330
1E
100
AcDbEntity
  8
18
  6
DIVIDE
100
AcDbLine
 10
70.0
 20
-230.0
 30
0.0
 11
-70.0
 21
-230.0
 31
0.0
  0
LINE
  5
7634
330
1E
100
AcDbEntity
  8
12
  6
CONTINUOUS
 62
     3
100
AcDbLine
 10
-29.5
 20
-253.0
 30
0.0
 11
-15.5
 21
-253.0
 31
0.0
  0
LINE
  5
7635
330
1E
100
AcDbEntity
  8
12
  6
CONTINUOUS
 62
     3
100
AcDbLine
 10
15.5
 20
-253.0
 30
0.0
 11
29.5
 21
-253.0
 31
0.0
  0
ARC
  5
7648
330
1E
100
AcDbEntity
  8
11
 48
2.0
100
AcDbCircle
 10
323.0
 20
-400.0
 30
0.0
 40
6.0
100
AcDbArc
 50
270.0
 51
0.0
  0
ARC
  5
7649
330
1E
100
AcDbEntity
  8
11
 48
2.0
100
AcDbCircle
 10
217.0
 20
-400.0
 30
0.0
 40
6.0
100
AcDbArc
 50
180.0
 51
270.0
  0
LINE
  5
764B
330
1E
100
AcDbEntity
  8
18
  6
DIVIDE
100
AcDbLine
 10
200.0
 20
-229.9999999999995
 30
0.0
 11
200.0
 21
-490.0
 31
0.0
  0
LINE
  5
764C
330
1E
100
AcDbEntity
  8
18
  6
DIVIDE
100
AcDbLine
 10
340.0
 20
-490.0
 30
0.0
 11
340.0
 21
-229.9999999999995
 31
0.0
  0
LINE
  5
764D
330
1E
100
AcDbEntity
  8
11
 48
2.0
100
AcDbLine
 10
217.0
 20
-406.0
 30
0.0
 11
323.0
 21
-406.0
 31
0.0
  0
LINE
  5
764E
330
1E
100
AcDbEntity
  8
18
  6
DIVIDE
100
AcDbLine
 10
200.0
 20
-490.0
 30
0.0
 11
340.0
 21
-490.0
 31
0.0
  0
LINE
  5
764F
330
1E
100
AcDbEntity
  8
11
 48
2.0
100
AcDbLine
 10
217.0
 20
-313.9999999999998
 30
0.0
 11
323.0
 21
-313.9999999999998
 31
0.0
  0
LINE
  5
7651
330
1E
100
AcDbEntity
  8
18
  6
DIVIDE
100
AcDbLine
 10
340.0
 20
-229.9999999999995
 30
0.0
 11
200.0
 21
-229.9999999999995
 31
0.0
  0
LINE
  5
7652
330
1E
100
AcDbEntity
  8
11
 48
2.0
100
AcDbLine
 10
211.0
 20
-319.9999999999998
 30
0.0
 11
211.0
 21
-400.0
 31
0.0
  0
ARC
  5
7653
330
1E
100
AcDbEntity
  8
11
 48
2.0
100
AcDbCircle
 10
217.0
 20
-319.9999999999998
 30
0.0
 40
6.0
100
AcDbArc
 50
90.0
 51
180.0
  0
LINE
  5
7654
330
1E
100
AcDbEntity
  8
11
 48
2.0
100
AcDbLine
 10
329.0
 20
-319.9999999999998
 30
0.0
 11
329.0
 21
-400.0
 31
0.0
  0
ARC
  5
7655
330
1E
100
AcDbEntity
  8
11
 48
2.0
100
AcDbCircle
 10
323.0
 20
-319.9999999999998
 30
0.0
 40
6.0
100
AcDbArc
 50
0.0
 51
90.0
  0
DIMENSION
  5
7671
330
1E
100
AcDbEntity
  8
30
  6
CONTINUOUS
100
AcDbDimension
  2
*D4
 10
-97.09969543092029
 20
-466.9999999999998
 30
0.0
 11
-100.0996954309202
 21
-360.0
 31
0.0
 70
    32
  3
STANDARD
100
AcDbAlignedDimension
 13
-34.04569613739295
 23
-253.0
 33
0.0
 14
-34.04569613739295
 24
-466.9999999999998
 34
0.0
 50
90.0
100
AcDbRotatedDimension
1001
ACAD
1000
DSTYLE
1002
{
1070
    79
1070
     3
1002
}
  0
DIMENSION
  5
767E
330
1E
100
AcDbEntity
  8
30
  6
CONTINUOUS
100
AcDbDimension
  2
*D5
 10
22.49999999999999
 20
-518.7040664304706
 30
0.0
 11
-0.0000000000000034
 21
-515.7040664304705
 31
0.0
 70
    32
  3
STANDARD
100
AcDbAlignedDimension
 13
-22.5
 23
-473.9999999999998
 33
0.0
 14
22.5
 24
-473.9999999999998
 34
0.0
100
AcDbRotatedDimension
1001
ACAD
1000
DSTYLE
1002
{
1070
    79
1070
     3
1002
}
  0
DIMENSION
  5
7694
330
1E
100
AcDbEntity
  8
30
  6
CONTINUOUS
100
AcDbDimension
  2
*D6
 10
323.0
 20
-320.0000000000001
 30
0.0
 11
358.3264163067303
 21
-306.0312994595848
 31
0.0
 70
   164
  3
STANDARD
100
AcDbRadialDimension
 15
328.4700873851312
 25
-317.5346107814316
 35
0.0
 40
0.0
1001
ACAD
1000
DSTYLE
1002
{
1070
    79
1070
     3
1070
   288
1070
     1
1002
}
  0
DIMENSION
  5
76A8
330
1E
100
AcDbEntity
  8
30
  6
CONTINUOUS
100
AcDbDimension
  2
*D7
 10
329.0
 20
-430.9055588177362
 30
0.0
 11
270.0
 21
-427.9055588177362
 31
0.0
 70
    32
  3
STANDARD
100
AcDbAlignedDimension
 13
211.0
 23
-400.0
 33
0.0
 14
329.0
 24
-400.0
 34
0.0
100
AcDbRotatedDimension
1001
ACAD
1000
DSTYLE
1002
{
1070
    79
1070
     3
1002
}
  0
DIMENSION
  5
76B5
330
1E
100
AcDbEntity
  8
30
  6
CONTINUOUS
100
AcDbDimension
  2
*D8
 10
363.0844752481832
 20
-406.0
 30
0.0
 11
360.0844752481833
 21
-359.9999999999998
 31
0.0
 70
    32
  3
STANDARD
100
AcDbAlignedDimension
 13
323.0
 23
-313.9999999999998
 33
0.0
 14
323.0
 24
-406.0
 34
0.0
 50
90.0
100
AcDbRotatedDimension
1001
ACAD
1000
DSTYLE
1002
{
1070
    79
1070
     3
1002
}
  0
DIMENSION
  5
76C3
330
1E
100
AcDbEntity
  8
30
  6
CONTINUOUS
100
AcDbDimension
  2
*D9
 10
382.7699465681196
 20
129.6759028429516
 30
0.0
 11
370.2699465681198
 21
132.6759028429516
 31
0.0
 70
    32
  3
STANDARD
100
AcDbAlignedDimension
 13
357.7699465681198
 23
145.2621828604461
 33
0.0
 14
382.7699465681196
 24
145.2621828604461
 34
0.0
100
AcDbRotatedDimension
1001
ACAD
1000
DSTYLE
1002
{
1070
    79
1070
     3
1002
}
  0
DIMENSION
  5
76D0
330
1E
100
AcDbEntity
  8
30
  6
CONTINUOUS
100
AcDbDimension
  2
*D10
 10
399.2122762463086
 20
157.2621828604461
 30
0.0
 11
396.2122762463085
 21
151.2621828604459
 31
0.0
 70
    32
  3
STANDARD
100
AcDbAlignedDimension
 13
382.7699465681196
 23
145.2621828604461
 33
0.0
 14
377.7699465681196
 24
157.2621828604461
 34
0.0
 50
90.0
100
AcDbRotatedDimension
1001
ACAD
1000
DSTYLE
1002
{
1070
    79
1070
     3
1002
}
  0
DIMENSION
  5
76DD
330
1E
100
AcDbEntity
  8
30
  6
CONTINUOUS
100
AcDbDimension
  2
*D11
 10
366.8268734197178
 20
152.9732147683805
 30
0.0
 11
393.7347867019194
 21
180.2634688469851
 31
0.0
 70
   163
  3
STANDARD
100
AcDbDiametricDimension
 15
373.7130197165208
 25
161.5511509525116
 35
0.0
 40
0.0
1001
ACAD
1000
DSTYLE
1002
{
1070
    79
1070
     3
1070
   288
1070
     1
1002
}
  0
LINE
  5
7868
330
1E
100
AcDbEntity
  8
16
100
AcDbLine
 10
-0.0000610351601154
 20
249.5036347984199
 30
0.0
 11
0.0
 21
407.913551891159
 31
0.0
  0
DIMENSION
  5
7895
330
1E
100
AcDbEntity
  8
30
  6
CONTINUOUS
100
AcDbDimension
  2
*D12
 10
324.2585283399446
 20
-149.3060655566289
 30
0.0
 11
272.7585283399446
 21
-146.3060655566289
 31
0.0
 70
    32
  3
STANDARD
100
AcDbAlignedDimension
 13
221.2585283399445
 23
-149.8060655566289
 33
0.0
 14
324.2585283399446
 24
-130.9999999999998
 34
0.0
100
AcDbRotatedDimension
1001
ACAD
1000
DSTYLE
1002
{
1070
    79
1070
     3
1002
}
  0
DIMENSION
  5
78B0
330
1E
100
AcDbEntity
  8
30
  6
CONTINUOUS
100
AcDbDimension
  2
*D13
 10
221.2585283399445
 20
-149.8060655566289
 30
0.0
 11
217.2585283399445
 21
-146.8060655566289
 31
0.0
 70
    32
  3
STANDARD
100
AcDbAlignedDimension
 13
213.2585283399444
 23
-44.99999999999988
 33
0.0
 14
221.2585283399445
 24
-44.99999999999988
 34
0.0
100
AcDbRotatedDimension
1001
ACAD
1000
DSTYLE
1002
{
1070
    79
1070
     3
1002
}
  0
DIMENSION
  5
78C5
330
1E
100
AcDbEntity
  8
30
  6
CONTINUOUS
100
AcDbDimension
  2
*D14
 10
324.2585283399446
 20
-164.4538407233292
 30
0.0
 11
251.7830342887183
 21
-161.4538407233292
 31
0.0
 70
    32
  3
STANDARD
100
AcDbAlignedDimension
 13
179.3075402374921
 23
0.0000000000001137
 33
0.0
 14
324.2585283399446
 24
-149.8060655566289
 34
0.0
100
AcDbRotatedDimension
1001
ACAD
1000
DSTYLE
1002
{
1070
    79
1070
     3
1002
}
  0
ARC
  5
78ED
330
1E
100
AcDbEntity
  8
30
  6
CONTINUOUS
100
AcDbCircle
 10
-659.6671500101114
 20
112.9567383121967
 30
0.0
 40
846.5445975293876
100
AcDbArc
 50
352.3319992403131
 51
354.242888427767
  0
DIMENSION
  5
7B7C
330
1E
100
AcDbEntity
  8
30
  6
CONTINUOUS
100
AcDbDimension
  2
*D15
 10
-20.69592979943676
 20
-255.3969419499519
 30
0.0
 11
-57.4924482064172
 21
-220.6800347238195
 31
0.0
 70
   163
  1
M6
  3
STANDARD
100
AcDbDiametricDimension
 15
-24.30407020056323
 25
-250.6030580500479
 35
0.0
 40
0.0
1001
ACAD
1000
DSTYLE
1002
{
1070
    79
1070
     3
1070
   288
1070
     1
1002
}
  0
LINE
  5
7BD8
330
1E
100
AcDbEntity
  8
24
  6
CONTINOUS
100
AcDbLine
 10
288.2585283399446
 20
130.0000000000002
 30
0.0
 11
288.2585283399446
 21
98.00000000000023
 31
0.0
  0
LINE
  5
7BD9
330
1E
100
AcDbEntity
  8
24
  6
CONTINOUS
100
AcDbLine
 10
292.2585283399445
 20
130.0000000000002
 30
0.0
 11
292.2585283399445
 21
98.00000000000023
 31
0.0
  0
LINE
  5
7BDA
330
1E
100
AcDbEntity
  8
24
  6
CONTINOUS
100
AcDbLine
 10
288.2585283399446
 20
98.00000000000023
 30
0.0
 11
292.2585283399445
 21
98.00000000000023
 31
0.0
  0
LINE
  5
7BDB
330
1E
100
AcDbEntity
  8
24
  6
CONTINOUS
100
AcDbLine
 10
279.3585283399445
 20
105.1000000000003
 30
0.0
 11
285.7585283399444
 21
105.1000000000003
 31
0.0
  0
LINE
  5
7BDC
330
1E
100
AcDbEntity
  8
24
  6
CONTINOUS
100
AcDbLine
 10
279.3585283399445
 20
122.9000000000002
 30
0.0
 11
285.7585283399444
 21
122.9000000000002
 31
0.0
  0
LINE
  5
7BDD
330
1E
100
AcDbEntity
  8
24
  6
CONTINOUS
100
AcDbLine
 10
274.3585283399446
 20
114.0000000000002
 30
0.0
 11
297.2585283399446
 21
114.0000000000002
 31
0.0
  0
LINE
  5
7BDE
330
1E
100
AcDbEntity
  8
24
  6
CONTINOUS
100
AcDbLine
 10
279.3585283399445
 20
122.9000000000002
 30
0.0
 11
279.3585283399445
 21
105.1000000000003
 31
0.0
  0
LINE
  5
7BDF
330
1E
100
AcDbEntity
  8
24
  6
CONTINOUS
100
AcDbLine
 10
285.7585283399444
 20
123.2000000000002
 30
0.0
 11
285.7585283399444
 21
104.8000000000002
 31
0.0
  0
LINE
  5
7BE0
330
1E
100
AcDbEntity
  8
24
  6
CONTINOUS
100
AcDbLine
 10
285.7585283399444
 20
104.8000000000002
 30
0.0
 11
288.2585283399446
 21
104.8000000000002
 31
0.0
  0
LINE
  5
7BE1
330
1E
100
AcDbEntity
  8
24
  6
CONTINOUS
100
AcDbLine
 10
285.7585283399444
 20
123.2000000000002
 30
0.0
 11
288.2585283399446
 21
123.2000000000002
 31
0.0
  0
DIMENSION
  5
7BE2
330
1E
100
AcDbEntity
  8
30
  6
CONTINUOUS
100
AcDbDimension
  2
*D16
 10
288.2585283399446
 20
148.063506906613
 30
0.0
 11
306.2585283399446
 21
151.063506906613
 31
0.0
 70
    32
  3
STANDARD
100
AcDbAlignedDimension
 13
324.2585283399446
 23
130.0000000000002
 33
0.0
 14
288.2585283399446
 24
130.0000000000002
 34
0.0
100
AcDbRotatedDimension
1001
ACAD
1000
DSTYLE
1002
{
1070
    79
1070
     3
1002
}
  0
LINE
  5
7C32
330
1E
100
AcDbEntity
  8
10
  6
CONTINOUS
100
AcDbLine
 10
115.0
 20
293.4369478956378
 30
0.0
 11
-70.000006238623
 21
293.4369478956378
 31
0.0
  0
LINE
  5
7C33
330
1E
100
AcDbEntity
  8
10
  6
CONTINOUS
100
AcDbLine
 10
115.0
 20
287.4369478956378
 30
0.0
 11
-70.000006238623
 21
287.4369478956378
 31
0.0
  0
LINE
  5
7C34
330
1E
100
AcDbEntity
  8
10
  6
CONTINOUS
100
AcDbLine
 10
57.99999376137697
 20
283.4369478956378
 30
0.0
 11
-58.000006238623
 21
283.4369478956378
 31
0.0
  0
LINE
  5
7C35
330
1E
100
AcDbEntity
  8
10
  6
CONTINOUS
100
AcDbLine
 10
115.0
 20
390.4369478956378
 30
0.0
 11
-70.00000623862297
 21
390.4369478956378
 31
0.0
  0
LINE
  5
7C36
330
1E
100
AcDbEntity
  8
10
  6
CONTINOUS
100
AcDbLine
 10
-70.000006238623
 20
287.4369478956378
 30
0.0
 11
-70.00000623862297
 21
390.4369478956378
 31
0.0
  0
LINE
  5
7C3D
330
1E
100
AcDbEntity
  8
10
  6
CONTINOUS
100
AcDbLine
 10
-58.000006238623
 20
283.4369478956378
 30
0.0
 11
-58.000006238623
 21
287.4369478956378
 31
0.0
  0
LINE
  5
7C42
330
1E
100
AcDbEntity
  8
10
  6
CONTINOUS
100
AcDbLine
 10
16.99999376137705
 20
250.9369478956378
 30
0.0
 11
-17.0000062386231
 21
250.9369478956378
 31
0.0
  0
LINE
  5
7C43
330
1E
100
AcDbEntity
  8
10
  6
CONTINOUS
100
AcDbLine
 10
17.999993761377
 20
279.4369478956378
 30
0.0
 11
-18.00000623862294
 21
279.4369478956378
 31
0.0
  0
LINE
  5
7C44
330
1E
100
AcDbEntity
  8
10
  6
CONTINOUS
100
AcDbLine
 10
-17.0000062386231
 20
250.9369478956378
 30
0.0
 11
-17.0000062386231
 21
279.4369478956378
 31
0.0
  0
LINE
  5
7C45
330
1E
100
AcDbEntity
  8
10
  6
CONTINOUS
100
AcDbLine
 10
-18.00000623862294
 20
279.4369478956378
 30
0.0
 11
-18.00000623862294
 21
283.4369478956378
 31
0.0
  0
LINE
  5
7C46
330
1E
100
AcDbEntity
  8
10
  6
CONTINOUS
100
AcDbLine
 10
16.99999376137705
 20
250.9369478956378
 30
0.0
 11
16.99999376137705
 21
279.4369478956378
 31
0.0
  0
LINE
  5
7C47
330
1E
100
AcDbEntity
  8
10
  6
CONTINOUS
100
AcDbLine
 10
17.999993761377
 20
279.4369478956378
 30
0.0
 11
17.999993761377
 21
283.4369478956378
 31
0.0
  0
LINE
  5
7C57
330
1E
100
AcDbEntity
  8
10
  6
CONTINOUS
100
AcDbLine
 10
115.0
 20
287.4369478956378
 30
0.0
 11
115.0
 21
390.4369478956378
 31
0.0
  0
LINE
  5
7C5A
330
1E
100
AcDbEntity
  8
10
  6
CONTINOUS
100
AcDbLine
 10
57.99999376137697
 20
283.4369478956378
 30
0.0
 11
57.99999376137697
 21
287.4369478956378
 31
0.0
  0
LINE
  5
7C87
330
1E
100
AcDbEntity
  8
24
  6
CONTINOUS
100
AcDbLine
 10
53.76574955133985
 20
345.5369478956378
 30
0.0
 11
53.76574955133985
 21
351.9369478956378
 31
0.0
  0
LINE
  5
7C88
330
1E
100
AcDbEntity
  8
24
  6
CONTINOUS
100
AcDbLine
 10
35.96574955133995
 20
345.5369478956378
 30
0.0
 11
53.76574955133985
 21
345.5369478956378
 31
0.0
  0
LINE
  5
7C8B
330
1E
100
AcDbEntity
  8
24
  6
CONTINOUS
100
AcDbLine
 10
35.66574955133992
 20
351.9369478956378
 30
0.0
 11
54.06574955133987
 21
351.9369478956378
 31
0.0
  0
LINE
  5
7C8C
330
1E
100
AcDbEntity
  8
24
  6
CONTINOUS
100
AcDbLine
 10
54.06574955133987
 20
351.9369478956378
 30
0.0
 11
54.06574955133987
 21
354.4369478956378
 31
0.0
  0
LINE
  5
7C8F
330
1E
100
AcDbEntity
  8
24
  6
CONTINOUS
100
AcDbLine
 10
35.96574955133995
 20
345.5369478956378
 30
0.0
 11
35.96574955133995
 21
351.9369478956378
 31
0.0
  0
LINE
  5
7C90
330
1E
100
AcDbEntity
  8
24
  6
CONTINOUS
100
AcDbLine
 10
35.66574955133992
 20
351.9369478956378
 30
0.0
 11
35.66574955133992
 21
354.4369478956378
 31
0.0
  0
MTEXT
  5
7CA7
330
1E
100
AcDbEntity
  8
30
  6
CONTINUOUS
100
AcDbMText
 10
210.8686476596813
 20
139.5216160708496
 30
0.0
 40
4.0
 41
0.0
 71
     9
 72
     1
  1
\A1;
1001
ACAD
1000
MTEXTBEGIN
1070
    73
1070
     1
1070
    44
1040
1.0
1070
    74
1070
     0
1000
MTEXTEND
1000
MTEXTBEGIN
1070
    73
1070
     1
1070
    44
1040
1.0
1070
    74
1070
     0
1000
MTEXTEND
1000
MTEXTBEGIN
1070
    73
1070
     1
1070
    44
1040
1.0
1070
    74
1070
     0
1000
MTEXTEND
  0
LEADER
  5
7CA8
330
1E
100
AcDbEntity
  8
30
  6
CONTINUOUS
100
AcDbLeader
  3
STANDARD
 73
     0
 40
4.0
 76
     3
 10
284.7617875096128
 20
123.1879450447894
 30
0.0
 10
280.6594638813866
 20
138.8087179895959
 30
0.0
 10
263.7373764866568
 20
138.8087179895959
 30
0.0
340
7CA9
213
-4.87151052266654
223
2.0
233
0.0
1001
ACAD
1000
DSTYLE
1002
{
1070
     5
1000
OPEN
1070
    77
1070
     0
1070
    79
1070
     3
1070
   147
1040
1.0
1070
   342
1005
3B2
1002
}
  0
MTEXT
  5
7CA9
102
{ACAD_REACTORS
330
7CA8
102
}
330
1E
100
AcDbEntity
  8
30
  6
CONTINUOUS
100
AcDbMText
 10
217.6088870093234
 20
136.808717989596
 30
0.0
 40
4.0
 41
0.0
 71
     9
 72
     1
  1
\A1;
1001
ACAD
1000
MTEXTBEGIN
1070
    73
1070
     1
1070
    44
1040
1.0
1070
    74
1070
     0
1000
MTEXTEND
1000
MTEXTBEGIN
1070
    73
1070
     1
1070
    44
1040
1.0
1070
    74
1070
     0
1000
MTEXTEND
1000
MTEXTBEGIN
1070
    73
1070
     1
1070
    44
1040
1.0
1070
    74
1070
     0
1000
MTEXTEND
  0
TEXT
  5
7CAA
330
1E
100
AcDbEntity
  8
30
  6
CONTINUOUS
100
AcDbText
 10
265.0193514063301
 20
139.8330327260242
 30
0.0
 40
5.0
  1
M10
  7
STANDARD1
100
AcDbText
  0
DIMENSION
  5
7CAD
330
1E
100
AcDbEntity
  8
30
  6
CONTINUOUS
100
AcDbDimension
  2
*D17
 10
-45.00000000000002
 20
405.251144283447
 30
0.0
 11
-57.50000311931151
 21
408.251144283447
 31
0.0
 70
    32
  3
STANDARD
100
AcDbAlignedDimension
 13
-70.00000623862297
 23
390.4369478956378
 33
0.0
 14
-45.00000000000002
 24
360.5189316457162
 34
0.0
100
AcDbRotatedDimension
1001
ACAD
1000
DSTYLE
1002
{
1070
    79
1070
     3
1002
}
  0
DIMENSION
  5
7CBA
330
1E
100
AcDbEntity
  8
30
  6
CONTINUOUS
100
AcDbDimension
  2
*D18
 10
-0.000020604474435
 20
405.251144283447
 30
0.0
 11
-22.50001030223722
 21
408.251144283447
 31
0.0
 70
    32
  3
STANDARD
100
AcDbAlignedDimension
 13
-45.00000000000002
 23
360.5189316457162
 33
0.0
 14
-0.0000206044744377
 24
360.5189316457162
 34
0.0
100
AcDbRotatedDimension
1001
ACAD
1000
DSTYLE
1002
{
1070
   287
1070
     4
1070
   287
1070
     4
1070
   287
1070
     4
1070
   287
1070
     4
1070
   287
1070
     4
1070
   287
1070
     4
1070
   287
1070
     4
1070
   287
1070
     4
1070
   287
1070
     4
1070
   279
1070
     1
1070
    79
1070
     3
1002
}
  0
DIMENSION
  5
7CC7
330
1E
100
AcDbEntity
  8
30
  6
CONTINUOUS
100
AcDbDimension
  2
*D19
 10
45.0
 20
405.251144283447
 30
0.0
 11
22.49998969776278
 21
408.251144283447
 31
0.0
 70
    32
  3
STANDARD
100
AcDbAlignedDimension
 13
-0.0000206044744377
 23
360.5189316457162
 33
0.0
 14
45.0
 24
354.4369478956378
 34
0.0
100
AcDbRotatedDimension
1001
ACAD
1000
DSTYLE
1002
{
1070
   287
1070
     4
1070
   287
1070
     4
1070
   287
1070
     4
1070
   287
1070
     4
1070
   287
1070
     4
1070
   287
1070
     4
1070
   287
1070
     4
1070
   287
1070
     4
1070
   287
1070
     4
1070
   279
1070
     1
1070
    79
1070
     3
1002
}
  0
LWPOLYLINE
  5
7D90
330
1E
100
AcDbEntity
  8
10
  6
CONTINOUS
100
AcDbPolyline
 90
        4
 70
     0
 43
0.0
 10
30.86574955133993
 20
355.5035127281199
 10
30.86574955133992
 20
299.4369478956378
 10
58.8657495513399
 20
299.4369478956378
 10
58.86574955133993
 20
355.5035127281199
  0
LWPOLYLINE
  5
7D91
330
1E
100
AcDbEntity
  8
10
  6
CONTINOUS
100
AcDbPolyline
 90
        4
 70
     0
 43
0.0
 10
-14.13425044866007
 20
355.5035127281199
 10
-14.13425044866008
 20
299.4369478956378
 10
13.8657495513399
 20
299.4369478956378
 10
13.8657495513399
 20
355.5035127281199
  0
LWPOLYLINE
  5
7D92
330
1E
100
AcDbEntity
  8
10
  6
CONTINOUS
100
AcDbPolyline
 90
        4
 70
     0
 43
0.0
 10
-59.13425044866006
 20
355.5035127281199
 10
-59.13425044866007
 20
299.4369478956378
 10
-31.13425044866008
 20
299.4369478956378
 10
-31.13425044866007
 20
355.5035127281199
  0
LWPOLYLINE
  5
7D93
330
1E
100
AcDbEntity
  8
24
  6
CONTINOUS
100
AcDbPolyline
 90
        2
 70
     0
 43
0.001
 10
-59.13425044866006
 20
354.4369478956378
 10
-31.13425044866007
 20
354.4369478956378
  0
LINE
  5
7D94
330
1E
100
AcDbEntity
  8
24
  6
CONTINOUS
100
AcDbLine
 10
-59.13425044866006
 20
357.5035127281199
 30
0.0
 11
-31.13425044866005
 21
357.5035127281199
 31
0.0
  0
LINE
  5
7D95
330
1E
100
AcDbEntity
  8
17
  6
DASHDOT
100
AcDbLine
 10
-32.33420162056006
 20
357.5035127281199
 30
0.0
 11
-57.33420162056006
 21
357.5035127281199
 31
0.0
  0
LINE
  5
7D96
330
1E
100
AcDbEntity
  8
17
  6
DASHDOT
100
AcDbLine
 10
-32.640625
 20
357.5035127281199
 30
0.0
 11
-57.359375
 21
357.5035127281199
 31
0.0
  0
LWPOLYLINE
  5
7D97
330
1E
100
AcDbEntity
  8
24
  6
CONTINOUS
100
AcDbPolyline
 90
        2
 70
     0
 43
0.001
 10
-59.13425044866006
 20
357.5035127281199
 10
-59.13425044866006
 20
354.4369478956378
  0
LINE
  5
7D98
330
1E
100
AcDbEntity
  8
24
  6
CONTINOUS
100
AcDbLine
 10
-35.09795162056002
 20
357.5035127281199
 30
0.0
 11
-48.5704516205601
 21
357.5035127281199
 31
0.0
  0
LINE
  5
7D99
330
1E
100
AcDbEntity
  8
24
  6
CONTINOUS
100
AcDbLine
 10
-50.81726057798277
 20
357.5035127281199
 30
0.0
 11
-50.81726057798277
 21
354.4369478956378
 31
0.0
  0
LINE
  5
7D9A
330
1E
100
AcDbEntity
  8
24
  6
CONTINOUS
100
AcDbLine
 10
-39.18273942201721
 20
357.5035127281199
 30
0.0
 11
-39.18273942201721
 21
354.4369478956378
 31
0.0
  0
LWPOLYLINE
  5
7D9B
330
1E
100
AcDbEntity
  8
24
  6
CONTINOUS
100
AcDbPolyline
 90
        2
 70
     0
 43
0.001
 10
-31.13425044866007
 20
357.5035127281199
 10
-31.13425044866007
 20
354.4369478956378
  0
LINE
  5
7D9C
330
1E
100
AcDbEntity
  8
24
  6
CONTINOUS
100
AcDbLine
 10
3.902048379439975
 20
357.5035127281199
 30
0.0
 11
-9.570451620560106
 21
357.5035127281199
 31
0.0
  0
LWPOLYLINE
  5
7D9D
330
1E
100
AcDbEntity
  8
24
  6
CONTINOUS
100
AcDbPolyline
 90
        2
 70
     0
 43
0.001
 10
-14.13425044866007
 20
354.4369478956378
 10
13.8657495513399
 20
354.4369478956378
  0
LINE
  5
7D9E
330
1E
100
AcDbEntity
  8
24
  6
CONTINOUS
100
AcDbLine
 10
-14.13425044866005
 20
357.5035127281199
 30
0.0
 11
13.8657495513399
 21
357.5035127281199
 31
0.0
  0
LINE
  5
7D9F
330
1E
100
AcDbEntity
  8
17
  6
DASHDOT
100
AcDbLine
 10
6.665798379439932
 20
357.5035127281199
 30
0.0
 11
-12.33420162056006
 21
357.5035127281199
 31
0.0
  0
LINE
  5
7DA0
330
1E
100
AcDbEntity
  8
17
  6
DASHDOT
100
AcDbLine
 10
6.359375
 20
357.5035127281199
 30
0.0
 11
-12.359375
 21
357.5035127281199
 31
0.0
  0
LWPOLYLINE
  5
7DA1
330
1E
100
AcDbEntity
  8
24
  6
CONTINOUS
100
AcDbPolyline
 90
        2
 70
     0
 43
0.001
 10
-14.13425044866007
 20
357.5035127281199
 10
-14.13425044866007
 20
354.4369478956378
  0
LINE
  5
7DA2
330
1E
100
AcDbEntity
  8
24
  6
CONTINOUS
100
AcDbLine
 10
-5.817260577982777
 20
357.5035127281199
 30
0.0
 11
-5.817260577982777
 21
354.4369478956378
 31
0.0
  0
LINE
  5
7DA3
330
1E
100
AcDbEntity
  8
24
  6
CONTINOUS
100
AcDbLine
 10
5.817260577982777
 20
357.5035127281199
 30
0.0
 11
5.817260577982777
 21
354.4369478956378
 31
0.0
  0
LWPOLYLINE
  5
7DA4
330
1E
100
AcDbEntity
  8
24
  6
CONTINOUS
100
AcDbPolyline
 90
        2
 70
     0
 43
0.001
 10
13.8657495513399
 20
357.5035127281199
 10
13.8657495513399
 20
354.4369478956378
  0
LINE
  5
7DA5
330
1E
100
AcDbEntity
  8
17
  6
DASHDOT
100
AcDbLine
 10
57.66579837943993
 20
357.5035127281199
 30
0.0
 11
32.66579837943993
 21
357.5035127281199
 31
0.0
  0
LINE
  5
7DA6
330
1E
100
AcDbEntity
  8
17
  6
DASHDOT
100
AcDbLine
 10
57.359375
 20
357.5035127281199
 30
0.0
 11
32.640625
 21
357.5035127281199
 31
0.0
  0
LWPOLYLINE
  5
7DA7
330
1E
100
AcDbEntity
  8
24
  6
CONTINOUS
100
AcDbPolyline
 90
        2
 70
     0
 43
0.001
 10
30.86574955133993
 20
354.4369478956378
 10
58.86574955133993
 20
354.4369478956378
  0
LINE
  5
7DA8
330
1E
100
AcDbEntity
  8
24
  6
CONTINOUS
100
AcDbLine
 10
30.86574955133994
 20
357.5035127281199
 30
0.0
 11
58.86574955133994
 21
357.5035127281199
 31
0.0
  0
LWPOLYLINE
  5
7DA9
330
1E
100
AcDbEntity
  8
24
  6
CONTINOUS
100
AcDbPolyline
 90
        2
 70
     0
 43
0.001
 10
30.86574955133993
 20
357.5035127281199
 10
30.86574955133993
 20
354.4369478956378
  0
LINE
  5
7DAA
330
1E
100
AcDbEntity
  8
24
  6
CONTINOUS
100
AcDbLine
 10
48.90204837943996
 20
357.5035127281199
 30
0.0
 11
41.42954837943989
 21
357.5035127281199
 31
0.0
  0
LINE
  5
7DAB
330
1E
100
AcDbEntity
  8
24
  6
CONTINOUS
100
AcDbLine
 10
39.1827394220172
 20
357.5035127281199
 30
0.0
 11
39.1827394220172
 21
354.4369478956378
 31
0.0
  0
LINE
  5
7DAC
330
1E
100
AcDbEntity
  8
24
  6
CONTINOUS
100
AcDbLine
 10
50.81726057798277
 20
357.5035127281199
 30
0.0
 11
50.81726057798277
 21
354.4369478956378
 31
0.0
  0
LWPOLYLINE
  5
7DAD
330
1E
100
AcDbEntity
  8
24
  6
CONTINOUS
100
AcDbPolyline
 90
        2
 70
     0
 43
0.001
 10
58.86574955133993
 20
357.5035127281199
 10
58.86574955133993
 20
354.4369478956378
  0
DIMENSION
  5
7DAE
330
1E
100
AcDbEntity
  8
30
  6
CONTINUOUS
100
AcDbDimension
  2
*D20
 10
138.5775743456902
 20
354.4369478956377
 30
0.0
 11
160.0397376512239
 21
371.7474129077193
 31
0.0
 70
   160
  1
ON SIDE 36\POFF SIDE 35
  3
STANDARD
100
AcDbAlignedDimension
 13
114.9999452034627
 23
390.4369478956378
 33
0.0
 14
108.5048398215564
 24
354.4369478956378
 34
0.0
 50
90.0
100
AcDbRotatedDimension
1001
ACAD
1000
DSTYLE
1002
{
1070
   287
1070
     5
1070
   287
1070
     5
1070
   287
1070
     5
1070
   287
1070
     5
1070
   287
1070
     5
1070
   287
1070
     5
1070
   287
1070
     5
1070
   287
1070
     5
1070
   287
1070
     5
1070
   279
1070
     2
1070
    79
1070
     3
1002
}
  0
LINE
  5
7DC4
330
1E
100
AcDbEntity
  8
24
  6
CONTINOUS
100
AcDbLine
 10
-9.33425044866005
 20
351.9369478956378
 30
0.0
 11
9.06574955133987
 21
351.9369478956378
 31
0.0
  0
LINE
  5
7DC5
330
1E
100
AcDbEntity
  8
24
  6
CONTINOUS
100
AcDbLine
 10
-9.034250448660039
 20
345.5369478956378
 30
0.0
 11
8.765749551339856
 21
345.5369478956378
 31
0.0
  0
LINE
  5
7DC6
330
1E
100
AcDbEntity
  8
24
  6
CONTINOUS
100
AcDbLine
 10
-9.33425044866005
 20
351.9369478956378
 30
0.0
 11
-9.33425044866005
 21
354.4369478956378
 31
0.0
  0
LINE
  5
7DC7
330
1E
100
AcDbEntity
  8
24
  6
CONTINOUS
100
AcDbLine
 10
-9.034250448660039
 20
345.5369478956378
 30
0.0
 11
-9.034250448660039
 21
351.9369478956378
 31
0.0
  0
LINE
  5
7DC8
330
1E
100
AcDbEntity
  8
24
  6
CONTINOUS
100
AcDbLine
 10
9.06574955133987
 20
351.9369478956378
 30
0.0
 11
9.06574955133987
 21
354.4369478956378
 31
0.0
  0
LINE
  5
7DC9
330
1E
100
AcDbEntity
  8
24
  6
CONTINOUS
100
AcDbLine
 10
8.765749551339856
 20
345.5369478956378
 30
0.0
 11
8.765749551339856
 21
351.9369478956378
 31
0.0
  0
LINE
  5
7DCA
330
1E
100
AcDbEntity
  8
24
  6
CONTINOUS
100
AcDbLine
 10
-54.33425044866004
 20
351.9369478956378
 30
0.0
 11
-35.93425044866011
 21
351.9369478956378
 31
0.0
  0
LINE
  5
7DCB
330
1E
100
AcDbEntity
  8
24
  6
CONTINOUS
100
AcDbLine
 10
-54.03425044866003
 20
345.5369478956378
 30
0.0
 11
-36.23425044866011
 21
345.5369478956378
 31
0.0
  0
LINE
  5
7DCC
330
1E
100
AcDbEntity
  8
24
  6
CONTINOUS
100
AcDbLine
 10
-54.33425044866004
 20
351.9369478956378
 30
0.0
 11
-54.33425044866004
 21
354.4369478956378
 31
0.0
  0
LINE
  5
7DCD
330
1E
100
AcDbEntity
  8
24
  6
CONTINOUS
100
AcDbLine
 10
-54.03425044866003
 20
345.5369478956378
 30
0.0
 11
-54.03425044866003
 21
351.9369478956378
 31
0.0
  0
LINE
  5
7DCE
330
1E
100
AcDbEntity
  8
24
  6
CONTINOUS
100
AcDbLine
 10
-35.93425044866011
 20
351.9369478956378
 30
0.0
 11
-35.93425044866011
 21
354.4369478956378
 31
0.0
  0
LINE
  5
7DCF
330
1E
100
AcDbEntity
  8
24
  6
CONTINOUS
100
AcDbLine
 10
-36.23425044866011
 20
345.5369478956378
 30
0.0
 11
-36.23425044866011
 21
351.9369478956378
 31
0.0
  0
LINE
  5
7DD2
330
1E
100
AcDbEntity
  8
24
  6
CONTINOUS
100
AcDbLine
 10
275.3585283399444
 20
-113.9999999999997
 30
0.0
 11
298.2585283399444
 21
-113.9999999999997
 31
0.0
  0
LINE
  5
7DD3
330
1E
100
AcDbEntity
  8
24
  6
CONTINOUS
100
AcDbLine
 10
280.3585283399446
 20
-105.0999999999999
 30
0.0
 11
286.7585283399446
 21
-105.0999999999999
 31
0.0
  0
LINE
  5
7DD4
330
1E
100
AcDbEntity
  8
24
  6
CONTINOUS
100
AcDbLine
 10
280.3585283399446
 20
-122.8999999999995
 30
0.0
 11
280.3585283399446
 21
-105.0999999999999
 31
0.0
  0
LINE
  5
7DD5
330
1E
100
AcDbEntity
  8
24
  6
CONTINOUS
100
AcDbLine
 10
293.2585283399446
 20
-129.9999999999998
 30
0.0
 11
293.2585283399446
 21
-97.9999999999999
 31
0.0
  0
LINE
  5
7DD6
330
1E
100
AcDbEntity
  8
24
  6
CONTINOUS
100
AcDbLine
 10
289.2585283399446
 20
-129.9999999999998
 30
0.0
 11
289.2585283399446
 21
-97.9999999999999
 31
0.0
  0
LINE
  5
7DD7
330
1E
100
AcDbEntity
  8
24
  6
CONTINOUS
100
AcDbLine
 10
286.7585283399446
 20
-123.1999999999995
 30
0.0
 11
286.7585283399446
 21
-104.7999999999996
 31
0.0
  0
LINE
  5
7DD8
330
1E
100
AcDbEntity
  8
24
  6
CONTINOUS
100
AcDbLine
 10
286.7585283399446
 20
-104.7999999999996
 30
0.0
 11
289.2585283399446
 21
-104.7999999999996
 31
0.0
  0
LINE
  5
7DD9
330
1E
100
AcDbEntity
  8
24
  6
CONTINOUS
100
AcDbLine
 10
289.2585283399446
 20
-97.9999999999999
 30
0.0
 11
293.2585283399446
 21
-97.9999999999999
 31
0.0
  0
LINE
  5
7DDA
330
1E
100
AcDbEntity
  8
24
  6
CONTINOUS
100
AcDbLine
 10
280.3585283399446
 20
-122.8999999999995
 30
0.0
 11
286.7585283399446
 21
-122.8999999999995
 31
0.0
  0
LINE
  5
7DDB
330
1E
100
AcDbEntity
  8
24
  6
CONTINOUS
100
AcDbLine
 10
286.7585283399446
 20
-123.1999999999995
 30
0.0
 11
289.2585283399446
 21
-123.1999999999995
 31
0.0
  0
DIMENSION
  5
7E23
330
1E
100
AcDbEntity
  8
30
  6
CONTINUOUS
100
AcDbDimension
  2
*D21
 10
289.2585283399446
 20
-139.6885260678299
 30
0.0
 11
306.7585283399446
 21
-136.6885260678299
 31
0.0
 70
    32
  3
STANDARD
100
AcDbAlignedDimension
 13
324.2585283399446
 23
-129.9999999999998
 33
0.0
 14
289.2585283399446
 24
-129.9999999999998
 34
0.0
100
AcDbRotatedDimension
1001
ACAD
1000
DSTYLE
1002
{
1070
    79
1070
     3
1002
}
  0
MTEXT
  5
7E8C
330
1E
100
AcDbEntity
  8
19
  6
CONTINUOUS
100
AcDbMText
 10
209.7485176807431
 20
357.3502274517981
 30
0.0
 40
5.0
 41
94.44412700986868
 71
     1
 72
     5
  1
ZAS400-NF 4P FC\PZAS400-GF 4P FC
  7
STANDARD1
1001
ACAD
1000
MTEXTBEGIN
1070
    73
1070
     1
1070
    44
1040
1.0
1070
    74
1070
     0
1000
MTEXTEND
1000
MTEXTBEGIN
1070
    73
1070
     1
1070
    44
1040
1.0
1070
    74
1070
     0
1000
MTEXTEND
1000
MTEXTBEGIN
1070
    73
1070
     1
1070
    44
1040
1.0
1070
    74
1070
     0
1000
MTEXTEND
  0
LINE
  5
856B
330
1E
100
AcDbEntity
  8
24
  6
CONTINOUS
100
AcDbLine
 10
-53.99999999999995
 20
114.0
 30
0.0
 11
-36.0
 21
114.0
 31
0.0
  0
LINE
  5
856E
330
1E
100
AcDbEntity
  8
10
  6
CONTINUOUS
100
AcDbLine
 10
-53.0
 20
45.0
 30
0.0
 11
53.0
 21
45.0
 31
0.0
  0
LINE
  5
856F
330
1E
100
AcDbEntity
  8
10
  6
CONTINUOUS
100
AcDbLine
 10
-70.0
 20
50.99999999999899
 30
0.0
 11
115.0
 21
50.99999999999899
 31
0.0
  0
LINE
  5
8570
330
1E
100
AcDbEntity
  8
24
  6
CONTINOUS
100
AcDbLine
 10
-53.99999999999995
 20
-113.9999999999999
 30
0.0
 11
-36.0
 21
-113.9999999999999
 31
0.0
  0
LINE
  5
8572
330
1E
100
AcDbEntity
  8
10
  6
CONTINUOUS
100
AcDbLine
 10
-53.0
 20
-44.99999999999999
 30
0.0
 11
53.0
 21
-44.99999999999999
 31
0.0
  0
LINE
  5
8573
330
1E
100
AcDbEntity
  8
10
  6
CONTINUOUS
100
AcDbLine
 10
-70.0
 20
-50.99999999999997
 30
0.0
 11
115.0
 21
-50.99999999999997
 31
0.0
  0
LINE
  5
8574
330
1E
100
AcDbEntity
  8
10
  6
CONTINUOUS
100
AcDbLine
 10
-70.0
 20
-130.0
 30
0.0
 11
115.0
 21
-130.0
 31
0.0
  0
DIMENSION
  5
8575
330
1E
100
AcDbEntity
  8
30
  6
CONTINUOUS
100
AcDbDimension
  2
*D22
 10
-120.7651061970336
 20
-130.0
 30
0.0
 11
-123.7651061970336
 21
-0.0000000000000207
 31
0.0
 70
    32
  3
STANDARD
100
AcDbAlignedDimension
 13
-70.0
 23
130.0
 33
0.0
 14
-70.0
 24
-130.0
 34
0.0
 50
90.0
100
AcDbRotatedDimension
  0
LINE
  5
8576
330
1E
100
AcDbEntity
  8
10
  6
CONTINUOUS
100
AcDbLine
 10
-70.0
 20
130.0
 30
0.0
 11
-70.0
 21
-130.0
 31
0.0
  0
LINE
  5
857E
330
1E
100
AcDbEntity
  8
10
  6
CONTINUOUS
100
AcDbLine
 10
-39.5
 20
-113.9999999999999
 30
0.0
 11
-39.5
 21
-130.0
 31
0.0
  0
LINE
  5
857F
330
1E
100
AcDbEntity
  8
10
  6
CONTINUOUS
100
AcDbLine
 10
-50.5
 20
-113.9999999999999
 30
0.0
 11
-50.5
 21
-130.0
 31
0.0
  0
LINE
  5
8580
330
1E
100
AcDbEntity
  8
24
  6
CONTINOUS
100
AcDbLine
 10
-41.0
 20
-116.3094010767587
 30
0.0
 11
-45.0
 21
-118.6188021535169
 31
0.0
  0
LINE
  5
8581
330
1E
100
AcDbEntity
  8
24
  6
CONTINOUS
100
AcDbLine
 10
-45.0
 20
-118.6188021535169
 30
0.0
 11
-49.0
 21
-116.3094010767587
 31
0.0
  0
LINE
  5
8582
330
1E
100
AcDbEntity
  8
24
  6
CONTINOUS
100
AcDbLine
 10
-49.0
 20
-116.3094010767587
 30
0.0
 11
-49.0
 21
-111.6905989232414
 31
0.0
  0
LINE
  5
8583
330
1E
100
AcDbEntity
  8
24
  6
CONTINOUS
100
AcDbLine
 10
-49.0
 20
-111.6905989232414
 30
0.0
 11
-45.0
 21
-109.3811978464831
 31
0.0
  0
LINE
  5
8584
330
1E
100
AcDbEntity
  8
24
  6
CONTINOUS
100
AcDbLine
 10
-45.0
 20
-109.3811978464831
 30
0.0
 11
-41.0
 21
-111.6905989232414
 31
0.0
  0
LINE
  5
8585
330
1E
100
AcDbEntity
  8
24
  6
CONTINOUS
100
AcDbLine
 10
-41.0
 20
-111.6905989232414
 30
0.0
 11
-41.0
 21
-116.3094010767587
 31
0.0
  0
ARC
  5
8586
330
1E
100
AcDbEntity
  8
10
  6
CONTINUOUS
100
AcDbCircle
 10
45.0
 20
-113.9999999999999
 30
0.0
 40
5.5
210
0.0
220
0.0
230
-1.0
100
AcDbArc
 50
0.0
 51
180.0
  0
ARC
  5
8587
330
1E
100
AcDbEntity
  8
10
  6
CONTINUOUS
100
AcDbCircle
 10
45.0
 20
-113.9999999999999
 30
0.0
 40
8.0
210
0.0
220
0.0
230
-1.0
100
AcDbArc
 50
226.5674634422111
 51
313.4325365577887
  0
LINE
  5
8588
330
1E
100
AcDbEntity
  8
24
  6
CONTINOUS
100
AcDbLine
 10
-45.0
 20
-122.9999999999999
 30
0.0
 11
-45.0
 21
-104.9999999999996
 31
0.0
  0
DIMENSION
  5
8589
330
1E
100
AcDbEntity
  8
30
  6
CONTINUOUS
100
AcDbDimension
  2
*D23
 10
-106.0
 20
-50.99999999999997
 30
0.0
 11
-108.9999999999996
 21
-0.0000000000005047
 31
0.0
 70
    32
  3
STANDARD
100
AcDbAlignedDimension
 13
-70.0
 23
50.99999999999899
 33
0.0
 14
-70.0
 24
-50.99999999999997
 34
0.0
 50
90.0
100
AcDbRotatedDimension
  0
DIMENSION
  5
858A
330
1E
100
AcDbEntity
  8
30
  6
CONTINUOUS
100
AcDbDimension
  2
*D24
 10
-92.0
 20
-44.99999999999998
 30
0.0
 11
-94.99999999999998
 21
0.000000000000006
 31
0.0
 70
    32
  3
STANDARD
100
AcDbAlignedDimension
 13
-53.0
 23
45.0
 33
0.0
 14
-53.0
 24
-44.99999999999999
 34
0.0
 50
90.0
100
AcDbRotatedDimension
  0
LINE
  5
858B
330
1E
100
AcDbEntity
  8
10
  6
CONTINUOUS
100
AcDbLine
 10
-58.0
 20
40.0
 30
0.0
 11
-58.0
 21
-39.99999999999998
 31
0.0
  0
ARC
  5
858C
330
1E
100
AcDbEntity
  8
10
  6
CONTINUOUS
100
AcDbCircle
 10
-53.0
 20
-39.99999999999998
 30
0.0
 40
5.0
100
AcDbArc
 50
180.0
 51
270.0
  0
ARC
  5
858D
330
1E
100
AcDbEntity
  8
10
  6
CONTINUOUS
100
AcDbCircle
 10
-53.0
 20
40.0
 30
0.0
 40
5.0
100
AcDbArc
 50
90.0
 51
180.0
  0
LINE
  5
8591
330
1E
100
AcDbEntity
  8
24
  6
CONTINOUS
100
AcDbLine
 10
-45.0
 20
123.0
 30
0.0
 11
-45.0
 21
105.0
 31
0.0
  0
LINE
  5
8592
330
1E
100
AcDbEntity
  8
24
  6
CONTINOUS
100
AcDbLine
 10
-41.0
 20
111.6905989232414
 30
0.0
 11
-41.0
 21
116.3094010767587
 31
0.0
  0
LINE
  5
8593
330
1E
100
AcDbEntity
  8
24
  6
CONTINOUS
100
AcDbLine
 10
-49.00000000000002
 20
116.3094010767587
 30
0.0
 11
-49.00000000000002
 21
111.6905989232414
 31
0.0
  0
ARC
  5
8594
330
1E
100
AcDbEntity
  8
10
  6
CONTINUOUS
100
AcDbCircle
 10
45.0
 20
114.0
 30
0.0
 40
5.5
210
0.0
220
0.0
230
-1.0
100
AcDbArc
 50
180.0
 51
0.0
  0
LINE
  5
8595
330
1E
100
AcDbEntity
  8
24
  6
CONTINOUS
100
AcDbLine
 10
-45.0
 20
109.3811978464831
 30
0.0
 11
-41.0
 21
111.6905989232414
 31
0.0
  0
LINE
  5
8596
330
1E
100
AcDbEntity
  8
24
  6
CONTINOUS
100
AcDbLine
 10
-49.00000000000002
 20
111.6905989232414
 30
0.0
 11
-45.0
 21
109.3811978464831
 31
0.0
  0
LINE
  5
8597
330
1E
100
AcDbEntity
  8
24
  6
CONTINOUS
100
AcDbLine
 10
-45.0
 20
118.6188021535169
 30
0.0
 11
-49.00000000000002
 21
116.3094010767587
 31
0.0
  0
LINE
  5
8598
330
1E
100
AcDbEntity
  8
24
  6
CONTINOUS
100
AcDbLine
 10
-41.0
 20
116.3094010767587
 30
0.0
 11
-45.0
 21
118.6188021535169
 31
0.0
  0
LINE
  5
8599
330
1E
100
AcDbEntity
  8
10
  6
CONTINUOUS
100
AcDbLine
 10
-39.50000000000001
 20
114.0
 30
0.0
 11
-39.50000000000001
 21
130.0
 31
0.0
  0
LINE
  5
859A
330
1E
100
AcDbEntity
  8
10
  6
CONTINUOUS
100
AcDbLine
 10
-50.5
 20
114.0
 30
0.0
 11
-50.5
 21
130.0
 31
0.0
  0
ARC
  5
859B
330
1E
100
AcDbEntity
  8
10
  6
CONTINUOUS
100
AcDbCircle
 10
45.0
 20
114.0
 30
0.0
 40
8.0
210
0.0
220
0.0
230
-1.0
100
AcDbArc
 50
46.5674634422112
 51
133.4325365577887
  0
LINE
  5
85A0
330
1E
100
AcDbEntity
  8
10
  6
CONTINUOUS
100
AcDbLine
 10
115.0
 20
130.0
 30
0.0
 11
115.0
 21
-130.0
 31
0.0
  0
LINE
  5
85B4
330
1E
100
AcDbEntity
  8
12
  6
DASHED
100
AcDbLine
 10
-22.5
 20
-98.99999999999998
 30
0.0
 11
-22.5
 21
-114.9999999999999
 31
0.0
  0
CIRCLE
  5
85B5
330
1E
100
AcDbEntity
  8
12
  6
DASHED
100
AcDbCircle
 10
-22.5
 20
-106.9999999999996
 30
0.0
 40
4.0
  0
LINE
  5
85B6
330
1E
100
AcDbEntity
  8
12
  6
DASHED
100
AcDbLine
 10
-14.5
 20
-106.9999999999996
 30
0.0
 11
-30.5
 21
-106.9999999999996
 31
0.0
  0
LINE
  5
85B7
330
1E
100
AcDbEntity
  8
10
  6
CONTINUOUS
100
AcDbLine
 10
5.5
 20
-113.9999999999999
 30
0.0
 11
5.5
 21
-130.0
 31
0.0
  0
LINE
  5
85B8
330
1E
100
AcDbEntity
  8
10
  6
CONTINUOUS
100
AcDbLine
 10
-5.5
 20
-113.9999999999999
 30
0.0
 11
-5.5
 21
-130.0
 31
0.0
  0
ARC
  5
85B9
330
1E
100
AcDbEntity
  8
10
  6
CONTINUOUS
100
AcDbCircle
 10
0.0
 20
-113.9999999999999
 30
0.0
 40
5.5
210
0.0
220
0.0
230
-1.0
100
AcDbArc
 50
0.0
 51
180.0
  0
ARC
  5
85BA
330
1E
100
AcDbEntity
  8
10
  6
CONTINUOUS
100
AcDbCircle
 10
0.0
 20
-113.9999999999999
 30
0.0
 40
8.0
210
0.0
220
0.0
230
-1.0
100
AcDbArc
 50
226.5674634422111
 51
313.4325365577887
  0
LINE
  5
85BB
330
1E
100
AcDbEntity
  8
24
  6
CONTINOUS
100
AcDbLine
 10
0.0
 20
-118.6188021535169
 30
0.0
 11
-4.0
 21
-116.3094010767587
 31
0.0
  0
LINE
  5
85BC
330
1E
100
AcDbEntity
  8
24
  6
CONTINOUS
100
AcDbLine
 10
-4.0
 20
-111.6905989232414
 30
0.0
 11
0.0
 21
-109.3811978464831
 31
0.0
  0
LINE
  5
85BD
330
1E
100
AcDbEntity
  8
24
  6
CONTINOUS
100
AcDbLine
 10
-8.999999999999943
 20
-113.9999999999999
 30
0.0
 11
9.0
 21
-113.9999999999999
 31
0.0
  0
LINE
  5
85BE
330
1E
100
AcDbEntity
  8
24
  6
CONTINOUS
100
AcDbLine
 10
-4.0
 20
-116.3094010767587
 30
0.0
 11
-4.0
 21
-111.6905989232414
 31
0.0
  0
LINE
  5
85BF
330
1E
100
AcDbEntity
  8
24
  6
CONTINOUS
100
AcDbLine
 10
4.0
 20
-116.3094010767587
 30
0.0
 11
0.0
 21
-118.6188021535169
 31
0.0
  0
LINE
  5
85C0
330
1E
100
AcDbEntity
  8
24
  6
CONTINOUS
100
AcDbLine
 10
0.0
 20
-109.3811978464831
 30
0.0
 11
4.0
 21
-111.6905989232414
 31
0.0
  0
LINE
  5
85C1
330
1E
100
AcDbEntity
  8
24
  6
CONTINOUS
100
AcDbLine
 10
4.0
 20
-111.6905989232414
 30
0.0
 11
4.0
 21
-116.3094010767587
 31
0.0
  0
LINE
  5
85C2
330
1E
100
AcDbEntity
  8
24
  6
CONTINOUS
100
AcDbLine
 10
0.0
 20
-122.9999999999999
 30
0.0
 11
0.0
 21
-104.9999999999996
 31
0.0
  0
CIRCLE
  5
85C3
330
1E
100
AcDbEntity
  8
12
  6
DASHED
100
AcDbCircle
 10
22.5
 20
-106.9999999999996
 30
0.0
 40
4.0
  0
LINE
  5
85C4
330
1E
100
AcDbEntity
  8
12
  6
DASHED
100
AcDbLine
 10
22.5
 20
-98.99999999999998
 30
0.0
 11
22.5
 21
-114.9999999999999
 31
0.0
  0
LINE
  5
85C5
330
1E
100
AcDbEntity
  8
12
  6
DASHED
100
AcDbLine
 10
30.5
 20
-106.9999999999996
 30
0.0
 11
14.5
 21
-106.9999999999996
 31
0.0
  0
LINE
  5
85C6
330
1E
100
AcDbEntity
  8
10
  6
CONTINUOUS
100
AcDbLine
 10
50.5
 20
-113.9999999999999
 30
0.0
 11
50.5
 21
-130.0
 31
0.0
  0
LINE
  5
85C7
330
1E
100
AcDbEntity
  8
10
  6
CONTINUOUS
100
AcDbLine
 10
39.5
 20
-113.9999999999999
 30
0.0
 11
39.5
 21
-130.0
 31
0.0
  0
LINE
  5
85C8
330
1E
100
AcDbEntity
  8
24
  6
CONTINOUS
100
AcDbLine
 10
49.0
 20
-116.3094010767587
 30
0.0
 11
45.0
 21
-118.6188021535169
 31
0.0
  0
LINE
  5
85C9
330
1E
100
AcDbEntity
  8
24
  6
CONTINOUS
100
AcDbLine
 10
45.0
 20
-109.3811978464831
 30
0.0
 11
49.0
 21
-111.6905989232414
 31
0.0
  0
ARC
  5
85CA
330
1E
100
AcDbEntity
  8
10
  6
CONTINUOUS
100
AcDbCircle
 10
-45.0
 20
-113.9999999999999
 30
0.0
 40
5.5
210
0.0
220
0.0
230
-1.0
100
AcDbArc
 50
0.0
 51
180.0
  0
ARC
  5
85CB
330
1E
100
AcDbEntity
  8
10
  6
CONTINUOUS
100
AcDbCircle
 10
-45.0
 20
-113.9999999999999
 30
0.0
 40
8.0
210
0.0
220
0.0
230
-1.0
100
AcDbArc
 50
226.5674634422111
 51
313.4325365577887
  0
LINE
  5
85CC
330
1E
100
AcDbEntity
  8
24
  6
CONTINOUS
100
AcDbLine
 10
36.00000000000003
 20
-113.9999999999999
 30
0.0
 11
54.0
 21
-113.9999999999999
 31
0.0
  0
LINE
  5
85CD
330
1E
100
AcDbEntity
  8
24
  6
CONTINOUS
100
AcDbLine
 10
45.0
 20
-122.9999999999999
 30
0.0
 11
45.0
 21
-104.9999999999996
 31
0.0
  0
LINE
  5
85CE
330
1E
100
AcDbEntity
  8
24
  6
CONTINOUS
100
AcDbLine
 10
41.0
 20
-116.3094010767587
 30
0.0
 11
41.0
 21
-111.6905989232414
 31
0.0
  0
LINE
  5
85CF
330
1E
100
AcDbEntity
  8
24
  6
CONTINOUS
100
AcDbLine
 10
45.0
 20
-118.6188021535169
 30
0.0
 11
41.0
 21
-116.3094010767587
 31
0.0
  0
LINE
  5
85D0
330
1E
100
AcDbEntity
  8
24
  6
CONTINOUS
100
AcDbLine
 10
41.0
 20
-111.6905989232414
 30
0.0
 11
45.0
 21
-109.3811978464831
 31
0.0
  0
LINE
  5
85D1
330
1E
100
AcDbEntity
  8
24
  6
CONTINOUS
100
AcDbLine
 10
49.0
 20
-111.6905989232414
 30
0.0
 11
49.0
 21
-116.3094010767587
 31
0.0
  0
LINE
  5
85DB
330
1E
100
AcDbEntity
  8
24
  6
CONTINOUS
100
AcDbLine
 10
81.00000000000013
 20
-113.9999999999999
 30
0.0
 11
99.0
 21
-113.9999999999999
 31
0.0
  0
LINE
  5
85DC
330
1E
100
AcDbEntity
  8
10
  6
CONTINUOUS
100
AcDbLine
 10
95.5
 20
-113.9999999999999
 30
0.0
 11
95.5
 21
-130.0
 31
0.0
  0
LINE
  5
85DD
330
1E
100
AcDbEntity
  8
10
  6
CONTINUOUS
100
AcDbLine
 10
84.50000000000001
 20
-113.9999999999999
 30
0.0
 11
84.50000000000001
 21
-130.0
 31
0.0
  0
LINE
  5
85DE
330
1E
100
AcDbEntity
  8
24
  6
CONTINOUS
100
AcDbLine
 10
94.0
 20
-111.6905989232414
 30
0.0
 11
94.0
 21
-116.3094010767587
 31
0.0
  0
LINE
  5
85DF
330
1E
100
AcDbEntity
  8
24
  6
CONTINOUS
100
AcDbLine
 10
90.0
 20
-118.6188021535169
 30
0.0
 11
86.0
 21
-116.3094010767587
 31
0.0
  0
LINE
  5
85E0
330
1E
100
AcDbEntity
  8
24
  6
CONTINOUS
100
AcDbLine
 10
86.0
 20
-116.3094010767587
 30
0.0
 11
86.0
 21
-111.6905989232414
 31
0.0
  0
LINE
  5
85E1
330
1E
100
AcDbEntity
  8
24
  6
CONTINOUS
100
AcDbLine
 10
86.0
 20
-111.6905989232414
 30
0.0
 11
90.0
 21
-109.3811978464831
 31
0.0
  0
ARC
  5
85E2
330
1E
100
AcDbEntity
  8
10
  6
CONTINUOUS
100
AcDbCircle
 10
-90.0
 20
-113.9999999999999
 30
0.0
 40
5.5
210
0.0
220
0.0
230
-1.0
100
AcDbArc
 50
0.0
 51
180.0
  0
ARC
  5
85E3
330
1E
100
AcDbEntity
  8
10
  6
CONTINUOUS
100
AcDbCircle
 10
-90.0
 20
-113.9999999999999
 30
0.0
 40
8.0
210
0.0
220
0.0
230
-1.0
100
AcDbArc
 50
226.5674634422111
 51
313.4325365577887
  0
LINE
  5
85E4
330
1E
100
AcDbEntity
  8
24
  6
CONTINOUS
100
AcDbLine
 10
94.0
 20
-116.3094010767587
 30
0.0
 11
90.0
 21
-118.6188021535169
 31
0.0
  0
LINE
  5
85E5
330
1E
100
AcDbEntity
  8
24
  6
CONTINOUS
100
AcDbLine
 10
90.0
 20
-109.3811978464831
 30
0.0
 11
94.0
 21
-111.6905989232414
 31
0.0
  0
LINE
  5
85E6
330
1E
100
AcDbEntity
  8
24
  6
CONTINOUS
100
AcDbLine
 10
90.0
 20
-122.9999999999999
 30
0.0
 11
90.0
 21
-104.9999999999996
 31
0.0
  0
CIRCLE
  5
85E7
330
1E
100
AcDbEntity
  8
10
  6
CONTINUOUS
100
AcDbCircle
 10
90.0
 20
86.75000000000002
 30
0.0
 40
8.0
  0
LINE
  5
85E8
330
1E
100
AcDbEntity
  8
10
  6
CONTINUOUS
100
AcDbLine
 10
58.0
 20
40.0
 30
0.0
 11
58.0
 21
-39.99999999999998
 31
0.0
  0
LINE
  5
85E9
330
1E
100
AcDbEntity
  8
10
  6
CONTINUOUS
100
AcDbLine
 10
25.49999999999982
 20
-44.99999999999999
 30
0.0
 11
25.49999999999988
 21
45.0
 31
0.0
  0
LINE
  5
85EA
330
1E
100
AcDbEntity
  8
10
  6
CONTINUOUS
100
AcDbLine
 10
-25.49999999999977
 20
-44.99999999999999
 30
0.0
 11
-25.49999999999988
 21
45.0
 31
0.0
  0
LINE
  5
85EB
330
1E
100
AcDbEntity
  8
10
  6
CONTINUOUS
100
AcDbLine
 10
18.0
 20
-30.99999999999998
 30
0.0
 11
18.00000000000005
 21
31.00000000000001
 31
0.0
  0
LINE
  5
85EC
330
1E
100
AcDbEntity
  8
10
  6
CONTINUOUS
100
AcDbLine
 10
-18.0
 20
-30.99999999999998
 30
0.0
 11
-18.0
 21
31.00000000000001
 31
0.0
  0
LINE
  5
85ED
330
1E
100
AcDbEntity
  8
10
  6
CONTINUOUS
100
AcDbLine
 10
18.0
 20
-30.99999999999998
 30
0.0
 11
-18.0
 21
-30.99999999999998
 31
0.0
  0
LINE
  5
85EE
330
1E
100
AcDbEntity
  8
10
  6
CONTINUOUS
100
AcDbLine
 10
19.0
 20
-33.84999999999989
 30
0.0
 11
24.29999999999994
 21
-33.84999999999989
 31
0.0
  0
LINE
  5
85EF
330
1E
100
AcDbEntity
  8
10
  6
CONTINUOUS
100
AcDbLine
 10
19.0
 20
-40.4499999999999
 30
0.0
 11
24.29999999999994
 21
-40.4499999999999
 31
0.0
  0
LINE
  5
85F0
330
1E
100
AcDbEntity
  8
10
  6
CONTINUOUS
100
AcDbLine
 10
19.0
 20
-33.84999999999989
 30
0.0
 11
19.0
 21
-40.4499999999999
 31
0.0
  0
LINE
  5
85F1
330
1E
100
AcDbEntity
  8
10
  6
CONTINUOUS
100
AcDbLine
 10
24.30000000000005
 20
-33.84999999999989
 30
0.0
 11
24.30000000000005
 21
-40.4499999999999
 31
0.0
  0
ARC
  5
85F2
330
1E
100
AcDbEntity
  8
10
  6
CONTINUOUS
100
AcDbCircle
 10
53.0
 20
-39.99999999999998
 30
0.0
 40
5.0
100
AcDbArc
 50
270.0
 51
0.0
  0
LINE
  5
85FE
330
1E
100
AcDbEntity
  8
10
  6
CONTINUOUS
100
AcDbLine
 10
17.00000000000011
 20
39.33264411704204
 30
0.0
 11
-17.0
 21
39.33264411704204
 31
0.0
  0
LINE
  5
85FF
330
1E
100
AcDbEntity
  8
10
  6
CONTINUOUS
100
AcDbLine
 10
17.00000000000011
 20
28.03853193396584
 30
0.0
 11
-17.0
 21
28.03853193396584
 31
0.0
  0
LINE
  5
8600
330
1E
100
AcDbEntity
  8
10
  6
CONTINUOUS
100
AcDbLine
 10
17.00000000000011
 20
17.03370272535222
 30
0.0
 11
-16.99999999999993
 21
17.03370272535222
 31
0.0
  0
LINE
  5
8601
330
1E
100
AcDbEntity
  8
10
  6
CONTINUOUS
100
AcDbLine
 10
-17.0
 20
17.0337027253521
 30
0.0
 11
-17.0
 21
39.33264411704204
 31
0.0
  0
LINE
  5
8602
330
1E
100
AcDbEntity
  8
10
  6
CONTINUOUS
100
AcDbLine
 10
-17.0
 20
31.00000000000001
 30
0.0
 11
-18.0
 21
31.00000000000001
 31
0.0
  0
LINE
  5
8603
330
1E
100
AcDbEntity
  8
10
  6
CONTINUOUS
100
AcDbLine
 10
17.00000000000005
 20
17.0337027253521
 30
0.0
 11
17.00000000000005
 21
39.33264411704204
 31
0.0
  0
LINE
  5
8604
330
1E
100
AcDbEntity
  8
10
  6
CONTINUOUS
100
AcDbLine
 10
18.0
 20
31.00000000000001
 30
0.0
 11
17.00000000000005
 21
31.00000000000001
 31
0.0
  0
ARC
  5
8605
330
1E
100
AcDbEntity
  8
10
  6
CONTINUOUS
100
AcDbCircle
 10
53.0
 20
40.0
 30
0.0
 40
5.0
100
AcDbArc
 50
0.0
 51
90.0
  0
LINE
  5
8606
330
1E
100
AcDbEntity
  8
10
  6
CONTINUOUS
100
AcDbLine
 10
91.5688579882063
 20
83.63687747286714
 30
0.0
 11
92.28689067148469
 21
84.35491015614571
 31
0.0
  0
LINE
  5
8607
330
1E
100
AcDbEntity
  8
10
  6
CONTINUOUS
100
AcDbLine
 10
92.5
 20
84.9215728752538
 30
0.0
 11
93.49999999999999
 21
85.92157287525379
 31
0.0
  0
LINE
  5
8608
330
1E
100
AcDbEntity
  8
10
  6
CONTINUOUS
100
AcDbLine
 10
92.5
 20
86.33578643762701
 30
0.0
 11
93.49999999999999
 21
87.33578643762703
 31
0.0
  0
LINE
  5
8609
330
1E
100
AcDbEntity
  8
10
  6
CONTINUOUS
100
AcDbLine
 10
92.29676202766311
 20
82.59701455935759
 30
0.0
 11
93.49999999999999
 21
83.80025253169437
 31
0.0
  0
LINE
  5
860A
330
1E
100
AcDbEntity
  8
10
  6
CONTINUOUS
100
AcDbLine
 10
92.5
 20
84.5680194846607
 30
0.0
 11
93.49999999999999
 21
85.5680194846607
 31
0.0
  0
LINE
  5
860B
330
1E
100
AcDbEntity
  8
10
  6
CONTINUOUS
100
AcDbLine
 10
92.5
 20
87.04289321881368
 30
0.0
 11
93.49999999999999
 21
88.04289321881368
 31
0.0
  0
LINE
  5
860C
330
1E
100
AcDbEntity
  8
10
  6
CONTINUOUS
100
AcDbLine
 10
92.5
 20
85.98223304703379
 30
0.0
 11
93.49999999999999
 21
86.98223304703381
 31
0.0
  0
LINE
  5
860D
330
1E
100
AcDbEntity
  8
10
  6
CONTINUOUS
100
AcDbLine
 10
90.69537314085836
 20
84.88471296907848
 30
0.0
 11
91.4134058241367
 21
85.60274565235683
 31
0.0
  0
LINE
  5
860E
330
1E
100
AcDbEntity
  8
10
  6
CONTINUOUS
100
AcDbLine
 10
92.5
 20
91.2855339059322
 30
0.0
 11
92.96446609406755
 21
91.75000000000002
 31
0.0
  0
LINE
  5
860F
330
1E
100
AcDbEntity
  8
10
  6
CONTINUOUS
100
AcDbLine
 10
92.5
 20
90.57842712474601
 30
0.0
 11
93.49999999999999
 21
91.578427124746
 31
0.0
  0
LINE
  5
8610
330
1E
100
AcDbEntity
  8
10
  6
CONTINUOUS
100
AcDbLine
 10
92.5
 20
89.87132034355942
 30
0.0
 11
93.49999999999999
 21
90.8713203435593
 31
0.0
  0
LINE
  5
8611
330
1E
100
AcDbEntity
  8
10
  6
CONTINUOUS
100
AcDbLine
 10
92.5
 20
90.93198051533907
 30
0.0
 11
93.31801948466068
 21
91.75000000000002
 31
0.0
  0
LINE
  5
8612
330
1E
100
AcDbEntity
  8
10
  6
CONTINUOUS
100
AcDbLine
 10
90.40421152507551
 20
85.30065813448233
 30
0.0
 11
91.12224420835413
 21
86.01869081776071
 31
0.0
  0
LINE
  5
8613
330
1E
100
AcDbEntity
  8
10
  6
CONTINUOUS
100
AcDbLine
 10
90.84095394874964
 20
84.67674038637666
 30
0.0
 11
91.5589866320281
 21
85.39477306965501
 31
0.0
  0
LINE
  5
8614
330
1E
100
AcDbEntity
  8
10
  6
CONTINUOUS
100
AcDbLine
 10
91.71443879609773
 20
83.4289048901653
 30
0.0
 11
92.43247147937609
 21
84.14693757344378
 31
0.0
  0
LINE
  5
8615
330
1E
100
AcDbEntity
  8
10
  6
CONTINUOUS
100
AcDbLine
 10
92.5
 20
91.63908729652575
 30
0.0
 11
92.61091270347435
 21
91.75000000000002
 31
0.0
  0
LINE
  5
8616
330
1E
100
AcDbEntity
  8
10
  6
CONTINUOUS
100
AcDbLine
 10
92.15118121977171
 20
82.80498714205945
 30
0.0
 11
93.49999999999999
 21
84.15380592228782
 31
0.0
  0
LINE
  5
8617
330
1E
100
AcDbEntity
  8
10
  6
CONTINUOUS
100
AcDbLine
 10
92.5
 20
86.68933982822009
 30
0.0
 11
93.49999999999999
 21
87.6893398282201
 31
0.0
  0
LINE
  5
8618
330
1E
100
AcDbEntity
  8
10
  6
CONTINUOUS
100
AcDbLine
 10
92.5
 20
91.75000000000002
 30
0.0
 11
93.49999999999999
 21
91.75000000000002
 31
0.0
  0
LINE
  5
8619
330
1E
100
AcDbEntity
  8
10
  6
CONTINUOUS
100
AcDbLine
 10
90.98653475664093
 20
84.46876780367473
 30
0.0
 11
91.70456743991929
 21
85.18680048695321
 31
0.0
  0
LINE
  5
861A
330
1E
100
AcDbEntity
  8
10
  6
CONTINUOUS
100
AcDbLine
 10
92.00560041188044
 20
83.01295972476159
 30
0.0
 11
93.49999999999999
 21
84.50735931288091
 31
0.0
  0
LINE
  5
861B
330
1E
100
AcDbEntity
  8
10
  6
CONTINUOUS
100
AcDbLine
 10
92.5
 20
85.27512626584714
 30
0.0
 11
93.49999999999999
 21
86.27512626584715
 31
0.0
  0
LINE
  5
861C
330
1E
100
AcDbEntity
  8
10
  6
CONTINUOUS
100
AcDbLine
 10
92.5
 20
88.81066017177991
 30
0.0
 11
93.49999999999999
 21
89.8106601717799
 31
0.0
  0
LINE
  5
861D
330
1E
100
AcDbEntity
  8
10
  6
CONTINUOUS
100
AcDbLine
 10
92.5
 20
89.5177669529662
 30
0.0
 11
93.49999999999999
 21
90.51776695296622
 31
0.0
  0
LINE
  5
861E
330
1E
100
AcDbEntity
  8
10
  6
CONTINUOUS
100
AcDbLine
 10
91.42327718031515
 20
83.84485005556873
 30
0.0
 11
92.14130986359341
 21
84.56288273884753
 31
0.0
  0
LINE
  5
861F
330
1E
100
AcDbEntity
  8
10
  6
CONTINUOUS
100
AcDbLine
 10
92.5
 20
87.75000000000002
 30
0.0
 11
93.49999999999999
 21
88.75000000000001
 31
0.0
  0
LINE
  5
8620
330
1E
100
AcDbEntity
  8
10
  6
CONTINUOUS
100
AcDbLine
 10
92.5
 20
89.16421356237277
 30
0.0
 11
93.49999999999999
 21
90.16421356237279
 31
0.0
  0
LINE
  5
8621
330
1E
100
AcDbEntity
  8
10
  6
CONTINUOUS
100
AcDbLine
 10
90.11304990929295
 20
85.71660329988619
 30
0.0
 11
90.83108259257143
 21
86.43463598316431
 31
0.0
  0
LINE
  5
8622
330
1E
100
AcDbEntity
  8
10
  6
CONTINUOUS
100
AcDbLine
 10
92.5
 20
84.21446609406759
 30
0.0
 11
93.49999999999999
 21
85.21446609406757
 31
0.0
  0
LINE
  5
8623
330
1E
100
AcDbEntity
  8
10
  6
CONTINUOUS
100
AcDbLine
 10
92.5
 20
84.05046825826651
 30
0.0
 11
92.5
 21
91.75000000000002
 31
0.0
  0
LINE
  5
8624
330
1E
100
AcDbEntity
  8
10
  6
CONTINUOUS
100
AcDbLine
 10
91.27769637242376
 20
84.05282263827087
 30
0.0
 11
91.99572905570198
 21
84.77085532154923
 31
0.0
  0
LINE
  5
8625
330
1E
100
AcDbEntity
  8
10
  6
CONTINUOUS
100
AcDbLine
 10
92.5
 20
87.3964466094069
 30
0.0
 11
93.49999999999999
 21
88.3964466094069
 31
0.0
  0
LINE
  5
8626
330
1E
100
AcDbEntity
  8
10
  6
CONTINUOUS
100
AcDbLine
 10
90.25863071718424
 20
85.50863071718472
 30
0.0
 11
90.97666340046279
 21
86.22666340046285
 31
0.0
  0
LINE
  5
8627
330
1E
100
AcDbEntity
  8
10
  6
CONTINUOUS
100
AcDbLine
 10
92.5
 20
85.62867965644072
 30
0.0
 11
93.49999999999999
 21
86.62867965644069
 31
0.0
  0
LINE
  5
8628
330
1E
100
AcDbEntity
  8
10
  6
CONTINUOUS
100
AcDbLine
 10
92.5
 20
88.10355339059311
 30
0.0
 11
93.49999999999999
 21
89.10355339059313
 31
0.0
  0
LINE
  5
8629
330
1E
100
AcDbEntity
  8
10
  6
CONTINUOUS
100
AcDbLine
 10
92.5
 20
90.22487373415279
 30
0.0
 11
93.49999999999999
 21
91.22487373415278
 31
0.0
  0
LINE
  5
862A
330
1E
100
AcDbEntity
  8
10
  6
CONTINUOUS
100
AcDbLine
 10
90.54979233296696
 20
85.0926855517803
 30
0.0
 11
91.26782501624539
 21
85.81071823505878
 31
0.0
  0
LINE
  5
862B
330
1E
100
AcDbEntity
  8
10
  6
CONTINUOUS
100
AcDbLine
 10
91.13211556453235
 20
84.2607952209728
 30
0.0
 11
91.85014824781092
 21
84.97882790425116
 31
0.0
  0
LINE
  5
862C
330
1E
100
AcDbEntity
  8
10
  6
CONTINUOUS
100
AcDbLine
 10
92.5
 20
88.45710678118646
 30
0.0
 11
93.49999999999999
 21
89.45710678118645
 31
0.0
  0
LINE
  5
862D
330
1E
100
AcDbEntity
  8
10
  6
CONTINUOUS
100
AcDbLine
 10
91.86001960398902
 20
83.22093230746316
 30
0.0
 11
93.49999999999999
 21
84.86091270347435
 31
0.0
  0
LINE
  5
862E
330
1E
100
AcDbEntity
  8
10
  6
CONTINUOUS
100
AcDbLine
 10
89.23956506194498
 20
86.96443879609764
 30
0.0
 11
89.95759774522332
 21
87.68247147937598
 31
0.0
  0
LINE
  5
862F
330
1E
100
AcDbEntity
  8
10
  6
CONTINUOUS
100
AcDbLine
 10
86.5
 20
88.82106781186498
 30
0.0
 11
88.06504724263607
 21
90.38611505450084
 31
0.0
  0
LINE
  5
8630
330
1E
100
AcDbEntity
  8
10
  6
CONTINUOUS
100
AcDbLine
 10
86.5
 20
85.28553390593222
 30
0.0
 11
87.5
 21
86.2855339059322
 31
0.0
  0
LINE
  5
8631
330
1E
100
AcDbEntity
  8
10
  6
CONTINUOUS
100
AcDbLine
 10
87.92933779092289
 20
88.83619204041499
 30
0.0
 11
88.64737047420133
 21
89.55422472369333
 31
0.0
  0
LINE
  5
8632
330
1E
100
AcDbEntity
  8
10
  6
CONTINUOUS
100
AcDbLine
 10
86.5
 20
88.11396103067831
 30
0.0
 11
87.5
 21
89.11396103067831
 31
0.0
  0
LINE
  5
8633
330
1E
100
AcDbEntity
  8
10
  6
CONTINUOUS
100
AcDbLine
 10
87.6381761751403
 20
89.2521372058187
 30
0.0
 11
88.35620885841866
 21
89.97016988909718
 31
0.0
  0
LINE
  5
8634
330
1E
100
AcDbEntity
  8
10
  6
CONTINUOUS
100
AcDbLine
 10
86.5
 20
83.87132034355934
 30
0.0
 11
87.5
 21
84.87132034355933
 31
0.0
  0
LINE
  5
8635
330
1E
100
AcDbEntity
  8
10
  6
CONTINUOUS
100
AcDbLine
 10
89.09398425405369
 20
87.17241137879968
 30
0.0
 11
89.81201693733202
 21
87.89044406207779
 31
0.0
  0
LINE
  5
8636
330
1E
100
AcDbEntity
  8
10
  6
CONTINUOUS
100
AcDbLine
 10
86.5
 20
87.7604076400852
 30
0.0
 11
87.5
 21
88.7604076400852
 31
0.0
  0
LINE
  5
8637
330
1E
100
AcDbEntity
  8
10
  6
CONTINUOUS
100
AcDbLine
 10
86.5
 20
87.05330085889853
 30
0.0
 11
87.5
 21
88.05330085889854
 31
0.0
  0
LINE
  5
8638
330
1E
100
AcDbEntity
  8
10
  6
CONTINUOUS
100
AcDbLine
 10
86.5
 20
88.46751442127153
 30
0.0
 11
88.21062805052736
 21
90.17814247179911
 31
0.0
  0
LINE
  5
8639
330
1E
100
AcDbEntity
  8
10
  6
CONTINUOUS
100
AcDbLine
 10
86.5
 20
86.69974746830543
 30
0.0
 11
87.5
 21
87.69974746830543
 31
0.0
  0
LINE
  5
863A
330
1E
100
AcDbEntity
  8
10
  6
CONTINUOUS
100
AcDbLine
 10
86.5
 20
89.17462120245831
 30
0.0
 11
87.91946643474465
 21
90.59408763720286
 31
0.0
  0
LINE
  5
863B
330
1E
100
AcDbEntity
  8
10
  6
CONTINUOUS
100
AcDbLine
 10
86.5
 20
82.45710678118646
 30
0.0
 11
87.5
 21
83.45710678118646
 31
0.0
  0
LINE
  5
863C
330
1E
100
AcDbEntity
  8
10
  6
CONTINUOUS
100
AcDbLine
 10
87.78375698303159
 20
89.04416462311679
 30
0.0
 11
88.50178966631006
 21
89.76219730639538
 31
0.0
  0
LINE
  5
863D
330
1E
100
AcDbEntity
  8
10
  6
CONTINUOUS
100
AcDbLine
 10
86.5
 20
90.23528137423808
 30
0.0
 11
87.48272401107067
 21
91.2180053853083
 31
0.0
  0
LINE
  5
863E
330
1E
100
AcDbEntity
  8
10
  6
CONTINUOUS
100
AcDbLine
 10
88.36608021459687
 20
88.2122742923093
 30
0.0
 11
89.08411289787535
 21
88.93030697558767
 31
0.0
  0
LINE
  5
863F
330
1E
100
AcDbEntity
  8
10
  6
CONTINUOUS
100
AcDbLine
 10
86.5
 20
82.81066017177989
 30
0.0
 11
87.5
 21
83.81066017177991
 31
0.0
  0
LINE
  5
8640
330
1E
100
AcDbEntity
  8
10
  6
CONTINUOUS
100
AcDbLine
 10
86.5
 20
90.58883476483121
 30
0.0
 11
87.33714320317927
 21
91.42597796801034
 31
0.0
  0
LINE
  5
8641
330
1E
100
AcDbEntity
  8
10
  6
CONTINUOUS
100
AcDbLine
 10
86.5
 20
86.34619407771221
 30
0.0
 11
87.5
 21
87.34619407771221
 31
0.0
  0
LINE
  5
8642
330
1E
100
AcDbEntity
  8
10
  6
CONTINUOUS
100
AcDbLine
 10
88.51166102248829
 20
88.00430170960716
 30
0.0
 11
89.22969370576664
 21
88.72233439288562
 31
0.0
  0
LINE
  5
8643
330
1E
100
AcDbEntity
  8
10
  6
CONTINUOUS
100
AcDbLine
 10
86.5
 20
83.16421356237276
 30
0.0
 11
87.5
 21
84.16421356237277
 31
0.0
  0
LINE
  5
8644
330
1E
100
AcDbEntity
  8
10
  6
CONTINUOUS
100
AcDbLine
 10
88.80282263827098
 20
87.58835654420343
 30
0.0
 11
89.52085532154944
 21
88.30638922748176
 31
0.0
  0
LINE
  5
8645
330
1E
100
AcDbEntity
  8
10
  6
CONTINUOUS
100
AcDbLine
 10
86.5
 20
87.40685424949196
 30
0.0
 11
87.5
 21
88.40685424949198
 31
0.0
  0
LINE
  5
8646
330
1E
100
AcDbEntity
  8
10
  6
CONTINUOUS
100
AcDbLine
 10
88.65724183037958
 20
87.79632912690512
 30
0.0
 11
89.37527451365804
 21
88.51436181018392
 31
0.0
  0
LINE
  5
8647
330
1E
100
AcDbEntity
  8
10
  6
CONTINUOUS
100
AcDbLine
 10
86.5
 20
90.94238815542452
 30
0.0
 11
87.19156239528798
 21
91.63395055071241
 31
0.0
  0
LINE
  5
8648
330
1E
100
AcDbEntity
  8
10
  6
CONTINUOUS
100
AcDbLine
 10
86.5
 20
84.57842712474599
 30
0.0
 11
87.5
 21
85.57842712474601
 31
0.0
  0
LINE
  5
8649
330
1E
100
AcDbEntity
  8
10
  6
CONTINUOUS
100
AcDbLine
 10
86.5
 20
91.75000000000002
 30
0.0
 11
87.11032778078665
 21
91.75000000000002
 31
0.0
  0
LINE
  5
864A
330
1E
100
AcDbEntity
  8
10
  6
CONTINUOUS
100
AcDbLine
 10
86.5
 20
84.93198051533909
 30
0.0
 11
87.5
 21
85.93198051533907
 31
0.0
  0
LINE
  5
864B
330
1E
100
AcDbEntity
  8
10
  6
CONTINUOUS
100
AcDbLine
 10
86.5
 20
89.88172798364464
 30
0.0
 11
87.62830481896195
 21
91.01003280260682
 31
0.0
  0
LINE
  5
864C
330
1E
100
AcDbEntity
  8
10
  6
CONTINUOUS
100
AcDbLine
 10
86.5
 20
89.52817459305142
 30
0.0
 11
87.77388562685326
 21
90.80206021990468
 31
0.0
  0
LINE
  5
864D
330
1E
100
AcDbEntity
  8
10
  6
CONTINUOUS
100
AcDbLine
 10
86.5
 20
85.63908729652576
 30
0.0
 11
87.5
 21
86.63908729652574
 31
0.0
  0
LINE
  5
864E
330
1E
100
AcDbEntity
  8
10
  6
CONTINUOUS
100
AcDbLine
 10
86.5
 20
84.22487373415277
 30
0.0
 11
87.5
 21
85.22487373415279
 31
0.0
  0
LINE
  5
864F
330
1E
100
AcDbEntity
  8
10
  6
CONTINUOUS
100
AcDbLine
 10
88.07491859881428
 20
88.62821945771271
 30
0.0
 11
88.79295128209276
 21
89.3462521409914
 31
0.0
  0
LINE
  5
8650
330
1E
100
AcDbEntity
  8
10
  6
CONTINUOUS
100
AcDbLine
 10
86.5
 20
91.64949493661074
 30
0.0
 11
86.60050506338905
 21
91.75000000000002
 31
0.0
  0
LINE
  5
8651
330
1E
100
AcDbEntity
  8
10
  6
CONTINUOUS
100
AcDbLine
 10
88.94840344616225
 20
87.38038396150169
 30
0.0
 11
89.66643612944073
 21
88.09841664478005
 31
0.0
  0
LINE
  5
8652
330
1E
100
AcDbEntity
  8
10
  6
CONTINUOUS
100
AcDbLine
 10
86.5
 20
83.51776695296623
 30
0.0
 11
87.5
 21
84.51776695296622
 31
0.0
  0
LINE
  5
8653
330
1E
100
AcDbEntity
  8
10
  6
CONTINUOUS
100
AcDbLine
 10
86.5
 20
85.9926406871191
 30
0.0
 11
87.5
 21
86.9926406871191
 31
0.0
  0
LINE
  5
8654
330
1E
100
AcDbEntity
  8
10
  6
CONTINUOUS
100
AcDbLine
 10
88.22049940670558
 20
88.42024687501123
 30
0.0
 11
88.93853208998406
 21
89.13827955828958
 31
0.0
  0
LINE
  5
8655
330
1E
100
AcDbEntity
  8
10
  6
CONTINUOUS
100
AcDbLine
 10
86.5
 20
91.29594154601765
 30
0.0
 11
86.95405845398239
 21
91.75000000000002
 31
0.0
  0
LINE
  5
8656
330
1E
100
AcDbEntity
  8
10
  6
CONTINUOUS
100
AcDbLine
 10
89.96746910140165
 20
85.92457588258803
 30
0.0
 11
90.68550178468012
 21
86.64260856586658
 31
0.0
  0
LINE
  5
8657
330
1E
100
AcDbEntity
  8
10
  6
CONTINUOUS
100
AcDbLine
 10
87.11032778078665
 20
91.75000000000002
 30
0.0
 11
92.5
 21
84.05046825826651
 31
0.0
  0
LINE
  5
8658
330
1E
100
AcDbEntity
  8
10
  6
CONTINUOUS
100
AcDbLine
 10
89.82188829351036
 20
86.13254846528993
 30
0.0
 11
90.5399209767887
 21
86.85058114856849
 31
0.0
  0
LINE
  5
8659
330
1E
100
AcDbEntity
  8
10
  6
CONTINUOUS
100
AcDbLine
 10
89.53072667772769
 20
86.54849363069391
 30
0.0
 11
90.24875936100611
 21
87.26652631397213
 31
0.0
  0
LINE
  5
865A
330
1E
100
AcDbEntity
  8
10
  6
CONTINUOUS
100
AcDbLine
 10
89.67630748561907
 20
86.34052104799195
 30
0.0
 11
90.39434016889757
 21
87.05855373127031
 31
0.0
  0
LINE
  5
865B
330
1E
100
AcDbEntity
  8
10
  6
CONTINUOUS
100
AcDbLine
 10
89.38514586983627
 20
86.75646621339559
 30
0.0
 11
90.10317855311472
 21
87.47449889667404
 31
0.0
  0
LINE
  5
865C
330
1E
100
AcDbEntity
  8
10
  6
CONTINUOUS
100
AcDbLine
 10
93.49999999999999
 20
81.75000000000002
 30
0.0
 11
92.88967221921335
 21
81.75000000000002
 31
0.0
  0
LINE
  5
865D
330
1E
100
AcDbEntity
  8
10
  6
CONTINUOUS
100
AcDbLine
 10
93.21751442127174
 20
81.75000000000002
 30
0.0
 11
93.49999999999999
 21
82.03248557872827
 31
0.0
  0
LINE
  5
865E
330
1E
100
AcDbEntity
  8
10
  6
CONTINUOUS
100
AcDbLine
 10
92.86396103067852
 20
81.75000000000002
 30
0.0
 11
93.49999999999999
 21
82.38603896932159
 31
0.0
  0
LINE
  5
865F
330
1E
100
AcDbEntity
  8
10
  6
CONTINUOUS
100
AcDbLine
 10
86.5
 20
81.75000000000002
 30
0.0
 11
87.5
 21
81.75000000000002
 31
0.0
  0
LINE
  5
8660
330
1E
100
AcDbEntity
  8
10
  6
CONTINUOUS
100
AcDbLine
 10
87.20710678118654
 20
81.75000000000002
 30
0.0
 11
87.5
 21
82.04289321881368
 31
0.0
  0
LINE
  5
8661
330
1E
100
AcDbEntity
  8
10
  6
CONTINUOUS
100
AcDbLine
 10
86.85355339059332
 20
81.75000000000002
 30
0.0
 11
87.5
 21
82.3964466094068
 31
0.0
  0
LINE
  5
8662
330
1E
100
AcDbEntity
  8
10
  6
CONTINUOUS
100
AcDbLine
 10
87.5
 20
89.44953174173328
 30
0.0
 11
87.5
 21
81.75000000000002
 31
0.0
  0
LINE
  5
8663
330
1E
100
AcDbEntity
  8
10
  6
CONTINUOUS
100
AcDbLine
 10
86.5
 20
82.10355339059313
 30
0.0
 11
87.5
 21
83.10355339059311
 31
0.0
  0
LINE
  5
8664
330
1E
100
AcDbEntity
  8
10
  6
CONTINUOUS
100
AcDbLine
 10
87.5
 20
89.44953174173328
 30
0.0
 11
92.88967221921335
 21
81.75000000000002
 31
0.0
  0
LINE
  5
8665
330
1E
100
AcDbEntity
  8
10
  6
CONTINUOUS
100
AcDbLine
 10
92.58792364344571
 20
82.18106939395376
 30
0.0
 11
93.49999999999999
 21
83.09314575050803
 31
0.0
  0
LINE
  5
8666
330
1E
100
AcDbEntity
  8
10
  6
CONTINUOUS
100
AcDbLine
 10
86.5
 20
81.75000000000002
 30
0.0
 11
86.5
 21
91.75000000000002
 31
0.0
  0
LINE
  5
8667
330
1E
100
AcDbEntity
  8
10
  6
CONTINUOUS
100
AcDbLine
 10
93.49999999999999
 20
81.75000000000002
 30
0.0
 11
93.49999999999999
 21
91.75000000000002
 31
0.0
  0
LINE
  5
8668
330
1E
100
AcDbEntity
  8
10
  6
CONTINUOUS
100
AcDbLine
 10
92.73350445133713
 20
81.97309681125195
 30
0.0
 11
93.49999999999999
 21
82.73959235991481
 31
0.0
  0
LINE
  5
8669
330
1E
100
AcDbEntity
  8
10
  6
CONTINUOUS
100
AcDbLine
 10
86.5
 20
81.75000000000002
 30
0.0
 11
87.5
 21
82.75000000000002
 31
0.0
  0
LINE
  5
866A
330
1E
100
AcDbEntity
  8
10
  6
CONTINUOUS
100
AcDbLine
 10
92.44234283555442
 20
82.38904197665569
 30
0.0
 11
93.49999999999999
 21
83.44669914110125
 31
0.0
  0
LINE
  5
8672
330
1E
100
AcDbEntity
  8
18
100
AcDbLine
 10
-20.5
 20
130.0
 30
0.0
 11
-20.5
 21
239.9999999999999
 31
0.0
  0
LINE
  5
8673
330
1E
100
AcDbEntity
  8
18
100
AcDbLine
 10
20.5
 20
130.0
 30
0.0
 11
20.5
 21
239.9999999999999
 31
0.0
  0
LINE
  5
8674
330
1E
100
AcDbEntity
  8
18
100
AcDbLine
 10
24.5
 20
130.0
 30
0.0
 11
24.5
 21
239.9999999999999
 31
0.0
  0
LINE
  5
8675
330
1E
100
AcDbEntity
  8
18
100
AcDbLine
 10
-24.5
 20
130.0
 30
0.0
 11
-24.5
 21
239.9999999999999
 31
0.0
  0
LINE
  5
8678
330
1E
100
AcDbEntity
  8
12
  6
DASHED
100
AcDbLine
 10
-14.50000000000001
 20
107.0
 30
0.0
 11
-30.50000000000001
 21
107.0
 31
0.0
  0
LINE
  5
8679
330
1E
100
AcDbEntity
  8
12
  6
DASHED
100
AcDbLine
 10
-22.50000000000001
 20
99.0
 30
0.0
 11
-22.50000000000001
 21
115.0
 31
0.0
  0
CIRCLE
  5
867A
330
1E
100
AcDbEntity
  8
12
  6
DASHED
100
AcDbCircle
 10
-22.50000000000001
 20
107.0
 30
0.0
 40
4.0
  0
LINE
  5
867B
330
1E
100
AcDbEntity
  8
24
  6
CONTINOUS
100
AcDbLine
 10
3.999999999999986
 20
111.6905989232414
 30
0.0
 11
3.999999999999986
 21
116.3094010767587
 31
0.0
  0
LINE
  5
867C
330
1E
100
AcDbEntity
  8
24
  6
CONTINOUS
100
AcDbLine
 10
-0.0000000000000129
 20
123.0
 30
0.0
 11
-0.0000000000000111
 21
105.0
 31
0.0
  0
LINE
  5
867D
330
1E
100
AcDbEntity
  8
24
  6
CONTINOUS
100
AcDbLine
 10
-4.000000000000011
 20
116.3094010767587
 30
0.0
 11
-4.000000000000011
 21
111.6905989232414
 31
0.0
  0
ARC
  5
867E
330
1E
100
AcDbEntity
  8
10
  6
CONTINUOUS
100
AcDbCircle
 10
0.000000000000012
 20
114.0
 30
0.0
 40
5.5
210
0.0
220
0.0
230
-1.0
100
AcDbArc
 50
180.0
 51
0.0
  0
LINE
  5
867F
330
1E
100
AcDbEntity
  8
24
  6
CONTINOUS
100
AcDbLine
 10
-4.000000000000011
 20
111.6905989232414
 30
0.0
 11
-0.0000000000000115
 21
109.3811978464831
 31
0.0
  0
LINE
  5
8680
330
1E
100
AcDbEntity
  8
24
  6
CONTINOUS
100
AcDbLine
 10
-0.0000000000000115
 20
109.3811978464831
 30
0.0
 11
3.999999999999986
 21
111.6905989232414
 31
0.0
  0
LINE
  5
8681
330
1E
100
AcDbEntity
  8
24
  6
CONTINOUS
100
AcDbLine
 10
-0.0000000000000125
 20
118.6188021535169
 30
0.0
 11
-4.000000000000011
 21
116.3094010767587
 31
0.0
  0
LINE
  5
8682
330
1E
100
AcDbEntity
  8
24
  6
CONTINOUS
100
AcDbLine
 10
-8.999999999999953
 20
114.0
 30
0.0
 11
8.999999999999987
 21
114.0
 31
0.0
  0
ARC
  5
8683
330
1E
100
AcDbEntity
  8
10
  6
CONTINUOUS
100
AcDbCircle
 10
0.000000000000012
 20
114.0
 30
0.0
 40
8.0
210
0.0
220
0.0
230
-1.0
100
AcDbArc
 50
46.5674634422112
 51
133.4325365577887
  0
LINE
  5
8684
330
1E
100
AcDbEntity
  8
10
  6
CONTINUOUS
100
AcDbLine
 10
-5.500000000000011
 20
114.0
 30
0.0
 11
-5.500000000000013
 21
130.0
 31
0.0
  0
LINE
  5
8685
330
1E
100
AcDbEntity
  8
10
  6
CONTINUOUS
100
AcDbLine
 10
5.499999999999986
 20
114.0
 30
0.0
 11
5.499999999999986
 21
130.0
 31
0.0
  0
LINE
  5
8686
330
1E
100
AcDbEntity
  8
24
  6
CONTINOUS
100
AcDbLine
 10
3.999999999999986
 20
116.3094010767587
 30
0.0
 11
-0.0000000000000125
 21
118.6188021535169
 31
0.0
  0
LINE
  5
868B
330
1E
100
AcDbEntity
  8
12
  6
DASHED
100
AcDbLine
 10
22.49999999999999
 20
99.0
 30
0.0
 11
22.49999999999999
 21
115.0
 31
0.0
  0
CIRCLE
  5
868C
330
1E
100
AcDbEntity
  8
12
  6
DASHED
100
AcDbCircle
 10
22.49999999999999
 20
107.0
 30
0.0
 40
4.0
  0
LINE
  5
868D
330
1E
100
AcDbEntity
  8
12
  6
DASHED
100
AcDbLine
 10
30.49999999999998
 20
107.0
 30
0.0
 11
14.49999999999999
 21
107.0
 31
0.0
  0
ARC
  5
868E
330
1E
100
AcDbEntity
  8
10
  6
CONTINUOUS
100
AcDbCircle
 10
-44.99999999999999
 20
114.0
 30
0.0
 40
5.5
210
0.0
220
0.0
230
-1.0
100
AcDbArc
 50
180.0
 51
0.0
  0
LINE
  5
868F
330
1E
100
AcDbEntity
  8
24
  6
CONTINOUS
100
AcDbLine
 10
40.99999999999996
 20
116.3094010767587
 30
0.0
 11
40.99999999999996
 21
111.6905989232414
 31
0.0
  0
LINE
  5
8690
330
1E
100
AcDbEntity
  8
24
  6
CONTINOUS
100
AcDbLine
 10
44.99999999999999
 20
123.0
 30
0.0
 11
44.99999999999999
 21
105.0
 31
0.0
  0
LINE
  5
8691
330
1E
100
AcDbEntity
  8
24
  6
CONTINOUS
100
AcDbLine
 10
48.99999999999998
 20
111.6905989232414
 30
0.0
 11
48.99999999999998
 21
116.3094010767587
 31
0.0
  0
LINE
  5
8692
330
1E
100
AcDbEntity
  8
24
  6
CONTINOUS
100
AcDbLine
 10
44.99999999999999
 20
109.3811978464831
 30
0.0
 11
48.99999999999998
 21
111.6905989232414
 31
0.0
  0
LINE
  5
8693
330
1E
100
AcDbEntity
  8
24
  6
CONTINOUS
100
AcDbLine
 10
40.99999999999996
 20
111.6905989232414
 30
0.0
 11
44.99999999999999
 21
109.3811978464831
 31
0.0
  0
LINE
  5
8694
330
1E
100
AcDbEntity
  8
24
  6
CONTINOUS
100
AcDbLine
 10
36.00000000000003
 20
114.0
 30
0.0
 11
53.99999999999998
 21
114.0
 31
0.0
  0
LINE
  5
8695
330
1E
100
AcDbEntity
  8
24
  6
CONTINOUS
100
AcDbLine
 10
48.99999999999998
 20
116.3094010767587
 30
0.0
 11
44.99999999999999
 21
118.6188021535169
 31
0.0
  0
ARC
  5
8696
330
1E
100
AcDbEntity
  8
10
  6
CONTINUOUS
100
AcDbCircle
 10
-44.99999999999999
 20
114.0
 30
0.0
 40
8.0
210
0.0
220
0.0
230
-1.0
100
AcDbArc
 50
46.5674634422112
 51
133.4325365577887
  0
LINE
  5
8697
330
1E
100
AcDbEntity
  8
24
  6
CONTINOUS
100
AcDbLine
 10
44.99999999999999
 20
118.6188021535169
 30
0.0
 11
40.99999999999996
 21
116.3094010767587
 31
0.0
  0
LINE
  5
8698
330
1E
100
AcDbEntity
  8
10
  6
CONTINUOUS
100
AcDbLine
 10
39.49999999999996
 20
114.0
 30
0.0
 11
39.49999999999996
 21
130.0
 31
0.0
  0
LINE
  5
8699
330
1E
100
AcDbEntity
  8
10
  6
CONTINUOUS
100
AcDbLine
 10
50.49999999999998
 20
114.0
 30
0.0
 11
50.49999999999998
 21
130.0
 31
0.0
  0
LINE
  5
869C
330
1E
100
AcDbEntity
  8
18
100
AcDbLine
 10
-24.5
 20
239.9999999999999
 30
0.0
 11
-20.5
 21
239.9999999999999
 31
0.0
  0
LINE
  5
869D
330
1E
100
AcDbEntity
  8
18
100
AcDbLine
 10
20.5
 20
239.9999999999999
 30
0.0
 11
24.5
 21
239.9999999999999
 31
0.0
  0
LINE
  5
86A1
330
1E
100
AcDbEntity
  8
18
100
AcDbLine
 10
65.5
 20
130.0
 30
0.0
 11
65.5
 21
239.9999999999999
 31
0.0
  0
LINE
  5
86A2
330
1E
100
AcDbEntity
  8
18
100
AcDbLine
 10
69.5
 20
130.0
 30
0.0
 11
69.5
 21
239.9999999999999
 31
0.0
  0
LINE
  5
86A7
330
1E
100
AcDbEntity
  8
24
  6
CONTINOUS
100
AcDbLine
 10
81.0000000000001
 20
114.0
 30
0.0
 11
98.99999999999998
 21
114.0
 31
0.0
  0
ARC
  5
86A8
330
1E
100
AcDbEntity
  8
10
  6
CONTINUOUS
100
AcDbCircle
 10
-89.99999999999998
 20
114.0
 30
0.0
 40
5.5
210
0.0
220
0.0
230
-1.0
100
AcDbArc
 50
180.0
 51
0.0
  0
LINE
  5
86A9
330
1E
100
AcDbEntity
  8
24
  6
CONTINOUS
100
AcDbLine
 10
89.99999999999998
 20
123.0
 30
0.0
 11
89.99999999999998
 21
105.0
 31
0.0
  0
LINE
  5
86AA
330
1E
100
AcDbEntity
  8
24
  6
CONTINOUS
100
AcDbLine
 10
85.99999999999999
 20
116.3094010767587
 30
0.0
 11
85.99999999999999
 21
111.6905989232414
 31
0.0
  0
LINE
  5
86AB
330
1E
100
AcDbEntity
  8
24
  6
CONTINOUS
100
AcDbLine
 10
93.99999999999998
 20
111.6905989232414
 30
0.0
 11
93.99999999999998
 21
116.3094010767587
 31
0.0
  0
LINE
  5
86AC
330
1E
100
AcDbEntity
  8
24
  6
CONTINOUS
100
AcDbLine
 10
85.99999999999999
 20
111.6905989232414
 30
0.0
 11
89.99999999999998
 21
109.3811978464831
 31
0.0
  0
LINE
  5
86AD
330
1E
100
AcDbEntity
  8
24
  6
CONTINOUS
100
AcDbLine
 10
89.99999999999998
 20
109.3811978464831
 30
0.0
 11
93.99999999999998
 21
111.6905989232414
 31
0.0
  0
LINE
  5
86AE
330
1E
100
AcDbEntity
  8
24
  6
CONTINOUS
100
AcDbLine
 10
89.99999999999998
 20
118.6188021535169
 30
0.0
 11
85.99999999999999
 21
116.3094010767587
 31
0.0
  0
LINE
  5
86AF
330
1E
100
AcDbEntity
  8
24
  6
CONTINOUS
100
AcDbLine
 10
93.99999999999998
 20
116.3094010767587
 30
0.0
 11
89.99999999999998
 21
118.6188021535169
 31
0.0
  0
ARC
  5
86B0
330
1E
100
AcDbEntity
  8
10
  6
CONTINUOUS
100
AcDbCircle
 10
-89.99999999999998
 20
114.0
 30
0.0
 40
8.0
210
0.0
220
0.0
230
-1.0
100
AcDbArc
 50
46.5674634422112
 51
133.4325365577887
  0
LINE
  5
86B1
330
1E
100
AcDbEntity
  8
10
  6
CONTINUOUS
100
AcDbLine
 10
95.49999999999998
 20
114.0
 30
0.0
 11
95.49999999999998
 21
130.0
 31
0.0
  0
LINE
  5
86B2
330
1E
100
AcDbEntity
  8
10
  6
CONTINUOUS
100
AcDbLine
 10
84.49999999999999
 20
114.0
 30
0.0
 11
84.49999999999999
 21
130.0
 31
0.0
  0
LINE
  5
86B5
330
1E
100
AcDbEntity
  8
18
100
AcDbLine
 10
65.5
 20
239.9999999999999
 30
0.0
 11
69.5
 21
239.9999999999999
 31
0.0
  0
LINE
  5
8806
330
1E
100
AcDbEntity
  8
10
  6
CONTINUOUS
100
AcDbLine
 10
-69.99999999999997
 20
129.9999999999989
 30
0.0
 11
115.0
 21
129.9999999999989
 31
0.0
  0
DIMENSION
  5
8807
330
1E
100
AcDbEntity
  8
30
  6
CONTINUOUS
100
AcDbDimension
  2
*D25
 10
-120.9317721970335
 20
239.9999999999999
 30
0.0
 11
-123.9317721970335
 21
184.9999999999999
 31
0.0
 70
    32
  3
STANDARD
100
AcDbAlignedDimension
 13
-70.0
 23
130.0
 33
0.0
 14
-20.5
 24
239.9999999999999
 34
0.0
 50
90.0
100
AcDbRotatedDimension
1001
ACAD
1000
DSTYLE
1002
{
1070
    79
1070
     3
1002
}
  0
DIMENSION
  5
882F
330
1E
100
AcDbEntity
  8
30
  6
CONTINUOUS
100
AcDbDimension
  2
*D26
 10
115.0
 20
-164.4538407233292
 30
0.0
 11
22.5
 21
-161.4538407233292
 31
0.0
 70
    32
  3
STANDARD
100
AcDbAlignedDimension
 13
-70.0
 23
-130.0
 33
0.0
 14
115.0
 24
-130.0
 34
0.0
100
AcDbRotatedDimension
1001
ACAD
1000
DSTYLE
1002
{
1070
    79
1070
     3
1002
}
  0
DIMENSION
  5
883C
330
1E
100
AcDbEntity
  8
30
  6
CONTINUOUS
100
AcDbDimension
  2
*D27
 10
-0.0000000000000012
 20
-142.9326664853055
 30
0.0
 11
-22.5
 21
-139.9326664853056
 31
0.0
 70
    32
  3
STANDARD
100
AcDbAlignedDimension
 13
-45.0
 23
-121.9999999999999
 33
0.0
 14
0.0
 24
-122.9999999999999
 34
0.0
100
AcDbRotatedDimension
1001
ACAD
1000
DSTYLE
1002
{
1070
    79
1070
     3
1002
}
  0
DIMENSION
  5
8849
330
1E
100
AcDbEntity
  8
30
  6
CONTINUOUS
100
AcDbDimension
  2
*D28
 10
45.0
 20
-142.9326664853055
 30
0.0
 11
22.5
 21
-139.9326664853055
 31
0.0
 70
    32
  3
STANDARD
100
AcDbAlignedDimension
 13
0.0
 23
-122.9999999999999
 33
0.0
 14
45.0
 24
-122.9999999999999
 34
0.0
100
AcDbRotatedDimension
1001
ACAD
1000
DSTYLE
1002
{
1070
   287
1070
     4
1070
   287
1070
     4
1070
   287
1070
     4
1070
   287
1070
     4
1070
   279
1070
     1
1070
    79
1070
     3
1002
}
  0
DIMENSION
  5
8856
330
1E
100
AcDbEntity
  8
30
  6
CONTINUOUS
100
AcDbDimension
  2
*D29
 10
90.0
 20
-142.9326664853055
 30
0.0
 11
67.5
 21
-139.9326664853055
 31
0.0
 70
    32
  3
STANDARD
100
AcDbAlignedDimension
 13
45.0
 23
-122.9999999999999
 33
0.0
 14
90.0
 24
-122.9999999999999
 34
0.0
100
AcDbRotatedDimension
1001
ACAD
1000
DSTYLE
1002
{
1070
   287
1070
     4
1070
   287
1070
     4
1070
   287
1070
     4
1070
   287
1070
     4
1070
   279
1070
     1
1070
    79
1070
     3
1002
}
  0
LWPOLYLINE
  5
8888
330
1E
100
AcDbEntity
  8
10
  6
CONTINOUS
100
AcDbPolyline
 90
        4
 70
     0
 43
0.0
 10
75.86574955133994
 20
355.5035127281199
 10
75.86574955133992
 20
299.4369478956378
 10
103.8657495513399
 20
299.4369478956378
 10
103.8657495513399
 20
355.5035127281199
  0
LINE
  5
8889
330
1E
100
AcDbEntity
  8
24
  6
CONTINOUS
100
AcDbLine
 10
75.86574955133994
 20
357.5035127281199
 30
0.0
 11
103.8657495513399
 21
357.5035127281199
 31
0.0
  0
LWPOLYLINE
  5
888A
330
1E
100
AcDbEntity
  8
24
  6
CONTINOUS
100
AcDbPolyline
 90
        2
 70
     0
 43
0.001
 10
75.86574955133994
 20
354.4369478956378
 10
103.8657495513399
 20
354.4369478956378
  0
LINE
  5
888B
330
1E
100
AcDbEntity
  8
17
  6
DASHDOT
100
AcDbLine
 10
102.359375
 20
357.5035127281199
 30
0.0
 11
77.640625
 21
357.5035127281199
 31
0.0
  0
LINE
  5
888C
330
1E
100
AcDbEntity
  8
17
  6
DASHDOT
100
AcDbLine
 10
102.6657983794396
 20
357.5035127281199
 30
0.0
 11
77.66579837943993
 21
357.5035127281199
 31
0.0
  0
LINE
  5
888D
330
1E
100
AcDbEntity
  8
24
  6
CONTINOUS
100
AcDbLine
 10
80.66574955133992
 20
351.9369478956378
 30
0.0
 11
99.06574955133988
 21
351.9369478956378
 31
0.0
  0
LINE
  5
888E
330
1E
100
AcDbEntity
  8
24
  6
CONTINOUS
100
AcDbLine
 10
80.96574955133995
 20
345.5369478956378
 30
0.0
 11
98.76574955133989
 21
345.5369478956378
 31
0.0
  0
LWPOLYLINE
  5
888F
330
1E
100
AcDbEntity
  8
24
  6
CONTINOUS
100
AcDbPolyline
 90
        2
 70
     0
 43
0.001
 10
75.86574955133994
 20
357.5035127281199
 10
75.86574955133994
 20
354.4369478956378
  0
LINE
  5
8890
330
1E
100
AcDbEntity
  8
24
  6
CONTINOUS
100
AcDbLine
 10
80.66574955133992
 20
351.9369478956378
 30
0.0
 11
80.66574955133992
 21
354.4369478956378
 31
0.0
  0
LINE
  5
8891
330
1E
100
AcDbEntity
  8
24
  6
CONTINOUS
100
AcDbLine
 10
80.96574955133995
 20
345.5369478956378
 30
0.0
 11
80.96574955133995
 21
351.9369478956378
 31
0.0
  0
LINE
  5
8892
330
1E
100
AcDbEntity
  8
24
  6
CONTINOUS
100
AcDbLine
 10
93.90204837943995
 20
357.5035127281199
 30
0.0
 11
86.42954837943989
 21
357.5035127281199
 31
0.0
  0
LINE
  5
8893
330
1E
100
AcDbEntity
  8
24
  6
CONTINOUS
100
AcDbLine
 10
84.1827394220172
 20
357.5035127281199
 30
0.0
 11
84.1827394220172
 21
354.4369478956378
 31
0.0
  0
LINE
  5
8894
330
1E
100
AcDbEntity
  8
24
  6
CONTINOUS
100
AcDbLine
 10
95.81726057798276
 20
357.5035127281199
 30
0.0
 11
95.81726057798276
 21
354.4369478956378
 31
0.0
  0
LINE
  5
8895
330
1E
100
AcDbEntity
  8
24
  6
CONTINOUS
100
AcDbLine
 10
99.06574955133988
 20
351.9369478956378
 30
0.0
 11
99.06574955133988
 21
354.4369478956378
 31
0.0
  0
LINE
  5
8896
330
1E
100
AcDbEntity
  8
24
  6
CONTINOUS
100
AcDbLine
 10
98.76574955133989
 20
345.5369478956378
 30
0.0
 11
98.76574955133989
 21
351.9369478956378
 31
0.0
  0
LWPOLYLINE
  5
8897
330
1E
100
AcDbEntity
  8
24
  6
CONTINOUS
100
AcDbPolyline
 90
        2
 70
     0
 43
0.001
 10
103.8657495513399
 20
357.5035127281199
 10
103.8657495513399
 20
354.4369478956378
  0
DIMENSION
  5
88A1
330
1E
100
AcDbEntity
  8
30
  6
CONTINUOUS
100
AcDbDimension
  2
*D30
 10
90.0
 20
405.251144283447
 30
0.0
 11
67.49998969776277
 21
408.251144283447
 31
0.0
 70
    32
  3
STANDARD
100
AcDbAlignedDimension
 13
44.99997939552556
 23
360.5189316457162
 33
0.0
 14
90.0
 24
354.4369478956378
 34
0.0
100
AcDbRotatedDimension
1001
ACAD
1000
DSTYLE
1002
{
1070
   287
1070
     4
1070
   287
1070
     4
1070
   287
1070
     4
1070
   287
1070
     4
1070
   287
1070
     4
1070
   287
1070
     4
1070
   287
1070
     4
1070
   287
1070
     4
1070
   287
1070
     4
1070
   279
1070
     1
1070
    79
1070
     3
1002
}
  0
DIMENSION
  5
88B7
330
1E
100
AcDbEntity
  8
30
  6
CONTINUOUS
100
AcDbDimension
  2
*D31
 10
115.0
 20
405.251144283447
 30
0.0
 11
102.4999999999999
 21
408.251144283447
 31
0.0
 70
    32
  3
STANDARD
100
AcDbAlignedDimension
 13
90.0
 23
390.4369478956378
 33
0.0
 14
115.0
 24
390.4369478956378
 34
0.0
100
AcDbRotatedDimension
1001
ACAD
1000
DSTYLE
1002
{
1070
    79
1070
     3
1002
}
  0
LINE
  5
8B37
330
1E
100
AcDbEntity
  8
10
  6
CONTINUOUS
100
AcDbLine
 10
36.5
 20
-24.0
 30
0.0
 11
44.5
 21
-24.0
 31
0.0
  0
LINE
  5
8B38
330
1E
100
AcDbEntity
  8
10
  6
CONTINUOUS
100
AcDbLine
 10
36.5
 20
-29.0
 30
0.0
 11
44.5
 21
-29.0
 31
0.0
  0
LINE
  5
8B39
330
1E
100
AcDbEntity
  8
10
  6
CONTINUOUS
100
AcDbLine
 10
36.5
 20
-26.0
 30
0.0
 11
44.5
 21
-26.0
 31
0.0
  0
LINE
  5
8B3A
330
1E
100
AcDbEntity
  8
10
  6
CONTINUOUS
100
AcDbLine
 10
36.5
 20
-21.0
 30
0.0
 11
44.5
 21
-21.0
 31
0.0
  0
LINE
  5
8B3B
330
1E
100
AcDbEntity
  8
10
  6
CONTINUOUS
100
AcDbLine
 10
36.5
 20
-21.0
 30
0.0
 11
36.5
 21
-24.0
 31
0.0
  0
LINE
  5
8B3C
330
1E
100
AcDbEntity
  8
10
  6
CONTINUOUS
100
AcDbLine
 10
36.5
 20
-26.0
 30
0.0
 11
36.5
 21
-29.0
 31
0.0
  0
LINE
  5
8B3D
330
1E
100
AcDbEntity
  8
10
  6
CONTINUOUS
100
AcDbLine
 10
44.5
 20
-21.0
 30
0.0
 11
44.5
 21
-24.0
 31
0.0
  0
LINE
  5
8B3E
330
1E
100
AcDbEntity
  8
10
  6
CONTINUOUS
100
AcDbLine
 10
44.5
 20
-26.0
 30
0.0
 11
44.5
 21
-29.0
 31
0.0
  0
CIRCLE
  5
8B3F
330
1E
100
AcDbEntity
  8
10
  6
CONTINUOUS
100
AcDbCircle
 10
40.49999999999999
 20
8.0
 30
0.0
 40
5.0
  0
CIRCLE
  5
8B40
330
1E
100
AcDbEntity
  8
10
  6
CONTINUOUS
100
AcDbCircle
 10
40.49999999999999
 20
8.0
 30
0.0
 40
3.5
  0
CIRCLE
  5
8B41
330
1E
100
AcDbEntity
  8
10
  6
CONTINUOUS
100
AcDbCircle
 10
40.49999999999999
 20
-7.0
 30
0.0
 40
3.5
  0
CIRCLE
  5
8B42
330
1E
100
AcDbEntity
  8
10
  6
CONTINUOUS
100
AcDbCircle
 10
40.94999999999993
 20
20.0
 30
0.0
 40
1.5
  0
LINE
  5
8B43
330
1E
100
AcDbEntity
  8
18
100
AcDbLine
 10
150.0
 20
-12.5
 30
0.0
 11
160.0
 21
-12.5
 31
0.0
  0
LINE
  5
8B44
330
1E
100
AcDbEntity
  8
18
100
AcDbLine
 10
150.0
 20
-20.5
 30
0.0
 11
160.0
 21
-20.5
 31
0.0
  0
LINE
  5
8B45
330
1E
100
AcDbEntity
  8
18
100
AcDbLine
 10
150.0
 20
-25.5
 30
0.0
 11
160.0
 21
-25.5
 31
0.0
  0
LINE
  5
8B46
330
1E
100
AcDbEntity
  8
18
100
AcDbLine
 10
150.0
 20
-17.5
 30
0.0
 11
160.0
 21
-17.5
 31
0.0
  0
LINE
  5
8B47
330
1E
100
AcDbEntity
  8
18
100
AcDbLine
 10
150.0
 20
-33.5
 30
0.0
 11
160.0
 21
-33.5
 31
0.0
  0
LINE
  5
8B48
330
1E
100
AcDbEntity
  8
18
100
AcDbLine
 10
150.0
 20
-28.5
 30
0.0
 11
160.0
 21
-28.5
 31
0.0
  0
LINE
  5
8B49
330
1E
100
AcDbEntity
  8
18
100
AcDbLine
 10
69.99999999999997
 20
-33.5
 30
0.0
 11
130.0
 21
-33.5
 31
0.0
  0
LINE
  5
8B4A
330
1E
100
AcDbEntity
  8
18
100
AcDbLine
 10
69.99999999999997
 20
-17.5
 30
0.0
 11
130.0
 21
-17.5
 31
0.0
  0
LINE
  5
8B4B
330
1E
100
AcDbEntity
  8
18
100
AcDbLine
 10
69.99999999999997
 20
-12.5
 30
0.0
 11
130.0
 21
-12.5
 31
0.0
  0
LINE
  5
8B4C
330
1E
100
AcDbEntity
  8
18
100
AcDbLine
 10
69.99999999999997
 20
-20.5
 30
0.0
 11
130.0
 21
-20.5
 31
0.0
  0
LINE
  5
8B4D
330
1E
100
AcDbEntity
  8
18
100
AcDbLine
 10
69.99999999999997
 20
-28.5
 30
0.0
 11
130.0
 21
-28.5
 31
0.0
  0
LINE
  5
8B4E
330
1E
100
AcDbEntity
  8
18
100
AcDbLine
 10
69.99999999999997
 20
-25.5
 30
0.0
 11
130.0
 21
-25.5
 31
0.0
  0
LINE
  5
8B4F
330
1E
100
AcDbEntity
  8
18
100
AcDbLine
 10
150.0
 20
-35.0
 30
0.0
 11
150.0
 21
-11.0
 31
0.0
  0
LINE
  5
8B50
330
1E
100
AcDbEntity
  8
18
100
AcDbLine
 10
130.0
 20
-35.0
 30
0.0
 11
130.0
 21
-11.0
 31
0.0
  0
LINE
  5
8B51
330
1E
100
AcDbEntity
  8
18
100
AcDbLine
 10
130.0
 20
-35.0
 30
0.0
 11
150.0
 21
-35.0
 31
0.0
  0
LINE
  5
8B52
330
1E
100
AcDbEntity
  8
18
100
AcDbLine
 10
130.0
 20
-27.0
 30
0.0
 11
150.0
 21
-27.0
 31
0.0
  0
LINE
  5
8B53
330
1E
100
AcDbEntity
  8
18
100
AcDbLine
 10
130.0
 20
-19.0
 30
0.0
 11
150.0
 21
-19.0
 31
0.0
  0
LINE
  5
8B54
330
1E
100
AcDbEntity
  8
18
100
AcDbLine
 10
130.0
 20
-11.0
 30
0.0
 11
150.0
 21
-11.0
 31
0.0
  0
LINE
  5
8B55
330
1E
100
AcDbEntity
  8
18
100
AcDbLine
 10
160.0
 20
-32.5
 30
0.0
 11
170.0
 21
-32.5
 31
0.0
  0
LINE
  5
8B56
330
1E
100
AcDbEntity
  8
18
100
AcDbLine
 10
160.0
 20
-21.49999999999999
 30
0.0
 11
170.0
 21
-21.49999999999999
 31
0.0
  0
LINE
  5
8B57
330
1E
100
AcDbEntity
  8
18
100
AcDbLine
 10
160.0
 20
-29.5
 30
0.0
 11
170.0
 21
-29.5
 31
0.0
  0
LINE
  5
8B58
330
1E
100
AcDbEntity
  8
18
100
AcDbLine
 10
160.0
 20
-24.5
 30
0.0
 11
170.0
 21
-24.5
 31
0.0
  0
LINE
  5
8B59
330
1E
100
AcDbEntity
  8
18
100
AcDbLine
 10
160.0
 20
-25.5
 30
0.0
 11
160.0
 21
-20.5
 31
0.0
  0
LINE
  5
8B5A
330
1E
100
AcDbEntity
  8
18
100
AcDbLine
 10
160.0
 20
-33.5
 30
0.0
 11
160.0
 21
-28.5
 31
0.0
  0
LINE
  5
8B5B
330
1E
100
AcDbEntity
  8
18
100
AcDbLine
 10
170.0
 20
-24.5
 30
0.0
 11
170.0
 21
-21.49999999999999
 31
0.0
  0
LINE
  5
8B5C
330
1E
100
AcDbEntity
  8
18
100
AcDbLine
 10
170.0
 20
-32.5
 30
0.0
 11
170.0
 21
-29.5
 31
0.0
  0
LINE
  5
8B5D
330
1E
100
AcDbEntity
  8
18
100
AcDbLine
 10
160.0
 20
-13.5
 30
0.0
 11
170.0
 21
-13.5
 31
0.0
  0
LINE
  5
8B5E
330
1E
100
AcDbEntity
  8
18
100
AcDbLine
 10
160.0
 20
-16.5
 30
0.0
 11
170.0
 21
-16.5
 31
0.0
  0
LINE
  5
8B5F
330
1E
100
AcDbEntity
  8
18
100
AcDbLine
 10
160.0
 20
-17.5
 30
0.0
 11
160.0
 21
-12.5
 31
0.0
  0
LINE
  5
8B60
330
1E
100
AcDbEntity
  8
18
100
AcDbLine
 10
170.0
 20
-16.5
 30
0.0
 11
170.0
 21
-13.5
 31
0.0
  0
VIEWPORT
  5
9AC
330
1A
100
AcDbEntity
 67
     1
  8
0
  6
CONTINUOUS
100
AcDbViewport
 10
171.999535
 20
144.1384739999999
 30
0.0
 40
488.867686
 41
292.351491
 68
    -1
 69
     1
1001
ACAD
1000
MVIEW
1002
{
1070
    16
1010
0.0
1020
0.0
1030
0.0
1010
0.0
1020
0.0
1030
1.0
1040
0.0
1040
292.351491
1040
171.999535
1040
144.1384739999999
1040
50.0
1040
0.0
1040
0.0
1070
     0
1070
   100
1070
     1
1070
     1
1070
     0
1070
     0
1070
     0
1070
     0
1040
0.0
1040
0.0
1040
0.0
1040
10.0
1040
10.0
1040
10.0
1040
10.0
1070
     0
1002
{
1002
}
1002
}
  0
ENDSEC
  0
SECTION
  2
OBJECTS
  0
DICTIONARY
  5
C
330
0
100
AcDbDictionary
  3
ACAD_GROUP
350
D
  3
ACAD_LAYOUT
350
19
  3
ACAD_MLINESTYLE
350
16
  3
ACAD_PLOTSETTINGS
350
18
  3
ACAD_PLOTSTYLENAME
350
E
  3
ACADDIM
350
6D5E
  3
ACDBHEADERROUNDTRIPXREC
350
8BBC
  3
ACDBVARIABLEDICTIONARY
350
5697
  0
DICTIONARY
  5
178
330
1E
100
AcDbDictionary
280
     1
  3
ACAD_LAYOUTSELFREF
360
8BDE
  0
DICTIONARY
  5
17A
330
1A
100
AcDbDictionary
280
     1
  3
ACAD_LAYOUTSELFREF
360
8BDD
  0
DICTIONARY
  5
D
102
{ACAD_REACTORS
330
C
102
}
330
C
100
AcDbDictionary
  0
DICTIONARY
  5
19
102
{ACAD_REACTORS
330
C
102
}
330
C
100
AcDbDictionary
  0
DICTIONARY
  5
16
102
{ACAD_REACTORS
330
C
102
}
330
C
100
AcDbDictionary
  3
STANDARD
350
17
  0
DICTIONARY
  5
18
102
{ACAD_REACTORS
330
C
102
}
330
C
100
AcDbDictionary
  0
ACDBDICTIONARYWDFLT
  5
E
102
{ACAD_REACTORS
330
C
102
}
330
C
100
AcDbDictionary
281
     1
  3
Normal
350
F
100
AcDbDictionaryWithDefault
340
F
  0
XRECORD
  5
6D5E
102
{ACAD_REACTORS
330
C
102
}
330
C
100
AcDbXrecord
 90
   990106
  3

 60
     0
 61
     0
 62
     1
 63
     3
 64
     0
 65
     0
 66
     0
 67
     3
 68
     1
 69
     0
 70
     0
 71
     0
 72
     0
 40
0.0
170
     0
340
7CA9
  0
DICTIONARY
  5
8BBC
102
{ACAD_REACTORS
330
C
102
}
330
C
100
AcDbDictionary
  3
CEPSNTYPE
350
8BC6
  3
DIMSTYLEDATA
350
8BCA
  3
FINGERPRINTGUID
350
8BC7
  3
HYPERLINKBASE
350
8BBF
  3
INSUNITS
350
8BC5
  3
LAYOUTDICT
350
8BC1
  3
LWETCUNION
350
8BC4
  3
PLOTSETDICT
350
8BC2
  3
PLOTSTYLNAMDICT
350
8BC3
  3
PSVPSCALE
350
8BC9
  3
PUCSBASE
350
8BCD
  3
PUCSORGBACK
350
8BD3
  3
PUCSORGBOTTOM
350
8BCF
  3
PUCSORGFRONT
350
8BD2
  3
PUCSORGLEFT
350
8BD0
  3
PUCSORGRIGHT
350
8BD1
  3
PUCSORGTOP
350
8BCE
  3
PUCSORTHOREF
350
8BCB
  3
PUCSORTHOVIEW
350
8BCC
  3
STYLESHEET
350
8BC0
  3
TSTACKALIGN
350
8BBD
  3
TSTACKSIZE
350
8BBE
  3
UCSBASE
350
8BD6
  3
UCSORGBACK
350
8BDC
  3
UCSORGBOTTOM
350
8BD8
  3
UCSORGFRONT
350
8BDB
  3
UCSORGLEFT
350
8BD9
  3
UCSORGRIGHT
350
8BDA
  3
UCSORGTOP
350
8BD7
  3
UCSORTHOREF
350
8BD4
  3
UCSORTHOVIEW
350
8BD5
  3
VERSIONGUID
350
8BC8
  0
DICTIONARY
  5
5697
102
{ACAD_REACTORS
330
C
102
}
330
C
100
AcDbDictionary
  3
DIMASSOC
350
5698
  0
XRECORD
  5
8BDE
102
{ACAD_REACTORS
330
178
102
}
330
178
100
AcDbXrecord
340
1E
  0
XRECORD
  5
8BDD
102
{ACAD_REACTORS
330
17A
102
}
330
17A
100
AcDbXrecord
340
1A
  0
MLINESTYLE
  5
17
102
{ACAD_REACTORS
330
16
102
}
330
16
100
AcDbMlineStyle
  2
STANDARD
 70
     0
  3

 62
   256
 51
90.0
 52
90.0
 71
     2
 49
0.5
 62
   256
  6
BYLAYER
 49
-0.5
 62
   256
  6
BYLAYER
  0
ACDBPLACEHOLDER
  5
F
102
{ACAD_REACTORS
330
E
102
}
330
E
100
AcDbPlaceHolder
280
     0
  0
XRECORD
  5
8BC6
102
{ACAD_REACTORS
330
8BBC
102
}
330
8BBC
100
AcDbXrecord
 90
        0
  0
XRECORD
  5
8BCA
102
{ACAD_REACTORS
330
8BBC
102
}
330
8BBC
100
AcDbXrecord
1000
DSTYLE
1002
{
1070
    79
 70
     3
1070
   341
340
3B2
1070
   342
340
3B2
1002
}
  0
XRECORD
  5
8BC7
102
{ACAD_REACTORS
330
8BBC
102
}
330
8BBC
100
AcDbXrecord
  1

  0
XRECORD
  5
8BBF
102
{ACAD_REACTORS
330
8BBC
102
}
330
8BBC
100
AcDbXrecord
  1

  0
XRECORD
  5
8BC5
102
{ACAD_REACTORS
330
8BBC
102
}
330
8BBC
100
AcDbXrecord
 90
        0
  0
XRECORD
  5
8BC1
102
{ACAD_REACTORS
330
8BBC
102
}
330
8BBC
100
AcDbXrecord
340
19
  0
XRECORD
  5
8BC4
102
{ACAD_REACTORS
330
8BBC
102
}
330
8BBC
100
AcDbXrecord
 90
    10781
  0
XRECORD
  5
8BC2
102
{ACAD_REACTORS
330
8BBC
102
}
330
8BBC
100
AcDbXrecord
340
18
  0
XRECORD
  5
8BC3
102
{ACAD_REACTORS
330
8BBC
102
}
330
8BBC
100
AcDbXrecord
340
E
  0
XRECORD
  5
8BC9
102
{ACAD_REACTORS
330
8BBC
102
}
330
8BBC
100
AcDbXrecord
 40
0.0
  0
XRECORD
  5
8BCD
102
{ACAD_REACTORS
330
8BBC
102
}
330
8BBC
100
AcDbXrecord
340
0
  0
XRECORD
  5
8BD3
102
{ACAD_REACTORS
330
8BBC
102
}
330
8BBC
100
AcDbXrecord
 10
0.0
 20
0.0
 30
0.0
  0
XRECORD
  5
8BCF
102
{ACAD_REACTORS
330
8BBC
102
}
330
8BBC
100
AcDbXrecord
 10
0.0
 20
0.0
 30
0.0
  0
XRECORD
  5
8BD2
102
{ACAD_REACTORS
330
8BBC
102
}
330
8BBC
100
AcDbXrecord
 10
0.0
 20
0.0
 30
0.0
  0
XRECORD
  5
8BD0
102
{ACAD_REACTORS
330
8BBC
102
}
330
8BBC
100
AcDbXrecord
 10
0.0
 20
0.0
 30
0.0
  0
XRECORD
  5
8BD1
102
{ACAD_REACTORS
330
8BBC
102
}
330
8BBC
100
AcDbXrecord
 10
0.0
 20
0.0
 30
0.0
  0
XRECORD
  5
8BCE
102
{ACAD_REACTORS
330
8BBC
102
}
330
8BBC
100
AcDbXrecord
 10
0.0
 20
0.0
 30
0.0
  0
XRECORD
  5
8BCB
102
{ACAD_REACTORS
330
8BBC
102
}
330
8BBC
100
AcDbXrecord
340
0
  0
XRECORD
  5
8BCC
102
{ACAD_REACTORS
330
8BBC
102
}
330
8BBC
100
AcDbXrecord
 70
     0
  0
XRECORD
  5
8BC0
102
{ACAD_REACTORS
330
8BBC
102
}
330
8BBC
100
AcDbXrecord
  1
kiki.ctb
  0
XRECORD
  5
8BBD
102
{ACAD_REACTORS
330
8BBC
102
}
330
8BBC
100
AcDbXrecord
 90
        1
  0
XRECORD
  5
8BBE
102
{ACAD_REACTORS
330
8BBC
102
}
330
8BBC
100
AcDbXrecord
 90
       70
  0
XRECORD
  5
8BD6
102
{ACAD_REACTORS
330
8BBC
102
}
330
8BBC
100
AcDbXrecord
340
0
  0
XRECORD
  5
8BDC
102
{ACAD_REACTORS
330
8BBC
102
}
330
8BBC
100
AcDbXrecord
 10
0.0
 20
0.0
 30
0.0
  0
XRECORD
  5
8BD8
102
{ACAD_REACTORS
330
8BBC
102
}
330
8BBC
100
AcDbXrecord
 10
0.0
 20
0.0
 30
0.0
  0
XRECORD
  5
8BDB
102
{ACAD_REACTORS
330
8BBC
102
}
330
8BBC
100
AcDbXrecord
 10
0.0
 20
0.0
 30
0.0
  0
XRECORD
  5
8BD9
102
{ACAD_REACTORS
330
8BBC
102
}
330
8BBC
100
AcDbXrecord
 10
0.0
 20
0.0
 30
0.0
  0
XRECORD
  5
8BDA
102
{ACAD_REACTORS
330
8BBC
102
}
330
8BBC
100
AcDbXrecord
 10
0.0
 20
0.0
 30
0.0
  0
XRECORD
  5
8BD7
102
{ACAD_REACTORS
330
8BBC
102
}
330
8BBC
100
AcDbXrecord
 10
0.0
 20
0.0
 30
0.0
  0
XRECORD
  5
8BD4
102
{ACAD_REACTORS
330
8BBC
102
}
330
8BBC
100
AcDbXrecord
340
0
  0
XRECORD
  5
8BD5
102
{ACAD_REACTORS
330
8BBC
102
}
330
8BBC
100
AcDbXrecord
 70
     0
  0
XRECORD
  5
8BC8
102
{ACAD_REACTORS
330
8BBC
102
}
330
8BBC
100
AcDbXrecord
  1
{750DD46B-C0EA-4600-83E6-A09F10C69F32}
  0
DICTIONARYVAR
  5
5698
102
{ACAD_REACTORS
330
5697
102
}
330
5697
100
DictionaryVariables
280
     0
  1
1
  0
ENDSEC
  0
EOF
